  0
SECTION
  2
HEADER
  9
$ACADVER
  1
AC1021
  9
$DWGCODEPAGE
  3
ANSI_1252
  9
$EXTMAX
 10
297.0
 20
210.0
 30
0.0
  9
$EXTMIN
 10
0.0
 20
0.0
 30
0.0
  9
$LIMMIN
 10
0.0
 20
0.0
  9
$LIMMAX
 10
297.0
 20
210.0
  9
$VIEWCTR
 10
148.5
 20
105.0
  9
$VIEWSIZE
 40
210.0
  9
$CLAYER
  8
0
  9
$LTSCALE
 40
16.335
  9
$CELTYPE
  6
BYLAYER
  9
$DIMSCALE
 40
1.0
  9
$DIMASZ
 40
3.0
  9
$DIMEXO
 40
0.5
  9
$DIMDLI
 40
11.286
  9
$DIMEXE
 40
1.5
  9
$DIMCEN
 40
2.673
  9
$DIMLFAC
 40
1.0
  9
$DIMBLK
  1
_FILLED
  9
$DIMALT
 70
0
  9
$DIMALTF
 40
25.4
  9
$DIMTXT
 40
3.0
  9
$DIMTOL
 70
1
  9
$DIMLIM
 70
0
  9
$DIMTFAC
 40
1.0
  9
$DIMTP
 40
0.01
  9
$DIMTM
 40
0.01
  9
$DIMGAP
 40
0.625
  9
$DIMDSEP
 70
44
  9
$AUNITS
 70
0
  9
$PDMODE
 70
3
  9
$PDSIZE
 40
3.0
  9
$HANDSEED
  5
3A2
  9
$TILEMODE
 70
1
  9
$MEASUREMENT
 70
1
  9
$INSUNITS
 70
4
  0
ENDSEC
  0
SECTION
  2
CLASSES
  0
CLASS
  1
ACDBDICTIONARYWDFLT
  2
AcDbDictionaryWithDefault
  3
AutoCAD 2000
 90
0
 91
1
280
0
281
0
  0
CLASS
  1
ACDBPLACEHOLDER
  2
AcDbPlaceHolder
  3
AutoCAD 2000
 90
0
 91
1
280
0
281
0
  0
CLASS
  1
LAYOUT
  2
AcDbLayout
  3
AutoCAD 2000
 90
0
 91
0
280
0
281
0
  0
ENDSEC
  0
SECTION
  2
TABLES
  0
TABLE
  2
VPORT
  5
8
100
AcDbSymbolTable
 70
2
  0
VPORT
  5
1F4
100
AcDbSymbolTableRecord
100
AcDbViewportTableRecord
  2
*ACTIVE
 70
0
 10
0.0
 20
0.0
 11
1.0
 21
1.0
 12
148.5
 22
105.0
 13
0.0
 23
0.0
 14
1.0
 24
1.0
 15
0.0
 25
0.0
 16
0.0
 26
0.0
 36
1.0
 17
0.0
 27
0.0
 37
0.0
 40
210.0
 41
1.4142857143
 42
50.0
 43
0.0
 44
0.0
 50
0.0
 51
0.0
 71
0
 72
100
 73
1
 74
1
 75
0
 76
0
 77
0
 78
0
  0
ENDTAB
  0
TABLE
  2
LTYPE
  5
5
100
AcDbSymbolTable
 70
6
  0
LTYPE
  5
14
100
AcDbSymbolTableRecord
100
AcDbLinetypeTableRecord
  2
BYBLOCK
 70
0
  3

 72
65
 73
0
 40
0.0
  0
LTYPE
  5
15
100
AcDbSymbolTableRecord
100
AcDbLinetypeTableRecord
  2
BYLAYER
 70
0
  3

 72
65
 73
0
 40
0.0
  0
LTYPE
  5
16
100
AcDbSymbolTableRecord
100
AcDbLinetypeTableRecord
  2
CONTINUOUS
 70
64
  3
Solid line
 72
65
 73
0
 40
0.0
  0
LTYPE
  5
1F5
100
AcDbSymbolTableRecord
100
AcDbLinetypeTableRecord
  2
CENTER
 70
64
  3
____ _ ____ _ ____ _ ____ _ ____ _ ____ _ ____
 72
65
 73
4
 40
0.6
 49
0.375
 74
0
 49
-0.075
 74
0
 49
0.075
 74
0
 49
-0.075
 74
0
  0
LTYPE
  5
1F6
100
AcDbSymbolTableRecord
100
AcDbLinetypeTableRecord
  2
HIDDEN
 70
64
  3
- - - - - - - - - - - - - - - - - - - -
 72
65
 73
2
 40
0.2
 49
0.1
 74
0
 49
-0.1
 74
0
  0
LTYPE
  5
1F7
100
AcDbSymbolTableRecord
100
AcDbLinetypeTableRecord
  2
PHANTOM
 70
64
  3
_____ _ _ _____ _ _ _____ _ _ _____
 72
65
 73
6
 40
0.8
 49
0.45
 74
0
 49
-0.05
 74
0
 49
0.1
 74
0
 49
-0.05
 74
0
 49
0.1
 74
0
 49
-0.05
 74
0
  0
LTYPE
  5
1F8
100
AcDbSymbolTableRecord
100
AcDbLinetypeTableRecord
  2
DOT
 70
64
  3
. . . . . . . . . . . . . . . . . . . .
 72
65
 73
2
 40
0.2
 49
0.1
 74
0
 49
-0.1
 74
0
  0
LTYPE
  5
1F9
100
AcDbSymbolTableRecord
100
AcDbLinetypeTableRecord
  2
DASHED
 70
64
  3
- - - - - - - - - - - - - - - - - - - -
 72
65
 73
2
 40
0.2
 49
0.1
 74
0
 49
-0.1
 74
0
  0
ENDTAB
  0
TABLE
  2
LAYER
  5
2
100
AcDbSymbolTable
 70
36
  0
LAYER
  5
10
100
AcDbSymbolTableRecord
100
AcDbLayerTableRecord
  2
0
 70
0
 62
7
  6
CONTINUOUS
370
-3
390
F
  0
LAYER
  5
1FA
100
AcDbSymbolTableRecord
100
AcDbLayerTableRecord
  2
DEFAULT_1
 70
0
 62
7
  6
CENTER
370
-3
390
F
  0
LAYER
  5
1FB
100
AcDbSymbolTableRecord
100
AcDbLayerTableRecord
  2
DEFAULT_2
 70
0
 62
7
  6
HIDDEN
370
-3
390
F
  0
LAYER
  5
1FC
100
AcDbSymbolTableRecord
100
AcDbLayerTableRecord
  2
DEFAULT_3
 70
0
 62
7
  6
PHANTOM
370
-3
390
F
  0
LAYER
  5
1FD
100
AcDbSymbolTableRecord
100
AcDbLayerTableRecord
  2
ASSI
 70
0
 62
7
  6
CONTINUOUS
370
-3
390
F
  0
LAYER
  5
1FE
100
AcDbSymbolTableRecord
100
AcDbLayerTableRecord
  2
COORDINATE
 70
0
 62
7
  6
CONTINUOUS
370
-3
390
F
  0
LAYER
  5
1FF
100
AcDbSymbolTableRecord
100
AcDbLayerTableRecord
  2
COORD_ORIGINE
 70
0
 62
7
  6
CONTINUOUS
370
-3
390
F
  0
LAYER
  5
200
100
AcDbSymbolTableRecord
100
AcDbLayerTableRecord
  2
COPY_PUBLISH
 70
0
 62
7
  6
CONTINUOUS
370
-3
390
F
  0
LAYER
  5
201
100
AcDbSymbolTableRecord
100
AcDbLayerTableRecord
  2
COSMETIC
 70
0
 62
7
  6
CONTINUOUS
370
-3
390
F
  0
LAYER
  5
202
100
AcDbSymbolTableRecord
100
AcDbLayerTableRecord
  2
COSMETICI
 70
0
 62
7
  6
CONTINUOUS
370
-3
390
F
  0
LAYER
  5
203
100
AcDbSymbolTableRecord
100
AcDbLayerTableRecord
  2
CURVE
 70
0
 62
7
  6
CONTINUOUS
370
-3
390
F
  0
LAYER
  5
204
100
AcDbSymbolTableRecord
100
AcDbLayerTableRecord
  2
DRAFT
 70
0
 62
7
  6
CONTINUOUS
370
-3
390
F
  0
LAYER
  5
205
100
AcDbSymbolTableRecord
100
AcDbLayerTableRecord
  2
IGES
 70
0
 62
7
  6
CONTINUOUS
370
-3
390
F
  0
LAYER
  5
206
100
AcDbSymbolTableRecord
100
AcDbLayerTableRecord
  2
IMPORT_IGES
 70
0
 62
7
  6
CONTINUOUS
370
-3
390
F
  0
LAYER
  5
207
100
AcDbSymbolTableRecord
100
AcDbLayerTableRecord
  2
LIVELLO_1
 70
0
 62
7
  6
CONTINUOUS
370
-3
390
F
  0
LAYER
  5
208
100
AcDbSymbolTableRecord
100
AcDbLayerTableRecord
  2
NOTE
 70
0
 62
7
  6
CONTINUOUS
370
-3
390
F
  0
LAYER
  5
209
100
AcDbSymbolTableRecord
100
AcDbLayerTableRecord
  2
PIANI
 70
0
 62
7
  6
CONTINUOUS
370
-3
390
F
  0
LAYER
  5
20A
100
AcDbSymbolTableRecord
100
AcDbLayerTableRecord
  2
PIANI_ORIGINE
 70
0
 62
7
  6
CONTINUOUS
370
-3
390
F
  0
LAYER
  5
20B
100
AcDbSymbolTableRecord
100
AcDbLayerTableRecord
  2
PIANI_RIFERIMENTO
 70
0
 62
7
  6
CONTINUOUS
370
-3
390
F
  0
LAYER
  5
20C
100
AcDbSymbolTableRecord
100
AcDbLayerTableRecord
  2
PUNTI
 70
0
 62
7
  6
CONTINUOUS
370
-3
390
F
  0
LAYER
  5
20D
100
AcDbSymbolTableRecord
100
AcDbLayerTableRecord
  2
RACCORDO
 70
0
 62
7
  6
CONTINUOUS
370
-3
390
F
  0
LAYER
  5
20E
100
AcDbSymbolTableRecord
100
AcDbLayerTableRecord
  2
SIMBOLI
 70
0
 62
7
  6
CONTINUOUS
370
-3
390
F
  0
LAYER
  5
20F
100
AcDbSymbolTableRecord
100
AcDbLayerTableRecord
  2
SMUSSO
 70
0
 62
7
  6
CONTINUOUS
370
-3
390
F
  0
LAYER
  5
210
100
AcDbSymbolTableRecord
100
AcDbLayerTableRecord
  2
SNAPLINE
 70
0
 62
7
  6
CONTINUOUS
370
-3
390
F
  0
LAYER
  5
211
100
AcDbSymbolTableRecord
100
AcDbLayerTableRecord
  2
SUPERFICI
 70
0
 62
7
  6
CONTINUOUS
370
-3
390
F
  0
LAYER
  5
212
100
AcDbSymbolTableRecord
100
AcDbLayerTableRecord
  2
TRASH
 70
0
 62
7
  6
CONTINUOUS
370
-3
390
F
  0
LAYER
  5
213
100
AcDbSymbolTableRecord
100
AcDbLayerTableRecord
  2
WHITE
 70
0
 62
7
  6
CONTINUOUS
370
-3
390
F
  0
LAYER
  5
214
100
AcDbSymbolTableRecord
100
AcDbLayerTableRecord
  2
XSEC_DATUMS
 70
0
 62
7
  6
CONTINUOUS
370
-3
390
F
  0
ENDTAB
  0
TABLE
  2
STYLE
  5
3
100
AcDbSymbolTable
 70
1
  0
STYLE
  5
11
100
AcDbSymbolTableRecord
100
AcDbTextStyleTableRecord
  2
STANDARD
 70
0
 40
0.0
 41
0.8
 50
0.0
 71
0
 42
0.2
  3
txt
  4

  0
STYLE
  5
215
100
AcDbSymbolTableRecord
100
AcDbTextStyleTableRecord
  2
TEXTSTYLE_1
 70
0
 40
0.0
 41
0.8
 50
0.0
 71
0
 42
0.2
  3
gdt
  4

  0
ENDTAB
  0
TABLE
  2
VIEW
  5
6
100
AcDbSymbolTable
 70
0
  0
ENDTAB
  0
TABLE
  2
UCS
  5
7
100
AcDbSymbolTable
 70
0
  0
ENDTAB
  0
TABLE
  2
APPID
  5
9
100
AcDbSymbolTable
 70
1
  0
APPID
  5
216
100
AcDbSymbolTableRecord
100
AcDbRegAppTableRecord
  2
ACAD
 70
0
  0
ENDTAB
  0
TABLE
  2
BLOCK_RECORD
  5
1
100
AcDbSymbolTable
 70
0
  0
BLOCK_RECORD
  5
217
100
AcDbSymbolTableRecord
100
AcDbBlockTableRecord
  2
*Model_Space
  0
BLOCK_RECORD
  5
218
100
AcDbSymbolTableRecord
100
AcDbBlockTableRecord
  2
*Paper_Space
  0
BLOCK_RECORD
  5
219
100
AcDbSymbolTableRecord
100
AcDbBlockTableRecord
  2
_FILLED
  0
BLOCK_RECORD
  5
21A
100
AcDbSymbolTableRecord
100
AcDbBlockTableRecord
  2
*D0
  0
BLOCK_RECORD
  5
21B
100
AcDbSymbolTableRecord
100
AcDbBlockTableRecord
  2
*D1
  0
BLOCK_RECORD
  5
21C
100
AcDbSymbolTableRecord
100
AcDbBlockTableRecord
  2
*D2
  0
ENDTAB
  0
TABLE
  2
DIMSTYLE
  5
A
100
AcDbSymbolTable
 70
1
100
AcDbDimStyleTable
 71
0
  0
DIMSTYLE
105
21D
100
AcDbSymbolTableRecord
100
AcDbDimStyleTableRecord
  2
STANDARD
 70
0
  3

  4

 40
1.0
 41
3.0
 42
0.5
 43
0.38
 44
1.5
 45
0.0
 46
0.0
 47
0.01
 48
0.01
140
3.0
141
0.09
142
0.0
143
25.4
144
1.0
145
0.0
146
1.0
147
0.625
 71
1.0
 72
0.0
 73
0
 74
0
 75
0
 76
0
 77
1
 78
8
170
0
171
1
172
0
173
0
174
0
175
0
176
0
177
0
178
0
270
2
271
2
272
2
273
2
274
2
275
0
280
0
281
0
282
0
283
1
284
8
285
0
286
0
287
3
288
0
340
11
278
44
341
219
342
219
343
219
344
219
  0
DIMSTYLE
105
21E
100
AcDbSymbolTableRecord
100
AcDbDimStyleTableRecord
  2
DIMSTYLE_1
 70
0
  3

  4

 40
1.0
 41
3.0
 42
0.5
 43
0.38
 44
1.5
 45
0.0
 46
0.0
 47
0.0
 48
0.0
140
3.0
141
0.09
142
0.0
143
25.4
144
1.0
145
0.0
146
1.0
147
0.75
 71
0.0
 72
0.0
 73
0
 74
0
 75
0
 76
0
 77
1
 78
8
170
0
171
1
172
0
173
0
174
0
175
0
176
0
177
0
178
0
270
2
271
2
272
2
273
2
274
2
275
0
280
0
281
0
282
0
283
1
284
8
285
0
286
0
287
3
288
0
340
11
278
44
341
219
342
219
343
219
344
219
  0
DIMSTYLE
105
21F
100
AcDbSymbolTableRecord
100
AcDbDimStyleTableRecord
  2
DIMSTYLE_2
 70
0
  3

  4

 40
1.0
 41
3.0
 42
0.5
 43
0.38
 44
1.5
 45
0.0
 46
0.0
 47
0.0
 48
0.0
140
3.0
141
0.09
142
0.0
143
25.4
144
1.0
145
0.0
146
1.0
147
0.75
 71
0.0
 72
0.0
 73
0
 74
0
 75
0
 76
0
 77
1
 78
8
170
0
171
1
172
0
173
0
174
0
175
0
176
0
177
0
178
0
270
2
271
1
272
1
273
2
274
2
275
0
280
0
281
0
282
0
283
1
284
8
285
0
286
0
287
3
288
0
340
11
278
44
341
219
342
219
343
219
344
219
  0
ENDTAB
  0
ENDSEC
  0
SECTION
  2
BLOCKS
  0
BLOCK
  5
20
100
AcDbEntity
  8
0
100
AcDbBlockBegin
  2
*Model_Space
 70
0
 10
0.0
 20
0.0
 30
0.0
  3
*Model_Space
  1

  0
ENDBLK
  5
21
100
AcDbEntity
  8
0
100
AcDbBlockEnd
  0
BLOCK
  5
1C
100
AcDbEntity
  8
0
100
AcDbBlockBegin
  2
*Paper_Space
 70
0
 10
0.0
 20
0.0
 30
0.0
  3
*Paper_Space
  1

  0
ENDBLK
  5
1D
100
AcDbEntity
  8
0
100
AcDbBlockEnd
  0
BLOCK
  5
220
100
AcDbEntity
  8
0
100
AcDbBlockBegin
  2
_FILLED
 70
64
 10
0.0
 20
0.0
  3
_FILLED
  1

  0
SOLID
  5
221
100
AcDbEntity
  8
0
  6
BYBLOCK
 62
0
100
AcDbTrace
 10
0.0
 20
0.0
 11
-1.0
 21
0.3166666667
 12
-1.0
 22
-0.3166666667
 13
-1.0
 23
-0.3166666667
  0
ENDBLK
  5
222
100
AcDbEntity
  8
0
  6
BYBLOCK
 62
0
100
AcDbBlockEnd
  0
BLOCK
  5
223
100
AcDbEntity
  8
0
100
AcDbBlockBegin
 62
7
  6
CONTINUOUS
  2
*D0
 70
65
 10
0.0
 20
0.0
  3
*D0
  1

  0
MTEXT
  5
224
100
AcDbEntity
  8
0
100
AcDbMText
 62
7
  6
CONTINUOUS
  7
STANDARD
 71
2
 72
1
 10
-0.0560097768
 20
33.981805775
 30
0.0
 11
1.0
 21
0.0
 31
0.0
 44
0.9
  1
22,3
 40
3.0
 41
12.8571428571
  0
LINE
  5
225
100
AcDbEntity
  8
0
100
AcDbLine
 62
7
  6
CONTINUOUS
 10
11.0939902232
 20
13.6203244874
 11
11.0939902232
 21
31.731805775
  0
LINE
  5
226
100
AcDbEntity
  8
0
100
AcDbLine
 62
7
  6
CONTINUOUS
 10
-11.2060097768
 20
13.6203244874
 11
-11.2060097768
 21
31.731805775
  0
LINE
  5
227
100
AcDbEntity
  8
0
100
AcDbLine
 62
7
  6
CONTINUOUS
 10
11.0939902232
 20
30.231805775
 11
-0.0560097768
 21
30.231805775
  0
LINE
  5
228
100
AcDbEntity
  8
0
100
AcDbLine
 62
7
  6
CONTINUOUS
 10
-11.2060097768
 20
30.231805775
 11
-0.0560097768
 21
30.231805775
  0
INSERT
  5
229
100
AcDbEntity
  8
0
100
AcDbBlockReference
 62
7
  6
CONTINUOUS
  2
_FILLED
 10
11.0939902232
 20
30.231805775
 41
3.0
 42
3.0
 43
3.0
  0
INSERT
  5
22A
100
AcDbEntity
  8
0
100
AcDbBlockReference
 62
7
  6
CONTINUOUS
  2
_FILLED
 10
-11.2060097768
 20
30.231805775
 41
3.0
 42
3.0
 43
3.0
 50
180.0
  0
ENDBLK
  5
22B
100
AcDbEntity
  8
0
  6
BYBLOCK
 62
0
100
AcDbBlockEnd
  0
BLOCK
  5
22C
100
AcDbEntity
  8
0
100
AcDbBlockBegin
 62
7
  6
CONTINUOUS
  2
*D1
 70
65
 10
0.0
 20
0.0
  3
*D1
  1

  0
MTEXT
  5
22D
100
AcDbEntity
  8
0
100
AcDbMText
 62
7
  6
CONTINUOUS
  7
STANDARD
 71
2
 72
1
 10
15.3439902232
 20
0.0203244874
 30
0.0
 11
0.0
 21
1.0
 31
0.0
 44
0.9
  1
44,4
 40
3.0
 41
13.1785714286
  0
LINE
  5
22E
100
AcDbEntity
  8
0
100
AcDbLine
 62
7
  6
CONTINUOUS
 10
11.0804564948
 20
22.231805775
 11
20.5939902232
 21
22.231805775
  0
LINE
  5
22F
100
AcDbEntity
  8
0
100
AcDbLine
 62
7
  6
CONTINUOUS
 10
11.0804564948
 20
-22.1911568001
 11
20.5939902232
 21
-22.1911568001
  0
LINE
  5
230
100
AcDbEntity
  8
0
100
AcDbLine
 62
7
  6
CONTINUOUS
 10
19.0939902232
 20
22.231805775
 11
19.0939902232
 21
0.0203244874
  0
LINE
  5
231
100
AcDbEntity
  8
0
100
AcDbLine
 62
7
  6
CONTINUOUS
 10
19.0939902232
 20
-22.1911568001
 11
19.0939902232
 21
0.0203244874
  0
INSERT
  5
232
100
AcDbEntity
  8
0
100
AcDbBlockReference
 62
7
  6
CONTINUOUS
  2
_FILLED
 10
19.0939902232
 20
22.231805775
 41
3.0
 42
3.0
 43
3.0
 50
90.0
  0
INSERT
  5
233
100
AcDbEntity
  8
0
100
AcDbBlockReference
 62
7
  6
CONTINUOUS
  2
_FILLED
 10
19.0939902232
 20
-22.1911568001
 41
3.0
 42
3.0
 43
3.0
 50
270.0
  0
ENDBLK
  5
234
100
AcDbEntity
  8
0
  6
BYBLOCK
 62
0
100
AcDbBlockEnd
  0
BLOCK
  5
235
100
AcDbEntity
  8
0
100
AcDbBlockBegin
 62
7
  6
CONTINUOUS
  2
*D2
 70
65
 10
0.0
 20
0.0
  3
*D2
  1

  0
MTEXT
  5
236
100
AcDbEntity
  8
0
100
AcDbMText
 62
7
  6
CONTINUOUS
  7
STANDARD
 71
1
 72
1
 10
-21.875907027
 20
33.981805775
 30
0.0
 11
1.0
 21
0.0
 31
0.0
 44
0.9
  1
6,7
 40
3.0
 41
9.6428571429
  0
LINE
  5
237
100
AcDbEntity
  8
0
100
AcDbLine
 62
7
  6
CONTINUOUS
 10
-26.4213260679
 20
13.6203244874
 11
-26.4213260679
 21
31.731805775
  0
LINE
  5
238
100
AcDbEntity
  8
0
100
AcDbLine
 62
7
  6
CONTINUOUS
 10
-33.1211987061
 20
0.8771983903
 11
-33.1211987061
 21
31.731805775
  0
LINE
  5
239
100
AcDbEntity
  8
0
100
AcDbLine
 62
7
  6
CONTINUOUS
 10
-26.4213260679
 20
30.231805775
 11
-15.4473355984
 21
30.231805775
  0
LINE
  5
23A
100
AcDbEntity
  8
0
100
AcDbLine
 62
7
  6
CONTINUOUS
 10
-15.4473355984
 20
30.231805775
 11
-29.771262387
 21
30.231805775
  0
LINE
  5
23B
100
AcDbEntity
  8
0
100
AcDbLine
 62
7
  6
CONTINUOUS
 10
-33.1211987061
 20
30.231805775
 11
-37.1211987061
 21
30.231805775
  0
LINE
  5
23C
100
AcDbEntity
  8
0
100
AcDbLine
 62
7
  6
CONTINUOUS
 10
-37.1211987061
 20
30.231805775
 11
-29.771262387
 21
30.231805775
  0
INSERT
  5
23D
100
AcDbEntity
  8
0
100
AcDbBlockReference
 62
7
  6
CONTINUOUS
  2
_FILLED
 10
-26.4213260679
 20
30.231805775
 41
3.0
 42
3.0
 43
3.0
 50
180.0
  0
INSERT
  5
23E
100
AcDbEntity
  8
0
100
AcDbBlockReference
 62
7
  6
CONTINUOUS
  2
_FILLED
 10
-33.1211987061
 20
30.231805775
 41
3.0
 42
3.0
 43
3.0
  0
ENDBLK
  5
23F
100
AcDbEntity
  8
0
  6
BYBLOCK
 62
0
100
AcDbBlockEnd
  0
ENDSEC
  0
SECTION
  2
ENTITIES
  0
DIMENSION
  5
240
100
AcDbEntity
  8
0
100
AcDbDimension
 62
7
  6
CONTINUOUS
  2
*D0
 10
-11.2060097768
 20
30.231805775
 11
-0.4845812058
 21
30.231805775
 70
160
 71
2
 42
22.3
  3
DIMSTYLE_1
100
AcDbAlignedDimension
 13
11.0939902232
 23
13.1203244874
 14
-11.2060097768
 24
13.1203244874
 50
180.0
100
AcDbRotatedDimension
  0
DIMENSION
  5
241
100
AcDbEntity
  8
0
100
AcDbDimension
 62
7
  6
CONTINUOUS
  2
*D1
 10
19.0939902232
 20
-22.1911568001
 11
19.0939902232
 21
-0.4082471275
 70
160
 71
2
 42
44.4229625751
  3
DIMSTYLE_2
100
AcDbAlignedDimension
 13
10.5804564948
 23
22.231805775
 14
10.5804564948
 24
-22.1911568001
 50
270.0
100
AcDbRotatedDimension
  0
DIMENSION
  5
242
100
AcDbEntity
  8
0
100
AcDbDimension
 62
7
  6
CONTINUOUS
  2
*D2
 10
-33.1211987061
 20
30.231805775
 11
-19.0901920853
 21
30.231805775
 70
160
 71
1
 42
6.6998726383
  3
DIMSTYLE_1
100
AcDbAlignedDimension
 13
-26.4213260679
 23
13.1203244874
 14
-33.1211987061
 24
0.3771983903
 50
180.0
100
AcDbRotatedDimension
  0
LWPOLYLINE
  5
243
100
AcDbEntity
  8
ASSI
100
AcDbPolyline
 62
253
  6
CONTINUOUS
 90
15
 70
0
 10
-11.1050120627
 20
20.5622303439
 10
-11.1036835898
 20
20.5634128659
 10
-11.1007052704
 20
20.5645914748
 10
-11.0960869597
 20
20.5657622707
 10
-11.0898439396
 20
20.5669213794
 10
-11.0819968682
 20
20.5680649656
 10
-11.0725717113
 20
20.5691892449
 10
-11.0615996568
 20
20.5702904973
 10
-11.0491170109
 20
20.5713650787
 10
-11.0351650788
 20
20.5724094333
 10
-11.019790027
 20
20.5734201053
 10
-11.0030427316
 20
20.5743937505
 10
-10.9849786091
 20
20.5753271471
 10
-10.9656574336
 20
20.5762172064
 10
-10.9451431385
 20
20.5770609833
  0
LINE
  5
244
100
AcDbEntity
  8
ASSI
100
AcDbLine
 62
7
  6
CONTINUOUS
 10
3.3382003489
 20
-22.1911568001
 11
3.6862551962
 21
-22.1595628396
  0
LINE
  5
245
100
AcDbEntity
  8
ASSI
100
AcDbLine
 62
7
  6
CONTINUOUS
 10
-7.8617996511
 20
-22.1911568001
 11
-7.5137448038
 21
-22.1595628396
  0
LINE
  5
246
100
AcDbEntity
  8
ASSI
100
AcDbLine
 62
7
  6
CONTINUOUS
 10
-10.6924760485
 20
-22.1911568001
 11
-7.8617996511
 21
-22.1911568001
  0
LINE
  5
247
100
AcDbEntity
  8
ASSI
100
AcDbLine
 62
7
  6
CONTINUOUS
 10
-3.4502199026
 20
-22.1911568001
 11
3.3382003489
 21
-22.1911568001
  0
LINE
  5
248
100
AcDbEntity
  8
ASSI
100
AcDbLine
 62
7
  6
CONTINUOUS
 10
7.7497800974
 20
-22.1911568001
 11
10.5804564948
 21
-22.1911568001
  0
LINE
  5
249
100
AcDbEntity
  8
ASSI
100
AcDbLine
 62
7
  6
CONTINUOUS
 10
-7.340539723
 20
-22.1543220616
 11
-3.9714798307
 21
-22.1543220616
  0
LINE
  5
24A
100
AcDbEntity
  8
ASSI
100
AcDbLine
 62
7
  6
CONTINUOUS
 10
3.859460277
 20
-22.1543220616
 11
7.2285201693
 21
-22.1543220616
  0
LINE
  5
24B
100
AcDbEntity
  8
ASSI
100
AcDbLine
 62
253
  6
CONTINUOUS
 10
10.5095957343
 20
-21.9784016422
 11
-10.6216152881
 21
-21.9784016422
  0
LINE
  5
24C
100
AcDbEntity
  8
ASSI
100
AcDbLine
 62
7
  6
CONTINUOUS
 10
-3.4502199026
 20
-22.1911568001
 11
-3.7982747499
 21
-22.1595628396
  0
LINE
  5
24D
100
AcDbEntity
  8
ASSI
100
AcDbLine
 62
7
  6
CONTINUOUS
 10
7.7497800974
 20
-22.1911568001
 11
7.4017252501
 21
-22.1595628396
  0
LWPOLYLINE
  5
24E
100
AcDbEntity
  8
ASSI
100
AcDbPolyline
 62
253
  6
CONTINUOUS
 90
17
 70
0
 10
-11.1050120627
 20
-20.521581369
 10
-11.1036836083
 20
-20.5227638916
 10
-11.1007053059
 20
-20.5239425011
 10
-11.0960870106
 20
-20.5251132977
 10
-11.0898440044
 20
-20.5262724072
 10
-11.0819969453
 20
-20.527415994
 10
-11.0725717991
 20
-20.5285402742
 10
-11.0615997535
 20
-20.5296415273
 10
-11.0491171151
 20
-20.5307161095
 10
-11.0351651887
 20
-20.5317604649
 10
-11.0197901412
 20
-20.5327711378
 10
-11.0030428483
 20
-20.5337447838
 10
-10.9849787269
 20
-20.5346781811
 10
-10.965657551
 20
-20.5355682412
 10
-10.945143254
 20
-20.5364120189
 10
-10.9235037178
 20
-20.5372067221
 10
-10.877138834
 20
-20.5386385574
  0
LINE
  5
24F
100
AcDbEntity
  8
ASSI
100
AcDbLine
 62
253
  6
CONTINUOUS
 10
10.8331235848
 20
-20.5364120085
 11
10.7887908857
 21
-20.5379497092
  0
LINE
  5
250
100
AcDbEntity
  8
ASSI
100
AcDbLine
 62
253
  6
CONTINUOUS
 10
10.7887908857
 20
-20.5379497092
 11
10.7405472584
 21
-20.5392709383
  0
LINE
  5
251
100
AcDbEntity
  8
ASSI
100
AcDbLine
 62
253
  6
CONTINUOUS
 10
10.7405472584
 20
-20.5392709383
 11
10.6890307252
 21
-20.5403582226
  0
LINE
  5
252
100
AcDbEntity
  8
ASSI
100
AcDbLine
 62
253
  6
CONTINUOUS
 10
10.6890307252
 20
-20.5403582226
 11
10.6349225925
 21
-20.5411971826
  0
LINE
  5
253
100
AcDbEntity
  8
ASSI
100
AcDbLine
 62
253
  6
CONTINUOUS
 10
10.6349225925
 20
-20.5411971826
 11
10.5789384408
 21
-20.5417767232
  0
LINE
  5
254
100
AcDbEntity
  8
ASSI
100
AcDbLine
 62
253
  6
CONTINUOUS
 10
10.5789384408
 20
-20.5417767232
 11
10.5218186608
 21
-20.5420891798
  0
LINE
  5
255
100
AcDbEntity
  8
ASSI
100
AcDbLine
 62
253
  6
CONTINUOUS
 10
10.5218186608
 20
-20.5420891798
 11
-10.6050881906
 21
-20.5421233435
  0
LINE
  5
256
100
AcDbEntity
  8
ASSI
100
AcDbLine
 62
253
  6
CONTINUOUS
 10
-10.6624931049
 20
-20.5419666953
 11
-10.6050882151
 21
-20.5421438374
  0
LINE
  5
257
100
AcDbEntity
  8
ASSI
100
AcDbLine
 62
253
  6
CONTINUOUS
 10
-10.7191388141
 20
-20.5415199569
 11
-10.6624931049
 21
-20.5419666953
  0
LINE
  5
258
100
AcDbEntity
  8
ASSI
100
AcDbLine
 62
253
  6
CONTINUOUS
 10
-10.7742762021
 20
-20.5408095304
 11
-10.7191388141
 21
-20.5415199569
  0
LINE
  5
259
100
AcDbEntity
  8
ASSI
100
AcDbLine
 62
253
  6
CONTINUOUS
 10
-10.827176076
 20
-20.539844811
 11
-10.7742762021
 21
-20.5408095304
  0
LINE
  5
25A
100
AcDbEntity
  8
ASSI
100
AcDbLine
 62
253
  6
CONTINUOUS
 10
-10.877138834
 20
-20.5386385574
 11
-10.827176076
 21
-20.539844811
  0
LWPOLYLINE
  5
25B
100
AcDbEntity
  8
ASSI
100
AcDbPolyline
 62
253
  6
CONTINUOUS
 90
28
 70
0
 10
-11.1215388333
 20
-21.4790859672
 10
-11.1206674899
 20
-21.5081016788
 10
-11.1181094746
 20
-21.5370193255
 10
-11.1138734325
 20
-21.5657411727
 10
-11.1079736803
 20
-21.5941701478
 10
-11.1004301576
 20
-21.622210168
 10
-11.0912683595
 20
-21.6497664651
 10
-11.0805192503
 20
-21.6767459057
 10
-11.0682191593
 20
-21.7030573058
 10
-11.0544096576
 20
-21.7286117396
 10
-11.0391374176
 20
-21.7533228394
 10
-11.0224540557
 20
-21.7771070877
 10
-11.0044159574
 20
-21.7998840996
 10
-10.9850840867
 20
-21.8215768944
 10
-10.9645237806
 20
-21.8421121558
 10
-10.9428045277
 20
-21.8614204796
 10
-10.9199997336
 20
-21.8794366083
 10
-10.8961864727
 20
-21.8960996519
 10
-10.8714452281
 20
-21.9113532932
 10
-10.8458596188
 20
-21.9251459786
 10
-10.8195161179
 20
-21.9374310923
 10
-10.79250376
 20
-21.9481671134
 10
-10.7649138401
 20
-21.9573177567
 10
-10.7368396052
 20
-21.9648520954
 10
-10.7083759395
 20
-21.9707446651
 10
-10.6796190432
 20
-21.9749755504
 10
-10.6506661074
 20
-21.9775304518
 10
-10.6216149857
 20
-21.9784007345
  0
LWPOLYLINE
  5
25C
100
AcDbEntity
  8
ASSI
100
AcDbPolyline
 62
253
  6
CONTINUOUS
 90
28
 70
0
 10
-11.1215388333
 20
21.519734942
 10
-11.1206674894
 20
21.548750663
 10
-11.1181094725
 20
21.5776683181
 10
-11.113873428
 20
21.6063901728
 10
-11.1079736728
 20
21.6348191544
 10
-11.1004301465
 20
21.6628591801
 10
-11.0912683443
 20
21.6904154816
 10
-11.0805192309
 20
21.7173949254
 10
-11.0682191357
 20
21.7437063277
 10
-11.0544096297
 20
21.7692607626
 10
-11.0391373859
 20
21.7939718625
 10
-11.0224540204
 20
21.81775611
 10
-11.0044159189
 20
21.8405331203
 10
-10.9850840458
 20
21.8622259127
 10
-10.9645237379
 20
21.882761171
 10
-10.9428044839
 20
21.9020694913
 10
-10.9199996895
 20
21.9200856161
 10
-10.8961864292
 20
21.9367486554
 10
-10.871445186
 20
21.9520022924
 10
-10.8458595789
 20
21.9657949736
 10
-10.8195160811
 20
21.9780800831
 10
-10.7925037269
 20
21.9888161003
 10
-10.7649138113
 20
21.9979667402
 10
-10.7368395815
 20
22.0055010759
 10
-10.7083759213
 20
22.0113936432
 10
-10.6796190308
 20
22.0156245267
 10
-10.650666101
 20
22.0181794271
 10
-10.6216149857
 20
22.0190497094
  0
LINE
  5
25D
100
AcDbEntity
  8
CURVE
100
AcDbLine
 62
253
  6
CONTINUOUS
 10
-3.0939831749
 20
-11.5660793915
 11
-0.7537612902
 21
-12.9173593912
  0
LWPOLYLINE
  5
25E
100
AcDbEntity
  8
ASSI
100
AcDbPolyline
 62
253
  6
CONTINUOUS
 90
9
 70
0
 10
-11.1159672216
 20
21.4495202735
 10
-11.1166383534
 20
21.4639977547
 10
-11.1173181066
 20
21.4768672953
 10
-11.1180065326
 20
21.4881206099
 10
-11.1187035799
 20
21.4977659838
 10
-11.1194056896
 20
21.5057549506
 10
-11.1201116752
 20
21.5120713549
 10
-11.1208227231
 20
21.516731352
 10
-11.1215388333
 20
21.519734942
  0
LWPOLYLINE
  5
25F
100
AcDbEntity
  8
ASSI
100
AcDbPolyline
 62
253
  6
CONTINUOUS
 90
22
 70
0
 10
-11.0976382494
 20
0.3744832792
 10
-11.097076925
 20
0.3595392522
 10
-11.0954006417
 20
0.3446787838
 10
-11.0926187726
 20
0.3299849638
 10
-11.0887468723
 20
0.31553995
 10
-11.0838065903
 20
0.3014245095
 10
-11.0778255499
 20
0.287717567
 10
-11.0708371936
 20
0.2744957625
 10
-11.0628805961
 20
0.2618330232
 10
-11.054000246
 20
0.2498001509
 10
-11.044245797
 20
0.238464425
 10
-11.0336717897
 20
0.2278892268
 10
-11.0223373478
 20
0.2181336856
 10
-11.0103058461
 20
0.209252347
 10
-10.9976445572
 20
0.201294869
 10
-10.984424275
 20
0.1943057438
 10
-10.9707189186
 20
0.1883240492
 10
-10.9566051193
 20
0.1833832297
 10
-10.942161792
 20
0.1795109104
 10
-10.9274696941
 20
0.1767287418
 10
-10.9126109737
 20
0.1750522789
 10
-10.8976687104
 20
0.1744908945
  0
LINE
  5
260
100
AcDbEntity
  8
ASSI
100
AcDbLine
 62
253
  6
CONTINUOUS
 10
-11.1146611066
 20
21.4159538779
 11
-11.1159672216
 21
21.4495202735
  0
LINE
  5
261
100
AcDbEntity
  8
ASSI
100
AcDbLine
 62
253
  6
CONTINUOUS
 10
-10.6160432134
 20
21.9137405694
 11
-10.6173940722
 21
21.9547423155
  0
LINE
  5
262
100
AcDbEntity
  8
ASSI
100
AcDbLine
 62
253
  6
CONTINUOUS
 10
-11.1134063575
 20
21.3763374916
 11
-11.1146611066
 21
21.4159538779
  0
LINE
  5
263
100
AcDbEntity
  8
ASSI
100
AcDbLine
 62
253
  6
CONTINUOUS
 10
-11.1122126277
 20
21.3309524424
 11
-11.1134063575
 21
21.3763374916
  0
LINE
  5
264
100
AcDbEntity
  8
ASSI
100
AcDbLine
 62
253
  6
CONTINUOUS
 10
-10.6147371366
 20
21.863362897
 11
-10.6160432134
 21
21.9137405694
  0
LINE
  5
265
100
AcDbEntity
  8
ASSI
100
AcDbLine
 62
253
  6
CONTINUOUS
 10
-11.1105541217
 20
21.2527782554
 11
-11.1122126277
 21
21.3309524424
  0
LINE
  5
266
100
AcDbEntity
  8
ASSI
100
AcDbLine
 62
253
  6
CONTINUOUS
 10
-10.612877996
 20
21.7709771395
 11
-10.6147371366
 21
21.863362897
  0
LINE
  5
267
100
AcDbEntity
  8
ASSI
100
AcDbLine
 62
253
  6
CONTINUOUS
 10
-11.1086271325
 20
21.1315657669
 11
-11.1105541217
 21
21.2527782554
  0
LINE
  5
268
100
AcDbEntity
  8
ASSI
100
AcDbLine
 62
253
  6
CONTINUOUS
 10
-10.6106303167
 20
21.6186467352
 11
-10.612877996
 21
21.7709771395
  0
LINE
  5
269
100
AcDbEntity
  8
ASSI
100
AcDbLine
 62
253
  6
CONTINUOUS
 10
-11.1067459477
 20
20.9573575114
 11
-11.1086271325
 21
21.1315657669
  0
LINE
  5
26A
100
AcDbEntity
  8
ASSI
100
AcDbLine
 62
253
  6
CONTINUOUS
 10
-10.6078761911
 20
21.3363271111
 11
-10.6106303167
 21
21.6186467352
  0
LINE
  5
26B
100
AcDbEntity
  8
ASSI
100
AcDbLine
 62
253
  6
CONTINUOUS
 10
-11.1053636009
 20
20.7248737218
 11
-11.1067459477
 21
20.9573575114
  0
LINE
  5
26C
100
AcDbEntity
  8
ASSI
100
AcDbLine
 62
253
  6
CONTINUOUS
 10
-10.6056003351
 20
20.8868150438
 11
-10.6078761911
 21
21.3363271111
  0
LINE
  5
26D
100
AcDbEntity
  8
ASSI
100
AcDbLine
 62
7
  6
CONTINUOUS
 10
-11.2060097768
 20
-13.0796755126
 11
-11.1928558718
 21
-21.6932110723
  0
LINE
  5
26E
100
AcDbEntity
  8
ASSI
100
AcDbLine
 62
7
  6
CONTINUOUS
 10
-11.2060097768
 20
-0.2796526673
 11
-11.2060097768
 21
-13.0796755126
  0
LINE
  5
26F
100
AcDbEntity
  8
ASSI
100
AcDbLine
 62
7
  6
CONTINUOUS
 10
-11.2060097768
 20
0.3203016421
 11
-11.2060097768
 21
13.1203244874
  0
LINE
  5
270
100
AcDbEntity
  8
ASSI
100
AcDbLine
 62
253
  6
CONTINUOUS
 10
-11.0976385395
 20
0.3744831341
 11
-11.1053636009
 21
20.7248737218
  0
LINE
  5
271
100
AcDbEntity
  8
ASSI
100
AcDbLine
 62
253
  6
CONTINUOUS
 10
-10.5977144312
 20
0.1770632481
 11
-10.6056003351
 21
20.8868150438
  0
LINE
  5
272
100
AcDbEntity
  8
ASSI
100
AcDbLine
 62
7
  6
CONTINUOUS
 10
-11.2060097768
 20
13.1203244874
 11
-11.1928558718
 21
21.7338600472
  0
LINE
  5
273
100
AcDbEntity
  8
ASSI
100
AcDbLine
 62
253
  6
CONTINUOUS
 10
-11.1055240977
 20
-20.7242616707
 11
-11.0976385395
 21
-0.3338341592
  0
LINE
  5
274
100
AcDbEntity
  8
ASSI
100
AcDbLine
 62
253
  6
CONTINUOUS
 10
-10.6062510884
 20
-21.0220370387
 11
-10.5977144312
 21
-0.1364142733
  0
LINE
  5
275
100
AcDbEntity
  8
ASSI
100
AcDbLine
 62
253
  6
CONTINUOUS
 10
-10.6087033825
 20
-21.3961587665
 11
-10.6062510884
 21
-21.0220370387
  0
LINE
  5
276
100
AcDbEntity
  8
ASSI
100
AcDbLine
 62
253
  6
CONTINUOUS
 10
-11.1070719529
 20
-20.9532974167
 11
-11.1055240977
 21
-20.7242616707
  0
LINE
  5
277
100
AcDbEntity
  8
ASSI
100
AcDbLine
 62
253
  6
CONTINUOUS
 10
-10.6111649218
 20
-21.6190217665
 11
-10.6087033825
 21
-21.3961587665
  0
LINE
  5
278
100
AcDbEntity
  8
ASSI
100
AcDbLine
 62
253
  6
CONTINUOUS
 10
-11.1090757465
 20
-21.1228781157
 11
-11.1070719529
 21
-20.9532974167
  0
LINE
  5
279
100
AcDbEntity
  8
ASSI
100
AcDbLine
 62
253
  6
CONTINUOUS
 10
-10.6134824457
 20
-21.7633007505
 11
-10.6111649218
 21
-21.6190217665
  0
LINE
  5
27A
100
AcDbEntity
  8
ASSI
100
AcDbLine
 62
253
  6
CONTINUOUS
 10
-11.1110887466
 20
-21.2395104728
 11
-11.1090757465
 21
-21.1228781157
  0
LINE
  5
27B
100
AcDbEntity
  8
ASSI
100
AcDbLine
 62
253
  6
CONTINUOUS
 10
-10.6147371366
 20
-21.8227139227
 11
-10.6134824457
 21
-21.7633007505
  0
LINE
  5
27C
100
AcDbEntity
  8
ASSI
100
AcDbLine
 62
253
  6
CONTINUOUS
 10
-11.1128018841
 20
-21.3137152713
 11
-11.1110887466
 21
-21.2395104728
  0
LINE
  5
27D
100
AcDbEntity
  8
ASSI
100
AcDbLine
 62
253
  6
CONTINUOUS
 10
-10.6160432134
 20
-21.873091595
 11
-10.6147371366
 21
-21.8227139227
  0
LINE
  5
27E
100
AcDbEntity
  8
ASSI
100
AcDbLine
 62
253
  6
CONTINUOUS
 10
-11.1140261235
 20
-21.356215989
 11
-11.1128018841
 21
-21.3137152713
  0
LWPOLYLINE
  5
27F
100
AcDbEntity
  8
ASSI
100
AcDbPolyline
 62
253
  6
CONTINUOUS
 90
22
 70
0
 10
-11.0976382494
 20
-0.3338343043
 10
-11.0970769267
 20
-0.3188903008
 10
-11.0954006485
 20
-0.3040298541
 10
-11.0926187874
 20
-0.2893360537
 10
-11.0887468977
 20
-0.2748910573
 10
-11.0838066284
 20
-0.2607756316
 10
-11.0778256021
 20
-0.2470687004
 10
-11.0708372606
 20
-0.2338469036
 10
-11.062880678
 20
-0.2211841685
 10
-11.0540003422
 20
-0.2091512966
 10
-11.0442459059
 20
-0.1978155676
 10
-11.0336719094
 20
-0.187240363
 10
-11.0223374752
 20
-0.1774848123
 10
-11.0103059779
 20
-0.168603462
 10
-10.9976446893
 20
-0.1606459704
 10
-10.9844244029
 20
-0.1536568306
 10
-10.9707190375
 20
-0.1476751209
 10
-10.9566052242
 20
-0.1427342872
 10
-10.9421618779
 20
-0.1388619551
 10
-10.9274697559
 20
-0.1360797762
 10
-10.9126110068
 20
-0.1344033065
 10
-10.8976687104
 20
-0.1338419197
  0
LWPOLYLINE
  5
280
100
AcDbEntity
  8
CURVE
100
AcDbPolyline
 62
253
  6
CONTINUOUS
 90
69
 70
0
 10
-3.1634439494
 20
-11.2053993916
 10
-3.1677594477
 20
-11.2029898016
 10
-3.172173447
 20
-11.2006842231
 10
-3.1766884209
 20
-11.1984826739
 10
-3.1813068432
 20
-11.1963851715
 10
-3.1860311874
 20
-11.1943917337
 10
-3.1908639273
 20
-11.1925023782
 10
-3.1958075364
 20
-11.1907171227
 10
-3.2002256834
 20
-11.1892416262
 10
-3.2047298476
 20
-11.1878530181
 10
-3.2093192682
 20
-11.1865584719
 10
-3.2139931842
 20
-11.1853651608
 10
-3.2187508347
 20
-11.1842802582
 10
-3.2235914589
 20
-11.1833109375
 10
-3.2285142957
 20
-11.1824643721
 10
-3.2335185843
 20
-11.1817477352
 10
-3.238601059
 20
-11.1811689688
 10
-3.2437484349
 20
-11.1807390886
 10
-3.2489449226
 20
-11.1804698788
 10
-3.2541747323
 20
-11.1803731236
 10
-3.2583735085
 20
-11.1804281864
 10
-3.2625847037
 20
-11.1806094787
 10
-3.2668095161
 20
-11.1809253172
 10
-3.271049144
 20
-11.1813840185
 10
-3.2753047855
 20
-11.1819938991
 10
-3.2788624605
 20
-11.1826236007
 10
-3.2824220415
 20
-11.1833687763
 10
-3.2859734817
 20
-11.184234139
 10
-3.2895067344
 20
-11.1852244017
 10
-3.293011753
 20
-11.1863442772
 10
-3.2964784906
 20
-11.1875984786
 10
-3.2998980861
 20
-11.1889914112
 10
-3.3032664197
 20
-11.19052625
 10
-3.3065805573
 20
-11.1922058624
 10
-3.3098375645
 20
-11.194033116
 10
-3.3130345072
 20
-11.1960108782
 10
-3.3161684512
 20
-11.1981420164
 10
-3.3192363083
 20
-11.2004277614
 10
-3.3222343746
 20
-11.2028627973
 10
-3.3251587923
 20
-11.2054401717
 10
-3.3280057037
 20
-11.208152932
 10
-3.3307712511
 20
-11.2109941257
 10
-3.3334515765
 20
-11.2139568003
 10
-3.3360431808
 20
-11.2170335568
 10
-3.3385439991
 20
-11.2202152094
 10
-3.3409523251
 20
-11.2234921262
 10
-3.3432664523
 20
-11.2268546749
 10
-3.3454846745
 20
-11.2302932233
 10
-3.3476052853
 20
-11.2337981394
 10
-3.3500199093
 20
-11.2380801572
 10
-3.3522954112
 20
-11.242439681
 10
-3.3544356864
 20
-11.2468725179
 10
-3.3564446303
 20
-11.251374475
 10
-3.3583261384
 20
-11.2559413592
 10
-3.3600832674
 20
-11.2605671574
 10
-3.3617157186
 20
-11.2652385764
 10
-3.3632223547
 20
-11.2699405026
 10
-3.3646020383
 20
-11.2746578228
 10
-3.365853632
 20
-11.2793754234
 10
-3.3669767599
 20
-11.2840801257
 10
-3.3679740922
 20
-11.2887664887
 10
-3.3688490607
 20
-11.2934310062
 10
-3.3696050971
 20
-11.2980701719
 10
-3.3702456331
 20
-11.3026804795
 10
-3.3707732139
 20
-11.3072620198
 10
-3.3711868391
 20
-11.3118292717
 10
-3.3714846219
 20
-11.3164003114
 10
-3.3716646752
 20
-11.3209932149
 10
-3.3717251123
 20
-11.3256260583
  0
LWPOLYLINE
  5
281
100
AcDbEntity
  8
CURVE
100
AcDbPolyline
 62
253
  6
CONTINUOUS
 90
68
 70
0
 10
-0.2380001922
 20
-11.2053993916
 10
-0.2423178465
 20
-11.2029828264
 10
-0.2467341293
 20
-11.2006713343
 10
-0.2512515179
 20
-11.1984648843
 10
-0.2558724896
 20
-11.1963634451
 10
-0.2605995217
 20
-11.1943669858
 10
-0.2654350913
 20
-11.192475475
 10
-0.2703816758
 20
-11.1906888817
 10
-0.2748025391
 20
-11.1892128524
 10
-0.2793094797
 20
-11.187824301
 10
-0.2839016826
 20
-11.1865304018
 10
-0.2885783328
 20
-11.1853383291
 10
-0.2933386153
 20
-11.1842552572
 10
-0.298181715
 20
-11.1832883605
 10
-0.3031068168
 20
-11.1824448132
 10
-0.3081131058
 20
-11.1817317896
 10
-0.3131972718
 20
-11.181157225
 10
-0.3183460243
 20
-11.180732099
 10
-0.3235435778
 20
-11.1804681519
 10
-0.3287741467
 20
-11.1803771244
 10
-0.3329733038
 20
-11.1804370723
 10
-0.3371846387
 20
-11.1806234835
 10
-0.3414093021
 20
-11.1809446391
 10
-0.3456484447
 20
-11.18140882
 10
-0.3499032172
 20
-11.1820243071
 10
-0.35345985
 20
-11.1826587517
 10
-0.3570181182
 20
-11.1834087122
 10
-0.3605680039
 20
-11.18427888
 10
-0.3640994893
 20
-11.1852739463
 10
-0.3676025565
 20
-11.1863986027
 10
-0.3710671877
 20
-11.1876575405
 10
-0.3744845492
 20
-11.1890551314
 10
-0.3778505443
 20
-11.1905944679
 10
-0.3811622606
 20
-11.1922783232
 10
-0.3844167854
 20
-11.1941094701
 10
-0.3876112064
 20
-11.1960906815
 10
-0.3907426109
 20
-11.1982247304
 10
-0.3938079347
 20
-11.200512774
 10
-0.3968035061
 20
-11.202949506
 10
-0.3997255015
 20
-11.2055280043
 10
-0.4025700973
 20
-11.2082413469
 10
-0.4053334702
 20
-11.2110826117
 10
-0.4080117965
 20
-11.2140448767
 10
-0.410601604
 20
-11.217120774
 10
-0.4131008259
 20
-11.2203011521
 10
-0.4155077465
 20
-11.2235764137
 10
-0.4178206503
 20
-11.2269369615
 10
-0.4200378217
 20
-11.2303731983
 10
-0.4221575451
 20
-11.2338755266
 10
-0.4245713068
 20
-11.2381541192
 10
-0.4268461512
 20
-11.2425099039
 10
-0.4289859566
 20
-11.2469387212
 10
-0.4309946013
 20
-11.2514364113
 10
-0.4328759636
 20
-11.2559988146
 10
-0.4346330841
 20
-11.2606199598
 10
-0.4362656523
 20
-11.2652866287
 10
-0.4377725203
 20
-11.2699837916
 10
-0.4391525399
 20
-11.2746964185
 10
-0.4404045631
 20
-11.2794094797
 10
-0.441789329
 20
-11.2852822706
 10
-0.4429789493
 20
-11.2911254053
 10
-0.4439800667
 20
-11.2969320332
 10
-0.4447993238
 20
-11.3026953037
 10
-0.4453273707
 20
-11.3072736853
 10
-0.4457413794
 20
-11.3118379427
 10
-0.446039451
 20
-11.3164060847
 10
-0.4462196865
 20
-11.3209961203
 10
-0.4462801869
 20
-11.3256260583
  0
LINE
  5
282
100
AcDbEntity
  8
CURVE
100
AcDbLine
 62
253
  6
CONTINUOUS
 10
-0.4462801869
 20
-12.774202169
 11
-3.1634439494
 21
-11.2053993916
  0
LINE
  5
283
100
AcDbEntity
  8
CURVE
100
AcDbLine
 62
253
  6
CONTINUOUS
 10
-0.1685382496
 20
-11.5660793915
 11
2.1719671604
 21
-12.9173593912
  0
LINE
  5
284
100
AcDbEntity
  8
CURVE
100
AcDbLine
 62
253
  6
CONTINUOUS
 10
2.4740847386
 20
-12.7712035579
 11
-0.2380001922
 21
-11.2053993916
  0
LWPOLYLINE
  5
285
100
AcDbEntity
  8
ASSI
100
AcDbPolyline
 62
253
  6
CONTINUOUS
 90
7
 70
0
 10
-10.6173940722
 20
21.9547423155
 10
-10.6180824372
 20
21.9716372767
 10
-10.6187794133
 20
21.9860894957
 10
-10.6194815239
 20
21.9980750241
 10
-10.6201876101
 20
22.0075737333
 10
-10.6208988309
 20
22.0145695265
 10
-10.6216151861
 20
22.019050617
  0
LWPOLYLINE
  5
286
100
AcDbEntity
  8
ASSI
100
AcDbPolyline
 62
253
  6
CONTINUOUS
 90
8
 70
0
 10
-10.6216151861
 20
-21.9784016421
 10
-10.6208988309
 20
-21.9739205517
 10
-10.6201876102
 20
-21.9669247586
 10
-10.6194815239
 20
-21.9574260494
 10
-10.6187794133
 20
-21.9454405212
 10
-10.6180824373
 20
-21.9309883022
 10
-10.6173940722
 20
-21.914093341
 10
-10.6160432134
 20
-21.873091595
  0
LINE
  5
287
100
AcDbEntity
  8
CURVE
100
AcDbLine
 62
253
  6
CONTINUOUS
 10
2.6709242042
 20
15.3170253957
 11
2.3461569903
 21
14.8700559514
  0
LINE
  5
288
100
AcDbEntity
  8
CURVE
100
AcDbLine
 62
253
  6
CONTINUOUS
 10
2.1760132577
 20
14.6360231737
 11
1.7901439489
 21
14.1048809516
  0
LWPOLYLINE
  5
289
100
AcDbEntity
  8
ASSI
100
AcDbPolyline
 62
253
  6
CONTINUOUS
 90
11
 70
0
 10
-11.1215388333
 20
-21.4790859672
 10
-11.1208227231
 20
-21.4760823772
 10
-11.1201116752
 20
-21.4714223801
 10
-11.1194056896
 20
-21.4651059759
 10
-11.1187035799
 20
-21.4571170091
 10
-11.1180065326
 20
-21.4474716353
 10
-11.1173181066
 20
-21.4362183207
 10
-11.1166383534
 20
-21.4233487802
 10
-11.1159672216
 20
-21.408871299
 10
-11.1153081156
 20
-21.3928591998
 10
-11.1140261235
 20
-21.356215989
  0
LWPOLYLINE
  5
28A
100
AcDbEntity
  8
CURVE
100
AcDbPolyline
 62
253
  6
CONTINUOUS
 90
49
 70
0
 10
0.2210144123
 20
13.8614792824
 10
0.2430787516
 20
13.9041753198
 10
0.2663916634
 20
13.9460838877
 10
0.2909363245
 20
13.9872051304
 10
0.3166959121
 20
14.027539192
 10
0.3436550135
 20
14.0670817521
 10
0.3718038579
 20
14.1058106312
 10
0.4011340845
 20
14.1436991854
 10
0.4316373328
 20
14.1807207703
 10
0.4633000601
 20
14.2168446132
 10
0.4960879946
 20
14.2520234254
 10
0.5299616825
 20
14.2862057897
 10
0.56488167
 20
14.3193402888
 10
0.6008060755
 20
14.3513795689
 10
0.637683307
 20
14.3822925313
 10
0.6754593447
 20
14.4120521409
 10
0.714080169
 20
14.4406313624
 10
0.7534968136
 20
14.4680043326
 10
0.7936805272
 20
14.4941498747
 10
0.8346076121
 20
14.519047984
 10
0.8762543705
 20
14.5426786555
 10
0.9185971048
 20
14.5650218843
 10
0.961612117
 20
14.5860576656
 10
1.0052757096
 20
14.6057659945
 10
1.0495641847
 20
14.624126866
 10
1.0944493024
 20
14.6411213069
 10
1.1398846543
 20
14.6567344697
 10
1.1858192897
 20
14.6709525386
 10
1.2322022578
 20
14.6837616977
 10
1.278982608
 20
14.6951481312
 10
1.3261093896
 20
14.7050980232
 10
1.3735316519
 20
14.7135975578
 10
1.4211984442
 20
14.7206329191
 10
1.4690573583
 20
14.7261939872
 10
1.5170501555
 20
14.730285425
 10
1.5651171395
 20
14.7329155916
 10
1.613198614
 20
14.7340928458
 10
1.6612348826
 20
14.7338255464
 10
1.7091662493
 20
14.7321220524
 10
1.7569330175
 20
14.7289907227
 10
1.8044754911
 20
14.7244399161
 10
1.8517465444
 20
14.7184742569
 10
1.8987493339
 20
14.7110834301
 10
1.945499587
 20
14.7022533862
 10
1.9920130308
 20
14.6919700756
 10
2.0383053925
 20
14.6802194486
 10
2.0843923994
 20
14.6669874557
 10
2.1302897787
 20
14.6522600473
 10
2.1760132577
 20
14.6360231737
  0
LINE
  5
28B
100
AcDbEntity
  8
ASSI
100
AcDbLine
 62
253
  6
CONTINUOUS
 10
-11.2060097768
 20
0.3203016421
 11
-11.0976385395
 21
0.3744831341
  0
LINE
  5
28C
100
AcDbEntity
  8
ASSI
100
AcDbLine
 62
253
  6
CONTINUOUS
 10
-11.0060097757
 20
0.1203244874
 11
-10.8976687104
 21
0.1744908945
  0
LINE
  5
28D
100
AcDbEntity
  8
ASSI
100
AcDbLine
 62
253
  6
CONTINUOUS
 10
-11.0976385395
 20
-0.3338341592
 11
-11.2060097768
 21
-0.2796526673
  0
LINE
  5
28E
100
AcDbEntity
  8
ASSI
100
AcDbLine
 62
253
  6
CONTINUOUS
 10
-10.8976687104
 20
-0.1338419197
 11
-11.0060097757
 21
-0.0796755126
  0
LWPOLYLINE
  5
28F
100
AcDbEntity
  8
CURVE
100
AcDbPolyline
 62
253
  6
CONTINUOUS
 90
69
 70
0
 10
-3.3717251123
 20
-14.5090927241
 10
-3.3716559438
 20
-14.5140286948
 10
-3.3714476151
 20
-14.5189979755
 10
-3.3710988916
 20
-14.5240026776
 10
-3.3706085389
 20
-14.5290449128
 10
-3.3699753222
 20
-14.5341267924
 10
-3.3691980072
 20
-14.5392504281
 10
-3.368275359
 20
-14.5444179313
 10
-3.3673470215
 20
-14.5489762057
 10
-3.3663006528
 20
-14.5535654816
 10
-3.3651304377
 20
-14.558181558
 10
-3.3638305608
 20
-14.5628202337
 10
-3.3623952067
 20
-14.5674773075
 10
-3.3608185602
 20
-14.5721485784
 10
-3.359094806
 20
-14.5768298452
 10
-3.3572181286
 20
-14.5815169067
 10
-3.3551832947
 20
-14.586203015
 10
-3.3529873981
 20
-14.5908712355
 10
-3.3506281145
 20
-14.5955020866
 10
-3.3481031198
 20
-14.6000760868
 10
-3.345961149
 20
-14.6036824097
 10
-3.3437038395
 20
-14.6072367865
 10
-3.3413233956
 20
-14.610736124
 10
-3.3388120212
 20
-14.6141773288
 10
-3.3361619205
 20
-14.6175573076
 10
-3.3338428135
 20
-14.6203234157
 10
-3.3314228799
 20
-14.6230338307
 10
-3.3289030448
 20
-14.625677526
 10
-3.3262842333
 20
-14.6282434748
 10
-3.3235673703
 20
-14.6307206502
 10
-3.3207533809
 20
-14.6330980255
 10
-3.3178428589
 20
-14.6353657405
 10
-3.3148350735
 20
-14.637518602
 10
-3.3117289624
 20
-14.6395525833
 10
-3.3085234636
 20
-14.6414636579
 10
-3.3052175149
 20
-14.6432477992
 10
-3.3018100542
 20
-14.6449009805
 10
-3.2983015147
 20
-14.6464198639
 10
-3.2946983108
 20
-14.647803865
 10
-3.2910083518
 20
-14.6490530884
 10
-3.2872395475
 20
-14.6501676385
 10
-3.2833998074
 20
-14.6511476196
 10
-3.279497041
 20
-14.6519931361
 10
-3.2755393631
 20
-14.652704825
 10
-3.2715357088
 20
-14.6532854538
 10
-3.2674952183
 20
-14.6537383225
 10
-3.2634270321
 20
-14.6540667313
 10
-3.2593402903
 20
-14.6542739802
 10
-3.2552441331
 20
-14.6543633692
 10
-3.2503268421
 20
-14.6543196625
 10
-3.2454108863
 20
-14.6541164216
 10
-3.2404979971
 20
-14.6537590784
 10
-3.2355899059
 20
-14.6532530649
 10
-3.2306883439
 20
-14.6526038129
 10
-3.2257970233
 20
-14.6518169335
 10
-3.2209275787
 20
-14.6508987544
 10
-3.2160936258
 20
-14.6498557823
 10
-3.2113087801
 20
-14.6486945241
 10
-3.2065866573
 20
-14.6474214866
 10
-3.2019388444
 20
-14.6460428796
 10
-3.197368815
 20
-14.6445637255
 10
-3.1928780145
 20
-14.6429887495
 10
-3.188467888
 20
-14.641322677
 10
-3.1841398808
 20
-14.6395702333
 10
-3.179892732
 20
-14.6377335584
 10
-3.175714356
 20
-14.635804451
 10
-3.1715899614
 20
-14.6337721247
 10
-3.1675047564
 20
-14.6316257927
 10
-3.1634439494
 20
-14.6293546685
  0
LINE
  5
290
100
AcDbEntity
  8
CURVE
100
AcDbLine
 62
253
  6
CONTINUOUS
 10
-3.3717251123
 20
-11.3256260583
 11
-3.3717251123
 21
-14.5090927434
  0
LINE
  5
291
100
AcDbEntity
  8
ASSI
100
AcDbLine
 62
253
  6
CONTINUOUS
 10
-11.1928558718
 20
-21.6932110723
 11
-11.1215388333
 21
-21.4790859672
  0
LINE
  5
292
100
AcDbEntity
  8
ASSI
100
AcDbLine
 62
253
  6
CONTINUOUS
 10
-11.1215388333
 20
21.519734942
 11
-11.1928558718
 21
21.7338600472
  0
LINE
  5
293
100
AcDbEntity
  8
CURVE
100
AcDbLine
 62
253
  6
CONTINUOUS
 10
-3.0939831749
 20
-14.2685335575
 11
-3.0939831749
 21
-11.5660793872
  0
LINE
  5
294
100
AcDbEntity
  8
CURVE
100
AcDbLine
 62
253
  6
CONTINUOUS
 10
-2.2633775745
 20
15.5680620624
 11
-2.2633775745
 21
12.613724499
  0
LINE
  5
295
100
AcDbEntity
  8
CURVE
100
AcDbLine
 62
253
  6
CONTINUOUS
 10
-2.2633775745
 20
12.3366176187
 11
-2.2633775745
 21
12.2294790087
  0
LINE
  5
296
100
AcDbEntity
  8
CURVE
100
AcDbLine
 62
253
  6
CONTINUOUS
 10
-1.9868703524
 20
12.2131101187
 11
-1.9868703524
 21
14.5995106309
  0
LWPOLYLINE
  5
297
100
AcDbEntity
  8
ASSI
100
AcDbPolyline
 62
253
  6
CONTINUOUS
 90
76
 70
0
 10
-1.4766175446
 20
4.5212246675
 10
-1.4754450738
 20
4.5797216461
 10
-1.4718171119
 20
4.638162493
 10
-1.4657336588
 20
4.6965472075
 10
-1.4571922569
 20
4.7550181112
 10
-1.4461953639
 20
4.8134328809
 10
-1.4327503527
 20
4.8713645502
 10
-1.4168252842
 20
4.9288098534
 10
-1.3984520975
 20
4.9857720578
 10
-1.3777339829
 20
5.0418339996
 10
-1.3546452441
 20
5.096978014
 10
-1.3292115775
 20
5.1512217704
 10
-1.3016132625
 20
5.204201109
 10
-1.271853321
 20
5.2558719984
 10
-1.2399287311
 20
5.3062784772
 10
-1.2060107071
 20
5.3551884916
 10
-1.1701018415
 20
5.4025886189
 10
-1.1321995417
 20
5.4484922902
 10
-1.0924672445
 20
5.4927077342
 10
-1.0508855612
 20
5.5352441289
 10
-1.0074738804
 20
5.5760923052
 10
-0.9624538048
 20
5.6150329722
 10
-0.9158078175
 20
5.652060775
 10
-0.8675534355
 20
5.6871810777
 10
-0.8179648116
 20
5.7201906691
 10
-0.7670402414
 20
5.7510719909
 10
-0.7147814294
 20
5.7798426103
 10
-0.6614676422
 20
5.8063520047
 10
-0.6070972422
 20
5.8305868961
 10
-0.551671867
 20
5.8525605703
 10
-0.4954756969
 20
5.8721623506
 10
-0.4385036153
 20
5.8893812017
 10
-0.3807607387
 20
5.904228165
 10
-0.3225465973
 20
5.9166256789
 10
-0.2638564452
 20
5.9265613796
 10
-0.2046950283
 20
5.9340476348
 10
-0.1453761137
 20
5.9390439794
 10
-0.0858993881
 20
5.941536933
 10
-0.0262651649
 20
5.9415399773
 10
0.0332118483
 20
5.9390530899
 10
0.0925313692
 20
5.9340627793
 10
0.15169368
 20
5.9265825357
 10
0.2103849197
 20
5.9166528077
 10
0.2686003696
 20
5.9042611986
 10
0.3263447484
 20
5.8894201012
 10
0.3833183512
 20
5.8722071485
 10
0.4395159577
 20
5.8526113271
 10
0.4949427883
 20
5.8306436443
 10
0.5493147997
 20
5.8064147646
 10
0.6026302178
 20
5.7799115412
 10
0.6548908167
 20
5.7511471131
 10
0.7058178754
 20
5.7202715738
 10
0.7554098993
 20
5.6872673002
 10
0.8036683829
 20
5.6521519066
 10
0.8503190897
 20
5.6151283427
 10
0.8953448792
 20
5.5761907564
 10
0.9387628919
 20
5.5353449906
 10
0.9803503126
 20
5.4928115384
 10
1.0200874066
 20
5.4485996118
 10
1.0579939087
 20
5.4026999897
 10
1.0939062077
 20
5.3553055164
 10
1.1278262684
 20
5.3064038888
 10
1.1597521261
 20
5.2560074015
 10
1.1895142751
 20
5.2043457966
 10
1.2171161117
 20
5.1513754881
 10
1.2425542396
 20
5.0971400548
 10
1.2656489642
 20
5.0419999874
 10
1.2863753127
 20
4.9859365743
 10
1.3047582579
 20
4.9289685224
 10
1.3206930236
 20
4.8715124536
 10
1.3341477327
 20
4.8135641398
 10
1.3451542623
 20
4.7551278073
 10
1.3537034674
 20
4.6966327624
 10
1.3597922997
 20
4.6382221081
 10
1.3634238076
 20
4.5797527429
 10
1.3645979909
 20
4.5212246675
  0
LWPOLYLINE
  5
298
100
AcDbEntity
  8
CURVE
100
AcDbPolyline
 62
253
  6
CONTINUOUS
 90
80
 70
0
 10
-2.2633775745
 20
12.2294790076
 10
-2.2643948829
 20
12.209914017
 10
-2.2659022539
 20
12.1901750412
 10
-2.2669307143
 20
12.1802774177
 10
-2.2682018533
 20
12.1703544941
 10
-2.269761579
 20
12.1603870404
 10
-2.2716410258
 20
12.1503675156
 10
-2.2738538052
 20
12.1402894407
 10
-2.2763582084
 20
12.1301388976
 10
-2.2791148904
 20
12.1199031991
 10
-2.2821492794
 20
12.1095820194
 10
-2.2855105789
 20
12.0991813309
 10
-2.2892783192
 20
12.0887199374
 10
-2.2935183109
 20
12.0782150882
 10
-2.2982111592
 20
12.0676649853
 10
-2.3033219711
 20
12.0570589134
 10
-2.3088390647
 20
12.0463695365
 10
-2.3147529023
 20
12.0355664967
 10
-2.3210393117
 20
12.0246239702
 10
-2.3299743419
 20
12.0097809445
 10
-2.3395864583
 20
11.9946275054
 10
-2.3499398736
 20
11.9791451097
 10
-2.3582306936
 20
11.9673097119
 10
-2.3670056213
 20
11.955291612
 10
-2.3762956643
 20
11.9431035765
 10
-2.3861318299
 20
11.9307583721
 10
-2.3965423863
 20
11.9182674352
 10
-2.4075446444
 20
11.9056368831
 10
-2.419153176
 20
11.8928715032
 10
-2.4313825528
 20
11.8799760827
 10
-2.4442481482
 20
11.8669571711
 10
-2.4577685424
 20
11.8538283661
 10
-2.4719631175
 20
11.8406050277
 10
-2.4868512555
 20
11.8273025155
 10
-2.502452819
 20
11.8139387688
 10
-2.5187895935
 20
11.8005420427
 10
-2.5358838452
 20
11.7871431718
 10
-2.5537578403
 20
11.7737729905
 10
-2.57242634
 20
11.7604665206
 10
-2.5918740853
 20
11.7472755325
 10
-2.6120783119
 20
11.734255984
 10
-2.6330162559
 20
11.7214638329
 10
-2.6546639862
 20
11.7089541003
 10
-2.6769929048
 20
11.6967780607
 10
-2.699973247
 20
11.684986052
 10
-2.7235752478
 20
11.673628412
 10
-2.747769092
 20
11.6627556014
 10
-2.7725247614
 20
11.6524185711
 10
-2.7978121874
 20
11.6426683948
 10
-2.8236013016
 20
11.6335561461
 10
-2.8445628356
 20
11.6267616778
 10
-2.8657462115
 20
11.6204445276
 10
-2.8870714346
 20
11.6146410527
 10
-2.9084585105
 20
11.6093876105
 10
-2.9298274445
 20
11.604720558
 10
-2.9475688137
 20
11.6013021707
 10
-2.9652287074
 20
11.5983172256
 10
-2.9827938005
 20
11.5957667017
 10
-3.0002419414
 20
11.5936520359
 10
-3.0175156721
 20
11.5919764973
 10
-3.034548708
 20
11.5907438132
 10
-3.0512889924
 20
11.5899556424
 10
-3.0677413793
 20
11.5896053705
 10
-3.0839249502
 20
11.5896843151
 10
-3.0998529199
 20
11.5901873425
 10
-3.1155150347
 20
11.5911235153
 10
-3.1308951738
 20
11.5925054452
 10
-3.1459756708
 20
11.5943442807
 10
-3.1607326758
 20
11.5966453178
 10
-3.1751407931
 20
11.5994123898
 10
-3.1891762905
 20
11.6026481782
 10
-3.2028220895
 20
11.6063507592
 10
-3.216062775
 20
11.6105170577
 10
-3.2288754086
 20
11.6151494906
 10
-3.2412069589
 20
11.6202724424
 10
-3.2529968715
 20
11.6259157898
 10
-3.2614521023
 20
11.6305121893
 10
-3.2695710956
 20
11.6354571621
 10
-3.277356347
 20
11.6407897533
 10
-3.284810352
 20
11.6465490078
  0
LINE
  5
299
100
AcDbEntity
  8
ASSI
100
AcDbLine
 62
253
  6
CONTINUOUS
 10
-10.6924760485
 20
-22.1911568001
 11
-10.6216152881
 21
-21.9784016422
  0
LWPOLYLINE
  5
29A
100
AcDbEntity
  8
CURVE
100
AcDbPolyline
 62
253
  6
CONTINUOUS
 90
17
 70
0
 10
3.0589453433
 20
12.5137275176
 10
3.0584911409
 20
12.5125710343
 10
3.0580472098
 20
12.5114090226
 10
3.0576135522
 20
12.5102411603
 10
3.0571901706
 20
12.5090671248
 10
3.0567770672
 20
12.5078865937
 10
3.0563742445
 20
12.5066992448
 10
3.0559817049
 20
12.5055047555
 10
3.0555994505
 20
12.5043028035
 10
3.0552274839
 20
12.5030930663
 10
3.0548658074
 20
12.5018752217
 10
3.0545144234
 20
12.500648947
 10
3.0541733341
 20
12.4994139201
 10
3.053842542
 20
12.4981698184
 10
3.0535220494
 20
12.4969163196
 10
3.0532118587
 20
12.4956531012
 10
3.0529119723
 20
12.4943798409
  0
LWPOLYLINE
  5
29B
100
AcDbEntity
  8
CURVE
100
AcDbPolyline
 62
253
  6
CONTINUOUS
 90
79
 70
0
 10
3.0529119723
 20
12.4943798409
 10
3.0244008939
 20
12.436861023
 10
2.9938344099
 20
12.3811298028
 10
2.9611532883
 20
12.3269292193
 10
2.9263100634
 20
12.2740568729
 10
2.8893043351
 20
12.2225286094
 10
2.8501474699
 20
12.172414836
 10
2.8088686163
 20
12.1237968632
 10
2.7655680528
 20
12.0767996151
 10
2.7203638398
 20
12.0315589193
 10
2.673364037
 20
11.9881979432
 10
2.6246366995
 20
11.9467892148
 10
2.5742398812
 20
11.9073926019
 10
2.5222413985
 20
11.8700681423
 10
2.4687481169
 20
11.8348765523
 10
2.4138766646
 20
11.8018787184
 10
2.3577436696
 20
11.7711355266
 10
2.3004657597
 20
11.7427078633
 10
2.2421595631
 20
11.7166566147
 10
2.1829344212
 20
11.6930356455
 10
2.1228705293
 20
11.6718707342
 10
2.0620407961
 20
11.6531806375
 10
2.0005181302
 20
11.6369841123
 10
1.9383754405
 20
11.6232999156
 10
1.8756856356
 20
11.6121468041
 10
1.8125321721
 20
11.6035394873
 10
1.7490406974
 20
11.5974764842
 10
1.6853474069
 20
11.5939522666
 10
1.621588496
 20
11.5929613061
 10
1.5579001598
 20
11.5944980744
 10
1.4944185939
 20
11.5985570431
 10
1.4312669021
 20
11.6051349119
 10
1.3685158237
 20
11.6142372922
 10
1.3062230064
 20
11.6258720236
 10
1.2444460981
 20
11.6400469456
 10
1.1832427466
 20
11.6567698977
 10
1.1226705998
 20
11.6760487194
 10
1.0628015725
 20
11.6978756193
 10
1.0037646479
 20
11.7221802825
 10
0.9457030761
 20
11.7488767634
 10
0.8887601074
 20
11.777879116
 10
0.8330789919
 20
11.8091013946
 10
0.7788029799
 20
11.8424576535
 10
0.7260573516
 20
11.8778722429
 10
0.6748955078
 20
11.9153106974
 10
0.6253528796
 20
11.9547488474
 10
0.5774648979
 20
11.9961625236
 10
0.5312669936
 20
12.0395275564
 10
0.4867945976
 20
12.0848197763
 10
0.444093338
 20
12.1319959935
 10
0.4032496316
 20
12.1809369359
 10
0.364360092
 20
12.231504311
 10
0.327521333
 20
12.2835598265
 10
0.2928299685
 20
12.3369651897
 10
0.2603826121
 20
12.3915821083
 10
0.2302620515
 20
12.4472907816
 10
0.2024957697
 20
12.5040453764
 10
0.1770974236
 20
12.5618185516
 10
0.1540806702
 20
12.6205829657
 10
0.1334591661
 20
12.6803112776
 10
0.1152465684
 20
12.740976146
 10
0.0994627142
 20
12.8025285646
 10
0.0861521622
 20
12.864832867
 10
0.0753656515
 20
12.9277317222
 10
0.0671443811
 20
12.9910667364
 10
0.0614913904
 20
13.0546752671
 10
0.0584001786
 20
13.1183936095
 10
0.057864066
 20
13.1820767017
 10
0.0598756557
 20
13.2456540546
 10
0.0644273716
 20
13.3090738221
 10
0.0715184278
 20
13.3722888427
 10
0.0811751983
 20
13.4352706924
 10
0.0934308474
 20
13.4979956318
 10
0.1083092071
 20
13.5604110583
 10
0.1257967803
 20
13.6223489184
 10
0.1458707381
 20
13.6836122954
 10
0.1684946136
 20
13.7440077141
 10
0.1935773898
 20
13.8033554656
 10
0.2210144123
 20
13.8614792824
  0
LWPOLYLINE
  5
29C
100
AcDbEntity
  8
ASSI
100
AcDbPolyline
 62
253
  6
CONTINUOUS
 90
7
 70
0
 10
10.7856491567
 20
-0.1338419197
 10
10.7849676498
 20
-0.1339778333
 10
10.7834953482
 20
-0.1341125675
 10
10.7812322518
 20
-0.1342461223
 10
10.778168189
 20
-0.1343788539
 10
10.7743133316
 20
-0.134510406
 10
10.7696981943
 20
-0.1346397097
  0
LWPOLYLINE
  5
29D
100
AcDbEntity
  8
ASSI
100
AcDbPolyline
 62
253
  6
CONTINUOUS
 90
5
 70
0
 10
10.9856189856
 20
-0.333834213
 10
10.9844979485
 20
-0.3339775431
 10
10.9820397126
 20
-0.3341197025
 10
10.9782511262
 20
-0.3342606417
 10
10.9731428612
 20
-0.3344006255
  0
LINE
  5
29E
100
AcDbEntity
  8
ASSI
100
AcDbLine
 62
253
  6
CONTINUOUS
 10
-10.621615288
 20
22.0190506171
 11
-10.6924760485
 21
22.231805775
  0
LWPOLYLINE
  5
29F
100
AcDbEntity
  8
CURVE
100
AcDbPolyline
 62
253
  6
CONTINUOUS
 90
73
 70
0
 10
-0.2223121108
 20
13.1635992852
 10
-0.2209719956
 20
13.093376475
 10
-0.2169868905
 20
13.023893065
 10
-0.2104096565
 20
12.9548914043
 10
-0.2012840751
 20
12.886169523
 10
-0.1896176102
 20
12.8177481754
 10
-0.1754086466
 20
12.7497037967
 10
-0.1586589636
 20
12.682125994
 10
-0.1393839202
 20
12.6151570607
 10
-0.1176022701
 20
12.5489524621
 10
-0.093335225
 20
12.4836556352
 10
-0.0666138288
 20
12.419361904
 10
-0.0374715833
 20
12.3561545646
 10
-0.0059451485
 20
12.2941156558
 10
0.0279161839
 20
12.2333221871
 10
0.064059964
 20
12.1738499112
 10
0.1024337419
 20
12.1157745803
 10
0.1429850677
 20
12.0591719472
 10
0.1856614917
 20
12.0041177641
 10
0.2304074178
 20
11.9506863689
 10
0.2771546661
 20
11.8989464411
 10
0.3258319106
 20
11.8489652453
 10
0.3763678252
 20
11.8008100464
 10
0.4286910838
 20
11.754548109
 10
0.4827303605
 20
11.710246698
 10
0.5384129181
 20
11.667972859
 10
0.5956603751
 20
11.6277927619
 10
0.6543929391
 20
11.5897723574
 10
0.7145308175
 20
11.5539775964
 10
0.7759942178
 20
11.5204744295
 10
0.8387033475
 20
11.4893288076
 10
0.9025742317
 20
11.4606013783
 10
0.9675061663
 20
11.4343315759
 10
1.0333942647
 20
11.4105535318
 10
1.1001336406
 20
11.3893013773
 10
1.1676194074
 20
11.3706092435
 10
1.2357466785
 20
11.3545112617
 10
1.3044126594
 20
11.3410352069
 10
1.3735229227
 20
11.3301834289
 10
1.4429851328
 20
11.321951921
 10
1.5127069542
 20
11.3163366767
 10
1.5825960513
 20
11.3133336895
 10
1.6525600887
 20
11.3129389528
 10
1.722505816
 20
11.315149986
 10
1.7923363243
 20
11.3199704125
 10
1.86195379
 20
11.3274053816
 10
1.9312603892
 20
11.3374600424
 10
2.0001582983
 20
11.3501395445
 10
2.0685496936
 20
11.3654490369
 10
2.1363369697
 20
11.3833864207
 10
2.2034233948
 20
11.4039206027
 10
2.269712455
 20
11.4270132416
 10
2.3351076369
 20
11.4526259959
 10
2.3995124267
 20
11.4807205242
 10
2.4628303107
 20
11.511258485
 10
2.5249657256
 20
11.5441981208
 10
2.5858269083
 20
11.5794840091
 10
2.6453230463
 20
11.6170573113
 10
2.7033633267
 20
11.6568591888
 10
2.7598569368
 20
11.698830803
 10
2.814713064
 20
11.7429133154
 10
2.8678454657
 20
11.7890472582
 10
2.919186181
 20
11.8371706478
 10
2.9686718191
 20
11.8872208713
 10
3.0162321329
 20
11.9391227041
 10
3.06176945
 20
11.992750474
 10
3.1051792415
 20
12.0479658968
 10
3.1463723413
 20
12.1046426953
 10
3.1853210339
 20
12.1627026194
 10
3.2220129661
 20
12.222079426
 10
3.2564470942
 20
12.2827593828
 10
3.2886676117
 20
12.3449388022
 10
3.3187300211
 20
12.4088665076
  0
LWPOLYLINE
  5
2A0
100
AcDbEntity
  8
CURVE
100
AcDbPolyline
 62
253
  6
CONTINUOUS
 90
68
 70
0
 10
-0.4462801869
 20
-14.5090927241
 10
-0.4462106032
 20
-14.5140388506
 10
-0.4460010374
 20
-14.5190178387
 10
-0.4456502683
 20
-14.5240318401
 10
-0.4451570744
 20
-14.5290830067
 10
-0.444520234
 20
-14.5341734904
 10
-0.4437385258
 20
-14.5393054431
 10
-0.4428107283
 20
-14.5444810167
 10
-0.4418772771
 20
-14.5490461639
 10
-0.4408252469
 20
-14.5536420731
 10
-0.4396488439
 20
-14.5582644614
 10
-0.4383422739
 20
-14.5629090458
 10
-0.4368997428
 20
-14.5675715437
 10
-0.4353154567
 20
-14.5722476722
 10
-0.4335836215
 20
-14.5769331483
 10
-0.4316984432
 20
-14.5816236894
 10
-0.4296547139
 20
-14.5863124782
 10
-0.4274495711
 20
-14.5909825608
 10
-0.4250807385
 20
-14.5956144491
 10
-0.4225459396
 20
-14.6001886547
 10
-0.4203959808
 20
-14.6037945318
 10
-0.418130615
 20
-14.6073478826
 10
-0.4157421107
 20
-14.6108455701
 10
-0.4132227361
 20
-14.6142844576
 10
-0.4105647595
 20
-14.6176614078
 10
-0.4082392268
 20
-14.6204244287
 10
-0.4058130136
 20
-14.6231312751
 10
-0.4032870596
 20
-14.6257709628
 10
-0.4006623051
 20
-14.6283325077
 10
-0.3979396898
 20
-14.6308049257
 10
-0.3951201538
 20
-14.6331772326
 10
-0.392204316
 20
-14.6354396153
 10
-0.3891915117
 20
-14.6375869452
 10
-0.3860807548
 20
-14.6396152647
 10
-0.3828710595
 20
-14.6415206162
 10
-0.37956144
 20
-14.6432990421
 10
-0.3761509103
 20
-14.644946585
 10
-0.3726399637
 20
-14.646459969
 10
-0.3690350093
 20
-14.647838646
 10
-0.3653439353
 20
-14.6490827494
 10
-0.3615746301
 20
-14.6501924131
 10
-0.3577349817
 20
-14.6511677704
 10
-0.3538328786
 20
-14.6520089552
 10
-0.3498764233
 20
-14.6527166287
 10
-0.3458745766
 20
-14.6532935641
 10
-0.3418365137
 20
-14.6537430622
 10
-0.3377714096
 20
-14.6540684238
 10
-0.3336884395
 20
-14.6542729498
 10
-0.3295967787
 20
-14.654359941
 10
-0.3246858587
 20
-14.6543137852
 10
-0.3197772484
 20
-14.6541085545
 10
-0.3148725603
 20
-14.6537496707
 10
-0.3099734066
 20
-14.6532425557
 10
-0.3050813997
 20
-14.6525926315
 10
-0.3002001333
 20
-14.65180549
 10
-0.2953411275
 20
-14.6508874043
 10
-0.2905178836
 20
-14.6498448174
 10
-0.285743903
 20
-14.6486841723
 10
-0.2810326873
 20
-14.6474119121
 10
-0.2752485804
 20
-14.6456738747
 10
-0.2695864974
 20
-14.6437806755
 10
-0.2640492962
 20
-14.6417414841
 10
-0.2586398347
 20
-14.63956547
 10
-0.2544034678
 20
-14.6377297329
 10
-0.2502360018
 20
-14.635801541
 10
-0.246122755
 20
-14.6337701374
 10
-0.2420490457
 20
-14.6316247655
 10
-0.2380001922
 20
-14.6293546685
  0
LINE
  5
2A1
100
AcDbEntity
  8
CURVE
100
AcDbLine
 62
253
  6
CONTINUOUS
 10
-0.4462801869
 20
-11.3256260583
 11
-0.4462801869
 21
-12.7742022039
  0
LINE
  5
2A2
100
AcDbEntity
  8
CURVE
100
AcDbLine
 62
253
  6
CONTINUOUS
 10
-0.4462801869
 20
-13.0605518912
 11
-0.4462801869
 21
-14.5090927398
  0
LINE
  5
2A3
100
AcDbEntity
  8
CURVE
100
AcDbLine
 62
253
  6
CONTINUOUS
 10
-0.1685382496
 20
-14.2685335575
 11
-0.1685382496
 21
-11.5660793872
  0
LINE
  5
2A4
100
AcDbEntity
  8
CURVE
100
AcDbLine
 62
253
  6
CONTINUOUS
 10
-1.1588312536
 20
13.2272403963
 11
-1.1564323648
 21
14.1595615071
  0
LWPOLYLINE
  5
2A5
100
AcDbEntity
  8
ASSI
100
AcDbPolyline
 62
253
  6
CONTINUOUS
 90
76
 70
0
 10
-1.4766175446
 20
-4.4805756926
 10
-1.475463014
 20
-4.4220673979
 10
-1.4718520712
 20
-4.3636145946
 10
-1.4657847162
 20
-4.3052172837
 10
-1.4572585245
 20
-4.2467330746
 10
-1.4462759207
 20
-4.1883043596
 10
-1.4328441782
 20
-4.1303583148
 10
-1.4169313353
 20
-4.0728982036
 10
-1.3985693537
 20
-4.015920767
 10
-1.3778613915
 20
-3.959843401
 10
-1.354781738
 20
-3.9046837948
 10
-1.329356104
 20
-3.8504242655
 10
-1.3017647805
 20
-3.7974291523
 10
-1.2720108018
 20
-3.7457425369
 10
-1.2400911337
 20
-3.6953203449
 10
-1.2061769644
 20
-3.6463946836
 10
-1.1702708864
 20
-3.5989789696
 10
-1.1323703073
 20
-3.5530597935
 10
-1.0926386382
 20
-3.5088290245
 10
-1.0510564702
 20
-3.4662774647
 10
-1.0076432121
 20
-3.4254143188
 10
-0.9626205016
 20
-3.3864590605
 10
-0.9159708084
 20
-3.3494170509
 10
-0.8677116627
 20
-3.3142829351
 10
-0.8181172932
 20
-3.2812601137
 10
-0.7671859789
 20
-3.2503661558
 10
-0.7149194408
 20
-3.2215834979
 10
-0.6615970695
 20
-3.1950628414
 10
-0.6072172074
 20
-3.1708174761
 10
-0.5517815123
 20
-3.1488341168
 10
-0.4955743481
 20
-3.1292236024
 10
-0.438590579
 20
-3.1119969849
 10
-0.3808353409
 20
-3.0971432156
 10
-0.3226084056
 20
-3.0847399829
 10
-0.2639050129
 20
-3.0747996723
 10
-0.2047299232
 20
-3.0673099003
 10
-0.1453971887
 20
-3.0623112017
 10
-0.0859064933
 20
-3.0598170807
 10
-0.0262581533
 20
-3.0598140337
 10
0.0332328299
 20
-3.0623020833
 10
0.0925661711
 20
-3.0672947425
 10
0.1517421555
 20
-3.0747784975
 10
0.2104466368
 20
-3.0847128301
 10
0.268674882
 20
-3.097110153
 10
0.3264316242
 20
-3.1119580514
 10
0.3834169165
 20
-3.1291787655
 10
0.4396255191
 20
-3.1487833161
 10
0.4950626719
 20
-3.170760679
 10
0.5494441475
 20
-3.1950000277
 10
0.6027681519
 20
-3.2215145081
 10
0.6550364791
 20
-3.2502909697
 10
0.7059702844
 20
-3.2811791402
 10
0.7555680567
 20
-3.3141966391
 10
0.8038313071
 20
-3.3493258413
 10
0.8504857239
 20
-3.3863636087
 10
0.8955141535
 20
-3.4253157843
 10
0.9389337494
 20
-3.4661765186
 10
0.9805216609
 20
-3.5087251354
 10
1.0202581333
 20
-3.5529523873
 10
1.0581629214
 20
-3.5988675148
 10
1.0940724386
 20
-3.6462775737
 10
1.1279886492
 20
-3.695194844
 10
1.1599095889
 20
-3.7456070385
 10
1.1896657789
 20
-3.797284363
 10
1.2172606282
 20
-3.8502704384
 10
1.2426907276
 20
-3.9045216364
 10
1.2657763714
 20
-3.9596772909
 10
1.2864925728
 20
-4.0157561282
 10
1.3048643184
 20
-4.0727394157
 10
1.3207868628
 20
-4.1302103002
 10
1.3342283061
 20
-4.1881730021
 10
1.345220548
 20
-4.2466232966
 10
1.3537545422
 20
-4.3051316654
 10
1.3598272729
 20
-4.3635549356
 10
1.3634417559
 20
-4.4220362783
 10
1.3645979909
 20
-4.4805756926
  0
LWPOLYLINE
  5
2A6
100
AcDbEntity
  8
ASSI
100
AcDbPolyline
 62
253
  6
CONTINUOUS
 90
76
 70
0
 10
-1.3766327751
 20
-4.4796755126
 10
-1.3755279287
 20
-4.4254438386
 10
-1.3721780722
 20
-4.3710751801
 10
-1.3665606692
 20
-4.3166637914
 10
-1.3586515299
 20
-4.2622724584
 10
-1.3484388814
 20
-4.2080333602
 10
-1.3359374536
 20
-4.1541452898
 10
-1.321153235
 20
-4.100705001
 10
-1.3040972076
 20
-4.0478124229
 10
-1.284823271
 20
-3.9956650892
 10
-1.2633661683
 20
-3.9443631366
 10
-1.2397591308
 20
-3.89399151
 10
-1.2140820655
 20
-3.8447143727
 10
-1.1864063726
 20
-3.7966464608
 10
-1.1567716603
 20
-3.7498359395
 10
-1.1252219923
 20
-3.7043404737
 10
-1.0918233646
 20
-3.6602456332
 10
-1.056632341
 20
-3.6176170391
 10
-1.0196752034
 20
-3.5764846343
 10
-0.9810017351
 20
-3.5369091246
 10
-0.9406902632
 20
-3.4989757281
 10
-0.8988088766
 20
-3.4627519066
 10
-0.8554223745
 20
-3.4282978354
 10
-0.8106122248
 20
-3.3956821949
 10
-0.7644774439
 20
-3.3649782262
 10
-0.717106123
 20
-3.3362431955
 10
-0.6685758582
 20
-3.3095228437
 10
-0.6189752281
 20
-3.2848649535
 10
-0.5683954065
 20
-3.2623134032
 10
-0.5169224792
 20
-3.2419051559
 10
-0.4646397009
 20
-3.2236726164
 10
-0.4116376457
 20
-3.2076474062
 10
-0.3580108387
 20
-3.1938581397
 10
-0.3038498552
 20
-3.1823282915
 10
-0.2492477012
 20
-3.173078227
 10
-0.1943024373
 20
-3.1661251201
 10
-0.1391133443
 20
-3.1614817819
 10
-0.0837780174
 20
-3.1591564666
 10
-0.0283932554
 20
-3.1591532845
 10
0.0269424189
 20
-3.1614722465
 10
0.0821322347
 20
-3.1661092664
 10
0.1370785643
 20
-3.1730561107
 10
0.1916820367
 20
-3.182299973
 10
0.2458446294
 20
-3.1938236993
 10
0.2994732905
 20
-3.2076069272
 10
0.3524772355
 20
-3.2236261245
 10
0.4047618442
 20
-3.2418526234
 10
0.4562366515
 20
-3.2622548154
 10
0.5068185049
 20
-3.2848003236
 10
0.5564211658
 20
-3.3094520998
 10
0.6049536302
 20
-3.3361663337
 10
0.6523278629
 20
-3.3648955834
 10
0.6984663814
 20
-3.3955942782
 10
0.7432808926
 20
-3.428205124
 10
0.7866723974
 20
-3.4626549971
 10
0.8285597833
 20
-3.4988756565
 10
0.8688777391
 20
-3.5368066441
 10
0.9075570151
 20
-3.5763793867
 10
0.9445192053
 20
-3.6175084046
 10
0.9797147744
 20
-3.6601330731
 10
1.0131170055
 20
-3.7042226447
 10
1.044668872
 20
-3.7497103869
 10
1.0743053108
 20
-3.7965115483
 10
1.1019837408
 20
-3.8445706847
 10
1.1276643818
 20
-3.8938395046
 10
1.1512758698
 20
-3.9442035477
 10
1.1727394218
 20
-3.9955018201
 10
1.1920216697
 20
-4.0476505874
 10
1.2090869373
 20
-4.1005489041
 10
1.2238808342
 20
-4.1539994969
 10
1.236391953
 20
-4.2079030489
 10
1.2466136069
 20
-4.2621623141
 10
1.2545303318
 20
-4.3165770033
 10
1.260153509
 20
-4.3710143625
 10
1.2635070711
 20
-4.4254119936
 10
1.2646132214
 20
-4.4796755126
  0
LWPOLYLINE
  5
2A7
100
AcDbEntity
  8
ASSI
100
AcDbPolyline
 62
253
  6
CONTINUOUS
 90
76
 70
0
 10
-1.3766327751
 20
4.5203244874
 10
-1.375509959
 20
4.5745456535
 10
-1.3721429925
 20
4.6289030227
 10
-1.36650935
 20
4.6833023825
 10
-1.3585848101
 20
4.7376809675
 10
-1.3483576504
 20
4.7919066546
 10
-1.3358427217
 20
4.8457807627
 10
-1.3210460046
 20
4.8992065977
 10
-1.3039784715
 20
4.9520842777
 10
-1.2846941148
 20
5.0042163953
 10
-1.2632276455
 20
5.0555029003
 10
-1.2396122676
 20
5.1058588831
 10
-1.2139279676
 20
5.1551202572
 10
-1.1862460903
 20
5.2031724001
 10
-1.15660621
 20
5.2499671605
 10
-1.1250525073
 20
5.2954468294
 10
-1.0916509484
 20
5.3395259039
 10
-1.0564580491
 20
5.3821388332
 10
-1.0195001995
 20
5.4232556647
 10
-0.9808271618
 20
5.4628157478
 10
-0.9405172057
 20
5.5007339551
 10
-0.8986384796
 20
5.5369428918
 10
-0.8552557337
 20
5.5713824589
 10
-0.8104503794
 20
5.6039840443
 10
-0.7643214744
 20
5.6346744819
 10
-0.7169570482
 20
5.6633965823
 10
-0.6684346242
 20
5.690104667
 10
-0.6188427981
 20
5.7147510239
 10
-0.5682726727
 20
5.7372918415
 10
-0.5168102446
 20
5.7576902153
 10
-0.4645387498
 20
5.7759138077
 10
-0.4115486795
 20
5.7919310524
 10
-0.3579344573
 20
5.8057133804
 10
-0.3037866039
 20
5.817237373
 10
-0.2491980303
 20
5.8264827042
 10
-0.1942666876
 20
5.8334322262
 10
-0.1390917745
 20
5.8380731595
 10
-0.0837707787
 20
5.8403972696
 10
-0.0284003905
 20
5.8404004486
 10
0.0269209524
 20
5.8380826859
 10
0.0820965876
 20
5.8334480649
 10
0.1370289951
 20
5.8265047997
 10
0.1916188856
 20
5.8172656648
 10
0.2457683462
 20
5.8057477886
 10
0.2993844203
 20
5.7919714936
 10
0.3523763778
 20
5.7759602565
 10
0.4046497003
 20
5.7577426994
 10
0.4561140058
 20
5.7373503757
 10
0.5066861602
 20
5.7148155951
 10
0.5562800142
 20
5.690175347
 10
0.604804635
 20
5.6634733749
 10
0.6521719698
 20
5.6347570508
 10
0.6983046089
 20
5.6040718824
 10
0.7431143208
 20
5.5714750874
 10
0.7865020646
 20
5.537039715
 10
0.8283867842
 20
5.5008339385
 10
0.868703218
 20
5.4629181394
 10
0.9073820568
 20
5.4233608229
 10
0.9443449521
 20
5.3822473783
 10
0.97954239
 20
5.3396383753
 10
1.0129475463
 20
5.2955645686
 10
1.0445034428
 20
5.2500926195
 10
1.0741450452
 20
5.2033072135
 10
1.101829655
 20
5.1552638403
 10
1.1275175265
 20
5.1060107767
 10
1.1511373505
 20
5.0556623702
 10
1.1726102637
 20
5.0043795416
 10
1.1919029262
 20
4.9522459911
 10
1.2089796943
 20
4.8993625763
 10
1.2237860852
 20
4.8459264453
 10
1.2363107019
 20
4.7920368682
 10
1.2465468659
 20
4.7377910302
 10
1.2544789926
 20
4.6833891072
 10
1.260118413
 20
4.6289637967
 10
1.2634890918
 20
4.5745774762
 10
1.2646132214
 20
4.5203244874
  0
LWPOLYLINE
  5
2A8
100
AcDbEntity
  8
CURVE
100
AcDbPolyline
 62
253
  6
CONTINUOUS
 90
82
 70
0
 10
3.3187300211
 20
12.4088665076
 10
3.3203393995
 20
12.4129446961
 10
3.321788116
 20
12.416964252
 10
3.3230927576
 20
12.4209612144
 10
3.3242699115
 20
12.424971622
 10
3.3256615199
 20
12.4303831128
 10
3.3268455791
 20
12.4358544594
 10
3.3278116962
 20
12.4413575461
 10
3.3285514784
 20
12.4468685013
 10
3.3290645318
 20
12.4523804292
 10
3.3293524624
 20
12.4578906785
 10
3.3294160018
 20
12.4633994432
 10
3.3292523842
 20
12.4689182996
 10
3.3288579695
 20
12.4744616697
 10
3.3282303534
 20
12.4800382142
 10
3.3273720757
 20
12.4856335501
 10
3.3262869121
 20
12.4912275328
 10
3.3249786383
 20
12.496800018
 10
3.3234510299
 20
12.5023308615
 10
3.3217078628
 20
12.5077999188
 10
3.3197528964
 20
12.5131891488
 10
3.317589826
 20
12.5184889229
 10
3.3152223305
 20
12.5236917157
 10
3.3126540889
 20
12.5287900018
 10
3.3098887803
 20
12.5337762557
 10
3.3069300837
 20
12.5386429521
 10
3.3037816912
 20
12.543382294
 10
3.3004473474
 20
12.5479853989
 10
3.2969308102
 20
12.5524431128
 10
3.2932358374
 20
12.5567462815
 10
3.2893661868
 20
12.5608857512
 10
3.2853256162
 20
12.5648523677
 10
3.2811192575
 20
12.5686380036
 10
3.2767577394
 20
12.5722386371
 10
3.2722530646
 20
12.575651273
 10
3.2676172359
 20
12.5788729162
 10
3.2628622561
 20
12.5819005714
 10
3.258000128
 20
12.5847312436
 10
3.2530419949
 20
12.5873622731
 10
3.2479955631
 20
12.5897923431
 10
3.2428676795
 20
12.5920204723
 10
3.2376651909
 20
12.5940456797
 10
3.2323949443
 20
12.595866984
 10
3.2270637865
 20
12.5974834039
 10
3.2216786418
 20
12.5988934879
 10
3.2162467441
 20
12.600093902
 10
3.2107754049
 20
12.6010808418
 10
3.2052719354
 20
12.6018505031
 10
3.1997436471
 20
12.6023990814
 10
3.1941978513
 20
12.6027227724
 10
3.1886423503
 20
12.6028187831
 10
3.1830869106
 20
12.6026883661
 10
3.1775417896
 20
12.6023337852
 10
3.1720172445
 20
12.6017573045
 10
3.1665235329
 20
12.6009611877
 10
3.161070912
 20
12.5999476989
 10
3.155669126
 20
12.598719312
 10
3.1503258662
 20
12.5972793417
 10
3.1450483105
 20
12.5956313125
 10
3.139843637
 20
12.5937787493
 10
3.1347190235
 20
12.5917251765
 10
3.1296816482
 20
12.5894741189
 10
3.1247389538
 20
12.5870291043
 10
3.1198994422
 20
12.584393673
 10
3.11517188
 20
12.5815713684
 10
3.1105650338
 20
12.5785657339
 10
3.1060876703
 20
12.575380313
 10
3.101748556
 20
12.572018649
 10
3.097556322
 20
12.5684866532
 10
3.093519056
 20
12.5647997077
 10
3.08964471
 20
12.5609755626
 10
3.0859412362
 20
12.5570319678
 10
3.0824165865
 20
12.5529866733
 10
3.079078713
 20
12.5488574291
 10
3.0759333889
 20
12.5446596982
 10
3.0729776716
 20
12.5403997963
 10
3.0702064398
 20
12.5360817521
 10
3.067614572
 20
12.5317095943
 10
3.0651969469
 20
12.5272873515
 10
3.062948443
 20
12.5228190525
 10
3.0608648178
 20
12.5183046156
 10
3.0589453433
 20
12.5137275176
  0
LINE
  5
2A9
100
AcDbEntity
  8
ASSI
100
AcDbLine
 62
7
  6
CONTINUOUS
 10
8.4564562137
 20
-0.0796755126
 11
8.1939902232
 21
-0.1058561159
  0
LINE
  5
2AA
100
AcDbEntity
  8
ASSI
100
AcDbLine
 62
253
  6
CONTINUOUS
 10
10.7696981943
 20
-0.1346397097
 11
10.758174525
 21
-0.1348915319
  0
LINE
  5
2AB
100
AcDbEntity
  8
ASSI
100
AcDbLine
 62
253
  6
CONTINUOUS
 10
10.9731428612
 20
-0.3344006255
 11
10.9590250169
 21
-0.3346756493
  0
LINE
  5
2AC
100
AcDbEntity
  8
ASSI
100
AcDbLine
 62
253
  6
CONTINUOUS
 10
10.758174525
 20
-0.1348915319
 11
10.7354718472
 21
-0.1352462865
  0
LINE
  5
2AD
100
AcDbEntity
  8
ASSI
100
AcDbLine
 62
253
  6
CONTINUOUS
 10
10.9590250169
 20
-0.3346756493
 11
10.928395633
 21
-0.335069459
  0
LINE
  5
2AE
100
AcDbEntity
  8
ASSI
100
AcDbLine
 62
253
  6
CONTINUOUS
 10
10.7354718472
 20
-0.1352462865
 11
10.6846176321
 21
-0.1357559336
  0
LINE
  5
2AF
100
AcDbEntity
  8
ASSI
100
AcDbLine
 62
253
  6
CONTINUOUS
 10
10.928395633
 20
-0.335069459
 11
10.8361483868
 21
-0.3357558184
  0
LINE
  5
2B0
100
AcDbEntity
  8
ASSI
100
AcDbLine
 62
253
  6
CONTINUOUS
 10
10.6846176321
 20
-0.1357559336
 11
10.5773778416
 21
-0.1362890161
  0
LINE
  5
2B1
100
AcDbEntity
  8
ASSI
100
AcDbLine
 62
253
  6
CONTINUOUS
 10
-10.7723430987
 20
0.1765739888
 11
-10.6441020866
 21
0.1770317623
  0
LINE
  5
2B2
100
AcDbEntity
  8
ASSI
100
AcDbLine
 62
253
  6
CONTINUOUS
 10
10.8361483868
 20
-0.3357558184
 11
10.5630399314
 21
-0.3365157839
  0
LINE
  5
2B3
100
AcDbEntity
  8
ASSI
100
AcDbLine
 62
253
  6
CONTINUOUS
 10
10.5773778416
 20
-0.1362890161
 11
10.4856948775
 21
-0.1364142733
  0
LINE
  5
2B4
100
AcDbEntity
  8
ASSI
100
AcDbLine
 62
253
  6
CONTINUOUS
 10
-10.6441020866
 20
0.1770317623
 11
-10.5977144312
 21
0.1770632481
  0
LINE
  5
2B5
100
AcDbEntity
  8
ASSI
100
AcDbLine
 62
253
  6
CONTINUOUS
 10
10.5630399314
 20
-0.3365157839
 11
-10.5976979583
 21
-0.3365494083
  0
LINE
  5
2B6
100
AcDbEntity
  8
ASSI
100
AcDbLine
 62
7
  6
CONTINUOUS
 10
10.4856948775
 20
-0.1364142733
 11
-10.5977144312
 21
-0.1364142733
  0
LINE
  5
2B7
100
AcDbEntity
  8
ASSI
100
AcDbLine
 62
7
  6
CONTINUOUS
 10
-8.3060097768
 20
-0.1058561159
 11
8.1939902232
 21
-0.1058561159
  0
LINE
  5
2B8
100
AcDbEntity
  8
ASSI
100
AcDbLine
 62
7
  6
CONTINUOUS
 10
-11.0060097757
 20
-0.0796755126
 11
-8.5684757674
 21
-0.0796755126
  0
LINE
  5
2B9
100
AcDbEntity
  8
ASSI
100
AcDbLine
 62
7
  6
CONTINUOUS
 10
8.4564562137
 20
-0.0796755126
 11
10.893990222
 21
-0.0796755126
  0
LINE
  5
2BA
100
AcDbEntity
  8
ASSI
100
AcDbLine
 62
7
  6
CONTINUOUS
 10
10.893990222
 20
0.1203244874
 11
8.4564562137
 21
0.1203244874
  0
LINE
  5
2BB
100
AcDbEntity
  8
ASSI
100
AcDbLine
 62
7
  6
CONTINUOUS
 10
-8.5684757674
 20
0.1203244874
 11
-11.0060097757
 21
0.1203244874
  0
LINE
  5
2BC
100
AcDbEntity
  8
ASSI
100
AcDbLine
 62
7
  6
CONTINUOUS
 10
8.1939902232
 20
0.1465050908
 11
-8.3060097768
 21
0.1465050908
  0
LINE
  5
2BD
100
AcDbEntity
  8
ASSI
100
AcDbLine
 62
7
  6
CONTINUOUS
 10
-10.5977144312
 20
0.1770632481
 11
10.4856948775
 21
0.1770632481
  0
LINE
  5
2BE
100
AcDbEntity
  8
ASSI
100
AcDbLine
 62
253
  6
CONTINUOUS
 10
-10.5976979583
 20
-0.3365494154
 11
-10.909422531
 21
-0.3359455904
  0
LINE
  5
2BF
100
AcDbEntity
  8
ASSI
100
AcDbLine
 62
253
  6
CONTINUOUS
 10
-10.5977144312
 20
-0.1364142733
 11
-10.7324938523
 21
-0.1361351861
  0
LINE
  5
2C0
100
AcDbEntity
  8
ASSI
100
AcDbLine
 62
253
  6
CONTINUOUS
 10
10.4856948775
 20
0.1770632481
 11
10.6204742986
 21
0.176784161
  0
LINE
  5
2C1
100
AcDbEntity
  8
ASSI
100
AcDbLine
 62
253
  6
CONTINUOUS
 10
10.6204742986
 20
0.176784161
 11
10.6603235444
 21
0.1765739888
  0
LINE
  5
2C2
100
AcDbEntity
  8
ASSI
100
AcDbLine
 62
253
  6
CONTINUOUS
 10
-10.909422531
 20
-0.3359455904
 11
-11.0277924806
 21
-0.3351942112
  0
LINE
  5
2C3
100
AcDbEntity
  8
ASSI
100
AcDbLine
 62
253
  6
CONTINUOUS
 10
-10.7324938523
 20
-0.1361351861
 11
-10.8187707758
 21
-0.1355661192
  0
LINE
  5
2C4
100
AcDbEntity
  8
ASSI
100
AcDbLine
 62
253
  6
CONTINUOUS
 10
-11.0277924806
 20
-0.3351942112
 11
-11.0620709586
 21
-0.334809649
  0
LINE
  5
2C5
100
AcDbEntity
  8
ASSI
100
AcDbLine
 62
253
  6
CONTINUOUS
 10
-10.8187707758
 20
-0.1355661192
 11
-10.8557717521
 21
-0.1351313027
  0
LWPOLYLINE
  5
2C6
100
AcDbEntity
  8
ASSI
100
AcDbPolyline
 62
253
  6
CONTINUOUS
 90
7
 70
0
 10
-11.0620709586
 20
-0.334809649
 10
-11.0787482743
 20
-0.3345392913
 10
-11.0851624145
 20
-0.3344006255
 10
-11.0902706796
 20
-0.3342606417
 10
-11.0940592661
 20
-0.3341197025
 10
-11.0965175022
 20
-0.3339775431
 10
-11.0976385392
 20
-0.333834213
  0
LINE
  5
2C7
100
AcDbEntity
  8
ASSI
100
AcDbLine
 62
253
  6
CONTINUOUS
 10
-10.8557717521
 20
-0.1351313027
 11
-10.8701940784
 21
-0.1348915319
  0
LWPOLYLINE
  5
2C8
100
AcDbEntity
  8
ASSI
100
AcDbPolyline
 62
253
  6
CONTINUOUS
 90
8
 70
0
 10
-10.8701940784
 20
-0.1348915319
 10
-10.8817177477
 20
-0.1346397097
 10
-10.886332885
 20
-0.134510406
 10
-10.8901877426
 20
-0.1343788539
 10
-10.8932518054
 20
-0.1342461223
 10
-10.8955149018
 20
-0.1341125675
 10
-10.8969872035
 20
-0.1339778333
 10
-10.8976687104
 20
-0.1338419197
  0
LINE
  5
2C9
100
AcDbEntity
  8
ASSI
100
AcDbLine
 62
7
  6
CONTINUOUS
 10
-8.5684757674
 20
-0.0796755126
 11
-8.3060097768
 21
-0.1058561159
  0
LWPOLYLINE
  5
2CA
100
AcDbEntity
  8
CURVE
100
AcDbPolyline
 62
253
  6
CONTINUOUS
 90
64
 70
0
 10
-3.3193825742
 20
11.7041576189
 10
-3.3210266211
 20
11.713665913
 10
-3.3220084436
 20
11.7233275309
 10
-3.3223963752
 20
11.7331604442
 10
-3.3222542267
 20
11.743176459
 10
-3.3216277169
 20
11.7533627195
 10
-3.320558042
 20
11.7637002045
 10
-3.3190789408
 20
11.774170963
 10
-3.3171943244
 20
11.7847613259
 10
-3.3149006468
 20
11.7954586945
 10
-3.3121970817
 20
11.8062499142
 10
-3.3090936824
 20
11.8171196073
 10
-3.305603222
 20
11.8280518404
 10
-3.2996697561
 20
11.8445411358
 10
-3.2929373897
 20
11.8611327468
 10
-3.2854453986
 20
11.8778157731
 10
-3.2772171703
 20
11.8945459092
 10
-3.2682662289
 20
11.911282252
 10
-3.2585825321
 20
11.9280309147
 10
-3.2481501462
 20
11.9448097642
 10
-3.2369531374
 20
11.9616366675
 10
-3.22497905
 20
11.9785217411
 10
-3.2122293402
 20
11.9954440999
 10
-3.1987089426
 20
12.0123751083
 10
-3.1844227915
 20
12.0292861309
 10
-3.1693721341
 20
12.0461501306
 10
-3.1535434689
 20
12.0629464645
 10
-3.1369196073
 20
12.0796560885
 10
-3.1194833605
 20
12.0962599582
 10
-3.1049363374
 20
12.1094549944
 10
-3.0898402405
 20
12.1225656969
 10
-3.0741769234
 20
12.1355876029
 10
-3.0579282395
 20
12.1485162497
 10
-3.0410760425
 20
12.1613471748
 10
-3.0236042034
 20
12.174072383
 10
-3.0055046645
 20
12.1866697497
 10
-2.9867713856
 20
12.1991136179
 10
-2.9673983265
 20
12.2113783307
 10
-2.9473794473
 20
12.223438231
 10
-2.9267043986
 20
12.235266384
 10
-2.905345595
 20
12.2468307438
 10
-2.883271142
 20
12.2580979868
 10
-2.8604491451
 20
12.2690347893
 10
-2.8368477098
 20
12.2796078275
 10
-2.8165664337
 20
12.2881129599
 10
-2.7957332821
 20
12.2963001569
 10
-2.7743598052
 20
12.3041272386
 10
-2.7524551111
 20
12.3115527951
 10
-2.730018539
 20
12.318538496
 10
-2.7070469862
 20
12.3250467812
 10
-2.6835381849
 20
12.331034193
 10
-2.6594932074
 20
12.3364336857
 10
-2.6349139612
 20
12.3411723164
 10
-2.6161305923
 20
12.3442527719
 10
-2.5970517683
 20
12.3469140061
 10
-2.5776814874
 20
12.3491495634
 10
-2.5580237479
 20
12.3509529879
 10
-2.5380840301
 20
12.352321808
 10
-2.5178737435
 20
12.3532694885
 10
-2.4974057797
 20
12.3538134785
 10
-2.4766930303
 20
12.353971227
 10
-2.448701692
 20
12.3536106278
 10
-2.4202335961
 20
12.3526341404
 10
-2.3912242411
 20
12.3510815076
  0
LWPOLYLINE
  5
2CB
100
AcDbEntity
  8
ASSI
100
AcDbPolyline
 62
253
  6
CONTINUOUS
 90
76
 70
0
 10
1.3645979909
 20
4.5212246675
 10
1.3634434603
 20
4.4627163728
 10
1.3598325175
 20
4.4042635695
 10
1.3537651625
 20
4.3458662586
 10
1.3452389708
 20
4.2873820495
 10
1.334256367
 20
4.2289533344
 10
1.3208246245
 20
4.1710072897
 10
1.3049117816
 20
4.1135471784
 10
1.2865498
 20
4.0565697418
 10
1.2658418378
 20
4.0004923758
 10
1.2427621843
 20
3.9453327697
 10
1.2173365503
 20
3.8910732403
 10
1.1897452268
 20
3.8380781272
 10
1.1599912481
 20
3.7863915117
 10
1.12807158
 20
3.7359693198
 10
1.0941574107
 20
3.6870436585
 10
1.0582513327
 20
3.6396279445
 10
1.0203507536
 20
3.5937087684
 10
0.9806190845
 20
3.5494779994
 10
0.9390369165
 20
3.5069264396
 10
0.8956236584
 20
3.4660632937
 10
0.8506009479
 20
3.4271080354
 10
0.8039512547
 20
3.3900660257
 10
0.755692109
 20
3.35493191
 10
0.7060977395
 20
3.3219090886
 10
0.6551664252
 20
3.2910151307
 10
0.6028998871
 20
3.2622324728
 10
0.5495775158
 20
3.2357118163
 10
0.4951976537
 20
3.211466451
 10
0.4397619586
 20
3.1894830917
 10
0.3835547944
 20
3.1698725773
 10
0.3265710253
 20
3.1526459597
 10
0.2688157872
 20
3.1377921905
 10
0.2105888519
 20
3.1253889578
 10
0.1518854592
 20
3.1154486472
 10
0.0927103695
 20
3.1079588752
 10
0.033377635
 20
3.1029601766
 10
-0.0261130604
 20
3.1004660556
 10
-0.0857614004
 20
3.1004630086
 10
-0.1452523836
 20
3.1029510581
 10
-0.2045857248
 20
3.1079437174
 10
-0.2637617092
 20
3.1154274724
 10
-0.3224661905
 20
3.125361805
 10
-0.3806944357
 20
3.1377591279
 10
-0.4384511779
 20
3.1526070262
 10
-0.4954364702
 20
3.1698277404
 10
-0.5516450728
 20
3.1894322909
 10
-0.6070822256
 20
3.2114096539
 10
-0.6614637012
 20
3.2356490026
 10
-0.7147877056
 20
3.262163483
 10
-0.7670560328
 20
3.2909399446
 10
-0.8179898381
 20
3.3218281151
 10
-0.8675876104
 20
3.354845614
 10
-0.9158508608
 20
3.3899748162
 10
-0.9625052776
 20
3.4270125836
 10
-1.0075337072
 20
3.4659647591
 10
-1.0509533031
 20
3.5068254935
 10
-1.0925412146
 20
3.5493741103
 10
-1.132277687
 20
3.5936013622
 10
-1.1701824751
 20
3.6395164897
 10
-1.2060919923
 20
3.6869265486
 10
-1.2400082029
 20
3.7358438189
 10
-1.2719291426
 20
3.7862560134
 10
-1.3016853326
 20
3.8379333379
 10
-1.3292801819
 20
3.8909194133
 10
-1.3547102813
 20
3.9451706113
 10
-1.3777959251
 20
4.0003262658
 10
-1.3985121264
 20
4.0564051031
 10
-1.4168838721
 20
4.1133883905
 10
-1.4328064165
 20
4.170859275
 10
-1.4462478598
 20
4.2288219769
 10
-1.4572401017
 20
4.2872722715
 10
-1.4657740959
 20
4.3457806403
 10
-1.4718468266
 20
4.4042039105
 10
-1.4754613096
 20
4.4626852532
 10
-1.4766175446
 20
4.5212246675
  0
LWPOLYLINE
  5
2CC
100
AcDbEntity
  8
ASSI
100
AcDbPolyline
 62
253
  6
CONTINUOUS
 90
76
 70
0
 10
1.3645979909
 20
-4.4805756926
 10
1.3634255201
 20
-4.5390726713
 10
1.3597975582
 20
-4.5975135181
 10
1.3537141051
 20
-4.6558982326
 10
1.3451727032
 20
-4.7143691363
 10
1.3341758102
 20
-4.772783906
 10
1.320730799
 20
-4.8307155753
 10
1.3048057305
 20
-4.8881608785
 10
1.2864325438
 20
-4.9451230829
 10
1.2657144292
 20
-5.0011850247
 10
1.2426256904
 20
-5.0563290391
 10
1.2171920238
 20
-5.1105727955
 10
1.1895937088
 20
-5.1635521341
 10
1.1598337673
 20
-5.2152230236
 10
1.1279091774
 20
-5.2656295023
 10
1.0939911534
 20
-5.3145395168
 10
1.0580822878
 20
-5.361939644
 10
1.020179988
 20
-5.4078433153
 10
0.9804476908
 20
-5.4520587593
 10
0.9388660075
 20
-5.494595154
 10
0.8954543267
 20
-5.5354433303
 10
0.8504342511
 20
-5.5743839973
 10
0.8037882638
 20
-5.6114118001
 10
0.7555338818
 20
-5.6465321028
 10
0.7059452579
 20
-5.6795416942
 10
0.6550206877
 20
-5.710423016
 10
0.6027618757
 20
-5.7391936354
 10
0.5494480885
 20
-5.7657030298
 10
0.4950776885
 20
-5.7899379212
 10
0.4396523133
 20
-5.8119115954
 10
0.3834561433
 20
-5.8315133757
 10
0.3264840616
 20
-5.8487322268
 10
0.268741185
 20
-5.8635791901
 10
0.2105270436
 20
-5.875976704
 10
0.1518368915
 20
-5.8859124048
 10
0.0926754746
 20
-5.89339866
 10
0.03335656
 20
-5.8983950046
 10
-0.0261201656
 20
-5.9008879581
 10
-0.0857543888
 20
-5.9008910024
 10
-0.145231402
 20
-5.898404115
 10
-0.2045509229
 20
-5.8934138044
 10
-0.2637132337
 20
-5.8859335608
 10
-0.3224044734
 20
-5.8760038329
 10
-0.3806199233
 20
-5.8636122237
 10
-0.4383643021
 20
-5.8487711263
 10
-0.4953379049
 20
-5.8315581736
 10
-0.5515355114
 20
-5.8119623522
 10
-0.606962342
 20
-5.7899946694
 10
-0.6613343534
 20
-5.7657657898
 10
-0.7146497715
 20
-5.7392625663
 10
-0.7669103704
 20
-5.7104981382
 10
-0.8178374291
 20
-5.6796225989
 10
-0.8674294529
 20
-5.6466183254
 10
-0.9156879366
 20
-5.6115029317
 10
-0.9623386434
 20
-5.5744793678
 10
-1.0073644329
 20
-5.5355417815
 10
-1.0507824456
 20
-5.4946960158
 10
-1.0923698663
 20
-5.4521625635
 10
-1.1321069603
 20
-5.4079506369
 10
-1.1700134624
 20
-5.3620510148
 10
-1.2059257614
 20
-5.3146565415
 10
-1.2398458221
 20
-5.2657549139
 10
-1.2717716798
 20
-5.2153584266
 10
-1.3015338288
 20
-5.1636968217
 10
-1.3291356654
 20
-5.1107265132
 10
-1.3545737933
 20
-5.0564910799
 10
-1.3776685178
 20
-5.0013510125
 10
-1.3983948664
 20
-4.9452875994
 10
-1.4167778116
 20
-4.8883195475
 10
-1.4327125773
 20
-4.8308634787
 10
-1.4461672864
 20
-4.7729151649
 10
-1.457173816
 20
-4.7144788324
 10
-1.4657230211
 20
-4.6559837875
 10
-1.4718118534
 20
-4.5975731332
 10
-1.4754433613
 20
-4.5391037681
 10
-1.4766175446
 20
-4.4805756926
  0
LWPOLYLINE
  5
2CD
100
AcDbEntity
  8
ASSI
100
AcDbPolyline
 62
253
  6
CONTINUOUS
 90
76
 70
0
 10
1.2646132214
 20
4.5203244874
 10
1.263508375
 20
4.4660928135
 10
1.2601585185
 20
4.411724155
 10
1.2545411156
 20
4.3573127663
 10
1.2466319762
 20
4.3029214333
 10
1.2364193277
 20
4.2486823351
 10
1.2239178999
 20
4.1947942647
 10
1.2091336813
 20
4.1413539759
 10
1.1920776539
 20
4.0884613978
 10
1.1728037173
 20
4.0363140641
 10
1.1513466146
 20
3.9850121115
 10
1.1277395771
 20
3.9346404849
 10
1.1020625118
 20
3.8853633476
 10
1.0743868189
 20
3.8372954357
 10
1.0447521066
 20
3.7904849144
 10
1.0132024386
 20
3.7449894486
 10
0.9798038109
 20
3.7008946081
 10
0.9446127873
 20
3.6582660139
 10
0.9076556497
 20
3.6171336092
 10
0.8689821814
 20
3.5775580995
 10
0.8286707095
 20
3.539624703
 10
0.7867893229
 20
3.5034008815
 10
0.7434028208
 20
3.4689468103
 10
0.6985926711
 20
3.4363311698
 10
0.6524578902
 20
3.4056272011
 10
0.6050865693
 20
3.3768921703
 10
0.5565563045
 20
3.3501718186
 10
0.5069556744
 20
3.3255139283
 10
0.4563758528
 20
3.3029623781
 10
0.4049029255
 20
3.2825541308
 10
0.3526201472
 20
3.2643215912
 10
0.299618092
 20
3.2482963811
 10
0.245991285
 20
3.2345071146
 10
0.1918303015
 20
3.2229772664
 10
0.1372281475
 20
3.2137272018
 10
0.0822828837
 20
3.2067740949
 10
0.0270937906
 20
3.2021307568
 10
-0.0282415363
 20
3.1998054414
 10
-0.0836262983
 20
3.1998022594
 10
-0.1389619726
 20
3.2021212214
 10
-0.1941517884
 20
3.2067582413
 10
-0.249098118
 20
3.2137050855
 10
-0.3037015904
 20
3.2229489479
 10
-0.3578641831
 20
3.2344726742
 10
-0.4114928442
 20
3.2482559021
 10
-0.4644967892
 20
3.2642750994
 10
-0.5167813979
 20
3.2825015983
 10
-0.5682562052
 20
3.3029037903
 10
-0.6188380586
 20
3.3254492985
 10
-0.6684407195
 20
3.3501010747
 10
-0.7169731839
 20
3.3768153086
 10
-0.7643474166
 20
3.4055445582
 10
-0.8104859351
 20
3.4362432531
 10
-0.8553004463
 20
3.4688540989
 10
-0.8986919511
 20
3.503303972
 10
-0.940579337
 20
3.5395246314
 10
-0.9808972928
 20
3.577455619
 10
-1.0195765688
 20
3.6170283615
 10
-1.056538759
 20
3.6581573795
 10
-1.0917343281
 20
3.700782048
 10
-1.1251365592
 20
3.7448716196
 10
-1.1566884257
 20
3.7903593618
 10
-1.1863248645
 20
3.8371605232
 10
-1.2140032945
 20
3.8852196596
 10
-1.2396839355
 20
3.9344884795
 10
-1.2632954235
 20
3.9848525226
 10
-1.2847589755
 20
4.036150795
 10
-1.3040412234
 20
4.0882995622
 10
-1.321106491
 20
4.141197879
 10
-1.3359003879
 20
4.1946484718
 10
-1.3484115067
 20
4.2485520238
 10
-1.3586331606
 20
4.302811289
 10
-1.3665498855
 20
4.3572259782
 10
-1.3721730626
 20
4.4116633374
 10
-1.3755266248
 20
4.4660609685
 10
-1.3766327751
 20
4.5203244874
  0
LWPOLYLINE
  5
2CE
100
AcDbEntity
  8
ASSI
100
AcDbPolyline
 62
253
  6
CONTINUOUS
 90
76
 70
0
 10
1.2646132214
 20
-4.4796755126
 10
1.2634904054
 20
-4.5338966787
 10
1.2601234388
 20
-4.5882540478
 10
1.2544897963
 20
-4.6426534076
 10
1.2465652564
 20
-4.6970319927
 10
1.2363380967
 20
-4.7512576797
 10
1.223823168
 20
-4.8051317878
 10
1.2090264509
 20
-4.8585576228
 10
1.1919589178
 20
-4.9114353028
 10
1.1726745611
 20
-4.9635674204
 10
1.1512080918
 20
-5.0148539255
 10
1.1275927139
 20
-5.0652099082
 10
1.1019084139
 20
-5.1144712823
 10
1.0742265366
 20
-5.1625234252
 10
1.0445866563
 20
-5.2093181856
 10
1.0130329536
 20
-5.2547978545
 10
0.9796313947
 20
-5.298876929
 10
0.9444384954
 20
-5.3414898583
 10
0.9074806458
 20
-5.3826066898
 10
0.8688076081
 20
-5.422166773
 10
0.828497652
 20
-5.4600849802
 10
0.7866189259
 20
-5.4962939169
 10
0.7432361801
 20
-5.530733484
 10
0.6984308257
 20
-5.5633350694
 10
0.6523019207
 20
-5.594025507
 10
0.6049374945
 20
-5.6227476074
 10
0.5564150705
 20
-5.6494556922
 10
0.5068232444
 20
-5.674102049
 10
0.456253119
 20
-5.6966428666
 10
0.4047906909
 20
-5.7170412404
 10
0.3525191961
 20
-5.7352648328
 10
0.2995291258
 20
-5.7512820775
 10
0.2459149036
 20
-5.7650644055
 10
0.1917670502
 20
-5.7765883981
 10
0.1371784766
 20
-5.7858337293
 10
0.0822471339
 20
-5.7927832513
 10
0.0270722208
 20
-5.7974241846
 10
-0.028248775
 20
-5.7997482947
 10
-0.0836191632
 20
-5.7997514738
 10
-0.1389405061
 20
-5.797433711
 10
-0.1941161413
 20
-5.79279909
 10
-0.2490485487
 20
-5.7858558248
 10
-0.3036384393
 20
-5.77661669
 10
-0.3577878999
 20
-5.7650988137
 10
-0.411403974
 20
-5.7513225188
 10
-0.4643959315
 20
-5.7353112816
 10
-0.516669254
 20
-5.7170937245
 10
-0.5681335595
 20
-5.6967014009
 10
-0.6187057139
 20
-5.6741666202
 10
-0.6682995679
 20
-5.6495263721
 10
-0.7168241887
 20
-5.6228244
 10
-0.7641915235
 20
-5.5941080759
 10
-0.8103241625
 20
-5.5634229075
 10
-0.8551338745
 20
-5.5308261125
 10
-0.8985216183
 20
-5.4963907401
 10
-0.9404063379
 20
-5.4601849636
 10
-0.9807227717
 20
-5.4222691645
 10
-1.0194016105
 20
-5.382711848
 10
-1.0563645058
 20
-5.3415984035
 10
-1.0915619437
 20
-5.2989894004
 10
-1.1249671
 20
-5.2549155937
 10
-1.1565229965
 20
-5.2094436446
 10
-1.1861645989
 20
-5.1626582386
 10
-1.2138492087
 20
-5.1146148654
 10
-1.2395370802
 20
-5.0653618018
 10
-1.2631569042
 20
-5.0150133954
 10
-1.2846298174
 20
-4.9637305667
 10
-1.3039224799
 20
-4.9115970162
 10
-1.320999248
 20
-4.8587136014
 10
-1.3358056389
 20
-4.8052774704
 10
-1.3483302556
 20
-4.7513878933
 10
-1.3585664196
 20
-4.6971420554
 10
-1.3664985463
 20
-4.6427401324
 10
-1.3721379667
 20
-4.5883148218
 10
-1.3755086455
 20
-4.5339285013
 10
-1.3766327751
 20
-4.4796755126
  0
LWPOLYLINE
  5
2CF
100
AcDbEntity
  8
ASSI
100
AcDbPolyline
 62
253
  6
CONTINUOUS
 90
5
 70
0
 10
-11.0976385392
 20
0.3744831879
 10
-11.0965175022
 20
0.374626518
 10
-11.0940592663
 20
0.3747686774
 10
-11.0902706799
 20
0.3749096166
 10
-11.0851624149
 20
0.3750496004
  0
LINE
  5
2D0
100
AcDbEntity
  8
ASSI
100
AcDbLine
 62
7
  6
CONTINUOUS
 10
-8.5684757674
 20
0.1203244874
 11
-8.3060097768
 21
0.1465050908
  0
LINE
  5
2D1
100
AcDbEntity
  8
ASSI
100
AcDbLine
 62
253
  6
CONTINUOUS
 10
-10.881717748
 20
0.1752886846
 11
-10.8701940787
 21
0.1755405068
  0
LINE
  5
2D2
100
AcDbEntity
  8
ASSI
100
AcDbLine
 62
253
  6
CONTINUOUS
 10
-11.0851624149
 20
0.3750496004
 11
-11.0710445706
 21
0.3753246242
  0
LINE
  5
2D3
100
AcDbEntity
  8
ASSI
100
AcDbLine
 62
253
  6
CONTINUOUS
 10
-10.8701940787
 20
0.1755405068
 11
-10.8474914009
 21
0.1758952614
  0
LINE
  5
2D4
100
AcDbEntity
  8
ASSI
100
AcDbLine
 62
253
  6
CONTINUOUS
 10
-11.0710445706
 20
0.3753246242
 11
-11.0404151867
 21
0.3757184339
  0
LINE
  5
2D5
100
AcDbEntity
  8
ASSI
100
AcDbLine
 62
253
  6
CONTINUOUS
 10
-10.8474914009
 20
0.1758952614
 11
-10.7966371858
 21
0.1764049084
  0
LINE
  5
2D6
100
AcDbEntity
  8
ASSI
100
AcDbLine
 62
253
  6
CONTINUOUS
 10
-10.7966371858
 20
0.1764049084
 11
-10.7723430987
 21
0.1765739888
  0
LINE
  5
2D7
100
AcDbEntity
  8
ASSI
100
AcDbLine
 62
253
  6
CONTINUOUS
 10
-11.0404151867
 20
0.3757184339
 11
-10.9481679405
 21
0.3764047933
  0
LINE
  5
2D8
100
AcDbEntity
  8
ASSI
100
AcDbLine
 62
253
  6
CONTINUOUS
 10
-10.9481679405
 20
0.3764047933
 11
-10.6750594851
 21
0.3771647588
  0
LINE
  5
2D9
100
AcDbEntity
  8
ASSI
100
AcDbLine
 62
253
  6
CONTINUOUS
 10
-10.6750594851
 20
0.3771647588
 11
10.4856784047
 21
0.3771983832
  0
LINE
  5
2DA
100
AcDbEntity
  8
ASSI
100
AcDbLine
 62
253
  6
CONTINUOUS
 10
10.4856784047
 20
0.3771983903
 11
10.7974029773
 21
0.3765945652
  0
LINE
  5
2DB
100
AcDbEntity
  8
ASSI
100
AcDbLine
 62
253
  6
CONTINUOUS
 10
10.7974029773
 20
0.3765945652
 11
10.9157729269
 21
0.3758431861
  0
LINE
  5
2DC
100
AcDbEntity
  8
ASSI
100
AcDbLine
 62
253
  6
CONTINUOUS
 10
10.6603235444
 20
0.1765739888
 11
10.7169713586
 21
0.1761126697
  0
LINE
  5
2DD
100
AcDbEntity
  8
ASSI
100
AcDbLine
 62
253
  6
CONTINUOUS
 10
10.9157729269
 20
0.3758431861
 11
10.9500514049
 21
0.3754586239
  0
LINE
  5
2DE
100
AcDbEntity
  8
ASSI
100
AcDbLine
 62
253
  6
CONTINUOUS
 10
10.7169713586
 20
0.1761126697
 11
10.7437521984
 21
0.1757802776
  0
LINE
  5
2DF
100
AcDbEntity
  8
ASSI
100
AcDbLine
 62
253
  6
CONTINUOUS
 10
10.7437521984
 20
0.1757802776
 11
10.7581745247
 21
0.1755405068
  0
LWPOLYLINE
  5
2E0
100
AcDbEntity
  8
ASSI
100
AcDbPolyline
 62
253
  6
CONTINUOUS
 90
7
 70
0
 10
10.9500514049
 20
0.3754586239
 10
10.9667287206
 20
0.3751882662
 10
10.9731428608
 20
0.3750496004
 10
10.9782511259
 20
0.3749096166
 10
10.9820397124
 20
0.3747686774
 10
10.9844979485
 20
0.374626518
 10
10.9856189856
 20
0.3744831879
  0
LWPOLYLINE
  5
2E1
100
AcDbEntity
  8
ASSI
100
AcDbPolyline
 62
253
  6
CONTINUOUS
 90
8
 70
0
 10
10.7581745247
 20
0.1755405068
 10
10.7696981941
 20
0.1752886846
 10
10.7743133313
 20
0.1751593809
 10
10.7781681889
 20
0.1750278288
 10
10.7812322517
 20
0.1748950972
 10
10.7834953481
 20
0.1747615424
 10
10.7849676498
 20
0.1746268082
 10
10.7856491567
 20
0.1744908945
  0
LINE
  5
2E2
100
AcDbEntity
  8
ASSI
100
AcDbLine
 62
7
  6
CONTINUOUS
 10
8.4564562137
 20
0.1203244874
 11
8.1939902232
 21
0.1465050908
  0
LWPOLYLINE
  5
2E3
100
AcDbEntity
  8
CURVE
100
AcDbPolyline
 62
253
  6
CONTINUOUS
 90
90
 70
0
 10
2.4740847386
 20
-14.5090927241
 10
2.4741560269
 20
-14.5136212953
 10
2.4743685668
 20
-14.5180385314
 10
2.4747203707
 20
-14.5224298949
 10
2.4752097634
 20
-14.5268624087
 10
2.4758363196
 20
-14.5313293372
 10
2.4765999265
 20
-14.535805505
 10
2.4775005298
 20
-14.5402702154
 10
2.4785383085
 20
-14.5447206868
 10
2.4797135001
 20
-14.549158616
 10
2.4810272242
 20
-14.5535857913
 10
2.4824841282
 20
-14.5580043665
 10
2.4840897417
 20
-14.5624165866
 10
2.4858492952
 20
-14.5668228681
 10
2.4877668222
 20
-14.5712163138
 10
2.4898460571
 20
-14.5755881982
 10
2.4920900324
 20
-14.5799285185
 10
2.4944989719
 20
-14.5842221651
 10
2.4970723977
 20
-14.5884527513
 10
2.4998090964
 20
-14.5926040045
 10
2.5027049137
 20
-14.5966601087
 10
2.5057549599
 20
-14.6006053616
 10
2.5089576725
 20
-14.6044269447
 10
2.5123247967
 20
-14.608123574
 10
2.5158714049
 20
-14.611696849
 10
2.5196105345
 20
-14.6151469898
 10
2.5235470836
 20
-14.6184686992
 10
2.5276839152
 20
-14.6216553003
 10
2.5320202533
 20
-14.6246987
 10
2.5365407642
 20
-14.6275851392
 10
2.5412264751
 20
-14.6302994422
 10
2.5460566169
 20
-14.6328278625
 10
2.5510032351
 20
-14.6351623706
 10
2.5560365791
 20
-14.6372963659
 10
2.5611351672
 20
-14.6392257035
 10
2.5663105934
 20
-14.6409560612
 10
2.5715827207
 20
-14.6424955721
 10
2.5769653166
 20
-14.6438503939
 10
2.5824477676
 20
-14.6450187809
 10
2.5880133646
 20
-14.6459970119
 10
2.5936453985
 20
-14.6467813656
 10
2.5993271605
 20
-14.6473681206
 10
2.6050419414
 20
-14.6477535557
 10
2.610774204
 20
-14.6479346126
 10
2.616513098
 20
-14.6479108853
 10
2.6222489449
 20
-14.6476826308
 10
2.6279720661
 20
-14.6472501059
 10
2.633672783
 20
-14.6466135677
 10
2.6393414172
 20
-14.6457732733
 10
2.6449687646
 20
-14.6447288047
 10
2.650547519
 20
-14.6434770453
 10
2.6560708487
 20
-14.6420142037
 10
2.6615319221
 20
-14.6403364885
 10
2.6669239076
 20
-14.6384401082
 10
2.6722399734
 20
-14.6363212714
 10
2.6761708833
 20
-14.6345853032
 10
2.6800391181
 20
-14.6327290345
 10
2.6838285501
 20
-14.6307594293
 10
2.687523052
 20
-14.6286834515
 10
2.6911100081
 20
-14.6265064085
 10
2.6945908519
 20
-14.6242269811
 10
2.6979705284
 20
-14.6218421933
 10
2.701253983
 20
-14.6193490694
 10
2.7044455962
 20
-14.6167443976
 10
2.7075474895
 20
-14.614024023
 10
2.7105612195
 20
-14.611183555
 10
2.7134883428
 20
-14.6082186027
 10
2.7163286175
 20
-14.6051280716
 10
2.7190746071
 20
-14.6019240515
 10
2.7217170766
 20
-14.5986219283
 10
2.7242467907
 20
-14.5952370878
 10
2.7274321952
 20
-14.5906200574
 10
2.7304017053
 20
-14.5859088091
 10
2.7331562982
 20
-14.5811288248
 10
2.7356969515
 20
-14.5763055869
 10
2.7380246424
 20
-14.5714645774
 10
2.7401403483
 20
-14.5666312784
 10
2.7420476538
 20
-14.5618242955
 10
2.743760572
 20
-14.5570347271
 10
2.7452957235
 20
-14.5522467953
 10
2.7466668698
 20
-14.5474474372
 10
2.7478763376
 20
-14.5426344512
 10
2.7489235949
 20
-14.5378083511
 10
2.7498084402
 20
-14.5329750861
 10
2.7505319939
 20
-14.5281623484
 10
2.751095707
 20
-14.5234032653
 10
2.7514142251
 20
-14.5198783658
 10
2.7516427951
 20
-14.516351898
 10
2.7517805634
 20
-14.5127734785
 10
2.7518266759
 20
-14.5090927241
  0
LWPOLYLINE
  5
2E4
100
AcDbEntity
  8
CURVE
100
AcDbPolyline
 62
253
  6
CONTINUOUS
 90
90
 70
0
 10
2.7518266759
 20
-11.3256260583
 10
2.7517553017
 20
-11.3210968582
 10
2.7515425114
 20
-11.3166791281
 10
2.7511903029
 20
-11.312287348
 10
2.7507003618
 20
-11.3078544508
 10
2.7500731226
 20
-11.3033871795
 10
2.7493087074
 20
-11.2989107303
 10
2.7484071792
 20
-11.2944458161
 10
2.7473683672
 20
-11.2899952187
 10
2.7461920414
 20
-11.2855572367
 10
2.7448770902
 20
-11.2811300802
 10
2.7434188732
 20
-11.2767116032
 10
2.7418118683
 20
-11.2722995713
 10
2.7400508523
 20
-11.2678935763
 10
2.7381317998
 20
-11.2635005171
 10
2.7360509846
 20
-11.2591291192
 10
2.7338053823
 20
-11.2547893837
 10
2.7313947771
 20
-11.2504964152
 10
2.728819655
 20
-11.2462665938
 10
2.7260812371
 20
-11.2421161868
 10
2.7231836838
 20
-11.2380610089
 10
2.7201318906
 20
-11.234116762
 10
2.7169274273
 20
-11.2302962652
 10
2.7135585623
 20
-11.2266008073
 10
2.7100102382
 20
-11.2230287942
 10
2.706269434
 20
-11.2195800063
 10
2.7023312729
 20
-11.2162597211
 10
2.6981929141
 20
-11.2130745902
 10
2.6938551516
 20
-11.2100326854
 10
2.6893333178
 20
-11.2071477579
 10
2.6846463799
 20
-11.2044349793
 10
2.6798151035
 20
-11.2019080908
 10
2.6748674482
 20
-11.1995751151
 10
2.6698331726
 20
-11.1974426448
 10
2.6647337616
 20
-11.1955148188
 10
2.6595576075
 20
-11.1937859611
 10
2.6542848294
 20
-11.1922479417
 10
2.6489016459
 20
-11.1908946051
 10
2.6434186749
 20
-11.189727694
 10
2.6378526336
 20
-11.1887509254
 10
2.6322202396
 20
-11.1879680165
 10
2.6265382102
 20
-11.1873826842
 10
2.6208232629
 20
-11.1869986457
 10
2.6150909444
 20
-11.1868189545
 10
2.6093521197
 20
-11.1868440099
 10
2.6036164826
 20
-11.1870735479
 10
2.5978937275
 20
-11.1875073043
 10
2.5921935483
 20
-11.1881450149
 10
2.5865256394
 20
-11.1889864155
 10
2.5808992144
 20
-11.1900319171
 10
2.5753215659
 20
-11.1912846305
 10
2.5697995061
 20
-11.1927483417
 10
2.5643398471
 20
-11.1944268364
 10
2.5589494011
 20
-11.1963239006
 10
2.5536349803
 20
-11.1984433203
 10
2.5497053616
 20
-11.2001796562
 10
2.5458384578
 20
-11.2020362318
 10
2.5420503876
 20
-11.2040060821
 10
2.5383572698
 20
-11.2060822424
 10
2.5347717142
 20
-11.2082594026
 10
2.5312922955
 20
-11.2105388718
 10
2.5279140793
 20
-11.2129236138
 10
2.5246321312
 20
-11.2154165926
 10
2.5214420767
 20
-11.2180210064
 10
2.5183417817
 20
-11.2207409915
 10
2.5153296718
 20
-11.2235809185
 10
2.5124041727
 20
-11.2265451579
 10
2.5095655081
 20
-11.2296347915
 10
2.5068210936
 20
-11.2328377464
 10
2.504180143
 20
-11.2361386604
 10
2.50165187
 20
-11.2395221717
 10
2.4984682383
 20
-11.2441372815
 10
2.4955003291
 20
-11.2488464766
 10
2.4927471692
 20
-11.2536243128
 10
2.4902077855
 20
-11.258445346
 10
2.4878812049
 20
-11.2632841319
 10
2.4857664541
 20
-11.2681152264
 10
2.4838599571
 20
-11.2729200492
 10
2.4821477266
 20
-11.2777074756
 10
2.4806131722
 20
-11.2824932448
 10
2.479242557
 20
-11.2872903883
 10
2.4780335579
 20
-11.2921011065
 10
2.4769867051
 20
-11.2969248922
 10
2.4761021989
 20
-11.3017558047
 10
2.475378921
 20
-11.3065661706
 10
2.4748154229
 20
-11.3113228836
 10
2.4744970277
 20
-11.3148460119
 10
2.4742685467
 20
-11.3183706854
 10
2.4741308327
 20
-11.3219472517
 10
2.4740847386
 20
-11.3256260583
  0
LINE
  5
2E5
100
AcDbEntity
  8
CURVE
100
AcDbLine
 62
253
  6
CONTINUOUS
 10
2.4740847386
 20
-11.3256260583
 11
2.4740847386
 21
-12.7712035123
  0
LINE
  5
2E6
100
AcDbEntity
  8
CURVE
100
AcDbLine
 62
253
  6
CONTINUOUS
 10
2.4740847386
 20
-13.0635152245
 11
2.4740847386
 21
-14.5090926882
  0
LINE
  5
2E7
100
AcDbEntity
  8
CURVE
100
AcDbLine
 62
253
  6
CONTINUOUS
 10
2.7518266759
 20
-14.5090927241
 11
2.7518266759
 21
-11.3256260389
  0
LINE
  5
2E8
100
AcDbEntity
  8
ASSI
100
AcDbLine
 62
253
  6
CONTINUOUS
 10
10.5804564948
 20
22.231805775
 11
10.5095957344
 21
22.0190506171
  0
LWPOLYLINE
  5
2E9
100
AcDbEntity
  8
ASSI
100
AcDbPolyline
 62
253
  6
CONTINUOUS
 90
7
 70
0
 10
-10.8976687104
 20
0.1744908945
 10
-10.8969872035
 20
0.1746268082
 10
-10.8955149019
 20
0.1747615424
 10
-10.8932518055
 20
0.1748950972
 10
-10.8901877427
 20
0.1750278288
 10
-10.8863328852
 20
0.1751593809
 10
-10.881717748
 20
0.1752886846
  0
LWPOLYLINE
  5
2EA
100
AcDbEntity
  8
CURVE
100
AcDbPolyline
 62
253
  6
CONTINUOUS
 90
10
 70
0
 10
-3.284810352
 20
11.6465490078
 10
-3.2859510755
 20
11.6484201985
 10
-3.2871277663
 20
11.6502641363
 10
-3.288337148
 20
11.6520844596
 10
-3.2895759442
 20
11.6538848063
 10
-3.2908408785
 20
11.6556688147
 10
-3.2921286744
 20
11.6574401228
 10
-3.2934360556
 20
11.6592023689
 10
-3.2947597456
 20
11.660959191
 10
-3.3001520654
 20
11.6680050028
  0
LINE
  5
2EB
100
AcDbEntity
  8
ASSI
100
AcDbLine
 62
253
  6
CONTINUOUS
 10
10.5095957343
 20
-21.9784016422
 11
10.5804564948
 21
-22.1911568001
  0
LINE
  5
2EC
100
AcDbEntity
  8
ASSI
100
AcDbLine
 62
253
  6
CONTINUOUS
 10
11.0808363181
 20
21.7338600472
 11
11.0095192796
 21
21.519734942
  0
LINE
  5
2ED
100
AcDbEntity
  8
ASSI
100
AcDbLine
 62
253
  6
CONTINUOUS
 10
10.893990222
 20
-0.0796755126
 11
10.7856491567
 21
-0.1338419197
  0
LINE
  5
2EE
100
AcDbEntity
  8
ASSI
100
AcDbLine
 62
253
  6
CONTINUOUS
 10
10.7856491567
 20
0.1744908945
 11
10.893990222
 21
0.1203244874
  0
LWPOLYLINE
  5
2EF
100
AcDbEntity
  8
CURVE
100
AcDbPolyline
 62
253
  6
CONTINUOUS
 90
27
 70
0
 10
-3.3001520654
 20
11.6680050028
 10
-3.3015081532
 20
11.6697892772
 10
-3.3028608912
 20
11.6715899565
 10
-3.3042070032
 20
11.6734106788
 10
-3.3050796081
 20
11.6746105188
 10
-3.3059461095
 20
11.6758207287
 10
-3.3068046157
 20
11.6770416061
 10
-3.307653235
 20
11.6782734486
 10
-3.3084900758
 20
11.6795165537
 10
-3.3093132464
 20
11.6807712192
 10
-3.3101208551
 20
11.6820377425
 10
-3.3109110102
 20
11.6833164213
 10
-3.3116818201
 20
11.6846075531
 10
-3.3124313931
 20
11.6859114355
 10
-3.3131578375
 20
11.6872283662
 10
-3.3138592617
 20
11.6885586427
 10
-3.314533774
 20
11.6899025626
 10
-3.3151794827
 20
11.6912604235
 10
-3.3157944962
 20
11.692632523
 10
-3.3163769227
 20
11.6940191586
 10
-3.3169248707
 20
11.695420628
 10
-3.3174364483
 20
11.6968372288
 10
-3.3179097641
 20
11.6982692586
 10
-3.3183429262
 20
11.6997170149
 10
-3.3187340431
 20
11.7011807953
 10
-3.319081223
 20
11.7026608975
 10
-3.3193825742
 20
11.7041576189
  0
LINE
  5
2F0
100
AcDbEntity
  8
ASSI
100
AcDbLine
 62
253
  6
CONTINUOUS
 10
11.0095192796
 20
-21.4790859672
 11
11.0808363181
 21
-21.6932110723
  0
LWPOLYLINE
  5
2F1
100
AcDbEntity
  8
ASSI
100
AcDbPolyline
 62
253
  6
CONTINUOUS
 90
11
 70
0
 10
11.0095192796
 20
21.519734942
 10
11.0088031694
 20
21.5167313521
 10
11.0080921215
 20
21.512071355
 10
11.0073861359
 20
21.5057549508
 10
11.0066840262
 20
21.497765984
 10
11.0059869789
 20
21.4881206101
 10
11.0052985529
 20
21.4768672956
 10
11.0046187997
 20
21.4639977551
 10
11.0039476679
 20
21.4495202739
 10
11.0032885619
 20
21.4335081747
 10
11.0020065699
 20
21.3968649639
  0
LINE
  5
2F2
100
AcDbEntity
  8
ASSI
100
AcDbLine
 62
253
  6
CONTINUOUS
 10
11.0939902232
 20
-0.2796526673
 11
10.9856189858
 21
-0.3338341592
  0
LINE
  5
2F3
100
AcDbEntity
  8
ASSI
100
AcDbLine
 62
253
  6
CONTINUOUS
 10
10.9856189858
 20
0.3744831341
 11
11.0939902232
 21
0.3203016421
  0
LINE
  5
2F4
100
AcDbEntity
  8
CURVE
100
AcDbLine
 62
253
  6
CONTINUOUS
 10
-1.9868703524
 20
14.5995106737
 11
-1.1588312536
 21
13.2272403963
  0
LINE
  5
2F5
100
AcDbEntity
  8
CURVE
100
AcDbLine
 62
253
  6
CONTINUOUS
 10
-1.1763995865
 20
14.2288470627
 11
-2.0238414635
 21
15.6368890068
  0
LWPOLYLINE
  5
2F6
100
AcDbEntity
  8
ASSI
100
AcDbPolyline
 62
253
  6
CONTINUOUS
 90
8
 70
0
 10
10.5095956324
 20
22.019050617
 10
10.5088792772
 20
22.0145695266
 10
10.5081680565
 20
22.0075737334
 10
10.5074619702
 20
21.9980750243
 10
10.5067598596
 20
21.986089496
 10
10.5060628836
 20
21.9716372771
 10
10.5053745186
 20
21.9547423159
 10
10.5040236597
 20
21.9137405699
  0
LWPOLYLINE
  5
2F7
100
AcDbEntity
  8
CURVE
100
AcDbPolyline
 62
253
  6
CONTINUOUS
 90
73
 70
0
 10
-2.0238414635
 20
15.6368890068
 10
-2.0262127336
 20
15.6405123156
 10
-2.0286984884
 20
15.6439893244
 10
-2.0313003195
 20
15.647333451
 10
-2.0340198185
 20
15.6505581132
 10
-2.036858577
 20
15.6536767285
 10
-2.0398181864
 20
15.6567027147
 10
-2.043530778
 20
15.6602259277
 10
-2.0474182139
 20
15.6636307088
 10
-2.0514790211
 20
15.6669126908
 10
-2.0557117266
 20
15.6700675061
 10
-2.0601148575
 20
15.6730907874
 10
-2.0646846906
 20
15.6759772388
 10
-2.0694085022
 20
15.6787178512
 10
-2.0742713184
 20
15.6813026866
 10
-2.0792581653
 20
15.6837218076
 10
-2.0843540688
 20
15.6859652763
 10
-2.0886743347
 20
15.6876938457
 10
-2.0930583223
 20
15.689289945
 10
-2.0975044178
 20
15.6907499859
 10
-2.1020110077
 20
15.6920703803
 10
-2.1065764782
 20
15.6932475398
 10
-2.1111992158
 20
15.6942778764
 10
-2.1158761174
 20
15.6951574035
 10
-2.1205981229
 20
15.6958805419
 10
-2.1253546828
 20
15.6964413143
 10
-2.1301352477
 20
15.6968337432
 10
-2.134929268
 20
15.6970518512
 10
-2.1397261943
 20
15.697089661
 10
-2.1438325519
 20
15.6969741347
 10
-2.1479289912
 20
15.696718583
 10
-2.1520112097
 20
15.696319836
 10
-2.1560749049
 20
15.6957747239
 10
-2.1601157741
 20
15.6950800769
 10
-2.1641295148
 20
15.694232725
 10
-2.1681118243
 20
15.6932294986
 10
-2.1720583817
 20
15.6920684811
 10
-2.1759647922
 20
15.6907527699
 10
-2.1798266424
 20
15.6892867157
 10
-2.1836395191
 20
15.6876746694
 10
-2.1873990091
 20
15.6859209815
 10
-2.1911006991
 20
15.6840300029
 10
-2.1947401759
 20
15.6820060844
 10
-2.1989019791
 20
15.6794831921
 10
-2.2029676809
 20
15.676795563
 10
-2.2069318659
 20
15.6739534844
 10
-2.2107891188
 20
15.6709672436
 10
-2.2145340242
 20
15.6678471281
 10
-2.2181611667
 20
15.6646034253
 10
-2.221665813
 20
15.6612455627
 10
-2.2250459581
 20
15.6577795295
 10
-2.2283002787
 20
15.6542104552
 10
-2.2314274519
 20
15.6505434692
 10
-2.2344261546
 20
15.6467837008
 10
-2.2372950637
 20
15.6429362796
 10
-2.2400322309
 20
15.6390075685
 10
-2.2426332078
 20
15.6350088653
 10
-2.2450929208
 20
15.630952701
 10
-2.2474062962
 20
15.626851607
 10
-2.2495682605
 20
15.6227181144
 10
-2.2515737399
 20
15.6185647546
 10
-2.2534188574
 20
15.6144022379
 10
-2.255104522
 20
15.6102339914
 10
-2.2566328389
 20
15.6060616212
 10
-2.2580059137
 20
15.6018867338
 10
-2.2592258518
 20
15.5977109353
 10
-2.2602947585
 20
15.5935358319
 10
-2.2612134575
 20
15.5893605869
 10
-2.2619776452
 20
15.5851745912
 10
-2.2625817362
 20
15.580964793
 10
-2.263020145
 20
15.5767181401
 10
-2.2632872863
 20
15.5724215806
 10
-2.2633775745
 20
15.5680620624
  0
LWPOLYLINE
  5
2F8
100
AcDbEntity
  8
ASSI
100
AcDbPolyline
 62
253
  6
CONTINUOUS
 90
9
 70
0
 10
11.0039476679
 20
-21.4088712986
 10
11.0046187997
 20
-21.4233487799
 10
11.0052985529
 20
-21.4362183205
 10
11.0059869789
 20
-21.447471635
 10
11.0066840262
 20
-21.4571170089
 10
11.0073861359
 20
-21.4651059758
 10
11.0080921215
 20
-21.47142238
 10
11.0088031694
 20
-21.4760823771
 10
11.0095192796
 20
-21.4790859672
  0
LWPOLYLINE
  5
2F9
100
AcDbEntity
  8
ASSI
100
AcDbPolyline
 62
253
  6
CONTINUOUS
 90
7
 70
0
 10
10.5053745185
 20
-21.9140933406
 10
10.5060628835
 20
-21.9309883019
 10
10.5067598596
 20
-21.9454405208
 10
10.5074619702
 20
-21.9574260492
 10
10.5081680565
 20
-21.9669247584
 10
10.5088792772
 20
-21.9739205516
 10
10.5095956324
 20
-21.9784016421
  0
LINE
  5
2FA
100
AcDbEntity
  8
ASSI
100
AcDbLine
 62
253
  6
CONTINUOUS
 10
10.5040236597
 20
-21.8730915945
 11
10.5053745185
 21
-21.9140933406
  0
LINE
  5
2FB
100
AcDbEntity
  8
ASSI
100
AcDbLine
 62
253
  6
CONTINUOUS
 10
10.5027175829
 20
-21.8227139221
 11
10.5040236597
 21
-21.8730915945
  0
LINE
  5
2FC
100
AcDbEntity
  8
ASSI
100
AcDbLine
 62
253
  6
CONTINUOUS
 10
10.5008584423
 20
-21.7303281646
 11
10.5027175829
 21
-21.8227139221
  0
LINE
  5
2FD
100
AcDbEntity
  8
ASSI
100
AcDbLine
 62
253
  6
CONTINUOUS
 10
10.5027175829
 20
21.8633628976
 11
10.5008584423
 21
21.7709771402
  0
LINE
  5
2FE
100
AcDbEntity
  8
ASSI
100
AcDbLine
 62
253
  6
CONTINUOUS
 10
10.5040236597
 20
21.9137405699
 11
10.5027175829
 21
21.8633628976
  0
LINE
  5
2FF
100
AcDbEntity
  8
CURVE
100
AcDbLine
 62
253
  6
CONTINUOUS
 10
3.2844410352
 20
13.8922970628
 11
2.6709242042
 21
15.3170253957
  0
LWPOLYLINE
  5
300
100
AcDbEntity
  8
ASSI
100
AcDbPolyline
 62
253
  6
CONTINUOUS
 90
22
 70
0
 10
10.9856186957
 20
-0.3338343043
 10
10.9850573713
 20
-0.3188902773
 10
10.983381088
 20
-0.3040298089
 10
10.9805992189
 20
-0.2893359889
 10
10.9767273186
 20
-0.2748909751
 10
10.9717870366
 20
-0.2607755346
 10
10.9658059962
 20
-0.2470685921
 10
10.9588176399
 20
-0.2338467876
 10
10.9508610424
 20
-0.2211840483
 10
10.9419806923
 20
-0.2091511761
 10
10.9322262433
 20
-0.1978154502
 10
10.921652236
 20
-0.187240252
 10
10.9103177941
 20
-0.1774847107
 10
10.8982862924
 20
-0.1686033722
 10
10.8856250035
 20
-0.1606458941
 10
10.8724047213
 20
-0.153656769
 10
10.8586993649
 20
-0.1476750743
 10
10.8445855656
 20
-0.1427342548
 10
10.8301422383
 20
-0.1388619355
 10
10.8154501404
 20
-0.1360797669
 10
10.80059142
 20
-0.134403304
 10
10.7856491567
 20
-0.1338419197
  0
LINE
  5
301
100
AcDbEntity
  8
ASSI
100
AcDbLine
 62
253
  6
CONTINUOUS
 10
11.0026415529
 20
-21.375304903
 11
11.0039476679
 21
-21.4088712986
  0
LINE
  5
302
100
AcDbEntity
  8
ASSI
100
AcDbLine
 62
253
  6
CONTINUOUS
 10
11.0013868038
 20
-21.3356885167
 11
11.0026415529
 21
-21.375304903
  0
LWPOLYLINE
  5
303
100
AcDbEntity
  8
ASSI
100
AcDbPolyline
 62
253
  6
CONTINUOUS
 90
28
 70
0
 10
11.0095192796
 20
21.519734942
 10
11.0086479362
 20
21.5487506537
 10
11.0060899209
 20
21.5776683003
 10
11.0018538788
 20
21.6063901476
 10
10.9959541266
 20
21.6348191227
 10
10.9884106039
 20
21.6628591429
 10
10.9792488058
 20
21.69041544
 10
10.9684996966
 20
21.7173948806
 10
10.9561996056
 20
21.7437062807
 10
10.9423901039
 20
21.7692607145
 10
10.9271178639
 20
21.7939718143
 10
10.910434502
 20
21.8177560626
 10
10.8923964037
 20
21.8405330745
 10
10.873064533
 20
21.8622258693
 10
10.8525042269
 20
21.8827611307
 10
10.830784974
 20
21.9020694545
 10
10.8079801799
 20
21.9200855832
 10
10.7841669191
 20
21.9367486268
 10
10.7594256744
 20
21.9520022681
 10
10.7338400651
 20
21.9657949535
 10
10.7074965642
 20
21.9780800672
 10
10.6804842063
 20
21.9888160882
 10
10.6528942864
 20
21.9979667316
 10
10.6248200515
 20
22.0055010703
 10
10.5963563858
 20
22.01139364
 10
10.5675994895
 20
22.0156245252
 10
10.5386465537
 20
22.0181794267
 10
10.509595432
 20
22.0190497094
  0
LINE
  5
304
100
AcDbEntity
  8
ASSI
100
AcDbLine
 62
253
  6
CONTINUOUS
 10
11.0001930741
 20
-21.2903034675
 11
11.0013868038
 21
-21.3356885167
  0
LINE
  5
305
100
AcDbEntity
  8
ASSI
100
AcDbLine
 62
253
  6
CONTINUOUS
 10
10.998534568
 20
-21.2121292805
 11
11.0001930741
 21
-21.2903034675
  0
LINE
  5
306
100
AcDbEntity
  8
ASSI
100
AcDbLine
 62
253
  6
CONTINUOUS
 10
10.9966075788
 20
-21.090916792
 11
10.998534568
 21
-21.2121292805
  0
LINE
  5
307
100
AcDbEntity
  8
ASSI
100
AcDbLine
 62
253
  6
CONTINUOUS
 10
10.4986107631
 20
-21.5779977603
 11
10.5008584423
 21
-21.7303281646
  0
LINE
  5
308
100
AcDbEntity
  8
ASSI
100
AcDbLine
 62
253
  6
CONTINUOUS
 10
10.994726394
 20
-20.9167085365
 11
10.9966075788
 21
-21.090916792
  0
LINE
  5
309
100
AcDbEntity
  8
ASSI
100
AcDbLine
 62
253
  6
CONTINUOUS
 10
10.4958566374
 20
-21.2956781362
 11
10.4986107631
 21
-21.5779977603
  0
LINE
  5
30A
100
AcDbEntity
  8
ASSI
100
AcDbLine
 62
253
  6
CONTINUOUS
 10
10.9933440472
 20
-20.6842247469
 11
10.994726394
 21
-20.9167085365
  0
LINE
  5
30B
100
AcDbEntity
  8
ASSI
100
AcDbLine
 62
253
  6
CONTINUOUS
 10
10.4935807814
 20
-20.8461660689
 11
10.4958566374
 21
-21.2956781362
  0
LINE
  5
30C
100
AcDbEntity
  8
ASSI
100
AcDbLine
 62
7
  6
CONTINUOUS
 10
11.0939902232
 20
13.1203244874
 11
11.0808363181
 21
21.7338600472
  0
LINE
  5
30D
100
AcDbEntity
  8
ASSI
100
AcDbLine
 62
253
  6
CONTINUOUS
 10
10.4882653426
 20
-12.1252554947
 11
10.4935807814
 21
-20.8461660689
  0
LINE
  5
30E
100
AcDbEntity
  8
ASSI
100
AcDbLine
 62
253
  6
CONTINUOUS
 10
10.9881887714
 20
-12.1121164601
 11
10.9933440472
 21
-20.6842247469
  0
LINE
  5
30F
100
AcDbEntity
  8
ASSI
100
AcDbLine
 62
253
  6
CONTINUOUS
 10
10.4882653426
 20
-12.1252554947
 11
10.4856948775
 21
-0.1364142733
  0
LINE
  5
310
100
AcDbEntity
  8
ASSI
100
AcDbLine
 62
253
  6
CONTINUOUS
 10
10.9856189858
 20
-0.3338341592
 11
10.9881887714
 21
-12.1121164601
  0
LINE
  5
311
100
AcDbEntity
  8
ASSI
100
AcDbLine
 62
7
  6
CONTINUOUS
 10
11.0939902232
 20
-0.2796526673
 11
11.0939902232
 21
-13.0796755126
  0
LINE
  5
312
100
AcDbEntity
  8
ASSI
100
AcDbLine
 62
7
  6
CONTINUOUS
 10
11.0939902232
 20
0.3203016421
 11
11.0939902232
 21
13.1203244874
  0
LINE
  5
313
100
AcDbEntity
  8
ASSI
100
AcDbLine
 62
7
  6
CONTINUOUS
 10
11.0939902232
 20
-13.0796755126
 11
11.0808363181
 21
-21.6932110723
  0
LINE
  5
314
100
AcDbEntity
  8
ASSI
100
AcDbLine
 62
253
  6
CONTINUOUS
 10
10.4945035759
 20
21.1196174143
 11
10.4856948775
 21
0.1770632481
  0
LINE
  5
315
100
AcDbEntity
  8
ASSI
100
AcDbLine
 62
253
  6
CONTINUOUS
 10
10.9936931989
 20
20.8044720047
 11
10.9856189858
 21
0.3744831341
  0
LINE
  5
316
100
AcDbEntity
  8
ASSI
100
AcDbLine
 62
253
  6
CONTINUOUS
 10
10.4971324327
 20
21.4847783057
 11
10.4945035759
 21
21.1196174143
  0
LINE
  5
317
100
AcDbEntity
  8
ASSI
100
AcDbLine
 62
253
  6
CONTINUOUS
 10
10.9954036842
 20
21.0296800415
 11
10.9936931989
 21
20.8044720047
  0
LINE
  5
318
100
AcDbEntity
  8
ASSI
100
AcDbLine
 62
253
  6
CONTINUOUS
 10
10.4996981534
 20
21.6987772035
 11
10.4971324327
 21
21.4847783057
  0
LINE
  5
319
100
AcDbEntity
  8
ASSI
100
AcDbLine
 62
253
  6
CONTINUOUS
 10
10.9970561928
 20
21.1635270905
 11
10.9954036842
 21
21.0296800415
  0
LINE
  5
31A
100
AcDbEntity
  8
ASSI
100
AcDbLine
 62
253
  6
CONTINUOUS
 10
10.5008584423
 20
21.7709771402
 11
10.4996981534
 21
21.6987772035
  0
LINE
  5
31B
100
AcDbEntity
  8
ASSI
100
AcDbLine
 62
253
  6
CONTINUOUS
 10
10.9990691929
 20
21.2801594477
 11
10.9970561928
 21
21.1635270905
  0
LINE
  5
31C
100
AcDbEntity
  8
ASSI
100
AcDbLine
 62
253
  6
CONTINUOUS
 10
11.0007823304
 20
21.3543642462
 11
10.9990691929
 21
21.2801594477
  0
LWPOLYLINE
  5
31D
100
AcDbEntity
  8
ASSI
100
AcDbPolyline
 62
253
  6
CONTINUOUS
 90
28
 70
0
 10
11.0095192796
 20
-21.4790859672
 10
11.0086479357
 20
-21.5081016881
 10
11.0060899188
 20
-21.5370193432
 10
11.0018538743
 20
-21.5657411979
 10
10.9959541191
 20
-21.5941701795
 10
10.9884105928
 20
-21.6222102052
 10
10.9792487906
 20
-21.6497665067
 10
10.9684996772
 20
-21.6767459505
 10
10.956199582
 20
-21.7030573528
 10
10.942390076
 20
-21.7286117878
 10
10.9271178322
 20
-21.7533228876
 10
10.9104344667
 20
-21.7771071351
 10
10.8923963652
 20
-21.7998841454
 10
10.8730644921
 20
-21.8215769378
 10
10.8525041842
 20
-21.8421121961
 10
10.8307849302
 20
-21.8614205164
 10
10.8079801358
 20
-21.8794366412
 10
10.7841668755
 20
-21.8960996805
 10
10.7594256323
 20
-21.9113533176
 10
10.7338400252
 20
-21.9251459987
 10
10.7074965274
 20
-21.9374311082
 10
10.6804841732
 20
-21.9481671255
 10
10.6528942576
 20
-21.9573177654
 10
10.6248200278
 20
-21.964852101
 10
10.5963563676
 20
-21.9707446683
 10
10.5675994771
 20
-21.9749755518
 10
10.5386465473
 20
-21.9775304522
 10
10.509595432
 20
-21.9784007345
  0
LINE
  5
31E
100
AcDbEntity
  8
ASSI
100
AcDbLine
 62
253
  6
CONTINUOUS
 10
11.0020065699
 20
21.3968649639
 11
11.0007823304
 21
21.3543642462
  0
LWPOLYLINE
  5
31F
100
AcDbEntity
  8
ASSI
100
AcDbPolyline
 62
253
  6
CONTINUOUS
 90
22
 70
0
 10
10.9856186957
 20
0.3744832792
 10
10.985057373
 20
0.3595392757
 10
10.9833810948
 20
0.344678829
 10
10.9805992337
 20
0.3299850286
 10
10.976727344
 20
0.3155400322
 10
10.9717870747
 20
0.3014246065
 10
10.9658060484
 20
0.2877176753
 10
10.9588177069
 20
0.2744958785
 10
10.9508611243
 20
0.2618331434
 10
10.9419807885
 20
0.2498002715
 10
10.9322263522
 20
0.2384645424
 10
10.9216523557
 20
0.2278893379
 10
10.9103179215
 20
0.2181337872
 10
10.8982864242
 20
0.2092524368
 10
10.8856251356
 20
0.2012949453
 10
10.8724048492
 20
0.1943058054
 10
10.8586994838
 20
0.1883240958
 10
10.8445856705
 20
0.1833832621
 10
10.8301423242
 20
0.17951093
 10
10.8154502022
 20
0.1767287511
 10
10.8005914531
 20
0.1750522814
 10
10.7856491567
 20
0.1744908945
  0
LINE
  5
320
100
AcDbEntity
  8
CURVE
100
AcDbLine
 62
253
  6
CONTINUOUS
 10
-0.7537612902
 20
-12.9173593912
 11
-3.0939831749
 21
-14.2685335575
  0
LINE
  5
321
100
AcDbEntity
  8
CURVE
100
AcDbLine
 62
253
  6
CONTINUOUS
 10
-3.1634439494
 20
-14.6293546685
 11
-0.4462801869
 21
-13.0605518912
  0
LWPOLYLINE
  5
322
100
AcDbEntity
  8
CURVE
100
AcDbPolyline
 62
253
  6
CONTINUOUS
 90
60
 70
0
 10
-3.102312584
 20
11.3132399232
 10
-3.0739328869
 20
11.3127145594
 10
-3.0455581943
 20
11.3131108912
 10
-3.01722764
 20
11.3143950624
 10
-2.9889803576
 20
11.3165332172
 10
-2.9608554809
 20
11.3194914993
 10
-2.9317335647
 20
11.3234066074
 10
-2.9028460222
 20
11.3281244176
 10
-2.8742519458
 20
11.3335944729
 10
-2.8460104277
 20
11.3397663164
 10
-2.8181805602
 20
11.3465894911
 10
-2.7908214357
 20
11.3540135401
 10
-2.7586822139
 20
11.363646729
 10
-2.7273309355
 20
11.3739986457
 10
-2.6967925809
 20
11.3849954172
 10
-2.6670921305
 20
11.3965631703
 10
-2.6382545651
 20
11.4086280321
 10
-2.6102950017
 20
11.4211240441
 10
-2.5831891049
 20
11.4340169071
 10
-2.556902676
 20
11.4472802368
 10
-2.5314015161
 20
11.4608876486
 10
-2.5066514267
 20
11.4748127582
 10
-2.4826245852
 20
11.4890271515
 10
-2.4593186741
 20
11.5034942958
 10
-2.4367377521
 20
11.5181756288
 10
-2.414885878
 20
11.5330325881
 10
-2.3937671106
 20
11.5480266116
 10
-2.3733822204
 20
11.5631220721
 10
-2.3537188247
 20
11.5782950836
 10
-2.3347612528
 20
11.5935246956
 10
-2.3164938337
 20
11.6087899572
 10
-2.2989008966
 20
11.6240699178
 10
-2.2778358067
 20
11.6431599685
 10
-2.2577782899
 20
11.6622074107
 10
-2.2387065269
 20
11.6811794042
 10
-2.2205986983
 20
11.7000431089
 10
-2.2034292342
 20
11.7187722168
 10
-2.1871575623
 20
11.7373665495
 10
-2.1717393598
 20
11.7558324607
 10
-2.1571303039
 20
11.7741763041
 10
-2.1432851723
 20
11.7924035367
 10
-2.1301551461
 20
11.8105160295
 10
-2.1176905067
 20
11.8285147564
 10
-2.1058415359
 20
11.8464006915
 10
-2.0909315238
 20
11.8700872118
 10
-2.0770108468
 20
11.8936515162
 10
-2.0640627064
 20
11.9171701755
 10
-2.0549896896
 20
11.9348244793
 10
-2.0465069893
 20
11.9525236925
 10
-2.0386640296
 20
11.9703043793
 10
-2.0314970774
 20
11.9882393081
 10
-2.0250322136
 20
12.006388665
 10
-2.0192679338
 20
12.0247261055
 10
-2.0141824272
 20
12.0432107653
 10
-2.0097002436
 20
12.0618302308
 10
-2.0045182129
 20
12.0868463609
 10
-2.0000959312
 20
12.1120179954
 10
-1.9962785468
 20
12.1372704072
 10
-1.9913433006
 20
12.1751801521
 10
-1.9868703524
 20
12.2131101187
  0
LINE
  5
323
100
AcDbEntity
  8
CURVE
100
AcDbLine
 62
253
  6
CONTINUOUS
 10
2.1719671604
 20
-12.9173593912
 11
-0.1685382496
 21
-14.2685335575
  0
LINE
  5
324
100
AcDbEntity
  8
CURVE
100
AcDbLine
 62
253
  6
CONTINUOUS
 10
-0.2380001922
 20
-14.6293546685
 11
2.4740847386
 21
-13.0635152245
  0
LWPOLYLINE
  5
325
100
AcDbEntity
  8
CURVE
100
AcDbPolyline
 62
253
  6
CONTINUOUS
 90
89
 70
0
 10
-2.3909067411
 20
12.6263892853
 10
-2.4259804471
 20
12.627973726
 10
-2.4603803876
 20
12.6289191753
 10
-2.4941030188
 20
12.6291799432
 10
-2.5271447965
 20
12.6287103399
 10
-2.559502177
 20
12.6274646756
 10
-2.5911716161
 20
12.6253972603
 10
-2.62214957
 20
12.6224624041
 10
-2.6524355088
 20
12.6186335107
 10
-2.6820409594
 20
12.6139603568
 10
-2.710980463
 20
12.6085118128
 10
-2.7392685607
 20
12.6023567489
 10
-2.7669197935
 20
12.5955640354
 10
-2.7939487026
 20
12.5882025425
 10
-2.8203698291
 20
12.5803411406
 10
-2.85044677
 20
12.5706158665
 10
-2.879745717
 20
12.5603311294
 10
-2.9082961436
 20
12.5495141581
 10
-2.9361275234
 20
12.5381921813
 10
-2.96326933
 20
12.5263924276
 10
-2.989751037
 20
12.514142126
 10
-3.0206951322
 20
12.4988831611
 10
-3.0507573323
 20
12.483048363
 10
-3.0799638436
 20
12.4666714781
 10
-3.1083408726
 20
12.449786253
 10
-3.1359146253
 20
12.4324264342
 10
-3.1692918232
 20
12.4100990305
 10
-3.2015041756
 20
12.3870788528
 10
-3.2326010089
 20
12.3633619508
 10
-3.2626316491
 20
12.3389443744
 10
-3.2916414889
 20
12.3138156778
 10
-3.3196601862
 20
12.2879394339
 10
-3.3467134656
 20
12.2612727202
 10
-3.3728270514
 20
12.2337726141
 10
-3.3930516208
 20
12.2111442485
 10
-3.4126623807
 20
12.1879366994
 10
-3.4316304617
 20
12.1641316249
 10
-3.4499269948
 20
12.1397106828
 10
-3.4675231105
 20
12.1146555313
 10
-3.4843823377
 20
12.0889525012
 10
-3.5004377982
 20
12.0626066148
 10
-3.5156150118
 20
12.0356275673
 10
-3.5298394982
 20
12.0080250539
 10
-3.5430367774
 20
11.9798087698
 10
-3.5531919038
 20
11.9558435187
 10
-3.5625136662
 20
11.9315254431
 10
-3.5709337612
 20
11.9069212153
 10
-3.5783838855
 20
11.8820975079
 10
-3.5847957358
 20
11.8571209932
 10
-3.5901010088
 20
11.8320583437
 10
-3.5942375909
 20
11.8069743468
 10
-3.5971681281
 20
11.7819262509
 10
-3.5988614561
 20
11.7569694192
 10
-3.5992864107
 20
11.7321592153
 10
-3.5984118274
 20
11.7075510026
 10
-3.5962065421
 20
11.6832001443
 10
-3.593660887
 20
11.665137806
 10
-3.590338011
 20
11.6472664001
 10
-3.5862267428
 20
11.6296009551
 10
-3.5813159114
 20
11.6121564994
 10
-3.5755949463
 20
11.5949499752
 10
-3.5690556804
 20
11.5780059781
 10
-3.5616844541
 20
11.5613485415
 10
-3.5534432352
 20
11.5449917948
 10
-3.5442955695
 20
11.5289535468
 10
-3.5342356869
 20
11.5132762292
 10
-3.5232699724
 20
11.4980059855
 10
-3.5114227458
 20
11.4831791854
 10
-3.4987278289
 20
11.4688335101
 10
-3.4852391162
 20
11.4550216625
 10
-3.4709909983
 20
11.4417837509
 10
-3.4559197779
 20
11.4290944831
 10
-3.4399659651
 20
11.4169279914
 10
-3.423184988
 20
11.4053215066
 10
-3.4056610042
 20
11.3943280339
 10
-3.3874781712
 20
11.3840005785
 10
-3.3687148031
 20
11.3743836954
 10
-3.3494258392
 20
11.365488138
 10
-3.3296603754
 20
11.3573162092
 10
-3.3094675074
 20
11.3498702122
 10
-3.2859275461
 20
11.3422480724
 10
-3.2619545982
 20
11.3355548583
 10
-3.2376097942
 20
11.3297683317
 10
-3.2129542645
 20
11.3248662547
 10
-3.1880491395
 20
11.3208263891
 10
-3.1629555496
 20
11.3176264968
 10
-3.1377346254
 20
11.3152443398
 10
-3.1200350476
 20
11.3140513675
 10
-3.102312584
 20
11.3132399232
  0
LWPOLYLINE
  5
326
100
AcDbEntity
  8
CURVE
100
AcDbPolyline
 62
253
  6
CONTINUOUS
 90
8
 70
0
 10
-2.3912242411
 20
12.3510815076
 10
-2.3836887681
 20
12.3505760153
 10
-2.3762057303
 20
12.350011501
 10
-2.3687748484
 20
12.3493930782
 10
-2.3613958431
 20
12.3487258603
 10
-2.3540684353
 20
12.348014961
 10
-2.3467923456
 20
12.3472654937
 10
-2.3395672947
 20
12.346482572
  0
LINE
  5
327
100
AcDbEntity
  8
CURVE
100
AcDbLine
 62
253
  6
CONTINUOUS
 10
-2.2633775745
 20
12.6137245631
 11
-2.3909067411
 21
12.6263892853
  0
LINE
  5
328
100
AcDbEntity
  8
CURVE
100
AcDbLine
 62
253
  6
CONTINUOUS
 10
-2.3395672947
 20
12.346482572
 11
-2.3252691924
 21
12.3448368193
  0
LINE
  5
329
100
AcDbEntity
  8
CURVE
100
AcDbLine
 62
253
  6
CONTINUOUS
 10
-2.3252691924
 20
12.3448368193
 11
-2.3071805978
 21
12.342608279
  0
LINE
  5
32A
100
AcDbEntity
  8
CURVE
100
AcDbLine
 62
253
  6
CONTINUOUS
 10
-2.3071805978
 20
12.342608279
 11
-2.2894187972
 21
12.3402759194
  0
LWPOLYLINE
  5
32B
100
AcDbEntity
  8
CURVE
100
AcDbPolyline
 62
253
  6
CONTINUOUS
 90
3
 70
0
 10
-2.2894187972
 20
12.3402759194
 10
-2.2719786429
 20
12.3378556948
 10
-2.2633775745
 20
12.3366176187
  0
LINE
  5
32C
100
AcDbEntity
  8
CURVE
100
AcDbLine
 62
253
  6
CONTINUOUS
 10
1.7901439489
 20
14.1048809516
 11
3.1583925251
 21
13.7460001184
  0
LWPOLYLINE
  5
32D
100
AcDbEntity
  8
CURVE
100
AcDbPolyline
 62
253
  6
CONTINUOUS
 90
56
 70
0
 10
2.3461569903
 20
14.8700559514
 10
2.2845352915
 20
14.8946801452
 10
2.2223862568
 20
14.9169718223
 10
2.1596785943
 20
14.93694919
 10
2.096381012
 20
14.9546304556
 10
2.0324622178
 20
14.9700338264
 10
1.9679142379
 20
14.9831712256
 10
1.9028223715
 20
14.9940294398
 10
1.8372952359
 20
15.0025889715
 10
1.7714414485
 20
15.0088303233
 10
1.7053696266
 20
15.0127339977
 10
1.6391864613
 20
15.0142853605
 10
1.5729909394
 20
15.0134892309
 10
1.5068801213
 20
15.0103552911
 10
1.4409510675
 20
15.0048932236
 10
1.3753008385
 20
14.9971127107
 10
1.3100189715
 20
14.9870204443
 10
1.2451649105
 20
14.9746111555
 10
1.1807905764
 20
14.9598765847
 10
1.1169478899
 20
14.9428084725
 10
1.0536887718
 20
14.9233985595
 10
0.9910760831
 20
14.9016504602
 10
0.9292164449
 20
14.8776152862
 10
0.8682274184
 20
14.8513560229
 10
0.8082265649
 20
14.8229356559
 10
0.7493314457
 20
14.7924171707
 10
0.6916446042
 20
14.759856742
 10
0.6352085126
 20
14.7252833014
 10
0.5800506253
 20
14.6887189696
 10
0.5261983967
 20
14.6501858676
 10
0.4736792812
 20
14.6097061159
 10
0.422533391
 20
14.5673125085
 10
0.3728514699
 20
14.523080532
 10
0.3247369192
 20
14.4770963457
 10
0.2782931405
 20
14.4294461094
 10
0.2336235353
 20
14.3802159827
 10
0.1908185112
 20
14.3294840059
 10
0.1499165005
 20
14.2772957431
 10
0.1109429415
 20
14.2236886394
 10
0.0739232728
 20
14.1687001396
 10
0.0388829326
 20
14.1123676887
 10
0.0058531079
 20
14.0547383239
 10
-0.0251120202
 20
13.9958974506
 10
-0.053952522
 20
13.9359400665
 10
-0.0806084677
 20
13.8749611693
 10
-0.1050199278
 20
13.8130557566
 10
-0.1271373523
 20
13.7503215814
 10
-0.1469527096
 20
13.6868674174
 10
-0.1644683481
 20
13.6228047932
 10
-0.1796866161
 20
13.5582452379
 10
-0.1926098617
 20
13.4933002802
 10
-0.2032358667
 20
13.4280566596
 10
-0.2115441459
 20
13.3625019576
 10
-0.2175096475
 20
13.2965989665
 10
-0.2211073197
 20
13.2303104783
 10
-0.2223121108
 20
13.1635992852
  0
LWPOLYLINE
  5
32E
100
AcDbEntity
  8
CURVE
100
AcDbPolyline
 62
253
  6
CONTINUOUS
 90
73
 70
0
 10
3.1583925251
 20
13.7460001184
 10
3.1618247785
 20
13.7443296782
 10
3.1652472696
 20
13.7428152815
 10
3.1686688386
 20
13.7414493362
 10
3.1720983256
 20
13.7402242507
 10
3.1755445709
 20
13.739132433
 10
3.1790164147
 20
13.7381662911
 10
3.1825210356
 20
13.7373202176
 10
3.1860589673
 20
13.7365965421
 10
3.1896290817
 20
13.7359995786
 10
3.1932302509
 20
13.7355336411
 10
3.1968613471
 20
13.7352030438
 10
3.2005212423
 20
13.7350121005
 10
3.2042074691
 20
13.7349642571
 10
3.2079122021
 20
13.7350594865
 10
3.2116262764
 20
13.7352968935
 10
3.2153405272
 20
13.7356755827
 10
3.2190457896
 20
13.736194659
 10
3.2227328988
 20
13.736853227
 10
3.2263934035
 20
13.7376500815
 10
3.2300217072
 20
13.7385827779
 10
3.233612927
 20
13.7396485615
 10
3.2371621802
 20
13.7408446779
 10
3.2406645837
 20
13.7421683723
 10
3.2441152548
 20
13.7436168903
 10
3.2475093013
 20
13.7451876998
 10
3.2508417939
 20
13.746879159
 10
3.254107794
 20
13.7486898486
 10
3.257302363
 20
13.7506183494
 10
3.2604205624
 20
13.7526632421
 10
3.2634574535
 20
13.7548231075
 10
3.2664082466
 20
13.7570963089
 10
3.269268748
 20
13.7594803398
 10
3.2720349128
 20
13.7619724764
 10
3.2747026959
 20
13.7645699947
 10
3.2772680525
 20
13.7672701709
 10
3.2797269378
 20
13.7700702811
 10
3.2820756361
 20
13.7729670604
 10
3.2843117498
 20
13.7759550802
 10
3.2864332104
 20
13.7790283709
 10
3.2884379495
 20
13.7821809628
 10
3.2903238988
 20
13.7854068864
 10
3.2920889898
 20
13.788700172
 10
3.2937312137
 20
13.7920549633
 10
3.2952487993
 20
13.7954658577
 10
3.2966400348
 20
13.7989275656
 10
3.2979032085
 20
13.8024347975
 10
3.2990366086
 20
13.8059822642
 10
3.3000385233
 20
13.809564676
 10
3.3009071492
 20
13.8131768575
 10
3.3016403152
 20
13.8168140883
 10
3.3022357584
 20
13.820471762
 10
3.3026912159
 20
13.8241452721
 10
3.3030044249
 20
13.8278300123
 10
3.3031731225
 20
13.8315213759
 10
3.3031960774
 20
13.8352140115
 10
3.303076185
 20
13.8388995869
 10
3.302817372
 20
13.8425690248
 10
3.3024235655
 20
13.8462132478
 10
3.3018986922
 20
13.8498231786
 10
3.3012466792
 20
13.8533897399
 10
3.3004714462
 20
13.856905293
 10
3.299576885
 20
13.8603679532
 10
3.2985668805
 20
13.8637772745
 10
3.2974453173
 20
13.8671328109
 10
3.2962160804
 20
13.8704341162
 10
3.2948830545
 20
13.8736807445
 10
3.2934478935
 20
13.8768736836
 10
3.2919033286
 20
13.8800196577
 10
3.29023986
 20
13.8831268246
 10
3.2884479881
 20
13.8862033425
 10
3.286518213
 20
13.8892573692
 10
3.2844410352
 20
13.8922970628
  0
LINE
  5
32F
100
AcDbEntity
  8
ASSI
100
AcDbLine
 62
7
  6
CONTINUOUS
 10
7.7497800974
 20
22.231805775
 11
7.4017252501
 21
22.2002118145
  0
LINE
  5
330
100
AcDbEntity
  8
ASSI
100
AcDbLine
 62
253
  6
CONTINUOUS
 10
-10.9451431385
 20
20.5770609833
 11
-10.9008104394
 21
20.5785986841
  0
LINE
  5
331
100
AcDbEntity
  8
ASSI
100
AcDbLine
 62
253
  6
CONTINUOUS
 10
-10.9008104394
 20
20.5785986841
 11
-10.8525668121
 21
20.5799199132
  0
LINE
  5
332
100
AcDbEntity
  8
ASSI
100
AcDbLine
 62
253
  6
CONTINUOUS
 10
-10.8525668121
 20
20.5799199132
 11
-10.8010502789
 21
20.5810071975
  0
LINE
  5
333
100
AcDbEntity
  8
ASSI
100
AcDbLine
 62
253
  6
CONTINUOUS
 10
-10.8010502789
 20
20.5810071975
 11
-10.7469421462
 21
20.5818461575
  0
LINE
  5
334
100
AcDbEntity
  8
ASSI
100
AcDbLine
 62
253
  6
CONTINUOUS
 10
-10.7469421462
 20
20.5818461575
 11
-10.6909579945
 21
20.5824256981
  0
LINE
  5
335
100
AcDbEntity
  8
ASSI
100
AcDbLine
 62
253
  6
CONTINUOUS
 10
-10.6909579945
 20
20.5824256981
 11
-10.6338382145
 21
20.5827381547
  0
LINE
  5
336
100
AcDbEntity
  8
ASSI
100
AcDbLine
 62
253
  6
CONTINUOUS
 10
-10.6338382145
 20
20.5827381547
 11
10.493068637
 21
20.5827723183
  0
LINE
  5
337
100
AcDbEntity
  8
ASSI
100
AcDbLine
 62
253
  6
CONTINUOUS
 10
10.5504735512
 20
20.5826156702
 11
10.4930686614
 21
20.5827928122
  0
LINE
  5
338
100
AcDbEntity
  8
ASSI
100
AcDbLine
 62
253
  6
CONTINUOUS
 10
10.6071192604
 20
20.5821689318
 11
10.5504735512
 21
20.5826156702
  0
LINE
  5
339
100
AcDbEntity
  8
ASSI
100
AcDbLine
 62
253
  6
CONTINUOUS
 10
10.6622566484
 20
20.5814585052
 11
10.6071192604
 21
20.5821689318
  0
LINE
  5
33A
100
AcDbEntity
  8
ASSI
100
AcDbLine
 62
253
  6
CONTINUOUS
 10
10.7151565223
 20
20.5804937859
 11
10.6622566484
 21
20.5814585052
  0
LINE
  5
33B
100
AcDbEntity
  8
ASSI
100
AcDbLine
 62
253
  6
CONTINUOUS
 10
10.7651192803
 20
20.5792875323
 11
10.7151565223
 21
20.5804937859
  0
LINE
  5
33C
100
AcDbEntity
  8
ASSI
100
AcDbLine
 62
7
  6
CONTINUOUS
 10
-7.8617996511
 20
22.231805775
 11
-7.5137448038
 21
22.2002118145
  0
LWPOLYLINE
  5
33D
100
AcDbEntity
  8
ASSI
100
AcDbPolyline
 62
253
  6
CONTINUOUS
 90
15
 70
0
 10
10.992992509
 20
-20.521581369
 10
10.9916640361
 20
-20.522763891
 10
10.9886857167
 20
-20.5239424999
 10
10.984067406
 20
-20.5251132958
 10
10.9778243859
 20
-20.5262724046
 10
10.9699773145
 20
-20.5274159907
 10
10.9605521576
 20
-20.52854027
 10
10.9495801031
 20
-20.5296415224
 10
10.9370974572
 20
-20.5307161038
 10
10.9231455251
 20
-20.5317604584
 10
10.9077704733
 20
-20.5327711305
 10
10.8910231779
 20
-20.5337447757
 10
10.8729590554
 20
-20.5346781722
 10
10.8536378799
 20
-20.5355682316
 10
10.8331235848
 20
-20.5364120085
  0
LINE
  5
33E
100
AcDbEntity
  8
ASSI
100
AcDbLine
 62
7
  6
CONTINUOUS
 10
-3.4502199026
 20
22.231805775
 11
-3.7982747499
 21
22.2002118145
  0
LINE
  5
33F
100
AcDbEntity
  8
ASSI
100
AcDbLine
 62
253
  6
CONTINUOUS
 10
-10.621615288
 20
22.0190506171
 11
10.5095957344
 21
22.0190506171
  0
LINE
  5
340
100
AcDbEntity
  8
ASSI
100
AcDbLine
 62
7
  6
CONTINUOUS
 10
7.2285201693
 20
22.1949710365
 11
3.859460277
 21
22.1949710365
  0
LINE
  5
341
100
AcDbEntity
  8
ASSI
100
AcDbLine
 62
7
  6
CONTINUOUS
 10
-3.9714798307
 20
22.1949710365
 11
-7.340539723
 21
22.1949710365
  0
LINE
  5
342
100
AcDbEntity
  8
ASSI
100
AcDbLine
 62
7
  6
CONTINUOUS
 10
10.5804564948
 20
22.231805775
 11
7.7497800974
 21
22.231805775
  0
LINE
  5
343
100
AcDbEntity
  8
ASSI
100
AcDbLine
 62
7
  6
CONTINUOUS
 10
3.3382003489
 20
22.231805775
 11
-3.4502199026
 21
22.231805775
  0
LINE
  5
344
100
AcDbEntity
  8
ASSI
100
AcDbLine
 62
7
  6
CONTINUOUS
 10
-7.8617996511
 20
22.231805775
 11
-10.6924760485
 21
22.231805775
  0
LINE
  5
345
100
AcDbEntity
  8
ASSI
100
AcDbLine
 62
7
  6
CONTINUOUS
 10
3.3382003489
 20
22.231805775
 11
3.6862551962
 21
22.2002118145
  0
LWPOLYLINE
  5
346
100
AcDbEntity
  8
ASSI
100
AcDbPolyline
 62
253
  6
CONTINUOUS
 90
17
 70
0
 10
10.992992509
 20
20.5622303439
 10
10.9916640546
 20
20.5634128664
 10
10.9886857522
 20
20.564591476
 10
10.9840674569
 20
20.5657622726
 10
10.9778244507
 20
20.5669213821
 10
10.9699773916
 20
20.5680649689
 10
10.9605522454
 20
20.5691892491
 10
10.9495801998
 20
20.5702905022
 10
10.9370975614
 20
20.5713650844
 10
10.923145635
 20
20.5724094398
 10
10.9077705875
 20
20.5734201127
 10
10.8910232947
 20
20.5743937587
 10
10.8729591732
 20
20.575327156
 10
10.8536379973
 20
20.5762172161
 10
10.8331237003
 20
20.5770609938
 10
10.8114841641
 20
20.577855697
 10
10.7651192803
 20
20.5792875323
  0
LINE
  5
347
100
AcDbEntity
  8
ASSI
100
AcDbLine
 62
7
  6
CONTINUOUS
 10
-31.2780876377
 20
-21.9784016422
 11
-27.2184773884
 21
-22.1911568001
  0
LINE
  5
348
100
AcDbEntity
  8
ASSI
100
AcDbLine
 62
253
  6
CONTINUOUS
 10
-31.2606631818
 20
-21.4790859672
 11
-27.1749127822
 21
-21.6932110723
  0
LINE
  5
349
100
AcDbEntity
  8
ASSI
100
AcDbLine
 62
253
  6
CONTINUOUS
 10
-32.6975059349
 20
-20.5420891798
 11
-32.698331633
 21
-20.5421438206
  0
LINE
  5
34A
100
AcDbEntity
  8
ASSI
100
AcDbLine
 62
253
  6
CONTINUOUS
 10
-32.690911645
 20
-20.5417767232
 11
-32.6975059349
 21
-20.5420891798
  0
LINE
  5
34B
100
AcDbEntity
  8
ASSI
100
AcDbLine
 62
253
  6
CONTINUOUS
 10
-32.2074812375
 20
-20.521581369
 11
-32.690911645
 21
-20.5417767232
  0
LINE
  5
34C
100
AcDbEntity
  8
ASSI
100
AcDbLine
 62
253
  6
CONTINUOUS
 10
-26.8213260679
 20
-17.9131671138
 11
-26.8442017887
 21
-17.9131671196
  0
LWPOLYLINE
  5
34D
100
AcDbEntity
  8
ASSI
100
AcDbPolyline
 62
253
  6
CONTINUOUS
 90
37
 70
0
 10
-32.2074812375
 20
-20.521581369
 10
-32.2049392241
 20
-20.5626302631
 10
-32.2007378493
 20
-20.6034090435
 10
-32.1948771132
 20
-20.6439177103
 10
-32.1873416239
 20
-20.6842247469
 10
-32.1781467734
 20
-20.7242616699
 10
-32.167338737
 20
-20.7638230291
 10
-32.1549092349
 20
-20.8029056143
 10
-32.1408665468
 20
-20.8415126356
 10
-32.1252816879
 20
-20.8794482734
 10
-32.1081470317
 20
-20.9167085365
 10
-32.0894702046
 20
-20.953297416
 10
-32.0693451008
 20
-20.989031066
 10
-32.0477644706
 20
-21.0239052398
 10
-32.0247355637
 20
-21.057924184
 10
-32.0003740238
 20
-21.090916792
 10
-31.9746729456
 20
-21.1228781151
 10
-31.9476392343
 20
-21.1538131018
 10
-31.9194092498
 20
-21.1835654915
 10
-31.8899768868
 20
-21.2121292805
 10
-31.8593482506
 20
-21.2395104723
 10
-31.8276780174
 20
-21.2655708169
 10
-31.7949611409
 20
-21.2903034675
 10
-31.7612026673
 20
-21.3137152708
 10
-31.7265724111
 20
-21.3356885167
 10
-31.6910660369
 20
-21.3562159886
 10
-31.6546878801
 20
-21.375304903
 10
-31.6176207614
 20
-21.3928591994
 10
-31.5798606056
 20
-21.4088712986
 10
-31.5414114878
 20
-21.4233487799
 10
-31.5024684543
 20
-21.4362183205
 10
-31.4630285551
 20
-21.447471635
 10
-31.4230947401
 20
-21.4571170089
 10
-31.3828709056
 20
-21.4651059758
 10
-31.3424250172
 20
-21.47142238
 10
-31.3016891092
 20
-21.4760823771
 10
-31.2606631818
 20
-21.4790859672
  0
LWPOLYLINE
  5
34E
100
AcDbEntity
  8
ASSI
100
AcDbPolyline
 62
253
  6
CONTINUOUS
 90
8
 70
0
 10
-32.6296927122
 20
0.2012949453
 10
-32.6295229446
 20
0.1943058054
 10
-32.6293359181
 20
0.1883240958
 10
-32.6291326786
 20
0.1833832621
 10
-32.6289143624
 20
0.17951093
 10
-32.6286821902
 20
0.1767287511
 10
-32.6284374601
 20
0.1750522814
 10
-32.6281815405
 20
0.1744908945
  0
LINE
  5
34F
100
AcDbEntity
  8
ASSI
100
AcDbLine
 62
253
  6
CONTINUOUS
 10
-32.6299767761
 20
0.2181337872
 11
-32.6296927122
 21
0.2012949453
  0
LINE
  5
350
100
AcDbEntity
  8
ASSI
100
AcDbLine
 62
253
  6
CONTINUOUS
 10
-32.6301817653
 20
0.2384645424
 11
-32.6299767761
 21
0.2181337872
  0
LINE
  5
351
100
AcDbEntity
  8
ASSI
100
AcDbLine
 62
253
  6
CONTINUOUS
 10
-32.6299267146
 20
-0.3338343043
 11
-32.6302859063
 21
-0.2748909751
  0
LWPOLYLINE
  5
352
100
AcDbEntity
  8
ASSI
100
AcDbPolyline
 62
253
  6
CONTINUOUS
 90
13
 70
0
 10
-32.629910096
 20
-0.3338341592
 10
-32.625888426
 20
-2.0167457522
 10
-32.6161964382
 20
-3.6995589532
 10
-32.6008341325
 20
-5.3822737622
 10
-32.5798006063
 20
-7.0648966761
 10
-32.5530967623
 20
-8.747421198
 10
-32.5207253081
 20
-10.4298278374
 10
-32.4826871815
 20
-12.1121164601
 10
-32.4389814448
 20
-13.7942872002
 10
-32.3896079926
 20
-15.47632097
 10
-32.3345667897
 20
-17.1582114067
 10
-32.2738578714
 20
-18.8399648731
 10
-32.2074812375
 20
-20.521581369
  0
LINE
  5
353
100
AcDbEntity
  8
ASSI
100
AcDbLine
 62
253
  6
CONTINUOUS
 10
-32.6303314784
 20
0.2744958785
 11
-32.6301817653
 21
0.2384645424
  0
LINE
  5
354
100
AcDbEntity
  8
ASSI
100
AcDbLine
 62
253
  6
CONTINUOUS
 10
-32.6302859063
 20
-0.2748909751
 11
-32.6303314793
 21
-0.2338467876
  0
LINE
  5
355
100
AcDbEntity
  8
ASSI
100
AcDbLine
 62
253
  6
CONTINUOUS
 10
-32.6302859054
 20
0.3155400322
 11
-32.6303314784
 21
0.2744958785
  0
LINE
  5
356
100
AcDbEntity
  8
ASSI
100
AcDbLine
 62
253
  6
CONTINUOUS
 10
-32.6303314793
 20
-0.2338467876
 11
-32.6301817656
 21
-0.1978154502
  0
LINE
  5
357
100
AcDbEntity
  8
ASSI
100
AcDbLine
 62
253
  6
CONTINUOUS
 10
-32.6299267146
 20
0.3744832792
 11
-32.6302859054
 21
0.3155400322
  0
LINE
  5
358
100
AcDbEntity
  8
ASSI
100
AcDbLine
 62
253
  6
CONTINUOUS
 10
-32.6301817656
 20
-0.1978154502
 11
-32.6299767758
 21
-0.1774847107
  0
LWPOLYLINE
  5
359
100
AcDbEntity
  8
ASSI
100
AcDbPolyline
 62
253
  6
CONTINUOUS
 90
9
 70
0
 10
-32.6299767758
 20
-0.1774847107
 10
-32.6296927116
 20
-0.1606458941
 10
-32.6295229438
 20
-0.153656769
 10
-32.6293359173
 20
-0.1476750743
 10
-32.6291326777
 20
-0.1427342548
 10
-32.6289143616
 20
-0.1388619355
 10
-32.6286821895
 20
-0.1360797669
 10
-32.6284374597
 20
-0.134403304
 10
-32.6281815405
 20
-0.1338419197
  0
LINE
  5
35A
100
AcDbEntity
  8
CURVE
100
AcDbLine
 62
253
  6
CONTINUOUS
 10
-32.9937826549
 20
11.3131177032
 11
-32.9625344234
 21
12.6205829657
  0
LINE
  5
35B
100
AcDbEntity
  8
CURVE
100
AcDbLine
 62
253
  6
CONTINUOUS
 10
-32.9654586154
 20
12.5040453764
 11
-32.9334453321
 21
13.7259958352
  0
LINE
  5
35C
100
AcDbEntity
  8
CURVE
100
AcDbLine
 62
253
  6
CONTINUOUS
 10
-32.9334453321
 20
13.7259958352
 11
-32.9048189722
 21
14.7329155916
  0
LINE
  5
35D
100
AcDbEntity
  8
CURVE
100
AcDbLine
 62
253
  6
CONTINUOUS
 10
-32.8755046734
 20
15.697089661
 11
-32.8802255887
 21
15.5458631158
  0
LWPOLYLINE
  5
35E
100
AcDbEntity
  8
ASSI
100
AcDbPolyline
 62
253
  6
CONTINUOUS
 90
13
 70
0
 10
-32.2074812375
 20
20.5622303439
 10
-32.2738578714
 20
18.880613848
 10
-32.3345667897
 20
17.1988603816
 10
-32.3896079926
 20
15.5169699448
 10
-32.4389814448
 20
13.8349361751
 10
-32.4826871815
 20
12.1527654349
 10
-32.5207253081
 20
10.4704768123
 10
-32.5530967623
 20
8.7880701729
 10
-32.5798006063
 20
7.105545651
 10
-32.6008341325
 20
5.4229227371
 10
-32.6161964382
 20
3.7402079281
 10
-32.6258884261
 20
2.0573947271
 10
-32.629910096
 20
0.3744831341
  0
LWPOLYLINE
  5
35F
100
AcDbEntity
  8
ASSI
100
AcDbPolyline
 62
253
  6
CONTINUOUS
 90
10
 70
0
 10
-31.2785844036
 20
21.9367486268
 10
-31.2792281985
 20
21.9657949535
 10
-31.2794122064
 20
21.9780800672
 10
-31.2795033549
 20
21.9888160882
 10
-31.2795013359
 20
21.9979667316
 10
-31.2794061562
 20
22.0055010703
 10
-31.2792181375
 20
22.01139364
 10
-31.2789379152
 20
22.0156245252
 10
-31.2785664365
 20
22.0181794267
 10
-31.2781049567
 20
22.0190497094
  0
LWPOLYLINE
  5
360
100
AcDbEntity
  8
ASSI
100
AcDbPolyline
 62
253
  6
CONTINUOUS
 90
9
 70
0
 10
-31.2792281982
 20
-21.9251459987
 10
-31.2794122061
 20
-21.9374311082
 10
-31.2795033545
 20
-21.9481671255
 10
-31.2795013354
 20
-21.9573177654
 10
-31.2794061557
 20
-21.964852101
 10
-31.2792181371
 20
-21.9707446683
 10
-31.2789379149
 20
-21.9749755518
 10
-31.2785664363
 20
-21.9775304522
 10
-31.2781049567
 20
-21.9784007345
  0
LINE
  5
361
100
AcDbEntity
  8
ASSI
100
AcDbLine
 62
253
  6
CONTINUOUS
 10
-31.2785844036
 20
-21.8960996805
 11
-31.2792281982
 21
-21.9251459987
  0
LINE
  5
362
100
AcDbEntity
  8
ASSI
100
AcDbLine
 62
253
  6
CONTINUOUS
 10
-31.2606631818
 20
21.519734942
 11
-31.2677955505
 21
21.6628591429
  0
LINE
  5
363
100
AcDbEntity
  8
ASSI
100
AcDbLine
 62
253
  6
CONTINUOUS
 10
-31.2677955505
 20
21.6628591429
 11
-31.2725685299
 21
21.7692607145
  0
LINE
  5
364
100
AcDbEntity
  8
ASSI
100
AcDbLine
 62
253
  6
CONTINUOUS
 10
-31.2725685299
 20
21.7692607145
 11
-31.2754311128
 21
21.8405330745
  0
LINE
  5
365
100
AcDbEntity
  8
ASSI
100
AcDbLine
 62
253
  6
CONTINUOUS
 10
-31.2754311128
 20
21.8405330745
 11
-31.2775806664
 21
21.9020694545
  0
LINE
  5
366
100
AcDbEntity
  8
ASSI
100
AcDbLine
 62
253
  6
CONTINUOUS
 10
-31.2775806664
 20
21.9020694545
 11
-31.2785844036
 21
21.9367486268
  0
LINE
  5
367
100
AcDbEntity
  8
ASSI
100
AcDbLine
 62
253
  6
CONTINUOUS
 10
-31.2775806668
 20
-21.8614205164
 11
-31.2785844036
 21
-21.8960996805
  0
LINE
  5
368
100
AcDbEntity
  8
ASSI
100
AcDbLine
 62
253
  6
CONTINUOUS
 10
-31.2754311139
 20
-21.7998841454
 11
-31.2775806668
 21
-21.8614205164
  0
LINE
  5
369
100
AcDbEntity
  8
ASSI
100
AcDbLine
 62
253
  6
CONTINUOUS
 10
-31.2725685314
 20
-21.7286117878
 11
-31.2754311139
 21
-21.7998841454
  0
LINE
  5
36A
100
AcDbEntity
  8
ASSI
100
AcDbLine
 62
253
  6
CONTINUOUS
 10
-31.2677955518
 20
-21.6222102052
 11
-31.2725685314
 21
-21.7286117878
  0
LINE
  5
36B
100
AcDbEntity
  8
ASSI
100
AcDbLine
 62
253
  6
CONTINUOUS
 10
-31.2606631818
 20
-21.4790859672
 11
-31.2677955518
 21
-21.6222102052
  0
LINE
  5
36C
100
AcDbEntity
  8
ASSI
100
AcDbLine
 62
253
  6
CONTINUOUS
 10
-26.4213260679
 20
-0.2796526673
 11
-32.629910096
 21
-0.3338341592
  0
LINE
  5
36D
100
AcDbEntity
  8
ASSI
100
AcDbLine
 62
7
  6
CONTINUOUS
 10
-26.4213260679
 20
-0.0796755126
 11
-32.9229440657
 21
-0.1364142733
  0
LINE
  5
36E
100
AcDbEntity
  8
ASSI
100
AcDbLine
 62
253
  6
CONTINUOUS
 10
-32.6299100959
 20
-0.333834213
 11
-33.1211987061
 21
-0.3365494154
  0
LINE
  5
36F
100
AcDbEntity
  8
ASSI
100
AcDbLine
 62
7
  6
CONTINUOUS
 10
-32.9229440657
 20
0.1770632481
 11
-26.4213260679
 21
0.1203244874
  0
LINE
  5
370
100
AcDbEntity
  8
ASSI
100
AcDbLine
 62
7
  6
CONTINUOUS
 10
-26.8213260679
 20
17.9538160886
 11
-26.8213260679
 21
17.6923454085
  0
LINE
  5
371
100
AcDbEntity
  8
ASSI
100
AcDbLine
 62
7
  6
CONTINUOUS
 10
-26.8213260679
 20
-17.6516964337
 11
-26.8213260679
 21
-17.9131671138
  0
LINE
  5
372
100
AcDbEntity
  8
ASSI
100
AcDbLine
 62
7
  6
CONTINUOUS
 10
-26.4213260679
 20
-0.0796755126
 11
-26.4213260679
 21
-13.0796755126
  0
LINE
  5
373
100
AcDbEntity
  8
ASSI
100
AcDbLine
 62
7
  6
CONTINUOUS
 10
-26.4213260679
 20
0.1203244874
 11
-26.4213260679
 21
13.1203244874
  0
LINE
  5
374
100
AcDbEntity
  8
ASSI
100
AcDbLine
 62
253
  6
CONTINUOUS
 10
-33.1211987061
 20
0.3771983903
 11
-32.6299100959
 21
0.3744831879
  0
LINE
  5
375
100
AcDbEntity
  8
ASSI
100
AcDbLine
 62
253
  6
CONTINUOUS
 10
-32.629910096
 20
0.3744831341
 11
-26.4213260679
 21
0.3203016421
  0
LINE
  5
376
100
AcDbEntity
  8
ASSI
100
AcDbLine
 62
7
  6
CONTINUOUS
 10
-26.4213260679
 20
13.1203244874
 11
-27.2184773884
 21
22.231805775
  0
LINE
  5
377
100
AcDbEntity
  8
ASSI
100
AcDbLine
 62
7
  6
CONTINUOUS
 10
-26.4213260679
 20
-13.0796755126
 11
-27.2184773884
 21
-22.1911568001
  0
LINE
  5
378
100
AcDbEntity
  8
ASSI
100
AcDbLine
 62
253
  6
CONTINUOUS
 10
-26.8213260679
 20
17.9538160886
 11
-26.8442017882
 21
17.9538160886
  0
LWPOLYLINE
  5
379
100
AcDbEntity
  8
ASSI
100
AcDbPolyline
 62
253
  6
CONTINUOUS
 90
37
 70
0
 10
-31.2606631818
 20
21.519734942
 10
-31.3016891088
 20
21.5167313521
 10
-31.3424250164
 20
21.512071355
 10
-31.3828709047
 20
21.5057549508
 10
-31.4230947391
 20
21.497765984
 10
-31.4630285541
 20
21.4881206101
 10
-31.5024684534
 20
21.4768672956
 10
-31.5414114869
 20
21.4639977551
 10
-31.5798606047
 20
21.4495202739
 10
-31.6176207606
 20
21.4335081747
 10
-31.6546878793
 20
21.4159538783
 10
-31.6910660362
 20
21.3968649639
 10
-31.7265724104
 20
21.376337492
 10
-31.7612026666
 20
21.3543642462
 10
-31.7949611402
 20
21.3309524429
 10
-31.8276780167
 20
21.3062197923
 10
-31.85934825
 20
21.2801594477
 10
-31.8899768862
 20
21.2527782559
 10
-31.9194092493
 20
21.224214467
 10
-31.9476392337
 20
21.1944620773
 10
-31.9746729451
 20
21.1635270905
 10
-32.0003740234
 20
21.1315657675
 10
-32.0247355633
 20
21.0985731596
 10
-32.0477644702
 20
21.0645542153
 10
-32.0693451005
 20
21.0296800415
 10
-32.0894702042
 20
20.9939463916
 10
-32.1081470314
 20
20.9573575121
 10
-32.1252816876
 20
20.920097249
 10
-32.1408665466
 20
20.8821616112
 10
-32.1549092346
 20
20.8435545899
 10
-32.1673387368
 20
20.8044720047
 10
-32.1781467732
 20
20.7649106455
 10
-32.1873416238
 20
20.7248737225
 10
-32.194877113
 20
20.6845666858
 10
-32.2007378492
 20
20.6440580189
 10
-32.204939224
 20
20.6032792382
 10
-32.2074812375
 20
20.5622303439
  0
LINE
  5
37A
100
AcDbEntity
  8
ASSI
100
AcDbLine
 62
253
  6
CONTINUOUS
 10
-27.1749127822
 20
21.7338600472
 11
-31.2606631818
 21
21.519734942
  0
LINE
  5
37B
100
AcDbEntity
  8
ASSI
100
AcDbLine
 62
7
  6
CONTINUOUS
 10
-27.2184773884
 20
22.231805775
 11
-31.278087637
 21
22.0190506171
  0
LWPOLYLINE
  5
37C
100
AcDbEntity
  8
ASSI
100
AcDbPolyline
 62
253
  6
CONTINUOUS
 90
4
 70
0
 10
-32.2074812375
 20
20.5622303439
 10
-32.6950302774
 20
20.5826156702
 10
-32.6975063407
 20
20.5827381713
 10
-32.6983320401
 20
20.5827928122
  0
CIRCLE
  5
37D
100
AcDbEntity
  8
ASSI
100
AcDbCircle
 62
7
  6
CONTINUOUS
 10
-0.0560097768
 20
4.5203244874
 40
1.3
  0
CIRCLE
  5
37E
100
AcDbEntity
  8
ASSI
100
AcDbCircle
 62
7
  6
CONTINUOUS
 10
-0.0560097768
 20
-4.4796755126
 40
1.3
  0
CIRCLE
  5
37F
100
AcDbEntity
  8
DRAFT
100
AcDbCircle
 62
7
  6
CONTINUOUS
 10
-0.0560097768
 20
-4.4796755126
 40
1.225
  0
CIRCLE
  5
380
100
AcDbEntity
  8
DRAFT
100
AcDbCircle
 62
7
  6
CONTINUOUS
 10
-0.0560097768
 20
4.5203244874
 40
1.225
  0
CIRCLE
  5
381
100
AcDbEntity
  8
RACCORDO
100
AcDbCircle
 62
253
  6
CONTINUOUS
 10
-0.0560097768
 20
-4.4796755126
 40
1.2068524201
  0
CIRCLE
  5
382
100
AcDbEntity
  8
RACCORDO
100
AcDbCircle
 62
253
  6
CONTINUOUS
 10
-0.0560097768
 20
4.5203244874
 40
1.2068524201
  0
CIRCLE
  5
383
100
AcDbEntity
  8
RACCORDO
100
AcDbCircle
 62
253
  6
CONTINUOUS
 10
-0.0560097768
 20
-4.4796755126
 40
1.1180464865
  0
CIRCLE
  5
384
100
AcDbEntity
  8
RACCORDO
100
AcDbCircle
 62
253
  6
CONTINUOUS
 10
-0.0560097768
 20
4.5203244874
 40
1.1180464865
  0
ARC
  5
385
100
AcDbEntity
  8
ASSI
100
AcDbCircle
 62
7
  6
CONTINUOUS
 10
-31.1996010224
 20
-20.4804564324
 40
1.5
100
AcDbArc
 50
182.356166499
 51
267.000662446
  0
ARC
  5
386
100
AcDbEntity
  8
ASSI
100
AcDbCircle
 62
7
  6
CONTINUOUS
 10
-27.1213260679
 20
-17.9131671138
 40
0.3
100
AcDbArc
 50
335.0
 51
360.0
  0
ARC
  5
387
100
AcDbEntity
  8
ASSI
100
AcDbCircle
 62
7
  6
CONTINUOUS
 10
-32.921198248
 20
-0.3364066534
 40
0.2
100
AcDbArc
 50
90.5001462853
 51
180.0408961681
  0
ARC
  5
388
100
AcDbEntity
  8
ASSI
100
AcDbCircle
 62
7
  6
CONTINUOUS
 10
-31.1996010224
 20
20.5211054073
 40
1.5
100
AcDbArc
 50
92.999337554
 51
177.643833501
  0
ARC
  5
389
100
AcDbEntity
  8
ASSI
100
AcDbCircle
 62
7
  6
CONTINUOUS
 10
-27.1213260679
 20
17.9538160886
 40
0.3
100
AcDbArc
 50
0.0
 51
25.0
  0
ARC
  5
38A
100
AcDbEntity
  8
ASSI
100
AcDbCircle
 62
7
  6
CONTINUOUS
 10
-32.921198248
 20
0.3770556283
 40
0.2
100
AcDbArc
 50
179.9591038319
 51
269.4998537147
  0
ARC
  5
38B
100
AcDbEntity
  8
ASSI
100
AcDbCircle
 62
7
  6
CONTINUOUS
 10
466.8786739321
 20
0.0203244874
 40
500.0
100
AcDbArc
 50
177.6430523596
 51
179.9591052604
  0
ARC
  5
38C
100
AcDbEntity
  8
CURVE
100
AcDbCircle
 62
253
  6
CONTINUOUS
 10
466.8786739321
 20
0.0203244874
 40
500.0
100
AcDbArc
 50
178.2206183081
 51
178.6026711739
  0
ARC
  5
38D
100
AcDbEntity
  8
ASSI
100
AcDbCircle
 62
7
  6
CONTINUOUS
 10
466.8786739321
 20
0.0203244874
 40
500.0
100
AcDbArc
 50
180.0408947396
 51
182.3569476404
  0
ELLIPSE
  5
38E
100
AcDbEntity
  8
ASSI
100
AcDbEllipse
 62
7
  6
CONTINUOUS
 10
7.2285201693
 20
22.2054525924
 30
0.0
 11
0.2
 21
0.0
 31
0.0
 40
0.0524077793
 41
-1.5707963268
 42
-0.5235987756
  0
ELLIPSE
  5
38F
100
AcDbEntity
  8
ASSI
100
AcDbEllipse
 62
7
  6
CONTINUOUS
 10
3.859460277
 20
22.2054525924
 30
0.0
 11
0.2
 21
0.0
 31
0.0
 40
0.0524077793
 41
-2.617993878
 42
-1.5707963268
  0
ELLIPSE
  5
390
100
AcDbEntity
  8
ASSI
100
AcDbEllipse
 62
7
  6
CONTINUOUS
 10
-3.9714798307
 20
22.2054525924
 30
0.0
 11
0.2
 21
0.0
 31
0.0
 40
0.0524077793
 41
-1.5707963268
 42
-0.5235987756
  0
ELLIPSE
  5
391
100
AcDbEntity
  8
ASSI
100
AcDbEllipse
 62
7
  6
CONTINUOUS
 10
-7.340539723
 20
22.2054525924
 30
0.0
 11
0.2
 21
-0.0
 31
0.0
 40
0.0524077793
 41
-2.617993878
 42
-1.5707963268
  0
ELLIPSE
  5
392
100
AcDbEntity
  8
ASSI
100
AcDbEllipse
 62
7
  6
CONTINUOUS
 10
-11.0059793112
 20
0.3203321031
 30
0.0
 11
0.1789222233
 21
0.0894542984
 31
0.0
 40
0.9998096356
 41
2.6780516535
 42
4.2486956813
  0
ELLIPSE
  5
393
100
AcDbEntity
  8
ASSI
100
AcDbEllipse
 62
7
  6
CONTINUOUS
 10
10.8939597575
 20
0.3203321031
 30
0.0
 11
0.1789222233
 21
-0.0894542984
 31
0.0
 40
0.9998096356
 41
-1.1071030277
 42
0.4635410001
  0
ELLIPSE
  5
394
100
AcDbEntity
  8
ASSI
100
AcDbEllipse
 62
7
  6
CONTINUOUS
 10
-10.692780403
 20
21.7334048135
 30
0.0
 11
0.498078285
 21
0.0448076117
 31
0.0
 40
0.9965957691
 41
1.4807720384
 42
3.0506549766
  0
ELLIPSE
  5
395
100
AcDbEntity
  8
ASSI
100
AcDbEllipse
 62
7
  6
CONTINUOUS
 10
10.5807608493
 20
21.7334048135
 30
0.0
 11
0.498078285
 21
-0.0448076117
 31
0.0
 40
0.9965957691
 41
0.0909376769
 42
1.6608206152
  0
ELLIPSE
  5
396
100
AcDbEntity
  8
ASSI
100
AcDbEllipse
 62
7
  6
CONTINUOUS
 10
-7.340539723
 20
-22.1648036175
 30
0.0
 11
0.2
 21
-0.0
 31
0.0
 40
0.0524077793
 41
1.5707963268
 42
2.617993878
  0
ELLIPSE
  5
397
100
AcDbEntity
  8
ASSI
100
AcDbEllipse
 62
7
  6
CONTINUOUS
 10
-3.9714798307
 20
-22.1648036175
 30
0.0
 11
0.2
 21
0.0
 31
0.0
 40
0.0524077793
 41
0.5235987756
 42
1.5707963268
  0
ELLIPSE
  5
398
100
AcDbEntity
  8
ASSI
100
AcDbEllipse
 62
7
  6
CONTINUOUS
 10
3.859460277
 20
-22.1648036175
 30
0.0
 11
0.2
 21
0.0
 31
0.0
 40
0.0524077793
 41
1.5707963268
 42
2.617993878
  0
ELLIPSE
  5
399
100
AcDbEntity
  8
ASSI
100
AcDbEllipse
 62
7
  6
CONTINUOUS
 10
7.2285201693
 20
-22.1648036175
 30
0.0
 11
0.2
 21
0.0
 31
0.0
 40
0.0524077793
 41
0.5235987756
 42
1.5707963268
  0
ELLIPSE
  5
39A
100
AcDbEntity
  8
ASSI
100
AcDbEllipse
 62
7
  6
CONTINUOUS
 10
10.8939597575
 20
-0.2796831282
 30
0.0
 11
0.1789222233
 21
0.0894542984
 31
0.0
 40
0.9998096356
 41
-0.4635410001
 42
1.1071030277
  0
ELLIPSE
  5
39B
100
AcDbEntity
  8
ASSI
100
AcDbEllipse
 62
7
  6
CONTINUOUS
 10
-11.0059793112
 20
-0.2796831282
 30
0.0
 11
0.1789222233
 21
-0.0894542984
 31
0.0
 40
0.9998096356
 41
2.0344896259
 42
3.6051336537
  0
ELLIPSE
  5
39C
100
AcDbEntity
  8
ASSI
100
AcDbEllipse
 62
7
  6
CONTINUOUS
 10
10.5807608493
 20
-21.6927558387
 30
0.0
 11
0.498078285
 21
0.0448076117
 31
0.0
 40
0.9965957691
 41
-1.6608206152
 42
-0.0909376769
  0
ELLIPSE
  5
39D
100
AcDbEntity
  8
ASSI
100
AcDbEllipse
 62
7
  6
CONTINUOUS
 10
-10.692780403
 20
-21.6927558387
 30
0.0
 11
0.498078285
 21
-0.0448076117
 31
0.0
 40
0.9965957691
 41
-3.0506549766
 42
-1.4807720384
  0
ELLIPSE
  5
39E
100
AcDbEntity
  8
CURVE
100
AcDbEllipse
 62
253
  6
CONTINUOUS
 10
466.8786739321
 20
0.0203244874
 30
0.0
 11
-0.0
 21
500.0
 31
0.0
 40
1.0
 41
7.8227434247
 42
7.8275647297
  0
ELLIPSE
  5
39F
100
AcDbEntity
  8
CURVE
100
AcDbEllipse
 62
253
  6
CONTINUOUS
 10
466.8786739321
 20
0.0203244874
 30
0.0
 11
500.0
 21
0.0
 31
0.0
 40
1.0
 41
3.1163778522
 42
3.1164031897
  0
ENDSEC
  0
SECTION
  2
OBJECTS
  0
DICTIONARY
  5
C
100
AcDbDictionary
280
0
281
1
  3
ACAD_GROUP
350
D
  3
ACAD_MLINESTYLE
350
17
  3
ACAD_LAYOUT
350
1A
  3
ACAD_PLOTSETTINGS
350
19
  3
ACAD_PLOTSTYLENAME
350
E
  0
DICTIONARY
  5
D
102
{ACAD_REACTORS
330
C
102
}
100
AcDbDictionary
280
0
281
1
  0
ACDBDICTIONARYWDFLT
  5
E
102
{ACAD_REACTORS
330
C
102
}
100
AcDbDictionary
281
1
  3
Normal
350
F
100
AcDbDictionaryWithDefault
340
F
  0
DICTIONARY
  5
17
102
{ACAD_REACTORS
330
C
102
}
100
AcDbDictionary
280
0
281
1
  3
Standard
350
18
  0
DICTIONARY
  5
19
102
{ACAD_REACTORS
330
C
102
}
100
AcDbDictionary
281
1
  0
DICTIONARY
  5
1A
102
{ACAD_REACTORS
330
C
102
}
100
AcDbDictionary
281
1
  3
Model
350
3A0
  3
Layout1
350
3A1
  0
ACDBPLACEHOLDER
  5
F
102
{ACAD_REACTORS
330
E
102
}
  0
MLINESTYLE
  5
18
102
{ACAD_REACTORS
330
17
102
}
100
AcDbMlineStyle
  2
STANDARD
 70
0
  3

 62
256
 51
90.0
 52
90.0
 71
2
 49
0.5
 62
256
  6
BYLAYER
 49
-0.5
 62
256
  6
BYLAYER
  0
LAYOUT
  5
3A0
102
{ACAD_REACTORS
330
1A
102
}
100
AcDbPlotSettings
  1

  2
none_device
  4
ISO_A4_(297.00_x_210.00_MM)
  6

 40
0.0
 41
0.0
 42
0.0
 43
0.0
 44
297.0
 45
210.0
 46
0.0
 47
0.0
 48
0.0
 49
0.0
140
0.0
141
0.0
142
1.0
143
1.0
 70
1024
 72
1
 73
0
 74
0
  7

 75
0
147
1.0
148
0.0
149
0.0
100
AcDbLayout
  1
Model
 70
0
 71
0
 10
0.0
 20
0.0
 11
297.0
 21
210.0
 12
0.0
 22
0.0
 32
0.0
 14
0.0
 24
0.0
 34
0.0
 15
0.0
 25
0.0
 35
0.0
146
0.0
 13
0.0
 23
0.0
 33
0.0
 16
1.0
 26
0.0
 36
0.0
 17
0.0
 27
1.0
 37
0.0
 76
0
330
217
345
0
346
0
  0
LAYOUT
  5
3A1
102
{ACAD_REACTORS
330
1A
102
}
100
AcDbPlotSettings
  1

  2
none_device
  4
ISO_A4_(297.00_x_210.00_MM)
  6

 40
0.0
 41
0.0
 42
0.0
 43
0.0
 44
297.0
 45
210.0
 46
0.0
 47
0.0
 48
0.0
 49
0.0
140
0.0
141
0.0
142
1.0
143
1.0
 70
0
 72
1
 73
0
 74
0
  7

 75
0
147
1.0
148
0.0
149
0.0
100
AcDbLayout
  1
Layout1
 70
0
 71
1
 10
0.0
 20
0.0
 11
297.0
 21
210.0
 12
0.0
 22
0.0
 32
0.0
 14
0.0
 24
0.0
 34
0.0
 15
0.0
 25
0.0
 35
0.0
146
0.0
 13
0.0
 23
0.0
 33
0.0
 16
1.0
 26
0.0
 36
0.0
 17
0.0
 27
1.0
 37
0.0
 76
0
330
218
345
0
346
0
  0
ENDSEC
  0
EOF
