  0
SECTION
  2
HEADER
  9
$ACADVER
  1
AC1021
  9
$DWGCODEPAGE
  3
ANSI_1252
  9
$EXTMAX
 10
297.0
 20
210.0
 30
0.0
  9
$EXTMIN
 10
0.0
 20
0.0
 30
0.0
  9
$LIMMIN
 10
0.0
 20
0.0
  9
$LIMMAX
 10
297.0
 20
210.0
  9
$VIEWCTR
 10
148.5
 20
105.0
  9
$VIEWSIZE
 40
210.0
  9
$CLAYER
  8
0
  9
$LTSCALE
 40
16.335
  9
$CELTYPE
  6
BYLAYER
  9
$DIMSCALE
 40
1.0
  9
$DIMASZ
 40
3.0
  9
$DIMEXO
 40
0.5
  9
$DIMDLI
 40
11.286
  9
$DIMEXE
 40
1.5
  9
$DIMCEN
 40
2.673
  9
$DIMLFAC
 40
1.0
  9
$DIMBLK
  1
_FILLED
  9
$DIMALT
 70
0
  9
$DIMALTF
 40
25.4
  9
$DIMTXT
 40
3.0
  9
$DIMTOL
 70
1
  9
$DIMLIM
 70
0
  9
$DIMTFAC
 40
1.0
  9
$DIMTP
 40
0.01
  9
$DIMTM
 40
0.01
  9
$DIMGAP
 40
0.625
  9
$DIMDSEP
 70
44
  9
$AUNITS
 70
0
  9
$PDMODE
 70
3
  9
$PDSIZE
 40
3.0
  9
$HANDSEED
  5
39F
  9
$TILEMODE
 70
1
  9
$MEASUREMENT
 70
1
  9
$INSUNITS
 70
4
  0
ENDSEC
  0
SECTION
  2
CLASSES
  0
CLASS
  1
ACDBDICTIONARYWDFLT
  2
AcDbDictionaryWithDefault
  3
AutoCAD 2000
 90
0
 91
1
280
0
281
0
  0
CLASS
  1
ACDBPLACEHOLDER
  2
AcDbPlaceHolder
  3
AutoCAD 2000
 90
0
 91
1
280
0
281
0
  0
CLASS
  1
LAYOUT
  2
AcDbLayout
  3
AutoCAD 2000
 90
0
 91
0
280
0
281
0
  0
ENDSEC
  0
SECTION
  2
TABLES
  0
TABLE
  2
VPORT
  5
8
100
AcDbSymbolTable
 70
2
  0
VPORT
  5
1F4
100
AcDbSymbolTableRecord
100
AcDbViewportTableRecord
  2
*ACTIVE
 70
0
 10
0.0
 20
0.0
 11
1.0
 21
1.0
 12
148.5
 22
105.0
 13
0.0
 23
0.0
 14
1.0
 24
1.0
 15
0.0
 25
0.0
 16
0.0
 26
0.0
 36
1.0
 17
0.0
 27
0.0
 37
0.0
 40
210.0
 41
1.4142857143
 42
50.0
 43
0.0
 44
0.0
 50
0.0
 51
0.0
 71
0
 72
100
 73
1
 74
1
 75
0
 76
0
 77
0
 78
0
  0
ENDTAB
  0
TABLE
  2
LTYPE
  5
5
100
AcDbSymbolTable
 70
6
  0
LTYPE
  5
14
100
AcDbSymbolTableRecord
100
AcDbLinetypeTableRecord
  2
BYBLOCK
 70
0
  3

 72
65
 73
0
 40
0.0
  0
LTYPE
  5
15
100
AcDbSymbolTableRecord
100
AcDbLinetypeTableRecord
  2
BYLAYER
 70
0
  3

 72
65
 73
0
 40
0.0
  0
LTYPE
  5
16
100
AcDbSymbolTableRecord
100
AcDbLinetypeTableRecord
  2
CONTINUOUS
 70
64
  3
Solid line
 72
65
 73
0
 40
0.0
  0
LTYPE
  5
1F5
100
AcDbSymbolTableRecord
100
AcDbLinetypeTableRecord
  2
CENTER
 70
64
  3
____ _ ____ _ ____ _ ____ _ ____ _ ____ _ ____
 72
65
 73
4
 40
0.6
 49
0.375
 74
0
 49
-0.075
 74
0
 49
0.075
 74
0
 49
-0.075
 74
0
  0
LTYPE
  5
1F6
100
AcDbSymbolTableRecord
100
AcDbLinetypeTableRecord
  2
HIDDEN
 70
64
  3
- - - - - - - - - - - - - - - - - - - -
 72
65
 73
2
 40
0.2
 49
0.1
 74
0
 49
-0.1
 74
0
  0
LTYPE
  5
1F7
100
AcDbSymbolTableRecord
100
AcDbLinetypeTableRecord
  2
PHANTOM
 70
64
  3
_____ _ _ _____ _ _ _____ _ _ _____
 72
65
 73
6
 40
0.8
 49
0.45
 74
0
 49
-0.05
 74
0
 49
0.1
 74
0
 49
-0.05
 74
0
 49
0.1
 74
0
 49
-0.05
 74
0
  0
LTYPE
  5
1F8
100
AcDbSymbolTableRecord
100
AcDbLinetypeTableRecord
  2
DOT
 70
64
  3
. . . . . . . . . . . . . . . . . . . .
 72
65
 73
2
 40
0.2
 49
0.1
 74
0
 49
-0.1
 74
0
  0
LTYPE
  5
1F9
100
AcDbSymbolTableRecord
100
AcDbLinetypeTableRecord
  2
DASHED
 70
64
  3
- - - - - - - - - - - - - - - - - - - -
 72
65
 73
2
 40
0.2
 49
0.1
 74
0
 49
-0.1
 74
0
  0
ENDTAB
  0
TABLE
  2
LAYER
  5
2
100
AcDbSymbolTable
 70
36
  0
LAYER
  5
10
100
AcDbSymbolTableRecord
100
AcDbLayerTableRecord
  2
0
 70
0
 62
7
  6
CONTINUOUS
370
-3
390
F
  0
LAYER
  5
1FA
100
AcDbSymbolTableRecord
100
AcDbLayerTableRecord
  2
DEFAULT_1
 70
0
 62
7
  6
CENTER
370
-3
390
F
  0
LAYER
  5
1FB
100
AcDbSymbolTableRecord
100
AcDbLayerTableRecord
  2
DEFAULT_2
 70
0
 62
7
  6
HIDDEN
370
-3
390
F
  0
LAYER
  5
1FC
100
AcDbSymbolTableRecord
100
AcDbLayerTableRecord
  2
DEFAULT_3
 70
0
 62
7
  6
PHANTOM
370
-3
390
F
  0
LAYER
  5
1FD
100
AcDbSymbolTableRecord
100
AcDbLayerTableRecord
  2
ASSI
 70
0
 62
7
  6
CONTINUOUS
370
-3
390
F
  0
LAYER
  5
1FE
100
AcDbSymbolTableRecord
100
AcDbLayerTableRecord
  2
COORDINATE
 70
0
 62
7
  6
CONTINUOUS
370
-3
390
F
  0
LAYER
  5
1FF
100
AcDbSymbolTableRecord
100
AcDbLayerTableRecord
  2
COORD_ORIGINE
 70
0
 62
7
  6
CONTINUOUS
370
-3
390
F
  0
LAYER
  5
200
100
AcDbSymbolTableRecord
100
AcDbLayerTableRecord
  2
COPY_PUBLISH
 70
0
 62
7
  6
CONTINUOUS
370
-3
390
F
  0
LAYER
  5
201
100
AcDbSymbolTableRecord
100
AcDbLayerTableRecord
  2
COSMETIC
 70
0
 62
7
  6
CONTINUOUS
370
-3
390
F
  0
LAYER
  5
202
100
AcDbSymbolTableRecord
100
AcDbLayerTableRecord
  2
COSMETICI
 70
0
 62
7
  6
CONTINUOUS
370
-3
390
F
  0
LAYER
  5
203
100
AcDbSymbolTableRecord
100
AcDbLayerTableRecord
  2
CURVE
 70
0
 62
7
  6
CONTINUOUS
370
-3
390
F
  0
LAYER
  5
204
100
AcDbSymbolTableRecord
100
AcDbLayerTableRecord
  2
DRAFT
 70
0
 62
7
  6
CONTINUOUS
370
-3
390
F
  0
LAYER
  5
205
100
AcDbSymbolTableRecord
100
AcDbLayerTableRecord
  2
IGES
 70
0
 62
7
  6
CONTINUOUS
370
-3
390
F
  0
LAYER
  5
206
100
AcDbSymbolTableRecord
100
AcDbLayerTableRecord
  2
IMPORT_IGES
 70
0
 62
7
  6
CONTINUOUS
370
-3
390
F
  0
LAYER
  5
207
100
AcDbSymbolTableRecord
100
AcDbLayerTableRecord
  2
NOTE
 70
0
 62
7
  6
CONTINUOUS
370
-3
390
F
  0
LAYER
  5
208
100
AcDbSymbolTableRecord
100
AcDbLayerTableRecord
  2
PIANI
 70
0
 62
7
  6
CONTINUOUS
370
-3
390
F
  0
LAYER
  5
209
100
AcDbSymbolTableRecord
100
AcDbLayerTableRecord
  2
PIANI_ORIGINE
 70
0
 62
7
  6
CONTINUOUS
370
-3
390
F
  0
LAYER
  5
20A
100
AcDbSymbolTableRecord
100
AcDbLayerTableRecord
  2
PIANI_RIFERIMENTO
 70
0
 62
7
  6
CONTINUOUS
370
-3
390
F
  0
LAYER
  5
20B
100
AcDbSymbolTableRecord
100
AcDbLayerTableRecord
  2
PUNTI
 70
0
 62
7
  6
CONTINUOUS
370
-3
390
F
  0
LAYER
  5
20C
100
AcDbSymbolTableRecord
100
AcDbLayerTableRecord
  2
RACCORDO
 70
0
 62
7
  6
CONTINUOUS
370
-3
390
F
  0
LAYER
  5
20D
100
AcDbSymbolTableRecord
100
AcDbLayerTableRecord
  2
SIMBOLI
 70
0
 62
7
  6
CONTINUOUS
370
-3
390
F
  0
LAYER
  5
20E
100
AcDbSymbolTableRecord
100
AcDbLayerTableRecord
  2
SMUSSO
 70
0
 62
7
  6
CONTINUOUS
370
-3
390
F
  0
LAYER
  5
20F
100
AcDbSymbolTableRecord
100
AcDbLayerTableRecord
  2
SNAPLINE
 70
0
 62
7
  6
CONTINUOUS
370
-3
390
F
  0
LAYER
  5
210
100
AcDbSymbolTableRecord
100
AcDbLayerTableRecord
  2
SUPERFICI
 70
0
 62
7
  6
CONTINUOUS
370
-3
390
F
  0
LAYER
  5
211
100
AcDbSymbolTableRecord
100
AcDbLayerTableRecord
  2
TRASH
 70
0
 62
7
  6
CONTINUOUS
370
-3
390
F
  0
ENDTAB
  0
TABLE
  2
STYLE
  5
3
100
AcDbSymbolTable
 70
1
  0
STYLE
  5
11
100
AcDbSymbolTableRecord
100
AcDbTextStyleTableRecord
  2
STANDARD
 70
0
 40
0.0
 41
0.8
 50
0.0
 71
0
 42
0.2
  3
txt
  4

  0
STYLE
  5
212
100
AcDbSymbolTableRecord
100
AcDbTextStyleTableRecord
  2
TEXTSTYLE_1
 70
0
 40
0.0
 41
0.8
 50
0.0
 71
0
 42
0.2
  3
gdt
  4

  0
ENDTAB
  0
TABLE
  2
VIEW
  5
6
100
AcDbSymbolTable
 70
0
  0
ENDTAB
  0
TABLE
  2
UCS
  5
7
100
AcDbSymbolTable
 70
0
  0
ENDTAB
  0
TABLE
  2
APPID
  5
9
100
AcDbSymbolTable
 70
1
  0
APPID
  5
213
100
AcDbSymbolTableRecord
100
AcDbRegAppTableRecord
  2
ACAD
 70
0
  0
ENDTAB
  0
TABLE
  2
BLOCK_RECORD
  5
1
100
AcDbSymbolTable
 70
0
  0
BLOCK_RECORD
  5
214
100
AcDbSymbolTableRecord
100
AcDbBlockTableRecord
  2
*Model_Space
  0
BLOCK_RECORD
  5
215
100
AcDbSymbolTableRecord
100
AcDbBlockTableRecord
  2
*Paper_Space
  0
BLOCK_RECORD
  5
216
100
AcDbSymbolTableRecord
100
AcDbBlockTableRecord
  2
_FILLED
  0
BLOCK_RECORD
  5
217
100
AcDbSymbolTableRecord
100
AcDbBlockTableRecord
  2
*D0
  0
BLOCK_RECORD
  5
218
100
AcDbSymbolTableRecord
100
AcDbBlockTableRecord
  2
*D1
  0
BLOCK_RECORD
  5
219
100
AcDbSymbolTableRecord
100
AcDbBlockTableRecord
  2
*D2
  0
ENDTAB
  0
TABLE
  2
DIMSTYLE
  5
A
100
AcDbSymbolTable
 70
1
100
AcDbDimStyleTable
 71
0
  0
DIMSTYLE
105
21A
100
AcDbSymbolTableRecord
100
AcDbDimStyleTableRecord
  2
STANDARD
 70
0
  3

  4

 40
1.0
 41
3.0
 42
0.5
 43
0.38
 44
1.5
 45
0.0
 46
0.0
 47
0.01
 48
0.01
140
3.0
141
0.09
142
0.0
143
25.4
144
1.0
145
0.0
146
1.0
147
0.625
 71
1.0
 72
0.0
 73
0
 74
0
 75
0
 76
0
 77
1
 78
8
170
0
171
1
172
0
173
0
174
0
175
0
176
0
177
0
178
0
270
2
271
2
272
2
273
2
274
2
275
0
280
0
281
0
282
0
283
1
284
8
285
0
286
0
287
3
288
0
340
11
278
44
341
216
342
216
343
216
344
216
  0
DIMSTYLE
105
21B
100
AcDbSymbolTableRecord
100
AcDbDimStyleTableRecord
  2
DIMSTYLE_1
 70
0
  3

  4

 40
1.0
 41
3.0
 42
0.5
 43
0.38
 44
1.5
 45
0.0
 46
0.0
 47
0.0
 48
0.0
140
3.0
141
0.09
142
0.0
143
25.4
144
1.0
145
0.0
146
1.0
147
0.75
 71
0.0
 72
0.0
 73
0
 74
0
 75
0
 76
0
 77
1
 78
8
170
0
171
1
172
0
173
0
174
0
175
0
176
0
177
0
178
0
270
2
271
2
272
2
273
2
274
2
275
0
280
0
281
0
282
0
283
1
284
8
285
0
286
0
287
3
288
0
340
11
278
44
341
216
342
216
343
216
344
216
  0
DIMSTYLE
105
21C
100
AcDbSymbolTableRecord
100
AcDbDimStyleTableRecord
  2
DIMSTYLE_2
 70
0
  3

  4

 40
1.0
 41
3.0
 42
0.5
 43
0.38
 44
1.5
 45
0.0
 46
0.0
 47
0.0
 48
0.0
140
3.0
141
0.09
142
0.0
143
25.4
144
1.0
145
0.0
146
1.0
147
0.75
 71
0.0
 72
0.0
 73
0
 74
0
 75
0
 76
0
 77
1
 78
8
170
0
171
1
172
0
173
0
174
0
175
0
176
0
177
0
178
0
270
2
271
1
272
1
273
2
274
2
275
0
280
0
281
0
282
0
283
1
284
8
285
0
286
0
287
3
288
0
340
11
278
44
341
216
342
216
343
216
344
216
  0
ENDTAB
  0
ENDSEC
  0
SECTION
  2
BLOCKS
  0
BLOCK
  5
20
100
AcDbEntity
  8
0
100
AcDbBlockBegin
  2
*Model_Space
 70
0
 10
0.0
 20
0.0
 30
0.0
  3
*Model_Space
  1

  0
ENDBLK
  5
21
100
AcDbEntity
  8
0
100
AcDbBlockEnd
  0
BLOCK
  5
1C
100
AcDbEntity
  8
0
100
AcDbBlockBegin
  2
*Paper_Space
 70
0
 10
0.0
 20
0.0
 30
0.0
  3
*Paper_Space
  1

  0
ENDBLK
  5
1D
100
AcDbEntity
  8
0
100
AcDbBlockEnd
  0
BLOCK
  5
21D
100
AcDbEntity
  8
0
100
AcDbBlockBegin
  2
_FILLED
 70
64
 10
0.0
 20
0.0
  3
_FILLED
  1

  0
SOLID
  5
21E
100
AcDbEntity
  8
0
  6
BYBLOCK
 62
0
100
AcDbTrace
 10
0.0
 20
0.0
 11
-1.0
 21
0.3166666667
 12
-1.0
 22
-0.3166666667
 13
-1.0
 23
-0.3166666667
  0
ENDBLK
  5
21F
100
AcDbEntity
  8
0
  6
BYBLOCK
 62
0
100
AcDbBlockEnd
  0
BLOCK
  5
220
100
AcDbEntity
  8
0
100
AcDbBlockBegin
 62
7
  6
CONTINUOUS
  2
*D0
 70
65
 10
0.0
 20
0.0
  3
*D0
  1

  0
MTEXT
  5
221
100
AcDbEntity
  8
0
100
AcDbMText
 62
7
  6
CONTINUOUS
  7
STANDARD
 71
2
 72
1
 10
-0.0818076798
 20
33.9714507463
 30
0.0
 11
1.0
 21
0.0
 31
0.0
 44
0.9
  1
44,7
 40
3.0
 41
13.1785714286
  0
LINE
  5
222
100
AcDbEntity
  8
0
100
AcDbLine
 62
7
  6
CONTINUOUS
 10
-22.4318076798
 20
13.6099694588
 11
-22.4318076798
 21
31.7214507463
  0
LINE
  5
223
100
AcDbEntity
  8
0
100
AcDbLine
 62
7
  6
CONTINUOUS
 10
22.2681923202
 20
13.6099694588
 11
22.2681923202
 21
31.7214507463
  0
LINE
  5
224
100
AcDbEntity
  8
0
100
AcDbLine
 62
7
  6
CONTINUOUS
 10
-22.4318076798
 20
30.2214507463
 11
-0.0818076798
 21
30.2214507463
  0
LINE
  5
225
100
AcDbEntity
  8
0
100
AcDbLine
 62
7
  6
CONTINUOUS
 10
22.2681923202
 20
30.2214507463
 11
-0.0818076798
 21
30.2214507463
  0
INSERT
  5
226
100
AcDbEntity
  8
0
100
AcDbBlockReference
 62
7
  6
CONTINUOUS
  2
_FILLED
 10
-22.4318076798
 20
30.2214507463
 41
3.0
 42
3.0
 43
3.0
 50
180.0
  0
INSERT
  5
227
100
AcDbEntity
  8
0
100
AcDbBlockReference
 62
7
  6
CONTINUOUS
  2
_FILLED
 10
22.2681923202
 20
30.2214507463
 41
3.0
 42
3.0
 43
3.0
  0
ENDBLK
  5
228
100
AcDbEntity
  8
0
  6
BYBLOCK
 62
0
100
AcDbBlockEnd
  0
BLOCK
  5
229
100
AcDbEntity
  8
0
100
AcDbBlockBegin
 62
7
  6
CONTINUOUS
  2
*D1
 70
65
 10
0.0
 20
0.0
  3
*D1
  1

  0
MTEXT
  5
22A
100
AcDbEntity
  8
0
100
AcDbMText
 62
7
  6
CONTINUOUS
  7
STANDARD
 71
2
 72
1
 10
26.5181923202
 20
0.0099694588
 30
0.0
 11
0.0
 21
1.0
 31
0.0
 44
0.9
  1
44,4
 40
3.0
 41
13.1785714286
  0
LINE
  5
22B
100
AcDbEntity
  8
0
100
AcDbLine
 62
7
  6
CONTINUOUS
 10
22.2546585919
 20
22.2214507463
 11
31.7681923202
 21
22.2214507463
  0
LINE
  5
22C
100
AcDbEntity
  8
0
100
AcDbLine
 62
7
  6
CONTINUOUS
 10
22.2546585919
 20
-22.2015118288
 11
31.7681923202
 21
-22.2015118288
  0
LINE
  5
22D
100
AcDbEntity
  8
0
100
AcDbLine
 62
7
  6
CONTINUOUS
 10
30.2681923202
 20
22.2214507463
 11
30.2681923202
 21
0.0099694588
  0
LINE
  5
22E
100
AcDbEntity
  8
0
100
AcDbLine
 62
7
  6
CONTINUOUS
 10
30.2681923202
 20
-22.2015118288
 11
30.2681923202
 21
0.0099694588
  0
INSERT
  5
22F
100
AcDbEntity
  8
0
100
AcDbBlockReference
 62
7
  6
CONTINUOUS
  2
_FILLED
 10
30.2681923202
 20
22.2214507463
 41
3.0
 42
3.0
 43
3.0
 50
90.0
  0
INSERT
  5
230
100
AcDbEntity
  8
0
100
AcDbBlockReference
 62
7
  6
CONTINUOUS
  2
_FILLED
 10
30.2681923202
 20
-22.2015118288
 41
3.0
 42
3.0
 43
3.0
 50
270.0
  0
ENDBLK
  5
231
100
AcDbEntity
  8
0
  6
BYBLOCK
 62
0
100
AcDbBlockEnd
  0
BLOCK
  5
232
100
AcDbEntity
  8
0
100
AcDbBlockBegin
 62
7
  6
CONTINUOUS
  2
*D2
 70
65
 10
0.0
 20
0.0
  3
*D2
  1

  0
MTEXT
  5
233
100
AcDbEntity
  8
0
100
AcDbMText
 62
7
  6
CONTINUOUS
  7
STANDARD
 71
1
 72
1
 10
-33.7000866514
 20
33.9714507463
 30
0.0
 11
1.0
 21
0.0
 31
0.0
 44
0.9
  1
6,7
 40
3.0
 41
9.6428571429
  0
LINE
  5
234
100
AcDbEntity
  8
0
100
AcDbLine
 62
7
  6
CONTINUOUS
 10
-38.569444591
 20
13.6099694588
 11
-38.569444591
 21
31.7214507463
  0
LINE
  5
235
100
AcDbEntity
  8
0
100
AcDbLine
 62
7
  6
CONTINUOUS
 10
-45.2693172294
 20
0.8668433597
 11
-45.2693172294
 21
31.7214507463
  0
LINE
  5
236
100
AcDbEntity
  8
0
100
AcDbLine
 62
7
  6
CONTINUOUS
 10
-38.569444591
 20
30.2214507463
 11
-27.2715152228
 21
30.2214507463
  0
LINE
  5
237
100
AcDbEntity
  8
0
100
AcDbLine
 62
7
  6
CONTINUOUS
 10
-27.2715152228
 20
30.2214507463
 11
-41.9193809102
 21
30.2214507463
  0
LINE
  5
238
100
AcDbEntity
  8
0
100
AcDbLine
 62
7
  6
CONTINUOUS
 10
-45.2693172294
 20
30.2214507463
 11
-49.2693172294
 21
30.2214507463
  0
LINE
  5
239
100
AcDbEntity
  8
0
100
AcDbLine
 62
7
  6
CONTINUOUS
 10
-49.2693172294
 20
30.2214507463
 11
-41.9193809102
 21
30.2214507463
  0
INSERT
  5
23A
100
AcDbEntity
  8
0
100
AcDbBlockReference
 62
7
  6
CONTINUOUS
  2
_FILLED
 10
-38.569444591
 20
30.2214507463
 41
3.0
 42
3.0
 43
3.0
 50
180.0
  0
INSERT
  5
23B
100
AcDbEntity
  8
0
100
AcDbBlockReference
 62
7
  6
CONTINUOUS
  2
_FILLED
 10
-45.2693172294
 20
30.2214507463
 41
3.0
 42
3.0
 43
3.0
  0
ENDBLK
  5
23C
100
AcDbEntity
  8
0
  6
BYBLOCK
 62
0
100
AcDbBlockEnd
  0
ENDSEC
  0
SECTION
  2
ENTITIES
  0
DIMENSION
  5
23D
100
AcDbEntity
  8
0
100
AcDbDimension
 62
7
  6
CONTINUOUS
  2
*D0
 10
22.2681923202
 20
30.2214507463
 11
-0.5103791041
 21
30.2214507463
 70
160
 71
2
 42
44.7
  3
DIMSTYLE_1
100
AcDbAlignedDimension
 13
-22.4318076798
 23
13.1099694588
 14
22.2681923202
 24
13.1099694588
100
AcDbRotatedDimension
  0
DIMENSION
  5
23E
100
AcDbEntity
  8
0
100
AcDbDimension
 62
7
  6
CONTINUOUS
  2
*D1
 10
30.2681923202
 20
-22.2015118288
 11
30.2681923202
 21
-0.4186012827
 70
160
 71
2
 42
44.4229625751
  3
DIMSTYLE_2
100
AcDbAlignedDimension
 13
21.7546585919
 23
22.2214507463
 14
21.7546585919
 24
-22.2015118288
 50
270.0
100
AcDbRotatedDimension
  0
DIMENSION
  5
23F
100
AcDbEntity
  8
0
100
AcDbDimension
 62
7
  6
CONTINUOUS
  2
*D2
 10
-45.2693172294
 20
30.2214507463
 11
-30.9143731613
 21
30.2214507463
 70
160
 71
1
 42
6.6998726384
  3
DIMSTYLE_1
100
AcDbAlignedDimension
 13
-38.569444591
 23
13.1099694588
 14
-45.2693172294
 24
0.3668433597
 50
180.0
100
AcDbRotatedDimension
  0
LWPOLYLINE
  5
240
100
AcDbEntity
  8
RACCORDO
100
AcDbPolyline
 62
253
  6
CONTINUOUS
 90
15
 70
0
 10
-22.3308099656
 20
20.5518753152
 10
-22.3296887042
 20
20.5529396967
 10
-22.3272304412
 20
20.5540012251
 10
-22.3234417659
 20
20.5550570552
 10
-22.3183328334
 20
20.5561043569
 10
-22.3119173379
 20
20.5571403229
 10
-22.3042124756
 20
20.5581621764
 10
-22.2952388989
 20
20.5591671785
 10
-22.2850206606
 20
20.5601526352
 10
-22.2735851499
 20
20.5611159053
 10
-22.2609630189
 20
20.5620544066
 10
-22.2471881003
 20
20.5629656236
 10
-22.2322973165
 20
20.5638471139
 10
-22.2163305812
 20
20.5646965147
 10
-22.199330692
 20
20.5655115492
  0
LWPOLYLINE
  5
241
100
AcDbEntity
  8
RACCORDO
100
AcDbPolyline
 62
253
  6
CONTINUOUS
 90
17
 70
0
 10
-22.3308099656
 20
-20.5319363977
 10
-22.3296887152
 20
-20.5330007796
 10
-22.3272304625
 20
-20.5340623084
 10
-22.3234417966
 20
-20.5351181389
 10
-22.3183328727
 20
-20.536165441
 10
-22.311917385
 20
-20.5372014075
 10
-22.3042125296
 20
-20.5382232615
 10
-22.2952389588
 20
-20.539228264
 10
-22.2850207256
 20
-20.5402137213
 10
-22.2735852192
 20
-20.5411769918
 10
-22.2609630916
 20
-20.5421154936
 10
-22.2471881755
 20
-20.5430267111
 10
-22.2322973934
 20
-20.5439082019
 10
-22.216330659
 20
-20.5447576032
 10
-22.1993307698
 20
-20.5455726382
 10
-22.1813432929
 20
-20.5463511223
 10
-22.1426009497
 20
-20.5477901947
  0
LWPOLYLINE
  5
242
100
AcDbEntity
  8
RACCORDO
100
AcDbPolyline
 62
253
  6
CONTINUOUS
 90
31
 70
0
 10
-22.3473367362
 20
-21.4894409958
 10
-22.3466285206
 20
-21.5155579354
 10
-22.3445535807
 20
-21.5416033738
 10
-22.341117597
 20
-21.5675060055
 10
-22.3363299765
 20
-21.5931949156
 10
-22.3302038261
 20
-21.6185997744
 10
-22.3227559178
 20
-21.6436510301
 10
-22.3140066419
 20
-21.6682800986
 10
-22.3039799516
 20
-21.6924195518
 10
-22.2927032974
 20
-21.7160033022
 10
-22.2802075518
 20
-21.7389667833
 10
-22.2665269249
 20
-21.761247127
 10
-22.2516988707
 20
-21.7827833354
 10
-22.2357639846
 20
-21.8035164478
 10
-22.2187658921
 20
-21.8233897022
 10
-22.2007511297
 20
-21.8423486907
 10
-22.1817690171
 20
-21.8603415083
 10
-22.1618715225
 20
-21.8773188952
 10
-22.1411131201
 20
-21.8932343717
 10
-22.1195506411
 20
-21.908044365
 10
-22.0972431181
 20
-21.9217083294
 10
-22.0742516233
 20
-21.9341888561
 10
-22.0506391017
 20
-21.9454517767
 10
-22.0264701982
 20
-21.9554662561
 10
-22.0018110813
 20
-21.9642048771
 10
-21.9767292613
 20
-21.9716437156
 10
-21.9512934058
 20
-21.977762406
 10
-21.9255731517
 20
-21.9825441968
 10
-21.8996389148
 20
-21.9859759966
 10
-21.8735616961
 20
-21.98804841
 10
-21.8474128886
 20
-21.9887557632
  0
LWPOLYLINE
  5
243
100
AcDbEntity
  8
RACCORDO
100
AcDbPolyline
 62
253
  6
CONTINUOUS
 90
31
 70
0
 10
-22.3473367362
 20
21.5093799133
 10
-22.3466285203
 20
21.5354968586
 10
-22.3445535795
 20
21.5615423023
 10
-22.3411175945
 20
21.5874449388
 10
-22.3363299722
 20
21.6131338531
 10
-22.3302038197
 20
21.6385387157
 10
-22.3227559091
 20
21.6635899744
 10
-22.3140066306
 20
21.6882190454
 10
-22.3039799377
 20
21.7123585005
 10
-22.2927032808
 20
21.7359422521
 10
-22.2802075326
 20
21.758905734
 10
-22.2665269033
 20
21.7811860778
 10
-22.2516988468
 20
21.8027222858
 10
-22.2357639586
 20
21.8234553973
 10
-22.2187658644
 20
21.8433286504
 10
-22.2007511007
 20
21.8622876372
 10
-22.1817689871
 20
21.8802804527
 10
-22.161871492
 20
21.8972578374
 10
-22.1411130896
 20
21.9131733113
 10
-22.119550611
 20
21.9279833021
 10
-22.0972430889
 20
21.9416472637
 10
-22.0742515955
 20
21.9541277878
 10
-22.0506390756
 20
21.9653907058
 10
-22.0264701744
 20
21.9754051827
 10
-22.0018110601
 20
21.9841438015
 10
-21.976729243
 20
21.9915826381
 10
-21.9512933908
 20
21.9977013267
 10
-21.9255731403
 20
22.0024831161
 10
-21.899638907
 20
22.0059149149
 10
-21.8735616922
 20
22.0079873277
 10
-21.8474128886
 20
22.0086946807
  0
LINE
  5
244
100
AcDbEntity
  8
RACCORDO
100
AcDbLine
 62
7
  6
CONTINUOUS
 10
14.562402446
 20
-22.2015118288
 11
14.9104572933
 21
-22.1699178683
  0
LINE
  5
245
100
AcDbEntity
  8
RACCORDO
100
AcDbLine
 62
7
  6
CONTINUOUS
 10
-14.7260178055
 20
-22.2015118288
 11
-15.0740726528
 21
-22.1699178683
  0
LWPOLYLINE
  5
246
100
AcDbEntity
  8
RACCORDO
100
AcDbPolyline
 62
253
  6
CONTINUOUS
 90
10
 70
0
 10
-22.3419558253
 20
21.4434677909
 10
-22.3425320773
 20
21.4555662371
 10
-22.3431161142
 20
21.4665116884
 10
-22.3437057622
 20
21.4762634634
 10
-22.3443010518
 20
21.4848170991
 10
-22.3449019523
 20
21.4921770585
 10
-22.3455061977
 20
21.498316049
 10
-22.3461130324
 20
21.5032249728
 10
-22.3467232119
 20
21.5069129276
 10
-22.3473367362
 20
21.5093799133
  0
LWPOLYLINE
  5
247
100
AcDbEntity
  8
RACCORDO
100
AcDbPolyline
 62
253
  6
CONTINUOUS
 90
8
 70
0
 10
-21.8431921278
 20
21.9443850502
 10
-21.8437817654
 20
21.9590159702
 10
-21.844377017
 20
21.9718548502
 10
-21.8449778733
 20
21.9828859818
 10
-21.8455821234
 20
21.9920958154
 10
-21.8461890301
 20
21.9994730016
 10
-21.8467993306
 20
22.005008433
 10
-21.8474130248
 20
22.0086952966
  0
LINE
  5
248
100
AcDbEntity
  8
RACCORDO
100
AcDbLine
 62
253
  6
CONTINUOUS
 10
-22.3408267432
 20
21.4158034798
 11
-22.3419558253
 21
21.4434677909
  0
LWPOLYLINE
  5
249
100
AcDbEntity
  8
RACCORDO
100
AcDbPolyline
 62
253
  6
CONTINUOUS
 90
25
 70
0
 10
-22.3234361523
 20
0.3641282505
 10
-22.3230060925
 20
0.351049373
 10
-22.3217217376
 20
0.3380264913
 10
-22.3195885865
 20
0.3251153607
 10
-22.3166157722
 20
0.312371258
 10
-22.3128160223
 20
0.2998487449
 10
-22.3082056053
 20
0.2876014348
 10
-22.3028042599
 20
0.2756817624
 10
-22.2966351115
 20
0.2641407597
 10
-22.2897245724
 20
0.2530278377
 10
-22.2821022294
 20
0.2423905743
 10
-22.2738007163
 20
0.2322745109
 10
-22.2648555752
 20
0.2227229577
 10
-22.2553051033
 20
0.2137768079
 10
-22.2451901895
 20
0.2054743624
 10
-22.2345541395
 20
0.1978511666
 10
-22.2234424899
 20
0.1909398575
 10
-22.2119028133
 20
0.1847700243
 10
-22.1999845152
 20
0.1793680817
 10
-22.1877386218
 20
0.1747571568
 10
-22.1752175618
 20
0.1709569899
 10
-22.1624749418
 20
0.1679838504
 10
-22.1495653172
 20
0.1658504668
 10
-22.1365439582
 20
0.1645659723
 10
-22.1234666133
 20
0.1641358659
  0
LINE
  5
24A
100
AcDbEntity
  8
RACCORDO
100
AcDbLine
 62
253
  6
CONTINUOUS
 10
-22.3397350566
 20
21.3836831113
 11
-22.3408267432
 21
21.4158034798
  0
LINE
  5
24B
100
AcDbEntity
  8
RACCORDO
100
AcDbLine
 62
253
  6
CONTINUOUS
 10
-21.8420318503
 20
21.9098220696
 11
-21.8431921278
 21
21.9443850502
  0
LINE
  5
24C
100
AcDbEntity
  8
RACCORDO
100
AcDbLine
 62
253
  6
CONTINUOUS
 10
-21.8409028016
 20
21.8683382844
 11
-21.8420318503
 21
21.9098220696
  0
LINE
  5
24D
100
AcDbEntity
  8
RACCORDO
100
AcDbLine
 62
253
  6
CONTINUOUS
 10
-22.3381774574
 20
21.3274417539
 11
-22.3397350566
 21
21.3836831113
  0
LINE
  5
24E
100
AcDbEntity
  8
RACCORDO
100
AcDbLine
 62
253
  6
CONTINUOUS
 10
-22.3367319283
 20
21.2621139503
 11
-22.3381774574
 21
21.3274417539
  0
LINE
  5
24F
100
AcDbEntity
  8
RACCORDO
100
AcDbLine
 62
253
  6
CONTINUOUS
 10
-21.8392801224
 20
21.7935933492
 11
-21.8409028016
 21
21.8683382844
  0
LINE
  5
250
100
AcDbEntity
  8
RACCORDO
100
AcDbLine
 62
253
  6
CONTINUOUS
 10
-22.3350061808
 20
21.1621252978
 11
-22.3367319283
 21
21.2621139503
  0
LINE
  5
251
100
AcDbEntity
  8
RACCORDO
100
AcDbLine
 62
253
  6
CONTINUOUS
 10
-21.8372762356
 20
21.6718990942
 11
-21.8392801224
 21
21.7935933492
  0
LINE
  5
252
100
AcDbEntity
  8
RACCORDO
100
AcDbLine
 62
253
  6
CONTINUOUS
 10
-22.333221369
 20
21.0193426804
 11
-22.3350061808
 21
21.1621252978
  0
LINE
  5
253
100
AcDbEntity
  8
RACCORDO
100
AcDbLine
 62
253
  6
CONTINUOUS
 10
-21.8346908661
 20
21.4472095611
 11
-21.8372762356
 21
21.6718990942
  0
LINE
  5
254
100
AcDbEntity
  8
RACCORDO
100
AcDbLine
 62
253
  6
CONTINUOUS
 10
-22.3316951435
 20
20.8276930052
 11
-22.333221369
 21
21.0193426804
  0
LINE
  5
255
100
AcDbEntity
  8
RACCORDO
100
AcDbLine
 62
253
  6
CONTINUOUS
 10
-21.8322009932
 20
21.0849871022
 11
-21.8346908661
 21
21.4472095611
  0
LINE
  5
256
100
AcDbEntity
  8
RACCORDO
100
AcDbLine
 62
7
  6
CONTINUOUS
 10
-22.4318076798
 20
-13.0900305412
 11
-22.4186537747
 21
-21.703566101
  0
LINE
  5
257
100
AcDbEntity
  8
RACCORDO
100
AcDbLine
 62
253
  6
CONTINUOUS
 10
-22.3308461283
 20
20.5870437211
 11
-22.3316951435
 21
20.8276930052
  0
LINE
  5
258
100
AcDbEntity
  8
RACCORDO
100
AcDbLine
 62
253
  6
CONTINUOUS
 10
-21.8308861031
 20
20.5724240944
 11
-21.8322009932
 21
21.0849871022
  0
LINE
  5
259
100
AcDbEntity
  8
RACCORDO
100
AcDbLine
 62
253
  6
CONTINUOUS
 10
-22.328591679
 20
17.1885053751
 11
-22.3308461283
 21
20.5870437211
  0
LINE
  5
25A
100
AcDbEntity
  8
RACCORDO
100
AcDbLine
 62
253
  6
CONTINUOUS
 10
-21.8286680664
 20
17.2061182208
 11
-21.8308861094
 21
20.5724240944
  0
LINE
  5
25B
100
AcDbEntity
  8
RACCORDO
100
AcDbLine
 62
253
  6
CONTINUOUS
 10
-22.326006228
 20
12.1424104617
 11
-22.328591679
 21
17.1885053751
  0
LINE
  5
25C
100
AcDbEntity
  8
RACCORDO
100
AcDbLine
 62
253
  6
CONTINUOUS
 10
-21.826082799
 20
12.1555491992
 11
-21.8286680664
 21
17.2061182208
  0
LINE
  5
25D
100
AcDbEntity
  8
RACCORDO
100
AcDbLine
 62
253
  6
CONTINUOUS
 10
-22.3243111283
 20
7.0951907102
 11
-22.326006228
 21
12.1424104617
  0
LINE
  5
25E
100
AcDbEntity
  8
RACCORDO
100
AcDbLine
 62
253
  6
CONTINUOUS
 10
-21.8243885963
 20
7.1038703356
 11
-21.826082799
 21
12.1555491992
  0
LINE
  5
25F
100
AcDbEntity
  8
RACCORDO
100
AcDbLine
 62
7
  6
CONTINUOUS
 10
-22.4318076798
 20
-0.290007696
 11
-22.4318076798
 21
-13.0900305412
  0
LINE
  5
260
100
AcDbEntity
  8
RACCORDO
100
AcDbLine
 62
7
  6
CONTINUOUS
 10
-22.4318076798
 20
0.3099466135
 11
-22.4318076798
 21
13.1099694588
  0
LINE
  5
261
100
AcDbEntity
  8
RACCORDO
100
AcDbLine
 62
253
  6
CONTINUOUS
 10
-22.3234361523
 20
0.3641282505
 11
-22.3243111283
 21
7.0951907102
  0
LINE
  5
262
100
AcDbEntity
  8
RACCORDO
100
AcDbLine
 62
253
  6
CONTINUOUS
 10
-21.8235123341
 20
0.1667082194
 11
-21.8243885963
 21
7.1038703356
  0
LINE
  5
263
100
AcDbEntity
  8
RACCORDO
100
AcDbLine
 62
253
  6
CONTINUOUS
 10
-22.3243111283
 20
-7.0752517927
 11
-22.3234361523
 21
-0.344189333
  0
LINE
  5
264
100
AcDbEntity
  8
RACCORDO
100
AcDbLine
 62
253
  6
CONTINUOUS
 10
-21.8240204531
 20
-5.399814733
 11
-21.8235123341
 21
-0.1467693019
  0
LINE
  5
265
100
AcDbEntity
  8
RACCORDO
100
AcDbLine
 62
253
  6
CONTINUOUS
 10
-21.826082799
 20
-12.1356102817
 11
-21.8240204531
 21
-5.399814733
  0
LINE
  5
266
100
AcDbEntity
  8
RACCORDO
100
AcDbLine
 62
253
  6
CONTINUOUS
 10
-22.3267691145
 20
-13.8046422733
 11
-22.3243111283
 21
-7.0752517927
  0
LWPOLYLINE
  5
267
100
AcDbEntity
  8
RACCORDO
100
AcDbPolyline
 62
253
  6
CONTINUOUS
 90
3
 70
0
 10
-22.3296513571
 20
-18.8503199129
 10
-22.328591679
 20
-17.1685664576
 10
-22.3267691145
 20
-13.8046422733
  0
LWPOLYLINE
  5
268
100
AcDbEntity
  8
RACCORDO
100
AcDbPolyline
 62
253
  6
CONTINUOUS
 90
3
 70
0
 10
-21.8297276348
 20
-18.8694206314
 10
-21.8286680664
 20
-17.1861793033
 10
-21.826082799
 20
-12.1356102817
  0
LINE
  5
269
100
AcDbEntity
  8
RACCORDO
100
AcDbLine
 62
7
  6
CONTINUOUS
 10
-22.4318076798
 20
13.1099694588
 11
-22.4186537747
 21
21.7235050185
  0
LINE
  5
26A
100
AcDbEntity
  8
RACCORDO
100
AcDbLine
 62
253
  6
CONTINUOUS
 10
-21.8322009932
 20
-21.065048185
 11
-21.8297276348
 21
-18.8694206314
  0
LINE
  5
26B
100
AcDbEntity
  8
RACCORDO
100
AcDbLine
 62
253
  6
CONTINUOUS
 10
-22.3315106869
 20
-20.7741760494
 11
-22.3296513571
 21
-18.8503199129
  0
LINE
  5
26C
100
AcDbEntity
  8
RACCORDO
100
AcDbLine
 62
253
  6
CONTINUOUS
 10
-22.3329182258
 20
-20.9687845103
 11
-22.3315106869
 21
-20.7741760494
  0
LINE
  5
26D
100
AcDbEntity
  8
RACCORDO
100
AcDbLine
 62
253
  6
CONTINUOUS
 10
-21.8346908661
 20
-21.4272706439
 11
-21.8322009932
 21
-21.065048185
  0
LINE
  5
26E
100
AcDbEntity
  8
RACCORDO
100
AcDbLine
 62
253
  6
CONTINUOUS
 10
-22.3346146466
 20
-21.1151123281
 11
-22.3329182258
 21
-20.9687845103
  0
LINE
  5
26F
100
AcDbEntity
  8
RACCORDO
100
AcDbLine
 62
253
  6
CONTINUOUS
 10
-21.8372762356
 20
-21.6519601769
 11
-21.8346908661
 21
-21.4272706439
  0
LINE
  5
270
100
AcDbEntity
  8
RACCORDO
100
AcDbLine
 62
253
  6
CONTINUOUS
 10
-22.3362774453
 20
-21.2184830825
 11
-22.3346146466
 21
-21.1151123281
  0
LINE
  5
271
100
AcDbEntity
  8
RACCORDO
100
AcDbLine
 62
253
  6
CONTINUOUS
 10
-21.8392801224
 20
-21.7736544319
 11
-21.8372762356
 21
-21.6519601769
  0
LINE
  5
272
100
AcDbEntity
  8
RACCORDO
100
AcDbLine
 62
253
  6
CONTINUOUS
 10
-22.3376819343
 20
-21.28668491
 11
-22.3362774453
 21
-21.2184830825
  0
LINE
  5
273
100
AcDbEntity
  8
RACCORDO
100
AcDbLine
 62
253
  6
CONTINUOUS
 10
-21.8409028016
 20
-21.8483993671
 11
-21.8392801224
 21
-21.7736544319
  0
LINE
  5
274
100
AcDbEntity
  8
RACCORDO
100
AcDbLine
 62
253
  6
CONTINUOUS
 10
-22.3392040186
 20
-21.3460324785
 11
-22.3376819343
 21
-21.28668491
  0
LINE
  5
275
100
AcDbEntity
  8
RACCORDO
100
AcDbLine
 62
253
  6
CONTINUOUS
 10
-21.8420318503
 20
-21.8898831523
 11
-21.8409028016
 21
-21.8483993671
  0
LINE
  5
276
100
AcDbEntity
  8
RACCORDO
100
AcDbLine
 62
253
  6
CONTINUOUS
 10
-22.3402759529
 20
-21.3803562471
 11
-22.3392040186
 21
-21.3460324785
  0
LWPOLYLINE
  5
277
100
AcDbEntity
  8
RACCORDO
100
AcDbPolyline
 62
253
  6
CONTINUOUS
 90
25
 70
0
 10
-22.3234361523
 20
-0.344189333
 10
-22.3230060935
 20
-0.3311104714
 10
-22.3217217417
 20
-0.3180876047
 10
-22.3195885954
 20
-0.305176488
 10
-22.3166157876
 20
-0.2924323978
 10
-22.3128160456
 20
-0.2799098959
 10
-22.3082056375
 20
-0.267662595
 10
-22.3028043018
 20
-0.2557429298
 10
-22.2966351635
 20
-0.2442019323
 10
-22.2897246346
 20
-0.2330890132
 10
-22.2821023013
 20
-0.2224517505
 10
-22.2738007973
 20
-0.2123356858
 10
-22.2648556641
 20
-0.2027841291
 10
-22.2553051986
 20
-0.193837974
 10
-22.2451902894
 20
-0.1855355216
 10
-22.2345542419
 20
-0.1779123175
 10
-22.2234425922
 20
-0.1710009991
 10
-22.2119029131
 20
-0.164831156
 10
-22.1999846095
 20
-0.1594292032
 10
-22.1877387076
 20
-0.1548182684
 10
-22.1752176361
 20
-0.1510180923
 10
-22.1624750018
 20
-0.1480449448
 10
-22.1495653599
 20
-0.1459115549
 10
-22.1365439808
 20
-0.1446270563
 10
-22.1234666133
 20
-0.1441969484
  0
LINE
  5
278
100
AcDbEntity
  8
RACCORDO
100
AcDbLine
 62
7
  6
CONTINUOUS
 10
3.362402446
 20
-22.2015118288
 11
3.7104572933
 21
-22.1699178683
  0
LINE
  5
279
100
AcDbEntity
  8
RACCORDO
100
AcDbLine
 62
7
  6
CONTINUOUS
 10
-7.937597554
 20
-22.2015118288
 11
-7.5895427067
 21
-22.1699178683
  0
LINE
  5
27A
100
AcDbEntity
  8
RACCORDO
100
AcDbLine
 62
253
  6
CONTINUOUS
 10
22.0357153325
 20
-20.5455726317
 11
21.998801007
 21
-20.5470909614
  0
LINE
  5
27B
100
AcDbEntity
  8
RACCORDO
100
AcDbLine
 62
253
  6
CONTINUOUS
 10
21.998801007
 20
-20.5470909614
 11
21.9583344993
 21
-20.5484469174
  0
LINE
  5
27C
100
AcDbEntity
  8
RACCORDO
100
AcDbLine
 62
253
  6
CONTINUOUS
 10
21.9583344993
 20
-20.5484469174
 11
21.9147493878
 21
-20.5496259712
  0
LINE
  5
27D
100
AcDbEntity
  8
RACCORDO
100
AcDbLine
 62
253
  6
CONTINUOUS
 10
21.9147493878
 20
-20.5496259712
 11
21.8685126655
 21
-20.5506154899
  0
LINE
  5
27E
100
AcDbEntity
  8
RACCORDO
100
AcDbLine
 62
253
  6
CONTINUOUS
 10
21.8685126655
 20
-20.5506154899
 11
21.820119736
 21
-20.5514048712
  0
LWPOLYLINE
  5
27F
100
AcDbEntity
  8
RACCORDO
100
AcDbPolyline
 62
253
  6
CONTINUOUS
 90
3
 70
0
 10
21.820119736
 20
-20.5514048712
 10
21.7700891054
 20
-20.5519856575
 10
21.7446266395
 20
-20.5521957934
  0
LINE
  5
280
100
AcDbEntity
  8
RACCORDO
100
AcDbLine
 62
7
  6
CONTINUOUS
 10
-21.9182739514
 20
-22.2015118288
 11
-19.137597554
 21
-22.2015118288
  0
LINE
  5
281
100
AcDbEntity
  8
DRAFT
100
AcDbLine
 62
7
  6
CONTINUOUS
 10
-14.7260178055
 20
-22.2015118288
 11
-7.937597554
 21
-22.2015118288
  0
LINE
  5
282
100
AcDbEntity
  8
DRAFT
100
AcDbLine
 62
7
  6
CONTINUOUS
 10
-3.5260178055
 20
-22.2015118288
 11
3.362402446
 21
-22.2015118288
  0
LINE
  5
283
100
AcDbEntity
  8
DRAFT
100
AcDbLine
 62
7
  6
CONTINUOUS
 10
7.7739821945
 20
-22.2015118288
 11
14.562402446
 21
-22.2015118288
  0
LINE
  5
284
100
AcDbEntity
  8
RACCORDO
100
AcDbLine
 62
7
  6
CONTINUOUS
 10
18.9739821945
 20
-22.2015118288
 11
21.7546585919
 21
-22.2015118288
  0
LINE
  5
285
100
AcDbEntity
  8
RACCORDO
100
AcDbLine
 62
7
  6
CONTINUOUS
 10
-18.6163376259
 20
-22.1646770903
 11
-15.2472777336
 21
-22.1646770903
  0
LINE
  5
286
100
AcDbEntity
  8
RACCORDO
100
AcDbLine
 62
7
  6
CONTINUOUS
 10
-7.4163376259
 20
-22.1646770903
 11
-4.0472777336
 21
-22.1646770903
  0
LINE
  5
287
100
AcDbEntity
  8
RACCORDO
100
AcDbLine
 62
7
  6
CONTINUOUS
 10
3.8836623741
 20
-22.1646770903
 11
7.2527222664
 21
-22.1646770903
  0
LINE
  5
288
100
AcDbEntity
  8
RACCORDO
100
AcDbLine
 62
7
  6
CONTINUOUS
 10
15.0836623741
 20
-22.1646770903
 11
18.4527222664
 21
-22.1646770903
  0
LINE
  5
289
100
AcDbEntity
  8
RACCORDO
100
AcDbLine
 62
253
  6
CONTINUOUS
 10
21.6837977343
 20
-21.9887563791
 11
-21.8474130938
 21
-21.9887563792
  0
LINE
  5
28A
100
AcDbEntity
  8
RACCORDO
100
AcDbLine
 62
253
  6
CONTINUOUS
 10
-21.9588913694
 20
-20.5517217915
 11
-21.9082420206
 21
-20.5521958044
  0
LINE
  5
28B
100
AcDbEntity
  8
RACCORDO
100
AcDbLine
 62
253
  6
CONTINUOUS
 10
-22.0081692045
 20
-20.5510357878
 11
-21.9588913694
 21
-20.5517217915
  0
LINE
  5
28C
100
AcDbEntity
  8
RACCORDO
100
AcDbLine
 62
253
  6
CONTINUOUS
 10
-22.0555475382
 20
-20.5501451435
 11
-22.0081692045
 21
-20.5510357878
  0
LINE
  5
28D
100
AcDbEntity
  8
RACCORDO
100
AcDbLine
 62
253
  6
CONTINUOUS
 10
-22.1005187347
 20
-20.5490594014
 11
-22.0555475382
 21
-20.5501451435
  0
LINE
  5
28E
100
AcDbEntity
  8
RACCORDO
100
AcDbLine
 62
253
  6
CONTINUOUS
 10
-22.1426009497
 20
-20.5477901947
 11
-22.1005187347
 21
-20.5490594014
  0
LINE
  5
28F
100
AcDbEntity
  8
RACCORDO
100
AcDbLine
 62
7
  6
CONTINUOUS
 10
-3.5260178055
 20
-22.2015118288
 11
-3.8740726528
 21
-22.1699178683
  0
LINE
  5
290
100
AcDbEntity
  8
RACCORDO
100
AcDbLine
 62
7
  6
CONTINUOUS
 10
7.7739821945
 20
-22.2015118288
 11
7.4259273472
 21
-22.1699178683
  0
LINE
  5
291
100
AcDbEntity
  8
RACCORDO
100
AcDbLine
 62
7
  6
CONTINUOUS
 10
-19.137597554
 20
-22.2015118288
 11
-18.7895427067
 21
-22.1699178683
  0
LINE
  5
292
100
AcDbEntity
  8
RACCORDO
100
AcDbLine
 62
253
  6
CONTINUOUS
 10
21.7446266395
 20
-20.5521957934
 11
21.6672707585
 21
-20.5524988547
  0
LWPOLYLINE
  5
293
100
AcDbEntity
  8
RACCORDO
100
AcDbPolyline
 62
253
  6
CONTINUOUS
 90
3
 70
0
 10
-21.9082420206
 20
-20.5521958044
 10
-21.8825722013
 20
-20.5523516368
 10
21.6672707436
 20
-20.5524851769
  0
LINE
  5
294
100
AcDbEntity
  8
RACCORDO
100
AcDbLine
 62
7
  6
CONTINUOUS
 10
18.9739821945
 20
-22.2015118288
 11
18.6259273472
 21
-22.1699178683
  0
LWPOLYLINE
  5
295
100
AcDbEntity
  8
RACCORDO
100
AcDbPolyline
 62
253
  6
CONTINUOUS
 90
9
 70
0
 10
-21.8474130248
 20
-21.9887563791
 10
-21.8467993306
 20
-21.9850695155
 10
-21.8461890301
 20
-21.9795340841
 10
-21.8455821234
 20
-21.9721568979
 10
-21.8449778734
 20
-21.9629470644
 10
-21.844377017
 20
-21.9519159328
 10
-21.8437817654
 20
-21.9390770528
 10
-21.8431921279
 20
-21.9244461328
 10
-21.8420318503
 20
-21.8898831523
  0
LWPOLYLINE
  5
296
100
AcDbEntity
  8
RACCORDO
100
AcDbPolyline
 62
253
  6
CONTINUOUS
 90
12
 70
0
 10
-22.3473367362
 20
-21.4894409958
 10
-22.3467232119
 20
-21.4869740101
 10
-22.3461130324
 20
-21.4832860553
 10
-22.3455061977
 20
-21.4783771315
 10
-22.3449019523
 20
-21.4722381411
 10
-22.3443010518
 20
-21.4648781817
 10
-22.3437057622
 20
-21.4563245459
 10
-22.3431161142
 20
-21.446572771
 10
-22.3425320773
 20
-21.4356273197
 10
-22.3419558253
 20
-21.4235288735
 10
-22.3413873918
 20
-21.4102732154
 10
-22.3402759529
 20
-21.3803562471
  0
LWPOLYLINE
  5
297
100
AcDbEntity
  8
RACCORDO
100
AcDbPolyline
 62
253
  6
CONTINUOUS
 90
85
 70
0
 10
-12.7524154475
 20
-4.4909307213
 10
-12.7514872351
 20
-4.4385807526
 10
-12.7485973085
 20
-4.3862606228
 10
-12.7437456675
 20
-4.3339703324
 10
-12.7369317527
 20
-4.2816080723
 10
-12.7281561236
 20
-4.2292756528
 10
-12.717420459
 20
-4.1772785048
 10
-12.7047043418
 20
-4.1256185486
 10
-12.6900281891
 20
-4.0742938669
 10
-12.6734549304
 20
-4.0236041359
 10
-12.6549668977
 20
-3.9735588025
 10
-12.6345817589
 20
-3.924148424
 10
-12.6124154476
 20
-3.8756443435
 10
-12.588467687
 20
-3.8280761816
 10
-12.5627387538
 20
-3.7814143228
 10
-12.535345412
 20
-3.7358412569
 10
-12.5062912862
 20
-3.6913708305
 10
-12.4755727519
 20
-3.6479892023
 10
-12.443295699
 20
-3.6058373309
 10
-12.40944972
 20
-3.5649085392
 10
-12.3740452224
 20
-3.5252095092
 10
-12.3372193187
 20
-3.4869012393
 10
-12.2989579672
 20
-3.4499824035
 10
-12.2592752095
 20
-3.4144543326
 10
-12.2183502827
 20
-3.3804820098
 10
-12.1761797542
 20
-3.3480761063
 10
-12.1327670566
 20
-3.3172259554
 10
-12.0883017245
 20
-3.288064535
 10
-12.0427832735
 20
-3.2606016037
 10
-11.9962121878
 20
-3.2348274067
 10
-11.9487794555
 20
-3.2108456514
 10
-11.9004815016
 20
-3.188662995
 10
-11.851321901
 20
-3.1682727836
 10
-11.8015023661
 20
-3.1497587573
 10
-11.7510180133
 20
-3.1331278434
 10
-11.6998737263
 20
-3.1183731173
 10
-11.6482858683
 20
-3.1055575409
 10
-11.5962527112
 20
-3.0946895639
 10
-11.5437759832
 20
-3.0857607384
 10
-11.4910772319
 20
-3.0788086808
 10
-11.4381563159
 20
-3.0738418234
 10
-11.3850133767
 20
-3.0708517348
 10
-11.3318703866
 20
-3.0698507354
 10
-11.2787273625
 20
-3.0708470369
 10
-11.2255842875
 20
-3.0738324276
 10
-11.1726630829
 20
-3.0787945933
 10
-11.1199638965
 20
-3.085741955
 10
-11.0674865803
 20
-3.0946660909
 10
-11.015452612
 20
-3.1055294212
 10
-10.9638636655
 20
-3.1183404074
 10
-10.9127180668
 20
-3.1330905863
 10
-10.8622322713
 20
-3.1497169919
 10
-10.8124111379
 20
-3.1682265803
 10
-10.7632498076
 20
-3.1886123929
 10
-10.7149501591
 20
-3.2107905914
 10
-10.6675158965
 20
-3.234767764
 10
-10.6209433156
 20
-3.2605373194
 10
-10.5754231825
 20
-3.2879956496
 10
-10.5309560479
 20
-3.3171523935
 10
-10.4875413612
 20
-3.3479979084
 10
-10.4453682361
 20
-3.3803996644
 10
-10.4044398649
 20
-3.4143684843
 10
-10.3647530553
 20
-3.4498935408
 10
-10.326487345
 20
-3.4868098294
 10
-10.2896565587
 20
-3.5251164267
 10
-10.2542468717
 20
-3.5648142512
 10
-10.2203963466
 20
-3.6057410611
 10
-10.1881157652
 20
-3.6478899312
 10
-10.1573943457
 20
-3.6912677817
 10
-10.128337805
 20
-3.7357331382
 10
-10.1009429034
 20
-3.7812989108
 10
-10.0752128806
 20
-3.8279521842
 10
-10.0512631727
 20
-3.8755127468
 10
-10.0290936875
 20
-3.9240100659
 10
-10.0087045171
 20
-3.9734146691
 10
-9.9902113742
 20
-4.0234579364
 10
-9.9736314465
 20
-4.0741501569
 10
-9.9589475462
 20
-4.1254810373
 10
-9.9462238222
 20
-4.1771510852
 10
-9.9354806786
 20
-4.2291628443
 10
-9.9266977112
 20
-4.2815137681
 10
-9.9198778572
 20
-4.3338967307
 10
-9.9150220955
 20
-4.3862093567
 10
-9.9121294471
 20
-4.4385540205
 10
-9.911199912
 20
-4.4909307213
  0
LWPOLYLINE
  5
298
100
AcDbEntity
  8
RACCORDO
100
AcDbPolyline
 62
253
  6
CONTINUOUS
 90
85
 70
0
 10
-12.7524154475
 20
4.5108696388
 10
-12.7514711488
 20
4.5632094164
 10
-12.7485658724
 20
4.615518846
 10
-12.7436996183
 20
4.6677979272
 10
-12.7368718038
 20
4.7201484196
 10
-12.7280830116
 20
4.7724685623
 10
-12.7173349901
 20
4.8244530754
 10
-12.7046073367
 20
4.8761000369
 10
-12.689920454
 20
4.9274113696
 10
-12.673337298
 20
4.978087562
 10
-12.6548402116
 20
5.0281191807
 10
-12.6344468518
 20
5.0775156619
 10
-12.6122731463
 20
5.1260057996
 10
-12.5883188106
 20
5.1735600121
 10
-12.562584129
 20
5.2202078857
 10
-12.5351858827
 20
5.2657669675
 10
-12.5061276942
 20
5.3102234113
 10
-12.475405941
 20
5.3535910687
 10
-12.4431265359
 20
5.3957290349
 10
-12.4092790814
 20
5.4366439726
 10
-12.3738739752
 20
5.4763292251
 10
-12.3370483228
 20
5.5146239086
 10
-12.2987880903
 20
5.5515293501
 10
-12.2591073116
 20
5.5870442291
 10
-12.2181851951
 20
5.6210036916
 10
-12.1760183149
 20
5.6533970739
 10
-12.1326100967
 20
5.6842350465
 10
-12.0881500265
 20
5.7133847569
 10
-12.0426376326
 20
5.7408364508
 10
-11.9960733866
 20
5.7665998889
 10
-11.9486481888
 20
5.7905714917
 10
-11.9003584769
 20
5.8127446091
 10
-11.8512078132
 20
5.8331258969
 10
-11.8013977852
 20
5.8516317339
 10
-11.7509235242
 20
5.8682552029
 10
-11.6997898989
 20
5.8830032257
 10
-11.6482131034
 20
5.8958129401
 10
-11.596191417
 20
5.9066759111
 10
-11.5437265604
 20
5.9156005768
 10
-11.4910398896
 20
5.9225493849
 10
-11.4381312689
 20
5.9275139177
 10
-11.3850008341
 20
5.9305025945
 10
-11.3318703485
 20
5.931503117
 10
-11.278739829
 20
5.9305072884
 10
-11.2256092588
 20
5.9275233056
 10
-11.1727003499
 20
5.9225634606
 10
-11.1200132444
 20
5.9156193444
 10
-11.0675478002
 20
5.9066993643
 10
-11.0155253033
 20
5.8958410362
 10
-10.9639474203
 20
5.8830359082
 10
-10.9128124847
 20
5.8682924288
 10
-10.8623367825
 20
5.8516734645
 10
-10.8125251579
 20
5.8331720619
 10
-10.7633727668
 20
5.8127951697
 10
-10.7150813624
 20
5.7906265067
 10
-10.6676546364
 20
5.7666594833
 10
-10.6210888972
 20
5.7409006834
 10
-10.5755748235
 20
5.7134535872
 10
-10.5311129529
 20
5.6843085498
 10
-10.4877027477
 20
5.6534752097
 10
-10.4455332732
 20
5.6210859717
 10
-10.4046077148
 20
5.587130009
 10
-10.3649228871
 20
5.5516181418
 10
-10.3266582991
 20
5.5147152458
 10
-10.2898277686
 20
5.4764222345
 10
-10.2544174778
 20
5.4367381878
 10
-10.2205654821
 20
5.3958252325
 10
-10.1882825536
 20
5.3536902684
 10
-10.1575579202
 20
5.3103263896
 10
-10.1284973213
 20
5.265875015
 10
-10.1010975188
 20
5.2203232231
 10
-10.0753617506
 20
5.1736839299
 10
-10.0514054705
 20
5.1261373114
 10
-10.0292285943
 20
5.0776539289
 10
-10.0088312061
 20
5.0282632166
 10
-9.9903290126
 20
4.9782336605
 10
-9.9737391913
 20
4.9275549794
 10
-9.9590445647
 20
4.8762374516
 10
-9.9463093072
 20
4.8245804051
 10
-9.935553808
 20
4.7725812915
 10
-9.9267576779
 20
4.7202426581
 10
-9.9199239226
 20
4.6678714782
 10
-9.9150535442
 20
4.6155700769
 10
-9.9121455407
 20
4.5632361303
 10
-9.911199912
 20
4.5108696388
  0
LWPOLYLINE
  5
299
100
AcDbEntity
  8
RACCORDO
100
AcDbPolyline
 62
253
  6
CONTINUOUS
 90
85
 70
0
 10
-12.652430678
 20
-4.4900305412
 10
-12.6515460917
 20
-4.4414792573
 10
-12.6488644181
 20
-4.3928215608
 10
-12.6443702924
 20
-4.3441247652
 10
-12.6380472447
 20
-4.2954331402
 10
-12.6298867792
 20
-4.2468409485
 10
-12.6198974793
 20
-4.1984908431
 10
-12.6080822867
 20
-4.15045187
 10
-12.59444719
 20
-4.1027948815
 10
-12.5790257184
 20
-4.0556618882
 10
-12.5618385105
 20
-4.0091234668
 10
-12.5429064122
 20
-3.9632427795
 10
-12.52228211
 20
-3.9181445328
 10
-12.5000103867
 20
-3.8739117617
 10
-12.4761172148
 20
-3.8305822831
 10
-12.4506364499
 20
-3.7882083842
 10
-12.4236140423
 20
-3.7468574157
 10
-12.3950851107
 20
-3.7065745817
 10
-12.3650655985
 20
-3.6673797356
 10
-12.3335896091
 20
-3.6293198976
 10
-12.3007069801
 20
-3.5924577062
 10
-12.2664554571
 20
-3.55683774
 10
-12.230874257
 20
-3.5225046211
 10
-12.194018509
 20
-3.4895152399
 10
-12.1559532562
 20
-3.4579292242
 10
-12.1167349598
 20
-3.4277931331
 10
-12.0764157746
 20
-3.3991467574
 10
-12.035058614
 20
-3.3720342627
 10
-11.9927257236
 20
-3.3464951393
 10
-11.9494732785
 20
-3.3225619902
 10
-11.9053572591
 20
-3.3002651691
 10
-11.8604392443
 20
-3.2796355648
 10
-11.8147825853
 20
-3.2607020424
 10
-11.7684470885
 20
-3.2434894245
 10
-11.7214955299
 20
-3.2280214506
 10
-11.6739956096
 20
-3.2143208381
 10
-11.6260157001
 20
-3.2024074765
 10
-11.5776232184
 20
-3.192298151
 10
-11.5288857872
 20
-3.1840070329
 10
-11.4798730434
 20
-3.1775459452
 10
-11.4306544276
 20
-3.1729239005
 10
-11.3812981872
 20
-3.1701471672
 10
-11.3318726141
 20
-3.1692195365
 10
-11.2824469835
 20
-3.1701423056
 10
-11.2330905385
 20
-3.172914179
 10
-11.1838715239
 20
-3.1775313736
 10
-11.134858193
 20
-3.1839876283
 10
-11.0861199818
 20
-3.1922739391
 10
-11.0377264665
 20
-3.2023785056
 10
-10.9897452164
 20
-3.2142871863
 10
-10.9422437106
 20
-3.2279832001
 10
-10.8952904327
 20
-3.2434466349
 10
-10.8489530616
 20
-3.260654785
 10
-10.8032943987
 20
-3.2795839054
 10
-10.7583744194
 20
-3.3002090947
 10
-10.714256587
 20
-3.322501408
 10
-10.6710023463
 20
-3.3464299953
 10
-10.62866748
 20
-3.3719646051
 10
-10.5873082575
 20
-3.3990725772
 10
-10.5469868274
 20
-3.4277144856
 10
-10.5077656666
 20
-3.4578465226
 10
-10.4696967751
 20
-3.4894291224
 10
-10.4328368692
 20
-3.5224156236
 10
-10.3972511972
 20
-3.5567462948
 10
-10.3629946444
 20
-3.5923645769
 10
-10.3301067686
 20
-3.62922559
 10
-10.298626262
 20
-3.6672836378
 10
-10.268603101
 20
-3.7064756961
 10
-10.2400710467
 20
-3.7467549602
 10
-10.2130461072
 20
-3.7881012423
 10
-10.187563722
 20
-3.8304684703
 10
-10.163669185
 20
-3.8737899889
 10
-10.1413951514
 20
-3.9180156483
 10
-10.1207676867
 20
-3.9631077066
 10
-10.101831678
 20
-4.0089831949
 10
-10.084639128
 20
-4.0555197553
 10
-10.0692110086
 20
-4.1026551528
 10
-10.0555686395
 20
-4.1503181437
 10
-10.0437459568
 20
-4.1983667337
 10
-10.0337492679
 20
-4.2467304544
 10
-10.0255819875
 20
-4.2953399408
 10
-10.0192532086
 20
-4.3440514348
 10
-10.0147547207
 20
-4.3927702552
 10
-10.0120702507
 20
-4.4414524244
 10
-10.0111846815
 20
-4.4900305412
  0
LWPOLYLINE
  5
29A
100
AcDbEntity
  8
RACCORDO
100
AcDbPolyline
 62
253
  6
CONTINUOUS
 90
85
 70
0
 10
-12.652430678
 20
4.5099694588
 10
-12.6515299787
 20
4.5585112735
 10
-12.6488328817
 20
4.6071588844
 10
-12.6443240288
 20
4.6558450083
 10
-12.6379869259
 20
4.7045253904
 10
-12.6298131121
 20
4.7531058086
 10
-12.6198112573
 20
4.8014436901
 10
-12.6079842971
 20
4.8494700303
 10
-12.5943382137
 20
4.8971140103
 10
-12.5789066047
 20
4.9442337086
 10
-12.5617100886
 20
4.9907586057
 10
-12.5427694929
 20
5.0366255669
 10
-12.5221375609
 20
5.0817099493
 10
-12.4998590381
 20
5.1259288001
 10
-12.4759598745
 20
5.1692443092
 10
-12.4504740064
 20
5.2116041577
 10
-12.4234473628
 20
5.2529410449
 10
-12.3949150308
 20
5.2932098119
 10
-12.3648930335
 20
5.3323905855
 10
-12.33341546
 20
5.3704363825
 10
-12.3005321122
 20
5.4072846276
 10
-12.2662807894
 20
5.4428907776
 10
-12.2307006798
 20
5.4772102612
 10
-12.1938468782
 20
5.5101862386
 10
-12.1557844706
 20
5.5417591312
 10
-12.1165698792
 20
5.5718824367
 10
-12.0762552175
 20
5.6005164093
 10
-12.0349034349
 20
5.627616928
 10
-11.9925767359
 20
5.6531445543
 10
-11.949331241
 20
5.6770667331
 10
-11.905222943
 20
5.6993531602
 10
-11.8603133702
 20
5.7199729943
 10
-11.8146658124
 20
5.7388974132
 10
-11.768340066
 20
5.7561016438
 10
-11.7213988508
 20
5.7715619867
 10
-11.6739097951
 20
5.7852557603
 10
-11.6259412325
 20
5.7971631196
 10
-11.577560511
 20
5.807267311
 10
-11.5288351799
 20
5.8155541853
 10
-11.4798348261
 20
5.8220119477
 10
-11.4306288172
 20
5.8266316049
 10
-11.3812853222
 20
5.8294068978
 10
-11.331872572
 20
5.8303340451
 10
-11.2824597644
 20
5.829411755
 10
-11.2331160652
 20
5.8266413176
 10
-11.1839096582
 20
5.8220265061
 10
-11.1349087179
 20
5.8155735723
 10
-11.0861826076
 20
5.807291501
 10
-11.0378008536
 20
5.7971920644
 10
-10.9898309518
 20
5.7852893818
 10
-10.9423403124
 20
5.771600203
 10
-10.8953973799
 20
5.7561443952
 10
-10.8490697616
 20
5.7389446288
 10
-10.8034202024
 20
5.7200246083
 10
-10.7585086677
 20
5.6994091857
 10
-10.7143985593
 20
5.6771272629
 10
-10.6711512714
 20
5.6532096425
 10
-10.628822599
 20
5.6276865264
 10
-10.5874687571
 20
5.6005905269
 10
-10.547151853
 20
5.5719610181
 10
-10.5079344002
 20
5.5418417635
 10
-10.4698683568
 20
5.5102722841
 10
-10.4330104006
 20
5.4772991841
 10
-10.3974258229
 20
5.4429821466
 10
-10.3631694751
 20
5.4073776804
 10
-10.3302808856
 20
5.3705306141
 10
-10.2987987999
 20
5.3324866079
 10
-10.268773159
 20
5.2933086229
 10
-10.2402377095
 20
5.2530434266
 10
-10.2132085386
 20
5.2117112252
 10
-10.187721054
 20
5.1693580444
 10
-10.1638205285
 20
5.1260504909
 10
-10.1415396989
 20
5.081838747
 10
-10.1209046077
 20
5.0367605475
 10
-10.1019601048
 20
4.9908987796
 10
-10.0847582503
 20
4.9443757409
 10
-10.0693199973
 20
4.8972536395
 10
-10.0556666448
 20
4.8496036609
 10
-10.0438321973
 20
4.8015677108
 10
-10.0338229549
 20
4.7532162244
 10
-10.025642326
 20
4.7046185245
 10
-10.0192994901
 20
4.6559182881
 10
-10.0147862712
 20
4.6072101552
 10
-10.012086372
 20
4.5585380886
 10
-10.0111846815
 20
4.5099694588
  0
LINE
  5
29B
100
AcDbEntity
  8
RACCORDO
100
AcDbLine
 62
253
  6
CONTINUOUS
 10
-22.4186537747
 20
-21.703566101
 11
-22.3473367362
 21
-21.4894409958
  0
LINE
  5
29C
100
AcDbEntity
  8
RACCORDO
100
AcDbLine
 62
253
  6
CONTINUOUS
 10
-21.9182739514
 20
-22.2015118288
 11
-21.8474130938
 21
-21.9887563792
  0
LINE
  5
29D
100
AcDbEntity
  8
RACCORDO
100
AcDbLine
 62
253
  6
CONTINUOUS
 10
-22.3473367362
 20
21.5093799133
 11
-22.4186537747
 21
21.7235050185
  0
LINE
  5
29E
100
AcDbEntity
  8
RACCORDO
100
AcDbLine
 62
253
  6
CONTINUOUS
 10
-21.8474130938
 20
22.0086952967
 11
-21.9182739514
 21
22.2214507463
  0
LINE
  5
29F
100
AcDbEntity
  8
RACCORDO
100
AcDbLine
 62
253
  6
CONTINUOUS
 10
-22.4318076798
 20
0.3099466135
 11
-22.3234361523
 21
0.3641282505
  0
LINE
  5
2A0
100
AcDbEntity
  8
RACCORDO
100
AcDbLine
 62
253
  6
CONTINUOUS
 10
-22.3234361523
 20
-0.344189333
 11
-22.4318076798
 21
-0.290007696
  0
LWPOLYLINE
  5
2A1
100
AcDbEntity
  8
RACCORDO
100
AcDbPolyline
 62
253
  6
CONTINUOUS
 90
85
 70
0
 10
-9.911199912
 20
4.5108696388
 10
-9.9121281244
 20
4.4585196701
 10
-9.915018051
 20
4.4061995403
 10
-9.919869692
 20
4.3539092499
 10
-9.9266836068
 20
4.3015469898
 10
-9.9354592359
 20
4.2492145703
 10
-9.9461949005
 20
4.1972174223
 10
-9.9589110177
 20
4.1455574661
 10
-9.9735871704
 20
4.0942327844
 10
-9.9901604291
 20
4.0435430534
 10
-10.0086484618
 20
3.99349772
 10
-10.0290336006
 20
3.9440873415
 10
-10.0511999119
 20
3.895583261
 10
-10.0751476725
 20
3.8480150991
 10
-10.1008766057
 20
3.8013532403
 10
-10.1282699475
 20
3.7557801744
 10
-10.1573240733
 20
3.711309748
 10
-10.1880426076
 20
3.6679281198
 10
-10.2203196605
 20
3.6257762484
 10
-10.2541656395
 20
3.5848474567
 10
-10.2895701371
 20
3.5451484267
 10
-10.3263960408
 20
3.5068401568
 10
-10.3646573923
 20
3.469921321
 10
-10.40434015
 20
3.4343932501
 10
-10.4452650768
 20
3.4004209273
 10
-10.4874356053
 20
3.3680150238
 10
-10.5308483029
 20
3.3371648729
 10
-10.575313635
 20
3.3080034525
 10
-10.620832086
 20
3.2805405212
 10
-10.6674031717
 20
3.2547663242
 10
-10.714835904
 20
3.2307845689
 10
-10.7631338579
 20
3.2086019125
 10
-10.8122934585
 20
3.1882117011
 10
-10.8621129934
 20
3.1696976748
 10
-10.9125973462
 20
3.153066761
 10
-10.9637416332
 20
3.1383120348
 10
-11.0153294912
 20
3.1254964584
 10
-11.0673626483
 20
3.1146284814
 10
-11.1198393763
 20
3.1056996559
 10
-11.1725381276
 20
3.0987475983
 10
-11.2254590436
 20
3.0937807409
 10
-11.2786019828
 20
3.0907906523
 10
-11.3317449729
 20
3.0897896529
 10
-11.384887997
 20
3.0907859544
 10
-11.4380310719
 20
3.0937713451
 10
-11.4909522766
 20
3.0987335108
 10
-11.543651463
 20
3.1056808725
 10
-11.5961287792
 20
3.1146050084
 10
-11.6481627475
 20
3.1254683387
 10
-11.699751694
 20
3.1382793249
 10
-11.7508972927
 20
3.1530295038
 10
-11.8013830882
 20
3.1696559094
 10
-11.8512042216
 20
3.1881654978
 10
-11.9003655519
 20
3.2085513104
 10
-11.9486652004
 20
3.2307295089
 10
-11.996099463
 20
3.2547066816
 10
-12.0426720439
 20
3.2804762369
 10
-12.088192177
 20
3.3079345671
 10
-12.1326593116
 20
3.337091311
 10
-12.1760739983
 20
3.3679368259
 10
-12.2182471234
 20
3.4003385819
 10
-12.2591754946
 20
3.4343074018
 10
-12.2988623042
 20
3.4698324583
 10
-12.3371280145
 20
3.5067487469
 10
-12.3739588008
 20
3.5450553442
 10
-12.4093684878
 20
3.5847531687
 10
-12.4432190129
 20
3.6256799786
 10
-12.4754995943
 20
3.6678288487
 10
-12.5062210138
 20
3.7112066992
 10
-12.5352775545
 20
3.7556720557
 10
-12.5626724561
 20
3.8012378283
 10
-12.5884024789
 20
3.8478911017
 10
-12.6123521868
 20
3.8954516643
 10
-12.634521672
 20
3.9439489834
 10
-12.6549108424
 20
3.9933535866
 10
-12.6734039853
 20
4.0433968539
 10
-12.689983913
 20
4.0940890744
 10
-12.7046678133
 20
4.1454199548
 10
-12.7173915373
 20
4.1970900027
 10
-12.7281346809
 20
4.2491017618
 10
-12.7369176483
 20
4.3014526856
 10
-12.7437375023
 20
4.3538356482
 10
-12.748593264
 20
4.4061482742
 10
-12.7514859124
 20
4.458492938
 10
-12.7524154475
 20
4.5108696388
  0
LWPOLYLINE
  5
2A2
100
AcDbEntity
  8
RACCORDO
100
AcDbPolyline
 62
253
  6
CONTINUOUS
 90
85
 70
0
 10
-9.911199912
 20
-4.4909307213
 10
-9.9121442107
 20
-4.5432704989
 10
-9.9150494871
 20
-4.5955799285
 10
-9.9199157412
 20
-4.6478590097
 10
-9.9267435557
 20
-4.7002095021
 10
-9.9355323479
 20
-4.7525296448
 10
-9.9462803694
 20
-4.8045141579
 10
-9.9590080228
 20
-4.8561611194
 10
-9.9736949055
 20
-4.9074724521
 10
-9.9902780615
 20
-4.9581486445
 10
-10.0087751479
 20
-5.0081802632
 10
-10.0291685077
 20
-5.0575767444
 10
-10.0513422132
 20
-5.1060668821
 10
-10.0752965489
 20
-5.1536210946
 10
-10.1010312305
 20
-5.2002689682
 10
-10.1284294768
 20
-5.24582805
 10
-10.1574876653
 20
-5.2902844937
 10
-10.1882094185
 20
-5.3336521512
 10
-10.2204888236
 20
-5.3757901174
 10
-10.2543362781
 20
-5.4167050551
 10
-10.2897413843
 20
-5.4563903076
 10
-10.3265670367
 20
-5.4946849911
 10
-10.3648272693
 20
-5.5315904326
 10
-10.4045080479
 20
-5.5671053116
 10
-10.4454301644
 20
-5.6010647741
 10
-10.4875970446
 20
-5.6334581564
 10
-10.5310052628
 20
-5.664296129
 10
-10.575465333
 20
-5.6934458394
 10
-10.6209777269
 20
-5.7208975333
 10
-10.6675419729
 20
-5.7466609714
 10
-10.7149671707
 20
-5.7706325742
 10
-10.7632568826
 20
-5.7928056916
 10
-10.8124075463
 20
-5.8131869794
 10
-10.8622175743
 20
-5.8316928164
 10
-10.9126918353
 20
-5.8483162853
 10
-10.9638254606
 20
-5.8630643082
 10
-11.0154022561
 20
-5.8758740226
 10
-11.0674239425
 20
-5.8867369936
 10
-11.1198887991
 20
-5.8956616593
 10
-11.1725754699
 20
-5.9026104674
 10
-11.2254840906
 20
-5.9075750002
 10
-11.2786145254
 20
-5.910563677
 10
-11.331745011
 20
-5.9115641995
 10
-11.3848755305
 20
-5.9105683709
 10
-11.4380061007
 20
-5.9075843881
 10
-11.4909150096
 20
-5.9026245431
 10
-11.5436021151
 20
-5.8956804269
 10
-11.5960675593
 20
-5.8867604468
 10
-11.6480900562
 20
-5.8759021187
 10
-11.6996679392
 20
-5.8630969907
 10
-11.7508028748
 20
-5.8483535113
 10
-11.801278577
 20
-5.831734547
 10
-11.8510902016
 20
-5.8132331444
 10
-11.9002425927
 20
-5.7928562522
 10
-11.9485339971
 20
-5.7706875892
 10
-11.9959607231
 20
-5.7467205658
 10
-12.0425264623
 20
-5.7209617659
 10
-12.088040536
 20
-5.6935146697
 10
-12.1325024066
 20
-5.6643696323
 10
-12.1759126118
 20
-5.6335362922
 10
-12.2180820863
 20
-5.6011470542
 10
-12.2590076447
 20
-5.5671910915
 10
-12.2986924724
 20
-5.5316792243
 10
-12.3369570604
 20
-5.4947763283
 10
-12.3737875909
 20
-5.456483317
 10
-12.4091978817
 20
-5.4167992703
 10
-12.4430498774
 20
-5.375886315
 10
-12.4753328059
 20
-5.3337513509
 10
-12.5060574393
 20
-5.2903874721
 10
-12.5351180382
 20
-5.2459360975
 10
-12.5625178407
 20
-5.2003843056
 10
-12.5882536089
 20
-5.1537450124
 10
-12.612209889
 20
-5.1061983939
 10
-12.6343867652
 20
-5.0577150114
 10
-12.6547841534
 20
-5.0083242991
 10
-12.6732863469
 20
-4.958294743
 10
-12.6898761682
 20
-4.9076160618
 10
-12.7045707948
 20
-4.8562985341
 10
-12.7173060523
 20
-4.8046414876
 10
-12.7280615515
 20
-4.752642374
 10
-12.7368576816
 20
-4.7003037406
 10
-12.7436914369
 20
-4.6479325607
 10
-12.7485618153
 20
-4.5956311594
 10
-12.7514698188
 20
-4.5432972128
 10
-12.7524154475
 20
-4.4909307213
  0
LWPOLYLINE
  5
2A3
100
AcDbEntity
  8
RACCORDO
100
AcDbPolyline
 62
253
  6
CONTINUOUS
 90
85
 70
0
 10
-10.0111846815
 20
4.5099694588
 10
-10.0120692678
 20
4.4614181749
 10
-10.0147509414
 20
4.4127604784
 10
-10.0192450671
 20
4.3640636827
 10
-10.0255681148
 20
4.3153720577
 10
-10.0337285803
 20
4.266779866
 10
-10.0437178802
 20
4.2184297606
 10
-10.0555330728
 20
4.1703907875
 10
-10.0691681695
 20
4.122733799
 10
-10.0845896411
 20
4.0756008057
 10
-10.101776849
 20
4.0290623843
 10
-10.1207089473
 20
3.983181697
 10
-10.1413332495
 20
3.9380834504
 10
-10.1636049728
 20
3.8938506792
 10
-10.1874981447
 20
3.8505212006
 10
-10.2129789096
 20
3.8081473017
 10
-10.2400013172
 20
3.7667963332
 10
-10.2685302488
 20
3.7265134992
 10
-10.298549761
 20
3.6873186531
 10
-10.3300257504
 20
3.6492588152
 10
-10.3629083794
 20
3.6123966237
 10
-10.3971599024
 20
3.5767766575
 10
-10.4327411025
 20
3.5424435386
 10
-10.4695968505
 20
3.5094541574
 10
-10.5076621033
 20
3.4778681417
 10
-10.5468803997
 20
3.4477320506
 10
-10.5871995849
 20
3.4190856749
 10
-10.6285567456
 20
3.3919731802
 10
-10.6708896359
 20
3.3664340568
 10
-10.714142081
 20
3.3425009077
 10
-10.7582581004
 20
3.3202040866
 10
-10.8031761152
 20
3.2995744823
 10
-10.8488327742
 20
3.2806409599
 10
-10.895168271
 20
3.263428342
 10
-10.9421198296
 20
3.2479603681
 10
-10.9896197499
 20
3.2342597556
 10
-11.0375996594
 20
3.222346394
 10
-11.0859921411
 20
3.2122370685
 10
-11.1347295723
 20
3.2039459504
 10
-11.1837423161
 20
3.1974848627
 10
-11.2329609319
 20
3.192862818
 10
-11.2823171723
 20
3.1900860847
 10
-11.3317427454
 20
3.189158454
 10
-11.381168376
 20
3.1900812231
 10
-11.430524821
 20
3.1928530965
 10
-11.4797438356
 20
3.1974702911
 10
-11.5287571665
 20
3.2039265458
 10
-11.5774953777
 20
3.2122128566
 10
-11.625888893
 20
3.2223174231
 10
-11.6738701431
 20
3.2342261038
 10
-11.7213716489
 20
3.2479221176
 10
-11.7683249268
 20
3.2633855525
 10
-11.8146622979
 20
3.2805937025
 10
-11.8603209608
 20
3.2995228229
 10
-11.9052409401
 20
3.3201480122
 10
-11.9493587725
 20
3.3424403255
 10
-11.9926130132
 20
3.3663689128
 10
-12.0349478795
 20
3.3919035226
 10
-12.076307102
 20
3.4190114947
 10
-12.1166285321
 20
3.4476534031
 10
-12.1558496929
 20
3.4777854401
 10
-12.1939185844
 20
3.5093680399
 10
-12.2307784903
 20
3.5423545411
 10
-12.2663641623
 20
3.5766852123
 10
-12.3006207151
 20
3.6123034944
 10
-12.3335085909
 20
3.6491645075
 10
-12.3649890975
 20
3.6872225553
 10
-12.3950122585
 20
3.7264146136
 10
-12.4235443128
 20
3.7666938777
 10
-12.4505692523
 20
3.8080401598
 10
-12.4760516375
 20
3.8504073878
 10
-12.4999461745
 20
3.8937289064
 10
-12.5222202081
 20
3.9379545658
 10
-12.5428476728
 20
3.9830466241
 10
-12.5617836815
 20
4.0289221124
 10
-12.5789762315
 20
4.0754586728
 10
-12.5944043509
 20
4.1225940703
 10
-12.60804672
 20
4.1702570612
 10
-12.6198694027
 20
4.2183056512
 10
-12.6298660916
 20
4.2666693719
 10
-12.638033372
 20
4.3152788583
 10
-12.6443621509
 20
4.3639903523
 10
-12.6488606388
 20
4.4127091727
 10
-12.6515451088
 20
4.4613913419
 10
-12.652430678
 20
4.5099694588
  0
LWPOLYLINE
  5
2A4
100
AcDbEntity
  8
RACCORDO
100
AcDbPolyline
 62
253
  6
CONTINUOUS
 90
85
 70
0
 10
-10.0111846815
 20
-4.4900305412
 10
-10.0120853808
 20
-4.538572356
 10
-10.0147824778
 20
-4.5872199669
 10
-10.0192913307
 20
-4.6359060908
 10
-10.0256284336
 20
-4.6845864728
 10
-10.0338022474
 20
-4.7331668911
 10
-10.0438041022
 20
-4.7815047726
 10
-10.0556310624
 20
-4.8295311128
 10
-10.0692771458
 20
-4.8771750928
 10
-10.0847087548
 20
-4.9242947911
 10
-10.1019052709
 20
-4.9708196882
 10
-10.1208458666
 20
-5.0166866494
 10
-10.1414777986
 20
-5.0617710318
 10
-10.1637563214
 20
-5.1059898826
 10
-10.187655485
 20
-5.1493053916
 10
-10.2131413531
 20
-5.1916652402
 10
-10.2401679967
 20
-5.2330021274
 10
-10.2687003287
 20
-5.2732708944
 10
-10.298722326
 20
-5.312451668
 10
-10.3301998995
 20
-5.350497465
 10
-10.3630832473
 20
-5.3873457101
 10
-10.3973345701
 20
-5.4229518601
 10
-10.4329146797
 20
-5.4572713437
 10
-10.4697684813
 20
-5.4902473211
 10
-10.5078308889
 20
-5.5218202137
 10
-10.5470454803
 20
-5.5519435192
 10
-10.587360142
 20
-5.5805774918
 10
-10.6287119246
 20
-5.6076780105
 10
-10.6710386236
 20
-5.6332056368
 10
-10.7142841185
 20
-5.6571278156
 10
-10.7583924165
 20
-5.6794142427
 10
-10.8033019893
 20
-5.7000340768
 10
-10.8489495471
 20
-5.7189584957
 10
-10.8952752935
 20
-5.7361627263
 10
-10.9422165087
 20
-5.7516230692
 10
-10.9897055644
 20
-5.7653168428
 10
-11.037674127
 20
-5.777224202
 10
-11.0860548485
 20
-5.7873283935
 10
-11.1347801796
 20
-5.7956152678
 10
-11.1837805334
 20
-5.8020730302
 10
-11.2329865423
 20
-5.8066926874
 10
-11.2823300373
 20
-5.8094679803
 10
-11.3317427875
 20
-5.8103951276
 10
-11.3811555951
 20
-5.8094728374
 10
-11.4304992943
 20
-5.8067024001
 10
-11.4797057013
 20
-5.8020875886
 10
-11.5287066416
 20
-5.7956346548
 10
-11.5774327519
 20
-5.7873525835
 10
-11.6258145059
 20
-5.7772531469
 10
-11.6737844077
 20
-5.7653504643
 10
-11.7212750471
 20
-5.7516612855
 10
-11.7682179796
 20
-5.7362054777
 10
-11.8145455979
 20
-5.7190057113
 10
-11.8601951571
 20
-5.7000856908
 10
-11.9051066918
 20
-5.6794702682
 10
-11.9492168002
 20
-5.6571883454
 10
-11.9924640881
 20
-5.633270725
 10
-12.0347927605
 20
-5.6077476089
 10
-12.0761466024
 20
-5.5806516094
 10
-12.1164635065
 20
-5.5520221006
 10
-12.1556809593
 20
-5.521902846
 10
-12.1937470027
 20
-5.4903333666
 10
-12.2306049589
 20
-5.4573602666
 10
-12.2661895366
 20
-5.4230432291
 10
-12.3004458844
 20
-5.3874387629
 10
-12.3333344739
 20
-5.3505916966
 10
-12.3648165596
 20
-5.3125476904
 10
-12.3948422005
 20
-5.2733697054
 10
-12.42337765
 20
-5.2331045091
 10
-12.4504068209
 20
-5.1917723077
 10
-12.4758943055
 20
-5.1494191269
 10
-12.499794831
 20
-5.1061115734
 10
-12.5220756606
 20
-5.0618998295
 10
-12.5427107518
 20
-5.01682163
 10
-12.5616552547
 20
-4.9709598621
 10
-12.5788571092
 20
-4.9244368234
 10
-12.5942953622
 20
-4.877314722
 10
-12.6079487147
 20
-4.8296647434
 10
-12.6197831622
 20
-4.7816287933
 10
-12.6297924046
 20
-4.7332773069
 10
-12.6379730335
 20
-4.684679607
 10
-12.6443158694
 20
-4.6359793706
 10
-12.6488290883
 20
-4.5872712377
 10
-12.6515289875
 20
-4.5385991711
 10
-12.652430678
 20
-4.4900305412
  0
LINE
  5
2A5
100
AcDbEntity
  8
RACCORDO
100
AcDbLine
 62
253
  6
CONTINUOUS
 10
-22.2318076786
 20
0.1099694588
 11
-22.1234666133
 21
0.1641358659
  0
LINE
  5
2A6
100
AcDbEntity
  8
RACCORDO
100
AcDbLine
 62
253
  6
CONTINUOUS
 10
-22.1234666133
 20
-0.1441969484
 11
-22.2318076786
 21
-0.0900305412
  0
LWPOLYLINE
  5
2A7
100
AcDbEntity
  8
RACCORDO
100
AcDbPolyline
 62
253
  6
CONTINUOUS
 90
7
 70
0
 10
21.9598512538
 20
-0.1441969484
 10
21.9592669727
 20
-0.1443204305
 10
21.9580272902
 20
-0.1444430211
 10
21.9561322064
 20
-0.1445647202
 10
21.9535746477
 20
-0.1446857994
 10
21.9503616878
 20
-0.1448059871
 10
21.946514547
 20
-0.1449244677
  0
LWPOLYLINE
  5
2A8
100
AcDbEntity
  8
RACCORDO
100
AcDbPolyline
 62
253
  6
CONTINUOUS
 90
5
 70
0
 10
22.1598207928
 20
-0.344189333
 10
22.1588567547
 20
-0.3443195161
 10
22.1567876973
 20
-0.3444488227
 10
22.1536180574
 20
-0.3445772154
 10
22.1493546925
 20
-0.3447049001
  0
LINE
  5
2A9
100
AcDbEntity
  8
DRAFT
100
AcDbLine
 62
7
  6
CONTINUOUS
 10
19.6806583108
 20
-0.0900305412
 11
19.4181923202
 21
-0.1162111446
  0
LINE
  5
2AA
100
AcDbEntity
  8
DRAFT
100
AcDbLine
 62
7
  6
CONTINUOUS
 10
-19.8442736703
 20
-0.0900305412
 11
-19.5818076798
 21
-0.1162111446
  0
LINE
  5
2AB
100
AcDbEntity
  8
RACCORDO
100
AcDbLine
 62
253
  6
CONTINUOUS
 10
21.946514547
 20
-0.1449244677
 11
21.9369092085
 21
-0.1451562747
  0
LINE
  5
2AC
100
AcDbEntity
  8
RACCORDO
100
AcDbLine
 62
253
  6
CONTINUOUS
 10
22.1493546925
 20
-0.3447049001
 11
22.1375864995
 21
-0.344956543
  0
LINE
  5
2AD
100
AcDbEntity
  8
RACCORDO
100
AcDbLine
 62
253
  6
CONTINUOUS
 10
21.9369092085
 20
-0.1451562747
 11
21.9179410395
 21
-0.145486544
  0
LINE
  5
2AE
100
AcDbEntity
  8
RACCORDO
100
AcDbLine
 62
253
  6
CONTINUOUS
 10
22.1375864995
 20
-0.344956543
 11
22.1120424733
 21
-0.3453197829
  0
LINE
  5
2AF
100
AcDbEntity
  8
RACCORDO
100
AcDbLine
 62
253
  6
CONTINUOUS
 10
21.9179410395
 20
-0.145486544
 11
21.8847442737
 21
-0.1458844407
  0
LINE
  5
2B0
100
AcDbEntity
  8
RACCORDO
100
AcDbLine
 62
253
  6
CONTINUOUS
 10
22.1120424733
 20
-0.3453197829
 11
22.04979918
 21
-0.3458698511
  0
LINE
  5
2B1
100
AcDbEntity
  8
RACCORDO
100
AcDbLine
 62
253
  6
CONTINUOUS
 10
21.8847442737
 20
-0.1458844407
 11
21.8083796781
 21
-0.1464261221
  0
LINE
  5
2B2
100
AcDbEntity
  8
RACCORDO
100
AcDbLine
 62
253
  6
CONTINUOUS
 10
22.04979918
 20
-0.3458698511
 11
21.8654291656
 21
-0.3466593043
  0
LINE
  5
2B3
100
AcDbEntity
  8
RACCORDO
100
AcDbLine
 62
253
  6
CONTINUOUS
 10
-21.9840899768
 20
0.1663016058
 11
-21.8517369804
 21
0.1666965992
  0
LINE
  5
2B4
100
AcDbEntity
  8
RACCORDO
100
AcDbLine
 62
253
  6
CONTINUOUS
 10
21.8083796781
 20
-0.1464261221
 11
21.6740546433
 21
-0.1467663589
  0
LINE
  5
2B5
100
AcDbEntity
  8
RACCORDO
100
AcDbLine
 62
253
  6
CONTINUOUS
 10
21.8654291656
 20
-0.3466593043
 11
-21.8234998522
 21
-0.346904437
  0
LINE
  5
2B6
100
AcDbEntity
  8
RACCORDO
100
AcDbLine
 62
253
  6
CONTINUOUS
 10
21.6740546433
 20
-0.1467663589
 11
-21.8235123341
 21
-0.1467693019
  0
LINE
  5
2B7
100
AcDbEntity
  8
DRAFT
100
AcDbLine
 62
7
  6
CONTINUOUS
 10
-19.5818076798
 20
-0.1162111446
 11
19.4181923202
 21
-0.1162111446
  0
LINE
  5
2B8
100
AcDbEntity
  8
RACCORDO
100
AcDbLine
 62
7
  6
CONTINUOUS
 10
-22.2318076786
 20
-0.0900305412
 11
-19.8442736703
 21
-0.0900305412
  0
LINE
  5
2B9
100
AcDbEntity
  8
RACCORDO
100
AcDbLine
 62
7
  6
CONTINUOUS
 10
19.6806583108
 20
-0.0900305412
 11
22.0681923191
 21
-0.0900305412
  0
LINE
  5
2BA
100
AcDbEntity
  8
RACCORDO
100
AcDbLine
 62
7
  6
CONTINUOUS
 10
22.0681923191
 20
0.1099694588
 11
19.6806583108
 21
0.1099694588
  0
LINE
  5
2BB
100
AcDbEntity
  8
RACCORDO
100
AcDbLine
 62
7
  6
CONTINUOUS
 10
-19.8442736703
 20
0.1099694588
 11
-22.2318076786
 21
0.1099694588
  0
LINE
  5
2BC
100
AcDbEntity
  8
DRAFT
100
AcDbLine
 62
7
  6
CONTINUOUS
 10
19.4181923202
 20
0.1361500621
 11
-19.5818076798
 21
0.1361500621
  0
LINE
  5
2BD
100
AcDbEntity
  8
RACCORDO
100
AcDbLine
 62
253
  6
CONTINUOUS
 10
-21.8517369804
 20
0.1666965992
 11
21.6598969746
 21
0.1667082194
  0
LINE
  5
2BE
100
AcDbEntity
  8
RACCORDO
100
AcDbLine
 62
253
  6
CONTINUOUS
 10
-21.8234998522
 20
-0.3469044422
 11
-22.0709817089
 21
-0.3465411819
  0
LINE
  5
2BF
100
AcDbEntity
  8
RACCORDO
100
AcDbLine
 62
253
  6
CONTINUOUS
 10
-21.8235123341
 20
-0.1467693019
 11
-21.9595450777
 21
-0.1464846613
  0
LINE
  5
2C0
100
AcDbEntity
  8
RACCORDO
100
AcDbLine
 62
253
  6
CONTINUOUS
 10
21.6598969746
 20
0.1667082194
 11
21.7959297182
 21
0.1664235788
  0
LINE
  5
2C1
100
AcDbEntity
  8
RACCORDO
100
AcDbLine
 62
253
  6
CONTINUOUS
 10
21.7959297182
 20
0.1664235788
 11
21.8204746171
 21
0.1663016058
  0
LINE
  5
2C2
100
AcDbEntity
  8
RACCORDO
100
AcDbLine
 62
253
  6
CONTINUOUS
 10
-22.0709817089
 20
-0.3465411819
 11
-22.2277118305
 21
-0.345766417
  0
LINE
  5
2C3
100
AcDbEntity
  8
RACCORDO
100
AcDbLine
 62
253
  6
CONTINUOUS
 10
-21.9595450777
 20
-0.1464846613
 11
-22.0387692706
 21
-0.145974788
  0
LINE
  5
2C4
100
AcDbEntity
  8
RACCORDO
100
AcDbLine
 62
253
  6
CONTINUOUS
 10
-22.2277118305
 20
-0.345766417
 11
-22.2756578327
 21
-0.3453197829
  0
LINE
  5
2C5
100
AcDbEntity
  8
RACCORDO
100
AcDbLine
 62
253
  6
CONTINUOUS
 10
-22.0387692706
 20
-0.145974788
 11
-22.0740776365
 21
-0.1455909704
  0
LINE
  5
2C6
100
AcDbEntity
  8
RACCORDO
100
AcDbLine
 62
253
  6
CONTINUOUS
 10
-22.2756578327
 20
-0.3453197829
 11
-22.3012018589
 21
-0.344956543
  0
LINE
  5
2C7
100
AcDbEntity
  8
RACCORDO
100
AcDbLine
 62
253
  6
CONTINUOUS
 10
-22.0740776365
 20
-0.1455909704
 11
-22.0948046197
 21
-0.1452688509
  0
LWPOLYLINE
  5
2C8
100
AcDbEntity
  8
RACCORDO
100
AcDbPolyline
 62
253
  6
CONTINUOUS
 90
9
 70
0
 10
-22.0948046197
 20
-0.1452688509
 10
-22.1056443276
 20
-0.1450412248
 10
-22.1101299064
 20
-0.1449244677
 10
-22.1139770472
 20
-0.1448059871
 10
-22.1171900072
 20
-0.1446857994
 10
-22.1197475658
 20
-0.1445647202
 10
-22.1216426497
 20
-0.1444430211
 10
-22.1228823321
 20
-0.1443204305
 10
-22.1234666133
 20
-0.1441969484
  0
LWPOLYLINE
  5
2C9
100
AcDbEntity
  8
RACCORDO
100
AcDbPolyline
 62
253
  6
CONTINUOUS
 90
6
 70
0
 10
-22.3012018589
 20
-0.344956543
 10
-22.3129700519
 20
-0.3447049001
 10
-22.3172334168
 20
-0.3445772154
 10
-22.3204030567
 20
-0.3444488227
 10
-22.3224721142
 20
-0.3443195162
 10
-22.3234361523
 20
-0.344189333
  0
LINE
  5
2CA
100
AcDbEntity
  8
DRAFT
100
AcDbLine
 62
7
  6
CONTINUOUS
 10
-19.8442736703
 20
0.1099694588
 11
-19.5818076798
 21
0.1361500621
  0
LINE
  5
2CB
100
AcDbEntity
  8
RACCORDO
100
AcDbLine
 62
253
  6
CONTINUOUS
 10
-22.1101299065
 20
0.1648633852
 11
-22.100524568
 21
0.1650951922
  0
LINE
  5
2CC
100
AcDbEntity
  8
RACCORDO
100
AcDbLine
 62
253
  6
CONTINUOUS
 10
-22.312970052
 20
0.3646438176
 11
-22.301201859
 21
0.3648954605
  0
LINE
  5
2CD
100
AcDbEntity
  8
RACCORDO
100
AcDbLine
 62
253
  6
CONTINUOUS
 10
-22.100524568
 20
0.1650951922
 11
-22.081556399
 21
0.1654254615
  0
LINE
  5
2CE
100
AcDbEntity
  8
RACCORDO
100
AcDbLine
 62
253
  6
CONTINUOUS
 10
-22.301201859
 20
0.3648954605
 11
-22.2756578328
 21
0.3652587004
  0
LINE
  5
2CF
100
AcDbEntity
  8
RACCORDO
100
AcDbLine
 62
253
  6
CONTINUOUS
 10
-22.081556399
 20
0.1654254615
 11
-22.0483596332
 21
0.1658233582
  0
LINE
  5
2D0
100
AcDbEntity
  8
RACCORDO
100
AcDbLine
 62
253
  6
CONTINUOUS
 10
-22.2756578328
 20
0.3652587004
 11
-22.2134145395
 21
0.3658087686
  0
LINE
  5
2D1
100
AcDbEntity
  8
RACCORDO
100
AcDbLine
 62
253
  6
CONTINUOUS
 10
-22.0483596332
 20
0.1658233582
 11
-21.9840899768
 21
0.1663016058
  0
LINE
  5
2D2
100
AcDbEntity
  8
RACCORDO
100
AcDbLine
 62
253
  6
CONTINUOUS
 10
-22.2134145395
 20
0.3658087686
 11
-22.0290445251
 21
0.3665982218
  0
LINE
  5
2D3
100
AcDbEntity
  8
RACCORDO
100
AcDbLine
 62
253
  6
CONTINUOUS
 10
-22.0290445251
 20
0.3665982218
 11
21.6598844926
 21
0.3668433545
  0
LINE
  5
2D4
100
AcDbEntity
  8
RACCORDO
100
AcDbLine
 62
253
  6
CONTINUOUS
 10
21.6598844926
 20
0.3668433597
 11
21.9073663494
 21
0.3664800994
  0
LINE
  5
2D5
100
AcDbEntity
  8
RACCORDO
100
AcDbLine
 62
253
  6
CONTINUOUS
 10
21.9073663494
 20
0.3664800994
 11
22.064096471
 21
0.3657053345
  0
LINE
  5
2D6
100
AcDbEntity
  8
RACCORDO
100
AcDbLine
 62
253
  6
CONTINUOUS
 10
21.8204746171
 20
0.1663016058
 11
21.8847442736
 21
0.1658233582
  0
LINE
  5
2D7
100
AcDbEntity
  8
RACCORDO
100
AcDbLine
 62
253
  6
CONTINUOUS
 10
22.064096471
 20
0.3657053345
 11
22.1120424732
 21
0.3652587004
  0
LINE
  5
2D8
100
AcDbEntity
  8
RACCORDO
100
AcDbLine
 62
253
  6
CONTINUOUS
 10
21.8847442736
 20
0.1658233582
 11
21.9179410394
 21
0.1654254615
  0
LINE
  5
2D9
100
AcDbEntity
  8
RACCORDO
100
AcDbLine
 62
253
  6
CONTINUOUS
 10
22.1120424732
 20
0.3652587004
 11
22.1375864994
 21
0.3648954605
  0
LINE
  5
2DA
100
AcDbEntity
  8
RACCORDO
100
AcDbLine
 62
253
  6
CONTINUOUS
 10
21.9179410394
 20
0.1654254615
 11
21.9369092084
 21
0.1650951922
  0
LWPOLYLINE
  5
2DB
100
AcDbEntity
  8
RACCORDO
100
AcDbPolyline
 62
253
  6
CONTINUOUS
 90
6
 70
0
 10
22.1375864994
 20
0.3648954605
 10
22.1493546924
 20
0.3646438176
 10
22.1536180573
 20
0.364516133
 10
22.1567876972
 20
0.3643877402
 10
22.1588567547
 20
0.3642584337
 10
22.1598207928
 20
0.3641282505
  0
LWPOLYLINE
  5
2DC
100
AcDbEntity
  8
RACCORDO
100
AcDbPolyline
 62
253
  6
CONTINUOUS
 90
8
 70
0
 10
21.9369092084
 20
0.1650951922
 10
21.9465145469
 20
0.1648633852
 10
21.9503616877
 20
0.1647449046
 10
21.9535746477
 20
0.1646247169
 10
21.9561322063
 20
0.1645036377
 10
21.9580272902
 20
0.1643819387
 10
21.9592669726
 20
0.1642593481
 10
21.9598512538
 20
0.1641358659
  0
LINE
  5
2DD
100
AcDbEntity
  8
DRAFT
100
AcDbLine
 62
7
  6
CONTINUOUS
 10
19.6806583108
 20
0.1099694588
 11
19.4181923202
 21
0.1361500621
  0
LWPOLYLINE
  5
2DE
100
AcDbEntity
  8
RACCORDO
100
AcDbPolyline
 62
253
  6
CONTINUOUS
 90
5
 70
0
 10
-22.3234361523
 20
0.3641282505
 10
-22.3224721142
 20
0.3642584337
 10
-22.3204030568
 20
0.3643877402
 10
-22.3172334169
 20
0.3645161329
 10
-22.312970052
 20
0.3646438176
  0
LWPOLYLINE
  5
2DF
100
AcDbEntity
  8
RACCORDO
100
AcDbPolyline
 62
253
  6
CONTINUOUS
 90
7
 70
0
 10
-22.1234666133
 20
0.1641358659
 10
-22.1228823322
 20
0.164259348
 10
-22.1216426497
 20
0.1643819387
 10
-22.1197475659
 20
0.1645036377
 10
-22.1171900072
 20
0.1646247169
 10
-22.1139770473
 20
0.1647449046
 10
-22.1101299065
 20
0.1648633852
  0
LINE
  5
2E0
100
AcDbEntity
  8
RACCORDO
100
AcDbLine
 62
253
  6
CONTINUOUS
 10
22.0681923191
 20
-0.0900305412
 11
21.9598512538
 21
-0.1441969484
  0
LINE
  5
2E1
100
AcDbEntity
  8
RACCORDO
100
AcDbLine
 62
253
  6
CONTINUOUS
 10
22.2681923202
 20
-0.290007696
 11
22.1598207928
 21
-0.344189333
  0
LINE
  5
2E2
100
AcDbEntity
  8
RACCORDO
100
AcDbLine
 62
253
  6
CONTINUOUS
 10
21.9598512538
 20
0.1641358659
 11
22.0681923191
 21
0.1099694588
  0
LINE
  5
2E3
100
AcDbEntity
  8
RACCORDO
100
AcDbLine
 62
253
  6
CONTINUOUS
 10
22.1598207928
 20
0.3641282505
 11
22.2681923202
 21
0.3099466135
  0
LINE
  5
2E4
100
AcDbEntity
  8
RACCORDO
100
AcDbLine
 62
253
  6
CONTINUOUS
 10
21.7546585919
 20
22.2214507463
 11
21.6837977343
 21
22.0086952967
  0
LINE
  5
2E5
100
AcDbEntity
  8
RACCORDO
100
AcDbLine
 62
253
  6
CONTINUOUS
 10
22.2550384152
 20
21.7235050185
 11
22.1837213767
 21
21.5093799133
  0
LINE
  5
2E6
100
AcDbEntity
  8
RACCORDO
100
AcDbLine
 62
253
  6
CONTINUOUS
 10
21.6837977343
 20
-21.9887563791
 11
21.7546585919
 21
-22.2015118288
  0
LINE
  5
2E7
100
AcDbEntity
  8
RACCORDO
100
AcDbLine
 62
253
  6
CONTINUOUS
 10
22.1837213767
 20
-21.4894409958
 11
22.2550384152
 21
-21.703566101
  0
LWPOLYLINE
  5
2E8
100
AcDbEntity
  8
RACCORDO
100
AcDbPolyline
 62
253
  6
CONTINUOUS
 90
12
 70
0
 10
22.1837213767
 20
21.5093799133
 10
22.1831078524
 20
21.5069129276
 10
22.1824976729
 20
21.5032249728
 10
22.1818908382
 20
21.498316049
 10
22.1812865928
 20
21.4921770586
 10
22.1806856923
 20
21.4848170992
 10
22.1800904027
 20
21.4762634635
 10
22.1795007547
 20
21.4665116885
 10
22.1789167178
 20
21.4555662372
 10
22.1783404658
 20
21.443467791
 10
22.1777720323
 20
21.4302121329
 10
22.1766605934
 20
21.4002951646
  0
LWPOLYLINE
  5
2E9
100
AcDbEntity
  8
RACCORDO
100
AcDbPolyline
 62
253
  6
CONTINUOUS
 90
10
 70
0
 10
21.6837976653
 20
22.0086952966
 10
21.6831839711
 20
22.005008433
 10
21.6825736706
 20
21.9994730016
 10
21.6819667639
 20
21.9920958154
 10
21.6813625139
 20
21.9828859819
 10
21.6807616575
 20
21.9718548503
 10
21.6801664059
 20
21.9590159703
 10
21.6795767683
 20
21.9443850503
 10
21.6789927355
 20
21.9279802234
 10
21.6778480724
 20
21.8899332544
  0
LWPOLYLINE
  5
2EA
100
AcDbEntity
  8
RACCORDO
100
AcDbPolyline
 62
253
  6
CONTINUOUS
 90
10
 70
0
 10
22.1783404658
 20
-21.4235288734
 10
22.1789167178
 20
-21.4356273196
 10
22.1795007547
 20
-21.4465727709
 10
22.1800904027
 20
-21.4563245459
 10
22.1806856923
 20
-21.4648781816
 10
22.1812865928
 20
-21.472238141
 10
22.1818908382
 20
-21.4783771314
 10
22.1824976729
 20
-21.4832860553
 10
22.1831078524
 20
-21.4869740101
 10
22.1837213767
 20
-21.4894409958
  0
LWPOLYLINE
  5
2EB
100
AcDbEntity
  8
RACCORDO
100
AcDbPolyline
 62
253
  6
CONTINUOUS
 90
8
 70
0
 10
21.6795767683
 20
-21.9244461327
 10
21.6801664059
 20
-21.9390770527
 10
21.6807616575
 20
-21.9519159327
 10
21.6813625138
 20
-21.9629470643
 10
21.6819667639
 20
-21.9721568979
 10
21.6825736706
 20
-21.9795340841
 10
21.6831839711
 20
-21.9850695155
 10
21.6837976653
 20
-21.9887563791
  0
LINE
  5
2EC
100
AcDbEntity
  8
RACCORDO
100
AcDbLine
 62
253
  6
CONTINUOUS
 10
21.6784164908
 20
-21.8898831521
 11
21.6795767683
 21
-21.9244461327
  0
LINE
  5
2ED
100
AcDbEntity
  8
RACCORDO
100
AcDbLine
 62
253
  6
CONTINUOUS
 10
21.6772874421
 20
-21.8483993669
 11
21.6784164908
 21
-21.8898831521
  0
LINE
  5
2EE
100
AcDbEntity
  8
RACCORDO
100
AcDbLine
 62
253
  6
CONTINUOUS
 10
21.6761957873
 20
-21.8001995932
 11
21.6772874421
 21
-21.8483993669
  0
LINE
  5
2EF
100
AcDbEntity
  8
RACCORDO
100
AcDbLine
 62
253
  6
CONTINUOUS
 10
21.6778480724
 20
21.8899332544
 11
21.6761957873
 21
21.8201385109
  0
LINE
  5
2F0
100
AcDbEntity
  8
RACCORDO
100
AcDbLine
 62
7
  6
CONTINUOUS
 10
18.9739821945
 20
22.2214507463
 11
18.6259273472
 21
22.1898567858
  0
LINE
  5
2F1
100
AcDbEntity
  8
RACCORDO
100
AcDbLine
 62
253
  6
CONTINUOUS
 10
-22.1426008762
 20
20.5677291043
 11
-22.1005186676
 21
20.5689983102
  0
LINE
  5
2F2
100
AcDbEntity
  8
RACCORDO
100
AcDbLine
 62
253
  6
CONTINUOUS
 10
-22.1005186676
 20
20.5689983102
 11
-22.0555474798
 21
20.5700840516
  0
LINE
  5
2F3
100
AcDbEntity
  8
RACCORDO
100
AcDbLine
 62
253
  6
CONTINUOUS
 10
-22.0555474798
 20
20.5700840516
 11
-22.0081691569
 21
20.5709746953
  0
LINE
  5
2F4
100
AcDbEntity
  8
RACCORDO
100
AcDbLine
 62
253
  6
CONTINUOUS
 10
-22.0081691569
 20
20.5709746953
 11
-21.9588913342
 21
20.5716606985
  0
LINE
  5
2F5
100
AcDbEntity
  8
RACCORDO
100
AcDbLine
 62
253
  6
CONTINUOUS
 10
-21.9588913342
 20
20.5716606985
 11
-21.908241999
 21
20.572134711
  0
LINE
  5
2F6
100
AcDbEntity
  8
RACCORDO
100
AcDbLine
 62
253
  6
CONTINUOUS
 10
-21.908241999
 20
20.572134711
 11
-21.830886118
 21
20.5724377722
  0
LINE
  5
2F7
100
AcDbEntity
  8
RACCORDO
100
AcDbLine
 62
253
  6
CONTINUOUS
 10
21.7189568418
 20
20.5722905543
 11
-21.8308861031
 21
20.5724240944
  0
LINE
  5
2F8
100
AcDbEntity
  8
RACCORDO
100
AcDbLine
 62
253
  6
CONTINUOUS
 10
21.7700891339
 20
20.5719245857
 11
21.7189568418
 21
20.5722905543
  0
LINE
  5
2F9
100
AcDbEntity
  8
RACCORDO
100
AcDbLine
 62
253
  6
CONTINUOUS
 10
21.8201197775
 20
20.5713437991
 11
21.7700891339
 21
20.5719245857
  0
LINE
  5
2FA
100
AcDbEntity
  8
RACCORDO
100
AcDbLine
 62
253
  6
CONTINUOUS
 10
21.8685127187
 20
20.5705544171
 11
21.8201197775
 21
20.5713437991
  0
LINE
  5
2FB
100
AcDbEntity
  8
RACCORDO
100
AcDbLine
 62
253
  6
CONTINUOUS
 10
21.9147494508
 20
20.5695648977
 11
21.8685127187
 21
20.5705544171
  0
LWPOLYLINE
  5
2FC
100
AcDbEntity
  8
RACCORDO
100
AcDbPolyline
 62
253
  6
CONTINUOUS
 90
3
 70
0
 10
21.9789855902
 20
20.5677291122
 10
21.9583345699
 20
20.5683858431
 10
21.9147494508
 20
20.5695648977
  0
LINE
  5
2FD
100
AcDbEntity
  8
RACCORDO
100
AcDbLine
 62
7
  6
CONTINUOUS
 10
-19.137597554
 20
22.2214507463
 11
-18.7895427067
 21
22.1898567858
  0
LINE
  5
2FE
100
AcDbEntity
  8
RACCORDO
100
AcDbLine
 62
253
  6
CONTINUOUS
 10
22.1772113837
 20
-21.3958645623
 11
22.1783404658
 21
-21.4235288734
  0
LWPOLYLINE
  5
2FF
100
AcDbEntity
  8
RACCORDO
100
AcDbPolyline
 62
253
  6
CONTINUOUS
 90
25
 70
0
 10
22.1598207928
 20
-0.344189333
 10
22.159390733
 20
-0.3311104555
 10
22.1581063781
 20
-0.3180875738
 10
22.155973227
 20
-0.3051764432
 10
22.1530004127
 20
-0.2924323405
 10
22.1492006628
 20
-0.2799098274
 10
22.1445902458
 20
-0.2676625173
 10
22.1391889004
 20
-0.2557428449
 10
22.133019752
 20
-0.2442018422
 10
22.1261092129
 20
-0.2330889202
 10
22.1184868699
 20
-0.2224516568
 10
22.1101853568
 20
-0.2123355934
 10
22.1012402157
 20
-0.2027840402
 10
22.0916897438
 20
-0.1938378904
 10
22.08157483
 20
-0.1855354449
 10
22.07093878
 20
-0.1779122491
 10
22.0598271304
 20
-0.17100094
 10
22.0482874538
 20
-0.1648311068
 10
22.0363691557
 20
-0.1594291642
 10
22.0241232623
 20
-0.1548182393
 10
22.0116022023
 20
-0.1510180724
 10
21.9988595823
 20
-0.1480449329
 10
21.9859499577
 20
-0.1459115493
 10
21.9729285987
 20
-0.1446270548
 10
21.9598512538
 20
-0.1441969484
  0
LINE
  5
300
100
AcDbEntity
  8
RACCORDO
100
AcDbLine
 62
253
  6
CONTINUOUS
 10
22.1761196971
 20
-21.3637441938
 11
22.1772113837
 21
-21.3958645623
  0
LWPOLYLINE
  5
301
100
AcDbEntity
  8
RACCORDO
100
AcDbPolyline
 62
253
  6
CONTINUOUS
 90
31
 70
0
 10
22.1837213767
 20
21.5093799133
 10
22.1830131611
 20
21.5354968529
 10
22.1809382212
 20
21.5615422913
 10
22.1775022375
 20
21.587444923
 10
22.1727146169
 20
21.6131338331
 10
22.1665884666
 20
21.6385386919
 10
22.1591405583
 20
21.6635899476
 10
22.1503912824
 20
21.6882190161
 10
22.1403645921
 20
21.7123584693
 10
22.1290879379
 20
21.7359422197
 10
22.1165921923
 20
21.7589057008
 10
22.1029115654
 20
21.7811860445
 10
22.0880835112
 20
21.8027222529
 10
22.0721486251
 20
21.8234553653
 10
22.0551505326
 20
21.8433286197
 10
22.0371357702
 20
21.8622876082
 10
22.0181536576
 20
21.8802804258
 10
21.998256163
 20
21.8972578127
 10
21.9774977606
 20
21.9131732892
 10
21.9559352816
 20
21.9279832826
 10
21.9336277586
 20
21.9416472469
 10
21.9106362638
 20
21.9541277736
 10
21.8870237422
 20
21.9653906942
 10
21.8628548387
 20
21.9754051736
 10
21.8381957218
 20
21.9841437946
 10
21.8131139018
 20
21.9915826332
 10
21.7876780463
 20
21.9977013235
 10
21.7619577922
 20
22.0024831143
 10
21.7360235553
 20
22.0059149141
 10
21.7099463366
 20
22.0079873275
 10
21.6837975291
 20
22.0086946807
  0
LINE
  5
302
100
AcDbEntity
  8
RACCORDO
100
AcDbLine
 62
253
  6
CONTINUOUS
 10
22.1745620979
 20
-21.3075028364
 11
22.1761196971
 21
-21.3637441938
  0
LINE
  5
303
100
AcDbEntity
  8
RACCORDO
100
AcDbLine
 62
253
  6
CONTINUOUS
 10
22.1731165688
 20
-21.2421750328
 11
22.1745620979
 21
-21.3075028364
  0
LINE
  5
304
100
AcDbEntity
  8
RACCORDO
100
AcDbLine
 62
253
  6
CONTINUOUS
 10
21.6741427224
 20
-21.6846372515
 11
21.6761957873
 21
-21.8001995932
  0
LINE
  5
305
100
AcDbEntity
  8
RACCORDO
100
AcDbLine
 62
253
  6
CONTINUOUS
 10
22.1713908213
 20
-21.1421863803
 11
22.1731165688
 21
-21.2421750328
  0
LINE
  5
306
100
AcDbEntity
  8
RACCORDO
100
AcDbLine
 62
253
  6
CONTINUOUS
 10
21.6718754172
 20
-21.5073190797
 11
21.6741427224
 21
-21.6846372515
  0
LINE
  5
307
100
AcDbEntity
  8
RACCORDO
100
AcDbLine
 62
253
  6
CONTINUOUS
 10
22.1696060095
 20
-20.9994037628
 11
22.1713908213
 21
-21.1421863803
  0
LINE
  5
308
100
AcDbEntity
  8
RACCORDO
100
AcDbLine
 62
253
  6
CONTINUOUS
 10
21.6690952608
 20
-21.1610293326
 11
21.6718754172
 21
-21.5073190797
  0
LINE
  5
309
100
AcDbEntity
  8
RACCORDO
100
AcDbLine
 62
253
  6
CONTINUOUS
 10
22.168079784
 20
-20.8077540877
 11
22.1696060095
 21
-20.9994037628
  0
LINE
  5
30A
100
AcDbEntity
  8
RACCORDO
100
AcDbLine
 62
253
  6
CONTINUOUS
 10
22.1672307688
 20
-20.5671048036
 11
22.168079784
 21
-20.8077540877
  0
LINE
  5
30B
100
AcDbEntity
  8
RACCORDO
100
AcDbLine
 62
7
  6
CONTINUOUS
 10
22.2681923202
 20
13.1099694588
 11
22.2550384152
 21
21.7235050185
  0
LINE
  5
30C
100
AcDbEntity
  8
RACCORDO
100
AcDbLine
 62
253
  6
CONTINUOUS
 10
21.6673644563
 20
-20.6576684674
 11
21.6690952608
 21
-21.1610293326
  0
LINE
  5
30D
100
AcDbEntity
  8
RACCORDO
100
AcDbLine
 62
253
  6
CONTINUOUS
 10
21.6650527069
 20
-17.1861793033
 11
21.6673644563
 21
-20.6576684674
  0
LINE
  5
30E
100
AcDbEntity
  8
RACCORDO
100
AcDbLine
 62
253
  6
CONTINUOUS
 10
22.1649763195
 20
-17.1685664576
 11
22.1672307688
 21
-20.5671048036
  0
LINE
  5
30F
100
AcDbEntity
  8
RACCORDO
100
AcDbLine
 62
253
  6
CONTINUOUS
 10
21.6618034953
 20
-10.4518284599
 11
21.6650527069
 21
-17.1861793033
  0
LINE
  5
310
100
AcDbEntity
  8
RACCORDO
100
AcDbLine
 62
253
  6
CONTINUOUS
 10
22.1617269105
 20
-10.4401829327
 11
22.1649763195
 21
-17.1685664576
  0
LINE
  5
311
100
AcDbEntity
  8
RACCORDO
100
AcDbLine
 62
253
  6
CONTINUOUS
 10
21.6601340265
 20
-3.7155854434
 11
21.6618034953
 21
-10.4518284599
  0
LINE
  5
312
100
AcDbEntity
  8
RACCORDO
100
AcDbLine
 62
253
  6
CONTINUOUS
 10
22.1600603913
 20
-3.7099140955
 11
22.1617269105
 21
-10.4401829327
  0
LINE
  5
313
100
AcDbEntity
  8
RACCORDO
100
AcDbLine
 62
253
  6
CONTINUOUS
 10
21.6601340265
 20
-3.7155854434
 11
21.6598969746
 21
-0.1467693019
  0
LINE
  5
314
100
AcDbEntity
  8
RACCORDO
100
AcDbLine
 62
253
  6
CONTINUOUS
 10
22.1598207928
 20
-0.344189333
 11
22.1600603913
 21
-3.7099140955
  0
LINE
  5
315
100
AcDbEntity
  8
RACCORDO
100
AcDbLine
 62
7
  6
CONTINUOUS
 10
22.2681923202
 20
-0.290007696
 11
22.2681923202
 21
-13.0900305412
  0
LINE
  5
316
100
AcDbEntity
  8
RACCORDO
100
AcDbLine
 62
7
  6
CONTINUOUS
 10
22.2681923202
 20
0.3099466135
 11
22.2681923202
 21
13.1099694588
  0
LINE
  5
317
100
AcDbEntity
  8
RACCORDO
100
AcDbLine
 62
253
  6
CONTINUOUS
 10
21.6601340265
 20
3.7355243609
 11
21.6598969746
 21
0.1667082194
  0
LINE
  5
318
100
AcDbEntity
  8
RACCORDO
100
AcDbLine
 62
253
  6
CONTINUOUS
 10
22.1600603913
 20
3.729853013
 11
22.1598207928
 21
0.3641282505
  0
LINE
  5
319
100
AcDbEntity
  8
RACCORDO
100
AcDbLine
 62
253
  6
CONTINUOUS
 10
21.6612389134
 20
8.7878682963
 11
21.6601340265
 21
3.7355243609
  0
LINE
  5
31A
100
AcDbEntity
  8
RACCORDO
100
AcDbLine
 62
253
  6
CONTINUOUS
 10
22.1611618754
 20
8.7777152214
 11
22.1600603913
 21
3.729853013
  0
LINE
  5
31B
100
AcDbEntity
  8
RACCORDO
100
AcDbLine
 62
253
  6
CONTINUOUS
 10
21.6650527069
 20
17.2061182208
 11
21.6612389134
 21
8.7878682963
  0
LINE
  5
31C
100
AcDbEntity
  8
RACCORDO
100
AcDbLine
 62
253
  6
CONTINUOUS
 10
22.1649763195
 20
17.1885053751
 11
22.1611618754
 21
8.7777152214
  0
LINE
  5
31D
100
AcDbEntity
  8
RACCORDO
100
AcDbLine
 62
7
  6
CONTINUOUS
 10
22.2681923202
 20
-13.0900305412
 11
22.2550384152
 21
-21.703566101
  0
LINE
  5
31E
100
AcDbEntity
  8
RACCORDO
100
AcDbLine
 62
253
  6
CONTINUOUS
 10
21.6685856337
 20
21.0849871025
 11
21.6650527069
 21
17.2061182208
  0
LINE
  5
31F
100
AcDbEntity
  8
RACCORDO
100
AcDbLine
 62
253
  6
CONTINUOUS
 10
22.1678953274
 20
20.7941149669
 11
22.1649763195
 21
17.1885053751
  0
LINE
  5
320
100
AcDbEntity
  8
RACCORDO
100
AcDbLine
 62
253
  6
CONTINUOUS
 10
21.6710755066
 20
21.4472095614
 11
21.6685856337
 21
21.0849871025
  0
LINE
  5
321
100
AcDbEntity
  8
RACCORDO
100
AcDbLine
 62
253
  6
CONTINUOUS
 10
22.1693028663
 20
20.9887234278
 11
22.1678953274
 21
20.7941149669
  0
LINE
  5
322
100
AcDbEntity
  8
RACCORDO
100
AcDbLine
 62
253
  6
CONTINUOUS
 10
22.1709992871
 20
21.1350512456
 11
22.1693028663
 21
20.9887234278
  0
LINE
  5
323
100
AcDbEntity
  8
RACCORDO
100
AcDbLine
 62
253
  6
CONTINUOUS
 10
21.6736608761
 20
21.6718990944
 11
21.6710755066
 21
21.4472095614
  0
LINE
  5
324
100
AcDbEntity
  8
RACCORDO
100
AcDbLine
 62
253
  6
CONTINUOUS
 10
22.1726620858
 20
21.238422
 11
22.1709992871
 21
21.1350512456
  0
LWPOLYLINE
  5
325
100
AcDbEntity
  8
RACCORDO
100
AcDbPolyline
 62
253
  6
CONTINUOUS
 90
3
 70
0
 10
21.6761957873
 20
21.8201385109
 10
21.6756647629
 20
21.7935933494
 10
21.6736608761
 20
21.6718990944
  0
LINE
  5
326
100
AcDbEntity
  8
RACCORDO
100
AcDbLine
 62
253
  6
CONTINUOUS
 10
22.1740665748
 20
21.3066238275
 11
22.1726620858
 21
21.238422
  0
LWPOLYLINE
  5
327
100
AcDbEntity
  8
RACCORDO
100
AcDbPolyline
 62
253
  6
CONTINUOUS
 90
31
 70
0
 10
22.1837213767
 20
-21.4894409958
 10
22.1830131608
 20
-21.5155579411
 10
22.18093822
 20
-21.5416033848
 10
22.177502235
 20
-21.5675060213
 10
22.1727146127
 20
-21.5931949356
 10
22.1665884602
 20
-21.6185997982
 10
22.1591405496
 20
-21.6436510569
 10
22.1503912711
 20
-21.6682801279
 10
22.1403645782
 20
-21.692419583
 10
22.1290879213
 20
-21.7160033346
 10
22.1165921731
 20
-21.7389668164
 10
22.1029115438
 20
-21.7612471603
 10
22.0880834873
 20
-21.7827833683
 10
22.0721485991
 20
-21.8035164798
 10
22.0551505049
 20
-21.8233897329
 10
22.0371357412
 20
-21.8423487197
 10
22.0181536276
 20
-21.8603415352
 10
21.9982561325
 20
-21.8773189199
 10
21.9774977301
 20
-21.8932343938
 10
21.9559352515
 20
-21.9080443846
 10
21.9336277294
 20
-21.9217083462
 10
21.910636236
 20
-21.9341888703
 10
21.8870237161
 20
-21.9454517883
 10
21.8628548149
 20
-21.9554662652
 10
21.8381957006
 20
-21.964204884
 10
21.8131138835
 20
-21.9716437206
 10
21.7876780313
 20
-21.9777624092
 10
21.7619577808
 20
-21.9825441986
 10
21.7360235475
 20
-21.9859759974
 10
21.7099463327
 20
-21.9880484102
 10
21.6837975291
 20
-21.9887557632
  0
LINE
  5
328
100
AcDbEntity
  8
RACCORDO
100
AcDbLine
 62
253
  6
CONTINUOUS
 10
22.1755886591
 20
21.365971396
 11
22.1740665748
 21
21.3066238275
  0
LINE
  5
329
100
AcDbEntity
  8
RACCORDO
100
AcDbLine
 62
253
  6
CONTINUOUS
 10
22.1766605934
 20
21.4002951646
 11
22.1755886591
 21
21.365971396
  0
LWPOLYLINE
  5
32A
100
AcDbEntity
  8
RACCORDO
100
AcDbPolyline
 62
253
  6
CONTINUOUS
 90
25
 70
0
 10
22.1598207928
 20
0.3641282505
 10
22.159390734
 20
0.3510493889
 10
22.1581063822
 20
0.3380265222
 10
22.1559732359
 20
0.3251154055
 10
22.1530004281
 20
0.3123713153
 10
22.1492006861
 20
0.2998488134
 10
22.144590278
 20
0.2876015125
 10
22.1391889423
 20
0.2756818473
 10
22.133019804
 20
0.2641408498
 10
22.1261092751
 20
0.2530279307
 10
22.1184869418
 20
0.242390668
 10
22.1101854378
 20
0.2322746033
 10
22.1012403046
 20
0.2227230467
 10
22.0916898391
 20
0.2137768915
 10
22.0815749299
 20
0.2054744391
 10
22.0709388824
 20
0.197851235
 10
22.0598272327
 20
0.1909399166
 10
22.0482875536
 20
0.1847700735
 10
22.03636925
 20
0.1793681207
 10
22.0241233481
 20
0.1747571859
 10
22.0116022766
 20
0.1709570098
 10
21.9988596423
 20
0.1679838623
 10
21.9859500004
 20
0.1658504724
 10
21.9729286213
 20
0.1645659738
 10
21.9598512538
 20
0.1641358659
  0
LINE
  5
32B
100
AcDbEntity
  8
RACCORDO
100
AcDbLine
 62
7
  6
CONTINUOUS
 10
7.7739821945
 20
22.2214507463
 11
7.4259273472
 21
22.1898567858
  0
LINE
  5
32C
100
AcDbEntity
  8
RACCORDO
100
AcDbLine
 62
7
  6
CONTINUOUS
 10
-3.5260178055
 20
22.2214507463
 11
-3.8740726528
 21
22.1898567858
  0
LWPOLYLINE
  5
32D
100
AcDbEntity
  8
RACCORDO
100
AcDbPolyline
 62
253
  6
CONTINUOUS
 90
3
 70
0
 10
-22.199330692
 20
20.5655115492
 10
-22.1624163665
 20
20.5670298789
 10
-22.1426008762
 20
20.5677291043
  0
LINE
  5
32E
100
AcDbEntity
  8
RACCORDO
100
AcDbLine
 62
253
  6
CONTINUOUS
 10
-21.8474130938
 20
22.0086952967
 11
21.6837977343
 21
22.0086952967
  0
LINE
  5
32F
100
AcDbEntity
  8
RACCORDO
100
AcDbLine
 62
7
  6
CONTINUOUS
 10
18.4527222664
 20
22.1846160078
 11
15.0836623741
 21
22.1846160078
  0
LINE
  5
330
100
AcDbEntity
  8
RACCORDO
100
AcDbLine
 62
7
  6
CONTINUOUS
 10
7.2527222664
 20
22.1846160078
 11
3.8836623741
 21
22.1846160078
  0
LINE
  5
331
100
AcDbEntity
  8
RACCORDO
100
AcDbLine
 62
7
  6
CONTINUOUS
 10
-4.0472777336
 20
22.1846160078
 11
-7.4163376259
 21
22.1846160078
  0
LINE
  5
332
100
AcDbEntity
  8
RACCORDO
100
AcDbLine
 62
7
  6
CONTINUOUS
 10
-15.2472777336
 20
22.1846160078
 11
-18.6163376259
 21
22.1846160078
  0
LINE
  5
333
100
AcDbEntity
  8
RACCORDO
100
AcDbLine
 62
7
  6
CONTINUOUS
 10
21.7546585919
 20
22.2214507463
 11
18.9739821945
 21
22.2214507463
  0
LINE
  5
334
100
AcDbEntity
  8
DRAFT
100
AcDbLine
 62
7
  6
CONTINUOUS
 10
14.562402446
 20
22.2214507463
 11
7.7739821945
 21
22.2214507463
  0
LINE
  5
335
100
AcDbEntity
  8
DRAFT
100
AcDbLine
 62
7
  6
CONTINUOUS
 10
3.362402446
 20
22.2214507463
 11
-3.5260178055
 21
22.2214507463
  0
LINE
  5
336
100
AcDbEntity
  8
DRAFT
100
AcDbLine
 62
7
  6
CONTINUOUS
 10
-7.937597554
 20
22.2214507463
 11
-14.7260178055
 21
22.2214507463
  0
LINE
  5
337
100
AcDbEntity
  8
RACCORDO
100
AcDbLine
 62
7
  6
CONTINUOUS
 10
-19.137597554
 20
22.2214507463
 11
-21.9182739514
 21
22.2214507463
  0
LINE
  5
338
100
AcDbEntity
  8
RACCORDO
100
AcDbLine
 62
7
  6
CONTINUOUS
 10
-7.937597554
 20
22.2214507463
 11
-7.5895427067
 21
22.1898567858
  0
LINE
  5
339
100
AcDbEntity
  8
RACCORDO
100
AcDbLine
 62
7
  6
CONTINUOUS
 10
3.362402446
 20
22.2214507463
 11
3.7104572933
 21
22.1898567858
  0
LINE
  5
33A
100
AcDbEntity
  8
RACCORDO
100
AcDbLine
 62
7
  6
CONTINUOUS
 10
-14.7260178055
 20
22.2214507463
 11
-15.0740726528
 21
22.1898567858
  0
LINE
  5
33B
100
AcDbEntity
  8
RACCORDO
100
AcDbLine
 62
7
  6
CONTINUOUS
 10
14.562402446
 20
22.2214507463
 11
14.9104572933
 21
22.1898567858
  0
LWPOLYLINE
  5
33C
100
AcDbEntity
  8
RACCORDO
100
AcDbPolyline
 62
253
  6
CONTINUOUS
 90
15
 70
0
 10
22.1671946061
 20
-20.5319363977
 10
22.1660733447
 20
-20.5330007792
 10
22.1636150817
 20
-20.5340623076
 10
22.1598264064
 20
-20.5351181377
 10
22.1547174739
 20
-20.5361654394
 10
22.1483019784
 20
-20.5372014054
 10
22.1405971161
 20
-20.5382232589
 10
22.1316235394
 20
-20.539228261
 10
22.1214053011
 20
-20.5402137177
 10
22.1099697904
 20
-20.5411769878
 10
22.0973476594
 20
-20.5421154891
 10
22.0835727408
 20
-20.5430267061
 10
22.068681957
 20
-20.5439081964
 10
22.0527152217
 20
-20.5447575972
 10
22.0357153325
 20
-20.5455726317
  0
LWPOLYLINE
  5
33D
100
AcDbEntity
  8
RACCORDO
100
AcDbPolyline
 62
253
  6
CONTINUOUS
 90
17
 70
0
 10
22.1671946061
 20
20.5518753152
 10
22.1660733557
 20
20.5529396971
 10
22.163615103
 20
20.5540012259
 10
22.1598264371
 20
20.5550570564
 10
22.1547175132
 20
20.5561043585
 10
22.1483020255
 20
20.557140325
 10
22.1405971701
 20
20.558162179
 10
22.1316235993
 20
20.5591671815
 10
22.1214053661
 20
20.5601526388
 10
22.1099698597
 20
20.5611159093
 10
22.0973477321
 20
20.5620544111
 10
22.083572816
 20
20.5629656286
 10
22.0686820339
 20
20.5638471194
 10
22.0527152995
 20
20.5646965207
 10
22.0357154103
 20
20.5655115557
 10
22.0177279334
 20
20.5662900398
 10
21.9789855902
 20
20.5677291122
  0
LINE
  5
33E
100
AcDbEntity
  8
RACCORDO
100
AcDbLine
 62
7
  6
CONTINUOUS
 10
-43.4262117273
 20
-21.9887563791
 11
-39.3665959116
 21
-22.2015118288
  0
LINE
  5
33F
100
AcDbEntity
  8
RACCORDO
100
AcDbLine
 62
253
  6
CONTINUOUS
 10
-43.408781705
 20
-21.4894409958
 11
-39.3230313053
 21
-21.703566101
  0
LINE
  5
340
100
AcDbEntity
  8
RACCORDO
100
AcDbLine
 62
253
  6
CONTINUOUS
 10
-44.8457815141
 20
-20.5524527364
 11
-44.8464502884
 21
-20.5524988547
  0
LINE
  5
341
100
AcDbEntity
  8
RACCORDO
100
AcDbLine
 62
253
  6
CONTINUOUS
 10
-44.8404374886
 20
-20.5521957934
 11
-44.8457815141
 21
-20.5524527364
  0
LINE
  5
342
100
AcDbEntity
  8
RACCORDO
100
AcDbLine
 62
253
  6
CONTINUOUS
 10
-44.3555997607
 20
-20.5319363977
 11
-44.8404374886
 21
-20.5521957934
  0
LINE
  5
343
100
AcDbEntity
  8
RACCORDO
100
AcDbLine
 62
253
  6
CONTINUOUS
 10
-38.969444591
 20
-17.9235221425
 11
-38.9923203112
 21
-17.9235221416
  0
LWPOLYLINE
  5
344
100
AcDbEntity
  8
RACCORDO
100
AcDbPolyline
 62
253
  6
CONTINUOUS
 90
6
 70
0
 10
-38.9975522549
 20
18.0702465385
 10
-38.9978314779
 20
18.0698844165
 10
-38.9988458995
 20
18.0691802193
 10
-39.0005922238
 20
18.0681362347
 10
-39.0030647772
 20
18.0667558545
 10
-39.0031053053
 20
18.0667341054
  0
LWPOLYLINE
  5
345
100
AcDbEntity
  8
RACCORDO
100
AcDbPolyline
 62
253
  6
CONTINUOUS
 90
6
 70
0
 10
-38.9975522549
 20
-18.050307621
 10
-38.9978314769
 20
-18.0499454997
 10
-38.9988458953
 20
-18.0492413042
 10
-39.0005922145
 20
-18.0481973223
 10
-39.0030647609
 20
-18.0468169456
 10
-39.0031053053
 20
-18.0467951877
  0
LWPOLYLINE
  5
346
100
AcDbEntity
  8
RACCORDO
100
AcDbPolyline
 62
253
  6
CONTINUOUS
 90
43
 70
0
 10
-44.3555997607
 20
-20.5319363977
 10
-44.3535280011
 20
-20.5671048036
 10
-44.3502333566
 20
-20.6020960974
 10
-44.3457158273
 20
-20.6369102793
 10
-44.3399668006
 20
-20.6715909311
 10
-44.3329948891
 20
-20.7060944709
 10
-44.32482593
 20
-20.7402901531
 10
-44.3154554648
 20
-20.7741760492
 10
-44.304887952
 20
-20.8077540877
 10
-44.2931626045
 20
-20.8408993083
 10
-44.280275182
 20
-20.8736098366
 10
-44.2662299249
 20
-20.905887547
 10
-44.2510787663
 20
-20.9376131029
 10
-44.2348176108
 20
-20.9687845101
 10
-44.217450554
 20
-20.9994037628
 10
-44.1990418155
 20
-21.0293575064
 10
-44.1795874784
 20
-21.0586433452
 10
-44.1590914597
 20
-21.0872636748
 10
-44.1376297306
 20
-21.1151123279
 10
-44.115198751
 20
-21.1421863803
 10
-44.091802061
 20
-21.1684887561
 10
-44.0675262517
 20
-21.1939220598
 10
-44.0423680587
 20
-21.2184830824
 10
-44.0163307463
 20
-21.2421750328
 10
-43.9895106989
 20
-21.2649101426
 10
-43.9619049348
 20
-21.2866849098
 10
-43.9335164356
 20
-21.3075028364
 10
-43.9044505307
 20
-21.3272866597
 10
-43.8747047872
 20
-21.3460324784
 10
-43.844281638
 20
-21.3637441938
 10
-43.8132937105
 20
-21.3803562469
 10
-43.7817389541
 20
-21.3958645623
 10
-43.7496194195
 20
-21.4102732153
 10
-43.7170538858
 20
-21.4235288734
 10
-43.6840404304
 20
-21.4356273196
 10
-43.650580976
 20
-21.4465727709
 10
-43.6168000698
 20
-21.4563245459
 10
-43.5826959511
 20
-21.4648781816
 10
-43.5482703805
 20
-21.472238141
 10
-43.5136531877
 20
-21.4783771314
 10
-43.4788876491
 20
-21.4832860553
 10
-43.4439304882
 20
-21.4869740101
 10
-43.408781705
 20
-21.4894409958
  0
LWPOLYLINE
  5
347
100
AcDbEntity
  8
RACCORDO
100
AcDbPolyline
 62
253
  6
CONTINUOUS
 90
9
 70
0
 10
-44.7778112354
 20
0.1909399166
 10
-44.7776636529
 20
0.1847700735
 10
-44.7775027603
 20
0.1793681207
 10
-44.7773292463
 20
0.1747571859
 10
-44.7771438538
 20
0.1709570098
 10
-44.7769473766
 20
0.1679838623
 10
-44.7767406557
 20
0.1658504724
 10
-44.7765245764
 20
0.1645659738
 10
-44.7763000636
 20
0.1641358659
  0
LINE
  5
348
100
AcDbEntity
  8
RACCORDO
100
AcDbLine
 62
253
  6
CONTINUOUS
 10
-44.778064002
 20
0.2054744391
 11
-44.7778112354
 21
0.1909399166
  0
LINE
  5
349
100
AcDbEntity
  8
RACCORDO
100
AcDbLine
 62
253
  6
CONTINUOUS
 10
-44.778256736
 20
0.2227230467
 11
-44.778064002
 21
0.2054744391
  0
LINE
  5
34A
100
AcDbEntity
  8
RACCORDO
100
AcDbLine
 62
253
  6
CONTINUOUS
 10
-44.7780452378
 20
-0.344189333
 11
-44.7783778643
 21
-0.2924323405
  0
LINE
  5
34B
100
AcDbEntity
  8
RACCORDO
100
AcDbLine
 62
253
  6
CONTINUOUS
 10
-44.7784263588
 20
0.2530279307
 11
-44.778256736
 21
0.2227230467
  0
LWPOLYLINE
  5
34C
100
AcDbEntity
  8
RACCORDO
100
AcDbPolyline
 62
253
  6
CONTINUOUS
 90
13
 70
0
 10
-44.7780452378
 20
-0.344189333
 10
-44.7740161813
 20
-2.0271009096
 10
-44.7643186536
 20
-3.7099140955
 10
-44.7489526546
 20
-5.3926288908
 10
-44.7279178972
 20
-7.0752517927
 10
-44.7012146685
 20
-8.7577763039
 10
-44.6688438298
 20
-10.4401829327
 10
-44.6308057032
 20
-12.1224715442
 10
-44.5870999667
 20
-13.8046422733
 10
-44.5377265146
 20
-15.4866760319
 10
-44.4826853121
 20
-17.1685664576
 10
-44.4219763941
 20
-18.8503199129
 10
-44.3555997607
 20
-20.5319363977
  0
LINE
  5
34D
100
AcDbEntity
  8
RACCORDO
100
AcDbLine
 62
253
  6
CONTINUOUS
 10
-44.7783778643
 20
-0.2924323405
 11
-44.778450002
 21
-0.2442018422
  0
LINE
  5
34E
100
AcDbEntity
  8
RACCORDO
100
AcDbLine
 62
253
  6
CONTINUOUS
 10
-44.7784208212
 20
0.2998488134
 11
-44.7784263588
 21
0.2530279307
  0
LINE
  5
34F
100
AcDbEntity
  8
RACCORDO
100
AcDbLine
 62
253
  6
CONTINUOUS
 10
-44.778450002
 20
-0.2442018422
 11
-44.7783295188
 21
-0.2123355934
  0
LWPOLYLINE
  5
350
100
AcDbEntity
  8
RACCORDO
100
AcDbPolyline
 62
253
  6
CONTINUOUS
 90
3
 70
0
 10
-44.7780452378
 20
0.3641282505
 10
-44.7781518685
 20
0.3510493889
 10
-44.7784208212
 20
0.2998488134
  0
LINE
  5
351
100
AcDbEntity
  8
RACCORDO
100
AcDbLine
 62
253
  6
CONTINUOUS
 10
-44.7783295188
 20
-0.2123355934
 11
-44.7781681037
 21
-0.1938378904
  0
LWPOLYLINE
  5
352
100
AcDbEntity
  8
RACCORDO
100
AcDbPolyline
 62
253
  6
CONTINUOUS
 90
11
 70
0
 10
-44.7781681037
 20
-0.1938378904
 10
-44.7779448752
 20
-0.1779122491
 10
-44.7778112347
 20
-0.17100094
 10
-44.7776636521
 20
-0.1648311068
 10
-44.7775027595
 20
-0.1594291642
 10
-44.7773292455
 20
-0.1548182393
 10
-44.777143853
 20
-0.1510180724
 10
-44.7769473759
 20
-0.1480449329
 10
-44.7767406552
 20
-0.1459115493
 10
-44.7765245761
 20
-0.1446270548
 10
-44.7763000636
 20
-0.1441969484
  0
LWPOLYLINE
  5
353
100
AcDbEntity
  8
RACCORDO
100
AcDbPolyline
 62
253
  6
CONTINUOUS
 90
13
 70
0
 10
-44.3555997607
 20
20.5518753152
 10
-44.4219763941
 20
18.8702588304
 10
-44.4826853121
 20
17.1885053751
 10
-44.5377265146
 20
15.5066149494
 10
-44.5870999667
 20
13.8245811908
 10
-44.6308057032
 20
12.1424104617
 10
-44.6688438298
 20
10.4601218502
 10
-44.7012146685
 20
8.7777152214
 10
-44.7279178972
 20
7.0951907102
 10
-44.7489526546
 20
5.4125678083
 10
-44.7643186536
 20
3.729853013
 10
-44.7740161813
 20
2.0470398271
 10
-44.7780452378
 20
0.3641282505
  0
LWPOLYLINE
  5
354
100
AcDbEntity
  8
RACCORDO
100
AcDbPolyline
 62
253
  6
CONTINUOUS
 90
11
 70
0
 10
-43.4267437572
 20
21.9279832826
 10
-43.4273232346
 20
21.9541277736
 10
-43.4275013411
 20
21.9653906942
 10
-43.4276043079
 20
21.9754051736
 10
-43.4276318531
 20
21.9841437946
 10
-43.4275839013
 20
21.9915826332
 10
-43.4274605837
 20
21.9977013235
 10
-43.427262238
 20
22.0024831143
 10
-43.4269894072
 20
22.0059149141
 10
-43.4266428382
 20
22.0079873275
 10
-43.4262234799
 20
22.0086946807
  0
LWPOLYLINE
  5
355
100
AcDbEntity
  8
RACCORDO
100
AcDbPolyline
 62
253
  6
CONTINUOUS
 90
10
 70
0
 10
-43.4273232345
 20
-21.9341888703
 10
-43.427501341
 20
-21.9454517883
 10
-43.4276043077
 20
-21.9554662652
 10
-43.4276318529
 20
-21.964204884
 10
-43.4275839011
 20
-21.9716437206
 10
-43.4274605835
 20
-21.9777624092
 10
-43.4272622378
 20
-21.9825441986
 10
-43.426989407
 20
-21.9859759974
 10
-43.4266428381
 20
-21.9880484102
 10
-43.4262234799
 20
-21.9887557632
  0
LINE
  5
356
100
AcDbEntity
  8
RACCORDO
100
AcDbLine
 62
253
  6
CONTINUOUS
 10
-43.4267437574
 20
-21.9080443846
 11
-43.4273232345
 21
-21.9341888703
  0
LINE
  5
357
100
AcDbEntity
  8
RACCORDO
100
AcDbLine
 62
253
  6
CONTINUOUS
 10
-43.408781705
 20
21.5093799133
 11
-43.4152515738
 21
21.6385386919
  0
LINE
  5
358
100
AcDbEntity
  8
RACCORDO
100
AcDbLine
 62
253
  6
CONTINUOUS
 10
-43.4152515738
 20
21.6385386919
 11
-43.4206870534
 21
21.7589057008
  0
LINE
  5
359
100
AcDbEntity
  8
RACCORDO
100
AcDbLine
 62
253
  6
CONTINUOUS
 10
-43.4206870534
 20
21.7589057008
 11
-43.424039003
 21
21.8433286197
  0
LINE
  5
35A
100
AcDbEntity
  8
RACCORDO
100
AcDbLine
 62
253
  6
CONTINUOUS
 10
-43.424039003
 20
21.8433286197
 11
-43.4258722173
 21
21.8972578127
  0
LINE
  5
35B
100
AcDbEntity
  8
RACCORDO
100
AcDbLine
 62
253
  6
CONTINUOUS
 10
-43.4258722173
 20
21.8972578127
 11
-43.4267437572
 21
21.9279832826
  0
LINE
  5
35C
100
AcDbEntity
  8
RACCORDO
100
AcDbLine
 62
253
  6
CONTINUOUS
 10
-43.4258722177
 20
-21.8773189199
 11
-43.4267437574
 21
-21.9080443846
  0
LINE
  5
35D
100
AcDbEntity
  8
RACCORDO
100
AcDbLine
 62
253
  6
CONTINUOUS
 10
-43.4240390037
 20
-21.8233897329
 11
-43.4258722177
 21
-21.8773189199
  0
LINE
  5
35E
100
AcDbEntity
  8
RACCORDO
100
AcDbLine
 62
253
  6
CONTINUOUS
 10
-43.4206870545
 20
-21.7389668164
 11
-43.4240390037
 21
-21.8233897329
  0
LINE
  5
35F
100
AcDbEntity
  8
RACCORDO
100
AcDbLine
 62
253
  6
CONTINUOUS
 10
-43.4152515748
 20
-21.6185997982
 11
-43.4206870545
 21
-21.7389668164
  0
LINE
  5
360
100
AcDbEntity
  8
RACCORDO
100
AcDbLine
 62
253
  6
CONTINUOUS
 10
-43.408781705
 20
-21.4894409958
 11
-43.4152515748
 21
-21.6185997982
  0
LINE
  5
361
100
AcDbEntity
  8
RACCORDO
100
AcDbLine
 62
253
  6
CONTINUOUS
 10
-38.569444591
 20
-0.290007696
 11
-44.7780452378
 21
-0.344189333
  0
LINE
  5
362
100
AcDbEntity
  8
RACCORDO
100
AcDbLine
 62
7
  6
CONTINUOUS
 10
-38.569444591
 20
-0.0900305412
 11
-45.0710625888
 21
-0.1467693019
  0
LINE
  5
363
100
AcDbEntity
  8
RACCORDO
100
AcDbLine
 62
253
  6
CONTINUOUS
 10
-44.7780452378
 20
-0.344189333
 11
-45.2693172294
 21
-0.3469044422
  0
LINE
  5
364
100
AcDbEntity
  8
RACCORDO
100
AcDbLine
 62
7
  6
CONTINUOUS
 10
-45.0710625888
 20
0.1667082194
 11
-38.569444591
 21
0.1099694588
  0
LINE
  5
365
100
AcDbEntity
  8
RACCORDO
100
AcDbLine
 62
7
  6
CONTINUOUS
 10
-38.969444591
 20
17.94346106
 11
-38.969444591
 21
17.6819903799
  0
LINE
  5
366
100
AcDbEntity
  8
RACCORDO
100
AcDbLine
 62
7
  6
CONTINUOUS
 10
-38.969444591
 20
-17.6620514624
 11
-38.969444591
 21
-17.9235221425
  0
LINE
  5
367
100
AcDbEntity
  8
RACCORDO
100
AcDbLine
 62
7
  6
CONTINUOUS
 10
-38.569444591
 20
-0.0900305412
 11
-38.569444591
 21
-13.0900305412
  0
LINE
  5
368
100
AcDbEntity
  8
RACCORDO
100
AcDbLine
 62
7
  6
CONTINUOUS
 10
-38.569444591
 20
0.1099694588
 11
-38.569444591
 21
13.1099694588
  0
LINE
  5
369
100
AcDbEntity
  8
RACCORDO
100
AcDbLine
 62
253
  6
CONTINUOUS
 10
-45.2693172294
 20
0.3668433597
 11
-44.7780452378
 21
0.3641282505
  0
LINE
  5
36A
100
AcDbEntity
  8
RACCORDO
100
AcDbLine
 62
253
  6
CONTINUOUS
 10
-44.7780452378
 20
0.3641282505
 11
-38.569444591
 21
0.3099466135
  0
LINE
  5
36B
100
AcDbEntity
  8
RACCORDO
100
AcDbLine
 62
7
  6
CONTINUOUS
 10
-38.569444591
 20
13.1099694588
 11
-39.3665959116
 21
22.2214507463
  0
LINE
  5
36C
100
AcDbEntity
  8
RACCORDO
100
AcDbLine
 62
7
  6
CONTINUOUS
 10
-38.569444591
 20
-13.0900305412
 11
-39.3665959116
 21
-22.2015118288
  0
LINE
  5
36D
100
AcDbEntity
  8
RACCORDO
100
AcDbLine
 62
7
  6
CONTINUOUS
 10
-38.9975522549
 20
-18.050307621
 11
-39.0047660573
 21
-18.0657776703
  0
LINE
  5
36E
100
AcDbEntity
  8
RACCORDO
100
AcDbLine
 62
7
  6
CONTINUOUS
 10
-39.0047660573
 20
18.0857165878
 11
-38.9975522549
 21
18.0702465385
  0
LINE
  5
36F
100
AcDbEntity
  8
RACCORDO
100
AcDbLine
 62
253
  6
CONTINUOUS
 10
-38.969444591
 20
17.94346106
 11
-38.9923203113
 21
17.94346106
  0
LWPOLYLINE
  5
370
100
AcDbEntity
  8
RACCORDO
100
AcDbPolyline
 62
253
  6
CONTINUOUS
 90
43
 70
0
 10
-43.408781705
 20
21.5093799133
 10
-43.443930488
 20
21.5069129276
 10
-43.4788876489
 20
21.5032249728
 10
-43.5136531874
 20
21.498316049
 10
-43.5482703802
 20
21.4921770586
 10
-43.5826959508
 20
21.4848170992
 10
-43.6168000695
 20
21.4762634635
 10
-43.6505809757
 20
21.4665116885
 10
-43.6840404301
 20
21.4555662372
 10
-43.7170538855
 20
21.443467791
 10
-43.7496194192
 20
21.4302121329
 10
-43.7817389539
 20
21.4158034799
 10
-43.8132937103
 20
21.4002951646
 10
-43.8442816378
 20
21.3836831115
 10
-43.874704787
 20
21.365971396
 10
-43.9044505305
 20
21.3472255773
 10
-43.9335164354
 20
21.3274417541
 10
-43.9619049346
 20
21.3066238275
 10
-43.9895106987
 20
21.2848490603
 10
-44.0163307461
 20
21.2621139505
 10
-44.0423680585
 20
21.238422
 10
-44.0675262515
 20
21.2138609775
 10
-44.0918020609
 20
21.1884276738
 10
-44.1151987509
 20
21.162125298
 10
-44.1376297304
 20
21.1350512456
 10
-44.1590914596
 20
21.1072025925
 10
-44.1795874783
 20
21.0785822629
 10
-44.1990418154
 20
21.0492964241
 10
-44.2174505539
 20
21.0193426805
 10
-44.2348176107
 20
20.9887234278
 10
-44.2510787662
 20
20.9575520206
 10
-44.2662299248
 20
20.9258264647
 10
-44.280275182
 20
20.8935487543
 10
-44.2931626044
 20
20.860838226
 10
-44.304887952
 20
20.8276930054
 10
-44.3154554648
 20
20.7941149669
 10
-44.32482593
 20
20.7602290708
 10
-44.3329948891
 20
20.7260333886
 10
-44.3399668006
 20
20.6915298488
 10
-44.3457158272
 20
20.656849197
 10
-44.3502333566
 20
20.6220350151
 10
-44.3535280011
 20
20.5870437212
 10
-44.3555997607
 20
20.5518753152
  0
LINE
  5
371
100
AcDbEntity
  8
RACCORDO
100
AcDbLine
 62
253
  6
CONTINUOUS
 10
-39.3230313053
 20
21.7235050185
 11
-43.408781705
 21
21.5093799133
  0
LINE
  5
372
100
AcDbEntity
  8
RACCORDO
100
AcDbLine
 62
7
  6
CONTINUOUS
 10
-39.3665959116
 20
22.2214507463
 11
-43.426211727
 21
22.0086952967
  0
LINE
  5
373
100
AcDbEntity
  8
RACCORDO
100
AcDbLine
 62
253
  6
CONTINUOUS
 10
-44.3555997607
 20
20.5518753152
 11
-44.8404377585
 21
20.5721347219
  0
LWPOLYLINE
  5
374
100
AcDbEntity
  8
RACCORDO
100
AcDbPolyline
 62
253
  6
CONTINUOUS
 90
3
 70
0
 10
-44.8404377585
 20
20.5721347219
 10
-44.8457817881
 20
20.5723916652
 10
-44.8464505632
 20
20.5724377836
  0
CIRCLE
  5
375
100
AcDbEntity
  8
DRAFT
100
AcDbCircle
 62
7
  6
CONTINUOUS
 10
-11.3318076798
 20
4.5099694588
 40
1.3
  0
CIRCLE
  5
376
100
AcDbEntity
  8
DRAFT
100
AcDbCircle
 62
7
  6
CONTINUOUS
 10
-11.3318076798
 20
-4.4900305412
 40
1.3
  0
CIRCLE
  5
377
100
AcDbEntity
  8
DRAFT
100
AcDbCircle
 62
7
  6
CONTINUOUS
 10
-11.3318076798
 20
-4.4900305412
 40
1.225
  0
CIRCLE
  5
378
100
AcDbEntity
  8
DRAFT
100
AcDbCircle
 62
7
  6
CONTINUOUS
 10
-11.3318076798
 20
4.5099694588
 40
1.225
  0
CIRCLE
  5
379
100
AcDbEntity
  8
RACCORDO
100
AcDbCircle
 62
253
  6
CONTINUOUS
 10
-11.3318076798
 20
-4.4900305412
 40
1.2068524201
  0
CIRCLE
  5
37A
100
AcDbEntity
  8
RACCORDO
100
AcDbCircle
 62
253
  6
CONTINUOUS
 10
-11.3318076798
 20
4.5099694588
 40
1.2068524201
  0
CIRCLE
  5
37B
100
AcDbEntity
  8
RACCORDO
100
AcDbCircle
 62
253
  6
CONTINUOUS
 10
-11.3318076798
 20
-4.4900305412
 40
1.1180464865
  0
CIRCLE
  5
37C
100
AcDbEntity
  8
RACCORDO
100
AcDbCircle
 62
253
  6
CONTINUOUS
 10
-11.3318076798
 20
4.5099694588
 40
1.1180464865
  0
ARC
  5
37D
100
AcDbEntity
  8
RACCORDO
100
AcDbCircle
 62
7
  6
CONTINUOUS
 10
-43.3477195455
 20
-20.4908114611
 40
1.5
100
AcDbArc
 50
182.3564266608
 51
267.0004495319
  0
ARC
  5
37E
100
AcDbEntity
  8
RACCORDO
100
AcDbCircle
 62
7
  6
CONTINUOUS
 10
-39.269444591
 20
-17.9235221425
 40
0.3
100
AcDbArc
 50
335.0
 51
360.0
  0
ARC
  5
37F
100
AcDbEntity
  8
RACCORDO
100
AcDbCircle
 62
7
  6
CONTINUOUS
 10
-45.0693168889
 20
-0.3467616831
 40
0.2
100
AcDbArc
 50
90.5001125218
 51
180.0408958976
  0
ARC
  5
380
100
AcDbEntity
  8
RACCORDO
100
AcDbCircle
 62
7
  6
CONTINUOUS
 10
-43.3477195455
 20
20.5107503786
 40
1.5
100
AcDbArc
 50
92.9995504681
 51
177.6435733392
  0
ARC
  5
381
100
AcDbEntity
  8
RACCORDO
100
AcDbCircle
 62
7
  6
CONTINUOUS
 10
-39.269444591
 20
17.94346106
 40
0.3
100
AcDbArc
 50
0.0
 51
25.0
  0
ARC
  5
382
100
AcDbEntity
  8
RACCORDO
100
AcDbCircle
 62
7
  6
CONTINUOUS
 10
-45.0693168889
 20
0.3667006006
 40
0.2
100
AcDbArc
 50
179.9591041024
 51
269.4998874782
  0
ARC
  5
383
100
AcDbEntity
  8
RACCORDO
100
AcDbCircle
 62
7
  6
CONTINUOUS
 10
454.730555409
 20
0.0099694588
 40
500.0
100
AcDbArc
 50
177.6430515792
 51
179.9591052604
  0
ARC
  5
384
100
AcDbEntity
  8
RACCORDO
100
AcDbCircle
 62
7
  6
CONTINUOUS
 10
454.730555409
 20
0.0099694588
 40
500.0
100
AcDbArc
 50
180.0408947396
 51
182.3569484208
  0
ELLIPSE
  5
385
100
AcDbEntity
  8
RACCORDO
100
AcDbEllipse
 62
7
  6
CONTINUOUS
 10
3.8836623741
 20
22.1950975637
 30
0.0
 11
0.2
 21
-0.0
 31
0.0
 40
0.0524077793
 41
-2.617993878
 42
-1.5707963268
  0
ELLIPSE
  5
386
100
AcDbEntity
  8
RACCORDO
100
AcDbEllipse
 62
7
  6
CONTINUOUS
 10
7.2527222664
 20
22.1950975637
 30
0.0
 11
0.2
 21
0.0
 31
0.0
 40
0.0524077793
 41
-1.5707963268
 42
-0.5235987756
  0
ELLIPSE
  5
387
100
AcDbEntity
  8
RACCORDO
100
AcDbEllipse
 62
7
  6
CONTINUOUS
 10
-7.4163376259
 20
22.1950975637
 30
0.0
 11
0.2
 21
0.0
 31
0.0
 40
0.0524077793
 41
-2.617993878
 42
-1.5707963268
  0
ELLIPSE
  5
388
100
AcDbEntity
  8
RACCORDO
100
AcDbEllipse
 62
7
  6
CONTINUOUS
 10
-4.0472777336
 20
22.1950975637
 30
0.0
 11
0.2
 21
0.0
 31
0.0
 40
0.0524077793
 41
-1.5707963268
 42
-0.5235987756
  0
ELLIPSE
  5
389
100
AcDbEntity
  8
RACCORDO
100
AcDbEllipse
 62
7
  6
CONTINUOUS
 10
15.0836623741
 20
22.1950975637
 30
0.0
 11
0.2
 21
-0.0
 31
0.0
 40
0.0524077793
 41
-2.617993878
 42
-1.5707963268
  0
ELLIPSE
  5
38A
100
AcDbEntity
  8
RACCORDO
100
AcDbEllipse
 62
7
  6
CONTINUOUS
 10
18.4527222664
 20
22.1950975637
 30
0.0
 11
0.2
 21
0.0
 31
0.0
 40
0.0524077793
 41
-1.5707963268
 42
-0.5235987756
  0
ELLIPSE
  5
38B
100
AcDbEntity
  8
RACCORDO
100
AcDbEllipse
 62
7
  6
CONTINUOUS
 10
-15.2472777336
 20
22.1950975637
 30
0.0
 11
0.2
 21
0.0
 31
0.0
 40
0.0524077793
 41
-1.5707963268
 42
-0.5235987756
  0
ELLIPSE
  5
38C
100
AcDbEntity
  8
RACCORDO
100
AcDbEllipse
 62
7
  6
CONTINUOUS
 10
-18.6163376259
 20
22.1950975637
 30
0.0
 11
0.2
 21
-0.0
 31
0.0
 40
0.0524077793
 41
-2.617993878
 42
-1.5707963268
  0
ELLIPSE
  5
38D
100
AcDbEntity
  8
RACCORDO
100
AcDbEllipse
 62
7
  6
CONTINUOUS
 10
-22.2317772141
 20
0.3099770744
 30
0.0
 11
0.1789222233
 21
0.0894542984
 31
0.0
 40
0.9998096356
 41
2.6780516535
 42
4.2486956813
  0
ELLIPSE
  5
38E
100
AcDbEntity
  8
RACCORDO
100
AcDbEllipse
 62
7
  6
CONTINUOUS
 10
22.0681618546
 20
0.3099770744
 30
0.0
 11
0.1789222233
 21
-0.0894542984
 31
0.0
 40
0.9998096356
 41
-1.1071030277
 42
0.4635410001
  0
ELLIPSE
  5
38F
100
AcDbEntity
  8
RACCORDO
100
AcDbEllipse
 62
7
  6
CONTINUOUS
 10
-21.9185783059
 20
21.7230497849
 30
0.0
 11
0.498078285
 21
0.0448076117
 31
0.0
 40
0.9965957691
 41
1.4807720384
 42
3.0506549766
  0
ELLIPSE
  5
390
100
AcDbEntity
  8
RACCORDO
100
AcDbEllipse
 62
7
  6
CONTINUOUS
 10
21.7549629464
 20
21.7230497849
 30
0.0
 11
0.498078285
 21
-0.0448076117
 31
0.0
 40
0.9965957691
 41
0.0909376769
 42
1.6608206152
  0
ELLIPSE
  5
391
100
AcDbEntity
  8
RACCORDO
100
AcDbEllipse
 62
7
  6
CONTINUOUS
 10
-4.0472777336
 20
-22.1751586462
 30
0.0
 11
0.2
 21
0.0
 31
0.0
 40
0.0524077793
 41
0.5235987756
 42
1.5707963268
  0
ELLIPSE
  5
392
100
AcDbEntity
  8
RACCORDO
100
AcDbEllipse
 62
7
  6
CONTINUOUS
 10
-7.4163376259
 20
-22.1751586462
 30
0.0
 11
0.2
 21
0.0
 31
0.0
 40
0.0524077793
 41
1.5707963268
 42
2.617993878
  0
ELLIPSE
  5
393
100
AcDbEntity
  8
RACCORDO
100
AcDbEllipse
 62
7
  6
CONTINUOUS
 10
7.2527222664
 20
-22.1751586462
 30
0.0
 11
0.2
 21
0.0
 31
0.0
 40
0.0524077793
 41
0.5235987756
 42
1.5707963268
  0
ELLIPSE
  5
394
100
AcDbEntity
  8
RACCORDO
100
AcDbEllipse
 62
7
  6
CONTINUOUS
 10
3.8836623741
 20
-22.1751586462
 30
0.0
 11
0.2
 21
0.0
 31
0.0
 40
0.0524077793
 41
1.5707963268
 42
2.617993878
  0
ELLIPSE
  5
395
100
AcDbEntity
  8
RACCORDO
100
AcDbEllipse
 62
7
  6
CONTINUOUS
 10
-15.2472777336
 20
-22.1751586462
 30
0.0
 11
0.2
 21
0.0
 31
0.0
 40
0.0524077793
 41
0.5235987756
 42
1.5707963268
  0
ELLIPSE
  5
396
100
AcDbEntity
  8
RACCORDO
100
AcDbEllipse
 62
7
  6
CONTINUOUS
 10
-18.6163376259
 20
-22.1751586462
 30
0.0
 11
0.2
 21
0.0
 31
0.0
 40
0.0524077793
 41
1.5707963268
 42
2.617993878
  0
ELLIPSE
  5
397
100
AcDbEntity
  8
RACCORDO
100
AcDbEllipse
 62
7
  6
CONTINUOUS
 10
15.0836623741
 20
-22.1751586462
 30
0.0
 11
0.2
 21
0.0
 31
0.0
 40
0.0524077793
 41
1.5707963268
 42
2.617993878
  0
ELLIPSE
  5
398
100
AcDbEntity
  8
RACCORDO
100
AcDbEllipse
 62
7
  6
CONTINUOUS
 10
18.4527222664
 20
-22.1751586462
 30
0.0
 11
0.2
 21
-0.0
 31
0.0
 40
0.0524077793
 41
0.5235987756
 42
1.5707963268
  0
ELLIPSE
  5
399
100
AcDbEntity
  8
RACCORDO
100
AcDbEllipse
 62
7
  6
CONTINUOUS
 10
22.0681618546
 20
-0.2900381569
 30
0.0
 11
0.1789222233
 21
0.0894542984
 31
0.0
 40
0.9998096356
 41
-0.4635410001
 42
1.1071030277
  0
ELLIPSE
  5
39A
100
AcDbEntity
  8
RACCORDO
100
AcDbEllipse
 62
7
  6
CONTINUOUS
 10
-22.2317772141
 20
-0.2900381569
 30
0.0
 11
0.1789222233
 21
-0.0894542984
 31
0.0
 40
0.9998096356
 41
2.0344896259
 42
3.6051336537
  0
ELLIPSE
  5
39B
100
AcDbEntity
  8
RACCORDO
100
AcDbEllipse
 62
7
  6
CONTINUOUS
 10
21.7549629464
 20
-21.7031108673
 30
0.0
 11
0.498078285
 21
0.0448076117
 31
0.0
 40
0.9965957691
 41
-1.6608206152
 42
-0.0909376769
  0
ELLIPSE
  5
39C
100
AcDbEntity
  8
RACCORDO
100
AcDbEllipse
 62
7
  6
CONTINUOUS
 10
-21.9185783059
 20
-21.7031108673
 30
0.0
 11
0.498078285
 21
-0.0448076117
 31
0.0
 40
0.9965957691
 41
-3.0506549766
 42
-1.4807720384
  0
ENDSEC
  0
SECTION
  2
OBJECTS
  0
DICTIONARY
  5
C
100
AcDbDictionary
280
0
281
1
  3
ACAD_GROUP
350
D
  3
ACAD_MLINESTYLE
350
17
  3
ACAD_LAYOUT
350
1A
  3
ACAD_PLOTSETTINGS
350
19
  3
ACAD_PLOTSTYLENAME
350
E
  0
DICTIONARY
  5
D
102
{ACAD_REACTORS
330
C
102
}
100
AcDbDictionary
280
0
281
1
  0
ACDBDICTIONARYWDFLT
  5
E
102
{ACAD_REACTORS
330
C
102
}
100
AcDbDictionary
281
1
  3
Normal
350
F
100
AcDbDictionaryWithDefault
340
F
  0
DICTIONARY
  5
17
102
{ACAD_REACTORS
330
C
102
}
100
AcDbDictionary
280
0
281
1
  3
Standard
350
18
  0
DICTIONARY
  5
19
102
{ACAD_REACTORS
330
C
102
}
100
AcDbDictionary
281
1
  0
DICTIONARY
  5
1A
102
{ACAD_REACTORS
330
C
102
}
100
AcDbDictionary
281
1
  3
Model
350
39D
  3
Layout1
350
39E
  0
ACDBPLACEHOLDER
  5
F
102
{ACAD_REACTORS
330
E
102
}
  0
MLINESTYLE
  5
18
102
{ACAD_REACTORS
330
17
102
}
100
AcDbMlineStyle
  2
STANDARD
 70
0
  3

 62
256
 51
90.0
 52
90.0
 71
2
 49
0.5
 62
256
  6
BYLAYER
 49
-0.5
 62
256
  6
BYLAYER
  0
LAYOUT
  5
39D
102
{ACAD_REACTORS
330
1A
102
}
100
AcDbPlotSettings
  1

  2
none_device
  4
ISO_A4_(297.00_x_210.00_MM)
  6

 40
0.0
 41
0.0
 42
0.0
 43
0.0
 44
297.0
 45
210.0
 46
0.0
 47
0.0
 48
0.0
 49
0.0
140
0.0
141
0.0
142
1.0
143
1.0
 70
1024
 72
1
 73
0
 74
0
  7

 75
0
147
1.0
148
0.0
149
0.0
100
AcDbLayout
  1
Model
 70
0
 71
0
 10
0.0
 20
0.0
 11
297.0
 21
210.0
 12
0.0
 22
0.0
 32
0.0
 14
0.0
 24
0.0
 34
0.0
 15
0.0
 25
0.0
 35
0.0
146
0.0
 13
0.0
 23
0.0
 33
0.0
 16
1.0
 26
0.0
 36
0.0
 17
0.0
 27
1.0
 37
0.0
 76
0
330
214
345
0
346
0
  0
LAYOUT
  5
39E
102
{ACAD_REACTORS
330
1A
102
}
100
AcDbPlotSettings
  1

  2
none_device
  4
ISO_A4_(297.00_x_210.00_MM)
  6

 40
0.0
 41
0.0
 42
0.0
 43
0.0
 44
297.0
 45
210.0
 46
0.0
 47
0.0
 48
0.0
 49
0.0
140
0.0
141
0.0
142
1.0
143
1.0
 70
0
 72
1
 73
0
 74
0
  7

 75
0
147
1.0
148
0.0
149
0.0
100
AcDbLayout
  1
Layout1
 70
0
 71
1
 10
0.0
 20
0.0
 11
297.0
 21
210.0
 12
0.0
 22
0.0
 32
0.0
 14
0.0
 24
0.0
 34
0.0
 15
0.0
 25
0.0
 35
0.0
146
0.0
 13
0.0
 23
0.0
 33
0.0
 16
1.0
 26
0.0
 36
0.0
 17
0.0
 27
1.0
 37
0.0
 76
0
330
215
345
0
346
0
  0
ENDSEC
  0
EOF
