  0
SECTION
  2
HEADER
  9
$ACADVER
  1
AC1021
  9
$DWGCODEPAGE
  3
ANSI_1252
  9
$EXTMAX
 10
297.0
 20
210.0
 30
0.0
  9
$EXTMIN
 10
0.0
 20
0.0
 30
0.0
  9
$LIMMIN
 10
0.0
 20
0.0
  9
$LIMMAX
 10
297.0
 20
210.0
  9
$VIEWCTR
 10
148.5
 20
105.0
  9
$VIEWSIZE
 40
210.0
  9
$CLAYER
  8
0
  9
$LTSCALE
 40
16.335
  9
$CELTYPE
  6
BYLAYER
  9
$DIMSCALE
 40
1.0
  9
$DIMASZ
 40
3.0
  9
$DIMEXO
 40
0.5
  9
$DIMDLI
 40
11.286
  9
$DIMEXE
 40
1.5
  9
$DIMCEN
 40
2.673
  9
$DIMLFAC
 40
1.0
  9
$DIMBLK
  1
_FILLED
  9
$DIMALT
 70
0
  9
$DIMALTF
 40
25.4
  9
$DIMTXT
 40
3.0
  9
$DIMTOL
 70
1
  9
$DIMLIM
 70
0
  9
$DIMTFAC
 40
1.0
  9
$DIMTP
 40
0.01
  9
$DIMTM
 40
0.01
  9
$DIMGAP
 40
0.625
  9
$DIMDSEP
 70
44
  9
$AUNITS
 70
0
  9
$PDMODE
 70
3
  9
$PDSIZE
 40
3.0
  9
$HANDSEED
  5
39B
  9
$TILEMODE
 70
1
  9
$MEASUREMENT
 70
1
  9
$INSUNITS
 70
4
  0
ENDSEC
  0
SECTION
  2
CLASSES
  0
CLASS
  1
ACDBDICTIONARYWDFLT
  2
AcDbDictionaryWithDefault
  3
AutoCAD 2000
 90
0
 91
1
280
0
281
0
  0
CLASS
  1
ACDBPLACEHOLDER
  2
AcDbPlaceHolder
  3
AutoCAD 2000
 90
0
 91
1
280
0
281
0
  0
CLASS
  1
LAYOUT
  2
AcDbLayout
  3
AutoCAD 2000
 90
0
 91
0
280
0
281
0
  0
ENDSEC
  0
SECTION
  2
TABLES
  0
TABLE
  2
VPORT
  5
8
100
AcDbSymbolTable
 70
2
  0
VPORT
  5
1F4
100
AcDbSymbolTableRecord
100
AcDbViewportTableRecord
  2
*ACTIVE
 70
0
 10
0.0
 20
0.0
 11
1.0
 21
1.0
 12
148.5
 22
105.0
 13
0.0
 23
0.0
 14
1.0
 24
1.0
 15
0.0
 25
0.0
 16
0.0
 26
0.0
 36
1.0
 17
0.0
 27
0.0
 37
0.0
 40
210.0
 41
1.4142857143
 42
50.0
 43
0.0
 44
0.0
 50
0.0
 51
0.0
 71
0
 72
100
 73
1
 74
1
 75
0
 76
0
 77
0
 78
0
  0
ENDTAB
  0
TABLE
  2
LTYPE
  5
5
100
AcDbSymbolTable
 70
6
  0
LTYPE
  5
14
100
AcDbSymbolTableRecord
100
AcDbLinetypeTableRecord
  2
BYBLOCK
 70
0
  3

 72
65
 73
0
 40
0.0
  0
LTYPE
  5
15
100
AcDbSymbolTableRecord
100
AcDbLinetypeTableRecord
  2
BYLAYER
 70
0
  3

 72
65
 73
0
 40
0.0
  0
LTYPE
  5
16
100
AcDbSymbolTableRecord
100
AcDbLinetypeTableRecord
  2
CONTINUOUS
 70
64
  3
Solid line
 72
65
 73
0
 40
0.0
  0
LTYPE
  5
1F5
100
AcDbSymbolTableRecord
100
AcDbLinetypeTableRecord
  2
CENTER
 70
64
  3
____ _ ____ _ ____ _ ____ _ ____ _ ____ _ ____
 72
65
 73
4
 40
0.6
 49
0.375
 74
0
 49
-0.075
 74
0
 49
0.075
 74
0
 49
-0.075
 74
0
  0
LTYPE
  5
1F6
100
AcDbSymbolTableRecord
100
AcDbLinetypeTableRecord
  2
HIDDEN
 70
64
  3
- - - - - - - - - - - - - - - - - - - -
 72
65
 73
2
 40
0.2
 49
0.1
 74
0
 49
-0.1
 74
0
  0
LTYPE
  5
1F7
100
AcDbSymbolTableRecord
100
AcDbLinetypeTableRecord
  2
PHANTOM
 70
64
  3
_____ _ _ _____ _ _ _____ _ _ _____
 72
65
 73
6
 40
0.8
 49
0.45
 74
0
 49
-0.05
 74
0
 49
0.1
 74
0
 49
-0.05
 74
0
 49
0.1
 74
0
 49
-0.05
 74
0
  0
LTYPE
  5
1F8
100
AcDbSymbolTableRecord
100
AcDbLinetypeTableRecord
  2
DOT
 70
64
  3
. . . . . . . . . . . . . . . . . . . .
 72
65
 73
2
 40
0.2
 49
0.1
 74
0
 49
-0.1
 74
0
  0
LTYPE
  5
1F9
100
AcDbSymbolTableRecord
100
AcDbLinetypeTableRecord
  2
DASHED
 70
64
  3
- - - - - - - - - - - - - - - - - - - -
 72
65
 73
2
 40
0.2
 49
0.1
 74
0
 49
-0.1
 74
0
  0
ENDTAB
  0
TABLE
  2
LAYER
  5
2
100
AcDbSymbolTable
 70
36
  0
LAYER
  5
10
100
AcDbSymbolTableRecord
100
AcDbLayerTableRecord
  2
0
 70
0
 62
7
  6
CONTINUOUS
370
-3
390
F
  0
LAYER
  5
1FA
100
AcDbSymbolTableRecord
100
AcDbLayerTableRecord
  2
DEFAULT_1
 70
0
 62
7
  6
CENTER
370
-3
390
F
  0
LAYER
  5
1FB
100
AcDbSymbolTableRecord
100
AcDbLayerTableRecord
  2
DEFAULT_2
 70
0
 62
7
  6
HIDDEN
370
-3
390
F
  0
LAYER
  5
1FC
100
AcDbSymbolTableRecord
100
AcDbLayerTableRecord
  2
DEFAULT_3
 70
0
 62
7
  6
PHANTOM
370
-3
390
F
  0
LAYER
  5
1FD
100
AcDbSymbolTableRecord
100
AcDbLayerTableRecord
  2
ASSI
 70
0
 62
7
  6
CONTINUOUS
370
-3
390
F
  0
LAYER
  5
1FE
100
AcDbSymbolTableRecord
100
AcDbLayerTableRecord
  2
COORDINATE
 70
0
 62
7
  6
CONTINUOUS
370
-3
390
F
  0
LAYER
  5
1FF
100
AcDbSymbolTableRecord
100
AcDbLayerTableRecord
  2
COORD_ORIGINE
 70
0
 62
7
  6
CONTINUOUS
370
-3
390
F
  0
LAYER
  5
200
100
AcDbSymbolTableRecord
100
AcDbLayerTableRecord
  2
COPY_PUBLISH
 70
0
 62
7
  6
CONTINUOUS
370
-3
390
F
  0
LAYER
  5
201
100
AcDbSymbolTableRecord
100
AcDbLayerTableRecord
  2
COSMETIC
 70
0
 62
7
  6
CONTINUOUS
370
-3
390
F
  0
LAYER
  5
202
100
AcDbSymbolTableRecord
100
AcDbLayerTableRecord
  2
COSMETICI
 70
0
 62
7
  6
CONTINUOUS
370
-3
390
F
  0
LAYER
  5
203
100
AcDbSymbolTableRecord
100
AcDbLayerTableRecord
  2
CURVE
 70
0
 62
7
  6
CONTINUOUS
370
-3
390
F
  0
LAYER
  5
204
100
AcDbSymbolTableRecord
100
AcDbLayerTableRecord
  2
DRAFT
 70
0
 62
7
  6
CONTINUOUS
370
-3
390
F
  0
LAYER
  5
205
100
AcDbSymbolTableRecord
100
AcDbLayerTableRecord
  2
IGES
 70
0
 62
7
  6
CONTINUOUS
370
-3
390
F
  0
LAYER
  5
206
100
AcDbSymbolTableRecord
100
AcDbLayerTableRecord
  2
IMPORT_IGES
 70
0
 62
7
  6
CONTINUOUS
370
-3
390
F
  0
LAYER
  5
207
100
AcDbSymbolTableRecord
100
AcDbLayerTableRecord
  2
LIVELLO_1
 70
0
 62
7
  6
CONTINUOUS
370
-3
390
F
  0
LAYER
  5
208
100
AcDbSymbolTableRecord
100
AcDbLayerTableRecord
  2
NOTE
 70
0
 62
7
  6
CONTINUOUS
370
-3
390
F
  0
LAYER
  5
209
100
AcDbSymbolTableRecord
100
AcDbLayerTableRecord
  2
PIANI
 70
0
 62
7
  6
CONTINUOUS
370
-3
390
F
  0
LAYER
  5
20A
100
AcDbSymbolTableRecord
100
AcDbLayerTableRecord
  2
PIANI_ORIGINE
 70
0
 62
7
  6
CONTINUOUS
370
-3
390
F
  0
LAYER
  5
20B
100
AcDbSymbolTableRecord
100
AcDbLayerTableRecord
  2
PIANI_RIFERIMENTO
 70
0
 62
7
  6
CONTINUOUS
370
-3
390
F
  0
LAYER
  5
20C
100
AcDbSymbolTableRecord
100
AcDbLayerTableRecord
  2
PUNTI
 70
0
 62
7
  6
CONTINUOUS
370
-3
390
F
  0
LAYER
  5
20D
100
AcDbSymbolTableRecord
100
AcDbLayerTableRecord
  2
RACCORDO
 70
0
 62
7
  6
CONTINUOUS
370
-3
390
F
  0
LAYER
  5
20E
100
AcDbSymbolTableRecord
100
AcDbLayerTableRecord
  2
SIMBOLI
 70
0
 62
7
  6
CONTINUOUS
370
-3
390
F
  0
LAYER
  5
20F
100
AcDbSymbolTableRecord
100
AcDbLayerTableRecord
  2
SMUSSO
 70
0
 62
7
  6
CONTINUOUS
370
-3
390
F
  0
LAYER
  5
210
100
AcDbSymbolTableRecord
100
AcDbLayerTableRecord
  2
SNAPLINE
 70
0
 62
7
  6
CONTINUOUS
370
-3
390
F
  0
LAYER
  5
211
100
AcDbSymbolTableRecord
100
AcDbLayerTableRecord
  2
SUPERFICI
 70
0
 62
7
  6
CONTINUOUS
370
-3
390
F
  0
LAYER
  5
212
100
AcDbSymbolTableRecord
100
AcDbLayerTableRecord
  2
TRASH
 70
0
 62
7
  6
CONTINUOUS
370
-3
390
F
  0
LAYER
  5
213
100
AcDbSymbolTableRecord
100
AcDbLayerTableRecord
  2
WHITE
 70
0
 62
7
  6
CONTINUOUS
370
-3
390
F
  0
LAYER
  5
214
100
AcDbSymbolTableRecord
100
AcDbLayerTableRecord
  2
XSEC_DATUMS
 70
0
 62
7
  6
CONTINUOUS
370
-3
390
F
  0
ENDTAB
  0
TABLE
  2
STYLE
  5
3
100
AcDbSymbolTable
 70
1
  0
STYLE
  5
11
100
AcDbSymbolTableRecord
100
AcDbTextStyleTableRecord
  2
STANDARD
 70
0
 40
0.0
 41
0.8
 50
0.0
 71
0
 42
0.2
  3
txt
  4

  0
STYLE
  5
215
100
AcDbSymbolTableRecord
100
AcDbTextStyleTableRecord
  2
TEXTSTYLE_1
 70
0
 40
0.0
 41
0.8
 50
0.0
 71
0
 42
0.2
  3
gdt
  4

  0
ENDTAB
  0
TABLE
  2
VIEW
  5
6
100
AcDbSymbolTable
 70
0
  0
ENDTAB
  0
TABLE
  2
UCS
  5
7
100
AcDbSymbolTable
 70
0
  0
ENDTAB
  0
TABLE
  2
APPID
  5
9
100
AcDbSymbolTable
 70
1
  0
APPID
  5
216
100
AcDbSymbolTableRecord
100
AcDbRegAppTableRecord
  2
ACAD
 70
0
  0
ENDTAB
  0
TABLE
  2
BLOCK_RECORD
  5
1
100
AcDbSymbolTable
 70
0
  0
BLOCK_RECORD
  5
217
100
AcDbSymbolTableRecord
100
AcDbBlockTableRecord
  2
*Model_Space
  0
BLOCK_RECORD
  5
218
100
AcDbSymbolTableRecord
100
AcDbBlockTableRecord
  2
*Paper_Space
  0
BLOCK_RECORD
  5
219
100
AcDbSymbolTableRecord
100
AcDbBlockTableRecord
  2
_FILLED
  0
BLOCK_RECORD
  5
21A
100
AcDbSymbolTableRecord
100
AcDbBlockTableRecord
  2
*D0
  0
BLOCK_RECORD
  5
21B
100
AcDbSymbolTableRecord
100
AcDbBlockTableRecord
  2
*D1
  0
BLOCK_RECORD
  5
21C
100
AcDbSymbolTableRecord
100
AcDbBlockTableRecord
  2
*D2
  0
ENDTAB
  0
TABLE
  2
DIMSTYLE
  5
A
100
AcDbSymbolTable
 70
1
100
AcDbDimStyleTable
 71
0
  0
DIMSTYLE
105
21D
100
AcDbSymbolTableRecord
100
AcDbDimStyleTableRecord
  2
STANDARD
 70
0
  3

  4

 40
1.0
 41
3.0
 42
0.5
 43
0.38
 44
1.5
 45
0.0
 46
0.0
 47
0.01
 48
0.01
140
3.0
141
0.09
142
0.0
143
25.4
144
1.0
145
0.0
146
1.0
147
0.625
 71
1.0
 72
0.0
 73
0
 74
0
 75
0
 76
0
 77
1
 78
8
170
0
171
1
172
0
173
0
174
0
175
0
176
0
177
0
178
0
270
2
271
2
272
2
273
2
274
2
275
0
280
0
281
0
282
0
283
1
284
8
285
0
286
0
287
3
288
0
340
11
278
44
341
219
342
219
343
219
344
219
  0
DIMSTYLE
105
21E
100
AcDbSymbolTableRecord
100
AcDbDimStyleTableRecord
  2
DIMSTYLE_1
 70
0
  3

  4

 40
1.0
 41
3.0
 42
0.5
 43
0.38
 44
1.5
 45
0.0
 46
0.0
 47
0.0
 48
0.0
140
3.0
141
0.09
142
0.0
143
25.4
144
1.0
145
0.0
146
1.0
147
0.75
 71
0.0
 72
0.0
 73
0
 74
0
 75
0
 76
0
 77
1
 78
8
170
0
171
1
172
0
173
0
174
0
175
0
176
0
177
0
178
0
270
2
271
2
272
2
273
2
274
2
275
0
280
0
281
0
282
0
283
1
284
8
285
0
286
0
287
3
288
0
340
11
278
44
341
219
342
219
343
219
344
219
  0
DIMSTYLE
105
21F
100
AcDbSymbolTableRecord
100
AcDbDimStyleTableRecord
  2
DIMSTYLE_2
 70
0
  3

  4

 40
1.0
 41
3.0
 42
0.5
 43
0.38
 44
1.5
 45
0.0
 46
0.0
 47
0.0
 48
0.0
140
3.0
141
0.09
142
0.0
143
25.4
144
1.0
145
0.0
146
1.0
147
0.75
 71
0.0
 72
0.0
 73
0
 74
0
 75
0
 76
0
 77
1
 78
8
170
0
171
1
172
0
173
0
174
0
175
0
176
0
177
0
178
0
270
2
271
1
272
1
273
2
274
2
275
0
280
0
281
0
282
0
283
1
284
8
285
0
286
0
287
3
288
0
340
11
278
44
341
219
342
219
343
219
344
219
  0
ENDTAB
  0
ENDSEC
  0
SECTION
  2
BLOCKS
  0
BLOCK
  5
20
100
AcDbEntity
  8
0
100
AcDbBlockBegin
  2
*Model_Space
 70
0
 10
0.0
 20
0.0
 30
0.0
  3
*Model_Space
  1

  0
ENDBLK
  5
21
100
AcDbEntity
  8
0
100
AcDbBlockEnd
  0
BLOCK
  5
1C
100
AcDbEntity
  8
0
100
AcDbBlockBegin
  2
*Paper_Space
 70
0
 10
0.0
 20
0.0
 30
0.0
  3
*Paper_Space
  1

  0
ENDBLK
  5
1D
100
AcDbEntity
  8
0
100
AcDbBlockEnd
  0
BLOCK
  5
220
100
AcDbEntity
  8
0
100
AcDbBlockBegin
  2
_FILLED
 70
64
 10
0.0
 20
0.0
  3
_FILLED
  1

  0
SOLID
  5
221
100
AcDbEntity
  8
0
  6
BYBLOCK
 62
0
100
AcDbTrace
 10
0.0
 20
0.0
 11
-1.0
 21
0.3166666667
 12
-1.0
 22
-0.3166666667
 13
-1.0
 23
-0.3166666667
  0
ENDBLK
  5
222
100
AcDbEntity
  8
0
  6
BYBLOCK
 62
0
100
AcDbBlockEnd
  0
BLOCK
  5
223
100
AcDbEntity
  8
0
100
AcDbBlockBegin
 62
7
  6
CONTINUOUS
  2
*D0
 70
65
 10
0.0
 20
0.0
  3
*D0
  1

  0
MTEXT
  5
224
100
AcDbEntity
  8
0
100
AcDbMText
 62
7
  6
CONTINUOUS
  7
STANDARD
 71
2
 72
1
 10
-0.0786328757
 20
33.9160408561
 30
0.0
 11
1.0
 21
0.0
 31
0.0
 44
0.9
  1
44,7
 40
3.0
 41
13.1785714286
  0
LINE
  5
225
100
AcDbEntity
  8
0
100
AcDbLine
 62
7
  6
CONTINUOUS
 10
-22.4286328757
 20
13.5545595686
 11
-22.4286328757
 21
31.6660408561
  0
LINE
  5
226
100
AcDbEntity
  8
0
100
AcDbLine
 62
7
  6
CONTINUOUS
 10
22.2713671243
 20
13.5545595686
 11
22.2713671243
 21
31.6660408561
  0
LINE
  5
227
100
AcDbEntity
  8
0
100
AcDbLine
 62
7
  6
CONTINUOUS
 10
-22.4286328757
 20
30.1660408561
 11
-0.0786328757
 21
30.1660408561
  0
LINE
  5
228
100
AcDbEntity
  8
0
100
AcDbLine
 62
7
  6
CONTINUOUS
 10
22.2713671243
 20
30.1660408561
 11
-0.0786328757
 21
30.1660408561
  0
INSERT
  5
229
100
AcDbEntity
  8
0
100
AcDbBlockReference
 62
7
  6
CONTINUOUS
  2
_FILLED
 10
-22.4286328757
 20
30.1660408561
 41
3.0
 42
3.0
 43
3.0
 50
180.0
  0
INSERT
  5
22A
100
AcDbEntity
  8
0
100
AcDbBlockReference
 62
7
  6
CONTINUOUS
  2
_FILLED
 10
22.2713671243
 20
30.1660408561
 41
3.0
 42
3.0
 43
3.0
  0
ENDBLK
  5
22B
100
AcDbEntity
  8
0
  6
BYBLOCK
 62
0
100
AcDbBlockEnd
  0
BLOCK
  5
22C
100
AcDbEntity
  8
0
100
AcDbBlockBegin
 62
7
  6
CONTINUOUS
  2
*D1
 70
65
 10
0.0
 20
0.0
  3
*D1
  1

  0
MTEXT
  5
22D
100
AcDbEntity
  8
0
100
AcDbMText
 62
7
  6
CONTINUOUS
  7
STANDARD
 71
2
 72
1
 10
26.5213671243
 20
-0.0454404314
 30
0.0
 11
0.0
 21
1.0
 31
0.0
 44
0.9
  1
44,4
 40
3.0
 41
13.1785714286
  0
LINE
  5
22E
100
AcDbEntity
  8
0
100
AcDbLine
 62
7
  6
CONTINUOUS
 10
22.257833396
 20
22.1660408561
 11
31.7713671243
 21
22.1660408561
  0
LINE
  5
22F
100
AcDbEntity
  8
0
100
AcDbLine
 62
7
  6
CONTINUOUS
 10
22.257833396
 20
-22.256921719
 11
31.7713671243
 21
-22.256921719
  0
LINE
  5
230
100
AcDbEntity
  8
0
100
AcDbLine
 62
7
  6
CONTINUOUS
 10
30.2713671243
 20
22.1660408561
 11
30.2713671243
 21
-0.0454404314
  0
LINE
  5
231
100
AcDbEntity
  8
0
100
AcDbLine
 62
7
  6
CONTINUOUS
 10
30.2713671243
 20
-22.256921719
 11
30.2713671243
 21
-0.0454404314
  0
INSERT
  5
232
100
AcDbEntity
  8
0
100
AcDbBlockReference
 62
7
  6
CONTINUOUS
  2
_FILLED
 10
30.2713671243
 20
22.1660408561
 41
3.0
 42
3.0
 43
3.0
 50
90.0
  0
INSERT
  5
233
100
AcDbEntity
  8
0
100
AcDbBlockReference
 62
7
  6
CONTINUOUS
  2
_FILLED
 10
30.2713671243
 20
-22.256921719
 41
3.0
 42
3.0
 43
3.0
 50
270.0
  0
ENDBLK
  5
234
100
AcDbEntity
  8
0
  6
BYBLOCK
 62
0
100
AcDbBlockEnd
  0
BLOCK
  5
235
100
AcDbEntity
  8
0
100
AcDbBlockBegin
 62
7
  6
CONTINUOUS
  2
*D2
 70
65
 10
0.0
 20
0.0
  3
*D2
  1

  0
MTEXT
  5
236
100
AcDbEntity
  8
0
100
AcDbMText
 62
7
  6
CONTINUOUS
  7
STANDARD
 71
1
 72
1
 10
-38.5063323012
 20
33.9160408561
 30
0.0
 11
1.0
 21
0.0
 31
0.0
 44
0.9
  1
6,7
 40
3.0
 41
9.6428571429
  0
LINE
  5
237
100
AcDbEntity
  8
0
100
AcDbLine
 62
7
  6
CONTINUOUS
 10
-42.7215532071
 20
13.5545595686
 11
-42.7215532071
 21
31.6660408561
  0
LINE
  5
238
100
AcDbEntity
  8
0
100
AcDbLine
 62
7
  6
CONTINUOUS
 10
-49.4214258455
 20
0.8114334695
 11
-49.4214258455
 21
31.6660408561
  0
LINE
  5
239
100
AcDbEntity
  8
0
100
AcDbLine
 62
7
  6
CONTINUOUS
 10
-42.7215532071
 20
30.1660408561
 11
-32.0777608726
 21
30.1660408561
  0
LINE
  5
23A
100
AcDbEntity
  8
0
100
AcDbLine
 62
7
  6
CONTINUOUS
 10
-32.0777608726
 20
30.1660408561
 11
-46.0714895263
 21
30.1660408561
  0
LINE
  5
23B
100
AcDbEntity
  8
0
100
AcDbLine
 62
7
  6
CONTINUOUS
 10
-49.4214258455
 20
30.1660408561
 11
-53.4214258455
 21
30.1660408561
  0
LINE
  5
23C
100
AcDbEntity
  8
0
100
AcDbLine
 62
7
  6
CONTINUOUS
 10
-53.4214258455
 20
30.1660408561
 11
-46.0714895263
 21
30.1660408561
  0
INSERT
  5
23D
100
AcDbEntity
  8
0
100
AcDbBlockReference
 62
7
  6
CONTINUOUS
  2
_FILLED
 10
-42.7215532071
 20
30.1660408561
 41
3.0
 42
3.0
 43
3.0
 50
180.0
  0
INSERT
  5
23E
100
AcDbEntity
  8
0
100
AcDbBlockReference
 62
7
  6
CONTINUOUS
  2
_FILLED
 10
-49.4214258455
 20
30.1660408561
 41
3.0
 42
3.0
 43
3.0
  0
ENDBLK
  5
23F
100
AcDbEntity
  8
0
  6
BYBLOCK
 62
0
100
AcDbBlockEnd
  0
ENDSEC
  0
SECTION
  2
ENTITIES
  0
DIMENSION
  5
240
100
AcDbEntity
  8
0
100
AcDbDimension
 62
7
  6
CONTINUOUS
  2
*D0
 10
22.2713671243
 20
30.1660408561
 11
-0.5072042527
 21
30.1660408561
 70
160
 71
2
 42
44.7
  3
DIMSTYLE_1
100
AcDbAlignedDimension
 13
-22.4286328757
 23
13.0545595686
 14
22.2713671243
 24
13.0545595686
100
AcDbRotatedDimension
  0
DIMENSION
  5
241
100
AcDbEntity
  8
0
100
AcDbDimension
 62
7
  6
CONTINUOUS
  2
*D1
 10
30.2713671243
 20
-22.256921719
 11
30.2713671243
 21
-0.4740114088
 70
160
 71
2
 42
44.4229625751
  3
DIMSTYLE_2
100
AcDbAlignedDimension
 13
21.757833396
 23
22.1660408561
 14
21.757833396
 24
-22.256921719
 50
270.0
100
AcDbRotatedDimension
  0
DIMENSION
  5
242
100
AcDbEntity
  8
0
100
AcDbDimension
 62
7
  6
CONTINUOUS
  2
*D2
 10
-49.4214258455
 20
30.1660408561
 11
-35.7206183968
 21
30.1660408561
 70
160
 71
1
 42
6.6998726384
  3
DIMSTYLE_1
100
AcDbAlignedDimension
 13
-42.7215532071
 23
13.0545595686
 14
-49.4214258455
 24
0.3114334695
 50
180.0
100
AcDbRotatedDimension
  0
LWPOLYLINE
  5
243
100
AcDbEntity
  8
ASSI
100
AcDbPolyline
 62
253
  6
CONTINUOUS
 90
15
 70
0
 10
-22.3276351615
 20
20.4964654251
 10
-22.3265139001
 20
20.4975298065
 10
-22.3240556371
 20
20.498591335
 10
-22.3202669618
 20
20.4996471651
 10
-22.3151580293
 20
20.5006944667
 10
-22.3087425338
 20
20.5017304327
 10
-22.3010376716
 20
20.5027522862
 10
-22.2920640948
 20
20.5037572883
 10
-22.2818458565
 20
20.5047427451
 10
-22.2704103458
 20
20.5057060151
 10
-22.2577882148
 20
20.5066445164
 10
-22.2440132962
 20
20.5075557334
 10
-22.2291225124
 20
20.5084372237
 10
-22.2131557771
 20
20.5092866245
 10
-22.1961558879
 20
20.510101659
  0
LWPOLYLINE
  5
244
100
AcDbEntity
  8
ASSI
100
AcDbPolyline
 62
253
  6
CONTINUOUS
 90
17
 70
0
 10
-22.3276351615
 20
-20.5873462879
 10
-22.3265139111
 20
-20.5884106698
 10
-22.3240556584
 20
-20.5894721986
 10
-22.3202669925
 20
-20.5905280291
 10
-22.3151580686
 20
-20.5915753312
 10
-22.3087425809
 20
-20.5926112977
 10
-22.3010377255
 20
-20.5936331517
 10
-22.2920641547
 20
-20.5946381542
 10
-22.2818459215
 20
-20.5956236115
 10
-22.2704104151
 20
-20.596586882
 10
-22.2577882875
 20
-20.5975253838
 10
-22.2440133714
 20
-20.5984366013
 10
-22.2291225893
 20
-20.5993180921
 10
-22.2131558549
 20
-20.6001674933
 10
-22.1961559657
 20
-20.6009825284
 10
-22.1781684888
 20
-20.6017610125
 10
-22.1394261456
 20
-20.6032000848
  0
LWPOLYLINE
  5
245
100
AcDbEntity
  8
ASSI
100
AcDbPolyline
 62
253
  6
CONTINUOUS
 90
31
 70
0
 10
-22.3441619321
 20
-21.544850886
 10
-22.3434537165
 20
-21.5709678255
 10
-22.3413787766
 20
-21.597013264
 10
-22.337942793
 20
-21.6229158956
 10
-22.3331551724
 20
-21.6486048057
 10
-22.327029022
 20
-21.6740096646
 10
-22.3195811137
 20
-21.6990609203
 10
-22.3108318378
 20
-21.7236899888
 10
-22.3008051475
 20
-21.747829442
 10
-22.2895284933
 20
-21.7714131923
 10
-22.2770327477
 20
-21.7943766735
 10
-22.2633521208
 20
-21.8166570172
 10
-22.2485240666
 20
-21.8381932256
 10
-22.2325891805
 20
-21.858926338
 10
-22.215591088
 20
-21.8787995924
 10
-22.1975763256
 20
-21.8977585809
 10
-22.178594213
 20
-21.9157513985
 10
-22.1586967184
 20
-21.9327287854
 10
-22.137938316
 20
-21.9486442618
 10
-22.116375837
 20
-21.9634542552
 10
-22.094068314
 20
-21.9771182195
 10
-22.0710768192
 20
-21.9895987463
 10
-22.0474642976
 20
-22.0008616668
 10
-22.0232953941
 20
-22.0108761462
 10
-21.9986362772
 20
-22.0196147673
 10
-21.9735544572
 20
-22.0270536058
 10
-21.9481186017
 20
-22.0331722962
 10
-21.9223983477
 20
-22.0379540869
 10
-21.8964641107
 20
-22.0413858867
 10
-21.8703868921
 20
-22.0434583001
 10
-21.8442380845
 20
-22.0441656534
  0
LWPOLYLINE
  5
246
100
AcDbEntity
  8
ASSI
100
AcDbPolyline
 62
253
  6
CONTINUOUS
 90
31
 70
0
 10
-22.3441619321
 20
21.4539700232
 10
-22.3434537162
 20
21.4800869684
 10
-22.3413787754
 20
21.5061324122
 10
-22.3379427904
 20
21.5320350486
 10
-22.3331551681
 20
21.5577239629
 10
-22.3270290156
 20
21.5831288255
 10
-22.319581105
 20
21.6081800842
 10
-22.3108318265
 20
21.6328091552
 10
-22.3008051336
 20
21.6569486104
 10
-22.2895284768
 20
21.680532362
 10
-22.2770327286
 20
21.7034958438
 10
-22.2633520992
 20
21.7257761876
 10
-22.2485240427
 20
21.7473123956
 10
-22.2325891545
 20
21.7680455072
 10
-22.2155910603
 20
21.7879187603
 10
-22.1975762966
 20
21.806877747
 10
-22.178594183
 20
21.8248705626
 10
-22.1586966879
 20
21.8418479472
 10
-22.1379382855
 20
21.8577634212
 10
-22.1163758069
 20
21.8725734119
 10
-22.0940682848
 20
21.8862373736
 10
-22.0710767914
 20
21.8987178976
 10
-22.0474642715
 20
21.9099808156
 10
-22.0232953703
 20
21.9199952926
 10
-21.998636256
 20
21.9287339113
 10
-21.9735544389
 20
21.9361727479
 10
-21.9481185867
 20
21.9422914366
 10
-21.9223983362
 20
21.9470732259
 10
-21.8964641029
 20
21.9505050247
 10
-21.8703868881
 20
21.9525774375
 10
-21.8442380845
 20
21.9532847906
  0
LINE
  5
247
100
AcDbEntity
  8
ASSI
100
AcDbLine
 62
7
  6
CONTINUOUS
 10
14.5655772501
 20
-22.256921719
 11
14.9136320974
 21
-22.2253277584
  0
LINE
  5
248
100
AcDbEntity
  8
ASSI
100
AcDbLine
 62
7
  6
CONTINUOUS
 10
-14.7228430014
 20
-22.256921719
 11
-15.0708978487
 21
-22.2253277584
  0
LWPOLYLINE
  5
249
100
AcDbEntity
  8
ASSI
100
AcDbPolyline
 62
253
  6
CONTINUOUS
 90
10
 70
0
 10
-22.3387810212
 20
21.3880579008
 10
-22.3393572732
 20
21.400156347
 10
-22.3399413102
 20
21.4111017982
 10
-22.3405309581
 20
21.4208535732
 10
-22.3411262477
 20
21.4294072089
 10
-22.3417271482
 20
21.4367671684
 10
-22.3423313936
 20
21.4429061588
 10
-22.3429382283
 20
21.4478150826
 10
-22.3435484078
 20
21.4515030374
 10
-22.3441619321
 20
21.4539700232
  0
LWPOLYLINE
  5
24A
100
AcDbEntity
  8
ASSI
100
AcDbPolyline
 62
253
  6
CONTINUOUS
 90
8
 70
0
 10
-21.8400173238
 20
21.88897516
 10
-21.8406069613
 20
21.90360608
 10
-21.8412022129
 20
21.9164449601
 10
-21.8418030693
 20
21.9274760916
 10
-21.8424073193
 20
21.9366859252
 10
-21.8430142261
 20
21.9440631114
 10
-21.8436245265
 20
21.9495985428
 10
-21.8442382207
 20
21.9532854064
  0
LINE
  5
24B
100
AcDbEntity
  8
ASSI
100
AcDbLine
 62
253
  6
CONTINUOUS
 10
-22.3376519391
 20
21.3603935896
 11
-22.3387810212
 21
21.3880579008
  0
LWPOLYLINE
  5
24C
100
AcDbEntity
  8
ASSI
100
AcDbPolyline
 62
253
  6
CONTINUOUS
 90
25
 70
0
 10
-22.3202613483
 20
0.3087183603
 10
-22.3198312884
 20
0.2956394828
 10
-22.3185469335
 20
0.2826166011
 10
-22.3164137824
 20
0.2697054705
 10
-22.3134409681
 20
0.2569613678
 10
-22.3096412182
 20
0.2444388547
 10
-22.3050308012
 20
0.2321915446
 10
-22.2996294558
 20
0.2202718722
 10
-22.2934603074
 20
0.2087308695
 10
-22.2865497683
 20
0.1976179475
 10
-22.2789274253
 20
0.1869806841
 10
-22.2706259122
 20
0.1768646207
 10
-22.2616807711
 20
0.1673130676
 10
-22.2521302992
 20
0.1583669177
 10
-22.2420153854
 20
0.1500644722
 10
-22.2313793354
 20
0.1424412764
 10
-22.2202676858
 20
0.1355299673
 10
-22.2087280092
 20
0.1293601341
 10
-22.1968097111
 20
0.1239581915
 10
-22.1845638177
 20
0.1193472666
 10
-22.1720427577
 20
0.1155470997
 10
-22.1593001377
 20
0.1125739602
 10
-22.1463905132
 20
0.1104405766
 10
-22.1333691541
 20
0.1091560821
 10
-22.1202918092
 20
0.1087259757
  0
LINE
  5
24D
100
AcDbEntity
  8
ASSI
100
AcDbLine
 62
253
  6
CONTINUOUS
 10
-22.3365602525
 20
21.3282732212
 11
-22.3376519391
 21
21.3603935896
  0
LINE
  5
24E
100
AcDbEntity
  8
ASSI
100
AcDbLine
 62
253
  6
CONTINUOUS
 10
-21.8388570463
 20
21.8544121794
 11
-21.8400173238
 21
21.88897516
  0
LINE
  5
24F
100
AcDbEntity
  8
ASSI
100
AcDbLine
 62
253
  6
CONTINUOUS
 10
-21.8377279975
 20
21.8129283942
 11
-21.8388570463
 21
21.8544121794
  0
LINE
  5
250
100
AcDbEntity
  8
ASSI
100
AcDbLine
 62
253
  6
CONTINUOUS
 10
-22.3350026533
 20
21.2720318637
 11
-22.3365602525
 21
21.3282732212
  0
LINE
  5
251
100
AcDbEntity
  8
ASSI
100
AcDbLine
 62
253
  6
CONTINUOUS
 10
-22.3335571242
 20
21.2067040601
 11
-22.3350026533
 21
21.2720318637
  0
LINE
  5
252
100
AcDbEntity
  8
ASSI
100
AcDbLine
 62
253
  6
CONTINUOUS
 10
-21.8361053183
 20
21.7381834591
 11
-21.8377279975
 21
21.8129283942
  0
LINE
  5
253
100
AcDbEntity
  8
ASSI
100
AcDbLine
 62
253
  6
CONTINUOUS
 10
-22.3318313767
 20
21.1067154076
 11
-22.3335571242
 21
21.2067040601
  0
LINE
  5
254
100
AcDbEntity
  8
ASSI
100
AcDbLine
 62
253
  6
CONTINUOUS
 10
-21.8341014315
 20
21.616489204
 11
-21.8361053183
 21
21.7381834591
  0
LINE
  5
255
100
AcDbEntity
  8
ASSI
100
AcDbLine
 62
253
  6
CONTINUOUS
 10
-22.3300465649
 20
20.9639327902
 11
-22.3318313767
 21
21.1067154076
  0
LINE
  5
256
100
AcDbEntity
  8
ASSI
100
AcDbLine
 62
253
  6
CONTINUOUS
 10
-21.831516062
 20
21.3917996709
 11
-21.8341014315
 21
21.616489204
  0
LINE
  5
257
100
AcDbEntity
  8
ASSI
100
AcDbLine
 62
253
  6
CONTINUOUS
 10
-22.3285203394
 20
20.772283115
 11
-22.3300465649
 21
20.9639327902
  0
LINE
  5
258
100
AcDbEntity
  8
ASSI
100
AcDbLine
 62
253
  6
CONTINUOUS
 10
-21.8290261891
 20
21.029577212
 11
-21.831516062
 21
21.3917996709
  0
LINE
  5
259
100
AcDbEntity
  8
ASSI
100
AcDbLine
 62
7
  6
CONTINUOUS
 10
-22.4286328757
 20
-13.1454404314
 11
-22.4154789706
 21
-21.7589759912
  0
LINE
  5
25A
100
AcDbEntity
  8
ASSI
100
AcDbLine
 62
253
  6
CONTINUOUS
 10
-22.3276713242
 20
20.5316338309
 11
-22.3285203394
 21
20.772283115
  0
LINE
  5
25B
100
AcDbEntity
  8
ASSI
100
AcDbLine
 62
253
  6
CONTINUOUS
 10
-21.8254932623
 20
17.1507083306
 11
-21.8290261891
 21
21.029577212
  0
LINE
  5
25C
100
AcDbEntity
  8
ASSI
100
AcDbLine
 62
7
  6
CONTINUOUS
 10
-22.4286328757
 20
-0.3454175861
 11
-22.4286328757
 21
-13.1454404314
  0
LINE
  5
25D
100
AcDbEntity
  8
ASSI
100
AcDbLine
 62
7
  6
CONTINUOUS
 10
-22.4286328757
 20
0.2545367233
 11
-22.4286328757
 21
13.0545595686
  0
LINE
  5
25E
100
AcDbEntity
  8
ASSI
100
AcDbLine
 62
253
  6
CONTINUOUS
 10
-22.3202613483
 20
0.3087183603
 11
-22.3276713242
 21
20.5316338309
  0
LINE
  5
25F
100
AcDbEntity
  8
ASSI
100
AcDbLine
 62
253
  6
CONTINUOUS
 10
-21.82033753
 20
0.1112983293
 11
-21.8254932623
 21
17.1507083306
  0
LINE
  5
260
100
AcDbEntity
  8
ASSI
100
AcDbLine
 62
7
  6
CONTINUOUS
 10
-22.4286328757
 20
13.0545595686
 11
-22.4154789706
 21
21.6680951283
  0
LINE
  5
261
100
AcDbEntity
  8
ASSI
100
AcDbLine
 62
253
  6
CONTINUOUS
 10
-22.3281723207
 20
-20.7957000435
 11
-22.3202613483
 21
-0.3995992231
  0
LINE
  5
262
100
AcDbEntity
  8
ASSI
100
AcDbLine
 62
253
  6
CONTINUOUS
 10
-21.8290261891
 20
-21.1204580751
 11
-21.82033753
 21
-0.2021791921
  0
LINE
  5
263
100
AcDbEntity
  8
ASSI
100
AcDbLine
 62
253
  6
CONTINUOUS
 10
-22.3297434218
 20
-21.0241944005
 11
-22.3281723207
 21
-20.7957000435
  0
LINE
  5
264
100
AcDbEntity
  8
ASSI
100
AcDbLine
 62
253
  6
CONTINUOUS
 10
-21.8315160621
 20
-21.4826805341
 11
-21.8290261891
 21
-21.1204580751
  0
LINE
  5
265
100
AcDbEntity
  8
ASSI
100
AcDbLine
 62
253
  6
CONTINUOUS
 10
-22.3314398425
 20
-21.1705222182
 11
-22.3297434218
 21
-21.0241944005
  0
LINE
  5
266
100
AcDbEntity
  8
ASSI
100
AcDbLine
 62
253
  6
CONTINUOUS
 10
-21.8341014315
 20
-21.7073700671
 11
-21.8315160621
 21
-21.4826805341
  0
LINE
  5
267
100
AcDbEntity
  8
ASSI
100
AcDbLine
 62
253
  6
CONTINUOUS
 10
-22.3331026412
 20
-21.2738929727
 11
-22.3314398425
 21
-21.1705222182
  0
LINE
  5
268
100
AcDbEntity
  8
ASSI
100
AcDbLine
 62
253
  6
CONTINUOUS
 10
-21.8361053183
 20
-21.8290643221
 11
-21.8341014315
 21
-21.7073700671
  0
LINE
  5
269
100
AcDbEntity
  8
ASSI
100
AcDbLine
 62
253
  6
CONTINUOUS
 10
-22.3345071302
 20
-21.3420948002
 11
-22.3331026412
 21
-21.2738929727
  0
LINE
  5
26A
100
AcDbEntity
  8
ASSI
100
AcDbLine
 62
253
  6
CONTINUOUS
 10
-21.8377279975
 20
-21.9038092572
 11
-21.8361053183
 21
-21.8290643221
  0
LINE
  5
26B
100
AcDbEntity
  8
ASSI
100
AcDbLine
 62
253
  6
CONTINUOUS
 10
-22.3360292145
 20
-21.4014423687
 11
-22.3345071302
 21
-21.3420948002
  0
LINE
  5
26C
100
AcDbEntity
  8
ASSI
100
AcDbLine
 62
253
  6
CONTINUOUS
 10
-21.8388570463
 20
-21.9452930424
 11
-21.8377279975
 21
-21.9038092572
  0
LINE
  5
26D
100
AcDbEntity
  8
ASSI
100
AcDbLine
 62
253
  6
CONTINUOUS
 10
-22.3371011488
 20
-21.4357661372
 11
-22.3360292145
 21
-21.4014423687
  0
LWPOLYLINE
  5
26E
100
AcDbEntity
  8
ASSI
100
AcDbPolyline
 62
253
  6
CONTINUOUS
 90
25
 70
0
 10
-22.3202613483
 20
-0.3995992231
 10
-22.3198312894
 20
-0.3865203616
 10
-22.3185469376
 20
-0.3734974949
 10
-22.3164137914
 20
-0.3605863782
 10
-22.3134409835
 20
-0.347842288
 10
-22.3096412415
 20
-0.335319786
 10
-22.3050308334
 20
-0.3230724851
 10
-22.2996294977
 20
-0.31115282
 10
-22.2934603594
 20
-0.2996118225
 10
-22.2865498305
 20
-0.2884989034
 10
-22.2789274972
 20
-0.2778616407
 10
-22.2706259933
 20
-0.2677455759
 10
-22.26168086
 20
-0.2581940193
 10
-22.2521303945
 20
-0.2492478641
 10
-22.2420154854
 20
-0.2409454118
 10
-22.2313794378
 20
-0.2333222077
 10
-22.2202677881
 20
-0.2264108893
 10
-22.208728109
 20
-0.2202410462
 10
-22.1968098054
 20
-0.2148390934
 10
-22.1845639035
 20
-0.2102281586
 10
-22.172042832
 20
-0.2064279825
 10
-22.1593001977
 20
-0.203454835
 10
-22.1463905558
 20
-0.2013214451
 10
-22.1333691767
 20
-0.2000369465
 10
-22.1202918092
 20
-0.1996068385
  0
LINE
  5
26F
100
AcDbEntity
  8
ASSI
100
AcDbLine
 62
7
  6
CONTINUOUS
 10
3.3655772501
 20
-22.256921719
 11
3.7136320974
 21
-22.2253277584
  0
LINE
  5
270
100
AcDbEntity
  8
ASSI
100
AcDbLine
 62
7
  6
CONTINUOUS
 10
-7.9344227499
 20
-22.256921719
 11
-7.5863679026
 21
-22.2253277584
  0
LINE
  5
271
100
AcDbEntity
  8
ASSI
100
AcDbLine
 62
253
  6
CONTINUOUS
 10
22.0388901366
 20
-20.6009825219
 11
22.0019758111
 21
-20.6025008516
  0
LINE
  5
272
100
AcDbEntity
  8
ASSI
100
AcDbLine
 62
253
  6
CONTINUOUS
 10
22.0019758111
 20
-20.6025008516
 11
21.9615093034
 21
-20.6038568075
  0
LINE
  5
273
100
AcDbEntity
  8
ASSI
100
AcDbLine
 62
253
  6
CONTINUOUS
 10
21.9615093034
 20
-20.6038568075
 11
21.9179241919
 21
-20.6050358614
  0
LINE
  5
274
100
AcDbEntity
  8
ASSI
100
AcDbLine
 62
253
  6
CONTINUOUS
 10
21.9179241919
 20
-20.6050358614
 11
21.8716874696
 21
-20.60602538
  0
LINE
  5
275
100
AcDbEntity
  8
ASSI
100
AcDbLine
 62
253
  6
CONTINUOUS
 10
21.8716874696
 20
-20.60602538
 11
21.8232945401
 21
-20.6068147614
  0
LWPOLYLINE
  5
276
100
AcDbEntity
  8
ASSI
100
AcDbPolyline
 62
253
  6
CONTINUOUS
 90
3
 70
0
 10
21.8232945401
 20
-20.6068147614
 10
21.7732639095
 20
-20.6073955476
 10
21.7478014436
 20
-20.6076056836
  0
LINE
  5
277
100
AcDbEntity
  8
ASSI
100
AcDbLine
 62
7
  6
CONTINUOUS
 10
-21.9150991473
 20
-22.256921719
 11
-19.1344227499
 21
-22.256921719
  0
LINE
  5
278
100
AcDbEntity
  8
ASSI
100
AcDbLine
 62
7
  6
CONTINUOUS
 10
-14.7228430014
 20
-22.256921719
 11
-7.9344227499
 21
-22.256921719
  0
LINE
  5
279
100
AcDbEntity
  8
ASSI
100
AcDbLine
 62
7
  6
CONTINUOUS
 10
-3.5228430014
 20
-22.256921719
 11
3.3655772501
 21
-22.256921719
  0
LINE
  5
27A
100
AcDbEntity
  8
ASSI
100
AcDbLine
 62
7
  6
CONTINUOUS
 10
7.7771569986
 20
-22.256921719
 11
14.5655772501
 21
-22.256921719
  0
LINE
  5
27B
100
AcDbEntity
  8
ASSI
100
AcDbLine
 62
7
  6
CONTINUOUS
 10
18.9771569986
 20
-22.256921719
 11
21.757833396
 21
-22.256921719
  0
LINE
  5
27C
100
AcDbEntity
  8
ASSI
100
AcDbLine
 62
7
  6
CONTINUOUS
 10
-18.6131628218
 20
-22.2200869805
 11
-15.2441029295
 21
-22.2200869805
  0
LINE
  5
27D
100
AcDbEntity
  8
ASSI
100
AcDbLine
 62
7
  6
CONTINUOUS
 10
-7.4131628218
 20
-22.2200869805
 11
-4.0441029295
 21
-22.2200869805
  0
LINE
  5
27E
100
AcDbEntity
  8
ASSI
100
AcDbLine
 62
7
  6
CONTINUOUS
 10
3.8868371782
 20
-22.2200869805
 11
7.2558970705
 21
-22.2200869805
  0
LINE
  5
27F
100
AcDbEntity
  8
ASSI
100
AcDbLine
 62
7
  6
CONTINUOUS
 10
15.0868371782
 20
-22.2200869805
 11
18.4558970705
 21
-22.2200869805
  0
LINE
  5
280
100
AcDbEntity
  8
ASSI
100
AcDbLine
 62
253
  6
CONTINUOUS
 10
21.6869725384
 20
-22.0441662693
 11
-21.8442382897
 21
-22.0441662693
  0
LINE
  5
281
100
AcDbEntity
  8
ASSI
100
AcDbLine
 62
253
  6
CONTINUOUS
 10
-21.9557165653
 20
-20.6071316817
 11
-21.9050672166
 21
-20.6076056946
  0
LINE
  5
282
100
AcDbEntity
  8
ASSI
100
AcDbLine
 62
253
  6
CONTINUOUS
 10
-22.0049944005
 20
-20.606445678
 11
-21.9557165653
 21
-20.6071316817
  0
LINE
  5
283
100
AcDbEntity
  8
ASSI
100
AcDbLine
 62
253
  6
CONTINUOUS
 10
-22.0523727341
 20
-20.6055550337
 11
-22.0049944005
 21
-20.606445678
  0
LINE
  5
284
100
AcDbEntity
  8
ASSI
100
AcDbLine
 62
253
  6
CONTINUOUS
 10
-22.0973439306
 20
-20.6044692916
 11
-22.0523727341
 21
-20.6055550337
  0
LINE
  5
285
100
AcDbEntity
  8
ASSI
100
AcDbLine
 62
253
  6
CONTINUOUS
 10
-22.1394261456
 20
-20.6032000848
 11
-22.0973439306
 21
-20.6044692916
  0
LINE
  5
286
100
AcDbEntity
  8
ASSI
100
AcDbLine
 62
7
  6
CONTINUOUS
 10
-3.5228430014
 20
-22.256921719
 11
-3.8708978487
 21
-22.2253277584
  0
LINE
  5
287
100
AcDbEntity
  8
ASSI
100
AcDbLine
 62
7
  6
CONTINUOUS
 10
7.7771569986
 20
-22.256921719
 11
7.4291021513
 21
-22.2253277584
  0
LINE
  5
288
100
AcDbEntity
  8
ASSI
100
AcDbLine
 62
7
  6
CONTINUOUS
 10
-19.1344227499
 20
-22.256921719
 11
-18.7863679026
 21
-22.2253277584
  0
LINE
  5
289
100
AcDbEntity
  8
ASSI
100
AcDbLine
 62
253
  6
CONTINUOUS
 10
21.7478014436
 20
-20.6076056836
 11
21.6704455626
 21
-20.6079087449
  0
LWPOLYLINE
  5
28A
100
AcDbEntity
  8
ASSI
100
AcDbPolyline
 62
253
  6
CONTINUOUS
 90
3
 70
0
 10
-21.9050672166
 20
-20.6076056946
 10
-21.8793973972
 20
-20.607761527
 10
21.6704455476
 20
-20.6078950671
  0
LINE
  5
28B
100
AcDbEntity
  8
ASSI
100
AcDbLine
 62
7
  6
CONTINUOUS
 10
18.9771569986
 20
-22.256921719
 11
18.6291021513
 21
-22.2253277584
  0
LWPOLYLINE
  5
28C
100
AcDbEntity
  8
ASSI
100
AcDbPolyline
 62
253
  6
CONTINUOUS
 90
9
 70
0
 10
-21.8442382207
 20
-22.0441662693
 10
-21.8436245265
 20
-22.0404794057
 10
-21.8430142261
 20
-22.0349439743
 10
-21.8424073193
 20
-22.0275667881
 10
-21.8418030693
 20
-22.0183569546
 10
-21.8412022129
 20
-22.007325823
 10
-21.8406069613
 20
-21.994486943
 10
-21.8400173238
 20
-21.979856023
 10
-21.8388570463
 20
-21.9452930424
  0
LINE
  5
28D
100
AcDbEntity
  8
CURVE
100
AcDbLine
 62
253
  6
CONTINUOUS
 10
-11.4398567202
 20
14.6407022555
 11
-14.2339977601
 21
12.0064047561
  0
LINE
  5
28E
100
AcDbEntity
  8
CURVE
100
AcDbLine
 62
253
  6
CONTINUOUS
 10
-13.8056197154
 20
12.0267600339
 11
-11.3216056121
 21
14.3686753111
  0
LWPOLYLINE
  5
28F
100
AcDbEntity
  8
CURVE
100
AcDbPolyline
 62
253
  6
CONTINUOUS
 90
76
 70
0
 10
-14.2339977601
 20
12.0064047561
 10
-14.2376560835
 20
12.0040077399
 10
-14.2411793743
 20
12.0015135103
 10
-14.2445794855
 20
11.9989181691
 10
-14.2478682706
 20
11.9962178183
 10
-14.2510575828
 20
11.9934085598
 10
-14.2541592753
 20
11.9904864953
 10
-14.2577778713
 20
11.9868267304
 10
-14.2612810467
 20
11.982998805
 10
-14.2646624844
 20
11.9790026123
 10
-14.2679158673
 20
11.9748380457
 10
-14.2710348784
 20
11.9705049983
 10
-14.2740124658
 20
11.9660053521
 10
-14.2768386386
 20
11.9613489429
 10
-14.2795026713
 20
11.9565475951
 10
-14.2819938381
 20
11.9516131332
 10
-14.2843014136
 20
11.9465573816
 10
-14.28641616
 20
11.9413901119
 10
-14.2883347916
 20
11.9361128854
 10
-14.2900555109
 20
11.9307252104
 10
-14.29157652
 20
11.9252265954
 10
-14.2928960214
 20
11.9196165487
 10
-14.2940115814
 20
11.9138979069
 10
-14.2949182229
 20
11.9080868189
 10
-14.2956103327
 20
11.9022027613
 10
-14.2960822979
 20
11.8962652112
 10
-14.2963285053
 20
11.8902936453
 10
-14.2963444095
 20
11.8843063824
 10
-14.2961297355
 20
11.8783171081
 10
-14.2956852759
 20
11.8723383501
 10
-14.2950118235
 20
11.8663826359
 10
-14.2941101709
 20
11.860462493
 10
-14.2929811357
 20
11.8545902625
 10
-14.2916256358
 20
11.8487775395
 10
-14.2900446138
 20
11.8430357325
 10
-14.2882390124
 20
11.8373762502
 10
-14.2862097744
 20
11.8318105011
 10
-14.2843493183
 20
11.8272527238
 10
-14.2823391321
 20
11.8227776508
 10
-14.2801841345
 20
11.8183949711
 10
-14.277889244
 20
11.8141143738
 10
-14.2754593791
 20
11.8099455482
 10
-14.2728994584
 20
11.8058981832
 10
-14.270213705
 20
11.8019806069
 10
-14.2674035612
 20
11.7981957032
 10
-14.2644697737
 20
11.7945449948
 10
-14.2614130893
 20
11.7910300044
 10
-14.2582342549
 20
11.7876522547
 10
-14.2549340173
 20
11.7844132686
 10
-14.2515148907
 20
11.7813142314
 10
-14.2479864587
 20
11.7783549798
 10
-14.2443600724
 20
11.7755350129
 10
-14.2406470828
 20
11.7728538299
 10
-14.236858841
 20
11.77031093
 10
-14.233006698
 20
11.7679058125
 10
-14.2283130989
 20
11.7651994661
 10
-14.223547481
 20
11.762681702
 10
-14.2187134978
 20
11.7603434169
 10
-14.213814803
 20
11.7581755077
 10
-14.2088550499
 20
11.756168871
 10
-14.2038385757
 20
11.7543168659
 10
-14.1987724528
 20
11.7526227003
 10
-14.1936644368
 20
11.7510920444
 10
-14.1885222836
 20
11.7497305682
 10
-14.1833537491
 20
11.7485439419
 10
-14.178166145
 20
11.7475377852
 10
-14.1729650062
 20
11.746717517
 10
-14.1677554232
 20
11.7460885054
 10
-14.1625424868
 20
11.7456561188
 10
-14.1573312876
 20
11.7454257255
 10
-14.1529921562
 20
11.7453927657
 10
-14.1486519211
 20
11.7455120798
 10
-14.1443047373
 20
11.7457919408
 10
-14.1399447593
 20
11.7462406216
 10
-14.1355661421
 20
11.746866395
 10
-14.1311630405
 20
11.747677534
  0
LINE
  5
290
100
AcDbEntity
  8
CURVE
100
AcDbLine
 62
253
  6
CONTINUOUS
 10
-11.3356601393
 20
-14.4595561739
 11
-13.8276822979
 21
-12.1176408967
  0
LINE
  5
291
100
AcDbEntity
  8
CURVE
100
AcDbLine
 62
253
  6
CONTINUOUS
 10
-14.2563425648
 20
-12.0972856189
 11
-11.4532409696
 21
-14.7319006183
  0
LWPOLYLINE
  5
292
100
AcDbEntity
  8
CURVE
100
AcDbPolyline
 62
253
  6
CONTINUOUS
 90
60
 70
0
 10
-11.4532409696
 20
-14.7319006183
 10
-11.4506420805
 20
-14.7354445948
 10
-11.4479659393
 20
-14.7388678276
 10
-11.4452075732
 20
-14.7421817211
 10
-11.4423620098
 20
-14.7453976796
 10
-11.4394242764
 20
-14.7485271076
 10
-11.4363894006
 20
-14.7515814094
 10
-11.4326136903
 20
-14.7551592113
 10
-11.4286905632
 20
-14.758639455
 10
-11.424619648
 20
-14.7620163412
 10
-11.4204005735
 20
-14.7652840712
 10
-11.4160329685
 20
-14.7684368459
 10
-11.4122807563
 20
-14.7709715924
 10
-11.4084320481
 20
-14.773415711
 10
-11.4044937521
 20
-14.7757624314
 10
-11.4004727763
 20
-14.7780049827
 10
-11.3963760287
 20
-14.7801365943
 10
-11.3922104173
 20
-14.7821504958
 10
-11.3879817996
 20
-14.7840403437
 10
-11.38369183
 20
-14.7858015044
 10
-11.3793411122
 20
-14.7874297715
 10
-11.3749302502
 20
-14.7889209387
 10
-11.3704598475
 20
-14.7902707997
 10
-11.3659305081
 20
-14.7914751481
 10
-11.3613441394
 20
-14.7925292783
 10
-11.3567078635
 20
-14.7934264876
 10
-11.3520301061
 20
-14.794159574
 10
-11.3473192929
 20
-14.7947213355
 10
-11.3425838498
 20
-14.7951045701
 10
-11.3378322024
 20
-14.7953020759
 10
-11.3330721817
 20
-14.7953084108
 10
-11.3283092386
 20
-14.7951251723
 10
-11.3235482293
 20
-14.7947557179
 10
-11.31879401
 20
-14.7942034052
 10
-11.3140514369
 20
-14.7934715915
 10
-11.309325366
 20
-14.7925636345
 10
-11.304620933
 20
-14.7914830401
 10
-11.2999443912
 20
-14.7902339089
 10
-11.2953022733
 20
-14.7888204899
 10
-11.2907011119
 20
-14.7872470321
 10
-11.2861474398
 20
-14.7855177847
 10
-11.2816477896
 20
-14.7836369966
 10
-11.2772093538
 20
-14.7816098513
 10
-11.2728419628
 20
-14.7794452694
 10
-11.268556107
 20
-14.7771531058
 10
-11.2643622765
 20
-14.7747432155
 10
-11.2602709616
 20
-14.7722254534
 10
-11.2562926525
 20
-14.7696096744
 10
-11.2524357089
 20
-14.7669045729
 10
-11.2486999693
 20
-14.7641142005
 10
-11.2450831415
 20
-14.7612414482
 10
-11.2415829336
 20
-14.7582892072
 10
-11.2381970534
 20
-14.7552603685
 10
-11.2349232088
 20
-14.752157823
 10
-11.2317586657
 20
-14.7489818069
 10
-11.2286989213
 20
-14.7457219358
 10
-11.2257390306
 20
-14.7423651707
 10
-11.2228740487
 20
-14.7388984722
 10
-11.2200990305
 20
-14.7353088012
 10
-11.2174090312
 20
-14.7315831183
  0
LWPOLYLINE
  5
293
100
AcDbEntity
  8
ASSI
100
AcDbPolyline
 62
253
  6
CONTINUOUS
 90
12
 70
0
 10
-22.3441619321
 20
-21.544850886
 10
-22.3435484078
 20
-21.5423839003
 10
-22.3429382283
 20
-21.5386959455
 10
-22.3423313936
 20
-21.5337870217
 10
-22.3417271482
 20
-21.5276480313
 10
-22.3411262477
 20
-21.5202880719
 10
-22.3405309581
 20
-21.5117344361
 10
-22.3399413102
 20
-21.5019826612
 10
-22.3393572732
 20
-21.4910372099
 10
-22.3387810212
 20
-21.4789387637
 10
-22.3382125877
 20
-21.4656831056
 10
-22.3371011488
 20
-21.4357661372
  0
LWPOLYLINE
  5
294
100
AcDbEntity
  8
ASSI
100
AcDbPolyline
 62
253
  6
CONTINUOUS
 90
85
 70
0
 10
-12.7492406434
 20
-4.5463406115
 10
-12.7483124311
 20
-4.4939906428
 10
-12.7454225044
 20
-4.441670513
 10
-12.7405708634
 20
-4.3893802226
 10
-12.7337569486
 20
-4.3370179625
 10
-12.7249813195
 20
-4.284685543
 10
-12.7142456549
 20
-4.232688395
 10
-12.7015295377
 20
-4.1810284388
 10
-12.6868533851
 20
-4.129703757
 10
-12.6702801263
 20
-4.079014026
 10
-12.6517920936
 20
-4.0289686926
 10
-12.6314069548
 20
-3.9795583141
 10
-12.6092406435
 20
-3.9310542337
 10
-12.5852928829
 20
-3.8834860718
 10
-12.5595639497
 20
-3.8368242129
 10
-12.5321706079
 20
-3.7912511471
 10
-12.5031164822
 20
-3.7467807207
 10
-12.4723979478
 20
-3.7033990925
 10
-12.4401208949
 20
-3.6612472211
 10
-12.4062749159
 20
-3.6203184293
 10
-12.3708704183
 20
-3.5806193994
 10
-12.3340445146
 20
-3.5423111295
 10
-12.2957831631
 20
-3.5053922937
 10
-12.2561004054
 20
-3.4698642227
 10
-12.2151754786
 20
-3.4358919
 10
-12.1730049501
 20
-3.4034859964
 10
-12.1295922526
 20
-3.3726358456
 10
-12.0851269204
 20
-3.3434744252
 10
-12.0396084694
 20
-3.3160114939
 10
-11.9930373838
 20
-3.2902372969
 10
-11.9456046514
 20
-3.2662555416
 10
-11.8973066975
 20
-3.2440728852
 10
-11.8481470969
 20
-3.2236826738
 10
-11.798327562
 20
-3.2051686475
 10
-11.7478432093
 20
-3.1885377336
 10
-11.6966989222
 20
-3.1737830074
 10
-11.6451110642
 20
-3.1609674311
 10
-11.5930779071
 20
-3.150099454
 10
-11.5406011791
 20
-3.1411706286
 10
-11.4879024279
 20
-3.134218571
 10
-11.4349815119
 20
-3.1292517136
 10
-11.3818385726
 20
-3.1262616249
 10
-11.3286955825
 20
-3.1252606256
 10
-11.2755525584
 20
-3.126256927
 10
-11.2224094835
 20
-3.1292423178
 10
-11.1694882788
 20
-3.1342044834
 10
-11.1167890924
 20
-3.1411518452
 10
-11.0643117763
 20
-3.150075981
 10
-11.0122778079
 20
-3.1609393114
 10
-10.9606888614
 20
-3.1737502975
 10
-10.9095432627
 20
-3.1885004765
 10
-10.8590574672
 20
-3.2051268821
 10
-10.8092363338
 20
-3.2236364705
 10
-10.7600750035
 20
-3.2440222831
 10
-10.711775355
 20
-3.2662004816
 10
-10.6643410924
 20
-3.2901776542
 10
-10.6177685115
 20
-3.3159472095
 10
-10.5722483784
 20
-3.3434055398
 10
-10.5277812439
 20
-3.3725622837
 10
-10.4843665571
 20
-3.4034077986
 10
-10.442193432
 20
-3.4358095546
 10
-10.4012650608
 20
-3.4697783745
 10
-10.3615782512
 20
-3.505303431
 10
-10.3233125409
 20
-3.5422197195
 10
-10.2864817546
 20
-3.5805263169
 10
-10.2510720676
 20
-3.6202241414
 10
-10.2172215425
 20
-3.6611509512
 10
-10.1849409611
 20
-3.7032998214
 10
-10.1542195416
 20
-3.7466776719
 10
-10.1251630009
 20
-3.7911430284
 10
-10.0977680993
 20
-3.8367088009
 10
-10.0720380765
 20
-3.8833620744
 10
-10.0480883686
 20
-3.930922637
 10
-10.0259188834
 20
-3.9794199561
 10
-10.005529713
 20
-4.0288245593
 10
-9.9870365701
 20
-4.0788678266
 10
-9.9704566424
 20
-4.1295600471
 10
-9.9557727421
 20
-4.1808909275
 10
-9.9430490181
 20
-4.2325609754
 10
-9.9323058745
 20
-4.2845727345
 10
-9.9235229072
 20
-4.3369236583
 10
-9.9167030531
 20
-4.3893066208
 10
-9.9118472914
 20
-4.4416192469
 10
-9.908954643
 20
-4.4939639107
 10
-9.9080251079
 20
-4.5463406115
  0
LWPOLYLINE
  5
295
100
AcDbEntity
  8
ASSI
100
AcDbPolyline
 62
253
  6
CONTINUOUS
 90
85
 70
0
 10
-12.7492406434
 20
4.4554597486
 10
-12.7482963447
 20
4.5077995262
 10
-12.7453910683
 20
4.5601089558
 10
-12.7405248142
 20
4.612388037
 10
-12.7336969997
 20
4.6647385294
 10
-12.7249082075
 20
4.7170586721
 10
-12.714160186
 20
4.7690431852
 10
-12.7014325326
 20
4.8206901467
 10
-12.6867456499
 20
4.8720014794
 10
-12.6701624939
 20
4.9226776718
 10
-12.6516654075
 20
4.9727092905
 10
-12.6312720478
 20
5.0221057717
 10
-12.6090983422
 20
5.0705959094
 10
-12.5851440065
 20
5.1181501219
 10
-12.5594093249
 20
5.1647979955
 10
-12.5320110786
 20
5.2103570773
 10
-12.5029528901
 20
5.2548135211
 10
-12.4722311369
 20
5.2981811785
 10
-12.4399517318
 20
5.3403191447
 10
-12.4061042774
 20
5.3812340824
 10
-12.3706991711
 20
5.4209193349
 10
-12.3338735187
 20
5.4592140185
 10
-12.2956132862
 20
5.4961194599
 10
-12.2559325075
 20
5.5316343389
 10
-12.215010391
 20
5.5655938014
 10
-12.1728435108
 20
5.5979871838
 10
-12.1294352927
 20
5.6288251563
 10
-12.0849752224
 20
5.6579748667
 10
-12.0394628285
 20
5.6854265606
 10
-11.9928985825
 20
5.7111899988
 10
-11.9454733847
 20
5.7351616015
 10
-11.8971836728
 20
5.757334719
 10
-11.8480330091
 20
5.7777160067
 10
-11.7982229812
 20
5.7962218437
 10
-11.7477487201
 20
5.8128453127
 10
-11.6966150948
 20
5.8275933355
 10
-11.6450382993
 20
5.8404030499
 10
-11.5930166129
 20
5.8512660209
 10
-11.5405517563
 20
5.8601906867
 10
-11.4878650855
 20
5.8671394947
 10
-11.4349564648
 20
5.8721040275
 10
-11.38182603
 20
5.8750927043
 10
-11.3286955444
 20
5.8760932268
 10
-11.275565025
 20
5.8750973982
 10
-11.2224344547
 20
5.8721134154
 10
-11.1695255458
 20
5.8671535704
 10
-11.1168384403
 20
5.8602094542
 10
-11.0643729961
 20
5.8512894742
 10
-11.0123504992
 20
5.840431146
 10
-10.9607726162
 20
5.827626018
 10
-10.9096376806
 20
5.8128825387
 10
-10.8591619784
 20
5.7962635743
 10
-10.8093503538
 20
5.7777621717
 10
-10.7601979627
 20
5.7573852795
 10
-10.7119065583
 20
5.7352166166
 10
-10.6644798323
 20
5.7112495931
 10
-10.6179140932
 20
5.6854907933
 10
-10.5724000194
 20
5.658043697
 10
-10.5279381488
 20
5.6288986597
 10
-10.4845279436
 20
5.5980653195
 10
-10.4423584691
 20
5.5656760815
 10
-10.4014329107
 20
5.5317201188
 10
-10.361748083
 20
5.4962082516
 10
-10.323483495
 20
5.4593053557
 10
-10.2866529645
 20
5.4210123443
 10
-10.2512426737
 20
5.3813282977
 10
-10.217390678
 20
5.3404153424
 10
-10.1851077495
 20
5.2982803782
 10
-10.1543831162
 20
5.2549164994
 10
-10.1253225172
 20
5.2104651248
 10
-10.0979227147
 20
5.1649133329
 10
-10.0721869465
 20
5.1182740397
 10
-10.0482306665
 20
5.0707274212
 10
-10.0260537902
 20
5.0222440388
 10
-10.005656402
 20
4.9728533264
 10
-9.9871542085
 20
4.9228237703
 10
-9.9705643872
 20
4.8721450892
 10
-9.9558697607
 20
4.8208275615
 10
-9.9431345031
 20
4.7691705149
 10
-9.932379004
 20
4.7171714013
 10
-9.9235828738
 20
4.6648327679
 10
-9.9167491186
 20
4.612461588
 10
-9.9118787401
 20
4.5601601867
 10
-9.9089707366
 20
4.5078262401
 10
-9.9080251079
 20
4.4554597486
  0
LWPOLYLINE
  5
296
100
AcDbEntity
  8
ASSI
100
AcDbPolyline
 62
253
  6
CONTINUOUS
 90
85
 70
0
 10
-12.6492558739
 20
-4.5454404314
 10
-12.6483712876
 20
-4.4968891475
 10
-12.645689614
 20
-4.448231451
 10
-12.6411954883
 20
-4.3995346554
 10
-12.6348724406
 20
-4.3508430304
 10
-12.6267119751
 20
-4.3022508387
 10
-12.6167226752
 20
-4.2539007332
 10
-12.6049074826
 20
-4.2058617601
 10
-12.5912723859
 20
-4.1582047717
 10
-12.5758509144
 20
-4.1110717784
 10
-12.5586637064
 20
-4.064533357
 10
-12.5397316081
 20
-4.0186526697
 10
-12.5191073059
 20
-3.973554423
 10
-12.4968355826
 20
-3.9293216518
 10
-12.4729424108
 20
-3.8859921732
 10
-12.4474616459
 20
-3.8436182744
 10
-12.4204392382
 20
-3.8022673059
 10
-12.3919103066
 20
-3.7619844718
 10
-12.3618907945
 20
-3.7227896258
 10
-12.3304148051
 20
-3.6847297878
 10
-12.297532176
 20
-3.6478675964
 10
-12.263280653
 20
-3.6122476301
 10
-12.2276994529
 20
-3.5779145112
 10
-12.1908437049
 20
-3.5449251301
 10
-12.1527784521
 20
-3.5133391143
 10
-12.1135601557
 20
-3.4832030232
 10
-12.0732409705
 20
-3.4545566476
 10
-12.0318838099
 20
-3.4274441529
 10
-11.9895509195
 20
-3.4019050294
 10
-11.9462984744
 20
-3.3779718804
 10
-11.9021824551
 20
-3.3556750593
 10
-11.8572644402
 20
-3.3350454549
 10
-11.8116077812
 20
-3.3161119326
 10
-11.7652722844
 20
-3.2988993147
 10
-11.7183207258
 20
-3.2834313408
 10
-11.6708208056
 20
-3.2697307283
 10
-11.622840896
 20
-3.2578173667
 10
-11.5744484143
 20
-3.2477080412
 10
-11.5257109831
 20
-3.239416923
 10
-11.4766982393
 20
-3.2329558353
 10
-11.4274796235
 20
-3.2283337907
 10
-11.3781233831
 20
-3.2255570574
 10
-11.32869781
 20
-3.2246294267
 10
-11.2792721794
 20
-3.2255521958
 10
-11.2299157344
 20
-3.2283240692
 10
-11.1806967198
 20
-3.2329412637
 10
-11.131683389
 20
-3.2393975185
 10
-11.0829451777
 20
-3.2476838293
 10
-11.0345516624
 20
-3.2577883957
 10
-10.9865704123
 20
-3.2696970765
 10
-10.9390689065
 20
-3.2833930903
 10
-10.8921156286
 20
-3.2988565251
 10
-10.8457782575
 20
-3.3160646752
 10
-10.8001195946
 20
-3.3349937956
 10
-10.7551996153
 20
-3.3556189849
 10
-10.7110817829
 20
-3.3779112982
 10
-10.6678275422
 20
-3.4018398855
 10
-10.6254926759
 20
-3.4273744953
 10
-10.5841334534
 20
-3.4544824673
 10
-10.5438120233
 20
-3.4831243757
 10
-10.5045908626
 20
-3.5132564128
 10
-10.466521971
 20
-3.5448390125
 10
-10.4296620651
 20
-3.5778255138
 10
-10.3940763931
 20
-3.612156185
 10
-10.3598198403
 20
-3.6477744671
 10
-10.3269319645
 20
-3.6846354802
 10
-10.2954514579
 20
-3.722693528
 10
-10.265428297
 20
-3.7618855863
 10
-10.2368962426
 20
-3.8021648504
 10
-10.2098713031
 20
-3.8435111325
 10
-10.184388918
 20
-3.8858783605
 10
-10.1604943809
 20
-3.929199879
 10
-10.1382203473
 20
-3.9734255385
 10
-10.1175928826
 20
-4.0185175968
 10
-10.0986568739
 20
-4.0643930851
 10
-10.0814643239
 20
-4.1109296455
 10
-10.0660362045
 20
-4.158065043
 10
-10.0523938354
 20
-4.2057280339
 10
-10.0405711527
 20
-4.2537766239
 10
-10.0305744638
 20
-4.3021403445
 10
-10.0224071834
 20
-4.3507498309
 10
-10.0160784045
 20
-4.399461325
 10
-10.0115799166
 20
-4.4481801454
 10
-10.0088954466
 20
-4.4968623146
 10
-10.0080098774
 20
-4.5454404314
  0
LWPOLYLINE
  5
297
100
AcDbEntity
  8
ASSI
100
AcDbPolyline
 62
253
  6
CONTINUOUS
 90
85
 70
0
 10
-12.6492558739
 20
4.4545595686
 10
-12.6483551746
 20
4.5031013834
 10
-12.6456580776
 20
4.5517489942
 10
-12.6411492247
 20
4.6004351181
 10
-12.6348121218
 20
4.6491155002
 10
-12.626638308
 20
4.6976959184
 10
-12.6166364532
 20
4.7460337999
 10
-12.604809493
 20
4.7940601402
 10
-12.5911634097
 20
4.8417041201
 10
-12.5757318006
 20
4.8888238184
 10
-12.5585352845
 20
4.9353487155
 10
-12.5395946888
 20
4.9812156767
 10
-12.5189627568
 20
5.0263000591
 10
-12.496684234
 20
5.07051891
 10
-12.4727850704
 20
5.113834419
 10
-12.4472992023
 20
5.1561942675
 10
-12.4202725587
 20
5.1975311547
 10
-12.3917402267
 20
5.2377999217
 10
-12.3617182294
 20
5.2769806953
 10
-12.3302406559
 20
5.3150264923
 10
-12.2973573081
 20
5.3518747375
 10
-12.2631059853
 20
5.3874808875
 10
-12.2275258757
 20
5.421800371
 10
-12.1906720741
 20
5.4547763484
 10
-12.1526096665
 20
5.486349241
 10
-12.1133950752
 20
5.5164725465
 10
-12.0730804134
 20
5.5451065191
 10
-12.0317286308
 20
5.5722070379
 10
-11.9894019318
 20
5.5977346642
 10
-11.9461564369
 20
5.6216568429
 10
-11.9020481389
 20
5.64394327
 10
-11.8571385661
 20
5.6645631041
 10
-11.8114910083
 20
5.683487523
 10
-11.7651652619
 20
5.7006917536
 10
-11.7182240467
 20
5.7161520965
 10
-11.670734991
 20
5.7298458701
 10
-11.6227664284
 20
5.7417532294
 10
-11.5743857069
 20
5.7518574209
 10
-11.5256603758
 20
5.7601442951
 10
-11.476660022
 20
5.7666020575
 10
-11.4274540131
 20
5.7712217148
 10
-11.3781105182
 20
5.7739970076
 10
-11.3286977679
 20
5.774924155
 10
-11.2792849603
 20
5.7740018648
 10
-11.2299412611
 20
5.7712314274
 10
-11.1807348541
 20
5.766616616
 10
-11.1317339138
 20
5.7601636821
 10
-11.0830078035
 20
5.7518816109
 10
-11.0346260495
 20
5.7417821742
 10
-10.9866561478
 20
5.7298794917
 10
-10.9391655083
 20
5.7161903128
 10
-10.8922225758
 20
5.700734505
 10
-10.8458949575
 20
5.6835347386
 10
-10.8002453983
 20
5.6646147181
 10
-10.7553338637
 20
5.6439992955
 10
-10.7112237552
 20
5.6217173727
 10
-10.6679764673
 20
5.5977997523
 10
-10.6256477949
 20
5.5722766362
 10
-10.584293953
 20
5.5451806367
 10
-10.5439770489
 20
5.5165511279
 10
-10.5047595961
 20
5.4864318733
 10
-10.4666935528
 20
5.4548623939
 10
-10.4298355965
 20
5.4218892939
 10
-10.3942510189
 20
5.3875722564
 10
-10.359994671
 20
5.3519677903
 10
-10.3271060815
 20
5.315120724
 10
-10.2956239958
 20
5.2770767177
 10
-10.2655983549
 20
5.2378987327
 10
-10.2370629055
 20
5.1976335364
 10
-10.2100337345
 20
5.156301335
 10
-10.1845462499
 20
5.1139481542
 10
-10.1606457244
 20
5.0706406007
 10
-10.1383648948
 20
5.0264288569
 10
-10.1177298036
 20
4.9813506574
 10
-10.0987853007
 20
4.9354888895
 10
-10.0815834462
 20
4.8889658507
 10
-10.0661451932
 20
4.8418437493
 10
-10.0524918407
 20
4.7941937707
 10
-10.0406573932
 20
4.7461578206
 10
-10.0306481508
 20
4.6978063342
 10
-10.0224675219
 20
4.6492086343
 10
-10.016124686
 20
4.6005083979
 10
-10.0116114671
 20
4.551800265
 10
-10.0089115679
 20
4.5031281984
 10
-10.0080098774
 20
4.4545595686
  0
LINE
  5
298
100
AcDbEntity
  8
ASSI
100
AcDbLine
 62
253
  6
CONTINUOUS
 10
-22.4154789706
 20
-21.7589759912
 11
-22.3441619321
 21
-21.544850886
  0
LINE
  5
299
100
AcDbEntity
  8
ASSI
100
AcDbLine
 62
253
  6
CONTINUOUS
 10
-21.9150991473
 20
-22.256921719
 11
-21.8442382897
 21
-22.0441662693
  0
LWPOLYLINE
  5
29A
100
AcDbEntity
  8
CURVE
100
AcDbPolyline
 62
253
  6
CONTINUOUS
 90
76
 70
0
 10
-14.1538275954
 20
-11.8385583968
 10
-14.1581194934
 20
-11.8377687795
 10
-14.162379414
 20
-11.8371423295
 10
-14.1666192353
 20
-11.8366736796
 10
-14.170850835
 20
-11.8363574623
 10
-14.1750860913
 20
-11.8361883103
 10
-14.1793368819
 20
-11.8361608561
 10
-14.1844708425
 20
-11.8363097561
 10
-14.1896394961
 20
-11.8366598633
 10
-14.1948380616
 20
-11.8372160691
 10
-14.2000617582
 20
-11.8379832649
 10
-14.205305805
 20
-11.8389663419
 10
-14.2105634845
 20
-11.8401692617
 10
-14.2158203326
 20
-11.8415922671
 10
-14.2210599485
 20
-11.843234671
 10
-14.2262659317
 20
-11.8450957862
 10
-14.2314218812
 20
-11.8471749257
 10
-14.2365139871
 20
-11.849471807
 10
-14.2415388012
 20
-11.8519877658
 10
-14.246495466
 20
-11.8547245422
 10
-14.251383124
 20
-11.8576838766
 10
-14.2562009178
 20
-11.8608675093
 10
-14.2609451998
 20
-11.8642751007
 10
-14.2656011623
 20
-11.8678979929
 10
-14.2701512078
 20
-11.8717254479
 10
-14.2745777386
 20
-11.875746728
 10
-14.2788631571
 20
-11.8799510955
 10
-14.2829915384
 20
-11.8843280586
 10
-14.28695365
 20
-11.8888681097
 10
-14.2907419321
 20
-11.8935619875
 10
-14.2943488248
 20
-11.8984004304
 10
-14.2977667683
 20
-11.9033741769
 10
-14.3009881462
 20
-11.9084738142
 10
-14.3040051148
 20
-11.9136893235
 10
-14.3068097737
 20
-11.9190105345
 10
-14.3093942226
 20
-11.924427277
 10
-14.3117505609
 20
-11.9299293808
 10
-14.3135343989
 20
-11.9345714891
 10
-14.3151508094
 20
-11.9392548437
 10
-14.3165962616
 20
-11.9439684749
 10
-14.3178672244
 20
-11.9487014127
 10
-14.3189601668
 20
-11.9534426876
 10
-14.3198715578
 20
-11.9581813297
 10
-14.3205983803
 20
-11.9629079743
 10
-14.3211396724
 20
-11.9676196761
 10
-14.3214949857
 20
-11.972315095
 10
-14.3216638722
 20
-11.9769928907
 10
-14.3216458837
 20
-11.9816517231
 10
-14.3214405721
 20
-11.9862902519
 10
-14.3210491872
 20
-11.9909059893
 10
-14.3204797719
 20
-11.9954918568
 10
-14.3197420671
 20
-12.0000396281
 10
-14.3188458137
 20
-12.0045410773
 10
-14.3178007526
 20
-12.008987978
 10
-14.3166166247
 20
-12.0133721041
 10
-14.3150245556
 20
-12.0185420214
 10
-14.313255513
 20
-12.0236159471
 10
-14.3113187523
 20
-12.0286001308
 10
-14.3092235294
 20
-12.033500822
 10
-14.3069790996
 20
-12.0383242701
 10
-14.3045932796
 20
-12.0430741965
 10
-14.302068129
 20
-12.0477442104
 10
-14.2994042685
 20
-12.0523253924
 10
-14.2966023185
 20
-12.0568088235
 10
-14.2936628996
 20
-12.0611855846
 10
-14.290586477
 20
-12.0654468356
 10
-14.2873728942
 20
-12.0695840529
 10
-14.2840218393
 20
-12.0735887919
 10
-14.2805330005
 20
-12.0774526079
 10
-14.2769060657
 20
-12.0811670565
 10
-14.273776301
 20
-12.0841426192
 10
-14.2705406151
 20
-12.0870059919
 10
-14.2671892033
 20
-12.0897545765
 10
-14.2637122607
 20
-12.0923857746
 10
-14.2600999828
 20
-12.0948969882
 10
-14.2563425648
 20
-12.0972856189
  0
LINE
  5
29B
100
AcDbEntity
  8
ASSI
100
AcDbLine
 62
253
  6
CONTINUOUS
 10
-22.3441619321
 20
21.4539700232
 11
-22.4154789706
 21
21.6680951283
  0
LINE
  5
29C
100
AcDbEntity
  8
ASSI
100
AcDbLine
 62
253
  6
CONTINUOUS
 10
-21.8442382897
 20
21.9532854065
 11
-21.9150991473
 21
22.1660408561
  0
LINE
  5
29D
100
AcDbEntity
  8
ASSI
100
AcDbLine
 62
253
  6
CONTINUOUS
 10
-22.4286328757
 20
0.2545367233
 11
-22.3202613483
 21
0.3087183603
  0
LINE
  5
29E
100
AcDbEntity
  8
CURVE
100
AcDbLine
 62
253
  6
CONTINUOUS
 10
-13.8276822979
 20
-12.1176408967
 11
-8.851646036
 21
-12.1176408967
  0
LINE
  5
29F
100
AcDbEntity
  8
CURVE
100
AcDbLine
 62
253
  6
CONTINUOUS
 10
-8.5261027109
 20
-11.8385583968
 11
-14.1538275954
 21
-11.8385583968
  0
LINE
  5
2A0
100
AcDbEntity
  8
ASSI
100
AcDbLine
 62
253
  6
CONTINUOUS
 10
-22.3202613483
 20
-0.3995992231
 11
-22.4286328757
 21
-0.3454175861
  0
LWPOLYLINE
  5
2A1
100
AcDbEntity
  8
ASSI
100
AcDbPolyline
 62
253
  6
CONTINUOUS
 90
85
 70
0
 10
-9.9080251079
 20
4.4554597486
 10
-9.9089533203
 20
4.4031097799
 10
-9.9118432469
 20
4.3507896501
 10
-9.9166948879
 20
4.2984993598
 10
-9.9235088027
 20
4.2461370996
 10
-9.9322844318
 20
4.1938046801
 10
-9.9430200964
 20
4.1418075322
 10
-9.9557362136
 20
4.090147576
 10
-9.9704123663
 20
4.0388228942
 10
-9.986985625
 20
3.9881331632
 10
-10.0054736577
 20
3.9380878298
 10
-10.0258587965
 20
3.8886774513
 10
-10.0480251078
 20
3.8401733708
 10
-10.0719728685
 20
3.7926052089
 10
-10.0977018016
 20
3.7459433501
 10
-10.1250951434
 20
3.7003702842
 10
-10.1541492692
 20
3.6558998579
 10
-10.1848678035
 20
3.6125182297
 10
-10.2171448564
 20
3.5703663583
 10
-10.2509908354
 20
3.5294375665
 10
-10.286395333
 20
3.4897385366
 10
-10.3232212368
 20
3.4514302666
 10
-10.3614825882
 20
3.4145114308
 10
-10.4011653459
 20
3.3789833599
 10
-10.4420902727
 20
3.3450110372
 10
-10.4842608012
 20
3.3126051336
 10
-10.5276734988
 20
3.2817549828
 10
-10.5721388309
 20
3.2525935623
 10
-10.617657282
 20
3.225130631
 10
-10.6642283676
 20
3.1993564341
 10
-10.7116610999
 20
3.1753746787
 10
-10.7599590538
 20
3.1531920224
 10
-10.8091186544
 20
3.1328018109
 10
-10.8589381893
 20
3.1142877847
 10
-10.9094225421
 20
3.0976568708
 10
-10.9605668291
 20
3.0829021446
 10
-11.0121546871
 20
3.0700865683
 10
-11.0641878442
 20
3.0592185912
 10
-11.1166645722
 20
3.0502897657
 10
-11.1693633235
 20
3.0433377081
 10
-11.2222842395
 20
3.0383708507
 10
-11.2754271787
 20
3.0353807621
 10
-11.3285701688
 20
3.0343797627
 10
-11.3817131929
 20
3.0353760642
 10
-11.4348562679
 20
3.0383614549
 10
-11.4877774725
 20
3.0433236206
 10
-11.5404766589
 20
3.0502709824
 10
-11.5929539751
 20
3.0591951182
 10
-11.6449879434
 20
3.0700584485
 10
-11.6965768899
 20
3.0828694347
 10
-11.7477224886
 20
3.0976196136
 10
-11.7982082841
 20
3.1142460193
 10
-11.8480294175
 20
3.1327556077
 10
-11.8971907478
 20
3.1531414202
 10
-11.9454903963
 20
3.1753196187
 10
-11.9929246589
 20
3.1992967914
 10
-12.0394972398
 20
3.2250663467
 10
-12.0850173729
 20
3.2525246769
 10
-12.1294845075
 20
3.2816814209
 10
-12.1728991942
 20
3.3125269357
 10
-12.2150723193
 20
3.3449286918
 10
-12.2560006905
 20
3.3788975117
 10
-12.2956875001
 20
3.4144225682
 10
-12.3339532105
 20
3.4513388567
 10
-12.3707839967
 20
3.489645454
 10
-12.4061936837
 20
3.5293432786
 10
-12.4400442088
 20
3.5702700884
 10
-12.4723247902
 20
3.6124189586
 10
-12.5030462097
 20
3.655796809
 10
-12.5321027504
 20
3.7002621655
 10
-12.559497652
 20
3.7458279381
 10
-12.5852276748
 20
3.7924812115
 10
-12.6091773827
 20
3.8400417742
 10
-12.6313468679
 20
3.8885390932
 10
-12.6517360383
 20
3.9379436965
 10
-12.6702291812
 20
3.9879869638
 10
-12.6868091089
 20
4.0386791842
 10
-12.7014930092
 20
4.0900100646
 10
-12.7142167332
 20
4.1416801125
 10
-12.7249598768
 20
4.1936918716
 10
-12.7337428442
 20
4.2460427954
 10
-12.7405626982
 20
4.298425758
 10
-12.7454184599
 20
4.3507383841
 10
-12.7483111083
 20
4.4030830478
 10
-12.7492406434
 20
4.4554597486
  0
LWPOLYLINE
  5
2A2
100
AcDbEntity
  8
ASSI
100
AcDbPolyline
 62
253
  6
CONTINUOUS
 90
85
 70
0
 10
-9.9080251079
 20
-4.5463406115
 10
-9.9089694066
 20
-4.598680389
 10
-9.911874683
 20
-4.6509898187
 10
-9.9167409371
 20
-4.7032688999
 10
-9.9235687517
 20
-4.7556193922
 10
-9.9323575439
 20
-4.807939535
 10
-9.9431055654
 20
-4.859924048
 10
-9.9558332187
 20
-4.9115710096
 10
-9.9705201014
 20
-4.9628823423
 10
-9.9871032574
 20
-5.0135585346
 10
-10.0056003438
 20
-5.0635901534
 10
-10.0259937036
 20
-5.1129866345
 10
-10.0481674091
 20
-5.1614767722
 10
-10.0721217449
 20
-5.2090309848
 10
-10.0978564264
 20
-5.2556788584
 10
-10.1252546728
 20
-5.3012379402
 10
-10.1543128612
 20
-5.3456943839
 10
-10.1850346144
 20
-5.3890620414
 10
-10.2173140195
 20
-5.4312000075
 10
-10.251161474
 20
-5.4721149453
 10
-10.2865665802
 20
-5.5118001978
 10
-10.3233922326
 20
-5.5500948813
 10
-10.3616524652
 20
-5.5870003228
 10
-10.4013332438
 20
-5.6225152017
 10
-10.4422553603
 20
-5.6564746643
 10
-10.4844222405
 20
-5.6888680466
 10
-10.5278304587
 20
-5.7197060192
 10
-10.5722905289
 20
-5.7488557296
 10
-10.6178029228
 20
-5.7763074235
 10
-10.6643671688
 20
-5.8020708616
 10
-10.7117923666
 20
-5.8260424644
 10
-10.7600820785
 20
-5.8482155818
 10
-10.8092327422
 20
-5.8685968695
 10
-10.8590427702
 20
-5.8871027066
 10
-10.9095170312
 20
-5.9037261755
 10
-10.9606506565
 20
-5.9184741984
 10
-11.012227452
 20
-5.9312839128
 10
-11.0642491384
 20
-5.9421468837
 10
-11.1167139951
 20
-5.9510715495
 10
-11.1694006658
 20
-5.9580203575
 10
-11.2223092865
 20
-5.9629848904
 10
-11.2754397213
 20
-5.9659735671
 10
-11.328570207
 20
-5.9669740897
 10
-11.3817007264
 20
-5.9659782611
 10
-11.4348312966
 20
-5.9629942783
 10
-11.4877402055
 20
-5.9580344332
 10
-11.5404273111
 20
-5.9510903171
 10
-11.5928927553
 20
-5.942170337
 10
-11.6449152521
 20
-5.9313120089
 10
-11.6964931351
 20
-5.9185068808
 10
-11.7476280707
 20
-5.9037634015
 10
-11.7981037729
 20
-5.8871444372
 10
-11.8479153975
 20
-5.8686430346
 10
-11.8970677887
 20
-5.8482661423
 10
-11.945359193
 20
-5.8260974794
 10
-11.992785919
 20
-5.8021304559
 10
-12.0393516582
 20
-5.7763716561
 10
-12.0848657319
 20
-5.7489245599
 10
-12.1293276025
 20
-5.7197795225
 10
-12.1727378077
 20
-5.6889461824
 10
-12.2149072822
 20
-5.6565569443
 10
-12.2558328406
 20
-5.6226009817
 10
-12.2955176683
 20
-5.5870891145
 10
-12.3337822563
 20
-5.5501862185
 10
-12.3706127868
 20
-5.5118932071
 10
-12.4060230777
 20
-5.4722091605
 10
-12.4398750733
 20
-5.4312962052
 10
-12.4721580018
 20
-5.3891612411
 10
-12.5028826352
 20
-5.3457973623
 10
-12.5319432341
 20
-5.3013459877
 10
-12.5593430367
 20
-5.2557941958
 10
-12.5850788048
 20
-5.2091549026
 10
-12.6090350849
 20
-5.1616082841
 10
-12.6312119612
 20
-5.1131249016
 10
-12.6516093493
 20
-5.0637341893
 10
-12.6701115428
 20
-5.0137046332
 10
-12.6867013641
 20
-4.963025952
 10
-12.7013959907
 20
-4.9117084243
 10
-12.7141312482
 20
-4.8600513778
 10
-12.7248867474
 20
-4.8080522641
 10
-12.7336828775
 20
-4.7557136307
 10
-12.7405166328
 20
-4.7033424508
 10
-12.7453870112
 20
-4.6510410496
 10
-12.7482950148
 20
-4.5987071029
 10
-12.7492406434
 20
-4.5463406115
  0
LWPOLYLINE
  5
2A3
100
AcDbEntity
  8
ASSI
100
AcDbPolyline
 62
253
  6
CONTINUOUS
 90
85
 70
0
 10
-10.0080098774
 20
4.4545595686
 10
-10.0088944637
 20
4.4060082847
 10
-10.0115761373
 20
4.3573505882
 10
-10.016070263
 20
4.3086537925
 10
-10.0223933107
 20
4.2599621676
 10
-10.0305537762
 20
4.2113699758
 10
-10.0405430761
 20
4.1630198704
 10
-10.0523582688
 20
4.1149808973
 10
-10.0659933654
 20
4.0673239088
 10
-10.081414837
 20
4.0201909155
 10
-10.0986020449
 20
3.9736524941
 10
-10.1175341432
 20
3.9277718069
 10
-10.1381584454
 20
3.8826735602
 10
-10.1604301688
 20
3.838440789
 10
-10.1843233406
 20
3.7951113104
 10
-10.2098041055
 20
3.7527374116
 10
-10.2368265131
 20
3.7113864431
 10
-10.2653554447
 20
3.671103609
 10
-10.2953749569
 20
3.6319087629
 10
-10.3268509463
 20
3.593848925
 10
-10.3597335753
 20
3.5569867336
 10
-10.3939850984
 20
3.5213667673
 10
-10.4295662984
 20
3.4870336484
 10
-10.4664220464
 20
3.4540442673
 10
-10.5044872992
 20
3.4224582515
 10
-10.5437055956
 20
3.3923221604
 10
-10.5840247808
 20
3.3636757848
 10
-10.6253819415
 20
3.33656329
 10
-10.6677148318
 20
3.3110241666
 10
-10.7109672769
 20
3.2870910175
 10
-10.7550832963
 20
3.2647941964
 10
-10.8000013111
 20
3.2441645921
 10
-10.8456579701
 20
3.2252310698
 10
-10.8919934669
 20
3.2080184518
 10
-10.9389450255
 20
3.1925504779
 10
-10.9864449458
 20
3.1788498654
 10
-11.0344248553
 20
3.1669365038
 10
-11.082817337
 20
3.1568271783
 10
-11.1315547682
 20
3.1485360602
 10
-11.180567512
 20
3.1420749725
 10
-11.2297861278
 20
3.1374529278
 10
-11.2791423682
 20
3.1346761945
 10
-11.3285679413
 20
3.1337485638
 10
-11.377993572
 20
3.134671333
 10
-11.4273500169
 20
3.1374432064
 10
-11.4765690315
 20
3.1420604009
 10
-11.5255823624
 20
3.1485166556
 10
-11.5743205736
 20
3.1568029665
 10
-11.6227140889
 20
3.1669075329
 10
-11.670695339
 20
3.1788162136
 10
-11.7181968448
 20
3.1925122274
 10
-11.7651501228
 20
3.2079756623
 10
-11.8114874938
 20
3.2251838123
 10
-11.8571461567
 20
3.2441129327
 10
-11.902066136
 20
3.264738122
 10
-11.9461839684
 20
3.2870304354
 10
-11.9894382091
 20
3.3109590226
 10
-12.0317730754
 20
3.3364936324
 10
-12.0731322979
 20
3.3636016045
 10
-12.1134537281
 20
3.3922435129
 10
-12.1526748888
 20
3.42237555
 10
-12.1907437803
 20
3.4539581497
 10
-12.2276036862
 20
3.4869446509
 10
-12.2631893582
 20
3.5212753222
 10
-12.297445911
 20
3.5568936042
 10
-12.3303337868
 20
3.5937546173
 10
-12.3618142934
 20
3.6318126651
 10
-12.3918374544
 20
3.6710047234
 10
-12.4203695087
 20
3.7112839876
 10
-12.4473944482
 20
3.7526302697
 10
-12.4728768334
 20
3.7949974977
 10
-12.4967713704
 20
3.8383190162
 10
-12.519045404
 20
3.8825446756
 10
-12.5396728687
 20
3.9276367339
 10
-12.5586088774
 20
3.9735122222
 10
-12.5758014274
 20
4.0200487827
 10
-12.5912295468
 20
4.0671841802
 10
-12.604871916
 20
4.1148471711
 10
-12.6166945986
 20
4.162895761
 10
-12.6266912875
 20
4.2112594817
 10
-12.634858568
 20
4.2598689681
 10
-12.6411873468
 20
4.3085804621
 10
-12.6456858347
 20
4.3572992825
 10
-12.6483703047
 20
4.4059814517
 10
-12.6492558739
 20
4.4545595686
  0
LWPOLYLINE
  5
2A4
100
AcDbEntity
  8
ASSI
100
AcDbPolyline
 62
253
  6
CONTINUOUS
 90
85
 70
0
 10
-10.0080098774
 20
-4.5454404314
 10
-10.0089105767
 20
-4.5939822462
 10
-10.0116076737
 20
-4.6426298571
 10
-10.0161165266
 20
-4.691315981
 10
-10.0224536295
 20
-4.739996363
 10
-10.0306274433
 20
-4.7885767813
 10
-10.0406292981
 20
-4.8369146628
 10
-10.0524562583
 20
-4.884941003
 10
-10.0661023417
 20
-4.932584983
 10
-10.0815339507
 20
-4.9797046813
 10
-10.0987304668
 20
-5.0262295783
 10
-10.1176710625
 20
-5.0720965395
 10
-10.1383029945
 20
-5.117180922
 10
-10.1605815173
 20
-5.1613997728
 10
-10.1844806809
 20
-5.2047152818
 10
-10.209966549
 20
-5.2470751303
 10
-10.2369931926
 20
-5.2884120175
 10
-10.2655255246
 20
-5.3286807846
 10
-10.2955475219
 20
-5.3678615581
 10
-10.3270250954
 20
-5.4059073551
 10
-10.3599084432
 20
-5.4427556003
 10
-10.394159766
 20
-5.4783617503
 10
-10.4297398756
 20
-5.5126812338
 10
-10.4665936772
 20
-5.5456572112
 10
-10.5046560848
 20
-5.5772301039
 10
-10.5438706762
 20
-5.6073534094
 10
-10.5841853379
 20
-5.6359873819
 10
-10.6255371206
 20
-5.6630879007
 10
-10.6678638195
 20
-5.688615527
 10
-10.7111093145
 20
-5.7125377058
 10
-10.7552176124
 20
-5.7348241329
 10
-10.8001271852
 20
-5.7554439669
 10
-10.845774743
 20
-5.7743683858
 10
-10.8921004894
 20
-5.7915726165
 10
-10.9390417046
 20
-5.8070329594
 10
-10.9865307603
 20
-5.820726733
 10
-11.034499323
 20
-5.8326340922
 10
-11.0828800444
 20
-5.8427382837
 10
-11.1316053755
 20
-5.8510251579
 10
-11.1806057293
 20
-5.8574829204
 10
-11.2298117382
 20
-5.8621025776
 10
-11.2791552332
 20
-5.8648778704
 10
-11.3285679834
 20
-5.8658050178
 10
-11.3779807911
 20
-5.8648827276
 10
-11.4273244902
 20
-5.8621122903
 10
-11.4765308972
 20
-5.8574974788
 10
-11.5255318375
 20
-5.851044545
 10
-11.5742579478
 20
-5.8427624737
 10
-11.6226397018
 20
-5.8326630371
 10
-11.6706096036
 20
-5.8207603545
 10
-11.718100243
 20
-5.8070711756
 10
-11.7650431755
 20
-5.7916153679
 10
-11.8113707938
 20
-5.7744156014
 10
-11.857020353
 20
-5.7554955809
 10
-11.9019318877
 20
-5.7348801584
 10
-11.9460419962
 20
-5.7125982356
 10
-11.9892892841
 20
-5.6886806152
 10
-12.0316179564
 20
-5.6631574991
 10
-12.0729717983
 20
-5.6360614995
 10
-12.1132887024
 20
-5.6074319907
 10
-12.1525061553
 20
-5.5773127362
 10
-12.1905721986
 20
-5.5457432567
 10
-12.2274301548
 20
-5.5127701568
 10
-12.2630147325
 20
-5.4784531193
 10
-12.2972710803
 20
-5.4428486531
 10
-12.3301596698
 20
-5.4060015868
 10
-12.3616417555
 20
-5.3679575806
 10
-12.3916673964
 20
-5.3287795955
 10
-12.4202028459
 20
-5.2885143993
 10
-12.4472320168
 20
-5.2471821979
 10
-12.4727195014
 20
-5.2048290171
 10
-12.4966200269
 20
-5.1615214635
 10
-12.5189008565
 20
-5.1173097197
 10
-12.5395359477
 20
-5.0722315202
 10
-12.5584804506
 20
-5.0263697523
 10
-12.5756823051
 20
-4.9798467136
 10
-12.5911205581
 20
-4.9327246122
 10
-12.6047739106
 20
-4.8850746336
 10
-12.6166083581
 20
-4.8370386834
 10
-12.6266176005
 20
-4.7886871971
 10
-12.6347982294
 20
-4.7400894972
 10
-12.6411410653
 20
-4.6913892607
 10
-12.6456542842
 20
-4.6426811278
 10
-12.6483541834
 20
-4.5940090613
 10
-12.6492558739
 20
-4.5454404314
  0
LINE
  5
2A5
100
AcDbEntity
  8
ASSI
100
AcDbLine
 62
253
  6
CONTINUOUS
 10
-22.2286328745
 20
0.0545595686
 11
-22.1202918092
 21
0.1087259757
  0
LINE
  5
2A6
100
AcDbEntity
  8
ASSI
100
AcDbLine
 62
253
  6
CONTINUOUS
 10
-22.1202918092
 20
-0.1996068385
 11
-22.2286328745
 21
-0.1454404314
  0
LWPOLYLINE
  5
2A7
100
AcDbEntity
  8
ASSI
100
AcDbPolyline
 62
253
  6
CONTINUOUS
 90
7
 70
0
 10
21.9630260579
 20
-0.1996068385
 10
21.9624417767
 20
-0.1997303207
 10
21.9612020943
 20
-0.1998529113
 10
21.9593070105
 20
-0.1999746103
 10
21.9567494518
 20
-0.2000956896
 10
21.9535364918
 20
-0.2002158773
 10
21.9496893511
 20
-0.2003343579
  0
LWPOLYLINE
  5
2A8
100
AcDbEntity
  8
ASSI
100
AcDbPolyline
 62
253
  6
CONTINUOUS
 90
5
 70
0
 10
22.1629955969
 20
-0.3995992231
 10
22.1620315588
 20
-0.3997294063
 10
22.1599625014
 20
-0.3998587128
 10
22.1567928615
 20
-0.3999871056
 10
22.1525294966
 20
-0.4001147903
  0
LINE
  5
2A9
100
AcDbEntity
  8
ASSI
100
AcDbLine
 62
7
  6
CONTINUOUS
 10
19.6838331149
 20
-0.1454404314
 11
19.4213671243
 21
-0.1716210348
  0
LINE
  5
2AA
100
AcDbEntity
  8
ASSI
100
AcDbLine
 62
7
  6
CONTINUOUS
 10
-19.8410988662
 20
-0.1454404314
 11
-19.5786328757
 21
-0.1716210348
  0
LINE
  5
2AB
100
AcDbEntity
  8
ASSI
100
AcDbLine
 62
253
  6
CONTINUOUS
 10
21.9496893511
 20
-0.2003343579
 11
21.9400840125
 21
-0.2005661649
  0
LINE
  5
2AC
100
AcDbEntity
  8
ASSI
100
AcDbLine
 62
253
  6
CONTINUOUS
 10
22.1525294966
 20
-0.4001147903
 11
22.1407613036
 21
-0.4003664331
  0
LINE
  5
2AD
100
AcDbEntity
  8
ASSI
100
AcDbLine
 62
253
  6
CONTINUOUS
 10
21.9400840125
 20
-0.2005661649
 11
21.9211158436
 21
-0.2008964341
  0
LINE
  5
2AE
100
AcDbEntity
  8
ASSI
100
AcDbLine
 62
253
  6
CONTINUOUS
 10
22.1407613036
 20
-0.4003664331
 11
22.1152172774
 21
-0.4007296731
  0
LINE
  5
2AF
100
AcDbEntity
  8
ASSI
100
AcDbLine
 62
253
  6
CONTINUOUS
 10
21.9211158436
 20
-0.2008964341
 11
21.8879190778
 21
-0.2012943309
  0
LINE
  5
2B0
100
AcDbEntity
  8
ASSI
100
AcDbLine
 62
253
  6
CONTINUOUS
 10
22.1152172774
 20
-0.4007296731
 11
22.0529739841
 21
-0.4012797412
  0
LINE
  5
2B1
100
AcDbEntity
  8
ASSI
100
AcDbLine
 62
253
  6
CONTINUOUS
 10
21.8879190778
 20
-0.2012943309
 11
21.8115544822
 21
-0.2018360122
  0
LINE
  5
2B2
100
AcDbEntity
  8
ASSI
100
AcDbLine
 62
253
  6
CONTINUOUS
 10
22.0529739841
 20
-0.4012797412
 11
21.8469276269
 21
-0.4021198847
  0
LINE
  5
2B3
100
AcDbEntity
  8
ASSI
100
AcDbLine
 62
253
  6
CONTINUOUS
 10
-21.9809151727
 20
0.1108917156
 11
-21.8485621763
 21
0.111286709
  0
LWPOLYLINE
  5
2B4
100
AcDbEntity
  8
ASSI
100
AcDbPolyline
 62
253
  6
CONTINUOUS
 90
3
 70
0
 10
21.8115544822
 20
-0.2018360122
 10
21.6772294473
 20
-0.2021762491
 10
21.6630717786
 20
-0.2021791921
  0
LINE
  5
2B5
100
AcDbEntity
  8
ASSI
100
AcDbLine
 62
253
  6
CONTINUOUS
 10
-21.8485621763
 20
0.111286709
 11
-21.82033753
 21
0.1112983293
  0
LINE
  5
2B6
100
AcDbEntity
  8
ASSI
100
AcDbLine
 62
253
  6
CONTINUOUS
 10
21.8469276269
 20
-0.4021198847
 11
-21.8203250481
 21
-0.4023143272
  0
LINE
  5
2B7
100
AcDbEntity
  8
ASSI
100
AcDbLine
 62
7
  6
CONTINUOUS
 10
21.6630717786
 20
-0.2021791921
 11
-21.82033753
 21
-0.2021791921
  0
LINE
  5
2B8
100
AcDbEntity
  8
ASSI
100
AcDbLine
 62
7
  6
CONTINUOUS
 10
-19.5786328757
 20
-0.1716210348
 11
19.4213671243
 21
-0.1716210348
  0
LINE
  5
2B9
100
AcDbEntity
  8
ASSI
100
AcDbLine
 62
7
  6
CONTINUOUS
 10
-22.2286328745
 20
-0.1454404314
 11
-19.8410988662
 21
-0.1454404314
  0
LINE
  5
2BA
100
AcDbEntity
  8
ASSI
100
AcDbLine
 62
7
  6
CONTINUOUS
 10
19.6838331149
 20
-0.1454404314
 11
22.0713671232
 21
-0.1454404314
  0
LINE
  5
2BB
100
AcDbEntity
  8
ASSI
100
AcDbLine
 62
7
  6
CONTINUOUS
 10
22.0713671232
 20
0.0545595686
 11
19.6838331149
 21
0.0545595686
  0
LINE
  5
2BC
100
AcDbEntity
  8
ASSI
100
AcDbLine
 62
7
  6
CONTINUOUS
 10
-19.8410988662
 20
0.0545595686
 11
-22.2286328745
 21
0.0545595686
  0
LINE
  5
2BD
100
AcDbEntity
  8
ASSI
100
AcDbLine
 62
7
  6
CONTINUOUS
 10
19.4213671243
 20
0.080740172
 11
-19.5786328757
 21
0.080740172
  0
LINE
  5
2BE
100
AcDbEntity
  8
ASSI
100
AcDbLine
 62
7
  6
CONTINUOUS
 10
-21.82033753
 20
0.1112983293
 11
21.6630717786
 21
0.1112983293
  0
LINE
  5
2BF
100
AcDbEntity
  8
ASSI
100
AcDbLine
 62
253
  6
CONTINUOUS
 10
-21.82033753
 20
-0.2021791921
 11
-21.9563702736
 21
-0.2018945515
  0
LINE
  5
2C0
100
AcDbEntity
  8
ASSI
100
AcDbLine
 62
253
  6
CONTINUOUS
 10
21.6630717786
 20
0.1112983293
 11
21.7991045223
 21
0.1110136886
  0
LINE
  5
2C1
100
AcDbEntity
  8
ASSI
100
AcDbLine
 62
253
  6
CONTINUOUS
 10
-21.8203250481
 20
-0.4023143324
 11
-22.1447565798
 21
-0.4016525078
  0
LINE
  5
2C2
100
AcDbEntity
  8
ASSI
100
AcDbLine
 62
253
  6
CONTINUOUS
 10
21.7991045223
 20
0.1110136886
 11
21.8236494212
 21
0.1108917156
  0
LINE
  5
2C3
100
AcDbEntity
  8
ASSI
100
AcDbLine
 62
253
  6
CONTINUOUS
 10
-21.9563702736
 20
-0.2018945515
 11
-22.0355944665
 21
-0.2013846782
  0
LINE
  5
2C4
100
AcDbEntity
  8
ASSI
100
AcDbLine
 62
253
  6
CONTINUOUS
 10
-22.1447565798
 20
-0.4016525078
 11
-22.2504147348
 21
-0.4009593094
  0
LINE
  5
2C5
100
AcDbEntity
  8
ASSI
100
AcDbLine
 62
253
  6
CONTINUOUS
 10
-22.2504147348
 20
-0.4009593094
 11
-22.2820269036
 21
-0.4006109131
  0
LINE
  5
2C6
100
AcDbEntity
  8
ASSI
100
AcDbLine
 62
253
  6
CONTINUOUS
 10
-22.0355944665
 20
-0.2013846782
 11
-22.0709028324
 21
-0.2010008606
  0
LINE
  5
2C7
100
AcDbEntity
  8
ASSI
100
AcDbLine
 62
253
  6
CONTINUOUS
 10
-22.2820269036
 20
-0.4006109131
 11
-22.2980270549
 21
-0.4003664331
  0
LINE
  5
2C8
100
AcDbEntity
  8
ASSI
100
AcDbLine
 62
253
  6
CONTINUOUS
 10
-22.0709028324
 20
-0.2010008606
 11
-22.0916298156
 21
-0.2006787411
  0
LWPOLYLINE
  5
2C9
100
AcDbEntity
  8
ASSI
100
AcDbPolyline
 62
253
  6
CONTINUOUS
 90
9
 70
0
 10
-22.0916298156
 20
-0.2006787411
 10
-22.1024695235
 20
-0.2004511149
 10
-22.1069551023
 20
-0.2003343579
 10
-22.1108022431
 20
-0.2002158773
 10
-22.1140152031
 20
-0.2000956896
 10
-22.1165727617
 20
-0.1999746103
 10
-22.1184678456
 20
-0.1998529113
 10
-22.1197075281
 20
-0.1997303207
 10
-22.1202918092
 20
-0.1996068385
  0
LWPOLYLINE
  5
2CA
100
AcDbEntity
  8
ASSI
100
AcDbPolyline
 62
253
  6
CONTINUOUS
 90
6
 70
0
 10
-22.2980270549
 20
-0.4003664331
 10
-22.3097952478
 20
-0.4001147903
 10
-22.3140586128
 20
-0.3999871056
 10
-22.3172282527
 20
-0.3998587128
 10
-22.3192973101
 20
-0.3997294063
 10
-22.3202613483
 20
-0.3995992231
  0
LWPOLYLINE
  5
2CB
100
AcDbEntity
  8
CURVE
100
AcDbPolyline
 62
253
  6
CONTINUOUS
 90
60
 70
0
 10
-11.2040247818
 20
14.6410197555
 10
-11.2066236708
 20
14.644563732
 10
-11.209299812
 20
14.6479869648
 10
-11.2120581781
 20
14.6513008582
 10
-11.2149037415
 20
14.6545168168
 10
-11.2178414749
 20
14.6576462447
 10
-11.2208763507
 20
14.6607005465
 10
-11.224652061
 20
14.6642783485
 10
-11.2285751881
 20
14.6677585921
 10
-11.2326461033
 20
14.6711354784
 10
-11.2368651778
 20
14.6744032084
 10
-11.2412327828
 20
14.6775559831
 10
-11.2449849951
 20
14.6800907295
 10
-11.2488337032
 20
14.6825348482
 10
-11.2527719992
 20
14.6848815685
 10
-11.2567929751
 20
14.6871241198
 10
-11.2608897227
 20
14.6892557315
 10
-11.265055334
 20
14.6912696329
 10
-11.2692839517
 20
14.6931594809
 10
-11.2735739213
 20
14.6949206415
 10
-11.2779246391
 20
14.6965489087
 10
-11.2823355012
 20
14.6980400759
 10
-11.2868059038
 20
14.6993899369
 10
-11.2913352432
 20
14.7005942853
 10
-11.2959216119
 20
14.7016484155
 10
-11.3005578878
 20
14.7025456247
 10
-11.3052356453
 20
14.7032787111
 10
-11.3099464584
 20
14.7038404726
 10
-11.3146819015
 20
14.7042237073
 10
-11.3194335489
 20
14.7044212131
 10
-11.3241935697
 20
14.7044275479
 10
-11.3289565128
 20
14.7042443094
 10
-11.333717522
 20
14.7038748551
 10
-11.3384717413
 20
14.7033225423
 10
-11.3432143145
 20
14.7025907287
 10
-11.3479403853
 20
14.7016827716
 10
-11.3526448183
 20
14.7006021773
 10
-11.3573213601
 20
14.699353046
 10
-11.3619634781
 20
14.697939627
 10
-11.3665646395
 20
14.6963661693
 10
-11.3711183116
 20
14.6946369218
 10
-11.3756179617
 20
14.6927561338
 10
-11.3800563975
 20
14.6907289885
 10
-11.3844237885
 20
14.6885644066
 10
-11.3887096443
 20
14.686272243
 10
-11.3929034748
 20
14.6838623526
 10
-11.3969947897
 20
14.6813445905
 10
-11.4009730989
 20
14.6787288116
 10
-11.4048300424
 20
14.67602371
 10
-11.408565782
 20
14.6732333376
 10
-11.4121826098
 20
14.6703605854
 10
-11.4156828177
 20
14.6674083444
 10
-11.419068698
 20
14.6643795056
 10
-11.4223425425
 20
14.6612769602
 10
-11.4255070856
 20
14.658100944
 10
-11.42856683
 20
14.654841073
 10
-11.4315267207
 20
14.6514843079
 10
-11.4343917027
 20
14.6480176094
 10
-11.4371667208
 20
14.6444279383
 10
-11.4398567202
 20
14.6407022555
  0
LINE
  5
2CC
100
AcDbEntity
  8
ASSI
100
AcDbLine
 62
7
  6
CONTINUOUS
 10
-19.8410988662
 20
0.0545595686
 11
-19.5786328757
 21
0.080740172
  0
LINE
  5
2CD
100
AcDbEntity
  8
ASSI
100
AcDbLine
 62
253
  6
CONTINUOUS
 10
-22.1069551024
 20
0.109453495
 11
-22.0973497639
 21
0.109685302
  0
LINE
  5
2CE
100
AcDbEntity
  8
ASSI
100
AcDbLine
 62
253
  6
CONTINUOUS
 10
-22.3097952479
 20
0.3092339274
 11
-22.2980270549
 21
0.3094855703
  0
LINE
  5
2CF
100
AcDbEntity
  8
ASSI
100
AcDbLine
 62
253
  6
CONTINUOUS
 10
-22.0973497639
 20
0.109685302
 11
-22.0783815949
 21
0.1100155713
  0
LINE
  5
2D0
100
AcDbEntity
  8
ASSI
100
AcDbLine
 62
253
  6
CONTINUOUS
 10
-22.2980270549
 20
0.3094855703
 11
-22.2724830288
 21
0.3098488103
  0
LINE
  5
2D1
100
AcDbEntity
  8
ASSI
100
AcDbLine
 62
253
  6
CONTINUOUS
 10
-22.0783815949
 20
0.1100155713
 11
-22.0451848291
 21
0.1104134681
  0
LINE
  5
2D2
100
AcDbEntity
  8
ASSI
100
AcDbLine
 62
253
  6
CONTINUOUS
 10
-22.2724830288
 20
0.3098488103
 11
-22.2102397354
 21
0.3103988784
  0
LINE
  5
2D3
100
AcDbEntity
  8
ASSI
100
AcDbLine
 62
253
  6
CONTINUOUS
 10
-22.0451848291
 20
0.1104134681
 11
-21.9809151727
 21
0.1108917156
  0
LINE
  5
2D4
100
AcDbEntity
  8
ASSI
100
AcDbLine
 62
253
  6
CONTINUOUS
 10
-22.2102397354
 20
0.3103988784
 11
-22.0041933782
 21
0.3112390219
  0
LINE
  5
2D5
100
AcDbEntity
  8
ASSI
100
AcDbLine
 62
253
  6
CONTINUOUS
 10
-22.0041933782
 20
0.3112390219
 11
21.6630592967
 21
0.3114334643
  0
LINE
  5
2D6
100
AcDbEntity
  8
ASSI
100
AcDbLine
 62
253
  6
CONTINUOUS
 10
21.6630592967
 20
0.3114334695
 11
21.9874908285
 21
0.310771645
  0
LINE
  5
2D7
100
AcDbEntity
  8
ASSI
100
AcDbLine
 62
253
  6
CONTINUOUS
 10
21.9874908285
 20
0.310771645
 11
22.0931489834
 21
0.3100784465
  0
LINE
  5
2D8
100
AcDbEntity
  8
ASSI
100
AcDbLine
 62
253
  6
CONTINUOUS
 10
21.8236494212
 20
0.1108917156
 11
21.8879190777
 21
0.1104134681
  0
LINE
  5
2D9
100
AcDbEntity
  8
ASSI
100
AcDbLine
 62
253
  6
CONTINUOUS
 10
22.0931489834
 20
0.3100784465
 11
22.1247611523
 21
0.3097300502
  0
LINE
  5
2DA
100
AcDbEntity
  8
ASSI
100
AcDbLine
 62
253
  6
CONTINUOUS
 10
21.8879190777
 20
0.1104134681
 11
21.9211158435
 21
0.1100155713
  0
LINE
  5
2DB
100
AcDbEntity
  8
ASSI
100
AcDbLine
 62
253
  6
CONTINUOUS
 10
22.1247611523
 20
0.3097300502
 11
22.1407613035
 21
0.3094855703
  0
LINE
  5
2DC
100
AcDbEntity
  8
ASSI
100
AcDbLine
 62
253
  6
CONTINUOUS
 10
21.9211158435
 20
0.1100155713
 11
21.9400840125
 21
0.109685302
  0
LWPOLYLINE
  5
2DD
100
AcDbEntity
  8
ASSI
100
AcDbPolyline
 62
253
  6
CONTINUOUS
 90
6
 70
0
 10
22.1407613035
 20
0.3094855703
 10
22.1525294965
 20
0.3092339274
 10
22.1567928614
 20
0.3091062428
 10
22.1599625013
 20
0.30897785
 10
22.1620315588
 20
0.3088485435
 10
22.1629955969
 20
0.3087183603
  0
LWPOLYLINE
  5
2DE
100
AcDbEntity
  8
ASSI
100
AcDbPolyline
 62
253
  6
CONTINUOUS
 90
8
 70
0
 10
21.9400840125
 20
0.109685302
 10
21.949689351
 20
0.109453495
 10
21.9535364918
 20
0.1093350145
 10
21.9567494518
 20
0.1092148268
 10
21.9593070104
 20
0.1090937475
 10
21.9612020942
 20
0.1089720485
 10
21.9624417767
 20
0.1088494579
 10
21.9630260579
 20
0.1087259757
  0
LINE
  5
2DF
100
AcDbEntity
  8
ASSI
100
AcDbLine
 62
7
  6
CONTINUOUS
 10
19.6838331149
 20
0.0545595686
 11
19.4213671243
 21
0.080740172
  0
LINE
  5
2E0
100
AcDbEntity
  8
CURVE
100
AcDbLine
 62
253
  6
CONTINUOUS
 10
-8.851646036
 20
-12.1176408967
 11
-11.3356601393
 21
-14.4595561739
  0
LINE
  5
2E1
100
AcDbEntity
  8
CURVE
100
AcDbLine
 62
253
  6
CONTINUOUS
 10
-11.2174090312
 20
-14.7315831183
 11
-8.4232679913
 21
-12.0972856189
  0
LWPOLYLINE
  5
2E2
100
AcDbEntity
  8
ASSI
100
AcDbPolyline
 62
253
  6
CONTINUOUS
 90
5
 70
0
 10
-22.3202613483
 20
0.3087183603
 10
-22.3192973101
 20
0.3088485435
 10
-22.3172282527
 20
0.30897785
 10
-22.3140586128
 20
0.3091062428
 10
-22.3097952479
 20
0.3092339274
  0
LINE
  5
2E3
100
AcDbEntity
  8
CURVE
100
AcDbLine
 62
253
  6
CONTINUOUS
 10
-11.3216056121
 20
14.3686753111
 11
-8.8295834535
 21
12.0267600339
  0
LINE
  5
2E4
100
AcDbEntity
  8
CURVE
100
AcDbLine
 62
253
  6
CONTINUOUS
 10
-8.4009231866
 20
12.0064047561
 11
-11.2040247818
 21
14.6410197555
  0
LWPOLYLINE
  5
2E5
100
AcDbEntity
  8
CURVE
100
AcDbPolyline
 62
253
  6
CONTINUOUS
 90
76
 70
0
 10
-8.4232679913
 20
-12.0972856189
 10
-8.4196096678
 20
-12.0948886027
 10
-8.4160863771
 20
-12.0923943731
 10
-8.4126862658
 20
-12.089799032
 10
-8.4093974807
 20
-12.0870986812
 10
-8.4062081685
 20
-12.0842894226
 10
-8.403106476
 20
-12.0813673581
 10
-8.39948788
 20
-12.0777075932
 10
-8.3959847046
 20
-12.0738796678
 10
-8.3926032669
 20
-12.0698834751
 10
-8.389349884
 20
-12.0657189085
 10
-8.386230873
 20
-12.0613858612
 10
-8.3832532856
 20
-12.056886215
 10
-8.3804271127
 20
-12.0522298058
 10
-8.37776308
 20
-12.047428458
 10
-8.3752719132
 20
-12.0424939961
 10
-8.3729643377
 20
-12.0374382444
 10
-8.3708495913
 20
-12.0322709748
 10
-8.3689309597
 20
-12.0269937482
 10
-8.3672102404
 20
-12.0216060732
 10
-8.3656892313
 20
-12.0161074582
 10
-8.3643697299
 20
-12.0104974116
 10
-8.3632541699
 20
-12.0047787698
 10
-8.3623475284
 20
-11.9989676817
 10
-8.3616554186
 20
-11.9930836242
 10
-8.3611834534
 20
-11.987146074
 10
-8.360937246
 20
-11.9811745082
 10
-8.3609213418
 20
-11.9751872452
 10
-8.3611360159
 20
-11.969197971
 10
-8.3615804754
 20
-11.963219213
 10
-8.3622539278
 20
-11.9572634987
 10
-8.3631555804
 20
-11.9513433559
 10
-8.3642846156
 20
-11.9454711254
 10
-8.3656401155
 20
-11.9396584024
 10
-8.3672211376
 20
-11.9339165954
 10
-8.3690267389
 20
-11.9282571131
 10
-8.3710559769
 20
-11.9226913639
 10
-8.372916433
 20
-11.9181335867
 10
-8.3749266192
 20
-11.9136585136
 10
-8.3770816168
 20
-11.9092758339
 10
-8.3793765073
 20
-11.9049952367
 10
-8.3818063722
 20
-11.900826411
 10
-8.3843662929
 20
-11.896779046
 10
-8.3870520463
 20
-11.8928614698
 10
-8.3898621901
 20
-11.8890765661
 10
-8.3927959777
 20
-11.8854258576
 10
-8.395852662
 20
-11.8819108672
 10
-8.3990314964
 20
-11.8785331175
 10
-8.402331734
 20
-11.8752941314
 10
-8.4057508607
 20
-11.8721950943
 10
-8.4092792926
 20
-11.8692358427
 10
-8.4129056789
 20
-11.8664158757
 10
-8.4166186685
 20
-11.8637346927
 10
-8.4204069103
 20
-11.8611917928
 10
-8.4242590533
 20
-11.8587866753
 10
-8.4289526524
 20
-11.856080329
 10
-8.4337182703
 20
-11.8535625649
 10
-8.4385522535
 20
-11.8512242798
 10
-8.4434509484
 20
-11.8490563705
 10
-8.4484107015
 20
-11.8470497339
 10
-8.4534271756
 20
-11.8451977288
 10
-8.4584932986
 20
-11.8435035632
 10
-8.4636013146
 20
-11.8419729072
 10
-8.4687434677
 20
-11.840611431
 10
-8.4739120022
 20
-11.8394248047
 10
-8.4790996063
 20
-11.8384186481
 10
-8.4843007452
 20
-11.8375983798
 10
-8.4895103281
 20
-11.8369693682
 10
-8.4947232645
 20
-11.8365369816
 10
-8.4999344637
 20
-11.8363065884
 10
-8.5042735951
 20
-11.8362736285
 10
-8.5086138302
 20
-11.8363929426
 10
-8.5129610141
 20
-11.8366728037
 10
-8.517320992
 20
-11.8371214845
 10
-8.5216996092
 20
-11.8377472579
 10
-8.5261027109
 20
-11.8385583968
  0
LWPOLYLINE
  5
2E6
100
AcDbEntity
  8
ASSI
100
AcDbPolyline
 62
253
  6
CONTINUOUS
 90
7
 70
0
 10
-22.1202918092
 20
0.1087259757
 10
-22.1197075281
 20
0.1088494579
 10
-22.1184678456
 20
0.1089720485
 10
-22.1165727618
 20
0.1090937475
 10
-22.1140152031
 20
0.1092148268
 10
-22.1108022432
 20
0.1093350145
 10
-22.1069551024
 20
0.109453495
  0
LINE
  5
2E7
100
AcDbEntity
  8
ASSI
100
AcDbLine
 62
253
  6
CONTINUOUS
 10
22.0713671232
 20
-0.1454404314
 11
21.9630260579
 21
-0.1996068385
  0
LINE
  5
2E8
100
AcDbEntity
  8
ASSI
100
AcDbLine
 62
253
  6
CONTINUOUS
 10
22.2713671243
 20
-0.3454175861
 11
22.1629955969
 21
-0.3995992231
  0
LWPOLYLINE
  5
2E9
100
AcDbEntity
  8
CURVE
100
AcDbPolyline
 62
253
  6
CONTINUOUS
 90
76
 70
0
 10
-8.503438156
 20
11.747677534
 10
-8.4991462579
 20
11.7468879166
 10
-8.4948863373
 20
11.7462614667
 10
-8.490646516
 20
11.7457928168
 10
-8.4864149163
 20
11.7454765995
 10
-8.4821796601
 20
11.7453074474
 10
-8.4779288694
 20
11.7452799933
 10
-8.4727949088
 20
11.7454288932
 10
-8.4676262553
 20
11.7457790005
 10
-8.4624276898
 20
11.7463352063
 10
-8.4572039932
 20
11.747102402
 10
-8.4519599463
 20
11.748085479
 10
-8.4467022669
 20
11.7492883989
 10
-8.4414454188
 20
11.7507114043
 10
-8.4362058028
 20
11.7523538082
 10
-8.4309998197
 20
11.7542149234
 10
-8.4258438701
 20
11.7562940629
 10
-8.4207517642
 20
11.7585909442
 10
-8.4157269502
 20
11.7611069029
 10
-8.4107702854
 20
11.7638436794
 10
-8.4058826273
 20
11.7668030138
 10
-8.4010648336
 20
11.7699866464
 10
-8.3963205516
 20
11.7733942379
 10
-8.391664589
 20
11.77701713
 10
-8.3871145435
 20
11.780844585
 10
-8.3826880127
 20
11.7848658652
 10
-8.3784025943
 20
11.7890702327
 10
-8.3742742129
 20
11.7934471958
 10
-8.3703121013
 20
11.7979872469
 10
-8.3665238192
 20
11.8026811247
 10
-8.3629169266
 20
11.8075195675
 10
-8.359498983
 20
11.8124933141
 10
-8.3562776051
 20
11.8175929514
 10
-8.3532606365
 20
11.8228084606
 10
-8.3504559776
 20
11.8281296716
 10
-8.3478715288
 20
11.8335464141
 10
-8.3455151904
 20
11.8390485179
 10
-8.3437313524
 20
11.8436906263
 10
-8.3421149419
 20
11.8483739809
 10
-8.3406694897
 20
11.853087612
 10
-8.339398527
 20
11.8578205499
 10
-8.3383055846
 20
11.8625618248
 10
-8.3373941935
 20
11.8673004669
 10
-8.336667371
 20
11.8720271114
 10
-8.336126079
 20
11.8767388133
 10
-8.3357707656
 20
11.8814342321
 10
-8.3356018791
 20
11.8861120279
 10
-8.3356198676
 20
11.8907708603
 10
-8.3358251793
 20
11.8954093891
 10
-8.3362165641
 20
11.9000251265
 10
-8.3367859794
 20
11.9046109939
 10
-8.3375236842
 20
11.9091587653
 10
-8.3384199377
 20
11.9136602144
 10
-8.3394649988
 20
11.9181071151
 10
-8.3406491266
 20
11.9224912413
 10
-8.3422411957
 20
11.9276611585
 10
-8.3440102384
 20
11.9327350843
 10
-8.345946999
 20
11.937719268
 10
-8.348042222
 20
11.9426199591
 10
-8.3502866517
 20
11.9474434072
 10
-8.3526724717
 20
11.9521933337
 10
-8.3551976223
 20
11.9568633475
 10
-8.3578614829
 20
11.9614445295
 10
-8.3606634329
 20
11.9659279606
 10
-8.3636028517
 20
11.9703047217
 10
-8.3666792743
 20
11.9745659728
 10
-8.3698928571
 20
11.9787031901
 10
-8.373243912
 20
11.982707929
 10
-8.3767327509
 20
11.9865717451
 10
-8.3803596857
 20
11.9902861936
 10
-8.3834894503
 20
11.9932617563
 10
-8.3867251362
 20
11.9961251291
 10
-8.3900765481
 20
11.9988737136
 10
-8.3935534906
 20
12.0015049118
 10
-8.3971657685
 20
12.0040161254
 10
-8.4009231866
 20
12.0064047561
  0
LINE
  5
2EA
100
AcDbEntity
  8
ASSI
100
AcDbLine
 62
253
  6
CONTINUOUS
 10
21.9630260579
 20
0.1087259757
 11
22.0713671232
 21
0.0545595686
  0
LINE
  5
2EB
100
AcDbEntity
  8
ASSI
100
AcDbLine
 62
253
  6
CONTINUOUS
 10
22.1629955969
 20
0.3087183603
 11
22.2713671243
 21
0.2545367233
  0
LINE
  5
2EC
100
AcDbEntity
  8
CURVE
100
AcDbLine
 62
253
  6
CONTINUOUS
 10
-14.1311630405
 20
11.747677534
 11
-8.503438156
 21
11.747677534
  0
LINE
  5
2ED
100
AcDbEntity
  8
CURVE
100
AcDbLine
 62
253
  6
CONTINUOUS
 10
-8.8295834535
 20
12.0267600339
 11
-13.8056197154
 21
12.0267600339
  0
LINE
  5
2EE
100
AcDbEntity
  8
ASSI
100
AcDbLine
 62
253
  6
CONTINUOUS
 10
21.757833396
 20
22.1660408561
 11
21.6869725384
 21
21.9532854065
  0
LINE
  5
2EF
100
AcDbEntity
  8
ASSI
100
AcDbLine
 62
253
  6
CONTINUOUS
 10
22.2582132193
 20
21.6680951283
 11
22.1868961808
 21
21.4539700232
  0
LINE
  5
2F0
100
AcDbEntity
  8
ASSI
100
AcDbLine
 62
253
  6
CONTINUOUS
 10
21.6869725384
 20
-22.0441662693
 11
21.757833396
 21
-22.256921719
  0
LINE
  5
2F1
100
AcDbEntity
  8
ASSI
100
AcDbLine
 62
253
  6
CONTINUOUS
 10
22.1868961808
 20
-21.544850886
 11
22.2582132193
 21
-21.7589759912
  0
LWPOLYLINE
  5
2F2
100
AcDbEntity
  8
ASSI
100
AcDbPolyline
 62
253
  6
CONTINUOUS
 90
12
 70
0
 10
22.1868961808
 20
21.4539700232
 10
22.1862826565
 20
21.4515030374
 10
22.185672477
 20
21.4478150826
 10
22.1850656423
 20
21.4429061588
 10
22.1844613969
 20
21.4367671684
 10
22.1838604964
 20
21.429407209
 10
22.1832652067
 20
21.4208535733
 10
22.1826755588
 20
21.4111017983
 10
22.1820915219
 20
21.400156347
 10
22.1815152699
 20
21.3880579009
 10
22.1809468364
 20
21.3748022427
 10
22.1798353975
 20
21.3448852744
  0
LWPOLYLINE
  5
2F3
100
AcDbEntity
  8
ASSI
100
AcDbPolyline
 62
253
  6
CONTINUOUS
 90
10
 70
0
 10
21.6869724694
 20
21.9532854064
 10
21.6863587752
 20
21.9495985429
 10
21.6857484747
 20
21.9440631114
 10
21.685141568
 20
21.9366859253
 10
21.6845373179
 20
21.9274760917
 10
21.6839364616
 20
21.9164449602
 10
21.68334121
 20
21.9036060802
 10
21.6827515724
 20
21.8889751601
 10
21.6821675396
 20
21.8725703332
 10
21.6810228765
 20
21.8345233643
  0
LWPOLYLINE
  5
2F4
100
AcDbEntity
  8
ASSI
100
AcDbPolyline
 62
253
  6
CONTINUOUS
 90
10
 70
0
 10
22.1815152699
 20
-21.4789387636
 10
22.1820915219
 20
-21.4910372098
 10
22.1826755588
 20
-21.5019826611
 10
22.1832652067
 20
-21.511734436
 10
22.1838604963
 20
-21.5202880718
 10
22.1844613969
 20
-21.5276480312
 10
22.1850656423
 20
-21.5337870216
 10
22.185672477
 20
-21.5386959454
 10
22.1862826565
 20
-21.5423839002
 10
22.1868961808
 20
-21.544850886
  0
LWPOLYLINE
  5
2F5
100
AcDbEntity
  8
ASSI
100
AcDbPolyline
 62
253
  6
CONTINUOUS
 90
8
 70
0
 10
21.6827515724
 20
-21.9798560229
 10
21.68334121
 20
-21.9944869429
 10
21.6839364616
 20
-22.0073258229
 10
21.6845373179
 20
-22.0183569545
 10
21.685141568
 20
-22.027566788
 10
21.6857484747
 20
-22.0349439742
 10
21.6863587752
 20
-22.0404794057
 10
21.6869724694
 20
-22.0441662693
  0
LINE
  5
2F6
100
AcDbEntity
  8
ASSI
100
AcDbLine
 62
253
  6
CONTINUOUS
 10
21.6815912949
 20
-21.9452930423
 11
21.6827515724
 21
-21.9798560229
  0
LINE
  5
2F7
100
AcDbEntity
  8
ASSI
100
AcDbLine
 62
253
  6
CONTINUOUS
 10
21.6804622462
 20
-21.9038092571
 11
21.6815912949
 21
-21.9452930423
  0
LINE
  5
2F8
100
AcDbEntity
  8
ASSI
100
AcDbLine
 62
253
  6
CONTINUOUS
 10
21.6793705914
 20
-21.8556094834
 11
21.6804622462
 21
-21.9038092571
  0
LINE
  5
2F9
100
AcDbEntity
  8
ASSI
100
AcDbLine
 62
253
  6
CONTINUOUS
 10
21.6810228765
 20
21.8345233643
 11
21.6793705914
 21
21.7647286207
  0
LINE
  5
2FA
100
AcDbEntity
  8
ASSI
100
AcDbLine
 62
7
  6
CONTINUOUS
 10
18.9771569986
 20
22.1660408561
 11
18.6291021513
 21
22.1344468956
  0
LINE
  5
2FB
100
AcDbEntity
  8
ASSI
100
AcDbLine
 62
253
  6
CONTINUOUS
 10
-22.1394260721
 20
20.5123192141
 11
-22.0973438635
 21
20.51358842
  0
LINE
  5
2FC
100
AcDbEntity
  8
ASSI
100
AcDbLine
 62
253
  6
CONTINUOUS
 10
-22.0973438635
 20
20.51358842
 11
-22.0523726757
 21
20.5146741614
  0
LINE
  5
2FD
100
AcDbEntity
  8
ASSI
100
AcDbLine
 62
253
  6
CONTINUOUS
 10
-22.0523726757
 20
20.5146741614
 11
-22.0049943529
 21
20.5155648051
  0
LINE
  5
2FE
100
AcDbEntity
  8
ASSI
100
AcDbLine
 62
253
  6
CONTINUOUS
 10
-22.0049943529
 20
20.5155648051
 11
-21.9557165301
 21
20.5162508083
  0
LINE
  5
2FF
100
AcDbEntity
  8
ASSI
100
AcDbLine
 62
253
  6
CONTINUOUS
 10
-21.9557165301
 20
20.5162508083
 11
-21.9050671949
 21
20.5167248208
  0
LINE
  5
300
100
AcDbEntity
  8
ASSI
100
AcDbLine
 62
253
  6
CONTINUOUS
 10
-21.9050671949
 20
20.5167248208
 11
-21.8277113139
 21
20.5170278821
  0
LINE
  5
301
100
AcDbEntity
  8
ASSI
100
AcDbLine
 62
253
  6
CONTINUOUS
 10
21.7221316458
 20
20.5168806641
 11
-21.827711299
 21
20.5170142042
  0
LINE
  5
302
100
AcDbEntity
  8
ASSI
100
AcDbLine
 62
253
  6
CONTINUOUS
 10
21.773263938
 20
20.5165146956
 11
21.7221316458
 21
20.5168806641
  0
LINE
  5
303
100
AcDbEntity
  8
ASSI
100
AcDbLine
 62
253
  6
CONTINUOUS
 10
21.8232945816
 20
20.5159339089
 11
21.773263938
 21
20.5165146956
  0
LINE
  5
304
100
AcDbEntity
  8
ASSI
100
AcDbLine
 62
253
  6
CONTINUOUS
 10
21.8716875228
 20
20.5151445269
 11
21.8232945816
 21
20.5159339089
  0
LINE
  5
305
100
AcDbEntity
  8
ASSI
100
AcDbLine
 62
253
  6
CONTINUOUS
 10
21.9179242549
 20
20.5141550076
 11
21.8716875228
 21
20.5151445269
  0
LWPOLYLINE
  5
306
100
AcDbEntity
  8
ASSI
100
AcDbPolyline
 62
253
  6
CONTINUOUS
 90
3
 70
0
 10
21.9821603943
 20
20.512319222
 10
21.961509374
 20
20.512975953
 10
21.9179242549
 20
20.5141550076
  0
LINE
  5
307
100
AcDbEntity
  8
ASSI
100
AcDbLine
 62
7
  6
CONTINUOUS
 10
-19.1344227499
 20
22.1660408561
 11
-18.7863679026
 21
22.1344468956
  0
LINE
  5
308
100
AcDbEntity
  8
ASSI
100
AcDbLine
 62
253
  6
CONTINUOUS
 10
22.1803861878
 20
-21.4512744525
 11
22.1815152699
 21
-21.4789387636
  0
LWPOLYLINE
  5
309
100
AcDbEntity
  8
ASSI
100
AcDbPolyline
 62
253
  6
CONTINUOUS
 90
25
 70
0
 10
22.1629955969
 20
-0.3995992231
 10
22.1625655371
 20
-0.3865203456
 10
22.1612811822
 20
-0.373497464
 10
22.1591480311
 20
-0.3605863334
 10
22.1561752168
 20
-0.3478422306
 10
22.1523754669
 20
-0.3353197175
 10
22.1477650499
 20
-0.3230724074
 10
22.1423637045
 20
-0.3111527351
 10
22.136194556
 20
-0.2996117323
 10
22.129284017
 20
-0.2884988103
 10
22.121661674
 20
-0.2778615469
 10
22.1133601609
 20
-0.2677454836
 10
22.1044150198
 20
-0.2581939304
 10
22.0948645478
 20
-0.2492477805
 10
22.0847496341
 20
-0.2409453351
 10
22.0741135841
 20
-0.2333221393
 10
22.0630019344
 20
-0.2264108302
 10
22.0514622579
 20
-0.220240997
 10
22.0395439598
 20
-0.2148390544
 10
22.0272980664
 20
-0.2102281294
 10
22.0147770063
 20
-0.2064279626
 10
22.0020343864
 20
-0.2034548231
 10
21.9891247618
 20
-0.2013214395
 10
21.9761034028
 20
-0.200036945
 10
21.9630260579
 20
-0.1996068385
  0
LINE
  5
30A
100
AcDbEntity
  8
ASSI
100
AcDbLine
 62
253
  6
CONTINUOUS
 10
22.1792945012
 20
-21.419154084
 11
22.1803861878
 21
-21.4512744525
  0
LWPOLYLINE
  5
30B
100
AcDbEntity
  8
ASSI
100
AcDbPolyline
 62
253
  6
CONTINUOUS
 90
31
 70
0
 10
22.1868961808
 20
21.4539700232
 10
22.1861879652
 20
21.4800869627
 10
22.1841130253
 20
21.5061324011
 10
22.1806770416
 20
21.5320350328
 10
22.175889421
 20
21.5577239429
 10
22.1697632707
 20
21.5831288018
 10
22.1623153624
 20
21.6081800574
 10
22.1535660865
 20
21.6328091259
 10
22.1435393962
 20
21.6569485792
 10
22.132262742
 20
21.6805323295
 10
22.1197669964
 20
21.7034958106
 10
22.1060863695
 20
21.7257761543
 10
22.0912583153
 20
21.7473123627
 10
22.0753234292
 20
21.7680454752
 10
22.0583253367
 20
21.7879187296
 10
22.0403105742
 20
21.806877718
 10
22.0213284617
 20
21.8248705356
 10
22.001430967
 20
21.8418479225
 10
21.9806725647
 20
21.857763399
 10
21.9591100857
 20
21.8725733924
 10
21.9368025626
 20
21.8862373567
 10
21.9138110679
 20
21.8987178834
 10
21.8901985463
 20
21.909980804
 10
21.8660296428
 20
21.9199952834
 10
21.8413705259
 20
21.9287339044
 10
21.8162887059
 20
21.936172743
 10
21.7908528503
 20
21.9422914334
 10
21.7651325963
 20
21.9470732241
 10
21.7391983594
 20
21.9505050239
 10
21.7131211407
 20
21.9525774373
 10
21.6869723332
 20
21.9532847906
  0
LINE
  5
30C
100
AcDbEntity
  8
ASSI
100
AcDbLine
 62
253
  6
CONTINUOUS
 10
22.177736902
 20
-21.3629127266
 11
22.1792945012
 21
-21.419154084
  0
LINE
  5
30D
100
AcDbEntity
  8
ASSI
100
AcDbLine
 62
253
  6
CONTINUOUS
 10
22.1762913728
 20
-21.297584923
 11
22.177736902
 21
-21.3629127266
  0
LINE
  5
30E
100
AcDbEntity
  8
ASSI
100
AcDbLine
 62
253
  6
CONTINUOUS
 10
21.6773175265
 20
-21.7400471417
 11
21.6793705914
 21
-21.8556094834
  0
LINE
  5
30F
100
AcDbEntity
  8
ASSI
100
AcDbLine
 62
253
  6
CONTINUOUS
 10
22.1745656254
 20
-21.1975962705
 11
22.1762913728
 21
-21.297584923
  0
LINE
  5
310
100
AcDbEntity
  8
ASSI
100
AcDbLine
 62
253
  6
CONTINUOUS
 10
21.6750502213
 20
-21.5627289699
 11
21.6773175265
 21
-21.7400471417
  0
LINE
  5
311
100
AcDbEntity
  8
ASSI
100
AcDbLine
 62
253
  6
CONTINUOUS
 10
22.1727808135
 20
-21.054813653
 11
22.1745656254
 21
-21.1975962705
  0
LINE
  5
312
100
AcDbEntity
  8
ASSI
100
AcDbLine
 62
253
  6
CONTINUOUS
 10
21.6722700649
 20
-21.2164392228
 11
21.6750502213
 21
-21.5627289699
  0
LINE
  5
313
100
AcDbEntity
  8
ASSI
100
AcDbLine
 62
253
  6
CONTINUOUS
 10
22.1712545881
 20
-20.8631639779
 11
22.1727808135
 21
-21.054813653
  0
LINE
  5
314
100
AcDbEntity
  8
ASSI
100
AcDbLine
 62
253
  6
CONTINUOUS
 10
22.1704055729
 20
-20.6225146937
 11
22.1712545881
 21
-20.8631639779
  0
LINE
  5
315
100
AcDbEntity
  8
ASSI
100
AcDbLine
 62
7
  6
CONTINUOUS
 10
22.2713671243
 20
13.0545595686
 11
22.2582132193
 21
21.6680951283
  0
LINE
  5
316
100
AcDbEntity
  8
ASSI
100
AcDbLine
 62
253
  6
CONTINUOUS
 10
21.6705392604
 20
-20.7130783576
 11
21.6722700649
 21
-21.2164392228
  0
LINE
  5
317
100
AcDbEntity
  8
ASSI
100
AcDbLine
 62
253
  6
CONTINUOUS
 10
22.1635034099
 20
-5.448038781
 11
22.1704055729
 21
-20.6225146937
  0
LINE
  5
318
100
AcDbEntity
  8
ASSI
100
AcDbLine
 62
253
  6
CONTINUOUS
 10
21.6705392604
 20
-20.7130783576
 11
21.6630717786
 21
-0.2021791921
  0
LINE
  5
319
100
AcDbEntity
  8
ASSI
100
AcDbLine
 62
253
  6
CONTINUOUS
 10
22.1629955969
 20
-0.3995992231
 11
22.1635034099
 21
-5.448038781
  0
LINE
  5
31A
100
AcDbEntity
  8
ASSI
100
AcDbLine
 62
7
  6
CONTINUOUS
 10
22.2713671243
 20
-0.3454175861
 11
22.2713671243
 21
-13.1454404314
  0
LINE
  5
31B
100
AcDbEntity
  8
ASSI
100
AcDbLine
 62
7
  6
CONTINUOUS
 10
22.2713671243
 20
0.2545367233
 11
22.2713671243
 21
13.0545595686
  0
LINE
  5
31C
100
AcDbEntity
  8
ASSI
100
AcDbLine
 62
7
  6
CONTINUOUS
 10
22.2713671243
 20
-13.1454404314
 11
22.2582132193
 21
-21.7589759912
  0
LINE
  5
31D
100
AcDbEntity
  8
ASSI
100
AcDbLine
 62
253
  6
CONTINUOUS
 10
21.6717604378
 20
21.0295772123
 11
21.6630717786
 21
0.1112983293
  0
LINE
  5
31E
100
AcDbEntity
  8
ASSI
100
AcDbLine
 62
253
  6
CONTINUOUS
 10
22.1710701315
 20
20.7387050767
 11
22.1629955969
 21
0.3087183603
  0
LINE
  5
31F
100
AcDbEntity
  8
ASSI
100
AcDbLine
 62
253
  6
CONTINUOUS
 10
21.6742503107
 20
21.3917996712
 11
21.6717604378
 21
21.0295772123
  0
LINE
  5
320
100
AcDbEntity
  8
ASSI
100
AcDbLine
 62
253
  6
CONTINUOUS
 10
22.1724776704
 20
20.9333135377
 11
22.1710701315
 21
20.7387050767
  0
LINE
  5
321
100
AcDbEntity
  8
ASSI
100
AcDbLine
 62
253
  6
CONTINUOUS
 10
22.1741740912
 20
21.0796413554
 11
22.1724776704
 21
20.9333135377
  0
LINE
  5
322
100
AcDbEntity
  8
ASSI
100
AcDbLine
 62
253
  6
CONTINUOUS
 10
21.6768356801
 20
21.6164892042
 11
21.6742503107
 21
21.3917996712
  0
LINE
  5
323
100
AcDbEntity
  8
ASSI
100
AcDbLine
 62
253
  6
CONTINUOUS
 10
22.1758368899
 20
21.1830121099
 11
22.1741740912
 21
21.0796413554
  0
LWPOLYLINE
  5
324
100
AcDbEntity
  8
ASSI
100
AcDbPolyline
 62
253
  6
CONTINUOUS
 90
3
 70
0
 10
21.6793705914
 20
21.7647286207
 10
21.678839567
 20
21.7381834593
 10
21.6768356801
 20
21.6164892042
  0
LINE
  5
325
100
AcDbEntity
  8
ASSI
100
AcDbLine
 62
253
  6
CONTINUOUS
 10
22.1772413789
 20
21.2512139373
 11
22.1758368899
 21
21.1830121099
  0
LWPOLYLINE
  5
326
100
AcDbEntity
  8
ASSI
100
AcDbPolyline
 62
253
  6
CONTINUOUS
 90
31
 70
0
 10
22.1868961808
 20
-21.544850886
 10
22.1861879649
 20
-21.5709678313
 10
22.1841130241
 20
-21.597013275
 10
22.1806770391
 20
-21.6229159114
 10
22.1758894168
 20
-21.6486048258
 10
22.1697632643
 20
-21.6740096883
 10
22.1623153536
 20
-21.6990609471
 10
22.1535660752
 20
-21.7236900181
 10
22.1435393823
 20
-21.7478294732
 10
22.1322627254
 20
-21.7714132248
 10
22.1197669772
 20
-21.7943767066
 10
22.1060863479
 20
-21.8166570505
 10
22.0912582914
 20
-21.8381932585
 10
22.0753234032
 20
-21.85892637
 10
22.058325309
 20
-21.8787996231
 10
22.0403105452
 20
-21.8977586099
 10
22.0213284317
 20
-21.9157514254
 10
22.0014309366
 20
-21.93272881
 10
21.9806725342
 20
-21.948644284
 10
21.9591100556
 20
-21.9634542748
 10
21.9368025335
 20
-21.9771182364
 10
21.91381104
 20
-21.9895987605
 10
21.8901985202
 20
-22.0008616785
 10
21.866029619
 20
-22.0108761554
 10
21.8413705047
 20
-22.0196147742
 10
21.8162886876
 20
-22.0270536107
 10
21.7908528354
 20
-22.0331722994
 10
21.7651325849
 20
-22.0379540888
 10
21.7391983516
 20
-22.0413858876
 10
21.7131211368
 20
-22.0434583003
 10
21.6869723332
 20
-22.0441656534
  0
LINE
  5
327
100
AcDbEntity
  8
ASSI
100
AcDbLine
 62
253
  6
CONTINUOUS
 10
22.1787634632
 20
21.3105615059
 11
22.1772413789
 21
21.2512139373
  0
LINE
  5
328
100
AcDbEntity
  8
ASSI
100
AcDbLine
 62
253
  6
CONTINUOUS
 10
22.1798353975
 20
21.3448852744
 11
22.1787634632
 21
21.3105615059
  0
LWPOLYLINE
  5
329
100
AcDbEntity
  8
ASSI
100
AcDbPolyline
 62
253
  6
CONTINUOUS
 90
25
 70
0
 10
22.1629955969
 20
0.3087183603
 10
22.1625655381
 20
0.2956394988
 10
22.1612811862
 20
0.2826166321
 10
22.15914804
 20
0.2697055153
 10
22.1561752322
 20
0.2569614252
 10
22.1523754902
 20
0.2444389232
 10
22.1477650821
 20
0.2321916223
 10
22.1423637464
 20
0.2202719571
 10
22.1361946081
 20
0.2087309596
 10
22.1292840792
 20
0.1976180405
 10
22.1216617459
 20
0.1869807778
 10
22.1133602419
 20
0.1768647131
 10
22.1044151087
 20
0.1673131565
 10
22.0948646432
 20
0.1583670013
 10
22.084749734
 20
0.1500645489
 10
22.0741136865
 20
0.1424413448
 10
22.0630020368
 20
0.1355300264
 10
22.0514623576
 20
0.1293601833
 10
22.0395440541
 20
0.1239582306
 10
22.0272981522
 20
0.1193472957
 10
22.0147770807
 20
0.1155471197
 10
22.0020344464
 20
0.1125739722
 10
21.9891248045
 20
0.1104405822
 10
21.9761034254
 20
0.1091560836
 10
21.9630260579
 20
0.1087259757
  0
LINE
  5
32A
100
AcDbEntity
  8
ASSI
100
AcDbLine
 62
7
  6
CONTINUOUS
 10
7.7771569986
 20
22.1660408561
 11
7.4291021513
 21
22.1344468956
  0
LINE
  5
32B
100
AcDbEntity
  8
ASSI
100
AcDbLine
 62
7
  6
CONTINUOUS
 10
-3.5228430014
 20
22.1660408561
 11
-3.8708978487
 21
22.1344468956
  0
LWPOLYLINE
  5
32C
100
AcDbEntity
  8
ASSI
100
AcDbPolyline
 62
253
  6
CONTINUOUS
 90
3
 70
0
 10
-22.1961558879
 20
20.510101659
 10
-22.1592415624
 20
20.5116199887
 10
-22.1394260721
 20
20.5123192141
  0
LINE
  5
32D
100
AcDbEntity
  8
ASSI
100
AcDbLine
 62
253
  6
CONTINUOUS
 10
-21.8442382897
 20
21.9532854065
 11
21.6869725384
 21
21.9532854065
  0
LINE
  5
32E
100
AcDbEntity
  8
ASSI
100
AcDbLine
 62
7
  6
CONTINUOUS
 10
18.4558970705
 20
22.1292061177
 11
15.0868371782
 21
22.1292061177
  0
LINE
  5
32F
100
AcDbEntity
  8
ASSI
100
AcDbLine
 62
7
  6
CONTINUOUS
 10
7.2558970705
 20
22.1292061177
 11
3.8868371782
 21
22.1292061177
  0
LINE
  5
330
100
AcDbEntity
  8
ASSI
100
AcDbLine
 62
7
  6
CONTINUOUS
 10
-4.0441029295
 20
22.1292061177
 11
-7.4131628218
 21
22.1292061177
  0
LINE
  5
331
100
AcDbEntity
  8
ASSI
100
AcDbLine
 62
7
  6
CONTINUOUS
 10
-15.2441029295
 20
22.1292061177
 11
-18.6131628218
 21
22.1292061177
  0
LINE
  5
332
100
AcDbEntity
  8
ASSI
100
AcDbLine
 62
7
  6
CONTINUOUS
 10
21.757833396
 20
22.1660408561
 11
18.9771569986
 21
22.1660408561
  0
LINE
  5
333
100
AcDbEntity
  8
ASSI
100
AcDbLine
 62
7
  6
CONTINUOUS
 10
14.5655772501
 20
22.1660408561
 11
7.7771569986
 21
22.1660408561
  0
LINE
  5
334
100
AcDbEntity
  8
ASSI
100
AcDbLine
 62
7
  6
CONTINUOUS
 10
3.3655772501
 20
22.1660408561
 11
-3.5228430014
 21
22.1660408561
  0
LINE
  5
335
100
AcDbEntity
  8
ASSI
100
AcDbLine
 62
7
  6
CONTINUOUS
 10
-7.9344227499
 20
22.1660408561
 11
-14.7228430014
 21
22.1660408561
  0
LINE
  5
336
100
AcDbEntity
  8
ASSI
100
AcDbLine
 62
7
  6
CONTINUOUS
 10
-19.1344227499
 20
22.1660408561
 11
-21.9150991473
 21
22.1660408561
  0
LINE
  5
337
100
AcDbEntity
  8
ASSI
100
AcDbLine
 62
7
  6
CONTINUOUS
 10
-7.9344227499
 20
22.1660408561
 11
-7.5863679026
 21
22.1344468956
  0
LINE
  5
338
100
AcDbEntity
  8
ASSI
100
AcDbLine
 62
7
  6
CONTINUOUS
 10
3.3655772501
 20
22.1660408561
 11
3.7136320974
 21
22.1344468956
  0
LINE
  5
339
100
AcDbEntity
  8
ASSI
100
AcDbLine
 62
7
  6
CONTINUOUS
 10
-14.7228430014
 20
22.1660408561
 11
-15.0708978487
 21
22.1344468956
  0
LINE
  5
33A
100
AcDbEntity
  8
ASSI
100
AcDbLine
 62
7
  6
CONTINUOUS
 10
14.5655772501
 20
22.1660408561
 11
14.9136320974
 21
22.1344468956
  0
LWPOLYLINE
  5
33B
100
AcDbEntity
  8
ASSI
100
AcDbPolyline
 62
253
  6
CONTINUOUS
 90
15
 70
0
 10
22.1703694102
 20
-20.5873462879
 10
22.1692481488
 20
-20.5884106694
 10
22.1667898858
 20
-20.5894721978
 10
22.1630012105
 20
-20.5905280279
 10
22.157892278
 20
-20.5915753295
 10
22.1514767825
 20
-20.5926112955
 10
22.1437719202
 20
-20.5936331491
 10
22.1347983435
 20
-20.5946381511
 10
22.1245801051
 20
-20.5956236079
 10
22.1131445945
 20
-20.5965868779
 10
22.1005224635
 20
-20.5975253792
 10
22.0867475448
 20
-20.5984365963
 10
22.0718567611
 20
-20.5993180866
 10
22.0558900258
 20
-20.6001674873
 10
22.0388901366
 20
-20.6009825219
  0
LWPOLYLINE
  5
33C
100
AcDbEntity
  8
ASSI
100
AcDbPolyline
 62
253
  6
CONTINUOUS
 90
17
 70
0
 10
22.1703694102
 20
20.4964654251
 10
22.1692481598
 20
20.4975298069
 10
22.1667899071
 20
20.4985913358
 10
22.1630012412
 20
20.4996471663
 10
22.1578923173
 20
20.5006944683
 10
22.1514768295
 20
20.5017304348
 10
22.1437719741
 20
20.5027522888
 10
22.1347984034
 20
20.5037572914
 10
22.1245801702
 20
20.5047427486
 10
22.1131446638
 20
20.5057060191
 10
22.1005225362
 20
20.5066445209
 10
22.0867476201
 20
20.5075557385
 10
22.071856838
 20
20.5084372292
 10
22.0558901036
 20
20.5092866305
 10
22.0388902144
 20
20.5101016655
 10
22.0209027375
 20
20.5108801496
 10
21.9821603943
 20
20.512319222
  0
LINE
  5
33D
100
AcDbEntity
  8
ASSI
100
AcDbLine
 62
7
  6
CONTINUOUS
 10
-47.5783203434
 20
-22.0441662693
 11
-43.5187045277
 21
-22.256921719
  0
LINE
  5
33E
100
AcDbEntity
  8
ASSI
100
AcDbLine
 62
253
  6
CONTINUOUS
 10
-47.5608903211
 20
-21.544850886
 11
-43.4751399215
 21
-21.7589759912
  0
LINE
  5
33F
100
AcDbEntity
  8
ASSI
100
AcDbLine
 62
253
  6
CONTINUOUS
 10
-48.9978901302
 20
-20.6078626266
 11
-48.9985589046
 21
-20.6079087449
  0
LINE
  5
340
100
AcDbEntity
  8
ASSI
100
AcDbLine
 62
253
  6
CONTINUOUS
 10
-48.9925461048
 20
-20.6076056836
 11
-48.9978901302
 21
-20.6078626266
  0
LINE
  5
341
100
AcDbEntity
  8
ASSI
100
AcDbLine
 62
253
  6
CONTINUOUS
 10
-48.5077083768
 20
-20.5873462879
 11
-48.9925461048
 21
-20.6076056836
  0
LINE
  5
342
100
AcDbEntity
  8
ASSI
100
AcDbLine
 62
253
  6
CONTINUOUS
 10
-43.1215532071
 20
-17.9789320326
 11
-43.1444289274
 21
-17.9789320318
  0
LWPOLYLINE
  5
343
100
AcDbEntity
  8
ASSI
100
AcDbPolyline
 62
253
  6
CONTINUOUS
 90
43
 70
0
 10
-48.5077083768
 20
-20.5873462879
 10
-48.5056366172
 20
-20.6225146937
 10
-48.5023419728
 20
-20.6575059876
 10
-48.4978244434
 20
-20.6923201695
 10
-48.4920754168
 20
-20.7270008213
 10
-48.4851035053
 20
-20.7615043611
 10
-48.4769345462
 20
-20.7957000433
 10
-48.467564081
 20
-20.8295859394
 10
-48.4569965682
 20
-20.8631639779
 10
-48.4452712206
 20
-20.8963091985
 10
-48.4323837982
 20
-20.9290197268
 10
-48.418338541
 20
-20.9612974372
 10
-48.4031873824
 20
-20.993022993
 10
-48.386926227
 20
-21.0241944003
 10
-48.3695591701
 20
-21.054813653
 10
-48.3511504317
 20
-21.0847673966
 10
-48.3316960946
 20
-21.1140532354
 10
-48.3112000759
 20
-21.142673565
 10
-48.2897383467
 20
-21.170522218
 10
-48.2673073672
 20
-21.1975962705
 10
-48.2439106772
 20
-21.2238986463
 10
-48.2196348679
 20
-21.24933195
 10
-48.1944766748
 20
-21.2738929725
 10
-48.1684393625
 20
-21.297584923
 10
-48.1416193151
 20
-21.3203200328
 10
-48.1140135509
 20
-21.3420948
 10
-48.0856250518
 20
-21.3629127266
 10
-48.0565591468
 20
-21.3826965498
 10
-48.0268134034
 20
-21.4014423686
 10
-47.9963902542
 20
-21.419154084
 10
-47.9654023267
 20
-21.4357661371
 10
-47.9338475703
 20
-21.4512744525
 10
-47.9017280356
 20
-21.4656831055
 10
-47.8691625019
 20
-21.4789387636
 10
-47.8361490466
 20
-21.4910372098
 10
-47.8026895922
 20
-21.5019826611
 10
-47.768908686
 20
-21.511734436
 10
-47.7348045672
 20
-21.5202880718
 10
-47.7003789967
 20
-21.5276480312
 10
-47.6657618039
 20
-21.5337870216
 10
-47.6309962653
 20
-21.5386959454
 10
-47.5960391043
 20
-21.5423839002
 10
-47.5608903211
 20
-21.544850886
  0
LWPOLYLINE
  5
344
100
AcDbEntity
  8
ASSI
100
AcDbPolyline
 62
253
  6
CONTINUOUS
 90
9
 70
0
 10
-48.9299198515
 20
0.1355300264
 10
-48.9297722691
 20
0.1293601833
 10
-48.9296113764
 20
0.1239582306
 10
-48.9294378624
 20
0.1193472957
 10
-48.92925247
 20
0.1155471197
 10
-48.9290559927
 20
0.1125739722
 10
-48.9288492719
 20
0.1104405822
 10
-48.9286331925
 20
0.1091560836
 10
-48.9284086797
 20
0.1087259757
  0
LINE
  5
345
100
AcDbEntity
  8
ASSI
100
AcDbLine
 62
253
  6
CONTINUOUS
 10
-48.9301726181
 20
0.1500645489
 11
-48.9299198515
 21
0.1355300264
  0
LINE
  5
346
100
AcDbEntity
  8
ASSI
100
AcDbLine
 62
253
  6
CONTINUOUS
 10
-48.9303653522
 20
0.1673131565
 11
-48.9301726181
 21
0.1500645489
  0
LINE
  5
347
100
AcDbEntity
  8
ASSI
100
AcDbLine
 62
253
  6
CONTINUOUS
 10
-48.9301538539
 20
-0.3995992231
 11
-48.9304864805
 21
-0.3478422306
  0
LINE
  5
348
100
AcDbEntity
  8
ASSI
100
AcDbLine
 62
253
  6
CONTINUOUS
 10
-48.930534975
 20
0.1976180405
 11
-48.9303653522
 21
0.1673131565
  0
LWPOLYLINE
  5
349
100
AcDbEntity
  8
ASSI
100
AcDbPolyline
 62
253
  6
CONTINUOUS
 90
13
 70
0
 10
-48.9301538539
 20
-0.3995992231
 10
-48.9261247975
 20
-2.0825107997
 10
-48.9164272697
 20
-3.7653239857
 10
-48.9010612707
 20
-5.448038781
 10
-48.8800265133
 20
-7.1306616829
 10
-48.8533232847
 20
-8.8131861941
 10
-48.8209524459
 20
-10.4955928228
 10
-48.7829143194
 20
-12.1778814344
 10
-48.7392085828
 20
-13.8600521634
 10
-48.6898351308
 20
-15.5420859221
 10
-48.6347939282
 20
-17.2239763478
 10
-48.5740850102
 20
-18.905729803
 10
-48.5077083768
 20
-20.5873462879
  0
LINE
  5
34A
100
AcDbEntity
  8
ASSI
100
AcDbLine
 62
253
  6
CONTINUOUS
 10
-48.9304864805
 20
-0.3478422306
 11
-48.9305586182
 21
-0.2996117323
  0
LINE
  5
34B
100
AcDbEntity
  8
ASSI
100
AcDbLine
 62
253
  6
CONTINUOUS
 10
-48.9305294374
 20
0.2444389232
 11
-48.930534975
 21
0.1976180405
  0
LINE
  5
34C
100
AcDbEntity
  8
ASSI
100
AcDbLine
 62
253
  6
CONTINUOUS
 10
-48.9305586182
 20
-0.2996117323
 11
-48.9304381349
 21
-0.2677454836
  0
LWPOLYLINE
  5
34D
100
AcDbEntity
  8
ASSI
100
AcDbPolyline
 62
253
  6
CONTINUOUS
 90
3
 70
0
 10
-48.9301538539
 20
0.3087183603
 10
-48.9302604847
 20
0.2956394988
 10
-48.9305294374
 20
0.2444389232
  0
LINE
  5
34E
100
AcDbEntity
  8
ASSI
100
AcDbLine
 62
253
  6
CONTINUOUS
 10
-48.9304381349
 20
-0.2677454836
 11
-48.9302767198
 21
-0.2492477805
  0
LWPOLYLINE
  5
34F
100
AcDbEntity
  8
ASSI
100
AcDbPolyline
 62
253
  6
CONTINUOUS
 90
11
 70
0
 10
-48.9302767198
 20
-0.2492477805
 10
-48.9300534913
 20
-0.2333221393
 10
-48.9299198508
 20
-0.2264108302
 10
-48.9297722683
 20
-0.220240997
 10
-48.9296113756
 20
-0.2148390544
 10
-48.9294378616
 20
-0.2102281294
 10
-48.9292524692
 20
-0.2064279626
 10
-48.9290559921
 20
-0.2034548231
 10
-48.9288492714
 20
-0.2013214395
 10
-48.9286331922
 20
-0.200036945
 10
-48.9284086797
 20
-0.1996068385
  0
LWPOLYLINE
  5
350
100
AcDbEntity
  8
ASSI
100
AcDbPolyline
 62
253
  6
CONTINUOUS
 90
13
 70
0
 10
-48.5077083768
 20
20.4964654251
 10
-48.5740850102
 20
18.8148489402
 10
-48.6347939282
 20
17.1330954849
 10
-48.6898351308
 20
15.4512050593
 10
-48.7392085828
 20
13.7691713006
 10
-48.7829143194
 20
12.0870005716
 10
-48.8209524459
 20
10.40471196
 10
-48.8533232847
 20
8.7223053313
 10
-48.8800265133
 20
7.03978082
 10
-48.9010612707
 20
5.3571579181
 10
-48.9164272697
 20
3.6744431228
 10
-48.9261247975
 20
1.9916299369
 10
-48.9301538539
 20
0.3087183603
  0
LWPOLYLINE
  5
351
100
AcDbEntity
  8
ASSI
100
AcDbPolyline
 62
253
  6
CONTINUOUS
 90
11
 70
0
 10
-47.5788523733
 20
21.8725733924
 10
-47.5794318507
 20
21.8987178834
 10
-47.5796099573
 20
21.909980804
 10
-47.5797129241
 20
21.9199952834
 10
-47.5797404693
 20
21.9287339044
 10
-47.5796925175
 20
21.936172743
 10
-47.5795691999
 20
21.9422914334
 10
-47.5793708542
 20
21.9470732241
 10
-47.5790980234
 20
21.9505050239
 10
-47.5787514544
 20
21.9525774373
 10
-47.578332096
 20
21.9532847906
  0
LWPOLYLINE
  5
352
100
AcDbEntity
  8
ASSI
100
AcDbPolyline
 62
253
  6
CONTINUOUS
 90
10
 70
0
 10
-47.5794318507
 20
-21.9895987605
 10
-47.5796099571
 20
-22.0008616785
 10
-47.5797129239
 20
-22.0108761554
 10
-47.5797404691
 20
-22.0196147742
 10
-47.5796925172
 20
-22.0270536107
 10
-47.5795691997
 20
-22.0331722994
 10
-47.579370854
 20
-22.0379540888
 10
-47.5790980232
 20
-22.0413858876
 10
-47.5787514543
 20
-22.0434583003
 10
-47.578332096
 20
-22.0441656534
  0
LINE
  5
353
100
AcDbEntity
  8
ASSI
100
AcDbLine
 62
253
  6
CONTINUOUS
 10
-47.5788523735
 20
-21.9634542748
 11
-47.5794318507
 21
-21.9895987605
  0
LINE
  5
354
100
AcDbEntity
  8
ASSI
100
AcDbLine
 62
253
  6
CONTINUOUS
 10
-47.5608903211
 20
21.4539700232
 11
-47.56736019
 21
21.5831288018
  0
LINE
  5
355
100
AcDbEntity
  8
ASSI
100
AcDbLine
 62
253
  6
CONTINUOUS
 10
-47.56736019
 20
21.5831288018
 11
-47.5727956695
 21
21.7034958106
  0
LINE
  5
356
100
AcDbEntity
  8
ASSI
100
AcDbLine
 62
253
  6
CONTINUOUS
 10
-47.5727956695
 20
21.7034958106
 11
-47.5761476191
 21
21.7879187296
  0
LINE
  5
357
100
AcDbEntity
  8
ASSI
100
AcDbLine
 62
253
  6
CONTINUOUS
 10
-47.5761476191
 20
21.7879187296
 11
-47.5779808334
 21
21.8418479225
  0
LINE
  5
358
100
AcDbEntity
  8
ASSI
100
AcDbLine
 62
253
  6
CONTINUOUS
 10
-47.5779808334
 20
21.8418479225
 11
-47.5788523733
 21
21.8725733924
  0
LINE
  5
359
100
AcDbEntity
  8
ASSI
100
AcDbLine
 62
253
  6
CONTINUOUS
 10
-47.5779808339
 20
-21.93272881
 11
-47.5788523735
 21
-21.9634542748
  0
LINE
  5
35A
100
AcDbEntity
  8
ASSI
100
AcDbLine
 62
253
  6
CONTINUOUS
 10
-47.5761476199
 20
-21.8787996231
 11
-47.5779808339
 21
-21.93272881
  0
LINE
  5
35B
100
AcDbEntity
  8
ASSI
100
AcDbLine
 62
253
  6
CONTINUOUS
 10
-47.5727956706
 20
-21.7943767066
 11
-47.5761476199
 21
-21.8787996231
  0
LINE
  5
35C
100
AcDbEntity
  8
ASSI
100
AcDbLine
 62
253
  6
CONTINUOUS
 10
-47.5673601909
 20
-21.6740096883
 11
-47.5727956706
 21
-21.7943767066
  0
LINE
  5
35D
100
AcDbEntity
  8
ASSI
100
AcDbLine
 62
253
  6
CONTINUOUS
 10
-47.5608903211
 20
-21.544850886
 11
-47.5673601909
 21
-21.6740096883
  0
LINE
  5
35E
100
AcDbEntity
  8
ASSI
100
AcDbLine
 62
253
  6
CONTINUOUS
 10
-42.7215532071
 20
-0.3454175861
 11
-48.9301538539
 21
-0.3995992231
  0
LINE
  5
35F
100
AcDbEntity
  8
ASSI
100
AcDbLine
 62
7
  6
CONTINUOUS
 10
-42.7215532071
 20
-0.1454404314
 11
-49.223171205
 21
-0.2021791921
  0
LINE
  5
360
100
AcDbEntity
  8
ASSI
100
AcDbLine
 62
253
  6
CONTINUOUS
 10
-48.9301538539
 20
-0.3995992231
 11
-49.4214258455
 21
-0.4023143324
  0
LINE
  5
361
100
AcDbEntity
  8
ASSI
100
AcDbLine
 62
7
  6
CONTINUOUS
 10
-49.223171205
 20
0.1112983293
 11
-42.7215532071
 21
0.0545595686
  0
LINE
  5
362
100
AcDbEntity
  8
ASSI
100
AcDbLine
 62
7
  6
CONTINUOUS
 10
-43.1215532071
 20
17.8880511698
 11
-43.1215532071
 21
17.6265804897
  0
LINE
  5
363
100
AcDbEntity
  8
ASSI
100
AcDbLine
 62
7
  6
CONTINUOUS
 10
-43.1215532071
 20
-17.7174613525
 11
-43.1215532071
 21
-17.9789320326
  0
LINE
  5
364
100
AcDbEntity
  8
ASSI
100
AcDbLine
 62
7
  6
CONTINUOUS
 10
-42.7215532071
 20
-0.1454404314
 11
-42.7215532071
 21
-13.1454404314
  0
LINE
  5
365
100
AcDbEntity
  8
ASSI
100
AcDbLine
 62
7
  6
CONTINUOUS
 10
-42.7215532071
 20
0.0545595686
 11
-42.7215532071
 21
13.0545595686
  0
LINE
  5
366
100
AcDbEntity
  8
ASSI
100
AcDbLine
 62
253
  6
CONTINUOUS
 10
-49.4214258455
 20
0.3114334695
 11
-48.9301538539
 21
0.3087183603
  0
LINE
  5
367
100
AcDbEntity
  8
ASSI
100
AcDbLine
 62
253
  6
CONTINUOUS
 10
-48.9301538539
 20
0.3087183603
 11
-42.7215532071
 21
0.2545367233
  0
LINE
  5
368
100
AcDbEntity
  8
ASSI
100
AcDbLine
 62
7
  6
CONTINUOUS
 10
-42.7215532071
 20
13.0545595686
 11
-43.5187045277
 21
22.1660408561
  0
LINE
  5
369
100
AcDbEntity
  8
ASSI
100
AcDbLine
 62
7
  6
CONTINUOUS
 10
-42.7215532071
 20
-13.1454404314
 11
-43.5187045277
 21
-22.256921719
  0
LINE
  5
36A
100
AcDbEntity
  8
ASSI
100
AcDbLine
 62
253
  6
CONTINUOUS
 10
-43.1215532071
 20
17.8880511698
 11
-43.1444289275
 21
17.8880511698
  0
LWPOLYLINE
  5
36B
100
AcDbEntity
  8
ASSI
100
AcDbPolyline
 62
253
  6
CONTINUOUS
 90
43
 70
0
 10
-47.5608903211
 20
21.4539700232
 10
-47.5960391042
 20
21.4515030374
 10
-47.630996265
 20
21.4478150826
 10
-47.6657618036
 20
21.4429061588
 10
-47.7003789964
 20
21.4367671684
 10
-47.7348045669
 20
21.429407209
 10
-47.7689086857
 20
21.4208535733
 10
-47.8026895919
 20
21.4111017983
 10
-47.8361490463
 20
21.400156347
 10
-47.8691625017
 20
21.3880579009
 10
-47.9017280354
 20
21.3748022427
 10
-47.9338475701
 20
21.3603935897
 10
-47.9654023264
 20
21.3448852744
 10
-47.996390254
 20
21.3282732213
 10
-48.0268134032
 20
21.3105615059
 10
-48.0565591466
 20
21.2918156871
 10
-48.0856250516
 20
21.2720318639
 10
-48.1140135507
 20
21.2512139373
 10
-48.1416193149
 20
21.2294391701
 10
-48.1684393623
 20
21.2067040603
 10
-48.1944766746
 20
21.1830121099
 10
-48.2196348677
 20
21.1584510873
 10
-48.243910677
 20
21.1330177836
 10
-48.267307367
 20
21.1067154078
 10
-48.2897383466
 20
21.0796413554
 10
-48.3112000757
 20
21.0517927024
 10
-48.3316960945
 20
21.0231723727
 10
-48.3511504316
 20
20.993886534
 10
-48.36955917
 20
20.9639327904
 10
-48.3869262269
 20
20.9333135377
 10
-48.4031873823
 20
20.9021421304
 10
-48.4183385409
 20
20.8704165745
 10
-48.4323837981
 20
20.8381388641
 10
-48.4452712206
 20
20.8054283358
 10
-48.4569965681
 20
20.7722831152
 10
-48.4675640809
 20
20.7387050767
 10
-48.4769345462
 20
20.7048191806
 10
-48.4851035053
 20
20.6706234984
 10
-48.4920754168
 20
20.6361199586
 10
-48.4978244434
 20
20.6014393068
 10
-48.5023419727
 20
20.5666251249
 10
-48.5056366172
 20
20.531633831
 10
-48.5077083768
 20
20.4964654251
  0
LINE
  5
36C
100
AcDbEntity
  8
ASSI
100
AcDbLine
 62
253
  6
CONTINUOUS
 10
-43.4751399215
 20
21.6680951283
 11
-47.5608903211
 21
21.4539700232
  0
LINE
  5
36D
100
AcDbEntity
  8
ASSI
100
AcDbLine
 62
7
  6
CONTINUOUS
 10
-43.5187045277
 20
22.1660408561
 11
-47.5783203432
 21
21.9532854065
  0
LINE
  5
36E
100
AcDbEntity
  8
ASSI
100
AcDbLine
 62
253
  6
CONTINUOUS
 10
-48.5077083768
 20
20.4964654251
 11
-48.9925463747
 21
20.5167248317
  0
LWPOLYLINE
  5
36F
100
AcDbEntity
  8
ASSI
100
AcDbPolyline
 62
253
  6
CONTINUOUS
 90
3
 70
0
 10
-48.9925463747
 20
20.5167248317
 10
-48.9978904043
 20
20.516981775
 10
-48.9985591794
 20
20.5170278934
  0
CIRCLE
  5
370
100
AcDbEntity
  8
ASSI
100
AcDbCircle
 62
7
  6
CONTINUOUS
 10
-11.3286328757
 20
4.4545595686
 40
1.3
  0
CIRCLE
  5
371
100
AcDbEntity
  8
ASSI
100
AcDbCircle
 62
7
  6
CONTINUOUS
 10
-11.3286328757
 20
-4.5454404314
 40
1.3
  0
CIRCLE
  5
372
100
AcDbEntity
  8
DRAFT
100
AcDbCircle
 62
7
  6
CONTINUOUS
 10
-11.3286328757
 20
-4.5454404314
 40
1.225
  0
CIRCLE
  5
373
100
AcDbEntity
  8
DRAFT
100
AcDbCircle
 62
7
  6
CONTINUOUS
 10
-11.3286328757
 20
4.4545595686
 40
1.225
  0
CIRCLE
  5
374
100
AcDbEntity
  8
RACCORDO
100
AcDbCircle
 62
253
  6
CONTINUOUS
 10
-11.3286328757
 20
-4.5454404314
 40
1.2068524201
  0
CIRCLE
  5
375
100
AcDbEntity
  8
RACCORDO
100
AcDbCircle
 62
253
  6
CONTINUOUS
 10
-11.3286328757
 20
4.4545595686
 40
1.2068524201
  0
CIRCLE
  5
376
100
AcDbEntity
  8
RACCORDO
100
AcDbCircle
 62
253
  6
CONTINUOUS
 10
-11.3286328757
 20
-4.5454404314
 40
1.1180464865
  0
CIRCLE
  5
377
100
AcDbEntity
  8
RACCORDO
100
AcDbCircle
 62
253
  6
CONTINUOUS
 10
-11.3286328757
 20
4.4545595686
 40
1.1180464865
  0
ARC
  5
378
100
AcDbEntity
  8
ASSI
100
AcDbCircle
 62
7
  6
CONTINUOUS
 10
-47.4998281617
 20
-20.5462213513
 40
1.5
100
AcDbArc
 50
182.3564266661
 51
267.0004495404
  0
ARC
  5
379
100
AcDbEntity
  8
ASSI
100
AcDbCircle
 62
7
  6
CONTINUOUS
 10
-43.4215532071
 20
-17.9789320326
 40
0.3
100
AcDbArc
 50
335.0
 51
360.0
  0
ARC
  5
37A
100
AcDbEntity
  8
ASSI
100
AcDbCircle
 62
7
  6
CONTINUOUS
 10
-49.2214258991
 20
-0.4021715767
 40
0.2
100
AcDbArc
 50
90.4999996495
 51
180.0408949932
  0
ARC
  5
37B
100
AcDbEntity
  8
ASSI
100
AcDbCircle
 62
7
  6
CONTINUOUS
 10
-47.4998281617
 20
20.4553404884
 40
1.5
100
AcDbArc
 50
92.9995504596
 51
177.6435733339
  0
ARC
  5
37C
100
AcDbEntity
  8
ASSI
100
AcDbCircle
 62
7
  6
CONTINUOUS
 10
-43.4215532071
 20
17.8880511698
 40
0.3
100
AcDbArc
 50
0.0
 51
25.0
  0
ARC
  5
37D
100
AcDbEntity
  8
ASSI
100
AcDbCircle
 62
7
  6
CONTINUOUS
 10
-49.2214258991
 20
0.3112907139
 40
0.2
100
AcDbArc
 50
179.9591050068
 51
269.5000003505
  0
ARC
  5
37E
100
AcDbEntity
  8
ASSI
100
AcDbCircle
 62
7
  6
CONTINUOUS
 10
450.5784467929
 20
-0.0454404314
 40
500.0
100
AcDbArc
 50
177.6430515792
 51
179.9591052604
  0
ARC
  5
37F
100
AcDbEntity
  8
ASSI
100
AcDbCircle
 62
7
  6
CONTINUOUS
 10
450.5784467929
 20
-0.0454404314
 40
500.0
100
AcDbArc
 50
180.0408947396
 51
182.3569484208
  0
ELLIPSE
  5
380
100
AcDbEntity
  8
ASSI
100
AcDbEllipse
 62
7
  6
CONTINUOUS
 10
7.2558970705
 20
22.1396876735
 30
0.0
 11
0.2
 21
0.0
 31
0.0
 40
0.0524077793
 41
-1.5707963268
 42
-0.5235987756
  0
ELLIPSE
  5
381
100
AcDbEntity
  8
ASSI
100
AcDbEllipse
 62
7
  6
CONTINUOUS
 10
-7.4131628218
 20
22.1396876735
 30
0.0
 11
0.2
 21
0.0
 31
0.0
 40
0.0524077793
 41
-2.617993878
 42
-1.5707963268
  0
ELLIPSE
  5
382
100
AcDbEntity
  8
ASSI
100
AcDbEllipse
 62
7
  6
CONTINUOUS
 10
-21.9154035018
 20
21.6676398947
 30
0.0
 11
0.498078285
 21
0.0448076117
 31
0.0
 40
0.9965957691
 41
1.4807720384
 42
3.0506549766
  0
ELLIPSE
  5
383
100
AcDbEntity
  8
ASSI
100
AcDbEllipse
 62
7
  6
CONTINUOUS
 10
21.7581377505
 20
21.6676398947
 30
0.0
 11
0.498078285
 21
-0.0448076117
 31
0.0
 40
0.9965957691
 41
0.0909376769
 42
1.6608206152
  0
ELLIPSE
  5
384
100
AcDbEntity
  8
ASSI
100
AcDbEllipse
 62
7
  6
CONTINUOUS
 10
22.0713366587
 20
0.2545671843
 30
0.0
 11
0.1789222233
 21
-0.0894542984
 31
0.0
 40
0.9998096356
 41
-1.1071030277
 42
0.4635410001
  0
ELLIPSE
  5
385
100
AcDbEntity
  8
ASSI
100
AcDbEllipse
 62
7
  6
CONTINUOUS
 10
-22.2286024101
 20
0.2545671843
 30
0.0
 11
0.1789222233
 21
0.0894542984
 31
0.0
 40
0.9998096356
 41
2.6780516535
 42
4.2486956813
  0
ELLIPSE
  5
386
100
AcDbEntity
  8
ASSI
100
AcDbEllipse
 62
7
  6
CONTINUOUS
 10
3.8868371782
 20
22.1396876735
 30
0.0
 11
0.2
 21
-0.0
 31
0.0
 40
0.0524077793
 41
-2.617993878
 42
-1.5707963268
  0
ELLIPSE
  5
387
100
AcDbEntity
  8
ASSI
100
AcDbEllipse
 62
7
  6
CONTINUOUS
 10
-4.0441029295
 20
22.1396876735
 30
0.0
 11
0.2
 21
0.0
 31
0.0
 40
0.0524077793
 41
-1.5707963268
 42
-0.5235987756
  0
ELLIPSE
  5
388
100
AcDbEntity
  8
ASSI
100
AcDbEllipse
 62
7
  6
CONTINUOUS
 10
15.0868371782
 20
22.1396876735
 30
0.0
 11
0.2
 21
-0.0
 31
0.0
 40
0.0524077793
 41
-2.617993878
 42
-1.5707963268
  0
ELLIPSE
  5
389
100
AcDbEntity
  8
ASSI
100
AcDbEllipse
 62
7
  6
CONTINUOUS
 10
18.4558970705
 20
22.1396876735
 30
0.0
 11
0.2
 21
0.0
 31
0.0
 40
0.0524077793
 41
-1.5707963268
 42
-0.5235987756
  0
ELLIPSE
  5
38A
100
AcDbEntity
  8
ASSI
100
AcDbEllipse
 62
7
  6
CONTINUOUS
 10
-15.2441029295
 20
22.1396876735
 30
0.0
 11
0.2
 21
0.0
 31
0.0
 40
0.0524077793
 41
-1.5707963268
 42
-0.5235987756
  0
ELLIPSE
  5
38B
100
AcDbEntity
  8
ASSI
100
AcDbEllipse
 62
7
  6
CONTINUOUS
 10
-18.6131628218
 20
22.1396876735
 30
0.0
 11
0.2
 21
-0.0
 31
0.0
 40
0.0524077793
 41
-2.617993878
 42
-1.5707963268
  0
ELLIPSE
  5
38C
100
AcDbEntity
  8
ASSI
100
AcDbEllipse
 62
7
  6
CONTINUOUS
 10
-4.0441029295
 20
-22.2305685364
 30
0.0
 11
0.2
 21
0.0
 31
0.0
 40
0.0524077793
 41
0.5235987756
 42
1.5707963268
  0
ELLIPSE
  5
38D
100
AcDbEntity
  8
ASSI
100
AcDbEllipse
 62
7
  6
CONTINUOUS
 10
-7.4131628218
 20
-22.2305685364
 30
0.0
 11
0.2
 21
0.0
 31
0.0
 40
0.0524077793
 41
1.5707963268
 42
2.617993878
  0
ELLIPSE
  5
38E
100
AcDbEntity
  8
ASSI
100
AcDbEllipse
 62
7
  6
CONTINUOUS
 10
7.2558970705
 20
-22.2305685364
 30
0.0
 11
0.2
 21
0.0
 31
0.0
 40
0.0524077793
 41
0.5235987756
 42
1.5707963268
  0
ELLIPSE
  5
38F
100
AcDbEntity
  8
ASSI
100
AcDbEllipse
 62
7
  6
CONTINUOUS
 10
3.8868371782
 20
-22.2305685364
 30
0.0
 11
0.2
 21
-0.0
 31
0.0
 40
0.0524077793
 41
1.5707963268
 42
2.617993878
  0
ELLIPSE
  5
390
100
AcDbEntity
  8
ASSI
100
AcDbEllipse
 62
7
  6
CONTINUOUS
 10
-15.2441029295
 20
-22.2305685364
 30
0.0
 11
0.2
 21
-0.0
 31
0.0
 40
0.0524077793
 41
0.5235987756
 42
1.5707963268
  0
ELLIPSE
  5
391
100
AcDbEntity
  8
ASSI
100
AcDbEllipse
 62
7
  6
CONTINUOUS
 10
-18.6131628218
 20
-22.2305685364
 30
0.0
 11
0.2
 21
-0.0
 31
0.0
 40
0.0524077793
 41
1.5707963268
 42
2.617993878
  0
ELLIPSE
  5
392
100
AcDbEntity
  8
ASSI
100
AcDbEllipse
 62
7
  6
CONTINUOUS
 10
15.0868371782
 20
-22.2305685364
 30
0.0
 11
0.2
 21
-0.0
 31
0.0
 40
0.0524077793
 41
1.5707963268
 42
2.617993878
  0
ELLIPSE
  5
393
100
AcDbEntity
  8
ASSI
100
AcDbEllipse
 62
7
  6
CONTINUOUS
 10
18.4558970705
 20
-22.2305685364
 30
0.0
 11
0.2
 21
0.0
 31
0.0
 40
0.0524077793
 41
0.5235987756
 42
1.5707963268
  0
ELLIPSE
  5
394
100
AcDbEntity
  8
ASSI
100
AcDbEllipse
 62
7
  6
CONTINUOUS
 10
22.0713366587
 20
-0.3454480471
 30
0.0
 11
0.1789222233
 21
0.0894542984
 31
0.0
 40
0.9998096356
 41
-0.4635410001
 42
1.1071030277
  0
ELLIPSE
  5
395
100
AcDbEntity
  8
ASSI
100
AcDbEllipse
 62
7
  6
CONTINUOUS
 10
-22.2286024101
 20
-0.3454480471
 30
0.0
 11
0.1789222233
 21
-0.0894542984
 31
0.0
 40
0.9998096356
 41
2.0344896259
 42
3.6051336537
  0
ELLIPSE
  5
396
100
AcDbEntity
  8
ASSI
100
AcDbEllipse
 62
7
  6
CONTINUOUS
 10
21.7581377505
 20
-21.7585207575
 30
0.0
 11
0.498078285
 21
0.0448076117
 31
0.0
 40
0.9965957691
 41
-1.6608206152
 42
-0.0909376769
  0
ELLIPSE
  5
397
100
AcDbEntity
  8
ASSI
100
AcDbEllipse
 62
7
  6
CONTINUOUS
 10
-21.9154035018
 20
-21.7585207575
 30
0.0
 11
0.498078285
 21
-0.0448076117
 31
0.0
 40
0.9965957691
 41
-3.0506549766
 42
-1.4807720384
  0
ELLIPSE
  5
398
100
AcDbEntity
  8
CURVE
100
AcDbEllipse
 62
253
  6
CONTINUOUS
 10
450.5784467929
 20
-0.0454404314
 30
0.0
 11
-0.0
 21
500.0
 31
0.0
 40
1.0
 41
1.5431909917
 42
1.5466903018
  0
ENDSEC
  0
SECTION
  2
OBJECTS
  0
DICTIONARY
  5
C
100
AcDbDictionary
280
0
281
1
  3
ACAD_GROUP
350
D
  3
ACAD_MLINESTYLE
350
17
  3
ACAD_LAYOUT
350
1A
  3
ACAD_PLOTSETTINGS
350
19
  3
ACAD_PLOTSTYLENAME
350
E
  0
DICTIONARY
  5
D
102
{ACAD_REACTORS
330
C
102
}
100
AcDbDictionary
280
0
281
1
  0
ACDBDICTIONARYWDFLT
  5
E
102
{ACAD_REACTORS
330
C
102
}
100
AcDbDictionary
281
1
  3
Normal
350
F
100
AcDbDictionaryWithDefault
340
F
  0
DICTIONARY
  5
17
102
{ACAD_REACTORS
330
C
102
}
100
AcDbDictionary
280
0
281
1
  3
Standard
350
18
  0
DICTIONARY
  5
19
102
{ACAD_REACTORS
330
C
102
}
100
AcDbDictionary
281
1
  0
DICTIONARY
  5
1A
102
{ACAD_REACTORS
330
C
102
}
100
AcDbDictionary
281
1
  3
Model
350
399
  3
Layout1
350
39A
  0
ACDBPLACEHOLDER
  5
F
102
{ACAD_REACTORS
330
E
102
}
  0
MLINESTYLE
  5
18
102
{ACAD_REACTORS
330
17
102
}
100
AcDbMlineStyle
  2
STANDARD
 70
0
  3

 62
256
 51
90.0
 52
90.0
 71
2
 49
0.5
 62
256
  6
BYLAYER
 49
-0.5
 62
256
  6
BYLAYER
  0
LAYOUT
  5
399
102
{ACAD_REACTORS
330
1A
102
}
100
AcDbPlotSettings
  1

  2
none_device
  4
ISO_A4_(297.00_x_210.00_MM)
  6

 40
0.0
 41
0.0
 42
0.0
 43
0.0
 44
297.0
 45
210.0
 46
0.0
 47
0.0
 48
0.0
 49
0.0
140
0.0
141
0.0
142
1.0
143
1.0
 70
1024
 72
1
 73
0
 74
0
  7

 75
0
147
1.0
148
0.0
149
0.0
100
AcDbLayout
  1
Model
 70
0
 71
0
 10
0.0
 20
0.0
 11
297.0
 21
210.0
 12
0.0
 22
0.0
 32
0.0
 14
0.0
 24
0.0
 34
0.0
 15
0.0
 25
0.0
 35
0.0
146
0.0
 13
0.0
 23
0.0
 33
0.0
 16
1.0
 26
0.0
 36
0.0
 17
0.0
 27
1.0
 37
0.0
 76
0
330
217
345
0
346
0
  0
LAYOUT
  5
39A
102
{ACAD_REACTORS
330
1A
102
}
100
AcDbPlotSettings
  1

  2
none_device
  4
ISO_A4_(297.00_x_210.00_MM)
  6

 40
0.0
 41
0.0
 42
0.0
 43
0.0
 44
297.0
 45
210.0
 46
0.0
 47
0.0
 48
0.0
 49
0.0
140
0.0
141
0.0
142
1.0
143
1.0
 70
0
 72
1
 73
0
 74
0
  7

 75
0
147
1.0
148
0.0
149
0.0
100
AcDbLayout
  1
Layout1
 70
0
 71
1
 10
0.0
 20
0.0
 11
297.0
 21
210.0
 12
0.0
 22
0.0
 32
0.0
 14
0.0
 24
0.0
 34
0.0
 15
0.0
 25
0.0
 35
0.0
146
0.0
 13
0.0
 23
0.0
 33
0.0
 16
1.0
 26
0.0
 36
0.0
 17
0.0
 27
1.0
 37
0.0
 76
0
330
218
345
0
346
0
  0
ENDSEC
  0
EOF
