  0
SECTION
  2
HEADER
  9
$ACADVER
  1
AC1021
  9
$DWGCODEPAGE
  3
ANSI_1252
  9
$EXTMAX
 10
297.0
 20
210.0
 30
0.0
  9
$EXTMIN
 10
0.0
 20
0.0
 30
0.0
  9
$LIMMIN
 10
0.0
 20
0.0
  9
$LIMMAX
 10
297.0
 20
210.0
  9
$VIEWCTR
 10
148.5
 20
105.0
  9
$VIEWSIZE
 40
210.0
  9
$CLAYER
  8
0
  9
$LTSCALE
 40
16.335
  9
$CELTYPE
  6
BYLAYER
  9
$DIMSCALE
 40
1.0
  9
$DIMASZ
 40
3.0
  9
$DIMEXO
 40
0.5
  9
$DIMDLI
 40
11.286
  9
$DIMEXE
 40
1.5
  9
$DIMCEN
 40
2.673
  9
$DIMLFAC
 40
1.0
  9
$DIMBLK
  1
_FILLED
  9
$DIMALT
 70
0
  9
$DIMALTF
 40
25.4
  9
$DIMTXT
 40
3.0
  9
$DIMTOL
 70
1
  9
$DIMLIM
 70
0
  9
$DIMTFAC
 40
1.0
  9
$DIMTP
 40
0.01
  9
$DIMTM
 40
0.01
  9
$DIMGAP
 40
0.625
  9
$DIMDSEP
 70
44
  9
$AUNITS
 70
0
  9
$PDMODE
 70
3
  9
$PDSIZE
 40
3.0
  9
$HANDSEED
  5
3D1
  9
$TILEMODE
 70
1
  9
$MEASUREMENT
 70
1
  9
$INSUNITS
 70
4
  0
ENDSEC
  0
SECTION
  2
CLASSES
  0
CLASS
  1
ACDBDICTIONARYWDFLT
  2
AcDbDictionaryWithDefault
  3
AutoCAD 2000
 90
0
 91
1
280
0
281
0
  0
CLASS
  1
ACDBPLACEHOLDER
  2
AcDbPlaceHolder
  3
AutoCAD 2000
 90
0
 91
1
280
0
281
0
  0
CLASS
  1
LAYOUT
  2
AcDbLayout
  3
AutoCAD 2000
 90
0
 91
0
280
0
281
0
  0
ENDSEC
  0
SECTION
  2
TABLES
  0
TABLE
  2
VPORT
  5
8
100
AcDbSymbolTable
 70
2
  0
VPORT
  5
1F4
100
AcDbSymbolTableRecord
100
AcDbViewportTableRecord
  2
*ACTIVE
 70
0
 10
0.0
 20
0.0
 11
1.0
 21
1.0
 12
148.5
 22
105.0
 13
0.0
 23
0.0
 14
1.0
 24
1.0
 15
0.0
 25
0.0
 16
0.0
 26
0.0
 36
1.0
 17
0.0
 27
0.0
 37
0.0
 40
210.0
 41
1.4142857143
 42
50.0
 43
0.0
 44
0.0
 50
0.0
 51
0.0
 71
0
 72
100
 73
1
 74
1
 75
0
 76
0
 77
0
 78
0
  0
ENDTAB
  0
TABLE
  2
LTYPE
  5
5
100
AcDbSymbolTable
 70
6
  0
LTYPE
  5
14
100
AcDbSymbolTableRecord
100
AcDbLinetypeTableRecord
  2
BYBLOCK
 70
0
  3

 72
65
 73
0
 40
0.0
  0
LTYPE
  5
15
100
AcDbSymbolTableRecord
100
AcDbLinetypeTableRecord
  2
BYLAYER
 70
0
  3

 72
65
 73
0
 40
0.0
  0
LTYPE
  5
16
100
AcDbSymbolTableRecord
100
AcDbLinetypeTableRecord
  2
CONTINUOUS
 70
64
  3
Solid line
 72
65
 73
0
 40
0.0
  0
LTYPE
  5
1F5
100
AcDbSymbolTableRecord
100
AcDbLinetypeTableRecord
  2
CENTER
 70
64
  3
____ _ ____ _ ____ _ ____ _ ____ _ ____ _ ____
 72
65
 73
4
 40
0.6
 49
0.375
 74
0
 49
-0.075
 74
0
 49
0.075
 74
0
 49
-0.075
 74
0
  0
LTYPE
  5
1F6
100
AcDbSymbolTableRecord
100
AcDbLinetypeTableRecord
  2
HIDDEN
 70
64
  3
- - - - - - - - - - - - - - - - - - - -
 72
65
 73
2
 40
0.2
 49
0.1
 74
0
 49
-0.1
 74
0
  0
LTYPE
  5
1F7
100
AcDbSymbolTableRecord
100
AcDbLinetypeTableRecord
  2
PHANTOM
 70
64
  3
_____ _ _ _____ _ _ _____ _ _ _____
 72
65
 73
6
 40
0.8
 49
0.45
 74
0
 49
-0.05
 74
0
 49
0.1
 74
0
 49
-0.05
 74
0
 49
0.1
 74
0
 49
-0.05
 74
0
  0
LTYPE
  5
1F8
100
AcDbSymbolTableRecord
100
AcDbLinetypeTableRecord
  2
DOT
 70
64
  3
. . . . . . . . . . . . . . . . . . . .
 72
65
 73
2
 40
0.2
 49
0.1
 74
0
 49
-0.1
 74
0
  0
LTYPE
  5
1F9
100
AcDbSymbolTableRecord
100
AcDbLinetypeTableRecord
  2
DASHED
 70
64
  3
- - - - - - - - - - - - - - - - - - - -
 72
65
 73
2
 40
0.2
 49
0.1
 74
0
 49
-0.1
 74
0
  0
ENDTAB
  0
TABLE
  2
LAYER
  5
2
100
AcDbSymbolTable
 70
36
  0
LAYER
  5
10
100
AcDbSymbolTableRecord
100
AcDbLayerTableRecord
  2
0
 70
0
 62
7
  6
CONTINUOUS
370
-3
390
F
  0
LAYER
  5
1FA
100
AcDbSymbolTableRecord
100
AcDbLayerTableRecord
  2
DEFAULT_1
 70
0
 62
7
  6
CENTER
370
-3
390
F
  0
LAYER
  5
1FB
100
AcDbSymbolTableRecord
100
AcDbLayerTableRecord
  2
DEFAULT_2
 70
0
 62
7
  6
HIDDEN
370
-3
390
F
  0
LAYER
  5
1FC
100
AcDbSymbolTableRecord
100
AcDbLayerTableRecord
  2
DEFAULT_3
 70
0
 62
7
  6
PHANTOM
370
-3
390
F
  0
LAYER
  5
1FD
100
AcDbSymbolTableRecord
100
AcDbLayerTableRecord
  2
ASSI
 70
0
 62
7
  6
CONTINUOUS
370
-3
390
F
  0
LAYER
  5
1FE
100
AcDbSymbolTableRecord
100
AcDbLayerTableRecord
  2
COORDINATE
 70
0
 62
7
  6
CONTINUOUS
370
-3
390
F
  0
LAYER
  5
1FF
100
AcDbSymbolTableRecord
100
AcDbLayerTableRecord
  2
COORD_ORIGINE
 70
0
 62
7
  6
CONTINUOUS
370
-3
390
F
  0
LAYER
  5
200
100
AcDbSymbolTableRecord
100
AcDbLayerTableRecord
  2
COPY_PUBLISH
 70
0
 62
7
  6
CONTINUOUS
370
-3
390
F
  0
LAYER
  5
201
100
AcDbSymbolTableRecord
100
AcDbLayerTableRecord
  2
COSMETIC
 70
0
 62
7
  6
CONTINUOUS
370
-3
390
F
  0
LAYER
  5
202
100
AcDbSymbolTableRecord
100
AcDbLayerTableRecord
  2
COSMETICI
 70
0
 62
7
  6
CONTINUOUS
370
-3
390
F
  0
LAYER
  5
203
100
AcDbSymbolTableRecord
100
AcDbLayerTableRecord
  2
CURVE
 70
0
 62
7
  6
CONTINUOUS
370
-3
390
F
  0
LAYER
  5
204
100
AcDbSymbolTableRecord
100
AcDbLayerTableRecord
  2
DRAFT
 70
0
 62
7
  6
CONTINUOUS
370
-3
390
F
  0
LAYER
  5
205
100
AcDbSymbolTableRecord
100
AcDbLayerTableRecord
  2
IGES
 70
0
 62
7
  6
CONTINUOUS
370
-3
390
F
  0
LAYER
  5
206
100
AcDbSymbolTableRecord
100
AcDbLayerTableRecord
  2
IMPORT_IGES
 70
0
 62
7
  6
CONTINUOUS
370
-3
390
F
  0
LAYER
  5
207
100
AcDbSymbolTableRecord
100
AcDbLayerTableRecord
  2
LIVELLO_1
 70
0
 62
7
  6
CONTINUOUS
370
-3
390
F
  0
LAYER
  5
208
100
AcDbSymbolTableRecord
100
AcDbLayerTableRecord
  2
NOTE
 70
0
 62
7
  6
CONTINUOUS
370
-3
390
F
  0
LAYER
  5
209
100
AcDbSymbolTableRecord
100
AcDbLayerTableRecord
  2
PIANI
 70
0
 62
7
  6
CONTINUOUS
370
-3
390
F
  0
LAYER
  5
20A
100
AcDbSymbolTableRecord
100
AcDbLayerTableRecord
  2
PIANI_ORIGINE
 70
0
 62
7
  6
CONTINUOUS
370
-3
390
F
  0
LAYER
  5
20B
100
AcDbSymbolTableRecord
100
AcDbLayerTableRecord
  2
PIANI_RIFERIMENTO
 70
0
 62
7
  6
CONTINUOUS
370
-3
390
F
  0
LAYER
  5
20C
100
AcDbSymbolTableRecord
100
AcDbLayerTableRecord
  2
PUNTI
 70
0
 62
7
  6
CONTINUOUS
370
-3
390
F
  0
LAYER
  5
20D
100
AcDbSymbolTableRecord
100
AcDbLayerTableRecord
  2
RACCORDO
 70
0
 62
7
  6
CONTINUOUS
370
-3
390
F
  0
LAYER
  5
20E
100
AcDbSymbolTableRecord
100
AcDbLayerTableRecord
  2
SIMBOLI
 70
0
 62
7
  6
CONTINUOUS
370
-3
390
F
  0
LAYER
  5
20F
100
AcDbSymbolTableRecord
100
AcDbLayerTableRecord
  2
SMUSSO
 70
0
 62
7
  6
CONTINUOUS
370
-3
390
F
  0
LAYER
  5
210
100
AcDbSymbolTableRecord
100
AcDbLayerTableRecord
  2
SNAPLINE
 70
0
 62
7
  6
CONTINUOUS
370
-3
390
F
  0
LAYER
  5
211
100
AcDbSymbolTableRecord
100
AcDbLayerTableRecord
  2
SUPERFICI
 70
0
 62
7
  6
CONTINUOUS
370
-3
390
F
  0
LAYER
  5
212
100
AcDbSymbolTableRecord
100
AcDbLayerTableRecord
  2
TRASH
 70
0
 62
7
  6
CONTINUOUS
370
-3
390
F
  0
LAYER
  5
213
100
AcDbSymbolTableRecord
100
AcDbLayerTableRecord
  2
WHITE
 70
0
 62
7
  6
CONTINUOUS
370
-3
390
F
  0
LAYER
  5
214
100
AcDbSymbolTableRecord
100
AcDbLayerTableRecord
  2
XSEC_DATUMS
 70
0
 62
7
  6
CONTINUOUS
370
-3
390
F
  0
ENDTAB
  0
TABLE
  2
STYLE
  5
3
100
AcDbSymbolTable
 70
1
  0
STYLE
  5
11
100
AcDbSymbolTableRecord
100
AcDbTextStyleTableRecord
  2
STANDARD
 70
0
 40
0.0
 41
0.8
 50
0.0
 71
0
 42
0.2
  3
txt
  4

  0
STYLE
  5
215
100
AcDbSymbolTableRecord
100
AcDbTextStyleTableRecord
  2
TEXTSTYLE_1
 70
0
 40
0.0
 41
0.8
 50
0.0
 71
0
 42
0.2
  3
gdt
  4

  0
ENDTAB
  0
TABLE
  2
VIEW
  5
6
100
AcDbSymbolTable
 70
0
  0
ENDTAB
  0
TABLE
  2
UCS
  5
7
100
AcDbSymbolTable
 70
0
  0
ENDTAB
  0
TABLE
  2
APPID
  5
9
100
AcDbSymbolTable
 70
1
  0
APPID
  5
216
100
AcDbSymbolTableRecord
100
AcDbRegAppTableRecord
  2
ACAD
 70
0
  0
ENDTAB
  0
TABLE
  2
BLOCK_RECORD
  5
1
100
AcDbSymbolTable
 70
0
  0
BLOCK_RECORD
  5
217
100
AcDbSymbolTableRecord
100
AcDbBlockTableRecord
  2
*Model_Space
  0
BLOCK_RECORD
  5
218
100
AcDbSymbolTableRecord
100
AcDbBlockTableRecord
  2
*Paper_Space
  0
BLOCK_RECORD
  5
219
100
AcDbSymbolTableRecord
100
AcDbBlockTableRecord
  2
_FILLED
  0
BLOCK_RECORD
  5
21A
100
AcDbSymbolTableRecord
100
AcDbBlockTableRecord
  2
*D0
  0
BLOCK_RECORD
  5
21B
100
AcDbSymbolTableRecord
100
AcDbBlockTableRecord
  2
*D1
  0
BLOCK_RECORD
  5
21C
100
AcDbSymbolTableRecord
100
AcDbBlockTableRecord
  2
*D2
  0
ENDTAB
  0
TABLE
  2
DIMSTYLE
  5
A
100
AcDbSymbolTable
 70
1
100
AcDbDimStyleTable
 71
0
  0
DIMSTYLE
105
21D
100
AcDbSymbolTableRecord
100
AcDbDimStyleTableRecord
  2
STANDARD
 70
0
  3

  4

 40
1.0
 41
3.0
 42
0.5
 43
0.38
 44
1.5
 45
0.0
 46
0.0
 47
0.01
 48
0.01
140
3.0
141
0.09
142
0.0
143
25.4
144
1.0
145
0.0
146
1.0
147
0.625
 71
1.0
 72
0.0
 73
0
 74
0
 75
0
 76
0
 77
1
 78
8
170
0
171
1
172
0
173
0
174
0
175
0
176
0
177
0
178
0
270
2
271
2
272
2
273
2
274
2
275
0
280
0
281
0
282
0
283
1
284
8
285
0
286
0
287
3
288
0
340
11
278
44
341
219
342
219
343
219
344
219
  0
DIMSTYLE
105
21E
100
AcDbSymbolTableRecord
100
AcDbDimStyleTableRecord
  2
DIMSTYLE_1
 70
0
  3

  4

 40
1.0
 41
3.0
 42
0.5
 43
0.38
 44
1.5
 45
0.0
 46
0.0
 47
0.0
 48
0.0
140
3.0
141
0.09
142
0.0
143
25.4
144
1.0
145
0.0
146
1.0
147
0.75
 71
0.0
 72
0.0
 73
0
 74
0
 75
0
 76
0
 77
1
 78
8
170
0
171
1
172
0
173
0
174
0
175
0
176
0
177
0
178
0
270
2
271
2
272
2
273
2
274
2
275
0
280
0
281
0
282
0
283
1
284
8
285
0
286
0
287
3
288
0
340
11
278
44
341
219
342
219
343
219
344
219
  0
DIMSTYLE
105
21F
100
AcDbSymbolTableRecord
100
AcDbDimStyleTableRecord
  2
DIMSTYLE_2
 70
0
  3

  4

 40
1.0
 41
3.0
 42
0.5
 43
0.38
 44
1.5
 45
0.0
 46
0.0
 47
0.0
 48
0.0
140
3.0
141
0.09
142
0.0
143
25.4
144
1.0
145
0.0
146
1.0
147
0.75
 71
0.0
 72
0.0
 73
0
 74
0
 75
0
 76
0
 77
1
 78
8
170
0
171
1
172
0
173
0
174
0
175
0
176
0
177
0
178
0
270
2
271
1
272
1
273
2
274
2
275
0
280
0
281
0
282
0
283
1
284
8
285
0
286
0
287
3
288
0
340
11
278
44
341
219
342
219
343
219
344
219
  0
ENDTAB
  0
ENDSEC
  0
SECTION
  2
BLOCKS
  0
BLOCK
  5
20
100
AcDbEntity
  8
0
100
AcDbBlockBegin
  2
*Model_Space
 70
0
 10
0.0
 20
0.0
 30
0.0
  3
*Model_Space
  1

  0
ENDBLK
  5
21
100
AcDbEntity
  8
0
100
AcDbBlockEnd
  0
BLOCK
  5
1C
100
AcDbEntity
  8
0
100
AcDbBlockBegin
  2
*Paper_Space
 70
0
 10
0.0
 20
0.0
 30
0.0
  3
*Paper_Space
  1

  0
ENDBLK
  5
1D
100
AcDbEntity
  8
0
100
AcDbBlockEnd
  0
BLOCK
  5
220
100
AcDbEntity
  8
0
100
AcDbBlockBegin
  2
_FILLED
 70
64
 10
0.0
 20
0.0
  3
_FILLED
  1

  0
SOLID
  5
221
100
AcDbEntity
  8
0
  6
BYBLOCK
 62
0
100
AcDbTrace
 10
0.0
 20
0.0
 11
-1.0
 21
0.3166666667
 12
-1.0
 22
-0.3166666667
 13
-1.0
 23
-0.3166666667
  0
ENDBLK
  5
222
100
AcDbEntity
  8
0
  6
BYBLOCK
 62
0
100
AcDbBlockEnd
  0
BLOCK
  5
223
100
AcDbEntity
  8
0
100
AcDbBlockBegin
 62
7
  6
CONTINUOUS
  2
*D0
 70
65
 10
0.0
 20
0.0
  3
*D0
  1

  0
MTEXT
  5
224
100
AcDbEntity
  8
0
100
AcDbMText
 62
7
  6
CONTINUOUS
  7
STANDARD
 71
2
 72
1
 10
-0.1302152431
 20
33.8995829085
 30
0.0
 11
1.0
 21
0.0
 31
0.0
 44
0.9
  1
44,7
 40
3.0
 41
13.1785714286
  0
LINE
  5
225
100
AcDbEntity
  8
0
100
AcDbLine
 62
7
  6
CONTINUOUS
 10
22.2197847569
 20
13.5381016209
 11
22.2197847569
 21
31.6495829085
  0
LINE
  5
226
100
AcDbEntity
  8
0
100
AcDbLine
 62
7
  6
CONTINUOUS
 10
-22.4802152431
 20
13.5381016209
 11
-22.4802152431
 21
31.6495829085
  0
LINE
  5
227
100
AcDbEntity
  8
0
100
AcDbLine
 62
7
  6
CONTINUOUS
 10
22.2197847569
 20
30.1495829085
 11
-0.1302152431
 21
30.1495829085
  0
LINE
  5
228
100
AcDbEntity
  8
0
100
AcDbLine
 62
7
  6
CONTINUOUS
 10
-22.4802152431
 20
30.1495829085
 11
-0.1302152431
 21
30.1495829085
  0
INSERT
  5
229
100
AcDbEntity
  8
0
100
AcDbBlockReference
 62
7
  6
CONTINUOUS
  2
_FILLED
 10
22.2197847569
 20
30.1495829085
 41
3.0
 42
3.0
 43
3.0
  0
INSERT
  5
22A
100
AcDbEntity
  8
0
100
AcDbBlockReference
 62
7
  6
CONTINUOUS
  2
_FILLED
 10
-22.4802152431
 20
30.1495829085
 41
3.0
 42
3.0
 43
3.0
 50
180.0
  0
ENDBLK
  5
22B
100
AcDbEntity
  8
0
  6
BYBLOCK
 62
0
100
AcDbBlockEnd
  0
BLOCK
  5
22C
100
AcDbEntity
  8
0
100
AcDbBlockBegin
 62
7
  6
CONTINUOUS
  2
*D1
 70
65
 10
0.0
 20
0.0
  3
*D1
  1

  0
MTEXT
  5
22D
100
AcDbEntity
  8
0
100
AcDbMText
 62
7
  6
CONTINUOUS
  7
STANDARD
 71
2
 72
1
 10
26.4697847569
 20
-0.0618983791
 30
0.0
 11
0.0
 21
1.0
 31
0.0
 44
0.9
  1
44,4
 40
3.0
 41
13.1785714286
  0
LINE
  5
22E
100
AcDbEntity
  8
0
100
AcDbLine
 62
7
  6
CONTINUOUS
 10
22.2062510285
 20
22.1495829085
 11
31.7197847569
 21
22.1495829085
  0
LINE
  5
22F
100
AcDbEntity
  8
0
100
AcDbLine
 62
7
  6
CONTINUOUS
 10
22.2062510285
 20
-22.2733796666
 11
31.7197847569
 21
-22.2733796666
  0
LINE
  5
230
100
AcDbEntity
  8
0
100
AcDbLine
 62
7
  6
CONTINUOUS
 10
30.2197847569
 20
22.1495829085
 11
30.2197847569
 21
-0.0618983791
  0
LINE
  5
231
100
AcDbEntity
  8
0
100
AcDbLine
 62
7
  6
CONTINUOUS
 10
30.2197847569
 20
-22.2733796666
 11
30.2197847569
 21
-0.0618983791
  0
INSERT
  5
232
100
AcDbEntity
  8
0
100
AcDbBlockReference
 62
7
  6
CONTINUOUS
  2
_FILLED
 10
30.2197847569
 20
22.1495829085
 41
3.0
 42
3.0
 43
3.0
 50
90.0
  0
INSERT
  5
233
100
AcDbEntity
  8
0
100
AcDbBlockReference
 62
7
  6
CONTINUOUS
  2
_FILLED
 10
30.2197847569
 20
-22.2733796666
 41
3.0
 42
3.0
 43
3.0
 50
270.0
  0
ENDBLK
  5
234
100
AcDbEntity
  8
0
  6
BYBLOCK
 62
0
100
AcDbBlockEnd
  0
BLOCK
  5
235
100
AcDbEntity
  8
0
100
AcDbBlockBegin
 62
7
  6
CONTINUOUS
  2
*D2
 70
65
 10
0.0
 20
0.0
  3
*D2
  1

  0
MTEXT
  5
236
100
AcDbEntity
  8
0
100
AcDbMText
 62
7
  6
CONTINUOUS
  7
STANDARD
 71
1
 72
1
 10
-33.9768012324
 20
33.8995829085
 30
0.0
 11
1.0
 21
0.0
 31
0.0
 44
0.9
  1
6,7
 40
3.0
 41
9.6428571429
  0
LINE
  5
237
100
AcDbEntity
  8
0
100
AcDbLine
 62
7
  6
CONTINUOUS
 10
-40.59505199
 20
13.5381016209
 11
-40.59505199
 21
31.6495829085
  0
LINE
  5
238
100
AcDbEntity
  8
0
100
AcDbLine
 62
7
  6
CONTINUOUS
 10
-47.2949246284
 20
0.7949755219
 11
-47.2949246284
 21
31.6495829085
  0
LINE
  5
239
100
AcDbEntity
  8
0
100
AcDbLine
 62
7
  6
CONTINUOUS
 10
-40.59505199
 20
30.1495829085
 11
-27.5482298038
 21
30.1495829085
  0
LINE
  5
23A
100
AcDbEntity
  8
0
100
AcDbLine
 62
7
  6
CONTINUOUS
 10
-27.5482298038
 20
30.1495829085
 11
-43.9449883092
 21
30.1495829085
  0
LINE
  5
23B
100
AcDbEntity
  8
0
100
AcDbLine
 62
7
  6
CONTINUOUS
 10
-47.2949246284
 20
30.1495829085
 11
-51.2949246284
 21
30.1495829085
  0
LINE
  5
23C
100
AcDbEntity
  8
0
100
AcDbLine
 62
7
  6
CONTINUOUS
 10
-51.2949246284
 20
30.1495829085
 11
-43.9449883092
 21
30.1495829085
  0
INSERT
  5
23D
100
AcDbEntity
  8
0
100
AcDbBlockReference
 62
7
  6
CONTINUOUS
  2
_FILLED
 10
-40.59505199
 20
30.1495829085
 41
3.0
 42
3.0
 43
3.0
 50
180.0
  0
INSERT
  5
23E
100
AcDbEntity
  8
0
100
AcDbBlockReference
 62
7
  6
CONTINUOUS
  2
_FILLED
 10
-47.2949246284
 20
30.1495829085
 41
3.0
 42
3.0
 43
3.0
  0
ENDBLK
  5
23F
100
AcDbEntity
  8
0
  6
BYBLOCK
 62
0
100
AcDbBlockEnd
  0
ENDSEC
  0
SECTION
  2
ENTITIES
  0
DIMENSION
  5
240
100
AcDbEntity
  8
0
100
AcDbDimension
 62
7
  6
CONTINUOUS
  2
*D0
 10
-22.4802152431
 20
30.1495829085
 11
-0.558786737
 21
30.1495829085
 70
160
 71
2
 42
44.7
  3
DIMSTYLE_1
100
AcDbAlignedDimension
 13
22.2197847569
 23
13.0381016209
 14
-22.4802152431
 24
13.0381016209
 50
180.0
100
AcDbRotatedDimension
  0
DIMENSION
  5
241
100
AcDbEntity
  8
0
100
AcDbDimension
 62
7
  6
CONTINUOUS
  2
*D1
 10
30.2197847569
 20
-22.2733796666
 11
30.2197847569
 21
-0.4904697565
 70
160
 71
2
 42
44.4229625751
  3
DIMSTYLE_2
100
AcDbAlignedDimension
 13
21.7062510285
 23
22.1495829085
 14
21.7062510285
 24
-22.2733796666
 50
270.0
100
AcDbRotatedDimension
  0
DIMENSION
  5
242
100
AcDbEntity
  8
0
100
AcDbDimension
 62
7
  6
CONTINUOUS
  2
*D2
 10
-47.2949246284
 20
30.1495829085
 11
-31.1910862885
 21
30.1495829085
 70
160
 71
1
 42
6.6998726384
  3
DIMSTYLE_1
100
AcDbAlignedDimension
 13
-40.59505199
 23
13.0381016209
 14
-47.2949246284
 24
0.2949755219
 50
180.0
100
AcDbRotatedDimension
  0
LWPOLYLINE
  5
243
100
AcDbEntity
  8
ASSI
100
AcDbPolyline
 62
253
  6
CONTINUOUS
 90
15
 70
0
 10
-22.379217529
 20
20.4800074774
 10
-22.3780962676
 20
20.4810718589
 10
-22.3756380046
 20
20.4821333873
 10
-22.3718493293
 20
20.4831892174
 10
-22.3667403968
 20
20.4842365191
 10
-22.3603249013
 20
20.4852724851
 10
-22.352620039
 20
20.4862943386
 10
-22.3436464623
 20
20.4872993407
 10
-22.3334282239
 20
20.4882847974
 10
-22.3219927133
 20
20.4892480675
 10
-22.3093705823
 20
20.4901865688
 10
-22.2955956636
 20
20.4910977858
 10
-22.2807048799
 20
20.4919792761
 10
-22.2647381446
 20
20.4928286769
 10
-22.2477382554
 20
20.4936437114
  0
LWPOLYLINE
  5
244
100
AcDbEntity
  8
ASSI
100
AcDbPolyline
 62
253
  6
CONTINUOUS
 90
17
 70
0
 10
-22.379217529
 20
-20.6038042355
 10
-22.3780962786
 20
-20.6048686174
 10
-22.3756380259
 20
-20.6059301462
 10
-22.37184936
 20
-20.6069859767
 10
-22.3667404361
 20
-20.6080332788
 10
-22.3603249483
 20
-20.6090692453
 10
-22.3526200929
 20
-20.6100910993
 10
-22.3436465222
 20
-20.6110961018
 10
-22.333428289
 20
-20.6120815591
 10
-22.3219927826
 20
-20.6130448296
 10
-22.309370655
 20
-20.6139833314
 10
-22.2955957389
 20
-20.6148945489
 10
-22.2807049568
 20
-20.6157760397
 10
-22.2647382224
 20
-20.616625441
 10
-22.2477383332
 20
-20.617440476
 10
-22.2297508563
 20
-20.6182189601
 10
-22.1910085131
 20
-20.6196580325
  0
LWPOLYLINE
  5
245
100
AcDbEntity
  8
ASSI
100
AcDbPolyline
 62
253
  6
CONTINUOUS
 90
31
 70
0
 10
-22.3957442996
 20
-21.5613088336
 10
-22.395036084
 20
-21.5874257732
 10
-22.3929611441
 20
-21.6134712116
 10
-22.3895251604
 20
-21.6393738433
 10
-22.3847375398
 20
-21.6650627534
 10
-22.3786113895
 20
-21.6904676122
 10
-22.3711634812
 20
-21.7155188679
 10
-22.3624142053
 20
-21.7401479364
 10
-22.352387515
 20
-21.7642873896
 10
-22.3411108608
 20
-21.78787114
 10
-22.3286151152
 20
-21.8108346211
 10
-22.3149344883
 20
-21.8331149648
 10
-22.3001064341
 20
-21.8546511732
 10
-22.284171548
 20
-21.8753842856
 10
-22.2671734555
 20
-21.89525754
 10
-22.249158693
 20
-21.9142165285
 10
-22.2301765805
 20
-21.9322093461
 10
-22.2102790858
 20
-21.949186733
 10
-22.1895206835
 20
-21.9651022095
 10
-22.1679582045
 20
-21.9799122029
 10
-22.1456506815
 20
-21.9935761672
 10
-22.1226591867
 20
-22.0060566939
 10
-22.0990466651
 20
-22.0173196145
 10
-22.0748777616
 20
-22.0273340939
 10
-22.0502186447
 20
-22.0360727149
 10
-22.0251368247
 20
-22.0435115535
 10
-21.9997009691
 20
-22.0496302438
 10
-21.9739807151
 20
-22.0544120346
 10
-21.9480464782
 20
-22.0578438344
 10
-21.9219692595
 20
-22.0599162478
 10
-21.895820452
 20
-22.060623601
  0
LWPOLYLINE
  5
246
100
AcDbEntity
  8
ASSI
100
AcDbPolyline
 62
253
  6
CONTINUOUS
 90
31
 70
0
 10
-22.3957442996
 20
21.4375120755
 10
-22.3950360837
 20
21.4636290208
 10
-22.3929611429
 20
21.4896744645
 10
-22.3895251579
 20
21.515577101
 10
-22.3847375356
 20
21.5412660153
 10
-22.3786113831
 20
21.5666708779
 10
-22.3711634724
 20
21.5917221366
 10
-22.362414194
 20
21.6163512076
 10
-22.3523875011
 20
21.6404906627
 10
-22.3411108442
 20
21.6640744143
 10
-22.328615096
 20
21.6870378962
 10
-22.3149344667
 20
21.70931824
 10
-22.3001064102
 20
21.730854448
 10
-22.284171522
 20
21.7515875595
 10
-22.2671734278
 20
21.7714608126
 10
-22.2491586641
 20
21.7904197994
 10
-22.2301765505
 20
21.8084126149
 10
-22.2102790554
 20
21.8253899996
 10
-22.189520653
 20
21.8413054735
 10
-22.1679581744
 20
21.8561154643
 10
-22.1456506523
 20
21.8697794259
 10
-22.1226591589
 20
21.88225995
 10
-22.099046639
 20
21.893522868
 10
-22.0748777378
 20
21.9035373449
 10
-22.0502186235
 20
21.9122759637
 10
-22.0251368064
 20
21.9197148003
 10
-21.9997009542
 20
21.9258334889
 10
-21.9739807037
 20
21.9306152783
 10
-21.9480464704
 20
21.9340470771
 10
-21.9219692556
 20
21.9361194899
 10
-21.895820452
 20
21.9368268429
  0
LINE
  5
247
100
AcDbEntity
  8
ASSI
100
AcDbLine
 62
7
  6
CONTINUOUS
 10
14.5139948826
 20
-22.2733796666
 11
14.8620497299
 21
-22.2417857061
  0
LINE
  5
248
100
AcDbEntity
  8
ASSI
100
AcDbLine
 62
7
  6
CONTINUOUS
 10
-14.7744253689
 20
-22.2733796666
 11
-15.1224802162
 21
-22.2417857061
  0
LWPOLYLINE
  5
249
100
AcDbEntity
  8
ASSI
100
AcDbPolyline
 62
253
  6
CONTINUOUS
 90
10
 70
0
 10
-22.3903633887
 20
21.3715999531
 10
-22.3909396407
 20
21.3836983993
 10
-22.3915236776
 20
21.3946438506
 10
-22.3921133255
 20
21.4043956256
 10
-22.3927086152
 20
21.4129492613
 10
-22.3933095157
 20
21.4203092207
 10
-22.3939137611
 20
21.4264482111
 10
-22.3945205958
 20
21.431357135
 10
-22.3951307753
 20
21.4350450898
 10
-22.3957442996
 20
21.4375120755
  0
LWPOLYLINE
  5
24A
100
AcDbEntity
  8
ASSI
100
AcDbPolyline
 62
253
  6
CONTINUOUS
 90
8
 70
0
 10
-21.8915996912
 20
21.8725172124
 10
-21.8921893288
 20
21.8871481324
 10
-21.8927845804
 20
21.8999870124
 10
-21.8933854367
 20
21.911018144
 10
-21.8939896868
 20
21.9202279776
 10
-21.8945965935
 20
21.9276051638
 10
-21.895206894
 20
21.9331405952
 10
-21.8958205882
 20
21.9368274588
  0
LINE
  5
24B
100
AcDbEntity
  8
ASSI
100
AcDbLine
 62
253
  6
CONTINUOUS
 10
-22.3892343066
 20
21.343935642
 11
-22.3903633887
 21
21.3715999531
  0
LWPOLYLINE
  5
24C
100
AcDbEntity
  8
ASSI
100
AcDbPolyline
 62
253
  6
CONTINUOUS
 90
25
 70
0
 10
-22.3718437157
 20
0.2922604127
 10
-22.3714136559
 20
0.2791815352
 10
-22.370129301
 20
0.2661586535
 10
-22.3679961499
 20
0.2532475229
 10
-22.3650233356
 20
0.2405034202
 10
-22.3612235857
 20
0.2279809071
 10
-22.3566131687
 20
0.215733597
 10
-22.3512118233
 20
0.2038139246
 10
-22.3450426748
 20
0.1922729219
 10
-22.3381321358
 20
0.1811599999
 10
-22.3305097928
 20
0.1705227365
 10
-22.3222082797
 20
0.1604066731
 10
-22.3132631386
 20
0.1508551199
 10
-22.3037126667
 20
0.1419089701
 10
-22.2935977529
 20
0.1336065246
 10
-22.2829617029
 20
0.1259833288
 10
-22.2718500532
 20
0.1190720197
 10
-22.2603103767
 20
0.1129021865
 10
-22.2483920786
 20
0.1075002439
 10
-22.2361461852
 20
0.102889319
 10
-22.2236251252
 20
0.0990891521
 10
-22.2108825052
 20
0.0961160126
 10
-22.1979728806
 20
0.093982629
 10
-22.1849515216
 20
0.0926981345
 10
-22.1718741767
 20
0.0922680281
  0
LINE
  5
24D
100
AcDbEntity
  8
ASSI
100
AcDbLine
 62
253
  6
CONTINUOUS
 10
-22.38814262
 20
21.3118152735
 11
-22.3892343066
 21
21.343935642
  0
LINE
  5
24E
100
AcDbEntity
  8
ASSI
100
AcDbLine
 62
253
  6
CONTINUOUS
 10
-21.8904394137
 20
21.8379542318
 11
-21.8915996912
 21
21.8725172124
  0
LINE
  5
24F
100
AcDbEntity
  8
ASSI
100
AcDbLine
 62
253
  6
CONTINUOUS
 10
-21.889310365
 20
21.7964704466
 11
-21.8904394137
 21
21.8379542318
  0
LINE
  5
250
100
AcDbEntity
  8
ASSI
100
AcDbLine
 62
253
  6
CONTINUOUS
 10
-22.3865850208
 20
21.2555739161
 11
-22.38814262
 21
21.3118152735
  0
LINE
  5
251
100
AcDbEntity
  8
ASSI
100
AcDbLine
 62
253
  6
CONTINUOUS
 10
-22.3851394916
 20
21.1902461125
 11
-22.3865850208
 21
21.2555739161
  0
LINE
  5
252
100
AcDbEntity
  8
ASSI
100
AcDbLine
 62
253
  6
CONTINUOUS
 10
-21.8876876858
 20
21.7217255114
 11
-21.889310365
 21
21.7964704466
  0
LINE
  5
253
100
AcDbEntity
  8
ASSI
100
AcDbLine
 62
253
  6
CONTINUOUS
 10
-22.3834137442
 20
21.09025746
 11
-22.3851394916
 21
21.1902461125
  0
LINE
  5
254
100
AcDbEntity
  8
ASSI
100
AcDbLine
 62
253
  6
CONTINUOUS
 10
-21.8856837989
 20
21.6000312564
 11
-21.8876876858
 21
21.7217255114
  0
LINE
  5
255
100
AcDbEntity
  8
ASSI
100
AcDbLine
 62
253
  6
CONTINUOUS
 10
-22.3816289323
 20
20.9474748425
 11
-22.3834137442
 21
21.09025746
  0
LINE
  5
256
100
AcDbEntity
  8
ASSI
100
AcDbLine
 62
253
  6
CONTINUOUS
 10
-21.8830984295
 20
21.3753417233
 11
-21.8856837989
 21
21.6000312564
  0
LINE
  5
257
100
AcDbEntity
  8
ASSI
100
AcDbLine
 62
253
  6
CONTINUOUS
 10
-22.3801027069
 20
20.7558251674
 11
-22.3816289323
 21
20.9474748425
  0
LINE
  5
258
100
AcDbEntity
  8
ASSI
100
AcDbLine
 62
253
  6
CONTINUOUS
 10
-21.8806085566
 20
21.0131192644
 11
-21.8830984295
 21
21.3753417233
  0
LINE
  5
259
100
AcDbEntity
  8
ASSI
100
AcDbLine
 62
7
  6
CONTINUOUS
 10
-22.4802152431
 20
-13.1618983791
 11
-22.4670613381
 21
-21.7754339388
  0
LINE
  5
25A
100
AcDbEntity
  8
ASSI
100
AcDbLine
 62
253
  6
CONTINUOUS
 10
-22.3792536917
 20
20.5151758833
 11
-22.3801027069
 21
20.7558251674
  0
LINE
  5
25B
100
AcDbEntity
  8
ASSI
100
AcDbLine
 62
253
  6
CONTINUOUS
 10
-21.8770756298
 20
17.134250383
 11
-21.8806085566
 21
21.0131192644
  0
LINE
  5
25C
100
AcDbEntity
  8
ASSI
100
AcDbLine
 62
7
  6
CONTINUOUS
 10
-22.4802152431
 20
-0.3618755338
 11
-22.4802152431
 21
-13.1618983791
  0
LINE
  5
25D
100
AcDbEntity
  8
ASSI
100
AcDbLine
 62
7
  6
CONTINUOUS
 10
-22.4802152431
 20
0.2380787757
 11
-22.4802152431
 21
13.0381016209
  0
LINE
  5
25E
100
AcDbEntity
  8
ASSI
100
AcDbLine
 62
253
  6
CONTINUOUS
 10
-22.3718437157
 20
0.2922604127
 11
-22.3792536917
 21
20.5151758833
  0
LINE
  5
25F
100
AcDbEntity
  8
ASSI
100
AcDbLine
 62
253
  6
CONTINUOUS
 10
-21.8719198974
 20
0.0948403816
 11
-21.8770756298
 21
17.134250383
  0
LINE
  5
260
100
AcDbEntity
  8
ASSI
100
AcDbLine
 62
7
  6
CONTINUOUS
 10
-22.4802152431
 20
13.0381016209
 11
-22.4670613381
 21
21.6516371807
  0
LINE
  5
261
100
AcDbEntity
  8
ASSI
100
AcDbLine
 62
253
  6
CONTINUOUS
 10
-22.3797546882
 20
-20.8121579911
 11
-22.3718437157
 21
-0.4160571708
  0
LINE
  5
262
100
AcDbEntity
  8
ASSI
100
AcDbLine
 62
253
  6
CONTINUOUS
 10
-21.8806085566
 20
-21.1369160228
 11
-21.8719198974
 21
-0.2186371397
  0
LINE
  5
263
100
AcDbEntity
  8
ASSI
100
AcDbLine
 62
253
  6
CONTINUOUS
 10
-22.3813257892
 20
-21.0406523481
 11
-22.3797546882
 21
-20.8121579911
  0
LINE
  5
264
100
AcDbEntity
  8
ASSI
100
AcDbLine
 62
253
  6
CONTINUOUS
 10
-21.8830984295
 20
-21.4991384817
 11
-21.8806085566
 21
-21.1369160228
  0
LINE
  5
265
100
AcDbEntity
  8
ASSI
100
AcDbLine
 62
253
  6
CONTINUOUS
 10
-22.38302221
 20
-21.1869801659
 11
-22.3813257892
 21
-21.0406523481
  0
LINE
  5
266
100
AcDbEntity
  8
ASSI
100
AcDbLine
 62
253
  6
CONTINUOUS
 10
-21.885683799
 20
-21.7238280147
 11
-21.8830984295
 21
-21.4991384817
  0
LINE
  5
267
100
AcDbEntity
  8
ASSI
100
AcDbLine
 62
253
  6
CONTINUOUS
 10
-22.3846850087
 20
-21.2903509203
 11
-22.38302221
 21
-21.1869801659
  0
LINE
  5
268
100
AcDbEntity
  8
ASSI
100
AcDbLine
 62
253
  6
CONTINUOUS
 10
-21.8876876858
 20
-21.8455222697
 11
-21.885683799
 21
-21.7238280147
  0
LINE
  5
269
100
AcDbEntity
  8
ASSI
100
AcDbLine
 62
253
  6
CONTINUOUS
 10
-22.3860894977
 20
-21.3585527478
 11
-22.3846850087
 21
-21.2903509203
  0
LINE
  5
26A
100
AcDbEntity
  8
ASSI
100
AcDbLine
 62
253
  6
CONTINUOUS
 10
-21.889310365
 20
-21.9202672049
 11
-21.8876876858
 21
-21.8455222697
  0
LINE
  5
26B
100
AcDbEntity
  8
ASSI
100
AcDbLine
 62
253
  6
CONTINUOUS
 10
-22.387611582
 20
-21.4179003163
 11
-22.3860894977
 21
-21.3585527478
  0
LINE
  5
26C
100
AcDbEntity
  8
ASSI
100
AcDbLine
 62
253
  6
CONTINUOUS
 10
-21.8904394137
 20
-21.9617509901
 11
-21.889310365
 21
-21.9202672049
  0
LINE
  5
26D
100
AcDbEntity
  8
ASSI
100
AcDbLine
 62
253
  6
CONTINUOUS
 10
-22.3886835163
 20
-21.4522240849
 11
-22.387611582
 21
-21.4179003163
  0
LWPOLYLINE
  5
26E
100
AcDbEntity
  8
ASSI
100
AcDbPolyline
 62
253
  6
CONTINUOUS
 90
25
 70
0
 10
-22.3718437157
 20
-0.4160571708
 10
-22.3714136569
 20
-0.4029783092
 10
-22.370129305
 20
-0.3899554425
 10
-22.3679961588
 20
-0.3770443258
 10
-22.365023351
 20
-0.3643002356
 10
-22.361223609
 20
-0.3517777337
 10
-22.3566132009
 20
-0.3395304328
 10
-22.3512118652
 20
-0.3276107676
 10
-22.3450427269
 20
-0.3160697701
 10
-22.338132198
 20
-0.304956851
 10
-22.3305098647
 20
-0.2943195883
 10
-22.3222083607
 20
-0.2842035236
 10
-22.3132632275
 20
-0.274651967
 10
-22.303712762
 20
-0.2657058118
 10
-22.2935978528
 20
-0.2574033594
 10
-22.2829618053
 20
-0.2497801553
 10
-22.2718501556
 20
-0.2428688369
 10
-22.2603104764
 20
-0.2366989938
 10
-22.2483921729
 20
-0.231297041
 10
-22.236146271
 20
-0.2266861062
 10
-22.2236251995
 20
-0.2228859301
 10
-22.2108825652
 20
-0.2199127826
 10
-22.1979729233
 20
-0.2177793927
 10
-22.1849515442
 20
-0.2164948941
 10
-22.1718741767
 20
-0.2160647862
  0
LINE
  5
26F
100
AcDbEntity
  8
ASSI
100
AcDbLine
 62
7
  6
CONTINUOUS
 10
3.3139948826
 20
-22.2733796666
 11
3.6620497299
 21
-22.2417857061
  0
LINE
  5
270
100
AcDbEntity
  8
ASSI
100
AcDbLine
 62
7
  6
CONTINUOUS
 10
-7.9860051174
 20
-22.2733796666
 11
-7.6379502701
 21
-22.2417857061
  0
LINE
  5
271
100
AcDbEntity
  8
ASSI
100
AcDbLine
 62
253
  6
CONTINUOUS
 10
21.9873077691
 20
-20.6174404695
 11
21.9503934436
 21
-20.6189587992
  0
LINE
  5
272
100
AcDbEntity
  8
ASSI
100
AcDbLine
 62
253
  6
CONTINUOUS
 10
21.9503934436
 20
-20.6189587992
 11
21.9099269359
 21
-20.6203147552
  0
LINE
  5
273
100
AcDbEntity
  8
ASSI
100
AcDbLine
 62
253
  6
CONTINUOUS
 10
21.9099269359
 20
-20.6203147552
 11
21.8663418244
 21
-20.621493809
  0
LINE
  5
274
100
AcDbEntity
  8
ASSI
100
AcDbLine
 62
253
  6
CONTINUOUS
 10
21.8663418244
 20
-20.621493809
 11
21.8201051021
 21
-20.6224833277
  0
LINE
  5
275
100
AcDbEntity
  8
ASSI
100
AcDbLine
 62
253
  6
CONTINUOUS
 10
21.8201051021
 20
-20.6224833277
 11
21.7717121726
 21
-20.623272709
  0
LWPOLYLINE
  5
276
100
AcDbEntity
  8
ASSI
100
AcDbPolyline
 62
253
  6
CONTINUOUS
 90
3
 70
0
 10
21.7717121726
 20
-20.623272709
 10
21.721681542
 20
-20.6238534953
 10
21.6962190761
 20
-20.6240636313
  0
LINE
  5
277
100
AcDbEntity
  8
ASSI
100
AcDbLine
 62
7
  6
CONTINUOUS
 10
-21.9666815148
 20
-22.2733796666
 11
-19.1860051174
 21
-22.2733796666
  0
LINE
  5
278
100
AcDbEntity
  8
ASSI
100
AcDbLine
 62
7
  6
CONTINUOUS
 10
-14.7744253689
 20
-22.2733796666
 11
-7.9860051174
 21
-22.2733796666
  0
LINE
  5
279
100
AcDbEntity
  8
ASSI
100
AcDbLine
 62
7
  6
CONTINUOUS
 10
-3.5744253689
 20
-22.2733796666
 11
3.3139948826
 21
-22.2733796666
  0
LINE
  5
27A
100
AcDbEntity
  8
ASSI
100
AcDbLine
 62
7
  6
CONTINUOUS
 10
7.7255746311
 20
-22.2733796666
 11
14.5139948826
 21
-22.2733796666
  0
LINE
  5
27B
100
AcDbEntity
  8
ASSI
100
AcDbLine
 62
7
  6
CONTINUOUS
 10
18.9255746311
 20
-22.2733796666
 11
21.7062510285
 21
-22.2733796666
  0
LINE
  5
27C
100
AcDbEntity
  8
ASSI
100
AcDbLine
 62
7
  6
CONTINUOUS
 10
-18.6647451893
 20
-22.2365449281
 11
-15.295685297
 21
-22.2365449281
  0
LINE
  5
27D
100
AcDbEntity
  8
ASSI
100
AcDbLine
 62
7
  6
CONTINUOUS
 10
-7.4647451893
 20
-22.2365449281
 11
-4.095685297
 21
-22.2365449281
  0
LINE
  5
27E
100
AcDbEntity
  8
ASSI
100
AcDbLine
 62
7
  6
CONTINUOUS
 10
3.8352548107
 20
-22.2365449281
 11
7.204314703
 21
-22.2365449281
  0
LINE
  5
27F
100
AcDbEntity
  8
ASSI
100
AcDbLine
 62
7
  6
CONTINUOUS
 10
15.0352548107
 20
-22.2365449281
 11
18.404314703
 21
-22.2365449281
  0
LINE
  5
280
100
AcDbEntity
  8
ASSI
100
AcDbLine
 62
253
  6
CONTINUOUS
 10
21.6353901709
 20
-22.060624217
 11
-21.8958206572
 21
-22.060624217
  0
LINE
  5
281
100
AcDbEntity
  8
ASSI
100
AcDbLine
 62
253
  6
CONTINUOUS
 10
-22.0072989328
 20
-20.6235896293
 11
-21.956649584
 21
-20.6240636422
  0
LINE
  5
282
100
AcDbEntity
  8
ASSI
100
AcDbLine
 62
253
  6
CONTINUOUS
 10
-22.0565767679
 20
-20.6229036256
 11
-22.0072989328
 21
-20.6235896293
  0
LINE
  5
283
100
AcDbEntity
  8
ASSI
100
AcDbLine
 62
253
  6
CONTINUOUS
 10
-22.1039551016
 20
-20.6220129813
 11
-22.0565767679
 21
-20.6229036256
  0
LINE
  5
284
100
AcDbEntity
  8
ASSI
100
AcDbLine
 62
253
  6
CONTINUOUS
 10
-22.1489262981
 20
-20.6209272392
 11
-22.1039551016
 21
-20.6220129813
  0
LINE
  5
285
100
AcDbEntity
  8
ASSI
100
AcDbLine
 62
253
  6
CONTINUOUS
 10
-22.1910085131
 20
-20.6196580325
 11
-22.1489262981
 21
-20.6209272392
  0
LINE
  5
286
100
AcDbEntity
  8
ASSI
100
AcDbLine
 62
7
  6
CONTINUOUS
 10
-3.5744253689
 20
-22.2733796666
 11
-3.9224802162
 21
-22.2417857061
  0
LINE
  5
287
100
AcDbEntity
  8
ASSI
100
AcDbLine
 62
7
  6
CONTINUOUS
 10
7.7255746311
 20
-22.2733796666
 11
7.3775197838
 21
-22.2417857061
  0
LINE
  5
288
100
AcDbEntity
  8
ASSI
100
AcDbLine
 62
7
  6
CONTINUOUS
 10
-19.1860051174
 20
-22.2733796666
 11
-18.8379502701
 21
-22.2417857061
  0
LINE
  5
289
100
AcDbEntity
  8
ASSI
100
AcDbLine
 62
253
  6
CONTINUOUS
 10
21.6962190761
 20
-20.6240636313
 11
21.6188631951
 21
-20.6243666925
  0
LWPOLYLINE
  5
28A
100
AcDbEntity
  8
ASSI
100
AcDbPolyline
 62
253
  6
CONTINUOUS
 90
3
 70
0
 10
-21.956649584
 20
-20.6240636422
 10
-21.9309797647
 20
-20.6242194746
 10
21.6188631802
 20
-20.6243530147
  0
LINE
  5
28B
100
AcDbEntity
  8
ASSI
100
AcDbLine
 62
7
  6
CONTINUOUS
 10
18.9255746311
 20
-22.2733796666
 11
18.5775197838
 21
-22.2417857061
  0
LWPOLYLINE
  5
28C
100
AcDbEntity
  8
ASSI
100
AcDbPolyline
 62
253
  6
CONTINUOUS
 90
9
 70
0
 10
-21.8958205882
 20
-22.0606242169
 10
-21.895206894
 20
-22.0569373533
 10
-21.8945965935
 20
-22.0514019219
 10
-21.8939896868
 20
-22.0440247357
 10
-21.8933854367
 20
-22.0348149022
 10
-21.8927845804
 20
-22.0237837706
 10
-21.8921893288
 20
-22.0109448906
 10
-21.8915996912
 20
-21.9963139706
 10
-21.8904394137
 20
-21.9617509901
  0
LWPOLYLINE
  5
28D
100
AcDbEntity
  8
CURVE
100
AcDbPolyline
 62
253
  6
CONTINUOUS
 90
84
 70
0
 10
-9.5276013737
 20
14.5490390936
 10
-9.5241785498
 20
14.5526048006
 10
-9.5209544643
 20
14.5562335723
 10
-9.5179134409
 20
14.5599335501
 10
-9.5150398035
 20
14.5637128753
 10
-9.5123178756
 20
14.5675796892
 10
-9.509731981
 20
14.571542133
 10
-9.506792133
 20
14.57643231
 10
-9.5040329133
 20
14.581471286
 10
-9.5014616362
 20
14.5866584292
 10
-9.499085616
 20
14.591993108
 10
-9.4969121669
 20
14.5974746907
 10
-9.4952615409
 20
14.6021525141
 10
-9.4937642781
 20
14.6069200014
 10
-9.4924279881
 20
14.6117652386
 10
-9.4912602803
 20
14.6166763114
 10
-9.4902687644
 20
14.621641306
 10
-9.4894610497
 20
14.6266483081
 10
-9.4888437852
 20
14.6316862923
 10
-9.4884197775
 20
14.6367477868
 10
-9.4881908723
 20
14.6418262085
 10
-9.4881589157
 20
14.6469149741
 10
-9.4883257534
 20
14.6520075006
 10
-9.4886932315
 20
14.6570972046
 10
-9.489262371
 20
14.6621773007
 10
-9.4900308941
 20
14.667240194
 10
-9.4909956981
 20
14.6722780873
 10
-9.4921536802
 20
14.6772831835
 10
-9.4935017379
 20
14.6822476852
 10
-9.4950367686
 20
14.6871637954
 10
-9.4967560527
 20
14.6920240787
 10
-9.498658404
 20
14.6968225477
 10
-9.5007430197
 20
14.7015535769
 10
-9.5030090967
 20
14.7062115407
 10
-9.505455832
 20
14.7107908136
 10
-9.5080824228
 20
14.7152857701
 10
-9.5108875169
 20
14.7196899674
 10
-9.5138675658
 20
14.723993694
 10
-9.5170184719
 20
14.7281864208
 10
-9.5203361376
 20
14.732257619
 10
-9.5238164654
 20
14.7361967597
 10
-9.5274553575
 20
14.7399933141
 10
-9.5312477099
 20
14.7436378141
 10
-9.5351843921
 20
14.7471250352
 10
-9.5392552669
 20
14.750450814
 10
-9.5434501972
 20
14.7536109869
 10
-9.5477590461
 20
14.7566013902
 10
-9.5521716765
 20
14.7594178605
 10
-9.5566786049
 20
14.7620567158
 10
-9.5612729628
 20
14.7645162011
 10
-9.5659485352
 20
14.766795043
 10
-9.5706991072
 20
14.768891968
 10
-9.5755184638
 20
14.7708057028
 10
-9.5804003902
 20
14.7725349741
 10
-9.5853386729
 20
14.7740781229
 10
-9.590327105
 20
14.7754319493
 10
-9.5953594811
 20
14.7765928678
 10
-9.600429596
 20
14.7775572929
 10
-9.605531244
 20
14.7783216392
 10
-9.61065822
 20
14.7788823211
 10
-9.6158038118
 20
14.7792366062
 10
-9.62095928
 20
14.7793851739
 10
-9.6261153788
 20
14.7793295564
 10
-9.6312628621
 20
14.7790712862
 10
-9.6363924839
 20
14.7786118956
 10
-9.6414949982
 20
14.7779529168
 10
-9.6465603068
 20
14.7770973151
 10
-9.6515749028
 20
14.7760537868
 10
-9.6565244272
 20
14.774832461
 10
-9.6613945208
 20
14.7734434669
 10
-9.6661708246
 20
14.7718969337
 10
-9.6708389794
 20
14.7702029904
 10
-9.6753873738
 20
14.7683708885
 10
-9.6798153854
 20
14.7664063679
 10
-9.6841251398
 20
14.7643142906
 10
-9.6883187622
 20
14.7620995188
 10
-9.692398378
 20
14.7597669144
 10
-9.6963661125
 20
14.7573213396
 10
-9.7002253186
 20
14.7547642932
 10
-9.70398426
 20
14.7520838207
 10
-9.7076524279
 20
14.7492646045
 10
-9.7112393134
 20
14.7462913268
 10
-9.7147544078
 20
14.7431486698
 10
-9.7182072022
 20
14.7398213158
  0
LWPOLYLINE
  5
28E
100
AcDbEntity
  8
CURVE
100
AcDbPolyline
 62
253
  6
CONTINUOUS
 90
84
 70
0
 10
-12.2967657475
 20
11.7801921499
 10
-12.2933548339
 20
11.7837404633
 10
-12.2901416726
 20
11.787351105
 10
-12.2871104743
 20
11.791032494
 10
-12.28424545
 20
11.7947930493
 10
-12.2815308102
 20
11.7986411899
 10
-12.2789507658
 20
11.8025853347
 10
-12.2760159623
 20
11.8074543708
 10
-12.2732598467
 20
11.8124732215
 10
-12.2706900262
 20
11.8176413319
 10
-12.2683141079
 20
11.8229581474
 10
-12.266139699
 20
11.8284231131
 10
-12.2644876794
 20
11.833088083
 10
-12.2629886949
 20
11.8378435985
 10
-12.261650561
 20
11.8426777086
 10
-12.260481093
 20
11.847578462
 10
-12.2594881063
 20
11.8525339075
 10
-12.2586794164
 20
11.8575320941
 10
-12.2580618779
 20
11.8625619935
 10
-12.2576385031
 20
11.8676162698
 10
-12.2574113435
 20
11.87268851
 10
-12.2573824509
 20
11.8777723012
 10
-12.2575538768
 20
11.8828612305
 10
-12.2579276727
 20
11.8879488849
 10
-12.2585050153
 20
11.8930285776
 10
-12.2592835809
 20
11.8980925256
 10
-12.2602601707
 20
11.9031326724
 10
-12.261431586
 20
11.9081409612
 10
-12.262794628
 20
11.9131093352
 10
-12.2643460981
 20
11.9180297377
 10
-12.266083174
 20
11.9228945145
 10
-12.2680045397
 20
11.9276976212
 10
-12.2701092556
 20
11.932433416
 10
-12.2723963823
 20
11.9370962572
 10
-12.2748649803
 20
11.941680503
 10
-12.27751411
 20
11.9461805115
 10
-12.2803422685
 20
11.9505898122
 10
-12.2833456988
 20
11.9548986191
 10
-12.2865200806
 20
11.9590963177
 10
-12.2898610935
 20
11.9631722932
 10
-12.2933644171
 20
11.9671159309
 10
-12.297025731
 20
11.9709166163
 10
-12.3008397204
 20
11.9745647895
 10
-12.3047970918
 20
11.9780551105
 10
-12.3088875575
 20
11.9813832944
 10
-12.3131008295
 20
11.9845450559
 10
-12.3174266201
 20
11.9875361101
 10
-12.3218546412
 20
11.9903521719
 10
-12.3263753021
 20
11.9929894662
 10
-12.3309817997
 20
11.9954462586
 10
-12.3356680281
 20
11.9977213245
 10
-12.3404278811
 20
11.9998134395
 10
-12.3452552528
 20
12.0017213791
 10
-12.350144037
 20
12.0034439189
 10
-12.3550880432
 20
12.0049794705
 10
-12.3600807416
 20
12.0063249909
 10
-12.365115518
 20
12.007477073
 10
-12.3701857579
 20
12.00843231
 10
-12.3752848471
 20
12.0091872949
 10
-12.3804061711
 20
12.0097386207
 10
-12.3855427509
 20
12.0100837541
 10
-12.3906861484
 20
12.0102236552
 10
-12.3958275605
 20
12.0101601578
 10
-12.4009581844
 20
12.0098950956
 10
-12.406069217
 20
12.0094303024
 10
-12.4111518556
 20
12.0087676118
 10
-12.4161964002
 20
12.0079101854
 10
-12.4211895642
 20
12.0068664956
 10
-12.426117164
 20
12.0056463428
 10
-12.4309650158
 20
12.0042595271
 10
-12.4357189363
 20
12.0027158488
 10
-12.4403647417
 20
12.0010251081
 10
-12.4448909245
 20
11.9991962681
 10
-12.4492966814
 20
11.9972349428
 10
-12.4535838852
 20
11.9951459091
 10
-12.4577544085
 20
11.9929339437
 10
-12.4618101241
 20
11.9906038235
 10
-12.4657529047
 20
11.9881603253
 10
-12.4695858454
 20
11.9856048508
 10
-12.4733169307
 20
11.9829253011
 10
-12.4769553673
 20
11.9801062024
 10
-12.4805103622
 20
11.9771320806
 10
-12.4839911221
 20
11.9739874618
 10
-12.4874068538
 20
11.970656872
  0
LWPOLYLINE
  5
28F
100
AcDbEntity
  8
CURVE
100
AcDbPolyline
 62
253
  6
CONTINUOUS
 90
68
 70
0
 10
-13.1624823921
 20
11.2960752055
 10
-13.1654312134
 20
11.2930159517
 10
-13.1682405776
 20
11.2898982692
 10
-13.1709206426
 20
11.2867160271
 10
-13.1734815661
 20
11.2834630945
 10
-13.1759335058
 20
11.2801333402
 10
-13.1782866194
 20
11.2767206334
 10
-13.1809904407
 20
11.2725088165
 10
-13.1835615312
 20
11.2681674916
 10
-13.1859948425
 20
11.2636954311
 10
-13.1882853262
 20
11.2590914075
 10
-13.1904279338
 20
11.254354193
 10
-13.1924167745
 20
11.2494854026
 10
-13.1942425876
 20
11.2444980212
 10
-13.1958952702
 20
11.2394078762
 10
-13.1973647191
 20
11.234230795
 10
-13.1986408313
 20
11.228982605
 10
-13.1995497199
 20
11.2245655451
 10
-13.2003141146
 20
11.220115248
 10
-13.2009307987
 20
11.2156368664
 10
-13.2013965561
 20
11.2111355531
 10
-13.2017081701
 20
11.2066164607
 10
-13.2018624243
 20
11.202084742
 10
-13.2018568386
 20
11.1975456346
 10
-13.2016918771
 20
11.1930047162
 10
-13.2013687401
 20
11.1884676492
 10
-13.2008886281
 20
11.1839400962
 10
-13.2002527414
 20
11.1794277198
 10
-13.1994622804
 20
11.1749361825
 10
-13.1985183868
 20
11.170470822
 10
-13.1974219678
 20
11.1660356767
 10
-13.1961738719
 20
11.1616344601
 10
-13.1947749479
 20
11.1572708856
 10
-13.1932260442
 20
11.1529486668
 10
-13.1915280094
 20
11.1486715171
 10
-13.1896819884
 20
11.1444438315
 10
-13.1876903111
 20
11.1402727301
 10
-13.1855556037
 20
11.1361660147
 10
-13.1832804925
 20
11.1321314868
 10
-13.1808676036
 20
11.128176948
 10
-13.1783195632
 20
11.1243101999
 10
-13.1756394656
 20
11.1205387032
 10
-13.1728322765
 20
11.1168685543
 10
-13.1699034297
 20
11.1133055086
 10
-13.1668583589
 20
11.1098553217
 10
-13.163702498
 20
11.106523749
 10
-13.1604412807
 20
11.103316546
 10
-13.157080125
 20
11.1002384586
 10
-13.1536243871
 20
11.0972901954
 10
-13.150079407
 20
11.0944714551
 10
-13.1464505251
 20
11.0917819368
 10
-13.1427430817
 20
11.0892213394
 10
-13.138962417
 20
11.0867893619
 10
-13.1343382285
 20
11.0840410684
 10
-13.1296359713
 20
11.0814813842
 10
-13.1248753252
 20
11.0791141399
 10
-13.1200759703
 20
11.0769431656
 10
-13.1152575863
 20
11.0749722918
 10
-13.1104369468
 20
11.0732037521
 10
-13.1056192003
 20
11.0716333939
 10
-13.1008065891
 20
11.0702554678
 10
-13.0960013553
 20
11.0690642245
 10
-13.091205741
 20
11.0680539146
 10
-13.0864182686
 20
11.0672203583
 10
-13.0816225806
 20
11.0665656533
 10
-13.0767985998
 20
11.0660934666
 10
-13.0719262487
 20
11.0658074654
 10
-13.0669854501
 20
11.0657113167
  0
LWPOLYLINE
  5
290
100
AcDbEntity
  8
CURVE
100
AcDbPolyline
 62
253
  6
CONTINUOUS
 90
68
 70
0
 10
-10.3930005183
 20
14.0652396493
 10
-10.3959594798
 20
14.062169542
 10
-10.3987781217
 20
14.0590405766
 10
-10.4014665558
 20
14.0558467635
 10
-10.4040348939
 20
14.0525821128
 10
-10.4064932479
 20
14.0492406346
 10
-10.4088517296
 20
14.0458163392
 10
-10.4115605834
 20
14.0415909604
 10
-10.4141352727
 20
14.0372365179
 10
-10.4165708884
 20
14.0327518304
 10
-10.4188625209
 20
14.0281357163
 10
-10.421005261
 20
14.0233869942
 10
-10.4229933606
 20
14.0185073129
 10
-10.4248177177
 20
14.0135096416
 10
-10.4264683915
 20
14.0084097796
 10
-10.4279354412
 20
14.0032235266
 10
-10.4292089261
 20
13.9979666818
 10
-10.4301155768
 20
13.9935427912
 10
-10.4308778339
 20
13.9890860282
 10
-10.431492627
 20
13.9846015708
 10
-10.4319568858
 20
13.9800945968
 10
-10.4322675399
 20
13.975570284
 10
-10.4324215191
 20
13.9710338104
 10
-10.4324164656
 20
13.9664904326
 10
-10.4322528725
 20
13.9619457224
 10
-10.4319319452
 20
13.9574053301
 10
-10.4314548895
 20
13.9528749064
 10
-10.4308229109
 20
13.9483601016
 10
-10.4300372151
 20
13.9438665664
 10
-10.4290989245
 20
13.9393996228
 10
-10.4280088287
 20
13.9349632789
 10
-10.4267676344
 20
13.9305612145
 10
-10.4253760479
 20
13.9261971092
 10
-10.4238347758
 20
13.9218746427
 10
-10.4221445246
 20
13.9175974949
 10
-10.4203063035
 20
13.9133700606
 10
-10.418322332
 20
13.9091995957
 10
-10.4161951324
 20
13.9050940716
 10
-10.413927227
 20
13.9010614593
 10
-10.4115211379
 20
13.8971097301
 10
-10.4089793875
 20
13.8932468552
 10
-10.4063049921
 20
13.8894804471
 10
-10.4035029441
 20
13.8858166836
 10
-10.4005787302
 20
13.882261384
 10
-10.3975378369
 20
13.8788203673
 10
-10.3943857509
 20
13.8754994527
 10
-10.3911279587
 20
13.8723044595
 10
-10.3877699349
 20
13.869240145
 10
-10.3843171062
 20
13.8663070198
 10
-10.380774887
 20
13.8635045327
 10
-10.377148692
 20
13.8608321326
 10
-10.3734439357
 20
13.8582892681
 10
-10.3696660328
 20
13.8558753882
 10
-10.3650453594
 20
13.8531489722
 10
-10.3603469487
 20
13.8506110856
 10
-10.3555905974
 20
13.8482653137
 10
-10.3507961025
 20
13.8461152421
 10
-10.3459832608
 20
13.844164456
 10
-10.3411689629
 20
13.8424149558
 10
-10.3363584748
 20
13.840862402
 10
-10.3315541561
 20
13.83950087
 10
-10.3267583665
 20
13.8383244353
 10
-10.3219734657
 20
13.8373271732
 10
-10.317198023
 20
13.8365047254
 10
-10.3124154457
 20
13.8358589986
 10
-10.3076053508
 20
13.8353934655
 10
-10.3027473554
 20
13.8351115989
 10
-10.2978210763
 20
13.8350168716
  0
LINE
  5
291
100
AcDbEntity
  8
CURVE
100
AcDbLine
 62
253
  6
CONTINUOUS
 10
-9.7182072022
 20
14.7398213158
 11
-10.3930005183
 21
14.0652396493
  0
LINE
  5
292
100
AcDbEntity
  8
CURVE
100
AcDbLine
 62
253
  6
CONTINUOUS
 10
-10.2023241343
 20
13.8744221493
 11
-9.5276013737
 21
14.5490390936
  0
LINE
  5
293
100
AcDbEntity
  8
CURVE
100
AcDbLine
 62
253
  6
CONTINUOUS
 10
-12.9718060081
 20
11.1052929834
 11
-12.2967657475
 21
11.7801921499
  0
LINE
  5
294
100
AcDbEntity
  8
CURVE
100
AcDbLine
 62
253
  6
CONTINUOUS
 10
-12.4874068538
 20
11.970656872
 11
-13.1624823921
 21
11.2960752055
  0
LWPOLYLINE
  5
295
100
AcDbEntity
  8
CURVE
100
AcDbPolyline
 62
253
  6
CONTINUOUS
 90
85
 70
0
 10
-12.7988301543
 20
-12.0890023045
 10
-12.8034425533
 20
-12.0864558259
 10
-12.8080505182
 20
-12.0841399403
 10
-12.8126658424
 20
-12.0820408392
 10
-12.8173003199
 20
-12.0801447144
 10
-12.8219657441
 20
-12.0784377573
 10
-12.8266739087
 20
-12.0769061595
 10
-12.8314340402
 20
-12.0755392707
 10
-12.8362450962
 20
-12.0743390727
 10
-12.8411034668
 20
-12.0733107052
 10
-12.8460055425
 20
-12.0724593081
 10
-12.8509477134
 20
-12.0717900212
 10
-12.8559263699
 20
-12.0713079844
 10
-12.860936691
 20
-12.0710174367
 10
-12.8659690099
 20
-12.0709190137
 10
-12.8710124486
 20
-12.0710124503
 10
-12.8760561291
 20
-12.0712974813
 10
-12.8810891734
 20
-12.0717738417
 10
-12.8861007034
 20
-12.0724412663
 10
-12.8910807923
 20
-12.0732990816
 10
-12.8960233189
 20
-12.0743449808
 10
-12.9009231128
 20
-12.0755762489
 10
-12.905775004
 20
-12.0769901706
 10
-12.9105738224
 20
-12.0785840309
 10
-12.9153143978
 20
-12.0803551147
 10
-12.919991224
 20
-12.0823006359
 10
-12.9245974499
 20
-12.0844175252
 10
-12.9291258882
 20
-12.0867026424
 10
-12.9335693519
 20
-12.089152847
 10
-12.9379206536
 20
-12.0917649989
 10
-12.9421726061
 20
-12.0945359578
 10
-12.9463183428
 20
-12.0974625117
 10
-12.9503522789
 20
-12.100541162
 10
-12.9542691503
 20
-12.1037683384
 10
-12.9580636926
 20
-12.1071404705
 10
-12.9617306418
 20
-12.1106539882
 10
-12.9652647336
 20
-12.1143053209
 10
-12.9686604761
 20
-12.1180906539
 10
-12.9719114669
 20
-12.1220051938
 10
-12.975011076
 20
-12.1260439025
 10
-12.9779526732
 20
-12.1302017421
 10
-12.9807296285
 20
-12.1344736745
 10
-12.9833353118
 20
-12.1388546618
 10
-12.9857640451
 20
-12.1433389415
 10
-12.9880139585
 20
-12.1479178534
 10
-12.9900841344
 20
-12.1525820129
 10
-12.991973655
 20
-12.1573220352
 10
-12.9936816026
 20
-12.1621285356
 10
-12.9952070594
 20
-12.1669921295
 10
-12.9965492555
 20
-12.1719039594
 10
-12.9977080126
 20
-12.1768572772
 10
-12.9986832999
 20
-12.1818458617
 10
-12.9994750871
 20
-12.1868634919
 10
-13.0000833434
 20
-12.1919039469
 10
-13.0005080383
 20
-12.1969610056
 10
-13.0007487787
 20
-12.2020284363
 10
-13.0008037213
 20
-12.207099965
 10
-13.0006706603
 20
-12.2121693069
 10
-13.0003473898
 20
-12.2172301772
 10
-12.9998317041
 20
-12.2222762912
 10
-12.9991213973
 20
-12.2273013642
 10
-12.9982150287
 20
-12.2322988253
 10
-12.9971142176
 20
-12.2372609597
 10
-12.9958213486
 20
-12.2421797665
 10
-12.994338806
 20
-12.2470472448
 10
-12.9926689745
 20
-12.2518553938
 10
-12.9908142383
 20
-12.2565962124
 10
-12.9887783331
 20
-12.2612613847
 10
-12.9865703983
 20
-12.2658413336
 10
-12.9842009243
 20
-12.2703261671
 10
-12.9816804018
 20
-12.2747059929
 10
-12.9790193211
 20
-12.278970919
 10
-12.9762281729
 20
-12.2831110532
 10
-12.9733163424
 20
-12.2871182551
 10
-12.9702887947
 20
-12.2909913914
 10
-12.9671493896
 20
-12.2947310808
 10
-12.963901987
 20
-12.2983379418
 10
-12.9605504467
 20
-12.3018125928
 10
-12.9570986285
 20
-12.3051556525
 10
-12.9535468406
 20
-12.3083681618
 10
-12.9498811839
 20
-12.3114528513
 10
-12.9460842078
 20
-12.314412874
 10
-12.9421384616
 20
-12.3172513828
 10
-12.9380264943
 20
-12.3199715309
 10
-12.9337308554
 20
-12.3225764712
  0
LWPOLYLINE
  5
296
100
AcDbEntity
  8
CURVE
100
AcDbPolyline
 62
253
  6
CONTINUOUS
 90
29
 70
0
 10
-12.5268384946
 20
-12.5575970266
 10
-12.5245510446
 20
-12.5588669255
 10
-12.5222523325
 20
-12.5600867537
 10
-12.5199426257
 20
-12.5612571253
 10
-12.5176221913
 20
-12.5623786542
 10
-12.5152912967
 20
-12.5634519543
 10
-12.512950209
 20
-12.5644776397
 10
-12.5105991954
 20
-12.5654563243
 10
-12.5082385232
 20
-12.5663886222
 10
-12.5058684597
 20
-12.5672751473
 10
-12.503489272
 20
-12.5681165136
 10
-12.5011012274
 20
-12.5689133351
 10
-12.4987045931
 20
-12.5696662257
 10
-12.4962996364
 20
-12.5703757995
 10
-12.4938866244
 20
-12.5710426705
 10
-12.4914657648
 20
-12.5716672542
 10
-12.4890370268
 20
-12.5722491727
 10
-12.48660032
 20
-12.5727878497
 10
-12.4841555539
 20
-12.5732827088
 10
-12.4817026382
 20
-12.5737331738
 10
-12.4792414824
 20
-12.5741386682
 10
-12.4767719962
 20
-12.5744986159
 10
-12.474294089
 20
-12.5748124403
 10
-12.4718076706
 20
-12.5750795653
 10
-12.4693126504
 20
-12.5752994145
 10
-12.4668089381
 20
-12.5754714115
 10
-12.4642964433
 20
-12.5755949801
 10
-12.4617750756
 20
-12.5756695439
 10
-12.4592447444
 20
-12.5756945266
  0
LWPOLYLINE
  5
297
100
AcDbEntity
  8
CURVE
100
AcDbPolyline
 62
253
  6
CONTINUOUS
 90
29
 70
0
 10
-9.9659541154
 20
-14.0360181374
 10
-9.9636776767
 20
-14.0372876962
 10
-9.961389905
 20
-14.0385072055
 10
-9.9590910685
 20
-14.039677281
 10
-9.9567814351
 20
-14.0407985385
 10
-9.9544612731
 20
-14.0418715934
 10
-9.9521308504
 20
-14.0428970615
 10
-9.9497904352
 20
-14.0438755584
 10
-9.9474402956
 20
-14.0448076999
 10
-9.9450806996
 20
-14.0456941015
 10
-9.9427119154
 20
-14.0465353789
 10
-9.940334211
 20
-14.0473321478
 10
-9.9379478545
 20
-14.0480850238
 10
-9.935553114
 20
-14.0487946227
 10
-9.9331502575
 20
-14.04946156
 10
-9.9307394935
 20
-14.0500862515
 10
-9.9283207909
 20
-14.0506683139
 10
-9.9258940589
 20
-14.0512071636
 10
-9.9234592069
 20
-14.0517022174
 10
-9.9210161441
 20
-14.0521528918
 10
-9.9185647796
 20
-14.0525586035
 10
-9.9161050229
 20
-14.0529187692
 10
-9.913636783
 20
-14.0532328055
 10
-9.9111599693
 20
-14.053500129
 10
-9.9086744911
 20
-14.0537201564
 10
-9.9061802575
 20
-14.0538923043
 10
-9.9036771778
 20
-14.0540159893
 10
-9.9011651613
 20
-14.0540906281
 10
-9.8986441172
 20
-14.0541156374
  0
LWPOLYLINE
  5
298
100
AcDbEntity
  8
CURVE
100
AcDbPolyline
 62
253
  6
CONTINUOUS
 90
85
 70
0
 10
-10.2379457752
 20
-13.567635082
 10
-10.2412791952
 20
-13.5657654713
 10
-10.2445777718
 20
-13.564031711
 10
-10.2478742734
 20
-13.5624139498
 10
-10.2512014683
 20
-13.5608923364
 10
-10.2557248046
 20
-13.5589891457
 10
-10.2603348037
 20
-13.5572367879
 10
-10.2650053078
 20
-13.555650458
 10
-10.268535131
 20
-13.5545773318
 10
-10.2720910854
 20
-13.5536037026
 10
-10.2756777623
 20
-13.5527279527
 10
-10.2792908744
 20
-13.551951757
 10
-10.2841430964
 20
-13.5510758778
 10
-10.2890445082
 20
-13.5503865584
 10
-10.2940088714
 20
-13.5498889319
 10
-10.2990464727
 20
-13.5495889994
 10
-10.3041536991
 20
-13.549496232
 10
-10.3093234628
 20
-13.5496209681
 10
-10.3145457798
 20
-13.5499713018
 10
-10.319799082
 20
-13.5505463483
 10
-10.3250589052
 20
-13.5513429781
 10
-10.3303003006
 20
-13.5523563329
 10
-10.3354963815
 20
-13.5535746392
 10
-10.3406197766
 20
-13.5549843946
 10
-10.3456496901
 20
-13.5565742703
 10
-10.3505916289
 20
-13.5583416312
 10
-10.3554576753
 20
-13.5602860159
 10
-10.3602565481
 20
-13.5624061904
 10
-10.3649835122
 20
-13.5646978299
 10
-10.3696304688
 20
-13.567155837
 10
-10.3741893191
 20
-13.5697751143
 10
-10.3786519644
 20
-13.5725505644
 10
-10.3830103059
 20
-13.57547709
 10
-10.3872568043
 20
-13.5785504467
 10
-10.3913861582
 20
-13.5817698022
 10
-10.3953936257
 20
-13.5851351773
 10
-10.3992744648
 20
-13.5886465929
 10
-10.4030239336
 20
-13.5923040696
 10
-10.4066372901
 20
-13.5961076284
 10
-10.4101087424
 20
-13.6000560239
 10
-10.4134282984
 20
-13.6041429467
 10
-10.416584916
 20
-13.6083608211
 10
-10.4195675531
 20
-13.6127020717
 10
-10.4223651675
 20
-13.6171591229
 10
-10.4249667172
 20
-13.6217243991
 10
-10.4273631632
 20
-13.6263894292
 10
-10.429553479
 20
-13.6311421595
 10
-10.4315386411
 20
-13.6359696408
 10
-10.4333196262
 20
-13.6408589238
 10
-10.4348974108
 20
-13.6457970592
 10
-10.4362729715
 20
-13.6507710977
 10
-10.4374474789
 20
-13.6557695579
 10
-10.438422879
 20
-13.6607868293
 10
-10.4392013119
 20
-13.6658187695
 10
-10.4397849177
 20
-13.6708612359
 10
-10.4401758364
 20
-13.6759100859
 10
-10.440376208
 20
-13.680961177
 10
-10.4403878975
 20
-13.6860096873
 10
-10.4402116693
 20
-13.6910480783
 10
-10.4398480128
 20
-13.6960681321
 10
-10.4392974171
 20
-13.7010616309
 10
-10.4385603718
 20
-13.7060203569
 10
-10.437637366
 20
-13.7109360922
 10
-10.4365295347
 20
-13.71580114
 10
-10.4352405953
 20
-13.7206098878
 10
-10.4337749109
 20
-13.725357244
 10
-10.4321368446
 20
-13.7300381169
 10
-10.4303307592
 20
-13.734647415
 10
-10.428361018
 20
-13.7391800468
 10
-10.4257890485
 20
-13.7445096666
 10
-10.4230048519
 20
-13.7497057389
 10
-10.4200255829
 20
-13.7547524472
 10
-10.4168683963
 20
-13.7596339756
 10
-10.4135504467
 20
-13.7643345077
 10
-10.4100870756
 20
-13.7688412718
 10
-10.4064863718
 20
-13.7731536735
 10
-10.4027546111
 20
-13.7772741628
 10
-10.3988980691
 20
-13.7812051897
 10
-10.3949230214
 20
-13.7849492042
 10
-10.3915213492
 20
-13.7879285115
 10
-10.3880265621
 20
-13.7907833743
 10
-10.3844234827
 20
-13.7935175166
 10
-10.3806969336
 20
-13.7961346623
 10
-10.3768317372
 20
-13.7986385353
 10
-10.3728127162
 20
-13.8010328597
  0
LINE
  5
299
100
AcDbEntity
  8
CURVE
100
AcDbLine
 62
253
  6
CONTINUOUS
 10
-9.8306975228
 20
-13.8024439708
 11
-10.2379457752
 21
-13.567635082
  0
LINE
  5
29A
100
AcDbEntity
  8
CURVE
100
AcDbLine
 62
253
  6
CONTINUOUS
 10
-12.9337308554
 20
-12.3225764712
 11
-12.5268384946
 21
-12.5575970266
  0
LINE
  5
29B
100
AcDbEntity
  8
CURVE
100
AcDbLine
 62
253
  6
CONTINUOUS
 10
-10.3728127162
 20
-13.8010328597
 11
-9.9659541154
 21
-14.0360181374
  0
LINE
  5
29C
100
AcDbEntity
  8
CURVE
100
AcDbLine
 62
253
  6
CONTINUOUS
 10
-12.3916187758
 20
-12.3241992489
 11
-12.7988301543
 21
-12.0890023045
  0
LWPOLYLINE
  5
29D
100
AcDbEntity
  8
ASSI
100
AcDbPolyline
 62
253
  6
CONTINUOUS
 90
12
 70
0
 10
-22.3957442996
 20
-21.5613088336
 10
-22.3951307753
 20
-21.5588418479
 10
-22.3945205958
 20
-21.5551538931
 10
-22.3939137611
 20
-21.5502449693
 10
-22.3933095157
 20
-21.5441059789
 10
-22.3927086152
 20
-21.5367460195
 10
-22.3921133255
 20
-21.5281923837
 10
-22.3915236776
 20
-21.5184406088
 10
-22.3909396407
 20
-21.5074951575
 10
-22.3903633887
 20
-21.4953967113
 10
-22.3897949552
 20
-21.4821410532
 10
-22.3886835163
 20
-21.4522240849
  0
LWPOLYLINE
  5
29E
100
AcDbEntity
  8
CURVE
100
AcDbPolyline
 62
253
  6
CONTINUOUS
 90
55
 70
0
 10
-11.3823568571
 20
-14.9109070261
 10
-11.3782809303
 20
-14.9108418223
 10
-11.3742422905
 20
-14.9106474777
 10
-11.3702305598
 20
-14.9103258924
 10
-11.3662353601
 20
-14.9098789666
 10
-11.3622463135
 20
-14.9093086002
 10
-11.3582551477
 20
-14.9086161529
 10
-11.354262014
 20
-14.907800821
 10
-11.3502691693
 20
-14.9068612605
 10
-11.3462788707
 20
-14.9057961272
 10
-11.342293375
 20
-14.904604077
 10
-11.3383156422
 20
-14.9032839676
 10
-11.3343514434
 20
-14.9018354642
 10
-11.3304072526
 20
-14.9002584339
 10
-11.3264895439
 20
-14.8985527437
 10
-11.3226047912
 20
-14.8967182609
 10
-11.3193984278
 20
-14.8950919166
 10
-11.3162297036
 20
-14.8933811881
 10
-11.3131088755
 20
-14.8915912226
 10
-11.3100435032
 20
-14.8897254355
 10
-11.3070303556
 20
-14.8877803139
 10
-11.3040635044
 20
-14.8857506126
 10
-11.3011389937
 20
-14.8836322879
 10
-11.2982607591
 20
-14.8814261018
 10
-11.2954347087
 20
-14.8791340175
 10
-11.2926667506
 20
-14.8767579982
 10
-11.2899627933
 20
-14.8743000072
 10
-11.2873287447
 20
-14.8717620078
 10
-11.2847698608
 20
-14.8691465258
 10
-11.2822887878
 20
-14.8664583369
 10
-11.2798875196
 20
-14.8637027795
 10
-11.2775680501
 20
-14.8608851918
 10
-11.2753323731
 20
-14.8580109122
 10
-11.2731824826
 20
-14.8550852789
 10
-11.2711192103
 20
-14.8521117219
 10
-11.2691387396
 20
-14.8490860382
 10
-11.2672360917
 20
-14.8460021164
 10
-11.2654081507
 20
-14.8428567895
 10
-11.2636592523
 20
-14.8396586691
 10
-11.2619955951
 20
-14.8364193108
 10
-11.2601186732
 20
-14.8324918213
 10
-11.2583734618
 20
-14.8285289795
 10
-11.2567599982
 20
-14.8245381749
 10
-11.2552783198
 20
-14.8205267972
 10
-11.2539284641
 20
-14.816502236
 10
-11.2527101932
 20
-14.8124709508
 10
-11.251622169
 20
-14.8084356809
 10
-11.250662778
 20
-14.8043982353
 10
-11.2498304069
 20
-14.8003604232
 10
-11.2491234422
 20
-14.7963240537
 10
-11.248540884
 20
-14.7922888749
 10
-11.2480841856
 20
-14.7882463904
 10
-11.2477554137
 20
-14.7841860424
 10
-11.247556635
 20
-14.7800972735
 10
-11.2474899161
 20
-14.7759695261
  0
LWPOLYLINE
  5
29F
100
AcDbEntity
  8
ASSI
100
AcDbPolyline
 62
253
  6
CONTINUOUS
 90
85
 70
0
 10
-12.8008230109
 20
-4.5627985591
 10
-12.7998947985
 20
-4.5104485904
 10
-12.7970048719
 20
-4.4581284606
 10
-12.7921532309
 20
-4.4058381702
 10
-12.7853393161
 20
-4.3534759101
 10
-12.776563687
 20
-4.3011434906
 10
-12.7658280224
 20
-4.2491463426
 10
-12.7531119052
 20
-4.1974863864
 10
-12.7384357525
 20
-4.1461617047
 10
-12.7218624938
 20
-4.0954719737
 10
-12.7033744611
 20
-4.0454266403
 10
-12.6829893223
 20
-3.9960162618
 10
-12.660823011
 20
-3.9475121813
 10
-12.6368752504
 20
-3.8999440194
 10
-12.6111463172
 20
-3.8532821606
 10
-12.5837529754
 20
-3.8077090947
 10
-12.5546988496
 20
-3.7632386683
 10
-12.5239803153
 20
-3.7198570401
 10
-12.4917032624
 20
-3.6777051687
 10
-12.4578572834
 20
-3.636776377
 10
-12.4224527858
 20
-3.597077347
 10
-12.3856268821
 20
-3.5587690771
 10
-12.3473655306
 20
-3.5218502413
 10
-12.3076827729
 20
-3.4863221704
 10
-12.2667578461
 20
-3.4523498476
 10
-12.2245873176
 20
-3.4199439441
 10
-12.18117462
 20
-3.3890937932
 10
-12.1367092879
 20
-3.3599323728
 10
-12.0911908368
 20
-3.3324694415
 10
-12.0446197512
 20
-3.3066952445
 10
-11.9971870189
 20
-3.2827134892
 10
-11.948889065
 20
-3.2605308328
 10
-11.8997294644
 20
-3.2401406214
 10
-11.8499099295
 20
-3.2216265951
 10
-11.7994255767
 20
-3.2049956813
 10
-11.7482812897
 20
-3.1902409551
 10
-11.6966934317
 20
-3.1774253787
 10
-11.6446602746
 20
-3.1665574017
 10
-11.5921835466
 20
-3.1576285762
 10
-11.5394847953
 20
-3.1506765186
 10
-11.4865638793
 20
-3.1457096612
 10
-11.4334209401
 20
-3.1427195726
 10
-11.38027795
 20
-3.1417185732
 10
-11.3271349259
 20
-3.1427148747
 10
-11.2739918509
 20
-3.1457002654
 10
-11.2210706463
 20
-3.1506624311
 10
-11.1683714599
 20
-3.1576097928
 10
-11.1158941437
 20
-3.1665339287
 10
-11.0638601754
 20
-3.177397259
 10
-11.0122712289
 20
-3.1902082452
 10
-10.9611256302
 20
-3.2049584241
 10
-10.9106398347
 20
-3.2215848297
 10
-10.8608187013
 20
-3.2400944181
 10
-10.811657371
 20
-3.2604802307
 10
-10.7633577225
 20
-3.2826584292
 10
-10.7159234599
 20
-3.3066356019
 10
-10.669350879
 20
-3.3324051572
 10
-10.6238307459
 20
-3.3598634874
 10
-10.5793636113
 20
-3.3890202313
 10
-10.5359489246
 20
-3.4198657462
 10
-10.4937757995
 20
-3.4522675022
 10
-10.4528474283
 20
-3.4862363221
 10
-10.4131606187
 20
-3.5217613786
 10
-10.3748949083
 20
-3.5586776672
 10
-10.3380641221
 20
-3.5969842645
 10
-10.3026544351
 20
-3.636682089
 10
-10.26880391
 20
-3.6776088989
 10
-10.2365233286
 20
-3.719757769
 10
-10.2058019091
 20
-3.7631356195
 10
-10.1767453684
 20
-3.807600976
 10
-10.1493504668
 20
-3.8531667486
 10
-10.123620444
 20
-3.899820022
 10
-10.0996707361
 20
-3.9473805846
 10
-10.0775012509
 20
-3.9958779037
 10
-10.0571120805
 20
-4.0452825069
 10
-10.0386189376
 20
-4.0953257742
 10
-10.0220390099
 20
-4.1460179947
 10
-10.0073551096
 20
-4.1973488751
 10
-9.9946313856
 20
-4.249018923
 10
-9.983888242
 20
-4.3010306821
 10
-9.9751052746
 20
-4.3533816059
 10
-9.9682854206
 20
-4.4057645685
 10
-9.9634296589
 20
-4.4580771945
 10
-9.9605370105
 20
-4.5104218583
 10
-9.9596074754
 20
-4.5627985591
  0
LWPOLYLINE
  5
2A0
100
AcDbEntity
  8
ASSI
100
AcDbPolyline
 62
253
  6
CONTINUOUS
 90
85
 70
0
 10
-12.8008230109
 20
4.439001801
 10
-12.7998787122
 20
4.4913415786
 10
-12.7969734358
 20
4.5436510082
 10
-12.7921071817
 20
4.5959300894
 10
-12.7852793672
 20
4.6482805818
 10
-12.776490575
 20
4.7006007245
 10
-12.7657425534
 20
4.7525852376
 10
-12.7530149001
 20
4.8042321991
 10
-12.7383280174
 20
4.8555435318
 10
-12.7217448614
 20
4.9062197242
 10
-12.703247775
 20
4.9562513429
 10
-12.6828544152
 20
5.0056478241
 10
-12.6606807097
 20
5.0541379618
 10
-12.6367263739
 20
5.1016921743
 10
-12.6109916924
 20
5.1483400479
 10
-12.583593446
 20
5.1938991297
 10
-12.5545352576
 20
5.2383555734
 10
-12.5238135044
 20
5.2817232309
 10
-12.4915340993
 20
5.3238611971
 10
-12.4576866448
 20
5.3647761348
 10
-12.4222815386
 20
5.4044613873
 10
-12.3854558862
 20
5.4427560708
 10
-12.3471956536
 20
5.4796615123
 10
-12.307514875
 20
5.5151763913
 10
-12.2665927585
 20
5.5491358538
 10
-12.2244258783
 20
5.5815292361
 10
-12.1810176601
 20
5.6123672087
 10
-12.1365575899
 20
5.6415169191
 10
-12.091045196
 20
5.668968613
 10
-12.04448095
 20
5.6947320511
 10
-11.9970557522
 20
5.7187036539
 10
-11.9487660403
 20
5.7408767713
 10
-11.8996153766
 20
5.7612580591
 10
-11.8498053486
 20
5.7797638961
 10
-11.7993310876
 20
5.796387365
 10
-11.7481974623
 20
5.8111353879
 10
-11.6966206668
 20
5.8239451023
 10
-11.6445989804
 20
5.8348080733
 10
-11.5921341237
 20
5.843732739
 10
-11.539447453
 20
5.8506815471
 10
-11.4865388323
 20
5.8556460799
 10
-11.4334083975
 20
5.8586347567
 10
-11.3802779118
 20
5.8596352792
 10
-11.3271473924
 20
5.8586394506
 10
-11.2740168222
 20
5.8556554678
 10
-11.2211079133
 20
5.8506956228
 10
-11.1684208078
 20
5.8437515066
 10
-11.1159553635
 20
5.8348315265
 10
-11.0639328667
 20
5.8239731984
 10
-11.0123549837
 20
5.8111680704
 10
-10.9612200481
 20
5.796424591
 10
-10.9107443459
 20
5.7798056267
 10
-10.8609327213
 20
5.7613042241
 10
-10.8117803301
 20
5.7409273319
 10
-10.7634889258
 20
5.7187586689
 10
-10.7160621998
 20
5.6947916455
 10
-10.6694964606
 20
5.6690328456
 10
-10.6239823869
 20
5.6415857494
 10
-10.5795205163
 20
5.612440712
 10
-10.5361103111
 20
5.5816073719
 10
-10.4939408366
 20
5.5492181339
 10
-10.4530152782
 20
5.5152621712
 10
-10.4133304505
 20
5.479750304
 10
-10.3750658625
 20
5.442847408
 10
-10.338235332
 20
5.4045543967
 10
-10.3028250411
 20
5.36487035
 10
-10.2689730455
 20
5.3239573947
 10
-10.236690117
 20
5.2818224306
 10
-10.2059654836
 20
5.2384585518
 10
-10.1769048847
 20
5.1940071772
 10
-10.1495050821
 20
5.1484553853
 10
-10.123769314
 20
5.1018160921
 10
-10.0998130339
 20
5.0542694736
 10
-10.0776361577
 20
5.0057860911
 10
-10.0572387695
 20
4.9563953788
 10
-10.038736576
 20
4.9063658227
 10
-10.0221467547
 20
4.8556871415
 10
-10.0074521281
 20
4.8043696138
 10
-9.9947168706
 20
4.7527125673
 10
-9.9839613714
 20
4.7007134537
 10
-9.9751652413
 20
4.6483748203
 10
-9.968331486
 20
4.5960036404
 10
-9.9634611076
 20
4.5437022391
 10
-9.960553104
 20
4.4913682925
 10
-9.9596074754
 20
4.439001801
  0
LWPOLYLINE
  5
2A1
100
AcDbEntity
  8
ASSI
100
AcDbPolyline
 62
253
  6
CONTINUOUS
 90
85
 70
0
 10
-12.7008382414
 20
-4.5618983791
 10
-12.6999536551
 20
-4.5133470952
 10
-12.6972719815
 20
-4.4646893987
 10
-12.6927778558
 20
-4.415992603
 10
-12.6864548081
 20
-4.367300978
 10
-12.6782943426
 20
-4.3187087863
 10
-12.6683050427
 20
-4.2703586809
 10
-12.65648985
 20
-4.2223197078
 10
-12.6428547534
 20
-4.1746627193
 10
-12.6274332818
 20
-4.127529726
 10
-12.6102460739
 20
-4.0809913046
 10
-12.5913139756
 20
-4.0351106173
 10
-12.5706896734
 20
-3.9900123707
 10
-12.54841795
 20
-3.9457795995
 10
-12.5245247782
 20
-3.9024501209
 10
-12.4990440133
 20
-3.860076222
 10
-12.4720216057
 20
-3.8187252535
 10
-12.4434926741
 20
-3.7784424195
 10
-12.4134731619
 20
-3.7392475734
 10
-12.3819971725
 20
-3.7011877355
 10
-12.3491145435
 20
-3.664325544
 10
-12.3148630204
 20
-3.6287055778
 10
-12.2792818204
 20
-3.5943724589
 10
-12.2424260724
 20
-3.5613830777
 10
-12.2043608196
 20
-3.529797062
 10
-12.1651425232
 20
-3.4996609709
 10
-12.124823338
 20
-3.4710145952
 10
-12.0834661773
 20
-3.4439021005
 10
-12.041133287
 20
-3.4183629771
 10
-11.9978808419
 20
-3.394429828
 10
-11.9537648225
 20
-3.3721330069
 10
-11.9088468077
 20
-3.3515034026
 10
-11.8631901487
 20
-3.3325698802
 10
-11.8168546519
 20
-3.3153572623
 10
-11.7699030933
 20
-3.2998892884
 10
-11.722403173
 20
-3.2861886759
 10
-11.6744232635
 20
-3.2742753143
 10
-11.6260307818
 20
-3.2641659888
 10
-11.5772933506
 20
-3.2558748707
 10
-11.5282806068
 20
-3.249413783
 10
-11.479061991
 20
-3.2447917383
 10
-11.4297057506
 20
-3.242015005
 10
-11.3802801775
 20
-3.2410873743
 10
-11.3308545468
 20
-3.2420101434
 10
-11.2814981019
 20
-3.2447820168
 10
-11.2322790873
 20
-3.2493992114
 10
-11.1832657564
 20
-3.2558554661
 10
-11.1345275452
 20
-3.2641417769
 10
-11.0861340299
 20
-3.2742463434
 10
-11.0381527798
 20
-3.2861550241
 10
-10.990651274
 20
-3.2998510379
 10
-10.943697996
 20
-3.3153144727
 10
-10.897360625
 20
-3.3325226228
 10
-10.8517019621
 20
-3.3514517432
 10
-10.8067819828
 20
-3.3720769325
 10
-10.7626641504
 20
-3.3943692458
 10
-10.7194099097
 20
-3.4182978331
 10
-10.6770750434
 20
-3.4438324429
 10
-10.6357158209
 20
-3.470940415
 10
-10.5953943908
 20
-3.4995823234
 10
-10.55617323
 20
-3.5297143604
 10
-10.5181043385
 20
-3.5612969602
 10
-10.4812444326
 20
-3.5942834614
 10
-10.4456587606
 20
-3.6286141326
 10
-10.4114022078
 20
-3.6642324147
 10
-10.378514332
 20
-3.7010934278
 10
-10.3470338254
 20
-3.7391514756
 10
-10.3170106644
 20
-3.7783435339
 10
-10.2884786101
 20
-3.818622798
 10
-10.2614536706
 20
-3.8599690801
 10
-10.2359712854
 20
-3.9023363081
 10
-10.2120767484
 20
-3.9456578267
 10
-10.1898027148
 20
-3.9898834861
 10
-10.1691752501
 20
-4.0349755444
 10
-10.1502392414
 20
-4.0808510327
 10
-10.1330466914
 20
-4.1273875931
 10
-10.117618572
 20
-4.1745229906
 10
-10.1039762029
 20
-4.2221859815
 10
-10.0921535202
 20
-4.2702345715
 10
-10.0821568313
 20
-4.3185982922
 10
-10.0739895508
 20
-4.3672077786
 10
-10.067660772
 20
-4.4159192726
 10
-10.0631622841
 20
-4.464638093
 10
-10.0604778141
 20
-4.5133202622
 10
-10.0595922449
 20
-4.5618983791
  0
LWPOLYLINE
  5
2A2
100
AcDbEntity
  8
ASSI
100
AcDbPolyline
 62
253
  6
CONTINUOUS
 90
85
 70
0
 10
-12.7008382414
 20
4.4381016209
 10
-12.6999375421
 20
4.4866434357
 10
-12.6972404451
 20
4.5352910466
 10
-12.6927315922
 20
4.5839771705
 10
-12.6863944893
 20
4.6326575525
 10
-12.6782206755
 20
4.6812379708
 10
-12.6682188207
 20
4.7295758523
 10
-12.6563918605
 20
4.7776021925
 10
-12.6427457771
 20
4.8252461725
 10
-12.6273141681
 20
4.8723658708
 10
-12.610117652
 20
4.9188907679
 10
-12.5911770563
 20
4.9647577291
 10
-12.5705451243
 20
5.0098421115
 10
-12.5482666015
 20
5.0540609623
 10
-12.5243674379
 20
5.0973764713
 10
-12.4988815698
 20
5.1397363199
 10
-12.4718549262
 20
5.1810732071
 10
-12.4433225942
 20
5.2213419741
 10
-12.4133005969
 20
5.2605227477
 10
-12.3818230234
 20
5.2985685447
 10
-12.3489396756
 20
5.3354167898
 10
-12.3146883528
 20
5.3710229398
 10
-12.2791082432
 20
5.4053424234
 10
-12.2422544416
 20
5.4383184008
 10
-12.204192034
 20
5.4698912934
 10
-12.1649774426
 20
5.5000145989
 10
-12.1246627809
 20
5.5286485715
 10
-12.0833109982
 20
5.5557490902
 10
-12.0409842993
 20
5.5812767165
 10
-11.9977388044
 20
5.6051988953
 10
-11.9536305064
 20
5.6274853224
 10
-11.9087209336
 20
5.6481051565
 10
-11.8630733758
 20
5.6670295754
 10
-11.8167476294
 20
5.684233806
 10
-11.7698064142
 20
5.6996941489
 10
-11.7223173585
 20
5.7133879225
 10
-11.6743487959
 20
5.7252952817
 10
-11.6259680744
 20
5.7353994732
 10
-11.5772427433
 20
5.7436863475
 10
-11.5282423895
 20
5.7501441099
 10
-11.4790363806
 20
5.7547637671
 10
-11.4296928856
 20
5.75753906
 10
-11.3802801354
 20
5.7584662073
 10
-11.3308673278
 20
5.7575439171
 10
-11.2815236286
 20
5.7547734798
 10
-11.2323172216
 20
5.7501586683
 10
-11.1833162813
 20
5.7437057345
 10
-11.134590171
 20
5.7354236632
 10
-11.086208417
 20
5.7253242266
 10
-11.0382385152
 20
5.713421544
 10
-10.9907478758
 20
5.6997323652
 10
-10.9438049433
 20
5.6842765574
 10
-10.897477325
 20
5.667076791
 10
-10.8518277658
 20
5.6481567705
 10
-10.8069162311
 20
5.6275413479
 10
-10.7628061226
 20
5.6052594251
 10
-10.7195588347
 20
5.5813418047
 10
-10.6772301624
 20
5.5558186886
 10
-10.6358763205
 20
5.5287226891
 10
-10.5955594164
 20
5.5000931803
 10
-10.5563419636
 20
5.4699739257
 10
-10.5182759202
 20
5.4384044463
 10
-10.481417964
 20
5.4054313463
 10
-10.4458333863
 20
5.3711143088
 10
-10.4115770385
 20
5.3355098426
 10
-10.378688449
 20
5.2986627763
 10
-10.3472063633
 20
5.2606187701
 10
-10.3171807224
 20
5.2214407851
 10
-10.2886452729
 20
5.1811755888
 10
-10.261616102
 20
5.1398433874
 10
-10.2361286174
 20
5.0974902066
 10
-10.2122280919
 20
5.0541826531
 10
-10.1899472623
 20
5.0099709092
 10
-10.1693121711
 20
4.9648927097
 10
-10.1503676682
 20
4.9190309418
 10
-10.1331658137
 20
4.8725079031
 10
-10.1177275607
 20
4.8253858017
 10
-10.1040742082
 20
4.7777358231
 10
-10.0922397607
 20
4.729699873
 10
-10.0822305183
 20
4.6813483866
 10
-10.0740498894
 20
4.6327506867
 10
-10.0677070535
 20
4.5840504503
 10
-10.0631938346
 20
4.5353423174
 10
-10.0604939354
 20
4.4866702508
 10
-10.0595922449
 20
4.4381016209
  0
LINE
  5
2A3
100
AcDbEntity
  8
ASSI
100
AcDbLine
 62
253
  6
CONTINUOUS
 10
-22.4670613381
 20
-21.7754339388
 11
-22.3957442996
 21
-21.5613088336
  0
LINE
  5
2A4
100
AcDbEntity
  8
ASSI
100
AcDbLine
 62
253
  6
CONTINUOUS
 10
-21.9666815148
 20
-22.2733796666
 11
-21.8958206572
 21
-22.060624217
  0
LWPOLYLINE
  5
2A5
100
AcDbEntity
  8
CURVE
100
AcDbPolyline
 62
253
  6
CONTINUOUS
 90
73
 70
0
 10
-9.8986441172
 20
-14.0541156374
 10
-9.8940607356
 20
-14.0540255671
 10
-9.8895471244
 20
-14.0537588303
 10
-9.8850898539
 20
-14.0533206377
 10
-9.8806754944
 20
-14.0527162002
 10
-9.8762906162
 20
-14.0519507287
 10
-9.8719217896
 20
-14.051029434
 10
-9.8675583065
 20
-14.0499564505
 10
-9.8632003455
 20
-14.048731607
 10
-9.8588508067
 20
-14.0473536559
 10
-9.8545125904
 20
-14.0458213496
 10
-9.8501885968
 20
-14.0441334405
 10
-9.8458817261
 20
-14.042288681
 10
-9.8415961178
 20
-14.0402867061
 10
-9.8373408696
 20
-14.0381306817
 10
-9.8331263181
 20
-14.0358246562
 10
-9.8289628003
 20
-14.0333726781
 10
-9.8248606532
 20
-14.030778796
 10
-9.8208302134
 20
-14.0280470582
 10
-9.8168808473
 20
-14.0251806067
 10
-9.8130180382
 20
-14.0221789571
 10
-9.8092462989
 20
-14.0190407182
 10
-9.8055701421
 20
-14.015764499
 10
-9.8019940805
 20
-14.0123489085
 10
-9.7985226268
 20
-14.0087925557
 10
-9.7951615732
 20
-14.0050952918
 10
-9.7919218294
 20
-14.0012619382
 10
-9.7888155846
 20
-13.9972985586
 10
-9.785855028
 20
-13.9932112168
 10
-9.7830523488
 20
-13.9890059764
 10
-9.7804197361
 20
-13.9846889011
 10
-9.7779675222
 20
-13.9802661783
 10
-9.7756986119
 20
-13.9757444898
 10
-9.7736140532
 20
-13.971130641
 10
-9.7717148938
 20
-13.9664314374
 10
-9.7700021818
 20
-13.9616536843
 10
-9.7684769651
 20
-13.9568041871
 10
-9.7671403521
 20
-13.9518900682
 10
-9.7659936937
 20
-13.9469197174
 10
-9.7650384012
 20
-13.9419018414
 10
-9.7642758861
 20
-13.9368451467
 10
-9.7637075597
 20
-13.9317583402
 10
-9.7633348334
 20
-13.9266501286
 10
-9.7631588691
 20
-13.9215293077
 10
-9.7631798306
 20
-13.9164050313
 10
-9.7633976322
 20
-13.9112865423
 10
-9.763812188
 20
-13.9061830836
 10
-9.7644234124
 20
-13.9011038982
 10
-9.7652312197
 20
-13.8960582289
 10
-9.7662349507
 20
-13.8910547625
 10
-9.7674316528
 20
-13.8860999607
 10
-9.7688178
 20
-13.881199729
 10
-9.7703898665
 20
-13.8763599727
 10
-9.7721443262
 20
-13.8715865972
 10
-9.7740776533
 20
-13.8668855082
 10
-9.7761850018
 20
-13.862263451
 10
-9.7784562466
 20
-13.8577305321
 10
-9.7808799429
 20
-13.8532976978
 10
-9.7834446456
 20
-13.8489758945
 10
-9.7861389098
 20
-13.8447760688
 10
-9.7889512906
 20
-13.8407091669
 10
-9.7918716267
 20
-13.8367839654
 10
-9.7948948925
 20
-13.8330005614
 10
-9.798017346
 20
-13.8293568818
 10
-9.8012352454
 20
-13.8258508537
 10
-9.8045448488
 20
-13.8224804041
 10
-9.8079424142
 20
-13.8192434602
 10
-9.8114275889
 20
-13.8161376464
 10
-9.8150135769
 20
-13.8131593768
 10
-9.8187169711
 20
-13.8103047629
 10
-9.8225543648
 20
-13.8075699162
 10
-9.8265423511
 20
-13.8049509484
 10
-9.8306975228
 20
-13.8024439708
  0
LWPOLYLINE
  5
2A6
100
AcDbEntity
  8
CURVE
100
AcDbPolyline
 62
253
  6
CONTINUOUS
 90
75
 70
0
 10
-12.4592447444
 20
-12.5756945266
 10
-12.4554989402
 20
-12.5756423205
 10
-12.451843728
 20
-12.5754869418
 10
-12.4482433304
 20
-12.5752302493
 10
-12.4446619698
 20
-12.5748741021
 10
-12.4398735566
 20
-12.5742474578
 10
-12.43508433
 20
-12.5734499957
 10
-12.4303232377
 20
-12.5724844014
 10
-12.4267851405
 20
-12.5716513023
 10
-12.4232724347
 20
-12.5707251779
 10
-12.4197805863
 20
-12.5697063733
 10
-12.416313792
 20
-12.5685964603
 10
-12.4117373548
 20
-12.5669762494
 10
-12.4072076534
 20
-12.5651907615
 10
-12.4027155405
 20
-12.5632333506
 10
-12.3982547276
 20
-12.5610975346
 10
-12.3938303599
 20
-12.5587774883
 10
-12.3894504409
 20
-12.556267551
 10
-12.385126187
 20
-12.5535659211
 10
-12.3808816646
 20
-12.5506862345
 10
-12.3767441532
 20
-12.5476459863
 10
-12.3727368991
 20
-12.5444604238
 10
-12.3688670179
 20
-12.5411358023
 10
-12.3651375927
 20
-12.5376761291
 10
-12.3615517062
 20
-12.5340854114
 10
-12.3581124414
 20
-12.5303676566
 10
-12.3548228813
 20
-12.526526872
 10
-12.35168623
 20
-12.5225672814
 10
-12.3487061781
 20
-12.5184939755
 10
-12.3458865372
 20
-12.5143122615
 10
-12.343231119
 20
-12.5100274467
 10
-12.3407437355
 20
-12.5056448383
 10
-12.3384281982
 20
-12.5011697436
 10
-12.3362877453
 20
-12.496608306
 10
-12.3343233202
 20
-12.4919700131
 10
-12.3325352923
 20
-12.4872651891
 10
-12.3309240313
 20
-12.4825041577
 10
-12.3294899068
 20
-12.4776972429
 10
-12.3282332884
 20
-12.4728547687
 10
-12.3271544111
 20
-12.4679861122
 10
-12.3262529711
 20
-12.4630968641
 10
-12.32552853
 20
-12.4581916684
 10
-12.3249806496
 20
-12.4532751688
 10
-12.3246088913
 20
-12.4483520094
 10
-12.3244128169
 20
-12.443426834
 10
-12.3243922847
 20
-12.4385046385
 10
-12.3245483393
 20
-12.4335918261
 10
-12.3248823223
 20
-12.4286951522
 10
-12.3253955751
 20
-12.4238213718
 10
-12.3260894391
 20
-12.4189772402
 10
-12.3269652559
 20
-12.4141695127
 10
-12.3280235167
 20
-12.4094047125
 10
-12.3292613129
 20
-12.4046884353
 10
-12.3306748856
 20
-12.400026045
 10
-12.3322604762
 20
-12.3954229054
 10
-12.3340143259
 20
-12.3908843803
 10
-12.3359326758
 20
-12.3864158335
 10
-12.3380109423
 20
-12.3820230696
 10
-12.3402412416
 20
-12.3777136557
 10
-12.3426148651
 20
-12.3734955999
 10
-12.3451231041
 20
-12.3693769101
 10
-12.3477572498
 20
-12.3653655941
 10
-12.3505085937
 20
-12.36146966
 10
-12.3533692544
 20
-12.3576957728
 10
-12.3563346595
 20
-12.354045226
 10
-12.3594010641
 20
-12.3505179703
 10
-12.3625647232
 20
-12.3471139564
 10
-12.3658218918
 20
-12.343833135
 10
-12.369168825
 20
-12.3406754568
 10
-12.3726049861
 20
-12.3376403474
 10
-12.3761426722
 20
-12.3347251331
 10
-12.3797973888
 20
-12.3319266149
 10
-12.3835846413
 20
-12.3292415941
 10
-12.3875199352
 20
-12.3266668716
 10
-12.3916187758
 20
-12.3241992489
  0
LWPOLYLINE
  5
2A7
100
AcDbEntity
  8
CURVE
100
AcDbPolyline
 62
253
  6
CONTINUOUS
 90
29
 70
0
 10
-12.8657873748
 20
-14.0541156374
 10
-12.863236985
 20
-14.0540901277
 10
-12.8606986713
 20
-14.054014068
 10
-12.8581723596
 20
-14.053888162
 10
-12.8556579753
 20
-14.0537131136
 10
-12.853155444
 20
-14.0534896267
 10
-12.8506646913
 20
-14.0532184049
 10
-12.8481856429
 20
-14.0529001522
 10
-12.8457182243
 20
-14.0525355723
 10
-12.8432623612
 20
-14.0521253692
 10
-12.840817979
 20
-14.0516702465
 10
-12.8383850035
 20
-14.0511709082
 10
-12.8359633601
 20
-14.0506280581
 10
-12.8335529745
 20
-14.0500423999
 10
-12.8311537724
 20
-14.0494146375
 10
-12.8287657275
 20
-14.0487452631
 10
-12.8263890072
 20
-14.0480339216
 10
-12.8240238271
 20
-14.0472800464
 10
-12.8216704027
 20
-14.046483071
 10
-12.8193289496
 20
-14.0456424286
 10
-12.8169996835
 20
-14.0447575526
 10
-12.8146828199
 20
-14.0438278763
 10
-12.8123785743
 20
-14.0428528331
 10
-12.8100871625
 20
-14.0418318565
 10
-12.8078088
 20
-14.0407643796
 10
-12.8055437023
 20
-14.0396498359
 10
-12.8032920851
 20
-14.0384876587
 10
-12.8010541639
 20
-14.0372772814
 10
-12.7988301543
 20
-14.0360181374
  0
LWPOLYLINE
  5
2A8
100
AcDbEntity
  8
CURVE
100
AcDbPolyline
 62
253
  6
CONTINUOUS
 90
29
 70
0
 10
-10.3052204957
 20
-12.5756945266
 10
-10.3026268392
 20
-12.5756684936
 10
-10.3000474744
 20
-12.5755909688
 10
-10.2974823681
 20
-12.5754628132
 10
-10.2949314873
 20
-12.5752848877
 10
-10.292394799
 20
-12.5750580532
 10
-10.2898722701
 20
-12.5747831709
 10
-10.2873638675
 20
-12.5744611017
 10
-10.2848695582
 20
-12.5740927065
 10
-10.282389309
 20
-12.5736788464
 10
-10.279923087
 20
-12.5732203823
 10
-10.277470859
 20
-12.5727181753
 10
-10.2750325919
 20
-12.5721730863
 10
-10.2726082528
 20
-12.5715859764
 10
-10.2701978085
 20
-12.5709577064
 10
-10.2678012456
 20
-12.5702889246
 10
-10.2654186289
 20
-12.5695794275
 10
-10.2630500429
 20
-12.5688287987
 10
-10.2606955721
 20
-12.5680366221
 10
-10.2583553008
 20
-12.5672024814
 10
-10.2560293135
 20
-12.5663259601
 10
-10.2537176948
 20
-12.5654066421
 10
-10.251420529
 20
-12.564444111
 10
-10.2491379006
 20
-12.5634379506
 10
-10.246869894
 20
-12.5623877445
 10
-10.2446165937
 20
-12.5612930764
 10
-10.2423780842
 20
-12.5601535302
 10
-10.2401544499
 20
-12.5589686894
 10
-10.2379457752
 20
-12.5577381378
  0
LINE
  5
2A9
100
AcDbEntity
  8
ASSI
100
AcDbLine
 62
253
  6
CONTINUOUS
 10
-22.3957442996
 20
21.4375120755
 11
-22.4670613381
 21
21.6516371807
  0
LINE
  5
2AA
100
AcDbEntity
  8
ASSI
100
AcDbLine
 62
253
  6
CONTINUOUS
 10
-21.8958206572
 20
21.9368274588
 11
-21.9666815148
 21
22.1495829085
  0
LWPOLYLINE
  5
2AB
100
AcDbEntity
  8
CURVE
100
AcDbPolyline
 62
253
  6
CONTINUOUS
 90
85
 70
0
 10
-11.2474899161
 20
-14.3059636929
 10
-11.2475837079
 20
-14.3010455217
 10
-11.247861576
 20
-14.2962228964
 10
-11.2483182597
 20
-14.2914787921
 10
-11.2489484982
 20
-14.286796184
 10
-11.2497470307
 20
-14.2821580473
 10
-11.2507085964
 20
-14.2775473572
 10
-11.2518292804
 20
-14.2729504835
 10
-11.2531105515
 20
-14.2683673742
 10
-11.2545552244
 20
-14.2638013723
 10
-11.2561661137
 20
-14.2592558204
 10
-11.257946034
 20
-14.2547340614
 10
-11.2598978001
 20
-14.2502394381
 10
-11.2620232693
 20
-14.2457770451
 10
-11.2643204694
 20
-14.2413589856
 10
-11.2667864708
 20
-14.2369991145
 10
-11.2694183439
 20
-14.2327112869
 10
-11.2722131594
 20
-14.2285093576
 10
-11.2751679876
 20
-14.2244071817
 10
-11.2782798812
 20
-14.2204173008
 10
-11.2815458216
 20
-14.2165470025
 10
-11.2849627726
 20
-14.2128022609
 10
-11.2885276978
 20
-14.2091890502
 10
-11.292237561
 20
-14.2057133447
 10
-11.2960893257
 20
-14.2023811184
 10
-11.3000791446
 20
-14.1991979211
 10
-11.3041999264
 20
-14.1961676049
 10
-11.3084437686
 20
-14.1932935975
 10
-11.3128027689
 20
-14.1905793266
 10
-11.3172690248
 20
-14.1880282198
 10
-11.321834634
 20
-14.1856437048
 10
-11.3264922207
 20
-14.1834291869
 10
-11.3312365165
 20
-14.1813879824
 10
-11.3360627794
 20
-14.1795233848
 10
-11.3409662676
 20
-14.177838688
 10
-11.3459422392
 20
-14.1763371858
 10
-11.3509859523
 20
-14.1750221719
 10
-11.356091731
 20
-14.1738971266
 10
-11.3612501624
 20
-14.1729662772
 10
-11.3664508993
 20
-14.1722340374
 10
-11.3716835947
 20
-14.1717048208
 10
-11.3769379015
 20
-14.1713830413
 10
-11.3822034727
 20
-14.1712731126
 10
-11.3874700176
 20
-14.1713780527
 10
-11.3927274711
 20
-14.1716952968
 10
-11.3979658244
 20
-14.1722208841
 10
-11.403175069
 20
-14.1729508541
 10
-11.408345196
 20
-14.1738812462
 10
-11.4134661968
 20
-14.1750080997
 10
-11.4185288036
 20
-14.1763275358
 10
-11.4235267119
 20
-14.1778360029
 10
-11.4284543583
 20
-14.1795300309
 10
-11.4333061792
 20
-14.18140615
 10
-11.4380766111
 20
-14.1834608902
 10
-11.4427600905
 20
-14.1856907816
 10
-11.4473508215
 20
-14.1880926168
 10
-11.4518420788
 20
-14.1906642386
 10
-11.4562269045
 20
-14.1934037522
 10
-11.4604983411
 20
-14.1963092629
 10
-11.4646494307
 20
-14.199378876
 10
-11.4686732156
 20
-14.2026106968
 10
-11.4725629956
 20
-14.2060018499
 10
-11.4763131011
 20
-14.2095455371
 10
-11.4799181198
 20
-14.2132339796
 10
-11.4833726395
 20
-14.2170593987
 10
-11.4866712481
 20
-14.2210140156
 10
-11.4898085333
 20
-14.2250900514
 10
-11.4927794926
 20
-14.2292780678
 10
-11.4955807614
 20
-14.2335619881
 10
-11.4982093847
 20
-14.2379240762
 10
-11.5006624077
 20
-14.2423465957
 10
-11.5029368752
 20
-14.2468118106
 10
-11.5050298324
 20
-14.2513019846
 10
-11.5069396893
 20
-14.2558020361
 10
-11.5086703164
 20
-14.2603075024
 10
-11.5102269492
 20
-14.2648165755
 10
-11.511614823
 20
-14.2693274473
 10
-11.5128391735
 20
-14.2738383098
 10
-11.513905236
 20
-14.2783473548
 10
-11.514816722
 20
-14.282856022
 10
-11.5155712474
 20
-14.2873787414
 10
-11.5161649037
 20
-14.2919331905
 10
-11.5165937828
 20
-14.2965370471
 10
-11.5168539763
 20
-14.3012079886
 10
-11.5169415759
 20
-14.3059636929
  0
LWPOLYLINE
  5
2AC
100
AcDbEntity
  8
CURVE
100
AcDbPolyline
 62
253
  6
CONTINUOUS
 90
85
 70
0
 10
-11.2474899161
 20
-11.3490509158
 10
-11.247583735
 20
-11.3441310627
 10
-11.2478616831
 20
-11.3393067949
 10
-11.2483184975
 20
-11.3345610885
 10
-11.2489489155
 20
-11.3298769195
 10
-11.2497476744
 20
-11.3252372642
 10
-11.2507095113
 20
-11.3206250986
 10
-11.2518305095
 20
-11.3160267931
 10
-11.2531121366
 20
-11.3114422946
 10
-11.2545572065
 20
-11.3068749441
 10
-11.2561685329
 20
-11.3023280828
 10
-11.2579489296
 20
-11.2978050515
 10
-11.2599012104
 20
-11.2933091915
 10
-11.2620272311
 20
-11.2888455965
 10
-11.2643250165
 20
-11.2844263709
 10
-11.2667916337
 20
-11.2800653721
 10
-11.2694241494
 20
-11.2757764573
 10
-11.2722196308
 20
-11.2715734837
 10
-11.2751751446
 20
-11.2674703086
 10
-11.2782877371
 20
-11.2634794754
 10
-11.2815543715
 20
-11.2596082726
 10
-11.2849719901
 20
-11.2558626748
 10
-11.2885375353
 20
-11.2522486567
 10
-11.2922479495
 20
-11.2487721931
 10
-11.296100175
 20
-11.2454392585
 10
-11.3000903481
 20
-11.242255402
 10
-11.3042113806
 20
-11.23922447
 10
-11.3084553784
 20
-11.2363498831
 10
-11.312814447
 20
-11.2336350621
 10
-11.3172806922
 20
-11.2310834278
 10
-11.3218462198
 20
-11.2286984007
 10
-11.3265036625
 20
-11.226483382
 10
-11.3312477616
 20
-11.2244416938
 10
-11.3360737855
 20
-11.2225766386
 10
-11.3409770024
 20
-11.2208915188
 10
-11.3459526807
 20
-11.2193896369
 10
-11.3509960889
 20
-11.2180742954
 10
-11.3561015586
 20
-11.2169489844
 10
-11.3612596762
 20
-11.2160179443
 10
-11.3664600911
 20
-11.2152856031
 10
-11.371692453
 20
-11.2147563891
 10
-11.3769464116
 20
-11.2144347302
 10
-11.3822116165
 20
-11.2143250545
 10
-11.3874777734
 20
-11.2144303888
 10
-11.3927348123
 20
-11.2147481542
 10
-11.3979727195
 20
-11.2152743706
 10
-11.4031814809
 20
-11.2160050579
 10
-11.4083510829
 20
-11.2169362358
 10
-11.4134715114
 20
-11.2180639243
 10
-11.4185334969
 20
-11.2193842267
 10
-11.4235307473
 20
-11.2208935808
 10
-11.4284577145
 20
-11.222588508
 10
-11.4333088509
 20
-11.2244655294
 10
-11.4380786083
 20
-11.2265211666
 10
-11.442761439
 20
-11.2287519407
 10
-11.447351561
 20
-11.2311546372
 10
-11.4518422571
 20
-11.2337270976
 10
-11.4562265758
 20
-11.2364674274
 10
-11.4604975657
 20
-11.2393737324
 10
-11.4646482756
 20
-11.242444118
 10
-11.468671754
 20
-11.2456766898
 10
-11.4725613045
 20
-11.2490685732
 10
-11.4763112506
 20
-11.2526129723
 10
-11.4799161709
 20
-11.2563021108
 10
-11.4833706437
 20
-11.2601282126
 10
-11.4866692474
 20
-11.2640835014
 10
-11.4898065606
 20
-11.2681602012
 10
-11.4927775724
 20
-11.2723488773
 10
-11.4955789155
 20
-11.2766334614
 10
-11.4982076332
 20
-11.2809962268
 10
-11.5006607688
 20
-11.2854194468
 10
-11.5029353657
 20
-11.2898853947
 10
-11.5050284672
 20
-11.2943763438
 10
-11.5069384812
 20
-11.2988772203
 10
-11.5086692732
 20
-11.3033835624
 10
-11.5102260733
 20
-11.3078935612
 10
-11.5116141113
 20
-11.3124054076
 10
-11.5128386174
 20
-11.3169172929
 10
-11.5139048216
 20
-11.321427408
 10
-11.5148164306
 20
-11.3259371908
 10
-11.5155710585
 20
-11.3304610659
 10
-11.5161647961
 20
-11.3350167046
 10
-11.5165937344
 20
-11.3396217782
 10
-11.516853964
 20
-11.3442939582
 10
-11.5169415759
 20
-11.3490509158
  0
LWPOLYLINE
  5
2AD
100
AcDbEntity
  8
CURVE
100
AcDbPolyline
 62
253
  6
CONTINUOUS
 90
85
 70
0
 10
-11.210316053
 20
11.4418782611
 10
-11.2104096656
 20
11.4467952421
 10
-11.2106870173
 20
11.451616783
 10
-11.2111428796
 20
11.4563599058
 10
-11.2117720238
 20
11.4610416324
 10
-11.2125692212
 20
11.4656789849
 10
-11.2135292432
 20
11.4702889852
 10
-11.2146482057
 20
11.4748852626
 10
-11.215927603
 20
11.4794678754
 10
-11.217370274
 20
11.4840334893
 10
-11.2189790576
 20
11.4885787698
 10
-11.2207567929
 20
11.4931003825
 10
-11.2227063187
 20
11.4975949932
 10
-11.2248295158
 20
11.5020575115
 10
-11.2271244327
 20
11.5064758239
 10
-11.2295881598
 20
11.510836061
 10
-11.2322177873
 20
11.5151243535
 10
-11.2350104056
 20
11.519326832
 10
-11.2379631051
 20
11.5234296271
 10
-11.2410729526
 20
11.5274201847
 10
-11.2443369213
 20
11.5312912115
 10
-11.247751961
 20
11.5350367295
 10
-11.2513150214
 20
11.5386507608
 10
-11.2550230522
 20
11.5421273275
 10
-11.2588730033
 20
11.5454604514
 10
-11.2628610137
 20
11.5486445779
 10
-11.2669799807
 20
11.5516758448
 10
-11.2712219909
 20
11.5545508132
 10
-11.2755791312
 20
11.5572660443
 10
-11.280043488
 20
11.5598180991
 10
-11.2846071482
 20
11.5622035388
 10
-11.2892627381
 20
11.5644189415
 10
-11.294005043
 20
11.5664609535
 10
-11.298829388
 20
11.5683262384
 10
-11.3037310981
 20
11.5700114597
 10
-11.3087054983
 20
11.5715132808
 10
-11.3137479137
 20
11.5728283651
 10
-11.3188527097
 20
11.5739531829
 10
-11.3240104132
 20
11.5748834316
 10
-11.3292105918
 20
11.5756146153
 10
-11.3344428126
 20
11.5761422381
 10
-11.3396966431
 20
11.5764618043
 10
-11.3449616506
 20
11.576568818
 10
-11.3502274595
 20
11.5764602178
 10
-11.3554839219
 20
11.5761386803
 10
-11.360720947
 20
11.5756083165
 10
-11.3659284441
 20
11.5748732377
 10
-11.3710963222
 20
11.5739375548
 10
-11.3762144904
 20
11.572805379
 10
-11.3812736426
 20
11.5714807215
 10
-11.3862676102
 20
11.5699671946
 10
-11.3911910094
 20
11.5682683107
 10
-11.3960384564
 20
11.5663875822
 10
-11.4008045672
 20
11.5643285215
 10
-11.4054839579
 20
11.5620946411
 10
-11.410070989
 20
11.5596892047
 10
-11.414558997
 20
11.5571144814
 10
-11.4189410629
 20
11.5543724914
 10
-11.4232102676
 20
11.5514652552
 10
-11.427359692
 20
11.5483947931
 10
-11.431382417
 20
11.5451631255
 10
-11.4352717852
 20
11.5417732191
 10
-11.4390221859
 20
11.5382318265
 10
-11.4426282702
 20
11.5345466465
 10
-11.4460846891
 20
11.5307253779
 10
-11.4493860937
 20
11.5267757199
 10
-11.452527135
 20
11.5227053711
 10
-11.4555028412
 20
11.5185236605
 10
-11.45830975
 20
11.5142464374
 10
-11.460944776
 20
11.5098911809
 10
-11.463404834
 20
11.5054753702
 10
-11.4656868389
 20
11.5010164845
 10
-11.4677877052
 20
11.496532003
 10
-11.469705707
 20
11.4920367942
 10
-11.471444555
 20
11.4875352834
 10
-11.4730093189
 20
11.4830292853
 10
-11.4744050687
 20
11.4785206145
 10
-11.4756368742
 20
11.4740110856
 10
-11.4767098053
 20
11.4695025132
 10
-11.4776274168
 20
11.4649934967
 10
-11.4783872039
 20
11.4604697736
 10
-11.4789851469
 20
11.4559138663
 10
-11.4794172259
 20
11.4513082969
 10
-11.4796794211
 20
11.4466355878
 10
-11.4797677128
 20
11.4418782611
  0
LWPOLYLINE
  5
2AE
100
AcDbEntity
  8
CURVE
100
AcDbPolyline
 62
253
  6
CONTINUOUS
 90
85
 70
0
 10
-11.210316053
 20
15.3580290934
 10
-11.2104092487
 20
15.3629453635
 10
-11.2106853961
 20
15.3677665034
 10
-11.2111393358
 20
15.3725095382
 10
-11.2117659084
 20
15.3771914929
 10
-11.2125599544
 20
15.3818293925
 10
-11.2135163146
 20
15.3864402621
 10
-11.214631171
 20
15.3910377359
 10
-11.2159060723
 20
15.3956218844
 10
-11.2173439088
 20
15.4001893876
 10
-11.2189475706
 20
15.4047369252
 10
-11.2207199481
 20
15.4092611771
 10
-11.2226639314
 20
15.413758823
 10
-11.2247814521
 20
15.4182247793
 10
-11.227070608
 20
15.4226469082
 10
-11.2295285378
 20
15.4270113084
 10
-11.2321523807
 20
15.4313040788
 10
-11.2349392756
 20
15.435511318
 10
-11.2378863614
 20
15.4396191249
 10
-11.2409907518
 20
15.4436149133
 10
-11.2442494588
 20
15.4474913588
 10
-11.2476594689
 20
15.4512424519
 10
-11.2512177687
 20
15.4548621833
 10
-11.2549213449
 20
15.4583445436
 10
-11.258767184
 20
15.4616835236
 10
-11.2627514544
 20
15.4648735414
 10
-11.2668670512
 20
15.4679107253
 10
-11.2711060514
 20
15.470791631
 10
-11.2754605318
 20
15.4735128145
 10
-11.2799225694
 20
15.4760708314
 10
-11.2844842409
 20
15.4784622376
 10
-11.2891381634
 20
15.4806836055
 10
-11.2938791133
 20
15.4827315746
 10
-11.2987024072
 20
15.4846028008
 10
-11.3036033616
 20
15.4862939401
 10
-11.308577293
 20
15.4878016486
 10
-11.3136195179
 20
15.4891225823
 10
-11.3187243959
 20
15.4902531997
 10
-11.3238824578
 20
15.4911891698
 10
-11.3290832776
 20
15.4919259641
 10
-11.3343164291
 20
15.492459054
 10
-11.3395714863
 20
15.4927839112
 10
-11.344838023
 20
15.492896007
 10
-11.3501056733
 20
15.4927922457
 10
-11.3553643114
 20
15.4924752626
 10
-11.3606038715
 20
15.4919491257
 10
-11.3658142881
 20
15.491217903
 10
-11.3709854954
 20
15.4902856626
 10
-11.3761074278
 20
15.4891564725
 10
-11.3811707881
 20
15.4878343094
 10
-11.386169353
 20
15.4863227858
 10
-11.3910976677
 20
15.4846254225
 10
-11.3959502775
 20
15.4827457408
 10
-11.4007217276
 20
15.4806872617
 10
-11.4054065631
 20
15.4784535062
 10
-11.4099990853
 20
15.4760477333
 10
-11.4144926188
 20
15.4734721536
 10
-11.418880244
 20
15.4707287155
 10
-11.4231550415
 20
15.4678193672
 10
-11.4273100918
 20
15.4647460574
 10
-11.4313384755
 20
15.4615107343
 10
-11.4352335174
 20
15.4581163129
 10
-11.4389895205
 20
15.4545695741
 10
-11.442601032
 20
15.4508782654
 10
-11.446062599
 20
15.4470501343
 10
-11.449368769
 20
15.4430929283
 10
-11.452514089
 20
15.4390143949
 10
-11.4554935053
 20
15.4348239276
 10
-11.458303559
 20
15.4305375049
 10
-11.4609411904
 20
15.426172751
 10
-11.4634033396
 20
15.4217472905
 10
-11.4656869468
 20
15.4172787478
 10
-11.467788952
 20
15.4127847474
 10
-11.4697076626
 20
15.4082802741
 10
-11.4714468552
 20
15.4037697551
 10
-11.4730116732
 20
15.3992549778
 10
-11.4744072603
 20
15.3947377297
 10
-11.4756387602
 20
15.3902197985
 10
-11.4767113165
 20
15.3857029715
 10
-11.4776285489
 20
15.3811858132
 10
-11.4783879813
 20
15.3766539951
 10
-11.4789856139
 20
15.3720899657
 10
-11.4794174467
 20
15.3674761733
 10
-11.4796794796
 20
15.3627950664
 10
-11.4797677128
 20
15.3580290934
  0
LWPOLYLINE
  5
2AF
100
AcDbEntity
  8
CURVE
100
AcDbPolyline
 62
253
  6
CONTINUOUS
 90
55
 70
0
 10
-11.5169415759
 20
-14.7759695261
 10
-11.5168761359
 20
-14.7800609897
 10
-11.5166811172
 20
-14.7841144566
 10
-11.5163584717
 20
-14.7881402939
 10
-11.5159101515
 20
-14.7921488686
 10
-11.5153381086
 20
-14.7961505478
 10
-11.5146437466
 20
-14.8001536026
 10
-11.5138262763
 20
-14.8041579199
 10
-11.51288436
 20
-14.808161291
 10
-11.51181666
 20
-14.8121615069
 10
-11.5106218388
 20
-14.8161563587
 10
-11.5092987655
 20
-14.8201429159
 10
-11.5078471369
 20
-14.8241153614
 10
-11.5062668566
 20
-14.8280671566
 10
-11.5045578281
 20
-14.8319917628
 10
-11.5027199551
 20
-14.8358826412
 10
-11.5010907877
 20
-14.8390934608
 10
-11.4993773368
 20
-14.8422659485
 10
-11.4975848615
 20
-14.8453897351
 10
-11.495716881
 20
-14.8484571682
 10
-11.4937699564
 20
-14.8514714621
 10
-11.491738909
 20
-14.8544385479
 10
-11.4896197522
 20
-14.8573624038
 10
-11.4874132678
 20
-14.8602391963
 10
-11.48512143
 20
-14.863063139
 10
-11.4827462126
 20
-14.8658284455
 10
-11.4802895895
 20
-14.8685293295
 10
-11.4777535348
 20
-14.8711600046
 10
-11.475140593
 20
-14.8737153193
 10
-11.4724555908
 20
-14.876192662
 10
-11.4697039255
 20
-14.8785900559
 10
-11.4668909945
 20
-14.8809055242
 10
-11.464022195
 20
-14.8831370903
 10
-11.4611029244
 20
-14.8852827774
 10
-11.4581366676
 20
-14.8873417688
 10
-11.4551192593
 20
-14.8893178883
 10
-11.452044622
 20
-14.8912161199
 10
-11.4489095977
 20
-14.8930395974
 10
-11.4457227071
 20
-14.8947840549
 10
-11.4424953902
 20
-14.8964433763
 10
-11.4385832807
 20
-14.8983153278
 10
-11.4346367535
 20
-14.9000558476
 10
-11.4306631307
 20
-14.901664907
 10
-11.4266697343
 20
-14.9031424772
 10
-11.4226638865
 20
-14.9044885296
 10
-11.4186519911
 20
-14.9057033089
 10
-11.4146367792
 20
-14.9067881539
 10
-11.4106200633
 20
-14.9077446766
 10
-11.4066036564
 20
-14.9085744894
 10
-11.4025893709
 20
-14.9092792043
 10
-11.398576969
 20
-14.909859828
 10
-11.394558009
 20
-14.9103149441
 10
-11.3905219986
 20
-14.9106425305
 10
-11.3864584454
 20
-14.9108405652
 10
-11.3823568571
 20
-14.9109070261
  0
LWPOLYLINE
  5
2B0
100
AcDbEntity
  8
CURVE
100
AcDbPolyline
 62
253
  6
CONTINUOUS
 90
54
 70
0
 10
-11.4797677128
 20
10.4872263169
 10
-11.4797138697
 20
10.4835068005
 10
-11.4795536894
 20
10.4798349709
 10
-11.4792891962
 20
10.4762033943
 10
-11.4789224138
 20
10.472604637
 10
-11.4784553664
 20
10.4690312652
 10
-11.4778900778
 20
10.4654758451
 10
-11.4772285721
 20
10.4619309429
 10
-11.4763369263
 20
10.4578008187
 10
-11.4753143976
 20
10.4536764017
 10
-11.4741583107
 20
10.4495592012
 10
-11.4728659899
 20
10.4454507265
 10
-11.4714347598
 20
10.4413524869
 10
-11.4698619449
 20
10.4372659917
 10
-11.4681457597
 20
10.433194365
 10
-11.4662879784
 20
10.4291471892
 10
-11.4642912651
 20
10.4251356617
 10
-11.4621582841
 20
10.4211709797
 10
-11.4598916994
 20
10.4172643404
 10
-11.4574941753
 20
10.4134269411
 10
-11.4553368016
 20
10.4102007103
 10
-11.4530859302
 20
10.4070368562
 10
-11.4507423065
 20
10.4039386588
 10
-11.4483066758
 20
10.4009093982
 10
-11.4457797835
 20
10.3979523541
 10
-11.4431623749
 20
10.3950708067
 10
-11.4404551954
 20
10.3922680359
 10
-11.4376595132
 20
10.3895471052
 10
-11.4347786876
 20
10.3869102121
 10
-11.4318166005
 20
10.3843593377
 10
-11.4287771341
 20
10.3818964632
 10
-11.4256641704
 20
10.3795235695
 10
-11.4224815914
 20
10.3772426377
 10
-11.4192332793
 20
10.375055649
 10
-11.4159237501
 20
10.3729645457
 10
-11.4125600567
 20
10.3709711159
 10
-11.4091498858
 20
10.3690771088
 10
-11.4057009243
 20
10.3672842739
 10
-11.402220859
 20
10.3655943604
 10
-11.3987173768
 20
10.3640091178
 10
-11.3951981646
 20
10.3625302953
 10
-11.3910809295
 20
10.3609408716
 10
-11.3869537845
 20
10.359495649
 10
-11.3828177678
 20
10.3581915979
 10
-11.3786739171
 20
10.3570256885
 10
-11.3745232704
 20
10.3559948914
 10
-11.3703668658
 20
10.3550961768
 10
-11.3667990781
 20
10.3544293445
 10
-11.3632203227
 20
10.3538594036
 10
-11.3596230996
 20
10.3533884309
 10
-11.3559999089
 20
10.3530185034
 10
-11.3523432506
 20
10.352751698
 10
-11.3486456248
 20
10.3525900917
 10
-11.3448995315
 20
10.3525357613
  0
LWPOLYLINE
  5
2B1
100
AcDbEntity
  8
CURVE
100
AcDbPolyline
 62
253
  6
CONTINUOUS
 90
54
 70
0
 10
-11.4797677128
 20
14.4035535381
 10
-11.4797138225
 20
14.3998333748
 10
-11.4795535053
 20
14.3961609066
 10
-11.4792887914
 20
14.3925287098
 10
-11.4789217113
 20
14.3889293601
 10
-11.4784542953
 20
14.3853554338
 10
-11.477888574
 20
14.3817995068
 10
-11.4772265776
 20
14.378254155
 10
-11.4763342939
 20
14.3741235878
 10
-11.4753110624
 20
14.3699988094
 10
-11.474154213
 20
14.3658813194
 10
-11.4728610753
 20
14.3617726174
 10
-11.4714289789
 20
14.3576742031
 10
-11.4698552538
 20
14.3535875758
 10
-11.46813812
 20
14.3495158518
 10
-11.4662793604
 20
14.3454686129
 10
-11.4642816481
 20
14.3414570577
 10
-11.4621476564
 20
14.3374923848
 10
-11.4598800586
 20
14.3335857925
 10
-11.4574815279
 20
14.3297484793
 10
-11.4553233047
 20
14.326522354
 10
-11.4530716085
 20
14.3233586332
 10
-11.4507271977
 20
14.320260595
 10
-11.448290831
 20
14.3172315173
 10
-11.4457632668
 20
14.3142746784
 10
-11.4431452637
 20
14.3113933561
 10
-11.4404375801
 20
14.3085908286
 10
-11.4376414947
 20
14.3058701569
 10
-11.4347603659
 20
14.3032335335
 10
-11.4317980723
 20
14.3006829341
 10
-11.4287584923
 20
14.2982203341
 10
-11.4256455044
 20
14.2958477092
 10
-11.4224629872
 20
14.2935670348
 10
-11.4192148191
 20
14.2913802866
 10
-11.4159055132
 20
14.2892894028
 10
-11.4125421203
 20
14.2872961729
 10
-11.4091323258
 20
14.2854023491
 10
-11.4056838152
 20
14.2836096836
 10
-11.4022042738
 20
14.2819199285
 10
-11.398701387
 20
14.280334836
 10
-11.3951828403
 20
14.2788561584
 10
-11.3910664676
 20
14.2772668998
 10
-11.3869402719
 20
14.2758218379
 10
-11.3828052843
 20
14.2745179419
 10
-11.378662536
 20
14.2733521814
 10
-11.3745130582
 20
14.2723215254
 10
-11.3703578822
 20
14.2714229435
 10
-11.3667911922
 20
14.270756217
 10
-11.3632135821
 20
14.2701863724
 10
-11.3596175604
 20
14.269715484
 10
-11.3559956359
 20
14.2693456264
 10
-11.3523403171
 20
14.2690788739
 10
-11.3486441128
 20
14.2689173012
 10
-11.3448995315
 20
14.2688629826
  0
LWPOLYLINE
  5
2B2
100
AcDbEntity
  8
CURVE
100
AcDbPolyline
 62
253
  6
CONTINUOUS
 90
54
 70
0
 10
-11.5169415759
 20
-11.8192331379
 10
-11.5168878792
 20
-11.8229608794
 10
-11.5167281341
 20
-11.8266404971
 10
-11.5164643587
 20
-11.8302794578
 10
-11.5160985708
 20
-11.8338852286
 10
-11.5156327882
 20
-11.8374652764
 10
-11.5150690289
 20
-11.8410270682
 10
-11.5144093108
 20
-11.8445780709
 10
-11.5135200679
 20
-11.8487150024
 10
-11.5125002703
 20
-11.8528458857
 10
-11.5113472271
 20
-11.8569691944
 10
-11.5100582477
 20
-11.861083402
 10
-11.5086306414
 20
-11.8651869822
 10
-11.5070617175
 20
-11.8692784083
 10
-11.5053496692
 20
-11.8733545381
 10
-11.5034962258
 20
-11.877405765
 10
-11.5015040005
 20
-11.8814208666
 10
-11.4993756066
 20
-11.8853886206
 10
-11.4971136573
 20
-11.8892978044
 10
-11.4947207659
 20
-11.8931371956
 10
-11.4925673355
 20
-11.8963646733
 10
-11.490320415
 20
-11.8995293236
 10
-11.4879807966
 20
-11.9026278404
 10
-11.4855492728
 20
-11.9056569175
 10
-11.4830266358
 20
-11.9086132488
 10
-11.4804136779
 20
-11.911493528
 10
-11.4777111915
 20
-11.914294449
 10
-11.4749204826
 20
-11.9170129433
 10
-11.4720449121
 20
-11.9196468927
 10
-11.4690883549
 20
-11.9221944166
 10
-11.4660546855
 20
-11.9246536344
 10
-11.4629477787
 20
-11.9270226654
 10
-11.4597715092
 20
-11.9292996293
 10
-11.4565297518
 20
-11.9314826452
 10
-11.4532270093
 20
-11.9335698579
 10
-11.4498702977
 20
-11.9355595124
 10
-11.4464672613
 20
-11.9374498791
 10
-11.4430255441
 20
-11.9392392282
 10
-11.4395527906
 20
-11.9409258301
 10
-11.4360566447
 20
-11.9425079549
 10
-11.4325447509
 20
-11.9439838731
 10
-11.4284359965
 20
-11.9455701968
 10
-11.4243173155
 20
-11.9470126222
 10
-11.4201898114
 20
-11.9483141641
 10
-11.4160545878
 20
-11.9494778377
 10
-11.4119127482
 20
-11.9505066579
 10
-11.4077653963
 20
-11.9514036398
 10
-11.4042056007
 20
-11.9520691732
 10
-11.4006350312
 20
-11.9526379922
 10
-11.397046153
 20
-11.9531080283
 10
-11.3934314313
 20
-11.9534772129
 10
-11.3897833313
 20
-11.9537434773
 10
-11.3860943182
 20
-11.9539047529
 10
-11.3823568571
 20
-11.9539589712
  0
LINE
  5
2B3
100
AcDbEntity
  8
CURVE
100
AcDbLine
 62
253
  6
CONTINUOUS
 10
-11.5169415759
 20
-11.3490509158
 11
-11.5169415759
 21
-11.8192331356
  0
LINE
  5
2B4
100
AcDbEntity
  8
CURVE
100
AcDbLine
 62
253
  6
CONTINUOUS
 10
-11.5169415759
 20
-14.3059636929
 11
-11.5169415759
 21
-14.7759695116
  0
LINE
  5
2B5
100
AcDbEntity
  8
CURVE
100
AcDbLine
 62
253
  6
CONTINUOUS
 10
-11.4797677128
 20
15.3580290934
 11
-11.4797677128
 21
14.4035535559
  0
LINE
  5
2B6
100
AcDbEntity
  8
CURVE
100
AcDbLine
 62
253
  6
CONTINUOUS
 10
-11.4797677128
 20
11.4418782611
 11
-11.4797677128
 21
10.4872262921
  0
LINE
  5
2B7
100
AcDbEntity
  8
CURVE
100
AcDbLine
 62
253
  6
CONTINUOUS
 10
-11.2474899161
 20
-14.7759695261
 11
-11.2474899161
 21
-14.3059637073
  0
LINE
  5
2B8
100
AcDbEntity
  8
CURVE
100
AcDbLine
 62
253
  6
CONTINUOUS
 10
-11.2474899161
 20
-11.8192331379
 11
-11.2474899161
 21
-11.349050918
  0
LINE
  5
2B9
100
AcDbEntity
  8
CURVE
100
AcDbLine
 62
253
  6
CONTINUOUS
 10
-11.210316053
 20
10.4872263169
 11
-11.210316053
 21
11.441878286
  0
LINE
  5
2BA
100
AcDbEntity
  8
CURVE
100
AcDbLine
 62
253
  6
CONTINUOUS
 10
-11.210316053
 20
14.4035535381
 11
-11.210316053
 21
15.3580290757
  0
LWPOLYLINE
  5
2BB
100
AcDbEntity
  8
CURVE
100
AcDbPolyline
 62
253
  6
CONTINUOUS
 90
81
 70
0
 10
-11.879006263
 20
-13.0623514688
 10
-11.8786199483
 20
-13.0426066658
 10
-11.8774694963
 20
-13.0231532065
 10
-11.8755676458
 20
-13.0039292247
 10
-11.8729271353
 20
-12.984872854
 10
-11.8695574516
 20
-12.9659344426
 10
-11.8654550732
 20
-12.947113195
 10
-11.8606132272
 20
-12.9284205305
 10
-11.8550251401
 20
-12.9098678678
 10
-11.8486877362
 20
-12.8914732138
 10
-11.8416127289
 20
-12.873280926
 10
-11.8338155291
 20
-12.8553419497
 10
-11.8253115477
 20
-12.8377072303
 10
-11.8161170713
 20
-12.8204239852
 10
-11.8062518903
 20
-12.8035245217
 10
-11.7957366708
 20
-12.787037419
 10
-11.7845920791
 20
-12.7709912565
 10
-11.7728380854
 20
-12.7554126965
 10
-11.7604918776
 20
-12.740320733
 10
-11.7475699476
 20
-12.7257324428
 10
-11.7340887873
 20
-12.7116649027
 10
-11.7200648898
 20
-12.6981351821
 10
-11.7055147524
 20
-12.6851603202
 10
-11.6904548736
 20
-12.6727573486
 10
-11.6749017517
 20
-12.6609432991
 10
-11.6588742658
 20
-12.6497359737
 10
-11.6424008178
 20
-12.6391562553
 10
-11.6255121899
 20
-12.6292257975
 10
-11.6082391647
 20
-12.6199662534
 10
-11.5906132669
 20
-12.6113976229
 10
-11.5726689903
 20
-12.6035332909
 10
-11.5544415711
 20
-12.5963849884
 10
-11.5359662454
 20
-12.5899644468
 10
-11.5172763378
 20
-12.5842821695
 10
-11.498397526
 20
-12.5793437492
 10
-11.4793535762
 20
-12.5751535507
 10
-11.4601682545
 20
-12.571715939
 10
-11.440865327
 20
-12.569035279
 10
-11.4214685598
 20
-12.5671159356
 10
-11.4020017192
 20
-12.5659622738
 10
-11.3824885712
 20
-12.5655786584
 10
-11.362954722
 20
-12.5659679037
 10
-11.3434331375
 20
-12.5671266213
 10
-11.3239586237
 20
-12.5690498721
 10
-11.3045659866
 20
-12.5717327172
 10
-11.2852900322
 20
-12.5751702175
 10
-11.2661655665
 20
-12.5793574339
 10
-11.2472273955
 20
-12.5842894273
 10
-11.2285103251
 20
-12.5899612588
 10
-11.2100472901
 20
-12.5963665909
 10
-11.1918637402
 20
-12.6034934926
 10
-11.1739832541
 20
-12.6113286345
 10
-11.1564294102
 20
-12.6198586871
 10
-11.1392257872
 20
-12.6290703211
 10
-11.1223959635
 20
-12.638950207
 10
-11.1059635177
 20
-12.6494850155
 10
-11.0899520284
 20
-12.6606614172
 10
-11.0743854254
 20
-12.6724647733
 10
-11.0592890443
 20
-12.6848752084
 10
-11.0446885717
 20
-12.6978715377
 10
-11.0306096945
 20
-12.7114325764
 10
-11.0170768704
 20
-12.7255370424
 10
-11.00410964
 20
-12.7401632648
 10
-10.9917263153
 20
-12.7552894754
 10
-10.9799452077
 20
-12.7708939059
 10
-10.9687844719
 20
-12.7869541977
 10
-10.9582616335
 20
-12.8034456302
 10
-10.9483940608
 20
-12.8203428925
 10
-10.9391991222
 20
-12.8376206735
 10
-10.9306938813
 20
-12.8552495709
 10
-10.9228941814
 20
-12.8731838169
 10
-10.9158155611
 20
-12.8913735523
 10
-10.9094735587
 20
-12.9097689178
 10
-10.9038800725
 20
-12.9283263172
 10
-10.899032439
 20
-12.9470272066
 10
-10.8949243545
 20
-12.9658593048
 10
-10.8915495152
 20
-12.984810331
 10
-10.8889048045
 20
-13.0038804004
 10
-10.8869998543
 20
-13.0231192146
 10
-10.8858474835
 20
-13.0425888714
 10
-10.8854605112
 20
-13.0623514688
  0
LWPOLYLINE
  5
2BC
100
AcDbEntity
  8
CURVE
100
AcDbPolyline
 62
253
  6
CONTINUOUS
 90
81
 70
0
 10
-10.8854605112
 20
-13.0623514688
 10
-10.8858468351
 20
-13.0820964965
 10
-10.8869973132
 20
-13.1015501687
 10
-10.888899205
 20
-13.1207743526
 10
-10.8915397703
 20
-13.139830915
 10
-10.8949095215
 20
-13.1587695101
 10
-10.8990119832
 20
-13.1775909404
 10
-10.903853933
 20
-13.1962837953
 10
-10.9094421485
 20
-13.2148366645
 10
-10.9157797086
 20
-13.2332315461
 10
-10.9228548976
 20
-13.251424073
 10
-10.9306523013
 20
-13.2693632869
 10
-10.9391565054
 20
-13.2869982295
 10
-10.9483512192
 20
-13.3042816714
 10
-10.9582166458
 20
-13.3211813006
 10
-10.9687321122
 20
-13.3376685338
 10
-10.979876945
 20
-13.3537147879
 10
-10.991631168
 20
-13.3692933984
 10
-11.0039775925
 20
-13.3843853747
 10
-11.0168997265
 20
-13.3989736447
 10
-11.0303810783
 20
-13.4130411364
 10
-11.0444051535
 20
-13.4265707842
 10
-11.058955447
 20
-13.4395455481
 10
-11.0740154513
 20
-13.4519483944
 10
-11.0895686588
 20
-13.4637622895
 10
-11.1055961835
 20
-13.4749694312
 10
-11.1220696265
 20
-13.4855489431
 10
-11.1389582106
 20
-13.49547918
 10
-11.1562311584
 20
-13.5047384971
 10
-11.1738569491
 20
-13.5133069019
 10
-11.1918010866
 20
-13.521171013
 10
-11.2100283312
 20
-13.5283191017
 10
-11.2285034433
 20
-13.5347394392
 10
-11.2471930964
 20
-13.5404215246
 10
-11.2660716165
 20
-13.5453597681
 10
-11.2851152428
 20
-13.5495498078
 10
-11.3043002147
 20
-13.5529872816
 10
-11.3236027714
 20
-13.5556678277
 10
-11.3429991521
 20
-13.5575870839
 10
-11.3624655962
 20
-13.5587406884
 10
-11.3819783427
 20
-13.5591242792
 10
-11.401511791
 20
-13.558735044
 10
-11.4210329797
 20
-13.5575763696
 10
-11.4405071075
 20
-13.5556531926
 10
-11.459899373
 20
-13.5529704494
 10
-11.4791749748
 20
-13.5495330766
 10
-11.4982991117
 20
-13.5453460107
 10
-11.5172369821
 20
-13.5404141882
 10
-11.5359537848
 20
-13.5347425457
 10
-11.554416589
 20
-13.5283374175
 10
-11.5725999463
 20
-13.5212107298
 10
-11.5904802791
 20
-13.5133758062
 10
-11.6080340097
 20
-13.5048459708
 10
-11.6252375602
 20
-13.4956345474
 10
-11.6420673529
 20
-13.4857548599
 10
-11.6584998103
 20
-13.4752202321
 10
-11.6745113544
 20
-13.4640439881
 10
-11.6900780548
 20
-13.4522407619
 10
-11.7051745693
 20
-13.4398304289
 10
-11.7197752032
 20
-13.4268341747
 10
-11.7338542614
 20
-13.4132731852
 10
-11.7473872793
 20
-13.3991687424
 10
-11.760354714
 20
-13.3845425155
 10
-11.7727382524
 20
-13.3694162699
 10
-11.7845195817
 20
-13.3538117712
 10
-11.7956805456
 20
-13.3377513764
 10
-11.8062036136
 20
-13.321259808
 10
-11.8160714116
 20
-13.3043623799
 10
-11.8252665656
 20
-13.2870844059
 10
-11.8337720069
 20
-13.2694552932
 10
-11.8415718885
 20
-13.2515208211
 10
-11.8486506687
 20
-13.2333308623
 10
-11.8549928058
 20
-13.2149352894
 10
-11.8605863998
 20
-13.1963777082
 10
-11.8654341176
 20
-13.1776766579
 10
-11.8695422679
 20
-13.158844411
 10
-11.872917159
 20
-13.1398932398
 10
-11.8755619115
 20
-13.1208230216
 10
-11.8774668933
 20
-13.1015840528
 10
-11.8786192839
 20
-13.0821142348
 10
-11.879006263
 20
-13.0623514688
  0
LINE
  5
2BD
100
AcDbEntity
  8
ASSI
100
AcDbLine
 62
253
  6
CONTINUOUS
 10
-22.4802152431
 20
0.2380787757
 11
-22.3718437157
 21
0.2922604127
  0
LWPOLYLINE
  5
2BE
100
AcDbEntity
  8
CURVE
100
AcDbPolyline
 62
253
  6
CONTINUOUS
 90
54
 70
0
 10
-11.3823568571
 20
-11.9539589712
 10
-11.3786280014
 20
-11.9539053587
 10
-11.3749472246
 20
-11.953745856
 10
-11.3713070319
 20
-11.9534824645
 10
-11.3676999285
 20
-11.9531171859
 10
-11.3641184194
 20
-11.952652022
 10
-11.3605550099
 20
-11.9520889744
 10
-11.3570022051
 20
-11.9514300448
 10
-11.352862912
 20
-11.9505417982
 10
-11.3487293993
 20
-11.9495230596
 10
-11.3446032146
 20
-11.9483711186
 10
-11.3404859054
 20
-11.9470832649
 10
-11.3363790193
 20
-11.9456567879
 10
-11.3322841038
 20
-11.9440889774
 10
-11.3282043206
 20
-11.9423780071
 10
-11.3241492882
 20
-11.940525588
 10
-11.320130239
 20
-11.9385343152
 10
-11.3161584057
 20
-11.9364067839
 10
-11.3122450207
 20
-11.934145589
 10
-11.3084013167
 20
-11.9317533258
 10
-11.3051700615
 20
-11.9296003139
 10
-11.3020015677
 20
-11.9273536598
 10
-11.2988991499
 20
-11.9250141097
 10
-11.2958661227
 20
-11.9225824099
 10
-11.2929058009
 20
-11.9200593066
 10
-11.2900214991
 20
-11.9174455461
 10
-11.287216532
 20
-11.9147418747
 10
-11.2844939804
 20
-11.9119495622
 10
-11.2818559894
 20
-11.9090719732
 10
-11.2793044704
 20
-11.9061129961
 10
-11.2768413347
 20
-11.903076519
 10
-11.2744684936
 20
-11.8999664302
 10
-11.2721878584
 20
-11.896786618
 10
-11.2700013404
 20
-11.8935409706
 10
-11.2679108196
 20
-11.8902340058
 10
-11.2659180508
 20
-11.8868727596
 10
-11.2640247577
 20
-11.8834648978
 10
-11.2622326637
 20
-11.8800180858
 10
-11.2605434924
 20
-11.8765399894
 10
-11.2589589674
 20
-11.873038274
 10
-11.2574808122
 20
-11.8695206053
 10
-11.2558920772
 20
-11.8654048787
 10
-11.2544474481
 20
-11.8612789838
 10
-11.2531439037
 20
-11.857144033
 10
-11.251978423
 20
-11.8530011385
 10
-11.2509479848
 20
-11.8488514126
 10
-11.2500495679
 20
-11.8446959674
 10
-11.249382948
 20
-11.8411290713
 10
-11.2488131822
 20
-11.8375512283
 10
-11.2483423493
 20
-11.8339548765
 10
-11.2479725276
 20
-11.8303324536
 10
-11.2477057958
 20
-11.8266763976
 10
-11.2475442325
 20
-11.8229791464
 10
-11.2474899161
 20
-11.8192331379
  0
LINE
  5
2BF
100
AcDbEntity
  8
ASSI
100
AcDbLine
 62
253
  6
CONTINUOUS
 10
-22.3718437157
 20
-0.4160571708
 11
-22.4802152431
 21
-0.3618755338
  0
LWPOLYLINE
  5
2C0
100
AcDbEntity
  8
ASSI
100
AcDbPolyline
 62
253
  6
CONTINUOUS
 90
85
 70
0
 10
-9.9596074754
 20
4.439001801
 10
-9.9605356878
 20
4.3866518323
 10
-9.9634256144
 20
4.3343317025
 10
-9.9682772554
 20
4.2820414121
 10
-9.9750911702
 20
4.229679152
 10
-9.9838667993
 20
4.1773467325
 10
-9.9946024639
 20
4.1253495845
 10
-10.0073185811
 20
4.0736896283
 10
-10.0219947338
 20
4.0223649466
 10
-10.0385679925
 20
3.9716752156
 10
-10.0570560252
 20
3.9216298822
 10
-10.077441164
 20
3.8722195037
 10
-10.0996074753
 20
3.8237154232
 10
-10.1235552359
 20
3.7761472613
 10
-10.1492841691
 20
3.7294854025
 10
-10.1766775109
 20
3.6839123366
 10
-10.2057316366
 20
3.6394419102
 10
-10.236450171
 20
3.596060282
 10
-10.2687272239
 20
3.5539084106
 10
-10.3025732029
 20
3.5129796189
 10
-10.3379777005
 20
3.4732805889
 10
-10.3748036042
 20
3.434972319
 10
-10.4130649557
 20
3.3980534832
 10
-10.4527477134
 20
3.3625254123
 10
-10.4936726402
 20
3.3285530895
 10
-10.5358431687
 20
3.296147186
 10
-10.5792558663
 20
3.2652970351
 10
-10.6237211984
 20
3.2361356147
 10
-10.6692396494
 20
3.2086726834
 10
-10.715810735
 20
3.1828984864
 10
-10.7632434674
 20
3.1589167311
 10
-10.8115414213
 20
3.1367340747
 10
-10.8607010219
 20
3.1163438633
 10
-10.9105205568
 20
3.097829837
 10
-10.9610049095
 20
3.0811989231
 10
-11.0121491966
 20
3.066444197
 10
-11.0637370546
 20
3.0536286206
 10
-11.1157702117
 20
3.0427606436
 10
-11.1682469397
 20
3.0338318181
 10
-11.2209456909
 20
3.0268797605
 10
-11.2738666069
 20
3.0219129031
 10
-11.3270095462
 20
3.0189228145
 10
-11.3801525363
 20
3.0179218151
 10
-11.4332955604
 20
3.0189181166
 10
-11.4864386353
 20
3.0219035073
 10
-11.53935984
 20
3.026865673
 10
-11.5920590264
 20
3.0338130347
 10
-11.6445363425
 20
3.0427371706
 10
-11.6965703109
 20
3.0536005009
 10
-11.7481592574
 20
3.0664114871
 10
-11.7993048561
 20
3.081161666
 10
-11.8497906516
 20
3.0977880716
 10
-11.899611785
 20
3.11629766
 10
-11.9487731153
 20
3.1366834726
 10
-11.9970727638
 20
3.1588616711
 10
-12.0445070264
 20
3.1828388437
 10
-12.0910796073
 20
3.2086083991
 10
-12.1365997404
 20
3.2360667293
 10
-12.181066875
 20
3.2652234732
 10
-12.2244815617
 20
3.2960689881
 10
-12.2666546868
 20
3.3284707441
 10
-12.307583058
 20
3.362439564
 10
-12.3472698676
 20
3.3979646205
 10
-12.3855355779
 20
3.4348809091
 10
-12.4223663642
 20
3.4731875064
 10
-12.4577760512
 20
3.5128853309
 10
-12.4916265763
 20
3.5538121408
 10
-12.5239071577
 20
3.5959610109
 10
-12.5546285772
 20
3.6393388614
 10
-12.5836851179
 20
3.6838042179
 10
-12.6110800195
 20
3.7293699905
 10
-12.6368100423
 20
3.7760232639
 10
-12.6607597502
 20
3.8235838265
 10
-12.6829292354
 20
3.8720811456
 10
-12.7033184058
 20
3.9214857488
 10
-12.7218115487
 20
3.9715290161
 10
-12.7383914764
 20
4.0222212366
 10
-12.7530753767
 20
4.073552117
 10
-12.7657991007
 20
4.1252221649
 10
-12.7765422443
 20
4.177233924
 10
-12.7853252116
 20
4.2295848478
 10
-12.7921450657
 20
4.2819678104
 10
-12.7970008274
 20
4.3342804364
 10
-12.7998934758
 20
4.3866251002
 10
-12.8008230109
 20
4.439001801
  0
LWPOLYLINE
  5
2C1
100
AcDbEntity
  8
ASSI
100
AcDbPolyline
 62
253
  6
CONTINUOUS
 90
85
 70
0
 10
-9.9596074754
 20
-4.5627985591
 10
-9.9605517741
 20
-4.6151383367
 10
-9.9634570505
 20
-4.6674477663
 10
-9.9683233046
 20
-4.7197268475
 10
-9.9751511191
 20
-4.7720773399
 10
-9.9839399113
 20
-4.8243974826
 10
-9.9946879328
 20
-4.8763819957
 10
-10.0074155862
 20
-4.9280289572
 10
-10.0221024689
 20
-4.9793402899
 10
-10.0386856249
 20
-5.0300164823
 10
-10.0571827113
 20
-5.080048101
 10
-10.077576071
 20
-5.1294445822
 10
-10.0997497766
 20
-5.1779347199
 10
-10.1237041123
 20
-5.2254889324
 10
-10.1494387939
 20
-5.272136806
 10
-10.1768370402
 20
-5.3176958878
 10
-10.2058952287
 20
-5.3621523316
 10
-10.2366169819
 20
-5.405519989
 10
-10.268896387
 20
-5.4476579552
 10
-10.3027438414
 20
-5.4885728929
 10
-10.3381489477
 20
-5.5282581454
 10
-10.3749746001
 20
-5.5665528289
 10
-10.4132348326
 20
-5.6034582704
 10
-10.4529156113
 20
-5.6389731494
 10
-10.4938377278
 20
-5.6729326119
 10
-10.536004608
 20
-5.7053259942
 10
-10.5794128261
 20
-5.7361639668
 10
-10.6238728964
 20
-5.7653136772
 10
-10.6693852903
 20
-5.7927653711
 10
-10.7159495363
 20
-5.8185288092
 10
-10.7633747341
 20
-5.842500412
 10
-10.811664446
 20
-5.8646735294
 10
-10.8608151097
 20
-5.8850548172
 10
-10.9106251376
 20
-5.9035606542
 10
-10.9610993987
 20
-5.9201841232
 10
-11.012233024
 20
-5.934932146
 10
-11.0638098195
 20
-5.9477418604
 10
-11.1158315059
 20
-5.9586048314
 10
-11.1682963625
 20
-5.9675294971
 10
-11.2209830333
 20
-5.9744783052
 10
-11.273891654
 20
-5.979442838
 10
-11.3270220888
 20
-5.9824315148
 10
-11.3801525744
 20
-5.9834320373
 10
-11.4332830938
 20
-5.9824362087
 10
-11.4864136641
 20
-5.9794522259
 10
-11.539322573
 20
-5.9744923809
 10
-11.5920096785
 20
-5.9675482647
 10
-11.6444751227
 20
-5.9586282846
 10
-11.6964976196
 20
-5.9477699565
 10
-11.7480755026
 20
-5.9349648285
 10
-11.7992104382
 20
-5.9202213491
 10
-11.8496861404
 20
-5.9036023848
 10
-11.899497765
 20
-5.8851009822
 10
-11.9486501561
 20
-5.86472409
 10
-11.9969415605
 20
-5.842555427
 10
-12.0443682865
 20
-5.8185884036
 10
-12.0909340256
 20
-5.7928296037
 10
-12.1364480994
 20
-5.7653825075
 10
-12.18090997
 20
-5.7362374701
 10
-12.2243201752
 20
-5.70540413
 10
-12.2664896497
 20
-5.673014892
 10
-12.3074152081
 20
-5.6390589293
 10
-12.3471000358
 20
-5.6035470621
 10
-12.3853646238
 20
-5.5666441661
 10
-12.4221951543
 20
-5.5283511548
 10
-12.4576054451
 20
-5.4886671081
 10
-12.4914574408
 20
-5.4477541528
 10
-12.5237403693
 20
-5.4056191887
 10
-12.5544650027
 20
-5.3622553099
 10
-12.5835256016
 20
-5.3178039353
 10
-12.6109254041
 20
-5.2722521434
 10
-12.6366611723
 20
-5.2256128502
 10
-12.6606174523
 20
-5.1780662317
 10
-12.6827943286
 20
-5.1295828492
 10
-12.7031917168
 20
-5.0801921369
 10
-12.7216939103
 20
-5.0301625808
 10
-12.7382837316
 20
-4.9794838997
 10
-12.7529783582
 20
-4.9281663719
 10
-12.7657136157
 20
-4.8765093254
 10
-12.7764691148
 20
-4.8245102118
 10
-12.785265245
 20
-4.7721715784
 10
-12.7920990002
 20
-4.7198003985
 10
-12.7969693787
 20
-4.6674989972
 10
-12.7998773822
 20
-4.6151650506
 10
-12.8008230109
 20
-4.5627985591
  0
LWPOLYLINE
  5
2C2
100
AcDbEntity
  8
ASSI
100
AcDbPolyline
 62
253
  6
CONTINUOUS
 90
85
 70
0
 10
-10.0595922449
 20
4.4381016209
 10
-10.0604768312
 20
4.389550337
 10
-10.0631585048
 20
4.3408926405
 10
-10.0676526305
 20
4.2921958449
 10
-10.0739756782
 20
4.2435042199
 10
-10.0821361437
 20
4.1949120282
 10
-10.0921254436
 20
4.1465619228
 10
-10.1039406362
 20
4.0985229497
 10
-10.1175757329
 20
4.0508659612
 10
-10.1329972045
 20
4.0037329679
 10
-10.1501844124
 20
3.9571945465
 10
-10.1691165107
 20
3.9113138592
 10
-10.1897408129
 20
3.8662156125
 10
-10.2120125362
 20
3.8219828414
 10
-10.235905708
 20
3.7786533628
 10
-10.2613864729
 20
3.7362794639
 10
-10.2884088806
 20
3.6949284954
 10
-10.3169378122
 20
3.6546456614
 10
-10.3469573244
 20
3.6154508153
 10
-10.3784333137
 20
3.5773909773
 10
-10.4113159428
 20
3.5405287859
 10
-10.4455674658
 20
3.5049088197
 10
-10.4811486659
 20
3.4705757008
 10
-10.5180044139
 20
3.4375863196
 10
-10.5560696667
 20
3.4060003039
 10
-10.5952879631
 20
3.3758642128
 10
-10.6356071483
 20
3.3472178371
 10
-10.6769643089
 20
3.3201053424
 10
-10.7192971993
 20
3.294566219
 10
-10.7625496444
 20
3.2706330699
 10
-10.8066656637
 20
3.2483362488
 10
-10.8515836786
 20
3.2277066445
 10
-10.8972403376
 20
3.2087731221
 10
-10.9435758344
 20
3.1915605042
 10
-10.990527393
 20
3.1760925303
 10
-11.0380273132
 20
3.1623919178
 10
-11.0860072228
 20
3.1504785562
 10
-11.1343997045
 20
3.1403692307
 10
-11.1831371357
 20
3.1320781126
 10
-11.2321498795
 20
3.1256170249
 10
-11.2813684953
 20
3.1209949802
 10
-11.3307247357
 20
3.1182182469
 10
-11.3801503088
 20
3.1172906162
 10
-11.4295759394
 20
3.1182133853
 10
-11.4789323844
 20
3.1209852587
 10
-11.528151399
 20
3.1256024533
 10
-11.5771647298
 20
3.132058708
 10
-11.6259029411
 20
3.1403450188
 10
-11.6742964564
 20
3.1504495853
 10
-11.7222777065
 20
3.162358266
 10
-11.7697792123
 20
3.1760542798
 10
-11.8167324902
 20
3.1915177146
 10
-11.8630698613
 20
3.2087258647
 10
-11.9087285242
 20
3.2276549851
 10
-11.9536485035
 20
3.2482801744
 10
-11.9977663359
 20
3.2705724877
 10
-12.0410205766
 20
3.294501075
 10
-12.0833554429
 20
3.3200356848
 10
-12.1247146654
 20
3.3471436569
 10
-12.1650360955
 20
3.3757855653
 10
-12.2042572563
 20
3.4059176023
 10
-12.2423261478
 20
3.4375002021
 10
-12.2791860537
 20
3.4704867033
 10
-12.3147717257
 20
3.5048173745
 10
-12.3490282785
 20
3.5404356566
 10
-12.3819161543
 20
3.5772966697
 10
-12.4133966609
 20
3.6153547175
 10
-12.4434198218
 20
3.6545467758
 10
-12.4719518762
 20
3.6948260399
 10
-12.4989768157
 20
3.736172322
 10
-12.5244592008
 20
3.77853955
 10
-12.5483537379
 20
3.8218610686
 10
-12.5706277715
 20
3.866086728
 10
-12.5912552362
 20
3.9111787863
 10
-12.6101912449
 20
3.9570542746
 10
-12.6273837949
 20
4.003590835
 10
-12.6428119143
 20
4.0507262325
 10
-12.6564542834
 20
4.0983892234
 10
-12.6682769661
 20
4.1464378134
 10
-12.678273655
 20
4.1948015341
 10
-12.6864409354
 20
4.2434110205
 10
-12.6927697143
 20
4.2921225145
 10
-12.6972682022
 20
4.3408413349
 10
-12.6999526722
 20
4.3895235041
 10
-12.7008382414
 20
4.4381016209
  0
LWPOLYLINE
  5
2C3
100
AcDbEntity
  8
ASSI
100
AcDbPolyline
 62
253
  6
CONTINUOUS
 90
85
 70
0
 10
-10.0595922449
 20
-4.5618983791
 10
-10.0604929442
 20
-4.6104401938
 10
-10.0631900412
 20
-4.6590878047
 10
-10.0676988941
 20
-4.7077739286
 10
-10.074035997
 20
-4.7564543107
 10
-10.0822098108
 20
-4.8050347289
 10
-10.0922116656
 20
-4.8533726104
 10
-10.1040386258
 20
-4.9013989506
 10
-10.1176847091
 20
-4.9490429306
 10
-10.1331163182
 20
-4.9961626289
 10
-10.1503128343
 20
-5.042687526
 10
-10.16925343
 20
-5.0885544872
 10
-10.189885362
 20
-5.1336388696
 10
-10.2121638848
 20
-5.1778577204
 10
-10.2360630484
 20
-5.2211732295
 10
-10.2615489165
 20
-5.263533078
 10
-10.2885755601
 20
-5.3048699652
 10
-10.3171078921
 20
-5.3451387322
 10
-10.3471298894
 20
-5.3843195058
 10
-10.3786074629
 20
-5.4223653028
 10
-10.4114908107
 20
-5.4592135479
 10
-10.4457421335
 20
-5.4948196979
 10
-10.4813222431
 20
-5.5291391815
 10
-10.5181760447
 20
-5.5621151589
 10
-10.5562384523
 20
-5.5936880515
 10
-10.5954530437
 20
-5.623811357
 10
-10.6357677054
 20
-5.6524453296
 10
-10.677119488
 20
-5.6795458483
 10
-10.719446187
 20
-5.7050734746
 10
-10.7626916819
 20
-5.7289956534
 10
-10.8067999799
 20
-5.7512820805
 10
-10.8517095527
 20
-5.7719019146
 10
-10.8973571105
 20
-5.7908263335
 10
-10.9436828569
 20
-5.8080305641
 10
-10.9906240721
 20
-5.823490907
 10
-11.0381131278
 20
-5.8371846806
 10
-11.0860816904
 20
-5.8490920399
 10
-11.1344624119
 20
-5.8591962313
 10
-11.183187743
 20
-5.8674831056
 10
-11.2321880968
 20
-5.873940868
 10
-11.2813941057
 20
-5.8785605252
 10
-11.3307376006
 20
-5.8813358181
 10
-11.3801503509
 20
-5.8822629654
 10
-11.4295631585
 20
-5.8813406753
 10
-11.4789068577
 20
-5.8785702379
 10
-11.5281132647
 20
-5.8739554264
 10
-11.577114205
 20
-5.8675024926
 10
-11.6258403153
 20
-5.8592204213
 10
-11.6742220693
 20
-5.8491209847
 10
-11.722191971
 20
-5.8372183021
 10
-11.7696826105
 20
-5.8235291233
 10
-11.816625543
 20
-5.8080733155
 10
-11.8629531613
 20
-5.7908735491
 10
-11.9086027205
 20
-5.7719535286
 10
-11.9535142551
 20
-5.751338106
 10
-11.9976243636
 20
-5.7290561832
 10
-12.0408716515
 20
-5.7051385628
 10
-12.0832003239
 20
-5.6796154467
 10
-12.1245541658
 20
-5.6525194472
 10
-12.1648710699
 20
-5.6238899384
 10
-12.2040885227
 20
-5.5937706838
 10
-12.242154566
 20
-5.5622012044
 10
-12.2790125223
 20
-5.5292281044
 10
-12.3145970999
 20
-5.4949110669
 10
-12.3488534478
 20
-5.4593066007
 10
-12.3817420373
 20
-5.4224595344
 10
-12.413224123
 20
-5.3844155282
 10
-12.4432497639
 20
-5.3452375432
 10
-12.4717852133
 20
-5.3049723469
 10
-12.4988143843
 20
-5.2636401455
 10
-12.5243018689
 20
-5.2212869647
 10
-12.5482023944
 20
-5.1779794112
 10
-12.570483224
 20
-5.1337676673
 10
-12.5911183152
 20
-5.0886894678
 10
-12.6100628181
 20
-5.0428276999
 10
-12.6272646726
 20
-4.9963046612
 10
-12.6427029256
 20
-4.9491825598
 10
-12.6563562781
 20
-4.9015325812
 10
-12.6681907256
 20
-4.8534966311
 10
-12.678199968
 20
-4.8051451447
 10
-12.6863805969
 20
-4.7565474448
 10
-12.6927234328
 20
-4.7078472084
 10
-12.6972366517
 20
-4.6591390755
 10
-12.6999365509
 20
-4.6104670089
 10
-12.7008382414
 20
-4.5618983791
  0
LINE
  5
2C4
100
AcDbEntity
  8
ASSI
100
AcDbLine
 62
253
  6
CONTINUOUS
 10
-22.280215242
 20
0.0381016209
 11
-22.1718741767
 21
0.0922680281
  0
LINE
  5
2C5
100
AcDbEntity
  8
ASSI
100
AcDbLine
 62
253
  6
CONTINUOUS
 10
-22.1718741767
 20
-0.2160647862
 11
-22.280215242
 21
-0.1618983791
  0
LWPOLYLINE
  5
2C6
100
AcDbEntity
  8
ASSI
100
AcDbPolyline
 62
253
  6
CONTINUOUS
 90
7
 70
0
 10
21.9114436904
 20
-0.2160647862
 10
21.9108594093
 20
-0.2161882683
 10
21.9096197268
 20
-0.216310859
 10
21.907724643
 20
-0.216432558
 10
21.9051670843
 20
-0.2165536372
 10
21.9019541244
 20
-0.2166738249
 10
21.8981069836
 20
-0.2167923055
  0
LWPOLYLINE
  5
2C7
100
AcDbEntity
  8
ASSI
100
AcDbPolyline
 62
253
  6
CONTINUOUS
 90
5
 70
0
 10
22.1114132295
 20
-0.4160571708
 10
22.1104491913
 20
-0.416187354
 10
22.1083801339
 20
-0.4163166605
 10
22.105210494
 20
-0.4164450532
 10
22.1009471291
 20
-0.4165727379
  0
LINE
  5
2C8
100
AcDbEntity
  8
ASSI
100
AcDbLine
 62
7
  6
CONTINUOUS
 10
19.6322507474
 20
-0.1618983791
 11
19.3697847569
 21
-0.1880789824
  0
LINE
  5
2C9
100
AcDbEntity
  8
ASSI
100
AcDbLine
 62
7
  6
CONTINUOUS
 10
-19.8926812337
 20
-0.1618983791
 11
-19.6302152431
 21
-0.1880789824
  0
LINE
  5
2CA
100
AcDbEntity
  8
ASSI
100
AcDbLine
 62
253
  6
CONTINUOUS
 10
21.8981069836
 20
-0.2167923055
 11
21.8885016451
 21
-0.2170241125
  0
LINE
  5
2CB
100
AcDbEntity
  8
ASSI
100
AcDbLine
 62
253
  6
CONTINUOUS
 10
22.1009471291
 20
-0.4165727379
 11
22.0891789361
 21
-0.4168243808
  0
LINE
  5
2CC
100
AcDbEntity
  8
ASSI
100
AcDbLine
 62
253
  6
CONTINUOUS
 10
21.8885016451
 20
-0.2170241125
 11
21.8695334761
 21
-0.2173543818
  0
LINE
  5
2CD
100
AcDbEntity
  8
ASSI
100
AcDbLine
 62
253
  6
CONTINUOUS
 10
22.0891789361
 20
-0.4168243808
 11
22.06363491
 21
-0.4171876207
  0
LINE
  5
2CE
100
AcDbEntity
  8
ASSI
100
AcDbLine
 62
253
  6
CONTINUOUS
 10
21.8695334761
 20
-0.2173543818
 11
21.8363367103
 21
-0.2177522785
  0
LINE
  5
2CF
100
AcDbEntity
  8
ASSI
100
AcDbLine
 62
253
  6
CONTINUOUS
 10
22.06363491
 20
-0.4171876207
 11
22.0013916166
 21
-0.4177376889
  0
LINE
  5
2D0
100
AcDbEntity
  8
ASSI
100
AcDbLine
 62
253
  6
CONTINUOUS
 10
21.8363367103
 20
-0.2177522785
 11
21.7599721147
 21
-0.2182939599
  0
LINE
  5
2D1
100
AcDbEntity
  8
ASSI
100
AcDbLine
 62
253
  6
CONTINUOUS
 10
22.0013916166
 20
-0.4177376889
 11
21.7953452594
 21
-0.4185778324
  0
LINE
  5
2D2
100
AcDbEntity
  8
ASSI
100
AcDbLine
 62
253
  6
CONTINUOUS
 10
-22.0324975401
 20
0.094433768
 11
-21.9001445438
 21
0.0948287614
  0
LWPOLYLINE
  5
2D3
100
AcDbEntity
  8
ASSI
100
AcDbPolyline
 62
253
  6
CONTINUOUS
 90
3
 70
0
 10
21.7599721147
 20
-0.2182939599
 10
21.6256470799
 20
-0.2186341967
 10
21.6114894112
 20
-0.2186371397
  0
LINE
  5
2D4
100
AcDbEntity
  8
ASSI
100
AcDbLine
 62
253
  6
CONTINUOUS
 10
-21.9001445438
 20
0.0948287614
 11
-21.8719198974
 21
0.0948403816
  0
LINE
  5
2D5
100
AcDbEntity
  8
ASSI
100
AcDbLine
 62
253
  6
CONTINUOUS
 10
21.7953452594
 20
-0.4185778324
 11
-21.8719074155
 21
-0.4187722748
  0
LINE
  5
2D6
100
AcDbEntity
  8
ASSI
100
AcDbLine
 62
7
  6
CONTINUOUS
 10
21.6114894112
 20
-0.2186371397
 11
-21.8719198974
 21
-0.2186371397
  0
LINE
  5
2D7
100
AcDbEntity
  8
ASSI
100
AcDbLine
 62
7
  6
CONTINUOUS
 10
-19.6302152431
 20
-0.1880789824
 11
19.3697847569
 21
-0.1880789824
  0
LINE
  5
2D8
100
AcDbEntity
  8
ASSI
100
AcDbLine
 62
7
  6
CONTINUOUS
 10
-22.280215242
 20
-0.1618983791
 11
-19.8926812337
 21
-0.1618983791
  0
LINE
  5
2D9
100
AcDbEntity
  8
ASSI
100
AcDbLine
 62
7
  6
CONTINUOUS
 10
19.6322507474
 20
-0.1618983791
 11
22.0197847557
 21
-0.1618983791
  0
LINE
  5
2DA
100
AcDbEntity
  8
ASSI
100
AcDbLine
 62
7
  6
CONTINUOUS
 10
22.0197847557
 20
0.0381016209
 11
19.6322507474
 21
0.0381016209
  0
LINE
  5
2DB
100
AcDbEntity
  8
ASSI
100
AcDbLine
 62
7
  6
CONTINUOUS
 10
-19.8926812337
 20
0.0381016209
 11
-22.280215242
 21
0.0381016209
  0
LINE
  5
2DC
100
AcDbEntity
  8
ASSI
100
AcDbLine
 62
7
  6
CONTINUOUS
 10
19.3697847569
 20
0.0642822243
 11
-19.6302152431
 21
0.0642822243
  0
LINE
  5
2DD
100
AcDbEntity
  8
ASSI
100
AcDbLine
 62
7
  6
CONTINUOUS
 10
-21.8719198974
 20
0.0948403816
 11
21.6114894112
 21
0.0948403816
  0
LINE
  5
2DE
100
AcDbEntity
  8
ASSI
100
AcDbLine
 62
253
  6
CONTINUOUS
 10
-21.8719198974
 20
-0.2186371397
 11
-22.0079526411
 21
-0.2183524991
  0
LINE
  5
2DF
100
AcDbEntity
  8
ASSI
100
AcDbLine
 62
253
  6
CONTINUOUS
 10
21.6114894112
 20
0.0948403816
 11
21.7475221548
 21
0.094555741
  0
LINE
  5
2E0
100
AcDbEntity
  8
ASSI
100
AcDbLine
 62
253
  6
CONTINUOUS
 10
-21.8719074155
 20
-0.41877228
 11
-22.1963389473
 21
-0.4181104554
  0
LINE
  5
2E1
100
AcDbEntity
  8
ASSI
100
AcDbLine
 62
253
  6
CONTINUOUS
 10
21.7475221548
 20
0.094555741
 11
21.7720670537
 21
0.094433768
  0
LINE
  5
2E2
100
AcDbEntity
  8
ASSI
100
AcDbLine
 62
253
  6
CONTINUOUS
 10
-22.0079526411
 20
-0.2183524991
 11
-22.087176834
 21
-0.2178426258
  0
LINE
  5
2E3
100
AcDbEntity
  8
ASSI
100
AcDbLine
 62
253
  6
CONTINUOUS
 10
-22.1963389473
 20
-0.4181104554
 11
-22.3019971022
 21
-0.417417257
  0
LINE
  5
2E4
100
AcDbEntity
  8
ASSI
100
AcDbLine
 62
253
  6
CONTINUOUS
 10
-22.3019971022
 20
-0.417417257
 11
-22.3336092711
 21
-0.4170688607
  0
LINE
  5
2E5
100
AcDbEntity
  8
ASSI
100
AcDbLine
 62
253
  6
CONTINUOUS
 10
-22.087176834
 20
-0.2178426258
 11
-22.1224851999
 21
-0.2174588082
  0
LINE
  5
2E6
100
AcDbEntity
  8
ASSI
100
AcDbLine
 62
253
  6
CONTINUOUS
 10
-22.3336092711
 20
-0.4170688607
 11
-22.3496094223
 21
-0.4168243808
  0
LINE
  5
2E7
100
AcDbEntity
  8
ASSI
100
AcDbLine
 62
253
  6
CONTINUOUS
 10
-22.1224851999
 20
-0.2174588082
 11
-22.1432121831
 21
-0.2171366887
  0
LWPOLYLINE
  5
2E8
100
AcDbEntity
  8
ASSI
100
AcDbPolyline
 62
253
  6
CONTINUOUS
 90
9
 70
0
 10
-22.1432121831
 20
-0.2171366887
 10
-22.154051891
 20
-0.2169090626
 10
-22.1585374698
 20
-0.2167923055
 10
-22.1623846106
 20
-0.2166738249
 10
-22.1655975706
 20
-0.2165536372
 10
-22.1681551292
 20
-0.216432558
 10
-22.170050213
 20
-0.216310859
 10
-22.1712898955
 20
-0.2161882683
 10
-22.1718741767
 20
-0.2160647862
  0
LWPOLYLINE
  5
2E9
100
AcDbEntity
  8
ASSI
100
AcDbPolyline
 62
253
  6
CONTINUOUS
 90
6
 70
0
 10
-22.3496094223
 20
-0.4168243808
 10
-22.3613776153
 20
-0.4165727379
 10
-22.3656409802
 20
-0.4164450533
 10
-22.3688106201
 20
-0.4163166605
 10
-22.3708796776
 20
-0.416187354
 10
-22.3718437157
 20
-0.4160571708
  0
LINE
  5
2EA
100
AcDbEntity
  8
ASSI
100
AcDbLine
 62
7
  6
CONTINUOUS
 10
-19.8926812337
 20
0.0381016209
 11
-19.6302152431
 21
0.0642822243
  0
LINE
  5
2EB
100
AcDbEntity
  8
ASSI
100
AcDbLine
 62
253
  6
CONTINUOUS
 10
-22.1585374699
 20
0.0929955474
 11
-22.1489321314
 21
0.0932273544
  0
LINE
  5
2EC
100
AcDbEntity
  8
ASSI
100
AcDbLine
 62
253
  6
CONTINUOUS
 10
-22.3613776154
 20
0.2927759798
 11
-22.3496094224
 21
0.2930276227
  0
LINE
  5
2ED
100
AcDbEntity
  8
ASSI
100
AcDbLine
 62
253
  6
CONTINUOUS
 10
-22.1489321314
 20
0.0932273544
 11
-22.1299639624
 21
0.0935576237
  0
LINE
  5
2EE
100
AcDbEntity
  8
ASSI
100
AcDbLine
 62
253
  6
CONTINUOUS
 10
-22.3496094224
 20
0.2930276227
 11
-22.3240653962
 21
0.2933908626
  0
LINE
  5
2EF
100
AcDbEntity
  8
ASSI
100
AcDbLine
 62
253
  6
CONTINUOUS
 10
-22.1299639624
 20
0.0935576237
 11
-22.0967671966
 21
0.0939555204
  0
LINE
  5
2F0
100
AcDbEntity
  8
ASSI
100
AcDbLine
 62
253
  6
CONTINUOUS
 10
-22.3240653962
 20
0.2933908626
 11
-22.2618221029
 21
0.2939409308
  0
LINE
  5
2F1
100
AcDbEntity
  8
ASSI
100
AcDbLine
 62
253
  6
CONTINUOUS
 10
-22.0967671966
 20
0.0939555204
 11
-22.0324975401
 21
0.094433768
  0
LINE
  5
2F2
100
AcDbEntity
  8
ASSI
100
AcDbLine
 62
253
  6
CONTINUOUS
 10
-22.2618221029
 20
0.2939409308
 11
-22.0557757457
 21
0.2947810742
  0
LINE
  5
2F3
100
AcDbEntity
  8
ASSI
100
AcDbLine
 62
253
  6
CONTINUOUS
 10
-22.0557757457
 20
0.2947810742
 11
21.6114769293
 21
0.2949755167
  0
LINE
  5
2F4
100
AcDbEntity
  8
ASSI
100
AcDbLine
 62
253
  6
CONTINUOUS
 10
21.6114769293
 20
0.2949755219
 11
21.935908461
 21
0.2943136973
  0
LINE
  5
2F5
100
AcDbEntity
  8
ASSI
100
AcDbLine
 62
253
  6
CONTINUOUS
 10
21.935908461
 20
0.2943136973
 11
22.041566616
 21
0.2936204989
  0
LINE
  5
2F6
100
AcDbEntity
  8
ASSI
100
AcDbLine
 62
253
  6
CONTINUOUS
 10
21.7720670537
 20
0.094433768
 11
21.8363367102
 21
0.0939555204
  0
LINE
  5
2F7
100
AcDbEntity
  8
ASSI
100
AcDbLine
 62
253
  6
CONTINUOUS
 10
22.041566616
 20
0.2936204989
 11
22.0731787848
 21
0.2932721026
  0
LINE
  5
2F8
100
AcDbEntity
  8
ASSI
100
AcDbLine
 62
253
  6
CONTINUOUS
 10
21.8363367102
 20
0.0939555204
 11
21.869533476
 21
0.0935576237
  0
LINE
  5
2F9
100
AcDbEntity
  8
ASSI
100
AcDbLine
 62
253
  6
CONTINUOUS
 10
22.0731787848
 20
0.2932721026
 11
22.0891789361
 21
0.2930276227
  0
LINE
  5
2FA
100
AcDbEntity
  8
ASSI
100
AcDbLine
 62
253
  6
CONTINUOUS
 10
21.869533476
 20
0.0935576237
 11
21.888501645
 21
0.0932273544
  0
LWPOLYLINE
  5
2FB
100
AcDbEntity
  8
ASSI
100
AcDbPolyline
 62
253
  6
CONTINUOUS
 90
6
 70
0
 10
22.0891789361
 20
0.2930276227
 10
22.100947129
 20
0.2927759798
 10
22.105210494
 20
0.2926482951
 10
22.1083801339
 20
0.2925199024
 10
22.1104491913
 20
0.2923905959
 10
22.1114132295
 20
0.2922604127
  0
LWPOLYLINE
  5
2FC
100
AcDbEntity
  8
ASSI
100
AcDbPolyline
 62
253
  6
CONTINUOUS
 90
8
 70
0
 10
21.888501645
 20
0.0932273544
 10
21.8981069835
 20
0.0929955474
 10
21.9019541243
 20
0.0928770668
 10
21.9051670843
 20
0.0927568791
 10
21.9077246429
 20
0.0926357999
 10
21.9096197268
 20
0.0925141008
 10
21.9108594093
 20
0.0923915102
 10
21.9114436904
 20
0.0922680281
  0
LINE
  5
2FD
100
AcDbEntity
  8
ASSI
100
AcDbLine
 62
7
  6
CONTINUOUS
 10
19.6322507474
 20
0.0381016209
 11
19.3697847569
 21
0.0642822243
  0
LWPOLYLINE
  5
2FE
100
AcDbEntity
  8
CURVE
100
AcDbPolyline
 62
253
  6
CONTINUOUS
 90
84
 70
0
 10
-12.9715237859
 20
14.7401388158
 10
-12.9751006215
 20
14.7435627289
 10
-12.9787402469
 20
14.7467876737
 10
-12.9824508256
 20
14.7498292967
 10
-12.986240521
 20
14.7527032442
 10
-12.9901174962
 20
14.7554251627
 10
-12.9940899148
 20
14.7580106986
 10
-12.9989918609
 20
14.7609496226
 10
-13.004042495
 20
14.763707378
 10
-13.0092413112
 20
14.7662766562
 10
-13.0145878039
 20
14.7686501488
 10
-13.0200814675
 20
14.7708205473
 10
-13.0247696257
 20
14.7724682259
 10
-13.0295476298
 20
14.7739621254
 10
-13.034403475
 20
14.7752945799
 10
-13.0393251564
 20
14.7764579233
 10
-13.0443006691
 20
14.7774444895
 10
-13.0493180084
 20
14.7782466126
 10
-13.0543660437
 20
14.7788576216
 10
-13.0594371422
 20
14.7792748258
 10
-13.0645245457
 20
14.77949653
 10
-13.0696214957
 20
14.7795210386
 10
-13.0747212339
 20
14.7793466561
 10
-13.0798170019
 20
14.7789716872
 10
-13.0849018882
 20
14.7783952427
 10
-13.0899683686
 20
14.7776196598
 10
-13.0950087659
 20
14.7766480815
 10
-13.1000154028
 20
14.7754836515
 10
-13.1049806019
 20
14.7741295129
 10
-13.109896686
 20
14.7725888092
 10
-13.1147563231
 20
14.7708642811
 10
-13.1195535626
 20
14.7689570593
 10
-13.1242827992
 20
14.7668678719
 10
-13.1289384277
 20
14.7645974468
 10
-13.1335148429
 20
14.7621465123
 10
-13.1380064396
 20
14.7595157963
 10
-13.1424067729
 20
14.7567065874
 10
-13.1467060408
 20
14.7537224168
 10
-13.1508936016
 20
14.7505673758
 10
-13.1549588138
 20
14.7472455561
 10
-13.1588910355
 20
14.7437610492
 10
-13.1626796254
 20
14.7401179467
 10
-13.1663150372
 20
14.7363213829
 10
-13.169792107
 20
14.7323806632
 10
-13.1731067666
 20
14.7283061358
 10
-13.1762549475
 20
14.7241081491
 10
-13.1792325814
 20
14.7197970511
 10
-13.1820356
 20
14.7153831902
 10
-13.1846604426
 20
14.7108762023
 10
-13.1871055801
 20
14.7062828742
 10
-13.1893699912
 20
14.7016092805
 10
-13.1914526545
 20
14.6968614957
 10
-13.1933525487
 20
14.6920455944
 10
-13.1950686525
 20
14.6871676512
 10
-13.1965995477
 20
14.6822337759
 10
-13.1979422292
 20
14.67725022
 10
-13.1990932951
 20
14.6722232701
 10
-13.2000493434
 20
14.6671592131
 10
-13.2008069722
 20
14.6620643357
 10
-13.2013627796
 20
14.6569449245
 10
-13.2017141832
 20
14.6518077271
 10
-13.2018618781
 20
14.6466613332
 10
-13.2018073792
 20
14.6415147935
 10
-13.2015522011
 20
14.6363771584
 10
-13.2010978586
 20
14.6312574785
 10
-13.2004458664
 20
14.6261648044
 10
-13.1995991134
 20
14.6211090378
 10
-13.1985659855
 20
14.6161034855
 10
-13.1973562425
 20
14.6111623056
 10
-13.1959796445
 20
14.6062996561
 10
-13.1944459514
 20
14.6015296951
 10
-13.1927649233
 20
14.5968665806
 10
-13.1909454782
 20
14.5923217868
 10
-13.1889931672
 20
14.587896052
 10
-13.1869126994
 20
14.5835874306
 10
-13.1847087838
 20
14.579393977
 10
-13.1823861297
 20
14.5753137456
 10
-13.1799494461
 20
14.571344791
 10
-13.1774001272
 20
14.567483958
 10
-13.1747263069
 20
14.5637232546
 10
-13.1719128042
 20
14.5600534791
 10
-13.1689444382
 20
14.55646543
 10
-13.1658060279
 20
14.5529499057
 10
-13.1624823921
 20
14.5494977047
  0
LWPOLYLINE
  5
2FF
100
AcDbEntity
  8
CURVE
100
AcDbPolyline
 62
253
  6
CONTINUOUS
 90
37
 70
0
 10
-9.71855998
 20
11.1052929834
 10
-9.7164831567
 20
11.1032785334
 10
-9.7143710169
 20
11.1013241158
 10
-9.7122216033
 20
11.0994261755
 10
-9.7100329583
 20
11.0975811575
 10
-9.7078031243
 20
11.0957855066
 10
-9.7055301437
 20
11.0940356678
 10
-9.7032124229
 20
11.0923287643
 10
-9.700849823
 20
11.0906646328
 10
-9.698442569
 20
11.0890437881
 10
-9.6959908858
 20
11.0874667451
 10
-9.6934949984
 20
11.0859340188
 10
-9.6909551318
 20
11.084446124
 10
-9.6883719703
 20
11.0830038028
 10
-9.6857480361
 20
11.0816087064
 10
-9.6830863106
 20
11.080262713
 10
-9.6803897751
 20
11.0789677008
 10
-9.6776614113
 20
11.0777255483
 10
-9.6749042005
 20
11.0765381336
 10
-9.6721211684
 20
11.0754072079
 10
-9.6693155171
 20
11.0743340139
 10
-9.6664904929
 20
11.0733196669
 10
-9.663649342
 20
11.0723652826
 10
-9.6607953107
 20
11.0714719762
 10
-9.6579316453
 20
11.0706408634
 10
-9.655061141
 20
11.0698729061
 10
-9.652184789
 20
11.0691684527
 10
-9.6493031293
 20
11.0685276981
 10
-9.646416702
 20
11.0679508371
 10
-9.6435260471
 20
11.0674380647
 10
-9.6406317047
 20
11.0669895758
 10
-9.6377334954
 20
11.066605805
 10
-9.6348283615
 20
11.0662881466
 10
-9.631912526
 20
11.0660382346
 10
-9.6289822116
 20
11.0658577029
 10
-9.6260336413
 20
11.0657481856
 10
-9.623063038
 20
11.0657113167
  0
LWPOLYLINE
  5
300
100
AcDbEntity
  8
CURVE
100
AcDbPolyline
 62
253
  6
CONTINUOUS
 90
84
 70
0
 10
-10.2026769121
 20
11.970656872
 10
-10.206211263
 20
11.9740989656
 10
-10.2098112551
 20
11.977339416
 10
-10.2134848014
 20
11.9803942867
 10
-10.2172398144
 20
11.983279641
 10
-10.221084207
 20
11.9860115424
 10
-10.2250258918
 20
11.9886060543
 10
-10.2298930306
 20
11.991554895
 10
-10.2349106386
 20
11.9943217631
 10
-10.2400776896
 20
11.9968993956
 10
-10.2453931576
 20
11.9992805296
 10
-10.2508560165
 20
12.0014579021
 10
-10.2555183692
 20
12.0031109416
 10
-10.2602704924
 20
12.004609954
 10
-10.2651005141
 20
12.0059474571
 10
-10.2699965624
 20
12.0071159687
 10
-10.2749467655
 20
12.0081080065
 10
-10.2799392516
 20
12.0089160882
 10
-10.2849630592
 20
12.009533648
 10
-10.2900108693
 20
12.0099577853
 10
-10.2950762734
 20
12.010186516
 10
-10.3001528629
 20
12.0102178558
 10
-10.3052342293
 20
12.0100498207
 10
-10.3103139641
 20
12.0096804264
 10
-10.3153854013
 20
12.0091085413
 10
-10.3204408462
 20
12.0083364445
 10
-10.3254723463
 20
12.0073672674
 10
-10.3304719495
 20
12.0062041417
 10
-10.3354317034
 20
12.0048501989
 10
-10.3403436558
 20
12.0033085706
 10
-10.3452002368
 20
12.0015820396
 10
-10.3499954056
 20
11.9996719947
 10
-10.3547235038
 20
11.9975794757
 10
-10.3593788729
 20
11.9953055226
 10
-10.3639558547
 20
11.9928511753
 10
-10.3684487906
 20
11.9902174737
 10
-10.3728512386
 20
11.9874059788
 10
-10.3771536229
 20
11.984420335
 10
-10.381345584
 20
11.9812647074
 10
-10.3854167623
 20
11.9779432615
 10
-10.3893567985
 20
11.9744601624
 10
-10.3931553329
 20
11.9708195756
 10
-10.3968030202
 20
11.967026624
 10
-10.4002945709
 20
11.9630902611
 10
-10.4036257098
 20
11.9590203984
 10
-10.4067921614
 20
11.954826947
 10
-10.4097896504
 20
11.9505198184
 10
-10.4126139015
 20
11.9461089238
 10
-10.4152611178
 20
11.9416035671
 10
-10.417729417
 20
11.9370106229
 10
-10.4200173954
 20
11.9323363585
 10
-10.4221236491
 20
11.9275870409
 10
-10.4240467745
 20
11.9227689374
 10
-10.4257853676
 20
11.9178883152
 10
-10.4273376618
 20
11.9129514382
 10
-10.4287004382
 20
11.9079645569
 10
-10.4298701148
 20
11.9029339186
 10
-10.4308431098
 20
11.8978657706
 10
-10.4316158414
 20
11.89276636
 10
-10.4321847276
 20
11.8876419342
 10
-10.4325470424
 20
11.8824992283
 10
-10.4327034828
 20
11.8773469296
 10
-10.4326556018
 20
11.872194213
 10
-10.4324049522
 20
11.8670502537
 10
-10.4319530869
 20
11.8619242269
 10
-10.4313015588
 20
11.8568253077
 10
-10.430453354
 20
11.8517635416
 10
-10.4294171915
 20
11.8467524561
 10
-10.4282032232
 20
11.8418064491
 10
-10.4268216013
 20
11.8369399186
 10
-10.4252824778
 20
11.8321672626
 10
-10.423596005
 20
11.827502879
 10
-10.4217714591
 20
11.8229584134
 10
-10.4198146139
 20
11.818534502
 10
-10.4177303672
 20
11.8142290289
 10
-10.4155236171
 20
11.8100398778
 10
-10.4131992614
 20
11.8059649329
 10
-10.4107621981
 20
11.8020020779
 10
-10.4082139491
 20
11.7981479553
 10
-10.4055425321
 20
11.7943942408
 10
-10.4027325889
 20
11.7907313688
 10
-10.3997687611
 20
11.7871497735
 10
-10.3966356903
 20
11.7836398891
 10
-10.3933180183
 20
11.7801921499
  0
LWPOLYLINE
  5
301
100
AcDbEntity
  8
CURVE
100
AcDbPolyline
 62
253
  6
CONTINUOUS
 90
37
 70
0
 10
-12.4874068538
 20
13.8744221493
 10
-12.4853416924
 20
13.8723982193
 10
-12.4832400508
 20
13.8704361615
 10
-12.4811001255
 20
13.8685323409
 10
-12.4789201131
 20
13.8666831228
 10
-12.4766982101
 20
13.8648848725
 10
-12.4744326132
 20
13.8631339551
 10
-12.472121877
 20
13.8614274165
 10
-12.469765989
 20
13.8597650247
 10
-12.4673652947
 20
13.8581472285
 10
-12.4649201398
 20
13.8565744765
 10
-12.4624308699
 20
13.8550472176
 10
-12.4598978305
 20
13.8535659003
 10
-12.4573218017
 20
13.8521311862
 10
-12.4547053007
 20
13.8507445881
 10
-12.4520512789
 20
13.8494078316
 10
-12.4493626881
 20
13.8481226424
 10
-12.4466424798
 20
13.846890746
 10
-12.4438936055
 20
13.8457138681
 10
-12.4411190605
 20
13.8445936166
 10
-12.4383220146
 20
13.843531128
 10
-12.435505681
 20
13.8425274214
 10
-12.4326732732
 20
13.8415835158
 10
-12.4298280046
 20
13.8407004301
 10
-12.4269730886
 20
13.8398791833
 10
-12.4241113106
 20
13.839120648
 10
-12.4212437444
 20
13.8384251121
 10
-12.418371036
 20
13.8377927173
 10
-12.4154938312
 20
13.8372236051
 10
-12.4126127759
 20
13.8367179171
 10
-12.409728516
 20
13.836275795
 10
-12.4068409362
 20
13.8358976164
 10
-12.4039468765
 20
13.8355847034
 10
-12.4010424155
 20
13.8353386143
 10
-12.3981236319
 20
13.8351609072
 10
-12.3951866044
 20
13.8350531402
 10
-12.3922274118
 20
13.8350168716
  0
LINE
  5
302
100
AcDbEntity
  8
CURVE
100
AcDbLine
 62
253
  6
CONTINUOUS
 10
-9.5276013737
 20
11.2959340944
 11
-10.2026769121
 21
11.970656872
  0
LINE
  5
303
100
AcDbEntity
  8
CURVE
100
AcDbLine
 62
253
  6
CONTINUOUS
 10
-13.1624823921
 20
14.5494977047
 11
-12.4874068538
 21
13.8744221493
  0
LINE
  5
304
100
AcDbEntity
  8
CURVE
100
AcDbLine
 62
253
  6
CONTINUOUS
 10
-10.3933180183
 20
11.7801921499
 11
-9.71855998
 21
11.1052929834
  0
LINE
  5
305
100
AcDbEntity
  8
CURVE
100
AcDbLine
 62
253
  6
CONTINUOUS
 10
-12.2967657475
 20
14.0652396493
 11
-12.9715237859
 21
14.7401388158
  0
LWPOLYLINE
  5
306
100
AcDbEntity
  8
ASSI
100
AcDbPolyline
 62
253
  6
CONTINUOUS
 90
5
 70
0
 10
-22.3718437157
 20
0.2922604127
 10
-22.3708796776
 20
0.2923905958
 10
-22.3688106202
 20
0.2925199024
 10
-22.3656409803
 20
0.2926482951
 10
-22.3613776154
 20
0.2927759798
  0
LWPOLYLINE
  5
307
100
AcDbEntity
  8
CURVE
100
AcDbPolyline
 62
253
  6
CONTINUOUS
 90
73
 70
0
 10
-10.3728127162
 20
-12.32402286
 10
-10.3768827541
 20
-12.3264818228
 10
-10.3807940693
 20
-12.3290470998
 10
-10.3845628239
 20
-12.3317232307
 10
-10.3882051803
 20
-12.3345147552
 10
-10.3917373005
 20
-12.3374262132
 10
-10.3951753469
 20
-12.3404621443
 10
-10.3985321473
 20
-12.3436267535
 10
-10.4018071925
 20
-12.3469229076
 10
-10.4049966391
 20
-12.3503531383
 10
-10.4080966434
 20
-12.3539199776
 10
-10.411103362
 20
-12.3576259574
 10
-10.4140129513
 20
-12.3614736097
 10
-10.416820215
 20
-12.3654633123
 10
-10.4195145452
 20
-12.3695868276
 10
-10.4220839814
 20
-12.3738337641
 10
-10.4245165628
 20
-12.3781937301
 10
-10.4268003288
 20
-12.3826563339
 10
-10.4289233188
 20
-12.3872111841
 10
-10.4308749507
 20
-12.3918484915
 10
-10.4326501575
 20
-12.3965608772
 10
-10.4342452504
 20
-12.4013415646
 10
-10.435656541
 20
-12.4061837774
 10
-10.4368803407
 20
-12.4110807392
 10
-10.4379129609
 20
-12.4160256734
 10
-10.4387515591
 20
-12.4210116337
 10
-10.4393966768
 20
-12.426030994
 10
-10.4398497013
 20
-12.4310759581
 10
-10.4401120202
 20
-12.4361387299
 10
-10.440185021
 20
-12.4412115135
 10
-10.440070091
 20
-12.4462865126
 10
-10.4397687218
 20
-12.4513557004
 10
-10.439282821
 20
-12.4564101269
 10
-10.4386144002
 20
-12.4614406113
 10
-10.437765471
 20
-12.4664379728
 10
-10.4367380452
 20
-12.4713930305
 10
-10.4355341344
 20
-12.4762966037
 10
-10.4341555793
 20
-12.4811400555
 10
-10.432603538
 20
-12.4859169247
 10
-10.4308789974
 20
-12.4906212943
 10
-10.4289829447
 20
-12.495247247
 10
-10.4269163669
 20
-12.4997888658
 10
-10.4246802512
 20
-12.5042402334
 10
-10.4222762373
 20
-12.5085956622
 10
-10.419708576
 20
-12.512850382
 10
-10.4169821707
 20
-12.5169998522
 10
-10.4141019248
 20
-12.5210395322
 10
-10.4110727417
 20
-12.5249648813
 10
-10.4078995248
 20
-12.5287713588
 10
-10.4045872143
 20
-12.5324545253
 10
-10.4011408964
 20
-12.5360103455
 10
-10.3975656941
 20
-12.5394348852
 10
-10.3938667306
 20
-12.5427242103
 10
-10.3900491287
 20
-12.5458743866
 10
-10.3861180115
 20
-12.54888148
 10
-10.3820796372
 20
-12.5517415336
 10
-10.3779448051
 20
-12.5544504995
 10
-10.3737254497
 20
-12.557004307
 10
-10.3694335057
 20
-12.5593988856
 10
-10.3650809075
 20
-12.5616301645
 10
-10.3606795898
 20
-12.5636940732
 10
-10.3562400232
 20
-12.5655877298
 10
-10.3517668226
 20
-12.5673130076
 10
-10.3472631394
 20
-12.5688729688
 10
-10.3427321246
 20
-12.5702706756
 10
-10.3381769294
 20
-12.5715091901
 10
-10.333600705
 20
-12.5725915744
 10
-10.3290035575
 20
-12.5735195755
 10
-10.3243734133
 20
-12.5742896791
 10
-10.3196951536
 20
-12.5748970555
 10
-10.3149536599
 20
-12.5753368753
 10
-10.3101338135
 20
-12.5756043088
 10
-10.3052204957
 20
-12.5756945266
  0
LWPOLYLINE
  5
308
100
AcDbEntity
  8
CURVE
100
AcDbPolyline
 62
253
  6
CONTINUOUS
 90
73
 70
0
 10
-12.9337308554
 20
-13.8024439708
 10
-12.9377990529
 20
-13.8048943714
 10
-12.9417078344
 20
-13.8074513732
 10
-12.9454737456
 20
-13.8101197345
 10
-12.9491133326
 20
-13.8129042137
 10
-12.9526431413
 20
-13.8158095692
 10
-12.9560797175
 20
-13.8188405595
 10
-12.9594361849
 20
-13.8220016027
 10
-12.9627119779
 20
-13.8252957562
 10
-12.965903109
 20
-13.8287257374
 10
-12.9690055903
 20
-13.8322942633
 10
-12.9720154342
 20
-13.8360040511
 10
-12.9749286529
 20
-13.8398578181
 10
-12.97773986
 20
-13.843856056
 10
-12.9804380744
 20
-13.8479903542
 10
-12.9830109163
 20
-13.8522500767
 10
-12.9854460059
 20
-13.8566245875
 10
-12.9877309633
 20
-13.8611032505
 10
-12.9898534089
 20
-13.8656754298
 10
-12.9918023916
 20
-13.8703311345
 10
-12.9935726759
 20
-13.875062955
 10
-12.9951604551
 20
-13.8798641271
 10
-12.9965619226
 20
-13.8847278862
 10
-12.9977732715
 20
-13.8896474682
 10
-12.9987906954
 20
-13.8946161087
 10
-12.9996112716
 20
-13.899626828
 10
-13.0002356154
 20
-13.9046717858
 10
-13.0006652257
 20
-13.9097429264
 10
-13.000901602
 20
-13.9148321943
 10
-13.0009462435
 20
-13.9199315337
 10
-13.0008006494
 20
-13.925032889
 10
-13.0004664707
 20
-13.9301279612
 10
-12.9999459646
 20
-13.9352074777
 10
-12.9992415402
 20
-13.9402619225
 10
-12.9983556064
 20
-13.9452817797
 10
-12.9972905724
 20
-13.9502575331
 10
-12.996048847
 20
-13.9551796669
 10
-12.9946326652
 20
-13.9600393084
 10
-12.9930435659
 20
-13.9648301582
 10
-12.9912829138
 20
-13.9695465603
 10
-12.9893520737
 20
-13.9741828588
 10
-12.9872524105
 20
-13.9787333976
 10
-12.9849852889
 20
-13.9831925207
 10
-12.982552677
 20
-13.9875547205
 10
-12.9799589565
 20
-13.991815082
 10
-12.9772091122
 20
-13.9959688391
 10
-12.974308129
 20
-14.0000112251
 10
-12.9712609919
 20
-14.0039374736
 10
-12.9680726857
 20
-14.0077428182
 10
-12.9647481659
 20
-14.0114225976
 10
-12.9612922697
 20
-14.0149725711
 10
-12.9577098049
 20
-14.0183886031
 10
-12.9540055794
 20
-14.0216665582
 10
-12.9501844007
 20
-14.0248023007
 10
-12.9462510768
 20
-14.0277916952
 10
-12.9422116679
 20
-14.0306306637
 10
-12.9380772442
 20
-14.0333153593
 10
-12.9338601281
 20
-14.0358419926
 10
-12.9295726424
 20
-14.0382067741
 10
-12.9252271096
 20
-14.0404059146
 10
-12.9208358524
 20
-14.0424356248
 10
-12.9164096959
 20
-14.0442933917
 10
-12.9119534757
 20
-14.0459818086
 10
-12.9074705299
 20
-14.0475047452
 10
-12.9029641966
 20
-14.0488660713
 10
-12.898437814
 20
-14.0500696566
 10
-12.8938947201
 20
-14.0511193708
 10
-12.8893350828
 20
-14.052017753
 10
-12.8847463888
 20
-14.0527620194
 10
-12.8801129546
 20
-14.0533480556
 10
-12.8754190965
 20
-14.0537717469
 10
-12.8706491312
 20
-14.054028979
 10
-12.8657873748
 20
-14.0541156374
  0
LWPOLYLINE
  5
309
100
AcDbEntity
  8
CURVE
100
AcDbPolyline
 62
253
  6
CONTINUOUS
 90
85
 70
0
 10
-12.3916187758
 20
-13.8010328597
 10
-12.3874127573
 20
-13.7984992123
 10
-12.3833792769
 20
-13.7958523544
 10
-12.3795017096
 20
-13.7930888013
 10
-12.3757634303
 20
-13.7902050682
 10
-12.3721478139
 20
-13.7871976705
 10
-12.3686382353
 20
-13.7840631235
 10
-12.3645492757
 20
-13.7801298362
 10
-12.3605961794
 20
-13.7760078902
 10
-12.3567860551
 20
-13.7716967398
 10
-12.3531260117
 20
-13.767195839
 10
-12.3496231581
 20
-13.7625046422
 10
-12.3468301997
 20
-13.7584511212
 10
-12.3441607443
 20
-13.7542741664
 10
-12.3416241984
 20
-13.7499828729
 10
-12.3392299687
 20
-13.7455863359
 10
-12.336987462
 20
-13.7410936507
 10
-12.3349060849
 20
-13.7365139126
 10
-12.3329943227
 20
-13.7318552944
 10
-12.3312569758
 20
-13.727122281
 10
-12.329697923
 20
-13.7223184347
 10
-12.3283210433
 20
-13.7174473181
 10
-12.3271302158
 20
-13.7125124935
 10
-12.3261293192
 20
-13.7075175235
 10
-12.3253217238
 20
-13.702467175
 10
-12.3247087648
 20
-13.6973710329
 10
-12.3242912684
 20
-13.6922398865
 10
-12.324070061
 20
-13.6870845251
 10
-12.3240459689
 20
-13.681915738
 10
-12.3242198185
 20
-13.6767443145
 10
-12.3245925352
 20
-13.6715801593
 10
-12.3251654414
 20
-13.666429638
 10
-12.3259399586
 20
-13.6612982318
 10
-12.3269175083
 20
-13.6561914217
 10
-12.328099512
 20
-13.6511146887
 10
-12.3294873913
 20
-13.6460735139
 10
-12.3310822827
 20
-13.6410745582
 10
-12.3328841828
 20
-13.6361292026
 10
-12.3348928033
 20
-13.6312500077
 10
-12.3371078559
 20
-13.6264495343
 10
-12.3395290523
 20
-13.6217403431
 10
-12.3421561043
 20
-13.6171349949
 10
-12.3449862066
 20
-13.6126452689
 10
-12.348006487
 20
-13.6082798181
 10
-12.3512015564
 20
-13.6040465141
 10
-12.3545560258
 20
-13.5999532283
 10
-12.3580545062
 20
-13.5960078323
 10
-12.3616816083
 20
-13.5922181976
 10
-12.365424022
 20
-13.5885903925
 10
-12.3692767525
 20
-13.5851232727
 10
-12.3732368837
 20
-13.5818138908
 10
-12.3773014997
 20
-13.5786592991
 10
-12.3814676843
 20
-13.5756565503
 10
-12.3857325217
 20
-13.5728026969
 10
-12.3909747176
 20
-13.569572604
 10
-12.3963393871
 20
-13.5665604191
 10
-12.4018111425
 20
-13.5637738854
 10
-12.4073745967
 20
-13.5612207459
 10
-12.4130143622
 20
-13.5589087438
 10
-12.4177644977
 20
-13.5571709618
 10
-12.4225668697
 20
-13.5556050831
 10
-12.4274314062
 20
-13.5542101771
 10
-12.4323629408
 20
-13.5529870641
 10
-12.4373459279
 20
-13.5519435667
 10
-12.4423597276
 20
-13.551089258
 10
-12.4473841536
 20
-13.5504325063
 10
-12.4524008354
 20
-13.549976859
 10
-12.4573918566
 20
-13.5497246585
 10
-12.4623413448
 20
-13.5496764686
 10
-12.4672416046
 20
-13.5498257376
 10
-12.4720869847
 20
-13.5501641355
 10
-12.4768743387
 20
-13.5506841153
 10
-12.481610539
 20
-13.5513812637
 10
-12.4863049631
 20
-13.5522519507
 10
-12.4898024873
 20
-13.5530165819
 10
-12.4932766271
 20
-13.5538747445
 10
-12.4967240231
 20
-13.5548251204
 10
-12.5001485185
 20
-13.5558692882
 10
-12.5046825317
 20
-13.5574083413
 10
-12.5091625735
 20
-13.5591053897
 10
-12.5135653518
 20
-13.5609475938
 10
-12.5168091029
 20
-13.5624205616
 10
-12.5200247651
 20
-13.5639852233
 10
-12.5232408118
 20
-13.565658845
 10
-12.5264857168
 20
-13.5674586931
  0
LWPOLYLINE
  5
30A
100
AcDbEntity
  8
CURVE
100
AcDbPolyline
 62
253
  6
CONTINUOUS
 90
88
 70
0
 10
-9.8306975228
 20
-12.3225764712
 10
-9.8275049041
 20
-12.3206606291
 10
-9.8244426455
 20
-12.3186968654
 10
-9.8214803475
 20
-12.3166705934
 10
-9.8185876101
 20
-12.3145672262
 10
-9.8148016142
 20
-12.3116260345
 10
-9.8111051246
 20
-12.3085378899
 10
-9.8075180279
 20
-12.3053188292
 10
-9.804056449
 20
-12.301982728
 10
-9.8007214656
 20
-12.2985348142
 10
-9.7975103939
 20
-12.2949781543
 10
-9.7944206627
 20
-12.2913141372
 10
-9.7914501517
 20
-12.2875374424
 10
-9.7885968537
 20
-12.2836410721
 10
-9.785860613
 20
-12.2796207579
 10
-9.7832486803
 20
-12.2754831495
 10
-9.7807701582
 20
-12.2712376263
 10
-9.7784341493
 20
-12.2668935673
 10
-9.7762497559
 20
-12.2624603518
 10
-9.7742260807
 20
-12.257947359
 10
-9.7723712364
 20
-12.2533625306
 10
-9.7706893774
 20
-12.2487080579
 10
-9.7691836682
 20
-12.2439846945
 10
-9.7678572737
 20
-12.2391931941
 10
-9.7667133582
 20
-12.2343343103
 10
-9.7657550867
 20
-12.229408797
 10
-9.7649851992
 20
-12.224419249
 10
-9.7644047389
 20
-12.219375627
 10
-9.7640143242
 20
-12.2142897329
 10
-9.7638145739
 20
-12.2091733688
 10
-9.7638061066
 20
-12.2040383364
 10
-9.7639895409
 20
-12.1988964378
 10
-9.7643651941
 20
-12.1937587959
 10
-9.7649321784
 20
-12.1886338172
 10
-9.7656893048
 20
-12.1835292291
 10
-9.766635384
 20
-12.1784527591
 10
-9.767769227
 20
-12.1734121347
 10
-9.7690896446
 20
-12.1684150833
 10
-9.7705955244
 20
-12.1634694457
 10
-9.7722860602
 20
-12.158583517
 10
-9.7741605224
 20
-12.1537657052
 10
-9.7762181816
 20
-12.1490244187
 10
-9.778458308
 20
-12.1443680659
 10
-9.7808801723
 20
-12.1398050548
 10
-9.7834821169
 20
-12.1353433646
 10
-9.7862587725
 20
-12.1309892563
 10
-9.7892038421
 20
-12.1267485618
 10
-9.7923110283
 20
-12.1226271129
 10
-9.795574034
 20
-12.1186307416
 10
-9.798986562
 20
-12.1147652795
 10
-9.802542468
 20
-12.1110362836
 10
-9.8062362189
 20
-12.1074482105
 10
-9.8100624346
 20
-12.1040052417
 10
-9.8140157348
 20
-12.100711559
 10
-9.8180907393
 20
-12.0975713439
 10
-9.822282068
 20
-12.094588778
 10
-9.8265841792
 20
-12.0917678513
 10
-9.8309908852
 20
-12.0891117875
 10
-9.8354958368
 20
-12.0866236186
 10
-9.8400926849
 20
-12.0843063765
 10
-9.8447750803
 20
-12.0821630933
 10
-9.8495366738
 20
-12.0801968011
 10
-9.8543713729
 20
-12.0784105103
 10
-9.8592741111
 20
-12.0768071458
 10
-9.8642400785
 20
-12.0753896111
 10
-9.8692644652
 20
-12.0741608095
 10
-9.8743424613
 20
-12.0731236445
 10
-9.8794692569
 20
-12.0722810194
 10
-9.8846354925
 20
-12.0716358875
 10
-9.8898136096
 20
-12.071191401
 10
-9.8949715
 20
-12.0709507619
 10
-9.9000816791
 20
-12.0709150507
 10
-9.9051351561
 20
-12.071076863
 10
-9.9101275638
 20
-12.0714266727
 10
-9.9150570817
 20
-12.0719561426
 10
-9.9199320766
 20
-12.0726616898
 10
-9.9247634622
 20
-12.0735409202
 10
-9.9283631067
 20
-12.0743127402
 10
-9.9319379166
 20
-12.0751790476
 10
-9.9354835634
 20
-12.0761388431
 10
-9.9390041767
 20
-12.0771945821
 10
-9.9436630805
 20
-12.0787536428
 10
-9.9482607873
 20
-12.0804755964
 10
-9.9527695034
 20
-12.0823468692
 10
-9.9560832696
 20
-12.0838445466
 10
-9.959363714
 20
-12.0854392392
 10
-9.962643206
 20
-12.0871516057
 10
-9.9659541154
 20
-12.0890023045
  0
LINE
  5
30B
100
AcDbEntity
  8
CURVE
100
AcDbLine
 62
253
  6
CONTINUOUS
 10
-9.9659541154
 20
-12.0890023045
 11
-10.3728127162
 21
-12.32402286
  0
LINE
  5
30C
100
AcDbEntity
  8
CURVE
100
AcDbLine
 62
253
  6
CONTINUOUS
 10
-10.2379457752
 20
-12.5577381378
 11
-9.8306975228
 21
-12.3225764712
  0
LINE
  5
30D
100
AcDbEntity
  8
CURVE
100
AcDbLine
 62
253
  6
CONTINUOUS
 10
-12.7988301543
 20
-14.0360181374
 11
-12.3916187758
 21
-13.8010328597
  0
LINE
  5
30E
100
AcDbEntity
  8
CURVE
100
AcDbLine
 62
253
  6
CONTINUOUS
 10
-12.5264857168
 20
-13.5674586931
 11
-12.9337308554
 21
-13.8024439708
  0
LWPOLYLINE
  5
30F
100
AcDbEntity
  8
ASSI
100
AcDbPolyline
 62
253
  6
CONTINUOUS
 90
7
 70
0
 10
-22.1718741767
 20
0.0922680281
 10
-22.1712898955
 20
0.0923915102
 10
-22.1700502131
 20
0.0925141008
 10
-22.1681551293
 20
0.0926357999
 10
-22.1655975706
 20
0.0927568791
 10
-22.1623846106
 20
0.0928770668
 10
-22.1585374699
 20
0.0929955474
  0
LINE
  5
310
100
AcDbEntity
  8
ASSI
100
AcDbLine
 62
253
  6
CONTINUOUS
 10
22.0197847557
 20
-0.1618983791
 11
21.9114436904
 21
-0.2160647862
  0
LINE
  5
311
100
AcDbEntity
  8
ASSI
100
AcDbLine
 62
253
  6
CONTINUOUS
 10
22.2197847569
 20
-0.3618755338
 11
22.1114132295
 21
-0.4160571708
  0
LWPOLYLINE
  5
312
100
AcDbEntity
  8
CURVE
100
AcDbPolyline
 62
253
  6
CONTINUOUS
 90
54
 70
0
 10
-11.3448995315
 20
10.3525357613
 10
-11.3411831797
 20
10.3525893254
 10
-11.3375145681
 20
10.352748687
 10
-11.3338862244
 20
10.3530118505
 10
-11.3302906766
 20
10.3533768202
 10
-11.3267204524
 20
10.3538416002
 10
-11.3231680797
 20
10.3544041948
 10
-11.3196260864
 20
10.3550626084
 10
-11.3154991459
 20
10.3559501778
 10
-11.3113777089
 20
10.3569681523
 10
-11.3072633219
 20
10.3581192329
 10
-11.3031575313
 20
10.359406121
 10
-11.2990618835
 20
10.3608315179
 10
-11.2949779251
 20
10.3623981246
 10
-11.2909088103
 20
10.364107758
 10
-11.2868641246
 20
10.3659586972
 10
-11.2828550616
 20
10.3679483365
 10
-11.2788928145
 20
10.3700740706
 10
-11.2749885769
 20
10.372333294
 10
-11.271153542
 20
10.3747234012
 10
-11.2679293079
 20
10.3768744186
 10
-11.2647674336
 20
10.379118978
 10
-11.2616712124
 20
10.3814563762
 10
-11.2586439375
 20
10.3838859101
 10
-11.2556889021
 20
10.3864068762
 10
-11.2528093996
 20
10.3890185715
 10
-11.250008723
 20
10.3917202926
 10
-11.2472899451
 20
10.3945108049
 10
-11.2446552552
 20
10.3973867479
 10
-11.2421066222
 20
10.4003442294
 10
-11.2396460149
 20
10.4033793576
 10
-11.237275402
 20
10.4064882404
 10
-11.2349967525
 20
10.4096669859
 10
-11.232812035
 20
10.412911702
 10
-11.2307231785
 20
10.4162178662
 10
-11.2287319524
 20
10.4195784341
 10
-11.2268400864
 20
10.4229857305
 10
-11.22504931
 20
10.4264320806
 10
-11.2233613528
 20
10.4299098092
 10
-11.2217779443
 20
10.4334112414
 10
-11.2203008141
 20
10.4369287021
 10
-11.218713166
 20
10.4410442761
 10
-11.2172695095
 20
10.4451701376
 10
-11.2159668251
 20
10.4493052039
 10
-11.2148020937
 20
10.4534483923
 10
-11.2137722959
 20
10.4575986201
 10
-11.2128744126
 20
10.4617548048
 10
-11.2122081669
 20
10.4653225393
 10
-11.2116387035
 20
10.4689013937
 10
-11.2111681061
 20
10.4724989064
 10
-11.2107984586
 20
10.4761226164
 10
-11.2105318447
 20
10.4797800624
 10
-11.2103703483
 20
10.483478783
 10
-11.210316053
 20
10.4872263169
  0
LINE
  5
313
100
AcDbEntity
  8
ASSI
100
AcDbLine
 62
253
  6
CONTINUOUS
 10
21.9114436904
 20
0.0922680281
 11
22.0197847557
 21
0.0381016209
  0
LINE
  5
314
100
AcDbEntity
  8
ASSI
100
AcDbLine
 62
253
  6
CONTINUOUS
 10
22.1114132295
 20
0.2922604127
 11
22.2197847569
 21
0.2380787757
  0
LWPOLYLINE
  5
315
100
AcDbEntity
  8
CURVE
100
AcDbPolyline
 62
253
  6
CONTINUOUS
 90
69
 70
0
 10
-9.623063038
 20
11.0657113167
 10
-9.6188435795
 20
11.0657808923
 10
-9.6146801366
 20
11.0659878265
 10
-9.6105611007
 20
11.0663294306
 10
-9.6064748634
 20
11.0668030161
 10
-9.6024098158
 20
11.0674058942
 10
-9.5983543493
 20
11.0681353763
 10
-9.5934878874
 20
11.0691756419
 10
-9.5886212196
 20
11.0703990318
 10
-9.58375706
 20
11.0718102323
 10
-9.5788981222
 20
11.0734139297
 10
-9.5740471201
 20
11.0752148102
 10
-9.5692093969
 20
11.0772161497
 10
-9.5644008142
 20
11.0794155823
 10
-9.5596398629
 20
11.0818093317
 10
-9.5549450339
 20
11.0843936216
 10
-9.5503348182
 20
11.0871646758
 10
-9.5465701662
 20
11.0896140015
 10
-9.5428831293
 20
11.0921892439
 10
-9.5392797223
 20
11.0948892448
 10
-9.5357659601
 20
11.097712846
 10
-9.5323478576
 20
11.1006588892
 10
-9.5290314296
 20
11.1037262163
 10
-9.5258222208
 20
11.1069130637
 10
-9.5227238941
 20
11.1102152471
 10
-9.5197396423
 20
11.1136279769
 10
-9.516872658
 20
11.1171464635
 10
-9.514126134
 20
11.1207659174
 10
-9.511503263
 20
11.1244815489
 10
-9.5090070405
 20
11.1282887722
 10
-9.5066396733
 20
11.1321838168
 10
-9.5044031711
 20
11.1361631158
 10
-9.5022995435
 20
11.1402231024
 10
-9.5003308003
 20
11.1443602097
 10
-9.4984989511
 20
11.1485708711
 10
-9.4968062233
 20
11.1528509363
 10
-9.4952557151
 20
11.1571939224
 10
-9.4938507425
 20
11.1615927632
 10
-9.4925946214
 20
11.1660403924
 10
-9.491490668
 20
11.1705297437
 10
-9.490542198
 20
11.1750537509
 10
-9.4897520786
 20
11.1796053399
 10
-9.4891213805
 20
11.1841774051
 10
-9.4886507257
 20
11.1887628329
 10
-9.4883407361
 20
11.19335451
 10
-9.4881920335
 20
11.1979453227
 10
-9.4882052397
 20
11.2025281577
 10
-9.4883802797
 20
11.2070963488
 10
-9.4887142895
 20
11.2116450197
 10
-9.4892037085
 20
11.2161697415
 10
-9.4898449756
 20
11.2206660854
 10
-9.4906345301
 20
11.2251296223
 10
-9.4915688112
 20
11.2295559235
 10
-9.4928751063
 20
11.2348105042
 10
-9.4943733222
 20
11.2399878737
 10
-9.4960521012
 20
11.245070818
 10
-9.4979000854
 20
11.2500421231
 10
-9.4999059172
 20
11.2548845748
 10
-9.5020592255
 20
11.2595842788
 10
-9.5043535867
 20
11.2641406185
 10
-9.5067835639
 20
11.2685562967
 10
-9.5093437203
 20
11.2728340166
 10
-9.512028619
 20
11.2769764809
 10
-9.5143595654
 20
11.2803279956
 10
-9.5167832003
 20
11.2835940108
 10
-9.5193093611
 20
11.2867810774
 10
-9.5219478853
 20
11.2898957462
 10
-9.5247086103
 20
11.2929445683
 10
-9.5276013737
 20
11.2959340944
  0
LWPOLYLINE
  5
316
100
AcDbEntity
  8
CURVE
100
AcDbPolyline
 62
253
  6
CONTINUOUS
 90
37
 70
0
 10
-13.0669854501
 20
11.0657113167
 10
-13.0640997819
 20
11.0657461127
 10
-13.0612317164
 20
11.0658496864
 10
-13.0583773651
 20
11.0660208163
 10
-13.0555328395
 20
11.0662582809
 10
-13.0526942513
 20
11.0665608588
 10
-13.049857712
 20
11.0669273285
 10
-13.0470200713
 20
11.0673566963
 10
-13.0441811324
 20
11.0678488795
 10
-13.0413414366
 20
11.0684040235
 10
-13.0385015251
 20
11.0690222734
 10
-13.0356619395
 20
11.0697037744
 10
-13.0328232209
 20
11.0704486718
 10
-13.0299863862
 20
11.0712569481
 10
-13.0271543532
 20
11.0721279361
 10
-13.0243305155
 20
11.0730608059
 10
-13.0215182665
 20
11.0740547275
 10
-13.0187209994
 20
11.0751088712
 10
-13.0159421078
 20
11.076222407
 10
-13.0131849285
 20
11.0773943868
 10
-13.0104525726
 20
11.078623389
 10
-13.0077480945
 20
11.079907874
 10
-13.0050745489
 20
11.0812463019
 10
-13.0024349903
 20
11.0826371331
 10
-12.9998324732
 20
11.0840788277
 10
-12.9972696353
 20
11.0855700517
 10
-12.9947474473
 20
11.0871102941
 10
-12.992266463
 20
11.0886992496
 10
-12.9898272363
 20
11.090336613
 10
-12.987430321
 20
11.0920220789
 10
-12.9850762709
 20
11.093755342
 10
-12.9827652827
 20
11.095536798
 10
-12.9804961244
 20
11.0973696468
 10
-12.978267207
 20
11.099257789
 10
-12.9760769412
 20
11.1012051253
 10
-12.973923738
 20
11.1032155566
 10
-12.9718060081
 20
11.1052929834
  0
LINE
  5
317
100
AcDbEntity
  8
CURVE
100
AcDbLine
 62
253
  6
CONTINUOUS
 10
-13.7805137652
 20
12.7876549274
 11
-12.825720734
 21
12.7876549274
  0
LINE
  5
318
100
AcDbEntity
  8
CURVE
100
AcDbLine
 62
253
  6
CONTINUOUS
 10
-9.864010254
 20
12.7876549274
 11
-8.9095700006
 21
12.7876549274
  0
LWPOLYLINE
  5
319
100
AcDbEntity
  8
CURVE
100
AcDbPolyline
 62
253
  6
CONTINUOUS
 90
89
 70
0
 10
-11.3450354991
 20
12.1979868852
 10
-11.3709560562
 20
12.1984429569
 10
-11.396566018
 20
12.1997949121
 10
-11.4219292245
 20
12.202033188
 10
-11.4471095158
 20
12.2051482216
 10
-11.4721578276
 20
12.2091334425
 10
-11.497073477
 20
12.2139942501
 10
-11.5218428767
 20
12.2197390364
 10
-11.5464524393
 20
12.2263761933
 10
-11.5708825852
 20
12.2339105557
 10
-11.5950897654
 20
12.242332729
 10
-11.619024439
 20
12.251629762
 10
-11.6426370647
 20
12.2617887029
 10
-11.6658823768
 20
12.2727957015
 10
-11.6887322114
 20
12.2846333119
 10
-11.7111626799
 20
12.2972831896
 10
-11.7331498937
 20
12.3107269899
 10
-11.7546688277
 20
12.3249467708
 10
-11.7756899105
 20
12.3399262
 10
-11.7961824342
 20
12.3556493479
 10
-11.8161156909
 20
12.3721002847
 10
-11.8354592038
 20
12.3892609727
 10
-11.8541834213
 20
12.4071049413
 10
-11.8722590231
 20
12.4256036117
 10
-11.8896566889
 20
12.4447284053
 10
-11.9063500815
 20
12.4644515292
 10
-11.9223247972
 20
12.4847483341
 10
-11.9375694153
 20
12.5055949569
 10
-11.9520725155
 20
12.5269675341
 10
-11.9658219034
 20
12.5488455738
 10
-11.9788022898
 20
12.5712220697
 10
-11.990997612
 20
12.5940933868
 10
-12.002391807
 20
12.6174558901
 10
-12.0129668263
 20
12.6412981033
 10
-12.022696678
 20
12.6655771847
 10
-12.0315533847
 20
12.6902424515
 10
-12.0395089689
 20
12.7152432205
 10
-12.0465395462
 20
12.7405276046
 10
-12.0526376053
 20
12.7660388992
 10
-12.0577997283
 20
12.7917191956
 10
-12.0620224968
 20
12.817510585
 10
-12.0653044307
 20
12.8433626719
 10
-12.0676518004
 20
12.8692551142
 10
-12.0690728141
 20
12.8951750829
 10
-12.0695756801
 20
12.9211097491
 10
-12.0691659089
 20
12.9470462996
 10
-12.0678382197
 20
12.9729719835
 10
-12.0655846342
 20
12.9988740653
 10
-12.0623971739
 20
13.0247398098
 10
-12.0582696799
 20
13.0505489951
 10
-12.0532032716
 20
13.0762514537
 10
-12.0472008881
 20
13.1017895314
 10
-12.0402654681
 20
13.1271055744
 10
-12.0324042922
 20
13.1521426548
 10
-12.0236420061
 20
13.17684675
 10
-12.0140075969
 20
13.2011645637
 10
-12.0035300519
 20
13.2250427997
 10
-11.9922360181
 20
13.2484370325
 10
-11.9801427808
 20
13.2713383199
 10
-11.9672652855
 20
13.2937465906
 10
-11.9536184773
 20
13.3156617732
 10
-11.9392156076
 20
13.3370806267
 10
-11.9240631519
 20
13.3579872309
 10
-11.9081658914
 20
13.3783624961
 10
-11.8915286079
 20
13.3981873326
 10
-11.8741607463
 20
13.4174397551
 10
-11.8560904066
 20
13.4360861969
 10
-11.8373503524
 20
13.454090196
 10
-11.8179733472
 20
13.4714152902
 10
-11.7979926238
 20
13.4880280448
 10
-11.7774432919
 20
13.5039071343
 10
-11.7563609307
 20
13.5190342608
 10
-11.7347811192
 20
13.5333911263
 10
-11.7127369064
 20
13.5469598219
 10
-11.6902512221
 20
13.5597239962
 10
-11.6673444662
 20
13.5716676869
 10
-11.6440370385
 20
13.5827749317
 10
-11.6203540288
 20
13.5930301417
 10
-11.5963392872
 20
13.6024192212
 10
-11.5720413537
 20
13.6109284477
 10
-11.5475087683
 20
13.6185440989
 10
-11.5227844515
 20
13.6252559817
 10
-11.4978888449
 20
13.6310680209
 10
-11.4728367706
 20
13.6359876708
 10
-11.4476430505
 20
13.6400223857
 10
-11.4223092471
 20
13.6431766128
 10
-11.3967838836
 20
13.645442772
 10
-11.3710022239
 20
13.6468102762
 10
-11.3448995315
 20
13.6472685383
  0
LINE
  5
31A
100
AcDbEntity
  8
ASSI
100
AcDbLine
 62
253
  6
CONTINUOUS
 10
21.7062510285
 20
22.1495829085
 11
21.6353901709
 21
21.9368274589
  0
LINE
  5
31B
100
AcDbEntity
  8
ASSI
100
AcDbLine
 62
253
  6
CONTINUOUS
 10
22.2066308518
 20
21.6516371807
 11
22.1353138133
 21
21.4375120755
  0
LWPOLYLINE
  5
31C
100
AcDbEntity
  8
CURVE
100
AcDbPolyline
 62
253
  6
CONTINUOUS
 90
85
 70
0
 10
-8.9095700006
 20
12.7876549274
 10
-8.9046538118
 20
12.7877488511
 10
-8.8998332868
 20
12.788027102
 10
-8.8950913592
 20
12.7884843999
 10
-8.8904109629
 20
12.7891154646
 10
-8.8857750316
 20
12.7899150158
 10
-8.881166499
 20
12.7908777734
 10
-8.8765717067
 20
12.7919998023
 10
-8.8719906276
 20
12.7932825484
 10
-8.8674266424
 20
12.7947288026
 10
-8.8628831319
 20
12.7963413559
 10
-8.8583634767
 20
12.7981229993
 10
-8.8538710577
 20
12.8000765237
 10
-8.8494109968
 20
12.8022037644
 10
-8.8449953808
 20
12.8045027333
 10
-8.8406380378
 20
12.8069704865
 10
-8.8363527961
 20
12.8096040804
 10
-8.8321534836
 20
12.8124005709
 10
-8.8280539285
 20
12.8153570143
 10
-8.8240666475
 20
12.8184704645
 10
-8.8201989117
 20
12.8217379665
 10
-8.8164566807
 20
12.825156563
 10
-8.8128459143
 20
12.8287232969
 10
-8.8093725722
 20
12.8324352107
 10
-8.8060426139
 20
12.8362893474
 10
-8.8028615856
 20
12.8402819178
 10
-8.799833378
 20
12.844405805
 10
-8.7969614683
 20
12.8486530604
 10
-8.7942493337
 20
12.8530157354
 10
-8.7917004514
 20
12.8574858812
 10
-8.7893182985
 20
12.8620555493
 10
-8.7871063192
 20
12.8667173247
 10
-8.7850678255
 20
12.8714659278
 10
-8.7832060964
 20
12.8762966127
 10
-8.781524411
 20
12.8812046336
 10
-8.7800260483
 20
12.8861852447
 10
-8.7787142872
 20
12.8912337001
 10
-8.7775925888
 20
12.896344314
 10
-8.7766651418
 20
12.9015076416
 10
-8.7759363166
 20
12.906713298
 10
-8.7754104839
 20
12.9119508984
 10
-8.7750920143
 20
12.917210058
 10
-8.7749852783
 20
12.9224803918
 10
-8.7750932538
 20
12.9277515696
 10
-8.7754133476
 20
12.9330134786
 10
-8.7759415739
 20
12.9382560605
 10
-8.7766739467
 20
12.9434692569
 10
-8.7776064801
 20
12.9486430095
 10
-8.7787351882
 20
12.95376726
 10
-8.7800561759
 20
12.958832707
 10
-8.781565911
 20
12.9638330769
 10
-8.783260952
 20
12.9687628531
 10
-8.7851378574
 20
12.9736165189
 10
-8.7871931859
 20
12.9783885577
 10
-8.789423496
 20
12.9830734529
 10
-8.79182559
 20
12.9876654423
 10
-8.7943972451
 20
12.9921577815
 10
-8.7971364825
 20
12.9965434806
 10
-8.800041323
 20
13.0008155496
 10
-8.8031097878
 20
13.0049669987
 10
-8.8063398979
 20
13.0089908379
 10
-8.809728713
 20
13.0128803617
 10
-8.8132694485
 20
13.0166300021
 10
-8.8169543583
 20
13.0202344755
 10
-8.8207756964
 20
13.0236884981
 10
-8.8247257169
 20
13.0269867865
 10
-8.8287966737
 20
13.030124057
 10
-8.8329791751
 20
13.0330954066
 10
-8.837257246
 20
13.0358974553
 10
-8.8416132655
 20
13.0385272036
 10
-8.8460296126
 20
13.0409816521
 10
-8.8504886665
 20
13.0432578015
 10
-8.8549728064
 20
13.0453526522
 10
-8.8594670402
 20
13.0472645667
 10
-8.8639668927
 20
13.0489973542
 10
-8.8684705171
 20
13.0505561855
 10
-8.8729760672
 20
13.0519462318
 10
-8.8774816964
 20
13.0531726639
 10
-8.8819855583
 20
13.0542406527
 10
-8.8864890554
 20
13.0551538515
 10
-8.8910065863
 20
13.0559098414
 10
-8.8955557987
 20
13.056504686
 10
-8.9001543401
 20
13.0569344489
 10
-8.9048198583
 20
13.0571951933
 10
-8.9095700006
 20
13.0572829829
  0
LWPOLYLINE
  5
31D
100
AcDbEntity
  8
CURVE
100
AcDbPolyline
 62
253
  6
CONTINUOUS
 90
85
 70
0
 10
-12.825720734
 20
12.7876549274
 10
-12.8208026996
 20
12.7877490424
 10
-12.8159804648
 20
12.7880278465
 10
-12.8112369756
 20
12.7884860281
 10
-12.8065551782
 20
12.7891182759
 10
-12.8019180186
 20
12.7899192784
 10
-12.7973084431
 20
12.7908837243
 10
-12.7927128028
 20
12.7920076491
 10
-12.7881310701
 20
12.7932924768
 10
-12.7835666222
 20
12.7947409782
 10
-12.7790228368
 20
12.7963559243
 10
-12.7745030911
 20
12.798140086
 10
-12.7700107626
 20
12.8000962342
 10
-12.7655509691
 20
12.8022261837
 10
-12.7611357901
 20
12.8045279245
 10
-12.7567790454
 20
12.8069984904
 10
-12.7524945548
 20
12.8096349152
 10
-12.7482961381
 20
12.8124342326
 10
-12.7441976151
 20
12.8153934766
 10
-12.740211494
 20
12.8185096759
 10
-12.7363450355
 20
12.8217798402
 10
-12.7326041888
 20
12.8252009742
 10
-12.728994903
 20
12.8287700824
 10
-12.7255231271
 20
12.8324841695
 10
-12.7221948104
 20
12.8363402402
 10
-12.7190154879
 20
12.840334476
 10
-12.7159890387
 20
12.8444597665
 10
-12.7131189282
 20
12.8487081778
 10
-12.7104086214
 20
12.8530717762
 10
-12.7078615835
 20
12.8575426281
 10
-12.7054812798
 20
12.8621127998
 10
-12.7032711453
 20
12.8667748909
 10
-12.7012344947
 20
12.8715236346
 10
-12.6993746124
 20
12.8763542974
 10
-12.6976947831
 20
12.8812621458
 10
-12.6961982913
 20
12.8862424462
 10
-12.6948884215
 20
12.8912904652
 10
-12.6937686393
 20
12.896400527
 10
-12.6928431346
 20
12.9015631863
 10
-12.6921162783
 20
12.9067680558
 10
-12.6915924415
 20
12.9120047478
 10
-12.691275995
 20
12.917262875
 10
-12.6911713098
 20
12.9225320498
 10
-12.6912813588
 20
12.927801938
 10
-12.6916035229
 20
12.9330624181
 10
-12.6921337849
 20
12.9383034221
 10
-12.6928681275
 20
12.9435148816
 10
-12.6938025335
 20
12.9486867287
 10
-12.6949329858
 20
12.9538088951
 10
-12.6962555623
 20
12.9588720774
 10
-12.6977667212
 20
12.963870032
 10
-12.699463016
 20
12.9687972797
 10
-12.7013409999
 20
12.9736483416
 10
-12.7033972264
 20
12.9784177387
 10
-12.705628249
 20
12.983099992
 10
-12.7080308615
 20
12.9876893722
 10
-12.710602821
 20
12.9921791488
 10
-12.7133421249
 20
12.9965623409
 10
-12.7162467708
 20
13.0008319676
 10
-12.7193147562
 20
13.0049810481
 10
-12.7225440787
 20
13.0090026014
 10
-12.7259317819
 20
13.0128899336
 10
-12.7294710935
 20
13.0166374986
 10
-12.7331542873
 20
13.0202400368
 10
-12.7369736371
 20
13.0236922891
 10
-12.7409214167
 20
13.026988996
 10
-12.7449899
 20
13.0301248983
 10
-12.7491697216
 20
13.0330951111
 10
-12.7534449596
 20
13.0358962484
 10
-12.7577980532
 20
13.0385252985
 10
-12.7622114414
 20
13.0409792499
 10
-12.7666675632
 20
13.0432550909
 10
-12.7711488577
 20
13.0453498099
 10
-12.7756403824
 20
13.0472617539
 10
-12.7801376685
 20
13.0489947036
 10
-12.7846388659
 20
13.050553798
 10
-12.7891421242
 20
13.0519441765
 10
-12.7936455931
 20
13.053170978
 10
-12.7981474225
 20
13.0542393419
 10
-12.8026490045
 20
13.0551528927
 10
-12.8071647014
 20
13.0559091967
 10
-12.8117121181
 20
13.056504306
 10
-12.8163088592
 20
13.0569342722
 10
-12.8209725296
 20
13.0571951472
 10
-12.825720734
 20
13.0572829829
  0
LWPOLYLINE
  5
31E
100
AcDbEntity
  8
CURVE
100
AcDbPolyline
 62
253
  6
CONTINUOUS
 90
85
 70
0
 10
-9.864010254
 20
13.0572829829
 10
-9.8689268854
 20
13.0571896287
 10
-9.8737482315
 20
13.0569130204
 10
-9.8784913761
 20
13.0564583398
 10
-9.8831734029
 20
13.0558307687
 10
-9.8878113959
 20
13.0550354889
 10
-9.8924224388
 20
13.0540776821
 10
-9.8970202071
 20
13.0529611891
 10
-9.9016047426
 20
13.0516844866
 10
-9.906172679
 20
13.0502447101
 10
-9.9107206499
 20
13.0486389952
 10
-9.9152452889
 20
13.0468644776
 10
-9.9197432296
 20
13.0449182929
 10
-9.9242093536
 20
13.0427985336
 10
-9.9286315353
 20
13.0405071202
 10
-9.9329958971
 20
13.0380469299
 10
-9.9372885612
 20
13.0354208402
 10
-9.9414956502
 20
13.0326317283
 10
-9.9456032864
 20
13.0296824716
 10
-9.9495989041
 20
13.0265759541
 10
-9.9534751844
 20
13.0233150862
 10
-9.9572261204
 20
13.019902785
 10
-9.9608457052
 20
13.0163419675
 10
-9.9643279319
 20
13.0126355509
 10
-9.9676667935
 20
13.008786452
 10
-9.9708567049
 20
13.0047984288
 10
-9.9738937686
 20
13.0006786011
 10
-9.9767745087
 20
12.9964349298
 10
-9.9794954495
 20
12.9920753756
 10
-9.9820531153
 20
12.9876078991
 10
-9.9844440304
 20
12.9830404611
 10
-9.9866647505
 20
12.9783804896
 10
-9.9887119582
 20
12.9736332813
 10
-9.9905823676
 20
12.9688036005
 10
-9.9922726929
 20
12.9638962112
 10
-9.993779648
 20
12.9589158774
 10
-9.9950999473
 20
12.9538673634
 10
-9.9962301155
 20
12.9487563673
 10
-9.9971659212
 20
12.9435923239
 10
-9.9979029437
 20
12.938385602
 10
-9.9984367623
 20
12.9331465705
 10
-9.9987629563
 20
12.9278855982
 10
-9.998877105
 20
12.9226130541
 10
-9.9987761772
 20
12.9173392482
 10
-9.9984626988
 20
12.9120742563
 10
-9.9979405856
 20
12.9068280951
 10
-9.997213753
 20
12.9016107817
 10
-9.9962861165
 20
12.896432333
 10
-9.9951615918
 20
12.8913027658
 10
-9.9938440179
 20
12.8862313653
 10
-9.992336929
 20
12.8812244891
 10
-9.9906437829
 20
12.8762877629
 10
-9.9887680374
 20
12.8714268124
 10
-9.9867131503
 20
12.8666472634
 10
-9.9844825793
 20
12.8619547416
 10
-9.9820795173
 20
12.8573551006
 10
-9.9795060971
 20
12.8528551054
 10
-9.9767641866
 20
12.8484617491
 10
-9.9738556536
 20
12.8441820244
 10
-9.9707823661
 20
12.8400229244
 10
-9.9675461919
 20
12.8359914419
 10
-9.9641499915
 20
12.8320943102
 10
-9.9606005959
 20
12.8283372241
 10
-9.9569058287
 20
12.8247256189
 10
-9.9530735137
 20
12.8212649297
 10
-9.9491114743
 20
12.8179605917
 10
-9.9450275342
 20
12.81481804
 10
-9.9408311877
 20
12.8118422954
 10
-9.9365386106
 20
12.8090367211
 10
-9.9321676497
 20
12.8064042656
 10
-9.9277361515
 20
12.8039478777
 10
-9.9232619626
 20
12.801670506
 10
-9.9187629295
 20
12.7995750992
 10
-9.9142542269
 20
12.7976632331
 10
-9.9097403415
 20
12.7959309915
 10
-9.905223088
 20
12.7943730856
 10
-9.9007042812
 20
12.7929842264
 10
-9.8961857358
 20
12.791759125
 10
-9.8916692665
 20
12.7906924925
 10
-9.8871534222
 20
12.7897805703
 10
-9.8826236885
 20
12.7890257213
 10
-9.8780622851
 20
12.7884318391
 10
-9.8734514318
 20
12.7880028172
 10
-9.8687733482
 20
12.7877425488
 10
-9.864010254
 20
12.7876549274
  0
LWPOLYLINE
  5
31F
100
AcDbEntity
  8
CURVE
100
AcDbPolyline
 62
253
  6
CONTINUOUS
 90
85
 70
0
 10
-13.7805137652
 20
13.0572829829
 10
-13.7854334717
 20
13.0571887608
 10
-13.7902572865
 20
13.0569096464
 10
-13.7950022614
 20
13.0564509677
 10
-13.7996854485
 20
13.0558180525
 10
-13.8043238998
 20
13.0550162288
 10
-13.808934667
 20
13.0540508244
 10
-13.8135313978
 20
13.0529258188
 10
-13.8181141218
 20
13.0516397969
 10
-13.8226794642
 20
13.0501899951
 10
-13.82722405
 20
13.0485736497
 10
-13.8317445047
 20
13.0467879972
 10
-13.8362374532
 20
13.044830274
 10
-13.8406977795
 20
13.0426986732
 10
-13.8451134024
 20
13.0403952159
 10
-13.8494704992
 20
13.0379228799
 10
-13.8537552473
 20
13.0352846429
 10
-13.8579538242
 20
13.0324834829
 10
-13.8620524073
 20
13.0295223776
 10
-13.8660384864
 20
13.0264043121
 10
-13.8699048011
 20
13.0231323006
 10
-13.8736454032
 20
13.0197093644
 10
-13.8772543449
 20
13.0161385251
 10
-13.880725678
 20
13.0124228039
 10
-13.8840534545
 20
13.0085652223
 10
-13.8872321428
 20
13.004569619
 10
-13.8902578775
 20
13.0004431016
 10
-13.8931272096
 20
12.9961935949
 10
-13.89583669
 20
12.9918290237
 10
-13.8983828697
 20
12.9873573129
 10
-13.9007622997
 20
12.9827863874
 10
-13.9029715593
 20
12.9781236409
 10
-13.9050073407
 20
12.9733743431
 10
-13.9068663648
 20
12.9685432326
 10
-13.9085453519
 20
12.9636350479
 10
-13.9100410229
 20
12.9586545277
 10
-13.9113500982
 20
12.9536064106
 10
-13.912469117
 20
12.9484963751
 10
-13.913393892
 20
12.9433338596
 10
-13.9141200548
 20
12.9381292426
 10
-13.9146432364
 20
12.9328929024
 10
-13.9149590683
 20
12.9276352174
 10
-13.9150631818
 20
12.922366566
 10
-13.9149526047
 20
12.9170972738
 10
-13.9146299514
 20
12.9118374545
 10
-13.9140992325
 20
12.9065971693
 10
-13.913364459
 20
12.9013864792
 10
-13.9124296417
 20
12.8962154451
 10
-13.9112987914
 20
12.8910941282
 10
-13.9099758253
 20
12.8860318258
 10
-13.9084642868
 20
12.8810347819
 10
-13.9067676254
 20
12.8761084765
 10
-13.9048892909
 20
12.8712583901
 10
-13.9028327329
 20
12.8664900029
 10
-13.9006014012
 20
12.8618087951
 10
-13.8981985042
 20
12.8572204968
 10
-13.8956262857
 20
12.8527318379
 10
-13.8928867486
 20
12.8483497976
 10
-13.8899818955
 20
12.8440813557
 10
-13.8869137291
 20
12.8399334915
 10
-13.8836842521
 20
12.8359131846
 10
-13.8802964214
 20
12.8320271267
 10
-13.876757011
 20
12.8282808576
 10
-13.8730737491
 20
12.8246796296
 10
-13.8692543637
 20
12.8212286945
 10
-13.865306583
 20
12.8179333046
 10
-13.8612381353
 20
12.8147987118
 10
-13.8570583871
 20
12.8118297934
 10
-13.8527832596
 20
12.8090299273
 10
-13.8484303122
 20
12.8064021163
 10
-13.8440171046
 20
12.8039493634
 10
-13.8395611963
 20
12.8016746716
 10
-13.8350801468
 20
12.7995810439
 10
-13.8305888978
 20
12.7976701258
 10
-13.8260919183
 20
12.7959381331
 10
-13.8215910596
 20
12.7943799243
 10
-13.8170881728
 20
12.7929903578
 10
-13.812585109
 20
12.7917642921
 10
-13.8080837195
 20
12.7906965855
 10
-13.8035826124
 20
12.7897836102
 10
-13.7990674252
 20
12.7890277933
 10
-13.7945205524
 20
12.7884330758
 10
-13.7899243885
 20
12.7880033984
 10
-13.7852613279
 20
12.787742702
 10
-13.7805137652
 20
12.7876549274
  0
LWPOLYLINE
  5
320
100
AcDbEntity
  8
CURVE
100
AcDbPolyline
 62
253
  6
CONTINUOUS
 90
69
 70
0
 10
-12.3922274118
 20
13.8350168716
 10
-12.3880238919
 20
13.8350855216
 10
-12.3838756802
 20
13.8352897628
 10
-12.3797711221
 20
13.8356270322
 10
-12.3756985628
 20
13.8360947667
 10
-12.3716463478
 20
13.8366904032
 10
-12.3676028224
 20
13.8374113787
 10
-12.3627494655
 20
13.8384399311
 10
-12.3578945786
 20
13.8396501112
 10
-12.3530409013
 20
13.8410467497
 10
-12.3481911734
 20
13.842634677
 10
-12.3433481344
 20
13.8444187237
 10
-12.3385171555
 20
13.8464023171
 10
-12.3337141338
 20
13.848583272
 10
-12.3289575978
 20
13.8509580004
 10
-12.3242660761
 20
13.8535229138
 10
-12.319658097
 20
13.8562744242
 10
-12.3158945206
 20
13.8587074799
 10
-12.3122078774
 20
13.8612666279
 10
-12.3086042178
 20
13.8639508709
 10
-12.3050895922
 20
13.8667592119
 10
-12.3016700509
 20
13.8696906538
 10
-12.2983516444
 20
13.8727441993
 10
-12.295139956
 20
13.8759182187
 10
-12.2920387013
 20
13.8792085503
 10
-12.2890511288
 20
13.8826103998
 10
-12.2861804869
 20
13.8861189731
 10
-12.2834300243
 20
13.8897294757
 10
-12.2808029895
 20
13.8934371133
 10
-12.2783024197
 20
13.8972373026
 10
-12.2759305073
 20
13.9011263035
 10
-12.2736892335
 20
13.905100587
 10
-12.2715805793
 20
13.909156624
 10
-12.269606526
 20
13.9132908855
 10
-12.2677690546
 20
13.9174998424
 10
-12.2660703744
 20
13.9217793638
 10
-12.264513607
 20
13.9261229118
 10
-12.2631021023
 20
13.9305233467
 10
-12.2618392099
 20
13.9349735288
 10
-12.2607282796
 20
13.9394663184
 10
-12.2597726613
 20
13.9439945757
 10
-12.2589752595
 20
13.9485511638
 10
-12.2583371991
 20
13.9531289572
 10
-12.2578591598
 20
13.957720833
 10
-12.2575418214
 20
13.9623196684
 10
-12.2573858634
 20
13.9669183406
 10
-12.2573919658
 20
13.9715097268
 10
-12.2575601123
 20
13.9760871466
 10
-12.2578875036
 20
13.9806456894
 10
-12.2583706444
 20
13.9851808871
 10
-12.2590060393
 20
13.9896882713
 10
-12.2597901933
 20
13.9941633739
 10
-12.2607196109
 20
13.9986017268
 10
-12.2620208506
 20
14.0038713511
 10
-12.2635148679
 20
14.0090643119
 10
-12.265190294
 20
14.0141632995
 10
-12.2670357597
 20
14.0191510043
 10
-12.2690398962
 20
14.0240101167
 10
-12.2711923264
 20
14.0287266673
 10
-12.2734866404
 20
14.0333000479
 10
-12.2759174201
 20
14.0377329905
 10
-12.2784792474
 20
14.0420282271
 10
-12.2811667043
 20
14.0461884899
 10
-12.2835004716
 20
14.0495550695
 10
-12.2859275545
 20
14.0528363631
 10
-12.2884577881
 20
14.0560389193
 10
-12.291101008
 20
14.0591692867
 10
-12.2938670493
 20
14.0622340138
 10
-12.2967657475
 20
14.0652396493
  0
LWPOLYLINE
  5
321
100
AcDbEntity
  8
CURVE
100
AcDbPolyline
 62
253
  6
CONTINUOUS
 90
54
 70
0
 10
-11.3448995315
 20
14.2688629826
 10
-11.3411833828
 20
14.268916572
 10
-11.3375149484
 20
14.2690760075
 10
-11.3338867632
 20
14.2693392907
 10
-11.330291362
 20
14.2697044229
 10
-11.3267212797
 20
14.2701694056
 10
-11.3231690512
 20
14.2707322401
 10
-11.3196272114
 20
14.2713909278
 10
-11.3155004681
 20
14.2722788571
 10
-11.3113792441
 20
14.2732972313
 10
-11.3072650791
 20
14.2744487487
 10
-11.3031595132
 20
14.2757361077
 10
-11.2990640862
 20
14.2771620065
 10
-11.2949803382
 20
14.2787291434
 10
-11.2909114179
 20
14.2804393314
 10
-11.2868669102
 20
14.2822908417
 10
-11.2828580086
 20
14.2842810602
 10
-11.2788959069
 20
14.2864073726
 10
-11.2749917987
 20
14.2886671649
 10
-11.2711568777
 20
14.2910578228
 10
-11.2679327284
 20
14.2932092914
 10
-11.2647709247
 20
14.2954542778
 10
-11.2616747568
 20
14.297792074
 10
-11.2586475149
 20
14.3002219723
 10
-11.2556924891
 20
14.3027432647
 10
-11.2528129698
 20
14.3053552435
 10
-11.2500122471
 20
14.3080572006
 10
-11.2472933916
 20
14.310847898
 10
-11.2446585955
 20
14.313723976
 10
-11.2421098313
 20
14.3166815445
 10
-11.2396490715
 20
14.3197167135
 10
-11.2372782886
 20
14.322825593
 10
-11.2349994551
 20
14.326004293
 10
-11.2328145435
 20
14.3292489234
 10
-11.2307254864
 20
14.3325549632
 10
-11.2287340564
 20
14.3359153669
 10
-11.226841986
 20
14.3393224581
 10
-11.225051008
 20
14.3427685602
 10
-11.2233628549
 20
14.3462459968
 10
-11.2217792593
 20
14.3497470914
 10
-11.220301954
 20
14.3532641674
 10
-11.2187141195
 20
14.3573792335
 10
-11.2172702958
 20
14.3615045323
 10
-11.2159674625
 20
14.3656389926
 10
-11.2148025993
 20
14.369781543
 10
-11.2137726859
 20
14.3739311122
 10
-11.212874702
 20
14.3780866291
 10
-11.2122083815
 20
14.3816537895
 10
-11.2116388538
 20
14.3852320601
 10
-11.2111682032
 20
14.3888289688
 10
-11.2107985137
 20
14.3924520433
 10
-11.2105318694
 20
14.3961088111
 10
-11.2103703545
 20
14.3998068002
 10
-11.210316053
 20
14.4035535381
  0
LWPOLYLINE
  5
322
100
AcDbEntity
  8
CURVE
100
AcDbPolyline
 62
253
  6
CONTINUOUS
 90
37
 70
0
 10
-10.2978210763
 20
13.8350168716
 10
-10.2949407207
 20
13.8350509041
 10
-10.2920771068
 20
13.8351522666
 10
-10.2892262848
 20
13.8353198573
 10
-10.2863843051
 20
13.8355525742
 10
-10.2835472179
 20
13.8358493151
 10
-10.2807110735
 20
13.8362089783
 10
-10.2778726636
 20
13.8366306911
 10
-10.2750317461
 20
13.8371144996
 10
-10.2721888201
 20
13.8376606791
 10
-10.269344385
 20
13.8382695052
 10
-10.2664989401
 20
13.8389412534
 10
-10.2636529846
 20
13.8396761991
 10
-10.2608075262
 20
13.8404744476
 10
-10.257965606
 20
13.8413354231
 10
-10.2551307735
 20
13.8422583796
 10
-10.2523065783
 20
13.8432425712
 10
-10.2494965697
 20
13.8442872519
 10
-10.2467042974
 20
13.8453916756
 10
-10.2439332479
 20
13.84655497
 10
-10.2411866552
 20
13.8477757572
 10
-10.2384676908
 20
13.8490525327
 10
-10.2357795258
 20
13.8503837923
 10
-10.2331253313
 20
13.8517680315
 10
-10.2305082787
 20
13.853203746
 10
-10.2279310998
 20
13.854689648
 10
-10.2253947693
 20
13.8562253156
 10
-10.2228998226
 20
13.8578105432
 10
-10.220446795
 20
13.8594451256
 10
-10.218036222
 20
13.8611288573
 10
-10.2156686388
 20
13.8628615328
 10
-10.2133442485
 20
13.8646436331
 10
-10.2110619252
 20
13.8664783844
 10
-10.2088202104
 20
13.8683696992
 10
-10.2066176459
 20
13.8703214899
 10
-10.2044527733
 20
13.8723376691
 10
-10.2023241343
 20
13.8744221493
  0
LINE
  5
323
100
AcDbEntity
  8
CURVE
100
AcDbLine
 62
253
  6
CONTINUOUS
 10
-8.9095700006
 20
13.0572829829
 11
-9.864010254
 21
13.0572829829
  0
LINE
  5
324
100
AcDbEntity
  8
CURVE
100
AcDbLine
 62
253
  6
CONTINUOUS
 10
-12.825720734
 20
13.0572829829
 11
-13.7805137652
 21
13.0572829829
  0
LWPOLYLINE
  5
325
100
AcDbEntity
  8
CURVE
100
AcDbPolyline
 62
253
  6
CONTINUOUS
 90
89
 70
0
 10
-11.3448995315
 20
13.6472685383
 10
-11.3189937615
 20
13.6468173107
 10
-11.293398395
 20
13.6454699163
 10
-11.2680494648
 20
13.643236121
 10
-11.242883004
 20
13.640125691
 10
-11.2178479971
 20
13.6361453685
 10
-11.1929452351
 20
13.6312898004
 10
-11.1681884609
 20
13.6255506097
 10
-11.1435914171
 20
13.6189194194
 10
-11.1191737871
 20
13.6113913702
 10
-11.0949790171
 20
13.6029756727
 10
-11.0710564939
 20
13.5936850552
 10
-11.0474556043
 20
13.5835322461
 10
-11.0242214694
 20
13.5725309093
 10
-11.0013821482
 20
13.5606984522
 10
-10.9789614338
 20
13.5480532181
 10
-10.9569831195
 20
13.5346135501
 10
-10.9354721446
 20
13.5203973945
 10
-10.9144580322
 20
13.5054211096
 10
-10.8939714515
 20
13.4897006571
 10
-10.8740430718
 20
13.4732519983
 10
-10.8547033118
 20
13.45609313
 10
-10.835981589
 20
13.4382501902
 10
-10.8179070707
 20
13.4197513517
 10
-10.800508924
 20
13.4006247877
 10
-10.7838134098
 20
13.3808979964
 10
-10.7678351642
 20
13.3605957768
 10
-10.7525859172
 20
13.339742253
 10
-10.7380773986
 20
13.3183615493
 10
-10.7243220521
 20
13.2964743556
 10
-10.711335176
 20
13.2740876261
 10
-10.6991327821
 20
13.2512048806
 10
-10.6877308824
 20
13.227829639
 10
-10.677147512
 20
13.2039733308
 10
-10.6674087993
 20
13.1796790229
 10
-10.6585428954
 20
13.154997692
 10
-10.6505779518
 20
13.1299803147
 10
-10.6435380001
 20
13.104679071
 10
-10.6374305923
 20
13.0791509555
 10
-10.6322591607
 20
13.0534541664
 10
-10.6280271375
 20
13.027646902
 10
-10.6247360212
 20
13.0017797826
 10
-10.6223795752
 20
12.9758731181
 10
-10.6209496291
 20
12.9499396407
 10
-10.6204380126
 20
12.9239920825
 10
-10.6208392469
 20
12.8980432423
 10
-10.6221586189
 20
12.8721061865
 10
-10.6244041071
 20
12.8461940478
 10
-10.6275836899
 20
12.8203199593
 10
-10.631703531
 20
12.7945044234
 10
-10.6367625347
 20
12.7687974206
 10
-10.6427577906
 20
12.7432563011
 10
-10.6496863883
 20
12.7179384148
 10
-10.6575410542
 20
12.6929004529
 10
-10.6662970623
 20
12.6681964701
 10
-10.6759253235
 20
12.6438798623
 10
-10.6863967485
 20
12.6200040254
 10
-10.6976846058
 20
12.5966134332
 10
-10.7097715941
 20
12.5737168717
 10
-10.7226427698
 20
12.5513142049
 10
-10.7362831893
 20
12.5294052968
 10
-10.7506796151
 20
12.507993208
 10
-10.7658256343
 20
12.4870937864
 10
-10.7817165405
 20
12.4667260761
 10
-10.798347627
 20
12.4469091217
 10
-10.8157095191
 20
12.4276648617
 10
-10.8337741697
 20
12.4090268114
 10
-10.8525088637
 20
12.3910313801
 10
-10.871880886
 20
12.3737149772
 10
-10.8918570302
 20
12.3571109851
 10
-10.9124021262
 20
12.3412406774
 10
-10.9334805124
 20
12.3261223005
 10
-10.9550565274
 20
12.311774101
 10
-10.977097082
 20
12.2982139198
 10
-10.9995793753
 20
12.2854579763
 10
-11.0224831785
 20
12.2735220839
 10
-11.045788263
 20
12.2624220566
 10
-11.069469758
 20
12.2521733709
 10
-11.0934842247
 20
12.2427901556
 10
-11.1177835824
 20
12.2342862023
 10
-11.1423197504
 20
12.2266753027
 10
-11.1670501565
 20
12.2199677417
 10
-11.1919542637
 20
12.2141597779
 10
-11.2170170434
 20
12.209244163
 10
-11.2422234671
 20
12.2052136489
 10
-11.2675717949
 20
12.2020639444
 10
-11.2931134411
 20
12.1998025864
 10
-11.3189131082
 20
12.1984400687
 10
-11.3450354991
 20
12.1979868852
  0
LINE
  5
326
100
AcDbEntity
  8
ASSI
100
AcDbLine
 62
253
  6
CONTINUOUS
 10
21.6353901709
 20
-22.060624217
 11
21.7062510285
 21
-22.2733796666
  0
LINE
  5
327
100
AcDbEntity
  8
ASSI
100
AcDbLine
 62
253
  6
CONTINUOUS
 10
22.1353138133
 20
-21.5613088336
 11
22.2066308518
 21
-21.7754339388
  0
LWPOLYLINE
  5
328
100
AcDbEntity
  8
ASSI
100
AcDbPolyline
 62
253
  6
CONTINUOUS
 90
12
 70
0
 10
22.1353138133
 20
21.4375120755
 10
22.134700289
 20
21.4350450898
 10
22.1340901095
 20
21.431357135
 10
22.1334832748
 20
21.4264482112
 10
22.1328790294
 20
21.4203092208
 10
22.1322781289
 20
21.4129492614
 10
22.1316828393
 20
21.4043956256
 10
22.1310931914
 20
21.3946438507
 10
22.1305091544
 20
21.3836983994
 10
22.1299329024
 20
21.3715999532
 10
22.1293644689
 20
21.3583442951
 10
22.12825303
 20
21.3284273268
  0
LWPOLYLINE
  5
329
100
AcDbEntity
  8
ASSI
100
AcDbPolyline
 62
253
  6
CONTINUOUS
 90
10
 70
0
 10
21.6353901019
 20
21.9368274588
 10
21.6347764077
 20
21.9331405952
 10
21.6341661073
 20
21.9276051638
 10
21.6335592005
 20
21.9202279776
 10
21.6329549505
 20
21.9110181441
 10
21.6323540941
 20
21.8999870125
 10
21.6317588425
 20
21.8871481325
 10
21.631169205
 20
21.8725172125
 10
21.6305851721
 20
21.8561123855
 10
21.629440509
 20
21.8180654166
  0
LWPOLYLINE
  5
32A
100
AcDbEntity
  8
ASSI
100
AcDbPolyline
 62
253
  6
CONTINUOUS
 90
10
 70
0
 10
22.1299329024
 20
-21.4953967112
 10
22.1305091544
 20
-21.5074951574
 10
22.1310931913
 20
-21.5184406087
 10
22.1316828393
 20
-21.5281923837
 10
22.1322781289
 20
-21.5367460194
 10
22.1328790294
 20
-21.5441059788
 10
22.1334832748
 20
-21.5502449693
 10
22.1340901095
 20
-21.5551538931
 10
22.134700289
 20
-21.5588418479
 10
22.1353138133
 20
-21.5613088336
  0
LWPOLYLINE
  5
32B
100
AcDbEntity
  8
ASSI
100
AcDbPolyline
 62
253
  6
CONTINUOUS
 90
8
 70
0
 10
21.631169205
 20
-21.9963139705
 10
21.6317588425
 20
-22.0109448905
 10
21.6323540941
 20
-22.0237837705
 10
21.6329549505
 20
-22.0348149021
 10
21.6335592005
 20
-22.0440247357
 10
21.6341661073
 20
-22.0514019219
 10
21.6347764077
 20
-22.0569373533
 10
21.6353901019
 20
-22.0606242169
  0
LINE
  5
32C
100
AcDbEntity
  8
ASSI
100
AcDbLine
 62
253
  6
CONTINUOUS
 10
21.6300089275
 20
-21.9617509899
 11
21.631169205
 21
-21.9963139705
  0
LINE
  5
32D
100
AcDbEntity
  8
ASSI
100
AcDbLine
 62
253
  6
CONTINUOUS
 10
21.6288798787
 20
-21.9202672047
 11
21.6300089275
 21
-21.9617509899
  0
LINE
  5
32E
100
AcDbEntity
  8
ASSI
100
AcDbLine
 62
253
  6
CONTINUOUS
 10
21.6277882239
 20
-21.872067431
 11
21.6288798787
 21
-21.9202672047
  0
LINE
  5
32F
100
AcDbEntity
  8
ASSI
100
AcDbLine
 62
253
  6
CONTINUOUS
 10
21.629440509
 20
21.8180654166
 11
21.6277882239
 21
21.7482706731
  0
LINE
  5
330
100
AcDbEntity
  8
ASSI
100
AcDbLine
 62
7
  6
CONTINUOUS
 10
18.9255746311
 20
22.1495829085
 11
18.5775197838
 21
22.117988948
  0
LINE
  5
331
100
AcDbEntity
  8
ASSI
100
AcDbLine
 62
253
  6
CONTINUOUS
 10
-22.1910084396
 20
20.4958612665
 11
-22.148926231
 21
20.4971304724
  0
LINE
  5
332
100
AcDbEntity
  8
ASSI
100
AcDbLine
 62
253
  6
CONTINUOUS
 10
-22.148926231
 20
20.4971304724
 11
-22.1039550432
 21
20.4982162138
  0
LINE
  5
333
100
AcDbEntity
  8
ASSI
100
AcDbLine
 62
253
  6
CONTINUOUS
 10
-22.1039550432
 20
20.4982162138
 11
-22.0565767203
 21
20.4991068575
  0
LINE
  5
334
100
AcDbEntity
  8
ASSI
100
AcDbLine
 62
253
  6
CONTINUOUS
 10
-22.0565767203
 20
20.4991068575
 11
-22.0072988976
 21
20.4997928607
  0
LINE
  5
335
100
AcDbEntity
  8
ASSI
100
AcDbLine
 62
253
  6
CONTINUOUS
 10
-22.0072988976
 20
20.4997928607
 11
-21.9566495624
 21
20.5002668731
  0
LINE
  5
336
100
AcDbEntity
  8
ASSI
100
AcDbLine
 62
253
  6
CONTINUOUS
 10
-21.9566495624
 20
20.5002668731
 11
-21.8792936814
 21
20.5005699344
  0
LINE
  5
337
100
AcDbEntity
  8
ASSI
100
AcDbLine
 62
253
  6
CONTINUOUS
 10
21.6705492784
 20
20.5004227165
 11
-21.8792936665
 21
20.5005562566
  0
LINE
  5
338
100
AcDbEntity
  8
ASSI
100
AcDbLine
 62
253
  6
CONTINUOUS
 10
21.7216815705
 20
20.5000567479
 11
21.6705492784
 21
20.5004227165
  0
LINE
  5
339
100
AcDbEntity
  8
ASSI
100
AcDbLine
 62
253
  6
CONTINUOUS
 10
21.7717122142
 20
20.4994759613
 11
21.7216815705
 21
20.5000567479
  0
LINE
  5
33A
100
AcDbEntity
  8
ASSI
100
AcDbLine
 62
253
  6
CONTINUOUS
 10
21.8201051554
 20
20.4986865793
 11
21.7717122142
 21
20.4994759613
  0
LINE
  5
33B
100
AcDbEntity
  8
ASSI
100
AcDbLine
 62
253
  6
CONTINUOUS
 10
21.8663418874
 20
20.4976970599
 11
21.8201051554
 21
20.4986865793
  0
LWPOLYLINE
  5
33C
100
AcDbEntity
  8
ASSI
100
AcDbPolyline
 62
253
  6
CONTINUOUS
 90
3
 70
0
 10
21.9305780268
 20
20.4958612744
 10
21.9099270065
 20
20.4965180053
 10
21.8663418874
 20
20.4976970599
  0
LINE
  5
33D
100
AcDbEntity
  8
ASSI
100
AcDbLine
 62
7
  6
CONTINUOUS
 10
-19.1860051174
 20
22.1495829085
 11
-18.8379502701
 21
22.117988948
  0
LINE
  5
33E
100
AcDbEntity
  8
ASSI
100
AcDbLine
 62
253
  6
CONTINUOUS
 10
22.1288038203
 20
-21.4677324001
 11
22.1299329024
 21
-21.4953967112
  0
LWPOLYLINE
  5
33F
100
AcDbEntity
  8
ASSI
100
AcDbPolyline
 62
253
  6
CONTINUOUS
 90
25
 70
0
 10
22.1114132295
 20
-0.4160571708
 10
22.1109831696
 20
-0.4029782933
 10
22.1096988147
 20
-0.3899554116
 10
22.1075656636
 20
-0.377044281
 10
22.1045928493
 20
-0.3643001783
 10
22.1007930994
 20
-0.3517776652
 10
22.0961826824
 20
-0.3395303551
 10
22.090781337
 20
-0.3276106827
 10
22.0846121886
 20
-0.31606968
 10
22.0777016495
 20
-0.304956758
 10
22.0700793065
 20
-0.2943194946
 10
22.0617777934
 20
-0.2842034312
 10
22.0528326523
 20
-0.274651878
 10
22.0432821804
 20
-0.2657057282
 10
22.0331672666
 20
-0.2574032827
 10
22.0225312166
 20
-0.2497800869
 10
22.011419567
 20
-0.2428687778
 10
21.9998798904
 20
-0.2366989446
 10
21.9879615923
 20
-0.231297002
 10
21.9757156989
 20
-0.2266860771
 10
21.9631946389
 20
-0.2228859102
 10
21.9504520189
 20
-0.2199127707
 10
21.9375423943
 20
-0.2177793871
 10
21.9245210353
 20
-0.2164948926
 10
21.9114436904
 20
-0.2160647862
  0
LINE
  5
340
100
AcDbEntity
  8
ASSI
100
AcDbLine
 62
253
  6
CONTINUOUS
 10
22.1277121337
 20
-21.4356120316
 11
22.1288038203
 21
-21.4677324001
  0
LWPOLYLINE
  5
341
100
AcDbEntity
  8
ASSI
100
AcDbPolyline
 62
253
  6
CONTINUOUS
 90
31
 70
0
 10
22.1353138133
 20
21.4375120755
 10
22.1346055977
 20
21.4636290151
 10
22.1325306578
 20
21.4896744535
 10
22.1290946742
 20
21.5155770852
 10
22.1243070536
 20
21.5412659953
 10
22.1181809032
 20
21.5666708541
 10
22.1107329949
 20
21.5917221098
 10
22.101983719
 20
21.6163511783
 10
22.0919570287
 20
21.6404906315
 10
22.0806803745
 20
21.6640743819
 10
22.0681846289
 20
21.687037863
 10
22.054504002
 20
21.7093182067
 10
22.0396759478
 20
21.7308544151
 10
22.0237410617
 20
21.7515875275
 10
22.0067429692
 20
21.7714607819
 10
21.9887282068
 20
21.7904197704
 10
21.9697460942
 20
21.808412588
 10
21.9498485996
 20
21.8253899749
 10
21.9290901972
 20
21.8413054514
 10
21.9075277182
 20
21.8561154447
 10
21.8852201952
 20
21.8697794091
 10
21.8622287004
 20
21.8822599358
 10
21.8386161788
 20
21.8935228564
 10
21.8144472753
 20
21.9035373358
 10
21.7897881584
 20
21.9122759568
 10
21.7647063384
 20
21.9197147953
 10
21.7392704829
 20
21.9258334857
 10
21.7135502289
 20
21.9306152765
 10
21.6876159919
 20
21.9340470763
 10
21.6615387733
 20
21.9361194897
 10
21.6353899657
 20
21.9368268429
  0
LINE
  5
342
100
AcDbEntity
  8
ASSI
100
AcDbLine
 62
253
  6
CONTINUOUS
 10
22.1261545345
 20
-21.3793706742
 11
22.1277121337
 21
-21.4356120316
  0
LINE
  5
343
100
AcDbEntity
  8
ASSI
100
AcDbLine
 62
253
  6
CONTINUOUS
 10
22.1247090054
 20
-21.3140428706
 11
22.1261545345
 21
-21.3793706742
  0
LINE
  5
344
100
AcDbEntity
  8
ASSI
100
AcDbLine
 62
253
  6
CONTINUOUS
 10
21.625735159
 20
-21.7565050893
 11
21.6277882239
 21
-21.872067431
  0
LINE
  5
345
100
AcDbEntity
  8
ASSI
100
AcDbLine
 62
253
  6
CONTINUOUS
 10
22.1229832579
 20
-21.2140542181
 11
22.1247090054
 21
-21.3140428706
  0
LINE
  5
346
100
AcDbEntity
  8
ASSI
100
AcDbLine
 62
253
  6
CONTINUOUS
 10
21.6234678538
 20
-21.5791869175
 11
21.625735159
 21
-21.7565050893
  0
LINE
  5
347
100
AcDbEntity
  8
ASSI
100
AcDbLine
 62
253
  6
CONTINUOUS
 10
22.1211984461
 20
-21.0712716007
 11
22.1229832579
 21
-21.2140542181
  0
LINE
  5
348
100
AcDbEntity
  8
ASSI
100
AcDbLine
 62
253
  6
CONTINUOUS
 10
21.6206876975
 20
-21.2328971704
 11
21.6234678538
 21
-21.5791869175
  0
LINE
  5
349
100
AcDbEntity
  8
ASSI
100
AcDbLine
 62
253
  6
CONTINUOUS
 10
22.1196722206
 20
-20.8796219255
 11
22.1211984461
 21
-21.0712716007
  0
LINE
  5
34A
100
AcDbEntity
  8
ASSI
100
AcDbLine
 62
253
  6
CONTINUOUS
 10
22.1188232054
 20
-20.6389726414
 11
22.1196722206
 21
-20.8796219255
  0
LINE
  5
34B
100
AcDbEntity
  8
ASSI
100
AcDbLine
 62
7
  6
CONTINUOUS
 10
22.2197847569
 20
13.0381016209
 11
22.2066308518
 21
21.6516371807
  0
LINE
  5
34C
100
AcDbEntity
  8
ASSI
100
AcDbLine
 62
253
  6
CONTINUOUS
 10
21.6189568929
 20
-20.7295363052
 11
21.6206876975
 21
-21.2328971704
  0
LINE
  5
34D
100
AcDbEntity
  8
ASSI
100
AcDbLine
 62
253
  6
CONTINUOUS
 10
22.1119210424
 20
-5.4644967286
 11
22.1188232054
 21
-20.6389726414
  0
LINE
  5
34E
100
AcDbEntity
  8
ASSI
100
AcDbLine
 62
253
  6
CONTINUOUS
 10
21.6189568929
 20
-20.7295363052
 11
21.6114894112
 21
-0.2186371397
  0
LINE
  5
34F
100
AcDbEntity
  8
ASSI
100
AcDbLine
 62
253
  6
CONTINUOUS
 10
22.1114132295
 20
-0.4160571708
 11
22.1119210424
 21
-5.4644967286
  0
LINE
  5
350
100
AcDbEntity
  8
ASSI
100
AcDbLine
 62
7
  6
CONTINUOUS
 10
22.2197847569
 20
-0.3618755338
 11
22.2197847569
 21
-13.1618983791
  0
LINE
  5
351
100
AcDbEntity
  8
ASSI
100
AcDbLine
 62
7
  6
CONTINUOUS
 10
22.2197847569
 20
0.2380787757
 11
22.2197847569
 21
13.0381016209
  0
LINE
  5
352
100
AcDbEntity
  8
ASSI
100
AcDbLine
 62
7
  6
CONTINUOUS
 10
22.2197847569
 20
-13.1618983791
 11
22.2066308518
 21
-21.7754339388
  0
LINE
  5
353
100
AcDbEntity
  8
ASSI
100
AcDbLine
 62
253
  6
CONTINUOUS
 10
21.6201780703
 20
21.0131192647
 11
21.6114894112
 21
0.0948403816
  0
LINE
  5
354
100
AcDbEntity
  8
ASSI
100
AcDbLine
 62
253
  6
CONTINUOUS
 10
22.119487764
 20
20.7222471291
 11
22.1114132295
 21
0.2922604127
  0
LINE
  5
355
100
AcDbEntity
  8
ASSI
100
AcDbLine
 62
253
  6
CONTINUOUS
 10
21.6226679432
 20
21.3753417236
 11
21.6201780703
 21
21.0131192647
  0
LINE
  5
356
100
AcDbEntity
  8
ASSI
100
AcDbLine
 62
253
  6
CONTINUOUS
 10
22.120895303
 20
20.91685559
 11
22.119487764
 21
20.7222471291
  0
LINE
  5
357
100
AcDbEntity
  8
ASSI
100
AcDbLine
 62
253
  6
CONTINUOUS
 10
22.1225917237
 20
21.0631834078
 11
22.120895303
 21
20.91685559
  0
LINE
  5
358
100
AcDbEntity
  8
ASSI
100
AcDbLine
 62
253
  6
CONTINUOUS
 10
21.6252533127
 20
21.6000312566
 11
21.6226679432
 21
21.3753417236
  0
LINE
  5
359
100
AcDbEntity
  8
ASSI
100
AcDbLine
 62
253
  6
CONTINUOUS
 10
22.1242545224
 20
21.1665541622
 11
22.1225917237
 21
21.0631834078
  0
LWPOLYLINE
  5
35A
100
AcDbEntity
  8
ASSI
100
AcDbPolyline
 62
253
  6
CONTINUOUS
 90
3
 70
0
 10
21.6277882239
 20
21.7482706731
 10
21.6272571995
 20
21.7217255116
 10
21.6252533127
 20
21.6000312566
  0
LINE
  5
35B
100
AcDbEntity
  8
ASSI
100
AcDbLine
 62
253
  6
CONTINUOUS
 10
22.1256590114
 20
21.2347559897
 11
22.1242545224
 21
21.1665541622
  0
LWPOLYLINE
  5
35C
100
AcDbEntity
  8
ASSI
100
AcDbPolyline
 62
253
  6
CONTINUOUS
 90
31
 70
0
 10
22.1353138133
 20
-21.5613088336
 10
22.1346055974
 20
-21.5874257789
 10
22.1325306566
 20
-21.6134712226
 10
22.1290946716
 20
-21.6393738591
 10
22.1243070493
 20
-21.6650627734
 10
22.1181808968
 20
-21.690467636
 10
22.1107329862
 20
-21.7155188947
 10
22.1019837077
 20
-21.7401479657
 10
22.0919570148
 20
-21.7642874208
 10
22.080680358
 20
-21.7878711724
 10
22.0681846098
 20
-21.8108346543
 10
22.0545039804
 20
-21.8331149981
 10
22.0396759239
 20
-21.8546512061
 10
22.0237410357
 20
-21.8753843176
 10
22.0067429415
 20
-21.8952575707
 10
21.9887281778
 20
-21.9142165575
 10
21.9697460642
 20
-21.932209373
 10
21.9498485691
 20
-21.9491867577
 10
21.9290901667
 20
-21.9651022316
 10
21.9075276881
 20
-21.9799122224
 10
21.885220166
 20
-21.993576184
 10
21.8622286726
 20
-22.0060567081
 10
21.8386161527
 20
-22.0173196261
 10
21.8144472515
 20
-22.027334103
 10
21.7897881372
 20
-22.0360727218
 10
21.7647063201
 20
-22.0435115584
 10
21.7392704679
 20
-22.049630247
 10
21.7135502174
 20
-22.0544120364
 10
21.6876159841
 20
-22.0578438352
 10
21.6615387693
 20
-22.059916248
 10
21.6353899657
 20
-22.060623601
  0
LINE
  5
35D
100
AcDbEntity
  8
ASSI
100
AcDbLine
 62
253
  6
CONTINUOUS
 10
22.1271810957
 20
21.2941035582
 11
22.1256590114
 21
21.2347559897
  0
LINE
  5
35E
100
AcDbEntity
  8
ASSI
100
AcDbLine
 62
253
  6
CONTINUOUS
 10
22.12825303
 20
21.3284273268
 11
22.1271810957
 21
21.2941035582
  0
LWPOLYLINE
  5
35F
100
AcDbEntity
  8
ASSI
100
AcDbPolyline
 62
253
  6
CONTINUOUS
 90
25
 70
0
 10
22.1114132295
 20
0.2922604127
 10
22.1109831706
 20
0.2791815511
 10
22.1096988188
 20
0.2661586844
 10
22.1075656725
 20
0.2532475677
 10
22.1045928647
 20
0.2405034775
 10
22.1007931227
 20
0.2279809756
 10
22.0961827146
 20
0.2157336747
 10
22.0907813789
 20
0.2038140095
 10
22.0846122406
 20
0.192273012
 10
22.0777017117
 20
0.1811600929
 10
22.0700793784
 20
0.1705228302
 10
22.0617778745
 20
0.1604067655
 10
22.0528327412
 20
0.1508552088
 10
22.0432822757
 20
0.1419090537
 10
22.0331673665
 20
0.1336066013
 10
22.022531319
 20
0.1259833972
 10
22.0114196693
 20
0.1190720788
 10
21.9998799902
 20
0.1129022357
 10
21.9879616866
 20
0.1075002829
 10
21.9757157847
 20
0.1028893481
 10
21.9631947132
 20
0.099089172
 10
21.9504520789
 20
0.0961160245
 10
21.937542437
 20
0.0939826346
 10
21.9245210579
 20
0.092698136
 10
21.9114436904
 20
0.0922680281
  0
LINE
  5
360
100
AcDbEntity
  8
ASSI
100
AcDbLine
 62
7
  6
CONTINUOUS
 10
7.7255746311
 20
22.1495829085
 11
7.3775197838
 21
22.117988948
  0
LINE
  5
361
100
AcDbEntity
  8
ASSI
100
AcDbLine
 62
7
  6
CONTINUOUS
 10
-3.5744253689
 20
22.1495829085
 11
-3.9224802162
 21
22.117988948
  0
LWPOLYLINE
  5
362
100
AcDbEntity
  8
ASSI
100
AcDbPolyline
 62
253
  6
CONTINUOUS
 90
3
 70
0
 10
-22.2477382554
 20
20.4936437114
 10
-22.2108239299
 20
20.4951620411
 10
-22.1910084396
 20
20.4958612665
  0
LINE
  5
363
100
AcDbEntity
  8
ASSI
100
AcDbLine
 62
253
  6
CONTINUOUS
 10
-21.8958206572
 20
21.9368274588
 11
21.6353901709
 21
21.9368274589
  0
LINE
  5
364
100
AcDbEntity
  8
ASSI
100
AcDbLine
 62
7
  6
CONTINUOUS
 10
18.404314703
 20
22.11274817
 11
15.0352548107
 21
22.11274817
  0
LINE
  5
365
100
AcDbEntity
  8
ASSI
100
AcDbLine
 62
7
  6
CONTINUOUS
 10
7.204314703
 20
22.11274817
 11
3.8352548107
 21
22.11274817
  0
LINE
  5
366
100
AcDbEntity
  8
ASSI
100
AcDbLine
 62
7
  6
CONTINUOUS
 10
-4.095685297
 20
22.11274817
 11
-7.4647451893
 21
22.11274817
  0
LINE
  5
367
100
AcDbEntity
  8
ASSI
100
AcDbLine
 62
7
  6
CONTINUOUS
 10
-15.295685297
 20
22.11274817
 11
-18.6647451893
 21
22.11274817
  0
LINE
  5
368
100
AcDbEntity
  8
ASSI
100
AcDbLine
 62
7
  6
CONTINUOUS
 10
21.7062510285
 20
22.1495829085
 11
18.9255746311
 21
22.1495829085
  0
LINE
  5
369
100
AcDbEntity
  8
ASSI
100
AcDbLine
 62
7
  6
CONTINUOUS
 10
14.5139948826
 20
22.1495829085
 11
7.7255746311
 21
22.1495829085
  0
LINE
  5
36A
100
AcDbEntity
  8
ASSI
100
AcDbLine
 62
7
  6
CONTINUOUS
 10
3.3139948826
 20
22.1495829085
 11
-3.5744253689
 21
22.1495829085
  0
LINE
  5
36B
100
AcDbEntity
  8
ASSI
100
AcDbLine
 62
7
  6
CONTINUOUS
 10
-7.9860051174
 20
22.1495829085
 11
-14.7744253689
 21
22.1495829085
  0
LINE
  5
36C
100
AcDbEntity
  8
ASSI
100
AcDbLine
 62
7
  6
CONTINUOUS
 10
-19.1860051174
 20
22.1495829085
 11
-21.9666815148
 21
22.1495829085
  0
LINE
  5
36D
100
AcDbEntity
  8
ASSI
100
AcDbLine
 62
7
  6
CONTINUOUS
 10
-7.9860051174
 20
22.1495829085
 11
-7.6379502701
 21
22.117988948
  0
LINE
  5
36E
100
AcDbEntity
  8
ASSI
100
AcDbLine
 62
7
  6
CONTINUOUS
 10
3.3139948826
 20
22.1495829085
 11
3.6620497299
 21
22.117988948
  0
LINE
  5
36F
100
AcDbEntity
  8
ASSI
100
AcDbLine
 62
7
  6
CONTINUOUS
 10
-14.7744253689
 20
22.1495829085
 11
-15.1224802162
 21
22.117988948
  0
LINE
  5
370
100
AcDbEntity
  8
ASSI
100
AcDbLine
 62
7
  6
CONTINUOUS
 10
14.5139948826
 20
22.1495829085
 11
14.8620497299
 21
22.117988948
  0
LWPOLYLINE
  5
371
100
AcDbEntity
  8
ASSI
100
AcDbPolyline
 62
253
  6
CONTINUOUS
 90
15
 70
0
 10
22.1187870427
 20
-20.6038042355
 10
22.1176657813
 20
-20.604868617
 10
22.1152075183
 20
-20.6059301454
 10
22.111418843
 20
-20.6069859755
 10
22.1063099105
 20
-20.6080332772
 10
22.099894415
 20
-20.6090692432
 10
22.0921895527
 20
-20.6100910967
 10
22.083215976
 20
-20.6110960988
 10
22.0729977377
 20
-20.6120815555
 10
22.061562227
 20
-20.6130448256
 10
22.048940096
 20
-20.6139833269
 10
22.0351651774
 20
-20.6148945439
 10
22.0202743936
 20
-20.6157760342
 10
22.0043076583
 20
-20.616625435
 10
21.9873077691
 20
-20.6174404695
  0
LWPOLYLINE
  5
372
100
AcDbEntity
  8
ASSI
100
AcDbPolyline
 62
253
  6
CONTINUOUS
 90
17
 70
0
 10
22.1187870427
 20
20.4800074774
 10
22.1176657923
 20
20.4810718593
 10
22.1152075396
 20
20.4821333881
 10
22.1114188737
 20
20.4831892186
 10
22.1063099498
 20
20.4842365207
 10
22.0998944621
 20
20.4852724872
 10
22.0921896067
 20
20.4862943412
 10
22.0832160359
 20
20.4872993437
 10
22.0729978027
 20
20.488284801
 10
22.0615622963
 20
20.4892480715
 10
22.0489401687
 20
20.4901865733
 10
22.0351652526
 20
20.4910977908
 10
22.0202744705
 20
20.4919792816
 10
22.0043077361
 20
20.4928286829
 10
21.9873078469
 20
20.4936437179
 10
21.96932037
 20
20.494422202
 10
21.9305780268
 20
20.4958612744
  0
LINE
  5
373
100
AcDbEntity
  8
ASSI
100
AcDbLine
 62
7
  6
CONTINUOUS
 10
-45.4518191263
 20
-22.060624217
 11
-41.3922033106
 21
-22.2733796666
  0
LINE
  5
374
100
AcDbEntity
  8
ASSI
100
AcDbLine
 62
253
  6
CONTINUOUS
 10
-45.434389104
 20
-21.5613088336
 11
-41.3486387043
 21
-21.7754339388
  0
LINE
  5
375
100
AcDbEntity
  8
ASSI
100
AcDbLine
 62
253
  6
CONTINUOUS
 10
-46.8713889131
 20
-20.6243205743
 11
-46.8720576874
 21
-20.6243666925
  0
LINE
  5
376
100
AcDbEntity
  8
ASSI
100
AcDbLine
 62
253
  6
CONTINUOUS
 10
-46.8660448876
 20
-20.6240636313
 11
-46.8713889131
 21
-20.6243205743
  0
LINE
  5
377
100
AcDbEntity
  8
ASSI
100
AcDbLine
 62
253
  6
CONTINUOUS
 10
-46.3812071597
 20
-20.6038042355
 11
-46.8660448876
 21
-20.6240636313
  0
LINE
  5
378
100
AcDbEntity
  8
ASSI
100
AcDbLine
 62
253
  6
CONTINUOUS
 10
-40.99505199
 20
-17.9953899803
 11
-41.0179277102
 21
-17.9953899794
  0
LWPOLYLINE
  5
379
100
AcDbEntity
  8
ASSI
100
AcDbPolyline
 62
253
  6
CONTINUOUS
 90
43
 70
0
 10
-46.3812071597
 20
-20.6038042355
 10
-46.3791354001
 20
-20.6389726414
 10
-46.3758407556
 20
-20.6739639352
 10
-46.3713232263
 20
-20.7087781171
 10
-46.3655741996
 20
-20.7434587689
 10
-46.3586022881
 20
-20.7779623087
 10
-46.350433329
 20
-20.8121579909
 10
-46.3410628638
 20
-20.846043887
 10
-46.330495351
 20
-20.8796219255
 10
-46.3187700035
 20
-20.9127671461
 10
-46.305882581
 20
-20.9454776744
 10
-46.2918373239
 20
-20.9777553848
 10
-46.2766861653
 20
-21.0094809407
 10
-46.2604250098
 20
-21.0406523479
 10
-46.243057953
 20
-21.0712716007
 10
-46.2246492145
 20
-21.1012253442
 10
-46.2051948774
 20
-21.130511183
 10
-46.1846988587
 20
-21.1591315126
 10
-46.1632371296
 20
-21.1869801657
 10
-46.14080615
 20
-21.2140542181
 10
-46.11740946
 20
-21.2403565939
 10
-46.0931336507
 20
-21.2657898976
 10
-46.0679754577
 20
-21.2903509202
 10
-46.0419381453
 20
-21.3140428706
 10
-46.0151180979
 20
-21.3367779804
 10
-45.9875123338
 20
-21.3585527476
 10
-45.9591238346
 20
-21.3793706742
 10
-45.9300579297
 20
-21.3991544975
 10
-45.9003121862
 20
-21.4179003162
 10
-45.869889037
 20
-21.4356120316
 10
-45.8389011095
 20
-21.4522240847
 10
-45.8073463531
 20
-21.4677324001
 10
-45.7752268185
 20
-21.4821410531
 10
-45.7426612848
 20
-21.4953967112
 10
-45.7096478294
 20
-21.5074951574
 10
-45.676188375
 20
-21.5184406087
 10
-45.6424074688
 20
-21.5281923837
 10
-45.6083033501
 20
-21.5367460194
 10
-45.5738777795
 20
-21.5441059788
 10
-45.5392605867
 20
-21.5502449693
 10
-45.5044950481
 20
-21.5551538931
 10
-45.4695378872
 20
-21.5588418479
 10
-45.434389104
 20
-21.5613088336
  0
LWPOLYLINE
  5
37A
100
AcDbEntity
  8
ASSI
100
AcDbPolyline
 62
253
  6
CONTINUOUS
 90
9
 70
0
 10
-46.8034186344
 20
0.1190720788
 10
-46.8032710519
 20
0.1129022357
 10
-46.8031101593
 20
0.1075002829
 10
-46.8029366453
 20
0.1028893481
 10
-46.8027512528
 20
0.099089172
 10
-46.8025547756
 20
0.0961160245
 10
-46.8023480547
 20
0.0939826346
 10
-46.8021319754
 20
0.092698136
 10
-46.8019074626
 20
0.0922680281
  0
LINE
  5
37B
100
AcDbEntity
  8
ASSI
100
AcDbLine
 62
253
  6
CONTINUOUS
 10
-46.803671401
 20
0.1336066013
 11
-46.8034186344
 21
0.1190720788
  0
LINE
  5
37C
100
AcDbEntity
  8
ASSI
100
AcDbLine
 62
253
  6
CONTINUOUS
 10
-46.803864135
 20
0.1508552088
 11
-46.803671401
 21
0.1336066013
  0
LINE
  5
37D
100
AcDbEntity
  8
ASSI
100
AcDbLine
 62
253
  6
CONTINUOUS
 10
-46.8036526368
 20
-0.4160571708
 11
-46.8039852633
 21
-0.3643001783
  0
LINE
  5
37E
100
AcDbEntity
  8
ASSI
100
AcDbLine
 62
253
  6
CONTINUOUS
 10
-46.8040337578
 20
0.1811600929
 11
-46.803864135
 21
0.1508552088
  0
LWPOLYLINE
  5
37F
100
AcDbEntity
  8
ASSI
100
AcDbPolyline
 62
253
  6
CONTINUOUS
 90
13
 70
0
 10
-46.8036526368
 20
-0.4160571708
 10
-46.7996235803
 20
-2.0989687474
 10
-46.7899260526
 20
-3.7817819333
 10
-46.7745600536
 20
-5.4644967286
 10
-46.7535252962
 20
-7.1471196305
 10
-46.7268220675
 20
-8.8296441417
 10
-46.6944512288
 20
-10.5120507705
 10
-46.6564131022
 20
-12.194339382
 10
-46.6127073657
 20
-13.8765101111
 10
-46.5633339136
 20
-15.5585438697
 10
-46.5082927111
 20
-17.2404342954
 10
-46.4475837931
 20
-18.9221877507
 10
-46.3812071597
 20
-20.6038042355
  0
LINE
  5
380
100
AcDbEntity
  8
ASSI
100
AcDbLine
 62
253
  6
CONTINUOUS
 10
-46.8039852633
 20
-0.3643001783
 11
-46.804057401
 21
-0.31606968
  0
LINE
  5
381
100
AcDbEntity
  8
ASSI
100
AcDbLine
 62
253
  6
CONTINUOUS
 10
-46.8040282202
 20
0.2279809756
 11
-46.8040337578
 21
0.1811600929
  0
LINE
  5
382
100
AcDbEntity
  8
ASSI
100
AcDbLine
 62
253
  6
CONTINUOUS
 10
-46.804057401
 20
-0.31606968
 11
-46.8039369178
 21
-0.2842034312
  0
LWPOLYLINE
  5
383
100
AcDbEntity
  8
ASSI
100
AcDbPolyline
 62
253
  6
CONTINUOUS
 90
3
 70
0
 10
-46.8036526368
 20
0.2922604127
 10
-46.8037592675
 20
0.2791815511
 10
-46.8040282202
 20
0.2279809756
  0
LINE
  5
384
100
AcDbEntity
  8
ASSI
100
AcDbLine
 62
253
  6
CONTINUOUS
 10
-46.8039369178
 20
-0.2842034312
 11
-46.8037755027
 21
-0.2657057282
  0
LWPOLYLINE
  5
385
100
AcDbEntity
  8
ASSI
100
AcDbPolyline
 62
253
  6
CONTINUOUS
 90
11
 70
0
 10
-46.8037755027
 20
-0.2657057282
 10
-46.8035522742
 20
-0.2497800869
 10
-46.8034186337
 20
-0.2428687778
 10
-46.8032710511
 20
-0.2366989446
 10
-46.8031101585
 20
-0.231297002
 10
-46.8029366445
 20
-0.2266860771
 10
-46.802751252
 20
-0.2228859102
 10
-46.8025547749
 20
-0.2199127707
 10
-46.8023480542
 20
-0.2177793871
 10
-46.8021319751
 20
-0.2164948926
 10
-46.8019074626
 20
-0.2160647862
  0
LINE
  5
386
100
AcDbEntity
  8
CURVE
100
AcDbLine
 62
253
  6
CONTINUOUS
 10
-47.1229094373
 20
13.0572829829
 11
-47.1299136991
 21
12.7876549274
  0
LWPOLYLINE
  5
387
100
AcDbEntity
  8
ASSI
100
AcDbPolyline
 62
253
  6
CONTINUOUS
 90
13
 70
0
 10
-46.3812071597
 20
20.4800074774
 10
-46.4475837931
 20
18.7983909926
 10
-46.5082927111
 20
17.1166375373
 10
-46.5633339136
 20
15.4347471116
 10
-46.6127073657
 20
13.752713353
 10
-46.6564131022
 20
12.0705426239
 10
-46.6944512288
 20
10.3882540124
 10
-46.7268220675
 20
8.7058473836
 10
-46.7535252962
 20
7.0233228724
 10
-46.7745600536
 20
5.3406999705
 10
-46.7899260526
 20
3.6579851752
 10
-46.7996235803
 20
1.9751719893
 10
-46.8036526368
 20
0.2922604127
  0
LWPOLYLINE
  5
388
100
AcDbEntity
  8
ASSI
100
AcDbPolyline
 62
253
  6
CONTINUOUS
 90
11
 70
0
 10
-45.4523511562
 20
21.8561154447
 10
-45.4529306336
 20
21.8822599358
 10
-45.4531087401
 20
21.8935228564
 10
-45.4532117069
 20
21.9035373358
 10
-45.4532392521
 20
21.9122759568
 10
-45.4531913003
 20
21.9197147953
 10
-45.4530679828
 20
21.9258334857
 10
-45.452869637
 20
21.9306152765
 10
-45.4525968062
 20
21.9340470763
 10
-45.4522502372
 20
21.9361194897
 10
-45.4518308789
 20
21.9368268429
  0
LWPOLYLINE
  5
389
100
AcDbEntity
  8
ASSI
100
AcDbPolyline
 62
253
  6
CONTINUOUS
 90
10
 70
0
 10
-45.4529306335
 20
-22.0060567081
 10
-45.45310874
 20
-22.0173196261
 10
-45.4532117067
 20
-22.027334103
 10
-45.4532392519
 20
-22.0360727218
 10
-45.4531913001
 20
-22.0435115584
 10
-45.4530679825
 20
-22.049630247
 10
-45.4528696368
 20
-22.0544120364
 10
-45.452596806
 20
-22.0578438352
 10
-45.4522502371
 20
-22.059916248
 10
-45.4518308789
 20
-22.060623601
  0
LINE
  5
38A
100
AcDbEntity
  8
ASSI
100
AcDbLine
 62
253
  6
CONTINUOUS
 10
-45.4523511564
 20
-21.9799122224
 11
-45.4529306335
 21
-22.0060567081
  0
LINE
  5
38B
100
AcDbEntity
  8
ASSI
100
AcDbLine
 62
253
  6
CONTINUOUS
 10
-45.434389104
 20
21.4375120755
 11
-45.4408589728
 21
21.5666708541
  0
LINE
  5
38C
100
AcDbEntity
  8
ASSI
100
AcDbLine
 62
253
  6
CONTINUOUS
 10
-45.4408589728
 20
21.5666708541
 11
-45.4462944524
 21
21.687037863
  0
LINE
  5
38D
100
AcDbEntity
  8
ASSI
100
AcDbLine
 62
253
  6
CONTINUOUS
 10
-45.4462944524
 20
21.687037863
 11
-45.449646402
 21
21.7714607819
  0
LINE
  5
38E
100
AcDbEntity
  8
ASSI
100
AcDbLine
 62
253
  6
CONTINUOUS
 10
-45.449646402
 20
21.7714607819
 11
-45.4514796163
 21
21.8253899749
  0
LINE
  5
38F
100
AcDbEntity
  8
ASSI
100
AcDbLine
 62
253
  6
CONTINUOUS
 10
-45.4514796163
 20
21.8253899749
 11
-45.4523511562
 21
21.8561154447
  0
LINE
  5
390
100
AcDbEntity
  8
ASSI
100
AcDbLine
 62
253
  6
CONTINUOUS
 10
-45.4514796167
 20
-21.9491867577
 11
-45.4523511564
 21
-21.9799122224
  0
LINE
  5
391
100
AcDbEntity
  8
ASSI
100
AcDbLine
 62
253
  6
CONTINUOUS
 10
-45.4496464027
 20
-21.8952575707
 11
-45.4514796167
 21
-21.9491867577
  0
LINE
  5
392
100
AcDbEntity
  8
ASSI
100
AcDbLine
 62
253
  6
CONTINUOUS
 10
-45.4462944535
 20
-21.8108346543
 11
-45.4496464027
 21
-21.8952575707
  0
LINE
  5
393
100
AcDbEntity
  8
ASSI
100
AcDbLine
 62
253
  6
CONTINUOUS
 10
-45.4408589738
 20
-21.690467636
 11
-45.4462944535
 21
-21.8108346543
  0
LINE
  5
394
100
AcDbEntity
  8
ASSI
100
AcDbLine
 62
253
  6
CONTINUOUS
 10
-45.434389104
 20
-21.5613088336
 11
-45.4408589738
 21
-21.690467636
  0
LINE
  5
395
100
AcDbEntity
  8
ASSI
100
AcDbLine
 62
253
  6
CONTINUOUS
 10
-40.59505199
 20
-0.3618755338
 11
-46.8036526368
 21
-0.4160571708
  0
LINE
  5
396
100
AcDbEntity
  8
ASSI
100
AcDbLine
 62
7
  6
CONTINUOUS
 10
-40.59505199
 20
-0.1618983791
 11
-47.0966699878
 21
-0.2186371397
  0
LINE
  5
397
100
AcDbEntity
  8
ASSI
100
AcDbLine
 62
253
  6
CONTINUOUS
 10
-46.8036526368
 20
-0.4160571708
 11
-47.2949246284
 21
-0.41877228
  0
LINE
  5
398
100
AcDbEntity
  8
ASSI
100
AcDbLine
 62
7
  6
CONTINUOUS
 10
-47.0966699878
 20
0.0948403816
 11
-40.59505199
 21
0.0381016209
  0
LINE
  5
399
100
AcDbEntity
  8
ASSI
100
AcDbLine
 62
7
  6
CONTINUOUS
 10
-40.99505199
 20
17.8715932222
 11
-40.99505199
 21
17.6101225421
  0
LINE
  5
39A
100
AcDbEntity
  8
ASSI
100
AcDbLine
 62
7
  6
CONTINUOUS
 10
-40.99505199
 20
-17.7339193002
 11
-40.99505199
 21
-17.9953899803
  0
LINE
  5
39B
100
AcDbEntity
  8
ASSI
100
AcDbLine
 62
7
  6
CONTINUOUS
 10
-40.59505199
 20
-0.1618983791
 11
-40.59505199
 21
-13.1618983791
  0
LINE
  5
39C
100
AcDbEntity
  8
ASSI
100
AcDbLine
 62
7
  6
CONTINUOUS
 10
-40.59505199
 20
0.0381016209
 11
-40.59505199
 21
13.0381016209
  0
LINE
  5
39D
100
AcDbEntity
  8
ASSI
100
AcDbLine
 62
253
  6
CONTINUOUS
 10
-47.2949246284
 20
0.2949755219
 11
-46.8036526368
 21
0.2922604127
  0
LINE
  5
39E
100
AcDbEntity
  8
ASSI
100
AcDbLine
 62
253
  6
CONTINUOUS
 10
-46.8036526368
 20
0.2922604127
 11
-40.59505199
 21
0.2380787757
  0
LINE
  5
39F
100
AcDbEntity
  8
ASSI
100
AcDbLine
 62
7
  6
CONTINUOUS
 10
-40.59505199
 20
13.0381016209
 11
-41.3922033106
 21
22.1495829085
  0
LINE
  5
3A0
100
AcDbEntity
  8
ASSI
100
AcDbLine
 62
7
  6
CONTINUOUS
 10
-40.59505199
 20
-13.1618983791
 11
-41.3922033106
 21
-22.2733796666
  0
LINE
  5
3A1
100
AcDbEntity
  8
ASSI
100
AcDbLine
 62
253
  6
CONTINUOUS
 10
-40.99505199
 20
17.8715932222
 11
-41.0179277103
 21
17.8715932222
  0
LWPOLYLINE
  5
3A2
100
AcDbEntity
  8
ASSI
100
AcDbPolyline
 62
253
  6
CONTINUOUS
 90
43
 70
0
 10
-45.434389104
 20
21.4375120755
 10
-45.469537887
 20
21.4350450898
 10
-45.5044950479
 20
21.431357135
 10
-45.5392605864
 20
21.4264482112
 10
-45.5738777792
 20
21.4203092208
 10
-45.6083033498
 20
21.4129492614
 10
-45.6424074685
 20
21.4043956256
 10
-45.6761883747
 20
21.3946438507
 10
-45.7096478291
 20
21.3836983994
 10
-45.7426612845
 20
21.3715999532
 10
-45.7752268182
 20
21.3583442951
 10
-45.8073463529
 20
21.3439356421
 10
-45.8389011093
 20
21.3284273268
 10
-45.8698890368
 20
21.3118152737
 10
-45.900312186
 20
21.2941035582
 10
-45.9300579295
 20
21.2753577395
 10
-45.9591238344
 20
21.2555739163
 10
-45.9875123336
 20
21.2347559897
 10
-46.0151180977
 20
21.2129812225
 10
-46.0419381451
 20
21.1902461127
 10
-46.0679754575
 20
21.1665541622
 10
-46.0931336505
 20
21.1419931397
 10
-46.1174094599
 20
21.116559836
 10
-46.1408061499
 20
21.0902574602
 10
-46.1632371294
 20
21.0631834078
 10
-46.1846988586
 20
21.0353347547
 10
-46.2051948773
 20
21.0067144251
 10
-46.2246492144
 20
20.9774285863
 10
-46.2430579529
 20
20.9474748427
 10
-46.2604250097
 20
20.91685559
 10
-46.2766861652
 20
20.8856841828
 10
-46.2918373238
 20
20.8539586269
 10
-46.305882581
 20
20.8216809165
 10
-46.3187700034
 20
20.7889703882
 10
-46.330495351
 20
20.7558251676
 10
-46.3410628638
 20
20.7222471291
 10
-46.350433329
 20
20.688361233
 10
-46.3586022881
 20
20.6541655508
 10
-46.3655741996
 20
20.619662011
 10
-46.3713232262
 20
20.5849813592
 10
-46.3758407556
 20
20.5501671773
 10
-46.3791354001
 20
20.5151758833
 10
-46.3812071597
 20
20.4800074774
  0
LINE
  5
3A3
100
AcDbEntity
  8
ASSI
100
AcDbLine
 62
253
  6
CONTINUOUS
 10
-41.3486387043
 20
21.6516371807
 11
-45.434389104
 21
21.4375120755
  0
LINE
  5
3A4
100
AcDbEntity
  8
ASSI
100
AcDbLine
 62
7
  6
CONTINUOUS
 10
-41.3922033106
 20
22.1495829085
 11
-45.451819126
 21
21.9368274589
  0
LINE
  5
3A5
100
AcDbEntity
  8
ASSI
100
AcDbLine
 62
253
  6
CONTINUOUS
 10
-46.3812071597
 20
20.4800074774
 11
-46.8660451575
 21
20.5002668841
  0
LWPOLYLINE
  5
3A6
100
AcDbEntity
  8
ASSI
100
AcDbPolyline
 62
253
  6
CONTINUOUS
 90
3
 70
0
 10
-46.8660451575
 20
20.5002668841
 10
-46.8713891871
 20
20.5005238274
 10
-46.8720579622
 20
20.5005699458
  0
CIRCLE
  5
3A7
100
AcDbEntity
  8
ASSI
100
AcDbCircle
 62
7
  6
CONTINUOUS
 10
-11.3802152431
 20
4.4381016209
 40
1.3
  0
CIRCLE
  5
3A8
100
AcDbEntity
  8
ASSI
100
AcDbCircle
 62
7
  6
CONTINUOUS
 10
-11.3802152431
 20
-4.5618983791
 40
1.3
  0
CIRCLE
  5
3A9
100
AcDbEntity
  8
DRAFT
100
AcDbCircle
 62
7
  6
CONTINUOUS
 10
-11.3802152431
 20
-4.5618983791
 40
1.225
  0
CIRCLE
  5
3AA
100
AcDbEntity
  8
DRAFT
100
AcDbCircle
 62
7
  6
CONTINUOUS
 10
-11.3802152431
 20
4.4381016209
 40
1.225
  0
CIRCLE
  5
3AB
100
AcDbEntity
  8
RACCORDO
100
AcDbCircle
 62
253
  6
CONTINUOUS
 10
-11.3802152431
 20
-4.5618983791
 40
1.2068524201
  0
CIRCLE
  5
3AC
100
AcDbEntity
  8
RACCORDO
100
AcDbCircle
 62
253
  6
CONTINUOUS
 10
-11.3802152431
 20
4.4381016209
 40
1.2068524201
  0
CIRCLE
  5
3AD
100
AcDbEntity
  8
RACCORDO
100
AcDbCircle
 62
253
  6
CONTINUOUS
 10
-11.3802152431
 20
-4.5618983791
 40
1.1180464865
  0
CIRCLE
  5
3AE
100
AcDbEntity
  8
RACCORDO
100
AcDbCircle
 62
253
  6
CONTINUOUS
 10
-11.3802152431
 20
4.4381016209
 40
1.1180464865
  0
ARC
  5
3AF
100
AcDbEntity
  8
ASSI
100
AcDbCircle
 62
7
  6
CONTINUOUS
 10
-45.3733269445
 20
-20.5626792989
 40
1.5
100
AcDbArc
 50
182.3564266661
 51
267.0004495404
  0
ARC
  5
3B0
100
AcDbEntity
  8
ASSI
100
AcDbCircle
 62
7
  6
CONTINUOUS
 10
-41.29505199
 20
-17.9953899803
 40
0.3
100
AcDbArc
 50
335.0
 51
360.0
  0
ARC
  5
3B1
100
AcDbEntity
  8
ASSI
100
AcDbCircle
 62
7
  6
CONTINUOUS
 10
-47.0949246819
 20
-0.4186295244
 40
0.2
100
AcDbArc
 50
90.4999996495
 51
180.0408949932
  0
ARC
  5
3B2
100
AcDbEntity
  8
ASSI
100
AcDbCircle
 62
7
  6
CONTINUOUS
 10
-45.3733269445
 20
20.4388825408
 40
1.5
100
AcDbArc
 50
92.9995504596
 51
177.6435733339
  0
ARC
  5
3B3
100
AcDbEntity
  8
ASSI
100
AcDbCircle
 62
7
  6
CONTINUOUS
 10
-41.29505199
 20
17.8715932222
 40
0.3
100
AcDbArc
 50
0.0
 51
25.0
  0
ARC
  5
3B4
100
AcDbEntity
  8
ASSI
100
AcDbCircle
 62
7
  6
CONTINUOUS
 10
-47.0949246819
 20
0.2948327663
 40
0.2
100
AcDbArc
 50
179.9591050068
 51
269.5000003505
  0
ARC
  5
3B5
100
AcDbEntity
  8
ASSI
100
AcDbCircle
 62
7
  6
CONTINUOUS
 10
452.70494801
 20
-0.0618983791
 40
500.0
100
AcDbArc
 50
177.6430515792
 51
179.9591052604
  0
ARC
  5
3B6
100
AcDbEntity
  8
ASSI
100
AcDbCircle
 62
7
  6
CONTINUOUS
 10
452.70494801
 20
-0.0618983791
 40
500.0
100
AcDbArc
 50
180.0408947396
 51
182.3569484208
  0
ELLIPSE
  5
3B7
100
AcDbEntity
  8
ASSI
100
AcDbEllipse
 62
7
  6
CONTINUOUS
 10
22.0197542912
 20
0.2381092366
 30
0.0
 11
0.1789222233
 21
-0.0894542984
 31
0.0
 40
0.9998096356
 41
-1.1071030277
 42
0.4635410001
  0
ELLIPSE
  5
3B8
100
AcDbEntity
  8
ASSI
100
AcDbEllipse
 62
7
  6
CONTINUOUS
 10
-22.2801847775
 20
0.2381092366
 30
0.0
 11
0.1789222233
 21
0.0894542984
 31
0.0
 40
0.9998096356
 41
2.6780516535
 42
4.2486956813
  0
ELLIPSE
  5
3B9
100
AcDbEntity
  8
ASSI
100
AcDbEllipse
 62
7
  6
CONTINUOUS
 10
7.204314703
 20
22.1232297259
 30
0.0
 11
0.2
 21
0.0
 31
0.0
 40
0.0524077793
 41
-1.5707963268
 42
-0.5235987756
  0
ELLIPSE
  5
3BA
100
AcDbEntity
  8
ASSI
100
AcDbEllipse
 62
7
  6
CONTINUOUS
 10
-7.4647451893
 20
22.1232297259
 30
0.0
 11
0.2
 21
0.0
 31
0.0
 40
0.0524077793
 41
-2.617993878
 42
-1.5707963268
  0
ELLIPSE
  5
3BB
100
AcDbEntity
  8
ASSI
100
AcDbEllipse
 62
7
  6
CONTINUOUS
 10
-21.9669858693
 20
21.651181947
 30
0.0
 11
0.498078285
 21
0.0448076117
 31
0.0
 40
0.9965957691
 41
1.4807720384
 42
3.0506549766
  0
ELLIPSE
  5
3BC
100
AcDbEntity
  8
ASSI
100
AcDbEllipse
 62
7
  6
CONTINUOUS
 10
21.706555383
 20
21.651181947
 30
0.0
 11
0.498078285
 21
-0.0448076117
 31
0.0
 40
0.9965957691
 41
0.0909376769
 42
1.6608206152
  0
ELLIPSE
  5
3BD
100
AcDbEntity
  8
ASSI
100
AcDbEllipse
 62
7
  6
CONTINUOUS
 10
3.8352548107
 20
22.1232297259
 30
0.0
 11
0.2
 21
-0.0
 31
0.0
 40
0.0524077793
 41
-2.617993878
 42
-1.5707963268
  0
ELLIPSE
  5
3BE
100
AcDbEntity
  8
ASSI
100
AcDbEllipse
 62
7
  6
CONTINUOUS
 10
-4.095685297
 20
22.1232297259
 30
0.0
 11
0.2
 21
0.0
 31
0.0
 40
0.0524077793
 41
-1.5707963268
 42
-0.5235987756
  0
ELLIPSE
  5
3BF
100
AcDbEntity
  8
ASSI
100
AcDbEllipse
 62
7
  6
CONTINUOUS
 10
15.0352548107
 20
22.1232297259
 30
0.0
 11
0.2
 21
0.0
 31
0.0
 40
0.0524077793
 41
-2.617993878
 42
-1.5707963268
  0
ELLIPSE
  5
3C0
100
AcDbEntity
  8
ASSI
100
AcDbEllipse
 62
7
  6
CONTINUOUS
 10
18.404314703
 20
22.1232297259
 30
0.0
 11
0.2
 21
0.0
 31
0.0
 40
0.0524077793
 41
-1.5707963268
 42
-0.5235987756
  0
ELLIPSE
  5
3C1
100
AcDbEntity
  8
ASSI
100
AcDbEllipse
 62
7
  6
CONTINUOUS
 10
-15.295685297
 20
22.1232297259
 30
0.0
 11
0.2
 21
0.0
 31
0.0
 40
0.0524077793
 41
-1.5707963268
 42
-0.5235987756
  0
ELLIPSE
  5
3C2
100
AcDbEntity
  8
ASSI
100
AcDbEllipse
 62
7
  6
CONTINUOUS
 10
-18.6647451893
 20
22.1232297259
 30
0.0
 11
0.2
 21
0.0
 31
0.0
 40
0.0524077793
 41
-2.617993878
 42
-1.5707963268
  0
ELLIPSE
  5
3C3
100
AcDbEntity
  8
ASSI
100
AcDbEllipse
 62
7
  6
CONTINUOUS
 10
-7.4647451893
 20
-22.247026484
 30
0.0
 11
0.2
 21
0.0
 31
0.0
 40
0.0524077793
 41
1.5707963268
 42
2.617993878
  0
ELLIPSE
  5
3C4
100
AcDbEntity
  8
ASSI
100
AcDbEllipse
 62
7
  6
CONTINUOUS
 10
7.204314703
 20
-22.247026484
 30
0.0
 11
0.2
 21
0.0
 31
0.0
 40
0.0524077793
 41
0.5235987756
 42
1.5707963268
  0
ELLIPSE
  5
3C5
100
AcDbEntity
  8
ASSI
100
AcDbEllipse
 62
7
  6
CONTINUOUS
 10
-22.2801847775
 20
-0.3619059947
 30
0.0
 11
0.1789222233
 21
-0.0894542984
 31
0.0
 40
0.9998096356
 41
2.0344896259
 42
3.6051336537
  0
ELLIPSE
  5
3C6
100
AcDbEntity
  8
ASSI
100
AcDbEllipse
 62
7
  6
CONTINUOUS
 10
22.0197542912
 20
-0.3619059947
 30
0.0
 11
0.1789222233
 21
0.0894542984
 31
0.0
 40
0.9998096356
 41
-0.4635410001
 42
1.1071030277
  0
ELLIPSE
  5
3C7
100
AcDbEntity
  8
ASSI
100
AcDbEllipse
 62
7
  6
CONTINUOUS
 10
21.706555383
 20
-21.7749787052
 30
0.0
 11
0.498078285
 21
0.0448076117
 31
0.0
 40
0.9965957691
 41
-1.6608206152
 42
-0.0909376769
  0
ELLIPSE
  5
3C8
100
AcDbEntity
  8
ASSI
100
AcDbEllipse
 62
7
  6
CONTINUOUS
 10
-21.9669858693
 20
-21.7749787052
 30
0.0
 11
0.498078285
 21
-0.0448076117
 31
0.0
 40
0.9965957691
 41
-3.0506549766
 42
-1.4807720384
  0
ELLIPSE
  5
3C9
100
AcDbEntity
  8
ASSI
100
AcDbEllipse
 62
7
  6
CONTINUOUS
 10
-4.095685297
 20
-22.247026484
 30
0.0
 11
0.2
 21
-0.0
 31
0.0
 40
0.0524077793
 41
0.5235987756
 42
1.5707963268
  0
ELLIPSE
  5
3CA
100
AcDbEntity
  8
ASSI
100
AcDbEllipse
 62
7
  6
CONTINUOUS
 10
3.8352548107
 20
-22.247026484
 30
0.0
 11
0.2
 21
0.0
 31
0.0
 40
0.0524077793
 41
1.5707963268
 42
2.617993878
  0
ELLIPSE
  5
3CB
100
AcDbEntity
  8
ASSI
100
AcDbEllipse
 62
7
  6
CONTINUOUS
 10
-15.295685297
 20
-22.247026484
 30
0.0
 11
0.2
 21
0.0
 31
0.0
 40
0.0524077793
 41
0.5235987756
 42
1.5707963268
  0
ELLIPSE
  5
3CC
100
AcDbEntity
  8
ASSI
100
AcDbEllipse
 62
7
  6
CONTINUOUS
 10
-18.6647451893
 20
-22.247026484
 30
0.0
 11
0.2
 21
-0.0
 31
0.0
 40
0.0524077793
 41
1.5707963268
 42
2.617993878
  0
ELLIPSE
  5
3CD
100
AcDbEntity
  8
ASSI
100
AcDbEllipse
 62
7
  6
CONTINUOUS
 10
15.0352548107
 20
-22.247026484
 30
0.0
 11
0.2
 21
0.0
 31
0.0
 40
0.0524077793
 41
1.5707963268
 42
2.617993878
  0
ELLIPSE
  5
3CE
100
AcDbEntity
  8
ASSI
100
AcDbEllipse
 62
7
  6
CONTINUOUS
 10
18.404314703
 20
-22.247026484
 30
0.0
 11
0.2
 21
0.0
 31
0.0
 40
0.0524077793
 41
0.5235987756
 42
1.5707963268
  0
ENDSEC
  0
SECTION
  2
OBJECTS
  0
DICTIONARY
  5
C
100
AcDbDictionary
280
0
281
1
  3
ACAD_GROUP
350
D
  3
ACAD_MLINESTYLE
350
17
  3
ACAD_LAYOUT
350
1A
  3
ACAD_PLOTSETTINGS
350
19
  3
ACAD_PLOTSTYLENAME
350
E
  0
DICTIONARY
  5
D
102
{ACAD_REACTORS
330
C
102
}
100
AcDbDictionary
280
0
281
1
  0
ACDBDICTIONARYWDFLT
  5
E
102
{ACAD_REACTORS
330
C
102
}
100
AcDbDictionary
281
1
  3
Normal
350
F
100
AcDbDictionaryWithDefault
340
F
  0
DICTIONARY
  5
17
102
{ACAD_REACTORS
330
C
102
}
100
AcDbDictionary
280
0
281
1
  3
Standard
350
18
  0
DICTIONARY
  5
19
102
{ACAD_REACTORS
330
C
102
}
100
AcDbDictionary
281
1
  0
DICTIONARY
  5
1A
102
{ACAD_REACTORS
330
C
102
}
100
AcDbDictionary
281
1
  3
Model
350
3CF
  3
Layout1
350
3D0
  0
ACDBPLACEHOLDER
  5
F
102
{ACAD_REACTORS
330
E
102
}
  0
MLINESTYLE
  5
18
102
{ACAD_REACTORS
330
17
102
}
100
AcDbMlineStyle
  2
STANDARD
 70
0
  3

 62
256
 51
90.0
 52
90.0
 71
2
 49
0.5
 62
256
  6
BYLAYER
 49
-0.5
 62
256
  6
BYLAYER
  0
LAYOUT
  5
3CF
102
{ACAD_REACTORS
330
1A
102
}
100
AcDbPlotSettings
  1

  2
none_device
  4
ISO_A4_(297.00_x_210.00_MM)
  6

 40
0.0
 41
0.0
 42
0.0
 43
0.0
 44
297.0
 45
210.0
 46
0.0
 47
0.0
 48
0.0
 49
0.0
140
0.0
141
0.0
142
1.0
143
1.0
 70
1024
 72
1
 73
0
 74
0
  7

 75
0
147
1.0
148
0.0
149
0.0
100
AcDbLayout
  1
Model
 70
0
 71
0
 10
0.0
 20
0.0
 11
297.0
 21
210.0
 12
0.0
 22
0.0
 32
0.0
 14
0.0
 24
0.0
 34
0.0
 15
0.0
 25
0.0
 35
0.0
146
0.0
 13
0.0
 23
0.0
 33
0.0
 16
1.0
 26
0.0
 36
0.0
 17
0.0
 27
1.0
 37
0.0
 76
0
330
217
345
0
346
0
  0
LAYOUT
  5
3D0
102
{ACAD_REACTORS
330
1A
102
}
100
AcDbPlotSettings
  1

  2
none_device
  4
ISO_A4_(297.00_x_210.00_MM)
  6

 40
0.0
 41
0.0
 42
0.0
 43
0.0
 44
297.0
 45
210.0
 46
0.0
 47
0.0
 48
0.0
 49
0.0
140
0.0
141
0.0
142
1.0
143
1.0
 70
0
 72
1
 73
0
 74
0
  7

 75
0
147
1.0
148
0.0
149
0.0
100
AcDbLayout
  1
Layout1
 70
0
 71
1
 10
0.0
 20
0.0
 11
297.0
 21
210.0
 12
0.0
 22
0.0
 32
0.0
 14
0.0
 24
0.0
 34
0.0
 15
0.0
 25
0.0
 35
0.0
146
0.0
 13
0.0
 23
0.0
 33
0.0
 16
1.0
 26
0.0
 36
0.0
 17
0.0
 27
1.0
 37
0.0
 76
0
330
218
345
0
346
0
  0
ENDSEC
  0
EOF
