  0
SECTION
  2
HEADER
  9
$ACADVER
  1
AC1024
  9
$DWGCODEPAGE
  3
ANSI_1252
  9
$EXTMAX
 10
297.0
 20
210.0
 30
0.0
  9
$EXTMIN
 10
0.0
 20
0.0
 30
0.0
  9
$LIMMIN
 10
0.0
 20
0.0
  9
$LIMMAX
 10
297.0
 20
210.0
  9
$VIEWCTR
 10
148.5
 20
105.0
  9
$VIEWSIZE
 40
210.0
  9
$CLAYER
  8
0
  9
$LTSCALE
 40
16.335
  9
$CELTYPE
  6
BYLAYER
  9
$DIMSCALE
 40
1.0
  9
$DIMASZ
 40
3.0
  9
$DIMEXO
 40
0.5
  9
$DIMDLI
 40
11.286
  9
$DIMEXE
 40
1.5
  9
$DIMCEN
 40
2.673
  9
$DIMLFAC
 40
1.0
  9
$DIMBLK
  1
_FILLED
  9
$DIMALT
 70
0
  9
$DIMALTF
 40
0.0393700787
  9
$DIMTXT
 40
3.0
  9
$DIMTOL
 70
1
  9
$DIMLIM
 70
0
  9
$DIMTFAC
 40
1.0
  9
$DIMTP
 40
0.01
  9
$DIMTM
 40
0.01
  9
$DIMGAP
 40
0.625
  9
$DIMDSEP
 70
44
  9
$AUNITS
 70
0
  9
$PDMODE
 70
3
  9
$PDSIZE
 40
3.0
  9
$HANDSEED
  5
516
  9
$TILEMODE
 70
1
  9
$MEASUREMENT
 70
1
  9
$INSUNITS
 70
4
  0
ENDSEC
  0
SECTION
  2
CLASSES
  0
CLASS
  1
ACDBDICTIONARYWDFLT
  2
AcDbDictionaryWithDefault
  3
AutoCAD 2000
 90
0
 91
1
280
0
281
0
  0
CLASS
  1
ACDBPLACEHOLDER
  2
AcDbPlaceHolder
  3
AutoCAD 2000
 90
0
 91
1
280
0
281
0
  0
CLASS
  1
LAYOUT
  2
AcDbLayout
  3
AutoCAD 2000
 90
0
 91
0
280
0
281
0
  0
ENDSEC
  0
SECTION
  2
TABLES
  0
TABLE
  2
VPORT
  5
8
100
AcDbSymbolTable
 70
2
  0
VPORT
  5
1F4
100
AcDbSymbolTableRecord
100
AcDbViewportTableRecord
  2
*ACTIVE
 70
0
 10
0.0
 20
0.0
 11
1.0
 21
1.0
 12
148.5
 22
105.0
 13
0.0
 23
0.0
 14
1.0
 24
1.0
 15
0.0
 25
0.0
 16
0.0
 26
0.0
 36
1.0
 17
0.0
 27
0.0
 37
0.0
 40
210.0
 41
1.4142857143
 42
50.0
 43
0.0
 44
0.0
 50
0.0
 51
0.0
 71
0
 72
100
 73
1
 74
1
 75
0
 76
0
 77
0
 78
0
  0
ENDTAB
  0
TABLE
  2
LTYPE
  5
5
100
AcDbSymbolTable
 70
6
  0
LTYPE
  5
14
100
AcDbSymbolTableRecord
100
AcDbLinetypeTableRecord
  2
BYBLOCK
 70
0
  3

 72
65
 73
0
 40
0.0
  0
LTYPE
  5
15
100
AcDbSymbolTableRecord
100
AcDbLinetypeTableRecord
  2
BYLAYER
 70
0
  3

 72
65
 73
0
 40
0.0
  0
LTYPE
  5
16
100
AcDbSymbolTableRecord
100
AcDbLinetypeTableRecord
  2
CONTINUOUS
 70
64
  3
Solid line
 72
65
 73
0
 40
0.0
  0
LTYPE
  5
1F5
100
AcDbSymbolTableRecord
100
AcDbLinetypeTableRecord
  2
CENTER
 70
64
  3
____ _ ____ _ ____ _ ____ _ ____ _ ____ _ ____
 72
65
 73
4
 40
0.6
 49
0.375
 74
0
 49
-0.075
 74
0
 49
0.075
 74
0
 49
-0.075
 74
0
  0
LTYPE
  5
1F6
100
AcDbSymbolTableRecord
100
AcDbLinetypeTableRecord
  2
HIDDEN
 70
64
  3
- - - - - - - - - - - - - - - - - - - -
 72
65
 73
2
 40
0.2
 49
0.1
 74
0
 49
-0.1
 74
0
  0
LTYPE
  5
1F7
100
AcDbSymbolTableRecord
100
AcDbLinetypeTableRecord
  2
PHANTOM
 70
64
  3
_____ _ _ _____ _ _ _____ _ _ _____
 72
65
 73
6
 40
0.8
 49
0.45
 74
0
 49
-0.05
 74
0
 49
0.1
 74
0
 49
-0.05
 74
0
 49
0.1
 74
0
 49
-0.05
 74
0
  0
LTYPE
  5
1F8
100
AcDbSymbolTableRecord
100
AcDbLinetypeTableRecord
  2
DOT
 70
64
  3
. . . . . . . . . . . . . . . . . . . .
 72
65
 73
2
 40
0.2
 49
0.1
 74
0
 49
-0.1
 74
0
  0
LTYPE
  5
1F9
100
AcDbSymbolTableRecord
100
AcDbLinetypeTableRecord
  2
DASHED
 70
64
  3
- - - - - - - - - - - - - - - - - - - -
 72
65
 73
2
 40
0.2
 49
0.1
 74
0
 49
-0.1
 74
0
  0
ENDTAB
  0
TABLE
  2
LAYER
  5
2
100
AcDbSymbolTable
 70
36
  0
LAYER
  5
10
100
AcDbSymbolTableRecord
100
AcDbLayerTableRecord
  2
0
 70
0
 62
7
  6
CONTINUOUS
370
-3
390
F
  0
LAYER
  5
1FA
100
AcDbSymbolTableRecord
100
AcDbLayerTableRecord
  2
DEFAULT_1
 70
0
 62
7
  6
CENTER
370
-3
390
F
  0
LAYER
  5
1FB
100
AcDbSymbolTableRecord
100
AcDbLayerTableRecord
  2
DEFAULT_2
 70
0
 62
7
  6
HIDDEN
370
-3
390
F
  0
LAYER
  5
1FC
100
AcDbSymbolTableRecord
100
AcDbLayerTableRecord
  2
DEFAULT_3
 70
0
 62
7
  6
PHANTOM
370
-3
390
F
  0
LAYER
  5
1FD
100
AcDbSymbolTableRecord
100
AcDbLayerTableRecord
  2
ASSI
 70
0
 62
7
  6
CONTINUOUS
370
-3
390
F
  0
LAYER
  5
1FE
100
AcDbSymbolTableRecord
100
AcDbLayerTableRecord
  2
COORDINATE
 70
0
 62
7
  6
CONTINUOUS
370
-3
390
F
  0
LAYER
  5
1FF
100
AcDbSymbolTableRecord
100
AcDbLayerTableRecord
  2
COORD_ORIGINE
 70
0
 62
7
  6
CONTINUOUS
370
-3
390
F
  0
LAYER
  5
200
100
AcDbSymbolTableRecord
100
AcDbLayerTableRecord
  2
COPY_PUBLISH
 70
0
 62
7
  6
CONTINUOUS
370
-3
390
F
  0
LAYER
  5
201
100
AcDbSymbolTableRecord
100
AcDbLayerTableRecord
  2
COSMETICI
 70
0
 62
7
  6
CONTINUOUS
370
-3
390
F
  0
LAYER
  5
202
100
AcDbSymbolTableRecord
100
AcDbLayerTableRecord
  2
CURVE
 70
0
 62
7
  6
CONTINUOUS
370
-3
390
F
  0
LAYER
  5
203
100
AcDbSymbolTableRecord
100
AcDbLayerTableRecord
  2
DRAFT
 70
0
 62
7
  6
CONTINUOUS
370
-3
390
F
  0
LAYER
  5
204
100
AcDbSymbolTableRecord
100
AcDbLayerTableRecord
  2
IGES
 70
0
 62
7
  6
CONTINUOUS
370
-3
390
F
  0
LAYER
  5
205
100
AcDbSymbolTableRecord
100
AcDbLayerTableRecord
  2
IMPORT_IGES
 70
0
 62
7
  6
CONTINUOUS
370
-3
390
F
  0
LAYER
  5
206
100
AcDbSymbolTableRecord
100
AcDbLayerTableRecord
  2
NOTE
 70
0
 62
7
  6
CONTINUOUS
370
-3
390
F
  0
LAYER
  5
207
100
AcDbSymbolTableRecord
100
AcDbLayerTableRecord
  2
PIANI
 70
0
 62
7
  6
CONTINUOUS
370
-3
390
F
  0
LAYER
  5
208
100
AcDbSymbolTableRecord
100
AcDbLayerTableRecord
  2
PIANI_ORIGINE
 70
0
 62
7
  6
CONTINUOUS
370
-3
390
F
  0
LAYER
  5
209
100
AcDbSymbolTableRecord
100
AcDbLayerTableRecord
  2
PIANI_RIFERIMENTO
 70
0
 62
7
  6
CONTINUOUS
370
-3
390
F
  0
LAYER
  5
20A
100
AcDbSymbolTableRecord
100
AcDbLayerTableRecord
  2
PUNTI
 70
0
 62
7
  6
CONTINUOUS
370
-3
390
F
  0
LAYER
  5
20B
100
AcDbSymbolTableRecord
100
AcDbLayerTableRecord
  2
RACCORDO
 70
0
 62
7
  6
CONTINUOUS
370
-3
390
F
  0
LAYER
  5
20C
100
AcDbSymbolTableRecord
100
AcDbLayerTableRecord
  2
SIMBOLI
 70
0
 62
7
  6
CONTINUOUS
370
-3
390
F
  0
LAYER
  5
20D
100
AcDbSymbolTableRecord
100
AcDbLayerTableRecord
  2
SMUSSO
 70
0
 62
7
  6
CONTINUOUS
370
-3
390
F
  0
LAYER
  5
20E
100
AcDbSymbolTableRecord
100
AcDbLayerTableRecord
  2
SNAPLINE
 70
0
 62
7
  6
CONTINUOUS
370
-3
390
F
  0
LAYER
  5
20F
100
AcDbSymbolTableRecord
100
AcDbLayerTableRecord
  2
SUPERFICI
 70
0
 62
7
  6
CONTINUOUS
370
-3
390
F
  0
LAYER
  5
210
100
AcDbSymbolTableRecord
100
AcDbLayerTableRecord
  2
TRASH
 70
0
 62
7
  6
CONTINUOUS
370
-3
390
F
  0
LAYER
  5
211
100
AcDbSymbolTableRecord
100
AcDbLayerTableRecord
  2
XSEC_DATUMS
 70
0
 62
7
  6
CONTINUOUS
370
-3
390
F
  0
ENDTAB
  0
TABLE
  2
STYLE
  5
3
100
AcDbSymbolTable
 70
1
  0
STYLE
  5
11
100
AcDbSymbolTableRecord
100
AcDbTextStyleTableRecord
  2
STANDARD
 70
0
 40
0.0
 41
0.8
 50
0.0
 71
0
 42
0.2
  3
txt
  4

  0
STYLE
  5
212
100
AcDbSymbolTableRecord
100
AcDbTextStyleTableRecord
  2
TEXTSTYLE_1
 70
0
 40
0.0
 41
0.8
 50
0.0
 71
0
 42
0.2
  3
gdt
  4

  0
ENDTAB
  0
TABLE
  2
VIEW
  5
6
100
AcDbSymbolTable
 70
0
  0
ENDTAB
  0
TABLE
  2
UCS
  5
7
100
AcDbSymbolTable
 70
0
  0
ENDTAB
  0
TABLE
  2
APPID
  5
9
100
AcDbSymbolTable
 70
1
  0
APPID
  5
213
100
AcDbSymbolTableRecord
100
AcDbRegAppTableRecord
  2
ACAD
 70
0
  0
ENDTAB
  0
TABLE
  2
BLOCK_RECORD
  5
1
100
AcDbSymbolTable
 70
0
  0
BLOCK_RECORD
  5
214
100
AcDbSymbolTableRecord
100
AcDbBlockTableRecord
  2
*Model_Space
  0
BLOCK_RECORD
  5
215
100
AcDbSymbolTableRecord
100
AcDbBlockTableRecord
  2
*Paper_Space
  0
BLOCK_RECORD
  5
216
100
AcDbSymbolTableRecord
100
AcDbBlockTableRecord
  2
_FILLED
  0
BLOCK_RECORD
  5
217
100
AcDbSymbolTableRecord
100
AcDbBlockTableRecord
  2
*D0
  0
BLOCK_RECORD
  5
218
100
AcDbSymbolTableRecord
100
AcDbBlockTableRecord
  2
*D1
  0
BLOCK_RECORD
  5
219
100
AcDbSymbolTableRecord
100
AcDbBlockTableRecord
  2
*D2
  0
ENDTAB
  0
TABLE
  2
DIMSTYLE
  5
A
100
AcDbSymbolTable
 70
1
100
AcDbDimStyleTable
 71
0
  0
DIMSTYLE
105
21A
100
AcDbSymbolTableRecord
100
AcDbDimStyleTableRecord
  2
STANDARD
 70
0
  3

  4

 40
1.0
 41
3.0
 42
0.5
 43
0.38
 44
1.5
 45
0.0
 46
0.0
 47
0.01
 48
0.01
140
3.0
141
0.09
142
0.0
143
25.4
144
1.0
145
0.0
146
1.0
147
0.625
 71
1.0
 72
0.0
 73
0
 74
0
 75
0
 76
0
 77
1
 78
8
 79
2
170
0
171
1
172
0
173
0
174
0
175
0
176
0
177
0
178
0
270
2
179
2
271
2
272
2
273
2
274
2
275
0
280
0
281
0
282
0
283
1
284
8
285
0
286
0
287
3
288
0
340
11
278
44
341
216
342
216
343
216
344
216
  0
DIMSTYLE
105
21B
100
AcDbSymbolTableRecord
100
AcDbDimStyleTableRecord
  2
DIMSTYLE_1
 70
0
  3

  4

 40
1.0
 41
3.0
 42
0.5
 43
0.38
 44
1.5
 45
0.0
 46
0.0
 47
0.0
 48
0.0
140
3.0
141
0.09
142
0.0
143
25.4
144
1.0
145
0.0
146
1.0
147
0.75
 71
0.0
 72
0.0
 73
0
 74
0
 75
0
 76
0
 77
1
 78
8
 79
2
170
0
171
1
172
0
173
0
174
0
175
0
176
0
177
0
178
0
270
2
179
2
271
2
272
2
273
2
274
2
275
0
280
0
281
0
282
0
283
1
284
8
285
0
286
0
287
3
288
0
340
11
278
44
341
216
342
216
343
216
344
216
  0
DIMSTYLE
105
21C
100
AcDbSymbolTableRecord
100
AcDbDimStyleTableRecord
  2
DIMSTYLE_2
 70
0
  3

  4

 40
1.0
 41
3.0
 42
0.5
 43
0.38
 44
1.5
 45
0.0
 46
0.0
 47
0.0
 48
0.0
140
3.0
141
0.09
142
0.0
143
25.4
144
1.0
145
0.0
146
1.0
147
0.75
 71
0.0
 72
0.0
 73
0
 74
0
 75
0
 76
0
 77
1
 78
8
 79
2
170
0
171
1
172
0
173
0
174
0
175
0
176
0
177
0
178
0
270
2
179
2
271
1
272
1
273
2
274
2
275
0
280
0
281
0
282
0
283
1
284
8
285
0
286
0
287
3
288
0
340
11
278
44
341
216
342
216
343
216
344
216
  0
ENDTAB
  0
ENDSEC
  0
SECTION
  2
BLOCKS
  0
BLOCK
  5
20
100
AcDbEntity
  8
0
100
AcDbBlockBegin
  2
*Model_Space
 70
0
 10
0.0
 20
0.0
 30
0.0
  3
*Model_Space
  1

  0
ENDBLK
  5
21
100
AcDbEntity
  8
0
100
AcDbBlockEnd
  0
BLOCK
  5
1C
100
AcDbEntity
  8
0
100
AcDbBlockBegin
  2
*Paper_Space
 70
0
 10
0.0
 20
0.0
 30
0.0
  3
*Paper_Space
  1

  0
ENDBLK
  5
1D
100
AcDbEntity
  8
0
100
AcDbBlockEnd
  0
BLOCK
  5
21D
100
AcDbEntity
  8
0
100
AcDbBlockBegin
  2
_FILLED
 70
64
 10
0.0
 20
0.0
  3
_FILLED
  1

  0
SOLID
  5
21E
100
AcDbEntity
  8
0
  6
BYBLOCK
 62
0
100
AcDbTrace
 10
0.0
 20
0.0
 11
-1.0
 21
0.3166666667
 12
-1.0
 22
-0.3166666667
 13
-1.0
 23
-0.3166666667
  0
ENDBLK
  5
21F
100
AcDbEntity
  8
0
  6
BYBLOCK
 62
0
100
AcDbBlockEnd
  0
BLOCK
  5
220
100
AcDbEntity
  8
0
100
AcDbBlockBegin
 62
7
  6
CONTINUOUS
  2
*D0
 70
65
 10
0.0
 20
0.0
  3
*D0
  1

  0
LINE
  5
221
100
AcDbEntity
  8
0
100
AcDbLine
 62
7
  6
CONTINUOUS
 10
-28.6198692526
 20
13.4869315136
 11
-28.6198692526
 21
31.5462442193
  0
LINE
  5
222
100
AcDbEntity
  8
0
100
AcDbLine
 62
7
  6
CONTINUOUS
 10
-34.3197480459
 20
0.7350751102
 11
-34.3197480459
 21
31.5462442193
  0
LINE
  5
223
100
AcDbEntity
  8
0
100
AcDbLine
 62
7
  6
CONTINUOUS
 10
-28.6198692526
 20
30.0462442193
 11
-24.6198692526
 21
30.0462442193
  0
LINE
  5
224
100
AcDbEntity
  8
0
100
AcDbLine
 62
7
  6
CONTINUOUS
 10
-24.6198692526
 20
30.0462442193
 11
-31.4698086493
 21
30.0462442193
  0
LINE
  5
225
100
AcDbEntity
  8
0
100
AcDbLine
 62
7
  6
CONTINUOUS
 10
-34.3197480459
 20
30.0462442193
 11
-43.3024589951
 21
30.0462442193
  0
LINE
  5
226
100
AcDbEntity
  8
0
100
AcDbLine
 62
7
  6
CONTINUOUS
 10
-43.3024589951
 20
30.0462442193
 11
-31.4698086493
 21
30.0462442193
  0
INSERT
  5
227
100
AcDbEntity
  8
0
100
AcDbBlockReference
 62
7
  6
CONTINUOUS
  2
_FILLED
 10
-28.6198692526
 20
30.0462442193
 41
3.0
 42
3.0
 43
3.0
 50
180.0
  0
INSERT
  5
228
100
AcDbEntity
  8
0
100
AcDbBlockReference
 62
7
  6
CONTINUOUS
  2
_FILLED
 10
-34.3197480459
 20
30.0462442193
 41
3.0
 42
3.0
 43
3.0
  0
ENDBLK
  5
229
100
AcDbEntity
  8
0
  6
BYBLOCK
 62
0
100
AcDbBlockEnd
  0
BLOCK
  5
22A
100
AcDbEntity
  8
0
100
AcDbBlockBegin
 62
7
  6
CONTINUOUS
  2
*D1
 70
65
 10
0.0
 20
0.0
  3
*D1
  1

  0
LINE
  5
22B
100
AcDbEntity
  8
0
100
AcDbLine
 62
7
  6
CONTINUOUS
 10
-11.103978006
 20
13.4869315136
 11
-11.103978006
 21
31.5563294657
  0
LINE
  5
22C
100
AcDbEntity
  8
0
100
AcDbLine
 62
7
  6
CONTINUOUS
 10
11.196021994
 20
13.4869315136
 11
11.196021994
 21
31.5563294657
  0
LINE
  5
22D
100
AcDbEntity
  8
0
100
AcDbLine
 62
7
  6
CONTINUOUS
 10
-11.103978006
 20
30.0563294657
 11
0.046021994
 21
30.0563294657
  0
LINE
  5
22E
100
AcDbEntity
  8
0
100
AcDbLine
 62
7
  6
CONTINUOUS
 10
11.196021994
 20
30.0563294657
 11
0.046021994
 21
30.0563294657
  0
INSERT
  5
22F
100
AcDbEntity
  8
0
100
AcDbBlockReference
 62
7
  6
CONTINUOUS
  2
_FILLED
 10
-11.103978006
 20
30.0563294657
 41
3.0
 42
3.0
 43
3.0
 50
180.0
  0
INSERT
  5
230
100
AcDbEntity
  8
0
100
AcDbBlockReference
 62
7
  6
CONTINUOUS
  2
_FILLED
 10
11.196021994
 20
30.0563294657
 41
3.0
 42
3.0
 43
3.0
  0
ENDBLK
  5
231
100
AcDbEntity
  8
0
  6
BYBLOCK
 62
0
100
AcDbBlockEnd
  0
BLOCK
  5
232
100
AcDbEntity
  8
0
100
AcDbBlockBegin
 62
7
  6
CONTINUOUS
  2
*D2
 70
65
 10
0.0
 20
0.0
  3
*D2
  1

  0
LINE
  5
233
100
AcDbEntity
  8
0
100
AcDbLine
 62
7
  6
CONTINUOUS
 10
11.1825679334
 20
22.0462442193
 11
20.7204088204
 21
22.0462442193
  0
LINE
  5
234
100
AcDbEntity
  8
0
100
AcDbLine
 62
7
  6
CONTINUOUS
 10
11.1825679334
 20
-22.2723811922
 11
20.7204088204
 21
-22.2723811922
  0
LINE
  5
235
100
AcDbEntity
  8
0
100
AcDbLine
 62
7
  6
CONTINUOUS
 10
19.2204088204
 20
22.0462442193
 11
19.2204088204
 21
-0.1130684864
  0
LINE
  5
236
100
AcDbEntity
  8
0
100
AcDbLine
 62
7
  6
CONTINUOUS
 10
19.2204088204
 20
-22.2723811922
 11
19.2204088204
 21
-0.1130684864
  0
INSERT
  5
237
100
AcDbEntity
  8
0
100
AcDbBlockReference
 62
7
  6
CONTINUOUS
  2
_FILLED
 10
19.2204088204
 20
22.0462442193
 41
3.0
 42
3.0
 43
3.0
 50
90.0
  0
INSERT
  5
238
100
AcDbEntity
  8
0
100
AcDbBlockReference
 62
7
  6
CONTINUOUS
  2
_FILLED
 10
19.2204088204
 20
-22.2723811922
 41
3.0
 42
3.0
 43
3.0
 50
270.0
  0
ENDBLK
  5
239
100
AcDbEntity
  8
0
  6
BYBLOCK
 62
0
100
AcDbBlockEnd
  0
ENDSEC
  0
SECTION
  2
ENTITIES
  0
DIMENSION
  5
23A
100
AcDbEntity
  8
0
100
AcDbDimension
 62
7
  6
CONTINUOUS
  2
*D0
 10
-34.3197480459
 20
30.0462442193
 11
-43.3024589951
 21
30.0462442193
 70
160
 71
3
 72
2
 41
0.9
 42
5.6998787933
  3
DIMSTYLE_1
100
AcDbAlignedDimension
 13
-28.6198692526
 23
12.9869315136
 14
-34.3197480459
 24
0.2350751102
 50
180.0
100
AcDbRotatedDimension
  0
DIMENSION
  5
23B
100
AcDbEntity
  8
0
100
AcDbDimension
 62
7
  6
CONTINUOUS
  2
*D1
 10
11.196021994
 20
30.0563294657
 11
-4.2396922917
 21
30.0563294657
 70
160
 71
2
 72
2
 41
0.9
 42
22.3
  3
DIMSTYLE_1
100
AcDbAlignedDimension
 13
-11.103978006
 23
12.9869315136
 14
11.196021994
 24
12.9869315136
100
AcDbRotatedDimension
  0
DIMENSION
  5
23C
100
AcDbEntity
  8
0
100
AcDbDimension
 62
7
  6
CONTINUOUS
  2
*D2
 10
19.2204088204
 20
-22.2723811922
 11
19.2204088204
 21
-4.3987827721
 70
160
 71
2
 72
2
 41
0.9
 42
44.3186254114
  3
DIMSTYLE_2
100
AcDbAlignedDimension
 13
10.6825679334
 23
22.0462442193
 14
10.6825679334
 24
-22.2723811922
 50
270.0
100
AcDbRotatedDimension
  0
LWPOLYLINE
  5
23D
100
AcDbEntity
  8
0
100
AcDbPolyline
 62
7
  6
CONTINUOUS
 90
5
 70
0
 43
0.3500000006
 10
3.0460219574
 20
32.5206159668
 10
3.4031648426
 20
32.7349004517
 10
3.4031648426
 20
33.3777584381
 10
3.0460219574
 20
33.8063274078
 10
2.1888792028
 20
33.8063274078
  0
LWPOLYLINE
  5
23E
100
AcDbEntity
  8
RACCORDO
100
AcDbPolyline
 62
250
  6
CONTINUOUS
 90
15
 70
0
 10
-11.0204353567
 20
20.4288373701
 10
-11.0191068839
 20
20.430019892
 10
-11.0161285645
 20
20.4311985009
 10
-11.0115102537
 20
20.4323692968
 10
-11.0052672336
 20
20.4335284056
 10
-10.9974201622
 20
20.4346719917
 10
-10.9879950054
 20
20.4357962711
 10
-10.9770229508
 20
20.4368975234
 10
-10.964540305
 20
20.4379721048
 10
-10.9505883728
 20
20.4390164594
 10
-10.9352133211
 20
20.4400271315
 10
-10.9184660257
 20
20.4410007767
 10
-10.9004019032
 20
20.4419341732
 10
-10.8810807276
 20
20.4428242326
 10
-10.8605664325
 20
20.4436680095
  0
LWPOLYLINE
  5
23F
100
AcDbEntity
  8
ASSI
100
AcDbPolyline
 62
250
  6
CONTINUOUS
 90
15
 70
0
 10
-11.0204353567
 20
20.4288373701
 10
-11.0191068839
 20
20.430019892
 10
-11.0161285645
 20
20.4311985009
 10
-11.0115102537
 20
20.4323692968
 10
-11.0052672336
 20
20.4335284056
 10
-10.9974201622
 20
20.4346719917
 10
-10.9879950054
 20
20.4357962711
 10
-10.9770229508
 20
20.4368975234
 10
-10.964540305
 20
20.4379721048
 10
-10.9505883728
 20
20.4390164594
 10
-10.9352133211
 20
20.4400271315
 10
-10.9184660257
 20
20.4410007767
 10
-10.9004019032
 20
20.4419341732
 10
-10.8810807276
 20
20.4428242326
 10
-10.8605664325
 20
20.4436680095
  0
LINE
  5
240
100
AcDbEntity
  8
RACCORDO
100
AcDbLine
 62
7
  6
CONTINUOUS
 10
3.4375970011
 20
-22.2723811922
 11
3.7882869671
 21
-22.2405480342
  0
LINE
  5
241
100
AcDbEntity
  8
ASSI
100
AcDbLine
 62
7
  6
CONTINUOUS
 10
3.4375970011
 20
-22.2723811922
 11
3.7882869671
 21
-22.2405480342
  0
LINE
  5
242
100
AcDbEntity
  8
RACCORDO
100
AcDbLine
 62
7
  6
CONTINUOUS
 10
-7.7624029989
 20
-22.2723811922
 11
-7.4117130329
 21
-22.2405480342
  0
LINE
  5
243
100
AcDbEntity
  8
ASSI
100
AcDbLine
 62
7
  6
CONTINUOUS
 10
-7.7624029989
 20
-22.2723811922
 11
-7.4117130329
 21
-22.2405480342
  0
LINE
  5
244
100
AcDbEntity
  8
RACCORDO
100
AcDbLine
 62
7
  6
CONTINUOUS
 10
-10.5905239453
 20
-22.2723811922
 11
-7.7624029989
 21
-22.2723811922
  0
LINE
  5
245
100
AcDbEntity
  8
ASSI
100
AcDbLine
 62
7
  6
CONTINUOUS
 10
-10.5905239453
 20
-22.2723811922
 11
-7.7624029989
 21
-22.2723811922
  0
LINE
  5
246
100
AcDbEntity
  8
DRAFT
100
AcDbLine
 62
7
  6
CONTINUOUS
 10
-3.345553013
 20
-22.2723811922
 11
3.4375970011
 21
-22.2723811922
  0
LINE
  5
247
100
AcDbEntity
  8
ASSI
100
AcDbLine
 62
7
  6
CONTINUOUS
 10
-3.345553013
 20
-22.2723811922
 11
3.4375970011
 21
-22.2723811922
  0
LINE
  5
248
100
AcDbEntity
  8
RACCORDO
100
AcDbLine
 62
7
  6
CONTINUOUS
 10
7.854446987
 20
-22.2723811922
 11
10.6825679334
 21
-22.2723811922
  0
LINE
  5
249
100
AcDbEntity
  8
ASSI
100
AcDbLine
 62
7
  6
CONTINUOUS
 10
7.854446987
 20
-22.2723811922
 11
10.6825679334
 21
-22.2723811922
  0
LINE
  5
24A
100
AcDbEntity
  8
RACCORDO
100
AcDbLine
 62
7
  6
CONTINUOUS
 10
-7.2385079521
 20
-22.2353072562
 11
-3.8694480598
 21
-22.2353072562
  0
LINE
  5
24B
100
AcDbEntity
  8
ASSI
100
AcDbLine
 62
7
  6
CONTINUOUS
 10
-7.2385079521
 20
-22.2353072562
 11
-3.8694480598
 21
-22.2353072562
  0
LINE
  5
24C
100
AcDbEntity
  8
RACCORDO
100
AcDbLine
 62
7
  6
CONTINUOUS
 10
3.9614920479
 20
-22.2353072562
 11
7.3305519402
 21
-22.2353072562
  0
LINE
  5
24D
100
AcDbEntity
  8
ASSI
100
AcDbLine
 62
7
  6
CONTINUOUS
 10
3.9614920479
 20
-22.2353072562
 11
7.3305519402
 21
-22.2353072562
  0
LINE
  5
24E
100
AcDbEntity
  8
RACCORDO
100
AcDbLine
 62
250
  6
CONTINUOUS
 10
10.6290825702
 20
-22.1117946161
 11
-10.5370385821
 21
-22.1117946161
  0
LINE
  5
24F
100
AcDbEntity
  8
ASSI
100
AcDbLine
 62
250
  6
CONTINUOUS
 10
10.6290825702
 20
-22.1117946161
 11
-10.5370385821
 21
-22.1117946161
  0
LINE
  5
250
100
AcDbEntity
  8
RACCORDO
100
AcDbLine
 62
7
  6
CONTINUOUS
 10
-3.345553013
 20
-22.2723811922
 11
-3.696242979
 21
-22.2405480342
  0
LINE
  5
251
100
AcDbEntity
  8
ASSI
100
AcDbLine
 62
7
  6
CONTINUOUS
 10
-3.345553013
 20
-22.2723811922
 11
-3.696242979
 21
-22.2405480342
  0
LINE
  5
252
100
AcDbEntity
  8
RACCORDO
100
AcDbLine
 62
7
  6
CONTINUOUS
 10
7.854446987
 20
-22.2723811922
 11
7.503757021
 21
-22.2405480342
  0
LINE
  5
253
100
AcDbEntity
  8
ASSI
100
AcDbLine
 62
7
  6
CONTINUOUS
 10
7.854446987
 20
-22.2723811922
 11
7.503757021
 21
-22.2405480342
  0
LWPOLYLINE
  5
254
100
AcDbEntity
  8
RACCORDO
100
AcDbPolyline
 62
250
  6
CONTINUOUS
 90
17
 70
0
 10
-11.0204353567
 20
-20.6549743429
 10
-11.0191069024
 20
-20.6561568654
 10
-11.0161285999
 20
-20.657335475
 10
-11.0115103047
 20
-20.6585062716
 10
-11.0052672984
 20
-20.659665381
 10
-10.9974202393
 20
-20.6608089679
 10
-10.9879950931
 20
-20.661933248
 10
-10.9770230476
 20
-20.6630345012
 10
-10.9645404092
 20
-20.6641090834
 10
-10.9505884828
 20
-20.6651534388
 10
-10.9352134352
 20
-20.6661641116
 10
-10.9184661424
 20
-20.6671377576
 10
-10.900402021
 20
-20.668071155
 10
-10.881080845
 20
-20.6689612151
 10
-10.8605665481
 20
-20.6698049928
 10
-10.8389270118
 20
-20.670599696
 10
-10.792562128
 20
-20.6720315312
  0
LWPOLYLINE
  5
255
100
AcDbEntity
  8
ASSI
100
AcDbPolyline
 62
250
  6
CONTINUOUS
 90
17
 70
0
 10
-11.0204353567
 20
-20.6549743429
 10
-11.0191069024
 20
-20.6561568654
 10
-11.0161285999
 20
-20.657335475
 10
-11.0115103047
 20
-20.6585062716
 10
-11.0052672984
 20
-20.659665381
 10
-10.9974202393
 20
-20.6608089679
 10
-10.9879950931
 20
-20.661933248
 10
-10.9770230476
 20
-20.6630345012
 10
-10.9645404092
 20
-20.6641090834
 10
-10.9505884828
 20
-20.6651534388
 10
-10.9352134352
 20
-20.6661641116
 10
-10.9184661424
 20
-20.6671377576
 10
-10.900402021
 20
-20.668071155
 10
-10.881080845
 20
-20.6689612151
 10
-10.8605665481
 20
-20.6698049928
 10
-10.8389270118
 20
-20.670599696
 10
-10.792562128
 20
-20.6720315312
  0
LINE
  5
256
100
AcDbEntity
  8
RACCORDO
100
AcDbLine
 62
250
  6
CONTINUOUS
 10
10.9526104206
 20
-20.6698049823
 11
10.9082777215
 21
-20.6713426831
  0
LINE
  5
257
100
AcDbEntity
  8
ASSI
100
AcDbLine
 62
250
  6
CONTINUOUS
 10
10.9526104206
 20
-20.6698049823
 11
10.9082777215
 21
-20.6713426831
  0
LINE
  5
258
100
AcDbEntity
  8
RACCORDO
100
AcDbLine
 62
250
  6
CONTINUOUS
 10
10.9082777215
 20
-20.6713426831
 11
10.8600340942
 21
-20.6726639122
  0
LINE
  5
259
100
AcDbEntity
  8
ASSI
100
AcDbLine
 62
250
  6
CONTINUOUS
 10
10.9082777215
 20
-20.6713426831
 11
10.8600340942
 21
-20.6726639122
  0
LINE
  5
25A
100
AcDbEntity
  8
RACCORDO
100
AcDbLine
 62
250
  6
CONTINUOUS
 10
10.8600340942
 20
-20.6726639122
 11
10.808517561
 21
-20.6737511965
  0
LINE
  5
25B
100
AcDbEntity
  8
ASSI
100
AcDbLine
 62
250
  6
CONTINUOUS
 10
10.8600340942
 20
-20.6726639122
 11
10.808517561
 21
-20.6737511965
  0
LINE
  5
25C
100
AcDbEntity
  8
RACCORDO
100
AcDbLine
 62
250
  6
CONTINUOUS
 10
10.808517561
 20
-20.6737511965
 11
10.7544094284
 21
-20.6745901565
  0
LINE
  5
25D
100
AcDbEntity
  8
ASSI
100
AcDbLine
 62
250
  6
CONTINUOUS
 10
10.808517561
 20
-20.6737511965
 11
10.7544094284
 21
-20.6745901565
  0
LINE
  5
25E
100
AcDbEntity
  8
RACCORDO
100
AcDbLine
 62
250
  6
CONTINUOUS
 10
10.7544094284
 20
-20.6745901565
 11
10.6984252767
 21
-20.675169697
  0
LINE
  5
25F
100
AcDbEntity
  8
ASSI
100
AcDbLine
 62
250
  6
CONTINUOUS
 10
10.7544094284
 20
-20.6745901565
 11
10.6984252767
 21
-20.675169697
  0
LINE
  5
260
100
AcDbEntity
  8
RACCORDO
100
AcDbLine
 62
250
  6
CONTINUOUS
 10
10.6984252767
 20
-20.675169697
 11
10.6413054966
 21
-20.6754821537
  0
LINE
  5
261
100
AcDbEntity
  8
ASSI
100
AcDbLine
 62
250
  6
CONTINUOUS
 10
10.6984252767
 20
-20.675169697
 11
10.6413054966
 21
-20.6754821537
  0
LINE
  5
262
100
AcDbEntity
  8
RACCORDO
100
AcDbLine
 62
250
  6
CONTINUOUS
 10
10.6413054966
 20
-20.6754821537
 11
-10.5205114847
 21
-20.6755163173
  0
LINE
  5
263
100
AcDbEntity
  8
ASSI
100
AcDbLine
 62
250
  6
CONTINUOUS
 10
10.6413054966
 20
-20.6754821537
 11
-10.5205114847
 21
-20.6755163173
  0
LINE
  5
264
100
AcDbEntity
  8
RACCORDO
100
AcDbLine
 62
250
  6
CONTINUOUS
 10
-10.577916399
 20
-20.6753596692
 11
-10.5205115091
 21
-20.6755368112
  0
LINE
  5
265
100
AcDbEntity
  8
ASSI
100
AcDbLine
 62
250
  6
CONTINUOUS
 10
-10.577916399
 20
-20.6753596692
 11
-10.5205115091
 21
-20.6755368112
  0
LINE
  5
266
100
AcDbEntity
  8
RACCORDO
100
AcDbLine
 62
250
  6
CONTINUOUS
 10
-10.6345621081
 20
-20.6749129308
 11
-10.577916399
 21
-20.6753596692
  0
LINE
  5
267
100
AcDbEntity
  8
ASSI
100
AcDbLine
 62
250
  6
CONTINUOUS
 10
-10.6345621081
 20
-20.6749129308
 11
-10.577916399
 21
-20.6753596692
  0
LINE
  5
268
100
AcDbEntity
  8
RACCORDO
100
AcDbLine
 62
250
  6
CONTINUOUS
 10
-10.6896994961
 20
-20.6742025042
 11
-10.6345621081
 21
-20.6749129308
  0
LINE
  5
269
100
AcDbEntity
  8
ASSI
100
AcDbLine
 62
250
  6
CONTINUOUS
 10
-10.6896994961
 20
-20.6742025042
 11
-10.6345621081
 21
-20.6749129308
  0
LINE
  5
26A
100
AcDbEntity
  8
RACCORDO
100
AcDbLine
 62
250
  6
CONTINUOUS
 10
-10.74259937
 20
-20.6732377849
 11
-10.6896994961
 21
-20.6742025042
  0
LINE
  5
26B
100
AcDbEntity
  8
ASSI
100
AcDbLine
 62
250
  6
CONTINUOUS
 10
-10.74259937
 20
-20.6732377849
 11
-10.6896994961
 21
-20.6742025042
  0
LINE
  5
26C
100
AcDbEntity
  8
RACCORDO
100
AcDbLine
 62
250
  6
CONTINUOUS
 10
-10.792562128
 20
-20.6720315312
 11
-10.74259937
 21
-20.6732377849
  0
LINE
  5
26D
100
AcDbEntity
  8
ASSI
100
AcDbLine
 62
250
  6
CONTINUOUS
 10
-10.792562128
 20
-20.6720315312
 11
-10.74259937
 21
-20.6732377849
  0
LWPOLYLINE
  5
26E
100
AcDbEntity
  8
RACCORDO
100
AcDbPolyline
 62
250
  6
CONTINUOUS
 90
28
 70
0
 10
-11.0369621274
 20
-21.612478941
 10
-11.036090784
 20
-21.6414946527
 10
-11.0335327686
 20
-21.6704122993
 10
-11.0292967265
 20
-21.6991341466
 10
-11.0233969743
 20
-21.7275631217
 10
-11.0158534517
 20
-21.7556031419
 10
-11.0066916535
 20
-21.783159439
 10
-10.9959425443
 20
-21.8101388795
 10
-10.9836424533
 20
-21.8364502797
 10
-10.9698329516
 20
-21.8620047135
 10
-10.9545607117
 20
-21.8867158133
 10
-10.9378773498
 20
-21.9105000616
 10
-10.9198392514
 20
-21.9332770735
 10
-10.9005073808
 20
-21.9549698683
 10
-10.8799470747
 20
-21.9755051297
 10
-10.8582278218
 20
-21.9948134535
 10
-10.8354230276
 20
-22.0128295822
 10
-10.8116097668
 20
-22.0294926258
 10
-10.7868685221
 20
-22.0447462671
 10
-10.7612829129
 20
-22.0585389525
 10
-10.734939412
 20
-22.0708240662
 10
-10.7079270541
 20
-22.0815600872
 10
-10.6803371341
 20
-22.0907107306
 10
-10.6522628993
 20
-22.0982450693
 10
-10.6237992336
 20
-22.104137639
 10
-10.5950423373
 20
-22.1083685242
 10
-10.5660894014
 20
-22.1109234257
 10
-10.5370382798
 20
-22.1117937084
  0
LWPOLYLINE
  5
26F
100
AcDbEntity
  8
ASSI
100
AcDbPolyline
 62
250
  6
CONTINUOUS
 90
28
 70
0
 10
-11.0369621274
 20
-21.612478941
 10
-11.036090784
 20
-21.6414946527
 10
-11.0335327686
 20
-21.6704122993
 10
-11.0292967265
 20
-21.6991341466
 10
-11.0233969743
 20
-21.7275631217
 10
-11.0158534517
 20
-21.7556031419
 10
-11.0066916535
 20
-21.783159439
 10
-10.9959425443
 20
-21.8101388795
 10
-10.9836424533
 20
-21.8364502797
 10
-10.9698329516
 20
-21.8620047135
 10
-10.9545607117
 20
-21.8867158133
 10
-10.9378773498
 20
-21.9105000616
 10
-10.9198392514
 20
-21.9332770735
 10
-10.9005073808
 20
-21.9549698683
 10
-10.8799470747
 20
-21.9755051297
 10
-10.8582278218
 20
-21.9948134535
 10
-10.8354230276
 20
-22.0128295822
 10
-10.8116097668
 20
-22.0294926258
 10
-10.7868685221
 20
-22.0447462671
 10
-10.7612829129
 20
-22.0585389525
 10
-10.734939412
 20
-22.0708240662
 10
-10.7079270541
 20
-22.0815600872
 10
-10.6803371341
 20
-22.0907107306
 10
-10.6522628993
 20
-22.0982450693
 10
-10.6237992336
 20
-22.104137639
 10
-10.5950423373
 20
-22.1083685242
 10
-10.5660894014
 20
-22.1109234257
 10
-10.5370382798
 20
-22.1117937084
  0
LWPOLYLINE
  5
270
100
AcDbEntity
  8
RACCORDO
100
AcDbPolyline
 62
250
  6
CONTINUOUS
 90
28
 70
0
 10
-11.0369621274
 20
21.3863419682
 10
-11.0360907834
 20
21.4153576891
 10
-11.0335327665
 20
21.4442753442
 10
-11.0292967221
 20
21.4729971989
 10
-11.0233969668
 20
21.5014261805
 10
-11.0158534405
 20
21.5294662062
 10
-11.0066916384
 20
21.5570225077
 10
-10.995942525
 20
21.5840019515
 10
-10.9836424297
 20
21.6103133538
 10
-10.9698329238
 20
21.6358677888
 10
-10.9545606799
 20
21.6605788887
 10
-10.9378773144
 20
21.6843631361
 10
-10.919839213
 20
21.7071401464
 10
-10.9005073398
 20
21.7288329388
 10
-10.8799470319
 20
21.7493681972
 10
-10.8582277779
 20
21.7686765174
 10
-10.8354229835
 20
21.7866926422
 10
-10.8116097233
 20
21.8033556816
 10
-10.78686848
 20
21.8186093186
 10
-10.761282873
 20
21.8324019997
 10
-10.7349393751
 20
21.8446871092
 10
-10.7079270209
 20
21.8554231265
 10
-10.6803371054
 20
21.8645737664
 10
-10.6522628756
 20
21.8721081021
 10
-10.6237992153
 20
21.8780006694
 10
-10.5950423248
 20
21.8822315529
 10
-10.5660893951
 20
21.8847864532
 10
-10.5370382798
 20
21.8856567355
  0
LWPOLYLINE
  5
271
100
AcDbEntity
  8
ASSI
100
AcDbPolyline
 62
250
  6
CONTINUOUS
 90
28
 70
0
 10
-11.0369621274
 20
21.3863419682
 10
-11.0360907834
 20
21.4153576891
 10
-11.0335327665
 20
21.4442753442
 10
-11.0292967221
 20
21.4729971989
 10
-11.0233969668
 20
21.5014261805
 10
-11.0158534405
 20
21.5294662062
 10
-11.0066916384
 20
21.5570225077
 10
-10.995942525
 20
21.5840019515
 10
-10.9836424297
 20
21.6103133538
 10
-10.9698329238
 20
21.6358677888
 10
-10.9545606799
 20
21.6605788887
 10
-10.9378773144
 20
21.6843631361
 10
-10.919839213
 20
21.7071401464
 10
-10.9005073398
 20
21.7288329388
 10
-10.8799470319
 20
21.7493681972
 10
-10.8582277779
 20
21.7686765174
 10
-10.8354229835
 20
21.7866926422
 10
-10.8116097233
 20
21.8033556816
 10
-10.78686848
 20
21.8186093186
 10
-10.761282873
 20
21.8324019997
 10
-10.7349393751
 20
21.8446871092
 10
-10.7079270209
 20
21.8554231265
 10
-10.6803371054
 20
21.8645737664
 10
-10.6522628756
 20
21.8721081021
 10
-10.6237992153
 20
21.8780006694
 10
-10.5950423248
 20
21.8822315529
 10
-10.5660893951
 20
21.8847864532
 10
-10.5370382798
 20
21.8856567355
  0
LWPOLYLINE
  5
272
100
AcDbEntity
  8
RACCORDO
100
AcDbPolyline
 62
250
  6
CONTINUOUS
 90
9
 70
0
 10
-11.0313905156
 20
21.3161272996
 10
-11.0320616474
 20
21.3306047809
 10
-11.0327414006
 20
21.3434743215
 10
-11.0334298266
 20
21.354727636
 10
-11.034126874
 20
21.3643730099
 10
-11.0348289836
 20
21.3723619768
 10
-11.0355349692
 20
21.378678381
 10
-11.0362460171
 20
21.3833383781
 10
-11.0369621274
 20
21.3863419682
  0
LWPOLYLINE
  5
273
100
AcDbEntity
  8
ASSI
100
AcDbPolyline
 62
250
  6
CONTINUOUS
 90
9
 70
0
 10
-11.0313905156
 20
21.3161272996
 10
-11.0320616474
 20
21.3306047809
 10
-11.0327414006
 20
21.3434743215
 10
-11.0334298266
 20
21.354727636
 10
-11.034126874
 20
21.3643730099
 10
-11.0348289836
 20
21.3723619768
 10
-11.0355349692
 20
21.378678381
 10
-11.0362460171
 20
21.3833383781
 10
-11.0369621274
 20
21.3863419682
  0
LWPOLYLINE
  5
274
100
AcDbEntity
  8
RACCORDO
100
AcDbPolyline
 62
250
  6
CONTINUOUS
 90
22
 70
0
 10
-11.0130614368
 20
0.2323634908
 10
-11.0125001123
 20
0.2174194639
 10
-11.0108238291
 20
0.2025589955
 10
-11.00804196
 20
0.1878651755
 10
-11.0041700597
 20
0.1734201617
 10
-10.9992297777
 20
0.1593047212
 10
-10.9932487373
 20
0.1455977787
 10
-10.986260381
 20
0.1323759742
 10
-10.9783037834
 20
0.1197132349
 10
-10.9694234334
 20
0.1076803626
 10
-10.9596689844
 20
0.0963446367
 10
-10.9490949771
 20
0.0857694385
 10
-10.9377605351
 20
0.0760138972
 10
-10.9257290335
 20
0.0671325587
 10
-10.9130677446
 20
0.0591750807
 10
-10.8998474623
 20
0.0521859555
 10
-10.886142106
 20
0.0462042608
 10
-10.8720283066
 20
0.0412634414
 10
-10.8575849794
 20
0.0373911221
 10
-10.8428928815
 20
0.0346089535
 10
-10.8280341611
 20
0.0329324906
 10
-10.8130918978
 20
0.0323711062
  0
LWPOLYLINE
  5
275
100
AcDbEntity
  8
ASSI
100
AcDbPolyline
 62
250
  6
CONTINUOUS
 90
22
 70
0
 10
-11.0130614368
 20
0.2323634908
 10
-11.0125001123
 20
0.2174194639
 10
-11.0108238291
 20
0.2025589955
 10
-11.00804196
 20
0.1878651755
 10
-11.0041700597
 20
0.1734201617
 10
-10.9992297777
 20
0.1593047212
 10
-10.9932487373
 20
0.1455977787
 10
-10.986260381
 20
0.1323759742
 10
-10.9783037834
 20
0.1197132349
 10
-10.9694234334
 20
0.1076803626
 10
-10.9596689844
 20
0.0963446367
 10
-10.9490949771
 20
0.0857694385
 10
-10.9377605351
 20
0.0760138972
 10
-10.9257290335
 20
0.0671325587
 10
-10.9130677446
 20
0.0591750807
 10
-10.8998474623
 20
0.0521859555
 10
-10.886142106
 20
0.0462042608
 10
-10.8720283066
 20
0.0412634414
 10
-10.8575849794
 20
0.0373911221
 10
-10.8428928815
 20
0.0346089535
 10
-10.8280341611
 20
0.0329324906
 10
-10.8130918978
 20
0.0323711062
  0
LINE
  5
276
100
AcDbEntity
  8
RACCORDO
100
AcDbLine
 62
250
  6
CONTINUOUS
 10
-11.0300844007
 20
21.282560904
 11
-11.0313905156
 21
21.3161272996
  0
LINE
  5
277
100
AcDbEntity
  8
ASSI
100
AcDbLine
 62
250
  6
CONTINUOUS
 10
-11.0300844007
 20
21.282560904
 11
-11.0313905156
 21
21.3161272996
  0
LINE
  5
278
100
AcDbEntity
  8
RACCORDO
100
AcDbLine
 62
250
  6
CONTINUOUS
 10
-10.5314665075
 20
21.7803475955
 11
-10.5328173663
 21
21.8213493417
  0
LINE
  5
279
100
AcDbEntity
  8
ASSI
100
AcDbLine
 62
250
  6
CONTINUOUS
 10
-10.5314665075
 20
21.7803475955
 11
-10.5328173663
 21
21.8213493417
  0
LINE
  5
27A
100
AcDbEntity
  8
RACCORDO
100
AcDbLine
 62
250
  6
CONTINUOUS
 10
-11.0288296515
 20
21.2429445177
 11
-11.0300844007
 21
21.282560904
  0
LINE
  5
27B
100
AcDbEntity
  8
ASSI
100
AcDbLine
 62
250
  6
CONTINUOUS
 10
-11.0288296515
 20
21.2429445177
 11
-11.0300844007
 21
21.282560904
  0
LINE
  5
27C
100
AcDbEntity
  8
RACCORDO
100
AcDbLine
 62
250
  6
CONTINUOUS
 10
-11.0276359218
 20
21.1975594685
 11
-11.0288296515
 21
21.2429445177
  0
LINE
  5
27D
100
AcDbEntity
  8
ASSI
100
AcDbLine
 62
250
  6
CONTINUOUS
 10
-11.0276359218
 20
21.1975594685
 11
-11.0288296515
 21
21.2429445177
  0
LINE
  5
27E
100
AcDbEntity
  8
RACCORDO
100
AcDbLine
 62
250
  6
CONTINUOUS
 10
-10.5301604306
 20
21.7299699231
 11
-10.5314665075
 21
21.7803475955
  0
LINE
  5
27F
100
AcDbEntity
  8
ASSI
100
AcDbLine
 62
250
  6
CONTINUOUS
 10
-10.5301604306
 20
21.7299699231
 11
-10.5314665075
 21
21.7803475955
  0
LINE
  5
280
100
AcDbEntity
  8
RACCORDO
100
AcDbLine
 62
250
  6
CONTINUOUS
 10
-11.0259774158
 20
21.1193852815
 11
-11.0276359218
 21
21.1975594685
  0
LINE
  5
281
100
AcDbEntity
  8
ASSI
100
AcDbLine
 62
250
  6
CONTINUOUS
 10
-11.0259774158
 20
21.1193852815
 11
-11.0276359218
 21
21.1975594685
  0
LINE
  5
282
100
AcDbEntity
  8
RACCORDO
100
AcDbLine
 62
250
  6
CONTINUOUS
 10
-10.52830129
 20
21.6375841656
 11
-10.5301604306
 21
21.7299699231
  0
LINE
  5
283
100
AcDbEntity
  8
ASSI
100
AcDbLine
 62
250
  6
CONTINUOUS
 10
-10.52830129
 20
21.6375841656
 11
-10.5301604306
 21
21.7299699231
  0
LINE
  5
284
100
AcDbEntity
  8
RACCORDO
100
AcDbLine
 62
250
  6
CONTINUOUS
 10
-11.0240504266
 20
20.998172793
 11
-11.0259774158
 21
21.1193852815
  0
LINE
  5
285
100
AcDbEntity
  8
ASSI
100
AcDbLine
 62
250
  6
CONTINUOUS
 10
-11.0240504266
 20
20.998172793
 11
-11.0259774158
 21
21.1193852815
  0
LINE
  5
286
100
AcDbEntity
  8
RACCORDO
100
AcDbLine
 62
250
  6
CONTINUOUS
 10
-10.5260536108
 20
21.4852537613
 11
-10.52830129
 21
21.6375841656
  0
LINE
  5
287
100
AcDbEntity
  8
ASSI
100
AcDbLine
 62
250
  6
CONTINUOUS
 10
-10.5260536108
 20
21.4852537613
 11
-10.52830129
 21
21.6375841656
  0
LINE
  5
288
100
AcDbEntity
  8
RACCORDO
100
AcDbLine
 62
250
  6
CONTINUOUS
 10
-11.0221692417
 20
20.8239645375
 11
-11.0240504266
 21
20.998172793
  0
LINE
  5
289
100
AcDbEntity
  8
ASSI
100
AcDbLine
 62
250
  6
CONTINUOUS
 10
-11.0221692417
 20
20.8239645375
 11
-11.0240504266
 21
20.998172793
  0
LINE
  5
28A
100
AcDbEntity
  8
RACCORDO
100
AcDbLine
 62
250
  6
CONTINUOUS
 10
-10.5232994852
 20
21.2029341372
 11
-10.5260536108
 21
21.4852537613
  0
LINE
  5
28B
100
AcDbEntity
  8
ASSI
100
AcDbLine
 62
250
  6
CONTINUOUS
 10
-10.5232994852
 20
21.2029341372
 11
-10.5260536108
 21
21.4852537613
  0
LINE
  5
28C
100
AcDbEntity
  8
RACCORDO
100
AcDbLine
 62
250
  6
CONTINUOUS
 10
-11.020786895
 20
20.5914807479
 11
-11.0221692417
 21
20.8239645375
  0
LINE
  5
28D
100
AcDbEntity
  8
ASSI
100
AcDbLine
 62
250
  6
CONTINUOUS
 10
-11.020786895
 20
20.5914807479
 11
-11.0221692417
 21
20.8239645375
  0
LINE
  5
28E
100
AcDbEntity
  8
RACCORDO
100
AcDbLine
 62
250
  6
CONTINUOUS
 10
-10.5210236291
 20
20.7534220699
 11
-10.5232994852
 21
21.2029341372
  0
LINE
  5
28F
100
AcDbEntity
  8
ASSI
100
AcDbLine
 62
250
  6
CONTINUOUS
 10
-10.5210236291
 20
20.7534220699
 11
-10.5232994852
 21
21.2029341372
  0
LINE
  5
290
100
AcDbEntity
  8
RACCORDO
100
AcDbLine
 62
7
  6
CONTINUOUS
 10
-11.103978006
 20
-13.2130684864
 11
-11.0909037686
 21
-21.7744354644
  0
LINE
  5
291
100
AcDbEntity
  8
ASSI
100
AcDbLine
 62
7
  6
CONTINUOUS
 10
-11.103978006
 20
-13.2130684864
 11
-11.0909037686
 21
-21.7744354644
  0
LINE
  5
292
100
AcDbEntity
  8
RACCORDO
100
AcDbLine
 62
250
  6
CONTINUOUS
 10
-11.0192762689
 20
18.7464939893
 11
-11.020786895
 21
20.5914807479
  0
LINE
  5
293
100
AcDbEntity
  8
ASSI
100
AcDbLine
 62
250
  6
CONTINUOUS
 10
-11.0192762689
 20
18.7464939893
 11
-11.020786895
 21
20.5914807479
  0
LINE
  5
294
100
AcDbEntity
  8
RACCORDO
100
AcDbLine
 62
250
  6
CONTINUOUS
 10
-10.5182925838
 20
17.0816243389
 11
-10.5210236291
 21
20.7534220699
  0
LINE
  5
295
100
AcDbEntity
  8
ASSI
100
AcDbLine
 62
250
  6
CONTINUOUS
 10
-10.5182925838
 20
17.0816243389
 11
-10.5210236291
 21
20.7534220699
  0
LINE
  5
296
100
AcDbEntity
  8
RACCORDO
100
AcDbLine
 62
250
  6
CONTINUOUS
 10
-11.0156300777
 20
12.0157372492
 11
-11.0192762689
 21
18.7464939893
  0
LINE
  5
297
100
AcDbEntity
  8
ASSI
100
AcDbLine
 62
250
  6
CONTINUOUS
 10
-11.0156300777
 20
12.0157372492
 11
-11.0192762689
 21
18.7464939893
  0
LINE
  5
298
100
AcDbEntity
  8
RACCORDO
100
AcDbLine
 62
250
  6
CONTINUOUS
 10
-10.5157066497
 20
12.0288748409
 11
-10.5182925838
 21
17.0816243389
  0
LINE
  5
299
100
AcDbEntity
  8
ASSI
100
AcDbLine
 62
250
  6
CONTINUOUS
 10
-10.5157066497
 20
12.0288748409
 11
-10.5182925838
 21
17.0816243389
  0
LINE
  5
29A
100
AcDbEntity
  8
RACCORDO
100
AcDbLine
 62
250
  6
CONTINUOUS
 10
-11.0139350581
 20
6.9663355456
 11
-11.0156300777
 21
12.0157372492
  0
LINE
  5
29B
100
AcDbEntity
  8
ASSI
100
AcDbLine
 62
250
  6
CONTINUOUS
 10
-11.0139350581
 20
6.9663355456
 11
-11.0156300777
 21
12.0157372492
  0
LINE
  5
29C
100
AcDbEntity
  8
RACCORDO
100
AcDbLine
 62
250
  6
CONTINUOUS
 10
-10.5140128437
 20
6.9750129472
 11
-10.5157066497
 21
12.0288748409
  0
LINE
  5
29D
100
AcDbEntity
  8
ASSI
100
AcDbLine
 62
250
  6
CONTINUOUS
 10
-10.5140128437
 20
6.9750129472
 11
-10.5157066497
 21
12.0288748409
  0
LINE
  5
29E
100
AcDbEntity
  8
RACCORDO
100
AcDbLine
 62
7
  6
CONTINUOUS
 10
-11.103978006
 20
-0.4130456411
 11
-11.103978006
 21
-13.2130684864
  0
LINE
  5
29F
100
AcDbEntity
  8
ASSI
100
AcDbLine
 62
7
  6
CONTINUOUS
 10
-11.103978006
 20
-0.4130456411
 11
-11.103978006
 21
-13.2130684864
  0
LINE
  5
2A0
100
AcDbEntity
  8
RACCORDO
100
AcDbLine
 62
7
  6
CONTINUOUS
 10
-11.103978006
 20
0.1869086683
 11
-11.103978006
 21
12.9869315136
  0
LINE
  5
2A1
100
AcDbEntity
  8
ASSI
100
AcDbLine
 62
7
  6
CONTINUOUS
 10
-11.103978006
 20
0.1869086683
 11
-11.103978006
 21
12.9869315136
  0
LINE
  5
2A2
100
AcDbEntity
  8
RACCORDO
100
AcDbLine
 62
250
  6
CONTINUOUS
 10
-11.0130617269
 20
0.2323633458
 11
-11.0139350581
 21
6.9663355456
  0
LINE
  5
2A3
100
AcDbEntity
  8
ASSI
100
AcDbLine
 62
250
  6
CONTINUOUS
 10
-11.0130617269
 20
0.2323633458
 11
-11.0139350581
 21
6.9663355456
  0
LINE
  5
2A4
100
AcDbEntity
  8
RACCORDO
100
AcDbLine
 62
250
  6
CONTINUOUS
 10
-10.5131376179
 20
0.0349434602
 11
-10.5140128437
 21
6.9750129472
  0
LINE
  5
2A5
100
AcDbEntity
  8
ASSI
100
AcDbLine
 62
250
  6
CONTINUOUS
 10
-10.5131376179
 20
0.0349434602
 11
-10.5140128437
 21
6.9750129472
  0
LINE
  5
2A6
100
AcDbEntity
  8
RACCORDO
100
AcDbLine
 62
250
  6
CONTINUOUS
 10
-11.0139350581
 20
-7.1924725185
 11
-11.0130617269
 21
-0.4585003187
  0
LINE
  5
2A7
100
AcDbEntity
  8
ASSI
100
AcDbLine
 62
250
  6
CONTINUOUS
 10
-11.0139350581
 20
-7.1924725185
 11
-11.0130617269
 21
-0.4585003187
  0
LINE
  5
2A8
100
AcDbEntity
  8
RACCORDO
100
AcDbLine
 62
250
  6
CONTINUOUS
 10
-10.5136446097
 20
-5.5163055479
 11
-10.5131376179
 21
-0.261080433
  0
LINE
  5
2A9
100
AcDbEntity
  8
ASSI
100
AcDbLine
 62
250
  6
CONTINUOUS
 10
-10.5136446097
 20
-5.5163055479
 11
-10.5131376179
 21
-0.261080433
  0
LINE
  5
2AA
100
AcDbEntity
  8
RACCORDO
100
AcDbLine
 62
250
  6
CONTINUOUS
 10
-10.5157066497
 20
-12.2550118137
 11
-10.5136446097
 21
-5.5163055479
  0
LINE
  5
2AB
100
AcDbEntity
  8
ASSI
100
AcDbLine
 62
250
  6
CONTINUOUS
 10
-10.5157066497
 20
-12.2550118137
 11
-10.5136446097
 21
-5.5163055479
  0
LINE
  5
2AC
100
AcDbEntity
  8
RACCORDO
100
AcDbLine
 62
250
  6
CONTINUOUS
 10
-11.0163931013
 20
-13.9247721638
 11
-11.0139350581
 21
-7.1924725185
  0
LINE
  5
2AD
100
AcDbEntity
  8
ASSI
100
AcDbLine
 62
250
  6
CONTINUOUS
 10
-11.0163931013
 20
-13.9247721638
 11
-11.0139350581
 21
-7.1924725185
  0
LWPOLYLINE
  5
2AE
100
AcDbEntity
  8
RACCORDO
100
AcDbPolyline
 62
250
  6
CONTINUOUS
 90
3
 70
0
 10
-11.0192762689
 20
-18.9726309622
 10
-11.0182161969
 20
-17.2901505339
 10
-11.0163931013
 20
-13.9247721638
  0
LWPOLYLINE
  5
2AF
100
AcDbEntity
  8
ASSI
100
AcDbPolyline
 62
250
  6
CONTINUOUS
 90
3
 70
0
 10
-11.0192762689
 20
-18.9726309622
 10
-11.0182161969
 20
-17.2901505339
 10
-11.0163931013
 20
-13.9247721638
  0
LWPOLYLINE
  5
2B0
100
AcDbEntity
  8
RACCORDO
100
AcDbPolyline
 62
250
  6
CONTINUOUS
 90
3
 70
0
 10
-10.5193525444
 20
-18.9917276432
 10
-10.5182925838
 20
-17.3077613118
 10
-10.5157066497
 20
-12.2550118137
  0
LWPOLYLINE
  5
2B1
100
AcDbEntity
  8
ASSI
100
AcDbPolyline
 62
250
  6
CONTINUOUS
 90
3
 70
0
 10
-10.5193525444
 20
-18.9917276432
 10
-10.5182925838
 20
-17.3077613118
 10
-10.5157066497
 20
-12.2550118137
  0
LINE
  5
2B2
100
AcDbEntity
  8
RACCORDO
100
AcDbLine
 62
7
  6
CONTINUOUS
 10
-11.103978006
 20
12.9869315136
 11
-11.0909037686
 21
21.5482984915
  0
LINE
  5
2B3
100
AcDbEntity
  8
ASSI
100
AcDbLine
 62
7
  6
CONTINUOUS
 10
-11.103978006
 20
12.9869315136
 11
-11.0909037686
 21
21.5482984915
  0
LINE
  5
2B4
100
AcDbEntity
  8
RACCORDO
100
AcDbLine
 62
250
  6
CONTINUOUS
 10
-11.0211360467
 20
-20.8972160037
 11
-11.0192762689
 21
-18.9726309622
  0
LINE
  5
2B5
100
AcDbEntity
  8
ASSI
100
AcDbLine
 62
250
  6
CONTINUOUS
 10
-11.0211360467
 20
-20.8972160037
 11
-11.0192762689
 21
-18.9726309622
  0
LINE
  5
2B6
100
AcDbEntity
  8
RACCORDO
100
AcDbLine
 62
250
  6
CONTINUOUS
 10
-10.5219464236
 20
-21.2123614133
 11
-10.5193525444
 21
-18.9917276432
  0
LINE
  5
2B7
100
AcDbEntity
  8
ASSI
100
AcDbLine
 62
250
  6
CONTINUOUS
 10
-10.5219464236
 20
-21.2123614133
 11
-10.5193525444
 21
-18.9917276432
  0
LINE
  5
2B8
100
AcDbEntity
  8
RACCORDO
100
AcDbLine
 62
250
  6
CONTINUOUS
 10
-10.5245752805
 20
-21.5775223047
 11
-10.5219464236
 21
-21.2123614133
  0
LINE
  5
2B9
100
AcDbEntity
  8
ASSI
100
AcDbLine
 62
250
  6
CONTINUOUS
 10
-10.5245752805
 20
-21.5775223047
 11
-10.5219464236
 21
-21.2123614133
  0
LINE
  5
2BA
100
AcDbEntity
  8
RACCORDO
100
AcDbLine
 62
250
  6
CONTINUOUS
 10
-11.022846532
 20
-21.1224240405
 11
-11.0211360467
 21
-20.8972160037
  0
LINE
  5
2BB
100
AcDbEntity
  8
ASSI
100
AcDbLine
 62
250
  6
CONTINUOUS
 10
-11.022846532
 20
-21.1224240405
 11
-11.0211360467
 21
-20.8972160037
  0
LINE
  5
2BC
100
AcDbEntity
  8
RACCORDO
100
AcDbLine
 62
250
  6
CONTINUOUS
 10
-11.0244990406
 20
-21.2562710895
 11
-11.022846532
 21
-21.1224240405
  0
LINE
  5
2BD
100
AcDbEntity
  8
ASSI
100
AcDbLine
 62
250
  6
CONTINUOUS
 10
-11.0244990406
 20
-21.2562710895
 11
-11.022846532
 21
-21.1224240405
  0
LINE
  5
2BE
100
AcDbEntity
  8
RACCORDO
100
AcDbLine
 62
250
  6
CONTINUOUS
 10
-10.5271410012
 20
-21.7915212025
 11
-10.5245752805
 21
-21.5775223047
  0
LINE
  5
2BF
100
AcDbEntity
  8
ASSI
100
AcDbLine
 62
250
  6
CONTINUOUS
 10
-10.5271410012
 20
-21.7915212025
 11
-10.5245752805
 21
-21.5775223047
  0
LINE
  5
2C0
100
AcDbEntity
  8
RACCORDO
100
AcDbLine
 62
250
  6
CONTINUOUS
 10
-10.5289057397
 20
-21.8966937243
 11
-10.5271410012
 21
-21.7915212025
  0
LINE
  5
2C1
100
AcDbEntity
  8
ASSI
100
AcDbLine
 62
250
  6
CONTINUOUS
 10
-10.5289057397
 20
-21.8966937243
 11
-10.5271410012
 21
-21.7915212025
  0
LINE
  5
2C2
100
AcDbEntity
  8
RACCORDO
100
AcDbLine
 62
250
  6
CONTINUOUS
 10
-11.0265120406
 20
-21.3729034467
 11
-11.0244990406
 21
-21.2562710895
  0
LINE
  5
2C3
100
AcDbEntity
  8
ASSI
100
AcDbLine
 62
250
  6
CONTINUOUS
 10
-11.0265120406
 20
-21.3729034467
 11
-11.0244990406
 21
-21.2562710895
  0
LINE
  5
2C4
100
AcDbEntity
  8
RACCORDO
100
AcDbLine
 62
250
  6
CONTINUOUS
 10
-10.5301604306
 20
-21.9561068966
 11
-10.5289057397
 21
-21.8966937243
  0
LINE
  5
2C5
100
AcDbEntity
  8
ASSI
100
AcDbLine
 62
250
  6
CONTINUOUS
 10
-10.5301604306
 20
-21.9561068966
 11
-10.5289057397
 21
-21.8966937243
  0
LINE
  5
2C6
100
AcDbEntity
  8
RACCORDO
100
AcDbLine
 62
250
  6
CONTINUOUS
 10
-11.0282251782
 20
-21.4471082452
 11
-11.0265120406
 21
-21.3729034467
  0
LINE
  5
2C7
100
AcDbEntity
  8
ASSI
100
AcDbLine
 62
250
  6
CONTINUOUS
 10
-11.0282251782
 20
-21.4471082452
 11
-11.0265120406
 21
-21.3729034467
  0
LINE
  5
2C8
100
AcDbEntity
  8
RACCORDO
100
AcDbLine
 62
250
  6
CONTINUOUS
 10
-10.5314665075
 20
-22.0064845689
 11
-10.5301604306
 21
-21.9561068966
  0
LINE
  5
2C9
100
AcDbEntity
  8
ASSI
100
AcDbLine
 62
250
  6
CONTINUOUS
 10
-10.5314665075
 20
-22.0064845689
 11
-10.5301604306
 21
-21.9561068966
  0
LINE
  5
2CA
100
AcDbEntity
  8
RACCORDO
100
AcDbLine
 62
250
  6
CONTINUOUS
 10
-11.0294494176
 20
-21.4896089629
 11
-11.0282251782
 21
-21.4471082452
  0
LINE
  5
2CB
100
AcDbEntity
  8
ASSI
100
AcDbLine
 62
250
  6
CONTINUOUS
 10
-11.0294494176
 20
-21.4896089629
 11
-11.0282251782
 21
-21.4471082452
  0
LWPOLYLINE
  5
2CC
100
AcDbEntity
  8
RACCORDO
100
AcDbPolyline
 62
250
  6
CONTINUOUS
 90
22
 70
0
 10
-11.0130614368
 20
-0.4585004637
 10
-11.0125001141
 20
-0.4435564603
 10
-11.0108238359
 20
-0.4286960136
 10
-11.0080419748
 20
-0.4140022131
 10
-11.0041700851
 20
-0.3995572167
 10
-10.9992298158
 20
-0.385441791
 10
-10.9932487894
 20
-0.3717348598
 10
-10.986260448
 20
-0.358513063
 10
-10.9783038654
 20
-0.345850328
 10
-10.9694235296
 20
-0.3338174561
 10
-10.9596690933
 20
-0.322481727
 10
-10.9490950968
 20
-0.3119065224
 10
-10.9377606626
 20
-0.3021509717
 10
-10.9257291652
 20
-0.2932696214
 10
-10.9130678767
 20
-0.2853121298
 10
-10.8998475903
 20
-0.27832299
 10
-10.8861422248
 20
-0.2723412803
 10
-10.8720284115
 20
-0.2674004466
 10
-10.8575850652
 20
-0.2635281146
 10
-10.8428929433
 20
-0.2607459356
 10
-10.8280341941
 20
-0.2590694659
 10
-10.8130918978
 20
-0.2585080791
  0
LWPOLYLINE
  5
2CD
100
AcDbEntity
  8
ASSI
100
AcDbPolyline
 62
250
  6
CONTINUOUS
 90
22
 70
0
 10
-11.0130614368
 20
-0.4585004637
 10
-11.0125001141
 20
-0.4435564603
 10
-11.0108238359
 20
-0.4286960136
 10
-11.0080419748
 20
-0.4140022131
 10
-11.0041700851
 20
-0.3995572167
 10
-10.9992298158
 20
-0.385441791
 10
-10.9932487894
 20
-0.3717348598
 10
-10.986260448
 20
-0.358513063
 10
-10.9783038654
 20
-0.345850328
 10
-10.9694235296
 20
-0.3338174561
 10
-10.9596690933
 20
-0.322481727
 10
-10.9490950968
 20
-0.3119065224
 10
-10.9377606626
 20
-0.3021509717
 10
-10.9257291652
 20
-0.2932696214
 10
-10.9130678767
 20
-0.2853121298
 10
-10.8998475903
 20
-0.27832299
 10
-10.8861422248
 20
-0.2723412803
 10
-10.8720284115
 20
-0.2674004466
 10
-10.8575850652
 20
-0.2635281146
 10
-10.8428929433
 20
-0.2607459356
 10
-10.8280341941
 20
-0.2590694659
 10
-10.8130918978
 20
-0.2585080791
  0
LINE
  5
2CE
100
AcDbEntity
  8
CURVE
100
AcDbLine
 62
250
  6
CONTINUOUS
 10
0.046021994
 20
15.3869315136
 11
-4.453978006
 21
10.8869315136
  0
LINE
  5
2CF
100
AcDbEntity
  8
CURVE
100
AcDbLine
 62
250
  6
CONTINUOUS
 10
4.546021994
 20
-11.1130684864
 11
-4.453978006
 21
-11.1130684864
  0
LINE
  5
2D0
100
AcDbEntity
  8
CURVE
100
AcDbLine
 62
250
  6
CONTINUOUS
 10
-4.453978006
 20
-11.1130684864
 11
0.046021994
 21
-15.6130684864
  0
LWPOLYLINE
  5
2D1
100
AcDbEntity
  8
RACCORDO
100
AcDbPolyline
 62
250
  6
CONTINUOUS
 90
7
 70
0
 10
-10.5328173663
 20
21.8213493417
 10
-10.5335057313
 20
21.8382443029
 10
-10.5342027074
 20
21.8526965219
 10
-10.534904818
 20
21.8646820502
 10
-10.5356109042
 20
21.8741807594
 10
-10.5363221249
 20
21.8811765527
 10
-10.5370384802
 20
21.8856576431
  0
LWPOLYLINE
  5
2D2
100
AcDbEntity
  8
ASSI
100
AcDbPolyline
 62
250
  6
CONTINUOUS
 90
7
 70
0
 10
-10.5328173663
 20
21.8213493417
 10
-10.5335057313
 20
21.8382443029
 10
-10.5342027074
 20
21.8526965219
 10
-10.534904818
 20
21.8646820502
 10
-10.5356109042
 20
21.8741807594
 10
-10.5363221249
 20
21.8811765527
 10
-10.5370384802
 20
21.8856576431
  0
LWPOLYLINE
  5
2D3
100
AcDbEntity
  8
0
100
AcDbPolyline
 62
7
  6
CONTINUOUS
 90
3
 70
0
 43
0.3500000006
 10
1.1888791809
 20
31.09204216
 10
1.1174505472
 20
30.8777576752
 10
0.9745934215
 20
30.5920420074
  0
LWPOLYLINE
  5
2D4
100
AcDbEntity
  8
RACCORDO
100
AcDbPolyline
 62
250
  6
CONTINUOUS
 90
8
 70
0
 10
-10.5370384802
 20
-22.111794616
 10
-10.5363221249
 20
-22.1073135256
 10
-10.5356109042
 20
-22.1003177324
 10
-10.534904818
 20
-22.0908190233
 10
-10.5342027074
 20
-22.078833495
 10
-10.5335057313
 20
-22.0643812761
 10
-10.5328173663
 20
-22.0474863149
 10
-10.5314665075
 20
-22.0064845689
  0
LWPOLYLINE
  5
2D5
100
AcDbEntity
  8
ASSI
100
AcDbPolyline
 62
250
  6
CONTINUOUS
 90
8
 70
0
 10
-10.5370384802
 20
-22.111794616
 10
-10.5363221249
 20
-22.1073135256
 10
-10.5356109042
 20
-22.1003177324
 10
-10.534904818
 20
-22.0908190233
 10
-10.5342027074
 20
-22.078833495
 10
-10.5335057313
 20
-22.0643812761
 10
-10.5328173663
 20
-22.0474863149
 10
-10.5314665075
 20
-22.0064845689
  0
LWPOLYLINE
  5
2D6
100
AcDbEntity
  8
RACCORDO
100
AcDbPolyline
 62
250
  6
CONTINUOUS
 90
11
 70
0
 10
-11.0369621274
 20
-21.612478941
 10
-11.0362460171
 20
-21.6094753511
 10
-11.0355349692
 20
-21.604815354
 10
-11.0348289836
 20
-21.5984989498
 10
-11.034126874
 20
-21.590509983
 10
-11.0334298266
 20
-21.5808646091
 10
-11.0327414006
 20
-21.5696112946
 10
-11.0320616475
 20
-21.556741754
 10
-11.0313905156
 20
-21.5422642728
 10
-11.0307314096
 20
-21.5262521737
 10
-11.0294494176
 20
-21.4896089629
  0
LWPOLYLINE
  5
2D7
100
AcDbEntity
  8
ASSI
100
AcDbPolyline
 62
250
  6
CONTINUOUS
 90
11
 70
0
 10
-11.0369621274
 20
-21.612478941
 10
-11.0362460171
 20
-21.6094753511
 10
-11.0355349692
 20
-21.604815354
 10
-11.0348289836
 20
-21.5984989498
 10
-11.034126874
 20
-21.590509983
 10
-11.0334298266
 20
-21.5808646091
 10
-11.0327414006
 20
-21.5696112946
 10
-11.0320616475
 20
-21.556741754
 10
-11.0313905156
 20
-21.5422642728
 10
-11.0307314096
 20
-21.5262521737
 10
-11.0294494176
 20
-21.4896089629
  0
LINE
  5
2D8
100
AcDbEntity
  8
RACCORDO
100
AcDbLine
 62
250
  6
CONTINUOUS
 10
-11.103978006
 20
0.1869086683
 11
-11.0130617269
 21
0.2323633458
  0
LINE
  5
2D9
100
AcDbEntity
  8
ASSI
100
AcDbLine
 62
250
  6
CONTINUOUS
 10
-11.103978006
 20
0.1869086683
 11
-11.0130617269
 21
0.2323633458
  0
LINE
  5
2DA
100
AcDbEntity
  8
RACCORDO
100
AcDbLine
 62
250
  6
CONTINUOUS
 10
-10.9039780048
 20
-0.0130684864
 11
-10.8130918978
 21
0.0323711062
  0
LINE
  5
2DB
100
AcDbEntity
  8
ASSI
100
AcDbLine
 62
250
  6
CONTINUOUS
 10
-10.9039780048
 20
-0.0130684864
 11
-10.8130918978
 21
0.0323711062
  0
LINE
  5
2DC
100
AcDbEntity
  8
RACCORDO
100
AcDbLine
 62
250
  6
CONTINUOUS
 10
-11.0130617269
 20
-0.4585003187
 11
-11.103978006
 21
-0.4130456411
  0
LINE
  5
2DD
100
AcDbEntity
  8
ASSI
100
AcDbLine
 62
250
  6
CONTINUOUS
 10
-11.0130617269
 20
-0.4585003187
 11
-11.103978006
 21
-0.4130456411
  0
LINE
  5
2DE
100
AcDbEntity
  8
RACCORDO
100
AcDbLine
 62
250
  6
CONTINUOUS
 10
-10.8130918978
 20
-0.2585080791
 11
-10.9039780048
 21
-0.2130684864
  0
LINE
  5
2DF
100
AcDbEntity
  8
ASSI
100
AcDbLine
 62
250
  6
CONTINUOUS
 10
-10.8130918978
 20
-0.2585080791
 11
-10.9039780048
 21
-0.2130684864
  0
LINE
  5
2E0
100
AcDbEntity
  8
RACCORDO
100
AcDbLine
 62
250
  6
CONTINUOUS
 10
-11.0909037686
 20
-21.7744354644
 11
-11.0369621274
 21
-21.612478941
  0
LINE
  5
2E1
100
AcDbEntity
  8
ASSI
100
AcDbLine
 62
250
  6
CONTINUOUS
 10
-11.0909037686
 20
-21.7744354644
 11
-11.0369621274
 21
-21.612478941
  0
LINE
  5
2E2
100
AcDbEntity
  8
RACCORDO
100
AcDbLine
 62
250
  6
CONTINUOUS
 10
-10.5905239453
 20
-22.2723811922
 11
-10.5370385821
 21
-22.1117946161
  0
LINE
  5
2E3
100
AcDbEntity
  8
ASSI
100
AcDbLine
 62
250
  6
CONTINUOUS
 10
-10.5905239453
 20
-22.2723811922
 11
-10.5370385821
 21
-22.1117946161
  0
LINE
  5
2E4
100
AcDbEntity
  8
DRAFT
100
AcDbLine
 62
7
  6
CONTINUOUS
 10
-9.7998673047
 20
0.0139848037
 11
-9.853978006
 21
-0.0130684864
  0
LINE
  5
2E5
100
AcDbEntity
  8
ASSI
100
AcDbLine
 62
7
  6
CONTINUOUS
 10
-9.7998673047
 20
0.0139848037
 11
-9.853978006
 21
-0.0130684864
  0
LWPOLYLINE
  5
2E6
100
AcDbEntity
  8
0
100
AcDbPolyline
 62
7
  6
CONTINUOUS
 90
2
 70
0
 43
0.3500000006
 10
18.4704091988
 20
-3.3987822876
 10
16.970408741
 20
-3.3987822876
  0
LINE
  5
2E7
100
AcDbEntity
  8
DRAFT
100
AcDbLine
 62
7
  6
CONTINUOUS
 10
-9.7998673047
 20
-0.2401217766
 11
-9.853978006
 21
-0.2130684864
  0
LINE
  5
2E8
100
AcDbEntity
  8
ASSI
100
AcDbLine
 62
7
  6
CONTINUOUS
 10
-9.7998673047
 20
-0.2401217766
 11
-9.853978006
 21
-0.2130684864
  0
LINE
  5
2E9
100
AcDbEntity
  8
RACCORDO
100
AcDbLine
 62
250
  6
CONTINUOUS
 10
-11.0369621274
 20
21.3863419682
 11
-11.0909037686
 21
21.5482984915
  0
LINE
  5
2EA
100
AcDbEntity
  8
ASSI
100
AcDbLine
 62
250
  6
CONTINUOUS
 10
-11.0369621274
 20
21.3863419682
 11
-11.0909037686
 21
21.5482984915
  0
LINE
  5
2EB
100
AcDbEntity
  8
RACCORDO
100
AcDbLine
 62
250
  6
CONTINUOUS
 10
-10.5370385821
 20
21.8856576432
 11
-10.5905239453
 21
22.0462442193
  0
LINE
  5
2EC
100
AcDbEntity
  8
ASSI
100
AcDbLine
 62
250
  6
CONTINUOUS
 10
-10.5370385821
 20
21.8856576432
 11
-10.5905239453
 21
22.0462442193
  0
LINE
  5
2ED
100
AcDbEntity
  8
RACCORDO
100
AcDbLine
 62
250
  6
CONTINUOUS
 10
-1.573390923
 20
0.2350751022
 11
-1.573390923
 21
0.0349434602
  0
LINE
  5
2EE
100
AcDbEntity
  8
ASSI
100
AcDbLine
 62
250
  6
CONTINUOUS
 10
-1.573390923
 20
0.2350751022
 11
-1.573390923
 21
0.0349434602
  0
LINE
  5
2EF
100
AcDbEntity
  8
RACCORDO
100
AcDbLine
 62
250
  6
CONTINUOUS
 10
-1.573390923
 20
-0.4612120751
 11
-1.573390923
 21
-0.261080433
  0
LINE
  5
2F0
100
AcDbEntity
  8
ASSI
100
AcDbLine
 62
250
  6
CONTINUOUS
 10
-1.573390923
 20
-0.4612120751
 11
-1.573390923
 21
-0.261080433
  0
LWPOLYLINE
  5
2F1
100
AcDbEntity
  8
RACCORDO
100
AcDbPolyline
 62
250
  6
CONTINUOUS
 90
64
 70
0
 10
-1.4770142899
 20
0.3084382772
 10
-1.4586877219
 20
0.3699825562
 10
-1.4378145637
 20
0.4307637381
 10
-1.4143948155
 20
0.4907818223
 10
-1.3883855843
 20
0.5501831251
 10
-1.3598297631
 20
0.6088213291
 10
-1.3288560302
 20
0.6662574839
 10
-1.2954329629
 20
0.7224789539
 10
-1.2595919841
 20
0.7774983744
 10
-1.2215560409
 20
0.8309147018
 10
-1.1813033962
 20
0.8827032417
 10
-1.1388557872
 20
0.9328886891
 10
-1.0945013727
 20
0.9811440844
 10
-1.0482550182
 20
1.0274250718
 10
-1.0001018583
 20
1.0717760087
 10
-0.9502854554
 20
1.1140030052
 10
-0.8988134726
 20
1.1540917811
 10
-0.8456782468
 20
1.1920566187
 10
-0.7911003515
 20
1.227746472
 10
-0.7350584919
 20
1.2611654659
 10
-0.6775739628
 20
1.2923094776
 10
-0.6189312217
 20
1.3210150904
 10
-0.5591126461
 20
1.3472731705
 10
-0.4981358585
 20
1.3710928537
 10
-0.4363381844
 20
1.3923381277
 10
-0.3737214155
 20
1.4109907722
 10
-0.3102837601
 20
1.4270690094
 10
-0.2463571693
 20
1.4404914906
 10
-0.1819435854
 20
1.4512437129
 10
-0.1170410661
 20
1.4593401805
 10
-0.0519757357
 20
1.4647430551
 10
0.0132522763
 20
1.4674397064
 10
0.0786430994
 20
1.4674427652
 10
0.1438709981
 20
1.4647522853
 10
0.2089359894
 20
1.4593556698
 10
0.2738380562
 20
1.4512655152
 10
0.3382514118
 20
1.4405196653
 10
0.4021778958
 20
1.4271037213
 10
0.4656156685
 20
1.4110320809
 10
0.5282334242
 20
1.3923857818
 10
0.5900332266
 20
1.3711465688
 10
0.6510130119
 20
1.3473326953
 10
0.7108352833
 20
1.3210799613
 10
0.7694828681
 20
1.2923788527
 10
0.826972939
 20
1.2612388814
 10
0.8830195174
 20
1.2278243859
 10
0.9376009079
 20
1.1921394862
 10
0.9907388059
 20
1.1541800602
 10
1.0422123187
 20
1.114098084
 10
1.0920282224
 20
1.0718802217
 10
1.1401797409
 20
1.027539807
 10
1.186425653
 20
0.9812688207
 10
1.2307810971
 20
0.9330234233
 10
1.2732309348
 20
0.8828474526
 10
1.3134885298
 20
0.8310644052
 10
1.3515331344
 20
0.7776487381
 10
1.3873854962
 20
0.7226259935
 10
1.4208212216
 20
0.6663962969
 10
1.4518091844
 20
0.6089461387
 10
1.4803805107
 20
0.5502890285
 10
1.5064041848
 20
0.4908656213
 10
1.5298365348
 20
0.4308228024
 10
1.5507212325
 20
0.3700136875
 10
1.5690582779
 20
0.3084382772
  0
LWPOLYLINE
  5
2F2
100
AcDbEntity
  8
ASSI
100
AcDbPolyline
 62
250
  6
CONTINUOUS
 90
64
 70
0
 10
-1.4770142899
 20
0.3084382772
 10
-1.4586877219
 20
0.3699825562
 10
-1.4378145637
 20
0.4307637381
 10
-1.4143948155
 20
0.4907818223
 10
-1.3883855843
 20
0.5501831251
 10
-1.3598297631
 20
0.6088213291
 10
-1.3288560302
 20
0.6662574839
 10
-1.2954329629
 20
0.7224789539
 10
-1.2595919841
 20
0.7774983744
 10
-1.2215560409
 20
0.8309147018
 10
-1.1813033962
 20
0.8827032417
 10
-1.1388557872
 20
0.9328886891
 10
-1.0945013727
 20
0.9811440844
 10
-1.0482550182
 20
1.0274250718
 10
-1.0001018583
 20
1.0717760087
 10
-0.9502854554
 20
1.1140030052
 10
-0.8988134726
 20
1.1540917811
 10
-0.8456782468
 20
1.1920566187
 10
-0.7911003515
 20
1.227746472
 10
-0.7350584919
 20
1.2611654659
 10
-0.6775739628
 20
1.2923094776
 10
-0.6189312217
 20
1.3210150904
 10
-0.5591126461
 20
1.3472731705
 10
-0.4981358585
 20
1.3710928537
 10
-0.4363381844
 20
1.3923381277
 10
-0.3737214155
 20
1.4109907722
 10
-0.3102837601
 20
1.4270690094
 10
-0.2463571693
 20
1.4404914906
 10
-0.1819435854
 20
1.4512437129
 10
-0.1170410661
 20
1.4593401805
 10
-0.0519757357
 20
1.4647430551
 10
0.0132522763
 20
1.4674397064
 10
0.0786430994
 20
1.4674427652
 10
0.1438709981
 20
1.4647522853
 10
0.2089359894
 20
1.4593556698
 10
0.2738380562
 20
1.4512655152
 10
0.3382514118
 20
1.4405196653
 10
0.4021778958
 20
1.4271037213
 10
0.4656156685
 20
1.4110320809
 10
0.5282334242
 20
1.3923857818
 10
0.5900332266
 20
1.3711465688
 10
0.6510130119
 20
1.3473326953
 10
0.7108352833
 20
1.3210799613
 10
0.7694828681
 20
1.2923788527
 10
0.826972939
 20
1.2612388814
 10
0.8830195174
 20
1.2278243859
 10
0.9376009079
 20
1.1921394862
 10
0.9907388059
 20
1.1541800602
 10
1.0422123187
 20
1.114098084
 10
1.0920282224
 20
1.0718802217
 10
1.1401797409
 20
1.027539807
 10
1.186425653
 20
0.9812688207
 10
1.2307810971
 20
0.9330234233
 10
1.2732309348
 20
0.8828474526
 10
1.3134885298
 20
0.8310644052
 10
1.3515331344
 20
0.7776487381
 10
1.3873854962
 20
0.7226259935
 10
1.4208212216
 20
0.6663962969
 10
1.4518091844
 20
0.6089461387
 10
1.4803805107
 20
0.5502890285
 10
1.5064041848
 20
0.4908656213
 10
1.5298365348
 20
0.4308228024
 10
1.5507212325
 20
0.3700136875
 10
1.5690582779
 20
0.3084382772
  0
LWPOLYLINE
  5
2F3
100
AcDbEntity
  8
RACCORDO
100
AcDbPolyline
 62
250
  6
CONTINUOUS
 90
7
 70
0
 10
10.9051358859
 20
-0.2585080791
 10
10.9044543789
 20
-0.2586439928
 10
10.9029820771
 20
-0.258778727
 10
10.9007189806
 20
-0.2589122818
 10
10.8976549176
 20
-0.2590450134
 10
10.8938000599
 20
-0.2591765655
 10
10.8891849224
 20
-0.2593058692
  0
LWPOLYLINE
  5
2F4
100
AcDbEntity
  8
ASSI
100
AcDbPolyline
 62
250
  6
CONTINUOUS
 90
7
 70
0
 10
10.9051358859
 20
-0.2585080791
 10
10.9044543789
 20
-0.2586439928
 10
10.9029820771
 20
-0.258778727
 10
10.9007189806
 20
-0.2589122818
 10
10.8976549176
 20
-0.2590450134
 10
10.8938000599
 20
-0.2591765655
 10
10.8891849224
 20
-0.2593058692
  0
LWPOLYLINE
  5
2F5
100
AcDbEntity
  8
RACCORDO
100
AcDbPolyline
 62
250
  6
CONTINUOUS
 90
5
 70
0
 10
11.1051057147
 20
-0.4585003725
 10
11.1039846776
 20
-0.458643523
 10
11.1015264414
 20
-0.4587855017
 10
11.0977378548
 20
-0.4589262606
 10
11.0926295895
 20
-0.4590660662
  0
LWPOLYLINE
  5
2F6
100
AcDbEntity
  8
ASSI
100
AcDbPolyline
 62
250
  6
CONTINUOUS
 90
5
 70
0
 10
11.1051057147
 20
-0.4585003725
 10
11.1039846776
 20
-0.458643523
 10
11.1015264414
 20
-0.4587855017
 10
11.0977378548
 20
-0.4589262606
 10
11.0926295895
 20
-0.4590660662
  0
LWPOLYLINE
  5
2F7
100
AcDbEntity
  8
RACCORDO
100
AcDbPolyline
 62
250
  6
CONTINUOUS
 90
25
 70
0
 10
-1.4770142899
 20
-0.5345752501
 10
-1.4786086635
 20
-0.5293714913
 10
-1.4804696819
 20
-0.5242892172
 10
-1.4825973451
 20
-0.5193284278
 10
-1.4849994741
 20
-0.514474948
 10
-1.487668248
 20
-0.5097429529
 10
-1.4905802038
 20
-0.5051749682
 10
-1.4937375309
 20
-0.5007725999
 10
-1.4971380401
 20
-0.496534242
 10
-1.500751701
 20
-0.4924976028
 10
-1.5045804526
 20
-0.4886645621
 10
-1.508622356
 20
-0.4850332401
 10
-1.5128415641
 20
-0.4816357062
 10
-1.5172394679
 20
-0.4784741643
 10
-1.5218146764
 20
-0.4755464104
 10
-1.5265271697
 20
-0.4728779016
 10
-1.5313782772
 20
-0.4704708776
 10
-1.5363666696
 20
-0.4683230987
 10
-1.5414483391
 20
-0.4664533031
 10
-1.5466241067
 20
-0.4648639434
 10
-1.5518931514
 20
-0.4635525669
 10
-1.5572090024
 20
-0.4625305538
 10
-1.5625561696
 20
-0.4618016975
 10
-1.5679501431
 20
-0.4613622046
 10
-1.573390923
 20
-0.4612120751
  0
LWPOLYLINE
  5
2F8
100
AcDbEntity
  8
ASSI
100
AcDbPolyline
 62
250
  6
CONTINUOUS
 90
25
 70
0
 10
-1.4770142899
 20
-0.5345752501
 10
-1.4786086635
 20
-0.5293714913
 10
-1.4804696819
 20
-0.5242892172
 10
-1.4825973451
 20
-0.5193284278
 10
-1.4849994741
 20
-0.514474948
 10
-1.487668248
 20
-0.5097429529
 10
-1.4905802038
 20
-0.5051749682
 10
-1.4937375309
 20
-0.5007725999
 10
-1.4971380401
 20
-0.496534242
 10
-1.500751701
 20
-0.4924976028
 10
-1.5045804526
 20
-0.4886645621
 10
-1.508622356
 20
-0.4850332401
 10
-1.5128415641
 20
-0.4816357062
 10
-1.5172394679
 20
-0.4784741643
 10
-1.5218146764
 20
-0.4755464104
 10
-1.5265271697
 20
-0.4728779016
 10
-1.5313782772
 20
-0.4704708776
 10
-1.5363666696
 20
-0.4683230987
 10
-1.5414483391
 20
-0.4664533031
 10
-1.5466241067
 20
-0.4648639434
 10
-1.5518931514
 20
-0.4635525669
 10
-1.5572090024
 20
-0.4625305538
 10
-1.5625561696
 20
-0.4618016975
 10
-1.5679501431
 20
-0.4613622046
 10
-1.573390923
 20
-0.4612120751
  0
LWPOLYLINE
  5
2F9
100
AcDbEntity
  8
RACCORDO
100
AcDbPolyline
 62
250
  6
CONTINUOUS
 90
64
 70
0
 10
-1.284262721
 20
0.2549425088
 10
-1.26826292
 20
0.3085276809
 10
-1.2500259027
 20
0.3616382777
 10
-1.2295551284
 20
0.4141772031
 10
-1.2068439456
 20
0.4660775549
 10
-1.181916284
 20
0.5172082972
 10
-1.1548394303
 20
0.5673806351
 10
-1.1256448361
 20
0.6165024985
 10
-1.0943693922
 20
0.6644803383
 10
-1.061117262
 20
0.711137193
 10
-1.0259478178
 20
0.7563857338
 10
-0.9889156458
 20
0.8001519274
 10
-0.9501421658
 20
0.8422963275
 10
-0.9097260111
 20
0.8827267864
 10
-0.867718259
 20
0.9214066138
 10
-0.8241790364
 20
0.9582893908
 10
-0.7791958323
 20
0.9933087867
 10
-0.7328394735
 20
1.0264171809
 10
-0.6851423261
 20
1.057593394
 10
-0.6361691513
 20
1.0867913229
 10
-0.5860170871
 20
1.1139493737
 10
-0.5347659396
 20
1.1390216243
 10
-0.4824926198
 20
1.1619667076
 10
-0.4292945556
 20
1.1827381836
 10
-0.3752860041
 20
1.2012902133
 10
-0.3205657732
 20
1.2175897238
 10
-0.2652215522
 20
1.2316114488
 10
-0.2093540462
 20
1.2433306996
 10
-0.1530628408
 20
1.2527280203
 10
-0.0964406229
 20
1.2597893571
 10
-0.0395788239
 20
1.2645041415
 10
0.0174246715
 20
1.2668647855
 10
0.0744731354
 20
1.2668678071
 10
0.1314766413
 20
1.2645132163
 10
0.1883383829
 20
1.2598045229
 10
0.2449605609
 20
1.2527493323
 10
0.3012519888
 20
1.2433581873
 10
0.3571198791
 20
1.2316451546
 10
0.4124647532
 20
1.2176296629
 10
0.4671864415
 20
1.2013362173
 10
0.5211974304
 20
1.1827899352
 10
0.5743986816
 20
1.1620238689
 10
0.6266758417
 20
1.13908381
 10
0.6779318881
 20
1.1140159075
 10
0.7280894077
 20
1.086861661
 10
0.7770672244
 20
1.0576677635
 10
0.8247680234
 20
1.0264960742
 10
0.8711273499
 20
0.9933926639
 10
0.9161123512
 20
0.9583792719
 10
0.9596515091
 20
0.9215044137
 10
1.0016583813
 20
0.8828339001
 10
1.0420748145
 20
0.8424124044
 10
1.0808495544
 20
0.8002766596
 10
1.117884038
 20
0.7565185821
 10
1.1530586604
 20
0.7112749774
 10
1.1863190149
 20
0.6646187167
 10
1.2176046555
 20
0.6166376489
 10
1.2468110049
 20
0.567508411
 10
1.2739009253
 20
0.5173239026
 10
1.2988422115
 20
0.4661764524
 10
1.3215665316
 20
0.414256027
 10
1.3420494486
 20
0.3616940834
 10
1.3602974684
 20
0.3085571061
 10
1.3763067879
 20
0.254942224
  0
LWPOLYLINE
  5
2FA
100
AcDbEntity
  8
ASSI
100
AcDbPolyline
 62
250
  6
CONTINUOUS
 90
64
 70
0
 10
-1.284262721
 20
0.2549425088
 10
-1.26826292
 20
0.3085276809
 10
-1.2500259027
 20
0.3616382777
 10
-1.2295551284
 20
0.4141772031
 10
-1.2068439456
 20
0.4660775549
 10
-1.181916284
 20
0.5172082972
 10
-1.1548394303
 20
0.5673806351
 10
-1.1256448361
 20
0.6165024985
 10
-1.0943693922
 20
0.6644803383
 10
-1.061117262
 20
0.711137193
 10
-1.0259478178
 20
0.7563857338
 10
-0.9889156458
 20
0.8001519274
 10
-0.9501421658
 20
0.8422963275
 10
-0.9097260111
 20
0.8827267864
 10
-0.867718259
 20
0.9214066138
 10
-0.8241790364
 20
0.9582893908
 10
-0.7791958323
 20
0.9933087867
 10
-0.7328394735
 20
1.0264171809
 10
-0.6851423261
 20
1.057593394
 10
-0.6361691513
 20
1.0867913229
 10
-0.5860170871
 20
1.1139493737
 10
-0.5347659396
 20
1.1390216243
 10
-0.4824926198
 20
1.1619667076
 10
-0.4292945556
 20
1.1827381836
 10
-0.3752860041
 20
1.2012902133
 10
-0.3205657732
 20
1.2175897238
 10
-0.2652215522
 20
1.2316114488
 10
-0.2093540462
 20
1.2433306996
 10
-0.1530628408
 20
1.2527280203
 10
-0.0964406229
 20
1.2597893571
 10
-0.0395788239
 20
1.2645041415
 10
0.0174246715
 20
1.2668647855
 10
0.0744731354
 20
1.2668678071
 10
0.1314766413
 20
1.2645132163
 10
0.1883383829
 20
1.2598045229
 10
0.2449605609
 20
1.2527493323
 10
0.3012519888
 20
1.2433581873
 10
0.3571198791
 20
1.2316451546
 10
0.4124647532
 20
1.2176296629
 10
0.4671864415
 20
1.2013362173
 10
0.5211974304
 20
1.1827899352
 10
0.5743986816
 20
1.1620238689
 10
0.6266758417
 20
1.13908381
 10
0.6779318881
 20
1.1140159075
 10
0.7280894077
 20
1.086861661
 10
0.7770672244
 20
1.0576677635
 10
0.8247680234
 20
1.0264960742
 10
0.8711273499
 20
0.9933926639
 10
0.9161123512
 20
0.9583792719
 10
0.9596515091
 20
0.9215044137
 10
1.0016583813
 20
0.8828339001
 10
1.0420748145
 20
0.8424124044
 10
1.0808495544
 20
0.8002766596
 10
1.117884038
 20
0.7565185821
 10
1.1530586604
 20
0.7112749774
 10
1.1863190149
 20
0.6646187167
 10
1.2176046555
 20
0.6166376489
 10
1.2468110049
 20
0.567508411
 10
1.2739009253
 20
0.5173239026
 10
1.2988422115
 20
0.4661764524
 10
1.3215665316
 20
0.414256027
 10
1.3420494486
 20
0.3616940834
 10
1.3602974684
 20
0.3085571061
 10
1.3763067879
 20
0.254942224
  0
LWPOLYLINE
  5
2FB
100
AcDbEntity
  8
0
100
AcDbPolyline
 62
7
  6
CONTINUOUS
 90
25
 70
0
 10
-1.280072299
 20
0.2503856728
 10
-1.2847912832
 20
0.2348227487
 10
-1.2903262753
 20
0.2195941284
 10
-1.2966772753
 20
0.2046998119
 10
-1.3038776454
 20
0.1900790371
 10
-1.3118940234
 20
0.1757925661
 10
-1.3206263226
 20
0.1620226855
 10
-1.3300565155
 20
0.1488096288
 10
-1.3402026295
 20
0.1361131624
 10
-1.35101866
 20
0.1239948722
 10
-1.3625325793
 20
0.1124320237
 10
-1.3747164152
 20
0.1014473514
 10
-1.3874402462
 20
0.0911706438
 10
-1.4007139244
 20
0.081614855
 10
-1.4145275979
 20
0.0727670309
 10
-1.4287217899
 20
0.0647180988
 10
-1.4432664284
 20
0.0574891398
 10
-1.4581915854
 20
0.0510590727
 10
-1.4734280006
 20
0.0454555817
 10
-1.4890212329
 20
0.0406714111
 10
-1.5049257233
 20
0.0367138166
 10
-1.5209355337
 20
0.0336322496
 10
-1.5369820179
 20
0.0314431941
 10
-1.5531338221
 20
0.0301301661
 10
-1.5693909462
 20
0.0296931657
  0
LWPOLYLINE
  5
2FC
100
AcDbEntity
  8
ASSI
100
AcDbPolyline
 62
7
  6
CONTINUOUS
 90
25
 70
0
 10
-1.280072299
 20
0.2503856728
 10
-1.2847912832
 20
0.2348227487
 10
-1.2903262753
 20
0.2195941284
 10
-1.2966772753
 20
0.2046998119
 10
-1.3038776454
 20
0.1900790371
 10
-1.3118940234
 20
0.1757925661
 10
-1.3206263226
 20
0.1620226855
 10
-1.3300565155
 20
0.1488096288
 10
-1.3402026295
 20
0.1361131624
 10
-1.35101866
 20
0.1239948722
 10
-1.3625325793
 20
0.1124320237
 10
-1.3747164152
 20
0.1014473514
 10
-1.3874402462
 20
0.0911706438
 10
-1.4007139244
 20
0.081614855
 10
-1.4145275979
 20
0.0727670309
 10
-1.4287217899
 20
0.0647180988
 10
-1.4432664284
 20
0.0574891398
 10
-1.4581915854
 20
0.0510590727
 10
-1.4734280006
 20
0.0454555817
 10
-1.4890212329
 20
0.0406714111
 10
-1.5049257233
 20
0.0367138166
 10
-1.5209355337
 20
0.0336322496
 10
-1.5369820179
 20
0.0314431941
 10
-1.5531338221
 20
0.0301301661
 10
-1.5693909462
 20
0.0296931657
  0
LINE
  5
2FD
100
AcDbEntity
  8
RACCORDO
100
AcDbLine
 62
250
  6
CONTINUOUS
 10
-1.280072299
 20
-0.4765226457
 11
-1.2842627998
 21
-0.4810791968
  0
LINE
  5
2FE
100
AcDbEntity
  8
ASSI
100
AcDbLine
 62
250
  6
CONTINUOUS
 10
-1.280072299
 20
-0.4765226457
 11
-1.2842627998
 21
-0.4810791968
  0
LINE
  5
2FF
100
AcDbEntity
  8
DRAFT
100
AcDbLine
 62
7
  6
CONTINUOUS
 10
-2.2557105865
 20
0.0139848037
 11
-2.2503197359
 21
0.0166028641
  0
LINE
  5
300
100
AcDbEntity
  8
ASSI
100
AcDbLine
 62
7
  6
CONTINUOUS
 10
-2.2557105865
 20
0.0139848037
 11
-2.2503197359
 21
0.0166028641
  0
LINE
  5
301
100
AcDbEntity
  8
RACCORDO
100
AcDbLine
 62
250
  6
CONTINUOUS
 10
-1.284917694
 20
-0.4812768956
 11
-1.2842627329
 21
-0.4810831729
  0
LINE
  5
302
100
AcDbEntity
  8
ASSI
100
AcDbLine
 62
250
  6
CONTINUOUS
 10
-1.284917694
 20
-0.4812768956
 11
-1.2842627329
 21
-0.4810831729
  0
LINE
  5
303
100
AcDbEntity
  8
RACCORDO
100
AcDbLine
 62
250
  6
CONTINUOUS
 10
1.3769616821
 20
0.2551399227
 11
1.376306721
 21
0.2549462001
  0
LINE
  5
304
100
AcDbEntity
  8
ASSI
100
AcDbLine
 62
250
  6
CONTINUOUS
 10
1.3769616821
 20
0.2551399227
 11
1.376306721
 21
0.2549462001
  0
LINE
  5
305
100
AcDbEntity
  8
RACCORDO
100
AcDbLine
 62
250
  6
CONTINUOUS
 10
1.3852588663
 20
0.2574721899
 11
1.3769616821
 21
0.2551399227
  0
LINE
  5
306
100
AcDbEntity
  8
ASSI
100
AcDbLine
 62
250
  6
CONTINUOUS
 10
1.3852588663
 20
0.2574721899
 11
1.3769616821
 21
0.2551399227
  0
LINE
  5
307
100
AcDbEntity
  8
RACCORDO
100
AcDbLine
 62
250
  6
CONTINUOUS
 10
-1.2932148783
 20
-0.4836091628
 11
-1.284917694
 21
-0.4812768956
  0
LINE
  5
308
100
AcDbEntity
  8
ASSI
100
AcDbLine
 62
250
  6
CONTINUOUS
 10
-1.2932148783
 20
-0.4836091628
 11
-1.284917694
 21
-0.4812768956
  0
LINE
  5
309
100
AcDbEntity
  8
RACCORDO
100
AcDbLine
 62
250
  6
CONTINUOUS
 10
-1.4770142899
 20
-0.5345752501
 11
-1.2932148783
 21
-0.4836091628
  0
LINE
  5
30A
100
AcDbEntity
  8
ASSI
100
AcDbLine
 62
250
  6
CONTINUOUS
 10
-1.4770142899
 20
-0.5345752501
 11
-1.2932148783
 21
-0.4836091628
  0
LINE
  5
30B
100
AcDbEntity
  8
RACCORDO
100
AcDbLine
 62
250
  6
CONTINUOUS
 10
1.5690582779
 20
0.3084382772
 11
1.3852588663
 21
0.2574721899
  0
LINE
  5
30C
100
AcDbEntity
  8
ASSI
100
AcDbLine
 62
250
  6
CONTINUOUS
 10
1.5690582779
 20
0.3084382772
 11
1.3852588663
 21
0.2574721899
  0
LINE
  5
30D
100
AcDbEntity
  8
DRAFT
100
AcDbLine
 62
7
  6
CONTINUOUS
 10
1.9690361527
 20
-0.2427398369
 11
1.9155791905
 21
-0.2558301386
  0
LINE
  5
30E
100
AcDbEntity
  8
ASSI
100
AcDbLine
 62
7
  6
CONTINUOUS
 10
1.9690361527
 20
-0.2427398369
 11
1.9155791905
 21
-0.2558301386
  0
LWPOLYLINE
  5
30F
100
AcDbEntity
  8
RACCORDO
100
AcDbPolyline
 62
250
  6
CONTINUOUS
 90
25
 70
0
 10
1.665434911
 20
-0.4612120751
 10
1.6599941312
 20
-0.4613622046
 10
1.6546001576
 20
-0.4618016975
 10
1.6492529905
 20
-0.4625305538
 10
1.6439371394
 20
-0.4635525669
 10
1.6386680948
 20
-0.4648639434
 10
1.6334923272
 20
-0.4664533031
 10
1.6284106577
 20
-0.4683230987
 10
1.6234222653
 20
-0.4704708776
 10
1.6185711578
 20
-0.4728779016
 10
1.6138586644
 20
-0.4755464104
 10
1.609283456
 20
-0.4784741643
 10
1.6048855522
 20
-0.4816357062
 10
1.6006663441
 20
-0.4850332401
 10
1.5966244407
 20
-0.4886645621
 10
1.5927956891
 20
-0.4924976028
 10
1.5891820282
 20
-0.4965342419
 10
1.585781519
 20
-0.5007725999
 10
1.5826241919
 20
-0.5051749682
 10
1.579712236
 20
-0.5097429529
 10
1.5770434622
 20
-0.5144749479
 10
1.5746413332
 20
-0.5193284278
 10
1.57251367
 20
-0.5242892171
 10
1.5706526515
 20
-0.5293714912
 10
1.5690582779
 20
-0.5345752501
  0
LWPOLYLINE
  5
310
100
AcDbEntity
  8
ASSI
100
AcDbPolyline
 62
250
  6
CONTINUOUS
 90
25
 70
0
 10
1.665434911
 20
-0.4612120751
 10
1.6599941312
 20
-0.4613622046
 10
1.6546001576
 20
-0.4618016975
 10
1.6492529905
 20
-0.4625305538
 10
1.6439371394
 20
-0.4635525669
 10
1.6386680948
 20
-0.4648639434
 10
1.6334923272
 20
-0.4664533031
 10
1.6284106577
 20
-0.4683230987
 10
1.6234222653
 20
-0.4704708776
 10
1.6185711578
 20
-0.4728779016
 10
1.6138586644
 20
-0.4755464104
 10
1.609283456
 20
-0.4784741643
 10
1.6048855522
 20
-0.4816357062
 10
1.6006663441
 20
-0.4850332401
 10
1.5966244407
 20
-0.4886645621
 10
1.5927956891
 20
-0.4924976028
 10
1.5891820282
 20
-0.4965342419
 10
1.585781519
 20
-0.5007725999
 10
1.5826241919
 20
-0.5051749682
 10
1.579712236
 20
-0.5097429529
 10
1.5770434622
 20
-0.5144749479
 10
1.5746413332
 20
-0.5193284278
 10
1.57251367
 20
-0.5242892171
 10
1.5706526515
 20
-0.5293714912
 10
1.5690582779
 20
-0.5345752501
  0
LWPOLYLINE
  5
311
100
AcDbEntity
  8
RACCORDO
100
AcDbPolyline
 62
250
  6
CONTINUOUS
 90
25
 70
0
 10
1.665434911
 20
-0.261080433
 10
1.6491817732
 20
-0.2615216578
 10
1.632976733
 20
-0.2628427471
 10
1.6168673833
 20
-0.2650397647
 10
1.6009013958
 20
-0.2681061209
 10
1.5851252781
 20
-0.2720327961
 10
1.5695842853
 20
-0.2768085644
 10
1.5543233301
 20
-0.2824198265
 10
1.5393880833
 20
-0.2888499956
 10
1.5248236749
 20
-0.2960796602
 10
1.5106734127
 20
-0.3040871576
 10
1.4969782146
 20
-0.3128491624
 10
1.483777762
 20
-0.3223402351
 10
1.4711107997
 20
-0.3325325296
 10
1.4590145662
 20
-0.3433960938
 10
1.4475242465
 20
-0.3548993911
 10
1.4366732562
 20
-0.3670091635
 10
1.4264939826
 20
-0.3796894729
 10
1.4170171485
 20
-0.3929020137
 10
1.408270711
 20
-0.4066075271
 10
1.4002799894
 20
-0.4207660336
 10
1.3930683537
 20
-0.4353358531
 10
1.3866568646
 20
-0.4502741289
 10
1.3810642187
 20
-0.4655369573
 10
1.3763067092
 20
-0.4810794817
  0
LWPOLYLINE
  5
312
100
AcDbEntity
  8
ASSI
100
AcDbPolyline
 62
250
  6
CONTINUOUS
 90
25
 70
0
 10
1.665434911
 20
-0.261080433
 10
1.6491817732
 20
-0.2615216578
 10
1.632976733
 20
-0.2628427471
 10
1.6168673833
 20
-0.2650397647
 10
1.6009013958
 20
-0.2681061209
 10
1.5851252781
 20
-0.2720327961
 10
1.5695842853
 20
-0.2768085644
 10
1.5543233301
 20
-0.2824198265
 10
1.5393880833
 20
-0.2888499956
 10
1.5248236749
 20
-0.2960796602
 10
1.5106734127
 20
-0.3040871576
 10
1.4969782146
 20
-0.3128491624
 10
1.483777762
 20
-0.3223402351
 10
1.4711107997
 20
-0.3325325296
 10
1.4590145662
 20
-0.3433960938
 10
1.4475242465
 20
-0.3548993911
 10
1.4366732562
 20
-0.3670091635
 10
1.4264939826
 20
-0.3796894729
 10
1.4170171485
 20
-0.3929020137
 10
1.408270711
 20
-0.4066075271
 10
1.4002799894
 20
-0.4207660336
 10
1.3930683537
 20
-0.4353358531
 10
1.3866568646
 20
-0.4502741289
 10
1.3810642187
 20
-0.4655369573
 10
1.3763067092
 20
-0.4810794817
  0
LWPOLYLINE
  5
313
100
AcDbEntity
  8
RACCORDO
100
AcDbPolyline
 62
250
  6
CONTINUOUS
 90
25
 70
0
 10
-1.573390923
 20
0.0349434602
 10
-1.5571377852
 20
0.0353846849
 10
-1.5409327449
 20
0.0367057743
 10
-1.5248233953
 20
0.0389027918
 10
-1.5088574077
 20
0.041969148
 10
-1.49308129
 20
0.0458958232
 10
-1.4775402972
 20
0.0506715916
 10
-1.462279342
 20
0.0562828537
 10
-1.4473440952
 20
0.0627130227
 10
-1.4327796868
 20
0.0699426873
 10
-1.4186294247
 20
0.0779501847
 10
-1.4049342266
 20
0.0867121896
 10
-1.3917337739
 20
0.0962032623
 10
-1.3790668117
 20
0.1063955567
 10
-1.3669705781
 20
0.117259121
 10
-1.3554802584
 20
0.1287624182
 10
-1.3446292681
 20
0.1408721906
 10
-1.3344499946
 20
0.1535525
 10
-1.3249731604
 20
0.1667650409
 10
-1.316226723
 20
0.1804705543
 10
-1.3082360014
 20
0.1946290608
 10
-1.3010243656
 20
0.2091988802
 10
-1.2946128765
 20
0.224137156
 10
-1.2890202306
 20
0.2393999845
 10
-1.2842627211
 20
0.2549425089
  0
LWPOLYLINE
  5
314
100
AcDbEntity
  8
ASSI
100
AcDbPolyline
 62
250
  6
CONTINUOUS
 90
25
 70
0
 10
-1.573390923
 20
0.0349434602
 10
-1.5571377852
 20
0.0353846849
 10
-1.5409327449
 20
0.0367057743
 10
-1.5248233953
 20
0.0389027918
 10
-1.5088574077
 20
0.041969148
 10
-1.49308129
 20
0.0458958232
 10
-1.4775402972
 20
0.0506715916
 10
-1.462279342
 20
0.0562828537
 10
-1.4473440952
 20
0.0627130227
 10
-1.4327796868
 20
0.0699426873
 10
-1.4186294247
 20
0.0779501847
 10
-1.4049342266
 20
0.0867121896
 10
-1.3917337739
 20
0.0962032623
 10
-1.3790668117
 20
0.1063955567
 10
-1.3669705781
 20
0.117259121
 10
-1.3554802584
 20
0.1287624182
 10
-1.3446292681
 20
0.1408721906
 10
-1.3344499946
 20
0.1535525
 10
-1.3249731604
 20
0.1667650409
 10
-1.316226723
 20
0.1804705543
 10
-1.3082360014
 20
0.1946290608
 10
-1.3010243656
 20
0.2091988802
 10
-1.2946128765
 20
0.224137156
 10
-1.2890202306
 20
0.2393999845
 10
-1.2842627211
 20
0.2549425089
  0
LINE
  5
315
100
AcDbEntity
  8
RACCORDO
100
AcDbLine
 62
250
  6
CONTINUOUS
 10
10.8891849224
 20
-0.2593058692
 11
10.8776612525
 21
-0.2595576915
  0
LINE
  5
316
100
AcDbEntity
  8
ASSI
100
AcDbLine
 62
250
  6
CONTINUOUS
 10
10.8891849224
 20
-0.2593058692
 11
10.8776612525
 21
-0.2595576915
  0
LINE
  5
317
100
AcDbEntity
  8
RACCORDO
100
AcDbLine
 62
250
  6
CONTINUOUS
 10
11.0926295895
 20
-0.4590660662
 11
11.0785117444
 21
-0.4593407408
  0
LINE
  5
318
100
AcDbEntity
  8
ASSI
100
AcDbLine
 62
250
  6
CONTINUOUS
 10
11.0926295895
 20
-0.4590660662
 11
11.0785117444
 21
-0.4593407408
  0
LINE
  5
319
100
AcDbEntity
  8
RACCORDO
100
AcDbLine
 62
250
  6
CONTINUOUS
 10
10.8776612525
 20
-0.2595576915
 11
10.8549585737
 21
-0.2599124462
  0
LINE
  5
31A
100
AcDbEntity
  8
ASSI
100
AcDbLine
 62
250
  6
CONTINUOUS
 10
10.8776612525
 20
-0.2595576915
 11
10.8549585737
 21
-0.2599124462
  0
LINE
  5
31B
100
AcDbEntity
  8
RACCORDO
100
AcDbLine
 62
250
  6
CONTINUOUS
 10
11.0785117444
 20
-0.4593407408
 11
11.047882359
 21
-0.4597340488
  0
LINE
  5
31C
100
AcDbEntity
  8
ASSI
100
AcDbLine
 62
250
  6
CONTINUOUS
 10
11.0785117444
 20
-0.4593407408
 11
11.047882359
 21
-0.4597340488
  0
LINE
  5
31D
100
AcDbEntity
  8
RACCORDO
100
AcDbLine
 62
250
  6
CONTINUOUS
 10
10.8549585737
 20
-0.2599124462
 11
10.8041043575
 21
-0.2604220933
  0
LINE
  5
31E
100
AcDbEntity
  8
ASSI
100
AcDbLine
 62
250
  6
CONTINUOUS
 10
10.8549585737
 20
-0.2599124462
 11
10.8041043575
 21
-0.2604220933
  0
LINE
  5
31F
100
AcDbEntity
  8
RACCORDO
100
AcDbLine
 62
250
  6
CONTINUOUS
 10
11.047882359
 20
-0.4597340488
 11
10.9556351102
 21
-0.4604195296
  0
LINE
  5
320
100
AcDbEntity
  8
ASSI
100
AcDbLine
 62
250
  6
CONTINUOUS
 10
11.047882359
 20
-0.4597340488
 11
10.9556351102
 21
-0.4604195296
  0
LINE
  5
321
100
AcDbEntity
  8
RACCORDO
100
AcDbLine
 62
250
  6
CONTINUOUS
 10
10.8041043575
 20
-0.2604220933
 11
10.6968645676
 21
-0.2609551759
  0
LINE
  5
322
100
AcDbEntity
  8
ASSI
100
AcDbLine
 62
250
  6
CONTINUOUS
 10
10.8041043575
 20
-0.2604220933
 11
10.6968645676
 21
-0.2609551759
  0
LINE
  5
323
100
AcDbEntity
  8
RACCORDO
100
AcDbLine
 62
250
  6
CONTINUOUS
 10
-10.7001469153
 20
0.0343725104
 11
-10.5899254787
 21
0.0348562158
  0
LINE
  5
324
100
AcDbEntity
  8
ASSI
100
AcDbLine
 62
250
  6
CONTINUOUS
 10
-10.7001469153
 20
0.0343725104
 11
-10.5899254787
 21
0.0348562158
  0
LINE
  5
325
100
AcDbEntity
  8
RACCORDO
100
AcDbLine
 62
250
  6
CONTINUOUS
 10
10.9556351102
 20
-0.4604195296
 11
10.7580112614
 21
-0.4610793345
  0
LINE
  5
326
100
AcDbEntity
  8
ASSI
100
AcDbLine
 62
250
  6
CONTINUOUS
 10
10.9556351102
 20
-0.4604195296
 11
10.7580112614
 21
-0.4610793345
  0
LINE
  5
327
100
AcDbEntity
  8
ASSI
100
AcDbLine
 62
250
  6
CONTINUOUS
 10
10.6968645676
 20
-0.2609551759
 11
10.6051816059
 21
-0.261080433
  0
LINE
  5
328
100
AcDbEntity
  8
ASSI
100
AcDbLine
 62
250
  6
CONTINUOUS
 10
-10.5899254787
 20
0.0348562158
 11
-10.5131376179
 21
0.0349434602
  0
LWPOLYLINE
  5
329
100
AcDbEntity
  8
0
100
AcDbPolyline
 62
7
  6
CONTINUOUS
 90
2
 70
0
 43
0.3500000006
 10
18.4704091988
 20
-1.0416393585
 10
16.970408741
 20
-1.0416393585
  0
LINE
  5
32A
100
AcDbEntity
  8
RACCORDO
100
AcDbLine
 62
250
  6
CONTINUOUS
 10
10.7580112614
 20
-0.4610793345
 11
1.665434911
 21
-0.4612120751
  0
LINE
  5
32B
100
AcDbEntity
  8
ASSI
100
AcDbLine
 62
250
  6
CONTINUOUS
 10
10.7580112614
 20
-0.4610793345
 11
1.665434911
 21
-0.4612120751
  0
LINE
  5
32C
100
AcDbEntity
  8
RACCORDO
100
AcDbLine
 62
250
  6
CONTINUOUS
 10
10.6968645676
 20
-0.2609551759
 11
1.665434911
 21
-0.261080433
  0
LINE
  5
32D
100
AcDbEntity
  8
ASSI
100
AcDbLine
 62
7
  6
CONTINUOUS
 10
10.6051816059
 20
-0.261080433
 11
1.665434911
 21
-0.261080433
  0
LINE
  5
32E
100
AcDbEntity
  8
ASSI
100
AcDbLine
 62
7
  6
CONTINUOUS
 10
-1.573390923
 20
-0.261080433
 11
-10.5131376179
 21
-0.261080433
  0
LINE
  5
32F
100
AcDbEntity
  8
0
100
AcDbLine
 62
7
  6
CONTINUOUS
 10
1.9155791905
 20
-0.2558301386
 11
1.6614349343
 21
-0.2558301386
  0
LINE
  5
330
100
AcDbEntity
  8
ASSI
100
AcDbLine
 62
7
  6
CONTINUOUS
 10
1.9155791905
 20
-0.2558301386
 11
1.6614349343
 21
-0.2558301386
  0
LINE
  5
331
100
AcDbEntity
  8
0
100
AcDbLine
 62
7
  6
CONTINUOUS
 10
-1.5693909462
 20
-0.2558301386
 11
-1.8235352024
 21
-0.2558301386
  0
LINE
  5
332
100
AcDbEntity
  8
ASSI
100
AcDbLine
 62
7
  6
CONTINUOUS
 10
-1.5693909462
 20
-0.2558301386
 11
-1.8235352024
 21
-0.2558301386
  0
LINE
  5
333
100
AcDbEntity
  8
DRAFT
100
AcDbLine
 62
7
  6
CONTINUOUS
 10
2.342363724
 20
-0.2427398369
 11
1.9690361527
 21
-0.2427398369
  0
LINE
  5
334
100
AcDbEntity
  8
ASSI
100
AcDbLine
 62
7
  6
CONTINUOUS
 10
2.342363724
 20
-0.2427398369
 11
1.9690361527
 21
-0.2427398369
  0
LINE
  5
335
100
AcDbEntity
  8
DRAFT
100
AcDbLine
 62
7
  6
CONTINUOUS
 10
-1.8769921647
 20
-0.2427398369
 11
-2.2503197359
 21
-0.2427398369
  0
LINE
  5
336
100
AcDbEntity
  8
ASSI
100
AcDbLine
 62
7
  6
CONTINUOUS
 10
-1.8769921647
 20
-0.2427398369
 11
-2.2503197359
 21
-0.2427398369
  0
LINE
  5
337
100
AcDbEntity
  8
DRAFT
100
AcDbLine
 62
7
  6
CONTINUOUS
 10
-9.7998673047
 20
-0.2401217766
 11
-2.2557105865
 21
-0.2401217766
  0
LINE
  5
338
100
AcDbEntity
  8
ASSI
100
AcDbLine
 62
7
  6
CONTINUOUS
 10
-9.7998673047
 20
-0.2401217766
 11
-2.2557105865
 21
-0.2401217766
  0
LINE
  5
339
100
AcDbEntity
  8
DRAFT
100
AcDbLine
 62
7
  6
CONTINUOUS
 10
2.3477545746
 20
-0.2401217766
 11
9.8919112928
 21
-0.2401217766
  0
LINE
  5
33A
100
AcDbEntity
  8
ASSI
100
AcDbLine
 62
7
  6
CONTINUOUS
 10
2.3477545746
 20
-0.2401217766
 11
9.8919112928
 21
-0.2401217766
  0
LINE
  5
33B
100
AcDbEntity
  8
RACCORDO
100
AcDbLine
 62
7
  6
CONTINUOUS
 10
-10.9039780048
 20
-0.2130684864
 11
-9.853978006
 21
-0.2130684864
  0
LINE
  5
33C
100
AcDbEntity
  8
ASSI
100
AcDbLine
 62
7
  6
CONTINUOUS
 10
-10.9039780048
 20
-0.2130684864
 11
-9.853978006
 21
-0.2130684864
  0
LINE
  5
33D
100
AcDbEntity
  8
RACCORDO
100
AcDbLine
 62
7
  6
CONTINUOUS
 10
9.946021994
 20
-0.2130684864
 11
10.9960219929
 21
-0.2130684864
  0
LINE
  5
33E
100
AcDbEntity
  8
ASSI
100
AcDbLine
 62
7
  6
CONTINUOUS
 10
9.946021994
 20
-0.2130684864
 11
10.9960219929
 21
-0.2130684864
  0
LINE
  5
33F
100
AcDbEntity
  8
RACCORDO
100
AcDbLine
 62
7
  6
CONTINUOUS
 10
10.9960219929
 20
-0.0130684864
 11
9.946021994
 21
-0.0130684864
  0
LINE
  5
340
100
AcDbEntity
  8
ASSI
100
AcDbLine
 62
7
  6
CONTINUOUS
 10
10.9960219929
 20
-0.0130684864
 11
9.946021994
 21
-0.0130684864
  0
LINE
  5
341
100
AcDbEntity
  8
RACCORDO
100
AcDbLine
 62
7
  6
CONTINUOUS
 10
-9.853978006
 20
-0.0130684864
 11
-10.9039780048
 21
-0.0130684864
  0
LINE
  5
342
100
AcDbEntity
  8
ASSI
100
AcDbLine
 62
7
  6
CONTINUOUS
 10
-9.853978006
 20
-0.0130684864
 11
-10.9039780048
 21
-0.0130684864
  0
LINE
  5
343
100
AcDbEntity
  8
DRAFT
100
AcDbLine
 62
7
  6
CONTINUOUS
 10
9.8919112928
 20
0.0139848037
 11
2.3477545746
 21
0.0139848037
  0
LINE
  5
344
100
AcDbEntity
  8
ASSI
100
AcDbLine
 62
7
  6
CONTINUOUS
 10
9.8919112928
 20
0.0139848037
 11
2.3477545746
 21
0.0139848037
  0
LINE
  5
345
100
AcDbEntity
  8
DRAFT
100
AcDbLine
 62
7
  6
CONTINUOUS
 10
-2.2557105865
 20
0.0139848037
 11
-9.7998673047
 21
0.0139848037
  0
LINE
  5
346
100
AcDbEntity
  8
ASSI
100
AcDbLine
 62
7
  6
CONTINUOUS
 10
-2.2557105865
 20
0.0139848037
 11
-9.7998673047
 21
0.0139848037
  0
LINE
  5
347
100
AcDbEntity
  8
DRAFT
100
AcDbLine
 62
7
  6
CONTINUOUS
 10
-2.2503197359
 20
0.0166028641
 11
-1.8769921647
 21
0.0166028641
  0
LINE
  5
348
100
AcDbEntity
  8
ASSI
100
AcDbLine
 62
7
  6
CONTINUOUS
 10
-2.2503197359
 20
0.0166028641
 11
-1.8769921647
 21
0.0166028641
  0
LINE
  5
349
100
AcDbEntity
  8
DRAFT
100
AcDbLine
 62
7
  6
CONTINUOUS
 10
1.9690361527
 20
0.0166028641
 11
2.342363724
 21
0.0166028641
  0
LINE
  5
34A
100
AcDbEntity
  8
ASSI
100
AcDbLine
 62
7
  6
CONTINUOUS
 10
1.9690361527
 20
0.0166028641
 11
2.342363724
 21
0.0166028641
  0
LINE
  5
34B
100
AcDbEntity
  8
ASSI
100
AcDbLine
 62
7
  6
CONTINUOUS
 10
-1.8235352024
 20
0.0296931657
 11
-1.5693909462
 21
0.0296931657
  0
LINE
  5
34C
100
AcDbEntity
  8
0
100
AcDbLine
 62
7
  6
CONTINUOUS
 10
-1.8235352024
 20
0.0296931657
 11
-1.5693909462
 21
0.0296931657
  0
LINE
  5
34D
100
AcDbEntity
  8
0
100
AcDbLine
 62
7
  6
CONTINUOUS
 10
1.6614349343
 20
0.0296931657
 11
1.9155791905
 21
0.0296931657
  0
LINE
  5
34E
100
AcDbEntity
  8
ASSI
100
AcDbLine
 62
7
  6
CONTINUOUS
 10
1.6614349343
 20
0.0296931657
 11
1.9155791905
 21
0.0296931657
  0
LINE
  5
34F
100
AcDbEntity
  8
RACCORDO
100
AcDbLine
 62
250
  6
CONTINUOUS
 10
-10.5899254787
 20
0.0348562158
 11
-1.573390923
 21
0.0349434602
  0
LINE
  5
350
100
AcDbEntity
  8
ASSI
100
AcDbLine
 62
7
  6
CONTINUOUS
 10
-10.5131376179
 20
0.0349434602
 11
-1.573390923
 21
0.0349434602
  0
LINE
  5
351
100
AcDbEntity
  8
ASSI
100
AcDbLine
 62
7
  6
CONTINUOUS
 10
1.665434911
 20
0.0349434602
 11
10.6051816059
 21
0.0349434602
  0
LINE
  5
352
100
AcDbEntity
  8
RACCORDO
100
AcDbLine
 62
250
  6
CONTINUOUS
 10
-1.573390923
 20
-0.4612120751
 11
-10.7377872444
 21
-0.4609169186
  0
LINE
  5
353
100
AcDbEntity
  8
ASSI
100
AcDbLine
 62
250
  6
CONTINUOUS
 10
-1.573390923
 20
-0.4612120751
 11
-10.7377872444
 21
-0.4609169186
  0
LINE
  5
354
100
AcDbEntity
  8
RACCORDO
100
AcDbLine
 62
250
  6
CONTINUOUS
 10
-1.573390923
 20
-0.261080433
 11
-10.6479170359
 21
-0.2608013458
  0
LINE
  5
355
100
AcDbEntity
  8
ASSI
100
AcDbLine
 62
250
  6
CONTINUOUS
 10
-10.5131376179
 20
-0.261080433
 11
-10.6479170359
 21
-0.2608013458
  0
LINE
  5
356
100
AcDbEntity
  8
RACCORDO
100
AcDbLine
 62
250
  6
CONTINUOUS
 10
1.665434911
 20
0.0349434602
 11
10.739961024
 21
0.034664373
  0
LINE
  5
357
100
AcDbEntity
  8
ASSI
100
AcDbLine
 62
250
  6
CONTINUOUS
 10
10.6051816059
 20
0.0349434602
 11
10.739961024
 21
0.034664373
  0
LINE
  5
358
100
AcDbEntity
  8
RACCORDO
100
AcDbLine
 62
250
  6
CONTINUOUS
 10
10.739961024
 20
0.034664373
 11
10.7921909027
 21
0.0343725104
  0
LINE
  5
359
100
AcDbEntity
  8
ASSI
100
AcDbLine
 62
250
  6
CONTINUOUS
 10
10.739961024
 20
0.034664373
 11
10.7921909027
 21
0.0343725104
  0
LINE
  5
35A
100
AcDbEntity
  8
RACCORDO
100
AcDbLine
 62
250
  6
CONTINUOUS
 10
-10.7377872444
 20
-0.4609169186
 11
-10.9145489031
 21
-0.4600965415
  0
LINE
  5
35B
100
AcDbEntity
  8
ASSI
100
AcDbLine
 62
250
  6
CONTINUOUS
 10
-10.7377872444
 20
-0.4609169186
 11
-10.9145489031
 21
-0.4600965415
  0
LINE
  5
35C
100
AcDbEntity
  8
RACCORDO
100
AcDbLine
 62
250
  6
CONTINUOUS
 10
-10.6479170359
 20
-0.2608013458
 11
-10.7341939598
 21
-0.2602322789
  0
LINE
  5
35D
100
AcDbEntity
  8
ASSI
100
AcDbLine
 62
250
  6
CONTINUOUS
 10
-10.6479170359
 20
-0.2608013458
 11
-10.7341939598
 21
-0.2602322789
  0
LINE
  5
35E
100
AcDbEntity
  8
RACCORDO
100
AcDbLine
 62
250
  6
CONTINUOUS
 10
-10.9145489031
 20
-0.4600965415
 11
-10.9672749433
 21
-0.4596059993
  0
LINE
  5
35F
100
AcDbEntity
  8
ASSI
100
AcDbLine
 62
250
  6
CONTINUOUS
 10
-10.9145489031
 20
-0.4600965415
 11
-10.9672749433
 21
-0.4596059993
  0
LINE
  5
360
100
AcDbEntity
  8
RACCORDO
100
AcDbLine
 62
250
  6
CONTINUOUS
 10
-10.7341939598
 20
-0.2602322789
 11
-10.7711949372
 21
-0.2597974623
  0
LINE
  5
361
100
AcDbEntity
  8
ASSI
100
AcDbLine
 62
250
  6
CONTINUOUS
 10
-10.7341939598
 20
-0.2602322789
 11
-10.7711949372
 21
-0.2597974623
  0
LINE
  5
362
100
AcDbEntity
  8
RACCORDO
100
AcDbLine
 62
250
  6
CONTINUOUS
 10
-10.9672749433
 20
-0.4596059993
 11
-10.986467756
 21
-0.4593407408
  0
LINE
  5
363
100
AcDbEntity
  8
ASSI
100
AcDbLine
 62
250
  6
CONTINUOUS
 10
-10.9672749433
 20
-0.4596059993
 11
-10.986467756
 21
-0.4593407408
  0
LINE
  5
364
100
AcDbEntity
  8
RACCORDO
100
AcDbLine
 62
250
  6
CONTINUOUS
 10
-10.7711949372
 20
-0.2597974623
 11
-10.7856172641
 21
-0.2595576915
  0
LINE
  5
365
100
AcDbEntity
  8
ASSI
100
AcDbLine
 62
250
  6
CONTINUOUS
 10
-10.7711949372
 20
-0.2597974623
 11
-10.7856172641
 21
-0.2595576915
  0
LWPOLYLINE
  5
366
100
AcDbEntity
  8
RACCORDO
100
AcDbPolyline
 62
250
  6
CONTINUOUS
 90
6
 70
0
 10
-10.986467756
 20
-0.4593407408
 10
-11.0005856011
 20
-0.4590660662
 10
-11.0056938665
 20
-0.4589262606
 10
-11.0094824532
 20
-0.4587855017
 10
-11.0119406895
 20
-0.458643523
 10
-11.0130617266
 20
-0.4585003725
  0
LWPOLYLINE
  5
367
100
AcDbEntity
  8
ASSI
100
AcDbPolyline
 62
250
  6
CONTINUOUS
 90
6
 70
0
 10
-10.986467756
 20
-0.4593407408
 10
-11.0005856011
 20
-0.4590660662
 10
-11.0056938665
 20
-0.4589262606
 10
-11.0094824532
 20
-0.4587855017
 10
-11.0119406895
 20
-0.458643523
 10
-11.0130617266
 20
-0.4585003725
  0
LWPOLYLINE
  5
368
100
AcDbEntity
  8
RACCORDO
100
AcDbPolyline
 62
250
  6
CONTINUOUS
 90
8
 70
0
 10
-10.7856172641
 20
-0.2595576915
 10
-10.7971409341
 20
-0.2593058692
 10
-10.8017560716
 20
-0.2591765655
 10
-10.8056109294
 20
-0.2590450134
 10
-10.8086749924
 20
-0.2589122818
 10
-10.810938089
 20
-0.258778727
 10
-10.8124103908
 20
-0.2586439928
 10
-10.8130918978
 20
-0.2585080791
  0
LWPOLYLINE
  5
369
100
AcDbEntity
  8
ASSI
100
AcDbPolyline
 62
250
  6
CONTINUOUS
 90
8
 70
0
 10
-10.7856172641
 20
-0.2595576915
 10
-10.7971409341
 20
-0.2593058692
 10
-10.8017560716
 20
-0.2591765655
 10
-10.8056109294
 20
-0.2590450134
 10
-10.8086749924
 20
-0.2589122818
 10
-10.810938089
 20
-0.258778727
 10
-10.8124103908
 20
-0.2586439928
 10
-10.8130918978
 20
-0.2585080791
  0
LWPOLYLINE
  5
36A
100
AcDbEntity
  8
0
100
AcDbPolyline
 62
7
  6
CONTINUOUS
 90
3
 70
0
 10
-1.5693909462
 20
-0.2558301386
 10
-1.5531338221
 20
-0.256267139
 10
-1.5369820179
 20
-0.257580167
  0
LWPOLYLINE
  5
36B
100
AcDbEntity
  8
ASSI
100
AcDbPolyline
 62
7
  6
CONTINUOUS
 90
3
 70
0
 10
-1.5693909462
 20
-0.2558301386
 10
-1.5531338221
 20
-0.256267139
 10
-1.5369820179
 20
-0.257580167
  0
LWPOLYLINE
  5
36C
100
AcDbEntity
  8
0
100
AcDbPolyline
 62
7
  6
CONTINUOUS
 90
3
 70
0
 10
1.6614349343
 20
0.0296931657
 10
1.6451778102
 20
0.0301301661
 10
1.629026006
 20
0.0314431941
  0
LWPOLYLINE
  5
36D
100
AcDbEntity
  8
ASSI
100
AcDbPolyline
 62
7
  6
CONTINUOUS
 90
3
 70
0
 10
1.6614349343
 20
0.0296931657
 10
1.6451778102
 20
0.0301301661
 10
1.629026006
 20
0.0314431941
  0
LWPOLYLINE
  5
36E
100
AcDbEntity
  8
0
100
AcDbPolyline
 62
7
  6
CONTINUOUS
 90
23
 70
0
 10
-1.5369820179
 20
-0.257580167
 10
-1.5209355337
 20
-0.2597692225
 10
-1.5049257233
 20
-0.2628507894
 10
-1.4890212329
 20
-0.2668083839
 10
-1.4734280006
 20
-0.2715925546
 10
-1.4581915854
 20
-0.2771960455
 10
-1.4432664284
 20
-0.2836261126
 10
-1.4287217899
 20
-0.2908550717
 10
-1.4145275979
 20
-0.2989040038
 10
-1.4007139244
 20
-0.3077518278
 10
-1.3874402462
 20
-0.3173076167
 10
-1.3747164152
 20
-0.3275843242
 10
-1.3625325793
 20
-0.3385689966
 10
-1.35101866
 20
-0.3501318451
 10
-1.3402026295
 20
-0.3622501353
 10
-1.3300565155
 20
-0.3749466016
 10
-1.3206263226
 20
-0.3881596583
 10
-1.3118940234
 20
-0.401929539
 10
-1.3038776454
 20
-0.4162160099
 10
-1.2966772753
 20
-0.4308367848
 10
-1.2903262753
 20
-0.4457311012
 10
-1.2847912832
 20
-0.4609597215
 10
-1.280072299
 20
-0.4765226457
  0
LWPOLYLINE
  5
36F
100
AcDbEntity
  8
ASSI
100
AcDbPolyline
 62
7
  6
CONTINUOUS
 90
23
 70
0
 10
-1.5369820179
 20
-0.257580167
 10
-1.5209355337
 20
-0.2597692225
 10
-1.5049257233
 20
-0.2628507894
 10
-1.4890212329
 20
-0.2668083839
 10
-1.4734280006
 20
-0.2715925546
 10
-1.4581915854
 20
-0.2771960455
 10
-1.4432664284
 20
-0.2836261126
 10
-1.4287217899
 20
-0.2908550717
 10
-1.4145275979
 20
-0.2989040038
 10
-1.4007139244
 20
-0.3077518278
 10
-1.3874402462
 20
-0.3173076167
 10
-1.3747164152
 20
-0.3275843242
 10
-1.3625325793
 20
-0.3385689966
 10
-1.35101866
 20
-0.3501318451
 10
-1.3402026295
 20
-0.3622501353
 10
-1.3300565155
 20
-0.3749466016
 10
-1.3206263226
 20
-0.3881596583
 10
-1.3118940234
 20
-0.401929539
 10
-1.3038776454
 20
-0.4162160099
 10
-1.2966772753
 20
-0.4308367848
 10
-1.2903262753
 20
-0.4457311012
 10
-1.2847912832
 20
-0.4609597215
 10
-1.280072299
 20
-0.4765226457
  0
LINE
  5
370
100
AcDbEntity
  8
DRAFT
100
AcDbLine
 62
7
  6
CONTINUOUS
 10
-1.8235352024
 20
-0.2558301386
 11
-1.8769921647
 21
-0.2427398369
  0
LINE
  5
371
100
AcDbEntity
  8
ASSI
100
AcDbLine
 62
7
  6
CONTINUOUS
 10
-1.8235352024
 20
-0.2558301386
 11
-1.8769921647
 21
-0.2427398369
  0
LWPOLYLINE
  5
372
100
AcDbEntity
  8
RACCORDO
100
AcDbPolyline
 62
250
  6
CONTINUOUS
 90
4
 70
0
 10
-1.4770142899
 20
0.3084382772
 10
-1.2866340129
 20
0.2556271941
 10
-1.2849163479
 20
0.2551395504
 10
-1.2842613808
 20
0.2549458259
  0
LWPOLYLINE
  5
373
100
AcDbEntity
  8
ASSI
100
AcDbPolyline
 62
250
  6
CONTINUOUS
 90
4
 70
0
 10
-1.4770142899
 20
0.3084382772
 10
-1.2866340129
 20
0.2556271941
 10
-1.2849163479
 20
0.2551395504
 10
-1.2842613808
 20
0.2549458259
  0
LWPOLYLINE
  5
374
100
AcDbEntity
  8
RACCORDO
100
AcDbPolyline
 62
250
  6
CONTINUOUS
 90
4
 70
0
 10
1.5690582779
 20
-0.53457525
 10
1.378678001
 20
-0.481764167
 10
1.376960336
 20
-0.4812765233
 10
1.3763053689
 20
-0.4810827988
  0
LWPOLYLINE
  5
375
100
AcDbEntity
  8
ASSI
100
AcDbPolyline
 62
250
  6
CONTINUOUS
 90
4
 70
0
 10
1.5690582779
 20
-0.53457525
 10
1.378678001
 20
-0.481764167
 10
1.376960336
 20
-0.4812765233
 10
1.3763053689
 20
-0.4810827988
  0
LINE
  5
376
100
AcDbEntity
  8
DRAFT
100
AcDbLine
 62
7
  6
CONTINUOUS
 10
-2.2503197359
 20
-0.2427398369
 11
-2.2557105865
 21
-0.2401217766
  0
LINE
  5
377
100
AcDbEntity
  8
ASSI
100
AcDbLine
 62
7
  6
CONTINUOUS
 10
-2.2503197359
 20
-0.2427398369
 11
-2.2557105865
 21
-0.2401217766
  0
LINE
  5
378
100
AcDbEntity
  8
RACCORDO
100
AcDbLine
 62
250
  6
CONTINUOUS
 10
-1.284262721
 20
0.2549425088
 11
-1.280072299
 21
0.2503856728
  0
LINE
  5
379
100
AcDbEntity
  8
ASSI
100
AcDbLine
 62
250
  6
CONTINUOUS
 10
-1.284262721
 20
0.2549425088
 11
-1.280072299
 21
0.2503856728
  0
LWPOLYLINE
  5
37A
100
AcDbEntity
  8
RACCORDO
100
AcDbPolyline
 62
250
  6
CONTINUOUS
 90
25
 70
0
 10
-1.2842627999
 20
-0.481079197
 10
-1.2890202829
 20
-0.4655368018
 10
-1.2946129007
 20
-0.450274068
 10
-1.3010243655
 20
-0.4353358533
 10
-1.308235991
 20
-0.4207660531
 10
-1.3162267173
 20
-0.4066075366
 10
-1.3249731603
 20
-0.3929020138
 10
-1.3344499945
 20
-0.3796894729
 10
-1.3446292681
 20
-0.3670091635
 10
-1.3554802583
 20
-0.3548993911
 10
-1.3669705781
 20
-0.3433960939
 10
-1.3790668116
 20
-0.3325325296
 10
-1.3917337739
 20
-0.3223402352
 10
-1.4049342265
 20
-0.3128491625
 10
-1.4186294246
 20
-0.3040871576
 10
-1.4327796867
 20
-0.2960796602
 10
-1.4473440952
 20
-0.2888499956
 10
-1.462279342
 20
-0.2824198265
 10
-1.4775402972
 20
-0.2768085644
 10
-1.49308129
 20
-0.2720327961
 10
-1.5088574076
 20
-0.2681061209
 10
-1.5248233951
 20
-0.2650397647
 10
-1.5409327448
 20
-0.2628427471
 10
-1.5571377851
 20
-0.2615216578
 10
-1.573390923
 20
-0.261080433
  0
LWPOLYLINE
  5
37B
100
AcDbEntity
  8
ASSI
100
AcDbPolyline
 62
250
  6
CONTINUOUS
 90
25
 70
0
 10
-1.2842627999
 20
-0.481079197
 10
-1.2890202829
 20
-0.4655368018
 10
-1.2946129007
 20
-0.450274068
 10
-1.3010243655
 20
-0.4353358533
 10
-1.308235991
 20
-0.4207660531
 10
-1.3162267173
 20
-0.4066075366
 10
-1.3249731603
 20
-0.3929020138
 10
-1.3344499945
 20
-0.3796894729
 10
-1.3446292681
 20
-0.3670091635
 10
-1.3554802583
 20
-0.3548993911
 10
-1.3669705781
 20
-0.3433960939
 10
-1.3790668116
 20
-0.3325325296
 10
-1.3917337739
 20
-0.3223402352
 10
-1.4049342265
 20
-0.3128491625
 10
-1.4186294246
 20
-0.3040871576
 10
-1.4327796867
 20
-0.2960796602
 10
-1.4473440952
 20
-0.2888499956
 10
-1.462279342
 20
-0.2824198265
 10
-1.4775402972
 20
-0.2768085644
 10
-1.49308129
 20
-0.2720327961
 10
-1.5088574076
 20
-0.2681061209
 10
-1.5248233951
 20
-0.2650397647
 10
-1.5409327448
 20
-0.2628427471
 10
-1.5571377851
 20
-0.2615216578
 10
-1.573390923
 20
-0.261080433
  0
LINE
  5
37C
100
AcDbEntity
  8
RACCORDO
100
AcDbLine
 62
250
  6
CONTINUOUS
 10
1.665434911
 20
0.2350751022
 11
1.665434911
 21
0.0349434602
  0
LINE
  5
37D
100
AcDbEntity
  8
ASSI
100
AcDbLine
 62
250
  6
CONTINUOUS
 10
1.665434911
 20
0.2350751022
 11
1.665434911
 21
0.0349434602
  0
LINE
  5
37E
100
AcDbEntity
  8
RACCORDO
100
AcDbLine
 62
250
  6
CONTINUOUS
 10
1.665434911
 20
-0.4612120751
 11
1.6654349111
 21
-0.261080433
  0
LINE
  5
37F
100
AcDbEntity
  8
ASSI
100
AcDbLine
 62
250
  6
CONTINUOUS
 10
1.665434911
 20
-0.4612120751
 11
1.6654349111
 21
-0.261080433
  0
LWPOLYLINE
  5
380
100
AcDbEntity
  8
RACCORDO
100
AcDbPolyline
 62
250
  6
CONTINUOUS
 90
64
 70
0
 10
1.5690582779
 20
-0.5345752501
 10
1.5507317099
 20
-0.596119529
 10
1.5298585518
 20
-0.6569007109
 10
1.5064388036
 20
-0.7169187952
 10
1.4804295724
 20
-0.7763200979
 10
1.4518737511
 20
-0.834958302
 10
1.4209000183
 20
-0.8923944567
 10
1.387476951
 20
-0.9486159267
 10
1.3516359721
 20
-1.0036353473
 10
1.3136000289
 20
-1.0570516746
 10
1.2733473843
 20
-1.1088402145
 10
1.2308997752
 20
-1.159025662
 10
1.1865453608
 20
-1.2072810573
 10
1.1402990063
 20
-1.2535620447
 10
1.0921458464
 20
-1.2979129815
 10
1.0423294435
 20
-1.340139978
 10
0.9908574607
 20
-1.3802287539
 10
0.9377222349
 20
-1.4181935915
 10
0.8831443395
 20
-1.4538834449
 10
0.82710248
 20
-1.4873024387
 10
0.7696179509
 20
-1.5184464505
 10
0.7109752098
 20
-1.5471520633
 10
0.6511566342
 20
-1.5734101433
 10
0.5901798465
 20
-1.5972298265
 10
0.5283821725
 20
-1.6184751006
 10
0.4657654035
 20
-1.6371277451
 10
0.4023277481
 20
-1.6532059823
 10
0.3384011573
 20
-1.6666284635
 10
0.2739875735
 20
-1.6773806858
 10
0.2090850542
 20
-1.6854771533
 10
0.1440197238
 20
-1.690880028
 10
0.0787917118
 20
-1.6935766793
 10
0.0134008887
 20
-1.6935797381
 10
-0.05182701
 20
-1.6908892582
 10
-0.1168920013
 20
-1.6854926427
 10
-0.1817940681
 20
-1.6774024881
 10
-0.2462074237
 20
-1.6666566381
 10
-0.3101339077
 20
-1.6532406942
 10
-0.3735716805
 20
-1.6371690538
 10
-0.4361894362
 20
-1.6185227546
 10
-0.4979892385
 20
-1.5972835417
 10
-0.5589690238
 20
-1.5734696682
 10
-0.6187912952
 20
-1.5472169341
 10
-0.67743888
 20
-1.5185158255
 10
-0.7349289509
 20
-1.4873758542
 10
-0.7909755293
 20
-1.4539613588
 10
-0.8455569198
 20
-1.4182764591
 10
-0.8986948178
 20
-1.3803170331
 10
-0.9501683306
 20
-1.3402350568
 10
-0.9999842343
 20
-1.2980171945
 10
-1.0481357528
 20
-1.2536767799
 10
-1.0943816649
 20
-1.2074057936
 10
-1.1387371091
 20
-1.1591603961
 10
-1.1811869468
 20
-1.1089844254
 10
-1.2214445417
 20
-1.0572013781
 10
-1.2594891463
 20
-1.0037857109
 10
-1.2953415082
 20
-0.9487629664
 10
-1.3287772335
 20
-0.8925332698
 10
-1.3597651963
 20
-0.8350831115
 10
-1.3883365227
 20
-0.7764260014
 10
-1.4143601968
 20
-0.7170025942
 10
-1.4377925467
 20
-0.6569597753
 10
-1.4586772444
 20
-0.5961506604
 10
-1.4770142899
 20
-0.5345752501
  0
LWPOLYLINE
  5
381
100
AcDbEntity
  8
ASSI
100
AcDbPolyline
 62
250
  6
CONTINUOUS
 90
64
 70
0
 10
1.5690582779
 20
-0.5345752501
 10
1.5507317099
 20
-0.596119529
 10
1.5298585518
 20
-0.6569007109
 10
1.5064388036
 20
-0.7169187952
 10
1.4804295724
 20
-0.7763200979
 10
1.4518737511
 20
-0.834958302
 10
1.4209000183
 20
-0.8923944567
 10
1.387476951
 20
-0.9486159267
 10
1.3516359721
 20
-1.0036353473
 10
1.3136000289
 20
-1.0570516746
 10
1.2733473843
 20
-1.1088402145
 10
1.2308997752
 20
-1.159025662
 10
1.1865453608
 20
-1.2072810573
 10
1.1402990063
 20
-1.2535620447
 10
1.0921458464
 20
-1.2979129815
 10
1.0423294435
 20
-1.340139978
 10
0.9908574607
 20
-1.3802287539
 10
0.9377222349
 20
-1.4181935915
 10
0.8831443395
 20
-1.4538834449
 10
0.82710248
 20
-1.4873024387
 10
0.7696179509
 20
-1.5184464505
 10
0.7109752098
 20
-1.5471520633
 10
0.6511566342
 20
-1.5734101433
 10
0.5901798465
 20
-1.5972298265
 10
0.5283821725
 20
-1.6184751006
 10
0.4657654035
 20
-1.6371277451
 10
0.4023277481
 20
-1.6532059823
 10
0.3384011573
 20
-1.6666284635
 10
0.2739875735
 20
-1.6773806858
 10
0.2090850542
 20
-1.6854771533
 10
0.1440197238
 20
-1.690880028
 10
0.0787917118
 20
-1.6935766793
 10
0.0134008887
 20
-1.6935797381
 10
-0.05182701
 20
-1.6908892582
 10
-0.1168920013
 20
-1.6854926427
 10
-0.1817940681
 20
-1.6774024881
 10
-0.2462074237
 20
-1.6666566381
 10
-0.3101339077
 20
-1.6532406942
 10
-0.3735716805
 20
-1.6371690538
 10
-0.4361894362
 20
-1.6185227546
 10
-0.4979892385
 20
-1.5972835417
 10
-0.5589690238
 20
-1.5734696682
 10
-0.6187912952
 20
-1.5472169341
 10
-0.67743888
 20
-1.5185158255
 10
-0.7349289509
 20
-1.4873758542
 10
-0.7909755293
 20
-1.4539613588
 10
-0.8455569198
 20
-1.4182764591
 10
-0.8986948178
 20
-1.3803170331
 10
-0.9501683306
 20
-1.3402350568
 10
-0.9999842343
 20
-1.2980171945
 10
-1.0481357528
 20
-1.2536767799
 10
-1.0943816649
 20
-1.2074057936
 10
-1.1387371091
 20
-1.1591603961
 10
-1.1811869468
 20
-1.1089844254
 10
-1.2214445417
 20
-1.0572013781
 10
-1.2594891463
 20
-1.0037857109
 10
-1.2953415082
 20
-0.9487629664
 10
-1.3287772335
 20
-0.8925332698
 10
-1.3597651963
 20
-0.8350831115
 10
-1.3883365227
 20
-0.7764260014
 10
-1.4143601968
 20
-0.7170025942
 10
-1.4377925467
 20
-0.6569597753
 10
-1.4586772444
 20
-0.5961506604
 10
-1.4770142899
 20
-0.5345752501
  0
LWPOLYLINE
  5
382
100
AcDbEntity
  8
RACCORDO
100
AcDbPolyline
 62
250
  6
CONTINUOUS
 90
64
 70
0
 10
1.3763067091
 20
-0.4810794816
 10
1.3603069081
 20
-0.5346646537
 10
1.3420698908
 20
-0.5877752505
 10
1.3215991164
 20
-0.640314176
 10
1.2988879337
 20
-0.6922145278
 10
1.273960272
 20
-0.7433452701
 10
1.2468834183
 20
-0.7935176079
 10
1.2176888242
 20
-0.8426394714
 10
1.1864133803
 20
-0.8906173111
 10
1.1531612501
 20
-0.9372741658
 10
1.1179918058
 20
-0.9825227067
 10
1.0809596339
 20
-1.0262889003
 10
1.0421861539
 20
-1.0684333003
 10
1.0017699992
 20
-1.1088637593
 10
0.959762247
 20
-1.1475435866
 10
0.9162230245
 20
-1.1844263637
 10
0.8712398204
 20
-1.2194457595
 10
0.8248834616
 20
-1.2525541538
 10
0.7771863142
 20
-1.2837303669
 10
0.7282131394
 20
-1.3129282957
 10
0.6780610752
 20
-1.3400863466
 10
0.6268099277
 20
-1.3651585971
 10
0.5745366079
 20
-1.3881036805
 10
0.5213385436
 20
-1.4088751565
 10
0.4673299921
 20
-1.4274271862
 10
0.4126097612
 20
-1.4437266967
 10
0.3572655403
 20
-1.4577484217
 10
0.3013980343
 20
-1.4694676725
 10
0.2451068289
 20
-1.4788649932
 10
0.188484611
 20
-1.4859263299
 10
0.131622812
 20
-1.4906411143
 10
0.0746193166
 20
-1.4930017584
 10
0.0175708527
 20
-1.4930047799
 10
-0.0394326532
 20
-1.4906501891
 10
-0.0962943948
 20
-1.4859414958
 10
-0.1529165728
 20
-1.4788863052
 10
-0.2092080008
 20
-1.4694951602
 10
-0.265075891
 20
-1.4577821274
 10
-0.3204207651
 20
-1.4437666357
 10
-0.3751424535
 20
-1.4274731901
 10
-0.4291534423
 20
-1.4089269081
 10
-0.4823546935
 20
-1.3881608417
 10
-0.5346318536
 20
-1.3652207829
 10
-0.5858879001
 20
-1.3401528803
 10
-0.6360454196
 20
-1.3129986338
 10
-0.6850232363
 20
-1.2838047364
 10
-0.7327240353
 20
-1.2526330471
 10
-0.7790833619
 20
-1.2195296367
 10
-0.8240683631
 20
-1.1845162448
 10
-0.867607521
 20
-1.1476413865
 10
-0.9096143932
 20
-1.108970873
 10
-0.9500308264
 20
-1.0685493773
 10
-0.9888055663
 20
-1.0264136325
 10
-1.02584005
 20
-0.982655555
 10
-1.0610146723
 20
-0.9374119503
 10
-1.0942750269
 20
-0.8907556896
 10
-1.1255606674
 20
-0.8427746218
 10
-1.1547670168
 20
-0.7936453838
 10
-1.1818569372
 20
-0.7434608755
 10
-1.2067982234
 20
-0.6923134252
 10
-1.2295225435
 20
-0.6403929998
 10
-1.2500054605
 20
-0.5878310563
 10
-1.2682534803
 20
-0.534694079
 10
-1.2842627998
 20
-0.4810791968
  0
LWPOLYLINE
  5
383
100
AcDbEntity
  8
ASSI
100
AcDbPolyline
 62
250
  6
CONTINUOUS
 90
64
 70
0
 10
1.3763067091
 20
-0.4810794816
 10
1.3603069081
 20
-0.5346646537
 10
1.3420698908
 20
-0.5877752505
 10
1.3215991164
 20
-0.640314176
 10
1.2988879337
 20
-0.6922145278
 10
1.273960272
 20
-0.7433452701
 10
1.2468834183
 20
-0.7935176079
 10
1.2176888242
 20
-0.8426394714
 10
1.1864133803
 20
-0.8906173111
 10
1.1531612501
 20
-0.9372741658
 10
1.1179918058
 20
-0.9825227067
 10
1.0809596339
 20
-1.0262889003
 10
1.0421861539
 20
-1.0684333003
 10
1.0017699992
 20
-1.1088637593
 10
0.959762247
 20
-1.1475435866
 10
0.9162230245
 20
-1.1844263637
 10
0.8712398204
 20
-1.2194457595
 10
0.8248834616
 20
-1.2525541538
 10
0.7771863142
 20
-1.2837303669
 10
0.7282131394
 20
-1.3129282957
 10
0.6780610752
 20
-1.3400863466
 10
0.6268099277
 20
-1.3651585971
 10
0.5745366079
 20
-1.3881036805
 10
0.5213385436
 20
-1.4088751565
 10
0.4673299921
 20
-1.4274271862
 10
0.4126097612
 20
-1.4437266967
 10
0.3572655403
 20
-1.4577484217
 10
0.3013980343
 20
-1.4694676725
 10
0.2451068289
 20
-1.4788649932
 10
0.188484611
 20
-1.4859263299
 10
0.131622812
 20
-1.4906411143
 10
0.0746193166
 20
-1.4930017584
 10
0.0175708527
 20
-1.4930047799
 10
-0.0394326532
 20
-1.4906501891
 10
-0.0962943948
 20
-1.4859414958
 10
-0.1529165728
 20
-1.4788863052
 10
-0.2092080008
 20
-1.4694951602
 10
-0.265075891
 20
-1.4577821274
 10
-0.3204207651
 20
-1.4437666357
 10
-0.3751424535
 20
-1.4274731901
 10
-0.4291534423
 20
-1.4089269081
 10
-0.4823546935
 20
-1.3881608417
 10
-0.5346318536
 20
-1.3652207829
 10
-0.5858879001
 20
-1.3401528803
 10
-0.6360454196
 20
-1.3129986338
 10
-0.6850232363
 20
-1.2838047364
 10
-0.7327240353
 20
-1.2526330471
 10
-0.7790833619
 20
-1.2195296367
 10
-0.8240683631
 20
-1.1845162448
 10
-0.867607521
 20
-1.1476413865
 10
-0.9096143932
 20
-1.108970873
 10
-0.9500308264
 20
-1.0685493773
 10
-0.9888055663
 20
-1.0264136325
 10
-1.02584005
 20
-0.982655555
 10
-1.0610146723
 20
-0.9374119503
 10
-1.0942750269
 20
-0.8907556896
 10
-1.1255606674
 20
-0.8427746218
 10
-1.1547670168
 20
-0.7936453838
 10
-1.1818569372
 20
-0.7434608755
 10
-1.2067982234
 20
-0.6923134252
 10
-1.2295225435
 20
-0.6403929998
 10
-1.2500054605
 20
-0.5878310563
 10
-1.2682534803
 20
-0.534694079
 10
-1.2842627998
 20
-0.4810791968
  0
LWPOLYLINE
  5
384
100
AcDbEntity
  8
0
100
AcDbPolyline
 62
7
  6
CONTINUOUS
 90
25
 70
0
 10
1.3721162871
 20
-0.4765226457
 10
1.3768352713
 20
-0.4609597215
 10
1.3823702634
 20
-0.4457311012
 10
1.3887212634
 20
-0.4308367848
 10
1.3959216335
 20
-0.4162160099
 10
1.4039380115
 20
-0.401929539
 10
1.4126703106
 20
-0.3881596583
 10
1.4221005035
 20
-0.3749466016
 10
1.4322466176
 20
-0.3622501353
 10
1.4430626481
 20
-0.3501318451
 10
1.4545765674
 20
-0.3385689966
 10
1.4667604032
 20
-0.3275843242
 10
1.4794842343
 20
-0.3173076167
 10
1.4927579125
 20
-0.3077518278
 10
1.5065715859
 20
-0.2989040038
 10
1.5207657779
 20
-0.2908550717
 10
1.5353104164
 20
-0.2836261126
 10
1.5502355735
 20
-0.2771960455
 10
1.5654719886
 20
-0.2715925546
 10
1.581065221
 20
-0.2668083839
 10
1.5969697114
 20
-0.2628507894
 10
1.6129795218
 20
-0.2597692225
 10
1.629026006
 20
-0.257580167
 10
1.6451778102
 20
-0.256267139
 10
1.6614349343
 20
-0.2558301386
  0
LWPOLYLINE
  5
385
100
AcDbEntity
  8
ASSI
100
AcDbPolyline
 62
7
  6
CONTINUOUS
 90
25
 70
0
 10
1.3721162871
 20
-0.4765226457
 10
1.3768352713
 20
-0.4609597215
 10
1.3823702634
 20
-0.4457311012
 10
1.3887212634
 20
-0.4308367848
 10
1.3959216335
 20
-0.4162160099
 10
1.4039380115
 20
-0.401929539
 10
1.4126703106
 20
-0.3881596583
 10
1.4221005035
 20
-0.3749466016
 10
1.4322466176
 20
-0.3622501353
 10
1.4430626481
 20
-0.3501318451
 10
1.4545765674
 20
-0.3385689966
 10
1.4667604032
 20
-0.3275843242
 10
1.4794842343
 20
-0.3173076167
 10
1.4927579125
 20
-0.3077518278
 10
1.5065715859
 20
-0.2989040038
 10
1.5207657779
 20
-0.2908550717
 10
1.5353104164
 20
-0.2836261126
 10
1.5502355735
 20
-0.2771960455
 10
1.5654719886
 20
-0.2715925546
 10
1.581065221
 20
-0.2668083839
 10
1.5969697114
 20
-0.2628507894
 10
1.6129795218
 20
-0.2597692225
 10
1.629026006
 20
-0.257580167
 10
1.6451778102
 20
-0.256267139
 10
1.6614349343
 20
-0.2558301386
  0
LINE
  5
386
100
AcDbEntity
  8
RACCORDO
100
AcDbLine
 62
250
  6
CONTINUOUS
 10
1.3721162871
 20
0.2503856728
 11
1.3763067879
 21
0.254942224
  0
LINE
  5
387
100
AcDbEntity
  8
ASSI
100
AcDbLine
 62
250
  6
CONTINUOUS
 10
1.3721162871
 20
0.2503856728
 11
1.3763067879
 21
0.254942224
  0
LINE
  5
388
100
AcDbEntity
  8
DRAFT
100
AcDbLine
 62
7
  6
CONTINUOUS
 10
2.3477545746
 20
-0.2401217766
 11
2.342363724
 21
-0.2427398369
  0
LINE
  5
389
100
AcDbEntity
  8
ASSI
100
AcDbLine
 62
7
  6
CONTINUOUS
 10
2.3477545746
 20
-0.2401217766
 11
2.342363724
 21
-0.2427398369
  0
LINE
  5
38A
100
AcDbEntity
  8
DRAFT
100
AcDbLine
 62
7
  6
CONTINUOUS
 10
-1.8769921647
 20
0.0166028641
 11
-1.8235352024
 21
0.0296931657
  0
LINE
  5
38B
100
AcDbEntity
  8
ASSI
100
AcDbLine
 62
7
  6
CONTINUOUS
 10
-1.8769921647
 20
0.0166028641
 11
-1.8235352024
 21
0.0296931657
  0
LWPOLYLINE
  5
38C
100
AcDbEntity
  8
RACCORDO
100
AcDbPolyline
 62
250
  6
CONTINUOUS
 90
5
 70
0
 10
-11.0130617266
 20
0.2323633997
 10
-11.0119406895
 20
0.2325065501
 10
-11.0094824534
 20
0.2326485289
 10
-11.0056938667
 20
0.2327892878
 10
-11.0005856014
 20
0.2329290934
  0
LWPOLYLINE
  5
38D
100
AcDbEntity
  8
ASSI
100
AcDbPolyline
 62
250
  6
CONTINUOUS
 90
5
 70
0
 10
-11.0130617266
 20
0.2323633997
 10
-11.0119406895
 20
0.2325065501
 10
-11.0094824534
 20
0.2326485289
 10
-11.0056938667
 20
0.2327892878
 10
-11.0005856014
 20
0.2329290934
  0
LWPOLYLINE
  5
38E
100
AcDbEntity
  8
RACCORDO
100
AcDbPolyline
 62
250
  6
CONTINUOUS
 90
25
 70
0
 10
-1.573390923
 20
0.2350751022
 10
-1.5679501431
 20
0.2352252317
 10
-1.5625561696
 20
0.2356647247
 10
-1.5572090024
 20
0.236393581
 10
-1.5518931514
 20
0.237415594
 10
-1.5466241067
 20
0.2387269705
 10
-1.5414483391
 20
0.2403163302
 10
-1.5363666696
 20
0.2421861258
 10
-1.5313782772
 20
0.2443339047
 10
-1.5265271697
 20
0.2467409287
 10
-1.5218146764
 20
0.2494094375
 10
-1.5172394679
 20
0.2523371914
 10
-1.5128415642
 20
0.2554987333
 10
-1.508622356
 20
0.2588962673
 10
-1.5045804526
 20
0.2625275892
 10
-1.500751701
 20
0.2663606299
 10
-1.4971380401
 20
0.2703972691
 10
-1.4937375309
 20
0.274635627
 10
-1.4905802038
 20
0.2790379954
 10
-1.487668248
 20
0.28360598
 10
-1.4849994741
 20
0.2883379751
 10
-1.4825973451
 20
0.2931914549
 10
-1.4804696819
 20
0.2981522443
 10
-1.4786086635
 20
0.3032345184
 10
-1.4770142899
 20
0.3084382772
  0
LWPOLYLINE
  5
38F
100
AcDbEntity
  8
ASSI
100
AcDbPolyline
 62
250
  6
CONTINUOUS
 90
25
 70
0
 10
-1.573390923
 20
0.2350751022
 10
-1.5679501431
 20
0.2352252317
 10
-1.5625561696
 20
0.2356647247
 10
-1.5572090024
 20
0.236393581
 10
-1.5518931514
 20
0.237415594
 10
-1.5466241067
 20
0.2387269705
 10
-1.5414483391
 20
0.2403163302
 10
-1.5363666696
 20
0.2421861258
 10
-1.5313782772
 20
0.2443339047
 10
-1.5265271697
 20
0.2467409287
 10
-1.5218146764
 20
0.2494094375
 10
-1.5172394679
 20
0.2523371914
 10
-1.5128415642
 20
0.2554987333
 10
-1.508622356
 20
0.2588962673
 10
-1.5045804526
 20
0.2625275892
 10
-1.500751701
 20
0.2663606299
 10
-1.4971380401
 20
0.2703972691
 10
-1.4937375309
 20
0.274635627
 10
-1.4905802038
 20
0.2790379954
 10
-1.487668248
 20
0.28360598
 10
-1.4849994741
 20
0.2883379751
 10
-1.4825973451
 20
0.2931914549
 10
-1.4804696819
 20
0.2981522443
 10
-1.4786086635
 20
0.3032345184
 10
-1.4770142899
 20
0.3084382772
  0
LINE
  5
390
100
AcDbEntity
  8
RACCORDO
100
AcDbLine
 62
250
  6
CONTINUOUS
 10
-10.7971409343
 20
0.0331688964
 11
-10.7856172644
 21
0.0334207186
  0
LINE
  5
391
100
AcDbEntity
  8
ASSI
100
AcDbLine
 62
250
  6
CONTINUOUS
 10
-10.7971409343
 20
0.0331688964
 11
-10.7856172644
 21
0.0334207186
  0
LINE
  5
392
100
AcDbEntity
  8
RACCORDO
100
AcDbLine
 62
250
  6
CONTINUOUS
 10
-11.0005856014
 20
0.2329290934
 11
-10.9864677564
 21
0.2332037679
  0
LINE
  5
393
100
AcDbEntity
  8
ASSI
100
AcDbLine
 62
250
  6
CONTINUOUS
 10
-11.0005856014
 20
0.2329290934
 11
-10.9864677564
 21
0.2332037679
  0
LINE
  5
394
100
AcDbEntity
  8
RACCORDO
100
AcDbLine
 62
250
  6
CONTINUOUS
 10
-10.7856172644
 20
0.0334207186
 11
-10.7629145857
 21
0.0337754733
  0
LINE
  5
395
100
AcDbEntity
  8
ASSI
100
AcDbLine
 62
250
  6
CONTINUOUS
 10
-10.7856172644
 20
0.0334207186
 11
-10.7629145857
 21
0.0337754733
  0
LINE
  5
396
100
AcDbEntity
  8
RACCORDO
100
AcDbLine
 62
250
  6
CONTINUOUS
 10
-10.9864677564
 20
0.2332037679
 11
-10.955838371
 21
0.2335970759
  0
LINE
  5
397
100
AcDbEntity
  8
ASSI
100
AcDbLine
 62
250
  6
CONTINUOUS
 10
-10.9864677564
 20
0.2332037679
 11
-10.955838371
 21
0.2335970759
  0
LWPOLYLINE
  5
398
100
AcDbEntity
  8
RACCORDO
100
AcDbPolyline
 62
250
  6
CONTINUOUS
 90
3
 70
0
 10
-10.7629145857
 20
0.0337754733
 10
-10.7120603694
 20
0.0342851204
 10
-10.7001469153
 20
0.0343725104
  0
LWPOLYLINE
  5
399
100
AcDbEntity
  8
ASSI
100
AcDbPolyline
 62
250
  6
CONTINUOUS
 90
3
 70
0
 10
-10.7629145857
 20
0.0337754733
 10
-10.7120603694
 20
0.0342851204
 10
-10.7001469153
 20
0.0343725104
  0
LINE
  5
39A
100
AcDbEntity
  8
RACCORDO
100
AcDbLine
 62
250
  6
CONTINUOUS
 10
-10.955838371
 20
0.2335970759
 11
-10.8635911222
 21
0.2342825568
  0
LINE
  5
39B
100
AcDbEntity
  8
ASSI
100
AcDbLine
 62
250
  6
CONTINUOUS
 10
-10.955838371
 20
0.2335970759
 11
-10.8635911222
 21
0.2342825568
  0
LINE
  5
39C
100
AcDbEntity
  8
RACCORDO
100
AcDbLine
 62
250
  6
CONTINUOUS
 10
-10.8635911222
 20
0.2342825568
 11
-10.6659672733
 21
0.2349423616
  0
LINE
  5
39D
100
AcDbEntity
  8
ASSI
100
AcDbLine
 62
250
  6
CONTINUOUS
 10
-10.8635911222
 20
0.2342825568
 11
-10.6659672733
 21
0.2349423616
  0
LINE
  5
39E
100
AcDbEntity
  8
RACCORDO
100
AcDbLine
 62
250
  6
CONTINUOUS
 10
-10.6659672733
 20
0.2349423616
 11
-1.573390923
 21
0.2350751022
  0
LINE
  5
39F
100
AcDbEntity
  8
ASSI
100
AcDbLine
 62
250
  6
CONTINUOUS
 10
-10.6659672733
 20
0.2349423616
 11
-1.573390923
 21
0.2350751022
  0
LINE
  5
3A0
100
AcDbEntity
  8
RACCORDO
100
AcDbLine
 62
250
  6
CONTINUOUS
 10
1.665434911
 20
0.2350751022
 11
10.8298312324
 21
0.2347799457
  0
LINE
  5
3A1
100
AcDbEntity
  8
ASSI
100
AcDbLine
 62
250
  6
CONTINUOUS
 10
1.665434911
 20
0.2350751022
 11
10.8298312324
 21
0.2347799457
  0
LINE
  5
3A2
100
AcDbEntity
  8
RACCORDO
100
AcDbLine
 62
250
  6
CONTINUOUS
 10
10.8298312324
 20
0.2347799457
 11
11.0065928912
 21
0.2339595686
  0
LINE
  5
3A3
100
AcDbEntity
  8
ASSI
100
AcDbLine
 62
250
  6
CONTINUOUS
 10
10.8298312324
 20
0.2347799457
 11
11.0065928912
 21
0.2339595686
  0
LINE
  5
3A4
100
AcDbEntity
  8
RACCORDO
100
AcDbLine
 62
250
  6
CONTINUOUS
 10
10.7921909027
 20
0.0343725104
 11
10.8460333857
 21
0.0338862814
  0
LINE
  5
3A5
100
AcDbEntity
  8
ASSI
100
AcDbLine
 62
250
  6
CONTINUOUS
 10
10.7921909027
 20
0.0343725104
 11
10.8460333857
 21
0.0338862814
  0
LINE
  5
3A6
100
AcDbEntity
  8
RACCORDO
100
AcDbLine
 62
250
  6
CONTINUOUS
 10
11.0065928912
 20
0.2339595686
 11
11.0593189313
 21
0.2334690265
  0
LINE
  5
3A7
100
AcDbEntity
  8
ASSI
100
AcDbLine
 62
250
  6
CONTINUOUS
 10
11.0065928912
 20
0.2339595686
 11
11.0593189313
 21
0.2334690265
  0
LINE
  5
3A8
100
AcDbEntity
  8
RACCORDO
100
AcDbLine
 62
250
  6
CONTINUOUS
 10
11.0593189313
 20
0.2334690265
 11
11.0785117441
 21
0.2332037679
  0
LINE
  5
3A9
100
AcDbEntity
  8
ASSI
100
AcDbLine
 62
250
  6
CONTINUOUS
 10
11.0593189313
 20
0.2334690265
 11
11.0785117441
 21
0.2332037679
  0
LINE
  5
3AA
100
AcDbEntity
  8
RACCORDO
100
AcDbLine
 62
250
  6
CONTINUOUS
 10
10.8460333857
 20
0.0338862814
 11
10.8708083458
 21
0.033542248
  0
LINE
  5
3AB
100
AcDbEntity
  8
ASSI
100
AcDbLine
 62
250
  6
CONTINUOUS
 10
10.8460333857
 20
0.0338862814
 11
10.8708083458
 21
0.033542248
  0
LWPOLYLINE
  5
3AC
100
AcDbEntity
  8
RACCORDO
100
AcDbPolyline
 62
250
  6
CONTINUOUS
 90
9
 70
0
 10
10.8708083458
 20
0.033542248
 10
10.8838032271
 20
0.0332959317
 10
10.8891849221
 20
0.0331688964
 10
10.8938000597
 20
0.0330395927
 10
10.8976549175
 20
0.0329080405
 10
10.9007189805
 20
0.0327753089
 10
10.902982077
 20
0.0326417541
 10
10.9044543788
 20
0.0325070199
 10
10.9051358859
 20
0.0323711062
  0
LWPOLYLINE
  5
3AD
100
AcDbEntity
  8
ASSI
100
AcDbPolyline
 62
250
  6
CONTINUOUS
 90
9
 70
0
 10
10.8708083458
 20
0.033542248
 10
10.8838032271
 20
0.0332959317
 10
10.8891849221
 20
0.0331688964
 10
10.8938000597
 20
0.0330395927
 10
10.8976549175
 20
0.0329080405
 10
10.9007189805
 20
0.0327753089
 10
10.902982077
 20
0.0326417541
 10
10.9044543788
 20
0.0325070199
 10
10.9051358859
 20
0.0323711062
  0
LWPOLYLINE
  5
3AE
100
AcDbEntity
  8
RACCORDO
100
AcDbPolyline
 62
250
  6
CONTINUOUS
 90
6
 70
0
 10
11.0785117441
 20
0.2332037679
 10
11.0926295892
 20
0.2329290934
 10
11.0977378546
 20
0.2327892878
 10
11.1015264413
 20
0.2326485289
 10
11.1039846775
 20
0.2325065501
 10
11.1051057147
 20
0.2323633997
  0
LWPOLYLINE
  5
3AF
100
AcDbEntity
  8
ASSI
100
AcDbPolyline
 62
250
  6
CONTINUOUS
 90
6
 70
0
 10
11.0785117441
 20
0.2332037679
 10
11.0926295892
 20
0.2329290934
 10
11.0977378546
 20
0.2327892878
 10
11.1015264413
 20
0.2326485289
 10
11.1039846775
 20
0.2325065501
 10
11.1051057147
 20
0.2323633997
  0
LWPOLYLINE
  5
3B0
100
AcDbEntity
  8
0
100
AcDbPolyline
 62
7
  6
CONTINUOUS
 90
23
 70
0
 10
1.629026006
 20
0.0314431941
 10
1.6129795218
 20
0.0336322496
 10
1.5969697114
 20
0.0367138166
 10
1.581065221
 20
0.0406714111
 10
1.5654719886
 20
0.0454555817
 10
1.5502355735
 20
0.0510590727
 10
1.5353104164
 20
0.0574891398
 10
1.5207657779
 20
0.0647180988
 10
1.5065715859
 20
0.0727670309
 10
1.4927579125
 20
0.081614855
 10
1.4794842343
 20
0.0911706438
 10
1.4667604032
 20
0.1014473514
 10
1.4545765674
 20
0.1124320237
 10
1.4430626481
 20
0.1239948722
 10
1.4322466176
 20
0.1361131624
 10
1.4221005035
 20
0.1488096288
 10
1.4126703106
 20
0.1620226855
 10
1.4039380115
 20
0.1757925661
 10
1.3959216335
 20
0.1900790371
 10
1.3887212634
 20
0.2046998119
 10
1.3823702634
 20
0.2195941284
 10
1.3768352713
 20
0.2348227487
 10
1.3721162871
 20
0.2503856728
  0
LWPOLYLINE
  5
3B1
100
AcDbEntity
  8
ASSI
100
AcDbPolyline
 62
7
  6
CONTINUOUS
 90
23
 70
0
 10
1.629026006
 20
0.0314431941
 10
1.6129795218
 20
0.0336322496
 10
1.5969697114
 20
0.0367138166
 10
1.581065221
 20
0.0406714111
 10
1.5654719886
 20
0.0454555817
 10
1.5502355735
 20
0.0510590727
 10
1.5353104164
 20
0.0574891398
 10
1.5207657779
 20
0.0647180988
 10
1.5065715859
 20
0.0727670309
 10
1.4927579125
 20
0.081614855
 10
1.4794842343
 20
0.0911706438
 10
1.4667604032
 20
0.1014473514
 10
1.4545765674
 20
0.1124320237
 10
1.4430626481
 20
0.1239948722
 10
1.4322466176
 20
0.1361131624
 10
1.4221005035
 20
0.1488096288
 10
1.4126703106
 20
0.1620226855
 10
1.4039380115
 20
0.1757925661
 10
1.3959216335
 20
0.1900790371
 10
1.3887212634
 20
0.2046998119
 10
1.3823702634
 20
0.2195941284
 10
1.3768352713
 20
0.2348227487
 10
1.3721162871
 20
0.2503856728
  0
LINE
  5
3B2
100
AcDbEntity
  8
DRAFT
100
AcDbLine
 62
7
  6
CONTINUOUS
 10
1.9155791905
 20
0.0296931657
 11
1.9690361527
 21
0.0166028641
  0
LINE
  5
3B3
100
AcDbEntity
  8
ASSI
100
AcDbLine
 62
7
  6
CONTINUOUS
 10
1.9155791905
 20
0.0296931657
 11
1.9690361527
 21
0.0166028641
  0
LINE
  5
3B4
100
AcDbEntity
  8
DRAFT
100
AcDbLine
 62
7
  6
CONTINUOUS
 10
2.342363724
 20
0.0166028641
 11
2.3477545746
 21
0.0139848037
  0
LINE
  5
3B5
100
AcDbEntity
  8
ASSI
100
AcDbLine
 62
7
  6
CONTINUOUS
 10
2.342363724
 20
0.0166028641
 11
2.3477545746
 21
0.0139848037
  0
LINE
  5
3B6
100
AcDbEntity
  8
RACCORDO
100
AcDbLine
 62
250
  6
CONTINUOUS
 10
1.3763067091
 20
-0.4810794816
 11
1.3721162871
 21
-0.4765226457
  0
LINE
  5
3B7
100
AcDbEntity
  8
ASSI
100
AcDbLine
 62
250
  6
CONTINUOUS
 10
1.3763067091
 20
-0.4810794816
 11
1.3721162871
 21
-0.4765226457
  0
LWPOLYLINE
  5
3B8
100
AcDbEntity
  8
RACCORDO
100
AcDbPolyline
 62
250
  6
CONTINUOUS
 90
25
 70
0
 10
1.5690582779
 20
0.3084382772
 10
1.5706526515
 20
0.3032345184
 10
1.57251367
 20
0.2981522443
 10
1.5746413332
 20
0.293191455
 10
1.5770434622
 20
0.2883379751
 10
1.579712236
 20
0.28360598
 10
1.5826241919
 20
0.2790379954
 10
1.585781519
 20
0.274635627
 10
1.5891820282
 20
0.2703972691
 10
1.5927956891
 20
0.2663606299
 10
1.5966244407
 20
0.2625275892
 10
1.6006663441
 20
0.2588962673
 10
1.6048855522
 20
0.2554987333
 10
1.609283456
 20
0.2523371914
 10
1.6138586644
 20
0.2494094375
 10
1.6185711578
 20
0.2467409288
 10
1.6234222653
 20
0.2443339047
 10
1.6284106577
 20
0.2421861259
 10
1.6334923272
 20
0.2403163302
 10
1.6386680948
 20
0.2387269705
 10
1.6439371394
 20
0.237415594
 10
1.6492529905
 20
0.236393581
 10
1.6546001576
 20
0.2356647247
 10
1.6599941312
 20
0.2352252317
 10
1.665434911
 20
0.2350751022
  0
LWPOLYLINE
  5
3B9
100
AcDbEntity
  8
ASSI
100
AcDbPolyline
 62
250
  6
CONTINUOUS
 90
25
 70
0
 10
1.5690582779
 20
0.3084382772
 10
1.5706526515
 20
0.3032345184
 10
1.57251367
 20
0.2981522443
 10
1.5746413332
 20
0.293191455
 10
1.5770434622
 20
0.2883379751
 10
1.579712236
 20
0.28360598
 10
1.5826241919
 20
0.2790379954
 10
1.585781519
 20
0.274635627
 10
1.5891820282
 20
0.2703972691
 10
1.5927956891
 20
0.2663606299
 10
1.5966244407
 20
0.2625275892
 10
1.6006663441
 20
0.2588962673
 10
1.6048855522
 20
0.2554987333
 10
1.609283456
 20
0.2523371914
 10
1.6138586644
 20
0.2494094375
 10
1.6185711578
 20
0.2467409288
 10
1.6234222653
 20
0.2443339047
 10
1.6284106577
 20
0.2421861259
 10
1.6334923272
 20
0.2403163302
 10
1.6386680948
 20
0.2387269705
 10
1.6439371394
 20
0.237415594
 10
1.6492529905
 20
0.236393581
 10
1.6546001576
 20
0.2356647247
 10
1.6599941312
 20
0.2352252317
 10
1.665434911
 20
0.2350751022
  0
LWPOLYLINE
  5
3BA
100
AcDbEntity
  8
RACCORDO
100
AcDbPolyline
 62
250
  6
CONTINUOUS
 90
25
 70
0
 10
1.376306788
 20
0.2549422241
 10
1.3810642709
 20
0.239399829
 10
1.3866568888
 20
0.2241370952
 10
1.3930683536
 20
0.2091988804
 10
1.4002799791
 20
0.1946290803
 10
1.4082707053
 20
0.1804705637
 10
1.4170171484
 20
0.1667650409
 10
1.4264939826
 20
0.1535525001
 10
1.4366732561
 20
0.1408721907
 10
1.4475242464
 20
0.1287624183
 10
1.4590145662
 20
0.117259121
 10
1.4711107997
 20
0.1063955568
 10
1.4837777619
 20
0.0962032623
 10
1.4969782146
 20
0.0867121896
 10
1.5106734127
 20
0.0779501848
 10
1.5248236748
 20
0.0699426873
 10
1.5393880833
 20
0.0627130227
 10
1.5543233301
 20
0.0562828537
 10
1.5695842852
 20
0.0506715916
 10
1.585125278
 20
0.0458958232
 10
1.6009013957
 20
0.041969148
 10
1.6168673832
 20
0.0389027919
 10
1.6329767329
 20
0.0367057743
 10
1.6491817732
 20
0.0353846849
 10
1.665434911
 20
0.0349434602
  0
LWPOLYLINE
  5
3BB
100
AcDbEntity
  8
ASSI
100
AcDbPolyline
 62
250
  6
CONTINUOUS
 90
25
 70
0
 10
1.376306788
 20
0.2549422241
 10
1.3810642709
 20
0.239399829
 10
1.3866568888
 20
0.2241370952
 10
1.3930683536
 20
0.2091988804
 10
1.4002799791
 20
0.1946290803
 10
1.4082707053
 20
0.1804705637
 10
1.4170171484
 20
0.1667650409
 10
1.4264939826
 20
0.1535525001
 10
1.4366732561
 20
0.1408721907
 10
1.4475242464
 20
0.1287624183
 10
1.4590145662
 20
0.117259121
 10
1.4711107997
 20
0.1063955568
 10
1.4837777619
 20
0.0962032623
 10
1.4969782146
 20
0.0867121896
 10
1.5106734127
 20
0.0779501848
 10
1.5248236748
 20
0.0699426873
 10
1.5393880833
 20
0.0627130227
 10
1.5543233301
 20
0.0562828537
 10
1.5695842852
 20
0.0506715916
 10
1.585125278
 20
0.0458958232
 10
1.6009013957
 20
0.041969148
 10
1.6168673832
 20
0.0389027919
 10
1.6329767329
 20
0.0367057743
 10
1.6491817732
 20
0.0353846849
 10
1.665434911
 20
0.0349434602
  0
LINE
  5
3BC
100
AcDbEntity
  8
RACCORDO
100
AcDbLine
 62
250
  6
CONTINUOUS
 10
10.6825679334
 20
22.0462442193
 11
10.6290825702
 21
21.8856576432
  0
LINE
  5
3BD
100
AcDbEntity
  8
ASSI
100
AcDbLine
 62
250
  6
CONTINUOUS
 10
10.6825679334
 20
22.0462442193
 11
10.6290825702
 21
21.8856576432
  0
LWPOLYLINE
  5
3BE
100
AcDbEntity
  8
RACCORDO
100
AcDbPolyline
 62
250
  6
CONTINUOUS
 90
7
 70
0
 10
-10.8130918978
 20
0.0323711062
 10
-10.8124103908
 20
0.0325070199
 10
-10.810938089
 20
0.0326417541
 10
-10.8086749925
 20
0.0327753089
 10
-10.8056109296
 20
0.0329080405
 10
-10.8017560718
 20
0.0330395927
 10
-10.7971409343
 20
0.0331688964
  0
LWPOLYLINE
  5
3BF
100
AcDbEntity
  8
ASSI
100
AcDbPolyline
 62
250
  6
CONTINUOUS
 90
7
 70
0
 10
-10.8130918978
 20
0.0323711062
 10
-10.8124103908
 20
0.0325070199
 10
-10.810938089
 20
0.0326417541
 10
-10.8086749925
 20
0.0327753089
 10
-10.8056109296
 20
0.0329080405
 10
-10.8017560718
 20
0.0330395927
 10
-10.7971409343
 20
0.0331688964
  0
LINE
  5
3C0
100
AcDbEntity
  8
RACCORDO
100
AcDbLine
 62
250
  6
CONTINUOUS
 10
10.6290825702
 20
-22.1117946161
 11
10.6825679334
 21
-22.2723811922
  0
LINE
  5
3C1
100
AcDbEntity
  8
ASSI
100
AcDbLine
 62
250
  6
CONTINUOUS
 10
10.6290825702
 20
-22.1117946161
 11
10.6825679334
 21
-22.2723811922
  0
LINE
  5
3C2
100
AcDbEntity
  8
RACCORDO
100
AcDbLine
 62
250
  6
CONTINUOUS
 10
11.1829477567
 20
21.5482984915
 11
11.1290061154
 21
21.3863419682
  0
LINE
  5
3C3
100
AcDbEntity
  8
ASSI
100
AcDbLine
 62
250
  6
CONTINUOUS
 10
11.1829477567
 20
21.5482984915
 11
11.1290061154
 21
21.3863419682
  0
LINE
  5
3C4
100
AcDbEntity
  8
DRAFT
100
AcDbLine
 62
7
  6
CONTINUOUS
 10
9.8919112928
 20
-0.2401217766
 11
9.946021994
 21
-0.2130684864
  0
LINE
  5
3C5
100
AcDbEntity
  8
ASSI
100
AcDbLine
 62
7
  6
CONTINUOUS
 10
9.8919112928
 20
-0.2401217766
 11
9.946021994
 21
-0.2130684864
  0
LINE
  5
3C6
100
AcDbEntity
  8
RACCORDO
100
AcDbLine
 62
250
  6
CONTINUOUS
 10
10.9960219929
 20
-0.2130684864
 11
10.9051358859
 21
-0.2585080791
  0
LINE
  5
3C7
100
AcDbEntity
  8
ASSI
100
AcDbLine
 62
250
  6
CONTINUOUS
 10
10.9960219929
 20
-0.2130684864
 11
10.9051358859
 21
-0.2585080791
  0
LINE
  5
3C8
100
AcDbEntity
  8
DRAFT
100
AcDbLine
 62
7
  6
CONTINUOUS
 10
9.8919112928
 20
0.0139848037
 11
9.946021994
 21
-0.0130684864
  0
LINE
  5
3C9
100
AcDbEntity
  8
ASSI
100
AcDbLine
 62
7
  6
CONTINUOUS
 10
9.8919112928
 20
0.0139848037
 11
9.946021994
 21
-0.0130684864
  0
LINE
  5
3CA
100
AcDbEntity
  8
RACCORDO
100
AcDbLine
 62
250
  6
CONTINUOUS
 10
10.9051358859
 20
0.0323711062
 11
10.9960219929
 21
-0.0130684864
  0
LINE
  5
3CB
100
AcDbEntity
  8
ASSI
100
AcDbLine
 62
250
  6
CONTINUOUS
 10
10.9051358859
 20
0.0323711062
 11
10.9960219929
 21
-0.0130684864
  0
LINE
  5
3CC
100
AcDbEntity
  8
RACCORDO
100
AcDbLine
 62
250
  6
CONTINUOUS
 10
11.1290061154
 20
-21.612478941
 11
11.1829477567
 21
-21.7744354644
  0
LINE
  5
3CD
100
AcDbEntity
  8
ASSI
100
AcDbLine
 62
250
  6
CONTINUOUS
 10
11.1290061154
 20
-21.612478941
 11
11.1829477567
 21
-21.7744354644
  0
LWPOLYLINE
  5
3CE
100
AcDbEntity
  8
RACCORDO
100
AcDbPolyline
 62
250
  6
CONTINUOUS
 90
11
 70
0
 10
11.1290061154
 20
21.3863419682
 10
11.1282900052
 20
21.3833383782
 10
11.1275789573
 20
21.3786783811
 10
11.1268729717
 20
21.3723619769
 10
11.1261708621
 20
21.3643730102
 10
11.1254738147
 20
21.3547276363
 10
11.1247853887
 20
21.3434743217
 10
11.1241056355
 20
21.3306047812
 10
11.1234345037
 20
21.3161273
 10
11.1227753977
 20
21.3001152008
 10
11.1214934057
 20
21.26347199
  0
LWPOLYLINE
  5
3CF
100
AcDbEntity
  8
ASSI
100
AcDbPolyline
 62
250
  6
CONTINUOUS
 90
11
 70
0
 10
11.1290061154
 20
21.3863419682
 10
11.1282900052
 20
21.3833383782
 10
11.1275789573
 20
21.3786783811
 10
11.1268729717
 20
21.3723619769
 10
11.1261708621
 20
21.3643730102
 10
11.1254738147
 20
21.3547276363
 10
11.1247853887
 20
21.3434743217
 10
11.1241056355
 20
21.3306047812
 10
11.1234345037
 20
21.3161273
 10
11.1227753977
 20
21.3001152008
 10
11.1214934057
 20
21.26347199
  0
LINE
  5
3D0
100
AcDbEntity
  8
RACCORDO
100
AcDbLine
 62
250
  6
CONTINUOUS
 10
11.196021994
 20
-0.4130456411
 11
11.105105715
 21
-0.4585003187
  0
LINE
  5
3D1
100
AcDbEntity
  8
ASSI
100
AcDbLine
 62
250
  6
CONTINUOUS
 10
11.196021994
 20
-0.4130456411
 11
11.105105715
 21
-0.4585003187
  0
LWPOLYLINE
  5
3D2
100
AcDbEntity
  8
0
100
AcDbPolyline
 62
7
  6
CONTINUOUS
 90
3
 70
0
 43
0.3500000006
 10
18.184694664
 20
1.0297879028
 10
18.3989802818
 20
0.9583589859
 10
18.6846948166
 20
0.815503418
  0
LINE
  5
3D3
100
AcDbEntity
  8
RACCORDO
100
AcDbLine
 62
250
  6
CONTINUOUS
 10
11.105105715
 20
0.2323633458
 11
11.196021994
 21
0.1869086683
  0
LINE
  5
3D4
100
AcDbEntity
  8
ASSI
100
AcDbLine
 62
250
  6
CONTINUOUS
 10
11.105105715
 20
0.2323633458
 11
11.196021994
 21
0.1869086683
  0
LWPOLYLINE
  5
3D5
100
AcDbEntity
  8
RACCORDO
100
AcDbPolyline
 62
250
  6
CONTINUOUS
 90
8
 70
0
 10
10.6290824682
 20
21.8856576431
 10
10.628366113
 20
21.8811765528
 10
10.6276548923
 20
21.8741807596
 10
10.6269488061
 20
21.8646820504
 10
10.6262466955
 20
21.8526965222
 10
10.6255497194
 20
21.8382443032
 10
10.6248613544
 20
21.8213493421
 10
10.6235104956
 20
21.780347596
  0
LWPOLYLINE
  5
3D6
100
AcDbEntity
  8
ASSI
100
AcDbPolyline
 62
250
  6
CONTINUOUS
 90
8
 70
0
 10
10.6290824682
 20
21.8856576431
 10
10.628366113
 20
21.8811765528
 10
10.6276548923
 20
21.8741807596
 10
10.6269488061
 20
21.8646820504
 10
10.6262466955
 20
21.8526965222
 10
10.6255497194
 20
21.8382443032
 10
10.6248613544
 20
21.8213493421
 10
10.6235104956
 20
21.780347596
  0
LWPOLYLINE
  5
3D7
100
AcDbEntity
  8
0
100
AcDbPolyline
 62
7
  6
CONTINUOUS
 90
10
 70
0
 43
0.3500000006
 10
17.9704090462
 20
0.9583589859
 10
18.1132657471
 20
1.0297879028
 10
18.184694664
 20
1.0297879028
 10
18.3275513649
 20
0.8869323349
 10
18.3275513649
 20
0.815503418
 10
18.2561235809
 20
0.744074501
 10
18.184694664
 20
0.744074501
 10
18.0418368301
 20
0.815503418
 10
17.9704090462
 20
0.8869323349
 10
17.9704090462
 20
0.9583589859
  0
LWPOLYLINE
  5
3D8
100
AcDbEntity
  8
RACCORDO
100
AcDbPolyline
 62
250
  6
CONTINUOUS
 90
9
 70
0
 10
11.1234345037
 20
-21.5422642725
 10
11.1241056355
 20
-21.5567417537
 10
11.1247853887
 20
-21.5696112943
 10
11.1254738147
 20
-21.5808646089
 10
11.126170862
 20
-21.5905099828
 10
11.1268729717
 20
-21.5984989496
 10
11.1275789573
 20
-21.6048153539
 10
11.1282900052
 20
-21.609475351
 10
11.1290061154
 20
-21.612478941
  0
LWPOLYLINE
  5
3D9
100
AcDbEntity
  8
ASSI
100
AcDbPolyline
 62
250
  6
CONTINUOUS
 90
9
 70
0
 10
11.1234345037
 20
-21.5422642725
 10
11.1241056355
 20
-21.5567417537
 10
11.1247853887
 20
-21.5696112943
 10
11.1254738147
 20
-21.5808646089
 10
11.126170862
 20
-21.5905099828
 10
11.1268729717
 20
-21.5984989496
 10
11.1275789573
 20
-21.6048153539
 10
11.1282900052
 20
-21.609475351
 10
11.1290061154
 20
-21.612478941
  0
LWPOLYLINE
  5
3DA
100
AcDbEntity
  8
RACCORDO
100
AcDbPolyline
 62
250
  6
CONTINUOUS
 90
7
 70
0
 10
10.6248613544
 20
-22.0474863145
 10
10.6255497194
 20
-22.0643812757
 10
10.6262466954
 20
-22.0788334947
 10
10.626948806
 20
-22.0908190231
 10
10.6276548923
 20
-22.1003177323
 10
10.628366113
 20
-22.1073135255
 10
10.6290824682
 20
-22.111794616
  0
LWPOLYLINE
  5
3DB
100
AcDbEntity
  8
ASSI
100
AcDbPolyline
 62
250
  6
CONTINUOUS
 90
7
 70
0
 10
10.6248613544
 20
-22.0474863145
 10
10.6255497194
 20
-22.0643812757
 10
10.6262466954
 20
-22.0788334947
 10
10.626948806
 20
-22.0908190231
 10
10.6276548923
 20
-22.1003177323
 10
10.628366113
 20
-22.1073135255
 10
10.6290824682
 20
-22.111794616
  0
LINE
  5
3DC
100
AcDbEntity
  8
RACCORDO
100
AcDbLine
 62
250
  6
CONTINUOUS
 10
10.6235104955
 20
-22.0064845684
 11
10.6248613544
 21
-22.0474863145
  0
LINE
  5
3DD
100
AcDbEntity
  8
ASSI
100
AcDbLine
 62
250
  6
CONTINUOUS
 10
10.6235104955
 20
-22.0064845684
 11
10.6248613544
 21
-22.0474863145
  0
LINE
  5
3DE
100
AcDbEntity
  8
RACCORDO
100
AcDbLine
 62
250
  6
CONTINUOUS
 10
10.6222044187
 20
-21.956106896
 11
10.6235104955
 21
-22.0064845684
  0
LINE
  5
3DF
100
AcDbEntity
  8
ASSI
100
AcDbLine
 62
250
  6
CONTINUOUS
 10
10.6222044187
 20
-21.956106896
 11
10.6235104955
 21
-22.0064845684
  0
LINE
  5
3E0
100
AcDbEntity
  8
RACCORDO
100
AcDbLine
 62
250
  6
CONTINUOUS
 10
10.6209497278
 20
-21.8966937237
 11
10.6222044187
 21
-21.956106896
  0
LINE
  5
3E1
100
AcDbEntity
  8
ASSI
100
AcDbLine
 62
250
  6
CONTINUOUS
 10
10.6209497278
 20
-21.8966937237
 11
10.6222044187
 21
-21.956106896
  0
LINE
  5
3E2
100
AcDbEntity
  8
RACCORDO
100
AcDbLine
 62
250
  6
CONTINUOUS
 10
10.6222044187
 20
21.7299699237
 11
10.6209497278
 21
21.6705567515
  0
LINE
  5
3E3
100
AcDbEntity
  8
ASSI
100
AcDbLine
 62
250
  6
CONTINUOUS
 10
10.6222044187
 20
21.7299699237
 11
10.6209497278
 21
21.6705567515
  0
LINE
  5
3E4
100
AcDbEntity
  8
RACCORDO
100
AcDbLine
 62
250
  6
CONTINUOUS
 10
10.6235104956
 20
21.780347596
 11
10.6222044187
 21
21.7299699237
  0
LINE
  5
3E5
100
AcDbEntity
  8
ASSI
100
AcDbLine
 62
250
  6
CONTINUOUS
 10
10.6235104956
 20
21.780347596
 11
10.6222044187
 21
21.7299699237
  0
LWPOLYLINE
  5
3E6
100
AcDbEntity
  8
RACCORDO
100
AcDbPolyline
 62
250
  6
CONTINUOUS
 90
22
 70
0
 10
11.1051054249
 20
-0.4585004637
 10
11.1045441004
 20
-0.4435564367
 10
11.1028678171
 20
-0.4286959683
 10
11.1000859481
 20
-0.4140021483
 10
11.0962140478
 20
-0.3995571345
 10
11.0912737657
 20
-0.385441694
 10
11.0852927254
 20
-0.3717347516
 10
11.0783043691
 20
-0.3585129471
 10
11.0703477715
 20
-0.3458502078
 10
11.0614674215
 20
-0.3338173355
 10
11.0517129724
 20
-0.3224816096
 10
11.0411389652
 20
-0.3119064114
 10
11.0298045232
 20
-0.3021508701
 10
11.0177730216
 20
-0.2932695316
 10
11.0051117327
 20
-0.2853120536
 10
10.9918914504
 20
-0.2783229284
 10
10.978186094
 20
-0.2723412337
 10
10.9640722947
 20
-0.2674004142
 10
10.9496289674
 20
-0.2635280949
 10
10.9349368696
 20
-0.2607459263
 10
10.9200781491
 20
-0.2590694634
 10
10.9051358859
 20
-0.2585080791
  0
LWPOLYLINE
  5
3E7
100
AcDbEntity
  8
ASSI
100
AcDbPolyline
 62
250
  6
CONTINUOUS
 90
22
 70
0
 10
11.1051054249
 20
-0.4585004637
 10
11.1045441004
 20
-0.4435564367
 10
11.1028678171
 20
-0.4286959683
 10
11.1000859481
 20
-0.4140021483
 10
11.0962140478
 20
-0.3995571345
 10
11.0912737657
 20
-0.385441694
 10
11.0852927254
 20
-0.3717347516
 10
11.0783043691
 20
-0.3585129471
 10
11.0703477715
 20
-0.3458502078
 10
11.0614674215
 20
-0.3338173355
 10
11.0517129724
 20
-0.3224816096
 10
11.0411389652
 20
-0.3119064114
 10
11.0298045232
 20
-0.3021508701
 10
11.0177730216
 20
-0.2932695316
 10
11.0051117327
 20
-0.2853120536
 10
10.9918914504
 20
-0.2783229284
 10
10.978186094
 20
-0.2723412337
 10
10.9640722947
 20
-0.2674004142
 10
10.9496289674
 20
-0.2635280949
 10
10.9349368696
 20
-0.2607459263
 10
10.9200781491
 20
-0.2590694634
 10
10.9051358859
 20
-0.2585080791
  0
LINE
  5
3E8
100
AcDbEntity
  8
RACCORDO
100
AcDbLine
 62
250
  6
CONTINUOUS
 10
11.1221283887
 20
-21.5086978769
 11
11.1234345037
 21
-21.5422642725
  0
LINE
  5
3E9
100
AcDbEntity
  8
ASSI
100
AcDbLine
 62
250
  6
CONTINUOUS
 10
11.1221283887
 20
-21.5086978769
 11
11.1234345037
 21
-21.5422642725
  0
LINE
  5
3EA
100
AcDbEntity
  8
RACCORDO
100
AcDbLine
 62
250
  6
CONTINUOUS
 10
11.1208736396
 20
-21.4690814906
 11
11.1221283887
 21
-21.5086978769
  0
LINE
  5
3EB
100
AcDbEntity
  8
ASSI
100
AcDbLine
 62
250
  6
CONTINUOUS
 10
11.1208736396
 20
-21.4690814906
 11
11.1221283887
 21
-21.5086978769
  0
LWPOLYLINE
  5
3EC
100
AcDbEntity
  8
RACCORDO
100
AcDbPolyline
 62
250
  6
CONTINUOUS
 90
28
 70
0
 10
11.1290061154
 20
21.3863419682
 10
11.1281347721
 20
21.4153576798
 10
11.1255767567
 20
21.4442753265
 10
11.1213407146
 20
21.4729971737
 10
11.1154409624
 20
21.5014261488
 10
11.1078974397
 20
21.5294661691
 10
11.0987356416
 20
21.5570224661
 10
11.0879865324
 20
21.5840019067
 10
11.0756864414
 20
21.6103133069
 10
11.0618769397
 20
21.6358677406
 10
11.0466046997
 20
21.6605788404
 10
11.0299213378
 20
21.6843630887
 10
11.0118832395
 20
21.7071401006
 10
10.9925513688
 20
21.7288328954
 10
10.9719910627
 20
21.7493681568
 10
10.9502718098
 20
21.7686764806
 10
10.9274670157
 20
21.7866926093
 10
10.9036537549
 20
21.8033556529
 10
10.8789125102
 20
21.8186092942
 10
10.853326901
 20
21.8324019796
 10
10.8269834001
 20
21.8446870933
 10
10.7999710421
 20
21.8554231144
 10
10.7723811222
 20
21.8645737577
 10
10.7443068873
 20
21.8721080964
 10
10.7158432217
 20
21.8780006661
 10
10.6870863253
 20
21.8822315514
 10
10.6581333895
 20
21.8847864528
 10
10.6290822679
 20
21.8856567355
  0
LWPOLYLINE
  5
3ED
100
AcDbEntity
  8
ASSI
100
AcDbPolyline
 62
250
  6
CONTINUOUS
 90
28
 70
0
 10
11.1290061154
 20
21.3863419682
 10
11.1281347721
 20
21.4153576798
 10
11.1255767567
 20
21.4442753265
 10
11.1213407146
 20
21.4729971737
 10
11.1154409624
 20
21.5014261488
 10
11.1078974397
 20
21.5294661691
 10
11.0987356416
 20
21.5570224661
 10
11.0879865324
 20
21.5840019067
 10
11.0756864414
 20
21.6103133069
 10
11.0618769397
 20
21.6358677406
 10
11.0466046997
 20
21.6605788404
 10
11.0299213378
 20
21.6843630887
 10
11.0118832395
 20
21.7071401006
 10
10.9925513688
 20
21.7288328954
 10
10.9719910627
 20
21.7493681568
 10
10.9502718098
 20
21.7686764806
 10
10.9274670157
 20
21.7866926093
 10
10.9036537549
 20
21.8033556529
 10
10.8789125102
 20
21.8186092942
 10
10.853326901
 20
21.8324019796
 10
10.8269834001
 20
21.8446870933
 10
10.7999710421
 20
21.8554231144
 10
10.7723811222
 20
21.8645737577
 10
10.7443068873
 20
21.8721080964
 10
10.7158432217
 20
21.8780006661
 10
10.6870863253
 20
21.8822315514
 10
10.6581333895
 20
21.8847864528
 10
10.6290822679
 20
21.8856567355
  0
LINE
  5
3EE
100
AcDbEntity
  8
RACCORDO
100
AcDbLine
 62
250
  6
CONTINUOUS
 10
11.1196799099
 20
-21.4236964413
 11
11.1208736396
 21
-21.4690814906
  0
LINE
  5
3EF
100
AcDbEntity
  8
ASSI
100
AcDbLine
 62
250
  6
CONTINUOUS
 10
11.1196799099
 20
-21.4236964413
 11
11.1208736396
 21
-21.4690814906
  0
LINE
  5
3F0
100
AcDbEntity
  8
RACCORDO
100
AcDbLine
 62
250
  6
CONTINUOUS
 10
11.1180214039
 20
-21.3455222543
 11
11.1196799099
 21
-21.4236964413
  0
LINE
  5
3F1
100
AcDbEntity
  8
ASSI
100
AcDbLine
 62
250
  6
CONTINUOUS
 10
11.1180214039
 20
-21.3455222543
 11
11.1196799099
 21
-21.4236964413
  0
LINE
  5
3F2
100
AcDbEntity
  8
RACCORDO
100
AcDbLine
 62
250
  6
CONTINUOUS
 10
10.618632204
 20
-21.7524147395
 11
10.6209497278
 21
-21.8966937237
  0
LINE
  5
3F3
100
AcDbEntity
  8
ASSI
100
AcDbLine
 62
250
  6
CONTINUOUS
 10
10.618632204
 20
-21.7524147395
 11
10.6209497278
 21
-21.8966937237
  0
LINE
  5
3F4
100
AcDbEntity
  8
RACCORDO
100
AcDbLine
 62
250
  6
CONTINUOUS
 10
11.1160944147
 20
-21.2243097659
 11
11.1180214039
 21
-21.3455222543
  0
LINE
  5
3F5
100
AcDbEntity
  8
ASSI
100
AcDbLine
 62
250
  6
CONTINUOUS
 10
11.1160944147
 20
-21.2243097659
 11
11.1180214039
 21
-21.3455222543
  0
LINE
  5
3F6
100
AcDbEntity
  8
RACCORDO
100
AcDbLine
 62
250
  6
CONTINUOUS
 10
10.6161706646
 20
-21.5295517394
 11
10.618632204
 21
-21.7524147395
  0
LINE
  5
3F7
100
AcDbEntity
  8
ASSI
100
AcDbLine
 62
250
  6
CONTINUOUS
 10
10.6161706646
 20
-21.5295517394
 11
10.618632204
 21
-21.7524147395
  0
LINE
  5
3F8
100
AcDbEntity
  8
RACCORDO
100
AcDbLine
 62
250
  6
CONTINUOUS
 10
11.1142132298
 20
-21.0501015104
 11
11.1160944147
 21
-21.2243097659
  0
LINE
  5
3F9
100
AcDbEntity
  8
ASSI
100
AcDbLine
 62
250
  6
CONTINUOUS
 10
11.1142132298
 20
-21.0501015104
 11
11.1160944147
 21
-21.2243097659
  0
LINE
  5
3FA
100
AcDbEntity
  8
RACCORDO
100
AcDbLine
 62
250
  6
CONTINUOUS
 10
10.6134732449
 20
-21.0975861664
 11
10.6161706646
 21
-21.5295517394
  0
LINE
  5
3FB
100
AcDbEntity
  8
ASSI
100
AcDbLine
 62
250
  6
CONTINUOUS
 10
10.6134732449
 20
-21.0975861664
 11
10.6161706646
 21
-21.5295517394
  0
LINE
  5
3FC
100
AcDbEntity
  8
RACCORDO
100
AcDbLine
 62
250
  6
CONTINUOUS
 10
11.1128308831
 20
-20.8176177208
 11
11.1142132298
 21
-21.0501015104
  0
LINE
  5
3FD
100
AcDbEntity
  8
ASSI
100
AcDbLine
 62
250
  6
CONTINUOUS
 10
11.1128308831
 20
-20.8176177208
 11
11.1142132298
 21
-21.0501015104
  0
LINE
  5
3FE
100
AcDbEntity
  8
RACCORDO
100
AcDbLine
 62
7
  6
CONTINUOUS
 10
11.196021994
 20
12.9869315136
 11
11.1829477567
 21
21.5482984915
  0
LINE
  5
3FF
100
AcDbEntity
  8
ASSI
100
AcDbLine
 62
7
  6
CONTINUOUS
 10
11.196021994
 20
12.9869315136
 11
11.1829477567
 21
21.5482984915
  0
LINE
  5
400
100
AcDbEntity
  8
RACCORDO
100
AcDbLine
 62
250
  6
CONTINUOUS
 10
10.6125554728
 20
-20.6755163168
 11
10.6134732449
 21
-21.0975861664
  0
LINE
  5
401
100
AcDbEntity
  8
ASSI
100
AcDbLine
 62
250
  6
CONTINUOUS
 10
10.6125554728
 20
-20.6755163168
 11
10.6134732449
 21
-21.0975861664
  0
LINE
  5
402
100
AcDbEntity
  8
RACCORDO
100
AcDbLine
 62
250
  6
CONTINUOUS
 10
10.6103365719
 20
-17.3077613117
 11
10.6125554843
 21
-20.6755163168
  0
LINE
  5
403
100
AcDbEntity
  8
ASSI
100
AcDbLine
 62
250
  6
CONTINUOUS
 10
10.6103365719
 20
-17.3077613117
 11
10.6125554843
 21
-20.6755163168
  0
LWPOLYLINE
  5
404
100
AcDbEntity
  8
RACCORDO
100
AcDbPolyline
 62
250
  6
CONTINUOUS
 90
3
 70
0
 10
11.110260185
 20
-17.2901505339
 10
11.111320257
 20
-18.9726309622
 10
11.1128308831
 20
-20.8176177208
  0
LWPOLYLINE
  5
405
100
AcDbEntity
  8
ASSI
100
AcDbPolyline
 62
250
  6
CONTINUOUS
 90
3
 70
0
 10
11.110260185
 20
-17.2901505339
 10
11.111320257
 20
-18.9726309622
 10
11.1128308831
 20
-20.8176177208
  0
LINE
  5
406
100
AcDbEntity
  8
RACCORDO
100
AcDbLine
 62
250
  6
CONTINUOUS
 10
10.6070866417
 20
-10.5705021986
 11
10.6103365719
 21
-17.3077613117
  0
LINE
  5
407
100
AcDbEntity
  8
ASSI
100
AcDbLine
 62
250
  6
CONTINUOUS
 10
10.6070866417
 20
-10.5705021986
 11
10.6103365719
 21
-17.3077613117
  0
LINE
  5
408
100
AcDbEntity
  8
RACCORDO
100
AcDbLine
 62
250
  6
CONTINUOUS
 10
11.1070100561
 20
-10.5588583453
 11
11.110260185
 21
-17.2901505339
  0
LINE
  5
409
100
AcDbEntity
  8
ASSI
100
AcDbLine
 62
250
  6
CONTINUOUS
 10
11.1070100561
 20
-10.5588583453
 11
11.110260185
 21
-17.2901505339
  0
LINE
  5
40A
100
AcDbEntity
  8
RACCORDO
100
AcDbLine
 62
250
  6
CONTINUOUS
 10
10.6054169341
 20
-3.831348528
 11
10.6070866417
 21
-10.5705021986
  0
LINE
  5
40B
100
AcDbEntity
  8
ASSI
100
AcDbLine
 62
250
  6
CONTINUOUS
 10
10.6054169341
 20
-3.831348528
 11
10.6070866417
 21
-10.5705021986
  0
LINE
  5
40C
100
AcDbEntity
  8
RACCORDO
100
AcDbLine
 62
250
  6
CONTINUOUS
 10
11.1053442501
 20
-3.8256800044
 11
11.1070100561
 21
-10.5588583453
  0
LINE
  5
40D
100
AcDbEntity
  8
ASSI
100
AcDbLine
 62
250
  6
CONTINUOUS
 10
11.1053442501
 20
-3.8256800044
 11
11.1070100561
 21
-10.5588583453
  0
LINE
  5
40E
100
AcDbEntity
  8
RACCORDO
100
AcDbLine
 62
250
  6
CONTINUOUS
 10
10.6054169341
 20
-3.831348528
 11
10.6051816059
 21
-0.261080433
  0
LINE
  5
40F
100
AcDbEntity
  8
ASSI
100
AcDbLine
 62
250
  6
CONTINUOUS
 10
10.6054169341
 20
-3.831348528
 11
10.6051816059
 21
-0.261080433
  0
LINE
  5
410
100
AcDbEntity
  8
RACCORDO
100
AcDbLine
 62
250
  6
CONTINUOUS
 10
11.105105715
 20
-0.4585003187
 11
11.1053442501
 21
-3.8256800044
  0
LINE
  5
411
100
AcDbEntity
  8
ASSI
100
AcDbLine
 62
250
  6
CONTINUOUS
 10
11.105105715
 20
-0.4585003187
 11
11.1053442501
 21
-3.8256800044
  0
LINE
  5
412
100
AcDbEntity
  8
RACCORDO
100
AcDbLine
 62
7
  6
CONTINUOUS
 10
11.196021994
 20
-0.4130456411
 11
11.196021994
 21
-13.2130684864
  0
LINE
  5
413
100
AcDbEntity
  8
ASSI
100
AcDbLine
 62
7
  6
CONTINUOUS
 10
11.196021994
 20
-0.4130456411
 11
11.196021994
 21
-13.2130684864
  0
LINE
  5
414
100
AcDbEntity
  8
RACCORDO
100
AcDbLine
 62
7
  6
CONTINUOUS
 10
11.196021994
 20
0.1869086683
 11
11.196021994
 21
12.9869315136
  0
LINE
  5
415
100
AcDbEntity
  8
ASSI
100
AcDbLine
 62
7
  6
CONTINUOUS
 10
11.196021994
 20
0.1869086683
 11
11.196021994
 21
12.9869315136
  0
LINE
  5
416
100
AcDbEntity
  8
RACCORDO
100
AcDbLine
 62
250
  6
CONTINUOUS
 10
10.6054169341
 20
3.6052115551
 11
10.6051816059
 21
0.0349434602
  0
LINE
  5
417
100
AcDbEntity
  8
ASSI
100
AcDbLine
 62
250
  6
CONTINUOUS
 10
10.6054169341
 20
3.6052115551
 11
10.6051816059
 21
0.0349434602
  0
LINE
  5
418
100
AcDbEntity
  8
RACCORDO
100
AcDbLine
 62
250
  6
CONTINUOUS
 10
11.1053442501
 20
3.5995430315
 11
11.105105715
 21
0.2323633458
  0
LINE
  5
419
100
AcDbEntity
  8
ASSI
100
AcDbLine
 62
250
  6
CONTINUOUS
 10
11.1053442501
 20
3.5995430315
 11
11.105105715
 21
0.2323633458
  0
LINE
  5
41A
100
AcDbEntity
  8
RACCORDO
100
AcDbLine
 62
250
  6
CONTINUOUS
 10
10.6065222414
 20
8.659738542
 11
10.6054169341
 21
3.6052115551
  0
LINE
  5
41B
100
AcDbEntity
  8
ASSI
100
AcDbLine
 62
250
  6
CONTINUOUS
 10
10.6065222414
 20
8.659738542
 11
10.6054169341
 21
3.6052115551
  0
LINE
  5
41C
100
AcDbEntity
  8
RACCORDO
100
AcDbLine
 62
250
  6
CONTINUOUS
 10
11.1064450441
 20
8.6495874265
 11
11.1053442501
 21
3.5995430315
  0
LINE
  5
41D
100
AcDbEntity
  8
ASSI
100
AcDbLine
 62
250
  6
CONTINUOUS
 10
11.1064450441
 20
8.6495874265
 11
11.1053442501
 21
3.5995430315
  0
LINE
  5
41E
100
AcDbEntity
  8
RACCORDO
100
AcDbLine
 62
250
  6
CONTINUOUS
 10
10.6103365719
 20
17.081624339
 11
10.6065222414
 21
8.659738542
  0
LINE
  5
41F
100
AcDbEntity
  8
ASSI
100
AcDbLine
 62
250
  6
CONTINUOUS
 10
10.6103365719
 20
17.081624339
 11
10.6065222414
 21
8.659738542
  0
LINE
  5
420
100
AcDbEntity
  8
RACCORDO
100
AcDbLine
 62
250
  6
CONTINUOUS
 10
11.110260185
 20
17.0640135611
 11
11.1064450441
 21
8.6495874265
  0
LINE
  5
421
100
AcDbEntity
  8
ASSI
100
AcDbLine
 62
250
  6
CONTINUOUS
 10
11.110260185
 20
17.0640135611
 11
11.1064450441
 21
8.6495874265
  0
LINE
  5
422
100
AcDbEntity
  8
RACCORDO
100
AcDbLine
 62
7
  6
CONTINUOUS
 10
11.196021994
 20
-13.2130684864
 11
11.1829477567
 21
-21.7744354644
  0
LINE
  5
423
100
AcDbEntity
  8
ASSI
100
AcDbLine
 62
7
  6
CONTINUOUS
 10
11.196021994
 20
-13.2130684864
 11
11.1829477567
 21
-21.7744354644
  0
LINE
  5
424
100
AcDbEntity
  8
RACCORDO
100
AcDbLine
 62
250
  6
CONTINUOUS
 10
10.6139904117
 20
20.9862244405
 11
10.6103365719
 21
17.081624339
  0
LINE
  5
425
100
AcDbEntity
  8
ASSI
100
AcDbLine
 62
250
  6
CONTINUOUS
 10
10.6139904117
 20
20.9862244405
 11
10.6103365719
 21
17.081624339
  0
LINE
  5
426
100
AcDbEntity
  8
RACCORDO
100
AcDbLine
 62
250
  6
CONTINUOUS
 10
11.1131800348
 20
20.6710790308
 11
11.110260185
 21
17.0640135611
  0
LINE
  5
427
100
AcDbEntity
  8
ASSI
100
AcDbLine
 62
250
  6
CONTINUOUS
 10
11.1131800348
 20
20.6710790308
 11
11.110260185
 21
17.0640135611
  0
LINE
  5
428
100
AcDbEntity
  8
RACCORDO
100
AcDbLine
 62
250
  6
CONTINUOUS
 10
10.6166192685
 20
21.3513853318
 11
10.6139904117
 21
20.9862244405
  0
LINE
  5
429
100
AcDbEntity
  8
ASSI
100
AcDbLine
 62
250
  6
CONTINUOUS
 10
10.6166192685
 20
21.3513853318
 11
10.6139904117
 21
20.9862244405
  0
LINE
  5
42A
100
AcDbEntity
  8
RACCORDO
100
AcDbLine
 62
250
  6
CONTINUOUS
 10
11.11489052
 20
20.8962870676
 11
11.1131800348
 21
20.6710790308
  0
LINE
  5
42B
100
AcDbEntity
  8
ASSI
100
AcDbLine
 62
250
  6
CONTINUOUS
 10
11.11489052
 20
20.8962870676
 11
11.1131800348
 21
20.6710790308
  0
LINE
  5
42C
100
AcDbEntity
  8
RACCORDO
100
AcDbLine
 62
250
  6
CONTINUOUS
 10
10.6191849893
 20
21.5653842296
 11
10.6166192685
 21
21.3513853318
  0
LINE
  5
42D
100
AcDbEntity
  8
ASSI
100
AcDbLine
 62
250
  6
CONTINUOUS
 10
10.6191849893
 20
21.5653842296
 11
10.6166192685
 21
21.3513853318
  0
LINE
  5
42E
100
AcDbEntity
  8
RACCORDO
100
AcDbLine
 62
250
  6
CONTINUOUS
 10
11.1165430287
 20
21.0301341167
 11
11.11489052
 21
20.8962870676
  0
LINE
  5
42F
100
AcDbEntity
  8
ASSI
100
AcDbLine
 62
250
  6
CONTINUOUS
 10
11.1165430287
 20
21.0301341167
 11
11.11489052
 21
20.8962870676
  0
LINE
  5
430
100
AcDbEntity
  8
RACCORDO
100
AcDbLine
 62
250
  6
CONTINUOUS
 10
10.6209497278
 20
21.6705567515
 11
10.6191849893
 21
21.5653842296
  0
LINE
  5
431
100
AcDbEntity
  8
ASSI
100
AcDbLine
 62
250
  6
CONTINUOUS
 10
10.6209497278
 20
21.6705567515
 11
10.6191849893
 21
21.5653842296
  0
LINE
  5
432
100
AcDbEntity
  8
RACCORDO
100
AcDbLine
 62
250
  6
CONTINUOUS
 10
11.1185560287
 20
21.1467664739
 11
11.1165430287
 21
21.0301341167
  0
LINE
  5
433
100
AcDbEntity
  8
ASSI
100
AcDbLine
 62
250
  6
CONTINUOUS
 10
11.1185560287
 20
21.1467664739
 11
11.1165430287
 21
21.0301341167
  0
LINE
  5
434
100
AcDbEntity
  8
RACCORDO
100
AcDbLine
 62
250
  6
CONTINUOUS
 10
11.1202691662
 20
21.2209712723
 11
11.1185560287
 21
21.1467664739
  0
LINE
  5
435
100
AcDbEntity
  8
ASSI
100
AcDbLine
 62
250
  6
CONTINUOUS
 10
11.1202691662
 20
21.2209712723
 11
11.1185560287
 21
21.1467664739
  0
LWPOLYLINE
  5
436
100
AcDbEntity
  8
RACCORDO
100
AcDbPolyline
 62
250
  6
CONTINUOUS
 90
28
 70
0
 10
11.1290061154
 20
-21.612478941
 10
11.1281347715
 20
-21.641494662
 10
11.1255767546
 20
-21.6704123171
 10
11.1213407101
 20
-21.6991341718
 10
11.1154409549
 20
-21.7275631534
 10
11.1078974286
 20
-21.7556031791
 10
11.0987356264
 20
-21.7831594805
 10
11.0879865131
 20
-21.8101389244
 10
11.0756864178
 20
-21.8364503267
 10
11.0618769119
 20
-21.8620047616
 10
11.046604668
 20
-21.8867158615
 10
11.0299213025
 20
-21.910500109
 10
11.011883201
 20
-21.9332771193
 10
10.9925513279
 20
-21.9549699117
 10
10.97199102
 20
-21.97550517
 10
10.950271766
 20
-21.9948134902
 10
10.9274669716
 20
-22.012829615
 10
10.9036537114
 20
-22.0294926544
 10
10.8789124681
 20
-22.0447462914
 10
10.853326861
 20
-22.0585389726
 10
10.8269833632
 20
-22.0708240821
 10
10.799971009
 20
-22.0815600993
 10
10.7723810935
 20
-22.0907107392
 10
10.7443068636
 20
-22.0982450749
 10
10.7158432034
 20
-22.1041376422
 10
10.6870863129
 20
-22.1083685257
 10
10.6581333831
 20
-22.1109234261
 10
10.6290822679
 20
-22.1117937084
  0
LWPOLYLINE
  5
437
100
AcDbEntity
  8
ASSI
100
AcDbPolyline
 62
250
  6
CONTINUOUS
 90
28
 70
0
 10
11.1290061154
 20
-21.612478941
 10
11.1281347715
 20
-21.641494662
 10
11.1255767546
 20
-21.6704123171
 10
11.1213407101
 20
-21.6991341718
 10
11.1154409549
 20
-21.7275631534
 10
11.1078974286
 20
-21.7556031791
 10
11.0987356264
 20
-21.7831594805
 10
11.0879865131
 20
-21.8101389244
 10
11.0756864178
 20
-21.8364503267
 10
11.0618769119
 20
-21.8620047616
 10
11.046604668
 20
-21.8867158615
 10
11.0299213025
 20
-21.910500109
 10
11.011883201
 20
-21.9332771193
 10
10.9925513279
 20
-21.9549699117
 10
10.97199102
 20
-21.97550517
 10
10.950271766
 20
-21.9948134902
 10
10.9274669716
 20
-22.012829615
 10
10.9036537114
 20
-22.0294926544
 10
10.8789124681
 20
-22.0447462914
 10
10.853326861
 20
-22.0585389726
 10
10.8269833632
 20
-22.0708240821
 10
10.799971009
 20
-22.0815600993
 10
10.7723810935
 20
-22.0907107392
 10
10.7443068636
 20
-22.0982450749
 10
10.7158432034
 20
-22.1041376422
 10
10.6870863129
 20
-22.1083685257
 10
10.6581333831
 20
-22.1109234261
 10
10.6290822679
 20
-22.1117937084
  0
LINE
  5
438
100
AcDbEntity
  8
RACCORDO
100
AcDbLine
 62
250
  6
CONTINUOUS
 10
11.1214934057
 20
21.26347199
 11
11.1202691662
 21
21.2209712723
  0
LINE
  5
439
100
AcDbEntity
  8
ASSI
100
AcDbLine
 62
250
  6
CONTINUOUS
 10
11.1214934057
 20
21.26347199
 11
11.1202691662
 21
21.2209712723
  0
LWPOLYLINE
  5
43A
100
AcDbEntity
  8
RACCORDO
100
AcDbPolyline
 62
250
  6
CONTINUOUS
 90
22
 70
0
 10
11.1051054249
 20
0.2323634908
 10
11.1045441022
 20
0.2174194874
 10
11.102867824
 20
0.2025590407
 10
11.1000859629
 20
0.1878652403
 10
11.0962140732
 20
0.1734202439
 10
11.0912738038
 20
0.1593048181
 10
11.0852927775
 20
0.1455978869
 10
11.078304436
 20
0.1323760901
 10
11.0703478535
 20
0.1197133551
 10
11.0614675177
 20
0.1076804832
 10
11.0517130814
 20
0.0963447541
 10
11.0411390849
 20
0.0857695495
 10
11.0298046507
 20
0.0760139989
 10
11.0177731533
 20
0.0671326485
 10
11.0051118648
 20
0.059175157
 10
10.9918915783
 20
0.0521860171
 10
10.9781862129
 20
0.0462043075
 10
10.9640723996
 20
0.0412634737
 10
10.9496290533
 20
0.0373911417
 10
10.9349369314
 20
0.0346089628
 10
10.9200781822
 20
0.0329324931
 10
10.9051358859
 20
0.0323711062
  0
LWPOLYLINE
  5
43B
100
AcDbEntity
  8
ASSI
100
AcDbPolyline
 62
250
  6
CONTINUOUS
 90
22
 70
0
 10
11.1051054249
 20
0.2323634908
 10
11.1045441022
 20
0.2174194874
 10
11.102867824
 20
0.2025590407
 10
11.1000859629
 20
0.1878652403
 10
11.0962140732
 20
0.1734202439
 10
11.0912738038
 20
0.1593048181
 10
11.0852927775
 20
0.1455978869
 10
11.078304436
 20
0.1323760901
 10
11.0703478535
 20
0.1197133551
 10
11.0614675177
 20
0.1076804832
 10
11.0517130814
 20
0.0963447541
 10
11.0411390849
 20
0.0857695495
 10
11.0298046507
 20
0.0760139989
 10
11.0177731533
 20
0.0671326485
 10
11.0051118648
 20
0.059175157
 10
10.9918915783
 20
0.0521860171
 10
10.9781862129
 20
0.0462043075
 10
10.9640723996
 20
0.0412634737
 10
10.9496290533
 20
0.0373911417
 10
10.9349369314
 20
0.0346089628
 10
10.9200781822
 20
0.0329324931
 10
10.9051358859
 20
0.0323711062
  0
LINE
  5
43C
100
AcDbEntity
  8
CURVE
100
AcDbLine
 62
250
  6
CONTINUOUS
 10
0.046021994
 20
-15.6130684864
 11
4.546021994
 21
-11.1130684864
  0
LINE
  5
43D
100
AcDbEntity
  8
CURVE
100
AcDbLine
 62
250
  6
CONTINUOUS
 10
-4.453978006
 20
10.8869315136
 11
4.546021994
 21
10.8869315136
  0
LINE
  5
43E
100
AcDbEntity
  8
CURVE
100
AcDbLine
 62
250
  6
CONTINUOUS
 10
4.546021994
 20
10.8869315136
 11
0.046021994
 21
15.3869315136
  0
LWPOLYLINE
  5
43F
100
AcDbEntity
  8
0
100
AcDbPolyline
 62
7
  6
CONTINUOUS
 90
10
 70
0
 43
0.3500000006
 10
1.1174505472
 20
31.3063311768
 10
1.1888791809
 20
31.1634733429
 10
1.1888791809
 20
31.09204216
 10
1.0460219843
 20
30.949188858
 10
0.9745934215
 20
30.949188858
 10
0.9031648586
 20
31.020615509
 10
0.9031648586
 20
31.09204216
 10
0.9745934215
 20
31.2348999939
 10
1.0460219843
 20
31.3063311768
 10
1.1174505472
 20
31.3063311768
  0
LWPOLYLINE
  5
440
100
AcDbEntity
  8
0
100
AcDbPolyline
 62
7
  6
CONTINUOUS
 90
5
 70
0
 43
0.3500000006
 10
16.7561231232
 20
2.8869306793
 10
16.5418375053
 20
3.244075264
 10
15.8989806519
 20
3.244075264
 10
15.4704082832
 20
2.8869306793
 10
15.4704082832
 20
2.029788208
  0
LWPOLYLINE
  5
441
100
AcDbEntity
  8
0
100
AcDbPolyline
 62
7
  6
CONTINUOUS
 90
3
 70
0
 43
0.3500000006
 10
17.8275512123
 20
-0.5416392059
 10
17.8275512123
 20
-2.0416396637
 10
15.4704082832
 20
-1.3987828102
  0
LWPOLYLINE
  5
442
100
AcDbEntity
  8
0
100
AcDbPolyline
 62
7
  6
CONTINUOUS
 90
3
 70
0
 43
0.3500000006
 10
17.8275512123
 20
-2.898783268
 10
17.8275512123
 20
-4.3987825928
 10
15.4704082832
 20
-3.7559257393
  0
LWPOLYLINE
  5
443
100
AcDbEntity
  8
0
100
AcDbPolyline
 62
7
  6
CONTINUOUS
 90
6
 70
0
 43
0.3500000006
 10
18.4704091988
 20
2.029788208
 10
18.4704091988
 20
3.1012174301
 10
18.2561235809
 20
3.315501915
 10
17.1846943588
 20
3.315501915
 10
16.7561231232
 20
2.8869306793
 10
16.7561231232
 20
2.4583594437
  0
LINE
  5
444
100
AcDbEntity
  8
RACCORDO
100
AcDbLine
 62
7
  6
CONTINUOUS
 10
7.854446987
 20
22.0462442193
 11
7.503757021
 21
22.0144110613
  0
LINE
  5
445
100
AcDbEntity
  8
ASSI
100
AcDbLine
 62
7
  6
CONTINUOUS
 10
7.854446987
 20
22.0462442193
 11
7.503757021
 21
22.0144110613
  0
LINE
  5
446
100
AcDbEntity
  8
RACCORDO
100
AcDbLine
 62
250
  6
CONTINUOUS
 10
-10.8605664325
 20
20.4436680095
 11
-10.8162337334
 21
20.4452057102
  0
LINE
  5
447
100
AcDbEntity
  8
ASSI
100
AcDbLine
 62
250
  6
CONTINUOUS
 10
-10.8605664325
 20
20.4436680095
 11
-10.8162337334
 21
20.4452057102
  0
LINE
  5
448
100
AcDbEntity
  8
RACCORDO
100
AcDbLine
 62
250
  6
CONTINUOUS
 10
-10.8162337334
 20
20.4452057102
 11
-10.7679901061
 21
20.4465269393
  0
LINE
  5
449
100
AcDbEntity
  8
ASSI
100
AcDbLine
 62
250
  6
CONTINUOUS
 10
-10.8162337334
 20
20.4452057102
 11
-10.7679901061
 21
20.4465269393
  0
LINE
  5
44A
100
AcDbEntity
  8
RACCORDO
100
AcDbLine
 62
250
  6
CONTINUOUS
 10
-10.7679901061
 20
20.4465269393
 11
-10.7164735729
 21
20.4476142236
  0
LINE
  5
44B
100
AcDbEntity
  8
ASSI
100
AcDbLine
 62
250
  6
CONTINUOUS
 10
-10.7679901061
 20
20.4465269393
 11
-10.7164735729
 21
20.4476142236
  0
LINE
  5
44C
100
AcDbEntity
  8
RACCORDO
100
AcDbLine
 62
250
  6
CONTINUOUS
 10
-10.7164735729
 20
20.4476142236
 11
-10.6623654403
 21
20.4484531836
  0
LINE
  5
44D
100
AcDbEntity
  8
ASSI
100
AcDbLine
 62
250
  6
CONTINUOUS
 10
-10.7164735729
 20
20.4476142236
 11
-10.6623654403
 21
20.4484531836
  0
LINE
  5
44E
100
AcDbEntity
  8
RACCORDO
100
AcDbLine
 62
250
  6
CONTINUOUS
 10
-10.6623654403
 20
20.4484531836
 11
-10.6063812886
 21
20.4490327242
  0
LINE
  5
44F
100
AcDbEntity
  8
ASSI
100
AcDbLine
 62
250
  6
CONTINUOUS
 10
-10.6623654403
 20
20.4484531836
 11
-10.6063812886
 21
20.4490327242
  0
LINE
  5
450
100
AcDbEntity
  8
RACCORDO
100
AcDbLine
 62
250
  6
CONTINUOUS
 10
-10.6063812886
 20
20.4490327242
 11
-10.5492615086
 21
20.4493451809
  0
LINE
  5
451
100
AcDbEntity
  8
ASSI
100
AcDbLine
 62
250
  6
CONTINUOUS
 10
-10.6063812886
 20
20.4490327242
 11
-10.5492615086
 21
20.4493451809
  0
LINE
  5
452
100
AcDbEntity
  8
RACCORDO
100
AcDbLine
 62
250
  6
CONTINUOUS
 10
-10.5492615086
 20
20.4493451809
 11
10.6125554728
 21
20.4493793445
  0
LINE
  5
453
100
AcDbEntity
  8
ASSI
100
AcDbLine
 62
250
  6
CONTINUOUS
 10
-10.5492615086
 20
20.4493451809
 11
10.6125554728
 21
20.4493793445
  0
LINE
  5
454
100
AcDbEntity
  8
RACCORDO
100
AcDbLine
 62
250
  6
CONTINUOUS
 10
10.6699603871
 20
20.4492226963
 11
10.6125554972
 21
20.4493998384
  0
LINE
  5
455
100
AcDbEntity
  8
ASSI
100
AcDbLine
 62
250
  6
CONTINUOUS
 10
10.6699603871
 20
20.4492226963
 11
10.6125554972
 21
20.4493998384
  0
LINE
  5
456
100
AcDbEntity
  8
RACCORDO
100
AcDbLine
 62
250
  6
CONTINUOUS
 10
10.7266060962
 20
20.4487759579
 11
10.6699603871
 21
20.4492226963
  0
LINE
  5
457
100
AcDbEntity
  8
ASSI
100
AcDbLine
 62
250
  6
CONTINUOUS
 10
10.7266060962
 20
20.4487759579
 11
10.6699603871
 21
20.4492226963
  0
LINE
  5
458
100
AcDbEntity
  8
RACCORDO
100
AcDbLine
 62
250
  6
CONTINUOUS
 10
10.7817434842
 20
20.4480655314
 11
10.7266060962
 21
20.4487759579
  0
LINE
  5
459
100
AcDbEntity
  8
ASSI
100
AcDbLine
 62
250
  6
CONTINUOUS
 10
10.7817434842
 20
20.4480655314
 11
10.7266060962
 21
20.4487759579
  0
LINE
  5
45A
100
AcDbEntity
  8
RACCORDO
100
AcDbLine
 62
250
  6
CONTINUOUS
 10
10.8346433581
 20
20.447100812
 11
10.7817434842
 21
20.4480655314
  0
LINE
  5
45B
100
AcDbEntity
  8
ASSI
100
AcDbLine
 62
250
  6
CONTINUOUS
 10
10.8346433581
 20
20.447100812
 11
10.7817434842
 21
20.4480655314
  0
LINE
  5
45C
100
AcDbEntity
  8
RACCORDO
100
AcDbLine
 62
250
  6
CONTINUOUS
 10
10.8846061161
 20
20.4458945584
 11
10.8346433581
 21
20.447100812
  0
LINE
  5
45D
100
AcDbEntity
  8
ASSI
100
AcDbLine
 62
250
  6
CONTINUOUS
 10
10.8846061161
 20
20.4458945584
 11
10.8346433581
 21
20.447100812
  0
LINE
  5
45E
100
AcDbEntity
  8
RACCORDO
100
AcDbLine
 62
7
  6
CONTINUOUS
 10
-7.7624029989
 20
22.0462442193
 11
-7.4117130329
 21
22.0144110613
  0
LINE
  5
45F
100
AcDbEntity
  8
ASSI
100
AcDbLine
 62
7
  6
CONTINUOUS
 10
-7.7624029989
 20
22.0462442193
 11
-7.4117130329
 21
22.0144110613
  0
LWPOLYLINE
  5
460
100
AcDbEntity
  8
RACCORDO
100
AcDbPolyline
 62
250
  6
CONTINUOUS
 90
15
 70
0
 10
11.1124793448
 20
-20.6549743429
 10
11.1111508719
 20
-20.6561568648
 10
11.1081725525
 20
-20.6573354738
 10
11.1035542418
 20
-20.6585062697
 10
11.0973112217
 20
-20.6596653784
 10
11.0894641503
 20
-20.6608089645
 10
11.0800389934
 20
-20.6619332439
 10
11.0690669389
 20
-20.6630344963
 10
11.0565842931
 20
-20.6641090777
 10
11.0426323609
 20
-20.6651534323
 10
11.0272573092
 20
-20.6661641043
 10
11.0105100137
 20
-20.6671377495
 10
10.9924458913
 20
-20.6680711461
 10
10.9731247157
 20
-20.6689612054
 10
10.9526104206
 20
-20.6698049823
  0
LWPOLYLINE
  5
461
100
AcDbEntity
  8
ASSI
100
AcDbPolyline
 62
250
  6
CONTINUOUS
 90
15
 70
0
 10
11.1124793448
 20
-20.6549743429
 10
11.1111508719
 20
-20.6561568648
 10
11.1081725525
 20
-20.6573354738
 10
11.1035542418
 20
-20.6585062697
 10
11.0973112217
 20
-20.6596653784
 10
11.0894641503
 20
-20.6608089645
 10
11.0800389934
 20
-20.6619332439
 10
11.0690669389
 20
-20.6630344963
 10
11.0565842931
 20
-20.6641090777
 10
11.0426323609
 20
-20.6651534323
 10
11.0272573092
 20
-20.6661641043
 10
11.0105100137
 20
-20.6671377495
 10
10.9924458913
 20
-20.6680711461
 10
10.9731247157
 20
-20.6689612054
 10
10.9526104206
 20
-20.6698049823
  0
LINE
  5
462
100
AcDbEntity
  8
RACCORDO
100
AcDbLine
 62
7
  6
CONTINUOUS
 10
-3.345553013
 20
22.0462442193
 11
-3.696242979
 21
22.0144110613
  0
LINE
  5
463
100
AcDbEntity
  8
ASSI
100
AcDbLine
 62
7
  6
CONTINUOUS
 10
-3.345553013
 20
22.0462442193
 11
-3.696242979
 21
22.0144110613
  0
LINE
  5
464
100
AcDbEntity
  8
RACCORDO
100
AcDbLine
 62
250
  6
CONTINUOUS
 10
-10.5370385821
 20
21.8856576432
 11
10.6290825702
 21
21.8856576432
  0
LINE
  5
465
100
AcDbEntity
  8
ASSI
100
AcDbLine
 62
250
  6
CONTINUOUS
 10
-10.5370385821
 20
21.8856576432
 11
10.6290825702
 21
21.8856576432
  0
LINE
  5
466
100
AcDbEntity
  8
RACCORDO
100
AcDbLine
 62
7
  6
CONTINUOUS
 10
7.3305519402
 20
22.0091702834
 11
3.9614920479
 21
22.0091702834
  0
LINE
  5
467
100
AcDbEntity
  8
ASSI
100
AcDbLine
 62
7
  6
CONTINUOUS
 10
7.3305519402
 20
22.0091702834
 11
3.9614920479
 21
22.0091702834
  0
LINE
  5
468
100
AcDbEntity
  8
RACCORDO
100
AcDbLine
 62
7
  6
CONTINUOUS
 10
-3.8694480598
 20
22.0091702834
 11
-7.2385079521
 21
22.0091702834
  0
LINE
  5
469
100
AcDbEntity
  8
ASSI
100
AcDbLine
 62
7
  6
CONTINUOUS
 10
-3.8694480598
 20
22.0091702834
 11
-7.2385079521
 21
22.0091702834
  0
LINE
  5
46A
100
AcDbEntity
  8
RACCORDO
100
AcDbLine
 62
7
  6
CONTINUOUS
 10
10.6825679334
 20
22.0462442193
 11
7.854446987
 21
22.0462442193
  0
LINE
  5
46B
100
AcDbEntity
  8
ASSI
100
AcDbLine
 62
7
  6
CONTINUOUS
 10
10.6825679334
 20
22.0462442193
 11
7.854446987
 21
22.0462442193
  0
LINE
  5
46C
100
AcDbEntity
  8
DRAFT
100
AcDbLine
 62
7
  6
CONTINUOUS
 10
3.4375970011
 20
22.0462442193
 11
-3.345553013
 21
22.0462442193
  0
LINE
  5
46D
100
AcDbEntity
  8
ASSI
100
AcDbLine
 62
7
  6
CONTINUOUS
 10
3.4375970011
 20
22.0462442193
 11
-3.345553013
 21
22.0462442193
  0
LINE
  5
46E
100
AcDbEntity
  8
RACCORDO
100
AcDbLine
 62
7
  6
CONTINUOUS
 10
-7.7624029989
 20
22.0462442193
 11
-10.5905239453
 21
22.0462442193
  0
LINE
  5
46F
100
AcDbEntity
  8
ASSI
100
AcDbLine
 62
7
  6
CONTINUOUS
 10
-7.7624029989
 20
22.0462442193
 11
-10.5905239453
 21
22.0462442193
  0
LWPOLYLINE
  5
470
100
AcDbEntity
  8
0
100
AcDbPolyline
 62
7
  6
CONTINUOUS
 90
7
 70
0
 43
0.3500000006
 10
-0.3825494503
 20
30.8063310242
 10
-1.882549377
 20
30.8063310242
 10
-0.3825494503
 20
32.9491849365
 10
-0.3825494503
 20
33.3777584381
 10
-0.811120863
 20
33.8063274078
 10
-1.4539779997
 20
33.8063274078
 10
-1.882549377
 20
33.1634739532
  0
LWPOLYLINE
  5
471
100
AcDbEntity
  8
0
100
AcDbPolyline
 62
7
  6
CONTINUOUS
 90
6
 70
0
 43
0.3500000006
 10
2.1888792028
 20
30.8063310242
 10
3.2603075752
 20
30.8063310242
 10
3.4745934763
 20
31.020615509
 10
3.4745934763
 20
32.0920424652
 10
3.0460219574
 20
32.5206159668
 10
2.6174504385
 20
32.5206159668
  0
LWPOLYLINE
  5
472
100
AcDbEntity
  8
0
100
AcDbPolyline
 62
7
  6
CONTINUOUS
 90
7
 70
0
 43
0.3500000006
 10
-2.7396922731
 20
30.8063310242
 10
-4.2396921644
 20
30.8063310242
 10
-2.7396922731
 20
32.9491849365
 10
-2.7396922731
 20
33.3777584381
 10
-3.168263792
 20
33.8063274078
 10
-3.8111209288
 20
33.8063274078
 10
-4.2396921644
 20
33.1634739532
  0
LINE
  5
473
100
AcDbEntity
  8
RACCORDO
100
AcDbLine
 62
7
  6
CONTINUOUS
 10
3.4375970011
 20
22.0462442193
 11
3.7882869671
 21
22.0144110613
  0
LINE
  5
474
100
AcDbEntity
  8
ASSI
100
AcDbLine
 62
7
  6
CONTINUOUS
 10
3.4375970011
 20
22.0462442193
 11
3.7882869671
 21
22.0144110613
  0
LWPOLYLINE
  5
475
100
AcDbEntity
  8
RACCORDO
100
AcDbPolyline
 62
250
  6
CONTINUOUS
 90
17
 70
0
 10
11.1124793448
 20
20.4288373701
 10
11.1111508904
 20
20.4300198926
 10
11.108172588
 20
20.4311985021
 10
11.1035542928
 20
20.4323692987
 10
11.0973112865
 20
20.4335284082
 10
11.0894642274
 20
20.434671995
 10
11.0800390812
 20
20.4357962752
 10
11.0690670357
 20
20.4368975284
 10
11.0565843972
 20
20.4379721105
 10
11.0426324708
 20
20.4390164659
 10
11.0272574233
 20
20.4400271388
 10
11.0105101305
 20
20.4410007848
 10
10.9924460091
 20
20.4419341821
 10
10.9731248331
 20
20.4428242423
 10
10.9526105361
 20
20.4436680199
 10
10.9309709999
 20
20.4444627231
 10
10.8846061161
 20
20.4458945584
  0
LWPOLYLINE
  5
476
100
AcDbEntity
  8
ASSI
100
AcDbPolyline
 62
250
  6
CONTINUOUS
 90
17
 70
0
 10
11.1124793448
 20
20.4288373701
 10
11.1111508904
 20
20.4300198926
 10
11.108172588
 20
20.4311985021
 10
11.1035542928
 20
20.4323692987
 10
11.0973112865
 20
20.4335284082
 10
11.0894642274
 20
20.434671995
 10
11.0800390812
 20
20.4357962752
 10
11.0690670357
 20
20.4368975284
 10
11.0565843972
 20
20.4379721105
 10
11.0426324708
 20
20.4390164659
 10
11.0272574233
 20
20.4400271388
 10
11.0105101305
 20
20.4410007848
 10
10.9924460091
 20
20.4419341821
 10
10.9731248331
 20
20.4428242423
 10
10.9526105361
 20
20.4436680199
 10
10.9309709999
 20
20.4444627231
 10
10.8846061161
 20
20.4458945584
  0
LINE
  5
477
100
AcDbEntity
  8
RACCORDO
100
AcDbLine
 62
7
  6
CONTINUOUS
 10
-32.4766308225
 20
-22.1117946161
 11
-29.4124564137
 21
-22.2723811922
  0
LINE
  5
478
100
AcDbEntity
  8
ASSI
100
AcDbLine
 62
7
  6
CONTINUOUS
 10
-32.4766308225
 20
-22.1117946161
 11
-29.4124564137
 21
-22.2723811922
  0
LINE
  5
479
100
AcDbEntity
  8
RACCORDO
100
AcDbLine
 62
250
  6
CONTINUOUS
 10
-32.4592063666
 20
-21.612478941
 11
-29.3688918075
 21
-21.7744354644
  0
LINE
  5
47A
100
AcDbEntity
  8
ASSI
100
AcDbLine
 62
250
  6
CONTINUOUS
 10
-32.4592063666
 20
-21.612478941
 11
-29.3688918075
 21
-21.7744354644
  0
LINE
  5
47B
100
AcDbEntity
  8
RACCORDO
100
AcDbLine
 62
250
  6
CONTINUOUS
 10
-33.8960491196
 20
-20.6754821537
 11
-33.8968748177
 21
-20.6755367945
  0
LINE
  5
47C
100
AcDbEntity
  8
ASSI
100
AcDbLine
 62
250
  6
CONTINUOUS
 10
-33.8960491196
 20
-20.6754821537
 11
-33.8968748177
 21
-20.6755367945
  0
LINE
  5
47D
100
AcDbEntity
  8
RACCORDO
100
AcDbLine
 62
250
  6
CONTINUOUS
 10
-33.8894548298
 20
-20.675169697
 11
-33.8960491196
 21
-20.6754821537
  0
LINE
  5
47E
100
AcDbEntity
  8
ASSI
100
AcDbLine
 62
250
  6
CONTINUOUS
 10
-33.8894548298
 20
-20.675169697
 11
-33.8960491196
 21
-20.6754821537
  0
LINE
  5
47F
100
AcDbEntity
  8
RACCORDO
100
AcDbLine
 62
250
  6
CONTINUOUS
 10
-33.4060244223
 20
-20.6549743429
 11
-33.8894548298
 21
-20.675169697
  0
LINE
  5
480
100
AcDbEntity
  8
ASSI
100
AcDbLine
 62
250
  6
CONTINUOUS
 10
-33.4060244223
 20
-20.6549743429
 11
-33.8894548298
 21
-20.675169697
  0
LWPOLYLINE
  5
481
100
AcDbEntity
  8
0
100
AcDbPolyline
 62
7
  6
CONTINUOUS
 90
3
 70
0
 43
0.3500000006
 10
-40.445317337
 20
31.0819587708
 10
-40.516743988
 20
30.8676742859
 10
-40.6596018219
 20
30.5819586182
  0
LINE
  5
482
100
AcDbEntity
  8
RACCORDO
100
AcDbLine
 62
250
  6
CONTINUOUS
 10
-29.0198692526
 20
-18.0465600876
 11
-29.0427449735
 21
-18.0465600935
  0
LINE
  5
483
100
AcDbEntity
  8
ASSI
100
AcDbLine
 62
250
  6
CONTINUOUS
 10
-29.0198692526
 20
-18.0465600876
 11
-29.0427449735
 21
-18.0465600935
  0
LWPOLYLINE
  5
484
100
AcDbEntity
  8
0
100
AcDbPolyline
 62
7
  6
CONTINUOUS
 90
4
 70
0
 43
0.3500000006
 10
-39.4453170319
 20
33.1533860321
 10
-39.4453170319
 20
33.7962440186
 10
-37.9453165741
 20
33.7962440186
 10
-38.8024590454
 20
30.796243103
  0
LWPOLYLINE
  5
485
100
AcDbEntity
  8
RACCORDO
100
AcDbPolyline
 62
250
  6
CONTINUOUS
 90
37
 70
0
 10
-33.4060244223
 20
-20.6549743429
 10
-33.4034824088
 20
-20.6960232369
 10
-33.399281034
 20
-20.7368020173
 10
-33.3934202979
 20
-20.7773106841
 10
-33.3858848087
 20
-20.8176177208
 10
-33.3766899582
 20
-20.8576546438
 10
-33.3658819218
 20
-20.897216003
 10
-33.3534524196
 20
-20.9362985882
 10
-33.3394097316
 20
-20.9749056095
 10
-33.3238248727
 20
-21.0128412473
 10
-33.3066902164
 20
-21.0501015104
 10
-33.2880133894
 20
-21.0866903899
 10
-33.2678882856
 20
-21.1224240398
 10
-33.2463076554
 20
-21.1572982137
 10
-33.2232787485
 20
-21.1913171579
 10
-33.1989172086
 20
-21.2243097659
 10
-33.1732161303
 20
-21.2562710889
 10
-33.146182419
 20
-21.2872060757
 10
-33.1179524346
 20
-21.3169584654
 10
-33.0885200716
 20
-21.3455222543
 10
-33.0578914354
 20
-21.3729034462
 10
-33.0262212021
 20
-21.3989637907
 10
-32.9935043256
 20
-21.4236964413
 10
-32.9597458521
 20
-21.4471082447
 10
-32.9251155959
 20
-21.4690814906
 10
-32.8896092217
 20
-21.4896089624
 10
-32.8532310649
 20
-21.5086978769
 10
-32.8161639461
 20
-21.5262521733
 10
-32.7784037903
 20
-21.5422642725
 10
-32.7399546726
 20
-21.5567417537
 10
-32.7010116391
 20
-21.5696112943
 10
-32.6615717398
 20
-21.5808646089
 10
-32.6216379248
 20
-21.5905099828
 10
-32.5814140904
 20
-21.5984989496
 10
-32.5409682019
 20
-21.6048153539
 10
-32.500232294
 20
-21.609475351
 10
-32.4592063666
 20
-21.612478941
  0
LWPOLYLINE
  5
486
100
AcDbEntity
  8
ASSI
100
AcDbPolyline
 62
250
  6
CONTINUOUS
 90
37
 70
0
 10
-33.4060244223
 20
-20.6549743429
 10
-33.4034824088
 20
-20.6960232369
 10
-33.399281034
 20
-20.7368020173
 10
-33.3934202979
 20
-20.7773106841
 10
-33.3858848087
 20
-20.8176177208
 10
-33.3766899582
 20
-20.8576546438
 10
-33.3658819218
 20
-20.897216003
 10
-33.3534524196
 20
-20.9362985882
 10
-33.3394097316
 20
-20.9749056095
 10
-33.3238248727
 20
-21.0128412473
 10
-33.3066902164
 20
-21.0501015104
 10
-33.2880133894
 20
-21.0866903899
 10
-33.2678882856
 20
-21.1224240398
 10
-33.2463076554
 20
-21.1572982137
 10
-33.2232787485
 20
-21.1913171579
 10
-33.1989172086
 20
-21.2243097659
 10
-33.1732161303
 20
-21.2562710889
 10
-33.146182419
 20
-21.2872060757
 10
-33.1179524346
 20
-21.3169584654
 10
-33.0885200716
 20
-21.3455222543
 10
-33.0578914354
 20
-21.3729034462
 10
-33.0262212021
 20
-21.3989637907
 10
-32.9935043256
 20
-21.4236964413
 10
-32.9597458521
 20
-21.4471082447
 10
-32.9251155959
 20
-21.4690814906
 10
-32.8896092217
 20
-21.4896089624
 10
-32.8532310649
 20
-21.5086978769
 10
-32.8161639461
 20
-21.5262521733
 10
-32.7784037903
 20
-21.5422642725
 10
-32.7399546726
 20
-21.5567417537
 10
-32.7010116391
 20
-21.5696112943
 10
-32.6615717398
 20
-21.5808646089
 10
-32.6216379248
 20
-21.5905099828
 10
-32.5814140904
 20
-21.5984989496
 10
-32.5409682019
 20
-21.6048153539
 10
-32.500232294
 20
-21.609475351
 10
-32.4592063666
 20
-21.612478941
  0
LWPOLYLINE
  5
487
100
AcDbEntity
  8
RACCORDO
100
AcDbPolyline
 62
250
  6
CONTINUOUS
 90
8
 70
0
 10
-33.8282420083
 20
0.059175157
 10
-33.8280722406
 20
0.0521860171
 10
-33.8278852142
 20
0.0462043075
 10
-33.8276819747
 20
0.0412634737
 10
-33.8274636585
 20
0.0373911417
 10
-33.8272314862
 20
0.0346089628
 10
-33.8269867561
 20
0.0329324931
 10
-33.8267308365
 20
0.0323711062
  0
LWPOLYLINE
  5
488
100
AcDbEntity
  8
ASSI
100
AcDbPolyline
 62
250
  6
CONTINUOUS
 90
8
 70
0
 10
-33.8282420083
 20
0.059175157
 10
-33.8280722406
 20
0.0521860171
 10
-33.8278852142
 20
0.0462043075
 10
-33.8276819747
 20
0.0412634737
 10
-33.8274636585
 20
0.0373911417
 10
-33.8272314862
 20
0.0346089628
 10
-33.8269867561
 20
0.0329324931
 10
-33.8267308365
 20
0.0323711062
  0
LINE
  5
489
100
AcDbEntity
  8
RACCORDO
100
AcDbLine
 62
250
  6
CONTINUOUS
 10
-33.8285260721
 20
0.0760139989
 11
-33.8282420083
 21
0.059175157
  0
LINE
  5
48A
100
AcDbEntity
  8
ASSI
100
AcDbLine
 62
250
  6
CONTINUOUS
 10
-33.8285260721
 20
0.0760139989
 11
-33.8282420083
 21
0.059175157
  0
LINE
  5
48B
100
AcDbEntity
  8
RACCORDO
100
AcDbLine
 62
250
  6
CONTINUOUS
 10
-33.8287310614
 20
0.0963447541
 11
-33.8285260721
 21
0.0760139989
  0
LINE
  5
48C
100
AcDbEntity
  8
ASSI
100
AcDbLine
 62
250
  6
CONTINUOUS
 10
-33.8287310614
 20
0.0963447541
 11
-33.8285260721
 21
0.0760139989
  0
LINE
  5
48D
100
AcDbEntity
  8
RACCORDO
100
AcDbLine
 62
250
  6
CONTINUOUS
 10
-33.8284760107
 20
-0.4585004637
 11
-33.8288352024
 21
-0.3995571345
  0
LINE
  5
48E
100
AcDbEntity
  8
ASSI
100
AcDbLine
 62
250
  6
CONTINUOUS
 10
-33.8284760107
 20
-0.4585004637
 11
-33.8288352024
 21
-0.3995571345
  0
LWPOLYLINE
  5
48F
100
AcDbEntity
  8
RACCORDO
100
AcDbPolyline
 62
250
  6
CONTINUOUS
 90
13
 70
0
 10
-33.828459392
 20
-0.4585003187
 10
-33.8244641688
 20
-2.1421393711
 10
-33.8147937261
 20
-3.8256800044
 10
-33.7994480641
 20
-5.5091222184
 10
-33.7784262798
 20
-7.1924725185
 10
-33.751729276
 20
-8.8757243994
 10
-33.7193597619
 20
-10.5588583453
 10
-33.6813186755
 20
-12.241874222
 10
-33.6376050787
 20
-13.9247721638
 10
-33.5882188656
 20
-15.6075330581
 10
-33.5331600009
 20
-17.2901505339
 10
-33.4724285197
 20
-18.9726309622
 10
-33.4060244223
 20
-20.6549743429
  0
LWPOLYLINE
  5
490
100
AcDbEntity
  8
ASSI
100
AcDbPolyline
 62
250
  6
CONTINUOUS
 90
13
 70
0
 10
-33.828459392
 20
-0.4585003187
 10
-33.8244641688
 20
-2.1421393711
 10
-33.8147937261
 20
-3.8256800044
 10
-33.7994480641
 20
-5.5091222184
 10
-33.7784262798
 20
-7.1924725185
 10
-33.751729276
 20
-8.8757243994
 10
-33.7193597619
 20
-10.5588583453
 10
-33.6813186755
 20
-12.241874222
 10
-33.6376050787
 20
-13.9247721638
 10
-33.5882188656
 20
-15.6075330581
 10
-33.5331600009
 20
-17.2901505339
 10
-33.4724285197
 20
-18.9726309622
 10
-33.4060244223
 20
-20.6549743429
  0
LINE
  5
491
100
AcDbEntity
  8
RACCORDO
100
AcDbLine
 62
250
  6
CONTINUOUS
 10
-33.8288807745
 20
0.1323760901
 11
-33.8287310614
 21
0.0963447541
  0
LINE
  5
492
100
AcDbEntity
  8
ASSI
100
AcDbLine
 62
250
  6
CONTINUOUS
 10
-33.8288807745
 20
0.1323760901
 11
-33.8287310614
 21
0.0963447541
  0
LINE
  5
493
100
AcDbEntity
  8
RACCORDO
100
AcDbLine
 62
250
  6
CONTINUOUS
 10
-33.8288352024
 20
-0.3995571345
 11
-33.8288807753
 21
-0.3585129471
  0
LINE
  5
494
100
AcDbEntity
  8
ASSI
100
AcDbLine
 62
250
  6
CONTINUOUS
 10
-33.8288352024
 20
-0.3995571345
 11
-33.8288807753
 21
-0.3585129471
  0
LINE
  5
495
100
AcDbEntity
  8
RACCORDO
100
AcDbLine
 62
250
  6
CONTINUOUS
 10
-33.8288352015
 20
0.1734202439
 11
-33.8288807745
 21
0.1323760901
  0
LINE
  5
496
100
AcDbEntity
  8
ASSI
100
AcDbLine
 62
250
  6
CONTINUOUS
 10
-33.8288352015
 20
0.1734202439
 11
-33.8288807745
 21
0.1323760901
  0
LINE
  5
497
100
AcDbEntity
  8
RACCORDO
100
AcDbLine
 62
250
  6
CONTINUOUS
 10
-33.8288807753
 20
-0.3585129471
 11
-33.8287310616
 21
-0.3224816096
  0
LINE
  5
498
100
AcDbEntity
  8
ASSI
100
AcDbLine
 62
250
  6
CONTINUOUS
 10
-33.8288807753
 20
-0.3585129471
 11
-33.8287310616
 21
-0.3224816096
  0
LINE
  5
499
100
AcDbEntity
  8
RACCORDO
100
AcDbLine
 62
250
  6
CONTINUOUS
 10
-33.8284760107
 20
0.2323634908
 11
-33.8288352015
 21
0.1734202439
  0
LINE
  5
49A
100
AcDbEntity
  8
ASSI
100
AcDbLine
 62
250
  6
CONTINUOUS
 10
-33.8284760107
 20
0.2323634908
 11
-33.8288352015
 21
0.1734202439
  0
LINE
  5
49B
100
AcDbEntity
  8
RACCORDO
100
AcDbLine
 62
250
  6
CONTINUOUS
 10
-33.8287310616
 20
-0.3224816096
 11
-33.8285260719
 21
-0.3021508701
  0
LINE
  5
49C
100
AcDbEntity
  8
ASSI
100
AcDbLine
 62
250
  6
CONTINUOUS
 10
-33.8287310616
 20
-0.3224816096
 11
-33.8285260719
 21
-0.3021508701
  0
LWPOLYLINE
  5
49D
100
AcDbEntity
  8
RACCORDO
100
AcDbPolyline
 62
250
  6
CONTINUOUS
 90
9
 70
0
 10
-33.8285260719
 20
-0.3021508701
 10
-33.8282420077
 20
-0.2853120536
 10
-33.8280722399
 20
-0.2783229284
 10
-33.8278852133
 20
-0.2723412337
 10
-33.8276819738
 20
-0.2674004142
 10
-33.8274636577
 20
-0.2635280949
 10
-33.8272314856
 20
-0.2607459263
 10
-33.8269867558
 20
-0.2590694634
 10
-33.8267308365
 20
-0.2585080791
  0
LWPOLYLINE
  5
49E
100
AcDbEntity
  8
ASSI
100
AcDbPolyline
 62
250
  6
CONTINUOUS
 90
9
 70
0
 10
-33.8285260719
 20
-0.3021508701
 10
-33.8282420077
 20
-0.2853120536
 10
-33.8280722399
 20
-0.2783229284
 10
-33.8278852133
 20
-0.2723412337
 10
-33.8276819738
 20
-0.2674004142
 10
-33.8274636577
 20
-0.2635280949
 10
-33.8272314856
 20
-0.2607459263
 10
-33.8269867558
 20
-0.2590694634
 10
-33.8267308365
 20
-0.2585080791
  0
LWPOLYLINE
  5
49F
100
AcDbEntity
  8
RACCORDO
100
AcDbPolyline
 62
250
  6
CONTINUOUS
 90
13
 70
0
 10
-33.4060244223
 20
20.4288373701
 10
-33.4724285197
 20
18.7464939893
 10
-33.5331600009
 20
17.0640135611
 10
-33.5882188656
 20
15.3813960852
 10
-33.6376050787
 20
13.698635191
 10
-33.6813186755
 20
12.0157372492
 10
-33.7193597619
 20
10.3327213724
 10
-33.751729276
 20
8.6495874265
 10
-33.7784262798
 20
6.9663355456
 10
-33.7994480641
 20
5.2829852456
 10
-33.8147937261
 20
3.5995430315
 10
-33.8244641688
 20
1.9160023983
 10
-33.8284593921
 20
0.2323633458
  0
LWPOLYLINE
  5
4A0
100
AcDbEntity
  8
ASSI
100
AcDbPolyline
 62
250
  6
CONTINUOUS
 90
13
 70
0
 10
-33.4060244223
 20
20.4288373701
 10
-33.4724285197
 20
18.7464939893
 10
-33.5331600009
 20
17.0640135611
 10
-33.5882188656
 20
15.3813960852
 10
-33.6376050787
 20
13.698635191
 10
-33.6813186755
 20
12.0157372492
 10
-33.7193597619
 20
10.3327213724
 10
-33.751729276
 20
8.6495874265
 10
-33.7784262798
 20
6.9663355456
 10
-33.7994480641
 20
5.2829852456
 10
-33.8147937261
 20
3.5995430315
 10
-33.8244641688
 20
1.9160023983
 10
-33.8284593921
 20
0.2323633458
  0
LINE
  5
4A1
100
AcDbEntity
  8
RACCORDO
100
AcDbLine
 62
250
  6
CONTINUOUS
 10
-32.4592063666
 20
21.3863419682
 11
-32.4663387352
 21
21.5294661691
  0
LINE
  5
4A2
100
AcDbEntity
  8
ASSI
100
AcDbLine
 62
250
  6
CONTINUOUS
 10
-32.4592063666
 20
21.3863419682
 11
-32.4663387352
 21
21.5294661691
  0
LINE
  5
4A3
100
AcDbEntity
  8
RACCORDO
100
AcDbLine
 62
250
  6
CONTINUOUS
 10
-32.4663387352
 20
21.5294661691
 11
-32.4711117147
 21
21.6358677406
  0
LINE
  5
4A4
100
AcDbEntity
  8
ASSI
100
AcDbLine
 62
250
  6
CONTINUOUS
 10
-32.4663387352
 20
21.5294661691
 11
-32.4711117147
 21
21.6358677406
  0
LINE
  5
4A5
100
AcDbEntity
  8
RACCORDO
100
AcDbLine
 62
250
  6
CONTINUOUS
 10
-32.4711117147
 20
21.6358677406
 11
-32.4739742976
 21
21.7071401006
  0
LINE
  5
4A6
100
AcDbEntity
  8
ASSI
100
AcDbLine
 62
250
  6
CONTINUOUS
 10
-32.4711117147
 20
21.6358677406
 11
-32.4739742976
 21
21.7071401006
  0
LINE
  5
4A7
100
AcDbEntity
  8
RACCORDO
100
AcDbLine
 62
250
  6
CONTINUOUS
 10
-32.4739742976
 20
21.7071401006
 11
-32.4761238511
 21
21.7686764806
  0
LINE
  5
4A8
100
AcDbEntity
  8
ASSI
100
AcDbLine
 62
250
  6
CONTINUOUS
 10
-32.4739742976
 20
21.7071401006
 11
-32.4761238511
 21
21.7686764806
  0
LINE
  5
4A9
100
AcDbEntity
  8
RACCORDO
100
AcDbLine
 62
250
  6
CONTINUOUS
 10
-32.4761238511
 20
21.7686764806
 11
-32.4771275883
 21
21.8033556529
  0
LINE
  5
4AA
100
AcDbEntity
  8
ASSI
100
AcDbLine
 62
250
  6
CONTINUOUS
 10
-32.4761238511
 20
21.7686764806
 11
-32.4771275883
 21
21.8033556529
  0
LWPOLYLINE
  5
4AB
100
AcDbEntity
  8
RACCORDO
100
AcDbPolyline
 62
250
  6
CONTINUOUS
 90
10
 70
0
 10
-32.4771275883
 20
21.8033556529
 10
-32.4777713832
 20
21.8324019796
 10
-32.4779553912
 20
21.8446870933
 10
-32.4780465397
 20
21.8554231144
 10
-32.4780445207
 20
21.8645737577
 10
-32.477949341
 20
21.8721080964
 10
-32.4777613222
 20
21.8780006661
 10
-32.4774811
 20
21.8822315514
 10
-32.4771096212
 20
21.8847864528
 10
-32.4766481415
 20
21.8856567355
  0
LWPOLYLINE
  5
4AC
100
AcDbEntity
  8
ASSI
100
AcDbPolyline
 62
250
  6
CONTINUOUS
 90
10
 70
0
 10
-32.4771275883
 20
21.8033556529
 10
-32.4777713832
 20
21.8324019796
 10
-32.4779553912
 20
21.8446870933
 10
-32.4780465397
 20
21.8554231144
 10
-32.4780445207
 20
21.8645737577
 10
-32.477949341
 20
21.8721080964
 10
-32.4777613222
 20
21.8780006661
 10
-32.4774811
 20
21.8822315514
 10
-32.4771096212
 20
21.8847864528
 10
-32.4766481415
 20
21.8856567355
  0
LWPOLYLINE
  5
4AD
100
AcDbEntity
  8
RACCORDO
100
AcDbPolyline
 62
250
  6
CONTINUOUS
 90
9
 70
0
 10
-32.477771383
 20
-22.0585389726
 10
-32.4779553908
 20
-22.0708240821
 10
-32.4780465393
 20
-22.0815600993
 10
-32.4780445202
 20
-22.0907107392
 10
-32.4779493405
 20
-22.0982450749
 10
-32.4777613218
 20
-22.1041376422
 10
-32.4774810996
 20
-22.1083685257
 10
-32.477109621
 20
-22.1109234261
 10
-32.4766481415
 20
-22.1117937084
  0
LWPOLYLINE
  5
4AE
100
AcDbEntity
  8
ASSI
100
AcDbPolyline
 62
250
  6
CONTINUOUS
 90
9
 70
0
 10
-32.477771383
 20
-22.0585389726
 10
-32.4779553908
 20
-22.0708240821
 10
-32.4780465393
 20
-22.0815600993
 10
-32.4780445202
 20
-22.0907107392
 10
-32.4779493405
 20
-22.0982450749
 10
-32.4777613218
 20
-22.1041376422
 10
-32.4774810996
 20
-22.1083685257
 10
-32.477109621
 20
-22.1109234261
 10
-32.4766481415
 20
-22.1117937084
  0
LINE
  5
4AF
100
AcDbEntity
  8
RACCORDO
100
AcDbLine
 62
250
  6
CONTINUOUS
 10
-32.4771275884
 20
-22.0294926544
 11
-32.477771383
 21
-22.0585389726
  0
LINE
  5
4B0
100
AcDbEntity
  8
ASSI
100
AcDbLine
 62
250
  6
CONTINUOUS
 10
-32.4771275884
 20
-22.0294926544
 11
-32.477771383
 21
-22.0585389726
  0
LINE
  5
4B1
100
AcDbEntity
  8
RACCORDO
100
AcDbLine
 62
250
  6
CONTINUOUS
 10
-32.4761238516
 20
-21.9948134902
 11
-32.4771275884
 21
-22.0294926544
  0
LINE
  5
4B2
100
AcDbEntity
  8
ASSI
100
AcDbLine
 62
250
  6
CONTINUOUS
 10
-32.4761238516
 20
-21.9948134902
 11
-32.4771275884
 21
-22.0294926544
  0
LINE
  5
4B3
100
AcDbEntity
  8
RACCORDO
100
AcDbLine
 62
250
  6
CONTINUOUS
 10
-32.4739742986
 20
-21.9332771193
 11
-32.4761238516
 21
-21.9948134902
  0
LINE
  5
4B4
100
AcDbEntity
  8
ASSI
100
AcDbLine
 62
250
  6
CONTINUOUS
 10
-32.4739742986
 20
-21.9332771193
 11
-32.4761238516
 21
-21.9948134902
  0
LINE
  5
4B5
100
AcDbEntity
  8
RACCORDO
100
AcDbLine
 62
250
  6
CONTINUOUS
 10
-32.4711117161
 20
-21.8620047616
 11
-32.4739742986
 21
-21.9332771193
  0
LINE
  5
4B6
100
AcDbEntity
  8
ASSI
100
AcDbLine
 62
250
  6
CONTINUOUS
 10
-32.4711117161
 20
-21.8620047616
 11
-32.4739742986
 21
-21.9332771193
  0
LINE
  5
4B7
100
AcDbEntity
  8
RACCORDO
100
AcDbLine
 62
250
  6
CONTINUOUS
 10
-32.4663387366
 20
-21.7556031791
 11
-32.4711117161
 21
-21.8620047616
  0
LINE
  5
4B8
100
AcDbEntity
  8
ASSI
100
AcDbLine
 62
250
  6
CONTINUOUS
 10
-32.4663387366
 20
-21.7556031791
 11
-32.4711117161
 21
-21.8620047616
  0
LINE
  5
4B9
100
AcDbEntity
  8
RACCORDO
100
AcDbLine
 62
250
  6
CONTINUOUS
 10
-32.4592063666
 20
-21.612478941
 11
-32.4663387366
 21
-21.7556031791
  0
LINE
  5
4BA
100
AcDbEntity
  8
ASSI
100
AcDbLine
 62
250
  6
CONTINUOUS
 10
-32.4592063666
 20
-21.612478941
 11
-32.4663387366
 21
-21.7556031791
  0
LINE
  5
4BB
100
AcDbEntity
  8
RACCORDO
100
AcDbLine
 62
250
  6
CONTINUOUS
 10
-28.6198692526
 20
-0.4130456411
 11
-33.828459392
 21
-0.4585003187
  0
LINE
  5
4BC
100
AcDbEntity
  8
ASSI
100
AcDbLine
 62
250
  6
CONTINUOUS
 10
-28.6198692526
 20
-0.4130456411
 11
-33.828459392
 21
-0.4585003187
  0
LINE
  5
4BD
100
AcDbEntity
  8
RACCORDO
100
AcDbLine
 62
7
  6
CONTINUOUS
 10
-28.6198692526
 20
-0.2130684864
 11
-34.121493403
 21
-0.261080433
  0
LINE
  5
4BE
100
AcDbEntity
  8
ASSI
100
AcDbLine
 62
7
  6
CONTINUOUS
 10
-28.6198692526
 20
-0.2130684864
 11
-34.121493403
 21
-0.261080433
  0
LINE
  5
4BF
100
AcDbEntity
  8
RACCORDO
100
AcDbLine
 62
250
  6
CONTINUOUS
 10
-33.828459392
 20
-0.4585003725
 11
-34.3197480459
 21
-0.4612120831
  0
LINE
  5
4C0
100
AcDbEntity
  8
ASSI
100
AcDbLine
 62
250
  6
CONTINUOUS
 10
-33.828459392
 20
-0.4585003725
 11
-34.3197480459
 21
-0.4612120831
  0
LINE
  5
4C1
100
AcDbEntity
  8
RACCORDO
100
AcDbLine
 62
7
  6
CONTINUOUS
 10
-34.121493403
 20
0.0349434602
 11
-28.6198692526
 21
-0.0130684864
  0
LINE
  5
4C2
100
AcDbEntity
  8
ASSI
100
AcDbLine
 62
7
  6
CONTINUOUS
 10
-34.121493403
 20
0.0349434602
 11
-28.6198692526
 21
-0.0130684864
  0
LINE
  5
4C3
100
AcDbEntity
  8
RACCORDO
100
AcDbLine
 62
250
  6
CONTINUOUS
 10
-34.3197480459
 20
0.2350751102
 11
-33.828459392
 21
0.2323633997
  0
LINE
  5
4C4
100
AcDbEntity
  8
ASSI
100
AcDbLine
 62
250
  6
CONTINUOUS
 10
-34.3197480459
 20
0.2350751102
 11
-33.828459392
 21
0.2323633997
  0
LINE
  5
4C5
100
AcDbEntity
  8
RACCORDO
100
AcDbLine
 62
250
  6
CONTINUOUS
 10
-33.8284593921
 20
0.2323633458
 11
-28.6198692526
 21
0.1869086683
  0
LINE
  5
4C6
100
AcDbEntity
  8
ASSI
100
AcDbLine
 62
250
  6
CONTINUOUS
 10
-33.8284593921
 20
0.2323633458
 11
-28.6198692526
 21
0.1869086683
  0
LINE
  5
4C7
100
AcDbEntity
  8
RACCORDO
100
AcDbLine
 62
7
  6
CONTINUOUS
 10
-29.0198692526
 20
17.8204231148
 11
-29.0198692526
 21
17.5589524347
  0
LINE
  5
4C8
100
AcDbEntity
  8
ASSI
100
AcDbLine
 62
7
  6
CONTINUOUS
 10
-29.0198692526
 20
17.8204231148
 11
-29.0198692526
 21
17.5589524347
  0
LINE
  5
4C9
100
AcDbEntity
  8
RACCORDO
100
AcDbLine
 62
7
  6
CONTINUOUS
 10
-29.0198692526
 20
-17.7850894075
 11
-29.0198692526
 21
-18.0465600876
  0
LINE
  5
4CA
100
AcDbEntity
  8
ASSI
100
AcDbLine
 62
7
  6
CONTINUOUS
 10
-29.0198692526
 20
-17.7850894075
 11
-29.0198692526
 21
-18.0465600876
  0
LINE
  5
4CB
100
AcDbEntity
  8
RACCORDO
100
AcDbLine
 62
7
  6
CONTINUOUS
 10
-28.6198692526
 20
-0.2130684864
 11
-28.6198692526
 21
-13.2130684864
  0
LINE
  5
4CC
100
AcDbEntity
  8
ASSI
100
AcDbLine
 62
7
  6
CONTINUOUS
 10
-28.6198692526
 20
-0.2130684864
 11
-28.6198692526
 21
-13.2130684864
  0
LINE
  5
4CD
100
AcDbEntity
  8
RACCORDO
100
AcDbLine
 62
7
  6
CONTINUOUS
 10
-28.6198692526
 20
-0.0130684864
 11
-28.6198692526
 21
12.9869315136
  0
LINE
  5
4CE
100
AcDbEntity
  8
ASSI
100
AcDbLine
 62
7
  6
CONTINUOUS
 10
-28.6198692526
 20
-0.0130684864
 11
-28.6198692526
 21
12.9869315136
  0
LINE
  5
4CF
100
AcDbEntity
  8
RACCORDO
100
AcDbLine
 62
7
  6
CONTINUOUS
 10
-28.6198692526
 20
12.9869315136
 11
-29.4124564137
 21
22.0462442193
  0
LINE
  5
4D0
100
AcDbEntity
  8
ASSI
100
AcDbLine
 62
7
  6
CONTINUOUS
 10
-28.6198692526
 20
12.9869315136
 11
-29.4124564137
 21
22.0462442193
  0
LINE
  5
4D1
100
AcDbEntity
  8
RACCORDO
100
AcDbLine
 62
7
  6
CONTINUOUS
 10
-28.6198692526
 20
-13.2130684864
 11
-29.4124564137
 21
-22.2723811922
  0
LINE
  5
4D2
100
AcDbEntity
  8
ASSI
100
AcDbLine
 62
7
  6
CONTINUOUS
 10
-28.6198692526
 20
-13.2130684864
 11
-29.4124564137
 21
-22.2723811922
  0
LWPOLYLINE
  5
4D3
100
AcDbEntity
  8
0
100
AcDbPolyline
 62
7
  6
CONTINUOUS
 90
10
 70
0
 43
0.3500000006
 10
-40.516743988
 20
31.2962432556
 10
-40.445317337
 20
31.1533854218
 10
-40.445317337
 20
31.0819587708
 10
-40.5881751709
 20
30.9391009369
 10
-40.6596018219
 20
30.9391009369
 10
-40.7310284729
 20
31.0105321198
 10
-40.7310284729
 20
31.0819587708
 10
-40.6596018219
 20
31.2248166046
 10
-40.5881751709
 20
31.2962432556
 10
-40.516743988
 20
31.2962432556
  0
LINE
  5
4D4
100
AcDbEntity
  8
RACCORDO
100
AcDbLine
 62
250
  6
CONTINUOUS
 10
-29.0198692526
 20
17.8204231148
 11
-29.042744973
 21
17.8204231147
  0
LINE
  5
4D5
100
AcDbEntity
  8
ASSI
100
AcDbLine
 62
250
  6
CONTINUOUS
 10
-29.0198692526
 20
17.8204231148
 11
-29.042744973
 21
17.8204231147
  0
LWPOLYLINE
  5
4D6
100
AcDbEntity
  8
RACCORDO
100
AcDbPolyline
 62
250
  6
CONTINUOUS
 90
37
 70
0
 10
-32.4592063666
 20
21.3863419682
 10
-32.5002322936
 20
21.3833383782
 10
-32.5409682012
 20
21.3786783811
 10
-32.5814140895
 20
21.3723619769
 10
-32.6216379238
 20
21.3643730102
 10
-32.6615717389
 20
21.3547276363
 10
-32.7010116382
 20
21.3434743217
 10
-32.7399546717
 20
21.3306047812
 10
-32.7784037895
 20
21.3161273
 10
-32.8161639453
 20
21.3001152008
 10
-32.8532310641
 20
21.2825609044
 10
-32.8896092209
 20
21.26347199
 10
-32.9251155951
 20
21.2429445182
 10
-32.9597458514
 20
21.2209712723
 10
-32.9935043249
 20
21.197559469
 10
-33.0262212014
 20
21.1728268184
 10
-33.0578914347
 20
21.1467664739
 10
-33.088520071
 20
21.119385282
 10
-33.117952434
 20
21.0908214931
 10
-33.1461824185
 20
21.0610691035
 10
-33.1732161298
 20
21.0301341167
 10
-33.1989172081
 20
20.9981727936
 10
-33.223278748
 20
20.9651801857
 10
-33.246307655
 20
20.9311612415
 10
-33.2678882852
 20
20.8962870676
 10
-33.288013389
 20
20.8605534177
 10
-33.3066902161
 20
20.8239645382
 10
-33.3238248724
 20
20.7867042751
 10
-33.3394097313
 20
20.7487686373
 10
-33.3534524194
 20
20.710161616
 10
-33.3658819216
 20
20.6710790308
 10
-33.376689958
 20
20.6315176717
 10
-33.3858848085
 20
20.5914807487
 10
-33.3934202978
 20
20.551173712
 10
-33.3992810339
 20
20.510665045
 10
-33.4034824088
 20
20.4698862644
 10
-33.4060244223
 20
20.4288373701
  0
LWPOLYLINE
  5
4D7
100
AcDbEntity
  8
ASSI
100
AcDbPolyline
 62
250
  6
CONTINUOUS
 90
37
 70
0
 10
-32.4592063666
 20
21.3863419682
 10
-32.5002322936
 20
21.3833383782
 10
-32.5409682012
 20
21.3786783811
 10
-32.5814140895
 20
21.3723619769
 10
-32.6216379238
 20
21.3643730102
 10
-32.6615717389
 20
21.3547276363
 10
-32.7010116382
 20
21.3434743217
 10
-32.7399546717
 20
21.3306047812
 10
-32.7784037895
 20
21.3161273
 10
-32.8161639453
 20
21.3001152008
 10
-32.8532310641
 20
21.2825609044
 10
-32.8896092209
 20
21.26347199
 10
-32.9251155951
 20
21.2429445182
 10
-32.9597458514
 20
21.2209712723
 10
-32.9935043249
 20
21.197559469
 10
-33.0262212014
 20
21.1728268184
 10
-33.0578914347
 20
21.1467664739
 10
-33.088520071
 20
21.119385282
 10
-33.117952434
 20
21.0908214931
 10
-33.1461824185
 20
21.0610691035
 10
-33.1732161298
 20
21.0301341167
 10
-33.1989172081
 20
20.9981727936
 10
-33.223278748
 20
20.9651801857
 10
-33.246307655
 20
20.9311612415
 10
-33.2678882852
 20
20.8962870676
 10
-33.288013389
 20
20.8605534177
 10
-33.3066902161
 20
20.8239645382
 10
-33.3238248724
 20
20.7867042751
 10
-33.3394097313
 20
20.7487686373
 10
-33.3534524194
 20
20.710161616
 10
-33.3658819216
 20
20.6710790308
 10
-33.376689958
 20
20.6315176717
 10
-33.3858848085
 20
20.5914807487
 10
-33.3934202978
 20
20.551173712
 10
-33.3992810339
 20
20.510665045
 10
-33.4034824088
 20
20.4698862644
 10
-33.4060244223
 20
20.4288373701
  0
LINE
  5
4D8
100
AcDbEntity
  8
RACCORDO
100
AcDbLine
 62
250
  6
CONTINUOUS
 10
-29.3688918075
 20
21.5482984915
 11
-32.4592063666
 21
21.3863419682
  0
LINE
  5
4D9
100
AcDbEntity
  8
ASSI
100
AcDbLine
 62
250
  6
CONTINUOUS
 10
-29.3688918075
 20
21.5482984915
 11
-32.4592063666
 21
21.3863419682
  0
LINE
  5
4DA
100
AcDbEntity
  8
RACCORDO
100
AcDbLine
 62
7
  6
CONTINUOUS
 10
-29.4124564137
 20
22.0462442193
 11
-32.4766308217
 21
21.8856576432
  0
LINE
  5
4DB
100
AcDbEntity
  8
ASSI
100
AcDbLine
 62
7
  6
CONTINUOUS
 10
-29.4124564137
 20
22.0462442193
 11
-32.4766308217
 21
21.8856576432
  0
LWPOLYLINE
  5
4DC
100
AcDbEntity
  8
0
100
AcDbPolyline
 62
7
  6
CONTINUOUS
 90
8
 70
0
 43
0.3500000006
 10
-43.3024604187
 20
30.796243103
 10
-42.4453179474
 20
30.796243103
 10
-42.0167444458
 20
31.2248166046
 10
-42.0167444458
 20
32.0819590759
 10
-42.4453179474
 20
32.5105280457
 10
-43.3024604187
 20
32.5105280457
 10
-43.3024604187
 20
33.7962440186
 10
-42.0167444458
 20
33.7962440186
  0
LWPOLYLINE
  5
4DD
100
AcDbEntity
  8
RACCORDO
100
AcDbPolyline
 62
250
  6
CONTINUOUS
 90
4
 70
0
 10
-33.4060244223
 20
20.4288373701
 10
-33.8935734622
 20
20.4492226963
 10
-33.8960495255
 20
20.4493451974
 10
-33.8968752248
 20
20.4493998384
  0
LWPOLYLINE
  5
4DE
100
AcDbEntity
  8
ASSI
100
AcDbPolyline
 62
250
  6
CONTINUOUS
 90
4
 70
0
 10
-33.4060244223
 20
20.4288373701
 10
-33.8935734622
 20
20.4492226963
 10
-33.8960495255
 20
20.4493451974
 10
-33.8968752248
 20
20.4493998384
  0
ARC
  5
4DF
100
AcDbEntity
  8
0
100
AcDbCircle
 62
7
  6
CONTINUOUS
 10
0.046021994
 20
-0.1130684864
 40
1.375
100
AcDbArc
 50
15.3271627815
 51
164.6728372185
  0
ARC
  5
4E0
100
AcDbEntity
  8
0
100
AcDbCircle
 62
7
  6
CONTINUOUS
 10
0.046021994
 20
-0.1130684864
 40
1.375
100
AcDbArc
 50
195.3271627815
 51
344.6728372185
  0
ARC
  5
4E1
100
AcDbEntity
  8
ASSI
100
AcDbCircle
 62
7
  6
CONTINUOUS
 10
0.046021994
 20
-0.1130684864
 40
1.375
100
AcDbArc
 50
15.3271627815
 51
164.6728372185
  0
ARC
  5
4E2
100
AcDbEntity
  8
ASSI
100
AcDbCircle
 62
7
  6
CONTINUOUS
 10
0.046021994
 20
-0.1130684864
 40
1.375
100
AcDbArc
 50
195.3271627815
 51
344.6728372185
  0
ARC
  5
4E3
100
AcDbEntity
  8
RACCORDO
100
AcDbCircle
 62
7
  6
CONTINUOUS
 10
-32.3981442071
 20
-20.6138494063
 40
1.5
100
AcDbArc
 50
182.3561664986
 51
267.000662446
  0
ARC
  5
4E4
100
AcDbEntity
  8
ASSI
100
AcDbCircle
 62
7
  6
CONTINUOUS
 10
-32.3981442071
 20
-20.6138494063
 40
1.5
100
AcDbArc
 50
182.3561664986
 51
267.000662446
  0
ARC
  5
4E5
100
AcDbEntity
  8
RACCORDO
100
AcDbCircle
 62
7
  6
CONTINUOUS
 10
-29.3198692526
 20
-18.0465600876
 40
0.3
100
AcDbArc
 50
335.0
 51
360.0
  0
ARC
  5
4E6
100
AcDbEntity
  8
ASSI
100
AcDbCircle
 62
7
  6
CONTINUOUS
 10
-29.3198692526
 20
-18.0465600876
 40
0.3
100
AcDbArc
 50
335.0
 51
360.0
  0
ARC
  5
4E7
100
AcDbEntity
  8
RACCORDO
100
AcDbCircle
 62
7
  6
CONTINUOUS
 10
-34.1197475853
 20
-0.4610728132
 40
0.2
100
AcDbArc
 50
90.5001462858
 51
180.0398957513
  0
ARC
  5
4E8
100
AcDbEntity
  8
ASSI
100
AcDbCircle
 62
7
  6
CONTINUOUS
 10
-34.1197475853
 20
-0.4610728132
 40
0.2
100
AcDbArc
 50
90.5001462858
 51
180.0398957513
  0
ARC
  5
4E9
100
AcDbEntity
  8
RACCORDO
100
AcDbCircle
 62
7
  6
CONTINUOUS
 10
-32.3981442071
 20
20.3877124334
 40
1.5
100
AcDbArc
 50
92.999337554
 51
177.6438335014
  0
ARC
  5
4EA
100
AcDbEntity
  8
ASSI
100
AcDbCircle
 62
7
  6
CONTINUOUS
 10
-32.3981442071
 20
20.3877124334
 40
1.5
100
AcDbArc
 50
92.999337554
 51
177.6438335014
  0
ARC
  5
4EB
100
AcDbEntity
  8
RACCORDO
100
AcDbCircle
 62
7
  6
CONTINUOUS
 10
-29.3198692526
 20
17.8204231148
 40
0.3
100
AcDbArc
 50
0.0
 51
25.0
  0
ARC
  5
4EC
100
AcDbEntity
  8
ASSI
100
AcDbCircle
 62
7
  6
CONTINUOUS
 10
-29.3198692526
 20
17.8204231148
 40
0.3
100
AcDbArc
 50
0.0
 51
25.0
  0
ARC
  5
4ED
100
AcDbEntity
  8
RACCORDO
100
AcDbCircle
 62
7
  6
CONTINUOUS
 10
-34.1197475853
 20
0.2349358403
 40
0.2
100
AcDbArc
 50
179.9601042487
 51
269.4998537142
  0
ARC
  5
4EE
100
AcDbEntity
  8
ASSI
100
AcDbCircle
 62
7
  6
CONTINUOUS
 10
-34.1197475853
 20
0.2349358403
 40
0.2
100
AcDbArc
 50
179.9601042487
 51
269.4998537142
  0
ARC
  5
4EF
100
AcDbEntity
  8
RACCORDO
100
AcDbCircle
 62
7
  6
CONTINUOUS
 10
465.6801307474
 20
-0.1130684864
 40
500.0
100
AcDbArc
 50
180.0398943199
 51
182.3569476404
  0
ARC
  5
4F0
100
AcDbEntity
  8
RACCORDO
100
AcDbCircle
 62
7
  6
CONTINUOUS
 10
465.6801307474
 20
-0.1130684864
 40
500.0
100
AcDbArc
 50
177.6430523596
 51
179.9601056801
  0
ARC
  5
4F1
100
AcDbEntity
  8
ASSI
100
AcDbCircle
 62
7
  6
CONTINUOUS
 10
465.6801307474
 20
-0.1130684864
 40
500.0
100
AcDbArc
 50
180.0398943199
 51
182.3569476404
  0
ARC
  5
4F2
100
AcDbEntity
  8
ASSI
100
AcDbCircle
 62
7
  6
CONTINUOUS
 10
465.6801307474
 20
-0.1130684864
 40
500.0
100
AcDbArc
 50
177.6430523596
 51
179.9601056801
  0
ELLIPSE
  5
4F3
100
AcDbEntity
  8
RACCORDO
100
AcDbEllipse
 62
7
  6
CONTINUOUS
 10
7.3305519402
 20
22.0196518392
 30
0.0
 11
0.2
 21
-0.0
 31
0.0
 40
0.0524077793
 41
-1.5707963268
 42
-0.5235987756
  0
ELLIPSE
  5
4F4
100
AcDbEntity
  8
RACCORDO
100
AcDbEllipse
 62
7
  6
CONTINUOUS
 10
3.9614920479
 20
22.0196518392
 30
0.0
 11
0.2
 21
0.0
 31
0.0
 40
0.0524077793
 41
-2.617993878
 42
-1.5707963268
  0
ELLIPSE
  5
4F5
100
AcDbEntity
  8
RACCORDO
100
AcDbEllipse
 62
7
  6
CONTINUOUS
 10
-3.8694480598
 20
22.0196518392
 30
0.0
 11
0.2
 21
0.0
 31
0.0
 40
0.0524077793
 41
-1.5707963268
 42
-0.5235987756
  0
ELLIPSE
  5
4F6
100
AcDbEntity
  8
RACCORDO
100
AcDbEllipse
 62
7
  6
CONTINUOUS
 10
-7.2385079521
 20
22.0196518392
 30
0.0
 11
0.2
 21
0.0
 31
0.0
 40
0.0524077793
 41
-2.617993878
 42
-1.5707963268
  0
ELLIPSE
  5
4F7
100
AcDbEntity
  8
RACCORDO
100
AcDbEllipse
 62
7
  6
CONTINUOUS
 10
-10.9039475404
 20
0.1869391292
 30
0.0
 11
0.1789222233
 21
0.0894542984
 31
0.0
 40
0.9998096356
 41
2.6780516535
 42
4.2486956813
  0
ELLIPSE
  5
4F8
100
AcDbEntity
  8
RACCORDO
100
AcDbEllipse
 62
7
  6
CONTINUOUS
 10
10.9959915284
 20
0.1869391292
 30
0.0
 11
0.1789222233
 21
-0.0894542984
 31
0.0
 40
0.9998096356
 41
-1.1071030277
 42
0.4635410001
  0
ELLIPSE
  5
4F9
100
AcDbEntity
  8
RACCORDO
100
AcDbEllipse
 62
7
  6
CONTINUOUS
 10
-10.5908282998
 20
21.5478432578
 30
0.0
 11
0.498078285
 21
0.0448076117
 31
0.0
 40
0.9965957691
 41
1.4807720384
 42
3.0506549766
  0
ELLIPSE
  5
4FA
100
AcDbEntity
  8
RACCORDO
100
AcDbEllipse
 62
7
  6
CONTINUOUS
 10
10.6828722879
 20
21.5478432578
 30
0.0
 11
0.498078285
 21
-0.0448076117
 31
0.0
 40
0.9965957691
 41
0.0909376769
 42
1.6608206152
  0
ELLIPSE
  5
4FB
100
AcDbEntity
  8
RACCORDO
100
AcDbEllipse
 62
7
  6
CONTINUOUS
 10
-7.2385079521
 20
-22.2457888121
 30
0.0
 11
0.2
 21
0.0
 31
0.0
 40
0.0524077793
 41
1.5707963268
 42
2.617993878
  0
ELLIPSE
  5
4FC
100
AcDbEntity
  8
RACCORDO
100
AcDbEllipse
 62
7
  6
CONTINUOUS
 10
-3.8694480598
 20
-22.2457888121
 30
0.0
 11
0.2
 21
0.0
 31
0.0
 40
0.0524077793
 41
0.5235987756
 42
1.5707963268
  0
ELLIPSE
  5
4FD
100
AcDbEntity
  8
RACCORDO
100
AcDbEllipse
 62
7
  6
CONTINUOUS
 10
3.9614920479
 20
-22.2457888121
 30
0.0
 11
0.2
 21
-0.0
 31
0.0
 40
0.0524077793
 41
1.5707963268
 42
2.617993878
  0
ELLIPSE
  5
4FE
100
AcDbEntity
  8
RACCORDO
100
AcDbEllipse
 62
7
  6
CONTINUOUS
 10
7.3305519402
 20
-22.2457888121
 30
0.0
 11
0.2
 21
0.0
 31
0.0
 40
0.0524077793
 41
0.5235987756
 42
1.5707963268
  0
ELLIPSE
  5
4FF
100
AcDbEntity
  8
RACCORDO
100
AcDbEllipse
 62
7
  6
CONTINUOUS
 10
10.9959915284
 20
-0.4130761021
 30
0.0
 11
0.1789222233
 21
0.0894542984
 31
0.0
 40
0.9998096356
 41
-0.4635410001
 42
1.1071030277
  0
ELLIPSE
  5
500
100
AcDbEntity
  8
RACCORDO
100
AcDbEllipse
 62
7
  6
CONTINUOUS
 10
-10.9039475404
 20
-0.4130761021
 30
0.0
 11
0.1789222233
 21
-0.0894542984
 31
0.0
 40
0.9998096356
 41
2.0344896259
 42
3.6051336537
  0
ELLIPSE
  5
501
100
AcDbEntity
  8
RACCORDO
100
AcDbEllipse
 62
7
  6
CONTINUOUS
 10
10.6828722879
 20
-21.7739802307
 30
0.0
 11
0.498078285
 21
0.0448076117
 31
0.0
 40
0.9965957691
 41
-1.6608206152
 42
-0.0909376769
  0
ELLIPSE
  5
502
100
AcDbEntity
  8
RACCORDO
100
AcDbEllipse
 62
7
  6
CONTINUOUS
 10
-10.5908282998
 20
-21.7739802307
 30
0.0
 11
0.498078285
 21
-0.0448076117
 31
0.0
 40
0.9965957691
 41
-3.0506549766
 42
-1.4807720384
  0
ELLIPSE
  5
503
100
AcDbEntity
  8
ASSI
100
AcDbEllipse
 62
7
  6
CONTINUOUS
 10
7.3305519402
 20
22.0196518392
 30
0.0
 11
0.2
 21
-0.0
 31
0.0
 40
0.0524077793
 41
-1.5707963268
 42
-0.5235987756
  0
ELLIPSE
  5
504
100
AcDbEntity
  8
ASSI
100
AcDbEllipse
 62
7
  6
CONTINUOUS
 10
3.9614920479
 20
22.0196518392
 30
0.0
 11
0.2
 21
0.0
 31
0.0
 40
0.0524077793
 41
-2.617993878
 42
-1.5707963268
  0
ELLIPSE
  5
505
100
AcDbEntity
  8
ASSI
100
AcDbEllipse
 62
7
  6
CONTINUOUS
 10
-3.8694480598
 20
22.0196518392
 30
0.0
 11
0.2
 21
0.0
 31
0.0
 40
0.0524077793
 41
-1.5707963268
 42
-0.5235987756
  0
ELLIPSE
  5
506
100
AcDbEntity
  8
ASSI
100
AcDbEllipse
 62
7
  6
CONTINUOUS
 10
-7.2385079521
 20
22.0196518392
 30
0.0
 11
0.2
 21
0.0
 31
0.0
 40
0.0524077793
 41
-2.617993878
 42
-1.5707963268
  0
ELLIPSE
  5
507
100
AcDbEntity
  8
ASSI
100
AcDbEllipse
 62
7
  6
CONTINUOUS
 10
-10.9039475404
 20
0.1869391292
 30
0.0
 11
0.1789222233
 21
0.0894542984
 31
0.0
 40
0.9998096356
 41
2.6780516535
 42
4.2486956813
  0
ELLIPSE
  5
508
100
AcDbEntity
  8
ASSI
100
AcDbEllipse
 62
7
  6
CONTINUOUS
 10
10.9959915284
 20
0.1869391292
 30
0.0
 11
0.1789222233
 21
-0.0894542984
 31
0.0
 40
0.9998096356
 41
-1.1071030277
 42
0.4635410001
  0
ELLIPSE
  5
509
100
AcDbEntity
  8
ASSI
100
AcDbEllipse
 62
7
  6
CONTINUOUS
 10
-10.5908282998
 20
21.5478432578
 30
0.0
 11
0.498078285
 21
0.0448076117
 31
0.0
 40
0.9965957691
 41
1.4807720384
 42
3.0506549766
  0
ELLIPSE
  5
50A
100
AcDbEntity
  8
ASSI
100
AcDbEllipse
 62
7
  6
CONTINUOUS
 10
10.6828722879
 20
21.5478432578
 30
0.0
 11
0.498078285
 21
-0.0448076117
 31
0.0
 40
0.9965957691
 41
0.0909376769
 42
1.6608206152
  0
ELLIPSE
  5
50B
100
AcDbEntity
  8
ASSI
100
AcDbEllipse
 62
7
  6
CONTINUOUS
 10
-7.2385079521
 20
-22.2457888121
 30
0.0
 11
0.2
 21
0.0
 31
0.0
 40
0.0524077793
 41
1.5707963268
 42
2.617993878
  0
ELLIPSE
  5
50C
100
AcDbEntity
  8
ASSI
100
AcDbEllipse
 62
7
  6
CONTINUOUS
 10
-3.8694480598
 20
-22.2457888121
 30
0.0
 11
0.2
 21
0.0
 31
0.0
 40
0.0524077793
 41
0.5235987756
 42
1.5707963268
  0
ELLIPSE
  5
50D
100
AcDbEntity
  8
ASSI
100
AcDbEllipse
 62
7
  6
CONTINUOUS
 10
3.9614920479
 20
-22.2457888121
 30
0.0
 11
0.2
 21
-0.0
 31
0.0
 40
0.0524077793
 41
1.5707963268
 42
2.617993878
  0
ELLIPSE
  5
50E
100
AcDbEntity
  8
ASSI
100
AcDbEllipse
 62
7
  6
CONTINUOUS
 10
7.3305519402
 20
-22.2457888121
 30
0.0
 11
0.2
 21
0.0
 31
0.0
 40
0.0524077793
 41
0.5235987756
 42
1.5707963268
  0
ELLIPSE
  5
50F
100
AcDbEntity
  8
ASSI
100
AcDbEllipse
 62
7
  6
CONTINUOUS
 10
10.9959915284
 20
-0.4130761021
 30
0.0
 11
0.1789222233
 21
0.0894542984
 31
0.0
 40
0.9998096356
 41
-0.4635410001
 42
1.1071030277
  0
ELLIPSE
  5
510
100
AcDbEntity
  8
ASSI
100
AcDbEllipse
 62
7
  6
CONTINUOUS
 10
-10.9039475404
 20
-0.4130761021
 30
0.0
 11
0.1789222233
 21
-0.0894542984
 31
0.0
 40
0.9998096356
 41
2.0344896259
 42
3.6051336537
  0
ELLIPSE
  5
511
100
AcDbEntity
  8
ASSI
100
AcDbEllipse
 62
7
  6
CONTINUOUS
 10
10.6828722879
 20
-21.7739802307
 30
0.0
 11
0.498078285
 21
0.0448076117
 31
0.0
 40
0.9965957691
 41
-1.6608206152
 42
-0.0909376769
  0
ELLIPSE
  5
512
100
AcDbEntity
  8
ASSI
100
AcDbEllipse
 62
7
  6
CONTINUOUS
 10
-10.5908282998
 20
-21.7739802307
 30
0.0
 11
0.498078285
 21
-0.0448076117
 31
0.0
 40
0.9965957691
 41
-3.0506549766
 42
-1.4807720384
  0
ELLIPSE
  5
513
100
AcDbEntity
  8
CURVE
100
AcDbEllipse
 62
250
  6
CONTINUOUS
 10
465.6801307474
 20
-0.1130684864
 30
0.0
 11
500.0
 21
-0.0
 31
0.0
 40
1.0
 41
9.3937729935
 42
9.4027761857
  0
ENDSEC
  0
SECTION
  2
OBJECTS
  0
DICTIONARY
  5
C
100
AcDbDictionary
280
0
281
1
  3
ACAD_GROUP
350
D
  3
ACAD_MLINESTYLE
350
17
  3
ACAD_LAYOUT
350
1A
  3
ACAD_PLOTSETTINGS
350
19
  3
ACAD_PLOTSTYLENAME
350
E
  0
DICTIONARY
  5
D
102
{ACAD_REACTORS
330
C
102
}
100
AcDbDictionary
280
0
281
1
  0
ACDBDICTIONARYWDFLT
  5
E
102
{ACAD_REACTORS
330
C
102
}
100
AcDbDictionary
281
1
  3
Normal
350
F
100
AcDbDictionaryWithDefault
340
F
  0
DICTIONARY
  5
17
102
{ACAD_REACTORS
330
C
102
}
100
AcDbDictionary
280
0
281
1
  3
Standard
350
18
  0
DICTIONARY
  5
19
102
{ACAD_REACTORS
330
C
102
}
100
AcDbDictionary
281
1
  0
DICTIONARY
  5
1A
102
{ACAD_REACTORS
330
C
102
}
100
AcDbDictionary
281
1
  3
Model
350
514
  3
Layout1
350
515
  0
ACDBPLACEHOLDER
  5
F
102
{ACAD_REACTORS
330
E
102
}
  0
MLINESTYLE
  5
18
102
{ACAD_REACTORS
330
17
102
}
100
AcDbMlineStyle
  2
STANDARD
 70
0
  3

 62
256
 51
90.0
 52
90.0
 71
2
 49
0.5
 62
256
  6
BYLAYER
 49
-0.5
 62
256
  6
BYLAYER
  0
LAYOUT
  5
514
102
{ACAD_REACTORS
330
1A
102
}
100
AcDbPlotSettings
  1

  2
none_device
  4
ISO_A4_(297.00_x_210.00_MM)
  6

 40
0.0
 41
0.0
 42
0.0
 43
0.0
 44
297.0
 45
210.0
 46
0.0
 47
0.0
 48
0.0
 49
0.0
140
0.0
141
0.0
142
1.0
143
1.0
 70
1024
 72
1
 73
0
 74
0
  7

 75
0
147
1.0
148
0.0
149
0.0
100
AcDbLayout
  1
Model
 70
0
 71
0
 10
0.0
 20
0.0
 11
297.0
 21
210.0
 12
0.0
 22
0.0
 32
0.0
 14
0.0
 24
0.0
 34
0.0
 15
0.0
 25
0.0
 35
0.0
146
0.0
 13
0.0
 23
0.0
 33
0.0
 16
1.0
 26
0.0
 36
0.0
 17
0.0
 27
1.0
 37
0.0
 76
0
330
214
345
0
346
0
  0
LAYOUT
  5
515
102
{ACAD_REACTORS
330
1A
102
}
100
AcDbPlotSettings
  1

  2
none_device
  4
ISO_A4_(297.00_x_210.00_MM)
  6

 40
0.0
 41
0.0
 42
0.0
 43
0.0
 44
297.0
 45
210.0
 46
0.0
 47
0.0
 48
0.0
 49
0.0
140
0.0
141
0.0
142
1.0
143
1.0
 70
0
 72
1
 73
0
 74
0
  7

 75
0
147
1.0
148
0.0
149
0.0
100
AcDbLayout
  1
Layout1
 70
0
 71
1
 10
0.0
 20
0.0
 11
297.0
 21
210.0
 12
0.0
 22
0.0
 32
0.0
 14
0.0
 24
0.0
 34
0.0
 15
0.0
 25
0.0
 35
0.0
146
0.0
 13
0.0
 23
0.0
 33
0.0
 16
1.0
 26
0.0
 36
0.0
 17
0.0
 27
1.0
 37
0.0
 76
0
330
215
345
0
346
0
  0
ENDSEC
  0
EOF
