  0
SECTION
  2
HEADER
  9
$ACADVER
  1
AC1024
  9
$DWGCODEPAGE
  3
ANSI_1252
  9
$EXTMAX
 10
210.0
 20
297.0
 30
0.0
  9
$EXTMIN
 10
0.0
 20
0.0
 30
0.0
  9
$LIMMIN
 10
0.0
 20
0.0
  9
$LIMMAX
 10
210.0
 20
297.0
  9
$VIEWCTR
 10
105.0
 20
148.5
  9
$VIEWSIZE
 40
297.0
  9
$CLAYER
  8
0
  9
$LTSCALE
 40
19.36
  9
$CELTYPE
  6
BYLAYER
  9
$DIMSCALE
 40
1.0
  9
$DIMASZ
 40
3.0
  9
$DIMEXO
 40
0.5
  9
$DIMDLI
 40
13.376
  9
$DIMEXE
 40
1.5
  9
$DIMCEN
 40
3.168
  9
$DIMLFAC
 40
1.0
  9
$DIMBLK
  1
_FILLED
  9
$DIMALT
 70
0
  9
$DIMALTF
 40
0.0393700787
  9
$DIMTXT
 40
3.0
  9
$DIMTOL
 70
1
  9
$DIMLIM
 70
0
  9
$DIMTFAC
 40
1.0
  9
$DIMTP
 40
0.01
  9
$DIMTM
 40
0.01
  9
$DIMGAP
 40
0.625
  9
$DIMDSEP
 70
44
  9
$AUNITS
 70
0
  9
$PDMODE
 70
3
  9
$PDSIZE
 40
3.0
  9
$HANDSEED
  5
3A7
  9
$TILEMODE
 70
1
  9
$MEASUREMENT
 70
1
  9
$INSUNITS
 70
4
  0
ENDSEC
  0
SECTION
  2
CLASSES
  0
CLASS
  1
ACDBDICTIONARYWDFLT
  2
AcDbDictionaryWithDefault
  3
AutoCAD 2000
 90
0
 91
1
280
0
281
0
  0
CLASS
  1
ACDBPLACEHOLDER
  2
AcDbPlaceHolder
  3
AutoCAD 2000
 90
0
 91
1
280
0
281
0
  0
CLASS
  1
LAYOUT
  2
AcDbLayout
  3
AutoCAD 2000
 90
0
 91
0
280
0
281
0
  0
ENDSEC
  0
SECTION
  2
TABLES
  0
TABLE
  2
VPORT
  5
8
100
AcDbSymbolTable
 70
2
  0
VPORT
  5
1F4
100
AcDbSymbolTableRecord
100
AcDbViewportTableRecord
  2
*ACTIVE
 70
0
 10
0.0
 20
0.0
 11
1.0
 21
1.0
 12
105.0
 22
148.5
 13
0.0
 23
0.0
 14
1.0
 24
1.0
 15
0.0
 25
0.0
 16
0.0
 26
0.0
 36
1.0
 17
0.0
 27
0.0
 37
0.0
 40
297.0
 41
0.7070707071
 42
50.0
 43
0.0
 44
0.0
 50
0.0
 51
0.0
 71
0
 72
100
 73
1
 74
1
 75
0
 76
0
 77
0
 78
0
  0
ENDTAB
  0
TABLE
  2
LTYPE
  5
5
100
AcDbSymbolTable
 70
6
  0
LTYPE
  5
14
100
AcDbSymbolTableRecord
100
AcDbLinetypeTableRecord
  2
BYBLOCK
 70
0
  3

 72
65
 73
0
 40
0.0
  0
LTYPE
  5
15
100
AcDbSymbolTableRecord
100
AcDbLinetypeTableRecord
  2
BYLAYER
 70
0
  3

 72
65
 73
0
 40
0.0
  0
LTYPE
  5
16
100
AcDbSymbolTableRecord
100
AcDbLinetypeTableRecord
  2
CONTINUOUS
 70
64
  3
Solid line
 72
65
 73
0
 40
0.0
  0
LTYPE
  5
1F5
100
AcDbSymbolTableRecord
100
AcDbLinetypeTableRecord
  2
CENTER
 70
64
  3
____ _ ____ _ ____ _ ____ _ ____ _ ____ _ ____
 72
65
 73
4
 40
0.6
 49
0.375
 74
0
 49
-0.075
 74
0
 49
0.075
 74
0
 49
-0.075
 74
0
  0
LTYPE
  5
1F6
100
AcDbSymbolTableRecord
100
AcDbLinetypeTableRecord
  2
HIDDEN
 70
64
  3
- - - - - - - - - - - - - - - - - - - -
 72
65
 73
2
 40
0.2
 49
0.1
 74
0
 49
-0.1
 74
0
  0
LTYPE
  5
1F7
100
AcDbSymbolTableRecord
100
AcDbLinetypeTableRecord
  2
PHANTOM
 70
64
  3
_____ _ _ _____ _ _ _____ _ _ _____
 72
65
 73
6
 40
0.8
 49
0.45
 74
0
 49
-0.05
 74
0
 49
0.1
 74
0
 49
-0.05
 74
0
 49
0.1
 74
0
 49
-0.05
 74
0
  0
LTYPE
  5
1F8
100
AcDbSymbolTableRecord
100
AcDbLinetypeTableRecord
  2
DOT
 70
64
  3
. . . . . . . . . . . . . . . . . . . .
 72
65
 73
2
 40
0.2
 49
0.1
 74
0
 49
-0.1
 74
0
  0
LTYPE
  5
1F9
100
AcDbSymbolTableRecord
100
AcDbLinetypeTableRecord
  2
DASHED
 70
64
  3
- - - - - - - - - - - - - - - - - - - -
 72
65
 73
2
 40
0.2
 49
0.1
 74
0
 49
-0.1
 74
0
  0
ENDTAB
  0
TABLE
  2
LAYER
  5
2
100
AcDbSymbolTable
 70
36
  0
LAYER
  5
10
100
AcDbSymbolTableRecord
100
AcDbLayerTableRecord
  2
0
 70
0
 62
7
  6
CONTINUOUS
370
-3
390
F
  0
LAYER
  5
1FA
100
AcDbSymbolTableRecord
100
AcDbLayerTableRecord
  2
DEFAULT_1
 70
0
 62
7
  6
CENTER
370
-3
390
F
  0
LAYER
  5
1FB
100
AcDbSymbolTableRecord
100
AcDbLayerTableRecord
  2
DEFAULT_2
 70
0
 62
7
  6
HIDDEN
370
-3
390
F
  0
LAYER
  5
1FC
100
AcDbSymbolTableRecord
100
AcDbLayerTableRecord
  2
DEFAULT_3
 70
0
 62
7
  6
PHANTOM
370
-3
390
F
  0
LAYER
  5
1FD
100
AcDbSymbolTableRecord
100
AcDbLayerTableRecord
  2
ASSI
 70
0
 62
7
  6
CONTINUOUS
370
-3
390
F
  0
LAYER
  5
1FE
100
AcDbSymbolTableRecord
100
AcDbLayerTableRecord
  2
COORDINATE
 70
0
 62
7
  6
CONTINUOUS
370
-3
390
F
  0
LAYER
  5
1FF
100
AcDbSymbolTableRecord
100
AcDbLayerTableRecord
  2
COORD_ORIGINE
 70
0
 62
7
  6
CONTINUOUS
370
-3
390
F
  0
LAYER
  5
200
100
AcDbSymbolTableRecord
100
AcDbLayerTableRecord
  2
COPY_PUBLISH
 70
0
 62
7
  6
CONTINUOUS
370
-3
390
F
  0
LAYER
  5
201
100
AcDbSymbolTableRecord
100
AcDbLayerTableRecord
  2
COSMETICI
 70
0
 62
7
  6
CONTINUOUS
370
-3
390
F
  0
LAYER
  5
202
100
AcDbSymbolTableRecord
100
AcDbLayerTableRecord
  2
CURVE
 70
0
 62
7
  6
CONTINUOUS
370
-3
390
F
  0
LAYER
  5
203
100
AcDbSymbolTableRecord
100
AcDbLayerTableRecord
  2
DRAFT
 70
0
 62
7
  6
CONTINUOUS
370
-3
390
F
  0
LAYER
  5
204
100
AcDbSymbolTableRecord
100
AcDbLayerTableRecord
  2
IGES
 70
0
 62
7
  6
CONTINUOUS
370
-3
390
F
  0
LAYER
  5
205
100
AcDbSymbolTableRecord
100
AcDbLayerTableRecord
  2
IMPORT_IGES
 70
0
 62
7
  6
CONTINUOUS
370
-3
390
F
  0
LAYER
  5
206
100
AcDbSymbolTableRecord
100
AcDbLayerTableRecord
  2
INTF_2
 70
0
 62
7
  6
CONTINUOUS
370
-3
390
F
  0
LAYER
  5
207
100
AcDbSymbolTableRecord
100
AcDbLayerTableRecord
  2
INTF_YELLOW
 70
0
 62
7
  6
CONTINUOUS
370
-3
390
F
  0
LAYER
  5
208
100
AcDbSymbolTableRecord
100
AcDbLayerTableRecord
  2
NOTE
 70
0
 62
7
  6
CONTINUOUS
370
-3
390
F
  0
LAYER
  5
209
100
AcDbSymbolTableRecord
100
AcDbLayerTableRecord
  2
PIANI
 70
0
 62
7
  6
CONTINUOUS
370
-3
390
F
  0
LAYER
  5
20A
100
AcDbSymbolTableRecord
100
AcDbLayerTableRecord
  2
PIANI_ORIGINE
 70
0
 62
7
  6
CONTINUOUS
370
-3
390
F
  0
LAYER
  5
20B
100
AcDbSymbolTableRecord
100
AcDbLayerTableRecord
  2
PIANI_RIFERIMENTO
 70
0
 62
7
  6
CONTINUOUS
370
-3
390
F
  0
LAYER
  5
20C
100
AcDbSymbolTableRecord
100
AcDbLayerTableRecord
  2
PUNTI
 70
0
 62
7
  6
CONTINUOUS
370
-3
390
F
  0
LAYER
  5
20D
100
AcDbSymbolTableRecord
100
AcDbLayerTableRecord
  2
RACCORDO
 70
0
 62
7
  6
CONTINUOUS
370
-3
390
F
  0
LAYER
  5
20E
100
AcDbSymbolTableRecord
100
AcDbLayerTableRecord
  2
SIMBOLI
 70
0
 62
7
  6
CONTINUOUS
370
-3
390
F
  0
LAYER
  5
20F
100
AcDbSymbolTableRecord
100
AcDbLayerTableRecord
  2
SMUSSO
 70
0
 62
7
  6
CONTINUOUS
370
-3
390
F
  0
LAYER
  5
210
100
AcDbSymbolTableRecord
100
AcDbLayerTableRecord
  2
SNAPLINE
 70
0
 62
7
  6
CONTINUOUS
370
-3
390
F
  0
LAYER
  5
211
100
AcDbSymbolTableRecord
100
AcDbLayerTableRecord
  2
SUPERFICI
 70
0
 62
7
  6
CONTINUOUS
370
-3
390
F
  0
LAYER
  5
212
100
AcDbSymbolTableRecord
100
AcDbLayerTableRecord
  2
TRASH
 70
0
 62
7
  6
CONTINUOUS
370
-3
390
F
  0
LAYER
  5
213
100
AcDbSymbolTableRecord
100
AcDbLayerTableRecord
  2
XSEC_DATUMS
 70
0
 62
7
  6
CONTINUOUS
370
-3
390
F
  0
ENDTAB
  0
TABLE
  2
STYLE
  5
3
100
AcDbSymbolTable
 70
1
  0
STYLE
  5
11
100
AcDbSymbolTableRecord
100
AcDbTextStyleTableRecord
  2
STANDARD
 70
0
 40
0.0
 41
0.8
 50
0.0
 71
0
 42
0.2
  3
txt
  4

  0
STYLE
  5
214
100
AcDbSymbolTableRecord
100
AcDbTextStyleTableRecord
  2
TEXTSTYLE_1
 70
0
 40
0.0
 41
0.8
 50
0.0
 71
0
 42
0.2
  3
gdt
  4

  0
ENDTAB
  0
TABLE
  2
VIEW
  5
6
100
AcDbSymbolTable
 70
0
  0
ENDTAB
  0
TABLE
  2
UCS
  5
7
100
AcDbSymbolTable
 70
0
  0
ENDTAB
  0
TABLE
  2
APPID
  5
9
100
AcDbSymbolTable
 70
1
  0
APPID
  5
215
100
AcDbSymbolTableRecord
100
AcDbRegAppTableRecord
  2
ACAD
 70
0
  0
ENDTAB
  0
TABLE
  2
BLOCK_RECORD
  5
1
100
AcDbSymbolTable
 70
0
  0
BLOCK_RECORD
  5
216
100
AcDbSymbolTableRecord
100
AcDbBlockTableRecord
  2
*Model_Space
  0
BLOCK_RECORD
  5
217
100
AcDbSymbolTableRecord
100
AcDbBlockTableRecord
  2
*Paper_Space
  0
BLOCK_RECORD
  5
218
100
AcDbSymbolTableRecord
100
AcDbBlockTableRecord
  2
_FILLED
  0
BLOCK_RECORD
  5
219
100
AcDbSymbolTableRecord
100
AcDbBlockTableRecord
  2
*D0
  0
BLOCK_RECORD
  5
21A
100
AcDbSymbolTableRecord
100
AcDbBlockTableRecord
  2
*D1
  0
BLOCK_RECORD
  5
21B
100
AcDbSymbolTableRecord
100
AcDbBlockTableRecord
  2
*D2
  0
ENDTAB
  0
TABLE
  2
DIMSTYLE
  5
A
100
AcDbSymbolTable
 70
1
100
AcDbDimStyleTable
 71
0
  0
DIMSTYLE
105
21C
100
AcDbSymbolTableRecord
100
AcDbDimStyleTableRecord
  2
STANDARD
 70
0
  3

  4

 40
1.0
 41
3.0
 42
0.5
 43
0.38
 44
1.5
 45
0.0
 46
0.0
 47
0.01
 48
0.01
140
3.0
141
0.09
142
0.0
143
25.4
144
1.0
145
0.0
146
1.0
147
0.625
 71
1
 72
0
 73
0
 74
0
 75
0
 76
0
 77
1
 78
8
 79
2
170
0
171
1
172
0
173
0
174
0
175
0
176
0
177
0
178
0
270
2
179
2
271
2
272
2
273
2
274
2
275
0
280
0
281
0
282
0
283
1
284
8
285
0
286
0
287
3
288
0
340
11
278
44
341
218
342
218
343
218
344
218
  0
DIMSTYLE
105
21D
100
AcDbSymbolTableRecord
100
AcDbDimStyleTableRecord
  2
DIMSTYLE_1
 70
0
  3

  4

 40
1.0
 41
3.0
 42
0.5
 43
0.38
 44
1.5
 45
0.0
 46
0.0
 47
0.0
 48
0.0
140
3.0
141
0.09
142
0.0
143
25.4
144
1.0
145
0.0
146
1.0
147
0.75
 71
0
 72
0
 73
0
 74
0
 75
0
 76
0
 77
1
 78
8
 79
2
170
0
171
1
172
0
173
0
174
0
175
0
176
0
177
0
178
0
270
2
179
2
271
2
272
2
273
2
274
2
275
0
280
0
281
0
282
0
283
1
284
8
285
0
286
0
287
3
288
0
340
11
278
44
341
218
342
218
343
218
344
218
  0
DIMSTYLE
105
21E
100
AcDbSymbolTableRecord
100
AcDbDimStyleTableRecord
  2
DIMSTYLE_2
 70
0
  3

  4

 40
1.0
 41
3.0
 42
0.5
 43
0.38
 44
1.5
 45
0.0
 46
0.0
 47
0.0
 48
0.0
140
3.0
141
0.09
142
0.0
143
25.4
144
1.0
145
0.0
146
1.0
147
0.75
 71
0
 72
0
 73
0
 74
0
 75
0
 76
0
 77
1
 78
8
 79
2
170
0
171
1
172
0
173
0
174
0
175
0
176
0
177
0
178
0
270
2
179
2
271
1
272
1
273
2
274
2
275
0
280
0
281
0
282
0
283
1
284
8
285
0
286
0
287
3
288
0
340
11
278
44
341
218
342
218
343
218
344
218
  0
ENDTAB
  0
ENDSEC
  0
SECTION
  2
BLOCKS
  0
BLOCK
  5
20
100
AcDbEntity
  8
0
100
AcDbBlockBegin
  2
*Model_Space
 70
0
 10
0.0
 20
0.0
 30
0.0
  3
*Model_Space
  1

  0
ENDBLK
  5
21
100
AcDbEntity
  8
0
100
AcDbBlockEnd
  0
BLOCK
  5
1C
100
AcDbEntity
  8
0
100
AcDbBlockBegin
  2
*Paper_Space
 70
0
 10
0.0
 20
0.0
 30
0.0
  3
*Paper_Space
  1

  0
ENDBLK
  5
1D
100
AcDbEntity
  8
0
100
AcDbBlockEnd
  0
BLOCK
  5
21F
100
AcDbEntity
  8
0
100
AcDbBlockBegin
  2
_FILLED
 70
64
 10
0.0
 20
0.0
  3
_FILLED
  1

  0
SOLID
  5
220
100
AcDbEntity
  8
0
  6
BYBLOCK
 62
0
100
AcDbTrace
 10
0.0
 20
0.0
 11
-1.0
 21
0.3166666667
 12
-1.0
 22
-0.3166666667
 13
-1.0
 23
-0.3166666667
  0
ENDBLK
  5
221
100
AcDbEntity
  8
0
  6
BYBLOCK
 62
0
100
AcDbBlockEnd
  0
BLOCK
  5
222
100
AcDbEntity
  8
0
100
AcDbBlockBegin
 62
7
  6
CONTINUOUS
  2
*D0
 70
65
 10
0.0
 20
0.0
  3
*D0
  1

  0
LINE
  5
223
100
AcDbEntity
  8
0
100
AcDbLine
 62
7
  6
CONTINUOUS
 10
-11.2868905631
 20
13.4959110454
 11
-11.2868905631
 21
31.6337525591
  0
LINE
  5
224
100
AcDbEntity
  8
0
100
AcDbLine
 62
7
  6
CONTINUOUS
 10
11.0131094369
 20
13.4959110454
 11
11.0131094369
 21
31.6337525591
  0
LINE
  5
225
100
AcDbEntity
  8
0
100
AcDbLine
 62
7
  6
CONTINUOUS
 10
-11.2868905631
 20
30.1337525591
 11
-0.1368905631
 21
30.1337525591
  0
LINE
  5
226
100
AcDbEntity
  8
0
100
AcDbLine
 62
7
  6
CONTINUOUS
 10
11.0131094369
 20
30.1337525591
 11
-0.1368905631
 21
30.1337525591
  0
INSERT
  5
227
100
AcDbEntity
  8
0
100
AcDbBlockReference
 62
7
  6
CONTINUOUS
  2
_FILLED
 10
-11.2868905631
 20
30.1337525591
 41
3.0
 42
3.0
 43
3.0
 50
180.0
  0
INSERT
  5
228
100
AcDbEntity
  8
0
100
AcDbBlockReference
 62
7
  6
CONTINUOUS
  2
_FILLED
 10
11.0131094369
 20
30.1337525591
 41
3.0
 42
3.0
 43
3.0
  0
ENDBLK
  5
229
100
AcDbEntity
  8
0
  6
BYBLOCK
 62
0
100
AcDbBlockEnd
  0
BLOCK
  5
22A
100
AcDbEntity
  8
0
100
AcDbBlockBegin
 62
7
  6
CONTINUOUS
  2
*D1
 70
65
 10
0.0
 20
0.0
  3
*D1
  1

  0
LINE
  5
22B
100
AcDbEntity
  8
0
100
AcDbLine
 62
7
  6
CONTINUOUS
 10
10.9996553763
 20
22.0552237511
 11
20.546866535
 21
22.0552237511
  0
LINE
  5
22C
100
AcDbEntity
  8
0
100
AcDbLine
 62
7
  6
CONTINUOUS
 10
10.9996553763
 20
-22.2634016604
 11
20.546866535
 21
-22.2634016604
  0
LINE
  5
22D
100
AcDbEntity
  8
0
100
AcDbLine
 62
7
  6
CONTINUOUS
 10
19.046866535
 20
22.0552237511
 11
19.046866535
 21
-0.1040889546
  0
LINE
  5
22E
100
AcDbEntity
  8
0
100
AcDbLine
 62
7
  6
CONTINUOUS
 10
19.046866535
 20
-22.2634016604
 11
19.046866535
 21
-0.1040889546
  0
INSERT
  5
22F
100
AcDbEntity
  8
0
100
AcDbBlockReference
 62
7
  6
CONTINUOUS
  2
_FILLED
 10
19.046866535
 20
22.0552237511
 41
3.0
 42
3.0
 43
3.0
 50
90.0
  0
INSERT
  5
230
100
AcDbEntity
  8
0
100
AcDbBlockReference
 62
7
  6
CONTINUOUS
  2
_FILLED
 10
19.046866535
 20
-22.2634016604
 41
3.0
 42
3.0
 43
3.0
 50
270.0
  0
ENDBLK
  5
231
100
AcDbEntity
  8
0
  6
BYBLOCK
 62
0
100
AcDbBlockEnd
  0
BLOCK
  5
232
100
AcDbEntity
  8
0
100
AcDbBlockBegin
 62
7
  6
CONTINUOUS
  2
*D2
 70
65
 10
0.0
 20
0.0
  3
*D2
  1

  0
LINE
  5
233
100
AcDbEntity
  8
0
100
AcDbLine
 62
7
  6
CONTINUOUS
 10
-25.7407734545
 20
13.4959110454
 11
-25.7407734545
 21
31.6700990498
  0
LINE
  5
234
100
AcDbEntity
  8
0
100
AcDbLine
 62
7
  6
CONTINUOUS
 10
-31.4406522478
 20
0.744054642
 11
-31.4406522478
 21
31.6700990498
  0
LINE
  5
235
100
AcDbEntity
  8
0
100
AcDbLine
 62
7
  6
CONTINUOUS
 10
-25.7407734545
 20
30.1700990498
 11
-14.2764525402
 21
30.1700990498
  0
LINE
  5
236
100
AcDbEntity
  8
0
100
AcDbLine
 62
7
  6
CONTINUOUS
 10
-14.2764525402
 20
30.1700990498
 11
-28.5907128511
 21
30.1700990498
  0
LINE
  5
237
100
AcDbEntity
  8
0
100
AcDbLine
 62
7
  6
CONTINUOUS
 10
-31.4406522478
 20
30.1700990498
 11
-35.4406522478
 21
30.1700990498
  0
LINE
  5
238
100
AcDbEntity
  8
0
100
AcDbLine
 62
7
  6
CONTINUOUS
 10
-35.4406522478
 20
30.1700990498
 11
-28.5907128511
 21
30.1700990498
  0
INSERT
  5
239
100
AcDbEntity
  8
0
100
AcDbBlockReference
 62
7
  6
CONTINUOUS
  2
_FILLED
 10
-25.7407734545
 20
30.1700990498
 41
3.0
 42
3.0
 43
3.0
 50
180.0
  0
INSERT
  5
23A
100
AcDbEntity
  8
0
100
AcDbBlockReference
 62
7
  6
CONTINUOUS
  2
_FILLED
 10
-31.4406522478
 20
30.1700990498
 41
3.0
 42
3.0
 43
3.0
  0
ENDBLK
  5
23B
100
AcDbEntity
  8
0
  6
BYBLOCK
 62
0
100
AcDbBlockEnd
  0
ENDSEC
  0
SECTION
  2
ENTITIES
  0
DIMENSION
  5
23C
100
AcDbEntity
  8
0
100
AcDbDimension
 62
7
  6
CONTINUOUS
  2
*D0
 10
11.0131094369
 20
30.1337525591
 11
-4.4226048488
 21
30.1337525591
 70
160
 71
2
 72
2
 41
0.9
 42
22.3
  3
DIMSTYLE_1
100
AcDbAlignedDimension
 13
-11.2868905631
 23
12.9959110454
 14
11.0131094369
 24
12.9959110454
100
AcDbRotatedDimension
  0
DIMENSION
  5
23D
100
AcDbEntity
  8
0
100
AcDbDimension
 62
7
  6
CONTINUOUS
  2
*D1
 10
19.046866535
 20
-22.2634016604
 11
19.046866535
 21
-4.3898032404
 70
160
 71
2
 72
2
 41
0.9
 42
44.3186254114
  3
DIMSTYLE_2
100
AcDbAlignedDimension
 13
10.4996553763
 23
22.0552237511
 14
10.4996553763
 24
-22.2634016604
 50
270.0
100
AcDbRotatedDimension
  0
DIMENSION
  5
23E
100
AcDbEntity
  8
0
100
AcDbDimension
 62
7
  6
CONTINUOUS
  2
*D2
 10
-31.4406522478
 20
30.1700990498
 11
-20.4907382545
 21
30.1700990498
 70
160
 71
1
 72
2
 41
0.9
 42
5.6998787933
  3
DIMSTYLE_1
100
AcDbAlignedDimension
 13
-25.7407734545
 23
12.9959110454
 14
-31.4406522478
 24
0.244054642
 50
180.0
100
AcDbRotatedDimension
  0
LWPOLYLINE
  5
23F
100
AcDbEntity
  8
0
100
AcDbPolyline
 62
7
  6
CONTINUOUS
 90
5
 70
0
 43
0.3500000019
 10
2.863109375
 20
32.5980380859
 10
3.2202548828
 20
32.8123232422
 10
3.2202548828
 20
33.4551813965
 10
2.863109375
 20
33.883751709
 10
2.00596875
 20
33.883751709
  0
LWPOLYLINE
  5
240
100
AcDbEntity
  8
ASSI
100
AcDbPolyline
 62
250
  6
CONTINUOUS
 90
15
 70
0
 10
-11.2033479139
 20
20.4378169018
 10
-11.202019441
 20
20.4389994238
 10
-11.1990411216
 20
20.4401780327
 10
-11.1944228109
 20
20.4413488286
 10
-11.1881797908
 20
20.4425079374
 10
-11.1803327193
 20
20.4436515235
 10
-11.1709075625
 20
20.4447758028
 10
-11.159935508
 20
20.4458770552
 10
-11.1474528621
 20
20.4469516366
 10
-11.13350093
 20
20.4479959912
 10
-11.1181258782
 20
20.4490066633
 10
-11.1013785828
 20
20.4499803084
 10
-11.0833144603
 20
20.450913705
 10
-11.0639932848
 20
20.4518037644
 10
-11.0434789897
 20
20.4526475413
  0
LINE
  5
241
100
AcDbEntity
  8
ASSI
100
AcDbLine
 62
7
  6
CONTINUOUS
 10
3.2546844439
 20
-22.2634016604
 11
3.60537441
 21
-22.2315685024
  0
LINE
  5
242
100
AcDbEntity
  8
ASSI
100
AcDbLine
 62
7
  6
CONTINUOUS
 10
-7.9453155561
 20
-22.2634016604
 11
-7.59462559
 21
-22.2315685024
  0
LINE
  5
243
100
AcDbEntity
  8
ASSI
100
AcDbLine
 62
250
  6
CONTINUOUS
 10
10.7696978635
 20
-20.6608254506
 11
10.7253651644
 21
-20.6623631513
  0
LINE
  5
244
100
AcDbEntity
  8
ASSI
100
AcDbLine
 62
250
  6
CONTINUOUS
 10
10.7253651644
 20
-20.6623631513
 11
10.6771215371
 21
-20.6636843804
  0
LINE
  5
245
100
AcDbEntity
  8
ASSI
100
AcDbLine
 62
250
  6
CONTINUOUS
 10
10.6771215371
 20
-20.6636843804
 11
10.6256050039
 21
-20.6647716647
  0
LINE
  5
246
100
AcDbEntity
  8
ASSI
100
AcDbLine
 62
250
  6
CONTINUOUS
 10
10.6256050039
 20
-20.6647716647
 11
10.5714968712
 21
-20.6656106247
  0
LINE
  5
247
100
AcDbEntity
  8
ASSI
100
AcDbLine
 62
250
  6
CONTINUOUS
 10
10.5714968712
 20
-20.6656106247
 11
10.5155127195
 21
-20.6661901653
  0
LINE
  5
248
100
AcDbEntity
  8
ASSI
100
AcDbLine
 62
250
  6
CONTINUOUS
 10
10.5155127195
 20
-20.6661901653
 11
10.4583929395
 21
-20.6665026219
  0
LINE
  5
249
100
AcDbEntity
  8
ASSI
100
AcDbLine
 62
7
  6
CONTINUOUS
 10
-10.7734365025
 20
-22.2634016604
 11
-7.9453155561
 21
-22.2634016604
  0
LINE
  5
24A
100
AcDbEntity
  8
ASSI
100
AcDbLine
 62
7
  6
CONTINUOUS
 10
-3.5284655701
 20
-22.2634016604
 11
3.2546844439
 21
-22.2634016604
  0
LINE
  5
24B
100
AcDbEntity
  8
ASSI
100
AcDbLine
 62
7
  6
CONTINUOUS
 10
7.6715344299
 20
-22.2634016604
 11
10.4996553763
 21
-22.2634016604
  0
LINE
  5
24C
100
AcDbEntity
  8
ASSI
100
AcDbLine
 62
7
  6
CONTINUOUS
 10
-7.4214205093
 20
-22.2263277244
 11
-4.0523606169
 21
-22.2263277244
  0
LINE
  5
24D
100
AcDbEntity
  8
ASSI
100
AcDbLine
 62
7
  6
CONTINUOUS
 10
3.7785794907
 20
-22.2263277244
 11
7.1476393831
 21
-22.2263277244
  0
LINE
  5
24E
100
AcDbEntity
  8
ASSI
100
AcDbLine
 62
250
  6
CONTINUOUS
 10
10.446170013
 20
-22.1028150843
 11
-10.7199511392
 21
-22.1028150843
  0
LINE
  5
24F
100
AcDbEntity
  8
ASSI
100
AcDbLine
 62
250
  6
CONTINUOUS
 10
10.4583929395
 20
-20.6665026219
 11
-10.7034240418
 21
-20.6665367855
  0
LINE
  5
250
100
AcDbEntity
  8
ASSI
100
AcDbLine
 62
250
  6
CONTINUOUS
 10
-10.7608289561
 20
-20.6663801374
 11
-10.7034240663
 21
-20.6665572795
  0
LINE
  5
251
100
AcDbEntity
  8
ASSI
100
AcDbLine
 62
250
  6
CONTINUOUS
 10
-10.8174746653
 20
-20.665933399
 11
-10.7608289561
 21
-20.6663801374
  0
LINE
  5
252
100
AcDbEntity
  8
ASSI
100
AcDbLine
 62
250
  6
CONTINUOUS
 10
-10.8726120533
 20
-20.6652229724
 11
-10.8174746653
 21
-20.665933399
  0
LINE
  5
253
100
AcDbEntity
  8
ASSI
100
AcDbLine
 62
250
  6
CONTINUOUS
 10
-10.9255119271
 20
-20.6642582531
 11
-10.8726120533
 21
-20.6652229724
  0
LINE
  5
254
100
AcDbEntity
  8
ASSI
100
AcDbLine
 62
250
  6
CONTINUOUS
 10
-10.9754746852
 20
-20.6630519995
 11
-10.9255119271
 21
-20.6642582531
  0
LINE
  5
255
100
AcDbEntity
  8
ASSI
100
AcDbLine
 62
7
  6
CONTINUOUS
 10
-3.5284655701
 20
-22.2634016604
 11
-3.8791555362
 21
-22.2315685024
  0
LINE
  5
256
100
AcDbEntity
  8
ASSI
100
AcDbLine
 62
7
  6
CONTINUOUS
 10
7.6715344299
 20
-22.2634016604
 11
7.3208444638
 21
-22.2315685024
  0
LWPOLYLINE
  5
257
100
AcDbEntity
  8
ASSI
100
AcDbPolyline
 62
250
  6
CONTINUOUS
 90
17
 70
0
 10
-11.2033479139
 20
-20.6459948111
 10
-11.2020194595
 20
-20.6471773336
 10
-11.1990411571
 20
-20.6483559432
 10
-11.1944228618
 20
-20.6495267398
 10
-11.1881798556
 20
-20.6506858493
 10
-11.1803327964
 20
-20.6518294361
 10
-11.1709076502
 20
-20.6529537163
 10
-11.1599356047
 20
-20.6540549694
 10
-11.1474529663
 20
-20.6551295516
 10
-11.1335010399
 20
-20.656173907
 10
-11.1181259923
 20
-20.6571845799
 10
-11.1013786995
 20
-20.6581582259
 10
-11.0833145781
 20
-20.6590916232
 10
-11.0639934021
 20
-20.6599816833
 10
-11.0434791052
 20
-20.660825461
 10
-11.021839569
 20
-20.6616201642
 10
-10.9754746852
 20
-20.6630519995
  0
LINE
  5
258
100
AcDbEntity
  8
CURVE
100
AcDbLine
 62
250
  6
CONTINUOUS
 10
-0.1177095631
 20
17.5697730454
 11
-3.6737195631
 21
14.5778570454
  0
LINE
  5
259
100
AcDbEntity
  8
CURVE
100
AcDbLine
 62
250
  6
CONTINUOUS
 10
-3.6740655631
 20
-16.0408859546
 11
2.6861744369
 21
-16.0408859546
  0
LINE
  5
25A
100
AcDbEntity
  8
CURVE
100
AcDbLine
 62
250
  6
CONTINUOUS
 10
3.4414124369
 20
-13.4063689546
 11
-0.0198915631
 21
-13.4063689546
  0
LWPOLYLINE
  5
25B
100
AcDbEntity
  8
ASSI
100
AcDbPolyline
 62
250
  6
CONTINUOUS
 90
28
 70
0
 10
-11.2198746845
 20
21.3953214999
 10
-11.2190033406
 20
21.4243372209
 10
-11.2164453237
 20
21.453254876
 10
-11.2122092792
 20
21.4819767307
 10
-11.2063095239
 20
21.5104057123
 10
-11.1987659976
 20
21.538445738
 10
-11.1896041955
 20
21.5660020395
 10
-11.1788550821
 20
21.5929814833
 10
-11.1665549868
 20
21.6192928856
 10
-11.1527454809
 20
21.6448473206
 10
-11.137473237
 20
21.6695584204
 10
-11.1207898716
 20
21.6933426679
 10
-11.1027517701
 20
21.7161196782
 10
-11.083419897
 20
21.7378124706
 10
-11.0628595891
 20
21.7583477289
 10
-11.0411403351
 20
21.7776560492
 10
-11.0183355407
 20
21.795672174
 10
-10.9945222804
 20
21.8123352133
 10
-10.9697810371
 20
21.8275888504
 10
-10.9441954301
 20
21.8413815315
 10
-10.9178519322
 20
21.853666641
 10
-10.890839578
 20
21.8644026583
 10
-10.8632496625
 20
21.8735532982
 10
-10.8351754327
 20
21.8810876338
 10
-10.8067117725
 20
21.8869802011
 10
-10.7779548819
 20
21.8912110846
 10
-10.7490019522
 20
21.893765985
 10
-10.7199508369
 20
21.8946362673
  0
LWPOLYLINE
  5
25C
100
AcDbEntity
  8
ASSI
100
AcDbPolyline
 62
250
  6
CONTINUOUS
 90
9
 70
0
 10
-11.2143030727
 20
21.3251068314
 10
-11.2149742046
 20
21.3395843127
 10
-11.2156539578
 20
21.3524538533
 10
-11.2163423838
 20
21.3637071678
 10
-11.2170394311
 20
21.3733525417
 10
-11.2177415407
 20
21.3813415086
 10
-11.2184475263
 20
21.3876579128
 10
-11.2191585743
 20
21.3923179099
 10
-11.2198746845
 20
21.3953214999
  0
LWPOLYLINE
  5
25D
100
AcDbEntity
  8
ASSI
100
AcDbPolyline
 62
250
  6
CONTINUOUS
 90
22
 70
0
 10
-11.195973994
 20
0.2413430226
 10
-11.1954126695
 20
0.2263989957
 10
-11.1937363862
 20
0.2115385273
 10
-11.1909545171
 20
0.1968447072
 10
-11.1870826168
 20
0.1823996934
 10
-11.1821423348
 20
0.1682842529
 10
-11.1761612944
 20
0.1545773105
 10
-11.1691729381
 20
0.141355506
 10
-11.1612163406
 20
0.1286927667
 10
-11.1523359905
 20
0.1166598944
 10
-11.1425815415
 20
0.1053241685
 10
-11.1320075342
 20
0.0947489703
 10
-11.1206730923
 20
0.084993429
 10
-11.1086415907
 20
0.0761120905
 10
-11.0959803017
 20
0.0681546125
 10
-11.0827600195
 20
0.0611654873
 10
-11.0690546631
 20
0.0551837926
 10
-11.0549408638
 20
0.0502429732
 10
-11.0404975365
 20
0.0463706539
 10
-11.0258054386
 20
0.0435884852
 10
-11.0109467182
 20
0.0419120224
 10
-10.9960044549
 20
0.041350638
  0
LINE
  5
25E
100
AcDbEntity
  8
ASSI
100
AcDbLine
 62
250
  6
CONTINUOUS
 10
-11.2129969578
 20
21.2915404358
 11
-11.2143030727
 21
21.3251068314
  0
LINE
  5
25F
100
AcDbEntity
  8
ASSI
100
AcDbLine
 62
250
  6
CONTINUOUS
 10
-11.2117422086
 20
21.2519240495
 11
-11.2129969578
 21
21.2915404358
  0
LWPOLYLINE
  5
260
100
AcDbEntity
  8
ASSI
100
AcDbPolyline
 62
250
  6
CONTINUOUS
 90
28
 70
0
 10
-11.2198746845
 20
-21.6034994092
 10
-11.2190033411
 20
-21.6325151209
 10
-11.2164453257
 20
-21.6614327676
 10
-11.2122092837
 20
-21.6901546148
 10
-11.2063095315
 20
-21.7185835899
 10
-11.1987660088
 20
-21.7466236101
 10
-11.1896042106
 20
-21.7741799072
 10
-11.1788551015
 20
-21.8011593478
 10
-11.1665550105
 20
-21.8274707479
 10
-11.1527455087
 20
-21.8530251817
 10
-11.1374732688
 20
-21.8777362815
 10
-11.1207899069
 20
-21.9015205298
 10
-11.1027518085
 20
-21.9242975417
 10
-11.0834199379
 20
-21.9459903365
 10
-11.0628596318
 20
-21.9665255979
 10
-11.0411403789
 20
-21.9858339217
 10
-11.0183355848
 20
-22.0038500504
 10
-10.9945223239
 20
-22.020513094
 10
-10.9697810793
 20
-22.0357667353
 10
-10.94419547
 20
-22.0495594207
 10
-10.9178519691
 20
-22.0618445344
 10
-10.8908396112
 20
-22.0725805554
 10
-10.8632496913
 20
-22.0817311988
 10
-10.8351754564
 20
-22.0892655375
 10
-10.8067117907
 20
-22.0951581072
 10
-10.7779548944
 20
-22.0993889925
 10
-10.7490019585
 20
-22.1019438939
 10
-10.7199508369
 20
-22.1028141766
  0
LINE
  5
261
100
AcDbEntity
  8
ASSI
100
AcDbLine
 62
250
  6
CONTINUOUS
 10
-11.2105484789
 20
21.2065390003
 11
-11.2117422086
 21
21.2519240495
  0
LINE
  5
262
100
AcDbEntity
  8
ASSI
100
AcDbLine
 62
250
  6
CONTINUOUS
 10
-10.7130729877
 20
21.7389494549
 11
-10.7143790646
 21
21.7893271273
  0
LINE
  5
263
100
AcDbEntity
  8
ASSI
100
AcDbLine
 62
250
  6
CONTINUOUS
 10
-11.2088899729
 20
21.1283648133
 11
-11.2105484789
 21
21.2065390003
  0
LINE
  5
264
100
AcDbEntity
  8
ASSI
100
AcDbLine
 62
250
  6
CONTINUOUS
 10
-10.7112138472
 20
21.6465636974
 11
-10.7130729877
 21
21.7389494549
  0
LINE
  5
265
100
AcDbEntity
  8
ASSI
100
AcDbLine
 62
250
  6
CONTINUOUS
 10
-11.2069629837
 20
21.0071523248
 11
-11.2088899729
 21
21.1283648133
  0
LINE
  5
266
100
AcDbEntity
  8
ASSI
100
AcDbLine
 62
250
  6
CONTINUOUS
 10
-10.7089661679
 20
21.4942332931
 11
-10.7112138472
 21
21.6465636974
  0
LINE
  5
267
100
AcDbEntity
  8
ASSI
100
AcDbLine
 62
250
  6
CONTINUOUS
 10
-11.2050817989
 20
20.8329440693
 11
-11.2069629837
 21
21.0071523248
  0
LINE
  5
268
100
AcDbEntity
  8
ASSI
100
AcDbLine
 62
250
  6
CONTINUOUS
 10
-10.7062120423
 20
21.211913669
 11
-10.7089661679
 21
21.4942332931
  0
LINE
  5
269
100
AcDbEntity
  8
ASSI
100
AcDbLine
 62
250
  6
CONTINUOUS
 10
-11.2036994521
 20
20.6004602797
 11
-11.2050817989
 21
20.8329440693
  0
LINE
  5
26A
100
AcDbEntity
  8
ASSI
100
AcDbLine
 62
250
  6
CONTINUOUS
 10
-10.7039361863
 20
20.7624016017
 11
-10.7062120423
 21
21.211913669
  0
LINE
  5
26B
100
AcDbEntity
  8
ASSI
100
AcDbLine
 62
7
  6
CONTINUOUS
 10
-11.2868905631
 20
-13.2040889546
 11
-11.2738163258
 21
-21.7654559326
  0
LINE
  5
26C
100
AcDbEntity
  8
ASSI
100
AcDbLine
 62
7
  6
CONTINUOUS
 10
-11.2868905631
 20
-0.4040661094
 11
-11.2868905631
 21
-13.2040889546
  0
LINE
  5
26D
100
AcDbEntity
  8
ASSI
100
AcDbLine
 62
7
  6
CONTINUOUS
 10
-11.2868905631
 20
0.1958882001
 11
-11.2868905631
 21
12.9959110454
  0
LINE
  5
26E
100
AcDbEntity
  8
ASSI
100
AcDbLine
 62
250
  6
CONTINUOUS
 10
-11.195974284
 20
0.2413428776
 11
-11.2036994521
 21
20.6004602797
  0
LINE
  5
26F
100
AcDbEntity
  8
ASSI
100
AcDbLine
 62
250
  6
CONTINUOUS
 10
-10.696050175
 20
0.0439229919
 11
-10.7039361863
 21
20.7624016017
  0
LINE
  5
270
100
AcDbEntity
  8
ASSI
100
AcDbLine
 62
7
  6
CONTINUOUS
 10
-11.2868905631
 20
12.9959110454
 11
-11.2738163258
 21
21.5572780233
  0
LINE
  5
271
100
AcDbEntity
  8
ASSI
100
AcDbLine
 62
250
  6
CONTINUOUS
 10
-11.2038599488
 20
-20.8486751127
 11
-11.195974284
 21
-0.4495207869
  0
LINE
  5
272
100
AcDbEntity
  8
ASSI
100
AcDbLine
 62
250
  6
CONTINUOUS
 10
-10.7045869396
 20
-21.1464504808
 11
-10.696050175
 21
-0.2521009012
  0
LINE
  5
273
100
AcDbEntity
  8
ASSI
100
AcDbLine
 62
250
  6
CONTINUOUS
 10
-10.7070392337
 20
-21.5205722086
 11
-10.7045869396
 21
-21.1464504808
  0
LINE
  5
274
100
AcDbEntity
  8
ASSI
100
AcDbLine
 62
250
  6
CONTINUOUS
 10
-11.2054078041
 20
-21.0777108588
 11
-11.2038599488
 21
-20.8486751127
  0
LINE
  5
275
100
AcDbEntity
  8
ASSI
100
AcDbLine
 62
250
  6
CONTINUOUS
 10
-10.709500773
 20
-21.7434352085
 11
-10.7070392337
 21
-21.5205722086
  0
LINE
  5
276
100
AcDbEntity
  8
ASSI
100
AcDbLine
 62
250
  6
CONTINUOUS
 10
-11.2074115977
 20
-21.2472915578
 11
-11.2054078041
 21
-21.0777108588
  0
LINE
  5
277
100
AcDbEntity
  8
ASSI
100
AcDbLine
 62
250
  6
CONTINUOUS
 10
-10.7118182969
 20
-21.8877141925
 11
-10.709500773
 21
-21.7434352085
  0
LINE
  5
278
100
AcDbEntity
  8
ASSI
100
AcDbLine
 62
250
  6
CONTINUOUS
 10
-11.2094245978
 20
-21.3639239149
 11
-11.2074115977
 21
-21.2472915578
  0
LINE
  5
279
100
AcDbEntity
  8
ASSI
100
AcDbLine
 62
250
  6
CONTINUOUS
 10
-10.7130729877
 20
-21.9471273648
 11
-10.7118182969
 21
-21.8877141925
  0
LINE
  5
27A
100
AcDbEntity
  8
ASSI
100
AcDbLine
 62
250
  6
CONTINUOUS
 10
-11.2111377353
 20
-21.4381287134
 11
-11.2094245978
 21
-21.3639239149
  0
LINE
  5
27B
100
AcDbEntity
  8
ASSI
100
AcDbLine
 62
250
  6
CONTINUOUS
 10
-11.2123619747
 20
-21.4806294311
 11
-11.2111377353
 21
-21.4381287134
  0
LWPOLYLINE
  5
27C
100
AcDbEntity
  8
ASSI
100
AcDbPolyline
 62
250
  6
CONTINUOUS
 90
22
 70
0
 10
-11.195973994
 20
-0.4495209319
 10
-11.1954126712
 20
-0.4345769285
 10
-11.193736393
 20
-0.4197164818
 10
-11.1909545319
 20
-0.4050226813
 10
-11.1870826422
 20
-0.3905776849
 10
-11.1821423729
 20
-0.3764622592
 10
-11.1761613466
 20
-0.362755328
 10
-11.1691730051
 20
-0.3495335312
 10
-11.1612164225
 20
-0.3368707962
 10
-11.1523360867
 20
-0.3248379243
 10
-11.1425816505
 20
-0.3135021952
 10
-11.1320076539
 20
-0.3029269906
 10
-11.1206732197
 20
-0.2931714399
 10
-11.1086417224
 20
-0.2842900896
 10
-11.0959804338
 20
-0.276332598
 10
-11.0827601474
 20
-0.2693434582
 10
-11.069054782
 20
-0.2633617486
 10
-11.0549409687
 20
-0.2584209148
 10
-11.0404976224
 20
-0.2545485828
 10
-11.0258055004
 20
-0.2517664039
 10
-11.0109467513
 20
-0.2500899341
 10
-10.9960044549
 20
-0.2495285473
  0
LINE
  5
27D
100
AcDbEntity
  8
CURVE
100
AcDbLine
 62
250
  6
CONTINUOUS
 10
1.4843624369
 20
14.1845120454
 11
-0.0195455631
 21
12.6792210454
  0
LWPOLYLINE
  5
27E
100
AcDbEntity
  8
ASSI
100
AcDbPolyline
 62
250
  6
CONTINUOUS
 90
7
 70
0
 10
-10.7157299234
 20
21.8303288734
 10
-10.7164182884
 20
21.8472238347
 10
-10.7171152645
 20
21.8616760536
 10
-10.7178173751
 20
21.873661582
 10
-10.7185234613
 20
21.8831602912
 10
-10.7192346821
 20
21.8901560844
 10
-10.7199510373
 20
21.8946371749
  0
LINE
  5
27F
100
AcDbEntity
  8
ASSI
100
AcDbLine
 62
250
  6
CONTINUOUS
 10
-10.7143790646
 20
21.7893271273
 11
-10.7157299234
 21
21.8303288734
  0
LWPOLYLINE
  5
280
100
AcDbEntity
  8
0
100
AcDbPolyline
 62
7
  6
CONTINUOUS
 90
3
 70
0
 43
0.3500000019
 10
1.0059677734
 20
31.1694667969
 10
0.9345375977
 20
30.9551816406
 10
0.7916826172
 20
30.6694663086
  0
LINE
  5
281
100
AcDbEntity
  8
ASSI
100
AcDbLine
 62
250
  6
CONTINUOUS
 10
-11.2868905631
 20
0.1958882001
 11
-11.195974284
 21
0.2413428776
  0
LINE
  5
282
100
AcDbEntity
  8
ASSI
100
AcDbLine
 62
250
  6
CONTINUOUS
 10
-11.0868905619
 20
-0.0040889546
 11
-10.9960044549
 21
0.041350638
  0
LWPOLYLINE
  5
283
100
AcDbEntity
  8
ASSI
100
AcDbPolyline
 62
250
  6
CONTINUOUS
 90
10
 70
0
 10
-10.7199510373
 20
-22.1028150842
 10
-10.7192346821
 20
-22.0983339938
 10
-10.7185234613
 20
-22.0913382007
 10
-10.7178173751
 20
-22.0818394915
 10
-10.7171152645
 20
-22.0698539632
 10
-10.7164182884
 20
-22.0554017443
 10
-10.7157299234
 20
-22.0385067831
 10
-10.7150501885
 20
-22.0191969936
 10
-10.7143790646
 20
-21.9975050371
 10
-10.7130729877
 20
-21.9471273648
  0
LWPOLYLINE
  5
284
100
AcDbEntity
  8
ASSI
100
AcDbPolyline
 62
250
  6
CONTINUOUS
 90
11
 70
0
 10
-11.2198746845
 20
-21.6034994092
 10
-11.2191585743
 20
-21.6004958193
 10
-11.2184475264
 20
-21.5958358222
 10
-11.2177415408
 20
-21.589519418
 10
-11.2170394311
 20
-21.5815304512
 10
-11.2163423838
 20
-21.5718850773
 10
-11.2156539578
 20
-21.5606317628
 10
-11.2149742046
 20
-21.5477622223
 10
-11.2143030728
 20
-21.5332847411
 10
-11.2136439668
 20
-21.5172726419
 10
-11.2123619747
 20
-21.4806294311
  0
LINE
  5
285
100
AcDbEntity
  8
ASSI
100
AcDbLine
 62
7
  6
CONTINUOUS
 10
-9.9827798618
 20
0.0229643355
 11
-10.0368905631
 21
-0.0040889546
  0
LINE
  5
286
100
AcDbEntity
  8
CURVE
100
AcDbLine
 62
250
  6
CONTINUOUS
 10
3.4414124369
 20
-13.4063689546
 11
1.9375044369
 21
-11.9014249546
  0
LINE
  5
287
100
AcDbEntity
  8
ASSI
100
AcDbLine
 62
250
  6
CONTINUOUS
 10
-11.2738163258
 20
-21.7654559326
 11
-11.2198746845
 21
-21.6034994092
  0
LINE
  5
288
100
AcDbEntity
  8
ASSI
100
AcDbLine
 62
7
  6
CONTINUOUS
 10
-2.4386231436
 20
0.0229643355
 11
-2.4332322931
 21
0.0255823958
  0
LINE
  5
289
100
AcDbEntity
  8
ASSI
100
AcDbLine
 62
250
  6
CONTINUOUS
 10
-11.195974284
 20
-0.4495207869
 11
-11.2868905631
 21
-0.4040661094
  0
LINE
  5
28A
100
AcDbEntity
  8
ASSI
100
AcDbLine
 62
250
  6
CONTINUOUS
 10
-10.9960044549
 20
-0.2495285473
 11
-11.0868905619
 21
-0.2040889546
  0
LINE
  5
28B
100
AcDbEntity
  8
CURVE
100
AcDbLine
 62
250
  6
CONTINUOUS
 10
2.6861744369
 20
-10.8710529546
 11
-0.1177095631
 21
-8.5161629546
  0
LINE
  5
28C
100
AcDbEntity
  8
CURVE
100
AcDbLine
 62
250
  6
CONTINUOUS
 10
-3.6740655631
 20
-11.5080789546
 11
-3.6740655631
 21
-16.0408861313
  0
LINE
  5
28D
100
AcDbEntity
  8
CURVE
100
AcDbLine
 62
250
  6
CONTINUOUS
 10
-3.6737195631
 20
14.5778570454
 11
-3.6737195631
 21
10.0450498941
  0
LINE
  5
28E
100
AcDbEntity
  8
ASSI
100
AcDbLine
 62
250
  6
CONTINUOUS
 10
-10.7734365025
 20
-22.2634016604
 11
-10.7199511392
 21
-22.1028150843
  0
LINE
  5
28F
100
AcDbEntity
  8
ASSI
100
AcDbLine
 62
250
  6
CONTINUOUS
 10
-1.4629848562
 20
-0.4675431139
 11
-1.4671753569
 21
-0.472099665
  0
LINE
  5
290
100
AcDbEntity
  8
ASSI
100
AcDbLine
 62
250
  6
CONTINUOUS
 10
-1.4678302511
 20
-0.4722973638
 11
-1.4671752901
 21
-0.4721036411
  0
LINE
  5
291
100
AcDbEntity
  8
ASSI
100
AcDbLine
 62
250
  6
CONTINUOUS
 10
1.1940491249
 20
0.2641194545
 11
1.1933941639
 21
0.2639257318
  0
LWPOLYLINE
  5
292
100
AcDbEntity
  8
ASSI
100
AcDbPolyline
 62
250
  6
CONTINUOUS
 90
7
 70
0
 10
10.7222233287
 20
-0.2495285473
 10
10.7215418217
 20
-0.249664461
 10
10.72006952
 20
-0.2497991952
 10
10.7178064235
 20
-0.24993275
 10
10.7147423605
 20
-0.2500654816
 10
10.7108875028
 20
-0.2501970337
 10
10.7062723653
 20
-0.2503263375
  0
LWPOLYLINE
  5
293
100
AcDbEntity
  8
ASSI
100
AcDbPolyline
 62
250
  6
CONTINUOUS
 90
5
 70
0
 10
10.9221931576
 20
-0.4495208407
 10
10.9210721204
 20
-0.4496639912
 10
10.9186138843
 20
-0.44980597
 10
10.9148252977
 20
-0.4499467288
 10
10.9097170324
 20
-0.4500865344
  0
LWPOLYLINE
  5
294
100
AcDbEntity
  8
0
100
AcDbPolyline
 62
7
  6
CONTINUOUS
 90
2
 70
0
 43
0.3500000019
 10
18.2968666992
 20
-3.3898033447
 10
16.7968652344
 20
-3.3898033447
  0
LINE
  5
295
100
AcDbEntity
  8
ASSI
100
AcDbLine
 62
7
  6
CONTINUOUS
 10
-9.9827798618
 20
-0.2311422448
 11
-10.0368905631
 21
-0.2040889546
  0
LINE
  5
296
100
AcDbEntity
  8
ASSI
100
AcDbLine
 62
250
  6
CONTINUOUS
 10
-11.2198746845
 20
21.3953214999
 11
-11.2738163258
 21
21.5572780233
  0
LINE
  5
297
100
AcDbEntity
  8
ASSI
100
AcDbLine
 62
250
  6
CONTINUOUS
 10
-10.7199511392
 20
21.894637175
 11
-10.7734365025
 21
22.0552237511
  0
LINE
  5
298
100
AcDbEntity
  8
ASSI
100
AcDbLine
 62
250
  6
CONTINUOUS
 10
-1.7563034801
 20
0.244054634
 11
-1.7563034802
 21
0.043922992
  0
LINE
  5
299
100
AcDbEntity
  8
ASSI
100
AcDbLine
 62
250
  6
CONTINUOUS
 10
-1.7563034801
 20
-0.4522325433
 11
-1.7563034801
 21
-0.2521009013
  0
LWPOLYLINE
  5
29A
100
AcDbEntity
  8
ASSI
100
AcDbPolyline
 62
250
  6
CONTINUOUS
 90
64
 70
0
 10
-1.659926847
 20
0.317417809
 10
-1.641600279
 20
0.378962088
 10
-1.6207271209
 20
0.4397432699
 10
-1.5973073727
 20
0.4997613541
 10
-1.5712981415
 20
0.5591626569
 10
-1.5427423202
 20
0.6178008609
 10
-1.5117685874
 20
0.6752370157
 10
-1.4783455201
 20
0.7314584857
 10
-1.4425045412
 20
0.7864779062
 10
-1.404468598
 20
0.8398942336
 10
-1.3642159533
 20
0.8916827735
 10
-1.3217683443
 20
0.9418682209
 10
-1.2774139298
 20
0.9901236162
 10
-1.2311675754
 20
1.0364046036
 10
-1.1830144154
 20
1.0807555405
 10
-1.1331980126
 20
1.1229825369
 10
-1.0817260297
 20
1.1630713129
 10
-1.0285908039
 20
1.2010361505
 10
-0.9740129086
 20
1.2367260038
 10
-0.917971049
 20
1.2701449976
 10
-0.8604865199
 20
1.3012890094
 10
-0.8018437789
 20
1.3299946222
 10
-0.7420252032
 20
1.3562527022
 10
-0.6810484156
 20
1.3800723854
 10
-0.6192507416
 20
1.4013176595
 10
-0.5566339726
 20
1.419970304
 10
-0.4931963172
 20
1.4360485412
 10
-0.4292697264
 20
1.4494710224
 10
-0.3648561425
 20
1.4602232447
 10
-0.2999536232
 20
1.4683197122
 10
-0.2348882928
 20
1.4737225869
 10
-0.1696602808
 20
1.4764192382
 10
-0.1042694577
 20
1.476422297
 10
-0.039041559
 20
1.4737318171
 10
0.0260234322
 20
1.4683352016
 10
0.0909254991
 20
1.460245047
 10
0.1553388547
 20
1.449499197
 10
0.2192653387
 20
1.4360832531
 10
0.2827031114
 20
1.4200116127
 10
0.3453208671
 20
1.4013653135
 10
0.4071206694
 20
1.3801261006
 10
0.4681004547
 20
1.3563122271
 10
0.5279227261
 20
1.330059493
 10
0.5865703109
 20
1.3013583845
 10
0.6440603819
 20
1.2702184131
 10
0.7001069603
 20
1.2368039177
 10
0.7546883508
 20
1.201119018
 10
0.8078262488
 20
1.163159592
 10
0.8592997615
 20
1.1230776158
 10
0.9091156653
 20
1.0808597534
 10
0.9572671838
 20
1.0365193388
 10
1.0035130959
 20
0.9902483525
 10
1.04786854
 20
0.9420029551
 10
1.0903183777
 20
0.8918269844
 10
1.1305759726
 20
0.840043937
 10
1.1686205773
 20
0.7866282698
 10
1.2044729391
 20
0.7316055253
 10
1.2379086644
 20
0.6753758287
 10
1.2688966273
 20
0.6179256704
 10
1.2974679536
 20
0.5592685603
 10
1.3234916277
 20
0.4998451531
 10
1.3469239776
 20
0.4398023342
 10
1.3678086753
 20
0.3789932193
 10
1.3861457208
 20
0.317417809
  0
LWPOLYLINE
  5
29B
100
AcDbEntity
  8
ASSI
100
AcDbPolyline
 62
250
  6
CONTINUOUS
 90
64
 70
0
 10
-1.4671752781
 20
0.2639220406
 10
-1.4511754772
 20
0.3175072126
 10
-1.4329384598
 20
0.3706178095
 10
-1.4124676855
 20
0.4231567349
 10
-1.3897565027
 20
0.4750570867
 10
-1.3648288411
 20
0.526187829
 10
-1.3377519874
 20
0.5763601668
 10
-1.3085573932
 20
0.6254820303
 10
-1.2772819493
 20
0.6734598701
 10
-1.2440298192
 20
0.7201167248
 10
-1.2088603749
 20
0.7653652656
 10
-1.171828203
 20
0.8091314592
 10
-1.1330547229
 20
0.8512758592
 10
-1.0926385683
 20
0.8917063182
 10
-1.0506308161
 20
0.9303861456
 10
-1.0070915936
 20
0.9672689226
 10
-0.9621083894
 20
1.0022883184
 10
-0.9157520307
 20
1.0353967127
 10
-0.8680548832
 20
1.0665729258
 10
-0.8190817084
 20
1.0957708547
 10
-0.7689296443
 20
1.1229289055
 10
-0.7176784968
 20
1.148001156
 10
-0.6654051769
 20
1.1709462394
 10
-0.6122071127
 20
1.1917177154
 10
-0.5581985612
 20
1.2102697451
 10
-0.5034783303
 20
1.2265692556
 10
-0.4481341094
 20
1.2405909806
 10
-0.3922666033
 20
1.2523102314
 10
-0.3359753979
 20
1.2617075521
 10
-0.2793531801
 20
1.2687688889
 10
-0.2224913811
 20
1.2734836733
 10
-0.1654878856
 20
1.2758443173
 10
-0.1084394218
 20
1.2758473388
 10
-0.0514359159
 20
1.2734927481
 10
0.0054258258
 20
1.2687840547
 10
0.0620480037
 20
1.2617288641
 10
0.1183394317
 20
1.2523377191
 10
0.174207322
 20
1.2406246864
 10
0.229552196
 20
1.2266091947
 10
0.2842738844
 20
1.2103157491
 10
0.3382848733
 20
1.191769467
 10
0.3914861245
 20
1.1710034007
 10
0.4437632845
 20
1.1480633418
 10
0.495019331
 20
1.1229954393
 10
0.5451768506
 20
1.0958411927
 10
0.5941546672
 20
1.0666472953
 10
0.6418554663
 20
1.035475606
 10
0.6882147928
 20
1.0023721957
 10
0.7331997941
 20
0.9673588037
 10
0.776738952
 20
0.9304839455
 10
0.8187458241
 20
0.8918134319
 10
0.8591622574
 20
0.8513919362
 10
0.8979369972
 20
0.8092561914
 10
0.9349714809
 20
0.7654981139
 10
0.9701461033
 20
0.7202545092
 10
1.0034064578
 20
0.6735982485
 10
1.0346920984
 20
0.6256171807
 10
1.0638984477
 20
0.5764879428
 10
1.0909883681
 20
0.5263034344
 10
1.1159296543
 20
0.4751559842
 10
1.1386539745
 20
0.4232355587
 10
1.1591368915
 20
0.3706736152
 10
1.1773849113
 20
0.3175366379
 10
1.1933942307
 20
0.2639217558
  0
LWPOLYLINE
  5
29C
100
AcDbEntity
  8
ASSI
100
AcDbPolyline
 62
7
  6
CONTINUOUS
 90
25
 70
0
 10
-1.4629848562
 20
0.2593652046
 10
-1.4677038404
 20
0.2438022805
 10
-1.4732388325
 20
0.2285736602
 10
-1.4795898324
 20
0.2136793437
 10
-1.4867902026
 20
0.1990585689
 10
-1.4948065806
 20
0.1847720979
 10
-1.5035388797
 20
0.1710022172
 10
-1.5129690726
 20
0.1577891606
 10
-1.5231151866
 20
0.1450926942
 10
-1.5339312172
 20
0.132974404
 10
-1.5454451365
 20
0.1214115555
 10
-1.5576289723
 20
0.1104268832
 10
-1.5703528034
 20
0.1001501756
 10
-1.5836264816
 20
0.0905943868
 10
-1.597440155
 20
0.0817465627
 10
-1.611634347
 20
0.0736976306
 10
-1.6261789855
 20
0.0664686715
 10
-1.6411041426
 20
0.0600386045
 10
-1.6563405577
 20
0.0544351135
 10
-1.6719337901
 20
0.0496509429
 10
-1.6878382805
 20
0.0456933484
 10
-1.7038480908
 20
0.0426117814
 10
-1.7198945751
 20
0.0404227259
 10
-1.7360463792
 20
0.0391096979
 10
-1.7523035033
 20
0.0386726975
  0
LINE
  5
29D
100
AcDbEntity
  8
ASSI
100
AcDbLine
 62
250
  6
CONTINUOUS
 10
1.18920373
 20
0.2593652046
 11
1.1933942307
 21
0.2639217558
  0
LINE
  5
29E
100
AcDbEntity
  8
ASSI
100
AcDbLine
 62
7
  6
CONTINUOUS
 10
2.1648420174
 20
-0.2311422448
 11
2.1594511669
 21
-0.2337603051
  0
LINE
  5
29F
100
AcDbEntity
  8
ASSI
100
AcDbLine
 62
250
  6
CONTINUOUS
 10
1.2023463092
 20
0.2664517217
 11
1.1940491249
 21
0.2641194545
  0
LINE
  5
2A0
100
AcDbEntity
  8
ASSI
100
AcDbLine
 62
250
  6
CONTINUOUS
 10
-1.4761274354
 20
-0.474629631
 11
-1.4678302511
 21
-0.4722973638
  0
LINE
  5
2A1
100
AcDbEntity
  8
ASSI
100
AcDbLine
 62
250
  6
CONTINUOUS
 10
-1.659926847
 20
-0.5255957183
 11
-1.4761274354
 21
-0.474629631
  0
LINE
  5
2A2
100
AcDbEntity
  8
ASSI
100
AcDbLine
 62
250
  6
CONTINUOUS
 10
1.3861457208
 20
0.317417809
 11
1.2023463092
 21
0.2664517217
  0
LINE
  5
2A3
100
AcDbEntity
  8
ASSI
100
AcDbLine
 62
7
  6
CONTINUOUS
 10
1.7861235956
 20
-0.2337603051
 11
1.7326666333
 21
-0.2468506068
  0
LINE
  5
2A4
100
AcDbEntity
  8
ASSI
100
AcDbLine
 62
7
  6
CONTINUOUS
 10
-2.0599047218
 20
0.0255823958
 11
-2.0064477595
 21
0.0386726975
  0
LWPOLYLINE
  5
2A5
100
AcDbEntity
  8
ASSI
100
AcDbPolyline
 62
250
  6
CONTINUOUS
 90
25
 70
0
 10
1.4825223539
 20
-0.4522325433
 10
1.477081574
 20
-0.4523826728
 10
1.4716876005
 20
-0.4528221657
 10
1.4663404333
 20
-0.453551022
 10
1.4610245823
 20
-0.4545730351
 10
1.4557555376
 20
-0.4558844116
 10
1.4505797701
 20
-0.4574737713
 10
1.4454981006
 20
-0.4593435669
 10
1.4405097082
 20
-0.4614913458
 10
1.4356586006
 20
-0.4638983698
 10
1.4309461073
 20
-0.4665668786
 10
1.4263708988
 20
-0.4694946325
 10
1.4219729951
 20
-0.4726561744
 10
1.417753787
 20
-0.4760537083
 10
1.4137118836
 20
-0.4796850303
 10
1.409883132
 20
-0.483518071
 10
1.406269471
 20
-0.4875547101
 10
1.4028689619
 20
-0.4917930681
 10
1.3997116348
 20
-0.4961954364
 10
1.3967996789
 20
-0.5007634211
 10
1.3941309051
 20
-0.5054954162
 10
1.3917287761
 20
-0.510348896
 10
1.3896011128
 20
-0.5153096854
 10
1.3877400944
 20
-0.5203919595
 10
1.3861457208
 20
-0.5255957183
  0
LWPOLYLINE
  5
2A6
100
AcDbEntity
  8
ASSI
100
AcDbPolyline
 62
250
  6
CONTINUOUS
 90
25
 70
0
 10
1.4825223539
 20
-0.2521009013
 10
1.4662692161
 20
-0.252542126
 10
1.4500641759
 20
-0.2538632153
 10
1.4339548262
 20
-0.2560602329
 10
1.4179888387
 20
-0.2591265891
 10
1.4022127209
 20
-0.2630532643
 10
1.3866717281
 20
-0.2678290326
 10
1.371410773
 20
-0.2734402947
 10
1.3564755262
 20
-0.2798704638
 10
1.3419111177
 20
-0.2871001284
 10
1.3277608556
 20
-0.2951076258
 10
1.3140656575
 20
-0.3038696306
 10
1.3008652048
 20
-0.3133607033
 10
1.2881982426
 20
-0.3235529978
 10
1.2761020091
 20
-0.334416562
 10
1.2646116893
 20
-0.3459198593
 10
1.253760699
 20
-0.3580296317
 10
1.2435814255
 20
-0.3707099411
 10
1.2341045913
 20
-0.3839224819
 10
1.2253581539
 20
-0.3976279953
 10
1.2173674323
 20
-0.4117865019
 10
1.2101557966
 20
-0.4263563213
 10
1.2037443075
 20
-0.4412945971
 10
1.1981516615
 20
-0.4565574256
 10
1.1933941521
 20
-0.47209995
  0
LINE
  5
2A7
100
AcDbEntity
  8
ASSI
100
AcDbLine
 62
250
  6
CONTINUOUS
 10
10.7062723653
 20
-0.2503263375
 11
10.6947486954
 21
-0.2505781597
  0
LINE
  5
2A8
100
AcDbEntity
  8
ASSI
100
AcDbLine
 62
250
  6
CONTINUOUS
 10
10.9097170324
 20
-0.4500865344
 11
10.8955991873
 21
-0.450361209
  0
LINE
  5
2A9
100
AcDbEntity
  8
ASSI
100
AcDbLine
 62
250
  6
CONTINUOUS
 10
10.6947486954
 20
-0.2505781597
 11
10.6720460166
 21
-0.2509329144
  0
LINE
  5
2AA
100
AcDbEntity
  8
ASSI
100
AcDbLine
 62
250
  6
CONTINUOUS
 10
10.8955991873
 20
-0.450361209
 11
10.8649698019
 21
-0.450754517
  0
LINE
  5
2AB
100
AcDbEntity
  8
ASSI
100
AcDbLine
 62
250
  6
CONTINUOUS
 10
10.6720460166
 20
-0.2509329144
 11
10.6211918004
 21
-0.2514425615
  0
LINE
  5
2AC
100
AcDbEntity
  8
ASSI
100
AcDbLine
 62
250
  6
CONTINUOUS
 10
10.8649698019
 20
-0.450754517
 11
10.7727225531
 21
-0.4514399978
  0
LINE
  5
2AD
100
AcDbEntity
  8
ASSI
100
AcDbLine
 62
250
  6
CONTINUOUS
 10
10.6211918004
 20
-0.2514425615
 11
10.5139520104
 21
-0.2519756441
  0
LINE
  5
2AE
100
AcDbEntity
  8
ASSI
100
AcDbLine
 62
250
  6
CONTINUOUS
 10
10.7727225531
 20
-0.4514399978
 11
10.4996141004
 21
-0.4521989712
  0
LINE
  5
2AF
100
AcDbEntity
  8
ASSI
100
AcDbLine
 62
250
  6
CONTINUOUS
 10
10.5139520104
 20
-0.2519756441
 11
10.4222690488
 21
-0.2521009012
  0
LWPOLYLINE
  5
2B0
100
AcDbEntity
  8
0
100
AcDbPolyline
 62
7
  6
CONTINUOUS
 90
2
 70
0
 43
0.3500000019
 10
18.2968666992
 20
-1.0326604156
 10
16.7968652344
 20
-1.0326604156
  0
LINE
  5
2B1
100
AcDbEntity
  8
ASSI
100
AcDbLine
 62
250
  6
CONTINUOUS
 10
10.4996141004
 20
-0.4521989712
 11
1.4825223539
 21
-0.4522325433
  0
LINE
  5
2B2
100
AcDbEntity
  8
ASSI
100
AcDbLine
 62
7
  6
CONTINUOUS
 10
10.4222690488
 20
-0.2521009012
 11
1.4825223539
 21
-0.2521009013
  0
LINE
  5
2B3
100
AcDbEntity
  8
ASSI
100
AcDbLine
 62
7
  6
CONTINUOUS
 10
-1.7563034801
 20
-0.2521009013
 11
-10.696050175
 21
-0.2521009012
  0
LINE
  5
2B4
100
AcDbEntity
  8
ASSI
100
AcDbLine
 62
7
  6
CONTINUOUS
 10
1.7326666333
 20
-0.2468506068
 11
1.4785223771
 21
-0.2468506068
  0
LINE
  5
2B5
100
AcDbEntity
  8
ASSI
100
AcDbLine
 62
7
  6
CONTINUOUS
 10
-1.7523035033
 20
-0.2468506068
 11
-2.0064477595
 21
-0.2468506068
  0
LINE
  5
2B6
100
AcDbEntity
  8
ASSI
100
AcDbLine
 62
7
  6
CONTINUOUS
 10
2.1594511669
 20
-0.2337603051
 11
1.7861235956
 21
-0.2337603051
  0
LINE
  5
2B7
100
AcDbEntity
  8
ASSI
100
AcDbLine
 62
7
  6
CONTINUOUS
 10
-2.0599047218
 20
-0.2337603051
 11
-2.4332322931
 21
-0.2337603051
  0
LINE
  5
2B8
100
AcDbEntity
  8
ASSI
100
AcDbLine
 62
7
  6
CONTINUOUS
 10
-9.9827798618
 20
-0.2311422448
 11
-2.4386231436
 21
-0.2311422448
  0
LINE
  5
2B9
100
AcDbEntity
  8
ASSI
100
AcDbLine
 62
7
  6
CONTINUOUS
 10
2.1648420174
 20
-0.2311422448
 11
9.7089987356
 21
-0.2311422448
  0
LINE
  5
2BA
100
AcDbEntity
  8
ASSI
100
AcDbLine
 62
7
  6
CONTINUOUS
 10
-11.0868905619
 20
-0.2040889546
 11
-10.0368905631
 21
-0.2040889546
  0
LINE
  5
2BB
100
AcDbEntity
  8
ASSI
100
AcDbLine
 62
7
  6
CONTINUOUS
 10
9.7631094369
 20
-0.2040889546
 11
10.8131094357
 21
-0.2040889546
  0
LINE
  5
2BC
100
AcDbEntity
  8
ASSI
100
AcDbLine
 62
250
  6
CONTINUOUS
 10
-1.7563034801
 20
-0.4522325433
 11
-11.0077582694
 21
-0.4516295256
  0
LINE
  5
2BD
100
AcDbEntity
  8
ASSI
100
AcDbLine
 62
250
  6
CONTINUOUS
 10
-10.696050175
 20
-0.2521009012
 11
-10.830829593
 21
-0.251821814
  0
LINE
  5
2BE
100
AcDbEntity
  8
ASSI
100
AcDbLine
 62
250
  6
CONTINUOUS
 10
-11.0077582694
 20
-0.4516295256
 11
-11.1261282215
 21
-0.4508791096
  0
LINE
  5
2BF
100
AcDbEntity
  8
ASSI
100
AcDbLine
 62
250
  6
CONTINUOUS
 10
-10.830829593
 20
-0.251821814
 11
-10.9171065169
 21
-0.2512527471
  0
LINE
  5
2C0
100
AcDbEntity
  8
ASSI
100
AcDbLine
 62
250
  6
CONTINUOUS
 10
-11.1261282215
 20
-0.4508791096
 11
-11.160406701
 21
-0.4504950378
  0
LINE
  5
2C1
100
AcDbEntity
  8
ASSI
100
AcDbLine
 62
250
  6
CONTINUOUS
 10
-10.9171065169
 20
-0.2512527471
 11
-10.9541074944
 21
-0.2508179305
  0
LWPOLYLINE
  5
2C2
100
AcDbEntity
  8
ASSI
100
AcDbPolyline
 62
250
  6
CONTINUOUS
 90
7
 70
0
 10
-11.160406701
 20
-0.4504950378
 10
-11.1770840176
 20
-0.4502250248
 10
-11.1834981582
 20
-0.4500865345
 10
-11.1886064236
 20
-0.4499467288
 10
-11.1923950103
 20
-0.44980597
 10
-11.1948532466
 20
-0.4496639912
 10
-11.1959742838
 20
-0.4495208407
  0
LINE
  5
2C3
100
AcDbEntity
  8
ASSI
100
AcDbLine
 62
250
  6
CONTINUOUS
 10
-10.9541074944
 20
-0.2508179305
 11
-10.9685298212
 21
-0.2505781597
  0
LWPOLYLINE
  5
2C4
100
AcDbEntity
  8
ASSI
100
AcDbPolyline
 62
250
  6
CONTINUOUS
 90
8
 70
0
 10
-10.9685298212
 20
-0.2505781597
 10
-10.9800534912
 20
-0.2503263375
 10
-10.9846686288
 20
-0.2501970337
 10
-10.9885234865
 20
-0.2500654816
 10
-10.9915875495
 20
-0.24993275
 10
-10.9938506461
 20
-0.2497991952
 10
-10.9953229479
 20
-0.249664461
 10
-10.9960044549
 20
-0.2495285473
  0
LWPOLYLINE
  5
2C5
100
AcDbEntity
  8
ASSI
100
AcDbPolyline
 62
7
  6
CONTINUOUS
 90
3
 70
0
 10
-1.7523035033
 20
-0.2468506068
 10
-1.7360463792
 20
-0.2472876072
 10
-1.7198945751
 20
-0.2486006352
  0
LWPOLYLINE
  5
2C6
100
AcDbEntity
  8
ASSI
100
AcDbPolyline
 62
7
  6
CONTINUOUS
 90
23
 70
0
 10
-1.7198945751
 20
-0.2486006352
 10
-1.7038480908
 20
-0.2507896907
 10
-1.6878382805
 20
-0.2538712576
 10
-1.6719337901
 20
-0.2578288521
 10
-1.6563405577
 20
-0.2626130228
 10
-1.6411041426
 20
-0.2682165137
 10
-1.6261789855
 20
-0.2746465808
 10
-1.611634347
 20
-0.2818755399
 10
-1.597440155
 20
-0.289924472
 10
-1.5836264816
 20
-0.298772296
 10
-1.5703528034
 20
-0.3083280849
 10
-1.5576289723
 20
-0.3186047925
 10
-1.5454451365
 20
-0.3295894648
 10
-1.5339312172
 20
-0.3411523133
 10
-1.5231151866
 20
-0.3532706035
 10
-1.5129690726
 20
-0.3659670698
 10
-1.5035388797
 20
-0.3791801265
 10
-1.4948065806
 20
-0.3929500072
 10
-1.4867902026
 20
-0.4072364782
 10
-1.4795898324
 20
-0.421857253
 10
-1.4732388325
 20
-0.4367515695
 10
-1.4677038404
 20
-0.4519801898
 10
-1.4629848562
 20
-0.4675431139
  0
LINE
  5
2C7
100
AcDbEntity
  8
ASSI
100
AcDbLine
 62
7
  6
CONTINUOUS
 10
-2.0064477595
 20
-0.2468506068
 11
-2.0599047218
 21
-0.2337603051
  0
LINE
  5
2C8
100
AcDbEntity
  8
ASSI
100
AcDbLine
 62
7
  6
CONTINUOUS
 10
-2.4332322931
 20
-0.2337603051
 11
-2.4386231436
 21
-0.2311422448
  0
LWPOLYLINE
  5
2C9
100
AcDbEntity
  8
ASSI
100
AcDbPolyline
 62
250
  6
CONTINUOUS
 90
25
 70
0
 10
-1.659926847
 20
-0.5255957183
 10
-1.6615212206
 20
-0.5203919595
 10
-1.663382239
 20
-0.5153096854
 10
-1.6655099023
 20
-0.510348896
 10
-1.6679120313
 20
-0.5054954162
 10
-1.6705808051
 20
-0.5007634211
 10
-1.673492761
 20
-0.4961954365
 10
-1.6766500881
 20
-0.4917930681
 10
-1.6800505972
 20
-0.4875547102
 10
-1.6836642581
 20
-0.483518071
 10
-1.6874930098
 20
-0.4796850303
 10
-1.6915349132
 20
-0.4760537084
 10
-1.6957541213
 20
-0.4726561744
 10
-1.700152025
 20
-0.4694946325
 10
-1.7047272335
 20
-0.4665668786
 10
-1.7094397268
 20
-0.4638983698
 10
-1.7142908344
 20
-0.4614913458
 10
-1.7192792268
 20
-0.4593435669
 10
-1.7243608962
 20
-0.4574737713
 10
-1.7295366638
 20
-0.4558844116
 10
-1.7348057085
 20
-0.4545730351
 10
-1.7401215595
 20
-0.453551022
 10
-1.7454687267
 20
-0.4528221657
 10
-1.7508627002
 20
-0.4523826728
 10
-1.7563034801
 20
-0.4522325433
  0
LWPOLYLINE
  5
2CA
100
AcDbEntity
  8
ASSI
100
AcDbPolyline
 62
250
  6
CONTINUOUS
 90
25
 70
0
 10
-1.4671753571
 20
-0.4720996652
 10
-1.47193284
 20
-0.45655727
 10
-1.4775254579
 20
-0.4412945362
 10
-1.4839369227
 20
-0.4263563215
 10
-1.4911485482
 20
-0.4117865213
 10
-1.4991392744
 20
-0.3976280048
 10
-1.5078857175
 20
-0.383922482
 10
-1.5173625517
 20
-0.3707099411
 10
-1.5275418252
 20
-0.3580296318
 10
-1.5383928155
 20
-0.3459198594
 10
-1.5498831352
 20
-0.3344165621
 10
-1.5619793687
 20
-0.3235529979
 10
-1.574646331
 20
-0.3133607034
 10
-1.5878467837
 20
-0.3038696307
 10
-1.6015419817
 20
-0.2951076258
 10
-1.6156922439
 20
-0.2871001284
 10
-1.6302566523
 20
-0.2798704638
 10
-1.6451918991
 20
-0.2734402948
 10
-1.6604528543
 20
-0.2678290326
 10
-1.6759938471
 20
-0.2630532643
 10
-1.6917699647
 20
-0.2591265891
 10
-1.7077359523
 20
-0.2560602329
 10
-1.723845302
 20
-0.2538632154
 10
-1.7400503422
 20
-0.252542126
 10
-1.7563034801
 20
-0.2521009013
  0
LWPOLYLINE
  5
2CB
100
AcDbEntity
  8
ASSI
100
AcDbPolyline
 62
250
  6
CONTINUOUS
 90
64
 70
0
 10
1.3861457208
 20
-0.5255957183
 10
1.3678191528
 20
-0.5871399973
 10
1.3469459947
 20
-0.6479211792
 10
1.3235262465
 20
-0.7079392634
 10
1.2975170153
 20
-0.7673405662
 10
1.268961194
 20
-0.8259787702
 10
1.2379874612
 20
-0.8834149249
 10
1.2045643939
 20
-0.939636395
 10
1.168723415
 20
-0.9946558155
 10
1.1306874718
 20
-1.0480721428
 10
1.0904348271
 20
-1.0998606828
 10
1.0479872181
 20
-1.1500461302
 10
1.0036328036
 20
-1.1983015255
 10
0.9573864492
 20
-1.2445825129
 10
0.9092332892
 20
-1.2889334497
 10
0.8594168864
 20
-1.3311604462
 10
0.8079449035
 20
-1.3712492222
 10
0.7548096777
 20
-1.4092140598
 10
0.7002317824
 20
-1.4449039131
 10
0.6441899228
 20
-1.4783229069
 10
0.5867053937
 20
-1.5094669187
 10
0.5280626527
 20
-1.5381725315
 10
0.468244077
 20
-1.5644306115
 10
0.4072672894
 20
-1.5882502947
 10
0.3454696154
 20
-1.6094955688
 10
0.2828528464
 20
-1.6281482133
 10
0.219415191
 20
-1.6442264505
 10
0.1554886002
 20
-1.6576489317
 10
0.0910750163
 20
-1.668401154
 10
0.026172497
 20
-1.6764976215
 10
-0.0388928334
 20
-1.6819004962
 10
-0.1041208454
 20
-1.6845971475
 10
-0.1695116685
 20
-1.6846002063
 10
-0.2347395672
 20
-1.6819097264
 10
-0.2998045584
 20
-1.6765131109
 10
-0.3647066253
 20
-1.6684229563
 10
-0.4291199809
 20
-1.6576771063
 10
-0.4930464649
 20
-1.6442611624
 10
-0.5564842376
 20
-1.628189522
 10
-0.6191019933
 20
-1.6095432228
 10
-0.6809017956
 20
-1.5883040099
 10
-0.7418815809
 20
-1.5644901364
 10
-0.8017038523
 20
-1.5382374023
 10
-0.8603514371
 20
-1.5095362937
 10
-0.9178415081
 20
-1.4783963224
 10
-0.9738880864
 20
-1.444981827
 10
-1.028469477
 20
-1.4092969273
 10
-1.081607375
 20
-1.3713375013
 10
-1.1330808877
 20
-1.3312555251
 10
-1.1828967915
 20
-1.2890376627
 10
-1.23104831
 20
-1.2446972481
 10
-1.2772942221
 20
-1.1984262618
 10
-1.3216496662
 20
-1.1501808644
 10
-1.3640995039
 20
-1.1000048936
 10
-1.4043570988
 20
-1.0482218463
 10
-1.4424017035
 20
-0.9948061791
 10
-1.4782540653
 20
-0.9397834346
 10
-1.5116897906
 20
-0.883553738
 10
-1.5426777535
 20
-0.8261035797
 10
-1.5712490798
 20
-0.7674464696
 10
-1.5972727539
 20
-0.7080230624
 10
-1.6207051038
 20
-0.6479802435
 10
-1.6415898015
 20
-0.5871711286
 10
-1.659926847
 20
-0.5255957183
  0
LWPOLYLINE
  5
2CC
100
AcDbEntity
  8
ASSI
100
AcDbPolyline
 62
250
  6
CONTINUOUS
 90
64
 70
0
 10
1.1933941519
 20
-0.4720999498
 10
1.177394351
 20
-0.5256851219
 10
1.1591573336
 20
-0.5787957188
 10
1.1386865593
 20
-0.6313346442
 10
1.1159753765
 20
-0.683234996
 10
1.0910477149
 20
-0.7343657383
 10
1.0639708612
 20
-0.7845380761
 10
1.034776267
 20
-0.8336599396
 10
1.0035008231
 20
-0.8816377793
 10
0.970248693
 20
-0.928294634
 10
0.9350792487
 20
-0.9735431749
 10
0.8980470768
 20
-1.0173093685
 10
0.8592735967
 20
-1.0594537685
 10
0.8188574421
 20
-1.0998842275
 10
0.7768496899
 20
-1.1385640548
 10
0.7333104674
 20
-1.1754468319
 10
0.6883272633
 20
-1.2104662277
 10
0.6419709045
 20
-1.243574622
 10
0.594273757
 20
-1.2747508351
 10
0.5453005822
 20
-1.3039487639
 10
0.4951485181
 20
-1.3311068148
 10
0.4438973706
 20
-1.3561790653
 10
0.3916240507
 20
-1.3791241487
 10
0.3384259865
 20
-1.3998956247
 10
0.284417435
 20
-1.4184476544
 10
0.2296972041
 20
-1.4347471649
 10
0.1743529832
 20
-1.4487688899
 10
0.1184854771
 20
-1.4604881407
 10
0.0621942717
 20
-1.4698854614
 10
0.0055720539
 20
-1.4769467981
 10
-0.0512897451
 20
-1.4816615825
 10
-0.1082932406
 20
-1.4840222266
 10
-0.1653417044
 20
-1.4840252481
 10
-0.2223452103
 20
-1.4816706574
 10
-0.279206952
 20
-1.476961964
 10
-0.3358291299
 20
-1.4699067734
 10
-0.3921205579
 20
-1.4605156284
 10
-0.4479884482
 20
-1.4488025957
 10
-0.5033333222
 20
-1.4347871039
 10
-0.5580550106
 20
-1.4184936584
 10
-0.6120659994
 20
-1.3999473763
 10
-0.6652672507
 20
-1.3791813099
 10
-0.7175444107
 20
-1.3562412511
 10
-0.7688004572
 20
-1.3311733486
 10
-0.8189579768
 20
-1.304019102
 10
-0.8679357934
 20
-1.2748252046
 10
-0.9156365925
 20
-1.2436535153
 10
-0.961995919
 20
-1.210550105
 10
-1.0069809203
 20
-1.175536713
 10
-1.0505200782
 20
-1.1386618548
 10
-1.0925269503
 20
-1.0999913412
 10
-1.1329433836
 20
-1.0595698455
 10
-1.1717181234
 20
-1.0174341007
 10
-1.2087526071
 20
-0.9736760232
 10
-1.2439272295
 20
-0.9284324185
 10
-1.277187584
 20
-0.8817761578
 10
-1.3084732246
 20
-0.83379509
 10
-1.3376795739
 20
-0.7846658521
 10
-1.3647694943
 20
-0.7344813437
 10
-1.3897107805
 20
-0.6833338935
 10
-1.4124351006
 20
-0.631413468
 10
-1.4329180177
 20
-0.5788515245
 10
-1.4511660375
 20
-0.5257145472
 10
-1.4671753569
 20
-0.472099665
  0
LWPOLYLINE
  5
2CD
100
AcDbEntity
  8
ASSI
100
AcDbPolyline
 62
7
  6
CONTINUOUS
 90
25
 70
0
 10
1.18920373
 20
-0.4675431139
 10
1.1939227142
 20
-0.4519801898
 10
1.1994577063
 20
-0.4367515695
 10
1.2058087062
 20
-0.421857253
 10
1.2130090764
 20
-0.4072364782
 10
1.2210254544
 20
-0.3929500072
 10
1.2297577535
 20
-0.3791801265
 10
1.2391879464
 20
-0.3659670698
 10
1.2493340604
 20
-0.3532706035
 10
1.260150091
 20
-0.3411523133
 10
1.2716640103
 20
-0.3295894648
 10
1.2838478461
 20
-0.3186047925
 10
1.2965716772
 20
-0.3083280849
 10
1.3098453554
 20
-0.298772296
 10
1.3236590288
 20
-0.289924472
 10
1.3378532208
 20
-0.2818755399
 10
1.3523978593
 20
-0.2746465808
 10
1.3673230164
 20
-0.2682165137
 10
1.3825594315
 20
-0.2626130228
 10
1.3981526639
 20
-0.2578288521
 10
1.4140571543
 20
-0.2538712576
 10
1.4300669646
 20
-0.2507896907
 10
1.4461134489
 20
-0.2486006352
 10
1.462265253
 20
-0.2472876072
 10
1.4785223771
 20
-0.2468506068
  0
LINE
  5
2CE
100
AcDbEntity
  8
ASSI
100
AcDbLine
 62
7
  6
CONTINUOUS
 10
9.7089987356
 20
-0.2311422448
 11
9.7631094369
 21
-0.2040889546
  0
LWPOLYLINE
  5
2CF
100
AcDbEntity
  8
ASSI
100
AcDbPolyline
 62
250
  6
CONTINUOUS
 90
7
 70
0
 10
-10.9960044549
 20
0.041350638
 10
-10.9953229479
 20
0.0414865517
 10
-10.9938506462
 20
0.0416212859
 10
-10.9915875497
 20
0.0417548407
 10
-10.9885234867
 20
0.0418875723
 10
-10.984668629
 20
0.0420191245
 10
-10.9800534915
 20
0.0421484282
  0
LWPOLYLINE
  5
2D0
100
AcDbEntity
  8
ASSI
100
AcDbPolyline
 62
250
  6
CONTINUOUS
 90
5
 70
0
 10
-11.1959742838
 20
0.2413429314
 10
-11.1948532466
 20
0.2414860819
 10
-11.1923950105
 20
0.2416280607
 10
-11.1886064239
 20
0.2417688195
 10
-11.1834981586
 20
0.2419086252
  0
LWPOLYLINE
  5
2D1
100
AcDbEntity
  8
ASSI
100
AcDbPolyline
 62
250
  6
CONTINUOUS
 90
25
 70
0
 10
-1.7563034801
 20
0.244054634
 10
-1.7508627002
 20
0.2442047635
 10
-1.7454687267
 20
0.2446442565
 10
-1.7401215595
 20
0.2453731128
 10
-1.7348057085
 20
0.2463951258
 10
-1.7295366638
 20
0.2477065023
 10
-1.7243608963
 20
0.249295862
 10
-1.7192792268
 20
0.2511656576
 10
-1.7142908344
 20
0.2533134365
 10
-1.7094397268
 20
0.2557204605
 10
-1.7047272335
 20
0.2583889693
 10
-1.700152025
 20
0.2613167232
 10
-1.6957541213
 20
0.2644782651
 10
-1.6915349132
 20
0.267875799
 10
-1.6874930098
 20
0.271507121
 10
-1.6836642582
 20
0.2753401617
 10
-1.6800505972
 20
0.2793768009
 10
-1.6766500881
 20
0.2836151588
 10
-1.673492761
 20
0.2880175272
 10
-1.6705808051
 20
0.2925855118
 10
-1.6679120313
 20
0.2973175069
 10
-1.6655099023
 20
0.3021709867
 10
-1.663382239
 20
0.3071317761
 10
-1.6615212206
 20
0.3122140502
 10
-1.659926847
 20
0.317417809
  0
LWPOLYLINE
  5
2D2
100
AcDbEntity
  8
ASSI
100
AcDbPolyline
 62
250
  6
CONTINUOUS
 90
25
 70
0
 10
-1.7563034801
 20
0.043922992
 10
-1.7400503423
 20
0.0443642167
 10
-1.7238453021
 20
0.045685306
 10
-1.7077359524
 20
0.0478823236
 10
-1.6917699649
 20
0.0509486798
 10
-1.6759938471
 20
0.054875355
 10
-1.6604528543
 20
0.0596511234
 10
-1.6451918992
 20
0.0652623855
 10
-1.6302566524
 20
0.0716925545
 10
-1.6156922439
 20
0.0789222191
 10
-1.6015419818
 20
0.0869297165
 10
-1.5878467837
 20
0.0956917214
 10
-1.574646331
 20
0.1051827941
 10
-1.5619793688
 20
0.1153750885
 10
-1.5498831353
 20
0.1262386527
 10
-1.5383928155
 20
0.13774195
 10
-1.5275418252
 20
0.1498517224
 10
-1.5173625517
 20
0.1625320318
 10
-1.5078857175
 20
0.1757445727
 10
-1.4991392801
 20
0.1894500861
 10
-1.4911485585
 20
0.2036085926
 10
-1.4839369228
 20
0.218178412
 10
-1.4775254337
 20
0.2331166878
 10
-1.4719327877
 20
0.2483795163
 10
-1.4671752783
 20
0.2639220407
  0
LINE
  5
2D3
100
AcDbEntity
  8
ASSI
100
AcDbLine
 62
250
  6
CONTINUOUS
 10
-10.9800534915
 20
0.0421484282
 11
-10.9685298216
 21
0.0424002504
  0
LINE
  5
2D4
100
AcDbEntity
  8
ASSI
100
AcDbLine
 62
250
  6
CONTINUOUS
 10
-11.1834981586
 20
0.2419086252
 11
-11.1693803135
 21
0.2421832997
  0
LINE
  5
2D5
100
AcDbEntity
  8
ASSI
100
AcDbLine
 62
250
  6
CONTINUOUS
 10
-10.9685298216
 20
0.0424002504
 11
-10.9458271428
 21
0.0427550051
  0
LINE
  5
2D6
100
AcDbEntity
  8
ASSI
100
AcDbLine
 62
250
  6
CONTINUOUS
 10
-11.1693803135
 20
0.2421832997
 11
-11.1387509281
 21
0.2425766077
  0
LINE
  5
2D7
100
AcDbEntity
  8
ASSI
100
AcDbLine
 62
250
  6
CONTINUOUS
 10
-10.9458271428
 20
0.0427550051
 11
-10.8949729266
 21
0.0432646522
  0
LINE
  5
2D8
100
AcDbEntity
  8
ASSI
100
AcDbLine
 62
250
  6
CONTINUOUS
 10
-11.1387509281
 20
0.2425766077
 11
-11.0465036793
 21
0.2432620885
  0
LINE
  5
2D9
100
AcDbEntity
  8
ASSI
100
AcDbLine
 62
250
  6
CONTINUOUS
 10
-10.8949729266
 20
0.0432646522
 11
-10.7877331366
 21
0.0437977348
  0
LINE
  5
2DA
100
AcDbEntity
  8
ASSI
100
AcDbLine
 62
250
  6
CONTINUOUS
 10
-11.0465036793
 20
0.2432620885
 11
-10.7733952266
 21
0.2440210619
  0
LINE
  5
2DB
100
AcDbEntity
  8
ASSI
100
AcDbLine
 62
250
  6
CONTINUOUS
 10
-10.7877331366
 20
0.0437977348
 11
-10.696050175
 21
0.0439229919
  0
LINE
  5
2DC
100
AcDbEntity
  8
ASSI
100
AcDbLine
 62
7
  6
CONTINUOUS
 10
10.8131094357
 20
-0.0040889546
 11
9.7631094369
 21
-0.0040889546
  0
LINE
  5
2DD
100
AcDbEntity
  8
ASSI
100
AcDbLine
 62
7
  6
CONTINUOUS
 10
-10.0368905631
 20
-0.0040889546
 11
-11.0868905619
 21
-0.0040889546
  0
LINE
  5
2DE
100
AcDbEntity
  8
ASSI
100
AcDbLine
 62
7
  6
CONTINUOUS
 10
9.7089987356
 20
0.0229643355
 11
2.1648420174
 21
0.0229643355
  0
LINE
  5
2DF
100
AcDbEntity
  8
ASSI
100
AcDbLine
 62
7
  6
CONTINUOUS
 10
-2.4386231436
 20
0.0229643355
 11
-9.9827798618
 21
0.0229643355
  0
LINE
  5
2E0
100
AcDbEntity
  8
ASSI
100
AcDbLine
 62
7
  6
CONTINUOUS
 10
-2.4332322931
 20
0.0255823958
 11
-2.0599047218
 21
0.0255823958
  0
LINE
  5
2E1
100
AcDbEntity
  8
ASSI
100
AcDbLine
 62
7
  6
CONTINUOUS
 10
1.7861235956
 20
0.0255823958
 11
2.1594511669
 21
0.0255823958
  0
LINE
  5
2E2
100
AcDbEntity
  8
ASSI
100
AcDbLine
 62
7
  6
CONTINUOUS
 10
-2.0064477595
 20
0.0386726975
 11
-1.7523035033
 21
0.0386726975
  0
LINE
  5
2E3
100
AcDbEntity
  8
ASSI
100
AcDbLine
 62
7
  6
CONTINUOUS
 10
1.4785223771
 20
0.0386726975
 11
1.7326666333
 21
0.0386726975
  0
LINE
  5
2E4
100
AcDbEntity
  8
ASSI
100
AcDbLine
 62
7
  6
CONTINUOUS
 10
-10.696050175
 20
0.0439229919
 11
-1.7563034801
 21
0.043922992
  0
LINE
  5
2E5
100
AcDbEntity
  8
ASSI
100
AcDbLine
 62
7
  6
CONTINUOUS
 10
1.4825223539
 20
0.043922992
 11
10.4222690488
 21
0.0439229919
  0
LINE
  5
2E6
100
AcDbEntity
  8
ASSI
100
AcDbLine
 62
250
  6
CONTINUOUS
 10
-10.7733952266
 20
0.2440210619
 11
-1.7563034801
 21
0.244054634
  0
LINE
  5
2E7
100
AcDbEntity
  8
ASSI
100
AcDbLine
 62
250
  6
CONTINUOUS
 10
10.4222690488
 20
0.0439229919
 11
10.5570484668
 21
0.0436439048
  0
LINE
  5
2E8
100
AcDbEntity
  8
ASSI
100
AcDbLine
 62
250
  6
CONTINUOUS
 10
1.4825223539
 20
0.244054634
 11
10.7339771432
 21
0.2434516163
  0
LINE
  5
2E9
100
AcDbEntity
  8
ASSI
100
AcDbLine
 62
250
  6
CONTINUOUS
 10
10.7339771432
 20
0.2434516163
 11
10.8523470953
 21
0.2427012004
  0
LINE
  5
2EA
100
AcDbEntity
  8
ASSI
100
AcDbLine
 62
250
  6
CONTINUOUS
 10
10.5570484668
 20
0.0436439048
 11
10.6433253907
 21
0.0430748378
  0
LINE
  5
2EB
100
AcDbEntity
  8
ASSI
100
AcDbLine
 62
250
  6
CONTINUOUS
 10
10.8523470953
 20
0.2427012004
 11
10.8866255748
 21
0.2423171285
  0
LINE
  5
2EC
100
AcDbEntity
  8
ASSI
100
AcDbLine
 62
250
  6
CONTINUOUS
 10
10.6433253907
 20
0.0430748378
 11
10.6803263682
 21
0.0426400212
  0
LINE
  5
2ED
100
AcDbEntity
  8
ASSI
100
AcDbLine
 62
250
  6
CONTINUOUS
 10
10.6803263682
 20
0.0426400212
 11
10.694748695
 21
0.0424002504
  0
LWPOLYLINE
  5
2EE
100
AcDbEntity
  8
ASSI
100
AcDbPolyline
 62
250
  6
CONTINUOUS
 90
7
 70
0
 10
10.8866255748
 20
0.2423171285
 10
10.9033028914
 20
0.2420471155
 10
10.909717032
 20
0.2419086252
 10
10.9148252974
 20
0.2417688196
 10
10.9186138842
 20
0.2416280607
 10
10.9210721204
 20
0.2414860819
 10
10.9221931576
 20
0.2413429314
  0
LWPOLYLINE
  5
2EF
100
AcDbEntity
  8
ASSI
100
AcDbPolyline
 62
250
  6
CONTINUOUS
 90
8
 70
0
 10
10.694748695
 20
0.0424002504
 10
10.706272365
 20
0.0421484282
 10
10.7108875026
 20
0.0420191245
 10
10.7147423603
 20
0.0418875723
 10
10.7178064233
 20
0.0417548407
 10
10.7200695199
 20
0.0416212859
 10
10.7215418217
 20
0.0414865517
 10
10.7222233287
 20
0.041350638
  0
LWPOLYLINE
  5
2F0
100
AcDbEntity
  8
ASSI
100
AcDbPolyline
 62
7
  6
CONTINUOUS
 90
3
 70
0
 10
1.4785223771
 20
0.0386726975
 10
1.462265253
 20
0.0391096979
 10
1.4461134489
 20
0.0404227259
  0
LWPOLYLINE
  5
2F1
100
AcDbEntity
  8
ASSI
100
AcDbPolyline
 62
7
  6
CONTINUOUS
 90
23
 70
0
 10
1.4461134489
 20
0.0404227259
 10
1.4300669646
 20
0.0426117814
 10
1.4140571543
 20
0.0456933484
 10
1.3981526639
 20
0.0496509429
 10
1.3825594315
 20
0.0544351135
 10
1.3673230164
 20
0.0600386045
 10
1.3523978593
 20
0.0664686715
 10
1.3378532208
 20
0.0736976306
 10
1.3236590288
 20
0.0817465627
 10
1.3098453554
 20
0.0905943868
 10
1.2965716772
 20
0.1001501756
 10
1.2838478461
 20
0.1104268832
 10
1.2716640103
 20
0.1214115555
 10
1.260150091
 20
0.132974404
 10
1.2493340604
 20
0.1450926942
 10
1.2391879464
 20
0.1577891606
 10
1.2297577535
 20
0.1710022172
 10
1.2210254544
 20
0.1847720979
 10
1.2130090764
 20
0.1990585689
 10
1.2058087062
 20
0.2136793437
 10
1.1994577063
 20
0.2285736602
 10
1.1939227142
 20
0.2438022805
 10
1.18920373
 20
0.2593652046
  0
LINE
  5
2F2
100
AcDbEntity
  8
ASSI
100
AcDbLine
 62
7
  6
CONTINUOUS
 10
1.7326666333
 20
0.0386726975
 11
1.7861235956
 21
0.0255823958
  0
LWPOLYLINE
  5
2F3
100
AcDbEntity
  8
ASSI
100
AcDbPolyline
 62
250
  6
CONTINUOUS
 90
4
 70
0
 10
-1.659926847
 20
0.3174178089
 10
-1.46954657
 20
0.2646067259
 10
-1.467828905
 20
0.2641190822
 10
-1.467173938
 20
0.2639253577
  0
LWPOLYLINE
  5
2F4
100
AcDbEntity
  8
ASSI
100
AcDbPolyline
 62
250
  6
CONTINUOUS
 90
4
 70
0
 10
1.3861457208
 20
-0.5255957182
 10
1.1957654438
 20
-0.4727846352
 10
1.1940477788
 20
-0.4722969915
 10
1.1933928118
 20
-0.472103267
  0
LINE
  5
2F5
100
AcDbEntity
  8
ASSI
100
AcDbLine
 62
250
  6
CONTINUOUS
 10
-1.4671752781
 20
0.2639220406
 11
-1.4629848562
 21
0.2593652046
  0
LINE
  5
2F6
100
AcDbEntity
  8
ASSI
100
AcDbLine
 62
250
  6
CONTINUOUS
 10
1.4825223539
 20
0.244054634
 11
1.4825223539
 21
0.043922992
  0
LINE
  5
2F7
100
AcDbEntity
  8
ASSI
100
AcDbLine
 62
250
  6
CONTINUOUS
 10
1.4825223539
 20
-0.4522325433
 11
1.482522354
 21
-0.2521009013
  0
LINE
  5
2F8
100
AcDbEntity
  8
ASSI
100
AcDbLine
 62
250
  6
CONTINUOUS
 10
10.4996553763
 20
22.0552237511
 11
10.446170013
 21
21.894637175
  0
LINE
  5
2F9
100
AcDbEntity
  8
ASSI
100
AcDbLine
 62
250
  6
CONTINUOUS
 10
11.0000351996
 20
21.5572780233
 11
10.9460935583
 21
21.3953214999
  0
LINE
  5
2FA
100
AcDbEntity
  8
ASSI
100
AcDbLine
 62
250
  6
CONTINUOUS
 10
10.8131094357
 20
-0.2040889546
 11
10.7222233287
 21
-0.2495285473
  0
LINE
  5
2FB
100
AcDbEntity
  8
ASSI
100
AcDbLine
 62
250
  6
CONTINUOUS
 10
11.0131094369
 20
-0.4040661094
 11
10.9221931578
 21
-0.4495207869
  0
LINE
  5
2FC
100
AcDbEntity
  8
ASSI
100
AcDbLine
 62
7
  6
CONTINUOUS
 10
2.1594511669
 20
0.0255823958
 11
2.1648420174
 21
0.0229643355
  0
LINE
  5
2FD
100
AcDbEntity
  8
ASSI
100
AcDbLine
 62
250
  6
CONTINUOUS
 10
1.1933941519
 20
-0.4720999498
 11
1.18920373
 21
-0.4675431139
  0
LWPOLYLINE
  5
2FE
100
AcDbEntity
  8
ASSI
100
AcDbPolyline
 62
250
  6
CONTINUOUS
 90
25
 70
0
 10
1.3861457208
 20
0.317417809
 10
1.3877400944
 20
0.3122140502
 10
1.3896011128
 20
0.3071317761
 10
1.3917287761
 20
0.3021709867
 10
1.3941309051
 20
0.2973175069
 10
1.3967996789
 20
0.2925855118
 10
1.3997116348
 20
0.2880175272
 10
1.4028689619
 20
0.2836151588
 10
1.406269471
 20
0.2793768009
 10
1.4098831319
 20
0.2753401617
 10
1.4137118836
 20
0.271507121
 10
1.417753787
 20
0.2678757991
 10
1.4219729951
 20
0.2644782651
 10
1.4263708988
 20
0.2613167232
 10
1.4309461073
 20
0.2583889693
 10
1.4356586006
 20
0.2557204605
 10
1.4405097082
 20
0.2533134365
 10
1.4454981006
 20
0.2511656576
 10
1.45057977
 20
0.249295862
 10
1.4557555376
 20
0.2477065023
 10
1.4610245823
 20
0.2463951258
 10
1.4663404333
 20
0.2453731128
 10
1.4716876005
 20
0.2446442564
 10
1.477081574
 20
0.2442047635
 10
1.4825223539
 20
0.244054634
  0
LWPOLYLINE
  5
2FF
100
AcDbEntity
  8
ASSI
100
AcDbPolyline
 62
250
  6
CONTINUOUS
 90
25
 70
0
 10
1.1933942309
 20
0.2639217559
 10
1.1981517138
 20
0.2483793607
 10
1.2037443317
 20
0.2331166269
 10
1.2101557965
 20
0.2181784122
 10
1.217367422
 20
0.2036086121
 10
1.2253581482
 20
0.1894500955
 10
1.2341045913
 20
0.1757445727
 10
1.2435814255
 20
0.1625320319
 10
1.253760699
 20
0.1498517225
 10
1.2646116893
 20
0.1377419501
 10
1.276102009
 20
0.1262386528
 10
1.2881982425
 20
0.1153750886
 10
1.3008652048
 20
0.1051827941
 10
1.3140656575
 20
0.0956917214
 10
1.3277608555
 20
0.0869297165
 10
1.3419111177
 20
0.0789222191
 10
1.3564755262
 20
0.0716925545
 10
1.3714107729
 20
0.0652623855
 10
1.3866717281
 20
0.0596511234
 10
1.4022127209
 20
0.054875355
 10
1.4179888386
 20
0.0509486798
 10
1.4339548261
 20
0.0478823237
 10
1.4500641758
 20
0.0456853061
 10
1.466269216
 20
0.0443642167
 10
1.4825223539
 20
0.043922992
  0
LINE
  5
300
100
AcDbEntity
  8
CURVE
100
AcDbLine
 62
250
  6
CONTINUOUS
 10
-0.1177095631
 20
-8.5161629546
 11
-3.6740655631
 21
-11.5080789546
  0
LWPOLYLINE
  5
301
100
AcDbEntity
  8
0
100
AcDbPolyline
 62
7
  6
CONTINUOUS
 90
10
 70
0
 43
0.3500000019
 10
17.7968662109
 20
0.9673396072
 10
17.9397211914
 20
1.0387681885
 10
18.0111513672
 20
1.0387681885
 10
18.1540117188
 20
0.895911026
 10
18.1540117188
 20
0.8244824448
 10
18.082581543
 20
0.7530538635
 10
18.0111513672
 20
0.7530538635
 10
17.8682963867
 20
0.8244824448
 10
17.7968662109
 20
0.895911026
 10
17.7968662109
 20
0.9673396072
  0
LINE
  5
302
100
AcDbEntity
  8
ASSI
100
AcDbLine
 62
7
  6
CONTINUOUS
 10
9.7089987356
 20
0.0229643355
 11
9.7631094369
 21
-0.0040889546
  0
LINE
  5
303
100
AcDbEntity
  8
ASSI
100
AcDbLine
 62
250
  6
CONTINUOUS
 10
10.446170013
 20
-22.1028150843
 11
10.4996553763
 21
-22.2634016604
  0
LINE
  5
304
100
AcDbEntity
  8
ASSI
100
AcDbLine
 62
250
  6
CONTINUOUS
 10
10.9460935583
 20
-21.6034994092
 11
11.0000351996
 21
-21.7654559326
  0
LWPOLYLINE
  5
305
100
AcDbEntity
  8
ASSI
100
AcDbPolyline
 62
250
  6
CONTINUOUS
 90
8
 70
0
 10
10.4461699111
 20
21.8946371749
 10
10.4454535559
 20
21.8901560845
 10
10.4447423351
 20
21.8831602914
 10
10.4440362489
 20
21.8736615822
 10
10.4433341383
 20
21.861676054
 10
10.4426371622
 20
21.847223835
 10
10.4419487972
 20
21.8303288738
 10
10.4405979384
 20
21.7893271278
  0
LWPOLYLINE
  5
306
100
AcDbEntity
  8
ASSI
100
AcDbPolyline
 62
250
  6
CONTINUOUS
 90
10
 70
0
 10
10.9460935583
 20
21.3953214999
 10
10.9453774481
 20
21.39231791
 10
10.9446664002
 20
21.3876579129
 10
10.9439604146
 20
21.3813415087
 10
10.9432583049
 20
21.3733525419
 10
10.9425612576
 20
21.3637071681
 10
10.9418728316
 20
21.3524538535
 10
10.9411930784
 20
21.339584313
 10
10.9405219466
 20
21.3251068318
 10
10.9392158316
 20
21.2915404362
  0
LINE
  5
307
100
AcDbEntity
  8
ASSI
100
AcDbLine
 62
250
  6
CONTINUOUS
 10
10.7222233287
 20
0.041350638
 11
10.8131094357
 21
-0.0040889546
  0
LINE
  5
308
100
AcDbEntity
  8
ASSI
100
AcDbLine
 62
250
  6
CONTINUOUS
 10
10.9221931578
 20
0.2413428776
 11
11.0131094369
 21
0.1958882001
  0
LWPOLYLINE
  5
309
100
AcDbEntity
  8
0
100
AcDbPolyline
 62
7
  6
CONTINUOUS
 90
3
 70
0
 43
0.3500000019
 10
18.0111513672
 20
1.0387681885
 10
18.2254365234
 20
0.9673396072
 10
18.5111518555
 20
0.8244824448
  0
LWPOLYLINE
  5
30A
100
AcDbEntity
  8
ASSI
100
AcDbPolyline
 62
250
  6
CONTINUOUS
 90
9
 70
0
 10
10.9405219465
 20
-21.5332847407
 10
10.9411930784
 20
-21.547762222
 10
10.9418728316
 20
-21.5606317625
 10
10.9425612576
 20
-21.5718850771
 10
10.9432583049
 20
-21.581530451
 10
10.9439604145
 20
-21.5895194178
 10
10.9446664002
 20
-21.5958358221
 10
10.9453774481
 20
-21.6004958192
 10
10.9460935583
 20
-21.6034994092
  0
LWPOLYLINE
  5
30B
100
AcDbEntity
  8
ASSI
100
AcDbPolyline
 62
250
  6
CONTINUOUS
 90
7
 70
0
 10
10.4419487972
 20
-22.0385067827
 10
10.4426371622
 20
-22.0554017439
 10
10.4433341383
 20
-22.0698539629
 10
10.4440362489
 20
-22.0818394913
 10
10.4447423351
 20
-22.0913382005
 10
10.4454535559
 20
-22.0983339937
 10
10.4461699111
 20
-22.1028150842
  0
LINE
  5
30C
100
AcDbEntity
  8
ASSI
100
AcDbLine
 62
250
  6
CONTINUOUS
 10
10.9392158316
 20
-21.4997183451
 11
10.9405219465
 21
-21.5332847407
  0
LINE
  5
30D
100
AcDbEntity
  8
ASSI
100
AcDbLine
 62
250
  6
CONTINUOUS
 10
10.4405979384
 20
-21.9975050366
 11
10.4419487972
 21
-22.0385067827
  0
LINE
  5
30E
100
AcDbEntity
  8
ASSI
100
AcDbLine
 62
250
  6
CONTINUOUS
 10
10.9379610824
 20
-21.4601019588
 11
10.9392158316
 21
-21.4997183451
  0
LINE
  5
30F
100
AcDbEntity
  8
ASSI
100
AcDbLine
 62
250
  6
CONTINUOUS
 10
10.4392918615
 20
-21.9471273642
 11
10.4405979384
 21
-21.9975050366
  0
LWPOLYLINE
  5
310
100
AcDbEntity
  8
ASSI
100
AcDbPolyline
 62
250
  6
CONTINUOUS
 90
3
 70
0
 10
10.9361962775
 20
-21.3899842589
 10
10.9367673527
 20
-21.4147169096
 10
10.9379610824
 20
-21.4601019588
  0
LINE
  5
311
100
AcDbEntity
  8
ASSI
100
AcDbLine
 62
250
  6
CONTINUOUS
 10
10.437432721
 20
-21.8547416067
 11
10.4392918615
 21
-21.9471273642
  0
LINE
  5
312
100
AcDbEntity
  8
ASSI
100
AcDbLine
 62
250
  6
CONTINUOUS
 10
10.4351850417
 20
-21.7024112024
 11
10.437432721
 21
-21.8547416067
  0
LINE
  5
313
100
AcDbEntity
  8
ASSI
100
AcDbLine
 62
250
  6
CONTINUOUS
 10
10.4324309161
 20
-21.4200915783
 11
10.4351850417
 21
-21.7024112024
  0
LINE
  5
314
100
AcDbEntity
  8
ASSI
100
AcDbLine
 62
250
  6
CONTINUOUS
 10
10.4301550601
 20
-20.970579511
 11
10.4324309161
 21
-21.4200915783
  0
LINE
  5
315
100
AcDbEntity
  8
ASSI
100
AcDbLine
 62
250
  6
CONTINUOUS
 10
10.4248380806
 20
-12.2460322819
 11
10.4301550601
 21
-20.970579511
  0
LINE
  5
316
100
AcDbEntity
  8
ASSI
100
AcDbLine
 62
250
  6
CONTINUOUS
 10
10.4222690488
 20
-0.2521009012
 11
10.4248380806
 21
-12.2460322819
  0
LINE
  5
317
100
AcDbEntity
  8
ASSI
100
AcDbLine
 62
250
  6
CONTINUOUS
 10
10.4310778545
 20
20.9952039722
 11
10.4222690488
 21
0.0439229919
  0
LINE
  5
318
100
AcDbEntity
  8
ASSI
100
AcDbLine
 62
250
  6
CONTINUOUS
 10
10.4337067114
 20
21.3603648636
 11
10.4310778545
 21
20.9952039722
  0
LINE
  5
319
100
AcDbEntity
  8
ASSI
100
AcDbLine
 62
250
  6
CONTINUOUS
 10
10.4362724321
 20
21.5743637614
 11
10.4337067114
 21
21.3603648636
  0
LINE
  5
31A
100
AcDbEntity
  8
ASSI
100
AcDbLine
 62
250
  6
CONTINUOUS
 10
10.4380371707
 20
21.6795362833
 11
10.4362724321
 21
21.5743637614
  0
LINE
  5
31B
100
AcDbEntity
  8
ASSI
100
AcDbLine
 62
250
  6
CONTINUOUS
 10
10.4392918615
 20
21.7389494555
 11
10.4380371707
 21
21.6795362833
  0
LINE
  5
31C
100
AcDbEntity
  8
ASSI
100
AcDbLine
 62
250
  6
CONTINUOUS
 10
10.9367673527
 20
21.2065390008
 11
10.9351088467
 21
21.1283648138
  0
LINE
  5
31D
100
AcDbEntity
  8
ASSI
100
AcDbLine
 62
250
  6
CONTINUOUS
 10
10.4405979384
 20
21.7893271278
 11
10.4392918615
 21
21.7389494555
  0
LINE
  5
31E
100
AcDbEntity
  8
ASSI
100
AcDbLine
 62
250
  6
CONTINUOUS
 10
10.9379610825
 20
21.2519240499
 11
10.9367673527
 21
21.2065390008
  0
LINE
  5
31F
100
AcDbEntity
  8
ASSI
100
AcDbLine
 62
250
  6
CONTINUOUS
 10
10.9392158316
 20
21.2915404362
 11
10.9379610825
 21
21.2519240499
  0
LINE
  5
320
100
AcDbEntity
  8
CURVE
100
AcDbLine
 62
250
  6
CONTINUOUS
 10
1.9375044369
 20
-14.9113139546
 11
3.4414124369
 21
-13.4063689546
  0
LINE
  5
321
100
AcDbEntity
  8
CURVE
100
AcDbLine
 62
250
  6
CONTINUOUS
 10
-3.6737195631
 20
10.0450500454
 11
2.6865204369
 21
10.0450500454
  0
LINE
  5
322
100
AcDbEntity
  8
CURVE
100
AcDbLine
 62
250
  6
CONTINUOUS
 10
-0.0195455631
 20
12.6792210454
 11
1.4843624369
 21
11.1746220454
  0
LWPOLYLINE
  5
323
100
AcDbEntity
  8
ASSI
100
AcDbPolyline
 62
250
  6
CONTINUOUS
 90
22
 70
0
 10
10.9221928678
 20
-0.4495209319
 10
10.9216315433
 20
-0.434576905
 10
10.91995526
 20
-0.4197164365
 10
10.9171733909
 20
-0.4050226165
 10
10.9133014906
 20
-0.3905776027
 10
10.9083612086
 20
-0.3764621622
 10
10.9023801682
 20
-0.3627552198
 10
10.8953918119
 20
-0.3495334153
 10
10.8874352144
 20
-0.336870676
 10
10.8785548643
 20
-0.3248378037
 10
10.8688004153
 20
-0.3135020778
 10
10.858226408
 20
-0.3029268796
 10
10.8468919661
 20
-0.2931713383
 10
10.8348604645
 20
-0.2842899998
 10
10.8221991755
 20
-0.2763325218
 10
10.8089788933
 20
-0.2693433966
 10
10.7952735369
 20
-0.2633617019
 10
10.7811597376
 20
-0.2584208825
 10
10.7667164103
 20
-0.2545485632
 10
10.7520243124
 20
-0.2517663945
 10
10.737165592
 20
-0.2500899317
 10
10.7222233287
 20
-0.2495285473
  0
LWPOLYLINE
  5
324
100
AcDbEntity
  8
ASSI
100
AcDbPolyline
 62
250
  6
CONTINUOUS
 90
28
 70
0
 10
10.9460935583
 20
21.3953214999
 10
10.9452222149
 20
21.4243372116
 10
10.9426641995
 20
21.4532548583
 10
10.9384281575
 20
21.4819767055
 10
10.9325284053
 20
21.5104056806
 10
10.9249848826
 20
21.5384457008
 10
10.9158230844
 20
21.5660019979
 10
10.9050739753
 20
21.5929814385
 10
10.8927738843
 20
21.6192928386
 10
10.8789643825
 20
21.6448472724
 10
10.8636921426
 20
21.6695583722
 10
10.8470087807
 20
21.6933426205
 10
10.8289706823
 20
21.7161196324
 10
10.8096388117
 20
21.7378124272
 10
10.7890785056
 20
21.7583476886
 10
10.7673592527
 20
21.7776560124
 10
10.7445544586
 20
21.7956721411
 10
10.7207411977
 20
21.8123351847
 10
10.6959999531
 20
21.827588826
 10
10.6704143438
 20
21.8413815114
 10
10.6440708429
 20
21.8536666251
 10
10.617058485
 20
21.8644026462
 10
10.5894685651
 20
21.8735532895
 10
10.5613943302
 20
21.8810876282
 10
10.5329306645
 20
21.8869801979
 10
10.5041737682
 20
21.8912110832
 10
10.4752208323
 20
21.8937659846
 10
10.4461697107
 20
21.8946362673
  0
LINE
  5
325
100
AcDbEntity
  8
ASSI
100
AcDbLine
 62
250
  6
CONTINUOUS
 10
10.9345951029
 20
-21.3079789336
 11
10.9361962775
 21
-21.3899842589
  0
LINE
  5
326
100
AcDbEntity
  8
ASSI
100
AcDbLine
 62
250
  6
CONTINUOUS
 10
10.9327566253
 20
-21.1823376261
 11
10.9345951029
 21
-21.3079789336
  0
LINE
  5
327
100
AcDbEntity
  8
ASSI
100
AcDbLine
 62
250
  6
CONTINUOUS
 10
10.9310015861
 20
-21.0038617155
 11
10.9327566253
 21
-21.1823376261
  0
LINE
  5
328
100
AcDbEntity
  8
ASSI
100
AcDbLine
 62
250
  6
CONTINUOUS
 10
10.9297867935
 20
-20.7683311524
 11
10.9310015861
 21
-21.0038617155
  0
LINE
  5
329
100
AcDbEntity
  8
ASSI
100
AcDbLine
 62
7
  6
CONTINUOUS
 10
11.0131094369
 20
12.9959110454
 11
11.0000351996
 21
21.5572780233
  0
LINE
  5
32A
100
AcDbEntity
  8
ASSI
100
AcDbLine
 62
250
  6
CONTINUOUS
 10
10.924097499
 20
-10.5498788135
 11
10.9297867935
 21
-20.7683311524
  0
LINE
  5
32B
100
AcDbEntity
  8
ASSI
100
AcDbLine
 62
250
  6
CONTINUOUS
 10
10.9221931578
 20
-0.4495207869
 11
10.924097499
 21
-10.5498788135
  0
LINE
  5
32C
100
AcDbEntity
  8
ASSI
100
AcDbLine
 62
7
  6
CONTINUOUS
 10
11.0131094369
 20
-0.4040661094
 11
11.0131094369
 21
-13.2040889546
  0
LINE
  5
32D
100
AcDbEntity
  8
ASSI
100
AcDbLine
 62
7
  6
CONTINUOUS
 10
11.0131094369
 20
0.1958882001
 11
11.0131094369
 21
12.9959110454
  0
LINE
  5
32E
100
AcDbEntity
  8
ASSI
100
AcDbLine
 62
7
  6
CONTINUOUS
 10
11.0131094369
 20
-13.2040889546
 11
11.0000351996
 21
-21.7654559326
  0
LINE
  5
32F
100
AcDbEntity
  8
ASSI
100
AcDbLine
 62
250
  6
CONTINUOUS
 10
10.9302674776
 20
20.6800585626
 11
10.9221931578
 21
0.2413428776
  0
LINE
  5
330
100
AcDbEntity
  8
ASSI
100
AcDbLine
 62
250
  6
CONTINUOUS
 10
10.9319779629
 20
20.9052665994
 11
10.9302674776
 21
20.6800585626
  0
LINE
  5
331
100
AcDbEntity
  8
ASSI
100
AcDbLine
 62
250
  6
CONTINUOUS
 10
10.9336304715
 20
21.0391136485
 11
10.9319779629
 21
20.9052665994
  0
LINE
  5
332
100
AcDbEntity
  8
ASSI
100
AcDbLine
 62
250
  6
CONTINUOUS
 10
10.9351088467
 20
21.1283648138
 11
10.9336304715
 21
21.0391136485
  0
LWPOLYLINE
  5
333
100
AcDbEntity
  8
ASSI
100
AcDbPolyline
 62
250
  6
CONTINUOUS
 90
28
 70
0
 10
10.9460935583
 20
-21.6034994092
 10
10.9452222144
 20
-21.6325151302
 10
10.9426641975
 20
-21.6614327853
 10
10.938428153
 20
-21.69015464
 10
10.9325283977
 20
-21.7185836216
 10
10.9249848714
 20
-21.7466236473
 10
10.9158230693
 20
-21.7741799488
 10
10.9050739559
 20
-21.8011593926
 10
10.8927738606
 20
-21.8274707949
 10
10.8789643547
 20
-21.8530252298
 10
10.8636921108
 20
-21.8777363297
 10
10.8470087454
 20
-21.9015205772
 10
10.8289706439
 20
-21.9242975875
 10
10.8096387708
 20
-21.9459903799
 10
10.7890784629
 20
-21.9665256382
 10
10.7673592089
 20
-21.9858339585
 10
10.7445544145
 20
-22.0038500833
 10
10.7207411542
 20
-22.0205131226
 10
10.6959999109
 20
-22.0357667596
 10
10.6704143039
 20
-22.0495594408
 10
10.644070806
 20
-22.0618445503
 10
10.6170584518
 20
-22.0725805675
 10
10.5894685363
 20
-22.0817312074
 10
10.5613943065
 20
-22.0892655431
 10
10.5329306463
 20
-22.0951581104
 10
10.5041737557
 20
-22.0993889939
 10
10.475220826
 20
-22.1019438943
 10
10.4461697107
 20
-22.1028141766
  0
LWPOLYLINE
  5
334
100
AcDbEntity
  8
ASSI
100
AcDbPolyline
 62
250
  6
CONTINUOUS
 90
22
 70
0
 10
10.9221928678
 20
0.2413430226
 10
10.921631545
 20
0.2263990192
 10
10.9199552668
 20
0.2115385725
 10
10.9171734057
 20
0.196844772
 10
10.913301516
 20
0.1823997756
 10
10.9083612467
 20
0.1682843499
 10
10.9023802204
 20
0.1545774187
 10
10.8953918789
 20
0.1413556219
 10
10.8874352963
 20
0.1286928869
 10
10.8785549605
 20
0.116660015
 10
10.8688005243
 20
0.1053242859
 10
10.8582265277
 20
0.0947490813
 10
10.8468920935
 20
0.0849935307
 10
10.8348605962
 20
0.0761121803
 10
10.8221993076
 20
0.0681546887
 10
10.8089790212
 20
0.0611655489
 10
10.7952736558
 20
0.0551838393
 10
10.7811598425
 20
0.0502430055
 10
10.7667164962
 20
0.0463706735
 10
10.7520243742
 20
0.0435884946
 10
10.7371656251
 20
0.0419120248
 10
10.7222233287
 20
0.041350638
  0
LINE
  5
335
100
AcDbEntity
  8
CURVE
100
AcDbLine
 62
250
  6
CONTINUOUS
 10
-0.0195455631
 20
12.6792210454
 11
3.4417574369
 21
12.6792210454
  0
LINE
  5
336
100
AcDbEntity
  8
CURVE
100
AcDbLine
 62
250
  6
CONTINUOUS
 10
2.6865204369
 20
15.2148840454
 11
-0.1177095631
 21
17.5697730454
  0
LWPOLYLINE
  5
337
100
AcDbEntity
  8
0
100
AcDbPolyline
 62
7
  6
CONTINUOUS
 90
10
 70
0
 43
0.3500000019
 10
0.9345375977
 20
31.3837519531
 10
1.0059677734
 20
31.2408942871
 10
1.0059677734
 20
31.1694667969
 10
0.8631074219
 20
31.0266091309
 10
0.7916826172
 20
31.0266091309
 10
0.7202524414
 20
31.0980393066
 10
0.7202524414
 20
31.1694667969
 10
0.7916826172
 20
31.3123244629
 10
0.8631074219
 20
31.3837519531
 10
0.9345375977
 20
31.3837519531
  0
LWPOLYLINE
  5
338
100
AcDbEntity
  8
0
100
AcDbPolyline
 62
7
  6
CONTINUOUS
 90
3
 70
0
 43
0.3500000019
 10
17.6540112305
 20
-0.5326603889
 10
17.6540112305
 20
-2.0326603851
 10
15.2968691406
 20
-1.3898032379
  0
LWPOLYLINE
  5
339
100
AcDbEntity
  8
0
100
AcDbPolyline
 62
7
  6
CONTINUOUS
 90
3
 70
0
 43
0.3500000019
 10
17.6540112305
 20
-2.8898031921
 10
17.6540112305
 20
-4.3898033142
 10
15.2968691406
 20
-3.746946167
  0
LWPOLYLINE
  5
33A
100
AcDbEntity
  8
0
100
AcDbPolyline
 62
7
  6
CONTINUOUS
 90
5
 70
0
 43
0.3500000019
 10
16.5825800781
 20
2.8959111328
 10
16.3682949219
 20
3.2530539551
 10
15.7254394531
 20
3.2530539551
 10
15.2968691406
 20
2.8959111328
 10
15.2968691406
 20
2.038768158
  0
LWPOLYLINE
  5
33B
100
AcDbEntity
  8
0
100
AcDbPolyline
 62
7
  6
CONTINUOUS
 90
6
 70
0
 43
0.3500000019
 10
18.2968666992
 20
2.038768158
 10
18.2968666992
 20
3.1101966248
 10
18.082581543
 20
3.3244824524
 10
17.0111503906
 20
3.3244824524
 10
16.5825800781
 20
2.8959111328
 10
16.5825800781
 20
2.4673396454
  0
LWPOLYLINE
  5
33C
100
AcDbEntity
  8
ASSI
100
AcDbPolyline
 62
250
  6
CONTINUOUS
 90
15
 70
0
 10
10.9295667877
 20
-20.6459948111
 10
10.9282383148
 20
-20.6471773331
 10
10.9252599954
 20
-20.648355942
 10
10.9206416847
 20
-20.6495267379
 10
10.9143986646
 20
-20.6506858466
 10
10.9065515931
 20
-20.6518294328
 10
10.8971264363
 20
-20.6529537121
 10
10.8861543818
 20
-20.6540549645
 10
10.8736717359
 20
-20.6551295459
 10
10.8597198038
 20
-20.6561739005
 10
10.844344752
 20
-20.6571845725
 10
10.8275974566
 20
-20.6581582177
 10
10.8095333341
 20
-20.6590916143
 10
10.7902121586
 20
-20.6599816736
 10
10.7696978635
 20
-20.6608254506
  0
LINE
  5
33D
100
AcDbEntity
  8
ASSI
100
AcDbLine
 62
7
  6
CONTINUOUS
 10
7.6715344299
 20
22.0552237511
 11
7.3208444638
 21
22.0233905931
  0
LINE
  5
33E
100
AcDbEntity
  8
ASSI
100
AcDbLine
 62
7
  6
CONTINUOUS
 10
-3.5284655701
 20
22.0552237511
 11
-3.8791555362
 21
22.0233905931
  0
LINE
  5
33F
100
AcDbEntity
  8
ASSI
100
AcDbLine
 62
250
  6
CONTINUOUS
 10
-11.0434789897
 20
20.4526475413
 11
-10.9991462906
 21
20.454185242
  0
LINE
  5
340
100
AcDbEntity
  8
ASSI
100
AcDbLine
 62
250
  6
CONTINUOUS
 10
-10.9991462906
 20
20.454185242
 11
-10.9509026633
 21
20.4555064711
  0
LINE
  5
341
100
AcDbEntity
  8
ASSI
100
AcDbLine
 62
250
  6
CONTINUOUS
 10
-10.9509026633
 20
20.4555064711
 11
-10.8993861301
 21
20.4565937554
  0
LINE
  5
342
100
AcDbEntity
  8
ASSI
100
AcDbLine
 62
250
  6
CONTINUOUS
 10
-10.8993861301
 20
20.4565937554
 11
-10.8452779974
 21
20.4574327154
  0
LINE
  5
343
100
AcDbEntity
  8
ASSI
100
AcDbLine
 62
250
  6
CONTINUOUS
 10
-10.8452779974
 20
20.4574327154
 11
-10.7892938457
 21
20.458012256
  0
LINE
  5
344
100
AcDbEntity
  8
ASSI
100
AcDbLine
 62
250
  6
CONTINUOUS
 10
-10.7892938457
 20
20.458012256
 11
-10.7321740657
 21
20.4583247126
  0
LINE
  5
345
100
AcDbEntity
  8
ASSI
100
AcDbLine
 62
250
  6
CONTINUOUS
 10
-10.7321740657
 20
20.4583247126
 11
10.4296429156
 21
20.4583588762
  0
LINE
  5
346
100
AcDbEntity
  8
ASSI
100
AcDbLine
 62
250
  6
CONTINUOUS
 10
-10.7199511392
 20
21.894637175
 11
10.446170013
 21
21.894637175
  0
LINE
  5
347
100
AcDbEntity
  8
ASSI
100
AcDbLine
 62
7
  6
CONTINUOUS
 10
7.1476393831
 20
22.0181498152
 11
3.7785794907
 21
22.0181498152
  0
LINE
  5
348
100
AcDbEntity
  8
ASSI
100
AcDbLine
 62
7
  6
CONTINUOUS
 10
-4.0523606169
 20
22.0181498152
 11
-7.4214205093
 21
22.0181498152
  0
LINE
  5
349
100
AcDbEntity
  8
ASSI
100
AcDbLine
 62
7
  6
CONTINUOUS
 10
10.4996553763
 20
22.0552237511
 11
7.6715344299
 21
22.0552237511
  0
LINE
  5
34A
100
AcDbEntity
  8
ASSI
100
AcDbLine
 62
7
  6
CONTINUOUS
 10
3.2546844439
 20
22.0552237511
 11
-3.5284655701
 21
22.0552237511
  0
LINE
  5
34B
100
AcDbEntity
  8
ASSI
100
AcDbLine
 62
7
  6
CONTINUOUS
 10
-7.9453155561
 20
22.0552237511
 11
-10.7734365025
 21
22.0552237511
  0
LINE
  5
34C
100
AcDbEntity
  8
ASSI
100
AcDbLine
 62
250
  6
CONTINUOUS
 10
10.4870478299
 20
20.4582022281
 11
10.4296429401
 21
20.4583793702
  0
LINE
  5
34D
100
AcDbEntity
  8
ASSI
100
AcDbLine
 62
250
  6
CONTINUOUS
 10
10.5436935391
 20
20.4577554897
 11
10.4870478299
 21
20.4582022281
  0
LINE
  5
34E
100
AcDbEntity
  8
ASSI
100
AcDbLine
 62
250
  6
CONTINUOUS
 10
10.5988309271
 20
20.4570450632
 11
10.5436935391
 21
20.4577554897
  0
LINE
  5
34F
100
AcDbEntity
  8
ASSI
100
AcDbLine
 62
250
  6
CONTINUOUS
 10
10.6517308009
 20
20.4560803438
 11
10.5988309271
 21
20.4570450632
  0
LINE
  5
350
100
AcDbEntity
  8
ASSI
100
AcDbLine
 62
250
  6
CONTINUOUS
 10
10.701693559
 20
20.4548740902
 11
10.6517308009
 21
20.4560803438
  0
LINE
  5
351
100
AcDbEntity
  8
ASSI
100
AcDbLine
 62
7
  6
CONTINUOUS
 10
-7.9453155561
 20
22.0552237511
 11
-7.59462559
 21
22.0233905931
  0
LWPOLYLINE
  5
352
100
AcDbEntity
  8
0
100
AcDbPolyline
 62
7
  6
CONTINUOUS
 90
7
 70
0
 43
0.3500000019
 10
-0.5654638672
 20
30.8837514648
 10
-2.0654599609
 20
30.8837514648
 10
-0.5654638672
 20
33.0266083984
 10
-0.5654638672
 20
33.4551813965
 10
-0.9940341797
 20
33.883751709
 10
-1.6368896484
 20
33.883751709
 10
-2.0654599609
 20
33.2408962402
  0
LWPOLYLINE
  5
353
100
AcDbEntity
  8
0
100
AcDbPolyline
 62
7
  6
CONTINUOUS
 90
7
 70
0
 43
0.3500000019
 10
-2.922605957
 20
30.8837514648
 10
-4.4226074219
 20
30.8837514648
 10
-2.922605957
 20
33.0266083984
 10
-2.922605957
 20
33.4551813965
 10
-3.3511762695
 20
33.883751709
 10
-3.9940317383
 20
33.883751709
 10
-4.4226074219
 20
33.2408962402
  0
LWPOLYLINE
  5
354
100
AcDbEntity
  8
0
100
AcDbPolyline
 62
7
  6
CONTINUOUS
 90
6
 70
0
 43
0.3500000019
 10
2.00596875
 20
30.8837514648
 10
3.0773945313
 20
30.8837514648
 10
3.2916796875
 20
31.0980393066
 10
3.2916796875
 20
32.1694677734
 10
2.863109375
 20
32.5980380859
 10
2.4345390625
 20
32.5980380859
  0
LINE
  5
355
100
AcDbEntity
  8
ASSI
100
AcDbLine
 62
7
  6
CONTINUOUS
 10
3.2546844439
 20
22.0552237511
 11
3.60537441
 21
22.0233905931
  0
LWPOLYLINE
  5
356
100
AcDbEntity
  8
ASSI
100
AcDbPolyline
 62
250
  6
CONTINUOUS
 90
17
 70
0
 10
10.9295667877
 20
20.4378169018
 10
10.9282383333
 20
20.4389994244
 10
10.9252600309
 20
20.4401780339
 10
10.9206417356
 20
20.4413488305
 10
10.9143987294
 20
20.44250794
 10
10.9065516702
 20
20.4436515268
 10
10.897126524
 20
20.444775807
 10
10.8861544785
 20
20.4458770601
 10
10.8736718401
 20
20.4469516423
 10
10.8597199137
 20
20.4479959977
 10
10.8443448661
 20
20.4490066706
 10
10.8275975733
 20
20.4499803166
 10
10.8095334519
 20
20.4509137139
 10
10.7902122759
 20
20.451803774
 10
10.769697979
 20
20.4526475517
 10
10.7480584428
 20
20.4534422549
 10
10.701693559
 20
20.4548740902
  0
LINE
  5
357
100
AcDbEntity
  8
ASSI
100
AcDbLine
 62
7
  6
CONTINUOUS
 10
-29.5975350243
 20
-22.1028150843
 11
-26.5333606156
 21
-22.2634016604
  0
LINE
  5
358
100
AcDbEntity
  8
ASSI
100
AcDbLine
 62
250
  6
CONTINUOUS
 10
-31.0169533215
 20
-20.6665026219
 11
-31.0177790196
 21
-20.6665572627
  0
LINE
  5
359
100
AcDbEntity
  8
ASSI
100
AcDbLine
 62
250
  6
CONTINUOUS
 10
-31.0103590316
 20
-20.6661901653
 11
-31.0169533215
 21
-20.6665026219
  0
LINE
  5
35A
100
AcDbEntity
  8
ASSI
100
AcDbLine
 62
250
  6
CONTINUOUS
 10
-30.5269286242
 20
-20.6459948111
 11
-31.0103590316
 21
-20.6661901653
  0
LINE
  5
35B
100
AcDbEntity
  8
ASSI
100
AcDbLine
 62
250
  6
CONTINUOUS
 10
-29.5801105685
 20
-21.6034994092
 11
-26.4897960093
 21
-21.7654559326
  0
LINE
  5
35C
100
AcDbEntity
  8
ASSI
100
AcDbLine
 62
250
  6
CONTINUOUS
 10
-26.1407734545
 20
-18.0375805559
 11
-26.1636491754
 21
-18.0375805617
  0
LWPOLYLINE
  5
35D
100
AcDbEntity
  8
ASSI
100
AcDbPolyline
 62
250
  6
CONTINUOUS
 90
37
 70
0
 10
-30.5269286242
 20
-20.6459948111
 10
-30.5243866107
 20
-20.6870437051
 10
-30.5201852359
 20
-20.7278224855
 10
-30.5143244998
 20
-20.7683311524
 10
-30.5067890106
 20
-20.808638189
 10
-30.49759416
 20
-20.848675112
 10
-30.4867861236
 20
-20.8882364712
 10
-30.4743566215
 20
-20.9273190564
 10
-30.4603139334
 20
-20.9659260777
 10
-30.4447290745
 20
-21.0038617155
 10
-30.4275944183
 20
-21.0411219786
 10
-30.4089175912
 20
-21.0777108581
 10
-30.3887924875
 20
-21.113444508
 10
-30.3672118572
 20
-21.1483186819
 10
-30.3441829504
 20
-21.1823376261
 10
-30.3198214105
 20
-21.2153302341
 10
-30.2941203322
 20
-21.2472915571
 10
-30.2670866209
 20
-21.2782265439
 10
-30.2388566365
 20
-21.3079789336
 10
-30.2094242734
 20
-21.3365427226
 10
-30.1787956373
 20
-21.3639239144
 10
-30.147125404
 20
-21.3899842589
 10
-30.1144085275
 20
-21.4147169096
 10
-30.0806500539
 20
-21.4381287129
 10
-30.0460197978
 20
-21.4601019588
 10
-30.0105134236
 20
-21.4806294307
 10
-29.9741352668
 20
-21.4997183451
 10
-29.937068148
 20
-21.5172726415
 10
-29.8993079922
 20
-21.5332847407
 10
-29.8608588744
 20
-21.547762222
 10
-29.8219158409
 20
-21.5606317625
 10
-29.7824759417
 20
-21.5718850771
 10
-29.7425421267
 20
-21.581530451
 10
-29.7023182923
 20
-21.5895194178
 10
-29.6618724038
 20
-21.5958358221
 10
-29.6211364959
 20
-21.6004958192
 10
-29.5801105685
 20
-21.6034994092
  0
LWPOLYLINE
  5
35E
100
AcDbEntity
  8
ASSI
100
AcDbPolyline
 62
250
  6
CONTINUOUS
 90
13
 70
0
 10
-30.9493635939
 20
-0.4495207869
 10
-30.9453683706
 20
-2.1331598394
 10
-30.935697928
 20
-3.8167004726
 10
-30.920352266
 20
-5.5001426867
 10
-30.8993304817
 20
-7.1834929867
 10
-30.8726334779
 20
-8.8667448676
 10
-30.8402639637
 20
-10.5498788135
 10
-30.8022228774
 20
-12.2328946902
 10
-30.7585092806
 20
-13.915792632
 10
-30.7091230675
 20
-15.5985535263
 10
-30.6540642027
 20
-17.2811710021
 10
-30.5933327216
 20
-18.9636514304
 10
-30.5269286242
 20
-20.6459948111
  0
LINE
  5
35F
100
AcDbEntity
  8
ASSI
100
AcDbLine
 62
250
  6
CONTINUOUS
 10
-30.9497394043
 20
-0.3905776027
 11
-30.9497849772
 21
-0.3495334153
  0
LINE
  5
360
100
AcDbEntity
  8
ASSI
100
AcDbLine
 62
250
  6
CONTINUOUS
 10
-30.9497763541
 20
0.1682843499
 11
-30.9497565997
 21
0.1286928869
  0
LINE
  5
361
100
AcDbEntity
  8
ASSI
100
AcDbLine
 62
250
  6
CONTINUOUS
 10
-30.9497849772
 20
-0.3495334153
 11
-30.9496352635
 21
-0.3135020778
  0
LWPOLYLINE
  5
362
100
AcDbEntity
  8
ASSI
100
AcDbPolyline
 62
250
  6
CONTINUOUS
 90
3
 70
0
 10
-30.9493802126
 20
0.2413430226
 10
-30.949500829
 20
0.2263990192
 10
-30.9497763541
 20
0.1682843499
  0
LINE
  5
363
100
AcDbEntity
  8
ASSI
100
AcDbLine
 62
250
  6
CONTINUOUS
 10
-30.9496352635
 20
-0.3135020778
 11
-30.9494302738
 21
-0.2931713383
  0
LWPOLYLINE
  5
364
100
AcDbEntity
  8
ASSI
100
AcDbPolyline
 62
250
  6
CONTINUOUS
 90
9
 70
0
 10
-30.9494302738
 20
-0.2931713383
 10
-30.9491462095
 20
-0.2763325218
 10
-30.9489764417
 20
-0.2693433966
 10
-30.9487894152
 20
-0.2633617019
 10
-30.9485861757
 20
-0.2584208825
 10
-30.9483678595
 20
-0.2545485632
 10
-30.9481356875
 20
-0.2517663945
 10
-30.9478909576
 20
-0.2500899317
 10
-30.9476350384
 20
-0.2495285473
  0
LWPOLYLINE
  5
365
100
AcDbEntity
  8
ASSI
100
AcDbPolyline
 62
250
  6
CONTINUOUS
 90
13
 70
0
 10
-30.5269286242
 20
20.4378169018
 10
-30.5933327216
 20
18.7554735211
 10
-30.6540642027
 20
17.0729930929
 10
-30.7091230675
 20
15.390375617
 10
-30.7585092806
 20
13.7076147228
 10
-30.8022228774
 20
12.0247167809
 10
-30.8402639637
 20
10.3417009042
 10
-30.8726334779
 20
8.6585669583
 10
-30.8993304817
 20
6.9753150774
 10
-30.920352266
 20
5.2919647774
 10
-30.935697928
 20
3.6085225633
 10
-30.9453683707
 20
1.9249819301
 10
-30.9493635939
 20
0.2413428776
  0
LWPOLYLINE
  5
366
100
AcDbEntity
  8
ASSI
100
AcDbPolyline
 62
250
  6
CONTINUOUS
 90
8
 70
0
 10
-30.9491462102
 20
0.0681546887
 10
-30.9489764425
 20
0.0611655489
 10
-30.9487894161
 20
0.0551838393
 10
-30.9485861765
 20
0.0502430055
 10
-30.9483678603
 20
0.0463706735
 10
-30.9481356881
 20
0.0435884946
 10
-30.947890958
 20
0.0419120248
 10
-30.9476350384
 20
0.041350638
  0
LINE
  5
367
100
AcDbEntity
  8
ASSI
100
AcDbLine
 62
250
  6
CONTINUOUS
 10
-30.949430274
 20
0.0849935307
 11
-30.9491462102
 21
0.0681546887
  0
LINE
  5
368
100
AcDbEntity
  8
ASSI
100
AcDbLine
 62
250
  6
CONTINUOUS
 10
-30.9496352633
 20
0.1053242859
 11
-30.949430274
 21
0.0849935307
  0
LINE
  5
369
100
AcDbEntity
  8
ASSI
100
AcDbLine
 62
250
  6
CONTINUOUS
 10
-30.9497565997
 20
0.1286928869
 11
-30.9496352633
 21
0.1053242859
  0
LINE
  5
36A
100
AcDbEntity
  8
ASSI
100
AcDbLine
 62
250
  6
CONTINUOUS
 10
-30.9493802126
 20
-0.4495209319
 11
-30.9497394043
 21
-0.3905776027
  0
LWPOLYLINE
  5
36B
100
AcDbEntity
  8
ASSI
100
AcDbPolyline
 62
250
  6
CONTINUOUS
 90
9
 70
0
 10
-29.5986755849
 20
-22.0495594408
 10
-29.5988595927
 20
-22.0618445503
 10
-29.5989507411
 20
-22.0725805675
 10
-29.5989487221
 20
-22.0817312074
 10
-29.5988535424
 20
-22.0892655431
 10
-29.5986655237
 20
-22.0951581104
 10
-29.5983853015
 20
-22.0993889939
 10
-29.5980138229
 20
-22.1019438943
 10
-29.5975523434
 20
-22.1028141766
  0
LINE
  5
36C
100
AcDbEntity
  8
ASSI
100
AcDbLine
 62
250
  6
CONTINUOUS
 10
-29.5801105685
 20
21.3953214999
 11
-29.5872429371
 21
21.5384457008
  0
LINE
  5
36D
100
AcDbEntity
  8
ASSI
100
AcDbLine
 62
250
  6
CONTINUOUS
 10
-29.5872429371
 20
21.5384457008
 11
-29.5920159166
 21
21.6448472724
  0
LINE
  5
36E
100
AcDbEntity
  8
ASSI
100
AcDbLine
 62
250
  6
CONTINUOUS
 10
-29.5920159166
 20
21.6448472724
 11
-29.5948784995
 21
21.7161196324
  0
LINE
  5
36F
100
AcDbEntity
  8
ASSI
100
AcDbLine
 62
250
  6
CONTINUOUS
 10
-29.5948784995
 20
21.7161196324
 11
-29.597028053
 21
21.7776560124
  0
LINE
  5
370
100
AcDbEntity
  8
ASSI
100
AcDbLine
 62
250
  6
CONTINUOUS
 10
-29.597028053
 20
21.7776560124
 11
-29.5980317902
 21
21.8123351847
  0
LWPOLYLINE
  5
371
100
AcDbEntity
  8
ASSI
100
AcDbPolyline
 62
250
  6
CONTINUOUS
 90
10
 70
0
 10
-29.5980317902
 20
21.8123351847
 10
-29.5986755851
 20
21.8413815114
 10
-29.598859593
 20
21.8536666251
 10
-29.5989507416
 20
21.8644026462
 10
-29.5989487225
 20
21.8735532895
 10
-29.5988535428
 20
21.8810876282
 10
-29.5986655241
 20
21.8869801979
 10
-29.5983853018
 20
21.8912110832
 10
-29.5980138231
 20
21.8937659846
 10
-29.5975523434
 20
21.8946362673
  0
LINE
  5
372
100
AcDbEntity
  8
ASSI
100
AcDbLine
 62
250
  6
CONTINUOUS
 10
-29.5980317903
 20
-22.0205131226
 11
-29.5986755849
 21
-22.0495594408
  0
LINE
  5
373
100
AcDbEntity
  8
ASSI
100
AcDbLine
 62
250
  6
CONTINUOUS
 10
-29.5970280535
 20
-21.9858339585
 11
-29.5980317903
 21
-22.0205131226
  0
LINE
  5
374
100
AcDbEntity
  8
ASSI
100
AcDbLine
 62
250
  6
CONTINUOUS
 10
-29.5948785005
 20
-21.9242975875
 11
-29.5970280535
 21
-21.9858339585
  0
LINE
  5
375
100
AcDbEntity
  8
ASSI
100
AcDbLine
 62
250
  6
CONTINUOUS
 10
-29.592015918
 20
-21.8530252298
 11
-29.5948785005
 21
-21.9242975875
  0
LINE
  5
376
100
AcDbEntity
  8
ASSI
100
AcDbLine
 62
250
  6
CONTINUOUS
 10
-29.5872429384
 20
-21.7466236473
 11
-29.592015918
 21
-21.8530252298
  0
LINE
  5
377
100
AcDbEntity
  8
ASSI
100
AcDbLine
 62
250
  6
CONTINUOUS
 10
-29.5801105685
 20
-21.6034994092
 11
-29.5872429384
 21
-21.7466236473
  0
LWPOLYLINE
  5
378
100
AcDbEntity
  8
0
100
AcDbPolyline
 62
7
  6
CONTINUOUS
 90
3
 70
0
 43
0.3500000019
 10
-17.6335966797
 20
31.2058129883
 10
-17.7050214844
 20
30.991527832
 10
-17.8478818359
 20
30.7058125
  0
LINE
  5
379
100
AcDbEntity
  8
ASSI
100
AcDbLine
 62
7
  6
CONTINUOUS
 10
-26.1407734545
 20
17.8294026466
 11
-26.1407734545
 21
17.5679319665
  0
LINE
  5
37A
100
AcDbEntity
  8
ASSI
100
AcDbLine
 62
7
  6
CONTINUOUS
 10
-26.1407734545
 20
-17.7761098757
 11
-26.1407734545
 21
-18.0375805559
  0
LINE
  5
37B
100
AcDbEntity
  8
ASSI
100
AcDbLine
 62
7
  6
CONTINUOUS
 10
-25.7407734545
 20
12.9959110454
 11
-26.5333606156
 21
22.0552237511
  0
LINE
  5
37C
100
AcDbEntity
  8
ASSI
100
AcDbLine
 62
7
  6
CONTINUOUS
 10
-25.7407734545
 20
-0.2040889546
 11
-25.7407734545
 21
-13.2040889546
  0
LINE
  5
37D
100
AcDbEntity
  8
ASSI
100
AcDbLine
 62
7
  6
CONTINUOUS
 10
-25.7407734545
 20
-0.0040889546
 11
-25.7407734545
 21
12.9959110454
  0
LINE
  5
37E
100
AcDbEntity
  8
ASSI
100
AcDbLine
 62
7
  6
CONTINUOUS
 10
-25.7407734545
 20
-13.2040889546
 11
-26.5333606156
 21
-22.2634016604
  0
LINE
  5
37F
100
AcDbEntity
  8
ASSI
100
AcDbLine
 62
250
  6
CONTINUOUS
 10
-25.7407734545
 20
-0.4040661094
 11
-31.4406522478
 21
-0.4522325513
  0
LINE
  5
380
100
AcDbEntity
  8
ASSI
100
AcDbLine
 62
7
  6
CONTINUOUS
 10
-25.7407734545
 20
-0.2040889546
 11
-31.2423976049
 21
-0.2521009012
  0
LINE
  5
381
100
AcDbEntity
  8
ASSI
100
AcDbLine
 62
7
  6
CONTINUOUS
 10
-31.2423976061
 20
0.043922992
 11
-25.7407734545
 21
-0.0040889546
  0
LINE
  5
382
100
AcDbEntity
  8
ASSI
100
AcDbLine
 62
250
  6
CONTINUOUS
 10
-31.4406522478
 20
0.244054642
 11
-25.7407734545
 21
0.1958882001
  0
LWPOLYLINE
  5
383
100
AcDbEntity
  8
0
100
AcDbPolyline
 62
7
  6
CONTINUOUS
 90
4
 70
0
 43
0.3500000019
 10
-16.6335957031
 20
33.2772424316
 10
-16.6335957031
 20
33.9200979004
 10
-15.1335942383
 20
33.9200979004
 10
-15.9907402344
 20
30.9201003418
  0
LINE
  5
384
100
AcDbEntity
  8
ASSI
100
AcDbLine
 62
250
  6
CONTINUOUS
 10
-26.1407734545
 20
17.8294026466
 11
-26.1636491748
 21
17.8294026465
  0
LWPOLYLINE
  5
385
100
AcDbEntity
  8
ASSI
100
AcDbPolyline
 62
250
  6
CONTINUOUS
 90
37
 70
0
 10
-29.5801105685
 20
21.3953214999
 10
-29.6211364954
 20
21.39231791
 10
-29.6618724031
 20
21.3876579129
 10
-29.7023182913
 20
21.3813415087
 10
-29.7425421257
 20
21.3733525419
 10
-29.7824759408
 20
21.3637071681
 10
-29.8219158401
 20
21.3524538535
 10
-29.8608588736
 20
21.339584313
 10
-29.8993079913
 20
21.3251068318
 10
-29.9370681472
 20
21.3090947326
 10
-29.974135266
 20
21.2915404362
 10
-30.0105134228
 20
21.2724515218
 10
-30.046019797
 20
21.2519240499
 10
-30.0806500532
 20
21.2299508041
 10
-30.1144085268
 20
21.2065390008
 10
-30.1471254033
 20
21.1818063502
 10
-30.1787956366
 20
21.1557460056
 10
-30.2094242728
 20
21.1283648138
 10
-30.2388566359
 20
21.0998010249
 10
-30.2670866204
 20
21.0700486352
 10
-30.2941203317
 20
21.0391136485
 10
-30.31982141
 20
21.0071523254
 10
-30.3441829499
 20
20.9741597175
 10
-30.3672118568
 20
20.9401407732
 10
-30.3887924871
 20
20.9052665994
 10
-30.4089175909
 20
20.8695329495
 10
-30.427594418
 20
20.83294407
 10
-30.4447290742
 20
20.7956838069
 10
-30.4603139332
 20
20.7577481691
 10
-30.4743566213
 20
20.7191411478
 10
-30.4867861234
 20
20.6800585626
 10
-30.4975941599
 20
20.6404972035
 10
-30.5067890104
 20
20.6004602804
 10
-30.5143244997
 20
20.5601532438
 10
-30.5201852358
 20
20.5196445768
 10
-30.5243866106
 20
20.4788657962
 10
-30.5269286242
 20
20.4378169018
  0
LINE
  5
386
100
AcDbEntity
  8
ASSI
100
AcDbLine
 62
250
  6
CONTINUOUS
 10
-26.4897960093
 20
21.5572780233
 11
-29.5801105685
 21
21.3953214999
  0
LINE
  5
387
100
AcDbEntity
  8
ASSI
100
AcDbLine
 62
7
  6
CONTINUOUS
 10
-26.5333606156
 20
22.0552237511
 11
-29.5975350236
 21
21.894637175
  0
LWPOLYLINE
  5
388
100
AcDbEntity
  8
0
100
AcDbPolyline
 62
7
  6
CONTINUOUS
 90
8
 70
0
 43
0.3500000019
 10
-20.4907392578
 20
30.9201003418
 10
-19.6335932617
 20
30.9201003418
 10
-19.2050229492
 20
31.3486706543
 10
-19.2050229492
 20
32.2058139648
 10
-19.6335932617
 20
32.6343842773
 10
-20.4907392578
 20
32.6343842773
 10
-20.4907392578
 20
33.9200979004
 10
-19.2050229492
 20
33.9200979004
  0
LWPOLYLINE
  5
389
100
AcDbEntity
  8
ASSI
100
AcDbPolyline
 62
250
  6
CONTINUOUS
 90
4
 70
0
 10
-30.5269286242
 20
20.4378169018
 10
-31.014477664
 20
20.4582022281
 10
-31.0169537274
 20
20.4583247292
 10
-31.0177794267
 20
20.4583793702
  0
LWPOLYLINE
  5
38A
100
AcDbEntity
  8
0
100
AcDbPolyline
 62
7
  6
CONTINUOUS
 90
10
 70
0
 43
0.3500000019
 10
-17.7050214844
 20
31.4200981445
 10
-17.6335966797
 20
31.2772431641
 10
-17.6335966797
 20
31.2058129883
 10
-17.7764516602
 20
31.0629553223
 10
-17.8478818359
 20
31.0629553223
 10
-17.9193120117
 20
31.134385498
 10
-17.9193120117
 20
31.2058129883
 10
-17.8478818359
 20
31.3486706543
 10
-17.7764516602
 20
31.4200981445
 10
-17.7050214844
 20
31.4200981445
  0
ARC
  5
38B
100
AcDbEntity
  8
ASSI
100
AcDbCircle
 62
7
  6
CONTINUOUS
 10
-0.1368905631
 20
-0.1040889546
 40
1.375
100
AcDbArc
 50
15.3271627815
 51
164.6728372185
  0
ARC
  5
38C
100
AcDbEntity
  8
ASSI
100
AcDbCircle
 62
7
  6
CONTINUOUS
 10
-0.1368905631
 20
-0.1040889546
 40
1.375
100
AcDbArc
 50
195.3271627815
 51
344.6728372185
  0
ARC
  5
38D
100
AcDbEntity
  8
ASSI
100
AcDbCircle
 62
7
  6
CONTINUOUS
 10
-29.519048409
 20
-20.6048698745
 40
1.5
100
AcDbArc
 50
182.3561664986
 51
267.000662446
  0
ARC
  5
38E
100
AcDbEntity
  8
ASSI
100
AcDbCircle
 62
7
  6
CONTINUOUS
 10
-26.4407734545
 20
-18.0375805559
 40
0.3
100
AcDbArc
 50
335.0
 51
360.0
  0
ARC
  5
38F
100
AcDbEntity
  8
ASSI
100
AcDbCircle
 62
7
  6
CONTINUOUS
 10
-31.2406517872
 20
-0.4520932814
 40
0.2
100
AcDbArc
 50
90.5001462858
 51
180.0398957513
  0
ARC
  5
390
100
AcDbEntity
  8
ASSI
100
AcDbCircle
 62
7
  6
CONTINUOUS
 10
-29.519048409
 20
20.3966919652
 40
1.5
100
AcDbArc
 50
92.999337554
 51
177.6438335014
  0
ARC
  5
391
100
AcDbEntity
  8
ASSI
100
AcDbCircle
 62
7
  6
CONTINUOUS
 10
-26.4407734545
 20
17.8294026466
 40
0.3
100
AcDbArc
 50
0.0
 51
25.0
  0
ARC
  5
392
100
AcDbEntity
  8
ASSI
100
AcDbCircle
 62
7
  6
CONTINUOUS
 10
-31.2406517872
 20
0.2439153721
 40
0.2
100
AcDbArc
 50
179.9601042487
 51
269.4998537142
  0
ARC
  5
393
100
AcDbEntity
  8
ASSI
100
AcDbCircle
 62
7
  6
CONTINUOUS
 10
468.5592265455
 20
-0.1040889546
 40
500.0
100
AcDbArc
 50
177.6430523596
 51
179.9601056801
  0
ARC
  5
394
100
AcDbEntity
  8
ASSI
100
AcDbCircle
 62
7
  6
CONTINUOUS
 10
468.5592265455
 20
-0.1040889546
 40
500.0
100
AcDbArc
 50
180.0398943199
 51
182.3569476403
  0
ELLIPSE
  5
395
100
AcDbEntity
  8
ASSI
100
AcDbEllipse
 62
7
  6
CONTINUOUS
 10
7.1476393831
 20
22.028631371
 30
0.0
 11
0.2
 21
0.0
 31
0.0
 40
0.0524077793
 41
-1.5707963268
 42
-0.5235987756
  0
ELLIPSE
  5
396
100
AcDbEntity
  8
ASSI
100
AcDbEllipse
 62
7
  6
CONTINUOUS
 10
3.7785794907
 20
22.028631371
 30
0.0
 11
0.2
 21
0.0
 31
0.0
 40
0.0524077793
 41
-2.617993878
 42
-1.5707963268
  0
ELLIPSE
  5
397
100
AcDbEntity
  8
ASSI
100
AcDbEllipse
 62
7
  6
CONTINUOUS
 10
-4.0523606169
 20
22.028631371
 30
0.0
 11
0.2
 21
0.0
 31
0.0
 40
0.0524077793
 41
-1.5707963268
 42
-0.5235987756
  0
ELLIPSE
  5
398
100
AcDbEntity
  8
ASSI
100
AcDbEllipse
 62
7
  6
CONTINUOUS
 10
-7.4214205093
 20
22.028631371
 30
0.0
 11
0.2
 21
0.0
 31
0.0
 40
0.0524077793
 41
-2.617993878
 42
-1.5707963268
  0
ELLIPSE
  5
399
100
AcDbEntity
  8
ASSI
100
AcDbEllipse
 62
7
  6
CONTINUOUS
 10
-11.0868600975
 20
0.195918661
 30
0.0
 11
0.1789222233
 21
0.0894542984
 31
0.0
 40
0.9998096356
 41
2.6780516535
 42
4.2486956813
  0
ELLIPSE
  5
39A
100
AcDbEntity
  8
ASSI
100
AcDbEllipse
 62
7
  6
CONTINUOUS
 10
10.8130789713
 20
0.195918661
 30
0.0
 11
0.1789222233
 21
-0.0894542984
 31
0.0
 40
0.9998096356
 41
-1.1071030277
 42
0.4635410001
  0
ELLIPSE
  5
39B
100
AcDbEntity
  8
ASSI
100
AcDbEllipse
 62
7
  6
CONTINUOUS
 10
-10.7737408569
 20
21.5568227896
 30
0.0
 11
0.498078285
 21
0.0448076117
 31
0.0
 40
0.9965957691
 41
1.4807720384
 42
3.0506549766
  0
ELLIPSE
  5
39C
100
AcDbEntity
  8
ASSI
100
AcDbEllipse
 62
7
  6
CONTINUOUS
 10
10.4999597307
 20
21.5568227896
 30
0.0
 11
0.498078285
 21
-0.0448076117
 31
0.0
 40
0.9965957691
 41
0.0909376769
 42
1.6608206152
  0
ELLIPSE
  5
39D
100
AcDbEntity
  8
ASSI
100
AcDbEllipse
 62
7
  6
CONTINUOUS
 10
-7.4214205093
 20
-22.2368092803
 30
0.0
 11
0.2
 21
0.0
 31
0.0
 40
0.0524077793
 41
1.5707963268
 42
2.617993878
  0
ELLIPSE
  5
39E
100
AcDbEntity
  8
ASSI
100
AcDbEllipse
 62
7
  6
CONTINUOUS
 10
-4.0523606169
 20
-22.2368092803
 30
0.0
 11
0.2
 21
0.0
 31
0.0
 40
0.0524077793
 41
0.5235987756
 42
1.5707963268
  0
ELLIPSE
  5
39F
100
AcDbEntity
  8
ASSI
100
AcDbEllipse
 62
7
  6
CONTINUOUS
 10
3.7785794907
 20
-22.2368092803
 30
0.0
 11
0.2
 21
0.0
 31
0.0
 40
0.0524077793
 41
1.5707963268
 42
2.617993878
  0
ELLIPSE
  5
3A0
100
AcDbEntity
  8
ASSI
100
AcDbEllipse
 62
7
  6
CONTINUOUS
 10
7.1476393831
 20
-22.2368092803
 30
0.0
 11
0.2
 21
0.0
 31
0.0
 40
0.0524077793
 41
0.5235987756
 42
1.5707963268
  0
ELLIPSE
  5
3A1
100
AcDbEntity
  8
ASSI
100
AcDbEllipse
 62
7
  6
CONTINUOUS
 10
10.8130789713
 20
-0.4040965703
 30
0.0
 11
0.1789222233
 21
0.0894542984
 31
0.0
 40
0.9998096356
 41
-0.4635410001
 42
1.1071030277
  0
ELLIPSE
  5
3A2
100
AcDbEntity
  8
ASSI
100
AcDbEllipse
 62
7
  6
CONTINUOUS
 10
-11.0868600975
 20
-0.4040965703
 30
0.0
 11
0.1789222233
 21
-0.0894542984
 31
0.0
 40
0.9998096356
 41
2.0344896259
 42
3.6051336537
  0
ELLIPSE
  5
3A3
100
AcDbEntity
  8
ASSI
100
AcDbEllipse
 62
7
  6
CONTINUOUS
 10
10.4999597307
 20
-21.7650006989
 30
0.0
 11
0.498078285
 21
0.0448076117
 31
0.0
 40
0.9965957691
 41
-1.6608206152
 42
-0.0909376769
  0
ELLIPSE
  5
3A4
100
AcDbEntity
  8
ASSI
100
AcDbEllipse
 62
7
  6
CONTINUOUS
 10
-10.7737408569
 20
-21.7650006989
 30
0.0
 11
0.498078285
 21
-0.0448076117
 31
0.0
 40
0.9965957691
 41
-3.0506549766
 42
-1.4807720384
  0
ENDSEC
  0
SECTION
  2
OBJECTS
  0
DICTIONARY
  5
C
100
AcDbDictionary
280
0
281
1
  3
ACAD_GROUP
350
D
  3
ACAD_MLINESTYLE
350
17
  3
ACAD_LAYOUT
350
1A
  3
ACAD_PLOTSETTINGS
350
19
  3
ACAD_PLOTSTYLENAME
350
E
  0
DICTIONARY
  5
D
102
{ACAD_REACTORS
330
C
102
}
100
AcDbDictionary
280
0
281
1
  0
ACDBDICTIONARYWDFLT
  5
E
102
{ACAD_REACTORS
330
C
102
}
100
AcDbDictionary
281
1
  3
Normal
350
F
100
AcDbDictionaryWithDefault
340
F
  0
DICTIONARY
  5
17
102
{ACAD_REACTORS
330
C
102
}
100
AcDbDictionary
280
0
281
1
  3
Standard
350
18
  0
DICTIONARY
  5
19
102
{ACAD_REACTORS
330
C
102
}
100
AcDbDictionary
281
1
  0
DICTIONARY
  5
1A
102
{ACAD_REACTORS
330
C
102
}
100
AcDbDictionary
281
1
  3
Model
350
3A5
  3
Layout1
350
3A6
  0
ACDBPLACEHOLDER
  5
F
102
{ACAD_REACTORS
330
E
102
}
  0
MLINESTYLE
  5
18
102
{ACAD_REACTORS
330
17
102
}
100
AcDbMlineStyle
  2
STANDARD
 70
0
  3

 62
256
 51
90.0
 52
90.0
 71
2
 49
0.5
 62
256
  6
BYLAYER
 49
-0.5
 62
256
  6
BYLAYER
  0
LAYOUT
  5
3A5
102
{ACAD_REACTORS
330
1A
102
}
100
AcDbPlotSettings
  1

  2
none_device
  4

  6

 40
0.0
 41
0.0
 42
0.0
 43
0.0
 44
210.0
 45
297.0
 46
0.0
 47
0.0
 48
0.0
 49
0.0
140
0.0
141
0.0
142
1.0
143
1.0
 70
1024
 72
1
 73
0
 74
0
  7

 75
0
147
1.0
148
0.0
149
0.0
100
AcDbLayout
  1
Model
 70
0
 71
0
 10
0.0
 20
0.0
 11
210.0
 21
297.0
 12
0.0
 22
0.0
 32
0.0
 14
0.0
 24
0.0
 34
0.0
 15
0.0
 25
0.0
 35
0.0
146
0.0
 13
0.0
 23
0.0
 33
0.0
 16
1.0
 26
0.0
 36
0.0
 17
0.0
 27
1.0
 37
0.0
 76
0
330
216
345
0
346
0
  0
LAYOUT
  5
3A6
102
{ACAD_REACTORS
330
1A
102
}
100
AcDbPlotSettings
  1

  2
none_device
  4

  6

 40
0.0
 41
0.0
 42
0.0
 43
0.0
 44
210.0
 45
297.0
 46
0.0
 47
0.0
 48
0.0
 49
0.0
140
0.0
141
0.0
142
1.0
143
1.0
 70
0
 72
1
 73
0
 74
0
  7

 75
0
147
1.0
148
0.0
149
0.0
100
AcDbLayout
  1
Layout1
 70
0
 71
1
 10
0.0
 20
0.0
 11
210.0
 21
297.0
 12
0.0
 22
0.0
 32
0.0
 14
0.0
 24
0.0
 34
0.0
 15
0.0
 25
0.0
 35
0.0
146
0.0
 13
0.0
 23
0.0
 33
0.0
 16
1.0
 26
0.0
 36
0.0
 17
0.0
 27
1.0
 37
0.0
 76
0
330
217
345
0
346
0
  0
ENDSEC
  0
EOF
