  0
SECTION
  2
HEADER
  9
$ACADVER
  1
AC1024
  9
$DWGCODEPAGE
  3
ANSI_1252
  9
$EXTMAX
 10
297.0
 20
210.0
 30
0.0
  9
$EXTMIN
 10
0.0
 20
0.0
 30
0.0
  9
$LIMMIN
 10
0.0
 20
0.0
  9
$LIMMAX
 10
297.0
 20
210.0
  9
$VIEWCTR
 10
148.5
 20
105.0
  9
$VIEWSIZE
 40
210.0
  9
$CLAYER
  8
0
  9
$LTSCALE
 40
16.335
  9
$CELTYPE
  6
BYLAYER
  9
$DIMSCALE
 40
1.0
  9
$DIMASZ
 40
3.0
  9
$DIMEXO
 40
0.5
  9
$DIMDLI
 40
11.286
  9
$DIMEXE
 40
1.5
  9
$DIMCEN
 40
2.673
  9
$DIMLFAC
 40
1.0
  9
$DIMBLK
  1
_FILLED
  9
$DIMALT
 70
0
  9
$DIMALTF
 40
0.0393700787
  9
$DIMTXT
 40
3.0
  9
$DIMTOL
 70
1
  9
$DIMLIM
 70
0
  9
$DIMTFAC
 40
1.0
  9
$DIMTP
 40
0.01
  9
$DIMTM
 40
0.01
  9
$DIMGAP
 40
0.625
  9
$DIMDSEP
 70
44
  9
$AUNITS
 70
0
  9
$PDMODE
 70
3
  9
$PDSIZE
 40
3.0
  9
$HANDSEED
  5
39B
  9
$TILEMODE
 70
1
  9
$MEASUREMENT
 70
1
  9
$INSUNITS
 70
4
  0
ENDSEC
  0
SECTION
  2
CLASSES
  0
CLASS
  1
ACDBDICTIONARYWDFLT
  2
AcDbDictionaryWithDefault
  3
AutoCAD 2000
 90
0
 91
1
280
0
281
0
  0
CLASS
  1
ACDBPLACEHOLDER
  2
AcDbPlaceHolder
  3
AutoCAD 2000
 90
0
 91
1
280
0
281
0
  0
CLASS
  1
LAYOUT
  2
AcDbLayout
  3
AutoCAD 2000
 90
0
 91
0
280
0
281
0
  0
ENDSEC
  0
SECTION
  2
TABLES
  0
TABLE
  2
VPORT
  5
8
100
AcDbSymbolTable
 70
2
  0
VPORT
  5
1F4
100
AcDbSymbolTableRecord
100
AcDbViewportTableRecord
  2
*ACTIVE
 70
0
 10
0.0
 20
0.0
 11
1.0
 21
1.0
 12
148.5
 22
105.0
 13
0.0
 23
0.0
 14
1.0
 24
1.0
 15
0.0
 25
0.0
 16
0.0
 26
0.0
 36
1.0
 17
0.0
 27
0.0
 37
0.0
 40
210.0
 41
1.4142857143
 42
50.0
 43
0.0
 44
0.0
 50
0.0
 51
0.0
 71
0
 72
100
 73
1
 74
1
 75
0
 76
0
 77
0
 78
0
  0
ENDTAB
  0
TABLE
  2
LTYPE
  5
5
100
AcDbSymbolTable
 70
6
  0
LTYPE
  5
14
100
AcDbSymbolTableRecord
100
AcDbLinetypeTableRecord
  2
BYBLOCK
 70
0
  3

 72
65
 73
0
 40
0.0
  0
LTYPE
  5
15
100
AcDbSymbolTableRecord
100
AcDbLinetypeTableRecord
  2
BYLAYER
 70
0
  3

 72
65
 73
0
 40
0.0
  0
LTYPE
  5
16
100
AcDbSymbolTableRecord
100
AcDbLinetypeTableRecord
  2
CONTINUOUS
 70
64
  3
Solid line
 72
65
 73
0
 40
0.0
  0
LTYPE
  5
1F5
100
AcDbSymbolTableRecord
100
AcDbLinetypeTableRecord
  2
CENTER
 70
64
  3
____ _ ____ _ ____ _ ____ _ ____ _ ____ _ ____
 72
65
 73
4
 40
0.6
 49
0.375
 74
0
 49
-0.075
 74
0
 49
0.075
 74
0
 49
-0.075
 74
0
  0
LTYPE
  5
1F6
100
AcDbSymbolTableRecord
100
AcDbLinetypeTableRecord
  2
HIDDEN
 70
64
  3
- - - - - - - - - - - - - - - - - - - -
 72
65
 73
2
 40
0.2
 49
0.1
 74
0
 49
-0.1
 74
0
  0
LTYPE
  5
1F7
100
AcDbSymbolTableRecord
100
AcDbLinetypeTableRecord
  2
PHANTOM
 70
64
  3
_____ _ _ _____ _ _ _____ _ _ _____
 72
65
 73
6
 40
0.8
 49
0.45
 74
0
 49
-0.05
 74
0
 49
0.1
 74
0
 49
-0.05
 74
0
 49
0.1
 74
0
 49
-0.05
 74
0
  0
LTYPE
  5
1F8
100
AcDbSymbolTableRecord
100
AcDbLinetypeTableRecord
  2
DOT
 70
64
  3
. . . . . . . . . . . . . . . . . . . .
 72
65
 73
2
 40
0.2
 49
0.1
 74
0
 49
-0.1
 74
0
  0
LTYPE
  5
1F9
100
AcDbSymbolTableRecord
100
AcDbLinetypeTableRecord
  2
DASHED
 70
64
  3
- - - - - - - - - - - - - - - - - - - -
 72
65
 73
2
 40
0.2
 49
0.1
 74
0
 49
-0.1
 74
0
  0
ENDTAB
  0
TABLE
  2
LAYER
  5
2
100
AcDbSymbolTable
 70
36
  0
LAYER
  5
10
100
AcDbSymbolTableRecord
100
AcDbLayerTableRecord
  2
0
 70
0
 62
7
  6
CONTINUOUS
370
-3
390
F
  0
LAYER
  5
1FA
100
AcDbSymbolTableRecord
100
AcDbLayerTableRecord
  2
DEFAULT_1
 70
0
 62
7
  6
CENTER
370
-3
390
F
  0
LAYER
  5
1FB
100
AcDbSymbolTableRecord
100
AcDbLayerTableRecord
  2
DEFAULT_2
 70
0
 62
7
  6
HIDDEN
370
-3
390
F
  0
LAYER
  5
1FC
100
AcDbSymbolTableRecord
100
AcDbLayerTableRecord
  2
DEFAULT_3
 70
0
 62
7
  6
PHANTOM
370
-3
390
F
  0
LAYER
  5
1FD
100
AcDbSymbolTableRecord
100
AcDbLayerTableRecord
  2
ASSI
 70
0
 62
7
  6
CONTINUOUS
370
-3
390
F
  0
LAYER
  5
1FE
100
AcDbSymbolTableRecord
100
AcDbLayerTableRecord
  2
COORDINATE
 70
0
 62
7
  6
CONTINUOUS
370
-3
390
F
  0
LAYER
  5
1FF
100
AcDbSymbolTableRecord
100
AcDbLayerTableRecord
  2
COORD_ORIGINE
 70
0
 62
7
  6
CONTINUOUS
370
-3
390
F
  0
LAYER
  5
200
100
AcDbSymbolTableRecord
100
AcDbLayerTableRecord
  2
PIANI
 70
0
 62
7
  6
CONTINUOUS
370
-3
390
F
  0
LAYER
  5
201
100
AcDbSymbolTableRecord
100
AcDbLayerTableRecord
  2
PIANI_ORIGINE
 70
0
 62
7
  6
CONTINUOUS
370
-3
390
F
  0
LAYER
  5
202
100
AcDbSymbolTableRecord
100
AcDbLayerTableRecord
  2
RACCORDO
 70
0
 62
7
  6
CONTINUOUS
370
-3
390
F
  0
LAYER
  5
203
100
AcDbSymbolTableRecord
100
AcDbLayerTableRecord
  2
SNAPLINE
 70
0
 62
7
  6
CONTINUOUS
370
-3
390
F
  0
LAYER
  5
204
100
AcDbSymbolTableRecord
100
AcDbLayerTableRecord
  2
TRASH
 70
0
 62
7
  6
CONTINUOUS
370
-3
390
F
  0
ENDTAB
  0
TABLE
  2
STYLE
  5
3
100
AcDbSymbolTable
 70
1
  0
STYLE
  5
11
100
AcDbSymbolTableRecord
100
AcDbTextStyleTableRecord
  2
STANDARD
 70
0
 40
0.0
 41
0.8
 50
0.0
 71
0
 42
0.2
  3
txt
  4

  0
STYLE
  5
205
100
AcDbSymbolTableRecord
100
AcDbTextStyleTableRecord
  2
TEXTSTYLE_1
 70
0
 40
0.0
 41
0.8
 50
0.0
 71
0
 42
0.2
  3
gdt
  4

  0
STYLE
  5
206
100
AcDbSymbolTableRecord
100
AcDbTextStyleTableRecord
  2
TEXTSTYLE_2
 70
0
 40
0.0
 41
1.0
 50
0.0
 71
0
 42
0.2
  3
symbol_asme.ttf
  4

  0
ENDTAB
  0
TABLE
  2
VIEW
  5
6
100
AcDbSymbolTable
 70
0
  0
ENDTAB
  0
TABLE
  2
UCS
  5
7
100
AcDbSymbolTable
 70
0
  0
ENDTAB
  0
TABLE
  2
APPID
  5
9
100
AcDbSymbolTable
 70
1
  0
APPID
  5
207
100
AcDbSymbolTableRecord
100
AcDbRegAppTableRecord
  2
ACAD
 70
0
  0
ENDTAB
  0
TABLE
  2
BLOCK_RECORD
  5
1
100
AcDbSymbolTable
 70
0
  0
BLOCK_RECORD
  5
208
100
AcDbSymbolTableRecord
100
AcDbBlockTableRecord
  2
*Model_Space
  0
BLOCK_RECORD
  5
209
100
AcDbSymbolTableRecord
100
AcDbBlockTableRecord
  2
*Paper_Space
  0
BLOCK_RECORD
  5
20A
100
AcDbSymbolTableRecord
100
AcDbBlockTableRecord
  2
_FILLED
  0
BLOCK_RECORD
  5
20B
100
AcDbSymbolTableRecord
100
AcDbBlockTableRecord
  2
*D0
  0
BLOCK_RECORD
  5
20C
100
AcDbSymbolTableRecord
100
AcDbBlockTableRecord
  2
*D1
  0
BLOCK_RECORD
  5
20D
100
AcDbSymbolTableRecord
100
AcDbBlockTableRecord
  2
*D2
  0
ENDTAB
  0
TABLE
  2
DIMSTYLE
  5
A
100
AcDbSymbolTable
 70
1
100
AcDbDimStyleTable
 71
0
  0
DIMSTYLE
105
20E
100
AcDbSymbolTableRecord
100
AcDbDimStyleTableRecord
  2
STANDARD
 70
0
  3

  4

 40
1.0
 41
3.0
 42
0.5
 43
0.38
 44
1.5
 45
0.0
 46
0.0
 47
0.01
 48
0.01
140
3.0
141
0.09
142
0.0
143
25.4
144
1.0
145
0.0
146
1.0
147
0.625
 71
1
 72
0
 73
0
 74
0
 75
0
 76
0
 77
1
 78
8
 79
2
170
0
171
1
172
0
173
0
174
0
175
0
176
0
177
0
178
0
270
2
179
2
271
2
272
2
273
2
274
2
275
0
280
0
281
0
282
0
283
1
284
8
285
0
286
0
287
3
288
0
340
11
278
44
341
20A
342
20A
343
20A
344
20A
  0
DIMSTYLE
105
20F
100
AcDbSymbolTableRecord
100
AcDbDimStyleTableRecord
  2
DIMSTYLE_1
 70
0
  3

  4

 40
1.0
 41
3.0
 42
0.5
 43
0.38
 44
1.5
 45
0.0
 46
0.0
 47
0.0
 48
0.0
140
3.0
141
0.09
142
0.0
143
25.4
144
1.0
145
0.0
146
1.0
147
0.75
 71
0
 72
0
 73
0
 74
0
 75
0
 76
0
 77
1
 78
8
 79
2
170
0
171
1
172
0
173
0
174
0
175
0
176
0
177
0
178
0
270
2
179
2
271
2
272
2
273
2
274
2
275
0
280
0
281
0
282
0
283
1
284
8
285
0
286
0
287
3
288
0
340
11
278
44
341
20A
342
20A
343
20A
344
20A
  0
DIMSTYLE
105
210
100
AcDbSymbolTableRecord
100
AcDbDimStyleTableRecord
  2
DIMSTYLE_2
 70
0
  3

  4

 40
1.0
 41
3.0
 42
0.5
 43
0.38
 44
1.5
 45
0.0
 46
0.0
 47
0.0
 48
0.0
140
3.0
141
0.09
142
0.0
143
25.4
144
1.0
145
0.0
146
1.0
147
0.75
 71
0
 72
0
 73
0
 74
0
 75
0
 76
0
 77
1
 78
8
 79
2
170
0
171
1
172
0
173
0
174
0
175
0
176
0
177
0
178
0
270
2
179
2
271
1
272
1
273
2
274
2
275
0
280
0
281
0
282
0
283
1
284
8
285
0
286
0
287
3
288
0
340
11
278
44
341
20A
342
20A
343
20A
344
20A
  0
ENDTAB
  0
ENDSEC
  0
SECTION
  2
BLOCKS
  0
BLOCK
  5
20
100
AcDbEntity
  8
0
100
AcDbBlockBegin
  2
*Model_Space
 70
0
 10
0.0
 20
0.0
 30
0.0
  3
*Model_Space
  1

  0
ENDBLK
  5
21
100
AcDbEntity
  8
0
100
AcDbBlockEnd
  0
BLOCK
  5
1C
100
AcDbEntity
  8
0
100
AcDbBlockBegin
  2
*Paper_Space
 70
0
 10
0.0
 20
0.0
 30
0.0
  3
*Paper_Space
  1

  0
ENDBLK
  5
1D
100
AcDbEntity
  8
0
100
AcDbBlockEnd
  0
BLOCK
  5
211
100
AcDbEntity
  8
0
100
AcDbBlockBegin
  2
_FILLED
 70
64
 10
0.0
 20
0.0
  3
_FILLED
  1

  0
SOLID
  5
212
100
AcDbEntity
  8
0
  6
BYBLOCK
 62
0
100
AcDbTrace
 10
0.0
 20
0.0
 11
-1.0
 21
0.3166666667
 12
-1.0
 22
-0.3166666667
 13
-1.0
 23
-0.3166666667
  0
ENDBLK
  5
213
100
AcDbEntity
  8
0
  6
BYBLOCK
 62
0
100
AcDbBlockEnd
  0
BLOCK
  5
214
100
AcDbEntity
  8
0
100
AcDbBlockBegin
 62
7
  6
CONTINUOUS
  2
*D0
 70
65
 10
0.0
 20
0.0
  3
*D0
  1

  0
LINE
  5
215
100
AcDbEntity
  8
0
100
AcDbLine
 62
7
  6
CONTINUOUS
 10
-5.0
 20
10.7360679775
 11
-5.0
 21
23.5
  0
LINE
  5
216
100
AcDbEntity
  8
0
100
AcDbLine
 62
7
  6
CONTINUOUS
 10
5.0
 20
10.7360679775
 11
5.0
 21
23.5
  0
LINE
  5
217
100
AcDbEntity
  8
0
100
AcDbLine
 62
7
  6
CONTINUOUS
 10
-5.0
 20
22.0
 11
-9.0
 21
22.0
  0
LINE
  5
218
100
AcDbEntity
  8
0
100
AcDbLine
 62
7
  6
CONTINUOUS
 10
-9.0
 20
22.0
 11
0.0
 21
22.0
  0
LINE
  5
219
100
AcDbEntity
  8
0
100
AcDbLine
 62
7
  6
CONTINUOUS
 10
5.0
 20
22.0
 11
9.0
 21
22.0
  0
LINE
  5
21A
100
AcDbEntity
  8
0
100
AcDbLine
 62
7
  6
CONTINUOUS
 10
9.0
 20
22.0
 11
0.0
 21
22.0
  0
INSERT
  5
21B
100
AcDbEntity
  8
0
100
AcDbBlockReference
 62
7
  6
CONTINUOUS
  2
_FILLED
 10
-5.0
 20
22.0
 41
3.0
 42
3.0
 43
3.0
  0
INSERT
  5
21C
100
AcDbEntity
  8
0
100
AcDbBlockReference
 62
7
  6
CONTINUOUS
  2
_FILLED
 10
5.0
 20
22.0
 41
3.0
 42
3.0
 43
3.0
 50
180.0
  0
ENDBLK
  5
21D
100
AcDbEntity
  8
0
  6
BYBLOCK
 62
0
100
AcDbBlockEnd
  0
BLOCK
  5
21E
100
AcDbEntity
  8
0
100
AcDbBlockBegin
 62
7
  6
CONTINUOUS
  2
*D1
 70
65
 10
0.0
 20
0.0
  3
*D1
  1

  0
LINE
  5
21F
100
AcDbEntity
  8
0
100
AcDbLine
 62
7
  6
CONTINUOUS
 10
-0.5
 20
14.0
 11
-24.5
 21
14.0
  0
LINE
  5
220
100
AcDbEntity
  8
0
100
AcDbLine
 62
7
  6
CONTINUOUS
 10
-0.5
 20
-14.0
 11
-24.5
 21
-14.0
  0
LINE
  5
221
100
AcDbEntity
  8
0
100
AcDbLine
 62
7
  6
CONTINUOUS
 10
-23.0
 20
14.0
 11
-23.0
 21
0.0
  0
LINE
  5
222
100
AcDbEntity
  8
0
100
AcDbLine
 62
7
  6
CONTINUOUS
 10
-23.0
 20
-14.0
 11
-23.0
 21
0.0
  0
INSERT
  5
223
100
AcDbEntity
  8
0
100
AcDbBlockReference
 62
7
  6
CONTINUOUS
  2
_FILLED
 10
-23.0
 20
14.0
 41
3.0
 42
3.0
 43
3.0
 50
90.0
  0
INSERT
  5
224
100
AcDbEntity
  8
0
100
AcDbBlockReference
 62
7
  6
CONTINUOUS
  2
_FILLED
 10
-23.0
 20
-14.0
 41
3.0
 42
3.0
 43
3.0
 50
270.0
  0
ENDBLK
  5
225
100
AcDbEntity
  8
0
  6
BYBLOCK
 62
0
100
AcDbBlockEnd
  0
BLOCK
  5
226
100
AcDbEntity
  8
0
100
AcDbBlockBegin
 62
7
  6
CONTINUOUS
  2
*D2
 70
65
 10
0.0
 20
0.0
  3
*D2
  1

  0
LINE
  5
227
100
AcDbEntity
  8
0
100
AcDbLine
 62
7
  6
CONTINUOUS
 10
-5.2071067812
 20
0.2928932188
 11
-14.5
 21
0.2928932188
  0
LINE
  5
228
100
AcDbEntity
  8
0
100
AcDbLine
 62
7
  6
CONTINUOUS
 10
-0.5
 20
-14.0
 11
-14.5
 21
-14.0
  0
LINE
  5
229
100
AcDbEntity
  8
0
100
AcDbLine
 62
7
  6
CONTINUOUS
 10
-13.0
 20
0.2928932188
 11
-13.0
 21
-6.8535533906
  0
LINE
  5
22A
100
AcDbEntity
  8
0
100
AcDbLine
 62
7
  6
CONTINUOUS
 10
-13.0
 20
-14.0
 11
-13.0
 21
-6.8535533906
  0
INSERT
  5
22B
100
AcDbEntity
  8
0
100
AcDbBlockReference
 62
7
  6
CONTINUOUS
  2
_FILLED
 10
-13.0
 20
0.2928932188
 41
3.0
 42
3.0
 43
3.0
 50
90.0
  0
INSERT
  5
22C
100
AcDbEntity
  8
0
100
AcDbBlockReference
 62
7
  6
CONTINUOUS
  2
_FILLED
 10
-13.0
 20
-14.0
 41
3.0
 42
3.0
 43
3.0
 50
270.0
  0
ENDBLK
  5
22D
100
AcDbEntity
  8
0
  6
BYBLOCK
 62
0
100
AcDbBlockEnd
  0
ENDSEC
  0
SECTION
  2
ENTITIES
  0
SOLID
  5
22E
100
AcDbEntity
  8
0
100
AcDbTrace
 62
7
  6
CONTINUOUS
 10
-2.2502005294
 20
25.6843085741
 11
-2.0531202374
 21
25.7062043796
 12
-1.8998355659
 22
25.6843085741
 13
-1.8998355659
 23
25.6843085741
  0
SOLID
  5
22F
100
AcDbEntity
  8
0
100
AcDbTrace
 62
7
  6
CONTINUOUS
 10
-1.8998355659
 20
25.6843085741
 11
-1.7465508944
 21
25.6624087591
 12
-2.4253830111
 22
25.6405109489
 13
-2.4253830111
 23
25.6405109489
  0
SOLID
  5
230
100
AcDbEntity
  8
0
100
AcDbTrace
 62
7
  6
CONTINUOUS
 10
-1.8998355659
 20
25.6843085741
 11
-2.4253830111
 21
25.6405109489
 12
-2.2502005294
 22
25.6843085741
 13
-2.2502005294
 23
25.6843085741
  0
SOLID
  5
231
100
AcDbEntity
  8
0
100
AcDbTrace
 62
7
  6
CONTINUOUS
 10
-2.4253830111
 20
25.6405109489
 11
-1.7465508944
 21
25.6624087591
 12
-1.5932662228
 22
25.6186131387
 13
-1.5932662228
 23
25.6186131387
  0
SOLID
  5
232
100
AcDbEntity
  8
0
100
AcDbTrace
 62
7
  6
CONTINUOUS
 10
-1.5932662228
 20
25.6186131387
 11
-2.6224633031
 21
25.5748175182
 12
-2.4253830111
 22
25.6405109489
 13
-2.4253830111
 23
25.6405109489
  0
SOLID
  5
233
100
AcDbEntity
  8
0
100
AcDbTrace
 62
7
  6
CONTINUOUS
 10
-2.6224633031
 20
25.5748175182
 11
-1.5932662228
 21
25.6186131387
 12
-1.4399815513
 22
25.5748175182
 13
-1.4399815513
 23
25.5748175182
  0
SOLID
  5
234
100
AcDbEntity
  8
0
100
AcDbTrace
 62
7
  6
CONTINUOUS
 10
-0.6954560039
 20
26.2974452555
 11
-1.4399815513
 21
25.5748175182
 12
-0.9363319163
 22
26.450729927
 13
-0.9363319163
 23
26.450729927
  0
SOLID
  5
235
100
AcDbEntity
  8
0
100
AcDbTrace
 62
7
  6
CONTINUOUS
 10
-1.4399815513
 20
25.5748175182
 11
-2.7976457849
 21
25.4872262774
 12
-2.6224633031
 22
25.5748175182
 13
-2.6224633031
 23
25.5748175182
  0
SOLID
  5
236
100
AcDbEntity
  8
0
100
AcDbTrace
 62
7
  6
CONTINUOUS
 10
-1.1991056389
 20
25.4215328467
 11
-2.7976457849
 21
25.4872262774
 12
-1.4399815513
 22
25.5748175182
 13
-1.4399815513
 23
25.5748175182
  0
SOLID
  5
237
100
AcDbEntity
  8
0
100
AcDbTrace
 62
7
  6
CONTINUOUS
 10
-1.4399815513
 20
25.5748175182
 11
-0.6954560039
 21
26.2974452555
 12
-1.1991056389
 22
25.4215328467
 13
-1.1991056389
 23
25.4215328467
  0
SOLID
  5
238
100
AcDbEntity
  8
0
100
AcDbTrace
 62
7
  6
CONTINUOUS
 10
-1.1991056389
 20
25.4215328467
 11
-2.9509304564
 21
25.3996343682
 12
-2.7976457849
 22
25.4872262774
 13
-2.7976457849
 23
25.4872262774
  0
SOLID
  5
239
100
AcDbEntity
  8
0
100
AcDbTrace
 62
7
  6
CONTINUOUS
 10
-2.206404909
 20
25.3996343682
 11
-2.9509304564
 21
25.3996343682
 12
-1.1991056389
 22
25.4215328467
 13
-1.1991056389
 23
25.4215328467
  0
SOLID
  5
23A
100
AcDbEntity
  8
0
100
AcDbTrace
 62
7
  6
CONTINUOUS
 10
-2.0531202374
 20
25.3996343682
 11
-2.206404909
 21
25.3996343682
 12
-1.1991056389
 22
25.4215328467
 13
-1.1991056389
 23
25.4215328467
  0
SOLID
  5
23B
100
AcDbEntity
  8
0
100
AcDbTrace
 62
7
  6
CONTINUOUS
 10
-1.9217333761
 20
25.3996343682
 11
-2.0531202374
 21
25.3996343682
 12
-1.1991056389
 22
25.4215328467
 13
-1.1991056389
 23
25.4215328467
  0
SOLID
  5
23C
100
AcDbEntity
  8
0
100
AcDbTrace
 62
7
  6
CONTINUOUS
 10
-1.812244325
 20
25.3777372263
 11
-1.9217333761
 21
25.3996343682
 12
-1.1991056389
 22
25.4215328467
 13
-1.1991056389
 23
25.4215328467
  0
SOLID
  5
23D
100
AcDbEntity
  8
0
100
AcDbTrace
 62
7
  6
CONTINUOUS
 10
-1.7027552739
 20
25.3558400843
 11
-1.812244325
 21
25.3777372263
 12
-1.1991056389
 22
25.4215328467
 13
-1.1991056389
 23
25.4215328467
  0
SOLID
  5
23E
100
AcDbEntity
  8
0
100
AcDbTrace
 62
7
  6
CONTINUOUS
 10
-1.5932662228
 20
25.3120451322
 11
-1.7027552739
 21
25.3558400843
 12
-1.1991056389
 22
25.4215328467
 13
-1.1991056389
 23
25.4215328467
  0
SOLID
  5
23F
100
AcDbEntity
  8
0
100
AcDbTrace
 62
7
  6
CONTINUOUS
 10
-1.5932662228
 20
25.3120451322
 11
-1.1991056389
 21
25.4215328467
 12
-1.0458209674
 22
25.3120451322
 13
-1.0458209674
 23
25.3120451322
  0
SOLID
  5
240
100
AcDbEntity
  8
0
100
AcDbTrace
 62
7
  6
CONTINUOUS
 10
-2.3596895805
 20
25.3558400843
 11
-2.4910764418
 21
25.3120451322
 12
-3.0823173177
 22
25.2682481752
 13
-3.0823173177
 23
25.2682481752
  0
SOLID
  5
241
100
AcDbEntity
  8
0
100
AcDbTrace
 62
7
  6
CONTINUOUS
 10
-2.206404909
 20
25.3996343682
 11
-2.3596895805
 21
25.3558400843
 12
-3.0823173177
 22
25.2682481752
 13
-3.0823173177
 23
25.2682481752
  0
SOLID
  5
242
100
AcDbEntity
  8
0
100
AcDbTrace
 62
7
  6
CONTINUOUS
 10
-2.206404909
 20
25.3996343682
 11
-3.0823173177
 21
25.2682481752
 12
-2.9509304564
 22
25.3996343682
 13
-2.9509304564
 23
25.3996343682
  0
SOLID
  5
243
100
AcDbEntity
  8
0
100
AcDbTrace
 62
7
  6
CONTINUOUS
 10
-3.0823173177
 20
25.2682481752
 11
-2.4910764418
 21
25.3120451322
 12
-2.6443611133
 22
25.246350365
 13
-2.6443611133
 23
25.246350365
  0
SOLID
  5
244
100
AcDbEntity
  8
0
100
AcDbTrace
 62
7
  6
CONTINUOUS
 10
-2.6443611133
 20
25.246350365
 11
-2.7757479747
 21
25.1587594582
 12
-3.213704179
 22
25.1149635036
 13
-3.213704179
 23
25.1149635036
  0
SOLID
  5
245
100
AcDbEntity
  8
0
100
AcDbTrace
 62
7
  6
CONTINUOUS
 10
-2.6443611133
 20
25.246350365
 11
-3.213704179
 21
25.1149635036
 12
-3.0823173177
 22
25.2682481752
 13
-3.0823173177
 23
25.2682481752
  0
SOLID
  5
246
100
AcDbEntity
  8
0
100
AcDbTrace
 62
7
  6
CONTINUOUS
 10
-3.213704179
 20
25.1149635036
 11
-2.7757479747
 21
25.1587594582
 12
-2.8852370257
 22
25.0492684023
 13
-2.8852370257
 23
25.0492684023
  0
SOLID
  5
247
100
AcDbEntity
  8
0
100
AcDbTrace
 62
7
  6
CONTINUOUS
 10
-1.2429012593
 20
25.0711678832
 11
-1.3304925002
 21
25.1587594582
 12
-0.9363319163
 22
25.1806569343
 13
-0.9363319163
 23
25.1806569343
  0
SOLID
  5
248
100
AcDbEntity
  8
0
100
AcDbTrace
 62
7
  6
CONTINUOUS
 10
-1.2429012593
 20
25.0711678832
 11
-0.9363319163
 21
25.1806569343
 12
-0.8268428652
 22
25.0492684023
 13
-0.8268428652
 23
25.0492684023
  0
SOLID
  5
249
100
AcDbEntity
  8
0
100
AcDbTrace
 62
7
  6
CONTINUOUS
 10
-0.8268428652
 20
25.0492684023
 11
-1.1334122082
 21
24.9835766423
 12
-1.2429012593
 22
25.0711678832
 13
-1.2429012593
 23
25.0711678832
  0
SOLID
  5
24A
100
AcDbEntity
  8
0
100
AcDbTrace
 62
7
  6
CONTINUOUS
 10
-2.8852370257
 20
25.0492684023
 11
-3.3231932301
 21
24.9616788321
 12
-3.213704179
 22
25.1149635036
 13
-3.213704179
 23
25.1149635036
  0
SOLID
  5
24B
100
AcDbEntity
  8
0
100
AcDbTrace
 62
7
  6
CONTINUOUS
 10
-3.3231932301
 20
24.9616788321
 11
-2.8852370257
 21
25.0492684023
 12
-2.9728282666
 22
24.9397810219
 13
-2.9728282666
 23
24.9397810219
  0
SOLID
  5
24C
100
AcDbEntity
  8
0
100
AcDbTrace
 62
7
  6
CONTINUOUS
 10
-1.1334122082
 20
24.9835766423
 11
-0.8268428652
 21
25.0492684023
 12
-0.7392516243
 22
24.8959854015
 13
-0.7392516243
 23
24.8959854015
  0
SOLID
  5
24D
100
AcDbEntity
  8
0
100
AcDbTrace
 62
7
  6
CONTINUOUS
 10
-0.7392516243
 20
24.8959854015
 11
-1.0677187776
 21
24.8740875912
 12
-1.1334122082
 22
24.9835766423
 13
-1.1334122082
 23
24.9835766423
  0
SOLID
  5
24E
100
AcDbEntity
  8
0
100
AcDbTrace
 62
7
  6
CONTINUOUS
 10
-2.9728282666
 20
24.9397810219
 11
-3.0604195075
 21
24.8083941606
 12
-3.410784471
 22
24.7864963504
 13
-3.410784471
 23
24.7864963504
  0
SOLID
  5
24F
100
AcDbEntity
  8
0
100
AcDbTrace
 62
7
  6
CONTINUOUS
 10
-2.9728282666
 20
24.9397810219
 11
-3.410784471
 21
24.7864963504
 12
-3.3231932301
 22
24.9616788321
 13
-3.3231932301
 23
24.9616788321
  0
SOLID
  5
250
100
AcDbEntity
  8
0
100
AcDbTrace
 62
7
  6
CONTINUOUS
 10
-1.0020253469
 20
24.7427013982
 11
-1.0677187776
 21
24.8740875912
 12
-0.7392516243
 22
24.8959854015
 13
-0.7392516243
 23
24.8959854015
  0
SOLID
  5
251
100
AcDbEntity
  8
0
100
AcDbTrace
 62
7
  6
CONTINUOUS
 10
-1.0020253469
 20
24.7427013982
 11
-0.7392516243
 21
24.8959854015
 12
-0.6735581936
 22
24.7427013982
 13
-0.6735581936
 23
24.7427013982
  0
SOLID
  5
252
100
AcDbEntity
  8
0
100
AcDbTrace
 62
7
  6
CONTINUOUS
 10
-3.410784471
 20
24.7864963504
 11
-3.0604195075
 21
24.8083941606
 12
-3.1480107484
 22
24.6770072993
 13
-3.1480107484
 23
24.6770072993
  0
SOLID
  5
253
100
AcDbEntity
  8
0
100
AcDbTrace
 62
7
  6
CONTINUOUS
 10
-0.6735581936
 20
24.7427013982
 11
-0.9363319163
 21
24.6332116788
 12
-1.0020253469
 22
24.7427013982
 13
-1.0020253469
 23
24.7427013982
  0
SOLID
  5
254
100
AcDbEntity
  8
0
100
AcDbTrace
 62
7
  6
CONTINUOUS
 10
-3.1480107484
 20
24.6770072993
 11
-3.4764779017
 21
24.6113138686
 12
-3.410784471
 22
24.7864963504
 13
-3.410784471
 23
24.7864963504
  0
SOLID
  5
255
100
AcDbEntity
  8
0
100
AcDbTrace
 62
7
  6
CONTINUOUS
 10
-0.9363319163
 20
24.6332116788
 11
-0.6735581936
 21
24.7427013982
 12
-0.607864763
 22
24.5675182482
 13
-0.607864763
 23
24.5675182482
  0
SOLID
  5
256
100
AcDbEntity
  8
0
100
AcDbTrace
 62
7
  6
CONTINUOUS
 10
-3.4764779017
 20
24.6113138686
 11
-3.1480107484
 21
24.6770072993
 12
-3.1918063688
 22
24.5237226277
 13
-3.1918063688
 23
24.5237226277
  0
SOLID
  5
257
100
AcDbEntity
  8
0
100
AcDbTrace
 62
7
  6
CONTINUOUS
 10
-0.607864763
 20
24.5675182482
 11
-0.8925362958
 21
24.5018248175
 12
-0.9363319163
 22
24.6332116788
 13
-0.9363319163
 23
24.6332116788
  0
SOLID
  5
258
100
AcDbEntity
  8
0
100
AcDbTrace
 62
7
  6
CONTINUOUS
 10
-3.1918063688
 20
24.5237226277
 11
-3.5202735221
 21
24.4142335766
 12
-3.4764779017
 22
24.6113138686
 13
-3.4764779017
 23
24.6113138686
  0
SOLID
  5
259
100
AcDbEntity
  8
0
100
AcDbTrace
 62
7
  6
CONTINUOUS
 10
-0.8925362958
 20
24.5018248175
 11
-0.607864763
 21
24.5675182482
 12
-0.5859669528
 22
24.3923357664
 13
-0.5859669528
 23
24.3923357664
  0
SOLID
  5
25A
100
AcDbEntity
  8
0
100
AcDbTrace
 62
7
  6
CONTINUOUS
 10
-3.5202735221
 20
24.4142335766
 11
-3.1918063688
 21
24.5237226277
 12
-3.213704179
 22
24.3704379562
 13
-3.213704179
 23
24.3704379562
  0
SOLID
  5
25B
100
AcDbEntity
  8
0
100
AcDbTrace
 62
7
  6
CONTINUOUS
 10
-0.5859669528
 20
24.3923357664
 11
-0.8706384856
 21
24.348540146
 12
-0.8925362958
 22
24.5018248175
 13
-0.8925362958
 23
24.5018248175
  0
SOLID
  5
25C
100
AcDbEntity
  8
0
100
AcDbTrace
 62
7
  6
CONTINUOUS
 10
-3.213704179
 20
24.3704379562
 11
-3.5202735221
 21
24.2171521152
 12
-3.5202735221
 22
24.4142335766
 13
-3.5202735221
 23
24.4142335766
  0
SOLID
  5
25D
100
AcDbEntity
  8
0
100
AcDbTrace
 62
7
  6
CONTINUOUS
 10
-3.5202735221
 20
24.2171521152
 11
-3.213704179
 21
24.3704379562
 12
-3.2356019893
 22
24.2171521152
 13
-3.2356019893
 23
24.2171521152
  0
SOLID
  5
25E
100
AcDbEntity
  8
0
100
AcDbTrace
 62
7
  6
CONTINUOUS
 10
-0.8706384856
 20
24.2171521152
 11
-0.8706384856
 21
24.348540146
 12
-0.5859669528
 22
24.3923357664
 13
-0.5859669528
 23
24.3923357664
  0
SOLID
  5
25F
100
AcDbEntity
  8
0
100
AcDbTrace
 62
7
  6
CONTINUOUS
 10
-0.8706384856
 20
24.2171521152
 11
-0.5859669528
 21
24.3923357664
 12
-0.5859669528
 22
24.2171521152
 13
-0.5859669528
 23
24.2171521152
  0
SOLID
  5
260
100
AcDbEntity
  8
0
100
AcDbTrace
 62
7
  6
CONTINUOUS
 10
-0.5859669528
 20
24.2171521152
 11
-0.8706384856
 21
24.0638686131
 12
-0.8706384856
 22
24.2171521152
 13
-0.8706384856
 23
24.2171521152
  0
SOLID
  5
261
100
AcDbEntity
  8
0
100
AcDbTrace
 62
7
  6
CONTINUOUS
 10
-3.2356019893
 20
24.2171521152
 11
-3.213704179
 21
24.0857664234
 12
-3.5202735221
 22
24.0419708029
 13
-3.5202735221
 23
24.0419708029
  0
SOLID
  5
262
100
AcDbEntity
  8
0
100
AcDbTrace
 62
7
  6
CONTINUOUS
 10
-3.2356019893
 20
24.2171521152
 11
-3.5202735221
 21
24.0419708029
 12
-3.5202735221
 22
24.2171521152
 13
-3.5202735221
 23
24.2171521152
  0
SOLID
  5
263
100
AcDbEntity
  8
0
100
AcDbTrace
 62
7
  6
CONTINUOUS
 10
-0.8706384856
 20
24.0638686131
 11
-0.5859669528
 21
24.2171521152
 12
-0.5859669528
 22
24.0200729927
 13
-0.5859669528
 23
24.0200729927
  0
SOLID
  5
264
100
AcDbEntity
  8
0
100
AcDbTrace
 62
7
  6
CONTINUOUS
 10
-3.5202735221
 20
24.0419708029
 11
-3.213704179
 21
24.0857664234
 12
-3.1918063688
 22
23.9324817518
 13
-3.1918063688
 23
23.9324817518
  0
SOLID
  5
265
100
AcDbEntity
  8
0
100
AcDbTrace
 62
7
  6
CONTINUOUS
 10
-0.5859669528
 20
24.0200729927
 11
-0.914434106
 21
23.9105839416
 12
-0.8706384856
 22
24.0638686131
 13
-0.8706384856
 23
24.0638686131
  0
SOLID
  5
266
100
AcDbEntity
  8
0
100
AcDbTrace
 62
7
  6
CONTINUOUS
 10
-3.1918063688
 20
23.9324817518
 11
-3.4764779017
 21
23.8667883212
 12
-3.5202735221
 22
24.0419708029
 13
-3.5202735221
 23
24.0419708029
  0
SOLID
  5
267
100
AcDbEntity
  8
0
100
AcDbTrace
 62
7
  6
CONTINUOUS
 10
-0.914434106
 20
23.9105839416
 11
-0.5859669528
 21
24.0200729927
 12
-0.6297625732
 22
23.8229927007
 13
-0.6297625732
 23
23.8229927007
  0
SOLID
  5
268
100
AcDbEntity
  8
0
100
AcDbTrace
 62
7
  6
CONTINUOUS
 10
-3.4764779017
 20
23.8667883212
 11
-3.1918063688
 21
23.9324817518
 12
-3.1480107484
 22
23.8010948905
 13
-3.1480107484
 23
23.8010948905
  0
SOLID
  5
269
100
AcDbEntity
  8
0
100
AcDbTrace
 62
7
  6
CONTINUOUS
 10
-0.6297625732
 20
23.8229927007
 11
-0.9582297265
 21
23.7572992701
 12
-0.914434106
 22
23.9105839416
 13
-0.914434106
 23
23.9105839416
  0
SOLID
  5
26A
100
AcDbEntity
  8
0
100
AcDbTrace
 62
7
  6
CONTINUOUS
 10
-3.1480107484
 20
23.8010948905
 11
-3.4326822812
 21
23.691607343
 12
-3.4764779017
 22
23.8667883212
 13
-3.4764779017
 23
23.8667883212
  0
SOLID
  5
26B
100
AcDbEntity
  8
0
100
AcDbTrace
 62
7
  6
CONTINUOUS
 10
-3.4326822812
 20
23.691607343
 11
-3.1480107484
 21
23.8010948905
 12
-3.1042151279
 22
23.691607343
 13
-3.1042151279
 23
23.691607343
  0
SOLID
  5
26C
100
AcDbEntity
  8
0
100
AcDbTrace
 62
7
  6
CONTINUOUS
 10
-0.9582297265
 20
23.7572992701
 11
-0.6297625732
 21
23.8229927007
 12
-0.6954560039
 22
23.647810219
 13
-0.6954560039
 23
23.647810219
  0
SOLID
  5
26D
100
AcDbEntity
  8
0
100
AcDbTrace
 62
7
  6
CONTINUOUS
 10
-0.6954560039
 20
23.647810219
 11
-1.0239231571
 21
23.6259124088
 12
-0.9582297265
 22
23.7572992701
 13
-0.9582297265
 23
23.7572992701
  0
SOLID
  5
26E
100
AcDbEntity
  8
0
100
AcDbTrace
 62
7
  6
CONTINUOUS
 10
-3.1042151279
 20
23.691607343
 11
-3.0385216973
 21
23.5602189781
 12
-3.3669888506
 22
23.5383211679
 13
-3.3669888506
 23
23.5383211679
  0
SOLID
  5
26F
100
AcDbEntity
  8
0
100
AcDbTrace
 62
7
  6
CONTINUOUS
 10
-3.1042151279
 20
23.691607343
 11
-3.3669888506
 21
23.5383211679
 12
-3.4326822812
 22
23.691607343
 13
-3.4326822812
 23
23.691607343
  0
SOLID
  5
270
100
AcDbEntity
  8
0
100
AcDbTrace
 62
7
  6
CONTINUOUS
 10
-1.111514398
 20
23.4945255474
 11
-1.0239231571
 21
23.6259124088
 12
-0.6954560039
 22
23.647810219
 13
-0.6954560039
 23
23.647810219
  0
SOLID
  5
271
100
AcDbEntity
  8
0
100
AcDbTrace
 62
7
  6
CONTINUOUS
 10
-1.111514398
 20
23.4945255474
 11
-0.6954560039
 21
23.647810219
 12
-0.7830472447
 22
23.4726277372
 13
-0.7830472447
 23
23.4726277372
  0
SOLID
  5
272
100
AcDbEntity
  8
0
100
AcDbTrace
 62
7
  6
CONTINUOUS
 10
-3.3669888506
 20
23.5383211679
 11
-3.0385216973
 21
23.5602189781
 12
-2.9509304564
 22
23.450729927
 13
-2.9509304564
 23
23.450729927
  0
SOLID
  5
273
100
AcDbEntity
  8
0
100
AcDbTrace
 62
7
  6
CONTINUOUS
 10
-2.9509304564
 20
23.450729927
 11
-3.2574997995
 21
23.3850358281
 12
-3.3669888506
 22
23.5383211679
 13
-3.3669888506
 23
23.5383211679
  0
SOLID
  5
274
100
AcDbEntity
  8
0
100
AcDbTrace
 62
7
  6
CONTINUOUS
 10
-0.7830472447
 20
23.4726277372
 11
-1.2210034491
 21
23.3850358281
 12
-1.111514398
 22
23.4945255474
 13
-1.111514398
 23
23.4945255474
  0
SOLID
  5
275
100
AcDbEntity
  8
0
100
AcDbTrace
 62
7
  6
CONTINUOUS
 10
-3.2574997995
 20
23.3850358281
 11
-2.9509304564
 21
23.450729927
 12
-2.8633392155
 22
23.3631386861
 13
-2.8633392155
 23
23.3631386861
  0
SOLID
  5
276
100
AcDbEntity
  8
0
100
AcDbTrace
 62
7
  6
CONTINUOUS
 10
-1.2210034491
 20
23.3850358281
 11
-0.7830472447
 21
23.4726277372
 12
-0.8925362958
 22
23.3193430657
 13
-0.8925362958
 23
23.3193430657
  0
SOLID
  5
277
100
AcDbEntity
  8
0
100
AcDbTrace
 62
7
  6
CONTINUOUS
 10
-1.0458209674
 20
25.3120451322
 11
-0.9363319163
 21
25.1806569343
 12
-1.3304925002
 22
25.1587594582
 13
-1.3304925002
 23
25.1587594582
  0
SOLID
  5
278
100
AcDbEntity
  8
0
100
AcDbTrace
 62
7
  6
CONTINUOUS
 10
-1.5932662228
 20
25.3120451322
 11
-1.0458209674
 21
25.3120451322
 12
-1.3304925002
 22
25.1587594582
 13
-1.3304925002
 23
25.1587594582
  0
SOLID
  5
279
100
AcDbEntity
  8
0
100
AcDbTrace
 62
7
  6
CONTINUOUS
 10
-1.3304925002
 20
25.1587594582
 11
-2.7538501644
 21
23.2755491159
 12
-1.5932662228
 22
25.3120451322
 13
-1.5932662228
 23
25.3120451322
  0
SOLID
  5
27A
100
AcDbEntity
  8
0
100
AcDbTrace
 62
7
  6
CONTINUOUS
 10
-0.8925362958
 20
23.3193430657
 11
-1.3304925002
 21
23.2755491159
 12
-1.2210034491
 22
23.3850358281
 13
-1.2210034491
 23
23.3850358281
  0
SOLID
  5
27B
100
AcDbEntity
  8
0
100
AcDbTrace
 62
7
  6
CONTINUOUS
 10
-2.8633392155
 20
23.3631386861
 11
-2.7538501644
 21
23.2755491159
 12
-3.1699085586
 22
23.253649635
 13
-3.1699085586
 23
23.253649635
  0
SOLID
  5
27C
100
AcDbEntity
  8
0
100
AcDbTrace
 62
7
  6
CONTINUOUS
 10
-2.8633392155
 20
23.3631386861
 11
-3.1699085586
 21
23.253649635
 12
-3.2574997995
 22
23.3850358281
 13
-3.2574997995
 23
23.3850358281
  0
SOLID
  5
27D
100
AcDbEntity
  8
0
100
AcDbTrace
 62
7
  6
CONTINUOUS
 10
-1.4618793615
 20
23.1879562044
 11
-1.3304925002
 21
23.2755491159
 12
-0.8925362958
 22
23.3193430657
 13
-0.8925362958
 23
23.3193430657
  0
SOLID
  5
27E
100
AcDbEntity
  8
0
100
AcDbTrace
 62
7
  6
CONTINUOUS
 10
-1.4618793615
 20
23.1879562044
 11
-0.8925362958
 21
23.3193430657
 12
-1.0020253469
 22
23.1660583942
 13
-1.0020253469
 23
23.1660583942
  0
SOLID
  5
27F
100
AcDbEntity
  8
0
100
AcDbTrace
 62
7
  6
CONTINUOUS
 10
-3.0385216973
 20
23.122263442
 11
-3.1699085586
 21
23.253649635
 12
-2.7538501644
 22
23.2755491159
 13
-2.7538501644
 23
23.2755491159
  0
SOLID
  5
280
100
AcDbEntity
  8
0
100
AcDbTrace
 62
7
  6
CONTINUOUS
 10
-2.512974252
 20
23.122263442
 11
-3.0385216973
 21
23.122263442
 12
-2.7538501644
 22
23.2755491159
 13
-2.7538501644
 23
23.2755491159
  0
SOLID
  5
281
100
AcDbEntity
  8
0
100
AcDbTrace
 62
7
  6
CONTINUOUS
 10
-2.7538501644
 20
23.2755491159
 11
-1.3304925002
 21
25.1587594582
 12
-2.512974252
 22
23.122263442
 13
-2.512974252
 23
23.122263442
  0
SOLID
  5
282
100
AcDbEntity
  8
0
100
AcDbTrace
 62
7
  6
CONTINUOUS
 10
-1.0020253469
 20
23.1660583942
 11
-1.5932662228
 21
23.122263442
 12
-1.4618793615
 22
23.1879562044
 13
-1.4618793615
 23
23.1879562044
  0
SOLID
  5
283
100
AcDbEntity
  8
0
100
AcDbTrace
 62
7
  6
CONTINUOUS
 10
-1.7465508944
 20
23.078468824
 11
-1.5932662228
 21
23.122263442
 12
-1.0020253469
 22
23.1660583942
 13
-1.0020253469
 23
23.1660583942
  0
SOLID
  5
284
100
AcDbEntity
  8
0
100
AcDbTrace
 62
7
  6
CONTINUOUS
 10
-1.7465508944
 20
23.078468824
 11
-1.0020253469
 21
23.1660583942
 12
-1.1553100184
 22
23.0565715149
 13
-1.1553100184
 23
23.0565715149
  0
SOLID
  5
285
100
AcDbEntity
  8
0
100
AcDbTrace
 62
7
  6
CONTINUOUS
 10
-1.1553100184
 20
23.0565715149
 11
-1.8998355659
 21
23.0346696951
 12
-1.7465508944
 22
23.078468824
 13
-1.7465508944
 23
23.078468824
  0
SOLID
  5
286
100
AcDbEntity
  8
0
100
AcDbTrace
 62
7
  6
CONTINUOUS
 10
-2.0531202374
 20
23.0346696951
 11
-1.8998355659
 21
23.0346696951
 12
-2.907134836
 22
23.0127737226
 13
-2.907134836
 23
23.0127737226
  0
SOLID
  5
287
100
AcDbEntity
  8
0
100
AcDbTrace
 62
7
  6
CONTINUOUS
 10
-2.1626092885
 20
23.0346696951
 11
-2.0531202374
 21
23.0346696951
 12
-2.907134836
 22
23.0127737226
 13
-2.907134836
 23
23.0127737226
  0
SOLID
  5
288
100
AcDbEntity
  8
0
100
AcDbTrace
 62
7
  6
CONTINUOUS
 10
-2.2939961498
 20
23.0565715149
 11
-2.1626092885
 21
23.0346696951
 12
-2.907134836
 22
23.0127737226
 13
-2.907134836
 23
23.0127737226
  0
SOLID
  5
289
100
AcDbEntity
  8
0
100
AcDbTrace
 62
7
  6
CONTINUOUS
 10
-2.4034852009
 20
23.078468824
 11
-2.2939961498
 21
23.0565715149
 12
-2.907134836
 22
23.0127737226
 13
-2.907134836
 23
23.0127737226
  0
SOLID
  5
28A
100
AcDbEntity
  8
0
100
AcDbTrace
 62
7
  6
CONTINUOUS
 10
-2.512974252
 20
23.122263442
 11
-2.4034852009
 21
23.078468824
 12
-2.907134836
 22
23.0127737226
 13
-2.907134836
 23
23.0127737226
  0
SOLID
  5
28B
100
AcDbEntity
  8
0
100
AcDbTrace
 62
7
  6
CONTINUOUS
 10
-2.512974252
 20
23.122263442
 11
-2.907134836
 21
23.0127737226
 12
-3.0385216973
 22
23.122263442
 13
-3.0385216973
 23
23.122263442
  0
SOLID
  5
28C
100
AcDbEntity
  8
0
100
AcDbTrace
 62
7
  6
CONTINUOUS
 10
-1.30859469
 20
22.947080292
 11
-2.907134836
 21
23.0127737226
 12
-1.8998355659
 22
23.0346696951
 13
-1.8998355659
 23
23.0346696951
  0
SOLID
  5
28D
100
AcDbEntity
  8
0
100
AcDbTrace
 62
7
  6
CONTINUOUS
 10
-1.8998355659
 20
23.0346696951
 11
-1.1553100184
 21
23.0565715149
 12
-1.30859469
 22
22.947080292
 13
-1.30859469
 23
22.947080292
  0
SOLID
  5
28E
100
AcDbEntity
  8
0
100
AcDbTrace
 62
7
  6
CONTINUOUS
 10
-2.6662589236
 20
22.8594910559
 11
-1.30859469
 21
22.947080292
 12
-1.4837771717
 22
22.8594910559
 13
-1.4837771717
 23
22.8594910559
  0
SOLID
  5
28F
100
AcDbEntity
  8
0
100
AcDbTrace
 62
7
  6
CONTINUOUS
 10
-1.4837771717
 20
22.8594910559
 11
-2.512974252
 21
22.8156934307
 12
-2.6662589236
 22
22.8594910559
 13
-2.6662589236
 23
22.8594910559
  0
SOLID
  5
290
100
AcDbEntity
  8
0
100
AcDbTrace
 62
7
  6
CONTINUOUS
 10
-2.512974252
 20
22.8156934307
 11
-1.4837771717
 21
22.8594910559
 12
-1.6589596535
 22
22.7937956204
 13
-1.6589596535
 23
22.7937956204
  0
SOLID
  5
291
100
AcDbEntity
  8
0
100
AcDbTrace
 62
7
  6
CONTINUOUS
 10
-1.6589596535
 20
22.7937956204
 11
-2.3596895805
 21
22.7718978102
 12
-2.512974252
 22
22.8156934307
 13
-2.512974252
 23
22.8156934307
  0
SOLID
  5
292
100
AcDbEntity
  8
0
100
AcDbTrace
 62
7
  6
CONTINUOUS
 10
-2.206404909
 20
22.75
 11
-2.3596895805
 21
22.7718978102
 12
-1.6589596535
 22
22.7937956204
 13
-1.6589596535
 23
22.7937956204
  0
SOLID
  5
293
100
AcDbEntity
  8
0
100
AcDbTrace
 62
7
  6
CONTINUOUS
 10
-2.0531202374
 20
22.75
 11
-2.206404909
 21
22.75
 12
-1.6589596535
 22
22.7937956204
 13
-1.6589596535
 23
22.7937956204
  0
SOLID
  5
294
100
AcDbEntity
  8
0
100
AcDbTrace
 62
7
  6
CONTINUOUS
 10
-2.0531202374
 20
22.75
 11
-1.6589596535
 21
22.7937956204
 12
-1.8560399455
 22
22.75
 13
-1.8560399455
 23
22.75
  0
SOLID
  5
295
100
AcDbEntity
  8
0
100
AcDbTrace
 62
7
  6
CONTINUOUS
 10
-2.907134836
 20
23.0127737226
 11
-1.30859469
 21
22.947080292
 12
-2.6662589236
 22
22.8594910559
 13
-2.6662589236
 23
22.8594910559
  0
SOLID
  5
296
100
AcDbEntity
  8
0
100
AcDbTrace
 62
7
  6
CONTINUOUS
 10
-2.6662589236
 20
22.8594910559
 11
-3.410784471
 21
22.1587591241
 12
-2.907134836
 22
23.0127737226
 13
-2.907134836
 23
23.0127737226
  0
SOLID
  5
297
100
AcDbEntity
  8
0
100
AcDbTrace
 62
7
  6
CONTINUOUS
 10
-3.410784471
 20
22.1587591241
 11
-2.6662589236
 21
22.8594910559
 12
-3.1480107484
 22
22.0054744526
 13
-3.1480107484
 23
22.0054744526
  0
DIMENSION
  5
298
100
AcDbEntity
  8
0
100
AcDbDimension
 62
7
  6
CONTINUOUS
  2
*D0
 10
5.0
 20
22.0
 11
-3.8049450549
 21
22.0
 70
160
 71
2
 72
2
 41
0.9
 42
10.0
  1
{\fSymbol_ASME;\W1.0;⌀}<>
  3
DIMSTYLE_1
100
AcDbAlignedDimension
 13
-5.0
 23
10.2360679775
 14
5.0
 24
10.2360679775
100
AcDbRotatedDimension
  0
DIMENSION
  5
299
100
AcDbEntity
  8
0
100
AcDbDimension
 62
7
  6
CONTINUOUS
  2
*D1
 10
-23.0
 20
-14.0
 11
-23.0
 21
-2.3571428571
 70
160
 71
2
 72
2
 41
0.9
 42
28.0
  3
DIMSTYLE_1
100
AcDbAlignedDimension
 13
0.0
 23
14.0
 14
0.0
 24
-14.0
 50
270.0
100
AcDbRotatedDimension
  0
DIMENSION
  5
29A
100
AcDbEntity
  8
0
100
AcDbDimension
 62
7
  6
CONTINUOUS
  2
*D2
 10
-13.0
 20
-14.0
 11
-13.0
 21
-10.8178391049
 70
160
 71
2
 72
2
 41
0.9
 42
14.2928932188
  3
DIMSTYLE_2
100
AcDbAlignedDimension
 13
-4.7071067812
 23
0.2928932188
 14
0.0
 24
-14.0
 50
270.0
100
AcDbRotatedDimension
  0
LWPOLYLINE
  5
29B
100
AcDbEntity
  8
0
100
AcDbPolyline
 62
7
  6
CONTINUOUS
 90
7
 70
0
 43
0.3500000006
 10
-23.7500004501
 20
-0.8571427917
 10
-23.7500004501
 20
-2.3571432495
 10
-25.8928566284
 20
-0.8571427917
 10
-26.3214278641
 20
-0.8571427917
 10
-26.7499990997
 20
-1.2857140274
 10
-26.7499990997
 20
-1.9285708809
 10
-26.1071433792
 20
-2.3571432495
  0
LWPOLYLINE
  5
29C
100
AcDbEntity
  8
0
100
AcDbPolyline
 62
7
  6
CONTINUOUS
 90
13
 70
0
 43
0.3500000006
 10
-25.4642853928
 20
0.4285709152
 10
-25.6785721436
 20
0.1428575134
 10
-26.3214278641
 20
0.1428575134
 10
-26.7499990997
 20
0.4285709152
 10
-26.7499990997
 20
1.0714289017
 10
-26.3214278641
 20
1.3571423035
 10
-25.6785721436
 20
1.3571423035
 10
-25.4642853928
 20
1.0714289017
 10
-25.0357141571
 20
1.5000001373
 10
-24.1785716858
 20
1.5000001373
 10
-23.7500004501
 20
1.0714289017
 10
-23.7500004501
 20
0.4285709152
 10
-24.1785716858
 20
-0.0000003204
  0
LWPOLYLINE
  5
29D
100
AcDbEntity
  8
0
100
AcDbPolyline
 62
7
  6
CONTINUOUS
 90
3
 70
0
 43
0.3500000006
 10
-0.2664835145
 20
24.8928560028
 10
0.5906593462
 20
25.7499984741
 10
0.5906593462
 20
22.7500020905
  0
LWPOLYLINE
  5
29E
100
AcDbEntity
  8
0
100
AcDbPolyline
 62
7
  6
CONTINUOUS
 90
3
 70
0
 43
0.3500000006
 10
-15.8928569756
 20
-10.8178393192
 10
-16.7499994469
 20
-9.9606962814
 10
-13.7499996643
 20
-9.9606962814
  0
LWPOLYLINE
  5
29F
100
AcDbEntity
  8
0
100
AcDbPolyline
 62
7
  6
CONTINUOUS
 90
5
 70
0
 43
0.3500000006
 10
-15.4642857399
 20
-4.1749823341
 10
-15.6785713577
 20
-3.8178388824
 10
-16.3214282112
 20
-3.8178388824
 10
-16.7499994469
 20
-4.1749823341
 10
-16.7499994469
 20
-5.0321248055
  0
LWPOLYLINE
  5
2A0
100
AcDbEntity
  8
0
100
AcDbPolyline
 62
7
  6
CONTINUOUS
 90
3
 70
0
 43
0.3500000006
 10
-14.3928576508
 20
-7.6035533524
 10
-14.3928576508
 20
-9.1035538101
 10
-16.7499994469
 20
-8.4606958237
  0
LWPOLYLINE
  5
2A1
100
AcDbEntity
  8
0
100
AcDbPolyline
 62
7
  6
CONTINUOUS
 90
6
 70
0
 43
0.3500000006
 10
-13.7499996643
 20
-5.0321248055
 10
-13.7499996643
 20
-3.9606967163
 10
-13.9642852821
 20
-3.7464110985
 10
-15.0357145042
 20
-3.7464110985
 10
-15.4642857399
 20
-4.1749823341
 10
-15.4642857399
 20
-4.6035535698
  0
LINE
  5
2A2
100
AcDbEntity
  8
0
100
AcDbLine
 62
7
  6
CONTINUOUS
 10
1.5
 20
-13.3228756555
 11
-1.5
 21
-13.3228756555
  0
LWPOLYLINE
  5
2A3
100
AcDbEntity
  8
0
100
AcDbPolyline
 62
7
  6
CONTINUOUS
 90
3
 70
0
 10
-4.250942113
 20
-10.9897046965
 10
-4.2564130135
 20
-10.9875567336
 10
-4.2561956705
 20
-10.9866112074
  0
LINE
  5
2A4
100
AcDbEntity
  8
0
100
AcDbLine
 62
7
  6
CONTINUOUS
 10
4.2330029188
 20
-10.6223014727
 11
4.104280557
 21
-10.6311418054
  0
LINE
  5
2A5
100
AcDbEntity
  8
0
100
AcDbLine
 62
7
  6
CONTINUOUS
 10
4.104280557
 20
-10.6311418054
 11
3.9467658893
 21
-10.6407225141
  0
LINE
  5
2A6
100
AcDbEntity
  8
0
100
AcDbLine
 62
7
  6
CONTINUOUS
 10
3.9467658893
 20
-10.6407225141
 11
3.7550679554
 21
-10.6511450397
  0
LINE
  5
2A7
100
AcDbEntity
  8
0
100
AcDbLine
 62
7
  6
CONTINUOUS
 10
3.7550679554
 20
-10.6511450397
 11
3.523691575
 21
-10.6624946316
  0
LINE
  5
2A8
100
AcDbEntity
  8
0
100
AcDbLine
 62
7
  6
CONTINUOUS
 10
3.523691575
 20
-10.6624946316
 11
3.0904971207
 21
-10.681382095
  0
LINE
  5
2A9
100
AcDbEntity
  8
0
100
AcDbLine
 62
7
  6
CONTINUOUS
 10
3.0904971207
 20
-10.681382095
 11
2.5367676977
 21
-10.7027652618
  0
LINE
  5
2AA
100
AcDbEntity
  8
0
100
AcDbLine
 62
7
  6
CONTINUOUS
 10
2.5367676977
 20
-10.7027652618
 11
1.8727495533
 21
-10.7260038884
  0
LINE
  5
2AB
100
AcDbEntity
  8
0
100
AcDbLine
 62
7
  6
CONTINUOUS
 10
-1.2890901697
 20
-10.8264079251
 11
-2.3852839647
 21
-10.8645796463
  0
LINE
  5
2AC
100
AcDbEntity
  8
0
100
AcDbLine
 62
7
  6
CONTINUOUS
 10
1.8727495533
 20
-10.7260038884
 11
0.6696382053
 21
-10.7647617215
  0
LINE
  5
2AD
100
AcDbEntity
  8
0
100
AcDbLine
 62
7
  6
CONTINUOUS
 10
0.6696382053
 20
-10.7647617215
 11
-1.2890901697
 21
-10.8264079251
  0
LINE
  5
2AE
100
AcDbEntity
  8
0
100
AcDbLine
 62
7
  6
CONTINUOUS
 10
4.1499972703
 20
-11.0
 11
-4.1499999878
 21
-11.0
  0
LINE
  5
2AF
100
AcDbEntity
  8
0
100
AcDbLine
 62
7
  6
CONTINUOUS
 10
-4.3556239514
 20
-10.2132878864
 11
-4.3555817058
 21
-10.2133123867
  0
LWPOLYLINE
  5
2B0
100
AcDbEntity
  8
0
100
AcDbPolyline
 62
7
  6
CONTINUOUS
 90
21
 70
0
 10
-4.3555817087
 20
-10.213312385
 10
-4.3496301809
 20
-10.2168242049
 10
-4.332726953
 20
-10.2275570317
 10
-4.3131625274
 20
-10.2414373553
 10
-4.2907754633
 20
-10.259413909
 10
-4.2658636966
 20
-10.2824425763
 10
-4.2397034573
 20
-10.3107998028
 10
-4.2137440911
 20
-10.3442440912
 10
-4.1886101588
 20
-10.3834089208
 10
-4.1656218277
 20
-10.4279847936
 10
-4.1466542729
 20
-10.4756444178
 10
-4.1322814384
 20
-10.5256701919
 10
-4.1229007151
 20
-10.5778754291
 10
-4.1190882787
 20
-10.6302707903
 10
-4.120877892
 20
-10.682206322
 10
-4.1280062567
 20
-10.7332375132
 10
-4.1397658867
 20
-10.7817003036
 10
-4.1554806919
 20
-10.8272351367
 10
-4.1745238132
 20
-10.869558495
 10
-4.1956693275
 20
-10.9074164876
 10
-4.2178891333
 20
-10.9405134295
  0
LWPOLYLINE
  5
2B1
100
AcDbEntity
  8
0
100
AcDbPolyline
 62
7
  6
CONTINUOUS
 90
17
 70
0
 10
3.1803381631
 20
-10.4586612862
 10
3.3515282003
 20
-10.4424987145
 10
3.5125990764
 20
-10.4262963801
 10
3.6628082506
 20
-10.4100717837
 10
3.8012666609
 20
-10.3938699384
 10
3.9273993537
 20
-10.3777162101
 10
4.0410885357
 20
-10.3615852329
 10
4.1422143896
 20
-10.3454459235
 10
4.2304958702
 20
-10.3292874673
 10
4.3055642092
 20
-10.3131206789
 10
4.367158795
 20
-10.2969469182
 10
4.4150904686
 20
-10.2807576265
 10
4.4491545367
 20
-10.2645613625
 10
4.4692040432
 20
-10.2483851631
 10
4.4752289182
 20
-10.2322423572
 10
4.4672847058
 20
-10.2161196158
 10
4.4639101342
 20
-10.2127925899
  0
LINE
  5
2B2
100
AcDbEntity
  8
0
100
AcDbLine
 62
7
  6
CONTINUOUS
 10
2.8093470569
 20
-10.4909271312
 11
3.1803381631
 21
-10.4586612862
  0
LWPOLYLINE
  5
2B3
100
AcDbEntity
  8
0
100
AcDbPolyline
 62
7
  6
CONTINUOUS
 90
3
 70
0
 10
-4.1248799234
 20
-10.9694461995
 10
-4.0659104746
 20
-10.9645033479
 10
-3.9963995178
 20
-10.9590809963
  0
LINE
  5
2B4
100
AcDbEntity
  8
0
100
AcDbLine
 62
7
  6
CONTINUOUS
 10
2.4042331763
 20
-10.5231218373
 11
2.8093470569
 21
-10.4909271312
  0
LINE
  5
2B5
100
AcDbEntity
  8
0
100
AcDbLine
 62
7
  6
CONTINUOUS
 10
-2.7723593075
 20
-10.879742483
 11
-2.355030834
 21
-10.8468522745
  0
LINE
  5
2B6
100
AcDbEntity
  8
0
100
AcDbLine
 62
7
  6
CONTINUOUS
 10
-2.355030834
 20
-10.8468522745
 11
-1.9120263226
 21
-10.8143083981
  0
LINE
  5
2B7
100
AcDbEntity
  8
0
100
AcDbLine
 62
7
  6
CONTINUOUS
 10
1.7416136232
 20
-10.5714577008
 11
2.4042331763
 21
-10.5231218373
  0
LINE
  5
2B8
100
AcDbEntity
  8
0
100
AcDbLine
 62
7
  6
CONTINUOUS
 10
-3.9963995178
 20
-10.9590809963
 11
-3.8264069104
 21
-10.9468455778
  0
LINE
  5
2B9
100
AcDbEntity
  8
0
100
AcDbLine
 62
7
  6
CONTINUOUS
 10
-1.9120263226
 20
-10.8143083981
 11
-1.21131222
 21
-10.7659919888
  0
LINE
  5
2BA
100
AcDbEntity
  8
0
100
AcDbLine
 62
7
  6
CONTINUOUS
 10
0.5292827971
 20
-10.6526359424
 11
1.7416136232
 21
-10.5714577008
  0
LINE
  5
2BB
100
AcDbEntity
  8
0
100
AcDbLine
 62
7
  6
CONTINUOUS
 10
-1.21131222
 20
-10.7659919888
 11
0.5292827971
 21
-10.6526359424
  0
LINE
  5
2BC
100
AcDbEntity
  8
0
100
AcDbLine
 62
7
  6
CONTINUOUS
 10
-3.8264069104
 20
-10.9468455778
 11
-3.3695420142
 21
-10.9167606647
  0
LINE
  5
2BD
100
AcDbEntity
  8
0
100
AcDbLine
 62
7
  6
CONTINUOUS
 10
-3.3695420142
 20
-10.9167606647
 11
-2.7723593075
 21
-10.879742483
  0
LINE
  5
2BE
100
AcDbEntity
  8
0
100
AcDbLine
 62
7
  6
CONTINUOUS
 10
-2.3852839647
 20
-10.8645796463
 11
-2.7723593075
 21
-10.879742483
  0
LWPOLYLINE
  5
2BF
100
AcDbEntity
  8
0
100
AcDbPolyline
 62
7
  6
CONTINUOUS
 90
3
 70
0
 43
0.3500000006
 10
-14.0357141991
 20
-6.0321251106
 10
-13.8214285812
 20
-6.1035528946
 10
-13.5357140465
 20
-6.2464107285
  0
LWPOLYLINE
  5
2C0
100
AcDbEntity
  8
0
100
AcDbPolyline
 62
7
  6
CONTINUOUS
 90
17
 70
0
 10
3.1750233342
 20
-8.6451483506
 10
3.3472406516
 20
-8.6289159224
 10
3.5089760969
 20
-8.6126734483
 10
3.6592448601
 20
-8.5964716871
 10
3.7973209099
 20
-8.5803518415
 10
3.9232582666
 20
-8.564272709
 10
4.0372446476
 20
-8.5481614403
 10
4.1391007738
 20
-8.5319756763
 10
4.2281141585
 20
-8.5157577762
 10
4.3036951252
 20
-8.4995619688
 10
4.3655760723
 20
-8.4834130931
 10
4.4137452234
 20
-8.46728631
 10
4.4481431465
 20
-8.4511613316
 10
4.4686730734
 20
-8.4350311774
 10
4.4752577225
 20
-8.4189028279
 10
4.467881812
 20
-8.4027769366
 10
4.4639111188
 20
-8.3987930429
  0
LWPOLYLINE
  5
2C1
100
AcDbEntity
  8
0
100
AcDbPolyline
 62
250
  6
CONTINUOUS
 90
17
 70
0
 10
-3.0301493115
 20
-9.9472678462
 10
-3.2065685011
 20
-9.9638064718
 10
-3.3725011817
 20
-9.9803485239
 10
-3.527424887
 20
-9.9968972009
 10
-3.6709145768
 20
-10.0134642401
 10
-3.8023698048
 20
-10.0300379042
 10
-3.9211253431
 20
-10.0465861788
 10
-4.0266782898
 20
-10.0630805486
 10
-4.118959552
 20
-10.0795495291
 10
-4.1979645035
 20
-10.0960466522
 10
-4.2634910843
 20
-10.1126073421
 10
-4.3150686247
 20
-10.1291961748
 10
-4.3523589627
 20
-10.1457604104
 10
-4.375270518
 20
-10.1622661503
 10
-4.3838830024
 20
-10.1787472932
 10
-4.3781941577
 20
-10.1952527959
 10
-4.3556239514
 20
-10.2132878864
  0
LINE
  5
2C2
100
AcDbEntity
  8
0
100
AcDbLine
 62
7
  6
CONTINUOUS
 10
2.8016467269
 20
-8.6775648301
 11
3.1750233342
 21
-8.6451483506
  0
LINE
  5
2C3
100
AcDbEntity
  8
0
100
AcDbLine
 62
250
  6
CONTINUOUS
 10
-2.6483243455
 20
-9.914209184
 11
-3.0301493115
 21
-9.9472678462
  0
LINE
  5
2C4
100
AcDbEntity
  8
0
100
AcDbLine
 62
250
  6
CONTINUOUS
 10
2.9419610728
 20
-9.5145560976
 11
2.5482476982
 21
-9.5478649588
  0
LINE
  5
2C5
100
AcDbEntity
  8
0
100
AcDbLine
 62
7
  6
CONTINUOUS
 10
-2.969157533
 20
-9.0822986423
 11
-2.5711123326
 21
-9.049553414
  0
LINE
  5
2C6
100
AcDbEntity
  8
0
100
AcDbLine
 62
250
  6
CONTINUOUS
 10
-2.2311177029
 20
-9.8810972835
 11
-2.6483243455
 21
-9.914209184
  0
LINE
  5
2C7
100
AcDbEntity
  8
0
100
AcDbLine
 62
7
  6
CONTINUOUS
 10
2.3946950387
 20
-8.7098508503
 11
2.8016467269
 21
-8.6775648301
  0
LINE
  5
2C8
100
AcDbEntity
  8
0
100
AcDbLine
 62
250
  6
CONTINUOUS
 10
2.5482476982
 20
-9.5478649588
 11
2.1253903495
 21
-9.580817215
  0
LINE
  5
2C9
100
AcDbEntity
  8
0
100
AcDbLine
 62
7
  6
CONTINUOUS
 10
-2.5711123326
 20
-9.049553414
 11
-2.1447183614
 21
-9.0171528725
  0
LINE
  5
2CA
100
AcDbEntity
  8
0
100
AcDbLine
 62
250
  6
CONTINUOUS
 10
2.1253903495
 20
-9.580817215
 11
1.674621631
 21
-9.613787519
  0
LINE
  5
2CB
100
AcDbEntity
  8
0
100
AcDbLine
 62
250
  6
CONTINUOUS
 10
-1.5531161772
 20
-9.8314966689
 11
-2.2311177029
 21
-9.8810972835
  0
LINE
  5
2CC
100
AcDbEntity
  8
0
100
AcDbLine
 62
7
  6
CONTINUOUS
 10
1.732228584
 20
-8.7581146493
 11
2.3946950387
 21
-8.7098508503
  0
LINE
  5
2CD
100
AcDbEntity
  8
0
100
AcDbLine
 62
7
  6
CONTINUOUS
 10
-2.1447183614
 20
-9.0171528725
 11
-1.6955203171
 21
-8.9850436393
  0
LINE
  5
2CE
100
AcDbEntity
  8
0
100
AcDbLine
 62
250
  6
CONTINUOUS
 10
1.674621631
 20
-9.613787519
 11
0.9523977829
 21
-9.6637207768
  0
LINE
  5
2CF
100
AcDbEntity
  8
0
100
AcDbLine
 62
7
  6
CONTINUOUS
 10
-1.6955203171
 20
-8.9850436393
 11
-0.9824952134
 21
-8.9367638982
  0
LINE
  5
2D0
100
AcDbEntity
  8
0
100
AcDbLine
 62
250
  6
CONTINUOUS
 10
0.9523977829
 20
-9.6637207768
 11
-1.5531161772
 21
-9.8314966689
  0
LINE
  5
2D1
100
AcDbEntity
  8
0
100
AcDbLine
 62
7
  6
CONTINUOUS
 10
0.5256732157
 20
-8.838870364
 11
1.732228584
 21
-8.7581146493
  0
LINE
  5
2D2
100
AcDbEntity
  8
0
100
AcDbLine
 62
7
  6
CONTINUOUS
 10
-0.9824952134
 20
-8.9367638982
 11
0.5256732157
 21
-8.838870364
  0
LWPOLYLINE
  5
2D3
100
AcDbEntity
  8
0
100
AcDbPolyline
 62
7
  6
CONTINUOUS
 90
34
 70
0
 10
-4.3555815487
 20
-8.3993119828
 10
-4.3496301882
 20
-8.4028237057
 10
-4.3327269604
 20
-8.4135565322
 10
-4.3131625352
 20
-8.4274368552
 10
-4.2907754717
 20
-8.4454134077
 10
-4.2658637057
 20
-8.4684420732
 10
-4.2397034671
 20
-8.4967992972
 10
-4.2137441013
 20
-8.5302435824
 10
-4.1886101691
 20
-8.5694084082
 10
-4.1656218373
 20
-8.6139842767
 10
-4.1466542809
 20
-8.6616438967
 10
-4.1322814439
 20
-8.7116696672
 10
-4.1229007173
 20
-8.7638749013
 10
-4.1190882766
 20
-8.81627026
 10
-4.1208778852
 20
-8.8682057899
 10
-4.128006245
 20
-8.9192369801
 10
-4.1397658704
 20
-8.9676997709
 10
-4.1554806713
 20
-9.0132346058
 10
-4.1745237892
 20
-9.0555579669
 10
-4.1956693011
 20
-9.0934159635
 10
-4.2178891059
 20
-9.1265129105
 10
-4.2406644989
 20
-9.1553284717
 10
-4.2633439025
 20
-9.1800260991
 10
-4.2852196568
 20
-9.2007452519
 10
-4.3058489801
 20
-9.2179477071
 10
-4.3251324643
 20
-9.2322460952
 10
-4.3427422983
 20
-9.2439388302
 10
-4.3583134344
 20
-9.2532533126
 10
-4.3718192129
 20
-9.2605670964
 10
-4.3829978204
 20
-9.2660681795
 10
-4.3916242301
 20
-9.2699415938
 10
-4.3977497081
 20
-9.2724602089
 10
-4.4012431924
 20
-9.2737787647
 10
-4.4014521388
 20
-9.2738532821
  0
LWPOLYLINE
  5
2D4
100
AcDbEntity
  8
0
100
AcDbPolyline
 62
250
  6
CONTINUOUS
 90
18
 70
0
 10
-3.0255562881
 20
-8.1328493126
 10
-3.196750852
 20
-8.1488597245
 10
-3.3580557469
 20
-8.1648638715
 10
-3.5089189294
 20
-8.1808542488
 10
-3.6489680775
 20
-8.1968383611
 10
-3.7779590317
 20
-8.2128385511
 10
-3.8956325356
 20
-8.2288793952
 10
-4.0013829802
 20
-8.244936317
 10
-4.094567947
 20
-8.2609579304
 10
-4.1747289341
 20
-8.2768894296
 10
-4.2420454876
 20
-8.2927856203
 10
-4.2967395241
 20
-8.3087595342
 10
-4.3385426094
 20
-8.3248522506
 10
-4.3669731982
 20
-8.3410226902
 10
-4.3817404499
 20
-8.3572606463
 10
-4.3826170506
 20
-8.3735878191
 10
-4.369397479
 20
-8.3899825085
 10
-4.3555918796
 20
-8.3993059931
  0
LINE
  5
2D5
100
AcDbEntity
  8
0
100
AcDbLine
 62
250
  6
CONTINUOUS
 10
-2.6554628159
 20
-8.1007992894
 11
-3.0255562881
 21
-8.1328493126
  0
LINE
  5
2D6
100
AcDbEntity
  8
0
100
AcDbLine
 62
250
  6
CONTINUOUS
 10
2.9482460093
 20
-7.6999972706
 11
2.5639540167
 21
-7.7325917223
  0
LINE
  5
2D7
100
AcDbEntity
  8
0
100
AcDbLine
 62
250
  6
CONTINUOUS
 10
-2.2526469156
 20
-8.0687469001
 11
-2.6554628159
 21
-8.1007992894
  0
LINE
  5
2D8
100
AcDbEntity
  8
0
100
AcDbLine
 62
250
  6
CONTINUOUS
 10
2.5639540167
 20
-7.7325917223
 11
2.149715194
 21
-7.7649823028
  0
LINE
  5
2D9
100
AcDbEntity
  8
0
100
AcDbLine
 62
250
  6
CONTINUOUS
 10
2.149715194
 20
-7.7649823028
 11
1.7127813974
 21
-7.797062811
  0
LINE
  5
2DA
100
AcDbEntity
  8
0
100
AcDbLine
 62
250
  6
CONTINUOUS
 10
-1.6013727218
 20
-8.0209024902
 11
-2.2526469156
 21
-8.0687469001
  0
LINE
  5
2DB
100
AcDbEntity
  8
0
100
AcDbLine
 62
250
  6
CONTINUOUS
 10
1.7127813974
 20
-7.797062811
 11
1.024427298
 21
-7.8448516698
  0
LINE
  5
2DC
100
AcDbEntity
  8
0
100
AcDbLine
 62
250
  6
CONTINUOUS
 10
1.024427298
 20
-7.8448516698
 11
-0.1815471968
 21
-7.9249044949
  0
LINE
  5
2DD
100
AcDbEntity
  8
0
100
AcDbLine
 62
250
  6
CONTINUOUS
 10
-0.1815471968
 20
-7.9249044949
 11
-1.6013727218
 21
-8.0209024902
  0
LWPOLYLINE
  5
2DE
100
AcDbEntity
  8
0
100
AcDbPolyline
 62
7
  6
CONTINUOUS
 90
2
 70
0
 43
0.3500000006
 10
-13.7499996643
 20
-8.1035535049
 10
-15.2500001221
 20
-8.1035535049
  0
LWPOLYLINE
  5
2DF
100
AcDbEntity
  8
0
100
AcDbPolyline
 62
7
  6
CONTINUOUS
 90
33
 70
0
 10
4.4015184157
 20
-10.180877117
 10
4.3983683907
 20
-10.1797016219
 10
4.3927629495
 20
-10.1774261069
 10
4.3846983274
 20
-10.1738589619
 10
4.3738610075
 20
-10.1686103154
 10
4.3604086087
 20
-10.1614348106
 10
4.3446548635
 20
-10.1521341724
 10
4.3265919851
 20
-10.1402635055
 10
4.306547587
 20
-10.1254947171
 10
4.2849786255
 20
-10.1075317891
 10
4.2622175018
 20
-10.0858818292
 10
4.2387072017
 20
-10.0600228114
 10
4.2152503386
 20
-10.0298683266
 10
4.1927751105
 20
-9.9956553271
 10
4.1718041919
 20
-9.9570893445
 10
4.1532161265
 20
-9.9144381597
 10
4.1381510635
 20
-9.8690965725
 10
4.1271212136
 20
-9.8215059179
 10
4.1206010272
 20
-9.771922371
 10
4.1191206033
 20
-9.7217102599
 10
4.122847393
 20
-9.6712992054
 10
4.1316877955
 20
-9.621239486
 10
4.1451582943
 20
-9.57308034
 10
4.1629405781
 20
-9.5269634887
 10
4.1845403369
 20
-9.4835714559
 10
4.2084103998
 20
-9.4449162049
 10
4.2335035215
 20
-9.411254743
 10
4.2592269849
 20
-9.3821959901
 10
4.2841443164
 20
-9.3582100249
 10
4.3070748452
 20
-9.3390939387
 10
4.3276696813
 20
-9.323990924
 10
4.3457840552
 20
-9.3121668319
 10
4.3555970582
 20
-9.3063032051
  0
LINE
  5
2E0
100
AcDbEntity
  8
0
100
AcDbLine
 62
7
  6
CONTINUOUS
 10
-4.3555775775
 20
-6.5853148307
 11
-4.3554831168
 21
-6.5853695436
  0
LWPOLYLINE
  5
2E1
100
AcDbEntity
  8
0
100
AcDbPolyline
 62
7
  6
CONTINUOUS
 90
32
 70
0
 10
-4.3412308056
 20
-6.5940158946
 10
-4.3215126878
 20
-6.6073152297
 10
-4.2999980018
 20
-6.6237210546
 10
-4.2772834955
 20
-6.6434542791
 10
-4.2538140408
 20
-6.6669180938
 10
-4.2300035698
 20
-6.6946026608
 10
-4.2062929103
 20
-6.7270495074
 10
-4.183680951
 20
-6.7641191542
 10
-4.1633312294
 20
-6.8050801182
 10
-4.1458813226
 20
-6.849920163
 10
-4.132132105
 20
-6.8983113319
 10
-4.1230476965
 20
-6.9487216961
 10
-4.1191193596
 20
-7.0007666427
 10
-4.1208463939
 20
-7.0538454311
 10
-4.1281429762
 20
-7.1059468964
 10
-4.1406930607
 20
-7.1568153366
 10
-4.1580794589
 20
-7.2056485487
 10
-4.1788263989
 20
-7.2498960718
 10
-4.2017122675
 20
-7.2889945291
 10
-4.2261098959
 20
-7.3234380835
 10
-4.2507595296
 20
-7.3527658189
 10
-4.2744984658
 20
-7.3769369421
 10
-4.2969058981
 20
-7.3967466542
 10
-4.3179126391
 20
-7.4130827909
 10
-4.3371123055
 20
-7.4263371656
 10
-4.354036907
 20
-7.4367897639
 10
-4.3687408913
 20
-7.4449636778
 10
-4.3809413178
 20
-7.4510958435
 10
-4.3903636763
 20
-7.4553982226
 10
-4.3971161171
 20
-7.4582108923
 10
-4.4010638083
 20
-7.4597147715
 10
-4.4014595375
 20
-7.4598564675
  0
LINE
  5
2E2
100
AcDbEntity
  8
0
100
AcDbLine
 62
7
  6
CONTINUOUS
 10
-2.95
 20
-11.0
 11
-1.5
 21
-13.3228756555
  0
LWPOLYLINE
  5
2E3
100
AcDbEntity
  8
0
100
AcDbPolyline
 62
7
  6
CONTINUOUS
 90
17
 70
0
 10
3.0014494805
 20
-6.8466269372
 10
3.1888215936
 20
-6.8298824354
 10
3.3650062164
 20
-6.8131833385
 10
3.529397687
 20
-6.7965407406
 10
3.6816642159
 20
-6.7799435474
 10
3.8210157475
 20
-6.7634394357
 10
3.9468644975
 20
-6.7470749093
 10
4.0594287576
 20
-6.7308034643
 10
4.1590948758
 20
-6.7145332655
 10
4.2455711106
 20
-6.6982598842
 10
4.3185569519
 20
-6.6819877492
 10
4.3780762639
 20
-6.6656383112
 10
4.4238414368
 20
-6.6491685442
 10
4.4553270743
 20
-6.6326214743
 10
4.4721966309
 20
-6.6160476298
 10
4.4743201816
 20
-6.5994372247
 10
4.46400001
 20
-6.5848745689
  0
LINE
  5
2E4
100
AcDbEntity
  8
0
100
AcDbLine
 62
7
  6
CONTINUOUS
 10
-3.0188510149
 20
-7.2726124649
 11
-2.6254751886
 21
-7.2398613164
  0
LINE
  5
2E5
100
AcDbEntity
  8
0
100
AcDbLine
 62
7
  6
CONTINUOUS
 10
2.5985134393
 20
-6.8800030902
 11
3.0014494805
 21
-6.8466269372
  0
LINE
  5
2E6
100
AcDbEntity
  8
0
100
AcDbLine
 62
7
  6
CONTINUOUS
 10
-2.6254751886
 20
-7.2398613164
 11
-2.1989511239
 21
-7.2071547733
  0
LINE
  5
2E7
100
AcDbEntity
  8
0
100
AcDbLine
 62
7
  6
CONTINUOUS
 10
2.1637487172
 20
-6.913168445
 11
2.5985134393
 21
-6.8800030902
  0
LINE
  5
2E8
100
AcDbEntity
  8
0
100
AcDbLine
 62
7
  6
CONTINUOUS
 10
-2.1989511239
 20
-7.2071547733
 11
-1.7459781593
 21
-7.1745702525
  0
LINE
  5
2E9
100
AcDbEntity
  8
0
100
AcDbLine
 62
7
  6
CONTINUOUS
 10
1.4716912178
 20
-6.9621194755
 11
2.1637487172
 21
-6.913168445
  0
LINE
  5
2EA
100
AcDbEntity
  8
0
100
AcDbLine
 62
7
  6
CONTINUOUS
 10
-1.7459781593
 20
-7.1745702525
 11
-1.0235608454
 21
-7.125482611
  0
LINE
  5
2EB
100
AcDbEntity
  8
0
100
AcDbLine
 62
7
  6
CONTINUOUS
 10
-1.0235608454
 20
-7.125482611
 11
1.4716912178
 21
-6.9621194755
  0
LWPOLYLINE
  5
2EC
100
AcDbEntity
  8
0
100
AcDbPolyline
 62
250
  6
CONTINUOUS
 90
18
 70
0
 10
-2.9402213219
 20
-6.3111803748
 10
-3.1247737015
 20
-6.3280190633
 10
-3.2991992978
 20
-6.3449077374
 10
-3.4629176965
 20
-6.3618586192
 10
-3.6151314828
 20
-6.3788594866
 10
-3.7545411291
 20
-6.3958256562
 10
-3.8806965594
 20
-6.4127505062
 10
-3.9933018429
 20
-6.4296406583
 10
-4.0917014095
 20
-6.4464312943
 10
-4.1755725973
 20
-6.4630720697
 10
-4.2451984012
 20
-6.4796133288
 10
-4.3008534561
 20
-6.4961412869
 10
-4.3423858086
 20
-6.512654322
 10
-4.369699908
 20
-6.529154056
 10
-4.3827733248
 20
-6.5457315699
 10
-4.3813365406
 20
-6.562431715
 10
-4.3651347279
 20
-6.57920964
 10
-4.3555775775
 20
-6.5853148307
  0
LINE
  5
2ED
100
AcDbEntity
  8
0
100
AcDbLine
 62
250
  6
CONTINUOUS
 10
3.0161910059
 20
-5.8798924682
 11
2.6315758808
 21
-5.9130633713
  0
LINE
  5
2EE
100
AcDbEntity
  8
0
100
AcDbLine
 62
250
  6
CONTINUOUS
 10
-2.546089467
 20
-6.2778513847
 11
-2.9402213219
 21
-6.3111803748
  0
LINE
  5
2EF
100
AcDbEntity
  8
0
100
AcDbLine
 62
250
  6
CONTINUOUS
 10
2.6315758808
 20
-5.9130633713
 11
2.2122273846
 21
-5.9462367702
  0
LINE
  5
2F0
100
AcDbEntity
  8
0
100
AcDbLine
 62
250
  6
CONTINUOUS
 10
-2.1224665887
 20
-6.244853663
 11
-2.546089467
 21
-6.2778513847
  0
LINE
  5
2F1
100
AcDbEntity
  8
0
100
AcDbLine
 62
250
  6
CONTINUOUS
 10
2.2122273846
 20
-5.9462367702
 11
1.7622400706
 21
-5.9795154294
  0
LINE
  5
2F2
100
AcDbEntity
  8
0
100
AcDbLine
 62
250
  6
CONTINUOUS
 10
-1.433436279
 20
-6.19511357
 11
-2.1224665887
 21
-6.244853663
  0
LINE
  5
2F3
100
AcDbEntity
  8
0
100
AcDbLine
 62
250
  6
CONTINUOUS
 10
1.7622400706
 20
-5.9795154294
 11
1.0491142203
 21
-6.0291787623
  0
LWPOLYLINE
  5
2F4
100
AcDbEntity
  8
0
100
AcDbPolyline
 62
250
  6
CONTINUOUS
 90
3
 70
0
 10
1.0491142203
 20
-6.0291787623
 10
0.0507479951
 20
-6.0956034811
 10
-1.433436279
 20
-6.19511357
  0
LWPOLYLINE
  5
2F5
100
AcDbEntity
  8
0
100
AcDbPolyline
 62
7
  6
CONTINUOUS
 90
34
 70
0
 10
4.4014523143
 20
-8.3668536077
 10
4.401243296
 20
-8.3667790648
 10
4.3977497931
 20
-8.3654605019
 10
4.3916242969
 20
-8.3629418793
 10
4.3829978696
 20
-8.3590684565
 10
4.3718192449
 20
-8.3535673643
 10
4.3583134498
 20
-8.3462535701
 10
4.3427422978
 20
-8.3369390762
 10
4.3251324496
 20
-8.3252463288
 10
4.3058489531
 20
-8.3109479274
 10
4.2852196194
 20
-8.2937454579
 10
4.2633438579
 20
-8.2730262904
 10
4.2406644497
 20
-8.2483286482
 10
4.2178890551
 20
-8.2195130725
 10
4.1956692525
 20
-8.1864161131
 10
4.1745237465
 20
-8.1485581075
 10
4.1554806371
 20
-8.1062347406
 10
4.1397658461
 20
-8.0606999031
 10
4.1280062314
 20
-8.012237113
 10
4.1208778824
 20
-7.9612059269
 10
4.1190882836
 20
-7.9092704029
 10
4.1229007323
 20
-7.8568750515
 10
4.1322814649
 20
-7.8046698261
 10
4.1466543057
 20
-7.7546440645
 10
4.1656218636
 20
-7.7069844538
 10
4.1886101949
 20
-7.6624085942
 10
4.2137441263
 20
-7.6232437746
 10
4.239703492
 20
-7.5897994922
 10
4.2658637317
 20
-7.5614422687
 10
4.2907754998
 20
-7.5384136023
 10
4.3131625668
 20
-7.5204370474
 10
4.3327269972
 20
-7.5065567212
 10
4.3496302307
 20
-7.4958238914
 10
4.355581601
 20
-7.4923121628
  0
LINE
  5
2F6
100
AcDbEntity
  8
0
100
AcDbLine
 62
7
  6
CONTINUOUS
 10
-4.3555776307
 20
-4.771314348
 11
-4.3554429608
 21
-4.7713923232
  0
LWPOLYLINE
  5
2F7
100
AcDbEntity
  8
0
100
AcDbPolyline
 62
7
  6
CONTINUOUS
 90
32
 70
0
 10
-4.355442954
 20
-4.7713923271
 10
-4.3490892727
 20
-4.77514978
 10
-4.3294827984
 20
-4.7877475386
 10
-4.3077858428
 20
-4.8035413104
 10
-4.2844893184
 20
-4.8229026562
 10
-4.2602282092
 20
-4.8461590197
 10
-4.2358695838
 20
-4.8733733674
 10
-4.211931554
 20
-4.9048167028
 10
-4.1891535251
 20
-4.9404720729
 10
-4.1685423394
 20
-4.9796911484
 10
-4.1506847735
 20
-5.0222945112
 10
-4.1361709831
 20
-5.0681200801
 10
-4.1257587127
 20
-5.1163178383
 10
-4.1199812771
 20
-5.1666596015
 10
-4.1194574801
 20
-5.2185374668
 10
-4.1244516165
 20
-5.2703899958
 10
-4.1349266071
 20
-5.3221221083
 10
-4.1506819127
 20
-5.3726973782
 10
-4.1704609551
 20
-5.4193272074
 10
-4.1932705078
 20
-5.4614785972
 10
-4.2184679702
 20
-5.4993032621
 10
-4.2443760973
 20
-5.531620695
 10
-4.2696173922
 20
-5.5582548069
 10
-4.2937553099
 20
-5.5801176041
 10
-4.3163872165
 20
-5.5979627697
 10
-4.3369288434
 20
-5.612217196
 10
-4.3548780006
 20
-5.6232795527
 10
-4.3701952642
 20
-5.6317257037
 10
-4.3824475116
 20
-5.6378097163
 10
-4.3914791231
 20
-5.6418794712
 10
-4.3977904438
 20
-5.6444762544
 10
-4.4015873354
 20
-5.6459016017
  0
LWPOLYLINE
  5
2F8
100
AcDbEntity
  8
0
100
AcDbPolyline
 62
7
  6
CONTINUOUS
 90
4
 70
0
 10
4.4639101342
 20
-10.2127925899
 10
4.4454250571
 20
-10.2000039892
 10
4.409742329
 20
-10.1838977048
 10
4.4015184157
 20
-10.180877117
  0
LINE
  5
2F9
100
AcDbEntity
  8
0
100
AcDbLine
 62
7
  6
CONTINUOUS
 10
-5.0
 20
1.0
 11
-5.0
 21
10.2360679775
  0
LWPOLYLINE
  5
2FA
100
AcDbEntity
  8
0
100
AcDbPolyline
 62
7
  6
CONTINUOUS
 90
17
 70
0
 10
3.0890012111
 20
-5.0249180091
 10
3.266678274
 20
-5.0086302028
 10
3.4341973251
 20
-4.9923186091
 10
3.591288823
 20
-4.9759495185
 10
3.7370415382
 20
-4.9595566405
 10
3.8705039672
 20
-4.943195286
 10
3.9910548731
 20
-4.9269030003
 10
4.0987032275
 20
-4.9106422382
 10
4.1934926018
 20
-4.8943556746
 10
4.2751745847
 20
-4.8780180427
 10
4.3432662123
 20
-4.8616546093
 10
4.3974302018
 20
-4.8452838496
 10
4.4374803248
 20
-4.8289024152
 10
4.4632560938
 20
-4.8125136545
 10
4.4746479481
 20
-4.7961460882
 10
4.4716910069
 20
-4.7798254819
 10
4.4640018244
 20
-4.7708755752
  0
LINE
  5
2FB
100
AcDbEntity
  8
0
100
AcDbLine
 62
7
  6
CONTINUOUS
 10
-3.1270466277
 20
-5.4682145765
 11
-2.7425255047
 21
-5.4352984188
  0
LINE
  5
2FC
100
AcDbEntity
  8
0
100
AcDbLine
 62
7
  6
CONTINUOUS
 10
2.7035763923
 20
-5.0575891637
 11
3.0890012111
 21
-5.0249180091
  0
LINE
  5
2FD
100
AcDbEntity
  8
0
100
AcDbLine
 62
7
  6
CONTINUOUS
 10
-2.7425255047
 20
-5.4352984188
 11
-2.3266749359
 21
-5.4027054935
  0
LINE
  5
2FE
100
AcDbEntity
  8
0
100
AcDbLine
 62
7
  6
CONTINUOUS
 10
2.2825661339
 20
-5.0903353484
 11
2.7035763923
 21
-5.0575891637
  0
LINE
  5
2FF
100
AcDbEntity
  8
0
100
AcDbLine
 62
7
  6
CONTINUOUS
 10
-2.3266749359
 20
-5.4027054935
 11
-1.8819498583
 21
-5.3701656775
  0
LINE
  5
300
100
AcDbEntity
  8
0
100
AcDbLine
 62
7
  6
CONTINUOUS
 10
1.6006893434
 20
-5.139258244
 11
2.2825661339
 21
-5.0903353484
  0
LINE
  5
301
100
AcDbEntity
  8
0
100
AcDbLine
 62
7
  6
CONTINUOUS
 10
-1.8819498583
 20
-5.3701656775
 11
-1.167147511
 21
-5.3210361394
  0
LWPOLYLINE
  5
302
100
AcDbEntity
  8
0
100
AcDbPolyline
 62
7
  6
CONTINUOUS
 90
3
 70
0
 10
-1.167147511
 20
-5.3210361394
 10
0.1094698556
 20
-5.2377978231
 10
1.6006893434
 20
-5.139258244
  0
LINE
  5
303
100
AcDbEntity
  8
0
100
AcDbLine
 62
7
  6
CONTINUOUS
 10
-4.4801050331
 20
-3.7787534424
 11
-4.4093275934
 21
-3.8198717575
  0
LINE
  5
304
100
AcDbEntity
  8
0
100
AcDbLine
 62
7
  6
CONTINUOUS
 10
-4.6413417595
 20
-2.9368458064
 11
-4.6234072698
 21
-2.9473369708
  0
LWPOLYLINE
  5
305
100
AcDbEntity
  8
0
100
AcDbPolyline
 62
7
  6
CONTINUOUS
 90
3
 70
0
 10
-4.6234072698
 20
-2.9473369708
 10
-4.6032117122
 20
-2.9606610203
 10
-4.5808209879
 20
-2.9774335293
  0
LWPOLYLINE
  5
306
100
AcDbEntity
  8
0
100
AcDbPolyline
 62
7
  6
CONTINUOUS
 90
3
 70
0
 10
-4.6413417441
 20
-2.9368382692
 10
-4.6475828227
 20
-2.9324342478
 10
-4.65
 20
-2.9276496264
  0
LWPOLYLINE
  5
307
100
AcDbEntity
  8
0
100
AcDbPolyline
 62
7
  6
CONTINUOUS
 90
5
 70
0
 10
-4.4801051287
 20
-3.7787535441
 10
-4.5110826495
 20
-3.7561865987
 10
-4.5258695063
 20
-3.7348509414
 10
-4.5265130615
 20
-3.7133928772
 10
-4.5166076816
 20
-3.6960235697
  0
LWPOLYLINE
  5
308
100
AcDbEntity
  8
0
100
AcDbPolyline
 62
7
  6
CONTINUOUS
 90
19
 70
0
 10
-4.5808209879
 20
-2.9774335293
 10
-4.5569286826
 20
-2.9979416306
 10
-4.5324618398
 20
-3.0222590328
 10
-4.5079666718
 20
-3.0507201391
 10
-4.4841476457
 20
-3.0833861736
 10
-4.4620323986
 20
-3.1196758223
 10
-4.4421652538
 20
-3.1595058973
 10
-4.4251279579
 20
-3.2027332419
 10
-4.4117197327
 20
-3.248433431
 10
-4.4024237953
 20
-3.296172
 10
-4.397699572
 20
-3.3456718708
 10
-4.3980353704
 20
-3.3960943476
 10
-4.403693993
 20
-3.447387526
 10
-4.4146963641
 20
-3.498570962
 10
-4.4304094312
 20
-3.5474420835
 10
-4.4504062955
 20
-3.5937400518
 10
-4.4741510537
 20
-3.636901516
 10
-4.4998002895
 20
-3.6747513275
 10
-4.5166079611
 20
-3.6960239038
  0
LINE
  5
309
100
AcDbEntity
  8
0
100
AcDbLine
 62
7
  6
CONTINUOUS
 10
-4.65
 20
-2.9276499836
 11
-4.65
 21
-0.3330127019
  0
LWPOLYLINE
  5
30A
100
AcDbEntity
  8
0
100
AcDbPolyline
 62
250
  6
CONTINUOUS
 90
18
 70
0
 10
-2.956383193
 20
-4.4986180338
 10
-3.1372447177
 20
-4.5151919216
 10
-3.3077261609
 20
-4.5317614111
 10
-3.4675965304
 20
-4.5483611518
 10
-3.6165571895
 20
-4.5650250368
 10
-3.7537100124
 20
-4.5817191731
 10
-3.8780550572
 20
-4.5983765312
 10
-3.9889780362
 20
-4.614951931
 10
-4.0865540147
 20
-4.6314905526
 10
-4.170871713
 20
-4.6480609074
 10
-4.2417115909
 20
-4.6646984905
 10
-4.2985634231
 20
-4.6813678067
 10
-4.3410760884
 20
-4.6980308814
 10
-4.3691175114
 20
-4.7146823833
 10
-4.3826266153
 20
-4.7313276437
 10
-4.3815858495
 20
-4.7479446824
 10
-4.3661030376
 20
-4.7645112514
 10
-4.3555776307
 20
-4.771314348
  0
LINE
  5
30B
100
AcDbEntity
  8
0
100
AcDbLine
 62
250
  6
CONTINUOUS
 10
3.0167458619
 20
-4.0658416976
 11
2.6257151471
 21
-4.0995452175
  0
LINE
  5
30C
100
AcDbEntity
  8
0
100
AcDbLine
 62
250
  6
CONTINUOUS
 10
-2.5655180104
 20
-4.4654256688
 11
-2.956383193
 21
-4.4986180338
  0
LINE
  5
30D
100
AcDbEntity
  8
0
100
AcDbLine
 62
250
  6
CONTINUOUS
 10
2.6257151471
 20
-4.0995452175
 11
2.2007542367
 21
-4.1331107267
  0
LINE
  5
30E
100
AcDbEntity
  8
0
100
AcDbLine
 62
250
  6
CONTINUOUS
 10
-2.1412288911
 20
-4.4322672199
 11
-2.5655180104
 21
-4.4654256688
  0
LINE
  5
30F
100
AcDbEntity
  8
0
100
AcDbLine
 62
250
  6
CONTINUOUS
 10
2.2007542367
 20
-4.1331107267
 11
1.7499530278
 21
-4.1663980982
  0
LINE
  5
310
100
AcDbEntity
  8
0
100
AcDbLine
 62
250
  6
CONTINUOUS
 10
-1.4535528371
 20
-4.3825161012
 11
-2.1412288911
 21
-4.4322672199
  0
LINE
  5
311
100
AcDbEntity
  8
0
100
AcDbLine
 62
250
  6
CONTINUOUS
 10
1.7499530278
 20
-4.1663980982
 11
1.0371945972
 21
-4.2159864859
  0
LWPOLYLINE
  5
312
100
AcDbEntity
  8
0
100
AcDbPolyline
 62
250
  6
CONTINUOUS
 90
3
 70
0
 10
1.0371945972
 20
-4.2159864859
 10
0.0399953803
 20
-4.2823111612
 10
-1.4535528371
 20
-4.3825161012
  0
LWPOLYLINE
  5
313
100
AcDbEntity
  8
0
100
AcDbPolyline
 62
7
  6
CONTINUOUS
 90
33
 70
0
 10
4.4014415497
 20
-6.5528498706
 10
4.4010235802
 20
-6.5527000295
 10
4.3970551424
 20
-6.5511865218
 10
4.3902809456
 20
-6.548362068
 10
4.3808506094
 20
-6.5440523376
 10
4.3686836578
 20
-6.5379333251
 10
4.3540663687
 20
-6.5298068081
 10
4.3372636524
 20
-6.51943548
 10
4.3181968429
 20
-6.5062900943
 10
4.2973440615
 20
-6.4901082055
 10
4.275084538
 20
-6.4704895604
 10
4.2514155997
 20
-6.4464834835
 10
4.2267458542
 20
-6.4172571247
 10
4.2022704862
 20
-6.3828556596
 10
4.1792642953
 20
-6.3437241076
 10
4.1583347115
 20
-6.2992654192
 10
4.1407853887
 20
-6.2501215275
 10
4.128180069
 20
-6.1991383415
 10
4.1208780078
 20
-6.1472074859
 10
4.1191031635
 20
-6.0945219421
 10
4.1228632284
 20
-6.0431733819
 10
4.1315205647
 20
-5.9939747648
 10
4.1445197204
 20
-5.9470150917
 10
4.1611058477
 20
-5.9031747617
 10
4.1806581524
 20
-5.8626637532
 10
4.2025854163
 20
-5.8256604213
 10
4.225938508
 20
-5.7927837335
 10
4.2499819799
 20
-5.7640891852
 10
4.2742069923
 20
-5.7393391327
 10
4.2978450355
 20
-5.7184795935
 10
4.3203274129
 20
-5.7011657969
 10
4.3410781754
 20
-5.6871126427
 10
4.3813357281
 20
-5.6620988078
  0
LWPOLYLINE
  5
314
100
AcDbEntity
  8
0
100
AcDbPolyline
 62
7
  6
CONTINUOUS
 90
4
 70
0
 10
4.4639111188
 20
-8.3987930429
 10
4.4465751035
 20
-8.3866537216
 10
4.4114103788
 20
-8.3705329648
 10
4.4014523143
 20
-8.3668536077
  0
LWPOLYLINE
  5
315
100
AcDbEntity
  8
0
100
AcDbPolyline
 62
7
  6
CONTINUOUS
 90
7
 70
0
 10
-4.65
 20
-2.9276496264
 10
-4.6479130975
 20
-2.9233588136
 10
-4.6418667318
 20
-2.9193453918
 10
-4.6322723628
 20
-2.9156067506
 10
-4.6195322826
 20
-2.9121379666
 10
-4.6040314696
 20
-2.9089439631
 10
-4.5859227756
 20
-2.9059635054
  0
LINE
  5
316
100
AcDbEntity
  8
0
100
AcDbLine
 62
7
  6
CONTINUOUS
 10
-4.9
 20
0.1
 11
-4.7071067812
 21
0.2928932188
  0
LWPOLYLINE
  5
317
100
AcDbEntity
  8
0
100
AcDbPolyline
 62
7
  6
CONTINUOUS
 90
6
 70
0
 10
4.3917403514
 20
-2.8543078528
 10
4.4645207965
 20
-2.8394527001
 10
4.5255811242
 20
-2.8245712871
 10
4.5748046967
 20
-2.8096259331
 10
4.6119683891
 20
-2.7945849568
 10
4.6233433675
 20
-2.7885632516
  0
LWPOLYLINE
  5
318
100
AcDbEntity
  8
0
100
AcDbPolyline
 62
7
  6
CONTINUOUS
 90
9
 70
0
 10
3.4157420963
 20
-2.9729427918
 10
3.573953015
 20
-2.9580434006
 10
3.722389944
 20
-2.9431706913
 10
3.8604998295
 20
-2.9283481985
 10
3.988215126
 20
-2.9135523876
 10
4.1054818054
 20
-2.8987534304
 10
4.2120003082
 20
-2.8839490888
 10
4.3074651085
 20
-2.8691416009
 10
4.3917403514
 20
-2.8543078528
  0
LWPOLYLINE
  5
319
100
AcDbEntity
  8
0
100
AcDbPolyline
 62
7
  6
CONTINUOUS
 90
14
 70
0
 10
2.9381219151
 20
-3.152405058
 10
3.1164833277
 20
-3.1361612207
 10
3.2849816491
 20
-3.1199173835
 10
3.4430836126
 20
-3.1036735462
 10
3.5902888542
 20
-3.087429709
 10
3.7261314959
 20
-3.0711858717
 10
3.8501816202
 20
-3.0549420345
 10
3.9620466307
 20
-3.0386981972
 10
4.0613724947
 20
-3.02245436
 10
4.1478448635
 20
-3.0062105227
 10
4.2211900672
 20
-2.9899666855
 10
4.281175981
 20
-2.9737228482
 10
4.3276127599
 20
-2.957479011
 10
4.3562594245
 20
-2.9437069853
  0
LINE
  5
31A
100
AcDbEntity
  8
0
100
AcDbLine
 62
7
  6
CONTINUOUS
 10
-3.4449016442
 20
-3.4520083261
 11
-3.2664821387
 21
-3.4359973185
  0
LINE
  5
31B
100
AcDbEntity
  8
0
100
AcDbLine
 62
7
  6
CONTINUOUS
 10
3.0732736158
 20
-3.0026759399
 11
3.4157420963
 21
-2.9729427918
  0
LINE
  5
31C
100
AcDbEntity
  8
0
100
AcDbLine
 62
7
  6
CONTINUOUS
 10
2.5540971696
 20
-3.1848927325
 11
2.9381219151
 21
-3.152405058
  0
LINE
  5
31D
100
AcDbEntity
  8
0
100
AcDbLine
 62
7
  6
CONTINUOUS
 10
-2.9189925683
 20
-3.5747448265
 11
-2.5331610699
 21
-3.542257152
  0
LINE
  5
31E
100
AcDbEntity
  8
0
100
AcDbLine
 62
7
  6
CONTINUOUS
 10
-3.2664821387
 20
-3.4359973185
 11
-2.8794743109
 21
-3.403926486
  0
LINE
  5
31F
100
AcDbEntity
  8
0
100
AcDbLine
 62
7
  6
CONTINUOUS
 10
2.6988993476
 20
-3.0323586382
 11
3.0732736158
 21
-3.0026759399
  0
LINE
  5
320
100
AcDbEntity
  8
0
100
AcDbLine
 62
7
  6
CONTINUOUS
 10
2.1377650387
 20
-3.217380407
 11
2.5540971696
 21
-3.1848927325
  0
LINE
  5
321
100
AcDbEntity
  8
0
100
AcDbLine
 62
7
  6
CONTINUOUS
 10
-2.5331610699
 20
-3.542257152
 11
-2.115287009
 21
-3.5097694775
  0
LINE
  5
322
100
AcDbEntity
  8
0
100
AcDbLine
 62
7
  6
CONTINUOUS
 10
-2.8794743109
 20
-3.403926486
 11
-2.4558681973
 21
-3.3717750098
  0
LINE
  5
323
100
AcDbEntity
  8
0
100
AcDbLine
 62
7
  6
CONTINUOUS
 10
2.2950823662
 20
-3.0621083989
 11
2.6988993476
 21
-3.0323586382
  0
LINE
  5
324
100
AcDbEntity
  8
0
100
AcDbLine
 62
7
  6
CONTINUOUS
 10
-2.115287009
 20
-3.5097694775
 11
-1.6706561708
 21
-3.477281803
  0
LINE
  5
325
100
AcDbEntity
  8
0
100
AcDbLine
 62
7
  6
CONTINUOUS
 10
1.4643059452
 20
-3.2661119188
 11
2.1377650387
 21
-3.217380407
  0
LINE
  5
326
100
AcDbEntity
  8
0
100
AcDbLine
 62
7
  6
CONTINUOUS
 10
-2.4558681973
 20
-3.3717750098
 11
-2.0020791129
 21
-3.339640245
  0
LINE
  5
327
100
AcDbEntity
  8
0
100
AcDbLine
 62
7
  6
CONTINUOUS
 10
-1.6706561708
 20
-3.477281803
 11
-0.9659190896
 21
-3.4285502913
  0
LINE
  5
328
100
AcDbEntity
  8
0
100
AcDbLine
 62
7
  6
CONTINUOUS
 10
1.6408095586
 20
-3.1070187693
 11
2.2950823662
 21
-3.0621083989
  0
LINE
  5
329
100
AcDbEntity
  8
0
100
AcDbLine
 62
7
  6
CONTINUOUS
 10
-0.9659190896
 20
-3.4285502913
 11
1.4643059452
 21
-3.2661119188
  0
LINE
  5
32A
100
AcDbEntity
  8
0
100
AcDbLine
 62
7
  6
CONTINUOUS
 10
-2.0020791129
 20
-3.339640245
 11
-1.2772092743
 21
-3.2914659862
  0
LINE
  5
32B
100
AcDbEntity
  8
0
100
AcDbLine
 62
7
  6
CONTINUOUS
 10
0.0
 20
-3.2111346891
 11
1.6408095586
 21
-3.1070187693
  0
LINE
  5
32C
100
AcDbEntity
  8
0
100
AcDbLine
 62
7
  6
CONTINUOUS
 10
-1.2772092743
 20
-3.2914659862
 11
0.0
 21
-3.2111346891
  0
LINE
  5
32D
100
AcDbEntity
  8
0
100
AcDbLine
 62
7
  6
CONTINUOUS
 10
-4.0778387851
 20
-2.8817183913
 11
-4.0057954094
 21
-2.8812650138
  0
LINE
  5
32E
100
AcDbEntity
  8
0
100
AcDbLine
 62
7
  6
CONTINUOUS
 10
-4.0057954094
 20
-2.8812650138
 11
-3.9351365988
 21
-2.8812011222
  0
LINE
  5
32F
100
AcDbEntity
  8
0
100
AcDbLine
 62
7
  6
CONTINUOUS
 10
-3.9351365988
 20
-2.8812011222
 11
-3.8661838871
 21
-2.8814712844
  0
LINE
  5
330
100
AcDbEntity
  8
0
100
AcDbLine
 62
7
  6
CONTINUOUS
 10
-3.8661838871
 20
-2.8814712844
 11
-3.7665730057
 21
-2.8824215739
  0
LINE
  5
331
100
AcDbEntity
  8
0
100
AcDbLine
 62
7
  6
CONTINUOUS
 10
-3.7665730057
 20
-2.8824215739
 11
-3.6716445528
 21
-2.8839112693
  0
LINE
  5
332
100
AcDbEntity
  8
0
100
AcDbLine
 62
7
  6
CONTINUOUS
 10
-3.6716445528
 20
-2.8839112693
 11
-3.5810917435
 21
-2.8858529233
  0
LINE
  5
333
100
AcDbEntity
  8
0
100
AcDbLine
 62
7
  6
CONTINUOUS
 10
-3.5810917435
 20
-2.8858529233
 11
-3.4941390362
 21
-2.8881980969
  0
LINE
  5
334
100
AcDbEntity
  8
0
100
AcDbLine
 62
7
  6
CONTINUOUS
 10
-3.4941390362
 20
-2.8881980969
 11
-3.4099923311
 21
-2.890925868
  0
LINE
  5
335
100
AcDbEntity
  8
0
100
AcDbLine
 62
7
  6
CONTINUOUS
 10
-3.4099923311
 20
-2.890925868
 11
-3.3286345795
 21
-2.8940091465
  0
LINE
  5
336
100
AcDbEntity
  8
0
100
AcDbLine
 62
7
  6
CONTINUOUS
 10
-3.3286345795
 20
-2.8940091465
 11
-3.2503634144
 21
-2.8974123733
  0
LINE
  5
337
100
AcDbEntity
  8
0
100
AcDbLine
 62
7
  6
CONTINUOUS
 10
-3.2503634144
 20
-2.8974123733
 11
-3.175397016
 21
-2.9011011511
  0
LINE
  5
338
100
AcDbEntity
  8
0
100
AcDbLine
 62
7
  6
CONTINUOUS
 10
-3.175397016
 20
-2.9011011511
 11
-3.1038738309
 21
-2.9050433227
  0
LINE
  5
339
100
AcDbEntity
  8
0
100
AcDbLine
 62
7
  6
CONTINUOUS
 10
-3.1038738309
 20
-2.9050433227
 11
-3.0358724369
 21
-2.9092088798
  0
LINE
  5
33A
100
AcDbEntity
  8
0
100
AcDbLine
 62
7
  6
CONTINUOUS
 10
-3.0358724369
 20
-2.9092088798
 11
-2.9714182037
 21
-2.9135702772
  0
LINE
  5
33B
100
AcDbEntity
  8
0
100
AcDbLine
 62
7
  6
CONTINUOUS
 10
-2.9714182037
 20
-2.9135702772
 11
-2.930413896
 21
-2.9165746374
  0
LINE
  5
33C
100
AcDbEntity
  8
0
100
AcDbLine
 62
7
  6
CONTINUOUS
 10
-2.930413896
 20
-2.9165746374
 11
-2.8909614693
 21
-2.9196481841
  0
LINE
  5
33D
100
AcDbEntity
  8
0
100
AcDbLine
 62
7
  6
CONTINUOUS
 10
-2.8909614693
 20
-2.9196481841
 11
-2.8530273629
 21
-2.9227845523
  0
LINE
  5
33E
100
AcDbEntity
  8
0
100
AcDbLine
 62
7
  6
CONTINUOUS
 10
-2.8530273629
 20
-2.9227845523
 11
-2.8166013605
 21
-2.9259798407
  0
LINE
  5
33F
100
AcDbEntity
  8
0
100
AcDbLine
 62
7
  6
CONTINUOUS
 10
-2.8166013605
 20
-2.9259798407
 11
-2.7816379597
 21
-2.9292286509
  0
LINE
  5
340
100
AcDbEntity
  8
0
100
AcDbLine
 62
7
  6
CONTINUOUS
 10
-2.7816379597
 20
-2.9292286509
 11
-2.748089523
 21
-2.9325269139
  0
LINE
  5
341
100
AcDbEntity
  8
0
100
AcDbLine
 62
7
  6
CONTINUOUS
 10
-2.748089523
 20
-2.9325269139
 11
-2.7159220124
 21
-2.935873655
  0
LINE
  5
342
100
AcDbEntity
  8
0
100
AcDbLine
 62
7
  6
CONTINUOUS
 10
-2.7159220124
 20
-2.935873655
 11
-2.685037261
 21
-2.9392707344
  0
LINE
  5
343
100
AcDbEntity
  8
0
100
AcDbLine
 62
7
  6
CONTINUOUS
 10
-2.685037261
 20
-2.9392707344
 11
-2.6553879995
 21
-2.9427171084
  0
LINE
  5
344
100
AcDbEntity
  8
0
100
AcDbLine
 62
7
  6
CONTINUOUS
 10
-2.6553879995
 20
-2.9427171084
 11
-2.6269559284
 21
-2.9462113389
  0
LINE
  5
345
100
AcDbEntity
  8
0
100
AcDbLine
 62
7
  6
CONTINUOUS
 10
-2.6269559284
 20
-2.9462113389
 11
-2.5997188702
 21
-2.9497494878
  0
LINE
  5
346
100
AcDbEntity
  8
0
100
AcDbLine
 62
7
  6
CONTINUOUS
 10
-2.5997188702
 20
-2.9497494878
 11
-2.5736448575
 21
-2.9533293202
  0
LINE
  5
347
100
AcDbEntity
  8
0
100
AcDbLine
 62
7
  6
CONTINUOUS
 10
-2.5736448575
 20
-2.9533293202
 11
-2.5487144374
 21
-2.9569501356
  0
LWPOLYLINE
  5
348
100
AcDbEntity
  8
0
100
AcDbPolyline
 62
7
  6
CONTINUOUS
 90
45
 70
0
 10
-2.5487144374
 20
-2.9569501356
 10
-2.524883269
 20
-2.9606117239
 10
-2.5133619388
 20
-2.9624589808
 10
-2.5020986495
 20
-2.9643171691
 10
-2.4910947042
 20
-2.9661866483
 10
-2.4803282301
 20
-2.9680694432
 10
-2.4698007554
 20
-2.9699651146
 10
-2.4595135416
 20
-2.9718741019
 10
-2.4494440095
 20
-2.9737997472
 10
-2.4395932602
 20
-2.97574149
 10
-2.4299625155
 20
-2.977699891
 10
-2.420529102
 20
-2.979679974
 10
-2.4112937464
 20
-2.9816809834
 10
-2.4022576451
 20
-2.9837036749
 10
-2.3933985855
 20
-2.9857553386
 10
-2.3847168287
 20
-2.987834923
 10
-2.3762136983
 20
-2.9899434796
 10
-2.3678683646
 20
-2.9920914535
 10
-2.3596819872
 20
-2.9942767886
 10
-2.3516547144
 20
-2.9965015409
 10
-2.3437640108
 20
-2.9987823236
 10
-2.3360106028
 20
-3.001115538
 10
-2.3283948195
 20
-3.0035047828
 10
-2.3208933503
 20
-3.0059774674
 10
-2.3134846286
 20
-3.0085368036
 10
-2.3061910096
 20
-3.0111795796
 10
-2.299055105
 20
-3.0139235691
 10
-2.2920676412
 20
-3.0167687414
 10
-2.2852389009
 20
-3.0197151272
 10
-2.2786411438
 20
-3.0227805932
 10
-2.2722803939
 20
-3.0259513901
 10
-2.2661519504
 20
-3.0292412673
 10
-2.2603122914
 20
-3.0327093398
 10
-2.2547332197
 20
-3.036338637
 10
-2.2494442883
 20
-3.0401461295
 10
-2.2445889894
 20
-3.0442418451
 10
-2.2400864025
 20
-3.0486477593
 10
-2.2360190193
 20
-3.0533418966
 10
-2.2327762643
 20
-3.0583683578
 10
-2.2304095126
 20
-3.0638625852
 10
-2.2288692978
 20
-3.0696891366
 10
-2.2283941375
 20
-3.075485786
 10
-2.2291856517
 20
-3.0811979587
 10
-2.2310420764
 20
-3.0868802295
 10
-2.2335965763
 20
-3.092334097
  0
LWPOLYLINE
  5
349
100
AcDbEntity
  8
0
100
AcDbPolyline
 62
7
  6
CONTINUOUS
 90
32
 70
0
 10
4.4015580742
 20
-4.7388911164
 10
4.4013456371
 20
-4.7388156746
 10
4.3976444863
 20
-4.7374189425
 10
4.3912508981
 20
-4.7347813776
 10
4.3821532344
 20
-4.7306708705
 10
4.3699170125
 20
-4.7245804237
 10
4.3547319244
 20
-4.7161945534
 10
4.3369881475
 20
-4.7052557893
 10
4.316660352
 20
-4.6911639214
 10
4.2942504787
 20
-4.673533915
 10
4.2703154702
 20
-4.6519329493
 10
4.2451668041
 20
-4.6255217017
 10
4.2192375351
 20
-4.593348787
 10
4.1939382735
 20
-4.5555827468
 10
4.1709502519
 20
-4.5133380619
 10
4.1509270363
 20
-4.4663617946
 10
4.1349600454
 20
-4.415252332
 10
4.1243952732
 20
-4.3630112021
 10
4.1194229928
 20
-4.3107271778
 10
4.1200576011
 20
-4.2584792418
 10
4.1259870831
 20
-4.2079545457
 10
4.1365020439
 20
-4.1598845132
 10
4.1510316927
 20
-4.1143548699
 10
4.1688930035
 20
-4.0719499469
 10
4.189539091
 20
-4.0328102982
 10
4.2123947487
 20
-3.9971557993
 10
4.2365783614
 20
-3.9655189522
 10
4.2614800736
 20
-3.9378714984
 10
4.2865272811
 20
-3.9141004811
 10
4.3106660133
 20
-3.8943265177
 10
4.3332545933
 20
-3.8782042414
 10
4.3553944524
 20
-3.8644202884
  0
LINE
  5
34A
100
AcDbEntity
  8
0
100
AcDbLine
 62
7
  6
CONTINUOUS
 10
-2.6010266114
 20
-3.2531872575
 11
-2.6292594502
 21
-3.2610796873
  0
LINE
  5
34B
100
AcDbEntity
  8
0
100
AcDbLine
 62
7
  6
CONTINUOUS
 10
-2.6292594502
 20
-3.2610796873
 11
-2.6590194603
 21
-3.2692087852
  0
LINE
  5
34C
100
AcDbEntity
  8
0
100
AcDbLine
 62
7
  6
CONTINUOUS
 10
-2.6590194603
 20
-3.2692087852
 11
-2.6903645691
 21
-3.2775816964
  0
LINE
  5
34D
100
AcDbEntity
  8
0
100
AcDbLine
 62
7
  6
CONTINUOUS
 10
-2.6903645691
 20
-3.2775816964
 11
-2.7233542097
 21
-3.2862056572
  0
LINE
  5
34E
100
AcDbEntity
  8
0
100
AcDbLine
 62
7
  6
CONTINUOUS
 10
-2.7233542097
 20
-3.2862056572
 11
-2.7580006805
 21
-3.2950823753
  0
LINE
  5
34F
100
AcDbEntity
  8
0
100
AcDbLine
 62
7
  6
CONTINUOUS
 10
-2.7580006805
 20
-3.2950823753
 11
-2.8131112577
 21
-3.3088665989
  0
LINE
  5
350
100
AcDbEntity
  8
0
100
AcDbLine
 62
7
  6
CONTINUOUS
 10
-2.8131112577
 20
-3.3088665989
 11
-2.8718241656
 21
-3.3231677055
  0
LINE
  5
351
100
AcDbEntity
  8
0
100
AcDbLine
 62
7
  6
CONTINUOUS
 10
-2.8718241656
 20
-3.3231677055
 11
-2.9339558366
 21
-3.3379436577
  0
LINE
  5
352
100
AcDbEntity
  8
0
100
AcDbLine
 62
7
  6
CONTINUOUS
 10
-2.9339558366
 20
-3.3379436577
 11
-3.0217621062
 21
-3.3583199517
  0
LINE
  5
353
100
AcDbEntity
  8
0
100
AcDbLine
 62
7
  6
CONTINUOUS
 10
-3.0217621062
 20
-3.3583199517
 11
-3.114739168
 21
-3.379398573
  0
LINE
  5
354
100
AcDbEntity
  8
0
100
AcDbLine
 62
7
  6
CONTINUOUS
 10
-3.114739168
 20
-3.379398573
 11
-3.2879617261
 21
-3.4177622428
  0
LINE
  5
355
100
AcDbEntity
  8
0
100
AcDbLine
 62
7
  6
CONTINUOUS
 10
-3.2879617261
 20
-3.4177622428
 11
-3.4449016442
 21
-3.4520083261
  0
LWPOLYLINE
  5
356
100
AcDbEntity
  8
0
100
AcDbPolyline
 62
7
  6
CONTINUOUS
 90
11
 70
0
 10
-4.5859227756
 20
-2.9059635054
 10
-4.5654716675
 20
-2.9031911278
 10
-4.5429307013
 20
-2.900632296
 10
-4.5182209759
 20
-2.8982421714
 10
-4.4913791469
 20
-2.8960083615
 10
-4.4626422072
 20
-2.8939432589
 10
-4.4321238657
 20
-2.892039202
 10
-4.3998090367
 20
-2.8902912421
 10
-4.3659594837
 20
-2.8887043279
 10
-4.3311729859
 20
-2.8872856448
 10
-4.2958276356
 20
-2.8860452334
  0
LINE
  5
357
100
AcDbEntity
  8
0
100
AcDbLine
 62
7
  6
CONTINUOUS
 10
-4.2958276356
 20
-2.8860452334
 11
-4.2236981321
 21
-2.8840461666
  0
LINE
  5
358
100
AcDbEntity
  8
0
100
AcDbLine
 62
7
  6
CONTINUOUS
 10
-4.2236981321
 20
-2.8840461666
 11
-4.1507476288
 21
-2.882629662
  0
LINE
  5
359
100
AcDbEntity
  8
0
100
AcDbLine
 62
7
  6
CONTINUOUS
 10
-4.1507476288
 20
-2.882629662
 11
-4.0778387851
 21
-2.8817183913
  0
LWPOLYLINE
  5
35A
100
AcDbEntity
  8
0
100
AcDbPolyline
 62
7
  6
CONTINUOUS
 90
4
 70
0
 10
4.46400001
 20
-6.5848745689
 10
4.4616048506
 20
-6.5828000449
 10
4.4341888329
 20
-6.5662159768
 10
4.4014415497
 20
-6.5528498706
  0
LWPOLYLINE
  5
35B
100
AcDbEntity
  8
0
100
AcDbPolyline
 62
7
  6
CONTINUOUS
 90
13
 70
0
 10
-4.5166076816
 20
-3.6960235697
 10
-4.5127352081
 20
-3.691739981
 10
-4.4843450086
 20
-3.6699662526
 10
-4.4413908811
 20
-3.6481436179
 10
-4.3839253084
 20
-3.6262659955
 10
-4.3120822778
 20
-3.6043424357
 10
-4.2264398698
 20
-3.582468703
 10
-4.1276491673
 20
-3.5606991846
 10
-4.0159550586
 20
-3.5389838661
 10
-3.8914642019
 20
-3.5172619874
 10
-3.7544421266
 20
-3.4955140441
 10
-3.6054315471
 20
-3.4737623467
 10
-3.4449016442
 20
-3.4520083261
  0
LWPOLYLINE
  5
35C
100
AcDbEntity
  8
0
100
AcDbPolyline
 62
7
  6
CONTINUOUS
 90
10
 70
0
 43
0.3500000006
 10
-14.2499998169
 20
-6.1035528946
 10
-14.107143116
 20
-6.0321251106
 10
-14.0357141991
 20
-6.0321251106
 10
-13.8928574982
 20
-6.1749818115
 10
-13.8928574982
 20
-6.2464107285
 10
-13.9642852821
 20
-6.3178396454
 10
-14.0357141991
 20
-6.3178396454
 10
-14.1785709
 20
-6.2464107285
 10
-14.2499998169
 20
-6.1749818115
 10
-14.2499998169
 20
-6.1035528946
  0
LWPOLYLINE
  5
35D
100
AcDbEntity
  8
0
100
AcDbPolyline
 62
7
  6
CONTINUOUS
 90
4
 70
0
 10
4.4640018244
 20
-4.7708755752
 10
4.4544795807
 20
-4.76352607
 10
4.4230088219
 20
-4.7471990762
 10
4.4015580742
 20
-4.7388911164
  0
LWPOLYLINE
  5
35E
100
AcDbEntity
  8
0
100
AcDbPolyline
 62
7
  6
CONTINUOUS
 90
34
 70
0
 10
-2.2335965763
 20
-3.092334097
 10
-2.2368214421
 20
-3.0974757926
 10
-2.2407427743
 20
-3.1023890849
 10
-2.2450748641
 20
-3.1071267783
 10
-2.249766081
 20
-3.1116881968
 10
-2.2548665935
 20
-3.1160740163
 10
-2.2602440021
 20
-3.1203390686
 10
-2.2658677542
 20
-3.124485506
 10
-2.2717671605
 20
-3.1285111762
 10
-2.2778999382
 20
-3.1324644542
 10
-2.2842767907
 20
-3.1363615522
 10
-2.290885726
 20
-3.1401862581
 10
-2.2976506876
 20
-3.1439383102
 10
-2.3045648995
 20
-3.1476165295
 10
-2.3116341752
 20
-3.1512220949
 10
-2.3188016993
 20
-3.1547582816
 10
-2.3260471913
 20
-3.1582184819
 10
-2.3333902766
 20
-3.1616093036
 10
-2.340834146
 20
-3.1649538446
 10
-2.3483683139
 20
-3.1682510972
 10
-2.3560025286
 20
-3.1715020693
 10
-2.3637701964
 20
-3.1747328822
 10
-2.3716707394
 20
-3.1779459902
 10
-2.3797036917
 20
-3.1811389392
 10
-2.3879023749
 20
-3.1843304882
 10
-2.3962655488
 20
-3.1875219722
 10
-2.4047930768
 20
-3.1907120562
 10
-2.4135196495
 20
-3.1939154951
 10
-2.4224440077
 20
-3.1971332251
 10
-2.4315656249
 20
-3.20036431
 10
-2.4409199587
 20
-3.2036206955
 10
-2.4505056638
 20
-3.2069030921
 10
-2.4603218031
 20
-3.2102107894
 10
-2.4704040661
 20
-3.2135536018
  0
LINE
  5
35F
100
AcDbEntity
  8
0
100
AcDbLine
 62
250
  6
CONTINUOUS
 10
4.65
 20
-0.3330127019
 11
-4.65
 21
-0.3330127019
  0
LWPOLYLINE
  5
360
100
AcDbEntity
  8
0
100
AcDbPolyline
 62
7
  6
CONTINUOUS
 90
4
 70
0
 43
0.3500000006
 10
-24.1785716858
 20
-0.0000003204
 10
-25.0357141571
 20
-0.0000003204
 10
-25.4642853928
 20
0.4285709152
 10
-25.4642853928
 20
1.0714289017
  0
LINE
  5
361
100
AcDbEntity
  8
0
100
AcDbLine
 62
7
  6
CONTINUOUS
 10
4.9
 20
0.1
 11
-4.9
 21
0.1
  0
LWPOLYLINE
  5
362
100
AcDbEntity
  8
0
100
AcDbPolyline
 62
7
  6
CONTINUOUS
 90
24
 70
0
 10
-4.4639999135
 20
-5.6778742342
 10
-4.486036148
 20
-5.6990238306
 10
-4.5173280764
 20
-5.7332039176
 10
-4.5470079281
 20
-5.7714004743
 10
-4.5735709968
 20
-5.8122755307
 10
-4.5964722042
 20
-5.855230995
 10
-4.6156397257
 20
-5.9004889891
 10
-4.6306518562
 20
-5.947572282
 10
-4.641374894
 20
-5.9961643412
 10
-4.6477127789
 20
-6.0458730161
 10
-4.6495768009
 20
-6.0959718481
 10
-4.6469639121
 20
-6.146044722
 10
-4.6398718621
 20
-6.1956794486
 10
-4.6283867207
 20
-6.2441564917
 10
-4.6125887148
 20
-6.2911069252
 10
-4.5926352894
 20
-6.3361976239
 10
-4.5689954322
 20
-6.3788988201
 10
-4.5417391664
 20
-6.4194391838
 10
-4.5114241804
 20
-6.4572308228
 10
-4.4796300862
 20
-6.4909118313
 10
-4.4470758204
 20
-6.5205556745
 10
-4.4139975002
 20
-6.5466460657
 10
-4.3815520732
 20
-6.5689601362
 10
-4.3412308056
 20
-6.5940158946
  0
LWPOLYLINE
  5
363
100
AcDbEntity
  8
0
100
AcDbPolyline
 62
7
  6
CONTINUOUS
 90
25
 70
0
 10
-4.4209119362
 20
-3.8280709575
 10
-4.4538057958
 20
-3.8547851707
 10
-4.4860361524
 20
-3.8850232387
 10
-4.5173280783
 20
-3.9192033228
 10
-4.5470079281
 20
-3.9573998766
 10
-4.5735709956
 20
-3.9982749307
 10
-4.5964722025
 20
-4.0412303935
 10
-4.6156397239
 20
-4.0864883869
 10
-4.6306518544
 20
-4.1335716795
 10
-4.641374892
 20
-4.1821637389
 10
-4.6477127767
 20
-4.2318724142
 10
-4.6495767982
 20
-4.2819712467
 10
-4.6469639089
 20
-4.3320441211
 10
-4.639871858
 20
-4.3816788481
 10
-4.6283867157
 20
-4.4301558912
 10
-4.6125887087
 20
-4.4771063242
 10
-4.5926352824
 20
-4.522197022
 10
-4.5689954247
 20
-4.5648982164
 10
-4.5417391592
 20
-4.6054385773
 10
-4.5114241744
 20
-4.6432302128
 10
-4.4796300823
 20
-4.6769112175
 10
-4.4470758194
 20
-4.7065550568
 10
-4.413997503
 20
-4.7326454438
 10
-4.3815520813
 20
-4.7549595098
 10
-4.3553638893
 20
-4.7709450694
  0
LWPOLYLINE
  5
364
100
AcDbEntity
  8
0
100
AcDbPolyline
 62
7
  6
CONTINUOUS
 90
3
 70
0
 10
-4.3563422921
 20
-3.7851837475
 10
-4.3885727301
 20
-3.8051818197
 10
-4.4209119362
 20
-3.8280709575
  0
LINE
  5
365
100
AcDbEntity
  8
0
100
AcDbLine
 62
7
  6
CONTINUOUS
 10
-4.7071067812
 20
0.2928932188
 11
4.7071067812
 21
0.2928932188
  0
LINE
  5
366
100
AcDbEntity
  8
0
100
AcDbLine
 62
250
  6
CONTINUOUS
 10
5.0
 20
1.0
 11
-5.0
 21
1.0
  0
LINE
  5
367
100
AcDbEntity
  8
0
100
AcDbLine
 62
7
  6
CONTINUOUS
 10
4.4209119646
 20
-2.9210713452
 11
4.409327566
 21
-2.912872106
  0
LWPOLYLINE
  5
368
100
AcDbEntity
  8
0
100
AcDbPolyline
 62
7
  6
CONTINUOUS
 90
13
 70
0
 43
0.3500000006
 10
1.447802207
 20
23.6071445618
 10
1.447802207
 20
24.8928560028
 10
1.6620879664
 20
25.3214295044
 10
2.0906593437
 20
25.7499984741
 10
2.3049451032
 20
25.7499984741
 10
2.7335164804
 20
25.3214295044
 10
2.9478020983
 20
24.8928560028
 10
2.9478020983
 20
23.6071445618
 10
2.7335164804
 20
23.1785710602
 10
2.3049451032
 20
22.7500020905
 10
2.0906593437
 20
22.7500020905
 10
1.6620879664
 20
23.1785710602
 10
1.447802207
 20
23.6071445618
  0
LWPOLYLINE
  5
369
100
AcDbEntity
  8
0
100
AcDbPolyline
 62
7
  6
CONTINUOUS
 90
4
 70
0
 10
-4.4639999135
 20
-5.6778742342
 10
-4.4459240934
 20
-5.6652843957
 10
-4.4099968405
 20
-5.648993998
 10
-4.4015873354
 20
-5.6459016017
  0
LWPOLYLINE
  5
36A
100
AcDbEntity
  8
0
100
AcDbPolyline
 62
7
  6
CONTINUOUS
 90
14
 70
0
 10
-4.3563422921
 20
-3.7851837475
 10
-4.3234109913
 20
-3.7696708736
 10
-4.2755548028
 20
-3.7534270363
 10
-4.2141672866
 20
-3.7371831991
 10
-4.1394427223
 20
-3.7209393618
 10
-4.0516175986
 20
-3.7046955245
 10
-3.9509698649
 20
-3.6884516873
 10
-3.8378180521
 20
-3.67220785
 10
-3.712520264
 20
-3.6559640128
 10
-3.5754730439
 20
-3.6397201755
 10
-3.4271101204
 20
-3.6234763383
 10
-3.2679010336
 20
-3.607232501
 10
-3.0983496503
 20
-3.5909886638
 10
-2.9189925683
 20
-3.5747448265
  0
LWPOLYLINE
  5
36B
100
AcDbEntity
  8
0
100
AcDbPolyline
 62
7
  6
CONTINUOUS
 90
24
 70
0
 10
-4.4640083146
 20
-7.4918818678
 10
-4.4850023543
 20
-7.5119821875
 10
-4.5155497774
 20
-7.5451112629
 10
-4.5445616911
 20
-7.5819920116
 10
-4.5708185859
 20
-7.6216641837
 10
-4.5938070113
 20
-7.663733462
 10
-4.6133128895
 20
-7.7083273593
 10
-4.6288285268
 20
-7.7549603762
 10
-4.6401473687
 20
-7.8033484893
 10
-4.647117079
 20
-7.8531173713
 10
-4.649587793
 20
-7.9034968024
 10
-4.6475108029
 20
-7.9540870766
 10
-4.6408379275
 20
-8.0044400752
 10
-4.6296394701
 20
-8.0537015094
 10
-4.613987189
 20
-8.1014729281
 10
-4.5940157394
 20
-8.1474038719
 10
-4.5702331175
 20
-8.1908663355
 10
-4.5427344691
 20
-8.2320825578
 10
-4.5120960131
 20
-8.2704594765
 10
-4.4799776633
 20
-8.3045709063
 10
-4.4471569032
 20
-8.3344870062
 10
-4.4138745508
 20
-8.3607363293
 10
-4.3813022911
 20
-8.38312064
 10
-4.3553784382
 20
-8.3989371948
  0
LINE
  5
36C
100
AcDbEntity
  8
0
100
AcDbLine
 62
7
  6
CONTINUOUS
 10
-2.4704040661
 20
-3.2135536018
 11
-2.4913611383
 21
-3.2203457319
  0
LINE
  5
36D
100
AcDbEntity
  8
0
100
AcDbLine
 62
7
  6
CONTINUOUS
 10
-2.4913611383
 20
-3.2203457319
 11
-2.5134756038
 21
-3.2273030564
  0
LINE
  5
36E
100
AcDbEntity
  8
0
100
AcDbLine
 62
7
  6
CONTINUOUS
 10
-2.5134756038
 20
-3.2273030564
 11
-2.5368062892
 21
-3.2344401906
  0
LINE
  5
36F
100
AcDbEntity
  8
0
100
AcDbLine
 62
7
  6
CONTINUOUS
 10
-2.5368062892
 20
-3.2344401906
 11
-2.5614460978
 21
-3.2417772121
  0
LWPOLYLINE
  5
370
100
AcDbEntity
  8
0
100
AcDbPolyline
 62
7
  6
CONTINUOUS
 90
3
 70
0
 10
-2.5614460978
 20
-3.2417772121
 10
-2.587480232
 20
-3.2493289228
 10
-2.6010266114
 20
-3.2531872575
  0
LWPOLYLINE
  5
371
100
AcDbEntity
  8
0
100
AcDbPolyline
 62
7
  6
CONTINUOUS
 90
9
 70
0
 10
4.6459281412
 20
-10.5627526998
 10
4.6367206422
 20
-10.507454035
 10
4.622505759
 20
-10.4551933029
 10
4.6034559641
 20
-10.4054359588
 10
4.579867495
 20
-10.3582180013
 10
4.5523578007
 20
-10.3140423487
 10
4.5222548096
 20
-10.2741069966
 10
4.4905335053
 20
-10.238615859
 10
4.4639101342
 20
-10.2127925899
  0
LWPOLYLINE
  5
372
100
AcDbEntity
  8
0
100
AcDbPolyline
 62
7
  6
CONTINUOUS
 90
3
 70
0
 10
-4.2178891333
 20
-10.9405134295
 10
-4.2406645259
 20
-10.9693289849
 10
-4.2561857826
 20
-10.9866135392
  0
LWPOLYLINE
  5
373
100
AcDbEntity
  8
0
100
AcDbPolyline
 62
7
  6
CONTINUOUS
 90
22
 70
0
 10
-4.4639104897
 20
-9.3057925378
 10
-4.4905335062
 20
-9.3316154838
 10
-4.52225481
 20
-9.3671066211
 10
-4.5523578008
 20
-9.4070419731
 10
-4.5798674947
 20
-9.4512176256
 10
-4.6034559634
 20
-9.4984355832
 10
-4.622505758
 20
-9.5481929275
 10
-4.6367206407
 20
-9.60045366
 10
-4.6457646226
 20
-9.6543458644
 10
-4.6494975071
 20
-9.709453784
 10
-4.6477569705
 20
-9.7651472335
 10
-4.6405296298
 20
-9.8201426638
 10
-4.6279049989
 20
-9.8738310637
 10
-4.6099505342
 20
-9.9257563454
 10
-4.5871028709
 20
-9.9750148193
 10
-4.5595940654
 20
-10.0217429891
 10
-4.5280901058
 20
-10.0652533546
 10
-4.4943736479
 20
-10.1039455738
 10
-4.4592771681
 20
-10.1379495317
 10
-4.4232549167
 20
-10.1677091934
 10
-4.3879471274
 20
-10.1927929431
 10
-4.3554100752
 20
-10.2129184016
  0
LWPOLYLINE
  5
374
100
AcDbEntity
  8
0
100
AcDbPolyline
 62
7
  6
CONTINUOUS
 90
4
 70
0
 10
-4.4640083146
 20
-7.4918818678
 10
-4.4553209327
 20
-7.4850961701
 10
-4.4242567415
 20
-7.4687311113
 10
-4.4014595375
 20
-7.4598564675
  0
LWPOLYLINE
  5
375
100
AcDbEntity
  8
0
100
AcDbPolyline
 62
7
  6
CONTINUOUS
 90
12
 70
0
 10
-4.4015873354
 20
-5.6459016017
 10
-4.360034841
 20
-5.632704219
 10
-4.2962159416
 20
-5.6164190308
 10
-4.218734237
 20
-5.6001344614
 10
-4.1275524202
 20
-5.5838028776
 10
-4.0227372764
 20
-5.5674081307
 10
-3.904597284
 20
-5.5509663694
 10
-3.7734120928
 20
-5.534478407
 10
-3.6292661146
 20
-5.5179179818
 10
-3.4727305583
 20
-5.5013113555
 10
-3.3050572595
 20
-5.4847381262
 10
-3.1270466277
 20
-5.4682145765
  0
LINE
  5
376
100
AcDbEntity
  8
0
100
AcDbLine
 62
7
  6
CONTINUOUS
 10
4.9
 20
0.1
 11
4.7071067812
 21
0.2928932188
  0
LINE
  5
377
100
AcDbEntity
  8
0
100
AcDbLine
 62
7
  6
CONTINUOUS
 10
4.65
 20
-2.7576349615
 11
4.65
 21
-0.3330127019
  0
LINE
  5
378
100
AcDbEntity
  8
0
100
AcDbLine
 62
7
  6
CONTINUOUS
 10
5.0
 20
1.0
 11
5.0
 21
10.2360679775
  0
LINE
  5
379
100
AcDbEntity
  8
0
100
AcDbLine
 62
7
  6
CONTINUOUS
 10
4.6459281509
 20
-10.562752623
 11
4.6459213213
 21
-10.5637341593
  0
LWPOLYLINE
  5
37A
100
AcDbEntity
  8
0
100
AcDbPolyline
 62
7
  6
CONTINUOUS
 90
4
 70
0
 10
-4.4639104897
 20
-9.3057925378
 10
-4.4468828854
 20
-9.2938297055
 10
-4.4117766828
 20
-9.2776733114
 10
-4.4014521388
 20
-9.2738532821
  0
LWPOLYLINE
  5
37B
100
AcDbEntity
  8
0
100
AcDbPolyline
 62
7
  6
CONTINUOUS
 90
4
 70
0
 10
4.6233433675
 20
-2.7885632516
 10
4.6366951852
 20
-2.7794800395
 10
4.6487353173
 20
-2.7643685442
 10
4.65
 20
-2.7576349615
  0
LINE
  5
37C
100
AcDbEntity
  8
0
100
AcDbLine
 62
7
  6
CONTINUOUS
 10
4.3562594245
 20
-2.9437069853
 11
4.6233433675
 21
-2.7885632516
  0
LWPOLYLINE
  5
37D
100
AcDbEntity
  8
0
100
AcDbPolyline
 62
7
  6
CONTINUOUS
 90
25
 70
0
 10
4.3553640643
 20
-3.8639453002
 10
4.3815521157
 20
-3.8479598231
 10
4.4139975279
 20
-3.8256457651
 10
4.4470758372
 20
-3.7995553851
 10
4.4796300949
 20
-3.7699115525
 10
4.5114241828
 20
-3.7362305544
 10
4.5417391649
 20
-3.6984389251
 10
4.5689954292
 20
-3.6578985694
 10
4.5926352871
 20
-3.6151973782
 10
4.6125887145
 20
-3.5701066823
 10
4.6283867228
 20
-3.5231562501
 10
4.6398718664
 20
-3.4746792071
 10
4.6469639183
 20
-3.4250444794
 10
4.6495768083
 20
-3.3749716041
 10
4.647712787
 20
-3.3248727707
 10
4.6413749021
 20
-3.2751640945
 10
4.6306518639
 20
-3.2265720349
 10
4.6156397329
 20
-3.1794887428
 10
4.596472211
 20
-3.1342307507
 10
4.5735710043
 20
-3.0912752904
 10
4.5470079382
 20
-3.0504002408
 10
4.5173280914
 20
-3.0122036925
 10
4.4860361695
 20
-2.9780236143
 10
4.4538058179
 20
-2.9477855521
 10
4.4209119646
 20
-2.9210713452
  0
LINE
  5
37E
100
AcDbEntity
  8
0
100
AcDbLine
 62
7
  6
CONTINUOUS
 10
4.3555776176
 20
-3.8643142788
 11
4.3553944685
 21
-3.8644202791
  0
LWPOLYLINE
  5
37F
100
AcDbEntity
  8
0
100
AcDbPolyline
 62
250
  6
CONTINUOUS
 90
13
 70
0
 10
4.3553944685
 20
-3.8644202791
 10
4.3147822877
 20
-3.8828011143
 10
4.262289308
 20
-3.8996223832
 10
4.1959196544
 20
-3.916309996
 10
4.1160026909
 20
-3.9329082579
 10
4.0226735639
 20
-3.9494752629
 10
3.9163593791
 20
-3.9660045506
 10
3.7974485102
 20
-3.9825025815
 10
3.6657555716
 20
-3.9990468317
 10
3.5214126708
 20
-4.0156591515
 10
3.3649641365
 20
-4.0323176906
 10
3.196711449
 20
-4.0490343743
 10
3.0167458619
 20
-4.0658416976
  0
LWPOLYLINE
  5
380
100
AcDbEntity
  8
0
100
AcDbPolyline
 62
7
  6
CONTINUOUS
 90
13
 70
0
 10
-4.4014595375
 20
-7.4598564675
 10
-4.3790499441
 20
-7.4523876397
 10
-4.3200111909
 20
-7.4360929205
 10
-4.2473201105
 20
-7.4198197886
 10
-4.1609360037
 20
-7.4035111573
 10
-4.0607860411
 20
-7.3871269794
 10
-3.9473022427
 20
-7.3707073021
 10
-3.8212764765
 20
-7.3543151804
 10
-3.6835052128
 20
-7.3379877793
 10
-3.5342181944
 20
-7.3216879336
 10
-3.3734560868
 20
-7.3053672029
 10
-3.2014160212
 20
-7.2890002764
 10
-3.0188510149
 20
-7.2726124649
  0
LWPOLYLINE
  5
381
100
AcDbEntity
  8
0
100
AcDbPolyline
 62
7
  6
CONTINUOUS
 90
20
 70
0
 10
4.6459213213
 20
-10.5637341593
 10
4.6458805605
 20
-10.563988877
 10
4.6446629819
 20
-10.5664489462
 10
4.6418359882
 20
-10.5689961714
 10
4.6372494775
 20
-10.5716290363
 10
4.6307414548
 20
-10.5743506832
 10
4.6221473983
 20
-10.577160958
 10
4.6113003876
 20
-10.5800593825
 10
4.5980195108
 20
-10.5830485597
 10
4.58212497
 20
-10.5861282103
 10
4.5634362163
 20
-10.5892978011
 10
4.5417594159
 20
-10.5925594924
 10
4.5169250653
 20
-10.5959100717
 10
4.4887263826
 20
-10.5993517295
 10
4.4568865911
 20
-10.6028946218
 10
4.421293305
 20
-10.6065276519
 10
4.3816455106
 20
-10.6102605799
 10
4.3372628043
 20
-10.6141345151
 10
4.2878177215
 20
-10.6181485912
 10
4.2330029188
 20
-10.6223014727
  0
LWPOLYLINE
  5
382
100
AcDbEntity
  8
0
100
AcDbPolyline
 62
7
  6
CONTINUOUS
 90
23
 70
0
 10
4.3813357281
 20
-5.6620988078
 10
4.4137735918
 20
-5.6398101172
 10
4.4468711279
 20
-5.6137283799
 10
4.4794747572
 20
-5.5840635822
 10
4.5113498026
 20
-5.5503156403
 10
4.5417582933
 20
-5.512412782
 10
4.5690961459
 20
-5.4717337411
 10
4.592800742
 20
-5.4288644608
 10
4.6127937851
 20
-5.3835785378
 10
4.6285912823
 20
-5.3364385094
 10
4.6400408933
 20
-5.2877824237
 10
4.6470658083
 20
-5.237985422
 10
4.6495842741
 20
-5.1878071154
 10
4.6476123268
 20
-5.1376648145
 10
4.6411668152
 20
-5.0879733357
 10
4.6303585045
 20
-5.0394857398
 10
4.6153008199
 20
-4.9925766531
 10
4.5961522391
 20
-4.9475623022
 10
4.5733859436
 20
-4.9049619527
 10
4.547180146
 20
-4.8646420096
 10
4.5180443328
 20
-4.8270520212
 10
4.4872566427
 20
-4.7932598034
 10
4.4640018244
 20
-4.7708755752
  0
LINE
  5
383
100
AcDbEntity
  8
0
100
AcDbLine
 62
7
  6
CONTINUOUS
 10
4.3555821348
 20
-5.678312033
 11
4.3554804062
 21
-5.6783709565
  0
LWPOLYLINE
  5
384
100
AcDbEntity
  8
0
100
AcDbPolyline
 62
250
  6
CONTINUOUS
 90
14
 70
0
 10
4.3554804062
 20
-5.6783709565
 10
4.3510751175
 20
-5.6808289999
 10
4.3131899009
 20
-5.6973907803
 10
4.2609167712
 20
-5.7140080212
 10
4.1944311183
 20
-5.7306480455
 10
4.1141893173
 20
-5.7472549588
 10
4.0207882457
 20
-5.7637875711
 10
3.9144322166
 20
-5.7802870724
 10
3.7950320976
 20
-5.7968211381
 10
3.6625866142
 20
-5.8134273456
 10
3.5177137551
 20
-5.8300681175
 10
3.3612597035
 20
-5.8466983971
 10
3.193947113
 20
-5.8633006788
 10
3.0161910059
 20
-5.8798924682
  0
LWPOLYLINE
  5
385
100
AcDbEntity
  8
0
100
AcDbPolyline
 62
7
  6
CONTINUOUS
 90
13
 70
0
 10
-4.4014521388
 20
-9.2738532821
 10
-4.3629628632
 20
-9.2615473236
 10
-4.3006033932
 20
-9.2454359638
 10
-4.2248454112
 20
-9.2293228536
 10
-4.1360680731
 20
-9.2132329178
 10
-4.0344359107
 20
-9.1971412317
 10
-3.919578717
 20
-9.1809566432
 10
-3.7912143255
 20
-9.1646271832
 10
-3.6498915293
 20
-9.1482048208
 10
-3.4964899524
 20
-9.1317543101
 10
-3.3314028292
 20
-9.1152712859
 10
-3.1551503167
 20
-9.0987601136
 10
-2.969157533
 20
-9.0822986423
  0
LINE
  5
386
100
AcDbEntity
  8
0
100
AcDbLine
 62
7
  6
CONTINUOUS
 10
2.95
 20
-11.0
 11
1.5
 21
-13.3228756555
  0
LWPOLYLINE
  5
387
100
AcDbEntity
  8
0
100
AcDbPolyline
 62
7
  6
CONTINUOUS
 90
24
 70
0
 10
4.35536406
 20
-7.4919458275
 10
4.3815520926
 20
-7.4759603598
 10
4.4139975153
 20
-7.4536462927
 10
4.4470758324
 20
-7.4275559045
 10
4.4796300958
 20
-7.397912064
 10
4.5114241878
 20
-7.3642310583
 10
4.5417391722
 20
-7.326439422
 10
4.5689954372
 20
-7.2858990606
 10
4.5926352941
 20
-7.2431978659
 10
4.6125887196
 20
-7.1981071681
 10
4.6283867258
 20
-7.151156735
 10
4.6398718674
 20
-7.1026796919
 10
4.6469639176
 20
-7.0530449651
 10
4.6495768063
 20
-7.0029720907
 10
4.6477127842
 20
-6.9528732583
 10
4.6413748988
 20
-6.903164583
 10
4.6306518606
 20
-6.8545725236
 10
4.6156397294
 20
-6.8074892309
 10
4.5964722073
 20
-6.7622312374
 10
4.5735709996
 20
-6.7192757744
 10
4.5470079312
 20
-6.6784007201
 10
4.5173280805
 20
-6.640204166
 10
4.4860361538
 20
-6.606024082
 10
4.46400001
 20
-6.5848745689
  0
LWPOLYLINE
  5
388
100
AcDbEntity
  8
0
100
AcDbPolyline
 62
250
  6
CONTINUOUS
 90
14
 70
0
 10
4.3555775077
 20
-7.4923145357
 10
4.3239464516
 20
-7.5072704362
 10
4.2770593605
 20
-7.5233324424
 10
4.2170926649
 20
-7.5393570491
 10
4.144397611
 20
-7.5553291074
 10
4.0592359561
 20
-7.5712637663
 10
3.9616675478
 20
-7.5872052362
 10
3.8520349792
 20
-7.6031451235
 10
3.7306089621
 20
-7.6190918219
 10
3.5971428526
 20
-7.6351147223
 10
3.4515317369
 20
-7.651251749
 10
3.294376988
 20
-7.6674649778
 10
3.1264966965
 20
-7.6837100276
 10
2.9482460093
 20
-7.6999972706
  0
LWPOLYLINE
  5
389
100
AcDbEntity
  8
0
100
AcDbPolyline
 62
7
  6
CONTINUOUS
 90
6
 70
0
 10
-4.2561956705
 20
-10.9866112074
 10
-4.252201528
 20
-10.984761118
 10
-4.2368622352
 20
-10.98157776
 10
-4.210479615
 20
-10.9779756394
 10
-4.1731296247
 20
-10.9739301558
 10
-4.1248799234
 20
-10.9694461995
  0
LWPOLYLINE
  5
38A
100
AcDbEntity
  8
0
100
AcDbPolyline
 62
7
  6
CONTINUOUS
 90
22
 70
0
 10
4.3554101803
 20
-9.3059182489
 10
4.3879471428
 20
-9.2857928436
 10
4.4232549248
 20
-9.2607091004
 10
4.4592771708
 20
-9.2309494448
 10
4.4943736466
 20
-9.196945493
 10
4.5280901018
 20
-9.1582532798
 10
4.55959406
 20
-9.1147429199
 10
4.5871028654
 20
-9.0680147548
 10
4.60995053
 20
-9.0187562841
 10
4.6279049966
 20
-8.9668310044
 10
4.6405296297
 20
-8.9131426059
 10
4.6477569723
 20
-8.8581471764
 10
4.649497511
 20
-8.8024537273
 10
4.6457646282
 20
-8.7473458075
 10
4.6367206479
 20
-8.6934536022
 10
4.6225057662
 20
-8.6411928687
 10
4.6034559725
 20
-8.5914355237
 10
4.5798675047
 20
-8.5442175663
 10
4.5523578118
 20
-8.5000419144
 10
4.5222548225
 20
-8.4601065638
 10
4.4905335206
 20
-8.4246154284
 10
4.4639111188
 20
-8.3987930429
  0
LINE
  5
38B
100
AcDbEntity
  8
0
100
AcDbLine
 62
7
  6
CONTINUOUS
 10
4.3556239554
 20
-9.3062876039
 11
4.3555970714
 21
-9.3063031974
  0
LWPOLYLINE
  5
38C
100
AcDbEntity
  8
0
100
AcDbPolyline
 62
250
  6
CONTINUOUS
 90
14
 70
0
 10
4.3555970714
 20
-9.3063031974
 10
4.3384865849
 20
-9.3150639731
 10
4.2954980572
 20
-9.3315414587
 10
4.2385104853
 20
-9.3480217349
 10
4.1677101882
 20
-9.3645031598
 10
4.0833159005
 20
-9.3809873752
 10
3.9853004478
 20
-9.39752108
 10
3.8737491994
 20
-9.4141207721
 10
3.7490059083
 20
-9.4307699535
 10
3.6113964396
 20
-9.4474658289
 10
3.461027122
 20
-9.4642352854
 10
3.2985171774
 20
-9.481051436
 10
3.1252112131
 20
-9.4978308242
 10
2.9419610728
 20
-9.5145560976
  0
LINE
  5
38D
100
AcDbEntity
  8
0
100
AcDbLine
 62
250
  6
CONTINUOUS
 10
5.0
 20
10.2360679775
 11
-5.0
 21
10.2360679775
  0
LINE
  5
38E
100
AcDbEntity
  8
0
100
AcDbLine
 62
250
  6
CONTINUOUS
 10
4.0
 20
12.472135955
 11
-4.0
 21
12.472135955
  0
ARC
  5
38F
100
AcDbEntity
  8
0
100
AcDbCircle
 62
7
  6
CONTINUOUS
 10
0.0
 20
8.0
 40
6.0
100
AcDbArc
 50
48.1896851042
 51
131.8103148958
  0
ARC
  5
390
100
AcDbEntity
  8
0
100
AcDbCircle
 62
7
  6
CONTINUOUS
 10
-2.0
 20
10.2360679775
 40
3.0
100
AcDbArc
 50
131.8103148958
 51
180.0
  0
ARC
  5
391
100
AcDbEntity
  8
0
100
AcDbCircle
 62
7
  6
CONTINUOUS
 10
2.0
 20
10.2360679775
 40
3.0
100
AcDbArc
 50
0.0
 51
48.1896851042
  0
ARC
  5
392
100
AcDbEntity
  8
0
100
AcDbCircle
 62
7
  6
CONTINUOUS
 10
0.0
 20
-12.0
 40
2.0
100
AcDbArc
 50
221.4096221093
 51
318.5903778907
  0
ARC
  5
393
100
AcDbEntity
  8
0
100
AcDbCircle
 62
7
  6
CONTINUOUS
 10
-4.0
 20
1.0
 40
1.0
100
AcDbArc
 50
180.0
 51
225.0
  0
ARC
  5
394
100
AcDbEntity
  8
0
100
AcDbCircle
 62
7
  6
CONTINUOUS
 10
4.0
 20
1.0
 40
1.0
100
AcDbArc
 50
315.0
 51
360.0
  0
ARC
  5
395
100
AcDbEntity
  8
0
100
AcDbCircle
 62
7
  6
CONTINUOUS
 10
4.15
 20
-10.5
 40
0.5
100
AcDbArc
 50
270.0
 51
352.6766677206
  0
ARC
  5
396
100
AcDbEntity
  8
0
100
AcDbCircle
 62
7
  6
CONTINUOUS
 10
-4.15
 20
-10.5
 40
0.5
100
AcDbArc
 50
258.3527178468
 51
270.0
  0
ARC
  5
397
100
AcDbEntity
  8
0
100
AcDbCircle
 62
7
  6
CONTINUOUS
 10
-5.15
 20
-0.3330127019
 40
0.5
100
AcDbArc
 50
0.0
 51
60.0
  0
ARC
  5
398
100
AcDbEntity
  8
0
100
AcDbCircle
 62
7
  6
CONTINUOUS
 10
5.15
 20
-0.3330127019
 40
0.5
100
AcDbArc
 50
120.0
 51
180.0
  0
ENDSEC
  0
SECTION
  2
OBJECTS
  0
DICTIONARY
  5
C
100
AcDbDictionary
280
0
281
1
  3
ACAD_GROUP
350
D
  3
ACAD_MLINESTYLE
350
17
  3
ACAD_LAYOUT
350
1A
  3
ACAD_PLOTSETTINGS
350
19
  3
ACAD_PLOTSTYLENAME
350
E
  0
DICTIONARY
  5
D
102
{ACAD_REACTORS
330
C
102
}
100
AcDbDictionary
280
0
281
1
  0
ACDBDICTIONARYWDFLT
  5
E
102
{ACAD_REACTORS
330
C
102
}
100
AcDbDictionary
281
1
  3
Normal
350
F
100
AcDbDictionaryWithDefault
340
F
  0
DICTIONARY
  5
17
102
{ACAD_REACTORS
330
C
102
}
100
AcDbDictionary
280
0
281
1
  3
Standard
350
18
  0
DICTIONARY
  5
19
102
{ACAD_REACTORS
330
C
102
}
100
AcDbDictionary
281
1
  0
DICTIONARY
  5
1A
102
{ACAD_REACTORS
330
C
102
}
100
AcDbDictionary
281
1
  3
Model
350
399
  3
Layout1
350
39A
  0
ACDBPLACEHOLDER
  5
F
102
{ACAD_REACTORS
330
E
102
}
  0
MLINESTYLE
  5
18
102
{ACAD_REACTORS
330
17
102
}
100
AcDbMlineStyle
  2
STANDARD
 70
0
  3

 62
256
 51
90.0
 52
90.0
 71
2
 49
0.5
 62
256
  6
BYLAYER
 49
-0.5
 62
256
  6
BYLAYER
  0
LAYOUT
  5
399
102
{ACAD_REACTORS
330
1A
102
}
100
AcDbPlotSettings
  1

  2
none_device
  4
ISO_A4_(297.00_x_210.00_MM)
  6

 40
0.0
 41
0.0
 42
0.0
 43
0.0
 44
297.0
 45
210.0
 46
0.0
 47
0.0
 48
0.0
 49
0.0
140
0.0
141
0.0
142
1.0
143
1.0
 70
1024
 72
1
 73
0
 74
0
  7

 75
0
147
1.0
148
0.0
149
0.0
100
AcDbLayout
  1
Model
 70
0
 71
0
 10
0.0
 20
0.0
 11
297.0
 21
210.0
 12
0.0
 22
0.0
 32
0.0
 14
0.0
 24
0.0
 34
0.0
 15
0.0
 25
0.0
 35
0.0
146
0.0
 13
0.0
 23
0.0
 33
0.0
 16
1.0
 26
0.0
 36
0.0
 17
0.0
 27
1.0
 37
0.0
 76
0
330
208
345
0
346
0
  0
LAYOUT
  5
39A
102
{ACAD_REACTORS
330
1A
102
}
100
AcDbPlotSettings
  1

  2
none_device
  4
ISO_A4_(297.00_x_210.00_MM)
  6

 40
0.0
 41
0.0
 42
0.0
 43
0.0
 44
297.0
 45
210.0
 46
0.0
 47
0.0
 48
0.0
 49
0.0
140
0.0
141
0.0
142
1.0
143
1.0
 70
0
 72
1
 73
0
 74
0
  7

 75
0
147
1.0
148
0.0
149
0.0
100
AcDbLayout
  1
Layout1
 70
0
 71
1
 10
0.0
 20
0.0
 11
297.0
 21
210.0
 12
0.0
 22
0.0
 32
0.0
 14
0.0
 24
0.0
 34
0.0
 15
0.0
 25
0.0
 35
0.0
146
0.0
 13
0.0
 23
0.0
 33
0.0
 16
1.0
 26
0.0
 36
0.0
 17
0.0
 27
1.0
 37
0.0
 76
0
330
209
345
0
346
0
  0
ENDSEC
  0
EOF
