  0
SECTION
  2
HEADER
  9
$ACADVER
  1
AC1024
  9
$DWGCODEPAGE
  3
ANSI_1252
  9
$EXTMAX
 10
297.0
 20
210.0
 30
0.0
  9
$EXTMIN
 10
0.0
 20
0.0
 30
0.0
  9
$LIMMIN
 10
0.0
 20
0.0
  9
$LIMMAX
 10
297.0
 20
210.0
  9
$VIEWCTR
 10
148.5
 20
105.0
  9
$VIEWSIZE
 40
210.0
  9
$CLAYER
  8
0
  9
$LTSCALE
 40
16.335
  9
$CELTYPE
  6
BYLAYER
  9
$DIMSCALE
 40
1.0
  9
$DIMASZ
 40
3.0
  9
$DIMEXO
 40
0.5
  9
$DIMDLI
 40
11.286
  9
$DIMEXE
 40
1.5
  9
$DIMCEN
 40
2.673
  9
$DIMLFAC
 40
1.0
  9
$DIMBLK
  1
_FILLED
  9
$DIMALT
 70
0
  9
$DIMALTF
 40
0.0393700787
  9
$DIMTXT
 40
3.0
  9
$DIMTOL
 70
1
  9
$DIMLIM
 70
0
  9
$DIMTFAC
 40
1.0
  9
$DIMTP
 40
0.01
  9
$DIMTM
 40
0.01
  9
$DIMGAP
 40
0.625
  9
$DIMDSEP
 70
44
  9
$AUNITS
 70
0
  9
$PDMODE
 70
3
  9
$PDSIZE
 40
3.0
  9
$HANDSEED
  5
60C
  9
$TILEMODE
 70
1
  9
$MEASUREMENT
 70
1
  9
$INSUNITS
 70
4
  0
ENDSEC
  0
SECTION
  2
CLASSES
  0
CLASS
  1
ACDBDICTIONARYWDFLT
  2
AcDbDictionaryWithDefault
  3
AutoCAD 2000
 90
0
 91
1
280
0
281
0
  0
CLASS
  1
ACDBPLACEHOLDER
  2
AcDbPlaceHolder
  3
AutoCAD 2000
 90
0
 91
1
280
0
281
0
  0
CLASS
  1
LAYOUT
  2
AcDbLayout
  3
AutoCAD 2000
 90
0
 91
0
280
0
281
0
  0
ENDSEC
  0
SECTION
  2
TABLES
  0
TABLE
  2
VPORT
  5
8
100
AcDbSymbolTable
 70
2
  0
VPORT
  5
1F4
100
AcDbSymbolTableRecord
100
AcDbViewportTableRecord
  2
*ACTIVE
 70
0
 10
0.0
 20
0.0
 11
1.0
 21
1.0
 12
148.5
 22
105.0
 13
0.0
 23
0.0
 14
1.0
 24
1.0
 15
0.0
 25
0.0
 16
0.0
 26
0.0
 36
1.0
 17
0.0
 27
0.0
 37
0.0
 40
210.0
 41
1.4142857143
 42
50.0
 43
0.0
 44
0.0
 50
0.0
 51
0.0
 71
0
 72
100
 73
1
 74
1
 75
0
 76
0
 77
0
 78
0
  0
ENDTAB
  0
TABLE
  2
LTYPE
  5
5
100
AcDbSymbolTable
 70
6
  0
LTYPE
  5
14
100
AcDbSymbolTableRecord
100
AcDbLinetypeTableRecord
  2
BYBLOCK
 70
0
  3

 72
65
 73
0
 40
0.0
  0
LTYPE
  5
15
100
AcDbSymbolTableRecord
100
AcDbLinetypeTableRecord
  2
BYLAYER
 70
0
  3

 72
65
 73
0
 40
0.0
  0
LTYPE
  5
16
100
AcDbSymbolTableRecord
100
AcDbLinetypeTableRecord
  2
CONTINUOUS
 70
64
  3
Solid line
 72
65
 73
0
 40
0.0
  0
LTYPE
  5
1F5
100
AcDbSymbolTableRecord
100
AcDbLinetypeTableRecord
  2
CENTER
 70
64
  3
____ _ ____ _ ____ _ ____ _ ____ _ ____ _ ____
 72
65
 73
4
 40
0.6
 49
0.375
 74
0
 49
-0.075
 74
0
 49
0.075
 74
0
 49
-0.075
 74
0
  0
LTYPE
  5
1F6
100
AcDbSymbolTableRecord
100
AcDbLinetypeTableRecord
  2
HIDDEN
 70
64
  3
- - - - - - - - - - - - - - - - - - - -
 72
65
 73
2
 40
0.2
 49
0.1
 74
0
 49
-0.1
 74
0
  0
LTYPE
  5
1F7
100
AcDbSymbolTableRecord
100
AcDbLinetypeTableRecord
  2
PHANTOM
 70
64
  3
_____ _ _ _____ _ _ _____ _ _ _____
 72
65
 73
6
 40
0.8
 49
0.45
 74
0
 49
-0.05
 74
0
 49
0.1
 74
0
 49
-0.05
 74
0
 49
0.1
 74
0
 49
-0.05
 74
0
  0
LTYPE
  5
1F8
100
AcDbSymbolTableRecord
100
AcDbLinetypeTableRecord
  2
DOT
 70
64
  3
. . . . . . . . . . . . . . . . . . . .
 72
65
 73
2
 40
0.2
 49
0.1
 74
0
 49
-0.1
 74
0
  0
LTYPE
  5
1F9
100
AcDbSymbolTableRecord
100
AcDbLinetypeTableRecord
  2
DASHED
 70
64
  3
- - - - - - - - - - - - - - - - - - - -
 72
65
 73
2
 40
0.2
 49
0.1
 74
0
 49
-0.1
 74
0
  0
ENDTAB
  0
TABLE
  2
LAYER
  5
2
100
AcDbSymbolTable
 70
36
  0
LAYER
  5
10
100
AcDbSymbolTableRecord
100
AcDbLayerTableRecord
  2
0
 70
0
 62
7
  6
CONTINUOUS
370
-3
390
F
  0
LAYER
  5
1FA
100
AcDbSymbolTableRecord
100
AcDbLayerTableRecord
  2
DEFAULT_1
 70
0
 62
7
  6
CENTER
370
-3
390
F
  0
LAYER
  5
1FB
100
AcDbSymbolTableRecord
100
AcDbLayerTableRecord
  2
DEFAULT_2
 70
0
 62
7
  6
HIDDEN
370
-3
390
F
  0
LAYER
  5
1FC
100
AcDbSymbolTableRecord
100
AcDbLayerTableRecord
  2
DEFAULT_3
 70
0
 62
7
  6
PHANTOM
370
-3
390
F
  0
LAYER
  5
1FD
100
AcDbSymbolTableRecord
100
AcDbLayerTableRecord
  2
ASSI
 70
0
 62
7
  6
CONTINUOUS
370
-3
390
F
  0
LAYER
  5
1FE
100
AcDbSymbolTableRecord
100
AcDbLayerTableRecord
  2
COLOR5
 70
0
 62
7
  6
CONTINUOUS
370
-3
390
F
  0
LAYER
  5
1FF
100
AcDbSymbolTableRecord
100
AcDbLayerTableRecord
  2
COORDINATE
 70
0
 62
7
  6
CONTINUOUS
370
-3
390
F
  0
LAYER
  5
200
100
AcDbSymbolTableRecord
100
AcDbLayerTableRecord
  2
COORD_ORIGINE
 70
0
 62
7
  6
CONTINUOUS
370
-3
390
F
  0
LAYER
  5
201
100
AcDbSymbolTableRecord
100
AcDbLayerTableRecord
  2
COPY_GEOMETRY
 70
0
 62
7
  6
CONTINUOUS
370
-3
390
F
  0
LAYER
  5
202
100
AcDbSymbolTableRecord
100
AcDbLayerTableRecord
  2
CURVE
 70
0
 62
7
  6
CONTINUOUS
370
-3
390
F
  0
LAYER
  5
203
100
AcDbSymbolTableRecord
100
AcDbLayerTableRecord
  2
DRAFT
 70
0
 62
7
  6
CONTINUOUS
370
-3
390
F
  0
LAYER
  5
204
100
AcDbSymbolTableRecord
100
AcDbLayerTableRecord
  2
IGES_INCISIONI
 70
0
 62
7
  6
CONTINUOUS
370
-3
390
F
  0
LAYER
  5
205
100
AcDbSymbolTableRecord
100
AcDbLayerTableRecord
  2
INTF_1
 70
0
 62
7
  6
CONTINUOUS
370
-3
390
F
  0
LAYER
  5
206
100
AcDbSymbolTableRecord
100
AcDbLayerTableRecord
  2
INTF_7
 70
0
 62
7
  6
CONTINUOUS
370
-3
390
F
  0
LAYER
  5
207
100
AcDbSymbolTableRecord
100
AcDbLayerTableRecord
  2
MARCHI
 70
0
 62
7
  6
CONTINUOUS
370
-3
390
F
  0
LAYER
  5
208
100
AcDbSymbolTableRecord
100
AcDbLayerTableRecord
  2
NOTE
 70
0
 62
7
  6
CONTINUOUS
370
-3
390
F
  0
LAYER
  5
209
100
AcDbSymbolTableRecord
100
AcDbLayerTableRecord
  2
PIANI
 70
0
 62
7
  6
CONTINUOUS
370
-3
390
F
  0
LAYER
  5
20A
100
AcDbSymbolTableRecord
100
AcDbLayerTableRecord
  2
PIANI_ORIGINE
 70
0
 62
7
  6
CONTINUOUS
370
-3
390
F
  0
LAYER
  5
20B
100
AcDbSymbolTableRecord
100
AcDbLayerTableRecord
  2
PIANI_PATTERN
 70
0
 62
7
  6
CONTINUOUS
370
-3
390
F
  0
LAYER
  5
20C
100
AcDbSymbolTableRecord
100
AcDbLayerTableRecord
  2
PUNTI
 70
0
 62
7
  6
CONTINUOUS
370
-3
390
F
  0
LAYER
  5
20D
100
AcDbSymbolTableRecord
100
AcDbLayerTableRecord
  2
RACCORDO
 70
0
 62
7
  6
CONTINUOUS
370
-3
390
F
  0
LAYER
  5
20E
100
AcDbSymbolTableRecord
100
AcDbLayerTableRecord
  2
RGB__255__255__255__
 70
0
 62
7
  6
CONTINUOUS
370
-3
390
F
  0
LAYER
  5
20F
100
AcDbSymbolTableRecord
100
AcDbLayerTableRecord
  2
RGB____0____0____0__
 70
0
 62
7
  6
CONTINUOUS
370
-3
390
F
  0
LAYER
  5
210
100
AcDbSymbolTableRecord
100
AcDbLayerTableRecord
  2
SKELETON
 70
0
 62
7
  6
CONTINUOUS
370
-3
390
F
  0
LAYER
  5
211
100
AcDbSymbolTableRecord
100
AcDbLayerTableRecord
  2
SMUSSO
 70
0
 62
7
  6
CONTINUOUS
370
-3
390
F
  0
LAYER
  5
212
100
AcDbSymbolTableRecord
100
AcDbLayerTableRecord
  2
SNAPLINE
 70
0
 62
7
  6
CONTINUOUS
370
-3
390
F
  0
LAYER
  5
213
100
AcDbSymbolTableRecord
100
AcDbLayerTableRecord
  2
SUPERFICI
 70
0
 62
7
  6
CONTINUOUS
370
-3
390
F
  0
LAYER
  5
214
100
AcDbSymbolTableRecord
100
AcDbLayerTableRecord
  2
TRASH
 70
0
 62
7
  6
CONTINUOUS
370
-3
390
F
  0
LAYER
  5
215
100
AcDbSymbolTableRecord
100
AcDbLayerTableRecord
  2
XSEC_DATUMS
 70
0
 62
7
  6
CONTINUOUS
370
-3
390
F
  0
ENDTAB
  0
TABLE
  2
STYLE
  5
3
100
AcDbSymbolTable
 70
1
  0
STYLE
  5
11
100
AcDbSymbolTableRecord
100
AcDbTextStyleTableRecord
  2
STANDARD
 70
0
 40
0.0
 41
0.8
 50
0.0
 71
0
 42
0.2
  3
txt
  4

  0
STYLE
  5
216
100
AcDbSymbolTableRecord
100
AcDbTextStyleTableRecord
  2
TEXTSTYLE_1
 70
0
 40
0.0
 41
0.8
 50
0.0
 71
0
 42
0.2
  3
gdt
  4

  0
ENDTAB
  0
TABLE
  2
VIEW
  5
6
100
AcDbSymbolTable
 70
0
  0
ENDTAB
  0
TABLE
  2
UCS
  5
7
100
AcDbSymbolTable
 70
0
  0
ENDTAB
  0
TABLE
  2
APPID
  5
9
100
AcDbSymbolTable
 70
1
  0
APPID
  5
217
100
AcDbSymbolTableRecord
100
AcDbRegAppTableRecord
  2
ACAD
 70
0
  0
ENDTAB
  0
TABLE
  2
BLOCK_RECORD
  5
1
100
AcDbSymbolTable
 70
0
  0
BLOCK_RECORD
  5
218
100
AcDbSymbolTableRecord
100
AcDbBlockTableRecord
  2
*Model_Space
  0
BLOCK_RECORD
  5
219
100
AcDbSymbolTableRecord
100
AcDbBlockTableRecord
  2
*Paper_Space
  0
BLOCK_RECORD
  5
21A
100
AcDbSymbolTableRecord
100
AcDbBlockTableRecord
  2
_FILLED
  0
BLOCK_RECORD
  5
21B
100
AcDbSymbolTableRecord
100
AcDbBlockTableRecord
  2
*D0
  0
BLOCK_RECORD
  5
21C
100
AcDbSymbolTableRecord
100
AcDbBlockTableRecord
  2
*D1
  0
BLOCK_RECORD
  5
21D
100
AcDbSymbolTableRecord
100
AcDbBlockTableRecord
  2
*D2
  0
ENDTAB
  0
TABLE
  2
DIMSTYLE
  5
A
100
AcDbSymbolTable
 70
1
100
AcDbDimStyleTable
 71
0
  0
DIMSTYLE
105
21E
100
AcDbSymbolTableRecord
100
AcDbDimStyleTableRecord
  2
STANDARD
 70
0
  3

  4

 40
1.0
 41
3.0
 42
0.5
 43
0.38
 44
1.5
 45
0.0
 46
0.0
 47
0.01
 48
0.01
140
3.0
141
0.09
142
0.0
143
25.4
144
1.0
145
0.0
146
1.0
147
0.625
 71
1
 72
0
 73
0
 74
0
 75
0
 76
0
 77
1
 78
8
 79
2
170
0
171
1
172
0
173
0
174
0
175
0
176
0
177
0
178
0
270
2
179
2
271
2
272
2
273
2
274
2
275
0
280
0
281
0
282
0
283
1
284
8
285
0
286
0
287
3
288
0
340
11
278
44
341
21A
342
21A
343
21A
344
21A
  0
DIMSTYLE
105
21F
100
AcDbSymbolTableRecord
100
AcDbDimStyleTableRecord
  2
DIMSTYLE_1
 70
0
  3

  4

 40
1.0
 41
3.0
 42
0.5
 43
0.38
 44
1.5
 45
0.0
 46
0.0
 47
0.0
 48
0.0
140
3.0
141
0.09
142
0.0
143
25.4
144
1.0
145
0.0
146
1.0
147
0.75
 71
0
 72
0
 73
0
 74
0
 75
0
 76
0
 77
1
 78
8
 79
2
170
0
171
1
172
0
173
0
174
0
175
0
176
0
177
0
178
0
270
2
179
2
271
2
272
2
273
2
274
2
275
0
280
0
281
0
282
0
283
1
284
8
285
0
286
0
287
3
288
0
340
11
278
44
341
21A
342
21A
343
21A
344
21A
  0
ENDTAB
  0
ENDSEC
  0
SECTION
  2
BLOCKS
  0
BLOCK
  5
20
100
AcDbEntity
  8
0
100
AcDbBlockBegin
  2
*Model_Space
 70
0
 10
0.0
 20
0.0
 30
0.0
  3
*Model_Space
  1

  0
ENDBLK
  5
21
100
AcDbEntity
  8
0
100
AcDbBlockEnd
  0
BLOCK
  5
1C
100
AcDbEntity
  8
0
100
AcDbBlockBegin
  2
*Paper_Space
 70
0
 10
0.0
 20
0.0
 30
0.0
  3
*Paper_Space
  1

  0
ENDBLK
  5
1D
100
AcDbEntity
  8
0
100
AcDbBlockEnd
  0
BLOCK
  5
220
100
AcDbEntity
  8
0
100
AcDbBlockBegin
  2
_FILLED
 70
64
 10
0.0
 20
0.0
  3
_FILLED
  1

  0
SOLID
  5
221
100
AcDbEntity
  8
0
  6
BYBLOCK
 62
0
100
AcDbTrace
 10
0.0
 20
0.0
 11
-1.0
 21
0.3166666667
 12
-1.0
 22
-0.3166666667
 13
-1.0
 23
-0.3166666667
  0
ENDBLK
  5
222
100
AcDbEntity
  8
0
  6
BYBLOCK
 62
0
100
AcDbBlockEnd
  0
BLOCK
  5
223
100
AcDbEntity
  8
0
100
AcDbBlockBegin
 62
7
  6
CONTINUOUS
  2
*D0
 70
65
 10
0.0
 20
0.0
  3
*D0
  1

  0
LINE
  5
224
100
AcDbEntity
  8
0
100
AcDbLine
 62
7
  6
CONTINUOUS
 10
-137.8568688943
 20
22.7
 11
-137.8568688943
 21
51.0000001746
  0
LINE
  5
225
100
AcDbEntity
  8
0
100
AcDbLine
 62
7
  6
CONTINUOUS
 10
-83.3568688943
 20
35.9999972577
 11
-83.3568688943
 21
51.0000001746
  0
LINE
  5
226
100
AcDbEntity
  8
0
100
AcDbLine
 62
7
  6
CONTINUOUS
 10
-137.8568688943
 20
49.5000001746
 11
-110.6068688943
 21
49.5000001746
  0
LINE
  5
227
100
AcDbEntity
  8
0
100
AcDbLine
 62
7
  6
CONTINUOUS
 10
-83.3568688943
 20
49.5000001746
 11
-110.6068688943
 21
49.5000001746
  0
INSERT
  5
228
100
AcDbEntity
  8
0
100
AcDbBlockReference
 62
7
  6
CONTINUOUS
  2
_FILLED
 10
-137.8568688943
 20
49.5000001746
 41
3.0
 42
3.0
 43
3.0
 50
180.0
  0
INSERT
  5
229
100
AcDbEntity
  8
0
100
AcDbBlockReference
 62
7
  6
CONTINUOUS
  2
_FILLED
 10
-83.3568688943
 20
49.5000001746
 41
3.0
 42
3.0
 43
3.0
  0
ENDBLK
  5
22A
100
AcDbEntity
  8
0
  6
BYBLOCK
 62
0
100
AcDbBlockEnd
  0
BLOCK
  5
22B
100
AcDbEntity
  8
0
100
AcDbBlockBegin
 62
7
  6
CONTINUOUS
  2
*D1
 70
65
 10
0.0
 20
0.0
  3
*D1
  1

  0
LINE
  5
22C
100
AcDbEntity
  8
0
100
AcDbLine
 62
7
  6
CONTINUOUS
 10
67.9999998254
 20
36.0000009498
 11
67.9999998254
 21
51.0000001746
  0
LINE
  5
22D
100
AcDbEntity
  8
0
100
AcDbLine
 62
7
  6
CONTINUOUS
 10
-67.9999998254
 20
36.0000009498
 11
-67.9999998254
 21
51.0000001746
  0
LINE
  5
22E
100
AcDbEntity
  8
0
100
AcDbLine
 62
7
  6
CONTINUOUS
 10
67.9999998254
 20
49.5000001746
 11
0.0
 21
49.5000001746
  0
LINE
  5
22F
100
AcDbEntity
  8
0
100
AcDbLine
 62
7
  6
CONTINUOUS
 10
-67.9999998254
 20
49.5000001746
 11
0.0
 21
49.5000001746
  0
INSERT
  5
230
100
AcDbEntity
  8
0
100
AcDbBlockReference
 62
7
  6
CONTINUOUS
  2
_FILLED
 10
67.9999998254
 20
49.5000001746
 41
3.0
 42
3.0
 43
3.0
  0
INSERT
  5
231
100
AcDbEntity
  8
0
100
AcDbBlockReference
 62
7
  6
CONTINUOUS
  2
_FILLED
 10
-67.9999998254
 20
49.5000001746
 41
3.0
 42
3.0
 43
3.0
 50
180.0
  0
ENDBLK
  5
232
100
AcDbEntity
  8
0
  6
BYBLOCK
 62
0
100
AcDbBlockEnd
  0
BLOCK
  5
233
100
AcDbEntity
  8
0
100
AcDbBlockBegin
 62
7
  6
CONTINUOUS
  2
*D2
 70
65
 10
0.0
 20
0.0
  3
*D2
  1

  0
LINE
  5
234
100
AcDbEntity
  8
0
100
AcDbLine
 62
7
  6
CONTINUOUS
 10
62.4999926736
 20
41.5000001746
 11
77.5
 21
41.5000001746
  0
LINE
  5
235
100
AcDbEntity
  8
0
100
AcDbLine
 62
7
  6
CONTINUOUS
 10
62.4999926736
 20
-41.5000001746
 11
77.5
 21
-41.5000001746
  0
LINE
  5
236
100
AcDbEntity
  8
0
100
AcDbLine
 62
7
  6
CONTINUOUS
 10
76.0
 20
41.5000001746
 11
76.0
 21
0.0
  0
LINE
  5
237
100
AcDbEntity
  8
0
100
AcDbLine
 62
7
  6
CONTINUOUS
 10
76.0
 20
-41.5000001746
 11
76.0
 21
0.0
  0
INSERT
  5
238
100
AcDbEntity
  8
0
100
AcDbBlockReference
 62
7
  6
CONTINUOUS
  2
_FILLED
 10
76.0
 20
41.5000001746
 41
3.0
 42
3.0
 43
3.0
 50
90.0
  0
INSERT
  5
239
100
AcDbEntity
  8
0
100
AcDbBlockReference
 62
7
  6
CONTINUOUS
  2
_FILLED
 10
76.0
 20
-41.5000001746
 41
3.0
 42
3.0
 43
3.0
 50
270.0
  0
ENDBLK
  5
23A
100
AcDbEntity
  8
0
  6
BYBLOCK
 62
0
100
AcDbBlockEnd
  0
ENDSEC
  0
SECTION
  2
ENTITIES
  0
DIMENSION
  5
23B
100
AcDbEntity
  8
0
100
AcDbDimension
 62
7
  6
CONTINUOUS
  2
*D0
 10
-83.3568688943
 20
49.5000001746
 11
-114.7854403228
 21
49.5000001746
 70
160
 71
2
 72
2
 41
0.9
 42
54.5
  3
DIMSTYLE_1
100
AcDbAlignedDimension
 13
-137.8568688943
 23
22.2
 14
-83.3568688943
 24
35.4999972577
100
AcDbRotatedDimension
  0
DIMENSION
  5
23C
100
AcDbEntity
  8
0
100
AcDbDimension
 62
7
  6
CONTINUOUS
  2
*D1
 10
-67.9999998254
 20
49.5000001746
 11
-3.1071428571
 21
49.5000001746
 70
160
 71
2
 72
2
 41
0.9
 42
135.9999996509
  3
DIMSTYLE_1
100
AcDbAlignedDimension
 13
67.9999998254
 23
35.5000009498
 14
-67.9999998254
 24
35.5000009498
 50
180.0
100
AcDbRotatedDimension
  0
DIMENSION
  5
23D
100
AcDbEntity
  8
0
100
AcDbDimension
 62
7
  6
CONTINUOUS
  2
*D2
 10
76.0
 20
-41.5000001746
 11
76.0
 21
-2.25
 70
160
 71
2
 72
2
 41
0.9
 42
83.0000003491
  3
DIMSTYLE_1
100
AcDbAlignedDimension
 13
61.9999926736
 23
41.5000001746
 14
61.9999926736
 24
-41.5000001746
 50
270.0
100
AcDbRotatedDimension
  0
LINE
  5
23E
100
AcDbEntity
  8
SUPERFICI
100
AcDbLine
 62
7
  6
CONTINUOUS
 10
-67.9999998254
 20
35.5000009498
 11
-67.9999998254
 21
-35.5000009498
  0
LINE
  5
23F
100
AcDbEntity
  8
DRAFT
100
AcDbLine
 62
7
  6
CONTINUOUS
 10
-68.0
 20
-35.5
 11
-68.0
 21
35.5
  0
LINE
  5
240
100
AcDbEntity
  8
RACCORDO
100
AcDbLine
 62
250
  6
CONTINUOUS
 10
-61.9999943184
 20
41.5000001746
 11
-61.9999943643
 21
41.3019448726
  0
LINE
  5
241
100
AcDbEntity
  8
RACCORDO
100
AcDbLine
 62
250
  6
CONTINUOUS
 10
-61.9999943643
 20
-41.3019448726
 11
-61.9999943184
 21
-41.5000001746
  0
LINE
  5
242
100
AcDbEntity
  8
0
100
AcDbLine
 62
7
  6
CONTINUOUS
 10
-61.7611776274
 20
36.622106287
 11
-61.6549273261
 21
36.6716048889
  0
LINE
  5
243
100
AcDbEntity
  8
0
100
AcDbLine
 62
7
  6
CONTINUOUS
 10
-61.6549273753
 20
-36.671604981
 11
-61.7611776175
 21
-36.6221062937
  0
LINE
  5
244
100
AcDbEntity
  8
RACCORDO
100
AcDbLine
 62
250
  6
CONTINUOUS
 10
-52.4501333992
 20
-22.2
 11
-52.4501333992
 21
22.2
  0
LINE
  5
245
100
AcDbEntity
  8
0
100
AcDbLine
 62
7
  6
CONTINUOUS
 10
-62.2388223726
 20
34.377893713
 11
-62.3450726739
 21
34.3283951111
  0
LINE
  5
246
100
AcDbEntity
  8
0
100
AcDbLine
 62
7
  6
CONTINUOUS
 10
-62.3450726247
 20
-34.328395019
 11
-62.2388223825
 21
-34.3778937063
  0
LINE
  5
247
100
AcDbEntity
  8
RACCORDO
100
AcDbLine
 62
250
  6
CONTINUOUS
 10
-50.55
 20
-24.1001427952
 11
-50.5477262872
 21
-25.8883190714
  0
LINE
  5
248
100
AcDbEntity
  8
0
100
AcDbLine
 62
7
  6
CONTINUOUS
 10
-50.85
 20
-22.2
 11
-50.85
 21
22.2
  0
LINE
  5
249
100
AcDbEntity
  8
0
100
AcDbLine
 62
7
  6
CONTINUOUS
 10
-50.7916671276
 20
-4.0
 11
-50.7916671276
 21
-3.6127659649
  0
LINE
  5
24A
100
AcDbEntity
  8
0
100
AcDbLine
 62
7
  6
CONTINUOUS
 10
-50.7916671276
 20
-3.4468084991
 11
-50.7916671276
 21
-2.7
  0
LINE
  5
24B
100
AcDbEntity
  8
RACCORDO
100
AcDbLine
 62
7
  6
CONTINUOUS
 10
-50.75
 20
14.2246901559
 11
-50.75
 21
8.2753098441
  0
LINE
  5
24C
100
AcDbEntity
  8
RACCORDO
100
AcDbLine
 62
7
  6
CONTINUOUS
 10
-50.75
 20
-8.2753098441
 11
-50.75
 21
-14.2246901559
  0
LINE
  5
24D
100
AcDbEntity
  8
RACCORDO
100
AcDbLine
 62
250
  6
CONTINUOUS
 10
-50.55
 20
24.1001427898
 11
-50.55
 21
22.5
  0
LINE
  5
24E
100
AcDbEntity
  8
RACCORDO
100
AcDbLine
 62
250
  6
CONTINUOUS
 10
-50.55
 20
-24.1001427898
 11
-50.55
 21
-22.5
  0
LINE
  5
24F
100
AcDbEntity
  8
0
100
AcDbLine
 62
7
  6
CONTINUOUS
 10
-50.5208335876
 20
-3.6127659649
 11
-50.5208335876
 21
-3.4468084991
  0
LINE
  5
250
100
AcDbEntity
  8
0
100
AcDbLine
 62
7
  6
CONTINUOUS
 10
-50.3041671276
 20
-3.5851063937
 11
-50.3041671276
 21
-3.6680851072
  0
LINE
  5
251
100
AcDbEntity
  8
0
100
AcDbLine
 62
7
  6
CONTINUOUS
 10
-50.2770835876
 20
-3.0319149315
 11
-50.2770835876
 21
-3.114893645
  0
LINE
  5
252
100
AcDbEntity
  8
0
100
AcDbLine
 62
7
  6
CONTINUOUS
 10
-50.1687500477
 20
-3.6680851072
 11
-50.1687500477
 21
-3.5851063937
  0
LINE
  5
253
100
AcDbEntity
  8
0
100
AcDbLine
 62
7
  6
CONTINUOUS
 10
-50.1416671276
 20
-3.0872340739
 11
-50.1416671276
 21
-3.0319149315
  0
LINE
  5
254
100
AcDbEntity
  8
0
100
AcDbLine
 62
7
  6
CONTINUOUS
 10
-49.4916671276
 20
-3.0319149315
 11
-49.4916671276
 21
-3.0872340739
  0
LINE
  5
255
100
AcDbEntity
  8
0
100
AcDbLine
 62
7
  6
CONTINUOUS
 10
-49.4645835876
 20
-3.5851063937
 11
-49.4645835876
 21
-3.6680851072
  0
LINE
  5
256
100
AcDbEntity
  8
0
100
AcDbLine
 62
7
  6
CONTINUOUS
 10
-49.3562500477
 20
-3.114893645
 11
-49.3562500477
 21
-3.0319149315
  0
LINE
  5
257
100
AcDbEntity
  8
0
100
AcDbLine
 62
7
  6
CONTINUOUS
 10
-49.3291671276
 20
-3.6680851072
 11
-49.3291671276
 21
-3.5851063937
  0
LINE
  5
258
100
AcDbEntity
  8
RACCORDO
100
AcDbLine
 62
250
  6
CONTINUOUS
 10
-50.55
 20
24.1001427919
 11
-50.5477262916
 21
25.8883190936
  0
LINE
  5
259
100
AcDbEntity
  8
0
100
AcDbLine
 62
7
  6
CONTINUOUS
 10
-50.3041671276
 20
-3.6680851072
 11
-50.2500000477
 21
-3.8063829824
  0
LINE
  5
25A
100
AcDbEntity
  8
0
100
AcDbLine
 62
7
  6
CONTINUOUS
 10
-49.3291671276
 20
-3.5851063937
 11
-49.3833335876
 21
-3.4468084991
  0
LINE
  5
25B
100
AcDbEntity
  8
RACCORDO
100
AcDbLine
 62
7
  6
CONTINUOUS
 10
-42.5458892987
 20
22.4
 11
-42.5476348052
 21
22.5
  0
LINE
  5
25C
100
AcDbEntity
  8
RACCORDO
100
AcDbLine
 62
7
  6
CONTINUOUS
 10
-42.5476348052
 20
-22.5
 11
-42.5458892987
 21
-22.4
  0
LINE
  5
25D
100
AcDbEntity
  8
0
100
AcDbLine
 62
7
  6
CONTINUOUS
 10
-50.2229171276
 20
-2.8936169982
 11
-50.2770835876
 21
-3.0319149315
  0
LINE
  5
25E
100
AcDbEntity
  8
0
100
AcDbLine
 62
7
  6
CONTINUOUS
 10
-50.2500000477
 20
-3.4468084991
 11
-50.3041671276
 21
-3.5851063937
  0
LINE
  5
25F
100
AcDbEntity
  8
0
100
AcDbLine
 62
7
  6
CONTINUOUS
 10
-49.3833335876
 20
-3.8063829824
 11
-49.3291671276
 21
-3.6680851072
  0
LINE
  5
260
100
AcDbEntity
  8
0
100
AcDbLine
 62
7
  6
CONTINUOUS
 10
-49.4104171276
 20
-3.2255319297
 11
-49.3562500477
 21
-3.114893645
  0
LWPOLYLINE
  5
261
100
AcDbEntity
  8
0
100
AcDbPolyline
 62
7
  6
CONTINUOUS
 90
5
 70
0
 43
0.3500000006
 10
-0.5357142924
 20
51.9642863617
 10
-0.1785714249
 20
52.1785708466
 10
-0.1785714249
 20
52.821428833
 10
-0.5357142924
 20
53.2500023346
 10
-1.3928570824
 20
53.2500023346
  0
LINE
  5
262
100
AcDbEntity
  8
0
100
AcDbLine
 62
7
  6
CONTINUOUS
 10
-50.0875000477
 20
-3.7787234113
 11
-50.1687500477
 21
-3.6680851072
  0
LINE
  5
263
100
AcDbEntity
  8
0
100
AcDbLine
 62
7
  6
CONTINUOUS
 10
-49.5458335876
 20
-3.4744680703
 11
-49.4645835876
 21
-3.5851063937
  0
LINE
  5
264
100
AcDbEntity
  8
0
100
AcDbLine
 62
7
  6
CONTINUOUS
 10
-50.0875000477
 20
-3.1702127874
 11
-50.1416671276
 21
-3.0872340739
  0
LINE
  5
265
100
AcDbEntity
  8
0
100
AcDbLine
 62
7
  6
CONTINUOUS
 10
-49.5458335876
 20
-2.9489361405
 11
-49.4916671276
 21
-3.0319149315
  0
LINE
  5
266
100
AcDbEntity
  8
0
100
AcDbLine
 62
7
  6
CONTINUOUS
 10
-50.2770835876
 20
-3.114893645
 11
-50.2229171276
 21
-3.2255319297
  0
LINE
  5
267
100
AcDbEntity
  8
0
100
AcDbLine
 62
7
  6
CONTINUOUS
 10
-49.3562500477
 20
-3.0319149315
 11
-49.4104171276
 21
-2.8936169982
  0
LINE
  5
268
100
AcDbEntity
  8
RACCORDO
100
AcDbLine
 62
7
  6
CONTINUOUS
 10
-36.6541107013
 20
-22.4
 11
-36.6523651948
 21
-22.5
  0
LINE
  5
269
100
AcDbEntity
  8
RACCORDO
100
AcDbLine
 62
7
  6
CONTINUOUS
 10
-36.6523651948
 20
22.5
 11
-36.6541107013
 21
22.4
  0
LINE
  5
26A
100
AcDbEntity
  8
0
100
AcDbLine
 62
7
  6
CONTINUOUS
 10
-50.1416671276
 20
-3.0319149315
 11
-50.0875000477
 21
-2.9489361405
  0
LINE
  5
26B
100
AcDbEntity
  8
0
100
AcDbLine
 62
7
  6
CONTINUOUS
 10
-49.4916671276
 20
-3.0872340739
 11
-49.5458335876
 21
-3.1702127874
  0
LINE
  5
26C
100
AcDbEntity
  8
0
100
AcDbLine
 62
7
  6
CONTINUOUS
 10
-50.1687500477
 20
-3.5851063937
 11
-50.0875000477
 21
-3.4744680703
  0
LINE
  5
26D
100
AcDbEntity
  8
0
100
AcDbLine
 62
7
  6
CONTINUOUS
 10
-49.4645835876
 20
-3.6680851072
 11
-49.5458335876
 21
-3.7787234113
  0
LWPOLYLINE
  5
26E
100
AcDbEntity
  8
0
100
AcDbPolyline
 62
7
  6
CONTINUOUS
 90
3
 70
0
 43
0.3500000006
 10
-3.1071428747
 20
52.3928553314
 10
-2.2499999785
 20
53.2500023346
 10
-2.2499999785
 20
50.2500014191
  0
LINE
  5
26F
100
AcDbEntity
  8
SUPERFICI
100
AcDbLine
 62
7
  6
CONTINUOUS
 10
-61.9999926736
 20
-41.5000001746
 11
61.9999926736
 21
-41.5000001746
  0
LINE
  5
270
100
AcDbEntity
  8
DRAFT
100
AcDbLine
 62
7
  6
CONTINUOUS
 10
62.0
 20
-41.5
 11
-62.0
 21
-41.5
  0
LINE
  5
271
100
AcDbEntity
  8
RACCORDO
100
AcDbLine
 62
250
  6
CONTINUOUS
 10
-17.0050663232
 20
-41.298654191
 11
17.0050663232
 21
-41.298654191
  0
LINE
  5
272
100
AcDbEntity
  8
RACCORDO
100
AcDbLine
 62
250
  6
CONTINUOUS
 10
-17.0050070024
 20
-39.938538751
 11
17.0050070024
 21
-39.938538751
  0
LINE
  5
273
100
AcDbEntity
  8
0
100
AcDbLine
 62
7
  6
CONTINUOUS
 10
-50.2500000477
 20
-3.8063829824
 11
-50.1687500477
 21
-3.8893617056
  0
LINE
  5
274
100
AcDbEntity
  8
0
100
AcDbLine
 62
7
  6
CONTINUOUS
 10
-50.2229171276
 20
-3.2255319297
 11
-50.1416671276
 21
-3.3085106432
  0
LINE
  5
275
100
AcDbEntity
  8
0
100
AcDbLine
 62
7
  6
CONTINUOUS
 10
-49.4104171276
 20
-2.8936169982
 11
-49.4916671276
 21
-2.8106382847
  0
LINE
  5
276
100
AcDbEntity
  8
0
100
AcDbLine
 62
7
  6
CONTINUOUS
 10
-50.1416671276
 20
-2.8106382847
 11
-50.2229171276
 21
-2.8936169982
  0
LINE
  5
277
100
AcDbEntity
  8
0
100
AcDbLine
 62
7
  6
CONTINUOUS
 10
-49.4916671276
 20
-3.3085106432
 11
-49.4104171276
 21
-3.2255319297
  0
LINE
  5
278
100
AcDbEntity
  8
0
100
AcDbLine
 62
7
  6
CONTINUOUS
 10
-49.4645835876
 20
-3.8893617056
 11
-49.3833335876
 21
-3.8063829824
  0
LWPOLYLINE
  5
279
100
AcDbEntity
  8
0
100
AcDbPolyline
 62
7
  6
CONTINUOUS
 90
10
 70
0
 43
0.3500000006
 10
1.8214286013
 20
53.2500023346
 10
1.1785713937
 20
52.6071443481
 10
0.7500000165
 20
51.7500018768
 10
0.7500000165
 20
50.6785703888
 10
1.1785713937
 20
50.2500014191
 10
1.8214286013
 20
50.2500014191
 10
2.2499999785
 20
50.6785703888
 10
2.2499999785
 20
51.5357128601
 10
1.8214286013
 20
51.9642863617
 10
0.8928571422
 20
51.9642863617
  0
LINE
  5
27A
100
AcDbEntity
  8
0
100
AcDbLine
 62
7
  6
CONTINUOUS
 10
64.8321553217
 20
-36.1
 11
62.4538073666
 21
-36.1
  0
LINE
  5
27B
100
AcDbEntity
  8
0
100
AcDbLine
 62
7
  6
CONTINUOUS
 10
61.5461926334
 20
-36.1
 11
59.1678446783
 21
-36.1
  0
LINE
  5
27C
100
AcDbEntity
  8
0
100
AcDbLine
 62
7
  6
CONTINUOUS
 10
-59.1678446783
 20
-36.1
 11
-61.5461926334
 21
-36.1
  0
LINE
  5
27D
100
AcDbEntity
  8
0
100
AcDbLine
 62
7
  6
CONTINUOUS
 10
-62.4538073666
 20
-36.1
 11
-64.8321553217
 21
-36.1
  0
LINE
  5
27E
100
AcDbEntity
  8
RACCORDO
100
AcDbLine
 62
250
  6
CONTINUOUS
 10
-67.9999998254
 20
-35.5
 11
-67.8010684222
 21
-35.5000000194
  0
LINE
  5
27F
100
AcDbEntity
  8
RACCORDO
100
AcDbLine
 62
250
  6
CONTINUOUS
 10
67.9999998254
 20
-35.5
 11
67.8010684222
 21
-35.5000000194
  0
LINE
  5
280
100
AcDbEntity
  8
0
100
AcDbLine
 62
7
  6
CONTINUOUS
 10
-64.8321553217
 20
-34.9
 11
-62.4538073666
 21
-34.9
  0
LINE
  5
281
100
AcDbEntity
  8
0
100
AcDbLine
 62
7
  6
CONTINUOUS
 10
-61.5461926334
 20
-34.9
 11
-59.1678446783
 21
-34.9
  0
LINE
  5
282
100
AcDbEntity
  8
0
100
AcDbLine
 62
7
  6
CONTINUOUS
 10
59.1678446783
 20
-34.9
 11
61.5461926334
 21
-34.9
  0
LINE
  5
283
100
AcDbEntity
  8
0
100
AcDbLine
 62
7
  6
CONTINUOUS
 10
62.4538073666
 20
-34.9
 11
64.8321553217
 21
-34.9
  0
LINE
  5
284
100
AcDbEntity
  8
0
100
AcDbLine
 62
7
  6
CONTINUOUS
 10
-49.9791671276
 20
-3.2531915009
 11
-50.0875000477
 21
-3.1702127874
  0
LINE
  5
285
100
AcDbEntity
  8
0
100
AcDbLine
 62
7
  6
CONTINUOUS
 10
-49.3833335876
 20
-3.4468084991
 11
-49.4916671276
 21
-3.3638297856
  0
LINE
  5
286
100
AcDbEntity
  8
0
100
AcDbLine
 62
7
  6
CONTINUOUS
 10
-49.6541671276
 20
-2.865957427
 11
-49.5458335876
 21
-2.9489361405
  0
LINE
  5
287
100
AcDbEntity
  8
0
100
AcDbLine
 62
7
  6
CONTINUOUS
 10
-50.0875000477
 20
-2.9489361405
 11
-49.9791671276
 21
-2.865957427
  0
LINE
  5
288
100
AcDbEntity
  8
0
100
AcDbLine
 62
7
  6
CONTINUOUS
 10
-50.1416671276
 20
-3.3638297856
 11
-50.2500000477
 21
-3.4468084991
  0
LINE
  5
289
100
AcDbEntity
  8
0
100
AcDbLine
 62
7
  6
CONTINUOUS
 10
-49.5458335876
 20
-3.1702127874
 11
-49.6541671276
 21
-3.2531915009
  0
LINE
  5
28A
100
AcDbEntity
  8
0
100
AcDbLine
 62
7
  6
CONTINUOUS
 10
46.280144
 20
-29.500007
 11
45.700122
 21
-29.500015
  0
LINE
  5
28B
100
AcDbEntity
  8
0
100
AcDbLine
 62
7
  6
CONTINUOUS
 10
44.185039
 20
-29.500007
 11
43.605031
 21
-29.500015
  0
LINE
  5
28C
100
AcDbEntity
  8
0
100
AcDbLine
 62
7
  6
CONTINUOUS
 10
50.85
 20
-29.5
 11
50.196695
 21
-29.500007
  0
LINE
  5
28D
100
AcDbEntity
  8
0
100
AcDbLine
 62
7
  6
CONTINUOUS
 10
41.896627
 20
-29.500015
 11
41.316605
 21
-29.500022
  0
LINE
  5
28E
100
AcDbEntity
  8
0
100
AcDbLine
 62
7
  6
CONTINUOUS
 10
39.998794
 20
-29.500015
 11
39.418751
 21
-29.500022
  0
LINE
  5
28F
100
AcDbEntity
  8
0
100
AcDbLine
 62
7
  6
CONTINUOUS
 10
45.313443
 20
-29.500015
 11
44.733421
 21
-29.500015
  0
LINE
  5
290
100
AcDbEntity
  8
0
100
AcDbLine
 62
7
  6
CONTINUOUS
 10
43.056656
 20
-29.500015
 11
42.476634
 21
-29.500015
  0
LINE
  5
291
100
AcDbEntity
  8
0
100
AcDbLine
 62
7
  6
CONTINUOUS
 10
49.109144
 20
-29.500007
 11
48.529115
 21
-29.500007
  0
LINE
  5
292
100
AcDbEntity
  8
0
100
AcDbLine
 62
7
  6
CONTINUOUS
 10
48.142437
 20
-29.500015
 11
47.562408
 21
-29.500007
  0
LINE
  5
293
100
AcDbEntity
  8
0
100
AcDbLine
 62
7
  6
CONTINUOUS
 10
47.379302
 20
-28.929679
 11
46.463257
 21
-28.929679
  0
LINE
  5
294
100
AcDbEntity
  8
0
100
AcDbLine
 62
7
  6
CONTINUOUS
 10
46.640179
 20
-28.378657
 11
47.202373
 21
-28.378657
  0
LINE
  5
295
100
AcDbEntity
  8
0
100
AcDbLine
 62
7
  6
CONTINUOUS
 10
49.615441
 20
-28.378657
 11
49.10921
 21
-28.37865
  0
LINE
  5
296
100
AcDbEntity
  8
0
100
AcDbLine
 62
7
  6
CONTINUOUS
 10
49.101148
 20
-27.842128
 11
49.806824
 21
-27.842128
  0
LINE
  5
297
100
AcDbEntity
  8
0
100
AcDbLine
 62
7
  6
CONTINUOUS
 10
49.806824
 20
-27.136398
 11
49.10114
 21
-27.136398
  0
LINE
  5
298
100
AcDbEntity
  8
0
100
AcDbLine
 62
7
  6
CONTINUOUS
 10
38.487619
 20
-26.599884
 11
39.067648
 21
-26.599884
  0
LINE
  5
299
100
AcDbEntity
  8
0
100
AcDbLine
 62
7
  6
CONTINUOUS
 10
40.349905
 20
-26.599884
 11
40.929934
 21
-26.599884
  0
LINE
  5
29A
100
AcDbEntity
  8
0
100
AcDbLine
 62
7
  6
CONTINUOUS
 10
41.316612
 20
-26.599884
 11
41.896634
 21
-26.599884
  0
LINE
  5
29B
100
AcDbEntity
  8
0
100
AcDbLine
 62
7
  6
CONTINUOUS
 10
42.476634
 20
-26.599884
 11
43.353471
 21
-26.599884
  0
LINE
  5
29C
100
AcDbEntity
  8
0
100
AcDbLine
 62
7
  6
CONTINUOUS
 10
44.436606
 20
-26.599884
 11
45.313443
 21
-26.599884
  0
LINE
  5
29D
100
AcDbEntity
  8
0
100
AcDbLine
 62
7
  6
CONTINUOUS
 10
46.631247
 20
-26.599877
 11
47.211297
 21
-26.599877
  0
LINE
  5
29E
100
AcDbEntity
  8
0
100
AcDbLine
 62
7
  6
CONTINUOUS
 10
48.529115
 20
-26.599877
 11
49.8882460683
 21
-26.599877
  0
LINE
  5
29F
100
AcDbEntity
  8
RACCORDO
100
AcDbLine
 62
250
  6
CONTINUOUS
 10
16.9940238113
 20
-25.8999680341
 11
6.15
 21
-25.8999680347
  0
LINE
  5
2A0
100
AcDbEntity
  8
RACCORDO
100
AcDbLine
 62
250
  6
CONTINUOUS
 10
-6.15
 20
-25.8999680347
 11
-16.9940238113
 21
-25.8999680341
  0
LINE
  5
2A1
100
AcDbEntity
  8
0
100
AcDbLine
 62
7
  6
CONTINUOUS
 10
-49.9791671276
 20
-3.8340425536
 11
-50.0875000477
 21
-3.7787234113
  0
LINE
  5
2A2
100
AcDbEntity
  8
0
100
AcDbLine
 62
7
  6
CONTINUOUS
 10
-50.1687500477
 20
-3.8893617056
 11
-50.0333335876
 21
-3.9723404264
  0
LINE
  5
2A3
100
AcDbEntity
  8
0
100
AcDbLine
 62
7
  6
CONTINUOUS
 10
-49.4916671276
 20
-2.8106382847
 11
-49.6270835876
 21
-2.7276595712
  0
LINE
  5
2A4
100
AcDbEntity
  8
0
100
AcDbLine
 62
7
  6
CONTINUOUS
 10
-50.0062500477
 20
-2.7276595712
 11
-50.1416671276
 21
-2.8106382847
  0
LINE
  5
2A5
100
AcDbEntity
  8
0
100
AcDbLine
 62
7
  6
CONTINUOUS
 10
-49.6000000477
 20
-3.9723404264
 11
-49.4645835876
 21
-3.8893617056
  0
LINE
  5
2A6
100
AcDbEntity
  8
RACCORDO
100
AcDbLine
 62
250
  6
CONTINUOUS
 10
52.4501330742
 20
-22.2
 11
54.2349474216
 21
-22.19731196
  0
LINE
  5
2A7
100
AcDbEntity
  8
RACCORDO
100
AcDbLine
 62
250
  6
CONTINUOUS
 10
3.7686914333
 20
-25.0999848749
 11
-3.7686914369
 21
-25.0999848761
  0
LINE
  5
2A8
100
AcDbEntity
  8
RACCORDO
100
AcDbLine
 62
250
  6
CONTINUOUS
 10
50.55
 20
-24.1001427898
 11
6.15
 21
-24.0999988235
  0
LINE
  5
2A9
100
AcDbEntity
  8
RACCORDO
100
AcDbLine
 62
250
  6
CONTINUOUS
 10
-6.15
 20
-24.0999988235
 11
-50.55
 21
-24.1001427898
  0
LINE
  5
2AA
100
AcDbEntity
  8
0
100
AcDbLine
 62
7
  6
CONTINUOUS
 10
50.55
 20
-22.5
 11
6.15
 21
-22.5
  0
LINE
  5
2AB
100
AcDbEntity
  8
0
100
AcDbLine
 62
7
  6
CONTINUOUS
 10
-6.15
 20
-22.5
 11
-50.55
 21
-22.5
  0
LINE
  5
2AC
100
AcDbEntity
  8
RACCORDO
100
AcDbLine
 62
7
  6
CONTINUOUS
 10
-42.5458892987
 20
-22.4
 11
-36.6541107013
 21
-22.4
  0
LINE
  5
2AD
100
AcDbEntity
  8
RACCORDO
100
AcDbLine
 62
7
  6
CONTINUOUS
 10
-20.0458892987
 20
-22.4
 11
-14.1541107013
 21
-22.4
  0
LINE
  5
2AE
100
AcDbEntity
  8
RACCORDO
100
AcDbLine
 62
7
  6
CONTINUOUS
 10
14.1541107013
 20
-22.4
 11
20.0458892987
 21
-22.4
  0
LINE
  5
2AF
100
AcDbEntity
  8
RACCORDO
100
AcDbLine
 62
7
  6
CONTINUOUS
 10
36.6541107013
 20
-22.4
 11
42.5458892987
 21
-22.4
  0
LINE
  5
2B0
100
AcDbEntity
  8
RACCORDO
100
AcDbLine
 62
250
  6
CONTINUOUS
 10
-52.4501333992
 20
-22.2
 11
-50.85
 21
-22.2
  0
LINE
  5
2B1
100
AcDbEntity
  8
RACCORDO
100
AcDbLine
 62
250
  6
CONTINUOUS
 10
52.4501333992
 20
-22.2
 11
50.85
 21
-22.2
  0
LINE
  5
2B2
100
AcDbEntity
  8
RACCORDO
100
AcDbLine
 62
250
  6
CONTINUOUS
 10
2.4355073548
 20
-22.2
 11
5.85
 21
-22.2
  0
LINE
  5
2B3
100
AcDbEntity
  8
RACCORDO
100
AcDbLine
 62
250
  6
CONTINUOUS
 10
-2.4355073548
 20
-22.2
 11
-5.85
 21
-22.2
  0
LINE
  5
2B4
100
AcDbEntity
  8
RACCORDO
100
AcDbLine
 62
250
  6
CONTINUOUS
 10
-52.4501333495
 20
-22.2
 11
-54.234947421
 21
-22.1973119599
  0
LINE
  5
2B5
100
AcDbEntity
  8
0
100
AcDbLine
 62
7
  6
CONTINUOUS
 10
-50.1416671276
 20
-3.3085106432
 11
-50.0875000477
 21
-3.3361702144
  0
LINE
  5
2B6
100
AcDbEntity
  8
0
100
AcDbLine
 62
7
  6
CONTINUOUS
 10
-49.6541671276
 20
-3.4191489279
 11
-49.5458335876
 21
-3.4744680703
  0
LINE
  5
2B7
100
AcDbEntity
  8
0
100
AcDbLine
 62
7
  6
CONTINUOUS
 10
-49.4916671276
 20
-3.3638297856
 11
-49.5458335876
 21
-3.3361702144
  0
LINE
  5
2B8
100
AcDbEntity
  8
RACCORDO
100
AcDbLine
 62
7
  6
CONTINUOUS
 10
-20.0458892987
 20
22.4
 11
-20.0476348052
 21
22.5
  0
LINE
  5
2B9
100
AcDbEntity
  8
RACCORDO
100
AcDbLine
 62
250
  6
CONTINUOUS
 10
-16.9940170247
 20
25.8999680496
 11
-17.0049391593
 21
39.9385388501
  0
LINE
  5
2BA
100
AcDbEntity
  8
RACCORDO
100
AcDbLine
 62
250
  6
CONTINUOUS
 10
-16.9940359925
 20
24.0999988218
 11
-16.9940238113
 21
25.8999680341
  0
LINE
  5
2BB
100
AcDbEntity
  8
RACCORDO
100
AcDbLine
 62
250
  6
CONTINUOUS
 10
-16.9940359925
 20
-24.0999988218
 11
-17.0050663232
 21
-41.298654191
  0
LINE
  5
2BC
100
AcDbEntity
  8
RACCORDO
100
AcDbLine
 62
250
  6
CONTINUOUS
 10
-17.0000156928
 20
41.5000001746
 11
-17.0004241455
 21
41.2986542001
  0
LINE
  5
2BD
100
AcDbEntity
  8
RACCORDO
100
AcDbLine
 62
7
  6
CONTINUOUS
 10
-20.0476348052
 20
-22.5
 11
-20.0458892987
 21
-22.4
  0
LINE
  5
2BE
100
AcDbEntity
  8
0
100
AcDbLine
 62
7
  6
CONTINUOUS
 10
-50.0875000477
 20
-3.3361702144
 11
-50.1416671276
 21
-3.3638297856
  0
LINE
  5
2BF
100
AcDbEntity
  8
0
100
AcDbLine
 62
7
  6
CONTINUOUS
 10
-50.0875000477
 20
-3.4744680703
 11
-49.9791671276
 21
-3.4191489279
  0
LINE
  5
2C0
100
AcDbEntity
  8
0
100
AcDbLine
 62
7
  6
CONTINUOUS
 10
-49.5458335876
 20
-3.3361702144
 11
-49.4916671276
 21
-3.3085106432
  0
LINE
  5
2C1
100
AcDbEntity
  8
0
100
AcDbLine
 62
7
  6
CONTINUOUS
 10
-49.5458335876
 20
-3.7787234113
 11
-49.6541671276
 21
-3.8340425536
  0
LINE
  5
2C2
100
AcDbEntity
  8
ASSI
100
AcDbLine
 62
7
  6
CONTINUOUS
 10
6.2142889387
 20
-16.4651417927
 11
5.85
 21
-16.5175284622
  0
LINE
  5
2C3
100
AcDbEntity
  8
ASSI
100
AcDbLine
 62
7
  6
CONTINUOUS
 10
-6.4504952011
 20
-20.200093
 11
-5.8855064618
 21
-20.200093
  0
LINE
  5
2C4
100
AcDbEntity
  8
ASSI
100
AcDbLine
 62
7
  6
CONTINUOUS
 10
6.320083
 20
-17.893064
 11
6.8866792082
 21
-17.893064
  0
LINE
  5
2C5
100
AcDbEntity
  8
ASSI
100
AcDbLine
 62
7
  6
CONTINUOUS
 10
-7.0214937339
 20
-17.752329
 11
-6.557396
 21
-17.752329
  0
LINE
  5
2C6
100
AcDbEntity
  8
ASSI
100
AcDbLine
 62
7
  6
CONTINUOUS
 10
6.9755447376
 20
-17.3675
 11
6.320083
 21
-17.3675
  0
LINE
  5
2C7
100
AcDbEntity
  8
ASSI
100
AcDbLine
 62
7
  6
CONTINUOUS
 10
-5.8854931356
 20
-17.186712
 11
-7.0214827487
 21
-17.186712
  0
LINE
  5
2C8
100
AcDbEntity
  8
0
100
AcDbLine
 62
7
  6
CONTINUOUS
 10
-49.8708335876
 20
-3.8617021248
 11
-49.9791671276
 21
-3.8340425536
  0
LINE
  5
2C9
100
AcDbEntity
  8
0
100
AcDbLine
 62
7
  6
CONTINUOUS
 10
-49.7625000477
 20
-3.3914893568
 11
-49.6541671276
 21
-3.4191489279
  0
LINE
  5
2CA
100
AcDbEntity
  8
0
100
AcDbLine
 62
7
  6
CONTINUOUS
 10
-49.8708335876
 20
-3.2808510721
 11
-49.9791671276
 21
-3.2531915009
  0
LINE
  5
2CB
100
AcDbEntity
  8
RACCORDO
100
AcDbLine
 62
7
  6
CONTINUOUS
 10
-14.1541107013
 20
-22.4
 11
-14.1523651948
 21
-22.5
  0
LINE
  5
2CC
100
AcDbEntity
  8
RACCORDO
100
AcDbLine
 62
7
  6
CONTINUOUS
 10
-14.1523651948
 20
22.5
 11
-14.1541107013
 21
22.4
  0
LINE
  5
2CD
100
AcDbEntity
  8
ASSI
100
AcDbLine
 62
7
  6
CONTINUOUS
 10
-6.329429
 20
20.125085
 11
-7.269009
 21
17.198599
  0
LINE
  5
2CE
100
AcDbEntity
  8
ASSI
100
AcDbLine
 62
7
  6
CONTINUOUS
 10
-6.843988
 20
15.874894
 11
-5.85
 21
18.9707724668
  0
LINE
  5
2CF
100
AcDbEntity
  8
RACCORDO
100
AcDbLine
 62
7
  6
CONTINUOUS
 10
5.95
 20
-14.1958892987
 11
5.85
 21
-14.1976348052
  0
LINE
  5
2D0
100
AcDbEntity
  8
RACCORDO
100
AcDbLine
 62
7
  6
CONTINUOUS
 10
-50.75
 20
-14.2246901559
 11
-50.85
 21
-14.2264356623
  0
LINE
  5
2D1
100
AcDbEntity
  8
RACCORDO
100
AcDbLine
 62
7
  6
CONTINUOUS
 10
-5.85
 20
-14.2264356623
 11
-5.95
 21
-14.2246901559
  0
LINE
  5
2D2
100
AcDbEntity
  8
RACCORDO
100
AcDbLine
 62
7
  6
CONTINUOUS
 10
50.85
 20
-14.1976348052
 11
50.75
 21
-14.1958892987
  0
LINE
  5
2D3
100
AcDbEntity
  8
0
100
AcDbLine
 62
7
  6
CONTINUOUS
 10
-50.0333335876
 20
-3.9723404264
 11
-49.8979171276
 21
-4.0
  0
LINE
  5
2D4
100
AcDbEntity
  8
0
100
AcDbLine
 62
7
  6
CONTINUOUS
 10
-49.6270835876
 20
-2.7276595712
 11
-49.7625000477
 21
-2.7
  0
LINE
  5
2D5
100
AcDbEntity
  8
0
100
AcDbLine
 62
7
  6
CONTINUOUS
 10
-49.7625000477
 20
-2.8382978559
 11
-49.6541671276
 21
-2.865957427
  0
LINE
  5
2D6
100
AcDbEntity
  8
ASSI
100
AcDbLine
 62
7
  6
CONTINUOUS
 10
-7.122283
 20
-17.2938552919
 11
-7.122283
 21
-17.6453040625
  0
LINE
  5
2D7
100
AcDbEntity
  8
ASSI
100
AcDbLine
 62
7
  6
CONTINUOUS
 10
-6.557396
 20
-17.752329
 11
-6.557396
 21
-20.0934331749
  0
LINE
  5
2D8
100
AcDbEntity
  8
RACCORDO
100
AcDbLine
 62
250
  6
CONTINUOUS
 10
-6.15
 20
-22.5
 11
-6.15
 21
-25.8999680347
  0
LINE
  5
2D9
100
AcDbEntity
  8
RACCORDO
100
AcDbLine
 62
250
  6
CONTINUOUS
 10
-6.15
 20
22.5
 11
-6.15
 21
25.8999680347
  0
LINE
  5
2DA
100
AcDbEntity
  8
RACCORDO
100
AcDbLine
 62
7
  6
CONTINUOUS
 10
-5.95
 20
-14.2246901559
 11
-5.95
 21
-8.2753098441
  0
LINE
  5
2DB
100
AcDbEntity
  8
RACCORDO
100
AcDbLine
 62
7
  6
CONTINUOUS
 10
-5.95
 20
8.2753098441
 11
-5.95
 21
14.2246901559
  0
LINE
  5
2DC
100
AcDbEntity
  8
0
100
AcDbLine
 62
7
  6
CONTINUOUS
 10
-5.85
 20
22.2
 11
-5.85
 21
-22.2
  0
LINE
  5
2DD
100
AcDbEntity
  8
0
100
AcDbLine
 62
7
  6
CONTINUOUS
 10
62.2388223726
 20
36.622106287
 11
62.3450726739
 21
36.6716048889
  0
LINE
  5
2DE
100
AcDbEntity
  8
0
100
AcDbLine
 62
7
  6
CONTINUOUS
 10
61.7611776274
 20
34.377893713
 11
61.6549273261
 21
34.3283951111
  0
LINE
  5
2DF
100
AcDbEntity
  8
RACCORDO
100
AcDbLine
 62
7
  6
CONTINUOUS
 10
50.75
 20
-8.3041107013
 11
50.85
 21
-8.3023651948
  0
LINE
  5
2E0
100
AcDbEntity
  8
RACCORDO
100
AcDbLine
 62
7
  6
CONTINUOUS
 10
-5.95
 20
-8.2753098441
 11
-5.85
 21
-8.2735643377
  0
LINE
  5
2E1
100
AcDbEntity
  8
0
100
AcDbLine
 62
7
  6
CONTINUOUS
 10
50.85
 20
-7.286824
 11
50.803866
 21
-7.286824
  0
LINE
  5
2E2
100
AcDbEntity
  8
RACCORDO
100
AcDbLine
 62
7
  6
CONTINUOUS
 10
-50.85
 20
-8.2735643377
 11
-50.75
 21
-8.2753098441
  0
LINE
  5
2E3
100
AcDbEntity
  8
RACCORDO
100
AcDbLine
 62
7
  6
CONTINUOUS
 10
5.85
 20
-8.3023651948
 11
5.95
 21
-8.3041107013
  0
LINE
  5
2E4
100
AcDbEntity
  8
0
100
AcDbLine
 62
7
  6
CONTINUOUS
 10
62.3450726247
 20
-36.671604981
 11
62.2388223825
 21
-36.6221062937
  0
LINE
  5
2E5
100
AcDbEntity
  8
0
100
AcDbLine
 62
7
  6
CONTINUOUS
 10
61.6549273753
 20
-34.328395019
 11
61.7611776175
 21
-34.3778937063
  0
LINE
  5
2E6
100
AcDbEntity
  8
RACCORDO
100
AcDbLine
 62
250
  6
CONTINUOUS
 10
-4.2463768387
 20
22.2
 11
-4.2463768387
 21
-22.2
  0
LINE
  5
2E7
100
AcDbEntity
  8
RACCORDO
100
AcDbLine
 62
250
  6
CONTINUOUS
 10
-2.4355073548
 20
22.2
 11
-2.4355073548
 21
-22.2
  0
LINE
  5
2E8
100
AcDbEntity
  8
0
100
AcDbLine
 62
7
  6
CONTINUOUS
 10
-50.85
 20
-4.0
 11
-50.7916671276
 21
-4.0
  0
LINE
  5
2E9
100
AcDbEntity
  8
0
100
AcDbLine
 62
7
  6
CONTINUOUS
 10
-49.8979171276
 20
-4.0
 11
-49.7354171276
 21
-4.0
  0
LINE
  5
2EA
100
AcDbEntity
  8
0
100
AcDbLine
 62
7
  6
CONTINUOUS
 10
-49.7625000477
 20
-3.8617021248
 11
-49.8708335876
 21
-3.8617021248
  0
LINE
  5
2EB
100
AcDbEntity
  8
0
100
AcDbLine
 62
7
  6
CONTINUOUS
 10
-50.7916671276
 20
-3.6127659649
 11
-50.5208335876
 21
-3.6127659649
  0
LINE
  5
2EC
100
AcDbEntity
  8
0
100
AcDbLine
 62
7
  6
CONTINUOUS
 10
-50.5208335876
 20
-3.4468084991
 11
-50.7916671276
 21
-3.4468084991
  0
LINE
  5
2ED
100
AcDbEntity
  8
0
100
AcDbLine
 62
7
  6
CONTINUOUS
 10
-49.8708335876
 20
-3.3914893568
 11
-49.7625000477
 21
-3.3914893568
  0
LINE
  5
2EE
100
AcDbEntity
  8
0
100
AcDbLine
 62
7
  6
CONTINUOUS
 10
-49.7625000477
 20
-3.2808510721
 11
-49.8708335876
 21
-3.2808510721
  0
LINE
  5
2EF
100
AcDbEntity
  8
0
100
AcDbLine
 62
7
  6
CONTINUOUS
 10
-49.8708335876
 20
-2.8382978559
 11
-49.7625000477
 21
-2.8382978559
  0
LINE
  5
2F0
100
AcDbEntity
  8
0
100
AcDbLine
 62
7
  6
CONTINUOUS
 10
-49.7625000477
 20
-2.7
 11
-49.8708335876
 21
-2.7
  0
LINE
  5
2F1
100
AcDbEntity
  8
0
100
AcDbLine
 62
7
  6
CONTINUOUS
 10
-50.7916671276
 20
-2.7
 11
-50.85
 21
-2.7
  0
LWPOLYLINE
  5
2F2
100
AcDbEntity
  8
0
100
AcDbPolyline
 62
7
  6
CONTINUOUS
 90
4
 70
0
 43
0.3500000006
 10
74.8214268036
 20
-2.2499998741
 10
73.9642843323
 20
-2.2499998741
 10
73.5357153625
 20
-1.8214286385
 10
73.5357153625
 20
-1.178571785
  0
LINE
  5
2F3
100
AcDbEntity
  8
RACCORDO
100
AcDbLine
 62
250
  6
CONTINUOUS
 10
-52.4500383281
 20
-0.0080461816
 11
-54.2421454391
 21
-0.0077578881
  0
LINE
  5
2F4
100
AcDbEntity
  8
RACCORDO
100
AcDbLine
 62
250
  6
CONTINUOUS
 10
-66.5283280522
 20
-0.0002278033
 11
-67.7986549583
 21
-0.0000129678
  0
LINE
  5
2F5
100
AcDbEntity
  8
RACCORDO
100
AcDbLine
 62
250
  6
CONTINUOUS
 10
52.4500383281
 20
-0.0080461816
 11
54.2421567823
 21
-0.008325262
  0
LINE
  5
2F6
100
AcDbEntity
  8
RACCORDO
100
AcDbLine
 62
250
  6
CONTINUOUS
 10
66.5283280624
 20
0.0002018696
 11
67.7986549583
 21
-0.0000129678
  0
LINE
  5
2F7
100
AcDbEntity
  8
ASSI
100
AcDbLine
 62
7
  6
CONTINUOUS
 10
-9.058641
 20
20.125085
 11
-7.694051
 21
15.874883
  0
LINE
  5
2F8
100
AcDbEntity
  8
ASSI
100
AcDbLine
 62
7
  6
CONTINUOUS
 10
-7.269009
 20
17.198599
 11
-8.208599
 21
20.125085
  0
LINE
  5
2F9
100
AcDbEntity
  8
RACCORDO
100
AcDbLine
 62
250
  6
CONTINUOUS
 10
2.4355073548
 20
-22.2
 11
2.4355073548
 21
22.2
  0
LINE
  5
2FA
100
AcDbEntity
  8
RACCORDO
100
AcDbLine
 62
250
  6
CONTINUOUS
 10
4.2463768387
 20
-22.2
 11
4.2463768387
 21
22.2
  0
LINE
  5
2FB
100
AcDbEntity
  8
0
100
AcDbLine
 62
7
  6
CONTINUOUS
 10
5.85
 20
-22.2
 11
5.85
 21
22.2
  0
LINE
  5
2FC
100
AcDbEntity
  8
RACCORDO
100
AcDbLine
 62
7
  6
CONTINUOUS
 10
5.95
 20
14.1958892987
 11
5.95
 21
8.3041107013
  0
LINE
  5
2FD
100
AcDbEntity
  8
RACCORDO
100
AcDbLine
 62
7
  6
CONTINUOUS
 10
5.95
 20
-8.3041107013
 11
5.95
 21
-14.1958892987
  0
LINE
  5
2FE
100
AcDbEntity
  8
0
100
AcDbLine
 62
7
  6
CONTINUOUS
 10
-61.7611776274
 20
-34.377893713
 11
-61.6549273261
 21
-34.3283951111
  0
LINE
  5
2FF
100
AcDbEntity
  8
0
100
AcDbLine
 62
7
  6
CONTINUOUS
 10
-61.6549273753
 20
34.328395019
 11
-61.7611776175
 21
34.3778937063
  0
LINE
  5
300
100
AcDbEntity
  8
ASSI
100
AcDbLine
 62
7
  6
CONTINUOUS
 10
7.1109195443
 20
-20.011489702
 11
7.016817986
 21
-19.6096389403
  0
LINE
  5
301
100
AcDbEntity
  8
RACCORDO
100
AcDbLine
 62
250
  6
CONTINUOUS
 10
6.15
 20
-22.5
 11
6.15
 21
-25.8999680347
  0
LINE
  5
302
100
AcDbEntity
  8
RACCORDO
100
AcDbLine
 62
250
  6
CONTINUOUS
 10
6.15
 20
22.5
 11
6.15
 21
25.8999680347
  0
LINE
  5
303
100
AcDbEntity
  8
ASSI
100
AcDbLine
 62
7
  6
CONTINUOUS
 10
6.320083
 20
-19.2910105655
 11
6.320083
 21
-17.893064
  0
LINE
  5
304
100
AcDbEntity
  8
ASSI
100
AcDbLine
 62
7
  6
CONTINUOUS
 10
6.320083
 20
-17.3675
 11
6.320083
 21
-16.5591198222
  0
LINE
  5
305
100
AcDbEntity
  8
ASSI
100
AcDbLine
 62
7
  6
CONTINUOUS
 10
6.495668
 20
18.304555
 11
6.495658
 21
19.338814
  0
LINE
  5
306
100
AcDbEntity
  8
ASSI
100
AcDbLine
 62
7
  6
CONTINUOUS
 10
6.507388
 20
15.874904
 11
6.507483
 21
17.518273
  0
LINE
  5
307
100
AcDbEntity
  8
ASSI
100
AcDbLine
 62
7
  6
CONTINUOUS
 10
6.9865016016
 20
-17.8104114486
 11
7.0636930237
 21
-17.4741294707
  0
LINE
  5
308
100
AcDbEntity
  8
0
100
AcDbLine
 62
7
  6
CONTINUOUS
 10
-62.2388223726
 20
-36.622106287
 11
-62.3450726739
 21
-36.6716048889
  0
LINE
  5
309
100
AcDbEntity
  8
0
100
AcDbLine
 62
7
  6
CONTINUOUS
 10
-49.6541671276
 20
-3.8340425536
 11
-49.7625000477
 21
-3.8617021248
  0
LINE
  5
30A
100
AcDbEntity
  8
0
100
AcDbLine
 62
7
  6
CONTINUOUS
 10
-49.9791671276
 20
-3.4191489279
 11
-49.8708335876
 21
-3.3914893568
  0
LINE
  5
30B
100
AcDbEntity
  8
0
100
AcDbLine
 62
7
  6
CONTINUOUS
 10
-49.6541671276
 20
-3.2531915009
 11
-49.7625000477
 21
-3.2808510721
  0
LINE
  5
30C
100
AcDbEntity
  8
0
100
AcDbLine
 62
7
  6
CONTINUOUS
 10
-49.9791671276
 20
-2.865957427
 11
-49.8708335876
 21
-2.8382978559
  0
LINE
  5
30D
100
AcDbEntity
  8
0
100
AcDbLine
 62
7
  6
CONTINUOUS
 10
-49.7354171276
 20
-4.0
 11
-49.6000000477
 21
-3.9723404264
  0
LINE
  5
30E
100
AcDbEntity
  8
0
100
AcDbLine
 62
7
  6
CONTINUOUS
 10
-49.8708335876
 20
-2.7
 11
-50.0062500477
 21
-2.7276595712
  0
LINE
  5
30F
100
AcDbEntity
  8
RACCORDO
100
AcDbLine
 62
7
  6
CONTINUOUS
 10
5.95
 20
8.3041107013
 11
5.85
 21
8.3023651948
  0
LINE
  5
310
100
AcDbEntity
  8
RACCORDO
100
AcDbLine
 62
7
  6
CONTINUOUS
 10
-50.75
 20
8.2753098441
 11
-50.85
 21
8.2735643377
  0
LINE
  5
311
100
AcDbEntity
  8
RACCORDO
100
AcDbLine
 62
7
  6
CONTINUOUS
 10
-5.85
 20
8.2735643377
 11
-5.95
 21
8.2753098441
  0
LINE
  5
312
100
AcDbEntity
  8
RACCORDO
100
AcDbLine
 62
7
  6
CONTINUOUS
 10
50.85
 20
8.3023651948
 11
50.75
 21
8.3041107013
  0
LINE
  5
313
100
AcDbEntity
  8
0
100
AcDbLine
 62
7
  6
CONTINUOUS
 10
-62.3450726247
 20
36.671604981
 11
-62.2388223825
 21
36.6221062937
  0
LINE
  5
314
100
AcDbEntity
  8
RACCORDO
100
AcDbLine
 62
7
  6
CONTINUOUS
 10
14.1541107013
 20
22.4
 11
14.1523651948
 21
22.5
  0
LINE
  5
315
100
AcDbEntity
  8
RACCORDO
100
AcDbLine
 62
7
  6
CONTINUOUS
 10
14.1523651948
 20
-22.5
 11
14.1541107013
 21
-22.4
  0
LINE
  5
316
100
AcDbEntity
  8
RACCORDO
100
AcDbLine
 62
7
  6
CONTINUOUS
 10
50.75
 20
14.1958892987
 11
50.85
 21
14.1976348052
  0
LINE
  5
317
100
AcDbEntity
  8
RACCORDO
100
AcDbLine
 62
7
  6
CONTINUOUS
 10
-5.95
 20
14.2246901559
 11
-5.85
 21
14.2264356623
  0
LINE
  5
318
100
AcDbEntity
  8
ASSI
100
AcDbLine
 62
7
  6
CONTINUOUS
 10
8.101212
 20
15.874904
 11
9.058641
 21
15.874915
  0
LINE
  5
319
100
AcDbEntity
  8
ASSI
100
AcDbLine
 62
7
  6
CONTINUOUS
 10
5.85
 20
15.874904
 11
6.507388
 21
15.874904
  0
LINE
  5
31A
100
AcDbEntity
  8
ASSI
100
AcDbLine
 62
7
  6
CONTINUOUS
 10
-7.694051
 20
15.874883
 11
-6.843988
 21
15.874894
  0
LINE
  5
31B
100
AcDbEntity
  8
RACCORDO
100
AcDbLine
 62
7
  6
CONTINUOUS
 10
-50.85
 20
14.2264356623
 11
-50.75
 21
14.2246901559
  0
LINE
  5
31C
100
AcDbEntity
  8
RACCORDO
100
AcDbLine
 62
7
  6
CONTINUOUS
 10
5.85
 20
14.1976348052
 11
5.95
 21
14.1958892987
  0
LINE
  5
31D
100
AcDbEntity
  8
ASSI
100
AcDbLine
 62
7
  6
CONTINUOUS
 10
7.249374
 20
17.518262
 11
8.101212
 21
15.874904
  0
LINE
  5
31E
100
AcDbEntity
  8
ASSI
100
AcDbLine
 62
7
  6
CONTINUOUS
 10
9.058641
 20
15.874915
 11
8.1538254537
 21
17.6204889831
  0
LINE
  5
31F
100
AcDbEntity
  8
RACCORDO
100
AcDbLine
 62
7
  6
CONTINUOUS
 10
20.0458892987
 20
-22.4
 11
20.0476348052
 21
-22.5
  0
LINE
  5
320
100
AcDbEntity
  8
RACCORDO
100
AcDbLine
 62
250
  6
CONTINUOUS
 10
17.0000156928
 20
41.5000001746
 11
17.0004889871
 21
41.2986542
  0
LINE
  5
321
100
AcDbEntity
  8
RACCORDO
100
AcDbLine
 62
250
  6
CONTINUOUS
 10
16.9940359925
 20
-24.0999988218
 11
16.9940238113
 21
-25.8999680341
  0
LINE
  5
322
100
AcDbEntity
  8
RACCORDO
100
AcDbLine
 62
250
  6
CONTINUOUS
 10
16.9940359925
 20
24.0999988218
 11
16.9940238113
 21
25.8999680341
  0
LINE
  5
323
100
AcDbEntity
  8
RACCORDO
100
AcDbLine
 62
250
  6
CONTINUOUS
 10
16.9940170247
 20
-25.8999680496
 11
17.0050663232
 21
-41.298654191
  0
LINE
  5
324
100
AcDbEntity
  8
RACCORDO
100
AcDbLine
 62
250
  6
CONTINUOUS
 10
16.9940170247
 20
25.8999680496
 11
17.0049391593
 21
39.9385388501
  0
LINE
  5
325
100
AcDbEntity
  8
RACCORDO
100
AcDbLine
 62
7
  6
CONTINUOUS
 10
20.0476348052
 20
22.5
 11
20.0458892987
 21
22.4
  0
LINE
  5
326
100
AcDbEntity
  8
ASSI
100
AcDbLine
 62
7
  6
CONTINUOUS
 10
6.507483
 20
17.518273
 11
7.249374
 21
17.518262
  0
LINE
  5
327
100
AcDbEntity
  8
ASSI
100
AcDbLine
 62
7
  6
CONTINUOUS
 10
7.5298601962
 20
18.304555
 11
6.495668
 21
18.304555
  0
LINE
  5
328
100
AcDbEntity
  8
ASSI
100
AcDbLine
 62
7
  6
CONTINUOUS
 10
6.495658
 20
19.338814
 11
7.5298415359
 21
19.338814
  0
LINE
  5
329
100
AcDbEntity
  8
ASSI
100
AcDbLine
 62
7
  6
CONTINUOUS
 10
-5.85
 20
20.125085
 11
-6.329429
 21
20.125085
  0
LINE
  5
32A
100
AcDbEntity
  8
ASSI
100
AcDbLine
 62
7
  6
CONTINUOUS
 10
-8.208599
 20
20.125085
 11
-9.058641
 21
20.125085
  0
LINE
  5
32B
100
AcDbEntity
  8
ASSI
100
AcDbLine
 62
7
  6
CONTINUOUS
 10
7.647844287
 20
20.125096
 11
5.85
 21
20.125096
  0
LINE
  5
32C
100
AcDbEntity
  8
RACCORDO
100
AcDbLine
 62
250
  6
CONTINUOUS
 10
-52.4501330742
 20
22.2
 11
-54.2349474216
 21
22.19731196
  0
LINE
  5
32D
100
AcDbEntity
  8
RACCORDO
100
AcDbLine
 62
250
  6
CONTINUOUS
 10
-52.4501333992
 20
22.2
 11
-50.85
 21
22.2
  0
LINE
  5
32E
100
AcDbEntity
  8
RACCORDO
100
AcDbLine
 62
250
  6
CONTINUOUS
 10
52.4501333992
 20
22.2
 11
50.85
 21
22.2
  0
LINE
  5
32F
100
AcDbEntity
  8
RACCORDO
100
AcDbLine
 62
250
  6
CONTINUOUS
 10
2.4355073548
 20
22.2
 11
5.85
 21
22.2
  0
LINE
  5
330
100
AcDbEntity
  8
RACCORDO
100
AcDbLine
 62
250
  6
CONTINUOUS
 10
-2.4355073548
 20
22.2
 11
-5.85
 21
22.2
  0
LINE
  5
331
100
AcDbEntity
  8
RACCORDO
100
AcDbLine
 62
7
  6
CONTINUOUS
 10
42.5458892987
 20
22.4
 11
36.6541107013
 21
22.4
  0
LINE
  5
332
100
AcDbEntity
  8
RACCORDO
100
AcDbLine
 62
7
  6
CONTINUOUS
 10
20.0458892987
 20
22.4
 11
14.1541107013
 21
22.4
  0
LINE
  5
333
100
AcDbEntity
  8
RACCORDO
100
AcDbLine
 62
7
  6
CONTINUOUS
 10
-14.1541107013
 20
22.4
 11
-20.0458892987
 21
22.4
  0
LINE
  5
334
100
AcDbEntity
  8
RACCORDO
100
AcDbLine
 62
7
  6
CONTINUOUS
 10
-36.6541107013
 20
22.4
 11
-42.5458892987
 21
22.4
  0
LINE
  5
335
100
AcDbEntity
  8
0
100
AcDbLine
 62
7
  6
CONTINUOUS
 10
-50.55
 20
22.5
 11
-6.15
 21
22.5
  0
LINE
  5
336
100
AcDbEntity
  8
0
100
AcDbLine
 62
7
  6
CONTINUOUS
 10
6.15
 20
22.5
 11
50.55
 21
22.5
  0
LINE
  5
337
100
AcDbEntity
  8
RACCORDO
100
AcDbLine
 62
250
  6
CONTINUOUS
 10
-50.55
 20
24.1001427898
 11
-6.15
 21
24.0999988235
  0
LINE
  5
338
100
AcDbEntity
  8
RACCORDO
100
AcDbLine
 62
250
  6
CONTINUOUS
 10
6.15
 20
24.0999988235
 11
50.55
 21
24.1001427898
  0
LINE
  5
339
100
AcDbEntity
  8
RACCORDO
100
AcDbLine
 62
250
  6
CONTINUOUS
 10
3.7686914381
 20
25.0999848769
 11
-3.7686914349
 21
25.0999848757
  0
LINE
  5
33A
100
AcDbEntity
  8
RACCORDO
100
AcDbLine
 62
250
  6
CONTINUOUS
 10
-16.9940238113
 20
25.8999680341
 11
-6.15
 21
25.8999680347
  0
LINE
  5
33B
100
AcDbEntity
  8
RACCORDO
100
AcDbLine
 62
250
  6
CONTINUOUS
 10
6.15
 20
25.8999680347
 11
16.9940238113
 21
25.8999680341
  0
LINE
  5
33C
100
AcDbEntity
  8
RACCORDO
100
AcDbLine
 62
250
  6
CONTINUOUS
 10
52.4501333495
 20
22.2
 11
54.234947421
 21
22.1973119599
  0
LINE
  5
33D
100
AcDbEntity
  8
0
100
AcDbLine
 62
7
  6
CONTINUOUS
 10
50.196695
 20
-29.500007
 11
49.615441
 21
-28.378657
  0
LINE
  5
33E
100
AcDbEntity
  8
0
100
AcDbLine
 62
7
  6
CONTINUOUS
 10
50.2325957907
 20
-28.3089026669
 11
50.85
 21
-29.5
  0
LINE
  5
33F
100
AcDbEntity
  8
0
100
AcDbLine
 62
7
  6
CONTINUOUS
 10
39.418751
 20
-29.500022
 11
38.487619
 21
-26.599884
  0
LINE
  5
340
100
AcDbEntity
  8
0
100
AcDbLine
 62
7
  6
CONTINUOUS
 10
39.067648
 20
-26.599884
 11
39.70878
 21
-28.59678
  0
LINE
  5
341
100
AcDbEntity
  8
RACCORDO
100
AcDbLine
 62
7
  6
CONTINUOUS
 10
36.6541107013
 20
22.4
 11
36.6523651948
 21
22.5
  0
LINE
  5
342
100
AcDbEntity
  8
RACCORDO
100
AcDbLine
 62
7
  6
CONTINUOUS
 10
36.6523651948
 20
-22.5
 11
36.6541107013
 21
-22.4
  0
LINE
  5
343
100
AcDbEntity
  8
0
100
AcDbLine
 62
7
  6
CONTINUOUS
 10
64.8321553217
 20
34.9
 11
62.4538073666
 21
34.9
  0
LINE
  5
344
100
AcDbEntity
  8
0
100
AcDbLine
 62
7
  6
CONTINUOUS
 10
61.5461926334
 20
34.9
 11
59.1678446783
 21
34.9
  0
LINE
  5
345
100
AcDbEntity
  8
0
100
AcDbLine
 62
7
  6
CONTINUOUS
 10
-59.1678446783
 20
34.9
 11
-61.5461926334
 21
34.9
  0
LINE
  5
346
100
AcDbEntity
  8
0
100
AcDbLine
 62
7
  6
CONTINUOUS
 10
-62.4538073666
 20
34.9
 11
-64.8321553217
 21
34.9
  0
LINE
  5
347
100
AcDbEntity
  8
RACCORDO
100
AcDbLine
 62
250
  6
CONTINUOUS
 10
-67.9999998254
 20
35.5
 11
-67.8010684222
 21
35.5000000194
  0
LINE
  5
348
100
AcDbEntity
  8
RACCORDO
100
AcDbLine
 62
250
  6
CONTINUOUS
 10
67.9999998254
 20
35.5
 11
67.8010684222
 21
35.5000000194
  0
LINE
  5
349
100
AcDbEntity
  8
0
100
AcDbLine
 62
7
  6
CONTINUOUS
 10
-64.8321553217
 20
36.1
 11
-62.4538073666
 21
36.1
  0
LINE
  5
34A
100
AcDbEntity
  8
0
100
AcDbLine
 62
7
  6
CONTINUOUS
 10
-61.5461926334
 20
36.1
 11
-59.1678446783
 21
36.1
  0
LINE
  5
34B
100
AcDbEntity
  8
0
100
AcDbLine
 62
7
  6
CONTINUOUS
 10
59.1678446783
 20
36.1
 11
61.5461926334
 21
36.1
  0
LINE
  5
34C
100
AcDbEntity
  8
0
100
AcDbLine
 62
7
  6
CONTINUOUS
 10
62.4538073666
 20
36.1
 11
64.8321553217
 21
36.1
  0
LINE
  5
34D
100
AcDbEntity
  8
0
100
AcDbLine
 62
7
  6
CONTINUOUS
 10
47.202373
 20
-28.378657
 11
46.921268
 21
-27.503118
  0
LINE
  5
34E
100
AcDbEntity
  8
0
100
AcDbLine
 62
7
  6
CONTINUOUS
 10
47.562408
 20
-29.500007
 11
47.379302
 21
-28.929679
  0
LINE
  5
34F
100
AcDbEntity
  8
0
100
AcDbLine
 62
7
  6
CONTINUOUS
 10
47.211297
 20
-26.599877
 11
48.142437
 21
-29.500015
  0
LINE
  5
350
100
AcDbEntity
  8
0
100
AcDbLine
 62
7
  6
CONTINUOUS
 10
43.605031
 20
-29.500015
 11
43.056656
 21
-27.587573
  0
LINE
  5
351
100
AcDbEntity
  8
0
100
AcDbLine
 62
7
  6
CONTINUOUS
 10
43.353471
 20
-26.599884
 11
43.895039
 21
-28.488552
  0
LINE
  5
352
100
AcDbEntity
  8
RACCORDO
100
AcDbLine
 62
7
  6
CONTINUOUS
 10
42.5458892987
 20
-22.4
 11
42.5476348052
 21
-22.5
  0
LINE
  5
353
100
AcDbEntity
  8
0
100
AcDbLine
 62
7
  6
CONTINUOUS
 10
41.316605
 20
-29.500022
 11
41.316612
 21
-26.599884
  0
LINE
  5
354
100
AcDbEntity
  8
0
100
AcDbLine
 62
7
  6
CONTINUOUS
 10
41.896634
 20
-26.599884
 11
41.896627
 21
-29.500015
  0
LINE
  5
355
100
AcDbEntity
  8
0
100
AcDbLine
 62
7
  6
CONTINUOUS
 10
42.476634
 20
-29.500015
 11
42.476634
 21
-26.599884
  0
LINE
  5
356
100
AcDbEntity
  8
0
100
AcDbLine
 62
7
  6
CONTINUOUS
 10
43.056656
 20
-27.587573
 11
43.056656
 21
-29.500015
  0
LINE
  5
357
100
AcDbEntity
  8
RACCORDO
100
AcDbLine
 62
7
  6
CONTINUOUS
 10
42.5476348052
 20
22.5
 11
42.5458892987
 21
22.4
  0
LINE
  5
358
100
AcDbEntity
  8
RACCORDO
100
AcDbLine
 62
250
  6
CONTINUOUS
 10
17.0050070024
 20
39.938538751
 11
-17.0050070024
 21
39.938538751
  0
LINE
  5
359
100
AcDbEntity
  8
RACCORDO
100
AcDbLine
 62
250
  6
CONTINUOUS
 10
17.0004889871
 20
41.2986541908
 11
-17.0004241455
 21
41.2986541908
  0
LINE
  5
35A
100
AcDbEntity
  8
DRAFT
100
AcDbLine
 62
7
  6
CONTINUOUS
 10
-62.0
 20
41.5
 11
62.0
 21
41.5
  0
LINE
  5
35B
100
AcDbEntity
  8
SUPERFICI
100
AcDbLine
 62
7
  6
CONTINUOUS
 10
61.9999926736
 20
41.5000001746
 11
-61.9999926736
 21
41.5000001746
  0
LINE
  5
35C
100
AcDbEntity
  8
0
100
AcDbLine
 62
7
  6
CONTINUOUS
 10
44.733421
 20
-29.500015
 11
44.733414
 21
-27.587573
  0
LINE
  5
35D
100
AcDbEntity
  8
0
100
AcDbLine
 62
7
  6
CONTINUOUS
 10
45.313443
 20
-26.599884
 11
45.313443
 21
-29.500015
  0
LINE
  5
35E
100
AcDbEntity
  8
0
100
AcDbLine
 62
7
  6
CONTINUOUS
 10
39.70878
 20
-28.59678
 11
40.349905
 21
-26.599884
  0
LINE
  5
35F
100
AcDbEntity
  8
0
100
AcDbLine
 62
7
  6
CONTINUOUS
 10
40.929934
 20
-26.599884
 11
39.998794
 21
-29.500015
  0
LINE
  5
360
100
AcDbEntity
  8
RACCORDO
100
AcDbLine
 62
250
  6
CONTINUOUS
 10
50.55
 20
24.1001427952
 11
50.5477262872
 21
25.8883190714
  0
LINE
  5
361
100
AcDbEntity
  8
0
100
AcDbLine
 62
7
  6
CONTINUOUS
 10
48.529115
 20
-29.500007
 11
48.529115
 21
-26.599877
  0
LINE
  5
362
100
AcDbEntity
  8
0
100
AcDbLine
 62
7
  6
CONTINUOUS
 10
49.10114
 20
-27.136398
 11
49.101148
 21
-27.842128
  0
LINE
  5
363
100
AcDbEntity
  8
RACCORDO
100
AcDbLine
 62
250
  6
CONTINUOUS
 10
50.55
 20
24.1001427898
 11
50.55
 21
22.5
  0
LINE
  5
364
100
AcDbEntity
  8
RACCORDO
100
AcDbLine
 62
250
  6
CONTINUOUS
 10
50.55
 20
-24.1001427898
 11
50.55
 21
-22.5
  0
LINE
  5
365
100
AcDbEntity
  8
RACCORDO
100
AcDbLine
 62
7
  6
CONTINUOUS
 10
50.75
 20
-14.1958892987
 11
50.75
 21
-8.3041107013
  0
LINE
  5
366
100
AcDbEntity
  8
RACCORDO
100
AcDbLine
 62
7
  6
CONTINUOUS
 10
50.75
 20
8.3041107013
 11
50.75
 21
14.1958892987
  0
LINE
  5
367
100
AcDbEntity
  8
0
100
AcDbLine
 62
7
  6
CONTINUOUS
 10
50.803866
 20
-7.286824
 11
50.803866
 21
-8.3041107013
  0
LINE
  5
368
100
AcDbEntity
  8
0
100
AcDbLine
 62
7
  6
CONTINUOUS
 10
50.85
 20
22.2
 11
50.85
 21
-22.2
  0
LINE
  5
369
100
AcDbEntity
  8
RACCORDO
100
AcDbLine
 62
250
  6
CONTINUOUS
 10
52.4501333992
 20
22.2
 11
52.4501333992
 21
-22.2
  0
LINE
  5
36A
100
AcDbEntity
  8
0
100
AcDbLine
 62
7
  6
CONTINUOUS
 10
49.10921
 20
-28.37865
 11
49.109144
 21
-29.500007
  0
LINE
  5
36B
100
AcDbEntity
  8
RACCORDO
100
AcDbLine
 62
250
  6
CONTINUOUS
 10
50.55
 20
-24.1001427919
 11
50.5477262916
 21
-25.8883190936
  0
LINE
  5
36C
100
AcDbEntity
  8
0
100
AcDbLine
 62
7
  6
CONTINUOUS
 10
43.895039
 20
-28.488552
 11
44.436606
 21
-26.599884
  0
LINE
  5
36D
100
AcDbEntity
  8
0
100
AcDbLine
 62
7
  6
CONTINUOUS
 10
44.733414
 20
-27.587573
 11
44.185039
 21
-29.500007
  0
LINE
  5
36E
100
AcDbEntity
  8
0
100
AcDbLine
 62
7
  6
CONTINUOUS
 10
45.700122
 20
-29.500015
 11
46.631247
 21
-26.599877
  0
LINE
  5
36F
100
AcDbEntity
  8
0
100
AcDbLine
 62
7
  6
CONTINUOUS
 10
46.921268
 20
-27.503118
 11
46.640179
 21
-28.378657
  0
LINE
  5
370
100
AcDbEntity
  8
0
100
AcDbLine
 62
7
  6
CONTINUOUS
 10
46.463257
 20
-28.929679
 11
46.280144
 21
-29.500007
  0
LWPOLYLINE
  5
371
100
AcDbEntity
  8
0
100
AcDbPolyline
 62
7
  6
CONTINUOUS
 90
6
 70
0
 43
0.3500000006
 10
-1.3928570824
 20
50.2500014191
 10
-0.3214285684
 20
50.2500014191
 10
-0.1071428532
 20
50.4642859039
 10
-0.1071428532
 20
51.5357128601
 10
-0.5357142924
 20
51.9642863617
 10
-0.9642857051
 20
51.9642863617
  0
LINE
  5
372
100
AcDbEntity
  8
0
100
AcDbLine
 62
7
  6
CONTINUOUS
 10
62.2388223726
 20
-34.377893713
 11
62.3450726739
 21
-34.3283951111
  0
LINE
  5
373
100
AcDbEntity
  8
0
100
AcDbLine
 62
7
  6
CONTINUOUS
 10
62.3450726247
 20
34.328395019
 11
62.2388223825
 21
34.3778937063
  0
LINE
  5
374
100
AcDbEntity
  8
RACCORDO
100
AcDbLine
 62
250
  6
CONTINUOUS
 10
61.9999943184
 20
41.5000001746
 11
61.9999943643
 21
41.3019448726
  0
LINE
  5
375
100
AcDbEntity
  8
RACCORDO
100
AcDbLine
 62
250
  6
CONTINUOUS
 10
61.9999943643
 20
-41.3019448726
 11
61.9999943184
 21
-41.5000001746
  0
LWPOLYLINE
  5
376
100
AcDbEntity
  8
0
100
AcDbPolyline
 62
7
  6
CONTINUOUS
 90
13
 70
0
 43
0.3500000006
 10
73.5357153625
 20
-1.8214286385
 10
73.3214263458
 20
-2.1071431732
 10
72.6785728912
 20
-2.1071431732
 10
72.2499993896
 20
-1.8214286385
 10
72.2499993896
 20
-1.178571785
 10
72.6785728912
 20
-0.8928561172
 10
73.3214263458
 20
-0.8928561172
 10
73.5357153625
 20
-1.178571785
 10
73.9642843323
 20
-0.7500005493
 10
74.8214268036
 20
-0.7500005493
 10
75.2500003052
 20
-1.178571785
 10
75.2500003052
 20
-1.8214286385
 10
74.8214268036
 20
-2.2499998741
  0
LINE
  5
377
100
AcDbEntity
  8
0
100
AcDbLine
 62
7
  6
CONTINUOUS
 10
61.7611776274
 20
-36.622106287
 11
61.6549273261
 21
-36.6716048889
  0
LINE
  5
378
100
AcDbEntity
  8
0
100
AcDbLine
 62
7
  6
CONTINUOUS
 10
61.6549273753
 20
36.671604981
 11
61.7611776175
 21
36.6221062937
  0
LWPOLYLINE
  5
379
100
AcDbEntity
  8
0
100
AcDbPolyline
 62
7
  6
CONTINUOUS
 90
5
 70
0
 43
0.3500000006
 10
73.5357153625
 20
0.9642866592
 10
73.3214263458
 20
1.321428978
 10
72.6785728912
 20
1.321428978
 10
72.2499993896
 20
0.9642866592
 10
72.2499993896
 20
0.107141922
  0
LINE
  5
37A
100
AcDbEntity
  8
DRAFT
100
AcDbLine
 62
7
  6
CONTINUOUS
 10
68.0
 20
35.5
 11
68.0
 21
-35.5
  0
LINE
  5
37B
100
AcDbEntity
  8
SUPERFICI
100
AcDbLine
 62
7
  6
CONTINUOUS
 10
67.9999998254
 20
-35.5000009498
 11
67.9999998254
 21
35.5000009498
  0
LWPOLYLINE
  5
37C
100
AcDbEntity
  8
0
100
AcDbPolyline
 62
7
  6
CONTINUOUS
 90
6
 70
0
 43
0.3500000006
 10
75.2500003052
 20
0.107141922
 10
75.2500003052
 20
1.1785711441
 10
75.0357158203
 20
1.3928578949
 10
73.9642843323
 20
1.3928578949
 10
73.5357153625
 20
0.9642866592
 10
73.5357153625
 20
0.5357131577
  0
LINE
  5
37D
100
AcDbEntity
  8
RACCORDO
100
AcDbLine
 62
7
  6
CONTINUOUS
 10
-85.4376712472
 20
-40.8730280729
 11
-121.3568688943
 21
-41.5
  0
LINE
  5
37E
100
AcDbEntity
  8
DRAFT
100
AcDbLine
 62
7
  6
CONTINUOUS
 10
-85.4376712472
 20
-40.8730280729
 11
-121.3568688943
 21
-41.5
  0
LINE
  5
37F
100
AcDbEntity
  8
RACCORDO
100
AcDbLine
 62
7
  6
CONTINUOUS
 10
-132.9110592566
 20
-41.2983180123
 11
-121.3568688943
 21
-41.5000001746
  0
LINE
  5
380
100
AcDbEntity
  8
SUPERFICI
100
AcDbLine
 62
7
  6
CONTINUOUS
 10
-132.7032792624
 20
-41.3019476877
 11
-121.3568688943
 21
-41.5
  0
LWPOLYLINE
  5
381
100
AcDbEntity
  8
RACCORDO
100
AcDbPolyline
 62
7
  6
CONTINUOUS
 90
13
 70
0
 10
-134.7064106242
 20
-40.1049792968
 10
-134.620580671
 20
-40.2768984136
 10
-134.518664256
 20
-40.439764633
 10
-134.4016086885
 20
-40.5920791168
 10
-134.2705004745
 20
-40.7324412703
 10
-134.1265543799
 20
-40.8595623529
 10
-133.9711019515
 20
-40.9722768788
 10
-133.8055784819
 20
-41.0695531917
 10
-133.6315150135
 20
-41.1504999999
 10
-133.4505240628
 20
-41.2143767982
 10
-133.2642775281
 20
-41.2606037563
 10
-133.0744904404
 20
-41.2887651351
 10
-132.911073188
 20
-41.2983177691
  0
LINE
  5
382
100
AcDbEntity
  8
RACCORDO
100
AcDbLine
 62
7
  6
CONTINUOUS
 10
-137.6429234747
 20
24.1187563744
 11
-137.6192410609
 21
24.1512973864
  0
LINE
  5
383
100
AcDbEntity
  8
RACCORDO
100
AcDbLine
 62
7
  6
CONTINUOUS
 10
-137.6568802541
 20
24.0999848785
 11
-137.6372386871
 21
24.1264892554
  0
LINE
  5
384
100
AcDbEntity
  8
RACCORDO
100
AcDbLine
 62
7
  6
CONTINUOUS
 10
-137.6497250671
 20
24.1095705546
 11
-137.6568642524
 21
24.1000062244
  0
LINE
  5
385
100
AcDbEntity
  8
ASSI
100
AcDbLine
 62
7
  6
CONTINUOUS
 10
-83.8568688943
 20
-36.0
 11
-84.3568688943
 21
-36.0
  0
LINE
  5
386
100
AcDbEntity
  8
RACCORDO
100
AcDbLine
 62
7
  6
CONTINUOUS
 10
-137.6569276511
 20
-24.0999216976
 11
-137.6509735896
 21
-24.1078993926
  0
LINE
  5
387
100
AcDbEntity
  8
RACCORDO
100
AcDbLine
 62
7
  6
CONTINUOUS
 10
-137.6568802541
 20
-24.0999848785
 11
-137.6372387147
 21
-24.126489218
  0
LINE
  5
388
100
AcDbEntity
  8
RACCORDO
100
AcDbLine
 62
7
  6
CONTINUOUS
 10
-137.6192410332
 20
-24.1512974249
 11
-137.6397430279
 21
-24.1230812804
  0
LINE
  5
389
100
AcDbEntity
  8
RACCORDO
100
AcDbLine
 62
7
  6
CONTINUOUS
 10
-134.7715938465
 20
-39.9368702802
 11
-134.7064106242
 21
-40.1049792968
  0
LWPOLYLINE
  5
38A
100
AcDbEntity
  8
SUPERFICI
100
AcDbPolyline
 62
7
  6
CONTINUOUS
 90
19
 70
0
 10
-134.9597516442
 20
39.365259215
 10
-135.1321421699
 20
38.8170692426
 10
-135.3077309134
 20
38.231322016
 10
-135.4814406497
 20
37.6206539258
 10
-135.651505416
 20
36.98785713
 10
-135.8177289281
 20
36.3297735205
 10
-135.9780511333
 20
35.6503367409
 10
-136.1314524586
 20
34.9496545168
 10
-136.2769881632
 20
34.2273484544
 10
-136.4130165613
 20
33.4867201867
 10
-136.5385636248
 20
32.7282549905
 10
-136.6528383623
 20
31.951365785
 10
-136.7547069605
 20
31.157822737
 10
-136.8433326141
 20
30.3475549381
 10
-136.9178370826
 20
29.5206781769
 10
-136.9772151662
 20
28.6793121579
 10
-137.0206726022
 20
27.8242461143
 10
-137.0474849413
 20
26.9549104256
 10
-137.05685734
 20
26.0714383859
  0
LINE
  5
38B
100
AcDbEntity
  8
SUPERFICI
100
AcDbLine
 62
7
  6
CONTINUOUS
 10
-134.7933889199
 20
39.8719787018
 11
-134.9597521335
 21
39.3652576936
  0
LINE
  5
38C
100
AcDbEntity
  8
SUPERFICI
100
AcDbLine
 62
7
  6
CONTINUOUS
 10
-134.7715946214
 20
39.9368679037
 11
-134.7933889199
 21
39.8719787018
  0
LINE
  5
38D
100
AcDbEntity
  8
RACCORDO
100
AcDbLine
 62
7
  6
CONTINUOUS
 10
-137.1925416094
 20
25.0081044412
 11
-137.2737045524
 21
24.780230592
  0
LINE
  5
38E
100
AcDbEntity
  8
RACCORDO
100
AcDbLine
 62
7
  6
CONTINUOUS
 10
-137.2730948938
 20
24.7817490235
 11
-137.3723514705
 21
24.5608631324
  0
LINE
  5
38F
100
AcDbEntity
  8
RACCORDO
100
AcDbLine
 62
7
  6
CONTINUOUS
 10
-137.3715021715
 20
24.5625682215
 11
-137.4882534975
 21
24.3501061543
  0
LINE
  5
390
100
AcDbEntity
  8
RACCORDO
100
AcDbLine
 62
7
  6
CONTINUOUS
 10
-137.4871316336
 20
24.3519675489
 11
-137.6206649561
 21
24.1493140333
  0
LINE
  5
391
100
AcDbEntity
  8
RACCORDO
100
AcDbLine
 62
250
  6
CONTINUOUS
 10
-134.6260621937
 20
-35.6315315371
 11
-132.7534796126
 21
-35.5000000043
  0
LINE
  5
392
100
AcDbEntity
  8
RACCORDO
100
AcDbLine
 62
250
  6
CONTINUOUS
 10
-84.3568719537
 20
-35.5
 11
-132.7534796116
 21
-35.5000000194
  0
LINE
  5
393
100
AcDbEntity
  8
RACCORDO
100
AcDbLine
 62
7
  6
CONTINUOUS
 10
-137.6192410332
 20
-24.1512974249
 11
-137.4871316121
 21
-24.3519675846
  0
LWPOLYLINE
  5
394
100
AcDbEntity
  8
RACCORDO
100
AcDbPolyline
 62
7
  6
CONTINUOUS
 90
7
 70
0
 10
-137.4871316121
 20
-24.3519675846
 10
-137.3715021554
 20
-24.5625682537
 10
-137.2730948824
 20
-24.7817490517
 10
-137.1925416019
 20
-25.0081044649
 10
-137.1303596292
 20
-25.2401829132
 10
-137.0869484737
 20
-25.4764960605
 10
-137.0625872874
 20
-25.7155282805
  0
LINE
  5
395
100
AcDbEntity
  8
SUPERFICI
100
AcDbLine
 62
7
  6
CONTINUOUS
 10
-134.7933883739
 20
-39.8719803318
 11
-134.7715948158
 21
-39.9368673264
  0
LINE
  5
396
100
AcDbEntity
  8
SUPERFICI
100
AcDbLine
 62
7
  6
CONTINUOUS
 10
-134.9597520844
 20
-39.3652578464
 11
-134.7933888794
 21
-39.8719788229
  0
LINE
  5
397
100
AcDbEntity
  8
SUPERFICI
100
AcDbLine
 62
7
  6
CONTINUOUS
 10
-135.1321417493
 20
-38.8170706111
 11
-134.9597515907
 21
-39.3652593814
  0
LWPOLYLINE
  5
398
100
AcDbEntity
  8
SUPERFICI
100
AcDbPolyline
 62
7
  6
CONTINUOUS
 90
3
 70
0
 10
-135.4814407314
 20
-37.6206536306
 10
-135.3077307122
 20
-38.2313227043
 10
-135.1321417493
 20
-38.8170706111
  0
LWPOLYLINE
  5
399
100
AcDbEntity
  8
SUPERFICI
100
AcDbPolyline
 62
7
  6
CONTINUOUS
 90
4
 70
0
 10
-136.8433325305
 20
-30.3475557761
 10
-136.7547068705
 20
-31.1578234933
 10
-136.6528382663
 20
-31.9513664813
 10
-136.5385635265
 20
-32.728255619
  0
LINE
  5
39A
100
AcDbEntity
  8
RACCORDO
100
AcDbLine
 62
7
  6
CONTINUOUS
 10
-137.0869484758
 20
25.4764960466
 11
-137.130600313
 21
25.2391112729
  0
LINE
  5
39B
100
AcDbEntity
  8
RACCORDO
100
AcDbLine
 62
7
  6
CONTINUOUS
 10
-137.1303596336
 20
25.2401828942
 11
-137.1929475555
 21
25.0067986975
  0
LINE
  5
39C
100
AcDbEntity
  8
0
100
AcDbLine
 62
7
  6
CONTINUOUS
 10
-136.9057810444
 20
-29.5
 11
-136.9559431583
 21
-29.5
  0
LINE
  5
39D
100
AcDbEntity
  8
RACCORDO
100
AcDbLine
 62
250
  6
CONTINUOUS
 10
-84.3593414324
 20
-29.4
 11
-85.0577678269
 21
-29.4000000001
  0
LWPOLYLINE
  5
39E
100
AcDbEntity
  8
SUPERFICI
100
AcDbPolyline
 62
7
  6
CONTINUOUS
 90
7
 70
0
 10
-136.4130164632
 20
-33.4867207479
 10
-136.2769880675
 20
-34.2273489514
 10
-136.1314523674
 20
-34.9496549501
 10
-135.9780510488
 20
-35.650337112
 10
-135.8177288533
 20
-36.3297738266
 10
-135.6515053528
 20
-36.9878573726
 10
-135.481440596
 20
-37.6206541201
  0
LINE
  5
39F
100
AcDbEntity
  8
SUPERFICI
100
AcDbLine
 62
7
  6
CONTINUOUS
 10
-136.5385635265
 20
-32.728255619
 11
-136.4130164632
 21
-33.4867207479
  0
LINE
  5
3A0
100
AcDbEntity
  8
SUPERFICI
100
AcDbLine
 62
7
  6
CONTINUOUS
 10
-136.9178370093
 20
-29.5206790887
 11
-136.8433325305
 21
-30.3475557761
  0
LINE
  5
3A1
100
AcDbEntity
  8
SUPERFICI
100
AcDbLine
 62
7
  6
CONTINUOUS
 10
-136.9193113486
 20
-29.5002190894
 11
-136.9178375502
 21
-29.520672361
  0
LINE
  5
3A2
100
AcDbEntity
  8
RACCORDO
100
AcDbLine
 62
7
  6
CONTINUOUS
 10
-137.0625872874
 20
-25.7155282805
 11
-137.05691431
 21
-25.8984760268
  0
LINE
  5
3A3
100
AcDbEntity
  8
SUPERFICI
100
AcDbLine
 62
7
  6
CONTINUOUS
 10
-137.0568573398
 20
-26.0714381439
 11
-137.0512512306
 21
-26.5998886065
  0
LINE
  5
3A4
100
AcDbEntity
  8
SUPERFICI
100
AcDbLine
 62
7
  6
CONTINUOUS
 10
-137.0568885594
 20
-25.9013704698
 11
-137.0568597487
 21
-26.0711897705
  0
LINE
  5
3A5
100
AcDbEntity
  8
0
100
AcDbLine
 62
7
  6
CONTINUOUS
 10
-137.8568688943
 20
23.5
 11
-137.8568688943
 21
-23.5
  0
LINE
  5
3A6
100
AcDbEntity
  8
RACCORDO
100
AcDbLine
 62
250
  6
CONTINUOUS
 10
-137.656761782
 20
24.1001427898
 11
-137.656761782
 21
-24.1001427898
  0
LINE
  5
3A7
100
AcDbEntity
  8
SUPERFICI
100
AcDbLine
 62
7
  6
CONTINUOUS
 10
-137.0570961696
 20
20.1034717421
 11
-137.0572070308
 21
10.868803833
  0
LINE
  5
3A8
100
AcDbEntity
  8
SUPERFICI
100
AcDbLine
 62
7
  6
CONTINUOUS
 10
-137.0572070309
 20
-10.8687776296
 11
-137.0570961864
 21
-20.1027255346
  0
LINE
  5
3A9
100
AcDbEntity
  8
SUPERFICI
100
AcDbLine
 62
7
  6
CONTINUOUS
 10
-137.0568597487
 20
26.0711897161
 11
-137.0568885603
 21
25.9013616185
  0
LINE
  5
3AA
100
AcDbEntity
  8
RACCORDO
100
AcDbLine
 62
7
  6
CONTINUOUS
 10
-137.0569127325
 20
25.8984612742
 11
-137.0626202823
 21
25.7149697424
  0
LINE
  5
3AB
100
AcDbEntity
  8
RACCORDO
100
AcDbLine
 62
7
  6
CONTINUOUS
 10
-137.0626202823
 20
25.7149697424
 11
-137.0870643436
 21
25.4756751627
  0
LINE
  5
3AC
100
AcDbEntity
  8
RACCORDO
100
AcDbLine
 62
250
  6
CONTINUOUS
 10
-90.8046713246
 20
-29.1
 11
-90.1568688943
 21
-29.1
  0
LINE
  5
3AD
100
AcDbEntity
  8
0
100
AcDbLine
 62
7
  6
CONTINUOUS
 10
-136.9890580722
 20
-28.3089026669
 11
-137.0391306054
 21
-28.3089026669
  0
LINE
  5
3AE
100
AcDbEntity
  8
0
100
AcDbLine
 62
7
  6
CONTINUOUS
 10
-137.0501571619
 20
-26.599877
 11
-137.1001657355
 21
-26.599877
  0
LINE
  5
3AF
100
AcDbEntity
  8
RACCORDO
100
AcDbLine
 62
250
  6
CONTINUOUS
 10
-90.8046713246
 20
-23.9
 11
-90.1568688943
 21
-23.9000000084
  0
LINE
  5
3B0
100
AcDbEntity
  8
RACCORDO
100
AcDbLine
 62
250
  6
CONTINUOUS
 10
-84.3593414324
 20
-23.6
 11
-85.057767999
 21
-23.6
  0
LINE
  5
3B1
100
AcDbEntity
  8
RACCORDO
100
AcDbLine
 62
250
  6
CONTINUOUS
 10
-137.6567683942
 20
-22.2
 11
-137.0565121322
 21
-22.19731196
  0
LINE
  5
3B2
100
AcDbEntity
  8
RACCORDO
100
AcDbLine
 62
250
  6
CONTINUOUS
 10
-137.6567688275
 20
-22.2
 11
-137.8568688943
 21
-22.2
  0
LINE
  5
3B3
100
AcDbEntity
  8
ASSI
100
AcDbLine
 62
7
  6
CONTINUOUS
 10
-83.8568688943
 20
-17.0
 11
-84.3568688943
 21
-17.0
  0
LINE
  5
3B4
100
AcDbEntity
  8
0
100
AcDbLine
 62
7
  6
CONTINUOUS
 10
-84.3568688943
 20
-16.5
 11
-84.1568688943
 21
-16.5
  0
LWPOLYLINE
  5
3B5
100
AcDbEntity
  8
0
100
AcDbPolyline
 62
7
  6
CONTINUOUS
 90
3
 70
0
 43
0.3500000006
 10
-109.5711564331
 20
50.5357125549
 10
-109.642587616
 20
50.3214280701
 10
-109.785440918
 20
50.0357124023
  0
LINE
  5
3B6
100
AcDbEntity
  8
DRAFT
100
AcDbLine
 62
7
  6
CONTINUOUS
 10
-121.3568688943
 20
41.5
 11
-121.3568688943
 21
-41.5
  0
LINE
  5
3B7
100
AcDbEntity
  8
SUPERFICI
100
AcDbLine
 62
7
  6
CONTINUOUS
 10
-121.3568688943
 20
-41.5000001587
 11
-121.3568688943
 21
41.5000001587
  0
LINE
  5
3B8
100
AcDbEntity
  8
ASSI
100
AcDbLine
 62
7
  6
CONTINUOUS
 10
-84.1568688943
 20
-4.8
 11
-83.8568688943
 21
-4.8
  0
LWPOLYLINE
  5
3B9
100
AcDbEntity
  8
0
100
AcDbPolyline
 62
7
  6
CONTINUOUS
 90
2
 70
0
 43
0.3500000006
 10
-111.6425791626
 20
50.2500014191
 10
-111.6425791626
 20
51.7500018768
  0
LINE
  5
3BA
100
AcDbEntity
  8
0
100
AcDbLine
 62
7
  6
CONTINUOUS
 10
-84.3568688943
 20
-1.8039302591
 11
-84.1568688943
 21
-1.80393
  0
LINE
  5
3BB
100
AcDbEntity
  8
0
100
AcDbLine
 62
7
  6
CONTINUOUS
 10
-84.3568688943
 20
-1.6038029945
 11
-84.1568688943
 21
-1.603803
  0
LINE
  5
3BC
100
AcDbEntity
  8
0
100
AcDbLine
 62
7
  6
CONTINUOUS
 10
-84.3568688943
 20
-1.576121
 11
-84.1568688943
 21
-1.576121
  0
LINE
  5
3BD
100
AcDbEntity
  8
0
100
AcDbLine
 62
7
  6
CONTINUOUS
 10
-84.3568688943
 20
-0.115089
 11
-84.1568688943
 21
-0.115089
  0
LINE
  5
3BE
100
AcDbEntity
  8
0
100
AcDbLine
 62
7
  6
CONTINUOUS
 10
-84.1568688943
 20
-0.0150909992
 11
-84.3568688943
 21
-0.0150909992
  0
LINE
  5
3BF
100
AcDbEntity
  8
RACCORDO
100
AcDbLine
 62
250
  6
CONTINUOUS
 10
-134.7191019513
 20
0.0002018696
 11
-132.8917449012
 21
-0.0000129678
  0
LINE
  5
3C0
100
AcDbEntity
  8
RACCORDO
100
AcDbLine
 62
250
  6
CONTINUOUS
 10
-137.6568401467
 20
-0.0080461816
 11
-137.0567646572
 21
-0.008325262
  0
LINE
  5
3C1
100
AcDbEntity
  8
0
100
AcDbLine
 62
7
  6
CONTINUOUS
 10
-84.3568688943
 20
0.4588525029
 11
-84.1568688943
 21
0.458853
  0
LINE
  5
3C2
100
AcDbEntity
  8
0
100
AcDbLine
 62
7
  6
CONTINUOUS
 10
-84.3568688943
 20
0.5757352884
 11
-84.1568688943
 21
0.575735
  0
LINE
  5
3C3
100
AcDbEntity
  8
0
100
AcDbLine
 62
7
  6
CONTINUOUS
 10
-84.3568688943
 20
2.2215145954
 11
-84.1568688943
 21
2.2215145954
  0
LINE
  5
3C4
100
AcDbEntity
  8
0
100
AcDbLine
 62
7
  6
CONTINUOUS
 10
-84.1568688943
 20
2.3010943301
 11
-84.2844973835
 21
2.301094312
  0
LINE
  5
3C5
100
AcDbEntity
  8
ASSI
100
AcDbLine
 62
7
  6
CONTINUOUS
 10
-84.1568688943
 20
4.8
 11
-83.8568688943
 21
4.8
  0
LINE
  5
3C6
100
AcDbEntity
  8
0
100
AcDbLine
 62
7
  6
CONTINUOUS
 10
-84.3568688943
 20
16.5
 11
-84.1568688943
 21
16.5
  0
LINE
  5
3C7
100
AcDbEntity
  8
RACCORDO
100
AcDbLine
 62
250
  6
CONTINUOUS
 10
-90.8046713246
 20
-29.1
 11
-90.8046713246
 21
-23.9
  0
LINE
  5
3C8
100
AcDbEntity
  8
ASSI
100
AcDbLine
 62
7
  6
CONTINUOUS
 10
-84.3568688943
 20
17.0
 11
-83.8568688943
 21
17.0
  0
LINE
  5
3C9
100
AcDbEntity
  8
RACCORDO
100
AcDbLine
 62
7
  6
CONTINUOUS
 10
-90.1568688943
 20
-29.0999999917
 11
-90.1568688943
 21
-23.9000000084
  0
LINE
  5
3CA
100
AcDbEntity
  8
RACCORDO
100
AcDbLine
 62
250
  6
CONTINUOUS
 10
-137.6567688275
 20
22.2
 11
-137.8568688943
 21
22.2
  0
LINE
  5
3CB
100
AcDbEntity
  8
RACCORDO
100
AcDbLine
 62
250
  6
CONTINUOUS
 10
-137.6567687612
 20
22.2
 11
-137.0565120188
 21
22.1973119599
  0
LWPOLYLINE
  5
3CC
100
AcDbEntity
  8
0
100
AcDbPolyline
 62
7
  6
CONTINUOUS
 90
10
 70
0
 43
0.3500000006
 10
-109.642587616
 20
50.7500015717
 10
-109.5711564331
 20
50.6071437378
 10
-109.5711564331
 20
50.5357125549
 10
-109.7140097351
 20
50.3928592529
 10
-109.785440918
 20
50.3928592529
 10
-109.8568721008
 20
50.4642859039
 10
-109.8568721008
 20
50.5357125549
 10
-109.785440918
 20
50.6785703888
 10
-109.7140097351
 20
50.7500015717
 10
-109.642587616
 20
50.7500015717
  0
LINE
  5
3CD
100
AcDbEntity
  8
RACCORDO
100
AcDbLine
 62
250
  6
CONTINUOUS
 10
-85.4376712472
 20
40.8730280729
 11
-85.4376712472
 21
-22.9810015616
  0
LINE
  5
3CE
100
AcDbEntity
  8
RACCORDO
100
AcDbLine
 62
250
  6
CONTINUOUS
 10
-85.4376712472
 20
-30.0189984384
 11
-85.4376712472
 21
-40.8730280729
  0
LINE
  5
3CF
100
AcDbEntity
  8
RACCORDO
100
AcDbLine
 62
250
  6
CONTINUOUS
 10
-85.057767999
 20
-23.6
 11
-85.057767999
 21
-29.4
  0
LINE
  5
3D0
100
AcDbEntity
  8
RACCORDO
100
AcDbLine
 62
250
  6
CONTINUOUS
 10
-84.3593414324
 20
-23.6
 11
-84.3593414324
 21
-29.4
  0
LINE
  5
3D1
100
AcDbEntity
  8
RACCORDO
100
AcDbLine
 62
7
  6
CONTINUOUS
 10
-84.3569141662
 20
39.7757892356
 11
-84.3569141662
 21
-39.7757892356
  0
LINE
  5
3D2
100
AcDbEntity
  8
0
100
AcDbLine
 62
7
  6
CONTINUOUS
 10
-84.1568688943
 20
16.5
 11
-84.1568688943
 21
-1.576121
  0
LINE
  5
3D3
100
AcDbEntity
  8
0
100
AcDbLine
 62
7
  6
CONTINUOUS
 10
-84.1568688943
 20
-1.603803
 11
-84.1568688943
 21
-16.5
  0
LINE
  5
3D4
100
AcDbEntity
  8
RACCORDO
100
AcDbLine
 62
250
  6
CONTINUOUS
 10
-83.8568688943
 20
36.0
 11
-83.8568688943
 21
17.0
  0
LINE
  5
3D5
100
AcDbEntity
  8
RACCORDO
100
AcDbLine
 62
250
  6
CONTINUOUS
 10
-83.8568688943
 20
4.8
 11
-83.8568688943
 21
-4.8
  0
LINE
  5
3D6
100
AcDbEntity
  8
RACCORDO
100
AcDbLine
 62
250
  6
CONTINUOUS
 10
-83.8568688943
 20
-17.0
 11
-83.8568688943
 21
-36.0
  0
LINE
  5
3D7
100
AcDbEntity
  8
RACCORDO
100
AcDbLine
 62
7
  6
CONTINUOUS
 10
-83.3568688943
 20
35.4995917482
 11
-83.3568688943
 21
17.5004082518
  0
LINE
  5
3D8
100
AcDbEntity
  8
RACCORDO
100
AcDbLine
 62
7
  6
CONTINUOUS
 10
-83.3568688943
 20
4.2996144255
 11
-83.3568688943
 21
-4.2996144255
  0
LINE
  5
3D9
100
AcDbEntity
  8
RACCORDO
100
AcDbLine
 62
7
  6
CONTINUOUS
 10
-83.3568688943
 20
-17.5004082518
 11
-83.3568688943
 21
-35.4995917482
  0
LINE
  5
3DA
100
AcDbEntity
  8
RACCORDO
100
AcDbLine
 62
250
  6
CONTINUOUS
 10
-84.3568719537
 20
35.5
 11
-132.7534796117
 21
35.5000000194
  0
LINE
  5
3DB
100
AcDbEntity
  8
ASSI
100
AcDbLine
 62
7
  6
CONTINUOUS
 10
-84.3568688943
 20
36.0
 11
-83.8568688943
 21
36.0
  0
LINE
  5
3DC
100
AcDbEntity
  8
RACCORDO
100
AcDbLine
 62
250
  6
CONTINUOUS
 10
-134.6260660241
 20
35.6315318012
 11
-132.753478984
 21
35.5000000026
  0
LINE
  5
3DD
100
AcDbEntity
  8
RACCORDO
100
AcDbLine
 62
7
  6
CONTINUOUS
 10
-132.9110732765
 20
41.2983177676
 11
-133.0742242407
 21
41.2887916519
  0
LINE
  5
3DE
100
AcDbEntity
  8
SUPERFICI
100
AcDbLine
 62
7
  6
CONTINUOUS
 10
-121.3568688943
 20
41.5
 11
-132.7032792624
 21
41.3019476877
  0
LINE
  5
3DF
100
AcDbEntity
  8
RACCORDO
100
AcDbLine
 62
7
  6
CONTINUOUS
 10
-121.3568688943
 20
41.5000001746
 11
-132.9110643385
 21
41.2983179236
  0
LINE
  5
3E0
100
AcDbEntity
  8
RACCORDO
100
AcDbLine
 62
7
  6
CONTINUOUS
 10
-85.4376712472
 20
40.8730280729
 11
-121.3568688943
 21
41.5
  0
LWPOLYLINE
  5
3E1
100
AcDbEntity
  8
RACCORDO
100
AcDbPolyline
 62
7
  6
CONTINUOUS
 90
13
 70
0
 10
-133.0742242407
 20
41.2887916519
 10
-133.2640226249
 20
41.260654179
 10
-133.4502843877
 20
41.2144486636
 10
-133.6312941632
 20
41.1505901007
 10
-133.8053793741
 20
41.0696577183
 10
-133.9709265401
 20
40.972391681
 10
-134.1264038145
 20
40.8596830228
 10
-134.2703752864
 20
40.7325630879
 10
-134.4015086678
 20
40.5921971743
 10
-134.5185883753
 20
40.4398739749
 10
-134.6205270372
 20
40.2769942078
 10
-134.7063765009
 20
40.105056953
 10
-134.7715941493
 20
39.9368696549
  0
LWPOLYLINE
  5
3E2
100
AcDbEntity
  8
0
100
AcDbPolyline
 62
7
  6
CONTINUOUS
 90
8
 70
0
 43
0.3500000006
 10
-114.7854424438
 20
50.2500014191
 10
-113.9282954407
 20
50.2500014191
 10
-113.4997264709
 20
50.6785703888
 10
-113.4997264709
 20
51.5357128601
 10
-113.9282954407
 20
51.9642863617
 10
-114.7854424438
 20
51.9642863617
 10
-114.7854424438
 20
53.2500023346
 10
-113.4997264709
 20
53.2500023346
  0
LWPOLYLINE
  5
3E3
100
AcDbEntity
  8
0
100
AcDbPolyline
 62
7
  6
CONTINUOUS
 90
8
 70
0
 43
0.3500000006
 10
-108.5711561279
 20
50.2500014191
 10
-107.7140091248
 20
50.2500014191
 10
-107.285440155
 20
50.6785703888
 10
-107.285440155
 20
51.5357128601
 10
-107.7140091248
 20
51.9642863617
 10
-108.5711561279
 20
51.9642863617
 10
-108.5711561279
 20
53.2500023346
 10
-107.285440155
 20
53.2500023346
  0
LWPOLYLINE
  5
3E4
100
AcDbEntity
  8
0
100
AcDbPolyline
 62
7
  6
CONTINUOUS
 90
3
 70
0
 43
0.3500000006
 10
-111.14257901
 20
50.8928594055
 10
-112.6425794678
 20
50.8928594055
 10
-111.9997260132
 20
53.2500023346
  0
ARC
  5
3E5
100
AcDbEntity
  8
0
100
AcDbCircle
 62
7
  6
CONTINUOUS
 10
-180.3305177913
 20
-33.9040425435
 40
242.1025844395
100
AcDbArc
 50
359.8932861206
 51
0.0180003575
  0
ARC
  5
3E6
100
AcDbEntity
  8
0
100
AcDbCircle
 62
7
  6
CONTINUOUS
 10
-304.3305177913
 20
-33.9040425435
 40
242.1025844395
100
AcDbArc
 50
359.8932861206
 51
0.0180003575
  0
ARC
  5
3E7
100
AcDbEntity
  8
0
100
AcDbCircle
 62
7
  6
CONTINUOUS
 10
-120.7945215841
 20
-46.8371133627
 40
60.4393193488
100
AcDbArc
 50
11.9623214459
 51
12.4297492123
  0
ARC
  5
3E8
100
AcDbEntity
  8
0
100
AcDbCircle
 62
7
  6
CONTINUOUS
 10
-47.8452135402
 20
-42.148244992
 40
16.3325065963
100
AcDbArc
 50
153.8020281047
 51
153.9650620882
  0
ARC
  5
3E9
100
AcDbEntity
  8
0
100
AcDbCircle
 62
7
  6
CONTINUOUS
 10
-55.3517867936
 20
-49.6547190763
 40
16.3324320992
100
AcDbArc
 50
116.0349414747
 51
116.1979762293
  0
ARC
  5
3EA
100
AcDbEntity
  8
0
100
AcDbCircle
 62
7
  6
CONTINUOUS
 10
-68.6317757093
 20
-49.6210429427
 40
16.2949584664
100
AcDbArc
 50
63.8016065453
 51
63.9650178299
  0
ARC
  5
3EB
100
AcDbEntity
  8
0
100
AcDbCircle
 62
7
  6
CONTINUOUS
 10
-76.1165577381
 20
-42.1296060671
 40
16.2899760934
100
AcDbArc
 50
26.0350495777
 51
26.1985114897
  0
ARC
  5
3EC
100
AcDbEntity
  8
0
100
AcDbCircle
 62
7
  6
CONTINUOUS
 10
-67.8668026416
 20
-47.927971491
 40
14.5812680924
100
AcDbArc
 50
63.3129788868
 51
63.5528085468
  0
ARC
  5
3ED
100
AcDbEntity
  8
0
100
AcDbCircle
 62
7
  6
CONTINUOUS
 10
-56.156298337
 20
-47.8818629705
 40
14.5296967197
100
AcDbArc
 50
116.4466091603
 51
116.6872922796
  0
ARC
  5
3EE
100
AcDbEntity
  8
RACCORDO
100
AcDbCircle
 62
250
  6
CONTINUOUS
 10
-62.2922015774
 20
-37.697185966
 40
90.888331383
100
AcDbArc
 50
42.3897981643
 51
43.5314287929
  0
ARC
  5
3EF
100
AcDbEntity
  8
0
100
AcDbCircle
 62
7
  6
CONTINUOUS
 10
-76.1547864593
 20
-28.8517550082
 40
16.3325065958
100
AcDbArc
 50
333.8020281047
 51
333.9650620882
  0
ARC
  5
3F0
100
AcDbEntity
  8
DRAFT
100
AcDbCircle
 62
7
  6
CONTINUOUS
 10
-62.0
 20
-35.5
 40
6.0
100
AcDbArc
 50
180.0
 51
270.0
  0
ARC
  5
3F1
100
AcDbEntity
  8
SUPERFICI
100
AcDbCircle
 62
7
  6
CONTINUOUS
 10
-61.9999999014
 20
-35.5
 40
6.0
100
AcDbArc
 50
180.00000907
 51
270.000069021
  0
ARC
  5
3F2
100
AcDbEntity
  8
RACCORDO
100
AcDbCircle
 62
250
  6
CONTINUOUS
 10
-62.0014088596
 20
-35.5023854348
 40
5.799719567
100
AcDbArc
 50
179.9764341075
 51
270.0139742635
  0
CIRCLE
  5
3F3
100
AcDbEntity
  8
0
100
AcDbCircle
 62
7
  6
CONTINUOUS
 10
-62.0
 20
-35.5
 40
3.25
  0
CIRCLE
  5
3F4
100
AcDbEntity
  8
0
100
AcDbCircle
 62
7
  6
CONTINUOUS
 10
-62.0
 20
-35.5
 40
3.0
  0
ARC
  5
3F5
100
AcDbEntity
  8
0
100
AcDbCircle
 62
7
  6
CONTINUOUS
 10
-62.0
 20
-35.5
 40
2.8950136038
100
AcDbArc
 50
168.0385857315
 51
191.9614142685
  0
ARC
  5
3F6
100
AcDbEntity
  8
0
100
AcDbCircle
 62
7
  6
CONTINUOUS
 10
-62.0
 20
-35.5
 40
2.8950136038
100
AcDbArc
 50
348.0385857315
 51
11.9614142685
  0
ARC
  5
3F7
100
AcDbEntity
  8
0
100
AcDbCircle
 62
7
  6
CONTINUOUS
 10
-62.0
 20
-35.5
 40
2.8155023425
100
AcDbArc
 50
12.3044249574
 51
167.6955750426
  0
ARC
  5
3F8
100
AcDbEntity
  8
0
100
AcDbCircle
 62
7
  6
CONTINUOUS
 10
-62.0
 20
-35.5
 40
2.8155023425
100
AcDbArc
 50
192.3044249574
 51
347.6955750426
  0
ARC
  5
3F9
100
AcDbEntity
  8
0
100
AcDbCircle
 62
7
  6
CONTINUOUS
 10
-62.0
 20
-35.5
 40
1.6874840352
100
AcDbArc
 50
82.230101045
 51
97.7632444202
  0
ARC
  5
3FA
100
AcDbEntity
  8
0
100
AcDbCircle
 62
7
  6
CONTINUOUS
 10
-62.0
 20
-35.5
 40
1.6874840352
100
AcDbArc
 50
262.2301010241
 51
277.7632444202
  0
ARC
  5
3FB
100
AcDbEntity
  8
TRASH
100
AcDbCircle
 62
7
  6
CONTINUOUS
 10
-62.0
 20
-35.5
 40
1.1472328625
100
AcDbArc
 50
257.9845776281
 51
282.0153200785
  0
ARC
  5
3FC
100
AcDbEntity
  8
TRASH
100
AcDbCircle
 62
7
  6
CONTINUOUS
 10
-62.0
 20
-35.5
 40
1.1472328625
100
AcDbArc
 50
77.9845776281
 51
102.0153200785
  0
ARC
  5
3FD
100
AcDbEntity
  8
0
100
AcDbCircle
 62
7
  6
CONTINUOUS
 10
-62.0
 20
-35.5
 40
0.7522905861
100
AcDbArc
 50
127.1018788914
 51
131.6490663885
  0
ARC
  5
3FE
100
AcDbEntity
  8
0
100
AcDbCircle
 62
7
  6
CONTINUOUS
 10
-62.0
 20
-35.5
 40
0.7522905861
100
AcDbArc
 50
138.3509342563
 51
221.6490283615
  0
ARC
  5
3FF
100
AcDbEntity
  8
0
100
AcDbCircle
 62
7
  6
CONTINUOUS
 10
-62.0
 20
-35.5
 40
0.7522905861
100
AcDbArc
 50
228.3509867785
 51
232.8981211086
  0
ARC
  5
400
100
AcDbEntity
  8
0
100
AcDbCircle
 62
7
  6
CONTINUOUS
 10
-62.0
 20
-35.5
 40
0.7522905861
100
AcDbArc
 50
307.1018788914
 51
311.6490663885
  0
ARC
  5
401
100
AcDbEntity
  8
0
100
AcDbCircle
 62
7
  6
CONTINUOUS
 10
-62.0
 20
-35.5
 40
0.7522905861
100
AcDbArc
 50
318.3509342563
 51
41.6490283615
  0
ARC
  5
402
100
AcDbEntity
  8
0
100
AcDbCircle
 62
7
  6
CONTINUOUS
 10
-62.0
 20
-35.5
 40
0.7522905861
100
AcDbArc
 50
48.3509867785
 51
52.8981211086
  0
ARC
  5
403
100
AcDbEntity
  8
0
100
AcDbCircle
 62
7
  6
CONTINUOUS
 10
-47.8834422615
 20
-28.8703939327
 40
16.2899760939
100
AcDbArc
 50
206.0350495777
 51
206.1985114897
  0
ARC
  5
404
100
AcDbEntity
  8
DRAFT
100
AcDbCircle
 62
250
  6
CONTINUOUS
 10
-51.5
 20
-26.5
 40
8.5
100
AcDbArc
 50
28.084667214
 51
85.6164129523
  0
ARC
  5
405
100
AcDbEntity
  8
RACCORDO
100
AcDbCircle
 62
7
  6
CONTINUOUS
 10
-51.5
 20
-26.5
 40
8.0
100
AcDbArc
 50
30.0207343416
 51
85.3369426258
  0
ARC
  5
406
100
AcDbEntity
  8
RACCORDO
100
AcDbCircle
 62
7
  6
CONTINUOUS
 10
-51.5
 20
-26.5
 40
6.75
100
AcDbArc
 50
36.3710365755
 51
84.4704676394
  0
ARC
  5
407
100
AcDbEntity
  8
RACCORDO
100
AcDbCircle
 62
250
  6
CONTINUOUS
 10
-51.5
 20
-26.5
 40
6.0499956448
100
AcDbArc
 50
41.4158182062
 51
83.8276617469
  0
ARC
  5
408
100
AcDbEntity
  8
0
100
AcDbCircle
 62
7
  6
CONTINUOUS
 10
-51.5
 20
-26.5
 40
5.75
100
AcDbArc
 50
44.1163880161
 51
83.5033738741
  0
ARC
  5
409
100
AcDbEntity
  8
0
100
AcDbCircle
 62
7
  6
CONTINUOUS
 10
-4.7261417948
 20
-22.4063311369
 40
68.5629293378
100
AcDbArc
 50
347.5633735686
 51
347.9757007308
  0
ARC
  5
40A
100
AcDbEntity
  8
0
100
AcDbCircle
 62
7
  6
CONTINUOUS
 10
-128.7261417947
 20
-22.4063311369
 40
68.5629293377
100
AcDbArc
 50
347.5633735686
 51
347.9757007308
  0
ARC
  5
40B
100
AcDbEntity
  8
0
100
AcDbCircle
 62
7
  6
CONTINUOUS
 10
-3.2054769267
 20
-24.1628863243
 40
60.4393208711
100
AcDbArc
 50
191.9623214424
 51
192.429749198
  0
ARC
  5
40C
100
AcDbEntity
  8
0
100
AcDbCircle
 62
7
  6
CONTINUOUS
 10
-68.6482132064
 20
-21.3452809237
 40
16.3324320992
100
AcDbArc
 50
296.0349414747
 51
296.1979762293
  0
ARC
  5
40D
100
AcDbEntity
  8
0
100
AcDbCircle
 62
7
  6
CONTINUOUS
 10
-55.3682242903
 20
-21.3789570564
 40
16.2949584673
100
AcDbArc
 50
243.8016065453
 51
243.9650178299
  0
ARC
  5
40E
100
AcDbEntity
  8
0
100
AcDbCircle
 62
7
  6
CONTINUOUS
 10
-56.1331973581
 20
-23.0720285083
 40
14.5812680933
100
AcDbArc
 50
243.3129788868
 51
243.5528085468
  0
ARC
  5
40F
100
AcDbEntity
  8
0
100
AcDbCircle
 62
7
  6
CONTINUOUS
 10
-67.843701663
 20
-23.1181370295
 40
14.5296967197
100
AcDbArc
 50
296.4466091603
 51
296.6872922796
  0
ARC
  5
410
100
AcDbEntity
  8
RACCORDO
100
AcDbCircle
 62
250
  6
CONTINUOUS
 10
-6.1486558263
 20
-21.9597031257
 40
3.9402651366
100
AcDbArc
 50
269.98045445
 51
307.1570317185
  0
ARC
  5
411
100
AcDbEntity
  8
RACCORDO
100
AcDbCircle
 62
250
  6
CONTINUOUS
 10
-6.15
 20
-22.2
 40
3.7144926452
100
AcDbArc
 50
313.3207361737
 51
360.0
  0
ARC
  5
412
100
AcDbEntity
  8
RACCORDO
100
AcDbCircle
 62
250
  6
CONTINUOUS
 10
-6.15
 20
-22.2
 40
1.9036231613
100
AcDbArc
 50
313.6635149338
 51
360.0
  0
ARC
  5
413
100
AcDbEntity
  8
RACCORDO
100
AcDbCircle
 62
250
  6
CONTINUOUS
 10
-50.55
 20
-22.2
 40
1.9002815514
100
AcDbArc
 50
180.0
 51
270.0
  0
ARC
  5
414
100
AcDbEntity
  8
0
100
AcDbCircle
 62
7
  6
CONTINUOUS
 10
-52.3948006677
 20
-0.0020182686
 40
1.5863907367
100
AcDbArc
 50
0.0728939596
 51
13.1443720038
  0
ARC
  5
415
100
AcDbEntity
  8
ASSI
100
AcDbCircle
 62
7
  6
CONTINUOUS
 10
-6.189592
 20
-16.292098
 40
0.49219
100
AcDbArc
 50
46.0903333781
 51
313.9096666219
  0
ARC
  5
416
100
AcDbEntity
  8
0
100
AcDbCircle
 62
7
  6
CONTINUOUS
 10
-50.55
 20
-22.2
 40
0.3
100
AcDbArc
 50
180.0
 51
270.0
  0
ARC
  5
417
100
AcDbEntity
  8
0
100
AcDbCircle
 62
7
  6
CONTINUOUS
 10
-6.15
 20
-22.2
 40
0.3
100
AcDbArc
 50
270.0
 51
360.0
  0
ARC
  5
418
100
AcDbEntity
  8
0
100
AcDbCircle
 62
7
  6
CONTINUOUS
 10
-180.3305177913
 20
37.0959574565
 40
242.1025844395
100
AcDbArc
 50
359.8932861206
 51
0.0180003575
  0
ARC
  5
419
100
AcDbEntity
  8
0
100
AcDbCircle
 62
7
  6
CONTINUOUS
 10
-304.3305177913
 20
37.0959574565
 40
242.1025844395
100
AcDbArc
 50
359.8932861206
 51
0.0180003575
  0
ARC
  5
41A
100
AcDbEntity
  8
0
100
AcDbCircle
 62
7
  6
CONTINUOUS
 10
-120.7945215826
 20
24.1628866376
 40
60.4393193473
100
AcDbArc
 50
11.9623214459
 51
12.4297492123
  0
ARC
  5
41B
100
AcDbEntity
  8
0
100
AcDbCircle
 62
7
  6
CONTINUOUS
 10
-55.3517867924
 20
21.3452809211
 40
16.332432102
100
AcDbArc
 50
116.0349414747
 51
116.1979762293
  0
ARC
  5
41C
100
AcDbEntity
  8
0
100
AcDbCircle
 62
7
  6
CONTINUOUS
 10
-68.6317757076
 20
21.3789570606
 40
16.2949584627
100
AcDbArc
 50
63.8016065453
 51
63.9650178299
  0
ARC
  5
41D
100
AcDbEntity
  8
0
100
AcDbCircle
 62
7
  6
CONTINUOUS
 10
-67.8668026406
 20
23.072028511
 40
14.5812680903
100
AcDbArc
 50
63.3129788868
 51
63.5528085468
  0
ARC
  5
41E
100
AcDbEntity
  8
0
100
AcDbCircle
 62
7
  6
CONTINUOUS
 10
-56.1562983366
 20
23.1181370287
 40
14.5296967206
100
AcDbArc
 50
116.4466091603
 51
116.6872922796
  0
ARC
  5
41F
100
AcDbEntity
  8
RACCORDO
100
AcDbCircle
 62
250
  6
CONTINUOUS
 10
-6.14857567
 20
21.9599643774
 40
3.9400039141
100
AcDbArc
 50
52.8412874137
 51
90.0207125467
  0
ARC
  5
420
100
AcDbEntity
  8
RACCORDO
100
AcDbCircle
 62
250
  6
CONTINUOUS
 10
-6.15
 20
22.2
 40
3.7144926452
100
AcDbArc
 50
0.0
 51
46.6803155819
  0
CIRCLE
  5
421
100
AcDbEntity
  8
RACCORDO
100
AcDbCircle
 62
250
  6
CONTINUOUS
 10
-45.3
 20
-0.0
 40
3.4999872564
  0
CIRCLE
  5
422
100
AcDbEntity
  8
RACCORDO
100
AcDbCircle
 62
7
  6
CONTINUOUS
 10
-45.3
 20
-0.0
 40
3.0
  0
ARC
  5
423
100
AcDbEntity
  8
RACCORDO
100
AcDbCircle
 62
250
  6
CONTINUOUS
 10
-6.15
 20
22.2
 40
1.9036231613
100
AcDbArc
 50
0.0
 51
46.3378135432
  0
ARC
  5
424
100
AcDbEntity
  8
RACCORDO
100
AcDbCircle
 62
250
  6
CONTINUOUS
 10
-50.55
 20
22.2
 40
1.9002820418
100
AcDbArc
 50
90.0
 51
180.0
  0
ARC
  5
425
100
AcDbEntity
  8
0
100
AcDbCircle
 62
7
  6
CONTINUOUS
 10
-52.3948006677
 20
0.0020182686
 40
1.5863907367
100
AcDbArc
 50
346.8556279962
 51
359.9271060404
  0
CIRCLE
  5
426
100
AcDbEntity
  8
ASSI
100
AcDbCircle
 62
7
  6
CONTINUOUS
 10
-45.3
 20
-0.0
 40
1.3856406461
  0
ARC
  5
427
100
AcDbEntity
  8
0
100
AcDbCircle
 62
7
  6
CONTINUOUS
 10
-6.15
 20
22.2
 40
0.3
100
AcDbArc
 50
0.0
 51
90.0
  0
ARC
  5
428
100
AcDbEntity
  8
0
100
AcDbCircle
 62
7
  6
CONTINUOUS
 10
-50.55
 20
22.2
 40
0.3
100
AcDbArc
 50
90.0
 51
180.0
  0
ARC
  5
429
100
AcDbEntity
  8
0
100
AcDbCircle
 62
7
  6
CONTINUOUS
 10
-76.1165577394
 20
28.8703939322
 40
16.2899760949
100
AcDbArc
 50
26.0350495778
 51
26.1985114897
  0
ARC
  5
42A
100
AcDbEntity
  8
0
100
AcDbCircle
 62
7
  6
CONTINUOUS
 10
-128.7261417947
 20
48.5936688631
 40
68.5629293377
100
AcDbArc
 50
347.5633735686
 51
347.9757007308
  0
ARC
  5
42B
100
AcDbEntity
  8
0
100
AcDbCircle
 62
7
  6
CONTINUOUS
 10
-76.1547864593
 20
42.1482449918
 40
16.3325065958
100
AcDbArc
 50
333.8020281047
 51
333.9650620882
  0
ARC
  5
42C
100
AcDbEntity
  8
0
100
AcDbCircle
 62
7
  6
CONTINUOUS
 10
-68.6482132076
 20
49.6547190789
 40
16.332432102
100
AcDbArc
 50
296.0349414747
 51
296.1979762293
  0
ARC
  5
42D
100
AcDbEntity
  8
0
100
AcDbCircle
 62
7
  6
CONTINUOUS
 10
-67.843701663
 20
47.8818629705
 40
14.5296967197
100
AcDbArc
 50
296.4466091603
 51
296.6872922796
  0
ARC
  5
42E
100
AcDbEntity
  8
RACCORDO
100
AcDbCircle
 62
250
  6
CONTINUOUS
 10
-62.2631225928
 20
37.6671531421
 40
90.8466939121
100
AcDbArc
 50
316.4696723585
 51
317.6118260877
  0
ARC
  5
42F
100
AcDbEntity
  8
DRAFT
100
AcDbCircle
 62
7
  6
CONTINUOUS
 10
-62.0
 20
35.5
 40
6.0
100
AcDbArc
 50
90.0
 51
180.0
  0
ARC
  5
430
100
AcDbEntity
  8
SUPERFICI
100
AcDbCircle
 62
7
  6
CONTINUOUS
 10
-61.9999999015
 20
35.5
 40
6.0
100
AcDbArc
 50
89.9999309787
 51
179.9999909303
  0
ARC
  5
431
100
AcDbEntity
  8
RACCORDO
100
AcDbCircle
 62
250
  6
CONTINUOUS
 10
-62.0014088554
 20
35.502385447
 40
5.7997195627
100
AcDbArc
 50
89.9860257782
 51
180.0235660133
  0
CIRCLE
  5
432
100
AcDbEntity
  8
0
100
AcDbCircle
 62
7
  6
CONTINUOUS
 10
-62.0
 20
35.5
 40
3.25
  0
CIRCLE
  5
433
100
AcDbEntity
  8
0
100
AcDbCircle
 62
7
  6
CONTINUOUS
 10
-62.0
 20
35.5
 40
3.0
  0
ARC
  5
434
100
AcDbEntity
  8
0
100
AcDbCircle
 62
7
  6
CONTINUOUS
 10
-62.0
 20
35.5
 40
2.8950136038
100
AcDbArc
 50
168.0385857315
 51
191.9614142685
  0
ARC
  5
435
100
AcDbEntity
  8
0
100
AcDbCircle
 62
7
  6
CONTINUOUS
 10
-62.0
 20
35.5
 40
2.8950136038
100
AcDbArc
 50
348.0385857315
 51
11.9614142685
  0
ARC
  5
436
100
AcDbEntity
  8
0
100
AcDbCircle
 62
7
  6
CONTINUOUS
 10
-62.0
 20
35.5
 40
2.8155023425
100
AcDbArc
 50
12.3044249574
 51
167.6955750426
  0
ARC
  5
437
100
AcDbEntity
  8
0
100
AcDbCircle
 62
7
  6
CONTINUOUS
 10
-62.0
 20
35.5
 40
2.8155023425
100
AcDbArc
 50
192.3044249574
 51
347.6955750426
  0
ARC
  5
438
100
AcDbEntity
  8
0
100
AcDbCircle
 62
7
  6
CONTINUOUS
 10
-62.0
 20
35.5
 40
1.6874840352
100
AcDbArc
 50
82.230101045
 51
97.7632444202
  0
ARC
  5
439
100
AcDbEntity
  8
0
100
AcDbCircle
 62
7
  6
CONTINUOUS
 10
-62.0
 20
35.5
 40
1.6874840352
100
AcDbArc
 50
262.2301010241
 51
277.7632444202
  0
ARC
  5
43A
100
AcDbEntity
  8
TRASH
100
AcDbCircle
 62
7
  6
CONTINUOUS
 10
-62.0
 20
35.5
 40
1.1472328625
100
AcDbArc
 50
257.9845776281
 51
282.0153200785
  0
ARC
  5
43B
100
AcDbEntity
  8
TRASH
100
AcDbCircle
 62
7
  6
CONTINUOUS
 10
-62.0
 20
35.5
 40
1.1472328625
100
AcDbArc
 50
77.9845776281
 51
102.0153200785
  0
ARC
  5
43C
100
AcDbEntity
  8
0
100
AcDbCircle
 62
7
  6
CONTINUOUS
 10
-62.0
 20
35.5
 40
0.7522905861
100
AcDbArc
 50
127.1018788914
 51
131.6490663885
  0
ARC
  5
43D
100
AcDbEntity
  8
0
100
AcDbCircle
 62
7
  6
CONTINUOUS
 10
-62.0
 20
35.5
 40
0.7522905861
100
AcDbArc
 50
138.3509342563
 51
221.6490283615
  0
ARC
  5
43E
100
AcDbEntity
  8
0
100
AcDbCircle
 62
7
  6
CONTINUOUS
 10
-62.0
 20
35.5
 40
0.7522905861
100
AcDbArc
 50
228.3509867785
 51
232.8981211086
  0
ARC
  5
43F
100
AcDbEntity
  8
0
100
AcDbCircle
 62
7
  6
CONTINUOUS
 10
-62.0
 20
35.5
 40
0.7522905861
100
AcDbArc
 50
307.1018788914
 51
311.6490663885
  0
ARC
  5
440
100
AcDbEntity
  8
0
100
AcDbCircle
 62
7
  6
CONTINUOUS
 10
-62.0
 20
35.5
 40
0.7522905861
100
AcDbArc
 50
318.3509342563
 51
41.6490283615
  0
ARC
  5
441
100
AcDbEntity
  8
0
100
AcDbCircle
 62
7
  6
CONTINUOUS
 10
-62.0
 20
35.5
 40
0.7522905861
100
AcDbArc
 50
48.3509867785
 51
52.8981211086
  0
ARC
  5
442
100
AcDbEntity
  8
0
100
AcDbCircle
 62
7
  6
CONTINUOUS
 10
-47.8452135407
 20
28.8517550082
 40
16.3325065958
100
AcDbArc
 50
153.8020281047
 51
153.9650620882
  0
ARC
  5
443
100
AcDbEntity
  8
RACCORDO
100
AcDbCircle
 62
250
  6
CONTINUOUS
 10
-51.5
 20
26.5
 40
8.4999963581
100
AcDbArc
 50
274.3933618614
 51
331.925773799
  0
ARC
  5
444
100
AcDbEntity
  8
RACCORDO
100
AcDbCircle
 62
7
  6
CONTINUOUS
 10
-51.5
 20
26.5
 40
8.0
100
AcDbArc
 50
274.6630573742
 51
329.9999999991
  0
ARC
  5
445
100
AcDbEntity
  8
RACCORDO
100
AcDbCircle
 62
7
  6
CONTINUOUS
 10
-51.5
 20
26.5
 40
6.75
100
AcDbArc
 50
275.5295323606
 51
323.6289634245
  0
ARC
  5
446
100
AcDbEntity
  8
RACCORDO
100
AcDbCircle
 62
250
  6
CONTINUOUS
 10
-51.5
 20
26.5
 40
6.0499956448
100
AcDbArc
 50
276.1723382531
 51
318.5841817947
  0
ARC
  5
447
100
AcDbEntity
  8
0
100
AcDbCircle
 62
7
  6
CONTINUOUS
 10
-51.5
 20
26.5
 40
5.75
100
AcDbArc
 50
276.4966261259
 51
315.8836119839
  0
ARC
  5
448
100
AcDbEntity
  8
0
100
AcDbCircle
 62
7
  6
CONTINUOUS
 10
-4.7261417947
 20
48.5936688631
 40
68.5629293377
100
AcDbArc
 50
347.5633735686
 51
347.9757007308
  0
ARC
  5
449
100
AcDbEntity
  8
0
100
AcDbCircle
 62
7
  6
CONTINUOUS
 10
-3.2054769265
 20
46.8371136758
 40
60.4393208713
100
AcDbArc
 50
191.9623214424
 51
192.429749198
  0
ARC
  5
44A
100
AcDbEntity
  8
0
100
AcDbCircle
 62
7
  6
CONTINUOUS
 10
-55.3682242891
 20
49.6210429461
 40
16.2949584701
100
AcDbArc
 50
243.8016065453
 51
243.9650178299
  0
ARC
  5
44B
100
AcDbEntity
  8
0
100
AcDbCircle
 62
7
  6
CONTINUOUS
 10
-47.883442259
 20
42.1296060686
 40
16.2899760967
100
AcDbArc
 50
206.0350495778
 51
206.1985114896
  0
ARC
  5
44C
100
AcDbEntity
  8
0
100
AcDbCircle
 62
7
  6
CONTINUOUS
 10
-56.1331973583
 20
47.9279714914
 40
14.5812680929
100
AcDbArc
 50
243.3129788868
 51
243.5528085468
  0
ARC
  5
44D
100
AcDbEntity
  8
0
100
AcDbCircle
 62
7
  6
CONTINUOUS
 10
4.2587796988
 20
-48.4923614699
 40
68.0847164825
100
AcDbArc
 50
167.5619255123
 51
167.9771487871
  0
ARC
  5
44E
100
AcDbEntity
  8
0
100
AcDbCircle
 62
7
  6
CONTINUOUS
 10
3.2054784172
 20
-46.8371133625
 40
60.4393193475
100
AcDbArc
 50
11.9623214459
 51
12.4297492123
  0
ARC
  5
44F
100
AcDbEntity
  8
0
100
AcDbCircle
 62
7
  6
CONTINUOUS
 10
55.3682242907
 20
-49.6210429427
 40
16.2949584664
100
AcDbArc
 50
63.8016065453
 51
63.9650178299
  0
ARC
  5
450
100
AcDbEntity
  8
0
100
AcDbCircle
 62
7
  6
CONTINUOUS
 10
56.1331973577
 20
-47.9279714925
 40
14.5812680942
100
AcDbArc
 50
63.3129788868
 51
63.5528085468
  0
ARC
  5
451
100
AcDbEntity
  8
0
100
AcDbCircle
 62
7
  6
CONTINUOUS
 10
47.8834422619
 20
-42.1296060671
 40
16.2899760934
100
AcDbArc
 50
26.0350495777
 51
26.1985114897
  0
ARC
  5
452
100
AcDbEntity
  8
DRAFT
100
AcDbCircle
 62
7
  6
CONTINUOUS
 10
62.0
 20
-35.5
 40
6.0
100
AcDbArc
 50
270.0
 51
360.0
  0
ARC
  5
453
100
AcDbEntity
  8
SUPERFICI
100
AcDbCircle
 62
7
  6
CONTINUOUS
 10
61.9999999014
 20
-35.5
 40
6.0
100
AcDbArc
 50
269.999930979
 51
359.99999093
  0
ARC
  5
454
100
AcDbEntity
  8
RACCORDO
100
AcDbCircle
 62
250
  6
CONTINUOUS
 10
62.0014085915
 20
-35.5023851832
 40
5.7997195639
100
AcDbArc
 50
269.9860283861
 51
0.0235634058
  0
CIRCLE
  5
455
100
AcDbEntity
  8
0
100
AcDbCircle
 62
7
  6
CONTINUOUS
 10
62.0
 20
-35.5
 40
3.25
  0
CIRCLE
  5
456
100
AcDbEntity
  8
0
100
AcDbCircle
 62
7
  6
CONTINUOUS
 10
62.0
 20
-35.5
 40
3.0
  0
ARC
  5
457
100
AcDbEntity
  8
0
100
AcDbCircle
 62
7
  6
CONTINUOUS
 10
62.0
 20
-35.5
 40
2.8950136038
100
AcDbArc
 50
168.0385857315
 51
191.9614142685
  0
ARC
  5
458
100
AcDbEntity
  8
0
100
AcDbCircle
 62
7
  6
CONTINUOUS
 10
62.0
 20
-35.5
 40
2.8950136038
100
AcDbArc
 50
348.0385857315
 51
11.9614142685
  0
ARC
  5
459
100
AcDbEntity
  8
0
100
AcDbCircle
 62
7
  6
CONTINUOUS
 10
62.0
 20
-35.5
 40
2.8155023425
100
AcDbArc
 50
12.3044249574
 51
167.6955750426
  0
ARC
  5
45A
100
AcDbEntity
  8
0
100
AcDbCircle
 62
7
  6
CONTINUOUS
 10
62.0
 20
-35.5
 40
2.8155023425
100
AcDbArc
 50
192.3044249574
 51
347.6955750426
  0
ARC
  5
45B
100
AcDbEntity
  8
0
100
AcDbCircle
 62
7
  6
CONTINUOUS
 10
62.0
 20
-35.5
 40
1.6874840352
100
AcDbArc
 50
82.230101045
 51
97.7632444202
  0
ARC
  5
45C
100
AcDbEntity
  8
0
100
AcDbCircle
 62
7
  6
CONTINUOUS
 10
62.0
 20
-35.5
 40
1.6874840352
100
AcDbArc
 50
262.2301010241
 51
277.7632444202
  0
ARC
  5
45D
100
AcDbEntity
  8
TRASH
100
AcDbCircle
 62
7
  6
CONTINUOUS
 10
62.0
 20
-35.5
 40
1.1472328625
100
AcDbArc
 50
257.9845776281
 51
282.0153200785
  0
ARC
  5
45E
100
AcDbEntity
  8
TRASH
100
AcDbCircle
 62
7
  6
CONTINUOUS
 10
62.0
 20
-35.5
 40
1.1472328625
100
AcDbArc
 50
77.9845776281
 51
102.0153200785
  0
ARC
  5
45F
100
AcDbEntity
  8
0
100
AcDbCircle
 62
7
  6
CONTINUOUS
 10
62.0
 20
-35.5
 40
0.7522905861
100
AcDbArc
 50
127.1018788914
 51
131.6490663885
  0
ARC
  5
460
100
AcDbEntity
  8
0
100
AcDbCircle
 62
7
  6
CONTINUOUS
 10
62.0
 20
-35.5
 40
0.7522905861
100
AcDbArc
 50
138.3509342563
 51
221.6490283615
  0
ARC
  5
461
100
AcDbEntity
  8
0
100
AcDbCircle
 62
7
  6
CONTINUOUS
 10
62.0
 20
-35.5
 40
0.7522905861
100
AcDbArc
 50
228.3509867785
 51
232.8981211086
  0
ARC
  5
462
100
AcDbEntity
  8
0
100
AcDbCircle
 62
7
  6
CONTINUOUS
 10
62.0
 20
-35.5
 40
0.7522905861
100
AcDbArc
 50
307.1018788914
 51
311.6490663885
  0
ARC
  5
463
100
AcDbEntity
  8
0
100
AcDbCircle
 62
7
  6
CONTINUOUS
 10
62.0
 20
-35.5
 40
0.7522905861
100
AcDbArc
 50
318.3509342563
 51
41.6490283615
  0
ARC
  5
464
100
AcDbEntity
  8
0
100
AcDbCircle
 62
7
  6
CONTINUOUS
 10
62.0
 20
-35.5
 40
0.7522905861
100
AcDbArc
 50
48.3509867785
 51
52.8981211086
  0
ARC
  5
465
100
AcDbEntity
  8
RACCORDO
100
AcDbCircle
 62
250
  6
CONTINUOUS
 10
62.2699505552
 20
-37.6743881508
 40
90.8565904517
100
AcDbArc
 50
136.4693299908
 51
137.6113593469
  0
ARC
  5
466
100
AcDbEntity
  8
0
100
AcDbCircle
 62
7
  6
CONTINUOUS
 10
128.2587796987
 20
-48.4923614699
 40
68.0847164824
100
AcDbArc
 50
167.5619255123
 51
167.9771487871
  0
ARC
  5
467
100
AcDbEntity
  8
0
100
AcDbCircle
 62
7
  6
CONTINUOUS
 10
68.648213204
 20
-49.6547190714
 40
16.3324320936
100
AcDbArc
 50
116.0349414747
 51
116.1979762293
  0
ARC
  5
468
100
AcDbEntity
  8
0
100
AcDbCircle
 62
7
  6
CONTINUOUS
 10
67.843701663
 20
-47.8818629705
 40
14.5296967197
100
AcDbArc
 50
116.4466091603
 51
116.6872922796
  0
ARC
  5
469
100
AcDbEntity
  8
0
100
AcDbCircle
 62
7
  6
CONTINUOUS
 10
76.1547864589
 20
-42.1482449916
 40
16.3325065954
100
AcDbArc
 50
153.8020281047
 51
153.9650620882
  0
ARC
  5
46A
100
AcDbEntity
  8
0
100
AcDbCircle
 62
7
  6
CONTINUOUS
 10
120.7945230733
 20
-24.1628863243
 40
60.439320871
100
AcDbArc
 50
191.9623214424
 51
192.429749198
  0
ARC
  5
46B
100
AcDbEntity
  8
0
100
AcDbCircle
 62
7
  6
CONTINUOUS
 10
47.8452135407
 20
-28.8517550082
 40
16.3325065958
100
AcDbArc
 50
333.8020281047
 51
333.9650620882
  0
ARC
  5
46C
100
AcDbEntity
  8
0
100
AcDbCircle
 62
7
  6
CONTINUOUS
 10
55.351786796
 20
-21.3452809286
 40
16.3324320936
100
AcDbArc
 50
296.0349414747
 51
296.1979762293
  0
ARC
  5
46D
100
AcDbEntity
  8
0
100
AcDbCircle
 62
7
  6
CONTINUOUS
 10
68.6317757097
 20
-21.3789570564
 40
16.2949584673
100
AcDbArc
 50
243.8016065453
 51
243.9650178299
  0
ARC
  5
46E
100
AcDbEntity
  8
0
100
AcDbCircle
 62
7
  6
CONTINUOUS
 10
76.1165577385
 20
-28.8703939327
 40
16.2899760939
100
AcDbArc
 50
206.0350495777
 51
206.1985114897
  0
ARC
  5
46F
100
AcDbEntity
  8
0
100
AcDbCircle
 62
7
  6
CONTINUOUS
 10
67.8668026419
 20
-23.0720285083
 40
14.5812680933
100
AcDbArc
 50
243.3129788868
 51
243.5528085468
  0
ARC
  5
470
100
AcDbEntity
  8
0
100
AcDbCircle
 62
7
  6
CONTINUOUS
 10
56.156298337
 20
-23.1181370295
 40
14.5296967197
100
AcDbArc
 50
296.4466091603
 51
296.6872922796
  0
ARC
  5
471
100
AcDbEntity
  8
RACCORDO
100
AcDbCircle
 62
250
  6
CONTINUOUS
 10
51.5
 20
-26.5
 40
8.4999963581
100
AcDbArc
 50
94.3933618614
 51
151.925773799
  0
ARC
  5
472
100
AcDbEntity
  8
ASSI
100
AcDbCircle
 62
7
  6
CONTINUOUS
 10
3.872319232
 20
-11.7358718618
 40
8.3956506556
100
AcDbArc
 50
290.9530629747
 51
291.2130197399
  0
ARC
  5
473
100
AcDbEntity
  8
RACCORDO
100
AcDbCircle
 62
7
  6
CONTINUOUS
 10
51.5
 20
-26.5
 40
8.0
100
AcDbArc
 50
94.6630573742
 51
149.9999999991
  0
ARC
  5
474
100
AcDbEntity
  8
RACCORDO
100
AcDbCircle
 62
7
  6
CONTINUOUS
 10
51.5
 20
-26.5
 40
6.75
100
AcDbArc
 50
95.5295323606
 51
143.6289634245
  0
ARC
  5
475
100
AcDbEntity
  8
RACCORDO
100
AcDbCircle
 62
250
  6
CONTINUOUS
 10
51.5
 20
-26.5
 40
6.0499956448
100
AcDbArc
 50
96.1723382531
 51
138.5841817947
  0
ARC
  5
476
100
AcDbEntity
  8
0
100
AcDbCircle
 62
7
  6
CONTINUOUS
 10
51.5
 20
-26.5
 40
5.75
100
AcDbArc
 50
96.4966261259
 51
135.8836119839
  0
ARC
  5
477
100
AcDbEntity
  8
RACCORDO
100
AcDbCircle
 62
250
  6
CONTINUOUS
 10
6.1485034016
 20
-21.9602236593
 40
3.9397446593
100
AcDbArc
 50
232.8392324552
 51
270.0217649548
  0
ARC
  5
478
100
AcDbEntity
  8
RACCORDO
100
AcDbCircle
 62
250
  6
CONTINUOUS
 10
6.15
 20
-22.2
 40
3.7144926452
100
AcDbArc
 50
180.0
 51
226.6808837034
  0
ARC
  5
479
100
AcDbEntity
  8
ASSI
100
AcDbCircle
 62
7
  6
CONTINUOUS
 10
6.1550779492
 20
-17.8100161506
 40
1.9067960145
100
AcDbArc
 50
288.9055797003
 51
289.9637518245
  0
ARC
  5
47A
100
AcDbEntity
  8
RACCORDO
100
AcDbCircle
 62
250
  6
CONTINUOUS
 10
6.15
 20
-22.2
 40
1.9036231613
100
AcDbArc
 50
179.9999999999
 51
226.3385372769
  0
ARC
  5
47B
100
AcDbEntity
  8
RACCORDO
100
AcDbCircle
 62
250
  6
CONTINUOUS
 10
50.55
 20
-22.2
 40
1.9002820418
100
AcDbArc
 50
270.0
 51
360.0
  0
ARC
  5
47C
100
AcDbEntity
  8
0
100
AcDbCircle
 62
7
  6
CONTINUOUS
 10
49.88733
 20
-27.489265
 40
0.8893898871
100
AcDbArc
 50
292.842868527
 51
89.9409855314
  0
ARC
  5
47D
100
AcDbEntity
  8
0
100
AcDbCircle
 62
7
  6
CONTINUOUS
 10
49.806824
 20
-27.489265
 40
0.352865
100
AcDbArc
 50
269.9999999999
 51
90.0
  0
ARC
  5
47E
100
AcDbEntity
  8
0
100
AcDbCircle
 62
7
  6
CONTINUOUS
 10
6.15
 20
-22.2
 40
0.3
100
AcDbArc
 50
180.0
 51
270.0
  0
ARC
  5
47F
100
AcDbEntity
  8
0
100
AcDbCircle
 62
7
  6
CONTINUOUS
 10
50.55
 20
-22.2
 40
0.3
100
AcDbArc
 50
270.0
 51
360.0
  0
ARC
  5
480
100
AcDbEntity
  8
0
100
AcDbCircle
 62
7
  6
CONTINUOUS
 10
304.3305177913
 20
-37.0959574565
 40
242.1025844395
100
AcDbArc
 50
179.8932861206
 51
180.0180003575
  0
ARC
  5
481
100
AcDbEntity
  8
0
100
AcDbCircle
 62
7
  6
CONTINUOUS
 10
180.3305177913
 20
-37.0959574565
 40
242.1025844395
100
AcDbArc
 50
179.8932861206
 51
180.0180003575
  0
ARC
  5
482
100
AcDbEntity
  8
0
100
AcDbCircle
 62
7
  6
CONTINUOUS
 10
4.2587796988
 20
22.50763853
 40
68.0847164825
100
AcDbArc
 50
167.5619255123
 51
167.9771487871
  0
ARC
  5
483
100
AcDbEntity
  8
0
100
AcDbCircle
 62
7
  6
CONTINUOUS
 10
128.2587796972
 20
22.5076385304
 40
68.0847164809
100
AcDbArc
 50
167.5619255123
 51
167.9771487871
  0
ARC
  5
484
100
AcDbEntity
  8
0
100
AcDbCircle
 62
7
  6
CONTINUOUS
 10
3.2054784161
 20
24.1628866373
 40
60.4393193486
100
AcDbArc
 50
11.9623214459
 51
12.4297492123
  0
ARC
  5
485
100
AcDbEntity
  8
0
100
AcDbCircle
 62
7
  6
CONTINUOUS
 10
68.6482132076
 20
21.3452809211
 40
16.332432102
100
AcDbArc
 50
116.0349414747
 51
116.1979762293
  0
ARC
  5
486
100
AcDbEntity
  8
0
100
AcDbCircle
 62
7
  6
CONTINUOUS
 10
55.3682242924
 20
21.3789570606
 40
16.2949584627
100
AcDbArc
 50
63.8016065453
 51
63.9650178299
  0
ARC
  5
487
100
AcDbEntity
  8
0
100
AcDbCircle
 62
7
  6
CONTINUOUS
 10
56.1331973594
 20
23.072028511
 40
14.5812680903
100
AcDbArc
 50
63.3129788868
 51
63.5528085468
  0
ARC
  5
488
100
AcDbEntity
  8
0
100
AcDbCircle
 62
7
  6
CONTINUOUS
 10
67.8437016634
 20
23.1181370287
 40
14.5296967206
100
AcDbArc
 50
116.4466091603
 51
116.6872922796
  0
ARC
  5
489
100
AcDbEntity
  8
RACCORDO
100
AcDbCircle
 62
250
  6
CONTINUOUS
 10
6.148698298
 20
21.9595393271
 40
3.94042892
100
AcDbArc
 50
89.9810728819
 51
127.1555656414
  0
ARC
  5
48A
100
AcDbEntity
  8
RACCORDO
100
AcDbCircle
 62
250
  6
CONTINUOUS
 10
6.15
 20
22.2
 40
3.7144926452
100
AcDbArc
 50
133.3211192139
 51
180.0
  0
CIRCLE
  5
48B
100
AcDbEntity
  8
RACCORDO
100
AcDbCircle
 62
250
  6
CONTINUOUS
 10
45.3
 20
-0.0
 40
3.4999872569
  0
CIRCLE
  5
48C
100
AcDbEntity
  8
RACCORDO
100
AcDbCircle
 62
7
  6
CONTINUOUS
 10
45.3
 20
-0.0
 40
3.0
  0
ARC
  5
48D
100
AcDbEntity
  8
ASSI
100
AcDbCircle
 62
7
  6
CONTINUOUS
 10
52.532446
 20
-0.0
 40
2.5499985399
100
AcDbArc
 50
131.3166682693
 51
228.6833318388
  0
ARC
  5
48E
100
AcDbEntity
  8
RACCORDO
100
AcDbCircle
 62
250
  6
CONTINUOUS
 10
6.15
 20
22.2
 40
1.9036231613
100
AcDbArc
 50
133.6640750156
 51
180.0000000008
  0
ARC
  5
48F
100
AcDbEntity
  8
RACCORDO
100
AcDbCircle
 62
250
  6
CONTINUOUS
 10
50.55
 20
22.2
 40
1.9002815514
100
AcDbArc
 50
0.0
 51
90.0
  0
ARC
  5
490
100
AcDbEntity
  8
ASSI
100
AcDbCircle
 62
7
  6
CONTINUOUS
 10
52.532446
 20
-0.0
 40
1.7999999246
100
AcDbArc
 50
159.5061668291
 51
200.4938331359
  0
CIRCLE
  5
491
100
AcDbEntity
  8
ASSI
100
AcDbCircle
 62
7
  6
CONTINUOUS
 10
45.3
 20
-0.0
 40
1.3856406461
  0
ARC
  5
492
100
AcDbEntity
  8
ASSI
100
AcDbCircle
 62
7
  6
CONTINUOUS
 10
7.647832
 20
18.821682
 40
1.303416637
100
AcDbArc
 50
292.8428901345
 51
89.9994598854
  0
ARC
  5
493
100
AcDbEntity
  8
ASSI
100
AcDbCircle
 62
7
  6
CONTINUOUS
 10
7.529849
 20
18.821682
 40
0.51713
100
AcDbArc
 50
270.0012404927
 51
90.0008269872
  0
ARC
  5
494
100
AcDbEntity
  8
0
100
AcDbCircle
 62
7
  6
CONTINUOUS
 10
6.15
 20
22.2
 40
0.3
100
AcDbArc
 50
90.0
 51
180.0
  0
ARC
  5
495
100
AcDbEntity
  8
0
100
AcDbCircle
 62
7
  6
CONTINUOUS
 10
50.55
 20
22.2
 40
0.3
100
AcDbArc
 50
0.0
 51
90.0
  0
ARC
  5
496
100
AcDbEntity
  8
0
100
AcDbCircle
 62
7
  6
CONTINUOUS
 10
47.8834422606
 20
28.8703939322
 40
16.2899760949
100
AcDbArc
 50
26.0350495778
 51
26.1985114897
  0
ARC
  5
497
100
AcDbEntity
  8
RACCORDO
100
AcDbCircle
 62
250
  6
CONTINUOUS
 10
51.5
 20
26.5
 40
8.4999963578
100
AcDbArc
 50
208.0742262258
 51
265.6066381386
  0
ARC
  5
498
100
AcDbEntity
  8
RACCORDO
100
AcDbCircle
 62
7
  6
CONTINUOUS
 10
51.5
 20
26.5
 40
8.0
100
AcDbArc
 50
210.0207343416
 51
265.3369426258
  0
ARC
  5
499
100
AcDbEntity
  8
RACCORDO
100
AcDbCircle
 62
7
  6
CONTINUOUS
 10
51.5
 20
26.5
 40
6.75
100
AcDbArc
 50
216.3710365755
 51
264.4704676394
  0
ARC
  5
49A
100
AcDbEntity
  8
RACCORDO
100
AcDbCircle
 62
250
  6
CONTINUOUS
 10
51.5
 20
26.5
 40
6.0499956448
100
AcDbArc
 50
221.4158182062
 51
263.8276617469
  0
ARC
  5
49B
100
AcDbEntity
  8
0
100
AcDbCircle
 62
7
  6
CONTINUOUS
 10
51.5
 20
26.5
 40
5.75
100
AcDbArc
 50
224.1163880161
 51
263.5033738741
  0
ARC
  5
49C
100
AcDbEntity
  8
DRAFT
100
AcDbCircle
 62
7
  6
CONTINUOUS
 10
62.0
 20
35.5
 40
6.0
100
AcDbArc
 50
0.0
 51
90.0
  0
ARC
  5
49D
100
AcDbEntity
  8
SUPERFICI
100
AcDbCircle
 62
7
  6
CONTINUOUS
 10
61.9999999015
 20
35.5
 40
6.0
100
AcDbArc
 50
0.0000090697
 51
90.0000690213
  0
ARC
  5
49E
100
AcDbEntity
  8
RACCORDO
100
AcDbCircle
 62
250
  6
CONTINUOUS
 10
62.001408598
 20
35.502385173
 40
5.7997195658
100
AcDbArc
 50
359.9764366942
 51
90.0139716782
  0
CIRCLE
  5
49F
100
AcDbEntity
  8
0
100
AcDbCircle
 62
7
  6
CONTINUOUS
 10
62.0
 20
35.5
 40
3.25
  0
CIRCLE
  5
4A0
100
AcDbEntity
  8
0
100
AcDbCircle
 62
7
  6
CONTINUOUS
 10
62.0
 20
35.5
 40
3.0
  0
ARC
  5
4A1
100
AcDbEntity
  8
0
100
AcDbCircle
 62
7
  6
CONTINUOUS
 10
62.0
 20
35.5
 40
2.8950136038
100
AcDbArc
 50
168.0385857315
 51
191.9614142685
  0
ARC
  5
4A2
100
AcDbEntity
  8
0
100
AcDbCircle
 62
7
  6
CONTINUOUS
 10
62.0
 20
35.5
 40
2.8950136038
100
AcDbArc
 50
348.0385857315
 51
11.9614142685
  0
ARC
  5
4A3
100
AcDbEntity
  8
0
100
AcDbCircle
 62
7
  6
CONTINUOUS
 10
62.0
 20
35.5
 40
2.8155023425
100
AcDbArc
 50
12.3044249574
 51
167.6955750426
  0
ARC
  5
4A4
100
AcDbEntity
  8
0
100
AcDbCircle
 62
7
  6
CONTINUOUS
 10
62.0
 20
35.5
 40
2.8155023425
100
AcDbArc
 50
192.3044249574
 51
347.6955750426
  0
ARC
  5
4A5
100
AcDbEntity
  8
0
100
AcDbCircle
 62
7
  6
CONTINUOUS
 10
62.0
 20
35.5
 40
1.6874840352
100
AcDbArc
 50
82.230101045
 51
97.7632444202
  0
ARC
  5
4A6
100
AcDbEntity
  8
0
100
AcDbCircle
 62
7
  6
CONTINUOUS
 10
62.0
 20
35.5
 40
1.6874840352
100
AcDbArc
 50
262.2301010241
 51
277.7632444202
  0
ARC
  5
4A7
100
AcDbEntity
  8
TRASH
100
AcDbCircle
 62
7
  6
CONTINUOUS
 10
62.0
 20
35.5
 40
1.1472328625
100
AcDbArc
 50
257.9845776281
 51
282.0153200785
  0
ARC
  5
4A8
100
AcDbEntity
  8
TRASH
100
AcDbCircle
 62
7
  6
CONTINUOUS
 10
62.0
 20
35.5
 40
1.1472328625
100
AcDbArc
 50
77.9845776281
 51
102.0153200785
  0
ARC
  5
4A9
100
AcDbEntity
  8
0
100
AcDbCircle
 62
7
  6
CONTINUOUS
 10
62.0
 20
35.5
 40
0.7522905861
100
AcDbArc
 50
127.1018788914
 51
131.6490663885
  0
ARC
  5
4AA
100
AcDbEntity
  8
0
100
AcDbCircle
 62
7
  6
CONTINUOUS
 10
62.0
 20
35.5
 40
0.7522905861
100
AcDbArc
 50
138.3509342563
 51
221.6490283615
  0
ARC
  5
4AB
100
AcDbEntity
  8
0
100
AcDbCircle
 62
7
  6
CONTINUOUS
 10
62.0
 20
35.5
 40
0.7522905861
100
AcDbArc
 50
228.3509867785
 51
232.8981211086
  0
ARC
  5
4AC
100
AcDbEntity
  8
0
100
AcDbCircle
 62
7
  6
CONTINUOUS
 10
62.0
 20
35.5
 40
0.7522905861
100
AcDbArc
 50
307.1018788914
 51
311.6490663885
  0
ARC
  5
4AD
100
AcDbEntity
  8
0
100
AcDbCircle
 62
7
  6
CONTINUOUS
 10
62.0
 20
35.5
 40
0.7522905861
100
AcDbArc
 50
318.3509342563
 51
41.6490283615
  0
ARC
  5
4AE
100
AcDbEntity
  8
0
100
AcDbCircle
 62
7
  6
CONTINUOUS
 10
62.0
 20
35.5
 40
0.7522905861
100
AcDbArc
 50
48.3509867785
 51
52.8981211086
  0
ARC
  5
4AF
100
AcDbEntity
  8
0
100
AcDbCircle
 62
7
  6
CONTINUOUS
 10
76.1547864593
 20
28.8517550082
 40
16.3325065958
100
AcDbArc
 50
153.8020281047
 51
153.9650620882
  0
ARC
  5
4B0
100
AcDbEntity
  8
RACCORDO
100
AcDbCircle
 62
250
  6
CONTINUOUS
 10
62.2822073763
 20
37.6874519729
 40
90.8744061422
100
AcDbArc
 50
222.3895137644
 51
223.5313192923
  0
ARC
  5
4B1
100
AcDbEntity
  8
0
100
AcDbCircle
 62
7
  6
CONTINUOUS
 10
47.8452135407
 20
42.1482449918
 40
16.3325065958
100
AcDbArc
 50
333.8020281047
 51
333.9650620882
  0
ARC
  5
4B2
100
AcDbEntity
  8
0
100
AcDbCircle
 62
7
  6
CONTINUOUS
 10
55.3517867924
 20
49.6547190789
 40
16.332432102
100
AcDbArc
 50
296.0349414747
 51
296.1979762293
  0
ARC
  5
4B3
100
AcDbEntity
  8
0
100
AcDbCircle
 62
7
  6
CONTINUOUS
 10
68.6317757109
 20
49.6210429461
 40
16.2949584701
100
AcDbArc
 50
243.8016065453
 51
243.9650178299
  0
ARC
  5
4B4
100
AcDbEntity
  8
0
100
AcDbCircle
 62
7
  6
CONTINUOUS
 10
76.116557741
 20
42.1296060686
 40
16.2899760967
100
AcDbArc
 50
206.0350495778
 51
206.1985114896
  0
ARC
  5
4B5
100
AcDbEntity
  8
0
100
AcDbCircle
 62
7
  6
CONTINUOUS
 10
67.8668026417
 20
47.9279714914
 40
14.5812680929
100
AcDbArc
 50
243.3129788868
 51
243.5528085468
  0
ARC
  5
4B6
100
AcDbEntity
  8
0
100
AcDbCircle
 62
7
  6
CONTINUOUS
 10
56.156298337
 20
47.8818629705
 40
14.5296967197
100
AcDbArc
 50
296.4466091603
 51
296.6872922796
  0
ARC
  5
4B7
100
AcDbEntity
  8
0
100
AcDbCircle
 62
7
  6
CONTINUOUS
 10
120.7945230735
 20
46.8371136758
 40
60.4393208713
100
AcDbArc
 50
191.9623214424
 51
192.429749198
  0
ARC
  5
4B8
100
AcDbEntity
  8
0
100
AcDbCircle
 62
7
  6
CONTINUOUS
 10
304.3305177913
 20
33.9040425435
 40
242.1025844395
100
AcDbArc
 50
179.8932861206
 51
180.0180003575
  0
ARC
  5
4B9
100
AcDbEntity
  8
0
100
AcDbCircle
 62
7
  6
CONTINUOUS
 10
180.3305177913
 20
33.9040425435
 40
242.1025844395
100
AcDbArc
 50
179.8932861206
 51
180.0180003575
  0
ARC
  5
4BA
100
AcDbEntity
  8
0
100
AcDbCircle
 62
7
  6
CONTINUOUS
 10
-185.9552802796
 20
-30.42462295
 40
49.0119086506
100
AcDbArc
 50
2.474082848
 51
2.6169612358
  0
ARC
  5
4BB
100
AcDbEntity
  8
RACCORDO
100
AcDbCircle
 62
250
  6
CONTINUOUS
 10
-132.6671696846
 20
-39.3058119054
 40
1.9964900782
100
AcDbArc
 50
196.1056225115
 51
268.9636415739
  0
ARC
  5
4BC
100
AcDbEntity
  8
RACCORDO
100
AcDbCircle
 62
7
  6
CONTINUOUS
 10
-140.0564459808
 20
-25.900563805
 40
3.0000000107
100
AcDbArc
 50
0.233857472
 51
36.8799491006
  0
ARC
  5
4BD
100
AcDbEntity
  8
RACCORDO
100
AcDbCircle
 62
7
  6
CONTINUOUS
 10
-140.056440445
 20
25.9005711872
 40
3.0000000076
100
AcDbArc
 50
323.1198746724
 51
359.7660011086
  0
ARC
  5
4BE
100
AcDbEntity
  8
RACCORDO
100
AcDbCircle
 62
250
  6
CONTINUOUS
 10
-132.6669251642
 20
39.3056118091
 40
1.9967818348
100
AcDbArc
 50
96.7020334069
 51
163.8908079654
  0
ARC
  5
4BF
100
AcDbEntity
  8
RACCORDO
100
AcDbCircle
 62
250
  6
CONTINUOUS
 10
-132.6682582434
 20
39.3183881067
 40
1.9838659089
100
AcDbArc
 50
91.0115013072
 51
96.7068594226
  0
ARC
  5
4C0
100
AcDbEntity
  8
RACCORDO
100
AcDbCircle
 62
7
  6
CONTINUOUS
 10
-136.8568688943
 20
23.5
 40
1.0
100
AcDbArc
 50
143.1198751049
 51
180.0000017104
  0
ARC
  5
4C1
100
AcDbEntity
  8
0
100
AcDbCircle
 62
7
  6
CONTINUOUS
 10
-136.8568688943
 20
23.5
 40
1.0
100
AcDbArc
 50
143.1198751049
 51
180.0
  0
ARC
  5
4C2
100
AcDbEntity
  8
RACCORDO
100
AcDbCircle
 62
7
  6
CONTINUOUS
 10
-136.8568688943
 20
-23.5
 40
1.0
100
AcDbArc
 50
179.9999937874
 51
216.8801248951
  0
ARC
  5
4C3
100
AcDbEntity
  8
0
100
AcDbCircle
 62
7
  6
CONTINUOUS
 10
-136.8568688943
 20
-23.5
 40
1.0
100
AcDbArc
 50
180.0
 51
216.8801248951
  0
ARC
  5
4C4
100
AcDbEntity
  8
RACCORDO
100
AcDbCircle
 62
7
  6
CONTINUOUS
 10
-136.9380297388
 20
-25.8986644757
 40
0.1188929674
100
AcDbArc
 50
175.0081380112
 51
179.8908680852
  0
ARC
  5
4C5
100
AcDbEntity
  8
RACCORDO
100
AcDbCircle
 62
250
  6
CONTINUOUS
 10
-101.3587920188
 20
-1757.1935268665
 40
1734.2856065282
100
AcDbArc
 50
89.4740048378
 51
89.6196033342
  0
ARC
  5
4C6
100
AcDbEntity
  8
RACCORDO
100
AcDbCircle
 62
7
  6
CONTINUOUS
 10
-85.4568688943
 20
-39.7731956082
 40
1.1
100
AcDbArc
 50
271.0
 51
359.8648670373
  0
ARC
  5
4C7
100
AcDbEntity
  8
RACCORDO
100
AcDbCircle
 62
250
  6
CONTINUOUS
 10
-89.8508804406
 20
-29.1001022772
 40
0.953782919
100
AcDbArc
 50
179.9938560407
 51
270.3741487549
  0
ARC
  5
4C8
100
AcDbEntity
  8
RACCORDO
100
AcDbCircle
 62
7
  6
CONTINUOUS
 10
-83.8568688943
 20
-35.5
 40
0.5
100
AcDbArc
 50
270.0
 51
0.000072579
  0
ARC
  5
4C9
100
AcDbEntity
  8
RACCORDO
100
AcDbCircle
 62
250
  6
CONTINUOUS
 10
-101.3587934232
 20
1704.1937044218
 40
1734.2857840889
100
AcDbArc
 50
270.3803966733
 51
270.5259951547
  0
ARC
  5
4CA
100
AcDbEntity
  8
0
100
AcDbCircle
 62
7
  6
CONTINUOUS
 10
-39.0537814825
 20
-23.7460213485
 40
98.0413290056
100
AcDbArc
 50
182.2917955797
 51
182.596099998
  0
ARC
  5
4CB
100
AcDbEntity
  8
0
100
AcDbCircle
 62
7
  6
CONTINUOUS
 10
-65.284124829
 20
-24.845045588
 40
71.8380398702
100
AcDbArc
 50
182.1662046545
 51
182.4929406435
  0
ARC
  5
4CC
100
AcDbEntity
  8
0
100
AcDbCircle
 62
7
  6
CONTINUOUS
 10
-73.8656597319
 20
-25.1694178144
 40
63.250370013
100
AcDbArc
 50
181.8763180385
 51
182.0678558843
  0
ARC
  5
4CD
100
AcDbEntity
  8
0
100
AcDbCircle
 62
7
  6
CONTINUOUS
 10
-74.7519340937
 20
-25.201561234
 40
62.3135150831
100
AcDbArc
 50
181.6331277143
 51
182.0381291775
  0
ARC
  5
4CE
100
AcDbEntity
  8
0
100
AcDbCircle
 62
7
  6
CONTINUOUS
 10
-74.8890520072
 20
-25.2086183183
 40
62.226243198
100
AcDbArc
 50
181.4364306312
 51
181.8710959171
  0
ARC
  5
4CF
100
AcDbEntity
  8
0
100
AcDbCircle
 62
7
  6
CONTINUOUS
 10
-93.6529998905
 20
-25.8770669457
 40
43.4542350015
100
AcDbArc
 50
183.7325469928
 51
184.7825031066
  0
ARC
  5
4D0
100
AcDbEntity
  8
0
100
AcDbCircle
 62
7
  6
CONTINUOUS
 10
-93.6250578863
 20
-25.8751247291
 40
43.4322543488
100
AcDbArc
 50
184.2620536541
 51
184.7875002629
  0
ARC
  5
4D1
100
AcDbEntity
  8
0
100
AcDbCircle
 62
7
  6
CONTINUOUS
 10
-93.6760467575
 20
-25.8789274924
 40
43.3811238688
100
AcDbArc
 50
183.7363859146
 51
184.2620499012
  0
ARC
  5
4D2
100
AcDbEntity
  8
0
100
AcDbCircle
 62
7
  6
CONTINUOUS
 10
-93.7279494017
 20
-25.8820850779
 40
43.3791177973
100
AcDbArc
 50
183.2070508927
 51
183.7323774834
  0
ARC
  5
4D3
100
AcDbEntity
  8
0
100
AcDbCircle
 62
7
  6
CONTINUOUS
 10
-93.7245276518
 20
-25.8820963702
 40
43.3325395206
100
AcDbArc
 50
183.2104868172
 51
183.7363821661
  0
ARC
  5
4D4
100
AcDbEntity
  8
0
100
AcDbCircle
 62
7
  6
CONTINUOUS
 10
-99.3558926384
 20
-0.0009761394
 40
11.4991243472
100
AcDbArc
 50
179.9951363097
 51
269.9951356447
  0
ARC
  5
4D5
100
AcDbEntity
  8
0
100
AcDbCircle
 62
7
  6
CONTINUOUS
 10
-99.3558926383
 20
0.0009761395
 40
11.4991243472
100
AcDbArc
 50
90.0048643559
 51
180.0048636909
  0
ARC
  5
4D6
100
AcDbEntity
  8
0
100
AcDbCircle
 62
7
  6
CONTINUOUS
 10
-99.3578451502
 20
0.0009761395
 40
11.4991243472
100
AcDbArc
 50
359.9951363091
 51
89.9951356441
  0
ARC
  5
4D7
100
AcDbEntity
  8
0
100
AcDbCircle
 62
7
  6
CONTINUOUS
 10
-99.3578451501
 20
-0.0009761394
 40
11.4991243472
100
AcDbArc
 50
270.0048643553
 51
0.0048636903
  0
ARC
  5
4D8
100
AcDbEntity
  8
0
100
AcDbCircle
 62
7
  6
CONTINUOUS
 10
-99.3778069974
 20
-0.0017243847
 40
11.2480348208
100
AcDbArc
 50
179.9912164429
 51
0.0087835571
  0
ARC
  5
4D9
100
AcDbEntity
  8
0
100
AcDbCircle
 62
7
  6
CONTINUOUS
 10
-99.3778069974
 20
0.001724595
 40
11.2480340139
100
AcDbArc
 50
359.9912153718
 51
180.0087846282
  0
ARC
  5
4DA
100
AcDbEntity
  8
0
100
AcDbCircle
 62
7
  6
CONTINUOUS
 10
-99.3655903129
 20
-0.0016535761
 40
10.5481251905
100
AcDbArc
 50
179.9910182597
 51
0.0089817403
  0
ARC
  5
4DB
100
AcDbEntity
  8
0
100
AcDbCircle
 62
7
  6
CONTINUOUS
 10
-99.3655903129
 20
0.0016535674
 40
10.5481246871
100
AcDbArc
 50
359.9910183069
 51
180.0089816931
  0
ARC
  5
4DC
100
AcDbEntity
  8
RACCORDO
100
AcDbCircle
 62
7
  6
CONTINUOUS
 10
-85.4568688943
 20
39.7731956082
 40
1.1
100
AcDbArc
 50
0.1351329627
 51
89.0
  0
ARC
  5
4DD
100
AcDbEntity
  8
RACCORDO
100
AcDbCircle
 62
7
  6
CONTINUOUS
 10
-83.8568688943
 20
-17.5
 40
0.5
100
AcDbArc
 50
359.999927421
 51
90.0
  0
ARC
  5
4DE
100
AcDbEntity
  8
RACCORDO
100
AcDbCircle
 62
7
  6
CONTINUOUS
 10
-83.8568688943
 20
-4.3
 40
0.5
100
AcDbArc
 50
270.0
 51
0.0001918902
  0
ARC
  5
4DF
100
AcDbEntity
  8
RACCORDO
100
AcDbCircle
 62
7
  6
CONTINUOUS
 10
-83.8568688943
 20
4.3
 40
0.5
100
AcDbArc
 50
359.9998081098
 51
90.0
  0
ARC
  5
4E0
100
AcDbEntity
  8
RACCORDO
100
AcDbCircle
 62
7
  6
CONTINUOUS
 10
-83.8568688943
 20
17.5
 40
0.5
100
AcDbArc
 50
270.0
 51
0.000072579
  0
ARC
  5
4E1
100
AcDbEntity
  8
RACCORDO
100
AcDbCircle
 62
7
  6
CONTINUOUS
 10
-83.8568688943
 20
35.5
 40
0.5
100
AcDbArc
 50
359.999927421
 51
90.0
  0
LINE
  5
4E2
100
AcDbEntity
  8
0
100
AcDbLine
 62
7
  6
CONTINUOUS
 10
62.2388260178
 20
-34.3778971865
 11
62.482289287
 21
-34.9
  0
LINE
  5
4E3
100
AcDbEntity
  8
0
100
AcDbLine
 62
7
  6
CONTINUOUS
 10
62.4999464956
 20
-34.9378660057
 11
62.519717435
 21
-34.9802732178
  0
LINE
  5
4E4
100
AcDbEntity
  8
0
100
AcDbLine
 62
7
  6
CONTINUOUS
 10
61.4802732178
 20
-36.019717435
 11
61.4378661378
 21
-35.9999466442
  0
LINE
  5
4E5
100
AcDbEntity
  8
0
100
AcDbLine
 62
7
  6
CONTINUOUS
 10
62.562133536
 20
-35.9999470109
 11
62.5197234839
 21
-36.0197234839
  0
LINE
  5
4E6
100
AcDbEntity
  8
0
100
AcDbLine
 62
7
  6
CONTINUOUS
 10
62.5197234839
 20
-36.0197234839
 11
62.4999470172
 21
-36.0621335304
  0
LINE
  5
4E7
100
AcDbEntity
  8
0
100
AcDbLine
 62
7
  6
CONTINUOUS
 10
62.4822898071
 20
-36.1
 11
62.238824741
 21
-36.6221066534
  0
LINE
  5
4E8
100
AcDbEntity
  8
0
100
AcDbLine
 62
7
  6
CONTINUOUS
 10
61.7611739822
 20
-36.6221028135
 11
61.517710713
 21
-36.1
  0
LINE
  5
4E9
100
AcDbEntity
  8
0
100
AcDbLine
 62
7
  6
CONTINUOUS
 10
61.5000535044
 20
-36.0621339943
 11
61.480282565
 21
-36.0197267822
  0
LINE
  5
4EA
100
AcDbEntity
  8
0
100
AcDbLine
 62
7
  6
CONTINUOUS
 10
62.5197267822
 20
-34.980282565
 11
62.5621338622
 21
-35.0000533558
  0
LINE
  5
4EB
100
AcDbEntity
  8
0
100
AcDbLine
 62
7
  6
CONTINUOUS
 10
61.4795953518
 20
-34.9795953518
 11
61.4802765158
 21
-34.9802765158
  0
LINE
  5
4EC
100
AcDbEntity
  8
0
100
AcDbLine
 62
7
  6
CONTINUOUS
 10
61.3727024837
 20
-34.8727024907
 11
61.3999999936
 21
-34.9
  0
LINE
  5
4ED
100
AcDbEntity
  8
0
100
AcDbLine
 62
7
  6
CONTINUOUS
 10
61.4802765158
 20
-36.0197234842
 11
61.4795953519
 21
-36.0204046482
  0
LINE
  5
4EE
100
AcDbEntity
  8
0
100
AcDbLine
 62
7
  6
CONTINUOUS
 10
61.4000001418
 20
-36.1
 11
61.3727027659
 21
-36.1272974066
  0
LINE
  5
4EF
100
AcDbEntity
  8
TRASH
100
AcDbLine
 62
7
  6
CONTINUOUS
 10
61.7611776274
 20
-36.622106287
 11
61.7718517819
 21
-36.6449972701
  0
LINE
  5
4F0
100
AcDbEntity
  8
0
100
AcDbLine
 62
7
  6
CONTINUOUS
 10
61.7718517819
 20
-36.6449972701
 11
61.6676955411
 21
-36.690047748
  0
LINE
  5
4F1
100
AcDbEntity
  8
0
100
AcDbLine
 62
7
  6
CONTINUOUS
 10
61.7718072551
 20
-36.6450079241
 11
61.7718605073
 21
-37.1719912502
  0
LINE
  5
4F2
100
AcDbEntity
  8
TRASH
100
AcDbLine
 62
7
  6
CONTINUOUS
 10
62.2388223825
 20
-36.6221062937
 11
62.2281482281
 21
-36.6449972769
  0
SPLINE
  5
4F3
100
AcDbEntity
  8
0
100
AcDbSpline
 62
7
  6
CONTINUOUS
 70
0
 71
3
 72
9
 73
5
 74
0
 42
0.0000001
 43
0.0000001
 44
0.0000000001
 40
0.0
 40
0.0
 40
0.0
 40
0.0
 40
0.4995557631
 40
1.0
 40
1.0
 40
1.0
 40
1.0
 10
62.3324714129
 20
-36.6898066956
 30
0.0
 10
62.3151347209
 20
-36.682263476
 30
0.0
 10
62.28053567
 20
-36.6669187804
 30
0.0
 10
62.2455157539
 20
-36.6525539123
 30
0.0
 10
62.2281482281
 20
-36.6449972769
 30
0.0
  0
LINE
  5
4F4
100
AcDbEntity
  8
0
100
AcDbLine
 62
7
  6
CONTINUOUS
 10
62.5197234842
 20
-36.0197234842
 11
62.5204046482
 21
-36.0204046482
  0
LINE
  5
4F5
100
AcDbEntity
  8
0
100
AcDbLine
 62
7
  6
CONTINUOUS
 10
62.6000000064
 20
-36.1
 11
62.6272975163
 21
-36.1272975093
  0
LINE
  5
4F6
100
AcDbEntity
  8
0
100
AcDbLine
 62
7
  6
CONTINUOUS
 10
62.5197234842
 20
-34.9802765158
 11
62.5204046481
 21
-34.9795953518
  0
LINE
  5
4F7
100
AcDbEntity
  8
0
100
AcDbLine
 62
7
  6
CONTINUOUS
 10
62.5999998582
 20
-34.9
 11
62.6272972341
 21
-34.8727025934
  0
LINE
  5
4F8
100
AcDbEntity
  8
0
100
AcDbLine
 62
7
  6
CONTINUOUS
 10
62.2281482181
 20
-34.3550027299
 11
62.3323044581
 21
-34.309952251
  0
LINE
  5
4F9
100
AcDbEntity
  8
0
100
AcDbLine
 62
7
  6
CONTINUOUS
 10
62.2281394921
 20
-33.8280087497
 11
62.22819274
 21
-34.3549920768
  0
LINE
  5
4FA
100
AcDbEntity
  8
TRASH
100
AcDbLine
 62
7
  6
CONTINUOUS
 10
62.2281482181
 20
-34.3550027299
 11
62.2388223726
 21
-34.377893713
  0
LINE
  5
4FB
100
AcDbEntity
  8
TRASH
100
AcDbLine
 62
7
  6
CONTINUOUS
 10
61.7611776175
 20
-34.3778937063
 11
61.7718517719
 21
-34.3550027231
  0
SPLINE
  5
4FC
100
AcDbEntity
  8
0
100
AcDbSpline
 62
7
  6
CONTINUOUS
 70
0
 71
3
 72
9
 73
5
 74
0
 42
0.0000001
 43
0.0000001
 44
0.0000000001
 40
0.0
 40
0.0
 40
0.0
 40
0.0
 40
0.4995557631
 40
1.0
 40
1.0
 40
1.0
 40
1.0
 10
61.6675285871
 20
-34.3101933044
 30
0.0
 10
61.6848652791
 20
-34.317736524
 30
0.0
 10
61.71946433
 20
-34.3330812196
 30
0.0
 10
61.7544842461
 20
-34.3474460877
 30
0.0
 10
61.7718517719
 20
-34.3550027231
 30
0.0
  0
LINE
  5
4FD
100
AcDbEntity
  8
0
100
AcDbLine
 62
7
  6
CONTINUOUS
 10
61.6675285871
 20
-34.3101933044
 11
61.6549273753
 21
-34.328395019
  0
SPLINE
  5
4FE
100
AcDbEntity
  8
0
100
AcDbSpline
 62
7
  6
CONTINUOUS
 70
0
 71
3
 72
9
 73
5
 74
0
 42
0.0000001
 43
0.0000001
 44
0.0000000001
 40
0.0
 40
0.0
 40
0.0
 40
0.0
 40
0.2506076359
 40
1.0
 40
1.0
 40
1.0
 40
1.0
 10
61.3727024837
 20
-34.8727024907
 30
0.0
 10
61.3955124047
 20
-34.8268429459
 30
0.0
 10
61.4875509271
 20
-34.644356563
 30
0.0
 10
61.5827257499
 20
-34.4634691685
 30
0.0
 10
61.6549273753
 20
-34.328395019
 30
0.0
  0
SPLINE
  5
4FF
100
AcDbEntity
  8
0
100
AcDbSpline
 62
7
  6
CONTINUOUS
 70
0
 71
3
 72
9
 73
5
 74
0
 42
0.0000001
 43
0.0000001
 44
0.0000000001
 40
0.0
 40
0.0
 40
0.0
 40
0.0
 40
0.249282167
 40
1.0
 40
1.0
 40
1.0
 40
1.0
 10
62.3450726739
 20
-34.3283951111
 30
0.0
 10
62.36909009
 20
-34.373326677
 30
0.0
 10
62.4650036925
 20
-34.5537989377
 30
0.0
 10
62.5589674936
 20
-34.7353274988
 30
0.0
 10
62.6272972341
 20
-34.8727025934
 30
0.0
  0
LINE
  5
500
100
AcDbEntity
  8
0
100
AcDbLine
 62
7
  6
CONTINUOUS
 10
62.3323044581
 20
-34.309952251
 11
62.3450726739
 21
-34.3283951111
  0
SPLINE
  5
501
100
AcDbEntity
  8
0
100
AcDbSpline
 62
7
  6
CONTINUOUS
 70
0
 71
3
 72
9
 73
5
 74
0
 42
0.0000001
 43
0.0000001
 44
0.0000000001
 40
0.0
 40
0.0
 40
0.0
 40
0.0
 40
0.249282167
 40
1.0
 40
1.0
 40
1.0
 40
1.0
 10
61.6549273261
 20
-36.6716048889
 30
0.0
 10
61.63090991
 20
-36.626673323
 30
0.0
 10
61.5349963075
 20
-36.4462010623
 30
0.0
 10
61.4410325064
 20
-36.2646725012
 30
0.0
 10
61.3727027659
 20
-36.1272974066
 30
0.0
  0
LINE
  5
502
100
AcDbEntity
  8
0
100
AcDbLine
 62
7
  6
CONTINUOUS
 10
61.6549273261
 20
-36.6716048889
 11
61.6676955411
 21
-36.690047748
  0
LINE
  5
503
100
AcDbEntity
  8
0
100
AcDbLine
 62
7
  6
CONTINUOUS
 10
62.3450726247
 20
-36.671604981
 11
62.3324714129
 21
-36.6898066956
  0
SPLINE
  5
504
100
AcDbEntity
  8
0
100
AcDbSpline
 62
7
  6
CONTINUOUS
 70
0
 71
3
 72
9
 73
5
 74
0
 42
0.0000001
 43
0.0000001
 44
0.0000000001
 40
0.0
 40
0.0
 40
0.0
 40
0.0
 40
0.2506076359
 40
1.0
 40
1.0
 40
1.0
 40
1.0
 10
62.6272975163
 20
-36.1272975093
 30
0.0
 10
62.6044875953
 20
-36.1731570541
 30
0.0
 10
62.5124490729
 20
-36.355643437
 30
0.0
 10
62.4172742501
 20
-36.5365308315
 30
0.0
 10
62.3450726247
 20
-36.671604981
 30
0.0
  0
LINE
  5
505
100
AcDbEntity
  8
0
100
AcDbLine
 62
7
  6
CONTINUOUS
 10
61.437866464
 20
-35.0000529891
 11
61.4802765161
 21
-34.9802765161
  0
LINE
  5
506
100
AcDbEntity
  8
0
100
AcDbLine
 62
7
  6
CONTINUOUS
 10
61.4802765161
 20
-34.9802765161
 11
61.5000529828
 21
-34.9378664697
  0
LINE
  5
507
100
AcDbEntity
  8
0
100
AcDbLine
 62
7
  6
CONTINUOUS
 10
61.5177101929
 20
-34.9
 11
61.761175259
 21
-34.3778933466
  0
LINE
  5
508
100
AcDbEntity
  8
0
100
AcDbLine
 62
7
  6
CONTINUOUS
 10
-61.7611739822
 20
-34.3778971865
 11
-61.517710713
 21
-34.9
  0
LINE
  5
509
100
AcDbEntity
  8
0
100
AcDbLine
 62
7
  6
CONTINUOUS
 10
-61.5000535044
 20
-34.9378660057
 11
-61.480282565
 21
-34.9802732178
  0
LINE
  5
50A
100
AcDbEntity
  8
0
100
AcDbLine
 62
7
  6
CONTINUOUS
 10
-62.5197267822
 20
-36.019717435
 11
-62.5621338622
 21
-35.9999466442
  0
LINE
  5
50B
100
AcDbEntity
  8
0
100
AcDbLine
 62
7
  6
CONTINUOUS
 10
-61.437866464
 20
-35.9999470109
 11
-61.4802765161
 21
-36.0197234839
  0
LINE
  5
50C
100
AcDbEntity
  8
0
100
AcDbLine
 62
7
  6
CONTINUOUS
 10
-61.4802765161
 20
-36.0197234839
 11
-61.5000529828
 21
-36.0621335304
  0
LINE
  5
50D
100
AcDbEntity
  8
0
100
AcDbLine
 62
7
  6
CONTINUOUS
 10
-61.5177101929
 20
-36.1
 11
-61.761175259
 21
-36.6221066534
  0
LINE
  5
50E
100
AcDbEntity
  8
0
100
AcDbLine
 62
7
  6
CONTINUOUS
 10
-62.2388260178
 20
-36.6221028135
 11
-62.482289287
 21
-36.1
  0
LINE
  5
50F
100
AcDbEntity
  8
0
100
AcDbLine
 62
7
  6
CONTINUOUS
 10
-62.4999464956
 20
-36.0621339943
 11
-62.519717435
 21
-36.0197267822
  0
LINE
  5
510
100
AcDbEntity
  8
0
100
AcDbLine
 62
7
  6
CONTINUOUS
 10
-61.4802732178
 20
-34.980282565
 11
-61.4378661378
 21
-35.0000533558
  0
LINE
  5
511
100
AcDbEntity
  8
0
100
AcDbLine
 62
7
  6
CONTINUOUS
 10
-62.5204046482
 20
-34.9795953518
 11
-62.5197234842
 21
-34.9802765158
  0
LINE
  5
512
100
AcDbEntity
  8
0
100
AcDbLine
 62
7
  6
CONTINUOUS
 10
-62.6272975163
 20
-34.8727024907
 11
-62.6000000064
 21
-34.9
  0
LINE
  5
513
100
AcDbEntity
  8
0
100
AcDbLine
 62
7
  6
CONTINUOUS
 10
-62.5197234842
 20
-36.0197234842
 11
-62.5204046481
 21
-36.0204046482
  0
LINE
  5
514
100
AcDbEntity
  8
0
100
AcDbLine
 62
7
  6
CONTINUOUS
 10
-62.5999998582
 20
-36.1
 11
-62.6272972341
 21
-36.1272974066
  0
LINE
  5
515
100
AcDbEntity
  8
TRASH
100
AcDbLine
 62
7
  6
CONTINUOUS
 10
-62.2388223726
 20
-36.622106287
 11
-62.2281482181
 21
-36.6449972701
  0
LINE
  5
516
100
AcDbEntity
  8
0
100
AcDbLine
 62
7
  6
CONTINUOUS
 10
-62.2281482181
 20
-36.6449972701
 11
-62.3323044589
 21
-36.690047748
  0
LINE
  5
517
100
AcDbEntity
  8
0
100
AcDbLine
 62
7
  6
CONTINUOUS
 10
-62.2281927449
 20
-36.6450079241
 11
-62.2281394927
 21
-37.1719912502
  0
LINE
  5
518
100
AcDbEntity
  8
TRASH
100
AcDbLine
 62
7
  6
CONTINUOUS
 10
-61.7611776175
 20
-36.6221062937
 11
-61.7718517719
 21
-36.6449972769
  0
SPLINE
  5
519
100
AcDbEntity
  8
0
100
AcDbSpline
 62
7
  6
CONTINUOUS
 70
0
 71
3
 72
9
 73
5
 74
0
 42
0.0000001
 43
0.0000001
 44
0.0000000001
 40
0.0
 40
0.0
 40
0.0
 40
0.0
 40
0.4995557631
 40
1.0
 40
1.0
 40
1.0
 40
1.0
 10
-61.6675285871
 20
-36.6898066956
 30
0.0
 10
-61.6848652791
 20
-36.682263476
 30
0.0
 10
-61.71946433
 20
-36.6669187804
 30
0.0
 10
-61.7544842461
 20
-36.6525539123
 30
0.0
 10
-61.7718517719
 20
-36.6449972769
 30
0.0
  0
LINE
  5
51A
100
AcDbEntity
  8
0
100
AcDbLine
 62
7
  6
CONTINUOUS
 10
-61.4802765158
 20
-36.0197234842
 11
-61.4795953518
 21
-36.0204046482
  0
LINE
  5
51B
100
AcDbEntity
  8
0
100
AcDbLine
 62
7
  6
CONTINUOUS
 10
-61.3999999936
 20
-36.1
 11
-61.3727024837
 21
-36.1272975093
  0
LINE
  5
51C
100
AcDbEntity
  8
0
100
AcDbLine
 62
7
  6
CONTINUOUS
 10
-61.4802765158
 20
-34.9802765158
 11
-61.4795953519
 21
-34.9795953518
  0
LINE
  5
51D
100
AcDbEntity
  8
0
100
AcDbLine
 62
7
  6
CONTINUOUS
 10
-61.4000001418
 20
-34.9
 11
-61.3727027659
 21
-34.8727025934
  0
LINE
  5
51E
100
AcDbEntity
  8
0
100
AcDbLine
 62
7
  6
CONTINUOUS
 10
-61.7718517819
 20
-34.3550027299
 11
-61.6676955419
 21
-34.309952251
  0
LINE
  5
51F
100
AcDbEntity
  8
0
100
AcDbLine
 62
7
  6
CONTINUOUS
 10
-61.7718605079
 20
-33.8280087497
 11
-61.77180726
 21
-34.3549920768
  0
LINE
  5
520
100
AcDbEntity
  8
TRASH
100
AcDbLine
 62
7
  6
CONTINUOUS
 10
-61.7718517819
 20
-34.3550027299
 11
-61.7611776274
 21
-34.377893713
  0
LINE
  5
521
100
AcDbEntity
  8
TRASH
100
AcDbLine
 62
7
  6
CONTINUOUS
 10
-62.2388223825
 20
-34.3778937063
 11
-62.2281482281
 21
-34.3550027231
  0
SPLINE
  5
522
100
AcDbEntity
  8
0
100
AcDbSpline
 62
7
  6
CONTINUOUS
 70
0
 71
3
 72
9
 73
5
 74
0
 42
0.0000001
 43
0.0000001
 44
0.0000000001
 40
0.0
 40
0.0
 40
0.0
 40
0.0
 40
0.4995557631
 40
1.0
 40
1.0
 40
1.0
 40
1.0
 10
-62.3324714129
 20
-34.3101933044
 30
0.0
 10
-62.3151347209
 20
-34.317736524
 30
0.0
 10
-62.28053567
 20
-34.3330812196
 30
0.0
 10
-62.2455157539
 20
-34.3474460877
 30
0.0
 10
-62.2281482281
 20
-34.3550027231
 30
0.0
  0
LINE
  5
523
100
AcDbEntity
  8
0
100
AcDbLine
 62
7
  6
CONTINUOUS
 10
-62.3324714129
 20
-34.3101933044
 11
-62.3450726247
 21
-34.328395019
  0
SPLINE
  5
524
100
AcDbEntity
  8
0
100
AcDbSpline
 62
7
  6
CONTINUOUS
 70
0
 71
3
 72
9
 73
5
 74
0
 42
0.0000001
 43
0.0000001
 44
0.0000000001
 40
0.0
 40
0.0
 40
0.0
 40
0.0
 40
0.2506076359
 40
1.0
 40
1.0
 40
1.0
 40
1.0
 10
-62.6272975163
 20
-34.8727024907
 30
0.0
 10
-62.6044875953
 20
-34.8268429459
 30
0.0
 10
-62.5124490729
 20
-34.644356563
 30
0.0
 10
-62.4172742501
 20
-34.4634691685
 30
0.0
 10
-62.3450726247
 20
-34.328395019
 30
0.0
  0
SPLINE
  5
525
100
AcDbEntity
  8
0
100
AcDbSpline
 62
7
  6
CONTINUOUS
 70
0
 71
3
 72
9
 73
5
 74
0
 42
0.0000001
 43
0.0000001
 44
0.0000000001
 40
0.0
 40
0.0
 40
0.0
 40
0.0
 40
0.249282167
 40
1.0
 40
1.0
 40
1.0
 40
1.0
 10
-61.6549273261
 20
-34.3283951111
 30
0.0
 10
-61.63090991
 20
-34.373326677
 30
0.0
 10
-61.5349963075
 20
-34.5537989377
 30
0.0
 10
-61.4410325064
 20
-34.7353274988
 30
0.0
 10
-61.3727027659
 20
-34.8727025934
 30
0.0
  0
LINE
  5
526
100
AcDbEntity
  8
0
100
AcDbLine
 62
7
  6
CONTINUOUS
 10
-61.6676955419
 20
-34.309952251
 11
-61.6549273261
 21
-34.3283951111
  0
SPLINE
  5
527
100
AcDbEntity
  8
0
100
AcDbSpline
 62
7
  6
CONTINUOUS
 70
0
 71
3
 72
9
 73
5
 74
0
 42
0.0000001
 43
0.0000001
 44
0.0000000001
 40
0.0
 40
0.0
 40
0.0
 40
0.0
 40
0.249282167
 40
1.0
 40
1.0
 40
1.0
 40
1.0
 10
-62.3450726739
 20
-36.6716048889
 30
0.0
 10
-62.36909009
 20
-36.626673323
 30
0.0
 10
-62.4650036925
 20
-36.4462010623
 30
0.0
 10
-62.5589674936
 20
-36.2646725012
 30
0.0
 10
-62.6272972341
 20
-36.1272974066
 30
0.0
  0
LINE
  5
528
100
AcDbEntity
  8
0
100
AcDbLine
 62
7
  6
CONTINUOUS
 10
-62.3450726739
 20
-36.6716048889
 11
-62.3323044589
 21
-36.690047748
  0
LINE
  5
529
100
AcDbEntity
  8
0
100
AcDbLine
 62
7
  6
CONTINUOUS
 10
-61.6549273753
 20
-36.671604981
 11
-61.6675285871
 21
-36.6898066956
  0
SPLINE
  5
52A
100
AcDbEntity
  8
0
100
AcDbSpline
 62
7
  6
CONTINUOUS
 70
0
 71
3
 72
9
 73
5
 74
0
 42
0.0000001
 43
0.0000001
 44
0.0000000001
 40
0.0
 40
0.0
 40
0.0
 40
0.0
 40
0.2506076359
 40
1.0
 40
1.0
 40
1.0
 40
1.0
 10
-61.3727024837
 20
-36.1272975093
 30
0.0
 10
-61.3955124047
 20
-36.1731570541
 30
0.0
 10
-61.4875509271
 20
-36.355643437
 30
0.0
 10
-61.5827257499
 20
-36.5365308315
 30
0.0
 10
-61.6549273753
 20
-36.671604981
 30
0.0
  0
LINE
  5
52B
100
AcDbEntity
  8
0
100
AcDbLine
 62
7
  6
CONTINUOUS
 10
-62.562133536
 20
-35.0000529891
 11
-62.5197234839
 21
-34.9802765161
  0
LINE
  5
52C
100
AcDbEntity
  8
0
100
AcDbLine
 62
7
  6
CONTINUOUS
 10
-62.5197234839
 20
-34.9802765161
 11
-62.4999470172
 21
-34.9378664697
  0
LINE
  5
52D
100
AcDbEntity
  8
0
100
AcDbLine
 62
7
  6
CONTINUOUS
 10
-62.4822898071
 20
-34.9
 11
-62.238824741
 21
-34.3778933466
  0
LINE
  5
52E
100
AcDbEntity
  8
0
100
AcDbLine
 62
7
  6
CONTINUOUS
 10
62.2388260178
 20
36.6221028135
 11
62.482289287
 21
36.1
  0
LINE
  5
52F
100
AcDbEntity
  8
0
100
AcDbLine
 62
7
  6
CONTINUOUS
 10
62.4999464956
 20
36.0621339943
 11
62.519717435
 21
36.0197267822
  0
LINE
  5
530
100
AcDbEntity
  8
0
100
AcDbLine
 62
7
  6
CONTINUOUS
 10
61.4802732178
 20
34.980282565
 11
61.4378661378
 21
35.0000533558
  0
LINE
  5
531
100
AcDbEntity
  8
0
100
AcDbLine
 62
7
  6
CONTINUOUS
 10
62.562133536
 20
35.0000529891
 11
62.5197234839
 21
34.9802765161
  0
LINE
  5
532
100
AcDbEntity
  8
0
100
AcDbLine
 62
7
  6
CONTINUOUS
 10
62.5197234839
 20
34.9802765161
 11
62.4999470172
 21
34.9378664696
  0
LINE
  5
533
100
AcDbEntity
  8
0
100
AcDbLine
 62
7
  6
CONTINUOUS
 10
62.4822898071
 20
34.9
 11
62.238824741
 21
34.3778933466
  0
LINE
  5
534
100
AcDbEntity
  8
0
100
AcDbLine
 62
7
  6
CONTINUOUS
 10
61.7611739822
 20
34.3778971865
 11
61.517710713
 21
34.9
  0
LINE
  5
535
100
AcDbEntity
  8
0
100
AcDbLine
 62
7
  6
CONTINUOUS
 10
61.5000535044
 20
34.9378660057
 11
61.480282565
 21
34.9802732178
  0
LINE
  5
536
100
AcDbEntity
  8
0
100
AcDbLine
 62
7
  6
CONTINUOUS
 10
62.5197267822
 20
36.019717435
 11
62.5621338622
 21
35.9999466442
  0
LINE
  5
537
100
AcDbEntity
  8
0
100
AcDbLine
 62
7
  6
CONTINUOUS
 10
61.4795953518
 20
36.0204046482
 11
61.4802765158
 21
36.0197234842
  0
LINE
  5
538
100
AcDbEntity
  8
0
100
AcDbLine
 62
7
  6
CONTINUOUS
 10
61.3727024837
 20
36.1272975093
 11
61.3999999936
 21
36.1
  0
LINE
  5
539
100
AcDbEntity
  8
0
100
AcDbLine
 62
7
  6
CONTINUOUS
 10
61.4802765158
 20
34.9802765158
 11
61.4795953519
 21
34.9795953518
  0
LINE
  5
53A
100
AcDbEntity
  8
0
100
AcDbLine
 62
7
  6
CONTINUOUS
 10
61.4000001418
 20
34.9
 11
61.3727027659
 21
34.8727025934
  0
LINE
  5
53B
100
AcDbEntity
  8
TRASH
100
AcDbLine
 62
7
  6
CONTINUOUS
 10
61.7611776274
 20
34.377893713
 11
61.7718517819
 21
34.3550027299
  0
LINE
  5
53C
100
AcDbEntity
  8
0
100
AcDbLine
 62
7
  6
CONTINUOUS
 10
61.7718517819
 20
34.3550027299
 11
61.6676955411
 21
34.309952252
  0
LINE
  5
53D
100
AcDbEntity
  8
0
100
AcDbLine
 62
7
  6
CONTINUOUS
 10
61.7718072551
 20
34.3549920759
 11
61.7718605073
 21
33.8280087498
  0
LINE
  5
53E
100
AcDbEntity
  8
TRASH
100
AcDbLine
 62
7
  6
CONTINUOUS
 10
62.2388223825
 20
34.3778937063
 11
62.2281482281
 21
34.3550027231
  0
SPLINE
  5
53F
100
AcDbEntity
  8
0
100
AcDbSpline
 62
7
  6
CONTINUOUS
 70
0
 71
3
 72
9
 73
5
 74
0
 42
0.0000001
 43
0.0000001
 44
0.0000000001
 40
0.0
 40
0.0
 40
0.0
 40
0.0
 40
0.4995557631
 40
1.0
 40
1.0
 40
1.0
 40
1.0
 10
62.3324714129
 20
34.3101933044
 30
0.0
 10
62.3151347209
 20
34.317736524
 30
0.0
 10
62.28053567
 20
34.3330812196
 30
0.0
 10
62.2455157539
 20
34.3474460877
 30
0.0
 10
62.2281482281
 20
34.3550027231
 30
0.0
  0
LINE
  5
540
100
AcDbEntity
  8
0
100
AcDbLine
 62
7
  6
CONTINUOUS
 10
62.5197234842
 20
34.9802765158
 11
62.5204046482
 21
34.9795953518
  0
LINE
  5
541
100
AcDbEntity
  8
0
100
AcDbLine
 62
7
  6
CONTINUOUS
 10
62.6000000064
 20
34.9
 11
62.6272975163
 21
34.8727024907
  0
LINE
  5
542
100
AcDbEntity
  8
0
100
AcDbLine
 62
7
  6
CONTINUOUS
 10
62.5197234842
 20
36.0197234842
 11
62.5204046481
 21
36.0204046482
  0
LINE
  5
543
100
AcDbEntity
  8
0
100
AcDbLine
 62
7
  6
CONTINUOUS
 10
62.5999998582
 20
36.1
 11
62.6272972341
 21
36.1272974066
  0
LINE
  5
544
100
AcDbEntity
  8
0
100
AcDbLine
 62
7
  6
CONTINUOUS
 10
62.2281482181
 20
36.6449972701
 11
62.3323044581
 21
36.690047749
  0
LINE
  5
545
100
AcDbEntity
  8
0
100
AcDbLine
 62
7
  6
CONTINUOUS
 10
62.2281394921
 20
37.1719912503
 11
62.22819274
 21
36.6450079232
  0
LINE
  5
546
100
AcDbEntity
  8
TRASH
100
AcDbLine
 62
7
  6
CONTINUOUS
 10
62.2281482181
 20
36.6449972701
 11
62.2388223726
 21
36.622106287
  0
LINE
  5
547
100
AcDbEntity
  8
TRASH
100
AcDbLine
 62
7
  6
CONTINUOUS
 10
61.7611776175
 20
36.6221062937
 11
61.7718517719
 21
36.6449972769
  0
SPLINE
  5
548
100
AcDbEntity
  8
0
100
AcDbSpline
 62
7
  6
CONTINUOUS
 70
0
 71
3
 72
9
 73
5
 74
0
 42
0.0000001
 43
0.0000001
 44
0.0000000001
 40
0.0
 40
0.0
 40
0.0
 40
0.0
 40
0.4995557631
 40
1.0
 40
1.0
 40
1.0
 40
1.0
 10
61.6675285871
 20
36.6898066956
 30
0.0
 10
61.6848652791
 20
36.682263476
 30
0.0
 10
61.71946433
 20
36.6669187804
 30
0.0
 10
61.7544842461
 20
36.6525539123
 30
0.0
 10
61.7718517719
 20
36.6449972769
 30
0.0
  0
LINE
  5
549
100
AcDbEntity
  8
0
100
AcDbLine
 62
7
  6
CONTINUOUS
 10
61.6675285871
 20
36.6898066956
 11
61.6549273753
 21
36.671604981
  0
SPLINE
  5
54A
100
AcDbEntity
  8
0
100
AcDbSpline
 62
7
  6
CONTINUOUS
 70
0
 71
3
 72
9
 73
5
 74
0
 42
0.0000001
 43
0.0000001
 44
0.0000000001
 40
0.0
 40
0.0
 40
0.0
 40
0.0
 40
0.2506076359
 40
1.0
 40
1.0
 40
1.0
 40
1.0
 10
61.3727024837
 20
36.1272975093
 30
0.0
 10
61.3955124047
 20
36.1731570541
 30
0.0
 10
61.4875509271
 20
36.355643437
 30
0.0
 10
61.5827257499
 20
36.5365308315
 30
0.0
 10
61.6549273753
 20
36.671604981
 30
0.0
  0
SPLINE
  5
54B
100
AcDbEntity
  8
0
100
AcDbSpline
 62
7
  6
CONTINUOUS
 70
0
 71
3
 72
9
 73
5
 74
0
 42
0.0000001
 43
0.0000001
 44
0.0000000001
 40
0.0
 40
0.0
 40
0.0
 40
0.0
 40
0.249282167
 40
1.0
 40
1.0
 40
1.0
 40
1.0
 10
62.3450726739
 20
36.6716048889
 30
0.0
 10
62.36909009
 20
36.626673323
 30
0.0
 10
62.4650036925
 20
36.4462010623
 30
0.0
 10
62.5589674936
 20
36.2646725012
 30
0.0
 10
62.6272972341
 20
36.1272974066
 30
0.0
  0
LINE
  5
54C
100
AcDbEntity
  8
0
100
AcDbLine
 62
7
  6
CONTINUOUS
 10
62.3323044581
 20
36.690047749
 11
62.3450726739
 21
36.6716048889
  0
SPLINE
  5
54D
100
AcDbEntity
  8
0
100
AcDbSpline
 62
7
  6
CONTINUOUS
 70
0
 71
3
 72
9
 73
5
 74
0
 42
0.0000001
 43
0.0000001
 44
0.0000000001
 40
0.0
 40
0.0
 40
0.0
 40
0.0
 40
0.249282167
 40
1.0
 40
1.0
 40
1.0
 40
1.0
 10
61.6549273261
 20
34.3283951111
 30
0.0
 10
61.63090991
 20
34.373326677
 30
0.0
 10
61.5349963075
 20
34.5537989377
 30
0.0
 10
61.4410325064
 20
34.7353274988
 30
0.0
 10
61.3727027659
 20
34.8727025934
 30
0.0
  0
LINE
  5
54E
100
AcDbEntity
  8
0
100
AcDbLine
 62
7
  6
CONTINUOUS
 10
61.6549273261
 20
34.3283951111
 11
61.6676955411
 21
34.309952252
  0
LINE
  5
54F
100
AcDbEntity
  8
0
100
AcDbLine
 62
7
  6
CONTINUOUS
 10
62.3450726247
 20
34.328395019
 11
62.3324714129
 21
34.3101933044
  0
SPLINE
  5
550
100
AcDbEntity
  8
0
100
AcDbSpline
 62
7
  6
CONTINUOUS
 70
0
 71
3
 72
9
 73
5
 74
0
 42
0.0000001
 43
0.0000001
 44
0.0000000001
 40
0.0
 40
0.0
 40
0.0
 40
0.0
 40
0.2506076359
 40
1.0
 40
1.0
 40
1.0
 40
1.0
 10
62.6272975163
 20
34.8727024907
 30
0.0
 10
62.6044875953
 20
34.8268429459
 30
0.0
 10
62.5124490729
 20
34.644356563
 30
0.0
 10
62.4172742501
 20
34.4634691685
 30
0.0
 10
62.3450726247
 20
34.328395019
 30
0.0
  0
LINE
  5
551
100
AcDbEntity
  8
0
100
AcDbLine
 62
7
  6
CONTINUOUS
 10
61.437866464
 20
35.9999470109
 11
61.4802765161
 21
36.0197234839
  0
LINE
  5
552
100
AcDbEntity
  8
0
100
AcDbLine
 62
7
  6
CONTINUOUS
 10
61.4802765161
 20
36.0197234839
 11
61.5000529828
 21
36.0621335303
  0
LINE
  5
553
100
AcDbEntity
  8
0
100
AcDbLine
 62
7
  6
CONTINUOUS
 10
61.5177101929
 20
36.1
 11
61.761175259
 21
36.6221066534
  0
LINE
  5
554
100
AcDbEntity
  8
0
100
AcDbLine
 62
7
  6
CONTINUOUS
 10
-61.7611739822
 20
36.6221028135
 11
-61.517710713
 21
36.1
  0
LINE
  5
555
100
AcDbEntity
  8
0
100
AcDbLine
 62
7
  6
CONTINUOUS
 10
-61.5000535044
 20
36.0621339943
 11
-61.480282565
 21
36.0197267822
  0
LINE
  5
556
100
AcDbEntity
  8
0
100
AcDbLine
 62
7
  6
CONTINUOUS
 10
-62.5197267822
 20
34.980282565
 11
-62.5621338622
 21
35.0000533558
  0
LINE
  5
557
100
AcDbEntity
  8
0
100
AcDbLine
 62
7
  6
CONTINUOUS
 10
-61.437866464
 20
35.0000529891
 11
-61.4802765161
 21
34.9802765161
  0
LINE
  5
558
100
AcDbEntity
  8
0
100
AcDbLine
 62
7
  6
CONTINUOUS
 10
-61.4802765161
 20
34.9802765161
 11
-61.5000529828
 21
34.9378664696
  0
LINE
  5
559
100
AcDbEntity
  8
0
100
AcDbLine
 62
7
  6
CONTINUOUS
 10
-61.5177101929
 20
34.9
 11
-61.761175259
 21
34.3778933466
  0
LINE
  5
55A
100
AcDbEntity
  8
0
100
AcDbLine
 62
7
  6
CONTINUOUS
 10
-62.2388260178
 20
34.3778971865
 11
-62.482289287
 21
34.9
  0
LINE
  5
55B
100
AcDbEntity
  8
0
100
AcDbLine
 62
7
  6
CONTINUOUS
 10
-62.4999464956
 20
34.9378660057
 11
-62.519717435
 21
34.9802732178
  0
LINE
  5
55C
100
AcDbEntity
  8
0
100
AcDbLine
 62
7
  6
CONTINUOUS
 10
-61.4802732178
 20
36.019717435
 11
-61.4378661378
 21
35.9999466442
  0
LINE
  5
55D
100
AcDbEntity
  8
0
100
AcDbLine
 62
7
  6
CONTINUOUS
 10
-62.5204046482
 20
36.0204046482
 11
-62.5197234842
 21
36.0197234842
  0
LINE
  5
55E
100
AcDbEntity
  8
0
100
AcDbLine
 62
7
  6
CONTINUOUS
 10
-62.6272975163
 20
36.1272975093
 11
-62.6000000064
 21
36.1
  0
LINE
  5
55F
100
AcDbEntity
  8
0
100
AcDbLine
 62
7
  6
CONTINUOUS
 10
-62.5197234842
 20
34.9802765158
 11
-62.5204046481
 21
34.9795953518
  0
LINE
  5
560
100
AcDbEntity
  8
0
100
AcDbLine
 62
7
  6
CONTINUOUS
 10
-62.5999998582
 20
34.9
 11
-62.6272972341
 21
34.8727025934
  0
LINE
  5
561
100
AcDbEntity
  8
TRASH
100
AcDbLine
 62
7
  6
CONTINUOUS
 10
-62.2388223726
 20
34.377893713
 11
-62.2281482181
 21
34.3550027299
  0
LINE
  5
562
100
AcDbEntity
  8
0
100
AcDbLine
 62
7
  6
CONTINUOUS
 10
-62.2281482181
 20
34.3550027299
 11
-62.3323044589
 21
34.309952252
  0
LINE
  5
563
100
AcDbEntity
  8
0
100
AcDbLine
 62
7
  6
CONTINUOUS
 10
-62.2281927449
 20
34.3549920759
 11
-62.2281394927
 21
33.8280087498
  0
LINE
  5
564
100
AcDbEntity
  8
TRASH
100
AcDbLine
 62
7
  6
CONTINUOUS
 10
-61.7611776175
 20
34.3778937063
 11
-61.7718517719
 21
34.3550027231
  0
SPLINE
  5
565
100
AcDbEntity
  8
0
100
AcDbSpline
 62
7
  6
CONTINUOUS
 70
0
 71
3
 72
9
 73
5
 74
0
 42
0.0000001
 43
0.0000001
 44
0.0000000001
 40
0.0
 40
0.0
 40
0.0
 40
0.0
 40
0.4995557631
 40
1.0
 40
1.0
 40
1.0
 40
1.0
 10
-61.6675285871
 20
34.3101933044
 30
0.0
 10
-61.6848652791
 20
34.317736524
 30
0.0
 10
-61.71946433
 20
34.3330812196
 30
0.0
 10
-61.7544842461
 20
34.3474460877
 30
0.0
 10
-61.7718517719
 20
34.3550027231
 30
0.0
  0
LINE
  5
566
100
AcDbEntity
  8
0
100
AcDbLine
 62
7
  6
CONTINUOUS
 10
-61.4802765158
 20
34.9802765158
 11
-61.4795953518
 21
34.9795953518
  0
LINE
  5
567
100
AcDbEntity
  8
0
100
AcDbLine
 62
7
  6
CONTINUOUS
 10
-61.3999999936
 20
34.9
 11
-61.3727024837
 21
34.8727024907
  0
LINE
  5
568
100
AcDbEntity
  8
0
100
AcDbLine
 62
7
  6
CONTINUOUS
 10
-61.4802765158
 20
36.0197234842
 11
-61.4795953519
 21
36.0204046482
  0
LINE
  5
569
100
AcDbEntity
  8
0
100
AcDbLine
 62
7
  6
CONTINUOUS
 10
-61.4000001418
 20
36.1
 11
-61.3727027659
 21
36.1272974066
  0
LINE
  5
56A
100
AcDbEntity
  8
0
100
AcDbLine
 62
7
  6
CONTINUOUS
 10
-61.7718517819
 20
36.6449972701
 11
-61.6676955419
 21
36.690047749
  0
LINE
  5
56B
100
AcDbEntity
  8
0
100
AcDbLine
 62
7
  6
CONTINUOUS
 10
-61.7718605079
 20
37.1719912503
 11
-61.77180726
 21
36.6450079232
  0
LINE
  5
56C
100
AcDbEntity
  8
TRASH
100
AcDbLine
 62
7
  6
CONTINUOUS
 10
-61.7718517819
 20
36.6449972701
 11
-61.7611776274
 21
36.622106287
  0
LINE
  5
56D
100
AcDbEntity
  8
TRASH
100
AcDbLine
 62
7
  6
CONTINUOUS
 10
-62.2388223825
 20
36.6221062937
 11
-62.2281482281
 21
36.6449972769
  0
SPLINE
  5
56E
100
AcDbEntity
  8
0
100
AcDbSpline
 62
7
  6
CONTINUOUS
 70
0
 71
3
 72
9
 73
5
 74
0
 42
0.0000001
 43
0.0000001
 44
0.0000000001
 40
0.0
 40
0.0
 40
0.0
 40
0.0
 40
0.4995557631
 40
1.0
 40
1.0
 40
1.0
 40
1.0
 10
-62.3324714129
 20
36.6898066956
 30
0.0
 10
-62.3151347209
 20
36.682263476
 30
0.0
 10
-62.28053567
 20
36.6669187804
 30
0.0
 10
-62.2455157539
 20
36.6525539123
 30
0.0
 10
-62.2281482281
 20
36.6449972769
 30
0.0
  0
LINE
  5
56F
100
AcDbEntity
  8
0
100
AcDbLine
 62
7
  6
CONTINUOUS
 10
-62.3324714129
 20
36.6898066956
 11
-62.3450726247
 21
36.671604981
  0
SPLINE
  5
570
100
AcDbEntity
  8
0
100
AcDbSpline
 62
7
  6
CONTINUOUS
 70
0
 71
3
 72
9
 73
5
 74
0
 42
0.0000001
 43
0.0000001
 44
0.0000000001
 40
0.0
 40
0.0
 40
0.0
 40
0.0
 40
0.2506076359
 40
1.0
 40
1.0
 40
1.0
 40
1.0
 10
-62.6272975163
 20
36.1272975093
 30
0.0
 10
-62.6044875953
 20
36.1731570541
 30
0.0
 10
-62.5124490729
 20
36.355643437
 30
0.0
 10
-62.4172742501
 20
36.5365308315
 30
0.0
 10
-62.3450726247
 20
36.671604981
 30
0.0
  0
SPLINE
  5
571
100
AcDbEntity
  8
0
100
AcDbSpline
 62
7
  6
CONTINUOUS
 70
0
 71
3
 72
9
 73
5
 74
0
 42
0.0000001
 43
0.0000001
 44
0.0000000001
 40
0.0
 40
0.0
 40
0.0
 40
0.0
 40
0.249282167
 40
1.0
 40
1.0
 40
1.0
 40
1.0
 10
-61.6549273261
 20
36.6716048889
 30
0.0
 10
-61.63090991
 20
36.626673323
 30
0.0
 10
-61.5349963075
 20
36.4462010623
 30
0.0
 10
-61.4410325064
 20
36.2646725012
 30
0.0
 10
-61.3727027659
 20
36.1272974066
 30
0.0
  0
LINE
  5
572
100
AcDbEntity
  8
0
100
AcDbLine
 62
7
  6
CONTINUOUS
 10
-61.6676955419
 20
36.690047749
 11
-61.6549273261
 21
36.6716048889
  0
SPLINE
  5
573
100
AcDbEntity
  8
0
100
AcDbSpline
 62
7
  6
CONTINUOUS
 70
0
 71
3
 72
9
 73
5
 74
0
 42
0.0000001
 43
0.0000001
 44
0.0000000001
 40
0.0
 40
0.0
 40
0.0
 40
0.0
 40
0.249282167
 40
1.0
 40
1.0
 40
1.0
 40
1.0
 10
-62.3450726739
 20
34.3283951111
 30
0.0
 10
-62.36909009
 20
34.373326677
 30
0.0
 10
-62.4650036925
 20
34.5537989377
 30
0.0
 10
-62.5589674936
 20
34.7353274988
 30
0.0
 10
-62.6272972341
 20
34.8727025934
 30
0.0
  0
LINE
  5
574
100
AcDbEntity
  8
0
100
AcDbLine
 62
7
  6
CONTINUOUS
 10
-62.3450726739
 20
34.3283951111
 11
-62.3323044589
 21
34.309952252
  0
LINE
  5
575
100
AcDbEntity
  8
0
100
AcDbLine
 62
7
  6
CONTINUOUS
 10
-61.6549273753
 20
34.328395019
 11
-61.6675285871
 21
34.3101933044
  0
SPLINE
  5
576
100
AcDbEntity
  8
0
100
AcDbSpline
 62
7
  6
CONTINUOUS
 70
0
 71
3
 72
9
 73
5
 74
0
 42
0.0000001
 43
0.0000001
 44
0.0000000001
 40
0.0
 40
0.0
 40
0.0
 40
0.0
 40
0.2506076359
 40
1.0
 40
1.0
 40
1.0
 40
1.0
 10
-61.3727024837
 20
34.8727024907
 30
0.0
 10
-61.3955124047
 20
34.8268429459
 30
0.0
 10
-61.4875509271
 20
34.644356563
 30
0.0
 10
-61.5827257499
 20
34.4634691685
 30
0.0
 10
-61.6549273753
 20
34.328395019
 30
0.0
  0
LINE
  5
577
100
AcDbEntity
  8
0
100
AcDbLine
 62
7
  6
CONTINUOUS
 10
-62.562133536
 20
35.9999470109
 11
-62.5197234839
 21
36.0197234839
  0
LINE
  5
578
100
AcDbEntity
  8
0
100
AcDbLine
 62
7
  6
CONTINUOUS
 10
-62.5197234839
 20
36.0197234839
 11
-62.4999470172
 21
36.0621335303
  0
LINE
  5
579
100
AcDbEntity
  8
0
100
AcDbLine
 62
7
  6
CONTINUOUS
 10
-62.4822898071
 20
36.1
 11
-62.238824741
 21
36.6221066534
  0
SPLINE
  5
57A
100
AcDbEntity
  8
0
100
AcDbSpline
 62
7
  6
CONTINUOUS
 70
0
 71
3
 72
11
 73
7
 74
0
 42
0.0000001
 43
0.0000001
 44
0.0000000001
 40
0.0
 40
0.0
 40
0.0
 40
0.0
 40
0.0239960229
 40
0.354835987
 40
0.679136659
 40
1.0
 40
1.0
 40
1.0
 40
1.0
 10
-50.8488928838
 20
-0.8804714758
 30
0.0
 10
-50.8453764764
 20
-0.8740128185
 30
0.0
 10
-50.7938996899
 20
-0.7782209732
 30
0.0
 10
-50.7103083255
 20
-0.5868789484
 30
0.0
 10
-50.6358470536
 20
-0.296160458
 30
0.0
 10
-50.6191588785
 20
-0.0982387552
 30
0.0
 10
-50.6191588785
 20
-0.0
 30
0.0
  0
SPLINE
  5
57B
100
AcDbEntity
  8
0
100
AcDbSpline
 62
7
  6
CONTINUOUS
 70
0
 71
3
 72
11
 73
7
 74
0
 42
0.0000001
 43
0.0000001
 44
0.0000000001
 40
0.0
 40
0.0
 40
0.0
 40
0.0
 40
0.320863341
 40
0.645164013
 40
0.9760039771
 40
1.0
 40
1.0
 40
1.0
 40
1.0
 10
-50.6191588785
 20
-0.0
 30
0.0
 10
-50.6191588785
 20
0.0982387552
 30
0.0
 10
-50.6358470536
 20
0.296160458
 30
0.0
 10
-50.7103083255
 20
0.5868789484
 30
0.0
 10
-50.7938996899
 20
0.7782209732
 30
0.0
 10
-50.8453764764
 20
0.8740128185
 30
0.0
 10
-50.8488928838
 20
0.8804714758
 30
0.0
  0
SPLINE
  5
57C
100
AcDbEntity
  8
ASSI
100
AcDbSpline
 62
7
  6
CONTINUOUS
 70
0
 71
3
 72
19
 73
15
 74
0
 42
0.0000001
 43
0.0000001
 44
0.0000000001
 40
0.0
 40
0.0
 40
0.0
 40
0.0
 40
0.0737831099
 40
0.2037959079
 40
0.2613545761
 40
0.3144908
 40
0.3646397482
 40
0.4123218488
 40
0.4804488879
 40
0.5488779323
 40
0.5967199332
 40
0.6466016627
 40
0.7174098258
 40
1.0
 40
1.0
 40
1.0
 40
1.0
 10
7.0168180318
 20
-19.6096389254
 30
0.0
 10
7.0157604259
 20
-19.6063800367
 30
0.0
 10
7.0127852969
 20
-19.5973997788
 30
0.0
 10
7.0082358405
 20
-19.5861031337
 30
0.0
 10
7.0026980719
 20
-19.5763662041
 30
0.0
 10
6.998224913
 20
-19.5703681544
 30
0.0
 10
6.9936285683
 20
-19.565068285
 30
0.0
 10
6.9878663115
 20
-19.559886813
 30
0.0
 10
6.9803049038
 20
-19.5557643277
 30
0.0
 10
6.9722874768
 20
-19.5526134047
 30
0.0
 10
6.9646259104
 20
-19.5514333728
 30
0.0
 10
6.9567989969
 20
-19.5511014817
 30
0.0
 10
6.9381096696
 20
-19.5514840332
 30
0.0
 10
6.9214172679
 20
-19.555884423
 30
0.0
 10
6.9101714047
 20
-19.5626466834
 30
0.0
  0
SPLINE
  5
57D
100
AcDbEntity
  8
ASSI
100
AcDbSpline
 62
7
  6
CONTINUOUS
 70
0
 71
3
 72
10
 73
6
 74
0
 42
0.0000001
 43
0.0000001
 44
0.0000000001
 40
0.0
 40
0.0
 40
0.0
 40
0.0
 40
0.5292821856
 40
0.8498669202
 40
1.0
 40
1.0
 40
1.0
 40
1.0
 10
6.8746293876
 20
-19.5763491216
 30
0.0
 10
6.862561438
 20
-19.5809715746
 30
0.0
 10
6.843170017
 20
-19.5883573835
 30
0.0
 10
6.8203402311
 20
-19.5970160907
 30
0.0
 10
6.8095518045
 20
-19.6009778926
 30
0.0
 10
6.8061068813
 20
-19.6022305269
 30
0.0
  0
LINE
  5
57E
100
AcDbEntity
  8
ASSI
100
AcDbLine
 62
7
  6
CONTINUOUS
 10
6.7728980685
 20
-19.6139477848
 11
6.7404083543
 21
-19.624787407
  0
SPLINE
  5
57F
100
AcDbEntity
  8
ASSI
100
AcDbSpline
 62
7
  6
CONTINUOUS
 70
0
 71
3
 72
25
 73
21
 74
0
 42
0.0000001
 43
0.0000001
 44
0.0000000001
 40
0.0
 40
0.0
 40
0.0
 40
0.0
 40
0.0418423844
 40
0.082804479
 40
0.1559175407
 40
0.2247015683
 40
0.2604890645
 40
0.3569698707
 40
0.3824691197
 40
0.4303568533
 40
0.4937254466
 40
0.553913789
 40
0.5980538328
 40
0.6485041443
 40
0.7074802584
 40
0.7393826237
 40
0.813986206
 40
0.9003919379
 40
0.9501764285
 40
1.0
 40
1.0
 40
1.0
 40
1.0
 10
6.7404083543
 20
-19.624787407
 30
0.0
 10
6.7310094501
 20
-19.6278183965
 30
0.0
 10
6.7123443751
 20
-19.6336089987
 30
0.0
 10
6.6768280583
 20
-19.6432625733
 30
0.0
 10
6.6344674077
 20
-19.651813928
 30
0.0
 10
6.5926614337
 20
-19.6560547709
 30
0.0
 10
6.5452524832
 20
-19.6572147924
 30
0.0
 10
6.5078479976
 20
-19.6583058588
 30
0.0
 10
6.4680972784
 20
-19.6527654842
 30
0.0
 10
6.4364255719
 20
-19.6469209825
 30
0.0
 10
6.3976446361
 20
-19.6323375329
 30
0.0
 10
6.3696488609
 20
-19.6028577866
 30
0.0
 10
6.3516105243
 20
-19.5709700311
 30
0.0
 10
6.3396088153
 20
-19.5365664918
 30
0.0
 10
6.3331091905
 20
-19.5038204021
 30
0.0
 10
6.3264113693
 20
-19.4653346189
 30
0.0
 10
6.323091245
 20
-19.4198583976
 30
0.0
 10
6.3206702146
 20
-19.3701773106
 30
0.0
 10
6.3204486368
 20
-19.3262726351
 30
0.0
 10
6.3203300642
 20
-19.3027660172
 30
0.0
 10
6.3200828932
 20
-19.2910105678
 30
0.0
  0
SPLINE
  5
580
100
AcDbEntity
  8
ASSI
100
AcDbSpline
 62
7
  6
CONTINUOUS
 70
0
 71
3
 72
18
 73
14
 74
0
 42
0.0000001
 43
0.0000001
 44
0.0000000001
 40
0.0
 40
0.0
 40
0.0
 40
0.0
 40
0.0520723219
 40
0.1505880397
 40
0.2388176365
 40
0.390516142
 40
0.4911008189
 40
0.5572622125
 40
0.6264946418
 40
0.7461426197
 40
0.8383809271
 40
0.9437650325
 40
1.0
 40
1.0
 40
1.0
 40
1.0
 10
6.8866792127
 20
-17.8930641864
 30
0.0
 10
6.8892546854
 20
-17.8930024365
 30
0.0
 10
6.8967026043
 20
-17.8928434766
 30
0.0
 10
6.9085160084
 20
-17.8924477498
 30
0.0
 10
6.9251925715
 20
-17.8908596623
 30
0.0
 10
6.9417207761
 20
-17.8869141887
 30
0.0
 10
6.9558914283
 20
-17.8795615774
 30
0.0
 10
6.964437782
 20
-17.8714805461
 30
0.0
 10
6.9719150569
 20
-17.8612347179
 30
0.0
 10
6.9774281649
 20
-17.8483401011
 30
0.0
 10
6.9820126779
 20
-17.8333258385
 30
0.0
 10
6.9845709925
 20
-17.8210134543
 30
0.0
 10
6.9860024732
 20
-17.8131484631
 30
0.0
 10
6.9865022569
 20
-17.8104115683
 30
0.0
  0
SPLINE
  5
581
100
AcDbEntity
  8
ASSI
100
AcDbSpline
 62
7
  6
CONTINUOUS
 70
0
 71
3
 72
9
 73
5
 74
0
 42
0.0000001
 43
0.0000001
 44
0.0000000001
 40
0.0
 40
0.0
 40
0.0
 40
0.0
 40
0.8334144561
 40
1.0
 40
1.0
 40
1.0
 40
1.0
 10
7.0636939114
 20
-17.4741297126
 30
0.0
 10
7.0675916576
 20
-17.4598273842
 30
0.0
 10
7.0701058462
 20
-17.4419297717
 30
0.0
 10
7.0697319459
 20
-17.4241485436
 30
0.0
 10
7.0695937577
 20
-17.4211887313
 30
0.0
  0
SPLINE
  5
582
100
AcDbEntity
  8
ASSI
100
AcDbSpline
 62
7
  6
CONTINUOUS
 70
0
 71
3
 72
19
 73
15
 74
0
 42
0.0000001
 43
0.0000001
 44
0.0000000001
 40
0.0
 40
0.0
 40
0.0
 40
0.0
 40
0.0831583027
 40
0.1567780782
 40
0.1911989252
 40
0.2852895346
 40
0.3476858835
 40
0.4495242534
 40
0.5760907972
 40
0.622749935
 40
0.6772340864
 40
0.8566360409
 40
0.9283075418
 40
1.0
 40
1.0
 40
1.0
 40
1.0
 10
7.0695937577
 20
-17.4211887313
 30
0.0
 10
7.0695915708
 20
-17.4177276722
 30
0.0
 10
7.0689881683
 20
-17.4111973604
 30
0.0
 10
7.0673424356
 20
-17.4034090086
 30
0.0
 10
7.0652414968
 20
-17.3952532597
 30
0.0
 10
7.0611275826
 20
-17.3882023506
 30
0.0
 10
7.053421488
 20
-17.3806439884
 30
0.0
 10
7.0427677027
 20
-17.3744598531
 30
0.0
 10
7.0315168123
 20
-17.3719386576
 30
0.0
 10
7.0222364809
 20
-17.3700186898
 30
0.0
 10
7.0106038067
 20
-17.3688755377
 30
0.0
 10
6.9979321702
 20
-17.367692397
 30
0.0
 10
6.9844940977
 20
-17.3676218274
 30
0.0
 10
6.978527214
 20
-17.3675905414
 30
0.0
 10
6.9755447369
 20
-17.3675000245
 30
0.0
  0
SPLINE
  5
583
100
AcDbEntity
  8
ASSI
100
AcDbSpline
 62
7
  6
CONTINUOUS
 70
0
 71
3
 72
20
 73
16
 74
0
 42
0.0000001
 43
0.0000001
 44
0.0000000001
 40
0.0
 40
0.0
 40
0.0
 40
0.0
 40
0.0469402144
 40
0.093921313
 40
0.13592401
 40
0.2160220484
 40
0.2879287758
 40
0.3827971045
 40
0.438204077
 40
0.5121473519
 40
0.5588713023
 40
0.6057623124
 40
0.6546348345
 40
0.7068613236
 40
1.0
 40
1.0
 40
1.0
 40
1.0
 10
6.3200830842
 20
-16.5591198177
 30
0.0
 10
6.3199338424
 20
-16.556325493
 30
0.0
 10
6.3199008771
 20
-16.5507250072
 30
0.0
 10
6.3198529873
 20
-16.542616516
 30
0.0
 10
6.3188869048
 20
-16.5325781651
 30
0.0
 10
6.3178450166
 20
-16.5210536697
 30
0.0
 10
6.3152717202
 20
-16.5065549368
 30
0.0
 10
6.3116976507
 20
-16.4937267461
 30
0.0
 10
6.3058554417
 20
-16.4816539876
 30
0.0
 10
6.2993730434
 20
-16.4732288846
 30
0.0
 10
6.2915598318
 20
-16.4669080293
 30
0.0
 10
6.2839710261
 20
-16.4629749664
 30
0.0
 10
6.2755099603
 20
-16.4603396535
 30
0.0
 10
6.2520622136
 20
-16.4572861015
 30
0.0
 10
6.2317005
 20
-16.4636508539
 30
0.0
 10
6.2142889207
 20
-16.4651415816
 30
0.0
  0
SPLINE
  5
584
100
AcDbEntity
  8
ASSI
100
AcDbSpline
 62
7
  6
CONTINUOUS
 70
0
 71
3
 72
27
 73
23
 74
0
 42
0.0000001
 43
0.0000001
 44
0.0000000001
 40
0.0
 40
0.0
 40
0.0
 40
0.0
 40
0.0281379108
 40
0.0807629451
 40
0.1347163492
 40
0.190457608
 40
0.2192883137
 40
0.2780853401
 40
0.3393321703
 40
0.370609929
 40
0.4797572203
 40
0.5245511719
 40
0.5701348192
 40
0.5932555835
 40
0.6630053927
 40
0.7097935055
 40
0.77997403
 40
0.8494565839
 40
0.8949394363
 40
0.9172693596
 40
0.961412517
 40
1.0
 40
1.0
 40
1.0
 40
1.0
 10
5.8497910893
 20
-20.1471296213
 30
0.0
 10
5.8591748016
 20
-20.1543351883
 30
0.0
 10
5.886904936
 20
-20.1740344054
 30
0.0
 10
5.9351721929
 20
-20.2037203736
 30
0.0
 10
5.9968141769
 20
-20.2331052204
 30
0.0
 10
6.0512761973
 20
-20.254046644
 30
0.0
 10
6.1095838757
 20
-20.269260955
 30
0.0
 10
6.1704288388
 20
-20.2840467377
 30
0.0
 10
6.233548084
 20
-20.292292725
 30
0.0
 10
6.3177440459
 20
-20.3019205293
 30
0.0
 10
6.3958871046
 20
-20.3014345558
 30
0.0
 10
6.4795423951
 20
-20.2965044646
 30
0.0
 10
6.5270788925
 20
-20.2923991456
 30
0.0
 10
6.5847637831
 20
-20.2848637666
 30
0.0
 10
6.6429043988
 20
-20.2767952279
 30
0.0
 10
6.7199940983
 20
-20.2621194304
 30
0.0
 10
6.7963096069
 20
-20.2443202437
 30
0.0
 10
6.8713990565
 20
-20.2239357617
 30
0.0
 10
6.9264949653
 20
-20.2067721547
 30
0.0
 10
6.970796788
 20
-20.190948323
 30
0.0
 10
7.0122371095
 20
-20.1757357921
 30
0.0
 10
7.0444971459
 20
-20.1627625559
 30
0.0
 10
7.059401456
 20
-20.1563806
 30
0.0
  0
SPLINE
  5
585
100
AcDbEntity
  8
ASSI
100
AcDbSpline
 62
7
  6
CONTINUOUS
 70
0
 71
3
 72
19
 73
15
 74
0
 42
0.0000001
 43
0.0000001
 44
0.0000000001
 40
0.0
 40
0.0
 40
0.0
 40
0.0
 40
0.0063199849
 40
0.0834728961
 40
0.1538042411
 40
0.2184801584
 40
0.278981469
 40
0.3641107061
 40
0.529430476
 40
0.5896071193
 40
0.6547508339
 40
0.7536266911
 40
0.9148387168
 40
1.0
 40
1.0
 40
1.0
 40
1.0
 10
7.0592878446
 20
-20.1561291601
 30
0.0
 10
7.0596190189
 20
-20.1559722838
 30
0.0
 10
7.0639890107
 20
-20.1538911919
 30
0.0
 10
7.0719365189
 20
-20.1498288967
 30
0.0
 10
7.082490596
 20
-20.1434878055
 30
0.0
 10
7.0917317628
 20
-20.1368921141
 30
0.0
 10
7.1009345051
 20
-20.128868263
 30
0.0
 10
7.1129121439
 20
-20.1152284511
 30
0.0
 10
7.1197199281
 20
-20.0979219564
 30
0.0
 10
7.122246084
 20
-20.0812475412
 30
0.0
 10
7.1226520704
 20
-20.0682493008
 30
0.0
 10
7.1219848698
 20
-20.049241509
 30
0.0
 10
7.1146875709
 20
-20.0303725354
 30
0.0
 10
7.111414094
 20
-20.0164032328
 30
0.0
 10
7.1109231276
 20
-20.011489344
 30
0.0
  0
SPLINE
  5
586
100
AcDbEntity
  8
ASSI
100
AcDbSpline
 62
7
  6
CONTINUOUS
 70
0
 71
3
 72
9
 73
5
 74
0
 42
0.0000001
 43
0.0000001
 44
0.0000000001
 40
0.0
 40
0.0
 40
0.0
 40
0.0
 40
0.1804025727
 40
1.0
 40
1.0
 40
1.0
 40
1.0
 10
-5.8500042836
 20
-17.1880016455
 30
0.0
 10
-5.8521341865
 20
-17.1878268412
 30
0.0
 10
-5.8639550831
 20
-17.1870321727
 30
0.0
 10
-5.8757947321
 20
-17.1869733536
 30
0.0
 10
-5.8854931344
 20
-17.1867119565
 30
0.0
  0
SPLINE
  5
587
100
AcDbEntity
  8
ASSI
100
AcDbSpline
 62
7
  6
CONTINUOUS
 70
0
 71
3
 72
19
 73
15
 74
0
 42
0.0000001
 43
0.0000001
 44
0.0000000001
 40
0.0
 40
0.0
 40
0.0
 40
0.0
 40
0.1138421692
 40
0.1630449891
 40
0.2956842704
 40
0.367182963
 40
0.3983998985
 40
0.4580899383
 40
0.5158525955
 40
0.6093439148
 40
0.6846187088
 40
0.7734604991
 40
0.8779560791
 40
1.0
 40
1.0
 40
1.0
 40
1.0
 10
-7.0214827475
 20
-17.1867118439
 30
0.0
 10
-7.0283001753
 20
-17.1866588928
 30
0.0
 10
-7.0380673745
 20
-17.1868307499
 30
0.0
 10
-7.055753522
 20
-17.1878053523
 30
0.0
 10
-7.0708292711
 20
-17.1892822574
 30
0.0
 10
-7.0847531584
 20
-17.1923030068
 30
0.0
 10
-7.093445128
 20
-17.1967025416
 30
0.0
 10
-7.1012162438
 20
-17.2011892933
 30
0.0
 10
-7.1098831418
 20
-17.2106067135
 30
0.0
 10
-7.1159502025
 20
-17.2230065569
 30
0.0
 10
-7.119221169
 20
-17.2381272148
 30
0.0
 10
-7.1212704306
 20
-17.254096391
 30
0.0
 10
-7.1220737547
 20
-17.2729830712
 30
0.0
 10
-7.1221264029
 20
-17.2865481589
 30
0.0
 10
-7.1222829197
 20
-17.2938552936
 30
0.0
  0
SPLINE
  5
588
100
AcDbEntity
  8
ASSI
100
AcDbSpline
 62
7
  6
CONTINUOUS
 70
0
 71
3
 72
19
 73
15
 74
0
 42
0.0000001
 43
0.0000001
 44
0.0000000001
 40
0.0
 40
0.0
 40
0.0
 40
0.0
 40
0.1214741773
 40
0.2260446987
 40
0.2704974513
 40
0.3524996129
 40
0.4223034741
 40
0.48362322
 40
0.5129884182
 40
0.6014876212
 40
0.6327269446
 40
0.7459234115
 40
0.8861473615
 40
1.0
 40
1.0
 40
1.0
 40
1.0
 10
-7.1222832829
 20
-17.6453040746
 30
0.0
 10
-7.1219734854
 20
-17.6525669578
 30
0.0
 10
-7.1220720192
 20
-17.6660926312
 30
0.0
 10
-7.121519049
 20
-17.6823003418
 30
0.0
 10
-7.1196217514
 20
-17.6960023837
 30
0.0
 10
-7.117741203
 20
-17.7075895152
 30
0.0
 10
-7.1140965116
 20
-17.7199262815
 30
0.0
 10
-7.1092138352
 20
-17.7282312839
 30
0.0
 10
-7.1031487485
 20
-17.7371673449
 30
0.0
 10
-7.0949405156
 20
-17.7415411838
 30
0.0
 10
-7.0825429703
 20
-17.7478618873
 30
0.0
 10
-7.0653083423
 20
-17.7502731689
 30
0.0
 10
-7.0435565274
 20
-17.7522974918
 30
0.0
 10
-7.0283042717
 20
-17.7525262994
 30
0.0
 10
-7.0214937085
 20
-17.7523298801
 30
0.0
  0
SPLINE
  5
589
100
AcDbEntity
  8
ASSI
100
AcDbSpline
 62
7
  6
CONTINUOUS
 70
0
 71
3
 72
18
 73
14
 74
0
 42
0.0000001
 43
0.0000001
 44
0.0000000001
 40
0.0
 40
0.0
 40
0.0
 40
0.0
 40
0.1180228166
 40
0.219004297
 40
0.3046498911
 40
0.3781604991
 40
0.441580017
 40
0.4994294688
 40
0.5886207118
 40
0.6568583807
 40
0.7365926305
 40
0.8305435327
 40
1.0
 40
1.0
 40
1.0
 40
1.0
 10
-6.5573955625
 20
-20.093433175
 30
0.0
 10
-6.557398172
 20
-20.1007023985
 30
0.0
 10
-6.5572123492
 20
-20.114195547
 30
0.0
 10
-6.5561513104
 20
-20.1329285915
 30
0.0
 10
-6.5544680896
 20
-20.1488905685
 30
0.0
 10
-6.5510826156
 20
-20.1622296418
 30
0.0
 10
-6.546386727
 20
-20.1733260381
 30
0.0
 10
-6.5386320917
 20
-20.1839676234
 30
0.0
 10
-6.526828417
 20
-20.1907858809
 30
0.0
 10
-6.5129771086
 20
-20.1954372483
 30
0.0
 10
-6.4982293982
 20
-20.1979275941
 30
0.0
 10
-6.4771675234
 20
-20.1997315241
 30
0.0
 10
-6.4609304778
 20
-20.1998975307
 30
0.0
 10
-6.4504951973
 20
-20.200092798
 30
0.0
  0
SPLINE
  5
58A
100
AcDbEntity
  8
ASSI
100
AcDbSpline
 62
7
  6
CONTINUOUS
 70
0
 71
3
 72
9
 73
5
 74
0
 42
0.0000001
 43
0.0000001
 44
0.0000000001
 40
0.0
 40
0.0
 40
0.0
 40
0.0
 40
0.8197810297
 40
1.0
 40
1.0
 40
1.0
 40
1.0
 10
-5.8855064492
 20
-20.2000932099
 30
0.0
 10
-5.8758167397
 20
-20.1995141371
 30
0.0
 10
-5.8639714211
 20
-20.1996172895
 30
0.0
 10
-5.8521324003
 20
-20.1989708976
 30
0.0
 10
-5.8500049382
 20
-20.1988179979
 30
0.0
  0
SPLINE
  5
58B
100
AcDbEntity
  8
0
100
AcDbSpline
 62
7
  6
CONTINUOUS
 70
0
 71
3
 72
15
 73
11
 74
0
 42
0.0000001
 43
0.0000001
 44
0.0000000001
 40
0.0
 40
0.0
 40
0.0
 40
0.0
 40
0.1247706018
 40
0.2508728068
 40
0.3773557945
 40
0.5027964074
 40
0.6267377276
 40
0.7501010174
 40
0.8743251353
 40
1.0
 40
1.0
 40
1.0
 40
1.0
 10
58.5701627134
 20
-35.5
 30
0.0
 10
58.5685984043
 20
-35.0550204108
 30
0.0
 10
58.7444666606
 20
-34.1499291704
 30
0.0
 10
59.5106207277
 20
-33.0017695588
 30
0.0
 10
60.664779149
 20
-32.2367995592
 30
0.0
 10
62.0163361116
 20
-31.9795843439
 30
0.0
 10
63.3513986026
 20
-32.2563364616
 30
0.0
 10
64.4777857407
 20
-33.0164221053
 30
0.0
 10
65.2358054707
 20
-34.1503931118
 30
0.0
 10
65.4140486198
 20
-35.0517931995
 30
0.0
 10
65.4133756841
 20
-35.5
 30
0.0
  0
SPLINE
  5
58C
100
AcDbEntity
  8
0
100
AcDbSpline
 62
7
  6
CONTINUOUS
 70
0
 71
3
 72
15
 73
11
 74
0
 42
0.0000001
 43
0.0000001
 44
0.0000000001
 40
0.0
 40
0.0
 40
0.0
 40
0.0
 40
0.1258176833
 40
0.2518104581
 40
0.3778975817
 40
0.5039637864
 40
0.6293583413
 40
0.7534648749
 40
0.8766176599
 40
1.0
 40
1.0
 40
1.0
 40
1.0
 10
65.4133756841
 20
-35.5
 30
0.0
 10
65.4127042785
 20
-35.9471877304
 30
0.0
 10
65.2314282748
 20
-36.8518439259
 30
0.0
 10
64.4595901838
 20
-37.9926186734
 30
0.0
 10
63.3057062885
 20
-38.7494281297
 30
0.0
 10
61.9517001647
 20
-39.0017610348
 30
0.0
 10
60.6120618344
 20
-38.7167637334
 30
0.0
 10
59.4913451062
 20
-37.9489808063
 30
0.0
 10
58.7474958396
 20
-36.8234986105
 30
0.0
 10
58.5717043482
 20
-35.938529692
 30
0.0
 10
58.5701627134
 20
-35.5
 30
0.0
  0
SPLINE
  5
58D
100
AcDbEntity
  8
RACCORDO
100
AcDbSpline
 62
250
  6
CONTINUOUS
 70
0
 71
3
 72
15
 73
11
 74
0
 42
0.0000001
 43
0.0000001
 44
0.0000000001
 40
0.0
 40
0.0
 40
0.0
 40
0.0
 40
0.2500154055
 40
0.3750230901
 40
0.5000307099
 40
0.6250382818
 40
0.7500459469
 40
0.8750516262
 40
0.9375455457
 40
1.0
 40
1.0
 40
1.0
 40
1.0
 10
17.0049391593
 20
-39.9385388501
 30
0.0
 10
20.7647976712
 20
-39.9400709809
 30
0.0
 10
26.40458582
 20
-39.9400568342
 30
0.0
 10
33.9243020077
 20
-39.9405948937
 30
0.0
 10
39.5640864046
 20
-39.9403774614
 30
0.0
 10
45.2038721898
 20
-39.9393896182
 30
0.0
 10
50.8436216394
 20
-39.9359526981
 30
0.0
 10
55.5432760298
 20
-39.9282422314
 30
0.0
 10
59.3021403174
 20
-39.9057385847
 30
0.0
 10
61.1810756964
 20
-39.8807820715
 30
0.0
 10
62.12006035
 20
-39.8596751914
 30
0.0
  0
SPLINE
  5
58E
100
AcDbEntity
  8
RACCORDO
100
AcDbSpline
 62
250
  6
CONTINUOUS
 70
0
 71
3
 72
11
 73
7
 74
0
 42
0.0000001
 43
0.0000001
 44
0.0000000001
 40
0.0
 40
0.0
 40
0.0
 40
0.0
 40
0.2494600447
 40
0.4993794335
 40
0.7496099593
 40
1.0
 40
1.0
 40
1.0
 40
1.0
 10
57.5239713863
 20
-0.0000057416
 30
0.0
 10
57.2510785839
 20
0.0010793879
 30
0.0
 10
56.704782879
 20
-0.000340506
 30
0.0
 10
55.8847556121
 20
0.0028545931
 30
0.0
 10
55.0637106825
 20
0.0019297588
 30
0.0
 10
54.5160550245
 20
-0.0026021981
 30
0.0
 10
54.2421483527
 20
-0.0008428371
 30
0.0
  0
SPLINE
  5
58F
100
AcDbEntity
  8
SUPERFICI
100
AcDbSpline
 62
250
  6
CONTINUOUS
 70
0
 71
3
 72
9
 73
5
 74
0
 42
0.0000001
 43
0.0000001
 44
0.0000000001
 40
0.0
 40
0.0
 40
0.0
 40
0.0
 40
0.2483880675
 40
1.0
 40
1.0
 40
1.0
 40
1.0
 10
61.0701872726
 20
-0.0000011164
 30
0.0
 10
60.7765747019
 20
0.0000478405
 30
0.0
 10
59.5945029909
 20
-0.0005654294
 30
0.0
 10
58.4124297117
 20
-0.0013910389
 30
0.0
 10
57.5239713863
 20
-0.0000057416
 30
0.0
  0
SPLINE
  5
590
100
AcDbEntity
  8
SUPERFICI
100
AcDbSpline
 62
250
  6
CONTINUOUS
 70
0
 71
3
 72
9
 73
5
 74
0
 42
0.0000001
 43
0.0000001
 44
0.0000000001
 40
0.0
 40
0.0
 40
0.0
 40
0.0
 40
0.2471773433
 40
1.0
 40
1.0
 40
1.0
 40
1.0
 10
64.6539096487
 20
-0.0000000691
 30
0.0
 10
64.3586379924
 20
0.000037969
 30
0.0
 10
63.1640638749
 20
-0.0001159076
 30
0.0
 10
61.9694896675
 20
-0.0003614358
 30
0.0
 10
61.0701872726
 20
-0.0000011164
 30
0.0
  0
LINE
  5
591
100
AcDbEntity
  8
RACCORDO
100
AcDbLine
 62
250
  6
CONTINUOUS
 10
66.5283282739
 20
-0.0000095205
 11
64.6539096487
 21
-0.0000000691
  0
SPLINE
  5
592
100
AcDbEntity
  8
RACCORDO
100
AcDbSpline
 62
250
  6
CONTINUOUS
 70
0
 71
3
 72
13
 73
9
 74
0
 42
0.0000001
 43
0.0000001
 44
0.0000000001
 40
0.0
 40
0.0
 40
0.0
 40
0.0
 40
0.124944753
 40
0.2499518122
 40
0.3749595733
 40
0.4999672966
 40
0.7499834766
 40
1.0
 40
1.0
 40
1.0
 40
1.0
 10
66.3880516483
 20
-35.6315315353
 30
0.0
 10
66.4437700426
 20
-34.1485403653
 30
0.0
 10
66.4937497825
 20
-31.1796897998
 30
0.0
 10
66.5124944304
 20
-26.7262226887
 30
0.0
 10
66.5187511695
 20
-22.2718482828
 30
0.0
 10
66.5214913392
 20
-16.3327071964
 30
0.0
 10
66.5240161438
 20
-8.908754241
 30
0.0
 10
66.5268754254
 20
-2.9695928528
 30
0.0
 10
66.5283282739
 20
-0.0000095205
 30
0.0
  0
SPLINE
  5
593
100
AcDbEntity
  8
RACCORDO
100
AcDbSpline
 62
250
  6
CONTINUOUS
 70
0
 71
3
 72
14
 73
10
 74
0
 42
0.0000001
 43
0.0000001
 44
0.0000000001
 40
0.0
 40
0.0
 40
0.0
 40
0.0
 40
0.1250157121
 40
0.2501562097
 40
0.4995539716
 40
0.6247425221
 40
0.7499129342
 40
0.8750196575
 40
1.0
 40
1.0
 40
1.0
 40
1.0
 10
62.12006035
 20
-39.8596751914
 30
0.0
 10
62.3928587074
 20
-39.8535235306
 30
0.0
 10
62.9391783274
 20
-39.7808460574
 30
0.0
 10
63.9727949724
 20
-39.4157067039
 30
0.0
 10
64.8798955629
 20
-38.7630184033
 30
0.0
 10
65.5877436513
 20
-37.9290932725
 30
0.0
 10
66.0100437585
 20
-37.2215237418
 30
0.0
 10
66.2961956867
 20
-36.4489489862
 30
0.0
 10
66.3777798197
 20
-35.9041285849
 30
0.0
 10
66.3880516483
 20
-35.6315315353
 30
0.0
  0
SPLINE
  5
594
100
AcDbEntity
  8
RACCORDO
100
AcDbSpline
 62
250
  6
CONTINUOUS
 70
0
 71
3
 72
17
 73
13
 74
0
 42
0.0000001
 43
0.0000001
 44
0.0000000001
 40
0.0
 40
0.0
 40
0.0
 40
0.0
 40
0.2038578366
 40
0.3935739498
 40
0.5635851307
 40
0.7098038334
 40
0.8287128157
 40
0.9175721445
 40
0.9500305776
 40
0.9743707157
 40
0.9907359648
 40
1.0
 40
1.0
 40
1.0
 40
1.0
 10
-62.1200604284
 20
-39.8596755552
 30
0.0
 10
-62.1181504754
 20
-39.9584927446
 30
0.0
 10
-62.1134543706
 20
-40.1492538997
 30
0.0
 10
-62.1035000201
 20
-40.4223237089
 30
0.0
 10
-62.0910275444
 20
-40.667303834
 30
0.0
 10
-62.0765019959
 20
-40.8778114124
 30
0.0
 10
-62.0602867961
 20
-41.0486221613
 30
0.0
 10
-62.0448498669
 20
-41.1642600786
 30
0.0
 10
-62.0310838476
 20
-41.233392982
 30
0.0
 10
-62.0215232077
 20
-41.267905839
 30
0.0
 10
-62.0128243662
 20
-41.2899128262
 30
0.0
 10
-62.0043231321
 20
-41.3007451499
 30
0.0
 10
-61.9999948795
 20
-41.3019448731
 30
0.0
  0
SPLINE
  5
595
100
AcDbEntity
  8
RACCORDO
100
AcDbSpline
 62
250
  6
CONTINUOUS
 70
0
 71
3
 72
16
 73
12
 74
0
 42
0.0000001
 43
0.0000001
 44
0.0000000001
 40
0.0
 40
0.0
 40
0.0
 40
0.0
 40
0.2041117063
 40
0.3937509688
 40
0.5634940487
 40
0.7093694477
 40
0.8279710669
 40
0.916667227
 40
0.9735515828
 40
0.9901850927
 40
1.0
 40
1.0
 40
1.0
 40
1.0
 10
-66.3880528345
 20
-35.6315318012
 30
0.0
 10
-66.4851526928
 20
-35.6293541507
 30
0.0
 10
-66.6724476468
 20
-35.6240683214
 30
0.0
 10
-66.9403524426
 20
-35.6130097058
 30
0.0
 10
-67.1804190757
 20
-35.5992770483
 30
0.0
 10
-67.3863648817
 20
-35.5833329516
 30
0.0
 10
-67.5537248556
 20
-35.5656694552
 30
0.0
 10
-67.677604443
 20
-35.5469835169
 30
0.0
 10
-67.7538376911
 20
-35.5294609814
 30
0.0
 10
-67.7896530711
 20
-35.5138012207
 30
0.0
 10
-67.7999071203
 20
-35.50452916
 30
0.0
 10
-67.8010466666
 20
-35.5000000026
 30
0.0
  0
SPLINE
  5
596
100
AcDbEntity
  8
RACCORDO
100
AcDbSpline
 62
250
  6
CONTINUOUS
 70
0
 71
3
 72
16
 73
12
 74
0
 42
0.0000001
 43
0.0000001
 44
0.0000000001
 40
0.0
 40
0.0
 40
0.0
 40
0.0
 40
0.2041100707
 40
0.3937481814
 40
0.5634906595
 40
0.7093659971
 40
0.827968055
 40
0.9166650603
 40
0.9735505433
 40
0.9901846456
 40
1.0
 40
1.0
 40
1.0
 40
1.0
 10
-66.3880517756
 20
35.6315315639
 30
0.0
 10
-66.4851523771
 20
35.6293540426
 30
0.0
 10
-66.6724489408
 20
35.6240684439
 30
0.0
 10
-66.9403563296
 20
35.6130101076
 30
0.0
 10
-67.1804258725
 20
35.5992776419
 30
0.0
 10
-67.386374819
 20
35.5833336199
 30
0.0
 10
-67.5537380145
 20
35.5656701291
 30
0.0
 10
-67.6776207297
 20
35.5469839839
 30
0.0
 10
-67.7538564269
 20
35.5294613792
 30
0.0
 10
-67.7896734775
 20
35.5138012865
 30
0.0
 10
-67.799928404
 20
35.5045293376
 30
0.0
 10
-67.8010684221
 20
35.5000000043
 30
0.0
  0
SPLINE
  5
597
100
AcDbEntity
  8
RACCORDO
100
AcDbSpline
 62
250
  6
CONTINUOUS
 70
0
 71
3
 72
17
 73
13
 74
0
 42
0.0000001
 43
0.0000001
 44
0.0000000001
 40
0.0
 40
0.0
 40
0.0
 40
0.0
 40
0.2038602962
 40
0.3935781241
 40
0.5635901767
 40
0.7098089318
 40
0.8287172217
 40
0.917575273
 40
0.9500329106
 40
0.974372194
 40
0.9907365914
 40
1.0
 40
1.0
 40
1.0
 40
1.0
 10
-62.1200606238
 20
39.8596764631
 30
0.0
 10
-62.1181505264
 20
39.9584923496
 30
0.0
 10
-62.1134541489
 20
40.1492507092
 30
0.0
 10
-62.1034994161
 20
40.4223160581
 30
0.0
 10
-62.091026629
 20
40.6672912546
 30
0.0
 10
-62.0765008547
 20
40.8777935992
 30
0.0
 10
-62.0602855627
 20
41.048599056
 30
0.0
 10
-62.0448485848
 20
41.1642326601
 30
0.0
 10
-62.0310826621
 20
41.2333623149
 30
0.0
 10
-62.0215220048
 20
41.2678730012
 30
0.0
 10
-62.0128235022
 20
41.2898782103
 30
0.0
 10
-62.0043219692
 20
41.3007092394
 30
0.0
 10
-61.999993948
 20
41.3019082361
 30
0.0
  0
LINE
  5
598
100
AcDbEntity
  8
RACCORDO
100
AcDbLine
 62
250
  6
CONTINUOUS
 10
-17.0050070024
 20
39.938538751
 11
-17.0014469586
 21
41.2986541989
  0
LINE
  5
599
100
AcDbEntity
  8
RACCORDO
100
AcDbLine
 62
250
  6
CONTINUOUS
 10
17.0050070024
 20
39.938538751
 11
17.0018587967
 21
41.2986541908
  0
SPLINE
  5
59A
100
AcDbEntity
  8
RACCORDO
100
AcDbSpline
 62
250
  6
CONTINUOUS
 70
0
 71
3
 72
17
 73
13
 74
0
 42
0.0000001
 43
0.0000001
 44
0.0000000001
 40
0.0
 40
0.0
 40
0.0
 40
0.0
 40
0.2038577984
 40
0.3935738824
 40
0.5635850454
 40
0.7098037424
 40
0.8287127315
 40
0.9175720793
 40
0.9500305263
 40
0.9743706809
 40
0.9907359483
 40
1.0
 40
1.0
 40
1.0
 40
1.0
 10
62.1200603986
 20
39.859675417
 30
0.0
 10
62.1181504536
 20
39.9584925968
 30
0.0
 10
62.1134543624
 20
40.1492537365
 30
0.0
 10
62.1035000273
 20
40.4223235292
 30
0.0
 10
62.0910275613
 20
40.667303651
 30
0.0
 10
62.0765020173
 20
40.8778112402
 30
0.0
 10
62.0602868168
 20
41.0486220143
 30
0.0
 10
62.0448498849
 20
41.1642599607
 30
0.0
 10
62.0310838599
 20
41.2333928944
 30
0.0
 10
62.021523218
 20
41.2679057774
 30
0.0
 10
62.0128243663
 20
41.2899127922
 30
0.0
 10
62.0043231366
 20
41.3007451349
 30
0.0
 10
61.9999948795
 20
41.3019448731
 30
0.0
  0
SPLINE
  5
59B
100
AcDbEntity
  8
RACCORDO
100
AcDbSpline
 62
250
  6
CONTINUOUS
 70
0
 71
3
 72
16
 73
12
 74
0
 42
0.0000001
 43
0.0000001
 44
0.0000000001
 40
0.0
 40
0.0
 40
0.0
 40
0.0
 40
0.2041117063
 40
0.3937509688
 40
0.5634940487
 40
0.7093694477
 40
0.8279710669
 40
0.916667227
 40
0.9735515828
 40
0.9901850927
 40
1.0
 40
1.0
 40
1.0
 40
1.0
 10
66.3880528345
 20
35.6315318012
 30
0.0
 10
66.4851526928
 20
35.6293541506
 30
0.0
 10
66.6724476468
 20
35.6240683214
 30
0.0
 10
66.9403524426
 20
35.6130097058
 30
0.0
 10
67.1804190757
 20
35.5992770483
 30
0.0
 10
67.3863648817
 20
35.5833329516
 30
0.0
 10
67.5537248555
 20
35.5656694552
 30
0.0
 10
67.677604443
 20
35.5469835169
 30
0.0
 10
67.753837691
 20
35.5294609814
 30
0.0
 10
67.789653071
 20
35.5138012207
 30
0.0
 10
67.7999071203
 20
35.50452916
 30
0.0
 10
67.8010466665
 20
35.5000000026
 30
0.0
  0
SPLINE
  5
59C
100
AcDbEntity
  8
RACCORDO
100
AcDbSpline
 62
250
  6
CONTINUOUS
 70
0
 71
3
 72
16
 73
12
 74
0
 42
0.0000001
 43
0.0000001
 44
0.0000000001
 40
0.0
 40
0.0
 40
0.0
 40
0.0
 40
0.2041100474
 40
0.3937481425
 40
0.5634906136
 40
0.7093659526
 40
0.8279680191
 40
0.9166650386
 40
0.973550538
 40
0.9901846466
 40
1.0
 40
1.0
 40
1.0
 40
1.0
 10
66.3880516563
 20
-35.6315315371
 30
0.0
 10
66.4851522513
 20
-35.6293539977
 30
0.0
 10
66.6724488054
 20
-35.6240683691
 30
0.0
 10
66.9403561849
 20
-35.6130100045
 30
0.0
 10
67.1804257296
 20
-35.5992775269
 30
0.0
 10
67.3863746882
 20
-35.5833335069
 30
0.0
 10
67.5537379057
 20
-35.5656700306
 30
0.0
 10
67.6776206484
 20
-35.5469839066
 30
0.0
 10
67.7538563751
 20
-35.5294613307
 30
0.0
 10
67.7896734466
 20
-35.5138012626
 30
0.0
 10
67.7999283937
 20
-35.5045293347
 30
0.0
 10
67.8010684221
 20
-35.5000000043
 30
0.0
  0
SPLINE
  5
59D
100
AcDbEntity
  8
0
100
AcDbSpline
 62
7
  6
CONTINUOUS
 70
0
 71
3
 72
15
 73
11
 74
0
 42
0.0000001
 43
0.0000001
 44
0.0000000001
 40
0.0
 40
0.0
 40
0.0
 40
0.0
 40
0.1255958944
 40
0.2497533117
 40
0.3730648313
 40
0.4969983027
 40
0.6224884219
 40
0.7490287431
 40
0.8751812668
 40
1.0
 40
1.0
 40
1.0
 40
1.0
 10
65.4133756841
 20
35.5
 30
0.0
 10
65.4140481972
 20
35.0520746774
 30
0.0
 10
65.2360146639
 20
34.1512159582
 30
0.0
 10
64.4788405112
 20
33.0175956364
 30
0.0
 10
63.353275562
 20
32.2571577289
 30
0.0
 10
62.0184293477
 20
31.9795913671
 30
0.0
 10
60.6663311113
 20
32.2360574808
 30
0.0
 10
59.5113634715
 20
33.000919924
 30
0.0
 10
58.7446075015
 20
34.1493929939
 30
0.0
 10
58.5685978003
 20
35.0548485948
 30
0.0
 10
58.5701627134
 20
35.5
 30
0.0
  0
SPLINE
  5
59E
100
AcDbEntity
  8
0
100
AcDbSpline
 62
7
  6
CONTINUOUS
 70
0
 71
3
 72
15
 73
11
 74
0
 42
0.0000001
 43
0.0000001
 44
0.0000000001
 40
0.0
 40
0.0
 40
0.0
 40
0.0
 40
0.1233915171
 40
0.2465554283
 40
0.3706846626
 40
0.4960991406
 40
0.6221525846
 40
0.7482208097
 40
0.8741978285
 40
1.0
 40
1.0
 40
1.0
 40
1.0
 10
58.5701627134
 20
35.5
 30
0.0
 10
58.5717044623
 20
35.9385621592
 30
0.0
 10
58.7475107004
 20
36.8236138543
 30
0.0
 10
59.4915398673
 20
37.9491604192
 30
0.0
 10
60.612464736
 20
38.7170182839
 30
0.0
 10
61.9522902732
 20
39.0017239419
 30
0.0
 10
63.3062049599
 20
38.7492284813
 30
0.0
 10
64.4598269528
 20
37.9923395791
 30
0.0
 10
65.2314774232
 20
36.8516761684
 30
0.0
 10
65.4127043615
 20
35.9471324448
 30
0.0
 10
65.4133756841
 20
35.5
 30
0.0
  0
SPLINE
  5
59F
100
AcDbEntity
  8
RACCORDO
100
AcDbSpline
 62
250
  6
CONTINUOUS
 70
0
 71
3
 72
14
 73
10
 74
0
 42
0.0000001
 43
0.0000001
 44
0.0000000001
 40
0.0
 40
0.0
 40
0.0
 40
0.0
 40
0.1249803424
 40
0.2500870695
 40
0.3752574796
 40
0.5004460292
 40
0.7498438002
 40
0.8749842897
 40
1.0
 40
1.0
 40
1.0
 40
1.0
 10
66.3880516483
 20
35.6315315353
 30
0.0
 10
66.3777796271
 20
35.9041285781
 30
0.0
 10
66.2961961077
 20
36.448949079
 30
0.0
 10
66.0100434691
 20
37.2215236109
 30
0.0
 10
65.587743807
 20
37.9290933919
 30
0.0
 10
64.8798953933
 20
38.7630181922
 30
0.0
 10
63.9727953352
 20
39.4157077067
 30
0.0
 10
62.9391781462
 20
39.7808450562
 30
0.0
 10
62.392858717
 20
39.8535241
 30
0.0
 10
62.12006035
 20
39.8596751914
 30
0.0
  0
SPLINE
  5
5A0
100
AcDbEntity
  8
RACCORDO
100
AcDbSpline
 62
250
  6
CONTINUOUS
 70
0
 71
3
 72
13
 73
9
 74
0
 42
0.0000001
 43
0.0000001
 44
0.0000000001
 40
0.0
 40
0.0
 40
0.0
 40
0.0
 40
0.2500164646
 40
0.5000325856
 40
0.6250402792
 40
0.7500480119
 40
0.8750550635
 40
1.0
 40
1.0
 40
1.0
 40
1.0
 10
66.5283282803
 20
-0.0000095209
 30
0.0
 10
66.5268754669
 20
2.9695747011
 30
0.0
 10
66.5240216301
 20
8.9087378683
 30
0.0
 10
66.5214865777
 20
16.3326930386
 30
0.0
 10
66.518740601
 20
22.2718359041
 30
0.0
 10
66.5124943837
 20
26.7262119218
 30
0.0
 10
66.4937527011
 20
31.1796832008
 30
0.0
 10
66.4437708484
 20
34.1485374212
 30
0.0
 10
66.3880516483
 20
35.6315315353
 30
0.0
  0
SPLINE
  5
5A1
100
AcDbEntity
  8
RACCORDO
100
AcDbSpline
 62
250
  6
CONTINUOUS
 70
0
 71
3
 72
15
 73
11
 74
0
 42
0.0000001
 43
0.0000001
 44
0.0000000001
 40
0.0
 40
0.0
 40
0.0
 40
0.0
 40
0.0624544578
 40
0.1249483774
 40
0.2499540547
 40
0.374961719
 40
0.4999692907
 40
0.6249769103
 40
0.7499845948
 40
1.0
 40
1.0
 40
1.0
 40
1.0
 10
62.12006035
 20
39.8596751914
 30
0.0
 10
61.1810756439
 20
39.880782076
 30
0.0
 10
59.3021402106
 20
39.9057384305
 30
0.0
 10
55.5432759056
 20
39.9282432427
 30
0.0
 10
50.8436215509
 20
39.9359518436
 30
0.0
 10
45.2038721491
 20
39.9393922117
 30
0.0
 10
39.5640863787
 20
39.940376154
 30
0.0
 10
33.9243019884
 20
39.9405952129
 30
0.0
 10
26.4045858087
 20
39.9400566272
 30
0.0
 10
20.7647976666
 20
39.9400710461
 30
0.0
 10
17.0049391593
 20
39.9385388501
 30
0.0
  0
SPLINE
  5
5A2
100
AcDbEntity
  8
RACCORDO
100
AcDbSpline
 62
250
  6
CONTINUOUS
 70
0
 71
3
 72
10
 73
6
 74
0
 42
0.0000001
 43
0.0000001
 44
0.0000000001
 40
0.0
 40
0.0
 40
0.0
 40
0.0
 40
0.2499168313
 40
0.5000595267
 40
1.0
 40
1.0
 40
1.0
 40
1.0
 10
3.6017882098
 20
-24.9022897219
 30
0.0
 10
3.614380924
 20
-24.9197829627
 30
0.0
 10
3.643033911
 20
-24.952153669
 30
0.0
 10
3.6997981063
 20
-25.0170254125
 30
0.0
 10
3.740380917
 20
-25.0674630562
 30
0.0
 10
3.7686914333
 20
-25.0999848749
 30
0.0
  0
SPLINE
  5
5A3
100
AcDbEntity
  8
RACCORDO
100
AcDbSpline
 62
250
  6
CONTINUOUS
 70
0
 71
3
 72
10
 73
6
 74
0
 42
0.0000001
 43
0.0000001
 44
0.0000000001
 40
0.0
 40
0.0
 40
0.0
 40
0.0
 40
0.2499134126
 40
0.5000616422
 40
1.0
 40
1.0
 40
1.0
 40
1.0
 10
3.6016848753
 20
24.9022100476
 30
0.0
 10
3.6142601058
 20
24.9197286162
 30
0.0
 10
3.642955606
 20
24.9520961699
 30
0.0
 10
3.6997788267
 20
25.0169704533
 30
0.0
 10
3.7403489786
 20
25.0674628548
 30
0.0
 10
3.7686914381
 20
25.0999848769
 30
0.0
  0
SPLINE
  5
5A4
100
AcDbEntity
  8
RACCORDO
100
AcDbSpline
 62
250
  6
CONTINUOUS
 70
0
 71
3
 72
10
 73
6
 74
0
 42
0.0000001
 43
0.0000001
 44
0.0000000001
 40
0.0
 40
0.0
 40
0.0
 40
0.0
 40
0.2499157861
 40
0.500060253
 40
1.0
 40
1.0
 40
1.0
 40
1.0
 10
-3.60176142
 20
24.9022644496
 30
0.0
 10
-3.6143478056
 20
24.9197659013
 30
0.0
 10
-3.6430116539
 20
24.9521370043
 30
0.0
 10
-3.6997915843
 20
25.0170104698
 30
0.0
 10
-3.7403735543
 20
25.0674614381
 30
0.0
 10
-3.7686914349
 20
25.0999848757
 30
0.0
  0
SPLINE
  5
5A5
100
AcDbEntity
  8
RACCORDO
100
AcDbSpline
 62
250
  6
CONTINUOUS
 70
0
 71
3
 72
10
 73
6
 74
0
 42
0.0000001
 43
0.0000001
 44
0.0000000001
 40
0.0
 40
0.0
 40
0.0
 40
0.0
 40
0.2499141154
 40
0.5000611701
 40
1.0
 40
1.0
 40
1.0
 40
1.0
 10
-3.6017029377
 20
-24.9022270868
 30
0.0
 10
-3.6142823604
 20
-24.9197401792
 30
0.0
 10
-3.6429713201
 20
-24.9521067938
 30
0.0
 10
-3.6997806168
 20
-25.0169827897
 30
0.0
 10
-3.7403602549
 20
-25.06745845
 30
0.0
 10
-3.7686914369
 20
-25.0999848761
 30
0.0
  0
SPLINE
  5
5A6
100
AcDbEntity
  8
RACCORDO
100
AcDbSpline
 62
250
  6
CONTINUOUS
 70
0
 71
3
 72
9
 73
5
 74
0
 42
0.0000001
 43
0.0000001
 44
0.0000000001
 40
0.0
 40
0.0
 40
0.0
 40
0.0
 40
0.5000794257
 40
1.0
 40
1.0
 40
1.0
 40
1.0
 10
-6.15
 20
24.0999988235
 30
0.0
 10
-5.9099729417
 20
24.1000508576
 30
0.0
 10
-5.4255610054
 20
24.0070296967
 30
0.0
 10
-5.0108689873
 20
23.741143961
 30
0.0
 10
-4.8357269495
 20
23.5771266997
 30
0.0
  0
SPLINE
  5
5A7
100
AcDbEntity
  8
RACCORDO
100
AcDbSpline
 62
250
  6
CONTINUOUS
 70
0
 71
3
 72
11
 73
7
 74
0
 42
0.0000001
 43
0.0000001
 44
0.0000000001
 40
0.0
 40
0.0
 40
0.0
 40
0.0
 40
0.2499994096
 40
0.4999996073
 40
0.7499998035
 40
1.0
 40
1.0
 40
1.0
 40
1.0
 10
-50.5477262916
 20
25.8883190936
 30
0.0
 10
-47.7516907924
 20
25.9122381858
 30
0.0
 10
-42.1592964028
 20
25.9106473334
 30
0.0
 10
-33.7709123832
 20
25.9035750165
 30
0.0
 10
-25.3824610858
 20
25.8999909753
 30
0.0
 10
-19.7901703688
 20
25.8994315268
 30
0.0
 10
-16.9940238113
 20
25.8999680483
 30
0.0
  0
SPLINE
  5
5A8
100
AcDbEntity
  8
RACCORDO
100
AcDbSpline
 62
250
  6
CONTINUOUS
 70
0
 71
3
 72
11
 73
7
 74
0
 42
0.0000001
 43
0.0000001
 44
0.0000000001
 40
0.0
 40
0.0
 40
0.0
 40
0.0
 40
0.2498092732
 40
0.4996487428
 40
0.7496816801
 40
1.0
 40
1.0
 40
1.0
 40
1.0
 10
-54.2349474216
 20
22.19731196
 30
0.0
 10
-54.2303102175
 20
22.676549153
 30
0.0
 10
-54.0409320117
 20
23.6439946967
 30
0.0
 10
-53.2260082953
 20
24.8743297159
 30
0.0
 10
-51.996690407
 20
25.6918382652
 30
0.0
 10
-51.0279466546
 20
25.884413095
 30
0.0
 10
-50.547726305
 20
25.8883191505
 30
0.0
  0
SPLINE
  5
5A9
100
AcDbEntity
  8
RACCORDO
100
AcDbSpline
 62
250
  6
CONTINUOUS
 70
0
 71
3
 72
11
 73
7
 74
0
 42
0.0000001
 43
0.0000001
 44
0.0000000001
 40
0.0
 40
0.0
 40
0.0
 40
0.0
 40
0.2500002727
 40
0.500000546
 40
0.750000817
 40
1.0
 40
1.0
 40
1.0
 40
1.0
 10
-54.2421454391
 20
-0.0077578881
 30
0.0
 10
-54.2441157897
 20
1.8426690113
 30
0.0
 10
-54.2448958216
 20
5.543523713
 30
0.0
 10
-54.249031247
 20
11.0948135524
 30
0.0
 10
-54.2576517193
 20
16.6460567027
 30
0.0
 10
-54.2527506026
 20
20.3469777232
 30
0.0
 10
-54.2349474212
 20
22.1973119599
 30
0.0
  0
SPLINE
  5
5AA
100
AcDbEntity
  8
0
100
AcDbSpline
 62
7
  6
CONTINUOUS
 70
0
 71
3
 72
15
 73
11
 74
0
 42
0.0000001
 43
0.0000001
 44
0.0000000001
 40
0.0
 40
0.0
 40
0.0
 40
0.0
 40
0.1255958941
 40
0.2497533113
 40
0.3730648308
 40
0.4969983022
 40
0.6224884215
 40
0.749028743
 40
0.8751812668
 40
1.0
 40
1.0
 40
1.0
 40
1.0
 10
-65.4133756841
 20
-35.5
 30
0.0
 10
-65.4140481972
 20
-35.0520746784
 30
0.0
 10
-65.2360146647
 20
-34.1512159607
 30
0.0
 10
-64.4788405143
 20
-33.0175956399
 30
0.0
 10
-63.3532755671
 20
-32.2571577308
 30
0.0
 10
-62.0184293529
 20
-31.9795913679
 30
0.0
 10
-60.6663311145
 20
-32.2360574784
 30
0.0
 10
-59.5113634729
 20
-33.0009199225
 30
0.0
 10
-58.7446075017
 20
-34.1493929931
 30
0.0
 10
-58.5685978003
 20
-35.0548485946
 30
0.0
 10
-58.5701627134
 20
-35.5
 30
0.0
  0
SPLINE
  5
5AB
100
AcDbEntity
  8
0
100
AcDbSpline
 62
7
  6
CONTINUOUS
 70
0
 71
3
 72
15
 73
11
 74
0
 42
0.0000001
 43
0.0000001
 44
0.0000000001
 40
0.0
 40
0.0
 40
0.0
 40
0.0
 40
0.1233915171
 40
0.2465554282
 40
0.3706846625
 40
0.4960991405
 40
0.6221525846
 40
0.7482208096
 40
0.8741978285
 40
1.0
 40
1.0
 40
1.0
 40
1.0
 10
-58.5701627134
 20
-35.5
 30
0.0
 10
-58.5717044623
 20
-35.9385621592
 30
0.0
 10
-58.7475107004
 20
-36.823613854
 30
0.0
 10
-59.491539867
 20
-37.9491604189
 30
0.0
 10
-60.6124647356
 20
-38.7170182837
 30
0.0
 10
-61.9522902728
 20
-39.0017239419
 30
0.0
 10
-63.3062049597
 20
-38.7492284814
 30
0.0
 10
-64.4598269527
 20
-37.9923395792
 30
0.0
 10
-65.2314774231
 20
-36.8516761685
 30
0.0
 10
-65.4127043615
 20
-35.9471324448
 30
0.0
 10
-65.4133756841
 20
-35.5
 30
0.0
  0
SPLINE
  5
5AC
100
AcDbEntity
  8
RACCORDO
100
AcDbSpline
 62
250
  6
CONTINUOUS
 70
0
 71
3
 72
13
 73
9
 74
0
 42
0.0000001
 43
0.0000001
 44
0.0000000001
 40
0.0
 40
0.0
 40
0.0
 40
0.0
 40
0.2500165246
 40
0.5000327057
 40
0.6250404296
 40
0.7500481913
 40
0.8750552504
 40
1.0
 40
1.0
 40
1.0
 40
1.0
 10
-66.5283282745
 20
-0.0000095205
 30
0.0
 10
-66.5268754311
 20
-2.9695928674
 30
0.0
 10
-66.5240162005
 20
-8.9087542838
 30
0.0
 10
-66.5214920868
 20
-16.3327072755
 30
0.0
 10
-66.5187490802
 20
-22.2718483866
 30
0.0
 10
-66.5124965502
 20
-26.7262228147
 30
0.0
 10
-66.4937494463
 20
-31.1796898845
 30
0.0
 10
-66.4437700238
 20
-34.1485404055
 30
0.0
 10
-66.3880516483
 20
-35.6315315353
 30
0.0
  0
LINE
  5
5AD
100
AcDbEntity
  8
RACCORDO
100
AcDbLine
 62
250
  6
CONTINUOUS
 10
-66.5283282745
 20
-0.0000095205
 11
-64.6539096487
 21
-0.0000000691
  0
SPLINE
  5
5AE
100
AcDbEntity
  8
SUPERFICI
100
AcDbSpline
 62
250
  6
CONTINUOUS
 70
0
 71
3
 72
9
 73
5
 74
0
 42
0.0000001
 43
0.0000001
 44
0.0000000001
 40
0.0
 40
0.0
 40
0.0
 40
0.0
 40
0.2471773433
 40
1.0
 40
1.0
 40
1.0
 40
1.0
 10
-64.6539096487
 20
-0.0000000691
 30
0.0
 10
-64.3586379924
 20
0.000037969
 30
0.0
 10
-63.1640638749
 20
-0.0001159076
 30
0.0
 10
-61.9694896675
 20
-0.0003614358
 30
0.0
 10
-61.0701872726
 20
-0.0000011164
 30
0.0
  0
SPLINE
  5
5AF
100
AcDbEntity
  8
SUPERFICI
100
AcDbSpline
 62
250
  6
CONTINUOUS
 70
0
 71
3
 72
9
 73
5
 74
0
 42
0.0000001
 43
0.0000001
 44
0.0000000001
 40
0.0
 40
0.0
 40
0.0
 40
0.0
 40
0.2483880675
 40
1.0
 40
1.0
 40
1.0
 40
1.0
 10
-61.0701872726
 20
-0.0000011164
 30
0.0
 10
-60.7765747019
 20
0.0000478405
 30
0.0
 10
-59.5945029909
 20
-0.0005654294
 30
0.0
 10
-58.4124297117
 20
-0.0013910389
 30
0.0
 10
-57.5239713863
 20
-0.0000057416
 30
0.0
  0
SPLINE
  5
5B0
100
AcDbEntity
  8
RACCORDO
100
AcDbSpline
 62
250
  6
CONTINUOUS
 70
0
 71
3
 72
11
 73
7
 74
0
 42
0.0000001
 43
0.0000001
 44
0.0000000001
 40
0.0
 40
0.0
 40
0.0
 40
0.0
 40
0.2494600447
 40
0.4993794335
 40
0.7496099593
 40
1.0
 40
1.0
 40
1.0
 40
1.0
 10
-57.5239713863
 20
-0.0000057416
 30
0.0
 10
-57.2510785838
 20
0.0010793879
 30
0.0
 10
-56.7047828786
 20
-0.000340506
 30
0.0
 10
-55.8847556114
 20
0.0028545931
 30
0.0
 10
-55.0637106815
 20
0.0019297587
 30
0.0
 10
-54.5160550233
 20
-0.0026021981
 30
0.0
 10
-54.2421483513
 20
-0.0008428371
 30
0.0
  0
SPLINE
  5
5B1
100
AcDbEntity
  8
RACCORDO
100
AcDbSpline
 62
250
  6
CONTINUOUS
 70
0
 71
3
 72
15
 73
11
 74
0
 42
0.0000001
 43
0.0000001
 44
0.0000000001
 40
0.0
 40
0.0
 40
0.0
 40
0.0
 40
0.0624545349
 40
0.1249484701
 40
0.2499541401
 40
0.3749617906
 40
0.4999693481
 40
0.6249769533
 40
0.7499846235
 40
1.0
 40
1.0
 40
1.0
 40
1.0
 10
-62.12006035
 20
-39.8596751914
 30
0.0
 10
-61.1810744663
 20
-39.8807812642
 30
0.0
 10
-59.3021376296
 20
-39.9057361889
 30
0.0
 10
-55.5432720624
 20
-39.9282439884
 30
0.0
 10
-50.8436177846
 20
-39.9359529837
 30
0.0
 10
-45.2038689166
 20
-39.9393915751
 30
0.0
 10
-39.5640837856
 20
-39.9403780918
 30
0.0
 10
-33.9243000428
 20
-39.9405946017
 30
0.0
 10
-26.4045847285
 20
-39.9400570033
 30
0.0
 10
-20.7647972345
 20
-39.9400710195
 30
0.0
 10
-17.0049391593
 20
-39.9385388501
 30
0.0
  0
SPLINE
  5
5B2
100
AcDbEntity
  8
RACCORDO
100
AcDbSpline
 62
250
  6
CONTINUOUS
 70
0
 71
3
 72
14
 73
10
 74
0
 42
0.0000001
 43
0.0000001
 44
0.0000000001
 40
0.0
 40
0.0
 40
0.0
 40
0.0
 40
0.1249803421
 40
0.2500870687
 40
0.3752574783
 40
0.5004460276
 40
0.7498437988
 40
0.8749842891
 40
1.0
 40
1.0
 40
1.0
 40
1.0
 10
-66.3880516483
 20
-35.6315315353
 30
0.0
 10
-66.3777796273
 20
-35.9041285773
 30
0.0
 10
-66.2961961081
 20
-36.4489490765
 30
0.0
 10
-66.010043471
 20
-37.2215236059
 30
0.0
 10
-65.587743812
 20
-37.9290933857
 30
0.0
 10
-64.8798954005
 20
-38.763018186
 30
0.0
 10
-63.9727953427
 20
-39.4157077038
 30
0.0
 10
-62.9391781505
 20
-39.7808450551
 30
0.0
 10
-62.3928587182
 20
-39.8535240999
 30
0.0
 10
-62.12006035
 20
-39.8596751914
 30
0.0
  0
SPLINE
  5
5B3
100
AcDbEntity
  8
0
100
AcDbSpline
 62
7
  6
CONTINUOUS
 70
0
 71
3
 72
15
 73
11
 74
0
 42
0.0000001
 43
0.0000001
 44
0.0000000001
 40
0.0
 40
0.0
 40
0.0
 40
0.0
 40
0.1247706018
 40
0.2508728069
 40
0.3773557946
 40
0.5027964076
 40
0.6267377278
 40
0.7501010175
 40
0.8743251354
 40
1.0
 40
1.0
 40
1.0
 40
1.0
 10
-58.5701627134
 20
35.5
 30
0.0
 10
-58.5685984043
 20
35.0550204105
 30
0.0
 10
-58.7444666608
 20
34.1499291697
 30
0.0
 10
-59.5106207285
 20
33.0017695579
 30
0.0
 10
-60.6647791505
 20
32.2367995585
 30
0.0
 10
-62.0163361134
 20
31.9795843438
 30
0.0
 10
-63.3513986041
 20
32.2563364624
 30
0.0
 10
-64.4777857417
 20
33.0164221062
 30
0.0
 10
-65.2358054708
 20
34.1503931126
 30
0.0
 10
-65.4140486198
 20
35.0517931998
 30
0.0
 10
-65.4133756841
 20
35.5
 30
0.0
  0
SPLINE
  5
5B4
100
AcDbEntity
  8
0
100
AcDbSpline
 62
7
  6
CONTINUOUS
 70
0
 71
3
 72
15
 73
11
 74
0
 42
0.0000001
 43
0.0000001
 44
0.0000000001
 40
0.0
 40
0.0
 40
0.0
 40
0.0
 40
0.1258176833
 40
0.2518104581
 40
0.3778975816
 40
0.5039637864
 40
0.6293583413
 40
0.753464875
 40
0.8766176599
 40
1.0
 40
1.0
 40
1.0
 40
1.0
 10
-65.4133756841
 20
35.5
 30
0.0
 10
-65.4127042785
 20
35.9471877303
 30
0.0
 10
-65.2314282749
 20
36.8518439258
 30
0.0
 10
-64.4595901839
 20
37.9926186733
 30
0.0
 10
-63.3057062887
 20
38.7494281296
 30
0.0
 10
-61.9517001648
 20
39.0017610348
 30
0.0
 10
-60.6120618343
 20
38.7167637334
 30
0.0
 10
-59.491345106
 20
37.9489808062
 30
0.0
 10
-58.7474958395
 20
36.8234986104
 30
0.0
 10
-58.5717043482
 20
35.938529692
 30
0.0
 10
-58.5701627134
 20
35.5
 30
0.0
  0
SPLINE
  5
5B5
100
AcDbEntity
  8
RACCORDO
100
AcDbSpline
 62
250
  6
CONTINUOUS
 70
0
 71
3
 72
15
 73
11
 74
0
 42
0.0000001
 43
0.0000001
 44
0.0000000001
 40
0.0
 40
0.0
 40
0.0
 40
0.0
 40
0.2500154055
 40
0.3750230901
 40
0.5000307099
 40
0.6250382818
 40
0.7500459469
 40
0.8750516262
 40
0.9375455457
 40
1.0
 40
1.0
 40
1.0
 40
1.0
 10
-17.0049391593
 20
39.9385388501
 30
0.0
 10
-20.7647976712
 20
39.9400709809
 30
0.0
 10
-26.40458582
 20
39.9400568342
 30
0.0
 10
-33.9243020077
 20
39.9405948937
 30
0.0
 10
-39.5640864046
 20
39.9403774614
 30
0.0
 10
-45.2038721898
 20
39.9393896182
 30
0.0
 10
-50.8436216394
 20
39.935952698
 30
0.0
 10
-55.5432760297
 20
39.9282422317
 30
0.0
 10
-59.3021403174
 20
39.9057385846
 30
0.0
 10
-61.1810756963
 20
39.8807820716
 30
0.0
 10
-62.12006035
 20
39.8596751914
 30
0.0
  0
SPLINE
  5
5B6
100
AcDbEntity
  8
RACCORDO
100
AcDbSpline
 62
250
  6
CONTINUOUS
 70
0
 71
3
 72
13
 73
9
 74
0
 42
0.0000001
 43
0.0000001
 44
0.0000000001
 40
0.0
 40
0.0
 40
0.0
 40
0.0
 40
0.1249449415
 40
0.2499519933
 40
0.3749597253
 40
0.499967418
 40
0.7499835372
 40
1.0
 40
1.0
 40
1.0
 40
1.0
 10
-66.3880516483
 20
35.6315315353
 30
0.0
 10
-66.4437708324
 20
34.1485373608
 30
0.0
 10
-66.4937516004
 20
31.1796830693
 30
0.0
 10
-66.5124969611
 20
26.7262117543
 30
0.0
 10
-66.5187380218
 20
22.2718357427
 30
0.0
 10
-66.5214894575
 20
16.3326929231
 30
0.0
 10
-66.5240192509
 20
8.9087378027
 30
0.0
 10
-66.5268754629
 20
2.9695746795
 30
0.0
 10
-66.5283282797
 20
-0.0000095209
 30
0.0
  0
SPLINE
  5
5B7
100
AcDbEntity
  8
RACCORDO
100
AcDbSpline
 62
250
  6
CONTINUOUS
 70
0
 71
3
 72
14
 73
10
 74
0
 42
0.0000001
 43
0.0000001
 44
0.0000000001
 40
0.0
 40
0.0
 40
0.0
 40
0.0
 40
0.1250157116
 40
0.2501562083
 40
0.4995539701
 40
0.6247425208
 40
0.7499129334
 40
0.8750196571
 40
1.0
 40
1.0
 40
1.0
 40
1.0
 10
-62.12006035
 20
39.8596751914
 30
0.0
 10
-62.3928587062
 20
39.8535235307
 30
0.0
 10
-62.9391783231
 20
39.7808460586
 30
0.0
 10
-63.9727949649
 20
39.4157067068
 30
0.0
 10
-64.8798955557
 20
38.7630184094
 30
0.0
 10
-65.5877436463
 20
37.9290932787
 30
0.0
 10
-66.0100437567
 20
37.2215237469
 30
0.0
 10
-66.2961956863
 20
36.4489489888
 30
0.0
 10
-66.3777798196
 20
35.9041285857
 30
0.0
 10
-66.3880516483
 20
35.6315315353
 30
0.0
  0
SPLINE
  5
5B8
100
AcDbEntity
  8
RACCORDO
100
AcDbSpline
 62
250
  6
CONTINUOUS
 70
0
 71
3
 72
10
 73
6
 74
0
 42
0.0000001
 43
0.0000001
 44
0.0000000001
 40
0.0
 40
0.0
 40
0.0
 40
0.0
 40
0.5000378511
 40
0.7500566773
 40
1.0
 40
1.0
 40
1.0
 40
1.0
 10
-17.0004241455
 20
41.2986542001
 30
0.0
 10
-24.5009203724
 20
41.298637394
 30
0.0
 10
-35.7516636837
 20
41.2984712788
 30
0.0
 10
-50.7515193886
 20
41.2985143106
 30
0.0
 10
-58.2508825457
 20
41.2978253222
 30
0.0
 10
-61.9999943643
 20
41.3019448726
 30
0.0
  0
SPLINE
  5
5B9
100
AcDbEntity
  8
RACCORDO
100
AcDbSpline
 62
250
  6
CONTINUOUS
 70
0
 71
3
 72
10
 73
6
 74
0
 42
0.0000001
 43
0.0000001
 44
0.0000000001
 40
0.0
 40
0.0
 40
0.0
 40
0.0
 40
0.2499305779
 40
0.4999532982
 40
1.0
 40
1.0
 40
1.0
 40
1.0
 10
-67.8010684222
 20
35.5000000194
 30
0.0
 10
-67.797489401
 20
32.542489221
 30
0.0
 10
-67.7981650631
 20
26.6263705392
 30
0.0
 10
-67.7985207959
 20
14.7930339184
 30
0.0
 10
-67.7986790064
 20
5.9172085898
 30
0.0
 10
-67.7986549583
 20
-0.0000129678
 30
0.0
  0
SPLINE
  5
5BA
100
AcDbEntity
  8
RACCORDO
100
AcDbSpline
 62
250
  6
CONTINUOUS
 70
0
 71
3
 72
10
 73
6
 74
0
 42
0.0000001
 43
0.0000001
 44
0.0000000001
 40
0.0
 40
0.0
 40
0.0
 40
0.0
 40
0.5000468261
 40
0.750069608
 40
1.0
 40
1.0
 40
1.0
 40
1.0
 10
-67.7986549583
 20
-0.0000129678
 30
0.0
 10
-67.7986790015
 20
-5.9172316732
 30
0.0
 10
-67.7985208471
 20
-14.7930527172
 30
0.0
 10
-67.7981649767
 20
-26.6263806929
 30
0.0
 10
-67.7974894585
 20
-32.5424935817
 30
0.0
 10
-67.8010684222
 20
-35.5000000194
 30
0.0
  0
SPLINE
  5
5BB
100
AcDbEntity
  8
RACCORDO
100
AcDbSpline
 62
250
  6
CONTINUOUS
 70
0
 71
3
 72
10
 73
6
 74
0
 42
0.0000001
 43
0.0000001
 44
0.0000000001
 40
0.0
 40
0.0
 40
0.0
 40
0.0
 40
0.2499433242
 40
0.4999621494
 40
1.0
 40
1.0
 40
1.0
 40
1.0
 10
61.9999943643
 20
41.3019448726
 30
0.0
 10
58.2508879254
 20
41.2978253286
 30
0.0
 10
50.7515355673
 20
41.2985143604
 30
0.0
 10
35.7517014762
 20
41.2984711935
 30
0.0
 10
24.5009743991
 20
41.298637436
 30
0.0
 10
17.0004889871
 20
41.2986542
 30
0.0
  0
SPLINE
  5
5BC
100
AcDbEntity
  8
RACCORDO
100
AcDbSpline
 62
250
  6
CONTINUOUS
 70
0
 71
3
 72
10
 73
6
 74
0
 42
0.0000001
 43
0.0000001
 44
0.0000000001
 40
0.0
 40
0.0
 40
0.0
 40
0.0
 40
0.2499303956
 40
0.4999531763
 40
1.0
 40
1.0
 40
1.0
 40
1.0
 10
67.8010684222
 20
-35.5000000194
 30
0.0
 10
67.7974894586
 20
-32.5424935389
 30
0.0
 10
67.7981649844
 20
-26.6263806216
 30
0.0
 10
67.7985208536
 20
-14.7930526459
 30
0.0
 10
67.7986789985
 20
-5.9172316445
 30
0.0
 10
67.7986549583
 20
-0.0000129678
 30
0.0
  0
SPLINE
  5
5BD
100
AcDbEntity
  8
RACCORDO
100
AcDbSpline
 62
250
  6
CONTINUOUS
 70
0
 71
3
 72
11
 73
7
 74
0
 42
0.0000001
 43
0.0000001
 44
0.0000000001
 40
0.0
 40
0.0
 40
0.0
 40
0.0
 40
0.2499991816
 40
0.4999994531
 40
0.7499997269
 40
1.0
 40
1.0
 40
1.0
 40
1.0
 10
-54.234947421
 20
-22.1973119599
 30
0.0
 10
-54.2527372455
 20
-20.3482706392
 30
0.0
 10
-54.257657274
 20
-16.6499357272
 30
0.0
 10
-54.2490405263
 20
-11.1025714477
 30
0.0
 10
-54.2448972776
 20
-5.5551605655
 30
0.0
 10
-54.244132319
 20
-1.856891801
 30
0.0
 10
-54.242156162
 20
-0.007757886
 30
0.0
  0
SPLINE
  5
5BE
100
AcDbEntity
  8
RACCORDO
100
AcDbSpline
 62
250
  6
CONTINUOUS
 70
0
 71
3
 72
11
 73
7
 74
0
 42
0.0000001
 43
0.0000001
 44
0.0000000001
 40
0.0
 40
0.0
 40
0.0
 40
0.0
 40
0.2502794342
 40
0.5002944465
 40
0.7501455398
 40
1.0
 40
1.0
 40
1.0
 40
1.0
 10
-50.5477262872
 20
-25.8883190714
 30
0.0
 10
-51.0278720513
 20
-25.8842360131
 30
0.0
 10
-51.9965322285
 20
-25.6920565933
 30
0.0
 10
-53.2257816495
 20
-24.8744877213
 30
0.0
 10
-54.0408807881
 20
-23.6442157642
 30
0.0
 10
-54.2303188919
 20
-22.6766374214
 30
0.0
 10
-54.2349474195
 20
-22.1973119597
 30
0.0
  0
SPLINE
  5
5BF
100
AcDbEntity
  8
RACCORDO
100
AcDbSpline
 62
250
  6
CONTINUOUS
 70
0
 71
3
 72
11
 73
7
 74
0
 42
0.0000001
 43
0.0000001
 44
0.0000000001
 40
0.0
 40
0.0
 40
0.0
 40
0.0
 40
0.2500001971
 40
0.5000003939
 40
0.7500005922
 40
1.0
 40
1.0
 40
1.0
 40
1.0
 10
-16.9939994498
 20
-25.8999680526
 30
0.0
 10
-19.7901480445
 20
-25.899431531
 30
0.0
 10
-25.3824428364
 20
-25.8999910971
 30
0.0
 10
-33.7709002418
 20
-25.9035745545
 30
0.0
 10
-42.1592903555
 20
-25.9106494492
 30
0.0
 10
-47.7516887656
 20
-25.9122362746
 30
0.0
 10
-50.5477262918
 20
-25.8883190947
 30
0.0
  0
SPLINE
  5
5C0
100
AcDbEntity
  8
RACCORDO
100
AcDbSpline
 62
250
  6
CONTINUOUS
 70
0
 71
3
 72
9
 73
5
 74
0
 42
0.0000001
 43
0.0000001
 44
0.0000000001
 40
0.0
 40
0.0
 40
0.0
 40
0.0
 40
0.4999284828
 40
1.0
 40
1.0
 40
1.0
 40
1.0
 10
-4.8356948326
 20
-23.5770964278
 30
0.0
 10
-5.0108413458
 20
-23.7411251729
 30
0.0
 10
-5.4255417636
 20
-24.0070298405
 30
0.0
 10
-5.9099694145
 20
-24.1000482521
 30
0.0
 10
-6.15
 20
-24.0999988235
 30
0.0
  0
SPLINE
  5
5C1
100
AcDbEntity
  8
RACCORDO
100
AcDbSpline
 62
250
  6
CONTINUOUS
 70
0
 71
3
 72
10
 73
6
 74
0
 42
0.0000001
 43
0.0000001
 44
0.0000000001
 40
0.0
 40
0.0
 40
0.0
 40
0.0
 40
0.5000467055
 40
0.7500694275
 40
1.0
 40
1.0
 40
1.0
 40
1.0
 10
67.7986549583
 20
-0.0000129678
 30
0.0
 10
67.798679009
 20
5.9172086328
 30
0.0
 10
67.798520796
 20
14.7930340246
 30
0.0
 10
67.7981650698
 20
26.6263706454
 30
0.0
 10
67.7974894016
 20
32.5424892842
 30
0.0
 10
67.8010684222
 20
35.5000000194
 30
0.0
  0
SPLINE
  5
5C2
100
AcDbEntity
  8
RACCORDO
100
AcDbSpline
 62
250
  6
CONTINUOUS
 70
0
 71
3
 72
10
 73
6
 74
0
 42
0.0000001
 43
0.0000001
 44
0.0000000001
 40
0.0
 40
0.0
 40
0.0
 40
0.0
 40
0.2499434084
 40
0.4999622059
 40
1.0
 40
1.0
 40
1.0
 40
1.0
 10
-61.9999943643
 20
-41.3019448726
 30
0.0
 10
-58.2512680213
 20
-41.2978253988
 30
0.0
 10
-50.7526776472
 20
-41.2985144042
 30
0.0
 10
-35.7543693349
 20
-41.2984710684
 30
0.0
 10
-24.5047879407
 20
-41.298637743
 30
0.0
 10
-17.0050663232
 20
-41.298654191
 30
0.0
  0
SPLINE
  5
5C3
100
AcDbEntity
  8
RACCORDO
100
AcDbSpline
 62
250
  6
CONTINUOUS
 70
0
 71
3
 72
9
 73
5
 74
0
 42
0.0000001
 43
0.0000001
 44
0.0000000001
 40
0.0
 40
0.0
 40
0.0
 40
0.0
 40
0.5000780555
 40
1.0
 40
1.0
 40
1.0
 40
1.0
 10
6.15
 20
-24.0999988235
 30
0.0
 10
5.9099775254
 20
-24.1000465041
 30
0.0
 10
5.4255739146
 20
-24.0070349295
 30
0.0
 10
5.0108857074
 20
-23.7411565039
 30
0.0
 10
4.8357441969
 20
-23.5771434605
 30
0.0
  0
SPLINE
  5
5C4
100
AcDbEntity
  8
RACCORDO
100
AcDbSpline
 62
250
  6
CONTINUOUS
 70
0
 71
3
 72
11
 73
7
 74
0
 42
0.0000001
 43
0.0000001
 44
0.0000000001
 40
0.0
 40
0.0
 40
0.0
 40
0.0
 40
0.2499994096
 40
0.4999996073
 40
0.7499998035
 40
1.0
 40
1.0
 40
1.0
 40
1.0
 10
50.5477262916
 20
-25.8883190936
 30
0.0
 10
47.7516907924
 20
-25.9122381865
 30
0.0
 10
42.1592964028
 20
-25.9106473331
 30
0.0
 10
33.7709123832
 20
-25.9035750166
 30
0.0
 10
25.3824610858
 20
-25.8999909753
 30
0.0
 10
19.7901703688
 20
-25.8994315268
 30
0.0
 10
16.9940238113
 20
-25.8999680483
 30
0.0
  0
SPLINE
  5
5C5
100
AcDbEntity
  8
RACCORDO
100
AcDbSpline
 62
250
  6
CONTINUOUS
 70
0
 71
3
 72
11
 73
7
 74
0
 42
0.0000001
 43
0.0000001
 44
0.0000000001
 40
0.0
 40
0.0
 40
0.0
 40
0.0
 40
0.2498092734
 40
0.4996487433
 40
0.7496816808
 40
1.0
 40
1.0
 40
1.0
 40
1.0
 10
54.2349474216
 20
-22.19731196
 30
0.0
 10
54.2303102172
 20
-22.6765491535
 30
0.0
 10
54.0409320117
 20
-23.6439946983
 30
0.0
 10
53.2260082935
 20
-24.874329718
 30
0.0
 10
51.9966904047
 20
-25.6918382669
 30
0.0
 10
51.0279466532
 20
-25.8844130936
 30
0.0
 10
50.547726305
 20
-25.8883191505
 30
0.0
  0
SPLINE
  5
5C6
100
AcDbEntity
  8
RACCORDO
100
AcDbSpline
 62
250
  6
CONTINUOUS
 70
0
 71
3
 72
11
 73
7
 74
0
 42
0.0000001
 43
0.0000001
 44
0.0000000001
 40
0.0
 40
0.0
 40
0.0
 40
0.0
 40
0.2500002727
 40
0.5000005459
 40
0.7500008169
 40
1.0
 40
1.0
 40
1.0
 40
1.0
 10
54.2421567823
 20
-0.008325262
 30
0.0
 10
54.2441332465
 20
-1.857411892
 30
0.0
 10
54.2448967722
 20
-5.5555860877
 30
0.0
 10
54.2490423121
 20
-11.1028551136
 30
0.0
 10
54.2576561627
 20
-16.6500775507
 30
0.0
 10
54.2527377078
 20
-20.348317916
 30
0.0
 10
54.2349474212
 20
-22.1973119599
 30
0.0
  0
SPLINE
  5
5C7
100
AcDbEntity
  8
RACCORDO
100
AcDbSpline
 62
250
  6
CONTINUOUS
 70
0
 71
3
 72
11
 73
7
 74
0
 42
0.0000001
 43
0.0000001
 44
0.0000000001
 40
0.0
 40
0.0
 40
0.0
 40
0.0
 40
0.2499991815
 40
0.4999994531
 40
0.7499997268
 40
1.0
 40
1.0
 40
1.0
 40
1.0
 10
54.234947421
 20
22.1973119599
 30
0.0
 10
54.2527501396
 20
20.3469304468
 30
0.0
 10
54.2576528314
 20
16.6459148803
 30
0.0
 10
54.2490295048
 20
11.0945298885
 30
0.0
 10
54.2448963192
 20
5.543098194
 30
0.0
 10
54.2441148543
 20
1.8421489244
 30
0.0
 10
54.2421448311
 20
-0.0083252598
 30
0.0
  0
SPLINE
  5
5C8
100
AcDbEntity
  8
RACCORDO
100
AcDbSpline
 62
250
  6
CONTINUOUS
 70
0
 71
3
 72
11
 73
7
 74
0
 42
0.0000001
 43
0.0000001
 44
0.0000000001
 40
0.0
 40
0.0
 40
0.0
 40
0.0
 40
0.2502794338
 40
0.5002944462
 40
0.7501455397
 40
1.0
 40
1.0
 40
1.0
 40
1.0
 10
50.5477262872
 20
25.8883190714
 30
0.0
 10
51.0278720506
 20
25.8842360145
 30
0.0
 10
51.9965322272
 20
25.6920565929
 30
0.0
 10
53.2257816486
 20
24.8744877228
 30
0.0
 10
54.0408807882
 20
23.6442157649
 30
0.0
 10
54.2303188916
 20
22.6766374216
 30
0.0
 10
54.2349474195
 20
22.1973119597
 30
0.0
  0
SPLINE
  5
5C9
100
AcDbEntity
  8
RACCORDO
100
AcDbSpline
 62
250
  6
CONTINUOUS
 70
0
 71
3
 72
11
 73
7
 74
0
 42
0.0000001
 43
0.0000001
 44
0.0000000001
 40
0.0
 40
0.0
 40
0.0
 40
0.0
 40
0.2500001971
 40
0.5000003939
 40
0.7500005922
 40
1.0
 40
1.0
 40
1.0
 40
1.0
 10
16.9939994498
 20
25.8999680526
 30
0.0
 10
19.7901480445
 20
25.899431531
 30
0.0
 10
25.3824428364
 20
25.8999910971
 30
0.0
 10
33.7709002418
 20
25.9035745545
 30
0.0
 10
42.1592903555
 20
25.9106494492
 30
0.0
 10
47.7516887656
 20
25.9122362746
 30
0.0
 10
50.5477262918
 20
25.8883190947
 30
0.0
  0
SPLINE
  5
5CA
100
AcDbEntity
  8
RACCORDO
100
AcDbSpline
 62
250
  6
CONTINUOUS
 70
0
 71
3
 72
9
 73
5
 74
0
 42
0.0000001
 43
0.0000001
 44
0.0000000001
 40
0.0
 40
0.0
 40
0.0
 40
0.0
 40
0.4999265914
 40
1.0
 40
1.0
 40
1.0
 40
1.0
 10
4.8356815989
 20
23.5770833342
 30
0.0
 10
5.0108276588
 20
23.7411157024
 30
0.0
 10
5.4255313705
 20
24.0070262544
 30
0.0
 10
5.9099654528
 20
24.1000510934
 30
0.0
 10
6.15
 20
24.0999988235
 30
0.0
  0
SPLINE
  5
5CB
100
AcDbEntity
  8
RACCORDO
100
AcDbSpline
 62
250
  6
CONTINUOUS
 70
0
 71
3
 72
10
 73
6
 74
0
 42
0.0000001
 43
0.0000001
 44
0.0000000001
 40
0.0
 40
0.0
 40
0.0
 40
0.0
 40
0.5000378551
 40
0.7500566834
 40
1.0
 40
1.0
 40
1.0
 40
1.0
 10
17.0050663232
 20
-41.298654191
 30
0.0
 10
24.5047888561
 20
-41.2986377463
 30
0.0
 10
35.754371627
 20
-41.2984711718
 30
0.0
 10
50.7526799396
 20
-41.2985142044
 30
0.0
 10
58.2512693977
 20
-41.2978257473
 30
0.0
 10
61.9999943643
 20
-41.3019448726
 30
0.0
  0
SPLINE
  5
5CC
100
AcDbEntity
  8
RACCORDO
100
AcDbSpline
 62
250
  6
CONTINUOUS
 70
0
 71
3
 72
17
 73
13
 74
0
 42
0.0000001
 43
0.0000001
 44
0.0000000001
 40
0.0
 40
0.0
 40
0.0
 40
0.0
 40
0.2038602962
 40
0.3935781241
 40
0.5635901767
 40
0.7098089318
 40
0.8287172217
 40
0.9175752731
 40
0.9500329107
 40
0.974372194
 40
0.9907365914
 40
1.0
 40
1.0
 40
1.0
 40
1.0
 10
62.1200606238
 20
-39.8596764631
 30
0.0
 10
62.1181505264
 20
-39.9584923496
 30
0.0
 10
62.1134541489
 20
-40.1492507092
 30
0.0
 10
62.1034994161
 20
-40.422316058
 30
0.0
 10
62.091026629
 20
-40.6672912545
 30
0.0
 10
62.0765008547
 20
-40.8777935991
 30
0.0
 10
62.0602855627
 20
-41.0485990559
 30
0.0
 10
62.0448485848
 20
-41.16423266
 30
0.0
 10
62.0310826621
 20
-41.2333623148
 30
0.0
 10
62.0215220048
 20
-41.2678730011
 30
0.0
 10
62.0128235022
 20
-41.2898782101
 30
0.0
 10
62.0043219692
 20
-41.3007092393
 30
0.0
 10
61.999993948
 20
-41.301908236
 30
0.0
  0
SPLINE
  5
5CD
100
AcDbEntity
  8
0
100
AcDbSpline
 62
7
  6
CONTINUOUS
 70
0
 71
3
 72
18
 73
14
 74
0
 42
0.0000001
 43
0.0000001
 44
0.0000000001
 40
0.0
 40
0.0
 40
0.0
 40
0.0
 40
0.194116484
 40
0.3807867965
 40
0.5528698266
 40
0.7037597507
 40
0.8276723933
 40
0.9198436249
 40
0.9529102549
 40
0.9769400264
 40
0.9855934581
 40
0.9921117697
 40
1.0
 40
1.0
 40
1.0
 40
1.0
 10
-134.9166555703
 20
-35.5
 30
0.0
 10
-134.8976455394
 20
-35.7210085965
 30
0.0
 10
-134.8680062667
 20
-36.1552208407
 30
0.0
 10
-134.8405656484
 20
-36.7864421346
 30
0.0
 10
-134.8234713583
 20
-37.3685887905
 30
0.0
 10
-134.8112977963
 20
-37.8791204937
 30
0.0
 10
-134.8034020016
 20
-38.2983993643
 30
0.0
 10
-134.8011341957
 20
-38.5831272999
 30
0.0
 10
-134.8083611974
 20
-38.7536961915
 30
0.0
 10
-134.8155166875
 20
-38.8283866986
 30
0.0
 10
-134.8257805951
 20
-38.872514384
 30
0.0
 10
-134.8338545278
 20
-38.8966514721
 30
0.0
 10
-134.8470471836
 20
-38.9120782824
 30
0.0
 10
-134.8560584557
 20
-38.9123078586
 30
0.0
  0
SPLINE
  5
5CE
100
AcDbEntity
  8
0
100
AcDbSpline
 62
7
  6
CONTINUOUS
 70
0
 71
3
 72
15
 73
11
 74
0
 42
0.0000001
 43
0.0000001
 44
0.0000000001
 40
0.0
 40
0.0
 40
0.0
 40
0.0
 40
0.3628716611
 40
0.5273936261
 40
0.6730603452
 40
0.7954889479
 40
0.8913031919
 40
0.9285981624
 40
0.9587646864
 40
1.0
 40
1.0
 40
1.0
 40
1.0
 10
-134.9166555703
 20
35.5
 30
0.0
 10
-134.954769561
 20
35.0568907981
 30
0.0
 10
-135.0326357821
 20
34.413936779
 30
0.0
 10
-135.2000354667
 20
33.6057372206
 30
0.0
 10
-135.3407407547
 20
33.0940709689
 30
0.0
 10
-135.4928433173
 20
32.67411598
 30
0.0
 10
-135.6285892905
 20
32.3912622
 30
0.0
 10
-135.7406289557
 20
32.2237484864
 30
0.0
 10
-135.8264534401
 20
32.1246741031
 30
0.0
 10
-135.9069878533
 20
32.0693594144
 30
0.0
 10
-135.9575190888
 20
32.068466691
 30
0.0
  0
LINE
  5
5CF
100
AcDbEntity
  8
RACCORDO
100
AcDbLine
 62
7
  6
CONTINUOUS
 10
-137.0568724138
 20
25.8985501465
 11
-137.0568724238
 21
25.8999680316
  0
SPLINE
  5
5D0
100
AcDbEntity
  8
RACCORDO
100
AcDbSpline
 62
7
  6
CONTINUOUS
 70
0
 71
3
 72
8
 73
4
 74
0
 42
0.0000001
 43
0.0000001
 44
0.0000000001
 40
0.0
 40
0.0
 40
0.0
 40
0.0
 40
1.0
 40
1.0
 40
1.0
 40
1.0
 10
-137.0565120188
 20
22.1973119599
 30
0.0
 10
-137.0571054537
 20
21.4993652178
 30
0.0
 10
-137.0570828384
 20
20.8014180527
 30
0.0
 10
-137.057096952
 20
20.1034710584
 30
0.0
  0
SPLINE
  5
5D1
100
AcDbEntity
  8
RACCORDO
100
AcDbSpline
 62
7
  6
CONTINUOUS
 70
0
 71
3
 72
8
 73
4
 74
0
 42
0.0000001
 43
0.0000001
 44
0.0000000001
 40
0.0
 40
0.0
 40
0.0
 40
0.0
 40
1.0
 40
1.0
 40
1.0
 40
1.0
 10
-137.0567646572
 20
-0.008325262
 30
0.0
 10
-137.0574358924
 20
-3.6284759918
 30
0.0
 10
-137.0572100728
 20
-7.2486268369
 30
0.0
 10
-137.0572070316
 20
-10.8687776289
 30
0.0
  0
SPLINE
  5
5D2
100
AcDbEntity
  8
0
100
AcDbSpline
 62
7
  6
CONTINUOUS
 70
0
 71
3
 72
18
 73
14
 74
0
 42
0.0000001
 43
0.0000001
 44
0.0000000001
 40
0.0
 40
0.0
 40
0.0
 40
0.0
 40
0.0079500116
 40
0.0145234868
 40
0.0232357267
 40
0.0473630986
 40
0.0805081767
 40
0.1727777849
 40
0.2967105038
 40
0.4475508411
 40
0.6195271547
 40
0.8060514521
 40
1.0
 40
1.0
 40
1.0
 40
1.0
 10
-134.8556965243
 20
38.9122694277
 30
0.0
 10
-134.8466226304
 20
38.9118429172
 30
0.0
 10
-134.8336151456
 20
38.8961581345
 30
0.0
 10
-134.8255585125
 20
38.8718124282
 30
0.0
 10
-134.8154032468
 20
38.8274150936
 30
0.0
 10
-134.8082756606
 20
38.7524690792
 30
0.0
 10
-134.8011269214
 20
38.5815944078
 30
0.0
 10
-134.8034297473
 20
38.2966751521
 30
0.0
 10
-134.8113356549
 20
37.8773560745
 30
0.0
 10
-134.8235115773
 20
37.3670307234
 30
0.0
 10
-134.8406091916
 20
36.7852861203
 30
0.0
 10
-134.8680445378
 20
36.1546073468
 30
0.0
 10
-134.8976638332
 20
35.7207959152
 30
0.0
 10
-134.9166555703
 20
35.5
 30
0.0
  0
SPLINE
  5
5D3
100
AcDbEntity
  8
0
100
AcDbSpline
 62
7
  6
CONTINUOUS
 70
0
 71
3
 72
15
 73
11
 74
0
 42
0.0000001
 43
0.0000001
 44
0.0000000001
 40
0.0
 40
0.0
 40
0.0
 40
0.0
 40
0.0411811307
 40
0.0713153442
 40
0.1085779202
 40
0.2043448066
 40
0.3267562729
 40
0.4724414522
 40
0.6369915658
 40
1.0
 40
1.0
 40
1.0
 40
1.0
 10
-135.9577604712
 20
-32.0684519175
 30
0.0
 10
-135.9072912464
 20
-32.0692753318
 30
0.0
 10
-135.8267472706
 20
-32.1243845432
 30
0.0
 10
-135.7409633869
 20
-32.223325992
 30
0.0
 10
-135.6289089366
 20
-32.390675169
 30
0.0
 10
-135.493128575
 20
-32.6734106061
 30
0.0
 10
-135.3409859654
 20
-33.0933200606
 30
0.0
 10
-135.200203675
 20
-33.6050385997
 30
0.0
 10
-135.0326865631
 20
-34.4134979711
 30
0.0
 10
-134.9547863659
 20
-35.0566954256
 30
0.0
 10
-134.9166555703
 20
-35.5
 30
0.0
  0
LINE
  5
5D4
100
AcDbEntity
  8
RACCORDO
100
AcDbLine
 62
7
  6
CONTINUOUS
 10
-137.0568724084
 20
-25.8983400181
 11
-137.0568724238
 21
-25.8999680326
  0
LINE
  5
5D5
100
AcDbEntity
  8
RACCORDO
100
AcDbLine
 62
7
  6
CONTINUOUS
 10
-137.0569224905
 20
-25.898438019
 11
-137.0569176039
 21
-25.8997262505
  0
LINE
  5
5D6
100
AcDbEntity
  8
RACCORDO
100
AcDbLine
 62
7
  6
CONTINUOUS
 10
-137.0568519206
 20
25.9030971832
 11
-137.0569164733
 21
25.8997278288
  0
LINE
  5
5D7
100
AcDbEntity
  8
RACCORDO
100
AcDbLine
 62
7
  6
CONTINUOUS
 10
-137.0569214849
 20
25.8984231265
 11
-137.0568417064
 21
25.8942496701
  0
LINE
  5
5D8
100
AcDbEntity
  8
RACCORDO
100
AcDbLine
 62
7
  6
CONTINUOUS
 10
-137.0568417064
 20
25.8942496701
 11
-137.056472016
 21
25.8883190947
  0
SPLINE
  5
5D9
100
AcDbEntity
  8
RACCORDO
100
AcDbSpline
 62
7
  6
CONTINUOUS
 70
0
 71
3
 72
8
 73
4
 74
0
 42
0.0000001
 43
0.0000001
 44
0.0000000001
 40
0.0
 40
0.0
 40
0.0
 40
0.0
 40
1.0
 40
1.0
 40
1.0
 40
1.0
 10
-137.057207036
 20
10.8688038331
 30
0.0
 10
-137.0572100979
 20
7.2430941324
 30
0.0
 10
-137.0574402261
 20
3.6173843774
 30
0.0
 10
-137.0567615394
 20
-0.0083252598
 30
0.0
  0
LINE
  5
5DA
100
AcDbEntity
  8
RACCORDO
100
AcDbLine
 62
7
  6
CONTINUOUS
 10
-137.057096952
 20
20.1034710584
 11
-137.057207036
 21
10.8688038331
  0
SPLINE
  5
5DB
100
AcDbEntity
  8
RACCORDO
100
AcDbSpline
 62
7
  6
CONTINUOUS
 70
0
 71
3
 72
8
 73
4
 74
0
 42
0.0000001
 43
0.0000001
 44
0.0000000001
 40
0.0
 40
0.0
 40
0.0
 40
0.0
 40
1.0
 40
1.0
 40
1.0
 40
1.0
 10
-137.0570972171
 20
-20.1027246918
 30
0.0
 10
-137.0570834616
 20
-20.800920475
 30
0.0
 10
-137.0571055757
 20
-21.4991164289
 30
0.0
 10
-137.0565120668
 20
-22.1973119599
 30
0.0
  0
LINE
  5
5DC
100
AcDbEntity
  8
RACCORDO
100
AcDbLine
 62
7
  6
CONTINUOUS
 10
-137.0572070316
 20
-10.8687776289
 11
-137.0570972171
 21
-20.1027246918
  0
SPLINE
  5
5DD
100
AcDbEntity
  8
0
100
AcDbSpline
 62
7
  6
CONTINUOUS
 70
0
 71
3
 72
19
 73
15
 74
0
 42
0.0000001
 43
0.0000001
 44
0.0000000001
 40
0.0
 40
0.0
 40
0.0
 40
0.0
 40
0.0170621922
 40
0.0369329426
 40
0.0628400279
 40
0.0962040746
 40
0.1375496879
 40
0.1868999246
 40
0.2440128361
 40
0.3084438622
 40
0.4567921863
 40
0.6261035642
 40
0.8095584813
 40
1.0
 40
1.0
 40
1.0
 40
1.0
 10
-135.9575190888
 20
32.068466691
 30
0.0
 10
-135.977666838
 20
32.0681107455
 30
0.0
 10
-136.0222838821
 20
32.08037325
 30
0.0
 10
-136.0752456206
 20
32.1354701513
 30
0.0
 10
-136.1171582625
 20
32.2197316843
 30
0.0
 10
-136.1505162032
 20
32.3342290053
 30
0.0
 10
-136.1748329551
 20
32.4789226115
 30
0.0
 10
-136.1899194635
 20
32.6529718786
 30
0.0
 10
-136.1954302944
 20
32.854814743
 30
0.0
 10
-136.1896749368
 20
33.1735949817
 30
0.0
 10
-136.1566801526
 20
33.6239530952
 30
0.0
 10
-136.085698783
 20
34.2116440313
 30
0.0
 10
-135.9857691678
 20
34.8454752823
 30
0.0
 10
-135.9041468012
 20
35.2795109264
 30
0.0
 10
-135.8597401429
 20
35.5
 30
0.0
  0
SPLINE
  5
5DE
100
AcDbEntity
  8
RACCORDO
100
AcDbSpline
 62
250
  6
CONTINUOUS
 70
0
 71
3
 72
11
 73
7
 74
0
 42
0.0000001
 43
0.0000001
 44
0.0000000001
 40
0.0
 40
0.0
 40
0.0
 40
0.0
 40
0.6386264704
 40
0.8877536272
 40
0.9765953643
 40
1.0
 40
1.0
 40
1.0
 40
1.0
 10
-134.5853675756
 20
39.8596751914
 30
0.0
 10
-134.6253542426
 20
39.8756988123
 30
0.0
 10
-134.6797076185
 20
39.896299552
 30
0.0
 10
-134.7442023948
 20
39.9217184894
 30
0.0
 10
-134.7639696903
 20
39.9294283502
 30
0.0
 10
-134.77209955
 20
39.9353722842
 30
0.0
 10
-134.7715950323
 20
39.9368682281
 30
0.0
  0
SPLINE
  5
5DF
100
AcDbEntity
  8
RACCORDO
100
AcDbSpline
 62
250
  6
CONTINUOUS
 70
0
 71
3
 72
19
 73
15
 74
0
 42
0.0000001
 43
0.0000001
 44
0.0000000001
 40
0.0
 40
0.0
 40
0.0
 40
0.0
 40
0.194763552
 40
0.3820933588
 40
0.5548073249
 40
0.7062375747
 40
0.7721058638
 40
0.8305443031
 40
0.8809630537
 40
0.9228890707
 40
0.9558986138
 40
0.9797088532
 40
0.9941880506
 40
1.0
 40
1.0
 40
1.0
 40
1.0
 10
-132.7534794138
 20
35.5000000194
 30
0.0
 10
-132.73637822
 20
35.8768107366
 30
0.0
 10
-132.7132708876
 20
36.6165371521
 30
0.0
 10
-132.6999235761
 20
37.6909732694
 30
0.0
 10
-132.6947111583
 20
38.6815190542
 30
0.0
 10
-132.6880988086
 20
39.4368626554
 30
0.0
 10
-132.6798084222
 20
39.9707699809
 30
0.0
 10
-132.673727031
 20
40.3092272489
 30
0.0
 10
-132.6681037413
 20
40.6008310696
 30
0.0
 10
-132.6649643191
 20
40.8446176475
 30
0.0
 10
-132.6640352844
 20
41.0331692877
 30
0.0
 10
-132.6703042477
 20
41.177425639
 30
0.0
 10
-132.6756430256
 20
41.2512573682
 30
0.0
 10
-132.6920247637
 20
41.3021348893
 30
0.0
 10
-132.7032792095
 20
41.3019476884
 30
0.0
  0
LINE
  5
5E0
100
AcDbEntity
  8
RACCORDO
100
AcDbLine
 62
250
  6
CONTINUOUS
 10
-134.7715949779
 20
-39.9368687511
 11
-134.5985986045
 21
-39.8649655686
  0
LINE
  5
5E1
100
AcDbEntity
  8
RACCORDO
100
AcDbLine
 62
250
  6
CONTINUOUS
 10
-134.5985986045
 20
-39.8649655686
 11
-134.5853675756
 21
-39.8596751914
  0
SPLINE
  5
5E2
100
AcDbEntity
  8
0
100
AcDbSpline
 62
7
  6
CONTINUOUS
 70
0
 71
3
 72
18
 73
14
 74
0
 42
0.0000001
 43
0.0000001
 44
0.0000000001
 40
0.0
 40
0.0
 40
0.0
 40
0.0
 40
0.0090526148
 40
0.0260518563
 40
0.0519845768
 40
0.0867775834
 40
0.1301222378
 40
0.1815906806
 40
0.3066127862
 40
0.4568235615
 40
0.6265368737
 40
0.8098925377
 40
1.0
 40
1.0
 40
1.0
 40
1.0
 10
-134.8560584557
 20
-38.9123078586
 30
0.0
 10
-134.8668423525
 20
-38.9125825951
 30
0.0
 10
-134.893471024
 20
-38.8890850706
 30
0.0
 10
-134.9245402783
 20
-38.8380758387
 30
0.0
 10
-134.9661474411
 20
-38.753949199
 30
0.0
 10
-135.0133340722
 20
-38.6397177564
 30
0.0
 10
-135.0676936412
 20
-38.494957791
 30
0.0
 10
-135.1535340017
 20
-38.2475169386
 30
0.0
 10
-135.2707200854
 20
-37.8761440291
 30
0.0
 10
-135.4175995809
 20
-37.3666588282
 30
0.0
 10
-135.5705566343
 20
-36.7867047599
 30
0.0
 10
-135.7214602833
 20
-36.1572226101
 30
0.0
 10
-135.8150132502
 20
-35.7220791096
 30
0.0
 10
-135.8597401429
 20
-35.5
 30
0.0
  0
SPLINE
  5
5E3
100
AcDbEntity
  8
RACCORDO
100
AcDbSpline
 62
250
  6
CONTINUOUS
 70
0
 71
3
 72
15
 73
11
 74
0
 42
0.0000001
 43
0.0000001
 44
0.0000000001
 40
0.0
 40
0.0
 40
0.0
 40
0.0
 40
0.0624969759
 40
0.1249965093
 40
0.2499963055
 40
0.3749969044
 40
0.4999975245
 40
0.624998143
 40
0.7499987619
 40
1.0
 40
1.0
 40
1.0
 40
1.0
 10
-132.7534796116
 20
-35.5000000194
 30
0.0
 10
-132.8046321861
 20
-34.762157711
 30
0.0
 10
-132.8703283405
 20
-33.283928436
 30
0.0
 10
-132.9257474709
 20
-30.3258294737
 30
0.0
 10
-132.9298496262
 20
-26.627422049
 30
0.0
 10
-132.9173533354
 20
-22.1895784124
 30
0.0
 10
-132.9045244302
 20
-17.7516682534
 30
0.0
 10
-132.8958535879
 20
-13.3137624405
 30
0.0
 10
-132.8905501957
 20
-7.3965408165
 30
0.0
 10
-132.8910562786
 20
-2.9586239572
 30
0.0
 10
-132.8917449012
 20
-0.0000129678
 30
0.0
  0
SPLINE
  5
5E4
100
AcDbEntity
  8
RACCORDO
100
AcDbSpline
 62
250
  6
CONTINUOUS
 70
0
 71
3
 72
15
 73
11
 74
0
 42
0.0000001
 43
0.0000001
 44
0.0000000001
 40
0.0
 40
0.0
 40
0.0
 40
0.0
 40
0.2500011788
 40
0.3750017683
 40
0.500002357
 40
0.6250029474
 40
0.750003517
 40
0.8750033052
 40
0.9375028884
 40
1.0
 40
1.0
 40
1.0
 40
1.0
 10
-132.8917449012
 20
-0.0000129678
 30
0.0
 10
-132.8910559795
 20
2.9585994827
 30
0.0
 10
-132.8905437508
 20
7.3965185412
 30
0.0
 10
-132.8958602718
 20
13.3137430739
 30
0.0
 10
-132.9045231448
 20
17.7516510917
 30
0.0
 10
-132.9173525821
 20
22.1895634428
 30
0.0
 10
-132.9298475137
 20
26.6274095463
 30
0.0
 10
-132.9257455788
 20
30.3258197811
 30
0.0
 10
-132.8703309468
 20
33.2839231083
 30
0.0
 10
-132.8046330712
 20
34.7621556211
 30
0.0
 10
-132.7534796117
 20
35.5000000194
 30
0.0
  0
LINE
  5
5E5
100
AcDbEntity
  8
0
100
AcDbLine
 62
7
  6
CONTINUOUS
 10
-137.1001633229
 20
-26.5998755847
 11
-137.0957407874
 21
-26.7684944471
  0
LINE
  5
5E6
100
AcDbEntity
  8
0
100
AcDbLine
 62
7
  6
CONTINUOUS
 10
-137.074840749
 20
-27.4516846537
 11
-137.0708281762
 21
-27.5604083498
  0
LINE
  5
5E7
100
AcDbEntity
  8
0
100
AcDbLine
 62
7
  6
CONTINUOUS
 10
-137.0541763378
 20
-27.9697341831
 11
-137.0391306054
 21
-28.3089026669
  0
LINE
  5
5E8
100
AcDbEntity
  8
0
100
AcDbLine
 62
7
  6
CONTINUOUS
 10
-137.0166903182
 20
-27.6665679488
 11
-137.0214866247
 21
-27.5418359433
  0
LINE
  5
5E9
100
AcDbEntity
  8
0
100
AcDbLine
 62
7
  6
CONTINUOUS
 10
-137.0214866247
 20
-27.5418359433
 11
-137.0260284518
 21
-27.4177141808
  0
SPLINE
  5
5EA
100
AcDbEntity
  8
0
100
AcDbSpline
 62
7
  6
CONTINUOUS
 70
0
 71
3
 72
16
 73
12
 74
0
 42
0.0000001
 43
0.0000001
 44
0.0000000001
 40
0.0
 40
0.0
 40
0.0
 40
0.0
 40
0.4174284857
 40
0.5895166499
 40
0.7339514656
 40
0.8486859617
 40
0.931872643
 40
0.9613191966
 40
0.9825482411
 40
0.9954704696
 40
1.0
 40
1.0
 40
1.0
 40
1.0
 10
-137.0401376767
 20
-26.977471257
 30
0.0
 10
-137.0416306652
 20
-26.9249340517
 30
0.0
 10
-137.043637025
 20
-26.8507322386
 30
0.0
 10
-137.0459999762
 20
-26.7583570058
 30
0.0
 10
-137.0473088432
 20
-26.7040593103
 30
0.0
 10
-137.0484424654
 20
-26.661004841
 30
0.0
 10
-137.0489890904
 20
-26.6323041329
 30
0.0
 10
-137.0496795636
 20
-26.6155672077
 30
0.0
 10
-137.0495309231
 20
-26.6073768695
 30
0.0
 10
-137.0504019412
 20
-26.6028450428
 30
0.0
 10
-137.0497658623
 20
-26.6002918996
 30
0.0
 10
-137.0501571619
 20
-26.599877
 30
0.0
  0
SPLINE
  5
5EB
100
AcDbEntity
  8
RACCORDO
100
AcDbSpline
 62
250
  6
CONTINUOUS
 70
0
 71
3
 72
14
 73
10
 74
0
 42
0.0000001
 43
0.0000001
 44
0.0000000001
 40
0.0
 40
0.0
 40
0.0
 40
0.0
 40
0.4263064996
 40
0.5953065621
 40
0.7349777786
 40
0.8450035452
 40
0.9260628282
 40
0.9785714674
 40
1.0
 40
1.0
 40
1.0
 40
1.0
 10
-136.8887704313
 20
-0.0000057416
 30
0.0
 10
-136.9126836015
 20
0.0009459861
 30
0.0
 10
-136.9461426912
 20
0.0003301538
 30
0.0
 10
-136.9873558299
 20
0.0007309818
 30
0.0
 10
-137.0109369183
 20
0.0020780777
 30
0.0
 10
-137.0291844567
 20
0.0031152952
 30
0.0
 10
-137.0436209724
 20
0.0014737897
 30
0.0
 10
-137.0505477774
 20
-0.0006091402
 30
0.0
 10
-137.056302194
 20
-0.0019539283
 30
0.0
 10
-137.0567632689
 20
-0.0008428371
 30
0.0
  0
LINE
  5
5EC
100
AcDbEntity
  8
SUPERFICI
100
AcDbLine
 62
250
  6
CONTINUOUS
 10
-136.343923784
 20
-0.0000011164
 11
-136.8887704313
 21
-0.0000057416
  0
LINE
  5
5ED
100
AcDbEntity
  8
SUPERFICI
100
AcDbLine
 62
250
  6
CONTINUOUS
 10
-135.3905995616
 20
-0.0000000691
 11
-136.343923784
 21
-0.0000011164
  0
LINE
  5
5EE
100
AcDbEntity
  8
RACCORDO
100
AcDbLine
 62
250
  6
CONTINUOUS
 10
-134.7191021588
 20
-0.0000095205
 11
-135.3905995616
 21
-0.0000000691
  0
LINE
  5
5EF
100
AcDbEntity
  8
RACCORDO
100
AcDbLine
 62
250
  6
CONTINUOUS
 10
-137.0565121322
 20
-22.19731196
 11
-137.0564857709
 21
-25.8883191505
  0
SPLINE
  5
5F0
100
AcDbEntity
  8
RACCORDO
100
AcDbSpline
 62
250
  6
CONTINUOUS
 70
0
 71
3
 72
15
 73
11
 74
0
 42
0.0000001
 43
0.0000001
 44
0.0000000001
 40
0.0
 40
0.0
 40
0.0
 40
0.0
 40
0.0624741968
 40
0.124968976
 40
0.249970906
 40
0.3749755915
 40
0.4999804643
 40
0.6249853483
 40
0.7499902353
 40
1.0
 40
1.0
 40
1.0
 40
1.0
 10
-134.6260621676
 20
-35.6315315353
 30
0.0
 10
-134.668585892
 20
-34.8906905635
 30
0.0
 10
-134.7217637605
 20
-33.4069605435
 30
0.0
 10
-134.7643781235
 20
-30.4381061577
 30
0.0
 10
-134.7632760422
 20
-26.7261388693
 30
0.0
 10
-134.7485357764
 20
-22.2718587211
 30
0.0
 10
-134.7348931588
 20
-17.8174977135
 30
0.0
 10
-134.7254719962
 20
-13.3631339406
 30
0.0
 10
-134.7193425395
 20
-7.4239685214
 30
0.0
 10
-134.7189853356
 20
-2.9695929853
 30
0.0
 10
-134.7191021588
 20
-0.0000095205
 30
0.0
  0
SPLINE
  5
5F1
100
AcDbEntity
  8
RACCORDO
100
AcDbSpline
 62
250
  6
CONTINUOUS
 70
0
 71
3
 72
20
 73
16
 74
0
 42
0.0000001
 43
0.0000001
 44
0.0000000001
 40
0.0
 40
0.0
 40
0.0
 40
0.0
 40
0.0034117254
 40
0.0087633955
 40
0.0265718767
 40
0.0540071637
 40
0.0905412603
 40
0.1354738038
 40
0.1880195975
 40
0.2474201607
 40
0.3130327671
 40
0.4606106299
 40
0.6270766798
 40
0.8087137584
 40
1.0
 40
1.0
 40
1.0
 40
1.0
 10
-134.5853675756
 20
-39.8596751914
 30
0.0
 10
-134.5808987563
 20
-39.8578778308
 30
0.0
 10
-134.5725563579
 20
-39.8473246584
 30
0.0
 10
-134.5619299667
 20
-39.8115245739
 30
0.0
 10
-134.5560922139
 20
-39.7395827459
 30
0.0
 10
-134.5552017214
 20
-39.624426009
 30
0.0
 10
-134.5591760921
 20
-39.4705807153
 30
0.0
 10
-134.5661739521
 20
-39.2815604667
 30
0.0
 10
-134.5744746636
 20
-39.060214261
 30
0.0
 10
-134.5822431498
 20
-38.8096574513
 30
0.0
 10
-134.5910323597
 20
-38.4249013263
 30
0.0
 10
-134.5946558749
 20
-37.8888787545
 30
0.0
 10
-134.591304888
 20
-37.1890800022
 30
0.0
 10
-134.5933446775
 20
-36.4275444476
 30
0.0
 10
-134.6105987979
 20
-35.9011493089
 30
0.0
 10
-134.6260621676
 20
-35.6315315353
 30
0.0
  0
SPLINE
  5
5F2
100
AcDbEntity
  8
0
100
AcDbSpline
 62
7
  6
CONTINUOUS
 70
0
 71
3
 72
19
 73
15
 74
0
 42
0.0000001
 43
0.0000001
 44
0.0000000001
 40
0.0
 40
0.0
 40
0.0
 40
0.0
 40
0.1904140678
 40
0.3738459645
 40
0.543141213
 40
0.6914836082
 40
0.7559180697
 40
0.8130339109
 40
0.862395155
 40
0.90374623
 40
0.9371321681
 40
0.9630501323
 40
0.9829369544
 40
1.0
 40
1.0
 40
1.0
 40
1.0
 10
-135.8597401429
 20
-35.5
 30
0.0
 10
-135.9041374385
 20
-35.2795574144
 30
0.0
 10
-135.9857447922
 20
-34.8456095504
 30
0.0
 10
-136.0856604189
 20
-34.21189934
 30
0.0
 10
-136.1566465839
 20
-33.624301939
 30
0.0
 10
-136.189646566
 20
-33.1739977551
 30
0.0
 10
-136.1954373392
 20
-32.8552380838
 30
0.0
 10
-136.1899295774
 20
-32.6533896695
 30
0.0
 10
-136.1749023548
 20
-32.4793217416
 30
0.0
 10
-136.1505691442
 20
-32.3345986633
 30
0.0
 10
-136.1173044503
 20
-32.2200344291
 30
0.0
 10
-136.0753859224
 20
-32.1357170568
 30
0.0
 10
-136.0225094957
 20
-32.0805319571
 30
0.0
 10
-135.9779083466
 20
-32.0681232013
 30
0.0
 10
-135.9577604712
 20
-32.0684519175
 30
0.0
  0
SPLINE
  5
5F3
100
AcDbEntity
  8
0
100
AcDbSpline
 62
7
  6
CONTINUOUS
 70
0
 71
3
 72
18
 73
14
 74
0
 42
0.0000001
 43
0.0000001
 44
0.0000000001
 40
0.0
 40
0.0
 40
0.0
 40
0.0
 40
0.1902468589
 40
0.3737518277
 40
0.5435674333
 40
0.693829019
 40
0.8188496826
 40
0.8702885146
 40
0.9135898809
 40
0.9483014224
 40
0.9741468979
 40
0.9910454378
 40
1.0
 40
1.0
 40
1.0
 40
1.0
 10
-135.8597401429
 20
35.5
 30
0.0
 10
-135.8149764582
 20
35.72226179
 30
0.0
 10
-135.7213342558
 20
36.157778766
 30
0.0
 10
-135.570295353
 20
36.787767221
 30
0.0
 10
-135.4172006863
 20
37.368113215
 30
0.0
 10
-135.2702238354
 20
37.8778078918
 30
0.0
 10
-135.152974587
 20
38.2492221496
 30
0.0
 10
-135.0671192059
 20
38.4965889612
 30
0.0
 10
-135.0127489728
 20
38.6411638039
 30
0.0
 10
-134.965639746
 20
38.7551640195
 30
0.0
 10
-134.9240097982
 20
38.8389416688
 30
0.0
 10
-134.8931476496
 20
38.8896599337
 30
0.0
 10
-134.8663562608
 20
38.9127704794
 30
0.0
 10
-134.8556965243
 20
38.9122694277
 30
0.0
  0
SPLINE
  5
5F4
100
AcDbEntity
  8
RACCORDO
100
AcDbSpline
 62
250
  6
CONTINUOUS
 70
0
 71
3
 72
20
 73
16
 74
0
 42
0.0000001
 43
0.0000001
 44
0.0000000001
 40
0.0
 40
0.0
 40
0.0
 40
0.0
 40
0.1912862456
 40
0.3729233072
 40
0.5393893727
 40
0.6869672233
 40
0.7525798091
 40
0.8119803772
 40
0.8645262198
 40
0.9094587907
 40
0.945992815
 40
0.9734280296
 40
0.9912365936
 40
0.9965882965
 40
1.0
 40
1.0
 40
1.0
 40
1.0
 10
-134.6260621676
 20
35.6315315353
 30
0.0
 10
-134.6105988323
 20
35.9011493193
 30
0.0
 10
-134.5933445625
 20
36.4275444397
 30
0.0
 10
-134.5913049726
 20
37.1890800084
 30
0.0
 10
-134.5946558369
 20
37.8888787481
 30
0.0
 10
-134.5910323508
 20
38.4249013008
 30
0.0
 10
-134.5822431849
 20
38.8096573913
 30
0.0
 10
-134.5744746964
 20
39.0602142503
 30
0.0
 10
-134.5661739228
 20
39.2815605712
 30
0.0
 10
-134.5591759936
 20
39.4705808232
 30
0.0
 10
-134.5552017094
 20
39.6244259601
 30
0.0
 10
-134.5560923324
 20
39.7395826006
 30
0.0
 10
-134.5619301134
 20
39.811524506
 30
0.0
 10
-134.5725562257
 20
39.8473247342
 30
0.0
 10
-134.5808987215
 20
39.8578780004
 30
0.0
 10
-134.5853675756
 20
39.8596751914
 30
0.0
  0
SPLINE
  5
5F5
100
AcDbEntity
  8
RACCORDO
100
AcDbSpline
 62
250
  6
CONTINUOUS
 70
0
 71
3
 72
15
 73
11
 74
0
 42
0.0000001
 43
0.0000001
 44
0.0000000001
 40
0.0
 40
0.0
 40
0.0
 40
0.0
 40
0.2500097059
 40
0.3750145636
 40
0.500019418
 40
0.6250242612
 40
0.7500289182
 40
0.8750308413
 40
0.9375256709
 40
1.0
 40
1.0
 40
1.0
 40
1.0
 10
-134.7191021607
 20
-0.0000095209
 30
0.0
 10
-134.7189851982
 20
2.9695748336
 30
0.0
 10
-134.7193337827
 20
7.4239517133
 30
0.0
 10
-134.7254790949
 20
13.3631188912
 30
0.0
 10
-134.7348937448
 20
17.8174840059
 30
0.0
 10
-134.7485418283
 20
22.2718463368
 30
0.0
 10
-134.7632760381
 20
26.726128124
 30
0.0
 10
-134.7643765151
 20
30.4380975449
 30
0.0
 10
-134.7217653148
 20
33.4069556527
 30
0.0
 10
-134.6685866501
 20
34.8906886358
 30
0.0
 10
-134.6260621676
 20
35.6315315353
 30
0.0
  0
SPLINE
  5
5F6
100
AcDbEntity
  8
RACCORDO
100
AcDbSpline
 62
250
  6
CONTINUOUS
 70
0
 71
3
 72
10
 73
6
 74
0
 42
0.0000001
 43
0.0000001
 44
0.0000000001
 40
0.0
 40
0.0
 40
0.0
 40
0.0
 40
0.0939464653
 40
0.2815314462
 40
1.0
 40
1.0
 40
1.0
 40
1.0
 10
-132.7032792095
 20
-41.3019476884
 30
0.0
 10
-132.6977627284
 20
-41.3020393232
 30
0.0
 10
-132.6850568851
 20
-41.2863851961
 30
0.0
 10
-132.6745770512
 20
-41.2307083483
 30
0.0
 10
-132.6700682084
 20
-41.1762488972
 30
0.0
 10
-132.6682213037
 20
-41.1340954674
 30
0.0
  0
SPLINE
  5
5F7
100
AcDbEntity
  8
RACCORDO
100
AcDbSpline
 62
250
  6
CONTINUOUS
 70
0
 71
3
 72
13
 73
9
 74
0
 42
0.0000001
 43
0.0000001
 44
0.0000000001
 40
0.0
 40
0.0
 40
0.0
 40
0.0
 40
0.054505521
 40
0.1351081873
 40
0.2395704743
 40
0.3649647826
 40
0.6642034951
 40
1.0
 40
1.0
 40
1.0
 40
1.0
 10
-132.6682213037
 20
-41.1340954674
 30
0.0
 10
-132.6637399633
 20
-41.0318141392
 30
0.0
 10
-132.6650987601
 20
-40.7778822111
 30
0.0
 10
-132.6732821635
 20
-40.3280450162
 30
0.0
 10
-132.6839861161
 20
-39.7449651104
 30
0.0
 10
-132.6953678451
 20
-38.7512135793
 30
0.0
 10
-132.6995362424
 20
-37.3229165179
 30
0.0
 10
-132.7248831227
 20
-36.130088692
 30
0.0
 10
-132.7534794138
 20
-35.5000000194
 30
0.0
  0
LINE
  5
5F8
100
AcDbEntity
  8
RACCORDO
100
AcDbLine
 62
250
  6
CONTINUOUS
 10
-137.0564663123
 20
25.8883190714
 11
-137.056511726
 21
22.1973119597
  0
SPLINE
  5
5F9
100
AcDbEntity
  8
RACCORDO
100
AcDbSpline
 62
250
  6
CONTINUOUS
 70
0
 71
3
 72
13
 73
9
 74
0
 42
0.0000001
 43
0.0000001
 44
0.0000000001
 40
0.0
 40
0.0
 40
0.0
 40
0.0
 40
0.0459429198
 40
0.1179156888
 40
0.2169473665
 40
0.3406975985
 40
0.6475676973
 40
1.0
 40
1.0
 40
1.0
 40
1.0
 10
-84.3618049342
 20
-23.4761308412
 30
0.0
 10
-84.3669031168
 20
-23.4858610431
 30
0.0
 10
-84.3905091308
 20
-23.5039835582
 30
0.0
 10
-84.4377675142
 20
-23.524390712
 30
0.0
 10
-84.5058181598
 20
-23.5440870809
 30
0.0
 10
-84.6298891189
 20
-23.5693042086
 30
0.0
 10
-84.8162120175
 20
-23.5906523416
 30
0.0
 10
-84.9737309635
 20
-23.5994451925
 30
0.0
 10
-85.057995394
 20
-23.6000000227
 30
0.0
  0
SPLINE
  5
5FA
100
AcDbEntity
  8
RACCORDO
100
AcDbSpline
 62
250
  6
CONTINUOUS
 70
0
 71
3
 72
9
 73
5
 74
0
 42
0.0000001
 43
0.0000001
 44
0.0000000001
 40
0.0
 40
0.0
 40
0.0
 40
0.0
 40
0.2391107882
 40
1.0
 40
1.0
 40
1.0
 40
1.0
 10
-84.3618049342
 20
-23.4761308412
 30
0.0
 10
-84.3613832836
 20
-23.4859970772
 30
0.0
 10
-84.3598266427
 20
-23.5272683276
 30
0.0
 10
-84.3593263283
 20
-23.5685753863
 30
0.0
 10
-84.3593414324
 20
-23.6
 30
0.0
  0
SPLINE
  5
5FB
100
AcDbEntity
  8
RACCORDO
100
AcDbSpline
 62
250
  6
CONTINUOUS
 70
0
 71
3
 72
9
 73
5
 74
0
 42
0.0000001
 43
0.0000001
 44
0.0000000001
 40
0.0
 40
0.0
 40
0.0
 40
0.0
 40
0.5837842155
 40
1.0
 40
1.0
 40
1.0
 40
1.0
 10
-85.4376713161
 20
-22.9810015617
 30
0.0
 10
-85.4387816628
 20
-23.101476454
 30
0.0
 10
-85.4417143404
 20
-23.3078280186
 30
0.0
 10
-85.4462604875
 20
-23.5141789959
 30
0.0
 10
-85.4498879317
 20
-23.6
 30
0.0
  0
LINE
  5
5FC
100
AcDbEntity
  8
RACCORDO
100
AcDbLine
 62
7
  6
CONTINUOUS
 10
-85.4498879317
 20
-23.6
 11
-85.057767999
 21
-23.6
  0
SPLINE
  5
5FD
100
AcDbEntity
  8
RACCORDO
100
AcDbSpline
 62
250
  6
CONTINUOUS
 70
0
 71
3
 72
13
 73
9
 74
0
 42
0.0000001
 43
0.0000001
 44
0.0000000001
 40
0.0
 40
0.0
 40
0.0
 40
0.0
 40
0.3169055624
 40
0.4593581398
 40
0.5847123574
 40
0.7815356642
 40
0.8761962046
 40
1.0
 40
1.0
 40
1.0
 40
1.0
 10
-85.4376712472
 20
-22.9810015616
 30
0.0
 10
-85.2968195715
 20
-22.981404286
 30
0.0
 10
-85.0927181225
 20
-22.9883986292
 30
0.0
 10
-84.8338053586
 20
-23.0209171094
 30
0.0
 10
-84.6341847323
 20
-23.0646555885
 30
0.0
 10
-84.4526296318
 20
-23.150427951
 30
0.0
 10
-84.371993604
 20
-23.3234666788
 30
0.0
 10
-84.3643002652
 20
-23.4211614565
 30
0.0
 10
-84.3618049342
 20
-23.4761308412
 30
0.0
  0
SPLINE
  5
5FE
100
AcDbEntity
  8
RACCORDO
100
AcDbSpline
 62
250
  6
CONTINUOUS
 70
0
 71
3
 72
9
 73
5
 74
0
 42
0.0000001
 43
0.0000001
 44
0.0000000001
 40
0.0
 40
0.0
 40
0.0
 40
0.0
 40
0.6069588483
 40
1.0
 40
1.0
 40
1.0
 40
1.0
 10
-89.8446522099
 20
-22.9461426692
 30
0.0
 10
-89.8455347715
 20
-23.0784554119
 30
0.0
 10
-89.848452994
 20
-23.2964108679
 30
0.0
 10
-89.8523908038
 20
-23.5144349999
 30
0.0
 10
-89.8568688943
 20
-23.6
 30
0.0
  0
LINE
  5
5FF
100
AcDbEntity
  8
RACCORDO
100
AcDbLine
 62
7
  6
CONTINUOUS
 10
-89.8568688859
 20
-23.6
 11
-85.4498879317
 21
-23.6
  0
SPLINE
  5
600
100
AcDbEntity
  8
RACCORDO
100
AcDbSpline
 62
7
  6
CONTINUOUS
 70
0
 71
3
 72
9
 73
5
 74
0
 42
0.0000001
 43
0.0000001
 44
0.0000000001
 40
0.0
 40
0.0
 40
0.0
 40
0.0
 40
0.50000007
 40
1.0
 40
1.0
 40
1.0
 40
1.0
 10
-90.1568688943
 20
-23.9000000084
 30
0.0
 10
-90.1569884326
 20
-23.8234637795
 30
0.0
 10
-90.0928008933
 20
-23.6640693277
 30
0.0
 10
-89.9334050891
 20
-23.5998777622
 30
0.0
 10
-89.8568688859
 20
-23.6
 30
0.0
  0
SPLINE
  5
601
100
AcDbEntity
  8
RACCORDO
100
AcDbSpline
 62
250
  6
CONTINUOUS
 70
0
 71
3
 72
11
 73
7
 74
0
 42
0.0000001
 43
0.0000001
 44
0.0000000001
 40
0.0
 40
0.0
 40
0.0
 40
0.0
 40
0.2500119513
 40
0.5000254825
 40
0.7500239284
 40
1.0
 40
1.0
 40
1.0
 40
1.0
 10
-90.8046713246
 20
-23.9
 30
0.0
 10
-90.8048255103
 20
-23.7754275567
 30
0.0
 10
-90.7545463401
 20
-23.5235397513
 30
0.0
 10
-90.5406864547
 20
-23.2055978288
 30
0.0
 10
-90.2213973931
 20
-22.9937823424
 30
0.0
 10
-89.9692029524
 20
-22.945154693
 30
0.0
 10
-89.8446522098
 20
-22.9461426692
 30
0.0
  0
SPLINE
  5
602
100
AcDbEntity
  8
RACCORDO
100
AcDbSpline
 62
250
  6
CONTINUOUS
 70
0
 71
3
 72
9
 73
5
 74
0
 42
0.0000001
 43
0.0000001
 44
0.0000000001
 40
0.0
 40
0.0
 40
0.0
 40
0.0
 40
0.6069615435
 40
1.0
 40
1.0
 40
1.0
 40
1.0
 10
-89.8446519722
 20
-30.0538573304
 30
0.0
 10
-89.8455345024
 20
-29.9215450835
 30
0.0
 10
-89.8484527564
 20
-29.7035914146
 30
0.0
 10
-89.8523906947
 20
-29.4855690665
 30
0.0
 10
-89.8568688857
 20
-29.4000053627
 30
0.0
  0
SPLINE
  5
603
100
AcDbEntity
  8
RACCORDO
100
AcDbSpline
 62
7
  6
CONTINUOUS
 70
0
 71
3
 72
9
 73
5
 74
0
 42
0.0000001
 43
0.0000001
 44
0.0000000001
 40
0.0
 40
0.0
 40
0.0
 40
0.0
 40
0.5000000487
 40
1.0
 40
1.0
 40
1.0
 40
1.0
 10
-89.8568688857
 20
-29.4
 30
0.0
 10
-89.933405108
 20
-29.400121697
 30
0.0
 10
-90.0928006439
 20
-29.3359309217
 30
0.0
 10
-90.1569889724
 20
-29.1765362016
 30
0.0
 10
-90.1568688943
 20
-29.0999999917
 30
0.0
  0
SPLINE
  5
604
100
AcDbEntity
  8
RACCORDO
100
AcDbSpline
 62
250
  6
CONTINUOUS
 70
0
 71
3
 72
9
 73
5
 74
0
 42
0.0000001
 43
0.0000001
 44
0.0000000001
 40
0.0
 40
0.0
 40
0.0
 40
0.0
 40
0.5837844229
 40
1.0
 40
1.0
 40
1.0
 40
1.0
 10
-85.4376712549
 20
-30.0189984384
 30
0.0
 10
-85.4387813613
 20
-29.8985234996
 30
0.0
 10
-85.4417137962
 20
-29.6921719317
 30
0.0
 10
-85.4462600584
 20
-29.4858209441
 30
0.0
 10
-85.4498879317
 20
-29.4
 30
0.0
  0
LINE
  5
605
100
AcDbEntity
  8
RACCORDO
100
AcDbLine
 62
7
  6
CONTINUOUS
 10
-85.4498879317
 20
-29.4
 11
-89.8568688857
 21
-29.4
  0
SPLINE
  5
606
100
AcDbEntity
  8
RACCORDO
100
AcDbSpline
 62
250
  6
CONTINUOUS
 70
0
 71
3
 72
11
 73
7
 74
0
 42
0.0000001
 43
0.0000001
 44
0.0000000001
 40
0.0
 40
0.0
 40
0.0
 40
0.0
 40
0.1546709422
 40
0.3842749279
 40
0.6760575445
 40
1.0
 40
1.0
 40
1.0
 40
1.0
 10
-84.372910713
 20
-29.636771722
 30
0.0
 10
-84.3892348926
 20
-29.6017795692
 30
0.0
 10
-84.4678001323
 20
-29.5369149696
 30
0.0
 10
-84.6224755189
 20
-29.4714687574
 30
0.0
 10
-84.8289720637
 20
-29.4216558031
 30
0.0
 10
-84.9819541172
 20
-29.4044383063
 30
0.0
 10
-85.0627022829
 20
-29.4
 30
0.0
  0
LINE
  5
607
100
AcDbEntity
  8
RACCORDO
100
AcDbLine
 62
7
  6
CONTINUOUS
 10
-85.057767999
 20
-29.4
 11
-85.4498879317
 21
-29.4
  0
SPLINE
  5
608
100
AcDbEntity
  8
RACCORDO
100
AcDbSpline
 62
250
  6
CONTINUOUS
 70
0
 71
3
 72
13
 73
9
 74
0
 42
0.0000001
 43
0.0000001
 44
0.0000000001
 40
0.0
 40
0.0
 40
0.0
 40
0.0
 40
0.1026422417
 40
0.1935612095
 40
0.2912459908
 40
0.4047774496
 40
0.6810894309
 40
1.0
 40
1.0
 40
1.0
 40
1.0
 10
-84.372910713
 20
-29.636771722
 30
0.0
 10
-84.3797590254
 20
-29.6780541692
 30
0.0
 10
-84.401973998
 20
-29.7557149801
 30
0.0
 10
-84.4786963648
 20
-29.8503290171
 30
0.0
 10
-84.5870245486
 20
-29.9126374386
 30
0.0
 10
-84.7768434685
 20
-29.9737227909
 30
0.0
 10
-85.0652232842
 20
-30.0098969212
 30
0.0
 10
-85.3076538662
 20
-30.0186258499
 30
0.0
 10
-85.4376712472
 20
-30.0189984384
 30
0.0
  0
SPLINE
  5
609
100
AcDbEntity
  8
RACCORDO
100
AcDbSpline
 62
250
  6
CONTINUOUS
 70
0
 71
3
 72
10
 73
6
 74
0
 42
0.0000001
 43
0.0000001
 44
0.0000000001
 40
0.0
 40
0.0
 40
0.0
 40
0.0
 40
0.5462813582
 40
0.7932626788
 40
1.0
 40
1.0
 40
1.0
 40
1.0
 10
-84.3593414324
 20
-29.4
 30
0.0
 10
-84.3593821676
 20
-29.4432343256
 30
0.0
 10
-84.3603440685
 20
-29.506074102
 30
0.0
 10
-84.3651902677
 20
-29.584999987
 30
0.0
 10
-84.3691133299
 20
-29.6208566738
 30
0.0
 10
-84.372910713
 20
-29.636771722
 30
0.0
  0
ENDSEC
  0
SECTION
  2
OBJECTS
  0
DICTIONARY
  5
C
100
AcDbDictionary
280
0
281
1
  3
ACAD_GROUP
350
D
  3
ACAD_MLINESTYLE
350
17
  3
ACAD_LAYOUT
350
1A
  3
ACAD_PLOTSETTINGS
350
19
  3
ACAD_PLOTSTYLENAME
350
E
  0
DICTIONARY
  5
D
102
{ACAD_REACTORS
330
C
102
}
100
AcDbDictionary
280
0
281
1
  0
ACDBDICTIONARYWDFLT
  5
E
102
{ACAD_REACTORS
330
C
102
}
100
AcDbDictionary
281
1
  3
Normal
350
F
100
AcDbDictionaryWithDefault
340
F
  0
DICTIONARY
  5
17
102
{ACAD_REACTORS
330
C
102
}
100
AcDbDictionary
280
0
281
1
  3
Standard
350
18
  0
DICTIONARY
  5
19
102
{ACAD_REACTORS
330
C
102
}
100
AcDbDictionary
281
1
  0
DICTIONARY
  5
1A
102
{ACAD_REACTORS
330
C
102
}
100
AcDbDictionary
281
1
  3
Model
350
60A
  3
Layout1
350
60B
  0
ACDBPLACEHOLDER
  5
F
102
{ACAD_REACTORS
330
E
102
}
  0
MLINESTYLE
  5
18
102
{ACAD_REACTORS
330
17
102
}
100
AcDbMlineStyle
  2
STANDARD
 70
0
  3

 62
256
 51
90.0
 52
90.0
 71
2
 49
0.5
 62
256
  6
BYLAYER
 49
-0.5
 62
256
  6
BYLAYER
  0
LAYOUT
  5
60A
102
{ACAD_REACTORS
330
1A
102
}
100
AcDbPlotSettings
  1

  2
none_device
  4
ISO_A4_(297.00_x_210.00_MM)
  6

 40
0.0
 41
0.0
 42
0.0
 43
0.0
 44
297.0
 45
210.0
 46
0.0
 47
0.0
 48
0.0
 49
0.0
140
0.0
141
0.0
142
1.0
143
1.0
 70
1024
 72
1
 73
0
 74
0
  7

 75
0
147
1.0
148
0.0
149
0.0
100
AcDbLayout
  1
Model
 70
0
 71
0
 10
0.0
 20
0.0
 11
297.0
 21
210.0
 12
0.0
 22
0.0
 32
0.0
 14
0.0
 24
0.0
 34
0.0
 15
0.0
 25
0.0
 35
0.0
146
0.0
 13
0.0
 23
0.0
 33
0.0
 16
1.0
 26
0.0
 36
0.0
 17
0.0
 27
1.0
 37
0.0
 76
0
330
218
345
0
346
0
  0
LAYOUT
  5
60B
102
{ACAD_REACTORS
330
1A
102
}
100
AcDbPlotSettings
  1

  2
none_device
  4
ISO_A4_(297.00_x_210.00_MM)
  6

 40
0.0
 41
0.0
 42
0.0
 43
0.0
 44
297.0
 45
210.0
 46
0.0
 47
0.0
 48
0.0
 49
0.0
140
0.0
141
0.0
142
1.0
143
1.0
 70
0
 72
1
 73
0
 74
0
  7

 75
0
147
1.0
148
0.0
149
0.0
100
AcDbLayout
  1
Layout1
 70
0
 71
1
 10
0.0
 20
0.0
 11
297.0
 21
210.0
 12
0.0
 22
0.0
 32
0.0
 14
0.0
 24
0.0
 34
0.0
 15
0.0
 25
0.0
 35
0.0
146
0.0
 13
0.0
 23
0.0
 33
0.0
 16
1.0
 26
0.0
 36
0.0
 17
0.0
 27
1.0
 37
0.0
 76
0
330
219
345
0
346
0
  0
ENDSEC
  0
EOF
