  0
SECTION
  2
HEADER
  9
$ACADVER
  1
AC1024
  9
$DWGCODEPAGE
  3
ANSI_1252
  9
$EXTMAX
 10
297.0
 20
210.0
 30
0.0
  9
$EXTMIN
 10
0.0
 20
0.0
 30
0.0
  9
$LIMMIN
 10
0.0
 20
0.0
  9
$LIMMAX
 10
297.0
 20
210.0
  9
$VIEWCTR
 10
148.5
 20
105.0
  9
$VIEWSIZE
 40
210.0
  9
$CLAYER
  8
0
  9
$LTSCALE
 40
16.335
  9
$CELTYPE
  6
BYLAYER
  9
$DIMSCALE
 40
1.0
  9
$DIMASZ
 40
3.0
  9
$DIMEXO
 40
0.5
  9
$DIMDLI
 40
11.286
  9
$DIMEXE
 40
1.5
  9
$DIMCEN
 40
2.673
  9
$DIMLFAC
 40
1.0
  9
$DIMBLK
  1
_FILLED
  9
$DIMALT
 70
0
  9
$DIMALTF
 40
0.0393700787
  9
$DIMTXT
 40
3.0
  9
$DIMTOL
 70
1
  9
$DIMLIM
 70
0
  9
$DIMTFAC
 40
1.0
  9
$DIMTP
 40
0.01
  9
$DIMTM
 40
0.01
  9
$DIMGAP
 40
0.625
  9
$DIMDSEP
 70
44
  9
$AUNITS
 70
0
  9
$PDMODE
 70
3
  9
$PDSIZE
 40
3.0
  9
$HANDSEED
  5
75B
  9
$TILEMODE
 70
1
  9
$MEASUREMENT
 70
1
  9
$INSUNITS
 70
4
  0
ENDSEC
  0
SECTION
  2
CLASSES
  0
CLASS
  1
ACDBDICTIONARYWDFLT
  2
AcDbDictionaryWithDefault
  3
AutoCAD 2000
 90
0
 91
1
280
0
281
0
  0
CLASS
  1
ACDBPLACEHOLDER
  2
AcDbPlaceHolder
  3
AutoCAD 2000
 90
0
 91
1
280
0
281
0
  0
CLASS
  1
LAYOUT
  2
AcDbLayout
  3
AutoCAD 2000
 90
0
 91
0
280
0
281
0
  0
ENDSEC
  0
SECTION
  2
TABLES
  0
TABLE
  2
VPORT
  5
8
100
AcDbSymbolTable
 70
2
  0
VPORT
  5
1F4
100
AcDbSymbolTableRecord
100
AcDbViewportTableRecord
  2
*ACTIVE
 70
0
 10
0.0
 20
0.0
 11
1.0
 21
1.0
 12
148.5
 22
105.0
 13
0.0
 23
0.0
 14
1.0
 24
1.0
 15
0.0
 25
0.0
 16
0.0
 26
0.0
 36
1.0
 17
0.0
 27
0.0
 37
0.0
 40
210.0
 41
1.4142857143
 42
50.0
 43
0.0
 44
0.0
 50
0.0
 51
0.0
 71
0
 72
100
 73
1
 74
1
 75
0
 76
0
 77
0
 78
0
  0
ENDTAB
  0
TABLE
  2
LTYPE
  5
5
100
AcDbSymbolTable
 70
6
  0
LTYPE
  5
14
100
AcDbSymbolTableRecord
100
AcDbLinetypeTableRecord
  2
BYBLOCK
 70
0
  3

 72
65
 73
0
 40
0.0
  0
LTYPE
  5
15
100
AcDbSymbolTableRecord
100
AcDbLinetypeTableRecord
  2
BYLAYER
 70
0
  3

 72
65
 73
0
 40
0.0
  0
LTYPE
  5
16
100
AcDbSymbolTableRecord
100
AcDbLinetypeTableRecord
  2
CONTINUOUS
 70
64
  3
Solid line
 72
65
 73
0
 40
0.0
  0
LTYPE
  5
1F5
100
AcDbSymbolTableRecord
100
AcDbLinetypeTableRecord
  2
CENTER
 70
64
  3
____ _ ____ _ ____ _ ____ _ ____ _ ____ _ ____
 72
65
 73
4
 40
0.6
 49
0.375
 74
0
 49
-0.075
 74
0
 49
0.075
 74
0
 49
-0.075
 74
0
  0
LTYPE
  5
1F6
100
AcDbSymbolTableRecord
100
AcDbLinetypeTableRecord
  2
HIDDEN
 70
64
  3
- - - - - - - - - - - - - - - - - - - -
 72
65
 73
2
 40
0.2
 49
0.1
 74
0
 49
-0.1
 74
0
  0
LTYPE
  5
1F7
100
AcDbSymbolTableRecord
100
AcDbLinetypeTableRecord
  2
PHANTOM
 70
64
  3
_____ _ _ _____ _ _ _____ _ _ _____
 72
65
 73
6
 40
0.8
 49
0.45
 74
0
 49
-0.05
 74
0
 49
0.1
 74
0
 49
-0.05
 74
0
 49
0.1
 74
0
 49
-0.05
 74
0
  0
LTYPE
  5
1F8
100
AcDbSymbolTableRecord
100
AcDbLinetypeTableRecord
  2
DOT
 70
64
  3
. . . . . . . . . . . . . . . . . . . .
 72
65
 73
2
 40
0.2
 49
0.1
 74
0
 49
-0.1
 74
0
  0
LTYPE
  5
1F9
100
AcDbSymbolTableRecord
100
AcDbLinetypeTableRecord
  2
DASHED
 70
64
  3
- - - - - - - - - - - - - - - - - - - -
 72
65
 73
2
 40
0.2
 49
0.1
 74
0
 49
-0.1
 74
0
  0
ENDTAB
  0
TABLE
  2
LAYER
  5
2
100
AcDbSymbolTable
 70
36
  0
LAYER
  5
10
100
AcDbSymbolTableRecord
100
AcDbLayerTableRecord
  2
0
 70
0
 62
7
  6
CONTINUOUS
370
-3
390
F
  0
LAYER
  5
1FA
100
AcDbSymbolTableRecord
100
AcDbLayerTableRecord
  2
DEFAULT_1
 70
0
 62
7
  6
CENTER
370
-3
390
F
  0
LAYER
  5
1FB
100
AcDbSymbolTableRecord
100
AcDbLayerTableRecord
  2
DEFAULT_2
 70
0
 62
7
  6
HIDDEN
370
-3
390
F
  0
LAYER
  5
1FC
100
AcDbSymbolTableRecord
100
AcDbLayerTableRecord
  2
DEFAULT_3
 70
0
 62
7
  6
PHANTOM
370
-3
390
F
  0
LAYER
  5
1FD
100
AcDbSymbolTableRecord
100
AcDbLayerTableRecord
  2
ASSI
 70
0
 62
7
  6
CONTINUOUS
370
-3
390
F
  0
LAYER
  5
1FE
100
AcDbSymbolTableRecord
100
AcDbLayerTableRecord
  2
COLOR5
 70
0
 62
7
  6
CONTINUOUS
370
-3
390
F
  0
LAYER
  5
1FF
100
AcDbSymbolTableRecord
100
AcDbLayerTableRecord
  2
COORDINATE
 70
0
 62
7
  6
CONTINUOUS
370
-3
390
F
  0
LAYER
  5
200
100
AcDbSymbolTableRecord
100
AcDbLayerTableRecord
  2
COORD_ORIGINE
 70
0
 62
7
  6
CONTINUOUS
370
-3
390
F
  0
LAYER
  5
201
100
AcDbSymbolTableRecord
100
AcDbLayerTableRecord
  2
CURVE
 70
0
 62
7
  6
CONTINUOUS
370
-3
390
F
  0
LAYER
  5
202
100
AcDbSymbolTableRecord
100
AcDbLayerTableRecord
  2
DRAFT
 70
0
 62
7
  6
CONTINUOUS
370
-3
390
F
  0
LAYER
  5
203
100
AcDbSymbolTableRecord
100
AcDbLayerTableRecord
  2
IGES_SCRITTE
 70
0
 62
7
  6
CONTINUOUS
370
-3
390
F
  0
LAYER
  5
204
100
AcDbSymbolTableRecord
100
AcDbLayerTableRecord
  2
IMPORT_FEATURE
 70
0
 62
7
  6
CONTINUOUS
370
-3
390
F
  0
LAYER
  5
205
100
AcDbSymbolTableRecord
100
AcDbLayerTableRecord
  2
IMPORT_IGS
 70
0
 62
7
  6
CONTINUOUS
370
-3
390
F
  0
LAYER
  5
206
100
AcDbSymbolTableRecord
100
AcDbLayerTableRecord
  2
INTF_1
 70
0
 62
7
  6
CONTINUOUS
370
-3
390
F
  0
LAYER
  5
207
100
AcDbSymbolTableRecord
100
AcDbLayerTableRecord
  2
INTF_7
 70
0
 62
7
  6
CONTINUOUS
370
-3
390
F
  0
LAYER
  5
208
100
AcDbSymbolTableRecord
100
AcDbLayerTableRecord
  2
NOTE
 70
0
 62
7
  6
CONTINUOUS
370
-3
390
F
  0
LAYER
  5
209
100
AcDbSymbolTableRecord
100
AcDbLayerTableRecord
  2
PIANI
 70
0
 62
7
  6
CONTINUOUS
370
-3
390
F
  0
LAYER
  5
20A
100
AcDbSymbolTableRecord
100
AcDbLayerTableRecord
  2
PIANI_ORIGINE
 70
0
 62
7
  6
CONTINUOUS
370
-3
390
F
  0
LAYER
  5
20B
100
AcDbSymbolTableRecord
100
AcDbLayerTableRecord
  2
PUNTI
 70
0
 62
7
  6
CONTINUOUS
370
-3
390
F
  0
LAYER
  5
20C
100
AcDbSymbolTableRecord
100
AcDbLayerTableRecord
  2
RACCORDO
 70
0
 62
7
  6
CONTINUOUS
370
-3
390
F
  0
LAYER
  5
20D
100
AcDbSymbolTableRecord
100
AcDbLayerTableRecord
  2
RGB__255__255__255__
 70
0
 62
7
  6
CONTINUOUS
370
-3
390
F
  0
LAYER
  5
20E
100
AcDbSymbolTableRecord
100
AcDbLayerTableRecord
  2
RGB____0____0____0__
 70
0
 62
7
  6
CONTINUOUS
370
-3
390
F
  0
LAYER
  5
20F
100
AcDbSymbolTableRecord
100
AcDbLayerTableRecord
  2
SKEL
 70
0
 62
7
  6
CONTINUOUS
370
-3
390
F
  0
LAYER
  5
210
100
AcDbSymbolTableRecord
100
AcDbLayerTableRecord
  2
SMUSSO
 70
0
 62
7
  6
CONTINUOUS
370
-3
390
F
  0
LAYER
  5
211
100
AcDbSymbolTableRecord
100
AcDbLayerTableRecord
  2
SNAPLINE
 70
0
 62
7
  6
CONTINUOUS
370
-3
390
F
  0
LAYER
  5
212
100
AcDbSymbolTableRecord
100
AcDbLayerTableRecord
  2
SUPERFICI
 70
0
 62
7
  6
CONTINUOUS
370
-3
390
F
  0
LAYER
  5
213
100
AcDbSymbolTableRecord
100
AcDbLayerTableRecord
  2
TRASH
 70
0
 62
7
  6
CONTINUOUS
370
-3
390
F
  0
LAYER
  5
214
100
AcDbSymbolTableRecord
100
AcDbLayerTableRecord
  2
XSEC_DATUMS
 70
0
 62
7
  6
CONTINUOUS
370
-3
390
F
  0
LAYER
  5
215
100
AcDbSymbolTableRecord
100
AcDbLayerTableRecord
  2
___SHELL
 70
0
 62
7
  6
CONTINUOUS
370
-3
390
F
  0
ENDTAB
  0
TABLE
  2
STYLE
  5
3
100
AcDbSymbolTable
 70
1
  0
STYLE
  5
11
100
AcDbSymbolTableRecord
100
AcDbTextStyleTableRecord
  2
STANDARD
 70
0
 40
0.0
 41
0.8
 50
0.0
 71
0
 42
0.2
  3
txt
  4

  0
STYLE
  5
216
100
AcDbSymbolTableRecord
100
AcDbTextStyleTableRecord
  2
TEXTSTYLE_1
 70
0
 40
0.0
 41
0.8
 50
0.0
 71
0
 42
0.2
  3
gdt
  4

  0
ENDTAB
  0
TABLE
  2
VIEW
  5
6
100
AcDbSymbolTable
 70
0
  0
ENDTAB
  0
TABLE
  2
UCS
  5
7
100
AcDbSymbolTable
 70
0
  0
ENDTAB
  0
TABLE
  2
APPID
  5
9
100
AcDbSymbolTable
 70
1
  0
APPID
  5
217
100
AcDbSymbolTableRecord
100
AcDbRegAppTableRecord
  2
ACAD
 70
0
  0
ENDTAB
  0
TABLE
  2
BLOCK_RECORD
  5
1
100
AcDbSymbolTable
 70
0
  0
BLOCK_RECORD
  5
218
100
AcDbSymbolTableRecord
100
AcDbBlockTableRecord
  2
*Model_Space
  0
BLOCK_RECORD
  5
219
100
AcDbSymbolTableRecord
100
AcDbBlockTableRecord
  2
*Paper_Space
  0
BLOCK_RECORD
  5
21A
100
AcDbSymbolTableRecord
100
AcDbBlockTableRecord
  2
_FILLED
  0
BLOCK_RECORD
  5
21B
100
AcDbSymbolTableRecord
100
AcDbBlockTableRecord
  2
*D0
  0
BLOCK_RECORD
  5
21C
100
AcDbSymbolTableRecord
100
AcDbBlockTableRecord
  2
*D1
  0
BLOCK_RECORD
  5
21D
100
AcDbSymbolTableRecord
100
AcDbBlockTableRecord
  2
*D2
  0
ENDTAB
  0
TABLE
  2
DIMSTYLE
  5
A
100
AcDbSymbolTable
 70
1
100
AcDbDimStyleTable
 71
0
  0
DIMSTYLE
105
21E
100
AcDbSymbolTableRecord
100
AcDbDimStyleTableRecord
  2
STANDARD
 70
0
  3

  4

 40
1.0
 41
3.0
 42
0.5
 43
0.38
 44
1.5
 45
0.0
 46
0.0
 47
0.01
 48
0.01
140
3.0
141
0.09
142
0.0
143
25.4
144
1.0
145
0.0
146
1.0
147
0.625
 71
1
 72
0
 73
0
 74
0
 75
0
 76
0
 77
1
 78
8
 79
2
170
0
171
1
172
0
173
0
174
0
175
0
176
0
177
0
178
0
270
2
179
2
271
2
272
2
273
2
274
2
275
0
280
0
281
0
282
0
283
1
284
8
285
0
286
0
287
3
288
0
340
11
278
44
341
21A
342
21A
343
21A
344
21A
  0
DIMSTYLE
105
21F
100
AcDbSymbolTableRecord
100
AcDbDimStyleTableRecord
  2
DIMSTYLE_1
 70
0
  3

  4

 40
1.0
 41
3.0
 42
0.5
 43
0.38
 44
1.5
 45
0.0
 46
0.0
 47
0.0
 48
0.0
140
3.0
141
0.09
142
0.0
143
25.4
144
1.0
145
0.0
146
1.0
147
0.75
 71
0
 72
0
 73
0
 74
0
 75
0
 76
0
 77
1
 78
8
 79
2
170
0
171
1
172
0
173
0
174
0
175
0
176
0
177
0
178
0
270
2
179
2
271
2
272
2
273
2
274
2
275
0
280
0
281
0
282
0
283
1
284
8
285
0
286
0
287
3
288
0
340
11
278
44
341
21A
342
21A
343
21A
344
21A
  0
ENDTAB
  0
ENDSEC
  0
SECTION
  2
BLOCKS
  0
BLOCK
  5
20
100
AcDbEntity
  8
0
100
AcDbBlockBegin
  2
*Model_Space
 70
0
 10
0.0
 20
0.0
 30
0.0
  3
*Model_Space
  1

  0
ENDBLK
  5
21
100
AcDbEntity
  8
0
100
AcDbBlockEnd
  0
BLOCK
  5
1C
100
AcDbEntity
  8
0
100
AcDbBlockBegin
  2
*Paper_Space
 70
0
 10
0.0
 20
0.0
 30
0.0
  3
*Paper_Space
  1

  0
ENDBLK
  5
1D
100
AcDbEntity
  8
0
100
AcDbBlockEnd
  0
BLOCK
  5
220
100
AcDbEntity
  8
0
100
AcDbBlockBegin
  2
_FILLED
 70
64
 10
0.0
 20
0.0
  3
_FILLED
  1

  0
SOLID
  5
221
100
AcDbEntity
  8
0
  6
BYBLOCK
 62
0
100
AcDbTrace
 10
0.0
 20
0.0
 11
-1.0
 21
0.3166666667
 12
-1.0
 22
-0.3166666667
 13
-1.0
 23
-0.3166666667
  0
ENDBLK
  5
222
100
AcDbEntity
  8
0
  6
BYBLOCK
 62
0
100
AcDbBlockEnd
  0
BLOCK
  5
223
100
AcDbEntity
  8
0
100
AcDbBlockBegin
 62
7
  6
CONTINUOUS
  2
*D0
 70
65
 10
0.0
 20
0.0
  3
*D0
  1

  0
LINE
  5
224
100
AcDbEntity
  8
0
100
AcDbLine
 62
7
  6
CONTINUOUS
 10
-191.4735451389
 20
22.7
 11
-191.4735451389
 21
51.0000004316
  0
LINE
  5
225
100
AcDbEntity
  8
0
100
AcDbLine
 62
7
  6
CONTINUOUS
 10
-136.9735451389
 20
35.999999123
 11
-136.9735451389
 21
51.0000004316
  0
LINE
  5
226
100
AcDbEntity
  8
0
100
AcDbLine
 62
7
  6
CONTINUOUS
 10
-191.4735451389
 20
49.5000004316
 11
-164.2235451389
 21
49.5000004316
  0
LINE
  5
227
100
AcDbEntity
  8
0
100
AcDbLine
 62
7
  6
CONTINUOUS
 10
-136.9735451389
 20
49.5000004316
 11
-164.2235451389
 21
49.5000004316
  0
INSERT
  5
228
100
AcDbEntity
  8
0
100
AcDbBlockReference
 62
7
  6
CONTINUOUS
  2
_FILLED
 10
-191.4735451389
 20
49.5000004316
 41
3.0
 42
3.0
 43
3.0
 50
180.0
  0
INSERT
  5
229
100
AcDbEntity
  8
0
100
AcDbBlockReference
 62
7
  6
CONTINUOUS
  2
_FILLED
 10
-136.9735451389
 20
49.5000004316
 41
3.0
 42
3.0
 43
3.0
  0
ENDBLK
  5
22A
100
AcDbEntity
  8
0
  6
BYBLOCK
 62
0
100
AcDbBlockEnd
  0
BLOCK
  5
22B
100
AcDbEntity
  8
0
100
AcDbBlockBegin
 62
7
  6
CONTINUOUS
  2
*D1
 70
65
 10
0.0
 20
0.0
  3
*D1
  1

  0
LINE
  5
22C
100
AcDbEntity
  8
0
100
AcDbLine
 62
7
  6
CONTINUOUS
 10
-119.0
 20
36.0
 11
-119.0
 21
51.0000004316
  0
LINE
  5
22D
100
AcDbEntity
  8
0
100
AcDbLine
 62
7
  6
CONTINUOUS
 10
119.0
 20
36.0
 11
119.0
 21
51.0000004316
  0
LINE
  5
22E
100
AcDbEntity
  8
0
100
AcDbLine
 62
7
  6
CONTINUOUS
 10
-119.0
 20
49.5000004316
 11
0.0
 21
49.5000004316
  0
LINE
  5
22F
100
AcDbEntity
  8
0
100
AcDbLine
 62
7
  6
CONTINUOUS
 10
119.0
 20
49.5000004316
 11
0.0
 21
49.5000004316
  0
INSERT
  5
230
100
AcDbEntity
  8
0
100
AcDbBlockReference
 62
7
  6
CONTINUOUS
  2
_FILLED
 10
-119.0
 20
49.5000004316
 41
3.0
 42
3.0
 43
3.0
 50
180.0
  0
INSERT
  5
231
100
AcDbEntity
  8
0
100
AcDbBlockReference
 62
7
  6
CONTINUOUS
  2
_FILLED
 10
119.0
 20
49.5000004316
 41
3.0
 42
3.0
 43
3.0
  0
ENDBLK
  5
232
100
AcDbEntity
  8
0
  6
BYBLOCK
 62
0
100
AcDbBlockEnd
  0
BLOCK
  5
233
100
AcDbEntity
  8
0
100
AcDbBlockBegin
 62
7
  6
CONTINUOUS
  2
*D2
 70
65
 10
0.0
 20
0.0
  3
*D2
  1

  0
LINE
  5
234
100
AcDbEntity
  8
0
100
AcDbLine
 62
7
  6
CONTINUOUS
 10
113.5
 20
41.5
 11
128.500000424
 21
41.5
  0
LINE
  5
235
100
AcDbEntity
  8
0
100
AcDbLine
 62
7
  6
CONTINUOUS
 10
113.5
 20
-41.5
 11
128.500000424
 21
-41.5
  0
LINE
  5
236
100
AcDbEntity
  8
0
100
AcDbLine
 62
7
  6
CONTINUOUS
 10
127.000000424
 20
41.5
 11
127.000000424
 21
0.0
  0
LINE
  5
237
100
AcDbEntity
  8
0
100
AcDbLine
 62
7
  6
CONTINUOUS
 10
127.000000424
 20
-41.5
 11
127.000000424
 21
0.0
  0
INSERT
  5
238
100
AcDbEntity
  8
0
100
AcDbBlockReference
 62
7
  6
CONTINUOUS
  2
_FILLED
 10
127.000000424
 20
41.5
 41
3.0
 42
3.0
 43
3.0
 50
90.0
  0
INSERT
  5
239
100
AcDbEntity
  8
0
100
AcDbBlockReference
 62
7
  6
CONTINUOUS
  2
_FILLED
 10
127.000000424
 20
-41.5
 41
3.0
 42
3.0
 43
3.0
 50
270.0
  0
ENDBLK
  5
23A
100
AcDbEntity
  8
0
  6
BYBLOCK
 62
0
100
AcDbBlockEnd
  0
ENDSEC
  0
SECTION
  2
ENTITIES
  0
DIMENSION
  5
23B
100
AcDbEntity
  8
0
100
AcDbDimension
 62
7
  6
CONTINUOUS
  2
*D0
 10
-136.9735451389
 20
49.5000004316
 11
-168.4021165675
 21
49.5000004316
 70
160
 71
2
 72
2
 41
0.9
 42
54.5
  3
DIMSTYLE_1
100
AcDbAlignedDimension
 13
-191.4735451389
 23
22.2
 14
-136.9735451389
 24
35.499999123
100
AcDbRotatedDimension
  0
DIMENSION
  5
23C
100
AcDbEntity
  8
0
100
AcDbDimension
 62
7
  6
CONTINUOUS
  2
*D1
 10
119.0
 20
49.5000004316
 11
-3.4285714286
 21
49.5000004316
 70
160
 71
2
 72
2
 41
0.9
 42
238.0
  3
DIMSTYLE_1
100
AcDbAlignedDimension
 13
-119.0
 23
35.5
 14
119.0
 24
35.5
100
AcDbRotatedDimension
  0
DIMENSION
  5
23D
100
AcDbEntity
  8
0
100
AcDbDimension
 62
7
  6
CONTINUOUS
  2
*D2
 10
127.000000424
 20
-41.5
 11
127.000000424
 21
-2.25
 70
160
 71
2
 72
2
 41
0.9
 42
83.0
  3
DIMSTYLE_1
100
AcDbAlignedDimension
 13
113.0
 23
41.5
 14
113.0
 24
-41.5
 50
270.0
100
AcDbRotatedDimension
  0
LWPOLYLINE
  5
23E
100
AcDbEntity
  8
RACCORDO
100
AcDbPolyline
 62
250
  6
CONTINUOUS
 90
3
 70
0
 10
-117.2343417144
 20
-33.4635288573
 10
-117.238352627
 20
-33.2700129636
 10
-117.2497644601
 20
-32.8584813453
  0
LWPOLYLINE
  5
23F
100
AcDbEntity
  8
RACCORDO
100
AcDbPolyline
 62
250
  6
CONTINUOUS
 90
4
 70
0
 10
-117.2497644601
 20
-32.8584813453
 10
-117.2587228727
 20
-32.4380464856
 10
-117.2623218718
 20
-32.2123193418
 10
-117.2640254793
 20
-31.9825850217
  0
LINE
  5
240
100
AcDbEntity
  8
RACCORDO
100
AcDbLine
 62
250
  6
CONTINUOUS
 10
-117.207986942
 20
-35.6027333004
 11
-117.2145032003
 21
-35.2179494714
  0
LINE
  5
241
100
AcDbEntity
  8
RACCORDO
100
AcDbLine
 62
250
  6
CONTINUOUS
 10
-117.2267242372
 20
-34.0049821074
 11
-117.2343417144
 21
-33.4635288573
  0
LWPOLYLINE
  5
242
100
AcDbEntity
  8
RACCORDO
100
AcDbPolyline
 62
250
  6
CONTINUOUS
 90
3
 70
0
 10
-117.2145032003
 20
-35.2179494714
 10
-117.2194552047
 20
-34.7973336254
 10
-117.2267242372
 20
-34.0049821074
  0
LINE
  5
243
100
AcDbEntity
  8
RACCORDO
100
AcDbLine
 62
250
  6
CONTINUOUS
 10
-117.2659801481
 20
-28.7499304441
 11
-117.269567962
 21
-27.763929684
  0
LINE
  5
244
100
AcDbEntity
  8
RACCORDO
100
AcDbLine
 62
250
  6
CONTINUOUS
 10
-117.269567962
 20
-27.763929684
 11
-117.2743389761
 21
-26.1148098099
  0
LINE
  5
245
100
AcDbEntity
  8
RACCORDO
100
AcDbLine
 62
250
  6
CONTINUOUS
 10
-117.2743389761
 20
-26.1148098099
 11
-117.2761650971
 21
-25.2056358217
  0
LINE
  5
246
100
AcDbEntity
  8
RACCORDO
100
AcDbLine
 62
250
  6
CONTINUOUS
 10
-117.2761650971
 20
-25.2056358217
 11
-117.280666791
 21
-21.751110746
  0
LINE
  5
247
100
AcDbEntity
  8
RACCORDO
100
AcDbLine
 62
250
  6
CONTINUOUS
 10
-117.280666791
 20
-21.751110746
 11
-117.2870363789
 21
-14.1334656155
  0
LINE
  5
248
100
AcDbEntity
  8
RACCORDO
100
AcDbLine
 62
250
  6
CONTINUOUS
 10
-118.7995122164
 20
32.302933238
 11
-118.8015787468
 21
35.4999993365
  0
LINE
  5
249
100
AcDbEntity
  8
SUPERFICI
100
AcDbLine
 62
7
  6
CONTINUOUS
 10
-119.0000003491
 20
35.5000000145
 11
-119.0000003491
 21
-35.5000000243
  0
LINE
  5
24A
100
AcDbEntity
  8
DRAFT
100
AcDbLine
 62
7
  6
CONTINUOUS
 10
-119.0
 20
-35.5
 11
-119.0
 21
35.5
  0
LINE
  5
24B
100
AcDbEntity
  8
RACCORDO
100
AcDbLine
 62
250
  6
CONTINUOUS
 10
-117.2870363789
 20
-14.1334656155
 11
-117.2945186582
 21
-0.0000160834
  0
LWPOLYLINE
  5
24C
100
AcDbEntity
  8
RACCORDO
100
AcDbPolyline
 62
250
  6
CONTINUOUS
 90
3
 70
0
 10
-117.2635484221
 20
31.8682792971
 10
-117.2635105195
 20
32.0983265565
 10
-117.2612099018
 20
32.3254390229
  0
LINE
  5
24D
100
AcDbEntity
  8
RACCORDO
100
AcDbLine
 62
250
  6
CONTINUOUS
 10
-117.2622602111
 20
-30.7563481038
 11
-117.2659801481
 21
-28.7499304441
  0
LINE
  5
24E
100
AcDbEntity
  8
RACCORDO
100
AcDbLine
 62
250
  6
CONTINUOUS
 10
-118.799586282
 20
-32.6158570385
 11
-118.7995122164
 21
32.302933238
  0
LINE
  5
24F
100
AcDbEntity
  8
RACCORDO
100
AcDbLine
 62
250
  6
CONTINUOUS
 10
-117.2945197272
 20
-0.0000160831
 11
-117.2865556564
 21
16.3679897135
  0
LINE
  5
250
100
AcDbEntity
  8
RACCORDO
100
AcDbLine
 62
250
  6
CONTINUOUS
 10
-117.2630442742
 20
29.9602903169
 11
-117.2635484221
 21
31.8682792971
  0
LINE
  5
251
100
AcDbEntity
  8
RACCORDO
100
AcDbLine
 62
250
  6
CONTINUOUS
 10
-118.8015749741
 20
-35.4999995694
 11
-118.799586282
 21
-32.6158570385
  0
LINE
  5
252
100
AcDbEntity
  8
RACCORDO
100
AcDbLine
 62
250
  6
CONTINUOUS
 10
-117.2865556564
 20
16.3679897135
 11
-117.2813042668
 21
22.3772017849
  0
LINE
  5
253
100
AcDbEntity
  8
RACCORDO
100
AcDbLine
 62
250
  6
CONTINUOUS
 10
-117.2813042668
 20
22.3772017849
 11
-117.2774149729
 21
25.2057519786
  0
LINE
  5
254
100
AcDbEntity
  8
RACCORDO
100
AcDbLine
 62
250
  6
CONTINUOUS
 10
-117.2640254793
 20
-31.9825850217
 11
-117.2622602111
 21
-30.7563481038
  0
LINE
  5
255
100
AcDbEntity
  8
RACCORDO
100
AcDbLine
 62
250
  6
CONTINUOUS
 10
-117.2774149729
 20
25.2057519786
 11
-117.2703425249
 21
27.8526937018
  0
LINE
  5
256
100
AcDbEntity
  8
RACCORDO
100
AcDbLine
 62
250
  6
CONTINUOUS
 10
-117.2703425249
 20
27.8526937018
 11
-117.2630442742
 21
29.9602903169
  0
LWPOLYLINE
  5
257
100
AcDbEntity
  8
RACCORDO
100
AcDbPolyline
 62
250
  6
CONTINUOUS
 90
46
 70
0
 10
-118.8015748305
 20
35.4999993365
 10
-118.8009298393
 20
35.5900115938
 10
-118.7987769401
 20
35.6835317917
 10
-118.7949459905
 20
35.7805315947
 10
-118.7892690284
 20
35.8808577587
 10
-118.7815606762
 20
35.9845889265
 10
-118.771597022
 20
36.0920334706
 10
-118.7591651996
 20
36.2031370882
 10
-118.7440467121
 20
36.3178303279
 10
-118.7259601087
 20
36.4363810003
 10
-118.7046556537
 20
36.5586870469
 10
-118.6798735406
 20
36.6846572295
 10
-118.651262278
 20
36.8145491677
 10
-118.6185186527
 20
36.9482567235
 10
-118.5813483487
 20
37.0855949665
 10
-118.5393593691
 20
37.2266675073
 10
-118.4922107836
 20
37.3713051045
 10
-118.4395766314
 20
37.5192592837
 10
-118.3810465026
 20
37.6704713562
 10
-118.3163178851
 20
37.8245513732
 10
-118.2449937881
 20
37.9813198437
 10
-118.166460382
 20
38.1409673196
 10
-118.0804049993
 20
38.3029629115
 10
-117.9863644569
 20
38.4670457563
 10
-117.8833671165
 20
38.6336851355
 10
-117.7708164857
 20
38.8025181498
 10
-117.6483757602
 20
38.9727465988
 10
-117.5153539388
 20
39.1440348194
 10
-117.371420366
 20
39.3155123603
 10
-117.2160442477
 20
39.4865343162
 10
-117.0481567153
 20
39.6569152982
 10
-116.8673022165
 20
39.8256831156
 10
-116.6731233445
 20
39.9917443475
 10
-116.4646180261
 20
40.1544635137
 10
-116.2413804014
 20
40.3125923111
 10
-116.0032530405
 20
40.4646762809
 10
-115.7496196369
 20
40.6094984403
 10
-115.4792135599
 20
40.7460120168
 10
-115.1932373852
 20
40.8718252534
 10
-114.8951557803
 20
40.9840312484
 10
-114.5830099904
 20
41.0820657684
 10
-114.2599028403
 20
41.1636517365
 10
-113.9377657524
 20
41.2256881156
 10
-113.6215331952
 20
41.2684360879
 10
-113.3086162032
 20
41.293430716
 10
-113.0000028231
 20
41.3014381028
  0
LWPOLYLINE
  5
258
100
AcDbEntity
  8
RACCORDO
100
AcDbPolyline
 62
250
  6
CONTINUOUS
 90
3
 70
0
 10
-117.2323769334
 20
33.5589052338
 10
-117.2278030636
 20
33.911258035
 10
-117.2158301458
 20
35.1087438294
  0
LWPOLYLINE
  5
259
100
AcDbEntity
  8
RACCORDO
100
AcDbPolyline
 62
250
  6
CONTINUOUS
 90
3
 70
0
 10
-117.2158301458
 20
35.1087438294
 10
-117.2101031484
 20
35.4859630403
 10
-117.2079026369
 20
35.6024103055
  0
LINE
  5
25A
100
AcDbEntity
  8
RACCORDO
100
AcDbLine
 62
250
  6
CONTINUOUS
 10
-117.2360722416
 20
33.3704470471
 11
-117.2323769334
 21
33.5589052338
  0
LINE
  5
25B
100
AcDbEntity
  8
RACCORDO
100
AcDbLine
 62
250
  6
CONTINUOUS
 10
-117.2612099018
 20
32.3254390229
 11
-117.2360722416
 21
33.3704470471
  0
LWPOLYLINE
  5
25C
100
AcDbEntity
  8
RACCORDO
100
AcDbPolyline
 62
250
  6
CONTINUOUS
 90
46
 70
0
 10
-117.2079026369
 20
35.6024103055
 10
-117.2062253736
 20
35.6631810891
 10
-117.2034354027
 20
35.7264882268
 10
-117.1994206349
 20
35.7922719353
 10
-117.1941062853
 20
35.860331787
 10
-117.1873680889
 20
35.9307369904
 10
-117.179011736
 20
36.0038190821
 10
-117.1689148921
 20
36.0794348316
 10
-117.1569336552
 20
36.1574939751
 10
-117.1427915529
 20
36.2383628103
 10
-117.1264544873
 20
36.3218226724
 10
-117.107763138
 20
36.4077631728
 10
-117.0862198736
 20
36.4966450202
 10
-117.0618661534
 20
36.5880581387
 10
-117.0345970006
 20
36.6819061249
 10
-117.0036447195
 20
36.7789734095
 10
-116.9689987568
 20
36.8786548704
 10
-116.9306603898
 20
36.9806264574
 10
-116.8878259543
 20
37.0857973775
 10
-116.8402277878
 20
37.1938362411
 10
-116.7879627533
 20
37.3039461061
 10
-116.7307219386
 20
37.4162120456
 10
-116.6678833989
 20
37.5311961383
 10
-116.5990779651
 20
37.6484759676
 10
-116.5243205509
 20
37.7669940076
 10
-116.4430721647
 20
37.8873762734
 10
-116.3546304221
 20
38.0099469653
 10
-116.2588942857
 20
38.1333628304
 10
-116.1556509537
 20
38.2573290488
 10
-116.0443838529
 20
38.3818984631
 10
-115.9246393256
 20
38.5062687691
 10
-115.7962182191
 20
38.630066353
 10
-115.658608158
 20
38.7528044993
 10
-115.5110009907
 20
38.8734260519
 10
-115.3536625061
 20
38.9912572293
 10
-115.1866629064
 20
39.105481746
 10
-115.0092946531
 20
39.2146012675
 10
-114.8206241086
 20
39.3189208635
 10
-114.6218597446
 20
39.4166134191
 10
-114.4158233531
 20
39.5035015916
 10
-114.2010762397
 20
39.5801430013
 10
-113.9794428164
 20
39.6463403744
 10
-113.7594515898
 20
39.698112424
 10
-113.5445507072
 20
39.7351431938
 10
-113.3325724306
 20
39.7597099273
 10
-113.1240284094
 20
39.7722262789
  0
LWPOLYLINE
  5
25D
100
AcDbEntity
  8
DRAFT
100
AcDbPolyline
 62
7
  6
CONTINUOUS
 90
34
 70
0
 10
-116.4115817633
 20
35.5
 10
-116.3939653351
 20
35.8433033657
 10
-116.3418918397
 20
36.1833573834
 10
-116.2558065446
 20
36.5167080429
 10
-116.1365147412
 20
36.8399471374
 10
-115.9851356433
 20
37.1497734151
 10
-115.803085697
 20
37.4430122746
 10
-115.5920498217
 20
37.7167057238
 10
-115.3541821336
 20
37.9678833757
 10
-115.0921251804
 20
38.1936902607
 10
-114.8071279676
 20
38.3927071344
 10
-114.5033759677
 20
38.5617079597
 10
-114.1891192407
 20
38.6970735815
 10
-113.8682754306
 20
38.7989172978
 10
-113.5443256839
 20
38.867833278
 10
-113.225684598
 20
38.9043975138
 10
-112.9189458357
 20
38.9113041465
 10
-112.6232292943
 20
38.8918653146
 10
-112.3353635549
 20
38.8479192756
 10
-112.0580747433
 20
38.7813297623
 10
-111.7921070271
 20
38.6937194948
 10
-111.5316492089
 20
38.5834758292
 10
-111.2769472456
 20
38.4496730785
 10
-111.0320586823
 20
38.2933529581
 10
-110.7977977208
 20
38.1139038149
 10
-110.5769584044
 20
37.9120762769
 10
-110.3716231547
 20
37.6882357139
 10
-110.1824845534
 20
37.4406420997
 10
-110.012703136
 20
37.1699100113
 10
-109.8657185727
 20
36.8773620619
 10
-109.7440778867
 20
36.5620624048
 10
-109.6516957943
 20
36.2250840744
 10
-109.5929815479
 20
35.8699326692
 10
-109.5718494717
 20
35.5
  0
LINE
  5
25E
100
AcDbEntity
  8
0
100
AcDbLine
 62
7
  6
CONTINUOUS
 10
-114.1597282293
 20
35.2369554872
 11
-114.1449972769
 21
35.2718517719
  0
LINE
  5
25F
100
AcDbEntity
  8
0
100
AcDbLine
 62
7
  6
CONTINUOUS
 10
-111.8402717707
 20
35.7630445128
 11
-111.8550027231
 21
35.7281482281
  0
LINE
  5
260
100
AcDbEntity
  8
0
100
AcDbLine
 62
7
  6
CONTINUOUS
 10
-114.1746647022
 20
35.2021810922
 11
-114.1597282293
 21
35.2369554872
  0
LINE
  5
261
100
AcDbEntity
  8
0
100
AcDbLine
 62
7
  6
CONTINUOUS
 10
-111.8253352978
 20
35.7978189078
 11
-111.8402717707
 21
35.7630445128
  0
LINE
  5
262
100
AcDbEntity
  8
0
100
AcDbLine
 62
7
  6
CONTINUOUS
 10
-114.1898066956
 20
35.1675285871
 11
-114.1746647022
 21
35.2021810922
  0
LINE
  5
263
100
AcDbEntity
  8
0
100
AcDbLine
 62
7
  6
CONTINUOUS
 10
-111.8101933044
 20
35.8324714129
 11
-111.8253352978
 21
35.7978189078
  0
LINE
  5
264
100
AcDbEntity
  8
0
100
AcDbLine
 62
7
  6
CONTINUOUS
 10
-114.171604981
 20
35.1549273753
 11
-114.1221062937
 21
35.2611776175
  0
LINE
  5
265
100
AcDbEntity
  8
0
100
AcDbLine
 62
7
  6
CONTINUOUS
 10
-111.828395019
 20
35.8450726247
 11
-111.8778937063
 21
35.7388223825
  0
LINE
  5
266
100
AcDbEntity
  8
0
100
AcDbLine
 62
7
  6
CONTINUOUS
 10
-113.519717435
 20
36.0197267822
 11
-113.4999466442
 21
36.0621338622
  0
LINE
  5
267
100
AcDbEntity
  8
0
100
AcDbLine
 62
7
  6
CONTINUOUS
 10
-112.480282565
 20
34.9802732178
 11
-112.5000533558
 21
34.9378661378
  0
LINE
  5
268
100
AcDbEntity
  8
0
100
AcDbLine
 62
7
  6
CONTINUOUS
 10
-113.4999466442
 20
36.0621338622
 11
-113.5204046482
 21
36.0204046481
  0
LINE
  5
269
100
AcDbEntity
  8
0
100
AcDbLine
 62
7
  6
CONTINUOUS
 10
-113.6272974066
 20
36.1272972341
 11
-113.6
 21
36.1818871521
  0
LINE
  5
26A
100
AcDbEntity
  8
0
100
AcDbLine
 62
7
  6
CONTINUOUS
 10
-113.6
 20
-36.1818880101
 11
-113.6272975093
 21
-36.1272975163
  0
LINE
  5
26B
100
AcDbEntity
  8
0
100
AcDbLine
 62
7
  6
CONTINUOUS
 10
-113.5204046482
 20
-36.0204046482
 11
-113.4999470109
 21
-36.062133536
  0
LINE
  5
26C
100
AcDbEntity
  8
0
100
AcDbLine
 62
7
  6
CONTINUOUS
 10
-113.4999470109
 20
-36.062133536
 11
-113.5197234839
 21
-36.0197234839
  0
LINE
  5
26D
100
AcDbEntity
  8
0
100
AcDbLine
 62
7
  6
CONTINUOUS
 10
-112.5000529891
 20
-34.937866464
 11
-112.4802765161
 21
-34.9802765161
  0
LINE
  5
26E
100
AcDbEntity
  8
0
100
AcDbLine
 62
7
  6
CONTINUOUS
 10
-114.122106287
 20
-35.2611776274
 11
-114.1716048889
 21
-35.1549273261
  0
LINE
  5
26F
100
AcDbEntity
  8
0
100
AcDbLine
 62
7
  6
CONTINUOUS
 10
-111.877893713
 20
-35.7388223726
 11
-111.8283951111
 21
-35.8450726739
  0
LINE
  5
270
100
AcDbEntity
  8
0
100
AcDbLine
 62
7
  6
CONTINUOUS
 10
-114.1449972701
 20
-35.2718517819
 11
-114.1900477491
 21
-35.1676955419
  0
LINE
  5
271
100
AcDbEntity
  8
0
100
AcDbLine
 62
7
  6
CONTINUOUS
 10
-111.8550027299
 20
-35.7281482181
 11
-111.809952252
 21
-35.8323044589
  0
LINE
  5
272
100
AcDbEntity
  8
0
100
AcDbLine
 62
7
  6
CONTINUOUS
 10
-113.6
 20
-38.3321553217
 11
-113.6
 21
-35.9538073666
  0
LINE
  5
273
100
AcDbEntity
  8
0
100
AcDbLine
 62
7
  6
CONTINUOUS
 10
-113.6
 20
-35.0461926334
 11
-113.6
 21
-32.6678446783
  0
LINE
  5
274
100
AcDbEntity
  8
0
100
AcDbLine
 62
7
  6
CONTINUOUS
 10
-113.6
 20
32.6678446783
 11
-113.6
 21
35.0461926334
  0
LINE
  5
275
100
AcDbEntity
  8
0
100
AcDbLine
 62
7
  6
CONTINUOUS
 10
-113.6
 20
35.9538073666
 11
-113.6
 21
38.3321553217
  0
LINE
  5
276
100
AcDbEntity
  8
RACCORDO
100
AcDbLine
 62
250
  6
CONTINUOUS
 10
-113.0000028231
 20
41.3014375389
 11
-113.0000001209
 21
41.5000003491
  0
LINE
  5
277
100
AcDbEntity
  8
RACCORDO
100
AcDbLine
 62
250
  6
CONTINUOUS
 10
-113.0000002059
 20
-41.3014364564
 11
-113.0000000088
 21
-41.5000003491
  0
LINE
  5
278
100
AcDbEntity
  8
0
100
AcDbLine
 62
7
  6
CONTINUOUS
 10
-112.4
 20
38.3321553217
 11
-112.4
 21
35.9538073666
  0
LINE
  5
279
100
AcDbEntity
  8
0
100
AcDbLine
 62
7
  6
CONTINUOUS
 10
-112.4
 20
35.0461926334
 11
-112.4
 21
32.6678446783
  0
LINE
  5
27A
100
AcDbEntity
  8
0
100
AcDbLine
 62
7
  6
CONTINUOUS
 10
-112.4
 20
-32.6678446783
 11
-112.4
 21
-35.0461926334
  0
LINE
  5
27B
100
AcDbEntity
  8
0
100
AcDbLine
 62
7
  6
CONTINUOUS
 10
-112.4
 20
-35.9538073666
 11
-112.4
 21
-38.3321553217
  0
LWPOLYLINE
  5
27C
100
AcDbEntity
  8
DRAFT
100
AcDbPolyline
 62
7
  6
CONTINUOUS
 90
37
 70
0
 10
-109.5718494717
 20
35.5
 10
-109.5848596316
 20
35.1929152417
 10
-109.6231877495
 20
34.9007250645
 10
-109.6833066642
 20
34.6251966858
 10
-109.7610208951
 20
34.3696573666
 10
-109.8533927125
 20
34.1326360861
 10
-109.9603322298
 20
33.9085198235
 10
-110.0799311642
 20
33.6981708736
 10
-110.2105845333
 20
33.5017611008
 10
-110.3553883816
 20
33.3137407335
 10
-110.5141689579
 20
33.1348822593
 10
-110.6861176133
 20
32.9666189283
 10
-110.8754560195
 20
32.8061578369
 10
-111.0832614942
 20
32.6549221827
 10
-111.3084522944
 20
32.515980836
 10
-111.5528856916
 20
32.3906081197
 10
-111.8178421398
 20
32.2811355357
 10
-112.1007780645
 20
32.1915988731
 10
-112.3972818108
 20
32.1257131812
 10
-112.7058082333
 20
32.0857839578
 10
-113.023641719
 20
32.0741232853
 10
-113.3437998378
 20
32.0923056658
 10
-113.6629762821
 20
32.1408335148
 10
-113.9786558155
 20
32.2200080592
 10
-114.2850594501
 20
32.3286801643
 10
-114.5777263244
 20
32.4648811635
 10
-114.8559515073
 20
32.6278778165
 10
-115.1195832646
 20
32.8178958065
 10
-115.3660667605
 20
33.0340492285
 10
-115.5923706041
 20
33.2747207878
 10
-115.7969387669
 20
33.539666144
 10
-115.9774350425
 20
33.8282806129
 10
-116.1301104319
 20
34.1374224743
 10
-116.2516263589
 20
34.4625762677
 10
-116.3399334488
 20
34.7999852174
 10
-116.3936807858
 20
35.1469707112
 10
-116.4115817633
 20
35.5
  0
LWPOLYLINE
  5
27D
100
AcDbEntity
  8
DRAFT
100
AcDbPolyline
 62
7
  6
CONTINUOUS
 90
40
 70
0
 10
-116.4115860543
 20
-35.5
 10
-116.3955529737
 20
-35.1656491654
 10
-116.3473268357
 20
-34.8365056532
 10
-116.2679655544
 20
-34.5155842149
 10
-116.1580832684
 20
-34.2039599118
 10
-116.0196267337
 20
-33.9061989336
 10
-115.8575110565
 20
-33.6295817932
 10
-115.6765668247
 20
-33.3773482665
 10
-115.4788614956
 20
-33.1481747888
 10
-115.2662651152
 20
-32.9414503553
 10
-115.042935817
 20
-32.7586658641
 10
-114.8102138998
 20
-32.5986015322
 10
-114.5642834587
 20
-32.4578709515
 10
-114.3048201516
 20
-32.3368335835
 10
-114.0352914293
 20
-32.2376310263
 10
-113.7566709008
 20
-32.1610048001
 10
-113.4689624089
 20
-32.1076629854
 10
-113.1759899595
 20
-32.0790063276
 10
-112.8846849703
 20
-32.075562874
 10
-112.5959490033
 20
-32.09672551
 10
-112.3130375058
 20
-32.141624399
 10
-112.0460136883
 20
-32.2068208727
 10
-111.7997120302
 20
-32.287789219
 10
-111.5708154849
 20
-32.3823509194
 10
-111.3565063747
 20
-32.4893357291
 10
-111.15804763
 20
-32.6060731098
 10
-110.974475301
 20
-32.7310953198
 10
-110.8003538745
 20
-32.8669897559
 10
-110.6357903254
 20
-33.0134425008
 10
-110.4818423478
 20
-33.1692860364
 10
-110.3358470813
 20
-33.3375766231
 10
-110.1989012848
 20
-33.5181708631
 10
-110.0722863452
 20
-33.7106261684
 10
-109.9551039006
 20
-33.9185626395
 10
-109.8492344394
 20
-34.1422886251
 10
-109.7571332238
 20
-34.3809416019
 10
-109.6803050038
 20
-34.6367733746
 10
-109.6215846336
 20
-34.9099584438
 10
-109.5843895671
 20
-35.1982792994
 10
-109.5718361721
 20
-35.5
  0
LINE
  5
27E
100
AcDbEntity
  8
0
100
AcDbLine
 62
7
  6
CONTINUOUS
 10
-112.5000533558
 20
34.9378661378
 11
-112.4795953518
 21
34.9795953519
  0
LINE
  5
27F
100
AcDbEntity
  8
0
100
AcDbLine
 62
7
  6
CONTINUOUS
 10
-112.3727025934
 20
34.8727027659
 11
-112.4
 21
34.8181128479
  0
LWPOLYLINE
  5
280
100
AcDbEntity
  8
RACCORDO
100
AcDbPolyline
 62
250
  6
CONTINUOUS
 90
13
 70
0
 10
-113.0000025338
 20
41.3014375386
 10
-113.0140291315
 20
41.2856153035
 10
-113.0278872328
 20
41.2459604371
 10
-113.0414103569
 20
41.1829493204
 10
-113.0544360472
 20
41.0973389174
 10
-113.0668078229
 20
40.9901576816
 10
-113.0783770586
 20
40.8626932005
 10
-113.0890047699
 20
40.7164767281
 10
-113.0985632836
 20
40.5532647896
 10
-113.1069377705
 20
40.3750180797
 10
-113.1140276255
 20
40.1838779084
 10
-113.119747676
 20
39.9821404774
 10
-113.1240292052
 20
39.7722292951
  0
LWPOLYLINE
  5
281
100
AcDbEntity
  8
RACCORDO
100
AcDbPolyline
 62
250
  6
CONTINUOUS
 90
13
 70
0
 10
-113.000000209
 20
-41.3013779569
 10
-113.0140413443
 20
-41.2855568109
 10
-113.0279137226
 20
-41.245902242
 10
-113.0414506857
 20
-41.1828906474
 10
-113.0544896074
 20
-41.0972790284
 10
-113.0668738469
 20
-40.9900958958
 10
-113.0784546315
 20
-40.8626289135
 10
-113.0890928449
 20
-40.7164094291
 10
-113.0986606989
 20
-40.5531940771
 10
-113.1070432684
 20
-40.3749436745
 10
-113.1141398726
 20
-40.1837996649
 10
-113.119865285
 20
-39.9820583916
 10
-113.124150757
 20
-39.7721435098
  0
LINE
  5
282
100
AcDbEntity
  8
0
100
AcDbLine
 62
7
  6
CONTINUOUS
 10
-112.4
 20
-34.8181119898
 11
-112.3727024907
 21
-34.8727024837
  0
LINE
  5
283
100
AcDbEntity
  8
0
100
AcDbLine
 62
7
  6
CONTINUOUS
 10
-112.4795953518
 20
-34.9795953518
 11
-112.5000529891
 21
-34.937866464
  0
LWPOLYLINE
  5
284
100
AcDbEntity
  8
RACCORDO
100
AcDbPolyline
 62
250
  6
CONTINUOUS
 90
25
 70
0
 10
-99.3873166686
 20
-22.1993602702
 10
-99.3742405377
 20
-22.449528923
 10
-99.3509257586
 20
-22.6947903673
 10
-99.3150940628
 20
-22.9344077638
 10
-99.2620695681
 20
-23.169852605
 10
-99.1913427412
 20
-23.3981249892
 10
-99.1091147516
 20
-23.6127598108
 10
-99.0206471442
 20
-23.8112256284
 10
-98.9239557502
 20
-23.9973911027
 10
-98.8160664831
 20
-24.1749992353
 10
-98.7005655507
 20
-24.3439154554
 10
-98.5788523577
 20
-24.5054314746
 10
-98.4424405007
 20
-24.6642340999
 10
-98.2901868936
 20
-24.8214707721
 10
-98.1246069781
 20
-24.9752902531
 10
-97.9404351998
 20
-25.1242847629
 10
-97.7362289135
 20
-25.2683113167
 10
-97.5149700968
 20
-25.4042967499
 10
-97.2780194647
 20
-25.5259363981
 10
-97.0257221401
 20
-25.6326256639
 10
-96.7625716585
 20
-25.7229467489
 10
-96.4963327346
 20
-25.7918129233
 10
-96.230263009
 20
-25.8395710532
 10
-95.9628550009
 20
-25.8694737147
 10
-95.6939568631
 20
-25.8817506947
  0
LWPOLYLINE
  5
285
100
AcDbEntity
  8
RACCORDO
100
AcDbPolyline
 62
250
  6
CONTINUOUS
 90
5
 70
0
 10
-99.3879616569
 20
22.1990749496
 10
-99.3940870605
 20
21.8956581374
 10
-99.3929059174
 20
21.5778564682
 10
-99.3875524518
 20
21.2468730986
 10
-99.384136312
 20
20.9050806669
  0
LWPOLYLINE
  5
286
100
AcDbEntity
  8
DRAFT
100
AcDbPolyline
 62
7
  6
CONTINUOUS
 90
34
 70
0
 10
-109.5718361721
 20
-35.5
 10
-109.5929443072
 20
-35.8696953727
 10
-109.6515916095
 20
-36.2246490067
 10
-109.7438770857
 20
-36.5614736237
 10
-109.8654159449
 20
-36.876690856
 10
-110.0122988073
 20
-37.1691989381
 10
-110.1819404928
 20
-37.4398618395
 10
-110.3708487921
 20
-37.6873148075
 10
-110.5758906766
 20
-37.9110133988
 10
-110.7964596755
 20
-38.1127862633
 10
-111.0305455088
 20
-38.2922959112
 10
-111.275318809
 20
-38.4487298618
 10
-111.5298974857
 20
-38.5826488287
 10
-111.7901833433
 20
-38.6929983104
 10
-112.055967426
 20
-38.7807304515
 10
-112.3331032489
 20
-38.8474756928
 10
-112.6208419492
 20
-38.8916050707
 10
-112.9164707484
 20
-38.911250349
 10
-113.2232356759
 20
-38.9045654713
 10
-113.5420616363
 20
-38.8682068144
 10
-113.8663056283
 20
-38.7994459878
 10
-114.1874831154
 20
-38.6976933635
 10
-114.5021227307
 20
-38.5623320505
 10
-114.8062683494
 20
-38.3932480934
 10
-115.0915474972
 20
-38.1941384855
 10
-115.353720982
 20
-37.9683198356
 10
-115.5916319199
 20
-37.7171885435
 10
-115.8027341245
 20
-37.4435126202
 10
-115.9848951664
 20
-37.150204287
 10
-116.1363802227
 20
-36.840264516
 10
-116.2557453488
 20
-36.5169151596
 10
-116.3418712477
 20
-36.1834797456
 10
-116.3939647368
 20
-35.8433555966
 10
-116.4115860543
 20
-35.5
  0
LINE
  5
287
100
AcDbEntity
  8
0
100
AcDbLine
 62
7
  6
CONTINUOUS
 10
-113.6272975093
 20
34.8727024837
 11
-113.6
 21
34.8999999936
  0
LINE
  5
288
100
AcDbEntity
  8
0
100
AcDbLine
 62
7
  6
CONTINUOUS
 10
-113.5204046482
 20
34.9795953518
 11
-113.5197234842
 21
34.9802765158
  0
LINE
  5
289
100
AcDbEntity
  8
0
100
AcDbLine
 62
7
  6
CONTINUOUS
 10
-112.4802765158
 20
36.0197234842
 11
-112.4795953518
 21
36.0204046482
  0
LINE
  5
28A
100
AcDbEntity
  8
0
100
AcDbLine
 62
7
  6
CONTINUOUS
 10
-112.4
 20
36.1000000064
 11
-112.3727024907
 21
36.1272975163
  0
LINE
  5
28B
100
AcDbEntity
  8
0
100
AcDbLine
 62
7
  6
CONTINUOUS
 10
-112.4802765158
 20
-36.0197234842
 11
-112.4795953518
 21
-36.0204046481
  0
LINE
  5
28C
100
AcDbEntity
  8
0
100
AcDbLine
 62
7
  6
CONTINUOUS
 10
-113.5197234842
 20
-34.9802765158
 11
-113.5204046482
 21
-34.9795953519
  0
LINE
  5
28D
100
AcDbEntity
  8
0
100
AcDbLine
 62
7
  6
CONTINUOUS
 10
-112.4
 20
-36.0999998582
 11
-112.3727025934
 21
-36.1272972341
  0
LINE
  5
28E
100
AcDbEntity
  8
0
100
AcDbLine
 62
7
  6
CONTINUOUS
 10
-113.6
 20
-34.9000001418
 11
-113.6272974066
 21
-34.8727027659
  0
LWPOLYLINE
  5
28F
100
AcDbEntity
  8
RACCORDO
100
AcDbPolyline
 62
250
  6
CONTINUOUS
 90
25
 70
0
 10
-97.6022179567
 20
-22.2
 10
-97.5978678206
 20
-22.3284417848
 10
-97.5850685705
 20
-22.4547402928
 10
-97.5641895662
 20
-22.5783650927
 10
-97.5353854328
 20
-22.6997068042
 10
-97.4992049113
 20
-22.8174156894
 10
-97.4571458895
 20
-22.9285756661
 10
-97.410992638
 20
-23.031264253
 10
-97.3609541377
 20
-23.1273020896
 10
-97.3061246027
 20
-23.2194204173
 10
-97.2471493476
 20
-23.3069836198
 10
-97.1840972283
 20
-23.3902955634
 10
-97.1140786472
 20
-23.4727992111
 10
-97.0360770521
 20
-23.5545713373
 10
-96.9505524712
 20
-23.6340282149
 10
-96.8560704956
 20
-23.7113351981
 10
-96.7512474626
 20
-23.7861222655
 10
-96.6369548144
 20
-23.8562772744
 10
-96.5153705621
 20
-23.9194347118
 10
-96.3863669574
 20
-23.9748924934
 10
-96.2508408509
 20
-24.0215070382
 10
-96.1132193447
 20
-24.0575249208
 10
-95.9756457079
 20
-24.0827780353
 10
-95.8376501841
 20
-24.0977448917
 10
-95.7
 20
-24.1025766005
  0
LWPOLYLINE
  5
290
100
AcDbEntity
  8
RACCORDO
100
AcDbPolyline
 62
250
  6
CONTINUOUS
 90
10
 70
0
 10
-99.3909683922
 20
-18.0908020745
 10
-99.3871825055
 20
-19.0230068254
 10
-99.3877082213
 20
-19.4671484035
 10
-99.3871976825
 20
-19.8979310588
 10
-99.3838349352
 20
-20.3150218009
 10
-99.3820244342
 20
-20.7187108263
 10
-99.3864089206
 20
-21.1106256781
 10
-99.3941566416
 20
-21.4898913127
 10
-99.3962507674
 20
-21.8534372117
 10
-99.3873166686
 20
-22.1993602702
  0
LINE
  5
291
100
AcDbEntity
  8
RACCORDO
100
AcDbLine
 62
250
  6
CONTINUOUS
 10
-95.6951749216
 20
-25.4586684615
 11
-95.7
 21
-24.1025769495
  0
LINE
  5
292
100
AcDbEntity
  8
RACCORDO
100
AcDbLine
 62
250
  6
CONTINUOUS
 10
-95.6939568472
 20
-25.8817506171
 11
-95.6951749216
 21
-25.4586684615
  0
LINE
  5
293
100
AcDbEntity
  8
RACCORDO
100
AcDbLine
 62
250
  6
CONTINUOUS
 10
-99.3910059105
 20
18.6221486867
 11
-99.3908402318
 21
18.2018155883
  0
LINE
  5
294
100
AcDbEntity
  8
RACCORDO
100
AcDbLine
 62
250
  6
CONTINUOUS
 10
-97.6021819848
 20
22.2
 11
-97.6022179567
 21
-22.2
  0
LINE
  5
295
100
AcDbEntity
  8
0
100
AcDbLine
 62
7
  6
CONTINUOUS
 10
-96.0
 20
-22.2
 11
-96.0
 21
22.2
  0
LINE
  5
296
100
AcDbEntity
  8
RACCORDO
100
AcDbLine
 62
250
  6
CONTINUOUS
 10
-95.7
 20
-24.1025766005
 11
-95.7
 21
-22.5
  0
LWPOLYLINE
  5
297
100
AcDbEntity
  8
RACCORDO
100
AcDbPolyline
 62
250
  6
CONTINUOUS
 90
3
 70
0
 10
-99.3904669538
 20
-10.096687814
 10
-99.390408651
 20
-12.984248083
 10
-99.3901684872
 20
-14.8805951471
  0
LINE
  5
298
100
AcDbEntity
  8
RACCORDO
100
AcDbLine
 62
250
  6
CONTINUOUS
 10
-99.3878538925
 20
2.303248683
 11
-99.3886309626
 21
-6.5187156866
  0
LWPOLYLINE
  5
299
100
AcDbEntity
  8
RACCORDO
100
AcDbPolyline
 62
250
  6
CONTINUOUS
 90
3
 70
0
 10
-99.3886309626
 20
-6.5187156866
 10
-99.389750376
 20
-9.3520605138
 10
-99.3904669538
 20
-10.096687814
  0
LINE
  5
29A
100
AcDbEntity
  8
RACCORDO
100
AcDbLine
 62
250
  6
CONTINUOUS
 10
-99.3932765318
 20
17.3269083497
 11
-99.3878538925
 21
2.303248683
  0
LINE
  5
29B
100
AcDbEntity
  8
RACCORDO
100
AcDbLine
 62
250
  6
CONTINUOUS
 10
-99.3904803136
 20
-17.09519627
 11
-99.3909683922
 21
-18.0908020745
  0
LWPOLYLINE
  5
29C
100
AcDbEntity
  8
RACCORDO
100
AcDbPolyline
 62
250
  6
CONTINUOUS
 90
3
 70
0
 10
-99.3901684872
 20
-14.8805951471
 10
-99.3915874548
 20
-16.0287595087
 10
-99.3904803136
 20
-17.09519627
  0
LINE
  5
29D
100
AcDbEntity
  8
RACCORDO
100
AcDbLine
 62
250
  6
CONTINUOUS
 10
-99.3885662227
 20
19.4287173233
 11
-99.3910059105
 21
18.6221486867
  0
LINE
  5
29E
100
AcDbEntity
  8
RACCORDO
100
AcDbLine
 62
250
  6
CONTINUOUS
 10
-99.3908402318
 20
18.2018155883
 11
-99.3932765318
 21
17.3269083497
  0
LWPOLYLINE
  5
29F
100
AcDbEntity
  8
RACCORDO
100
AcDbPolyline
 62
250
  6
CONTINUOUS
 90
3
 70
0
 10
-95.6944818368
 20
25.8811689981
 10
-95.6993380533
 20
24.2764085751
 10
-95.7
 20
22.5
  0
LWPOLYLINE
  5
2A0
100
AcDbEntity
  8
RACCORDO
100
AcDbPolyline
 62
250
  6
CONTINUOUS
 90
3
 70
0
 10
-99.384136312
 20
20.9050806669
 10
-99.388175565
 20
20.1905245373
 10
-99.3885662227
 20
19.4287173233
  0
LINE
  5
2A1
100
AcDbEntity
  8
0
100
AcDbLine
 62
7
  6
CONTINUOUS
 10
-114.152337063
 20
-35.7456116067
 11
-114.1449972769
 21
-35.7281482281
  0
LWPOLYLINE
  5
2A2
100
AcDbEntity
  8
RACCORDO
100
AcDbPolyline
 62
250
  6
CONTINUOUS
 90
13
 70
0
 10
-118.8015748592
 20
35.4999993466
 10
-118.7850438513
 20
35.511775799
 10
-118.7434793896
 20
35.523403622
 10
-118.6774061413
 20
35.5347360378
 10
-118.5876581483
 20
35.5456299968
 10
-118.475368298
 20
35.5559479833
 10
-118.3419540234
 20
35.5655597508
 10
-118.1890994109
 20
35.5743439664
 10
-118.0187339419
 20
35.5821897419
 10
-117.8330081371
 20
35.5889980335
 10
-117.6342664104
 20
35.5946828921
 10
-117.4250174755
 20
35.5991725478
 10
-117.2079026787
 20
35.602410316
  0
LINE
  5
2A3
100
AcDbEntity
  8
0
100
AcDbLine
 62
7
  6
CONTINUOUS
 10
-114.1900477491
 20
35.8323044581
 11
-114.1716048889
 21
35.8450726739
  0
LINE
  5
2A4
100
AcDbEntity
  8
0
100
AcDbLine
 62
7
  6
CONTINUOUS
 10
-111.8283951111
 20
35.1549273261
 11
-111.809952252
 21
35.1676955411
  0
LINE
  5
2A5
100
AcDbEntity
  8
0
100
AcDbLine
 62
7
  6
CONTINUOUS
 10
-114.1898066956
 20
-35.8324714129
 11
-114.171604981
 21
-35.8450726247
  0
LINE
  5
2A6
100
AcDbEntity
  8
0
100
AcDbLine
 62
7
  6
CONTINUOUS
 10
-111.828395019
 20
-35.1549273753
 11
-111.8101933044
 21
-35.1675285871
  0
LWPOLYLINE
  5
2A7
100
AcDbEntity
  8
RACCORDO
100
AcDbPolyline
 62
250
  6
CONTINUOUS
 90
13
 70
0
 10
-118.8015749742
 20
-35.4999996706
 10
-118.7850449308
 20
-35.5118139129
 10
-118.7434830112
 20
-35.5234789952
 10
-118.6774138174
 20
-35.5348476538
 10
-118.587671287
 20
-35.5457763666
 10
-118.4753881666
 20
-35.556127165
 10
-118.3419817141
 20
-35.5657693747
 10
-118.1891358103
 20
-35.5745812659
 10
-118.0187797042
 20
-35.582451589
 10
-117.8330636616
 20
-35.5892809795
 10
-117.6343318244
 20
-35.5949832116
 10
-117.4250926222
 20
-35.599486287
 10
-117.2079871106
 20
-35.6027333431
  0
LINE
  5
2A8
100
AcDbEntity
  8
RACCORDO
100
AcDbLine
 62
7
  6
CONTINUOUS
 10
-87.6958892987
 20
22.4
 11
-87.6976348052
 21
22.5
  0
LINE
  5
2A9
100
AcDbEntity
  8
RACCORDO
100
AcDbLine
 62
7
  6
CONTINUOUS
 10
-87.6976348052
 20
-22.5
 11
-87.6958892987
 21
-22.4
  0
LINE
  5
2AA
100
AcDbEntity
  8
0
100
AcDbLine
 62
7
  6
CONTINUOUS
 10
-111.8402717707
 20
-35.2369554872
 11
-111.8550027231
 21
-35.2718517719
  0
LINE
  5
2AB
100
AcDbEntity
  8
0
100
AcDbLine
 62
7
  6
CONTINUOUS
 10
-114.1671707757
 20
-35.7804469465
 11
-114.152337063
 21
-35.7456116067
  0
LINE
  5
2AC
100
AcDbEntity
  8
0
100
AcDbLine
 62
7
  6
CONTINUOUS
 10
-111.8253352978
 20
-35.2021810922
 11
-111.8402717707
 21
-35.2369554872
  0
LWPOLYLINE
  5
2AD
100
AcDbEntity
  8
0
100
AcDbPolyline
 62
7
  6
CONTINUOUS
 90
3
 70
0
 10
-114.1898066956
 20
-35.8324714129
 10
-114.1822100088
 20
-35.8151603966
 10
-114.1671707757
 20
-35.7804469465
  0
LINE
  5
2AE
100
AcDbEntity
  8
0
100
AcDbLine
 62
7
  6
CONTINUOUS
 10
-111.8101933044
 20
-35.1675285871
 11
-111.8253352978
 21
-35.2021810922
  0
LINE
  5
2AF
100
AcDbEntity
  8
0
100
AcDbLine
 62
7
  6
CONTINUOUS
 10
-114.171604981
 20
-35.8450726247
 11
-114.1221062937
 21
-35.7388223825
  0
LINE
  5
2B0
100
AcDbEntity
  8
0
100
AcDbLine
 62
7
  6
CONTINUOUS
 10
-111.828395019
 20
-35.1549273753
 11
-111.8778937063
 21
-35.2611776175
  0
LINE
  5
2B1
100
AcDbEntity
  8
0
100
AcDbLine
 62
7
  6
CONTINUOUS
 10
-113.519717435
 20
-34.9802732178
 11
-113.4999466442
 21
-34.9378661378
  0
LINE
  5
2B2
100
AcDbEntity
  8
0
100
AcDbLine
 62
7
  6
CONTINUOUS
 10
-112.480282565
 20
-36.0197267822
 11
-112.5000533558
 21
-36.0621338622
  0
LINE
  5
2B3
100
AcDbEntity
  8
0
100
AcDbLine
 62
7
  6
CONTINUOUS
 10
-113.4999466442
 20
-34.9378661378
 11
-113.5204046482
 21
-34.9795953519
  0
LINE
  5
2B4
100
AcDbEntity
  8
0
100
AcDbLine
 62
7
  6
CONTINUOUS
 10
-112.5000533558
 20
-36.0621338622
 11
-112.4795953518
 21
-36.0204046481
  0
LINE
  5
2B5
100
AcDbEntity
  8
0
100
AcDbLine
 62
7
  6
CONTINUOUS
 10
-113.6272974066
 20
-34.8727027659
 11
-113.6
 21
-34.8181128479
  0
LINE
  5
2B6
100
AcDbEntity
  8
0
100
AcDbLine
 62
7
  6
CONTINUOUS
 10
-112.3727025934
 20
-36.1272972341
 11
-112.4
 21
-36.1818871521
  0
LINE
  5
2B7
100
AcDbEntity
  8
0
100
AcDbLine
 62
7
  6
CONTINUOUS
 10
-114.1716048889
 20
35.8450726739
 11
-114.0240804449
 21
35.923409377
  0
LINE
  5
2B8
100
AcDbEntity
  8
0
100
AcDbLine
 62
7
  6
CONTINUOUS
 10
-111.8283951111
 20
35.1549273261
 11
-111.9759195551
 21
35.076590623
  0
LINE
  5
2B9
100
AcDbEntity
  8
0
100
AcDbLine
 62
7
  6
CONTINUOUS
 10
-114.0240804449
 20
35.923409377
 11
-113.9261983137
 21
35.974736128
  0
LINE
  5
2BA
100
AcDbEntity
  8
0
100
AcDbLine
 62
7
  6
CONTINUOUS
 10
-111.9759195551
 20
35.076590623
 11
-112.0738016863
 21
35.025263872
  0
LINE
  5
2BB
100
AcDbEntity
  8
0
100
AcDbLine
 62
7
  6
CONTINUOUS
 10
-113.9261983137
 20
35.974736128
 11
-113.852211212
 21
36.01313863
  0
LWPOLYLINE
  5
2BC
100
AcDbEntity
  8
0
100
AcDbPolyline
 62
7
  6
CONTINUOUS
 90
4
 70
0
 10
-113.852211212
 20
36.01313863
 10
-113.7747633728
 20
36.0529281995
 10
-113.747603948
 20
36.0666770756
 10
-113.6899108284
 20
36.0961974303
  0
LWPOLYLINE
  5
2BD
100
AcDbEntity
  8
0
100
AcDbPolyline
 62
7
  6
CONTINUOUS
 90
3
 70
0
 10
-113.6899108284
 20
36.0961974303
 10
-113.6592374971
 20
36.1116535241
 10
-113.6272974066
 20
36.1272972341
  0
LINE
  5
2BE
100
AcDbEntity
  8
0
100
AcDbLine
 62
7
  6
CONTINUOUS
 10
-113.7191594664
 20
-36.0812021728
 11
-113.8008536937
 21
-36.0395816954
  0
LINE
  5
2BF
100
AcDbEntity
  8
0
100
AcDbLine
 62
7
  6
CONTINUOUS
 10
-113.8008536937
 20
-36.0395816954
 11
-113.8766776316
 21
-36.0004898034
  0
LINE
  5
2C0
100
AcDbEntity
  8
0
100
AcDbLine
 62
7
  6
CONTINUOUS
 10
-113.8766776316
 20
-36.0004898034
 11
-113.9995138679
 21
-35.9363522233
  0
LINE
  5
2C1
100
AcDbEntity
  8
0
100
AcDbLine
 62
7
  6
CONTINUOUS
 10
-112.0741052492
 20
-35.0251039337
 11
-111.9758999156
 21
-35.0766010257
  0
LWPOLYLINE
  5
2C2
100
AcDbEntity
  8
0
100
AcDbPolyline
 62
7
  6
CONTINUOUS
 90
4
 70
0
 10
-113.9995138679
 20
-35.9363522233
 10
-114.0980377467
 20
-35.8842715128
 10
-114.1225892044
 20
-35.8711775398
 10
-114.171604981
 20
-35.8450726247
  0
LWPOLYLINE
  5
2C3
100
AcDbEntity
  8
0
100
AcDbPolyline
 62
7
  6
CONTINUOUS
 90
3
 70
0
 10
-111.9758999156
 20
-35.0766010257
 10
-111.8774107956
 20
-35.1288224602
 10
-111.828395019
 20
-35.1549273753
  0
LINE
  5
2C4
100
AcDbEntity
  8
0
100
AcDbLine
 62
7
  6
CONTINUOUS
 10
-113.6
 20
34.8181119899
 11
-113.6044491399
 21
34.8269852887
  0
LINE
  5
2C5
100
AcDbEntity
  8
0
100
AcDbLine
 62
7
  6
CONTINUOUS
 10
-112.4
 20
36.1818880102
 11
-112.3955508601
 21
36.1730147113
  0
LINE
  5
2C6
100
AcDbEntity
  8
0
100
AcDbLine
 62
7
  6
CONTINUOUS
 10
-113.6044491399
 20
34.8269852887
 11
-113.6272975093
 21
34.8727024837
  0
LINE
  5
2C7
100
AcDbEntity
  8
0
100
AcDbLine
 62
7
  6
CONTINUOUS
 10
-112.3955508601
 20
36.1730147113
 11
-112.3727024907
 21
36.1272975163
  0
LINE
  5
2C8
100
AcDbEntity
  8
0
100
AcDbLine
 62
7
  6
CONTINUOUS
 10
-113.5204046482
 20
34.9795953518
 11
-113.4999470109
 21
34.937866464
  0
LINE
  5
2C9
100
AcDbEntity
  8
0
100
AcDbLine
 62
7
  6
CONTINUOUS
 10
-112.4795953518
 20
36.0204046482
 11
-112.5000529891
 21
36.062133536
  0
LINE
  5
2CA
100
AcDbEntity
  8
0
100
AcDbLine
 62
7
  6
CONTINUOUS
 10
-113.4999470109
 20
34.937866464
 11
-113.5197234839
 21
34.9802765161
  0
LINE
  5
2CB
100
AcDbEntity
  8
0
100
AcDbLine
 62
7
  6
CONTINUOUS
 10
-112.5000529891
 20
36.062133536
 11
-112.4802765161
 21
36.0197234839
  0
LINE
  5
2CC
100
AcDbEntity
  8
0
100
AcDbLine
 62
7
  6
CONTINUOUS
 10
-114.122106287
 20
35.7388223726
 11
-114.1716048889
 21
35.8450726739
  0
LINE
  5
2CD
100
AcDbEntity
  8
0
100
AcDbLine
 62
7
  6
CONTINUOUS
 10
-111.877893713
 20
35.2611776274
 11
-111.8283951111
 21
35.1549273261
  0
LINE
  5
2CE
100
AcDbEntity
  8
0
100
AcDbLine
 62
7
  6
CONTINUOUS
 10
-114.1449972701
 20
35.7281482181
 11
-114.1900477491
 21
35.8323044581
  0
LINE
  5
2CF
100
AcDbEntity
  8
0
100
AcDbLine
 62
7
  6
CONTINUOUS
 10
-111.8550027299
 20
35.2718517819
 11
-111.809952252
 21
35.1676955411
  0
LINE
  5
2D0
100
AcDbEntity
  8
RACCORDO
100
AcDbLine
 62
7
  6
CONTINUOUS
 10
-81.8041107013
 20
-22.4
 11
-81.8023651948
 21
-22.5
  0
LINE
  5
2D1
100
AcDbEntity
  8
RACCORDO
100
AcDbLine
 62
7
  6
CONTINUOUS
 10
-81.8023651948
 20
22.5
 11
-81.8041107013
 21
22.4
  0
LINE
  5
2D2
100
AcDbEntity
  8
0
100
AcDbLine
 62
7
  6
CONTINUOUS
 10
-112.0738016863
 20
35.025263872
 11
-112.147788788
 21
34.98686137
  0
LWPOLYLINE
  5
2D3
100
AcDbEntity
  8
0
100
AcDbPolyline
 62
7
  6
CONTINUOUS
 90
4
 70
0
 10
-112.147788788
 20
34.98686137
 10
-112.2252366272
 20
34.9470718005
 10
-112.252396052
 20
34.9333229245
 10
-112.3100891716
 20
34.9038025697
  0
LWPOLYLINE
  5
2D4
100
AcDbEntity
  8
0
100
AcDbPolyline
 62
7
  6
CONTINUOUS
 90
3
 70
0
 10
-112.3100891716
 20
34.9038025697
 10
-112.3407625029
 20
34.8883464759
 10
-112.3727025934
 20
34.8727027659
  0
LINE
  5
2D5
100
AcDbEntity
  8
0
100
AcDbLine
 62
7
  6
CONTINUOUS
 10
-113.5204046482
 20
36.0204046481
 11
-113.5621339943
 21
35.9999464956
  0
LINE
  5
2D6
100
AcDbEntity
  8
0
100
AcDbLine
 62
7
  6
CONTINUOUS
 10
-112.4795953518
 20
34.9795953519
 11
-112.4378660057
 21
35.0000535044
  0
LINE
  5
2D7
100
AcDbEntity
  8
TRASH
100
AcDbLine
 62
7
  6
CONTINUOUS
 10
-114.1449972701
 20
35.7281482181
 11
-114.122106287
 21
35.7388223726
  0
LINE
  5
2D8
100
AcDbEntity
  8
TRASH
100
AcDbLine
 62
7
  6
CONTINUOUS
 10
-111.877893713
 20
35.2611776274
 11
-111.8550027299
 21
35.2718517819
  0
LINE
  5
2D9
100
AcDbEntity
  8
0
100
AcDbLine
 62
7
  6
CONTINUOUS
 10
-113.5621339943
 20
35.9999464956
 11
-113.5197267822
 21
36.019717435
  0
LINE
  5
2DA
100
AcDbEntity
  8
0
100
AcDbLine
 62
7
  6
CONTINUOUS
 10
-112.4378660057
 20
35.0000535044
 11
-112.4802732178
 21
34.980282565
  0
LINE
  5
2DB
100
AcDbEntity
  8
0
100
AcDbLine
 62
7
  6
CONTINUOUS
 10
-114.1221028135
 20
35.7388260178
 11
-113.6
 21
35.982289287
  0
LINE
  5
2DC
100
AcDbEntity
  8
0
100
AcDbLine
 62
7
  6
CONTINUOUS
 10
-111.8778971865
 20
35.2611739822
 11
-112.4
 21
35.017710713
  0
LINE
  5
2DD
100
AcDbEntity
  8
0
100
AcDbLine
 62
7
  6
CONTINUOUS
 10
-113.5197234839
 20
-36.0197234839
 11
-113.5621335303
 21
-35.9999470172
  0
LINE
  5
2DE
100
AcDbEntity
  8
TRASH
100
AcDbLine
 62
7
  6
CONTINUOUS
 10
-114.1221062937
 20
-35.7388223825
 11
-114.1449972769
 21
-35.7281482281
  0
LINE
  5
2DF
100
AcDbEntity
  8
0
100
AcDbLine
 62
7
  6
CONTINUOUS
 10
-112.4802765161
 20
-34.9802765161
 11
-112.4378664697
 21
-35.0000529828
  0
LINE
  5
2E0
100
AcDbEntity
  8
TRASH
100
AcDbLine
 62
7
  6
CONTINUOUS
 10
-111.8778937063
 20
-35.2611776175
 11
-111.8550027231
 21
-35.2718517719
  0
LINE
  5
2E1
100
AcDbEntity
  8
0
100
AcDbLine
 62
7
  6
CONTINUOUS
 10
-113.6
 20
-35.9822898071
 11
-114.1221066534
 21
-35.738824741
  0
LINE
  5
2E2
100
AcDbEntity
  8
0
100
AcDbLine
 62
7
  6
CONTINUOUS
 10
-112.4
 20
-35.0177101929
 11
-111.8778933466
 21
-35.261175259
  0
LWPOLYLINE
  5
2E3
100
AcDbEntity
  8
0
100
AcDbPolyline
 62
7
  6
CONTINUOUS
 90
4
 70
0
 10
-113.6272975093
 20
-36.1272975163
 10
-113.6591558065
 20
-36.111691826
 10
-113.6897554608
 20
-36.0962732603
 10
-113.7191594664
 20
-36.0812021728
  0
LWPOLYLINE
  5
2E4
100
AcDbEntity
  8
0
100
AcDbPolyline
 62
7
  6
CONTINUOUS
 90
4
 70
0
 10
-112.3727024907
 20
-34.8727024837
 10
-112.3408441935
 20
-34.888308174
 10
-112.3102445392
 20
-34.9037267397
 10
-112.2808405336
 20
-34.9187978272
  0
LINE
  5
2E5
100
AcDbEntity
  8
0
100
AcDbLine
 62
7
  6
CONTINUOUS
 10
-113.5621335303
 20
-35.9999470172
 11
-113.5204046482
 21
-36.0204046482
  0
LINE
  5
2E6
100
AcDbEntity
  8
0
100
AcDbLine
 62
7
  6
CONTINUOUS
 10
-112.4378664697
 20
-35.0000529828
 11
-112.4795953518
 21
-34.9795953518
  0
LINE
  5
2E7
100
AcDbEntity
  8
0
100
AcDbLine
 62
7
  6
CONTINUOUS
 10
-112.2808405336
 20
-34.9187978272
 11
-112.1991463063
 21
-34.9604183046
  0
LWPOLYLINE
  5
2E8
100
AcDbEntity
  8
0
100
AcDbPolyline
 62
7
  6
CONTINUOUS
 90
3
 70
0
 10
-112.1991463063
 20
-34.9604183046
 10
-112.1233223684
 20
-34.9995101966
 10
-112.0741052492
 20
-35.0251039337
  0
LINE
  5
2E9
100
AcDbEntity
  8
RACCORDO
100
AcDbLine
 62
7
  6
CONTINUOUS
 10
-65.1958892987
 20
22.4
 11
-65.1976348052
 21
22.5
  0
LINE
  5
2EA
100
AcDbEntity
  8
RACCORDO
100
AcDbLine
 62
7
  6
CONTINUOUS
 10
-59.3041107013
 20
-22.4
 11
-59.3023651948
 21
-22.5
  0
LINE
  5
2EB
100
AcDbEntity
  8
RACCORDO
100
AcDbLine
 62
7
  6
CONTINUOUS
 10
-65.1976348052
 20
-22.5
 11
-65.1958892987
 21
-22.4
  0
LINE
  5
2EC
100
AcDbEntity
  8
RACCORDO
100
AcDbLine
 62
7
  6
CONTINUOUS
 10
-59.3023651948
 20
22.5
 11
-59.3041107013
 21
22.4
  0
LINE
  5
2ED
100
AcDbEntity
  8
0
100
AcDbLine
 62
7
  6
CONTINUOUS
 10
114.6719912502
 20
-35.7281394927
 11
114.4052030739
 21
-35.786308213
  0
LINE
  5
2EE
100
AcDbEntity
  8
0
100
AcDbLine
 62
7
  6
CONTINUOUS
 10
111.3280087497
 20
-35.2718605079
 11
111.5947969249
 21
-35.2136917878
  0
LWPOLYLINE
  5
2EF
100
AcDbEntity
  8
0
100
AcDbPolyline
 62
7
  6
CONTINUOUS
 90
3
 70
0
 10
111.5947969249
 20
-35.2136917878
 10
111.7560887041
 20
-35.1791346494
 10
111.8099522509
 20
-35.1676955419
  0
LINE
  5
2F0
100
AcDbEntity
  8
0
100
AcDbLine
 62
7
  6
CONTINUOUS
 10
114.4052030739
 20
-35.786308213
 11
114.190047748
 21
-35.8323044589
  0
LINE
  5
2F1
100
AcDbEntity
  8
0
100
AcDbLine
 62
7
  6
CONTINUOUS
 10
-114.5119012961
 20
-35.7630581777
 11
-114.1898066956
 21
-35.8324714129
  0
LINE
  5
2F2
100
AcDbEntity
  8
0
100
AcDbLine
 62
7
  6
CONTINUOUS
 10
-111.8101933044
 20
-35.1675285871
 11
-111.4881002192
 21
-35.2369414919
  0
LINE
  5
2F3
100
AcDbEntity
  8
0
100
AcDbLine
 62
7
  6
CONTINUOUS
 10
-114.6720177359
 20
-35.7279452996
 11
-114.5119012961
 21
-35.7630581777
  0
LINE
  5
2F4
100
AcDbEntity
  8
0
100
AcDbLine
 62
7
  6
CONTINUOUS
 10
-111.4881002192
 20
-35.2369414919
 11
-111.3279822641
 21
-35.2720547004
  0
LINE
  5
2F5
100
AcDbEntity
  8
RACCORDO
100
AcDbLine
 62
250
  6
CONTINUOUS
 10
-51.004747151
 20
-39.9340816586
 11
-51.0070026752
 21
-38.8740626491
  0
LINE
  5
2F6
100
AcDbEntity
  8
RACCORDO
100
AcDbLine
 62
250
  6
CONTINUOUS
 10
-51.0005809269
 20
-40.4225264979
 11
-51.0013534427
 21
-39.9340888691
  0
LINE
  5
2F7
100
AcDbEntity
  8
RACCORDO
100
AcDbLine
 62
250
  6
CONTINUOUS
 10
-51.0070026752
 20
-38.8740626491
 11
-51.0085963449
 21
-36.6898678021
  0
LINE
  5
2F8
100
AcDbEntity
  8
RACCORDO
100
AcDbLine
 62
250
  6
CONTINUOUS
 10
-51.0067094905
 20
34.4267954325
 11
-51.0085964761
 21
36.6921354823
  0
LINE
  5
2F9
100
AcDbEntity
  8
RACCORDO
100
AcDbLine
 62
250
  6
CONTINUOUS
 10
-51.0014312601
 20
41.2986874863
 11
-51.0014312601
 21
39.9340380644
  0
LINE
  5
2FA
100
AcDbEntity
  8
RACCORDO
100
AcDbLine
 62
250
  6
CONTINUOUS
 10
-50.9896098835
 20
-25.8770236831
 11
-50.9896098835
 21
-24.1027230241
  0
LWPOLYLINE
  5
2FB
100
AcDbEntity
  8
RACCORDO
100
AcDbPolyline
 62
250
  6
CONTINUOUS
 90
3
 70
0
 10
-51.0067094905
 20
34.4267954325
 10
-50.9896234162
 20
25.6654241118
 10
-50.9896098814
 20
24.1027230177
  0
LWPOLYLINE
  5
2FC
100
AcDbEntity
  8
RACCORDO
100
AcDbPolyline
 62
250
  6
CONTINUOUS
 90
3
 70
0
 10
-51.0085964761
 20
36.6921354823
 10
-51.0070012299
 20
38.8749602757
 10
-51.0047471505
 20
39.9340818796
  0
LINE
  5
2FD
100
AcDbEntity
  8
RACCORDO
100
AcDbLine
 62
250
  6
CONTINUOUS
 10
-51.0085963449
 20
-36.6898678021
 11
-51.0067046011
 21
-34.4236349428
  0
LWPOLYLINE
  5
2FE
100
AcDbEntity
  8
RACCORDO
100
AcDbPolyline
 62
250
  6
CONTINUOUS
 90
3
 70
0
 10
-51.0067046011
 20
-34.4236349428
 10
-50.9993984267
 20
-30.8732036103
 10
-50.9896098792
 20
-25.8770203897
  0
LINE
  5
2FF
100
AcDbEntity
  8
0
100
AcDbLine
 62
7
  6
CONTINUOUS
 10
-113.6272975093
 20
-36.1272975163
 11
-113.6
 21
-36.1000000064
  0
LINE
  5
300
100
AcDbEntity
  8
0
100
AcDbLine
 62
7
  6
CONTINUOUS
 10
-112.4
 20
-34.8999999936
 11
-112.3727024907
 21
-34.8727024837
  0
LINE
  5
301
100
AcDbEntity
  8
0
100
AcDbLine
 62
7
  6
CONTINUOUS
 10
-113.5204046482
 20
-36.0204046482
 11
-113.5197234842
 21
-36.0197234842
  0
LINE
  5
302
100
AcDbEntity
  8
0
100
AcDbLine
 62
7
  6
CONTINUOUS
 10
-112.4802765158
 20
-34.9802765158
 11
-112.4795953518
 21
-34.9795953518
  0
LINE
  5
303
100
AcDbEntity
  8
0
100
AcDbLine
 62
7
  6
CONTINUOUS
 10
-112.4802765158
 20
34.9802765158
 11
-112.4795953518
 21
34.9795953519
  0
LINE
  5
304
100
AcDbEntity
  8
0
100
AcDbLine
 62
7
  6
CONTINUOUS
 10
-113.5197234842
 20
36.0197234842
 11
-113.5204046482
 21
36.0204046481
  0
LINE
  5
305
100
AcDbEntity
  8
0
100
AcDbLine
 62
7
  6
CONTINUOUS
 10
-112.4
 20
34.9000001418
 11
-112.3727025934
 21
34.8727027659
  0
LINE
  5
306
100
AcDbEntity
  8
0
100
AcDbLine
 62
7
  6
CONTINUOUS
 10
-113.6
 20
36.0999998582
 11
-113.6272974066
 21
36.1272972341
  0
LINE
  5
307
100
AcDbEntity
  8
RACCORDO
100
AcDbLine
 62
7
  6
CONTINUOUS
 10
-42.6958892987
 20
22.4
 11
-42.6976348052
 21
22.5
  0
LINE
  5
308
100
AcDbEntity
  8
RACCORDO
100
AcDbLine
 62
7
  6
CONTINUOUS
 10
-42.6976348052
 20
-22.5
 11
-42.6958892987
 21
-22.4
  0
LWPOLYLINE
  5
309
100
AcDbEntity
  8
RACCORDO
100
AcDbPolyline
 62
250
  6
CONTINUOUS
 90
5
 70
0
 10
-51.0013539484
 20
-41.2986874865
 10
-50.9996640035
 20
-41.2752788914
 10
-50.9985645829
 20
-41.2150027048
 10
-50.9980556865
 20
-41.1189837249
 10
-51.0005809269
 20
-40.4225264979
  0
LWPOLYLINE
  5
30A
100
AcDbEntity
  8
0
100
AcDbPolyline
 62
7
  6
CONTINUOUS
 90
5
 70
0
 43
0.3500000006
 10
-0.2142857063
 20
51.9642863617
 10
0.1428571435
 20
52.1785708466
 10
0.1428571435
 20
52.821428833
 10
-0.2142857063
 20
53.2500023346
 10
-1.0714285848
 20
53.2500023346
  0
LINE
  5
30B
100
AcDbEntity
  8
RACCORDO
100
AcDbLine
 62
250
  6
CONTINUOUS
 10
113.1241503432
 20
-39.7721419415
 11
112.5698683336
 21
-39.789872474
  0
LWPOLYLINE
  5
30C
100
AcDbEntity
  8
RACCORDO
100
AcDbPolyline
 62
250
  6
CONTINUOUS
 90
4
 70
0
 10
112.5698683336
 20
-39.789872474
 10
111.7936179292
 20
-39.810979401
 10
111.544190907
 20
-39.815063425
 10
111.0623982457
 20
-39.8203151663
  0
LINE
  5
30D
100
AcDbEntity
  8
RACCORDO
100
AcDbLine
 62
250
  6
CONTINUOUS
 10
108.4973399021
 20
-39.8376366624
 11
106.7282081709
 21
-39.8658804649
  0
LWPOLYLINE
  5
30E
100
AcDbEntity
  8
RACCORDO
100
AcDbPolyline
 62
250
  6
CONTINUOUS
 90
3
 70
0
 10
106.7282081709
 20
-39.8658804649
 10
106.398545766
 20
-39.8704295359
 10
106.2373261376
 20
-39.8720198492
  0
LINE
  5
30F
100
AcDbEntity
  8
RACCORDO
100
AcDbLine
 62
250
  6
CONTINUOUS
 10
108.9881797824
 20
-39.8322955096
 11
108.4973399021
 21
-39.8376366624
  0
LINE
  5
310
100
AcDbEntity
  8
SUPERFICI
100
AcDbLine
 62
7
  6
CONTINUOUS
 10
-113.0000000088
 20
-41.5000003491
 11
113.0000000088
 21
-41.5000003491
  0
LINE
  5
311
100
AcDbEntity
  8
DRAFT
100
AcDbLine
 62
7
  6
CONTINUOUS
 10
113.0
 20
-41.5
 11
-113.0
 21
-41.5
  0
LINE
  5
312
100
AcDbEntity
  8
RACCORDO
100
AcDbLine
 62
250
  6
CONTINUOUS
 10
-107.0096675558
 20
-41.297969536
 11
-113.0000002059
 21
-41.3014364564
  0
LINE
  5
313
100
AcDbEntity
  8
RACCORDO
100
AcDbLine
 62
250
  6
CONTINUOUS
 10
-83.7416560969
 20
-41.2986054085
 11
-107.0096675558
 21
-41.297969536
  0
LINE
  5
314
100
AcDbEntity
  8
RACCORDO
100
AcDbLine
 62
250
  6
CONTINUOUS
 10
65.2606696194
 20
-41.2990315074
 11
-83.7416560969
 21
-41.2986054085
  0
LWPOLYLINE
  5
315
100
AcDbEntity
  8
RACCORDO
100
AcDbPolyline
 62
250
  6
CONTINUOUS
 90
4
 70
0
 10
107.42000247
 20
-41.2980278533
 10
107.2367136403
 20
-41.2979980796
 10
107.0598251177
 20
-41.2979749437
 10
65.2606696194
 20
-41.2990315074
  0
LWPOLYLINE
  5
316
100
AcDbEntity
  8
RACCORDO
100
AcDbPolyline
 62
250
  6
CONTINUOUS
 90
5
 70
0
 10
108.4569855252
 20
-41.2983121902
 10
108.2312955037
 20
-41.2982336134
 10
108.0151908555
 20
-41.2981673319
 10
107.8077704574
 20
-41.2981108839
 10
107.42000247
 20
-41.2980278533
  0
LWPOLYLINE
  5
317
100
AcDbEntity
  8
RACCORDO
100
AcDbPolyline
 62
250
  6
CONTINUOUS
 90
5
 70
0
 10
109.7197996088
 20
-41.2988941045
 10
109.4530566271
 20
-41.2987533297
 10
109.1924689532
 20
-41.2986241542
 10
108.9400091476
 20
-41.298508335
 10
108.4569855252
 20
-41.2983121902
  0
LWPOLYLINE
  5
318
100
AcDbEntity
  8
RACCORDO
100
AcDbPolyline
 62
250
  6
CONTINUOUS
 90
3
 70
0
 10
110.4959569019
 20
-41.2993475602
 10
110.2412497462
 20
-41.2991912197
 10
109.7197996088
 20
-41.2988941045
  0
LWPOLYLINE
  5
319
100
AcDbEntity
  8
RACCORDO
100
AcDbPolyline
 62
250
  6
CONTINUOUS
 90
3
 70
0
 10
111.2225229426
 20
-41.299831134
 10
110.9865935001
 20
-41.2996675173
 10
110.4959569019
 20
-41.2993475602
  0
LWPOLYLINE
  5
31A
100
AcDbEntity
  8
RACCORDO
100
AcDbPolyline
 62
250
  6
CONTINUOUS
 90
3
 70
0
 10
111.9493153615
 20
-41.3003985812
 10
111.7038838732
 20
-41.300196666
 10
111.2225229426
 20
-41.299831134
  0
LWPOLYLINE
  5
31B
100
AcDbEntity
  8
RACCORDO
100
AcDbPolyline
 62
250
  6
CONTINUOUS
 90
4
 70
0
 10
113.0000002059
 20
-41.3014364564
 10
112.7272385912
 20
-41.3011430758
 10
112.4609927204
 20
-41.3008717861
 10
111.9493153615
 20
-41.3003985812
  0
LINE
  5
31C
100
AcDbEntity
  8
RACCORDO
100
AcDbLine
 62
250
  6
CONTINUOUS
 10
-108.2103791227
 20
-39.8415462279
 11
-108.9110237942
 21
-39.8330110753
  0
LINE
  5
31D
100
AcDbEntity
  8
RACCORDO
100
AcDbLine
 62
250
  6
CONTINUOUS
 10
-106.339902096
 20
-39.8710675767
 11
-106.8450876551
 21
-39.8640905107
  0
LINE
  5
31E
100
AcDbEntity
  8
RACCORDO
100
AcDbLine
 62
250
  6
CONTINUOUS
 10
-106.8450876551
 20
-39.8640905107
 11
-108.2103791227
 21
-39.8415462279
  0
LINE
  5
31F
100
AcDbEntity
  8
RACCORDO
100
AcDbLine
 62
250
  6
CONTINUOUS
 10
-111.7553504118
 20
-39.8117587988
 11
-112.5522757228
 21
-39.7905940846
  0
LWPOLYLINE
  5
320
100
AcDbEntity
  8
RACCORDO
100
AcDbPolyline
 62
250
  6
CONTINUOUS
 90
46
 70
0
 10
-113.0000002059
 20
-41.3014370206
 10
-113.3834372335
 20
-41.2889945921
 10
-113.7549812076
 20
-41.2525499709
 10
-114.1132785433
 20
-41.194235525
 10
-114.4581300376
 20
-41.1159502376
 10
-114.7877390236
 20
-41.0199544
 10
-115.0988528037
 20
-40.9093777776
 10
-115.3897422413
 20
-40.7873560205
 10
-115.6619010181
 20
-40.6557261151
 10
-115.9172404323
 20
-40.5156845609
 10
-116.1557748446
 20
-40.3691460812
 10
-116.3779395235
 20
-40.2177394467
 10
-116.5861307466
 20
-40.0614941223
 10
-116.7807569282
 20
-39.9015284404
 10
-116.9620098331
 20
-39.7391090822
 10
-117.1316977003
 20
-39.573895699
 10
-117.2906639725
 20
-39.4061154806
 10
-117.4386077857
 20
-39.2371475718
 10
-117.5755582608
 20
-39.0681560749
 10
-117.7017223518
 20
-38.9001790852
 10
-117.8177867476
 20
-38.7336150046
 10
-117.9245304296
 20
-38.568591089
 10
-118.0222938815
 20
-38.4058094033
 10
-118.1116164227
 20
-38.245623132
 10
-118.1934471121
 20
-38.0874823189
 10
-118.2682333755
 20
-37.9315737321
 10
-118.3362410683
 20
-37.7784260214
 10
-118.398020085
 20
-37.6278863209
 10
-118.4539368285
 20
-37.4801223364
 10
-118.5042759723
 20
-37.3354876136
 10
-118.549412653
 20
-37.1940503544
 10
-118.5896515846
 20
-37.056039332
 10
-118.6253109298
 20
-36.9216108124
 10
-118.6567513103
 20
-36.7906858075
 10
-118.6842486679
 20
-36.663440635
 10
-118.7080890018
 20
-36.5399694856
 10
-118.7286004429
 20
-36.4200379965
 10
-118.7460285312
 20
-36.3037305068
 10
-118.7606091412
 20
-36.1911435482
 10
-118.7726064241
 20
-36.082036976
 10
-118.7822284904
 20
-35.9764717813
 10
-118.7896772663
 20
-35.8745035992
 10
-118.795164158
 20
-35.7758679075
 10
-118.7988670023
 20
-35.6804995139
 10
-118.8009481047
 20
-35.5885344277
 10
-118.8015710578
 20
-35.4999995694
  0
LINE
  5
321
100
AcDbEntity
  8
RACCORDO
100
AcDbLine
 62
250
  6
CONTINUOUS
 10
-112.5522757228
 20
-39.7905940846
 11
-113.1241503432
 21
-39.7721419415
  0
LWPOLYLINE
  5
322
100
AcDbEntity
  8
RACCORDO
100
AcDbPolyline
 62
250
  6
CONTINUOUS
 90
46
 70
0
 10
-113.1241503432
 20
-39.7721419415
 10
-113.3840417369
 20
-39.7524981558
 10
-113.6356712814
 20
-39.7191345229
 10
-113.8788556243
 20
-39.6722174655
 10
-114.1144293847
 20
-39.6095617044
 10
-114.3411550204
 20
-39.532462836
 10
-114.5560157964
 20
-39.4464215835
 10
-114.7579541425
 20
-39.352707712
 10
-114.9480694409
 20
-39.2505252371
 10
-115.1270848872
 20
-39.1431973625
 10
-115.2944915141
 20
-39.0328392118
 10
-115.4506957104
 20
-38.9193546672
 10
-115.5976924488
 20
-38.8031633434
 10
-115.7357297439
 20
-38.6847808035
 10
-115.8645038784
 20
-38.5649276658
 10
-115.9851534946
 20
-38.4440314246
 10
-116.0982987195
 20
-38.3222784229
 10
-116.2037994942
 20
-38.2003308653
 10
-116.3016744098
 20
-38.0792478335
 10
-116.3923372539
 20
-37.9588734082
 10
-116.4761799184
 20
-37.8393410636
 10
-116.5533524905
 20
-37.7219672047
 10
-116.6245722726
 20
-37.6062377292
 10
-116.690256304
 20
-37.4915249957
 10
-116.7502848875
 20
-37.378969031
 10
-116.8049587391
 20
-37.2691827
 10
-116.8549088696
 20
-37.161622616
 10
-116.9004660668
 20
-37.0560544238
 10
-116.9414511017
 20
-36.9533016641
 10
-116.978099707
 20
-36.8537459121
 10
-117.0112366832
 20
-36.7564284513
 10
-117.040885641
 20
-36.6615986661
 10
-117.0670340244
 20
-36.569839352
 10
-117.0904053755
 20
-36.4804215353
 10
-117.1111164505
 20
-36.3934250856
 10
-117.1291269833
 20
-36.3092279502
 10
-117.1448820126
 20
-36.2274200626
 10
-117.1585296291
 20
-36.1481099227
 10
-117.1701157847
 20
-36.0715012947
 10
-117.1798951253
 20
-35.9972631939
 10
-117.1879958425
 20
-35.9254831448
 10
-117.1945334784
 20
-35.8562967679
 10
-117.1996992807
 20
-35.7894031696
 10
-117.2036126548
 20
-35.7247417741
 10
-117.2063399662
 20
-35.6624992601
 10
-117.207986942
 20
-35.6027333004
  0
LINE
  5
323
100
AcDbEntity
  8
RACCORDO
100
AcDbLine
 62
7
  6
CONTINUOUS
 10
-36.8041107013
 20
-22.4
 11
-36.8023651948
 21
-22.5
  0
LINE
  5
324
100
AcDbEntity
  8
RACCORDO
100
AcDbLine
 62
7
  6
CONTINUOUS
 10
-36.8023651948
 20
22.5
 11
-36.8041107013
 21
22.4
  0
LINE
  5
325
100
AcDbEntity
  8
0
100
AcDbLine
 62
7
  6
CONTINUOUS
 10
-114.1900477491
 20
-35.1676955419
 11
-114.1716048889
 21
-35.1549273261
  0
LINE
  5
326
100
AcDbEntity
  8
0
100
AcDbLine
 62
7
  6
CONTINUOUS
 10
-111.8283951111
 20
-35.8450726739
 11
-111.809952252
 21
-35.8323044589
  0
LINE
  5
327
100
AcDbEntity
  8
RACCORDO
100
AcDbLine
 62
250
  6
CONTINUOUS
 10
109.7786497615
 20
-39.8268766731
 11
108.9881797824
 21
-39.8322955096
  0
LWPOLYLINE
  5
328
100
AcDbEntity
  8
RACCORDO
100
AcDbPolyline
 62
250
  6
CONTINUOUS
 90
3
 70
0
 10
106.2373261376
 20
-39.8720198492
 10
105.9184138935
 20
-39.873729722
 10
105.7595530938
 20
-39.8737975197
  0
LINE
  5
329
100
AcDbEntity
  8
RACCORDO
100
AcDbLine
 62
250
  6
CONTINUOUS
 10
111.0623982457
 20
-39.8203151663
 11
109.7786497615
 21
-39.8268766731
  0
LINE
  5
32A
100
AcDbEntity
  8
RACCORDO
100
AcDbLine
 62
250
  6
CONTINUOUS
 10
-103.7751777622
 20
-39.8634672391
 11
-105.69512149
 21
-39.8736573716
  0
LINE
  5
32B
100
AcDbEntity
  8
RACCORDO
100
AcDbLine
 62
250
  6
CONTINUOUS
 10
98.6001296976
 20
-39.8747279257
 11
97.1515729104
 21
-39.8789032782
  0
LINE
  5
32C
100
AcDbEntity
  8
RACCORDO
100
AcDbLine
 62
250
  6
CONTINUOUS
 10
53.047636887
 20
-39.9298709069
 11
51.004747151
 21
-39.9340816582
  0
LWPOLYLINE
  5
32D
100
AcDbEntity
  8
RACCORDO
100
AcDbPolyline
 62
250
  6
CONTINUOUS
 90
3
 70
0
 10
54.7867893446
 20
-39.9266801233
 10
54.1861572963
 20
-39.9277388432
 10
53.047636887
 20
-39.9298709069
  0
LINE
  5
32E
100
AcDbEntity
  8
RACCORDO
100
AcDbLine
 62
250
  6
CONTINUOUS
 10
56.0643295845
 20
-39.9245571026
 11
54.7867893446
 21
-39.9266801233
  0
LINE
  5
32F
100
AcDbEntity
  8
RACCORDO
100
AcDbLine
 62
250
  6
CONTINUOUS
 10
97.1515729104
 20
-39.8789032782
 11
95.1151412646
 21
-39.8825196475
  0
LINE
  5
330
100
AcDbEntity
  8
RACCORDO
100
AcDbLine
 62
250
  6
CONTINUOUS
 10
57.4458974149
 20
-39.9224963146
 11
56.0643295845
 21
-39.9245571026
  0
LWPOLYLINE
  5
331
100
AcDbEntity
  8
RACCORDO
100
AcDbPolyline
 62
250
  6
CONTINUOUS
 90
3
 70
0
 10
95.1151412646
 20
-39.8825196475
 10
94.2168735643
 20
-39.883732334
 10
93.7493100132
 20
-39.8843021139
  0
LWPOLYLINE
  5
332
100
AcDbEntity
  8
RACCORDO
100
AcDbPolyline
 62
250
  6
CONTINUOUS
 90
3
 70
0
 10
59.7508977314
 20
-39.9194898253
 10
58.9533047276
 20
-39.9204812854
 10
57.4458974149
 20
-39.9224963146
  0
LINE
  5
333
100
AcDbEntity
  8
RACCORDO
100
AcDbLine
 62
250
  6
CONTINUOUS
 10
93.7493100132
 20
-39.8843021139
 11
88.9450829353
 21
-39.8900143193
  0
LINE
  5
334
100
AcDbEntity
  8
RACCORDO
100
AcDbLine
 62
250
  6
CONTINUOUS
 10
88.9450829353
 20
-39.8900143193
 11
87.0816335954
 21
-39.892079075
  0
LINE
  5
335
100
AcDbEntity
  8
RACCORDO
100
AcDbLine
 62
250
  6
CONTINUOUS
 10
87.0816335954
 20
-39.892079075
 11
59.7508977314
 21
-39.9194898253
  0
LINE
  5
336
100
AcDbEntity
  8
RACCORDO
100
AcDbLine
 62
250
  6
CONTINUOUS
 10
102.8221345277
 20
-39.8626510757
 11
98.6001296976
 21
-39.8747279257
  0
LINE
  5
337
100
AcDbEntity
  8
RACCORDO
100
AcDbLine
 62
250
  6
CONTINUOUS
 10
51.0013539484
 20
-39.9340380355
 11
-51.0013534427
 21
-39.9340888691
  0
LINE
  5
338
100
AcDbEntity
  8
RACCORDO
100
AcDbLine
 62
250
  6
CONTINUOUS
 10
118.8015749741
 20
-35.4999995694
 11
119.0000003491
 21
-35.5000000243
  0
LINE
  5
339
100
AcDbEntity
  8
RACCORDO
100
AcDbLine
 62
250
  6
CONTINUOUS
 10
-118.8015749741
 20
-35.4999995694
 11
-119.0000003491
 21
-35.5000000243
  0
LINE
  5
33A
100
AcDbEntity
  8
0
100
AcDbLine
 62
7
  6
CONTINUOUS
 10
-111.8549920759
 20
-35.7281927449
 11
-111.3280087498
 21
-35.7281394927
  0
LINE
  5
33B
100
AcDbEntity
  8
0
100
AcDbLine
 62
7
  6
CONTINUOUS
 10
114.1450079241
 20
-35.7281927449
 11
114.6719912502
 21
-35.7281394927
  0
LINE
  5
33C
100
AcDbEntity
  8
0
100
AcDbLine
 62
7
  6
CONTINUOUS
 10
-114.6719912503
 20
-35.2718605079
 11
-114.1450079232
 21
-35.27180726
  0
LINE
  5
33D
100
AcDbEntity
  8
0
100
AcDbLine
 62
7
  6
CONTINUOUS
 10
111.3280087497
 20
-35.2718605079
 11
111.8549920768
 21
-35.27180726
  0
LINE
  5
33E
100
AcDbEntity
  8
RACCORDO
100
AcDbLine
 62
250
  6
CONTINUOUS
 10
-62.2964311027
 20
-39.9165623056
 11
-89.5322707872
 21
-39.889341716
  0
LINE
  5
33F
100
AcDbEntity
  8
RACCORDO
100
AcDbLine
 62
250
  6
CONTINUOUS
 10
-101.6850195404
 20
-39.8637877316
 11
-103.7751777622
 21
-39.8634672391
  0
LINE
  5
340
100
AcDbEntity
  8
0
100
AcDbLine
 62
7
  6
CONTINUOUS
 10
-114.1450395831
 20
-35.7283532711
 11
-114.6720177359
 21
-35.7279452996
  0
LINE
  5
341
100
AcDbEntity
  8
0
100
AcDbLine
 62
7
  6
CONTINUOUS
 10
111.8549604169
 20
-35.7283532711
 11
111.3279822641
 21
-35.7279452996
  0
LINE
  5
342
100
AcDbEntity
  8
0
100
AcDbLine
 62
7
  6
CONTINUOUS
 10
-111.8549604169
 20
-35.2716467289
 11
-111.3279822641
 21
-35.2720547004
  0
LINE
  5
343
100
AcDbEntity
  8
0
100
AcDbLine
 62
7
  6
CONTINUOUS
 10
114.1450395831
 20
-35.2716467289
 11
114.6720177359
 21
-35.2720547004
  0
LINE
  5
344
100
AcDbEntity
  8
RACCORDO
100
AcDbLine
 62
250
  6
CONTINUOUS
 10
-89.5322707872
 20
-39.889341716
 11
-96.6841192915
 21
-39.8799130598
  0
LWPOLYLINE
  5
345
100
AcDbEntity
  8
RACCORDO
100
AcDbPolyline
 62
250
  6
CONTINUOUS
 90
3
 70
0
 10
-51.004747151
 20
-39.9340816586
 10
-52.4920832393
 20
-39.9309789143
 10
-62.2964311027
 20
-39.9165623056
  0
LINE
  5
346
100
AcDbEntity
  8
RACCORDO
100
AcDbLine
 62
250
  6
CONTINUOUS
 10
-105.69512149
 20
-39.8736573716
 11
-106.0157308584
 21
-39.873358853
  0
LINE
  5
347
100
AcDbEntity
  8
RACCORDO
100
AcDbLine
 62
250
  6
CONTINUOUS
 10
-96.6841192915
 20
-39.8799130598
 11
-98.5962642346
 21
-39.8747430794
  0
LINE
  5
348
100
AcDbEntity
  8
RACCORDO
100
AcDbLine
 62
250
  6
CONTINUOUS
 10
-98.5962642346
 20
-39.8747430794
 11
-99.9412512
 21
-39.8694545298
  0
LINE
  5
349
100
AcDbEntity
  8
RACCORDO
100
AcDbLine
 62
250
  6
CONTINUOUS
 10
-99.9412512
 20
-39.8694545298
 11
-101.6850195404
 21
-39.8637877316
  0
LINE
  5
34A
100
AcDbEntity
  8
RACCORDO
100
AcDbLine
 62
250
  6
CONTINUOUS
 10
104.431746568
 20
-39.8657680069
 11
102.8221345277
 21
-39.8626510757
  0
LINE
  5
34B
100
AcDbEntity
  8
RACCORDO
100
AcDbLine
 62
250
  6
CONTINUOUS
 10
105.7595530938
 20
-39.8737975197
 11
104.431746568
 21
-39.8657680069
  0
LWPOLYLINE
  5
34C
100
AcDbEntity
  8
RACCORDO
100
AcDbPolyline
 62
250
  6
CONTINUOUS
 90
5
 70
0
 10
-110.7417305929
 20
-39.8224263105
 10
-110.9962280926
 20
-39.8206114795
 10
-111.2450521475
 20
-39.8180613882
 10
-111.4986087254
 20
-39.815804819
 10
-111.7553504118
 20
-39.8117587988
  0
LINE
  5
34D
100
AcDbEntity
  8
RACCORDO
100
AcDbLine
 62
250
  6
CONTINUOUS
 10
-106.0157308584
 20
-39.873358853
 11
-106.339902096
 21
-39.8710675767
  0
LWPOLYLINE
  5
34E
100
AcDbEntity
  8
RACCORDO
100
AcDbPolyline
 62
250
  6
CONTINUOUS
 90
3
 70
0
 10
-108.9110237942
 20
-39.8330110753
 10
-109.1606088371
 20
-39.83074302
 10
-110.7417305929
 20
-39.8224263105
  0
LINE
  5
34F
100
AcDbEntity
  8
0
100
AcDbLine
 62
7
  6
CONTINUOUS
 10
-114.1898066956
 20
35.1675285871
 11
-114.171604981
 21
35.1549273753
  0
LINE
  5
350
100
AcDbEntity
  8
0
100
AcDbLine
 62
7
  6
CONTINUOUS
 10
-111.828395019
 20
35.8450726247
 11
-111.8101933044
 21
35.8324714129
  0
LWPOLYLINE
  5
351
100
AcDbEntity
  8
RACCORDO
100
AcDbPolyline
 62
250
  6
CONTINUOUS
 90
28
 70
0
 10
95.6939568631
 20
-25.8817506947
 10
95.9155443356
 20
-25.8737466272
 10
96.1383344053
 20
-25.8528199297
 10
96.3625051879
 20
-25.8188678994
 10
96.5894872216
 20
-25.7701911906
 10
96.8175545361
 20
-25.7059016967
 10
97.0418222182
 20
-25.6273528625
 10
97.2603940467
 20
-25.5342543902
 10
97.4719087536
 20
-25.4270938229
 10
97.6722942207
 20
-25.3099891992
 10
97.8593053382
 20
-25.1844619094
 10
98.0330629633
 20
-25.051111113
 10
98.1938241244
 20
-24.9134191474
 10
98.339747427
 20
-24.7733741652
 10
98.4719981685
 20
-24.6304497655
 10
98.5954486851
 20
-24.4840431283
 10
98.7086562293
 20
-24.334706392
 10
98.8112558568
 20
-24.1819126622
 10
98.9081333693
 20
-24.0225925321
 10
98.9986307931
 20
-23.855894612
 10
99.0804724194
 20
-23.6819030064
 10
99.154287427
 20
-23.4982447923
 10
99.2215907484
 20
-23.3032850663
 10
99.279904353
 20
-23.0980663026
 10
99.3246920325
 20
-22.8845007233
 10
99.3557127009
 20
-22.6635961716
 10
99.3760863845
 20
-22.435067398
 10
99.3873166686
 20
-22.1993602702
  0
LWPOLYLINE
  5
352
100
AcDbEntity
  8
RACCORDO
100
AcDbPolyline
 62
250
  6
CONTINUOUS
 90
10
 70
0
 10
-6.3
 20
-25.8770236833
 10
-6.0608540761
 20
-25.8694108394
 10
-5.8245266752
 20
-25.8475574794
 10
-5.5910177972
 20
-25.8114634334
 10
-5.3593906195
 20
-25.7608296661
 10
-5.1305819647
 20
-25.695954677
 10
-4.907402301
 20
-25.617734592
 10
-4.6907884511
 20
-25.5264680896
 10
-4.4798035923
 20
-25.421856464
 10
-4.2744477246
 20
-25.3039001
  0
LWPOLYLINE
  5
353
100
AcDbEntity
  8
RACCORDO
100
AcDbPolyline
 62
250
  6
CONTINUOUS
 90
28
 70
0
 10
95.7
 20
-24.1025766005
 10
95.8131328255
 20
-24.0993465979
 10
95.9279151443
 20
-24.0891231455
 10
96.0438877265
 20
-24.0715726212
 10
96.1612125943
 20
-24.0462186145
 10
96.2786553084
 20
-24.0128684185
 10
96.3937072431
 20
-23.9720396249
 10
96.5061375328
 20
-23.9237888087
 10
96.6152201603
 20
-23.868399145
 10
96.7180809861
 20
-23.807643172
 10
96.8140653408
 20
-23.7426003593
 10
96.9036726998
 20
-23.6736435147
 10
96.9862100345
 20
-23.6020749479
 10
97.0611317098
 20
-23.5293538472
 10
97.1294306962
 20
-23.4555084026
 10
97.1926600492
 20
-23.3795231891
 10
97.2506802681
 20
-23.3020264775
 10
97.3037552719
 20
-23.2231454381
 10
97.3534604283
 20
-23.1406089735
 10
97.3996522814
 20
-23.0542317874
 10
97.4418568903
 20
-22.9644283864
 10
97.4804909963
 20
-22.8694733437
 10
97.5152010624
 20
-22.7686555022
 10
97.5450209811
 20
-22.6628639007
 10
97.5692086548
 20
-22.552745925
 10
97.587165735
 20
-22.4387323985
 10
97.5983581794
 20
-22.3210153557
 10
97.6022179567
 20
-22.2
  0
LWPOLYLINE
  5
354
100
AcDbEntity
  8
RACCORDO
100
AcDbPolyline
 62
250
  6
CONTINUOUS
 90
3
 70
0
 10
-95.6939568631
 20
-25.8817506947
 10
-95.2425591646
 20
-25.8789394566
 10
-94.3258102146
 20
-25.8826269546
  0
LINE
  5
355
100
AcDbEntity
  8
RACCORDO
100
AcDbLine
 62
250
  6
CONTINUOUS
 10
78.2901983395
 20
-25.8733652838
 11
80.2764019679
 21
-25.8712647716
  0
LWPOLYLINE
  5
356
100
AcDbEntity
  8
RACCORDO
100
AcDbPolyline
 62
250
  6
CONTINUOUS
 90
10
 70
0
 10
83.1506823897
 20
-25.8725007268
 10
84.0283178748
 20
-25.8718421551
 10
84.8685994291
 20
-25.8727614535
 10
85.6722566609
 20
-25.875644832
 10
86.4458055284
 20
-25.8762902707
 10
87.1920905479
 20
-25.8726683387
 10
87.9095995758
 20
-25.8709392975
 10
88.5989719815
 20
-25.8724748909
 10
89.2651087156
 20
-25.8697735494
 10
89.909658789
 20
-25.8657905894
  0
LWPOLYLINE
  5
357
100
AcDbEntity
  8
RACCORDO
100
AcDbPolyline
 62
250
  6
CONTINUOUS
 90
3
 70
0
 10
80.2764019679
 20
-25.8712647716
 10
81.2804454337
 20
-25.8709608932
 10
83.1506823897
 20
-25.8725007268
  0
LINE
  5
358
100
AcDbEntity
  8
RACCORDO
100
AcDbLine
 62
250
  6
CONTINUOUS
 10
50.9896098792
 20
-25.8770203897
 11
62.1718461399
 21
-25.8743724296
  0
LINE
  5
359
100
AcDbEntity
  8
0
100
AcDbLine
 62
7
  6
CONTINUOUS
 10
93.282525
 20
-29.399985
 11
92.702503
 21
-29.399993
  0
LINE
  5
35A
100
AcDbEntity
  8
0
100
AcDbLine
 62
7
  6
CONTINUOUS
 10
91.18742
 20
-29.399985
 11
90.607413
 21
-29.399993
  0
LINE
  5
35B
100
AcDbEntity
  8
0
100
AcDbLine
 62
7
  6
CONTINUOUS
 10
88.899008
 20
-29.399993
 11
88.318986
 21
-29.4
  0
LINE
  5
35C
100
AcDbEntity
  8
0
100
AcDbLine
 62
7
  6
CONTINUOUS
 10
87.001176
 20
-29.399993
 11
86.421132
 21
-29.4
  0
LINE
  5
35D
100
AcDbEntity
  8
0
100
AcDbLine
 62
7
  6
CONTINUOUS
 10
97.852381
 20
-29.399978
 11
97.199076
 21
-29.399985
  0
LINE
  5
35E
100
AcDbEntity
  8
0
100
AcDbLine
 62
7
  6
CONTINUOUS
 10
92.315824
 20
-29.399993
 11
91.735803
 21
-29.399993
  0
LINE
  5
35F
100
AcDbEntity
  8
0
100
AcDbLine
 62
7
  6
CONTINUOUS
 10
90.059037
 20
-29.399993
 11
89.479015
 21
-29.399993
  0
LINE
  5
360
100
AcDbEntity
  8
0
100
AcDbLine
 62
7
  6
CONTINUOUS
 10
96.111526
 20
-29.399985
 11
95.531497
 21
-29.399985
  0
LINE
  5
361
100
AcDbEntity
  8
0
100
AcDbLine
 62
7
  6
CONTINUOUS
 10
95.144818
 20
-29.399993
 11
94.564789
 21
-29.399985
  0
LINE
  5
362
100
AcDbEntity
  8
0
100
AcDbLine
 62
7
  6
CONTINUOUS
 10
94.381683
 20
-28.829657
 11
93.465638
 21
-28.829657
  0
LINE
  5
363
100
AcDbEntity
  8
0
100
AcDbLine
 62
7
  6
CONTINUOUS
 10
93.64256
 20
-28.278635
 11
94.204754
 21
-28.278635
  0
LINE
  5
364
100
AcDbEntity
  8
0
100
AcDbLine
 62
7
  6
CONTINUOUS
 10
96.617822
 20
-28.278635
 11
96.111591
 21
-28.278628
  0
LINE
  5
365
100
AcDbEntity
  8
0
100
AcDbLine
 62
7
  6
CONTINUOUS
 10
96.103529
 20
-27.742106
 11
96.809205
 21
-27.742106
  0
LINE
  5
366
100
AcDbEntity
  8
0
100
AcDbLine
 62
7
  6
CONTINUOUS
 10
96.809205
 20
-27.036377
 11
96.103522
 21
-27.036377
  0
LINE
  5
367
100
AcDbEntity
  8
0
100
AcDbLine
 62
7
  6
CONTINUOUS
 10
85.49
 20
-26.499862
 11
86.070029
 21
-26.499862
  0
LINE
  5
368
100
AcDbEntity
  8
0
100
AcDbLine
 62
7
  6
CONTINUOUS
 10
87.352286
 20
-26.499862
 11
87.932315
 21
-26.499862
  0
LINE
  5
369
100
AcDbEntity
  8
0
100
AcDbLine
 62
7
  6
CONTINUOUS
 10
88.318994
 20
-26.499862
 11
88.899015
 21
-26.499862
  0
LINE
  5
36A
100
AcDbEntity
  8
0
100
AcDbLine
 62
7
  6
CONTINUOUS
 10
89.479015
 20
-26.499862
 11
90.355852
 21
-26.499862
  0
LINE
  5
36B
100
AcDbEntity
  8
0
100
AcDbLine
 62
7
  6
CONTINUOUS
 10
91.438988
 20
-26.499862
 11
92.315824
 21
-26.499862
  0
LINE
  5
36C
100
AcDbEntity
  8
0
100
AcDbLine
 62
7
  6
CONTINUOUS
 10
93.633628
 20
-26.499855
 11
94.213679
 21
-26.499855
  0
LINE
  5
36D
100
AcDbEntity
  8
0
100
AcDbLine
 62
7
  6
CONTINUOUS
 10
95.531497
 20
-26.499855
 11
96.8887949317
 21
-26.499855
  0
LINE
  5
36E
100
AcDbEntity
  8
RACCORDO
100
AcDbLine
 62
250
  6
CONTINUOUS
 10
62.1718461399
 20
-25.8743724296
 11
70.3368727667
 21
-25.8732528257
  0
LWPOLYLINE
  5
36F
100
AcDbEntity
  8
RACCORDO
100
AcDbPolyline
 62
250
  6
CONTINUOUS
 90
3
 70
0
 10
70.3368727667
 20
-25.8732528257
 10
71.1339474489
 20
-25.8732069569
 10
72.7843752173
 20
-25.8730032813
  0
LINE
  5
370
100
AcDbEntity
  8
RACCORDO
100
AcDbLine
 62
250
  6
CONTINUOUS
 10
6.3
 20
-25.8770236833
 11
50.9896098835
 21
-25.8770236831
  0
LINE
  5
371
100
AcDbEntity
  8
RACCORDO
100
AcDbLine
 62
250
  6
CONTINUOUS
 10
-4.2744477246
 20
-25.3039001
 11
4.2744477246
 21
-25.3039001
  0
LINE
  5
372
100
AcDbEntity
  8
RACCORDO
100
AcDbLine
 62
250
  6
CONTINUOUS
 10
-95.7
 20
-24.1025766005
 11
-6.3
 21
-24.1027230242
  0
LINE
  5
373
100
AcDbEntity
  8
RACCORDO
100
AcDbLine
 62
250
  6
CONTINUOUS
 10
6.3
 20
-24.1027230242
 11
95.7
 21
-24.1025766005
  0
LWPOLYLINE
  5
374
100
AcDbEntity
  8
RACCORDO
100
AcDbPolyline
 62
250
  6
CONTINUOUS
 90
11
 70
0
 10
-92.4318952608
 20
-25.8668012819
 10
-91.3848875554
 20
-25.8668254737
 10
-90.8295933055
 20
-25.8641763597
 10
-90.2521464804
 20
-25.8647942521
 10
-89.6566493271
 20
-25.8690974978
 10
-89.0446993697
 20
-25.8711945376
 10
-88.4141976033
 20
-25.8697827178
 10
-87.7641036313
 20
-25.872165616
 10
-87.0951749109
 20
-25.8759205586
 10
-86.4088057804
 20
-25.8751554974
 10
-85.70435453
 20
-25.8729523919
  0
LWPOLYLINE
  5
375
100
AcDbEntity
  8
RACCORDO
100
AcDbPolyline
 62
250
  6
CONTINUOUS
 90
3
 70
0
 10
-69.7100533142
 20
-25.8733693589
 10
-56.3699402417
 20
-25.8754597076
 10
-6.3
 20
-25.8770236833
  0
LINE
  5
376
100
AcDbEntity
  8
RACCORDO
100
AcDbLine
 62
250
  6
CONTINUOUS
 10
72.7843752173
 20
-25.8730032813
 11
78.2901983395
 21
-25.8733652838
  0
LINE
  5
377
100
AcDbEntity
  8
RACCORDO
100
AcDbLine
 62
250
  6
CONTINUOUS
 10
-81.0452874933
 20
-25.8722223676
 11
-69.7100533142
 21
-25.8733693589
  0
LWPOLYLINE
  5
378
100
AcDbEntity
  8
RACCORDO
100
AcDbPolyline
 62
250
  6
CONTINUOUS
 90
3
 70
0
 10
-85.70435453
 20
-25.8729523919
 10
-84.2295312634
 20
-25.8734813755
 10
-82.6802176286
 20
-25.8704867822
  0
LINE
  5
379
100
AcDbEntity
  8
RACCORDO
100
AcDbLine
 62
250
  6
CONTINUOUS
 10
-82.6802176286
 20
-25.8704867822
 11
-81.0452874933
 21
-25.8722223676
  0
LWPOLYLINE
  5
37A
100
AcDbEntity
  8
RACCORDO
100
AcDbPolyline
 62
250
  6
CONTINUOUS
 90
9
 70
0
 10
89.909658789
 20
-25.8657905894
 10
91.127505699
 20
-25.867034117
 10
91.7023267297
 20
-25.8626874669
 10
92.2549124387
 20
-25.8624657352
 10
92.7850261
 20
-25.8734981334
 10
93.290451595
 20
-25.8855044664
 10
93.7775588273
 20
-25.8858852709
 10
94.2596754232
 20
-25.8825813087
 10
95.2218580179
 20
-25.8788554985
  0
LWPOLYLINE
  5
37B
100
AcDbEntity
  8
RACCORDO
100
AcDbPolyline
 62
250
  6
CONTINUOUS
 90
5
 70
0
 10
-94.3258102146
 20
-25.8826269546
 10
-93.8675120894
 20
-25.8854219003
 10
-93.4057915899
 20
-25.885183269
 10
-92.928599991
 20
-25.8748583629
 10
-92.4318952608
 20
-25.8668012819
  0
LINE
  5
37C
100
AcDbEntity
  8
RACCORDO
100
AcDbLine
 62
250
  6
CONTINUOUS
 10
95.2218580179
 20
-25.8788554985
 11
95.6939568631
 21
-25.8817506947
  0
LINE
  5
37D
100
AcDbEntity
  8
RACCORDO
100
AcDbLine
 62
7
  6
CONTINUOUS
 10
-20.1958892987
 20
22.4
 11
-20.1976348052
 21
22.5
  0
LINE
  5
37E
100
AcDbEntity
  8
RACCORDO
100
AcDbLine
 62
7
  6
CONTINUOUS
 10
-20.1976348052
 20
-22.5
 11
-20.1958892987
 21
-22.4
  0
LINE
  5
37F
100
AcDbEntity
  8
RACCORDO
100
AcDbLine
 62
250
  6
CONTINUOUS
 10
-4.2744503658
 20
25.3039018236
 11
-5.2607679021
 21
23.7924933902
  0
LINE
  5
380
100
AcDbEntity
  8
0
100
AcDbLine
 62
7
  6
CONTINUOUS
 10
-114.1716048889
 20
-35.1549273261
 11
-114.0240804449
 21
-35.076590623
  0
LINE
  5
381
100
AcDbEntity
  8
0
100
AcDbLine
 62
7
  6
CONTINUOUS
 10
-111.8283951111
 20
-35.8450726739
 11
-111.9759195551
 21
-35.923409377
  0
LINE
  5
382
100
AcDbEntity
  8
0
100
AcDbLine
 62
7
  6
CONTINUOUS
 10
-114.0240804449
 20
-35.076590623
 11
-113.9261983137
 21
-35.025263872
  0
LINE
  5
383
100
AcDbEntity
  8
0
100
AcDbLine
 62
7
  6
CONTINUOUS
 10
-111.9759195551
 20
-35.923409377
 11
-112.0738016863
 21
-35.974736128
  0
LINE
  5
384
100
AcDbEntity
  8
0
100
AcDbLine
 62
7
  6
CONTINUOUS
 10
-113.9261983137
 20
-35.025263872
 11
-113.852211212
 21
-34.98686137
  0
LINE
  5
385
100
AcDbEntity
  8
0
100
AcDbLine
 62
7
  6
CONTINUOUS
 10
-112.0738016863
 20
-35.974736128
 11
-112.147788788
 21
-36.01313863
  0
LWPOLYLINE
  5
386
100
AcDbEntity
  8
0
100
AcDbPolyline
 62
7
  6
CONTINUOUS
 90
4
 70
0
 10
-113.852211212
 20
-34.98686137
 10
-113.7747633728
 20
-34.9470718005
 10
-113.747603948
 20
-34.9333229244
 10
-113.6899108284
 20
-34.9038025697
  0
LWPOLYLINE
  5
387
100
AcDbEntity
  8
0
100
AcDbPolyline
 62
7
  6
CONTINUOUS
 90
4
 70
0
 10
-112.147788788
 20
-36.01313863
 10
-112.2252366272
 20
-36.0529281995
 10
-112.252396052
 20
-36.0666770755
 10
-112.3100891716
 20
-36.0961974303
  0
LWPOLYLINE
  5
388
100
AcDbEntity
  8
0
100
AcDbPolyline
 62
7
  6
CONTINUOUS
 90
3
 70
0
 10
-113.6899108284
 20
-34.9038025697
 10
-113.6592374971
 20
-34.8883464759
 10
-113.6272974066
 20
-34.8727027659
  0
LWPOLYLINE
  5
389
100
AcDbEntity
  8
0
100
AcDbPolyline
 62
7
  6
CONTINUOUS
 90
3
 70
0
 10
-112.3100891716
 20
-36.0961974303
 10
-112.3407625029
 20
-36.1116535241
 10
-112.3727025934
 20
-36.1272972341
  0
LINE
  5
38A
100
AcDbEntity
  8
0
100
AcDbLine
 62
7
  6
CONTINUOUS
 10
-113.5204046482
 20
-34.9795953519
 11
-113.5621339943
 21
-35.0000535044
  0
LINE
  5
38B
100
AcDbEntity
  8
0
100
AcDbLine
 62
7
  6
CONTINUOUS
 10
-112.4795953518
 20
-36.0204046481
 11
-112.4378660057
 21
-35.9999464956
  0
LINE
  5
38C
100
AcDbEntity
  8
TRASH
100
AcDbLine
 62
7
  6
CONTINUOUS
 10
-114.1449972701
 20
-35.2718517819
 11
-114.122106287
 21
-35.2611776274
  0
LINE
  5
38D
100
AcDbEntity
  8
0
100
AcDbLine
 62
7
  6
CONTINUOUS
 10
-113.5621339943
 20
-35.0000535044
 11
-113.5197267822
 21
-34.980282565
  0
LINE
  5
38E
100
AcDbEntity
  8
0
100
AcDbLine
 62
7
  6
CONTINUOUS
 10
-114.1221028135
 20
-35.2611739822
 11
-113.6
 21
-35.017710713
  0
LWPOLYLINE
  5
38F
100
AcDbEntity
  8
RACCORDO
100
AcDbPolyline
 62
250
  6
CONTINUOUS
 90
10
 70
0
 10
-6.3
 20
-24.1027230242
 10
-6.1781221194
 20
-24.0987640165
 10
-6.0566926718
 20
-24.0869662105
 10
-5.93621824
 20
-24.0673672664
 10
-5.8172133149
 20
-24.0400216106
 10
-5.7001681574
 20
-24.005050101
 10
-5.5855365172
 20
-23.9626325496
 10
-5.4737791099
 20
-23.9129429904
 10
-5.3653717948
 20
-23.8561563194
 10
-5.260766547
 20
-23.7924925059
  0
LINE
  5
390
100
AcDbEntity
  8
0
100
AcDbLine
 62
7
  6
CONTINUOUS
 10
95.7
 20
-22.5
 11
6.3
 21
-22.5
  0
LINE
  5
391
100
AcDbEntity
  8
0
100
AcDbLine
 62
7
  6
CONTINUOUS
 10
-6.3
 20
-22.5
 11
-95.7
 21
-22.5
  0
LINE
  5
392
100
AcDbEntity
  8
RACCORDO
100
AcDbLine
 62
7
  6
CONTINUOUS
 10
-87.6958892987
 20
-22.4
 11
-81.8041107013
 21
-22.4
  0
LINE
  5
393
100
AcDbEntity
  8
RACCORDO
100
AcDbLine
 62
7
  6
CONTINUOUS
 10
-65.1958892987
 20
-22.4
 11
-59.3041107013
 21
-22.4
  0
LINE
  5
394
100
AcDbEntity
  8
RACCORDO
100
AcDbLine
 62
7
  6
CONTINUOUS
 10
-42.6958892987
 20
-22.4
 11
-36.8041107013
 21
-22.4
  0
LINE
  5
395
100
AcDbEntity
  8
RACCORDO
100
AcDbLine
 62
7
  6
CONTINUOUS
 10
-20.1958892987
 20
-22.4
 11
-14.3041107013
 21
-22.4
  0
LINE
  5
396
100
AcDbEntity
  8
RACCORDO
100
AcDbLine
 62
7
  6
CONTINUOUS
 10
14.3041107013
 20
-22.4
 11
20.1958892987
 21
-22.4
  0
LINE
  5
397
100
AcDbEntity
  8
RACCORDO
100
AcDbLine
 62
7
  6
CONTINUOUS
 10
36.8041107013
 20
-22.4
 11
42.6958892987
 21
-22.4
  0
LINE
  5
398
100
AcDbEntity
  8
RACCORDO
100
AcDbLine
 62
7
  6
CONTINUOUS
 10
59.3041107013
 20
-22.4
 11
65.1958892987
 21
-22.4
  0
LINE
  5
399
100
AcDbEntity
  8
RACCORDO
100
AcDbLine
 62
7
  6
CONTINUOUS
 10
81.8041107013
 20
-22.4
 11
87.6958892987
 21
-22.4
  0
LINE
  5
39A
100
AcDbEntity
  8
RACCORDO
100
AcDbLine
 62
250
  6
CONTINUOUS
 10
99.3873167009
 20
-22.1993602711
 11
96.0
 21
-22.2
  0
LINE
  5
39B
100
AcDbEntity
  8
RACCORDO
100
AcDbLine
 62
250
  6
CONTINUOUS
 10
2.5936465831
 20
-22.2
 11
6.0
 21
-22.2
  0
LINE
  5
39C
100
AcDbEntity
  8
RACCORDO
100
AcDbLine
 62
250
  6
CONTINUOUS
 10
-2.5936465831
 20
-22.2
 11
-6.0
 21
-22.2
  0
LINE
  5
39D
100
AcDbEntity
  8
RACCORDO
100
AcDbLine
 62
250
  6
CONTINUOUS
 10
-99.3873168915
 20
-22.1993602747
 11
-96.0
 21
-22.2
  0
LINE
  5
39E
100
AcDbEntity
  8
0
100
AcDbLine
 62
7
  6
CONTINUOUS
 10
-113.5197234839
 20
34.9802765161
 11
-113.5621335303
 21
35.0000529828
  0
LINE
  5
39F
100
AcDbEntity
  8
TRASH
100
AcDbLine
 62
7
  6
CONTINUOUS
 10
-114.1221062937
 20
35.2611776175
 11
-114.1449972769
 21
35.2718517719
  0
LINE
  5
3A0
100
AcDbEntity
  8
0
100
AcDbLine
 62
7
  6
CONTINUOUS
 10
-113.6
 20
35.0177101929
 11
-114.1221066534
 21
35.261175259
  0
LWPOLYLINE
  5
3A1
100
AcDbEntity
  8
0
100
AcDbPolyline
 62
7
  6
CONTINUOUS
 90
4
 70
0
 10
-113.6272975093
 20
34.8727024837
 10
-113.6591558065
 20
34.888308174
 10
-113.6897554608
 20
34.9037267397
 10
-113.7191594664
 20
34.9187978272
  0
LWPOLYLINE
  5
3A2
100
AcDbEntity
  8
0
100
AcDbPolyline
 62
7
  6
CONTINUOUS
 90
4
 70
0
 10
-112.3727024907
 20
36.1272975163
 10
-112.3408441935
 20
36.111691826
 10
-112.3102445392
 20
36.0962732603
 10
-112.2808405336
 20
36.0812021728
  0
LINE
  5
3A3
100
AcDbEntity
  8
0
100
AcDbLine
 62
7
  6
CONTINUOUS
 10
-113.5621335303
 20
35.0000529828
 11
-113.5204046482
 21
34.9795953518
  0
LINE
  5
3A4
100
AcDbEntity
  8
0
100
AcDbLine
 62
7
  6
CONTINUOUS
 10
-112.4378664697
 20
35.9999470172
 11
-112.4795953518
 21
36.0204046482
  0
LINE
  5
3A5
100
AcDbEntity
  8
0
100
AcDbLine
 62
7
  6
CONTINUOUS
 10
-113.7191594664
 20
34.9187978272
 11
-113.8008536937
 21
34.9604183046
  0
LINE
  5
3A6
100
AcDbEntity
  8
0
100
AcDbLine
 62
7
  6
CONTINUOUS
 10
-112.2808405336
 20
36.0812021728
 11
-112.1991463063
 21
36.0395816954
  0
LINE
  5
3A7
100
AcDbEntity
  8
0
100
AcDbLine
 62
7
  6
CONTINUOUS
 10
-113.8008536937
 20
34.9604183046
 11
-113.8766776316
 21
34.9995101966
  0
LINE
  5
3A8
100
AcDbEntity
  8
0
100
AcDbLine
 62
7
  6
CONTINUOUS
 10
-112.1991463063
 20
36.0395816954
 11
-112.1233223684
 21
36.0004898034
  0
LINE
  5
3A9
100
AcDbEntity
  8
0
100
AcDbLine
 62
7
  6
CONTINUOUS
 10
-113.8766776316
 20
34.9995101966
 11
-113.9995138679
 21
35.0636477767
  0
LINE
  5
3AA
100
AcDbEntity
  8
0
100
AcDbLine
 62
7
  6
CONTINUOUS
 10
-112.1233223684
 20
36.0004898034
 11
-112.0004861321
 21
35.9363522233
  0
LWPOLYLINE
  5
3AB
100
AcDbEntity
  8
0
100
AcDbPolyline
 62
7
  6
CONTINUOUS
 90
4
 70
0
 10
-113.9995138679
 20
35.0636477767
 10
-114.0980377467
 20
35.1157284872
 10
-114.1225892044
 20
35.1288224602
 10
-114.171604981
 20
35.1549273753
  0
LWPOLYLINE
  5
3AC
100
AcDbEntity
  8
0
100
AcDbPolyline
 62
7
  6
CONTINUOUS
 90
4
 70
0
 10
-112.0004861321
 20
35.9363522233
 10
-111.9019622533
 20
35.8842715128
 10
-111.8774107956
 20
35.8711775398
 10
-111.828395019
 20
35.8450726247
  0
LWPOLYLINE
  5
3AD
100
AcDbEntity
  8
RACCORDO
100
AcDbPolyline
 62
250
  6
CONTINUOUS
 90
10
 70
0
 10
4.2744477246
 20
-25.3039001
 10
4.4803535897
 20
-25.4220561545
 10
4.6916857802
 20
-25.5267965064
 10
4.9084442961
 20
-25.6181207698
 10
5.1314790717
 20
-25.6962995981
 10
5.3599401727
 20
-25.7610623694
 10
5.5912777963
 20
-25.8115971203
 10
5.8246420083
 20
-25.8476334041
 10
6.0608827428
 20
-25.8694422019
 10
6.3
 20
-25.8770236833
  0
LWPOLYLINE
  5
3AE
100
AcDbEntity
  8
RACCORDO
100
AcDbPolyline
 62
250
  6
CONTINUOUS
 90
10
 70
0
 10
5.260766547
 20
-23.7924925059
 10
5.3656368872
 20
-23.8563056359
 10
5.4742344224
 20
-23.9131626357
 10
5.586095775
 20
-23.9628601631
 10
5.7007016402
 20
-24.0052304535
 10
5.8176176008
 20
-24.0401334136
 10
5.9364922341
 20
-24.0674275207
 10
6.0568726212
 20
-24.086995366
 10
6.178210415
 20
-24.0987733448
 10
6.3
 20
-24.1027230242
  0
LINE
  5
3AF
100
AcDbEntity
  8
RACCORDO
100
AcDbLine
 62
250
  6
CONTINUOUS
 10
-4.2744477252
 20
-25.3039000987
 11
-5.2607665467
 21
-23.792492506
  0
LINE
  5
3B0
100
AcDbEntity
  8
RACCORDO
100
AcDbLine
 62
7
  6
CONTINUOUS
 10
-14.3041107013
 20
-22.4
 11
-14.3023651948
 21
-22.5
  0
LINE
  5
3B1
100
AcDbEntity
  8
RACCORDO
100
AcDbLine
 62
7
  6
CONTINUOUS
 10
-14.3023651948
 20
22.5
 11
-14.3041107013
 21
22.4
  0
LINE
  5
3B2
100
AcDbEntity
  8
ASSI
100
AcDbLine
 62
7
  6
CONTINUOUS
 10
-6.329429
 20
17.775085
 11
-7.269009
 21
14.848599
  0
LINE
  5
3B3
100
AcDbEntity
  8
ASSI
100
AcDbLine
 62
7
  6
CONTINUOUS
 10
-6.843988
 20
13.524894
 11
-6.0
 21
16.1535819474
  0
LINE
  5
3B4
100
AcDbEntity
  8
TRASH
100
AcDbLine
 62
7
  6
CONTINUOUS
 10
-111.877893713
 20
-35.7388223726
 11
-111.8550027299
 21
-35.7281482181
  0
LINE
  5
3B5
100
AcDbEntity
  8
0
100
AcDbLine
 62
7
  6
CONTINUOUS
 10
-112.4378660057
 20
-35.9999464956
 11
-112.4802732178
 21
-36.019717435
  0
LINE
  5
3B6
100
AcDbEntity
  8
0
100
AcDbLine
 62
7
  6
CONTINUOUS
 10
-111.8778971865
 20
-35.7388260178
 11
-112.4
 21
-35.982289287
  0
LINE
  5
3B7
100
AcDbEntity
  8
0
100
AcDbLine
 62
7
  6
CONTINUOUS
 10
-111.3280087498
 20
-35.7281394927
 11
-111.5947969261
 21
-35.786308213
  0
LINE
  5
3B8
100
AcDbEntity
  8
0
100
AcDbLine
 62
7
  6
CONTINUOUS
 10
-114.6719912503
 20
-35.2718605079
 11
-114.4052030751
 21
-35.2136917878
  0
LINE
  5
3B9
100
AcDbEntity
  8
0
100
AcDbLine
 62
7
  6
CONTINUOUS
 10
-111.5947969261
 20
-35.786308213
 11
-111.809952252
 21
-35.8323044589
  0
LINE
  5
3BA
100
AcDbEntity
  8
0
100
AcDbLine
 62
7
  6
CONTINUOUS
 10
-114.4052030751
 20
-35.2136917878
 11
-114.1900477491
 21
-35.1676955419
  0
LINE
  5
3BB
100
AcDbEntity
  8
ASSI
100
AcDbLine
 62
7
  6
CONTINUOUS
 10
6.2142889387
 20
-12.7651417927
 11
6.0
 21
-12.7959576716
  0
LINE
  5
3BC
100
AcDbEntity
  8
ASSI
100
AcDbLine
 62
7
  6
CONTINUOUS
 10
6.320083
 20
-14.193064
 11
6.8866805537
 21
-14.193064
  0
LWPOLYLINE
  5
3BD
100
AcDbEntity
  8
ASSI
100
AcDbPolyline
 62
7
  6
CONTINUOUS
 90
19
 70
0
 10
-6.0
 20
-13.486712
 10
-7.0329036579
 20
-13.4866848158
 10
-7.0439489575
 20
-13.48706166
 10
-7.0546193271
 20
-13.4878425327
 10
-7.0650744661
 20
-13.4888009151
 10
-7.075154675
 20
-13.490163326
 10
-7.0843808546
 20
-13.4926093214
 10
-7.0927111826
 20
-13.4963699499
 10
-7.1001874813
 20
-13.5012141629
 10
-7.1064561189
 20
-13.5071283712
 10
-7.1112696862
 20
-13.5142595138
 10
-7.1148755925
 20
-13.5224606517
 10
-7.1176624333
 20
-13.5312773792
 10
-7.1195996405
 20
-13.5406448448
 10
-7.1207177822
 20
-13.5506279001
 10
-7.1214971589
 20
-13.5609666937
 10
-7.1220978709
 20
-13.5715746085
 10
-7.1223598179
 20
-13.5825382616
 10
-7.122283
 20
-13.593857653
  0
LWPOLYLINE
  5
3BE
100
AcDbEntity
  8
ASSI
100
AcDbPolyline
 62
7
  6
CONTINUOUS
 90
16
 70
0
 10
6.8866805537
 20
-14.193064
 10
6.8976776928
 20
-14.1931325329
 10
6.9082517434
 20
-14.1925842515
 10
6.9184027056
 20
-14.1914191558
 10
6.9282546543
 20
-14.1897757538
 10
6.9376835146
 20
-14.1875155374
 10
6.9463170614
 20
-14.1842229827
 10
6.9540773077
 20
-14.1797729873
 10
6.9610422404
 20
-14.1742906536
 10
6.9670735953
 20
-14.1677357647
 10
6.9720095789
 20
-14.1599245969
 10
6.9760119848
 20
-14.1510408739
 10
6.9794279289
 20
-14.1415955496
 10
6.9823731168
 20
-14.1317589418
 10
6.984731843
 20
-14.1213607327
 10
6.9865041076
 20
-14.1104009223
  0
LINE
  5
3BF
100
AcDbEntity
  8
0
100
AcDbLine
 62
7
  6
CONTINUOUS
 10
111.4880987039
 20
-35.7630581777
 11
111.8101933044
 21
-35.8324714129
  0
LINE
  5
3C0
100
AcDbEntity
  8
0
100
AcDbLine
 62
7
  6
CONTINUOUS
 10
114.1898066956
 20
-35.1675285871
 11
114.5118997808
 21
-35.2369414919
  0
LINE
  5
3C1
100
AcDbEntity
  8
0
100
AcDbLine
 62
7
  6
CONTINUOUS
 10
111.3279822641
 20
-35.7279452996
 11
111.4880987039
 21
-35.7630581777
  0
LINE
  5
3C2
100
AcDbEntity
  8
0
100
AcDbLine
 62
7
  6
CONTINUOUS
 10
114.5118997808
 20
-35.2369414919
 11
114.6720177359
 21
-35.2720547004
  0
LWPOLYLINE
  5
3C3
100
AcDbEntity
  8
ASSI
100
AcDbPolyline
 62
7
  6
CONTINUOUS
 90
15
 70
0
 10
6.0
 20
-16.5326901153
 10
6.0478885674
 20
-16.550910876
 10
6.1061839968
 20
-16.568237642
 10
6.1682943298
 20
-16.582269553
 10
6.2341920266
 20
-16.5928888662
 10
6.3034818557
 20
-16.599220355
 10
6.3761482402
 20
-16.6009423634
 10
6.4522067571
 20
-16.5983765475
 10
6.5313089055
 20
-16.5916126493
 10
6.6137086353
 20
-16.5809289639
 10
6.6991519966
 20
-16.5660471962
 10
6.7865286387
 20
-16.5462222019
 10
6.8754684446
 20
-16.5212055997
 10
6.9663415313
 20
-16.4912457708
 10
7.0591478988
 20
-16.4563427154
  0
LINE
  5
3C4
100
AcDbEntity
  8
0
100
AcDbLine
 62
7
  6
CONTINUOUS
 10
-112.4802765161
 20
36.0197234839
 11
-112.4378664697
 21
35.9999470172
  0
LINE
  5
3C5
100
AcDbEntity
  8
TRASH
100
AcDbLine
 62
7
  6
CONTINUOUS
 10
-111.8778937063
 20
35.7388223825
 11
-111.8550027231
 21
35.7281482281
  0
LINE
  5
3C6
100
AcDbEntity
  8
0
100
AcDbLine
 62
7
  6
CONTINUOUS
 10
-112.4
 20
35.9822898071
 11
-111.8778933466
 21
35.738824741
  0
LWPOLYLINE
  5
3C7
100
AcDbEntity
  8
ASSI
100
AcDbPolyline
 62
7
  6
CONTINUOUS
 90
21
 70
0
 10
-6.5573815822
 20
-16.403311643
 10
-6.5571545813
 20
-16.412935503
 10
-6.5567149973
 20
-16.4222990327
 10
-6.5561706501
 20
-16.4314454955
 10
-6.5554137198
 20
-16.440331628
 10
-6.5541207461
 20
-16.4488276403
 10
-6.5523176016
 20
-16.4570069261
 10
-6.5499784138
 20
-16.4647960916
 10
-6.5467021048
 20
-16.4718451665
 10
-6.54232657
 20
-16.4780966845
 10
-6.5370139139
 20
-16.4836081118
 10
-6.5308493728
 20
-16.4882018764
 10
-6.5237139643
 20
-16.4917026798
 10
-6.5157266707
 20
-16.4942858204
 10
-6.5073296749
 20
-16.4962996212
 10
-6.4986235991
 20
-16.4977501874
 10
-6.489507821
 20
-16.4986314137
 10
-6.4801226565
 20
-16.4992733074
 10
-6.4705148775
 20
-16.4997858709
 10
-6.4606377121
 20
-16.5000591017
 10
-6.0
 20
-16.500093
  0
LINE
  5
3C8
100
AcDbEntity
  8
ASSI
100
AcDbLine
 62
7
  6
CONTINUOUS
 10
-7.122283
 20
-13.593857653
 11
-7.122283
 21
-13.9453019835
  0
LINE
  5
3C9
100
AcDbEntity
  8
ASSI
100
AcDbLine
 62
7
  6
CONTINUOUS
 10
-6.557396
 20
-14.052329
 11
-6.5573815822
 21
-16.403311643
  0
LINE
  5
3CA
100
AcDbEntity
  8
RACCORDO
100
AcDbLine
 62
250
  6
CONTINUOUS
 10
-6.3
 20
25.8770237531
 11
-6.3
 21
22.5
  0
LINE
  5
3CB
100
AcDbEntity
  8
RACCORDO
100
AcDbLine
 62
250
  6
CONTINUOUS
 10
-6.3
 20
-25.8770236833
 11
-6.3
 21
-22.5
  0
LINE
  5
3CC
100
AcDbEntity
  8
0
100
AcDbLine
 62
7
  6
CONTINUOUS
 10
-6.0
 20
22.2
 11
-6.0
 21
-22.2
  0
LINE
  5
3CD
100
AcDbEntity
  8
RACCORDO
100
AcDbLine
 62
250
  6
CONTINUOUS
 10
-4.3984116458
 20
-22.2
 11
-4.3984116458
 21
22.2
  0
LINE
  5
3CE
100
AcDbEntity
  8
RACCORDO
100
AcDbLine
 62
250
  6
CONTINUOUS
 10
-2.5936465831
 20
-22.2
 11
-2.5936465831
 21
22.2
  0
LWPOLYLINE
  5
3CF
100
AcDbEntity
  8
0
100
AcDbPolyline
 62
7
  6
CONTINUOUS
 90
4
 70
0
 43
0.3500000006
 10
1.0714285848
 20
50.6785703888
 10
1.0714285848
 20
51.5357128601
 10
1.5000000329
 20
51.9642863617
 10
2.1428571696
 20
51.9642863617
  0
LWPOLYLINE
  5
3D0
100
AcDbEntity
  8
ASSI
100
AcDbPolyline
 62
7
  6
CONTINUOUS
 90
22
 70
0
 10
-7.122283
 20
-13.9453019835
 10
-7.1223595373
 20
-13.9551440992
 10
-7.1221822147
 20
-13.9646950255
 10
-7.1217510322
 20
-13.9739547626
 10
-7.1211233516
 20
-13.9829508956
 10
-7.1202418112
 20
-13.9916558393
 10
-7.1189343256
 20
-13.9999868383
 10
-7.1172564016
 20
-14.0080162787
 10
-7.1151525324
 20
-14.0156717744
 10
-7.1122841124
 20
-14.022653411
 10
-7.1085900507
 20
-14.0289119784
 10
-7.1041314382
 20
-14.0344966868
 10
-7.0987529426
 20
-14.0392552522
 10
-7.0922653055
 20
-14.0430857658
 10
-7.0848577854
 20
-14.0460901365
 10
-7.0769428246
 20
-14.0484218073
 10
-7.0685884543
 20
-14.0499935192
 10
-7.0597266433
 20
-14.0508925313
 10
-7.0505657412
 20
-14.0515340635
 10
-7.0411751978
 20
-14.0520565223
 10
-7.0314855632
 20
-14.0523215011
 10
-6.557396
 20
-14.052329
  0
LWPOLYLINE
  5
3D1
100
AcDbEntity
  8
0
100
AcDbPolyline
 62
7
  6
CONTINUOUS
 90
4
 70
0
 43
0.3500000006
 10
125.821428772
 20
-2.2499998741
 10
124.9642817688
 20
-2.2499998741
 10
124.5357127991
 20
-1.8214286385
 10
124.5357127991
 20
-1.178571785
  0
LINE
  5
3D2
100
AcDbEntity
  8
RACCORDO
100
AcDbLine
 62
250
  6
CONTINUOUS
 10
-118.7986786601
 20
0.0001785248
 11
-117.2945201635
 21
0.0001239468
  0
LINE
  5
3D3
100
AcDbEntity
  8
RACCORDO
100
AcDbLine
 62
250
  6
CONTINUOUS
 10
-113.8879202755
 20
-0.000018516
 11
-116.1700665611
 21
0.0000253367
  0
LINE
  5
3D4
100
AcDbEntity
  8
RACCORDO
100
AcDbLine
 62
250
  6
CONTINUOUS
 10
-116.1700665611
 20
0.0000253367
 11
-117.2945186582
 21
-0.0000160834
  0
LINE
  5
3D5
100
AcDbEntity
  8
RACCORDO
100
AcDbLine
 62
250
  6
CONTINUOUS
 10
112.7307631142
 20
0.0000598108
 11
118.7986786601
 21
0.0001785248
  0
LWPOLYLINE
  5
3D6
100
AcDbEntity
  8
RACCORDO
100
AcDbPolyline
 62
250
  6
CONTINUOUS
 90
3
 70
0
 10
97.6023182283
 20
0.0000726963
 10
106.7968763581
 20
0.0018217212
 10
108.0024688507
 20
0.0015036769
  0
LWPOLYLINE
  5
3D7
100
AcDbEntity
  8
RACCORDO
100
AcDbPolyline
 62
250
  6
CONTINUOUS
 90
3
 70
0
 10
-100.641598378
 20
0.0005590744
 10
-103.1279180989
 20
0.0014596054
 10
-113.8879202755
 20
-0.000018516
  0
LINE
  5
3D8
100
AcDbEntity
  8
RACCORDO
100
AcDbLine
 62
250
  6
CONTINUOUS
 10
-97.6023182285
 20
0.0000726963
 11
-100.641598378
 21
0.0005590744
  0
LWPOLYLINE
  5
3D9
100
AcDbEntity
  8
RACCORDO
100
AcDbPolyline
 62
250
  6
CONTINUOUS
 90
3
 70
0
 10
108.0024688507
 20
0.0015036769
 10
110.3859072618
 20
0.0006193069
 10
112.7307631142
 20
0.0000598108
  0
LINE
  5
3DA
100
AcDbEntity
  8
ASSI
100
AcDbLine
 62
7
  6
CONTINUOUS
 10
-9.058641
 20
17.775085
 11
-7.694051
 21
13.524883
  0
LINE
  5
3DB
100
AcDbEntity
  8
ASSI
100
AcDbLine
 62
7
  6
CONTINUOUS
 10
-7.269009
 20
14.848599
 11
-8.208599
 21
17.775085
  0
LWPOLYLINE
  5
3DC
100
AcDbEntity
  8
ASSI
100
AcDbPolyline
 62
7
  6
CONTINUOUS
 90
19
 70
0
 10
6.320083
 20
-12.859118685
 10
6.319929658
 20
-12.8475157754
 10
6.3193009355
 20
-12.8363390056
 10
6.3181968325
 20
-12.8255883755
 10
6.316737262
 20
-12.8151612665
 10
6.3148023111
 20
-12.8051602972
 10
6.3120322408
 20
-12.795893324
 10
6.308354507
 20
-12.7873012147
 10
6.3038416538
 20
-12.7794431015
 10
6.2983515753
 20
-12.7728042373
 10
6.2917529954
 20
-12.7675182735
 10
6.2841771901
 20
-12.7634515587
 10
6.2758758812
 20
-12.7606883919
 10
6.266823604
 20
-12.7594980101
 10
6.2570458233
 20
-12.7596111763
 10
6.2468706548
 20
-12.7603044788
 10
6.2364074705
 20
-12.7613367804
 10
6.2255468985
 20
-12.7629492184
 10
6.2142889387
 20
-12.7651417927
  0
LINE
  5
3DD
100
AcDbEntity
  8
RACCORDO
100
AcDbLine
 62
250
  6
CONTINUOUS
 10
2.5936465831
 20
22.2
 11
2.5936465831
 21
-22.2
  0
LINE
  5
3DE
100
AcDbEntity
  8
RACCORDO
100
AcDbLine
 62
250
  6
CONTINUOUS
 10
4.3984116458
 20
22.2
 11
4.3984116458
 21
-22.2
  0
LINE
  5
3DF
100
AcDbEntity
  8
0
100
AcDbLine
 62
7
  6
CONTINUOUS
 10
6.0
 20
-22.2
 11
6.0
 21
22.2
  0
LINE
  5
3E0
100
AcDbEntity
  8
RACCORDO
100
AcDbLine
 62
250
  6
CONTINUOUS
 10
6.3
 20
25.8770237531
 11
6.3
 21
22.5
  0
LINE
  5
3E1
100
AcDbEntity
  8
RACCORDO
100
AcDbLine
 62
250
  6
CONTINUOUS
 10
6.3
 20
-25.8770236833
 11
6.3
 21
-22.5
  0
LINE
  5
3E2
100
AcDbEntity
  8
ASSI
100
AcDbLine
 62
7
  6
CONTINUOUS
 10
6.320083
 20
-13.6675
 11
6.320083
 21
-12.859118685
  0
LINE
  5
3E3
100
AcDbEntity
  8
ASSI
100
AcDbLine
 62
7
  6
CONTINUOUS
 10
6.495668
 20
15.954555
 11
6.495658
 21
16.988814
  0
LINE
  5
3E4
100
AcDbEntity
  8
ASSI
100
AcDbLine
 62
7
  6
CONTINUOUS
 10
6.507388
 20
13.524904
 11
6.507483
 21
15.168273
  0
LWPOLYLINE
  5
3E5
100
AcDbEntity
  8
ASSI
100
AcDbPolyline
 62
7
  6
CONTINUOUS
 90
19
 70
0
 10
7.0168179448
 20
-15.9096387642
 10
7.0143577045
 20
-15.9016644609
 10
7.011536894
 20
-15.8941437829
 10
7.0083555135
 20
-15.8870767301
 10
7.0048405052
 20
-15.8803856091
 10
7.0009649267
 20
-15.8741481132
 10
6.9966479515
 20
-15.8685973232
 10
6.9919090901
 20
-15.8637708202
 10
6.986728832
 20
-15.859631023
 10
6.9809678195
 20
-15.8562982682
 10
6.9745104652
 20
-15.8538289556
 10
6.9674723565
 20
-15.8521666853
 10
6.9600608982
 20
-15.8512625955
 10
6.9522709737
 20
-15.8510639335
 10
6.9441076996
 20
-15.8516234518
 10
6.9357938302
 20
-15.8530505464
 10
6.927403617
 20
-15.8553816825
 10
6.9188628085
 20
-15.8585803948
 10
6.9101714047
 20
-15.8626466834
  0
LINE
  5
3E6
100
AcDbEntity
  8
ASSI
100
AcDbLine
 62
7
  6
CONTINUOUS
 10
7.1109200068
 20
-16.3114916773
 11
7.0168179448
 21
-15.9096387642
  0
LINE
  5
3E7
100
AcDbEntity
  8
RACCORDO
100
AcDbLine
 62
7
  6
CONTINUOUS
 10
14.3041107013
 20
22.4
 11
14.3023651948
 21
22.5
  0
LINE
  5
3E8
100
AcDbEntity
  8
RACCORDO
100
AcDbLine
 62
7
  6
CONTINUOUS
 10
14.3023651948
 20
-22.5
 11
14.3041107013
 21
-22.4
  0
LWPOLYLINE
  5
3E9
100
AcDbEntity
  8
ASSI
100
AcDbPolyline
 62
7
  6
CONTINUOUS
 90
22
 70
0
 10
6.9865041076
 20
-14.1104009223
 10
7.066030528
 20
-13.7641009711
 10
7.0678221909
 20
-13.7543112201
 10
7.0690639887
 20
-13.7447777471
 10
7.0697962212
 20
-13.7354652099
 10
7.0699785886
 20
-13.7264089506
 10
7.0694901915
 20
-13.7177149957
 10
7.0684143424
 20
-13.7092406168
 10
7.0666677289
 20
-13.7011285423
 10
7.0638795137
 20
-13.6939129841
 10
7.0598261935
 20
-13.6877520183
 10
7.0547312717
 20
-13.6824875688
 10
7.0488944211
 20
-13.6781796188
 10
7.0422791087
 20
-13.6750074076
 10
7.0349218676
 20
-13.6727916959
 10
7.0272319688
 20
-13.6710547494
 10
7.0193228105
 20
-13.669719978
 10
7.0110809946
 20
-13.6688639719
 10
7.0025755979
 20
-13.6682387674
 10
6.9938296461
 20
-13.66776171
 10
6.9848201134
 20
-13.6675154542
 10
6.320083
 20
-13.6675
  0
LINE
  5
3EA
100
AcDbEntity
  8
RACCORDO
100
AcDbLine
 62
250
  6
CONTINUOUS
 10
4.2744477246
 20
-25.3039001
 11
5.260766547
 21
-23.7924925059
  0
LWPOLYLINE
  5
3EB
100
AcDbEntity
  8
ASSI
100
AcDbPolyline
 62
7
  6
CONTINUOUS
 90
16
 70
0
 10
7.0591478988
 20
-16.4563427154
 10
7.0713937932
 20
-16.450278955
 10
7.0823772928
 20
-16.4436233309
 10
7.0920983977
 20
-16.436375843
 10
7.1006160152
 20
-16.4286665182
 10
7.1078712381
 20
-16.4203653296
 10
7.1136873435
 20
-16.4110821969
 10
7.1179756338
 20
-16.4003901147
 10
7.1208248067
 20
-16.3887160883
 10
7.122324233
 20
-16.3769510531
 10
7.1222161042
 20
-16.3651971673
 10
7.1207582287
 20
-16.3533522727
 10
7.1188134017
 20
-16.3420008303
 10
7.1166692216
 20
-16.3313376604
 10
7.11403809
 20
-16.3211679427
 10
7.1109200068
 20
-16.3114916773
  0
LINE
  5
3EC
100
AcDbEntity
  8
0
100
AcDbLine
 62
7
  6
CONTINUOUS
 10
112.4795953518
 20
36.0204046481
 11
112.4378660057
 21
35.9999464956
  0
LINE
  5
3ED
100
AcDbEntity
  8
TRASH
100
AcDbLine
 62
7
  6
CONTINUOUS
 10
111.8550027299
 20
35.7281482181
 11
111.877893713
 21
35.7388223726
  0
LINE
  5
3EE
100
AcDbEntity
  8
TRASH
100
AcDbLine
 62
7
  6
CONTINUOUS
 10
114.122106287
 20
35.2611776274
 11
114.1449972701
 21
35.2718517819
  0
LINE
  5
3EF
100
AcDbEntity
  8
0
100
AcDbLine
 62
7
  6
CONTINUOUS
 10
112.4378660057
 20
35.9999464956
 11
112.4802732178
 21
36.019717435
  0
LINE
  5
3F0
100
AcDbEntity
  8
0
100
AcDbLine
 62
7
  6
CONTINUOUS
 10
113.5621339943
 20
35.0000535044
 11
113.5197267822
 21
34.980282565
  0
LINE
  5
3F1
100
AcDbEntity
  8
0
100
AcDbLine
 62
7
  6
CONTINUOUS
 10
111.8778971865
 20
35.7388260178
 11
112.4
 21
35.982289287
  0
LINE
  5
3F2
100
AcDbEntity
  8
0
100
AcDbLine
 62
7
  6
CONTINUOUS
 10
114.1221028135
 20
35.2611739822
 11
113.6
 21
35.017710713
  0
LWPOLYLINE
  5
3F3
100
AcDbEntity
  8
ASSI
100
AcDbPolyline
 62
7
  6
CONTINUOUS
 90
40
 70
0
 10
6.9101714047
 20
-15.8626466834
 10
6.8806604548
 20
-15.8742290639
 10
6.8518039728
 20
-15.8852669704
 10
6.8236019588
 20
-15.8957604031
 10
6.796073452
 20
-15.9057991588
 10
6.7691994133
 20
-15.9152934405
 10
6.7429227248
 20
-15.9239738574
 10
6.7172234524
 20
-15.9318700876
 10
6.6921215303
 20
-15.9389524529
 10
6.6676196437
 20
-15.9448625275
 10
6.6436963228
 20
-15.9493912429
 10
6.6203730374
 20
-15.9527476676
 10
6.5977168822
 20
-15.9552005813
 10
6.5757639226
 20
-15.9567558731
 10
6.5544780932
 20
-15.957407654
 10
6.5338182933
 20
-15.957407036
 10
6.5137192519
 20
-15.9569275639
 10
6.49424624
 20
-15.9557956931
 10
6.4755539703
 20
-15.9537419013
 10
6.4575876179
 20
-15.9508827146
 10
6.4404020077
 20
-15.947101607
 10
6.4243163269
 20
-15.9417794781
 10
6.4093874495
 20
-15.9348920601
 10
6.3955585015
 20
-15.9264636208
 10
6.3829780482
 20
-15.9159478639
 10
6.3716556662
 20
-15.9029660648
 10
6.3615817789
 20
-15.8878969481
 10
6.3528762219
 20
-15.8713303907
 10
6.3457430107
 20
-15.8532816874
 10
6.3399781298
 20
-15.8337355434
 10
6.3350893689
 20
-15.8132359514
 10
6.3309895072
 20
-15.7919214438
 10
6.3277657654
 20
-15.7696534883
 10
6.3251875956
 20
-15.7465604794
 10
6.3232793061
 20
-15.7226813261
 10
6.3220165885
 20
-15.6979771194
 10
6.3210959701
 20
-15.6724595282
 10
6.3204162933
 20
-15.6461324418
 10
6.3200787157
 20
-15.6189919708
 10
6.320083
 20
-14.193064
  0
LINE
  5
3F4
100
AcDbEntity
  8
0
100
AcDbLine
 62
7
  6
CONTINUOUS
 10
114.6719912502
 20
35.2718605073
 11
114.4052030739
 21
35.213691787
  0
LINE
  5
3F5
100
AcDbEntity
  8
0
100
AcDbLine
 62
7
  6
CONTINUOUS
 10
111.3280087497
 20
35.7281394921
 11
111.5947969249
 21
35.7863082122
  0
LINE
  5
3F6
100
AcDbEntity
  8
0
100
AcDbLine
 62
7
  6
CONTINUOUS
 10
114.4052030739
 20
35.213691787
 11
114.190047748
 21
35.1676955411
  0
LINE
  5
3F7
100
AcDbEntity
  8
0
100
AcDbLine
 62
7
  6
CONTINUOUS
 10
111.5947969249
 20
35.7863082122
 11
111.8099522509
 21
35.8323044581
  0
LINE
  5
3F8
100
AcDbEntity
  8
ASSI
100
AcDbLine
 62
7
  6
CONTINUOUS
 10
8.101212
 20
13.524904
 11
9.058641
 21
13.524915
  0
LINE
  5
3F9
100
AcDbEntity
  8
ASSI
100
AcDbLine
 62
7
  6
CONTINUOUS
 10
6.0
 20
13.524904
 11
6.507388
 21
13.524904
  0
LINE
  5
3FA
100
AcDbEntity
  8
ASSI
100
AcDbLine
 62
7
  6
CONTINUOUS
 10
-7.694051
 20
13.524883
 11
-6.843988
 21
13.524894
  0
LINE
  5
3FB
100
AcDbEntity
  8
ASSI
100
AcDbLine
 62
7
  6
CONTINUOUS
 10
6.507483
 20
15.168273
 11
7.249374
 21
15.168262
  0
LINE
  5
3FC
100
AcDbEntity
  8
ASSI
100
AcDbLine
 62
7
  6
CONTINUOUS
 10
7.5298679413
 20
15.954555
 11
6.495668
 21
15.954555
  0
LINE
  5
3FD
100
AcDbEntity
  8
ASSI
100
AcDbLine
 62
7
  6
CONTINUOUS
 10
6.495658
 20
16.988814
 11
7.5298363725
 21
16.988814
  0
LINE
  5
3FE
100
AcDbEntity
  8
ASSI
100
AcDbLine
 62
7
  6
CONTINUOUS
 10
-6.0
 20
17.775085
 11
-6.329429
 21
17.775085
  0
LINE
  5
3FF
100
AcDbEntity
  8
ASSI
100
AcDbLine
 62
7
  6
CONTINUOUS
 10
-8.208599
 20
17.775085
 11
-9.058641
 21
17.775085
  0
LINE
  5
400
100
AcDbEntity
  8
ASSI
100
AcDbLine
 62
7
  6
CONTINUOUS
 10
7.6478520412
 20
17.775096
 11
6.0
 21
17.775096
  0
LINE
  5
401
100
AcDbEntity
  8
0
100
AcDbLine
 62
7
  6
CONTINUOUS
 10
-114.5119012961
 20
35.2369418223
 11
-114.1898066956
 21
35.1675285871
  0
LINE
  5
402
100
AcDbEntity
  8
0
100
AcDbLine
 62
7
  6
CONTINUOUS
 10
-111.8101933044
 20
35.8324714129
 11
-111.4881002192
 21
35.7630585081
  0
LINE
  5
403
100
AcDbEntity
  8
0
100
AcDbLine
 62
7
  6
CONTINUOUS
 10
-114.6720177359
 20
35.2720547004
 11
-114.5119012961
 21
35.2369418223
  0
LINE
  5
404
100
AcDbEntity
  8
0
100
AcDbLine
 62
7
  6
CONTINUOUS
 10
-111.4881002192
 20
35.7630585081
 11
-111.3279822641
 21
35.7279452996
  0
LINE
  5
405
100
AcDbEntity
  8
TRASH
100
AcDbLine
 62
7
  6
CONTINUOUS
 10
111.8778937063
 20
-35.7388223825
 11
111.8550027231
 21
-35.7281482281
  0
LINE
  5
406
100
AcDbEntity
  8
0
100
AcDbLine
 62
7
  6
CONTINUOUS
 10
112.4802765161
 20
-36.0197234839
 11
112.4378664697
 21
-35.9999470172
  0
LINE
  5
407
100
AcDbEntity
  8
TRASH
100
AcDbLine
 62
7
  6
CONTINUOUS
 10
114.1221062937
 20
-35.2611776175
 11
114.1449972769
 21
-35.2718517719
  0
LINE
  5
408
100
AcDbEntity
  8
0
100
AcDbLine
 62
7
  6
CONTINUOUS
 10
113.5197234839
 20
-34.9802765161
 11
113.5621335303
 21
-35.0000529828
  0
LINE
  5
409
100
AcDbEntity
  8
0
100
AcDbLine
 62
7
  6
CONTINUOUS
 10
112.4
 20
-35.9822898071
 11
111.8778933466
 21
-35.738824741
  0
LINE
  5
40A
100
AcDbEntity
  8
0
100
AcDbLine
 62
7
  6
CONTINUOUS
 10
113.6
 20
-35.0177101929
 11
114.1221066534
 21
-35.261175259
  0
LWPOLYLINE
  5
40B
100
AcDbEntity
  8
0
100
AcDbPolyline
 62
7
  6
CONTINUOUS
 90
4
 70
0
 10
112.3727024907
 20
-36.1272975163
 10
112.3408441935
 20
-36.111691826
 10
112.3102445392
 20
-36.0962732603
 10
112.2808405336
 20
-36.0812021728
  0
LINE
  5
40C
100
AcDbEntity
  8
0
100
AcDbLine
 62
7
  6
CONTINUOUS
 10
112.4378664697
 20
-35.9999470172
 11
112.4795953518
 21
-36.0204046482
  0
LWPOLYLINE
  5
40D
100
AcDbEntity
  8
RACCORDO
100
AcDbPolyline
 62
250
  6
CONTINUOUS
 90
10
 70
0
 10
-5.2607679021
 20
23.7924933902
 10
-5.3656243963
 20
23.8562983681
 10
-5.4742126568
 20
23.9131518127
 10
-5.5860699887
 20
23.9628493774
 10
-5.7006804538
 20
24.0052232109
 10
-5.817607333
 20
24.04013073
 10
-5.9364906484
 20
24.0674273602
 10
-6.0568742821
 20
24.0869957444
 10
-6.1782126281
 20
24.0987735994
 10
-6.3
 20
24.1027230177
  0
LINE
  5
40E
100
AcDbEntity
  8
RACCORDO
100
AcDbLine
 62
250
  6
CONTINUOUS
 10
4.2744503664
 20
25.3039018223
 11
5.2607679018
 21
23.7924933903
  0
LINE
  5
40F
100
AcDbEntity
  8
ASSI
100
AcDbLine
 62
7
  6
CONTINUOUS
 10
7.249374
 20
15.168262
 11
8.101212
 21
13.524904
  0
LINE
  5
410
100
AcDbEntity
  8
ASSI
100
AcDbLine
 62
7
  6
CONTINUOUS
 10
9.058641
 20
13.524915
 11
8.1538255113
 21
15.2704888721
  0
LINE
  5
411
100
AcDbEntity
  8
RACCORDO
100
AcDbLine
 62
7
  6
CONTINUOUS
 10
20.1958892987
 20
-22.4
 11
20.1976348052
 21
-22.5
  0
LINE
  5
412
100
AcDbEntity
  8
RACCORDO
100
AcDbLine
 62
7
  6
CONTINUOUS
 10
20.1976348052
 20
22.5
 11
20.1958892987
 21
22.4
  0
LINE
  5
413
100
AcDbEntity
  8
0
100
AcDbLine
 62
7
  6
CONTINUOUS
 10
111.8283951111
 20
35.8450726739
 11
111.9759195551
 21
35.923409377
  0
LINE
  5
414
100
AcDbEntity
  8
0
100
AcDbLine
 62
7
  6
CONTINUOUS
 10
114.1716048889
 20
35.1549273261
 11
114.0240804449
 21
35.076590623
  0
LINE
  5
415
100
AcDbEntity
  8
0
100
AcDbLine
 62
7
  6
CONTINUOUS
 10
111.9759195551
 20
35.923409377
 11
112.0738016863
 21
35.974736128
  0
LINE
  5
416
100
AcDbEntity
  8
0
100
AcDbLine
 62
7
  6
CONTINUOUS
 10
114.0240804449
 20
35.076590623
 11
113.9261983137
 21
35.025263872
  0
LINE
  5
417
100
AcDbEntity
  8
0
100
AcDbLine
 62
7
  6
CONTINUOUS
 10
112.0738016863
 20
35.974736128
 11
112.147788788
 21
36.01313863
  0
LINE
  5
418
100
AcDbEntity
  8
0
100
AcDbLine
 62
7
  6
CONTINUOUS
 10
113.9261983137
 20
35.025263872
 11
113.852211212
 21
34.98686137
  0
LWPOLYLINE
  5
419
100
AcDbEntity
  8
0
100
AcDbPolyline
 62
7
  6
CONTINUOUS
 90
4
 70
0
 10
112.147788788
 20
36.01313863
 10
112.2252366272
 20
36.0529281995
 10
112.252396052
 20
36.0666770756
 10
112.3100891716
 20
36.0961974303
  0
LWPOLYLINE
  5
41A
100
AcDbEntity
  8
0
100
AcDbPolyline
 62
7
  6
CONTINUOUS
 90
4
 70
0
 10
113.852211212
 20
34.98686137
 10
113.7747633728
 20
34.9470718005
 10
113.747603948
 20
34.9333229245
 10
113.6899108284
 20
34.9038025697
  0
LWPOLYLINE
  5
41B
100
AcDbEntity
  8
0
100
AcDbPolyline
 62
7
  6
CONTINUOUS
 90
3
 70
0
 10
112.3100891716
 20
36.0961974303
 10
112.3407625029
 20
36.1116535241
 10
112.3727025934
 20
36.1272972341
  0
LWPOLYLINE
  5
41C
100
AcDbEntity
  8
0
100
AcDbPolyline
 62
7
  6
CONTINUOUS
 90
3
 70
0
 10
113.6899108284
 20
34.9038025697
 10
113.6592374971
 20
34.8883464759
 10
113.6272974066
 20
34.8727027659
  0
LINE
  5
41D
100
AcDbEntity
  8
0
100
AcDbLine
 62
7
  6
CONTINUOUS
 10
113.5204046482
 20
34.9795953519
 11
113.5621339943
 21
35.0000535044
  0
LWPOLYLINE
  5
41E
100
AcDbEntity
  8
RACCORDO
100
AcDbPolyline
 62
250
  6
CONTINUOUS
 90
10
 70
0
 10
6.3
 20
24.1027230177
 10
6.178113443
 20
24.0987634944
 10
6.0566742036
 20
24.0869639071
 10
5.9361890091
 20
24.0673616951
 10
5.8171680773
 20
24.0400099281
 10
5.7001064838
 20
24.0050298612
 10
5.5854710427
 20
23.9626062896
 10
5.4737258417
 20
23.9129175378
 10
5.3653412651
 20
23.8561392405
 10
5.2607679021
 20
23.7924933902
  0
LWPOLYLINE
  5
41F
100
AcDbEntity
  8
RACCORDO
100
AcDbPolyline
 62
250
  6
CONTINUOUS
 90
10
 70
0
 10
6.3
 20
25.8770237531
 10
6.0608381646
 20
25.8694124612
 10
5.8244933838
 20
25.8475569542
 10
5.5909656576
 20
25.8114570622
 10
5.3593108038
 20
25.7608092735
 10
5.1304730047
 20
25.6959165637
 10
4.9072848066
 20
25.6176884868
 10
4.6906903919
 20
25.526428198
 10
4.4797455783
 20
25.4218325153
 10
4.2744503658
 20
25.3039018236
  0
LWPOLYLINE
  5
420
100
AcDbEntity
  8
RACCORDO
100
AcDbPolyline
 62
250
  6
CONTINUOUS
 90
3
 70
0
 10
95.6944817967
 20
25.8811687826
 10
95.2445541065
 20
25.8786992014
 10
94.3267028741
 20
25.8827438253
  0
LINE
  5
421
100
AcDbEntity
  8
RACCORDO
100
AcDbLine
 62
250
  6
CONTINUOUS
 10
-78.1514715875
 20
25.8732482705
 11
-80.1417295171
 21
25.8713557458
  0
LWPOLYLINE
  5
422
100
AcDbEntity
  8
RACCORDO
100
AcDbPolyline
 62
250
  6
CONTINUOUS
 90
4
 70
0
 10
-80.1417295171
 20
25.8713557458
 10
-81.1539954606
 20
25.8711340127
 10
-82.1236897906
 20
25.8721885858
 10
-83.9302627115
 20
25.8719080304
  0
LINE
  5
423
100
AcDbEntity
  8
RACCORDO
100
AcDbLine
 62
250
  6
CONTINUOUS
 10
-99.3879616873
 20
22.1990749509
 11
-96.0
 21
22.2
  0
LINE
  5
424
100
AcDbEntity
  8
RACCORDO
100
AcDbLine
 62
250
  6
CONTINUOUS
 10
2.5936465831
 20
22.2
 11
6.0
 21
22.2
  0
LINE
  5
425
100
AcDbEntity
  8
RACCORDO
100
AcDbLine
 62
250
  6
CONTINUOUS
 10
-2.5936465831
 20
22.2
 11
-6.0
 21
22.2
  0
LINE
  5
426
100
AcDbEntity
  8
RACCORDO
100
AcDbLine
 62
7
  6
CONTINUOUS
 10
87.6958892987
 20
22.4
 11
81.8041107013
 21
22.4
  0
LINE
  5
427
100
AcDbEntity
  8
RACCORDO
100
AcDbLine
 62
7
  6
CONTINUOUS
 10
65.1958892987
 20
22.4
 11
59.3041107013
 21
22.4
  0
LINE
  5
428
100
AcDbEntity
  8
RACCORDO
100
AcDbLine
 62
7
  6
CONTINUOUS
 10
42.6958892987
 20
22.4
 11
36.8041107013
 21
22.4
  0
LINE
  5
429
100
AcDbEntity
  8
RACCORDO
100
AcDbLine
 62
7
  6
CONTINUOUS
 10
20.1958892987
 20
22.4
 11
14.3041107013
 21
22.4
  0
LINE
  5
42A
100
AcDbEntity
  8
RACCORDO
100
AcDbLine
 62
7
  6
CONTINUOUS
 10
-14.3041107013
 20
22.4
 11
-20.1958892987
 21
22.4
  0
LINE
  5
42B
100
AcDbEntity
  8
RACCORDO
100
AcDbLine
 62
7
  6
CONTINUOUS
 10
-36.8041107013
 20
22.4
 11
-42.6958892987
 21
22.4
  0
LINE
  5
42C
100
AcDbEntity
  8
RACCORDO
100
AcDbLine
 62
7
  6
CONTINUOUS
 10
-59.3041107013
 20
22.4
 11
-65.1958892987
 21
22.4
  0
LINE
  5
42D
100
AcDbEntity
  8
RACCORDO
100
AcDbLine
 62
7
  6
CONTINUOUS
 10
-81.8041107013
 20
22.4
 11
-87.6958892987
 21
22.4
  0
LINE
  5
42E
100
AcDbEntity
  8
0
100
AcDbLine
 62
7
  6
CONTINUOUS
 10
-95.7
 20
22.5
 11
-6.3
 21
22.5
  0
LINE
  5
42F
100
AcDbEntity
  8
0
100
AcDbLine
 62
7
  6
CONTINUOUS
 10
6.3
 20
22.5
 11
95.7
 21
22.5
  0
LINE
  5
430
100
AcDbEntity
  8
RACCORDO
100
AcDbLine
 62
250
  6
CONTINUOUS
 10
95.7
 20
24.1025681183
 11
6.3
 21
24.1027230177
  0
LINE
  5
431
100
AcDbEntity
  8
RACCORDO
100
AcDbLine
 62
250
  6
CONTINUOUS
 10
-6.3
 20
24.1027230177
 11
-95.7
 21
24.1025681183
  0
LINE
  5
432
100
AcDbEntity
  8
RACCORDO
100
AcDbLine
 62
250
  6
CONTINUOUS
 10
4.2744503658
 20
25.3039018236
 11
-4.2744503658
 21
25.3039018236
  0
LINE
  5
433
100
AcDbEntity
  8
RACCORDO
100
AcDbLine
 62
250
  6
CONTINUOUS
 10
-71.8395161362
 20
25.872807359
 11
-74.402681699
 21
25.8727501159
  0
LWPOLYLINE
  5
434
100
AcDbEntity
  8
RACCORDO
100
AcDbPolyline
 62
250
  6
CONTINUOUS
 90
3
 70
0
 10
-70.2325458347
 20
25.8729024085
 10
-71.0264334123
 20
25.8728800526
 10
-71.8395161362
 20
25.872807359
  0
LINE
  5
435
100
AcDbEntity
  8
RACCORDO
100
AcDbLine
 62
250
  6
CONTINUOUS
 10
-6.3
 20
25.8770237531
 11
-50.9896098814
 21
25.8770237529
  0
LINE
  5
436
100
AcDbEntity
  8
RACCORDO
100
AcDbLine
 62
250
  6
CONTINUOUS
 10
-50.9896098771
 20
25.8770204999
 11
-70.2325458347
 21
25.8729024085
  0
LINE
  5
437
100
AcDbEntity
  8
RACCORDO
100
AcDbLine
 62
250
  6
CONTINUOUS
 10
69.5698606715
 20
25.8730362773
 11
67.8404152921
 21
25.8732190713
  0
LINE
  5
438
100
AcDbEntity
  8
RACCORDO
100
AcDbLine
 62
250
  6
CONTINUOUS
 10
66.2394855824
 20
25.8735156349
 11
64.757175812
 21
25.8736784626
  0
LINE
  5
439
100
AcDbEntity
  8
RACCORDO
100
AcDbLine
 62
250
  6
CONTINUOUS
 10
67.8404152921
 20
25.8732190713
 11
66.2394855824
 21
25.8735156349
  0
LWPOLYLINE
  5
43A
100
AcDbEntity
  8
RACCORDO
100
AcDbPolyline
 62
250
  6
CONTINUOUS
 90
3
 70
0
 10
64.757175812
 20
25.8736784626
 10
51.5793974184
 20
25.8768029031
 10
6.3
 20
25.8770237531
  0
LINE
  5
43B
100
AcDbEntity
  8
RACCORDO
100
AcDbLine
 62
250
  6
CONTINUOUS
 10
-74.402681699
 20
25.8727501159
 11
-78.1514715875
 21
25.8732482705
  0
LWPOLYLINE
  5
43C
100
AcDbEntity
  8
RACCORDO
100
AcDbPolyline
 62
250
  6
CONTINUOUS
 90
4
 70
0
 10
99.3879618473
 20
22.1990749558
 10
97.9595007041
 20
22.1997767416
 10
97.7767230709
 20
22.1998878797
 10
96.0
 20
22.2
  0
LINE
  5
43D
100
AcDbEntity
  8
RACCORDO
100
AcDbLine
 62
250
  6
CONTINUOUS
 10
80.9302205297
 20
25.8722636458
 11
69.5698606715
 21
25.8730362773
  0
LWPOLYLINE
  5
43E
100
AcDbEntity
  8
RACCORDO
100
AcDbPolyline
 62
250
  6
CONTINUOUS
 90
3
 70
0
 10
85.626613262
 20
25.873110274
 10
84.1398441757
 20
25.873550588
 10
82.5778624211
 20
25.8706639561
  0
LWPOLYLINE
  5
43F
100
AcDbEntity
  8
RACCORDO
100
AcDbPolyline
 62
250
  6
CONTINUOUS
 90
11
 70
0
 10
-89.8692857835
 20
25.8662230304
 10
-91.0980829867
 20
25.8673236402
 10
-91.6786660527
 20
25.862306791
 10
-92.2368738887
 20
25.8619617092
 10
-92.7717083474
 20
25.8734092279
 10
-93.2818399381
 20
25.885524305
 10
-93.7737673739
 20
25.8859979767
 10
-94.2592490308
 20
25.8826553791
 10
-94.7440131121
 20
25.8809698613
 10
-95.2233861933
 20
25.8786235334
 10
-95.6944817967
 20
25.8811687826
  0
LWPOLYLINE
  5
440
100
AcDbEntity
  8
RACCORDO
100
AcDbPolyline
 62
250
  6
CONTINUOUS
 90
9
 70
0
 10
-83.9302627115
 20
25.8719080304
 10
-84.7796473373
 20
25.8729011335
 10
-85.5917148145
 20
25.8757348274
 10
-86.3729972371
 20
25.8763544834
 10
-87.1264582827
 20
25.8728759443
 10
-87.8506983747
 20
25.8713114753
 10
-88.5465361494
 20
25.8727935573
 10
-89.2189186664
 20
25.8700565422
 10
-89.8692857835
 20
25.8662230304
  0
LINE
  5
441
100
AcDbEntity
  8
RACCORDO
100
AcDbLine
 62
250
  6
CONTINUOUS
 10
82.5778624211
 20
25.8706639561
 11
80.9302205297
 21
25.8722636458
  0
LWPOLYLINE
  5
442
100
AcDbEntity
  8
RACCORDO
100
AcDbPolyline
 62
250
  6
CONTINUOUS
 90
11
 70
0
 10
92.4163408459
 20
25.8663220383
 10
91.3574827438
 20
25.8670953601
 10
90.7966626822
 20
25.8648500763
 10
90.2137057076
 20
25.8652486468
 10
89.612726623
 20
25.8693955678
 10
88.9952679307
 20
25.8715687127
 10
88.3592664282
 20
25.8701564525
 10
87.7036841607
 20
25.8723919886
 10
87.0291671411
 20
25.876018609
 10
86.3370243172
 20
25.8753150843
 10
85.626613262
 20
25.873110274
  0
LWPOLYLINE
  5
443
100
AcDbEntity
  8
0
100
AcDbPolyline
 62
7
  6
CONTINUOUS
 90
4
 70
0
 10
113.6272975093
 20
-34.8727024837
 10
113.6591558065
 20
-34.888308174
 10
113.6897554608
 20
-34.9037267397
 10
113.7191594664
 20
-34.9187978272
  0
LINE
  5
444
100
AcDbEntity
  8
0
100
AcDbLine
 62
7
  6
CONTINUOUS
 10
113.5621335303
 20
-35.0000529828
 11
113.5204046482
 21
-34.9795953518
  0
LINE
  5
445
100
AcDbEntity
  8
0
100
AcDbLine
 62
7
  6
CONTINUOUS
 10
112.2808405336
 20
-36.0812021728
 11
112.1991463063
 21
-36.0395816954
  0
LINE
  5
446
100
AcDbEntity
  8
0
100
AcDbLine
 62
7
  6
CONTINUOUS
 10
113.7191594664
 20
-34.9187978272
 11
113.8008536937
 21
-34.9604183046
  0
LINE
  5
447
100
AcDbEntity
  8
0
100
AcDbLine
 62
7
  6
CONTINUOUS
 10
112.1991463063
 20
-36.0395816954
 11
112.1233223684
 21
-36.0004898034
  0
LINE
  5
448
100
AcDbEntity
  8
0
100
AcDbLine
 62
7
  6
CONTINUOUS
 10
113.8008536937
 20
-34.9604183046
 11
113.8766776316
 21
-34.9995101966
  0
LINE
  5
449
100
AcDbEntity
  8
0
100
AcDbLine
 62
7
  6
CONTINUOUS
 10
112.1233223684
 20
-36.0004898034
 11
112.0004861321
 21
-35.9363522233
  0
LINE
  5
44A
100
AcDbEntity
  8
0
100
AcDbLine
 62
7
  6
CONTINUOUS
 10
113.8766776316
 20
-34.9995101966
 11
113.9995138679
 21
-35.0636477767
  0
LWPOLYLINE
  5
44B
100
AcDbEntity
  8
0
100
AcDbPolyline
 62
7
  6
CONTINUOUS
 90
4
 70
0
 10
112.0004861321
 20
-35.9363522233
 10
111.9019622533
 20
-35.8842715128
 10
111.8774107956
 20
-35.8711775398
 10
111.828395019
 20
-35.8450726247
  0
LWPOLYLINE
  5
44C
100
AcDbEntity
  8
0
100
AcDbPolyline
 62
7
  6
CONTINUOUS
 90
4
 70
0
 10
113.9995138679
 20
-35.0636477767
 10
114.0980377467
 20
-35.1157284872
 10
114.1225892044
 20
-35.1288224602
 10
114.171604981
 20
-35.1549273753
  0
LWPOLYLINE
  5
44D
100
AcDbEntity
  8
RACCORDO
100
AcDbPolyline
 62
250
  6
CONTINUOUS
 90
10
 70
0
 10
-4.2744503658
 20
25.3039018236
 10
-4.4803351597
 20
25.4220460594
 10
-4.691653747
 20
25.5267791699
 10
-4.9084061277
 20
25.6181007694
 10
-5.1314452677
 20
25.6962837359
 10
-5.359918201
 20
25.7610552224
 10
-5.5912660306
 20
25.8115965916
 10
-5.8246357908
 20
25.8476351718
 10
-6.0608804473
 20
25.8694441692
 10
-6.3
 20
25.8770237531
  0
LINE
  5
44E
100
AcDbEntity
  8
0
100
AcDbLine
 62
7
  6
CONTINUOUS
 10
111.8099522509
 20
35.8323044581
 11
111.8283951111
 21
35.8450726739
  0
LWPOLYLINE
  5
44F
100
AcDbEntity
  8
RACCORDO
100
AcDbPolyline
 62
250
  6
CONTINUOUS
 90
25
 70
0
 10
-95.6944817967
 20
25.8811687826
 10
-95.9758071645
 20
25.8676931525
 10
-96.2524474347
 20
25.836220649
 10
-96.524247162
 20
25.7861074804
 10
-96.7913359163
 20
25.7146124796
 10
-97.0515349986
 20
25.6225703494
 10
-97.3003024454
 20
25.5152926437
 10
-97.5334604776
 20
25.3939196198
 10
-97.7502449773
 20
25.2591321938
 10
-97.9508826812
 20
25.1163505853
 10
-98.1327411611
 20
24.9680390503
 10
-98.2969999475
 20
24.8145587285
 10
-98.4488088949
 20
24.6571138064
 10
-98.5858826994
 20
24.4968733087
 10
-98.7085398565
 20
24.333135329
 10
-98.823801117
 20
24.1628349009
 10
-98.9305954233
 20
23.9853423917
 10
-99.026012737
 20
23.8004122899
 10
-99.1125239192
 20
23.6045721748
 10
-99.1918735523
 20
23.3957511617
 10
-99.2604718799
 20
23.175208974
 10
-99.3132086405
 20
22.9446184856
 10
-99.3499241697
 20
22.7050084361
 10
-99.3742433741
 20
22.4563010463
 10
-99.3879616569
 20
22.1990749496
  0
LWPOLYLINE
  5
450
100
AcDbEntity
  8
RACCORDO
100
AcDbPolyline
 62
250
  6
CONTINUOUS
 90
25
 70
0
 10
-95.7
 20
24.1025681183
 10
-95.8442445618
 20
24.0972480537
 10
-95.9869378269
 20
24.0810846645
 10
-96.1272778883
 20
24.0543374971
 10
-96.2653241884
 20
24.0170620548
 10
-96.399476507
 20
23.9697670877
 10
-96.5266955147
 20
23.9140191544
 10
-96.646285687
 20
23.8509621603
 10
-96.7582988664
 20
23.7814199021
 10
-96.8613453054
 20
23.7072764916
 10
-96.9547299619
 20
23.6303663737
 10
-97.0395572143
 20
23.551125015
 10
-97.1172469451
 20
23.469267285
 10
-97.1875222486
 20
23.3860064039
 10
-97.2510543634
 20
23.3014936199
 10
-97.3100559202
 20
23.2131838526
 10
-97.3643888574
 20
23.121107959
 10
-97.4136800435
 20
23.0256990738
 10
-97.4588543158
 20
22.9244323958
 10
-97.4995517337
 20
22.8163901186
 10
-97.5345586645
 20
22.7027072581
 10
-97.5630623624
 20
22.5838210453
 10
-97.5843134937
 20
22.4601378716
 10
-97.5975960221
 20
22.3320246413
 10
-97.6021819848
 20
22.2
  0
LWPOLYLINE
  5
451
100
AcDbEntity
  8
RACCORDO
100
AcDbPolyline
 62
250
  6
CONTINUOUS
 90
5
 70
0
 10
94.3267028741
 20
25.8827438253
 10
93.8655814064
 20
25.8855822188
 10
93.3996393052
 20
25.8851197735
 10
92.9179211554
 20
25.8747255685
 10
92.4163408459
 20
25.8663220383
  0
LINE
  5
452
100
AcDbEntity
  8
0
100
AcDbLine
 62
7
  6
CONTINUOUS
 10
111.8101933044
 20
-35.8324714129
 11
111.828395019
 21
-35.8450726247
  0
LINE
  5
453
100
AcDbEntity
  8
RACCORDO
100
AcDbLine
 62
7
  6
CONTINUOUS
 10
36.8041107013
 20
22.4
 11
36.8023651948
 21
22.5
  0
LINE
  5
454
100
AcDbEntity
  8
RACCORDO
100
AcDbLine
 62
7
  6
CONTINUOUS
 10
42.6958892987
 20
-22.4
 11
42.6976348052
 21
-22.5
  0
LINE
  5
455
100
AcDbEntity
  8
RACCORDO
100
AcDbLine
 62
7
  6
CONTINUOUS
 10
36.8023651948
 20
-22.5
 11
36.8041107013
 21
-22.4
  0
LINE
  5
456
100
AcDbEntity
  8
RACCORDO
100
AcDbLine
 62
7
  6
CONTINUOUS
 10
42.6976348052
 20
22.5
 11
42.6958892987
 21
22.4
  0
LINE
  5
457
100
AcDbEntity
  8
0
100
AcDbLine
 62
7
  6
CONTINUOUS
 10
114.1716048889
 20
35.1549273261
 11
114.190047748
 21
35.1676955411
  0
LINE
  5
458
100
AcDbEntity
  8
RACCORDO
100
AcDbLine
 62
250
  6
CONTINUOUS
 10
-108.2569164192
 20
39.8410894187
 11
-106.8183375928
 21
39.8649483922
  0
LWPOLYLINE
  5
459
100
AcDbEntity
  8
RACCORDO
100
AcDbPolyline
 62
250
  6
CONTINUOUS
 90
3
 70
0
 10
-111.6384452693
 20
39.8143583597
 10
-111.359931614
 20
39.818002015
 10
-109.6924013047
 20
39.826653571
  0
LINE
  5
45A
100
AcDbEntity
  8
RACCORDO
100
AcDbLine
 62
250
  6
CONTINUOUS
 10
-106.8183375928
 20
39.8649483922
 11
-106.3582870744
 21
39.8714667777
  0
LINE
  5
45B
100
AcDbEntity
  8
RACCORDO
100
AcDbLine
 62
250
  6
CONTINUOUS
 10
-108.9230050134
 20
39.8329025258
 11
-108.2569164192
 21
39.8410894187
  0
LINE
  5
45C
100
AcDbEntity
  8
RACCORDO
100
AcDbLine
 62
250
  6
CONTINUOUS
 10
-109.6924013047
 20
39.826653571
 11
-108.9230050134
 21
39.8329025258
  0
LINE
  5
45D
100
AcDbEntity
  8
RACCORDO
100
AcDbLine
 62
250
  6
CONTINUOUS
 10
-106.3582870744
 20
39.8714667777
 11
-106.061894169
 21
39.8737122787
  0
LINE
  5
45E
100
AcDbEntity
  8
RACCORDO
100
AcDbLine
 62
250
  6
CONTINUOUS
 10
104.1651880059
 20
39.8644134346
 11
105.8769726478
 21
39.8742148714
  0
LINE
  5
45F
100
AcDbEntity
  8
RACCORDO
100
AcDbLine
 62
250
  6
CONTINUOUS
 10
-97.7916489721
 20
39.8773424464
 11
-95.8987005842
 21
39.8813867407
  0
LINE
  5
460
100
AcDbEntity
  8
RACCORDO
100
AcDbLine
 62
250
  6
CONTINUOUS
 10
-57.0722052895
 20
39.9227461345
 11
-51.0047471505
 21
39.9340818796
  0
LINE
  5
461
100
AcDbEntity
  8
RACCORDO
100
AcDbLine
 62
250
  6
CONTINUOUS
 10
-61.6568275433
 20
39.9169292642
 11
-57.0722052895
 21
39.9227461345
  0
LINE
  5
462
100
AcDbEntity
  8
RACCORDO
100
AcDbLine
 62
250
  6
CONTINUOUS
 10
112.7031836318
 20
41.3011200246
 11
113.0000028231
 21
41.3014375389
  0
LINE
  5
463
100
AcDbEntity
  8
RACCORDO
100
AcDbLine
 62
250
  6
CONTINUOUS
 10
-83.8197070386
 20
39.8953098587
 11
-61.6568275433
 21
39.9169292642
  0
LINE
  5
464
100
AcDbEntity
  8
RACCORDO
100
AcDbLine
 62
250
  6
CONTINUOUS
 10
-95.8987005842
 20
39.8813867407
 11
-83.8197070386
 21
39.8953098587
  0
LINE
  5
465
100
AcDbEntity
  8
RACCORDO
100
AcDbLine
 62
250
  6
CONTINUOUS
 10
112.1325397745
 20
41.3005618404
 11
112.7031836318
 21
41.3011200246
  0
LWPOLYLINE
  5
466
100
AcDbEntity
  8
RACCORDO
100
AcDbPolyline
 62
250
  6
CONTINUOUS
 90
4
 70
0
 10
111.0706884434
 20
41.2997282951
 10
111.3340603016
 20
41.2999166749
 10
111.5968779341
 20
41.3001148979
 10
112.1325397745
 20
41.3005618404
  0
LWPOLYLINE
  5
467
100
AcDbEntity
  8
RACCORDO
100
AcDbPolyline
 62
250
  6
CONTINUOUS
 90
5
 70
0
 10
109.504567109
 20
41.2987785429
 10
109.7574764886
 20
41.2989138253
 10
110.0167005199
 20
41.2990608084
 10
110.2815034904
 20
41.2992186128
 10
111.0706884434
 20
41.2997282951
  0
LWPOLYLINE
  5
468
100
AcDbEntity
  8
RACCORDO
100
AcDbPolyline
 62
250
  6
CONTINUOUS
 90
5
 70
0
 10
108.3618702404
 20
41.2982767988
 10
108.5725666432
 20
41.2983543002
 10
108.7912364356
 20
41.2984419606
 10
109.0189547982
 20
41.2985415648
 10
109.504567109
 20
41.2987785429
  0
LWPOLYLINE
  5
469
100
AcDbEntity
  8
RACCORDO
100
AcDbPolyline
 62
250
  6
CONTINUOUS
 90
6
 70
0
 10
107.2495115705
 20
41.2980018248
 10
107.4196033273
 20
41.2980291275
 10
107.594836456
 20
41.2980623119
 10
107.7765461885
 20
41.2981034628
 10
107.9646786734
 20
41.2981525442
 10
108.3618702404
 20
41.2982767988
  0
LINE
  5
46A
100
AcDbEntity
  8
RACCORDO
100
AcDbLine
 62
250
  6
CONTINUOUS
 10
118.8015787468
 20
35.4999993365
 11
119.0000003491
 21
35.5000000145
  0
LINE
  5
46B
100
AcDbEntity
  8
RACCORDO
100
AcDbLine
 62
250
  6
CONTINUOUS
 10
-118.8015787468
 20
35.4999993365
 11
-119.0000003491
 21
35.5000000145
  0
LINE
  5
46C
100
AcDbEntity
  8
RACCORDO
100
AcDbLine
 62
250
  6
CONTINUOUS
 10
-51.0014312601
 20
39.9340380644
 11
51.0014307606
 21
39.9340891106
  0
LINE
  5
46D
100
AcDbEntity
  8
DRAFT
100
AcDbLine
 62
7
  6
CONTINUOUS
 10
-113.0
 20
41.5
 11
113.0
 21
41.5
  0
LINE
  5
46E
100
AcDbEntity
  8
SUPERFICI
100
AcDbLine
 62
7
  6
CONTINUOUS
 10
-113.0000001209
 20
41.5000003491
 11
113.0000001209
 21
41.5000003491
  0
LINE
  5
46F
100
AcDbEntity
  8
RACCORDO
100
AcDbLine
 62
250
  6
CONTINUOUS
 10
-103.0515656941
 20
39.8623500126
 11
-97.7916489721
 21
39.8773424464
  0
LINE
  5
470
100
AcDbEntity
  8
RACCORDO
100
AcDbLine
 62
250
  6
CONTINUOUS
 10
-52.9291042259
 20
41.2987860557
 11
68.4543892639
 21
41.2990314136
  0
LINE
  5
471
100
AcDbEntity
  8
RACCORDO
100
AcDbLine
 62
250
  6
CONTINUOUS
 10
68.4543892639
 20
41.2990314136
 11
107.2495115705
 21
41.2980018248
  0
LINE
  5
472
100
AcDbEntity
  8
0
100
AcDbLine
 62
7
  6
CONTINUOUS
 10
-111.8549920759
 20
35.2718072551
 11
-111.3280087498
 21
35.2718605073
  0
LINE
  5
473
100
AcDbEntity
  8
0
100
AcDbLine
 62
7
  6
CONTINUOUS
 10
114.1450079241
 20
35.2718072551
 11
114.6719912502
 21
35.2718605073
  0
LINE
  5
474
100
AcDbEntity
  8
0
100
AcDbLine
 62
7
  6
CONTINUOUS
 10
-114.6719912503
 20
35.7281394921
 11
-114.1450079232
 21
35.72819274
  0
LINE
  5
475
100
AcDbEntity
  8
0
100
AcDbLine
 62
7
  6
CONTINUOUS
 10
111.3280087497
 20
35.7281394921
 11
111.8549920768
 21
35.72819274
  0
LINE
  5
476
100
AcDbEntity
  8
RACCORDO
100
AcDbLine
 62
250
  6
CONTINUOUS
 10
-106.061894169
 20
39.8737122787
 11
-105.7682950768
 21
39.8740829609
  0
LINE
  5
477
100
AcDbEntity
  8
RACCORDO
100
AcDbLine
 62
250
  6
CONTINUOUS
 10
102.3400819055
 20
39.8626103316
 11
104.1651880059
 21
39.8644134346
  0
LWPOLYLINE
  5
478
100
AcDbEntity
  8
RACCORDO
100
AcDbPolyline
 62
250
  6
CONTINUOUS
 90
4
 70
0
 10
-113.0000028231
 20
41.3014375389
 10
-112.6923633063
 20
41.3011094195
 10
-112.3931505255
 20
41.3008085638
 10
-52.9291042259
 20
41.2987860557
  0
LINE
  5
479
100
AcDbEntity
  8
RACCORDO
100
AcDbLine
 62
250
  6
CONTINUOUS
 10
88.2108453875
 20
39.8907897738
 11
90.0811264191
 21
39.8886809532
  0
LINE
  5
47A
100
AcDbEntity
  8
RACCORDO
100
AcDbLine
 62
250
  6
CONTINUOUS
 10
90.0811264191
 20
39.8886809532
 11
93.8169857491
 21
39.8842428736
  0
LWPOLYLINE
  5
47B
100
AcDbEntity
  8
RACCORDO
100
AcDbPolyline
 62
250
  6
CONTINUOUS
 90
3
 70
0
 10
57.87123065
 20
39.9216037937
 10
58.5167109459
 20
39.9207319793
 10
88.2108453875
 20
39.8907897738
  0
LINE
  5
47C
100
AcDbEntity
  8
RACCORDO
100
AcDbLine
 62
250
  6
CONTINUOUS
 10
93.8169857491
 20
39.8842428736
 11
94.7469055922
 21
39.8830689602
  0
LINE
  5
47D
100
AcDbEntity
  8
0
100
AcDbLine
 62
7
  6
CONTINUOUS
 10
-114.1450395831
 20
35.2716467289
 11
-114.6720177359
 21
35.2720547004
  0
LINE
  5
47E
100
AcDbEntity
  8
0
100
AcDbLine
 62
7
  6
CONTINUOUS
 10
111.8549604169
 20
35.2716467289
 11
111.3279822641
 21
35.2720547004
  0
LINE
  5
47F
100
AcDbEntity
  8
0
100
AcDbLine
 62
7
  6
CONTINUOUS
 10
-111.8549604169
 20
35.7283532711
 11
-111.3279822641
 21
35.7279452996
  0
LINE
  5
480
100
AcDbEntity
  8
0
100
AcDbLine
 62
7
  6
CONTINUOUS
 10
114.1450395831
 20
35.7283532711
 11
114.6720177359
 21
35.7279452996
  0
LINE
  5
481
100
AcDbEntity
  8
RACCORDO
100
AcDbLine
 62
250
  6
CONTINUOUS
 10
56.6443476657
 20
39.9233894033
 11
57.87123065
 21
39.9216037937
  0
LINE
  5
482
100
AcDbEntity
  8
RACCORDO
100
AcDbLine
 62
250
  6
CONTINUOUS
 10
55.4969532333
 20
39.9252341998
 11
56.6443476657
 21
39.9233894033
  0
LINE
  5
483
100
AcDbEntity
  8
RACCORDO
100
AcDbLine
 62
250
  6
CONTINUOUS
 10
94.7469055922
 20
39.8830689602
 11
96.0427937745
 21
39.8811463959
  0
LWPOLYLINE
  5
484
100
AcDbEntity
  8
RACCORDO
100
AcDbPolyline
 62
250
  6
CONTINUOUS
 90
3
 70
0
 10
53.8858591045
 20
39.9281247144
 10
54.4080944126
 20
39.9271539927
 10
55.4969532333
 20
39.9252341998
  0
LWPOLYLINE
  5
485
100
AcDbEntity
  8
RACCORDO
100
AcDbPolyline
 62
250
  6
CONTINUOUS
 90
3
 70
0
 10
52.3892032031
 20
39.9311065773
 10
52.8750538462
 20
39.9301026242
 10
53.8858591045
 20
39.9281247144
  0
LINE
  5
486
100
AcDbEntity
  8
RACCORDO
100
AcDbLine
 62
250
  6
CONTINUOUS
 10
51.0047471505
 20
39.9340818802
 11
52.3892032031
 21
39.9311065773
  0
LINE
  5
487
100
AcDbEntity
  8
RACCORDO
100
AcDbLine
 62
250
  6
CONTINUOUS
 10
96.0427937745
 20
39.8811463959
 11
97.9664465607
 21
39.8768447556
  0
LINE
  5
488
100
AcDbEntity
  8
RACCORDO
100
AcDbLine
 62
250
  6
CONTINUOUS
 10
97.9664465607
 20
39.8768447556
 11
99.6391944444
 21
39.8707840014
  0
LWPOLYLINE
  5
489
100
AcDbEntity
  8
RACCORDO
100
AcDbPolyline
 62
250
  6
CONTINUOUS
 90
3
 70
0
 10
99.6391944444
 20
39.8707840014
 10
100.2443704345
 20
39.8681798851
 10
102.3400819055
 20
39.8626103316
  0
LINE
  5
48A
100
AcDbEntity
  8
RACCORDO
100
AcDbLine
 62
250
  6
CONTINUOUS
 10
-104.5394145352
 20
39.8660574415
 11
-103.0515656941
 21
39.8623500126
  0
LINE
  5
48B
100
AcDbEntity
  8
RACCORDO
100
AcDbLine
 62
250
  6
CONTINUOUS
 10
105.8769726478
 20
39.8742148714
 11
106.169931395
 21
39.8730827959
  0
LINE
  5
48C
100
AcDbEntity
  8
RACCORDO
100
AcDbLine
 62
250
  6
CONTINUOUS
 10
110.6158441792
 20
39.8221452813
 11
111.4143309947
 21
39.8173359379
  0
LINE
  5
48D
100
AcDbEntity
  8
RACCORDO
100
AcDbLine
 62
250
  6
CONTINUOUS
 10
-105.7682950768
 20
39.8740829609
 11
-104.5394145352
 21
39.8660574415
  0
LINE
  5
48E
100
AcDbEntity
  8
RACCORDO
100
AcDbLine
 62
250
  6
CONTINUOUS
 10
109.3103900896
 20
39.8294747234
 11
110.6158441792
 21
39.8221452813
  0
LINE
  5
48F
100
AcDbEntity
  8
RACCORDO
100
AcDbLine
 62
250
  6
CONTINUOUS
 10
106.169931395
 20
39.8730827959
 11
106.4678526327
 21
39.8701744469
  0
LINE
  5
490
100
AcDbEntity
  8
RACCORDO
100
AcDbLine
 62
250
  6
CONTINUOUS
 10
108.4001776287
 20
39.839094226
 11
109.3103900896
 21
39.8294747234
  0
LINE
  5
491
100
AcDbEntity
  8
RACCORDO
100
AcDbLine
 62
250
  6
CONTINUOUS
 10
111.4143309947
 20
39.8173359379
 11
111.684384216
 21
39.8135566759
  0
LINE
  5
492
100
AcDbEntity
  8
RACCORDO
100
AcDbLine
 62
250
  6
CONTINUOUS
 10
107.2652573131
 20
39.8571779932
 11
108.4001776287
 21
39.839094226
  0
LINE
  5
493
100
AcDbEntity
  8
RACCORDO
100
AcDbLine
 62
250
  6
CONTINUOUS
 10
106.4678526327
 20
39.8701744469
 11
107.2652573131
 21
39.8571779932
  0
LINE
  5
494
100
AcDbEntity
  8
RACCORDO
100
AcDbLine
 62
250
  6
CONTINUOUS
 10
111.684384216
 20
39.8135566759
 11
112.5218492652
 21
39.7918310963
  0
LINE
  5
495
100
AcDbEntity
  8
0
100
AcDbLine
 62
7
  6
CONTINUOUS
 10
114.171604981
 20
-35.1549273753
 11
114.1898066956
 21
-35.1675285871
  0
LWPOLYLINE
  5
496
100
AcDbEntity
  8
0
100
AcDbPolyline
 62
7
  6
CONTINUOUS
 90
13
 70
0
 43
0.3500000006
 10
1.5000000329
 20
51.9642863617
 10
1.2142857814
 20
52.1785708466
 10
1.2142857814
 20
52.821428833
 10
1.5000000329
 20
53.2500023346
 10
2.1428571696
 20
53.2500023346
 10
2.4285715628
 20
52.821428833
 10
2.4285715628
 20
52.1785708466
 10
2.1428571696
 20
51.9642863617
 10
2.5714285469
 20
51.5357128601
 10
2.5714285469
 20
50.6785703888
 10
2.1428571696
 20
50.2500014191
 10
1.5000000329
 20
50.2500014191
 10
1.0714285848
 20
50.6785703888
  0
LINE
  5
497
100
AcDbEntity
  8
RACCORDO
100
AcDbLine
 62
250
  6
CONTINUOUS
 10
50.9980561126
 20
41.1189836723
 11
51.0006402289
 21
40.4225266384
  0
LINE
  5
498
100
AcDbEntity
  8
RACCORDO
100
AcDbLine
 62
250
  6
CONTINUOUS
 10
51.0070012299
 20
38.8749602733
 11
51.0047471505
 21
39.9340818802
  0
LINE
  5
499
100
AcDbEntity
  8
RACCORDO
100
AcDbLine
 62
250
  6
CONTINUOUS
 10
51.0067046011
 20
-34.4236349465
 11
50.9916499696
 21
-27.1519269274
  0
LINE
  5
49A
100
AcDbEntity
  8
RACCORDO
100
AcDbLine
 62
250
  6
CONTINUOUS
 10
51.0006402289
 20
40.4225266384
 11
51.0014307606
 21
39.9340891106
  0
LINE
  5
49B
100
AcDbEntity
  8
RACCORDO
100
AcDbLine
 62
250
  6
CONTINUOUS
 10
51.0085963449
 20
-36.6898678063
 11
51.0067046011
 21
-34.4236349465
  0
LINE
  5
49C
100
AcDbEntity
  8
RACCORDO
100
AcDbLine
 62
250
  6
CONTINUOUS
 10
51.0085964761
 20
36.6921354766
 11
51.0070012299
 21
38.8749602733
  0
LINE
  5
49D
100
AcDbEntity
  8
RACCORDO
100
AcDbLine
 62
250
  6
CONTINUOUS
 10
50.9896098814
 20
25.8770237529
 11
50.9896098814
 21
24.1027230177
  0
LINE
  5
49E
100
AcDbEntity
  8
RACCORDO
100
AcDbLine
 62
250
  6
CONTINUOUS
 10
51.0013539484
 20
-41.2986874865
 11
51.0013539484
 21
-39.9340380355
  0
LINE
  5
49F
100
AcDbEntity
  8
RACCORDO
100
AcDbLine
 62
250
  6
CONTINUOUS
 10
50.9916499696
 20
-27.1519269274
 11
50.9896311986
 21
-25.4550485286
  0
LINE
  5
4A0
100
AcDbEntity
  8
RACCORDO
100
AcDbLine
 62
250
  6
CONTINUOUS
 10
50.9896311986
 20
-25.4550485286
 11
50.9896098835
 21
-24.1027230241
  0
LINE
  5
4A1
100
AcDbEntity
  8
RACCORDO
100
AcDbLine
 62
250
  6
CONTINUOUS
 10
51.0067094905
 20
34.4267954276
 11
51.0085964761
 21
36.6921354766
  0
LINE
  5
4A2
100
AcDbEntity
  8
RACCORDO
100
AcDbLine
 62
250
  6
CONTINUOUS
 10
50.9896098771
 20
25.8770204999
 11
50.9967553767
 21
29.6520013787
  0
LWPOLYLINE
  5
4A3
100
AcDbEntity
  8
RACCORDO
100
AcDbPolyline
 62
250
  6
CONTINUOUS
 90
3
 70
0
 10
51.004747151
 20
-39.9340816582
 10
51.0070026752
 20
-38.8740626508
 10
51.0085963449
 20
-36.6898678063
  0
LINE
  5
4A4
100
AcDbEntity
  8
RACCORDO
100
AcDbLine
 62
250
  6
CONTINUOUS
 10
50.9967553767
 20
29.6520013787
 11
51.0067094905
 21
34.4267954276
  0
LWPOLYLINE
  5
4A5
100
AcDbEntity
  8
RACCORDO
100
AcDbPolyline
 62
250
  6
CONTINUOUS
 90
4
 70
0
 10
51.0014312601
 20
41.2986874863
 10
50.9997019202
 20
41.2752788785
 10
50.998576871
 20
41.2150026688
 10
50.9980561126
 20
41.1189836723
  0
LWPOLYLINE
  5
4A6
100
AcDbEntity
  8
RACCORDO
100
AcDbPolyline
 62
250
  6
CONTINUOUS
 90
4
 70
0
 10
-113.1240284094
 20
39.7722262789
 10
-112.8081992844
 20
39.7831215817
 10
-112.500665504
 20
39.7927629996
 10
-111.6384452693
 20
39.8143583597
  0
LWPOLYLINE
  5
4A7
100
AcDbEntity
  8
0
100
AcDbPolyline
 62
7
  6
CONTINUOUS
 90
6
 70
0
 43
0.3500000006
 10
-1.0714285848
 20
50.2500014191
 10
0.0
 20
50.2500014191
 10
0.2142857063
 20
50.4642859039
 10
0.2142857063
 20
51.5357128601
 10
-0.2142857063
 20
51.9642863617
 10
-0.6428571367
 20
51.9642863617
  0
LWPOLYLINE
  5
4A8
100
AcDbEntity
  8
0
100
AcDbPolyline
 62
7
  6
CONTINUOUS
 90
7
 70
0
 43
0.3500000006
 10
-1.9285714102
 20
50.2500014191
 10
-3.4285713015
 20
50.2500014191
 10
-1.9285714102
 20
52.3928553314
 10
-1.9285714102
 20
52.821428833
 10
-2.3571427875
 20
53.2500023346
 10
-3.0000000658
 20
53.2500023346
 10
-3.4285713015
 20
52.6071443481
  0
LWPOLYLINE
  5
4A9
100
AcDbEntity
  8
RACCORDO
100
AcDbPolyline
 62
250
  6
CONTINUOUS
 90
46
 70
0
 10
113.0000028231
 20
41.3014381028
 10
113.3062402734
 20
41.2935557256
 10
113.6175855446
 20
41.2688583256
 10
113.9330551083
 20
41.2264556144
 10
114.2553132275
 20
41.1646690108
 10
114.5793143213
 20
41.0831114364
 10
114.8928400774
 20
40.9848305013
 10
115.192810858
 20
40.871999266
 10
115.4810752116
 20
40.7451319474
 10
115.7537136463
 20
40.607293453
 10
116.0095303207
 20
40.4608738366
 10
116.2497519919
 20
40.3069433948
 10
116.4745479305
 20
40.1470555361
 10
116.6840059413
 20
39.9828229431
 10
116.8786835425
 20
39.815480617
 10
117.0595272537
 20
39.6458115762
 10
117.2267876384
 20
39.4751413314
 10
117.381152204
 20
39.3043335041
 10
117.5241041874
 20
39.1331652413
 10
117.6562852279
 20
38.9621339013
 10
117.7779132112
 20
38.7922421155
 10
117.8897031398
 20
38.6237887895
 10
117.991997242
 20
38.4575581746
 10
118.0853850537
 20
38.2939166353
 10
118.1708392803
 20
38.1323823752
 10
118.2488224178
 20
37.973209424
 10
118.3196442801
 20
37.8169273164
 10
118.38391595
 20
37.6633418146
 10
118.4420318067
 20
37.512630623
 10
118.49429311
 20
37.365179443
 10
118.5411092855
 20
37.2210400578
 10
118.5828041396
 20
37.0804575776
 10
118.6197158048
 20
36.9435998918
 10
118.6522339701
 20
36.8103598046
 10
118.6806506359
 20
36.6809197753
 10
118.705266347
 20
36.5553850974
 10
118.7264298872
 20
36.4334973643
 10
118.7443988287
 20
36.3153465809
 10
118.7594207131
 20
36.2010338978
 10
118.7717746698
 20
36.0902915032
 10
118.7816772647
 20
35.9831880204
 10
118.7893394725
 20
35.8797772815
 10
118.7949832868
 20
35.7797516547
 10
118.798792444
 20
35.6830325153
 10
118.8009334054
 20
35.5897723803
 10
118.8015748305
 20
35.4999993365
  0
LINE
  5
4AA
100
AcDbEntity
  8
RACCORDO
100
AcDbLine
 62
250
  6
CONTINUOUS
 10
112.5218492652
 20
39.7918310963
 11
113.1240284094
 21
39.7722262789
  0
LWPOLYLINE
  5
4AB
100
AcDbEntity
  8
RACCORDO
100
AcDbPolyline
 62
250
  6
CONTINUOUS
 90
46
 70
0
 10
113.1240284094
 20
39.7722262789
 10
113.3309396741
 20
39.7599485233
 10
113.5418578091
 20
39.735608532
 10
113.7562535497
 20
39.6987600077
 10
113.976326068
 20
39.6471230083
 10
114.1985544172
 20
39.5809535548
 10
114.414236316
 20
39.5041238523
 10
114.6215710464
 20
39.4167293504
 10
114.8219199762
 20
39.3182332849
 10
115.0121550618
 20
39.2129239608
 10
115.1910651302
 20
39.1026085355
 10
115.3595494517
 20
38.9870200112
 10
115.5180048948
 20
38.867924378
 10
115.6663142631
 20
38.746215332
 10
115.8043074692
 20
38.6225478827
 10
115.9327487838
 20
38.4981270742
 10
116.0520676487
 20
38.3736009442
 10
116.162625963
 20
38.2492269681
 10
116.2651738747
 20
38.1255271031
 10
116.3603226746
 20
38.0023280762
 10
116.4482038692
 20
37.8800075402
 10
116.5289207022
 20
37.7599141026
 10
116.6031774171
 20
37.6417150026
 10
116.6715153101
 20
37.524777918
 10
116.733926101
 20
37.4101369358
 10
116.7907669602
 20
37.2982283174
 10
116.8426579923
 20
37.1885007342
 10
116.8899252434
 20
37.0808339021
 10
116.9324629832
 20
36.976025647
 10
116.9705277819
 20
36.874421803
 10
117.0049280462
 20
36.7751048454
 10
117.0356674143
 20
36.6783873034
 10
117.0627530663
 20
36.5848713642
 10
117.0869446486
 20
36.4937812933
 10
117.1083474595
 20
36.4052125567
 10
117.1269205594
 20
36.319569555
 10
117.1431551452
 20
36.2363958645
 10
117.1572094718
 20
36.1558014573
 10
117.169119482
 20
36.0780025155
 10
117.179158228
 20
36.0026342294
 10
117.1874678628
 20
35.9297856988
 10
117.1941699507
 20
35.8595987617
 10
117.1994572092
 20
35.7917435453
 10
117.2034528346
 20
35.7261510014
 10
117.2062309097
 20
35.6630201479
 10
117.2079026369
 20
35.6024103055
  0
LINE
  5
4AC
100
AcDbEntity
  8
RACCORDO
100
AcDbLine
 62
7
  6
CONTINUOUS
 10
59.3041107013
 20
22.4
 11
59.3023651948
 21
22.5
  0
LINE
  5
4AD
100
AcDbEntity
  8
RACCORDO
100
AcDbLine
 62
7
  6
CONTINUOUS
 10
59.3023651948
 20
-22.5
 11
59.3041107013
 21
-22.4
  0
LINE
  5
4AE
100
AcDbEntity
  8
0
100
AcDbLine
 62
7
  6
CONTINUOUS
 10
112.4795953518
 20
34.9795953518
 11
112.4802765158
 21
34.9802765158
  0
LINE
  5
4AF
100
AcDbEntity
  8
0
100
AcDbLine
 62
7
  6
CONTINUOUS
 10
113.5197234842
 20
36.0197234842
 11
113.5204046482
 21
36.0204046482
  0
LINE
  5
4B0
100
AcDbEntity
  8
0
100
AcDbLine
 62
7
  6
CONTINUOUS
 10
112.3727024907
 20
34.8727024837
 11
112.4
 21
34.8999999936
  0
LINE
  5
4B1
100
AcDbEntity
  8
0
100
AcDbLine
 62
7
  6
CONTINUOUS
 10
113.6
 20
36.1000000064
 11
113.6272975093
 21
36.1272975163
  0
LINE
  5
4B2
100
AcDbEntity
  8
0
100
AcDbLine
 62
7
  6
CONTINUOUS
 10
-111.3280087498
 20
35.2718605073
 11
-111.5947969261
 21
35.213691787
  0
LINE
  5
4B3
100
AcDbEntity
  8
0
100
AcDbLine
 62
7
  6
CONTINUOUS
 10
-114.6719912503
 20
35.7281394921
 11
-114.4052030751
 21
35.7863082122
  0
LINE
  5
4B4
100
AcDbEntity
  8
0
100
AcDbLine
 62
7
  6
CONTINUOUS
 10
-111.5947969261
 20
35.213691787
 11
-111.809952252
 21
35.1676955411
  0
LINE
  5
4B5
100
AcDbEntity
  8
0
100
AcDbLine
 62
7
  6
CONTINUOUS
 10
-114.4052030751
 20
35.7863082122
 11
-114.1900477491
 21
35.8323044581
  0
LINE
  5
4B6
100
AcDbEntity
  8
0
100
AcDbLine
 62
7
  6
CONTINUOUS
 10
111.4880987039
 20
35.2369418223
 11
111.8101933044
 21
35.1675285871
  0
LINE
  5
4B7
100
AcDbEntity
  8
0
100
AcDbLine
 62
7
  6
CONTINUOUS
 10
114.1898066956
 20
35.8324714129
 11
114.5118997808
 21
35.7630585081
  0
LINE
  5
4B8
100
AcDbEntity
  8
0
100
AcDbLine
 62
7
  6
CONTINUOUS
 10
111.3279822641
 20
35.2720547004
 11
111.4880987039
 21
35.2369418223
  0
LINE
  5
4B9
100
AcDbEntity
  8
0
100
AcDbLine
 62
7
  6
CONTINUOUS
 10
114.5118997808
 20
35.7630585081
 11
114.6720177359
 21
35.7279452996
  0
LINE
  5
4BA
100
AcDbEntity
  8
0
100
AcDbLine
 62
7
  6
CONTINUOUS
 10
113.6
 20
-36.0999998582
 11
113.6272974066
 21
-36.1272972341
  0
LINE
  5
4BB
100
AcDbEntity
  8
0
100
AcDbLine
 62
7
  6
CONTINUOUS
 10
112.4
 20
-34.9000001418
 11
112.3727025934
 21
-34.8727027659
  0
LINE
  5
4BC
100
AcDbEntity
  8
0
100
AcDbLine
 62
7
  6
CONTINUOUS
 10
112.4802765158
 20
-34.9802765158
 11
112.4795953518
 21
-34.9795953519
  0
LINE
  5
4BD
100
AcDbEntity
  8
0
100
AcDbLine
 62
7
  6
CONTINUOUS
 10
113.5197234842
 20
-36.0197234842
 11
113.5204046482
 21
-36.0204046481
  0
LINE
  5
4BE
100
AcDbEntity
  8
RACCORDO
100
AcDbLine
 62
7
  6
CONTINUOUS
 10
65.1958892987
 20
-22.4
 11
65.1976348052
 21
-22.5
  0
LINE
  5
4BF
100
AcDbEntity
  8
RACCORDO
100
AcDbLine
 62
7
  6
CONTINUOUS
 10
65.1976348052
 20
22.5
 11
65.1958892987
 21
22.4
  0
LINE
  5
4C0
100
AcDbEntity
  8
0
100
AcDbLine
 62
7
  6
CONTINUOUS
 10
97.199076
 20
-29.399985
 11
96.617822
 21
-28.278635
  0
LINE
  5
4C1
100
AcDbEntity
  8
0
100
AcDbLine
 62
7
  6
CONTINUOUS
 10
97.2349767907
 20
-28.2088806669
 11
97.852381
 21
-29.399978
  0
LINE
  5
4C2
100
AcDbEntity
  8
0
100
AcDbLine
 62
7
  6
CONTINUOUS
 10
86.421132
 20
-29.4
 11
85.49
 21
-26.499862
  0
LINE
  5
4C3
100
AcDbEntity
  8
0
100
AcDbLine
 62
7
  6
CONTINUOUS
 10
86.070029
 20
-26.499862
 11
86.711161
 21
-28.496759
  0
LINE
  5
4C4
100
AcDbEntity
  8
RACCORDO
100
AcDbLine
 62
7
  6
CONTINUOUS
 10
81.8041107013
 20
22.4
 11
81.8023651948
 21
22.5
  0
LINE
  5
4C5
100
AcDbEntity
  8
RACCORDO
100
AcDbLine
 62
7
  6
CONTINUOUS
 10
81.8023651948
 20
-22.5
 11
81.8041107013
 21
-22.4
  0
LINE
  5
4C6
100
AcDbEntity
  8
0
100
AcDbLine
 62
7
  6
CONTINUOUS
 10
112.5000533558
 20
36.0621338622
 11
112.4795953518
 21
36.0204046481
  0
LINE
  5
4C7
100
AcDbEntity
  8
0
100
AcDbLine
 62
7
  6
CONTINUOUS
 10
112.3727025934
 20
36.1272972341
 11
112.4
 21
36.1818871521
  0
LINE
  5
4C8
100
AcDbEntity
  8
0
100
AcDbLine
 62
7
  6
CONTINUOUS
 10
111.8283951111
 20
-35.1549273261
 11
111.9759195551
 21
-35.076590623
  0
LINE
  5
4C9
100
AcDbEntity
  8
0
100
AcDbLine
 62
7
  6
CONTINUOUS
 10
114.0733412138
 20
-35.8973855597
 11
113.9506085972
 21
-35.9619947998
  0
LINE
  5
4CA
100
AcDbEntity
  8
0
100
AcDbLine
 62
7
  6
CONTINUOUS
 10
111.9759195551
 20
-35.076590623
 11
112.0738016863
 21
-35.025263872
  0
LINE
  5
4CB
100
AcDbEntity
  8
0
100
AcDbLine
 62
7
  6
CONTINUOUS
 10
112.0738016863
 20
-35.025263872
 11
112.147788788
 21
-34.98686137
  0
LINE
  5
4CC
100
AcDbEntity
  8
0
100
AcDbLine
 62
7
  6
CONTINUOUS
 10
113.9506085972
 20
-35.9619947998
 11
113.852211212
 21
-36.01313863
  0
LWPOLYLINE
  5
4CD
100
AcDbEntity
  8
0
100
AcDbPolyline
 62
7
  6
CONTINUOUS
 90
4
 70
0
 10
112.147788788
 20
-34.98686137
 10
112.2252366272
 20
-34.9470718005
 10
112.252396052
 20
-34.9333229244
 10
112.3100891716
 20
-34.9038025697
  0
LWPOLYLINE
  5
4CE
100
AcDbEntity
  8
0
100
AcDbPolyline
 62
7
  6
CONTINUOUS
 90
4
 70
0
 10
113.852211212
 20
-36.01313863
 10
113.7747633728
 20
-36.0529281995
 10
113.747603948
 20
-36.0666770755
 10
113.6899108284
 20
-36.0961974303
  0
LWPOLYLINE
  5
4CF
100
AcDbEntity
  8
0
100
AcDbPolyline
 62
7
  6
CONTINUOUS
 90
3
 70
0
 10
112.3100891716
 20
-34.9038025697
 10
112.3407625029
 20
-34.8883464759
 10
112.3727025934
 20
-34.8727027659
  0
LWPOLYLINE
  5
4D0
100
AcDbEntity
  8
0
100
AcDbPolyline
 62
7
  6
CONTINUOUS
 90
3
 70
0
 10
113.6899108284
 20
-36.0961974303
 10
113.6592374971
 20
-36.1116535241
 10
113.6272974066
 20
-36.1272972341
  0
LINE
  5
4D1
100
AcDbEntity
  8
0
100
AcDbLine
 62
7
  6
CONTINUOUS
 10
112.4795953518
 20
-34.9795953519
 11
112.4378660057
 21
-35.0000535044
  0
LINE
  5
4D2
100
AcDbEntity
  8
0
100
AcDbLine
 62
7
  6
CONTINUOUS
 10
113.5204046482
 20
-36.0204046481
 11
113.5621339943
 21
-35.9999464956
  0
LINE
  5
4D3
100
AcDbEntity
  8
TRASH
100
AcDbLine
 62
7
  6
CONTINUOUS
 10
111.8550027299
 20
-35.2718517819
 11
111.877893713
 21
-35.2611776274
  0
LINE
  5
4D4
100
AcDbEntity
  8
TRASH
100
AcDbLine
 62
7
  6
CONTINUOUS
 10
114.122106287
 20
-35.7388223726
 11
114.1449972701
 21
-35.7281482181
  0
LINE
  5
4D5
100
AcDbEntity
  8
0
100
AcDbLine
 62
7
  6
CONTINUOUS
 10
112.4378660057
 20
-35.0000535044
 11
112.4802732178
 21
-34.980282565
  0
LINE
  5
4D6
100
AcDbEntity
  8
0
100
AcDbLine
 62
7
  6
CONTINUOUS
 10
113.5621339943
 20
-35.9999464956
 11
113.5197267822
 21
-36.019717435
  0
LINE
  5
4D7
100
AcDbEntity
  8
0
100
AcDbLine
 62
7
  6
CONTINUOUS
 10
111.8778971865
 20
-35.2611739822
 11
112.4
 21
-35.017710713
  0
LINE
  5
4D8
100
AcDbEntity
  8
0
100
AcDbLine
 62
7
  6
CONTINUOUS
 10
114.1221028135
 20
-35.7388260178
 11
113.6
 21
-35.982289287
  0
LINE
  5
4D9
100
AcDbEntity
  8
TRASH
100
AcDbLine
 62
7
  6
CONTINUOUS
 10
111.8778937063
 20
35.2611776175
 11
111.8550027231
 21
35.2718517719
  0
LINE
  5
4DA
100
AcDbEntity
  8
0
100
AcDbLine
 62
7
  6
CONTINUOUS
 10
112.4802765161
 20
34.9802765161
 11
112.4378664697
 21
35.0000529828
  0
LINE
  5
4DB
100
AcDbEntity
  8
TRASH
100
AcDbLine
 62
7
  6
CONTINUOUS
 10
114.1221062937
 20
35.7388223825
 11
114.1449972769
 21
35.7281482281
  0
LINE
  5
4DC
100
AcDbEntity
  8
0
100
AcDbLine
 62
7
  6
CONTINUOUS
 10
113.5197234839
 20
36.0197234839
 11
113.5621335303
 21
35.9999470172
  0
LINE
  5
4DD
100
AcDbEntity
  8
0
100
AcDbLine
 62
7
  6
CONTINUOUS
 10
112.4
 20
35.0177101929
 11
111.8778933466
 21
35.261175259
  0
LINE
  5
4DE
100
AcDbEntity
  8
0
100
AcDbLine
 62
7
  6
CONTINUOUS
 10
113.6
 20
35.9822898071
 11
114.1221066534
 21
35.738824741
  0
LWPOLYLINE
  5
4DF
100
AcDbEntity
  8
0
100
AcDbPolyline
 62
7
  6
CONTINUOUS
 90
4
 70
0
 10
112.3727024907
 20
34.8727024837
 10
112.3408441935
 20
34.888308174
 10
112.3102445392
 20
34.9037267397
 10
112.2808405336
 20
34.9187978272
  0
LWPOLYLINE
  5
4E0
100
AcDbEntity
  8
0
100
AcDbPolyline
 62
7
  6
CONTINUOUS
 90
4
 70
0
 10
113.6272975093
 20
36.1272975163
 10
113.6591558065
 20
36.111691826
 10
113.6897554608
 20
36.0962732603
 10
113.7191594664
 20
36.0812021728
  0
LINE
  5
4E1
100
AcDbEntity
  8
0
100
AcDbLine
 62
7
  6
CONTINUOUS
 10
112.4378664697
 20
35.0000529828
 11
112.4795953518
 21
34.9795953518
  0
LINE
  5
4E2
100
AcDbEntity
  8
0
100
AcDbLine
 62
7
  6
CONTINUOUS
 10
113.5621335303
 20
35.9999470172
 11
113.5204046482
 21
36.0204046482
  0
LINE
  5
4E3
100
AcDbEntity
  8
0
100
AcDbLine
 62
7
  6
CONTINUOUS
 10
112.2808405336
 20
34.9187978272
 11
112.1991463063
 21
34.9604183046
  0
LINE
  5
4E4
100
AcDbEntity
  8
0
100
AcDbLine
 62
7
  6
CONTINUOUS
 10
113.7191594664
 20
36.0812021728
 11
113.8008536937
 21
36.0395816954
  0
LINE
  5
4E5
100
AcDbEntity
  8
0
100
AcDbLine
 62
7
  6
CONTINUOUS
 10
112.1991463063
 20
34.9604183046
 11
112.1233223684
 21
34.9995101966
  0
LINE
  5
4E6
100
AcDbEntity
  8
0
100
AcDbLine
 62
7
  6
CONTINUOUS
 10
113.8008536937
 20
36.0395816954
 11
113.8766776316
 21
36.0004898034
  0
LINE
  5
4E7
100
AcDbEntity
  8
0
100
AcDbLine
 62
7
  6
CONTINUOUS
 10
112.1233223684
 20
34.9995101966
 11
112.0004861321
 21
35.0636477767
  0
LINE
  5
4E8
100
AcDbEntity
  8
0
100
AcDbLine
 62
7
  6
CONTINUOUS
 10
113.8766776316
 20
36.0004898034
 11
113.9995138679
 21
35.9363522233
  0
LINE
  5
4E9
100
AcDbEntity
  8
0
100
AcDbLine
 62
7
  6
CONTINUOUS
 10
113.9995138679
 20
35.9363522233
 11
114.0734134861
 21
35.8973472703
  0
LWPOLYLINE
  5
4EA
100
AcDbEntity
  8
0
100
AcDbPolyline
 62
7
  6
CONTINUOUS
 90
4
 70
0
 10
112.0004861321
 20
35.0636477767
 10
111.9019622533
 20
35.1157284872
 10
111.8774107956
 20
35.1288224602
 10
111.828395019
 20
35.1549273753
  0
LINE
  5
4EB
100
AcDbEntity
  8
0
100
AcDbLine
 62
7
  6
CONTINUOUS
 10
112.4
 20
-36.1818880101
 11
112.3727024907
 21
-36.1272975163
  0
LINE
  5
4EC
100
AcDbEntity
  8
0
100
AcDbLine
 62
7
  6
CONTINUOUS
 10
112.4795953518
 20
-36.0204046482
 11
112.5000529891
 21
-36.062133536
  0
LINE
  5
4ED
100
AcDbEntity
  8
0
100
AcDbLine
 62
7
  6
CONTINUOUS
 10
94.204754
 20
-28.278635
 11
93.92365
 21
-27.403096
  0
LINE
  5
4EE
100
AcDbEntity
  8
0
100
AcDbLine
 62
7
  6
CONTINUOUS
 10
94.564789
 20
-29.399985
 11
94.381683
 21
-28.829657
  0
LINE
  5
4EF
100
AcDbEntity
  8
0
100
AcDbLine
 62
7
  6
CONTINUOUS
 10
94.213679
 20
-26.499855
 11
95.144818
 21
-29.399993
  0
LINE
  5
4F0
100
AcDbEntity
  8
0
100
AcDbLine
 62
7
  6
CONTINUOUS
 10
90.607413
 20
-29.399993
 11
90.059037
 21
-27.487551
  0
LINE
  5
4F1
100
AcDbEntity
  8
0
100
AcDbLine
 62
7
  6
CONTINUOUS
 10
90.355852
 20
-26.499862
 11
90.89742
 21
-28.388531
  0
LINE
  5
4F2
100
AcDbEntity
  8
RACCORDO
100
AcDbLine
 62
7
  6
CONTINUOUS
 10
87.6958892987
 20
-22.4
 11
87.6976348052
 21
-22.5
  0
LINE
  5
4F3
100
AcDbEntity
  8
0
100
AcDbLine
 62
7
  6
CONTINUOUS
 10
88.318986
 20
-29.4
 11
88.318994
 21
-26.499862
  0
LINE
  5
4F4
100
AcDbEntity
  8
0
100
AcDbLine
 62
7
  6
CONTINUOUS
 10
88.899015
 20
-26.499862
 11
88.899008
 21
-29.399993
  0
LINE
  5
4F5
100
AcDbEntity
  8
0
100
AcDbLine
 62
7
  6
CONTINUOUS
 10
89.479015
 20
-29.399993
 11
89.479015
 21
-26.499862
  0
LINE
  5
4F6
100
AcDbEntity
  8
0
100
AcDbLine
 62
7
  6
CONTINUOUS
 10
90.059037
 20
-27.487551
 11
90.059037
 21
-29.399993
  0
LINE
  5
4F7
100
AcDbEntity
  8
0
100
AcDbLine
 62
7
  6
CONTINUOUS
 10
91.735803
 20
-29.399993
 11
91.735795
 21
-27.487551
  0
LINE
  5
4F8
100
AcDbEntity
  8
0
100
AcDbLine
 62
7
  6
CONTINUOUS
 10
92.315824
 20
-26.499862
 11
92.315824
 21
-29.399993
  0
LINE
  5
4F9
100
AcDbEntity
  8
RACCORDO
100
AcDbLine
 62
7
  6
CONTINUOUS
 10
87.6976348052
 20
22.5
 11
87.6958892987
 21
22.4
  0
LINE
  5
4FA
100
AcDbEntity
  8
0
100
AcDbLine
 62
7
  6
CONTINUOUS
 10
86.711161
 20
-28.496759
 11
87.352286
 21
-26.499862
  0
LINE
  5
4FB
100
AcDbEntity
  8
0
100
AcDbLine
 62
7
  6
CONTINUOUS
 10
87.932315
 20
-26.499862
 11
87.001176
 21
-29.399993
  0
LINE
  5
4FC
100
AcDbEntity
  8
0
100
AcDbLine
 62
7
  6
CONTINUOUS
 10
111.8402717707
 20
35.2369554872
 11
111.8550027231
 21
35.2718517719
  0
LINE
  5
4FD
100
AcDbEntity
  8
0
100
AcDbLine
 62
7
  6
CONTINUOUS
 10
114.1597282293
 20
35.7630445128
 11
114.1449972769
 21
35.7281482281
  0
LINE
  5
4FE
100
AcDbEntity
  8
0
100
AcDbLine
 62
7
  6
CONTINUOUS
 10
111.8253352978
 20
35.2021810922
 11
111.8402717707
 21
35.2369554872
  0
LINE
  5
4FF
100
AcDbEntity
  8
0
100
AcDbLine
 62
7
  6
CONTINUOUS
 10
114.1746647022
 20
35.7978189078
 11
114.1597282293
 21
35.7630445128
  0
LINE
  5
500
100
AcDbEntity
  8
0
100
AcDbLine
 62
7
  6
CONTINUOUS
 10
111.8101933044
 20
35.1675285871
 11
111.8253352978
 21
35.2021810922
  0
LINE
  5
501
100
AcDbEntity
  8
0
100
AcDbLine
 62
7
  6
CONTINUOUS
 10
114.1898066956
 20
35.8324714129
 11
114.1746647022
 21
35.7978189078
  0
LINE
  5
502
100
AcDbEntity
  8
0
100
AcDbLine
 62
7
  6
CONTINUOUS
 10
111.828395019
 20
35.1549273753
 11
111.8778937063
 21
35.2611776175
  0
LINE
  5
503
100
AcDbEntity
  8
0
100
AcDbLine
 62
7
  6
CONTINUOUS
 10
114.171604981
 20
35.8450726247
 11
114.1221062937
 21
35.7388223825
  0
LINE
  5
504
100
AcDbEntity
  8
0
100
AcDbLine
 62
7
  6
CONTINUOUS
 10
112.480282565
 20
36.0197267822
 11
112.5000533558
 21
36.0621338622
  0
LINE
  5
505
100
AcDbEntity
  8
0
100
AcDbLine
 62
7
  6
CONTINUOUS
 10
113.519717435
 20
34.9802732178
 11
113.4999466442
 21
34.9378661378
  0
LINE
  5
506
100
AcDbEntity
  8
0
100
AcDbLine
 62
7
  6
CONTINUOUS
 10
113.4999466442
 20
34.9378661378
 11
113.5204046482
 21
34.9795953519
  0
LINE
  5
507
100
AcDbEntity
  8
0
100
AcDbLine
 62
7
  6
CONTINUOUS
 10
113.6272974066
 20
34.8727027659
 11
113.6
 21
34.8181128479
  0
LINE
  5
508
100
AcDbEntity
  8
0
100
AcDbLine
 62
7
  6
CONTINUOUS
 10
111.8099522509
 20
-35.1676955419
 11
111.8283951111
 21
-35.1549273261
  0
LINE
  5
509
100
AcDbEntity
  8
0
100
AcDbLine
 62
7
  6
CONTINUOUS
 10
114.1716048889
 20
-35.8450726739
 11
114.0733412138
 21
-35.8973855597
  0
LWPOLYLINE
  5
50A
100
AcDbEntity
  8
0
100
AcDbPolyline
 62
7
  6
CONTINUOUS
 90
3
 70
0
 10
114.0734134861
 20
35.8973472703
 10
114.1225892044
 20
35.8711775398
 10
114.171604981
 20
35.8450726247
  0
LINE
  5
50B
100
AcDbEntity
  8
0
100
AcDbLine
 62
7
  6
CONTINUOUS
 10
111.8101933044
 20
35.1675285871
 11
111.828395019
 21
35.1549273753
  0
LINE
  5
50C
100
AcDbEntity
  8
0
100
AcDbLine
 62
7
  6
CONTINUOUS
 10
113.6
 20
-34.8181119898
 11
113.6272975093
 21
-34.8727024837
  0
LINE
  5
50D
100
AcDbEntity
  8
0
100
AcDbLine
 62
7
  6
CONTINUOUS
 10
113.5204046482
 20
-34.9795953518
 11
113.4999470109
 21
-34.937866464
  0
LINE
  5
50E
100
AcDbEntity
  8
0
100
AcDbLine
 62
7
  6
CONTINUOUS
 10
112.5000529891
 20
-36.062133536
 11
112.4802765161
 21
-36.0197234839
  0
LINE
  5
50F
100
AcDbEntity
  8
0
100
AcDbLine
 62
7
  6
CONTINUOUS
 10
113.4999470109
 20
-34.937866464
 11
113.5197234839
 21
-34.9802765161
  0
LINE
  5
510
100
AcDbEntity
  8
0
100
AcDbLine
 62
7
  6
CONTINUOUS
 10
111.877893713
 20
-35.2611776274
 11
111.8283951111
 21
-35.1549273261
  0
LINE
  5
511
100
AcDbEntity
  8
0
100
AcDbLine
 62
7
  6
CONTINUOUS
 10
114.122106287
 20
-35.7388223726
 11
114.1716048889
 21
-35.8450726739
  0
LINE
  5
512
100
AcDbEntity
  8
0
100
AcDbLine
 62
7
  6
CONTINUOUS
 10
111.8550027299
 20
-35.2718517819
 11
111.8099522509
 21
-35.1676955419
  0
LINE
  5
513
100
AcDbEntity
  8
0
100
AcDbLine
 62
7
  6
CONTINUOUS
 10
114.1449972701
 20
-35.7281482181
 11
114.190047748
 21
-35.8323044589
  0
LWPOLYLINE
  5
514
100
AcDbEntity
  8
RACCORDO
100
AcDbPolyline
 62
250
  6
CONTINUOUS
 90
22
 70
0
 10
99.3879616569
 20
22.1990749496
 10
99.3695751494
 20
22.4897193894
 10
99.338176129
 20
22.7730863422
 10
99.2906054393
 20
23.0481108842
 10
99.2210300866
 20
23.3156168681
 10
99.1281285921
 20
23.5725805373
 10
99.0187131217
 20
23.81343856
 10
98.9015205392
 20
24.0354974621
 10
98.7734857936
 20
24.243448569
 10
98.6273195415
 20
24.443422292
 10
98.4652419088
 20
24.6367029626
 10
98.2902995648
 20
24.8225284711
 10
98.0929652431
 20
25.0018820804
 10
97.8692760536
 20
25.1758406819
 10
97.6249582214
 20
25.3395455058
 10
97.3641214911
 20
25.4839480228
 10
97.0875653903
 20
25.6076504384
 10
96.8015086947
 20
25.7105791469
 10
96.5174262673
 20
25.787665703
 10
96.2395275528
 20
25.8394124392
 10
95.9653016803
 20
25.8700280754
 10
95.6944817967
 20
25.8811687826
  0
LWPOLYLINE
  5
515
100
AcDbEntity
  8
RACCORDO
100
AcDbPolyline
 62
250
  6
CONTINUOUS
 90
22
 70
0
 10
97.6021819848
 20
22.2
 10
97.5963202194
 20
22.349166907
 10
97.5791415762
 20
22.4951460739
 10
97.5512763556
 20
22.6371287477
 10
97.5132186827
 20
22.7749504331
 10
97.4657762199
 20
22.9073944642
 10
97.4104653614
 20
23.0323388327
 10
97.3496264314
 20
23.1473159513
 10
97.2833325084
 20
23.2545106581
 10
97.2090286239
 20
23.3584760625
 10
97.1263672316
 20
23.4589929921
 10
97.0357870932
 20
23.5548624483
 10
96.9344107547
 20
23.6479565214
 10
96.8196986073
 20
23.7384979253
 10
96.6934752596
 20
23.8229715332
 10
96.5596060772
 20
23.8977406543
 10
96.4183979847
 20
23.9621671692
 10
96.2710177063
 20
24.0152789988
 10
96.1237859641
 20
24.0551377186
 10
95.9797552099
 20
24.0821666681
 10
95.8381921702
 20
24.0976992009
 10
95.7
 20
24.1025681183
  0
LWPOLYLINE
  5
516
100
AcDbEntity
  8
RACCORDO
100
AcDbPolyline
 62
250
  6
CONTINUOUS
 90
10
 70
0
 10
99.3939944741
 20
17.6113665955
 10
99.389128646
 20
18.6586547676
 10
99.389787055
 20
19.1559971435
 10
99.3889428433
 20
19.6376270533
 10
99.3850525456
 20
20.1031619482
 10
99.3832084971
 20
20.5530850863
 10
99.387503348
 20
20.9895621459
 10
99.3960277292
 20
21.4119480002
 10
99.398613916
 20
21.8160596252
 10
99.3879616569
 20
22.1990749496
  0
LINE
  5
517
100
AcDbEntity
  8
RACCORDO
100
AcDbLine
 62
250
  6
CONTINUOUS
 10
95.6944818247
 20
25.8811689291
 11
95.7
 21
24.1025682307
  0
LINE
  5
518
100
AcDbEntity
  8
RACCORDO
100
AcDbLine
 62
250
  6
CONTINUOUS
 10
99.3892514185
 20
-18.6700289389
 11
99.3890308207
 21
-18.2540429999
  0
LWPOLYLINE
  5
519
100
AcDbEntity
  8
RACCORDO
100
AcDbPolyline
 62
250
  6
CONTINUOUS
 90
4
 70
0
 10
99.3933883791
 20
15.2757339472
 10
99.3927201415
 20
16.486493872
 10
99.3938897452
 20
17.0601204592
 10
99.3939944741
 20
17.6113665955
  0
LINE
  5
51A
100
AcDbEntity
  8
0
100
AcDbLine
 62
7
  6
CONTINUOUS
 10
95.531497
 20
-29.399985
 11
95.531497
 21
-26.499855
  0
LINE
  5
51B
100
AcDbEntity
  8
RACCORDO
100
AcDbLine
 62
250
  6
CONTINUOUS
 10
95.7
 20
24.1025681183
 11
95.7
 21
22.5
  0
LINE
  5
51C
100
AcDbEntity
  8
0
100
AcDbLine
 62
7
  6
CONTINUOUS
 10
96.0
 20
22.2
 11
96.0
 21
-22.2
  0
LINE
  5
51D
100
AcDbEntity
  8
0
100
AcDbLine
 62
7
  6
CONTINUOUS
 10
96.103522
 20
-27.036377
 11
96.103529
 21
-27.742106
  0
LINE
  5
51E
100
AcDbEntity
  8
RACCORDO
100
AcDbLine
 62
250
  6
CONTINUOUS
 10
97.6022179567
 20
-22.2
 11
97.6021819848
 21
22.2
  0
LINE
  5
51F
100
AcDbEntity
  8
0
100
AcDbLine
 62
7
  6
CONTINUOUS
 10
96.111591
 20
-28.278628
 11
96.111526
 21
-29.399985
  0
LINE
  5
520
100
AcDbEntity
  8
RACCORDO
100
AcDbLine
 62
250
  6
CONTINUOUS
 10
99.3904376066
 20
-11.1247559839
 11
99.387576212
 21
0.0001587231
  0
LINE
  5
521
100
AcDbEntity
  8
RACCORDO
100
AcDbLine
 62
250
  6
CONTINUOUS
 10
99.387575518
 20
0.0001587233
 11
99.3894836698
 21
7.0859514846
  0
LINE
  5
522
100
AcDbEntity
  8
RACCORDO
100
AcDbLine
 62
250
  6
CONTINUOUS
 10
99.390796816
 20
8.6042327603
 11
99.3918831383
 21
13.9628442347
  0
LINE
  5
523
100
AcDbEntity
  8
RACCORDO
100
AcDbLine
 62
250
  6
CONTINUOUS
 10
99.3894836698
 20
7.0859514846
 11
99.390796816
 21
8.6042327603
  0
LINE
  5
524
100
AcDbEntity
  8
RACCORDO
100
AcDbLine
 62
250
  6
CONTINUOUS
 10
99.3907720893
 20
-15.9957688058
 11
99.3904376066
 21
-11.1247559839
  0
LINE
  5
525
100
AcDbEntity
  8
RACCORDO
100
AcDbLine
 62
250
  6
CONTINUOUS
 10
99.3918831383
 20
13.9628442347
 11
99.3933883791
 21
15.2757339472
  0
LINE
  5
526
100
AcDbEntity
  8
RACCORDO
100
AcDbLine
 62
250
  6
CONTINUOUS
 10
99.3871562257
 20
-19.4679250844
 11
99.3892514185
 21
-18.6700289389
  0
LWPOLYLINE
  5
527
100
AcDbEntity
  8
RACCORDO
100
AcDbPolyline
 62
250
  6
CONTINUOUS
 90
3
 70
0
 10
99.3890308207
 20
-18.2540429999
 10
99.3913107788
 20
-17.3870435416
 10
99.3907720893
 20
-15.9957688058
  0
LWPOLYLINE
  5
528
100
AcDbEntity
  8
RACCORDO
100
AcDbPolyline
 62
250
  6
CONTINUOUS
 90
3
 70
0
 10
95.6939568497
 20
-25.8817506297
 10
95.6992800582
 20
-24.2764725548
 10
95.7
 20
-22.5
  0
LWPOLYLINE
  5
529
100
AcDbEntity
  8
RACCORDO
100
AcDbPolyline
 62
250
  6
CONTINUOUS
 90
3
 70
0
 10
99.3828316524
 20
-20.9265505573
 10
99.3868323838
 20
-20.2207525705
 10
99.3871562257
 20
-19.4679250844
  0
LWPOLYLINE
  5
52A
100
AcDbEntity
  8
RACCORDO
100
AcDbPolyline
 62
250
  6
CONTINUOUS
 90
5
 70
0
 10
99.3873166686
 20
-22.1993602702
 10
99.3934602121
 20
-21.9013811414
 10
99.3921669512
 20
-21.5890324439
 10
99.3865326276
 20
-21.2634055136
 10
99.3828316524
 20
-20.9265505573
  0
LINE
  5
52B
100
AcDbEntity
  8
0
100
AcDbLine
 62
7
  6
CONTINUOUS
 10
90.89742
 20
-28.388531
 11
91.438988
 21
-26.499862
  0
LINE
  5
52C
100
AcDbEntity
  8
0
100
AcDbLine
 62
7
  6
CONTINUOUS
 10
91.735795
 20
-27.487551
 11
91.18742
 21
-29.399985
  0
LINE
  5
52D
100
AcDbEntity
  8
0
100
AcDbLine
 62
7
  6
CONTINUOUS
 10
92.702503
 20
-29.399993
 11
93.633628
 21
-26.499855
  0
LINE
  5
52E
100
AcDbEntity
  8
0
100
AcDbLine
 62
7
  6
CONTINUOUS
 10
93.465638
 20
-28.829657
 11
93.282525
 21
-29.399985
  0
LINE
  5
52F
100
AcDbEntity
  8
0
100
AcDbLine
 62
7
  6
CONTINUOUS
 10
93.92365
 20
-27.403096
 11
93.64256
 21
-28.278635
  0
LWPOLYLINE
  5
530
100
AcDbEntity
  8
0
100
AcDbPolyline
 62
7
  6
CONTINUOUS
 90
13
 70
0
 43
0.3500000006
 10
124.5357127991
 20
-1.8214286385
 10
124.3214283142
 20
-2.1071431732
 10
123.6785748596
 20
-2.1071431732
 10
123.2499968262
 20
-1.8214286385
 10
123.2499968262
 20
-1.178571785
 10
123.6785748596
 20
-0.8928561172
 10
124.3214283142
 20
-0.8928561172
 10
124.5357127991
 20
-1.178571785
 10
124.9642817688
 20
-0.7500005493
 10
125.821428772
 20
-0.7500005493
 10
126.2499977417
 20
-1.178571785
 10
126.2499977417
 20
-1.8214286385
 10
125.821428772
 20
-2.2499998741
  0
LWPOLYLINE
  5
531
100
AcDbEntity
  8
RACCORDO
100
AcDbPolyline
 62
250
  6
CONTINUOUS
 90
13
 70
0
 10
118.8015710034
 20
-35.4999997618
 10
118.785041006
 20
-35.5118130704
 10
118.7434792041
 20
-35.5234772879
 10
118.6774101968
 20
-35.5348451868
 10
118.5876679167
 20
-35.5457732794
 10
118.4753851042
 20
-35.5561236284
 10
118.3419790093
 20
-35.565765588
 10
118.1891335034
 20
-35.574577453
 10
118.0187778248
 20
-35.5824479944
 10
117.8330622279
 20
-35.5892778635
 10
117.6343308421
 20
-35.5949808461
 10
117.4250920843
 20
-35.5994849501
 10
117.2079869967
 20
-35.6027333143
  0
LINE
  5
532
100
AcDbEntity
  8
0
100
AcDbLine
 62
7
  6
CONTINUOUS
 10
114.1716048889
 20
-35.8450726739
 11
114.190047748
 21
-35.8323044589
  0
LINE
  5
533
100
AcDbEntity
  8
0
100
AcDbLine
 62
7
  6
CONTINUOUS
 10
114.171604981
 20
35.8450726247
 11
114.1898066956
 21
35.8324714129
  0
LWPOLYLINE
  5
534
100
AcDbEntity
  8
RACCORDO
100
AcDbPolyline
 62
250
  6
CONTINUOUS
 90
13
 70
0
 10
118.8015787468
 20
35.4999993201
 10
118.7850477002
 20
35.5117768053
 10
118.7434831284
 20
35.523405581
 10
118.6774097018
 20
35.5347388299
 10
118.5876614666
 20
35.5456334652
 10
118.4753713166
 20
35.5559519372
 10
118.3419566928
 20
35.5655639689
 10
118.1891016907
 20
35.5743482011
 10
118.0187358022
 20
35.582193724
 10
117.8330095593
 20
35.5890014774
 10
117.6342673885
 20
35.5946855008
 10
117.4250180161
 20
35.5991740188
 10
117.2079028014
 20
35.602410347
  0
LWPOLYLINE
  5
535
100
AcDbEntity
  8
DRAFT
100
AcDbPolyline
 62
7
  6
CONTINUOUS
 90
34
 70
0
 10
109.5718494717
 20
35.5
 10
109.5929815108
 20
35.8699323382
 10
109.651695695
 20
36.2250836236
 10
109.7440777658
 20
36.5620620387
 10
109.8657185363
 20
36.8773619798
 10
110.0127033374
 20
37.1699103682
 10
110.1824851618
 20
37.440642976
 10
110.3716244397
 20
37.6882372463
 10
110.576960592
 20
37.9120784592
 10
110.7978007377
 20
38.1139063394
 10
111.0320622443
 20
38.2933554505
 10
111.2769511513
 20
38.4496753445
 10
111.5316533565
 20
38.5834777904
 10
111.7921113784
 20
38.6937211282
 10
112.0580791793
 20
38.7813310252
 10
112.3353678559
 20
38.8479201207
 10
112.6232331965
 20
38.8918657414
 10
112.9189491095
 20
38.9113042196
 10
113.2256870307
 20
38.9043973497
 10
113.5443269946
 20
38.8678330648
 10
113.8682754616
 20
38.7989172894
 10
114.1891181391
 20
38.697073992
 10
114.5033738602
 20
38.5617089955
 10
114.8071250563
 20
38.3927089541
 10
115.0921220228
 20
38.1936927139
 10
115.3541794646
 20
37.9678859224
 10
115.5920479629
 20
37.7167078975
 10
115.8030844737
 20
37.4430140392
 10
115.9851347625
 20
37.1497750081
 10
116.1365141085
 20
36.8399486172
 10
116.2558061448
 20
36.5167093213
 10
116.3418916486
 20
36.1833583161
 10
116.3939652839
 20
35.8433038688
 10
116.4115817633
 20
35.5
  0
LINE
  5
536
100
AcDbEntity
  8
0
100
AcDbLine
 62
7
  6
CONTINUOUS
 10
112.3727024907
 20
-36.1272975163
 11
112.4
 21
-36.1000000064
  0
LINE
  5
537
100
AcDbEntity
  8
0
100
AcDbLine
 62
7
  6
CONTINUOUS
 10
112.4795953518
 20
-36.0204046482
 11
112.4802765158
 21
-36.0197234842
  0
LINE
  5
538
100
AcDbEntity
  8
0
100
AcDbLine
 62
7
  6
CONTINUOUS
 10
113.5197234842
 20
-34.9802765158
 11
113.5204046482
 21
-34.9795953518
  0
LINE
  5
539
100
AcDbEntity
  8
0
100
AcDbLine
 62
7
  6
CONTINUOUS
 10
113.6
 20
-34.8999999936
 11
113.6272975093
 21
-34.8727024837
  0
LINE
  5
53A
100
AcDbEntity
  8
0
100
AcDbLine
 62
7
  6
CONTINUOUS
 10
112.4
 20
36.0999998582
 11
112.3727025934
 21
36.1272972341
  0
LINE
  5
53B
100
AcDbEntity
  8
0
100
AcDbLine
 62
7
  6
CONTINUOUS
 10
113.6
 20
34.9000001418
 11
113.6272974066
 21
34.8727027659
  0
LINE
  5
53C
100
AcDbEntity
  8
0
100
AcDbLine
 62
7
  6
CONTINUOUS
 10
112.4802765158
 20
36.0197234842
 11
112.4795953518
 21
36.0204046481
  0
LINE
  5
53D
100
AcDbEntity
  8
0
100
AcDbLine
 62
7
  6
CONTINUOUS
 10
113.5197234842
 20
34.9802765158
 11
113.5204046482
 21
34.9795953519
  0
LWPOLYLINE
  5
53E
100
AcDbEntity
  8
0
100
AcDbPolyline
 62
7
  6
CONTINUOUS
 90
5
 70
0
 43
0.3500000006
 10
124.5357127991
 20
0.9642866592
 10
124.3214283142
 20
1.321428978
 10
123.6785748596
 20
1.321428978
 10
123.2499968262
 20
0.9642866592
 10
123.2499968262
 20
0.107141922
  0
LWPOLYLINE
  5
53F
100
AcDbEntity
  8
RACCORDO
100
AcDbPolyline
 62
250
  6
CONTINUOUS
 90
3
 70
0
 10
117.2319439215
 20
33.5906344887
 10
117.2353912441
 20
33.4076772809
 10
117.2604263804
 20
32.4002730769
  0
LINE
  5
540
100
AcDbEntity
  8
RACCORDO
100
AcDbLine
 62
250
  6
CONTINUOUS
 10
117.2079026369
 20
35.6024103055
 11
117.2140209739
 21
35.2414666083
  0
LINE
  5
541
100
AcDbEntity
  8
RACCORDO
100
AcDbLine
 62
250
  6
CONTINUOUS
 10
117.2604263804
 20
32.4002730769
 11
117.2630443925
 21
32.1852969914
  0
LWPOLYLINE
  5
542
100
AcDbEntity
  8
RACCORDO
100
AcDbPolyline
 62
250
  6
CONTINUOUS
 90
3
 70
0
 10
117.2140209739
 20
35.2414666083
 10
117.2187062298
 20
34.8463121848
 10
117.2319439215
 20
33.5906344887
  0
LINE
  5
543
100
AcDbEntity
  8
RACCORDO
100
AcDbLine
 62
250
  6
CONTINUOUS
 10
117.274543887
 20
26.5071413774
 11
117.2796652008
 21
23.7511318001
  0
LINE
  5
544
100
AcDbEntity
  8
RACCORDO
100
AcDbLine
 62
250
  6
CONTINUOUS
 10
117.2796652008
 20
23.7511318001
 11
117.287833091
 21
14.545690754
  0
LINE
  5
545
100
AcDbEntity
  8
RACCORDO
100
AcDbLine
 62
250
  6
CONTINUOUS
 10
117.287833091
 20
14.545690754
 11
117.294556293
 21
0.4240194567
  0
LINE
  5
546
100
AcDbEntity
  8
RACCORDO
100
AcDbLine
 62
250
  6
CONTINUOUS
 10
118.7994319376
 20
-31.8492482299
 11
118.8015749741
 21
-35.4999995694
  0
LINE
  5
547
100
AcDbEntity
  8
0
100
AcDbLine
 62
7
  6
CONTINUOUS
 10
112.4
 20
-38.3321553217
 11
112.4
 21
-35.9538073666
  0
LINE
  5
548
100
AcDbEntity
  8
0
100
AcDbLine
 62
7
  6
CONTINUOUS
 10
112.4
 20
-35.0461926334
 11
112.4
 21
-32.6678446783
  0
LINE
  5
549
100
AcDbEntity
  8
0
100
AcDbLine
 62
7
  6
CONTINUOUS
 10
112.4
 20
32.6678446783
 11
112.4
 21
35.0461926334
  0
LINE
  5
54A
100
AcDbEntity
  8
0
100
AcDbLine
 62
7
  6
CONTINUOUS
 10
112.4
 20
35.9538073666
 11
112.4
 21
38.3321553217
  0
LINE
  5
54B
100
AcDbEntity
  8
RACCORDO
100
AcDbLine
 62
250
  6
CONTINUOUS
 10
113.0000002059
 20
-41.3014364564
 11
113.0000000088
 21
-41.5000003491
  0
LINE
  5
54C
100
AcDbEntity
  8
RACCORDO
100
AcDbLine
 62
250
  6
CONTINUOUS
 10
113.0000028231
 20
41.3014375389
 11
113.0000001209
 21
41.5000003491
  0
LINE
  5
54D
100
AcDbEntity
  8
0
100
AcDbLine
 62
7
  6
CONTINUOUS
 10
113.6
 20
38.3321553217
 11
113.6
 21
35.9538073666
  0
LINE
  5
54E
100
AcDbEntity
  8
0
100
AcDbLine
 62
7
  6
CONTINUOUS
 10
113.6
 20
35.0461926334
 11
113.6
 21
32.6678446783
  0
LINE
  5
54F
100
AcDbEntity
  8
0
100
AcDbLine
 62
7
  6
CONTINUOUS
 10
113.6
 20
-32.6678446783
 11
113.6
 21
-35.0461926334
  0
LINE
  5
550
100
AcDbEntity
  8
0
100
AcDbLine
 62
7
  6
CONTINUOUS
 10
113.6
 20
-35.9538073666
 11
113.6
 21
-38.3321553217
  0
LINE
  5
551
100
AcDbEntity
  8
RACCORDO
100
AcDbLine
 62
250
  6
CONTINUOUS
 10
118.7988753084
 20
-21.7026200565
 11
118.7994319376
 21
-31.8492482299
  0
LINE
  5
552
100
AcDbEntity
  8
DRAFT
100
AcDbLine
 62
7
  6
CONTINUOUS
 10
119.0
 20
35.5
 11
119.0
 21
-35.5
  0
LINE
  5
553
100
AcDbEntity
  8
SUPERFICI
100
AcDbLine
 62
7
  6
CONTINUOUS
 10
119.0000003491
 20
35.5000000145
 11
119.0000003491
 21
-35.5000000243
  0
LWPOLYLINE
  5
554
100
AcDbEntity
  8
0
100
AcDbPolyline
 62
7
  6
CONTINUOUS
 90
6
 70
0
 43
0.3500000006
 10
126.2499977417
 20
0.107141922
 10
126.2499977417
 20
1.1785711441
 10
126.0357132568
 20
1.3928578949
 10
124.9642817688
 20
1.3928578949
 10
124.5357127991
 20
0.9642866592
 10
124.5357127991
 20
0.5357131577
  0
LINE
  5
555
100
AcDbEntity
  8
RACCORDO
100
AcDbLine
 62
250
  6
CONTINUOUS
 10
117.294556293
 20
0.4240194567
 11
117.2935730806
 21
-3.0412053723
  0
LINE
  5
556
100
AcDbEntity
  8
RACCORDO
100
AcDbLine
 62
250
  6
CONTINUOUS
 10
117.2622767249
 20
-30.2172892808
 11
117.2640054281
 21
-31.86655807
  0
LINE
  5
557
100
AcDbEntity
  8
RACCORDO
100
AcDbLine
 62
250
  6
CONTINUOUS
 10
117.2935730806
 20
-3.0412053723
 11
117.2852393703
 21
-16.5586584772
  0
LINE
  5
558
100
AcDbEntity
  8
RACCORDO
100
AcDbLine
 62
250
  6
CONTINUOUS
 10
118.8015787468
 20
35.4999993365
 11
118.7988753084
 21
-21.7026200565
  0
LINE
  5
559
100
AcDbEntity
  8
RACCORDO
100
AcDbLine
 62
250
  6
CONTINUOUS
 10
117.2852393703
 20
-16.5586584772
 11
117.2792041331
 21
-23.0808483493
  0
LINE
  5
55A
100
AcDbEntity
  8
RACCORDO
100
AcDbLine
 62
250
  6
CONTINUOUS
 10
117.2630443925
 20
32.1852969914
 11
117.274543887
 21
26.5071413774
  0
LINE
  5
55B
100
AcDbEntity
  8
RACCORDO
100
AcDbLine
 62
250
  6
CONTINUOUS
 10
117.2792041331
 20
-23.0808483493
 11
117.2750466082
 21
-25.7819700658
  0
LINE
  5
55C
100
AcDbEntity
  8
RACCORDO
100
AcDbLine
 62
250
  6
CONTINUOUS
 10
117.2750466082
 20
-25.7819700658
 11
117.2670205704
 21
-28.5004437731
  0
LINE
  5
55D
100
AcDbEntity
  8
RACCORDO
100
AcDbLine
 62
250
  6
CONTINUOUS
 10
117.2670205704
 20
-28.5004437731
 11
117.2622767249
 21
-30.2172892808
  0
LINE
  5
55E
100
AcDbEntity
  8
RACCORDO
100
AcDbLine
 62
250
  6
CONTINUOUS
 10
117.2640054281
 20
-31.86655807
 11
117.2626314519
 21
-32.1126610829
  0
LWPOLYLINE
  5
55F
100
AcDbEntity
  8
RACCORDO
100
AcDbPolyline
 62
250
  6
CONTINUOUS
 90
46
 70
0
 10
118.8015710578
 20
-35.4999995694
 10
118.8009475943
 20
-35.5885692019
 10
118.7988648
 20
-35.6805715392
 10
118.7951588974
 20
-35.775979627
 10
118.7896674058
 20
-35.8746571916
 10
118.7822122804
 20
-35.9766695954
 10
118.7725818272
 20
-36.0822819603
 10
118.7605738557
 20
-36.1914386191
 10
118.7459799905
 20
-36.3040784379
 10
118.7285356976
 20
-36.4204419635
 10
118.7080047779
 20
-36.5404325212
 10
118.6841413541
 20
-36.6639656171
 10
118.6566167944
 20
-36.7912759476
 10
118.625144674
 20
-36.9222691849
 10
118.5894486656
 20
-37.0567686668
 10
118.5491676233
 20
-37.1948533356
 10
118.503982921
 20
-37.3363666251
 10
118.4535894139
 20
-37.4810793423
 10
118.3976114425
 20
-37.6289229799
 10
118.335764091
 20
-37.7795430688
 10
118.2676803211
 20
-37.9327718294
 10
118.1928089735
 20
-38.0887629368
 10
118.1108836644
 20
-38.2469870544
 10
118.02145638
 20
-38.407256576
 10
117.9235764107
 20
-38.5701217195
 10
117.8167025725
 20
-38.735229857
 10
117.7004948364
 20
-38.9018759313
 10
117.5741763139
 20
-39.069927561
 10
117.4370729983
 20
-39.2389697344
 10
117.2889662931
 20
-39.4079795105
 10
117.1297883623
 20
-39.5758312327
 10
116.9598125372
 20
-39.7411616907
 10
116.7782123129
 20
-39.9037129089
 10
116.5832062812
 20
-40.0637917353
 10
116.3745749178
 20
-40.2201466577
 10
116.1519357258
 20
-40.3716320019
 10
115.9130146784
 20
-40.5181397491
 10
115.6573992854
 20
-40.6580474925
 10
115.3850757796
 20
-40.7894621002
 10
115.0942393496
 20
-40.9111648287
 10
114.7834814032
 20
-41.0213305853
 10
114.4544759749
 20
-41.1168966238
 10
114.1103678395
 20
-41.1948027256
 10
113.7529125785
 20
-41.2528201943
 10
113.3823418832
 20
-41.2890665137
 10
113.0000002059
 20
-41.3014370206
  0
LINE
  5
560
100
AcDbEntity
  8
RACCORDO
100
AcDbLine
 62
250
  6
CONTINUOUS
 10
117.2269751766
 20
-33.978308039
 11
117.2164145465
 21
-35.0748622898
  0
LINE
  5
561
100
AcDbEntity
  8
RACCORDO
100
AcDbLine
 62
250
  6
CONTINUOUS
 10
117.2351302824
 20
-33.4206443386
 11
117.2269751766
 21
-33.978308039
  0
LWPOLYLINE
  5
562
100
AcDbEntity
  8
RACCORDO
100
AcDbPolyline
 62
250
  6
CONTINUOUS
 90
3
 70
0
 10
117.2626314519
 20
-32.1126610829
 10
117.2565962256
 20
-32.5726570297
 10
117.2520610421
 20
-32.7882284349
  0
LWPOLYLINE
  5
563
100
AcDbEntity
  8
RACCORDO
100
AcDbPolyline
 62
250
  6
CONTINUOUS
 90
3
 70
0
 10
117.2164145465
 20
-35.0748622898
 10
117.2103553464
 20
-35.4783525366
 10
117.207986942
 20
-35.6027333004
  0
LWPOLYLINE
  5
564
100
AcDbEntity
  8
RACCORDO
100
AcDbPolyline
 62
250
  6
CONTINUOUS
 90
46
 70
0
 10
117.207986942
 20
-35.6027333004
 10
117.2063391622
 20
-35.6625225721
 10
117.2036101619
 20
-35.7247902659
 10
117.1996941026
 20
-35.7894786444
 10
117.1945245469
 20
-35.8564007396
 10
117.1879819467
 20
-35.9256172483
 10
117.1798748081
 20
-35.9974295832
 10
117.1700874804
 20
-36.0717019289
 10
117.1584915512
 20
-36.1483466075
 10
117.1448318785
 20
-36.2276951024
 10
117.12906272
 20
-36.3095433137
 10
117.1110358151
 20
-36.3937826872
 10
117.0903051465
 20
-36.4808241436
 10
117.0669110771
 20
-36.5702888622
 10
117.0407367817
 20
-36.6620969358
 10
117.0110573441
 20
-36.7569790495
 10
116.9778849474
 20
-36.8543516484
 10
116.9411965017
 20
-36.9539640383
 10
116.9001671241
 20
-37.0567750763
 10
116.854559883
 20
-37.1624042101
 10
116.8045526353
 20
-37.2700276925
 10
116.7498164434
 20
-37.3798758508
 10
116.6897199733
 20
-37.4924937848
 10
116.6239606539
 20
-37.6072701849
 10
116.5526582614
 20
-37.7230613689
 10
116.4753956957
 20
-37.8404945105
 10
116.3914553304
 20
-37.9600841132
 10
116.3006861499
 20
-38.0805152141
 10
116.2027035856
 20
-38.201645727
 10
116.0970873831
 20
-38.323633651
 10
115.9837929235
 20
-38.4454439876
 10
115.8629433399
 20
-38.5664302427
 10
115.7339291748
 20
-38.6863889646
 10
115.5956271161
 20
-38.8048672
 10
115.4483224353
 20
-38.9211521001
 10
115.2917885442
 20
-39.0347103011
 10
115.1241193568
 20
-39.145061375
 10
114.9449248432
 20
-39.2522947043
 10
114.7547103076
 20
-39.3543201739
 10
114.5528228181
 20
-39.4478122321
 10
114.338222691
 20
-39.5335491991
 10
114.1119279906
 20
-39.6103113576
 10
113.8768725648
 20
-39.6726833754
 10
113.6342621124
 20
-39.7193929654
 10
113.3832930217
 20
-39.7526003628
 10
113.1241503432
 20
-39.7721419415
  0
LWPOLYLINE
  5
565
100
AcDbEntity
  8
RACCORDO
100
AcDbPolyline
 62
250
  6
CONTINUOUS
 90
3
 70
0
 10
117.2520610421
 20
-32.7882284349
 10
117.2394406975
 20
-33.2199449111
 10
117.2351302824
 20
-33.4206443386
  0
LWPOLYLINE
  5
566
100
AcDbEntity
  8
DRAFT
100
AcDbPolyline
 62
7
  6
CONTINUOUS
 90
37
 70
0
 10
109.5718361721
 20
-35.5
 10
109.5847611265
 20
-35.1940157677
 10
109.6227969622
 20
-34.9029866127
 10
109.6824122073
 20
-34.6286531452
 10
109.7593999309
 20
-34.3743570515
 10
109.8508338336
 20
-34.1385648163
 10
109.9566776324
 20
-33.915530307
 10
110.0750499203
 20
-33.7061067756
 10
110.2043691708
 20
-33.5104588318
 10
110.3478134435
 20
-33.3229222583
 10
110.5052322041
 20
-33.1442915864
 10
110.6758686879
 20
-32.9759942678
 10
110.8641120377
 20
-32.8151150091
 10
111.0711418324
 20
-32.6630907341
 10
111.295898908
 20
-32.523091933
 10
111.5403149962
 20
-32.3964462666
 10
111.8058759967
 20
-32.2855125922
 10
112.0899223568
 20
-32.1945279039
 10
112.3875778312
 20
-32.1274228124
 10
112.6971027895
 20
-32.0865100143
 10
113.015917069
 20
-32.0740467156
 10
113.3370259854
 20
-32.0915998023
 10
113.6571176799
 20
-32.1396551201
 10
113.9736430788
 20
-32.2184904925
 10
114.2807736435
 20
-32.3269218167
 10
114.5739940131
 20
-32.4629196371
 10
114.8526574092
 20
-32.6257279995
 10
115.1167256279
 20
-32.8156161944
 10
115.3636495292
 20
-33.0317079586
 10
115.5903761562
 20
-33.2723742083
 10
115.7953883581
 20
-33.5374293024
 10
115.9763575871
 20
-33.826334393
 10
116.1294610991
 20
-34.1359000413
 10
116.2512915015
 20
-34.4614909646
 10
116.3397971883
 20
-34.7992911782
 10
116.3936535523
 20
-35.1466430994
 10
116.4115860543
 20
-35.5
  0
LWPOLYLINE
  5
567
100
AcDbEntity
  8
DRAFT
100
AcDbPolyline
 62
7
  6
CONTINUOUS
 90
40
 70
0
 10
116.4115817633
 20
35.5
 10
116.395588059
 20
35.1660763595
 10
116.3474763182
 20
34.8373071014
 10
116.2682895488
 20
34.5166980382
 10
116.1586331869
 20
34.2053326151
 10
116.0204343861
 20
33.9077577444
 10
115.858563298
 20
33.6312147735
 10
115.6777716315
 20
33.3788896439
 10
115.4801458993
 20
33.1495477849
 10
115.2676905938
 20
32.9427307484
 10
115.0445912002
 20
32.7599172414
 10
114.8121964258
 20
32.5998570497
 10
114.5668548221
 20
32.4592138478
 10
114.3083678562
 20
32.3383215245
 10
114.0401215794
 20
32.2391936073
 10
113.7629371717
 20
32.1624605647
 10
113.4768516662
 20
32.1087963728
 10
113.1856090488
 20
32.0795522332
 10
112.8957894491
 20
32.0752480465
 10
112.6081472025
 20
32.095343711
 10
112.3260359177
 20
32.1390387958
 10
112.059551666
 20
32.2029777987
 10
111.8134818113
 20
32.2827254674
 10
111.5845843155
 20
32.3761214897
 10
111.3702534401
 20
32.4819148674
 10
111.1718710378
 20
32.5973604128
 10
110.9883401197
 20
32.7210411677
 10
110.814050049
 20
32.8556387685
 10
110.6491636737
 20
33.0008218694
 10
110.4947045442
 20
33.1554879379
 10
110.3477636458
 20
33.3229930315
 10
110.2094316274
 20
33.5033761851
 10
110.0811739354
 20
33.6961569145
 10
109.9621908245
 20
33.9049684858
 10
109.854409133
 20
34.1303003546
 10
109.7604915691
 20
34.3711904844
 10
109.6822014184
 20
34.629427852
 10
109.6224405158
 20
34.9049919122
 10
109.5846080142
 20
35.195777958
 10
109.5718494717
 20
35.5
  0
LWPOLYLINE
  5
568
100
AcDbEntity
  8
DRAFT
100
AcDbPolyline
 62
7
  6
CONTINUOUS
 90
34
 70
0
 10
116.4115860543
 20
-35.5
 10
116.3939647753
 20
-35.8433552179
 10
116.3418713917
 20
-36.1834790432
 10
116.2557456501
 20
-36.5169141963
 10
116.1363806998
 20
-36.8402634005
 10
115.984895831
 20
-37.1502030854
 10
115.8027350486
 20
-37.4435112877
 10
115.5916333281
 20
-37.7171868974
 10
115.3537230078
 20
-37.9683179034
 10
115.0915498903
 20
-38.194136627
 10
114.8062705362
 20
-38.3932467274
 10
114.5021242782
 20
-38.5623312906
 10
114.1874838791
 20
-38.6976930794
 10
113.8663055324
 20
-38.7994460132
 10
113.542060582
 20
-38.8682069852
 10
113.2232337861
 20
-38.9045655974
 10
112.9164682385
 20
-38.9112502911
 10
112.620838983
 20
-38.8916047442
 10
112.3330999949
 20
-38.8474750511
 10
112.0559640731
 20
-38.7807294947
 10
111.7901800526
 20
-38.6929970729
 10
111.5298943503
 20
-38.5826473439
 10
111.275315866
 20
-38.4487281522
 10
111.0305428368
 20
-38.2922940393
 10
110.7964574192
 20
-38.1127843734
 10
110.5758890403
 20
-37.911011765
 10
110.3708478268
 20
-37.6873136555
 10
110.1819400306
 20
-37.4398611734
 10
110.0122986478
 20
-37.1691986552
 10
109.8654159625
 20
-36.8766908959
 10
109.7438771683
 20
-36.5614738739
 10
109.6515916792
 20
-36.2246493236
 10
109.5929443335
 20
-35.869695608
 10
109.5718361721
 20
-35.5
  0
LINE
  5
569
100
AcDbEntity
  8
0
100
AcDbLine
 62
7
  6
CONTINUOUS
 10
111.8402717707
 20
-35.7630445128
 11
111.8550027231
 21
-35.7281482281
  0
LINE
  5
56A
100
AcDbEntity
  8
0
100
AcDbLine
 62
7
  6
CONTINUOUS
 10
114.1597282293
 20
-35.2369554872
 11
114.1449972769
 21
-35.2718517719
  0
LINE
  5
56B
100
AcDbEntity
  8
0
100
AcDbLine
 62
7
  6
CONTINUOUS
 10
111.8253352978
 20
-35.7978189078
 11
111.8402717707
 21
-35.7630445128
  0
LINE
  5
56C
100
AcDbEntity
  8
0
100
AcDbLine
 62
7
  6
CONTINUOUS
 10
114.1746647022
 20
-35.2021810922
 11
114.1597282293
 21
-35.2369554872
  0
LINE
  5
56D
100
AcDbEntity
  8
0
100
AcDbLine
 62
7
  6
CONTINUOUS
 10
111.8101933044
 20
-35.8324714129
 11
111.8253352978
 21
-35.7978189078
  0
LINE
  5
56E
100
AcDbEntity
  8
0
100
AcDbLine
 62
7
  6
CONTINUOUS
 10
114.1898066956
 20
-35.1675285871
 11
114.1746647022
 21
-35.2021810922
  0
LINE
  5
56F
100
AcDbEntity
  8
0
100
AcDbLine
 62
7
  6
CONTINUOUS
 10
111.828395019
 20
-35.8450726247
 11
111.8778937063
 21
-35.7388223825
  0
LINE
  5
570
100
AcDbEntity
  8
0
100
AcDbLine
 62
7
  6
CONTINUOUS
 10
114.171604981
 20
-35.1549273753
 11
114.1221062937
 21
-35.2611776175
  0
LINE
  5
571
100
AcDbEntity
  8
0
100
AcDbLine
 62
7
  6
CONTINUOUS
 10
112.480282565
 20
-34.9802732178
 11
112.5000533558
 21
-34.9378661378
  0
LINE
  5
572
100
AcDbEntity
  8
0
100
AcDbLine
 62
7
  6
CONTINUOUS
 10
113.519717435
 20
-36.0197267822
 11
113.4999466442
 21
-36.0621338622
  0
LINE
  5
573
100
AcDbEntity
  8
0
100
AcDbLine
 62
7
  6
CONTINUOUS
 10
112.5000533558
 20
-34.9378661378
 11
112.4795953518
 21
-34.9795953519
  0
LINE
  5
574
100
AcDbEntity
  8
0
100
AcDbLine
 62
7
  6
CONTINUOUS
 10
113.4999466442
 20
-36.0621338622
 11
113.5204046482
 21
-36.0204046481
  0
LINE
  5
575
100
AcDbEntity
  8
0
100
AcDbLine
 62
7
  6
CONTINUOUS
 10
112.3727025934
 20
-34.8727027659
 11
112.4
 21
-34.8181128479
  0
LINE
  5
576
100
AcDbEntity
  8
0
100
AcDbLine
 62
7
  6
CONTINUOUS
 10
113.6272974066
 20
-36.1272972341
 11
113.6
 21
-36.1818871521
  0
LWPOLYLINE
  5
577
100
AcDbEntity
  8
RACCORDO
100
AcDbPolyline
 62
250
  6
CONTINUOUS
 90
13
 70
0
 10
113.0000001848
 20
-41.3014364564
 10
113.0140408268
 20
-41.2856124497
 10
113.0279127997
 20
-41.2459543954
 10
113.041449454
 20
-41.1829387418
 10
113.0544881691
 20
-41.097322553
 10
113.0668723057
 20
-40.9901344141
 10
113.0784530885
 20
-40.8626620735
 10
113.0890913939
 20
-40.716436972
 10
113.0986594212
 20
-40.5532158444
 10
113.1070422281
 20
-40.3749596143
 10
113.1141391112
 20
-40.1838098355
 10
113.119864816
 20
-39.9820629638
 10
113.1241505612
 20
-39.7721427673
  0
LWPOLYLINE
  5
578
100
AcDbEntity
  8
RACCORDO
100
AcDbPolyline
 62
250
  6
CONTINUOUS
 90
13
 70
0
 10
113.0000030011
 20
41.3014113136
 10
113.014029684
 20
41.2855893952
 10
113.0278878217
 20
41.24593526
 10
113.0414109361
 20
41.1829252742
 10
113.0544365743
 20
41.0973163781
 10
113.0668082604
 20
40.9901369936
 10
113.0783773753
 20
40.8626746692
 10
113.0890049421
 20
40.716460613
 10
113.0985632962
 20
40.553251298
 10
113.1069376183
 20
40.3750073617
 10
113.1140273145
 20
40.1838700529
 10
113.1197472245
 20
39.9821355087
 10
113.1240286445
 20
39.7722271711
  0
LINE
  5
579
100
AcDbEntity
  8
0
100
AcDbLine
 62
7
  6
CONTINUOUS
 10
112.4
 20
34.8181119899
 11
112.3727024907
 21
34.8727024837
  0
LINE
  5
57A
100
AcDbEntity
  8
0
100
AcDbLine
 62
7
  6
CONTINUOUS
 10
113.6
 20
36.1818880102
 11
113.6272975093
 21
36.1272975163
  0
LINE
  5
57B
100
AcDbEntity
  8
0
100
AcDbLine
 62
7
  6
CONTINUOUS
 10
112.4795953518
 20
34.9795953518
 11
112.5000529891
 21
34.937866464
  0
LINE
  5
57C
100
AcDbEntity
  8
0
100
AcDbLine
 62
7
  6
CONTINUOUS
 10
113.5204046482
 20
36.0204046482
 11
113.4999470109
 21
36.062133536
  0
LINE
  5
57D
100
AcDbEntity
  8
0
100
AcDbLine
 62
7
  6
CONTINUOUS
 10
112.5000529891
 20
34.937866464
 11
112.4802765161
 21
34.9802765161
  0
LINE
  5
57E
100
AcDbEntity
  8
0
100
AcDbLine
 62
7
  6
CONTINUOUS
 10
113.4999470109
 20
36.062133536
 11
113.5197234839
 21
36.0197234839
  0
LINE
  5
57F
100
AcDbEntity
  8
0
100
AcDbLine
 62
7
  6
CONTINUOUS
 10
111.877893713
 20
35.7388223726
 11
111.8283951111
 21
35.8450726739
  0
LINE
  5
580
100
AcDbEntity
  8
0
100
AcDbLine
 62
7
  6
CONTINUOUS
 10
114.122106287
 20
35.2611776274
 11
114.1716048889
 21
35.1549273261
  0
LINE
  5
581
100
AcDbEntity
  8
0
100
AcDbLine
 62
7
  6
CONTINUOUS
 10
111.8550027299
 20
35.7281482181
 11
111.8099522509
 21
35.8323044581
  0
LINE
  5
582
100
AcDbEntity
  8
0
100
AcDbLine
 62
7
  6
CONTINUOUS
 10
114.1449972701
 20
35.2718517819
 11
114.190047748
 21
35.1676955411
  0
LWPOLYLINE
  5
583
100
AcDbEntity
  8
RACCORDO
100
AcDbPolyline
 62
250
  6
CONTINUOUS
 90
13
 70
0
 10
-186.3491887604
 20
-41.3014364564
 10
-186.5673816277
 20
-41.2856124497
 10
-186.7825338351
 20
-41.2459543954
 10
-186.9920605635
 20
-41.1829387418
 10
-187.1934445776
 20
-41.097322553
 10
-187.3842664682
 20
-40.9901344141
 10
-187.5622337184
 20
-40.8626620735
 10
-187.7252082458
 20
-40.716436972
 10
-187.8712320889
 20
-40.5532158444
 10
-187.9985509304
 20
-40.3749596143
 10
-188.1056351731
 20
-40.1838098355
 10
-188.1911983165
 20
-39.9820629638
 10
-188.2542124124
 20
-39.7721427673
  0
LWPOLYLINE
  5
584
100
AcDbEntity
  8
RACCORDO
100
AcDbPolyline
 62
250
  6
CONTINUOUS
 90
21
 70
0
 10
-188.4328822808
 20
-39.8651533777
 10
-188.4330176233
 20
-39.8649680266
 10
-188.4336342091
 20
-39.8642890565
 10
-188.434284042
 20
-39.863705679
 10
-188.4349499228
 20
-39.8632650766
 10
-188.4356271062
 20
-39.862960742
 10
-188.4363162285
 20
-39.8627563209
 10
-188.4370060972
 20
-39.8626652059
 10
-188.4377004398
 20
-39.8626510757
 10
-188.4383923315
 20
-39.8627078362
 10
-188.4390542967
 20
-39.8628972903
 10
-188.4396904646
 20
-39.8631652082
 10
-188.4402962099
 20
-39.8634903555
 10
-188.4408303977
 20
-39.8639786277
 10
-188.4413025059
 20
-39.8645461981
 10
-188.4417036453
 20
-39.8651717448
 10
-188.4419634774
 20
-39.866042782
 10
-188.4420732266
 20
-39.8671126334
 10
-188.4420440744
 20
-39.868251608
 10
-188.4418350988
 20
-39.8694974002
 10
-188.4417069179
 20
-39.8699828865
  0
LINE
  5
585
100
AcDbEntity
  8
0
100
AcDbLine
 62
7
  6
CONTINUOUS
 10
-139.1526022512
 20
-40.8747431161
 11
-174.9735451389
 21
-41.5
  0
LINE
  5
586
100
AcDbEntity
  8
DRAFT
100
AcDbLine
 62
7
  6
CONTINUOUS
 10
-139.1526022512
 20
-40.8747431161
 11
-174.9735451389
 21
-41.5
  0
LINE
  5
587
100
AcDbEntity
  8
RACCORDO
100
AcDbLine
 62
7
  6
CONTINUOUS
 10
-174.9735451389
 20
-41.5000003491
 11
-186.5601216111
 21
-41.2977545858
  0
LWPOLYLINE
  5
588
100
AcDbEntity
  8
DRAFT
100
AcDbPolyline
 62
7
  6
CONTINUOUS
 90
19
 70
0
 10
-188.4641242585
 20
-38.9121587248
 10
-188.4701513347
 20
-38.9112502911
 10
-188.4965064918
 20
-38.8916047442
 10
-188.5267127273
 20
-38.8474750511
 10
-188.5606566054
 20
-38.7807294947
 10
-188.5984515619
 20
-38.6929970729
 10
-188.6406501193
 20
-38.5826473439
 10
-188.6876792763
 20
-38.4487281522
 10
-188.7391120343
 20
-38.2922940393
 10
-188.7942199196
 20
-38.1127843734
 10
-188.8532921975
 20
-37.911011765
 10
-188.9160396027
 20
-37.6873136555
 10
-188.9808658655
 20
-37.4398611734
 10
-189.0483404855
 20
-37.1691986552
 10
-189.1178939632
 20
-36.8766908959
 10
-189.1862215308
 20
-36.5614738739
 10
-189.2522215991
 20
-36.2246493236
 10
-189.3169957574
 20
-35.869695608
 10
-189.3805440056
 20
-35.5
  0
LINE
  5
589
100
AcDbEntity
  8
RACCORDO
100
AcDbLine
 62
7
  6
CONTINUOUS
 10
-191.2308356406
 20
24.1579686166
 11
-191.2452892593
 21
24.1380244594
  0
LINE
  5
58A
100
AcDbEntity
  8
RACCORDO
100
AcDbLine
 62
7
  6
CONTINUOUS
 10
-191.2407768802
 20
24.1442206926
 11
-191.2528913749
 21
24.1276712582
  0
LINE
  5
58B
100
AcDbEntity
  8
RACCORDO
100
AcDbLine
 62
7
  6
CONTINUOUS
 10
-191.2489529821
 20
24.1330268477
 11
-191.2621906728
 21
24.1151358815
  0
LINE
  5
58C
100
AcDbEntity
  8
RACCORDO
100
AcDbLine
 62
7
  6
CONTINUOUS
 10
-191.2603126025
 20
24.1176535095
 11
-191.2715373776
 21
24.10267576
  0
LINE
  5
58D
100
AcDbEntity
  8
RACCORDO
100
AcDbLine
 62
7
  6
CONTINUOUS
 10
-191.2680336034
 20
24.1073243837
 11
-191.2781085584
 21
24.0940055476
  0
LINE
  5
58E
100
AcDbEntity
  8
ASSI
100
AcDbLine
 62
7
  6
CONTINUOUS
 10
-137.9735451389
 20
-36.0
 11
-137.4735451389
 21
-36.0
  0
LWPOLYLINE
  5
58F
100
AcDbEntity
  8
DRAFT
100
AcDbPolyline
 62
7
  6
CONTINUOUS
 90
17
 70
0
 10
-189.259416844
 20
-32.0739531137
 10
-189.2005715705
 20
-32.0915998023
 10
-189.1415413244
 20
-32.1396551201
 10
-189.0793233089
 20
-32.2184904925
 10
-189.0167226974
 20
-32.3269218167
 10
-188.9539949886
 20
-32.4629196371
 10
-188.8908846839
 20
-32.6257279995
 10
-188.8294304609
 20
-32.8156161944
 10
-188.7696007078
 20
-33.0317079586
 10
-188.7114270364
 20
-33.2723742083
 10
-188.6570429602
 20
-33.5374293024
 10
-188.6065590221
 20
-33.826334393
 10
-188.559864679
 20
-34.1359000413
 10
-188.5187618159
 20
-34.4614909646
 10
-188.4838510609
 20
-34.7992911782
 10
-188.4545317859
 20
-35.1466430994
 10
-188.4308039907
 20
-35.5
  0
LINE
  5
590
100
AcDbEntity
  8
RACCORDO
100
AcDbLine
 62
7
  6
CONTINUOUS
 10
-191.2788796064
 20
-24.0929933769
 11
-191.2689718876
 21
-24.1060813419
  0
LINE
  5
591
100
AcDbEntity
  8
RACCORDO
100
AcDbLine
 62
7
  6
CONTINUOUS
 10
-191.2696771973
 20
-24.1051385216
 11
-191.2614360623
 21
-24.1161477812
  0
LWPOLYLINE
  5
592
100
AcDbEntity
  8
RACCORDO
100
AcDbPolyline
 62
7
  6
CONTINUOUS
 90
44
 70
0
 10
-191.2614360623
 20
-24.1161477812
 10
-191.2540975455
 20
-24.1260407344
 10
-191.2470141918
 20
-24.1356708964
 10
-191.2380914569
 20
-24.1479173252
 10
-191.2279335026
 20
-24.1620191104
 10
-191.2164798612
 20
-24.1781290073
 10
-191.2038605237
 20
-24.1961426759
 10
-191.1909344084
 20
-24.214890377
 10
-191.17792249
 20
-24.2340752988
 10
-191.1646301514
 20
-24.2540090315
 10
-191.1512612512
 20
-24.2744118927
 10
-191.1378586252
 20
-24.295236421
 10
-191.1243982627
 20
-24.3165383694
 10
-191.1109738769
 20
-24.338186084
 10
-191.0976112208
 20
-24.3601503902
 10
-191.0842979084
 20
-24.3824643021
 10
-191.0710661031
 20
-24.4050865309
 10
-191.0579283608
 20
-24.4280068951
 10
-191.0448841565
 20
-24.4512378635
 10
-191.0319447908
 20
-24.4747712096
 10
-191.0191163519
 20
-24.4986077535
 10
-191.0064049405
 20
-24.5227483463
 10
-190.9938214865
 20
-24.5471844198
 10
-190.9813720059
 20
-24.5719164776
 10
-190.9690625796
 20
-24.5969449388
 10
-190.9569038192
 20
-24.6222607243
 10
-190.9449016624
 20
-24.6478639618
 10
-190.9330621083
 20
-24.6737546823
 10
-190.9213954132
 20
-24.6999232802
 10
-190.9099074056
 20
-24.7263694963
 10
-190.8986039645
 20
-24.7530929765
 10
-190.8874949437
 20
-24.7800835985
 10
-190.8765860276
 20
-24.8073407159
 10
-190.8658829408
 20
-24.8348635893
 10
-190.8553950893
 20
-24.8626415916
 10
-190.8451279831
 20
-24.8906736796
 10
-190.8350871534
 20
-24.9189587452
 10
-190.8252815005
 20
-24.9474857119
 10
-190.8157163244
 20
-24.9762531537
 10
-190.806396933
 20
-25.0052595956
 10
-190.7973316761
 20
-25.0344935525
 10
-190.788525599
 20
-25.0639532695
 10
-190.7799837692
 20
-25.0936368739
 10
-190.7717139809
 20
-25.1235323865
  0
LWPOLYLINE
  5
593
100
AcDbEntity
  8
RACCORDO
100
AcDbPolyline
 62
250
  6
CONTINUOUS
 90
30
 70
0
 10
-188.4305359994
 20
39.8719122579
 10
-188.4309823962
 20
39.8701744469
 10
-188.4314083377
 20
39.8679551791
 10
-188.4316776018
 20
39.8655914297
 10
-188.4317747502
 20
39.8630139171
 10
-188.431696851
 20
39.8601083631
 10
-188.4313173209
 20
39.8571779932
 10
-188.4306010096
 20
39.8542117451
 10
-188.4295421942
 20
39.8510941841
 10
-188.4280426193
 20
39.8480316362
 10
-188.4260900004
 20
39.8449254713
 10
-188.4236222509
 20
39.8418301922
 10
-188.4204982112
 20
39.839094226
 10
-188.4167353705
 20
39.8365127734
 10
-188.4123614373
 20
39.8338594292
 10
-188.4072457657
 20
39.8315087622
 10
-188.4013247115
 20
39.8294747234
 10
-188.3946485423
 20
39.8275493026
 10
-188.3872792676
 20
39.8258337075
 10
-188.3791993915
 20
39.8244240593
 10
-188.3704477717
 20
39.8231998573
 10
-188.3611861097
 20
39.8221452813
 10
-188.3518191263
 20
39.8205369468
 10
-188.3421360601
 20
39.818775744
 10
-188.3316603802
 20
39.8173359379
 10
-188.3211166534
 20
39.8135566759
 10
-188.3106259509
 20
39.8065888258
 10
-188.2987641109
 20
39.7993350949
 10
-188.2852051422
 20
39.7918310963
 10
-188.2541347487
 20
39.7722262789
  0
LWPOLYLINE
  5
594
100
AcDbEntity
  8
RACCORDO
100
AcDbPolyline
 62
250
  6
CONTINUOUS
 90
21
 70
0
 10
-188.4418022443
 20
39.8700806952
 10
-188.4419566917
 20
39.8694964685
 10
-188.4421833692
 20
39.8681798851
 10
-188.4422483427
 20
39.8669092299
 10
-188.4421245601
 20
39.8658806378
 10
-188.4418366238
 20
39.8650985532
 10
-188.4414580722
 20
39.864378993
 10
-188.4409979101
 20
39.8637533608
 10
-188.4404476387
 20
39.8633072481
 10
-188.4398532157
 20
39.8629212679
 10
-188.4392215346
 20
39.8626103316
 10
-188.4385478688
 20
39.8624318319
 10
-188.4378599136
 20
39.8623274889
 10
-188.4371620319
 20
39.8623182704
 10
-188.4364540187
 20
39.8624368838
 10
-188.4357563939
 20
39.8626369252
 10
-188.4350746177
 20
39.8629254781
 10
-188.4344075006
 20
39.8633260968
 10
-188.4337646762
 20
39.8638157932
 10
-188.4331460158
 20
39.8644134346
 10
-188.4325771301
 20
39.8650938858
  0
LWPOLYLINE
  5
595
100
AcDbEntity
  8
SUPERFICI
100
AcDbPolyline
 62
7
  6
CONTINUOUS
 90
10
 70
0
 10
-189.0403186274
 20
37.7685320184
 10
-189.0887197211
 20
37.5883055088
 10
-189.1354406942
 20
37.4109349674
 10
-189.180575033
 20
37.2360166818
 10
-189.224379129
 20
37.0626941726
 10
-189.2669160724
 20
36.8908888348
 10
-189.3082067082
 20
36.7206859866
 10
-189.348438144
 20
36.5514662699
 10
-189.3875545501
 20
36.3836079815
 10
-189.4632248384
 20
36.0490896704
  0
LINE
  5
596
100
AcDbEntity
  8
SUPERFICI
100
AcDbLine
 62
7
  6
CONTINUOUS
 10
-188.9390537909
 20
38.1359090847
 11
-189.0403186274
 21
37.7685320184
  0
LWPOLYLINE
  5
597
100
AcDbEntity
  8
RACCORDO
100
AcDbPolyline
 62
7
  6
CONTINUOUS
 90
9
 70
0
 10
-188.42999613
 20
39.8704369033
 10
-188.4298365925
 20
39.8709970687
 10
-188.4295845423
 20
39.8720620771
 10
-188.4294324935
 20
39.8730216452
 10
-188.4293740878
 20
39.8738348902
 10
-188.4294643116
 20
39.8742148714
 10
-188.4297390308
 20
39.8739312969
 10
-188.4301329189
 20
39.8730827959
 10
-188.4305359994
 20
39.8719122579
  0
LINE
  5
598
100
AcDbEntity
  8
SUPERFICI
100
AcDbLine
 62
7
  6
CONTINUOUS
 10
-188.83247135
 20
38.511385101
 11
-188.9390537909
 21
38.1359090847
  0
LWPOLYLINE
  5
599
100
AcDbEntity
  8
SUPERFICI
100
AcDbPolyline
 62
7
  6
CONTINUOUS
 90
9
 70
0
 10
-188.7358446432
 20
38.8798507508
 10
-188.9822056743
 20
38.0196633173
 10
-189.2179657444
 20
37.1334347274
 10
-189.4348045251
 20
36.2276185417
 10
-189.6289757511
 20
35.3231069293
 10
-189.8024746177
 20
34.4240284575
 10
-189.9587166793
 20
33.526254977
 10
-190.0984643177
 20
32.6386486615
 10
-190.2224622617
 20
31.7614014752
  0
LINE
  5
59A
100
AcDbEntity
  8
SUPERFICI
100
AcDbLine
 62
7
  6
CONTINUOUS
 10
-188.7214774796
 20
38.8934924421
 11
-188.83247135
 21
38.511385101
  0
LINE
  5
59B
100
AcDbEntity
  8
SUPERFICI
100
AcDbLine
 62
7
  6
CONTINUOUS
 10
-188.4418357134
 20
39.8699685543
 11
-188.7358446432
 21
38.8798507508
  0
LWPOLYLINE
  5
59C
100
AcDbEntity
  8
SUPERFICI
100
AcDbPolyline
 62
7
  6
CONTINUOUS
 90
3
 70
0
 10
-188.4305330062
 20
39.8719222546
 10
-188.4850097225
 20
39.6899435081
 10
-188.7214774796
 20
38.8934924421
  0
LINE
  5
59D
100
AcDbEntity
  8
RACCORDO
100
AcDbLine
 62
7
  6
CONTINUOUS
 10
-188.4417701742
 20
39.870187706
 11
-188.4418022443
 21
39.8700806952
  0
LWPOLYLINE
  5
59E
100
AcDbEntity
  8
RACCORDO
100
AcDbPolyline
 62
7
  6
CONTINUOUS
 90
8
 70
0
 10
-191.1412316367
 20
24.2899545679
 10
-191.1551006745
 20
24.2685101631
 10
-191.1689001065
 20
24.2475630846
 10
-191.182431025
 20
24.2273870057
 10
-191.1960167383
 20
24.2074782592
 10
-191.2093085232
 20
24.1883270624
 10
-191.2210532043
 20
24.171665356
 10
-191.2308356406
 20
24.1579686166
  0
LINE
  5
59F
100
AcDbEntity
  8
RACCORDO
100
AcDbLine
 62
250
  6
CONTINUOUS
 10
-186.3415569022
 20
-35.4999997618
 11
-188.2622908272
 21
-35.6027333143
  0
LINE
  5
5A0
100
AcDbEntity
  8
0
100
AcDbLine
 62
7
  6
CONTINUOUS
 10
-137.9735451389
 20
-33.7242099741
 11
-138.0117013088
 21
-33.7248759926
  0
LINE
  5
5A1
100
AcDbEntity
  8
RACCORDO
100
AcDbLine
 62
250
  6
CONTINUOUS
 10
-186.341556626
 20
-35.4999995694
 11
-174.9735451389
 21
-35.5000000243
  0
LINE
  5
5A2
100
AcDbEntity
  8
DRAFT
100
AcDbLine
 62
250
  6
CONTINUOUS
 10
-138.0117013088
 20
-35.5
 11
-137.9735451389
 21
-35.5
  0
LINE
  5
5A3
100
AcDbEntity
  8
0
100
AcDbLine
 62
250
  6
CONTINUOUS
 10
-138.0117013088
 20
-35.5
 11
-174.9735451389
 21
-35.5
  0
LINE
  5
5A4
100
AcDbEntity
  8
RACCORDO
100
AcDbLine
 62
7
  6
CONTINUOUS
 10
-191.2157938447
 20
-24.1830483535
 11
-191.1155022454
 21
-24.3308837887
  0
LINE
  5
5A5
100
AcDbEntity
  8
RACCORDO
100
AcDbLine
 62
7
  6
CONTINUOUS
 10
-191.11524026
 20
-24.33126997
 11
-190.9904027226
 21
-24.5539436334
  0
LINE
  5
5A6
100
AcDbEntity
  8
RACCORDO
100
AcDbLine
 62
7
  6
CONTINUOUS
 10
-190.9904027226
 20
-24.5539436334
 11
-190.8850161258
 21
-24.7862771955
  0
LINE
  5
5A7
100
AcDbEntity
  8
RACCORDO
100
AcDbLine
 62
7
  6
CONTINUOUS
 10
-190.8850161258
 20
-24.7862771955
 11
-190.7996660194
 21
-25.0269656808
  0
LWPOLYLINE
  5
5A8
100
AcDbEntity
  8
RACCORDO
100
AcDbPolyline
 62
7
  6
CONTINUOUS
 90
9
 70
0
 10
-188.4308897367
 20
-39.871810023
 10
-188.4308248594
 20
-39.8720198492
 10
-188.4304309015
 20
-39.8730698537
 10
-188.4300702028
 20
-39.873729722
 10
-188.4298462045
 20
-39.8737975197
 10
-188.4298347053
 20
-39.8731589264
 10
-188.4299895792
 20
-39.8720971943
 10
-188.4302279332
 20
-39.8709933692
 10
-188.4304311122
 20
-39.8702506041
  0
LINE
  5
5A9
100
AcDbEntity
  8
SUPERFICI
100
AcDbLine
 62
7
  6
CONTINUOUS
 10
-188.6555397882
 20
-39.1182635447
 11
-188.4308951978
 21
-39.8717917794
  0
LINE
  5
5AA
100
AcDbEntity
  8
RACCORDO
100
AcDbLine
 62
7
  6
CONTINUOUS
 10
-188.4417069179
 20
-39.8699828865
 11
-188.4416812776
 21
-39.870070494
  0
LINE
  5
5AB
100
AcDbEntity
  8
SUPERFICI
100
AcDbLine
 62
7
  6
CONTINUOUS
 10
-188.7864057304
 20
-38.6717098041
 11
-188.6555397882
 21
-39.1182635447
  0
LWPOLYLINE
  5
5AC
100
AcDbEntity
  8
SUPERFICI
100
AcDbPolyline
 62
7
  6
CONTINUOUS
 90
3
 70
0
 10
-188.9645587651
 20
-38.0825822976
 10
-188.5805159855
 20
-39.4046904955
 10
-188.4416946301
 20
-39.8700240605
  0
LWPOLYLINE
  5
5AD
100
AcDbEntity
  8
RACCORDO
100
AcDbPolyline
 62
7
  6
CONTINUOUS
 90
5
 70
0
 10
-189.5046075348
 20
-35.8689496729
 10
-189.5755100448
 20
-35.5668003251
 10
-189.8123332826
 20
-34.4236349465
 10
-190.0218814921
 20
-33.2600328951
 10
-190.2034387543
 20
-32.0763310829
  0
LWPOLYLINE
  5
5AE
100
AcDbEntity
  8
SUPERFICI
100
AcDbPolyline
 62
7
  6
CONTINUOUS
 90
13
 70
0
 10
-190.3200215049
 20
30.9823490436
 10
-190.350194822
 20
30.7303706007
 10
-190.3791945639
 20
30.4778218373
 10
-190.4069724738
 20
30.2248906252
 10
-190.4334298638
 20
29.9722880739
 10
-190.4585594388
 20
29.7199599454
 10
-190.4823437577
 20
29.4679654929
 10
-190.5046894358
 20
29.2172451182
 10
-190.5255883423
 20
28.9679012635
 10
-190.5450467182
 20
28.7198858176
 10
-190.5630210176
 20
28.4738620129
 10
-190.5795162272
 20
28.2299716024
 10
-190.5945563454
 20
27.9880922578
  0
LWPOLYLINE
  5
5AF
100
AcDbEntity
  8
SUPERFICI
100
AcDbPolyline
 62
7
  6
CONTINUOUS
 90
3
 70
0
 10
-190.2224622617
 20
31.7614014752
 10
-190.3309191835
 20
30.8944341453
 10
-190.3345952498
 20
30.8606431821
  0
LWPOLYLINE
  5
5B0
100
AcDbEntity
  8
RACCORDO
100
AcDbPolyline
 62
7
  6
CONTINUOUS
 90
5
 70
0
 10
-190.356035249
 20
30.8750332846
 10
-190.2030623688
 20
32.0790166427
 10
-190.0213484279
 20
33.2632305602
 10
-189.811721432
 20
34.4267954276
 10
-189.6695945038
 20
35.1126188332
  0
LWPOLYLINE
  5
5B1
100
AcDbEntity
  8
RACCORDO
100
AcDbPolyline
 62
7
  6
CONTINUOUS
 90
6
 70
0
 10
-190.690321133
 20
25.536793133
 10
-190.6946630562
 20
25.5035261582
 10
-190.6993620402
 20
25.4704093282
 10
-190.7044141699
 20
25.437446287
 10
-190.7098155054
 20
25.4046405997
 10
-190.7155601745
 20
25.3720062574
  0
LWPOLYLINE
  5
5B2
100
AcDbEntity
  8
SUPERFICI
100
AcDbPolyline
 62
7
  6
CONTINUOUS
 90
7
 70
0
 10
-190.0405538945
 20
32.9691726372
 10
-190.0783809412
 20
32.7273075915
 10
-190.115657432
 20
32.4822711236
 10
-190.1521332401
 20
32.2353983802
 10
-190.1877610367
 20
31.9867468853
 10
-190.2225071794
 20
31.7362757767
 10
-190.2561717786
 20
31.4851948179
  0
LINE
  5
5B3
100
AcDbEntity
  8
SUPERFICI
100
AcDbLine
 62
7
  6
CONTINUOUS
 10
-189.9631144528
 20
33.4454692012
 11
-190.0405538945
 21
32.9691726372
  0
LWPOLYLINE
  5
5B4
100
AcDbEntity
  8
DRAFT
100
AcDbPolyline
 62
7
  6
CONTINUOUS
 90
19
 70
0
 10
-189.379782071
 20
35.5
 10
-189.3163418201
 20
35.8699323382
 10
-189.2516618552
 20
36.2250836236
 10
-189.1857421763
 20
36.5620620387
 10
-189.1174873748
 20
36.8773619798
 10
-189.0479928593
 20
37.1699103682
 10
-188.9805448554
 20
37.440642976
 10
-188.9156891233
 20
37.6882372463
 10
-188.8528799029
 20
37.9120784592
 10
-188.7937661386
 20
38.1139063394
 10
-188.7386607164
 20
38.2933554505
 10
-188.6872507505
 20
38.4496753445
 10
-188.6402465278
 20
38.5834777904
 10
-188.5980736659
 20
38.6937211282
 10
-188.5603065473
 20
38.7813310252
 10
-188.5263786059
 20
38.8479201207
 10
-188.4961759017
 20
38.8918657414
 10
-188.4698123747
 20
38.9113042196
 10
-188.4639718329
 20
38.9121561146
  0
LINE
  5
5B5
100
AcDbEntity
  8
SUPERFICI
100
AcDbLine
 62
7
  6
CONTINUOUS
 10
-189.8868718389
 20
33.8927237282
 11
-189.9631144528
 21
33.4454692012
  0
LINE
  5
5B6
100
AcDbEntity
  8
SUPERFICI
100
AcDbLine
 62
7
  6
CONTINUOUS
 10
-189.8119732697
 20
34.3130805861
 11
-189.8868718389
 21
33.8927237282
  0
LWPOLYLINE
  5
5B7
100
AcDbEntity
  8
RACCORDO
100
AcDbPolyline
 62
7
  6
CONTINUOUS
 90
39
 70
0
 10
-190.7216438455
 20
25.3395466024
 10
-190.7280621696
 20
25.3072648914
 10
-190.7348085288
 20
25.2751747331
 10
-190.7418782041
 20
25.2432791387
 10
-190.7492664677
 20
25.211581029
 10
-190.7569659925
 20
25.1800935927
 10
-190.7649717039
 20
25.1488194847
 10
-190.7732785273
 20
25.1177612652
 10
-190.7818784658
 20
25.0869316703
 10
-190.7907661194
 20
25.0563329881
 10
-190.7999361039
 20
25.0259673858
 10
-190.8093798052
 20
24.9958470837
 10
-190.8190915353
 20
24.9659739802
 10
-190.8290656363
 20
24.9363498381
 10
-190.8392929299
 20
24.9069863208
 10
-190.8497675103
 20
24.8778848344
 10
-190.8604834536
 20
24.849046815
 10
-190.8714309718
 20
24.8204835965
 10
-190.88260392
 20
24.7921962266
 10
-190.8939961891
 20
24.7641856567
 10
-190.9055974884
 20
24.7364626846
 10
-190.917401491
 20
24.7090279386
 10
-190.9294019228
 20
24.6818819353
 10
-190.9415880483
 20
24.6550349015
 10
-190.953953398
 20
24.6284870421
 10
-190.9664915708
 20
24.6022384404
 10
-190.9791914445
 20
24.5762987297
 10
-190.9920464474
 20
24.5506676912
 10
-191.0050500892
 20
24.5253449823
 10
-191.0181909165
 20
24.5003396336
 10
-191.0314623231
 20
24.4756509566
 10
-191.0448577399
 20
24.4512782446
 10
-191.0583653483
 20
24.4272300812
 10
-191.0719820915
 20
24.4034992004
 10
-191.085697915
 20
24.3800907227
 10
-191.0994896093
 20
24.3570310959
 10
-191.1133781333
 20
24.3342729795
 10
-191.1273291602
 20
24.3118606151
 10
-191.1412316367
 20
24.2899545679
  0
LWPOLYLINE
  5
5B8
100
AcDbEntity
  8
SUPERFICI
100
AcDbPolyline
 62
7
  6
CONTINUOUS
 90
5
 70
0
 10
-189.6130300427
 20
35.3452692996
 10
-189.6544625777
 20
35.1399832462
 10
-189.6952492098
 20
34.9330645802
 10
-189.7347363376
 20
34.7280132408
 10
-189.8119732697
 20
34.3130805861
  0
LINE
  5
5B9
100
AcDbEntity
  8
SUPERFICI
100
AcDbLine
 62
7
  6
CONTINUOUS
 10
-189.535457106
 20
35.7169568683
 11
-189.6130300427
 21
35.3452692996
  0
LINE
  5
5BA
100
AcDbEntity
  8
SUPERFICI
100
AcDbLine
 62
7
  6
CONTINUOUS
 10
-189.4632248384
 20
36.0490896704
 11
-189.535457106
 21
35.7169568683
  0
LWPOLYLINE
  5
5BB
100
AcDbEntity
  8
RACCORDO
100
AcDbPolyline
 62
7
  6
CONTINUOUS
 90
5
 70
0
 10
-190.6659612085
 20
25.8811687826
 10
-190.66667695
 20
25.8786992014
 10
-190.6670977005
 20
25.8808434056
 10
-190.6672626813
 20
25.8827438253
 10
-190.6672714091
 20
25.8836479787
  0
LINE
  5
5BC
100
AcDbEntity
  8
RACCORDO
100
AcDbLine
 62
250
  6
CONTINUOUS
 10
-143.7735451389
 20
-31.6086513684
 11
-144.2648189357
 21
-31.6086513684
  0
LINE
  5
5BD
100
AcDbEntity
  8
0
100
AcDbLine
 62
7
  6
CONTINUOUS
 10
-190.4886910952
 20
-29.399978
 11
-190.5388934998
 21
-29.399978
  0
LINE
  5
5BE
100
AcDbEntity
  8
RACCORDO
100
AcDbLine
 62
250
  6
CONTINUOUS
 10
-139.1526022512
 20
-32.6805827057
 11
-137.9735451389
 21
-32.6925864934
  0
LINE
  5
5BF
100
AcDbEntity
  8
RACCORDO
100
AcDbLine
 62
250
  6
CONTINUOUS
 10
-143.2822713421
 20
-32.6084990636
 11
-139.1526022512
 21
-32.6805827057
  0
LINE
  5
5C0
100
AcDbEntity
  8
RACCORDO
100
AcDbLine
 62
7
  6
CONTINUOUS
 10
-143.2822713421
 20
-32.108575216
 11
-138.4963754172
 21
-32.1921133401
  0
LWPOLYLINE
  5
5C1
100
AcDbEntity
  8
RACCORDO
100
AcDbPolyline
 62
7
  6
CONTINUOUS
 90
7
 70
0
 10
-138.4963721146
 20
-32.1921133978
 10
-138.4911092212
 20
-32.1922300673
 10
-138.4858479399
 20
-32.1923970651
 10
-138.4805882707
 20
-32.192614391
 10
-138.4753302136
 20
-32.1928820451
 10
-138.4700737686
 20
-32.1932000274
 10
-138.4648189357
 20
-32.1935683378
  0
LWPOLYLINE
  5
5C2
100
AcDbEntity
  8
RACCORDO
100
AcDbPolyline
 62
7
  6
CONTINUOUS
 90
3
 70
0
 10
-190.7996142682
 20
-25.0271116494
 10
-190.7350589269
 20
-25.274184187
 10
-190.6917459376
 20
-25.5258814129
  0
LWPOLYLINE
  5
5C3
100
AcDbEntity
  8
RACCORDO
100
AcDbPolyline
 62
7
  6
CONTINUOUS
 90
7
 70
0
 10
-190.7637210064
 20
-25.1536376871
 10
-190.7560096229
 20
-25.1839505695
 10
-190.7485870155
 20
-25.2144586296
 10
-190.7414576482
 20
-25.2451594135
 10
-190.7346259818
 20
-25.2760503858
 10
-190.7280985559
 20
-25.3071187462
 10
-190.7218794964
 20
-25.3383617284
  0
LWPOLYLINE
  5
5C4
100
AcDbEntity
  8
SUPERFICI
100
AcDbPolyline
 62
7
  6
CONTINUOUS
 90
19
 70
0
 10
-189.8214478183
 20
-34.2615856669
 10
-189.777354226
 20
-34.5020517134
 10
-189.7308537855
 20
-34.7490149668
 10
-189.6819547695
 20
-35.0016030157
 10
-189.6296819395
 20
-35.2638506911
 10
-189.5747072241
 20
-35.5313806572
 10
-189.5197767905
 20
-35.7906405806
 10
-189.4660725285
 20
-36.0367220838
 10
-189.4126655572
 20
-36.2745628174
 10
-189.3593594779
 20
-36.5054605209
 10
-189.3066305967
 20
-36.727796413
 10
-189.2541885239
 20
-36.9432404302
 10
-189.2005580034
 20
-37.1579946415
 10
-189.1452595972
 20
-37.3738191918
 10
-189.0887213074
 20
-37.5889538624
 10
-189.0307954381
 20
-37.8042910228
 10
-188.971682144
 20
-38.0195296426
 10
-188.9114200701
 20
-38.2349686214
 10
-188.7864057304
 20
-38.6717098041
  0
LWPOLYLINE
  5
5C5
100
AcDbEntity
  8
RACCORDO
100
AcDbPolyline
 62
7
  6
CONTINUOUS
 90
13
 70
0
 10
-190.7159729187
 20
-25.3697764893
 10
-190.7103846827
 20
-25.4013498643
 10
-190.705118549
 20
-25.4330787989
 10
-190.7001782602
 20
-25.4649601672
 10
-190.6955689655
 20
-25.4969804759
 10
-190.6912940343
 20
-25.5291364093
 10
-190.6873568119
 20
-25.5614245861
 10
-190.6837617082
 20
-25.5938312236
 10
-190.6805116785
 20
-25.6263527745
 10
-190.6776096486
 20
-25.6589856325
 10
-190.6750592637
 20
-25.6917157673
 10
-190.6728630453
 20
-25.7245394318
 10
-190.6710234797
 20
-25.7574528279
  0
LINE
  5
5C6
100
AcDbEntity
  8
SUPERFICI
100
AcDbLine
 62
7
  6
CONTINUOUS
 10
-189.9022014604
 20
-33.8047675219
 11
-189.8214478183
 21
-34.2615856669
  0
LINE
  5
5C7
100
AcDbEntity
  8
SUPERFICI
100
AcDbLine
 62
7
  6
CONTINUOUS
 10
-190.0149465913
 20
-33.1286722163
 11
-189.9405950056
 21
-33.5797673999
  0
LWPOLYLINE
  5
5C8
100
AcDbEntity
  8
0
100
AcDbPolyline
 62
7
  6
CONTINUOUS
 90
4
 70
0
 10
-190.7014906449
 20
-26.4998531139
 10
-190.7010107419
 20
-26.5031767173
 10
-190.7002977636
 20
-26.5137100404
 10
-190.6993559431
 20
-26.5320261452
  0
LWPOLYLINE
  5
5C9
100
AcDbEntity
  8
DRAFT
100
AcDbPolyline
 62
7
  6
CONTINUOUS
 90
21
 70
0
 10
-189.3805440056
 20
-35.5
 10
-189.4237861066
 20
-35.1940157677
 10
-189.4608943916
 20
-34.9029866127
 10
-189.4918688608
 20
-34.6286531452
 10
-189.5163087774
 20
-34.3743570515
 10
-189.5346148781
 20
-34.1385648163
 10
-189.5479893725
 20
-33.915530307
 10
-189.556593554
 20
-33.7061067756
 10
-189.5602661292
 20
-33.5104588318
 10
-189.5597254275
 20
-33.3229222583
 10
-189.5552796586
 20
-33.1442915864
 10
-189.5466206128
 20
-32.9759942678
 10
-189.5335419915
 20
-32.8151150091
 10
-189.5162015492
 20
-32.6630907341
 10
-189.4944415313
 20
-32.523091933
 10
-189.4675823756
 20
-32.3964462666
 10
-189.4353018152
 20
-32.2855125922
 10
-189.397922117
 20
-32.1945279039
 10
-189.3557305195
 20
-32.1274228124
 10
-189.3082813925
 20
-32.0865100143
 10
-189.259416844
 20
-32.0739531137
  0
LWPOLYLINE
  5
5CA
100
AcDbEntity
  8
SUPERFICI
100
AcDbPolyline
 62
7
  6
CONTINUOUS
 90
5
 70
0
 10
-190.1225848453
 20
-32.4351856671
 10
-190.0677440525
 20
-32.8407458773
 10
-189.7310448703
 20
-34.8050778427
 10
-189.3541995806
 20
-36.5756122257
 10
-188.9645587651
 20
-38.0825822976
  0
LINE
  5
5CB
100
AcDbEntity
  8
RACCORDO
100
AcDbLine
 62
7
  6
CONTINUOUS
 10
-190.2034387543
 20
-32.0763310829
 11
-190.3562436443
 21
-30.8732036125
  0
LINE
  5
5CC
100
AcDbEntity
  8
RACCORDO
100
AcDbLine
 62
7
  6
CONTINUOUS
 10
-190.3562436443
 20
-30.8732036125
 11
-190.479603531
 21
-29.6509165591
  0
LWPOLYLINE
  5
5CD
100
AcDbEntity
  8
SUPERFICI
100
AcDbPolyline
 62
7
  6
CONTINUOUS
 90
14
 70
0
 10
-190.4603783871
 20
-29.7031583463
 10
-190.4364914623
 20
-29.944421884
 10
-190.4117705732
 20
-30.1823521654
 10
-190.3860630403
 20
-30.4188542457
 10
-190.3588488371
 20
-30.6586800832
 10
-190.3299213048
 20
-30.903231142
 10
-190.2993998268
 20
-31.1511104783
 10
-190.2671773259
 20
-31.4028794851
 10
-190.2327242632
 20
-31.662156479
 10
-190.1964772026
 20
-31.9251964119
 10
-190.1599372891
 20
-32.1814721907
 10
-190.1238880691
 20
-32.4265721395
 10
-190.0878376005
 20
-32.6648441113
 10
-190.0149465913
 20
-33.1286722163
  0
LINE
  5
5CE
100
AcDbEntity
  8
SUPERFICI
100
AcDbLine
 62
7
  6
CONTINUOUS
 10
-190.4886920578
 20
-29.399978194
 11
-190.4603783871
 21
-29.7031583463
  0
LINE
  5
5CF
100
AcDbEntity
  8
0
100
AcDbLine
 62
7
  6
CONTINUOUS
 10
-190.4886910952
 20
-29.399978
 11
-190.5061214351
 21
-29.2018414529
  0
LINE
  5
5D0
100
AcDbEntity
  8
RACCORDO
100
AcDbLine
 62
7
  6
CONTINUOUS
 10
-190.6917459376
 20
-25.5258814129
 11
-190.6699967139
 21
-25.7803807577
  0
LWPOLYLINE
  5
5D1
100
AcDbEntity
  8
0
100
AcDbPolyline
 62
7
  6
CONTINUOUS
 90
3
 70
0
 10
-190.5061214351
 20
-29.2018414529
 10
-190.5226703137
 20
-29.0035530357
 10
-190.5383377312
 20
-28.8051127486
  0
LWPOLYLINE
  5
5D2
100
AcDbEntity
  8
0
100
AcDbPolyline
 62
7
  6
CONTINUOUS
 90
3
 70
0
 10
-190.5728472381
 20
-29.0033540115
 10
-190.5563123612
 20
-29.2017170627
 10
-190.5388934998
 20
-29.399978
  0
LINE
  5
5D3
100
AcDbEntity
  8
0
100
AcDbLine
 62
7
  6
CONTINUOUS
 10
-190.5884981304
 20
-28.8048888463
 11
-190.5728472381
 21
-29.0033540115
  0
LINE
  5
5D4
100
AcDbEntity
  8
RACCORDO
100
AcDbLine
 62
7
  6
CONTINUOUS
 10
-190.479603531
 20
-29.6509165591
 11
-190.4983260204
 21
-29.401584253
  0
LWPOLYLINE
  5
5D5
100
AcDbEntity
  8
0
100
AcDbPolyline
 62
7
  6
CONTINUOUS
 90
4
 70
0
 10
-190.5383377312
 20
-28.8051127486
 10
-190.5531236875
 20
-28.6065205914
 10
-190.5670281825
 20
-28.4077765642
 10
-190.5800512164
 20
-28.2088806669
  0
LINE
  5
5D6
100
AcDbEntity
  8
0
100
AcDbLine
 62
7
  6
CONTINUOUS
 10
-190.603265038
 20
-28.6063215671
 11
-190.5884981304
 21
-28.8048888463
  0
LWPOLYLINE
  5
5D7
100
AcDbEntity
  8
0
100
AcDbPolyline
 62
7
  6
CONTINUOUS
 90
3
 70
0
 10
-190.6301468995
 20
-28.2088806669
 10
-190.6171479611
 20
-28.407652174
 10
-190.603265038
 20
-28.6063215671
  0
LINE
  5
5D8
100
AcDbEntity
  8
0
100
AcDbLine
 62
7
  6
CONTINUOUS
 10
-190.6356193769
 20
-28.1106196683
 11
-190.6301468995
 21
-28.2088806669
  0
LINE
  5
5D9
100
AcDbEntity
  8
0
100
AcDbLine
 62
7
  6
CONTINUOUS
 10
-190.5800512164
 20
-28.2088806669
 11
-190.5902946098
 21
-28.0174420705
  0
LINE
  5
5DA
100
AcDbEntity
  8
0
100
AcDbLine
 62
7
  6
CONTINUOUS
 10
-190.6471802837
 20
-27.8782016866
 11
-190.6356193769
 21
-28.1106196683
  0
LINE
  5
5DB
100
AcDbEntity
  8
0
100
AcDbLine
 62
7
  6
CONTINUOUS
 10
-190.5902946098
 20
-28.0174420705
 11
-190.5978530357
 21
-27.8624600728
  0
LWPOLYLINE
  5
5DC
100
AcDbEntity
  8
0
100
AcDbPolyline
 62
7
  6
CONTINUOUS
 90
5
 70
0
 10
-190.6489267903
 20
-26.5411301368
 10
-190.6498072796
 20
-26.5222511964
 10
-190.6505328198
 20
-26.5094293781
 10
-190.6510918948
 20
-26.5021298677
 10
-190.651480258
 20
-26.4998531143
  0
LWPOLYLINE
  5
5DD
100
AcDbEntity
  8
RACCORDO
100
AcDbPolyline
 62
7
  6
CONTINUOUS
 90
10
 70
0
 10
-190.665924517
 20
-25.8817506297
 10
-190.6754598516
 20
-25.6696066262
 10
-190.6999787591
 20
-25.4586686845
 10
-190.739358383
 20
-25.2499937481
 10
-190.7934014044
 20
-25.044627421
 10
-190.8618370309
 20
-24.8435987291
 10
-190.9443223532
 20
-24.6479149636
 10
-191.0404440635
 20
-24.4585566339
 10
-191.1497205262
 20
-24.2764725548
 10
-191.2716041916
 20
-24.102575092
  0
LINE
  5
5DE
100
AcDbEntity
  8
0
100
AcDbLine
 62
7
  6
CONTINUOUS
 10
-190.6607073263
 20
-27.5646288644
 11
-190.6471802837
 21
-27.8782016866
  0
LINE
  5
5DF
100
AcDbEntity
  8
0
100
AcDbLine
 62
7
  6
CONTINUOUS
 10
-190.5978530357
 20
-27.8624600728
 11
-190.6106913788
 21
-27.5635282997
  0
LINE
  5
5E0
100
AcDbEntity
  8
0
100
AcDbLine
 62
7
  6
CONTINUOUS
 10
-190.6993559431
 20
-26.5320261452
 11
-190.6968345862
 21
-26.5937834765
  0
LINE
  5
5E1
100
AcDbEntity
  8
0
100
AcDbLine
 62
7
  6
CONTINUOUS
 10
-190.6106913788
 20
-27.5635282997
 11
-190.634168957
 21
-26.9436865185
  0
LWPOLYLINE
  5
5E2
100
AcDbEntity
  8
0
100
AcDbPolyline
 62
7
  6
CONTINUOUS
 90
3
 70
0
 10
-190.6435605856
 20
-26.6818913685
 10
-190.6451967336
 20
-26.6367556646
 10
-190.6489267903
 20
-26.5411301368
  0
LINE
  5
5E3
100
AcDbEntity
  8
0
100
AcDbLine
 62
7
  6
CONTINUOUS
 10
-190.6968345862
 20
-26.5937834765
 11
-190.6607073263
 21
-27.5646288644
  0
LINE
  5
5E4
100
AcDbEntity
  8
0
100
AcDbLine
 62
7
  6
CONTINUOUS
 10
-190.634168957
 20
-26.9436865185
 11
-190.6435605856
 21
-26.6818913685
  0
LINE
  5
5E5
100
AcDbEntity
  8
RACCORDO
100
AcDbLine
 62
7
  6
CONTINUOUS
 10
-190.6695434262
 20
-25.7904417218
 11
-190.6684249547
 21
-25.8235022012
  0
LINE
  5
5E6
100
AcDbEntity
  8
RACCORDO
100
AcDbLine
 62
7
  6
CONTINUOUS
 10
-190.6699967139
 20
-25.7803807577
 11
-190.6673795098
 21
-25.8822851316
  0
LINE
  5
5E7
100
AcDbEntity
  8
RACCORDO
100
AcDbLine
 62
250
  6
CONTINUOUS
 10
-191.2714947325
 20
24.0976992009
 11
-191.2716125939
 21
24.1025681183
  0
LINE
  5
5E8
100
AcDbEntity
  8
SUPERFICI
100
AcDbLine
 62
7
  6
CONTINUOUS
 10
-190.659884299
 20
-26.3784283455
 11
-190.6569840609
 21
-26.4998531129
  0
LINE
  5
5E9
100
AcDbEntity
  8
SUPERFICI
100
AcDbLine
 62
7
  6
CONTINUOUS
 10
-190.6639172759
 20
-26.1593827345
 11
-190.659884299
 21
-26.3784283455
  0
LINE
  5
5EA
100
AcDbEntity
  8
RACCORDO
100
AcDbLine
 62
7
  6
CONTINUOUS
 10
-190.6676700961
 20
-25.8566303105
 11
-190.6673372491
 21
-25.8822562884
  0
LWPOLYLINE
  5
5EB
100
AcDbEntity
  8
RACCORDO
100
AcDbPolyline
 62
250
  6
CONTINUOUS
 90
3
 70
0
 10
-190.6651568171
 20
25.8394124392
 10
-190.6655194056
 20
25.8700280754
 10
-190.6659612085
 20
25.8811687826
  0
LINE
  5
5EC
100
AcDbEntity
  8
RACCORDO
100
AcDbLine
 62
7
  6
CONTINUOUS
 10
-190.6672846512
 20
-25.8833458111
 11
-190.6672841884
 21
-25.883394618
  0
LINE
  5
5ED
100
AcDbEntity
  8
SUPERFICI
100
AcDbLine
 62
7
  6
CONTINUOUS
 10
-190.6672934453
 20
-25.8823344316
 11
-190.6639172759
 21
-26.1593827345
  0
LINE
  5
5EE
100
AcDbEntity
  8
RACCORDO
100
AcDbLine
 62
250
  6
CONTINUOUS
 10
-191.2713416321
 20
24.0551377186
 11
-191.2714947325
 21
24.0976992009
  0
LINE
  5
5EF
100
AcDbEntity
  8
RACCORDO
100
AcDbLine
 62
250
  6
CONTINUOUS
 10
-190.6647463326
 20
25.7105791469
 11
-190.6651568171
 21
25.8394124392
  0
LINE
  5
5F0
100
AcDbEntity
  8
0
100
AcDbLine
 62
7
  6
CONTINUOUS
 10
-191.4735451389
 20
23.5
 11
-191.4735451389
 21
-23.5
  0
LINE
  5
5F1
100
AcDbEntity
  8
RACCORDO
100
AcDbLine
 62
250
  6
CONTINUOUS
 10
-191.2718985045
 20
-22.7686555022
 11
-191.2718676311
 21
23.0323388327
  0
LINE
  5
5F2
100
AcDbEntity
  8
RACCORDO
100
AcDbLine
 62
250
  6
CONTINUOUS
 10
-190.6673812367
 20
7.8325084537
 11
-190.6676311677
 21
18.1438452448
  0
LINE
  5
5F3
100
AcDbEntity
  8
RACCORDO
100
AcDbLine
 62
250
  6
CONTINUOUS
 10
-190.6671902865
 20
-7.8913890154
 11
-190.6673812367
 21
7.8325084537
  0
LINE
  5
5F4
100
AcDbEntity
  8
RACCORDO
100
AcDbLine
 62
250
  6
CONTINUOUS
 10
-190.6668842173
 20
-20.9265505573
 11
-190.6671902865
 21
-7.8913890154
  0
LINE
  5
5F5
100
AcDbEntity
  8
RACCORDO
100
AcDbLine
 62
250
  6
CONTINUOUS
 10
-190.6676311677
 20
18.1438452448
 11
-190.6668879864
 21
23.81343856
  0
LINE
  5
5F6
100
AcDbEntity
  8
RACCORDO
100
AcDbLine
 62
250
  6
CONTINUOUS
 10
-191.2718676311
 20
23.0323388327
 11
-191.2713416321
 21
24.0551377186
  0
LINE
  5
5F7
100
AcDbEntity
  8
RACCORDO
100
AcDbLine
 62
250
  6
CONTINUOUS
 10
-190.6668879864
 20
23.81343856
 11
-190.6647463326
 21
25.7105791469
  0
LWPOLYLINE
  5
5F8
100
AcDbEntity
  8
RACCORDO
100
AcDbPolyline
 62
7
  6
CONTINUOUS
 90
5
 70
0
 10
-190.6672886586
 20
-25.882885359
 10
-190.6672874296
 20
-25.8825813087
 10
-190.6671643748
 20
-25.8811060072
 10
-190.6667401356
 20
-25.8788554985
 10
-190.665931336
 20
-25.8817506947
  0
LWPOLYLINE
  5
5F9
100
AcDbEntity
  8
RACCORDO
100
AcDbPolyline
 62
7
  6
CONTINUOUS
 90
11
 70
0
 10
-190.6673291293
 20
25.882271447
 10
-190.6673918696
 20
25.8758584468
 10
-190.6679605934
 20
25.8415430626
 10
-190.6689198909
 20
25.8072942772
 10
-190.6702671732
 20
25.7731271681
 10
-190.671999923
 20
25.7390460815
 10
-190.6741155797
 20
25.7050553086
 10
-190.6766106961
 20
25.6711697282
 10
-190.6794822674
 20
25.6373934892
 10
-190.6827272509
 20
25.6037306765
 10
-190.6863413634
 20
25.5701959198
  0
LINE
  5
5FA
100
AcDbEntity
  8
RACCORDO
100
AcDbLine
 62
7
  6
CONTINUOUS
 10
-190.6672714091
 20
25.8836479787
 11
-190.6672707317
 21
25.8837177569
  0
LINE
  5
5FB
100
AcDbEntity
  8
SUPERFICI
100
AcDbLine
 62
7
  6
CONTINUOUS
 10
-190.6643579801
 20
26.129588095
 11
-190.6672828318
 21
25.88233851
  0
LWPOLYLINE
  5
5FC
100
AcDbEntity
  8
RACCORDO
100
AcDbPolyline
 62
7
  6
CONTINUOUS
 90
4
 70
0
 10
-190.6672707317
 20
25.8837177569
 10
-190.6672229965
 20
25.8855822188
 10
-190.6670074149
 20
25.8851197735
 10
-190.6668167974
 20
25.8794118839
  0
LWPOLYLINE
  5
5FD
100
AcDbEntity
  8
RACCORDO
100
AcDbPolyline
 62
250
  6
CONTINUOUS
 90
5
 70
0
 10
-191.2716061895
 20
-24.1025766005
 10
-191.2715032273
 20
-24.0993465979
 10
-191.2714208395
 20
-24.0891231455
 10
-191.2713590373
 20
-24.0715726212
 10
-191.2718985045
 20
-22.7686555022
  0
LWPOLYLINE
  5
5FE
100
AcDbEntity
  8
RACCORDO
100
AcDbPolyline
 62
7
  6
CONTINUOUS
 90
10
 70
0
 10
-190.6659763117
 20
25.8811689291
 10
-190.6755432228
 20
25.6690914964
 10
-190.700084378
 20
25.4582217093
 10
-190.7394768846
 20
25.2496155252
 10
-190.7935234795
 20
25.0443175664
 10
-190.8619535174
 20
24.8433558885
 10
-190.9444243263
 20
24.6477368328
 10
-191.040522923
 20
24.4584399869
 10
-191.1497680815
 20
24.2764132788
 10
-191.2716127428
 20
24.1025682307
  0
LWPOLYLINE
  5
5FF
100
AcDbEntity
  8
RACCORDO
100
AcDbPolyline
 62
7
  6
CONTINUOUS
 90
3
 70
0
 10
-190.5900670457
 20
28.0602904191
 10
-190.5727341702
 20
28.4107761502
 10
-190.4795081734
 20
29.6520013787
  0
LWPOLYLINE
  5
600
100
AcDbEntity
  8
SUPERFICI
100
AcDbPolyline
 62
7
  6
CONTINUOUS
 90
9
 70
0
 10
-190.5945340059
 20
27.9884680627
 10
-190.6081229041
 20
27.7488467229
 10
-190.62026789
 20
27.5116999034
 10
-190.6310006092
 20
27.2768467859
 10
-190.6403555497
 20
27.0439358499
 10
-190.6483483359
 20
26.8129759241
 10
-190.6549969411
 20
26.5839163509
 10
-190.6603272536
 20
26.3563105886
 10
-190.6643520712
 20
26.1299833855
  0
LWPOLYLINE
  5
601
100
AcDbEntity
  8
DRAFT
100
AcDbPolyline
 62
7
  6
CONTINUOUS
 90
19
 70
0
 10
-188.4305581611
 20
35.5
 10
-188.4526657552
 20
35.1660763595
 10
-188.4798341622
 20
34.8373071014
 10
-188.5120633823
 20
34.5166980382
 10
-188.5500620725
 20
34.2053326151
 10
-188.5931215758
 20
33.9077577444
 10
-188.6391159207
 20
33.6312147735
 10
-188.6879893347
 20
33.3788896439
 10
-188.7397975902
 20
33.1495477849
 10
-188.792582033
 20
32.9427307484
 10
-188.8458774885
 20
32.7599172414
 10
-188.9001491311
 20
32.5998570497
 10
-188.9548338298
 20
32.4592138478
 10
-189.0102846253
 20
32.3383215245
 10
-189.0661484769
 20
32.2391936073
 10
-189.120803131
 20
32.1624605647
 10
-189.1744016996
 20
32.1087963728
 10
-189.2267910708
 20
32.0795522332
 10
-189.2588378562
 20
32.0739607483
  0
LINE
  5
602
100
AcDbEntity
  8
RACCORDO
100
AcDbLine
 62
7
  6
CONTINUOUS
 10
-190.4795081734
 20
29.6520013787
 11
-190.356035249
 21
30.8750332846
  0
LWPOLYLINE
  5
603
100
AcDbEntity
  8
RACCORDO
100
AcDbPolyline
 62
7
  6
CONTINUOUS
 90
7
 70
0
 10
-138.4648189357
 20
-26.2064316619
 10
-138.4700767163
 20
-26.2068001082
 10
-138.47533493
 20
-26.207118172
 10
-138.4805935766
 20
-26.2073858533
 10
-138.4858526563
 20
-26.2076031521
 10
-138.4911121689
 20
-26.2077700684
 10
-138.4963721146
 20
-26.2078866022
  0
LWPOLYLINE
  5
604
100
AcDbEntity
  8
RACCORDO
100
AcDbPolyline
 62
250
  6
CONTINUOUS
 90
28
 70
0
 10
-143.2822713421
 20
-25.7915009364
 10
-143.3308132997
 20
-25.7930768069
 10
-143.3806621411
 20
-25.7977076566
 10
-143.4318178661
 20
-25.8053934854
 10
-143.4846750636
 20
-25.8159722645
 10
-143.5388391447
 20
-25.8296060227
 10
-143.5931263434
 20
-25.8467808469
 10
-143.6475699175
 20
-25.8676562235
 10
-143.7021366091
 20
-25.8920726661
 10
-143.755542878
 20
-25.9200378021
 10
-143.8077377318
 20
-25.9517073577
 10
-143.8587721629
 20
-25.9869256067
 10
-143.9075156082
 20
-26.0252329977
 10
-143.953862438
 20
-26.0667474941
 10
-143.997918282
 20
-26.1113511325
 10
-144.0388694656
 20
-26.1582304709
 10
-144.0765935928
 20
-26.2074791595
 10
-144.1112130597
 20
-26.2590035481
 10
-144.14228138
 20
-26.3117092438
 10
-144.1696513993
 20
-26.3656514518
 10
-144.1934702721
 20
-26.4207749668
 10
-144.2137329748
 20
-26.4758197801
 10
-144.2302823012
 20
-26.5307572692
 10
-144.2432754577
 20
-26.5856160566
 10
-144.2531790398
 20
-26.6392220007
 10
-144.2601485794
 20
-26.6911837209
 10
-144.2640285447
 20
-26.7418925979
 10
-144.2648189357
 20
-26.7913486316
  0
LINE
  5
605
100
AcDbEntity
  8
RACCORDO
100
AcDbLine
 62
7
  6
CONTINUOUS
 10
-138.496375422
 20
-26.20788666
 11
-143.2822713421
 21
-26.291424784
  0
LINE
  5
606
100
AcDbEntity
  8
RACCORDO
100
AcDbLine
 62
250
  6
CONTINUOUS
 10
-139.1526022512
 20
-25.7194172943
 11
-143.2822713421
 21
-25.7915009364
  0
LINE
  5
607
100
AcDbEntity
  8
0
100
AcDbLine
 62
7
  6
CONTINUOUS
 10
-190.5800512164
 20
-28.2088806669
 11
-190.6301468995
 21
-28.2088806669
  0
LINE
  5
608
100
AcDbEntity
  8
RACCORDO
100
AcDbLine
 62
250
  6
CONTINUOUS
 10
-143.7735451389
 20
-26.7913486316
 11
-144.2648189357
 21
-26.7913486316
  0
LINE
  5
609
100
AcDbEntity
  8
ASSI
100
AcDbLine
 62
7
  6
CONTINUOUS
 10
-190.7014867433
 20
-26.4998531129
 11
-190.6514768585
 21
-26.4998531129
  0
LINE
  5
60A
100
AcDbEntity
  8
0
100
AcDbLine
 62
7
  6
CONTINUOUS
 10
-190.651484473
 20
-26.499855
 11
-190.7014971989
 21
-26.499855
  0
LWPOLYLINE
  5
60B
100
AcDbEntity
  8
RACCORDO
100
AcDbPolyline
 62
7
  6
CONTINUOUS
 90
3
 70
0
 10
-138.4648189357
 20
-32.1935683378
 10
-138.4308064745
 20
-32.197278214
 10
-138.3970386045
 20
-32.2028455461
  0
LWPOLYLINE
  5
60C
100
AcDbEntity
  8
DRAFT
100
AcDbPolyline
 62
7
  6
CONTINUOUS
 90
3
 70
0
 10
-188.4308039907
 20
-35.5
 10
-188.4137610753
 20
-35.8433552179
 10
-188.3999750379
 20
-36.1834790432
  0
LINE
  5
60D
100
AcDbEntity
  8
RACCORDO
100
AcDbLine
 62
250
  6
CONTINUOUS
 10
-186.3606239512
 20
-35.1196082651
 11
-186.341556626
 21
-35.4999995694
  0
LINE
  5
60E
100
AcDbEntity
  8
RACCORDO
100
AcDbLine
 62
250
  6
CONTINUOUS
 10
-188.2864903542
 20
-35.0748622898
 11
-188.2566682558
 21
-35.7247902659
  0
LINE
  5
60F
100
AcDbEntity
  8
RACCORDO
100
AcDbLine
 62
250
  6
CONTINUOUS
 10
-186.3934703402
 20
-34.3940198116
 11
-186.3606239512
 21
-35.1196082651
  0
LINE
  5
610
100
AcDbEntity
  8
RACCORDO
100
AcDbLine
 62
250
  6
CONTINUOUS
 10
-188.2566682558
 20
-35.7247902659
 11
-188.2512200302
 21
-35.8564007396
  0
LINE
  5
611
100
AcDbEntity
  8
RACCORDO
100
AcDbLine
 62
250
  6
CONTINUOUS
 10
-188.3250877253
 20
-34.1493615612
 11
-188.2864903542
 21
-35.0748622898
  0
LINE
  5
612
100
AcDbEntity
  8
RACCORDO
100
AcDbLine
 62
250
  6
CONTINUOUS
 10
-186.4282938527
 20
-33.5393089879
 11
-186.3934703402
 21
-34.3940198116
  0
LINE
  5
613
100
AcDbEntity
  8
RACCORDO
100
AcDbLine
 62
250
  6
CONTINUOUS
 10
-188.2512200302
 20
-35.8564007396
 11
-188.246032604
 21
-35.9974295832
  0
LINE
  5
614
100
AcDbEntity
  8
RACCORDO
100
AcDbLine
 62
250
  6
CONTINUOUS
 10
-188.344846624
 20
-33.6108477556
 11
-188.3250877253
 21
-34.1493615612
  0
LINE
  5
615
100
AcDbEntity
  8
RACCORDO
100
AcDbLine
 62
250
  6
CONTINUOUS
 10
-186.4415553296
 20
-33.1581092098
 11
-186.4282938527
 21
-33.5393089879
  0
LWPOLYLINE
  5
616
100
AcDbEntity
  8
DRAFT
100
AcDbPolyline
 62
7
  6
CONTINUOUS
 90
15
 70
0
 10
-188.3999750379
 20
-36.1834790432
 10
-188.3894458785
 20
-36.5169141963
 10
-188.3826907494
 20
-36.8402634005
 10
-188.3791924984
 20
-37.1502030854
 10
-188.3773996688
 20
-37.4435112877
 10
-188.3767375718
 20
-37.7171868974
 10
-188.3777808962
 20
-37.9683179034
 10
-188.3807022521
 20
-38.194136627
 10
-188.3852102588
 20
-38.3932467274
 10
-188.3915962971
 20
-38.5623312906
 10
-188.4009071191
 20
-38.6976930794
 10
-188.4132536161
 20
-38.7994460132
 10
-188.4285248968
 20
-38.8682069852
 10
-188.4474350404
 20
-38.9045655974
 10
-188.4641242585
 20
-38.9121587248
  0
LINE
  5
617
100
AcDbEntity
  8
RACCORDO
100
AcDbLine
 62
250
  6
CONTINUOUS
 10
-188.246032604
 20
-35.9974295832
 11
-188.2411988851
 21
-36.1483466075
  0
LINE
  5
618
100
AcDbEntity
  8
RACCORDO
100
AcDbLine
 62
250
  6
CONTINUOUS
 10
-186.3415569094
 20
-35.4999995694
 11
-186.3326443539
 21
-35.775979627
  0
LINE
  5
619
100
AcDbEntity
  8
RACCORDO
100
AcDbLine
 62
250
  6
CONTINUOUS
 10
-186.3326443539
 20
-35.775979627
 11
-186.3241407404
 21
-36.0822819603
  0
LINE
  5
61A
100
AcDbEntity
  8
RACCORDO
100
AcDbLine
 62
250
  6
CONTINUOUS
 10
-188.2411988851
 20
-36.1483466075
 11
-188.236808492
 21
-36.3095433137
  0
LWPOLYLINE
  5
61B
100
AcDbEntity
  8
RACCORDO
100
AcDbPolyline
 62
250
  6
CONTINUOUS
 90
3
 70
0
 10
-188.3617676299
 20
-33.0062739678
 10
-188.3568352769
 20
-33.2199449111
 10
-188.344846624
 20
-33.6108477556
  0
LINE
  5
61C
100
AcDbEntity
  8
RACCORDO
100
AcDbLine
 62
250
  6
CONTINUOUS
 10
-186.3241407404
 20
-36.0822819603
 11
-186.3163303512
 21
-36.4204419635
  0
LINE
  5
61D
100
AcDbEntity
  8
RACCORDO
100
AcDbLine
 62
250
  6
CONTINUOUS
 10
-188.236808492
 20
-36.3095433137
 11
-188.2329660042
 21
-36.4808241436
  0
LWPOLYLINE
  5
61E
100
AcDbEntity
  8
RACCORDO
100
AcDbPolyline
 62
250
  6
CONTINUOUS
 90
3
 70
0
 10
-186.4568239614
 20
-32.5404640589
 10
-186.4524936806
 20
-32.7538137198
 10
-186.4415553296
 20
-33.1581092098
  0
LINE
  5
61F
100
AcDbEntity
  8
RACCORDO
100
AcDbLine
 62
250
  6
CONTINUOUS
 10
-186.3163303512
 20
-36.4204419635
 11
-186.3116666029
 21
-36.6639656171
  0
LINE
  5
620
100
AcDbEntity
  8
RACCORDO
100
AcDbLine
 62
250
  6
CONTINUOUS
 10
-188.2329660042
 20
-36.4808241436
 11
-188.2297861415
 21
-36.6620969358
  0
LINE
  5
621
100
AcDbEntity
  8
RACCORDO
100
AcDbLine
 62
250
  6
CONTINUOUS
 10
-188.3687973093
 20
-32.5726570297
 11
-188.3617676299
 21
-33.0062739678
  0
LINE
  5
622
100
AcDbEntity
  8
RACCORDO
100
AcDbLine
 62
250
  6
CONTINUOUS
 10
-188.2297861415
 20
-36.6620969358
 11
-188.2274242324
 21
-36.8543516484
  0
LINE
  5
623
100
AcDbEntity
  8
RACCORDO
100
AcDbLine
 62
250
  6
CONTINUOUS
 10
-188.3960403733
 20
-29.5677633906
 11
-188.3747274145
 21
-31.86655807
  0
LINE
  5
624
100
AcDbEntity
  8
RACCORDO
100
AcDbLine
 62
250
  6
CONTINUOUS
 10
-188.3747274145
 20
-31.86655807
 11
-188.3687973093
 21
-32.5726570297
  0
LINE
  5
625
100
AcDbEntity
  8
RACCORDO
100
AcDbLine
 62
250
  6
CONTINUOUS
 10
-188.4022185069
 20
-28.5004437731
 11
-188.3960403733
 21
-29.5677633906
  0
LINE
  5
626
100
AcDbEntity
  8
RACCORDO
100
AcDbLine
 62
250
  6
CONTINUOUS
 10
-188.2274242324
 20
-36.8543516484
 11
-188.2253585529
 21
-37.1624042101
  0
LINE
  5
627
100
AcDbEntity
  8
RACCORDO
100
AcDbLine
 62
250
  6
CONTINUOUS
 10
-188.2221824612
 20
-38.4454439876
 11
-188.2162159805
 21
-39.3543201739
  0
LINE
  5
628
100
AcDbEntity
  8
RACCORDO
100
AcDbLine
 62
250
  6
CONTINUOUS
 10
-188.2253585529
 20
-37.1624042101
 11
-188.2221824612
 21
-38.4454439876
  0
LINE
  5
629
100
AcDbEntity
  8
RACCORDO
100
AcDbLine
 62
250
  6
CONTINUOUS
 10
-188.4062054358
 20
-26.7242167889
 11
-188.4022185069
 21
-28.5004437731
  0
LINE
  5
62A
100
AcDbEntity
  8
RACCORDO
100
AcDbLine
 62
250
  6
CONTINUOUS
 10
-188.3997481648
 20
-8.5274916223
 11
-188.3973125097
 21
-11.2973890538
  0
LINE
  5
62B
100
AcDbEntity
  8
RACCORDO
100
AcDbLine
 62
250
  6
CONTINUOUS
 10
-188.3973125097
 20
-11.2973890538
 11
-188.3967394083
 21
-14.1000634012
  0
LINE
  5
62C
100
AcDbEntity
  8
RACCORDO
100
AcDbLine
 62
250
  6
CONTINUOUS
 10
-188.3973499259
 20
13.9171163817
 11
-188.397939091
 21
11.1521290523
  0
LINE
  5
62D
100
AcDbEntity
  8
RACCORDO
100
AcDbLine
 62
250
  6
CONTINUOUS
 10
-188.4096365979
 20
1.2763342632
 11
-188.3997481648
 21
-8.5274916223
  0
LINE
  5
62E
100
AcDbEntity
  8
RACCORDO
100
AcDbLine
 62
250
  6
CONTINUOUS
 10
-188.3967394083
 20
-14.1000634012
 11
-188.3983451277
 21
-17.6507748003
  0
LINE
  5
62F
100
AcDbEntity
  8
RACCORDO
100
AcDbLine
 62
250
  6
CONTINUOUS
 10
-188.3983451277
 20
-17.6507748003
 11
-188.4062054358
 21
-26.7242167889
  0
LINE
  5
630
100
AcDbEntity
  8
RACCORDO
100
AcDbLine
 62
250
  6
CONTINUOUS
 10
-188.397939091
 20
11.1521290523
 11
-188.4053623451
 21
4.6192696177
  0
LINE
  5
631
100
AcDbEntity
  8
RACCORDO
100
AcDbLine
 62
250
  6
CONTINUOUS
 10
-188.4053623451
 20
4.6192696177
 11
-188.4096365979
 21
1.2763342632
  0
LINE
  5
632
100
AcDbEntity
  8
RACCORDO
100
AcDbLine
 62
250
  6
CONTINUOUS
 10
-188.4051332374
 20
27.8384309147
 11
-188.3973499259
 21
13.9171163817
  0
LWPOLYLINE
  5
633
100
AcDbEntity
  8
RACCORDO
100
AcDbPolyline
 62
250
  6
CONTINUOUS
 90
8
 70
0
 10
-188.2162159805
 20
-39.3543201739
 10
-188.2165288657
 20
-39.4478122321
 10
-188.2177541712
 20
-39.5335491991
 10
-188.220126078
 20
-39.6103113576
 10
-188.2247448648
 20
-39.6726833754
 10
-188.2320446402
 20
-39.7193929654
 10
-188.2418064614
 20
-39.7526003628
 10
-188.254209007
 20
-39.7721419415
  0
LINE
  5
634
100
AcDbEntity
  8
RACCORDO
100
AcDbLine
 62
250
  6
CONTINUOUS
 10
-188.2161180118
 20
39.4167293504
 11
-188.216681076
 21
39.2129239608
  0
LINE
  5
635
100
AcDbEntity
  8
RACCORDO
100
AcDbLine
 62
250
  6
CONTINUOUS
 10
-188.2220989472
 20
38.4981270742
 11
-188.2247689686
 21
37.2982283174
  0
LINE
  5
636
100
AcDbEntity
  8
RACCORDO
100
AcDbLine
 62
250
  6
CONTINUOUS
 10
-188.399777858
 20
29.102165665
 11
-188.4051332374
 21
27.8384309147
  0
LWPOLYLINE
  5
637
100
AcDbEntity
  8
DRAFT
100
AcDbPolyline
 62
7
  6
CONTINUOUS
 90
5
 70
0
 10
-188.3769517384
 20
37.7167078975
 10
-188.3793082558
 20
37.1497750081
 10
-188.3826334144
 20
36.8399486172
 10
-188.3892550373
 20
36.5167093213
 10
-188.3997262809
 20
36.1833583161
  0
LINE
  5
638
100
AcDbEntity
  8
RACCORDO
100
AcDbLine
 62
250
  6
CONTINUOUS
 10
-188.2247689686
 20
37.2982283174
 11
-188.2262564311
 21
36.976025647
  0
LWPOLYLINE
  5
639
100
AcDbEntity
  8
RACCORDO
100
AcDbPolyline
 62
250
  6
CONTINUOUS
 90
3
 70
0
 10
-188.216681076
 20
39.2129239608
 10
-188.218377306
 20
38.9870200112
 10
-188.2220989472
 20
38.4981270742
  0
LWPOLYLINE
  5
63A
100
AcDbEntity
  8
RACCORDO
100
AcDbPolyline
 62
250
  6
CONTINUOUS
 90
3
 70
0
 10
-188.3682787091
 20
32.6166978445
 10
-188.3809351435
 20
31.2628124793
 10
-188.399777858
 20
29.102165665
  0
LINE
  5
63B
100
AcDbEntity
  8
RACCORDO
100
AcDbLine
 62
250
  6
CONTINUOUS
 10
-188.2262564311
 20
36.976025647
 11
-188.2281834412
 21
36.7751048454
  0
LINE
  5
63C
100
AcDbEntity
  8
RACCORDO
100
AcDbLine
 62
250
  6
CONTINUOUS
 10
-188.2281834412
 20
36.7751048454
 11
-188.230953048
 21
36.5848713642
  0
LWPOLYLINE
  5
63D
100
AcDbEntity
  8
RACCORDO
100
AcDbPolyline
 62
250
  6
CONTINUOUS
 90
3
 70
0
 10
-188.3614119181
 20
33.022296526
 10
-188.3653731655
 20
32.8248927473
 10
-188.3682787091
 20
32.6166978445
  0
LINE
  5
63E
100
AcDbEntity
  8
RACCORDO
100
AcDbLine
 62
250
  6
CONTINUOUS
 10
-188.230953048
 20
36.5848713642
 11
-188.2344432274
 21
36.4052125567
  0
LINE
  5
63F
100
AcDbEntity
  8
RACCORDO
100
AcDbLine
 62
250
  6
CONTINUOUS
 10
-186.3112504145
 20
36.6809197753
 11
-186.3184378394
 21
36.3153465809
  0
LWPOLYLINE
  5
640
100
AcDbEntity
  8
RACCORDO
100
AcDbPolyline
 62
250
  6
CONTINUOUS
 90
5
 70
0
 10
-186.4470035253
 20
32.9720266125
 10
-186.4519212207
 20
32.7796042683
 10
-186.4557547968
 20
32.5814964458
 10
-186.4588048384
 20
32.3774871573
 10
-186.4803614262
 20
30.2211880608
  0
LINE
  5
641
100
AcDbEntity
  8
RACCORDO
100
AcDbLine
 62
250
  6
CONTINUOUS
 10
-188.2344432274
 20
36.4052125567
 11
-188.2385919388
 21
36.2363958645
  0
LINE
  5
642
100
AcDbEntity
  8
RACCORDO
100
AcDbLine
 62
250
  6
CONTINUOUS
 10
-186.3184378394
 20
36.3153465809
 11
-186.3265636266
 21
35.9831880204
  0
LINE
  5
643
100
AcDbEntity
  8
RACCORDO
100
AcDbLine
 62
250
  6
CONTINUOUS
 10
-188.3512781584
 20
33.4076772809
 11
-188.3614119181
 21
33.022296526
  0
LINE
  5
644
100
AcDbEntity
  8
RACCORDO
100
AcDbLine
 62
250
  6
CONTINUOUS
 10
-188.2385919388
 20
36.2363958645
 11
-188.243226824
 21
36.0780025155
  0
LINE
  5
645
100
AcDbEntity
  8
RACCORDO
100
AcDbLine
 62
250
  6
CONTINUOUS
 10
-186.3265636266
 20
35.9831880204
 11
-186.3352949333
 21
35.6830325153
  0
LINE
  5
646
100
AcDbEntity
  8
RACCORDO
100
AcDbLine
 62
250
  6
CONTINUOUS
 10
-186.4352784962
 20
33.3401305035
 11
-186.4470035253
 21
32.9720266125
  0
LINE
  5
647
100
AcDbEntity
  8
RACCORDO
100
AcDbLine
 62
250
  6
CONTINUOUS
 10
-186.3352949333
 20
35.6830325153
 11
-186.34134077
 21
35.4999993365
  0
LINE
  5
648
100
AcDbEntity
  8
RACCORDO
100
AcDbLine
 62
250
  6
CONTINUOUS
 10
-188.3393987232
 20
33.7643262036
 11
-188.3512781584
 21
33.4076772809
  0
LINE
  5
649
100
AcDbEntity
  8
RACCORDO
100
AcDbLine
 62
250
  6
CONTINUOUS
 10
-188.243226824
 20
36.0780025155
 11
-188.2482845765
 21
35.9297856988
  0
LINE
  5
64A
100
AcDbEntity
  8
RACCORDO
100
AcDbLine
 62
250
  6
CONTINUOUS
 10
-186.4157326481
 20
33.8562159476
 11
-186.4352784962
 21
33.3401305035
  0
LINE
  5
64B
100
AcDbEntity
  8
RACCORDO
100
AcDbLine
 62
250
  6
CONTINUOUS
 10
-188.2482845765
 20
35.9297856988
 11
-188.2536520825
 21
35.7917435453
  0
LWPOLYLINE
  5
64C
100
AcDbEntity
  8
DRAFT
100
AcDbPolyline
 62
7
  6
CONTINUOUS
 90
3
 70
0
 10
-188.3997262809
 20
36.1833583161
 10
-188.4134939889
 20
35.8433038688
 10
-188.4305581611
 20
35.5
  0
LINE
  5
64D
100
AcDbEntity
  8
RACCORDO
100
AcDbLine
 62
250
  6
CONTINUOUS
 10
-188.3143223947
 20
34.4127898245
 11
-188.3393987232
 21
33.7643262036
  0
LINE
  5
64E
100
AcDbEntity
  8
RACCORDO
100
AcDbLine
 62
250
  6
CONTINUOUS
 10
-188.2536520825
 20
35.7917435453
 11
-188.2592540732
 21
35.6630201479
  0
LINE
  5
64F
100
AcDbEntity
  8
RACCORDO
100
AcDbLine
 62
250
  6
CONTINUOUS
 10
-186.3769915203
 20
34.7589204902
 11
-186.4157326481
 21
33.8562159476
  0
LINE
  5
650
100
AcDbEntity
  8
RACCORDO
100
AcDbLine
 62
250
  6
CONTINUOUS
 10
-188.2731842327
 20
35.3665404687
 11
-188.3143223947
 21
34.4127898245
  0
LINE
  5
651
100
AcDbEntity
  8
RACCORDO
100
AcDbLine
 62
250
  6
CONTINUOUS
 10
-188.2592540732
 20
35.6630201479
 11
-188.2731842327
 21
35.3665404687
  0
LINE
  5
652
100
AcDbEntity
  8
RACCORDO
100
AcDbLine
 62
250
  6
CONTINUOUS
 10
-186.3530554999
 20
35.2695260798
 11
-186.3769915203
 21
34.7589204902
  0
LWPOLYLINE
  5
653
100
AcDbEntity
  8
RACCORDO
100
AcDbPolyline
 62
250
  6
CONTINUOUS
 90
5
 70
0
 10
-190.665931336
 20
-25.8817506947
 10
-190.6655301649
 20
-25.8737466272
 10
-190.6652044505
 20
-25.8528199297
 10
-190.6649702748
 20
-25.8188678994
 10
-190.6668842173
 20
-20.9265505573
  0
LINE
  5
654
100
AcDbEntity
  8
RACCORDO
100
AcDbLine
 62
250
  6
CONTINUOUS
 10
-186.3413404866
 20
35.4999993365
 11
-186.3530554999
 21
35.2695260798
  0
LINE
  5
655
100
AcDbEntity
  8
RACCORDO
100
AcDbLine
 62
250
  6
CONTINUOUS
 10
-137.9735451389
 20
-25.7074135063
 11
-139.1526022512
 21
-25.7194172943
  0
LWPOLYLINE
  5
656
100
AcDbEntity
  8
RACCORDO
100
AcDbPolyline
 62
7
  6
CONTINUOUS
 90
14
 70
0
 10
-138.3970386045
 20
-32.2028455461
 10
-138.3636704294
 20
-32.2102703342
 10
-138.3306876954
 20
-32.2197035279
 10
-138.2984129458
 20
-32.2309941777
 10
-138.2674673675
 20
-32.2436894342
 10
-138.2379733936
 20
-32.2578276016
 10
-138.2099804061
 20
-32.2733703758
 10
-138.1838999256
 20
-32.2897499946
 10
-138.1597753101
 20
-32.3069450499
 10
-138.137537464
 20
-32.3249769497
 10
-138.1173298452
 20
-32.3433421569
 10
-138.0991271445
 20
-32.3618728256
 10
-138.0827711398
 20
-32.3807368017
 10
-138.0681579459
 20
-32.3999340851
  0
LWPOLYLINE
  5
657
100
AcDbEntity
  8
RACCORDO
100
AcDbPolyline
 62
250
  6
CONTINUOUS
 90
4
 70
0
 10
-186.3062586804
 20
41.0831114364
 10
-186.3021018897
 20
40.9848305013
 10
-186.2992079145
 20
40.871999266
 10
-186.2974920286
 20
40.7451319474
  0
LINE
  5
658
100
AcDbEntity
  8
RACCORDO
100
AcDbLine
 62
250
  6
CONTINUOUS
 10
-186.3116666029
 20
-36.6639656171
 11
-186.3058073167
 21
-37.0567686668
  0
LINE
  5
659
100
AcDbEntity
  8
RACCORDO
100
AcDbLine
 62
250
  6
CONTINUOUS
 10
-186.4621255637
 20
-32.0887649366
 11
-186.4568239614
 21
-32.5404640589
  0
LINE
  5
65A
100
AcDbEntity
  8
RACCORDO
100
AcDbLine
 62
250
  6
CONTINUOUS
 10
-186.3058073167
 20
-37.0567686668
 11
-186.3016184496
 21
-37.4810793423
  0
LINE
  5
65B
100
AcDbEntity
  8
RACCORDO
100
AcDbLine
 62
250
  6
CONTINUOUS
 10
-186.4881804198
 20
-29.2119907718
 11
-186.4621255637
 21
-32.0887649366
  0
LINE
  5
65C
100
AcDbEntity
  8
RACCORDO
100
AcDbLine
 62
250
  6
CONTINUOUS
 10
-186.2974920286
 20
40.7451319474
 11
-186.2955264221
 21
40.4608738366
  0
LINE
  5
65D
100
AcDbEntity
  8
RACCORDO
100
AcDbLine
 62
250
  6
CONTINUOUS
 10
-186.4943019657
 20
-28.1261496347
 11
-186.4881804198
 21
-29.2119907718
  0
LINE
  5
65E
100
AcDbEntity
  8
RACCORDO
100
AcDbLine
 62
250
  6
CONTINUOUS
 10
-186.3016184496
 20
-37.4810793423
 11
-186.2984257109
 21
-38.0887629368
  0
LINE
  5
65F
100
AcDbEntity
  8
RACCORDO
100
AcDbLine
 62
250
  6
CONTINUOUS
 10
-186.2984257109
 20
-38.0887629368
 11
-186.2958843964
 21
-39.069927561
  0
LINE
  5
660
100
AcDbEntity
  8
RACCORDO
100
AcDbLine
 62
250
  6
CONTINUOUS
 10
-186.4985948078
 20
-26.0870646889
 11
-186.4943019657
 21
-28.1261496347
  0
LINE
  5
661
100
AcDbEntity
  8
RACCORDO
100
AcDbLine
 62
250
  6
CONTINUOUS
 10
-186.495917424
 20
-8.5257527428
 11
-186.493078868
 21
-11.2959304307
  0
LINE
  5
662
100
AcDbEntity
  8
RACCORDO
100
AcDbLine
 62
250
  6
CONTINUOUS
 10
-186.493078868
 20
-11.2959304307
 11
-186.4920358849
 21
-14.0977503302
  0
LINE
  5
663
100
AcDbEntity
  8
RACCORDO
100
AcDbLine
 62
250
  6
CONTINUOUS
 10
-186.50717777
 20
0.8427195783
 11
-186.495917424
 21
-8.5257527428
  0
LINE
  5
664
100
AcDbEntity
  8
RACCORDO
100
AcDbLine
 62
250
  6
CONTINUOUS
 10
-186.4920358849
 20
-14.0977503302
 11
-186.4929752841
 21
-17.6512194241
  0
LINE
  5
665
100
AcDbEntity
  8
RACCORDO
100
AcDbLine
 62
250
  6
CONTINUOUS
 10
-186.2958843964
 20
-39.069927561
 11
-186.2954295027
 21
-40.0637917353
  0
LINE
  5
666
100
AcDbEntity
  8
RACCORDO
100
AcDbLine
 62
250
  6
CONTINUOUS
 10
-186.4944035856
 20
18.2987063377
 11
-186.4939727771
 21
11.1525236732
  0
LINE
  5
667
100
AcDbEntity
  8
RACCORDO
100
AcDbLine
 62
250
  6
CONTINUOUS
 10
-186.4929752841
 20
-17.6512194241
 11
-186.4985948078
 21
-26.0870646889
  0
LINE
  5
668
100
AcDbEntity
  8
RACCORDO
100
AcDbLine
 62
250
  6
CONTINUOUS
 10
-186.4939727771
 20
11.1525236732
 11
-186.4986672127
 21
6.9473770394
  0
LINE
  5
669
100
AcDbEntity
  8
RACCORDO
100
AcDbLine
 62
250
  6
CONTINUOUS
 10
-186.4986672127
 20
6.9473770394
 11
-186.50717777
 21
0.8427195783
  0
LINE
  5
66A
100
AcDbEntity
  8
RACCORDO
100
AcDbLine
 62
250
  6
CONTINUOUS
 10
-186.4982361905
 20
27.1546237567
 11
-186.4944035856
 21
18.2987063377
  0
LINE
  5
66B
100
AcDbEntity
  8
RACCORDO
100
AcDbLine
 62
250
  6
CONTINUOUS
 10
-186.2955264221
 20
40.4608738366
 11
-186.298707796
 21
37.973209424
  0
LINE
  5
66C
100
AcDbEntity
  8
RACCORDO
100
AcDbLine
 62
250
  6
CONTINUOUS
 10
-186.2954295027
 20
-40.0637917353
 11
-186.2963203652
 21
-40.5181397491
  0
LINE
  5
66D
100
AcDbEntity
  8
RACCORDO
100
AcDbLine
 62
250
  6
CONTINUOUS
 10
-186.4935247147
 20
28.4788975737
 11
-186.4982361905
 21
27.1546237567
  0
LINE
  5
66E
100
AcDbEntity
  8
RACCORDO
100
AcDbLine
 62
250
  6
CONTINUOUS
 10
-186.298707796
 20
37.973209424
 11
-186.3012264372
 21
37.512630623
  0
LWPOLYLINE
  5
66F
100
AcDbEntity
  8
RACCORDO
100
AcDbPolyline
 62
250
  6
CONTINUOUS
 90
9
 70
0
 10
-186.2963203652
 20
-40.5181397491
 10
-186.2982201794
 20
-40.7894621002
 10
-186.3004532361
 20
-40.9111648287
 10
-186.3036410942
 20
-41.0213305853
 10
-186.30793199
 20
-41.1168966238
 10
-186.314513449
 20
-41.1948027256
 10
-186.3237813127
 20
-41.2528201943
 10
-186.3353397392
 20
-41.2890665137
 10
-186.3491887284
 20
-41.3014370206
  0
LINE
  5
670
100
AcDbEntity
  8
RACCORDO
100
AcDbLine
 62
250
  6
CONTINUOUS
 10
-186.4803614262
 20
30.2211880608
 11
-186.4935247147
 21
28.4788975737
  0
LINE
  5
671
100
AcDbEntity
  8
RACCORDO
100
AcDbLine
 62
250
  6
CONTINUOUS
 10
-186.3012264372
 20
37.512630623
 11
-186.3053966316
 21
37.0804575776
  0
LINE
  5
672
100
AcDbEntity
  8
RACCORDO
100
AcDbLine
 62
250
  6
CONTINUOUS
 10
-186.3053966316
 20
37.0804575776
 11
-186.3112504145
 21
36.6809197753
  0
LINE
  5
673
100
AcDbEntity
  8
RACCORDO
100
AcDbLine
 62
250
  6
CONTINUOUS
 10
-190.6669540164
 20
-22.1993602711
 11
-190.7002071083
 21
-22.1994884501
  0
LINE
  5
674
100
AcDbEntity
  8
RACCORDO
100
AcDbLine
 62
250
  6
CONTINUOUS
 10
-190.7002071083
 20
-22.1994884501
 11
-191.4735451389
 21
-22.2
  0
LINE
  5
675
100
AcDbEntity
  8
ASSI
100
AcDbLine
 62
7
  6
CONTINUOUS
 10
-137.9735451389
 20
-17.0
 11
-137.4735451389
 21
-17.0
  0
LWPOLYLINE
  5
676
100
AcDbEntity
  8
0
100
AcDbPolyline
 62
7
  6
CONTINUOUS
 90
3
 70
0
 43
0.3500000006
 10
-163.1878319092
 20
50.5357125549
 10
-163.2592540283
 20
50.3214280701
 10
-163.402116394
 20
50.0357169342
  0
LINE
  5
677
100
AcDbEntity
  8
0
100
AcDbLine
 62
7
  6
CONTINUOUS
 10
-137.7735451389
 20
-16.0
 11
-137.9735451389
 21
-16.0
  0
LINE
  5
678
100
AcDbEntity
  8
DRAFT
100
AcDbLine
 62
7
  6
CONTINUOUS
 10
-174.9735451389
 20
41.5
 11
-174.9735451389
 21
-41.5
  0
LINE
  5
679
100
AcDbEntity
  8
SUPERFICI
100
AcDbLine
 62
7
  6
CONTINUOUS
 10
-174.9735451389
 20
-41.5000003491
 11
-174.9735451389
 21
41.5000003491
  0
LINE
  5
67A
100
AcDbEntity
  8
ASSI
100
AcDbLine
 62
7
  6
CONTINUOUS
 10
-137.4735451389
 20
-4.8
 11
-137.7735451389
 21
-4.8
  0
LWPOLYLINE
  5
67B
100
AcDbEntity
  8
ASSI
100
AcDbPolyline
 62
7
  6
CONTINUOUS
 90
64
 70
0
 10
-164.2427745971
 20
0.0
 10
-164.2285034277
 20
-0.5630701956
 10
-164.1866254052
 20
-1.1219786937
 10
-164.1171405297
 20
-1.6767254945
 10
-164.0197392945
 20
-2.2286668418
 10
-163.8947312063
 20
-2.7764464917
 10
-163.7430447851
 20
-3.3159957121
 10
-163.564481381
 20
-3.8472532184
 10
-163.3592396439
 20
-4.3702802954
 10
-163.1288440439
 20
-4.8811920651
 10
-162.8731072823
 20
-5.3798983156
 10
-162.5922166577
 20
-5.8664892589
 10
-162.2882585358
 20
-6.3373506532
 10
-161.9610611533
 20
-6.7923653744
 10
-161.6107962736
 20
-7.2316505465
 10
-161.240065552
 20
-7.6519432999
 10
-160.8487165976
 20
-8.0531022148
 10
-160.4369018013
 20
-8.4352687109
 10
-160.0076799917
 20
-8.7956041778
 10
-159.5609215542
 20
-9.133946059
 10
-159.0967561035
 20
-9.4504569111
 10
-158.6186313119
 20
-9.7427857926
 10
-158.1264432366
 20
-10.0107526417
 10
-157.6202958205
 20
-10.2545375203
 10
-157.1039485647
 20
-10.4723296722
 10
-156.5773255199
 20
-10.6639355527
 10
-156.0405026353
 20
-10.8295487064
 10
-155.4974672597
 20
-10.967939012
 10
-154.948173134
 20
-11.078903765
 10
-154.3926665172
 20
-11.1626456698
 10
-153.8350735347
 20
-11.2185427183
 10
-153.2753786512
 20
-11.2463875745
 10
-152.713597402
 20
-11.2463875745
 10
-152.1539025185
 20
-11.2185427183
 10
-151.596309536
 20
-11.1626456698
 10
-151.0408029192
 20
-11.078903765
 10
-150.4915087935
 20
-10.967939012
 10
-149.9484734179
 20
-10.8295487064
 10
-149.4116505334
 20
-10.6639355527
 10
-148.8850274886
 20
-10.4723296722
 10
-148.3686802327
 20
-10.2545375203
 10
-147.8625328166
 20
-10.0107526417
 10
-147.3703447414
 20
-9.7427857926
 10
-146.8922199498
 20
-9.4504569111
 10
-146.428054499
 20
-9.133946059
 10
-145.9812960615
 20
-8.7956041778
 10
-145.552074252
 20
-8.4352687109
 10
-145.1402594557
 20
-8.0531022148
 10
-144.7489105012
 20
-7.6519432999
 10
-144.3781797796
 20
-7.2316505465
 10
-144.0279148999
 20
-6.7923653744
 10
-143.7007175174
 20
-6.3373506532
 10
-143.3967593955
 20
-5.8664892589
 10
-143.1158687709
 20
-5.3798983156
 10
-142.8601320093
 20
-4.8811920651
 10
-142.6297364093
 20
-4.3702802954
 10
-142.4244946722
 20
-3.8472532184
 10
-142.2459312681
 20
-3.3159957121
 10
-142.0942448469
 20
-2.7764464917
 10
-141.9692367587
 20
-2.2286668418
 10
-141.8718355235
 20
-1.6767254945
 10
-141.802350648
 20
-1.1219786937
 10
-141.7604726255
 20
-0.5630701956
 10
-141.7462014561
 20
0.0
  0
LWPOLYLINE
  5
67C
100
AcDbEntity
  8
DRAFT
100
AcDbPolyline
 62
7
  6
CONTINUOUS
 90
67
 70
0
 10
-164.4927365209
 20
0.0
 10
-164.4794678687
 20
-0.5492421577
 10
-164.4404559789
 20
-1.0947825537
 10
-164.3757008515
 20
-1.6366211883
 10
-164.2849395196
 20
-2.1759670303
 10
-164.1684349501
 20
-2.7116111107
 10
-164.0269760437
 20
-3.2399265225
 10
-163.8603935736
 20
-3.7608632301
 10
-163.6688567667
 20
-4.2744712689
 10
-163.4536622049
 20
-4.7772738381
 10
-163.2146491809
 20
-5.2691979754
 10
-162.951978402
 20
-5.7503166431
 10
-162.6674285712
 20
-6.2173719259
 10
-162.3608514631
 20
-6.6702680276
 10
-162.032395303
 20
-7.1091007444
 10
-161.6842834706
 20
-7.5308995501
 10
-161.3163823008
 20
-7.9355491921
 10
-160.9288254588
 20
-8.3231649229
 10
-160.524237319
 20
-8.6911219733
 10
-160.1025026225
 20
-9.0392866688
 10
-159.6637366283
 20
-9.3677926838
 10
-159.2109094878
 20
-9.6744162729
 10
-158.7439254931
 20
-9.9590091502
 10
-158.262880352
 20
-10.2217196014
 10
-157.7710313404
 20
-10.4607687386
 10
-157.2683053941
 20
-10.6759958773
 10
-156.7547755771
 20
-10.867561702
 10
-156.2339183577
 20
-11.0341693776
 10
-155.7056838363
 20
-11.1756496121
 10
-155.1701219124
 20
-11.2921716975
 10
-154.6308587528
 20
-11.3829466749
 10
-154.0878693346
 20
-11.4477998053
 10
-153.5411786806
 20
-11.4869058277
 10
-152.9944880266
 20
-11.5
 10
-152.4477973726
 20
-11.4869058277
 10
-151.9011067187
 20
-11.4477998053
 10
-151.3581173004
 20
-11.3829466749
 10
-150.8188541408
 20
-11.2921716975
 10
-150.283292217
 20
-11.1756496121
 10
-149.7550576956
 20
-11.0341693776
 10
-149.2342004761
 20
-10.867561702
 10
-148.7206706592
 20
-10.6759958773
 10
-148.2179447128
 20
-10.4607687386
 10
-147.7260957012
 20
-10.2217196014
 10
-147.2450505602
 20
-9.9590091502
 10
-146.7780665654
 20
-9.6744162729
 10
-146.3252394249
 20
-9.3677926838
 10
-145.8864734307
 20
-9.0392866688
 10
-145.4647387343
 20
-8.6911219733
 10
-145.0601505945
 20
-8.3231649229
 10
-144.6725937524
 20
-7.9355491921
 10
-144.3046925826
 20
-7.5308995501
 10
-143.9565807502
 20
-7.1091007444
 10
-143.6281245902
 20
-6.6702680276
 10
-143.321547482
 20
-6.2173719259
 10
-143.0369976512
 20
-5.7503166431
 10
-142.7743268723
 20
-5.2691979754
 10
-142.5353138484
 20
-4.7772738381
 10
-142.3201192865
 20
-4.2744712689
 10
-142.1285824796
 20
-3.7608632301
 10
-141.9620000095
 20
-3.2399265225
 10
-141.8205411032
 20
-2.7116111107
 10
-141.7040365336
 20
-2.1759670303
 10
-141.6132752017
 20
-1.6366211883
 10
-141.5485200743
 20
-1.0947825537
 10
-141.5095081845
 20
-0.5492421577
 10
-141.4962395323
 20
0.0
  0
LWPOLYLINE
  5
67D
100
AcDbEntity
  8
0
100
AcDbPolyline
 62
7
  6
CONTINUOUS
 90
2
 70
0
 43
0.3500000006
 10
-165.2592546387
 20
50.2500014191
 10
-165.2592546387
 20
51.7500018768
  0
LWPOLYLINE
  5
67E
100
AcDbEntity
  8
DRAFT
100
AcDbPolyline
 62
7
  6
CONTINUOUS
 90
67
 70
0
 10
-164.5032119532
 20
0.0
 10
-164.4899067332
 20
0.5507420709
 10
-164.4507885706
 20
1.0977708652
 10
-164.3858574652
 20
1.6410863828
 10
-164.2948501875
 20
2.1818993763
 10
-164.1780299671
 20
2.7189990931
 10
-164.036186493
 20
3.2487532756
 10
-163.869148718
 20
3.7711155094
 10
-163.6770876893
 20
4.286132209
 10
-163.4613062381
 20
4.7903103599
 10
-163.2216457762
 20
5.2835717608
 10
-162.9582648918
 20
5.7659946131
 10
-162.6729421802
 20
6.234320506
 10
-162.3655251308
 20
6.6884591655
 10
-162.0361662542
 20
7.1285008656
 10
-161.6871016778
 20
7.5514580174
 10
-161.3182024722
 20
7.9572092866
 10
-160.9295975667
 20
8.3458760076
 10
-160.5239098772
 20
8.7148345943
 10
-160.101017868
 20
9.0639562074
 10
-159.6610430748
 20
9.3933696862
 10
-159.2069730205
 20
9.7008379632
 10
-158.7387178456
 20
9.9862082668
 10
-158.2563674097
 20
10.2496333687
 10
-157.7631788138
 20
10.4893345158
 10
-157.2590731995
 20
10.7051533538
 10
-156.7441294253
 20
10.8972482372
 10
-156.2218411681
 20
11.064315476
 10
-155.6921626053
 20
11.2061837622
 10
-155.1551395595
 20
11.3230244038
 10
-154.6144031755
 20
11.4140476356
 10
-154.0699260554
 20
11.4790788783
 10
-153.5217355971
 20
11.518292711
 10
-152.9735451389
 20
11.5314231059
 10
-152.4253546806
 20
11.518292711
 10
-151.8771642224
 20
11.4790788783
 10
-151.3326871023
 20
11.4140476356
 10
-150.7919507183
 20
11.3230244038
 10
-150.2549276725
 20
11.2061837622
 10
-149.7252491096
 20
11.064315476
 10
-149.2029608524
 20
10.8972482372
 10
-148.6880170782
 20
10.7051533538
 10
-148.1839114639
 20
10.4893345158
 10
-147.6907228681
 20
10.2496333687
 10
-147.2083724321
 20
9.9862082668
 10
-146.7401172573
 20
9.7008379632
 10
-146.286047203
 20
9.3933696862
 10
-145.8460724098
 20
9.0639562074
 10
-145.4231804006
 20
8.7148345943
 10
-145.0174927111
 20
8.3458760076
 10
-144.6288878056
 20
7.9572092866
 10
-144.2599885999
 20
7.5514580174
 10
-143.9109240235
 20
7.1285008656
 10
-143.581565147
 20
6.6884591655
 10
-143.2741480976
 20
6.234320506
 10
-142.988825386
 20
5.7659946131
 10
-142.7254445016
 20
5.2835717608
 10
-142.4857840397
 20
4.7903103599
 10
-142.2700025885
 20
4.286132209
 10
-142.0779415598
 20
3.7711155094
 10
-141.9109037848
 20
3.2487532756
 10
-141.7690603107
 20
2.7189990931
 10
-141.6522400903
 20
2.1818993763
 10
-141.5612328125
 20
1.6410863828
 10
-141.4963017072
 20
1.0977708652
 10
-141.4571835445
 20
0.5507420709
 10
-141.4438783246
 20
0.0
  0
LWPOLYLINE
  5
67F
100
AcDbEntity
  8
DRAFT
100
AcDbPolyline
 62
7
  6
CONTINUOUS
 90
67
 70
0
 10
-164.4927365209
 20
0.0
 10
-164.4794678687
 20
0.5492421577
 10
-164.4404559789
 20
1.0947825538
 10
-164.3757008515
 20
1.6366211883
 10
-164.2849395196
 20
2.1759670303
 10
-164.1684349501
 20
2.7116111107
 10
-164.0269760437
 20
3.2399265225
 10
-163.8603935736
 20
3.7608632301
 10
-163.6688567667
 20
4.2744712689
 10
-163.4536622049
 20
4.7772738381
 10
-163.2146491809
 20
5.2691979755
 10
-162.951978402
 20
5.7503166431
 10
-162.6674285712
 20
6.2173719259
 10
-162.3608514631
 20
6.6702680276
 10
-162.032395303
 20
7.1091007444
 10
-161.6842834706
 20
7.5308995501
 10
-161.3163823008
 20
7.9355491921
 10
-160.9288254588
 20
8.3231649229
 10
-160.524237319
 20
8.6911219733
 10
-160.1025026225
 20
9.0392866688
 10
-159.6637366283
 20
9.3677926838
 10
-159.2109094878
 20
9.6744162729
 10
-158.7439254931
 20
9.9590091502
 10
-158.262880352
 20
10.2217196014
 10
-157.7710313404
 20
10.4607687386
 10
-157.2683053941
 20
10.6759958773
 10
-156.7547755771
 20
10.867561702
 10
-156.2339183577
 20
11.0341693776
 10
-155.7056838363
 20
11.1756496121
 10
-155.1701219124
 20
11.2921716975
 10
-154.6308587528
 20
11.3829466749
 10
-154.0878693346
 20
11.4477998053
 10
-153.5411786806
 20
11.4869058277
 10
-152.9944880266
 20
11.5
 10
-152.4477973726
 20
11.4869058277
 10
-151.9011067187
 20
11.4477998053
 10
-151.3581173004
 20
11.3829466749
 10
-150.8188541408
 20
11.2921716975
 10
-150.283292217
 20
11.1756496121
 10
-149.7550576956
 20
11.0341693776
 10
-149.2342004761
 20
10.867561702
 10
-148.7206706592
 20
10.6759958773
 10
-148.2179447128
 20
10.4607687386
 10
-147.7260957012
 20
10.2217196014
 10
-147.2450505602
 20
9.9590091502
 10
-146.7780665654
 20
9.6744162729
 10
-146.3252394249
 20
9.3677926838
 10
-145.8864734307
 20
9.0392866688
 10
-145.4647387343
 20
8.6911219733
 10
-145.0601505945
 20
8.3231649229
 10
-144.6725937524
 20
7.9355491921
 10
-144.3046925826
 20
7.5308995501
 10
-143.9565807502
 20
7.1091007444
 10
-143.6281245902
 20
6.6702680276
 10
-143.321547482
 20
6.2173719259
 10
-143.0369976512
 20
5.7503166431
 10
-142.7743268723
 20
5.2691979755
 10
-142.5353138484
 20
4.7772738381
 10
-142.3201192865
 20
4.2744712689
 10
-142.1285824796
 20
3.7608632301
 10
-141.9620000095
 20
3.2399265225
 10
-141.8205411032
 20
2.7116111107
 10
-141.7040365336
 20
2.1759670303
 10
-141.6132752017
 20
1.6366211883
 10
-141.5485200743
 20
1.0947825538
 10
-141.5095081845
 20
0.5492421577
 10
-141.4962395323
 20
0.0
  0
LWPOLYLINE
  5
680
100
AcDbEntity
  8
ASSI
100
AcDbPolyline
 62
7
  6
CONTINUOUS
 90
64
 70
0
 10
-164.2427745971
 20
0.0
 10
-164.2285034277
 20
0.5630701956
 10
-164.1866254052
 20
1.1219786938
 10
-164.1171405297
 20
1.6767254945
 10
-164.0197392945
 20
2.2286668418
 10
-163.8947312063
 20
2.7764464917
 10
-163.7430447851
 20
3.3159957121
 10
-163.564481381
 20
3.8472532184
 10
-163.3592396439
 20
4.3702802954
 10
-163.1288440439
 20
4.8811920651
 10
-162.8731072823
 20
5.3798983156
 10
-162.5922166577
 20
5.8664892589
 10
-162.2882585358
 20
6.3373506532
 10
-161.9610611533
 20
6.7923653744
 10
-161.6107962736
 20
7.2316505465
 10
-161.240065552
 20
7.6519432999
 10
-160.8487165976
 20
8.0531022148
 10
-160.4369018013
 20
8.4352687109
 10
-160.0076799917
 20
8.7956041778
 10
-159.5609215542
 20
9.133946059
 10
-159.0967561035
 20
9.4504569111
 10
-158.6186313119
 20
9.7427857926
 10
-158.1264432366
 20
10.0107526417
 10
-157.6202958205
 20
10.2545375203
 10
-157.1039485647
 20
10.4723296723
 10
-156.5773255199
 20
10.6639355527
 10
-156.0405026353
 20
10.8295487064
 10
-155.4974672597
 20
10.967939012
 10
-154.948173134
 20
11.078903765
 10
-154.3926665172
 20
11.1626456698
 10
-153.8350735347
 20
11.2185427183
 10
-153.2753786512
 20
11.2463875745
 10
-152.713597402
 20
11.2463875745
 10
-152.1539025185
 20
11.2185427183
 10
-151.596309536
 20
11.1626456698
 10
-151.0408029192
 20
11.078903765
 10
-150.4915087935
 20
10.967939012
 10
-149.9484734179
 20
10.8295487064
 10
-149.4116505334
 20
10.6639355527
 10
-148.8850274886
 20
10.4723296723
 10
-148.3686802327
 20
10.2545375203
 10
-147.8625328166
 20
10.0107526417
 10
-147.3703447414
 20
9.7427857926
 10
-146.8922199498
 20
9.4504569111
 10
-146.428054499
 20
9.133946059
 10
-145.9812960615
 20
8.7956041778
 10
-145.552074252
 20
8.4352687109
 10
-145.1402594557
 20
8.0531022148
 10
-144.7489105012
 20
7.6519432999
 10
-144.3781797796
 20
7.2316505465
 10
-144.0279148999
 20
6.7923653744
 10
-143.7007175174
 20
6.3373506532
 10
-143.3967593955
 20
5.8664892589
 10
-143.1158687709
 20
5.3798983156
 10
-142.8601320093
 20
4.8811920651
 10
-142.6297364093
 20
4.3702802954
 10
-142.4244946722
 20
3.8472532184
 10
-142.2459312681
 20
3.3159957121
 10
-142.0942448469
 20
2.7764464917
 10
-141.9692367587
 20
2.2286668418
 10
-141.8718355235
 20
1.6767254945
 10
-141.802350648
 20
1.1219786938
 10
-141.7604726255
 20
0.5630701956
 10
-141.7462014561
 20
0.0
  0
LINE
  5
681
100
AcDbEntity
  8
RACCORDO
100
AcDbLine
 62
250
  6
CONTINUOUS
 10
-190.6096345342
 20
0.0010197536
 11
-190.4755475024
 21
0.0017844052
  0
LINE
  5
682
100
AcDbEntity
  8
0
100
AcDbLine
 62
7
  6
CONTINUOUS
 10
-137.7735451389
 20
-2.5
 11
-137.9735451389
 21
-2.5
  0
LINE
  5
683
100
AcDbEntity
  8
0
100
AcDbLine
 62
7
  6
CONTINUOUS
 10
-137.7735451389
 20
-0.3750000596
 11
-137.9735451389
 21
-0.3750000596
  0
LINE
  5
684
100
AcDbEntity
  8
0
100
AcDbLine
 62
7
  6
CONTINUOUS
 10
-137.7735451389
 20
-0.25
 11
-137.9735451389
 21
-0.25
  0
LINE
  5
685
100
AcDbEntity
  8
RACCORDO
100
AcDbLine
 62
250
  6
CONTINUOUS
 10
-190.6666481299
 20
0.0000850782
 11
-191.271801207
 21
0.0000726963
  0
LINE
  5
686
100
AcDbEntity
  8
0
100
AcDbLine
 62
7
  6
CONTINUOUS
 10
-137.7735451389
 20
0.2500000596
 11
-137.9735451389
 21
0.2500000596
  0
LINE
  5
687
100
AcDbEntity
  8
0
100
AcDbLine
 62
7
  6
CONTINUOUS
 10
-137.7735451389
 20
0.3125
 11
-137.9735451389
 21
0.3125
  0
LINE
  5
688
100
AcDbEntity
  8
0
100
AcDbLine
 62
7
  6
CONTINUOUS
 10
-137.7735451389
 20
0.3749999404
 11
-137.9735451389
 21
0.3749999404
  0
LINE
  5
689
100
AcDbEntity
  8
RACCORDO
100
AcDbLine
 62
250
  6
CONTINUOUS
 10
-190.4755475024
 20
0.0017844052
 11
-186.5074896933
 21
0.0001785248
  0
LWPOLYLINE
  5
68A
100
AcDbEntity
  8
ASSI
100
AcDbPolyline
 62
7
  6
CONTINUOUS
 90
64
 70
0
 10
-163.530664526
 20
0.0
 10
-163.5172813405
 20
-0.5280347167
 10
-163.4780090616
 20
-1.0521666861
 10
-163.4128476895
 20
-1.5723959082
 10
-163.3215069756
 20
-2.0899942383
 10
-163.2042771684
 20
-2.6036898211
 10
-163.0620290134
 20
-3.10966709
 10
-162.8945762211
 20
-3.6078685737
 10
-162.702105081
 20
-4.0983517436
 10
-162.4860452072
 20
-4.5774734477
 10
-162.2462209552
 20
-5.0451490871
 10
-161.9828079695
 20
-5.5014632606
 10
-161.6977627974
 20
-5.9430266126
 10
-161.3909243632
 20
-6.3697293067
 10
-161.0624537426
 20
-6.7816811792
 10
-160.7147907104
 20
-7.1758223835
 10
-160.3477923575
 20
-7.5520202992
 10
-159.961601593
 20
-7.9104075467
 10
-159.5590869183
 20
-8.24832214
 10
-159.1401267836
 20
-8.5656116376
 10
-158.7048427386
 20
-8.8624284811
 10
-158.2564679341
 20
-9.1365680099
 10
-157.7949048946
 20
-9.3878613662
 10
-157.3202510955
 20
-9.6164774079
 10
-156.8360321133
 20
-9.8207180482
 10
-156.3421767247
 20
-10.0004017849
 10
-155.838756153
 20
-10.1557101203
 10
-155.3295096451
 20
-10.2854894735
 10
-154.8143938206
 20
-10.3895497529
 10
-154.29345206
 20
-10.4680810503
 10
-153.7705537519
 20
-10.5205000603
 10
-153.2456843278
 20
-10.5466123477
 10
-152.7188583564
 20
-10.5466123477
 10
-152.1939889323
 20
-10.5205000603
 10
-151.6710906243
 20
-10.4680810503
 10
-151.1501488636
 20
-10.3895497529
 10
-150.6350330391
 20
-10.2854894735
 10
-150.1257865313
 20
-10.1557101203
 10
-149.6223659595
 20
-10.0004017849
 10
-149.1285105709
 20
-9.8207180482
 10
-148.6442915887
 20
-9.6164774079
 10
-148.1696377896
 20
-9.3878613662
 10
-147.7080747502
 20
-9.1365680099
 10
-147.2596999456
 20
-8.8624284811
 10
-146.8244159007
 20
-8.5656116376
 10
-146.4054557659
 20
-8.24832214
 10
-146.0029410912
 20
-7.9104075467
 10
-145.6167503267
 20
-7.5520202992
 10
-145.2497519739
 20
-7.1758223835
 10
-144.9020889416
 20
-6.7816811792
 10
-144.573618321
 20
-6.3697293067
 10
-144.2667798868
 20
-5.9430266126
 10
-143.9817347148
 20
-5.5014632606
 10
-143.718321729
 20
-5.0451490871
 10
-143.478497477
 20
-4.5774734477
 10
-143.2624376032
 20
-4.0983517436
 10
-143.0699664631
 20
-3.6078685737
 10
-142.9025136708
 20
-3.10966709
 10
-142.7602655158
 20
-2.6036898211
 10
-142.6430357086
 20
-2.0899942383
 10
-142.5516949947
 20
-1.5723959082
 10
-142.4865336226
 20
-1.0521666861
 10
-142.4472613438
 20
-0.5280347167
 10
-142.4338781582
 20
0.0
  0
LWPOLYLINE
  5
68B
100
AcDbEntity
  8
ASSI
100
AcDbPolyline
 62
7
  6
CONTINUOUS
 90
64
 70
0
 10
-163.530664526
 20
0.0
 10
-163.5172813405
 20
0.5280347168
 10
-163.4780090616
 20
1.0521666861
 10
-163.4128476895
 20
1.5723959082
 10
-163.3215069756
 20
2.0899942383
 10
-163.2042771684
 20
2.6036898211
 10
-163.0620290134
 20
3.10966709
 10
-162.8945762211
 20
3.6078685737
 10
-162.702105081
 20
4.0983517437
 10
-162.4860452072
 20
4.5774734477
 10
-162.2462209552
 20
5.0451490871
 10
-161.9828079695
 20
5.5014632606
 10
-161.6977627974
 20
5.9430266126
 10
-161.3909243632
 20
6.3697293067
 10
-161.0624537426
 20
6.7816811792
 10
-160.7147907104
 20
7.1758223835
 10
-160.3477923575
 20
7.5520202992
 10
-159.961601593
 20
7.9104075467
 10
-159.5590869183
 20
8.24832214
 10
-159.1401267836
 20
8.5656116376
 10
-158.7048427386
 20
8.8624284811
 10
-158.2564679341
 20
9.1365680099
 10
-157.7949048946
 20
9.3878613662
 10
-157.3202510955
 20
9.6164774079
 10
-156.8360321133
 20
9.8207180482
 10
-156.3421767247
 20
10.000401785
 10
-155.838756153
 20
10.1557101203
 10
-155.3295096451
 20
10.2854894735
 10
-154.8143938206
 20
10.389549753
 10
-154.29345206
 20
10.4680810503
 10
-153.7705537519
 20
10.5205000603
 10
-153.2456843278
 20
10.5466123477
 10
-152.7188583564
 20
10.5466123477
 10
-152.1939889323
 20
10.5205000603
 10
-151.6710906243
 20
10.4680810503
 10
-151.1501488636
 20
10.389549753
 10
-150.6350330391
 20
10.2854894735
 10
-150.1257865313
 20
10.1557101203
 10
-149.6223659595
 20
10.000401785
 10
-149.1285105709
 20
9.8207180482
 10
-148.6442915887
 20
9.6164774079
 10
-148.1696377896
 20
9.3878613662
 10
-147.7080747502
 20
9.1365680099
 10
-147.2596999456
 20
8.8624284811
 10
-146.8244159007
 20
8.5656116376
 10
-146.4054557659
 20
8.24832214
 10
-146.0029410912
 20
7.9104075467
 10
-145.6167503267
 20
7.5520202992
 10
-145.2497519739
 20
7.1758223835
 10
-144.9020889416
 20
6.7816811792
 10
-144.573618321
 20
6.3697293067
 10
-144.2667798868
 20
5.9430266126
 10
-143.9817347148
 20
5.5014632606
 10
-143.718321729
 20
5.0451490871
 10
-143.478497477
 20
4.5774734477
 10
-143.2624376032
 20
4.0983517437
 10
-143.0699664631
 20
3.6078685737
 10
-142.9025136708
 20
3.10966709
 10
-142.7602655158
 20
2.6036898211
 10
-142.6430357086
 20
2.0899942383
 10
-142.5516949947
 20
1.5723959082
 10
-142.4865336226
 20
1.0521666861
 10
-142.4472613438
 20
0.5280347168
 10
-142.4338781582
 20
0.0
  0
LWPOLYLINE
  5
68C
100
AcDbEntity
  8
RACCORDO
100
AcDbPolyline
 62
250
  6
CONTINUOUS
 90
3
 70
0
 10
-190.6666478949
 20
0.0001587231
 10
-190.6478315011
 20
0.0005590744
 10
-190.6096345342
 20
0.0010197536
  0
LINE
  5
68D
100
AcDbEntity
  8
0
100
AcDbLine
 62
7
  6
CONTINUOUS
 10
-137.7735451389
 20
0.6249998808
 11
-137.9735451389
 21
0.6249998808
  0
LINE
  5
68E
100
AcDbEntity
  8
0
100
AcDbLine
 62
7
  6
CONTINUOUS
 10
-137.7735451389
 20
0.875
 11
-137.9735451389
 21
0.875
  0
LINE
  5
68F
100
AcDbEntity
  8
0
100
AcDbLine
 62
7
  6
CONTINUOUS
 10
-137.7735451389
 20
1.3125001192
 11
-137.9735451389
 21
1.3125001192
  0
LINE
  5
690
100
AcDbEntity
  8
0
100
AcDbLine
 62
7
  6
CONTINUOUS
 10
-137.7735451389
 20
1.4375
 11
-137.9735451389
 21
1.4375
  0
LINE
  5
691
100
AcDbEntity
  8
0
100
AcDbLine
 62
7
  6
CONTINUOUS
 10
-137.7735451389
 20
1.8750001192
 11
-137.9735451389
 21
1.8750001192
  0
LINE
  5
692
100
AcDbEntity
  8
0
100
AcDbLine
 62
7
  6
CONTINUOUS
 10
-137.7735451389
 20
2.1249998808
 11
-137.9735451389
 21
2.1249998808
  0
LINE
  5
693
100
AcDbEntity
  8
0
100
AcDbLine
 62
7
  6
CONTINUOUS
 10
-137.7735451389
 20
2.375
 11
-137.9735451389
 21
2.375
  0
LINE
  5
694
100
AcDbEntity
  8
0
100
AcDbLine
 62
7
  6
CONTINUOUS
 10
-137.7735451389
 20
2.4375001192
 11
-137.9735451389
 21
2.4375001192
  0
LINE
  5
695
100
AcDbEntity
  8
0
100
AcDbLine
 62
7
  6
CONTINUOUS
 10
-137.7735451389
 20
2.4999998808
 11
-137.9735451389
 21
2.4999998808
  0
LINE
  5
696
100
AcDbEntity
  8
ASSI
100
AcDbLine
 62
7
  6
CONTINUOUS
 10
-137.4735451389
 20
4.8
 11
-137.7735451389
 21
4.8
  0
LWPOLYLINE
  5
697
100
AcDbEntity
  8
RACCORDO
100
AcDbPolyline
 62
250
  6
CONTINUOUS
 90
8
 70
0
 10
-188.2541347487
 20
39.7722262789
 10
-188.2435437101
 20
39.7599485233
 10
-188.2348108516
 20
39.735608532
 10
-188.2278535652
 20
39.6987600077
 10
-188.2227309151
 20
39.6471230083
 10
-188.2192819777
 20
39.5809535548
 10
-188.2170856355
 20
39.5041238523
 10
-188.2161180118
 20
39.4167293504
  0
LWPOLYLINE
  5
698
100
AcDbEntity
  8
RACCORDO
100
AcDbPolyline
 62
250
  6
CONTINUOUS
 90
7
 70
0
 10
-143.2822713421
 20
-32.108575216
 10
-143.281407444
 20
-32.1113287036
 10
-143.2806485763
 20
-32.1195271835
 10
-143.2800030502
 20
-32.133080866
 10
-143.2794779354
 20
-32.1518413118
 10
-143.2790789829
 20
-32.1756030572
 10
-143.2788105621
 20
-32.2041058643
  0
LINE
  5
699
100
AcDbEntity
  8
0
100
AcDbLine
 62
7
  6
CONTINUOUS
 10
-137.7735451389
 20
16.0
 11
-137.9735451389
 21
16.0
  0
LWPOLYLINE
  5
69A
100
AcDbEntity
  8
RACCORDO
100
AcDbPolyline
 62
250
  6
CONTINUOUS
 90
7
 70
0
 10
-139.1526022512
 20
-32.1806588581
 10
-139.1517383694
 20
-32.1834122763
 10
-139.150979513
 20
-32.1916105718
 10
-139.1503339935
 20
-32.2051639917
 10
-139.1498088812
 20
-32.2239241349
 10
-139.1494099279
 20
-32.2476855739
 10
-139.1491415037
 20
-32.2761881013
  0
LWPOLYLINE
  5
69B
100
AcDbEntity
  8
RACCORDO
100
AcDbPolyline
 62
250
  6
CONTINUOUS
 90
28
 70
0
 10
-144.2648189357
 20
-31.6086513684
 10
-144.2640263152
 20
-31.6581294467
 10
-144.2601437019
 20
-31.7088554866
 10
-144.2531710959
 20
-31.7608294881
 10
-144.2432634949
 20
-31.8144422677
 10
-144.2302659012
 20
-31.8693030089
 10
-144.2137133211
 20
-31.9242392621
 10
-144.1934488462
 20
-31.979279555
 10
-144.169629385
 20
-32.0343953599
 10
-144.1422606696
 20
-32.0883286444
 10
-144.1111958776
 20
-32.1410242815
 10
-144.0765818314
 20
-32.1925373981
 10
-144.0388647301
 20
-32.2417753419
 10
-143.9979225321
 20
-32.2886446267
 10
-143.953877279
 20
-32.3332387386
 10
-143.9075412949
 20
-32.3747454837
 10
-143.8588091273
 20
-32.4130472524
 10
-143.8077862286
 20
-32.4482616543
 10
-143.7556012807
 20
-32.4799293243
 10
-143.7022033239
 20
-32.5078948915
 10
-143.6476433178
 20
-32.5323137269
 10
-143.5932028231
 20
-32.5531925786
 10
-143.5389150033
 20
-32.5703722321
 10
-143.4847466949
 20
-32.5840119019
 10
-143.4318799676
 20
-32.5945959807
 10
-143.3807088447
 20
-32.6022859327
 10
-143.3308393029
 20
-32.6069202937
 10
-143.2822713421
 20
-32.6084990636
  0
LINE
  5
69C
100
AcDbEntity
  8
RACCORDO
100
AcDbLine
 62
250
  6
CONTINUOUS
 10
-144.2648189357
 20
-26.7913486316
 11
-144.2648189357
 21
-31.6086513684
  0
LINE
  5
69D
100
AcDbEntity
  8
ASSI
100
AcDbLine
 62
7
  6
CONTINUOUS
 10
-137.9735451389
 20
17.0
 11
-137.4735451389
 21
17.0
  0
LINE
  5
69E
100
AcDbEntity
  8
RACCORDO
100
AcDbLine
 62
250
  6
CONTINUOUS
 10
-143.2800030477
 20
-25.9459571567
 11
-143.2822713421
 21
-25.7915009364
  0
LINE
  5
69F
100
AcDbEntity
  8
RACCORDO
100
AcDbLine
 62
250
  6
CONTINUOUS
 10
-143.279078981
 20
-26.0414191736
 11
-143.2800030477
 21
-25.9459571567
  0
LINE
  5
6A0
100
AcDbEntity
  8
RACCORDO
100
AcDbLine
 62
250
  6
CONTINUOUS
 10
-143.2786756123
 20
-26.1259627284
 11
-143.279078981
 21
-26.0414191736
  0
LINE
  5
6A1
100
AcDbEntity
  8
RACCORDO
100
AcDbLine
 62
7
  6
CONTINUOUS
 10
-143.7735451389
 20
-26.7913486316
 11
-143.7735451389
 21
-31.6086513684
  0
LINE
  5
6A2
100
AcDbEntity
  8
RACCORDO
100
AcDbLine
 62
250
  6
CONTINUOUS
 10
-143.2788105621
 20
-32.2041058643
 11
-143.2786756128
 21
-32.2740375116
  0
LINE
  5
6A3
100
AcDbEntity
  8
RACCORDO
100
AcDbLine
 62
250
  6
CONTINUOUS
 10
-143.2786756128
 20
-32.2740375116
 11
-143.2790789829
 21
-32.3585810861
  0
LINE
  5
6A4
100
AcDbEntity
  8
RACCORDO
100
AcDbLine
 62
250
  6
CONTINUOUS
 10
-143.2790789829
 20
-32.3585810861
 11
-143.2806485763
 21
-32.5045789054
  0
LINE
  5
6A5
100
AcDbEntity
  8
RACCORDO
100
AcDbLine
 62
250
  6
CONTINUOUS
 10
-143.2806485763
 20
-32.5045789054
 11
-143.2822713421
 21
-32.6084990636
  0
LWPOLYLINE
  5
6A6
100
AcDbEntity
  8
DRAFT
100
AcDbPolyline
 62
7
  6
CONTINUOUS
 90
67
 70
0
 10
-141.4438783246
 20
0.0
 10
-141.4571835445
 20
-0.5507420709
 10
-141.4963017072
 20
-1.0977708652
 10
-141.5612328125
 20
-1.6410863828
 10
-141.6522400903
 20
-2.1818993763
 10
-141.7690603107
 20
-2.7189990931
 10
-141.9109037848
 20
-3.2487532756
 10
-142.0779415598
 20
-3.7711155094
 10
-142.2700025885
 20
-4.286132209
 10
-142.4857840397
 20
-4.7903103598
 10
-142.7254445016
 20
-5.2835717608
 10
-142.988825386
 20
-5.7659946131
 10
-143.2741480976
 20
-6.234320506
 10
-143.581565147
 20
-6.6884591655
 10
-143.9109240235
 20
-7.1285008656
 10
-144.2599885999
 20
-7.5514580174
 10
-144.6288878056
 20
-7.9572092866
 10
-145.0174927111
 20
-8.3458760076
 10
-145.4231804006
 20
-8.7148345943
 10
-145.8460724098
 20
-9.0639562074
 10
-146.286047203
 20
-9.3933696862
 10
-146.7401172573
 20
-9.7008379632
 10
-147.2083724321
 20
-9.9862082668
 10
-147.6907228681
 20
-10.2496333686
 10
-148.1839114639
 20
-10.4893345158
 10
-148.6880170782
 20
-10.7051533538
 10
-149.2029608524
 20
-10.8972482371
 10
-149.7252491096
 20
-11.064315476
 10
-150.2549276725
 20
-11.2061837622
 10
-150.7919507183
 20
-11.3230244038
 10
-151.3326871023
 20
-11.4140476356
 10
-151.8771642224
 20
-11.4790788783
 10
-152.4253546806
 20
-11.518292711
 10
-152.9735451389
 20
-11.5314231059
 10
-153.5217355971
 20
-11.518292711
 10
-154.0699260554
 20
-11.4790788783
 10
-154.6144031755
 20
-11.4140476356
 10
-155.1551395595
 20
-11.3230244038
 10
-155.6921626053
 20
-11.2061837622
 10
-156.2218411681
 20
-11.064315476
 10
-156.7441294253
 20
-10.8972482371
 10
-157.2590731995
 20
-10.7051533538
 10
-157.7631788138
 20
-10.4893345158
 10
-158.2563674097
 20
-10.2496333686
 10
-158.7387178456
 20
-9.9862082668
 10
-159.2069730205
 20
-9.7008379632
 10
-159.6610430748
 20
-9.3933696862
 10
-160.101017868
 20
-9.0639562074
 10
-160.5239098772
 20
-8.7148345943
 10
-160.9295975667
 20
-8.3458760076
 10
-161.3182024722
 20
-7.9572092866
 10
-161.6871016778
 20
-7.5514580174
 10
-162.0361662542
 20
-7.1285008656
 10
-162.3655251308
 20
-6.6884591655
 10
-162.6729421802
 20
-6.234320506
 10
-162.9582648918
 20
-5.7659946131
 10
-163.2216457762
 20
-5.2835717608
 10
-163.4613062381
 20
-4.7903103598
 10
-163.6770876893
 20
-4.286132209
 10
-163.869148718
 20
-3.7711155094
 10
-164.036186493
 20
-3.2487532756
 10
-164.1780299671
 20
-2.7189990931
 10
-164.2948501875
 20
-2.1818993763
 10
-164.3858574652
 20
-1.6410863828
 10
-164.4507885706
 20
-1.0977708652
 10
-164.4899067332
 20
-0.5507420709
 10
-164.5032119532
 20
0.0
  0
LWPOLYLINE
  5
6A7
100
AcDbEntity
  8
RACCORDO
100
AcDbPolyline
 62
250
  6
CONTINUOUS
 90
31
 70
0
 10
-188.254209007
 20
-39.7721419415
 10
-188.2693820849
 20
-39.7811932542
 10
-188.283096963
 20
-39.789872474
 10
-188.2957063984
 20
-39.7972774611
 10
-188.3069446183
 20
-39.8043192503
 10
-188.3170351178
 20
-39.810979401
 10
-188.3269891562
 20
-39.815063425
 10
-188.3364960924
 20
-39.8175381022
 10
-188.3451980399
 20
-39.8203151663
 10
-188.3540134949
 20
-39.8221494806
 10
-188.3630272959
 20
-39.8230520566
 10
-188.3717348799
 20
-39.8240794591
 10
-188.3801138312
 20
-39.8253708356
 10
-188.3882114129
 20
-39.8268766731
 10
-188.3958868785
 20
-39.8284173504
 10
-188.4028437692
 20
-39.8301141326
 10
-188.4089739891
 20
-39.8322955096
 10
-188.4143179409
 20
-39.8348933967
 10
-188.4188555379
 20
-39.8376366624
 10
-188.4225491955
 20
-39.8407120637
 10
-188.4254699545
 20
-39.8441143186
 10
-188.4277915895
 20
-39.8473730435
 10
-188.4295426114
 20
-39.8506023378
 10
-188.4307378555
 20
-39.8539801499
 10
-188.431540165
 20
-39.8571458496
 10
-188.4319750025
 20
-39.8601910333
 10
-188.4320631299
 20
-39.8632203818
 10
-188.4319594366
 20
-39.8658804649
 10
-188.431682552
 20
-39.8682584743
 10
-188.4312528252
 20
-39.8704295359
 10
-188.4308897367
 20
-39.871810023
  0
LWPOLYLINE
  5
6A8
100
AcDbEntity
  8
RACCORDO
100
AcDbPolyline
 62
250
  6
CONTINUOUS
 90
3
 70
0
 10
-190.6670801605
 20
22.1990749558
 10
-190.6761143095
 20
22.1991632159
 10
-191.4735451389
 20
22.2
  0
LWPOLYLINE
  5
6A9
100
AcDbEntity
  8
RACCORDO
100
AcDbPolyline
 62
250
  6
CONTINUOUS
 90
6
 70
0
 10
-186.3491267324
 20
41.3014381028
 10
-186.3373411352
 20
41.2935557256
 10
-186.3271347875
 20
41.2688583256
 10
-186.3185076891
 20
41.2264556144
 10
-186.3115935601
 20
41.1646690108
 10
-186.3062586804
 20
41.0831114364
  0
LWPOLYLINE
  5
6AA
100
AcDbEntity
  8
0
100
AcDbPolyline
 62
7
  6
CONTINUOUS
 90
10
 70
0
 43
0.3500000006
 10
-163.2592540283
 20
50.7500015717
 10
-163.1878319092
 20
50.6071437378
 10
-163.1878319092
 20
50.5357125549
 10
-163.3306942749
 20
50.3928592529
 10
-163.402116394
 20
50.3928592529
 10
-163.4735385132
 20
50.4642859039
 10
-163.4735385132
 20
50.5357125549
 10
-163.402116394
 20
50.6785703888
 10
-163.3306942749
 20
50.7500015717
 10
-163.2592540283
 20
50.7500015717
  0
LINE
  5
6AB
100
AcDbEntity
  8
RACCORDO
100
AcDbLine
 62
250
  6
CONTINUOUS
 10
-139.1503339582
 20
-25.8738733025
 11
-139.1526022512
 21
-25.7194172943
  0
LINE
  5
6AC
100
AcDbEntity
  8
RACCORDO
100
AcDbLine
 62
250
  6
CONTINUOUS
 10
-139.1494098911
 20
-25.9693352718
 11
-139.1503339582
 21
-25.8738733025
  0
LINE
  5
6AD
100
AcDbEntity
  8
RACCORDO
100
AcDbLine
 62
250
  6
CONTINUOUS
 10
-139.1490065212
 20
-26.0538788463
 11
-139.1494098911
 21
-25.9693352718
  0
LINE
  5
6AE
100
AcDbEntity
  8
RACCORDO
100
AcDbLine
 62
250
  6
CONTINUOUS
 10
-139.1526022512
 20
35.5
 11
-139.1526022512
 21
-25.7194172943
  0
LINE
  5
6AF
100
AcDbEntity
  8
0
100
AcDbLine
 62
250
  6
CONTINUOUS
 10
-139.1526022512
 20
-40.8747431161
 11
-139.1526022512
 21
-35.5
  0
LINE
  5
6B0
100
AcDbEntity
  8
RACCORDO
100
AcDbLine
 62
250
  6
CONTINUOUS
 10
-139.1526022512
 20
-32.6805827057
 11
-139.1526022512
 21
-35.5
  0
LINE
  5
6B1
100
AcDbEntity
  8
0
100
AcDbLine
 62
250
  6
CONTINUOUS
 10
-139.1526022512
 20
35.5
 11
-139.1526022512
 21
40.8747431161
  0
LINE
  5
6B2
100
AcDbEntity
  8
RACCORDO
100
AcDbLine
 62
250
  6
CONTINUOUS
 10
-139.1491415037
 20
-32.2761881013
 11
-139.1490065424
 21
-32.3461193913
  0
LINE
  5
6B3
100
AcDbEntity
  8
RACCORDO
100
AcDbLine
 62
250
  6
CONTINUOUS
 10
-138.4648189357
 20
-26.2064316619
 11
-138.4648189357
 21
-32.1935683378
  0
LINE
  5
6B4
100
AcDbEntity
  8
0
100
AcDbLine
 62
7
  6
CONTINUOUS
 10
-138.0117013088
 20
-33.7248759926
 11
-138.0117013088
 21
-39.9751240074
  0
LINE
  5
6B5
100
AcDbEntity
  8
0
100
AcDbLine
 62
7
  6
CONTINUOUS
 10
-138.0117013088
 20
33.7248759926
 11
-138.0117013088
 21
39.9751240074
  0
LINE
  5
6B6
100
AcDbEntity
  8
0
100
AcDbLine
 62
7
  6
CONTINUOUS
 10
-137.9735451389
 20
39.6749258819
 11
-137.9735451389
 21
35.5
  0
LINE
  5
6B7
100
AcDbEntity
  8
DRAFT
100
AcDbLine
 62
7
  6
CONTINUOUS
 10
-137.9735451389
 20
35.5
 11
-137.9735451389
 21
33.7248759926
  0
LINE
  5
6B8
100
AcDbEntity
  8
0
100
AcDbLine
 62
7
  6
CONTINUOUS
 10
-137.9735451389
 20
33.7242099741
 11
-137.9735451389
 21
-25.7074135063
  0
LINE
  5
6B9
100
AcDbEntity
  8
RACCORDO
100
AcDbLine
 62
7
  6
CONTINUOUS
 10
-137.9735451389
 20
33.7242099741
 11
-137.9735451389
 21
-33.7242099741
  0
LINE
  5
6BA
100
AcDbEntity
  8
0
100
AcDbLine
 62
7
  6
CONTINUOUS
 10
-137.9735451389
 20
-32.6925864934
 11
-137.9735451389
 21
-33.7242099741
  0
LINE
  5
6BB
100
AcDbEntity
  8
DRAFT
100
AcDbLine
 62
7
  6
CONTINUOUS
 10
-137.9735451389
 20
-33.7242099741
 11
-137.9735451389
 21
-35.5
  0
LINE
  5
6BC
100
AcDbEntity
  8
0
100
AcDbLine
 62
7
  6
CONTINUOUS
 10
-137.9735451389
 20
-35.5
 11
-137.9735451389
 21
-39.6749258819
  0
LINE
  5
6BD
100
AcDbEntity
  8
0
100
AcDbLine
 62
7
  6
CONTINUOUS
 10
-137.7735451389
 20
-16.0
 11
-137.7735451389
 21
16.0
  0
LINE
  5
6BE
100
AcDbEntity
  8
RACCORDO
100
AcDbLine
 62
250
  6
CONTINUOUS
 10
-137.4735451389
 20
36.0
 11
-137.4735451389
 21
17.0
  0
LINE
  5
6BF
100
AcDbEntity
  8
RACCORDO
100
AcDbLine
 62
250
  6
CONTINUOUS
 10
-137.4735451389
 20
4.8
 11
-137.4735451389
 21
-4.8
  0
LINE
  5
6C0
100
AcDbEntity
  8
RACCORDO
100
AcDbLine
 62
250
  6
CONTINUOUS
 10
-137.4735451389
 20
-17.0
 11
-137.4735451389
 21
-36.0
  0
LINE
  5
6C1
100
AcDbEntity
  8
RACCORDO
100
AcDbLine
 62
250
  6
CONTINUOUS
 10
-139.1490065424
 20
-32.3461193913
 11
-139.1494098992
 21
-32.4306629841
  0
LINE
  5
6C2
100
AcDbEntity
  8
RACCORDO
100
AcDbLine
 62
250
  6
CONTINUOUS
 10
-139.1494098992
 20
-32.4306629841
 11
-139.1509794811
 21
-32.5766616073
  0
LINE
  5
6C3
100
AcDbEntity
  8
RACCORDO
100
AcDbLine
 62
250
  6
CONTINUOUS
 10
-139.1509794811
 20
-32.5766616073
 11
-139.1526022488
 21
-32.6805827058
  0
LWPOLYLINE
  5
6C4
100
AcDbEntity
  8
DRAFT
100
AcDbPolyline
 62
7
  6
CONTINUOUS
 90
10
 70
0
 10
-188.4639718329
 20
38.9121561146
 10
-188.4470632797
 20
38.9043973497
 10
-188.4280501529
 20
38.8678330648
 10
-188.4126514582
 20
38.7989172894
 10
-188.4002778411
 20
38.697073992
 10
-188.3911315159
 20
38.5617089955
 10
-188.3850102684
 20
38.3927089541
 10
-188.3807181019
 20
38.1936927139
 10
-188.3779203796
 20
37.9678859224
 10
-188.3769517384
 20
37.7167078975
  0
LINE
  5
6C5
100
AcDbEntity
  8
RACCORDO
100
AcDbLine
 62
7
  6
CONTINUOUS
 10
-136.9735451389
 20
35.4999998651
 11
-136.9735451389
 21
17.5000001349
  0
LINE
  5
6C6
100
AcDbEntity
  8
RACCORDO
100
AcDbLine
 62
7
  6
CONTINUOUS
 10
-136.9735451389
 20
4.2999987698
 11
-136.9735451389
 21
-4.2999987697
  0
LINE
  5
6C7
100
AcDbEntity
  8
RACCORDO
100
AcDbLine
 62
7
  6
CONTINUOUS
 10
-136.9735451389
 20
-17.5000001349
 11
-136.9735451389
 21
-35.4999998651
  0
LWPOLYLINE
  5
6C8
100
AcDbEntity
  8
RACCORDO
100
AcDbPolyline
 62
250
  6
CONTINUOUS
 90
8
 70
0
 10
-143.2822713421
 20
-26.291424784
 10
-143.281407445
 20
-26.2886713034
 10
-143.280648578
 20
-26.2804728429
 10
-143.2800030522
 20
-26.2669191895
 10
-143.2794779374
 20
-26.2481587804
 10
-143.2790789846
 20
-26.2243970762
 10
-143.2788105633
 20
-26.1958943098
 10
-143.2786756123
 20
-26.1259627284
  0
LWPOLYLINE
  5
6C9
100
AcDbEntity
  8
DRAFT
100
AcDbPolyline
 62
7
  6
CONTINUOUS
 90
23
 70
0
 10
-189.2588378562
 20
32.0739607483
 10
-189.2758896555
 20
32.0752480465
 10
-189.3214249011
 20
32.095343711
 10
-189.3636693602
 20
32.1390387958
 10
-189.4013591016
 20
32.2029777987
 10
-189.4337931747
 20
32.2827254674
 10
-189.46167253
 20
32.3761214897
 10
-189.4858360877
 20
32.4819148674
 10
-189.5063822084
 20
32.5973604128
 10
-189.5232125315
 20
32.7210411677
 10
-189.5368708954
 20
32.8556387685
 10
-189.5477182127
 20
33.0008218694
 10
-189.5553935709
 20
33.1554879379
 10
-189.559358071
 20
33.3229930315
 10
-189.5598713246
 20
33.5033761851
 10
-189.55667372
 20
33.6961569145
 10
-189.5484475232
 20
33.9049684858
 10
-189.5351635768
 20
34.1303003546
 10
-189.5168510382
 20
34.3711904844
 10
-189.4922796445
 20
34.629427852
 10
-189.4610393084
 20
34.9049919122
 10
-189.4235401172
 20
35.195777958
 10
-189.379782071
 20
35.5
  0
LWPOLYLINE
  5
6CA
100
AcDbEntity
  8
RACCORDO
100
AcDbPolyline
 62
250
  6
CONTINUOUS
 90
8
 70
0
 10
-139.1526022512
 20
-26.2193411419
 10
-139.151738353
 20
-26.2165876542
 10
-139.1509794853
 20
-26.2083891744
 10
-139.1503339591
 20
-26.1948354919
 10
-139.1498088443
 20
-26.1760750461
 10
-139.1494098917
 20
-26.1523133007
 10
-139.1491414708
 20
-26.1238104936
 10
-139.1490065212
 20
-26.0538788463
  0
LWPOLYLINE
  5
6CB
100
AcDbEntity
  8
RACCORDO
100
AcDbPolyline
 62
7
  6
CONTINUOUS
 90
16
 70
0
 10
-138.0681579453
 20
-26.0000659117
 10
-138.0831288739
 20
-26.0196774099
 10
-138.0998146851
 20
-26.0388551022
 10
-138.1183062802
 20
-26.0575989886
 10
-138.1387304848
 20
-26.0760531371
 10
-138.1611147708
 20
-26.0940734798
 10
-138.1853610205
 20
-26.1112278123
 10
-138.2115824882
 20
-26.1275647871
 10
-138.239685324
 20
-26.1430357519
 10
-138.2691606146
 20
-26.1570625456
 10
-138.2998559296
 20
-26.1695749565
 10
-138.3317276096
 20
-26.1806431963
 10
-138.3643379916
 20
-26.1898997393
 10
-138.39743574
 20
-26.197222077
 10
-138.4309796228
 20
-26.2027327178
 10
-138.4648189357
 20
-26.2064316619
  0
LINE
  5
6CC
100
AcDbEntity
  8
DRAFT
100
AcDbLine
 62
250
  6
CONTINUOUS
 10
-138.0117013088
 20
35.5
 11
-137.9735451389
 21
35.5
  0
LINE
  5
6CD
100
AcDbEntity
  8
0
100
AcDbLine
 62
250
  6
CONTINUOUS
 10
-138.0117013088
 20
35.5
 11
-174.9735451389
 21
35.5
  0
LINE
  5
6CE
100
AcDbEntity
  8
RACCORDO
100
AcDbLine
 62
250
  6
CONTINUOUS
 10
-186.3413404866
 20
35.4999993365
 11
-174.9735451389
 21
35.5000000145
  0
LINE
  5
6CF
100
AcDbEntity
  8
ASSI
100
AcDbLine
 62
7
  6
CONTINUOUS
 10
-137.9735451389
 20
36.0
 11
-137.4735451389
 21
36.0
  0
LINE
  5
6D0
100
AcDbEntity
  8
0
100
AcDbLine
 62
7
  6
CONTINUOUS
 10
-137.9735451389
 20
33.7242099741
 11
-138.0117013088
 21
33.7248759926
  0
LINE
  5
6D1
100
AcDbEntity
  8
RACCORDO
100
AcDbLine
 62
250
  6
CONTINUOUS
 10
-186.3413404874
 20
35.4999993201
 11
-188.2621104351
 21
35.602410347
  0
LWPOLYLINE
  5
6D2
100
AcDbEntity
  8
RACCORDO
100
AcDbPolyline
 62
250
  6
CONTINUOUS
 90
13
 70
0
 10
-186.3491262592
 20
41.3014113136
 10
-186.5673120462
 20
41.2855893952
 10
-186.7824575365
 20
41.24593526
 10
-186.991978182
 20
41.1829252742
 10
-187.1933570062
 20
41.0973163781
 10
-187.3841748401
 20
40.9901369936
 10
-187.5621393844
 20
40.8626746692
 10
-187.7251127463
 20
40.716460613
 10
-187.8711371227
 20
40.553251298
 10
-187.9984583188
 20
40.3750073617
 10
-188.1055468214
 20
40.1838700529
 10
-188.1911161734
 20
39.9821355087
 10
-188.2541384272
 20
39.7722271711
  0
LWPOLYLINE
  5
6D3
100
AcDbEntity
  8
RACCORDO
100
AcDbPolyline
 62
7
  6
CONTINUOUS
 90
14
 70
0
 10
-186.560252915
 20
41.2977522087
 10
-186.7511914078
 20
41.2852645863
 10
-186.9421448596
 20
41.2541448228
 10
-187.1292041981
 20
41.204718177
 10
-187.3106190101
 20
41.1374450928
 10
-187.4846900145
 20
41.0529535738
 10
-187.6497852832
 20
40.9520339823
 10
-187.8043580894
 20
40.8356304893
 10
-187.9469616094
 20
40.7048312452
 10
-188.0762604834
 20
40.5608592384
 10
-188.1910433215
 20
40.4050611188
 10
-188.2902342036
 20
40.2388947731
 10
-188.3729032073
 20
40.0639152063
 10
-188.4417789934
 20
39.8701507847
  0
LINE
  5
6D4
100
AcDbEntity
  8
RACCORDO
100
AcDbLine
 62
7
  6
CONTINUOUS
 10
-186.560254156
 20
41.2977522722
 11
-174.9735451389
 21
41.5000003491
  0
LINE
  5
6D5
100
AcDbEntity
  8
0
100
AcDbLine
 62
7
  6
CONTINUOUS
 10
-139.1526022512
 20
40.8747431161
 11
-174.9735451389
 21
41.5
  0
LWPOLYLINE
  5
6D6
100
AcDbEntity
  8
0
100
AcDbPolyline
 62
7
  6
CONTINUOUS
 90
8
 70
0
 43
0.3500000006
 10
-168.4021179199
 20
50.2500014191
 10
-167.5449799805
 20
50.2500014191
 10
-167.1164110107
 20
50.6785703888
 10
-167.1164110107
 20
51.5357128601
 10
-167.5449799805
 20
51.9642863617
 10
-168.4021179199
 20
51.9642863617
 10
-168.4021179199
 20
53.2500023346
 10
-167.1164110107
 20
53.2500023346
  0
LWPOLYLINE
  5
6D7
100
AcDbEntity
  8
0
100
AcDbPolyline
 62
7
  6
CONTINUOUS
 90
8
 70
0
 43
0.3500000006
 10
-162.187831604
 20
50.2500014191
 10
-161.3306936646
 20
50.2500014191
 10
-160.9021246948
 20
50.6785703888
 10
-160.9021246948
 20
51.5357128601
 10
-161.3306936646
 20
51.9642863617
 10
-162.187831604
 20
51.9642863617
 10
-162.187831604
 20
53.2500023346
 10
-160.9021246948
 20
53.2500023346
  0
LWPOLYLINE
  5
6D8
100
AcDbEntity
  8
0
100
AcDbPolyline
 62
7
  6
CONTINUOUS
 90
3
 70
0
 43
0.3500000006
 10
-164.7592635498
 20
50.8928594055
 10
-166.2592549438
 20
50.8928594055
 10
-165.6164014893
 20
53.2500023346
  0
ARC
  5
6D9
100
AcDbEntity
  8
RACCORDO
100
AcDbCircle
 62
250
  6
CONTINUOUS
 10
-102.5
 20
-26.5
 40
8.2748993522
100
AcDbArc
 50
28.9026396964
 51
38.2033044634
  0
ARC
  5
6DA
100
AcDbEntity
  8
RACCORDO
100
AcDbCircle
 62
250
  6
CONTINUOUS
 10
-102.5
 20
-26.5
 40
7.9760409428
100
AcDbArc
 50
30.0949770436
 51
35.0028061804
  0
ARC
  5
6DB
100
AcDbEntity
  8
DRAFT
100
AcDbCircle
 62
7
  6
CONTINUOUS
 10
-102.5
 20
-26.5
 40
7.9125113365
100
AcDbArc
 50
30.3718594079
 51
34.7404526663
  0
ARC
  5
6DC
100
AcDbEntity
  8
SUPERFICI
100
AcDbCircle
 62
7
  6
CONTINUOUS
 10
-113.0
 20
-35.5
 40
6.0000004289
100
AcDbArc
 50
180.0000165401
 51
269.9999818696
  0
ARC
  5
6DD
100
AcDbEntity
  8
DRAFT
100
AcDbCircle
 62
7
  6
CONTINUOUS
 10
-113.0
 20
-35.5
 40
6.0
100
AcDbArc
 50
180.0
 51
270.0
  0
CIRCLE
  5
6DE
100
AcDbEntity
  8
DRAFT
100
AcDbCircle
 62
7
  6
CONTINUOUS
 10
-113.0
 20
-35.5
 40
3.25
  0
CIRCLE
  5
6DF
100
AcDbEntity
  8
0
100
AcDbCircle
 62
7
  6
CONTINUOUS
 10
-113.0
 20
-35.5
 40
3.0
  0
ARC
  5
6E0
100
AcDbEntity
  8
0
100
AcDbCircle
 62
7
  6
CONTINUOUS
 10
-113.0
 20
-35.5
 40
2.8950136038
100
AcDbArc
 50
258.0385857315
 51
281.9614142685
  0
ARC
  5
6E1
100
AcDbEntity
  8
0
100
AcDbCircle
 62
7
  6
CONTINUOUS
 10
-113.0
 20
-35.5
 40
2.8950136038
100
AcDbArc
 50
78.0385857315
 51
101.9614142685
  0
ARC
  5
6E2
100
AcDbEntity
  8
0
100
AcDbCircle
 62
7
  6
CONTINUOUS
 10
-113.0
 20
-35.5
 40
2.8155023425
100
AcDbArc
 50
282.3044249574
 51
77.6955750426
  0
ARC
  5
6E3
100
AcDbEntity
  8
0
100
AcDbCircle
 62
7
  6
CONTINUOUS
 10
-113.0
 20
-35.5
 40
2.8155023425
100
AcDbArc
 50
102.3044249574
 51
257.6955750426
  0
ARC
  5
6E4
100
AcDbEntity
  8
0
100
AcDbCircle
 62
7
  6
CONTINUOUS
 10
-113.0
 20
-35.5
 40
1.6874840352
100
AcDbArc
 50
352.2301010241
 51
7.7632444202
  0
ARC
  5
6E5
100
AcDbEntity
  8
0
100
AcDbCircle
 62
7
  6
CONTINUOUS
 10
-113.0
 20
-35.5
 40
1.6874840352
100
AcDbArc
 50
172.230101045
 51
187.7632444202
  0
ARC
  5
6E6
100
AcDbEntity
  8
TRASH
100
AcDbCircle
 62
7
  6
CONTINUOUS
 10
-113.0
 20
-35.5
 40
1.1472328625
100
AcDbArc
 50
167.9845776281
 51
192.0153200785
  0
ARC
  5
6E7
100
AcDbEntity
  8
TRASH
100
AcDbCircle
 62
7
  6
CONTINUOUS
 10
-113.0
 20
-35.5
 40
1.1472328625
100
AcDbArc
 50
347.9845776281
 51
12.0153200785
  0
ARC
  5
6E8
100
AcDbEntity
  8
0
100
AcDbCircle
 62
7
  6
CONTINUOUS
 10
-113.0
 20
-35.5
 40
0.7522905861
100
AcDbArc
 50
217.1018788914
 51
221.6490663885
  0
ARC
  5
6E9
100
AcDbEntity
  8
0
100
AcDbCircle
 62
7
  6
CONTINUOUS
 10
-113.0
 20
-35.5
 40
0.7522905861
100
AcDbArc
 50
228.3509342563
 51
311.6490283615
  0
ARC
  5
6EA
100
AcDbEntity
  8
0
100
AcDbCircle
 62
7
  6
CONTINUOUS
 10
-113.0
 20
-35.5
 40
0.7522905861
100
AcDbArc
 50
318.3509867785
 51
322.8981211086
  0
ARC
  5
6EB
100
AcDbEntity
  8
0
100
AcDbCircle
 62
7
  6
CONTINUOUS
 10
-113.0
 20
-35.5
 40
0.7522905861
100
AcDbArc
 50
37.1018788914
 51
41.6490663885
  0
ARC
  5
6EC
100
AcDbEntity
  8
0
100
AcDbCircle
 62
7
  6
CONTINUOUS
 10
-113.0
 20
-35.5
 40
0.7522905861
100
AcDbArc
 50
48.3509342563
 51
131.6490283615
  0
ARC
  5
6ED
100
AcDbEntity
  8
0
100
AcDbCircle
 62
7
  6
CONTINUOUS
 10
-113.0
 20
-35.5
 40
0.7522905861
100
AcDbArc
 50
138.3509867785
 51
142.8981211086
  0
ARC
  5
6EE
100
AcDbEntity
  8
0
100
AcDbCircle
 62
7
  6
CONTINUOUS
 10
-95.7
 20
-22.2
 40
0.3
100
AcDbArc
 50
180.0
 51
270.0
  0
ARC
  5
6EF
100
AcDbEntity
  8
RACCORDO
100
AcDbCircle
 62
250
  6
CONTINUOUS
 10
-6.3
 20
-22.2
 40
3.7062960175
100
AcDbArc
 50
303.1277813377
 51
360.0
  0
ARC
  5
6F0
100
AcDbEntity
  8
RACCORDO
100
AcDbCircle
 62
250
  6
CONTINUOUS
 10
-6.3
 20
-22.2
 40
1.9015831977
100
AcDbArc
 50
303.1277813378
 51
360.0
  0
ARC
  5
6F1
100
AcDbEntity
  8
ASSI
100
AcDbCircle
 62
7
  6
CONTINUOUS
 10
-6.189592
 20
-12.592098
 40
0.49219
100
AcDbArc
 50
67.3221683883
 51
292.6778316117
  0
ARC
  5
6F2
100
AcDbEntity
  8
0
100
AcDbCircle
 62
7
  6
CONTINUOUS
 10
-6.3
 20
-22.2
 40
0.3
100
AcDbArc
 50
270.0
 51
360.0
  0
CIRCLE
  5
6F3
100
AcDbEntity
  8
RACCORDO
100
AcDbCircle
 62
250
  6
CONTINUOUS
 10
-62.3
 20
0.0
 40
3.4999942978
  0
CIRCLE
  5
6F4
100
AcDbEntity
  8
RACCORDO
100
AcDbCircle
 62
7
  6
CONTINUOUS
 10
-62.3
 20
0.0
 40
3.0
  0
CIRCLE
  5
6F5
100
AcDbEntity
  8
ASSI
100
AcDbCircle
 62
7
  6
CONTINUOUS
 10
-62.3
 20
0.0
 40
1.3856406461
  0
ARC
  5
6F6
100
AcDbEntity
  8
SUPERFICI
100
AcDbCircle
 62
7
  6
CONTINUOUS
 10
-113.0
 20
35.5
 40
6.0000004289
100
AcDbArc
 50
90.0000192217
 51
179.9999834907
  0
ARC
  5
6F7
100
AcDbEntity
  8
DRAFT
100
AcDbCircle
 62
7
  6
CONTINUOUS
 10
-113.0
 20
35.5
 40
6.0
100
AcDbArc
 50
90.0
 51
180.0
  0
CIRCLE
  5
6F8
100
AcDbEntity
  8
DRAFT
100
AcDbCircle
 62
7
  6
CONTINUOUS
 10
-113.0
 20
35.5
 40
3.25
  0
CIRCLE
  5
6F9
100
AcDbEntity
  8
0
100
AcDbCircle
 62
7
  6
CONTINUOUS
 10
-113.0
 20
35.5
 40
3.0
  0
ARC
  5
6FA
100
AcDbEntity
  8
0
100
AcDbCircle
 62
7
  6
CONTINUOUS
 10
-113.0
 20
35.5
 40
2.8950136038
100
AcDbArc
 50
258.0385857315
 51
281.9614142685
  0
ARC
  5
6FB
100
AcDbEntity
  8
0
100
AcDbCircle
 62
7
  6
CONTINUOUS
 10
-113.0
 20
35.5
 40
2.8950136038
100
AcDbArc
 50
78.0385857315
 51
101.9614142685
  0
ARC
  5
6FC
100
AcDbEntity
  8
0
100
AcDbCircle
 62
7
  6
CONTINUOUS
 10
-113.0
 20
35.5
 40
2.8155023425
100
AcDbArc
 50
282.3044249574
 51
77.6955750426
  0
ARC
  5
6FD
100
AcDbEntity
  8
0
100
AcDbCircle
 62
7
  6
CONTINUOUS
 10
-113.0
 20
35.5
 40
2.8155023425
100
AcDbArc
 50
102.3044249574
 51
257.6955750426
  0
ARC
  5
6FE
100
AcDbEntity
  8
0
100
AcDbCircle
 62
7
  6
CONTINUOUS
 10
-113.0
 20
35.5
 40
1.6874840352
100
AcDbArc
 50
352.2301010241
 51
7.7632444202
  0
ARC
  5
6FF
100
AcDbEntity
  8
0
100
AcDbCircle
 62
7
  6
CONTINUOUS
 10
-113.0
 20
35.5
 40
1.6874840352
100
AcDbArc
 50
172.230101045
 51
187.7632444202
  0
ARC
  5
700
100
AcDbEntity
  8
TRASH
100
AcDbCircle
 62
7
  6
CONTINUOUS
 10
-113.0
 20
35.5
 40
1.1472328625
100
AcDbArc
 50
167.9845776281
 51
192.0153200785
  0
ARC
  5
701
100
AcDbEntity
  8
TRASH
100
AcDbCircle
 62
7
  6
CONTINUOUS
 10
-113.0
 20
35.5
 40
1.1472328625
100
AcDbArc
 50
347.9845776281
 51
12.0153200785
  0
ARC
  5
702
100
AcDbEntity
  8
0
100
AcDbCircle
 62
7
  6
CONTINUOUS
 10
-113.0
 20
35.5
 40
0.7522905861
100
AcDbArc
 50
217.1018788914
 51
221.6490663885
  0
ARC
  5
703
100
AcDbEntity
  8
0
100
AcDbCircle
 62
7
  6
CONTINUOUS
 10
-113.0
 20
35.5
 40
0.7522905861
100
AcDbArc
 50
228.3509342563
 51
311.6490283615
  0
ARC
  5
704
100
AcDbEntity
  8
0
100
AcDbCircle
 62
7
  6
CONTINUOUS
 10
-113.0
 20
35.5
 40
0.7522905861
100
AcDbArc
 50
318.3509867785
 51
322.8981211086
  0
ARC
  5
705
100
AcDbEntity
  8
0
100
AcDbCircle
 62
7
  6
CONTINUOUS
 10
-113.0
 20
35.5
 40
0.7522905861
100
AcDbArc
 50
37.1018788914
 51
41.6490663885
  0
ARC
  5
706
100
AcDbEntity
  8
0
100
AcDbCircle
 62
7
  6
CONTINUOUS
 10
-113.0
 20
35.5
 40
0.7522905861
100
AcDbArc
 50
48.3509342563
 51
131.6490283615
  0
ARC
  5
707
100
AcDbEntity
  8
0
100
AcDbCircle
 62
7
  6
CONTINUOUS
 10
-113.0
 20
35.5
 40
0.7522905861
100
AcDbArc
 50
138.3509867785
 51
142.8981211086
  0
ARC
  5
708
100
AcDbEntity
  8
RACCORDO
100
AcDbCircle
 62
250
  6
CONTINUOUS
 10
-102.5
 20
26.5
 40
8.2748980336
100
AcDbArc
 50
321.7980547767
 51
331.0981235988
  0
ARC
  5
709
100
AcDbEntity
  8
RACCORDO
100
AcDbCircle
 62
250
  6
CONTINUOUS
 10
-102.5
 20
26.5
 40
7.9760409328
100
AcDbArc
 50
324.6028473974
 51
329.5623989749
  0
ARC
  5
70A
100
AcDbEntity
  8
DRAFT
100
AcDbCircle
 62
7
  6
CONTINUOUS
 10
-102.5
 20
26.5
 40
7.9125113365
100
AcDbArc
 50
325.2595473337
 51
329.6281405921
  0
ARC
  5
70B
100
AcDbEntity
  8
0
100
AcDbCircle
 62
7
  6
CONTINUOUS
 10
-95.7
 20
22.2
 40
0.3
100
AcDbArc
 50
90.0
 51
180.0
  0
ARC
  5
70C
100
AcDbEntity
  8
RACCORDO
100
AcDbCircle
 62
250
  6
CONTINUOUS
 10
-6.3
 20
22.2
 40
3.7062764475
100
AcDbArc
 50
0.0
 51
56.872267417
  0
ARC
  5
70D
100
AcDbEntity
  8
RACCORDO
100
AcDbCircle
 62
250
  6
CONTINUOUS
 10
-6.3
 20
22.2
 40
1.9015813823
100
AcDbArc
 50
0.0
 51
56.872267417
  0
ARC
  5
70E
100
AcDbEntity
  8
0
100
AcDbCircle
 62
7
  6
CONTINUOUS
 10
-6.3
 20
22.2
 40
0.3
100
AcDbArc
 50
0.0
 51
90.0
  0
ARC
  5
70F
100
AcDbEntity
  8
RACCORDO
100
AcDbCircle
 62
250
  6
CONTINUOUS
 10
6.3
 20
-22.2
 40
3.7062764479
100
AcDbArc
 50
180.0
 51
236.8722186623
  0
ARC
  5
710
100
AcDbEntity
  8
RACCORDO
100
AcDbCircle
 62
250
  6
CONTINUOUS
 10
6.3
 20
-22.2
 40
1.9015813823
100
AcDbArc
 50
180.0
 51
236.8722186623
  0
ARC
  5
711
100
AcDbEntity
  8
0
100
AcDbCircle
 62
7
  6
CONTINUOUS
 10
6.3
 20
-22.2
 40
0.3
100
AcDbArc
 50
180.0
 51
270.0
  0
ARC
  5
712
100
AcDbEntity
  8
SUPERFICI
100
AcDbCircle
 62
7
  6
CONTINUOUS
 10
113.0
 20
-35.5
 40
6.0000004289
100
AcDbArc
 50
270.0000181304
 51
359.9999834599
  0
ARC
  5
713
100
AcDbEntity
  8
DRAFT
100
AcDbCircle
 62
7
  6
CONTINUOUS
 10
113.0
 20
-35.5
 40
6.0
100
AcDbArc
 50
270.0
 51
360.0
  0
CIRCLE
  5
714
100
AcDbEntity
  8
DRAFT
100
AcDbCircle
 62
7
  6
CONTINUOUS
 10
113.0
 20
-35.5
 40
3.25
  0
CIRCLE
  5
715
100
AcDbEntity
  8
0
100
AcDbCircle
 62
7
  6
CONTINUOUS
 10
113.0
 20
-35.5
 40
3.0
  0
ARC
  5
716
100
AcDbEntity
  8
0
100
AcDbCircle
 62
7
  6
CONTINUOUS
 10
113.0
 20
-35.5
 40
2.8950136038
100
AcDbArc
 50
258.0385857315
 51
281.9614142685
  0
ARC
  5
717
100
AcDbEntity
  8
0
100
AcDbCircle
 62
7
  6
CONTINUOUS
 10
113.0
 20
-35.5
 40
2.8950136038
100
AcDbArc
 50
78.0385857315
 51
101.9614142685
  0
ARC
  5
718
100
AcDbEntity
  8
0
100
AcDbCircle
 62
7
  6
CONTINUOUS
 10
113.0
 20
-35.5
 40
2.8155023425
100
AcDbArc
 50
282.3044249574
 51
77.6955750426
  0
ARC
  5
719
100
AcDbEntity
  8
0
100
AcDbCircle
 62
7
  6
CONTINUOUS
 10
113.0
 20
-35.5
 40
2.8155023425
100
AcDbArc
 50
102.3044249574
 51
257.6955750426
  0
ARC
  5
71A
100
AcDbEntity
  8
0
100
AcDbCircle
 62
7
  6
CONTINUOUS
 10
113.0
 20
-35.5
 40
1.6874840352
100
AcDbArc
 50
352.2301010241
 51
7.7632444202
  0
ARC
  5
71B
100
AcDbEntity
  8
0
100
AcDbCircle
 62
7
  6
CONTINUOUS
 10
113.0
 20
-35.5
 40
1.6874840352
100
AcDbArc
 50
172.230101045
 51
187.7632444202
  0
ARC
  5
71C
100
AcDbEntity
  8
TRASH
100
AcDbCircle
 62
7
  6
CONTINUOUS
 10
113.0
 20
-35.5
 40
1.1472328625
100
AcDbArc
 50
167.9845776281
 51
192.0153200785
  0
ARC
  5
71D
100
AcDbEntity
  8
TRASH
100
AcDbCircle
 62
7
  6
CONTINUOUS
 10
113.0
 20
-35.5
 40
1.1472328625
100
AcDbArc
 50
347.9845776281
 51
12.0153200785
  0
ARC
  5
71E
100
AcDbEntity
  8
0
100
AcDbCircle
 62
7
  6
CONTINUOUS
 10
113.0
 20
-35.5
 40
0.7522905861
100
AcDbArc
 50
217.1018788914
 51
221.6490663885
  0
ARC
  5
71F
100
AcDbEntity
  8
0
100
AcDbCircle
 62
7
  6
CONTINUOUS
 10
113.0
 20
-35.5
 40
0.7522905861
100
AcDbArc
 50
228.3509342563
 51
311.6490283615
  0
ARC
  5
720
100
AcDbEntity
  8
0
100
AcDbCircle
 62
7
  6
CONTINUOUS
 10
113.0
 20
-35.5
 40
0.7522905861
100
AcDbArc
 50
318.3509867785
 51
322.8981211086
  0
ARC
  5
721
100
AcDbEntity
  8
0
100
AcDbCircle
 62
7
  6
CONTINUOUS
 10
113.0
 20
-35.5
 40
0.7522905861
100
AcDbArc
 50
37.1018788914
 51
41.6490663885
  0
ARC
  5
722
100
AcDbEntity
  8
0
100
AcDbCircle
 62
7
  6
CONTINUOUS
 10
113.0
 20
-35.5
 40
0.7522905861
100
AcDbArc
 50
48.3509342563
 51
131.6490283615
  0
ARC
  5
723
100
AcDbEntity
  8
0
100
AcDbCircle
 62
7
  6
CONTINUOUS
 10
113.0
 20
-35.5
 40
0.7522905861
100
AcDbArc
 50
138.3509867785
 51
142.8981211086
  0
ARC
  5
724
100
AcDbEntity
  8
RACCORDO
100
AcDbCircle
 62
250
  6
CONTINUOUS
 10
102.5
 20
-26.5
 40
8.2748980336
100
AcDbArc
 50
141.7980547767
 51
151.0981235988
  0
ARC
  5
725
100
AcDbEntity
  8
RACCORDO
100
AcDbCircle
 62
250
  6
CONTINUOUS
 10
102.5
 20
-26.5
 40
7.9760409328
100
AcDbArc
 50
144.6028473974
 51
149.5623989748
  0
ARC
  5
726
100
AcDbEntity
  8
DRAFT
100
AcDbCircle
 62
7
  6
CONTINUOUS
 10
102.5
 20
-26.5
 40
7.9125113365
100
AcDbArc
 50
145.2595473337
 51
149.6281405921
  0
ARC
  5
727
100
AcDbEntity
  8
0
100
AcDbCircle
 62
7
  6
CONTINUOUS
 10
96.889711
 20
-27.389243
 40
0.8893898871
100
AcDbArc
 50
292.842868527
 51
90.0590144761
  0
ARC
  5
728
100
AcDbEntity
  8
0
100
AcDbCircle
 62
7
  6
CONTINUOUS
 10
96.809205
 20
-27.389243
 40
0.352865
100
AcDbArc
 50
270.0
 51
90.0
  0
ARC
  5
729
100
AcDbEntity
  8
0
100
AcDbCircle
 62
7
  6
CONTINUOUS
 10
95.7
 20
-22.2
 40
0.3
100
AcDbArc
 50
270.0
 51
360.0
  0
ARC
  5
72A
100
AcDbEntity
  8
ASSI
100
AcDbCircle
 62
7
  6
CONTINUOUS
 10
7.647832
 20
16.471682
 40
1.303416637
100
AcDbArc
 50
292.8428905712
 51
89.9991190231
  0
ARC
  5
72B
100
AcDbEntity
  8
ASSI
100
AcDbCircle
 62
7
  6
CONTINUOUS
 10
7.529849
 20
16.471682
 40
0.51713
100
AcDbArc
 50
270.0020986217
 51
90.0013990676
  0
ARC
  5
72C
100
AcDbEntity
  8
RACCORDO
100
AcDbCircle
 62
250
  6
CONTINUOUS
 10
6.3
 20
22.2
 40
3.7062960179
100
AcDbArc
 50
123.127732583
 51
180.0
  0
ARC
  5
72D
100
AcDbEntity
  8
RACCORDO
100
AcDbCircle
 62
250
  6
CONTINUOUS
 10
6.3
 20
22.2
 40
1.9015831978
100
AcDbArc
 50
123.127732583
 51
180.0
  0
ARC
  5
72E
100
AcDbEntity
  8
0
100
AcDbCircle
 62
7
  6
CONTINUOUS
 10
6.3
 20
22.2
 40
0.3
100
AcDbArc
 50
90.0
 51
180.0
  0
CIRCLE
  5
72F
100
AcDbEntity
  8
RACCORDO
100
AcDbCircle
 62
250
  6
CONTINUOUS
 10
62.3
 20
0.0
 40
3.499994298
  0
CIRCLE
  5
730
100
AcDbEntity
  8
RACCORDO
100
AcDbCircle
 62
7
  6
CONTINUOUS
 10
62.3
 20
0.0
 40
3.0
  0
CIRCLE
  5
731
100
AcDbEntity
  8
ASSI
100
AcDbCircle
 62
7
  6
CONTINUOUS
 10
62.3
 20
0.0
 40
1.3856406461
  0
ARC
  5
732
100
AcDbEntity
  8
RACCORDO
100
AcDbCircle
 62
250
  6
CONTINUOUS
 10
102.5
 20
26.5
 40
8.2748980336
100
AcDbArc
 50
208.9009293776
 51
218.2077151851
  0
ARC
  5
733
100
AcDbEntity
  8
RACCORDO
100
AcDbCircle
 62
250
  6
CONTINUOUS
 10
102.5
 20
26.5
 40
7.9760409328
100
AcDbArc
 50
210.0987195533
 51
215.3925921428
  0
ARC
  5
734
100
AcDbEntity
  8
DRAFT
100
AcDbCircle
 62
7
  6
CONTINUOUS
 10
102.5
 20
26.5
 40
7.9125113365
100
AcDbArc
 50
210.3718594079
 51
214.7404526663
  0
ARC
  5
735
100
AcDbEntity
  8
0
100
AcDbCircle
 62
7
  6
CONTINUOUS
 10
95.7
 20
22.2
 40
0.3
100
AcDbArc
 50
0.0
 51
90.0
  0
ARC
  5
736
100
AcDbEntity
  8
SUPERFICI
100
AcDbCircle
 62
7
  6
CONTINUOUS
 10
113.0
 20
35.5
 40
6.0000004289
100
AcDbArc
 50
0.0000165093
 51
89.9999807783
  0
ARC
  5
737
100
AcDbEntity
  8
DRAFT
100
AcDbCircle
 62
7
  6
CONTINUOUS
 10
113.0
 20
35.5
 40
6.0
100
AcDbArc
 50
0.0
 51
90.0
  0
CIRCLE
  5
738
100
AcDbEntity
  8
DRAFT
100
AcDbCircle
 62
7
  6
CONTINUOUS
 10
113.0
 20
35.5
 40
3.25
  0
CIRCLE
  5
739
100
AcDbEntity
  8
0
100
AcDbCircle
 62
7
  6
CONTINUOUS
 10
113.0
 20
35.5
 40
3.0
  0
ARC
  5
73A
100
AcDbEntity
  8
0
100
AcDbCircle
 62
7
  6
CONTINUOUS
 10
113.0
 20
35.5
 40
2.8950136038
100
AcDbArc
 50
258.0385857315
 51
281.9614142685
  0
ARC
  5
73B
100
AcDbEntity
  8
0
100
AcDbCircle
 62
7
  6
CONTINUOUS
 10
113.0
 20
35.5
 40
2.8950136038
100
AcDbArc
 50
78.0385857315
 51
101.9614142685
  0
ARC
  5
73C
100
AcDbEntity
  8
0
100
AcDbCircle
 62
7
  6
CONTINUOUS
 10
113.0
 20
35.5
 40
2.8155023425
100
AcDbArc
 50
282.3044249574
 51
77.6955750426
  0
ARC
  5
73D
100
AcDbEntity
  8
0
100
AcDbCircle
 62
7
  6
CONTINUOUS
 10
113.0
 20
35.5
 40
2.8155023425
100
AcDbArc
 50
102.3044249574
 51
257.6955750426
  0
ARC
  5
73E
100
AcDbEntity
  8
0
100
AcDbCircle
 62
7
  6
CONTINUOUS
 10
113.0
 20
35.5
 40
1.6874840352
100
AcDbArc
 50
352.2301010241
 51
7.7632444202
  0
ARC
  5
73F
100
AcDbEntity
  8
0
100
AcDbCircle
 62
7
  6
CONTINUOUS
 10
113.0
 20
35.5
 40
1.6874840352
100
AcDbArc
 50
172.230101045
 51
187.7632444202
  0
ARC
  5
740
100
AcDbEntity
  8
TRASH
100
AcDbCircle
 62
7
  6
CONTINUOUS
 10
113.0
 20
35.5
 40
1.1472328625
100
AcDbArc
 50
167.9845776281
 51
192.0153200785
  0
ARC
  5
741
100
AcDbEntity
  8
TRASH
100
AcDbCircle
 62
7
  6
CONTINUOUS
 10
113.0
 20
35.5
 40
1.1472328625
100
AcDbArc
 50
347.9845776281
 51
12.0153200785
  0
ARC
  5
742
100
AcDbEntity
  8
0
100
AcDbCircle
 62
7
  6
CONTINUOUS
 10
113.0
 20
35.5
 40
0.7522905861
100
AcDbArc
 50
217.1018788914
 51
221.6490663885
  0
ARC
  5
743
100
AcDbEntity
  8
0
100
AcDbCircle
 62
7
  6
CONTINUOUS
 10
113.0
 20
35.5
 40
0.7522905861
100
AcDbArc
 50
228.3509342563
 51
311.6490283615
  0
ARC
  5
744
100
AcDbEntity
  8
0
100
AcDbCircle
 62
7
  6
CONTINUOUS
 10
113.0
 20
35.5
 40
0.7522905861
100
AcDbArc
 50
318.3509867785
 51
322.8981211086
  0
ARC
  5
745
100
AcDbEntity
  8
0
100
AcDbCircle
 62
7
  6
CONTINUOUS
 10
113.0
 20
35.5
 40
0.7522905861
100
AcDbArc
 50
37.1018788914
 51
41.6490663885
  0
ARC
  5
746
100
AcDbEntity
  8
0
100
AcDbCircle
 62
7
  6
CONTINUOUS
 10
113.0
 20
35.5
 40
0.7522905861
100
AcDbArc
 50
48.3509342563
 51
131.6490283615
  0
ARC
  5
747
100
AcDbEntity
  8
0
100
AcDbCircle
 62
7
  6
CONTINUOUS
 10
113.0
 20
35.5
 40
0.7522905861
100
AcDbArc
 50
138.3509867785
 51
142.8981211086
  0
ARC
  5
748
100
AcDbEntity
  8
RACCORDO
100
AcDbCircle
 62
7
  6
CONTINUOUS
 10
-186.5252233159
 20
-39.2980590817
 40
2.0
100
AcDbArc
 50
196.6197276085
 51
268.9999935154
  0
ARC
  5
749
100
AcDbEntity
  8
RACCORDO
100
AcDbCircle
 62
7
  6
CONTINUOUS
 10
-190.4735451389
 20
-23.5
 40
1.0
100
AcDbArc
 50
180.0000055543
 51
217.0546568042
  0
ARC
  5
74A
100
AcDbEntity
  8
0
100
AcDbCircle
 62
7
  6
CONTINUOUS
 10
-190.4735451389
 20
-23.5
 40
1.0
100
AcDbArc
 50
180.0
 51
217.0546568042
  0
ARC
  5
74B
100
AcDbEntity
  8
0
100
AcDbCircle
 62
7
  6
CONTINUOUS
 10
-190.4735451389
 20
23.5
 40
1.0
100
AcDbArc
 50
142.9459521634
 51
180.0
  0
ARC
  5
74C
100
AcDbEntity
  8
RACCORDO
100
AcDbCircle
 62
7
  6
CONTINUOUS
 10
-190.4735451389
 20
23.5
 40
1.0
100
AcDbArc
 50
142.9459521634
 51
180.0000173328
  0
ARC
  5
74D
100
AcDbEntity
  8
0
100
AcDbCircle
 62
7
  6
CONTINUOUS
 10
-139.1735451389
 20
-39.6749258819
 40
1.2
100
AcDbArc
 50
271.0
 51
360.0
  0
ARC
  5
74E
100
AcDbEntity
  8
RACCORDO
100
AcDbCircle
 62
7
  6
CONTINUOUS
 10
-137.4735451389
 20
-4.3
 40
0.5
100
AcDbArc
 50
270.0
 51
0.0000624954
  0
ARC
  5
74F
100
AcDbEntity
  8
RACCORDO
100
AcDbCircle
 62
7
  6
CONTINUOUS
 10
-137.4735451389
 20
-17.5
 40
0.5
100
AcDbArc
 50
359.9999865196
 51
90.0
  0
ARC
  5
750
100
AcDbEntity
  8
RACCORDO
100
AcDbCircle
 62
7
  6
CONTINUOUS
 10
-137.4735451389
 20
-35.5
 40
0.5
100
AcDbArc
 50
270.0
 51
0.0000134804
  0
ARC
  5
751
100
AcDbEntity
  8
RACCORDO
100
AcDbCircle
 62
7
  6
CONTINUOUS
 10
-138.473557958
 20
-25.7074122156
 40
0.5
100
AcDbArc
 50
324.1749071504
 51
0.0000256403
  0
ARC
  5
752
100
AcDbEntity
  8
RACCORDO
100
AcDbCircle
 62
7
  6
CONTINUOUS
 10
-138.473557941
 20
-32.6925877847
 40
0.5
100
AcDbArc
 50
359.9999743938
 51
35.8250943454
  0
ARC
  5
753
100
AcDbEntity
  8
RACCORDO
100
AcDbCircle
 62
7
  6
CONTINUOUS
 10
-143.2735451389
 20
-26.7913486316
 40
0.5
100
AcDbArc
 50
91.0
 51
180.0
  0
ARC
  5
754
100
AcDbEntity
  8
RACCORDO
100
AcDbCircle
 62
7
  6
CONTINUOUS
 10
-143.2735451389
 20
-31.6086513684
 40
0.5
100
AcDbArc
 50
180.0
 51
269.0
  0
ARC
  5
755
100
AcDbEntity
  8
0
100
AcDbCircle
 62
7
  6
CONTINUOUS
 10
-139.1735451389
 20
39.6749258819
 40
1.2
100
AcDbArc
 50
0.0
 51
89.0
  0
ARC
  5
756
100
AcDbEntity
  8
RACCORDO
100
AcDbCircle
 62
7
  6
CONTINUOUS
 10
-137.4735451389
 20
4.3
 40
0.5
100
AcDbArc
 50
359.9999375046
 51
90.0
  0
ARC
  5
757
100
AcDbEntity
  8
RACCORDO
100
AcDbCircle
 62
7
  6
CONTINUOUS
 10
-137.4735451389
 20
35.5
 40
0.5
100
AcDbArc
 50
359.9999865196
 51
90.0
  0
ARC
  5
758
100
AcDbEntity
  8
RACCORDO
100
AcDbCircle
 62
7
  6
CONTINUOUS
 10
-137.4735451389
 20
17.5
 40
0.5
100
AcDbArc
 50
270.0
 51
0.0000134804
  0
ENDSEC
  0
SECTION
  2
OBJECTS
  0
DICTIONARY
  5
C
100
AcDbDictionary
280
0
281
1
  3
ACAD_GROUP
350
D
  3
ACAD_MLINESTYLE
350
17
  3
ACAD_LAYOUT
350
1A
  3
ACAD_PLOTSETTINGS
350
19
  3
ACAD_PLOTSTYLENAME
350
E
  0
DICTIONARY
  5
D
102
{ACAD_REACTORS
330
C
102
}
100
AcDbDictionary
280
0
281
1
  0
ACDBDICTIONARYWDFLT
  5
E
102
{ACAD_REACTORS
330
C
102
}
100
AcDbDictionary
281
1
  3
Normal
350
F
100
AcDbDictionaryWithDefault
340
F
  0
DICTIONARY
  5
17
102
{ACAD_REACTORS
330
C
102
}
100
AcDbDictionary
280
0
281
1
  3
Standard
350
18
  0
DICTIONARY
  5
19
102
{ACAD_REACTORS
330
C
102
}
100
AcDbDictionary
281
1
  0
DICTIONARY
  5
1A
102
{ACAD_REACTORS
330
C
102
}
100
AcDbDictionary
281
1
  3
Model
350
759
  3
Layout1
350
75A
  0
ACDBPLACEHOLDER
  5
F
102
{ACAD_REACTORS
330
E
102
}
  0
MLINESTYLE
  5
18
102
{ACAD_REACTORS
330
17
102
}
100
AcDbMlineStyle
  2
STANDARD
 70
0
  3

 62
256
 51
90.0
 52
90.0
 71
2
 49
0.5
 62
256
  6
BYLAYER
 49
-0.5
 62
256
  6
BYLAYER
  0
LAYOUT
  5
759
102
{ACAD_REACTORS
330
1A
102
}
100
AcDbPlotSettings
  1

  2
none_device
  4
ISO_A4_(297.00_x_210.00_MM)
  6

 40
0.0
 41
0.0
 42
0.0
 43
0.0
 44
297.0
 45
210.0
 46
0.0
 47
0.0
 48
0.0
 49
0.0
140
0.0
141
0.0
142
1.0
143
1.0
 70
1024
 72
1
 73
0
 74
0
  7

 75
0
147
1.0
148
0.0
149
0.0
100
AcDbLayout
  1
Model
 70
0
 71
0
 10
0.0
 20
0.0
 11
297.0
 21
210.0
 12
0.0
 22
0.0
 32
0.0
 14
0.0
 24
0.0
 34
0.0
 15
0.0
 25
0.0
 35
0.0
146
0.0
 13
0.0
 23
0.0
 33
0.0
 16
1.0
 26
0.0
 36
0.0
 17
0.0
 27
1.0
 37
0.0
 76
0
330
218
345
0
346
0
  0
LAYOUT
  5
75A
102
{ACAD_REACTORS
330
1A
102
}
100
AcDbPlotSettings
  1

  2
none_device
  4
ISO_A4_(297.00_x_210.00_MM)
  6

 40
0.0
 41
0.0
 42
0.0
 43
0.0
 44
297.0
 45
210.0
 46
0.0
 47
0.0
 48
0.0
 49
0.0
140
0.0
141
0.0
142
1.0
143
1.0
 70
0
 72
1
 73
0
 74
0
  7

 75
0
147
1.0
148
0.0
149
0.0
100
AcDbLayout
  1
Layout1
 70
0
 71
1
 10
0.0
 20
0.0
 11
297.0
 21
210.0
 12
0.0
 22
0.0
 32
0.0
 14
0.0
 24
0.0
 34
0.0
 15
0.0
 25
0.0
 35
0.0
146
0.0
 13
0.0
 23
0.0
 33
0.0
 16
1.0
 26
0.0
 36
0.0
 17
0.0
 27
1.0
 37
0.0
 76
0
330
219
345
0
346
0
  0
ENDSEC
  0
EOF
