  0
SECTION
  2
HEADER
  9
$ACADVER
  1
AC1015
  9
$DWGCODEPAGE
  3
ANSI_1252
  9
$EXTMAX
 10
297.0
 20
210.0
 30
0.0
  9
$EXTMIN
 10
0.0
 20
0.0
 30
0.0
  9
$LIMMIN
 10
0.0
 20
0.0
  9
$LIMMAX
 10
297.0
 20
210.0
  9
$VIEWCTR
 10
148.5
 20
105.0
  9
$VIEWSIZE
 40
210.0
  9
$CLAYER
  8
0
  9
$LTSCALE
 40
16.335
  9
$CELTYPE
  6
BYLAYER
  9
$DIMSCALE
 40
1.0
  9
$DIMASZ
 40
3.0
  9
$DIMEXO
 40
1.85625
  9
$DIMDLI
 40
11.286
  9
$DIMEXE
 40
5.346
  9
$DIMCEN
 40
2.673
  9
$DIMLFAC
 40
1.0
  9
$DIMBLK
  1
_FILLED
  9
$DIMTXT
 40
3.0
  9
$DIMTOL
 70
1
  9
$DIMLIM
 70
0
  9
$DIMTFAC
 40
1.0
  9
$DIMTP
 40
0.01
  9
$DIMTM
 40
0.01
  9
$PDMODE
 70
3
  9
$PDSIZE
 40
3.0
  9
$HANDSEED
  5
2EF
  9
$TILEMODE
 70
1
  9
$MEASUREMENT
 70
1
  9
$INSUNITS
 70
4
  0
ENDSEC
  0
SECTION
  2
CLASSES
  0
CLASS
  1
ACDBDICTIONARYWDFLT
  2
AcDbDictionaryWithDefault
  3
AutoCAD 2000
 90
0
280
0
281
0
  0
CLASS
  1
ACDBPLACEHOLDER
  2
AcDbPlaceHolder
  3
AutoCAD 2000
 90
0
280
0
281
0
  0
CLASS
  1
LAYOUT
  2
AcDbLayout
  3
AutoCAD 2000
 90
0
280
0
281
0
  0
ENDSEC
  0
SECTION
  2
TABLES
  0
TABLE
  2
VPORT
  5
8
100
AcDbSymbolTable
 70
2
  0
VPORT
  5
1F4
100
AcDbSymbolTableRecord
100
AcDbViewportTableRecord
  2
*ACTIVE
 70
0
 10
0.0
 20
0.0
 11
1.0
 21
1.0
 12
148.5
 22
105.0
 13
0.0
 23
0.0
 14
1.0
 24
1.0
 15
0.0
 25
0.0
 16
0.0
 26
0.0
 36
1.0
 17
0.0
 27
0.0
 37
0.0
 40
210.0
 41
1.4142857143
 42
50.0
 43
0.0
 44
0.0
 50
0.0
 51
0.0
 71
0
 72
100
 73
1
 74
1
 75
0
 76
0
 77
0
 78
0
  0
ENDTAB
  0
TABLE
  2
LTYPE
  5
5
100
AcDbSymbolTable
 70
6
  0
LTYPE
  5
14
100
AcDbSymbolTableRecord
100
AcDbLinetypeTableRecord
  2
BYBLOCK
 70
0
  3

 72
65
 73
0
 40
0.0
  0
LTYPE
  5
15
100
AcDbSymbolTableRecord
100
AcDbLinetypeTableRecord
  2
BYLAYER
 70
0
  3

 72
65
 73
0
 40
0.0
  0
LTYPE
  5
16
100
AcDbSymbolTableRecord
100
AcDbLinetypeTableRecord
  2
CONTINUOUS
 70
64
  3
Solid line
 72
65
 73
0
 40
0.0
  0
LTYPE
  5
1F5
100
AcDbSymbolTableRecord
100
AcDbLinetypeTableRecord
  2
CENTER
 70
64
  3
____ _ ____ _ ____ _ ____ _ ____ _ ____ _ ____
 72
65
 73
4
 40
0.6
 49
0.375
 74
0
 49
-0.075
 74
0
 49
0.075
 74
0
 49
-0.075
 74
0
  0
LTYPE
  5
1F6
100
AcDbSymbolTableRecord
100
AcDbLinetypeTableRecord
  2
HIDDEN
 70
64
  3
- - - - - - - - - - - - - - - - - - - -
 72
65
 73
2
 40
0.2
 49
0.1
 74
0
 49
-0.1
 74
0
  0
LTYPE
  5
1F7
100
AcDbSymbolTableRecord
100
AcDbLinetypeTableRecord
  2
PHANTOM
 70
64
  3
_____ _ _ _____ _ _ _____ _ _ _____
 72
65
 73
6
 40
0.8
 49
0.45
 74
0
 49
-0.05
 74
0
 49
0.1
 74
0
 49
-0.05
 74
0
 49
0.1
 74
0
 49
-0.05
 74
0
  0
LTYPE
  5
1F8
100
AcDbSymbolTableRecord
100
AcDbLinetypeTableRecord
  2
DOT
 70
64
  3
. . . . . . . . . . . . . . . . . . . .
 72
65
 73
2
 40
0.2
 49
0.1
 74
0
 49
-0.1
 74
0
  0
LTYPE
  5
1F9
100
AcDbSymbolTableRecord
100
AcDbLinetypeTableRecord
  2
DASHED
 70
64
  3
- - - - - - - - - - - - - - - - - - - -
 72
65
 73
2
 40
0.2
 49
0.1
 74
0
 49
-0.1
 74
0
  0
ENDTAB
  0
TABLE
  2
LAYER
  5
2
100
AcDbSymbolTable
 70
36
  0
LAYER
  5
10
100
AcDbSymbolTableRecord
100
AcDbLayerTableRecord
  2
0
 70
0
 62
7
  6
CONTINUOUS
370
-3
390
F
  0
LAYER
  5
1FA
100
AcDbSymbolTableRecord
100
AcDbLayerTableRecord
  2
DEFAULT_1
 70
0
 62
7
  6
CENTER
370
-3
390
F
  0
LAYER
  5
1FB
100
AcDbSymbolTableRecord
100
AcDbLayerTableRecord
  2
DEFAULT_2
 70
0
 62
7
  6
HIDDEN
370
-3
390
F
  0
LAYER
  5
1FC
100
AcDbSymbolTableRecord
100
AcDbLayerTableRecord
  2
DEFAULT_3
 70
0
 62
7
  6
PHANTOM
370
-3
390
F
  0
LAYER
  5
1FD
100
AcDbSymbolTableRecord
100
AcDbLayerTableRecord
  2
ASSI
 70
0
 62
7
  6
CONTINUOUS
370
-3
390
F
  0
LAYER
  5
1FE
100
AcDbSymbolTableRecord
100
AcDbLayerTableRecord
  2
COORDINATE
 70
0
 62
7
  6
CONTINUOUS
370
-3
390
F
  0
LAYER
  5
1FF
100
AcDbSymbolTableRecord
100
AcDbLayerTableRecord
  2
COORD_ORIGINE
 70
0
 62
7
  6
CONTINUOUS
370
-3
390
F
  0
LAYER
  5
200
100
AcDbSymbolTableRecord
100
AcDbLayerTableRecord
  2
COPY_PUBLISH
 70
0
 62
7
  6
CONTINUOUS
370
-3
390
F
  0
LAYER
  5
201
100
AcDbSymbolTableRecord
100
AcDbLayerTableRecord
  2
COSMETIC
 70
0
 62
7
  6
CONTINUOUS
370
-3
390
F
  0
LAYER
  5
202
100
AcDbSymbolTableRecord
100
AcDbLayerTableRecord
  2
CURVE
 70
0
 62
7
  6
CONTINUOUS
370
-3
390
F
  0
LAYER
  5
203
100
AcDbSymbolTableRecord
100
AcDbLayerTableRecord
  2
DRAFT
 70
0
 62
7
  6
CONTINUOUS
370
-3
390
F
  0
LAYER
  5
204
100
AcDbSymbolTableRecord
100
AcDbLayerTableRecord
  2
IGES
 70
0
 62
7
  6
CONTINUOUS
370
-3
390
F
  0
LAYER
  5
205
100
AcDbSymbolTableRecord
100
AcDbLayerTableRecord
  2
IMPORT_IGES
 70
0
 62
7
  6
CONTINUOUS
370
-3
390
F
  0
LAYER
  5
206
100
AcDbSymbolTableRecord
100
AcDbLayerTableRecord
  2
INTF_6
 70
0
 62
7
  6
CONTINUOUS
370
-3
390
F
  0
LAYER
  5
207
100
AcDbSymbolTableRecord
100
AcDbLayerTableRecord
  2
NOTE
 70
0
 62
7
  6
CONTINUOUS
370
-3
390
F
  0
LAYER
  5
208
100
AcDbSymbolTableRecord
100
AcDbLayerTableRecord
  2
PIANI
 70
0
 62
7
  6
CONTINUOUS
370
-3
390
F
  0
LAYER
  5
209
100
AcDbSymbolTableRecord
100
AcDbLayerTableRecord
  2
PIANI_ORIGINE
 70
0
 62
7
  6
CONTINUOUS
370
-3
390
F
  0
LAYER
  5
20A
100
AcDbSymbolTableRecord
100
AcDbLayerTableRecord
  2
PIANI_RIFERIMENTO
 70
0
 62
7
  6
CONTINUOUS
370
-3
390
F
  0
LAYER
  5
20B
100
AcDbSymbolTableRecord
100
AcDbLayerTableRecord
  2
PUNTI
 70
0
 62
7
  6
CONTINUOUS
370
-3
390
F
  0
LAYER
  5
20C
100
AcDbSymbolTableRecord
100
AcDbLayerTableRecord
  2
RACCORDO
 70
0
 62
7
  6
CONTINUOUS
370
-3
390
F
  0
LAYER
  5
20D
100
AcDbSymbolTableRecord
100
AcDbLayerTableRecord
  2
SMUSSO
 70
0
 62
7
  6
CONTINUOUS
370
-3
390
F
  0
LAYER
  5
20E
100
AcDbSymbolTableRecord
100
AcDbLayerTableRecord
  2
SNAPLINE
 70
0
 62
7
  6
CONTINUOUS
370
-3
390
F
  0
LAYER
  5
20F
100
AcDbSymbolTableRecord
100
AcDbLayerTableRecord
  2
SUPERFICI
 70
0
 62
7
  6
CONTINUOUS
370
-3
390
F
  0
LAYER
  5
210
100
AcDbSymbolTableRecord
100
AcDbLayerTableRecord
  2
TRASH
 70
0
 62
7
  6
CONTINUOUS
370
-3
390
F
  0
LAYER
  5
211
100
AcDbSymbolTableRecord
100
AcDbLayerTableRecord
  2
XSEC_DATUMS
 70
0
 62
7
  6
CONTINUOUS
370
-3
390
F
  0
ENDTAB
  0
TABLE
  2
STYLE
  5
3
100
AcDbSymbolTable
 70
1
  0
STYLE
  5
11
100
AcDbSymbolTableRecord
100
AcDbTextStyleTableRecord
  2
STANDARD
 70
0
 40
0.0
 41
0.8
 50
0.0
 71
0
 42
0.2
  3
txt
  4

  0
STYLE
  5
212
100
AcDbSymbolTableRecord
100
AcDbTextStyleTableRecord
  2
TEXTSTYLE_1
 70
0
 40
0.0
 41
0.8
 50
0.0
 71
0
 42
0.2
  3
gdt
  4

  0
ENDTAB
  0
TABLE
  2
VIEW
  5
6
100
AcDbSymbolTable
 70
0
  0
ENDTAB
  0
TABLE
  2
UCS
  5
7
100
AcDbSymbolTable
 70
0
  0
ENDTAB
  0
TABLE
  2
APPID
  5
9
100
AcDbSymbolTable
 70
1
  0
APPID
  5
213
100
AcDbSymbolTableRecord
100
AcDbRegAppTableRecord
  2
ACAD
 70
0
  0
ENDTAB
  0
TABLE
  2
BLOCK_RECORD
  5
1
100
AcDbSymbolTable
 70
0
  0
BLOCK_RECORD
  5
214
100
AcDbSymbolTableRecord
100
AcDbBlockTableRecord
  2
*Model_Space
  0
BLOCK_RECORD
  5
215
100
AcDbSymbolTableRecord
100
AcDbBlockTableRecord
  2
*Paper_Space
  0
BLOCK_RECORD
  5
216
100
AcDbSymbolTableRecord
100
AcDbBlockTableRecord
  2
_FILLED
  0
BLOCK_RECORD
  5
217
100
AcDbSymbolTableRecord
100
AcDbBlockTableRecord
  2
*D0
  0
BLOCK_RECORD
  5
218
100
AcDbSymbolTableRecord
100
AcDbBlockTableRecord
  2
*D1
  0
BLOCK_RECORD
  5
219
100
AcDbSymbolTableRecord
100
AcDbBlockTableRecord
  2
*D2
  0
ENDTAB
  0
TABLE
  2
DIMSTYLE
  5
A
100
AcDbSymbolTable
 70
1
100
AcDbDimStyleTable
 71
0
  0
DIMSTYLE
105
21A
100
AcDbSymbolTableRecord
100
AcDbDimStyleTableRecord
  2
STANDARD
 70
0
  3

  4

 40
1.0
 41
3.0
 42
0.0625
 43
0.38
 44
0.18
 45
0.0
 46
0.0
 47
0.01
 48
0.01
140
3.0
141
0.09
142
0.0
143
25.4
144
1.0
145
0.0
146
1.0
147
0.09
 71
1.0
 72
0.0
 73
0
 74
0
 75
0
 76
0
 77
1
 78
8
170
0
171
2
172
0
173
0
174
0
175
0
176
0
177
0
178
0
270
2
271
2
272
2
273
2
274
2
275
0
280
0
281
0
282
0
283
1
284
8
285
0
286
0
287
3
288
0
340
11
341
216
342
216
343
216
344
216
  0
DIMSTYLE
105
21B
100
AcDbSymbolTableRecord
100
AcDbDimStyleTableRecord
  2
DIMSTYLE_1
 70
0
  3

  4

 40
1.0
 41
3.0
 42
0.0625
 43
0.38
 44
0.18
 45
0.0
 46
0.0
 47
0.0
 48
0.0
140
3.0
141
0.09
142
0.0
143
25.4
144
1.0
145
0.0
146
1.0
147
0.09
 71
0.0
 72
0.0
 73
0
 74
0
 75
0
 76
0
 77
1
 78
8
170
0
171
2
172
0
173
0
174
0
175
0
176
0
177
0
178
0
270
2
271
2
272
2
273
2
274
2
275
0
280
0
281
0
282
0
283
1
284
8
285
0
286
0
287
3
288
0
340
11
341
216
342
216
343
216
344
216
  0
DIMSTYLE
105
21C
100
AcDbSymbolTableRecord
100
AcDbDimStyleTableRecord
  2
DIMSTYLE_2
 70
0
  3

  4

 40
1.0
 41
3.0
 42
0.0625
 43
0.38
 44
0.18
 45
0.0
 46
0.0
 47
0.0
 48
0.0
140
3.0
141
0.09
142
0.0
143
25.4
144
1.0
145
0.0
146
1.0
147
0.09
 71
0.0
 72
0.0
 73
0
 74
0
 75
0
 76
0
 77
1
 78
8
170
0
171
2
172
0
173
0
174
0
175
0
176
0
177
0
178
0
270
2
271
1
272
1
273
2
274
2
275
0
280
0
281
0
282
0
283
1
284
8
285
0
286
0
287
3
288
0
340
11
341
216
342
216
343
216
344
216
  0
ENDTAB
  0
ENDSEC
  0
SECTION
  2
BLOCKS
  0
BLOCK
  5
20
100
AcDbEntity
  8
0
100
AcDbBlockBegin
  2
*Model_Space
 70
0
 10
0.0
 20
0.0
 30
0.0
  3
*Model_Space
  1

  0
ENDBLK
  5
21
100
AcDbEntity
  8
0
100
AcDbBlockEnd
  0
BLOCK
  5
1C
100
AcDbEntity
  8
0
100
AcDbBlockBegin
  2
*Paper_Space
 70
0
 10
0.0
 20
0.0
 30
0.0
  3
*Paper_Space
  1

  0
ENDBLK
  5
1D
100
AcDbEntity
  8
0
100
AcDbBlockEnd
  0
BLOCK
  5
21D
100
AcDbEntity
  8
0
100
AcDbBlockBegin
  2
_FILLED
 70
64
 10
0.0
 20
0.0
  3
_FILLED
  1

  0
SOLID
  5
21E
100
AcDbEntity
  8
0
  6
BYBLOCK
 62
0
100
AcDbTrace
 10
0.0
 20
0.0
 11
-1.0
 21
0.3166666667
 12
-1.0
 22
-0.3166666667
 13
-1.0
 23
-0.3166666667
  0
ENDBLK
  5
21F
100
AcDbEntity
  8
0
  6
BYBLOCK
 62
0
100
AcDbBlockEnd
  0
BLOCK
  5
220
100
AcDbEntity
  8
0
100
AcDbBlockBegin
 62
7
  6
CONTINUOUS
  2
*D0
 70
65
 10
0.0
 20
0.0
  3
*D0
  1

  0
MTEXT
  5
221
100
AcDbEntity
  8
0
100
AcDbMText
 62
7
  6
CONTINUOUS
  7
STANDARD
 71
2
 72
1
 10
16.5861247337
 20
22.6753083918
 30
0.0
 11
1.0
 21
0.0
 31
0.0
 44
0.9
  1
22,3
 40
3.0
 41
8.5714285714
  0
LINE
  5
222
100
AcDbEntity
  8
0
100
AcDbLine
 62
7
  6
CONTINUOUS
 10
27.7361247337
 20
11.2253312371
 11
27.7361247337
 21
20.4253083918
  0
LINE
  5
223
100
AcDbEntity
  8
0
100
AcDbLine
 62
7
  6
CONTINUOUS
 10
5.4361247337
 20
11.2253312371
 11
5.4361247337
 21
20.4253083918
  0
LINE
  5
224
100
AcDbEntity
  8
0
100
AcDbLine
 62
7
  6
CONTINUOUS
 10
27.7361247337
 20
18.9253083918
 11
16.5861247337
 21
18.9253083918
  0
LINE
  5
225
100
AcDbEntity
  8
0
100
AcDbLine
 62
7
  6
CONTINUOUS
 10
5.4361247337
 20
18.9253083918
 11
16.5861247337
 21
18.9253083918
  0
INSERT
  5
226
100
AcDbEntity
  8
0
100
AcDbBlockReference
 62
7
  6
CONTINUOUS
  2
_FILLED
 10
27.7361247337
 20
18.9253083918
 41
3.0
 42
3.0
 43
3.0
  0
INSERT
  5
227
100
AcDbEntity
  8
0
100
AcDbBlockReference
 62
7
  6
CONTINUOUS
  2
_FILLED
 10
5.4361247337
 20
18.9253083918
 41
3.0
 42
3.0
 43
3.0
 50
180.0
  0
ENDBLK
  5
228
100
AcDbEntity
  8
0
  6
BYBLOCK
 62
0
100
AcDbBlockEnd
  0
BLOCK
  5
229
100
AcDbEntity
  8
0
100
AcDbBlockBegin
 62
7
  6
CONTINUOUS
  2
*D1
 70
65
 10
0.0
 20
0.0
  3
*D1
  1

  0
MTEXT
  5
22A
100
AcDbEntity
  8
0
100
AcDbMText
 62
7
  6
CONTINUOUS
  7
STANDARD
 71
2
 72
1
 10
31.9861247337
 20
-0.104347961
 30
0.0
 11
0.0
 21
1.0
 31
0.0
 44
0.9
  1
22,1
 40
3.0
 41
8.1428571429
  0
LINE
  5
22B
100
AcDbEntity
  8
0
100
AcDbLine
 62
7
  6
CONTINUOUS
 10
28.0361247325
 20
10.9253083918
 11
37.2361247337
 21
10.9253083918
  0
LINE
  5
22C
100
AcDbEntity
  8
0
100
AcDbLine
 62
7
  6
CONTINUOUS
 10
27.7226706731
 20
-11.1340043139
 11
37.2361247337
 21
-11.1340043139
  0
LINE
  5
22D
100
AcDbEntity
  8
0
100
AcDbLine
 62
7
  6
CONTINUOUS
 10
35.7361247337
 20
10.9253083918
 11
35.7361247337
 21
-0.104347961
  0
LINE
  5
22E
100
AcDbEntity
  8
0
100
AcDbLine
 62
7
  6
CONTINUOUS
 10
35.7361247337
 20
-11.1340043139
 11
35.7361247337
 21
-0.104347961
  0
INSERT
  5
22F
100
AcDbEntity
  8
0
100
AcDbBlockReference
 62
7
  6
CONTINUOUS
  2
_FILLED
 10
35.7361247337
 20
10.9253083918
 41
3.0
 42
3.0
 43
3.0
 50
90.0
  0
INSERT
  5
230
100
AcDbEntity
  8
0
100
AcDbBlockReference
 62
7
  6
CONTINUOUS
  2
_FILLED
 10
35.7361247337
 20
-11.1340043139
 41
3.0
 42
3.0
 43
3.0
 50
270.0
  0
ENDBLK
  5
231
100
AcDbEntity
  8
0
  6
BYBLOCK
 62
0
100
AcDbBlockEnd
  0
BLOCK
  5
232
100
AcDbEntity
  8
0
100
AcDbBlockBegin
 62
7
  6
CONTINUOUS
  2
*D2
 70
65
 10
0.0
 20
0.0
  3
*D2
  1

  0
MTEXT
  5
233
100
AcDbEntity
  8
0
100
AcDbMText
 62
7
  6
CONTINUOUS
  7
STANDARD
 71
2
 72
1
 10
-8.9807244194
 20
22.6753083918
 30
0.0
 11
1.0
 21
0.0
 31
0.0
 44
0.9
  1
6,5
 40
3.0
 41
6.2142857143
  0
LINE
  5
234
100
AcDbEntity
  8
0
100
AcDbLine
 62
7
  6
CONTINUOUS
 10
-5.7307850213
 20
7.9253083918
 11
-5.7307850213
 21
20.4253083918
  0
LINE
  5
235
100
AcDbEntity
  8
0
100
AcDbLine
 62
7
  6
CONTINUOUS
 10
-12.2306638174
 20
11.1771648032
 11
-12.2306638174
 21
20.4253083918
  0
LINE
  5
236
100
AcDbEntity
  8
0
100
AcDbLine
 62
7
  6
CONTINUOUS
 10
-5.7307850213
 20
18.9253083918
 11
-1.7307850213
 21
18.9253083918
  0
LINE
  5
237
100
AcDbEntity
  8
0
100
AcDbLine
 62
7
  6
CONTINUOUS
 10
-1.7307850213
 20
18.9253083918
 11
-8.9807244194
 21
18.9253083918
  0
LINE
  5
238
100
AcDbEntity
  8
0
100
AcDbLine
 62
7
  6
CONTINUOUS
 10
-12.2306638174
 20
18.9253083918
 11
-16.2306638174
 21
18.9253083918
  0
LINE
  5
239
100
AcDbEntity
  8
0
100
AcDbLine
 62
7
  6
CONTINUOUS
 10
-16.2306638174
 20
18.9253083918
 11
-8.9807244194
 21
18.9253083918
  0
INSERT
  5
23A
100
AcDbEntity
  8
0
100
AcDbBlockReference
 62
7
  6
CONTINUOUS
  2
_FILLED
 10
-5.7307850213
 20
18.9253083918
 41
3.0
 42
3.0
 43
3.0
 50
180.0
  0
INSERT
  5
23B
100
AcDbEntity
  8
0
100
AcDbBlockReference
 62
7
  6
CONTINUOUS
  2
_FILLED
 10
-12.2306638174
 20
18.9253083918
 41
3.0
 42
3.0
 43
3.0
  0
ENDBLK
  5
23C
100
AcDbEntity
  8
0
  6
BYBLOCK
 62
0
100
AcDbBlockEnd
  0
ENDSEC
  0
SECTION
  2
ENTITIES
  0
DIMENSION
  5
23D
100
AcDbEntity
  8
0
100
AcDbDimension
 62
7
  6
CONTINUOUS
  2
*D0
 10
5.4361247337
 20
18.9253083918
 11
12.300410448
 21
21.1753083918
 70
160
 71
2
 42
22.3
  3
DIMSTYLE_1
100
AcDbAlignedDimension
 13
27.7361247337
 23
11.2253312371
 14
5.4361247337
 24
11.2253312371
 50
180.0
100
AcDbRotatedDimension
  0
DIMENSION
  5
23E
100
AcDbEntity
  8
0
100
AcDbDimension
 62
7
  6
CONTINUOUS
  2
*D1
 10
35.7361247337
 20
-11.1340043139
 11
35.3104244565
 21
-3.74419152
 70
160
 71
2
 42
22.0593127057
  3
DIMSTYLE_2
100
AcDbAlignedDimension
 13
28.0361247325
 23
10.9253083918
 14
27.7226706731
 24
-11.1340043139
 50
270.0
100
AcDbRotatedDimension
  0
DIMENSION
  5
23F
100
AcDbEntity
  8
0
100
AcDbDimension
 62
7
  6
CONTINUOUS
  2
*D2
 10
-12.2306638174
 20
18.9253083918
 11
-12.0878672765
 21
21.1753083918
 70
160
 71
2
 42
6.499878796
  3
DIMSTYLE_1
100
AcDbAlignedDimension
 13
-5.7307850213
 23
7.9253083918
 14
-12.2306638174
 24
11.1771648032
 50
180.0
100
AcDbRotatedDimension
  0
LINE
  5
240
100
AcDbEntity
  8
RACCORDO
100
AcDbLine
 62
7
  6
CONTINUOUS
 10
5.4361247337
 20
-2.0746916082
 11
5.449198971
 21
-10.6360585861
  0
LINE
  5
241
100
AcDbEntity
  8
ASSI
100
AcDbLine
 62
7
  6
CONTINUOUS
 10
5.4361247337
 20
-2.0746916082
 11
5.449198971
 21
-10.6360585861
  0
LINE
  5
242
100
AcDbEntity
  8
RACCORDO
100
AcDbLine
 62
7
  6
CONTINUOUS
 10
5.4361247337
 20
10.7253312371
 11
5.4361247337
 21
-2.0746916082
  0
LINE
  5
243
100
AcDbEntity
  8
ASSI
100
AcDbLine
 62
7
  6
CONTINUOUS
 10
5.4361247337
 20
10.7253312371
 11
5.4361247337
 21
-2.0746916082
  0
LINE
  5
244
100
AcDbEntity
  8
RACCORDO
100
AcDbLine
 62
253
  6
CONTINUOUS
 10
6.0269651218
 20
10.6771648023
 11
6.0269651218
 21
10.8772964452
  0
LINE
  5
245
100
AcDbEntity
  8
ASSI
100
AcDbLine
 62
253
  6
CONTINUOUS
 10
6.0269651218
 20
10.6771648023
 11
6.0269651218
 21
10.8772964452
  0
LINE
  5
246
100
AcDbEntity
  8
RACCORDO
100
AcDbLine
 62
7
  6
CONTINUOUS
 10
19.9776997407
 20
-11.1340043139
 11
20.3283897068
 21
-11.1021711559
  0
LINE
  5
247
100
AcDbEntity
  8
ASSI
100
AcDbLine
 62
7
  6
CONTINUOUS
 10
19.9776997407
 20
-11.1340043139
 11
20.3283897068
 21
-11.1021711559
  0
LINE
  5
248
100
AcDbEntity
  8
RACCORDO
100
AcDbLine
 62
7
  6
CONTINUOUS
 10
5.9495787943
 20
-11.1340043139
 11
8.7776997407
 21
-11.1340043139
  0
LINE
  5
249
100
AcDbEntity
  8
ASSI
100
AcDbLine
 62
7
  6
CONTINUOUS
 10
5.9495787943
 20
-11.1340043139
 11
8.7776997407
 21
-11.1340043139
  0
LINE
  5
24A
100
AcDbEntity
  8
DRAFT
100
AcDbLine
 62
7
  6
CONTINUOUS
 10
13.1945497267
 20
-11.1340043139
 11
19.9776997407
 21
-11.1340043139
  0
LINE
  5
24B
100
AcDbEntity
  8
ASSI
100
AcDbLine
 62
7
  6
CONTINUOUS
 10
13.1945497267
 20
-11.1340043139
 11
19.9776997407
 21
-11.1340043139
  0
LINE
  5
24C
100
AcDbEntity
  8
RACCORDO
100
AcDbLine
 62
7
  6
CONTINUOUS
 10
24.3945497267
 20
-11.1340043139
 11
27.2226706731
 21
-11.1340043139
  0
LINE
  5
24D
100
AcDbEntity
  8
ASSI
100
AcDbLine
 62
7
  6
CONTINUOUS
 10
24.3945497267
 20
-11.1340043139
 11
27.2226706731
 21
-11.1340043139
  0
LINE
  5
24E
100
AcDbEntity
  8
RACCORDO
100
AcDbLine
 62
7
  6
CONTINUOUS
 10
9.3015947875
 20
-11.096930378
 11
12.6706546798
 21
-11.096930378
  0
LINE
  5
24F
100
AcDbEntity
  8
ASSI
100
AcDbLine
 62
7
  6
CONTINUOUS
 10
9.3015947875
 20
-11.096930378
 11
12.6706546798
 21
-11.096930378
  0
LINE
  5
250
100
AcDbEntity
  8
RACCORDO
100
AcDbLine
 62
7
  6
CONTINUOUS
 10
20.5015947875
 20
-11.096930378
 11
23.8706546798
 21
-11.096930378
  0
LINE
  5
251
100
AcDbEntity
  8
ASSI
100
AcDbLine
 62
7
  6
CONTINUOUS
 10
20.5015947875
 20
-11.096930378
 11
23.8706546798
 21
-11.096930378
  0
LINE
  5
252
100
AcDbEntity
  8
RACCORDO
100
AcDbLine
 62
253
  6
CONTINUOUS
 10
27.1691853098
 20
-10.9734177378
 11
6.0030641575
 21
-10.9734177378
  0
LINE
  5
253
100
AcDbEntity
  8
ASSI
100
AcDbLine
 62
253
  6
CONTINUOUS
 10
27.1691853098
 20
-10.9734177378
 11
6.0030641575
 21
-10.9734177378
  0
LINE
  5
254
100
AcDbEntity
  8
RACCORDO
100
AcDbLine
 62
7
  6
CONTINUOUS
 10
13.1945497267
 20
-11.1340043139
 11
12.8438597606
 21
-11.1021711559
  0
LINE
  5
255
100
AcDbEntity
  8
ASSI
100
AcDbLine
 62
7
  6
CONTINUOUS
 10
13.1945497267
 20
-11.1340043139
 11
12.8438597606
 21
-11.1021711559
  0
LINE
  5
256
100
AcDbEntity
  8
RACCORDO
100
AcDbLine
 62
7
  6
CONTINUOUS
 10
8.7776997407
 20
-11.1340043139
 11
9.1283897068
 21
-11.1021711559
  0
LINE
  5
257
100
AcDbEntity
  8
ASSI
100
AcDbLine
 62
7
  6
CONTINUOUS
 10
8.7776997407
 20
-11.1340043139
 11
9.1283897068
 21
-11.1021711559
  0
LINE
  5
258
100
AcDbEntity
  8
RACCORDO
100
AcDbLine
 62
253
  6
CONTINUOUS
 10
27.1526582124
 20
-9.5371394386
 11
6.0195912549
 21
-9.5371394391
  0
LINE
  5
259
100
AcDbEntity
  8
ASSI
100
AcDbLine
 62
253
  6
CONTINUOUS
 10
27.1526582124
 20
-9.5371394386
 11
6.0195912549
 21
-9.5371394391
  0
LINE
  5
25A
100
AcDbEntity
  8
RACCORDO
100
AcDbLine
 62
7
  6
CONTINUOUS
 10
24.3945497267
 20
-11.1340043139
 11
24.0438597606
 21
-11.1021711559
  0
LINE
  5
25B
100
AcDbEntity
  8
ASSI
100
AcDbLine
 62
7
  6
CONTINUOUS
 10
24.3945497267
 20
-11.1340043139
 11
24.0438597606
 21
-11.1021711559
  0
LINE
  5
25C
100
AcDbEntity
  8
RACCORDO
100
AcDbLine
 62
253
  6
CONTINUOUS
 10
5.449198971
 20
-10.6360585861
 11
5.5031406123
 21
-10.4741020628
  0
LINE
  5
25D
100
AcDbEntity
  8
ASSI
100
AcDbLine
 62
253
  6
CONTINUOUS
 10
5.449198971
 20
-10.6360585861
 11
5.5031406123
 21
-10.4741020628
  0
LINE
  5
25E
100
AcDbEntity
  8
RACCORDO
100
AcDbLine
 62
253
  6
CONTINUOUS
 10
5.9495787943
 20
-11.1340043139
 11
6.0030641575
 21
-10.9734177378
  0
LINE
  5
25F
100
AcDbEntity
  8
ASSI
100
AcDbLine
 62
253
  6
CONTINUOUS
 10
5.9495787943
 20
-11.1340043139
 11
6.0030641575
 21
-10.9734177378
  0
LINE
  5
260
100
AcDbEntity
  8
RACCORDO
100
AcDbLine
 62
253
  6
CONTINUOUS
 10
27.5361247325
 20
10.9253083918
 11
27.4452386255
 21
10.8798687992
  0
LINE
  5
261
100
AcDbEntity
  8
ASSI
100
AcDbLine
 62
253
  6
CONTINUOUS
 10
27.5361247325
 20
10.9253083918
 11
27.4452386255
 21
10.8798687992
  0
LINE
  5
262
100
AcDbEntity
  8
RACCORDO
100
AcDbLine
 62
253
  6
CONTINUOUS
 10
27.7361247337
 20
10.7253312371
 11
27.6452084546
 21
10.6798765596
  0
LINE
  5
263
100
AcDbEntity
  8
ASSI
100
AcDbLine
 62
253
  6
CONTINUOUS
 10
27.7361247337
 20
10.7253312371
 11
27.6452084546
 21
10.6798765596
  0
LINE
  5
264
100
AcDbEntity
  8
RACCORDO
100
AcDbLine
 62
253
  6
CONTINUOUS
 10
5.5270410127
 20
10.6798765596
 11
5.4361247337
 21
10.7253312371
  0
LINE
  5
265
100
AcDbEntity
  8
ASSI
100
AcDbLine
 62
253
  6
CONTINUOUS
 10
5.5270410127
 20
10.6798765596
 11
5.4361247337
 21
10.7253312371
  0
LINE
  5
266
100
AcDbEntity
  8
RACCORDO
100
AcDbLine
 62
253
  6
CONTINUOUS
 10
5.7270108419
 20
10.8798687992
 11
5.6361247348
 21
10.9253083918
  0
LINE
  5
267
100
AcDbEntity
  8
ASSI
100
AcDbLine
 62
253
  6
CONTINUOUS
 10
5.7270108419
 20
10.8798687992
 11
5.6361247348
 21
10.9253083918
  0
LINE
  5
268
100
AcDbEntity
  8
RACCORDO
100
AcDbLine
 62
253
  6
CONTINUOUS
 10
27.1691853098
 20
-10.9734177378
 11
27.2226706731
 21
-11.1340043139
  0
LINE
  5
269
100
AcDbEntity
  8
ASSI
100
AcDbLine
 62
253
  6
CONTINUOUS
 10
27.1691853098
 20
-10.9734177378
 11
27.2226706731
 21
-11.1340043139
  0
LINE
  5
26A
100
AcDbEntity
  8
RACCORDO
100
AcDbLine
 62
253
  6
CONTINUOUS
 10
27.6691088551
 20
-10.4741020628
 11
27.7230504964
 21
-10.6360585861
  0
LINE
  5
26B
100
AcDbEntity
  8
ASSI
100
AcDbLine
 62
253
  6
CONTINUOUS
 10
27.6691088551
 20
-10.4741020628
 11
27.7230504964
 21
-10.6360585861
  0
LINE
  5
26C
100
AcDbEntity
  8
RACCORDO
100
AcDbLine
 62
253
  6
CONTINUOUS
 10
27.1452843456
 20
10.6771648023
 11
27.1452843456
 21
10.8772964452
  0
LINE
  5
26D
100
AcDbEntity
  8
ASSI
100
AcDbLine
 62
253
  6
CONTINUOUS
 10
27.1452843456
 20
10.6771648023
 11
27.1452843456
 21
10.8772964452
  0
LINE
  5
26E
100
AcDbEntity
  8
DRAFT
100
AcDbLine
 62
7
  6
CONTINUOUS
 10
25.0985907243
 20
10.9253083918
 11
24.8361247337
 21
10.8991277885
  0
LINE
  5
26F
100
AcDbEntity
  8
ASSI
100
AcDbLine
 62
7
  6
CONTINUOUS
 10
25.0985907243
 20
10.9253083918
 11
24.8361247337
 21
10.8991277885
  0
LINE
  5
270
100
AcDbEntity
  8
DRAFT
100
AcDbLine
 62
7
  6
CONTINUOUS
 10
8.0736587431
 20
10.9253083918
 11
8.3361247337
 21
10.8991277885
  0
LINE
  5
271
100
AcDbEntity
  8
ASSI
100
AcDbLine
 62
7
  6
CONTINUOUS
 10
8.0736587431
 20
10.9253083918
 11
8.3361247337
 21
10.8991277885
  0
LINE
  5
272
100
AcDbEntity
  8
RACCORDO
100
AcDbLine
 62
7
  6
CONTINUOUS
 10
27.7361247337
 20
10.7253312371
 11
27.7361247337
 21
-2.0746916082
  0
LINE
  5
273
100
AcDbEntity
  8
ASSI
100
AcDbLine
 62
7
  6
CONTINUOUS
 10
27.7361247337
 20
10.7253312371
 11
27.7361247337
 21
-2.0746916082
  0
LINE
  5
274
100
AcDbEntity
  8
RACCORDO
100
AcDbLine
 62
7
  6
CONTINUOUS
 10
27.7361247337
 20
-2.0746916082
 11
27.7230504964
 21
-10.6360585861
  0
LINE
  5
275
100
AcDbEntity
  8
ASSI
100
AcDbLine
 62
7
  6
CONTINUOUS
 10
27.7361247337
 20
-2.0746916082
 11
27.7230504964
 21
-10.6360585861
  0
LINE
  5
276
100
AcDbEntity
  8
RACCORDO
100
AcDbLine
 62
253
  6
CONTINUOUS
 10
27.1452678729
 20
10.6771648023
 11
6.0269815946
 21
10.6771648023
  0
LINE
  5
277
100
AcDbEntity
  8
ASSI
100
AcDbLine
 62
253
  6
CONTINUOUS
 10
27.1452678729
 20
10.6771648023
 11
6.0269815946
 21
10.6771648023
  0
LINE
  5
278
100
AcDbEntity
  8
RACCORDO
100
AcDbLine
 62
253
  6
CONTINUOUS
 10
27.1452843456
 20
10.8772964452
 11
6.0269651218
 21
10.8772964452
  0
LINE
  5
279
100
AcDbEntity
  8
ASSI
100
AcDbLine
 62
7
  6
CONTINUOUS
 10
27.1452843456
 20
10.8772964452
 11
6.0269651218
 21
10.8772964452
  0
LINE
  5
27A
100
AcDbEntity
  8
DRAFT
100
AcDbLine
 62
7
  6
CONTINUOUS
 10
8.3361247337
 20
10.8991277885
 11
24.8361247337
 21
10.8991277885
  0
LINE
  5
27B
100
AcDbEntity
  8
ASSI
100
AcDbLine
 62
7
  6
CONTINUOUS
 10
8.3361247337
 20
10.8991277885
 11
24.8361247337
 21
10.8991277885
  0
LINE
  5
27C
100
AcDbEntity
  8
RACCORDO
100
AcDbLine
 62
7
  6
CONTINUOUS
 10
5.6361247348
 20
10.9253083918
 11
8.0736587431
 21
10.9253083918
  0
LINE
  5
27D
100
AcDbEntity
  8
ASSI
100
AcDbLine
 62
7
  6
CONTINUOUS
 10
5.6361247348
 20
10.9253083918
 11
8.0736587431
 21
10.9253083918
  0
LINE
  5
27E
100
AcDbEntity
  8
RACCORDO
100
AcDbLine
 62
7
  6
CONTINUOUS
 10
25.0985907243
 20
10.9253083918
 11
27.5361247325
 21
10.9253083918
  0
LINE
  5
27F
100
AcDbEntity
  8
ASSI
100
AcDbLine
 62
7
  6
CONTINUOUS
 10
25.0985907243
 20
10.9253083918
 11
27.5361247325
 21
10.9253083918
  0
LINE
  5
280
100
AcDbEntity
  8
RACCORDO
100
AcDbLine
 62
7
  6
CONTINUOUS
 10
-10.3875465912
 20
-10.9734177378
 11
-7.3233721824
 21
-11.1340043139
  0
LINE
  5
281
100
AcDbEntity
  8
ASSI
100
AcDbLine
 62
7
  6
CONTINUOUS
 10
-10.3875465912
 20
-10.9734177378
 11
-7.3233721824
 21
-11.1340043139
  0
LINE
  5
282
100
AcDbEntity
  8
RACCORDO
100
AcDbLine
 62
253
  6
CONTINUOUS
 10
-10.3701221353
 20
-10.4741020628
 11
-7.2798075762
 21
-10.6360585861
  0
LINE
  5
283
100
AcDbEntity
  8
ASSI
100
AcDbLine
 62
253
  6
CONTINUOUS
 10
-10.3701221353
 20
-10.4741020628
 11
-7.2798075762
 21
-10.6360585861
  0
LINE
  5
284
100
AcDbEntity
  8
RACCORDO
100
AcDbLine
 62
253
  6
CONTINUOUS
 10
-11.316940191
 20
-9.5165974647
 11
-11.8077905864
 21
-9.5371599162
  0
LINE
  5
285
100
AcDbEntity
  8
ASSI
100
AcDbLine
 62
253
  6
CONTINUOUS
 10
-11.316940191
 20
-9.5165974647
 11
-11.8077905864
 21
-9.5371599162
  0
LINE
  5
286
100
AcDbEntity
  8
RACCORDO
100
AcDbLine
 62
253
  6
CONTINUOUS
 10
-6.9307850213
 20
-6.9081832094
 11
-6.9536607422
 21
-6.9081832153
  0
LINE
  5
287
100
AcDbEntity
  8
ASSI
100
AcDbLine
 62
253
  6
CONTINUOUS
 10
-6.9307850213
 20
-6.9081832094
 11
-6.9536607422
 21
-6.9081832153
  0
LINE
  5
288
100
AcDbEntity
  8
CURVE
100
AcDbLine
 62
253
  6
CONTINUOUS
 10
-11.9901378083
 20
-4.4856419486
 11
-11.9826563738
 21
-4.7248460496
  0
LINE
  5
289
100
AcDbEntity
  8
CURVE
100
AcDbLine
 62
253
  6
CONTINUOUS
 10
-12.1214228973
 20
0.5682345991
 11
-12.1257149301
 21
0.7754627135
  0
LINE
  5
28A
100
AcDbEntity
  8
RACCORDO
100
AcDbLine
 62
7
  6
CONTINUOUS
 10
-6.9307850213
 20
-6.6467125293
 11
-6.9307850213
 21
-6.9081832094
  0
LINE
  5
28B
100
AcDbEntity
  8
ASSI
100
AcDbLine
 62
7
  6
CONTINUOUS
 10
-6.9307850213
 20
-6.6467125293
 11
-6.9307850213
 21
-6.9081832094
  0
LINE
  5
28C
100
AcDbEntity
  8
RACCORDO
100
AcDbLine
 62
7
  6
CONTINUOUS
 10
-6.5307850213
 20
10.9253083918
 11
-6.5307850213
 21
-2.0746916082
  0
LINE
  5
28D
100
AcDbEntity
  8
ASSI
100
AcDbLine
 62
7
  6
CONTINUOUS
 10
-6.5307850213
 20
10.9253083918
 11
-6.5307850213
 21
-2.0746916082
  0
LINE
  5
28E
100
AcDbEntity
  8
RACCORDO
100
AcDbLine
 62
7
  6
CONTINUOUS
 10
-6.5307850213
 20
-2.0746916082
 11
-7.3233721824
 21
-11.1340043139
  0
LINE
  5
28F
100
AcDbEntity
  8
ASSI
100
AcDbLine
 62
7
  6
CONTINUOUS
 10
-6.5307850213
 20
-2.0746916082
 11
-7.3233721824
 21
-11.1340043139
  0
LINE
  5
290
100
AcDbEntity
  8
0
100
AcDbLine
 62
7
  6
CONTINUOUS
 10
-5.7307850213
 20
5.6253083918
 11
-5.7307850213
 21
7.4253083918
  0
LINE
  5
291
100
AcDbEntity
  8
0
100
AcDbLine
 62
7
  6
CONTINUOUS
 10
-6.5307850213
 20
5.5853083918
 11
-5.7307850213
 21
5.6253083918
  0
LINE
  5
292
100
AcDbEntity
  8
0
100
AcDbLine
 62
7
  6
CONTINUOUS
 10
-6.5307850213
 20
7.4653083918
 11
-5.7307850213
 21
7.4253083918
  0
LINE
  5
293
100
AcDbEntity
  8
RACCORDO
100
AcDbLine
 62
253
  6
CONTINUOUS
 10
-6.5307850213
 20
10.7253312371
 11
-11.7393751608
 21
10.6798765596
  0
LINE
  5
294
100
AcDbEntity
  8
ASSI
100
AcDbLine
 62
253
  6
CONTINUOUS
 10
-6.5307850213
 20
10.7253312371
 11
-11.7393751608
 21
10.6798765596
  0
LINE
  5
295
100
AcDbEntity
  8
RACCORDO
100
AcDbLine
 62
7
  6
CONTINUOUS
 10
-6.5307850213
 20
10.9253083918
 11
-12.0324091717
 21
10.8772964452
  0
LINE
  5
296
100
AcDbEntity
  8
ASSI
100
AcDbLine
 62
7
  6
CONTINUOUS
 10
-6.5307850213
 20
10.9253083918
 11
-12.0324091717
 21
10.8772964452
  0
CIRCLE
  5
297
100
AcDbEntity
  8
CURVE
100
AcDbCircle
 62
253
  6
CONTINUOUS
 10
16.5861247337
 20
-1.9746916082
 40
2.75
  0
ARC
  5
298
100
AcDbEntity
  8
RACCORDO
100
AcDbCircle
 62
253
  6
CONTINUOUS
 10
16.586124733
 20
6.5248967494
 40
1.4205653863
100
AcDbArc
 50
359.9802963605
 51
180.0197036395
  0
ARC
  5
299
100
AcDbEntity
  8
ASSI
100
AcDbCircle
 62
253
  6
CONTINUOUS
 10
16.586124733
 20
6.5248967494
 40
1.4205653863
100
AcDbArc
 50
359.9802963605
 51
180.0197036395
  0
ARC
  5
29A
100
AcDbEntity
  8
RACCORDO
100
AcDbCircle
 62
253
  6
CONTINUOUS
 10
16.5861247344
 20
6.5243661064
 40
1.4205653241
100
AcDbArc
 50
179.998301812
 51
0.001698188
  0
ARC
  5
29B
100
AcDbEntity
  8
ASSI
100
AcDbCircle
 62
253
  6
CONTINUOUS
 10
16.5861247344
 20
6.5243661064
 40
1.4205653241
100
AcDbArc
 50
179.998301812
 51
0.001698188
  0
CIRCLE
  5
29C
100
AcDbEntity
  8
RACCORDO
100
AcDbCircle
 62
253
  6
CONTINUOUS
 10
16.5861247338
 20
6.5254940673
 40
1.3206290234
  0
CIRCLE
  5
29D
100
AcDbEntity
  8
ASSI
100
AcDbCircle
 62
253
  6
CONTINUOUS
 10
16.5861247338
 20
6.5254940673
 40
1.3206290234
  0
CIRCLE
  5
29E
100
AcDbEntity
  8
DRAFT
100
AcDbCircle
 62
7
  6
CONTINUOUS
 10
16.5861247337
 20
6.5253083918
 40
1.3
  0
CIRCLE
  5
29F
100
AcDbEntity
  8
ASSI
100
AcDbCircle
 62
7
  6
CONTINUOUS
 10
16.5861247337
 20
6.5253083918
 40
1.3
  0
CIRCLE
  5
2A0
100
AcDbEntity
  8
DRAFT
100
AcDbCircle
 62
7
  6
CONTINUOUS
 10
16.5861247337
 20
6.5253083918
 40
1.225
  0
CIRCLE
  5
2A1
100
AcDbEntity
  8
RACCORDO
100
AcDbCircle
 62
253
  6
CONTINUOUS
 10
16.5861247337
 20
6.5253083918
 40
1.2068524201
  0
CIRCLE
  5
2A2
100
AcDbEntity
  8
RACCORDO
100
AcDbCircle
 62
253
  6
CONTINUOUS
 10
16.5861247337
 20
6.5253083918
 40
1.1180464865
  0
ARC
  5
2A3
100
AcDbEntity
  8
RACCORDO
100
AcDbCircle
 62
253
  6
CONTINUOUS
 10
27.1689761525
 20
-10.4732103039
 40
0.5001741994
100
AcDbArc
 50
270.0239231361
 51
359.8978391797
  0
ARC
  5
2A4
100
AcDbEntity
  8
ASSI
100
AcDbCircle
 62
253
  6
CONTINUOUS
 10
27.1689761525
 20
-10.4732103039
 40
0.5001741994
100
AcDbArc
 50
270.0239231361
 51
359.8978391797
  0
ARC
  5
2A5
100
AcDbEntity
  8
RACCORDO
100
AcDbCircle
 62
253
  6
CONTINUOUS
 10
6.0032733208
 20
-10.4732103627
 40
0.5001741749
100
AcDbArc
 50
180.1021540839
 51
269.9760761818
  0
ARC
  5
2A6
100
AcDbEntity
  8
ASSI
100
AcDbCircle
 62
253
  6
CONTINUOUS
 10
6.0032733208
 20
-10.4732103627
 40
0.5001741749
100
AcDbArc
 50
180.1021540839
 51
269.9760761818
  0
ARC
  5
2A7
100
AcDbEntity
  8
RACCORDO
100
AcDbCircle
 62
253
  6
CONTINUOUS
 10
27.4451909771
 20
10.6798540771
 40
0.2000157905
100
AcDbArc
 50
0.0063986483
 51
89.9863507457
  0
ARC
  5
2A8
100
AcDbEntity
  8
RACCORDO
100
AcDbCircle
 62
253
  6
CONTINUOUS
 10
5.7270584894
 20
10.6798540843
 40
0.2000157905
100
AcDbArc
 50
90.0136490068
 51
179.9936034079
  0
ARC
  5
2A9
100
AcDbEntity
  8
ASSI
100
AcDbCircle
 62
253
  6
CONTINUOUS
 10
5.7270584894
 20
10.6798540843
 40
0.2000157905
100
AcDbArc
 50
90.0136490068
 51
179.9936034079
  0
ARC
  5
2AA
100
AcDbEntity
  8
ASSI
100
AcDbCircle
 62
253
  6
CONTINUOUS
 10
27.4451909771
 20
10.6798540771
 40
0.2000157905
100
AcDbArc
 50
0.0063986483
 51
89.9863507457
  0
ARC
  5
2AB
100
AcDbEntity
  8
RACCORDO
100
AcDbCircle
 62
7
  6
CONTINUOUS
 10
-10.3090599759
 20
-9.475472528
 40
1.5
100
AcDbArc
 50
182.3561664986
 51
267.000662446
  0
ARC
  5
2AC
100
AcDbEntity
  8
ASSI
100
AcDbCircle
 62
7
  6
CONTINUOUS
 10
-10.3090599759
 20
-9.475472528
 40
1.5
100
AcDbArc
 50
182.3561664986
 51
267.000662446
  0
ARC
  5
2AD
100
AcDbEntity
  8
RACCORDO
100
AcDbCircle
 62
253
  6
CONTINUOUS
 10
-10.3177861712
 20
-9.4754725202
 40
1.0000000082
100
AcDbArc
 50
182.3569504196
 51
266.9999995712
  0
ARC
  5
2AE
100
AcDbEntity
  8
ASSI
100
AcDbCircle
 62
253
  6
CONTINUOUS
 10
-10.3177861712
 20
-9.4754725202
 40
1.0000000082
100
AcDbArc
 50
182.3569504196
 51
266.9999995712
  0
ARC
  5
2AF
100
AcDbEntity
  8
RACCORDO
100
AcDbCircle
 62
7
  6
CONTINUOUS
 10
-7.2307850213
 20
-6.9081832094
 40
0.3
100
AcDbArc
 50
335.0
 51
360.0
  0
ARC
  5
2B0
100
AcDbEntity
  8
ASSI
100
AcDbCircle
 62
7
  6
CONTINUOUS
 10
-7.2307850213
 20
-6.9081832094
 40
0.3
100
AcDbArc
 50
335.0
 51
360.0
  0
ARC
  5
2B1
100
AcDbEntity
  8
RACCORDO
100
AcDbCircle
 62
7
  6
CONTINUOUS
 10
-12.030663354
 20
10.6773040651
 40
0.2
100
AcDbArc
 50
90.5001462858
 51
180.0398957513
  0
ARC
  5
2B2
100
AcDbEntity
  8
ASSI
100
AcDbCircle
 62
7
  6
CONTINUOUS
 10
-12.030663354
 20
10.6773040651
 40
0.2
100
AcDbArc
 50
90.5001462858
 51
180.0398957513
  0
ARC
  5
2B3
100
AcDbEntity
  8
RACCORDO
100
AcDbCircle
 62
7
  6
CONTINUOUS
 10
487.7692149787
 20
11.0253083918
 40
500.0
100
AcDbArc
 50
180.0398943199
 51
182.3569476404
  0
ARC
  5
2B4
100
AcDbEntity
  8
ASSI
100
AcDbCircle
 62
7
  6
CONTINUOUS
 10
487.7692149787
 20
11.0253083918
 40
500.0
100
AcDbArc
 50
180.0398943199
 51
182.3569476404
  0
ARC
  5
2B5
100
AcDbEntity
  8
CURVE
100
AcDbCircle
 62
253
  6
CONTINUOUS
 10
487.5886269422
 20
11.019811438
 40
499.8193284654
100
AcDbArc
 50
181.5843244717
 51
181.7777221532
  0
ARC
  5
2B6
100
AcDbEntity
  8
CURVE
100
AcDbCircle
 62
253
  6
CONTINUOUS
 10
487.5617263185
 20
11.0207991078
 40
499.7924624849
100
AcDbArc
 50
181.1983621501
 51
181.3913028141
  0
ARC
  5
2B7
100
AcDbEntity
  8
RACCORDO
100
AcDbCircle
 62
253
  6
CONTINUOUS
 10
487.719862144
 20
11.0241298299
 40
499.4593584626
100
AcDbArc
 50
180.0394912235
 51
182.3570065688
  0
ARC
  5
2B8
100
AcDbEntity
  8
ASSI
100
AcDbCircle
 62
253
  6
CONTINUOUS
 10
487.719862144
 20
11.0241298299
 40
499.4593584626
100
AcDbArc
 50
180.0394912235
 51
182.3570065688
  0
SPLINE
  5
2B9
100
AcDbEntity
  8
RACCORDO
100
AcDbSpline
 62
253
  6
CONTINUOUS
 70
0
 71
3
 72
11
 73
7
 74
5
 42
0.0000001
 43
0.0000001
 44
0.0000000001
 12
0.0002454385
 22
-20.214305979
 32
0.0
 13
0.014508362
 23
-20.214300774
 33
0.0
 40
0.0
 40
0.0
 40
0.0
 40
0.0
 40
0.2500750461
 40
0.5001057347
 40
0.7500838832
 40
1.0
 40
1.0
 40
1.0
 40
1.0
 10
27.1452678729
 20
10.6771648023
 30
0.0
 10
27.1452883323
 20
8.9921336361
 30
0.0
 10
27.1456503982
 20
5.6223701872
 30
0.0
 10
27.1470386512
 20
0.5682286457
 30
0.0
 10
27.1493301113
 20
-4.4848416881
 30
0.0
 10
27.1514495995
 20
-7.8531795874
 30
0.0
 10
27.152658224
 20
-9.5371394386
 30
0.0
 11
27.1452678729
 21
10.6771648023
 31
0.0
 11
27.1457913374
 21
5.6220713303
 31
0.0
 11
27.1471893814
 21
0.5678746797
 31
0.0
 11
27.1494783422
 21
-4.4852595845
 31
0.0
 11
27.152658224
 21
-9.5371394386
 31
0.0
  0
SPLINE
  5
2BA
100
AcDbEntity
  8
RACCORDO
100
AcDbSpline
 62
253
  6
CONTINUOUS
 70
0
 71
3
 72
17
 73
13
 74
11
 42
0.0000001
 43
0.0000001
 44
0.0000000001
 12
-0.2685436887
 22
-0.1337076075
 32
0.0
 13
-0.2999890615
 23
-0.0000001894
 33
0.0
 40
0.0
 40
0.0
 40
0.0
 40
0.0
 40
0.0147850775
 40
0.053255719
 40
0.114525848
 40
0.1971200214
 40
0.2990571251
 40
0.4178801055
 40
0.5507176149
 40
0.6943786252
 40
0.8453688129
 40
1.0
 40
1.0
 40
1.0
 40
1.0
 10
27.4452386255
 20
10.8798687992
 30
0.0
 10
27.4439151457
 20
10.8792098401
 30
0.0
 10
27.4382832224
 20
10.8798278576
 30
0.0
 10
27.4271118549
 20
10.8786905219
 30
0.0
 10
27.4087343177
 20
10.8787730036
 30
0.0
 10
27.384219208
 20
10.8782653179
 30
0.0
 10
27.3538634548
 20
10.8780355497
 30
0.0
 10
27.3185135902
 20
10.8777589632
 30
0.0
 10
27.2789809392
 20
10.8775609253
 30
0.0
 10
27.2362346171
 20
10.8774082989
 30
0.0
 10
27.1913078773
 20
10.877317081
 30
0.0
 10
27.1607469005
 20
10.877296455
 30
0.0
 10
27.1452843456
 20
10.8772964452
 30
0.0
 11
27.4452386255
 21
10.8798687992
 31
0.0
 11
27.4408217202
 21
10.8794645965
 31
0.0
 11
27.429287662
 21
10.879071009
 31
0.0
 11
27.4109110858
 21
10.8786976574
 31
0.0
 11
27.3861361258
 21
10.878353624
 31
0.0
 11
27.3555576453
 21
10.878047173
 31
0.0
 11
27.3199130099
 21
10.8777857046
 31
0.0
 11
27.2800637643
 21
10.8775755324
 31
0.0
 11
27.2369673072
 21
10.8774217024
 31
0.0
 11
27.1916719996
 21
10.877327931
 31
0.0
 11
27.1452843456
 21
10.8772964452
 31
0.0
  0
SPLINE
  5
2BB
100
AcDbEntity
  8
RACCORDO
100
AcDbSpline
 62
253
  6
CONTINUOUS
 70
0
 71
3
 72
11
 73
7
 74
5
 42
0.0000001
 43
0.0000001
 44
0.0000000001
 12
0.014508362
 22
20.2143007745
 32
0.0
 13
0.0002454385
 23
20.2143059795
 33
0.0
 40
0.0
 40
0.0
 40
0.0
 40
0.0
 40
0.2499161168
 40
0.4998942654
 40
0.749924954
 40
1.0
 40
1.0
 40
1.0
 40
1.0
 10
6.0195912434
 20
-9.5371394391
 30
0.0
 10
6.0207998679
 20
-7.8531795877
 30
0.0
 10
6.022919356
 20
-4.4848416882
 30
0.0
 10
6.0252108162
 20
0.5682286457
 30
0.0
 10
6.0265990691
 20
5.6223701872
 30
0.0
 10
6.0269611352
 20
8.9921336361
 30
0.0
 10
6.0269815946
 20
10.6771648023
 30
0.0
 11
6.0195912434
 21
-9.5371394391
 31
0.0
 11
6.0227711252
 21
-4.4852595845
 31
0.0
 11
6.025060086
 21
0.5678746797
 31
0.0
 11
6.02645813
 21
5.6220713303
 31
0.0
 11
6.0269815946
 21
10.6771648023
 31
0.0
  0
SPLINE
  5
2BC
100
AcDbEntity
  8
RACCORDO
100
AcDbSpline
 62
253
  6
CONTINUOUS
 70
0
 71
3
 72
16
 73
12
 74
10
 42
0.0000001
 43
0.0000001
 44
0.0000000001
 12
0.1956190744
 22
-0.4614183123
 32
0.0
 13
0.501172178
 23
-0.0003594563
 33
0.0
 40
0.0
 40
0.0
 40
0.0
 40
0.0
 40
0.0191520824
 40
0.0665681378
 40
0.1414824155
 40
0.241789643
 40
0.3645557801
 40
0.506157455
 40
0.6624027643
 40
0.8286605242
 40
1.0
 40
1.0
 40
1.0
 40
1.0
 10
5.5196673829
 20
-9.5165974647
 30
0.0
 10
5.5209162205
 20
-9.5195431718
 30
0.0
 10
5.5348506283
 20
-9.5203831513
 30
0.0
 10
5.5556896536
 20
-9.5248101949
 30
0.0
 10
5.5941540286
 20
-9.5270111017
 30
0.0
 10
5.6432852202
 20
-9.5301102475
 30
0.0
 10
5.7043692706
 20
-9.5324282842
 30
0.0
 10
5.7745387585
 20
-9.5344693089
 30
0.0
 10
5.8520791355
 20
-9.5359547374
 30
0.0
 10
5.9345679966
 20
-9.5369020999
 30
0.0
 10
5.9909677044
 20
-9.5371394033
 30
0.0
 10
6.0195912305
 20
-9.537159933
 30
0.0
 11
5.5196673829
 21
-9.5165974647
 31
0.0
 11
5.528592435
 21
-9.5201293933
 31
0.0
 11
5.5521076465
 21
-9.5235563698
 31
0.0
 11
5.5895142569
 21
-9.5267765605
 31
0.0
 11
5.6397007187
 21
-9.5296942767
 31
0.0
 11
5.7011757278
 21
-9.5322228177
 31
0.0
 11
5.7721125382
 21
-9.5342870472
 31
0.0
 11
5.8504032435
 21
-9.535825626
 31
0.0
 11
5.9337214148
 21
-9.5367928349
 31
0.0
 11
6.0195912305
 21
-9.537159933
 31
0.0
  0
SPLINE
  5
2BD
100
AcDbEntity
  8
RACCORDO
100
AcDbSpline
 62
253
  6
CONTINUOUS
 70
0
 71
3
 72
17
 73
13
 74
11
 42
0.0000001
 43
0.0000001
 44
0.0000000001
 12
-0.4999637532
 22
0.0000027639
 32
0.0
 13
-0.4767936667
 23
0.150437874
 33
0.0
 40
0.0
 40
0.0
 40
0.0
 40
0.0
 40
0.1547342773
 40
0.3057145613
 40
0.4493652869
 40
0.5821875536
 40
0.7009933017
 40
0.8029183016
 40
0.8855064056
 40
0.9467746685
 40
0.9852386123
 40
1.0
 40
1.0
 40
1.0
 40
1.0
 10
6.0269815946
 20
10.6771647952
 30
0.0
 10
6.0011944179
 20
10.6771649377
 30
0.0
 10
5.9502457197
 20
10.6771869349
 30
0.0
 10
5.8753568249
 20
10.6772833604
 30
0.0
 10
5.8041204953
 20
10.6774447564
 30
0.0
 10
5.738243996
 20
10.6776528666
 30
0.0
 10
5.6793291029
 20
10.677947046
 30
0.0
 10
5.6287635611
 20
10.6781816715
 30
0.0
 10
5.5878505509
 20
10.6787371999
 30
0.0
 10
5.5573580564
 20
10.6786011105
 30
0.0
 10
5.5384858057
 20
10.6798907381
 30
0.0
 10
5.5293870584
 20
10.6791362818
 30
0.0
 10
5.527041013
 20
10.6798765057
 30
0.0
 11
6.0269815946
 21
10.6771647952
 31
0.0
 11
5.9496200718
 21
10.6771983753
 31
0.0
 11
5.8741354676
 21
10.6772975438
 31
0.0
 11
5.8023154953
 21
10.6774599597
 31
0.0
 11
5.7359095464
 21
10.6776816702
 31
0.0
 11
5.6765116184
 21
10.6779573486
 31
0.0
 11
5.6255538365
 21
10.6782803368
 31
0.0
 11
5.5842643693
 21
10.6786428294
 31
0.0
 11
5.5536349837
 21
10.6790361375
 31
0.0
 11
5.5344088732
 21
10.6794506176
 31
0.0
 11
5.527041013
 21
10.6798765057
 31
0.0
  0
SPLINE
  5
2BE
100
AcDbEntity
  8
RACCORDO
100
AcDbSpline
 62
253
  6
CONTINUOUS
 70
0
 71
3
 72
17
 73
13
 74
11
 42
0.0000001
 43
0.0000001
 44
0.0000000001
 12
-0.4767936648
 22
-0.1504378796
 32
0.0
 13
-0.4999637531
 23
-0.0000027639
 33
0.0
 40
0.0
 40
0.0
 40
0.0
 40
0.0
 40
0.0147613872
 40
0.0532253307
 40
0.1144935933
 40
0.1970816969
 40
0.2990066965
 40
0.4178124444
 40
0.5506347109
 40
0.6942854364
 40
0.8452657197
 40
1.0
 40
1.0
 40
1.0
 40
1.0
 10
27.6452084543
 20
10.6798765057
 30
0.0
 10
27.642862409
 20
10.6791362818
 30
0.0
 10
27.6337636618
 20
10.6798907381
 30
0.0
 10
27.6148914114
 20
10.6786011105
 30
0.0
 10
27.584398917
 20
10.6787371999
 30
0.0
 10
27.543485907
 20
10.6781816715
 30
0.0
 10
27.4929203654
 20
10.677947046
 30
0.0
 10
27.4340054725
 20
10.6776528666
 30
0.0
 10
27.3681289733
 20
10.6774447564
 30
0.0
 10
27.2968926438
 20
10.6772833604
 30
0.0
 10
27.2220037487
 20
10.6771869349
 30
0.0
 10
27.1710550501
 20
10.6771649377
 30
0.0
 10
27.1452678729
 20
10.6771647952
 30
0.0
 11
27.6452084543
 21
10.6798765057
 31
0.0
 11
27.6378405945
 21
10.6794506176
 31
0.0
 11
27.6186144841
 21
10.6790361375
 31
0.0
 11
27.5879850987
 21
10.6786428294
 31
0.0
 11
27.5466956316
 21
10.6782803368
 31
0.0
 11
27.4957378499
 21
10.6779573486
 31
0.0
 11
27.436339922
 21
10.6776816702
 31
0.0
 11
27.3699339733
 21
10.6774599597
 31
0.0
 11
27.2981140011
 21
10.6772975438
 31
0.0
 11
27.2226293971
 21
10.6771983753
 31
0.0
 11
27.1452678729
 21
10.6771647952
 31
0.0
  0
SPLINE
  5
2BF
100
AcDbEntity
  8
RACCORDO
100
AcDbSpline
 62
253
  6
CONTINUOUS
 70
0
 71
3
 72
16
 73
12
 74
10
 42
0.0000001
 43
0.0000001
 44
0.0000000001
 12
-0.1956255021
 22
-0.4614155811
 32
0.0
 13
-0.5011721724
 23
-0.000359454
 33
0.0
 40
0.0
 40
0.0
 40
0.0
 40
0.0
 40
0.0191521757
 40
0.0665683036
 40
0.1414826259
 40
0.2417898699
 40
0.3645559974
 40
0.5061576398
 40
0.6624028983
 40
0.8286605946
 40
1.0
 40
1.0
 40
1.0
 40
1.0
 10
27.6525820844
 20
-9.5165974647
 30
0.0
 10
27.6513331998
 20
-9.5195431688
 30
0.0
 10
27.637398829
 20
-9.5203831472
 30
0.0
 10
27.6165597069
 20
-9.5248101876
 30
0.0
 10
27.5780953441
 20
-9.5270110951
 30
0.0
 10
27.5289641298
 20
-9.5301102377
 30
0.0
 10
27.4678800896
 20
-9.5324282728
 30
0.0
 10
27.3977106162
 20
-9.5344692954
 30
0.0
 10
27.3201702651
 20
-9.5359547224
 30
0.0
 10
27.2376814356
 20
-9.5369020837
 30
0.0
 10
27.1812817509
 20
-9.5371393867
 30
0.0
 10
27.1526582369
 20
-9.5371599162
 30
0.0
 11
27.6525820844
 21
-9.5165974647
 31
0.0
 11
27.6436569815
 21
-9.5201293914
 31
0.0
 11
27.6201417331
 21
-9.5235563657
 31
0.0
 11
27.5827351005
 21
-9.526776554
 31
0.0
 11
27.5325486309
 21
-9.5296942678
 31
0.0
 11
27.4710736272
 21
-9.5322228065
 31
0.0
 11
27.4001368339
 21
-9.5342870339
 31
0.0
 11
27.3218461548
 21
-9.5358256111
 31
0.0
 11
27.2385280163
 21
-9.5367928188
 31
0.0
 11
27.1526582369
 21
-9.5371599162
 31
0.0
  0
SPLINE
  5
2C0
100
AcDbEntity
  8
RACCORDO
100
AcDbSpline
 62
253
  6
CONTINUOUS
 70
0
 71
3
 72
19
 73
15
 74
13
 42
0.0000001
 43
0.0000001
 44
0.0000000001
 12
0.3112970811
 22
1.4023966309
 32
0.0
 13
0.0006887534
 23
1.4365311374
 33
0.0
 40
0.0
 40
0.0
 40
0.0
 40
0.0
 40
0.0146769045
 40
0.0448767047
 40
0.0901730857
 40
0.1498829261
 40
0.2231060618
 40
0.3087379823
 40
0.4054808333
 40
0.5118669653
 40
0.6262890873
 40
0.7470199919
 40
0.8722200831
 40
1.0
 40
1.0
 40
1.0
 40
1.0
 10
6.0030642595
 20
-10.9734177377
 30
0.0
 10
6.0045872187
 20
-10.9665567906
 30
0.0
 10
6.0054710694
 20
-10.9449439191
 30
0.0
 10
6.0078590218
 20
-10.9019352192
 30
0.0
 10
6.0094936366
 20
-10.8371544474
 30
0.0
 10
6.0114289734
 20
-10.7518558523
 30
0.0
 10
6.0131076789
 20
-10.6472016145
 30
0.0
 10
6.0146873754
 20
-10.5248232331
 30
0.0
 10
6.0160709282
 20
-10.3865576503
 30
0.0
 10
6.0172570521
 20
-10.2345051167
 30
0.0
 10
6.0182189808
 20
-10.0709638668
 30
0.0
 10
6.0189433149
 20
-9.8984124953
 30
0.0
 10
6.0194178086
 20
-9.719463911
 30
0.0
 10
6.0195619187
 20
-9.5983260488
 30
0.0
 10
6.0195912549
 20
-9.5371394391
 30
0.0
 11
6.0030642595
 21
-10.9734177377
 31
0.0
 11
6.0051979217
 21
-10.952442145
 31
0.0
 11
6.0072853733
 21
-10.9091094367
 31
0.0
 11
6.0092953252
 21
-10.8440708177
 31
0.0
 11
6.0111969999
 21
-10.7583168461
 31
0.0
 11
6.0129617385
 21
-10.6531443243
 31
0.0
 11
6.0145628552
 21
-10.5301418103
 31
0.0
 11
6.0159760631
 21
-10.3911748621
 31
0.0
 11
6.0171799424
 21
-10.2383525952
 31
0.0
 11
6.018156316
 21
-10.0739845351
 31
0.0
 11
6.01889045
 21
-9.9005523652
 31
0.0
 11
6.0193711579
 21
-9.7206991576
 31
0.0
 11
6.0195912549
 21
-9.5371394391
 31
0.0
  0
SPLINE
  5
2C1
100
AcDbEntity
  8
RACCORDO
100
AcDbSpline
 62
253
  6
CONTINUOUS
 70
0
 71
3
 72
19
 73
15
 74
13
 42
0.0000001
 43
0.0000001
 44
0.0000000001
 12
0.0006887534
 22
-1.4365311378
 32
0.0
 13
0.3112970789
 23
-1.4023966318
 33
0.0
 40
0.0
 40
0.0
 40
0.0
 40
0.0
 40
0.1277799165
 40
0.2529800076
 40
0.3737109122
 40
0.4881330342
 40
0.5945191662
 40
0.6912620172
 40
0.7768939378
 40
0.8501170735
 40
0.9098269139
 40
0.9551232951
 40
0.9853230954
 40
1.0
 40
1.0
 40
1.0
 40
1.0
 10
27.1526582124
 20
-9.5371394386
 30
0.0
 10
27.1526875487
 20
-9.5983260482
 30
0.0
 10
27.1528316588
 20
-9.7194639101
 30
0.0
 10
27.1533061525
 20
-9.8984124942
 30
0.0
 10
27.1540304865
 20
-10.0709638657
 30
0.0
 10
27.1549924152
 20
-10.2345051157
 30
0.0
 10
27.1561785391
 20
-10.3865576494
 30
0.0
 10
27.1575620919
 20
-10.5248232323
 30
0.0
 10
27.1591417884
 20
-10.6472016137
 30
0.0
 10
27.1608204939
 20
-10.7518558517
 30
0.0
 10
27.1627558308
 20
-10.8371544469
 30
0.0
 10
27.1643904456
 20
-10.9019352188
 30
0.0
 10
27.1667783979
 20
-10.9449439189
 30
0.0
 10
27.1676622487
 20
-10.9665567905
 30
0.0
 10
27.1691852079
 20
-10.9734177377
 30
0.0
 11
27.1526582124
 21
-9.5371394386
 31
0.0
 11
27.1528783094
 21
-9.7206991565
 31
0.0
 11
27.1533590174
 21
-9.9005523642
 31
0.0
 11
27.1540931513
 21
-10.073984534
 31
0.0
 11
27.155069525
 21
-10.2383525942
 31
0.0
 11
27.1562734043
 21
-10.3911748612
 31
0.0
 11
27.1576866122
 21
-10.5301418095
 31
0.0
 11
27.1592877289
 21
-10.6531443235
 31
0.0
 11
27.1610524674
 21
-10.7583168454
 31
0.0
 11
27.1629541421
 21
-10.8440708172
 31
0.0
 11
27.164964094
 21
-10.9091094363
 31
0.0
 11
27.1670515457
 21
-10.9524421448
 31
0.0
 11
27.1691852079
 21
-10.9734177377
 31
0.0
  0
SPLINE
  5
2C2
100
AcDbEntity
  8
RACCORDO
100
AcDbSpline
 62
253
  6
CONTINUOUS
 70
0
 71
3
 72
17
 73
13
 74
11
 42
0.0000001
 43
0.0000001
 44
0.0000000001
 12
-0.2999890615
 22
0.0000001894
 32
0.0
 13
-0.26854368
 23
0.1337076248
 33
0.0
 40
0.0
 40
0.0
 40
0.0
 40
0.0
 40
0.1546311843
 40
0.3056213721
 40
0.4492823827
 40
0.5821198924
 40
0.700942873
 40
0.8028799771
 40
0.8854741508
 40
0.9467442802
 40
0.985214922
 40
1.0
 40
1.0
 40
1.0
 40
1.0
 10
6.0269651218
 20
10.8772964452
 30
0.0
 10
6.0115025672
 20
10.877296455
 30
0.0
 10
5.9809415905
 20
10.877317081
 30
0.0
 10
5.936014851
 20
10.8774082989
 30
0.0
 10
5.8932685289
 20
10.8775609253
 30
0.0
 10
5.8537358778
 20
10.8777589632
 30
0.0
 10
5.8183860131
 20
10.8780355497
 30
0.0
 10
5.7880302598
 20
10.8782653178
 30
0.0
 10
5.76351515
 20
10.8787730036
 30
0.0
 10
5.7451376127
 20
10.8786905218
 30
0.0
 10
5.7339662451
 20
10.8798278577
 30
0.0
 10
5.7283343216
 20
10.87920984
 30
0.0
 10
5.7270108419
 20
10.8798687992
 30
0.0
 11
6.0269651218
 21
10.8772964452
 31
0.0
 11
5.9805774686
 21
10.877327931
 31
0.0
 11
5.9352821609
 21
10.8774217024
 31
0.0
 11
5.8921857037
 21
10.8775755324
 31
0.0
 11
5.8523364581
 21
10.8777857046
 31
0.0
 11
5.8166918227
 21
10.878047173
 31
0.0
 11
5.786113342
 21
10.878353624
 31
0.0
 11
5.7613383819
 21
10.8786976574
 31
0.0
 11
5.7429618056
 21
10.879071009
 31
0.0
 11
5.7314277473
 21
10.8794645965
 31
0.0
 11
5.7270108419
 21
10.8798687992
 31
0.0
  0
SPLINE
  5
2C3
100
AcDbEntity
  8
RACCORDO
100
AcDbSpline
 62
253
  6
CONTINUOUS
 70
0
 71
3
 72
11
 73
7
 74
5
 42
0.0000001
 43
0.0000001
 44
0.0000000001
 12
0.0002437993
 22
-20.1964757625
 32
0.0
 13
0.0145100748
 23
-20.1964705516
 33
0.0
 40
0.0
 40
0.0
 40
0.0
 40
0.0
 40
0.2500744181
 40
0.5001049868
 40
0.7500830172
 40
1.0
 40
1.0
 40
1.0
 40
1.0
 10
27.6452084546
 20
10.6798765596
 30
0.0
 10
27.6452287773
 20
8.996335918
 30
0.0
 10
27.6455660948
 20
5.6295498324
 30
0.0
 10
27.6469641249
 20
0.5798721749
 30
0.0
 10
27.6492530079
 20
-4.4687452778
 30
0.0
 10
27.6513733131
 20
-7.8341171367
 30
0.0
 10
27.6525820844
 20
-9.5165974647
 30
0.0
 11
27.6452084546
 21
10.6798765596
 31
0.0
 11
27.6457148492
 21
5.6292546598
 31
0.0
 11
27.6471127957
 21
0.579518533
 31
0.0
 11
27.6494018686
 21
-4.4691561798
 31
0.0
 11
27.6525820844
 21
-9.5165974647
 31
0.0
  0
SPLINE
  5
2C4
100
AcDbEntity
  8
RACCORDO
100
AcDbSpline
 62
253
  6
CONTINUOUS
 70
0
 71
3
 72
19
 73
15
 74
13
 42
0.0000001
 43
0.0000001
 44
0.0000000001
 12
0.0006887042
 22
-0.9578832426
 32
0.0
 13
0.3025453754
 23
-0.9088493146
 33
0.0
 40
0.0
 40
0.0
 40
0.0
 40
0.0
 40
0.1277154689
 40
0.2528938267
 40
0.3736053495
 40
0.4880108521
 40
0.5943837456
 40
0.691117303
 40
0.7767445806
 40
0.8499684188
 40
0.9096858115
 40
0.9549999701
 40
0.9852364108
 40
1.0
 40
1.0
 40
1.0
 40
1.0
 10
27.6525820844
 20
-9.5165974647
 30
0.0
 10
27.6526114038
 20
-9.5573763005
 30
0.0
 10
27.6527554868
 20
-9.6381238508
 30
0.0
 10
27.6532299202
 20
-9.7574131464
 30
0.0
 10
27.6539542087
 20
-9.8724512732
 30
0.0
 10
27.6549161875
 20
-9.9814831435
 30
0.0
 10
27.656102212
 20
-10.0828557467
 30
0.0
 10
27.6574861881
 20
-10.1750380622
 30
0.0
 10
27.6590648013
 20
-10.2566255604
 30
0.0
 10
27.6607470345
 20
-10.3264059697
 30
0.0
 10
27.6626731909
 20
-10.3832565728
 30
0.0
 10
27.6643312944
 20
-10.4264974161
 30
0.0
 10
27.6666745436
 20
-10.4550926162
 30
0.0
 10
27.6676199699
 20
-10.4696294368
 30
0.0
 10
27.6691088551
 20
-10.4741020628
 30
0.0
 11
27.6525820844
 21
-9.5165974647
 31
0.0
 11
27.6528020902
 21
-9.6389338059
 31
0.0
 11
27.6532827744
 21
-9.7588391248
 31
0.0
 11
27.6540168829
 21
-9.874464369
 31
0.0
 11
27.6549932597
 21
-9.9840471616
 31
0.0
 11
27.6561971543
 21
-10.0859328876
 31
0.0
 11
27.6576103997
 21
-10.1785815871
 31
0.0
 11
27.6592115743
 21
-10.2605869125
 31
0.0
 11
27.6609763792
 21
-10.3307046123
 31
0.0
 11
27.6628781373
 21
-10.3878752951
 31
0.0
 11
27.6648881283
 21
-10.4312344161
 31
0.0
 11
27.6669757113
 21
-10.4601220714
 31
0.0
 11
27.6691088551
 21
-10.4741020628
 31
0.0
  0
SPLINE
  5
2C5
100
AcDbEntity
  8
RACCORDO
100
AcDbSpline
 62
253
  6
CONTINUOUS
 70
0
 71
3
 72
19
 73
15
 74
13
 42
0.0000001
 43
0.0000001
 44
0.0000000001
 12
0.3025453665
 22
0.9088493175
 32
0.0
 13
0.0006887042
 23
0.9578832426
 33
0.0
 40
0.0
 40
0.0
 40
0.0
 40
0.0
 40
0.0147635891
 40
0.0450000296
 40
0.0903141881
 40
0.1500315807
 40
0.2232554188
 40
0.3088826964
 40
0.4056162537
 40
0.5119891472
 40
0.6263946498
 40
0.7471061725
 40
0.8722845304
 40
1.0
 40
1.0
 40
1.0
 40
1.0
 10
5.5031406123
 20
-10.4741020628
 30
0.0
 10
5.5046294974
 20
-10.4696294368
 30
0.0
 10
5.5055749238
 20
-10.4550926164
 30
0.0
 10
5.5079181729
 20
-10.4264974164
 30
0.0
 10
5.5095762765
 20
-10.3832565731
 30
0.0
 10
5.5115024329
 20
-10.3264059702
 30
0.0
 10
5.513184666
 20
-10.2566255609
 30
0.0
 10
5.5147632792
 20
-10.1750380628
 30
0.0
 10
5.5161472553
 20
-10.0828557473
 30
0.0
 10
5.5173332799
 20
-9.9814831441
 30
0.0
 10
5.5182952587
 20
-9.8724512739
 30
0.0
 10
5.5190195472
 20
-9.7574131471
 30
0.0
 10
5.5194939806
 20
-9.6381238513
 30
0.0
 10
5.5196380635
 20
-9.5573763007
 30
0.0
 10
5.5196673829
 20
-9.5165974647
 30
0.0
 11
5.5031406123
 21
-10.4741020628
 31
0.0
 11
5.505273756
 21
-10.4601220715
 31
0.0
 11
5.507361339
 21
-10.4312344163
 31
0.0
 11
5.50937133
 21
-10.3878752954
 31
0.0
 11
5.5112730881
 21
-10.3307046128
 31
0.0
 11
5.513037893
 21
-10.260586913
 31
0.0
 11
5.5146390677
 21
-10.1785815877
 31
0.0
 11
5.5160523131
 21
-10.0859328882
 31
0.0
 11
5.5172562077
 21
-9.9840471622
 31
0.0
 11
5.5182325844
 21
-9.8744643697
 31
0.0
 11
5.518966693
 21
-9.7588391254
 31
0.0
 11
5.5194473771
 21
-9.6389338066
 31
0.0
 11
5.5196673829
 21
-9.5165974647
 31
0.0
  0
SPLINE
  5
2C6
100
AcDbEntity
  8
RACCORDO
100
AcDbSpline
 62
253
  6
CONTINUOUS
 70
0
 71
3
 72
11
 73
7
 74
5
 42
0.0000001
 43
0.0000001
 44
0.0000000001
 12
0.0145100748
 22
20.1964705516
 32
0.0
 13
0.0002437993
 23
20.1964757625
 33
0.0
 40
0.0
 40
0.0
 40
0.0
 40
0.0
 40
0.2499169828
 40
0.4998950132
 40
0.7499255819
 40
1.0
 40
1.0
 40
1.0
 40
1.0
 10
5.5196673829
 20
-9.5165974647
 30
0.0
 10
5.5208761543
 20
-7.8341171367
 30
0.0
 10
5.5229964594
 20
-4.4687452778
 30
0.0
 10
5.5252853424
 20
0.5798721749
 30
0.0
 10
5.5266833726
 20
5.6295498324
 30
0.0
 10
5.5270206901
 20
8.996335918
 30
0.0
 10
5.5270410127
 20
10.6798765596
 30
0.0
 11
5.5196673829
 21
-9.5165974647
 31
0.0
 11
5.5228475988
 21
-4.4691561798
 31
0.0
 11
5.5251366716
 21
0.579518533
 31
0.0
 11
5.5265346181
 21
5.6292546598
 31
0.0
 11
5.5270410127
 21
10.6798765596
 31
0.0
  0
SPLINE
  5
2C7
100
AcDbEntity
  8
ASSI
100
AcDbSpline
 62
253
  6
CONTINUOUS
 70
0
 71
3
 72
17
 73
13
 74
11
 42
0.0000001
 43
0.0000001
 44
0.0000000001
 12
-0.2685436887
 22
-0.1337076075
 32
0.0
 13
-0.2999890615
 23
-0.0000001894
 33
0.0
 40
0.0
 40
0.0
 40
0.0
 40
0.0
 40
0.0147850775
 40
0.053255719
 40
0.114525848
 40
0.1971200214
 40
0.2990571251
 40
0.4178801055
 40
0.5507176149
 40
0.6943786252
 40
0.8453688129
 40
1.0
 40
1.0
 40
1.0
 40
1.0
 10
27.4452386255
 20
10.8798687992
 30
0.0
 10
27.4439151457
 20
10.8792098401
 30
0.0
 10
27.4382832224
 20
10.8798278576
 30
0.0
 10
27.4271118549
 20
10.8786905219
 30
0.0
 10
27.4087343177
 20
10.8787730036
 30
0.0
 10
27.384219208
 20
10.8782653179
 30
0.0
 10
27.3538634548
 20
10.8780355497
 30
0.0
 10
27.3185135902
 20
10.8777589632
 30
0.0
 10
27.2789809392
 20
10.8775609253
 30
0.0
 10
27.2362346171
 20
10.8774082989
 30
0.0
 10
27.1913078773
 20
10.877317081
 30
0.0
 10
27.1607469005
 20
10.877296455
 30
0.0
 10
27.1452843456
 20
10.8772964452
 30
0.0
 11
27.4452386255
 21
10.8798687992
 31
0.0
 11
27.4408217202
 21
10.8794645965
 31
0.0
 11
27.429287662
 21
10.879071009
 31
0.0
 11
27.4109110858
 21
10.8786976574
 31
0.0
 11
27.3861361258
 21
10.878353624
 31
0.0
 11
27.3555576453
 21
10.878047173
 31
0.0
 11
27.3199130099
 21
10.8777857046
 31
0.0
 11
27.2800637643
 21
10.8775755324
 31
0.0
 11
27.2369673072
 21
10.8774217024
 31
0.0
 11
27.1916719996
 21
10.877327931
 31
0.0
 11
27.1452843456
 21
10.8772964452
 31
0.0
  0
SPLINE
  5
2C8
100
AcDbEntity
  8
ASSI
100
AcDbSpline
 62
253
  6
CONTINUOUS
 70
0
 71
3
 72
11
 73
7
 74
5
 42
0.0000001
 43
0.0000001
 44
0.0000000001
 12
0.0002454385
 22
-20.214305979
 32
0.0
 13
0.014508362
 23
-20.214300774
 33
0.0
 40
0.0
 40
0.0
 40
0.0
 40
0.0
 40
0.2500750461
 40
0.5001057347
 40
0.7500838832
 40
1.0
 40
1.0
 40
1.0
 40
1.0
 10
27.1452678729
 20
10.6771648023
 30
0.0
 10
27.1452883323
 20
8.9921336361
 30
0.0
 10
27.1456503982
 20
5.6223701872
 30
0.0
 10
27.1470386512
 20
0.5682286457
 30
0.0
 10
27.1493301113
 20
-4.4848416881
 30
0.0
 10
27.1514495995
 20
-7.8531795874
 30
0.0
 10
27.152658224
 20
-9.5371394386
 30
0.0
 11
27.1452678729
 21
10.6771648023
 31
0.0
 11
27.1457913374
 21
5.6220713303
 31
0.0
 11
27.1471893814
 21
0.5678746797
 31
0.0
 11
27.1494783422
 21
-4.4852595845
 31
0.0
 11
27.152658224
 21
-9.5371394386
 31
0.0
  0
SPLINE
  5
2C9
100
AcDbEntity
  8
ASSI
100
AcDbSpline
 62
253
  6
CONTINUOUS
 70
0
 71
3
 72
11
 73
7
 74
5
 42
0.0000001
 43
0.0000001
 44
0.0000000001
 12
0.014508362
 22
20.2143007745
 32
0.0
 13
0.0002454385
 23
20.2143059795
 33
0.0
 40
0.0
 40
0.0
 40
0.0
 40
0.0
 40
0.2499161168
 40
0.4998942654
 40
0.749924954
 40
1.0
 40
1.0
 40
1.0
 40
1.0
 10
6.0195912434
 20
-9.5371394391
 30
0.0
 10
6.0207998679
 20
-7.8531795877
 30
0.0
 10
6.022919356
 20
-4.4848416882
 30
0.0
 10
6.0252108162
 20
0.5682286457
 30
0.0
 10
6.0265990691
 20
5.6223701872
 30
0.0
 10
6.0269611352
 20
8.9921336361
 30
0.0
 10
6.0269815946
 20
10.6771648023
 30
0.0
 11
6.0195912434
 21
-9.5371394391
 31
0.0
 11
6.0227711252
 21
-4.4852595845
 31
0.0
 11
6.025060086
 21
0.5678746797
 31
0.0
 11
6.02645813
 21
5.6220713303
 31
0.0
 11
6.0269815946
 21
10.6771648023
 31
0.0
  0
SPLINE
  5
2CA
100
AcDbEntity
  8
ASSI
100
AcDbSpline
 62
253
  6
CONTINUOUS
 70
0
 71
3
 72
16
 73
12
 74
10
 42
0.0000001
 43
0.0000001
 44
0.0000000001
 12
0.1956190744
 22
-0.4614183123
 32
0.0
 13
0.501172178
 23
-0.0003594563
 33
0.0
 40
0.0
 40
0.0
 40
0.0
 40
0.0
 40
0.0191520824
 40
0.0665681378
 40
0.1414824155
 40
0.241789643
 40
0.3645557801
 40
0.506157455
 40
0.6624027643
 40
0.8286605242
 40
1.0
 40
1.0
 40
1.0
 40
1.0
 10
5.5196673829
 20
-9.5165974647
 30
0.0
 10
5.5209162205
 20
-9.5195431718
 30
0.0
 10
5.5348506283
 20
-9.5203831513
 30
0.0
 10
5.5556896536
 20
-9.5248101949
 30
0.0
 10
5.5941540286
 20
-9.5270111017
 30
0.0
 10
5.6432852202
 20
-9.5301102475
 30
0.0
 10
5.7043692706
 20
-9.5324282842
 30
0.0
 10
5.7745387585
 20
-9.5344693089
 30
0.0
 10
5.8520791355
 20
-9.5359547374
 30
0.0
 10
5.9345679966
 20
-9.5369020999
 30
0.0
 10
5.9909677044
 20
-9.5371394033
 30
0.0
 10
6.0195912305
 20
-9.537159933
 30
0.0
 11
5.5196673829
 21
-9.5165974647
 31
0.0
 11
5.528592435
 21
-9.5201293933
 31
0.0
 11
5.5521076465
 21
-9.5235563698
 31
0.0
 11
5.5895142569
 21
-9.5267765605
 31
0.0
 11
5.6397007187
 21
-9.5296942767
 31
0.0
 11
5.7011757278
 21
-9.5322228177
 31
0.0
 11
5.7721125382
 21
-9.5342870472
 31
0.0
 11
5.8504032435
 21
-9.535825626
 31
0.0
 11
5.9337214148
 21
-9.5367928349
 31
0.0
 11
6.0195912305
 21
-9.537159933
 31
0.0
  0
SPLINE
  5
2CB
100
AcDbEntity
  8
ASSI
100
AcDbSpline
 62
253
  6
CONTINUOUS
 70
0
 71
3
 72
17
 73
13
 74
11
 42
0.0000001
 43
0.0000001
 44
0.0000000001
 12
-0.4999637532
 22
0.0000027639
 32
0.0
 13
-0.4767936667
 23
0.150437874
 33
0.0
 40
0.0
 40
0.0
 40
0.0
 40
0.0
 40
0.1547342773
 40
0.3057145613
 40
0.4493652869
 40
0.5821875536
 40
0.7009933017
 40
0.8029183016
 40
0.8855064056
 40
0.9467746685
 40
0.9852386123
 40
1.0
 40
1.0
 40
1.0
 40
1.0
 10
6.0269815946
 20
10.6771647952
 30
0.0
 10
6.0011944179
 20
10.6771649377
 30
0.0
 10
5.9502457197
 20
10.6771869349
 30
0.0
 10
5.8753568249
 20
10.6772833604
 30
0.0
 10
5.8041204953
 20
10.6774447564
 30
0.0
 10
5.738243996
 20
10.6776528666
 30
0.0
 10
5.6793291029
 20
10.677947046
 30
0.0
 10
5.6287635611
 20
10.6781816715
 30
0.0
 10
5.5878505509
 20
10.6787371999
 30
0.0
 10
5.5573580564
 20
10.6786011105
 30
0.0
 10
5.5384858057
 20
10.6798907381
 30
0.0
 10
5.5293870584
 20
10.6791362818
 30
0.0
 10
5.527041013
 20
10.6798765057
 30
0.0
 11
6.0269815946
 21
10.6771647952
 31
0.0
 11
5.9496200718
 21
10.6771983753
 31
0.0
 11
5.8741354676
 21
10.6772975438
 31
0.0
 11
5.8023154953
 21
10.6774599597
 31
0.0
 11
5.7359095464
 21
10.6776816702
 31
0.0
 11
5.6765116184
 21
10.6779573486
 31
0.0
 11
5.6255538365
 21
10.6782803368
 31
0.0
 11
5.5842643693
 21
10.6786428294
 31
0.0
 11
5.5536349837
 21
10.6790361375
 31
0.0
 11
5.5344088732
 21
10.6794506176
 31
0.0
 11
5.527041013
 21
10.6798765057
 31
0.0
  0
SPLINE
  5
2CC
100
AcDbEntity
  8
ASSI
100
AcDbSpline
 62
253
  6
CONTINUOUS
 70
0
 71
3
 72
17
 73
13
 74
11
 42
0.0000001
 43
0.0000001
 44
0.0000000001
 12
-0.4767936648
 22
-0.1504378796
 32
0.0
 13
-0.4999637531
 23
-0.0000027639
 33
0.0
 40
0.0
 40
0.0
 40
0.0
 40
0.0
 40
0.0147613872
 40
0.0532253307
 40
0.1144935933
 40
0.1970816969
 40
0.2990066965
 40
0.4178124444
 40
0.5506347109
 40
0.6942854364
 40
0.8452657197
 40
1.0
 40
1.0
 40
1.0
 40
1.0
 10
27.6452084543
 20
10.6798765057
 30
0.0
 10
27.642862409
 20
10.6791362818
 30
0.0
 10
27.6337636618
 20
10.6798907381
 30
0.0
 10
27.6148914114
 20
10.6786011105
 30
0.0
 10
27.584398917
 20
10.6787371999
 30
0.0
 10
27.543485907
 20
10.6781816715
 30
0.0
 10
27.4929203654
 20
10.677947046
 30
0.0
 10
27.4340054725
 20
10.6776528666
 30
0.0
 10
27.3681289733
 20
10.6774447564
 30
0.0
 10
27.2968926438
 20
10.6772833604
 30
0.0
 10
27.2220037487
 20
10.6771869349
 30
0.0
 10
27.1710550501
 20
10.6771649377
 30
0.0
 10
27.1452678729
 20
10.6771647952
 30
0.0
 11
27.6452084543
 21
10.6798765057
 31
0.0
 11
27.6378405945
 21
10.6794506176
 31
0.0
 11
27.6186144841
 21
10.6790361375
 31
0.0
 11
27.5879850987
 21
10.6786428294
 31
0.0
 11
27.5466956316
 21
10.6782803368
 31
0.0
 11
27.4957378499
 21
10.6779573486
 31
0.0
 11
27.436339922
 21
10.6776816702
 31
0.0
 11
27.3699339733
 21
10.6774599597
 31
0.0
 11
27.2981140011
 21
10.6772975438
 31
0.0
 11
27.2226293971
 21
10.6771983753
 31
0.0
 11
27.1452678729
 21
10.6771647952
 31
0.0
  0
SPLINE
  5
2CD
100
AcDbEntity
  8
ASSI
100
AcDbSpline
 62
253
  6
CONTINUOUS
 70
0
 71
3
 72
16
 73
12
 74
10
 42
0.0000001
 43
0.0000001
 44
0.0000000001
 12
-0.1956255021
 22
-0.4614155811
 32
0.0
 13
-0.5011721724
 23
-0.000359454
 33
0.0
 40
0.0
 40
0.0
 40
0.0
 40
0.0
 40
0.0191521757
 40
0.0665683036
 40
0.1414826259
 40
0.2417898699
 40
0.3645559974
 40
0.5061576398
 40
0.6624028983
 40
0.8286605946
 40
1.0
 40
1.0
 40
1.0
 40
1.0
 10
27.6525820844
 20
-9.5165974647
 30
0.0
 10
27.6513331998
 20
-9.5195431688
 30
0.0
 10
27.637398829
 20
-9.5203831472
 30
0.0
 10
27.6165597069
 20
-9.5248101876
 30
0.0
 10
27.5780953441
 20
-9.5270110951
 30
0.0
 10
27.5289641298
 20
-9.5301102377
 30
0.0
 10
27.4678800896
 20
-9.5324282728
 30
0.0
 10
27.3977106162
 20
-9.5344692954
 30
0.0
 10
27.3201702651
 20
-9.5359547224
 30
0.0
 10
27.2376814356
 20
-9.5369020837
 30
0.0
 10
27.1812817509
 20
-9.5371393867
 30
0.0
 10
27.1526582369
 20
-9.5371599162
 30
0.0
 11
27.6525820844
 21
-9.5165974647
 31
0.0
 11
27.6436569815
 21
-9.5201293914
 31
0.0
 11
27.6201417331
 21
-9.5235563657
 31
0.0
 11
27.5827351005
 21
-9.526776554
 31
0.0
 11
27.5325486309
 21
-9.5296942678
 31
0.0
 11
27.4710736272
 21
-9.5322228065
 31
0.0
 11
27.4001368339
 21
-9.5342870339
 31
0.0
 11
27.3218461548
 21
-9.5358256111
 31
0.0
 11
27.2385280163
 21
-9.5367928188
 31
0.0
 11
27.1526582369
 21
-9.5371599162
 31
0.0
  0
SPLINE
  5
2CE
100
AcDbEntity
  8
ASSI
100
AcDbSpline
 62
253
  6
CONTINUOUS
 70
0
 71
3
 72
19
 73
15
 74
13
 42
0.0000001
 43
0.0000001
 44
0.0000000001
 12
0.3112970811
 22
1.4023966309
 32
0.0
 13
0.0006887534
 23
1.4365311374
 33
0.0
 40
0.0
 40
0.0
 40
0.0
 40
0.0
 40
0.0146769045
 40
0.0448767047
 40
0.0901730857
 40
0.1498829261
 40
0.2231060618
 40
0.3087379823
 40
0.4054808333
 40
0.5118669653
 40
0.6262890873
 40
0.7470199919
 40
0.8722200831
 40
1.0
 40
1.0
 40
1.0
 40
1.0
 10
6.0030642595
 20
-10.9734177377
 30
0.0
 10
6.0045872187
 20
-10.9665567906
 30
0.0
 10
6.0054710694
 20
-10.9449439191
 30
0.0
 10
6.0078590218
 20
-10.9019352192
 30
0.0
 10
6.0094936366
 20
-10.8371544474
 30
0.0
 10
6.0114289734
 20
-10.7518558523
 30
0.0
 10
6.0131076789
 20
-10.6472016145
 30
0.0
 10
6.0146873754
 20
-10.5248232331
 30
0.0
 10
6.0160709282
 20
-10.3865576503
 30
0.0
 10
6.0172570521
 20
-10.2345051167
 30
0.0
 10
6.0182189808
 20
-10.0709638668
 30
0.0
 10
6.0189433149
 20
-9.8984124953
 30
0.0
 10
6.0194178086
 20
-9.719463911
 30
0.0
 10
6.0195619187
 20
-9.5983260488
 30
0.0
 10
6.0195912549
 20
-9.5371394391
 30
0.0
 11
6.0030642595
 21
-10.9734177377
 31
0.0
 11
6.0051979217
 21
-10.952442145
 31
0.0
 11
6.0072853733
 21
-10.9091094367
 31
0.0
 11
6.0092953252
 21
-10.8440708177
 31
0.0
 11
6.0111969999
 21
-10.7583168461
 31
0.0
 11
6.0129617385
 21
-10.6531443243
 31
0.0
 11
6.0145628552
 21
-10.5301418103
 31
0.0
 11
6.0159760631
 21
-10.3911748621
 31
0.0
 11
6.0171799424
 21
-10.2383525952
 31
0.0
 11
6.018156316
 21
-10.0739845351
 31
0.0
 11
6.01889045
 21
-9.9005523652
 31
0.0
 11
6.0193711579
 21
-9.7206991576
 31
0.0
 11
6.0195912549
 21
-9.5371394391
 31
0.0
  0
SPLINE
  5
2CF
100
AcDbEntity
  8
ASSI
100
AcDbSpline
 62
253
  6
CONTINUOUS
 70
0
 71
3
 72
19
 73
15
 74
13
 42
0.0000001
 43
0.0000001
 44
0.0000000001
 12
0.0006887534
 22
-1.4365311378
 32
0.0
 13
0.3112970789
 23
-1.4023966318
 33
0.0
 40
0.0
 40
0.0
 40
0.0
 40
0.0
 40
0.1277799165
 40
0.2529800076
 40
0.3737109122
 40
0.4881330342
 40
0.5945191662
 40
0.6912620172
 40
0.7768939378
 40
0.8501170735
 40
0.9098269139
 40
0.9551232951
 40
0.9853230954
 40
1.0
 40
1.0
 40
1.0
 40
1.0
 10
27.1526582124
 20
-9.5371394386
 30
0.0
 10
27.1526875487
 20
-9.5983260482
 30
0.0
 10
27.1528316588
 20
-9.7194639101
 30
0.0
 10
27.1533061525
 20
-9.8984124942
 30
0.0
 10
27.1540304865
 20
-10.0709638657
 30
0.0
 10
27.1549924152
 20
-10.2345051157
 30
0.0
 10
27.1561785391
 20
-10.3865576494
 30
0.0
 10
27.1575620919
 20
-10.5248232323
 30
0.0
 10
27.1591417884
 20
-10.6472016137
 30
0.0
 10
27.1608204939
 20
-10.7518558517
 30
0.0
 10
27.1627558308
 20
-10.8371544469
 30
0.0
 10
27.1643904456
 20
-10.9019352188
 30
0.0
 10
27.1667783979
 20
-10.9449439189
 30
0.0
 10
27.1676622487
 20
-10.9665567905
 30
0.0
 10
27.1691852079
 20
-10.9734177377
 30
0.0
 11
27.1526582124
 21
-9.5371394386
 31
0.0
 11
27.1528783094
 21
-9.7206991565
 31
0.0
 11
27.1533590174
 21
-9.9005523642
 31
0.0
 11
27.1540931513
 21
-10.073984534
 31
0.0
 11
27.155069525
 21
-10.2383525942
 31
0.0
 11
27.1562734043
 21
-10.3911748612
 31
0.0
 11
27.1576866122
 21
-10.5301418095
 31
0.0
 11
27.1592877289
 21
-10.6531443235
 31
0.0
 11
27.1610524674
 21
-10.7583168454
 31
0.0
 11
27.1629541421
 21
-10.8440708172
 31
0.0
 11
27.164964094
 21
-10.9091094363
 31
0.0
 11
27.1670515457
 21
-10.9524421448
 31
0.0
 11
27.1691852079
 21
-10.9734177377
 31
0.0
  0
SPLINE
  5
2D0
100
AcDbEntity
  8
ASSI
100
AcDbSpline
 62
253
  6
CONTINUOUS
 70
0
 71
3
 72
17
 73
13
 74
11
 42
0.0000001
 43
0.0000001
 44
0.0000000001
 12
-0.2999890615
 22
0.0000001894
 32
0.0
 13
-0.26854368
 23
0.1337076248
 33
0.0
 40
0.0
 40
0.0
 40
0.0
 40
0.0
 40
0.1546311843
 40
0.3056213721
 40
0.4492823827
 40
0.5821198924
 40
0.700942873
 40
0.8028799771
 40
0.8854741508
 40
0.9467442802
 40
0.985214922
 40
1.0
 40
1.0
 40
1.0
 40
1.0
 10
6.0269651218
 20
10.8772964452
 30
0.0
 10
6.0115025672
 20
10.877296455
 30
0.0
 10
5.9809415905
 20
10.877317081
 30
0.0
 10
5.936014851
 20
10.8774082989
 30
0.0
 10
5.8932685289
 20
10.8775609253
 30
0.0
 10
5.8537358778
 20
10.8777589632
 30
0.0
 10
5.8183860131
 20
10.8780355497
 30
0.0
 10
5.7880302598
 20
10.8782653178
 30
0.0
 10
5.76351515
 20
10.8787730036
 30
0.0
 10
5.7451376127
 20
10.8786905218
 30
0.0
 10
5.7339662451
 20
10.8798278577
 30
0.0
 10
5.7283343216
 20
10.87920984
 30
0.0
 10
5.7270108419
 20
10.8798687992
 30
0.0
 11
6.0269651218
 21
10.8772964452
 31
0.0
 11
5.9805774686
 21
10.877327931
 31
0.0
 11
5.9352821609
 21
10.8774217024
 31
0.0
 11
5.8921857037
 21
10.8775755324
 31
0.0
 11
5.8523364581
 21
10.8777857046
 31
0.0
 11
5.8166918227
 21
10.878047173
 31
0.0
 11
5.786113342
 21
10.878353624
 31
0.0
 11
5.7613383819
 21
10.8786976574
 31
0.0
 11
5.7429618056
 21
10.879071009
 31
0.0
 11
5.7314277473
 21
10.8794645965
 31
0.0
 11
5.7270108419
 21
10.8798687992
 31
0.0
  0
SPLINE
  5
2D1
100
AcDbEntity
  8
ASSI
100
AcDbSpline
 62
253
  6
CONTINUOUS
 70
0
 71
3
 72
11
 73
7
 74
5
 42
0.0000001
 43
0.0000001
 44
0.0000000001
 12
0.0002437993
 22
-20.1964757625
 32
0.0
 13
0.0145100748
 23
-20.1964705516
 33
0.0
 40
0.0
 40
0.0
 40
0.0
 40
0.0
 40
0.2500744181
 40
0.5001049868
 40
0.7500830172
 40
1.0
 40
1.0
 40
1.0
 40
1.0
 10
27.6452084546
 20
10.6798765596
 30
0.0
 10
27.6452287773
 20
8.996335918
 30
0.0
 10
27.6455660948
 20
5.6295498324
 30
0.0
 10
27.6469641249
 20
0.5798721749
 30
0.0
 10
27.6492530079
 20
-4.4687452778
 30
0.0
 10
27.6513733131
 20
-7.8341171367
 30
0.0
 10
27.6525820844
 20
-9.5165974647
 30
0.0
 11
27.6452084546
 21
10.6798765596
 31
0.0
 11
27.6457148492
 21
5.6292546598
 31
0.0
 11
27.6471127957
 21
0.579518533
 31
0.0
 11
27.6494018686
 21
-4.4691561798
 31
0.0
 11
27.6525820844
 21
-9.5165974647
 31
0.0
  0
SPLINE
  5
2D2
100
AcDbEntity
  8
ASSI
100
AcDbSpline
 62
253
  6
CONTINUOUS
 70
0
 71
3
 72
19
 73
15
 74
13
 42
0.0000001
 43
0.0000001
 44
0.0000000001
 12
0.0006887042
 22
-0.9578832426
 32
0.0
 13
0.3025453754
 23
-0.9088493146
 33
0.0
 40
0.0
 40
0.0
 40
0.0
 40
0.0
 40
0.1277154689
 40
0.2528938267
 40
0.3736053495
 40
0.4880108521
 40
0.5943837456
 40
0.691117303
 40
0.7767445806
 40
0.8499684188
 40
0.9096858115
 40
0.9549999701
 40
0.9852364108
 40
1.0
 40
1.0
 40
1.0
 40
1.0
 10
27.6525820844
 20
-9.5165974647
 30
0.0
 10
27.6526114038
 20
-9.5573763005
 30
0.0
 10
27.6527554868
 20
-9.6381238508
 30
0.0
 10
27.6532299202
 20
-9.7574131464
 30
0.0
 10
27.6539542087
 20
-9.8724512732
 30
0.0
 10
27.6549161875
 20
-9.9814831435
 30
0.0
 10
27.656102212
 20
-10.0828557467
 30
0.0
 10
27.6574861881
 20
-10.1750380622
 30
0.0
 10
27.6590648013
 20
-10.2566255604
 30
0.0
 10
27.6607470345
 20
-10.3264059697
 30
0.0
 10
27.6626731909
 20
-10.3832565728
 30
0.0
 10
27.6643312944
 20
-10.4264974161
 30
0.0
 10
27.6666745436
 20
-10.4550926162
 30
0.0
 10
27.6676199699
 20
-10.4696294368
 30
0.0
 10
27.6691088551
 20
-10.4741020628
 30
0.0
 11
27.6525820844
 21
-9.5165974647
 31
0.0
 11
27.6528020902
 21
-9.6389338059
 31
0.0
 11
27.6532827744
 21
-9.7588391248
 31
0.0
 11
27.6540168829
 21
-9.874464369
 31
0.0
 11
27.6549932597
 21
-9.9840471616
 31
0.0
 11
27.6561971543
 21
-10.0859328876
 31
0.0
 11
27.6576103997
 21
-10.1785815871
 31
0.0
 11
27.6592115743
 21
-10.2605869125
 31
0.0
 11
27.6609763792
 21
-10.3307046123
 31
0.0
 11
27.6628781373
 21
-10.3878752951
 31
0.0
 11
27.6648881283
 21
-10.4312344161
 31
0.0
 11
27.6669757113
 21
-10.4601220714
 31
0.0
 11
27.6691088551
 21
-10.4741020628
 31
0.0
  0
SPLINE
  5
2D3
100
AcDbEntity
  8
ASSI
100
AcDbSpline
 62
253
  6
CONTINUOUS
 70
0
 71
3
 72
19
 73
15
 74
13
 42
0.0000001
 43
0.0000001
 44
0.0000000001
 12
0.3025453665
 22
0.9088493175
 32
0.0
 13
0.0006887042
 23
0.9578832426
 33
0.0
 40
0.0
 40
0.0
 40
0.0
 40
0.0
 40
0.0147635891
 40
0.0450000296
 40
0.0903141881
 40
0.1500315807
 40
0.2232554188
 40
0.3088826964
 40
0.4056162537
 40
0.5119891472
 40
0.6263946498
 40
0.7471061725
 40
0.8722845304
 40
1.0
 40
1.0
 40
1.0
 40
1.0
 10
5.5031406123
 20
-10.4741020628
 30
0.0
 10
5.5046294974
 20
-10.4696294368
 30
0.0
 10
5.5055749238
 20
-10.4550926164
 30
0.0
 10
5.5079181729
 20
-10.4264974164
 30
0.0
 10
5.5095762765
 20
-10.3832565731
 30
0.0
 10
5.5115024329
 20
-10.3264059702
 30
0.0
 10
5.513184666
 20
-10.2566255609
 30
0.0
 10
5.5147632792
 20
-10.1750380628
 30
0.0
 10
5.5161472553
 20
-10.0828557473
 30
0.0
 10
5.5173332799
 20
-9.9814831441
 30
0.0
 10
5.5182952587
 20
-9.8724512739
 30
0.0
 10
5.5190195472
 20
-9.7574131471
 30
0.0
 10
5.5194939806
 20
-9.6381238513
 30
0.0
 10
5.5196380635
 20
-9.5573763007
 30
0.0
 10
5.5196673829
 20
-9.5165974647
 30
0.0
 11
5.5031406123
 21
-10.4741020628
 31
0.0
 11
5.505273756
 21
-10.4601220715
 31
0.0
 11
5.507361339
 21
-10.4312344163
 31
0.0
 11
5.50937133
 21
-10.3878752954
 31
0.0
 11
5.5112730881
 21
-10.3307046128
 31
0.0
 11
5.513037893
 21
-10.260586913
 31
0.0
 11
5.5146390677
 21
-10.1785815877
 31
0.0
 11
5.5160523131
 21
-10.0859328882
 31
0.0
 11
5.5172562077
 21
-9.9840471622
 31
0.0
 11
5.5182325844
 21
-9.8744643697
 31
0.0
 11
5.518966693
 21
-9.7588391254
 31
0.0
 11
5.5194473771
 21
-9.6389338066
 31
0.0
 11
5.5196673829
 21
-9.5165974647
 31
0.0
  0
SPLINE
  5
2D4
100
AcDbEntity
  8
ASSI
100
AcDbSpline
 62
253
  6
CONTINUOUS
 70
0
 71
3
 72
11
 73
7
 74
5
 42
0.0000001
 43
0.0000001
 44
0.0000000001
 12
0.0145100748
 22
20.1964705516
 32
0.0
 13
0.0002437993
 23
20.1964757625
 33
0.0
 40
0.0
 40
0.0
 40
0.0
 40
0.0
 40
0.2499169828
 40
0.4998950132
 40
0.7499255819
 40
1.0
 40
1.0
 40
1.0
 40
1.0
 10
5.5196673829
 20
-9.5165974647
 30
0.0
 10
5.5208761543
 20
-7.8341171367
 30
0.0
 10
5.5229964594
 20
-4.4687452778
 30
0.0
 10
5.5252853424
 20
0.5798721749
 30
0.0
 10
5.5266833726
 20
5.6295498324
 30
0.0
 10
5.5270206901
 20
8.996335918
 30
0.0
 10
5.5270410127
 20
10.6798765596
 30
0.0
 11
5.5196673829
 21
-9.5165974647
 31
0.0
 11
5.5228475988
 21
-4.4691561798
 31
0.0
 11
5.5251366716
 21
0.579518533
 31
0.0
 11
5.5265346181
 21
5.6292546598
 31
0.0
 11
5.5270410127
 21
10.6798765596
 31
0.0
  0
LINE
  5
2D5
100
AcDbEntity
  8
RACCORDO
100
AcDbLine
 62
253
  6
CONTINUOUS
 10
-11.7393751607
 20
10.6798765057
 11
-12.2306638146
 21
10.6771647952
  0
SPLINE
  5
2D6
100
AcDbEntity
  8
RACCORDO
100
AcDbSpline
 62
253
  6
CONTINUOUS
 70
0
 71
3
 72
16
 73
12
 74
10
 42
0.0000001
 43
0.0000001
 44
0.0000000001
 12
-0.0261495538
 22
-0.4991152339
 32
0.0
 13
0.4991148176
 23
-0.0261574992
 33
0.0
 40
0.0
 40
0.0
 40
0.0
 40
0.0
 40
0.1736040235
 40
0.3419132088
 40
0.4998212985
 40
0.6425380909
 40
0.7657352311
 40
0.8656785076
 40
0.939343881
 40
0.9845206607
 40
1.0
 40
1.0
 40
1.0
 40
1.0
 10
-10.3701221353
 20
-10.4741020628
 30
0.0
 10
-10.3716353579
 20
-10.502984867
 30
0.0
 10
-10.3745327269
 20
-10.5598774853
 30
0.0
 10
-10.3784968695
 20
-10.6430382549
 30
0.0
 10
-10.3819967334
 20
-10.721134512
 30
0.0
 10
-10.3847376977
 20
-10.7915308632
 30
0.0
 10
-10.3872286021
 20
-10.8529068192
 30
0.0
 10
-10.3877338673
 20
-10.9010787116
 30
0.0
 10
-10.390510729
 20
-10.9404884287
 30
0.0
 10
-10.3865970224
 20
-10.9575153813
 30
0.0
 10
-10.3901392328
 20
-10.9732818632
 30
0.0
 10
-10.3875639102
 20
-10.9734168301
 30
0.0
 11
-10.3701221353
 21
-10.4741020628
 31
0.0
 11
-10.3745297434
 21
-10.5607572935
 31
0.0
 11
-10.37853875
 21
-10.6447826023
 31
0.0
 11
-10.3820274849
 21
-10.7236278834
 31
0.0
 11
-10.3848900674
 21
-10.794900241
 31
0.0
 11
-10.3870396203
 21
-10.856436612
 31
0.0
 11
-10.3884109064
 21
-10.9063694132
 31
0.0
 11
-10.388962308
 21
-10.9431832211
 31
0.0
 11
-10.3886770906
 21
-10.965760764
 31
0.0
 11
-10.3875639102
 21
-10.9734168301
 31
0.0
  0
SPLINE
  5
2D7
100
AcDbEntity
  8
RACCORDO
100
AcDbSpline
 62
253
  6
CONTINUOUS
 70
0
 71
3
 72
14
 73
10
 74
8
 42
0.0000001
 43
0.0000001
 44
0.0000000001
 12
-0.0017453439
 22
0.2000572729
 32
0.0
 13
0.2000572683
 23
0.0017458733
 33
0.0
 40
0.0
 40
0.0
 40
0.0
 40
0.0
 40
0.222424496
 40
0.4336936618
 40
0.6232197302
 40
0.7815067321
 40
0.9006294012
 40
0.9746421145
 40
1.0
 40
1.0
 40
1.0
 40
1.0
 10
-11.7393917794
 20
10.6798764146
 30
0.0
 10
-11.7395211819
 20
10.6947089606
 30
0.0
 10
-11.7397345107
 20
10.7236532732
 30
0.0
 10
-11.7397815433
 20
10.7651205062
 30
0.0
 10
-11.7399239252
 20
10.8026962231
 30
0.0
 10
-11.739076583
 20
10.83301066
 30
0.0
 10
-11.7401366134
 20
10.8584432732
 30
0.0
 10
-11.7369753176
 20
10.8693372213
 30
0.0
 10
-11.739337615
 20
10.879854042
 30
0.0
 10
-11.7376466053
 20
10.8798687992
 30
0.0
 11
-11.7393917794
 21
10.6798764146
 31
0.0
 11
-11.7396924955
 21
10.7243747299
 31
0.0
 11
-11.7398031412
 21
10.7666421267
 31
0.0
 11
-11.7397181695
 21
10.8045595428
 31
0.0
 11
-11.7394418406
 21
10.8362260082
 31
0.0
 11
-11.7389880086
 21
10.8600539499
 31
0.0
 11
-11.7383794264
 21
10.8748487833
 31
0.0
 11
-11.7376466053
 21
10.8798687992
 31
0.0
  0
LINE
  5
2D8
100
AcDbEntity
  8
ASSI
100
AcDbLine
 62
253
  6
CONTINUOUS
 10
-11.7393751607
 20
10.6798765057
 11
-12.2306638146
 21
10.6771647952
  0
SPLINE
  5
2D9
100
AcDbEntity
  8
ASSI
100
AcDbSpline
 62
253
  6
CONTINUOUS
 70
0
 71
3
 72
16
 73
12
 74
10
 42
0.0000001
 43
0.0000001
 44
0.0000000001
 12
-0.0261495538
 22
-0.4991152339
 32
0.0
 13
0.4991148176
 23
-0.0261574992
 33
0.0
 40
0.0
 40
0.0
 40
0.0
 40
0.0
 40
0.1736040235
 40
0.3419132088
 40
0.4998212985
 40
0.6425380909
 40
0.7657352311
 40
0.8656785076
 40
0.939343881
 40
0.9845206607
 40
1.0
 40
1.0
 40
1.0
 40
1.0
 10
-10.3701221353
 20
-10.4741020628
 30
0.0
 10
-10.3716353579
 20
-10.502984867
 30
0.0
 10
-10.3745327269
 20
-10.5598774853
 30
0.0
 10
-10.3784968695
 20
-10.6430382549
 30
0.0
 10
-10.3819967334
 20
-10.721134512
 30
0.0
 10
-10.3847376977
 20
-10.7915308632
 30
0.0
 10
-10.3872286021
 20
-10.8529068192
 30
0.0
 10
-10.3877338673
 20
-10.9010787116
 30
0.0
 10
-10.390510729
 20
-10.9404884287
 30
0.0
 10
-10.3865970224
 20
-10.9575153813
 30
0.0
 10
-10.3901392328
 20
-10.9732818632
 30
0.0
 10
-10.3875639102
 20
-10.9734168301
 30
0.0
 11
-10.3701221353
 21
-10.4741020628
 31
0.0
 11
-10.3745297434
 21
-10.5607572935
 31
0.0
 11
-10.37853875
 21
-10.6447826023
 31
0.0
 11
-10.3820274849
 21
-10.7236278834
 31
0.0
 11
-10.3848900674
 21
-10.794900241
 31
0.0
 11
-10.3870396203
 21
-10.856436612
 31
0.0
 11
-10.3884109064
 21
-10.9063694132
 31
0.0
 11
-10.388962308
 21
-10.9431832211
 31
0.0
 11
-10.3886770906
 21
-10.965760764
 31
0.0
 11
-10.3875639102
 21
-10.9734168301
 31
0.0
  0
SPLINE
  5
2DA
100
AcDbEntity
  8
ASSI
100
AcDbSpline
 62
253
  6
CONTINUOUS
 70
0
 71
3
 72
14
 73
10
 74
8
 42
0.0000001
 43
0.0000001
 44
0.0000000001
 12
-0.0017453439
 22
0.2000572729
 32
0.0
 13
0.2000572683
 23
0.0017458733
 33
0.0
 40
0.0
 40
0.0
 40
0.0
 40
0.0
 40
0.222424496
 40
0.4336936618
 40
0.6232197302
 40
0.7815067321
 40
0.9006294012
 40
0.9746421145
 40
1.0
 40
1.0
 40
1.0
 40
1.0
 10
-11.7393917794
 20
10.6798764146
 30
0.0
 10
-11.7395211819
 20
10.6947089606
 30
0.0
 10
-11.7397345107
 20
10.7236532732
 30
0.0
 10
-11.7397815433
 20
10.7651205062
 30
0.0
 10
-11.7399239252
 20
10.8026962231
 30
0.0
 10
-11.739076583
 20
10.83301066
 30
0.0
 10
-11.7401366134
 20
10.8584432732
 30
0.0
 10
-11.7369753176
 20
10.8693372213
 30
0.0
 10
-11.739337615
 20
10.879854042
 30
0.0
 10
-11.7376466053
 20
10.8798687992
 30
0.0
 11
-11.7393917794
 21
10.6798764146
 31
0.0
 11
-11.7396924955
 21
10.7243747299
 31
0.0
 11
-11.7398031412
 21
10.7666421267
 31
0.0
 11
-11.7397181695
 21
10.8045595428
 31
0.0
 11
-11.7394418406
 21
10.8362260082
 31
0.0
 11
-11.7389880086
 21
10.8600539499
 31
0.0
 11
-11.7383794264
 21
10.8748487833
 31
0.0
 11
-11.7376466053
 21
10.8798687992
 31
0.0
  0
SPLINE
  5
2DB
100
AcDbEntity
  8
CURVE
100
AcDbSpline
 62
253
  6
CONTINUOUS
 70
0
 71
3
 72
9
 73
5
 74
3
 42
0.0000001
 43
0.0000001
 44
0.0000000001
 12
0.0220715567
 22
-0.8486190469
 32
0.0
 13
0.0221510625
 23
-0.8008396834
 33
0.0
 40
0.0
 40
0.0
 40
0.0
 40
0.0
 40
0.686080955
 40
1.0
 40
1.0
 40
1.0
 40
1.0
 10
-12.0617564507
 20
-1.9746916082
 30
0.0
 10
-12.0567088258
 20
-2.1687653969
 30
0.0
 10
-12.0493618248
 20
-2.4449923956
 30
0.0
 10
-12.0419475748
 20
-2.7154356105
 30
0.0
 10
-12.0396296947
 20
-2.79923522
 30
0.0
 11
-12.0617564507
 21
-1.9746916082
 31
0.0
 11
-12.0465958963
 21
-2.5450710951
 31
0.0
 11
-12.0396296947
 21
-2.79923522
 31
0.0
  0
SPLINE
  5
2DC
100
AcDbEntity
  8
CURVE
100
AcDbSpline
 62
253
  6
CONTINUOUS
 70
0
 71
3
 72
9
 73
5
 74
3
 42
0.0000001
 43
0.0000001
 44
0.0000000001
 12
-0.0230592473
 22
0.8865943062
 32
0.0
 13
-0.0202431606
 23
0.8334824036
 33
0.0
 40
0.0
 40
0.0
 40
0.0
 40
0.0
 40
0.6566152036
 40
1.0
 40
1.0
 40
1.0
 40
1.0
 10
-12.0617564507
 20
-1.9746916082
 30
0.0
 10
-12.0668034681
 20
-1.7806411745
 30
0.0
 10
-12.0741395384
 20
-1.492046402
 30
0.0
 10
-12.0810739617
 20
-1.2097599612
 30
0.0
 10
-12.0833910262
 20
-1.1143582327
 30
0.0
 11
-12.0617564507
 21
-1.9746916082
 31
0.0
 11
-12.0762642512
 21
-1.4043695403
 31
0.0
 11
-12.0833910262
 21
-1.1143582327
 31
0.0
  0
ELLIPSE
  5
2DD
100
AcDbEntity
  8
RACCORDO
100
AcDbEllipse
 62
7
  6
CONTINUOUS
 10
9.3015947875
 20
-11.1074119338
 30
0.0
 11
0.2
 21
-0.0
 31
0.0
 40
0.0524077793
 41
1.5707963268
 42
2.617993878
  0
ELLIPSE
  5
2DE
100
AcDbEntity
  8
RACCORDO
100
AcDbEllipse
 62
7
  6
CONTINUOUS
 10
12.6706546798
 20
-11.1074119338
 30
0.0
 11
0.2
 21
0.0
 31
0.0
 40
0.0524077793
 41
0.5235987756
 42
1.5707963268
  0
ELLIPSE
  5
2DF
100
AcDbEntity
  8
RACCORDO
100
AcDbEllipse
 62
7
  6
CONTINUOUS
 10
20.5015947875
 20
-11.1074119338
 30
0.0
 11
0.2
 21
0.0
 31
0.0
 40
0.0524077793
 41
1.5707963268
 42
2.617993878
  0
ELLIPSE
  5
2E0
100
AcDbEntity
  8
RACCORDO
100
AcDbEllipse
 62
7
  6
CONTINUOUS
 10
23.8706546798
 20
-11.1074119338
 30
0.0
 11
0.2
 21
0.0
 31
0.0
 40
0.0524077793
 41
0.5235987756
 42
1.5707963268
  0
ELLIPSE
  5
2E1
100
AcDbEntity
  8
RACCORDO
100
AcDbEllipse
 62
7
  6
CONTINUOUS
 10
27.5360942681
 20
10.7253007761
 30
0.0
 11
0.1789222233
 21
0.0894542985
 31
0.0
 40
0.9998096356
 41
-0.4635410001
 42
1.1071030277
  0
ELLIPSE
  5
2E2
100
AcDbEntity
  8
RACCORDO
100
AcDbEllipse
 62
7
  6
CONTINUOUS
 10
5.6361551993
 20
10.7253007761
 30
0.0
 11
0.1789222233
 21
-0.0894542984
 31
0.0
 40
0.9998096356
 41
2.0344896259
 42
3.6051336536
  0
ELLIPSE
  5
2E3
100
AcDbEntity
  8
RACCORDO
100
AcDbEllipse
 62
7
  6
CONTINUOUS
 10
27.2229750275
 20
-10.6356033525
 30
0.0
 11
0.498078285
 21
0.0448076117
 31
0.0
 40
0.9965957691
 41
-1.6608206152
 42
-0.0909376769
  0
ELLIPSE
  5
2E4
100
AcDbEntity
  8
RACCORDO
100
AcDbEllipse
 62
7
  6
CONTINUOUS
 10
5.9492744398
 20
-10.6356033525
 30
0.0
 11
0.498078285
 21
-0.0448076117
 31
0.0
 40
0.9965957691
 41
-3.0506549766
 42
-1.4807720384
  0
ELLIPSE
  5
2E5
100
AcDbEntity
  8
ASSI
100
AcDbEllipse
 62
7
  6
CONTINUOUS
 10
9.3015947875
 20
-11.1074119338
 30
0.0
 11
0.2
 21
-0.0
 31
0.0
 40
0.0524077793
 41
1.5707963268
 42
2.617993878
  0
ELLIPSE
  5
2E6
100
AcDbEntity
  8
ASSI
100
AcDbEllipse
 62
7
  6
CONTINUOUS
 10
12.6706546798
 20
-11.1074119338
 30
0.0
 11
0.2
 21
0.0
 31
0.0
 40
0.0524077793
 41
0.5235987756
 42
1.5707963268
  0
ELLIPSE
  5
2E7
100
AcDbEntity
  8
ASSI
100
AcDbEllipse
 62
7
  6
CONTINUOUS
 10
20.5015947875
 20
-11.1074119338
 30
0.0
 11
0.2
 21
0.0
 31
0.0
 40
0.0524077793
 41
1.5707963268
 42
2.617993878
  0
ELLIPSE
  5
2E8
100
AcDbEntity
  8
ASSI
100
AcDbEllipse
 62
7
  6
CONTINUOUS
 10
23.8706546798
 20
-11.1074119338
 30
0.0
 11
0.2
 21
0.0
 31
0.0
 40
0.0524077793
 41
0.5235987756
 42
1.5707963268
  0
ELLIPSE
  5
2E9
100
AcDbEntity
  8
ASSI
100
AcDbEllipse
 62
7
  6
CONTINUOUS
 10
27.5360942681
 20
10.7253007761
 30
0.0
 11
0.1789222233
 21
0.0894542985
 31
0.0
 40
0.9998096356
 41
-0.4635410001
 42
1.1071030277
  0
ELLIPSE
  5
2EA
100
AcDbEntity
  8
ASSI
100
AcDbEllipse
 62
7
  6
CONTINUOUS
 10
5.6361551993
 20
10.7253007761
 30
0.0
 11
0.1789222233
 21
-0.0894542984
 31
0.0
 40
0.9998096356
 41
2.0344896259
 42
3.6051336536
  0
ELLIPSE
  5
2EB
100
AcDbEntity
  8
ASSI
100
AcDbEllipse
 62
7
  6
CONTINUOUS
 10
27.2229750275
 20
-10.6356033525
 30
0.0
 11
0.498078285
 21
0.0448076117
 31
0.0
 40
0.9965957691
 41
-1.6608206152
 42
-0.0909376769
  0
ELLIPSE
  5
2EC
100
AcDbEntity
  8
ASSI
100
AcDbEllipse
 62
7
  6
CONTINUOUS
 10
5.9492744398
 20
-10.6356033525
 30
0.0
 11
0.498078285
 21
-0.0448076117
 31
0.0
 40
0.9965957691
 41
-3.0506549766
 42
-1.4807720384
  0
ENDSEC
  0
SECTION
  2
OBJECTS
  0
DICTIONARY
  5
C
100
AcDbDictionary
280
0
281
1
  3
ACAD_GROUP
350
D
  3
ACAD_MLINESTYLE
350
17
  3
ACAD_LAYOUT
350
1A
  3
ACAD_PLOTSETTINGS
350
19
  3
ACAD_PLOTSTYLENAME
350
E
  0
DICTIONARY
  5
D
102
{ACAD_REACTORS
330
C
102
}
100
AcDbDictionary
280
0
281
1
  0
ACDBDICTIONARYWDFLT
  5
E
102
{ACAD_REACTORS
330
C
102
}
100
AcDbDictionary
281
1
  3
Normal
350
F
100
AcDbDictionaryWithDefault
340
F
  0
DICTIONARY
  5
17
102
{ACAD_REACTORS
330
C
102
}
100
AcDbDictionary
280
0
281
1
  3
Standard
350
18
  0
DICTIONARY
  5
19
102
{ACAD_REACTORS
330
C
102
}
100
AcDbDictionary
281
1
  0
DICTIONARY
  5
1A
102
{ACAD_REACTORS
330
C
102
}
100
AcDbDictionary
281
1
  3
Model
350
2ED
  3
Layout1
350
2EE
  0
ACDBPLACEHOLDER
  5
F
102
{ACAD_REACTORS
330
E
102
}
  0
MLINESTYLE
  5
18
102
{ACAD_REACTORS
330
17
102
}
100
AcDbMlineStyle
  2
STANDARD
 70
0
  3

 62
256
 51
90.0
 52
90.0
 71
2
 49
0.5
 62
256
  6
BYLAYER
 49
-0.5
 62
256
  6
BYLAYER
  0
LAYOUT
  5
2ED
102
{ACAD_REACTORS
330
1A
102
}
100
AcDbPlotSettings
  1

  2
none_device
  4
ISO_A4_(297.00_x_210.00_MM)
  6

 40
0.0
 41
0.0
 42
0.0
 43
0.0
 44
297.0
 45
210.0
 46
0.0
 47
0.0
 48
0.0
 49
0.0
140
0.0
141
0.0
142
1.0
143
1.0
 70
1024
 72
1
 73
0
 74
0
  7

 75
0
147
1.0
148
0.0
149
0.0
100
AcDbLayout
  1
Model
 70
0
 71
0
 10
0.0
 20
0.0
 11
297.0
 21
210.0
 12
0.0
 22
0.0
 32
0.0
 14
0.0
 24
0.0
 34
0.0
 15
0.0
 25
0.0
 35
0.0
146
0.0
 13
0.0
 23
0.0
 33
0.0
 16
1.0
 26
0.0
 36
0.0
 17
0.0
 27
1.0
 37
0.0
 76
0
330
214
345
0
346
0
  0
LAYOUT
  5
2EE
102
{ACAD_REACTORS
330
1A
102
}
100
AcDbPlotSettings
  1

  2
none_device
  4
ISO_A4_(297.00_x_210.00_MM)
  6

 40
0.0
 41
0.0
 42
0.0
 43
0.0
 44
297.0
 45
210.0
 46
0.0
 47
0.0
 48
0.0
 49
0.0
140
0.0
141
0.0
142
1.0
143
1.0
 70
0
 72
1
 73
0
 74
0
  7

 75
0
147
1.0
148
0.0
149
0.0
100
AcDbLayout
  1
Layout1
 70
0
 71
1
 10
0.0
 20
0.0
 11
297.0
 21
210.0
 12
0.0
 22
0.0
 32
0.0
 14
0.0
 24
0.0
 34
0.0
 15
0.0
 25
0.0
 35
0.0
146
0.0
 13
0.0
 23
0.0
 33
0.0
 16
1.0
 26
0.0
 36
0.0
 17
0.0
 27
1.0
 37
0.0
 76
0
330
215
345
0
346
0
  0
ENDSEC
  0
EOF
