  0
SECTION
  2
HEADER
  9
$ACADVER
  1
AC1015
  9
$DWGCODEPAGE
  3
ANSI_1252
  9
$EXTMAX
 10
297.0
 20
210.0
 30
0.0
  9
$EXTMIN
 10
0.0
 20
0.0
 30
0.0
  9
$LIMMIN
 10
0.0
 20
0.0
  9
$LIMMAX
 10
297.0
 20
210.0
  9
$VIEWCTR
 10
148.5
 20
105.0
  9
$VIEWSIZE
 40
210.0
  9
$CLAYER
  8
0
  9
$LTSCALE
 40
16.335
  9
$CELTYPE
  6
BYLAYER
  9
$DIMSCALE
 40
1.0
  9
$DIMASZ
 40
3.0
  9
$DIMEXO
 40
1.85625
  9
$DIMDLI
 40
11.286
  9
$DIMEXE
 40
5.346
  9
$DIMCEN
 40
2.673
  9
$DIMLFAC
 40
1.0
  9
$DIMBLK
  1
_FILLED
  9
$DIMTXT
 40
3.0
  9
$DIMTOL
 70
1
  9
$DIMLIM
 70
0
  9
$DIMTFAC
 40
1.0
  9
$DIMTP
 40
0.01
  9
$DIMTM
 40
0.01
  9
$PDMODE
 70
3
  9
$PDSIZE
 40
3.0
  9
$HANDSEED
  5
2EA
  9
$TILEMODE
 70
1
  9
$MEASUREMENT
 70
1
  9
$INSUNITS
 70
4
  0
ENDSEC
  0
SECTION
  2
CLASSES
  0
CLASS
  1
ACDBDICTIONARYWDFLT
  2
AcDbDictionaryWithDefault
  3
AutoCAD 2000
 90
0
280
0
281
0
  0
CLASS
  1
ACDBPLACEHOLDER
  2
AcDbPlaceHolder
  3
AutoCAD 2000
 90
0
280
0
281
0
  0
CLASS
  1
LAYOUT
  2
AcDbLayout
  3
AutoCAD 2000
 90
0
280
0
281
0
  0
ENDSEC
  0
SECTION
  2
TABLES
  0
TABLE
  2
VPORT
  5
8
100
AcDbSymbolTable
 70
2
  0
VPORT
  5
1F4
100
AcDbSymbolTableRecord
100
AcDbViewportTableRecord
  2
*ACTIVE
 70
0
 10
0.0
 20
0.0
 11
1.0
 21
1.0
 12
148.5
 22
105.0
 13
0.0
 23
0.0
 14
1.0
 24
1.0
 15
0.0
 25
0.0
 16
0.0
 26
0.0
 36
1.0
 17
0.0
 27
0.0
 37
0.0
 40
210.0
 41
1.4142857143
 42
50.0
 43
0.0
 44
0.0
 50
0.0
 51
0.0
 71
0
 72
100
 73
1
 74
1
 75
0
 76
0
 77
0
 78
0
  0
ENDTAB
  0
TABLE
  2
LTYPE
  5
5
100
AcDbSymbolTable
 70
6
  0
LTYPE
  5
14
100
AcDbSymbolTableRecord
100
AcDbLinetypeTableRecord
  2
BYBLOCK
 70
0
  3

 72
65
 73
0
 40
0.0
  0
LTYPE
  5
15
100
AcDbSymbolTableRecord
100
AcDbLinetypeTableRecord
  2
BYLAYER
 70
0
  3

 72
65
 73
0
 40
0.0
  0
LTYPE
  5
16
100
AcDbSymbolTableRecord
100
AcDbLinetypeTableRecord
  2
CONTINUOUS
 70
64
  3
Solid line
 72
65
 73
0
 40
0.0
  0
LTYPE
  5
1F5
100
AcDbSymbolTableRecord
100
AcDbLinetypeTableRecord
  2
CENTER
 70
64
  3
____ _ ____ _ ____ _ ____ _ ____ _ ____ _ ____
 72
65
 73
4
 40
0.6
 49
0.375
 74
0
 49
-0.075
 74
0
 49
0.075
 74
0
 49
-0.075
 74
0
  0
LTYPE
  5
1F6
100
AcDbSymbolTableRecord
100
AcDbLinetypeTableRecord
  2
HIDDEN
 70
64
  3
- - - - - - - - - - - - - - - - - - - -
 72
65
 73
2
 40
0.2
 49
0.1
 74
0
 49
-0.1
 74
0
  0
LTYPE
  5
1F7
100
AcDbSymbolTableRecord
100
AcDbLinetypeTableRecord
  2
PHANTOM
 70
64
  3
_____ _ _ _____ _ _ _____ _ _ _____
 72
65
 73
6
 40
0.8
 49
0.45
 74
0
 49
-0.05
 74
0
 49
0.1
 74
0
 49
-0.05
 74
0
 49
0.1
 74
0
 49
-0.05
 74
0
  0
LTYPE
  5
1F8
100
AcDbSymbolTableRecord
100
AcDbLinetypeTableRecord
  2
DOT
 70
64
  3
. . . . . . . . . . . . . . . . . . . .
 72
65
 73
2
 40
0.2
 49
0.1
 74
0
 49
-0.1
 74
0
  0
LTYPE
  5
1F9
100
AcDbSymbolTableRecord
100
AcDbLinetypeTableRecord
  2
DASHED
 70
64
  3
- - - - - - - - - - - - - - - - - - - -
 72
65
 73
2
 40
0.2
 49
0.1
 74
0
 49
-0.1
 74
0
  0
ENDTAB
  0
TABLE
  2
LAYER
  5
2
100
AcDbSymbolTable
 70
36
  0
LAYER
  5
10
100
AcDbSymbolTableRecord
100
AcDbLayerTableRecord
  2
0
 70
0
 62
7
  6
CONTINUOUS
370
-3
390
F
  0
LAYER
  5
1FA
100
AcDbSymbolTableRecord
100
AcDbLayerTableRecord
  2
DEFAULT_1
 70
0
 62
7
  6
CENTER
370
-3
390
F
  0
LAYER
  5
1FB
100
AcDbSymbolTableRecord
100
AcDbLayerTableRecord
  2
DEFAULT_2
 70
0
 62
7
  6
HIDDEN
370
-3
390
F
  0
LAYER
  5
1FC
100
AcDbSymbolTableRecord
100
AcDbLayerTableRecord
  2
DEFAULT_3
 70
0
 62
7
  6
PHANTOM
370
-3
390
F
  0
LAYER
  5
1FD
100
AcDbSymbolTableRecord
100
AcDbLayerTableRecord
  2
ASSI
 70
0
 62
7
  6
CONTINUOUS
370
-3
390
F
  0
LAYER
  5
1FE
100
AcDbSymbolTableRecord
100
AcDbLayerTableRecord
  2
COORDINATE
 70
0
 62
7
  6
CONTINUOUS
370
-3
390
F
  0
LAYER
  5
1FF
100
AcDbSymbolTableRecord
100
AcDbLayerTableRecord
  2
COORD_ORIGINE
 70
0
 62
7
  6
CONTINUOUS
370
-3
390
F
  0
LAYER
  5
200
100
AcDbSymbolTableRecord
100
AcDbLayerTableRecord
  2
COPY_PUBLISH
 70
0
 62
7
  6
CONTINUOUS
370
-3
390
F
  0
LAYER
  5
201
100
AcDbSymbolTableRecord
100
AcDbLayerTableRecord
  2
COSMETIC
 70
0
 62
7
  6
CONTINUOUS
370
-3
390
F
  0
LAYER
  5
202
100
AcDbSymbolTableRecord
100
AcDbLayerTableRecord
  2
CURVE
 70
0
 62
7
  6
CONTINUOUS
370
-3
390
F
  0
LAYER
  5
203
100
AcDbSymbolTableRecord
100
AcDbLayerTableRecord
  2
DRAFT
 70
0
 62
7
  6
CONTINUOUS
370
-3
390
F
  0
LAYER
  5
204
100
AcDbSymbolTableRecord
100
AcDbLayerTableRecord
  2
IGES
 70
0
 62
7
  6
CONTINUOUS
370
-3
390
F
  0
LAYER
  5
205
100
AcDbSymbolTableRecord
100
AcDbLayerTableRecord
  2
IMPORT_IGES
 70
0
 62
7
  6
CONTINUOUS
370
-3
390
F
  0
LAYER
  5
206
100
AcDbSymbolTableRecord
100
AcDbLayerTableRecord
  2
INTF_6
 70
0
 62
7
  6
CONTINUOUS
370
-3
390
F
  0
LAYER
  5
207
100
AcDbSymbolTableRecord
100
AcDbLayerTableRecord
  2
NOTE
 70
0
 62
7
  6
CONTINUOUS
370
-3
390
F
  0
LAYER
  5
208
100
AcDbSymbolTableRecord
100
AcDbLayerTableRecord
  2
PIANI
 70
0
 62
7
  6
CONTINUOUS
370
-3
390
F
  0
LAYER
  5
209
100
AcDbSymbolTableRecord
100
AcDbLayerTableRecord
  2
PIANI_ORIGINE
 70
0
 62
7
  6
CONTINUOUS
370
-3
390
F
  0
LAYER
  5
20A
100
AcDbSymbolTableRecord
100
AcDbLayerTableRecord
  2
PIANI_RIFERIMENTO
 70
0
 62
7
  6
CONTINUOUS
370
-3
390
F
  0
LAYER
  5
20B
100
AcDbSymbolTableRecord
100
AcDbLayerTableRecord
  2
PUNTI
 70
0
 62
7
  6
CONTINUOUS
370
-3
390
F
  0
LAYER
  5
20C
100
AcDbSymbolTableRecord
100
AcDbLayerTableRecord
  2
RACCORDO
 70
0
 62
7
  6
CONTINUOUS
370
-3
390
F
  0
LAYER
  5
20D
100
AcDbSymbolTableRecord
100
AcDbLayerTableRecord
  2
SMUSSO
 70
0
 62
7
  6
CONTINUOUS
370
-3
390
F
  0
LAYER
  5
20E
100
AcDbSymbolTableRecord
100
AcDbLayerTableRecord
  2
SNAPLINE
 70
0
 62
7
  6
CONTINUOUS
370
-3
390
F
  0
LAYER
  5
20F
100
AcDbSymbolTableRecord
100
AcDbLayerTableRecord
  2
SUPERFICI
 70
0
 62
7
  6
CONTINUOUS
370
-3
390
F
  0
LAYER
  5
210
100
AcDbSymbolTableRecord
100
AcDbLayerTableRecord
  2
TRASH
 70
0
 62
7
  6
CONTINUOUS
370
-3
390
F
  0
LAYER
  5
211
100
AcDbSymbolTableRecord
100
AcDbLayerTableRecord
  2
XSEC_DATUMS
 70
0
 62
7
  6
CONTINUOUS
370
-3
390
F
  0
ENDTAB
  0
TABLE
  2
STYLE
  5
3
100
AcDbSymbolTable
 70
1
  0
STYLE
  5
11
100
AcDbSymbolTableRecord
100
AcDbTextStyleTableRecord
  2
STANDARD
 70
0
 40
0.0
 41
0.8
 50
0.0
 71
0
 42
0.2
  3
txt
  4

  0
STYLE
  5
212
100
AcDbSymbolTableRecord
100
AcDbTextStyleTableRecord
  2
TEXTSTYLE_1
 70
0
 40
0.0
 41
0.8
 50
0.0
 71
0
 42
0.2
  3
gdt
  4

  0
ENDTAB
  0
TABLE
  2
VIEW
  5
6
100
AcDbSymbolTable
 70
0
  0
ENDTAB
  0
TABLE
  2
UCS
  5
7
100
AcDbSymbolTable
 70
0
  0
ENDTAB
  0
TABLE
  2
APPID
  5
9
100
AcDbSymbolTable
 70
1
  0
APPID
  5
213
100
AcDbSymbolTableRecord
100
AcDbRegAppTableRecord
  2
ACAD
 70
0
  0
ENDTAB
  0
TABLE
  2
BLOCK_RECORD
  5
1
100
AcDbSymbolTable
 70
0
  0
BLOCK_RECORD
  5
214
100
AcDbSymbolTableRecord
100
AcDbBlockTableRecord
  2
*Model_Space
  0
BLOCK_RECORD
  5
215
100
AcDbSymbolTableRecord
100
AcDbBlockTableRecord
  2
*Paper_Space
  0
BLOCK_RECORD
  5
216
100
AcDbSymbolTableRecord
100
AcDbBlockTableRecord
  2
_FILLED
  0
BLOCK_RECORD
  5
217
100
AcDbSymbolTableRecord
100
AcDbBlockTableRecord
  2
*D0
  0
BLOCK_RECORD
  5
218
100
AcDbSymbolTableRecord
100
AcDbBlockTableRecord
  2
*D1
  0
BLOCK_RECORD
  5
219
100
AcDbSymbolTableRecord
100
AcDbBlockTableRecord
  2
*D2
  0
ENDTAB
  0
TABLE
  2
DIMSTYLE
  5
A
100
AcDbSymbolTable
 70
1
100
AcDbDimStyleTable
 71
0
  0
DIMSTYLE
105
21A
100
AcDbSymbolTableRecord
100
AcDbDimStyleTableRecord
  2
STANDARD
 70
0
  3

  4

 40
1.0
 41
3.0
 42
0.0625
 43
0.38
 44
0.18
 45
0.0
 46
0.0
 47
0.01
 48
0.01
140
3.0
141
0.09
142
0.0
143
25.4
144
1.0
145
0.0
146
1.0
147
0.09
 71
1.0
 72
0.0
 73
0
 74
0
 75
0
 76
0
 77
1
 78
8
170
0
171
2
172
0
173
0
174
0
175
0
176
0
177
0
178
0
270
2
271
2
272
2
273
2
274
2
275
0
280
0
281
0
282
0
283
1
284
8
285
0
286
0
287
3
288
0
340
11
341
216
342
216
343
216
344
216
  0
DIMSTYLE
105
21B
100
AcDbSymbolTableRecord
100
AcDbDimStyleTableRecord
  2
DIMSTYLE_1
 70
0
  3

  4

 40
1.0
 41
3.0
 42
0.0625
 43
0.38
 44
0.18
 45
0.0
 46
0.0
 47
0.0
 48
0.0
140
3.0
141
0.09
142
0.0
143
25.4
144
1.0
145
0.0
146
1.0
147
0.09
 71
0.0
 72
0.0
 73
0
 74
0
 75
0
 76
0
 77
1
 78
8
170
0
171
2
172
0
173
0
174
0
175
0
176
0
177
0
178
0
270
2
271
2
272
2
273
2
274
2
275
0
280
0
281
0
282
0
283
1
284
8
285
0
286
0
287
3
288
0
340
11
341
216
342
216
343
216
344
216
  0
DIMSTYLE
105
21C
100
AcDbSymbolTableRecord
100
AcDbDimStyleTableRecord
  2
DIMSTYLE_2
 70
0
  3

  4

 40
1.0
 41
3.0
 42
0.0625
 43
0.38
 44
0.18
 45
0.0
 46
0.0
 47
0.0
 48
0.0
140
3.0
141
0.09
142
0.0
143
25.4
144
1.0
145
0.0
146
1.0
147
0.09
 71
0.0
 72
0.0
 73
0
 74
0
 75
0
 76
0
 77
1
 78
8
170
0
171
2
172
0
173
0
174
0
175
0
176
0
177
0
178
0
270
2
271
1
272
1
273
2
274
2
275
0
280
0
281
0
282
0
283
1
284
8
285
0
286
0
287
3
288
0
340
11
341
216
342
216
343
216
344
216
  0
ENDTAB
  0
ENDSEC
  0
SECTION
  2
BLOCKS
  0
BLOCK
  5
20
100
AcDbEntity
  8
0
100
AcDbBlockBegin
  2
*Model_Space
 70
0
 10
0.0
 20
0.0
 30
0.0
  3
*Model_Space
  1

  0
ENDBLK
  5
21
100
AcDbEntity
  8
0
100
AcDbBlockEnd
  0
BLOCK
  5
1C
100
AcDbEntity
  8
0
100
AcDbBlockBegin
  2
*Paper_Space
 70
0
 10
0.0
 20
0.0
 30
0.0
  3
*Paper_Space
  1

  0
ENDBLK
  5
1D
100
AcDbEntity
  8
0
100
AcDbBlockEnd
  0
BLOCK
  5
21D
100
AcDbEntity
  8
0
100
AcDbBlockBegin
  2
_FILLED
 70
64
 10
0.0
 20
0.0
  3
_FILLED
  1

  0
SOLID
  5
21E
100
AcDbEntity
  8
0
  6
BYBLOCK
 62
0
100
AcDbTrace
 10
0.0
 20
0.0
 11
-1.0
 21
0.3166666667
 12
-1.0
 22
-0.3166666667
 13
-1.0
 23
-0.3166666667
  0
ENDBLK
  5
21F
100
AcDbEntity
  8
0
  6
BYBLOCK
 62
0
100
AcDbBlockEnd
  0
BLOCK
  5
220
100
AcDbEntity
  8
0
100
AcDbBlockBegin
 62
7
  6
CONTINUOUS
  2
*D0
 70
65
 10
0.0
 20
0.0
  3
*D0
  1

  0
MTEXT
  5
221
100
AcDbEntity
  8
0
100
AcDbMText
 62
7
  6
CONTINUOUS
  7
STANDARD
 71
2
 72
1
 10
-8.2205501802
 20
23.1346204615
 30
0.0
 11
1.0
 21
0.0
 31
0.0
 44
0.9
  1
6,5
 40
3.0
 41
6.2142857143
  0
LINE
  5
222
100
AcDbEntity
  8
0
100
AcDbLine
 62
7
  6
CONTINUOUS
 10
-4.9706107822
 20
8.3846204615
 11
-4.9706107822
 21
20.8846204615
  0
LINE
  5
223
100
AcDbEntity
  8
0
100
AcDbLine
 62
7
  6
CONTINUOUS
 10
-11.4704895782
 20
11.6364768728
 11
-11.4704895782
 21
20.8846204615
  0
LINE
  5
224
100
AcDbEntity
  8
0
100
AcDbLine
 62
7
  6
CONTINUOUS
 10
-4.9706107822
 20
19.3846204615
 11
-0.9706107822
 21
19.3846204615
  0
LINE
  5
225
100
AcDbEntity
  8
0
100
AcDbLine
 62
7
  6
CONTINUOUS
 10
-0.9706107822
 20
19.3846204615
 11
-8.2205501802
 21
19.3846204615
  0
LINE
  5
226
100
AcDbEntity
  8
0
100
AcDbLine
 62
7
  6
CONTINUOUS
 10
-11.4704895782
 20
19.3846204615
 11
-15.4704895782
 21
19.3846204615
  0
LINE
  5
227
100
AcDbEntity
  8
0
100
AcDbLine
 62
7
  6
CONTINUOUS
 10
-15.4704895782
 20
19.3846204615
 11
-8.2205501802
 21
19.3846204615
  0
INSERT
  5
228
100
AcDbEntity
  8
0
100
AcDbBlockReference
 62
7
  6
CONTINUOUS
  2
_FILLED
 10
-4.9706107822
 20
19.3846204615
 41
3.0
 42
3.0
 43
3.0
 50
180.0
  0
INSERT
  5
229
100
AcDbEntity
  8
0
100
AcDbBlockReference
 62
7
  6
CONTINUOUS
  2
_FILLED
 10
-11.4704895782
 20
19.3846204615
 41
3.0
 42
3.0
 43
3.0
  0
ENDBLK
  5
22A
100
AcDbEntity
  8
0
  6
BYBLOCK
 62
0
100
AcDbBlockEnd
  0
BLOCK
  5
22B
100
AcDbEntity
  8
0
100
AcDbBlockBegin
 62
7
  6
CONTINUOUS
  2
*D1
 70
65
 10
0.0
 20
0.0
  3
*D1
  1

  0
MTEXT
  5
22C
100
AcDbEntity
  8
0
100
AcDbMText
 62
7
  6
CONTINUOUS
  7
STANDARD
 71
2
 72
1
 10
14.7362819316
 20
23.1346204615
 30
0.0
 11
1.0
 21
0.0
 31
0.0
 44
0.9
  1
22,3
 40
3.0
 41
8.5714285714
  0
LINE
  5
22D
100
AcDbEntity
  8
0
100
AcDbLine
 62
7
  6
CONTINUOUS
 10
3.5862819316
 20
11.6846433068
 11
3.5862819316
 21
20.8846204615
  0
LINE
  5
22E
100
AcDbEntity
  8
0
100
AcDbLine
 62
7
  6
CONTINUOUS
 10
25.8862819316
 20
11.6846433068
 11
25.8862819316
 21
20.8846204615
  0
LINE
  5
22F
100
AcDbEntity
  8
0
100
AcDbLine
 62
7
  6
CONTINUOUS
 10
3.5862819316
 20
19.3846204615
 11
14.7362819316
 21
19.3846204615
  0
LINE
  5
230
100
AcDbEntity
  8
0
100
AcDbLine
 62
7
  6
CONTINUOUS
 10
25.8862819316
 20
19.3846204615
 11
14.7362819316
 21
19.3846204615
  0
INSERT
  5
231
100
AcDbEntity
  8
0
100
AcDbBlockReference
 62
7
  6
CONTINUOUS
  2
_FILLED
 10
3.5862819316
 20
19.3846204615
 41
3.0
 42
3.0
 43
3.0
 50
180.0
  0
INSERT
  5
232
100
AcDbEntity
  8
0
100
AcDbBlockReference
 62
7
  6
CONTINUOUS
  2
_FILLED
 10
25.8862819316
 20
19.3846204615
 41
3.0
 42
3.0
 43
3.0
  0
ENDBLK
  5
233
100
AcDbEntity
  8
0
  6
BYBLOCK
 62
0
100
AcDbBlockEnd
  0
BLOCK
  5
234
100
AcDbEntity
  8
0
100
AcDbBlockBegin
 62
7
  6
CONTINUOUS
  2
*D2
 70
65
 10
0.0
 20
0.0
  3
*D2
  1

  0
MTEXT
  5
235
100
AcDbEntity
  8
0
100
AcDbMText
 62
7
  6
CONTINUOUS
  7
STANDARD
 71
2
 72
1
 10
30.1362819316
 20
0.3549641086
 30
0.0
 11
0.0
 21
1.0
 31
0.0
 44
0.9
  1
22,1
 40
3.0
 41
8.1428571429
  0
LINE
  5
236
100
AcDbEntity
  8
0
100
AcDbLine
 62
7
  6
CONTINUOUS
 10
26.1862819304
 20
11.3846204615
 11
35.3862819316
 21
11.3846204615
  0
LINE
  5
237
100
AcDbEntity
  8
0
100
AcDbLine
 62
7
  6
CONTINUOUS
 10
25.872827871
 20
-10.6746922443
 11
35.3862819316
 21
-10.6746922443
  0
LINE
  5
238
100
AcDbEntity
  8
0
100
AcDbLine
 62
7
  6
CONTINUOUS
 10
33.8862819316
 20
11.3846204615
 11
33.8862819316
 21
0.3549641086
  0
LINE
  5
239
100
AcDbEntity
  8
0
100
AcDbLine
 62
7
  6
CONTINUOUS
 10
33.8862819316
 20
-10.6746922443
 11
33.8862819316
 21
0.3549641086
  0
INSERT
  5
23A
100
AcDbEntity
  8
0
100
AcDbBlockReference
 62
7
  6
CONTINUOUS
  2
_FILLED
 10
33.8862819316
 20
11.3846204615
 41
3.0
 42
3.0
 43
3.0
 50
90.0
  0
INSERT
  5
23B
100
AcDbEntity
  8
0
100
AcDbBlockReference
 62
7
  6
CONTINUOUS
  2
_FILLED
 10
33.8862819316
 20
-10.6746922443
 41
3.0
 42
3.0
 43
3.0
 50
270.0
  0
ENDBLK
  5
23C
100
AcDbEntity
  8
0
  6
BYBLOCK
 62
0
100
AcDbBlockEnd
  0
ENDSEC
  0
SECTION
  2
ENTITIES
  0
DIMENSION
  5
23D
100
AcDbEntity
  8
0
100
AcDbDimension
 62
7
  6
CONTINUOUS
  2
*D0
 10
-11.4704895782
 20
19.3846204615
 11
-11.3276930373
 21
21.6346204615
 70
160
 71
2
 42
6.499878796
  3
DIMSTYLE_1
100
AcDbAlignedDimension
 13
-4.9706107822
 23
8.3846204615
 14
-11.4704895782
 24
11.6364768728
 50
180.0
100
AcDbRotatedDimension
  0
DIMENSION
  5
23E
100
AcDbEntity
  8
0
100
AcDbDimension
 62
7
  6
CONTINUOUS
  2
*D1
 10
25.8862819316
 20
19.3846204615
 11
10.4505676459
 21
21.6346204615
 70
160
 71
2
 42
22.3
  3
DIMSTYLE_1
100
AcDbAlignedDimension
 13
3.5862819316
 23
11.6846433068
 14
25.8862819316
 24
11.6846433068
100
AcDbRotatedDimension
  0
DIMENSION
  5
23F
100
AcDbEntity
  8
0
100
AcDbDimension
 62
7
  6
CONTINUOUS
  2
*D2
 10
33.8862819316
 20
-10.6746922443
 11
33.4605816544
 21
-3.2848794503
 70
160
 71
2
 42
22.0593127057
  3
DIMSTYLE_2
100
AcDbAlignedDimension
 13
26.1862819304
 23
11.3846204615
 14
25.872827871
 24
-10.6746922443
 50
270.0
100
AcDbRotatedDimension
  0
LINE
  5
240
100
AcDbEntity
  8
RACCORDO
100
AcDbLine
 62
7
  6
CONTINUOUS
 10
3.5862819316
 20
-1.6153795385
 11
3.5993561689
 21
-10.1767465165
  0
LINE
  5
241
100
AcDbEntity
  8
ASSI
100
AcDbLine
 62
7
  6
CONTINUOUS
 10
3.5862819316
 20
-1.6153795385
 11
3.5993561689
 21
-10.1767465165
  0
LINE
  5
242
100
AcDbEntity
  8
RACCORDO
100
AcDbLine
 62
7
  6
CONTINUOUS
 10
3.5862819316
 20
11.1846433068
 11
3.5862819316
 21
-1.6153795385
  0
LINE
  5
243
100
AcDbEntity
  8
ASSI
100
AcDbLine
 62
7
  6
CONTINUOUS
 10
3.5862819316
 20
11.1846433068
 11
3.5862819316
 21
-1.6153795385
  0
LINE
  5
244
100
AcDbEntity
  8
RACCORDO
100
AcDbLine
 62
253
  6
CONTINUOUS
 10
4.1771223197
 20
11.1364768719
 11
4.1771223197
 21
11.3366085149
  0
LINE
  5
245
100
AcDbEntity
  8
ASSI
100
AcDbLine
 62
253
  6
CONTINUOUS
 10
4.1771223197
 20
11.1364768719
 11
4.1771223197
 21
11.3366085149
  0
LINE
  5
246
100
AcDbEntity
  8
RACCORDO
100
AcDbLine
 62
7
  6
CONTINUOUS
 10
18.1278569386
 20
-10.6746922443
 11
18.4785469047
 21
-10.6428590863
  0
LINE
  5
247
100
AcDbEntity
  8
ASSI
100
AcDbLine
 62
7
  6
CONTINUOUS
 10
18.1278569386
 20
-10.6746922443
 11
18.4785469047
 21
-10.6428590863
  0
LINE
  5
248
100
AcDbEntity
  8
RACCORDO
100
AcDbLine
 62
7
  6
CONTINUOUS
 10
4.0997359922
 20
-10.6746922443
 11
6.9278569386
 21
-10.6746922443
  0
LINE
  5
249
100
AcDbEntity
  8
ASSI
100
AcDbLine
 62
7
  6
CONTINUOUS
 10
4.0997359922
 20
-10.6746922443
 11
6.9278569386
 21
-10.6746922443
  0
LINE
  5
24A
100
AcDbEntity
  8
DRAFT
100
AcDbLine
 62
7
  6
CONTINUOUS
 10
11.3447069246
 20
-10.6746922443
 11
18.1278569386
 21
-10.6746922443
  0
LINE
  5
24B
100
AcDbEntity
  8
ASSI
100
AcDbLine
 62
7
  6
CONTINUOUS
 10
11.3447069246
 20
-10.6746922443
 11
18.1278569386
 21
-10.6746922443
  0
LINE
  5
24C
100
AcDbEntity
  8
RACCORDO
100
AcDbLine
 62
7
  6
CONTINUOUS
 10
22.5447069246
 20
-10.6746922443
 11
25.372827871
 21
-10.6746922443
  0
LINE
  5
24D
100
AcDbEntity
  8
ASSI
100
AcDbLine
 62
7
  6
CONTINUOUS
 10
22.5447069246
 20
-10.6746922443
 11
25.372827871
 21
-10.6746922443
  0
LINE
  5
24E
100
AcDbEntity
  8
RACCORDO
100
AcDbLine
 62
7
  6
CONTINUOUS
 10
7.4517519854
 20
-10.6376183083
 11
10.8208118778
 21
-10.6376183083
  0
LINE
  5
24F
100
AcDbEntity
  8
ASSI
100
AcDbLine
 62
7
  6
CONTINUOUS
 10
7.4517519854
 20
-10.6376183083
 11
10.8208118778
 21
-10.6376183083
  0
LINE
  5
250
100
AcDbEntity
  8
RACCORDO
100
AcDbLine
 62
7
  6
CONTINUOUS
 10
18.6517519854
 20
-10.6376183083
 11
22.0208118778
 21
-10.6376183083
  0
LINE
  5
251
100
AcDbEntity
  8
ASSI
100
AcDbLine
 62
7
  6
CONTINUOUS
 10
18.6517519854
 20
-10.6376183083
 11
22.0208118778
 21
-10.6376183083
  0
LINE
  5
252
100
AcDbEntity
  8
RACCORDO
100
AcDbLine
 62
253
  6
CONTINUOUS
 10
25.3193425077
 20
-10.5141056682
 11
4.1532213555
 21
-10.5141056682
  0
LINE
  5
253
100
AcDbEntity
  8
ASSI
100
AcDbLine
 62
253
  6
CONTINUOUS
 10
25.3193425077
 20
-10.5141056682
 11
4.1532213555
 21
-10.5141056682
  0
LINE
  5
254
100
AcDbEntity
  8
RACCORDO
100
AcDbLine
 62
7
  6
CONTINUOUS
 10
11.3447069246
 20
-10.6746922443
 11
10.9940169585
 21
-10.6428590863
  0
LINE
  5
255
100
AcDbEntity
  8
ASSI
100
AcDbLine
 62
7
  6
CONTINUOUS
 10
11.3447069246
 20
-10.6746922443
 11
10.9940169585
 21
-10.6428590863
  0
LINE
  5
256
100
AcDbEntity
  8
RACCORDO
100
AcDbLine
 62
7
  6
CONTINUOUS
 10
6.9278569386
 20
-10.6746922443
 11
7.2785469047
 21
-10.6428590863
  0
LINE
  5
257
100
AcDbEntity
  8
ASSI
100
AcDbLine
 62
7
  6
CONTINUOUS
 10
6.9278569386
 20
-10.6746922443
 11
7.2785469047
 21
-10.6428590863
  0
LINE
  5
258
100
AcDbEntity
  8
RACCORDO
100
AcDbLine
 62
253
  6
CONTINUOUS
 10
25.3028154103
 20
-9.0778273689
 11
4.1697484529
 21
-9.0778273694
  0
LINE
  5
259
100
AcDbEntity
  8
ASSI
100
AcDbLine
 62
253
  6
CONTINUOUS
 10
25.3028154103
 20
-9.0778273689
 11
4.1697484529
 21
-9.0778273694
  0
LINE
  5
25A
100
AcDbEntity
  8
RACCORDO
100
AcDbLine
 62
7
  6
CONTINUOUS
 10
22.5447069246
 20
-10.6746922443
 11
22.1940169585
 21
-10.6428590863
  0
LINE
  5
25B
100
AcDbEntity
  8
ASSI
100
AcDbLine
 62
7
  6
CONTINUOUS
 10
22.5447069246
 20
-10.6746922443
 11
22.1940169585
 21
-10.6428590863
  0
LINE
  5
25C
100
AcDbEntity
  8
RACCORDO
100
AcDbLine
 62
253
  6
CONTINUOUS
 10
3.5993561689
 20
-10.1767465165
 11
3.6532978102
 21
-10.0147899931
  0
LINE
  5
25D
100
AcDbEntity
  8
ASSI
100
AcDbLine
 62
253
  6
CONTINUOUS
 10
3.5993561689
 20
-10.1767465165
 11
3.6532978102
 21
-10.0147899931
  0
LINE
  5
25E
100
AcDbEntity
  8
RACCORDO
100
AcDbLine
 62
253
  6
CONTINUOUS
 10
4.0997359922
 20
-10.6746922443
 11
4.1532213555
 21
-10.5141056682
  0
LINE
  5
25F
100
AcDbEntity
  8
ASSI
100
AcDbLine
 62
253
  6
CONTINUOUS
 10
4.0997359922
 20
-10.6746922443
 11
4.1532213555
 21
-10.5141056682
  0
LINE
  5
260
100
AcDbEntity
  8
RACCORDO
100
AcDbLine
 62
253
  6
CONTINUOUS
 10
25.6862819304
 20
11.3846204615
 11
25.5953958234
 21
11.3391808688
  0
LINE
  5
261
100
AcDbEntity
  8
ASSI
100
AcDbLine
 62
253
  6
CONTINUOUS
 10
25.6862819304
 20
11.3846204615
 11
25.5953958234
 21
11.3391808688
  0
LINE
  5
262
100
AcDbEntity
  8
RACCORDO
100
AcDbLine
 62
253
  6
CONTINUOUS
 10
25.8862819316
 20
11.1846433068
 11
25.7953656525
 21
11.1391886292
  0
LINE
  5
263
100
AcDbEntity
  8
ASSI
100
AcDbLine
 62
253
  6
CONTINUOUS
 10
25.8862819316
 20
11.1846433068
 11
25.7953656525
 21
11.1391886292
  0
LINE
  5
264
100
AcDbEntity
  8
CURVE
100
AcDbLine
 62
253
  6
CONTINUOUS
 10
14.7362819316
 20
-4.2653795385
 11
14.7362819316
 21
1.2346204655
  0
LINE
  5
265
100
AcDbEntity
  8
RACCORDO
100
AcDbLine
 62
253
  6
CONTINUOUS
 10
3.6771982107
 20
11.1391886292
 11
3.5862819316
 21
11.1846433068
  0
LINE
  5
266
100
AcDbEntity
  8
ASSI
100
AcDbLine
 62
253
  6
CONTINUOUS
 10
3.6771982107
 20
11.1391886292
 11
3.5862819316
 21
11.1846433068
  0
LINE
  5
267
100
AcDbEntity
  8
RACCORDO
100
AcDbLine
 62
253
  6
CONTINUOUS
 10
3.8771680398
 20
11.3391808688
 11
3.7862819328
 21
11.3846204615
  0
LINE
  5
268
100
AcDbEntity
  8
ASSI
100
AcDbLine
 62
253
  6
CONTINUOUS
 10
3.8771680398
 20
11.3391808688
 11
3.7862819328
 21
11.3846204615
  0
LINE
  5
269
100
AcDbEntity
  8
RACCORDO
100
AcDbLine
 62
253
  6
CONTINUOUS
 10
25.3193425077
 20
-10.5141056682
 11
25.372827871
 21
-10.6746922443
  0
LINE
  5
26A
100
AcDbEntity
  8
ASSI
100
AcDbLine
 62
253
  6
CONTINUOUS
 10
25.3193425077
 20
-10.5141056682
 11
25.372827871
 21
-10.6746922443
  0
LINE
  5
26B
100
AcDbEntity
  8
RACCORDO
100
AcDbLine
 62
253
  6
CONTINUOUS
 10
25.819266053
 20
-10.0147899931
 11
25.8732076943
 21
-10.1767465165
  0
LINE
  5
26C
100
AcDbEntity
  8
ASSI
100
AcDbLine
 62
253
  6
CONTINUOUS
 10
25.819266053
 20
-10.0147899931
 11
25.8732076943
 21
-10.1767465165
  0
LINE
  5
26D
100
AcDbEntity
  8
RACCORDO
100
AcDbLine
 62
253
  6
CONTINUOUS
 10
25.2954415435
 20
11.1364768719
 11
25.2954415435
 21
11.3366085149
  0
LINE
  5
26E
100
AcDbEntity
  8
ASSI
100
AcDbLine
 62
253
  6
CONTINUOUS
 10
25.2954415435
 20
11.1364768719
 11
25.2954415435
 21
11.3366085149
  0
LINE
  5
26F
100
AcDbEntity
  8
DRAFT
100
AcDbLine
 62
7
  6
CONTINUOUS
 10
23.2487479222
 20
11.3846204615
 11
22.9862819316
 21
11.3584398581
  0
LINE
  5
270
100
AcDbEntity
  8
ASSI
100
AcDbLine
 62
7
  6
CONTINUOUS
 10
23.2487479222
 20
11.3846204615
 11
22.9862819316
 21
11.3584398581
  0
LINE
  5
271
100
AcDbEntity
  8
DRAFT
100
AcDbLine
 62
7
  6
CONTINUOUS
 10
6.223815941
 20
11.3846204615
 11
6.4862819316
 21
11.3584398581
  0
LINE
  5
272
100
AcDbEntity
  8
ASSI
100
AcDbLine
 62
7
  6
CONTINUOUS
 10
6.223815941
 20
11.3846204615
 11
6.4862819316
 21
11.3584398581
  0
LINE
  5
273
100
AcDbEntity
  8
RACCORDO
100
AcDbLine
 62
7
  6
CONTINUOUS
 10
25.8862819316
 20
11.1846433068
 11
25.8862819316
 21
-1.6153795385
  0
LINE
  5
274
100
AcDbEntity
  8
ASSI
100
AcDbLine
 62
7
  6
CONTINUOUS
 10
25.8862819316
 20
11.1846433068
 11
25.8862819316
 21
-1.6153795385
  0
LINE
  5
275
100
AcDbEntity
  8
RACCORDO
100
AcDbLine
 62
7
  6
CONTINUOUS
 10
25.8862819316
 20
-1.6153795385
 11
25.8732076943
 21
-10.1767465165
  0
LINE
  5
276
100
AcDbEntity
  8
ASSI
100
AcDbLine
 62
7
  6
CONTINUOUS
 10
25.8862819316
 20
-1.6153795385
 11
25.8732076943
 21
-10.1767465165
  0
LINE
  5
277
100
AcDbEntity
  8
RACCORDO
100
AcDbLine
 62
253
  6
CONTINUOUS
 10
25.2954250709
 20
11.1364768719
 11
4.1771387925
 21
11.1364768719
  0
LINE
  5
278
100
AcDbEntity
  8
ASSI
100
AcDbLine
 62
253
  6
CONTINUOUS
 10
25.2954250709
 20
11.1364768719
 11
4.1771387925
 21
11.1364768719
  0
LINE
  5
279
100
AcDbEntity
  8
RACCORDO
100
AcDbLine
 62
253
  6
CONTINUOUS
 10
25.2954415435
 20
11.3366085149
 11
4.1771223197
 21
11.3366085149
  0
LINE
  5
27A
100
AcDbEntity
  8
ASSI
100
AcDbLine
 62
7
  6
CONTINUOUS
 10
25.2954415435
 20
11.3366085149
 11
4.1771223197
 21
11.3366085149
  0
LINE
  5
27B
100
AcDbEntity
  8
DRAFT
100
AcDbLine
 62
7
  6
CONTINUOUS
 10
6.4862819316
 20
11.3584398581
 11
22.9862819316
 21
11.3584398581
  0
LINE
  5
27C
100
AcDbEntity
  8
ASSI
100
AcDbLine
 62
7
  6
CONTINUOUS
 10
6.4862819316
 20
11.3584398581
 11
22.9862819316
 21
11.3584398581
  0
LINE
  5
27D
100
AcDbEntity
  8
RACCORDO
100
AcDbLine
 62
7
  6
CONTINUOUS
 10
3.7862819328
 20
11.3846204615
 11
6.223815941
 21
11.3846204615
  0
LINE
  5
27E
100
AcDbEntity
  8
ASSI
100
AcDbLine
 62
7
  6
CONTINUOUS
 10
3.7862819328
 20
11.3846204615
 11
6.223815941
 21
11.3846204615
  0
LINE
  5
27F
100
AcDbEntity
  8
RACCORDO
100
AcDbLine
 62
7
  6
CONTINUOUS
 10
23.2487479222
 20
11.3846204615
 11
25.6862819304
 21
11.3846204615
  0
LINE
  5
280
100
AcDbEntity
  8
ASSI
100
AcDbLine
 62
7
  6
CONTINUOUS
 10
23.2487479222
 20
11.3846204615
 11
25.6862819304
 21
11.3846204615
  0
LINE
  5
281
100
AcDbEntity
  8
RACCORDO
100
AcDbLine
 62
7
  6
CONTINUOUS
 10
-9.627372352
 20
-10.5141056682
 11
-6.5631979433
 21
-10.6746922443
  0
LINE
  5
282
100
AcDbEntity
  8
ASSI
100
AcDbLine
 62
7
  6
CONTINUOUS
 10
-9.627372352
 20
-10.5141056682
 11
-6.5631979433
 21
-10.6746922443
  0
LINE
  5
283
100
AcDbEntity
  8
RACCORDO
100
AcDbLine
 62
253
  6
CONTINUOUS
 10
-9.6099478962
 20
-10.0147899931
 11
-6.519633337
 21
-10.1767465165
  0
LINE
  5
284
100
AcDbEntity
  8
ASSI
100
AcDbLine
 62
253
  6
CONTINUOUS
 10
-9.6099478962
 20
-10.0147899931
 11
-6.519633337
 21
-10.1767465165
  0
LINE
  5
285
100
AcDbEntity
  8
RACCORDO
100
AcDbLine
 62
253
  6
CONTINUOUS
 10
-10.5567659519
 20
-9.057285395
 11
-11.0476163473
 21
-9.0778478466
  0
LINE
  5
286
100
AcDbEntity
  8
ASSI
100
AcDbLine
 62
253
  6
CONTINUOUS
 10
-10.5567659519
 20
-9.057285395
 11
-11.0476163473
 21
-9.0778478466
  0
LINE
  5
287
100
AcDbEntity
  8
RACCORDO
100
AcDbLine
 62
253
  6
CONTINUOUS
 10
-6.1706107822
 20
-6.4488711397
 11
-6.193486503
 21
-6.4488711456
  0
LINE
  5
288
100
AcDbEntity
  8
ASSI
100
AcDbLine
 62
253
  6
CONTINUOUS
 10
-6.1706107822
 20
-6.4488711397
 11
-6.193486503
 21
-6.4488711456
  0
LINE
  5
289
100
AcDbEntity
  8
RACCORDO
100
AcDbLine
 62
7
  6
CONTINUOUS
 10
-6.1706107822
 20
-6.1874004596
 11
-6.1706107822
 21
-6.4488711397
  0
LINE
  5
28A
100
AcDbEntity
  8
ASSI
100
AcDbLine
 62
7
  6
CONTINUOUS
 10
-6.1706107822
 20
-6.1874004596
 11
-6.1706107822
 21
-6.4488711397
  0
LINE
  5
28B
100
AcDbEntity
  8
RACCORDO
100
AcDbLine
 62
7
  6
CONTINUOUS
 10
-5.7706107822
 20
11.3846204615
 11
-5.7706107822
 21
-1.6153795385
  0
LINE
  5
28C
100
AcDbEntity
  8
ASSI
100
AcDbLine
 62
7
  6
CONTINUOUS
 10
-5.7706107822
 20
11.3846204615
 11
-5.7706107822
 21
-1.6153795385
  0
LINE
  5
28D
100
AcDbEntity
  8
RACCORDO
100
AcDbLine
 62
7
  6
CONTINUOUS
 10
-5.7706107822
 20
-1.6153795385
 11
-6.5631979433
 21
-10.6746922443
  0
LINE
  5
28E
100
AcDbEntity
  8
ASSI
100
AcDbLine
 62
7
  6
CONTINUOUS
 10
-5.7706107822
 20
-1.6153795385
 11
-6.5631979433
 21
-10.6746922443
  0
LINE
  5
28F
100
AcDbEntity
  8
0
100
AcDbLine
 62
7
  6
CONTINUOUS
 10
-4.9706107822
 20
6.0846204615
 11
-4.9706107822
 21
7.8846204615
  0
LINE
  5
290
100
AcDbEntity
  8
0
100
AcDbLine
 62
7
  6
CONTINUOUS
 10
-5.7706107822
 20
6.0446204615
 11
-4.9706107822
 21
6.0846204615
  0
LINE
  5
291
100
AcDbEntity
  8
0
100
AcDbLine
 62
7
  6
CONTINUOUS
 10
-5.7706107822
 20
7.9246204615
 11
-4.9706107822
 21
7.8846204615
  0
LINE
  5
292
100
AcDbEntity
  8
RACCORDO
100
AcDbLine
 62
253
  6
CONTINUOUS
 10
-5.7706107822
 20
11.1846433068
 11
-10.9792009216
 21
11.1391886292
  0
LINE
  5
293
100
AcDbEntity
  8
ASSI
100
AcDbLine
 62
253
  6
CONTINUOUS
 10
-5.7706107822
 20
11.1846433068
 11
-10.9792009216
 21
11.1391886292
  0
LINE
  5
294
100
AcDbEntity
  8
RACCORDO
100
AcDbLine
 62
7
  6
CONTINUOUS
 10
-5.7706107822
 20
11.3846204615
 11
-11.2722349326
 21
11.3366085149
  0
LINE
  5
295
100
AcDbEntity
  8
ASSI
100
AcDbLine
 62
7
  6
CONTINUOUS
 10
-5.7706107822
 20
11.3846204615
 11
-11.2722349326
 21
11.3366085149
  0
ARC
  5
296
100
AcDbEntity
  8
RACCORDO
100
AcDbCircle
 62
253
  6
CONTINUOUS
 10
14.7362819309
 20
6.9842088191
 40
1.4205653863
100
AcDbArc
 50
359.9802963604
 51
180.0197036396
  0
ARC
  5
297
100
AcDbEntity
  8
ASSI
100
AcDbCircle
 62
253
  6
CONTINUOUS
 10
14.7362819309
 20
6.9842088191
 40
1.4205653863
100
AcDbArc
 50
359.9802963604
 51
180.0197036396
  0
ARC
  5
298
100
AcDbEntity
  8
RACCORDO
100
AcDbCircle
 62
253
  6
CONTINUOUS
 10
14.7362819323
 20
6.9836781761
 40
1.4205653241
100
AcDbArc
 50
179.9983018117
 51
0.0016981883
  0
ARC
  5
299
100
AcDbEntity
  8
ASSI
100
AcDbCircle
 62
253
  6
CONTINUOUS
 10
14.7362819323
 20
6.9836781761
 40
1.4205653241
100
AcDbArc
 50
179.9983018117
 51
0.0016981883
  0
CIRCLE
  5
29A
100
AcDbEntity
  8
RACCORDO
100
AcDbCircle
 62
253
  6
CONTINUOUS
 10
14.7362819317
 20
6.984806137
 40
1.3206290234
  0
CIRCLE
  5
29B
100
AcDbEntity
  8
ASSI
100
AcDbCircle
 62
253
  6
CONTINUOUS
 10
14.7362819317
 20
6.984806137
 40
1.3206290234
  0
CIRCLE
  5
29C
100
AcDbEntity
  8
DRAFT
100
AcDbCircle
 62
7
  6
CONTINUOUS
 10
14.7362819316
 20
6.9846204615
 40
1.3
  0
CIRCLE
  5
29D
100
AcDbEntity
  8
ASSI
100
AcDbCircle
 62
7
  6
CONTINUOUS
 10
14.7362819316
 20
6.9846204615
 40
1.3
  0
CIRCLE
  5
29E
100
AcDbEntity
  8
DRAFT
100
AcDbCircle
 62
7
  6
CONTINUOUS
 10
14.7362819316
 20
6.9846204615
 40
1.225
  0
CIRCLE
  5
29F
100
AcDbEntity
  8
RACCORDO
100
AcDbCircle
 62
253
  6
CONTINUOUS
 10
14.7362819316
 20
6.9846204615
 40
1.2068524201
  0
CIRCLE
  5
2A0
100
AcDbEntity
  8
RACCORDO
100
AcDbCircle
 62
253
  6
CONTINUOUS
 10
14.7362819316
 20
6.9846204615
 40
1.1180464865
  0
ARC
  5
2A1
100
AcDbEntity
  8
RACCORDO
100
AcDbCircle
 62
253
  6
CONTINUOUS
 10
25.3191333504
 20
-10.0138982342
 40
0.5001741994
100
AcDbArc
 50
270.023923136
 51
359.89783918
  0
ARC
  5
2A2
100
AcDbEntity
  8
ASSI
100
AcDbCircle
 62
253
  6
CONTINUOUS
 10
25.3191333504
 20
-10.0138982342
 40
0.5001741994
100
AcDbArc
 50
270.023923136
 51
359.89783918
  0
ARC
  5
2A3
100
AcDbEntity
  8
RACCORDO
100
AcDbCircle
 62
253
  6
CONTINUOUS
 10
4.1534305186
 20
-10.0138982931
 40
0.5001741748
100
AcDbArc
 50
180.1021540758
 51
269.97607619
  0
ARC
  5
2A4
100
AcDbEntity
  8
ASSI
100
AcDbCircle
 62
253
  6
CONTINUOUS
 10
4.1534305186
 20
-10.0138982931
 40
0.5001741748
100
AcDbArc
 50
180.1021540758
 51
269.97607619
  0
ARC
  5
2A5
100
AcDbEntity
  8
RACCORDO
100
AcDbCircle
 62
253
  6
CONTINUOUS
 10
25.595348175
 20
11.1391661468
 40
0.2000157905
100
AcDbArc
 50
0.0063986483
 51
89.9863507457
  0
ARC
  5
2A6
100
AcDbEntity
  8
RACCORDO
100
AcDbCircle
 62
253
  6
CONTINUOUS
 10
3.8772156873
 20
11.139166154
 40
0.2000157905
100
AcDbArc
 50
90.0136490068
 51
179.9936034079
  0
ARC
  5
2A7
100
AcDbEntity
  8
ASSI
100
AcDbCircle
 62
253
  6
CONTINUOUS
 10
25.595348175
 20
11.1391661468
 40
0.2000157905
100
AcDbArc
 50
0.0063986483
 51
89.9863507457
  0
ARC
  5
2A8
100
AcDbEntity
  8
ASSI
100
AcDbCircle
 62
253
  6
CONTINUOUS
 10
3.8772156873
 20
11.139166154
 40
0.2000157905
100
AcDbArc
 50
90.0136490068
 51
179.9936034079
  0
ARC
  5
2A9
100
AcDbEntity
  8
RACCORDO
100
AcDbCircle
 62
7
  6
CONTINUOUS
 10
-9.5488857367
 20
-9.0161604584
 40
1.5
100
AcDbArc
 50
182.3561664986
 51
267.000662446
  0
ARC
  5
2AA
100
AcDbEntity
  8
ASSI
100
AcDbCircle
 62
7
  6
CONTINUOUS
 10
-9.5488857367
 20
-9.0161604584
 40
1.5
100
AcDbArc
 50
182.3561664986
 51
267.000662446
  0
ARC
  5
2AB
100
AcDbEntity
  8
RACCORDO
100
AcDbCircle
 62
253
  6
CONTINUOUS
 10
-9.557611932
 20
-9.0161604506
 40
1.0000000082
100
AcDbArc
 50
182.3569504196
 51
266.9999995712
  0
ARC
  5
2AC
100
AcDbEntity
  8
ASSI
100
AcDbCircle
 62
253
  6
CONTINUOUS
 10
-9.557611932
 20
-9.0161604506
 40
1.0000000082
100
AcDbArc
 50
182.3569504196
 51
266.9999995712
  0
ARC
  5
2AD
100
AcDbEntity
  8
RACCORDO
100
AcDbCircle
 62
7
  6
CONTINUOUS
 10
-6.4706107822
 20
-6.4488711397
 40
0.3
100
AcDbArc
 50
335.0
 51
360.0
  0
ARC
  5
2AE
100
AcDbEntity
  8
ASSI
100
AcDbCircle
 62
7
  6
CONTINUOUS
 10
-6.4706107822
 20
-6.4488711397
 40
0.3
100
AcDbArc
 50
335.0
 51
360.0
  0
ARC
  5
2AF
100
AcDbEntity
  8
RACCORDO
100
AcDbCircle
 62
7
  6
CONTINUOUS
 10
-11.2704891148
 20
11.1366161347
 40
0.2
100
AcDbArc
 50
90.5001462858
 51
180.0398957513
  0
ARC
  5
2B0
100
AcDbEntity
  8
ASSI
100
AcDbCircle
 62
7
  6
CONTINUOUS
 10
-11.2704891148
 20
11.1366161347
 40
0.2
100
AcDbArc
 50
90.5001462858
 51
180.0398957513
  0
ARC
  5
2B1
100
AcDbEntity
  8
RACCORDO
100
AcDbCircle
 62
7
  6
CONTINUOUS
 10
488.5293892178
 20
11.4846204615
 40
500.0
100
AcDbArc
 50
180.0398943199
 51
182.3569476404
  0
ARC
  5
2B2
100
AcDbEntity
  8
ASSI
100
AcDbCircle
 62
7
  6
CONTINUOUS
 10
488.5293892178
 20
11.4846204615
 40
500.0
100
AcDbArc
 50
180.0398943199
 51
182.3569476404
  0
ARC
  5
2B3
100
AcDbEntity
  8
CURVE
100
AcDbCircle
 62
253
  6
CONTINUOUS
 10
488.5293892178
 20
11.4846204615
 40
500.0
100
AcDbArc
 50
181.7897446048
 51
181.8051156596
  0
ARC
  5
2B4
100
AcDbEntity
  8
RACCORDO
100
AcDbCircle
 62
253
  6
CONTINUOUS
 10
488.4800363832
 20
11.4834418995
 40
499.4593584626
100
AcDbArc
 50
180.0394912235
 51
182.3570065688
  0
ARC
  5
2B5
100
AcDbEntity
  8
ASSI
100
AcDbCircle
 62
253
  6
CONTINUOUS
 10
488.4800363832
 20
11.4834418995
 40
499.4593584626
100
AcDbArc
 50
180.0394912235
 51
182.3570065688
  0
SPLINE
  5
2B6
100
AcDbEntity
  8
RACCORDO
100
AcDbSpline
 62
253
  6
CONTINUOUS
 70
0
 71
3
 72
11
 73
7
 74
5
 42
0.0000001
 43
0.0000001
 44
0.0000000001
 12
0.0002454385
 22
-20.214305979
 32
0.0
 13
0.014508362
 23
-20.214300774
 33
0.0
 40
0.0
 40
0.0
 40
0.0
 40
0.0
 40
0.2500750461
 40
0.5001057347
 40
0.7500838832
 40
1.0
 40
1.0
 40
1.0
 40
1.0
 10
25.2954250709
 20
11.1364768719
 30
0.0
 10
25.2954455302
 20
9.4514457057
 30
0.0
 10
25.2958075962
 20
6.0816822568
 30
0.0
 10
25.2971958491
 20
1.0275407154
 30
0.0
 10
25.2994873093
 20
-4.0255296184
 30
0.0
 10
25.3016067974
 20
-7.3938675177
 30
0.0
 10
25.3028154219
 20
-9.0778273689
 30
0.0
 11
25.2954250709
 21
11.1364768719
 31
0.0
 11
25.2959485353
 21
6.0813834
 31
0.0
 11
25.2973465793
 21
1.0271867493
 31
0.0
 11
25.2996355401
 21
-4.0259475149
 31
0.0
 11
25.3028154219
 21
-9.0778273689
 31
0.0
  0
SPLINE
  5
2B7
100
AcDbEntity
  8
RACCORDO
100
AcDbSpline
 62
253
  6
CONTINUOUS
 70
0
 71
3
 72
17
 73
13
 74
11
 42
0.0000001
 43
0.0000001
 44
0.0000000001
 12
-0.2685436887
 22
-0.1337076075
 32
0.0
 13
-0.2999890615
 23
-0.0000001894
 33
0.0
 40
0.0
 40
0.0
 40
0.0
 40
0.0
 40
0.0147850775
 40
0.053255719
 40
0.114525848
 40
0.1971200214
 40
0.2990571251
 40
0.4178801055
 40
0.5507176149
 40
0.6943786252
 40
0.8453688129
 40
1.0
 40
1.0
 40
1.0
 40
1.0
 10
25.5953958234
 20
11.3391808688
 30
0.0
 10
25.5940723437
 20
11.3385219097
 30
0.0
 10
25.5884404204
 20
11.3391399272
 30
0.0
 10
25.5772690528
 20
11.3380025915
 30
0.0
 10
25.5588915156
 20
11.3380850732
 30
0.0
 10
25.534376406
 20
11.3375773875
 30
0.0
 10
25.5040206528
 20
11.3373476194
 30
0.0
 10
25.4686707881
 20
11.3370710329
 30
0.0
 10
25.4291381371
 20
11.3368729949
 30
0.0
 10
25.3863918151
 20
11.3367203685
 30
0.0
 10
25.3414650753
 20
11.3366291506
 30
0.0
 10
25.3109040984
 20
11.3366085246
 30
0.0
 10
25.2954415435
 20
11.3366085149
 30
0.0
 11
25.5953958234
 21
11.3391808688
 31
0.0
 11
25.5909789182
 21
11.3387766661
 31
0.0
 11
25.57944486
 21
11.3383830787
 31
0.0
 11
25.5610682837
 21
11.3380097271
 31
0.0
 11
25.5362933237
 21
11.3376656936
 31
0.0
 11
25.5057148432
 21
11.3373592427
 31
0.0
 11
25.4700702078
 21
11.3370977743
 31
0.0
 11
25.4302209623
 21
11.3368876021
 31
0.0
 11
25.3871245051
 21
11.336733772
 31
0.0
 11
25.3418291975
 21
11.3366400007
 31
0.0
 11
25.2954415435
 21
11.3366085149
 31
0.0
  0
SPLINE
  5
2B8
100
AcDbEntity
  8
RACCORDO
100
AcDbSpline
 62
253
  6
CONTINUOUS
 70
0
 71
3
 72
11
 73
7
 74
5
 42
0.0000001
 43
0.0000001
 44
0.0000000001
 12
0.014508362
 22
20.2143007745
 32
0.0
 13
0.0002454385
 23
20.2143059795
 33
0.0
 40
0.0
 40
0.0
 40
0.0
 40
0.0
 40
0.2499161168
 40
0.4998942654
 40
0.749924954
 40
1.0
 40
1.0
 40
1.0
 40
1.0
 10
4.1697484413
 20
-9.0778273694
 30
0.0
 10
4.1709570658
 20
-7.3938675181
 30
0.0
 10
4.1730765539
 20
-4.0255296186
 30
0.0
 10
4.1753680141
 20
1.0275407154
 30
0.0
 10
4.176756267
 20
6.0816822568
 30
0.0
 10
4.1771183332
 20
9.4514457057
 30
0.0
 10
4.1771387925
 20
11.1364768719
 30
0.0
 11
4.1697484413
 21
-9.0778273694
 31
0.0
 11
4.1729283231
 21
-4.0259475149
 31
0.0
 11
4.1752172839
 21
1.0271867493
 31
0.0
 11
4.1766153279
 21
6.0813834
 31
0.0
 11
4.1771387925
 21
11.1364768719
 31
0.0
  0
SPLINE
  5
2B9
100
AcDbEntity
  8
RACCORDO
100
AcDbSpline
 62
253
  6
CONTINUOUS
 70
0
 71
3
 72
16
 73
12
 74
10
 42
0.0000001
 43
0.0000001
 44
0.0000000001
 12
0.1956190744
 22
-0.4614183123
 32
0.0
 13
0.501172178
 23
-0.0003594563
 33
0.0
 40
0.0
 40
0.0
 40
0.0
 40
0.0
 40
0.0191520824
 40
0.0665681378
 40
0.1414824155
 40
0.241789643
 40
0.3645557801
 40
0.506157455
 40
0.6624027643
 40
0.8286605242
 40
1.0
 40
1.0
 40
1.0
 40
1.0
 10
3.6698245808
 20
-9.057285395
 30
0.0
 10
3.6710734184
 20
-9.0602311022
 30
0.0
 10
3.6850078262
 20
-9.0610710817
 30
0.0
 10
3.7058468515
 20
-9.0654981253
 30
0.0
 10
3.7443112265
 20
-9.067699032
 30
0.0
 10
3.7934424181
 20
-9.0707981778
 30
0.0
 10
3.8545264685
 20
-9.0731162146
 30
0.0
 10
3.9246959564
 20
-9.0751572393
 30
0.0
 10
4.0022363334
 20
-9.0766426678
 30
0.0
 10
4.0847251946
 20
-9.0775900302
 30
0.0
 10
4.1411249023
 20
-9.0778273337
 30
0.0
 10
4.1697484284
 20
-9.0778478633
 30
0.0
 11
3.6698245808
 21
-9.057285395
 31
0.0
 11
3.6787496329
 21
-9.0608173237
 31
0.0
 11
3.7022648445
 21
-9.0642443001
 31
0.0
 11
3.7396714548
 21
-9.0674644909
 31
0.0
 11
3.7898579166
 21
-9.0703822071
 31
0.0
 11
3.8513329257
 21
-9.0729107481
 31
0.0
 11
3.9222697361
 21
-9.0749749775
 31
0.0
 11
4.0005604415
 21
-9.0765135563
 31
0.0
 11
4.0838786128
 21
-9.0774807652
 31
0.0
 11
4.1697484284
 21
-9.0778478633
 31
0.0
  0
SPLINE
  5
2BA
100
AcDbEntity
  8
RACCORDO
100
AcDbSpline
 62
253
  6
CONTINUOUS
 70
0
 71
3
 72
17
 73
13
 74
11
 42
0.0000001
 43
0.0000001
 44
0.0000000001
 12
-0.4999637532
 22
0.0000027639
 32
0.0
 13
-0.4767936667
 23
0.150437874
 33
0.0
 40
0.0
 40
0.0
 40
0.0
 40
0.0
 40
0.1547342773
 40
0.3057145613
 40
0.4493652869
 40
0.5821875536
 40
0.7009933017
 40
0.8029183016
 40
0.8855064056
 40
0.9467746685
 40
0.9852386123
 40
1.0
 40
1.0
 40
1.0
 40
1.0
 10
4.1771387925
 20
11.1364768648
 30
0.0
 10
4.1513516158
 20
11.1364770074
 30
0.0
 10
4.1004029176
 20
11.1364990046
 30
0.0
 10
4.0255140229
 20
11.1365954301
 30
0.0
 10
3.9542776932
 20
11.136756826
 30
0.0
 10
3.8884011939
 20
11.1369649362
 30
0.0
 10
3.8294863008
 20
11.1372591157
 30
0.0
 10
3.7789207591
 20
11.1374937411
 30
0.0
 10
3.7380077489
 20
11.1380492696
 30
0.0
 10
3.7075152543
 20
11.1379131801
 30
0.0
 10
3.6886430037
 20
11.1392028077
 30
0.0
 10
3.6795442563
 20
11.1384483514
 30
0.0
 10
3.677198211
 20
11.1391885754
 30
0.0
 11
4.1771387925
 21
11.1364768648
 31
0.0
 11
4.0997772698
 21
11.1365104449
 31
0.0
 11
4.0242926655
 21
11.1366096134
 31
0.0
 11
3.9524726932
 21
11.1367720293
 31
0.0
 11
3.8860667443
 21
11.1369937399
 31
0.0
 11
3.8266688163
 21
11.1372694183
 31
0.0
 11
3.7757110344
 21
11.1375924064
 31
0.0
 11
3.7344215672
 21
11.1379548991
 31
0.0
 11
3.7037921816
 21
11.1383482071
 31
0.0
 11
3.6845660711
 21
11.1387626873
 31
0.0
 11
3.677198211
 21
11.1391885754
 31
0.0
  0
SPLINE
  5
2BB
100
AcDbEntity
  8
RACCORDO
100
AcDbSpline
 62
253
  6
CONTINUOUS
 70
0
 71
3
 72
17
 73
13
 74
11
 42
0.0000001
 43
0.0000001
 44
0.0000000001
 12
-0.4767936648
 22
-0.1504378796
 32
0.0
 13
-0.4999637531
 23
-0.0000027639
 33
0.0
 40
0.0
 40
0.0
 40
0.0
 40
0.0
 40
0.0147613872
 40
0.0532253307
 40
0.1144935933
 40
0.1970816969
 40
0.2990066965
 40
0.4178124444
 40
0.5506347109
 40
0.6942854364
 40
0.8452657197
 40
1.0
 40
1.0
 40
1.0
 40
1.0
 10
25.7953656523
 20
11.1391885754
 30
0.0
 10
25.793019607
 20
11.1384483514
 30
0.0
 10
25.7839208598
 20
11.1392028078
 30
0.0
 10
25.7650486093
 20
11.1379131801
 30
0.0
 10
25.7345561149
 20
11.1380492696
 30
0.0
 10
25.6936431049
 20
11.1374937411
 30
0.0
 10
25.6430775633
 20
11.1372591157
 30
0.0
 10
25.5841626704
 20
11.1369649362
 30
0.0
 10
25.5182861712
 20
11.1367568261
 30
0.0
 10
25.4470498417
 20
11.1365954301
 30
0.0
 10
25.3721609466
 20
11.1364990046
 30
0.0
 10
25.321212248
 20
11.1364770074
 30
0.0
 10
25.2954250709
 20
11.1364768648
 30
0.0
 11
25.7953656523
 21
11.1391885754
 31
0.0
 11
25.7879977924
 21
11.1387626873
 31
0.0
 11
25.768771682
 21
11.1383482071
 31
0.0
 11
25.7381422966
 21
11.1379548991
 31
0.0
 11
25.6968528296
 21
11.1375924064
 31
0.0
 11
25.6458950478
 21
11.1372694183
 31
0.0
 11
25.58649712
 21
11.1369937399
 31
0.0
 11
25.5200911712
 21
11.1367720293
 31
0.0
 11
25.448271199
 21
11.1366096134
 31
0.0
 11
25.3727865951
 21
11.1365104449
 31
0.0
 11
25.2954250709
 21
11.1364768648
 31
0.0
  0
SPLINE
  5
2BC
100
AcDbEntity
  8
RACCORDO
100
AcDbSpline
 62
253
  6
CONTINUOUS
 70
0
 71
3
 72
16
 73
12
 74
10
 42
0.0000001
 43
0.0000001
 44
0.0000000001
 12
-0.1956255021
 22
-0.4614155811
 32
0.0
 13
-0.5011721724
 23
-0.000359454
 33
0.0
 40
0.0
 40
0.0
 40
0.0
 40
0.0
 40
0.0191521757
 40
0.0665683036
 40
0.1414826259
 40
0.2417898699
 40
0.3645559974
 40
0.5061576398
 40
0.6624028983
 40
0.8286605946
 40
1.0
 40
1.0
 40
1.0
 40
1.0
 10
25.8027392824
 20
-9.057285395
 30
0.0
 10
25.8014903977
 20
-9.0602310991
 30
0.0
 10
25.7875560269
 20
-9.0610710776
 30
0.0
 10
25.7667169048
 20
-9.065498118
 30
0.0
 10
25.728252542
 20
-9.0676990255
 30
0.0
 10
25.6791213277
 20
-9.070798168
 30
0.0
 10
25.6180372875
 20
-9.0731162032
 30
0.0
 10
25.5478678141
 20
-9.0751572258
 30
0.0
 10
25.4703274631
 20
-9.0766426528
 30
0.0
 10
25.3878386335
 20
-9.077590014
 30
0.0
 10
25.3314389488
 20
-9.077827317
 30
0.0
 10
25.3028154348
 20
-9.0778478466
 30
0.0
 11
25.8027392824
 21
-9.057285395
 31
0.0
 11
25.7938141794
 21
-9.0608173218
 31
0.0
 11
25.770298931
 21
-9.064244296
 31
0.0
 11
25.7328922985
 21
-9.0674644844
 31
0.0
 11
25.6827058288
 21
-9.0703821982
 31
0.0
 11
25.6212308251
 21
-9.0729107369
 31
0.0
 11
25.5502940318
 21
-9.0749749643
 31
0.0
 11
25.4720033527
 21
-9.0765135415
 31
0.0
 11
25.3886852142
 21
-9.0774807492
 31
0.0
 11
25.3028154348
 21
-9.0778478466
 31
0.0
  0
SPLINE
  5
2BD
100
AcDbEntity
  8
RACCORDO
100
AcDbSpline
 62
253
  6
CONTINUOUS
 70
0
 71
3
 72
19
 73
15
 74
13
 42
0.0000001
 43
0.0000001
 44
0.0000000001
 12
0.3112970811
 22
1.4023966309
 32
0.0
 13
0.0006887534
 23
1.4365311374
 33
0.0
 40
0.0
 40
0.0
 40
0.0
 40
0.0
 40
0.0146769045
 40
0.0448767047
 40
0.0901730857
 40
0.1498829261
 40
0.2231060618
 40
0.3087379823
 40
0.4054808333
 40
0.5118669653
 40
0.6262890873
 40
0.7470199919
 40
0.8722200831
 40
1.0
 40
1.0
 40
1.0
 40
1.0
 10
4.1532214574
 20
-10.5141056681
 30
0.0
 10
4.1547444166
 20
-10.507244721
 30
0.0
 10
4.1556282674
 20
-10.4856318495
 30
0.0
 10
4.1580162197
 20
-10.4426231495
 30
0.0
 10
4.1596508345
 20
-10.3778423778
 30
0.0
 10
4.1615861714
 20
-10.2925437827
 30
0.0
 10
4.1632648768
 20
-10.1878895448
 30
0.0
 10
4.1648445733
 20
-10.0655111635
 30
0.0
 10
4.1662281262
 20
-9.9272455807
 30
0.0
 10
4.1674142501
 20
-9.775193047
 30
0.0
 10
4.1683761788
 20
-9.6116517971
 30
0.0
 10
4.1691005128
 20
-9.4391004256
 30
0.0
 10
4.1695750065
 20
-9.2601518414
 30
0.0
 10
4.1697191166
 20
-9.1390139792
 30
0.0
 10
4.1697484529
 20
-9.0778273694
 30
0.0
 11
4.1532214574
 21
-10.5141056681
 31
0.0
 11
4.1553551196
 21
-10.4931300754
 31
0.0
 11
4.1574425713
 21
-10.449797367
 31
0.0
 11
4.1594525231
 21
-10.3847587481
 31
0.0
 11
4.1613541979
 21
-10.2990047764
 31
0.0
 11
4.1631189364
 21
-10.1938322546
 31
0.0
 11
4.1647200531
 21
-10.0708297407
 31
0.0
 11
4.166133261
 21
-9.9318627925
 31
0.0
 11
4.1673371403
 21
-9.7790405256
 31
0.0
 11
4.168313514
 21
-9.6146724654
 31
0.0
 11
4.1690476479
 21
-9.4412402956
 31
0.0
 11
4.1695283559
 21
-9.2613870879
 31
0.0
 11
4.1697484529
 21
-9.0778273694
 31
0.0
  0
SPLINE
  5
2BE
100
AcDbEntity
  8
RACCORDO
100
AcDbSpline
 62
253
  6
CONTINUOUS
 70
0
 71
3
 72
19
 73
15
 74
13
 42
0.0000001
 43
0.0000001
 44
0.0000000001
 12
0.0006887534
 22
-1.4365311378
 32
0.0
 13
0.3112970789
 23
-1.4023966318
 33
0.0
 40
0.0
 40
0.0
 40
0.0
 40
0.0
 40
0.1277799165
 40
0.2529800076
 40
0.3737109122
 40
0.4881330342
 40
0.5945191662
 40
0.6912620172
 40
0.7768939378
 40
0.8501170735
 40
0.9098269139
 40
0.9551232951
 40
0.9853230954
 40
1.0
 40
1.0
 40
1.0
 40
1.0
 10
25.3028154103
 20
-9.0778273689
 30
0.0
 10
25.3028447466
 20
-9.1390139785
 30
0.0
 10
25.3029888567
 20
-9.2601518405
 30
0.0
 10
25.3034633504
 20
-9.4391004246
 30
0.0
 10
25.3041876844
 20
-9.6116517961
 30
0.0
 10
25.3051496132
 20
-9.7751930461
 30
0.0
 10
25.306335737
 20
-9.9272455797
 30
0.0
 10
25.3077192899
 20
-10.0655111626
 30
0.0
 10
25.3092989864
 20
-10.1878895441
 30
0.0
 10
25.3109776918
 20
-10.292543782
 30
0.0
 10
25.3129130287
 20
-10.3778423772
 30
0.0
 10
25.3145476435
 20
-10.4426231491
 30
0.0
 10
25.3169355958
 20
-10.4856318493
 30
0.0
 10
25.3178194466
 20
-10.5072447208
 30
0.0
 10
25.3193424058
 20
-10.5141056681
 30
0.0
 11
25.3028154103
 21
-9.0778273689
 31
0.0
 11
25.3030355073
 21
-9.2613870869
 31
0.0
 11
25.3035162153
 21
-9.4412402945
 31
0.0
 11
25.3042503492
 21
-9.6146724644
 31
0.0
 11
25.3052267229
 21
-9.7790405246
 31
0.0
 11
25.3064306022
 21
-9.9318627915
 31
0.0
 11
25.3078438101
 21
-10.0708297398
 31
0.0
 11
25.3094449268
 21
-10.1938322538
 31
0.0
 11
25.3112096653
 21
-10.2990047758
 31
0.0
 11
25.31311134
 21
-10.3847587475
 31
0.0
 11
25.3151212919
 21
-10.4497973666
 31
0.0
 11
25.3172087436
 21
-10.4931300752
 31
0.0
 11
25.3193424058
 21
-10.5141056681
 31
0.0
  0
SPLINE
  5
2BF
100
AcDbEntity
  8
RACCORDO
100
AcDbSpline
 62
253
  6
CONTINUOUS
 70
0
 71
3
 72
17
 73
13
 74
11
 42
0.0000001
 43
0.0000001
 44
0.0000000001
 12
-0.2999890615
 22
0.0000001894
 32
0.0
 13
-0.26854368
 23
0.1337076248
 33
0.0
 40
0.0
 40
0.0
 40
0.0
 40
0.0
 40
0.1546311843
 40
0.3056213721
 40
0.4492823827
 40
0.5821198924
 40
0.700942873
 40
0.8028799771
 40
0.8854741508
 40
0.9467442802
 40
0.985214922
 40
1.0
 40
1.0
 40
1.0
 40
1.0
 10
4.1771223197
 20
11.3366085149
 30
0.0
 10
4.1616597651
 20
11.3366085246
 30
0.0
 10
4.1310987885
 20
11.3366291506
 30
0.0
 10
4.0861720489
 20
11.3367203685
 30
0.0
 10
4.0434257268
 20
11.3368729949
 30
0.0
 10
4.0038930758
 20
11.3370710329
 30
0.0
 10
3.968543211
 20
11.3373476194
 30
0.0
 10
3.9381874577
 20
11.3375773875
 30
0.0
 10
3.9136723479
 20
11.3380850732
 30
0.0
 10
3.8952948106
 20
11.3380025914
 30
0.0
 10
3.884123443
 20
11.3391399273
 30
0.0
 10
3.8784915195
 20
11.3385219096
 30
0.0
 10
3.8771680398
 20
11.3391808688
 30
0.0
 11
4.1771223197
 21
11.3366085149
 31
0.0
 11
4.1307346665
 21
11.3366400007
 31
0.0
 11
4.0854393589
 21
11.336733772
 31
0.0
 11
4.0423429017
 21
11.3368876021
 31
0.0
 11
4.0024936561
 21
11.3370977743
 31
0.0
 11
3.9668490206
 21
11.3373592427
 31
0.0
 11
3.93627054
 21
11.3376656936
 31
0.0
 11
3.9114955799
 21
11.3380097271
 31
0.0
 11
3.8931190035
 21
11.3383830786
 31
0.0
 11
3.8815849452
 21
11.3387766661
 31
0.0
 11
3.8771680398
 21
11.3391808688
 31
0.0
  0
SPLINE
  5
2C0
100
AcDbEntity
  8
RACCORDO
100
AcDbSpline
 62
253
  6
CONTINUOUS
 70
0
 71
3
 72
11
 73
7
 74
5
 42
0.0000001
 43
0.0000001
 44
0.0000000001
 12
0.0002437993
 22
-20.1964757625
 32
0.0
 13
0.0145100748
 23
-20.1964705516
 33
0.0
 40
0.0
 40
0.0
 40
0.0
 40
0.0
 40
0.2500744181
 40
0.5001049868
 40
0.7500830172
 40
1.0
 40
1.0
 40
1.0
 40
1.0
 10
25.7953656525
 20
11.1391886292
 30
0.0
 10
25.7953859752
 20
9.4556479876
 30
0.0
 10
25.7957232927
 20
6.0888619021
 30
0.0
 10
25.7971213228
 20
1.0391842445
 30
0.0
 10
25.7994102059
 20
-4.0094332082
 30
0.0
 10
25.801530511
 20
-7.374805067
 30
0.0
 10
25.8027392824
 20
-9.057285395
 30
0.0
 11
25.7953656525
 21
11.1391886292
 31
0.0
 11
25.7958720472
 21
6.0885667295
 31
0.0
 11
25.7972699937
 21
1.0388306026
 31
0.0
 11
25.7995590665
 21
-4.0098441102
 31
0.0
 11
25.8027392824
 21
-9.057285395
 31
0.0
  0
SPLINE
  5
2C1
100
AcDbEntity
  8
RACCORDO
100
AcDbSpline
 62
253
  6
CONTINUOUS
 70
0
 71
3
 72
19
 73
15
 74
13
 42
0.0000001
 43
0.0000001
 44
0.0000000001
 12
0.0006887042
 22
-0.9578832426
 32
0.0
 13
0.3025453754
 23
-0.9088493146
 33
0.0
 40
0.0
 40
0.0
 40
0.0
 40
0.0
 40
0.1277154689
 40
0.2528938267
 40
0.3736053495
 40
0.4880108521
 40
0.5943837456
 40
0.691117303
 40
0.7767445806
 40
0.8499684188
 40
0.9096858115
 40
0.9549999701
 40
0.9852364108
 40
1.0
 40
1.0
 40
1.0
 40
1.0
 10
25.8027392824
 20
-9.057285395
 30
0.0
 10
25.8027686018
 20
-9.0980642308
 30
0.0
 10
25.8029126847
 20
-9.1788117812
 30
0.0
 10
25.8033871181
 20
-9.2981010768
 30
0.0
 10
25.8041114066
 20
-9.4131392036
 30
0.0
 10
25.8050733854
 20
-9.5221710738
 30
0.0
 10
25.8062594099
 20
-9.623543677
 30
0.0
 10
25.807643386
 20
-9.7157259926
 30
0.0
 10
25.8092219992
 20
-9.7973134908
 30
0.0
 10
25.8109042324
 20
-9.8670939001
 30
0.0
 10
25.8128303888
 20
-9.9239445031
 30
0.0
 10
25.8144884923
 20
-9.9671853465
 30
0.0
 10
25.8168317415
 20
-9.9957805466
 30
0.0
 10
25.8177771678
 20
-10.0103173671
 30
0.0
 10
25.819266053
 20
-10.0147899931
 30
0.0
 11
25.8027392824
 21
-9.057285395
 31
0.0
 11
25.8029592882
 21
-9.1796217363
 31
0.0
 11
25.8034399723
 21
-9.2995270551
 31
0.0
 11
25.8041740808
 21
-9.4151522994
 31
0.0
 11
25.8051504576
 21
-9.5247350919
 31
0.0
 11
25.8063543522
 21
-9.626620818
 31
0.0
 11
25.8077675976
 21
-9.7192695175
 31
0.0
 11
25.8093687722
 21
-9.8012748428
 31
0.0
 11
25.8111335772
 21
-9.8713925427
 31
0.0
 11
25.8130353353
 21
-9.9285632254
 31
0.0
 11
25.8150453263
 21
-9.9719223464
 31
0.0
 11
25.8171329092
 21
-10.0008100017
 31
0.0
 11
25.819266053
 21
-10.0147899931
 31
0.0
  0
SPLINE
  5
2C2
100
AcDbEntity
  8
RACCORDO
100
AcDbSpline
 62
253
  6
CONTINUOUS
 70
0
 71
3
 72
19
 73
15
 74
13
 42
0.0000001
 43
0.0000001
 44
0.0000000001
 12
0.3025453665
 22
0.9088493175
 32
0.0
 13
0.0006887042
 23
0.9578832426
 33
0.0
 40
0.0
 40
0.0
 40
0.0
 40
0.0
 40
0.0147635891
 40
0.0450000296
 40
0.0903141881
 40
0.1500315807
 40
0.2232554188
 40
0.3088826964
 40
0.4056162537
 40
0.5119891472
 40
0.6263946498
 40
0.7471061725
 40
0.8722845304
 40
1.0
 40
1.0
 40
1.0
 40
1.0
 10
3.6532978102
 20
-10.0147899931
 30
0.0
 10
3.6547866954
 20
-10.0103173672
 30
0.0
 10
3.6557321217
 20
-9.9957805468
 30
0.0
 10
3.6580753709
 20
-9.9671853467
 30
0.0
 10
3.6597334744
 20
-9.9239445035
 30
0.0
 10
3.6616596308
 20
-9.8670939005
 30
0.0
 10
3.663341864
 20
-9.7973134913
 30
0.0
 10
3.6649204772
 20
-9.7157259932
 30
0.0
 10
3.6663044533
 20
-9.6235436777
 30
0.0
 10
3.6674904778
 20
-9.5221710745
 30
0.0
 10
3.6684524566
 20
-9.4131392043
 30
0.0
 10
3.6691767451
 20
-9.2981010775
 30
0.0
 10
3.6696511785
 20
-9.1788117816
 30
0.0
 10
3.6697952615
 20
-9.0980642311
 30
0.0
 10
3.6698245808
 20
-9.057285395
 30
0.0
 11
3.6532978102
 21
-10.0147899931
 31
0.0
 11
3.6554309539
 21
-10.0008100019
 31
0.0
 11
3.6575185369
 21
-9.9719223467
 31
0.0
 11
3.6595285279
 21
-9.9285632258
 31
0.0
 11
3.661430286
 21
-9.8713925431
 31
0.0
 11
3.663195091
 21
-9.8012748434
 31
0.0
 11
3.6647962656
 21
-9.7192695181
 31
0.0
 11
3.666209511
 21
-9.6266208186
 31
0.0
 11
3.6674134056
 21
-9.5247350926
 31
0.0
 11
3.6683897824
 21
-9.4151523001
 31
0.0
 11
3.6691238909
 21
-9.2995270558
 31
0.0
 11
3.669604575
 21
-9.1796217369
 31
0.0
 11
3.6698245808
 21
-9.057285395
 31
0.0
  0
SPLINE
  5
2C3
100
AcDbEntity
  8
RACCORDO
100
AcDbSpline
 62
253
  6
CONTINUOUS
 70
0
 71
3
 72
11
 73
7
 74
5
 42
0.0000001
 43
0.0000001
 44
0.0000000001
 12
0.0145100748
 22
20.1964705516
 32
0.0
 13
0.0002437993
 23
20.1964757625
 33
0.0
 40
0.0
 40
0.0
 40
0.0
 40
0.0
 40
0.2499169828
 40
0.4998950132
 40
0.7499255819
 40
1.0
 40
1.0
 40
1.0
 40
1.0
 10
3.6698245808
 20
-9.057285395
 30
0.0
 10
3.6710333522
 20
-7.374805067
 30
0.0
 10
3.6731536574
 20
-4.0094332082
 30
0.0
 10
3.6754425404
 20
1.0391842445
 30
0.0
 10
3.6768405705
 20
6.0888619021
 30
0.0
 10
3.677177888
 20
9.4556479876
 30
0.0
 10
3.6771982107
 20
11.1391886292
 30
0.0
 11
3.6698245808
 21
-9.057285395
 31
0.0
 11
3.6730047967
 21
-4.0098441102
 31
0.0
 11
3.6752938695
 21
1.0388306026
 31
0.0
 11
3.6766918161
 21
6.0885667295
 31
0.0
 11
3.6771982107
 21
11.1391886292
 31
0.0
  0
SPLINE
  5
2C4
100
AcDbEntity
  8
ASSI
100
AcDbSpline
 62
253
  6
CONTINUOUS
 70
0
 71
3
 72
11
 73
7
 74
5
 42
0.0000001
 43
0.0000001
 44
0.0000000001
 12
0.0002454385
 22
-20.214305979
 32
0.0
 13
0.014508362
 23
-20.214300774
 33
0.0
 40
0.0
 40
0.0
 40
0.0
 40
0.0
 40
0.2500750461
 40
0.5001057347
 40
0.7500838832
 40
1.0
 40
1.0
 40
1.0
 40
1.0
 10
25.2954250709
 20
11.1364768719
 30
0.0
 10
25.2954455302
 20
9.4514457057
 30
0.0
 10
25.2958075962
 20
6.0816822568
 30
0.0
 10
25.2971958491
 20
1.0275407154
 30
0.0
 10
25.2994873093
 20
-4.0255296184
 30
0.0
 10
25.3016067974
 20
-7.3938675177
 30
0.0
 10
25.3028154219
 20
-9.0778273689
 30
0.0
 11
25.2954250709
 21
11.1364768719
 31
0.0
 11
25.2959485353
 21
6.0813834
 31
0.0
 11
25.2973465793
 21
1.0271867493
 31
0.0
 11
25.2996355401
 21
-4.0259475149
 31
0.0
 11
25.3028154219
 21
-9.0778273689
 31
0.0
  0
SPLINE
  5
2C5
100
AcDbEntity
  8
ASSI
100
AcDbSpline
 62
253
  6
CONTINUOUS
 70
0
 71
3
 72
17
 73
13
 74
11
 42
0.0000001
 43
0.0000001
 44
0.0000000001
 12
-0.2685436887
 22
-0.1337076075
 32
0.0
 13
-0.2999890615
 23
-0.0000001894
 33
0.0
 40
0.0
 40
0.0
 40
0.0
 40
0.0
 40
0.0147850775
 40
0.053255719
 40
0.114525848
 40
0.1971200214
 40
0.2990571251
 40
0.4178801055
 40
0.5507176149
 40
0.6943786252
 40
0.8453688129
 40
1.0
 40
1.0
 40
1.0
 40
1.0
 10
25.5953958234
 20
11.3391808688
 30
0.0
 10
25.5940723437
 20
11.3385219097
 30
0.0
 10
25.5884404204
 20
11.3391399272
 30
0.0
 10
25.5772690528
 20
11.3380025915
 30
0.0
 10
25.5588915156
 20
11.3380850732
 30
0.0
 10
25.534376406
 20
11.3375773875
 30
0.0
 10
25.5040206528
 20
11.3373476194
 30
0.0
 10
25.4686707881
 20
11.3370710329
 30
0.0
 10
25.4291381371
 20
11.3368729949
 30
0.0
 10
25.3863918151
 20
11.3367203685
 30
0.0
 10
25.3414650753
 20
11.3366291506
 30
0.0
 10
25.3109040984
 20
11.3366085246
 30
0.0
 10
25.2954415435
 20
11.3366085149
 30
0.0
 11
25.5953958234
 21
11.3391808688
 31
0.0
 11
25.5909789182
 21
11.3387766661
 31
0.0
 11
25.57944486
 21
11.3383830787
 31
0.0
 11
25.5610682837
 21
11.3380097271
 31
0.0
 11
25.5362933237
 21
11.3376656936
 31
0.0
 11
25.5057148432
 21
11.3373592427
 31
0.0
 11
25.4700702078
 21
11.3370977743
 31
0.0
 11
25.4302209623
 21
11.3368876021
 31
0.0
 11
25.3871245051
 21
11.336733772
 31
0.0
 11
25.3418291975
 21
11.3366400007
 31
0.0
 11
25.2954415435
 21
11.3366085149
 31
0.0
  0
SPLINE
  5
2C6
100
AcDbEntity
  8
ASSI
100
AcDbSpline
 62
253
  6
CONTINUOUS
 70
0
 71
3
 72
11
 73
7
 74
5
 42
0.0000001
 43
0.0000001
 44
0.0000000001
 12
0.014508362
 22
20.2143007745
 32
0.0
 13
0.0002454385
 23
20.2143059795
 33
0.0
 40
0.0
 40
0.0
 40
0.0
 40
0.0
 40
0.2499161168
 40
0.4998942654
 40
0.749924954
 40
1.0
 40
1.0
 40
1.0
 40
1.0
 10
4.1697484413
 20
-9.0778273694
 30
0.0
 10
4.1709570658
 20
-7.3938675181
 30
0.0
 10
4.1730765539
 20
-4.0255296186
 30
0.0
 10
4.1753680141
 20
1.0275407154
 30
0.0
 10
4.176756267
 20
6.0816822568
 30
0.0
 10
4.1771183332
 20
9.4514457057
 30
0.0
 10
4.1771387925
 20
11.1364768719
 30
0.0
 11
4.1697484413
 21
-9.0778273694
 31
0.0
 11
4.1729283231
 21
-4.0259475149
 31
0.0
 11
4.1752172839
 21
1.0271867493
 31
0.0
 11
4.1766153279
 21
6.0813834
 31
0.0
 11
4.1771387925
 21
11.1364768719
 31
0.0
  0
SPLINE
  5
2C7
100
AcDbEntity
  8
ASSI
100
AcDbSpline
 62
253
  6
CONTINUOUS
 70
0
 71
3
 72
16
 73
12
 74
10
 42
0.0000001
 43
0.0000001
 44
0.0000000001
 12
0.1956190744
 22
-0.4614183123
 32
0.0
 13
0.501172178
 23
-0.0003594563
 33
0.0
 40
0.0
 40
0.0
 40
0.0
 40
0.0
 40
0.0191520824
 40
0.0665681378
 40
0.1414824155
 40
0.241789643
 40
0.3645557801
 40
0.506157455
 40
0.6624027643
 40
0.8286605242
 40
1.0
 40
1.0
 40
1.0
 40
1.0
 10
3.6698245808
 20
-9.057285395
 30
0.0
 10
3.6710734184
 20
-9.0602311022
 30
0.0
 10
3.6850078262
 20
-9.0610710817
 30
0.0
 10
3.7058468515
 20
-9.0654981253
 30
0.0
 10
3.7443112265
 20
-9.067699032
 30
0.0
 10
3.7934424181
 20
-9.0707981778
 30
0.0
 10
3.8545264685
 20
-9.0731162146
 30
0.0
 10
3.9246959564
 20
-9.0751572393
 30
0.0
 10
4.0022363334
 20
-9.0766426678
 30
0.0
 10
4.0847251946
 20
-9.0775900302
 30
0.0
 10
4.1411249023
 20
-9.0778273337
 30
0.0
 10
4.1697484284
 20
-9.0778478633
 30
0.0
 11
3.6698245808
 21
-9.057285395
 31
0.0
 11
3.6787496329
 21
-9.0608173237
 31
0.0
 11
3.7022648445
 21
-9.0642443001
 31
0.0
 11
3.7396714548
 21
-9.0674644909
 31
0.0
 11
3.7898579166
 21
-9.0703822071
 31
0.0
 11
3.8513329257
 21
-9.0729107481
 31
0.0
 11
3.9222697361
 21
-9.0749749775
 31
0.0
 11
4.0005604415
 21
-9.0765135563
 31
0.0
 11
4.0838786128
 21
-9.0774807652
 31
0.0
 11
4.1697484284
 21
-9.0778478633
 31
0.0
  0
SPLINE
  5
2C8
100
AcDbEntity
  8
ASSI
100
AcDbSpline
 62
253
  6
CONTINUOUS
 70
0
 71
3
 72
17
 73
13
 74
11
 42
0.0000001
 43
0.0000001
 44
0.0000000001
 12
-0.4999637532
 22
0.0000027639
 32
0.0
 13
-0.4767936667
 23
0.150437874
 33
0.0
 40
0.0
 40
0.0
 40
0.0
 40
0.0
 40
0.1547342773
 40
0.3057145613
 40
0.4493652869
 40
0.5821875536
 40
0.7009933017
 40
0.8029183016
 40
0.8855064056
 40
0.9467746685
 40
0.9852386123
 40
1.0
 40
1.0
 40
1.0
 40
1.0
 10
4.1771387925
 20
11.1364768648
 30
0.0
 10
4.1513516158
 20
11.1364770074
 30
0.0
 10
4.1004029176
 20
11.1364990046
 30
0.0
 10
4.0255140229
 20
11.1365954301
 30
0.0
 10
3.9542776932
 20
11.136756826
 30
0.0
 10
3.8884011939
 20
11.1369649362
 30
0.0
 10
3.8294863008
 20
11.1372591157
 30
0.0
 10
3.7789207591
 20
11.1374937411
 30
0.0
 10
3.7380077489
 20
11.1380492696
 30
0.0
 10
3.7075152543
 20
11.1379131801
 30
0.0
 10
3.6886430037
 20
11.1392028077
 30
0.0
 10
3.6795442563
 20
11.1384483514
 30
0.0
 10
3.677198211
 20
11.1391885754
 30
0.0
 11
4.1771387925
 21
11.1364768648
 31
0.0
 11
4.0997772698
 21
11.1365104449
 31
0.0
 11
4.0242926655
 21
11.1366096134
 31
0.0
 11
3.9524726932
 21
11.1367720293
 31
0.0
 11
3.8860667443
 21
11.1369937399
 31
0.0
 11
3.8266688163
 21
11.1372694183
 31
0.0
 11
3.7757110344
 21
11.1375924064
 31
0.0
 11
3.7344215672
 21
11.1379548991
 31
0.0
 11
3.7037921816
 21
11.1383482071
 31
0.0
 11
3.6845660711
 21
11.1387626873
 31
0.0
 11
3.677198211
 21
11.1391885754
 31
0.0
  0
SPLINE
  5
2C9
100
AcDbEntity
  8
ASSI
100
AcDbSpline
 62
253
  6
CONTINUOUS
 70
0
 71
3
 72
17
 73
13
 74
11
 42
0.0000001
 43
0.0000001
 44
0.0000000001
 12
-0.4767936648
 22
-0.1504378796
 32
0.0
 13
-0.4999637531
 23
-0.0000027639
 33
0.0
 40
0.0
 40
0.0
 40
0.0
 40
0.0
 40
0.0147613872
 40
0.0532253307
 40
0.1144935933
 40
0.1970816969
 40
0.2990066965
 40
0.4178124444
 40
0.5506347109
 40
0.6942854364
 40
0.8452657197
 40
1.0
 40
1.0
 40
1.0
 40
1.0
 10
25.7953656523
 20
11.1391885754
 30
0.0
 10
25.793019607
 20
11.1384483514
 30
0.0
 10
25.7839208598
 20
11.1392028078
 30
0.0
 10
25.7650486093
 20
11.1379131801
 30
0.0
 10
25.7345561149
 20
11.1380492696
 30
0.0
 10
25.6936431049
 20
11.1374937411
 30
0.0
 10
25.6430775633
 20
11.1372591157
 30
0.0
 10
25.5841626704
 20
11.1369649362
 30
0.0
 10
25.5182861712
 20
11.1367568261
 30
0.0
 10
25.4470498417
 20
11.1365954301
 30
0.0
 10
25.3721609466
 20
11.1364990046
 30
0.0
 10
25.321212248
 20
11.1364770074
 30
0.0
 10
25.2954250709
 20
11.1364768648
 30
0.0
 11
25.7953656523
 21
11.1391885754
 31
0.0
 11
25.7879977924
 21
11.1387626873
 31
0.0
 11
25.768771682
 21
11.1383482071
 31
0.0
 11
25.7381422966
 21
11.1379548991
 31
0.0
 11
25.6968528296
 21
11.1375924064
 31
0.0
 11
25.6458950478
 21
11.1372694183
 31
0.0
 11
25.58649712
 21
11.1369937399
 31
0.0
 11
25.5200911712
 21
11.1367720293
 31
0.0
 11
25.448271199
 21
11.1366096134
 31
0.0
 11
25.3727865951
 21
11.1365104449
 31
0.0
 11
25.2954250709
 21
11.1364768648
 31
0.0
  0
SPLINE
  5
2CA
100
AcDbEntity
  8
ASSI
100
AcDbSpline
 62
253
  6
CONTINUOUS
 70
0
 71
3
 72
16
 73
12
 74
10
 42
0.0000001
 43
0.0000001
 44
0.0000000001
 12
-0.1956255021
 22
-0.4614155811
 32
0.0
 13
-0.5011721724
 23
-0.000359454
 33
0.0
 40
0.0
 40
0.0
 40
0.0
 40
0.0
 40
0.0191521757
 40
0.0665683036
 40
0.1414826259
 40
0.2417898699
 40
0.3645559974
 40
0.5061576398
 40
0.6624028983
 40
0.8286605946
 40
1.0
 40
1.0
 40
1.0
 40
1.0
 10
25.8027392824
 20
-9.057285395
 30
0.0
 10
25.8014903977
 20
-9.0602310991
 30
0.0
 10
25.7875560269
 20
-9.0610710776
 30
0.0
 10
25.7667169048
 20
-9.065498118
 30
0.0
 10
25.728252542
 20
-9.0676990255
 30
0.0
 10
25.6791213277
 20
-9.070798168
 30
0.0
 10
25.6180372875
 20
-9.0731162032
 30
0.0
 10
25.5478678141
 20
-9.0751572258
 30
0.0
 10
25.4703274631
 20
-9.0766426528
 30
0.0
 10
25.3878386335
 20
-9.077590014
 30
0.0
 10
25.3314389488
 20
-9.077827317
 30
0.0
 10
25.3028154348
 20
-9.0778478466
 30
0.0
 11
25.8027392824
 21
-9.057285395
 31
0.0
 11
25.7938141794
 21
-9.0608173218
 31
0.0
 11
25.770298931
 21
-9.064244296
 31
0.0
 11
25.7328922985
 21
-9.0674644844
 31
0.0
 11
25.6827058288
 21
-9.0703821982
 31
0.0
 11
25.6212308251
 21
-9.0729107369
 31
0.0
 11
25.5502940318
 21
-9.0749749643
 31
0.0
 11
25.4720033527
 21
-9.0765135415
 31
0.0
 11
25.3886852142
 21
-9.0774807492
 31
0.0
 11
25.3028154348
 21
-9.0778478466
 31
0.0
  0
SPLINE
  5
2CB
100
AcDbEntity
  8
ASSI
100
AcDbSpline
 62
253
  6
CONTINUOUS
 70
0
 71
3
 72
19
 73
15
 74
13
 42
0.0000001
 43
0.0000001
 44
0.0000000001
 12
0.3112970811
 22
1.4023966309
 32
0.0
 13
0.0006887534
 23
1.4365311374
 33
0.0
 40
0.0
 40
0.0
 40
0.0
 40
0.0
 40
0.0146769045
 40
0.0448767047
 40
0.0901730857
 40
0.1498829261
 40
0.2231060618
 40
0.3087379823
 40
0.4054808333
 40
0.5118669653
 40
0.6262890873
 40
0.7470199919
 40
0.8722200831
 40
1.0
 40
1.0
 40
1.0
 40
1.0
 10
4.1532214574
 20
-10.5141056681
 30
0.0
 10
4.1547444166
 20
-10.507244721
 30
0.0
 10
4.1556282674
 20
-10.4856318495
 30
0.0
 10
4.1580162197
 20
-10.4426231495
 30
0.0
 10
4.1596508345
 20
-10.3778423778
 30
0.0
 10
4.1615861714
 20
-10.2925437827
 30
0.0
 10
4.1632648768
 20
-10.1878895448
 30
0.0
 10
4.1648445733
 20
-10.0655111635
 30
0.0
 10
4.1662281262
 20
-9.9272455807
 30
0.0
 10
4.1674142501
 20
-9.775193047
 30
0.0
 10
4.1683761788
 20
-9.6116517971
 30
0.0
 10
4.1691005128
 20
-9.4391004256
 30
0.0
 10
4.1695750065
 20
-9.2601518414
 30
0.0
 10
4.1697191166
 20
-9.1390139792
 30
0.0
 10
4.1697484529
 20
-9.0778273694
 30
0.0
 11
4.1532214574
 21
-10.5141056681
 31
0.0
 11
4.1553551196
 21
-10.4931300754
 31
0.0
 11
4.1574425713
 21
-10.449797367
 31
0.0
 11
4.1594525231
 21
-10.3847587481
 31
0.0
 11
4.1613541979
 21
-10.2990047764
 31
0.0
 11
4.1631189364
 21
-10.1938322546
 31
0.0
 11
4.1647200531
 21
-10.0708297407
 31
0.0
 11
4.166133261
 21
-9.9318627925
 31
0.0
 11
4.1673371403
 21
-9.7790405256
 31
0.0
 11
4.168313514
 21
-9.6146724654
 31
0.0
 11
4.1690476479
 21
-9.4412402956
 31
0.0
 11
4.1695283559
 21
-9.2613870879
 31
0.0
 11
4.1697484529
 21
-9.0778273694
 31
0.0
  0
SPLINE
  5
2CC
100
AcDbEntity
  8
ASSI
100
AcDbSpline
 62
253
  6
CONTINUOUS
 70
0
 71
3
 72
19
 73
15
 74
13
 42
0.0000001
 43
0.0000001
 44
0.0000000001
 12
0.0006887534
 22
-1.4365311378
 32
0.0
 13
0.3112970789
 23
-1.4023966318
 33
0.0
 40
0.0
 40
0.0
 40
0.0
 40
0.0
 40
0.1277799165
 40
0.2529800076
 40
0.3737109122
 40
0.4881330342
 40
0.5945191662
 40
0.6912620172
 40
0.7768939378
 40
0.8501170735
 40
0.9098269139
 40
0.9551232951
 40
0.9853230954
 40
1.0
 40
1.0
 40
1.0
 40
1.0
 10
25.3028154103
 20
-9.0778273689
 30
0.0
 10
25.3028447466
 20
-9.1390139785
 30
0.0
 10
25.3029888567
 20
-9.2601518405
 30
0.0
 10
25.3034633504
 20
-9.4391004246
 30
0.0
 10
25.3041876844
 20
-9.6116517961
 30
0.0
 10
25.3051496132
 20
-9.7751930461
 30
0.0
 10
25.306335737
 20
-9.9272455797
 30
0.0
 10
25.3077192899
 20
-10.0655111626
 30
0.0
 10
25.3092989864
 20
-10.1878895441
 30
0.0
 10
25.3109776918
 20
-10.292543782
 30
0.0
 10
25.3129130287
 20
-10.3778423772
 30
0.0
 10
25.3145476435
 20
-10.4426231491
 30
0.0
 10
25.3169355958
 20
-10.4856318493
 30
0.0
 10
25.3178194466
 20
-10.5072447208
 30
0.0
 10
25.3193424058
 20
-10.5141056681
 30
0.0
 11
25.3028154103
 21
-9.0778273689
 31
0.0
 11
25.3030355073
 21
-9.2613870869
 31
0.0
 11
25.3035162153
 21
-9.4412402945
 31
0.0
 11
25.3042503492
 21
-9.6146724644
 31
0.0
 11
25.3052267229
 21
-9.7790405246
 31
0.0
 11
25.3064306022
 21
-9.9318627915
 31
0.0
 11
25.3078438101
 21
-10.0708297398
 31
0.0
 11
25.3094449268
 21
-10.1938322538
 31
0.0
 11
25.3112096653
 21
-10.2990047758
 31
0.0
 11
25.31311134
 21
-10.3847587475
 31
0.0
 11
25.3151212919
 21
-10.4497973666
 31
0.0
 11
25.3172087436
 21
-10.4931300752
 31
0.0
 11
25.3193424058
 21
-10.5141056681
 31
0.0
  0
SPLINE
  5
2CD
100
AcDbEntity
  8
ASSI
100
AcDbSpline
 62
253
  6
CONTINUOUS
 70
0
 71
3
 72
17
 73
13
 74
11
 42
0.0000001
 43
0.0000001
 44
0.0000000001
 12
-0.2999890615
 22
0.0000001894
 32
0.0
 13
-0.26854368
 23
0.1337076248
 33
0.0
 40
0.0
 40
0.0
 40
0.0
 40
0.0
 40
0.1546311843
 40
0.3056213721
 40
0.4492823827
 40
0.5821198924
 40
0.700942873
 40
0.8028799771
 40
0.8854741508
 40
0.9467442802
 40
0.985214922
 40
1.0
 40
1.0
 40
1.0
 40
1.0
 10
4.1771223197
 20
11.3366085149
 30
0.0
 10
4.1616597651
 20
11.3366085246
 30
0.0
 10
4.1310987885
 20
11.3366291506
 30
0.0
 10
4.0861720489
 20
11.3367203685
 30
0.0
 10
4.0434257268
 20
11.3368729949
 30
0.0
 10
4.0038930758
 20
11.3370710329
 30
0.0
 10
3.968543211
 20
11.3373476194
 30
0.0
 10
3.9381874577
 20
11.3375773875
 30
0.0
 10
3.9136723479
 20
11.3380850732
 30
0.0
 10
3.8952948106
 20
11.3380025914
 30
0.0
 10
3.884123443
 20
11.3391399273
 30
0.0
 10
3.8784915195
 20
11.3385219096
 30
0.0
 10
3.8771680398
 20
11.3391808688
 30
0.0
 11
4.1771223197
 21
11.3366085149
 31
0.0
 11
4.1307346665
 21
11.3366400007
 31
0.0
 11
4.0854393589
 21
11.336733772
 31
0.0
 11
4.0423429017
 21
11.3368876021
 31
0.0
 11
4.0024936561
 21
11.3370977743
 31
0.0
 11
3.9668490206
 21
11.3373592427
 31
0.0
 11
3.93627054
 21
11.3376656936
 31
0.0
 11
3.9114955799
 21
11.3380097271
 31
0.0
 11
3.8931190035
 21
11.3383830786
 31
0.0
 11
3.8815849452
 21
11.3387766661
 31
0.0
 11
3.8771680398
 21
11.3391808688
 31
0.0
  0
SPLINE
  5
2CE
100
AcDbEntity
  8
ASSI
100
AcDbSpline
 62
253
  6
CONTINUOUS
 70
0
 71
3
 72
11
 73
7
 74
5
 42
0.0000001
 43
0.0000001
 44
0.0000000001
 12
0.0002437993
 22
-20.1964757625
 32
0.0
 13
0.0145100748
 23
-20.1964705516
 33
0.0
 40
0.0
 40
0.0
 40
0.0
 40
0.0
 40
0.2500744181
 40
0.5001049868
 40
0.7500830172
 40
1.0
 40
1.0
 40
1.0
 40
1.0
 10
25.7953656525
 20
11.1391886292
 30
0.0
 10
25.7953859752
 20
9.4556479876
 30
0.0
 10
25.7957232927
 20
6.0888619021
 30
0.0
 10
25.7971213228
 20
1.0391842445
 30
0.0
 10
25.7994102059
 20
-4.0094332082
 30
0.0
 10
25.801530511
 20
-7.374805067
 30
0.0
 10
25.8027392824
 20
-9.057285395
 30
0.0
 11
25.7953656525
 21
11.1391886292
 31
0.0
 11
25.7958720472
 21
6.0885667295
 31
0.0
 11
25.7972699937
 21
1.0388306026
 31
0.0
 11
25.7995590665
 21
-4.0098441102
 31
0.0
 11
25.8027392824
 21
-9.057285395
 31
0.0
  0
SPLINE
  5
2CF
100
AcDbEntity
  8
ASSI
100
AcDbSpline
 62
253
  6
CONTINUOUS
 70
0
 71
3
 72
19
 73
15
 74
13
 42
0.0000001
 43
0.0000001
 44
0.0000000001
 12
0.0006887042
 22
-0.9578832426
 32
0.0
 13
0.3025453754
 23
-0.9088493146
 33
0.0
 40
0.0
 40
0.0
 40
0.0
 40
0.0
 40
0.1277154689
 40
0.2528938267
 40
0.3736053495
 40
0.4880108521
 40
0.5943837456
 40
0.691117303
 40
0.7767445806
 40
0.8499684188
 40
0.9096858115
 40
0.9549999701
 40
0.9852364108
 40
1.0
 40
1.0
 40
1.0
 40
1.0
 10
25.8027392824
 20
-9.057285395
 30
0.0
 10
25.8027686018
 20
-9.0980642308
 30
0.0
 10
25.8029126847
 20
-9.1788117812
 30
0.0
 10
25.8033871181
 20
-9.2981010768
 30
0.0
 10
25.8041114066
 20
-9.4131392036
 30
0.0
 10
25.8050733854
 20
-9.5221710738
 30
0.0
 10
25.8062594099
 20
-9.623543677
 30
0.0
 10
25.807643386
 20
-9.7157259926
 30
0.0
 10
25.8092219992
 20
-9.7973134908
 30
0.0
 10
25.8109042324
 20
-9.8670939001
 30
0.0
 10
25.8128303888
 20
-9.9239445031
 30
0.0
 10
25.8144884923
 20
-9.9671853465
 30
0.0
 10
25.8168317415
 20
-9.9957805466
 30
0.0
 10
25.8177771678
 20
-10.0103173671
 30
0.0
 10
25.819266053
 20
-10.0147899931
 30
0.0
 11
25.8027392824
 21
-9.057285395
 31
0.0
 11
25.8029592882
 21
-9.1796217363
 31
0.0
 11
25.8034399723
 21
-9.2995270551
 31
0.0
 11
25.8041740808
 21
-9.4151522994
 31
0.0
 11
25.8051504576
 21
-9.5247350919
 31
0.0
 11
25.8063543522
 21
-9.626620818
 31
0.0
 11
25.8077675976
 21
-9.7192695175
 31
0.0
 11
25.8093687722
 21
-9.8012748428
 31
0.0
 11
25.8111335772
 21
-9.8713925427
 31
0.0
 11
25.8130353353
 21
-9.9285632254
 31
0.0
 11
25.8150453263
 21
-9.9719223464
 31
0.0
 11
25.8171329092
 21
-10.0008100017
 31
0.0
 11
25.819266053
 21
-10.0147899931
 31
0.0
  0
SPLINE
  5
2D0
100
AcDbEntity
  8
ASSI
100
AcDbSpline
 62
253
  6
CONTINUOUS
 70
0
 71
3
 72
19
 73
15
 74
13
 42
0.0000001
 43
0.0000001
 44
0.0000000001
 12
0.3025453665
 22
0.9088493175
 32
0.0
 13
0.0006887042
 23
0.9578832426
 33
0.0
 40
0.0
 40
0.0
 40
0.0
 40
0.0
 40
0.0147635891
 40
0.0450000296
 40
0.0903141881
 40
0.1500315807
 40
0.2232554188
 40
0.3088826964
 40
0.4056162537
 40
0.5119891472
 40
0.6263946498
 40
0.7471061725
 40
0.8722845304
 40
1.0
 40
1.0
 40
1.0
 40
1.0
 10
3.6532978102
 20
-10.0147899931
 30
0.0
 10
3.6547866954
 20
-10.0103173672
 30
0.0
 10
3.6557321217
 20
-9.9957805468
 30
0.0
 10
3.6580753709
 20
-9.9671853467
 30
0.0
 10
3.6597334744
 20
-9.9239445035
 30
0.0
 10
3.6616596308
 20
-9.8670939005
 30
0.0
 10
3.663341864
 20
-9.7973134913
 30
0.0
 10
3.6649204772
 20
-9.7157259932
 30
0.0
 10
3.6663044533
 20
-9.6235436777
 30
0.0
 10
3.6674904778
 20
-9.5221710745
 30
0.0
 10
3.6684524566
 20
-9.4131392043
 30
0.0
 10
3.6691767451
 20
-9.2981010775
 30
0.0
 10
3.6696511785
 20
-9.1788117816
 30
0.0
 10
3.6697952615
 20
-9.0980642311
 30
0.0
 10
3.6698245808
 20
-9.057285395
 30
0.0
 11
3.6532978102
 21
-10.0147899931
 31
0.0
 11
3.6554309539
 21
-10.0008100019
 31
0.0
 11
3.6575185369
 21
-9.9719223467
 31
0.0
 11
3.6595285279
 21
-9.9285632258
 31
0.0
 11
3.661430286
 21
-9.8713925431
 31
0.0
 11
3.663195091
 21
-9.8012748434
 31
0.0
 11
3.6647962656
 21
-9.7192695181
 31
0.0
 11
3.666209511
 21
-9.6266208186
 31
0.0
 11
3.6674134056
 21
-9.5247350926
 31
0.0
 11
3.6683897824
 21
-9.4151523001
 31
0.0
 11
3.6691238909
 21
-9.2995270558
 31
0.0
 11
3.669604575
 21
-9.1796217369
 31
0.0
 11
3.6698245808
 21
-9.057285395
 31
0.0
  0
SPLINE
  5
2D1
100
AcDbEntity
  8
ASSI
100
AcDbSpline
 62
253
  6
CONTINUOUS
 70
0
 71
3
 72
11
 73
7
 74
5
 42
0.0000001
 43
0.0000001
 44
0.0000000001
 12
0.0145100748
 22
20.1964705516
 32
0.0
 13
0.0002437993
 23
20.1964757625
 33
0.0
 40
0.0
 40
0.0
 40
0.0
 40
0.0
 40
0.2499169828
 40
0.4998950132
 40
0.7499255819
 40
1.0
 40
1.0
 40
1.0
 40
1.0
 10
3.6698245808
 20
-9.057285395
 30
0.0
 10
3.6710333522
 20
-7.374805067
 30
0.0
 10
3.6731536574
 20
-4.0094332082
 30
0.0
 10
3.6754425404
 20
1.0391842445
 30
0.0
 10
3.6768405705
 20
6.0888619021
 30
0.0
 10
3.677177888
 20
9.4556479876
 30
0.0
 10
3.6771982107
 20
11.1391886292
 30
0.0
 11
3.6698245808
 21
-9.057285395
 31
0.0
 11
3.6730047967
 21
-4.0098441102
 31
0.0
 11
3.6752938695
 21
1.0388306026
 31
0.0
 11
3.6766918161
 21
6.0885667295
 31
0.0
 11
3.6771982107
 21
11.1391886292
 31
0.0
  0
LINE
  5
2D2
100
AcDbEntity
  8
RACCORDO
100
AcDbLine
 62
253
  6
CONTINUOUS
 10
-10.9792009216
 20
11.1391885754
 11
-11.4704895755
 21
11.1364768648
  0
SPLINE
  5
2D3
100
AcDbEntity
  8
RACCORDO
100
AcDbSpline
 62
253
  6
CONTINUOUS
 70
0
 71
3
 72
16
 73
12
 74
10
 42
0.0000001
 43
0.0000001
 44
0.0000000001
 12
-0.0261495538
 22
-0.4991152339
 32
0.0
 13
0.4991148176
 23
-0.0261574992
 33
0.0
 40
0.0
 40
0.0
 40
0.0
 40
0.0
 40
0.1736040235
 40
0.3419132088
 40
0.4998212985
 40
0.6425380909
 40
0.7657352311
 40
0.8656785076
 40
0.939343881
 40
0.9845206607
 40
1.0
 40
1.0
 40
1.0
 40
1.0
 10
-9.6099478962
 20
-10.0147899931
 30
0.0
 10
-9.6114611187
 20
-10.0436727974
 30
0.0
 10
-9.6143584878
 20
-10.1005654156
 30
0.0
 10
-9.6183226303
 20
-10.1837261853
 30
0.0
 10
-9.6218224942
 20
-10.2618224423
 30
0.0
 10
-9.6245634586
 20
-10.3322187936
 30
0.0
 10
-9.6270543629
 20
-10.3935947496
 30
0.0
 10
-9.6275596282
 20
-10.4417666419
 30
0.0
 10
-9.6303364898
 20
-10.4811763591
 30
0.0
 10
-9.6264227833
 20
-10.4982033116
 30
0.0
 10
-9.6299649936
 20
-10.5139697936
 30
0.0
 10
-9.6273896711
 20
-10.5141047605
 30
0.0
 11
-9.6099478962
 21
-10.0147899931
 31
0.0
 11
-9.6143555042
 21
-10.1014452239
 31
0.0
 11
-9.6183645109
 21
-10.1854705327
 31
0.0
 11
-9.6218532457
 21
-10.2643158137
 31
0.0
 11
-9.6247158282
 21
-10.3355881714
 31
0.0
 11
-9.6268653812
 21
-10.3971245424
 31
0.0
 11
-9.6282366672
 21
-10.4470573435
 31
0.0
 11
-9.6287880688
 21
-10.4838711514
 31
0.0
 11
-9.6285028514
 21
-10.5064486943
 31
0.0
 11
-9.6273896711
 21
-10.5141047605
 31
0.0
  0
SPLINE
  5
2D4
100
AcDbEntity
  8
RACCORDO
100
AcDbSpline
 62
253
  6
CONTINUOUS
 70
0
 71
3
 72
14
 73
10
 74
8
 42
0.0000001
 43
0.0000001
 44
0.0000000001
 12
-0.0017453439
 22
0.2000572729
 32
0.0
 13
0.2000572683
 23
0.0017458733
 33
0.0
 40
0.0
 40
0.0
 40
0.0
 40
0.0
 40
0.222424496
 40
0.4336936618
 40
0.6232197302
 40
0.7815067321
 40
0.9006294012
 40
0.9746421145
 40
1.0
 40
1.0
 40
1.0
 40
1.0
 10
-10.9792175403
 20
11.1391884842
 30
0.0
 10
-10.9793469427
 20
11.1540210302
 30
0.0
 10
-10.9795602715
 20
11.1829653428
 30
0.0
 10
-10.9796073041
 20
11.2244325758
 30
0.0
 10
-10.979749686
 20
11.2620082927
 30
0.0
 10
-10.9789023438
 20
11.2923227297
 30
0.0
 10
-10.9799623742
 20
11.3177553429
 30
0.0
 10
-10.9768010784
 20
11.328649291
 30
0.0
 10
-10.9791633758
 20
11.3391661116
 30
0.0
 10
-10.9774723661
 20
11.3391808688
 30
0.0
 11
-10.9792175403
 21
11.1391884842
 31
0.0
 11
-10.9795182564
 21
11.1836867996
 31
0.0
 11
-10.9796289021
 21
11.2259541963
 31
0.0
 11
-10.9795439303
 21
11.2638716124
 31
0.0
 11
-10.9792676015
 21
11.2955380778
 31
0.0
 11
-10.9788137694
 21
11.3193660195
 31
0.0
 11
-10.9782051872
 21
11.3341608529
 31
0.0
 11
-10.9774723661
 21
11.3391808688
 31
0.0
  0
LINE
  5
2D5
100
AcDbEntity
  8
ASSI
100
AcDbLine
 62
253
  6
CONTINUOUS
 10
-10.9792009216
 20
11.1391885754
 11
-11.4704895755
 21
11.1364768648
  0
SPLINE
  5
2D6
100
AcDbEntity
  8
ASSI
100
AcDbSpline
 62
253
  6
CONTINUOUS
 70
0
 71
3
 72
16
 73
12
 74
10
 42
0.0000001
 43
0.0000001
 44
0.0000000001
 12
-0.0261495538
 22
-0.4991152339
 32
0.0
 13
0.4991148176
 23
-0.0261574992
 33
0.0
 40
0.0
 40
0.0
 40
0.0
 40
0.0
 40
0.1736040235
 40
0.3419132088
 40
0.4998212985
 40
0.6425380909
 40
0.7657352311
 40
0.8656785076
 40
0.939343881
 40
0.9845206607
 40
1.0
 40
1.0
 40
1.0
 40
1.0
 10
-9.6099478962
 20
-10.0147899931
 30
0.0
 10
-9.6114611187
 20
-10.0436727974
 30
0.0
 10
-9.6143584878
 20
-10.1005654156
 30
0.0
 10
-9.6183226303
 20
-10.1837261853
 30
0.0
 10
-9.6218224942
 20
-10.2618224423
 30
0.0
 10
-9.6245634586
 20
-10.3322187936
 30
0.0
 10
-9.6270543629
 20
-10.3935947496
 30
0.0
 10
-9.6275596282
 20
-10.4417666419
 30
0.0
 10
-9.6303364898
 20
-10.4811763591
 30
0.0
 10
-9.6264227833
 20
-10.4982033116
 30
0.0
 10
-9.6299649936
 20
-10.5139697936
 30
0.0
 10
-9.6273896711
 20
-10.5141047605
 30
0.0
 11
-9.6099478962
 21
-10.0147899931
 31
0.0
 11
-9.6143555042
 21
-10.1014452239
 31
0.0
 11
-9.6183645109
 21
-10.1854705327
 31
0.0
 11
-9.6218532457
 21
-10.2643158137
 31
0.0
 11
-9.6247158282
 21
-10.3355881714
 31
0.0
 11
-9.6268653812
 21
-10.3971245424
 31
0.0
 11
-9.6282366672
 21
-10.4470573435
 31
0.0
 11
-9.6287880688
 21
-10.4838711514
 31
0.0
 11
-9.6285028514
 21
-10.5064486943
 31
0.0
 11
-9.6273896711
 21
-10.5141047605
 31
0.0
  0
SPLINE
  5
2D7
100
AcDbEntity
  8
ASSI
100
AcDbSpline
 62
253
  6
CONTINUOUS
 70
0
 71
3
 72
14
 73
10
 74
8
 42
0.0000001
 43
0.0000001
 44
0.0000000001
 12
-0.0017453439
 22
0.2000572729
 32
0.0
 13
0.2000572683
 23
0.0017458733
 33
0.0
 40
0.0
 40
0.0
 40
0.0
 40
0.0
 40
0.222424496
 40
0.4336936618
 40
0.6232197302
 40
0.7815067321
 40
0.9006294012
 40
0.9746421145
 40
1.0
 40
1.0
 40
1.0
 40
1.0
 10
-10.9792175403
 20
11.1391884842
 30
0.0
 10
-10.9793469427
 20
11.1540210302
 30
0.0
 10
-10.9795602715
 20
11.1829653428
 30
0.0
 10
-10.9796073041
 20
11.2244325758
 30
0.0
 10
-10.979749686
 20
11.2620082927
 30
0.0
 10
-10.9789023438
 20
11.2923227297
 30
0.0
 10
-10.9799623742
 20
11.3177553429
 30
0.0
 10
-10.9768010784
 20
11.328649291
 30
0.0
 10
-10.9791633758
 20
11.3391661116
 30
0.0
 10
-10.9774723661
 20
11.3391808688
 30
0.0
 11
-10.9792175403
 21
11.1391884842
 31
0.0
 11
-10.9795182564
 21
11.1836867996
 31
0.0
 11
-10.9796289021
 21
11.2259541963
 31
0.0
 11
-10.9795439303
 21
11.2638716124
 31
0.0
 11
-10.9792676015
 21
11.2955380778
 31
0.0
 11
-10.9788137694
 21
11.3193660195
 31
0.0
 11
-10.9782051872
 21
11.3341608529
 31
0.0
 11
-10.9774723661
 21
11.3391808688
 31
0.0
  0
ELLIPSE
  5
2D8
100
AcDbEntity
  8
RACCORDO
100
AcDbEllipse
 62
7
  6
CONTINUOUS
 10
7.4517519854
 20
-10.6480998642
 30
0.0
 11
0.2
 21
0.0
 31
0.0
 40
0.0524077793
 41
1.5707963268
 42
2.617993878
  0
ELLIPSE
  5
2D9
100
AcDbEntity
  8
RACCORDO
100
AcDbEllipse
 62
7
  6
CONTINUOUS
 10
10.8208118778
 20
-10.6480998642
 30
0.0
 11
0.2
 21
-0.0
 31
0.0
 40
0.0524077793
 41
0.5235987756
 42
1.5707963268
  0
ELLIPSE
  5
2DA
100
AcDbEntity
  8
RACCORDO
100
AcDbEllipse
 62
7
  6
CONTINUOUS
 10
18.6517519854
 20
-10.6480998642
 30
0.0
 11
0.2
 21
0.0
 31
0.0
 40
0.0524077793
 41
1.5707963268
 42
2.617993878
  0
ELLIPSE
  5
2DB
100
AcDbEntity
  8
RACCORDO
100
AcDbEllipse
 62
7
  6
CONTINUOUS
 10
22.0208118778
 20
-10.6480998642
 30
0.0
 11
0.2
 21
0.0
 31
0.0
 40
0.0524077793
 41
0.5235987756
 42
1.5707963268
  0
ELLIPSE
  5
2DC
100
AcDbEntity
  8
RACCORDO
100
AcDbEllipse
 62
7
  6
CONTINUOUS
 10
25.686251466
 20
11.1846128458
 30
0.0
 11
0.1789222233
 21
0.0894542984
 31
0.0
 40
0.9998096356
 41
-0.463541
 42
1.1071030277
  0
ELLIPSE
  5
2DD
100
AcDbEntity
  8
RACCORDO
100
AcDbEllipse
 62
7
  6
CONTINUOUS
 10
3.7863123972
 20
11.1846128458
 30
0.0
 11
0.1789222233
 21
-0.0894542985
 31
0.0
 40
0.9998096356
 41
2.0344896259
 42
3.6051336537
  0
ELLIPSE
  5
2DE
100
AcDbEntity
  8
RACCORDO
100
AcDbEllipse
 62
7
  6
CONTINUOUS
 10
25.3731322255
 20
-10.1762912828
 30
0.0
 11
0.498078285
 21
0.0448076117
 31
0.0
 40
0.9965957691
 41
-1.6608206152
 42
-0.0909376769
  0
ELLIPSE
  5
2DF
100
AcDbEntity
  8
RACCORDO
100
AcDbEllipse
 62
7
  6
CONTINUOUS
 10
4.0994316378
 20
-10.1762912828
 30
0.0
 11
0.498078285
 21
-0.0448076117
 31
0.0
 40
0.9965957691
 41
-3.0506549766
 42
-1.4807720384
  0
ELLIPSE
  5
2E0
100
AcDbEntity
  8
ASSI
100
AcDbEllipse
 62
7
  6
CONTINUOUS
 10
7.4517519854
 20
-10.6480998642
 30
0.0
 11
0.2
 21
0.0
 31
0.0
 40
0.0524077793
 41
1.5707963268
 42
2.617993878
  0
ELLIPSE
  5
2E1
100
AcDbEntity
  8
ASSI
100
AcDbEllipse
 62
7
  6
CONTINUOUS
 10
10.8208118778
 20
-10.6480998642
 30
0.0
 11
0.2
 21
-0.0
 31
0.0
 40
0.0524077793
 41
0.5235987756
 42
1.5707963268
  0
ELLIPSE
  5
2E2
100
AcDbEntity
  8
ASSI
100
AcDbEllipse
 62
7
  6
CONTINUOUS
 10
18.6517519854
 20
-10.6480998642
 30
0.0
 11
0.2
 21
0.0
 31
0.0
 40
0.0524077793
 41
1.5707963268
 42
2.617993878
  0
ELLIPSE
  5
2E3
100
AcDbEntity
  8
ASSI
100
AcDbEllipse
 62
7
  6
CONTINUOUS
 10
22.0208118778
 20
-10.6480998642
 30
0.0
 11
0.2
 21
0.0
 31
0.0
 40
0.0524077793
 41
0.5235987756
 42
1.5707963268
  0
ELLIPSE
  5
2E4
100
AcDbEntity
  8
ASSI
100
AcDbEllipse
 62
7
  6
CONTINUOUS
 10
25.686251466
 20
11.1846128458
 30
0.0
 11
0.1789222233
 21
0.0894542984
 31
0.0
 40
0.9998096356
 41
-0.463541
 42
1.1071030277
  0
ELLIPSE
  5
2E5
100
AcDbEntity
  8
ASSI
100
AcDbEllipse
 62
7
  6
CONTINUOUS
 10
3.7863123972
 20
11.1846128458
 30
0.0
 11
0.1789222233
 21
-0.0894542985
 31
0.0
 40
0.9998096356
 41
2.0344896259
 42
3.6051336537
  0
ELLIPSE
  5
2E6
100
AcDbEntity
  8
ASSI
100
AcDbEllipse
 62
7
  6
CONTINUOUS
 10
25.3731322255
 20
-10.1762912828
 30
0.0
 11
0.498078285
 21
0.0448076117
 31
0.0
 40
0.9965957691
 41
-1.6608206152
 42
-0.0909376769
  0
ELLIPSE
  5
2E7
100
AcDbEntity
  8
ASSI
100
AcDbEllipse
 62
7
  6
CONTINUOUS
 10
4.0994316378
 20
-10.1762912828
 30
0.0
 11
0.498078285
 21
-0.0448076117
 31
0.0
 40
0.9965957691
 41
-3.0506549766
 42
-1.4807720384
  0
ENDSEC
  0
SECTION
  2
OBJECTS
  0
DICTIONARY
  5
C
100
AcDbDictionary
280
0
281
1
  3
ACAD_GROUP
350
D
  3
ACAD_MLINESTYLE
350
17
  3
ACAD_LAYOUT
350
1A
  3
ACAD_PLOTSETTINGS
350
19
  3
ACAD_PLOTSTYLENAME
350
E
  0
DICTIONARY
  5
D
102
{ACAD_REACTORS
330
C
102
}
100
AcDbDictionary
280
0
281
1
  0
ACDBDICTIONARYWDFLT
  5
E
102
{ACAD_REACTORS
330
C
102
}
100
AcDbDictionary
281
1
  3
Normal
350
F
100
AcDbDictionaryWithDefault
340
F
  0
DICTIONARY
  5
17
102
{ACAD_REACTORS
330
C
102
}
100
AcDbDictionary
280
0
281
1
  3
Standard
350
18
  0
DICTIONARY
  5
19
102
{ACAD_REACTORS
330
C
102
}
100
AcDbDictionary
281
1
  0
DICTIONARY
  5
1A
102
{ACAD_REACTORS
330
C
102
}
100
AcDbDictionary
281
1
  3
Model
350
2E8
  3
Layout1
350
2E9
  0
ACDBPLACEHOLDER
  5
F
102
{ACAD_REACTORS
330
E
102
}
  0
MLINESTYLE
  5
18
102
{ACAD_REACTORS
330
17
102
}
100
AcDbMlineStyle
  2
STANDARD
 70
0
  3

 62
256
 51
90.0
 52
90.0
 71
2
 49
0.5
 62
256
  6
BYLAYER
 49
-0.5
 62
256
  6
BYLAYER
  0
LAYOUT
  5
2E8
102
{ACAD_REACTORS
330
1A
102
}
100
AcDbPlotSettings
  1

  2
none_device
  4
ISO_A4_(297.00_x_210.00_MM)
  6

 40
0.0
 41
0.0
 42
0.0
 43
0.0
 44
297.0
 45
210.0
 46
0.0
 47
0.0
 48
0.0
 49
0.0
140
0.0
141
0.0
142
1.0
143
1.0
 70
1024
 72
1
 73
0
 74
0
  7

 75
0
147
1.0
148
0.0
149
0.0
100
AcDbLayout
  1
Model
 70
0
 71
0
 10
0.0
 20
0.0
 11
297.0
 21
210.0
 12
0.0
 22
0.0
 32
0.0
 14
0.0
 24
0.0
 34
0.0
 15
0.0
 25
0.0
 35
0.0
146
0.0
 13
0.0
 23
0.0
 33
0.0
 16
1.0
 26
0.0
 36
0.0
 17
0.0
 27
1.0
 37
0.0
 76
0
330
214
345
0
346
0
  0
LAYOUT
  5
2E9
102
{ACAD_REACTORS
330
1A
102
}
100
AcDbPlotSettings
  1

  2
none_device
  4
ISO_A4_(297.00_x_210.00_MM)
  6

 40
0.0
 41
0.0
 42
0.0
 43
0.0
 44
297.0
 45
210.0
 46
0.0
 47
0.0
 48
0.0
 49
0.0
140
0.0
141
0.0
142
1.0
143
1.0
 70
0
 72
1
 73
0
 74
0
  7

 75
0
147
1.0
148
0.0
149
0.0
100
AcDbLayout
  1
Layout1
 70
0
 71
1
 10
0.0
 20
0.0
 11
297.0
 21
210.0
 12
0.0
 22
0.0
 32
0.0
 14
0.0
 24
0.0
 34
0.0
 15
0.0
 25
0.0
 35
0.0
146
0.0
 13
0.0
 23
0.0
 33
0.0
 16
1.0
 26
0.0
 36
0.0
 17
0.0
 27
1.0
 37
0.0
 76
0
330
215
345
0
346
0
  0
ENDSEC
  0
EOF
