  0
SECTION
  2
HEADER
  9
$ACADVER
  1
AC1015
  9
$DWGCODEPAGE
  3
ANSI_1252
  9
$EXTMAX
 10
297.0
 20
210.0
 30
0.0
  9
$EXTMIN
 10
0.0
 20
0.0
 30
0.0
  9
$LIMMIN
 10
0.0
 20
0.0
  9
$LIMMAX
 10
297.0
 20
210.0
  9
$VIEWCTR
 10
148.5
 20
105.0
  9
$VIEWSIZE
 40
210.0
  9
$CLAYER
  8
0
  9
$LTSCALE
 40
16.335
  9
$CELTYPE
  6
BYLAYER
  9
$DIMSCALE
 40
1.0
  9
$DIMASZ
 40
3.0
  9
$DIMEXO
 40
1.85625
  9
$DIMDLI
 40
11.286
  9
$DIMEXE
 40
5.346
  9
$DIMCEN
 40
2.673
  9
$DIMLFAC
 40
1.0
  9
$DIMBLK
  1
_FILLED
  9
$DIMTXT
 40
3.0
  9
$DIMTOL
 70
1
  9
$DIMLIM
 70
0
  9
$DIMTFAC
 40
1.0
  9
$DIMTP
 40
0.01
  9
$DIMTM
 40
0.01
  9
$PDMODE
 70
3
  9
$PDSIZE
 40
3.0
  9
$HANDSEED
  5
2EE
  9
$TILEMODE
 70
1
  9
$MEASUREMENT
 70
1
  9
$INSUNITS
 70
4
  0
ENDSEC
  0
SECTION
  2
CLASSES
  0
CLASS
  1
ACDBDICTIONARYWDFLT
  2
AcDbDictionaryWithDefault
  3
AutoCAD 2000
 90
0
280
0
281
0
  0
CLASS
  1
ACDBPLACEHOLDER
  2
AcDbPlaceHolder
  3
AutoCAD 2000
 90
0
280
0
281
0
  0
CLASS
  1
LAYOUT
  2
AcDbLayout
  3
AutoCAD 2000
 90
0
280
0
281
0
  0
ENDSEC
  0
SECTION
  2
TABLES
  0
TABLE
  2
VPORT
  5
8
100
AcDbSymbolTable
 70
2
  0
VPORT
  5
1F4
100
AcDbSymbolTableRecord
100
AcDbViewportTableRecord
  2
*ACTIVE
 70
0
 10
0.0
 20
0.0
 11
1.0
 21
1.0
 12
148.5
 22
105.0
 13
0.0
 23
0.0
 14
1.0
 24
1.0
 15
0.0
 25
0.0
 16
0.0
 26
0.0
 36
1.0
 17
0.0
 27
0.0
 37
0.0
 40
210.0
 41
1.4142857143
 42
50.0
 43
0.0
 44
0.0
 50
0.0
 51
0.0
 71
0
 72
100
 73
1
 74
1
 75
0
 76
0
 77
0
 78
0
  0
ENDTAB
  0
TABLE
  2
LTYPE
  5
5
100
AcDbSymbolTable
 70
6
  0
LTYPE
  5
14
100
AcDbSymbolTableRecord
100
AcDbLinetypeTableRecord
  2
BYBLOCK
 70
0
  3

 72
65
 73
0
 40
0.0
  0
LTYPE
  5
15
100
AcDbSymbolTableRecord
100
AcDbLinetypeTableRecord
  2
BYLAYER
 70
0
  3

 72
65
 73
0
 40
0.0
  0
LTYPE
  5
16
100
AcDbSymbolTableRecord
100
AcDbLinetypeTableRecord
  2
CONTINUOUS
 70
64
  3
Solid line
 72
65
 73
0
 40
0.0
  0
LTYPE
  5
1F5
100
AcDbSymbolTableRecord
100
AcDbLinetypeTableRecord
  2
CENTER
 70
64
  3
____ _ ____ _ ____ _ ____ _ ____ _ ____ _ ____
 72
65
 73
4
 40
0.6
 49
0.375
 74
0
 49
-0.075
 74
0
 49
0.075
 74
0
 49
-0.075
 74
0
  0
LTYPE
  5
1F6
100
AcDbSymbolTableRecord
100
AcDbLinetypeTableRecord
  2
HIDDEN
 70
64
  3
- - - - - - - - - - - - - - - - - - - -
 72
65
 73
2
 40
0.2
 49
0.1
 74
0
 49
-0.1
 74
0
  0
LTYPE
  5
1F7
100
AcDbSymbolTableRecord
100
AcDbLinetypeTableRecord
  2
PHANTOM
 70
64
  3
_____ _ _ _____ _ _ _____ _ _ _____
 72
65
 73
6
 40
0.8
 49
0.45
 74
0
 49
-0.05
 74
0
 49
0.1
 74
0
 49
-0.05
 74
0
 49
0.1
 74
0
 49
-0.05
 74
0
  0
LTYPE
  5
1F8
100
AcDbSymbolTableRecord
100
AcDbLinetypeTableRecord
  2
DOT
 70
64
  3
. . . . . . . . . . . . . . . . . . . .
 72
65
 73
2
 40
0.2
 49
0.1
 74
0
 49
-0.1
 74
0
  0
LTYPE
  5
1F9
100
AcDbSymbolTableRecord
100
AcDbLinetypeTableRecord
  2
DASHED
 70
64
  3
- - - - - - - - - - - - - - - - - - - -
 72
65
 73
2
 40
0.2
 49
0.1
 74
0
 49
-0.1
 74
0
  0
ENDTAB
  0
TABLE
  2
LAYER
  5
2
100
AcDbSymbolTable
 70
36
  0
LAYER
  5
10
100
AcDbSymbolTableRecord
100
AcDbLayerTableRecord
  2
0
 70
0
 62
7
  6
CONTINUOUS
370
-3
390
F
  0
LAYER
  5
1FA
100
AcDbSymbolTableRecord
100
AcDbLayerTableRecord
  2
DEFAULT_1
 70
0
 62
7
  6
CENTER
370
-3
390
F
  0
LAYER
  5
1FB
100
AcDbSymbolTableRecord
100
AcDbLayerTableRecord
  2
DEFAULT_2
 70
0
 62
7
  6
HIDDEN
370
-3
390
F
  0
LAYER
  5
1FC
100
AcDbSymbolTableRecord
100
AcDbLayerTableRecord
  2
DEFAULT_3
 70
0
 62
7
  6
PHANTOM
370
-3
390
F
  0
LAYER
  5
1FD
100
AcDbSymbolTableRecord
100
AcDbLayerTableRecord
  2
ASSI
 70
0
 62
7
  6
CONTINUOUS
370
-3
390
F
  0
LAYER
  5
1FE
100
AcDbSymbolTableRecord
100
AcDbLayerTableRecord
  2
COORDINATE
 70
0
 62
7
  6
CONTINUOUS
370
-3
390
F
  0
LAYER
  5
1FF
100
AcDbSymbolTableRecord
100
AcDbLayerTableRecord
  2
COORD_ORIGINE
 70
0
 62
7
  6
CONTINUOUS
370
-3
390
F
  0
LAYER
  5
200
100
AcDbSymbolTableRecord
100
AcDbLayerTableRecord
  2
COPY_PUBLISH
 70
0
 62
7
  6
CONTINUOUS
370
-3
390
F
  0
LAYER
  5
201
100
AcDbSymbolTableRecord
100
AcDbLayerTableRecord
  2
COSMETIC
 70
0
 62
7
  6
CONTINUOUS
370
-3
390
F
  0
LAYER
  5
202
100
AcDbSymbolTableRecord
100
AcDbLayerTableRecord
  2
CURVE
 70
0
 62
7
  6
CONTINUOUS
370
-3
390
F
  0
LAYER
  5
203
100
AcDbSymbolTableRecord
100
AcDbLayerTableRecord
  2
DRAFT
 70
0
 62
7
  6
CONTINUOUS
370
-3
390
F
  0
LAYER
  5
204
100
AcDbSymbolTableRecord
100
AcDbLayerTableRecord
  2
IGES
 70
0
 62
7
  6
CONTINUOUS
370
-3
390
F
  0
LAYER
  5
205
100
AcDbSymbolTableRecord
100
AcDbLayerTableRecord
  2
IMPORT_IGES
 70
0
 62
7
  6
CONTINUOUS
370
-3
390
F
  0
LAYER
  5
206
100
AcDbSymbolTableRecord
100
AcDbLayerTableRecord
  2
INTF_6
 70
0
 62
7
  6
CONTINUOUS
370
-3
390
F
  0
LAYER
  5
207
100
AcDbSymbolTableRecord
100
AcDbLayerTableRecord
  2
NOTE
 70
0
 62
7
  6
CONTINUOUS
370
-3
390
F
  0
LAYER
  5
208
100
AcDbSymbolTableRecord
100
AcDbLayerTableRecord
  2
PIANI
 70
0
 62
7
  6
CONTINUOUS
370
-3
390
F
  0
LAYER
  5
209
100
AcDbSymbolTableRecord
100
AcDbLayerTableRecord
  2
PIANI_ORIGINE
 70
0
 62
7
  6
CONTINUOUS
370
-3
390
F
  0
LAYER
  5
20A
100
AcDbSymbolTableRecord
100
AcDbLayerTableRecord
  2
PIANI_RIFERIMENTO
 70
0
 62
7
  6
CONTINUOUS
370
-3
390
F
  0
LAYER
  5
20B
100
AcDbSymbolTableRecord
100
AcDbLayerTableRecord
  2
PUNTI
 70
0
 62
7
  6
CONTINUOUS
370
-3
390
F
  0
LAYER
  5
20C
100
AcDbSymbolTableRecord
100
AcDbLayerTableRecord
  2
RACCORDO
 70
0
 62
7
  6
CONTINUOUS
370
-3
390
F
  0
LAYER
  5
20D
100
AcDbSymbolTableRecord
100
AcDbLayerTableRecord
  2
SMUSSO
 70
0
 62
7
  6
CONTINUOUS
370
-3
390
F
  0
LAYER
  5
20E
100
AcDbSymbolTableRecord
100
AcDbLayerTableRecord
  2
SNAPLINE
 70
0
 62
7
  6
CONTINUOUS
370
-3
390
F
  0
LAYER
  5
20F
100
AcDbSymbolTableRecord
100
AcDbLayerTableRecord
  2
SUPERFICI
 70
0
 62
7
  6
CONTINUOUS
370
-3
390
F
  0
LAYER
  5
210
100
AcDbSymbolTableRecord
100
AcDbLayerTableRecord
  2
TRASH
 70
0
 62
7
  6
CONTINUOUS
370
-3
390
F
  0
LAYER
  5
211
100
AcDbSymbolTableRecord
100
AcDbLayerTableRecord
  2
XSEC_DATUMS
 70
0
 62
7
  6
CONTINUOUS
370
-3
390
F
  0
ENDTAB
  0
TABLE
  2
STYLE
  5
3
100
AcDbSymbolTable
 70
1
  0
STYLE
  5
11
100
AcDbSymbolTableRecord
100
AcDbTextStyleTableRecord
  2
STANDARD
 70
0
 40
0.0
 41
0.8
 50
0.0
 71
0
 42
0.2
  3
txt
  4

  0
STYLE
  5
212
100
AcDbSymbolTableRecord
100
AcDbTextStyleTableRecord
  2
TEXTSTYLE_1
 70
0
 40
0.0
 41
0.8
 50
0.0
 71
0
 42
0.2
  3
gdt
  4

  0
ENDTAB
  0
TABLE
  2
VIEW
  5
6
100
AcDbSymbolTable
 70
0
  0
ENDTAB
  0
TABLE
  2
UCS
  5
7
100
AcDbSymbolTable
 70
0
  0
ENDTAB
  0
TABLE
  2
APPID
  5
9
100
AcDbSymbolTable
 70
1
  0
APPID
  5
213
100
AcDbSymbolTableRecord
100
AcDbRegAppTableRecord
  2
ACAD
 70
0
  0
ENDTAB
  0
TABLE
  2
BLOCK_RECORD
  5
1
100
AcDbSymbolTable
 70
0
  0
BLOCK_RECORD
  5
214
100
AcDbSymbolTableRecord
100
AcDbBlockTableRecord
  2
*Model_Space
  0
BLOCK_RECORD
  5
215
100
AcDbSymbolTableRecord
100
AcDbBlockTableRecord
  2
*Paper_Space
  0
BLOCK_RECORD
  5
216
100
AcDbSymbolTableRecord
100
AcDbBlockTableRecord
  2
_FILLED
  0
BLOCK_RECORD
  5
217
100
AcDbSymbolTableRecord
100
AcDbBlockTableRecord
  2
*D0
  0
BLOCK_RECORD
  5
218
100
AcDbSymbolTableRecord
100
AcDbBlockTableRecord
  2
*D1
  0
BLOCK_RECORD
  5
219
100
AcDbSymbolTableRecord
100
AcDbBlockTableRecord
  2
*D2
  0
ENDTAB
  0
TABLE
  2
DIMSTYLE
  5
A
100
AcDbSymbolTable
 70
1
100
AcDbDimStyleTable
 71
0
  0
DIMSTYLE
105
21A
100
AcDbSymbolTableRecord
100
AcDbDimStyleTableRecord
  2
STANDARD
 70
0
  3

  4

 40
1.0
 41
3.0
 42
0.0625
 43
0.38
 44
0.18
 45
0.0
 46
0.0
 47
0.01
 48
0.01
140
3.0
141
0.09
142
0.0
143
25.4
144
1.0
145
0.0
146
1.0
147
0.09
 71
1.0
 72
0.0
 73
0
 74
0
 75
0
 76
0
 77
1
 78
8
170
0
171
2
172
0
173
0
174
0
175
0
176
0
177
0
178
0
270
2
271
2
272
2
273
2
274
2
275
0
280
0
281
0
282
0
283
1
284
8
285
0
286
0
287
3
288
0
340
11
341
216
342
216
343
216
344
216
  0
DIMSTYLE
105
21B
100
AcDbSymbolTableRecord
100
AcDbDimStyleTableRecord
  2
DIMSTYLE_1
 70
0
  3

  4

 40
1.0
 41
3.0
 42
0.0625
 43
0.38
 44
0.18
 45
0.0
 46
0.0
 47
0.0
 48
0.0
140
3.0
141
0.09
142
0.0
143
25.4
144
1.0
145
0.0
146
1.0
147
0.09
 71
0.0
 72
0.0
 73
0
 74
0
 75
0
 76
0
 77
1
 78
8
170
0
171
2
172
0
173
0
174
0
175
0
176
0
177
0
178
0
270
2
271
2
272
2
273
2
274
2
275
0
280
0
281
0
282
0
283
1
284
8
285
0
286
0
287
3
288
0
340
11
341
216
342
216
343
216
344
216
  0
DIMSTYLE
105
21C
100
AcDbSymbolTableRecord
100
AcDbDimStyleTableRecord
  2
DIMSTYLE_2
 70
0
  3

  4

 40
1.0
 41
3.0
 42
0.0625
 43
0.38
 44
0.18
 45
0.0
 46
0.0
 47
0.0
 48
0.0
140
3.0
141
0.09
142
0.0
143
25.4
144
1.0
145
0.0
146
1.0
147
0.09
 71
0.0
 72
0.0
 73
0
 74
0
 75
0
 76
0
 77
1
 78
8
170
0
171
2
172
0
173
0
174
0
175
0
176
0
177
0
178
0
270
2
271
1
272
1
273
2
274
2
275
0
280
0
281
0
282
0
283
1
284
8
285
0
286
0
287
3
288
0
340
11
341
216
342
216
343
216
344
216
  0
ENDTAB
  0
ENDSEC
  0
SECTION
  2
BLOCKS
  0
BLOCK
  5
20
100
AcDbEntity
  8
0
100
AcDbBlockBegin
  2
*Model_Space
 70
0
 10
0.0
 20
0.0
 30
0.0
  3
*Model_Space
  1

  0
ENDBLK
  5
21
100
AcDbEntity
  8
0
100
AcDbBlockEnd
  0
BLOCK
  5
1C
100
AcDbEntity
  8
0
100
AcDbBlockBegin
  2
*Paper_Space
 70
0
 10
0.0
 20
0.0
 30
0.0
  3
*Paper_Space
  1

  0
ENDBLK
  5
1D
100
AcDbEntity
  8
0
100
AcDbBlockEnd
  0
BLOCK
  5
21D
100
AcDbEntity
  8
0
100
AcDbBlockBegin
  2
_FILLED
 70
64
 10
0.0
 20
0.0
  3
_FILLED
  1

  0
SOLID
  5
21E
100
AcDbEntity
  8
0
  6
BYBLOCK
 62
0
100
AcDbTrace
 10
0.0
 20
0.0
 11
-1.0
 21
0.3166666667
 12
-1.0
 22
-0.3166666667
 13
-1.0
 23
-0.3166666667
  0
ENDBLK
  5
21F
100
AcDbEntity
  8
0
  6
BYBLOCK
 62
0
100
AcDbBlockEnd
  0
BLOCK
  5
220
100
AcDbEntity
  8
0
100
AcDbBlockBegin
 62
7
  6
CONTINUOUS
  2
*D0
 70
65
 10
0.0
 20
0.0
  3
*D0
  1

  0
MTEXT
  5
221
100
AcDbEntity
  8
0
100
AcDbMText
 62
7
  6
CONTINUOUS
  7
STANDARD
 71
2
 72
1
 10
16.8933917128
 20
22.8248503355
 30
0.0
 11
1.0
 21
0.0
 31
0.0
 44
0.9
  1
22,3
 40
3.0
 41
8.5714285714
  0
LINE
  5
222
100
AcDbEntity
  8
0
100
AcDbLine
 62
7
  6
CONTINUOUS
 10
28.0433917128
 20
11.3748731808
 11
28.0433917128
 21
20.5748503355
  0
LINE
  5
223
100
AcDbEntity
  8
0
100
AcDbLine
 62
7
  6
CONTINUOUS
 10
5.7433917128
 20
11.3748731808
 11
5.7433917128
 21
20.5748503355
  0
LINE
  5
224
100
AcDbEntity
  8
0
100
AcDbLine
 62
7
  6
CONTINUOUS
 10
28.0433917128
 20
19.0748503355
 11
16.8933917128
 21
19.0748503355
  0
LINE
  5
225
100
AcDbEntity
  8
0
100
AcDbLine
 62
7
  6
CONTINUOUS
 10
5.7433917128
 20
19.0748503355
 11
16.8933917128
 21
19.0748503355
  0
INSERT
  5
226
100
AcDbEntity
  8
0
100
AcDbBlockReference
 62
7
  6
CONTINUOUS
  2
_FILLED
 10
28.0433917128
 20
19.0748503355
 41
3.0
 42
3.0
 43
3.0
  0
INSERT
  5
227
100
AcDbEntity
  8
0
100
AcDbBlockReference
 62
7
  6
CONTINUOUS
  2
_FILLED
 10
5.7433917128
 20
19.0748503355
 41
3.0
 42
3.0
 43
3.0
 50
180.0
  0
ENDBLK
  5
228
100
AcDbEntity
  8
0
  6
BYBLOCK
 62
0
100
AcDbBlockEnd
  0
BLOCK
  5
229
100
AcDbEntity
  8
0
100
AcDbBlockBegin
 62
7
  6
CONTINUOUS
  2
*D1
 70
65
 10
0.0
 20
0.0
  3
*D1
  1

  0
MTEXT
  5
22A
100
AcDbEntity
  8
0
100
AcDbMText
 62
7
  6
CONTINUOUS
  7
STANDARD
 71
2
 72
1
 10
32.2933917128
 20
0.0451939827
 30
0.0
 11
0.0
 21
1.0
 31
0.0
 44
0.9
  1
22,1
 40
3.0
 41
8.1428571429
  0
LINE
  5
22B
100
AcDbEntity
  8
0
100
AcDbLine
 62
7
  6
CONTINUOUS
 10
28.3433917117
 20
11.0748503355
 11
37.5433917128
 21
11.0748503355
  0
LINE
  5
22C
100
AcDbEntity
  8
0
100
AcDbLine
 62
7
  6
CONTINUOUS
 10
28.0299376522
 20
-10.9844623702
 11
37.5433917128
 21
-10.9844623702
  0
LINE
  5
22D
100
AcDbEntity
  8
0
100
AcDbLine
 62
7
  6
CONTINUOUS
 10
36.0433917128
 20
11.0748503355
 11
36.0433917128
 21
0.0451939827
  0
LINE
  5
22E
100
AcDbEntity
  8
0
100
AcDbLine
 62
7
  6
CONTINUOUS
 10
36.0433917128
 20
-10.9844623702
 11
36.0433917128
 21
0.0451939827
  0
INSERT
  5
22F
100
AcDbEntity
  8
0
100
AcDbBlockReference
 62
7
  6
CONTINUOUS
  2
_FILLED
 10
36.0433917128
 20
11.0748503355
 41
3.0
 42
3.0
 43
3.0
 50
90.0
  0
INSERT
  5
230
100
AcDbEntity
  8
0
100
AcDbBlockReference
 62
7
  6
CONTINUOUS
  2
_FILLED
 10
36.0433917128
 20
-10.9844623702
 41
3.0
 42
3.0
 43
3.0
 50
270.0
  0
ENDBLK
  5
231
100
AcDbEntity
  8
0
  6
BYBLOCK
 62
0
100
AcDbBlockEnd
  0
BLOCK
  5
232
100
AcDbEntity
  8
0
100
AcDbBlockBegin
 62
7
  6
CONTINUOUS
  2
*D2
 70
65
 10
0.0
 20
0.0
  3
*D2
  1

  0
MTEXT
  5
233
100
AcDbEntity
  8
0
100
AcDbMText
 62
7
  6
CONTINUOUS
  7
STANDARD
 71
2
 72
1
 10
-5.7592745799
 20
22.8248503355
 30
0.0
 11
1.0
 21
0.0
 31
0.0
 44
0.9
  1
6,5
 40
3.0
 41
6.2142857143
  0
LINE
  5
234
100
AcDbEntity
  8
0
100
AcDbLine
 62
7
  6
CONTINUOUS
 10
-2.5093351819
 20
8.0748503355
 11
-2.5093351819
 21
20.5748503355
  0
LINE
  5
235
100
AcDbEntity
  8
0
100
AcDbLine
 62
7
  6
CONTINUOUS
 10
-9.009213978
 20
11.3267067469
 11
-9.009213978
 21
20.5748503355
  0
LINE
  5
236
100
AcDbEntity
  8
0
100
AcDbLine
 62
7
  6
CONTINUOUS
 10
-2.5093351819
 20
19.0748503355
 11
1.4906648181
 21
19.0748503355
  0
LINE
  5
237
100
AcDbEntity
  8
0
100
AcDbLine
 62
7
  6
CONTINUOUS
 10
1.4906648181
 20
19.0748503355
 11
-5.7592745799
 21
19.0748503355
  0
LINE
  5
238
100
AcDbEntity
  8
0
100
AcDbLine
 62
7
  6
CONTINUOUS
 10
-9.009213978
 20
19.0748503355
 11
-13.009213978
 21
19.0748503355
  0
LINE
  5
239
100
AcDbEntity
  8
0
100
AcDbLine
 62
7
  6
CONTINUOUS
 10
-13.009213978
 20
19.0748503355
 11
-5.7592745799
 21
19.0748503355
  0
INSERT
  5
23A
100
AcDbEntity
  8
0
100
AcDbBlockReference
 62
7
  6
CONTINUOUS
  2
_FILLED
 10
-2.5093351819
 20
19.0748503355
 41
3.0
 42
3.0
 43
3.0
 50
180.0
  0
INSERT
  5
23B
100
AcDbEntity
  8
0
100
AcDbBlockReference
 62
7
  6
CONTINUOUS
  2
_FILLED
 10
-9.009213978
 20
19.0748503355
 41
3.0
 42
3.0
 43
3.0
  0
ENDBLK
  5
23C
100
AcDbEntity
  8
0
  6
BYBLOCK
 62
0
100
AcDbBlockEnd
  0
ENDSEC
  0
SECTION
  2
ENTITIES
  0
DIMENSION
  5
23D
100
AcDbEntity
  8
0
100
AcDbDimension
 62
7
  6
CONTINUOUS
  2
*D0
 10
5.7433917128
 20
19.0748503355
 11
12.6076774271
 21
21.3248503355
 70
160
 71
2
 42
22.3
  3
DIMSTYLE_1
100
AcDbAlignedDimension
 13
28.0433917128
 23
11.3748731808
 14
5.7433917128
 24
11.3748731808
 50
180.0
100
AcDbRotatedDimension
  0
DIMENSION
  5
23E
100
AcDbEntity
  8
0
100
AcDbDimension
 62
7
  6
CONTINUOUS
  2
*D1
 10
36.0433917128
 20
-10.9844623702
 11
35.6176914356
 21
-3.5946495763
 70
160
 71
2
 42
22.0593127057
  3
DIMSTYLE_2
100
AcDbAlignedDimension
 13
28.3433917117
 23
11.0748503355
 14
28.0299376522
 24
-10.9844623702
 50
270.0
100
AcDbRotatedDimension
  0
DIMENSION
  5
23F
100
AcDbEntity
  8
0
100
AcDbDimension
 62
7
  6
CONTINUOUS
  2
*D2
 10
-9.009213978
 20
19.0748503355
 11
-8.8664174371
 21
21.3248503355
 70
160
 71
2
 42
6.499878796
  3
DIMSTYLE_1
100
AcDbAlignedDimension
 13
-2.5093351819
 23
8.0748503355
 14
-9.009213978
 24
11.3267067469
 50
180.0
100
AcDbRotatedDimension
  0
LINE
  5
240
100
AcDbEntity
  8
RACCORDO
100
AcDbLine
 62
7
  6
CONTINUOUS
 10
5.7433917128
 20
-1.9251496645
 11
5.7564659502
 21
-10.4865166424
  0
LINE
  5
241
100
AcDbEntity
  8
ASSI
100
AcDbLine
 62
7
  6
CONTINUOUS
 10
5.7433917128
 20
-1.9251496645
 11
5.7564659502
 21
-10.4865166424
  0
LINE
  5
242
100
AcDbEntity
  8
RACCORDO
100
AcDbLine
 62
7
  6
CONTINUOUS
 10
5.7433917128
 20
10.8748731808
 11
5.7433917128
 21
-1.9251496645
  0
LINE
  5
243
100
AcDbEntity
  8
ASSI
100
AcDbLine
 62
7
  6
CONTINUOUS
 10
5.7433917128
 20
10.8748731808
 11
5.7433917128
 21
-1.9251496645
  0
LINE
  5
244
100
AcDbEntity
  8
RACCORDO
100
AcDbLine
 62
253
  6
CONTINUOUS
 10
6.3342321009
 20
10.826706746
 11
6.3342321009
 21
11.0268383889
  0
LINE
  5
245
100
AcDbEntity
  8
ASSI
100
AcDbLine
 62
253
  6
CONTINUOUS
 10
6.3342321009
 20
10.826706746
 11
6.3342321009
 21
11.0268383889
  0
LINE
  5
246
100
AcDbEntity
  8
RACCORDO
100
AcDbLine
 62
7
  6
CONTINUOUS
 10
20.2849667199
 20
-10.9844623702
 11
20.6356566859
 21
-10.9526292122
  0
LINE
  5
247
100
AcDbEntity
  8
ASSI
100
AcDbLine
 62
7
  6
CONTINUOUS
 10
20.2849667199
 20
-10.9844623702
 11
20.6356566859
 21
-10.9526292122
  0
LINE
  5
248
100
AcDbEntity
  8
RACCORDO
100
AcDbLine
 62
7
  6
CONTINUOUS
 10
6.2568457735
 20
-10.9844623702
 11
9.0849667199
 21
-10.9844623702
  0
LINE
  5
249
100
AcDbEntity
  8
ASSI
100
AcDbLine
 62
7
  6
CONTINUOUS
 10
6.2568457735
 20
-10.9844623702
 11
9.0849667199
 21
-10.9844623702
  0
LINE
  5
24A
100
AcDbEntity
  8
DRAFT
100
AcDbLine
 62
7
  6
CONTINUOUS
 10
13.5018167058
 20
-10.9844623702
 11
20.2849667199
 21
-10.9844623702
  0
LINE
  5
24B
100
AcDbEntity
  8
ASSI
100
AcDbLine
 62
7
  6
CONTINUOUS
 10
13.5018167058
 20
-10.9844623702
 11
20.2849667199
 21
-10.9844623702
  0
LINE
  5
24C
100
AcDbEntity
  8
RACCORDO
100
AcDbLine
 62
7
  6
CONTINUOUS
 10
24.7018167058
 20
-10.9844623702
 11
27.5299376522
 21
-10.9844623702
  0
LINE
  5
24D
100
AcDbEntity
  8
ASSI
100
AcDbLine
 62
7
  6
CONTINUOUS
 10
24.7018167058
 20
-10.9844623702
 11
27.5299376522
 21
-10.9844623702
  0
LINE
  5
24E
100
AcDbEntity
  8
RACCORDO
100
AcDbLine
 62
7
  6
CONTINUOUS
 10
9.6088617667
 20
-10.9473884343
 11
12.977921659
 21
-10.9473884343
  0
LINE
  5
24F
100
AcDbEntity
  8
ASSI
100
AcDbLine
 62
7
  6
CONTINUOUS
 10
9.6088617667
 20
-10.9473884343
 11
12.977921659
 21
-10.9473884343
  0
LINE
  5
250
100
AcDbEntity
  8
RACCORDO
100
AcDbLine
 62
7
  6
CONTINUOUS
 10
20.8088617667
 20
-10.9473884343
 11
24.177921659
 21
-10.9473884343
  0
LINE
  5
251
100
AcDbEntity
  8
ASSI
100
AcDbLine
 62
7
  6
CONTINUOUS
 10
20.8088617667
 20
-10.9473884343
 11
24.177921659
 21
-10.9473884343
  0
LINE
  5
252
100
AcDbEntity
  8
RACCORDO
100
AcDbLine
 62
253
  6
CONTINUOUS
 10
27.4764522889
 20
-10.8238757941
 11
6.3103311367
 21
-10.8238757941
  0
LINE
  5
253
100
AcDbEntity
  8
ASSI
100
AcDbLine
 62
253
  6
CONTINUOUS
 10
27.4764522889
 20
-10.8238757941
 11
6.3103311367
 21
-10.8238757941
  0
LINE
  5
254
100
AcDbEntity
  8
RACCORDO
100
AcDbLine
 62
7
  6
CONTINUOUS
 10
13.5018167058
 20
-10.9844623702
 11
13.1511267397
 21
-10.9526292122
  0
LINE
  5
255
100
AcDbEntity
  8
ASSI
100
AcDbLine
 62
7
  6
CONTINUOUS
 10
13.5018167058
 20
-10.9844623702
 11
13.1511267397
 21
-10.9526292122
  0
LINE
  5
256
100
AcDbEntity
  8
RACCORDO
100
AcDbLine
 62
7
  6
CONTINUOUS
 10
9.0849667199
 20
-10.9844623702
 11
9.4356566859
 21
-10.9526292122
  0
LINE
  5
257
100
AcDbEntity
  8
ASSI
100
AcDbLine
 62
7
  6
CONTINUOUS
 10
9.0849667199
 20
-10.9844623702
 11
9.4356566859
 21
-10.9526292122
  0
LINE
  5
258
100
AcDbEntity
  8
RACCORDO
100
AcDbLine
 62
253
  6
CONTINUOUS
 10
27.4599251916
 20
-9.3875974948
 11
6.3268582341
 21
-9.3875974954
  0
LINE
  5
259
100
AcDbEntity
  8
ASSI
100
AcDbLine
 62
253
  6
CONTINUOUS
 10
27.4599251916
 20
-9.3875974948
 11
6.3268582341
 21
-9.3875974954
  0
LINE
  5
25A
100
AcDbEntity
  8
RACCORDO
100
AcDbLine
 62
7
  6
CONTINUOUS
 10
24.7018167058
 20
-10.9844623702
 11
24.3511267397
 21
-10.9526292122
  0
LINE
  5
25B
100
AcDbEntity
  8
ASSI
100
AcDbLine
 62
7
  6
CONTINUOUS
 10
24.7018167058
 20
-10.9844623702
 11
24.3511267397
 21
-10.9526292122
  0
LINE
  5
25C
100
AcDbEntity
  8
RACCORDO
100
AcDbLine
 62
253
  6
CONTINUOUS
 10
5.7564659502
 20
-10.4865166424
 11
5.8104075914
 21
-10.3245601191
  0
LINE
  5
25D
100
AcDbEntity
  8
ASSI
100
AcDbLine
 62
253
  6
CONTINUOUS
 10
5.7564659502
 20
-10.4865166424
 11
5.8104075914
 21
-10.3245601191
  0
LINE
  5
25E
100
AcDbEntity
  8
RACCORDO
100
AcDbLine
 62
253
  6
CONTINUOUS
 10
6.2568457735
 20
-10.9844623702
 11
6.3103311367
 21
-10.8238757941
  0
LINE
  5
25F
100
AcDbEntity
  8
ASSI
100
AcDbLine
 62
253
  6
CONTINUOUS
 10
6.2568457735
 20
-10.9844623702
 11
6.3103311367
 21
-10.8238757941
  0
LINE
  5
260
100
AcDbEntity
  8
RACCORDO
100
AcDbLine
 62
253
  6
CONTINUOUS
 10
27.8433917117
 20
11.0748503355
 11
27.7525056046
 21
11.0294107429
  0
LINE
  5
261
100
AcDbEntity
  8
ASSI
100
AcDbLine
 62
253
  6
CONTINUOUS
 10
27.8433917117
 20
11.0748503355
 11
27.7525056046
 21
11.0294107429
  0
LINE
  5
262
100
AcDbEntity
  8
RACCORDO
100
AcDbLine
 62
253
  6
CONTINUOUS
 10
28.0433917128
 20
10.8748731808
 11
27.9524754338
 21
10.8294185033
  0
LINE
  5
263
100
AcDbEntity
  8
ASSI
100
AcDbLine
 62
253
  6
CONTINUOUS
 10
28.0433917128
 20
10.8748731808
 11
27.9524754338
 21
10.8294185033
  0
LINE
  5
264
100
AcDbEntity
  8
CURVE
100
AcDbLine
 62
253
  6
CONTINUOUS
 10
16.8933917128
 20
-3.3751496645
 11
16.8933917128
 21
-0.2751495615
  0
LINE
  5
265
100
AcDbEntity
  8
RACCORDO
100
AcDbLine
 62
253
  6
CONTINUOUS
 10
5.8343079919
 20
10.8294185033
 11
5.7433917128
 21
10.8748731808
  0
LINE
  5
266
100
AcDbEntity
  8
ASSI
100
AcDbLine
 62
253
  6
CONTINUOUS
 10
5.8343079919
 20
10.8294185033
 11
5.7433917128
 21
10.8748731808
  0
LINE
  5
267
100
AcDbEntity
  8
RACCORDO
100
AcDbLine
 62
253
  6
CONTINUOUS
 10
6.034277821
 20
11.0294107429
 11
5.943391714
 21
11.0748503355
  0
LINE
  5
268
100
AcDbEntity
  8
ASSI
100
AcDbLine
 62
253
  6
CONTINUOUS
 10
6.034277821
 20
11.0294107429
 11
5.943391714
 21
11.0748503355
  0
LINE
  5
269
100
AcDbEntity
  8
RACCORDO
100
AcDbLine
 62
253
  6
CONTINUOUS
 10
27.4764522889
 20
-10.8238757941
 11
27.5299376522
 21
-10.9844623702
  0
LINE
  5
26A
100
AcDbEntity
  8
ASSI
100
AcDbLine
 62
253
  6
CONTINUOUS
 10
27.4764522889
 20
-10.8238757941
 11
27.5299376522
 21
-10.9844623702
  0
LINE
  5
26B
100
AcDbEntity
  8
RACCORDO
100
AcDbLine
 62
253
  6
CONTINUOUS
 10
27.9763758342
 20
-10.3245601191
 11
28.0303174755
 21
-10.4865166424
  0
LINE
  5
26C
100
AcDbEntity
  8
ASSI
100
AcDbLine
 62
253
  6
CONTINUOUS
 10
27.9763758342
 20
-10.3245601191
 11
28.0303174755
 21
-10.4865166424
  0
LINE
  5
26D
100
AcDbEntity
  8
RACCORDO
100
AcDbLine
 62
253
  6
CONTINUOUS
 10
27.4525513247
 20
10.826706746
 11
27.4525513247
 21
11.0268383889
  0
LINE
  5
26E
100
AcDbEntity
  8
ASSI
100
AcDbLine
 62
253
  6
CONTINUOUS
 10
27.4525513247
 20
10.826706746
 11
27.4525513247
 21
11.0268383889
  0
LINE
  5
26F
100
AcDbEntity
  8
DRAFT
100
AcDbLine
 62
7
  6
CONTINUOUS
 10
25.4058577034
 20
11.0748503355
 11
25.1433917128
 21
11.0486697322
  0
LINE
  5
270
100
AcDbEntity
  8
ASSI
100
AcDbLine
 62
7
  6
CONTINUOUS
 10
25.4058577034
 20
11.0748503355
 11
25.1433917128
 21
11.0486697322
  0
LINE
  5
271
100
AcDbEntity
  8
DRAFT
100
AcDbLine
 62
7
  6
CONTINUOUS
 10
8.3809257223
 20
11.0748503355
 11
8.6433917128
 21
11.0486697322
  0
LINE
  5
272
100
AcDbEntity
  8
ASSI
100
AcDbLine
 62
7
  6
CONTINUOUS
 10
8.3809257223
 20
11.0748503355
 11
8.6433917128
 21
11.0486697322
  0
LINE
  5
273
100
AcDbEntity
  8
RACCORDO
100
AcDbLine
 62
7
  6
CONTINUOUS
 10
28.0433917128
 20
10.8748731808
 11
28.0433917128
 21
-1.9251496645
  0
LINE
  5
274
100
AcDbEntity
  8
ASSI
100
AcDbLine
 62
7
  6
CONTINUOUS
 10
28.0433917128
 20
10.8748731808
 11
28.0433917128
 21
-1.9251496645
  0
LINE
  5
275
100
AcDbEntity
  8
RACCORDO
100
AcDbLine
 62
7
  6
CONTINUOUS
 10
28.0433917128
 20
-1.9251496645
 11
28.0303174755
 21
-10.4865166424
  0
LINE
  5
276
100
AcDbEntity
  8
ASSI
100
AcDbLine
 62
7
  6
CONTINUOUS
 10
28.0433917128
 20
-1.9251496645
 11
28.0303174755
 21
-10.4865166424
  0
LINE
  5
277
100
AcDbEntity
  8
RACCORDO
100
AcDbLine
 62
253
  6
CONTINUOUS
 10
27.4525348521
 20
10.826706746
 11
6.3342485737
 21
10.826706746
  0
LINE
  5
278
100
AcDbEntity
  8
ASSI
100
AcDbLine
 62
253
  6
CONTINUOUS
 10
27.4525348521
 20
10.826706746
 11
6.3342485737
 21
10.826706746
  0
LINE
  5
279
100
AcDbEntity
  8
RACCORDO
100
AcDbLine
 62
253
  6
CONTINUOUS
 10
27.4525513247
 20
11.0268383889
 11
6.3342321009
 21
11.0268383889
  0
LINE
  5
27A
100
AcDbEntity
  8
ASSI
100
AcDbLine
 62
7
  6
CONTINUOUS
 10
27.4525513247
 20
11.0268383889
 11
6.3342321009
 21
11.0268383889
  0
LINE
  5
27B
100
AcDbEntity
  8
DRAFT
100
AcDbLine
 62
7
  6
CONTINUOUS
 10
8.6433917128
 20
11.0486697322
 11
25.1433917128
 21
11.0486697322
  0
LINE
  5
27C
100
AcDbEntity
  8
ASSI
100
AcDbLine
 62
7
  6
CONTINUOUS
 10
8.6433917128
 20
11.0486697322
 11
25.1433917128
 21
11.0486697322
  0
LINE
  5
27D
100
AcDbEntity
  8
RACCORDO
100
AcDbLine
 62
7
  6
CONTINUOUS
 10
5.943391714
 20
11.0748503355
 11
8.3809257223
 21
11.0748503355
  0
LINE
  5
27E
100
AcDbEntity
  8
ASSI
100
AcDbLine
 62
7
  6
CONTINUOUS
 10
5.943391714
 20
11.0748503355
 11
8.3809257223
 21
11.0748503355
  0
LINE
  5
27F
100
AcDbEntity
  8
RACCORDO
100
AcDbLine
 62
7
  6
CONTINUOUS
 10
25.4058577034
 20
11.0748503355
 11
27.8433917117
 21
11.0748503355
  0
LINE
  5
280
100
AcDbEntity
  8
ASSI
100
AcDbLine
 62
7
  6
CONTINUOUS
 10
25.4058577034
 20
11.0748503355
 11
27.8433917117
 21
11.0748503355
  0
LINE
  5
281
100
AcDbEntity
  8
RACCORDO
100
AcDbLine
 62
7
  6
CONTINUOUS
 10
-7.1660967518
 20
-10.8238757941
 11
-4.101922343
 21
-10.9844623702
  0
LINE
  5
282
100
AcDbEntity
  8
ASSI
100
AcDbLine
 62
7
  6
CONTINUOUS
 10
-7.1660967518
 20
-10.8238757941
 11
-4.101922343
 21
-10.9844623702
  0
LINE
  5
283
100
AcDbEntity
  8
RACCORDO
100
AcDbLine
 62
253
  6
CONTINUOUS
 10
-7.1486722959
 20
-10.3245601191
 11
-4.0583577368
 21
-10.4865166424
  0
LINE
  5
284
100
AcDbEntity
  8
ASSI
100
AcDbLine
 62
253
  6
CONTINUOUS
 10
-7.1486722959
 20
-10.3245601191
 11
-4.0583577368
 21
-10.4865166424
  0
LINE
  5
285
100
AcDbEntity
  8
RACCORDO
100
AcDbLine
 62
253
  6
CONTINUOUS
 10
-8.0954903516
 20
-9.367055521
 11
-8.586340747
 21
-9.3876179725
  0
LINE
  5
286
100
AcDbEntity
  8
ASSI
100
AcDbLine
 62
253
  6
CONTINUOUS
 10
-8.0954903516
 20
-9.367055521
 11
-8.586340747
 21
-9.3876179725
  0
LINE
  5
287
100
AcDbEntity
  8
RACCORDO
100
AcDbLine
 62
253
  6
CONTINUOUS
 10
-3.7093351819
 20
-6.7586412657
 11
-3.7322109028
 21
-6.7586412715
  0
LINE
  5
288
100
AcDbEntity
  8
ASSI
100
AcDbLine
 62
253
  6
CONTINUOUS
 10
-3.7093351819
 20
-6.7586412657
 11
-3.7322109028
 21
-6.7586412715
  0
LINE
  5
289
100
AcDbEntity
  8
CURVE
100
AcDbLine
 62
253
  6
CONTINUOUS
 10
-8.7687065412
 20
-4.3354879207
 11
-8.7532645775
 21
-4.8253175271
  0
LINE
  5
28A
100
AcDbEntity
  8
CURVE
100
AcDbLine
 62
253
  6
CONTINUOUS
 10
-8.8999798712
 20
0.7181184795
 11
-8.9093288741
 21
1.1750180558
  0
LINE
  5
28B
100
AcDbEntity
  8
RACCORDO
100
AcDbLine
 62
7
  6
CONTINUOUS
 10
-3.7093351819
 20
-6.4971705856
 11
-3.7093351819
 21
-6.7586412657
  0
LINE
  5
28C
100
AcDbEntity
  8
ASSI
100
AcDbLine
 62
7
  6
CONTINUOUS
 10
-3.7093351819
 20
-6.4971705856
 11
-3.7093351819
 21
-6.7586412657
  0
LINE
  5
28D
100
AcDbEntity
  8
RACCORDO
100
AcDbLine
 62
7
  6
CONTINUOUS
 10
-3.3093351819
 20
11.0748503355
 11
-3.3093351819
 21
-1.9251496645
  0
LINE
  5
28E
100
AcDbEntity
  8
ASSI
100
AcDbLine
 62
7
  6
CONTINUOUS
 10
-3.3093351819
 20
11.0748503355
 11
-3.3093351819
 21
-1.9251496645
  0
LINE
  5
28F
100
AcDbEntity
  8
RACCORDO
100
AcDbLine
 62
7
  6
CONTINUOUS
 10
-3.3093351819
 20
-1.9251496645
 11
-4.101922343
 21
-10.9844623702
  0
LINE
  5
290
100
AcDbEntity
  8
ASSI
100
AcDbLine
 62
7
  6
CONTINUOUS
 10
-3.3093351819
 20
-1.9251496645
 11
-4.101922343
 21
-10.9844623702
  0
LINE
  5
291
100
AcDbEntity
  8
0
100
AcDbLine
 62
7
  6
CONTINUOUS
 10
-2.5093351819
 20
5.7748503355
 11
-2.5093351819
 21
7.5748503355
  0
LINE
  5
292
100
AcDbEntity
  8
0
100
AcDbLine
 62
7
  6
CONTINUOUS
 10
-3.3093351819
 20
5.7348503355
 11
-2.5093351819
 21
5.7748503355
  0
LINE
  5
293
100
AcDbEntity
  8
0
100
AcDbLine
 62
7
  6
CONTINUOUS
 10
-3.3093351819
 20
7.6148503355
 11
-2.5093351819
 21
7.5748503355
  0
LINE
  5
294
100
AcDbEntity
  8
RACCORDO
100
AcDbLine
 62
253
  6
CONTINUOUS
 10
-3.3093351819
 20
10.8748731808
 11
-8.5179253213
 21
10.8294185033
  0
LINE
  5
295
100
AcDbEntity
  8
ASSI
100
AcDbLine
 62
253
  6
CONTINUOUS
 10
-3.3093351819
 20
10.8748731808
 11
-8.5179253213
 21
10.8294185033
  0
LINE
  5
296
100
AcDbEntity
  8
RACCORDO
100
AcDbLine
 62
7
  6
CONTINUOUS
 10
-3.3093351819
 20
11.0748503355
 11
-8.8109593323
 21
11.0268383889
  0
LINE
  5
297
100
AcDbEntity
  8
ASSI
100
AcDbLine
 62
7
  6
CONTINUOUS
 10
-3.3093351819
 20
11.0748503355
 11
-8.8109593323
 21
11.0268383889
  0
CIRCLE
  5
298
100
AcDbEntity
  8
CURVE
100
AcDbCircle
 62
253
  6
CONTINUOUS
 10
16.8933917128
 20
-1.8251496645
 40
3.0
  0
ARC
  5
299
100
AcDbEntity
  8
RACCORDO
100
AcDbCircle
 62
253
  6
CONTINUOUS
 10
16.8933917121
 20
6.6744386931
 40
1.4205653863
100
AcDbArc
 50
359.9802963599
 51
180.0197036401
  0
ARC
  5
29A
100
AcDbEntity
  8
ASSI
100
AcDbCircle
 62
253
  6
CONTINUOUS
 10
16.8933917121
 20
6.6744386931
 40
1.4205653863
100
AcDbArc
 50
359.9802963599
 51
180.0197036401
  0
ARC
  5
29B
100
AcDbEntity
  8
RACCORDO
100
AcDbCircle
 62
253
  6
CONTINUOUS
 10
16.8933917135
 20
6.6739080501
 40
1.4205653241
100
AcDbArc
 50
179.9983018121
 51
0.0016981879
  0
ARC
  5
29C
100
AcDbEntity
  8
ASSI
100
AcDbCircle
 62
253
  6
CONTINUOUS
 10
16.8933917135
 20
6.6739080501
 40
1.4205653241
100
AcDbArc
 50
179.9983018121
 51
0.0016981879
  0
CIRCLE
  5
29D
100
AcDbEntity
  8
RACCORDO
100
AcDbCircle
 62
253
  6
CONTINUOUS
 10
16.8933917129
 20
6.675036011
 40
1.3206290234
  0
CIRCLE
  5
29E
100
AcDbEntity
  8
ASSI
100
AcDbCircle
 62
253
  6
CONTINUOUS
 10
16.8933917129
 20
6.675036011
 40
1.3206290234
  0
CIRCLE
  5
29F
100
AcDbEntity
  8
DRAFT
100
AcDbCircle
 62
7
  6
CONTINUOUS
 10
16.8933917128
 20
6.6748503355
 40
1.3
  0
CIRCLE
  5
2A0
100
AcDbEntity
  8
ASSI
100
AcDbCircle
 62
7
  6
CONTINUOUS
 10
16.8933917128
 20
6.6748503355
 40
1.3
  0
CIRCLE
  5
2A1
100
AcDbEntity
  8
DRAFT
100
AcDbCircle
 62
7
  6
CONTINUOUS
 10
16.8933917128
 20
6.6748503355
 40
1.225
  0
CIRCLE
  5
2A2
100
AcDbEntity
  8
RACCORDO
100
AcDbCircle
 62
253
  6
CONTINUOUS
 10
16.8933917128
 20
6.6748503355
 40
1.2068524201
  0
CIRCLE
  5
2A3
100
AcDbEntity
  8
RACCORDO
100
AcDbCircle
 62
253
  6
CONTINUOUS
 10
16.8933917128
 20
6.6748503355
 40
1.1180464865
  0
ARC
  5
2A4
100
AcDbEntity
  8
RACCORDO
100
AcDbCircle
 62
253
  6
CONTINUOUS
 10
27.4762431317
 20
-10.3236683602
 40
0.5001741994
100
AcDbArc
 50
270.0239231355
 51
359.8978391816
  0
ARC
  5
2A5
100
AcDbEntity
  8
ASSI
100
AcDbCircle
 62
253
  6
CONTINUOUS
 10
27.4762431317
 20
-10.3236683602
 40
0.5001741994
100
AcDbArc
 50
270.0239231355
 51
359.8978391816
  0
ARC
  5
2A6
100
AcDbEntity
  8
RACCORDO
100
AcDbCircle
 62
253
  6
CONTINUOUS
 10
6.3105402999
 20
-10.323668419
 40
0.5001741749
100
AcDbArc
 50
180.1021540821
 51
269.9760761836
  0
ARC
  5
2A7
100
AcDbEntity
  8
ASSI
100
AcDbCircle
 62
253
  6
CONTINUOUS
 10
6.3105402999
 20
-10.323668419
 40
0.5001741749
100
AcDbArc
 50
180.1021540821
 51
269.9760761836
  0
ARC
  5
2A8
100
AcDbEntity
  8
RACCORDO
100
AcDbCircle
 62
253
  6
CONTINUOUS
 10
27.7524579563
 20
10.8293960209
 40
0.2000157905
100
AcDbArc
 50
0.006398648
 51
89.9863507457
  0
ARC
  5
2A9
100
AcDbEntity
  8
RACCORDO
100
AcDbCircle
 62
253
  6
CONTINUOUS
 10
6.0343254685
 20
10.829396028
 40
0.2000157905
100
AcDbArc
 50
90.0136490068
 51
179.9936034079
  0
ARC
  5
2AA
100
AcDbEntity
  8
ASSI
100
AcDbCircle
 62
253
  6
CONTINUOUS
 10
6.0343254685
 20
10.829396028
 40
0.2000157905
100
AcDbArc
 50
90.0136490068
 51
179.9936034079
  0
ARC
  5
2AB
100
AcDbEntity
  8
ASSI
100
AcDbCircle
 62
253
  6
CONTINUOUS
 10
27.7524579563
 20
10.8293960209
 40
0.2000157905
100
AcDbArc
 50
0.006398648
 51
89.9863507457
  0
ARC
  5
2AC
100
AcDbEntity
  8
RACCORDO
100
AcDbCircle
 62
7
  6
CONTINUOUS
 10
-7.0876101365
 20
-9.3259305843
 40
1.5
100
AcDbArc
 50
182.3561664986
 51
267.000662446
  0
ARC
  5
2AD
100
AcDbEntity
  8
ASSI
100
AcDbCircle
 62
7
  6
CONTINUOUS
 10
-7.0876101365
 20
-9.3259305843
 40
1.5
100
AcDbArc
 50
182.3561664986
 51
267.000662446
  0
ARC
  5
2AE
100
AcDbEntity
  8
RACCORDO
100
AcDbCircle
 62
253
  6
CONTINUOUS
 10
-7.0963363318
 20
-9.3259305765
 40
1.0000000082
100
AcDbArc
 50
182.3569504196
 51
266.9999995712
  0
ARC
  5
2AF
100
AcDbEntity
  8
ASSI
100
AcDbCircle
 62
253
  6
CONTINUOUS
 10
-7.0963363318
 20
-9.3259305765
 40
1.0000000082
100
AcDbArc
 50
182.3569504196
 51
266.9999995712
  0
ARC
  5
2B0
100
AcDbEntity
  8
RACCORDO
100
AcDbCircle
 62
7
  6
CONTINUOUS
 10
-4.0093351819
 20
-6.7586412657
 40
0.3
100
AcDbArc
 50
335.0
 51
360.0
  0
ARC
  5
2B1
100
AcDbEntity
  8
ASSI
100
AcDbCircle
 62
7
  6
CONTINUOUS
 10
-4.0093351819
 20
-6.7586412657
 40
0.3
100
AcDbArc
 50
335.0
 51
360.0
  0
ARC
  5
2B2
100
AcDbEntity
  8
RACCORDO
100
AcDbCircle
 62
7
  6
CONTINUOUS
 10
-8.8092135146
 20
10.8268460088
 40
0.2
100
AcDbArc
 50
90.5001462858
 51
180.0398957513
  0
ARC
  5
2B3
100
AcDbEntity
  8
ASSI
100
AcDbCircle
 62
7
  6
CONTINUOUS
 10
-8.8092135146
 20
10.8268460088
 40
0.2
100
AcDbArc
 50
90.5001462858
 51
180.0398957513
  0
ARC
  5
2B4
100
AcDbEntity
  8
RACCORDO
100
AcDbCircle
 62
7
  6
CONTINUOUS
 10
490.9906648181
 20
11.1748503355
 40
500.0
100
AcDbArc
 50
180.0398943199
 51
182.3569476404
  0
ARC
  5
2B5
100
AcDbEntity
  8
ASSI
100
AcDbCircle
 62
7
  6
CONTINUOUS
 10
490.9906648181
 20
11.1748503355
 40
500.0
100
AcDbArc
 50
180.0398943199
 51
182.3569476404
  0
ARC
  5
2B6
100
AcDbEntity
  8
RACCORDO
100
AcDbCircle
 62
253
  6
CONTINUOUS
 10
490.9413119834
 20
11.1736717736
 40
499.4593584626
100
AcDbArc
 50
180.0394912235
 51
182.3570065688
  0
ARC
  5
2B7
100
AcDbEntity
  8
ASSI
100
AcDbCircle
 62
253
  6
CONTINUOUS
 10
490.9413119834
 20
11.1736717736
 40
499.4593584626
100
AcDbArc
 50
180.0394912235
 51
182.3570065688
  0
SPLINE
  5
2B8
100
AcDbEntity
  8
RACCORDO
100
AcDbSpline
 62
253
  6
CONTINUOUS
 70
0
 71
3
 72
11
 73
7
 74
5
 42
0.0000001
 43
0.0000001
 44
0.0000000001
 12
0.0002454385
 22
-20.214305979
 32
0.0
 13
0.014508362
 23
-20.214300774
 33
0.0
 40
0.0
 40
0.0
 40
0.0
 40
0.0
 40
0.2500750461
 40
0.5001057347
 40
0.7500838832
 40
1.0
 40
1.0
 40
1.0
 40
1.0
 10
27.4525348521
 20
10.826706746
 30
0.0
 10
27.4525553114
 20
9.1416755798
 30
0.0
 10
27.4529173774
 20
5.7719121309
 30
0.0
 10
27.4543056303
 20
0.7177705894
 30
0.0
 10
27.4565970905
 20
-4.3352997444
 30
0.0
 10
27.4587165786
 20
-7.7036376436
 30
0.0
 10
27.4599252031
 20
-9.3875974949
 30
0.0
 11
27.4525348521
 21
10.826706746
 31
0.0
 11
27.4530583165
 21
5.771613274
 31
0.0
 11
27.4544563605
 21
0.7174166234
 31
0.0
 11
27.4567453213
 21
-4.3357176408
 31
0.0
 11
27.4599252031
 21
-9.3875974949
 31
0.0
  0
SPLINE
  5
2B9
100
AcDbEntity
  8
RACCORDO
100
AcDbSpline
 62
253
  6
CONTINUOUS
 70
0
 71
3
 72
17
 73
13
 74
11
 42
0.0000001
 43
0.0000001
 44
0.0000000001
 12
-0.2685436887
 22
-0.1337076075
 32
0.0
 13
-0.2999890615
 23
-0.0000001894
 33
0.0
 40
0.0
 40
0.0
 40
0.0
 40
0.0
 40
0.0147850775
 40
0.053255719
 40
0.114525848
 40
0.1971200214
 40
0.2990571251
 40
0.4178801055
 40
0.5507176149
 40
0.6943786252
 40
0.8453688129
 40
1.0
 40
1.0
 40
1.0
 40
1.0
 10
27.7525056046
 20
11.0294107429
 30
0.0
 10
27.7511821249
 20
11.0287517838
 30
0.0
 10
27.7455502016
 20
11.0293698013
 30
0.0
 10
27.734378834
 20
11.0282324656
 30
0.0
 10
27.7160012969
 20
11.0283149473
 30
0.0
 10
27.6914861872
 20
11.0278072616
 30
0.0
 10
27.661130434
 20
11.0275774934
 30
0.0
 10
27.6257805693
 20
11.027300907
 30
0.0
 10
27.5862479183
 20
11.027102869
 30
0.0
 10
27.5435015963
 20
11.0269502426
 30
0.0
 10
27.4985748565
 20
11.0268590247
 30
0.0
 10
27.4680138796
 20
11.0268383987
 30
0.0
 10
27.4525513247
 20
11.0268383889
 30
0.0
 11
27.7525056046
 21
11.0294107429
 31
0.0
 11
27.7480886994
 21
11.0290065402
 31
0.0
 11
27.7365546412
 21
11.0286129527
 31
0.0
 11
27.7181780649
 21
11.0282396011
 31
0.0
 11
27.6934031049
 21
11.0278955677
 31
0.0
 11
27.6628246244
 21
11.0275891167
 31
0.0
 11
27.627179989
 21
11.0273276483
 31
0.0
 11
27.5873307435
 21
11.0271174761
 31
0.0
 11
27.5442342864
 21
11.0269636461
 31
0.0
 11
27.4989389787
 21
11.0268698747
 31
0.0
 11
27.4525513247
 21
11.0268383889
 31
0.0
  0
SPLINE
  5
2BA
100
AcDbEntity
  8
RACCORDO
100
AcDbSpline
 62
253
  6
CONTINUOUS
 70
0
 71
3
 72
11
 73
7
 74
5
 42
0.0000001
 43
0.0000001
 44
0.0000000001
 12
0.014508362
 22
20.2143007745
 32
0.0
 13
0.0002454385
 23
20.2143059795
 33
0.0
 40
0.0
 40
0.0
 40
0.0
 40
0.0
 40
0.2499161168
 40
0.4998942654
 40
0.749924954
 40
1.0
 40
1.0
 40
1.0
 40
1.0
 10
6.3268582225
 20
-9.3875974954
 30
0.0
 10
6.328066847
 20
-7.703637644
 30
0.0
 10
6.3301863352
 20
-4.3352997445
 30
0.0
 10
6.3324777954
 20
0.7177705894
 30
0.0
 10
6.3338660482
 20
5.7719121309
 30
0.0
 10
6.3342281144
 20
9.1416755798
 30
0.0
 10
6.3342485737
 20
10.826706746
 30
0.0
 11
6.3268582225
 21
-9.3875974954
 31
0.0
 11
6.3300381043
 21
-4.3357176408
 31
0.0
 11
6.3323270652
 21
0.7174166234
 31
0.0
 11
6.3337251091
 21
5.771613274
 31
0.0
 11
6.3342485737
 21
10.826706746
 31
0.0
  0
SPLINE
  5
2BB
100
AcDbEntity
  8
RACCORDO
100
AcDbSpline
 62
253
  6
CONTINUOUS
 70
0
 71
3
 72
16
 73
12
 74
10
 42
0.0000001
 43
0.0000001
 44
0.0000000001
 12
0.1956190744
 22
-0.4614183123
 32
0.0
 13
0.501172178
 23
-0.0003594563
 33
0.0
 40
0.0
 40
0.0
 40
0.0
 40
0.0
 40
0.0191520824
 40
0.0665681378
 40
0.1414824155
 40
0.241789643
 40
0.3645557801
 40
0.506157455
 40
0.6624027643
 40
0.8286605242
 40
1.0
 40
1.0
 40
1.0
 40
1.0
 10
5.8269343621
 20
-9.367055521
 30
0.0
 10
5.8281831996
 20
-9.3700012281
 30
0.0
 10
5.8421176074
 20
-9.3708412076
 30
0.0
 10
5.8629566327
 20
-9.3752682512
 30
0.0
 10
5.9014210078
 20
-9.3774691579
 30
0.0
 10
5.9505521993
 20
-9.3805683038
 30
0.0
 10
6.0116362498
 20
-9.3828863405
 30
0.0
 10
6.0818057377
 20
-9.3849273652
 30
0.0
 10
6.1593461146
 20
-9.3864127937
 30
0.0
 10
6.2418349758
 20
-9.3873601562
 30
0.0
 10
6.2982346836
 20
-9.3875974596
 30
0.0
 10
6.3268582097
 20
-9.3876179893
 30
0.0
 11
5.8269343621
 21
-9.367055521
 31
0.0
 11
5.8358594141
 21
-9.3705874496
 31
0.0
 11
5.8593746257
 21
-9.3740144261
 31
0.0
 11
5.896781236
 21
-9.3772346168
 31
0.0
 11
5.9469676978
 21
-9.380152333
 31
0.0
 11
6.008442707
 21
-9.382680874
 31
0.0
 11
6.0793795173
 21
-9.3847451034
 31
0.0
 11
6.1576702227
 21
-9.3862836823
 31
0.0
 11
6.240988394
 21
-9.3872508912
 31
0.0
 11
6.3268582097
 21
-9.3876179893
 31
0.0
  0
SPLINE
  5
2BC
100
AcDbEntity
  8
RACCORDO
100
AcDbSpline
 62
253
  6
CONTINUOUS
 70
0
 71
3
 72
17
 73
13
 74
11
 42
0.0000001
 43
0.0000001
 44
0.0000000001
 12
-0.4999637532
 22
0.0000027639
 32
0.0
 13
-0.4767936667
 23
0.150437874
 33
0.0
 40
0.0
 40
0.0
 40
0.0
 40
0.0
 40
0.1547342773
 40
0.3057145613
 40
0.4493652869
 40
0.5821875536
 40
0.7009933017
 40
0.8029183016
 40
0.8855064056
 40
0.9467746685
 40
0.9852386123
 40
1.0
 40
1.0
 40
1.0
 40
1.0
 10
6.3342485737
 20
10.8267067389
 30
0.0
 10
6.3084613971
 20
10.8267068814
 30
0.0
 10
6.2575126988
 20
10.8267288786
 30
0.0
 10
6.1826238041
 20
10.8268253041
 30
0.0
 10
6.1113874744
 20
10.8269867001
 30
0.0
 10
6.0455109751
 20
10.8271948103
 30
0.0
 10
5.986596082
 20
10.8274889897
 30
0.0
 10
5.9360305403
 20
10.8277236152
 30
0.0
 10
5.8951175301
 20
10.8282791436
 30
0.0
 10
5.8646250355
 20
10.8281430542
 30
0.0
 10
5.8457527849
 20
10.8294326818
 30
0.0
 10
5.8366540376
 20
10.8286782255
 30
0.0
 10
5.8343079922
 20
10.8294184494
 30
0.0
 11
6.3342485737
 21
10.8267067389
 31
0.0
 11
6.256887051
 21
10.826740319
 31
0.0
 11
6.1814024467
 21
10.8268394875
 31
0.0
 11
6.1095824744
 21
10.8270019034
 31
0.0
 11
6.0431765255
 21
10.8272236139
 31
0.0
 11
5.9837785976
 21
10.8274992923
 31
0.0
 11
5.9328208157
 21
10.8278222805
 31
0.0
 11
5.8915313484
 21
10.8281847732
 31
0.0
 11
5.8609019628
 21
10.8285780812
 31
0.0
 11
5.8416758523
 21
10.8289925613
 31
0.0
 11
5.8343079922
 21
10.8294184494
 31
0.0
  0
SPLINE
  5
2BD
100
AcDbEntity
  8
RACCORDO
100
AcDbSpline
 62
253
  6
CONTINUOUS
 70
0
 71
3
 72
17
 73
13
 74
11
 42
0.0000001
 43
0.0000001
 44
0.0000000001
 12
-0.4767936648
 22
-0.1504378796
 32
0.0
 13
-0.4999637531
 23
-0.0000027639
 33
0.0
 40
0.0
 40
0.0
 40
0.0
 40
0.0
 40
0.0147613872
 40
0.0532253307
 40
0.1144935933
 40
0.1970816969
 40
0.2990066965
 40
0.4178124444
 40
0.5506347109
 40
0.6942854364
 40
0.8452657197
 40
1.0
 40
1.0
 40
1.0
 40
1.0
 10
27.9524754335
 20
10.8294184494
 30
0.0
 10
27.9501293882
 20
10.8286782255
 30
0.0
 10
27.941030641
 20
10.8294326818
 30
0.0
 10
27.9221583905
 20
10.8281430542
 30
0.0
 10
27.8916658961
 20
10.8282791436
 30
0.0
 10
27.8507528861
 20
10.8277236152
 30
0.0
 10
27.8001873446
 20
10.8274889898
 30
0.0
 10
27.7412724516
 20
10.8271948103
 30
0.0
 10
27.6753959524
 20
10.8269867001
 30
0.0
 10
27.6041596229
 20
10.8268253041
 30
0.0
 10
27.5292707279
 20
10.8267288786
 30
0.0
 10
27.4783220292
 20
10.8267068814
 30
0.0
 10
27.4525348521
 20
10.8267067389
 30
0.0
 11
27.9524754335
 21
10.8294184494
 31
0.0
 11
27.9451075736
 21
10.8289925613
 31
0.0
 11
27.9258814632
 21
10.8285780812
 31
0.0
 11
27.8952520778
 21
10.8281847732
 31
0.0
 11
27.8539626108
 21
10.8278222805
 31
0.0
 11
27.803004829
 21
10.8274992923
 31
0.0
 11
27.7436069012
 21
10.8272236139
 31
0.0
 11
27.6772009525
 21
10.8270019034
 31
0.0
 11
27.6053809802
 21
10.8268394875
 31
0.0
 11
27.5298963763
 21
10.826740319
 31
0.0
 11
27.4525348521
 21
10.8267067389
 31
0.0
  0
SPLINE
  5
2BE
100
AcDbEntity
  8
RACCORDO
100
AcDbSpline
 62
253
  6
CONTINUOUS
 70
0
 71
3
 72
16
 73
12
 74
10
 42
0.0000001
 43
0.0000001
 44
0.0000000001
 12
-0.1956255021
 22
-0.4614155811
 32
0.0
 13
-0.5011721724
 23
-0.000359454
 33
0.0
 40
0.0
 40
0.0
 40
0.0
 40
0.0
 40
0.0191521757
 40
0.0665683036
 40
0.1414826259
 40
0.2417898699
 40
0.3645559974
 40
0.5061576398
 40
0.6624028983
 40
0.8286605946
 40
1.0
 40
1.0
 40
1.0
 40
1.0
 10
27.9598490636
 20
-9.367055521
 30
0.0
 10
27.9586001789
 20
-9.3700012251
 30
0.0
 10
27.9446658081
 20
-9.3708412035
 30
0.0
 10
27.9238266861
 20
-9.3752682439
 30
0.0
 10
27.8853623232
 20
-9.3774691514
 30
0.0
 10
27.8362311089
 20
-9.380568294
 30
0.0
 10
27.7751470687
 20
-9.3828863291
 30
0.0
 10
27.7049775953
 20
-9.3849273517
 30
0.0
 10
27.6274372443
 20
-9.3864127787
 30
0.0
 10
27.5449484147
 20
-9.38736014
 30
0.0
 10
27.48854873
 20
-9.387597443
 30
0.0
 10
27.459925216
 20
-9.3876179725
 30
0.0
 11
27.9598490636
 21
-9.367055521
 31
0.0
 11
27.9509239606
 21
-9.3705874477
 31
0.0
 11
27.9274087122
 21
-9.374014422
 31
0.0
 11
27.8900020797
 21
-9.3772346103
 31
0.0
 11
27.8398156101
 21
-9.3801523241
 31
0.0
 11
27.7783406063
 21
-9.3826808628
 31
0.0
 11
27.707403813
 21
-9.3847450902
 31
0.0
 11
27.6291131339
 21
-9.3862836674
 31
0.0
 11
27.5457949954
 21
-9.3872508751
 31
0.0
 11
27.459925216
 21
-9.3876179725
 31
0.0
  0
SPLINE
  5
2BF
100
AcDbEntity
  8
RACCORDO
100
AcDbSpline
 62
253
  6
CONTINUOUS
 70
0
 71
3
 72
19
 73
15
 74
13
 42
0.0000001
 43
0.0000001
 44
0.0000000001
 12
0.3112970811
 22
1.4023966309
 32
0.0
 13
0.0006887534
 23
1.4365311374
 33
0.0
 40
0.0
 40
0.0
 40
0.0
 40
0.0
 40
0.0146769045
 40
0.0448767047
 40
0.0901730857
 40
0.1498829261
 40
0.2231060618
 40
0.3087379823
 40
0.4054808333
 40
0.5118669653
 40
0.6262890873
 40
0.7470199919
 40
0.8722200831
 40
1.0
 40
1.0
 40
1.0
 40
1.0
 10
6.3103312386
 20
-10.823875794
 30
0.0
 10
6.3118541978
 20
-10.8170148469
 30
0.0
 10
6.3127380486
 20
-10.7954019754
 30
0.0
 10
6.3151260009
 20
-10.7523932754
 30
0.0
 10
6.3167606157
 20
-10.6876125037
 30
0.0
 10
6.3186959526
 20
-10.6023139086
 30
0.0
 10
6.3203746581
 20
-10.4976596708
 30
0.0
 10
6.3219543546
 20
-10.3752812894
 30
0.0
 10
6.3233379074
 20
-10.2370157066
 30
0.0
 10
6.3245240313
 20
-10.084963173
 30
0.0
 10
6.32548596
 20
-9.921421923
 30
0.0
 10
6.326210294
 20
-9.7488705515
 30
0.0
 10
6.3266847877
 20
-9.5699219673
 30
0.0
 10
6.3268288978
 20
-9.4487841051
 30
0.0
 10
6.3268582341
 20
-9.3875974954
 30
0.0
 11
6.3103312386
 21
-10.823875794
 31
0.0
 11
6.3124649008
 21
-10.8029002013
 31
0.0
 11
6.3145523525
 21
-10.759567493
 31
0.0
 11
6.3165623044
 21
-10.694528874
 31
0.0
 11
6.3184639791
 21
-10.6087749024
 31
0.0
 11
6.3202287176
 21
-10.5036023805
 31
0.0
 11
6.3218298343
 21
-10.3805998666
 31
0.0
 11
6.3232430422
 21
-10.2416329184
 31
0.0
 11
6.3244469215
 21
-10.0888106515
 31
0.0
 11
6.3254232952
 21
-9.9244425914
 31
0.0
 11
6.3261574291
 21
-9.7510104215
 31
0.0
 11
6.3266381371
 21
-9.5711572138
 31
0.0
 11
6.3268582341
 21
-9.3875974954
 31
0.0
  0
SPLINE
  5
2C0
100
AcDbEntity
  8
RACCORDO
100
AcDbSpline
 62
253
  6
CONTINUOUS
 70
0
 71
3
 72
19
 73
15
 74
13
 42
0.0000001
 43
0.0000001
 44
0.0000000001
 12
0.0006887534
 22
-1.4365311378
 32
0.0
 13
0.3112970789
 23
-1.4023966318
 33
0.0
 40
0.0
 40
0.0
 40
0.0
 40
0.0
 40
0.1277799165
 40
0.2529800076
 40
0.3737109122
 40
0.4881330342
 40
0.5945191662
 40
0.6912620172
 40
0.7768939378
 40
0.8501170735
 40
0.9098269139
 40
0.9551232951
 40
0.9853230954
 40
1.0
 40
1.0
 40
1.0
 40
1.0
 10
27.4599251916
 20
-9.3875974948
 30
0.0
 10
27.4599545278
 20
-9.4487841045
 30
0.0
 10
27.4600986379
 20
-9.5699219664
 30
0.0
 10
27.4605731316
 20
-9.7488705505
 30
0.0
 10
27.4612974657
 20
-9.921421922
 30
0.0
 10
27.4622593944
 20
-10.084963172
 30
0.0
 10
27.4634455183
 20
-10.2370157057
 30
0.0
 10
27.4648290711
 20
-10.3752812885
 30
0.0
 10
27.4664087676
 20
-10.49765967
 30
0.0
 10
27.4680874731
 20
-10.6023139079
 30
0.0
 10
27.4700228099
 20
-10.6876125032
 30
0.0
 10
27.4716574247
 20
-10.752393275
 30
0.0
 10
27.474045377
 20
-10.7954019752
 30
0.0
 10
27.4749292278
 20
-10.8170148468
 30
0.0
 10
27.476452187
 20
-10.823875794
 30
0.0
 11
27.4599251916
 21
-9.3875974948
 31
0.0
 11
27.4601452886
 21
-9.5711572128
 31
0.0
 11
27.4606259965
 21
-9.7510104204
 31
0.0
 11
27.4613601305
 21
-9.9244425903
 31
0.0
 11
27.4623365041
 21
-10.0888106505
 31
0.0
 11
27.4635403834
 21
-10.2416329175
 31
0.0
 11
27.4649535913
 21
-10.3805998657
 31
0.0
 11
27.466554708
 21
-10.5036023798
 31
0.0
 11
27.4683194466
 21
-10.6087749017
 31
0.0
 11
27.4702211213
 21
-10.6945288735
 31
0.0
 11
27.4722310731
 21
-10.7595674925
 31
0.0
 11
27.4743185248
 21
-10.8029002011
 31
0.0
 11
27.476452187
 21
-10.823875794
 31
0.0
  0
SPLINE
  5
2C1
100
AcDbEntity
  8
RACCORDO
100
AcDbSpline
 62
253
  6
CONTINUOUS
 70
0
 71
3
 72
17
 73
13
 74
11
 42
0.0000001
 43
0.0000001
 44
0.0000000001
 12
-0.2999890615
 22
0.0000001894
 32
0.0
 13
-0.26854368
 23
0.1337076248
 33
0.0
 40
0.0
 40
0.0
 40
0.0
 40
0.0
 40
0.1546311843
 40
0.3056213721
 40
0.4492823827
 40
0.5821198924
 40
0.700942873
 40
0.8028799771
 40
0.8854741508
 40
0.9467442802
 40
0.985214922
 40
1.0
 40
1.0
 40
1.0
 40
1.0
 10
6.3342321009
 20
11.0268383889
 30
0.0
 10
6.3187695463
 20
11.0268383987
 30
0.0
 10
6.2882085697
 20
11.0268590247
 30
0.0
 10
6.2432818302
 20
11.0269502426
 30
0.0
 10
6.2005355081
 20
11.027102869
 30
0.0
 10
6.161002857
 20
11.0273009069
 30
0.0
 10
6.1256529922
 20
11.0275774934
 30
0.0
 10
6.0952972389
 20
11.0278072616
 30
0.0
 10
6.0707821292
 20
11.0283149473
 30
0.0
 10
6.0524045918
 20
11.0282324655
 30
0.0
 10
6.0412332243
 20
11.0293698014
 30
0.0
 10
6.0356013008
 20
11.0287517837
 30
0.0
 10
6.034277821
 20
11.0294107429
 30
0.0
 11
6.3342321009
 21
11.0268383889
 31
0.0
 11
6.2878444478
 21
11.0268698747
 31
0.0
 11
6.2425491401
 21
11.0269636461
 31
0.0
 11
6.1994526829
 21
11.0271174761
 31
0.0
 11
6.1596034373
 21
11.0273276483
 31
0.0
 11
6.1239588018
 21
11.0275891167
 31
0.0
 11
6.0933803212
 21
11.0278955677
 31
0.0
 11
6.0686053611
 21
11.0282396011
 31
0.0
 11
6.0502287847
 21
11.0286129527
 31
0.0
 11
6.0386947264
 21
11.0290065402
 31
0.0
 11
6.034277821
 21
11.0294107429
 31
0.0
  0
SPLINE
  5
2C2
100
AcDbEntity
  8
RACCORDO
100
AcDbSpline
 62
253
  6
CONTINUOUS
 70
0
 71
3
 72
11
 73
7
 74
5
 42
0.0000001
 43
0.0000001
 44
0.0000000001
 12
0.0002437993
 22
-20.1964757625
 32
0.0
 13
0.0145100748
 23
-20.1964705516
 33
0.0
 40
0.0
 40
0.0
 40
0.0
 40
0.0
 40
0.2500744181
 40
0.5001049868
 40
0.7500830172
 40
1.0
 40
1.0
 40
1.0
 40
1.0
 10
27.9524754338
 20
10.8294185033
 30
0.0
 10
27.9524957564
 20
9.1458778617
 30
0.0
 10
27.952833074
 20
5.7790917762
 30
0.0
 10
27.9542311041
 20
0.7294141186
 30
0.0
 10
27.9565199871
 20
-4.3192033341
 30
0.0
 10
27.9586402922
 20
-7.6845751929
 30
0.0
 10
27.9598490636
 20
-9.367055521
 30
0.0
 11
27.9524754338
 21
10.8294185033
 31
0.0
 11
27.9529818284
 21
5.7787966035
 31
0.0
 11
27.9543797749
 21
0.7290604767
 31
0.0
 11
27.9566688477
 21
-4.3196142361
 31
0.0
 11
27.9598490636
 21
-9.367055521
 31
0.0
  0
SPLINE
  5
2C3
100
AcDbEntity
  8
RACCORDO
100
AcDbSpline
 62
253
  6
CONTINUOUS
 70
0
 71
3
 72
19
 73
15
 74
13
 42
0.0000001
 43
0.0000001
 44
0.0000000001
 12
0.0006887042
 22
-0.9578832426
 32
0.0
 13
0.3025453754
 23
-0.9088493146
 33
0.0
 40
0.0
 40
0.0
 40
0.0
 40
0.0
 40
0.1277154689
 40
0.2528938267
 40
0.3736053495
 40
0.4880108521
 40
0.5943837456
 40
0.691117303
 40
0.7767445806
 40
0.8499684188
 40
0.9096858115
 40
0.9549999701
 40
0.9852364108
 40
1.0
 40
1.0
 40
1.0
 40
1.0
 10
27.9598490636
 20
-9.367055521
 30
0.0
 10
27.959878383
 20
-9.4078343568
 30
0.0
 10
27.9600224659
 20
-9.4885819071
 30
0.0
 10
27.9604968993
 20
-9.6078712027
 30
0.0
 10
27.9612211878
 20
-9.7229093295
 30
0.0
 10
27.9621831666
 20
-9.8319411998
 30
0.0
 10
27.9633691912
 20
-9.933313803
 30
0.0
 10
27.9647531673
 20
-10.0254961185
 30
0.0
 10
27.9663317805
 20
-10.1070836167
 30
0.0
 10
27.9680140136
 20
-10.176864026
 30
0.0
 10
27.96994017
 20
-10.233714629
 30
0.0
 10
27.9715982735
 20
-10.2769554724
 30
0.0
 10
27.9739415227
 20
-10.3055506725
 30
0.0
 10
27.974886949
 20
-10.3200874931
 30
0.0
 10
27.9763758342
 20
-10.3245601191
 30
0.0
 11
27.9598490636
 21
-9.367055521
 31
0.0
 11
27.9600690694
 21
-9.4893918622
 31
0.0
 11
27.9605497535
 21
-9.609297181
 31
0.0
 11
27.9612838621
 21
-9.7249224253
 31
0.0
 11
27.9622602388
 21
-9.8345052179
 31
0.0
 11
27.9634641334
 21
-9.9363909439
 31
0.0
 11
27.9648773788
 21
-10.0290396434
 31
0.0
 11
27.9664785535
 21
-10.1110449688
 31
0.0
 11
27.9682433584
 21
-10.1811626686
 31
0.0
 11
27.9701451165
 21
-10.2383333513
 31
0.0
 11
27.9721551075
 21
-10.2816924724
 31
0.0
 11
27.9742426905
 21
-10.3105801277
 31
0.0
 11
27.9763758342
 21
-10.3245601191
 31
0.0
  0
SPLINE
  5
2C4
100
AcDbEntity
  8
RACCORDO
100
AcDbSpline
 62
253
  6
CONTINUOUS
 70
0
 71
3
 72
19
 73
15
 74
13
 42
0.0000001
 43
0.0000001
 44
0.0000000001
 12
0.3025453665
 22
0.9088493175
 32
0.0
 13
0.0006887042
 23
0.9578832426
 33
0.0
 40
0.0
 40
0.0
 40
0.0
 40
0.0
 40
0.0147635891
 40
0.0450000296
 40
0.0903141881
 40
0.1500315807
 40
0.2232554188
 40
0.3088826964
 40
0.4056162537
 40
0.5119891472
 40
0.6263946498
 40
0.7471061725
 40
0.8722845304
 40
1.0
 40
1.0
 40
1.0
 40
1.0
 10
5.8104075914
 20
-10.3245601191
 30
0.0
 10
5.8118964766
 20
-10.3200874931
 30
0.0
 10
5.812841903
 20
-10.3055506727
 30
0.0
 10
5.8151851521
 20
-10.2769554727
 30
0.0
 10
5.8168432556
 20
-10.2337146294
 30
0.0
 10
5.818769412
 20
-10.1768640265
 30
0.0
 10
5.8204516452
 20
-10.1070836172
 30
0.0
 10
5.8220302584
 20
-10.0254961191
 30
0.0
 10
5.8234142345
 20
-9.9333138036
 30
0.0
 10
5.824600259
 20
-9.8319412004
 30
0.0
 10
5.8255622378
 20
-9.7229093302
 30
0.0
 10
5.8262865263
 20
-9.6078712034
 30
0.0
 10
5.8267609597
 20
-9.4885819076
 30
0.0
 10
5.8269050427
 20
-9.407834357
 30
0.0
 10
5.8269343621
 20
-9.367055521
 30
0.0
 11
5.8104075914
 21
-10.3245601191
 31
0.0
 11
5.8125407352
 21
-10.3105801278
 31
0.0
 11
5.8146283182
 21
-10.2816924726
 31
0.0
 11
5.8166383091
 21
-10.2383333517
 31
0.0
 11
5.8185400673
 21
-10.1811626691
 31
0.0
 11
5.8203048722
 21
-10.1110449693
 31
0.0
 11
5.8219060468
 21
-10.029039644
 31
0.0
 11
5.8233192922
 21
-9.9363909445
 31
0.0
 11
5.8245231868
 21
-9.8345052185
 31
0.0
 11
5.8254995636
 21
-9.724922426
 31
0.0
 11
5.8262336721
 21
-9.6092971817
 31
0.0
 11
5.8267143563
 21
-9.4893918629
 31
0.0
 11
5.8269343621
 21
-9.367055521
 31
0.0
  0
SPLINE
  5
2C5
100
AcDbEntity
  8
RACCORDO
100
AcDbSpline
 62
253
  6
CONTINUOUS
 70
0
 71
3
 72
11
 73
7
 74
5
 42
0.0000001
 43
0.0000001
 44
0.0000000001
 12
0.0145100748
 22
20.1964705516
 32
0.0
 13
0.0002437993
 23
20.1964757625
 33
0.0
 40
0.0
 40
0.0
 40
0.0
 40
0.0
 40
0.2499169828
 40
0.4998950132
 40
0.7499255819
 40
1.0
 40
1.0
 40
1.0
 40
1.0
 10
5.8269343621
 20
-9.367055521
 30
0.0
 10
5.8281431334
 20
-7.6845751929
 30
0.0
 10
5.8302634386
 20
-4.3192033341
 30
0.0
 10
5.8325523216
 20
0.7294141186
 30
0.0
 10
5.8339503517
 20
5.7790917762
 30
0.0
 10
5.8342876692
 20
9.1458778617
 30
0.0
 10
5.8343079919
 20
10.8294185033
 30
0.0
 11
5.8269343621
 21
-9.367055521
 31
0.0
 11
5.8301145779
 21
-4.3196142361
 31
0.0
 11
5.8324036508
 21
0.7290604767
 31
0.0
 11
5.8338015973
 21
5.7787966035
 31
0.0
 11
5.8343079919
 21
10.8294185033
 31
0.0
  0
SPLINE
  5
2C6
100
AcDbEntity
  8
ASSI
100
AcDbSpline
 62
253
  6
CONTINUOUS
 70
0
 71
3
 72
17
 73
13
 74
11
 42
0.0000001
 43
0.0000001
 44
0.0000000001
 12
-0.2685436887
 22
-0.1337076075
 32
0.0
 13
-0.2999890615
 23
-0.0000001894
 33
0.0
 40
0.0
 40
0.0
 40
0.0
 40
0.0
 40
0.0147850775
 40
0.053255719
 40
0.114525848
 40
0.1971200214
 40
0.2990571251
 40
0.4178801055
 40
0.5507176149
 40
0.6943786252
 40
0.8453688129
 40
1.0
 40
1.0
 40
1.0
 40
1.0
 10
27.7525056046
 20
11.0294107429
 30
0.0
 10
27.7511821249
 20
11.0287517838
 30
0.0
 10
27.7455502016
 20
11.0293698013
 30
0.0
 10
27.734378834
 20
11.0282324656
 30
0.0
 10
27.7160012969
 20
11.0283149473
 30
0.0
 10
27.6914861872
 20
11.0278072616
 30
0.0
 10
27.661130434
 20
11.0275774934
 30
0.0
 10
27.6257805693
 20
11.027300907
 30
0.0
 10
27.5862479183
 20
11.027102869
 30
0.0
 10
27.5435015963
 20
11.0269502426
 30
0.0
 10
27.4985748565
 20
11.0268590247
 30
0.0
 10
27.4680138796
 20
11.0268383987
 30
0.0
 10
27.4525513247
 20
11.0268383889
 30
0.0
 11
27.7525056046
 21
11.0294107429
 31
0.0
 11
27.7480886994
 21
11.0290065402
 31
0.0
 11
27.7365546412
 21
11.0286129527
 31
0.0
 11
27.7181780649
 21
11.0282396011
 31
0.0
 11
27.6934031049
 21
11.0278955677
 31
0.0
 11
27.6628246244
 21
11.0275891167
 31
0.0
 11
27.627179989
 21
11.0273276483
 31
0.0
 11
27.5873307435
 21
11.0271174761
 31
0.0
 11
27.5442342864
 21
11.0269636461
 31
0.0
 11
27.4989389787
 21
11.0268698747
 31
0.0
 11
27.4525513247
 21
11.0268383889
 31
0.0
  0
SPLINE
  5
2C7
100
AcDbEntity
  8
ASSI
100
AcDbSpline
 62
253
  6
CONTINUOUS
 70
0
 71
3
 72
11
 73
7
 74
5
 42
0.0000001
 43
0.0000001
 44
0.0000000001
 12
0.0002454385
 22
-20.214305979
 32
0.0
 13
0.014508362
 23
-20.214300774
 33
0.0
 40
0.0
 40
0.0
 40
0.0
 40
0.0
 40
0.2500750461
 40
0.5001057347
 40
0.7500838832
 40
1.0
 40
1.0
 40
1.0
 40
1.0
 10
27.4525348521
 20
10.826706746
 30
0.0
 10
27.4525553114
 20
9.1416755798
 30
0.0
 10
27.4529173774
 20
5.7719121309
 30
0.0
 10
27.4543056303
 20
0.7177705894
 30
0.0
 10
27.4565970905
 20
-4.3352997444
 30
0.0
 10
27.4587165786
 20
-7.7036376436
 30
0.0
 10
27.4599252031
 20
-9.3875974949
 30
0.0
 11
27.4525348521
 21
10.826706746
 31
0.0
 11
27.4530583165
 21
5.771613274
 31
0.0
 11
27.4544563605
 21
0.7174166234
 31
0.0
 11
27.4567453213
 21
-4.3357176408
 31
0.0
 11
27.4599252031
 21
-9.3875974949
 31
0.0
  0
SPLINE
  5
2C8
100
AcDbEntity
  8
ASSI
100
AcDbSpline
 62
253
  6
CONTINUOUS
 70
0
 71
3
 72
11
 73
7
 74
5
 42
0.0000001
 43
0.0000001
 44
0.0000000001
 12
0.014508362
 22
20.2143007745
 32
0.0
 13
0.0002454385
 23
20.2143059795
 33
0.0
 40
0.0
 40
0.0
 40
0.0
 40
0.0
 40
0.2499161168
 40
0.4998942654
 40
0.749924954
 40
1.0
 40
1.0
 40
1.0
 40
1.0
 10
6.3268582225
 20
-9.3875974954
 30
0.0
 10
6.328066847
 20
-7.703637644
 30
0.0
 10
6.3301863352
 20
-4.3352997445
 30
0.0
 10
6.3324777954
 20
0.7177705894
 30
0.0
 10
6.3338660482
 20
5.7719121309
 30
0.0
 10
6.3342281144
 20
9.1416755798
 30
0.0
 10
6.3342485737
 20
10.826706746
 30
0.0
 11
6.3268582225
 21
-9.3875974954
 31
0.0
 11
6.3300381043
 21
-4.3357176408
 31
0.0
 11
6.3323270652
 21
0.7174166234
 31
0.0
 11
6.3337251091
 21
5.771613274
 31
0.0
 11
6.3342485737
 21
10.826706746
 31
0.0
  0
SPLINE
  5
2C9
100
AcDbEntity
  8
ASSI
100
AcDbSpline
 62
253
  6
CONTINUOUS
 70
0
 71
3
 72
16
 73
12
 74
10
 42
0.0000001
 43
0.0000001
 44
0.0000000001
 12
0.1956190744
 22
-0.4614183123
 32
0.0
 13
0.501172178
 23
-0.0003594563
 33
0.0
 40
0.0
 40
0.0
 40
0.0
 40
0.0
 40
0.0191520824
 40
0.0665681378
 40
0.1414824155
 40
0.241789643
 40
0.3645557801
 40
0.506157455
 40
0.6624027643
 40
0.8286605242
 40
1.0
 40
1.0
 40
1.0
 40
1.0
 10
5.8269343621
 20
-9.367055521
 30
0.0
 10
5.8281831996
 20
-9.3700012281
 30
0.0
 10
5.8421176074
 20
-9.3708412076
 30
0.0
 10
5.8629566327
 20
-9.3752682512
 30
0.0
 10
5.9014210078
 20
-9.3774691579
 30
0.0
 10
5.9505521993
 20
-9.3805683038
 30
0.0
 10
6.0116362498
 20
-9.3828863405
 30
0.0
 10
6.0818057377
 20
-9.3849273652
 30
0.0
 10
6.1593461146
 20
-9.3864127937
 30
0.0
 10
6.2418349758
 20
-9.3873601562
 30
0.0
 10
6.2982346836
 20
-9.3875974596
 30
0.0
 10
6.3268582097
 20
-9.3876179893
 30
0.0
 11
5.8269343621
 21
-9.367055521
 31
0.0
 11
5.8358594141
 21
-9.3705874496
 31
0.0
 11
5.8593746257
 21
-9.3740144261
 31
0.0
 11
5.896781236
 21
-9.3772346168
 31
0.0
 11
5.9469676978
 21
-9.380152333
 31
0.0
 11
6.008442707
 21
-9.382680874
 31
0.0
 11
6.0793795173
 21
-9.3847451034
 31
0.0
 11
6.1576702227
 21
-9.3862836823
 31
0.0
 11
6.240988394
 21
-9.3872508912
 31
0.0
 11
6.3268582097
 21
-9.3876179893
 31
0.0
  0
SPLINE
  5
2CA
100
AcDbEntity
  8
ASSI
100
AcDbSpline
 62
253
  6
CONTINUOUS
 70
0
 71
3
 72
17
 73
13
 74
11
 42
0.0000001
 43
0.0000001
 44
0.0000000001
 12
-0.4999637532
 22
0.0000027639
 32
0.0
 13
-0.4767936667
 23
0.150437874
 33
0.0
 40
0.0
 40
0.0
 40
0.0
 40
0.0
 40
0.1547342773
 40
0.3057145613
 40
0.4493652869
 40
0.5821875536
 40
0.7009933017
 40
0.8029183016
 40
0.8855064056
 40
0.9467746685
 40
0.9852386123
 40
1.0
 40
1.0
 40
1.0
 40
1.0
 10
6.3342485737
 20
10.8267067389
 30
0.0
 10
6.3084613971
 20
10.8267068814
 30
0.0
 10
6.2575126988
 20
10.8267288786
 30
0.0
 10
6.1826238041
 20
10.8268253041
 30
0.0
 10
6.1113874744
 20
10.8269867001
 30
0.0
 10
6.0455109751
 20
10.8271948103
 30
0.0
 10
5.986596082
 20
10.8274889897
 30
0.0
 10
5.9360305403
 20
10.8277236152
 30
0.0
 10
5.8951175301
 20
10.8282791436
 30
0.0
 10
5.8646250355
 20
10.8281430542
 30
0.0
 10
5.8457527849
 20
10.8294326818
 30
0.0
 10
5.8366540376
 20
10.8286782255
 30
0.0
 10
5.8343079922
 20
10.8294184494
 30
0.0
 11
6.3342485737
 21
10.8267067389
 31
0.0
 11
6.256887051
 21
10.826740319
 31
0.0
 11
6.1814024467
 21
10.8268394875
 31
0.0
 11
6.1095824744
 21
10.8270019034
 31
0.0
 11
6.0431765255
 21
10.8272236139
 31
0.0
 11
5.9837785976
 21
10.8274992923
 31
0.0
 11
5.9328208157
 21
10.8278222805
 31
0.0
 11
5.8915313484
 21
10.8281847732
 31
0.0
 11
5.8609019628
 21
10.8285780812
 31
0.0
 11
5.8416758523
 21
10.8289925613
 31
0.0
 11
5.8343079922
 21
10.8294184494
 31
0.0
  0
SPLINE
  5
2CB
100
AcDbEntity
  8
ASSI
100
AcDbSpline
 62
253
  6
CONTINUOUS
 70
0
 71
3
 72
17
 73
13
 74
11
 42
0.0000001
 43
0.0000001
 44
0.0000000001
 12
-0.4767936648
 22
-0.1504378796
 32
0.0
 13
-0.4999637531
 23
-0.0000027639
 33
0.0
 40
0.0
 40
0.0
 40
0.0
 40
0.0
 40
0.0147613872
 40
0.0532253307
 40
0.1144935933
 40
0.1970816969
 40
0.2990066965
 40
0.4178124444
 40
0.5506347109
 40
0.6942854364
 40
0.8452657197
 40
1.0
 40
1.0
 40
1.0
 40
1.0
 10
27.9524754335
 20
10.8294184494
 30
0.0
 10
27.9501293882
 20
10.8286782255
 30
0.0
 10
27.941030641
 20
10.8294326818
 30
0.0
 10
27.9221583905
 20
10.8281430542
 30
0.0
 10
27.8916658961
 20
10.8282791436
 30
0.0
 10
27.8507528861
 20
10.8277236152
 30
0.0
 10
27.8001873446
 20
10.8274889898
 30
0.0
 10
27.7412724516
 20
10.8271948103
 30
0.0
 10
27.6753959524
 20
10.8269867001
 30
0.0
 10
27.6041596229
 20
10.8268253041
 30
0.0
 10
27.5292707279
 20
10.8267288786
 30
0.0
 10
27.4783220292
 20
10.8267068814
 30
0.0
 10
27.4525348521
 20
10.8267067389
 30
0.0
 11
27.9524754335
 21
10.8294184494
 31
0.0
 11
27.9451075736
 21
10.8289925613
 31
0.0
 11
27.9258814632
 21
10.8285780812
 31
0.0
 11
27.8952520778
 21
10.8281847732
 31
0.0
 11
27.8539626108
 21
10.8278222805
 31
0.0
 11
27.803004829
 21
10.8274992923
 31
0.0
 11
27.7436069012
 21
10.8272236139
 31
0.0
 11
27.6772009525
 21
10.8270019034
 31
0.0
 11
27.6053809802
 21
10.8268394875
 31
0.0
 11
27.5298963763
 21
10.826740319
 31
0.0
 11
27.4525348521
 21
10.8267067389
 31
0.0
  0
SPLINE
  5
2CC
100
AcDbEntity
  8
ASSI
100
AcDbSpline
 62
253
  6
CONTINUOUS
 70
0
 71
3
 72
16
 73
12
 74
10
 42
0.0000001
 43
0.0000001
 44
0.0000000001
 12
-0.1956255021
 22
-0.4614155811
 32
0.0
 13
-0.5011721724
 23
-0.000359454
 33
0.0
 40
0.0
 40
0.0
 40
0.0
 40
0.0
 40
0.0191521757
 40
0.0665683036
 40
0.1414826259
 40
0.2417898699
 40
0.3645559974
 40
0.5061576398
 40
0.6624028983
 40
0.8286605946
 40
1.0
 40
1.0
 40
1.0
 40
1.0
 10
27.9598490636
 20
-9.367055521
 30
0.0
 10
27.9586001789
 20
-9.3700012251
 30
0.0
 10
27.9446658081
 20
-9.3708412035
 30
0.0
 10
27.9238266861
 20
-9.3752682439
 30
0.0
 10
27.8853623232
 20
-9.3774691514
 30
0.0
 10
27.8362311089
 20
-9.380568294
 30
0.0
 10
27.7751470687
 20
-9.3828863291
 30
0.0
 10
27.7049775953
 20
-9.3849273517
 30
0.0
 10
27.6274372443
 20
-9.3864127787
 30
0.0
 10
27.5449484147
 20
-9.38736014
 30
0.0
 10
27.48854873
 20
-9.387597443
 30
0.0
 10
27.459925216
 20
-9.3876179725
 30
0.0
 11
27.9598490636
 21
-9.367055521
 31
0.0
 11
27.9509239606
 21
-9.3705874477
 31
0.0
 11
27.9274087122
 21
-9.374014422
 31
0.0
 11
27.8900020797
 21
-9.3772346103
 31
0.0
 11
27.8398156101
 21
-9.3801523241
 31
0.0
 11
27.7783406063
 21
-9.3826808628
 31
0.0
 11
27.707403813
 21
-9.3847450902
 31
0.0
 11
27.6291131339
 21
-9.3862836674
 31
0.0
 11
27.5457949954
 21
-9.3872508751
 31
0.0
 11
27.459925216
 21
-9.3876179725
 31
0.0
  0
SPLINE
  5
2CD
100
AcDbEntity
  8
ASSI
100
AcDbSpline
 62
253
  6
CONTINUOUS
 70
0
 71
3
 72
19
 73
15
 74
13
 42
0.0000001
 43
0.0000001
 44
0.0000000001
 12
0.3112970811
 22
1.4023966309
 32
0.0
 13
0.0006887534
 23
1.4365311374
 33
0.0
 40
0.0
 40
0.0
 40
0.0
 40
0.0
 40
0.0146769045
 40
0.0448767047
 40
0.0901730857
 40
0.1498829261
 40
0.2231060618
 40
0.3087379823
 40
0.4054808333
 40
0.5118669653
 40
0.6262890873
 40
0.7470199919
 40
0.8722200831
 40
1.0
 40
1.0
 40
1.0
 40
1.0
 10
6.3103312386
 20
-10.823875794
 30
0.0
 10
6.3118541978
 20
-10.8170148469
 30
0.0
 10
6.3127380486
 20
-10.7954019754
 30
0.0
 10
6.3151260009
 20
-10.7523932754
 30
0.0
 10
6.3167606157
 20
-10.6876125037
 30
0.0
 10
6.3186959526
 20
-10.6023139086
 30
0.0
 10
6.3203746581
 20
-10.4976596708
 30
0.0
 10
6.3219543546
 20
-10.3752812894
 30
0.0
 10
6.3233379074
 20
-10.2370157066
 30
0.0
 10
6.3245240313
 20
-10.084963173
 30
0.0
 10
6.32548596
 20
-9.921421923
 30
0.0
 10
6.326210294
 20
-9.7488705515
 30
0.0
 10
6.3266847877
 20
-9.5699219673
 30
0.0
 10
6.3268288978
 20
-9.4487841051
 30
0.0
 10
6.3268582341
 20
-9.3875974954
 30
0.0
 11
6.3103312386
 21
-10.823875794
 31
0.0
 11
6.3124649008
 21
-10.8029002013
 31
0.0
 11
6.3145523525
 21
-10.759567493
 31
0.0
 11
6.3165623044
 21
-10.694528874
 31
0.0
 11
6.3184639791
 21
-10.6087749024
 31
0.0
 11
6.3202287176
 21
-10.5036023805
 31
0.0
 11
6.3218298343
 21
-10.3805998666
 31
0.0
 11
6.3232430422
 21
-10.2416329184
 31
0.0
 11
6.3244469215
 21
-10.0888106515
 31
0.0
 11
6.3254232952
 21
-9.9244425914
 31
0.0
 11
6.3261574291
 21
-9.7510104215
 31
0.0
 11
6.3266381371
 21
-9.5711572138
 31
0.0
 11
6.3268582341
 21
-9.3875974954
 31
0.0
  0
SPLINE
  5
2CE
100
AcDbEntity
  8
ASSI
100
AcDbSpline
 62
253
  6
CONTINUOUS
 70
0
 71
3
 72
19
 73
15
 74
13
 42
0.0000001
 43
0.0000001
 44
0.0000000001
 12
0.0006887534
 22
-1.4365311378
 32
0.0
 13
0.3112970789
 23
-1.4023966318
 33
0.0
 40
0.0
 40
0.0
 40
0.0
 40
0.0
 40
0.1277799165
 40
0.2529800076
 40
0.3737109122
 40
0.4881330342
 40
0.5945191662
 40
0.6912620172
 40
0.7768939378
 40
0.8501170735
 40
0.9098269139
 40
0.9551232951
 40
0.9853230954
 40
1.0
 40
1.0
 40
1.0
 40
1.0
 10
27.4599251916
 20
-9.3875974948
 30
0.0
 10
27.4599545278
 20
-9.4487841045
 30
0.0
 10
27.4600986379
 20
-9.5699219664
 30
0.0
 10
27.4605731316
 20
-9.7488705505
 30
0.0
 10
27.4612974657
 20
-9.921421922
 30
0.0
 10
27.4622593944
 20
-10.084963172
 30
0.0
 10
27.4634455183
 20
-10.2370157057
 30
0.0
 10
27.4648290711
 20
-10.3752812885
 30
0.0
 10
27.4664087676
 20
-10.49765967
 30
0.0
 10
27.4680874731
 20
-10.6023139079
 30
0.0
 10
27.4700228099
 20
-10.6876125032
 30
0.0
 10
27.4716574247
 20
-10.752393275
 30
0.0
 10
27.474045377
 20
-10.7954019752
 30
0.0
 10
27.4749292278
 20
-10.8170148468
 30
0.0
 10
27.476452187
 20
-10.823875794
 30
0.0
 11
27.4599251916
 21
-9.3875974948
 31
0.0
 11
27.4601452886
 21
-9.5711572128
 31
0.0
 11
27.4606259965
 21
-9.7510104204
 31
0.0
 11
27.4613601305
 21
-9.9244425903
 31
0.0
 11
27.4623365041
 21
-10.0888106505
 31
0.0
 11
27.4635403834
 21
-10.2416329175
 31
0.0
 11
27.4649535913
 21
-10.3805998657
 31
0.0
 11
27.466554708
 21
-10.5036023798
 31
0.0
 11
27.4683194466
 21
-10.6087749017
 31
0.0
 11
27.4702211213
 21
-10.6945288735
 31
0.0
 11
27.4722310731
 21
-10.7595674925
 31
0.0
 11
27.4743185248
 21
-10.8029002011
 31
0.0
 11
27.476452187
 21
-10.823875794
 31
0.0
  0
SPLINE
  5
2CF
100
AcDbEntity
  8
ASSI
100
AcDbSpline
 62
253
  6
CONTINUOUS
 70
0
 71
3
 72
17
 73
13
 74
11
 42
0.0000001
 43
0.0000001
 44
0.0000000001
 12
-0.2999890615
 22
0.0000001894
 32
0.0
 13
-0.26854368
 23
0.1337076248
 33
0.0
 40
0.0
 40
0.0
 40
0.0
 40
0.0
 40
0.1546311843
 40
0.3056213721
 40
0.4492823827
 40
0.5821198924
 40
0.700942873
 40
0.8028799771
 40
0.8854741508
 40
0.9467442802
 40
0.985214922
 40
1.0
 40
1.0
 40
1.0
 40
1.0
 10
6.3342321009
 20
11.0268383889
 30
0.0
 10
6.3187695463
 20
11.0268383987
 30
0.0
 10
6.2882085697
 20
11.0268590247
 30
0.0
 10
6.2432818302
 20
11.0269502426
 30
0.0
 10
6.2005355081
 20
11.027102869
 30
0.0
 10
6.161002857
 20
11.0273009069
 30
0.0
 10
6.1256529922
 20
11.0275774934
 30
0.0
 10
6.0952972389
 20
11.0278072616
 30
0.0
 10
6.0707821292
 20
11.0283149473
 30
0.0
 10
6.0524045918
 20
11.0282324655
 30
0.0
 10
6.0412332243
 20
11.0293698014
 30
0.0
 10
6.0356013008
 20
11.0287517837
 30
0.0
 10
6.034277821
 20
11.0294107429
 30
0.0
 11
6.3342321009
 21
11.0268383889
 31
0.0
 11
6.2878444478
 21
11.0268698747
 31
0.0
 11
6.2425491401
 21
11.0269636461
 31
0.0
 11
6.1994526829
 21
11.0271174761
 31
0.0
 11
6.1596034373
 21
11.0273276483
 31
0.0
 11
6.1239588018
 21
11.0275891167
 31
0.0
 11
6.0933803212
 21
11.0278955677
 31
0.0
 11
6.0686053611
 21
11.0282396011
 31
0.0
 11
6.0502287847
 21
11.0286129527
 31
0.0
 11
6.0386947264
 21
11.0290065402
 31
0.0
 11
6.034277821
 21
11.0294107429
 31
0.0
  0
SPLINE
  5
2D0
100
AcDbEntity
  8
ASSI
100
AcDbSpline
 62
253
  6
CONTINUOUS
 70
0
 71
3
 72
11
 73
7
 74
5
 42
0.0000001
 43
0.0000001
 44
0.0000000001
 12
0.0002437993
 22
-20.1964757625
 32
0.0
 13
0.0145100748
 23
-20.1964705516
 33
0.0
 40
0.0
 40
0.0
 40
0.0
 40
0.0
 40
0.2500744181
 40
0.5001049868
 40
0.7500830172
 40
1.0
 40
1.0
 40
1.0
 40
1.0
 10
27.9524754338
 20
10.8294185033
 30
0.0
 10
27.9524957564
 20
9.1458778617
 30
0.0
 10
27.952833074
 20
5.7790917762
 30
0.0
 10
27.9542311041
 20
0.7294141186
 30
0.0
 10
27.9565199871
 20
-4.3192033341
 30
0.0
 10
27.9586402922
 20
-7.6845751929
 30
0.0
 10
27.9598490636
 20
-9.367055521
 30
0.0
 11
27.9524754338
 21
10.8294185033
 31
0.0
 11
27.9529818284
 21
5.7787966035
 31
0.0
 11
27.9543797749
 21
0.7290604767
 31
0.0
 11
27.9566688477
 21
-4.3196142361
 31
0.0
 11
27.9598490636
 21
-9.367055521
 31
0.0
  0
SPLINE
  5
2D1
100
AcDbEntity
  8
ASSI
100
AcDbSpline
 62
253
  6
CONTINUOUS
 70
0
 71
3
 72
19
 73
15
 74
13
 42
0.0000001
 43
0.0000001
 44
0.0000000001
 12
0.0006887042
 22
-0.9578832426
 32
0.0
 13
0.3025453754
 23
-0.9088493146
 33
0.0
 40
0.0
 40
0.0
 40
0.0
 40
0.0
 40
0.1277154689
 40
0.2528938267
 40
0.3736053495
 40
0.4880108521
 40
0.5943837456
 40
0.691117303
 40
0.7767445806
 40
0.8499684188
 40
0.9096858115
 40
0.9549999701
 40
0.9852364108
 40
1.0
 40
1.0
 40
1.0
 40
1.0
 10
27.9598490636
 20
-9.367055521
 30
0.0
 10
27.959878383
 20
-9.4078343568
 30
0.0
 10
27.9600224659
 20
-9.4885819071
 30
0.0
 10
27.9604968993
 20
-9.6078712027
 30
0.0
 10
27.9612211878
 20
-9.7229093295
 30
0.0
 10
27.9621831666
 20
-9.8319411998
 30
0.0
 10
27.9633691912
 20
-9.933313803
 30
0.0
 10
27.9647531673
 20
-10.0254961185
 30
0.0
 10
27.9663317805
 20
-10.1070836167
 30
0.0
 10
27.9680140136
 20
-10.176864026
 30
0.0
 10
27.96994017
 20
-10.233714629
 30
0.0
 10
27.9715982735
 20
-10.2769554724
 30
0.0
 10
27.9739415227
 20
-10.3055506725
 30
0.0
 10
27.974886949
 20
-10.3200874931
 30
0.0
 10
27.9763758342
 20
-10.3245601191
 30
0.0
 11
27.9598490636
 21
-9.367055521
 31
0.0
 11
27.9600690694
 21
-9.4893918622
 31
0.0
 11
27.9605497535
 21
-9.609297181
 31
0.0
 11
27.9612838621
 21
-9.7249224253
 31
0.0
 11
27.9622602388
 21
-9.8345052179
 31
0.0
 11
27.9634641334
 21
-9.9363909439
 31
0.0
 11
27.9648773788
 21
-10.0290396434
 31
0.0
 11
27.9664785535
 21
-10.1110449688
 31
0.0
 11
27.9682433584
 21
-10.1811626686
 31
0.0
 11
27.9701451165
 21
-10.2383333513
 31
0.0
 11
27.9721551075
 21
-10.2816924724
 31
0.0
 11
27.9742426905
 21
-10.3105801277
 31
0.0
 11
27.9763758342
 21
-10.3245601191
 31
0.0
  0
SPLINE
  5
2D2
100
AcDbEntity
  8
ASSI
100
AcDbSpline
 62
253
  6
CONTINUOUS
 70
0
 71
3
 72
19
 73
15
 74
13
 42
0.0000001
 43
0.0000001
 44
0.0000000001
 12
0.3025453665
 22
0.9088493175
 32
0.0
 13
0.0006887042
 23
0.9578832426
 33
0.0
 40
0.0
 40
0.0
 40
0.0
 40
0.0
 40
0.0147635891
 40
0.0450000296
 40
0.0903141881
 40
0.1500315807
 40
0.2232554188
 40
0.3088826964
 40
0.4056162537
 40
0.5119891472
 40
0.6263946498
 40
0.7471061725
 40
0.8722845304
 40
1.0
 40
1.0
 40
1.0
 40
1.0
 10
5.8104075914
 20
-10.3245601191
 30
0.0
 10
5.8118964766
 20
-10.3200874931
 30
0.0
 10
5.812841903
 20
-10.3055506727
 30
0.0
 10
5.8151851521
 20
-10.2769554727
 30
0.0
 10
5.8168432556
 20
-10.2337146294
 30
0.0
 10
5.818769412
 20
-10.1768640265
 30
0.0
 10
5.8204516452
 20
-10.1070836172
 30
0.0
 10
5.8220302584
 20
-10.0254961191
 30
0.0
 10
5.8234142345
 20
-9.9333138036
 30
0.0
 10
5.824600259
 20
-9.8319412004
 30
0.0
 10
5.8255622378
 20
-9.7229093302
 30
0.0
 10
5.8262865263
 20
-9.6078712034
 30
0.0
 10
5.8267609597
 20
-9.4885819076
 30
0.0
 10
5.8269050427
 20
-9.407834357
 30
0.0
 10
5.8269343621
 20
-9.367055521
 30
0.0
 11
5.8104075914
 21
-10.3245601191
 31
0.0
 11
5.8125407352
 21
-10.3105801278
 31
0.0
 11
5.8146283182
 21
-10.2816924726
 31
0.0
 11
5.8166383091
 21
-10.2383333517
 31
0.0
 11
5.8185400673
 21
-10.1811626691
 31
0.0
 11
5.8203048722
 21
-10.1110449693
 31
0.0
 11
5.8219060468
 21
-10.029039644
 31
0.0
 11
5.8233192922
 21
-9.9363909445
 31
0.0
 11
5.8245231868
 21
-9.8345052185
 31
0.0
 11
5.8254995636
 21
-9.724922426
 31
0.0
 11
5.8262336721
 21
-9.6092971817
 31
0.0
 11
5.8267143563
 21
-9.4893918629
 31
0.0
 11
5.8269343621
 21
-9.367055521
 31
0.0
  0
SPLINE
  5
2D3
100
AcDbEntity
  8
ASSI
100
AcDbSpline
 62
253
  6
CONTINUOUS
 70
0
 71
3
 72
11
 73
7
 74
5
 42
0.0000001
 43
0.0000001
 44
0.0000000001
 12
0.0145100748
 22
20.1964705516
 32
0.0
 13
0.0002437993
 23
20.1964757625
 33
0.0
 40
0.0
 40
0.0
 40
0.0
 40
0.0
 40
0.2499169828
 40
0.4998950132
 40
0.7499255819
 40
1.0
 40
1.0
 40
1.0
 40
1.0
 10
5.8269343621
 20
-9.367055521
 30
0.0
 10
5.8281431334
 20
-7.6845751929
 30
0.0
 10
5.8302634386
 20
-4.3192033341
 30
0.0
 10
5.8325523216
 20
0.7294141186
 30
0.0
 10
5.8339503517
 20
5.7790917762
 30
0.0
 10
5.8342876692
 20
9.1458778617
 30
0.0
 10
5.8343079919
 20
10.8294185033
 30
0.0
 11
5.8269343621
 21
-9.367055521
 31
0.0
 11
5.8301145779
 21
-4.3196142361
 31
0.0
 11
5.8324036508
 21
0.7290604767
 31
0.0
 11
5.8338015973
 21
5.7787966035
 31
0.0
 11
5.8343079919
 21
10.8294185033
 31
0.0
  0
LINE
  5
2D4
100
AcDbEntity
  8
RACCORDO
100
AcDbLine
 62
253
  6
CONTINUOUS
 10
-8.5179253213
 20
10.8294184494
 11
-9.0092139752
 21
10.8267067389
  0
SPLINE
  5
2D5
100
AcDbEntity
  8
RACCORDO
100
AcDbSpline
 62
253
  6
CONTINUOUS
 70
0
 71
3
 72
16
 73
12
 74
10
 42
0.0000001
 43
0.0000001
 44
0.0000000001
 12
-0.0261495538
 22
-0.4991152339
 32
0.0
 13
0.4991148176
 23
-0.0261574992
 33
0.0
 40
0.0
 40
0.0
 40
0.0
 40
0.0
 40
0.1736040235
 40
0.3419132088
 40
0.4998212985
 40
0.6425380909
 40
0.7657352311
 40
0.8656785076
 40
0.939343881
 40
0.9845206607
 40
1.0
 40
1.0
 40
1.0
 40
1.0
 10
-7.1486722959
 20
-10.3245601191
 30
0.0
 10
-7.1501855185
 20
-10.3534429233
 30
0.0
 10
-7.1530828875
 20
-10.4103355415
 30
0.0
 10
-7.15704703
 20
-10.4934963112
 30
0.0
 10
-7.160546894
 20
-10.5715925682
 30
0.0
 10
-7.1632878583
 20
-10.6419889195
 30
0.0
 10
-7.1657787627
 20
-10.7033648755
 30
0.0
 10
-7.1662840279
 20
-10.7515367679
 30
0.0
 10
-7.1690608896
 20
-10.790946485
 30
0.0
 10
-7.165147183
 20
-10.8079734376
 30
0.0
 10
-7.1686893934
 20
-10.8237399195
 30
0.0
 10
-7.1661140708
 20
-10.8238748864
 30
0.0
 11
-7.1486722959
 21
-10.3245601191
 31
0.0
 11
-7.153079904
 21
-10.4112153498
 31
0.0
 11
-7.1570889106
 21
-10.4952406586
 31
0.0
 11
-7.1605776454
 21
-10.5740859397
 31
0.0
 11
-7.163440228
 21
-10.6453582973
 31
0.0
 11
-7.1655897809
 21
-10.7068946683
 31
0.0
 11
-7.1669610669
 21
-10.7568274695
 31
0.0
 11
-7.1675124686
 21
-10.7936412774
 31
0.0
 11
-7.1672272511
 21
-10.8162188202
 31
0.0
 11
-7.1661140708
 21
-10.8238748864
 31
0.0
  0
SPLINE
  5
2D6
100
AcDbEntity
  8
RACCORDO
100
AcDbSpline
 62
253
  6
CONTINUOUS
 70
0
 71
3
 72
14
 73
10
 74
8
 42
0.0000001
 43
0.0000001
 44
0.0000000001
 12
-0.0017453439
 22
0.2000572729
 32
0.0
 13
0.2000572683
 23
0.0017458733
 33
0.0
 40
0.0
 40
0.0
 40
0.0
 40
0.0
 40
0.222424496
 40
0.4336936618
 40
0.6232197302
 40
0.7815067321
 40
0.9006294012
 40
0.9746421145
 40
1.0
 40
1.0
 40
1.0
 40
1.0
 10
-8.51794194
 20
10.8294183583
 30
0.0
 10
-8.5180713424
 20
10.8442509043
 30
0.0
 10
-8.5182846713
 20
10.8731952169
 30
0.0
 10
-8.5183317039
 20
10.9146624499
 30
0.0
 10
-8.5184740857
 20
10.9522381668
 30
0.0
 10
-8.5176267435
 20
10.9825526038
 30
0.0
 10
-8.518686774
 20
11.0079852169
 30
0.0
 10
-8.5155254782
 20
11.018879165
 30
0.0
 10
-8.5178877756
 20
11.0293959857
 30
0.0
 10
-8.5161967658
 20
11.0294107429
 30
0.0
 11
-8.51794194
 21
10.8294183583
 31
0.0
 11
-8.5182426561
 21
10.8739166737
 31
0.0
 11
-8.5183533018
 21
10.9161840704
 31
0.0
 11
-8.5182683301
 21
10.9541014865
 31
0.0
 11
-8.5179920012
 21
10.9857679519
 31
0.0
 11
-8.5175381692
 21
11.0095958936
 31
0.0
 11
-8.516929587
 21
11.024390727
 31
0.0
 11
-8.5161967658
 21
11.0294107429
 31
0.0
  0
LINE
  5
2D7
100
AcDbEntity
  8
ASSI
100
AcDbLine
 62
253
  6
CONTINUOUS
 10
-8.5179253213
 20
10.8294184494
 11
-9.0092139752
 21
10.8267067389
  0
SPLINE
  5
2D8
100
AcDbEntity
  8
ASSI
100
AcDbSpline
 62
253
  6
CONTINUOUS
 70
0
 71
3
 72
16
 73
12
 74
10
 42
0.0000001
 43
0.0000001
 44
0.0000000001
 12
-0.0261495538
 22
-0.4991152339
 32
0.0
 13
0.4991148176
 23
-0.0261574992
 33
0.0
 40
0.0
 40
0.0
 40
0.0
 40
0.0
 40
0.1736040235
 40
0.3419132088
 40
0.4998212985
 40
0.6425380909
 40
0.7657352311
 40
0.8656785076
 40
0.939343881
 40
0.9845206607
 40
1.0
 40
1.0
 40
1.0
 40
1.0
 10
-7.1486722959
 20
-10.3245601191
 30
0.0
 10
-7.1501855185
 20
-10.3534429233
 30
0.0
 10
-7.1530828875
 20
-10.4103355415
 30
0.0
 10
-7.15704703
 20
-10.4934963112
 30
0.0
 10
-7.160546894
 20
-10.5715925682
 30
0.0
 10
-7.1632878583
 20
-10.6419889195
 30
0.0
 10
-7.1657787627
 20
-10.7033648755
 30
0.0
 10
-7.1662840279
 20
-10.7515367679
 30
0.0
 10
-7.1690608896
 20
-10.790946485
 30
0.0
 10
-7.165147183
 20
-10.8079734376
 30
0.0
 10
-7.1686893934
 20
-10.8237399195
 30
0.0
 10
-7.1661140708
 20
-10.8238748864
 30
0.0
 11
-7.1486722959
 21
-10.3245601191
 31
0.0
 11
-7.153079904
 21
-10.4112153498
 31
0.0
 11
-7.1570889106
 21
-10.4952406586
 31
0.0
 11
-7.1605776454
 21
-10.5740859397
 31
0.0
 11
-7.163440228
 21
-10.6453582973
 31
0.0
 11
-7.1655897809
 21
-10.7068946683
 31
0.0
 11
-7.1669610669
 21
-10.7568274695
 31
0.0
 11
-7.1675124686
 21
-10.7936412774
 31
0.0
 11
-7.1672272511
 21
-10.8162188202
 31
0.0
 11
-7.1661140708
 21
-10.8238748864
 31
0.0
  0
SPLINE
  5
2D9
100
AcDbEntity
  8
ASSI
100
AcDbSpline
 62
253
  6
CONTINUOUS
 70
0
 71
3
 72
14
 73
10
 74
8
 42
0.0000001
 43
0.0000001
 44
0.0000000001
 12
-0.0017453439
 22
0.2000572729
 32
0.0
 13
0.2000572683
 23
0.0017458733
 33
0.0
 40
0.0
 40
0.0
 40
0.0
 40
0.0
 40
0.222424496
 40
0.4336936618
 40
0.6232197302
 40
0.7815067321
 40
0.9006294012
 40
0.9746421145
 40
1.0
 40
1.0
 40
1.0
 40
1.0
 10
-8.51794194
 20
10.8294183583
 30
0.0
 10
-8.5180713424
 20
10.8442509043
 30
0.0
 10
-8.5182846713
 20
10.8731952169
 30
0.0
 10
-8.5183317039
 20
10.9146624499
 30
0.0
 10
-8.5184740857
 20
10.9522381668
 30
0.0
 10
-8.5176267435
 20
10.9825526038
 30
0.0
 10
-8.518686774
 20
11.0079852169
 30
0.0
 10
-8.5155254782
 20
11.018879165
 30
0.0
 10
-8.5178877756
 20
11.0293959857
 30
0.0
 10
-8.5161967658
 20
11.0294107429
 30
0.0
 11
-8.51794194
 21
10.8294183583
 31
0.0
 11
-8.5182426561
 21
10.8739166737
 31
0.0
 11
-8.5183533018
 21
10.9161840704
 31
0.0
 11
-8.5182683301
 21
10.9541014865
 31
0.0
 11
-8.5179920012
 21
10.9857679519
 31
0.0
 11
-8.5175381692
 21
11.0095958936
 31
0.0
 11
-8.516929587
 21
11.024390727
 31
0.0
 11
-8.5161967658
 21
11.0294107429
 31
0.0
  0
SPLINE
  5
2DA
100
AcDbEntity
  8
CURVE
100
AcDbSpline
 62
253
  6
CONTINUOUS
 70
0
 71
3
 72
9
 73
5
 74
3
 42
0.0000001
 43
0.0000001
 44
0.0000000001
 12
0.0202970634
 22
-0.8356875737
 32
0.0
 13
0.0229800802
 23
-0.8835504462
 33
0.0
 40
0.0
 40
0.0
 40
0.0
 40
0.0
 40
0.2802483145
 40
1.0
 40
1.0
 40
1.0
 40
1.0
 10
-8.8619091454
 20
-0.9661323717
 30
0.0
 10
-8.8600130728
 20
-1.0441990496
 30
0.0
 10
-8.8531124491
 20
-1.3256667622
 30
0.0
 10
-8.8458199284
 20
-1.6131706902
 30
0.0
 10
-8.8403066113
 20
-1.8251496645
 30
0.0
 11
-8.8619091454
 21
-0.9661323717
 31
0.0
 11
-8.8561145172
 21
-1.2024348327
 31
0.0
 11
-8.8403066113
 21
-1.8251496645
 31
0.0
  0
SPLINE
  5
2DB
100
AcDbEntity
  8
CURVE
100
AcDbSpline
 62
253
  6
CONTINUOUS
 70
0
 71
3
 72
9
 73
5
 74
3
 42
0.0000001
 43
0.0000001
 44
0.0000000001
 12
-0.022216436
 22
0.8031711835
 32
0.0
 13
-0.0220204811
 23
0.846655268
 33
0.0
 40
0.0
 40
0.0
 40
0.0
 40
0.0
 40
0.248784956
 40
1.0
 40
1.0
 40
1.0
 40
1.0
 10
-8.8181935221
 20
-2.6491991386
 30
0.0
 10
-8.8200358938
 20
-2.5825935028
 30
0.0
 10
-8.8274499664
 20
-2.3126480534
 30
0.0
 10
-8.8347925724
 20
-2.0371563893
 30
0.0
 10
-8.8403066113
 20
-1.8251496645
 30
0.0
 11
-8.8181935221
 21
-2.6491991386
 31
0.0
 11
-8.8237204899
 21
-2.4479334921
 31
0.0
 11
-8.8403066113
 21
-1.8251496645
 31
0.0
  0
ELLIPSE
  5
2DC
100
AcDbEntity
  8
RACCORDO
100
AcDbEllipse
 62
7
  6
CONTINUOUS
 10
9.6088617667
 20
-10.9578699901
 30
0.0
 11
0.2
 21
0.0
 31
0.0
 40
0.0524077793
 41
1.5707963268
 42
2.617993878
  0
ELLIPSE
  5
2DD
100
AcDbEntity
  8
RACCORDO
100
AcDbEllipse
 62
7
  6
CONTINUOUS
 10
12.977921659
 20
-10.9578699901
 30
0.0
 11
0.2
 21
0.0
 31
0.0
 40
0.0524077793
 41
0.5235987756
 42
1.5707963268
  0
ELLIPSE
  5
2DE
100
AcDbEntity
  8
RACCORDO
100
AcDbEllipse
 62
7
  6
CONTINUOUS
 10
20.8088617667
 20
-10.9578699901
 30
0.0
 11
0.2
 21
0.0
 31
0.0
 40
0.0524077793
 41
1.5707963268
 42
2.617993878
  0
ELLIPSE
  5
2DF
100
AcDbEntity
  8
RACCORDO
100
AcDbEllipse
 62
7
  6
CONTINUOUS
 10
24.177921659
 20
-10.9578699901
 30
0.0
 11
0.2
 21
0.0
 31
0.0
 40
0.0524077793
 41
0.5235987756
 42
1.5707963268
  0
ELLIPSE
  5
2E0
100
AcDbEntity
  8
RACCORDO
100
AcDbEllipse
 62
7
  6
CONTINUOUS
 10
27.8433612472
 20
10.8748427199
 30
0.0
 11
0.1789222233
 21
0.0894542984
 31
0.0
 40
0.9998096356
 41
-0.463541
 42
1.1071030278
  0
ELLIPSE
  5
2E1
100
AcDbEntity
  8
RACCORDO
100
AcDbEllipse
 62
7
  6
CONTINUOUS
 10
5.9434221784
 20
10.8748427199
 30
0.0
 11
0.1789222233
 21
-0.0894542984
 31
0.0
 40
0.9998096356
 41
2.0344896259
 42
3.6051336537
  0
ELLIPSE
  5
2E2
100
AcDbEntity
  8
RACCORDO
100
AcDbEllipse
 62
7
  6
CONTINUOUS
 10
27.5302420067
 20
-10.4860614087
 30
0.0
 11
0.498078285
 21
0.0448076117
 31
0.0
 40
0.9965957691
 41
-1.6608206152
 42
-0.0909376769
  0
ELLIPSE
  5
2E3
100
AcDbEntity
  8
RACCORDO
100
AcDbEllipse
 62
7
  6
CONTINUOUS
 10
6.256541419
 20
-10.4860614087
 30
0.0
 11
0.498078285
 21
-0.0448076117
 31
0.0
 40
0.9965957691
 41
-3.0506549766
 42
-1.4807720384
  0
ELLIPSE
  5
2E4
100
AcDbEntity
  8
ASSI
100
AcDbEllipse
 62
7
  6
CONTINUOUS
 10
9.6088617667
 20
-10.9578699901
 30
0.0
 11
0.2
 21
0.0
 31
0.0
 40
0.0524077793
 41
1.5707963268
 42
2.617993878
  0
ELLIPSE
  5
2E5
100
AcDbEntity
  8
ASSI
100
AcDbEllipse
 62
7
  6
CONTINUOUS
 10
12.977921659
 20
-10.9578699901
 30
0.0
 11
0.2
 21
0.0
 31
0.0
 40
0.0524077793
 41
0.5235987756
 42
1.5707963268
  0
ELLIPSE
  5
2E6
100
AcDbEntity
  8
ASSI
100
AcDbEllipse
 62
7
  6
CONTINUOUS
 10
20.8088617667
 20
-10.9578699901
 30
0.0
 11
0.2
 21
0.0
 31
0.0
 40
0.0524077793
 41
1.5707963268
 42
2.617993878
  0
ELLIPSE
  5
2E7
100
AcDbEntity
  8
ASSI
100
AcDbEllipse
 62
7
  6
CONTINUOUS
 10
24.177921659
 20
-10.9578699901
 30
0.0
 11
0.2
 21
0.0
 31
0.0
 40
0.0524077793
 41
0.5235987756
 42
1.5707963268
  0
ELLIPSE
  5
2E8
100
AcDbEntity
  8
ASSI
100
AcDbEllipse
 62
7
  6
CONTINUOUS
 10
27.8433612472
 20
10.8748427199
 30
0.0
 11
0.1789222233
 21
0.0894542984
 31
0.0
 40
0.9998096356
 41
-0.463541
 42
1.1071030278
  0
ELLIPSE
  5
2E9
100
AcDbEntity
  8
ASSI
100
AcDbEllipse
 62
7
  6
CONTINUOUS
 10
5.9434221784
 20
10.8748427199
 30
0.0
 11
0.1789222233
 21
-0.0894542984
 31
0.0
 40
0.9998096356
 41
2.0344896259
 42
3.6051336537
  0
ELLIPSE
  5
2EA
100
AcDbEntity
  8
ASSI
100
AcDbEllipse
 62
7
  6
CONTINUOUS
 10
27.5302420067
 20
-10.4860614087
 30
0.0
 11
0.498078285
 21
0.0448076117
 31
0.0
 40
0.9965957691
 41
-1.6608206152
 42
-0.0909376769
  0
ELLIPSE
  5
2EB
100
AcDbEntity
  8
ASSI
100
AcDbEllipse
 62
7
  6
CONTINUOUS
 10
6.256541419
 20
-10.4860614087
 30
0.0
 11
0.498078285
 21
-0.0448076117
 31
0.0
 40
0.9965957691
 41
-3.0506549766
 42
-1.4807720384
  0
ENDSEC
  0
SECTION
  2
OBJECTS
  0
DICTIONARY
  5
C
100
AcDbDictionary
280
0
281
1
  3
ACAD_GROUP
350
D
  3
ACAD_MLINESTYLE
350
17
  3
ACAD_LAYOUT
350
1A
  3
ACAD_PLOTSETTINGS
350
19
  3
ACAD_PLOTSTYLENAME
350
E
  0
DICTIONARY
  5
D
102
{ACAD_REACTORS
330
C
102
}
100
AcDbDictionary
280
0
281
1
  0
ACDBDICTIONARYWDFLT
  5
E
102
{ACAD_REACTORS
330
C
102
}
100
AcDbDictionary
281
1
  3
Normal
350
F
100
AcDbDictionaryWithDefault
340
F
  0
DICTIONARY
  5
17
102
{ACAD_REACTORS
330
C
102
}
100
AcDbDictionary
280
0
281
1
  3
Standard
350
18
  0
DICTIONARY
  5
19
102
{ACAD_REACTORS
330
C
102
}
100
AcDbDictionary
281
1
  0
DICTIONARY
  5
1A
102
{ACAD_REACTORS
330
C
102
}
100
AcDbDictionary
281
1
  3
Model
350
2EC
  3
Layout1
350
2ED
  0
ACDBPLACEHOLDER
  5
F
102
{ACAD_REACTORS
330
E
102
}
  0
MLINESTYLE
  5
18
102
{ACAD_REACTORS
330
17
102
}
100
AcDbMlineStyle
  2
STANDARD
 70
0
  3

 62
256
 51
90.0
 52
90.0
 71
2
 49
0.5
 62
256
  6
BYLAYER
 49
-0.5
 62
256
  6
BYLAYER
  0
LAYOUT
  5
2EC
102
{ACAD_REACTORS
330
1A
102
}
100
AcDbPlotSettings
  1

  2
none_device
  4
ISO_A4_(297.00_x_210.00_MM)
  6

 40
0.0
 41
0.0
 42
0.0
 43
0.0
 44
297.0
 45
210.0
 46
0.0
 47
0.0
 48
0.0
 49
0.0
140
0.0
141
0.0
142
1.0
143
1.0
 70
1024
 72
1
 73
0
 74
0
  7

 75
0
147
1.0
148
0.0
149
0.0
100
AcDbLayout
  1
Model
 70
0
 71
0
 10
0.0
 20
0.0
 11
297.0
 21
210.0
 12
0.0
 22
0.0
 32
0.0
 14
0.0
 24
0.0
 34
0.0
 15
0.0
 25
0.0
 35
0.0
146
0.0
 13
0.0
 23
0.0
 33
0.0
 16
1.0
 26
0.0
 36
0.0
 17
0.0
 27
1.0
 37
0.0
 76
0
330
214
345
0
346
0
  0
LAYOUT
  5
2ED
102
{ACAD_REACTORS
330
1A
102
}
100
AcDbPlotSettings
  1

  2
none_device
  4
ISO_A4_(297.00_x_210.00_MM)
  6

 40
0.0
 41
0.0
 42
0.0
 43
0.0
 44
297.0
 45
210.0
 46
0.0
 47
0.0
 48
0.0
 49
0.0
140
0.0
141
0.0
142
1.0
143
1.0
 70
0
 72
1
 73
0
 74
0
  7

 75
0
147
1.0
148
0.0
149
0.0
100
AcDbLayout
  1
Layout1
 70
0
 71
1
 10
0.0
 20
0.0
 11
297.0
 21
210.0
 12
0.0
 22
0.0
 32
0.0
 14
0.0
 24
0.0
 34
0.0
 15
0.0
 25
0.0
 35
0.0
146
0.0
 13
0.0
 23
0.0
 33
0.0
 16
1.0
 26
0.0
 36
0.0
 17
0.0
 27
1.0
 37
0.0
 76
0
330
215
345
0
346
0
  0
ENDSEC
  0
EOF
