  0
SECTION
  2
HEADER
  9
$ACADVER
  1
AC1015
  9
$DWGCODEPAGE
  3
ANSI_1252
  9
$EXTMAX
 10
297.0
 20
210.0
 30
0.0
  9
$EXTMIN
 10
0.0
 20
0.0
 30
0.0
  9
$LIMMIN
 10
0.0
 20
0.0
  9
$LIMMAX
 10
297.0
 20
210.0
  9
$VIEWCTR
 10
148.5
 20
105.0
  9
$VIEWSIZE
 40
210.0
  9
$CLAYER
  8
0
  9
$LTSCALE
 40
16.335
  9
$CELTYPE
  6
BYLAYER
  9
$DIMSCALE
 40
1.0
  9
$DIMASZ
 40
3.0
  9
$DIMEXO
 40
1.85625
  9
$DIMDLI
 40
11.286
  9
$DIMEXE
 40
5.346
  9
$DIMCEN
 40
2.673
  9
$DIMLFAC
 40
1.0
  9
$DIMBLK
  1
_FILLED
  9
$DIMTXT
 40
3.0
  9
$DIMTOL
 70
1
  9
$DIMLIM
 70
0
  9
$DIMTFAC
 40
1.0
  9
$DIMTP
 40
0.01
  9
$DIMTM
 40
0.01
  9
$PDMODE
 70
3
  9
$PDSIZE
 40
3.0
  9
$HANDSEED
  5
2F1
  9
$TILEMODE
 70
1
  9
$MEASUREMENT
 70
1
  9
$INSUNITS
 70
4
  0
ENDSEC
  0
SECTION
  2
CLASSES
  0
CLASS
  1
ACDBDICTIONARYWDFLT
  2
AcDbDictionaryWithDefault
  3
AutoCAD 2000
 90
0
280
0
281
0
  0
CLASS
  1
ACDBPLACEHOLDER
  2
AcDbPlaceHolder
  3
AutoCAD 2000
 90
0
280
0
281
0
  0
CLASS
  1
LAYOUT
  2
AcDbLayout
  3
AutoCAD 2000
 90
0
280
0
281
0
  0
ENDSEC
  0
SECTION
  2
TABLES
  0
TABLE
  2
VPORT
  5
8
100
AcDbSymbolTable
 70
2
  0
VPORT
  5
1F4
100
AcDbSymbolTableRecord
100
AcDbViewportTableRecord
  2
*ACTIVE
 70
0
 10
0.0
 20
0.0
 11
1.0
 21
1.0
 12
148.5
 22
105.0
 13
0.0
 23
0.0
 14
1.0
 24
1.0
 15
0.0
 25
0.0
 16
0.0
 26
0.0
 36
1.0
 17
0.0
 27
0.0
 37
0.0
 40
210.0
 41
1.4142857143
 42
50.0
 43
0.0
 44
0.0
 50
0.0
 51
0.0
 71
0
 72
100
 73
1
 74
1
 75
0
 76
0
 77
0
 78
0
  0
ENDTAB
  0
TABLE
  2
LTYPE
  5
5
100
AcDbSymbolTable
 70
6
  0
LTYPE
  5
14
100
AcDbSymbolTableRecord
100
AcDbLinetypeTableRecord
  2
BYBLOCK
 70
0
  3

 72
65
 73
0
 40
0.0
  0
LTYPE
  5
15
100
AcDbSymbolTableRecord
100
AcDbLinetypeTableRecord
  2
BYLAYER
 70
0
  3

 72
65
 73
0
 40
0.0
  0
LTYPE
  5
16
100
AcDbSymbolTableRecord
100
AcDbLinetypeTableRecord
  2
CONTINUOUS
 70
64
  3
Solid line
 72
65
 73
0
 40
0.0
  0
LTYPE
  5
1F5
100
AcDbSymbolTableRecord
100
AcDbLinetypeTableRecord
  2
CENTER
 70
64
  3
____ _ ____ _ ____ _ ____ _ ____ _ ____ _ ____
 72
65
 73
4
 40
0.6
 49
0.375
 74
0
 49
-0.075
 74
0
 49
0.075
 74
0
 49
-0.075
 74
0
  0
LTYPE
  5
1F6
100
AcDbSymbolTableRecord
100
AcDbLinetypeTableRecord
  2
HIDDEN
 70
64
  3
- - - - - - - - - - - - - - - - - - - -
 72
65
 73
2
 40
0.2
 49
0.1
 74
0
 49
-0.1
 74
0
  0
LTYPE
  5
1F7
100
AcDbSymbolTableRecord
100
AcDbLinetypeTableRecord
  2
PHANTOM
 70
64
  3
_____ _ _ _____ _ _ _____ _ _ _____
 72
65
 73
6
 40
0.8
 49
0.45
 74
0
 49
-0.05
 74
0
 49
0.1
 74
0
 49
-0.05
 74
0
 49
0.1
 74
0
 49
-0.05
 74
0
  0
LTYPE
  5
1F8
100
AcDbSymbolTableRecord
100
AcDbLinetypeTableRecord
  2
DOT
 70
64
  3
. . . . . . . . . . . . . . . . . . . .
 72
65
 73
2
 40
0.2
 49
0.1
 74
0
 49
-0.1
 74
0
  0
LTYPE
  5
1F9
100
AcDbSymbolTableRecord
100
AcDbLinetypeTableRecord
  2
DASHED
 70
64
  3
- - - - - - - - - - - - - - - - - - - -
 72
65
 73
2
 40
0.2
 49
0.1
 74
0
 49
-0.1
 74
0
  0
ENDTAB
  0
TABLE
  2
LAYER
  5
2
100
AcDbSymbolTable
 70
36
  0
LAYER
  5
10
100
AcDbSymbolTableRecord
100
AcDbLayerTableRecord
  2
0
 70
0
 62
7
  6
CONTINUOUS
370
-3
390
F
  0
LAYER
  5
1FA
100
AcDbSymbolTableRecord
100
AcDbLayerTableRecord
  2
DEFAULT_1
 70
0
 62
7
  6
CENTER
370
-3
390
F
  0
LAYER
  5
1FB
100
AcDbSymbolTableRecord
100
AcDbLayerTableRecord
  2
DEFAULT_2
 70
0
 62
7
  6
HIDDEN
370
-3
390
F
  0
LAYER
  5
1FC
100
AcDbSymbolTableRecord
100
AcDbLayerTableRecord
  2
DEFAULT_3
 70
0
 62
7
  6
PHANTOM
370
-3
390
F
  0
LAYER
  5
1FD
100
AcDbSymbolTableRecord
100
AcDbLayerTableRecord
  2
ASSI
 70
0
 62
7
  6
CONTINUOUS
370
-3
390
F
  0
LAYER
  5
1FE
100
AcDbSymbolTableRecord
100
AcDbLayerTableRecord
  2
COORDINATE
 70
0
 62
7
  6
CONTINUOUS
370
-3
390
F
  0
LAYER
  5
1FF
100
AcDbSymbolTableRecord
100
AcDbLayerTableRecord
  2
COORD_ORIGINE
 70
0
 62
7
  6
CONTINUOUS
370
-3
390
F
  0
LAYER
  5
200
100
AcDbSymbolTableRecord
100
AcDbLayerTableRecord
  2
COPY_PUBLISH
 70
0
 62
7
  6
CONTINUOUS
370
-3
390
F
  0
LAYER
  5
201
100
AcDbSymbolTableRecord
100
AcDbLayerTableRecord
  2
COSMETIC
 70
0
 62
7
  6
CONTINUOUS
370
-3
390
F
  0
LAYER
  5
202
100
AcDbSymbolTableRecord
100
AcDbLayerTableRecord
  2
CURVE
 70
0
 62
7
  6
CONTINUOUS
370
-3
390
F
  0
LAYER
  5
203
100
AcDbSymbolTableRecord
100
AcDbLayerTableRecord
  2
DRAFT
 70
0
 62
7
  6
CONTINUOUS
370
-3
390
F
  0
LAYER
  5
204
100
AcDbSymbolTableRecord
100
AcDbLayerTableRecord
  2
IGES
 70
0
 62
7
  6
CONTINUOUS
370
-3
390
F
  0
LAYER
  5
205
100
AcDbSymbolTableRecord
100
AcDbLayerTableRecord
  2
IMPORT_IGES
 70
0
 62
7
  6
CONTINUOUS
370
-3
390
F
  0
LAYER
  5
206
100
AcDbSymbolTableRecord
100
AcDbLayerTableRecord
  2
INTF_6
 70
0
 62
7
  6
CONTINUOUS
370
-3
390
F
  0
LAYER
  5
207
100
AcDbSymbolTableRecord
100
AcDbLayerTableRecord
  2
NOTE
 70
0
 62
7
  6
CONTINUOUS
370
-3
390
F
  0
LAYER
  5
208
100
AcDbSymbolTableRecord
100
AcDbLayerTableRecord
  2
PIANI
 70
0
 62
7
  6
CONTINUOUS
370
-3
390
F
  0
LAYER
  5
209
100
AcDbSymbolTableRecord
100
AcDbLayerTableRecord
  2
PIANI_ORIGINE
 70
0
 62
7
  6
CONTINUOUS
370
-3
390
F
  0
LAYER
  5
20A
100
AcDbSymbolTableRecord
100
AcDbLayerTableRecord
  2
PIANI_RIFERIMENTO
 70
0
 62
7
  6
CONTINUOUS
370
-3
390
F
  0
LAYER
  5
20B
100
AcDbSymbolTableRecord
100
AcDbLayerTableRecord
  2
PUNTI
 70
0
 62
7
  6
CONTINUOUS
370
-3
390
F
  0
LAYER
  5
20C
100
AcDbSymbolTableRecord
100
AcDbLayerTableRecord
  2
RACCORDO
 70
0
 62
7
  6
CONTINUOUS
370
-3
390
F
  0
LAYER
  5
20D
100
AcDbSymbolTableRecord
100
AcDbLayerTableRecord
  2
SMUSSO
 70
0
 62
7
  6
CONTINUOUS
370
-3
390
F
  0
LAYER
  5
20E
100
AcDbSymbolTableRecord
100
AcDbLayerTableRecord
  2
SNAPLINE
 70
0
 62
7
  6
CONTINUOUS
370
-3
390
F
  0
LAYER
  5
20F
100
AcDbSymbolTableRecord
100
AcDbLayerTableRecord
  2
SUPERFICI
 70
0
 62
7
  6
CONTINUOUS
370
-3
390
F
  0
LAYER
  5
210
100
AcDbSymbolTableRecord
100
AcDbLayerTableRecord
  2
TRASH
 70
0
 62
7
  6
CONTINUOUS
370
-3
390
F
  0
LAYER
  5
211
100
AcDbSymbolTableRecord
100
AcDbLayerTableRecord
  2
XSEC_DATUMS
 70
0
 62
7
  6
CONTINUOUS
370
-3
390
F
  0
ENDTAB
  0
TABLE
  2
STYLE
  5
3
100
AcDbSymbolTable
 70
1
  0
STYLE
  5
11
100
AcDbSymbolTableRecord
100
AcDbTextStyleTableRecord
  2
STANDARD
 70
0
 40
0.0
 41
0.8
 50
0.0
 71
0
 42
0.2
  3
txt
  4

  0
STYLE
  5
212
100
AcDbSymbolTableRecord
100
AcDbTextStyleTableRecord
  2
TEXTSTYLE_1
 70
0
 40
0.0
 41
0.8
 50
0.0
 71
0
 42
0.2
  3
gdt
  4

  0
ENDTAB
  0
TABLE
  2
VIEW
  5
6
100
AcDbSymbolTable
 70
0
  0
ENDTAB
  0
TABLE
  2
UCS
  5
7
100
AcDbSymbolTable
 70
0
  0
ENDTAB
  0
TABLE
  2
APPID
  5
9
100
AcDbSymbolTable
 70
1
  0
APPID
  5
213
100
AcDbSymbolTableRecord
100
AcDbRegAppTableRecord
  2
ACAD
 70
0
  0
ENDTAB
  0
TABLE
  2
BLOCK_RECORD
  5
1
100
AcDbSymbolTable
 70
0
  0
BLOCK_RECORD
  5
214
100
AcDbSymbolTableRecord
100
AcDbBlockTableRecord
  2
*Model_Space
  0
BLOCK_RECORD
  5
215
100
AcDbSymbolTableRecord
100
AcDbBlockTableRecord
  2
*Paper_Space
  0
BLOCK_RECORD
  5
216
100
AcDbSymbolTableRecord
100
AcDbBlockTableRecord
  2
_FILLED
  0
BLOCK_RECORD
  5
217
100
AcDbSymbolTableRecord
100
AcDbBlockTableRecord
  2
*D0
  0
BLOCK_RECORD
  5
218
100
AcDbSymbolTableRecord
100
AcDbBlockTableRecord
  2
*D1
  0
BLOCK_RECORD
  5
219
100
AcDbSymbolTableRecord
100
AcDbBlockTableRecord
  2
*D2
  0
ENDTAB
  0
TABLE
  2
DIMSTYLE
  5
A
100
AcDbSymbolTable
 70
1
100
AcDbDimStyleTable
 71
0
  0
DIMSTYLE
105
21A
100
AcDbSymbolTableRecord
100
AcDbDimStyleTableRecord
  2
STANDARD
 70
0
  3

  4

 40
1.0
 41
3.0
 42
0.0625
 43
0.38
 44
0.18
 45
0.0
 46
0.0
 47
0.01
 48
0.01
140
3.0
141
0.09
142
0.0
143
25.4
144
1.0
145
0.0
146
1.0
147
0.09
 71
1.0
 72
0.0
 73
0
 74
0
 75
0
 76
0
 77
1
 78
8
170
0
171
2
172
0
173
0
174
0
175
0
176
0
177
0
178
0
270
2
271
2
272
2
273
2
274
2
275
0
280
0
281
0
282
0
283
1
284
8
285
0
286
0
287
3
288
0
340
11
341
216
342
216
343
216
344
216
  0
DIMSTYLE
105
21B
100
AcDbSymbolTableRecord
100
AcDbDimStyleTableRecord
  2
DIMSTYLE_1
 70
0
  3

  4

 40
1.0
 41
3.0
 42
0.0625
 43
0.38
 44
0.18
 45
0.0
 46
0.0
 47
0.0
 48
0.0
140
3.0
141
0.09
142
0.0
143
25.4
144
1.0
145
0.0
146
1.0
147
0.09
 71
0.0
 72
0.0
 73
0
 74
0
 75
0
 76
0
 77
1
 78
8
170
0
171
2
172
0
173
0
174
0
175
0
176
0
177
0
178
0
270
2
271
2
272
2
273
2
274
2
275
0
280
0
281
0
282
0
283
1
284
8
285
0
286
0
287
3
288
0
340
11
341
216
342
216
343
216
344
216
  0
DIMSTYLE
105
21C
100
AcDbSymbolTableRecord
100
AcDbDimStyleTableRecord
  2
DIMSTYLE_2
 70
0
  3

  4

 40
1.0
 41
3.0
 42
0.0625
 43
0.38
 44
0.18
 45
0.0
 46
0.0
 47
0.0
 48
0.0
140
3.0
141
0.09
142
0.0
143
25.4
144
1.0
145
0.0
146
1.0
147
0.09
 71
0.0
 72
0.0
 73
0
 74
0
 75
0
 76
0
 77
1
 78
8
170
0
171
2
172
0
173
0
174
0
175
0
176
0
177
0
178
0
270
2
271
1
272
1
273
2
274
2
275
0
280
0
281
0
282
0
283
1
284
8
285
0
286
0
287
3
288
0
340
11
341
216
342
216
343
216
344
216
  0
ENDTAB
  0
ENDSEC
  0
SECTION
  2
BLOCKS
  0
BLOCK
  5
20
100
AcDbEntity
  8
0
100
AcDbBlockBegin
  2
*Model_Space
 70
0
 10
0.0
 20
0.0
 30
0.0
  3
*Model_Space
  1

  0
ENDBLK
  5
21
100
AcDbEntity
  8
0
100
AcDbBlockEnd
  0
BLOCK
  5
1C
100
AcDbEntity
  8
0
100
AcDbBlockBegin
  2
*Paper_Space
 70
0
 10
0.0
 20
0.0
 30
0.0
  3
*Paper_Space
  1

  0
ENDBLK
  5
1D
100
AcDbEntity
  8
0
100
AcDbBlockEnd
  0
BLOCK
  5
21D
100
AcDbEntity
  8
0
100
AcDbBlockBegin
  2
_FILLED
 70
64
 10
0.0
 20
0.0
  3
_FILLED
  1

  0
SOLID
  5
21E
100
AcDbEntity
  8
0
  6
BYBLOCK
 62
0
100
AcDbTrace
 10
0.0
 20
0.0
 11
-1.0
 21
0.3166666667
 12
-1.0
 22
-0.3166666667
 13
-1.0
 23
-0.3166666667
  0
ENDBLK
  5
21F
100
AcDbEntity
  8
0
  6
BYBLOCK
 62
0
100
AcDbBlockEnd
  0
BLOCK
  5
220
100
AcDbEntity
  8
0
100
AcDbBlockBegin
 62
7
  6
CONTINUOUS
  2
*D0
 70
65
 10
0.0
 20
0.0
  3
*D0
  1

  0
MTEXT
  5
221
100
AcDbEntity
  8
0
100
AcDbMText
 62
7
  6
CONTINUOUS
  7
STANDARD
 71
2
 72
1
 10
14.9617416303
 20
22.6901822996
 30
0.0
 11
1.0
 21
0.0
 31
0.0
 44
0.9
  1
22,3
 40
3.0
 41
8.5714285714
  0
LINE
  5
222
100
AcDbEntity
  8
0
100
AcDbLine
 62
7
  6
CONTINUOUS
 10
26.1117416303
 20
11.2402051448
 11
26.1117416303
 21
20.4401822996
  0
LINE
  5
223
100
AcDbEntity
  8
0
100
AcDbLine
 62
7
  6
CONTINUOUS
 10
3.8117416303
 20
11.2402051448
 11
3.8117416303
 21
20.4401822996
  0
LINE
  5
224
100
AcDbEntity
  8
0
100
AcDbLine
 62
7
  6
CONTINUOUS
 10
26.1117416303
 20
18.9401822996
 11
14.9617416303
 21
18.9401822996
  0
LINE
  5
225
100
AcDbEntity
  8
0
100
AcDbLine
 62
7
  6
CONTINUOUS
 10
3.8117416303
 20
18.9401822996
 11
14.9617416303
 21
18.9401822996
  0
INSERT
  5
226
100
AcDbEntity
  8
0
100
AcDbBlockReference
 62
7
  6
CONTINUOUS
  2
_FILLED
 10
26.1117416303
 20
18.9401822996
 41
3.0
 42
3.0
 43
3.0
  0
INSERT
  5
227
100
AcDbEntity
  8
0
100
AcDbBlockReference
 62
7
  6
CONTINUOUS
  2
_FILLED
 10
3.8117416303
 20
18.9401822996
 41
3.0
 42
3.0
 43
3.0
 50
180.0
  0
ENDBLK
  5
228
100
AcDbEntity
  8
0
  6
BYBLOCK
 62
0
100
AcDbBlockEnd
  0
BLOCK
  5
229
100
AcDbEntity
  8
0
100
AcDbBlockBegin
 62
7
  6
CONTINUOUS
  2
*D1
 70
65
 10
0.0
 20
0.0
  3
*D1
  1

  0
MTEXT
  5
22A
100
AcDbEntity
  8
0
100
AcDbMText
 62
7
  6
CONTINUOUS
  7
STANDARD
 71
2
 72
1
 10
30.3617416303
 20
-0.0894740533
 30
0.0
 11
0.0
 21
1.0
 31
0.0
 44
0.9
  1
22,1
 40
3.0
 41
8.1428571429
  0
LINE
  5
22B
100
AcDbEntity
  8
0
100
AcDbLine
 62
7
  6
CONTINUOUS
 10
26.4117416292
 20
10.9401822996
 11
35.6117416303
 21
10.9401822996
  0
LINE
  5
22C
100
AcDbEntity
  8
0
100
AcDbLine
 62
7
  6
CONTINUOUS
 10
26.0982875697
 20
-11.1191304062
 11
35.6117416303
 21
-11.1191304062
  0
LINE
  5
22D
100
AcDbEntity
  8
0
100
AcDbLine
 62
7
  6
CONTINUOUS
 10
34.1117416303
 20
10.9401822996
 11
34.1117416303
 21
-0.0894740533
  0
LINE
  5
22E
100
AcDbEntity
  8
0
100
AcDbLine
 62
7
  6
CONTINUOUS
 10
34.1117416303
 20
-11.1191304062
 11
34.1117416303
 21
-0.0894740533
  0
INSERT
  5
22F
100
AcDbEntity
  8
0
100
AcDbBlockReference
 62
7
  6
CONTINUOUS
  2
_FILLED
 10
34.1117416303
 20
10.9401822996
 41
3.0
 42
3.0
 43
3.0
 50
90.0
  0
INSERT
  5
230
100
AcDbEntity
  8
0
100
AcDbBlockReference
 62
7
  6
CONTINUOUS
  2
_FILLED
 10
34.1117416303
 20
-11.1191304062
 41
3.0
 42
3.0
 43
3.0
 50
270.0
  0
ENDBLK
  5
231
100
AcDbEntity
  8
0
  6
BYBLOCK
 62
0
100
AcDbBlockEnd
  0
BLOCK
  5
232
100
AcDbEntity
  8
0
100
AcDbBlockBegin
 62
7
  6
CONTINUOUS
  2
*D2
 70
65
 10
0.0
 20
0.0
  3
*D2
  1

  0
MTEXT
  5
233
100
AcDbEntity
  8
0
100
AcDbMText
 62
7
  6
CONTINUOUS
  7
STANDARD
 71
2
 72
1
 10
-7.1455238835
 20
22.6901822996
 30
0.0
 11
1.0
 21
0.0
 31
0.0
 44
0.9
  1
6,5
 40
3.0
 41
6.2142857143
  0
LINE
  5
234
100
AcDbEntity
  8
0
100
AcDbLine
 62
7
  6
CONTINUOUS
 10
-3.8955844855
 20
7.9401822996
 11
-3.8955844855
 21
20.4401822996
  0
LINE
  5
235
100
AcDbEntity
  8
0
100
AcDbLine
 62
7
  6
CONTINUOUS
 10
-10.3954632815
 20
11.1920387109
 11
-10.3954632815
 21
20.4401822996
  0
LINE
  5
236
100
AcDbEntity
  8
0
100
AcDbLine
 62
7
  6
CONTINUOUS
 10
-3.8955844855
 20
18.9401822996
 11
0.1044155145
 21
18.9401822996
  0
LINE
  5
237
100
AcDbEntity
  8
0
100
AcDbLine
 62
7
  6
CONTINUOUS
 10
0.1044155145
 20
18.9401822996
 11
-7.1455238835
 21
18.9401822996
  0
LINE
  5
238
100
AcDbEntity
  8
0
100
AcDbLine
 62
7
  6
CONTINUOUS
 10
-10.3954632815
 20
18.9401822996
 11
-14.3954632815
 21
18.9401822996
  0
LINE
  5
239
100
AcDbEntity
  8
0
100
AcDbLine
 62
7
  6
CONTINUOUS
 10
-14.3954632815
 20
18.9401822996
 11
-7.1455238835
 21
18.9401822996
  0
INSERT
  5
23A
100
AcDbEntity
  8
0
100
AcDbBlockReference
 62
7
  6
CONTINUOUS
  2
_FILLED
 10
-3.8955844855
 20
18.9401822996
 41
3.0
 42
3.0
 43
3.0
 50
180.0
  0
INSERT
  5
23B
100
AcDbEntity
  8
0
100
AcDbBlockReference
 62
7
  6
CONTINUOUS
  2
_FILLED
 10
-10.3954632815
 20
18.9401822996
 41
3.0
 42
3.0
 43
3.0
  0
ENDBLK
  5
23C
100
AcDbEntity
  8
0
  6
BYBLOCK
 62
0
100
AcDbBlockEnd
  0
ENDSEC
  0
SECTION
  2
ENTITIES
  0
DIMENSION
  5
23D
100
AcDbEntity
  8
0
100
AcDbDimension
 62
7
  6
CONTINUOUS
  2
*D0
 10
3.8117416303
 20
18.9401822996
 11
10.6760273446
 21
21.1901822996
 70
160
 71
2
 42
22.3
  3
DIMSTYLE_1
100
AcDbAlignedDimension
 13
26.1117416303
 23
11.2402051448
 14
3.8117416303
 24
11.2402051448
 50
180.0
100
AcDbRotatedDimension
  0
DIMENSION
  5
23E
100
AcDbEntity
  8
0
100
AcDbDimension
 62
7
  6
CONTINUOUS
  2
*D1
 10
34.1117416303
 20
-11.1191304062
 11
33.6860413532
 21
-3.7293176123
 70
160
 71
2
 42
22.0593127057
  3
DIMSTYLE_2
100
AcDbAlignedDimension
 13
26.4117416292
 23
10.9401822996
 14
26.0982875697
 24
-11.1191304062
 50
270.0
100
AcDbRotatedDimension
  0
DIMENSION
  5
23F
100
AcDbEntity
  8
0
100
AcDbDimension
 62
7
  6
CONTINUOUS
  2
*D2
 10
-10.3954632815
 20
18.9401822996
 11
-10.2526667406
 21
21.1901822996
 70
160
 71
2
 42
6.499878796
  3
DIMSTYLE_1
100
AcDbAlignedDimension
 13
-3.8955844855
 23
7.9401822996
 14
-10.3954632815
 24
11.1920387109
 50
180.0
100
AcDbRotatedDimension
  0
LINE
  5
240
100
AcDbEntity
  8
RACCORDO
100
AcDbLine
 62
7
  6
CONTINUOUS
 10
3.8117416303
 20
-2.0598177004
 11
3.8248158677
 21
-10.6211846784
  0
LINE
  5
241
100
AcDbEntity
  8
ASSI
100
AcDbLine
 62
7
  6
CONTINUOUS
 10
3.8117416303
 20
-2.0598177004
 11
3.8248158677
 21
-10.6211846784
  0
LINE
  5
242
100
AcDbEntity
  8
RACCORDO
100
AcDbLine
 62
7
  6
CONTINUOUS
 10
3.8117416303
 20
10.7402051448
 11
3.8117416303
 21
-2.0598177004
  0
LINE
  5
243
100
AcDbEntity
  8
ASSI
100
AcDbLine
 62
7
  6
CONTINUOUS
 10
3.8117416303
 20
10.7402051448
 11
3.8117416303
 21
-2.0598177004
  0
LINE
  5
244
100
AcDbEntity
  8
RACCORDO
100
AcDbLine
 62
253
  6
CONTINUOUS
 10
4.4025820184
 20
10.69203871
 11
4.4025820184
 21
10.892170353
  0
LINE
  5
245
100
AcDbEntity
  8
ASSI
100
AcDbLine
 62
253
  6
CONTINUOUS
 10
4.4025820184
 20
10.69203871
 11
4.4025820184
 21
10.892170353
  0
LINE
  5
246
100
AcDbEntity
  8
RACCORDO
100
AcDbLine
 62
7
  6
CONTINUOUS
 10
18.3533166374
 20
-11.1191304062
 11
18.7040066034
 21
-11.0872972482
  0
LINE
  5
247
100
AcDbEntity
  8
ASSI
100
AcDbLine
 62
7
  6
CONTINUOUS
 10
18.3533166374
 20
-11.1191304062
 11
18.7040066034
 21
-11.0872972482
  0
LINE
  5
248
100
AcDbEntity
  8
RACCORDO
100
AcDbLine
 62
7
  6
CONTINUOUS
 10
4.325195691
 20
-11.1191304062
 11
7.1533166374
 21
-11.1191304062
  0
LINE
  5
249
100
AcDbEntity
  8
ASSI
100
AcDbLine
 62
7
  6
CONTINUOUS
 10
4.325195691
 20
-11.1191304062
 11
7.1533166374
 21
-11.1191304062
  0
LINE
  5
24A
100
AcDbEntity
  8
DRAFT
100
AcDbLine
 62
7
  6
CONTINUOUS
 10
11.5701666233
 20
-11.1191304062
 11
18.3533166374
 21
-11.1191304062
  0
LINE
  5
24B
100
AcDbEntity
  8
ASSI
100
AcDbLine
 62
7
  6
CONTINUOUS
 10
11.5701666233
 20
-11.1191304062
 11
18.3533166374
 21
-11.1191304062
  0
LINE
  5
24C
100
AcDbEntity
  8
RACCORDO
100
AcDbLine
 62
7
  6
CONTINUOUS
 10
22.7701666233
 20
-11.1191304062
 11
25.5982875697
 21
-11.1191304062
  0
LINE
  5
24D
100
AcDbEntity
  8
ASSI
100
AcDbLine
 62
7
  6
CONTINUOUS
 10
22.7701666233
 20
-11.1191304062
 11
25.5982875697
 21
-11.1191304062
  0
LINE
  5
24E
100
AcDbEntity
  8
RACCORDO
100
AcDbLine
 62
7
  6
CONTINUOUS
 10
7.6772116842
 20
-11.0820564702
 11
11.0462715765
 21
-11.0820564702
  0
LINE
  5
24F
100
AcDbEntity
  8
ASSI
100
AcDbLine
 62
7
  6
CONTINUOUS
 10
7.6772116842
 20
-11.0820564702
 11
11.0462715765
 21
-11.0820564702
  0
LINE
  5
250
100
AcDbEntity
  8
RACCORDO
100
AcDbLine
 62
7
  6
CONTINUOUS
 10
18.8772116842
 20
-11.0820564702
 11
22.2462715765
 21
-11.0820564702
  0
LINE
  5
251
100
AcDbEntity
  8
ASSI
100
AcDbLine
 62
7
  6
CONTINUOUS
 10
18.8772116842
 20
-11.0820564702
 11
22.2462715765
 21
-11.0820564702
  0
LINE
  5
252
100
AcDbEntity
  8
RACCORDO
100
AcDbLine
 62
253
  6
CONTINUOUS
 10
25.5448022065
 20
-10.9585438301
 11
4.3786810542
 21
-10.9585438301
  0
LINE
  5
253
100
AcDbEntity
  8
ASSI
100
AcDbLine
 62
253
  6
CONTINUOUS
 10
25.5448022065
 20
-10.9585438301
 11
4.3786810542
 21
-10.9585438301
  0
LINE
  5
254
100
AcDbEntity
  8
RACCORDO
100
AcDbLine
 62
7
  6
CONTINUOUS
 10
11.5701666233
 20
-11.1191304062
 11
11.2194766573
 21
-11.0872972482
  0
LINE
  5
255
100
AcDbEntity
  8
ASSI
100
AcDbLine
 62
7
  6
CONTINUOUS
 10
11.5701666233
 20
-11.1191304062
 11
11.2194766573
 21
-11.0872972482
  0
LINE
  5
256
100
AcDbEntity
  8
RACCORDO
100
AcDbLine
 62
7
  6
CONTINUOUS
 10
7.1533166374
 20
-11.1191304062
 11
7.5040066034
 21
-11.0872972482
  0
LINE
  5
257
100
AcDbEntity
  8
ASSI
100
AcDbLine
 62
7
  6
CONTINUOUS
 10
7.1533166374
 20
-11.1191304062
 11
7.5040066034
 21
-11.0872972482
  0
LINE
  5
258
100
AcDbEntity
  8
RACCORDO
100
AcDbLine
 62
253
  6
CONTINUOUS
 10
25.5282751091
 20
-9.5222655308
 11
4.3952081516
 21
-9.5222655313
  0
LINE
  5
259
100
AcDbEntity
  8
ASSI
100
AcDbLine
 62
253
  6
CONTINUOUS
 10
25.5282751091
 20
-9.5222655308
 11
4.3952081516
 21
-9.5222655313
  0
LINE
  5
25A
100
AcDbEntity
  8
RACCORDO
100
AcDbLine
 62
7
  6
CONTINUOUS
 10
22.7701666233
 20
-11.1191304062
 11
22.4194766573
 21
-11.0872972482
  0
LINE
  5
25B
100
AcDbEntity
  8
ASSI
100
AcDbLine
 62
7
  6
CONTINUOUS
 10
22.7701666233
 20
-11.1191304062
 11
22.4194766573
 21
-11.0872972482
  0
LINE
  5
25C
100
AcDbEntity
  8
RACCORDO
100
AcDbLine
 62
253
  6
CONTINUOUS
 10
3.8248158677
 20
-10.6211846784
 11
3.8787575089
 21
-10.459228155
  0
LINE
  5
25D
100
AcDbEntity
  8
ASSI
100
AcDbLine
 62
253
  6
CONTINUOUS
 10
3.8248158677
 20
-10.6211846784
 11
3.8787575089
 21
-10.459228155
  0
LINE
  5
25E
100
AcDbEntity
  8
RACCORDO
100
AcDbLine
 62
253
  6
CONTINUOUS
 10
4.325195691
 20
-11.1191304062
 11
4.3786810542
 21
-10.9585438301
  0
LINE
  5
25F
100
AcDbEntity
  8
ASSI
100
AcDbLine
 62
253
  6
CONTINUOUS
 10
4.325195691
 20
-11.1191304062
 11
4.3786810542
 21
-10.9585438301
  0
LINE
  5
260
100
AcDbEntity
  8
RACCORDO
100
AcDbLine
 62
253
  6
CONTINUOUS
 10
25.9117416292
 20
10.9401822996
 11
25.8208555222
 21
10.8947427069
  0
LINE
  5
261
100
AcDbEntity
  8
ASSI
100
AcDbLine
 62
253
  6
CONTINUOUS
 10
25.9117416292
 20
10.9401822996
 11
25.8208555222
 21
10.8947427069
  0
LINE
  5
262
100
AcDbEntity
  8
RACCORDO
100
AcDbLine
 62
253
  6
CONTINUOUS
 10
26.1117416303
 20
10.7402051448
 11
26.0208253513
 21
10.6947504673
  0
LINE
  5
263
100
AcDbEntity
  8
ASSI
100
AcDbLine
 62
253
  6
CONTINUOUS
 10
26.1117416303
 20
10.7402051448
 11
26.0208253513
 21
10.6947504673
  0
LINE
  5
264
100
AcDbEntity
  8
CURVE
100
AcDbLine
 62
253
  6
CONTINUOUS
 10
14.9617416303
 20
-4.7326099066
 11
11.4617416303
 21
-1.2326099066
  0
LINE
  5
265
100
AcDbEntity
  8
CURVE
100
AcDbLine
 62
253
  6
CONTINUOUS
 10
14.9617416303
 20
-3.4598177004
 11
11.4617416303
 21
0.0401822996
  0
LINE
  5
266
100
AcDbEntity
  8
CURVE
100
AcDbLine
 62
253
  6
CONTINUOUS
 10
11.4617416303
 20
0.0401822996
 11
18.4617416303
 21
0.0401822996
  0
LINE
  5
267
100
AcDbEntity
  8
CURVE
100
AcDbLine
 62
253
  6
CONTINUOUS
 10
18.4617416303
 20
0.0401822996
 11
14.9617416303
 21
-3.4598177004
  0
LINE
  5
268
100
AcDbEntity
  8
CURVE
100
AcDbLine
 62
253
  6
CONTINUOUS
 10
18.4617416303
 20
-1.2326099066
 11
14.9617416303
 21
-4.7326099066
  0
LINE
  5
269
100
AcDbEntity
  8
RACCORDO
100
AcDbLine
 62
253
  6
CONTINUOUS
 10
3.9026579094
 20
10.6947504673
 11
3.8117416303
 21
10.7402051448
  0
LINE
  5
26A
100
AcDbEntity
  8
ASSI
100
AcDbLine
 62
253
  6
CONTINUOUS
 10
3.9026579094
 20
10.6947504673
 11
3.8117416303
 21
10.7402051448
  0
LINE
  5
26B
100
AcDbEntity
  8
RACCORDO
100
AcDbLine
 62
253
  6
CONTINUOUS
 10
4.1026277385
 20
10.8947427069
 11
4.0117416315
 21
10.9401822996
  0
LINE
  5
26C
100
AcDbEntity
  8
ASSI
100
AcDbLine
 62
253
  6
CONTINUOUS
 10
4.1026277385
 20
10.8947427069
 11
4.0117416315
 21
10.9401822996
  0
LINE
  5
26D
100
AcDbEntity
  8
RACCORDO
100
AcDbLine
 62
253
  6
CONTINUOUS
 10
25.5448022065
 20
-10.9585438301
 11
25.5982875697
 21
-11.1191304062
  0
LINE
  5
26E
100
AcDbEntity
  8
ASSI
100
AcDbLine
 62
253
  6
CONTINUOUS
 10
25.5448022065
 20
-10.9585438301
 11
25.5982875697
 21
-11.1191304062
  0
LINE
  5
26F
100
AcDbEntity
  8
RACCORDO
100
AcDbLine
 62
253
  6
CONTINUOUS
 10
26.0447257517
 20
-10.459228155
 11
26.098667393
 21
-10.6211846784
  0
LINE
  5
270
100
AcDbEntity
  8
ASSI
100
AcDbLine
 62
253
  6
CONTINUOUS
 10
26.0447257517
 20
-10.459228155
 11
26.098667393
 21
-10.6211846784
  0
LINE
  5
271
100
AcDbEntity
  8
RACCORDO
100
AcDbLine
 62
253
  6
CONTINUOUS
 10
25.5209012422
 20
10.69203871
 11
25.5209012422
 21
10.892170353
  0
LINE
  5
272
100
AcDbEntity
  8
ASSI
100
AcDbLine
 62
253
  6
CONTINUOUS
 10
25.5209012422
 20
10.69203871
 11
25.5209012422
 21
10.892170353
  0
LINE
  5
273
100
AcDbEntity
  8
DRAFT
100
AcDbLine
 62
7
  6
CONTINUOUS
 10
23.4742076209
 20
10.9401822996
 11
23.2117416303
 21
10.9140016962
  0
LINE
  5
274
100
AcDbEntity
  8
ASSI
100
AcDbLine
 62
7
  6
CONTINUOUS
 10
23.4742076209
 20
10.9401822996
 11
23.2117416303
 21
10.9140016962
  0
LINE
  5
275
100
AcDbEntity
  8
DRAFT
100
AcDbLine
 62
7
  6
CONTINUOUS
 10
6.4492756398
 20
10.9401822996
 11
6.7117416303
 21
10.9140016962
  0
LINE
  5
276
100
AcDbEntity
  8
ASSI
100
AcDbLine
 62
7
  6
CONTINUOUS
 10
6.4492756398
 20
10.9401822996
 11
6.7117416303
 21
10.9140016962
  0
LINE
  5
277
100
AcDbEntity
  8
RACCORDO
100
AcDbLine
 62
7
  6
CONTINUOUS
 10
26.1117416303
 20
10.7402051448
 11
26.1117416303
 21
-2.0598177004
  0
LINE
  5
278
100
AcDbEntity
  8
ASSI
100
AcDbLine
 62
7
  6
CONTINUOUS
 10
26.1117416303
 20
10.7402051448
 11
26.1117416303
 21
-2.0598177004
  0
LINE
  5
279
100
AcDbEntity
  8
RACCORDO
100
AcDbLine
 62
7
  6
CONTINUOUS
 10
26.1117416303
 20
-2.0598177004
 11
26.098667393
 21
-10.6211846784
  0
LINE
  5
27A
100
AcDbEntity
  8
ASSI
100
AcDbLine
 62
7
  6
CONTINUOUS
 10
26.1117416303
 20
-2.0598177004
 11
26.098667393
 21
-10.6211846784
  0
LINE
  5
27B
100
AcDbEntity
  8
RACCORDO
100
AcDbLine
 62
253
  6
CONTINUOUS
 10
25.5208847696
 20
10.69203871
 11
4.4025984913
 21
10.69203871
  0
LINE
  5
27C
100
AcDbEntity
  8
ASSI
100
AcDbLine
 62
253
  6
CONTINUOUS
 10
25.5208847696
 20
10.69203871
 11
4.4025984913
 21
10.69203871
  0
LINE
  5
27D
100
AcDbEntity
  8
RACCORDO
100
AcDbLine
 62
253
  6
CONTINUOUS
 10
25.5209012422
 20
10.892170353
 11
4.4025820184
 21
10.892170353
  0
LINE
  5
27E
100
AcDbEntity
  8
ASSI
100
AcDbLine
 62
7
  6
CONTINUOUS
 10
25.5209012422
 20
10.892170353
 11
4.4025820184
 21
10.892170353
  0
LINE
  5
27F
100
AcDbEntity
  8
DRAFT
100
AcDbLine
 62
7
  6
CONTINUOUS
 10
6.7117416303
 20
10.9140016962
 11
23.2117416303
 21
10.9140016962
  0
LINE
  5
280
100
AcDbEntity
  8
ASSI
100
AcDbLine
 62
7
  6
CONTINUOUS
 10
6.7117416303
 20
10.9140016962
 11
23.2117416303
 21
10.9140016962
  0
LINE
  5
281
100
AcDbEntity
  8
RACCORDO
100
AcDbLine
 62
7
  6
CONTINUOUS
 10
4.0117416315
 20
10.9401822996
 11
6.4492756398
 21
10.9401822996
  0
LINE
  5
282
100
AcDbEntity
  8
ASSI
100
AcDbLine
 62
7
  6
CONTINUOUS
 10
4.0117416315
 20
10.9401822996
 11
6.4492756398
 21
10.9401822996
  0
LINE
  5
283
100
AcDbEntity
  8
RACCORDO
100
AcDbLine
 62
7
  6
CONTINUOUS
 10
23.4742076209
 20
10.9401822996
 11
25.9117416292
 21
10.9401822996
  0
LINE
  5
284
100
AcDbEntity
  8
ASSI
100
AcDbLine
 62
7
  6
CONTINUOUS
 10
23.4742076209
 20
10.9401822996
 11
25.9117416292
 21
10.9401822996
  0
LINE
  5
285
100
AcDbEntity
  8
RACCORDO
100
AcDbLine
 62
7
  6
CONTINUOUS
 10
-8.5523460553
 20
-10.9585438301
 11
-5.4881716466
 21
-11.1191304062
  0
LINE
  5
286
100
AcDbEntity
  8
ASSI
100
AcDbLine
 62
7
  6
CONTINUOUS
 10
-8.5523460553
 20
-10.9585438301
 11
-5.4881716466
 21
-11.1191304062
  0
LINE
  5
287
100
AcDbEntity
  8
RACCORDO
100
AcDbLine
 62
253
  6
CONTINUOUS
 10
-8.5349215995
 20
-10.459228155
 11
-5.4446070403
 21
-10.6211846784
  0
LINE
  5
288
100
AcDbEntity
  8
ASSI
100
AcDbLine
 62
253
  6
CONTINUOUS
 10
-8.5349215995
 20
-10.459228155
 11
-5.4446070403
 21
-10.6211846784
  0
LINE
  5
289
100
AcDbEntity
  8
RACCORDO
100
AcDbLine
 62
253
  6
CONTINUOUS
 10
-9.4817396552
 20
-9.5017235569
 11
-9.9725900506
 21
-9.5222860085
  0
LINE
  5
28A
100
AcDbEntity
  8
ASSI
100
AcDbLine
 62
253
  6
CONTINUOUS
 10
-9.4817396552
 20
-9.5017235569
 11
-9.9725900506
 21
-9.5222860085
  0
LINE
  5
28B
100
AcDbEntity
  8
RACCORDO
100
AcDbLine
 62
253
  6
CONTINUOUS
 10
-5.0955844855
 20
-6.8933093017
 11
-5.1184602063
 21
-6.8933093075
  0
LINE
  5
28C
100
AcDbEntity
  8
ASSI
100
AcDbLine
 62
253
  6
CONTINUOUS
 10
-5.0955844855
 20
-6.8933093017
 11
-5.1184602063
 21
-6.8933093075
  0
LINE
  5
28D
100
AcDbEntity
  8
RACCORDO
100
AcDbLine
 62
7
  6
CONTINUOUS
 10
-5.0955844855
 20
-6.6318386215
 11
-5.0955844855
 21
-6.8933093017
  0
LINE
  5
28E
100
AcDbEntity
  8
ASSI
100
AcDbLine
 62
7
  6
CONTINUOUS
 10
-5.0955844855
 20
-6.6318386215
 11
-5.0955844855
 21
-6.8933093017
  0
LINE
  5
28F
100
AcDbEntity
  8
RACCORDO
100
AcDbLine
 62
7
  6
CONTINUOUS
 10
-4.6955844855
 20
10.9401822996
 11
-4.6955844855
 21
-2.0598177004
  0
LINE
  5
290
100
AcDbEntity
  8
ASSI
100
AcDbLine
 62
7
  6
CONTINUOUS
 10
-4.6955844855
 20
10.9401822996
 11
-4.6955844855
 21
-2.0598177004
  0
LINE
  5
291
100
AcDbEntity
  8
RACCORDO
100
AcDbLine
 62
7
  6
CONTINUOUS
 10
-4.6955844855
 20
-2.0598177004
 11
-5.4881716466
 21
-11.1191304062
  0
LINE
  5
292
100
AcDbEntity
  8
ASSI
100
AcDbLine
 62
7
  6
CONTINUOUS
 10
-4.6955844855
 20
-2.0598177004
 11
-5.4881716466
 21
-11.1191304062
  0
LINE
  5
293
100
AcDbEntity
  8
0
100
AcDbLine
 62
7
  6
CONTINUOUS
 10
-3.8955844855
 20
5.6401822996
 11
-3.8955844855
 21
7.4401822996
  0
LINE
  5
294
100
AcDbEntity
  8
0
100
AcDbLine
 62
7
  6
CONTINUOUS
 10
-4.6955844855
 20
5.6001822996
 11
-3.8955844855
 21
5.6401822996
  0
LINE
  5
295
100
AcDbEntity
  8
0
100
AcDbLine
 62
7
  6
CONTINUOUS
 10
-4.6955844855
 20
7.4801822996
 11
-3.8955844855
 21
7.4401822996
  0
LINE
  5
296
100
AcDbEntity
  8
RACCORDO
100
AcDbLine
 62
253
  6
CONTINUOUS
 10
-4.6955844855
 20
10.7402051448
 11
-9.9041746249
 21
10.6947504673
  0
LINE
  5
297
100
AcDbEntity
  8
ASSI
100
AcDbLine
 62
253
  6
CONTINUOUS
 10
-4.6955844855
 20
10.7402051448
 11
-9.9041746249
 21
10.6947504673
  0
LINE
  5
298
100
AcDbEntity
  8
RACCORDO
100
AcDbLine
 62
7
  6
CONTINUOUS
 10
-4.6955844855
 20
10.9401822996
 11
-10.1972086359
 21
10.892170353
  0
LINE
  5
299
100
AcDbEntity
  8
ASSI
100
AcDbLine
 62
7
  6
CONTINUOUS
 10
-4.6955844855
 20
10.9401822996
 11
-10.1972086359
 21
10.892170353
  0
ARC
  5
29A
100
AcDbEntity
  8
RACCORDO
100
AcDbCircle
 62
253
  6
CONTINUOUS
 10
14.9617416296
 20
6.5397706572
 40
1.4205653863
100
AcDbArc
 50
359.9802963605
 51
180.0197036395
  0
ARC
  5
29B
100
AcDbEntity
  8
ASSI
100
AcDbCircle
 62
253
  6
CONTINUOUS
 10
14.9617416296
 20
6.5397706572
 40
1.4205653863
100
AcDbArc
 50
359.9802963605
 51
180.0197036395
  0
ARC
  5
29C
100
AcDbEntity
  8
RACCORDO
100
AcDbCircle
 62
253
  6
CONTINUOUS
 10
14.961741631
 20
6.5392400142
 40
1.4205653241
100
AcDbArc
 50
179.998301812
 51
0.001698188
  0
ARC
  5
29D
100
AcDbEntity
  8
ASSI
100
AcDbCircle
 62
253
  6
CONTINUOUS
 10
14.961741631
 20
6.5392400142
 40
1.4205653241
100
AcDbArc
 50
179.998301812
 51
0.001698188
  0
CIRCLE
  5
29E
100
AcDbEntity
  8
RACCORDO
100
AcDbCircle
 62
253
  6
CONTINUOUS
 10
14.9617416304
 20
6.5403679751
 40
1.3206290234
  0
CIRCLE
  5
29F
100
AcDbEntity
  8
ASSI
100
AcDbCircle
 62
253
  6
CONTINUOUS
 10
14.9617416304
 20
6.5403679751
 40
1.3206290234
  0
CIRCLE
  5
2A0
100
AcDbEntity
  8
DRAFT
100
AcDbCircle
 62
7
  6
CONTINUOUS
 10
14.9617416303
 20
6.5401822996
 40
1.3
  0
CIRCLE
  5
2A1
100
AcDbEntity
  8
ASSI
100
AcDbCircle
 62
7
  6
CONTINUOUS
 10
14.9617416303
 20
6.5401822996
 40
1.3
  0
CIRCLE
  5
2A2
100
AcDbEntity
  8
DRAFT
100
AcDbCircle
 62
7
  6
CONTINUOUS
 10
14.9617416303
 20
6.5401822996
 40
1.225
  0
CIRCLE
  5
2A3
100
AcDbEntity
  8
RACCORDO
100
AcDbCircle
 62
253
  6
CONTINUOUS
 10
14.9617416303
 20
6.5401822996
 40
1.2068524201
  0
CIRCLE
  5
2A4
100
AcDbEntity
  8
RACCORDO
100
AcDbCircle
 62
253
  6
CONTINUOUS
 10
14.9617416303
 20
6.5401822996
 40
1.1180464865
  0
ARC
  5
2A5
100
AcDbEntity
  8
RACCORDO
100
AcDbCircle
 62
253
  6
CONTINUOUS
 10
25.5445930491
 20
-10.4583363961
 40
0.5001741994
100
AcDbArc
 50
270.0239231431
 51
359.8978391766
  0
ARC
  5
2A6
100
AcDbEntity
  8
ASSI
100
AcDbCircle
 62
253
  6
CONTINUOUS
 10
25.5445930491
 20
-10.4583363961
 40
0.5001741994
100
AcDbArc
 50
270.0239231431
 51
359.8978391766
  0
ARC
  5
2A7
100
AcDbEntity
  8
RACCORDO
100
AcDbCircle
 62
253
  6
CONTINUOUS
 10
4.3788902174
 20
-10.458336455
 40
0.5001741748
100
AcDbArc
 50
180.102154079
 51
269.9760761868
  0
ARC
  5
2A8
100
AcDbEntity
  8
ASSI
100
AcDbCircle
 62
253
  6
CONTINUOUS
 10
4.3788902174
 20
-10.458336455
 40
0.5001741748
100
AcDbArc
 50
180.102154079
 51
269.9760761868
  0
ARC
  5
2A9
100
AcDbEntity
  8
RACCORDO
100
AcDbCircle
 62
253
  6
CONTINUOUS
 10
25.8208078738
 20
10.6947279849
 40
0.2000157905
100
AcDbArc
 50
0.0063986483
 51
89.9863507457
  0
ARC
  5
2AA
100
AcDbEntity
  8
RACCORDO
100
AcDbCircle
 62
253
  6
CONTINUOUS
 10
4.102675386
 20
10.6947279921
 40
0.2000157905
100
AcDbArc
 50
90.0136490068
 51
179.9936034079
  0
ARC
  5
2AB
100
AcDbEntity
  8
ASSI
100
AcDbCircle
 62
253
  6
CONTINUOUS
 10
4.102675386
 20
10.6947279921
 40
0.2000157905
100
AcDbArc
 50
90.0136490068
 51
179.9936034079
  0
ARC
  5
2AC
100
AcDbEntity
  8
ASSI
100
AcDbCircle
 62
253
  6
CONTINUOUS
 10
25.8208078738
 20
10.6947279849
 40
0.2000157905
100
AcDbArc
 50
0.0063986483
 51
89.9863507457
  0
ARC
  5
2AD
100
AcDbEntity
  8
RACCORDO
100
AcDbCircle
 62
7
  6
CONTINUOUS
 10
-8.47385944
 20
-9.4605986203
 40
1.5
100
AcDbArc
 50
182.3561664986
 51
267.000662446
  0
ARC
  5
2AE
100
AcDbEntity
  8
ASSI
100
AcDbCircle
 62
7
  6
CONTINUOUS
 10
-8.47385944
 20
-9.4605986203
 40
1.5
100
AcDbArc
 50
182.3561664986
 51
267.000662446
  0
ARC
  5
2AF
100
AcDbEntity
  8
RACCORDO
100
AcDbCircle
 62
253
  6
CONTINUOUS
 10
-8.4825856353
 20
-9.4605986125
 40
1.0000000082
100
AcDbArc
 50
182.3569504196
 51
266.9999995712
  0
ARC
  5
2B0
100
AcDbEntity
  8
ASSI
100
AcDbCircle
 62
253
  6
CONTINUOUS
 10
-8.4825856353
 20
-9.4605986125
 40
1.0000000082
100
AcDbArc
 50
182.3569504196
 51
266.9999995712
  0
ARC
  5
2B1
100
AcDbEntity
  8
RACCORDO
100
AcDbCircle
 62
7
  6
CONTINUOUS
 10
-5.3955844855
 20
-6.8933093017
 40
0.3
100
AcDbArc
 50
335.0
 51
360.0
  0
ARC
  5
2B2
100
AcDbEntity
  8
ASSI
100
AcDbCircle
 62
7
  6
CONTINUOUS
 10
-5.3955844855
 20
-6.8933093017
 40
0.3
100
AcDbArc
 50
335.0
 51
360.0
  0
ARC
  5
2B3
100
AcDbEntity
  8
RACCORDO
100
AcDbCircle
 62
7
  6
CONTINUOUS
 10
-10.1954628181
 20
10.6921779728
 40
0.2
100
AcDbArc
 50
90.5001462858
 51
180.0398957513
  0
ARC
  5
2B4
100
AcDbEntity
  8
ASSI
100
AcDbCircle
 62
7
  6
CONTINUOUS
 10
-10.1954628181
 20
10.6921779728
 40
0.2
100
AcDbArc
 50
90.5001462858
 51
180.0398957513
  0
ARC
  5
2B5
100
AcDbEntity
  8
RACCORDO
100
AcDbCircle
 62
7
  6
CONTINUOUS
 10
489.6044155145
 20
11.0401822996
 40
500.0
100
AcDbArc
 50
180.0398943199
 51
182.3569476404
  0
ARC
  5
2B6
100
AcDbEntity
  8
ASSI
100
AcDbCircle
 62
7
  6
CONTINUOUS
 10
489.6044155145
 20
11.0401822996
 40
500.0
100
AcDbArc
 50
180.0398943199
 51
182.3569476404
  0
ARC
  5
2B7
100
AcDbEntity
  8
RACCORDO
100
AcDbCircle
 62
253
  6
CONTINUOUS
 10
489.5550626799
 20
11.0390037376
 40
499.4593584626
100
AcDbArc
 50
180.0394912235
 51
182.3570065688
  0
ARC
  5
2B8
100
AcDbEntity
  8
ASSI
100
AcDbCircle
 62
253
  6
CONTINUOUS
 10
489.5550626799
 20
11.0390037376
 40
499.4593584626
100
AcDbArc
 50
180.0394912235
 51
182.3570065688
  0
SPLINE
  5
2B9
100
AcDbEntity
  8
RACCORDO
100
AcDbSpline
 62
253
  6
CONTINUOUS
 70
0
 71
3
 72
11
 73
7
 74
5
 42
0.0000001
 43
0.0000001
 44
0.0000000001
 12
0.0002454385
 22
-20.214305979
 32
0.0
 13
0.014508362
 23
-20.214300774
 33
0.0
 40
0.0
 40
0.0
 40
0.0
 40
0.0
 40
0.2500750461
 40
0.5001057347
 40
0.7500838832
 40
1.0
 40
1.0
 40
1.0
 40
1.0
 10
25.5208847696
 20
10.69203871
 30
0.0
 10
25.5209052289
 20
9.0070075438
 30
0.0
 10
25.5212672949
 20
5.6372440949
 30
0.0
 10
25.5226555478
 20
0.5831025535
 30
0.0
 10
25.524947008
 20
-4.4699677803
 30
0.0
 10
25.5270664961
 20
-7.8383056796
 30
0.0
 10
25.5282751206
 20
-9.5222655308
 30
0.0
 11
25.5208847696
 21
10.69203871
 31
0.0
 11
25.521408234
 21
5.6369452381
 31
0.0
 11
25.522806278
 21
0.5827485874
 31
0.0
 11
25.5250952388
 21
-4.4703856768
 31
0.0
 11
25.5282751206
 21
-9.5222655308
 31
0.0
  0
SPLINE
  5
2BA
100
AcDbEntity
  8
RACCORDO
100
AcDbSpline
 62
253
  6
CONTINUOUS
 70
0
 71
3
 72
17
 73
13
 74
11
 42
0.0000001
 43
0.0000001
 44
0.0000000001
 12
-0.2685436887
 22
-0.1337076075
 32
0.0
 13
-0.2999890615
 23
-0.0000001894
 33
0.0
 40
0.0
 40
0.0
 40
0.0
 40
0.0
 40
0.0147850775
 40
0.053255719
 40
0.114525848
 40
0.1971200214
 40
0.2990571251
 40
0.4178801055
 40
0.5507176149
 40
0.6943786252
 40
0.8453688129
 40
1.0
 40
1.0
 40
1.0
 40
1.0
 10
25.8208555222
 20
10.8947427069
 30
0.0
 10
25.8195320424
 20
10.8940837478
 30
0.0
 10
25.8139001191
 20
10.8947017653
 30
0.0
 10
25.8027287515
 20
10.8935644296
 30
0.0
 10
25.7843512144
 20
10.8936469113
 30
0.0
 10
25.7598361047
 20
10.8931392256
 30
0.0
 10
25.7294803515
 20
10.8929094575
 30
0.0
 10
25.6941304868
 20
10.892632871
 30
0.0
 10
25.6545978358
 20
10.892434833
 30
0.0
 10
25.6118515138
 20
10.8922822066
 30
0.0
 10
25.566924774
 20
10.8921909887
 30
0.0
 10
25.5363637971
 20
10.8921703627
 30
0.0
 10
25.5209012422
 20
10.892170353
 30
0.0
 11
25.8208555222
 21
10.8947427069
 31
0.0
 11
25.8164386169
 21
10.8943385042
 31
0.0
 11
25.8049045587
 21
10.8939449167
 31
0.0
 11
25.7865279824
 21
10.8935715652
 31
0.0
 11
25.7617530225
 21
10.8932275317
 31
0.0
 11
25.7311745419
 21
10.8929210808
 31
0.0
 11
25.6955299065
 21
10.8926596124
 31
0.0
 11
25.655680661
 21
10.8924494402
 31
0.0
 11
25.6125842039
 21
10.8922956101
 31
0.0
 11
25.5672888962
 21
10.8922018388
 31
0.0
 11
25.5209012422
 21
10.892170353
 31
0.0
  0
SPLINE
  5
2BB
100
AcDbEntity
  8
RACCORDO
100
AcDbSpline
 62
253
  6
CONTINUOUS
 70
0
 71
3
 72
11
 73
7
 74
5
 42
0.0000001
 43
0.0000001
 44
0.0000000001
 12
0.014508362
 22
20.2143007745
 32
0.0
 13
0.0002454385
 23
20.2143059795
 33
0.0
 40
0.0
 40
0.0
 40
0.0
 40
0.0
 40
0.2499161168
 40
0.4998942654
 40
0.749924954
 40
1.0
 40
1.0
 40
1.0
 40
1.0
 10
4.39520814
 20
-9.5222655313
 30
0.0
 10
4.3964167645
 20
-7.83830568
 30
0.0
 10
4.3985362527
 20
-4.4699677805
 30
0.0
 10
4.4008277129
 20
0.5831025535
 30
0.0
 10
4.4022159657
 20
5.6372440949
 30
0.0
 10
4.4025780319
 20
9.0070075438
 30
0.0
 10
4.4025984913
 20
10.69203871
 30
0.0
 11
4.39520814
 21
-9.5222655313
 31
0.0
 11
4.3983880218
 21
-4.4703856768
 31
0.0
 11
4.4006769827
 21
0.5827485874
 31
0.0
 11
4.4020750266
 21
5.6369452381
 31
0.0
 11
4.4025984913
 21
10.69203871
 31
0.0
  0
SPLINE
  5
2BC
100
AcDbEntity
  8
RACCORDO
100
AcDbSpline
 62
253
  6
CONTINUOUS
 70
0
 71
3
 72
16
 73
12
 74
10
 42
0.0000001
 43
0.0000001
 44
0.0000000001
 12
0.1956190744
 22
-0.4614183123
 32
0.0
 13
0.501172178
 23
-0.0003594563
 33
0.0
 40
0.0
 40
0.0
 40
0.0
 40
0.0
 40
0.0191520824
 40
0.0665681378
 40
0.1414824155
 40
0.241789643
 40
0.3645557801
 40
0.506157455
 40
0.6624027643
 40
0.8286605242
 40
1.0
 40
1.0
 40
1.0
 40
1.0
 10
3.8952842796
 20
-9.5017235569
 30
0.0
 10
3.8965331171
 20
-9.5046692641
 30
0.0
 10
3.9104675249
 20
-9.5055092436
 30
0.0
 10
3.9313065502
 20
-9.5099362872
 30
0.0
 10
3.9697709253
 20
-9.5121371939
 30
0.0
 10
4.0189021168
 20
-9.5152363397
 30
0.0
 10
4.0799861673
 20
-9.5175543765
 30
0.0
 10
4.1501556552
 20
-9.5195954012
 30
0.0
 10
4.2276960321
 20
-9.5210808297
 30
0.0
 10
4.3101848933
 20
-9.5220281921
 30
0.0
 10
4.3665846011
 20
-9.5222654956
 30
0.0
 10
4.3952081272
 20
-9.5222860252
 30
0.0
 11
3.8952842796
 21
-9.5017235569
 31
0.0
 11
3.9042093316
 21
-9.5052554856
 31
0.0
 11
3.9277245432
 21
-9.5086824621
 31
0.0
 11
3.9651311536
 21
-9.5119026528
 31
0.0
 11
4.0153176153
 21
-9.514820369
 31
0.0
 11
4.0767926245
 21
-9.51734891
 31
0.0
 11
4.1477294348
 21
-9.5194131394
 31
0.0
 11
4.2260201402
 21
-9.5209517182
 31
0.0
 11
4.3093383115
 21
-9.5219189271
 31
0.0
 11
4.3952081272
 21
-9.5222860252
 31
0.0
  0
SPLINE
  5
2BD
100
AcDbEntity
  8
RACCORDO
100
AcDbSpline
 62
253
  6
CONTINUOUS
 70
0
 71
3
 72
17
 73
13
 74
11
 42
0.0000001
 43
0.0000001
 44
0.0000000001
 12
-0.4999637532
 22
0.0000027639
 32
0.0
 13
-0.4767936667
 23
0.150437874
 33
0.0
 40
0.0
 40
0.0
 40
0.0
 40
0.0
 40
0.1547342773
 40
0.3057145613
 40
0.4493652869
 40
0.5821875536
 40
0.7009933017
 40
0.8029183016
 40
0.8855064056
 40
0.9467746685
 40
0.9852386123
 40
1.0
 40
1.0
 40
1.0
 40
1.0
 10
4.4025984913
 20
10.6920387029
 30
0.0
 10
4.3768113146
 20
10.6920388454
 30
0.0
 10
4.3258626163
 20
10.6920608427
 30
0.0
 10
4.2509737216
 20
10.6921572682
 30
0.0
 10
4.1797373919
 20
10.6923186641
 30
0.0
 10
4.1138608926
 20
10.6925267743
 30
0.0
 10
4.0549459996
 20
10.6928209538
 30
0.0
 10
4.0043804578
 20
10.6930555792
 30
0.0
 10
3.9634674476
 20
10.6936111076
 30
0.0
 10
3.9329749531
 20
10.6934750182
 30
0.0
 10
3.9141027024
 20
10.6947646458
 30
0.0
 10
3.9050039551
 20
10.6940101895
 30
0.0
 10
3.9026579097
 20
10.6947504135
 30
0.0
 11
4.4025984913
 21
10.6920387029
 31
0.0
 11
4.3252369685
 21
10.692072283
 31
0.0
 11
4.2497523642
 21
10.6921714515
 31
0.0
 11
4.1779323919
 21
10.6923338674
 31
0.0
 11
4.1115264431
 21
10.692555578
 31
0.0
 11
4.0521285151
 21
10.6928312564
 31
0.0
 11
4.0011707332
 21
10.6931542445
 31
0.0
 11
3.9598812659
 21
10.6935167372
 31
0.0
 11
3.9292518803
 21
10.6939100452
 31
0.0
 11
3.9100257698
 21
10.6943245254
 31
0.0
 11
3.9026579097
 21
10.6947504135
 31
0.0
  0
SPLINE
  5
2BE
100
AcDbEntity
  8
RACCORDO
100
AcDbSpline
 62
253
  6
CONTINUOUS
 70
0
 71
3
 72
17
 73
13
 74
11
 42
0.0000001
 43
0.0000001
 44
0.0000000001
 12
-0.4767936648
 22
-0.1504378796
 32
0.0
 13
-0.4999637531
 23
-0.0000027639
 33
0.0
 40
0.0
 40
0.0
 40
0.0
 40
0.0
 40
0.0147613872
 40
0.0532253307
 40
0.1144935933
 40
0.1970816969
 40
0.2990066965
 40
0.4178124444
 40
0.5506347109
 40
0.6942854364
 40
0.8452657197
 40
1.0
 40
1.0
 40
1.0
 40
1.0
 10
26.020825351
 20
10.6947504135
 30
0.0
 10
26.0184793057
 20
10.6940101895
 30
0.0
 10
26.0093805585
 20
10.6947646459
 30
0.0
 10
25.9905083081
 20
10.6934750182
 30
0.0
 10
25.9600158137
 20
10.6936111077
 30
0.0
 10
25.9191028037
 20
10.6930555792
 30
0.0
 10
25.8685372621
 20
10.6928209538
 30
0.0
 10
25.8096223691
 20
10.6925267743
 30
0.0
 10
25.74374587
 20
10.6923186641
 30
0.0
 10
25.6725095404
 20
10.6921572682
 30
0.0
 10
25.5976206454
 20
10.6920608427
 30
0.0
 10
25.5466719468
 20
10.6920388454
 30
0.0
 10
25.5208847696
 20
10.6920387029
 30
0.0
 11
26.020825351
 21
10.6947504135
 31
0.0
 11
26.0134574911
 21
10.6943245254
 31
0.0
 11
25.9942313807
 21
10.6939100452
 31
0.0
 11
25.9636019953
 21
10.6935167372
 31
0.0
 11
25.9223125283
 21
10.6931542445
 31
0.0
 11
25.8713547465
 21
10.6928312564
 31
0.0
 11
25.8119568187
 21
10.692555578
 31
0.0
 11
25.74555087
 21
10.6923338674
 31
0.0
 11
25.6737308977
 21
10.6921714515
 31
0.0
 11
25.5982462938
 21
10.692072283
 31
0.0
 11
25.5208847696
 21
10.6920387029
 31
0.0
  0
SPLINE
  5
2BF
100
AcDbEntity
  8
RACCORDO
100
AcDbSpline
 62
253
  6
CONTINUOUS
 70
0
 71
3
 72
16
 73
12
 74
10
 42
0.0000001
 43
0.0000001
 44
0.0000000001
 12
-0.1956255021
 22
-0.4614155811
 32
0.0
 13
-0.5011721724
 23
-0.000359454
 33
0.0
 40
0.0
 40
0.0
 40
0.0
 40
0.0
 40
0.0191521757
 40
0.0665683036
 40
0.1414826259
 40
0.2417898699
 40
0.3645559974
 40
0.5061576398
 40
0.6624028983
 40
0.8286605946
 40
1.0
 40
1.0
 40
1.0
 40
1.0
 10
26.0281989811
 20
-9.5017235569
 30
0.0
 10
26.0269500964
 20
-9.504669261
 30
0.0
 10
26.0130157256
 20
-9.5055092395
 30
0.0
 10
25.9921766036
 20
-9.5099362799
 30
0.0
 10
25.9537122407
 20
-9.5121371874
 30
0.0
 10
25.9045810264
 20
-9.5152363299
 30
0.0
 10
25.8434969863
 20
-9.5175543651
 30
0.0
 10
25.7733275128
 20
-9.5195953877
 30
0.0
 10
25.6957871618
 20
-9.5210808147
 30
0.0
 10
25.6132983323
 20
-9.5220281759
 30
0.0
 10
25.5568986475
 20
-9.5222654789
 30
0.0
 10
25.5282751335
 20
-9.5222860085
 30
0.0
 11
26.0281989811
 21
-9.5017235569
 31
0.0
 11
26.0192738781
 21
-9.5052554837
 31
0.0
 11
25.9957586297
 21
-9.5086824579
 31
0.0
 11
25.9583519972
 21
-9.5119026463
 31
0.0
 11
25.9081655276
 21
-9.5148203601
 31
0.0
 11
25.8466905238
 21
-9.5173488988
 31
0.0
 11
25.7757537305
 21
-9.5194131262
 31
0.0
 11
25.6974630515
 21
-9.5209517034
 31
0.0
 11
25.614144913
 21
-9.5219189111
 31
0.0
 11
25.5282751335
 21
-9.5222860085
 31
0.0
  0
SPLINE
  5
2C0
100
AcDbEntity
  8
RACCORDO
100
AcDbSpline
 62
253
  6
CONTINUOUS
 70
0
 71
3
 72
19
 73
15
 74
13
 42
0.0000001
 43
0.0000001
 44
0.0000000001
 12
0.3112970811
 22
1.4023966309
 32
0.0
 13
0.0006887534
 23
1.4365311374
 33
0.0
 40
0.0
 40
0.0
 40
0.0
 40
0.0
 40
0.0146769045
 40
0.0448767047
 40
0.0901730857
 40
0.1498829261
 40
0.2231060618
 40
0.3087379823
 40
0.4054808333
 40
0.5118669653
 40
0.6262890873
 40
0.7470199919
 40
0.8722200831
 40
1.0
 40
1.0
 40
1.0
 40
1.0
 10
4.3786811561
 20
-10.95854383
 30
0.0
 10
4.3802041153
 20
-10.9516828829
 30
0.0
 10
4.3810879661
 20
-10.9300700114
 30
0.0
 10
4.3834759184
 20
-10.8870613114
 30
0.0
 10
4.3851105332
 20
-10.8222805397
 30
0.0
 10
4.3870458701
 20
-10.7369819446
 30
0.0
 10
4.3887245756
 20
-10.6323277067
 30
0.0
 10
4.3903042721
 20
-10.5099493254
 30
0.0
 10
4.3916878249
 20
-10.3716837426
 30
0.0
 10
4.3928739488
 20
-10.219631209
 30
0.0
 10
4.3938358775
 20
-10.056089959
 30
0.0
 10
4.3945602115
 20
-9.8835385875
 30
0.0
 10
4.3950347053
 20
-9.7045900033
 30
0.0
 10
4.3951788153
 20
-9.5834521411
 30
0.0
 10
4.3952081516
 20
-9.5222655313
 30
0.0
 11
4.3786811561
 21
-10.95854383
 31
0.0
 11
4.3808148183
 21
-10.9375682373
 31
0.0
 11
4.38290227
 21
-10.8942355289
 31
0.0
 11
4.3849122219
 21
-10.82919691
 31
0.0
 11
4.3868138966
 21
-10.7434429383
 31
0.0
 11
4.3885786351
 21
-10.6382704165
 31
0.0
 11
4.3901797518
 21
-10.5152679026
 31
0.0
 11
4.3915929597
 21
-10.3763009544
 31
0.0
 11
4.392796839
 21
-10.2234786875
 31
0.0
 11
4.3937732127
 21
-10.0591106273
 31
0.0
 11
4.3945073466
 21
-9.8856784575
 31
0.0
 11
4.3949880546
 21
-9.7058252498
 31
0.0
 11
4.3952081516
 21
-9.5222655313
 31
0.0
  0
SPLINE
  5
2C1
100
AcDbEntity
  8
RACCORDO
100
AcDbSpline
 62
253
  6
CONTINUOUS
 70
0
 71
3
 72
19
 73
15
 74
13
 42
0.0000001
 43
0.0000001
 44
0.0000000001
 12
0.0006887534
 22
-1.4365311378
 32
0.0
 13
0.3112970789
 23
-1.4023966318
 33
0.0
 40
0.0
 40
0.0
 40
0.0
 40
0.0
 40
0.1277799165
 40
0.2529800076
 40
0.3737109122
 40
0.4881330342
 40
0.5945191662
 40
0.6912620172
 40
0.7768939378
 40
0.8501170735
 40
0.9098269139
 40
0.9551232951
 40
0.9853230954
 40
1.0
 40
1.0
 40
1.0
 40
1.0
 10
25.5282751091
 20
-9.5222655308
 30
0.0
 10
25.5283044454
 20
-9.5834521404
 30
0.0
 10
25.5284485554
 20
-9.7045900024
 30
0.0
 10
25.5289230491
 20
-9.8835385865
 30
0.0
 10
25.5296473832
 20
-10.056089958
 30
0.0
 10
25.5306093119
 20
-10.219631208
 30
0.0
 10
25.5317954358
 20
-10.3716837416
 30
0.0
 10
25.5331789886
 20
-10.5099493245
 30
0.0
 10
25.5347586851
 20
-10.632327706
 30
0.0
 10
25.5364373906
 20
-10.7369819439
 30
0.0
 10
25.5383727274
 20
-10.8222805391
 30
0.0
 10
25.5400073422
 20
-10.887061311
 30
0.0
 10
25.5423952946
 20
-10.9300700112
 30
0.0
 10
25.5432791454
 20
-10.9516828828
 30
0.0
 10
25.5448021045
 20
-10.95854383
 30
0.0
 11
25.5282751091
 21
-9.5222655308
 31
0.0
 11
25.5284952061
 21
-9.7058252488
 31
0.0
 11
25.5289759141
 21
-9.8856784564
 31
0.0
 11
25.529710048
 21
-10.0591106263
 31
0.0
 11
25.5306864217
 21
-10.2234786865
 31
0.0
 11
25.5318903009
 21
-10.3763009535
 31
0.0
 11
25.5333035088
 21
-10.5152679017
 31
0.0
 11
25.5349046255
 21
-10.6382704157
 31
0.0
 11
25.5366693641
 21
-10.7434429377
 31
0.0
 11
25.5385710388
 21
-10.8291969094
 31
0.0
 11
25.5405809907
 21
-10.8942355285
 31
0.0
 11
25.5426684423
 21
-10.9375682371
 31
0.0
 11
25.5448021045
 21
-10.95854383
 31
0.0
  0
SPLINE
  5
2C2
100
AcDbEntity
  8
RACCORDO
100
AcDbSpline
 62
253
  6
CONTINUOUS
 70
0
 71
3
 72
17
 73
13
 74
11
 42
0.0000001
 43
0.0000001
 44
0.0000000001
 12
-0.2999890615
 22
0.0000001894
 32
0.0
 13
-0.26854368
 23
0.1337076248
 33
0.0
 40
0.0
 40
0.0
 40
0.0
 40
0.0
 40
0.1546311843
 40
0.3056213721
 40
0.4492823827
 40
0.5821198924
 40
0.700942873
 40
0.8028799771
 40
0.8854741508
 40
0.9467442802
 40
0.985214922
 40
1.0
 40
1.0
 40
1.0
 40
1.0
 10
4.4025820184
 20
10.892170353
 30
0.0
 10
4.3871194638
 20
10.8921703627
 30
0.0
 10
4.3565584872
 20
10.8921909887
 30
0.0
 10
4.3116317477
 20
10.8922822066
 30
0.0
 10
4.2688854256
 20
10.892434833
 30
0.0
 10
4.2293527745
 20
10.892632871
 30
0.0
 10
4.1940029098
 20
10.8929094575
 30
0.0
 10
4.1636471564
 20
10.8931392256
 30
0.0
 10
4.1391320467
 20
10.8936469113
 30
0.0
 10
4.1207545094
 20
10.8935644295
 30
0.0
 10
4.1095831418
 20
10.8947017654
 30
0.0
 10
4.1039512183
 20
10.8940837477
 30
0.0
 10
4.1026277385
 20
10.8947427069
 30
0.0
 11
4.4025820184
 21
10.892170353
 31
0.0
 11
4.3561943653
 21
10.8922018388
 31
0.0
 11
4.3108990576
 21
10.8922956101
 31
0.0
 11
4.2678026004
 21
10.8924494402
 31
0.0
 11
4.2279533548
 21
10.8926596123
 31
0.0
 11
4.1923087193
 21
10.8929210808
 31
0.0
 11
4.1617302387
 21
10.8932275317
 31
0.0
 11
4.1369552786
 21
10.8935715652
 31
0.0
 11
4.1185787022
 21
10.8939449167
 31
0.0
 11
4.1070446439
 21
10.8943385042
 31
0.0
 11
4.1026277385
 21
10.8947427069
 31
0.0
  0
SPLINE
  5
2C3
100
AcDbEntity
  8
RACCORDO
100
AcDbSpline
 62
253
  6
CONTINUOUS
 70
0
 71
3
 72
11
 73
7
 74
5
 42
0.0000001
 43
0.0000001
 44
0.0000000001
 12
0.0002437993
 22
-20.1964757625
 32
0.0
 13
0.0145100748
 23
-20.1964705516
 33
0.0
 40
0.0
 40
0.0
 40
0.0
 40
0.0
 40
0.2500744181
 40
0.5001049868
 40
0.7500830172
 40
1.0
 40
1.0
 40
1.0
 40
1.0
 10
26.0208253513
 20
10.6947504673
 30
0.0
 10
26.0208456739
 20
9.0112098257
 30
0.0
 10
26.0211829915
 20
5.6444237402
 30
0.0
 10
26.0225810216
 20
0.5947460826
 30
0.0
 10
26.0248699046
 20
-4.4538713701
 30
0.0
 10
26.0269902097
 20
-7.8192432289
 30
0.0
 10
26.0281989811
 20
-9.5017235569
 30
0.0
 11
26.0208253513
 21
10.6947504673
 31
0.0
 11
26.0213317459
 21
5.6441285675
 31
0.0
 11
26.0227296924
 21
0.5943924407
 31
0.0
 11
26.0250187653
 21
-4.4542822721
 31
0.0
 11
26.0281989811
 21
-9.5017235569
 31
0.0
  0
SPLINE
  5
2C4
100
AcDbEntity
  8
RACCORDO
100
AcDbSpline
 62
253
  6
CONTINUOUS
 70
0
 71
3
 72
19
 73
15
 74
13
 42
0.0000001
 43
0.0000001
 44
0.0000000001
 12
0.0006887042
 22
-0.9578832426
 32
0.0
 13
0.3025453754
 23
-0.9088493146
 33
0.0
 40
0.0
 40
0.0
 40
0.0
 40
0.0
 40
0.1277154689
 40
0.2528938267
 40
0.3736053495
 40
0.4880108521
 40
0.5943837456
 40
0.691117303
 40
0.7767445806
 40
0.8499684188
 40
0.9096858115
 40
0.9549999701
 40
0.9852364108
 40
1.0
 40
1.0
 40
1.0
 40
1.0
 10
26.0281989811
 20
-9.5017235569
 30
0.0
 10
26.0282283005
 20
-9.5425023927
 30
0.0
 10
26.0283723834
 20
-9.6232499431
 30
0.0
 10
26.0288468168
 20
-9.7425392387
 30
0.0
 10
26.0295711054
 20
-9.8575773655
 30
0.0
 10
26.0305330841
 20
-9.9666092358
 30
0.0
 10
26.0317191087
 20
-10.0679818389
 30
0.0
 10
26.0331030848
 20
-10.1601641545
 30
0.0
 10
26.034681698
 20
-10.2417516527
 30
0.0
 10
26.0363639311
 20
-10.311532062
 30
0.0
 10
26.0382900876
 20
-10.368382665
 30
0.0
 10
26.0399481911
 20
-10.4116235084
 30
0.0
 10
26.0422914402
 20
-10.4402187085
 30
0.0
 10
26.0432368665
 20
-10.4547555291
 30
0.0
 10
26.0447257517
 20
-10.459228155
 30
0.0
 11
26.0281989811
 21
-9.5017235569
 31
0.0
 11
26.0284189869
 21
-9.6240598982
 31
0.0
 11
26.0288996711
 21
-9.743965217
 31
0.0
 11
26.0296337796
 21
-9.8595904613
 31
0.0
 11
26.0306101563
 21
-9.9691732538
 31
0.0
 11
26.031814051
 21
-10.0710589799
 31
0.0
 11
26.0332272963
 21
-10.1637076794
 31
0.0
 11
26.034828471
 21
-10.2457130047
 31
0.0
 11
26.0365932759
 21
-10.3158307046
 31
0.0
 11
26.038495034
 21
-10.3730013873
 31
0.0
 11
26.040505025
 21
-10.4163605083
 31
0.0
 11
26.042592608
 21
-10.4452481636
 31
0.0
 11
26.0447257517
 21
-10.459228155
 31
0.0
  0
SPLINE
  5
2C5
100
AcDbEntity
  8
RACCORDO
100
AcDbSpline
 62
253
  6
CONTINUOUS
 70
0
 71
3
 72
19
 73
15
 74
13
 42
0.0000001
 43
0.0000001
 44
0.0000000001
 12
0.3025453665
 22
0.9088493175
 32
0.0
 13
0.0006887042
 23
0.9578832426
 33
0.0
 40
0.0
 40
0.0
 40
0.0
 40
0.0
 40
0.0147635891
 40
0.0450000296
 40
0.0903141881
 40
0.1500315807
 40
0.2232554188
 40
0.3088826964
 40
0.4056162537
 40
0.5119891472
 40
0.6263946498
 40
0.7471061725
 40
0.8722845304
 40
1.0
 40
1.0
 40
1.0
 40
1.0
 10
3.8787575089
 20
-10.459228155
 30
0.0
 10
3.8802463941
 20
-10.4547555291
 30
0.0
 10
3.8811918205
 20
-10.4402187087
 30
0.0
 10
3.8835350696
 20
-10.4116235087
 30
0.0
 10
3.8851931731
 20
-10.3683826654
 30
0.0
 10
3.8871193295
 20
-10.3115320624
 30
0.0
 10
3.8888015627
 20
-10.2417516532
 30
0.0
 10
3.8903801759
 20
-10.1601641551
 30
0.0
 10
3.891764152
 20
-10.0679818396
 30
0.0
 10
3.8929501766
 20
-9.9666092364
 30
0.0
 10
3.8939121553
 20
-9.8575773662
 30
0.0
 10
3.8946364438
 20
-9.7425392394
 30
0.0
 10
3.8951108773
 20
-9.6232499435
 30
0.0
 10
3.8952549602
 20
-9.542502393
 30
0.0
 10
3.8952842796
 20
-9.5017235569
 30
0.0
 11
3.8787575089
 21
-10.459228155
 31
0.0
 11
3.8808906527
 21
-10.4452481638
 31
0.0
 11
3.8829782357
 21
-10.4163605086
 31
0.0
 11
3.8849882267
 21
-10.3730013877
 31
0.0
 11
3.8868899848
 21
-10.315830705
 31
0.0
 11
3.8886547897
 21
-10.2457130053
 31
0.0
 11
3.8902559643
 21
-10.16370768
 31
0.0
 11
3.8916692097
 21
-10.0710589805
 31
0.0
 11
3.8928731043
 21
-9.9691732545
 31
0.0
 11
3.8938494811
 21
-9.859590462
 31
0.0
 11
3.8945835896
 21
-9.7439652177
 31
0.0
 11
3.8950642738
 21
-9.6240598989
 31
0.0
 11
3.8952842796
 21
-9.5017235569
 31
0.0
  0
SPLINE
  5
2C6
100
AcDbEntity
  8
RACCORDO
100
AcDbSpline
 62
253
  6
CONTINUOUS
 70
0
 71
3
 72
11
 73
7
 74
5
 42
0.0000001
 43
0.0000001
 44
0.0000000001
 12
0.0145100748
 22
20.1964705516
 32
0.0
 13
0.0002437993
 23
20.1964757625
 33
0.0
 40
0.0
 40
0.0
 40
0.0
 40
0.0
 40
0.2499169828
 40
0.4998950132
 40
0.7499255819
 40
1.0
 40
1.0
 40
1.0
 40
1.0
 10
3.8952842796
 20
-9.5017235569
 30
0.0
 10
3.896493051
 20
-7.8192432289
 30
0.0
 10
3.8986133561
 20
-4.4538713701
 30
0.0
 10
3.9009022391
 20
0.5947460826
 30
0.0
 10
3.9023002692
 20
5.6444237402
 30
0.0
 10
3.9026375868
 20
9.0112098257
 30
0.0
 10
3.9026579094
 20
10.6947504673
 30
0.0
 11
3.8952842796
 21
-9.5017235569
 31
0.0
 11
3.8984644954
 21
-4.4542822721
 31
0.0
 11
3.9007535683
 21
0.5943924407
 31
0.0
 11
3.9021515148
 21
5.6441285675
 31
0.0
 11
3.9026579094
 21
10.6947504673
 31
0.0
  0
SPLINE
  5
2C7
100
AcDbEntity
  8
ASSI
100
AcDbSpline
 62
253
  6
CONTINUOUS
 70
0
 71
3
 72
17
 73
13
 74
11
 42
0.0000001
 43
0.0000001
 44
0.0000000001
 12
-0.2685436887
 22
-0.1337076075
 32
0.0
 13
-0.2999890615
 23
-0.0000001894
 33
0.0
 40
0.0
 40
0.0
 40
0.0
 40
0.0
 40
0.0147850775
 40
0.053255719
 40
0.114525848
 40
0.1971200214
 40
0.2990571251
 40
0.4178801055
 40
0.5507176149
 40
0.6943786252
 40
0.8453688129
 40
1.0
 40
1.0
 40
1.0
 40
1.0
 10
25.8208555222
 20
10.8947427069
 30
0.0
 10
25.8195320424
 20
10.8940837478
 30
0.0
 10
25.8139001191
 20
10.8947017653
 30
0.0
 10
25.8027287515
 20
10.8935644296
 30
0.0
 10
25.7843512144
 20
10.8936469113
 30
0.0
 10
25.7598361047
 20
10.8931392256
 30
0.0
 10
25.7294803515
 20
10.8929094575
 30
0.0
 10
25.6941304868
 20
10.892632871
 30
0.0
 10
25.6545978358
 20
10.892434833
 30
0.0
 10
25.6118515138
 20
10.8922822066
 30
0.0
 10
25.566924774
 20
10.8921909887
 30
0.0
 10
25.5363637971
 20
10.8921703627
 30
0.0
 10
25.5209012422
 20
10.892170353
 30
0.0
 11
25.8208555222
 21
10.8947427069
 31
0.0
 11
25.8164386169
 21
10.8943385042
 31
0.0
 11
25.8049045587
 21
10.8939449167
 31
0.0
 11
25.7865279824
 21
10.8935715652
 31
0.0
 11
25.7617530225
 21
10.8932275317
 31
0.0
 11
25.7311745419
 21
10.8929210808
 31
0.0
 11
25.6955299065
 21
10.8926596124
 31
0.0
 11
25.655680661
 21
10.8924494402
 31
0.0
 11
25.6125842039
 21
10.8922956101
 31
0.0
 11
25.5672888962
 21
10.8922018388
 31
0.0
 11
25.5209012422
 21
10.892170353
 31
0.0
  0
SPLINE
  5
2C8
100
AcDbEntity
  8
ASSI
100
AcDbSpline
 62
253
  6
CONTINUOUS
 70
0
 71
3
 72
11
 73
7
 74
5
 42
0.0000001
 43
0.0000001
 44
0.0000000001
 12
0.0002454385
 22
-20.214305979
 32
0.0
 13
0.014508362
 23
-20.214300774
 33
0.0
 40
0.0
 40
0.0
 40
0.0
 40
0.0
 40
0.2500750461
 40
0.5001057347
 40
0.7500838832
 40
1.0
 40
1.0
 40
1.0
 40
1.0
 10
25.5208847696
 20
10.69203871
 30
0.0
 10
25.5209052289
 20
9.0070075438
 30
0.0
 10
25.5212672949
 20
5.6372440949
 30
0.0
 10
25.5226555478
 20
0.5831025535
 30
0.0
 10
25.524947008
 20
-4.4699677803
 30
0.0
 10
25.5270664961
 20
-7.8383056796
 30
0.0
 10
25.5282751206
 20
-9.5222655308
 30
0.0
 11
25.5208847696
 21
10.69203871
 31
0.0
 11
25.521408234
 21
5.6369452381
 31
0.0
 11
25.522806278
 21
0.5827485874
 31
0.0
 11
25.5250952388
 21
-4.4703856768
 31
0.0
 11
25.5282751206
 21
-9.5222655308
 31
0.0
  0
SPLINE
  5
2C9
100
AcDbEntity
  8
ASSI
100
AcDbSpline
 62
253
  6
CONTINUOUS
 70
0
 71
3
 72
11
 73
7
 74
5
 42
0.0000001
 43
0.0000001
 44
0.0000000001
 12
0.014508362
 22
20.2143007745
 32
0.0
 13
0.0002454385
 23
20.2143059795
 33
0.0
 40
0.0
 40
0.0
 40
0.0
 40
0.0
 40
0.2499161168
 40
0.4998942654
 40
0.749924954
 40
1.0
 40
1.0
 40
1.0
 40
1.0
 10
4.39520814
 20
-9.5222655313
 30
0.0
 10
4.3964167645
 20
-7.83830568
 30
0.0
 10
4.3985362527
 20
-4.4699677805
 30
0.0
 10
4.4008277129
 20
0.5831025535
 30
0.0
 10
4.4022159657
 20
5.6372440949
 30
0.0
 10
4.4025780319
 20
9.0070075438
 30
0.0
 10
4.4025984913
 20
10.69203871
 30
0.0
 11
4.39520814
 21
-9.5222655313
 31
0.0
 11
4.3983880218
 21
-4.4703856768
 31
0.0
 11
4.4006769827
 21
0.5827485874
 31
0.0
 11
4.4020750266
 21
5.6369452381
 31
0.0
 11
4.4025984913
 21
10.69203871
 31
0.0
  0
SPLINE
  5
2CA
100
AcDbEntity
  8
ASSI
100
AcDbSpline
 62
253
  6
CONTINUOUS
 70
0
 71
3
 72
16
 73
12
 74
10
 42
0.0000001
 43
0.0000001
 44
0.0000000001
 12
0.1956190744
 22
-0.4614183123
 32
0.0
 13
0.501172178
 23
-0.0003594563
 33
0.0
 40
0.0
 40
0.0
 40
0.0
 40
0.0
 40
0.0191520824
 40
0.0665681378
 40
0.1414824155
 40
0.241789643
 40
0.3645557801
 40
0.506157455
 40
0.6624027643
 40
0.8286605242
 40
1.0
 40
1.0
 40
1.0
 40
1.0
 10
3.8952842796
 20
-9.5017235569
 30
0.0
 10
3.8965331171
 20
-9.5046692641
 30
0.0
 10
3.9104675249
 20
-9.5055092436
 30
0.0
 10
3.9313065502
 20
-9.5099362872
 30
0.0
 10
3.9697709253
 20
-9.5121371939
 30
0.0
 10
4.0189021168
 20
-9.5152363397
 30
0.0
 10
4.0799861673
 20
-9.5175543765
 30
0.0
 10
4.1501556552
 20
-9.5195954012
 30
0.0
 10
4.2276960321
 20
-9.5210808297
 30
0.0
 10
4.3101848933
 20
-9.5220281921
 30
0.0
 10
4.3665846011
 20
-9.5222654956
 30
0.0
 10
4.3952081272
 20
-9.5222860252
 30
0.0
 11
3.8952842796
 21
-9.5017235569
 31
0.0
 11
3.9042093316
 21
-9.5052554856
 31
0.0
 11
3.9277245432
 21
-9.5086824621
 31
0.0
 11
3.9651311536
 21
-9.5119026528
 31
0.0
 11
4.0153176153
 21
-9.514820369
 31
0.0
 11
4.0767926245
 21
-9.51734891
 31
0.0
 11
4.1477294348
 21
-9.5194131394
 31
0.0
 11
4.2260201402
 21
-9.5209517182
 31
0.0
 11
4.3093383115
 21
-9.5219189271
 31
0.0
 11
4.3952081272
 21
-9.5222860252
 31
0.0
  0
SPLINE
  5
2CB
100
AcDbEntity
  8
ASSI
100
AcDbSpline
 62
253
  6
CONTINUOUS
 70
0
 71
3
 72
17
 73
13
 74
11
 42
0.0000001
 43
0.0000001
 44
0.0000000001
 12
-0.4999637532
 22
0.0000027639
 32
0.0
 13
-0.4767936667
 23
0.150437874
 33
0.0
 40
0.0
 40
0.0
 40
0.0
 40
0.0
 40
0.1547342773
 40
0.3057145613
 40
0.4493652869
 40
0.5821875536
 40
0.7009933017
 40
0.8029183016
 40
0.8855064056
 40
0.9467746685
 40
0.9852386123
 40
1.0
 40
1.0
 40
1.0
 40
1.0
 10
4.4025984913
 20
10.6920387029
 30
0.0
 10
4.3768113146
 20
10.6920388454
 30
0.0
 10
4.3258626163
 20
10.6920608427
 30
0.0
 10
4.2509737216
 20
10.6921572682
 30
0.0
 10
4.1797373919
 20
10.6923186641
 30
0.0
 10
4.1138608926
 20
10.6925267743
 30
0.0
 10
4.0549459996
 20
10.6928209538
 30
0.0
 10
4.0043804578
 20
10.6930555792
 30
0.0
 10
3.9634674476
 20
10.6936111076
 30
0.0
 10
3.9329749531
 20
10.6934750182
 30
0.0
 10
3.9141027024
 20
10.6947646458
 30
0.0
 10
3.9050039551
 20
10.6940101895
 30
0.0
 10
3.9026579097
 20
10.6947504135
 30
0.0
 11
4.4025984913
 21
10.6920387029
 31
0.0
 11
4.3252369685
 21
10.692072283
 31
0.0
 11
4.2497523642
 21
10.6921714515
 31
0.0
 11
4.1779323919
 21
10.6923338674
 31
0.0
 11
4.1115264431
 21
10.692555578
 31
0.0
 11
4.0521285151
 21
10.6928312564
 31
0.0
 11
4.0011707332
 21
10.6931542445
 31
0.0
 11
3.9598812659
 21
10.6935167372
 31
0.0
 11
3.9292518803
 21
10.6939100452
 31
0.0
 11
3.9100257698
 21
10.6943245254
 31
0.0
 11
3.9026579097
 21
10.6947504135
 31
0.0
  0
SPLINE
  5
2CC
100
AcDbEntity
  8
ASSI
100
AcDbSpline
 62
253
  6
CONTINUOUS
 70
0
 71
3
 72
17
 73
13
 74
11
 42
0.0000001
 43
0.0000001
 44
0.0000000001
 12
-0.4767936648
 22
-0.1504378796
 32
0.0
 13
-0.4999637531
 23
-0.0000027639
 33
0.0
 40
0.0
 40
0.0
 40
0.0
 40
0.0
 40
0.0147613872
 40
0.0532253307
 40
0.1144935933
 40
0.1970816969
 40
0.2990066965
 40
0.4178124444
 40
0.5506347109
 40
0.6942854364
 40
0.8452657197
 40
1.0
 40
1.0
 40
1.0
 40
1.0
 10
26.020825351
 20
10.6947504135
 30
0.0
 10
26.0184793057
 20
10.6940101895
 30
0.0
 10
26.0093805585
 20
10.6947646459
 30
0.0
 10
25.9905083081
 20
10.6934750182
 30
0.0
 10
25.9600158137
 20
10.6936111077
 30
0.0
 10
25.9191028037
 20
10.6930555792
 30
0.0
 10
25.8685372621
 20
10.6928209538
 30
0.0
 10
25.8096223691
 20
10.6925267743
 30
0.0
 10
25.74374587
 20
10.6923186641
 30
0.0
 10
25.6725095404
 20
10.6921572682
 30
0.0
 10
25.5976206454
 20
10.6920608427
 30
0.0
 10
25.5466719468
 20
10.6920388454
 30
0.0
 10
25.5208847696
 20
10.6920387029
 30
0.0
 11
26.020825351
 21
10.6947504135
 31
0.0
 11
26.0134574911
 21
10.6943245254
 31
0.0
 11
25.9942313807
 21
10.6939100452
 31
0.0
 11
25.9636019953
 21
10.6935167372
 31
0.0
 11
25.9223125283
 21
10.6931542445
 31
0.0
 11
25.8713547465
 21
10.6928312564
 31
0.0
 11
25.8119568187
 21
10.692555578
 31
0.0
 11
25.74555087
 21
10.6923338674
 31
0.0
 11
25.6737308977
 21
10.6921714515
 31
0.0
 11
25.5982462938
 21
10.692072283
 31
0.0
 11
25.5208847696
 21
10.6920387029
 31
0.0
  0
SPLINE
  5
2CD
100
AcDbEntity
  8
ASSI
100
AcDbSpline
 62
253
  6
CONTINUOUS
 70
0
 71
3
 72
16
 73
12
 74
10
 42
0.0000001
 43
0.0000001
 44
0.0000000001
 12
-0.1956255021
 22
-0.4614155811
 32
0.0
 13
-0.5011721724
 23
-0.000359454
 33
0.0
 40
0.0
 40
0.0
 40
0.0
 40
0.0
 40
0.0191521757
 40
0.0665683036
 40
0.1414826259
 40
0.2417898699
 40
0.3645559974
 40
0.5061576398
 40
0.6624028983
 40
0.8286605946
 40
1.0
 40
1.0
 40
1.0
 40
1.0
 10
26.0281989811
 20
-9.5017235569
 30
0.0
 10
26.0269500964
 20
-9.504669261
 30
0.0
 10
26.0130157256
 20
-9.5055092395
 30
0.0
 10
25.9921766036
 20
-9.5099362799
 30
0.0
 10
25.9537122407
 20
-9.5121371874
 30
0.0
 10
25.9045810264
 20
-9.5152363299
 30
0.0
 10
25.8434969863
 20
-9.5175543651
 30
0.0
 10
25.7733275128
 20
-9.5195953877
 30
0.0
 10
25.6957871618
 20
-9.5210808147
 30
0.0
 10
25.6132983323
 20
-9.5220281759
 30
0.0
 10
25.5568986475
 20
-9.5222654789
 30
0.0
 10
25.5282751335
 20
-9.5222860085
 30
0.0
 11
26.0281989811
 21
-9.5017235569
 31
0.0
 11
26.0192738781
 21
-9.5052554837
 31
0.0
 11
25.9957586297
 21
-9.5086824579
 31
0.0
 11
25.9583519972
 21
-9.5119026463
 31
0.0
 11
25.9081655276
 21
-9.5148203601
 31
0.0
 11
25.8466905238
 21
-9.5173488988
 31
0.0
 11
25.7757537305
 21
-9.5194131262
 31
0.0
 11
25.6974630515
 21
-9.5209517034
 31
0.0
 11
25.614144913
 21
-9.5219189111
 31
0.0
 11
25.5282751335
 21
-9.5222860085
 31
0.0
  0
SPLINE
  5
2CE
100
AcDbEntity
  8
ASSI
100
AcDbSpline
 62
253
  6
CONTINUOUS
 70
0
 71
3
 72
19
 73
15
 74
13
 42
0.0000001
 43
0.0000001
 44
0.0000000001
 12
0.3112970811
 22
1.4023966309
 32
0.0
 13
0.0006887534
 23
1.4365311374
 33
0.0
 40
0.0
 40
0.0
 40
0.0
 40
0.0
 40
0.0146769045
 40
0.0448767047
 40
0.0901730857
 40
0.1498829261
 40
0.2231060618
 40
0.3087379823
 40
0.4054808333
 40
0.5118669653
 40
0.6262890873
 40
0.7470199919
 40
0.8722200831
 40
1.0
 40
1.0
 40
1.0
 40
1.0
 10
4.3786811561
 20
-10.95854383
 30
0.0
 10
4.3802041153
 20
-10.9516828829
 30
0.0
 10
4.3810879661
 20
-10.9300700114
 30
0.0
 10
4.3834759184
 20
-10.8870613114
 30
0.0
 10
4.3851105332
 20
-10.8222805397
 30
0.0
 10
4.3870458701
 20
-10.7369819446
 30
0.0
 10
4.3887245756
 20
-10.6323277067
 30
0.0
 10
4.3903042721
 20
-10.5099493254
 30
0.0
 10
4.3916878249
 20
-10.3716837426
 30
0.0
 10
4.3928739488
 20
-10.219631209
 30
0.0
 10
4.3938358775
 20
-10.056089959
 30
0.0
 10
4.3945602115
 20
-9.8835385875
 30
0.0
 10
4.3950347053
 20
-9.7045900033
 30
0.0
 10
4.3951788153
 20
-9.5834521411
 30
0.0
 10
4.3952081516
 20
-9.5222655313
 30
0.0
 11
4.3786811561
 21
-10.95854383
 31
0.0
 11
4.3808148183
 21
-10.9375682373
 31
0.0
 11
4.38290227
 21
-10.8942355289
 31
0.0
 11
4.3849122219
 21
-10.82919691
 31
0.0
 11
4.3868138966
 21
-10.7434429383
 31
0.0
 11
4.3885786351
 21
-10.6382704165
 31
0.0
 11
4.3901797518
 21
-10.5152679026
 31
0.0
 11
4.3915929597
 21
-10.3763009544
 31
0.0
 11
4.392796839
 21
-10.2234786875
 31
0.0
 11
4.3937732127
 21
-10.0591106273
 31
0.0
 11
4.3945073466
 21
-9.8856784575
 31
0.0
 11
4.3949880546
 21
-9.7058252498
 31
0.0
 11
4.3952081516
 21
-9.5222655313
 31
0.0
  0
SPLINE
  5
2CF
100
AcDbEntity
  8
ASSI
100
AcDbSpline
 62
253
  6
CONTINUOUS
 70
0
 71
3
 72
19
 73
15
 74
13
 42
0.0000001
 43
0.0000001
 44
0.0000000001
 12
0.0006887534
 22
-1.4365311378
 32
0.0
 13
0.3112970789
 23
-1.4023966318
 33
0.0
 40
0.0
 40
0.0
 40
0.0
 40
0.0
 40
0.1277799165
 40
0.2529800076
 40
0.3737109122
 40
0.4881330342
 40
0.5945191662
 40
0.6912620172
 40
0.7768939378
 40
0.8501170735
 40
0.9098269139
 40
0.9551232951
 40
0.9853230954
 40
1.0
 40
1.0
 40
1.0
 40
1.0
 10
25.5282751091
 20
-9.5222655308
 30
0.0
 10
25.5283044454
 20
-9.5834521404
 30
0.0
 10
25.5284485554
 20
-9.7045900024
 30
0.0
 10
25.5289230491
 20
-9.8835385865
 30
0.0
 10
25.5296473832
 20
-10.056089958
 30
0.0
 10
25.5306093119
 20
-10.219631208
 30
0.0
 10
25.5317954358
 20
-10.3716837416
 30
0.0
 10
25.5331789886
 20
-10.5099493245
 30
0.0
 10
25.5347586851
 20
-10.632327706
 30
0.0
 10
25.5364373906
 20
-10.7369819439
 30
0.0
 10
25.5383727274
 20
-10.8222805391
 30
0.0
 10
25.5400073422
 20
-10.887061311
 30
0.0
 10
25.5423952946
 20
-10.9300700112
 30
0.0
 10
25.5432791454
 20
-10.9516828828
 30
0.0
 10
25.5448021045
 20
-10.95854383
 30
0.0
 11
25.5282751091
 21
-9.5222655308
 31
0.0
 11
25.5284952061
 21
-9.7058252488
 31
0.0
 11
25.5289759141
 21
-9.8856784564
 31
0.0
 11
25.529710048
 21
-10.0591106263
 31
0.0
 11
25.5306864217
 21
-10.2234786865
 31
0.0
 11
25.5318903009
 21
-10.3763009535
 31
0.0
 11
25.5333035088
 21
-10.5152679017
 31
0.0
 11
25.5349046255
 21
-10.6382704157
 31
0.0
 11
25.5366693641
 21
-10.7434429377
 31
0.0
 11
25.5385710388
 21
-10.8291969094
 31
0.0
 11
25.5405809907
 21
-10.8942355285
 31
0.0
 11
25.5426684423
 21
-10.9375682371
 31
0.0
 11
25.5448021045
 21
-10.95854383
 31
0.0
  0
SPLINE
  5
2D0
100
AcDbEntity
  8
ASSI
100
AcDbSpline
 62
253
  6
CONTINUOUS
 70
0
 71
3
 72
11
 73
7
 74
5
 42
0.0000001
 43
0.0000001
 44
0.0000000001
 12
0.0002437993
 22
-20.1964757625
 32
0.0
 13
0.0145100748
 23
-20.1964705516
 33
0.0
 40
0.0
 40
0.0
 40
0.0
 40
0.0
 40
0.2500744181
 40
0.5001049868
 40
0.7500830172
 40
1.0
 40
1.0
 40
1.0
 40
1.0
 10
26.0208253513
 20
10.6947504673
 30
0.0
 10
26.0208456739
 20
9.0112098257
 30
0.0
 10
26.0211829915
 20
5.6444237402
 30
0.0
 10
26.0225810216
 20
0.5947460826
 30
0.0
 10
26.0248699046
 20
-4.4538713701
 30
0.0
 10
26.0269902097
 20
-7.8192432289
 30
0.0
 10
26.0281989811
 20
-9.5017235569
 30
0.0
 11
26.0208253513
 21
10.6947504673
 31
0.0
 11
26.0213317459
 21
5.6441285675
 31
0.0
 11
26.0227296924
 21
0.5943924407
 31
0.0
 11
26.0250187653
 21
-4.4542822721
 31
0.0
 11
26.0281989811
 21
-9.5017235569
 31
0.0
  0
SPLINE
  5
2D1
100
AcDbEntity
  8
ASSI
100
AcDbSpline
 62
253
  6
CONTINUOUS
 70
0
 71
3
 72
19
 73
15
 74
13
 42
0.0000001
 43
0.0000001
 44
0.0000000001
 12
0.0006887042
 22
-0.9578832426
 32
0.0
 13
0.3025453754
 23
-0.9088493146
 33
0.0
 40
0.0
 40
0.0
 40
0.0
 40
0.0
 40
0.1277154689
 40
0.2528938267
 40
0.3736053495
 40
0.4880108521
 40
0.5943837456
 40
0.691117303
 40
0.7767445806
 40
0.8499684188
 40
0.9096858115
 40
0.9549999701
 40
0.9852364108
 40
1.0
 40
1.0
 40
1.0
 40
1.0
 10
26.0281989811
 20
-9.5017235569
 30
0.0
 10
26.0282283005
 20
-9.5425023927
 30
0.0
 10
26.0283723834
 20
-9.6232499431
 30
0.0
 10
26.0288468168
 20
-9.7425392387
 30
0.0
 10
26.0295711054
 20
-9.8575773655
 30
0.0
 10
26.0305330841
 20
-9.9666092358
 30
0.0
 10
26.0317191087
 20
-10.0679818389
 30
0.0
 10
26.0331030848
 20
-10.1601641545
 30
0.0
 10
26.034681698
 20
-10.2417516527
 30
0.0
 10
26.0363639311
 20
-10.311532062
 30
0.0
 10
26.0382900876
 20
-10.368382665
 30
0.0
 10
26.0399481911
 20
-10.4116235084
 30
0.0
 10
26.0422914402
 20
-10.4402187085
 30
0.0
 10
26.0432368665
 20
-10.4547555291
 30
0.0
 10
26.0447257517
 20
-10.459228155
 30
0.0
 11
26.0281989811
 21
-9.5017235569
 31
0.0
 11
26.0284189869
 21
-9.6240598982
 31
0.0
 11
26.0288996711
 21
-9.743965217
 31
0.0
 11
26.0296337796
 21
-9.8595904613
 31
0.0
 11
26.0306101563
 21
-9.9691732538
 31
0.0
 11
26.031814051
 21
-10.0710589799
 31
0.0
 11
26.0332272963
 21
-10.1637076794
 31
0.0
 11
26.034828471
 21
-10.2457130047
 31
0.0
 11
26.0365932759
 21
-10.3158307046
 31
0.0
 11
26.038495034
 21
-10.3730013873
 31
0.0
 11
26.040505025
 21
-10.4163605083
 31
0.0
 11
26.042592608
 21
-10.4452481636
 31
0.0
 11
26.0447257517
 21
-10.459228155
 31
0.0
  0
SPLINE
  5
2D2
100
AcDbEntity
  8
ASSI
100
AcDbSpline
 62
253
  6
CONTINUOUS
 70
0
 71
3
 72
17
 73
13
 74
11
 42
0.0000001
 43
0.0000001
 44
0.0000000001
 12
-0.2999890615
 22
0.0000001894
 32
0.0
 13
-0.26854368
 23
0.1337076248
 33
0.0
 40
0.0
 40
0.0
 40
0.0
 40
0.0
 40
0.1546311843
 40
0.3056213721
 40
0.4492823827
 40
0.5821198924
 40
0.700942873
 40
0.8028799771
 40
0.8854741508
 40
0.9467442802
 40
0.985214922
 40
1.0
 40
1.0
 40
1.0
 40
1.0
 10
4.4025820184
 20
10.892170353
 30
0.0
 10
4.3871194638
 20
10.8921703627
 30
0.0
 10
4.3565584872
 20
10.8921909887
 30
0.0
 10
4.3116317477
 20
10.8922822066
 30
0.0
 10
4.2688854256
 20
10.892434833
 30
0.0
 10
4.2293527745
 20
10.892632871
 30
0.0
 10
4.1940029098
 20
10.8929094575
 30
0.0
 10
4.1636471564
 20
10.8931392256
 30
0.0
 10
4.1391320467
 20
10.8936469113
 30
0.0
 10
4.1207545094
 20
10.8935644295
 30
0.0
 10
4.1095831418
 20
10.8947017654
 30
0.0
 10
4.1039512183
 20
10.8940837477
 30
0.0
 10
4.1026277385
 20
10.8947427069
 30
0.0
 11
4.4025820184
 21
10.892170353
 31
0.0
 11
4.3561943653
 21
10.8922018388
 31
0.0
 11
4.3108990576
 21
10.8922956101
 31
0.0
 11
4.2678026004
 21
10.8924494402
 31
0.0
 11
4.2279533548
 21
10.8926596123
 31
0.0
 11
4.1923087193
 21
10.8929210808
 31
0.0
 11
4.1617302387
 21
10.8932275317
 31
0.0
 11
4.1369552786
 21
10.8935715652
 31
0.0
 11
4.1185787022
 21
10.8939449167
 31
0.0
 11
4.1070446439
 21
10.8943385042
 31
0.0
 11
4.1026277385
 21
10.8947427069
 31
0.0
  0
SPLINE
  5
2D3
100
AcDbEntity
  8
ASSI
100
AcDbSpline
 62
253
  6
CONTINUOUS
 70
0
 71
3
 72
19
 73
15
 74
13
 42
0.0000001
 43
0.0000001
 44
0.0000000001
 12
0.3025453665
 22
0.9088493175
 32
0.0
 13
0.0006887042
 23
0.9578832426
 33
0.0
 40
0.0
 40
0.0
 40
0.0
 40
0.0
 40
0.0147635891
 40
0.0450000296
 40
0.0903141881
 40
0.1500315807
 40
0.2232554188
 40
0.3088826964
 40
0.4056162537
 40
0.5119891472
 40
0.6263946498
 40
0.7471061725
 40
0.8722845304
 40
1.0
 40
1.0
 40
1.0
 40
1.0
 10
3.8787575089
 20
-10.459228155
 30
0.0
 10
3.8802463941
 20
-10.4547555291
 30
0.0
 10
3.8811918205
 20
-10.4402187087
 30
0.0
 10
3.8835350696
 20
-10.4116235087
 30
0.0
 10
3.8851931731
 20
-10.3683826654
 30
0.0
 10
3.8871193295
 20
-10.3115320624
 30
0.0
 10
3.8888015627
 20
-10.2417516532
 30
0.0
 10
3.8903801759
 20
-10.1601641551
 30
0.0
 10
3.891764152
 20
-10.0679818396
 30
0.0
 10
3.8929501766
 20
-9.9666092364
 30
0.0
 10
3.8939121553
 20
-9.8575773662
 30
0.0
 10
3.8946364438
 20
-9.7425392394
 30
0.0
 10
3.8951108773
 20
-9.6232499435
 30
0.0
 10
3.8952549602
 20
-9.542502393
 30
0.0
 10
3.8952842796
 20
-9.5017235569
 30
0.0
 11
3.8787575089
 21
-10.459228155
 31
0.0
 11
3.8808906527
 21
-10.4452481638
 31
0.0
 11
3.8829782357
 21
-10.4163605086
 31
0.0
 11
3.8849882267
 21
-10.3730013877
 31
0.0
 11
3.8868899848
 21
-10.315830705
 31
0.0
 11
3.8886547897
 21
-10.2457130053
 31
0.0
 11
3.8902559643
 21
-10.16370768
 31
0.0
 11
3.8916692097
 21
-10.0710589805
 31
0.0
 11
3.8928731043
 21
-9.9691732545
 31
0.0
 11
3.8938494811
 21
-9.859590462
 31
0.0
 11
3.8945835896
 21
-9.7439652177
 31
0.0
 11
3.8950642738
 21
-9.6240598989
 31
0.0
 11
3.8952842796
 21
-9.5017235569
 31
0.0
  0
SPLINE
  5
2D4
100
AcDbEntity
  8
ASSI
100
AcDbSpline
 62
253
  6
CONTINUOUS
 70
0
 71
3
 72
11
 73
7
 74
5
 42
0.0000001
 43
0.0000001
 44
0.0000000001
 12
0.0145100748
 22
20.1964705516
 32
0.0
 13
0.0002437993
 23
20.1964757625
 33
0.0
 40
0.0
 40
0.0
 40
0.0
 40
0.0
 40
0.2499169828
 40
0.4998950132
 40
0.7499255819
 40
1.0
 40
1.0
 40
1.0
 40
1.0
 10
3.8952842796
 20
-9.5017235569
 30
0.0
 10
3.896493051
 20
-7.8192432289
 30
0.0
 10
3.8986133561
 20
-4.4538713701
 30
0.0
 10
3.9009022391
 20
0.5947460826
 30
0.0
 10
3.9023002692
 20
5.6444237402
 30
0.0
 10
3.9026375868
 20
9.0112098257
 30
0.0
 10
3.9026579094
 20
10.6947504673
 30
0.0
 11
3.8952842796
 21
-9.5017235569
 31
0.0
 11
3.8984644954
 21
-4.4542822721
 31
0.0
 11
3.9007535683
 21
0.5943924407
 31
0.0
 11
3.9021515148
 21
5.6441285675
 31
0.0
 11
3.9026579094
 21
10.6947504673
 31
0.0
  0
LINE
  5
2D5
100
AcDbEntity
  8
RACCORDO
100
AcDbLine
 62
253
  6
CONTINUOUS
 10
-9.9041746248
 20
10.6947504135
 11
-10.3954632788
 21
10.6920387029
  0
SPLINE
  5
2D6
100
AcDbEntity
  8
RACCORDO
100
AcDbSpline
 62
253
  6
CONTINUOUS
 70
0
 71
3
 72
16
 73
12
 74
10
 42
0.0000001
 43
0.0000001
 44
0.0000000001
 12
-0.0261495538
 22
-0.4991152339
 32
0.0
 13
0.4991148176
 23
-0.0261574992
 33
0.0
 40
0.0
 40
0.0
 40
0.0
 40
0.0
 40
0.1736040235
 40
0.3419132088
 40
0.4998212985
 40
0.6425380909
 40
0.7657352311
 40
0.8656785076
 40
0.939343881
 40
0.9845206607
 40
1.0
 40
1.0
 40
1.0
 40
1.0
 10
-8.5349215995
 20
-10.459228155
 30
0.0
 10
-8.536434822
 20
-10.4881109593
 30
0.0
 10
-8.5393321911
 20
-10.5450035775
 30
0.0
 10
-8.5432963336
 20
-10.6281643472
 30
0.0
 10
-8.5467961975
 20
-10.7062606042
 30
0.0
 10
-8.5495371619
 20
-10.7766569555
 30
0.0
 10
-8.5520280662
 20
-10.8380329115
 30
0.0
 10
-8.5525333315
 20
-10.8862048038
 30
0.0
 10
-8.5553101931
 20
-10.925614521
 30
0.0
 10
-8.5513964866
 20
-10.9426414736
 30
0.0
 10
-8.5549386969
 20
-10.9584079555
 30
0.0
 10
-8.5523633744
 20
-10.9585429224
 30
0.0
 11
-8.5349215995
 21
-10.459228155
 31
0.0
 11
-8.5393292075
 21
-10.5458833858
 31
0.0
 11
-8.5433382142
 21
-10.6299086946
 31
0.0
 11
-8.546826949
 21
-10.7087539756
 31
0.0
 11
-8.5496895315
 21
-10.7800263333
 31
0.0
 11
-8.5518390844
 21
-10.8415627043
 31
0.0
 11
-8.5532103705
 21
-10.8914955054
 31
0.0
 11
-8.5537617721
 21
-10.9283093133
 31
0.0
 11
-8.5534765547
 21
-10.9508868562
 31
0.0
 11
-8.5523633744
 21
-10.9585429224
 31
0.0
  0
SPLINE
  5
2D7
100
AcDbEntity
  8
RACCORDO
100
AcDbSpline
 62
253
  6
CONTINUOUS
 70
0
 71
3
 72
14
 73
10
 74
8
 42
0.0000001
 43
0.0000001
 44
0.0000000001
 12
-0.0017453439
 22
0.2000572729
 32
0.0
 13
0.2000572683
 23
0.0017458733
 33
0.0
 40
0.0
 40
0.0
 40
0.0
 40
0.0
 40
0.222424496
 40
0.4336936618
 40
0.6232197302
 40
0.7815067321
 40
0.9006294012
 40
0.9746421145
 40
1.0
 40
1.0
 40
1.0
 40
1.0
 10
-9.9041912436
 20
10.6947503223
 30
0.0
 10
-9.904320646
 20
10.7095828683
 30
0.0
 10
-9.9045339748
 20
10.7385271809
 30
0.0
 10
-9.9045810074
 20
10.7799944139
 30
0.0
 10
-9.9047233893
 20
10.8175701308
 30
0.0
 10
-9.9038760471
 20
10.8478845678
 30
0.0
 10
-9.9049360775
 20
10.873317181
 30
0.0
 10
-9.9017747817
 20
10.8842111291
 30
0.0
 10
-9.9041370791
 20
10.8947279497
 30
0.0
 10
-9.9024460694
 20
10.8947427069
 30
0.0
 11
-9.9041912436
 21
10.6947503223
 31
0.0
 11
-9.9044919597
 21
10.7392486377
 31
0.0
 11
-9.9046026054
 21
10.7815160344
 31
0.0
 11
-9.9045176336
 21
10.8194334505
 31
0.0
 11
-9.9042413048
 21
10.8510999159
 31
0.0
 11
-9.9037874727
 21
10.8749278576
 31
0.0
 11
-9.9031788905
 21
10.889722691
 31
0.0
 11
-9.9024460694
 21
10.8947427069
 31
0.0
  0
LINE
  5
2D8
100
AcDbEntity
  8
ASSI
100
AcDbLine
 62
253
  6
CONTINUOUS
 10
-9.9041746248
 20
10.6947504135
 11
-10.3954632788
 21
10.6920387029
  0
SPLINE
  5
2D9
100
AcDbEntity
  8
ASSI
100
AcDbSpline
 62
253
  6
CONTINUOUS
 70
0
 71
3
 72
16
 73
12
 74
10
 42
0.0000001
 43
0.0000001
 44
0.0000000001
 12
-0.0261495538
 22
-0.4991152339
 32
0.0
 13
0.4991148176
 23
-0.0261574992
 33
0.0
 40
0.0
 40
0.0
 40
0.0
 40
0.0
 40
0.1736040235
 40
0.3419132088
 40
0.4998212985
 40
0.6425380909
 40
0.7657352311
 40
0.8656785076
 40
0.939343881
 40
0.9845206607
 40
1.0
 40
1.0
 40
1.0
 40
1.0
 10
-8.5349215995
 20
-10.459228155
 30
0.0
 10
-8.536434822
 20
-10.4881109593
 30
0.0
 10
-8.5393321911
 20
-10.5450035775
 30
0.0
 10
-8.5432963336
 20
-10.6281643472
 30
0.0
 10
-8.5467961975
 20
-10.7062606042
 30
0.0
 10
-8.5495371619
 20
-10.7766569555
 30
0.0
 10
-8.5520280662
 20
-10.8380329115
 30
0.0
 10
-8.5525333315
 20
-10.8862048038
 30
0.0
 10
-8.5553101931
 20
-10.925614521
 30
0.0
 10
-8.5513964866
 20
-10.9426414736
 30
0.0
 10
-8.5549386969
 20
-10.9584079555
 30
0.0
 10
-8.5523633744
 20
-10.9585429224
 30
0.0
 11
-8.5349215995
 21
-10.459228155
 31
0.0
 11
-8.5393292075
 21
-10.5458833858
 31
0.0
 11
-8.5433382142
 21
-10.6299086946
 31
0.0
 11
-8.546826949
 21
-10.7087539756
 31
0.0
 11
-8.5496895315
 21
-10.7800263333
 31
0.0
 11
-8.5518390844
 21
-10.8415627043
 31
0.0
 11
-8.5532103705
 21
-10.8914955054
 31
0.0
 11
-8.5537617721
 21
-10.9283093133
 31
0.0
 11
-8.5534765547
 21
-10.9508868562
 31
0.0
 11
-8.5523633744
 21
-10.9585429224
 31
0.0
  0
SPLINE
  5
2DA
100
AcDbEntity
  8
ASSI
100
AcDbSpline
 62
253
  6
CONTINUOUS
 70
0
 71
3
 72
14
 73
10
 74
8
 42
0.0000001
 43
0.0000001
 44
0.0000000001
 12
-0.0017453439
 22
0.2000572729
 32
0.0
 13
0.2000572683
 23
0.0017458733
 33
0.0
 40
0.0
 40
0.0
 40
0.0
 40
0.0
 40
0.222424496
 40
0.4336936618
 40
0.6232197302
 40
0.7815067321
 40
0.9006294012
 40
0.9746421145
 40
1.0
 40
1.0
 40
1.0
 40
1.0
 10
-9.9041912436
 20
10.6947503223
 30
0.0
 10
-9.904320646
 20
10.7095828683
 30
0.0
 10
-9.9045339748
 20
10.7385271809
 30
0.0
 10
-9.9045810074
 20
10.7799944139
 30
0.0
 10
-9.9047233893
 20
10.8175701308
 30
0.0
 10
-9.9038760471
 20
10.8478845678
 30
0.0
 10
-9.9049360775
 20
10.873317181
 30
0.0
 10
-9.9017747817
 20
10.8842111291
 30
0.0
 10
-9.9041370791
 20
10.8947279497
 30
0.0
 10
-9.9024460694
 20
10.8947427069
 30
0.0
 11
-9.9041912436
 21
10.6947503223
 31
0.0
 11
-9.9044919597
 21
10.7392486377
 31
0.0
 11
-9.9046026054
 21
10.7815160344
 31
0.0
 11
-9.9045176336
 21
10.8194334505
 31
0.0
 11
-9.9042413048
 21
10.8510999159
 31
0.0
 11
-9.9037874727
 21
10.8749278576
 31
0.0
 11
-9.9031788905
 21
10.889722691
 31
0.0
 11
-9.9024460694
 21
10.8947427069
 31
0.0
  0
ELLIPSE
  5
2DB
100
AcDbEntity
  8
RACCORDO
100
AcDbEllipse
 62
7
  6
CONTINUOUS
 10
7.6772116842
 20
-11.0925380261
 30
0.0
 11
0.2
 21
0.0
 31
0.0
 40
0.0524077793
 41
1.5707963268
 42
2.617993878
  0
ELLIPSE
  5
2DC
100
AcDbEntity
  8
RACCORDO
100
AcDbEllipse
 62
7
  6
CONTINUOUS
 10
11.0462715765
 20
-11.0925380261
 30
0.0
 11
0.2
 21
-0.0
 31
0.0
 40
0.0524077793
 41
0.5235987756
 42
1.5707963268
  0
ELLIPSE
  5
2DD
100
AcDbEntity
  8
RACCORDO
100
AcDbEllipse
 62
7
  6
CONTINUOUS
 10
18.8772116842
 20
-11.0925380261
 30
0.0
 11
0.2
 21
0.0
 31
0.0
 40
0.0524077793
 41
1.5707963268
 42
2.617993878
  0
ELLIPSE
  5
2DE
100
AcDbEntity
  8
RACCORDO
100
AcDbEllipse
 62
7
  6
CONTINUOUS
 10
22.2462715765
 20
-11.0925380261
 30
0.0
 11
0.2
 21
0.0
 31
0.0
 40
0.0524077793
 41
0.5235987756
 42
1.5707963268
  0
ELLIPSE
  5
2DF
100
AcDbEntity
  8
RACCORDO
100
AcDbEllipse
 62
7
  6
CONTINUOUS
 10
25.9117111647
 20
10.7401746839
 30
0.0
 11
0.1789222233
 21
0.0894542984
 31
0.0
 40
0.9998096356
 41
-0.463541
 42
1.1071030277
  0
ELLIPSE
  5
2E0
100
AcDbEntity
  8
RACCORDO
100
AcDbEllipse
 62
7
  6
CONTINUOUS
 10
4.011772096
 20
10.7401746839
 30
0.0
 11
0.1789222233
 21
-0.0894542984
 31
0.0
 40
0.9998096356
 41
2.0344896259
 42
3.6051336537
  0
ELLIPSE
  5
2E1
100
AcDbEntity
  8
RACCORDO
100
AcDbEllipse
 62
7
  6
CONTINUOUS
 10
25.5985919242
 20
-10.6207294447
 30
0.0
 11
0.498078285
 21
0.0448076117
 31
0.0
 40
0.9965957691
 41
-1.6608206152
 42
-0.0909376769
  0
ELLIPSE
  5
2E2
100
AcDbEntity
  8
RACCORDO
100
AcDbEllipse
 62
7
  6
CONTINUOUS
 10
4.3248913365
 20
-10.6207294447
 30
0.0
 11
0.498078285
 21
-0.0448076117
 31
0.0
 40
0.9965957691
 41
-3.0506549766
 42
-1.4807720384
  0
ELLIPSE
  5
2E3
100
AcDbEntity
  8
ASSI
100
AcDbEllipse
 62
7
  6
CONTINUOUS
 10
7.6772116842
 20
-11.0925380261
 30
0.0
 11
0.2
 21
0.0
 31
0.0
 40
0.0524077793
 41
1.5707963268
 42
2.617993878
  0
ELLIPSE
  5
2E4
100
AcDbEntity
  8
ASSI
100
AcDbEllipse
 62
7
  6
CONTINUOUS
 10
11.0462715765
 20
-11.0925380261
 30
0.0
 11
0.2
 21
-0.0
 31
0.0
 40
0.0524077793
 41
0.5235987756
 42
1.5707963268
  0
ELLIPSE
  5
2E5
100
AcDbEntity
  8
ASSI
100
AcDbEllipse
 62
7
  6
CONTINUOUS
 10
18.8772116842
 20
-11.0925380261
 30
0.0
 11
0.2
 21
0.0
 31
0.0
 40
0.0524077793
 41
1.5707963268
 42
2.617993878
  0
ELLIPSE
  5
2E6
100
AcDbEntity
  8
ASSI
100
AcDbEllipse
 62
7
  6
CONTINUOUS
 10
22.2462715765
 20
-11.0925380261
 30
0.0
 11
0.2
 21
0.0
 31
0.0
 40
0.0524077793
 41
0.5235987756
 42
1.5707963268
  0
ELLIPSE
  5
2E7
100
AcDbEntity
  8
ASSI
100
AcDbEllipse
 62
7
  6
CONTINUOUS
 10
25.9117111647
 20
10.7401746839
 30
0.0
 11
0.1789222233
 21
0.0894542984
 31
0.0
 40
0.9998096356
 41
-0.463541
 42
1.1071030277
  0
ELLIPSE
  5
2E8
100
AcDbEntity
  8
ASSI
100
AcDbEllipse
 62
7
  6
CONTINUOUS
 10
4.011772096
 20
10.7401746839
 30
0.0
 11
0.1789222233
 21
-0.0894542984
 31
0.0
 40
0.9998096356
 41
2.0344896259
 42
3.6051336537
  0
ELLIPSE
  5
2E9
100
AcDbEntity
  8
ASSI
100
AcDbEllipse
 62
7
  6
CONTINUOUS
 10
25.5985919242
 20
-10.6207294447
 30
0.0
 11
0.498078285
 21
0.0448076117
 31
0.0
 40
0.9965957691
 41
-1.6608206152
 42
-0.0909376769
  0
ELLIPSE
  5
2EA
100
AcDbEntity
  8
ASSI
100
AcDbEllipse
 62
7
  6
CONTINUOUS
 10
4.3248913365
 20
-10.6207294447
 30
0.0
 11
0.498078285
 21
-0.0448076117
 31
0.0
 40
0.9965957691
 41
-3.0506549766
 42
-1.4807720384
  0
ELLIPSE
  5
2EB
100
AcDbEntity
  8
CURVE
100
AcDbEllipse
 62
253
  6
CONTINUOUS
 10
489.6044155145
 20
11.0401822996
 30
0.0
 11
474.3416490253
 21
-158.1138830084
 31
0.0
 40
1.0
 41
-2.7886924874
 42
-2.7882912805
  0
ELLIPSE
  5
2EC
100
AcDbEntity
  8
CURVE
100
AcDbEllipse
 62
253
  6
CONTINUOUS
 10
489.6044155145
 20
11.0401822996
 30
0.0
 11
500.0
 21
-0.0
 31
0.0
 40
1.0
 41
-3.1107187728
 42
-3.1104430418
  0
ELLIPSE
  5
2ED
100
AcDbEntity
  8
CURVE
100
AcDbEllipse
 62
253
  6
CONTINUOUS
 10
489.6044155145
 20
11.0401822996
 30
0.0
 11
191.3417161825
 21
461.9397662556
 31
0.0
 40
1.0
 41
-4.2888160179
 42
-4.2885402869
  0
ELLIPSE
  5
2EE
100
AcDbEntity
  8
CURVE
100
AcDbEllipse
 62
253
  6
CONTINUOUS
 10
489.6044155145
 20
11.0401822996
 30
0.0
 11
114.8764602737
 21
486.6244947339
 31
0.0
 40
1.0
 41
-4.4494155641
 42
-4.4490143572
  0
ENDSEC
  0
SECTION
  2
OBJECTS
  0
DICTIONARY
  5
C
100
AcDbDictionary
280
0
281
1
  3
ACAD_GROUP
350
D
  3
ACAD_MLINESTYLE
350
17
  3
ACAD_LAYOUT
350
1A
  3
ACAD_PLOTSETTINGS
350
19
  3
ACAD_PLOTSTYLENAME
350
E
  0
DICTIONARY
  5
D
102
{ACAD_REACTORS
330
C
102
}
100
AcDbDictionary
280
0
281
1
  0
ACDBDICTIONARYWDFLT
  5
E
102
{ACAD_REACTORS
330
C
102
}
100
AcDbDictionary
281
1
  3
Normal
350
F
100
AcDbDictionaryWithDefault
340
F
  0
DICTIONARY
  5
17
102
{ACAD_REACTORS
330
C
102
}
100
AcDbDictionary
280
0
281
1
  3
Standard
350
18
  0
DICTIONARY
  5
19
102
{ACAD_REACTORS
330
C
102
}
100
AcDbDictionary
281
1
  0
DICTIONARY
  5
1A
102
{ACAD_REACTORS
330
C
102
}
100
AcDbDictionary
281
1
  3
Model
350
2EF
  3
Layout1
350
2F0
  0
ACDBPLACEHOLDER
  5
F
102
{ACAD_REACTORS
330
E
102
}
  0
MLINESTYLE
  5
18
102
{ACAD_REACTORS
330
17
102
}
100
AcDbMlineStyle
  2
STANDARD
 70
0
  3

 62
256
 51
90.0
 52
90.0
 71
2
 49
0.5
 62
256
  6
BYLAYER
 49
-0.5
 62
256
  6
BYLAYER
  0
LAYOUT
  5
2EF
102
{ACAD_REACTORS
330
1A
102
}
100
AcDbPlotSettings
  1

  2
none_device
  4
ISO_A4_(297.00_x_210.00_MM)
  6

 40
0.0
 41
0.0
 42
0.0
 43
0.0
 44
297.0
 45
210.0
 46
0.0
 47
0.0
 48
0.0
 49
0.0
140
0.0
141
0.0
142
1.0
143
1.0
 70
1024
 72
1
 73
0
 74
0
  7

 75
0
147
1.0
148
0.0
149
0.0
100
AcDbLayout
  1
Model
 70
0
 71
0
 10
0.0
 20
0.0
 11
297.0
 21
210.0
 12
0.0
 22
0.0
 32
0.0
 14
0.0
 24
0.0
 34
0.0
 15
0.0
 25
0.0
 35
0.0
146
0.0
 13
0.0
 23
0.0
 33
0.0
 16
1.0
 26
0.0
 36
0.0
 17
0.0
 27
1.0
 37
0.0
 76
0
330
214
345
0
346
0
  0
LAYOUT
  5
2F0
102
{ACAD_REACTORS
330
1A
102
}
100
AcDbPlotSettings
  1

  2
none_device
  4
ISO_A4_(297.00_x_210.00_MM)
  6

 40
0.0
 41
0.0
 42
0.0
 43
0.0
 44
297.0
 45
210.0
 46
0.0
 47
0.0
 48
0.0
 49
0.0
140
0.0
141
0.0
142
1.0
143
1.0
 70
0
 72
1
 73
0
 74
0
  7

 75
0
147
1.0
148
0.0
149
0.0
100
AcDbLayout
  1
Layout1
 70
0
 71
1
 10
0.0
 20
0.0
 11
297.0
 21
210.0
 12
0.0
 22
0.0
 32
0.0
 14
0.0
 24
0.0
 34
0.0
 15
0.0
 25
0.0
 35
0.0
146
0.0
 13
0.0
 23
0.0
 33
0.0
 16
1.0
 26
0.0
 36
0.0
 17
0.0
 27
1.0
 37
0.0
 76
0
330
215
345
0
346
0
  0
ENDSEC
  0
EOF
