  0
SECTION
  2
HEADER
  9
$ACADVER
  1
AC1015
  9
$DWGCODEPAGE
  3
ANSI_1252
  9
$EXTMAX
 10
297.0
 20
210.0
 30
0.0
  9
$EXTMIN
 10
0.0
 20
0.0
 30
0.0
  9
$LIMMIN
 10
0.0
 20
0.0
  9
$LIMMAX
 10
297.0
 20
210.0
  9
$VIEWCTR
 10
148.5
 20
105.0
  9
$VIEWSIZE
 40
210.0
  9
$CLAYER
  8
0
  9
$LTSCALE
 40
16.335
  9
$CELTYPE
  6
BYLAYER
  9
$DIMSCALE
 40
1.0
  9
$DIMASZ
 40
3.0
  9
$DIMEXO
 40
1.85625
  9
$DIMDLI
 40
11.286
  9
$DIMEXE
 40
5.346
  9
$DIMCEN
 40
2.673
  9
$DIMLFAC
 40
1.0
  9
$DIMBLK
  1
_FILLED
  9
$DIMTXT
 40
3.0
  9
$DIMTOL
 70
1
  9
$DIMLIM
 70
0
  9
$DIMTFAC
 40
1.0
  9
$DIMTP
 40
0.01
  9
$DIMTM
 40
0.01
  9
$PDMODE
 70
3
  9
$PDSIZE
 40
3.0
  9
$HANDSEED
  5
303
  9
$TILEMODE
 70
1
  9
$MEASUREMENT
 70
1
  9
$INSUNITS
 70
4
  0
ENDSEC
  0
SECTION
  2
CLASSES
  0
CLASS
  1
ACDBDICTIONARYWDFLT
  2
AcDbDictionaryWithDefault
  3
AutoCAD 2000
 90
0
280
0
281
0
  0
CLASS
  1
ACDBPLACEHOLDER
  2
AcDbPlaceHolder
  3
AutoCAD 2000
 90
0
280
0
281
0
  0
CLASS
  1
LAYOUT
  2
AcDbLayout
  3
AutoCAD 2000
 90
0
280
0
281
0
  0
ENDSEC
  0
SECTION
  2
TABLES
  0
TABLE
  2
VPORT
  5
8
100
AcDbSymbolTable
 70
2
  0
VPORT
  5
1F4
100
AcDbSymbolTableRecord
100
AcDbViewportTableRecord
  2
*ACTIVE
 70
0
 10
0.0
 20
0.0
 11
1.0
 21
1.0
 12
148.5
 22
105.0
 13
0.0
 23
0.0
 14
1.0
 24
1.0
 15
0.0
 25
0.0
 16
0.0
 26
0.0
 36
1.0
 17
0.0
 27
0.0
 37
0.0
 40
210.0
 41
1.4142857143
 42
50.0
 43
0.0
 44
0.0
 50
0.0
 51
0.0
 71
0
 72
100
 73
1
 74
1
 75
0
 76
0
 77
0
 78
0
  0
ENDTAB
  0
TABLE
  2
LTYPE
  5
5
100
AcDbSymbolTable
 70
6
  0
LTYPE
  5
14
100
AcDbSymbolTableRecord
100
AcDbLinetypeTableRecord
  2
BYBLOCK
 70
0
  3

 72
65
 73
0
 40
0.0
  0
LTYPE
  5
15
100
AcDbSymbolTableRecord
100
AcDbLinetypeTableRecord
  2
BYLAYER
 70
0
  3

 72
65
 73
0
 40
0.0
  0
LTYPE
  5
16
100
AcDbSymbolTableRecord
100
AcDbLinetypeTableRecord
  2
CONTINUOUS
 70
64
  3
Solid line
 72
65
 73
0
 40
0.0
  0
LTYPE
  5
1F5
100
AcDbSymbolTableRecord
100
AcDbLinetypeTableRecord
  2
CENTER
 70
64
  3
____ _ ____ _ ____ _ ____ _ ____ _ ____ _ ____
 72
65
 73
4
 40
0.6
 49
0.375
 74
0
 49
-0.075
 74
0
 49
0.075
 74
0
 49
-0.075
 74
0
  0
LTYPE
  5
1F6
100
AcDbSymbolTableRecord
100
AcDbLinetypeTableRecord
  2
HIDDEN
 70
64
  3
- - - - - - - - - - - - - - - - - - - -
 72
65
 73
2
 40
0.2
 49
0.1
 74
0
 49
-0.1
 74
0
  0
LTYPE
  5
1F7
100
AcDbSymbolTableRecord
100
AcDbLinetypeTableRecord
  2
PHANTOM
 70
64
  3
_____ _ _ _____ _ _ _____ _ _ _____
 72
65
 73
6
 40
0.8
 49
0.45
 74
0
 49
-0.05
 74
0
 49
0.1
 74
0
 49
-0.05
 74
0
 49
0.1
 74
0
 49
-0.05
 74
0
  0
LTYPE
  5
1F8
100
AcDbSymbolTableRecord
100
AcDbLinetypeTableRecord
  2
DOT
 70
64
  3
. . . . . . . . . . . . . . . . . . . .
 72
65
 73
2
 40
0.2
 49
0.1
 74
0
 49
-0.1
 74
0
  0
LTYPE
  5
1F9
100
AcDbSymbolTableRecord
100
AcDbLinetypeTableRecord
  2
DASHED
 70
64
  3
- - - - - - - - - - - - - - - - - - - -
 72
65
 73
2
 40
0.2
 49
0.1
 74
0
 49
-0.1
 74
0
  0
ENDTAB
  0
TABLE
  2
LAYER
  5
2
100
AcDbSymbolTable
 70
36
  0
LAYER
  5
10
100
AcDbSymbolTableRecord
100
AcDbLayerTableRecord
  2
0
 70
0
 62
7
  6
CONTINUOUS
370
-3
390
F
  0
LAYER
  5
1FA
100
AcDbSymbolTableRecord
100
AcDbLayerTableRecord
  2
DEFAULT_1
 70
0
 62
7
  6
CENTER
370
-3
390
F
  0
LAYER
  5
1FB
100
AcDbSymbolTableRecord
100
AcDbLayerTableRecord
  2
DEFAULT_2
 70
0
 62
7
  6
HIDDEN
370
-3
390
F
  0
LAYER
  5
1FC
100
AcDbSymbolTableRecord
100
AcDbLayerTableRecord
  2
DEFAULT_3
 70
0
 62
7
  6
PHANTOM
370
-3
390
F
  0
LAYER
  5
1FD
100
AcDbSymbolTableRecord
100
AcDbLayerTableRecord
  2
ASSI
 70
0
 62
7
  6
CONTINUOUS
370
-3
390
F
  0
LAYER
  5
1FE
100
AcDbSymbolTableRecord
100
AcDbLayerTableRecord
  2
COORDINATE
 70
0
 62
7
  6
CONTINUOUS
370
-3
390
F
  0
LAYER
  5
1FF
100
AcDbSymbolTableRecord
100
AcDbLayerTableRecord
  2
COORD_ORIGINE
 70
0
 62
7
  6
CONTINUOUS
370
-3
390
F
  0
LAYER
  5
200
100
AcDbSymbolTableRecord
100
AcDbLayerTableRecord
  2
COPY_PUBLISH
 70
0
 62
7
  6
CONTINUOUS
370
-3
390
F
  0
LAYER
  5
201
100
AcDbSymbolTableRecord
100
AcDbLayerTableRecord
  2
COSMETIC
 70
0
 62
7
  6
CONTINUOUS
370
-3
390
F
  0
LAYER
  5
202
100
AcDbSymbolTableRecord
100
AcDbLayerTableRecord
  2
CURVE
 70
0
 62
7
  6
CONTINUOUS
370
-3
390
F
  0
LAYER
  5
203
100
AcDbSymbolTableRecord
100
AcDbLayerTableRecord
  2
DRAFT
 70
0
 62
7
  6
CONTINUOUS
370
-3
390
F
  0
LAYER
  5
204
100
AcDbSymbolTableRecord
100
AcDbLayerTableRecord
  2
IGES
 70
0
 62
7
  6
CONTINUOUS
370
-3
390
F
  0
LAYER
  5
205
100
AcDbSymbolTableRecord
100
AcDbLayerTableRecord
  2
IMPORT_IGES
 70
0
 62
7
  6
CONTINUOUS
370
-3
390
F
  0
LAYER
  5
206
100
AcDbSymbolTableRecord
100
AcDbLayerTableRecord
  2
INTF_6
 70
0
 62
7
  6
CONTINUOUS
370
-3
390
F
  0
LAYER
  5
207
100
AcDbSymbolTableRecord
100
AcDbLayerTableRecord
  2
NOTE
 70
0
 62
7
  6
CONTINUOUS
370
-3
390
F
  0
LAYER
  5
208
100
AcDbSymbolTableRecord
100
AcDbLayerTableRecord
  2
PIANI
 70
0
 62
7
  6
CONTINUOUS
370
-3
390
F
  0
LAYER
  5
209
100
AcDbSymbolTableRecord
100
AcDbLayerTableRecord
  2
PIANI_ORIGINE
 70
0
 62
7
  6
CONTINUOUS
370
-3
390
F
  0
LAYER
  5
20A
100
AcDbSymbolTableRecord
100
AcDbLayerTableRecord
  2
PIANI_RIFERIMENTO
 70
0
 62
7
  6
CONTINUOUS
370
-3
390
F
  0
LAYER
  5
20B
100
AcDbSymbolTableRecord
100
AcDbLayerTableRecord
  2
PUNTI
 70
0
 62
7
  6
CONTINUOUS
370
-3
390
F
  0
LAYER
  5
20C
100
AcDbSymbolTableRecord
100
AcDbLayerTableRecord
  2
RACCORDO
 70
0
 62
7
  6
CONTINUOUS
370
-3
390
F
  0
LAYER
  5
20D
100
AcDbSymbolTableRecord
100
AcDbLayerTableRecord
  2
SMUSSO
 70
0
 62
7
  6
CONTINUOUS
370
-3
390
F
  0
LAYER
  5
20E
100
AcDbSymbolTableRecord
100
AcDbLayerTableRecord
  2
SNAPLINE
 70
0
 62
7
  6
CONTINUOUS
370
-3
390
F
  0
LAYER
  5
20F
100
AcDbSymbolTableRecord
100
AcDbLayerTableRecord
  2
SUPERFICI
 70
0
 62
7
  6
CONTINUOUS
370
-3
390
F
  0
LAYER
  5
210
100
AcDbSymbolTableRecord
100
AcDbLayerTableRecord
  2
TRASH
 70
0
 62
7
  6
CONTINUOUS
370
-3
390
F
  0
ENDTAB
  0
TABLE
  2
STYLE
  5
3
100
AcDbSymbolTable
 70
1
  0
STYLE
  5
11
100
AcDbSymbolTableRecord
100
AcDbTextStyleTableRecord
  2
STANDARD
 70
0
 40
0.0
 41
0.8
 50
0.0
 71
0
 42
0.2
  3
txt
  4

  0
STYLE
  5
211
100
AcDbSymbolTableRecord
100
AcDbTextStyleTableRecord
  2
TEXTSTYLE_1
 70
0
 40
0.0
 41
0.8
 50
0.0
 71
0
 42
0.2
  3
gdt
  4

  0
ENDTAB
  0
TABLE
  2
VIEW
  5
6
100
AcDbSymbolTable
 70
0
  0
ENDTAB
  0
TABLE
  2
UCS
  5
7
100
AcDbSymbolTable
 70
0
  0
ENDTAB
  0
TABLE
  2
APPID
  5
9
100
AcDbSymbolTable
 70
1
  0
APPID
  5
212
100
AcDbSymbolTableRecord
100
AcDbRegAppTableRecord
  2
ACAD
 70
0
  0
ENDTAB
  0
TABLE
  2
BLOCK_RECORD
  5
1
100
AcDbSymbolTable
 70
0
  0
BLOCK_RECORD
  5
213
100
AcDbSymbolTableRecord
100
AcDbBlockTableRecord
  2
*Model_Space
  0
BLOCK_RECORD
  5
214
100
AcDbSymbolTableRecord
100
AcDbBlockTableRecord
  2
*Paper_Space
  0
BLOCK_RECORD
  5
215
100
AcDbSymbolTableRecord
100
AcDbBlockTableRecord
  2
_FILLED
  0
BLOCK_RECORD
  5
216
100
AcDbSymbolTableRecord
100
AcDbBlockTableRecord
  2
*D0
  0
BLOCK_RECORD
  5
217
100
AcDbSymbolTableRecord
100
AcDbBlockTableRecord
  2
*D1
  0
BLOCK_RECORD
  5
218
100
AcDbSymbolTableRecord
100
AcDbBlockTableRecord
  2
*D2
  0
ENDTAB
  0
TABLE
  2
DIMSTYLE
  5
A
100
AcDbSymbolTable
 70
1
100
AcDbDimStyleTable
 71
0
  0
DIMSTYLE
105
219
100
AcDbSymbolTableRecord
100
AcDbDimStyleTableRecord
  2
STANDARD
 70
0
  3

  4

 40
1.0
 41
3.0
 42
0.0625
 43
0.38
 44
0.18
 45
0.0
 46
0.0
 47
0.01
 48
0.01
140
3.0
141
0.09
142
0.0
143
25.4
144
1.0
145
0.0
146
1.0
147
0.09
 71
1.0
 72
0.0
 73
0
 74
0
 75
0
 76
0
 77
1
 78
8
170
0
171
2
172
0
173
0
174
0
175
0
176
0
177
0
178
0
270
2
271
2
272
2
273
2
274
2
275
0
280
0
281
0
282
0
283
1
284
8
285
0
286
0
287
3
288
0
340
11
341
215
342
215
343
215
344
215
  0
DIMSTYLE
105
21A
100
AcDbSymbolTableRecord
100
AcDbDimStyleTableRecord
  2
DIMSTYLE_1
 70
0
  3

  4

 40
1.0
 41
3.0
 42
0.0625
 43
0.38
 44
0.18
 45
0.0
 46
0.0
 47
0.0
 48
0.0
140
3.0
141
0.09
142
0.0
143
25.4
144
1.0
145
0.0
146
1.0
147
0.09
 71
0.0
 72
0.0
 73
0
 74
0
 75
0
 76
0
 77
1
 78
8
170
0
171
2
172
0
173
0
174
0
175
0
176
0
177
0
178
0
270
2
271
2
272
2
273
2
274
2
275
0
280
0
281
0
282
0
283
1
284
8
285
0
286
0
287
3
288
0
340
11
341
215
342
215
343
215
344
215
  0
DIMSTYLE
105
21B
100
AcDbSymbolTableRecord
100
AcDbDimStyleTableRecord
  2
DIMSTYLE_2
 70
0
  3

  4

 40
1.0
 41
3.0
 42
0.0625
 43
0.38
 44
0.18
 45
0.0
 46
0.0
 47
0.0
 48
0.0
140
3.0
141
0.09
142
0.0
143
25.4
144
1.0
145
0.0
146
1.0
147
0.09
 71
0.0
 72
0.0
 73
0
 74
0
 75
0
 76
0
 77
1
 78
8
170
0
171
2
172
0
173
0
174
0
175
0
176
0
177
0
178
0
270
2
271
1
272
1
273
2
274
2
275
0
280
0
281
0
282
0
283
1
284
8
285
0
286
0
287
3
288
0
340
11
341
215
342
215
343
215
344
215
  0
ENDTAB
  0
ENDSEC
  0
SECTION
  2
BLOCKS
  0
BLOCK
  5
20
100
AcDbEntity
  8
0
100
AcDbBlockBegin
  2
*Model_Space
 70
0
 10
0.0
 20
0.0
 30
0.0
  3
*Model_Space
  1

  0
ENDBLK
  5
21
100
AcDbEntity
  8
0
100
AcDbBlockEnd
  0
BLOCK
  5
1C
100
AcDbEntity
  8
0
100
AcDbBlockBegin
  2
*Paper_Space
 70
0
 10
0.0
 20
0.0
 30
0.0
  3
*Paper_Space
  1

  0
ENDBLK
  5
1D
100
AcDbEntity
  8
0
100
AcDbBlockEnd
  0
BLOCK
  5
21C
100
AcDbEntity
  8
0
100
AcDbBlockBegin
  2
_FILLED
 70
64
 10
0.0
 20
0.0
  3
_FILLED
  1

  0
SOLID
  5
21D
100
AcDbEntity
  8
0
  6
BYBLOCK
 62
0
100
AcDbTrace
 10
0.0
 20
0.0
 11
-1.0
 21
0.3166666667
 12
-1.0
 22
-0.3166666667
 13
-1.0
 23
-0.3166666667
  0
ENDBLK
  5
21E
100
AcDbEntity
  8
0
  6
BYBLOCK
 62
0
100
AcDbBlockEnd
  0
BLOCK
  5
21F
100
AcDbEntity
  8
0
100
AcDbBlockBegin
 62
7
  6
CONTINUOUS
  2
*D0
 70
65
 10
0.0
 20
0.0
  3
*D0
  1

  0
MTEXT
  5
220
100
AcDbEntity
  8
0
100
AcDbMText
 62
7
  6
CONTINUOUS
  7
STANDARD
 71
2
 72
1
 10
16.2125485158
 20
22.7086675549
 30
0.0
 11
1.0
 21
0.0
 31
0.0
 44
0.9
  1
44,7
 40
3.0
 41
8.7857142857
  0
LINE
  5
221
100
AcDbEntity
  8
0
100
AcDbLine
 62
7
  6
CONTINUOUS
 10
38.5625485158
 20
11.2586904002
 11
38.5625485158
 21
20.4586675549
  0
LINE
  5
222
100
AcDbEntity
  8
0
100
AcDbLine
 62
7
  6
CONTINUOUS
 10
-6.1374514842
 20
11.2586904002
 11
-6.1374514842
 21
20.4586675549
  0
LINE
  5
223
100
AcDbEntity
  8
0
100
AcDbLine
 62
7
  6
CONTINUOUS
 10
38.5625485158
 20
18.9586675549
 11
16.2125485158
 21
18.9586675549
  0
LINE
  5
224
100
AcDbEntity
  8
0
100
AcDbLine
 62
7
  6
CONTINUOUS
 10
-6.1374514842
 20
18.9586675549
 11
16.2125485158
 21
18.9586675549
  0
INSERT
  5
225
100
AcDbEntity
  8
0
100
AcDbBlockReference
 62
7
  6
CONTINUOUS
  2
_FILLED
 10
38.5625485158
 20
18.9586675549
 41
3.0
 42
3.0
 43
3.0
  0
INSERT
  5
226
100
AcDbEntity
  8
0
100
AcDbBlockReference
 62
7
  6
CONTINUOUS
  2
_FILLED
 10
-6.1374514842
 20
18.9586675549
 41
3.0
 42
3.0
 43
3.0
 50
180.0
  0
ENDBLK
  5
227
100
AcDbEntity
  8
0
  6
BYBLOCK
 62
0
100
AcDbBlockEnd
  0
BLOCK
  5
228
100
AcDbEntity
  8
0
100
AcDbBlockBegin
 62
7
  6
CONTINUOUS
  2
*D1
 70
65
 10
0.0
 20
0.0
  3
*D1
  1

  0
MTEXT
  5
229
100
AcDbEntity
  8
0
100
AcDbMText
 62
7
  6
CONTINUOUS
  7
STANDARD
 71
2
 72
1
 10
42.8125485158
 20
-0.0709887979
 30
0.0
 11
0.0
 21
1.0
 31
0.0
 44
0.9
  1
22,1
 40
3.0
 41
8.1428571429
  0
LINE
  5
22A
100
AcDbEntity
  8
0
100
AcDbLine
 62
7
  6
CONTINUOUS
 10
38.5490944552
 20
-11.1006451508
 11
48.0625485158
 21
-11.1006451508
  0
LINE
  5
22B
100
AcDbEntity
  8
0
100
AcDbLine
 62
7
  6
CONTINUOUS
 10
36.4750145064
 20
10.9586675549
 11
48.0625485158
 21
10.9586675549
  0
LINE
  5
22C
100
AcDbEntity
  8
0
100
AcDbLine
 62
7
  6
CONTINUOUS
 10
46.5625485158
 20
-11.1006451508
 11
46.5625485158
 21
-0.0709887979
  0
LINE
  5
22D
100
AcDbEntity
  8
0
100
AcDbLine
 62
7
  6
CONTINUOUS
 10
46.5625485158
 20
10.9586675549
 11
46.5625485158
 21
-0.0709887979
  0
INSERT
  5
22E
100
AcDbEntity
  8
0
100
AcDbBlockReference
 62
7
  6
CONTINUOUS
  2
_FILLED
 10
46.5625485158
 20
-11.1006451508
 41
3.0
 42
3.0
 43
3.0
 50
270.0
  0
INSERT
  5
22F
100
AcDbEntity
  8
0
100
AcDbBlockReference
 62
7
  6
CONTINUOUS
  2
_FILLED
 10
46.5625485158
 20
10.9586675549
 41
3.0
 42
3.0
 43
3.0
 50
90.0
  0
ENDBLK
  5
230
100
AcDbEntity
  8
0
  6
BYBLOCK
 62
0
100
AcDbBlockEnd
  0
BLOCK
  5
231
100
AcDbEntity
  8
0
100
AcDbBlockBegin
 62
7
  6
CONTINUOUS
  2
*D2
 70
65
 10
0.0
 20
0.0
  3
*D2
  1

  0
MTEXT
  5
232
100
AcDbEntity
  8
0
100
AcDbMText
 62
7
  6
CONTINUOUS
  7
STANDARD
 71
2
 72
1
 10
-19.6400671765
 20
22.7086675549
 30
0.0
 11
1.0
 21
0.0
 31
0.0
 44
0.9
  1
6,5
 40
3.0
 41
6.2142857143
  0
LINE
  5
233
100
AcDbEntity
  8
0
100
AcDbLine
 62
7
  6
CONTINUOUS
 10
-16.3901277785
 20
7.9586675549
 11
-16.3901277785
 21
20.4586675549
  0
LINE
  5
234
100
AcDbEntity
  8
0
100
AcDbLine
 62
7
  6
CONTINUOUS
 10
-22.8900065745
 20
11.2105239663
 11
-22.8900065745
 21
20.4586675549
  0
LINE
  5
235
100
AcDbEntity
  8
0
100
AcDbLine
 62
7
  6
CONTINUOUS
 10
-16.3901277785
 20
18.9586675549
 11
-12.3901277785
 21
18.9586675549
  0
LINE
  5
236
100
AcDbEntity
  8
0
100
AcDbLine
 62
7
  6
CONTINUOUS
 10
-12.3901277785
 20
18.9586675549
 11
-19.6400671765
 21
18.9586675549
  0
LINE
  5
237
100
AcDbEntity
  8
0
100
AcDbLine
 62
7
  6
CONTINUOUS
 10
-22.8900065745
 20
18.9586675549
 11
-26.8900065745
 21
18.9586675549
  0
LINE
  5
238
100
AcDbEntity
  8
0
100
AcDbLine
 62
7
  6
CONTINUOUS
 10
-26.8900065745
 20
18.9586675549
 11
-19.6400671765
 21
18.9586675549
  0
INSERT
  5
239
100
AcDbEntity
  8
0
100
AcDbBlockReference
 62
7
  6
CONTINUOUS
  2
_FILLED
 10
-16.3901277785
 20
18.9586675549
 41
3.0
 42
3.0
 43
3.0
 50
180.0
  0
INSERT
  5
23A
100
AcDbEntity
  8
0
100
AcDbBlockReference
 62
7
  6
CONTINUOUS
  2
_FILLED
 10
-22.8900065745
 20
18.9586675549
 41
3.0
 42
3.0
 43
3.0
  0
ENDBLK
  5
23B
100
AcDbEntity
  8
0
  6
BYBLOCK
 62
0
100
AcDbBlockEnd
  0
ENDSEC
  0
SECTION
  2
ENTITIES
  0
DIMENSION
  5
23C
100
AcDbEntity
  8
0
100
AcDbDimension
 62
7
  6
CONTINUOUS
  2
*D0
 10
-6.1374514842
 20
18.9586675549
 11
11.8196913729
 21
21.2086675549
 70
160
 71
2
 42
44.7
  3
DIMSTYLE_1
100
AcDbAlignedDimension
 13
38.5625485158
 23
11.2586904002
 14
-6.1374514842
 24
11.2586904002
 50
180.0
100
AcDbRotatedDimension
  0
DIMENSION
  5
23D
100
AcDbEntity
  8
0
100
AcDbDimension
 62
7
  6
CONTINUOUS
  2
*D1
 10
46.5625485158
 20
10.9586675549
 11
46.1368482386
 21
-3.7108323569
 70
160
 71
2
 42
22.0593127057
  3
DIMSTYLE_2
100
AcDbAlignedDimension
 13
38.5490944552
 23
-11.1006451508
 14
36.4750145064
 24
10.9586675549
 50
90.0
100
AcDbRotatedDimension
  0
DIMENSION
  5
23E
100
AcDbEntity
  8
0
100
AcDbDimension
 62
7
  6
CONTINUOUS
  2
*D2
 10
-22.8900065745
 20
18.9586675549
 11
-22.7472100337
 21
21.2086675549
 70
160
 71
2
 42
6.499878796
  3
DIMSTYLE_1
100
AcDbAlignedDimension
 13
-16.3901277785
 23
7.9586675549
 14
-22.8900065745
 24
11.2105239663
 50
180.0
100
AcDbRotatedDimension
  0
LINE
  5
23F
100
AcDbEntity
  8
RACCORDO
100
AcDbLine
 62
7
  6
CONTINUOUS
 10
-6.1374514842
 20
-2.0413324451
 11
-6.1243772469
 21
-10.602699423
  0
LINE
  5
240
100
AcDbEntity
  8
ASSI
100
AcDbLine
 62
7
  6
CONTINUOUS
 10
-6.1374514842
 20
-2.0413324451
 11
-6.1243772469
 21
-10.602699423
  0
LINE
  5
241
100
AcDbEntity
  8
RACCORDO
100
AcDbLine
 62
7
  6
CONTINUOUS
 10
-6.1374514842
 20
10.7586904002
 11
-6.1374514842
 21
-2.0413324451
  0
LINE
  5
242
100
AcDbEntity
  8
ASSI
100
AcDbLine
 62
7
  6
CONTINUOUS
 10
-6.1374514842
 20
10.7586904002
 11
-6.1374514842
 21
-2.0413324451
  0
LINE
  5
243
100
AcDbEntity
  8
RACCORDO
100
AcDbLine
 62
253
  6
CONTINUOUS
 10
-5.5466110961
 20
10.7105239654
 11
-5.5466110961
 21
10.9106556083
  0
LINE
  5
244
100
AcDbEntity
  8
ASSI
100
AcDbLine
 62
253
  6
CONTINUOUS
 10
-5.5466110961
 20
10.7105239654
 11
-5.5466110961
 21
10.9106556083
  0
LINE
  5
245
100
AcDbEntity
  8
RACCORDO
100
AcDbLine
 62
253
  6
CONTINUOUS
 10
-6.1243772469
 20
-10.602699423
 11
-6.0704356056
 21
-10.4407428997
  0
LINE
  5
246
100
AcDbEntity
  8
ASSI
100
AcDbLine
 62
253
  6
CONTINUOUS
 10
-6.1243772469
 20
-10.602699423
 11
-6.0704356056
 21
-10.4407428997
  0
LINE
  5
247
100
AcDbEntity
  8
RACCORDO
100
AcDbLine
 62
253
  6
CONTINUOUS
 10
-5.6239974236
 20
-11.1006451508
 11
-5.5705119632
 21
-10.940058283
  0
LINE
  5
248
100
AcDbEntity
  8
ASSI
100
AcDbLine
 62
253
  6
CONTINUOUS
 10
-5.6239974236
 20
-11.1006451508
 11
-5.5705119632
 21
-10.940058283
  0
LINE
  5
249
100
AcDbEntity
  8
RACCORDO
100
AcDbLine
 62
7
  6
CONTINUOUS
 10
30.8541235228
 20
-11.1006451508
 11
31.2048134889
 21
-11.0688119928
  0
LINE
  5
24A
100
AcDbEntity
  8
ASSI
100
AcDbLine
 62
7
  6
CONTINUOUS
 10
30.8541235228
 20
-11.1006451508
 11
31.2048134889
 21
-11.0688119928
  0
LINE
  5
24B
100
AcDbEntity
  8
RACCORDO
100
AcDbLine
 62
7
  6
CONTINUOUS
 10
1.5709735088
 20
-11.1006451508
 11
1.2202835427
 21
-11.0688119928
  0
LINE
  5
24C
100
AcDbEntity
  8
ASSI
100
AcDbLine
 62
7
  6
CONTINUOUS
 10
1.5709735088
 20
-11.1006451508
 11
1.2202835427
 21
-11.0688119928
  0
LINE
  5
24D
100
AcDbEntity
  8
RACCORDO
100
AcDbLine
 62
7
  6
CONTINUOUS
 10
19.6541235228
 20
-11.1006451508
 11
20.0048134889
 21
-11.0688119928
  0
LINE
  5
24E
100
AcDbEntity
  8
ASSI
100
AcDbLine
 62
7
  6
CONTINUOUS
 10
19.6541235228
 20
-11.1006451508
 11
20.0048134889
 21
-11.0688119928
  0
LINE
  5
24F
100
AcDbEntity
  8
RACCORDO
100
AcDbLine
 62
7
  6
CONTINUOUS
 10
8.3541235228
 20
-11.1006451508
 11
8.7048134889
 21
-11.0688119928
  0
LINE
  5
250
100
AcDbEntity
  8
ASSI
100
AcDbLine
 62
7
  6
CONTINUOUS
 10
8.3541235228
 20
-11.1006451508
 11
8.7048134889
 21
-11.0688119928
  0
LINE
  5
251
100
AcDbEntity
  8
RACCORDO
100
AcDbLine
 62
7
  6
CONTINUOUS
 10
-5.6239974236
 20
-11.1006451508
 11
-2.8458764772
 21
-11.1006451508
  0
LINE
  5
252
100
AcDbEntity
  8
ASSI
100
AcDbLine
 62
7
  6
CONTINUOUS
 10
-5.6239974236
 20
-11.1006451508
 11
-2.8458764772
 21
-11.1006451508
  0
LINE
  5
253
100
AcDbEntity
  8
DRAFT
100
AcDbLine
 62
7
  6
CONTINUOUS
 10
1.5709735088
 20
-11.1006451508
 11
8.3541235228
 21
-11.1006451508
  0
LINE
  5
254
100
AcDbEntity
  8
ASSI
100
AcDbLine
 62
7
  6
CONTINUOUS
 10
1.5709735088
 20
-11.1006451508
 11
8.3541235228
 21
-11.1006451508
  0
LINE
  5
255
100
AcDbEntity
  8
DRAFT
100
AcDbLine
 62
7
  6
CONTINUOUS
 10
12.7709735088
 20
-11.1006451508
 11
19.6541235228
 21
-11.1006451508
  0
LINE
  5
256
100
AcDbEntity
  8
ASSI
100
AcDbLine
 62
7
  6
CONTINUOUS
 10
12.7709735088
 20
-11.1006451508
 11
19.6541235228
 21
-11.1006451508
  0
LINE
  5
257
100
AcDbEntity
  8
DRAFT
100
AcDbLine
 62
7
  6
CONTINUOUS
 10
24.0709735088
 20
-11.1006451508
 11
30.8541235228
 21
-11.1006451508
  0
LINE
  5
258
100
AcDbEntity
  8
ASSI
100
AcDbLine
 62
7
  6
CONTINUOUS
 10
24.0709735088
 20
-11.1006451508
 11
30.8541235228
 21
-11.1006451508
  0
LINE
  5
259
100
AcDbEntity
  8
RACCORDO
100
AcDbLine
 62
7
  6
CONTINUOUS
 10
35.2709735088
 20
-11.1006451508
 11
38.0490944552
 21
-11.1006451508
  0
LINE
  5
25A
100
AcDbEntity
  8
ASSI
100
AcDbLine
 62
7
  6
CONTINUOUS
 10
35.2709735088
 20
-11.1006451508
 11
38.0490944552
 21
-11.1006451508
  0
LINE
  5
25B
100
AcDbEntity
  8
RACCORDO
100
AcDbLine
 62
7
  6
CONTINUOUS
 10
-2.3219814304
 20
-11.0635712149
 11
1.047078462
 21
-11.0635712149
  0
LINE
  5
25C
100
AcDbEntity
  8
ASSI
100
AcDbLine
 62
7
  6
CONTINUOUS
 10
-2.3219814304
 20
-11.0635712149
 11
1.047078462
 21
-11.0635712149
  0
LINE
  5
25D
100
AcDbEntity
  8
RACCORDO
100
AcDbLine
 62
7
  6
CONTINUOUS
 10
8.8780185696
 20
-11.0635712149
 11
12.247078462
 21
-11.0635712149
  0
LINE
  5
25E
100
AcDbEntity
  8
ASSI
100
AcDbLine
 62
7
  6
CONTINUOUS
 10
8.8780185696
 20
-11.0635712149
 11
12.247078462
 21
-11.0635712149
  0
LINE
  5
25F
100
AcDbEntity
  8
RACCORDO
100
AcDbLine
 62
7
  6
CONTINUOUS
 10
20.1780185696
 20
-11.0635712149
 11
23.547078462
 21
-11.0635712149
  0
LINE
  5
260
100
AcDbEntity
  8
ASSI
100
AcDbLine
 62
7
  6
CONTINUOUS
 10
20.1780185696
 20
-11.0635712149
 11
23.547078462
 21
-11.0635712149
  0
LINE
  5
261
100
AcDbEntity
  8
RACCORDO
100
AcDbLine
 62
7
  6
CONTINUOUS
 10
31.3780185696
 20
-11.0635712149
 11
34.747078462
 21
-11.0635712149
  0
LINE
  5
262
100
AcDbEntity
  8
ASSI
100
AcDbLine
 62
7
  6
CONTINUOUS
 10
31.3780185696
 20
-11.0635712149
 11
34.747078462
 21
-11.0635712149
  0
LINE
  5
263
100
AcDbEntity
  8
RACCORDO
100
AcDbLine
 62
253
  6
CONTINUOUS
 10
37.9956089948
 20
-10.940058283
 11
-5.5705119632
 21
-10.940058283
  0
LINE
  5
264
100
AcDbEntity
  8
ASSI
100
AcDbLine
 62
253
  6
CONTINUOUS
 10
37.9956089948
 20
-10.940058283
 11
-5.5705119632
 21
-10.940058283
  0
LINE
  5
265
100
AcDbEntity
  8
RACCORDO
100
AcDbLine
 62
7
  6
CONTINUOUS
 10
12.7709735088
 20
-11.1006451508
 11
12.4202835427
 21
-11.0688119928
  0
LINE
  5
266
100
AcDbEntity
  8
ASSI
100
AcDbLine
 62
7
  6
CONTINUOUS
 10
12.7709735088
 20
-11.1006451508
 11
12.4202835427
 21
-11.0688119928
  0
LINE
  5
267
100
AcDbEntity
  8
RACCORDO
100
AcDbLine
 62
7
  6
CONTINUOUS
 10
24.0709735088
 20
-11.1006451508
 11
23.7202835427
 21
-11.0688119928
  0
LINE
  5
268
100
AcDbEntity
  8
ASSI
100
AcDbLine
 62
7
  6
CONTINUOUS
 10
24.0709735088
 20
-11.1006451508
 11
23.7202835427
 21
-11.0688119928
  0
LINE
  5
269
100
AcDbEntity
  8
RACCORDO
100
AcDbLine
 62
7
  6
CONTINUOUS
 10
-2.8458764772
 20
-11.1006451508
 11
-2.4951865111
 21
-11.0688119928
  0
LINE
  5
26A
100
AcDbEntity
  8
ASSI
100
AcDbLine
 62
7
  6
CONTINUOUS
 10
-2.8458764772
 20
-11.1006451508
 11
-2.4951865111
 21
-11.0688119928
  0
LINE
  5
26B
100
AcDbEntity
  8
RACCORDO
100
AcDbLine
 62
253
  6
CONTINUOUS
 10
37.979082004
 20
-9.5037870807
 11
-5.5539849724
 21
-9.5037870809
  0
LINE
  5
26C
100
AcDbEntity
  8
ASSI
100
AcDbLine
 62
253
  6
CONTINUOUS
 10
37.979082004
 20
-9.5037870807
 11
-5.5539849724
 21
-9.5037870809
  0
LINE
  5
26D
100
AcDbEntity
  8
RACCORDO
100
AcDbLine
 62
7
  6
CONTINUOUS
 10
35.2709735088
 20
-11.1006451508
 11
34.9202835427
 21
-11.0688119928
  0
LINE
  5
26E
100
AcDbEntity
  8
ASSI
100
AcDbLine
 62
7
  6
CONTINUOUS
 10
35.2709735088
 20
-11.1006451508
 11
34.9202835427
 21
-11.0688119928
  0
LINE
  5
26F
100
AcDbEntity
  8
RACCORDO
100
AcDbLine
 62
253
  6
CONTINUOUS
 10
38.3625485146
 20
10.9586675549
 11
38.2716624076
 21
10.9132279623
  0
LINE
  5
270
100
AcDbEntity
  8
ASSI
100
AcDbLine
 62
253
  6
CONTINUOUS
 10
38.3625485146
 20
10.9586675549
 11
38.2716624076
 21
10.9132279623
  0
LINE
  5
271
100
AcDbEntity
  8
RACCORDO
100
AcDbLine
 62
253
  6
CONTINUOUS
 10
-6.046534915
 20
10.7132355777
 11
-6.1374514842
 21
10.7586904002
  0
LINE
  5
272
100
AcDbEntity
  8
ASSI
100
AcDbLine
 62
253
  6
CONTINUOUS
 10
-6.046534915
 20
10.7132355777
 11
-6.1374514842
 21
10.7586904002
  0
LINE
  5
273
100
AcDbEntity
  8
RACCORDO
100
AcDbLine
 62
253
  6
CONTINUOUS
 10
-5.846565376
 20
10.9132279623
 11
-5.937451483
 21
10.9586675549
  0
LINE
  5
274
100
AcDbEntity
  8
ASSI
100
AcDbLine
 62
253
  6
CONTINUOUS
 10
-5.846565376
 20
10.9132279623
 11
-5.937451483
 21
10.9586675549
  0
LINE
  5
275
100
AcDbEntity
  8
RACCORDO
100
AcDbLine
 62
253
  6
CONTINUOUS
 10
38.5625485158
 20
10.7586904002
 11
38.4716319467
 21
10.7132355777
  0
LINE
  5
276
100
AcDbEntity
  8
ASSI
100
AcDbLine
 62
253
  6
CONTINUOUS
 10
38.5625485158
 20
10.7586904002
 11
38.4716319467
 21
10.7132355777
  0
LINE
  5
277
100
AcDbEntity
  8
DRAFT
100
AcDbLine
 62
7
  6
CONTINUOUS
 10
35.9750145064
 20
10.9586675549
 11
35.7125485158
 21
10.9324869516
  0
LINE
  5
278
100
AcDbEntity
  8
ASSI
100
AcDbLine
 62
7
  6
CONTINUOUS
 10
35.9750145064
 20
10.9586675549
 11
35.7125485158
 21
10.9324869516
  0
LINE
  5
279
100
AcDbEntity
  8
DRAFT
100
AcDbLine
 62
7
  6
CONTINUOUS
 10
-3.5499174748
 20
10.9586675549
 11
-3.2874514842
 21
10.9324869516
  0
LINE
  5
27A
100
AcDbEntity
  8
ASSI
100
AcDbLine
 62
7
  6
CONTINUOUS
 10
-3.5499174748
 20
10.9586675549
 11
-3.2874514842
 21
10.9324869516
  0
LINE
  5
27B
100
AcDbEntity
  8
RACCORDO
100
AcDbLine
 62
253
  6
CONTINUOUS
 10
37.9716956458
 20
10.7105239654
 11
-5.5465986142
 21
10.7105239654
  0
LINE
  5
27C
100
AcDbEntity
  8
ASSI
100
AcDbLine
 62
253
  6
CONTINUOUS
 10
37.9716956458
 20
10.7105239654
 11
-5.5465986142
 21
10.7105239654
  0
LINE
  5
27D
100
AcDbEntity
  8
RACCORDO
100
AcDbLine
 62
253
  6
CONTINUOUS
 10
37.9717081277
 20
10.9106556083
 11
-5.5466110961
 21
10.9106556083
  0
LINE
  5
27E
100
AcDbEntity
  8
ASSI
100
AcDbLine
 62
7
  6
CONTINUOUS
 10
37.9717081277
 20
10.9106556083
 11
-5.5466110961
 21
10.9106556083
  0
LINE
  5
27F
100
AcDbEntity
  8
DRAFT
100
AcDbLine
 62
7
  6
CONTINUOUS
 10
-3.2874514842
 20
10.9324869516
 11
35.7125485158
 21
10.9324869516
  0
LINE
  5
280
100
AcDbEntity
  8
ASSI
100
AcDbLine
 62
7
  6
CONTINUOUS
 10
-3.2874514842
 20
10.9324869516
 11
35.7125485158
 21
10.9324869516
  0
LINE
  5
281
100
AcDbEntity
  8
RACCORDO
100
AcDbLine
 62
7
  6
CONTINUOUS
 10
-5.937451483
 20
10.9586675549
 11
-3.5499174748
 21
10.9586675549
  0
LINE
  5
282
100
AcDbEntity
  8
ASSI
100
AcDbLine
 62
7
  6
CONTINUOUS
 10
-5.937451483
 20
10.9586675549
 11
-3.5499174748
 21
10.9586675549
  0
LINE
  5
283
100
AcDbEntity
  8
RACCORDO
100
AcDbLine
 62
7
  6
CONTINUOUS
 10
35.9750145064
 20
10.9586675549
 11
38.3625485146
 21
10.9586675549
  0
LINE
  5
284
100
AcDbEntity
  8
ASSI
100
AcDbLine
 62
7
  6
CONTINUOUS
 10
35.9750145064
 20
10.9586675549
 11
38.3625485146
 21
10.9586675549
  0
LINE
  5
285
100
AcDbEntity
  8
RACCORDO
100
AcDbLine
 62
253
  6
CONTINUOUS
 10
37.9956089948
 20
-10.940058283
 11
38.0490944552
 21
-11.1006451508
  0
LINE
  5
286
100
AcDbEntity
  8
ASSI
100
AcDbLine
 62
253
  6
CONTINUOUS
 10
37.9956089948
 20
-10.940058283
 11
38.0490944552
 21
-11.1006451508
  0
LINE
  5
287
100
AcDbEntity
  8
RACCORDO
100
AcDbLine
 62
253
  6
CONTINUOUS
 10
38.4955326372
 20
-10.4407428997
 11
38.5494742785
 21
-10.602699423
  0
LINE
  5
288
100
AcDbEntity
  8
ASSI
100
AcDbLine
 62
253
  6
CONTINUOUS
 10
38.4955326372
 20
-10.4407428997
 11
38.5494742785
 21
-10.602699423
  0
LINE
  5
289
100
AcDbEntity
  8
RACCORDO
100
AcDbLine
 62
253
  6
CONTINUOUS
 10
37.9717081277
 20
10.7105239654
 11
37.9717081277
 21
10.9106556083
  0
LINE
  5
28A
100
AcDbEntity
  8
ASSI
100
AcDbLine
 62
253
  6
CONTINUOUS
 10
37.9717081277
 20
10.7105239654
 11
37.9717081277
 21
10.9106556083
  0
LINE
  5
28B
100
AcDbEntity
  8
RACCORDO
100
AcDbLine
 62
7
  6
CONTINUOUS
 10
38.5625485158
 20
10.7586904002
 11
38.5625485158
 21
-2.0413324451
  0
LINE
  5
28C
100
AcDbEntity
  8
ASSI
100
AcDbLine
 62
7
  6
CONTINUOUS
 10
38.5625485158
 20
10.7586904002
 11
38.5625485158
 21
-2.0413324451
  0
LINE
  5
28D
100
AcDbEntity
  8
RACCORDO
100
AcDbLine
 62
7
  6
CONTINUOUS
 10
38.5625485158
 20
-2.0413324451
 11
38.5494742785
 21
-10.602699423
  0
LINE
  5
28E
100
AcDbEntity
  8
ASSI
100
AcDbLine
 62
7
  6
CONTINUOUS
 10
38.5625485158
 20
-2.0413324451
 11
38.5494742785
 21
-10.602699423
  0
LINE
  5
28F
100
AcDbEntity
  8
RACCORDO
100
AcDbLine
 62
7
  6
CONTINUOUS
 10
-21.0468949148
 20
-10.940058283
 11
-17.9827149396
 21
-11.1006451508
  0
LINE
  5
290
100
AcDbEntity
  8
ASSI
100
AcDbLine
 62
7
  6
CONTINUOUS
 10
-21.0468949148
 20
-10.940058283
 11
-17.9827149396
 21
-11.1006451508
  0
LINE
  5
291
100
AcDbEntity
  8
RACCORDO
100
AcDbLine
 62
253
  6
CONTINUOUS
 10
-21.0294648925
 20
-10.4407428997
 11
-17.9391503334
 21
-10.602699423
  0
LINE
  5
292
100
AcDbEntity
  8
ASSI
100
AcDbLine
 62
253
  6
CONTINUOUS
 10
-21.0294648925
 20
-10.4407428997
 11
-17.9391503334
 21
-10.602699423
  0
LINE
  5
293
100
AcDbEntity
  8
RACCORDO
100
AcDbLine
 62
253
  6
CONTINUOUS
 10
-21.9762829482
 20
-9.4832383016
 11
-22.467133476
 21
-9.5038007586
  0
LINE
  5
294
100
AcDbEntity
  8
ASSI
100
AcDbLine
 62
253
  6
CONTINUOUS
 10
-21.9762829482
 20
-9.4832383016
 11
-22.467133476
 21
-9.5038007586
  0
LINE
  5
295
100
AcDbEntity
  8
RACCORDO
100
AcDbLine
 62
253
  6
CONTINUOUS
 10
-17.5901277785
 20
-6.8748240463
 11
-17.6130034988
 21
-6.8748240454
  0
LINE
  5
296
100
AcDbEntity
  8
ASSI
100
AcDbLine
 62
253
  6
CONTINUOUS
 10
-17.5901277785
 20
-6.8748240463
 11
-17.6130034988
 21
-6.8748240454
  0
LINE
  5
297
100
AcDbEntity
  8
CURVE
100
AcDbLine
 62
253
  6
CONTINUOUS
 10
-22.649486447
 20
-4.4520845202
 11
-22.6420037129
 21
-4.6913324451
  0
LINE
  5
298
100
AcDbEntity
  8
CURVE
100
AcDbLine
 62
253
  6
CONTINUOUS
 10
-22.7807609951
 20
0.6013818594
 11
-22.785054238
 21
0.808667555
  0
LINE
  5
299
100
AcDbEntity
  8
RACCORDO
100
AcDbLine
 62
7
  6
CONTINUOUS
 10
-17.5901277785
 20
-6.6133533662
 11
-17.5901277785
 21
-6.8748240463
  0
LINE
  5
29A
100
AcDbEntity
  8
ASSI
100
AcDbLine
 62
7
  6
CONTINUOUS
 10
-17.5901277785
 20
-6.6133533662
 11
-17.5901277785
 21
-6.8748240463
  0
LINE
  5
29B
100
AcDbEntity
  8
RACCORDO
100
AcDbLine
 62
7
  6
CONTINUOUS
 10
-17.1901277785
 20
10.9586675549
 11
-17.1901277785
 21
-2.0413324451
  0
LINE
  5
29C
100
AcDbEntity
  8
ASSI
100
AcDbLine
 62
7
  6
CONTINUOUS
 10
-17.1901277785
 20
10.9586675549
 11
-17.1901277785
 21
-2.0413324451
  0
LINE
  5
29D
100
AcDbEntity
  8
RACCORDO
100
AcDbLine
 62
7
  6
CONTINUOUS
 10
-17.1901277785
 20
-2.0413324451
 11
-17.9827149396
 21
-11.1006451508
  0
LINE
  5
29E
100
AcDbEntity
  8
ASSI
100
AcDbLine
 62
7
  6
CONTINUOUS
 10
-17.1901277785
 20
-2.0413324451
 11
-17.9827149396
 21
-11.1006451508
  0
LINE
  5
29F
100
AcDbEntity
  8
0
100
AcDbLine
 62
7
  6
CONTINUOUS
 10
-16.3901277785
 20
5.6586675549
 11
-16.3901277785
 21
7.4586675549
  0
LINE
  5
2A0
100
AcDbEntity
  8
0
100
AcDbLine
 62
7
  6
CONTINUOUS
 10
-17.1901277785
 20
5.6186675549
 11
-16.3901277785
 21
5.6586675549
  0
LINE
  5
2A1
100
AcDbEntity
  8
0
100
AcDbLine
 62
7
  6
CONTINUOUS
 10
-17.1901277785
 20
7.4986675549
 11
-16.3901277785
 21
7.4586675549
  0
LINE
  5
2A2
100
AcDbEntity
  8
RACCORDO
100
AcDbLine
 62
253
  6
CONTINUOUS
 10
-17.1901277785
 20
10.7586904002
 11
-22.3987345366
 21
10.7132355777
  0
LINE
  5
2A3
100
AcDbEntity
  8
ASSI
100
AcDbLine
 62
253
  6
CONTINUOUS
 10
-17.1901277785
 20
10.7586904002
 11
-22.3987345366
 21
10.7132355777
  0
LINE
  5
2A4
100
AcDbEntity
  8
RACCORDO
100
AcDbLine
 62
7
  6
CONTINUOUS
 10
-17.1901277785
 20
10.9586675549
 11
-22.6917519289
 21
10.9106556083
  0
LINE
  5
2A5
100
AcDbEntity
  8
ASSI
100
AcDbLine
 62
7
  6
CONTINUOUS
 10
-17.1901277785
 20
10.9586675549
 11
-22.6917519289
 21
10.9106556083
  0
CIRCLE
  5
2A6
100
AcDbEntity
  8
CURVE
100
AcDbCircle
 62
253
  6
CONTINUOUS
 10
16.2125485158
 20
-1.9413324451
 40
2.75
  0
ARC
  5
2A7
100
AcDbEntity
  8
RACCORDO
100
AcDbCircle
 62
253
  6
CONTINUOUS
 10
16.2125485151
 20
6.5582572939
 40
1.4205643605
100
AcDbArc
 50
359.9802406463
 51
180.0197593537
  0
ARC
  5
2A8
100
AcDbEntity
  8
ASSI
100
AcDbCircle
 62
253
  6
CONTINUOUS
 10
16.2125485151
 20
6.5582572939
 40
1.4205643605
100
AcDbArc
 50
359.9802406463
 51
180.0197593537
  0
ARC
  5
2A9
100
AcDbEntity
  8
RACCORDO
100
AcDbCircle
 62
253
  6
CONTINUOUS
 10
16.2125485165
 20
6.5577238884
 40
1.4205642984
100
AcDbArc
 50
179.9982461073
 51
0.0017538927
  0
ARC
  5
2AA
100
AcDbEntity
  8
ASSI
100
AcDbCircle
 62
253
  6
CONTINUOUS
 10
16.2125485165
 20
6.5577238884
 40
1.4205642984
100
AcDbArc
 50
179.9982461073
 51
0.0017538927
  0
CIRCLE
  5
2AB
100
AcDbEntity
  8
RACCORDO
100
AcDbCircle
 62
253
  6
CONTINUOUS
 10
16.2125485159
 20
6.5588530367
 40
1.3206291745
  0
CIRCLE
  5
2AC
100
AcDbEntity
  8
ASSI
100
AcDbCircle
 62
253
  6
CONTINUOUS
 10
16.2125485159
 20
6.5588530367
 40
1.3206291745
  0
CIRCLE
  5
2AD
100
AcDbEntity
  8
DRAFT
100
AcDbCircle
 62
7
  6
CONTINUOUS
 10
16.2125485158
 20
6.5586675549
 40
1.3
  0
CIRCLE
  5
2AE
100
AcDbEntity
  8
ASSI
100
AcDbCircle
 62
7
  6
CONTINUOUS
 10
16.2125485158
 20
6.5586675549
 40
1.3
  0
CIRCLE
  5
2AF
100
AcDbEntity
  8
DRAFT
100
AcDbCircle
 62
7
  6
CONTINUOUS
 10
16.2125485158
 20
6.5586675549
 40
1.225
  0
CIRCLE
  5
2B0
100
AcDbEntity
  8
RACCORDO
100
AcDbCircle
 62
253
  6
CONTINUOUS
 10
16.2125485158
 20
6.5586675549
 40
1.2068524201
  0
CIRCLE
  5
2B1
100
AcDbEntity
  8
RACCORDO
100
AcDbCircle
 62
253
  6
CONTINUOUS
 10
16.2125485158
 20
6.5586675549
 40
1.1180464865
  0
ARC
  5
2B2
100
AcDbEntity
  8
RACCORDO
100
AcDbCircle
 62
253
  6
CONTINUOUS
 10
-5.570306796
 20
-10.4398523042
 40
0.5001711055
100
AcDbArc
 50
180.1020283288
 51
269.9765227258
  0
ARC
  5
2B3
100
AcDbEntity
  8
RACCORDO
100
AcDbCircle
 62
253
  6
CONTINUOUS
 10
37.9954037884
 20
-10.4398523431
 40
0.5001711055
100
AcDbArc
 50
270.0234817623
 51
359.8979761315
  0
ARC
  5
2B4
100
AcDbEntity
  8
ASSI
100
AcDbCircle
 62
253
  6
CONTINUOUS
 10
37.9954037884
 20
-10.4398523431
 40
0.5001711055
100
AcDbArc
 50
270.0234817623
 51
359.8979761315
  0
ARC
  5
2B5
100
AcDbEntity
  8
ASSI
100
AcDbCircle
 62
253
  6
CONTINUOUS
 10
-5.570306796
 20
-10.4398523042
 40
0.5001711055
100
AcDbArc
 50
180.1020283288
 51
269.9765227258
  0
ARC
  5
2B6
100
AcDbEntity
  8
RACCORDO
100
AcDbCircle
 62
253
  6
CONTINUOUS
 10
-5.8465160952
 20
10.7132117662
 40
0.2000177349
100
AcDbArc
 50
90.0141167675
 51
179.9931791555
  0
ARC
  5
2B7
100
AcDbEntity
  8
RACCORDO
100
AcDbCircle
 62
253
  6
CONTINUOUS
 10
38.2716131337
 20
10.7132117731
 40
0.2000177349
100
AcDbArc
 50
0.0068188717
 51
89.9858852041
  0
ARC
  5
2B8
100
AcDbEntity
  8
ASSI
100
AcDbCircle
 62
253
  6
CONTINUOUS
 10
38.2716131337
 20
10.7132117731
 40
0.2000177349
100
AcDbArc
 50
0.0068188717
 51
89.9858852041
  0
ARC
  5
2B9
100
AcDbEntity
  8
ASSI
100
AcDbCircle
 62
253
  6
CONTINUOUS
 10
-5.8465160952
 20
10.7132117662
 40
0.2000177349
100
AcDbArc
 50
90.0141167675
 51
179.9931791555
  0
ARC
  5
2BA
100
AcDbEntity
  8
RACCORDO
100
AcDbCircle
 62
7
  6
CONTINUOUS
 10
-20.968402733
 20
-9.4421133649
 40
1.5
100
AcDbArc
 50
182.3564266604
 51
267.0004495319
  0
ARC
  5
2BB
100
AcDbEntity
  8
ASSI
100
AcDbCircle
 62
7
  6
CONTINUOUS
 10
-20.968402733
 20
-9.4421133649
 40
1.5
100
AcDbArc
 50
182.3564266604
 51
267.0004495319
  0
ARC
  5
2BC
100
AcDbEntity
  8
RACCORDO
100
AcDbCircle
 62
253
  6
CONTINUOUS
 10
-20.9771289304
 20
-9.4421133591
 40
1.0000000061
100
AcDbArc
 50
182.3569503067
 51
266.9999996841
  0
ARC
  5
2BD
100
AcDbEntity
  8
ASSI
100
AcDbCircle
 62
253
  6
CONTINUOUS
 10
-20.9771289304
 20
-9.4421133591
 40
1.0000000061
100
AcDbArc
 50
182.3569503067
 51
266.9999996841
  0
ARC
  5
2BE
100
AcDbEntity
  8
RACCORDO
100
AcDbCircle
 62
7
  6
CONTINUOUS
 10
-17.8901277785
 20
-6.8748240463
 40
0.3
100
AcDbArc
 50
335.0
 51
360.0
  0
ARC
  5
2BF
100
AcDbEntity
  8
ASSI
100
AcDbCircle
 62
7
  6
CONTINUOUS
 10
-17.8901277785
 20
-6.8748240463
 40
0.3
100
AcDbArc
 50
335.0
 51
360.0
  0
ARC
  5
2C0
100
AcDbEntity
  8
RACCORDO
100
AcDbCircle
 62
7
  6
CONTINUOUS
 10
-22.690006229
 20
10.7106632272
 40
0.2
100
AcDbArc
 50
90.5001125223
 51
180.0398954802
  0
ARC
  5
2C1
100
AcDbEntity
  8
ASSI
100
AcDbCircle
 62
7
  6
CONTINUOUS
 10
-22.690006229
 20
10.7106632272
 40
0.2
100
AcDbArc
 50
90.5001125223
 51
180.0398954802
  0
ARC
  5
2C2
100
AcDbEntity
  8
RACCORDO
100
AcDbCircle
 62
7
  6
CONTINUOUS
 10
477.1098722215
 20
11.0586675549
 40
500.0
100
AcDbArc
 50
180.0398943199
 51
182.3569484208
  0
ARC
  5
2C3
100
AcDbEntity
  8
ASSI
100
AcDbCircle
 62
7
  6
CONTINUOUS
 10
477.1098722215
 20
11.0586675549
 40
500.0
100
AcDbArc
 50
180.0398943199
 51
182.3569484208
  0
ARC
  5
2C4
100
AcDbEntity
  8
RACCORDO
100
AcDbCircle
 62
253
  6
CONTINUOUS
 10
477.101140361
 20
11.0586673768
 40
499.4999943402
100
AcDbArc
 50
180.0396231952
 51
182.356949997
  0
ARC
  5
2C5
100
AcDbEntity
  8
ASSI
100
AcDbCircle
 62
253
  6
CONTINUOUS
 10
477.101140361
 20
11.0586673768
 40
499.4999943402
100
AcDbArc
 50
180.0396231952
 51
182.356949997
  0
SPLINE
  5
2C6
100
AcDbEntity
  8
RACCORDO
100
AcDbSpline
 62
253
  6
CONTINUOUS
 70
0
 71
3
 72
18
 73
14
 74
12
 42
0.0000001
 43
0.0000001
 44
0.0000000001
 12
-0.299989706
 22
0.000000142
 32
0.0
 13
-0.2684874758
 23
0.133821893
 33
0.0
 40
0.0
 40
0.0
 40
0.0
 40
0.0
 40
0.1406746255
 40
0.2786286441
 40
0.4110478798
 40
0.5352794916
 40
0.6488611016
 40
0.7495250868
 40
0.8352602903
 40
0.9043609514
 40
0.955459893
 40
0.9875422799
 40
1.0
 40
1.0
 40
1.0
 40
1.0
 10
-5.5466110961
 20
10.9106556083
 30
0.0
 10
-5.5606780759
 20
10.910655615
 30
0.0
 10
-5.5885400001
 20
10.9106725853
 30
0.0
 10
-5.6296432623
 20
10.9107490654
 30
0.0
 10
-5.6691023977
 20
10.910873974
 30
0.0
 10
-5.7061233489
 20
10.9110476558
 30
0.0
 10
-5.7399713304
 20
10.9112563546
 30
0.0
 10
-5.7699608765
 20
10.9115269324
 30
0.0
 10
-5.7955273859
 20
10.9117577262
 30
0.0
 10
-5.8160668632
 20
10.9122091765
 30
0.0
 10
-5.8314125529
 20
10.9121881094
 30
0.0
 10
-5.8407449251
 20
10.9131344969
 30
0.0
 10
-5.8454504621
 20
10.9126722571
 30
0.0
 10
-5.846565376
 20
10.9132279623
 30
0.0
 11
-5.5466110961
 21
10.9106556083
 31
0.0
 11
-5.5888120276
 21
10.91068164
 31
0.0
 11
-5.6301967403
 21
10.9107592796
 31
0.0
 11
-5.6699209426
 21
10.9108869899
 31
0.0
 11
-5.7071887353
 21
10.911062222
 31
0.0
 11
-5.7412613435
 21
10.9112815048
 31
0.0
 11
-5.7714583924
 21
10.9115404696
 31
0.0
 11
-5.7971763966
 21
10.91183394
 31
0.0
 11
-5.8179033807
 21
10.9121560596
 31
0.0
 11
-5.8332286682
 21
10.9125004428
 31
0.0
 11
-5.8428463282
 21
10.9128601904
 31
0.0
 11
-5.846565376
 21
10.9132279623
 31
0.0
  0
SPLINE
  5
2C7
100
AcDbEntity
  8
RACCORDO
100
AcDbSpline
 62
253
  6
CONTINUOUS
 70
0
 71
3
 72
18
 73
14
 74
12
 42
0.0000001
 43
0.0000001
 44
0.0000000001
 12
-0.2684874777
 22
-0.1338218893
 32
0.0
 13
-0.299989706
 23
-0.000000142
 33
0.0
 40
0.0
 40
0.0
 40
0.0
 40
0.0
 40
0.01245772
 40
0.0445401068
 40
0.0956390483
 40
0.1647397093
 40
0.2504749128
 40
0.351138898
 40
0.4647205079
 40
0.5889521196
 40
0.7213713552
 40
0.8593253738
 40
1.0
 40
1.0
 40
1.0
 40
1.0
 10
38.2716624076
 20
10.9132279623
 30
0.0
 10
38.2705474937
 20
10.9126722571
 30
0.0
 10
38.2658419567
 20
10.9131344968
 30
0.0
 10
38.2565095846
 20
10.9121881094
 30
0.0
 10
38.2411638949
 20
10.9122091764
 30
0.0
 10
38.2206244176
 20
10.9117577262
 30
0.0
 10
38.1950579082
 20
10.9115269324
 30
0.0
 10
38.1650683622
 20
10.9112563546
 30
0.0
 10
38.1312203807
 20
10.9110476558
 30
0.0
 10
38.0941994295
 20
10.910873974
 30
0.0
 10
38.0547402941
 20
10.9107490654
 30
0.0
 10
38.0136370318
 20
10.9106725853
 30
0.0
 10
37.9857751076
 20
10.910655615
 30
0.0
 10
37.9717081277
 20
10.9106556083
 30
0.0
 11
38.2716624076
 21
10.9132279623
 31
0.0
 11
38.2679433599
 21
10.9128601904
 31
0.0
 11
38.2583256999
 21
10.9125004428
 31
0.0
 11
38.2430004124
 21
10.9121560596
 31
0.0
 11
38.2222734283
 21
10.91183394
 31
0.0
 11
38.1965554242
 21
10.9115404696
 31
0.0
 11
38.1663583752
 21
10.9112815048
 31
0.0
 11
38.1322857671
 21
10.911062222
 31
0.0
 11
38.0950179744
 21
10.9108869899
 31
0.0
 11
38.0552937721
 21
10.9107592796
 31
0.0
 11
38.0139090594
 21
10.91068164
 31
0.0
 11
37.9717081277
 21
10.9106556083
 31
0.0
  0
SPLINE
  5
2C8
100
AcDbEntity
  8
RACCORDO
100
AcDbSpline
 62
253
  6
CONTINUOUS
 70
0
 71
3
 72
21
 73
17
 74
15
 42
0.0000001
 43
0.0000001
 44
0.0000000001
 12
0.3113269094
 22
1.402385911
 32
0.0
 13
0.0006885319
 23
1.4365271365
 33
0.0
 40
0.0
 40
0.0
 40
0.0
 40
0.0
 40
0.0116253613
 40
0.0346870886
 40
0.0689537638
 40
0.1140486773
 40
0.1694730336
 40
0.2346119018
 40
0.3087402368
 40
0.3910339711
 40
0.4805783092
 40
0.5763759237
 40
0.6773619052
 40
0.7824150232
 40
0.8903612899
 40
1.0
 40
1.0
 40
1.0
 40
1.0
 10
-5.5705118941
 20
-10.9400582829
 30
0.0
 10
-5.5693054649
 20
-10.9346238686
 30
0.0
 10
-5.5683832063
 20
-10.917944831
 30
0.0
 10
-5.5664386731
 20
-10.8850521825
 30
0.0
 10
-5.5649411088
 20
-10.8359921019
 30
0.0
 10
-5.5632553871
 20
-10.7714879385
 30
0.0
 10
-5.5617266551
 20
-10.6921724334
 30
0.0
 10
-5.560262302
 20
-10.5989591949
 30
0.0
 10
-5.5589244778
 20
-10.4928740637
 30
0.0
 10
-5.5577164945
 20
-10.3751012247
 30
0.0
 10
-5.5566576468
 20
-10.246950139
 30
0.0
 10
-5.555759209
 20
-10.1098470782
 30
0.0
 10
-5.5550321672
 20
-9.965316624
 30
0.0
 10
-5.5544848546
 20
-9.8149680593
 30
0.0
 10
-5.5541236374
 20
-9.6604756308
 30
0.0
 10
-5.5540101357
 20
-9.5562867416
 30
0.0
 10
-5.5539849724
 20
-9.5037870809
 30
0.0
 11
-5.5705118941
 21
-10.9400582829
 31
0.0
 11
-5.5686809928
 21
-10.9234588018
 31
0.0
 11
-5.5668806348
 21
-10.8903789566
 31
0.0
 11
-5.5651307197
 21
-10.8411850561
 31
0.0
 11
-5.5634508979
 21
-10.7764267652
 31
0.0
 11
-5.5618597917
 21
-10.6968240642
 31
0.0
 11
-5.5603751049
 21
-10.6032620807
 31
0.0
 11
-5.5590133729
 21
-10.4967834109
 31
0.0
 11
-5.5577897355
 21
-10.3785725477
 31
0.0
 11
-5.5567177966
 21
-10.2499441278
 31
0.0
 11
-5.5558094897
 21
-10.1123312367
 31
0.0
 11
-5.555074909
 21
-9.9672639771
 31
0.0
 11
-5.5545222053
 21
-9.8163533171
 31
0.0
 11
-5.5541575534
 21
-9.6612859866
 31
0.0
 11
-5.5539849724
 21
-9.5037870809
 31
0.0
  0
SPLINE
  5
2C9
100
AcDbEntity
  8
RACCORDO
100
AcDbSpline
 62
253
  6
CONTINUOUS
 70
0
 71
3
 72
21
 73
17
 74
15
 42
0.0000001
 43
0.0000001
 44
0.0000000001
 12
0.0006885319
 22
-1.4365271366
 32
0.0
 13
0.3113269084
 23
-1.4023859114
 33
0.0
 40
0.0
 40
0.0
 40
0.0
 40
0.0
 40
0.1096387099
 40
0.2175849767
 40
0.3226380947
 40
0.4236240761
 40
0.5194216906
 40
0.6089660287
 40
0.6912597631
 40
0.765388098
 40
0.8305269663
 40
0.8859513226
 40
0.9310462361
 40
0.9653129114
 40
0.9883746386
 40
1.0
 40
1.0
 40
1.0
 40
1.0
 10
37.979082004
 20
-9.5037870807
 30
0.0
 10
37.9791071673
 20
-9.5562867414
 30
0.0
 10
37.979220669
 20
-9.6604756306
 30
0.0
 10
37.9795818862
 20
-9.814968059
 30
0.0
 10
37.9801291988
 20
-9.9653166237
 30
0.0
 10
37.9808562406
 20
-10.1098470779
 30
0.0
 10
37.9817546784
 20
-10.2469501387
 30
0.0
 10
37.9828135261
 20
-10.3751012244
 30
0.0
 10
37.9840215094
 20
-10.4928740635
 30
0.0
 10
37.9853593336
 20
-10.5989591946
 30
0.0
 10
37.9868236868
 20
-10.6921724332
 30
0.0
 10
37.9883524187
 20
-10.7714879384
 30
0.0
 10
37.9900381404
 20
-10.8359921017
 30
0.0
 10
37.9915357047
 20
-10.8850521824
 30
0.0
 10
37.9934802379
 20
-10.9179448309
 30
0.0
 10
37.9944024965
 20
-10.9346238686
 30
0.0
 10
37.9956089257
 20
-10.9400582829
 30
0.0
 11
37.979082004
 21
-9.5037870807
 31
0.0
 11
37.979254585
 21
-9.6612859863
 31
0.0
 11
37.9796192369
 21
-9.8163533168
 31
0.0
 11
37.9801719407
 21
-9.9672639768
 31
0.0
 11
37.9809065213
 21
-10.1123312364
 31
0.0
 11
37.9818148282
 21
-10.2499441275
 31
0.0
 11
37.9828867671
 21
-10.3785725474
 31
0.0
 11
37.9841104045
 21
-10.4967834106
 31
0.0
 11
37.9854721365
 21
-10.6032620805
 31
0.0
 11
37.9869568233
 21
-10.696824064
 31
0.0
 11
37.9885479295
 21
-10.7764267651
 31
0.0
 11
37.9902277513
 21
-10.8411850559
 31
0.0
 11
37.9919776664
 21
-10.8903789565
 31
0.0
 11
37.9937780244
 21
-10.9234588017
 31
0.0
 11
37.9956089257
 21
-10.9400582829
 31
0.0
  0
SPLINE
  5
2CA
100
AcDbEntity
  8
RACCORDO
100
AcDbSpline
 62
253
  6
CONTINUOUS
 70
0
 71
3
 72
11
 73
7
 74
5
 42
0.0000001
 43
0.0000001
 44
0.0000000001
 12
0.0002437994
 22
-20.1964756175
 32
0.0
 13
0.0145100747
 23
-20.1964704066
 33
0.0
 40
0.0
 40
0.0
 40
0.0
 40
0.0
 40
0.2500744177
 40
0.5001049865
 40
0.750083017
 40
1.0
 40
1.0
 40
1.0
 40
1.0
 10
38.4716319467
 20
10.7132355777
 30
0.0
 10
38.4716522693
 20
9.029694951
 30
0.0
 10
38.4719900116
 20
5.6629088916
 30
0.0
 10
38.4733878708
 20
0.6132312713
 30
0.0
 10
38.4756768004
 20
-4.435386148
 30
0.0
 10
38.4777970952
 20
-7.8007579847
 30
0.0
 10
38.4790058666
 20
-9.4832383016
 30
0.0
 11
38.4716319467
 21
10.7132355777
 31
0.0
 11
38.4721386314
 21
5.6626137228
 31
0.0
 11
38.4735365779
 21
0.6128776293
 31
0.0
 11
38.4758256507
 21
-4.4357970501
 31
0.0
 11
38.4790058666
 21
-9.4832383016
 31
0.0
  0
SPLINE
  5
2CB
100
AcDbEntity
  8
RACCORDO
100
AcDbSpline
 62
253
  6
CONTINUOUS
 70
0
 71
3
 72
21
 73
17
 74
15
 42
0.0000001
 43
0.0000001
 44
0.0000000001
 12
0.0006885301
 22
-0.957887823
 32
0.0
 13
0.3025944495
 23
-0.9088378044
 33
0.0
 40
0.0
 40
0.0
 40
0.0
 40
0.0
 40
0.1095890288
 40
0.2175144953
 40
0.3225483467
 40
0.423516912
 40
0.519299397
 40
0.6088312783
 40
0.6911156636
 40
0.7652382519
 40
0.8303754916
 40
0.8858030898
 40
0.9309078341
 40
0.965194018
 40
0.9882927082
 40
1.0
 40
1.0
 40
1.0
 40
1.0
 10
38.4790058666
 20
-9.4832383016
 30
0.0
 10
38.4790310183
 20
-9.5182296336
 30
0.0
 10
38.4791445051
 20
-9.5876811011
 30
0.0
 10
38.4795056794
 20
-9.6906689325
 30
0.0
 10
38.4800529685
 20
-9.7909034293
 30
0.0
 10
38.4807800142
 20
-9.8872594889
 30
0.0
 10
38.4816784464
 20
-9.978664137
 30
0.0
 10
38.4827373375
 20
-10.0641009897
 30
0.0
 10
38.48394527
 20
-10.142618842
 30
0.0
 10
38.4852833996
 20
-10.2133454778
 30
0.0
 10
38.4867470264
 20
-10.2754886309
 30
0.0
 10
38.4882781806
 20
-10.3283725954
 30
0.0
 10
38.4899577254
 20
-10.3713659639
 30
0.0
 10
38.4914713941
 20
-10.4041088796
 30
0.0
 10
38.4933857409
 20
-10.4259913674
 30
0.0
 10
38.4943517834
 20
-10.4371962232
 30
0.0
 10
38.4955326372
 20
-10.4407428997
 30
0.0
 11
38.4790058666
 21
-9.4832383016
 31
0.0
 11
38.4791783913
 21
-9.5882121831
 31
0.0
 11
38.4795430258
 21
-9.6915920569
 31
0.0
 11
38.4800957112
 21
-9.7922012121
 31
0.0
 11
38.4808302873
 21
-9.8889150067
 31
0.0
 11
38.4817385957
 21
-9.9806594103
 31
0.0
 11
38.4828105476
 21
-10.0664142317
 31
0.0
 11
38.4840342084
 21
-10.1452239636
 31
0.0
 11
38.4853959749
 21
-10.2162120464
 31
0.0
 11
38.4868807057
 21
-10.2785885635
 31
0.0
 11
38.4884718539
 21
-10.3316581508
 31
0.0
 11
38.4901517263
 21
-10.3748307773
 31
0.0
 11
38.4919016631
 21
-10.4076264497
 31
0.0
 11
38.4937020987
 21
-10.4296790353
 31
0.0
 11
38.4955326372
 21
-10.4407428997
 31
0.0
  0
SPLINE
  5
2CC
100
AcDbEntity
  8
RACCORDO
100
AcDbSpline
 62
253
  6
CONTINUOUS
 70
0
 71
3
 72
11
 73
7
 74
5
 42
0.0000001
 43
0.0000001
 44
0.0000000001
 12
0.0002454386
 22
-20.2143127839
 32
0.0
 13
0.0145083669
 23
-20.2143075788
 33
0.0
 40
0.0
 40
0.0
 40
0.0
 40
0.0
 40
0.2500749619
 40
0.5001055662
 40
0.7500836323
 40
1.0
 40
1.0
 40
1.0
 40
1.0
 10
37.9716956458
 20
10.7105239654
 30
0.0
 10
37.9717161052
 20
9.0254927991
 30
0.0
 10
37.9720723278
 20
5.65572935
 30
0.0
 10
37.9734629319
 20
0.6015877977
 30
0.0
 10
37.9757537522
 20
-4.4514848043
 30
0.0
 10
37.9778733843
 20
-7.8198249723
 30
0.0
 10
37.9790820104
 20
-9.5037870807
 30
0.0
 11
37.9716956458
 21
10.7105239654
 31
0.0
 11
37.9722151195
 21
5.6554304928
 31
0.0
 11
37.9736131635
 21
0.6012338436
 31
0.0
 11
37.9759021243
 21
-4.451900455
 31
0.0
 11
37.9790820104
 21
-9.5037870807
 31
0.0
  0
SPLINE
  5
2CD
100
AcDbEntity
  8
RACCORDO
100
AcDbSpline
 62
253
  6
CONTINUOUS
 70
0
 71
3
 72
11
 73
7
 74
5
 42
0.0000001
 43
0.0000001
 44
0.0000000001
 12
0.0145083669
 22
20.214307579
 32
0.0
 13
0.0002454386
 23
20.214312784
 33
0.0
 40
0.0
 40
0.0
 40
0.0
 40
0.0
 40
0.2499163677
 40
0.4998944338
 40
0.7499250381
 40
1.0
 40
1.0
 40
1.0
 40
1.0
 10
-5.5539849788
 20
-9.5037870809
 30
0.0
 10
-5.5527763527
 20
-7.8198249724
 30
0.0
 10
-5.5506567206
 20
-4.4514848044
 30
0.0
 10
-5.5483659003
 20
0.6015877977
 30
0.0
 10
-5.5469752962
 20
5.65572935
 30
0.0
 10
-5.5466190735
 20
9.0254927991
 30
0.0
 10
-5.5465986142
 20
10.7105239654
 30
0.0
 11
-5.5539849788
 21
-9.5037870809
 31
0.0
 11
-5.5508050927
 21
-4.451900455
 31
0.0
 11
-5.5485161319
 21
0.6012338436
 31
0.0
 11
-5.5471180879
 21
5.6554304928
 31
0.0
 11
-5.5465986142
 21
10.7105239654
 31
0.0
  0
SPLINE
  5
2CE
100
AcDbEntity
  8
RACCORDO
100
AcDbSpline
 62
253
  6
CONTINUOUS
 70
0
 71
3
 72
21
 73
17
 74
15
 42
0.0000001
 43
0.0000001
 44
0.0000000001
 12
0.3025944467
 22
0.9088378053
 32
0.0
 13
0.0006885301
 23
0.957887823
 33
0.0
 40
0.0
 40
0.0
 40
0.0
 40
0.0
 40
0.0117072917
 40
0.034805982
 40
0.0690921658
 40
0.1141969101
 40
0.1696245083
 40
0.2347617479
 40
0.3088843362
 40
0.3911687215
 40
0.4807006028
 40
0.5764830878
 40
0.6774516531
 40
0.7824855045
 40
0.890410971
 40
1.0
 40
1.0
 40
1.0
 40
1.0
 10
-6.0704356056
 20
-10.4407428997
 30
0.0
 10
-6.0692547518
 20
-10.4371962232
 30
0.0
 10
-6.0682887093
 20
-10.4259913674
 30
0.0
 10
-6.0663743625
 20
-10.4041088797
 30
0.0
 10
-6.0648606938
 20
-10.371365964
 30
0.0
 10
-6.063181149
 20
-10.3283725955
 30
0.0
 10
-6.0616499948
 20
-10.2754886311
 30
0.0
 10
-6.060186368
 20
-10.213345478
 30
0.0
 10
-6.0588482384
 20
-10.1426188422
 30
0.0
 10
-6.0576403059
 20
-10.0641009899
 30
0.0
 10
-6.0565814148
 20
-9.9786641372
 30
0.0
 10
-6.0556829826
 20
-9.8872594891
 30
0.0
 10
-6.0549559369
 20
-9.7909034295
 30
0.0
 10
-6.0544086478
 20
-9.6906689327
 30
0.0
 10
-6.0540474735
 20
-9.5876811012
 30
0.0
 10
-6.0539339867
 20
-9.5182296337
 30
0.0
 10
-6.053908835
 20
-9.4832383016
 30
0.0
 11
-6.0704356056
 21
-10.4407428997
 31
0.0
 11
-6.0686050671
 21
-10.4296790353
 31
0.0
 11
-6.0668046315
 21
-10.4076264498
 31
0.0
 11
-6.0650546947
 21
-10.3748307774
 31
0.0
 11
-6.0633748223
 21
-10.3316581509
 31
0.0
 11
-6.0617836741
 21
-10.2785885636
 31
0.0
 11
-6.0602989433
 21
-10.2162120466
 31
0.0
 11
-6.0589371768
 21
-10.1452239638
 31
0.0
 11
-6.057713516
 21
-10.0664142319
 31
0.0
 11
-6.0566415641
 21
-9.9806594104
 31
0.0
 11
-6.0557332557
 21
-9.8889150069
 31
0.0
 11
-6.0549986796
 21
-9.7922012123
 31
0.0
 11
-6.0544459942
 21
-9.6915920571
 31
0.0
 11
-6.0540813597
 21
-9.5882121833
 31
0.0
 11
-6.053908835
 21
-9.4832383016
 31
0.0
  0
SPLINE
  5
2CF
100
AcDbEntity
  8
RACCORDO
100
AcDbSpline
 62
253
  6
CONTINUOUS
 70
0
 71
3
 72
11
 73
7
 74
5
 42
0.0000001
 43
0.0000001
 44
0.0000000001
 12
0.0145100747
 22
20.1964704066
 32
0.0
 13
0.0002437994
 23
20.1964756175
 33
0.0
 40
0.0
 40
0.0
 40
0.0
 40
0.0
 40
0.249916983
 40
0.4998950135
 40
0.7499255823
 40
1.0
 40
1.0
 40
1.0
 40
1.0
 10
-6.053908835
 20
-9.4832383016
 30
0.0
 10
-6.0527000636
 20
-7.8007579847
 30
0.0
 10
-6.0505797688
 20
-4.435386148
 30
0.0
 10
-6.0482908392
 20
0.6132312713
 30
0.0
 10
-6.04689298
 20
5.6629088916
 30
0.0
 10
-6.0465552377
 20
9.029694951
 30
0.0
 10
-6.046534915
 20
10.7132355777
 30
0.0
 11
-6.053908835
 21
-9.4832383016
 31
0.0
 11
-6.0507286191
 21
-4.4357970501
 31
0.0
 11
-6.0484395463
 21
0.6128776293
 31
0.0
 11
-6.0470415998
 21
5.6626137228
 31
0.0
 11
-6.046534915
 21
10.7132355777
 31
0.0
  0
SPLINE
  5
2D0
100
AcDbEntity
  8
RACCORDO
100
AcDbSpline
 62
253
  6
CONTINUOUS
 70
0
 71
3
 72
17
 73
13
 74
11
 42
0.0000001
 43
0.0000001
 44
0.0000000001
 12
0.1956282812
 22
-0.461440029
 32
0.0
 13
0.5011957657
 23
-0.0003594732
 33
0.0
 40
0.0
 40
0.0
 40
0.0
 40
0.0
 40
0.0160132903
 40
0.0548770558
 40
0.1162690414
 40
0.1988277038
 40
0.3006095192
 40
0.4191865661
 40
0.551717786
 40
0.6950219317
 40
0.8456561653
 40
1.0
 40
1.0
 40
1.0
 40
1.0
 10
-6.053908835
 20
-9.4832383016
 30
0.0
 10
-6.0528646175
 20
-9.4857013593
 30
0.0
 10
-6.0415669762
 20
-9.4868456661
 30
0.0
 10
-6.0243342933
 20
-9.4905356316
 30
0.0
 10
-5.9928472433
 20
-9.4927516891
 30
0.0
 10
-5.952318003
 20
-9.495578265
 30
0.0
 10
-5.9016012432
 20
-9.4978579704
 30
0.0
 10
-5.8427348819
 20
-9.499924164
 30
0.0
 10
-5.7768448215
 20
-9.5015739437
 30
0.0
 10
-5.705611878
 20
-9.5028097422
 30
0.0
 10
-5.6307213978
 20
-9.5035844259
 30
0.0
 10
-5.5797704795
 20
-9.5037822757
 30
0.0
 10
-5.5539849874
 20
-9.5038007699
 30
0.0
 11
-6.053908835
 21
-9.4832383016
 31
0.0
 11
-6.046540666
 21
-9.4864200427
 31
0.0
 11
-6.0273113989
 21
-9.4895251653
 31
0.0
 11
-5.9966840886
 21
-9.4924788956
 31
0.0
 11
-5.9553962628
 21
-9.4952101057
 31
0.0
 11
-5.9044421623
 21
-9.4976530261
 31
0.0
 11
-5.8450487988
 21
-9.4997488295
 31
0.0
 11
-5.7786464076
 21
-9.5014470473
 31
0.0
 11
-5.7068340064
 21
-9.5027067854
 31
0.0
 11
-5.63134089
 21
-9.5034977082
 31
0.0
 11
-5.5539849874
 21
-9.5038007699
 31
0.0
  0
SPLINE
  5
2D1
100
AcDbEntity
  8
RACCORDO
100
AcDbSpline
 62
253
  6
CONTINUOUS
 70
0
 71
3
 72
18
 73
14
 74
12
 42
0.0000001
 43
0.0000001
 44
0.0000000001
 12
-0.4999598993
 22
0.0000026839
 32
0.0
 13
-0.4768081841
 23
0.1503790427
 33
0.0
 40
0.0
 40
0.0
 40
0.0
 40
0.0
 40
0.1407570357
 40
0.2787072446
 40
0.4111226913
 40
0.5353461367
 40
0.6489169725
 40
0.7495704425
 40
0.8352997461
 40
0.9043974138
 40
0.9554947188
 40
0.9875693603
 40
1.0
 40
1.0
 40
1.0
 40
1.0
 10
-5.5465986142
 20
10.7105239602
 30
0.0
 10
-5.5700562387
 20
10.7105240861
 30
0.0
 10
-5.616503732
 20
10.7105421878
 30
0.0
 10
-5.6850186037
 20
10.7106231397
 30
0.0
 10
-5.7507781953
 20
10.7107549988
 30
0.0
 10
-5.8124741354
 20
10.7109384697
 30
0.0
 10
-5.868878678
 20
10.7111578878
 30
0.0
 10
-5.9188614352
 20
10.7114452539
 30
0.0
 10
-5.9614511539
 20
10.7116822508
 30
0.0
 10
-5.9957296479
 20
10.7121747713
 30
0.0
 10
-6.0211939009
 20
10.7121124702
 30
0.0
 10
-6.0369548673
 20
10.7131838882
 30
0.0
 10
-6.0445592381
 20
10.7126124751
 30
0.0
 10
-6.046534915
 20
10.7132355777
 30
0.0
 11
-5.5465986142
 21
10.7105239602
 31
0.0
 11
-5.6169714821
 21
10.7105517505
 31
0.0
 11
-5.6859410057
 21
10.7106338911
 31
0.0
 11
-5.7521432818
 21
10.7107687646
 31
0.0
 11
-5.8142497477
 21
10.7109536597
 31
0.0
 11
-5.8710301405
 21
10.7111849108
 31
0.0
 11
-5.9213520987
 21
10.7114579003
 31
0.0
 11
-5.9642121969
 21
10.711767179
 31
0.0
 11
-5.9987565927
 21
10.7121065638
 31
0.0
 11
-6.0243006203
 21
10.7124693413
 31
0.0
 11
-6.0403321791
 21
10.7128481869
 31
0.0
 11
-6.046534915
 21
10.7132355777
 31
0.0
  0
SPLINE
  5
2D2
100
AcDbEntity
  8
RACCORDO
100
AcDbSpline
 62
253
  6
CONTINUOUS
 70
0
 71
3
 72
18
 73
14
 74
12
 42
0.0000001
 43
0.0000001
 44
0.0000000001
 12
-0.4768081835
 22
-0.1503790444
 32
0.0
 13
-0.4999598993
 23
-0.0000026839
 33
0.0
 40
0.0
 40
0.0
 40
0.0
 40
0.0
 40
0.0124306396
 40
0.044505281
 40
0.095602586
 40
0.1647002536
 40
0.2504295571
 40
0.351083027
 40
0.4646538628
 40
0.5888773081
 40
0.7212927548
 40
0.8592429635
 40
1.0
 40
1.0
 40
1.0
 40
1.0
 10
38.4716319467
 20
10.7132355777
 30
0.0
 10
38.4696562698
 20
10.7126124751
 30
0.0
 10
38.462051899
 20
10.7131838882
 30
0.0
 10
38.4462909326
 20
10.7121124702
 30
0.0
 10
38.4208266797
 20
10.7121747713
 30
0.0
 10
38.3865481857
 20
10.7116822508
 30
0.0
 10
38.343958467
 20
10.7114452539
 30
0.0
 10
38.2939757098
 20
10.7111578878
 30
0.0
 10
38.2375711673
 20
10.7109384697
 30
0.0
 10
38.1758752272
 20
10.7107549988
 30
0.0
 10
38.1101156356
 20
10.7106231397
 30
0.0
 10
38.0416007639
 20
10.7105421878
 30
0.0
 10
37.9951532704
 20
10.7105240861
 30
0.0
 10
37.9716956458
 20
10.7105239602
 30
0.0
 11
38.4716319467
 21
10.7132355777
 31
0.0
 11
38.4654292108
 21
10.7128481869
 31
0.0
 11
38.4493976519
 21
10.7124693413
 31
0.0
 11
38.4238536245
 21
10.7121065638
 31
0.0
 11
38.3893092286
 21
10.711767179
 31
0.0
 11
38.3464491306
 21
10.7114579003
 31
0.0
 11
38.2961271723
 21
10.7111849108
 31
0.0
 11
38.2393467796
 21
10.7109536597
 31
0.0
 11
38.1772403137
 21
10.7107687646
 31
0.0
 11
38.1110380377
 21
10.7106338911
 31
0.0
 11
38.0420685141
 21
10.7105517505
 31
0.0
 11
37.9716956458
 21
10.7105239602
 31
0.0
  0
SPLINE
  5
2D3
100
AcDbEntity
  8
RACCORDO
100
AcDbSpline
 62
253
  6
CONTINUOUS
 70
0
 71
3
 72
17
 73
13
 74
11
 42
0.0000001
 43
0.0000001
 44
0.0000000001
 12
-0.195632535
 22
-0.4614382212
 32
0.0
 13
-0.5011957617
 23
-0.0003594721
 33
0.0
 40
0.0
 40
0.0
 40
0.0
 40
0.0
 40
0.0160133458
 40
0.0548771568
 40
0.1162691731
 40
0.1988278512
 40
0.3006096677
 40
0.4191867025
 40
0.551717899
 40
0.6950220123
 40
0.8456562072
 40
1.0
 40
1.0
 40
1.0
 40
1.0
 10
38.4790058666
 20
-9.4832383016
 30
0.0
 10
38.4779616228
 20
-9.4857013582
 30
0.0
 10
38.4666639977
 20
-9.486845662
 30
0.0
 10
38.4494312613
 20
-9.490535628
 30
0.0
 10
38.4179442136
 20
-9.4927516846
 30
0.0
 10
38.377414958
 20
-9.495578259
 30
0.0
 10
38.3266982007
 20
-9.4978579632
 30
0.0
 10
38.2678318446
 20
-9.4999241555
 30
0.0
 10
38.2019417963
 20
-9.5015739341
 30
0.0
 10
38.1307088691
 20
-9.5028097318
 30
0.0
 10
38.0558184084
 20
-9.5035844149
 30
0.0
 10
38.0048675039
 20
-9.5037822645
 30
0.0
 10
37.979082019
 20
-9.5038007586
 30
0.0
 11
38.4790058666
 21
-9.4832383016
 31
0.0
 11
38.4716376668
 21
-9.4864200415
 31
0.0
 11
38.4524083766
 21
-9.4895251627
 31
0.0
 11
38.4217810509
 21
-9.4924788916
 31
0.0
 11
38.3804932175
 21
-9.4952101002
 31
0.0
 11
38.3295391167
 21
-9.4976530191
 31
0.0
 11
38.2701457598
 21
-9.4997488212
 31
0.0
 11
38.2037433808
 21
-9.5014470379
 31
0.0
 11
38.1319309964
 21
-9.5027067751
 31
0.0
 11
38.0564379
 21
-9.5034976973
 31
0.0
 11
37.979082019
 21
-9.5038007586
 31
0.0
  0
SPLINE
  5
2D4
100
AcDbEntity
  8
ASSI
100
AcDbSpline
 62
253
  6
CONTINUOUS
 70
0
 71
3
 72
17
 73
13
 74
11
 42
0.0000001
 43
0.0000001
 44
0.0000000001
 12
-0.195632535
 22
-0.4614382212
 32
0.0
 13
-0.5011957617
 23
-0.0003594721
 33
0.0
 40
0.0
 40
0.0
 40
0.0
 40
0.0
 40
0.0160133458
 40
0.0548771568
 40
0.1162691731
 40
0.1988278512
 40
0.3006096677
 40
0.4191867025
 40
0.551717899
 40
0.6950220123
 40
0.8456562072
 40
1.0
 40
1.0
 40
1.0
 40
1.0
 10
38.4790058666
 20
-9.4832383016
 30
0.0
 10
38.4779616228
 20
-9.4857013582
 30
0.0
 10
38.4666639977
 20
-9.486845662
 30
0.0
 10
38.4494312613
 20
-9.490535628
 30
0.0
 10
38.4179442136
 20
-9.4927516846
 30
0.0
 10
38.377414958
 20
-9.495578259
 30
0.0
 10
38.3266982007
 20
-9.4978579632
 30
0.0
 10
38.2678318446
 20
-9.4999241555
 30
0.0
 10
38.2019417963
 20
-9.5015739341
 30
0.0
 10
38.1307088691
 20
-9.5028097318
 30
0.0
 10
38.0558184084
 20
-9.5035844149
 30
0.0
 10
38.0048675039
 20
-9.5037822645
 30
0.0
 10
37.979082019
 20
-9.5038007586
 30
0.0
 11
38.4790058666
 21
-9.4832383016
 31
0.0
 11
38.4716376668
 21
-9.4864200415
 31
0.0
 11
38.4524083766
 21
-9.4895251627
 31
0.0
 11
38.4217810509
 21
-9.4924788916
 31
0.0
 11
38.3804932175
 21
-9.4952101002
 31
0.0
 11
38.3295391167
 21
-9.4976530191
 31
0.0
 11
38.2701457598
 21
-9.4997488212
 31
0.0
 11
38.2037433808
 21
-9.5014470379
 31
0.0
 11
38.1319309964
 21
-9.5027067751
 31
0.0
 11
38.0564379
 21
-9.5034976973
 31
0.0
 11
37.979082019
 21
-9.5038007586
 31
0.0
  0
SPLINE
  5
2D5
100
AcDbEntity
  8
ASSI
100
AcDbSpline
 62
253
  6
CONTINUOUS
 70
0
 71
3
 72
18
 73
14
 74
12
 42
0.0000001
 43
0.0000001
 44
0.0000000001
 12
-0.2684874777
 22
-0.1338218893
 32
0.0
 13
-0.299989706
 23
-0.000000142
 33
0.0
 40
0.0
 40
0.0
 40
0.0
 40
0.0
 40
0.01245772
 40
0.0445401068
 40
0.0956390483
 40
0.1647397093
 40
0.2504749128
 40
0.351138898
 40
0.4647205079
 40
0.5889521196
 40
0.7213713552
 40
0.8593253738
 40
1.0
 40
1.0
 40
1.0
 40
1.0
 10
38.2716624076
 20
10.9132279623
 30
0.0
 10
38.2705474937
 20
10.9126722571
 30
0.0
 10
38.2658419567
 20
10.9131344968
 30
0.0
 10
38.2565095846
 20
10.9121881094
 30
0.0
 10
38.2411638949
 20
10.9122091764
 30
0.0
 10
38.2206244176
 20
10.9117577262
 30
0.0
 10
38.1950579082
 20
10.9115269324
 30
0.0
 10
38.1650683622
 20
10.9112563546
 30
0.0
 10
38.1312203807
 20
10.9110476558
 30
0.0
 10
38.0941994295
 20
10.910873974
 30
0.0
 10
38.0547402941
 20
10.9107490654
 30
0.0
 10
38.0136370318
 20
10.9106725853
 30
0.0
 10
37.9857751076
 20
10.910655615
 30
0.0
 10
37.9717081277
 20
10.9106556083
 30
0.0
 11
38.2716624076
 21
10.9132279623
 31
0.0
 11
38.2679433599
 21
10.9128601904
 31
0.0
 11
38.2583256999
 21
10.9125004428
 31
0.0
 11
38.2430004124
 21
10.9121560596
 31
0.0
 11
38.2222734283
 21
10.91183394
 31
0.0
 11
38.1965554242
 21
10.9115404696
 31
0.0
 11
38.1663583752
 21
10.9112815048
 31
0.0
 11
38.1322857671
 21
10.911062222
 31
0.0
 11
38.0950179744
 21
10.9108869899
 31
0.0
 11
38.0552937721
 21
10.9107592796
 31
0.0
 11
38.0139090594
 21
10.91068164
 31
0.0
 11
37.9717081277
 21
10.9106556083
 31
0.0
  0
SPLINE
  5
2D6
100
AcDbEntity
  8
ASSI
100
AcDbSpline
 62
253
  6
CONTINUOUS
 70
0
 71
3
 72
21
 73
17
 74
15
 42
0.0000001
 43
0.0000001
 44
0.0000000001
 12
0.3113269094
 22
1.402385911
 32
0.0
 13
0.0006885319
 23
1.4365271365
 33
0.0
 40
0.0
 40
0.0
 40
0.0
 40
0.0
 40
0.0116253613
 40
0.0346870886
 40
0.0689537638
 40
0.1140486773
 40
0.1694730336
 40
0.2346119018
 40
0.3087402368
 40
0.3910339711
 40
0.4805783092
 40
0.5763759237
 40
0.6773619052
 40
0.7824150232
 40
0.8903612899
 40
1.0
 40
1.0
 40
1.0
 40
1.0
 10
-5.5705118941
 20
-10.9400582829
 30
0.0
 10
-5.5693054649
 20
-10.9346238686
 30
0.0
 10
-5.5683832063
 20
-10.917944831
 30
0.0
 10
-5.5664386731
 20
-10.8850521825
 30
0.0
 10
-5.5649411088
 20
-10.8359921019
 30
0.0
 10
-5.5632553871
 20
-10.7714879385
 30
0.0
 10
-5.5617266551
 20
-10.6921724334
 30
0.0
 10
-5.560262302
 20
-10.5989591949
 30
0.0
 10
-5.5589244778
 20
-10.4928740637
 30
0.0
 10
-5.5577164945
 20
-10.3751012247
 30
0.0
 10
-5.5566576468
 20
-10.246950139
 30
0.0
 10
-5.555759209
 20
-10.1098470782
 30
0.0
 10
-5.5550321672
 20
-9.965316624
 30
0.0
 10
-5.5544848546
 20
-9.8149680593
 30
0.0
 10
-5.5541236374
 20
-9.6604756308
 30
0.0
 10
-5.5540101357
 20
-9.5562867416
 30
0.0
 10
-5.5539849724
 20
-9.5037870809
 30
0.0
 11
-5.5705118941
 21
-10.9400582829
 31
0.0
 11
-5.5686809928
 21
-10.9234588018
 31
0.0
 11
-5.5668806348
 21
-10.8903789566
 31
0.0
 11
-5.5651307197
 21
-10.8411850561
 31
0.0
 11
-5.5634508979
 21
-10.7764267652
 31
0.0
 11
-5.5618597917
 21
-10.6968240642
 31
0.0
 11
-5.5603751049
 21
-10.6032620807
 31
0.0
 11
-5.5590133729
 21
-10.4967834109
 31
0.0
 11
-5.5577897355
 21
-10.3785725477
 31
0.0
 11
-5.5567177966
 21
-10.2499441278
 31
0.0
 11
-5.5558094897
 21
-10.1123312367
 31
0.0
 11
-5.555074909
 21
-9.9672639771
 31
0.0
 11
-5.5545222053
 21
-9.8163533171
 31
0.0
 11
-5.5541575534
 21
-9.6612859866
 31
0.0
 11
-5.5539849724
 21
-9.5037870809
 31
0.0
  0
SPLINE
  5
2D7
100
AcDbEntity
  8
ASSI
100
AcDbSpline
 62
253
  6
CONTINUOUS
 70
0
 71
3
 72
21
 73
17
 74
15
 42
0.0000001
 43
0.0000001
 44
0.0000000001
 12
0.0006885319
 22
-1.4365271366
 32
0.0
 13
0.3113269084
 23
-1.4023859114
 33
0.0
 40
0.0
 40
0.0
 40
0.0
 40
0.0
 40
0.1096387099
 40
0.2175849767
 40
0.3226380947
 40
0.4236240761
 40
0.5194216906
 40
0.6089660287
 40
0.6912597631
 40
0.765388098
 40
0.8305269663
 40
0.8859513226
 40
0.9310462361
 40
0.9653129114
 40
0.9883746386
 40
1.0
 40
1.0
 40
1.0
 40
1.0
 10
37.979082004
 20
-9.5037870807
 30
0.0
 10
37.9791071673
 20
-9.5562867414
 30
0.0
 10
37.979220669
 20
-9.6604756306
 30
0.0
 10
37.9795818862
 20
-9.814968059
 30
0.0
 10
37.9801291988
 20
-9.9653166237
 30
0.0
 10
37.9808562406
 20
-10.1098470779
 30
0.0
 10
37.9817546784
 20
-10.2469501387
 30
0.0
 10
37.9828135261
 20
-10.3751012244
 30
0.0
 10
37.9840215094
 20
-10.4928740635
 30
0.0
 10
37.9853593336
 20
-10.5989591946
 30
0.0
 10
37.9868236868
 20
-10.6921724332
 30
0.0
 10
37.9883524187
 20
-10.7714879384
 30
0.0
 10
37.9900381404
 20
-10.8359921017
 30
0.0
 10
37.9915357047
 20
-10.8850521824
 30
0.0
 10
37.9934802379
 20
-10.9179448309
 30
0.0
 10
37.9944024965
 20
-10.9346238686
 30
0.0
 10
37.9956089257
 20
-10.9400582829
 30
0.0
 11
37.979082004
 21
-9.5037870807
 31
0.0
 11
37.979254585
 21
-9.6612859863
 31
0.0
 11
37.9796192369
 21
-9.8163533168
 31
0.0
 11
37.9801719407
 21
-9.9672639768
 31
0.0
 11
37.9809065213
 21
-10.1123312364
 31
0.0
 11
37.9818148282
 21
-10.2499441275
 31
0.0
 11
37.9828867671
 21
-10.3785725474
 31
0.0
 11
37.9841104045
 21
-10.4967834106
 31
0.0
 11
37.9854721365
 21
-10.6032620805
 31
0.0
 11
37.9869568233
 21
-10.696824064
 31
0.0
 11
37.9885479295
 21
-10.7764267651
 31
0.0
 11
37.9902277513
 21
-10.8411850559
 31
0.0
 11
37.9919776664
 21
-10.8903789565
 31
0.0
 11
37.9937780244
 21
-10.9234588017
 31
0.0
 11
37.9956089257
 21
-10.9400582829
 31
0.0
  0
SPLINE
  5
2D8
100
AcDbEntity
  8
ASSI
100
AcDbSpline
 62
253
  6
CONTINUOUS
 70
0
 71
3
 72
11
 73
7
 74
5
 42
0.0000001
 43
0.0000001
 44
0.0000000001
 12
0.0002437994
 22
-20.1964756175
 32
0.0
 13
0.0145100747
 23
-20.1964704066
 33
0.0
 40
0.0
 40
0.0
 40
0.0
 40
0.0
 40
0.2500744177
 40
0.5001049865
 40
0.750083017
 40
1.0
 40
1.0
 40
1.0
 40
1.0
 10
38.4716319467
 20
10.7132355777
 30
0.0
 10
38.4716522693
 20
9.029694951
 30
0.0
 10
38.4719900116
 20
5.6629088916
 30
0.0
 10
38.4733878708
 20
0.6132312713
 30
0.0
 10
38.4756768004
 20
-4.435386148
 30
0.0
 10
38.4777970952
 20
-7.8007579847
 30
0.0
 10
38.4790058666
 20
-9.4832383016
 30
0.0
 11
38.4716319467
 21
10.7132355777
 31
0.0
 11
38.4721386314
 21
5.6626137228
 31
0.0
 11
38.4735365779
 21
0.6128776293
 31
0.0
 11
38.4758256507
 21
-4.4357970501
 31
0.0
 11
38.4790058666
 21
-9.4832383016
 31
0.0
  0
SPLINE
  5
2D9
100
AcDbEntity
  8
ASSI
100
AcDbSpline
 62
253
  6
CONTINUOUS
 70
0
 71
3
 72
21
 73
17
 74
15
 42
0.0000001
 43
0.0000001
 44
0.0000000001
 12
0.0006885301
 22
-0.957887823
 32
0.0
 13
0.3025944495
 23
-0.9088378044
 33
0.0
 40
0.0
 40
0.0
 40
0.0
 40
0.0
 40
0.1095890288
 40
0.2175144953
 40
0.3225483467
 40
0.423516912
 40
0.519299397
 40
0.6088312783
 40
0.6911156636
 40
0.7652382519
 40
0.8303754916
 40
0.8858030898
 40
0.9309078341
 40
0.965194018
 40
0.9882927082
 40
1.0
 40
1.0
 40
1.0
 40
1.0
 10
38.4790058666
 20
-9.4832383016
 30
0.0
 10
38.4790310183
 20
-9.5182296336
 30
0.0
 10
38.4791445051
 20
-9.5876811011
 30
0.0
 10
38.4795056794
 20
-9.6906689325
 30
0.0
 10
38.4800529685
 20
-9.7909034293
 30
0.0
 10
38.4807800142
 20
-9.8872594889
 30
0.0
 10
38.4816784464
 20
-9.978664137
 30
0.0
 10
38.4827373375
 20
-10.0641009897
 30
0.0
 10
38.48394527
 20
-10.142618842
 30
0.0
 10
38.4852833996
 20
-10.2133454778
 30
0.0
 10
38.4867470264
 20
-10.2754886309
 30
0.0
 10
38.4882781806
 20
-10.3283725954
 30
0.0
 10
38.4899577254
 20
-10.3713659639
 30
0.0
 10
38.4914713941
 20
-10.4041088796
 30
0.0
 10
38.4933857409
 20
-10.4259913674
 30
0.0
 10
38.4943517834
 20
-10.4371962232
 30
0.0
 10
38.4955326372
 20
-10.4407428997
 30
0.0
 11
38.4790058666
 21
-9.4832383016
 31
0.0
 11
38.4791783913
 21
-9.5882121831
 31
0.0
 11
38.4795430258
 21
-9.6915920569
 31
0.0
 11
38.4800957112
 21
-9.7922012121
 31
0.0
 11
38.4808302873
 21
-9.8889150067
 31
0.0
 11
38.4817385957
 21
-9.9806594103
 31
0.0
 11
38.4828105476
 21
-10.0664142317
 31
0.0
 11
38.4840342084
 21
-10.1452239636
 31
0.0
 11
38.4853959749
 21
-10.2162120464
 31
0.0
 11
38.4868807057
 21
-10.2785885635
 31
0.0
 11
38.4884718539
 21
-10.3316581508
 31
0.0
 11
38.4901517263
 21
-10.3748307773
 31
0.0
 11
38.4919016631
 21
-10.4076264497
 31
0.0
 11
38.4937020987
 21
-10.4296790353
 31
0.0
 11
38.4955326372
 21
-10.4407428997
 31
0.0
  0
SPLINE
  5
2DA
100
AcDbEntity
  8
ASSI
100
AcDbSpline
 62
253
  6
CONTINUOUS
 70
0
 71
3
 72
11
 73
7
 74
5
 42
0.0000001
 43
0.0000001
 44
0.0000000001
 12
0.0002454386
 22
-20.2143127839
 32
0.0
 13
0.0145083669
 23
-20.2143075788
 33
0.0
 40
0.0
 40
0.0
 40
0.0
 40
0.0
 40
0.2500749619
 40
0.5001055662
 40
0.7500836323
 40
1.0
 40
1.0
 40
1.0
 40
1.0
 10
37.9716956458
 20
10.7105239654
 30
0.0
 10
37.9717161052
 20
9.0254927991
 30
0.0
 10
37.9720723278
 20
5.65572935
 30
0.0
 10
37.9734629319
 20
0.6015877977
 30
0.0
 10
37.9757537522
 20
-4.4514848043
 30
0.0
 10
37.9778733843
 20
-7.8198249723
 30
0.0
 10
37.9790820104
 20
-9.5037870807
 30
0.0
 11
37.9716956458
 21
10.7105239654
 31
0.0
 11
37.9722151195
 21
5.6554304928
 31
0.0
 11
37.9736131635
 21
0.6012338436
 31
0.0
 11
37.9759021243
 21
-4.451900455
 31
0.0
 11
37.9790820104
 21
-9.5037870807
 31
0.0
  0
SPLINE
  5
2DB
100
AcDbEntity
  8
ASSI
100
AcDbSpline
 62
253
  6
CONTINUOUS
 70
0
 71
3
 72
21
 73
17
 74
15
 42
0.0000001
 43
0.0000001
 44
0.0000000001
 12
0.3025944467
 22
0.9088378053
 32
0.0
 13
0.0006885301
 23
0.957887823
 33
0.0
 40
0.0
 40
0.0
 40
0.0
 40
0.0
 40
0.0117072917
 40
0.034805982
 40
0.0690921658
 40
0.1141969101
 40
0.1696245083
 40
0.2347617479
 40
0.3088843362
 40
0.3911687215
 40
0.4807006028
 40
0.5764830878
 40
0.6774516531
 40
0.7824855045
 40
0.890410971
 40
1.0
 40
1.0
 40
1.0
 40
1.0
 10
-6.0704356056
 20
-10.4407428997
 30
0.0
 10
-6.0692547518
 20
-10.4371962232
 30
0.0
 10
-6.0682887093
 20
-10.4259913674
 30
0.0
 10
-6.0663743625
 20
-10.4041088797
 30
0.0
 10
-6.0648606938
 20
-10.371365964
 30
0.0
 10
-6.063181149
 20
-10.3283725955
 30
0.0
 10
-6.0616499948
 20
-10.2754886311
 30
0.0
 10
-6.060186368
 20
-10.213345478
 30
0.0
 10
-6.0588482384
 20
-10.1426188422
 30
0.0
 10
-6.0576403059
 20
-10.0641009899
 30
0.0
 10
-6.0565814148
 20
-9.9786641372
 30
0.0
 10
-6.0556829826
 20
-9.8872594891
 30
0.0
 10
-6.0549559369
 20
-9.7909034295
 30
0.0
 10
-6.0544086478
 20
-9.6906689327
 30
0.0
 10
-6.0540474735
 20
-9.5876811012
 30
0.0
 10
-6.0539339867
 20
-9.5182296337
 30
0.0
 10
-6.053908835
 20
-9.4832383016
 30
0.0
 11
-6.0704356056
 21
-10.4407428997
 31
0.0
 11
-6.0686050671
 21
-10.4296790353
 31
0.0
 11
-6.0668046315
 21
-10.4076264498
 31
0.0
 11
-6.0650546947
 21
-10.3748307774
 31
0.0
 11
-6.0633748223
 21
-10.3316581509
 31
0.0
 11
-6.0617836741
 21
-10.2785885636
 31
0.0
 11
-6.0602989433
 21
-10.2162120466
 31
0.0
 11
-6.0589371768
 21
-10.1452239638
 31
0.0
 11
-6.057713516
 21
-10.0664142319
 31
0.0
 11
-6.0566415641
 21
-9.9806594104
 31
0.0
 11
-6.0557332557
 21
-9.8889150069
 31
0.0
 11
-6.0549986796
 21
-9.7922012123
 31
0.0
 11
-6.0544459942
 21
-9.6915920571
 31
0.0
 11
-6.0540813597
 21
-9.5882121833
 31
0.0
 11
-6.053908835
 21
-9.4832383016
 31
0.0
  0
SPLINE
  5
2DC
100
AcDbEntity
  8
ASSI
100
AcDbSpline
 62
253
  6
CONTINUOUS
 70
0
 71
3
 72
11
 73
7
 74
5
 42
0.0000001
 43
0.0000001
 44
0.0000000001
 12
0.0145100747
 22
20.1964704066
 32
0.0
 13
0.0002437994
 23
20.1964756175
 33
0.0
 40
0.0
 40
0.0
 40
0.0
 40
0.0
 40
0.249916983
 40
0.4998950135
 40
0.7499255823
 40
1.0
 40
1.0
 40
1.0
 40
1.0
 10
-6.053908835
 20
-9.4832383016
 30
0.0
 10
-6.0527000636
 20
-7.8007579847
 30
0.0
 10
-6.0505797688
 20
-4.435386148
 30
0.0
 10
-6.0482908392
 20
0.6132312713
 30
0.0
 10
-6.04689298
 20
5.6629088916
 30
0.0
 10
-6.0465552377
 20
9.029694951
 30
0.0
 10
-6.046534915
 20
10.7132355777
 30
0.0
 11
-6.053908835
 21
-9.4832383016
 31
0.0
 11
-6.0507286191
 21
-4.4357970501
 31
0.0
 11
-6.0484395463
 21
0.6128776293
 31
0.0
 11
-6.0470415998
 21
5.6626137228
 31
0.0
 11
-6.046534915
 21
10.7132355777
 31
0.0
  0
SPLINE
  5
2DD
100
AcDbEntity
  8
ASSI
100
AcDbSpline
 62
253
  6
CONTINUOUS
 70
0
 71
3
 72
11
 73
7
 74
5
 42
0.0000001
 43
0.0000001
 44
0.0000000001
 12
0.0145083669
 22
20.214307579
 32
0.0
 13
0.0002454386
 23
20.214312784
 33
0.0
 40
0.0
 40
0.0
 40
0.0
 40
0.0
 40
0.2499163677
 40
0.4998944338
 40
0.7499250381
 40
1.0
 40
1.0
 40
1.0
 40
1.0
 10
-5.5539849788
 20
-9.5037870809
 30
0.0
 10
-5.5527763527
 20
-7.8198249724
 30
0.0
 10
-5.5506567206
 20
-4.4514848044
 30
0.0
 10
-5.5483659003
 20
0.6015877977
 30
0.0
 10
-5.5469752962
 20
5.65572935
 30
0.0
 10
-5.5466190735
 20
9.0254927991
 30
0.0
 10
-5.5465986142
 20
10.7105239654
 30
0.0
 11
-5.5539849788
 21
-9.5037870809
 31
0.0
 11
-5.5508050927
 21
-4.451900455
 31
0.0
 11
-5.5485161319
 21
0.6012338436
 31
0.0
 11
-5.5471180879
 21
5.6554304928
 31
0.0
 11
-5.5465986142
 21
10.7105239654
 31
0.0
  0
SPLINE
  5
2DE
100
AcDbEntity
  8
ASSI
100
AcDbSpline
 62
253
  6
CONTINUOUS
 70
0
 71
3
 72
18
 73
14
 74
12
 42
0.0000001
 43
0.0000001
 44
0.0000000001
 12
-0.299989706
 22
0.000000142
 32
0.0
 13
-0.2684874758
 23
0.133821893
 33
0.0
 40
0.0
 40
0.0
 40
0.0
 40
0.0
 40
0.1406746255
 40
0.2786286441
 40
0.4110478798
 40
0.5352794916
 40
0.6488611016
 40
0.7495250868
 40
0.8352602903
 40
0.9043609514
 40
0.955459893
 40
0.9875422799
 40
1.0
 40
1.0
 40
1.0
 40
1.0
 10
-5.5466110961
 20
10.9106556083
 30
0.0
 10
-5.5606780759
 20
10.910655615
 30
0.0
 10
-5.5885400001
 20
10.9106725853
 30
0.0
 10
-5.6296432623
 20
10.9107490654
 30
0.0
 10
-5.6691023977
 20
10.910873974
 30
0.0
 10
-5.7061233489
 20
10.9110476558
 30
0.0
 10
-5.7399713304
 20
10.9112563546
 30
0.0
 10
-5.7699608765
 20
10.9115269324
 30
0.0
 10
-5.7955273859
 20
10.9117577262
 30
0.0
 10
-5.8160668632
 20
10.9122091765
 30
0.0
 10
-5.8314125529
 20
10.9121881094
 30
0.0
 10
-5.8407449251
 20
10.9131344969
 30
0.0
 10
-5.8454504621
 20
10.9126722571
 30
0.0
 10
-5.846565376
 20
10.9132279623
 30
0.0
 11
-5.5466110961
 21
10.9106556083
 31
0.0
 11
-5.5888120276
 21
10.91068164
 31
0.0
 11
-5.6301967403
 21
10.9107592796
 31
0.0
 11
-5.6699209426
 21
10.9108869899
 31
0.0
 11
-5.7071887353
 21
10.911062222
 31
0.0
 11
-5.7412613435
 21
10.9112815048
 31
0.0
 11
-5.7714583924
 21
10.9115404696
 31
0.0
 11
-5.7971763966
 21
10.91183394
 31
0.0
 11
-5.8179033807
 21
10.9121560596
 31
0.0
 11
-5.8332286682
 21
10.9125004428
 31
0.0
 11
-5.8428463282
 21
10.9128601904
 31
0.0
 11
-5.846565376
 21
10.9132279623
 31
0.0
  0
SPLINE
  5
2DF
100
AcDbEntity
  8
ASSI
100
AcDbSpline
 62
253
  6
CONTINUOUS
 70
0
 71
3
 72
17
 73
13
 74
11
 42
0.0000001
 43
0.0000001
 44
0.0000000001
 12
0.1956282812
 22
-0.461440029
 32
0.0
 13
0.5011957657
 23
-0.0003594732
 33
0.0
 40
0.0
 40
0.0
 40
0.0
 40
0.0
 40
0.0160132903
 40
0.0548770558
 40
0.1162690414
 40
0.1988277038
 40
0.3006095192
 40
0.4191865661
 40
0.551717786
 40
0.6950219317
 40
0.8456561653
 40
1.0
 40
1.0
 40
1.0
 40
1.0
 10
-6.053908835
 20
-9.4832383016
 30
0.0
 10
-6.0528646175
 20
-9.4857013593
 30
0.0
 10
-6.0415669762
 20
-9.4868456661
 30
0.0
 10
-6.0243342933
 20
-9.4905356316
 30
0.0
 10
-5.9928472433
 20
-9.4927516891
 30
0.0
 10
-5.952318003
 20
-9.495578265
 30
0.0
 10
-5.9016012432
 20
-9.4978579704
 30
0.0
 10
-5.8427348819
 20
-9.499924164
 30
0.0
 10
-5.7768448215
 20
-9.5015739437
 30
0.0
 10
-5.705611878
 20
-9.5028097422
 30
0.0
 10
-5.6307213978
 20
-9.5035844259
 30
0.0
 10
-5.5797704795
 20
-9.5037822757
 30
0.0
 10
-5.5539849874
 20
-9.5038007699
 30
0.0
 11
-6.053908835
 21
-9.4832383016
 31
0.0
 11
-6.046540666
 21
-9.4864200427
 31
0.0
 11
-6.0273113989
 21
-9.4895251653
 31
0.0
 11
-5.9966840886
 21
-9.4924788956
 31
0.0
 11
-5.9553962628
 21
-9.4952101057
 31
0.0
 11
-5.9044421623
 21
-9.4976530261
 31
0.0
 11
-5.8450487988
 21
-9.4997488295
 31
0.0
 11
-5.7786464076
 21
-9.5014470473
 31
0.0
 11
-5.7068340064
 21
-9.5027067854
 31
0.0
 11
-5.63134089
 21
-9.5034977082
 31
0.0
 11
-5.5539849874
 21
-9.5038007699
 31
0.0
  0
SPLINE
  5
2E0
100
AcDbEntity
  8
ASSI
100
AcDbSpline
 62
253
  6
CONTINUOUS
 70
0
 71
3
 72
18
 73
14
 74
12
 42
0.0000001
 43
0.0000001
 44
0.0000000001
 12
-0.4999598993
 22
0.0000026839
 32
0.0
 13
-0.4768081841
 23
0.1503790427
 33
0.0
 40
0.0
 40
0.0
 40
0.0
 40
0.0
 40
0.1407570357
 40
0.2787072446
 40
0.4111226913
 40
0.5353461367
 40
0.6489169725
 40
0.7495704425
 40
0.8352997461
 40
0.9043974138
 40
0.9554947188
 40
0.9875693603
 40
1.0
 40
1.0
 40
1.0
 40
1.0
 10
-5.5465986142
 20
10.7105239602
 30
0.0
 10
-5.5700562387
 20
10.7105240861
 30
0.0
 10
-5.616503732
 20
10.7105421878
 30
0.0
 10
-5.6850186037
 20
10.7106231397
 30
0.0
 10
-5.7507781953
 20
10.7107549988
 30
0.0
 10
-5.8124741354
 20
10.7109384697
 30
0.0
 10
-5.868878678
 20
10.7111578878
 30
0.0
 10
-5.9188614352
 20
10.7114452539
 30
0.0
 10
-5.9614511539
 20
10.7116822508
 30
0.0
 10
-5.9957296479
 20
10.7121747713
 30
0.0
 10
-6.0211939009
 20
10.7121124702
 30
0.0
 10
-6.0369548673
 20
10.7131838882
 30
0.0
 10
-6.0445592381
 20
10.7126124751
 30
0.0
 10
-6.046534915
 20
10.7132355777
 30
0.0
 11
-5.5465986142
 21
10.7105239602
 31
0.0
 11
-5.6169714821
 21
10.7105517505
 31
0.0
 11
-5.6859410057
 21
10.7106338911
 31
0.0
 11
-5.7521432818
 21
10.7107687646
 31
0.0
 11
-5.8142497477
 21
10.7109536597
 31
0.0
 11
-5.8710301405
 21
10.7111849108
 31
0.0
 11
-5.9213520987
 21
10.7114579003
 31
0.0
 11
-5.9642121969
 21
10.711767179
 31
0.0
 11
-5.9987565927
 21
10.7121065638
 31
0.0
 11
-6.0243006203
 21
10.7124693413
 31
0.0
 11
-6.0403321791
 21
10.7128481869
 31
0.0
 11
-6.046534915
 21
10.7132355777
 31
0.0
  0
SPLINE
  5
2E1
100
AcDbEntity
  8
ASSI
100
AcDbSpline
 62
253
  6
CONTINUOUS
 70
0
 71
3
 72
18
 73
14
 74
12
 42
0.0000001
 43
0.0000001
 44
0.0000000001
 12
-0.4768081835
 22
-0.1503790444
 32
0.0
 13
-0.4999598993
 23
-0.0000026839
 33
0.0
 40
0.0
 40
0.0
 40
0.0
 40
0.0
 40
0.0124306396
 40
0.044505281
 40
0.095602586
 40
0.1647002536
 40
0.2504295571
 40
0.351083027
 40
0.4646538628
 40
0.5888773081
 40
0.7212927548
 40
0.8592429635
 40
1.0
 40
1.0
 40
1.0
 40
1.0
 10
38.4716319467
 20
10.7132355777
 30
0.0
 10
38.4696562698
 20
10.7126124751
 30
0.0
 10
38.462051899
 20
10.7131838882
 30
0.0
 10
38.4462909326
 20
10.7121124702
 30
0.0
 10
38.4208266797
 20
10.7121747713
 30
0.0
 10
38.3865481857
 20
10.7116822508
 30
0.0
 10
38.343958467
 20
10.7114452539
 30
0.0
 10
38.2939757098
 20
10.7111578878
 30
0.0
 10
38.2375711673
 20
10.7109384697
 30
0.0
 10
38.1758752272
 20
10.7107549988
 30
0.0
 10
38.1101156356
 20
10.7106231397
 30
0.0
 10
38.0416007639
 20
10.7105421878
 30
0.0
 10
37.9951532704
 20
10.7105240861
 30
0.0
 10
37.9716956458
 20
10.7105239602
 30
0.0
 11
38.4716319467
 21
10.7132355777
 31
0.0
 11
38.4654292108
 21
10.7128481869
 31
0.0
 11
38.4493976519
 21
10.7124693413
 31
0.0
 11
38.4238536245
 21
10.7121065638
 31
0.0
 11
38.3893092286
 21
10.711767179
 31
0.0
 11
38.3464491306
 21
10.7114579003
 31
0.0
 11
38.2961271723
 21
10.7111849108
 31
0.0
 11
38.2393467796
 21
10.7109536597
 31
0.0
 11
38.1772403137
 21
10.7107687646
 31
0.0
 11
38.1110380377
 21
10.7106338911
 31
0.0
 11
38.0420685141
 21
10.7105517505
 31
0.0
 11
37.9716956458
 21
10.7105239602
 31
0.0
  0
SPLINE
  5
2E2
100
AcDbEntity
  8
RACCORDO
100
AcDbSpline
 62
253
  6
CONTINUOUS
 70
0
 71
3
 72
15
 73
11
 74
9
 42
0.0000001
 43
0.0000001
 44
0.0000000001
 12
-0.0017453778
 22
0.2000612775
 32
0.0
 13
0.2000612729
 23
0.0017459083
 33
0.0
 40
0.0
 40
0.0
 40
0.0
 40
0.0
 40
0.1950020658
 40
0.3825082119
 40
0.5553167043
 40
0.7067913013
 40
0.8311172079
 40
0.9235272361
 40
0.9804964655
 40
1.0
 40
1.0
 40
1.0
 40
1.0
 10
-22.3987345366
 20
10.7132355777
 30
0.0
 10
-22.3988479874
 20
10.7262396985
 30
0.0
 10
-22.3990236315
 20
10.7517428359
 30
0.0
 10
-22.3991711755
 20
10.7888004034
 30
0.0
 10
-22.3991049387
 20
10.8228545804
 30
0.0
 10
-22.3991125481
 20
10.8530061501
 30
0.0
 10
-22.3983797669
 20
10.8769132
 30
0.0
 10
-22.3990552118
 20
10.8967077102
 30
0.0
 10
-22.3966636904
 20
10.9051546403
 30
0.0
 10
-22.3982899964
 20
10.9132166118
 30
0.0
 10
-22.3969893624
 20
10.9132279623
 30
0.0
 11
-22.3987345366
 21
10.7132355777
 31
0.0
 11
-22.3990078376
 21
10.7522484674
 31
0.0
 11
-22.3991365263
 21
10.7897623934
 31
0.0
 11
-22.399115658
 21
10.8243359905
 31
0.0
 11
-22.3989460347
 21
10.8546408704
 31
0.0
 11
-22.398634174
 21
10.8795126616
 31
0.0
 11
-22.3981920583
 21
10.8979957464
 31
0.0
 11
-22.3976366747
 21
10.9093799777
 31
0.0
 11
-22.3969893624
 21
10.9132279623
 31
0.0
  0
LINE
  5
2E3
100
AcDbEntity
  8
RACCORDO
100
AcDbLine
 62
253
  6
CONTINUOUS
 10
-22.3987345366
 20
10.7132355777
 11
-22.8900065719
 21
10.7105239602
  0
SPLINE
  5
2E4
100
AcDbEntity
  8
RACCORDO
100
AcDbSpline
 62
253
  6
CONTINUOUS
 70
0
 71
3
 72
17
 73
13
 74
11
 42
0.0000001
 43
0.0000001
 44
0.0000000001
 12
-0.0261499573
 22
-0.4991229354
 32
0.0
 13
0.4991225191
 23
-0.0261579028
 33
0.0
 40
0.0
 40
0.0
 40
0.0
 40
0.0
 40
0.1563933181
 40
0.3089189061
 40
0.4538267206
 40
0.5875542932
 40
0.7068145503
 40
0.8086770505
 40
0.8906409733
 40
0.9506992977
 40
0.9873995059
 40
1.0
 40
1.0
 40
1.0
 40
1.0
 10
-21.0294648925
 20
-10.4407428997
 30
0.0
 10
-21.0308281187
 20
-10.4667627303
 30
0.0
 10
-21.0334506822
 20
-10.5181617185
 30
0.0
 10
-21.0370972877
 20
-10.5936863299
 30
0.0
 10
-21.0403365363
 20
-10.6654329147
 30
0.0
 10
-21.0431376892
 20
-10.7317068456
 30
0.0
 10
-21.0452814519
 20
-10.7906541508
 30
0.0
 10
-21.0471821547
 20
-10.841503801
 30
0.0
 10
-21.0475027156
 20
-10.881099082
 30
0.0
 10
-21.0495319681
 20
-10.913270942
 30
0.0
 10
-21.0464256799
 20
-10.9271808983
 30
0.0
 10
-21.0490030642
 20
-10.9399477995
 30
0.0
 10
-21.0469066674
 20
-10.940057667
 30
0.0
 11
-21.0294648925
 21
-10.4407428997
 31
0.0
 11
-21.0334475516
 21
-10.5188079251
 31
0.0
 11
-21.0371176394
 21
-10.5949529607
 31
0.0
 11
-21.040384891
 21
-10.6673052385
 31
0.0
 11
-21.0431689492
 21
-10.7340852721
 31
0.0
 11
-21.0454013408
 21
-10.7936506235
 31
0.0
 11
-21.0470271606
 21
-10.8445362976
 31
0.0
 11
-21.0480064221
 21
-10.8854907741
 31
0.0
 11
-21.0483150404
 21
-10.9155067878
 31
0.0
 11
-21.0479454253
 21
-10.9338461024
 31
0.0
 11
-21.0469066674
 21
-10.940057667
 31
0.0
  0
SPLINE
  5
2E5
100
AcDbEntity
  8
ASSI
100
AcDbSpline
 62
253
  6
CONTINUOUS
 70
0
 71
3
 72
15
 73
11
 74
9
 42
0.0000001
 43
0.0000001
 44
0.0000000001
 12
-0.0017453778
 22
0.2000612775
 32
0.0
 13
0.2000612729
 23
0.0017459083
 33
0.0
 40
0.0
 40
0.0
 40
0.0
 40
0.0
 40
0.1950020658
 40
0.3825082119
 40
0.5553167043
 40
0.7067913013
 40
0.8311172079
 40
0.9235272361
 40
0.9804964655
 40
1.0
 40
1.0
 40
1.0
 40
1.0
 10
-22.3987345366
 20
10.7132355777
 30
0.0
 10
-22.3988479874
 20
10.7262396985
 30
0.0
 10
-22.3990236315
 20
10.7517428359
 30
0.0
 10
-22.3991711755
 20
10.7888004034
 30
0.0
 10
-22.3991049387
 20
10.8228545804
 30
0.0
 10
-22.3991125481
 20
10.8530061501
 30
0.0
 10
-22.3983797669
 20
10.8769132
 30
0.0
 10
-22.3990552118
 20
10.8967077102
 30
0.0
 10
-22.3966636904
 20
10.9051546403
 30
0.0
 10
-22.3982899964
 20
10.9132166118
 30
0.0
 10
-22.3969893624
 20
10.9132279623
 30
0.0
 11
-22.3987345366
 21
10.7132355777
 31
0.0
 11
-22.3990078376
 21
10.7522484674
 31
0.0
 11
-22.3991365263
 21
10.7897623934
 31
0.0
 11
-22.399115658
 21
10.8243359905
 31
0.0
 11
-22.3989460347
 21
10.8546408704
 31
0.0
 11
-22.398634174
 21
10.8795126616
 31
0.0
 11
-22.3981920583
 21
10.8979957464
 31
0.0
 11
-22.3976366747
 21
10.9093799777
 31
0.0
 11
-22.3969893624
 21
10.9132279623
 31
0.0
  0
LINE
  5
2E6
100
AcDbEntity
  8
ASSI
100
AcDbLine
 62
253
  6
CONTINUOUS
 10
-22.3987345366
 20
10.7132355777
 11
-22.8900065719
 21
10.7105239602
  0
SPLINE
  5
2E7
100
AcDbEntity
  8
ASSI
100
AcDbSpline
 62
253
  6
CONTINUOUS
 70
0
 71
3
 72
17
 73
13
 74
11
 42
0.0000001
 43
0.0000001
 44
0.0000000001
 12
-0.0261499573
 22
-0.4991229354
 32
0.0
 13
0.4991225191
 23
-0.0261579028
 33
0.0
 40
0.0
 40
0.0
 40
0.0
 40
0.0
 40
0.1563933181
 40
0.3089189061
 40
0.4538267206
 40
0.5875542932
 40
0.7068145503
 40
0.8086770505
 40
0.8906409733
 40
0.9506992977
 40
0.9873995059
 40
1.0
 40
1.0
 40
1.0
 40
1.0
 10
-21.0294648925
 20
-10.4407428997
 30
0.0
 10
-21.0308281187
 20
-10.4667627303
 30
0.0
 10
-21.0334506822
 20
-10.5181617185
 30
0.0
 10
-21.0370972877
 20
-10.5936863299
 30
0.0
 10
-21.0403365363
 20
-10.6654329147
 30
0.0
 10
-21.0431376892
 20
-10.7317068456
 30
0.0
 10
-21.0452814519
 20
-10.7906541508
 30
0.0
 10
-21.0471821547
 20
-10.841503801
 30
0.0
 10
-21.0475027156
 20
-10.881099082
 30
0.0
 10
-21.0495319681
 20
-10.913270942
 30
0.0
 10
-21.0464256799
 20
-10.9271808983
 30
0.0
 10
-21.0490030642
 20
-10.9399477995
 30
0.0
 10
-21.0469066674
 20
-10.940057667
 30
0.0
 11
-21.0294648925
 21
-10.4407428997
 31
0.0
 11
-21.0334475516
 21
-10.5188079251
 31
0.0
 11
-21.0371176394
 21
-10.5949529607
 31
0.0
 11
-21.040384891
 21
-10.6673052385
 31
0.0
 11
-21.0431689492
 21
-10.7340852721
 31
0.0
 11
-21.0454013408
 21
-10.7936506235
 31
0.0
 11
-21.0470271606
 21
-10.8445362976
 31
0.0
 11
-21.0480064221
 21
-10.8854907741
 31
0.0
 11
-21.0483150404
 21
-10.9155067878
 31
0.0
 11
-21.0479454253
 21
-10.9338461024
 31
0.0
 11
-21.0469066674
 21
-10.940057667
 31
0.0
  0
SPLINE
  5
2E8
100
AcDbEntity
  8
CURVE
100
AcDbSpline
 62
253
  6
CONTINUOUS
 70
0
 71
3
 72
9
 73
5
 74
3
 42
0.0000001
 43
0.0000001
 44
0.0000000001
 12
0.022027755
 22
-0.8469349366
 32
0.0
 13
0.0221765549
 23
-0.8017819375
 33
0.0
 40
0.0
 40
0.0
 40
0.0
 40
0.0
 40
0.6433837199
 40
1.0
 40
1.0
 40
1.0
 40
1.0
 10
-22.7210992078
 20
-1.9413324451
 30
0.0
 10
-22.7163751082
 20
-2.1229671617
 30
0.0
 10
-22.709032743
 20
-2.3994295622
 30
0.0
 10
-22.7015994339
 20
-2.6709007365
 30
0.0
 10
-22.6989632604
 20
-2.7662102339
 30
0.0
 11
-22.7210992078
 21
-1.9413324451
 31
0.0
 11
-22.7068895462
 21
-2.4766438958
 31
0.0
 11
-22.6989632604
 21
-2.7662102339
 31
0.0
  0
ELLIPSE
  5
2E9
100
AcDbEntity
  8
RACCORDO
100
AcDbEllipse
 62
7
  6
CONTINUOUS
 10
12.247078462
 20
-11.0740527707
 30
0.0
 11
0.2
 21
-0.0
 31
0.0
 40
0.0524077793
 41
0.5235987756
 42
1.5707963268
  0
ELLIPSE
  5
2EA
100
AcDbEntity
  8
RACCORDO
100
AcDbEllipse
 62
7
  6
CONTINUOUS
 10
8.8780185696
 20
-11.0740527707
 30
0.0
 11
0.2
 21
0.0
 31
0.0
 40
0.0524077793
 41
1.5707963268
 42
2.617993878
  0
ELLIPSE
  5
2EB
100
AcDbEntity
  8
RACCORDO
100
AcDbEllipse
 62
7
  6
CONTINUOUS
 10
23.547078462
 20
-11.0740527707
 30
0.0
 11
0.2
 21
0.0
 31
0.0
 40
0.0524077793
 41
0.5235987756
 42
1.5707963268
  0
ELLIPSE
  5
2EC
100
AcDbEntity
  8
RACCORDO
100
AcDbEllipse
 62
7
  6
CONTINUOUS
 10
20.1780185696
 20
-11.0740527707
 30
0.0
 11
0.2
 21
-0.0
 31
0.0
 40
0.0524077793
 41
1.5707963268
 42
2.617993878
  0
ELLIPSE
  5
2ED
100
AcDbEntity
  8
RACCORDO
100
AcDbEllipse
 62
7
  6
CONTINUOUS
 10
1.047078462
 20
-11.0740527707
 30
0.0
 11
0.2
 21
0.0
 31
0.0
 40
0.0524077793
 41
0.5235987756
 42
1.5707963268
  0
ELLIPSE
  5
2EE
100
AcDbEntity
  8
RACCORDO
100
AcDbEllipse
 62
7
  6
CONTINUOUS
 10
-2.3219814304
 20
-11.0740527707
 30
0.0
 11
0.2
 21
0.0
 31
0.0
 40
0.0524077793
 41
1.5707963268
 42
2.617993878
  0
ELLIPSE
  5
2EF
100
AcDbEntity
  8
RACCORDO
100
AcDbEllipse
 62
7
  6
CONTINUOUS
 10
31.3780185696
 20
-11.0740527707
 30
0.0
 11
0.2
 21
0.0
 31
0.0
 40
0.0524077793
 41
1.5707963268
 42
2.617993878
  0
ELLIPSE
  5
2F0
100
AcDbEntity
  8
RACCORDO
100
AcDbEllipse
 62
7
  6
CONTINUOUS
 10
34.747078462
 20
-11.0740527707
 30
0.0
 11
0.2
 21
0.0
 31
0.0
 40
0.0524077793
 41
0.5235987756
 42
1.5707963268
  0
ELLIPSE
  5
2F1
100
AcDbEntity
  8
RACCORDO
100
AcDbEllipse
 62
7
  6
CONTINUOUS
 10
38.3625180502
 20
10.7586599393
 30
0.0
 11
0.1789222233
 21
0.0894542985
 31
0.0
 40
0.9998096356
 41
-0.4635410001
 42
1.1071030276
  0
ELLIPSE
  5
2F2
100
AcDbEntity
  8
RACCORDO
100
AcDbEllipse
 62
7
  6
CONTINUOUS
 10
-5.9374210186
 20
10.7586599393
 30
0.0
 11
0.1789222233
 21
-0.0894542985
 31
0.0
 40
0.9998096356
 41
2.0344896259
 42
3.6051336537
  0
ELLIPSE
  5
2F3
100
AcDbEntity
  8
RACCORDO
100
AcDbEllipse
 62
7
  6
CONTINUOUS
 10
38.0493988097
 20
-10.6022441893
 30
0.0
 11
0.498078285
 21
0.0448076117
 31
0.0
 40
0.9965957691
 41
-1.6608206152
 42
-0.0909376769
  0
ELLIPSE
  5
2F4
100
AcDbEntity
  8
RACCORDO
100
AcDbEllipse
 62
7
  6
CONTINUOUS
 10
-5.624301778
 20
-10.6022441893
 30
0.0
 11
0.498078285
 21
-0.0448076117
 31
0.0
 40
0.9965957691
 41
-3.0506549766
 42
-1.4807720384
  0
ELLIPSE
  5
2F5
100
AcDbEntity
  8
ASSI
100
AcDbEllipse
 62
7
  6
CONTINUOUS
 10
12.247078462
 20
-11.0740527707
 30
0.0
 11
0.2
 21
-0.0
 31
0.0
 40
0.0524077793
 41
0.5235987756
 42
1.5707963268
  0
ELLIPSE
  5
2F6
100
AcDbEntity
  8
ASSI
100
AcDbEllipse
 62
7
  6
CONTINUOUS
 10
8.8780185696
 20
-11.0740527707
 30
0.0
 11
0.2
 21
0.0
 31
0.0
 40
0.0524077793
 41
1.5707963268
 42
2.617993878
  0
ELLIPSE
  5
2F7
100
AcDbEntity
  8
ASSI
100
AcDbEllipse
 62
7
  6
CONTINUOUS
 10
23.547078462
 20
-11.0740527707
 30
0.0
 11
0.2
 21
0.0
 31
0.0
 40
0.0524077793
 41
0.5235987756
 42
1.5707963268
  0
ELLIPSE
  5
2F8
100
AcDbEntity
  8
ASSI
100
AcDbEllipse
 62
7
  6
CONTINUOUS
 10
20.1780185696
 20
-11.0740527707
 30
0.0
 11
0.2
 21
-0.0
 31
0.0
 40
0.0524077793
 41
1.5707963268
 42
2.617993878
  0
ELLIPSE
  5
2F9
100
AcDbEntity
  8
ASSI
100
AcDbEllipse
 62
7
  6
CONTINUOUS
 10
1.047078462
 20
-11.0740527707
 30
0.0
 11
0.2
 21
0.0
 31
0.0
 40
0.0524077793
 41
0.5235987756
 42
1.5707963268
  0
ELLIPSE
  5
2FA
100
AcDbEntity
  8
ASSI
100
AcDbEllipse
 62
7
  6
CONTINUOUS
 10
-2.3219814304
 20
-11.0740527707
 30
0.0
 11
0.2
 21
0.0
 31
0.0
 40
0.0524077793
 41
1.5707963268
 42
2.617993878
  0
ELLIPSE
  5
2FB
100
AcDbEntity
  8
ASSI
100
AcDbEllipse
 62
7
  6
CONTINUOUS
 10
31.3780185696
 20
-11.0740527707
 30
0.0
 11
0.2
 21
0.0
 31
0.0
 40
0.0524077793
 41
1.5707963268
 42
2.617993878
  0
ELLIPSE
  5
2FC
100
AcDbEntity
  8
ASSI
100
AcDbEllipse
 62
7
  6
CONTINUOUS
 10
34.747078462
 20
-11.0740527707
 30
0.0
 11
0.2
 21
0.0
 31
0.0
 40
0.0524077793
 41
0.5235987756
 42
1.5707963268
  0
ELLIPSE
  5
2FD
100
AcDbEntity
  8
ASSI
100
AcDbEllipse
 62
7
  6
CONTINUOUS
 10
38.3625180502
 20
10.7586599393
 30
0.0
 11
0.1789222233
 21
0.0894542985
 31
0.0
 40
0.9998096356
 41
-0.4635410001
 42
1.1071030276
  0
ELLIPSE
  5
2FE
100
AcDbEntity
  8
ASSI
100
AcDbEllipse
 62
7
  6
CONTINUOUS
 10
-5.9374210186
 20
10.7586599393
 30
0.0
 11
0.1789222233
 21
-0.0894542985
 31
0.0
 40
0.9998096356
 41
2.0344896259
 42
3.6051336537
  0
ELLIPSE
  5
2FF
100
AcDbEntity
  8
ASSI
100
AcDbEllipse
 62
7
  6
CONTINUOUS
 10
38.0493988097
 20
-10.6022441893
 30
0.0
 11
0.498078285
 21
0.0448076117
 31
0.0
 40
0.9965957691
 41
-1.6608206152
 42
-0.0909376769
  0
ELLIPSE
  5
300
100
AcDbEntity
  8
ASSI
100
AcDbEllipse
 62
7
  6
CONTINUOUS
 10
-5.624301778
 20
-10.6022441893
 30
0.0
 11
0.498078285
 21
-0.0448076117
 31
0.0
 40
0.9965957691
 41
-3.0506549766
 42
-1.4807720384
  0
ENDSEC
  0
SECTION
  2
OBJECTS
  0
DICTIONARY
  5
C
100
AcDbDictionary
280
0
281
1
  3
ACAD_GROUP
350
D
  3
ACAD_MLINESTYLE
350
17
  3
ACAD_LAYOUT
350
1A
  3
ACAD_PLOTSETTINGS
350
19
  3
ACAD_PLOTSTYLENAME
350
E
  0
DICTIONARY
  5
D
102
{ACAD_REACTORS
330
C
102
}
100
AcDbDictionary
280
0
281
1
  0
ACDBDICTIONARYWDFLT
  5
E
102
{ACAD_REACTORS
330
C
102
}
100
AcDbDictionary
281
1
  3
Normal
350
F
100
AcDbDictionaryWithDefault
340
F
  0
DICTIONARY
  5
17
102
{ACAD_REACTORS
330
C
102
}
100
AcDbDictionary
280
0
281
1
  3
Standard
350
18
  0
DICTIONARY
  5
19
102
{ACAD_REACTORS
330
C
102
}
100
AcDbDictionary
281
1
  0
DICTIONARY
  5
1A
102
{ACAD_REACTORS
330
C
102
}
100
AcDbDictionary
281
1
  3
Model
350
301
  3
Layout1
350
302
  0
ACDBPLACEHOLDER
  5
F
102
{ACAD_REACTORS
330
E
102
}
  0
MLINESTYLE
  5
18
102
{ACAD_REACTORS
330
17
102
}
100
AcDbMlineStyle
  2
STANDARD
 70
0
  3

 62
256
 51
90.0
 52
90.0
 71
2
 49
0.5
 62
256
  6
BYLAYER
 49
-0.5
 62
256
  6
BYLAYER
  0
LAYOUT
  5
301
102
{ACAD_REACTORS
330
1A
102
}
100
AcDbPlotSettings
  1

  2
none_device
  4
ISO_A4_(297.00_x_210.00_MM)
  6

 40
0.0
 41
0.0
 42
0.0
 43
0.0
 44
297.0
 45
210.0
 46
0.0
 47
0.0
 48
0.0
 49
0.0
140
0.0
141
0.0
142
1.0
143
1.0
 70
1024
 72
1
 73
0
 74
0
  7

 75
0
147
1.0
148
0.0
149
0.0
100
AcDbLayout
  1
Model
 70
0
 71
0
 10
0.0
 20
0.0
 11
297.0
 21
210.0
 12
0.0
 22
0.0
 32
0.0
 14
0.0
 24
0.0
 34
0.0
 15
0.0
 25
0.0
 35
0.0
146
0.0
 13
0.0
 23
0.0
 33
0.0
 16
1.0
 26
0.0
 36
0.0
 17
0.0
 27
1.0
 37
0.0
 76
0
330
213
345
0
346
0
  0
LAYOUT
  5
302
102
{ACAD_REACTORS
330
1A
102
}
100
AcDbPlotSettings
  1

  2
none_device
  4
ISO_A4_(297.00_x_210.00_MM)
  6

 40
0.0
 41
0.0
 42
0.0
 43
0.0
 44
297.0
 45
210.0
 46
0.0
 47
0.0
 48
0.0
 49
0.0
140
0.0
141
0.0
142
1.0
143
1.0
 70
0
 72
1
 73
0
 74
0
  7

 75
0
147
1.0
148
0.0
149
0.0
100
AcDbLayout
  1
Layout1
 70
0
 71
1
 10
0.0
 20
0.0
 11
297.0
 21
210.0
 12
0.0
 22
0.0
 32
0.0
 14
0.0
 24
0.0
 34
0.0
 15
0.0
 25
0.0
 35
0.0
146
0.0
 13
0.0
 23
0.0
 33
0.0
 16
1.0
 26
0.0
 36
0.0
 17
0.0
 27
1.0
 37
0.0
 76
0
330
214
345
0
346
0
  0
ENDSEC
  0
EOF
