  0
SECTION
  2
HEADER
  9
$ACADVER
  1
AC1015
  9
$DWGCODEPAGE
  3
ANSI_1252
  9
$EXTMAX
 10
297.0
 20
210.0
 30
0.0
  9
$EXTMIN
 10
0.0
 20
0.0
 30
0.0
  9
$LIMMIN
 10
0.0
 20
0.0
  9
$LIMMAX
 10
297.0
 20
210.0
  9
$VIEWCTR
 10
148.5
 20
105.0
  9
$VIEWSIZE
 40
210.0
  9
$CLAYER
  8
0
  9
$LTSCALE
 40
16.335
  9
$CELTYPE
  6
BYLAYER
  9
$DIMSCALE
 40
1.0
  9
$DIMASZ
 40
3.0
  9
$DIMEXO
 40
1.85625
  9
$DIMDLI
 40
11.286
  9
$DIMEXE
 40
5.346
  9
$DIMCEN
 40
2.673
  9
$DIMLFAC
 40
1.0
  9
$DIMBLK
  1
_FILLED
  9
$DIMTXT
 40
3.0
  9
$DIMTOL
 70
1
  9
$DIMLIM
 70
0
  9
$DIMTFAC
 40
1.0
  9
$DIMTP
 40
0.01
  9
$DIMTM
 40
0.01
  9
$PDMODE
 70
3
  9
$PDSIZE
 40
3.0
  9
$HANDSEED
  5
300
  9
$TILEMODE
 70
1
  9
$MEASUREMENT
 70
1
  9
$INSUNITS
 70
4
  0
ENDSEC
  0
SECTION
  2
CLASSES
  0
CLASS
  1
ACDBDICTIONARYWDFLT
  2
AcDbDictionaryWithDefault
  3
AutoCAD 2000
 90
0
280
0
281
0
  0
CLASS
  1
ACDBPLACEHOLDER
  2
AcDbPlaceHolder
  3
AutoCAD 2000
 90
0
280
0
281
0
  0
CLASS
  1
LAYOUT
  2
AcDbLayout
  3
AutoCAD 2000
 90
0
280
0
281
0
  0
ENDSEC
  0
SECTION
  2
TABLES
  0
TABLE
  2
VPORT
  5
8
100
AcDbSymbolTable
 70
2
  0
VPORT
  5
1F4
100
AcDbSymbolTableRecord
100
AcDbViewportTableRecord
  2
*ACTIVE
 70
0
 10
0.0
 20
0.0
 11
1.0
 21
1.0
 12
148.5
 22
105.0
 13
0.0
 23
0.0
 14
1.0
 24
1.0
 15
0.0
 25
0.0
 16
0.0
 26
0.0
 36
1.0
 17
0.0
 27
0.0
 37
0.0
 40
210.0
 41
1.4142857143
 42
50.0
 43
0.0
 44
0.0
 50
0.0
 51
0.0
 71
0
 72
100
 73
1
 74
1
 75
0
 76
0
 77
0
 78
0
  0
ENDTAB
  0
TABLE
  2
LTYPE
  5
5
100
AcDbSymbolTable
 70
6
  0
LTYPE
  5
14
100
AcDbSymbolTableRecord
100
AcDbLinetypeTableRecord
  2
BYBLOCK
 70
0
  3

 72
65
 73
0
 40
0.0
  0
LTYPE
  5
15
100
AcDbSymbolTableRecord
100
AcDbLinetypeTableRecord
  2
BYLAYER
 70
0
  3

 72
65
 73
0
 40
0.0
  0
LTYPE
  5
16
100
AcDbSymbolTableRecord
100
AcDbLinetypeTableRecord
  2
CONTINUOUS
 70
64
  3
Solid line
 72
65
 73
0
 40
0.0
  0
LTYPE
  5
1F5
100
AcDbSymbolTableRecord
100
AcDbLinetypeTableRecord
  2
CENTER
 70
64
  3
____ _ ____ _ ____ _ ____ _ ____ _ ____ _ ____
 72
65
 73
4
 40
0.6
 49
0.375
 74
0
 49
-0.075
 74
0
 49
0.075
 74
0
 49
-0.075
 74
0
  0
LTYPE
  5
1F6
100
AcDbSymbolTableRecord
100
AcDbLinetypeTableRecord
  2
HIDDEN
 70
64
  3
- - - - - - - - - - - - - - - - - - - -
 72
65
 73
2
 40
0.2
 49
0.1
 74
0
 49
-0.1
 74
0
  0
LTYPE
  5
1F7
100
AcDbSymbolTableRecord
100
AcDbLinetypeTableRecord
  2
PHANTOM
 70
64
  3
_____ _ _ _____ _ _ _____ _ _ _____
 72
65
 73
6
 40
0.8
 49
0.45
 74
0
 49
-0.05
 74
0
 49
0.1
 74
0
 49
-0.05
 74
0
 49
0.1
 74
0
 49
-0.05
 74
0
  0
LTYPE
  5
1F8
100
AcDbSymbolTableRecord
100
AcDbLinetypeTableRecord
  2
DOT
 70
64
  3
. . . . . . . . . . . . . . . . . . . .
 72
65
 73
2
 40
0.2
 49
0.1
 74
0
 49
-0.1
 74
0
  0
LTYPE
  5
1F9
100
AcDbSymbolTableRecord
100
AcDbLinetypeTableRecord
  2
DASHED
 70
64
  3
- - - - - - - - - - - - - - - - - - - -
 72
65
 73
2
 40
0.2
 49
0.1
 74
0
 49
-0.1
 74
0
  0
ENDTAB
  0
TABLE
  2
LAYER
  5
2
100
AcDbSymbolTable
 70
36
  0
LAYER
  5
10
100
AcDbSymbolTableRecord
100
AcDbLayerTableRecord
  2
0
 70
0
 62
7
  6
CONTINUOUS
370
-3
390
F
  0
LAYER
  5
1FA
100
AcDbSymbolTableRecord
100
AcDbLayerTableRecord
  2
DEFAULT_1
 70
0
 62
7
  6
CENTER
370
-3
390
F
  0
LAYER
  5
1FB
100
AcDbSymbolTableRecord
100
AcDbLayerTableRecord
  2
DEFAULT_2
 70
0
 62
7
  6
HIDDEN
370
-3
390
F
  0
LAYER
  5
1FC
100
AcDbSymbolTableRecord
100
AcDbLayerTableRecord
  2
DEFAULT_3
 70
0
 62
7
  6
PHANTOM
370
-3
390
F
  0
LAYER
  5
1FD
100
AcDbSymbolTableRecord
100
AcDbLayerTableRecord
  2
ASSI
 70
0
 62
7
  6
CONTINUOUS
370
-3
390
F
  0
LAYER
  5
1FE
100
AcDbSymbolTableRecord
100
AcDbLayerTableRecord
  2
COORDINATE
 70
0
 62
7
  6
CONTINUOUS
370
-3
390
F
  0
LAYER
  5
1FF
100
AcDbSymbolTableRecord
100
AcDbLayerTableRecord
  2
COORD_ORIGINE
 70
0
 62
7
  6
CONTINUOUS
370
-3
390
F
  0
LAYER
  5
200
100
AcDbSymbolTableRecord
100
AcDbLayerTableRecord
  2
COPY_PUBLISH
 70
0
 62
7
  6
CONTINUOUS
370
-3
390
F
  0
LAYER
  5
201
100
AcDbSymbolTableRecord
100
AcDbLayerTableRecord
  2
COSMETIC
 70
0
 62
7
  6
CONTINUOUS
370
-3
390
F
  0
LAYER
  5
202
100
AcDbSymbolTableRecord
100
AcDbLayerTableRecord
  2
CURVE
 70
0
 62
7
  6
CONTINUOUS
370
-3
390
F
  0
LAYER
  5
203
100
AcDbSymbolTableRecord
100
AcDbLayerTableRecord
  2
DRAFT
 70
0
 62
7
  6
CONTINUOUS
370
-3
390
F
  0
LAYER
  5
204
100
AcDbSymbolTableRecord
100
AcDbLayerTableRecord
  2
IGES
 70
0
 62
7
  6
CONTINUOUS
370
-3
390
F
  0
LAYER
  5
205
100
AcDbSymbolTableRecord
100
AcDbLayerTableRecord
  2
IMPORT_IGES
 70
0
 62
7
  6
CONTINUOUS
370
-3
390
F
  0
LAYER
  5
206
100
AcDbSymbolTableRecord
100
AcDbLayerTableRecord
  2
INTF_6
 70
0
 62
7
  6
CONTINUOUS
370
-3
390
F
  0
LAYER
  5
207
100
AcDbSymbolTableRecord
100
AcDbLayerTableRecord
  2
NOTE
 70
0
 62
7
  6
CONTINUOUS
370
-3
390
F
  0
LAYER
  5
208
100
AcDbSymbolTableRecord
100
AcDbLayerTableRecord
  2
PIANI
 70
0
 62
7
  6
CONTINUOUS
370
-3
390
F
  0
LAYER
  5
209
100
AcDbSymbolTableRecord
100
AcDbLayerTableRecord
  2
PIANI_ORIGINE
 70
0
 62
7
  6
CONTINUOUS
370
-3
390
F
  0
LAYER
  5
20A
100
AcDbSymbolTableRecord
100
AcDbLayerTableRecord
  2
PIANI_RIFERIMENTO
 70
0
 62
7
  6
CONTINUOUS
370
-3
390
F
  0
LAYER
  5
20B
100
AcDbSymbolTableRecord
100
AcDbLayerTableRecord
  2
PUNTI
 70
0
 62
7
  6
CONTINUOUS
370
-3
390
F
  0
LAYER
  5
20C
100
AcDbSymbolTableRecord
100
AcDbLayerTableRecord
  2
RACCORDO
 70
0
 62
7
  6
CONTINUOUS
370
-3
390
F
  0
LAYER
  5
20D
100
AcDbSymbolTableRecord
100
AcDbLayerTableRecord
  2
SMUSSO
 70
0
 62
7
  6
CONTINUOUS
370
-3
390
F
  0
LAYER
  5
20E
100
AcDbSymbolTableRecord
100
AcDbLayerTableRecord
  2
SNAPLINE
 70
0
 62
7
  6
CONTINUOUS
370
-3
390
F
  0
LAYER
  5
20F
100
AcDbSymbolTableRecord
100
AcDbLayerTableRecord
  2
SUPERFICI
 70
0
 62
7
  6
CONTINUOUS
370
-3
390
F
  0
LAYER
  5
210
100
AcDbSymbolTableRecord
100
AcDbLayerTableRecord
  2
TRASH
 70
0
 62
7
  6
CONTINUOUS
370
-3
390
F
  0
ENDTAB
  0
TABLE
  2
STYLE
  5
3
100
AcDbSymbolTable
 70
1
  0
STYLE
  5
11
100
AcDbSymbolTableRecord
100
AcDbTextStyleTableRecord
  2
STANDARD
 70
0
 40
0.0
 41
0.8
 50
0.0
 71
0
 42
0.2
  3
txt
  4

  0
STYLE
  5
211
100
AcDbSymbolTableRecord
100
AcDbTextStyleTableRecord
  2
TEXTSTYLE_1
 70
0
 40
0.0
 41
0.8
 50
0.0
 71
0
 42
0.2
  3
gdt
  4

  0
ENDTAB
  0
TABLE
  2
VIEW
  5
6
100
AcDbSymbolTable
 70
0
  0
ENDTAB
  0
TABLE
  2
UCS
  5
7
100
AcDbSymbolTable
 70
0
  0
ENDTAB
  0
TABLE
  2
APPID
  5
9
100
AcDbSymbolTable
 70
1
  0
APPID
  5
212
100
AcDbSymbolTableRecord
100
AcDbRegAppTableRecord
  2
ACAD
 70
0
  0
ENDTAB
  0
TABLE
  2
BLOCK_RECORD
  5
1
100
AcDbSymbolTable
 70
0
  0
BLOCK_RECORD
  5
213
100
AcDbSymbolTableRecord
100
AcDbBlockTableRecord
  2
*Model_Space
  0
BLOCK_RECORD
  5
214
100
AcDbSymbolTableRecord
100
AcDbBlockTableRecord
  2
*Paper_Space
  0
BLOCK_RECORD
  5
215
100
AcDbSymbolTableRecord
100
AcDbBlockTableRecord
  2
_FILLED
  0
BLOCK_RECORD
  5
216
100
AcDbSymbolTableRecord
100
AcDbBlockTableRecord
  2
*D0
  0
BLOCK_RECORD
  5
217
100
AcDbSymbolTableRecord
100
AcDbBlockTableRecord
  2
*D1
  0
BLOCK_RECORD
  5
218
100
AcDbSymbolTableRecord
100
AcDbBlockTableRecord
  2
*D2
  0
ENDTAB
  0
TABLE
  2
DIMSTYLE
  5
A
100
AcDbSymbolTable
 70
1
100
AcDbDimStyleTable
 71
0
  0
DIMSTYLE
105
219
100
AcDbSymbolTableRecord
100
AcDbDimStyleTableRecord
  2
STANDARD
 70
0
  3

  4

 40
1.0
 41
3.0
 42
0.0625
 43
0.38
 44
0.18
 45
0.0
 46
0.0
 47
0.01
 48
0.01
140
3.0
141
0.09
142
0.0
143
25.4
144
1.0
145
0.0
146
1.0
147
0.09
 71
1.0
 72
0.0
 73
0
 74
0
 75
0
 76
0
 77
1
 78
8
170
0
171
2
172
0
173
0
174
0
175
0
176
0
177
0
178
0
270
2
271
2
272
2
273
2
274
2
275
0
280
0
281
0
282
0
283
1
284
8
285
0
286
0
287
3
288
0
340
11
341
215
342
215
343
215
344
215
  0
DIMSTYLE
105
21A
100
AcDbSymbolTableRecord
100
AcDbDimStyleTableRecord
  2
DIMSTYLE_1
 70
0
  3

  4

 40
1.0
 41
3.0
 42
0.0625
 43
0.38
 44
0.18
 45
0.0
 46
0.0
 47
0.0
 48
0.0
140
3.0
141
0.09
142
0.0
143
25.4
144
1.0
145
0.0
146
1.0
147
0.09
 71
0.0
 72
0.0
 73
0
 74
0
 75
0
 76
0
 77
1
 78
8
170
0
171
2
172
0
173
0
174
0
175
0
176
0
177
0
178
0
270
2
271
2
272
2
273
2
274
2
275
0
280
0
281
0
282
0
283
1
284
8
285
0
286
0
287
3
288
0
340
11
341
215
342
215
343
215
344
215
  0
DIMSTYLE
105
21B
100
AcDbSymbolTableRecord
100
AcDbDimStyleTableRecord
  2
DIMSTYLE_2
 70
0
  3

  4

 40
1.0
 41
3.0
 42
0.0625
 43
0.38
 44
0.18
 45
0.0
 46
0.0
 47
0.0
 48
0.0
140
3.0
141
0.09
142
0.0
143
25.4
144
1.0
145
0.0
146
1.0
147
0.09
 71
0.0
 72
0.0
 73
0
 74
0
 75
0
 76
0
 77
1
 78
8
170
0
171
2
172
0
173
0
174
0
175
0
176
0
177
0
178
0
270
2
271
1
272
1
273
2
274
2
275
0
280
0
281
0
282
0
283
1
284
8
285
0
286
0
287
3
288
0
340
11
341
215
342
215
343
215
344
215
  0
ENDTAB
  0
ENDSEC
  0
SECTION
  2
BLOCKS
  0
BLOCK
  5
20
100
AcDbEntity
  8
0
100
AcDbBlockBegin
  2
*Model_Space
 70
0
 10
0.0
 20
0.0
 30
0.0
  3
*Model_Space
  1

  0
ENDBLK
  5
21
100
AcDbEntity
  8
0
100
AcDbBlockEnd
  0
BLOCK
  5
1C
100
AcDbEntity
  8
0
100
AcDbBlockBegin
  2
*Paper_Space
 70
0
 10
0.0
 20
0.0
 30
0.0
  3
*Paper_Space
  1

  0
ENDBLK
  5
1D
100
AcDbEntity
  8
0
100
AcDbBlockEnd
  0
BLOCK
  5
21C
100
AcDbEntity
  8
0
100
AcDbBlockBegin
  2
_FILLED
 70
64
 10
0.0
 20
0.0
  3
_FILLED
  1

  0
SOLID
  5
21D
100
AcDbEntity
  8
0
  6
BYBLOCK
 62
0
100
AcDbTrace
 10
0.0
 20
0.0
 11
-1.0
 21
0.3166666667
 12
-1.0
 22
-0.3166666667
 13
-1.0
 23
-0.3166666667
  0
ENDBLK
  5
21E
100
AcDbEntity
  8
0
  6
BYBLOCK
 62
0
100
AcDbBlockEnd
  0
BLOCK
  5
21F
100
AcDbEntity
  8
0
100
AcDbBlockBegin
 62
7
  6
CONTINUOUS
  2
*D0
 70
65
 10
0.0
 20
0.0
  3
*D0
  1

  0
MTEXT
  5
220
100
AcDbEntity
  8
0
100
AcDbMText
 62
7
  6
CONTINUOUS
  7
STANDARD
 71
2
 72
1
 10
-20.8238075348
 20
22.7202145456
 30
0.0
 11
1.0
 21
0.0
 31
0.0
 44
0.9
  1
6,5
 40
3.0
 41
6.2142857143
  0
LINE
  5
221
100
AcDbEntity
  8
0
100
AcDbLine
 62
7
  6
CONTINUOUS
 10
-17.5738681368
 20
7.9702145456
 11
-17.5738681368
 21
20.4702145456
  0
LINE
  5
222
100
AcDbEntity
  8
0
100
AcDbLine
 62
7
  6
CONTINUOUS
 10
-24.0737469328
 20
11.222070957
 11
-24.0737469328
 21
20.4702145456
  0
LINE
  5
223
100
AcDbEntity
  8
0
100
AcDbLine
 62
7
  6
CONTINUOUS
 10
-17.5738681368
 20
18.9702145456
 11
-13.5738681368
 21
18.9702145456
  0
LINE
  5
224
100
AcDbEntity
  8
0
100
AcDbLine
 62
7
  6
CONTINUOUS
 10
-13.5738681368
 20
18.9702145456
 11
-20.8238075348
 21
18.9702145456
  0
LINE
  5
225
100
AcDbEntity
  8
0
100
AcDbLine
 62
7
  6
CONTINUOUS
 10
-24.0737469328
 20
18.9702145456
 11
-28.0737469328
 21
18.9702145456
  0
LINE
  5
226
100
AcDbEntity
  8
0
100
AcDbLine
 62
7
  6
CONTINUOUS
 10
-28.0737469328
 20
18.9702145456
 11
-20.8238075348
 21
18.9702145456
  0
INSERT
  5
227
100
AcDbEntity
  8
0
100
AcDbBlockReference
 62
7
  6
CONTINUOUS
  2
_FILLED
 10
-17.5738681368
 20
18.9702145456
 41
3.0
 42
3.0
 43
3.0
 50
180.0
  0
INSERT
  5
228
100
AcDbEntity
  8
0
100
AcDbBlockReference
 62
7
  6
CONTINUOUS
  2
_FILLED
 10
-24.0737469328
 20
18.9702145456
 41
3.0
 42
3.0
 43
3.0
  0
ENDBLK
  5
229
100
AcDbEntity
  8
0
  6
BYBLOCK
 62
0
100
AcDbBlockEnd
  0
BLOCK
  5
22A
100
AcDbEntity
  8
0
100
AcDbBlockBegin
 62
7
  6
CONTINUOUS
  2
*D1
 70
65
 10
0.0
 20
0.0
  3
*D1
  1

  0
MTEXT
  5
22B
100
AcDbEntity
  8
0
100
AcDbMText
 62
7
  6
CONTINUOUS
  7
STANDARD
 71
2
 72
1
 10
16.632334856
 20
22.7202145456
 30
0.0
 11
1.0
 21
0.0
 31
0.0
 44
0.9
  1
44,7
 40
3.0
 41
8.7857142857
  0
LINE
  5
22C
100
AcDbEntity
  8
0
100
AcDbLine
 62
7
  6
CONTINUOUS
 10
-5.717665144
 20
11.2702373909
 11
-5.717665144
 21
20.4702145456
  0
LINE
  5
22D
100
AcDbEntity
  8
0
100
AcDbLine
 62
7
  6
CONTINUOUS
 10
38.982334856
 20
11.2702373909
 11
38.982334856
 21
20.4702145456
  0
LINE
  5
22E
100
AcDbEntity
  8
0
100
AcDbLine
 62
7
  6
CONTINUOUS
 10
-5.717665144
 20
18.9702145456
 11
16.632334856
 21
18.9702145456
  0
LINE
  5
22F
100
AcDbEntity
  8
0
100
AcDbLine
 62
7
  6
CONTINUOUS
 10
38.982334856
 20
18.9702145456
 11
16.632334856
 21
18.9702145456
  0
INSERT
  5
230
100
AcDbEntity
  8
0
100
AcDbBlockReference
 62
7
  6
CONTINUOUS
  2
_FILLED
 10
-5.717665144
 20
18.9702145456
 41
3.0
 42
3.0
 43
3.0
 50
180.0
  0
INSERT
  5
231
100
AcDbEntity
  8
0
100
AcDbBlockReference
 62
7
  6
CONTINUOUS
  2
_FILLED
 10
38.982334856
 20
18.9702145456
 41
3.0
 42
3.0
 43
3.0
  0
ENDBLK
  5
232
100
AcDbEntity
  8
0
  6
BYBLOCK
 62
0
100
AcDbBlockEnd
  0
BLOCK
  5
233
100
AcDbEntity
  8
0
100
AcDbBlockBegin
 62
7
  6
CONTINUOUS
  2
*D2
 70
65
 10
0.0
 20
0.0
  3
*D2
  1

  0
MTEXT
  5
234
100
AcDbEntity
  8
0
100
AcDbMText
 62
7
  6
CONTINUOUS
  7
STANDARD
 71
2
 72
1
 10
43.232334856
 20
-0.0594418073
 30
0.0
 11
0.0
 21
1.0
 31
0.0
 44
0.9
  1
22,1
 40
3.0
 41
8.1428571429
  0
LINE
  5
235
100
AcDbEntity
  8
0
100
AcDbLine
 62
7
  6
CONTINUOUS
 10
39.2823348548
 20
10.9702145456
 11
48.482334856
 21
10.9702145456
  0
LINE
  5
236
100
AcDbEntity
  8
0
100
AcDbLine
 62
7
  6
CONTINUOUS
 10
38.9688807953
 20
-11.0890981601
 11
48.482334856
 21
-11.0890981601
  0
LINE
  5
237
100
AcDbEntity
  8
0
100
AcDbLine
 62
7
  6
CONTINUOUS
 10
46.982334856
 20
10.9702145456
 11
46.982334856
 21
-0.0594418073
  0
LINE
  5
238
100
AcDbEntity
  8
0
100
AcDbLine
 62
7
  6
CONTINUOUS
 10
46.982334856
 20
-11.0890981601
 11
46.982334856
 21
-0.0594418073
  0
INSERT
  5
239
100
AcDbEntity
  8
0
100
AcDbBlockReference
 62
7
  6
CONTINUOUS
  2
_FILLED
 10
46.982334856
 20
10.9702145456
 41
3.0
 42
3.0
 43
3.0
 50
90.0
  0
INSERT
  5
23A
100
AcDbEntity
  8
0
100
AcDbBlockReference
 62
7
  6
CONTINUOUS
  2
_FILLED
 10
46.982334856
 20
-11.0890981601
 41
3.0
 42
3.0
 43
3.0
 50
270.0
  0
ENDBLK
  5
23B
100
AcDbEntity
  8
0
  6
BYBLOCK
 62
0
100
AcDbBlockEnd
  0
ENDSEC
  0
SECTION
  2
ENTITIES
  0
DIMENSION
  5
23C
100
AcDbEntity
  8
0
100
AcDbDimension
 62
7
  6
CONTINUOUS
  2
*D0
 10
-24.0737469328
 20
18.9702145456
 11
-23.9309503919
 21
21.2202145456
 70
160
 71
2
 42
6.499878796
  3
DIMSTYLE_1
100
AcDbAlignedDimension
 13
-17.5738681368
 23
7.9702145456
 14
-24.0737469328
 24
11.222070957
 50
180.0
100
AcDbRotatedDimension
  0
DIMENSION
  5
23D
100
AcDbEntity
  8
0
100
AcDbDimension
 62
7
  6
CONTINUOUS
  2
*D1
 10
38.982334856
 20
18.9702145456
 11
12.2394777131
 21
21.2202145456
 70
160
 71
2
 42
44.7
  3
DIMSTYLE_1
100
AcDbAlignedDimension
 13
-5.717665144
 23
11.2702373909
 14
38.982334856
 24
11.2702373909
100
AcDbRotatedDimension
  0
DIMENSION
  5
23E
100
AcDbEntity
  8
0
100
AcDbDimension
 62
7
  6
CONTINUOUS
  2
*D2
 10
46.982334856
 20
-11.0890981601
 11
46.5566345788
 21
-3.6992853662
 70
160
 71
2
 42
22.0593127057
  3
DIMSTYLE_2
100
AcDbAlignedDimension
 13
39.2823348548
 23
10.9702145456
 14
38.9688807953
 24
-11.0890981601
 50
270.0
100
AcDbRotatedDimension
  0
LINE
  5
23F
100
AcDbEntity
  8
RACCORDO
100
AcDbLine
 62
7
  6
CONTINUOUS
 10
-5.717665144
 20
-2.0297854544
 11
-5.7045909067
 21
-10.5911524323
  0
LINE
  5
240
100
AcDbEntity
  8
ASSI
100
AcDbLine
 62
7
  6
CONTINUOUS
 10
-5.717665144
 20
-2.0297854544
 11
-5.7045909067
 21
-10.5911524323
  0
LINE
  5
241
100
AcDbEntity
  8
RACCORDO
100
AcDbLine
 62
7
  6
CONTINUOUS
 10
-5.717665144
 20
10.7702373909
 11
-5.717665144
 21
-2.0297854544
  0
LINE
  5
242
100
AcDbEntity
  8
ASSI
100
AcDbLine
 62
7
  6
CONTINUOUS
 10
-5.717665144
 20
10.7702373909
 11
-5.717665144
 21
-2.0297854544
  0
LINE
  5
243
100
AcDbEntity
  8
RACCORDO
100
AcDbLine
 62
253
  6
CONTINUOUS
 10
-5.1268247559
 20
10.7220709561
 11
-5.1268247559
 21
10.922202599
  0
LINE
  5
244
100
AcDbEntity
  8
ASSI
100
AcDbLine
 62
253
  6
CONTINUOUS
 10
-5.1268247559
 20
10.7220709561
 11
-5.1268247559
 21
10.922202599
  0
LINE
  5
245
100
AcDbEntity
  8
RACCORDO
100
AcDbLine
 62
253
  6
CONTINUOUS
 10
-5.7045909067
 20
-10.5911524323
 11
-5.6506492654
 21
-10.429195909
  0
LINE
  5
246
100
AcDbEntity
  8
ASSI
100
AcDbLine
 62
253
  6
CONTINUOUS
 10
-5.7045909067
 20
-10.5911524323
 11
-5.6506492654
 21
-10.429195909
  0
LINE
  5
247
100
AcDbEntity
  8
RACCORDO
100
AcDbLine
 62
253
  6
CONTINUOUS
 10
-5.2042110834
 20
-11.0890981601
 11
-5.150725623
 21
-10.9285112923
  0
LINE
  5
248
100
AcDbEntity
  8
ASSI
100
AcDbLine
 62
253
  6
CONTINUOUS
 10
-5.2042110834
 20
-11.0890981601
 11
-5.150725623
 21
-10.9285112923
  0
LINE
  5
249
100
AcDbEntity
  8
RACCORDO
100
AcDbLine
 62
7
  6
CONTINUOUS
 10
31.273909863
 20
-11.0890981601
 11
31.624599829
 21
-11.0572650021
  0
LINE
  5
24A
100
AcDbEntity
  8
ASSI
100
AcDbLine
 62
7
  6
CONTINUOUS
 10
31.273909863
 20
-11.0890981601
 11
31.624599829
 21
-11.0572650021
  0
LINE
  5
24B
100
AcDbEntity
  8
RACCORDO
100
AcDbLine
 62
7
  6
CONTINUOUS
 10
1.9907598489
 20
-11.0890981601
 11
1.6400698829
 21
-11.0572650021
  0
LINE
  5
24C
100
AcDbEntity
  8
ASSI
100
AcDbLine
 62
7
  6
CONTINUOUS
 10
1.9907598489
 20
-11.0890981601
 11
1.6400698829
 21
-11.0572650021
  0
LINE
  5
24D
100
AcDbEntity
  8
RACCORDO
100
AcDbLine
 62
7
  6
CONTINUOUS
 10
20.073909863
 20
-11.0890981601
 11
20.424599829
 21
-11.0572650021
  0
LINE
  5
24E
100
AcDbEntity
  8
ASSI
100
AcDbLine
 62
7
  6
CONTINUOUS
 10
20.073909863
 20
-11.0890981601
 11
20.424599829
 21
-11.0572650021
  0
LINE
  5
24F
100
AcDbEntity
  8
RACCORDO
100
AcDbLine
 62
7
  6
CONTINUOUS
 10
8.773909863
 20
-11.0890981601
 11
9.124599829
 21
-11.0572650021
  0
LINE
  5
250
100
AcDbEntity
  8
ASSI
100
AcDbLine
 62
7
  6
CONTINUOUS
 10
8.773909863
 20
-11.0890981601
 11
9.124599829
 21
-11.0572650021
  0
LINE
  5
251
100
AcDbEntity
  8
RACCORDO
100
AcDbLine
 62
7
  6
CONTINUOUS
 10
-5.2042110834
 20
-11.0890981601
 11
-2.426090137
 21
-11.0890981601
  0
LINE
  5
252
100
AcDbEntity
  8
ASSI
100
AcDbLine
 62
7
  6
CONTINUOUS
 10
-5.2042110834
 20
-11.0890981601
 11
-2.426090137
 21
-11.0890981601
  0
LINE
  5
253
100
AcDbEntity
  8
DRAFT
100
AcDbLine
 62
7
  6
CONTINUOUS
 10
1.9907598489
 20
-11.0890981601
 11
8.773909863
 21
-11.0890981601
  0
LINE
  5
254
100
AcDbEntity
  8
ASSI
100
AcDbLine
 62
7
  6
CONTINUOUS
 10
1.9907598489
 20
-11.0890981601
 11
8.773909863
 21
-11.0890981601
  0
LINE
  5
255
100
AcDbEntity
  8
DRAFT
100
AcDbLine
 62
7
  6
CONTINUOUS
 10
13.1907598489
 20
-11.0890981601
 11
20.073909863
 21
-11.0890981601
  0
LINE
  5
256
100
AcDbEntity
  8
ASSI
100
AcDbLine
 62
7
  6
CONTINUOUS
 10
13.1907598489
 20
-11.0890981601
 11
20.073909863
 21
-11.0890981601
  0
LINE
  5
257
100
AcDbEntity
  8
DRAFT
100
AcDbLine
 62
7
  6
CONTINUOUS
 10
24.4907598489
 20
-11.0890981601
 11
31.273909863
 21
-11.0890981601
  0
LINE
  5
258
100
AcDbEntity
  8
ASSI
100
AcDbLine
 62
7
  6
CONTINUOUS
 10
24.4907598489
 20
-11.0890981601
 11
31.273909863
 21
-11.0890981601
  0
LINE
  5
259
100
AcDbEntity
  8
RACCORDO
100
AcDbLine
 62
7
  6
CONTINUOUS
 10
35.6907598489
 20
-11.0890981601
 11
38.4688807953
 21
-11.0890981601
  0
LINE
  5
25A
100
AcDbEntity
  8
ASSI
100
AcDbLine
 62
7
  6
CONTINUOUS
 10
35.6907598489
 20
-11.0890981601
 11
38.4688807953
 21
-11.0890981601
  0
LINE
  5
25B
100
AcDbEntity
  8
RACCORDO
100
AcDbLine
 62
7
  6
CONTINUOUS
 10
-1.9021950902
 20
-11.0520242242
 11
1.4668648021
 21
-11.0520242242
  0
LINE
  5
25C
100
AcDbEntity
  8
ASSI
100
AcDbLine
 62
7
  6
CONTINUOUS
 10
-1.9021950902
 20
-11.0520242242
 11
1.4668648021
 21
-11.0520242242
  0
LINE
  5
25D
100
AcDbEntity
  8
RACCORDO
100
AcDbLine
 62
7
  6
CONTINUOUS
 10
9.2978049098
 20
-11.0520242242
 11
12.6668648021
 21
-11.0520242242
  0
LINE
  5
25E
100
AcDbEntity
  8
ASSI
100
AcDbLine
 62
7
  6
CONTINUOUS
 10
9.2978049098
 20
-11.0520242242
 11
12.6668648021
 21
-11.0520242242
  0
LINE
  5
25F
100
AcDbEntity
  8
RACCORDO
100
AcDbLine
 62
7
  6
CONTINUOUS
 10
20.5978049098
 20
-11.0520242242
 11
23.9668648021
 21
-11.0520242242
  0
LINE
  5
260
100
AcDbEntity
  8
ASSI
100
AcDbLine
 62
7
  6
CONTINUOUS
 10
20.5978049098
 20
-11.0520242242
 11
23.9668648021
 21
-11.0520242242
  0
LINE
  5
261
100
AcDbEntity
  8
RACCORDO
100
AcDbLine
 62
7
  6
CONTINUOUS
 10
31.7978049098
 20
-11.0520242242
 11
35.1668648021
 21
-11.0520242242
  0
LINE
  5
262
100
AcDbEntity
  8
ASSI
100
AcDbLine
 62
7
  6
CONTINUOUS
 10
31.7978049098
 20
-11.0520242242
 11
35.1668648021
 21
-11.0520242242
  0
LINE
  5
263
100
AcDbEntity
  8
RACCORDO
100
AcDbLine
 62
253
  6
CONTINUOUS
 10
38.4153953349
 20
-10.9285112923
 11
-5.150725623
 21
-10.9285112923
  0
LINE
  5
264
100
AcDbEntity
  8
ASSI
100
AcDbLine
 62
253
  6
CONTINUOUS
 10
38.4153953349
 20
-10.9285112923
 11
-5.150725623
 21
-10.9285112923
  0
LINE
  5
265
100
AcDbEntity
  8
RACCORDO
100
AcDbLine
 62
7
  6
CONTINUOUS
 10
13.1907598489
 20
-11.0890981601
 11
12.8400698829
 21
-11.0572650021
  0
LINE
  5
266
100
AcDbEntity
  8
ASSI
100
AcDbLine
 62
7
  6
CONTINUOUS
 10
13.1907598489
 20
-11.0890981601
 11
12.8400698829
 21
-11.0572650021
  0
LINE
  5
267
100
AcDbEntity
  8
RACCORDO
100
AcDbLine
 62
7
  6
CONTINUOUS
 10
24.4907598489
 20
-11.0890981601
 11
24.1400698829
 21
-11.0572650021
  0
LINE
  5
268
100
AcDbEntity
  8
ASSI
100
AcDbLine
 62
7
  6
CONTINUOUS
 10
24.4907598489
 20
-11.0890981601
 11
24.1400698829
 21
-11.0572650021
  0
LINE
  5
269
100
AcDbEntity
  8
RACCORDO
100
AcDbLine
 62
7
  6
CONTINUOUS
 10
-2.426090137
 20
-11.0890981601
 11
-2.075400171
 21
-11.0572650021
  0
LINE
  5
26A
100
AcDbEntity
  8
ASSI
100
AcDbLine
 62
7
  6
CONTINUOUS
 10
-2.426090137
 20
-11.0890981601
 11
-2.075400171
 21
-11.0572650021
  0
LINE
  5
26B
100
AcDbEntity
  8
RACCORDO
100
AcDbLine
 62
253
  6
CONTINUOUS
 10
38.3988683442
 20
-9.49224009
 11
-5.1341986323
 21
-9.4922400902
  0
LINE
  5
26C
100
AcDbEntity
  8
ASSI
100
AcDbLine
 62
253
  6
CONTINUOUS
 10
38.3988683442
 20
-9.49224009
 11
-5.1341986323
 21
-9.4922400902
  0
LINE
  5
26D
100
AcDbEntity
  8
RACCORDO
100
AcDbLine
 62
7
  6
CONTINUOUS
 10
35.6907598489
 20
-11.0890981601
 11
35.3400698829
 21
-11.0572650021
  0
LINE
  5
26E
100
AcDbEntity
  8
ASSI
100
AcDbLine
 62
7
  6
CONTINUOUS
 10
35.6907598489
 20
-11.0890981601
 11
35.3400698829
 21
-11.0572650021
  0
LINE
  5
26F
100
AcDbEntity
  8
CURVE
100
AcDbLine
 62
253
  6
CONTINUOUS
 10
16.632334856
 20
-4.6797854544
 11
16.632334856
 21
0.8202145496
  0
LINE
  5
270
100
AcDbEntity
  8
RACCORDO
100
AcDbLine
 62
253
  6
CONTINUOUS
 10
38.7823348548
 20
10.9702145456
 11
38.6914487478
 21
10.924774953
  0
LINE
  5
271
100
AcDbEntity
  8
ASSI
100
AcDbLine
 62
253
  6
CONTINUOUS
 10
38.7823348548
 20
10.9702145456
 11
38.6914487478
 21
10.924774953
  0
LINE
  5
272
100
AcDbEntity
  8
RACCORDO
100
AcDbLine
 62
253
  6
CONTINUOUS
 10
-5.6267485749
 20
10.7247825683
 11
-5.717665144
 21
10.7702373909
  0
LINE
  5
273
100
AcDbEntity
  8
ASSI
100
AcDbLine
 62
253
  6
CONTINUOUS
 10
-5.6267485749
 20
10.7247825683
 11
-5.717665144
 21
10.7702373909
  0
LINE
  5
274
100
AcDbEntity
  8
RACCORDO
100
AcDbLine
 62
253
  6
CONTINUOUS
 10
-5.4267790359
 20
10.924774953
 11
-5.5176651429
 21
10.9702145456
  0
LINE
  5
275
100
AcDbEntity
  8
ASSI
100
AcDbLine
 62
253
  6
CONTINUOUS
 10
-5.4267790359
 20
10.924774953
 11
-5.5176651429
 21
10.9702145456
  0
LINE
  5
276
100
AcDbEntity
  8
RACCORDO
100
AcDbLine
 62
253
  6
CONTINUOUS
 10
38.982334856
 20
10.7702373909
 11
38.8914182868
 21
10.7247825683
  0
LINE
  5
277
100
AcDbEntity
  8
ASSI
100
AcDbLine
 62
253
  6
CONTINUOUS
 10
38.982334856
 20
10.7702373909
 11
38.8914182868
 21
10.7247825683
  0
LINE
  5
278
100
AcDbEntity
  8
DRAFT
100
AcDbLine
 62
7
  6
CONTINUOUS
 10
36.3948008465
 20
10.9702145456
 11
36.132334856
 21
10.9440339422
  0
LINE
  5
279
100
AcDbEntity
  8
ASSI
100
AcDbLine
 62
7
  6
CONTINUOUS
 10
36.3948008465
 20
10.9702145456
 11
36.132334856
 21
10.9440339422
  0
LINE
  5
27A
100
AcDbEntity
  8
DRAFT
100
AcDbLine
 62
7
  6
CONTINUOUS
 10
-3.1301311346
 20
10.9702145456
 11
-2.867665144
 21
10.9440339422
  0
LINE
  5
27B
100
AcDbEntity
  8
ASSI
100
AcDbLine
 62
7
  6
CONTINUOUS
 10
-3.1301311346
 20
10.9702145456
 11
-2.867665144
 21
10.9440339422
  0
LINE
  5
27C
100
AcDbEntity
  8
RACCORDO
100
AcDbLine
 62
253
  6
CONTINUOUS
 10
38.391481986
 20
10.7220709561
 11
-5.126812274
 21
10.7220709561
  0
LINE
  5
27D
100
AcDbEntity
  8
ASSI
100
AcDbLine
 62
253
  6
CONTINUOUS
 10
38.391481986
 20
10.7220709561
 11
-5.126812274
 21
10.7220709561
  0
LINE
  5
27E
100
AcDbEntity
  8
RACCORDO
100
AcDbLine
 62
253
  6
CONTINUOUS
 10
38.3914944679
 20
10.922202599
 11
-5.1268247559
 21
10.922202599
  0
LINE
  5
27F
100
AcDbEntity
  8
ASSI
100
AcDbLine
 62
7
  6
CONTINUOUS
 10
38.3914944679
 20
10.922202599
 11
-5.1268247559
 21
10.922202599
  0
LINE
  5
280
100
AcDbEntity
  8
DRAFT
100
AcDbLine
 62
7
  6
CONTINUOUS
 10
-2.867665144
 20
10.9440339422
 11
36.132334856
 21
10.9440339422
  0
LINE
  5
281
100
AcDbEntity
  8
ASSI
100
AcDbLine
 62
7
  6
CONTINUOUS
 10
-2.867665144
 20
10.9440339422
 11
36.132334856
 21
10.9440339422
  0
LINE
  5
282
100
AcDbEntity
  8
RACCORDO
100
AcDbLine
 62
7
  6
CONTINUOUS
 10
-5.5176651429
 20
10.9702145456
 11
-3.1301311346
 21
10.9702145456
  0
LINE
  5
283
100
AcDbEntity
  8
ASSI
100
AcDbLine
 62
7
  6
CONTINUOUS
 10
-5.5176651429
 20
10.9702145456
 11
-3.1301311346
 21
10.9702145456
  0
LINE
  5
284
100
AcDbEntity
  8
RACCORDO
100
AcDbLine
 62
7
  6
CONTINUOUS
 10
36.3948008465
 20
10.9702145456
 11
38.7823348548
 21
10.9702145456
  0
LINE
  5
285
100
AcDbEntity
  8
ASSI
100
AcDbLine
 62
7
  6
CONTINUOUS
 10
36.3948008465
 20
10.9702145456
 11
38.7823348548
 21
10.9702145456
  0
LINE
  5
286
100
AcDbEntity
  8
RACCORDO
100
AcDbLine
 62
253
  6
CONTINUOUS
 10
38.4153953349
 20
-10.9285112923
 11
38.4688807953
 21
-11.0890981601
  0
LINE
  5
287
100
AcDbEntity
  8
ASSI
100
AcDbLine
 62
253
  6
CONTINUOUS
 10
38.4153953349
 20
-10.9285112923
 11
38.4688807953
 21
-11.0890981601
  0
LINE
  5
288
100
AcDbEntity
  8
RACCORDO
100
AcDbLine
 62
253
  6
CONTINUOUS
 10
38.9153189774
 20
-10.429195909
 11
38.9692606186
 21
-10.5911524323
  0
LINE
  5
289
100
AcDbEntity
  8
ASSI
100
AcDbLine
 62
253
  6
CONTINUOUS
 10
38.9153189774
 20
-10.429195909
 11
38.9692606186
 21
-10.5911524323
  0
LINE
  5
28A
100
AcDbEntity
  8
RACCORDO
100
AcDbLine
 62
253
  6
CONTINUOUS
 10
38.3914944679
 20
10.7220709561
 11
38.3914944679
 21
10.922202599
  0
LINE
  5
28B
100
AcDbEntity
  8
ASSI
100
AcDbLine
 62
253
  6
CONTINUOUS
 10
38.3914944679
 20
10.7220709561
 11
38.3914944679
 21
10.922202599
  0
LINE
  5
28C
100
AcDbEntity
  8
RACCORDO
100
AcDbLine
 62
7
  6
CONTINUOUS
 10
38.982334856
 20
10.7702373909
 11
38.982334856
 21
-2.0297854544
  0
LINE
  5
28D
100
AcDbEntity
  8
ASSI
100
AcDbLine
 62
7
  6
CONTINUOUS
 10
38.982334856
 20
10.7702373909
 11
38.982334856
 21
-2.0297854544
  0
LINE
  5
28E
100
AcDbEntity
  8
RACCORDO
100
AcDbLine
 62
7
  6
CONTINUOUS
 10
38.982334856
 20
-2.0297854544
 11
38.9692606186
 21
-10.5911524323
  0
LINE
  5
28F
100
AcDbEntity
  8
ASSI
100
AcDbLine
 62
7
  6
CONTINUOUS
 10
38.982334856
 20
-2.0297854544
 11
38.9692606186
 21
-10.5911524323
  0
LINE
  5
290
100
AcDbEntity
  8
RACCORDO
100
AcDbLine
 62
7
  6
CONTINUOUS
 10
-22.2306352731
 20
-10.9285112923
 11
-19.1664552979
 21
-11.0890981601
  0
LINE
  5
291
100
AcDbEntity
  8
ASSI
100
AcDbLine
 62
7
  6
CONTINUOUS
 10
-22.2306352731
 20
-10.9285112923
 11
-19.1664552979
 21
-11.0890981601
  0
LINE
  5
292
100
AcDbEntity
  8
RACCORDO
100
AcDbLine
 62
253
  6
CONTINUOUS
 10
-22.2132052508
 20
-10.429195909
 11
-19.1228906916
 21
-10.5911524323
  0
LINE
  5
293
100
AcDbEntity
  8
ASSI
100
AcDbLine
 62
253
  6
CONTINUOUS
 10
-22.2132052508
 20
-10.429195909
 11
-19.1228906916
 21
-10.5911524323
  0
LINE
  5
294
100
AcDbEntity
  8
RACCORDO
100
AcDbLine
 62
253
  6
CONTINUOUS
 10
-23.1600233065
 20
-9.4716913109
 11
-23.6508738343
 21
-9.4922537679
  0
LINE
  5
295
100
AcDbEntity
  8
ASSI
100
AcDbLine
 62
253
  6
CONTINUOUS
 10
-23.1600233065
 20
-9.4716913109
 11
-23.6508738343
 21
-9.4922537679
  0
LINE
  5
296
100
AcDbEntity
  8
RACCORDO
100
AcDbLine
 62
253
  6
CONTINUOUS
 10
-18.7738681368
 20
-6.8632770556
 11
-18.7967438571
 21
-6.8632770548
  0
LINE
  5
297
100
AcDbEntity
  8
ASSI
100
AcDbLine
 62
253
  6
CONTINUOUS
 10
-18.7738681368
 20
-6.8632770556
 11
-18.7967438571
 21
-6.8632770548
  0
LINE
  5
298
100
AcDbEntity
  8
RACCORDO
100
AcDbLine
 62
7
  6
CONTINUOUS
 10
-18.7738681368
 20
-6.6018063755
 11
-18.7738681368
 21
-6.8632770556
  0
LINE
  5
299
100
AcDbEntity
  8
ASSI
100
AcDbLine
 62
7
  6
CONTINUOUS
 10
-18.7738681368
 20
-6.6018063755
 11
-18.7738681368
 21
-6.8632770556
  0
LINE
  5
29A
100
AcDbEntity
  8
RACCORDO
100
AcDbLine
 62
7
  6
CONTINUOUS
 10
-18.3738681368
 20
10.9702145456
 11
-18.3738681368
 21
-2.0297854544
  0
LINE
  5
29B
100
AcDbEntity
  8
ASSI
100
AcDbLine
 62
7
  6
CONTINUOUS
 10
-18.3738681368
 20
10.9702145456
 11
-18.3738681368
 21
-2.0297854544
  0
LINE
  5
29C
100
AcDbEntity
  8
RACCORDO
100
AcDbLine
 62
7
  6
CONTINUOUS
 10
-18.3738681368
 20
-2.0297854544
 11
-19.1664552979
 21
-11.0890981601
  0
LINE
  5
29D
100
AcDbEntity
  8
ASSI
100
AcDbLine
 62
7
  6
CONTINUOUS
 10
-18.3738681368
 20
-2.0297854544
 11
-19.1664552979
 21
-11.0890981601
  0
LINE
  5
29E
100
AcDbEntity
  8
0
100
AcDbLine
 62
7
  6
CONTINUOUS
 10
-17.5738681368
 20
5.6702145456
 11
-17.5738681368
 21
7.4702145456
  0
LINE
  5
29F
100
AcDbEntity
  8
0
100
AcDbLine
 62
7
  6
CONTINUOUS
 10
-18.3738681368
 20
5.6302145456
 11
-17.5738681368
 21
5.6702145456
  0
LINE
  5
2A0
100
AcDbEntity
  8
0
100
AcDbLine
 62
7
  6
CONTINUOUS
 10
-18.3738681368
 20
7.5102145456
 11
-17.5738681368
 21
7.4702145456
  0
LINE
  5
2A1
100
AcDbEntity
  8
RACCORDO
100
AcDbLine
 62
253
  6
CONTINUOUS
 10
-18.3738681368
 20
10.7702373909
 11
-23.5824748949
 21
10.7247825683
  0
LINE
  5
2A2
100
AcDbEntity
  8
ASSI
100
AcDbLine
 62
253
  6
CONTINUOUS
 10
-18.3738681368
 20
10.7702373909
 11
-23.5824748949
 21
10.7247825683
  0
LINE
  5
2A3
100
AcDbEntity
  8
RACCORDO
100
AcDbLine
 62
7
  6
CONTINUOUS
 10
-18.3738681368
 20
10.9702145456
 11
-23.8754922872
 21
10.922202599
  0
LINE
  5
2A4
100
AcDbEntity
  8
ASSI
100
AcDbLine
 62
7
  6
CONTINUOUS
 10
-18.3738681368
 20
10.9702145456
 11
-23.8754922872
 21
10.922202599
  0
ARC
  5
2A5
100
AcDbEntity
  8
RACCORDO
100
AcDbCircle
 62
253
  6
CONTINUOUS
 10
16.6323348553
 20
6.5698042846
 40
1.4205643605
100
AcDbArc
 50
359.9802406462
 51
180.0197593538
  0
ARC
  5
2A6
100
AcDbEntity
  8
ASSI
100
AcDbCircle
 62
253
  6
CONTINUOUS
 10
16.6323348553
 20
6.5698042846
 40
1.4205643605
100
AcDbArc
 50
359.9802406462
 51
180.0197593538
  0
ARC
  5
2A7
100
AcDbEntity
  8
RACCORDO
100
AcDbCircle
 62
253
  6
CONTINUOUS
 10
16.6323348566
 20
6.5692708791
 40
1.4205642984
100
AcDbArc
 50
179.9982461073
 51
0.0017538927
  0
ARC
  5
2A8
100
AcDbEntity
  8
ASSI
100
AcDbCircle
 62
253
  6
CONTINUOUS
 10
16.6323348566
 20
6.5692708791
 40
1.4205642984
100
AcDbArc
 50
179.9982461073
 51
0.0017538927
  0
CIRCLE
  5
2A9
100
AcDbEntity
  8
RACCORDO
100
AcDbCircle
 62
253
  6
CONTINUOUS
 10
16.6323348561
 20
6.5704000274
 40
1.3206291745
  0
CIRCLE
  5
2AA
100
AcDbEntity
  8
ASSI
100
AcDbCircle
 62
253
  6
CONTINUOUS
 10
16.6323348561
 20
6.5704000274
 40
1.3206291745
  0
CIRCLE
  5
2AB
100
AcDbEntity
  8
DRAFT
100
AcDbCircle
 62
7
  6
CONTINUOUS
 10
16.632334856
 20
6.5702145456
 40
1.3
  0
CIRCLE
  5
2AC
100
AcDbEntity
  8
ASSI
100
AcDbCircle
 62
7
  6
CONTINUOUS
 10
16.632334856
 20
6.5702145456
 40
1.3
  0
CIRCLE
  5
2AD
100
AcDbEntity
  8
DRAFT
100
AcDbCircle
 62
7
  6
CONTINUOUS
 10
16.632334856
 20
6.5702145456
 40
1.225
  0
CIRCLE
  5
2AE
100
AcDbEntity
  8
RACCORDO
100
AcDbCircle
 62
253
  6
CONTINUOUS
 10
16.632334856
 20
6.5702145456
 40
1.2068524201
  0
CIRCLE
  5
2AF
100
AcDbEntity
  8
RACCORDO
100
AcDbCircle
 62
253
  6
CONTINUOUS
 10
16.632334856
 20
6.5702145456
 40
1.1180464865
  0
ARC
  5
2B0
100
AcDbEntity
  8
RACCORDO
100
AcDbCircle
 62
253
  6
CONTINUOUS
 10
-5.1505204558
 20
-10.4283053135
 40
0.5001711055
100
AcDbArc
 50
180.1020283288
 51
269.9765227258
  0
ARC
  5
2B1
100
AcDbEntity
  8
RACCORDO
100
AcDbCircle
 62
253
  6
CONTINUOUS
 10
38.4151901286
 20
-10.4283053524
 40
0.5001711055
100
AcDbArc
 50
270.0234817618
 51
359.8979761311
  0
ARC
  5
2B2
100
AcDbEntity
  8
ASSI
100
AcDbCircle
 62
253
  6
CONTINUOUS
 10
38.4151901286
 20
-10.4283053524
 40
0.5001711055
100
AcDbArc
 50
270.0234817618
 51
359.8979761311
  0
ARC
  5
2B3
100
AcDbEntity
  8
ASSI
100
AcDbCircle
 62
253
  6
CONTINUOUS
 10
-5.1505204558
 20
-10.4283053135
 40
0.5001711055
100
AcDbArc
 50
180.1020283288
 51
269.9765227258
  0
ARC
  5
2B4
100
AcDbEntity
  8
RACCORDO
100
AcDbCircle
 62
253
  6
CONTINUOUS
 10
-5.4267297551
 20
10.7247587569
 40
0.2000177349
100
AcDbArc
 50
90.0141167675
 51
179.9931791556
  0
ARC
  5
2B5
100
AcDbEntity
  8
RACCORDO
100
AcDbCircle
 62
253
  6
CONTINUOUS
 10
38.6913994739
 20
10.7247587638
 40
0.2000177349
100
AcDbArc
 50
0.0068188711
 51
89.9858852035
  0
ARC
  5
2B6
100
AcDbEntity
  8
ASSI
100
AcDbCircle
 62
253
  6
CONTINUOUS
 10
38.6913994739
 20
10.7247587638
 40
0.2000177349
100
AcDbArc
 50
0.0068188711
 51
89.9858852035
  0
ARC
  5
2B7
100
AcDbEntity
  8
ASSI
100
AcDbCircle
 62
253
  6
CONTINUOUS
 10
-5.4267297551
 20
10.7247587569
 40
0.2000177349
100
AcDbArc
 50
90.0141167675
 51
179.9931791556
  0
ARC
  5
2B8
100
AcDbEntity
  8
RACCORDO
100
AcDbCircle
 62
7
  6
CONTINUOUS
 10
-22.1521430913
 20
-9.4305663742
 40
1.5
100
AcDbArc
 50
182.3564266604
 51
267.0004495319
  0
ARC
  5
2B9
100
AcDbEntity
  8
ASSI
100
AcDbCircle
 62
7
  6
CONTINUOUS
 10
-22.1521430913
 20
-9.4305663742
 40
1.5
100
AcDbArc
 50
182.3564266604
 51
267.0004495319
  0
ARC
  5
2BA
100
AcDbEntity
  8
RACCORDO
100
AcDbCircle
 62
253
  6
CONTINUOUS
 10
-22.1608692887
 20
-9.4305663685
 40
1.0000000061
100
AcDbArc
 50
182.3569503067
 51
266.9999996841
  0
ARC
  5
2BB
100
AcDbEntity
  8
ASSI
100
AcDbCircle
 62
253
  6
CONTINUOUS
 10
-22.1608692887
 20
-9.4305663685
 40
1.0000000061
100
AcDbArc
 50
182.3569503067
 51
266.9999996841
  0
ARC
  5
2BC
100
AcDbEntity
  8
RACCORDO
100
AcDbCircle
 62
7
  6
CONTINUOUS
 10
-19.0738681368
 20
-6.8632770556
 40
0.3
100
AcDbArc
 50
335.0
 51
360.0
  0
ARC
  5
2BD
100
AcDbEntity
  8
ASSI
100
AcDbCircle
 62
7
  6
CONTINUOUS
 10
-19.0738681368
 20
-6.8632770556
 40
0.3
100
AcDbArc
 50
335.0
 51
360.0
  0
ARC
  5
2BE
100
AcDbEntity
  8
RACCORDO
100
AcDbCircle
 62
7
  6
CONTINUOUS
 10
-23.8737465873
 20
10.7222102178
 40
0.2
100
AcDbArc
 50
90.5001125223
 51
180.0398954802
  0
ARC
  5
2BF
100
AcDbEntity
  8
ASSI
100
AcDbCircle
 62
7
  6
CONTINUOUS
 10
-23.8737465873
 20
10.7222102178
 40
0.2
100
AcDbArc
 50
90.5001125223
 51
180.0398954802
  0
ARC
  5
2C0
100
AcDbEntity
  8
RACCORDO
100
AcDbCircle
 62
7
  6
CONTINUOUS
 10
475.9261318632
 20
11.0702145456
 40
500.0
100
AcDbArc
 50
180.0398943199
 51
182.3569484208
  0
ARC
  5
2C1
100
AcDbEntity
  8
ASSI
100
AcDbCircle
 62
7
  6
CONTINUOUS
 10
475.9261318632
 20
11.0702145456
 40
500.0
100
AcDbArc
 50
180.0398943199
 51
182.3569484208
  0
ARC
  5
2C2
100
AcDbEntity
  8
RACCORDO
100
AcDbCircle
 62
253
  6
CONTINUOUS
 10
475.9174000027
 20
11.0702143675
 40
499.4999943402
100
AcDbArc
 50
180.0396231952
 51
182.356949997
  0
ARC
  5
2C3
100
AcDbEntity
  8
ASSI
100
AcDbCircle
 62
253
  6
CONTINUOUS
 10
475.9174000027
 20
11.0702143675
 40
499.4999943402
100
AcDbArc
 50
180.0396231952
 51
182.356949997
  0
SPLINE
  5
2C4
100
AcDbEntity
  8
RACCORDO
100
AcDbSpline
 62
253
  6
CONTINUOUS
 70
0
 71
3
 72
18
 73
14
 74
12
 42
0.0000001
 43
0.0000001
 44
0.0000000001
 12
-0.299989706
 22
0.000000142
 32
0.0
 13
-0.2684874758
 23
0.133821893
 33
0.0
 40
0.0
 40
0.0
 40
0.0
 40
0.0
 40
0.1406746255
 40
0.2786286441
 40
0.4110478798
 40
0.5352794916
 40
0.6488611016
 40
0.7495250868
 40
0.8352602903
 40
0.9043609514
 40
0.955459893
 40
0.9875422799
 40
1.0
 40
1.0
 40
1.0
 40
1.0
 10
-5.1268247559
 20
10.922202599
 30
0.0
 10
-5.1408917358
 20
10.9222026057
 30
0.0
 10
-5.1687536599
 20
10.922219576
 30
0.0
 10
-5.2098569221
 20
10.9222960561
 30
0.0
 10
-5.2493160576
 20
10.9224209647
 30
0.0
 10
-5.2863370088
 20
10.9225946464
 30
0.0
 10
-5.3201849903
 20
10.9228033453
 30
0.0
 10
-5.3501745364
 20
10.9230739231
 30
0.0
 10
-5.3757410457
 20
10.9233047168
 30
0.0
 10
-5.396280523
 20
10.9237561671
 30
0.0
 10
-5.4116262128
 20
10.9237351
 30
0.0
 10
-5.4209585849
 20
10.9246814875
 30
0.0
 10
-5.4256641219
 20
10.9242192477
 30
0.0
 10
-5.4267790359
 20
10.924774953
 30
0.0
 11
-5.1268247559
 21
10.922202599
 31
0.0
 11
-5.1690256875
 21
10.9222286307
 31
0.0
 11
-5.2104104001
 21
10.9223062702
 31
0.0
 11
-5.2501346024
 21
10.9224339806
 31
0.0
 11
-5.2874023952
 21
10.9226092127
 31
0.0
 11
-5.3214750033
 21
10.9228284955
 31
0.0
 11
-5.3516720523
 21
10.9230874603
 31
0.0
 11
-5.3773900564
 21
10.9233809307
 31
0.0
 11
-5.3981170405
 21
10.9237030502
 31
0.0
 11
-5.4134423281
 21
10.9240474335
 31
0.0
 11
-5.4230599881
 21
10.9244071811
 31
0.0
 11
-5.4267790359
 21
10.924774953
 31
0.0
  0
SPLINE
  5
2C5
100
AcDbEntity
  8
RACCORDO
100
AcDbSpline
 62
253
  6
CONTINUOUS
 70
0
 71
3
 72
18
 73
14
 74
12
 42
0.0000001
 43
0.0000001
 44
0.0000000001
 12
-0.2684874777
 22
-0.1338218893
 32
0.0
 13
-0.299989706
 23
-0.000000142
 33
0.0
 40
0.0
 40
0.0
 40
0.0
 40
0.0
 40
0.01245772
 40
0.0445401068
 40
0.0956390483
 40
0.1647397093
 40
0.2504749128
 40
0.351138898
 40
0.4647205079
 40
0.5889521196
 40
0.7213713552
 40
0.8593253738
 40
1.0
 40
1.0
 40
1.0
 40
1.0
 10
38.6914487478
 20
10.924774953
 30
0.0
 10
38.6903338338
 20
10.9242192478
 30
0.0
 10
38.6856282969
 20
10.9246814875
 30
0.0
 10
38.6762959247
 20
10.9237351
 30
0.0
 10
38.660950235
 20
10.9237561671
 30
0.0
 10
38.6404107578
 20
10.9233047168
 30
0.0
 10
38.6148442484
 20
10.9230739231
 30
0.0
 10
38.5848547023
 20
10.9228033453
 30
0.0
 10
38.5510067208
 20
10.9225946464
 30
0.0
 10
38.5139857697
 20
10.9224209647
 30
0.0
 10
38.4745266342
 20
10.9222960561
 30
0.0
 10
38.433423372
 20
10.922219576
 30
0.0
 10
38.4055614478
 20
10.9222026057
 30
0.0
 10
38.3914944679
 20
10.922202599
 30
0.0
 11
38.6914487478
 21
10.924774953
 31
0.0
 11
38.6877297
 21
10.9244071811
 31
0.0
 11
38.67811204
 21
10.9240474335
 31
0.0
 11
38.6627867525
 21
10.9237030502
 31
0.0
 11
38.6420597684
 21
10.9233809307
 31
0.0
 11
38.6163417643
 21
10.9230874603
 31
0.0
 11
38.5861447154
 21
10.9228284955
 31
0.0
 11
38.5520721072
 21
10.9226092127
 31
0.0
 11
38.5148043145
 21
10.9224339806
 31
0.0
 11
38.4750801122
 21
10.9223062702
 31
0.0
 11
38.4336953996
 21
10.9222286307
 31
0.0
 11
38.3914944679
 21
10.922202599
 31
0.0
  0
SPLINE
  5
2C6
100
AcDbEntity
  8
RACCORDO
100
AcDbSpline
 62
253
  6
CONTINUOUS
 70
0
 71
3
 72
21
 73
17
 74
15
 42
0.0000001
 43
0.0000001
 44
0.0000000001
 12
0.3113269094
 22
1.402385911
 32
0.0
 13
0.0006885319
 23
1.4365271365
 33
0.0
 40
0.0
 40
0.0
 40
0.0
 40
0.0
 40
0.0116253613
 40
0.0346870886
 40
0.0689537638
 40
0.1140486773
 40
0.1694730336
 40
0.2346119018
 40
0.3087402368
 40
0.3910339711
 40
0.4805783092
 40
0.5763759237
 40
0.6773619052
 40
0.7824150232
 40
0.8903612899
 40
1.0
 40
1.0
 40
1.0
 40
1.0
 10
-5.150725554
 20
-10.9285112923
 30
0.0
 10
-5.1495191247
 20
-10.9230768779
 30
0.0
 10
-5.1485968661
 20
-10.9063978403
 30
0.0
 10
-5.1466523329
 20
-10.8735051919
 30
0.0
 10
-5.1451547686
 20
-10.8244451112
 30
0.0
 10
-5.1434690469
 20
-10.7599409479
 30
0.0
 10
-5.141940315
 20
-10.6806254427
 30
0.0
 10
-5.1404759619
 20
-10.5874122042
 30
0.0
 10
-5.1391381376
 20
-10.481327073
 30
0.0
 10
-5.1379301543
 20
-10.363554234
 30
0.0
 10
-5.1368713066
 20
-10.2354031483
 30
0.0
 10
-5.1359728688
 20
-10.0983000875
 30
0.0
 10
-5.135245827
 20
-9.9537696333
 30
0.0
 10
-5.1346985144
 20
-9.8034210686
 30
0.0
 10
-5.1343372972
 20
-9.6489286401
 30
0.0
 10
-5.1342237955
 20
-9.5447397509
 30
0.0
 10
-5.1341986323
 20
-9.4922400902
 30
0.0
 11
-5.150725554
 21
-10.9285112923
 31
0.0
 11
-5.1488946526
 21
-10.9119118111
 31
0.0
 11
-5.1470942947
 21
-10.878831966
 31
0.0
 11
-5.1453443796
 21
-10.8296380654
 31
0.0
 11
-5.1436645578
 21
-10.7648797746
 31
0.0
 11
-5.1420734516
 21
-10.6852770735
 31
0.0
 11
-5.1405887648
 21
-10.5917150901
 31
0.0
 11
-5.1392270328
 21
-10.4852364202
 31
0.0
 11
-5.1380033954
 21
-10.367025557
 31
0.0
 11
-5.1369314565
 21
-10.2383971371
 31
0.0
 11
-5.1360231496
 21
-10.1007842461
 31
0.0
 11
-5.1352885689
 21
-9.9557169864
 31
0.0
 11
-5.1347358651
 21
-9.8048063264
 31
0.0
 11
-5.1343712132
 21
-9.6497389959
 31
0.0
 11
-5.1341986323
 21
-9.4922400902
 31
0.0
  0
SPLINE
  5
2C7
100
AcDbEntity
  8
RACCORDO
100
AcDbSpline
 62
253
  6
CONTINUOUS
 70
0
 71
3
 72
21
 73
17
 74
15
 42
0.0000001
 43
0.0000001
 44
0.0000000001
 12
0.0006885319
 22
-1.4365271366
 32
0.0
 13
0.3113269084
 23
-1.4023859114
 33
0.0
 40
0.0
 40
0.0
 40
0.0
 40
0.0
 40
0.1096387099
 40
0.2175849767
 40
0.3226380947
 40
0.4236240761
 40
0.5194216906
 40
0.6089660287
 40
0.6912597631
 40
0.765388098
 40
0.8305269663
 40
0.8859513226
 40
0.9310462361
 40
0.9653129114
 40
0.9883746386
 40
1.0
 40
1.0
 40
1.0
 40
1.0
 10
38.3988683442
 20
-9.49224009
 30
0.0
 10
38.3988935074
 20
-9.5447397507
 30
0.0
 10
38.3990070092
 20
-9.6489286399
 30
0.0
 10
38.3993682264
 20
-9.8034210683
 30
0.0
 10
38.399915539
 20
-9.953769633
 30
0.0
 10
38.4006425807
 20
-10.0983000872
 30
0.0
 10
38.4015410185
 20
-10.235403148
 30
0.0
 10
38.4025998662
 20
-10.3635542338
 30
0.0
 10
38.4038078496
 20
-10.4813270728
 30
0.0
 10
38.4051456738
 20
-10.587412204
 30
0.0
 10
38.4066100269
 20
-10.6806254425
 30
0.0
 10
38.4081387588
 20
-10.7599409477
 30
0.0
 10
38.4098244805
 20
-10.824445111
 30
0.0
 10
38.4113220448
 20
-10.8735051917
 30
0.0
 10
38.413266578
 20
-10.9063978402
 30
0.0
 10
38.4141888366
 20
-10.9230768779
 30
0.0
 10
38.4153952659
 20
-10.9285112922
 30
0.0
 11
38.3988683442
 21
-9.49224009
 31
0.0
 11
38.3990409251
 21
-9.6497389956
 31
0.0
 11
38.399405577
 21
-9.8048063261
 31
0.0
 11
38.3999582808
 21
-9.9557169861
 31
0.0
 11
38.4006928615
 21
-10.1007842458
 31
0.0
 11
38.4016011684
 21
-10.2383971368
 31
0.0
 11
38.4026731073
 21
-10.3670255568
 31
0.0
 11
38.4038967447
 21
-10.48523642
 31
0.0
 11
38.4052584767
 21
-10.5917150898
 31
0.0
 11
38.4067431635
 21
-10.6852770733
 31
0.0
 11
38.4083342697
 21
-10.7648797744
 31
0.0
 11
38.4100140915
 21
-10.8296380653
 31
0.0
 11
38.4117640066
 21
-10.8788319659
 31
0.0
 11
38.4135643645
 21
-10.911911811
 31
0.0
 11
38.4153952659
 21
-10.9285112922
 31
0.0
  0
SPLINE
  5
2C8
100
AcDbEntity
  8
RACCORDO
100
AcDbSpline
 62
253
  6
CONTINUOUS
 70
0
 71
3
 72
11
 73
7
 74
5
 42
0.0000001
 43
0.0000001
 44
0.0000000001
 12
0.0002437994
 22
-20.1964756175
 32
0.0
 13
0.0145100747
 23
-20.1964704066
 33
0.0
 40
0.0
 40
0.0
 40
0.0
 40
0.0
 40
0.2500744177
 40
0.5001049865
 40
0.750083017
 40
1.0
 40
1.0
 40
1.0
 40
1.0
 10
38.8914182868
 20
10.7247825683
 30
0.0
 10
38.8914386095
 20
9.0412419417
 30
0.0
 10
38.8917763518
 20
5.6744558823
 30
0.0
 10
38.893174211
 20
0.624778262
 30
0.0
 10
38.8954631406
 20
-4.4238391574
 30
0.0
 10
38.8975834354
 20
-7.789210994
 30
0.0
 10
38.8987922067
 20
-9.4716913109
 30
0.0
 11
38.8914182868
 21
10.7247825683
 31
0.0
 11
38.8919249715
 21
5.6741607135
 31
0.0
 11
38.893322918
 21
0.62442462
 31
0.0
 11
38.8956119909
 21
-4.4242500594
 31
0.0
 11
38.8987922067
 21
-9.4716913109
 31
0.0
  0
SPLINE
  5
2C9
100
AcDbEntity
  8
RACCORDO
100
AcDbSpline
 62
253
  6
CONTINUOUS
 70
0
 71
3
 72
21
 73
17
 74
15
 42
0.0000001
 43
0.0000001
 44
0.0000000001
 12
0.0006885301
 22
-0.957887823
 32
0.0
 13
0.3025944495
 23
-0.9088378044
 33
0.0
 40
0.0
 40
0.0
 40
0.0
 40
0.0
 40
0.1095890288
 40
0.2175144953
 40
0.3225483467
 40
0.423516912
 40
0.519299397
 40
0.6088312783
 40
0.6911156636
 40
0.7652382519
 40
0.8303754916
 40
0.8858030898
 40
0.9309078341
 40
0.965194018
 40
0.9882927082
 40
1.0
 40
1.0
 40
1.0
 40
1.0
 10
38.8987922067
 20
-9.4716913109
 30
0.0
 10
38.8988173585
 20
-9.506682643
 30
0.0
 10
38.8989308452
 20
-9.5761341104
 30
0.0
 10
38.8992920196
 20
-9.6791219418
 30
0.0
 10
38.8998393087
 20
-9.7793564386
 30
0.0
 10
38.9005663543
 20
-9.8757124983
 30
0.0
 10
38.9014647865
 20
-9.9671171463
 30
0.0
 10
38.9025236776
 20
-10.0525539991
 30
0.0
 10
38.9037316101
 20
-10.1310718513
 30
0.0
 10
38.9050697397
 20
-10.2017984871
 30
0.0
 10
38.9065333666
 20
-10.2639416403
 30
0.0
 10
38.9080645208
 20
-10.3168256047
 30
0.0
 10
38.9097440655
 20
-10.3598189732
 30
0.0
 10
38.9112577342
 20
-10.3925618889
 30
0.0
 10
38.913172081
 20
-10.4144443767
 30
0.0
 10
38.9141381235
 20
-10.4256492325
 30
0.0
 10
38.9153189774
 20
-10.429195909
 30
0.0
 11
38.8987922067
 21
-9.4716913109
 31
0.0
 11
38.8989647314
 21
-9.5766651924
 31
0.0
 11
38.8993293659
 21
-9.6800450662
 31
0.0
 11
38.8998820513
 21
-9.7806542215
 31
0.0
 11
38.9006166275
 21
-9.877368016
 31
0.0
 11
38.9015249358
 21
-9.9691124196
 31
0.0
 11
38.9025968877
 21
-10.054867241
 31
0.0
 11
38.9038205485
 21
-10.1336769729
 31
0.0
 11
38.9051823151
 21
-10.2046650558
 31
0.0
 11
38.9066670458
 21
-10.2670415728
 31
0.0
 11
38.908258194
 21
-10.3201111601
 31
0.0
 11
38.9099380664
 21
-10.3632837866
 31
0.0
 11
38.9116880033
 21
-10.396079459
 31
0.0
 11
38.9134884388
 21
-10.4181320446
 31
0.0
 11
38.9153189774
 21
-10.429195909
 31
0.0
  0
SPLINE
  5
2CA
100
AcDbEntity
  8
RACCORDO
100
AcDbSpline
 62
253
  6
CONTINUOUS
 70
0
 71
3
 72
11
 73
7
 74
5
 42
0.0000001
 43
0.0000001
 44
0.0000000001
 12
0.0002454386
 22
-20.2143127839
 32
0.0
 13
0.0145083669
 23
-20.2143075788
 33
0.0
 40
0.0
 40
0.0
 40
0.0
 40
0.0
 40
0.2500749619
 40
0.5001055662
 40
0.7500836323
 40
1.0
 40
1.0
 40
1.0
 40
1.0
 10
38.391481986
 20
10.7220709561
 30
0.0
 10
38.3915024453
 20
9.0370397898
 30
0.0
 10
38.391858668
 20
5.6672763407
 30
0.0
 10
38.393249272
 20
0.6131347884
 30
0.0
 10
38.3955400923
 20
-4.4399378136
 30
0.0
 10
38.3976597244
 20
-7.8082779816
 30
0.0
 10
38.3988683505
 20
-9.49224009
 30
0.0
 11
38.391481986
 21
10.7220709561
 31
0.0
 11
38.3920014597
 21
5.6669774835
 31
0.0
 11
38.3933995036
 21
0.6127808343
 31
0.0
 11
38.3956884645
 21
-4.4403534643
 31
0.0
 11
38.3988683505
 21
-9.49224009
 31
0.0
  0
SPLINE
  5
2CB
100
AcDbEntity
  8
RACCORDO
100
AcDbSpline
 62
253
  6
CONTINUOUS
 70
0
 71
3
 72
11
 73
7
 74
5
 42
0.0000001
 43
0.0000001
 44
0.0000000001
 12
0.0145083669
 22
20.214307579
 32
0.0
 13
0.0002454386
 23
20.214312784
 33
0.0
 40
0.0
 40
0.0
 40
0.0
 40
0.0
 40
0.2499163677
 40
0.4998944338
 40
0.7499250381
 40
1.0
 40
1.0
 40
1.0
 40
1.0
 10
-5.1341986386
 20
-9.4922400902
 30
0.0
 10
-5.1329900125
 20
-7.8082779817
 30
0.0
 10
-5.1308703804
 20
-4.4399378137
 30
0.0
 10
-5.1285795601
 20
0.6131347884
 30
0.0
 10
-5.1271889561
 20
5.6672763407
 30
0.0
 10
-5.1268327334
 20
9.0370397898
 30
0.0
 10
-5.126812274
 20
10.7220709561
 30
0.0
 11
-5.1341986386
 21
-9.4922400902
 31
0.0
 11
-5.1310187526
 21
-4.4403534643
 31
0.0
 11
-5.1287297917
 21
0.6127808343
 31
0.0
 11
-5.1273317477
 21
5.6669774835
 31
0.0
 11
-5.126812274
 21
10.7220709561
 31
0.0
  0
SPLINE
  5
2CC
100
AcDbEntity
  8
RACCORDO
100
AcDbSpline
 62
253
  6
CONTINUOUS
 70
0
 71
3
 72
21
 73
17
 74
15
 42
0.0000001
 43
0.0000001
 44
0.0000000001
 12
0.3025944467
 22
0.9088378053
 32
0.0
 13
0.0006885301
 23
0.957887823
 33
0.0
 40
0.0
 40
0.0
 40
0.0
 40
0.0
 40
0.0117072917
 40
0.034805982
 40
0.0690921658
 40
0.1141969101
 40
0.1696245083
 40
0.2347617479
 40
0.3088843362
 40
0.3911687215
 40
0.4807006028
 40
0.5764830878
 40
0.6774516531
 40
0.7824855045
 40
0.890410971
 40
1.0
 40
1.0
 40
1.0
 40
1.0
 10
-5.6506492654
 20
-10.429195909
 30
0.0
 10
-5.6494684116
 20
-10.4256492325
 30
0.0
 10
-5.6485023691
 20
-10.4144443767
 30
0.0
 10
-5.6465880223
 20
-10.392561889
 30
0.0
 10
-5.6450743536
 20
-10.3598189733
 30
0.0
 10
-5.6433948089
 20
-10.3168256048
 30
0.0
 10
-5.6418636547
 20
-10.2639416404
 30
0.0
 10
-5.6404000278
 20
-10.2017984873
 30
0.0
 10
-5.6390618982
 20
-10.1310718515
 30
0.0
 10
-5.6378539657
 20
-10.0525539992
 30
0.0
 10
-5.6367950746
 20
-9.9671171465
 30
0.0
 10
-5.6358966424
 20
-9.8757124985
 30
0.0
 10
-5.6351695968
 20
-9.7793564388
 30
0.0
 10
-5.6346223077
 20
-9.679121942
 30
0.0
 10
-5.6342611333
 20
-9.5761341105
 30
0.0
 10
-5.6341476466
 20
-9.506682643
 30
0.0
 10
-5.6341224948
 20
-9.4716913109
 30
0.0
 11
-5.6506492654
 21
-10.429195909
 31
0.0
 11
-5.6488187269
 21
-10.4181320446
 31
0.0
 11
-5.6470182914
 21
-10.3960794591
 31
0.0
 11
-5.6452683545
 21
-10.3632837867
 31
0.0
 11
-5.6435884821
 21
-10.3201111602
 31
0.0
 11
-5.6419973339
 21
-10.267041573
 31
0.0
 11
-5.6405126031
 21
-10.2046650559
 31
0.0
 11
-5.6391508366
 21
-10.1336769731
 31
0.0
 11
-5.6379271758
 21
-10.0548672412
 31
0.0
 11
-5.6368552239
 21
-9.9691124198
 31
0.0
 11
-5.6359469155
 21
-9.8773680162
 31
0.0
 11
-5.6352123394
 21
-9.7806542217
 31
0.0
 11
-5.634659654
 21
-9.6800450664
 31
0.0
 11
-5.6342950195
 21
-9.5766651926
 31
0.0
 11
-5.6341224948
 21
-9.4716913109
 31
0.0
  0
SPLINE
  5
2CD
100
AcDbEntity
  8
RACCORDO
100
AcDbSpline
 62
253
  6
CONTINUOUS
 70
0
 71
3
 72
11
 73
7
 74
5
 42
0.0000001
 43
0.0000001
 44
0.0000000001
 12
0.0145100747
 22
20.1964704066
 32
0.0
 13
0.0002437994
 23
20.1964756175
 33
0.0
 40
0.0
 40
0.0
 40
0.0
 40
0.0
 40
0.249916983
 40
0.4998950135
 40
0.7499255823
 40
1.0
 40
1.0
 40
1.0
 40
1.0
 10
-5.6341224948
 20
-9.4716913109
 30
0.0
 10
-5.6329137234
 20
-7.789210994
 30
0.0
 10
-5.6307934287
 20
-4.4238391574
 30
0.0
 10
-5.6285044991
 20
0.624778262
 30
0.0
 10
-5.6271066398
 20
5.6744558823
 30
0.0
 10
-5.6267688976
 20
9.0412419417
 30
0.0
 10
-5.6267485749
 20
10.7247825683
 30
0.0
 11
-5.6341224948
 21
-9.4716913109
 31
0.0
 11
-5.630942279
 21
-4.4242500594
 31
0.0
 11
-5.6286532061
 21
0.62442462
 31
0.0
 11
-5.6272552596
 21
5.6741607135
 31
0.0
 11
-5.6267485749
 21
10.7247825683
 31
0.0
  0
SPLINE
  5
2CE
100
AcDbEntity
  8
RACCORDO
100
AcDbSpline
 62
253
  6
CONTINUOUS
 70
0
 71
3
 72
17
 73
13
 74
11
 42
0.0000001
 43
0.0000001
 44
0.0000000001
 12
0.1956282812
 22
-0.461440029
 32
0.0
 13
0.5011957657
 23
-0.0003594732
 33
0.0
 40
0.0
 40
0.0
 40
0.0
 40
0.0
 40
0.0160132903
 40
0.0548770558
 40
0.1162690414
 40
0.1988277038
 40
0.3006095192
 40
0.4191865661
 40
0.551717786
 40
0.6950219317
 40
0.8456561653
 40
1.0
 40
1.0
 40
1.0
 40
1.0
 10
-5.6341224948
 20
-9.4716913109
 30
0.0
 10
-5.6330782773
 20
-9.4741543686
 30
0.0
 10
-5.621780636
 20
-9.4752986754
 30
0.0
 10
-5.6045479532
 20
-9.478988641
 30
0.0
 10
-5.5730609032
 20
-9.4812046985
 30
0.0
 10
-5.5325316628
 20
-9.4840312743
 30
0.0
 10
-5.4818149031
 20
-9.4863109797
 30
0.0
 10
-5.4229485418
 20
-9.4883771733
 30
0.0
 10
-5.3570584813
 20
-9.490026953
 30
0.0
 10
-5.2858255379
 20
-9.4912627516
 30
0.0
 10
-5.2109350577
 20
-9.4920374352
 30
0.0
 10
-5.1599841394
 20
-9.492235285
 30
0.0
 10
-5.1341986472
 20
-9.4922537792
 30
0.0
 11
-5.6341224948
 21
-9.4716913109
 31
0.0
 11
-5.6267543258
 21
-9.4748730521
 31
0.0
 11
-5.6075250588
 21
-9.4779781746
 31
0.0
 11
-5.5768977484
 21
-9.4809319049
 31
0.0
 11
-5.5356099226
 21
-9.483663115
 31
0.0
 11
-5.4846558221
 21
-9.4861060354
 31
0.0
 11
-5.4252624586
 21
-9.4882018388
 31
0.0
 11
-5.3588600674
 21
-9.4899000566
 31
0.0
 11
-5.2870476663
 21
-9.4911597947
 31
0.0
 11
-5.2115545499
 21
-9.4919507176
 31
0.0
 11
-5.1341986472
 21
-9.4922537792
 31
0.0
  0
SPLINE
  5
2CF
100
AcDbEntity
  8
RACCORDO
100
AcDbSpline
 62
253
  6
CONTINUOUS
 70
0
 71
3
 72
18
 73
14
 74
12
 42
0.0000001
 43
0.0000001
 44
0.0000000001
 12
-0.4999598993
 22
0.0000026839
 32
0.0
 13
-0.4768081841
 23
0.1503790427
 33
0.0
 40
0.0
 40
0.0
 40
0.0
 40
0.0
 40
0.1407570357
 40
0.2787072446
 40
0.4111226913
 40
0.5353461367
 40
0.6489169725
 40
0.7495704425
 40
0.8352997461
 40
0.9043974138
 40
0.9554947188
 40
0.9875693603
 40
1.0
 40
1.0
 40
1.0
 40
1.0
 10
-5.126812274
 20
10.7220709509
 30
0.0
 10
-5.1502698985
 20
10.7220710768
 30
0.0
 10
-5.1967173919
 20
10.7220891785
 30
0.0
 10
-5.2652322635
 20
10.7221701304
 30
0.0
 10
-5.3309918552
 20
10.7223019895
 30
0.0
 10
-5.3926877953
 20
10.7224854604
 30
0.0
 10
-5.4490923378
 20
10.7227048785
 30
0.0
 10
-5.4990750951
 20
10.7229922446
 30
0.0
 10
-5.5416648138
 20
10.7232292414
 30
0.0
 10
-5.5759433078
 20
10.7237217619
 30
0.0
 10
-5.6014075607
 20
10.7236594609
 30
0.0
 10
-5.6171685272
 20
10.7247308789
 30
0.0
 10
-5.624772898
 20
10.7241594658
 30
0.0
 10
-5.6267485749
 20
10.7247825683
 30
0.0
 11
-5.126812274
 21
10.7220709509
 31
0.0
 11
-5.197185142
 21
10.7220987412
 31
0.0
 11
-5.2661546656
 21
10.7221808818
 31
0.0
 11
-5.3323569416
 21
10.7223157553
 31
0.0
 11
-5.3944634076
 21
10.7225006504
 31
0.0
 11
-5.4512438003
 21
10.7227319015
 31
0.0
 11
-5.5015657586
 21
10.7230048909
 31
0.0
 11
-5.5444258567
 21
10.7233141696
 31
0.0
 11
-5.5789702526
 21
10.7236535544
 31
0.0
 11
-5.6045142801
 21
10.724016332
 31
0.0
 11
-5.620545839
 21
10.7243951776
 31
0.0
 11
-5.6267485749
 21
10.7247825683
 31
0.0
  0
SPLINE
  5
2D0
100
AcDbEntity
  8
RACCORDO
100
AcDbSpline
 62
253
  6
CONTINUOUS
 70
0
 71
3
 72
18
 73
14
 74
12
 42
0.0000001
 43
0.0000001
 44
0.0000000001
 12
-0.4768081835
 22
-0.1503790444
 32
0.0
 13
-0.4999598993
 23
-0.0000026839
 33
0.0
 40
0.0
 40
0.0
 40
0.0
 40
0.0
 40
0.0124306396
 40
0.044505281
 40
0.095602586
 40
0.1647002536
 40
0.2504295571
 40
0.351083027
 40
0.4646538628
 40
0.5888773081
 40
0.7212927548
 40
0.8592429635
 40
1.0
 40
1.0
 40
1.0
 40
1.0
 10
38.8914182868
 20
10.7247825683
 30
0.0
 10
38.8894426099
 20
10.7241594658
 30
0.0
 10
38.8818382392
 20
10.7247308789
 30
0.0
 10
38.8660772728
 20
10.7236594609
 30
0.0
 10
38.8406130198
 20
10.7237217619
 30
0.0
 10
38.8063345259
 20
10.7232292414
 30
0.0
 10
38.7637448072
 20
10.7229922446
 30
0.0
 10
38.71376205
 20
10.7227048785
 30
0.0
 10
38.6573575075
 20
10.7224854604
 30
0.0
 10
38.5956615674
 20
10.7223019895
 30
0.0
 10
38.5299019758
 20
10.7221701304
 30
0.0
 10
38.461387104
 20
10.7220891785
 30
0.0
 10
38.4149396106
 20
10.7220710768
 30
0.0
 10
38.391481986
 20
10.7220709509
 30
0.0
 11
38.8914182868
 21
10.7247825683
 31
0.0
 11
38.8852155509
 21
10.7243951776
 31
0.0
 11
38.8691839921
 21
10.724016332
 31
0.0
 11
38.8436399646
 21
10.7236535544
 31
0.0
 11
38.8090955688
 21
10.7233141697
 31
0.0
 11
38.7662354707
 21
10.7230048909
 31
0.0
 11
38.7159135125
 21
10.7227319015
 31
0.0
 11
38.6591331198
 21
10.7225006504
 31
0.0
 11
38.5970266538
 21
10.7223157553
 31
0.0
 11
38.5308243778
 21
10.7221808818
 31
0.0
 11
38.4618548543
 21
10.7220987412
 31
0.0
 11
38.391481986
 21
10.7220709509
 31
0.0
  0
SPLINE
  5
2D1
100
AcDbEntity
  8
RACCORDO
100
AcDbSpline
 62
253
  6
CONTINUOUS
 70
0
 71
3
 72
17
 73
13
 74
11
 42
0.0000001
 43
0.0000001
 44
0.0000000001
 12
-0.195632535
 22
-0.4614382212
 32
0.0
 13
-0.5011957617
 23
-0.0003594721
 33
0.0
 40
0.0
 40
0.0
 40
0.0
 40
0.0
 40
0.0160133458
 40
0.0548771568
 40
0.1162691731
 40
0.1988278512
 40
0.3006096677
 40
0.4191867025
 40
0.551717899
 40
0.6950220123
 40
0.8456562072
 40
1.0
 40
1.0
 40
1.0
 40
1.0
 10
38.8987922067
 20
-9.4716913109
 30
0.0
 10
38.8977479629
 20
-9.4741543675
 30
0.0
 10
38.8864503378
 20
-9.4752986714
 30
0.0
 10
38.8692176015
 20
-9.4789886373
 30
0.0
 10
38.8377305537
 20
-9.4812046939
 30
0.0
 10
38.7972012982
 20
-9.4840312683
 30
0.0
 10
38.7464845408
 20
-9.4863109725
 30
0.0
 10
38.6876181847
 20
-9.4883771648
 30
0.0
 10
38.6217281364
 20
-9.4900269435
 30
0.0
 10
38.5504952092
 20
-9.4912627412
 30
0.0
 10
38.4756047485
 20
-9.4920374242
 30
0.0
 10
38.4246538441
 20
-9.4922352738
 30
0.0
 10
38.3988683591
 20
-9.4922537679
 30
0.0
 11
38.8987922067
 21
-9.4716913109
 31
0.0
 11
38.891424007
 21
-9.4748730509
 31
0.0
 11
38.8721947168
 21
-9.4779781721
 31
0.0
 11
38.8415673911
 21
-9.4809319009
 31
0.0
 11
38.8002795576
 21
-9.4836631095
 31
0.0
 11
38.7493254569
 21
-9.4861060285
 31
0.0
 11
38.6899320999
 21
-9.4882018305
 31
0.0
 11
38.623529721
 21
-9.4899000472
 31
0.0
 11
38.5517173366
 21
-9.4911597844
 31
0.0
 11
38.4762242402
 21
-9.4919507066
 31
0.0
 11
38.3988683591
 21
-9.4922537679
 31
0.0
  0
SPLINE
  5
2D2
100
AcDbEntity
  8
ASSI
100
AcDbSpline
 62
253
  6
CONTINUOUS
 70
0
 71
3
 72
18
 73
14
 74
12
 42
0.0000001
 43
0.0000001
 44
0.0000000001
 12
-0.2684874777
 22
-0.1338218893
 32
0.0
 13
-0.299989706
 23
-0.000000142
 33
0.0
 40
0.0
 40
0.0
 40
0.0
 40
0.0
 40
0.01245772
 40
0.0445401068
 40
0.0956390483
 40
0.1647397093
 40
0.2504749128
 40
0.351138898
 40
0.4647205079
 40
0.5889521196
 40
0.7213713552
 40
0.8593253738
 40
1.0
 40
1.0
 40
1.0
 40
1.0
 10
38.6914487478
 20
10.924774953
 30
0.0
 10
38.6903338338
 20
10.9242192478
 30
0.0
 10
38.6856282969
 20
10.9246814875
 30
0.0
 10
38.6762959247
 20
10.9237351
 30
0.0
 10
38.660950235
 20
10.9237561671
 30
0.0
 10
38.6404107578
 20
10.9233047168
 30
0.0
 10
38.6148442484
 20
10.9230739231
 30
0.0
 10
38.5848547023
 20
10.9228033453
 30
0.0
 10
38.5510067208
 20
10.9225946464
 30
0.0
 10
38.5139857697
 20
10.9224209647
 30
0.0
 10
38.4745266342
 20
10.9222960561
 30
0.0
 10
38.433423372
 20
10.922219576
 30
0.0
 10
38.4055614478
 20
10.9222026057
 30
0.0
 10
38.3914944679
 20
10.922202599
 30
0.0
 11
38.6914487478
 21
10.924774953
 31
0.0
 11
38.6877297
 21
10.9244071811
 31
0.0
 11
38.67811204
 21
10.9240474335
 31
0.0
 11
38.6627867525
 21
10.9237030502
 31
0.0
 11
38.6420597684
 21
10.9233809307
 31
0.0
 11
38.6163417643
 21
10.9230874603
 31
0.0
 11
38.5861447154
 21
10.9228284955
 31
0.0
 11
38.5520721072
 21
10.9226092127
 31
0.0
 11
38.5148043145
 21
10.9224339806
 31
0.0
 11
38.4750801122
 21
10.9223062702
 31
0.0
 11
38.4336953996
 21
10.9222286307
 31
0.0
 11
38.3914944679
 21
10.922202599
 31
0.0
  0
SPLINE
  5
2D3
100
AcDbEntity
  8
ASSI
100
AcDbSpline
 62
253
  6
CONTINUOUS
 70
0
 71
3
 72
21
 73
17
 74
15
 42
0.0000001
 43
0.0000001
 44
0.0000000001
 12
0.3113269094
 22
1.402385911
 32
0.0
 13
0.0006885319
 23
1.4365271365
 33
0.0
 40
0.0
 40
0.0
 40
0.0
 40
0.0
 40
0.0116253613
 40
0.0346870886
 40
0.0689537638
 40
0.1140486773
 40
0.1694730336
 40
0.2346119018
 40
0.3087402368
 40
0.3910339711
 40
0.4805783092
 40
0.5763759237
 40
0.6773619052
 40
0.7824150232
 40
0.8903612899
 40
1.0
 40
1.0
 40
1.0
 40
1.0
 10
-5.150725554
 20
-10.9285112923
 30
0.0
 10
-5.1495191247
 20
-10.9230768779
 30
0.0
 10
-5.1485968661
 20
-10.9063978403
 30
0.0
 10
-5.1466523329
 20
-10.8735051919
 30
0.0
 10
-5.1451547686
 20
-10.8244451112
 30
0.0
 10
-5.1434690469
 20
-10.7599409479
 30
0.0
 10
-5.141940315
 20
-10.6806254427
 30
0.0
 10
-5.1404759619
 20
-10.5874122042
 30
0.0
 10
-5.1391381376
 20
-10.481327073
 30
0.0
 10
-5.1379301543
 20
-10.363554234
 30
0.0
 10
-5.1368713066
 20
-10.2354031483
 30
0.0
 10
-5.1359728688
 20
-10.0983000875
 30
0.0
 10
-5.135245827
 20
-9.9537696333
 30
0.0
 10
-5.1346985144
 20
-9.8034210686
 30
0.0
 10
-5.1343372972
 20
-9.6489286401
 30
0.0
 10
-5.1342237955
 20
-9.5447397509
 30
0.0
 10
-5.1341986323
 20
-9.4922400902
 30
0.0
 11
-5.150725554
 21
-10.9285112923
 31
0.0
 11
-5.1488946526
 21
-10.9119118111
 31
0.0
 11
-5.1470942947
 21
-10.878831966
 31
0.0
 11
-5.1453443796
 21
-10.8296380654
 31
0.0
 11
-5.1436645578
 21
-10.7648797746
 31
0.0
 11
-5.1420734516
 21
-10.6852770735
 31
0.0
 11
-5.1405887648
 21
-10.5917150901
 31
0.0
 11
-5.1392270328
 21
-10.4852364202
 31
0.0
 11
-5.1380033954
 21
-10.367025557
 31
0.0
 11
-5.1369314565
 21
-10.2383971371
 31
0.0
 11
-5.1360231496
 21
-10.1007842461
 31
0.0
 11
-5.1352885689
 21
-9.9557169864
 31
0.0
 11
-5.1347358651
 21
-9.8048063264
 31
0.0
 11
-5.1343712132
 21
-9.6497389959
 31
0.0
 11
-5.1341986323
 21
-9.4922400902
 31
0.0
  0
SPLINE
  5
2D4
100
AcDbEntity
  8
ASSI
100
AcDbSpline
 62
253
  6
CONTINUOUS
 70
0
 71
3
 72
21
 73
17
 74
15
 42
0.0000001
 43
0.0000001
 44
0.0000000001
 12
0.0006885319
 22
-1.4365271366
 32
0.0
 13
0.3113269084
 23
-1.4023859114
 33
0.0
 40
0.0
 40
0.0
 40
0.0
 40
0.0
 40
0.1096387099
 40
0.2175849767
 40
0.3226380947
 40
0.4236240761
 40
0.5194216906
 40
0.6089660287
 40
0.6912597631
 40
0.765388098
 40
0.8305269663
 40
0.8859513226
 40
0.9310462361
 40
0.9653129114
 40
0.9883746386
 40
1.0
 40
1.0
 40
1.0
 40
1.0
 10
38.3988683442
 20
-9.49224009
 30
0.0
 10
38.3988935074
 20
-9.5447397507
 30
0.0
 10
38.3990070092
 20
-9.6489286399
 30
0.0
 10
38.3993682264
 20
-9.8034210683
 30
0.0
 10
38.399915539
 20
-9.953769633
 30
0.0
 10
38.4006425807
 20
-10.0983000872
 30
0.0
 10
38.4015410185
 20
-10.235403148
 30
0.0
 10
38.4025998662
 20
-10.3635542338
 30
0.0
 10
38.4038078496
 20
-10.4813270728
 30
0.0
 10
38.4051456738
 20
-10.587412204
 30
0.0
 10
38.4066100269
 20
-10.6806254425
 30
0.0
 10
38.4081387588
 20
-10.7599409477
 30
0.0
 10
38.4098244805
 20
-10.824445111
 30
0.0
 10
38.4113220448
 20
-10.8735051917
 30
0.0
 10
38.413266578
 20
-10.9063978402
 30
0.0
 10
38.4141888366
 20
-10.9230768779
 30
0.0
 10
38.4153952659
 20
-10.9285112922
 30
0.0
 11
38.3988683442
 21
-9.49224009
 31
0.0
 11
38.3990409251
 21
-9.6497389956
 31
0.0
 11
38.399405577
 21
-9.8048063261
 31
0.0
 11
38.3999582808
 21
-9.9557169861
 31
0.0
 11
38.4006928615
 21
-10.1007842458
 31
0.0
 11
38.4016011684
 21
-10.2383971368
 31
0.0
 11
38.4026731073
 21
-10.3670255568
 31
0.0
 11
38.4038967447
 21
-10.48523642
 31
0.0
 11
38.4052584767
 21
-10.5917150898
 31
0.0
 11
38.4067431635
 21
-10.6852770733
 31
0.0
 11
38.4083342697
 21
-10.7648797744
 31
0.0
 11
38.4100140915
 21
-10.8296380653
 31
0.0
 11
38.4117640066
 21
-10.8788319659
 31
0.0
 11
38.4135643645
 21
-10.911911811
 31
0.0
 11
38.4153952659
 21
-10.9285112922
 31
0.0
  0
SPLINE
  5
2D5
100
AcDbEntity
  8
ASSI
100
AcDbSpline
 62
253
  6
CONTINUOUS
 70
0
 71
3
 72
11
 73
7
 74
5
 42
0.0000001
 43
0.0000001
 44
0.0000000001
 12
0.0002437994
 22
-20.1964756175
 32
0.0
 13
0.0145100747
 23
-20.1964704066
 33
0.0
 40
0.0
 40
0.0
 40
0.0
 40
0.0
 40
0.2500744177
 40
0.5001049865
 40
0.750083017
 40
1.0
 40
1.0
 40
1.0
 40
1.0
 10
38.8914182868
 20
10.7247825683
 30
0.0
 10
38.8914386095
 20
9.0412419417
 30
0.0
 10
38.8917763518
 20
5.6744558823
 30
0.0
 10
38.893174211
 20
0.624778262
 30
0.0
 10
38.8954631406
 20
-4.4238391574
 30
0.0
 10
38.8975834354
 20
-7.789210994
 30
0.0
 10
38.8987922067
 20
-9.4716913109
 30
0.0
 11
38.8914182868
 21
10.7247825683
 31
0.0
 11
38.8919249715
 21
5.6741607135
 31
0.0
 11
38.893322918
 21
0.62442462
 31
0.0
 11
38.8956119909
 21
-4.4242500594
 31
0.0
 11
38.8987922067
 21
-9.4716913109
 31
0.0
  0
SPLINE
  5
2D6
100
AcDbEntity
  8
ASSI
100
AcDbSpline
 62
253
  6
CONTINUOUS
 70
0
 71
3
 72
21
 73
17
 74
15
 42
0.0000001
 43
0.0000001
 44
0.0000000001
 12
0.0006885301
 22
-0.957887823
 32
0.0
 13
0.3025944495
 23
-0.9088378044
 33
0.0
 40
0.0
 40
0.0
 40
0.0
 40
0.0
 40
0.1095890288
 40
0.2175144953
 40
0.3225483467
 40
0.423516912
 40
0.519299397
 40
0.6088312783
 40
0.6911156636
 40
0.7652382519
 40
0.8303754916
 40
0.8858030898
 40
0.9309078341
 40
0.965194018
 40
0.9882927082
 40
1.0
 40
1.0
 40
1.0
 40
1.0
 10
38.8987922067
 20
-9.4716913109
 30
0.0
 10
38.8988173585
 20
-9.506682643
 30
0.0
 10
38.8989308452
 20
-9.5761341104
 30
0.0
 10
38.8992920196
 20
-9.6791219418
 30
0.0
 10
38.8998393087
 20
-9.7793564386
 30
0.0
 10
38.9005663543
 20
-9.8757124983
 30
0.0
 10
38.9014647865
 20
-9.9671171463
 30
0.0
 10
38.9025236776
 20
-10.0525539991
 30
0.0
 10
38.9037316101
 20
-10.1310718513
 30
0.0
 10
38.9050697397
 20
-10.2017984871
 30
0.0
 10
38.9065333666
 20
-10.2639416403
 30
0.0
 10
38.9080645208
 20
-10.3168256047
 30
0.0
 10
38.9097440655
 20
-10.3598189732
 30
0.0
 10
38.9112577342
 20
-10.3925618889
 30
0.0
 10
38.913172081
 20
-10.4144443767
 30
0.0
 10
38.9141381235
 20
-10.4256492325
 30
0.0
 10
38.9153189774
 20
-10.429195909
 30
0.0
 11
38.8987922067
 21
-9.4716913109
 31
0.0
 11
38.8989647314
 21
-9.5766651924
 31
0.0
 11
38.8993293659
 21
-9.6800450662
 31
0.0
 11
38.8998820513
 21
-9.7806542215
 31
0.0
 11
38.9006166275
 21
-9.877368016
 31
0.0
 11
38.9015249358
 21
-9.9691124196
 31
0.0
 11
38.9025968877
 21
-10.054867241
 31
0.0
 11
38.9038205485
 21
-10.1336769729
 31
0.0
 11
38.9051823151
 21
-10.2046650558
 31
0.0
 11
38.9066670458
 21
-10.2670415728
 31
0.0
 11
38.908258194
 21
-10.3201111601
 31
0.0
 11
38.9099380664
 21
-10.3632837866
 31
0.0
 11
38.9116880033
 21
-10.396079459
 31
0.0
 11
38.9134884388
 21
-10.4181320446
 31
0.0
 11
38.9153189774
 21
-10.429195909
 31
0.0
  0
SPLINE
  5
2D7
100
AcDbEntity
  8
ASSI
100
AcDbSpline
 62
253
  6
CONTINUOUS
 70
0
 71
3
 72
11
 73
7
 74
5
 42
0.0000001
 43
0.0000001
 44
0.0000000001
 12
0.0002454386
 22
-20.2143127839
 32
0.0
 13
0.0145083669
 23
-20.2143075788
 33
0.0
 40
0.0
 40
0.0
 40
0.0
 40
0.0
 40
0.2500749619
 40
0.5001055662
 40
0.7500836323
 40
1.0
 40
1.0
 40
1.0
 40
1.0
 10
38.391481986
 20
10.7220709561
 30
0.0
 10
38.3915024453
 20
9.0370397898
 30
0.0
 10
38.391858668
 20
5.6672763407
 30
0.0
 10
38.393249272
 20
0.6131347884
 30
0.0
 10
38.3955400923
 20
-4.4399378136
 30
0.0
 10
38.3976597244
 20
-7.8082779816
 30
0.0
 10
38.3988683505
 20
-9.49224009
 30
0.0
 11
38.391481986
 21
10.7220709561
 31
0.0
 11
38.3920014597
 21
5.6669774835
 31
0.0
 11
38.3933995036
 21
0.6127808343
 31
0.0
 11
38.3956884645
 21
-4.4403534643
 31
0.0
 11
38.3988683505
 21
-9.49224009
 31
0.0
  0
SPLINE
  5
2D8
100
AcDbEntity
  8
ASSI
100
AcDbSpline
 62
253
  6
CONTINUOUS
 70
0
 71
3
 72
11
 73
7
 74
5
 42
0.0000001
 43
0.0000001
 44
0.0000000001
 12
0.0145083669
 22
20.214307579
 32
0.0
 13
0.0002454386
 23
20.214312784
 33
0.0
 40
0.0
 40
0.0
 40
0.0
 40
0.0
 40
0.2499163677
 40
0.4998944338
 40
0.7499250381
 40
1.0
 40
1.0
 40
1.0
 40
1.0
 10
-5.1341986386
 20
-9.4922400902
 30
0.0
 10
-5.1329900125
 20
-7.8082779817
 30
0.0
 10
-5.1308703804
 20
-4.4399378137
 30
0.0
 10
-5.1285795601
 20
0.6131347884
 30
0.0
 10
-5.1271889561
 20
5.6672763407
 30
0.0
 10
-5.1268327334
 20
9.0370397898
 30
0.0
 10
-5.126812274
 20
10.7220709561
 30
0.0
 11
-5.1341986386
 21
-9.4922400902
 31
0.0
 11
-5.1310187526
 21
-4.4403534643
 31
0.0
 11
-5.1287297917
 21
0.6127808343
 31
0.0
 11
-5.1273317477
 21
5.6669774835
 31
0.0
 11
-5.126812274
 21
10.7220709561
 31
0.0
  0
SPLINE
  5
2D9
100
AcDbEntity
  8
ASSI
100
AcDbSpline
 62
253
  6
CONTINUOUS
 70
0
 71
3
 72
21
 73
17
 74
15
 42
0.0000001
 43
0.0000001
 44
0.0000000001
 12
0.3025944467
 22
0.9088378053
 32
0.0
 13
0.0006885301
 23
0.957887823
 33
0.0
 40
0.0
 40
0.0
 40
0.0
 40
0.0
 40
0.0117072917
 40
0.034805982
 40
0.0690921658
 40
0.1141969101
 40
0.1696245083
 40
0.2347617479
 40
0.3088843362
 40
0.3911687215
 40
0.4807006028
 40
0.5764830878
 40
0.6774516531
 40
0.7824855045
 40
0.890410971
 40
1.0
 40
1.0
 40
1.0
 40
1.0
 10
-5.6506492654
 20
-10.429195909
 30
0.0
 10
-5.6494684116
 20
-10.4256492325
 30
0.0
 10
-5.6485023691
 20
-10.4144443767
 30
0.0
 10
-5.6465880223
 20
-10.392561889
 30
0.0
 10
-5.6450743536
 20
-10.3598189733
 30
0.0
 10
-5.6433948089
 20
-10.3168256048
 30
0.0
 10
-5.6418636547
 20
-10.2639416404
 30
0.0
 10
-5.6404000278
 20
-10.2017984873
 30
0.0
 10
-5.6390618982
 20
-10.1310718515
 30
0.0
 10
-5.6378539657
 20
-10.0525539992
 30
0.0
 10
-5.6367950746
 20
-9.9671171465
 30
0.0
 10
-5.6358966424
 20
-9.8757124985
 30
0.0
 10
-5.6351695968
 20
-9.7793564388
 30
0.0
 10
-5.6346223077
 20
-9.679121942
 30
0.0
 10
-5.6342611333
 20
-9.5761341105
 30
0.0
 10
-5.6341476466
 20
-9.506682643
 30
0.0
 10
-5.6341224948
 20
-9.4716913109
 30
0.0
 11
-5.6506492654
 21
-10.429195909
 31
0.0
 11
-5.6488187269
 21
-10.4181320446
 31
0.0
 11
-5.6470182914
 21
-10.3960794591
 31
0.0
 11
-5.6452683545
 21
-10.3632837867
 31
0.0
 11
-5.6435884821
 21
-10.3201111602
 31
0.0
 11
-5.6419973339
 21
-10.267041573
 31
0.0
 11
-5.6405126031
 21
-10.2046650559
 31
0.0
 11
-5.6391508366
 21
-10.1336769731
 31
0.0
 11
-5.6379271758
 21
-10.0548672412
 31
0.0
 11
-5.6368552239
 21
-9.9691124198
 31
0.0
 11
-5.6359469155
 21
-9.8773680162
 31
0.0
 11
-5.6352123394
 21
-9.7806542217
 31
0.0
 11
-5.634659654
 21
-9.6800450664
 31
0.0
 11
-5.6342950195
 21
-9.5766651926
 31
0.0
 11
-5.6341224948
 21
-9.4716913109
 31
0.0
  0
SPLINE
  5
2DA
100
AcDbEntity
  8
ASSI
100
AcDbSpline
 62
253
  6
CONTINUOUS
 70
0
 71
3
 72
11
 73
7
 74
5
 42
0.0000001
 43
0.0000001
 44
0.0000000001
 12
0.0145100747
 22
20.1964704066
 32
0.0
 13
0.0002437994
 23
20.1964756175
 33
0.0
 40
0.0
 40
0.0
 40
0.0
 40
0.0
 40
0.249916983
 40
0.4998950135
 40
0.7499255823
 40
1.0
 40
1.0
 40
1.0
 40
1.0
 10
-5.6341224948
 20
-9.4716913109
 30
0.0
 10
-5.6329137234
 20
-7.789210994
 30
0.0
 10
-5.6307934287
 20
-4.4238391574
 30
0.0
 10
-5.6285044991
 20
0.624778262
 30
0.0
 10
-5.6271066398
 20
5.6744558823
 30
0.0
 10
-5.6267688976
 20
9.0412419417
 30
0.0
 10
-5.6267485749
 20
10.7247825683
 30
0.0
 11
-5.6341224948
 21
-9.4716913109
 31
0.0
 11
-5.630942279
 21
-4.4242500594
 31
0.0
 11
-5.6286532061
 21
0.62442462
 31
0.0
 11
-5.6272552596
 21
5.6741607135
 31
0.0
 11
-5.6267485749
 21
10.7247825683
 31
0.0
  0
SPLINE
  5
2DB
100
AcDbEntity
  8
ASSI
100
AcDbSpline
 62
253
  6
CONTINUOUS
 70
0
 71
3
 72
18
 73
14
 74
12
 42
0.0000001
 43
0.0000001
 44
0.0000000001
 12
-0.299989706
 22
0.000000142
 32
0.0
 13
-0.2684874758
 23
0.133821893
 33
0.0
 40
0.0
 40
0.0
 40
0.0
 40
0.0
 40
0.1406746255
 40
0.2786286441
 40
0.4110478798
 40
0.5352794916
 40
0.6488611016
 40
0.7495250868
 40
0.8352602903
 40
0.9043609514
 40
0.955459893
 40
0.9875422799
 40
1.0
 40
1.0
 40
1.0
 40
1.0
 10
-5.1268247559
 20
10.922202599
 30
0.0
 10
-5.1408917358
 20
10.9222026057
 30
0.0
 10
-5.1687536599
 20
10.922219576
 30
0.0
 10
-5.2098569221
 20
10.9222960561
 30
0.0
 10
-5.2493160576
 20
10.9224209647
 30
0.0
 10
-5.2863370088
 20
10.9225946464
 30
0.0
 10
-5.3201849903
 20
10.9228033453
 30
0.0
 10
-5.3501745364
 20
10.9230739231
 30
0.0
 10
-5.3757410457
 20
10.9233047168
 30
0.0
 10
-5.396280523
 20
10.9237561671
 30
0.0
 10
-5.4116262128
 20
10.9237351
 30
0.0
 10
-5.4209585849
 20
10.9246814875
 30
0.0
 10
-5.4256641219
 20
10.9242192477
 30
0.0
 10
-5.4267790359
 20
10.924774953
 30
0.0
 11
-5.1268247559
 21
10.922202599
 31
0.0
 11
-5.1690256875
 21
10.9222286307
 31
0.0
 11
-5.2104104001
 21
10.9223062702
 31
0.0
 11
-5.2501346024
 21
10.9224339806
 31
0.0
 11
-5.2874023952
 21
10.9226092127
 31
0.0
 11
-5.3214750033
 21
10.9228284955
 31
0.0
 11
-5.3516720523
 21
10.9230874603
 31
0.0
 11
-5.3773900564
 21
10.9233809307
 31
0.0
 11
-5.3981170405
 21
10.9237030502
 31
0.0
 11
-5.4134423281
 21
10.9240474335
 31
0.0
 11
-5.4230599881
 21
10.9244071811
 31
0.0
 11
-5.4267790359
 21
10.924774953
 31
0.0
  0
SPLINE
  5
2DC
100
AcDbEntity
  8
ASSI
100
AcDbSpline
 62
253
  6
CONTINUOUS
 70
0
 71
3
 72
17
 73
13
 74
11
 42
0.0000001
 43
0.0000001
 44
0.0000000001
 12
0.1956282812
 22
-0.461440029
 32
0.0
 13
0.5011957657
 23
-0.0003594732
 33
0.0
 40
0.0
 40
0.0
 40
0.0
 40
0.0
 40
0.0160132903
 40
0.0548770558
 40
0.1162690414
 40
0.1988277038
 40
0.3006095192
 40
0.4191865661
 40
0.551717786
 40
0.6950219317
 40
0.8456561653
 40
1.0
 40
1.0
 40
1.0
 40
1.0
 10
-5.6341224948
 20
-9.4716913109
 30
0.0
 10
-5.6330782773
 20
-9.4741543686
 30
0.0
 10
-5.621780636
 20
-9.4752986754
 30
0.0
 10
-5.6045479532
 20
-9.478988641
 30
0.0
 10
-5.5730609032
 20
-9.4812046985
 30
0.0
 10
-5.5325316628
 20
-9.4840312743
 30
0.0
 10
-5.4818149031
 20
-9.4863109797
 30
0.0
 10
-5.4229485418
 20
-9.4883771733
 30
0.0
 10
-5.3570584813
 20
-9.490026953
 30
0.0
 10
-5.2858255379
 20
-9.4912627516
 30
0.0
 10
-5.2109350577
 20
-9.4920374352
 30
0.0
 10
-5.1599841394
 20
-9.492235285
 30
0.0
 10
-5.1341986472
 20
-9.4922537792
 30
0.0
 11
-5.6341224948
 21
-9.4716913109
 31
0.0
 11
-5.6267543258
 21
-9.4748730521
 31
0.0
 11
-5.6075250588
 21
-9.4779781746
 31
0.0
 11
-5.5768977484
 21
-9.4809319049
 31
0.0
 11
-5.5356099226
 21
-9.483663115
 31
0.0
 11
-5.4846558221
 21
-9.4861060354
 31
0.0
 11
-5.4252624586
 21
-9.4882018388
 31
0.0
 11
-5.3588600674
 21
-9.4899000566
 31
0.0
 11
-5.2870476663
 21
-9.4911597947
 31
0.0
 11
-5.2115545499
 21
-9.4919507176
 31
0.0
 11
-5.1341986472
 21
-9.4922537792
 31
0.0
  0
SPLINE
  5
2DD
100
AcDbEntity
  8
ASSI
100
AcDbSpline
 62
253
  6
CONTINUOUS
 70
0
 71
3
 72
18
 73
14
 74
12
 42
0.0000001
 43
0.0000001
 44
0.0000000001
 12
-0.4999598993
 22
0.0000026839
 32
0.0
 13
-0.4768081841
 23
0.1503790427
 33
0.0
 40
0.0
 40
0.0
 40
0.0
 40
0.0
 40
0.1407570357
 40
0.2787072446
 40
0.4111226913
 40
0.5353461367
 40
0.6489169725
 40
0.7495704425
 40
0.8352997461
 40
0.9043974138
 40
0.9554947188
 40
0.9875693603
 40
1.0
 40
1.0
 40
1.0
 40
1.0
 10
-5.126812274
 20
10.7220709509
 30
0.0
 10
-5.1502698985
 20
10.7220710768
 30
0.0
 10
-5.1967173919
 20
10.7220891785
 30
0.0
 10
-5.2652322635
 20
10.7221701304
 30
0.0
 10
-5.3309918552
 20
10.7223019895
 30
0.0
 10
-5.3926877953
 20
10.7224854604
 30
0.0
 10
-5.4490923378
 20
10.7227048785
 30
0.0
 10
-5.4990750951
 20
10.7229922446
 30
0.0
 10
-5.5416648138
 20
10.7232292414
 30
0.0
 10
-5.5759433078
 20
10.7237217619
 30
0.0
 10
-5.6014075607
 20
10.7236594609
 30
0.0
 10
-5.6171685272
 20
10.7247308789
 30
0.0
 10
-5.624772898
 20
10.7241594658
 30
0.0
 10
-5.6267485749
 20
10.7247825683
 30
0.0
 11
-5.126812274
 21
10.7220709509
 31
0.0
 11
-5.197185142
 21
10.7220987412
 31
0.0
 11
-5.2661546656
 21
10.7221808818
 31
0.0
 11
-5.3323569416
 21
10.7223157553
 31
0.0
 11
-5.3944634076
 21
10.7225006504
 31
0.0
 11
-5.4512438003
 21
10.7227319015
 31
0.0
 11
-5.5015657586
 21
10.7230048909
 31
0.0
 11
-5.5444258567
 21
10.7233141696
 31
0.0
 11
-5.5789702526
 21
10.7236535544
 31
0.0
 11
-5.6045142801
 21
10.724016332
 31
0.0
 11
-5.620545839
 21
10.7243951776
 31
0.0
 11
-5.6267485749
 21
10.7247825683
 31
0.0
  0
SPLINE
  5
2DE
100
AcDbEntity
  8
ASSI
100
AcDbSpline
 62
253
  6
CONTINUOUS
 70
0
 71
3
 72
18
 73
14
 74
12
 42
0.0000001
 43
0.0000001
 44
0.0000000001
 12
-0.4768081835
 22
-0.1503790444
 32
0.0
 13
-0.4999598993
 23
-0.0000026839
 33
0.0
 40
0.0
 40
0.0
 40
0.0
 40
0.0
 40
0.0124306396
 40
0.044505281
 40
0.095602586
 40
0.1647002536
 40
0.2504295571
 40
0.351083027
 40
0.4646538628
 40
0.5888773081
 40
0.7212927548
 40
0.8592429635
 40
1.0
 40
1.0
 40
1.0
 40
1.0
 10
38.8914182868
 20
10.7247825683
 30
0.0
 10
38.8894426099
 20
10.7241594658
 30
0.0
 10
38.8818382392
 20
10.7247308789
 30
0.0
 10
38.8660772728
 20
10.7236594609
 30
0.0
 10
38.8406130198
 20
10.7237217619
 30
0.0
 10
38.8063345259
 20
10.7232292414
 30
0.0
 10
38.7637448072
 20
10.7229922446
 30
0.0
 10
38.71376205
 20
10.7227048785
 30
0.0
 10
38.6573575075
 20
10.7224854604
 30
0.0
 10
38.5956615674
 20
10.7223019895
 30
0.0
 10
38.5299019758
 20
10.7221701304
 30
0.0
 10
38.461387104
 20
10.7220891785
 30
0.0
 10
38.4149396106
 20
10.7220710768
 30
0.0
 10
38.391481986
 20
10.7220709509
 30
0.0
 11
38.8914182868
 21
10.7247825683
 31
0.0
 11
38.8852155509
 21
10.7243951776
 31
0.0
 11
38.8691839921
 21
10.724016332
 31
0.0
 11
38.8436399646
 21
10.7236535544
 31
0.0
 11
38.8090955688
 21
10.7233141697
 31
0.0
 11
38.7662354707
 21
10.7230048909
 31
0.0
 11
38.7159135125
 21
10.7227319015
 31
0.0
 11
38.6591331198
 21
10.7225006504
 31
0.0
 11
38.5970266538
 21
10.7223157553
 31
0.0
 11
38.5308243778
 21
10.7221808818
 31
0.0
 11
38.4618548543
 21
10.7220987412
 31
0.0
 11
38.391481986
 21
10.7220709509
 31
0.0
  0
SPLINE
  5
2DF
100
AcDbEntity
  8
ASSI
100
AcDbSpline
 62
253
  6
CONTINUOUS
 70
0
 71
3
 72
17
 73
13
 74
11
 42
0.0000001
 43
0.0000001
 44
0.0000000001
 12
-0.195632535
 22
-0.4614382212
 32
0.0
 13
-0.5011957617
 23
-0.0003594721
 33
0.0
 40
0.0
 40
0.0
 40
0.0
 40
0.0
 40
0.0160133458
 40
0.0548771568
 40
0.1162691731
 40
0.1988278512
 40
0.3006096677
 40
0.4191867025
 40
0.551717899
 40
0.6950220123
 40
0.8456562072
 40
1.0
 40
1.0
 40
1.0
 40
1.0
 10
38.8987922067
 20
-9.4716913109
 30
0.0
 10
38.8977479629
 20
-9.4741543675
 30
0.0
 10
38.8864503378
 20
-9.4752986714
 30
0.0
 10
38.8692176015
 20
-9.4789886373
 30
0.0
 10
38.8377305537
 20
-9.4812046939
 30
0.0
 10
38.7972012982
 20
-9.4840312683
 30
0.0
 10
38.7464845408
 20
-9.4863109725
 30
0.0
 10
38.6876181847
 20
-9.4883771648
 30
0.0
 10
38.6217281364
 20
-9.4900269435
 30
0.0
 10
38.5504952092
 20
-9.4912627412
 30
0.0
 10
38.4756047485
 20
-9.4920374242
 30
0.0
 10
38.4246538441
 20
-9.4922352738
 30
0.0
 10
38.3988683591
 20
-9.4922537679
 30
0.0
 11
38.8987922067
 21
-9.4716913109
 31
0.0
 11
38.891424007
 21
-9.4748730509
 31
0.0
 11
38.8721947168
 21
-9.4779781721
 31
0.0
 11
38.8415673911
 21
-9.4809319009
 31
0.0
 11
38.8002795576
 21
-9.4836631095
 31
0.0
 11
38.7493254569
 21
-9.4861060285
 31
0.0
 11
38.6899320999
 21
-9.4882018305
 31
0.0
 11
38.623529721
 21
-9.4899000472
 31
0.0
 11
38.5517173366
 21
-9.4911597844
 31
0.0
 11
38.4762242402
 21
-9.4919507066
 31
0.0
 11
38.3988683591
 21
-9.4922537679
 31
0.0
  0
SPLINE
  5
2E0
100
AcDbEntity
  8
RACCORDO
100
AcDbSpline
 62
253
  6
CONTINUOUS
 70
0
 71
3
 72
15
 73
11
 74
9
 42
0.0000001
 43
0.0000001
 44
0.0000000001
 12
-0.0017453778
 22
0.2000612775
 32
0.0
 13
0.2000612729
 23
0.0017459083
 33
0.0
 40
0.0
 40
0.0
 40
0.0
 40
0.0
 40
0.1950020658
 40
0.3825082119
 40
0.5553167043
 40
0.7067913013
 40
0.8311172079
 40
0.9235272361
 40
0.9804964655
 40
1.0
 40
1.0
 40
1.0
 40
1.0
 10
-23.5824748949
 20
10.7247825683
 30
0.0
 10
-23.5825883456
 20
10.7377866891
 30
0.0
 10
-23.5827639897
 20
10.7632898266
 30
0.0
 10
-23.5829115338
 20
10.8003473941
 30
0.0
 10
-23.582845297
 20
10.8344015711
 30
0.0
 10
-23.5828529064
 20
10.8645531408
 30
0.0
 10
-23.5821201252
 20
10.8884601907
 30
0.0
 10
-23.5827955701
 20
10.9082547009
 30
0.0
 10
-23.5804040487
 20
10.916701631
 30
0.0
 10
-23.5820303547
 20
10.9247636025
 30
0.0
 10
-23.5807297207
 20
10.924774953
 30
0.0
 11
-23.5824748949
 21
10.7247825683
 31
0.0
 11
-23.5827481959
 21
10.7637954581
 31
0.0
 11
-23.5828768845
 21
10.8013093841
 31
0.0
 11
-23.5828560163
 21
10.8358829812
 31
0.0
 11
-23.582686393
 21
10.8661878611
 31
0.0
 11
-23.5823745323
 21
10.8910596522
 31
0.0
 11
-23.5819324166
 21
10.9095427371
 31
0.0
 11
-23.581377033
 21
10.9209269684
 31
0.0
 11
-23.5807297207
 21
10.924774953
 31
0.0
  0
LINE
  5
2E1
100
AcDbEntity
  8
RACCORDO
100
AcDbLine
 62
253
  6
CONTINUOUS
 10
-23.5824748949
 20
10.7247825683
 11
-24.0737469302
 21
10.7220709509
  0
SPLINE
  5
2E2
100
AcDbEntity
  8
RACCORDO
100
AcDbSpline
 62
253
  6
CONTINUOUS
 70
0
 71
3
 72
17
 73
13
 74
11
 42
0.0000001
 43
0.0000001
 44
0.0000000001
 12
-0.0261499573
 22
-0.4991229354
 32
0.0
 13
0.4991225191
 23
-0.0261579028
 33
0.0
 40
0.0
 40
0.0
 40
0.0
 40
0.0
 40
0.1563933181
 40
0.3089189061
 40
0.4538267206
 40
0.5875542932
 40
0.7068145503
 40
0.8086770505
 40
0.8906409733
 40
0.9506992977
 40
0.9873995059
 40
1.0
 40
1.0
 40
1.0
 40
1.0
 10
-22.2132052508
 20
-10.429195909
 30
0.0
 10
-22.214568477
 20
-10.4552157397
 30
0.0
 10
-22.2171910405
 20
-10.5066147278
 30
0.0
 10
-22.220837646
 20
-10.5821393392
 30
0.0
 10
-22.2240768946
 20
-10.6538859241
 30
0.0
 10
-22.2268780475
 20
-10.7201598549
 30
0.0
 10
-22.2290218102
 20
-10.7791071601
 30
0.0
 10
-22.230922513
 20
-10.8299568103
 30
0.0
 10
-22.2312430739
 20
-10.8695520913
 30
0.0
 10
-22.2332723264
 20
-10.9017239513
 30
0.0
 10
-22.2301660382
 20
-10.9156339077
 30
0.0
 10
-22.2327434225
 20
-10.9284008089
 30
0.0
 10
-22.2306470257
 20
-10.9285106764
 30
0.0
 11
-22.2132052508
 21
-10.429195909
 31
0.0
 11
-22.2171879099
 21
-10.5072609344
 31
0.0
 11
-22.2208579977
 21
-10.58340597
 31
0.0
 11
-22.2241252493
 21
-10.6557582478
 31
0.0
 11
-22.2269093075
 21
-10.7225382815
 31
0.0
 11
-22.2291416991
 21
-10.7821036328
 31
0.0
 11
-22.2307675189
 21
-10.832989307
 31
0.0
 11
-22.2317467804
 21
-10.8739437834
 31
0.0
 11
-22.2320553987
 21
-10.9039597972
 31
0.0
 11
-22.2316857836
 21
-10.9222991117
 31
0.0
 11
-22.2306470257
 21
-10.9285106764
 31
0.0
  0
SPLINE
  5
2E3
100
AcDbEntity
  8
ASSI
100
AcDbSpline
 62
253
  6
CONTINUOUS
 70
0
 71
3
 72
15
 73
11
 74
9
 42
0.0000001
 43
0.0000001
 44
0.0000000001
 12
-0.0017453778
 22
0.2000612775
 32
0.0
 13
0.2000612729
 23
0.0017459083
 33
0.0
 40
0.0
 40
0.0
 40
0.0
 40
0.0
 40
0.1950020658
 40
0.3825082119
 40
0.5553167043
 40
0.7067913013
 40
0.8311172079
 40
0.9235272361
 40
0.9804964655
 40
1.0
 40
1.0
 40
1.0
 40
1.0
 10
-23.5824748949
 20
10.7247825683
 30
0.0
 10
-23.5825883456
 20
10.7377866891
 30
0.0
 10
-23.5827639897
 20
10.7632898266
 30
0.0
 10
-23.5829115338
 20
10.8003473941
 30
0.0
 10
-23.582845297
 20
10.8344015711
 30
0.0
 10
-23.5828529064
 20
10.8645531408
 30
0.0
 10
-23.5821201252
 20
10.8884601907
 30
0.0
 10
-23.5827955701
 20
10.9082547009
 30
0.0
 10
-23.5804040487
 20
10.916701631
 30
0.0
 10
-23.5820303547
 20
10.9247636025
 30
0.0
 10
-23.5807297207
 20
10.924774953
 30
0.0
 11
-23.5824748949
 21
10.7247825683
 31
0.0
 11
-23.5827481959
 21
10.7637954581
 31
0.0
 11
-23.5828768845
 21
10.8013093841
 31
0.0
 11
-23.5828560163
 21
10.8358829812
 31
0.0
 11
-23.582686393
 21
10.8661878611
 31
0.0
 11
-23.5823745323
 21
10.8910596522
 31
0.0
 11
-23.5819324166
 21
10.9095427371
 31
0.0
 11
-23.581377033
 21
10.9209269684
 31
0.0
 11
-23.5807297207
 21
10.924774953
 31
0.0
  0
LINE
  5
2E4
100
AcDbEntity
  8
ASSI
100
AcDbLine
 62
253
  6
CONTINUOUS
 10
-23.5824748949
 20
10.7247825683
 11
-24.0737469302
 21
10.7220709509
  0
SPLINE
  5
2E5
100
AcDbEntity
  8
ASSI
100
AcDbSpline
 62
253
  6
CONTINUOUS
 70
0
 71
3
 72
17
 73
13
 74
11
 42
0.0000001
 43
0.0000001
 44
0.0000000001
 12
-0.0261499573
 22
-0.4991229354
 32
0.0
 13
0.4991225191
 23
-0.0261579028
 33
0.0
 40
0.0
 40
0.0
 40
0.0
 40
0.0
 40
0.1563933181
 40
0.3089189061
 40
0.4538267206
 40
0.5875542932
 40
0.7068145503
 40
0.8086770505
 40
0.8906409733
 40
0.9506992977
 40
0.9873995059
 40
1.0
 40
1.0
 40
1.0
 40
1.0
 10
-22.2132052508
 20
-10.429195909
 30
0.0
 10
-22.214568477
 20
-10.4552157397
 30
0.0
 10
-22.2171910405
 20
-10.5066147278
 30
0.0
 10
-22.220837646
 20
-10.5821393392
 30
0.0
 10
-22.2240768946
 20
-10.6538859241
 30
0.0
 10
-22.2268780475
 20
-10.7201598549
 30
0.0
 10
-22.2290218102
 20
-10.7791071601
 30
0.0
 10
-22.230922513
 20
-10.8299568103
 30
0.0
 10
-22.2312430739
 20
-10.8695520913
 30
0.0
 10
-22.2332723264
 20
-10.9017239513
 30
0.0
 10
-22.2301660382
 20
-10.9156339077
 30
0.0
 10
-22.2327434225
 20
-10.9284008089
 30
0.0
 10
-22.2306470257
 20
-10.9285106764
 30
0.0
 11
-22.2132052508
 21
-10.429195909
 31
0.0
 11
-22.2171879099
 21
-10.5072609344
 31
0.0
 11
-22.2208579977
 21
-10.58340597
 31
0.0
 11
-22.2241252493
 21
-10.6557582478
 31
0.0
 11
-22.2269093075
 21
-10.7225382815
 31
0.0
 11
-22.2291416991
 21
-10.7821036328
 31
0.0
 11
-22.2307675189
 21
-10.832989307
 31
0.0
 11
-22.2317467804
 21
-10.8739437834
 31
0.0
 11
-22.2320553987
 21
-10.9039597972
 31
0.0
 11
-22.2316857836
 21
-10.9222991117
 31
0.0
 11
-22.2306470257
 21
-10.9285106764
 31
0.0
  0
ELLIPSE
  5
2E6
100
AcDbEntity
  8
RACCORDO
100
AcDbEllipse
 62
7
  6
CONTINUOUS
 10
12.6668648021
 20
-11.06250578
 30
0.0
 11
0.2
 21
-0.0
 31
0.0
 40
0.0524077793
 41
0.5235987756
 42
1.5707963268
  0
ELLIPSE
  5
2E7
100
AcDbEntity
  8
RACCORDO
100
AcDbEllipse
 62
7
  6
CONTINUOUS
 10
9.2978049098
 20
-11.06250578
 30
0.0
 11
0.2
 21
-0.0
 31
0.0
 40
0.0524077793
 41
1.5707963268
 42
2.617993878
  0
ELLIPSE
  5
2E8
100
AcDbEntity
  8
RACCORDO
100
AcDbEllipse
 62
7
  6
CONTINUOUS
 10
23.9668648021
 20
-11.06250578
 30
0.0
 11
0.2
 21
0.0
 31
0.0
 40
0.0524077793
 41
0.5235987756
 42
1.5707963268
  0
ELLIPSE
  5
2E9
100
AcDbEntity
  8
RACCORDO
100
AcDbEllipse
 62
7
  6
CONTINUOUS
 10
20.5978049098
 20
-11.06250578
 30
0.0
 11
0.2
 21
0.0
 31
0.0
 40
0.0524077793
 41
1.5707963268
 42
2.617993878
  0
ELLIPSE
  5
2EA
100
AcDbEntity
  8
RACCORDO
100
AcDbEllipse
 62
7
  6
CONTINUOUS
 10
1.4668648021
 20
-11.06250578
 30
0.0
 11
0.2
 21
-0.0
 31
0.0
 40
0.0524077793
 41
0.5235987756
 42
1.5707963268
  0
ELLIPSE
  5
2EB
100
AcDbEntity
  8
RACCORDO
100
AcDbEllipse
 62
7
  6
CONTINUOUS
 10
-1.9021950902
 20
-11.06250578
 30
0.0
 11
0.2
 21
0.0
 31
0.0
 40
0.0524077793
 41
1.5707963268
 42
2.617993878
  0
ELLIPSE
  5
2EC
100
AcDbEntity
  8
RACCORDO
100
AcDbEllipse
 62
7
  6
CONTINUOUS
 10
31.7978049098
 20
-11.06250578
 30
0.0
 11
0.2
 21
0.0
 31
0.0
 40
0.0524077793
 41
1.5707963268
 42
2.617993878
  0
ELLIPSE
  5
2ED
100
AcDbEntity
  8
RACCORDO
100
AcDbEllipse
 62
7
  6
CONTINUOUS
 10
35.1668648021
 20
-11.06250578
 30
0.0
 11
0.2
 21
-0.0
 31
0.0
 40
0.0524077793
 41
0.5235987756
 42
1.5707963268
  0
ELLIPSE
  5
2EE
100
AcDbEntity
  8
RACCORDO
100
AcDbEllipse
 62
7
  6
CONTINUOUS
 10
38.7823043903
 20
10.7702069299
 30
0.0
 11
0.1789222233
 21
0.0894542984
 31
0.0
 40
0.9998096356
 41
-0.463541
 42
1.1071030277
  0
ELLIPSE
  5
2EF
100
AcDbEntity
  8
RACCORDO
100
AcDbEllipse
 62
7
  6
CONTINUOUS
 10
-5.5176346784
 20
10.7702069299
 30
0.0
 11
0.1789222233
 21
-0.0894542985
 31
0.0
 40
0.9998096356
 41
2.0344896259
 42
3.6051336537
  0
ELLIPSE
  5
2F0
100
AcDbEntity
  8
RACCORDO
100
AcDbEllipse
 62
7
  6
CONTINUOUS
 10
38.4691851498
 20
-10.5906971987
 30
0.0
 11
0.498078285
 21
0.0448076117
 31
0.0
 40
0.9965957691
 41
-1.6608206152
 42
-0.0909376769
  0
ELLIPSE
  5
2F1
100
AcDbEntity
  8
RACCORDO
100
AcDbEllipse
 62
7
  6
CONTINUOUS
 10
-5.2045154379
 20
-10.5906971987
 30
0.0
 11
0.498078285
 21
-0.0448076117
 31
0.0
 40
0.9965957691
 41
-3.0506549766
 42
-1.4807720384
  0
ELLIPSE
  5
2F2
100
AcDbEntity
  8
ASSI
100
AcDbEllipse
 62
7
  6
CONTINUOUS
 10
12.6668648021
 20
-11.06250578
 30
0.0
 11
0.2
 21
-0.0
 31
0.0
 40
0.0524077793
 41
0.5235987756
 42
1.5707963268
  0
ELLIPSE
  5
2F3
100
AcDbEntity
  8
ASSI
100
AcDbEllipse
 62
7
  6
CONTINUOUS
 10
9.2978049098
 20
-11.06250578
 30
0.0
 11
0.2
 21
-0.0
 31
0.0
 40
0.0524077793
 41
1.5707963268
 42
2.617993878
  0
ELLIPSE
  5
2F4
100
AcDbEntity
  8
ASSI
100
AcDbEllipse
 62
7
  6
CONTINUOUS
 10
23.9668648021
 20
-11.06250578
 30
0.0
 11
0.2
 21
0.0
 31
0.0
 40
0.0524077793
 41
0.5235987756
 42
1.5707963268
  0
ELLIPSE
  5
2F5
100
AcDbEntity
  8
ASSI
100
AcDbEllipse
 62
7
  6
CONTINUOUS
 10
20.5978049098
 20
-11.06250578
 30
0.0
 11
0.2
 21
0.0
 31
0.0
 40
0.0524077793
 41
1.5707963268
 42
2.617993878
  0
ELLIPSE
  5
2F6
100
AcDbEntity
  8
ASSI
100
AcDbEllipse
 62
7
  6
CONTINUOUS
 10
1.4668648021
 20
-11.06250578
 30
0.0
 11
0.2
 21
-0.0
 31
0.0
 40
0.0524077793
 41
0.5235987756
 42
1.5707963268
  0
ELLIPSE
  5
2F7
100
AcDbEntity
  8
ASSI
100
AcDbEllipse
 62
7
  6
CONTINUOUS
 10
-1.9021950902
 20
-11.06250578
 30
0.0
 11
0.2
 21
0.0
 31
0.0
 40
0.0524077793
 41
1.5707963268
 42
2.617993878
  0
ELLIPSE
  5
2F8
100
AcDbEntity
  8
ASSI
100
AcDbEllipse
 62
7
  6
CONTINUOUS
 10
31.7978049098
 20
-11.06250578
 30
0.0
 11
0.2
 21
0.0
 31
0.0
 40
0.0524077793
 41
1.5707963268
 42
2.617993878
  0
ELLIPSE
  5
2F9
100
AcDbEntity
  8
ASSI
100
AcDbEllipse
 62
7
  6
CONTINUOUS
 10
35.1668648021
 20
-11.06250578
 30
0.0
 11
0.2
 21
-0.0
 31
0.0
 40
0.0524077793
 41
0.5235987756
 42
1.5707963268
  0
ELLIPSE
  5
2FA
100
AcDbEntity
  8
ASSI
100
AcDbEllipse
 62
7
  6
CONTINUOUS
 10
38.7823043903
 20
10.7702069299
 30
0.0
 11
0.1789222233
 21
0.0894542984
 31
0.0
 40
0.9998096356
 41
-0.463541
 42
1.1071030277
  0
ELLIPSE
  5
2FB
100
AcDbEntity
  8
ASSI
100
AcDbEllipse
 62
7
  6
CONTINUOUS
 10
-5.5176346784
 20
10.7702069299
 30
0.0
 11
0.1789222233
 21
-0.0894542985
 31
0.0
 40
0.9998096356
 41
2.0344896259
 42
3.6051336537
  0
ELLIPSE
  5
2FC
100
AcDbEntity
  8
ASSI
100
AcDbEllipse
 62
7
  6
CONTINUOUS
 10
38.4691851498
 20
-10.5906971987
 30
0.0
 11
0.498078285
 21
0.0448076117
 31
0.0
 40
0.9965957691
 41
-1.6608206152
 42
-0.0909376769
  0
ELLIPSE
  5
2FD
100
AcDbEntity
  8
ASSI
100
AcDbEllipse
 62
7
  6
CONTINUOUS
 10
-5.2045154379
 20
-10.5906971987
 30
0.0
 11
0.498078285
 21
-0.0448076117
 31
0.0
 40
0.9965957691
 41
-3.0506549766
 42
-1.4807720384
  0
ENDSEC
  0
SECTION
  2
OBJECTS
  0
DICTIONARY
  5
C
100
AcDbDictionary
280
0
281
1
  3
ACAD_GROUP
350
D
  3
ACAD_MLINESTYLE
350
17
  3
ACAD_LAYOUT
350
1A
  3
ACAD_PLOTSETTINGS
350
19
  3
ACAD_PLOTSTYLENAME
350
E
  0
DICTIONARY
  5
D
102
{ACAD_REACTORS
330
C
102
}
100
AcDbDictionary
280
0
281
1
  0
ACDBDICTIONARYWDFLT
  5
E
102
{ACAD_REACTORS
330
C
102
}
100
AcDbDictionary
281
1
  3
Normal
350
F
100
AcDbDictionaryWithDefault
340
F
  0
DICTIONARY
  5
17
102
{ACAD_REACTORS
330
C
102
}
100
AcDbDictionary
280
0
281
1
  3
Standard
350
18
  0
DICTIONARY
  5
19
102
{ACAD_REACTORS
330
C
102
}
100
AcDbDictionary
281
1
  0
DICTIONARY
  5
1A
102
{ACAD_REACTORS
330
C
102
}
100
AcDbDictionary
281
1
  3
Model
350
2FE
  3
Layout1
350
2FF
  0
ACDBPLACEHOLDER
  5
F
102
{ACAD_REACTORS
330
E
102
}
  0
MLINESTYLE
  5
18
102
{ACAD_REACTORS
330
17
102
}
100
AcDbMlineStyle
  2
STANDARD
 70
0
  3

 62
256
 51
90.0
 52
90.0
 71
2
 49
0.5
 62
256
  6
BYLAYER
 49
-0.5
 62
256
  6
BYLAYER
  0
LAYOUT
  5
2FE
102
{ACAD_REACTORS
330
1A
102
}
100
AcDbPlotSettings
  1

  2
none_device
  4
ISO_A4_(297.00_x_210.00_MM)
  6

 40
0.0
 41
0.0
 42
0.0
 43
0.0
 44
297.0
 45
210.0
 46
0.0
 47
0.0
 48
0.0
 49
0.0
140
0.0
141
0.0
142
1.0
143
1.0
 70
1024
 72
1
 73
0
 74
0
  7

 75
0
147
1.0
148
0.0
149
0.0
100
AcDbLayout
  1
Model
 70
0
 71
0
 10
0.0
 20
0.0
 11
297.0
 21
210.0
 12
0.0
 22
0.0
 32
0.0
 14
0.0
 24
0.0
 34
0.0
 15
0.0
 25
0.0
 35
0.0
146
0.0
 13
0.0
 23
0.0
 33
0.0
 16
1.0
 26
0.0
 36
0.0
 17
0.0
 27
1.0
 37
0.0
 76
0
330
213
345
0
346
0
  0
LAYOUT
  5
2FF
102
{ACAD_REACTORS
330
1A
102
}
100
AcDbPlotSettings
  1

  2
none_device
  4
ISO_A4_(297.00_x_210.00_MM)
  6

 40
0.0
 41
0.0
 42
0.0
 43
0.0
 44
297.0
 45
210.0
 46
0.0
 47
0.0
 48
0.0
 49
0.0
140
0.0
141
0.0
142
1.0
143
1.0
 70
0
 72
1
 73
0
 74
0
  7

 75
0
147
1.0
148
0.0
149
0.0
100
AcDbLayout
  1
Layout1
 70
0
 71
1
 10
0.0
 20
0.0
 11
297.0
 21
210.0
 12
0.0
 22
0.0
 32
0.0
 14
0.0
 24
0.0
 34
0.0
 15
0.0
 25
0.0
 35
0.0
146
0.0
 13
0.0
 23
0.0
 33
0.0
 16
1.0
 26
0.0
 36
0.0
 17
0.0
 27
1.0
 37
0.0
 76
0
330
214
345
0
346
0
  0
ENDSEC
  0
EOF
