  0
SECTION
  2
HEADER
  9
$ACADVER
  1
AC1015
  9
$DWGCODEPAGE
  3
ANSI_1252
  9
$EXTMAX
 10
297.0
 20
210.0
 30
0.0
  9
$EXTMIN
 10
0.0
 20
0.0
 30
0.0
  9
$LIMMIN
 10
0.0
 20
0.0
  9
$LIMMAX
 10
297.0
 20
210.0
  9
$VIEWCTR
 10
148.5
 20
105.0
  9
$VIEWSIZE
 40
210.0
  9
$CLAYER
  8
0
  9
$LTSCALE
 40
16.335
  9
$CELTYPE
  6
BYLAYER
  9
$DIMSCALE
 40
1.0
  9
$DIMASZ
 40
3.0
  9
$DIMEXO
 40
1.85625
  9
$DIMDLI
 40
11.286
  9
$DIMEXE
 40
5.346
  9
$DIMCEN
 40
2.673
  9
$DIMLFAC
 40
1.0
  9
$DIMBLK
  1
_FILLED
  9
$DIMTXT
 40
3.0
  9
$DIMTOL
 70
1
  9
$DIMLIM
 70
0
  9
$DIMTFAC
 40
1.0
  9
$DIMTP
 40
0.01
  9
$DIMTM
 40
0.01
  9
$PDMODE
 70
3
  9
$PDSIZE
 40
3.0
  9
$HANDSEED
  5
304
  9
$TILEMODE
 70
1
  9
$MEASUREMENT
 70
1
  9
$INSUNITS
 70
4
  0
ENDSEC
  0
SECTION
  2
CLASSES
  0
CLASS
  1
ACDBDICTIONARYWDFLT
  2
AcDbDictionaryWithDefault
  3
AutoCAD 2000
 90
0
280
0
281
0
  0
CLASS
  1
ACDBPLACEHOLDER
  2
AcDbPlaceHolder
  3
AutoCAD 2000
 90
0
280
0
281
0
  0
CLASS
  1
LAYOUT
  2
AcDbLayout
  3
AutoCAD 2000
 90
0
280
0
281
0
  0
ENDSEC
  0
SECTION
  2
TABLES
  0
TABLE
  2
VPORT
  5
8
100
AcDbSymbolTable
 70
2
  0
VPORT
  5
1F4
100
AcDbSymbolTableRecord
100
AcDbViewportTableRecord
  2
*ACTIVE
 70
0
 10
0.0
 20
0.0
 11
1.0
 21
1.0
 12
148.5
 22
105.0
 13
0.0
 23
0.0
 14
1.0
 24
1.0
 15
0.0
 25
0.0
 16
0.0
 26
0.0
 36
1.0
 17
0.0
 27
0.0
 37
0.0
 40
210.0
 41
1.4142857143
 42
50.0
 43
0.0
 44
0.0
 50
0.0
 51
0.0
 71
0
 72
100
 73
1
 74
1
 75
0
 76
0
 77
0
 78
0
  0
ENDTAB
  0
TABLE
  2
LTYPE
  5
5
100
AcDbSymbolTable
 70
6
  0
LTYPE
  5
14
100
AcDbSymbolTableRecord
100
AcDbLinetypeTableRecord
  2
BYBLOCK
 70
0
  3

 72
65
 73
0
 40
0.0
  0
LTYPE
  5
15
100
AcDbSymbolTableRecord
100
AcDbLinetypeTableRecord
  2
BYLAYER
 70
0
  3

 72
65
 73
0
 40
0.0
  0
LTYPE
  5
16
100
AcDbSymbolTableRecord
100
AcDbLinetypeTableRecord
  2
CONTINUOUS
 70
64
  3
Solid line
 72
65
 73
0
 40
0.0
  0
LTYPE
  5
1F5
100
AcDbSymbolTableRecord
100
AcDbLinetypeTableRecord
  2
CENTER
 70
64
  3
____ _ ____ _ ____ _ ____ _ ____ _ ____ _ ____
 72
65
 73
4
 40
0.6
 49
0.375
 74
0
 49
-0.075
 74
0
 49
0.075
 74
0
 49
-0.075
 74
0
  0
LTYPE
  5
1F6
100
AcDbSymbolTableRecord
100
AcDbLinetypeTableRecord
  2
HIDDEN
 70
64
  3
- - - - - - - - - - - - - - - - - - - -
 72
65
 73
2
 40
0.2
 49
0.1
 74
0
 49
-0.1
 74
0
  0
LTYPE
  5
1F7
100
AcDbSymbolTableRecord
100
AcDbLinetypeTableRecord
  2
PHANTOM
 70
64
  3
_____ _ _ _____ _ _ _____ _ _ _____
 72
65
 73
6
 40
0.8
 49
0.45
 74
0
 49
-0.05
 74
0
 49
0.1
 74
0
 49
-0.05
 74
0
 49
0.1
 74
0
 49
-0.05
 74
0
  0
LTYPE
  5
1F8
100
AcDbSymbolTableRecord
100
AcDbLinetypeTableRecord
  2
DOT
 70
64
  3
. . . . . . . . . . . . . . . . . . . .
 72
65
 73
2
 40
0.2
 49
0.1
 74
0
 49
-0.1
 74
0
  0
LTYPE
  5
1F9
100
AcDbSymbolTableRecord
100
AcDbLinetypeTableRecord
  2
DASHED
 70
64
  3
- - - - - - - - - - - - - - - - - - - -
 72
65
 73
2
 40
0.2
 49
0.1
 74
0
 49
-0.1
 74
0
  0
ENDTAB
  0
TABLE
  2
LAYER
  5
2
100
AcDbSymbolTable
 70
36
  0
LAYER
  5
10
100
AcDbSymbolTableRecord
100
AcDbLayerTableRecord
  2
0
 70
0
 62
7
  6
CONTINUOUS
370
-3
390
F
  0
LAYER
  5
1FA
100
AcDbSymbolTableRecord
100
AcDbLayerTableRecord
  2
DEFAULT_1
 70
0
 62
7
  6
CENTER
370
-3
390
F
  0
LAYER
  5
1FB
100
AcDbSymbolTableRecord
100
AcDbLayerTableRecord
  2
DEFAULT_2
 70
0
 62
7
  6
HIDDEN
370
-3
390
F
  0
LAYER
  5
1FC
100
AcDbSymbolTableRecord
100
AcDbLayerTableRecord
  2
DEFAULT_3
 70
0
 62
7
  6
PHANTOM
370
-3
390
F
  0
LAYER
  5
1FD
100
AcDbSymbolTableRecord
100
AcDbLayerTableRecord
  2
ASSI
 70
0
 62
7
  6
CONTINUOUS
370
-3
390
F
  0
LAYER
  5
1FE
100
AcDbSymbolTableRecord
100
AcDbLayerTableRecord
  2
COORDINATE
 70
0
 62
7
  6
CONTINUOUS
370
-3
390
F
  0
LAYER
  5
1FF
100
AcDbSymbolTableRecord
100
AcDbLayerTableRecord
  2
COORD_ORIGINE
 70
0
 62
7
  6
CONTINUOUS
370
-3
390
F
  0
LAYER
  5
200
100
AcDbSymbolTableRecord
100
AcDbLayerTableRecord
  2
COPY_PUBLISH
 70
0
 62
7
  6
CONTINUOUS
370
-3
390
F
  0
LAYER
  5
201
100
AcDbSymbolTableRecord
100
AcDbLayerTableRecord
  2
COSMETIC
 70
0
 62
7
  6
CONTINUOUS
370
-3
390
F
  0
LAYER
  5
202
100
AcDbSymbolTableRecord
100
AcDbLayerTableRecord
  2
CURVE
 70
0
 62
7
  6
CONTINUOUS
370
-3
390
F
  0
LAYER
  5
203
100
AcDbSymbolTableRecord
100
AcDbLayerTableRecord
  2
DRAFT
 70
0
 62
7
  6
CONTINUOUS
370
-3
390
F
  0
LAYER
  5
204
100
AcDbSymbolTableRecord
100
AcDbLayerTableRecord
  2
IGES
 70
0
 62
7
  6
CONTINUOUS
370
-3
390
F
  0
LAYER
  5
205
100
AcDbSymbolTableRecord
100
AcDbLayerTableRecord
  2
IMPORT_IGES
 70
0
 62
7
  6
CONTINUOUS
370
-3
390
F
  0
LAYER
  5
206
100
AcDbSymbolTableRecord
100
AcDbLayerTableRecord
  2
INTF_6
 70
0
 62
7
  6
CONTINUOUS
370
-3
390
F
  0
LAYER
  5
207
100
AcDbSymbolTableRecord
100
AcDbLayerTableRecord
  2
NOTE
 70
0
 62
7
  6
CONTINUOUS
370
-3
390
F
  0
LAYER
  5
208
100
AcDbSymbolTableRecord
100
AcDbLayerTableRecord
  2
PIANI
 70
0
 62
7
  6
CONTINUOUS
370
-3
390
F
  0
LAYER
  5
209
100
AcDbSymbolTableRecord
100
AcDbLayerTableRecord
  2
PIANI_ORIGINE
 70
0
 62
7
  6
CONTINUOUS
370
-3
390
F
  0
LAYER
  5
20A
100
AcDbSymbolTableRecord
100
AcDbLayerTableRecord
  2
PIANI_RIFERIMENTO
 70
0
 62
7
  6
CONTINUOUS
370
-3
390
F
  0
LAYER
  5
20B
100
AcDbSymbolTableRecord
100
AcDbLayerTableRecord
  2
PUNTI
 70
0
 62
7
  6
CONTINUOUS
370
-3
390
F
  0
LAYER
  5
20C
100
AcDbSymbolTableRecord
100
AcDbLayerTableRecord
  2
RACCORDO
 70
0
 62
7
  6
CONTINUOUS
370
-3
390
F
  0
LAYER
  5
20D
100
AcDbSymbolTableRecord
100
AcDbLayerTableRecord
  2
SMUSSO
 70
0
 62
7
  6
CONTINUOUS
370
-3
390
F
  0
LAYER
  5
20E
100
AcDbSymbolTableRecord
100
AcDbLayerTableRecord
  2
SNAPLINE
 70
0
 62
7
  6
CONTINUOUS
370
-3
390
F
  0
LAYER
  5
20F
100
AcDbSymbolTableRecord
100
AcDbLayerTableRecord
  2
SUPERFICI
 70
0
 62
7
  6
CONTINUOUS
370
-3
390
F
  0
LAYER
  5
210
100
AcDbSymbolTableRecord
100
AcDbLayerTableRecord
  2
TRASH
 70
0
 62
7
  6
CONTINUOUS
370
-3
390
F
  0
ENDTAB
  0
TABLE
  2
STYLE
  5
3
100
AcDbSymbolTable
 70
1
  0
STYLE
  5
11
100
AcDbSymbolTableRecord
100
AcDbTextStyleTableRecord
  2
STANDARD
 70
0
 40
0.0
 41
0.8
 50
0.0
 71
0
 42
0.2
  3
txt
  4

  0
STYLE
  5
211
100
AcDbSymbolTableRecord
100
AcDbTextStyleTableRecord
  2
TEXTSTYLE_1
 70
0
 40
0.0
 41
0.8
 50
0.0
 71
0
 42
0.2
  3
gdt
  4

  0
ENDTAB
  0
TABLE
  2
VIEW
  5
6
100
AcDbSymbolTable
 70
0
  0
ENDTAB
  0
TABLE
  2
UCS
  5
7
100
AcDbSymbolTable
 70
0
  0
ENDTAB
  0
TABLE
  2
APPID
  5
9
100
AcDbSymbolTable
 70
1
  0
APPID
  5
212
100
AcDbSymbolTableRecord
100
AcDbRegAppTableRecord
  2
ACAD
 70
0
  0
ENDTAB
  0
TABLE
  2
BLOCK_RECORD
  5
1
100
AcDbSymbolTable
 70
0
  0
BLOCK_RECORD
  5
213
100
AcDbSymbolTableRecord
100
AcDbBlockTableRecord
  2
*Model_Space
  0
BLOCK_RECORD
  5
214
100
AcDbSymbolTableRecord
100
AcDbBlockTableRecord
  2
*Paper_Space
  0
BLOCK_RECORD
  5
215
100
AcDbSymbolTableRecord
100
AcDbBlockTableRecord
  2
_FILLED
  0
BLOCK_RECORD
  5
216
100
AcDbSymbolTableRecord
100
AcDbBlockTableRecord
  2
*D0
  0
BLOCK_RECORD
  5
217
100
AcDbSymbolTableRecord
100
AcDbBlockTableRecord
  2
*D1
  0
BLOCK_RECORD
  5
218
100
AcDbSymbolTableRecord
100
AcDbBlockTableRecord
  2
*D2
  0
ENDTAB
  0
TABLE
  2
DIMSTYLE
  5
A
100
AcDbSymbolTable
 70
1
100
AcDbDimStyleTable
 71
0
  0
DIMSTYLE
105
219
100
AcDbSymbolTableRecord
100
AcDbDimStyleTableRecord
  2
STANDARD
 70
0
  3

  4

 40
1.0
 41
3.0
 42
0.0625
 43
0.38
 44
0.18
 45
0.0
 46
0.0
 47
0.01
 48
0.01
140
3.0
141
0.09
142
0.0
143
25.4
144
1.0
145
0.0
146
1.0
147
0.09
 71
1.0
 72
0.0
 73
0
 74
0
 75
0
 76
0
 77
1
 78
8
170
0
171
2
172
0
173
0
174
0
175
0
176
0
177
0
178
0
270
2
271
2
272
2
273
2
274
2
275
0
280
0
281
0
282
0
283
1
284
8
285
0
286
0
287
3
288
0
340
11
341
215
342
215
343
215
344
215
  0
DIMSTYLE
105
21A
100
AcDbSymbolTableRecord
100
AcDbDimStyleTableRecord
  2
DIMSTYLE_1
 70
0
  3

  4

 40
1.0
 41
3.0
 42
0.0625
 43
0.38
 44
0.18
 45
0.0
 46
0.0
 47
0.0
 48
0.0
140
3.0
141
0.09
142
0.0
143
25.4
144
1.0
145
0.0
146
1.0
147
0.09
 71
0.0
 72
0.0
 73
0
 74
0
 75
0
 76
0
 77
1
 78
8
170
0
171
2
172
0
173
0
174
0
175
0
176
0
177
0
178
0
270
2
271
2
272
2
273
2
274
2
275
0
280
0
281
0
282
0
283
1
284
8
285
0
286
0
287
3
288
0
340
11
341
215
342
215
343
215
344
215
  0
DIMSTYLE
105
21B
100
AcDbSymbolTableRecord
100
AcDbDimStyleTableRecord
  2
DIMSTYLE_2
 70
0
  3

  4

 40
1.0
 41
3.0
 42
0.0625
 43
0.38
 44
0.18
 45
0.0
 46
0.0
 47
0.0
 48
0.0
140
3.0
141
0.09
142
0.0
143
25.4
144
1.0
145
0.0
146
1.0
147
0.09
 71
0.0
 72
0.0
 73
0
 74
0
 75
0
 76
0
 77
1
 78
8
170
0
171
2
172
0
173
0
174
0
175
0
176
0
177
0
178
0
270
2
271
1
272
1
273
2
274
2
275
0
280
0
281
0
282
0
283
1
284
8
285
0
286
0
287
3
288
0
340
11
341
215
342
215
343
215
344
215
  0
ENDTAB
  0
ENDSEC
  0
SECTION
  2
BLOCKS
  0
BLOCK
  5
20
100
AcDbEntity
  8
0
100
AcDbBlockBegin
  2
*Model_Space
 70
0
 10
0.0
 20
0.0
 30
0.0
  3
*Model_Space
  1

  0
ENDBLK
  5
21
100
AcDbEntity
  8
0
100
AcDbBlockEnd
  0
BLOCK
  5
1C
100
AcDbEntity
  8
0
100
AcDbBlockBegin
  2
*Paper_Space
 70
0
 10
0.0
 20
0.0
 30
0.0
  3
*Paper_Space
  1

  0
ENDBLK
  5
1D
100
AcDbEntity
  8
0
100
AcDbBlockEnd
  0
BLOCK
  5
21C
100
AcDbEntity
  8
0
100
AcDbBlockBegin
  2
_FILLED
 70
64
 10
0.0
 20
0.0
  3
_FILLED
  1

  0
SOLID
  5
21D
100
AcDbEntity
  8
0
  6
BYBLOCK
 62
0
100
AcDbTrace
 10
0.0
 20
0.0
 11
-1.0
 21
0.3166666667
 12
-1.0
 22
-0.3166666667
 13
-1.0
 23
-0.3166666667
  0
ENDBLK
  5
21E
100
AcDbEntity
  8
0
  6
BYBLOCK
 62
0
100
AcDbBlockEnd
  0
BLOCK
  5
21F
100
AcDbEntity
  8
0
100
AcDbBlockBegin
 62
7
  6
CONTINUOUS
  2
*D0
 70
65
 10
0.0
 20
0.0
  3
*D0
  1

  0
MTEXT
  5
220
100
AcDbEntity
  8
0
100
AcDbMText
 62
7
  6
CONTINUOUS
  7
STANDARD
 71
2
 72
1
 10
9.0222998549
 20
22.7635094513
 30
0.0
 11
1.0
 21
0.0
 31
0.0
 44
0.9
  1
44,7
 40
3.0
 41
8.7857142857
  0
LINE
  5
221
100
AcDbEntity
  8
0
100
AcDbLine
 62
7
  6
CONTINUOUS
 10
31.3722998549
 20
11.3135322966
 11
31.3722998549
 21
20.5135094513
  0
LINE
  5
222
100
AcDbEntity
  8
0
100
AcDbLine
 62
7
  6
CONTINUOUS
 10
-13.3277001451
 20
11.3135322966
 11
-13.3277001451
 21
20.5135094513
  0
LINE
  5
223
100
AcDbEntity
  8
0
100
AcDbLine
 62
7
  6
CONTINUOUS
 10
31.3722998549
 20
19.0135094513
 11
9.0222998549
 21
19.0135094513
  0
LINE
  5
224
100
AcDbEntity
  8
0
100
AcDbLine
 62
7
  6
CONTINUOUS
 10
-13.3277001451
 20
19.0135094513
 11
9.0222998549
 21
19.0135094513
  0
INSERT
  5
225
100
AcDbEntity
  8
0
100
AcDbBlockReference
 62
7
  6
CONTINUOUS
  2
_FILLED
 10
31.3722998549
 20
19.0135094513
 41
3.0
 42
3.0
 43
3.0
  0
INSERT
  5
226
100
AcDbEntity
  8
0
100
AcDbBlockReference
 62
7
  6
CONTINUOUS
  2
_FILLED
 10
-13.3277001451
 20
19.0135094513
 41
3.0
 42
3.0
 43
3.0
 50
180.0
  0
ENDBLK
  5
227
100
AcDbEntity
  8
0
  6
BYBLOCK
 62
0
100
AcDbBlockEnd
  0
BLOCK
  5
228
100
AcDbEntity
  8
0
100
AcDbBlockBegin
 62
7
  6
CONTINUOUS
  2
*D1
 70
65
 10
0.0
 20
0.0
  3
*D1
  1

  0
MTEXT
  5
229
100
AcDbEntity
  8
0
100
AcDbMText
 62
7
  6
CONTINUOUS
  7
STANDARD
 71
2
 72
1
 10
35.6222998549
 20
-0.0161469016
 30
0.0
 11
0.0
 21
1.0
 31
0.0
 44
0.9
  1
22,1
 40
3.0
 41
8.1428571429
  0
LINE
  5
22A
100
AcDbEntity
  8
0
100
AcDbLine
 62
7
  6
CONTINUOUS
 10
31.6722998538
 20
11.0135094513
 11
40.8722998549
 21
11.0135094513
  0
LINE
  5
22B
100
AcDbEntity
  8
0
100
AcDbLine
 62
7
  6
CONTINUOUS
 10
31.3588457943
 20
-11.0458032544
 11
40.8722998549
 21
-11.0458032544
  0
LINE
  5
22C
100
AcDbEntity
  8
0
100
AcDbLine
 62
7
  6
CONTINUOUS
 10
39.3722998549
 20
11.0135094513
 11
39.3722998549
 21
-0.0161469016
  0
LINE
  5
22D
100
AcDbEntity
  8
0
100
AcDbLine
 62
7
  6
CONTINUOUS
 10
39.3722998549
 20
-11.0458032544
 11
39.3722998549
 21
-0.0161469016
  0
INSERT
  5
22E
100
AcDbEntity
  8
0
100
AcDbBlockReference
 62
7
  6
CONTINUOUS
  2
_FILLED
 10
39.3722998549
 20
11.0135094513
 41
3.0
 42
3.0
 43
3.0
 50
90.0
  0
INSERT
  5
22F
100
AcDbEntity
  8
0
100
AcDbBlockReference
 62
7
  6
CONTINUOUS
  2
_FILLED
 10
39.3722998549
 20
-11.0458032544
 41
3.0
 42
3.0
 43
3.0
 50
270.0
  0
ENDBLK
  5
230
100
AcDbEntity
  8
0
  6
BYBLOCK
 62
0
100
AcDbBlockEnd
  0
BLOCK
  5
231
100
AcDbEntity
  8
0
100
AcDbBlockBegin
 62
7
  6
CONTINUOUS
  2
*D2
 70
65
 10
0.0
 20
0.0
  3
*D2
  1

  0
MTEXT
  5
232
100
AcDbEntity
  8
0
100
AcDbMText
 62
7
  6
CONTINUOUS
  7
STANDARD
 71
2
 72
1
 10
-27.3396120529
 20
22.7635094513
 30
0.0
 11
1.0
 21
0.0
 31
0.0
 44
0.9
  1
6,5
 40
3.0
 41
6.2142857143
  0
LINE
  5
233
100
AcDbEntity
  8
0
100
AcDbLine
 62
7
  6
CONTINUOUS
 10
-24.0896726549
 20
8.0135094513
 11
-24.0896726549
 21
20.5135094513
  0
LINE
  5
234
100
AcDbEntity
  8
0
100
AcDbLine
 62
7
  6
CONTINUOUS
 10
-30.5895514509
 20
11.2653658627
 11
-30.5895514509
 21
20.5135094513
  0
LINE
  5
235
100
AcDbEntity
  8
0
100
AcDbLine
 62
7
  6
CONTINUOUS
 10
-24.0896726549
 20
19.0135094513
 11
-20.0896726549
 21
19.0135094513
  0
LINE
  5
236
100
AcDbEntity
  8
0
100
AcDbLine
 62
7
  6
CONTINUOUS
 10
-20.0896726549
 20
19.0135094513
 11
-27.3396120529
 21
19.0135094513
  0
LINE
  5
237
100
AcDbEntity
  8
0
100
AcDbLine
 62
7
  6
CONTINUOUS
 10
-30.5895514509
 20
19.0135094513
 11
-34.5895514509
 21
19.0135094513
  0
LINE
  5
238
100
AcDbEntity
  8
0
100
AcDbLine
 62
7
  6
CONTINUOUS
 10
-34.5895514509
 20
19.0135094513
 11
-27.3396120529
 21
19.0135094513
  0
INSERT
  5
239
100
AcDbEntity
  8
0
100
AcDbBlockReference
 62
7
  6
CONTINUOUS
  2
_FILLED
 10
-24.0896726549
 20
19.0135094513
 41
3.0
 42
3.0
 43
3.0
 50
180.0
  0
INSERT
  5
23A
100
AcDbEntity
  8
0
100
AcDbBlockReference
 62
7
  6
CONTINUOUS
  2
_FILLED
 10
-30.5895514509
 20
19.0135094513
 41
3.0
 42
3.0
 43
3.0
  0
ENDBLK
  5
23B
100
AcDbEntity
  8
0
  6
BYBLOCK
 62
0
100
AcDbBlockEnd
  0
ENDSEC
  0
SECTION
  2
ENTITIES
  0
DIMENSION
  5
23C
100
AcDbEntity
  8
0
100
AcDbDimension
 62
7
  6
CONTINUOUS
  2
*D0
 10
-13.3277001451
 20
19.0135094513
 11
4.6294427121
 21
21.2635094513
 70
160
 71
2
 42
44.7
  3
DIMSTYLE_1
100
AcDbAlignedDimension
 13
31.3722998549
 23
11.3135322966
 14
-13.3277001451
 24
11.3135322966
 50
180.0
100
AcDbRotatedDimension
  0
DIMENSION
  5
23D
100
AcDbEntity
  8
0
100
AcDbDimension
 62
7
  6
CONTINUOUS
  2
*D1
 10
39.3722998549
 20
-11.0458032544
 11
38.9465995777
 21
-3.6559904605
 70
160
 71
2
 42
22.0593127057
  3
DIMSTYLE_2
100
AcDbAlignedDimension
 13
31.6722998538
 23
11.0135094513
 14
31.3588457943
 24
-11.0458032544
 50
270.0
100
AcDbRotatedDimension
  0
DIMENSION
  5
23E
100
AcDbEntity
  8
0
100
AcDbDimension
 62
7
  6
CONTINUOUS
  2
*D2
 10
-30.5895514509
 20
19.0135094513
 11
-30.4467549101
 21
21.2635094513
 70
160
 71
2
 42
6.499878796
  3
DIMSTYLE_1
100
AcDbAlignedDimension
 13
-24.0896726549
 23
8.0135094513
 14
-30.5895514509
 24
11.2653658627
 50
180.0
100
AcDbRotatedDimension
  0
LINE
  5
23F
100
AcDbEntity
  8
RACCORDO
100
AcDbLine
 62
7
  6
CONTINUOUS
 10
-13.3277001451
 20
-1.9864905487
 11
-13.3146259078
 21
-10.5478575266
  0
LINE
  5
240
100
AcDbEntity
  8
ASSI
100
AcDbLine
 62
7
  6
CONTINUOUS
 10
-13.3277001451
 20
-1.9864905487
 11
-13.3146259078
 21
-10.5478575266
  0
LINE
  5
241
100
AcDbEntity
  8
RACCORDO
100
AcDbLine
 62
7
  6
CONTINUOUS
 10
-13.3277001451
 20
10.8135322966
 11
-13.3277001451
 21
-1.9864905487
  0
LINE
  5
242
100
AcDbEntity
  8
ASSI
100
AcDbLine
 62
7
  6
CONTINUOUS
 10
-13.3277001451
 20
10.8135322966
 11
-13.3277001451
 21
-1.9864905487
  0
LINE
  5
243
100
AcDbEntity
  8
RACCORDO
100
AcDbLine
 62
253
  6
CONTINUOUS
 10
-12.736859757
 20
10.7653658618
 11
-12.736859757
 21
10.9654975047
  0
LINE
  5
244
100
AcDbEntity
  8
ASSI
100
AcDbLine
 62
253
  6
CONTINUOUS
 10
-12.736859757
 20
10.7653658618
 11
-12.736859757
 21
10.9654975047
  0
LINE
  5
245
100
AcDbEntity
  8
RACCORDO
100
AcDbLine
 62
253
  6
CONTINUOUS
 10
-13.3146259078
 20
-10.5478575266
 11
-13.2606842665
 21
-10.3859010033
  0
LINE
  5
246
100
AcDbEntity
  8
ASSI
100
AcDbLine
 62
253
  6
CONTINUOUS
 10
-13.3146259078
 20
-10.5478575266
 11
-13.2606842665
 21
-10.3859010033
  0
LINE
  5
247
100
AcDbEntity
  8
RACCORDO
100
AcDbLine
 62
253
  6
CONTINUOUS
 10
-12.8142460845
 20
-11.0458032544
 11
-12.760760624
 21
-10.8852163866
  0
LINE
  5
248
100
AcDbEntity
  8
ASSI
100
AcDbLine
 62
253
  6
CONTINUOUS
 10
-12.8142460845
 20
-11.0458032544
 11
-12.760760624
 21
-10.8852163866
  0
LINE
  5
249
100
AcDbEntity
  8
RACCORDO
100
AcDbLine
 62
7
  6
CONTINUOUS
 10
23.6638748619
 20
-11.0458032544
 11
24.014564828
 21
-11.0139700964
  0
LINE
  5
24A
100
AcDbEntity
  8
ASSI
100
AcDbLine
 62
7
  6
CONTINUOUS
 10
23.6638748619
 20
-11.0458032544
 11
24.014564828
 21
-11.0139700964
  0
LINE
  5
24B
100
AcDbEntity
  8
RACCORDO
100
AcDbLine
 62
7
  6
CONTINUOUS
 10
-5.6192751521
 20
-11.0458032544
 11
-5.9699651182
 21
-11.0139700964
  0
LINE
  5
24C
100
AcDbEntity
  8
ASSI
100
AcDbLine
 62
7
  6
CONTINUOUS
 10
-5.6192751521
 20
-11.0458032544
 11
-5.9699651182
 21
-11.0139700964
  0
LINE
  5
24D
100
AcDbEntity
  8
RACCORDO
100
AcDbLine
 62
7
  6
CONTINUOUS
 10
12.4638748619
 20
-11.0458032544
 11
12.814564828
 21
-11.0139700964
  0
LINE
  5
24E
100
AcDbEntity
  8
ASSI
100
AcDbLine
 62
7
  6
CONTINUOUS
 10
12.4638748619
 20
-11.0458032544
 11
12.814564828
 21
-11.0139700964
  0
LINE
  5
24F
100
AcDbEntity
  8
RACCORDO
100
AcDbLine
 62
7
  6
CONTINUOUS
 10
1.1638748619
 20
-11.0458032544
 11
1.514564828
 21
-11.0139700964
  0
LINE
  5
250
100
AcDbEntity
  8
ASSI
100
AcDbLine
 62
7
  6
CONTINUOUS
 10
1.1638748619
 20
-11.0458032544
 11
1.514564828
 21
-11.0139700964
  0
LINE
  5
251
100
AcDbEntity
  8
RACCORDO
100
AcDbLine
 62
7
  6
CONTINUOUS
 10
-12.8142460845
 20
-11.0458032544
 11
-10.0361251381
 21
-11.0458032544
  0
LINE
  5
252
100
AcDbEntity
  8
ASSI
100
AcDbLine
 62
7
  6
CONTINUOUS
 10
-12.8142460845
 20
-11.0458032544
 11
-10.0361251381
 21
-11.0458032544
  0
LINE
  5
253
100
AcDbEntity
  8
DRAFT
100
AcDbLine
 62
7
  6
CONTINUOUS
 10
-5.6192751521
 20
-11.0458032544
 11
1.1638748619
 21
-11.0458032544
  0
LINE
  5
254
100
AcDbEntity
  8
ASSI
100
AcDbLine
 62
7
  6
CONTINUOUS
 10
-5.6192751521
 20
-11.0458032544
 11
1.1638748619
 21
-11.0458032544
  0
LINE
  5
255
100
AcDbEntity
  8
DRAFT
100
AcDbLine
 62
7
  6
CONTINUOUS
 10
5.5807248479
 20
-11.0458032544
 11
12.4638748619
 21
-11.0458032544
  0
LINE
  5
256
100
AcDbEntity
  8
ASSI
100
AcDbLine
 62
7
  6
CONTINUOUS
 10
5.5807248479
 20
-11.0458032544
 11
12.4638748619
 21
-11.0458032544
  0
LINE
  5
257
100
AcDbEntity
  8
DRAFT
100
AcDbLine
 62
7
  6
CONTINUOUS
 10
16.8807248479
 20
-11.0458032544
 11
23.6638748619
 21
-11.0458032544
  0
LINE
  5
258
100
AcDbEntity
  8
ASSI
100
AcDbLine
 62
7
  6
CONTINUOUS
 10
16.8807248479
 20
-11.0458032544
 11
23.6638748619
 21
-11.0458032544
  0
LINE
  5
259
100
AcDbEntity
  8
RACCORDO
100
AcDbLine
 62
7
  6
CONTINUOUS
 10
28.0807248479
 20
-11.0458032544
 11
30.8588457943
 21
-11.0458032544
  0
LINE
  5
25A
100
AcDbEntity
  8
ASSI
100
AcDbLine
 62
7
  6
CONTINUOUS
 10
28.0807248479
 20
-11.0458032544
 11
30.8588457943
 21
-11.0458032544
  0
LINE
  5
25B
100
AcDbEntity
  8
RACCORDO
100
AcDbLine
 62
7
  6
CONTINUOUS
 10
-9.5122300912
 20
-11.0087293185
 11
-6.1431701989
 21
-11.0087293185
  0
LINE
  5
25C
100
AcDbEntity
  8
ASSI
100
AcDbLine
 62
7
  6
CONTINUOUS
 10
-9.5122300912
 20
-11.0087293185
 11
-6.1431701989
 21
-11.0087293185
  0
LINE
  5
25D
100
AcDbEntity
  8
RACCORDO
100
AcDbLine
 62
7
  6
CONTINUOUS
 10
1.6877699088
 20
-11.0087293185
 11
5.0568298011
 21
-11.0087293185
  0
LINE
  5
25E
100
AcDbEntity
  8
ASSI
100
AcDbLine
 62
7
  6
CONTINUOUS
 10
1.6877699088
 20
-11.0087293185
 11
5.0568298011
 21
-11.0087293185
  0
LINE
  5
25F
100
AcDbEntity
  8
RACCORDO
100
AcDbLine
 62
7
  6
CONTINUOUS
 10
12.9877699088
 20
-11.0087293185
 11
16.3568298011
 21
-11.0087293185
  0
LINE
  5
260
100
AcDbEntity
  8
ASSI
100
AcDbLine
 62
7
  6
CONTINUOUS
 10
12.9877699088
 20
-11.0087293185
 11
16.3568298011
 21
-11.0087293185
  0
LINE
  5
261
100
AcDbEntity
  8
RACCORDO
100
AcDbLine
 62
7
  6
CONTINUOUS
 10
24.1877699088
 20
-11.0087293185
 11
27.5568298011
 21
-11.0087293185
  0
LINE
  5
262
100
AcDbEntity
  8
ASSI
100
AcDbLine
 62
7
  6
CONTINUOUS
 10
24.1877699088
 20
-11.0087293185
 11
27.5568298011
 21
-11.0087293185
  0
LINE
  5
263
100
AcDbEntity
  8
RACCORDO
100
AcDbLine
 62
253
  6
CONTINUOUS
 10
30.8053603339
 20
-10.8852163866
 11
-12.760760624
 21
-10.8852163866
  0
LINE
  5
264
100
AcDbEntity
  8
ASSI
100
AcDbLine
 62
253
  6
CONTINUOUS
 10
30.8053603339
 20
-10.8852163866
 11
-12.760760624
 21
-10.8852163866
  0
LINE
  5
265
100
AcDbEntity
  8
RACCORDO
100
AcDbLine
 62
7
  6
CONTINUOUS
 10
5.5807248479
 20
-11.0458032544
 11
5.2300348818
 21
-11.0139700964
  0
LINE
  5
266
100
AcDbEntity
  8
ASSI
100
AcDbLine
 62
7
  6
CONTINUOUS
 10
5.5807248479
 20
-11.0458032544
 11
5.2300348818
 21
-11.0139700964
  0
LINE
  5
267
100
AcDbEntity
  8
RACCORDO
100
AcDbLine
 62
7
  6
CONTINUOUS
 10
16.8807248479
 20
-11.0458032544
 11
16.5300348818
 21
-11.0139700964
  0
LINE
  5
268
100
AcDbEntity
  8
ASSI
100
AcDbLine
 62
7
  6
CONTINUOUS
 10
16.8807248479
 20
-11.0458032544
 11
16.5300348818
 21
-11.0139700964
  0
LINE
  5
269
100
AcDbEntity
  8
RACCORDO
100
AcDbLine
 62
7
  6
CONTINUOUS
 10
-10.0361251381
 20
-11.0458032544
 11
-9.685435172
 21
-11.0139700964
  0
LINE
  5
26A
100
AcDbEntity
  8
ASSI
100
AcDbLine
 62
7
  6
CONTINUOUS
 10
-10.0361251381
 20
-11.0458032544
 11
-9.685435172
 21
-11.0139700964
  0
LINE
  5
26B
100
AcDbEntity
  8
RACCORDO
100
AcDbLine
 62
253
  6
CONTINUOUS
 10
30.7888333432
 20
-9.4489451843
 11
-12.7442336333
 21
-9.4489451845
  0
LINE
  5
26C
100
AcDbEntity
  8
ASSI
100
AcDbLine
 62
253
  6
CONTINUOUS
 10
30.7888333432
 20
-9.4489451843
 11
-12.7442336333
 21
-9.4489451845
  0
LINE
  5
26D
100
AcDbEntity
  8
RACCORDO
100
AcDbLine
 62
7
  6
CONTINUOUS
 10
28.0807248479
 20
-11.0458032544
 11
27.7300348818
 21
-11.0139700964
  0
LINE
  5
26E
100
AcDbEntity
  8
ASSI
100
AcDbLine
 62
7
  6
CONTINUOUS
 10
28.0807248479
 20
-11.0458032544
 11
27.7300348818
 21
-11.0139700964
  0
LINE
  5
26F
100
AcDbEntity
  8
CURVE
100
AcDbLine
 62
253
  6
CONTINUOUS
 10
9.0222998549
 20
-3.4364905487
 11
9.0222998549
 21
-0.3364904457
  0
LINE
  5
270
100
AcDbEntity
  8
RACCORDO
100
AcDbLine
 62
253
  6
CONTINUOUS
 10
31.1722998538
 20
11.0135094513
 11
31.0814137467
 21
10.9680698587
  0
LINE
  5
271
100
AcDbEntity
  8
ASSI
100
AcDbLine
 62
253
  6
CONTINUOUS
 10
31.1722998538
 20
11.0135094513
 11
31.0814137467
 21
10.9680698587
  0
LINE
  5
272
100
AcDbEntity
  8
RACCORDO
100
AcDbLine
 62
253
  6
CONTINUOUS
 10
-13.2367835759
 20
10.768077474
 11
-13.3277001451
 21
10.8135322966
  0
LINE
  5
273
100
AcDbEntity
  8
ASSI
100
AcDbLine
 62
253
  6
CONTINUOUS
 10
-13.2367835759
 20
10.768077474
 11
-13.3277001451
 21
10.8135322966
  0
LINE
  5
274
100
AcDbEntity
  8
RACCORDO
100
AcDbLine
 62
253
  6
CONTINUOUS
 10
-13.0368140369
 20
10.9680698587
 11
-13.1277001439
 21
11.0135094513
  0
LINE
  5
275
100
AcDbEntity
  8
ASSI
100
AcDbLine
 62
253
  6
CONTINUOUS
 10
-13.0368140369
 20
10.9680698587
 11
-13.1277001439
 21
11.0135094513
  0
LINE
  5
276
100
AcDbEntity
  8
RACCORDO
100
AcDbLine
 62
253
  6
CONTINUOUS
 10
31.3722998549
 20
10.8135322966
 11
31.2813832858
 21
10.768077474
  0
LINE
  5
277
100
AcDbEntity
  8
ASSI
100
AcDbLine
 62
253
  6
CONTINUOUS
 10
31.3722998549
 20
10.8135322966
 11
31.2813832858
 21
10.768077474
  0
LINE
  5
278
100
AcDbEntity
  8
DRAFT
100
AcDbLine
 62
7
  6
CONTINUOUS
 10
28.7847658455
 20
11.0135094513
 11
28.5222998549
 21
10.9873288479
  0
LINE
  5
279
100
AcDbEntity
  8
ASSI
100
AcDbLine
 62
7
  6
CONTINUOUS
 10
28.7847658455
 20
11.0135094513
 11
28.5222998549
 21
10.9873288479
  0
LINE
  5
27A
100
AcDbEntity
  8
DRAFT
100
AcDbLine
 62
7
  6
CONTINUOUS
 10
-10.7401661357
 20
11.0135094513
 11
-10.4777001451
 21
10.9873288479
  0
LINE
  5
27B
100
AcDbEntity
  8
ASSI
100
AcDbLine
 62
7
  6
CONTINUOUS
 10
-10.7401661357
 20
11.0135094513
 11
-10.4777001451
 21
10.9873288479
  0
LINE
  5
27C
100
AcDbEntity
  8
RACCORDO
100
AcDbLine
 62
253
  6
CONTINUOUS
 10
30.7814469849
 20
10.7653658618
 11
-12.7368472751
 21
10.7653658618
  0
LINE
  5
27D
100
AcDbEntity
  8
ASSI
100
AcDbLine
 62
253
  6
CONTINUOUS
 10
30.7814469849
 20
10.7653658618
 11
-12.7368472751
 21
10.7653658618
  0
LINE
  5
27E
100
AcDbEntity
  8
RACCORDO
100
AcDbLine
 62
253
  6
CONTINUOUS
 10
30.7814594668
 20
10.9654975047
 11
-12.736859757
 21
10.9654975047
  0
LINE
  5
27F
100
AcDbEntity
  8
ASSI
100
AcDbLine
 62
7
  6
CONTINUOUS
 10
30.7814594668
 20
10.9654975047
 11
-12.736859757
 21
10.9654975047
  0
LINE
  5
280
100
AcDbEntity
  8
DRAFT
100
AcDbLine
 62
7
  6
CONTINUOUS
 10
-10.4777001451
 20
10.9873288479
 11
28.5222998549
 21
10.9873288479
  0
LINE
  5
281
100
AcDbEntity
  8
ASSI
100
AcDbLine
 62
7
  6
CONTINUOUS
 10
-10.4777001451
 20
10.9873288479
 11
28.5222998549
 21
10.9873288479
  0
LINE
  5
282
100
AcDbEntity
  8
RACCORDO
100
AcDbLine
 62
7
  6
CONTINUOUS
 10
-13.1277001439
 20
11.0135094513
 11
-10.7401661357
 21
11.0135094513
  0
LINE
  5
283
100
AcDbEntity
  8
ASSI
100
AcDbLine
 62
7
  6
CONTINUOUS
 10
-13.1277001439
 20
11.0135094513
 11
-10.7401661357
 21
11.0135094513
  0
LINE
  5
284
100
AcDbEntity
  8
RACCORDO
100
AcDbLine
 62
7
  6
CONTINUOUS
 10
28.7847658455
 20
11.0135094513
 11
31.1722998538
 21
11.0135094513
  0
LINE
  5
285
100
AcDbEntity
  8
ASSI
100
AcDbLine
 62
7
  6
CONTINUOUS
 10
28.7847658455
 20
11.0135094513
 11
31.1722998538
 21
11.0135094513
  0
LINE
  5
286
100
AcDbEntity
  8
RACCORDO
100
AcDbLine
 62
253
  6
CONTINUOUS
 10
30.8053603339
 20
-10.8852163866
 11
30.8588457943
 21
-11.0458032544
  0
LINE
  5
287
100
AcDbEntity
  8
ASSI
100
AcDbLine
 62
253
  6
CONTINUOUS
 10
30.8053603339
 20
-10.8852163866
 11
30.8588457943
 21
-11.0458032544
  0
LINE
  5
288
100
AcDbEntity
  8
RACCORDO
100
AcDbLine
 62
253
  6
CONTINUOUS
 10
31.3052839763
 20
-10.3859010033
 11
31.3592256176
 21
-10.5478575266
  0
LINE
  5
289
100
AcDbEntity
  8
ASSI
100
AcDbLine
 62
253
  6
CONTINUOUS
 10
31.3052839763
 20
-10.3859010033
 11
31.3592256176
 21
-10.5478575266
  0
LINE
  5
28A
100
AcDbEntity
  8
RACCORDO
100
AcDbLine
 62
253
  6
CONTINUOUS
 10
30.7814594668
 20
10.7653658618
 11
30.7814594668
 21
10.9654975047
  0
LINE
  5
28B
100
AcDbEntity
  8
ASSI
100
AcDbLine
 62
253
  6
CONTINUOUS
 10
30.7814594668
 20
10.7653658618
 11
30.7814594668
 21
10.9654975047
  0
LINE
  5
28C
100
AcDbEntity
  8
RACCORDO
100
AcDbLine
 62
7
  6
CONTINUOUS
 10
31.3722998549
 20
10.8135322966
 11
31.3722998549
 21
-1.9864905487
  0
LINE
  5
28D
100
AcDbEntity
  8
ASSI
100
AcDbLine
 62
7
  6
CONTINUOUS
 10
31.3722998549
 20
10.8135322966
 11
31.3722998549
 21
-1.9864905487
  0
LINE
  5
28E
100
AcDbEntity
  8
RACCORDO
100
AcDbLine
 62
7
  6
CONTINUOUS
 10
31.3722998549
 20
-1.9864905487
 11
31.3592256176
 21
-10.5478575266
  0
LINE
  5
28F
100
AcDbEntity
  8
ASSI
100
AcDbLine
 62
7
  6
CONTINUOUS
 10
31.3722998549
 20
-1.9864905487
 11
31.3592256176
 21
-10.5478575266
  0
LINE
  5
290
100
AcDbEntity
  8
RACCORDO
100
AcDbLine
 62
7
  6
CONTINUOUS
 10
-28.7464397912
 20
-10.8852163866
 11
-25.682259816
 21
-11.0458032544
  0
LINE
  5
291
100
AcDbEntity
  8
ASSI
100
AcDbLine
 62
7
  6
CONTINUOUS
 10
-28.7464397912
 20
-10.8852163866
 11
-25.682259816
 21
-11.0458032544
  0
LINE
  5
292
100
AcDbEntity
  8
RACCORDO
100
AcDbLine
 62
253
  6
CONTINUOUS
 10
-28.7290097689
 20
-10.3859010033
 11
-25.6386952098
 21
-10.5478575266
  0
LINE
  5
293
100
AcDbEntity
  8
ASSI
100
AcDbLine
 62
253
  6
CONTINUOUS
 10
-28.7290097689
 20
-10.3859010033
 11
-25.6386952098
 21
-10.5478575266
  0
LINE
  5
294
100
AcDbEntity
  8
RACCORDO
100
AcDbLine
 62
253
  6
CONTINUOUS
 10
-29.6758278246
 20
-9.4283964052
 11
-30.1666783524
 21
-9.4489588622
  0
LINE
  5
295
100
AcDbEntity
  8
ASSI
100
AcDbLine
 62
253
  6
CONTINUOUS
 10
-29.6758278246
 20
-9.4283964052
 11
-30.1666783524
 21
-9.4489588622
  0
LINE
  5
296
100
AcDbEntity
  8
RACCORDO
100
AcDbLine
 62
253
  6
CONTINUOUS
 10
-25.2896726549
 20
-6.8199821499
 11
-25.3125483752
 21
-6.8199821491
  0
LINE
  5
297
100
AcDbEntity
  8
ASSI
100
AcDbLine
 62
253
  6
CONTINUOUS
 10
-25.2896726549
 20
-6.8199821499
 11
-25.3125483752
 21
-6.8199821491
  0
LINE
  5
298
100
AcDbEntity
  8
RACCORDO
100
AcDbLine
 62
7
  6
CONTINUOUS
 10
-25.2896726549
 20
-6.5585114698
 11
-25.2896726549
 21
-6.8199821499
  0
LINE
  5
299
100
AcDbEntity
  8
ASSI
100
AcDbLine
 62
7
  6
CONTINUOUS
 10
-25.2896726549
 20
-6.5585114698
 11
-25.2896726549
 21
-6.8199821499
  0
LINE
  5
29A
100
AcDbEntity
  8
RACCORDO
100
AcDbLine
 62
7
  6
CONTINUOUS
 10
-24.8896726549
 20
11.0135094513
 11
-24.8896726549
 21
-1.9864905487
  0
LINE
  5
29B
100
AcDbEntity
  8
ASSI
100
AcDbLine
 62
7
  6
CONTINUOUS
 10
-24.8896726549
 20
11.0135094513
 11
-24.8896726549
 21
-1.9864905487
  0
LINE
  5
29C
100
AcDbEntity
  8
RACCORDO
100
AcDbLine
 62
7
  6
CONTINUOUS
 10
-24.8896726549
 20
-1.9864905487
 11
-25.682259816
 21
-11.0458032544
  0
LINE
  5
29D
100
AcDbEntity
  8
ASSI
100
AcDbLine
 62
7
  6
CONTINUOUS
 10
-24.8896726549
 20
-1.9864905487
 11
-25.682259816
 21
-11.0458032544
  0
LINE
  5
29E
100
AcDbEntity
  8
0
100
AcDbLine
 62
7
  6
CONTINUOUS
 10
-24.0896726549
 20
5.7135094513
 11
-24.0896726549
 21
7.5135094513
  0
LINE
  5
29F
100
AcDbEntity
  8
0
100
AcDbLine
 62
7
  6
CONTINUOUS
 10
-24.8896726549
 20
5.6735094513
 11
-24.0896726549
 21
5.7135094513
  0
LINE
  5
2A0
100
AcDbEntity
  8
0
100
AcDbLine
 62
7
  6
CONTINUOUS
 10
-24.8896726549
 20
7.5535094513
 11
-24.0896726549
 21
7.5135094513
  0
LINE
  5
2A1
100
AcDbEntity
  8
RACCORDO
100
AcDbLine
 62
253
  6
CONTINUOUS
 10
-24.8896726549
 20
10.8135322966
 11
-30.098279413
 21
10.768077474
  0
LINE
  5
2A2
100
AcDbEntity
  8
ASSI
100
AcDbLine
 62
253
  6
CONTINUOUS
 10
-24.8896726549
 20
10.8135322966
 11
-30.098279413
 21
10.768077474
  0
LINE
  5
2A3
100
AcDbEntity
  8
RACCORDO
100
AcDbLine
 62
7
  6
CONTINUOUS
 10
-24.8896726549
 20
11.0135094513
 11
-30.3912968053
 21
10.9654975047
  0
LINE
  5
2A4
100
AcDbEntity
  8
ASSI
100
AcDbLine
 62
7
  6
CONTINUOUS
 10
-24.8896726549
 20
11.0135094513
 11
-30.3912968053
 21
10.9654975047
  0
CIRCLE
  5
2A5
100
AcDbEntity
  8
CURVE
100
AcDbCircle
 62
253
  6
CONTINUOUS
 10
9.0222998549
 20
-1.8864905487
 40
3.0
  0
ARC
  5
2A6
100
AcDbEntity
  8
RACCORDO
100
AcDbCircle
 62
253
  6
CONTINUOUS
 10
9.0222998543
 20
6.6130991903
 40
1.4205643605
100
AcDbArc
 50
359.9802406462
 51
180.0197593538
  0
ARC
  5
2A7
100
AcDbEntity
  8
ASSI
100
AcDbCircle
 62
253
  6
CONTINUOUS
 10
9.0222998543
 20
6.6130991903
 40
1.4205643605
100
AcDbArc
 50
359.9802406462
 51
180.0197593538
  0
ARC
  5
2A8
100
AcDbEntity
  8
RACCORDO
100
AcDbCircle
 62
253
  6
CONTINUOUS
 10
9.0222998556
 20
6.6125657848
 40
1.4205642984
100
AcDbArc
 50
179.9982461073
 51
0.0017538927
  0
ARC
  5
2A9
100
AcDbEntity
  8
ASSI
100
AcDbCircle
 62
253
  6
CONTINUOUS
 10
9.0222998556
 20
6.6125657848
 40
1.4205642984
100
AcDbArc
 50
179.9982461073
 51
0.0017538927
  0
CIRCLE
  5
2AA
100
AcDbEntity
  8
RACCORDO
100
AcDbCircle
 62
253
  6
CONTINUOUS
 10
9.022299855
 20
6.6136949331
 40
1.3206291745
  0
CIRCLE
  5
2AB
100
AcDbEntity
  8
ASSI
100
AcDbCircle
 62
253
  6
CONTINUOUS
 10
9.022299855
 20
6.6136949331
 40
1.3206291745
  0
CIRCLE
  5
2AC
100
AcDbEntity
  8
DRAFT
100
AcDbCircle
 62
7
  6
CONTINUOUS
 10
9.0222998549
 20
6.6135094513
 40
1.3
  0
CIRCLE
  5
2AD
100
AcDbEntity
  8
ASSI
100
AcDbCircle
 62
7
  6
CONTINUOUS
 10
9.0222998549
 20
6.6135094513
 40
1.3
  0
CIRCLE
  5
2AE
100
AcDbEntity
  8
DRAFT
100
AcDbCircle
 62
7
  6
CONTINUOUS
 10
9.0222998549
 20
6.6135094513
 40
1.225
  0
CIRCLE
  5
2AF
100
AcDbEntity
  8
RACCORDO
100
AcDbCircle
 62
253
  6
CONTINUOUS
 10
9.0222998549
 20
6.6135094513
 40
1.2068524201
  0
CIRCLE
  5
2B0
100
AcDbEntity
  8
RACCORDO
100
AcDbCircle
 62
253
  6
CONTINUOUS
 10
9.0222998549
 20
6.6135094513
 40
1.1180464865
  0
ARC
  5
2B1
100
AcDbEntity
  8
RACCORDO
100
AcDbCircle
 62
253
  6
CONTINUOUS
 10
-12.7605554569
 20
-10.3850104078
 40
0.5001711055
100
AcDbArc
 50
180.1020283288
 51
269.9765227258
  0
ARC
  5
2B2
100
AcDbEntity
  8
RACCORDO
100
AcDbCircle
 62
253
  6
CONTINUOUS
 10
30.8051551275
 20
-10.3850104467
 40
0.5001711055
100
AcDbArc
 50
270.0234817623
 51
359.8979761315
  0
ARC
  5
2B3
100
AcDbEntity
  8
ASSI
100
AcDbCircle
 62
253
  6
CONTINUOUS
 10
30.8051551275
 20
-10.3850104467
 40
0.5001711055
100
AcDbArc
 50
270.0234817623
 51
359.8979761315
  0
ARC
  5
2B4
100
AcDbEntity
  8
ASSI
100
AcDbCircle
 62
253
  6
CONTINUOUS
 10
-12.7605554569
 20
-10.3850104078
 40
0.5001711055
100
AcDbArc
 50
180.1020283288
 51
269.9765227258
  0
ARC
  5
2B5
100
AcDbEntity
  8
RACCORDO
100
AcDbCircle
 62
253
  6
CONTINUOUS
 10
-13.0367647561
 20
10.7680536626
 40
0.2000177349
100
AcDbArc
 50
90.0141167675
 51
179.9931791556
  0
ARC
  5
2B6
100
AcDbEntity
  8
RACCORDO
100
AcDbCircle
 62
253
  6
CONTINUOUS
 10
31.0813644728
 20
10.7680536695
 40
0.2000177349
100
AcDbArc
 50
0.0068188717
 51
89.9858852041
  0
ARC
  5
2B7
100
AcDbEntity
  8
ASSI
100
AcDbCircle
 62
253
  6
CONTINUOUS
 10
31.0813644728
 20
10.7680536695
 40
0.2000177349
100
AcDbArc
 50
0.0068188717
 51
89.9858852041
  0
ARC
  5
2B8
100
AcDbEntity
  8
ASSI
100
AcDbCircle
 62
253
  6
CONTINUOUS
 10
-13.0367647561
 20
10.7680536626
 40
0.2000177349
100
AcDbArc
 50
90.0141167675
 51
179.9931791556
  0
ARC
  5
2B9
100
AcDbEntity
  8
RACCORDO
100
AcDbCircle
 62
7
  6
CONTINUOUS
 10
-28.6679476094
 20
-9.3872714685
 40
1.5
100
AcDbArc
 50
182.3564266604
 51
267.0004495319
  0
ARC
  5
2BA
100
AcDbEntity
  8
ASSI
100
AcDbCircle
 62
7
  6
CONTINUOUS
 10
-28.6679476094
 20
-9.3872714685
 40
1.5
100
AcDbArc
 50
182.3564266604
 51
267.0004495319
  0
ARC
  5
2BB
100
AcDbEntity
  8
RACCORDO
100
AcDbCircle
 62
253
  6
CONTINUOUS
 10
-28.6766738068
 20
-9.3872714628
 40
1.0000000061
100
AcDbArc
 50
182.3569503067
 51
266.9999996841
  0
ARC
  5
2BC
100
AcDbEntity
  8
ASSI
100
AcDbCircle
 62
253
  6
CONTINUOUS
 10
-28.6766738068
 20
-9.3872714628
 40
1.0000000061
100
AcDbArc
 50
182.3569503067
 51
266.9999996841
  0
ARC
  5
2BD
100
AcDbEntity
  8
RACCORDO
100
AcDbCircle
 62
7
  6
CONTINUOUS
 10
-25.5896726549
 20
-6.8199821499
 40
0.3
100
AcDbArc
 50
335.0
 51
360.0
  0
ARC
  5
2BE
100
AcDbEntity
  8
ASSI
100
AcDbCircle
 62
7
  6
CONTINUOUS
 10
-25.5896726549
 20
-6.8199821499
 40
0.3
100
AcDbArc
 50
335.0
 51
360.0
  0
ARC
  5
2BF
100
AcDbEntity
  8
RACCORDO
100
AcDbCircle
 62
7
  6
CONTINUOUS
 10
-30.3895511054
 20
10.7655051235
 40
0.2
100
AcDbArc
 50
90.5001125223
 51
180.0398954802
  0
ARC
  5
2C0
100
AcDbEntity
  8
ASSI
100
AcDbCircle
 62
7
  6
CONTINUOUS
 10
-30.3895511054
 20
10.7655051235
 40
0.2
100
AcDbArc
 50
90.5001125223
 51
180.0398954802
  0
ARC
  5
2C1
100
AcDbEntity
  8
RACCORDO
100
AcDbCircle
 62
7
  6
CONTINUOUS
 10
469.4103273451
 20
11.1135094513
 40
500.0
100
AcDbArc
 50
180.0398943199
 51
182.3569484208
  0
ARC
  5
2C2
100
AcDbEntity
  8
ASSI
100
AcDbCircle
 62
7
  6
CONTINUOUS
 10
469.4103273451
 20
11.1135094513
 40
500.0
100
AcDbArc
 50
180.0398943199
 51
182.3569484208
  0
ARC
  5
2C3
100
AcDbEntity
  8
CURVE
100
AcDbCircle
 62
253
  6
CONTINUOUS
 10
469.2273734125
 20
11.1095610824
 40
499.817003536
100
AcDbArc
 50
181.1983216311
 51
181.391271711
  0
ARC
  5
2C4
100
AcDbEntity
  8
RACCORDO
100
AcDbCircle
 62
253
  6
CONTINUOUS
 10
469.4015954846
 20
11.1135092732
 40
499.4999943402
100
AcDbArc
 50
180.0396231952
 51
182.356949997
  0
ARC
  5
2C5
100
AcDbEntity
  8
ASSI
100
AcDbCircle
 62
253
  6
CONTINUOUS
 10
469.4015954846
 20
11.1135092732
 40
499.4999943402
100
AcDbArc
 50
180.0396231952
 51
182.356949997
  0
SPLINE
  5
2C6
100
AcDbEntity
  8
RACCORDO
100
AcDbSpline
 62
253
  6
CONTINUOUS
 70
0
 71
3
 72
18
 73
14
 74
12
 42
0.0000001
 43
0.0000001
 44
0.0000000001
 12
-0.299989706
 22
0.000000142
 32
0.0
 13
-0.2684874758
 23
0.133821893
 33
0.0
 40
0.0
 40
0.0
 40
0.0
 40
0.0
 40
0.1406746255
 40
0.2786286441
 40
0.4110478798
 40
0.5352794916
 40
0.6488611016
 40
0.7495250868
 40
0.8352602903
 40
0.9043609514
 40
0.955459893
 40
0.9875422799
 40
1.0
 40
1.0
 40
1.0
 40
1.0
 10
-12.736859757
 20
10.9654975047
 30
0.0
 10
-12.7509267368
 20
10.9654975114
 30
0.0
 10
-12.7787886609
 20
10.9655144817
 30
0.0
 10
-12.8198919232
 20
10.9655909618
 30
0.0
 10
-12.8593510586
 20
10.9657158704
 30
0.0
 10
-12.8963720098
 20
10.9658895521
 30
0.0
 10
-12.9302199913
 20
10.966098251
 30
0.0
 10
-12.9602095374
 20
10.9663688288
 30
0.0
 10
-12.9857760468
 20
10.9665996225
 30
0.0
 10
-13.006315524
 20
10.9670510728
 30
0.0
 10
-13.0216612138
 20
10.9670300057
 30
0.0
 10
-13.030993586
 20
10.9679763932
 30
0.0
 10
-13.035699123
 20
10.9675141534
 30
0.0
 10
-13.0368140369
 20
10.9680698587
 30
0.0
 11
-12.736859757
 21
10.9654975047
 31
0.0
 11
-12.7790606885
 21
10.9655235364
 31
0.0
 11
-12.8204454012
 21
10.9656011759
 31
0.0
 11
-12.8601696035
 21
10.9657288863
 31
0.0
 11
-12.8974373962
 21
10.9659041184
 31
0.0
 11
-12.9315100044
 21
10.9661234012
 31
0.0
 11
-12.9617070533
 21
10.966382366
 31
0.0
 11
-12.9874250575
 21
10.9666758364
 31
0.0
 11
-13.0081520416
 21
10.9669979559
 31
0.0
 11
-13.0234773291
 21
10.9673423392
 31
0.0
 11
-13.0330949891
 21
10.9677020868
 31
0.0
 11
-13.0368140369
 21
10.9680698587
 31
0.0
  0
SPLINE
  5
2C7
100
AcDbEntity
  8
RACCORDO
100
AcDbSpline
 62
253
  6
CONTINUOUS
 70
0
 71
3
 72
18
 73
14
 74
12
 42
0.0000001
 43
0.0000001
 44
0.0000000001
 12
-0.2684874777
 22
-0.1338218893
 32
0.0
 13
-0.299989706
 23
-0.000000142
 33
0.0
 40
0.0
 40
0.0
 40
0.0
 40
0.0
 40
0.01245772
 40
0.0445401068
 40
0.0956390483
 40
0.1647397093
 40
0.2504749128
 40
0.351138898
 40
0.4647205079
 40
0.5889521196
 40
0.7213713552
 40
0.8593253738
 40
1.0
 40
1.0
 40
1.0
 40
1.0
 10
31.0814137467
 20
10.9680698587
 30
0.0
 10
31.0802988328
 20
10.9675141535
 30
0.0
 10
31.0755932959
 20
10.9679763932
 30
0.0
 10
31.0662609237
 20
10.9670300057
 30
0.0
 10
31.050915234
 20
10.9670510728
 30
0.0
 10
31.0303757567
 20
10.9665996225
 30
0.0
 10
31.0048092474
 20
10.9663688288
 30
0.0
 10
30.9748197013
 20
10.966098251
 30
0.0
 10
30.9409717198
 20
10.9658895521
 30
0.0
 10
30.9039507686
 20
10.9657158704
 30
0.0
 10
30.8644916332
 20
10.9655909618
 30
0.0
 10
30.8233883709
 20
10.9655144817
 30
0.0
 10
30.7955264467
 20
10.9654975114
 30
0.0
 10
30.7814594668
 20
10.9654975047
 30
0.0
 11
31.0814137467
 21
10.9680698587
 31
0.0
 11
31.077694699
 21
10.9677020868
 31
0.0
 11
31.068077039
 21
10.9673423392
 31
0.0
 11
31.0527517515
 21
10.9669979559
 31
0.0
 11
31.0320247674
 21
10.9666758364
 31
0.0
 11
31.0063067633
 21
10.966382366
 31
0.0
 11
30.9761097144
 21
10.9661234012
 31
0.0
 11
30.9420371062
 21
10.9659041184
 31
0.0
 11
30.9047693135
 21
10.9657288863
 31
0.0
 11
30.8650451112
 21
10.9656011759
 31
0.0
 11
30.8236603985
 21
10.9655235364
 31
0.0
 11
30.7814594668
 21
10.9654975047
 31
0.0
  0
SPLINE
  5
2C8
100
AcDbEntity
  8
RACCORDO
100
AcDbSpline
 62
253
  6
CONTINUOUS
 70
0
 71
3
 72
21
 73
17
 74
15
 42
0.0000001
 43
0.0000001
 44
0.0000000001
 12
0.3113269094
 22
1.402385911
 32
0.0
 13
0.0006885319
 23
1.4365271365
 33
0.0
 40
0.0
 40
0.0
 40
0.0
 40
0.0
 40
0.0116253613
 40
0.0346870886
 40
0.0689537638
 40
0.1140486773
 40
0.1694730336
 40
0.2346119018
 40
0.3087402368
 40
0.3910339711
 40
0.4805783092
 40
0.5763759237
 40
0.6773619052
 40
0.7824150232
 40
0.8903612899
 40
1.0
 40
1.0
 40
1.0
 40
1.0
 10
-12.760760555
 20
-10.8852163866
 30
0.0
 10
-12.7595541258
 20
-10.8797819722
 30
0.0
 10
-12.7586318671
 20
-10.8631029346
 30
0.0
 10
-12.7566873339
 20
-10.8302102862
 30
0.0
 10
-12.7551897696
 20
-10.7811502055
 30
0.0
 10
-12.753504048
 20
-10.7166460422
 30
0.0
 10
-12.751975316
 20
-10.637330537
 30
0.0
 10
-12.7505109629
 20
-10.5441172985
 30
0.0
 10
-12.7491731387
 20
-10.4380321673
 30
0.0
 10
-12.7479651554
 20
-10.3202593283
 30
0.0
 10
-12.7469063076
 20
-10.1921082426
 30
0.0
 10
-12.7460078699
 20
-10.0550051818
 30
0.0
 10
-12.7452808281
 20
-9.9104747276
 30
0.0
 10
-12.7447335155
 20
-9.7601261629
 30
0.0
 10
-12.7443722983
 20
-9.6056337344
 30
0.0
 10
-12.7442587966
 20
-9.5014448452
 30
0.0
 10
-12.7442336333
 20
-9.4489451845
 30
0.0
 11
-12.760760555
 21
-10.8852163866
 31
0.0
 11
-12.7589296537
 21
-10.8686169054
 31
0.0
 11
-12.7571292957
 21
-10.8355370603
 31
0.0
 11
-12.7553793806
 21
-10.7863431597
 31
0.0
 11
-12.7536995588
 21
-10.7215848689
 31
0.0
 11
-12.7521084526
 21
-10.6419821678
 31
0.0
 11
-12.7506237658
 21
-10.5484201844
 31
0.0
 11
-12.7492620338
 21
-10.4419415145
 31
0.0
 11
-12.7480383964
 21
-10.3237306513
 31
0.0
 11
-12.7469664575
 21
-10.1951022314
 31
0.0
 11
-12.7460581506
 21
-10.0574893404
 31
0.0
 11
-12.7453235699
 21
-9.9124220807
 31
0.0
 11
-12.7447708662
 21
-9.7615114207
 31
0.0
 11
-12.7444062143
 21
-9.6064440902
 31
0.0
 11
-12.7442336333
 21
-9.4489451845
 31
0.0
  0
SPLINE
  5
2C9
100
AcDbEntity
  8
RACCORDO
100
AcDbSpline
 62
253
  6
CONTINUOUS
 70
0
 71
3
 72
21
 73
17
 74
15
 42
0.0000001
 43
0.0000001
 44
0.0000000001
 12
0.0006885319
 22
-1.4365271366
 32
0.0
 13
0.3113269084
 23
-1.4023859114
 33
0.0
 40
0.0
 40
0.0
 40
0.0
 40
0.0
 40
0.1096387099
 40
0.2175849767
 40
0.3226380947
 40
0.4236240761
 40
0.5194216906
 40
0.6089660287
 40
0.6912597631
 40
0.765388098
 40
0.8305269663
 40
0.8859513226
 40
0.9310462361
 40
0.9653129114
 40
0.9883746386
 40
1.0
 40
1.0
 40
1.0
 40
1.0
 10
30.7888333432
 20
-9.4489451843
 30
0.0
 10
30.7888585064
 20
-9.501444845
 30
0.0
 10
30.7889720081
 20
-9.6056337342
 30
0.0
 10
30.7893332253
 20
-9.7601261626
 30
0.0
 10
30.7898805379
 20
-9.9104747273
 30
0.0
 10
30.7906075797
 20
-10.0550051815
 30
0.0
 10
30.7915060175
 20
-10.1921082423
 30
0.0
 10
30.7925648652
 20
-10.3202593281
 30
0.0
 10
30.7937728485
 20
-10.4380321671
 30
0.0
 10
30.7951106727
 20
-10.5441172983
 30
0.0
 10
30.7965750259
 20
-10.6373305368
 30
0.0
 10
30.7981037578
 20
-10.716646042
 30
0.0
 10
30.7997894795
 20
-10.7811502053
 30
0.0
 10
30.8012870438
 20
-10.830210286
 30
0.0
 10
30.803231577
 20
-10.8631029345
 30
0.0
 10
30.8041538356
 20
-10.8797819722
 30
0.0
 10
30.8053602649
 20
-10.8852163865
 30
0.0
 11
30.7888333432
 21
-9.4489451843
 31
0.0
 11
30.7890059241
 21
-9.6064440899
 31
0.0
 11
30.789370576
 21
-9.7615114204
 31
0.0
 11
30.7899232798
 21
-9.9124220804
 31
0.0
 11
30.7906578604
 21
-10.0574893401
 31
0.0
 11
30.7915661674
 21
-10.1951022311
 31
0.0
 11
30.7926381062
 21
-10.3237306511
 31
0.0
 11
30.7938617436
 21
-10.4419415143
 31
0.0
 11
30.7952234757
 21
-10.5484201841
 31
0.0
 11
30.7967081625
 21
-10.6419821676
 31
0.0
 11
30.7982992686
 21
-10.7215848687
 31
0.0
 11
30.7999790904
 21
-10.7863431596
 31
0.0
 11
30.8017290055
 21
-10.8355370602
 31
0.0
 11
30.8035293635
 21
-10.8686169053
 31
0.0
 11
30.8053602649
 21
-10.8852163865
 31
0.0
  0
SPLINE
  5
2CA
100
AcDbEntity
  8
RACCORDO
100
AcDbSpline
 62
253
  6
CONTINUOUS
 70
0
 71
3
 72
11
 73
7
 74
5
 42
0.0000001
 43
0.0000001
 44
0.0000000001
 12
0.0002437994
 22
-20.1964756175
 32
0.0
 13
0.0145100747
 23
-20.1964704066
 33
0.0
 40
0.0
 40
0.0
 40
0.0
 40
0.0
 40
0.2500744177
 40
0.5001049865
 40
0.750083017
 40
1.0
 40
1.0
 40
1.0
 40
1.0
 10
31.2813832858
 20
10.768077474
 30
0.0
 10
31.2814036084
 20
9.0845368474
 30
0.0
 10
31.2817413507
 20
5.717750788
 30
0.0
 10
31.2831392099
 20
0.6680731677
 30
0.0
 10
31.2854281395
 20
-4.3805442517
 30
0.0
 10
31.2875484343
 20
-7.7459160883
 30
0.0
 10
31.2887572057
 20
-9.4283964052
 30
0.0
 11
31.2813832858
 21
10.768077474
 31
0.0
 11
31.2818899705
 21
5.7174556192
 31
0.0
 11
31.283287917
 21
0.6677195257
 31
0.0
 11
31.2855769899
 21
-4.3809551537
 31
0.0
 11
31.2887572057
 21
-9.4283964052
 31
0.0
  0
SPLINE
  5
2CB
100
AcDbEntity
  8
RACCORDO
100
AcDbSpline
 62
253
  6
CONTINUOUS
 70
0
 71
3
 72
21
 73
17
 74
15
 42
0.0000001
 43
0.0000001
 44
0.0000000001
 12
0.0006885301
 22
-0.957887823
 32
0.0
 13
0.3025944495
 23
-0.9088378044
 33
0.0
 40
0.0
 40
0.0
 40
0.0
 40
0.0
 40
0.1095890288
 40
0.2175144953
 40
0.3225483467
 40
0.423516912
 40
0.519299397
 40
0.6088312783
 40
0.6911156636
 40
0.7652382519
 40
0.8303754916
 40
0.8858030898
 40
0.9309078341
 40
0.965194018
 40
0.9882927082
 40
1.0
 40
1.0
 40
1.0
 40
1.0
 10
31.2887572057
 20
-9.4283964052
 30
0.0
 10
31.2887823575
 20
-9.4633877373
 30
0.0
 10
31.2888958442
 20
-9.5328392047
 30
0.0
 10
31.2892570185
 20
-9.6358270361
 30
0.0
 10
31.2898043077
 20
-9.7360615329
 30
0.0
 10
31.2905313533
 20
-9.8324175926
 30
0.0
 10
31.2914297855
 20
-9.9238222406
 30
0.0
 10
31.2924886766
 20
-10.0092590934
 30
0.0
 10
31.2936966091
 20
-10.0877769456
 30
0.0
 10
31.2950347387
 20
-10.1585035814
 30
0.0
 10
31.2964983655
 20
-10.2206467346
 30
0.0
 10
31.2980295197
 20
-10.273530699
 30
0.0
 10
31.2997090645
 20
-10.3165240675
 30
0.0
 10
31.3012227332
 20
-10.3492669832
 30
0.0
 10
31.30313708
 20
-10.371149471
 30
0.0
 10
31.3041031225
 20
-10.3823543268
 30
0.0
 10
31.3052839763
 20
-10.3859010033
 30
0.0
 11
31.2887572057
 21
-9.4283964052
 31
0.0
 11
31.2889297304
 21
-9.5333702867
 31
0.0
 11
31.2892943649
 21
-9.6367501605
 31
0.0
 11
31.2898470503
 21
-9.7373593158
 31
0.0
 11
31.2905816264
 21
-9.8340731103
 31
0.0
 11
31.2914899348
 21
-9.9258175139
 31
0.0
 11
31.2925618867
 21
-10.0115723353
 31
0.0
 11
31.2937855475
 21
-10.0903820672
 31
0.0
 11
31.295147314
 21
-10.1613701501
 31
0.0
 11
31.2966320448
 21
-10.2237466671
 31
0.0
 11
31.298223193
 21
-10.2768162544
 31
0.0
 11
31.2999030654
 21
-10.3199888809
 31
0.0
 11
31.3016530023
 21
-10.3527845533
 31
0.0
 11
31.3034534378
 21
-10.3748371389
 31
0.0
 11
31.3052839763
 21
-10.3859010033
 31
0.0
  0
SPLINE
  5
2CC
100
AcDbEntity
  8
RACCORDO
100
AcDbSpline
 62
253
  6
CONTINUOUS
 70
0
 71
3
 72
11
 73
7
 74
5
 42
0.0000001
 43
0.0000001
 44
0.0000000001
 12
0.0002454386
 22
-20.2143127839
 32
0.0
 13
0.0145083669
 23
-20.2143075788
 33
0.0
 40
0.0
 40
0.0
 40
0.0
 40
0.0
 40
0.2500749619
 40
0.5001055662
 40
0.7500836323
 40
1.0
 40
1.0
 40
1.0
 40
1.0
 10
30.7814469849
 20
10.7653658618
 30
0.0
 10
30.7814674443
 20
9.0803346955
 30
0.0
 10
30.7818236669
 20
5.7105712464
 30
0.0
 10
30.783214271
 20
0.6564296941
 30
0.0
 10
30.7855050913
 20
-4.3966429079
 30
0.0
 10
30.7876247234
 20
-7.7649830759
 30
0.0
 10
30.7888333495
 20
-9.4489451843
 30
0.0
 11
30.7814469849
 21
10.7653658618
 31
0.0
 11
30.7819664586
 21
5.7102723892
 31
0.0
 11
30.7833645026
 21
0.65607574
 31
0.0
 11
30.7856534634
 21
-4.3970585586
 31
0.0
 11
30.7888333495
 21
-9.4489451843
 31
0.0
  0
SPLINE
  5
2CD
100
AcDbEntity
  8
RACCORDO
100
AcDbSpline
 62
253
  6
CONTINUOUS
 70
0
 71
3
 72
11
 73
7
 74
5
 42
0.0000001
 43
0.0000001
 44
0.0000000001
 12
0.0145083669
 22
20.214307579
 32
0.0
 13
0.0002454386
 23
20.214312784
 33
0.0
 40
0.0
 40
0.0
 40
0.0
 40
0.0
 40
0.2499163677
 40
0.4998944338
 40
0.7499250381
 40
1.0
 40
1.0
 40
1.0
 40
1.0
 10
-12.7442336396
 20
-9.4489451845
 30
0.0
 10
-12.7430250135
 20
-7.764983076
 30
0.0
 10
-12.7409053815
 20
-4.396642908
 30
0.0
 10
-12.7386145612
 20
0.6564296941
 30
0.0
 10
-12.7372239571
 20
5.7105712464
 30
0.0
 10
-12.7368677344
 20
9.0803346955
 30
0.0
 10
-12.7368472751
 20
10.7653658618
 30
0.0
 11
-12.7442336396
 21
-9.4489451845
 31
0.0
 11
-12.7410537536
 21
-4.3970585586
 31
0.0
 11
-12.7387647928
 21
0.65607574
 31
0.0
 11
-12.7373667488
 21
5.7102723892
 31
0.0
 11
-12.7368472751
 21
10.7653658618
 31
0.0
  0
SPLINE
  5
2CE
100
AcDbEntity
  8
RACCORDO
100
AcDbSpline
 62
253
  6
CONTINUOUS
 70
0
 71
3
 72
21
 73
17
 74
15
 42
0.0000001
 43
0.0000001
 44
0.0000000001
 12
0.3025944467
 22
0.9088378053
 32
0.0
 13
0.0006885301
 23
0.957887823
 33
0.0
 40
0.0
 40
0.0
 40
0.0
 40
0.0
 40
0.0117072917
 40
0.034805982
 40
0.0690921658
 40
0.1141969101
 40
0.1696245083
 40
0.2347617479
 40
0.3088843362
 40
0.3911687215
 40
0.4807006028
 40
0.5764830878
 40
0.6774516531
 40
0.7824855045
 40
0.890410971
 40
1.0
 40
1.0
 40
1.0
 40
1.0
 10
-13.2606842665
 20
-10.3859010033
 30
0.0
 10
-13.2595034127
 20
-10.3823543268
 30
0.0
 10
-13.2585373701
 20
-10.371149471
 30
0.0
 10
-13.2566230233
 20
-10.3492669833
 30
0.0
 10
-13.2551093547
 20
-10.3165240676
 30
0.0
 10
-13.2534298099
 20
-10.2735306991
 30
0.0
 10
-13.2518986557
 20
-10.2206467347
 30
0.0
 10
-13.2504350289
 20
-10.1585035816
 30
0.0
 10
-13.2490968992
 20
-10.0877769458
 30
0.0
 10
-13.2478889667
 20
-10.0092590935
 30
0.0
 10
-13.2468300756
 20
-9.9238222408
 30
0.0
 10
-13.2459316435
 20
-9.8324175928
 30
0.0
 10
-13.2452045978
 20
-9.7360615331
 30
0.0
 10
-13.2446573087
 20
-9.6358270363
 30
0.0
 10
-13.2442961343
 20
-9.5328392048
 30
0.0
 10
-13.2441826476
 20
-9.4633877373
 30
0.0
 10
-13.2441574958
 20
-9.4283964052
 30
0.0
 11
-13.2606842665
 21
-10.3859010033
 31
0.0
 11
-13.2588537279
 21
-10.3748371389
 31
0.0
 11
-13.2570532924
 21
-10.3527845534
 31
0.0
 11
-13.2553033555
 21
-10.319988881
 31
0.0
 11
-13.2536234832
 21
-10.2768162545
 31
0.0
 11
-13.2520323349
 21
-10.2237466673
 31
0.0
 11
-13.2505476042
 21
-10.1613701502
 31
0.0
 11
-13.2491858376
 21
-10.0903820674
 31
0.0
 11
-13.2479621769
 21
-10.0115723355
 31
0.0
 11
-13.2468902249
 21
-9.9258175141
 31
0.0
 11
-13.2459819166
 21
-9.8340731105
 31
0.0
 11
-13.2452473405
 21
-9.737359316
 31
0.0
 11
-13.244694655
 21
-9.6367501607
 31
0.0
 11
-13.2443300205
 21
-9.5333702869
 31
0.0
 11
-13.2441574958
 21
-9.4283964052
 31
0.0
  0
SPLINE
  5
2CF
100
AcDbEntity
  8
RACCORDO
100
AcDbSpline
 62
253
  6
CONTINUOUS
 70
0
 71
3
 72
11
 73
7
 74
5
 42
0.0000001
 43
0.0000001
 44
0.0000000001
 12
0.0145100747
 22
20.1964704066
 32
0.0
 13
0.0002437994
 23
20.1964756175
 33
0.0
 40
0.0
 40
0.0
 40
0.0
 40
0.0
 40
0.249916983
 40
0.4998950135
 40
0.7499255823
 40
1.0
 40
1.0
 40
1.0
 40
1.0
 10
-13.2441574958
 20
-9.4283964052
 30
0.0
 10
-13.2429487245
 20
-7.7459160883
 30
0.0
 10
-13.2408284297
 20
-4.3805442517
 30
0.0
 10
-13.2385395001
 20
0.6680731677
 30
0.0
 10
-13.2371416409
 20
5.717750788
 30
0.0
 10
-13.2368038986
 20
9.0845368474
 30
0.0
 10
-13.2367835759
 20
10.768077474
 30
0.0
 11
-13.2441574958
 21
-9.4283964052
 31
0.0
 11
-13.24097728
 21
-4.3809551537
 31
0.0
 11
-13.2386882072
 21
0.6677195257
 31
0.0
 11
-13.2372902606
 21
5.7174556192
 31
0.0
 11
-13.2367835759
 21
10.768077474
 31
0.0
  0
SPLINE
  5
2D0
100
AcDbEntity
  8
RACCORDO
100
AcDbSpline
 62
253
  6
CONTINUOUS
 70
0
 71
3
 72
17
 73
13
 74
11
 42
0.0000001
 43
0.0000001
 44
0.0000000001
 12
0.1956282812
 22
-0.461440029
 32
0.0
 13
0.5011957657
 23
-0.0003594732
 33
0.0
 40
0.0
 40
0.0
 40
0.0
 40
0.0
 40
0.0160132903
 40
0.0548770558
 40
0.1162690414
 40
0.1988277038
 40
0.3006095192
 40
0.4191865661
 40
0.551717786
 40
0.6950219317
 40
0.8456561653
 40
1.0
 40
1.0
 40
1.0
 40
1.0
 10
-13.2441574958
 20
-9.4283964052
 30
0.0
 10
-13.2431132783
 20
-9.4308594629
 30
0.0
 10
-13.2318156371
 20
-9.4320037697
 30
0.0
 10
-13.2145829542
 20
-9.4356937353
 30
0.0
 10
-13.1830959042
 20
-9.4379097928
 30
0.0
 10
-13.1425666639
 20
-9.4407363686
 30
0.0
 10
-13.0918499041
 20
-9.443016074
 30
0.0
 10
-13.0329835428
 20
-9.4450822676
 30
0.0
 10
-12.9670934823
 20
-9.4467320473
 30
0.0
 10
-12.8958605389
 20
-9.4479678459
 30
0.0
 10
-12.8209700587
 20
-9.4487425295
 30
0.0
 10
-12.7700191404
 20
-9.4489403793
 30
0.0
 10
-12.7442336483
 20
-9.4489588735
 30
0.0
 11
-13.2441574958
 21
-9.4283964052
 31
0.0
 11
-13.2367893268
 21
-9.4315781464
 31
0.0
 11
-13.2175600598
 21
-9.4346832689
 31
0.0
 11
-13.1869327495
 21
-9.4376369992
 31
0.0
 11
-13.1456449236
 21
-9.4403682093
 31
0.0
 11
-13.0946908231
 21
-9.4428111297
 31
0.0
 11
-13.0352974596
 21
-9.4449069331
 31
0.0
 11
-12.9688950685
 21
-9.4466051509
 31
0.0
 11
-12.8970826673
 21
-9.447864889
 31
0.0
 11
-12.8215895509
 21
-9.4486558119
 31
0.0
 11
-12.7442336483
 21
-9.4489588735
 31
0.0
  0
SPLINE
  5
2D1
100
AcDbEntity
  8
RACCORDO
100
AcDbSpline
 62
253
  6
CONTINUOUS
 70
0
 71
3
 72
18
 73
14
 74
12
 42
0.0000001
 43
0.0000001
 44
0.0000000001
 12
-0.4999598993
 22
0.0000026839
 32
0.0
 13
-0.4768081841
 23
0.1503790427
 33
0.0
 40
0.0
 40
0.0
 40
0.0
 40
0.0
 40
0.1407570357
 40
0.2787072446
 40
0.4111226913
 40
0.5353461367
 40
0.6489169725
 40
0.7495704425
 40
0.8352997461
 40
0.9043974138
 40
0.9554947188
 40
0.9875693603
 40
1.0
 40
1.0
 40
1.0
 40
1.0
 10
-12.7368472751
 20
10.7653658566
 30
0.0
 10
-12.7603048995
 20
10.7653659825
 30
0.0
 10
-12.8067523929
 20
10.7653840842
 30
0.0
 10
-12.8752672645
 20
10.7654650361
 30
0.0
 10
-12.9410268562
 20
10.7655968952
 30
0.0
 10
-13.0027227963
 20
10.7657803661
 30
0.0
 10
-13.0591273389
 20
10.7659997842
 30
0.0
 10
-13.1091100961
 20
10.7662871503
 30
0.0
 10
-13.1516998148
 20
10.7665241471
 30
0.0
 10
-13.1859783088
 20
10.7670166676
 30
0.0
 10
-13.2114425618
 20
10.7669543666
 30
0.0
 10
-13.2272035282
 20
10.7680257846
 30
0.0
 10
-13.234807899
 20
10.7674543715
 30
0.0
 10
-13.2367835759
 20
10.768077474
 30
0.0
 11
-12.7368472751
 21
10.7653658566
 31
0.0
 11
-12.807220143
 21
10.7653936469
 31
0.0
 11
-12.8761896666
 21
10.7654757875
 31
0.0
 11
-12.9423919426
 21
10.765610661
 31
0.0
 11
-13.0044984086
 21
10.7657955561
 31
0.0
 11
-13.0612788014
 21
10.7660268072
 31
0.0
 11
-13.1116007596
 21
10.7662997966
 31
0.0
 11
-13.1544608578
 21
10.7666090753
 31
0.0
 11
-13.1890052536
 21
10.7669484601
 31
0.0
 11
-13.2145492811
 21
10.7673112377
 31
0.0
 11
-13.23058084
 21
10.7676900833
 31
0.0
 11
-13.2367835759
 21
10.768077474
 31
0.0
  0
SPLINE
  5
2D2
100
AcDbEntity
  8
RACCORDO
100
AcDbSpline
 62
253
  6
CONTINUOUS
 70
0
 71
3
 72
18
 73
14
 74
12
 42
0.0000001
 43
0.0000001
 44
0.0000000001
 12
-0.4768081835
 22
-0.1503790444
 32
0.0
 13
-0.4999598993
 23
-0.0000026839
 33
0.0
 40
0.0
 40
0.0
 40
0.0
 40
0.0
 40
0.0124306396
 40
0.044505281
 40
0.095602586
 40
0.1647002536
 40
0.2504295571
 40
0.351083027
 40
0.4646538628
 40
0.5888773081
 40
0.7212927548
 40
0.8592429635
 40
1.0
 40
1.0
 40
1.0
 40
1.0
 10
31.2813832858
 20
10.768077474
 30
0.0
 10
31.2794076089
 20
10.7674543715
 30
0.0
 10
31.2718032381
 20
10.7680257846
 30
0.0
 10
31.2560422717
 20
10.7669543666
 30
0.0
 10
31.2305780188
 20
10.7670166676
 30
0.0
 10
31.1962995248
 20
10.7665241471
 30
0.0
 10
31.1537098062
 20
10.7662871503
 30
0.0
 10
31.103727049
 20
10.7659997842
 30
0.0
 10
31.0473225064
 20
10.7657803661
 30
0.0
 10
30.9856265664
 20
10.7655968952
 30
0.0
 10
30.9198669747
 20
10.7654650361
 30
0.0
 10
30.851352103
 20
10.7653840842
 30
0.0
 10
30.8049046095
 20
10.7653659825
 30
0.0
 10
30.7814469849
 20
10.7653658566
 30
0.0
 11
31.2813832858
 21
10.768077474
 31
0.0
 11
31.2751805499
 21
10.7676900833
 31
0.0
 11
31.2591489911
 21
10.7673112377
 31
0.0
 11
31.2336049636
 21
10.7669484601
 31
0.0
 11
31.1990605678
 21
10.7666090753
 31
0.0
 11
31.1562004697
 21
10.7662997966
 31
0.0
 11
31.1058785115
 21
10.7660268072
 31
0.0
 11
31.0490981188
 21
10.7657955561
 31
0.0
 11
30.9869916528
 21
10.765610661
 31
0.0
 11
30.9207893768
 21
10.7654757875
 31
0.0
 11
30.8518198532
 21
10.7653936469
 31
0.0
 11
30.7814469849
 21
10.7653658566
 31
0.0
  0
SPLINE
  5
2D3
100
AcDbEntity
  8
RACCORDO
100
AcDbSpline
 62
253
  6
CONTINUOUS
 70
0
 71
3
 72
17
 73
13
 74
11
 42
0.0000001
 43
0.0000001
 44
0.0000000001
 12
-0.195632535
 22
-0.4614382212
 32
0.0
 13
-0.5011957617
 23
-0.0003594721
 33
0.0
 40
0.0
 40
0.0
 40
0.0
 40
0.0
 40
0.0160133458
 40
0.0548771568
 40
0.1162691731
 40
0.1988278512
 40
0.3006096677
 40
0.4191867025
 40
0.551717899
 40
0.6950220123
 40
0.8456562072
 40
1.0
 40
1.0
 40
1.0
 40
1.0
 10
31.2887572057
 20
-9.4283964052
 30
0.0
 10
31.2877129619
 20
-9.4308594618
 30
0.0
 10
31.2764153368
 20
-9.4320037657
 30
0.0
 10
31.2591826005
 20
-9.4356937316
 30
0.0
 10
31.2276955527
 20
-9.4379097882
 30
0.0
 10
31.1871662972
 20
-9.4407363626
 30
0.0
 10
31.1364495398
 20
-9.4430160668
 30
0.0
 10
31.0775831837
 20
-9.4450822591
 30
0.0
 10
31.0116931354
 20
-9.4467320378
 30
0.0
 10
30.9404602082
 20
-9.4479678355
 30
0.0
 10
30.8655697475
 20
-9.4487425185
 30
0.0
 10
30.814618843
 20
-9.4489403681
 30
0.0
 10
30.7888333581
 20
-9.4489588622
 30
0.0
 11
31.2887572057
 21
-9.4283964052
 31
0.0
 11
31.281389006
 21
-9.4315781452
 31
0.0
 11
31.2621597157
 21
-9.4346832664
 31
0.0
 11
31.23153239
 21
-9.4376369952
 31
0.0
 11
31.1902445566
 21
-9.4403682038
 31
0.0
 11
31.1392904559
 21
-9.4428111228
 31
0.0
 11
31.0798970989
 21
-9.4449069248
 31
0.0
 11
31.0134947199
 21
-9.4466051415
 31
0.0
 11
30.9416823356
 21
-9.4478648787
 31
0.0
 11
30.8661892391
 21
-9.4486558009
 31
0.0
 11
30.7888333581
 21
-9.4489588622
 31
0.0
  0
SPLINE
  5
2D4
100
AcDbEntity
  8
ASSI
100
AcDbSpline
 62
253
  6
CONTINUOUS
 70
0
 71
3
 72
18
 73
14
 74
12
 42
0.0000001
 43
0.0000001
 44
0.0000000001
 12
-0.4768081835
 22
-0.1503790444
 32
0.0
 13
-0.4999598993
 23
-0.0000026839
 33
0.0
 40
0.0
 40
0.0
 40
0.0
 40
0.0
 40
0.0124306396
 40
0.044505281
 40
0.095602586
 40
0.1647002536
 40
0.2504295571
 40
0.351083027
 40
0.4646538628
 40
0.5888773081
 40
0.7212927548
 40
0.8592429635
 40
1.0
 40
1.0
 40
1.0
 40
1.0
 10
31.2813832858
 20
10.768077474
 30
0.0
 10
31.2794076089
 20
10.7674543715
 30
0.0
 10
31.2718032381
 20
10.7680257846
 30
0.0
 10
31.2560422717
 20
10.7669543666
 30
0.0
 10
31.2305780188
 20
10.7670166676
 30
0.0
 10
31.1962995248
 20
10.7665241471
 30
0.0
 10
31.1537098062
 20
10.7662871503
 30
0.0
 10
31.103727049
 20
10.7659997842
 30
0.0
 10
31.0473225064
 20
10.7657803661
 30
0.0
 10
30.9856265664
 20
10.7655968952
 30
0.0
 10
30.9198669747
 20
10.7654650361
 30
0.0
 10
30.851352103
 20
10.7653840842
 30
0.0
 10
30.8049046095
 20
10.7653659825
 30
0.0
 10
30.7814469849
 20
10.7653658566
 30
0.0
 11
31.2813832858
 21
10.768077474
 31
0.0
 11
31.2751805499
 21
10.7676900833
 31
0.0
 11
31.2591489911
 21
10.7673112377
 31
0.0
 11
31.2336049636
 21
10.7669484601
 31
0.0
 11
31.1990605678
 21
10.7666090753
 31
0.0
 11
31.1562004697
 21
10.7662997966
 31
0.0
 11
31.1058785115
 21
10.7660268072
 31
0.0
 11
31.0490981188
 21
10.7657955561
 31
0.0
 11
30.9869916528
 21
10.765610661
 31
0.0
 11
30.9207893768
 21
10.7654757875
 31
0.0
 11
30.8518198532
 21
10.7653936469
 31
0.0
 11
30.7814469849
 21
10.7653658566
 31
0.0
  0
SPLINE
  5
2D5
100
AcDbEntity
  8
ASSI
100
AcDbSpline
 62
253
  6
CONTINUOUS
 70
0
 71
3
 72
18
 73
14
 74
12
 42
0.0000001
 43
0.0000001
 44
0.0000000001
 12
-0.2684874777
 22
-0.1338218893
 32
0.0
 13
-0.299989706
 23
-0.000000142
 33
0.0
 40
0.0
 40
0.0
 40
0.0
 40
0.0
 40
0.01245772
 40
0.0445401068
 40
0.0956390483
 40
0.1647397093
 40
0.2504749128
 40
0.351138898
 40
0.4647205079
 40
0.5889521196
 40
0.7213713552
 40
0.8593253738
 40
1.0
 40
1.0
 40
1.0
 40
1.0
 10
31.0814137467
 20
10.9680698587
 30
0.0
 10
31.0802988328
 20
10.9675141535
 30
0.0
 10
31.0755932959
 20
10.9679763932
 30
0.0
 10
31.0662609237
 20
10.9670300057
 30
0.0
 10
31.050915234
 20
10.9670510728
 30
0.0
 10
31.0303757567
 20
10.9665996225
 30
0.0
 10
31.0048092474
 20
10.9663688288
 30
0.0
 10
30.9748197013
 20
10.966098251
 30
0.0
 10
30.9409717198
 20
10.9658895521
 30
0.0
 10
30.9039507686
 20
10.9657158704
 30
0.0
 10
30.8644916332
 20
10.9655909618
 30
0.0
 10
30.8233883709
 20
10.9655144817
 30
0.0
 10
30.7955264467
 20
10.9654975114
 30
0.0
 10
30.7814594668
 20
10.9654975047
 30
0.0
 11
31.0814137467
 21
10.9680698587
 31
0.0
 11
31.077694699
 21
10.9677020868
 31
0.0
 11
31.068077039
 21
10.9673423392
 31
0.0
 11
31.0527517515
 21
10.9669979559
 31
0.0
 11
31.0320247674
 21
10.9666758364
 31
0.0
 11
31.0063067633
 21
10.966382366
 31
0.0
 11
30.9761097144
 21
10.9661234012
 31
0.0
 11
30.9420371062
 21
10.9659041184
 31
0.0
 11
30.9047693135
 21
10.9657288863
 31
0.0
 11
30.8650451112
 21
10.9656011759
 31
0.0
 11
30.8236603985
 21
10.9655235364
 31
0.0
 11
30.7814594668
 21
10.9654975047
 31
0.0
  0
SPLINE
  5
2D6
100
AcDbEntity
  8
ASSI
100
AcDbSpline
 62
253
  6
CONTINUOUS
 70
0
 71
3
 72
17
 73
13
 74
11
 42
0.0000001
 43
0.0000001
 44
0.0000000001
 12
-0.195632535
 22
-0.4614382212
 32
0.0
 13
-0.5011957617
 23
-0.0003594721
 33
0.0
 40
0.0
 40
0.0
 40
0.0
 40
0.0
 40
0.0160133458
 40
0.0548771568
 40
0.1162691731
 40
0.1988278512
 40
0.3006096677
 40
0.4191867025
 40
0.551717899
 40
0.6950220123
 40
0.8456562072
 40
1.0
 40
1.0
 40
1.0
 40
1.0
 10
31.2887572057
 20
-9.4283964052
 30
0.0
 10
31.2877129619
 20
-9.4308594618
 30
0.0
 10
31.2764153368
 20
-9.4320037657
 30
0.0
 10
31.2591826005
 20
-9.4356937316
 30
0.0
 10
31.2276955527
 20
-9.4379097882
 30
0.0
 10
31.1871662972
 20
-9.4407363626
 30
0.0
 10
31.1364495398
 20
-9.4430160668
 30
0.0
 10
31.0775831837
 20
-9.4450822591
 30
0.0
 10
31.0116931354
 20
-9.4467320378
 30
0.0
 10
30.9404602082
 20
-9.4479678355
 30
0.0
 10
30.8655697475
 20
-9.4487425185
 30
0.0
 10
30.814618843
 20
-9.4489403681
 30
0.0
 10
30.7888333581
 20
-9.4489588622
 30
0.0
 11
31.2887572057
 21
-9.4283964052
 31
0.0
 11
31.281389006
 21
-9.4315781452
 31
0.0
 11
31.2621597157
 21
-9.4346832664
 31
0.0
 11
31.23153239
 21
-9.4376369952
 31
0.0
 11
31.1902445566
 21
-9.4403682038
 31
0.0
 11
31.1392904559
 21
-9.4428111228
 31
0.0
 11
31.0798970989
 21
-9.4449069248
 31
0.0
 11
31.0134947199
 21
-9.4466051415
 31
0.0
 11
30.9416823356
 21
-9.4478648787
 31
0.0
 11
30.8661892391
 21
-9.4486558009
 31
0.0
 11
30.7888333581
 21
-9.4489588622
 31
0.0
  0
SPLINE
  5
2D7
100
AcDbEntity
  8
ASSI
100
AcDbSpline
 62
253
  6
CONTINUOUS
 70
0
 71
3
 72
21
 73
17
 74
15
 42
0.0000001
 43
0.0000001
 44
0.0000000001
 12
0.3113269094
 22
1.402385911
 32
0.0
 13
0.0006885319
 23
1.4365271365
 33
0.0
 40
0.0
 40
0.0
 40
0.0
 40
0.0
 40
0.0116253613
 40
0.0346870886
 40
0.0689537638
 40
0.1140486773
 40
0.1694730336
 40
0.2346119018
 40
0.3087402368
 40
0.3910339711
 40
0.4805783092
 40
0.5763759237
 40
0.6773619052
 40
0.7824150232
 40
0.8903612899
 40
1.0
 40
1.0
 40
1.0
 40
1.0
 10
-12.760760555
 20
-10.8852163866
 30
0.0
 10
-12.7595541258
 20
-10.8797819722
 30
0.0
 10
-12.7586318671
 20
-10.8631029346
 30
0.0
 10
-12.7566873339
 20
-10.8302102862
 30
0.0
 10
-12.7551897696
 20
-10.7811502055
 30
0.0
 10
-12.753504048
 20
-10.7166460422
 30
0.0
 10
-12.751975316
 20
-10.637330537
 30
0.0
 10
-12.7505109629
 20
-10.5441172985
 30
0.0
 10
-12.7491731387
 20
-10.4380321673
 30
0.0
 10
-12.7479651554
 20
-10.3202593283
 30
0.0
 10
-12.7469063076
 20
-10.1921082426
 30
0.0
 10
-12.7460078699
 20
-10.0550051818
 30
0.0
 10
-12.7452808281
 20
-9.9104747276
 30
0.0
 10
-12.7447335155
 20
-9.7601261629
 30
0.0
 10
-12.7443722983
 20
-9.6056337344
 30
0.0
 10
-12.7442587966
 20
-9.5014448452
 30
0.0
 10
-12.7442336333
 20
-9.4489451845
 30
0.0
 11
-12.760760555
 21
-10.8852163866
 31
0.0
 11
-12.7589296537
 21
-10.8686169054
 31
0.0
 11
-12.7571292957
 21
-10.8355370603
 31
0.0
 11
-12.7553793806
 21
-10.7863431597
 31
0.0
 11
-12.7536995588
 21
-10.7215848689
 31
0.0
 11
-12.7521084526
 21
-10.6419821678
 31
0.0
 11
-12.7506237658
 21
-10.5484201844
 31
0.0
 11
-12.7492620338
 21
-10.4419415145
 31
0.0
 11
-12.7480383964
 21
-10.3237306513
 31
0.0
 11
-12.7469664575
 21
-10.1951022314
 31
0.0
 11
-12.7460581506
 21
-10.0574893404
 31
0.0
 11
-12.7453235699
 21
-9.9124220807
 31
0.0
 11
-12.7447708662
 21
-9.7615114207
 31
0.0
 11
-12.7444062143
 21
-9.6064440902
 31
0.0
 11
-12.7442336333
 21
-9.4489451845
 31
0.0
  0
SPLINE
  5
2D8
100
AcDbEntity
  8
ASSI
100
AcDbSpline
 62
253
  6
CONTINUOUS
 70
0
 71
3
 72
11
 73
7
 74
5
 42
0.0000001
 43
0.0000001
 44
0.0000000001
 12
0.0002437994
 22
-20.1964756175
 32
0.0
 13
0.0145100747
 23
-20.1964704066
 33
0.0
 40
0.0
 40
0.0
 40
0.0
 40
0.0
 40
0.2500744177
 40
0.5001049865
 40
0.750083017
 40
1.0
 40
1.0
 40
1.0
 40
1.0
 10
31.2813832858
 20
10.768077474
 30
0.0
 10
31.2814036084
 20
9.0845368474
 30
0.0
 10
31.2817413507
 20
5.717750788
 30
0.0
 10
31.2831392099
 20
0.6680731677
 30
0.0
 10
31.2854281395
 20
-4.3805442517
 30
0.0
 10
31.2875484343
 20
-7.7459160883
 30
0.0
 10
31.2887572057
 20
-9.4283964052
 30
0.0
 11
31.2813832858
 21
10.768077474
 31
0.0
 11
31.2818899705
 21
5.7174556192
 31
0.0
 11
31.283287917
 21
0.6677195257
 31
0.0
 11
31.2855769899
 21
-4.3809551537
 31
0.0
 11
31.2887572057
 21
-9.4283964052
 31
0.0
  0
SPLINE
  5
2D9
100
AcDbEntity
  8
ASSI
100
AcDbSpline
 62
253
  6
CONTINUOUS
 70
0
 71
3
 72
21
 73
17
 74
15
 42
0.0000001
 43
0.0000001
 44
0.0000000001
 12
0.0006885301
 22
-0.957887823
 32
0.0
 13
0.3025944495
 23
-0.9088378044
 33
0.0
 40
0.0
 40
0.0
 40
0.0
 40
0.0
 40
0.1095890288
 40
0.2175144953
 40
0.3225483467
 40
0.423516912
 40
0.519299397
 40
0.6088312783
 40
0.6911156636
 40
0.7652382519
 40
0.8303754916
 40
0.8858030898
 40
0.9309078341
 40
0.965194018
 40
0.9882927082
 40
1.0
 40
1.0
 40
1.0
 40
1.0
 10
31.2887572057
 20
-9.4283964052
 30
0.0
 10
31.2887823575
 20
-9.4633877373
 30
0.0
 10
31.2888958442
 20
-9.5328392047
 30
0.0
 10
31.2892570185
 20
-9.6358270361
 30
0.0
 10
31.2898043077
 20
-9.7360615329
 30
0.0
 10
31.2905313533
 20
-9.8324175926
 30
0.0
 10
31.2914297855
 20
-9.9238222406
 30
0.0
 10
31.2924886766
 20
-10.0092590934
 30
0.0
 10
31.2936966091
 20
-10.0877769456
 30
0.0
 10
31.2950347387
 20
-10.1585035814
 30
0.0
 10
31.2964983655
 20
-10.2206467346
 30
0.0
 10
31.2980295197
 20
-10.273530699
 30
0.0
 10
31.2997090645
 20
-10.3165240675
 30
0.0
 10
31.3012227332
 20
-10.3492669832
 30
0.0
 10
31.30313708
 20
-10.371149471
 30
0.0
 10
31.3041031225
 20
-10.3823543268
 30
0.0
 10
31.3052839763
 20
-10.3859010033
 30
0.0
 11
31.2887572057
 21
-9.4283964052
 31
0.0
 11
31.2889297304
 21
-9.5333702867
 31
0.0
 11
31.2892943649
 21
-9.6367501605
 31
0.0
 11
31.2898470503
 21
-9.7373593158
 31
0.0
 11
31.2905816264
 21
-9.8340731103
 31
0.0
 11
31.2914899348
 21
-9.9258175139
 31
0.0
 11
31.2925618867
 21
-10.0115723353
 31
0.0
 11
31.2937855475
 21
-10.0903820672
 31
0.0
 11
31.295147314
 21
-10.1613701501
 31
0.0
 11
31.2966320448
 21
-10.2237466671
 31
0.0
 11
31.298223193
 21
-10.2768162544
 31
0.0
 11
31.2999030654
 21
-10.3199888809
 31
0.0
 11
31.3016530023
 21
-10.3527845533
 31
0.0
 11
31.3034534378
 21
-10.3748371389
 31
0.0
 11
31.3052839763
 21
-10.3859010033
 31
0.0
  0
SPLINE
  5
2DA
100
AcDbEntity
  8
ASSI
100
AcDbSpline
 62
253
  6
CONTINUOUS
 70
0
 71
3
 72
21
 73
17
 74
15
 42
0.0000001
 43
0.0000001
 44
0.0000000001
 12
0.3025944467
 22
0.9088378053
 32
0.0
 13
0.0006885301
 23
0.957887823
 33
0.0
 40
0.0
 40
0.0
 40
0.0
 40
0.0
 40
0.0117072917
 40
0.034805982
 40
0.0690921658
 40
0.1141969101
 40
0.1696245083
 40
0.2347617479
 40
0.3088843362
 40
0.3911687215
 40
0.4807006028
 40
0.5764830878
 40
0.6774516531
 40
0.7824855045
 40
0.890410971
 40
1.0
 40
1.0
 40
1.0
 40
1.0
 10
-13.2606842665
 20
-10.3859010033
 30
0.0
 10
-13.2595034127
 20
-10.3823543268
 30
0.0
 10
-13.2585373701
 20
-10.371149471
 30
0.0
 10
-13.2566230233
 20
-10.3492669833
 30
0.0
 10
-13.2551093547
 20
-10.3165240676
 30
0.0
 10
-13.2534298099
 20
-10.2735306991
 30
0.0
 10
-13.2518986557
 20
-10.2206467347
 30
0.0
 10
-13.2504350289
 20
-10.1585035816
 30
0.0
 10
-13.2490968992
 20
-10.0877769458
 30
0.0
 10
-13.2478889667
 20
-10.0092590935
 30
0.0
 10
-13.2468300756
 20
-9.9238222408
 30
0.0
 10
-13.2459316435
 20
-9.8324175928
 30
0.0
 10
-13.2452045978
 20
-9.7360615331
 30
0.0
 10
-13.2446573087
 20
-9.6358270363
 30
0.0
 10
-13.2442961343
 20
-9.5328392048
 30
0.0
 10
-13.2441826476
 20
-9.4633877373
 30
0.0
 10
-13.2441574958
 20
-9.4283964052
 30
0.0
 11
-13.2606842665
 21
-10.3859010033
 31
0.0
 11
-13.2588537279
 21
-10.3748371389
 31
0.0
 11
-13.2570532924
 21
-10.3527845534
 31
0.0
 11
-13.2553033555
 21
-10.319988881
 31
0.0
 11
-13.2536234832
 21
-10.2768162545
 31
0.0
 11
-13.2520323349
 21
-10.2237466673
 31
0.0
 11
-13.2505476042
 21
-10.1613701502
 31
0.0
 11
-13.2491858376
 21
-10.0903820674
 31
0.0
 11
-13.2479621769
 21
-10.0115723355
 31
0.0
 11
-13.2468902249
 21
-9.9258175141
 31
0.0
 11
-13.2459819166
 21
-9.8340731105
 31
0.0
 11
-13.2452473405
 21
-9.737359316
 31
0.0
 11
-13.244694655
 21
-9.6367501607
 31
0.0
 11
-13.2443300205
 21
-9.5333702869
 31
0.0
 11
-13.2441574958
 21
-9.4283964052
 31
0.0
  0
SPLINE
  5
2DB
100
AcDbEntity
  8
ASSI
100
AcDbSpline
 62
253
  6
CONTINUOUS
 70
0
 71
3
 72
11
 73
7
 74
5
 42
0.0000001
 43
0.0000001
 44
0.0000000001
 12
0.0145100747
 22
20.1964704066
 32
0.0
 13
0.0002437994
 23
20.1964756175
 33
0.0
 40
0.0
 40
0.0
 40
0.0
 40
0.0
 40
0.249916983
 40
0.4998950135
 40
0.7499255823
 40
1.0
 40
1.0
 40
1.0
 40
1.0
 10
-13.2441574958
 20
-9.4283964052
 30
0.0
 10
-13.2429487245
 20
-7.7459160883
 30
0.0
 10
-13.2408284297
 20
-4.3805442517
 30
0.0
 10
-13.2385395001
 20
0.6680731677
 30
0.0
 10
-13.2371416409
 20
5.717750788
 30
0.0
 10
-13.2368038986
 20
9.0845368474
 30
0.0
 10
-13.2367835759
 20
10.768077474
 30
0.0
 11
-13.2441574958
 21
-9.4283964052
 31
0.0
 11
-13.24097728
 21
-4.3809551537
 31
0.0
 11
-13.2386882072
 21
0.6677195257
 31
0.0
 11
-13.2372902606
 21
5.7174556192
 31
0.0
 11
-13.2367835759
 21
10.768077474
 31
0.0
  0
SPLINE
  5
2DC
100
AcDbEntity
  8
ASSI
100
AcDbSpline
 62
253
  6
CONTINUOUS
 70
0
 71
3
 72
11
 73
7
 74
5
 42
0.0000001
 43
0.0000001
 44
0.0000000001
 12
0.0002454386
 22
-20.2143127839
 32
0.0
 13
0.0145083669
 23
-20.2143075788
 33
0.0
 40
0.0
 40
0.0
 40
0.0
 40
0.0
 40
0.2500749619
 40
0.5001055662
 40
0.7500836323
 40
1.0
 40
1.0
 40
1.0
 40
1.0
 10
30.7814469849
 20
10.7653658618
 30
0.0
 10
30.7814674443
 20
9.0803346955
 30
0.0
 10
30.7818236669
 20
5.7105712464
 30
0.0
 10
30.783214271
 20
0.6564296941
 30
0.0
 10
30.7855050913
 20
-4.3966429079
 30
0.0
 10
30.7876247234
 20
-7.7649830759
 30
0.0
 10
30.7888333495
 20
-9.4489451843
 30
0.0
 11
30.7814469849
 21
10.7653658618
 31
0.0
 11
30.7819664586
 21
5.7102723892
 31
0.0
 11
30.7833645026
 21
0.65607574
 31
0.0
 11
30.7856534634
 21
-4.3970585586
 31
0.0
 11
30.7888333495
 21
-9.4489451843
 31
0.0
  0
SPLINE
  5
2DD
100
AcDbEntity
  8
ASSI
100
AcDbSpline
 62
253
  6
CONTINUOUS
 70
0
 71
3
 72
11
 73
7
 74
5
 42
0.0000001
 43
0.0000001
 44
0.0000000001
 12
0.0145083669
 22
20.214307579
 32
0.0
 13
0.0002454386
 23
20.214312784
 33
0.0
 40
0.0
 40
0.0
 40
0.0
 40
0.0
 40
0.2499163677
 40
0.4998944338
 40
0.7499250381
 40
1.0
 40
1.0
 40
1.0
 40
1.0
 10
-12.7442336396
 20
-9.4489451845
 30
0.0
 10
-12.7430250135
 20
-7.764983076
 30
0.0
 10
-12.7409053815
 20
-4.396642908
 30
0.0
 10
-12.7386145612
 20
0.6564296941
 30
0.0
 10
-12.7372239571
 20
5.7105712464
 30
0.0
 10
-12.7368677344
 20
9.0803346955
 30
0.0
 10
-12.7368472751
 20
10.7653658618
 30
0.0
 11
-12.7442336396
 21
-9.4489451845
 31
0.0
 11
-12.7410537536
 21
-4.3970585586
 31
0.0
 11
-12.7387647928
 21
0.65607574
 31
0.0
 11
-12.7373667488
 21
5.7102723892
 31
0.0
 11
-12.7368472751
 21
10.7653658618
 31
0.0
  0
SPLINE
  5
2DE
100
AcDbEntity
  8
ASSI
100
AcDbSpline
 62
253
  6
CONTINUOUS
 70
0
 71
3
 72
18
 73
14
 74
12
 42
0.0000001
 43
0.0000001
 44
0.0000000001
 12
-0.299989706
 22
0.000000142
 32
0.0
 13
-0.2684874758
 23
0.133821893
 33
0.0
 40
0.0
 40
0.0
 40
0.0
 40
0.0
 40
0.1406746255
 40
0.2786286441
 40
0.4110478798
 40
0.5352794916
 40
0.6488611016
 40
0.7495250868
 40
0.8352602903
 40
0.9043609514
 40
0.955459893
 40
0.9875422799
 40
1.0
 40
1.0
 40
1.0
 40
1.0
 10
-12.736859757
 20
10.9654975047
 30
0.0
 10
-12.7509267368
 20
10.9654975114
 30
0.0
 10
-12.7787886609
 20
10.9655144817
 30
0.0
 10
-12.8198919232
 20
10.9655909618
 30
0.0
 10
-12.8593510586
 20
10.9657158704
 30
0.0
 10
-12.8963720098
 20
10.9658895521
 30
0.0
 10
-12.9302199913
 20
10.966098251
 30
0.0
 10
-12.9602095374
 20
10.9663688288
 30
0.0
 10
-12.9857760468
 20
10.9665996225
 30
0.0
 10
-13.006315524
 20
10.9670510728
 30
0.0
 10
-13.0216612138
 20
10.9670300057
 30
0.0
 10
-13.030993586
 20
10.9679763932
 30
0.0
 10
-13.035699123
 20
10.9675141534
 30
0.0
 10
-13.0368140369
 20
10.9680698587
 30
0.0
 11
-12.736859757
 21
10.9654975047
 31
0.0
 11
-12.7790606885
 21
10.9655235364
 31
0.0
 11
-12.8204454012
 21
10.9656011759
 31
0.0
 11
-12.8601696035
 21
10.9657288863
 31
0.0
 11
-12.8974373962
 21
10.9659041184
 31
0.0
 11
-12.9315100044
 21
10.9661234012
 31
0.0
 11
-12.9617070533
 21
10.966382366
 31
0.0
 11
-12.9874250575
 21
10.9666758364
 31
0.0
 11
-13.0081520416
 21
10.9669979559
 31
0.0
 11
-13.0234773291
 21
10.9673423392
 31
0.0
 11
-13.0330949891
 21
10.9677020868
 31
0.0
 11
-13.0368140369
 21
10.9680698587
 31
0.0
  0
SPLINE
  5
2DF
100
AcDbEntity
  8
ASSI
100
AcDbSpline
 62
253
  6
CONTINUOUS
 70
0
 71
3
 72
17
 73
13
 74
11
 42
0.0000001
 43
0.0000001
 44
0.0000000001
 12
0.1956282812
 22
-0.461440029
 32
0.0
 13
0.5011957657
 23
-0.0003594732
 33
0.0
 40
0.0
 40
0.0
 40
0.0
 40
0.0
 40
0.0160132903
 40
0.0548770558
 40
0.1162690414
 40
0.1988277038
 40
0.3006095192
 40
0.4191865661
 40
0.551717786
 40
0.6950219317
 40
0.8456561653
 40
1.0
 40
1.0
 40
1.0
 40
1.0
 10
-13.2441574958
 20
-9.4283964052
 30
0.0
 10
-13.2431132783
 20
-9.4308594629
 30
0.0
 10
-13.2318156371
 20
-9.4320037697
 30
0.0
 10
-13.2145829542
 20
-9.4356937353
 30
0.0
 10
-13.1830959042
 20
-9.4379097928
 30
0.0
 10
-13.1425666639
 20
-9.4407363686
 30
0.0
 10
-13.0918499041
 20
-9.443016074
 30
0.0
 10
-13.0329835428
 20
-9.4450822676
 30
0.0
 10
-12.9670934823
 20
-9.4467320473
 30
0.0
 10
-12.8958605389
 20
-9.4479678459
 30
0.0
 10
-12.8209700587
 20
-9.4487425295
 30
0.0
 10
-12.7700191404
 20
-9.4489403793
 30
0.0
 10
-12.7442336483
 20
-9.4489588735
 30
0.0
 11
-13.2441574958
 21
-9.4283964052
 31
0.0
 11
-13.2367893268
 21
-9.4315781464
 31
0.0
 11
-13.2175600598
 21
-9.4346832689
 31
0.0
 11
-13.1869327495
 21
-9.4376369992
 31
0.0
 11
-13.1456449236
 21
-9.4403682093
 31
0.0
 11
-13.0946908231
 21
-9.4428111297
 31
0.0
 11
-13.0352974596
 21
-9.4449069331
 31
0.0
 11
-12.9688950685
 21
-9.4466051509
 31
0.0
 11
-12.8970826673
 21
-9.447864889
 31
0.0
 11
-12.8215895509
 21
-9.4486558119
 31
0.0
 11
-12.7442336483
 21
-9.4489588735
 31
0.0
  0
SPLINE
  5
2E0
100
AcDbEntity
  8
ASSI
100
AcDbSpline
 62
253
  6
CONTINUOUS
 70
0
 71
3
 72
18
 73
14
 74
12
 42
0.0000001
 43
0.0000001
 44
0.0000000001
 12
-0.4999598993
 22
0.0000026839
 32
0.0
 13
-0.4768081841
 23
0.1503790427
 33
0.0
 40
0.0
 40
0.0
 40
0.0
 40
0.0
 40
0.1407570357
 40
0.2787072446
 40
0.4111226913
 40
0.5353461367
 40
0.6489169725
 40
0.7495704425
 40
0.8352997461
 40
0.9043974138
 40
0.9554947188
 40
0.9875693603
 40
1.0
 40
1.0
 40
1.0
 40
1.0
 10
-12.7368472751
 20
10.7653658566
 30
0.0
 10
-12.7603048995
 20
10.7653659825
 30
0.0
 10
-12.8067523929
 20
10.7653840842
 30
0.0
 10
-12.8752672645
 20
10.7654650361
 30
0.0
 10
-12.9410268562
 20
10.7655968952
 30
0.0
 10
-13.0027227963
 20
10.7657803661
 30
0.0
 10
-13.0591273389
 20
10.7659997842
 30
0.0
 10
-13.1091100961
 20
10.7662871503
 30
0.0
 10
-13.1516998148
 20
10.7665241471
 30
0.0
 10
-13.1859783088
 20
10.7670166676
 30
0.0
 10
-13.2114425618
 20
10.7669543666
 30
0.0
 10
-13.2272035282
 20
10.7680257846
 30
0.0
 10
-13.234807899
 20
10.7674543715
 30
0.0
 10
-13.2367835759
 20
10.768077474
 30
0.0
 11
-12.7368472751
 21
10.7653658566
 31
0.0
 11
-12.807220143
 21
10.7653936469
 31
0.0
 11
-12.8761896666
 21
10.7654757875
 31
0.0
 11
-12.9423919426
 21
10.765610661
 31
0.0
 11
-13.0044984086
 21
10.7657955561
 31
0.0
 11
-13.0612788014
 21
10.7660268072
 31
0.0
 11
-13.1116007596
 21
10.7662997966
 31
0.0
 11
-13.1544608578
 21
10.7666090753
 31
0.0
 11
-13.1890052536
 21
10.7669484601
 31
0.0
 11
-13.2145492811
 21
10.7673112377
 31
0.0
 11
-13.23058084
 21
10.7676900833
 31
0.0
 11
-13.2367835759
 21
10.768077474
 31
0.0
  0
SPLINE
  5
2E1
100
AcDbEntity
  8
ASSI
100
AcDbSpline
 62
253
  6
CONTINUOUS
 70
0
 71
3
 72
21
 73
17
 74
15
 42
0.0000001
 43
0.0000001
 44
0.0000000001
 12
0.0006885319
 22
-1.4365271366
 32
0.0
 13
0.3113269084
 23
-1.4023859114
 33
0.0
 40
0.0
 40
0.0
 40
0.0
 40
0.0
 40
0.1096387099
 40
0.2175849767
 40
0.3226380947
 40
0.4236240761
 40
0.5194216906
 40
0.6089660287
 40
0.6912597631
 40
0.765388098
 40
0.8305269663
 40
0.8859513226
 40
0.9310462361
 40
0.9653129114
 40
0.9883746386
 40
1.0
 40
1.0
 40
1.0
 40
1.0
 10
30.7888333432
 20
-9.4489451843
 30
0.0
 10
30.7888585064
 20
-9.501444845
 30
0.0
 10
30.7889720081
 20
-9.6056337342
 30
0.0
 10
30.7893332253
 20
-9.7601261626
 30
0.0
 10
30.7898805379
 20
-9.9104747273
 30
0.0
 10
30.7906075797
 20
-10.0550051815
 30
0.0
 10
30.7915060175
 20
-10.1921082423
 30
0.0
 10
30.7925648652
 20
-10.3202593281
 30
0.0
 10
30.7937728485
 20
-10.4380321671
 30
0.0
 10
30.7951106727
 20
-10.5441172983
 30
0.0
 10
30.7965750259
 20
-10.6373305368
 30
0.0
 10
30.7981037578
 20
-10.716646042
 30
0.0
 10
30.7997894795
 20
-10.7811502053
 30
0.0
 10
30.8012870438
 20
-10.830210286
 30
0.0
 10
30.803231577
 20
-10.8631029345
 30
0.0
 10
30.8041538356
 20
-10.8797819722
 30
0.0
 10
30.8053602649
 20
-10.8852163865
 30
0.0
 11
30.7888333432
 21
-9.4489451843
 31
0.0
 11
30.7890059241
 21
-9.6064440899
 31
0.0
 11
30.789370576
 21
-9.7615114204
 31
0.0
 11
30.7899232798
 21
-9.9124220804
 31
0.0
 11
30.7906578604
 21
-10.0574893401
 31
0.0
 11
30.7915661674
 21
-10.1951022311
 31
0.0
 11
30.7926381062
 21
-10.3237306511
 31
0.0
 11
30.7938617436
 21
-10.4419415143
 31
0.0
 11
30.7952234757
 21
-10.5484201841
 31
0.0
 11
30.7967081625
 21
-10.6419821676
 31
0.0
 11
30.7982992686
 21
-10.7215848687
 31
0.0
 11
30.7999790904
 21
-10.7863431596
 31
0.0
 11
30.8017290055
 21
-10.8355370602
 31
0.0
 11
30.8035293635
 21
-10.8686169053
 31
0.0
 11
30.8053602649
 21
-10.8852163865
 31
0.0
  0
SPLINE
  5
2E2
100
AcDbEntity
  8
RACCORDO
100
AcDbSpline
 62
253
  6
CONTINUOUS
 70
0
 71
3
 72
15
 73
11
 74
9
 42
0.0000001
 43
0.0000001
 44
0.0000000001
 12
-0.0017453778
 22
0.2000612775
 32
0.0
 13
0.2000612729
 23
0.0017459083
 33
0.0
 40
0.0
 40
0.0
 40
0.0
 40
0.0
 40
0.1950020658
 40
0.3825082119
 40
0.5553167043
 40
0.7067913013
 40
0.8311172079
 40
0.9235272361
 40
0.9804964655
 40
1.0
 40
1.0
 40
1.0
 40
1.0
 10
-30.098279413
 20
10.768077474
 30
0.0
 10
-30.0983928638
 20
10.7810815948
 30
0.0
 10
-30.0985685079
 20
10.8065847323
 30
0.0
 10
-30.0987160519
 20
10.8436422998
 30
0.0
 10
-30.0986498152
 20
10.8776964768
 30
0.0
 10
-30.0986574246
 20
10.9078480465
 30
0.0
 10
-30.0979246434
 20
10.9317550964
 30
0.0
 10
-30.0986000882
 20
10.9515496066
 30
0.0
 10
-30.0962085668
 20
10.9599965367
 30
0.0
 10
-30.0978348728
 20
10.9680585082
 30
0.0
 10
-30.0965342388
 20
10.9680698587
 30
0.0
 11
-30.098279413
 21
10.768077474
 31
0.0
 11
-30.0985527141
 21
10.8070903638
 31
0.0
 11
-30.0986814027
 21
10.8446042898
 31
0.0
 11
-30.0986605344
 21
10.8791778869
 31
0.0
 11
-30.0984909112
 21
10.9094827668
 31
0.0
 11
-30.0981790504
 21
10.9343545579
 31
0.0
 11
-30.0977369347
 21
10.9528376428
 31
0.0
 11
-30.0971815512
 21
10.9642218741
 31
0.0
 11
-30.0965342388
 21
10.9680698587
 31
0.0
  0
LINE
  5
2E3
100
AcDbEntity
  8
RACCORDO
100
AcDbLine
 62
253
  6
CONTINUOUS
 10
-30.098279413
 20
10.768077474
 11
-30.5895514483
 21
10.7653658566
  0
SPLINE
  5
2E4
100
AcDbEntity
  8
RACCORDO
100
AcDbSpline
 62
253
  6
CONTINUOUS
 70
0
 71
3
 72
17
 73
13
 74
11
 42
0.0000001
 43
0.0000001
 44
0.0000000001
 12
-0.0261499573
 22
-0.4991229354
 32
0.0
 13
0.4991225191
 23
-0.0261579028
 33
0.0
 40
0.0
 40
0.0
 40
0.0
 40
0.0
 40
0.1563933181
 40
0.3089189061
 40
0.4538267206
 40
0.5875542932
 40
0.7068145503
 40
0.8086770505
 40
0.8906409733
 40
0.9506992977
 40
0.9873995059
 40
1.0
 40
1.0
 40
1.0
 40
1.0
 10
-28.7290097689
 20
-10.3859010033
 30
0.0
 10
-28.7303729951
 20
-10.411920834
 30
0.0
 10
-28.7329955586
 20
-10.4633198221
 30
0.0
 10
-28.7366421641
 20
-10.5388444335
 30
0.0
 10
-28.7398814128
 20
-10.6105910184
 30
0.0
 10
-28.7426825656
 20
-10.6768649492
 30
0.0
 10
-28.7448263283
 20
-10.7358122544
 30
0.0
 10
-28.7467270312
 20
-10.7866619046
 30
0.0
 10
-28.747047592
 20
-10.8262571856
 30
0.0
 10
-28.7490768445
 20
-10.8584290456
 30
0.0
 10
-28.7459705563
 20
-10.872339002
 30
0.0
 10
-28.7485479406
 20
-10.8851059032
 30
0.0
 10
-28.7464515438
 20
-10.8852157707
 30
0.0
 11
-28.7290097689
 21
-10.3859010033
 31
0.0
 11
-28.732992428
 21
-10.4639660287
 31
0.0
 11
-28.7366625158
 21
-10.5401110643
 31
0.0
 11
-28.7399297674
 21
-10.6124633421
 31
0.0
 11
-28.7427138256
 21
-10.6792433758
 31
0.0
 11
-28.7449462172
 21
-10.7388087271
 31
0.0
 11
-28.746572037
 21
-10.7896944013
 31
0.0
 11
-28.7475512985
 21
-10.8306488777
 31
0.0
 11
-28.7478599169
 21
-10.8606648915
 31
0.0
 11
-28.7474903018
 21
-10.879004206
 31
0.0
 11
-28.7464515438
 21
-10.8852157707
 31
0.0
  0
SPLINE
  5
2E5
100
AcDbEntity
  8
ASSI
100
AcDbSpline
 62
253
  6
CONTINUOUS
 70
0
 71
3
 72
15
 73
11
 74
9
 42
0.0000001
 43
0.0000001
 44
0.0000000001
 12
-0.0017453778
 22
0.2000612775
 32
0.0
 13
0.2000612729
 23
0.0017459083
 33
0.0
 40
0.0
 40
0.0
 40
0.0
 40
0.0
 40
0.1950020658
 40
0.3825082119
 40
0.5553167043
 40
0.7067913013
 40
0.8311172079
 40
0.9235272361
 40
0.9804964655
 40
1.0
 40
1.0
 40
1.0
 40
1.0
 10
-30.098279413
 20
10.768077474
 30
0.0
 10
-30.0983928638
 20
10.7810815948
 30
0.0
 10
-30.0985685079
 20
10.8065847323
 30
0.0
 10
-30.0987160519
 20
10.8436422998
 30
0.0
 10
-30.0986498152
 20
10.8776964768
 30
0.0
 10
-30.0986574246
 20
10.9078480465
 30
0.0
 10
-30.0979246434
 20
10.9317550964
 30
0.0
 10
-30.0986000882
 20
10.9515496066
 30
0.0
 10
-30.0962085668
 20
10.9599965367
 30
0.0
 10
-30.0978348728
 20
10.9680585082
 30
0.0
 10
-30.0965342388
 20
10.9680698587
 30
0.0
 11
-30.098279413
 21
10.768077474
 31
0.0
 11
-30.0985527141
 21
10.8070903638
 31
0.0
 11
-30.0986814027
 21
10.8446042898
 31
0.0
 11
-30.0986605344
 21
10.8791778869
 31
0.0
 11
-30.0984909112
 21
10.9094827668
 31
0.0
 11
-30.0981790504
 21
10.9343545579
 31
0.0
 11
-30.0977369347
 21
10.9528376428
 31
0.0
 11
-30.0971815512
 21
10.9642218741
 31
0.0
 11
-30.0965342388
 21
10.9680698587
 31
0.0
  0
LINE
  5
2E6
100
AcDbEntity
  8
ASSI
100
AcDbLine
 62
253
  6
CONTINUOUS
 10
-30.098279413
 20
10.768077474
 11
-30.5895514483
 21
10.7653658566
  0
SPLINE
  5
2E7
100
AcDbEntity
  8
ASSI
100
AcDbSpline
 62
253
  6
CONTINUOUS
 70
0
 71
3
 72
17
 73
13
 74
11
 42
0.0000001
 43
0.0000001
 44
0.0000000001
 12
-0.0261499573
 22
-0.4991229354
 32
0.0
 13
0.4991225191
 23
-0.0261579028
 33
0.0
 40
0.0
 40
0.0
 40
0.0
 40
0.0
 40
0.1563933181
 40
0.3089189061
 40
0.4538267206
 40
0.5875542932
 40
0.7068145503
 40
0.8086770505
 40
0.8906409733
 40
0.9506992977
 40
0.9873995059
 40
1.0
 40
1.0
 40
1.0
 40
1.0
 10
-28.7290097689
 20
-10.3859010033
 30
0.0
 10
-28.7303729951
 20
-10.411920834
 30
0.0
 10
-28.7329955586
 20
-10.4633198221
 30
0.0
 10
-28.7366421641
 20
-10.5388444335
 30
0.0
 10
-28.7398814128
 20
-10.6105910184
 30
0.0
 10
-28.7426825656
 20
-10.6768649492
 30
0.0
 10
-28.7448263283
 20
-10.7358122544
 30
0.0
 10
-28.7467270312
 20
-10.7866619046
 30
0.0
 10
-28.747047592
 20
-10.8262571856
 30
0.0
 10
-28.7490768445
 20
-10.8584290456
 30
0.0
 10
-28.7459705563
 20
-10.872339002
 30
0.0
 10
-28.7485479406
 20
-10.8851059032
 30
0.0
 10
-28.7464515438
 20
-10.8852157707
 30
0.0
 11
-28.7290097689
 21
-10.3859010033
 31
0.0
 11
-28.732992428
 21
-10.4639660287
 31
0.0
 11
-28.7366625158
 21
-10.5401110643
 31
0.0
 11
-28.7399297674
 21
-10.6124633421
 31
0.0
 11
-28.7427138256
 21
-10.6792433758
 31
0.0
 11
-28.7449462172
 21
-10.7388087271
 31
0.0
 11
-28.746572037
 21
-10.7896944013
 31
0.0
 11
-28.7475512985
 21
-10.8306488777
 31
0.0
 11
-28.7478599169
 21
-10.8606648915
 31
0.0
 11
-28.7474903018
 21
-10.879004206
 31
0.0
 11
-28.7464515438
 21
-10.8852157707
 31
0.0
  0
SPLINE
  5
2E8
100
AcDbEntity
  8
CURVE
100
AcDbSpline
 62
253
  6
CONTINUOUS
 70
0
 71
3
 72
9
 73
5
 74
3
 42
0.0000001
 43
0.0000001
 44
0.0000000001
 12
-0.0229540352
 22
0.8825490555
 32
0.0
 13
-0.0203652253
 23
0.8385521589
 33
0.0
 40
0.0
 40
0.0
 40
0.0
 40
0.0
 40
0.6735896368
 40
1.0
 40
1.0
 40
1.0
 40
1.0
 10
-30.4206440843
 20
-1.8864905487
 30
0.0
 10
-30.425797951
 20
-1.6883319161
 30
0.0
 10
-30.4331178282
 20
-1.4002527727
 30
0.0
 10
-30.4400680314
 20
-1.1171761299
 30
0.0
 10
-30.4422838382
 20
-1.0259387584
 30
0.0
 11
-30.4206440843
 21
-1.8864905487
 31
0.0
 11
-30.4354914083
 21
-1.3025074145
 31
0.0
 11
-30.4422838382
 21
-1.0259387584
 31
0.0
  0
SPLINE
  5
2E9
100
AcDbEntity
  8
CURVE
100
AcDbSpline
 62
253
  6
CONTINUOUS
 70
0
 71
3
 72
9
 73
5
 74
3
 42
0.0000001
 43
0.0000001
 44
0.0000000001
 12
-0.0222789431
 22
0.8054024202
 32
0.0
 13
-0.0219959591
 23
0.8457124313
 33
0.0
 40
0.0
 40
0.0
 40
0.0
 40
0.0
 40
0.2963845853
 40
1.0
 40
1.0
 40
1.0
 40
1.0
 10
-30.3985003203
 20
-2.7116462926
 30
0.0
 10
-30.4007013654
 20
-2.6320766718
 30
0.0
 10
-30.4081413237
 20
-2.3608322205
 30
0.0
 10
-30.4154851856
 20
-2.0848426497
 30
0.0
 10
-30.4206440843
 20
-1.8864905487
 30
0.0
 11
-30.3985003203
 21
-2.7116462926
 31
0.0
 11
-30.4051031018
 21
-2.4708744939
 31
0.0
 11
-30.4206440843
 21
-1.8864905487
 31
0.0
  0
ELLIPSE
  5
2EA
100
AcDbEntity
  8
RACCORDO
100
AcDbEllipse
 62
7
  6
CONTINUOUS
 10
5.0568298011
 20
-11.0192108743
 30
0.0
 11
0.2
 21
0.0
 31
0.0
 40
0.0524077793
 41
0.5235987756
 42
1.5707963268
  0
ELLIPSE
  5
2EB
100
AcDbEntity
  8
RACCORDO
100
AcDbEllipse
 62
7
  6
CONTINUOUS
 10
1.6877699088
 20
-11.0192108743
 30
0.0
 11
0.2
 21
-0.0
 31
0.0
 40
0.0524077793
 41
1.5707963268
 42
2.617993878
  0
ELLIPSE
  5
2EC
100
AcDbEntity
  8
RACCORDO
100
AcDbEllipse
 62
7
  6
CONTINUOUS
 10
16.3568298011
 20
-11.0192108743
 30
0.0
 11
0.2
 21
-0.0
 31
0.0
 40
0.0524077793
 41
0.5235987756
 42
1.5707963268
  0
ELLIPSE
  5
2ED
100
AcDbEntity
  8
RACCORDO
100
AcDbEllipse
 62
7
  6
CONTINUOUS
 10
12.9877699088
 20
-11.0192108743
 30
0.0
 11
0.2
 21
-0.0
 31
0.0
 40
0.0524077793
 41
1.5707963268
 42
2.617993878
  0
ELLIPSE
  5
2EE
100
AcDbEntity
  8
RACCORDO
100
AcDbEllipse
 62
7
  6
CONTINUOUS
 10
-6.1431701989
 20
-11.0192108743
 30
0.0
 11
0.2
 21
0.0
 31
0.0
 40
0.0524077793
 41
0.5235987756
 42
1.5707963268
  0
ELLIPSE
  5
2EF
100
AcDbEntity
  8
RACCORDO
100
AcDbEllipse
 62
7
  6
CONTINUOUS
 10
-9.5122300912
 20
-11.0192108743
 30
0.0
 11
0.2
 21
0.0
 31
0.0
 40
0.0524077793
 41
1.5707963268
 42
2.617993878
  0
ELLIPSE
  5
2F0
100
AcDbEntity
  8
RACCORDO
100
AcDbEllipse
 62
7
  6
CONTINUOUS
 10
24.1877699088
 20
-11.0192108743
 30
0.0
 11
0.2
 21
0.0
 31
0.0
 40
0.0524077793
 41
1.5707963268
 42
2.617993878
  0
ELLIPSE
  5
2F1
100
AcDbEntity
  8
RACCORDO
100
AcDbEllipse
 62
7
  6
CONTINUOUS
 10
27.5568298011
 20
-11.0192108743
 30
0.0
 11
0.2
 21
-0.0
 31
0.0
 40
0.0524077793
 41
0.5235987756
 42
1.5707963268
  0
ELLIPSE
  5
2F2
100
AcDbEntity
  8
RACCORDO
100
AcDbEllipse
 62
7
  6
CONTINUOUS
 10
31.1722693893
 20
10.8135018356
 30
0.0
 11
0.1789222233
 21
0.0894542984
 31
0.0
 40
0.9998096356
 41
-0.4635410001
 42
1.1071030277
  0
ELLIPSE
  5
2F3
100
AcDbEntity
  8
RACCORDO
100
AcDbEllipse
 62
7
  6
CONTINUOUS
 10
-13.1276696795
 20
10.8135018356
 30
0.0
 11
0.1789222233
 21
-0.0894542984
 31
0.0
 40
0.9998096356
 41
2.0344896259
 42
3.6051336536
  0
ELLIPSE
  5
2F4
100
AcDbEntity
  8
RACCORDO
100
AcDbEllipse
 62
7
  6
CONTINUOUS
 10
30.8591501488
 20
-10.547402293
 30
0.0
 11
0.498078285
 21
0.0448076117
 31
0.0
 40
0.9965957691
 41
-1.6608206152
 42
-0.0909376769
  0
ELLIPSE
  5
2F5
100
AcDbEntity
  8
RACCORDO
100
AcDbEllipse
 62
7
  6
CONTINUOUS
 10
-12.8145504389
 20
-10.547402293
 30
0.0
 11
0.498078285
 21
-0.0448076117
 31
0.0
 40
0.9965957691
 41
-3.0506549766
 42
-1.4807720384
  0
ELLIPSE
  5
2F6
100
AcDbEntity
  8
ASSI
100
AcDbEllipse
 62
7
  6
CONTINUOUS
 10
5.0568298011
 20
-11.0192108743
 30
0.0
 11
0.2
 21
0.0
 31
0.0
 40
0.0524077793
 41
0.5235987756
 42
1.5707963268
  0
ELLIPSE
  5
2F7
100
AcDbEntity
  8
ASSI
100
AcDbEllipse
 62
7
  6
CONTINUOUS
 10
1.6877699088
 20
-11.0192108743
 30
0.0
 11
0.2
 21
-0.0
 31
0.0
 40
0.0524077793
 41
1.5707963268
 42
2.617993878
  0
ELLIPSE
  5
2F8
100
AcDbEntity
  8
ASSI
100
AcDbEllipse
 62
7
  6
CONTINUOUS
 10
16.3568298011
 20
-11.0192108743
 30
0.0
 11
0.2
 21
-0.0
 31
0.0
 40
0.0524077793
 41
0.5235987756
 42
1.5707963268
  0
ELLIPSE
  5
2F9
100
AcDbEntity
  8
ASSI
100
AcDbEllipse
 62
7
  6
CONTINUOUS
 10
12.9877699088
 20
-11.0192108743
 30
0.0
 11
0.2
 21
-0.0
 31
0.0
 40
0.0524077793
 41
1.5707963268
 42
2.617993878
  0
ELLIPSE
  5
2FA
100
AcDbEntity
  8
ASSI
100
AcDbEllipse
 62
7
  6
CONTINUOUS
 10
-6.1431701989
 20
-11.0192108743
 30
0.0
 11
0.2
 21
0.0
 31
0.0
 40
0.0524077793
 41
0.5235987756
 42
1.5707963268
  0
ELLIPSE
  5
2FB
100
AcDbEntity
  8
ASSI
100
AcDbEllipse
 62
7
  6
CONTINUOUS
 10
-9.5122300912
 20
-11.0192108743
 30
0.0
 11
0.2
 21
0.0
 31
0.0
 40
0.0524077793
 41
1.5707963268
 42
2.617993878
  0
ELLIPSE
  5
2FC
100
AcDbEntity
  8
ASSI
100
AcDbEllipse
 62
7
  6
CONTINUOUS
 10
24.1877699088
 20
-11.0192108743
 30
0.0
 11
0.2
 21
0.0
 31
0.0
 40
0.0524077793
 41
1.5707963268
 42
2.617993878
  0
ELLIPSE
  5
2FD
100
AcDbEntity
  8
ASSI
100
AcDbEllipse
 62
7
  6
CONTINUOUS
 10
27.5568298011
 20
-11.0192108743
 30
0.0
 11
0.2
 21
-0.0
 31
0.0
 40
0.0524077793
 41
0.5235987756
 42
1.5707963268
  0
ELLIPSE
  5
2FE
100
AcDbEntity
  8
ASSI
100
AcDbEllipse
 62
7
  6
CONTINUOUS
 10
31.1722693893
 20
10.8135018356
 30
0.0
 11
0.1789222233
 21
0.0894542984
 31
0.0
 40
0.9998096356
 41
-0.4635410001
 42
1.1071030277
  0
ELLIPSE
  5
2FF
100
AcDbEntity
  8
ASSI
100
AcDbEllipse
 62
7
  6
CONTINUOUS
 10
-13.1276696795
 20
10.8135018356
 30
0.0
 11
0.1789222233
 21
-0.0894542984
 31
0.0
 40
0.9998096356
 41
2.0344896259
 42
3.6051336536
  0
ELLIPSE
  5
300
100
AcDbEntity
  8
ASSI
100
AcDbEllipse
 62
7
  6
CONTINUOUS
 10
30.8591501488
 20
-10.547402293
 30
0.0
 11
0.498078285
 21
0.0448076117
 31
0.0
 40
0.9965957691
 41
-1.6608206152
 42
-0.0909376769
  0
ELLIPSE
  5
301
100
AcDbEntity
  8
ASSI
100
AcDbEllipse
 62
7
  6
CONTINUOUS
 10
-12.8145504389
 20
-10.547402293
 30
0.0
 11
0.498078285
 21
-0.0448076117
 31
0.0
 40
0.9965957691
 41
-3.0506549766
 42
-1.4807720384
  0
ENDSEC
  0
SECTION
  2
OBJECTS
  0
DICTIONARY
  5
C
100
AcDbDictionary
280
0
281
1
  3
ACAD_GROUP
350
D
  3
ACAD_MLINESTYLE
350
17
  3
ACAD_LAYOUT
350
1A
  3
ACAD_PLOTSETTINGS
350
19
  3
ACAD_PLOTSTYLENAME
350
E
  0
DICTIONARY
  5
D
102
{ACAD_REACTORS
330
C
102
}
100
AcDbDictionary
280
0
281
1
  0
ACDBDICTIONARYWDFLT
  5
E
102
{ACAD_REACTORS
330
C
102
}
100
AcDbDictionary
281
1
  3
Normal
350
F
100
AcDbDictionaryWithDefault
340
F
  0
DICTIONARY
  5
17
102
{ACAD_REACTORS
330
C
102
}
100
AcDbDictionary
280
0
281
1
  3
Standard
350
18
  0
DICTIONARY
  5
19
102
{ACAD_REACTORS
330
C
102
}
100
AcDbDictionary
281
1
  0
DICTIONARY
  5
1A
102
{ACAD_REACTORS
330
C
102
}
100
AcDbDictionary
281
1
  3
Model
350
302
  3
Layout1
350
303
  0
ACDBPLACEHOLDER
  5
F
102
{ACAD_REACTORS
330
E
102
}
  0
MLINESTYLE
  5
18
102
{ACAD_REACTORS
330
17
102
}
100
AcDbMlineStyle
  2
STANDARD
 70
0
  3

 62
256
 51
90.0
 52
90.0
 71
2
 49
0.5
 62
256
  6
BYLAYER
 49
-0.5
 62
256
  6
BYLAYER
  0
LAYOUT
  5
302
102
{ACAD_REACTORS
330
1A
102
}
100
AcDbPlotSettings
  1

  2
none_device
  4
ISO_A4_(297.00_x_210.00_MM)
  6

 40
0.0
 41
0.0
 42
0.0
 43
0.0
 44
297.0
 45
210.0
 46
0.0
 47
0.0
 48
0.0
 49
0.0
140
0.0
141
0.0
142
1.0
143
1.0
 70
1024
 72
1
 73
0
 74
0
  7

 75
0
147
1.0
148
0.0
149
0.0
100
AcDbLayout
  1
Model
 70
0
 71
0
 10
0.0
 20
0.0
 11
297.0
 21
210.0
 12
0.0
 22
0.0
 32
0.0
 14
0.0
 24
0.0
 34
0.0
 15
0.0
 25
0.0
 35
0.0
146
0.0
 13
0.0
 23
0.0
 33
0.0
 16
1.0
 26
0.0
 36
0.0
 17
0.0
 27
1.0
 37
0.0
 76
0
330
213
345
0
346
0
  0
LAYOUT
  5
303
102
{ACAD_REACTORS
330
1A
102
}
100
AcDbPlotSettings
  1

  2
none_device
  4
ISO_A4_(297.00_x_210.00_MM)
  6

 40
0.0
 41
0.0
 42
0.0
 43
0.0
 44
297.0
 45
210.0
 46
0.0
 47
0.0
 48
0.0
 49
0.0
140
0.0
141
0.0
142
1.0
143
1.0
 70
0
 72
1
 73
0
 74
0
  7

 75
0
147
1.0
148
0.0
149
0.0
100
AcDbLayout
  1
Layout1
 70
0
 71
1
 10
0.0
 20
0.0
 11
297.0
 21
210.0
 12
0.0
 22
0.0
 32
0.0
 14
0.0
 24
0.0
 34
0.0
 15
0.0
 25
0.0
 35
0.0
146
0.0
 13
0.0
 23
0.0
 33
0.0
 16
1.0
 26
0.0
 36
0.0
 17
0.0
 27
1.0
 37
0.0
 76
0
330
214
345
0
346
0
  0
ENDSEC
  0
EOF
