  0
SECTION
  2
HEADER
  9
$ACADVER
  1
AC1015
  9
$DWGCODEPAGE
  3
ANSI_1252
  9
$EXTMAX
 10
297.0
 20
210.0
 30
0.0
  9
$EXTMIN
 10
0.0
 20
0.0
 30
0.0
  9
$LIMMIN
 10
0.0
 20
0.0
  9
$LIMMAX
 10
297.0
 20
210.0
  9
$VIEWCTR
 10
148.5
 20
105.0
  9
$VIEWSIZE
 40
210.0
  9
$CLAYER
  8
0
  9
$LTSCALE
 40
16.335
  9
$CELTYPE
  6
BYLAYER
  9
$DIMSCALE
 40
1.0
  9
$DIMASZ
 40
3.0
  9
$DIMEXO
 40
1.85625
  9
$DIMDLI
 40
11.286
  9
$DIMEXE
 40
5.346
  9
$DIMCEN
 40
2.673
  9
$DIMLFAC
 40
1.0
  9
$DIMBLK
  1
_FILLED
  9
$DIMTXT
 40
3.0
  9
$DIMTOL
 70
1
  9
$DIMLIM
 70
0
  9
$DIMTFAC
 40
1.0
  9
$DIMTP
 40
0.01
  9
$DIMTM
 40
0.01
  9
$PDMODE
 70
3
  9
$PDSIZE
 40
3.0
  9
$HANDSEED
  5
302
  9
$TILEMODE
 70
1
  9
$MEASUREMENT
 70
1
  9
$INSUNITS
 70
4
  0
ENDSEC
  0
SECTION
  2
CLASSES
  0
CLASS
  1
ACDBDICTIONARYWDFLT
  2
AcDbDictionaryWithDefault
  3
AutoCAD 2000
 90
0
280
0
281
0
  0
CLASS
  1
ACDBPLACEHOLDER
  2
AcDbPlaceHolder
  3
AutoCAD 2000
 90
0
280
0
281
0
  0
CLASS
  1
LAYOUT
  2
AcDbLayout
  3
AutoCAD 2000
 90
0
280
0
281
0
  0
ENDSEC
  0
SECTION
  2
TABLES
  0
TABLE
  2
VPORT
  5
8
100
AcDbSymbolTable
 70
2
  0
VPORT
  5
1F4
100
AcDbSymbolTableRecord
100
AcDbViewportTableRecord
  2
*ACTIVE
 70
0
 10
0.0
 20
0.0
 11
1.0
 21
1.0
 12
148.5
 22
105.0
 13
0.0
 23
0.0
 14
1.0
 24
1.0
 15
0.0
 25
0.0
 16
0.0
 26
0.0
 36
1.0
 17
0.0
 27
0.0
 37
0.0
 40
210.0
 41
1.4142857143
 42
50.0
 43
0.0
 44
0.0
 50
0.0
 51
0.0
 71
0
 72
100
 73
1
 74
1
 75
0
 76
0
 77
0
 78
0
  0
ENDTAB
  0
TABLE
  2
LTYPE
  5
5
100
AcDbSymbolTable
 70
6
  0
LTYPE
  5
14
100
AcDbSymbolTableRecord
100
AcDbLinetypeTableRecord
  2
BYBLOCK
 70
0
  3

 72
65
 73
0
 40
0.0
  0
LTYPE
  5
15
100
AcDbSymbolTableRecord
100
AcDbLinetypeTableRecord
  2
BYLAYER
 70
0
  3

 72
65
 73
0
 40
0.0
  0
LTYPE
  5
16
100
AcDbSymbolTableRecord
100
AcDbLinetypeTableRecord
  2
CONTINUOUS
 70
64
  3
Solid line
 72
65
 73
0
 40
0.0
  0
LTYPE
  5
1F5
100
AcDbSymbolTableRecord
100
AcDbLinetypeTableRecord
  2
CENTER
 70
64
  3
____ _ ____ _ ____ _ ____ _ ____ _ ____ _ ____
 72
65
 73
4
 40
0.6
 49
0.375
 74
0
 49
-0.075
 74
0
 49
0.075
 74
0
 49
-0.075
 74
0
  0
LTYPE
  5
1F6
100
AcDbSymbolTableRecord
100
AcDbLinetypeTableRecord
  2
HIDDEN
 70
64
  3
- - - - - - - - - - - - - - - - - - - -
 72
65
 73
2
 40
0.2
 49
0.1
 74
0
 49
-0.1
 74
0
  0
LTYPE
  5
1F7
100
AcDbSymbolTableRecord
100
AcDbLinetypeTableRecord
  2
PHANTOM
 70
64
  3
_____ _ _ _____ _ _ _____ _ _ _____
 72
65
 73
6
 40
0.8
 49
0.45
 74
0
 49
-0.05
 74
0
 49
0.1
 74
0
 49
-0.05
 74
0
 49
0.1
 74
0
 49
-0.05
 74
0
  0
LTYPE
  5
1F8
100
AcDbSymbolTableRecord
100
AcDbLinetypeTableRecord
  2
DOT
 70
64
  3
. . . . . . . . . . . . . . . . . . . .
 72
65
 73
2
 40
0.2
 49
0.1
 74
0
 49
-0.1
 74
0
  0
LTYPE
  5
1F9
100
AcDbSymbolTableRecord
100
AcDbLinetypeTableRecord
  2
DASHED
 70
64
  3
- - - - - - - - - - - - - - - - - - - -
 72
65
 73
2
 40
0.2
 49
0.1
 74
0
 49
-0.1
 74
0
  0
ENDTAB
  0
TABLE
  2
LAYER
  5
2
100
AcDbSymbolTable
 70
36
  0
LAYER
  5
10
100
AcDbSymbolTableRecord
100
AcDbLayerTableRecord
  2
0
 70
0
 62
7
  6
CONTINUOUS
370
-3
390
F
  0
LAYER
  5
1FA
100
AcDbSymbolTableRecord
100
AcDbLayerTableRecord
  2
DEFAULT_1
 70
0
 62
7
  6
CENTER
370
-3
390
F
  0
LAYER
  5
1FB
100
AcDbSymbolTableRecord
100
AcDbLayerTableRecord
  2
DEFAULT_2
 70
0
 62
7
  6
HIDDEN
370
-3
390
F
  0
LAYER
  5
1FC
100
AcDbSymbolTableRecord
100
AcDbLayerTableRecord
  2
DEFAULT_3
 70
0
 62
7
  6
PHANTOM
370
-3
390
F
  0
LAYER
  5
1FD
100
AcDbSymbolTableRecord
100
AcDbLayerTableRecord
  2
ASSI
 70
0
 62
7
  6
CONTINUOUS
370
-3
390
F
  0
LAYER
  5
1FE
100
AcDbSymbolTableRecord
100
AcDbLayerTableRecord
  2
COORDINATE
 70
0
 62
7
  6
CONTINUOUS
370
-3
390
F
  0
LAYER
  5
1FF
100
AcDbSymbolTableRecord
100
AcDbLayerTableRecord
  2
COORD_ORIGINE
 70
0
 62
7
  6
CONTINUOUS
370
-3
390
F
  0
LAYER
  5
200
100
AcDbSymbolTableRecord
100
AcDbLayerTableRecord
  2
COPY_PUBLISH
 70
0
 62
7
  6
CONTINUOUS
370
-3
390
F
  0
LAYER
  5
201
100
AcDbSymbolTableRecord
100
AcDbLayerTableRecord
  2
COSMETIC
 70
0
 62
7
  6
CONTINUOUS
370
-3
390
F
  0
LAYER
  5
202
100
AcDbSymbolTableRecord
100
AcDbLayerTableRecord
  2
CURVE
 70
0
 62
7
  6
CONTINUOUS
370
-3
390
F
  0
LAYER
  5
203
100
AcDbSymbolTableRecord
100
AcDbLayerTableRecord
  2
DRAFT
 70
0
 62
7
  6
CONTINUOUS
370
-3
390
F
  0
LAYER
  5
204
100
AcDbSymbolTableRecord
100
AcDbLayerTableRecord
  2
IGES
 70
0
 62
7
  6
CONTINUOUS
370
-3
390
F
  0
LAYER
  5
205
100
AcDbSymbolTableRecord
100
AcDbLayerTableRecord
  2
IMPORT_IGES
 70
0
 62
7
  6
CONTINUOUS
370
-3
390
F
  0
LAYER
  5
206
100
AcDbSymbolTableRecord
100
AcDbLayerTableRecord
  2
INTF_6
 70
0
 62
7
  6
CONTINUOUS
370
-3
390
F
  0
LAYER
  5
207
100
AcDbSymbolTableRecord
100
AcDbLayerTableRecord
  2
NOTE
 70
0
 62
7
  6
CONTINUOUS
370
-3
390
F
  0
LAYER
  5
208
100
AcDbSymbolTableRecord
100
AcDbLayerTableRecord
  2
PIANI
 70
0
 62
7
  6
CONTINUOUS
370
-3
390
F
  0
LAYER
  5
209
100
AcDbSymbolTableRecord
100
AcDbLayerTableRecord
  2
PIANI_ORIGINE
 70
0
 62
7
  6
CONTINUOUS
370
-3
390
F
  0
LAYER
  5
20A
100
AcDbSymbolTableRecord
100
AcDbLayerTableRecord
  2
PIANI_RIFERIMENTO
 70
0
 62
7
  6
CONTINUOUS
370
-3
390
F
  0
LAYER
  5
20B
100
AcDbSymbolTableRecord
100
AcDbLayerTableRecord
  2
PUNTI
 70
0
 62
7
  6
CONTINUOUS
370
-3
390
F
  0
LAYER
  5
20C
100
AcDbSymbolTableRecord
100
AcDbLayerTableRecord
  2
RACCORDO
 70
0
 62
7
  6
CONTINUOUS
370
-3
390
F
  0
LAYER
  5
20D
100
AcDbSymbolTableRecord
100
AcDbLayerTableRecord
  2
SMUSSO
 70
0
 62
7
  6
CONTINUOUS
370
-3
390
F
  0
LAYER
  5
20E
100
AcDbSymbolTableRecord
100
AcDbLayerTableRecord
  2
SNAPLINE
 70
0
 62
7
  6
CONTINUOUS
370
-3
390
F
  0
LAYER
  5
20F
100
AcDbSymbolTableRecord
100
AcDbLayerTableRecord
  2
SUPERFICI
 70
0
 62
7
  6
CONTINUOUS
370
-3
390
F
  0
LAYER
  5
210
100
AcDbSymbolTableRecord
100
AcDbLayerTableRecord
  2
TRASH
 70
0
 62
7
  6
CONTINUOUS
370
-3
390
F
  0
ENDTAB
  0
TABLE
  2
STYLE
  5
3
100
AcDbSymbolTable
 70
1
  0
STYLE
  5
11
100
AcDbSymbolTableRecord
100
AcDbTextStyleTableRecord
  2
STANDARD
 70
0
 40
0.0
 41
0.8
 50
0.0
 71
0
 42
0.2
  3
txt
  4

  0
STYLE
  5
211
100
AcDbSymbolTableRecord
100
AcDbTextStyleTableRecord
  2
TEXTSTYLE_1
 70
0
 40
0.0
 41
0.8
 50
0.0
 71
0
 42
0.2
  3
gdt
  4

  0
ENDTAB
  0
TABLE
  2
VIEW
  5
6
100
AcDbSymbolTable
 70
0
  0
ENDTAB
  0
TABLE
  2
UCS
  5
7
100
AcDbSymbolTable
 70
0
  0
ENDTAB
  0
TABLE
  2
APPID
  5
9
100
AcDbSymbolTable
 70
1
  0
APPID
  5
212
100
AcDbSymbolTableRecord
100
AcDbRegAppTableRecord
  2
ACAD
 70
0
  0
ENDTAB
  0
TABLE
  2
BLOCK_RECORD
  5
1
100
AcDbSymbolTable
 70
0
  0
BLOCK_RECORD
  5
213
100
AcDbSymbolTableRecord
100
AcDbBlockTableRecord
  2
*Model_Space
  0
BLOCK_RECORD
  5
214
100
AcDbSymbolTableRecord
100
AcDbBlockTableRecord
  2
*Paper_Space
  0
BLOCK_RECORD
  5
215
100
AcDbSymbolTableRecord
100
AcDbBlockTableRecord
  2
_FILLED
  0
BLOCK_RECORD
  5
216
100
AcDbSymbolTableRecord
100
AcDbBlockTableRecord
  2
*D0
  0
BLOCK_RECORD
  5
217
100
AcDbSymbolTableRecord
100
AcDbBlockTableRecord
  2
*D1
  0
BLOCK_RECORD
  5
218
100
AcDbSymbolTableRecord
100
AcDbBlockTableRecord
  2
*D2
  0
ENDTAB
  0
TABLE
  2
DIMSTYLE
  5
A
100
AcDbSymbolTable
 70
1
100
AcDbDimStyleTable
 71
0
  0
DIMSTYLE
105
219
100
AcDbSymbolTableRecord
100
AcDbDimStyleTableRecord
  2
STANDARD
 70
0
  3

  4

 40
1.0
 41
3.0
 42
0.0625
 43
0.38
 44
0.18
 45
0.0
 46
0.0
 47
0.01
 48
0.01
140
3.0
141
0.09
142
0.0
143
25.4
144
1.0
145
0.0
146
1.0
147
0.09
 71
1.0
 72
0.0
 73
0
 74
0
 75
0
 76
0
 77
1
 78
8
170
0
171
2
172
0
173
0
174
0
175
0
176
0
177
0
178
0
270
2
271
2
272
2
273
2
274
2
275
0
280
0
281
0
282
0
283
1
284
8
285
0
286
0
287
3
288
0
340
11
341
215
342
215
343
215
344
215
  0
DIMSTYLE
105
21A
100
AcDbSymbolTableRecord
100
AcDbDimStyleTableRecord
  2
DIMSTYLE_1
 70
0
  3

  4

 40
1.0
 41
3.0
 42
0.0625
 43
0.38
 44
0.18
 45
0.0
 46
0.0
 47
0.0
 48
0.0
140
3.0
141
0.09
142
0.0
143
25.4
144
1.0
145
0.0
146
1.0
147
0.09
 71
0.0
 72
0.0
 73
0
 74
0
 75
0
 76
0
 77
1
 78
8
170
0
171
2
172
0
173
0
174
0
175
0
176
0
177
0
178
0
270
2
271
2
272
2
273
2
274
2
275
0
280
0
281
0
282
0
283
1
284
8
285
0
286
0
287
3
288
0
340
11
341
215
342
215
343
215
344
215
  0
DIMSTYLE
105
21B
100
AcDbSymbolTableRecord
100
AcDbDimStyleTableRecord
  2
DIMSTYLE_2
 70
0
  3

  4

 40
1.0
 41
3.0
 42
0.0625
 43
0.38
 44
0.18
 45
0.0
 46
0.0
 47
0.0
 48
0.0
140
3.0
141
0.09
142
0.0
143
25.4
144
1.0
145
0.0
146
1.0
147
0.09
 71
0.0
 72
0.0
 73
0
 74
0
 75
0
 76
0
 77
1
 78
8
170
0
171
2
172
0
173
0
174
0
175
0
176
0
177
0
178
0
270
2
271
1
272
1
273
2
274
2
275
0
280
0
281
0
282
0
283
1
284
8
285
0
286
0
287
3
288
0
340
11
341
215
342
215
343
215
344
215
  0
ENDTAB
  0
ENDSEC
  0
SECTION
  2
BLOCKS
  0
BLOCK
  5
20
100
AcDbEntity
  8
0
100
AcDbBlockBegin
  2
*Model_Space
 70
0
 10
0.0
 20
0.0
 30
0.0
  3
*Model_Space
  1

  0
ENDBLK
  5
21
100
AcDbEntity
  8
0
100
AcDbBlockEnd
  0
BLOCK
  5
1C
100
AcDbEntity
  8
0
100
AcDbBlockBegin
  2
*Paper_Space
 70
0
 10
0.0
 20
0.0
 30
0.0
  3
*Paper_Space
  1

  0
ENDBLK
  5
1D
100
AcDbEntity
  8
0
100
AcDbBlockEnd
  0
BLOCK
  5
21C
100
AcDbEntity
  8
0
100
AcDbBlockBegin
  2
_FILLED
 70
64
 10
0.0
 20
0.0
  3
_FILLED
  1

  0
SOLID
  5
21D
100
AcDbEntity
  8
0
  6
BYBLOCK
 62
0
100
AcDbTrace
 10
0.0
 20
0.0
 11
-1.0
 21
0.3166666667
 12
-1.0
 22
-0.3166666667
 13
-1.0
 23
-0.3166666667
  0
ENDBLK
  5
21E
100
AcDbEntity
  8
0
  6
BYBLOCK
 62
0
100
AcDbBlockEnd
  0
BLOCK
  5
21F
100
AcDbEntity
  8
0
100
AcDbBlockBegin
 62
7
  6
CONTINUOUS
  2
*D0
 70
65
 10
0.0
 20
0.0
  3
*D0
  1

  0
MTEXT
  5
220
100
AcDbEntity
  8
0
100
AcDbMText
 62
7
  6
CONTINUOUS
  7
STANDARD
 71
2
 72
1
 10
-21.5329891207
 20
22.725335872
 30
0.0
 11
1.0
 21
0.0
 31
0.0
 44
0.9
  1
6,5
 40
3.0
 41
6.2142857143
  0
LINE
  5
221
100
AcDbEntity
  8
0
100
AcDbLine
 62
7
  6
CONTINUOUS
 10
-18.2830497227
 20
7.975335872
 11
-18.2830497227
 21
20.475335872
  0
LINE
  5
222
100
AcDbEntity
  8
0
100
AcDbLine
 62
7
  6
CONTINUOUS
 10
-24.7829285187
 20
11.2271922834
 11
-24.7829285187
 21
20.475335872
  0
LINE
  5
223
100
AcDbEntity
  8
0
100
AcDbLine
 62
7
  6
CONTINUOUS
 10
-18.2830497227
 20
18.975335872
 11
-14.2830497227
 21
18.975335872
  0
LINE
  5
224
100
AcDbEntity
  8
0
100
AcDbLine
 62
7
  6
CONTINUOUS
 10
-14.2830497227
 20
18.975335872
 11
-21.5329891207
 21
18.975335872
  0
LINE
  5
225
100
AcDbEntity
  8
0
100
AcDbLine
 62
7
  6
CONTINUOUS
 10
-24.7829285187
 20
18.975335872
 11
-28.7829285187
 21
18.975335872
  0
LINE
  5
226
100
AcDbEntity
  8
0
100
AcDbLine
 62
7
  6
CONTINUOUS
 10
-28.7829285187
 20
18.975335872
 11
-21.5329891207
 21
18.975335872
  0
INSERT
  5
227
100
AcDbEntity
  8
0
100
AcDbBlockReference
 62
7
  6
CONTINUOUS
  2
_FILLED
 10
-18.2830497227
 20
18.975335872
 41
3.0
 42
3.0
 43
3.0
 50
180.0
  0
INSERT
  5
228
100
AcDbEntity
  8
0
100
AcDbBlockReference
 62
7
  6
CONTINUOUS
  2
_FILLED
 10
-24.7829285187
 20
18.975335872
 41
3.0
 42
3.0
 43
3.0
  0
ENDBLK
  5
229
100
AcDbEntity
  8
0
  6
BYBLOCK
 62
0
100
AcDbBlockEnd
  0
BLOCK
  5
22A
100
AcDbEntity
  8
0
100
AcDbBlockBegin
 62
7
  6
CONTINUOUS
  2
*D1
 70
65
 10
0.0
 20
0.0
  3
*D1
  1

  0
MTEXT
  5
22B
100
AcDbEntity
  8
0
100
AcDbMText
 62
7
  6
CONTINUOUS
  7
STANDARD
 71
2
 72
1
 10
14.461826109
 20
22.725335872
 30
0.0
 11
1.0
 21
0.0
 31
0.0
 44
0.9
  1
44,7
 40
3.0
 41
8.7857142857
  0
LINE
  5
22C
100
AcDbEntity
  8
0
100
AcDbLine
 62
7
  6
CONTINUOUS
 10
-7.888173891
 20
11.2753587173
 11
-7.888173891
 21
20.475335872
  0
LINE
  5
22D
100
AcDbEntity
  8
0
100
AcDbLine
 62
7
  6
CONTINUOUS
 10
36.811826109
 20
11.2753587173
 11
36.811826109
 21
20.475335872
  0
LINE
  5
22E
100
AcDbEntity
  8
0
100
AcDbLine
 62
7
  6
CONTINUOUS
 10
-7.888173891
 20
18.975335872
 11
14.461826109
 21
18.975335872
  0
LINE
  5
22F
100
AcDbEntity
  8
0
100
AcDbLine
 62
7
  6
CONTINUOUS
 10
36.811826109
 20
18.975335872
 11
14.461826109
 21
18.975335872
  0
INSERT
  5
230
100
AcDbEntity
  8
0
100
AcDbBlockReference
 62
7
  6
CONTINUOUS
  2
_FILLED
 10
-7.888173891
 20
18.975335872
 41
3.0
 42
3.0
 43
3.0
 50
180.0
  0
INSERT
  5
231
100
AcDbEntity
  8
0
100
AcDbBlockReference
 62
7
  6
CONTINUOUS
  2
_FILLED
 10
36.811826109
 20
18.975335872
 41
3.0
 42
3.0
 43
3.0
  0
ENDBLK
  5
232
100
AcDbEntity
  8
0
  6
BYBLOCK
 62
0
100
AcDbBlockEnd
  0
BLOCK
  5
233
100
AcDbEntity
  8
0
100
AcDbBlockBegin
 62
7
  6
CONTINUOUS
  2
*D2
 70
65
 10
0.0
 20
0.0
  3
*D2
  1

  0
MTEXT
  5
234
100
AcDbEntity
  8
0
100
AcDbMText
 62
7
  6
CONTINUOUS
  7
STANDARD
 71
2
 72
1
 10
41.061826109
 20
-0.0543204808
 30
0.0
 11
0.0
 21
1.0
 31
0.0
 44
0.9
  1
22,1
 40
3.0
 41
8.1428571429
  0
LINE
  5
235
100
AcDbEntity
  8
0
100
AcDbLine
 62
7
  6
CONTINUOUS
 10
37.1118261079
 20
10.975335872
 11
46.311826109
 21
10.975335872
  0
LINE
  5
236
100
AcDbEntity
  8
0
100
AcDbLine
 62
7
  6
CONTINUOUS
 10
36.7983720484
 20
-11.0839768337
 11
46.311826109
 21
-11.0839768337
  0
LINE
  5
237
100
AcDbEntity
  8
0
100
AcDbLine
 62
7
  6
CONTINUOUS
 10
44.811826109
 20
10.975335872
 11
44.811826109
 21
-0.0543204808
  0
LINE
  5
238
100
AcDbEntity
  8
0
100
AcDbLine
 62
7
  6
CONTINUOUS
 10
44.811826109
 20
-11.0839768337
 11
44.811826109
 21
-0.0543204808
  0
INSERT
  5
239
100
AcDbEntity
  8
0
100
AcDbBlockReference
 62
7
  6
CONTINUOUS
  2
_FILLED
 10
44.811826109
 20
10.975335872
 41
3.0
 42
3.0
 43
3.0
 50
90.0
  0
INSERT
  5
23A
100
AcDbEntity
  8
0
100
AcDbBlockReference
 62
7
  6
CONTINUOUS
  2
_FILLED
 10
44.811826109
 20
-11.0839768337
 41
3.0
 42
3.0
 43
3.0
 50
270.0
  0
ENDBLK
  5
23B
100
AcDbEntity
  8
0
  6
BYBLOCK
 62
0
100
AcDbBlockEnd
  0
ENDSEC
  0
SECTION
  2
ENTITIES
  0
DIMENSION
  5
23C
100
AcDbEntity
  8
0
100
AcDbDimension
 62
7
  6
CONTINUOUS
  2
*D0
 10
-24.7829285187
 20
18.975335872
 11
-24.6401319779
 21
21.225335872
 70
160
 71
2
 42
6.499878796
  3
DIMSTYLE_1
100
AcDbAlignedDimension
 13
-18.2830497227
 23
7.975335872
 14
-24.7829285187
 24
11.2271922834
 50
180.0
100
AcDbRotatedDimension
  0
DIMENSION
  5
23D
100
AcDbEntity
  8
0
100
AcDbDimension
 62
7
  6
CONTINUOUS
  2
*D1
 10
36.811826109
 20
18.975335872
 11
10.0689689662
 21
21.225335872
 70
160
 71
2
 42
44.7
  3
DIMSTYLE_1
100
AcDbAlignedDimension
 13
-7.888173891
 23
11.2753587173
 14
36.811826109
 24
11.2753587173
100
AcDbRotatedDimension
  0
DIMENSION
  5
23E
100
AcDbEntity
  8
0
100
AcDbDimension
 62
7
  6
CONTINUOUS
  2
*D2
 10
44.811826109
 20
-11.0839768337
 11
44.3861258318
 21
-3.6941640398
 70
160
 71
2
 42
22.0593127057
  3
DIMSTYLE_2
100
AcDbAlignedDimension
 13
37.1118261079
 23
10.975335872
 14
36.7983720484
 24
-11.0839768337
 50
270.0
100
AcDbRotatedDimension
  0
LINE
  5
23F
100
AcDbEntity
  8
RACCORDO
100
AcDbLine
 62
7
  6
CONTINUOUS
 10
-7.888173891
 20
-2.024664128
 11
-7.8750996537
 21
-10.5860311059
  0
LINE
  5
240
100
AcDbEntity
  8
ASSI
100
AcDbLine
 62
7
  6
CONTINUOUS
 10
-7.888173891
 20
-2.024664128
 11
-7.8750996537
 21
-10.5860311059
  0
LINE
  5
241
100
AcDbEntity
  8
RACCORDO
100
AcDbLine
 62
7
  6
CONTINUOUS
 10
-7.888173891
 20
10.7753587173
 11
-7.888173891
 21
-2.024664128
  0
LINE
  5
242
100
AcDbEntity
  8
ASSI
100
AcDbLine
 62
7
  6
CONTINUOUS
 10
-7.888173891
 20
10.7753587173
 11
-7.888173891
 21
-2.024664128
  0
LINE
  5
243
100
AcDbEntity
  8
RACCORDO
100
AcDbLine
 62
253
  6
CONTINUOUS
 10
-7.2973335029
 20
10.7271922825
 11
-7.2973335029
 21
10.9273239254
  0
LINE
  5
244
100
AcDbEntity
  8
ASSI
100
AcDbLine
 62
253
  6
CONTINUOUS
 10
-7.2973335029
 20
10.7271922825
 11
-7.2973335029
 21
10.9273239254
  0
LINE
  5
245
100
AcDbEntity
  8
RACCORDO
100
AcDbLine
 62
253
  6
CONTINUOUS
 10
-7.8750996537
 20
-10.5860311059
 11
-7.8211580124
 21
-10.4240745826
  0
LINE
  5
246
100
AcDbEntity
  8
ASSI
100
AcDbLine
 62
253
  6
CONTINUOUS
 10
-7.8750996537
 20
-10.5860311059
 11
-7.8211580124
 21
-10.4240745826
  0
LINE
  5
247
100
AcDbEntity
  8
RACCORDO
100
AcDbLine
 62
253
  6
CONTINUOUS
 10
-7.3747198304
 20
-11.0839768337
 11
-7.3212343699
 21
-10.9233899659
  0
LINE
  5
248
100
AcDbEntity
  8
ASSI
100
AcDbLine
 62
253
  6
CONTINUOUS
 10
-7.3747198304
 20
-11.0839768337
 11
-7.3212343699
 21
-10.9233899659
  0
LINE
  5
249
100
AcDbEntity
  8
RACCORDO
100
AcDbLine
 62
7
  6
CONTINUOUS
 10
29.103401116
 20
-11.0839768337
 11
29.4540910821
 21
-11.0521436757
  0
LINE
  5
24A
100
AcDbEntity
  8
ASSI
100
AcDbLine
 62
7
  6
CONTINUOUS
 10
29.103401116
 20
-11.0839768337
 11
29.4540910821
 21
-11.0521436757
  0
LINE
  5
24B
100
AcDbEntity
  8
RACCORDO
100
AcDbLine
 62
7
  6
CONTINUOUS
 10
-0.179748898
 20
-11.0839768337
 11
-0.5304388641
 21
-11.0521436757
  0
LINE
  5
24C
100
AcDbEntity
  8
ASSI
100
AcDbLine
 62
7
  6
CONTINUOUS
 10
-0.179748898
 20
-11.0839768337
 11
-0.5304388641
 21
-11.0521436757
  0
LINE
  5
24D
100
AcDbEntity
  8
RACCORDO
100
AcDbLine
 62
7
  6
CONTINUOUS
 10
17.903401116
 20
-11.0839768337
 11
18.2540910821
 21
-11.0521436757
  0
LINE
  5
24E
100
AcDbEntity
  8
ASSI
100
AcDbLine
 62
7
  6
CONTINUOUS
 10
17.903401116
 20
-11.0839768337
 11
18.2540910821
 21
-11.0521436757
  0
LINE
  5
24F
100
AcDbEntity
  8
RACCORDO
100
AcDbLine
 62
7
  6
CONTINUOUS
 10
6.603401116
 20
-11.0839768337
 11
6.9540910821
 21
-11.0521436757
  0
LINE
  5
250
100
AcDbEntity
  8
ASSI
100
AcDbLine
 62
7
  6
CONTINUOUS
 10
6.603401116
 20
-11.0839768337
 11
6.9540910821
 21
-11.0521436757
  0
LINE
  5
251
100
AcDbEntity
  8
RACCORDO
100
AcDbLine
 62
7
  6
CONTINUOUS
 10
-7.3747198304
 20
-11.0839768337
 11
-4.596598884
 21
-11.0839768337
  0
LINE
  5
252
100
AcDbEntity
  8
ASSI
100
AcDbLine
 62
7
  6
CONTINUOUS
 10
-7.3747198304
 20
-11.0839768337
 11
-4.596598884
 21
-11.0839768337
  0
LINE
  5
253
100
AcDbEntity
  8
DRAFT
100
AcDbLine
 62
7
  6
CONTINUOUS
 10
-0.179748898
 20
-11.0839768337
 11
6.603401116
 21
-11.0839768337
  0
LINE
  5
254
100
AcDbEntity
  8
ASSI
100
AcDbLine
 62
7
  6
CONTINUOUS
 10
-0.179748898
 20
-11.0839768337
 11
6.603401116
 21
-11.0839768337
  0
LINE
  5
255
100
AcDbEntity
  8
DRAFT
100
AcDbLine
 62
7
  6
CONTINUOUS
 10
11.020251102
 20
-11.0839768337
 11
17.903401116
 21
-11.0839768337
  0
LINE
  5
256
100
AcDbEntity
  8
ASSI
100
AcDbLine
 62
7
  6
CONTINUOUS
 10
11.020251102
 20
-11.0839768337
 11
17.903401116
 21
-11.0839768337
  0
LINE
  5
257
100
AcDbEntity
  8
DRAFT
100
AcDbLine
 62
7
  6
CONTINUOUS
 10
22.320251102
 20
-11.0839768337
 11
29.103401116
 21
-11.0839768337
  0
LINE
  5
258
100
AcDbEntity
  8
ASSI
100
AcDbLine
 62
7
  6
CONTINUOUS
 10
22.320251102
 20
-11.0839768337
 11
29.103401116
 21
-11.0839768337
  0
LINE
  5
259
100
AcDbEntity
  8
RACCORDO
100
AcDbLine
 62
7
  6
CONTINUOUS
 10
33.520251102
 20
-11.0839768337
 11
36.2983720484
 21
-11.0839768337
  0
LINE
  5
25A
100
AcDbEntity
  8
ASSI
100
AcDbLine
 62
7
  6
CONTINUOUS
 10
33.520251102
 20
-11.0839768337
 11
36.2983720484
 21
-11.0839768337
  0
LINE
  5
25B
100
AcDbEntity
  8
RACCORDO
100
AcDbLine
 62
7
  6
CONTINUOUS
 10
-4.0727038371
 20
-11.0469028978
 11
-0.7036439448
 21
-11.0469028978
  0
LINE
  5
25C
100
AcDbEntity
  8
ASSI
100
AcDbLine
 62
7
  6
CONTINUOUS
 10
-4.0727038371
 20
-11.0469028978
 11
-0.7036439448
 21
-11.0469028978
  0
LINE
  5
25D
100
AcDbEntity
  8
RACCORDO
100
AcDbLine
 62
7
  6
CONTINUOUS
 10
7.1272961629
 20
-11.0469028978
 11
10.4963560552
 21
-11.0469028978
  0
LINE
  5
25E
100
AcDbEntity
  8
ASSI
100
AcDbLine
 62
7
  6
CONTINUOUS
 10
7.1272961629
 20
-11.0469028978
 11
10.4963560552
 21
-11.0469028978
  0
LINE
  5
25F
100
AcDbEntity
  8
RACCORDO
100
AcDbLine
 62
7
  6
CONTINUOUS
 10
18.4272961629
 20
-11.0469028978
 11
21.7963560552
 21
-11.0469028978
  0
LINE
  5
260
100
AcDbEntity
  8
ASSI
100
AcDbLine
 62
7
  6
CONTINUOUS
 10
18.4272961629
 20
-11.0469028978
 11
21.7963560552
 21
-11.0469028978
  0
LINE
  5
261
100
AcDbEntity
  8
RACCORDO
100
AcDbLine
 62
7
  6
CONTINUOUS
 10
29.6272961629
 20
-11.0469028978
 11
32.9963560552
 21
-11.0469028978
  0
LINE
  5
262
100
AcDbEntity
  8
ASSI
100
AcDbLine
 62
7
  6
CONTINUOUS
 10
29.6272961629
 20
-11.0469028978
 11
32.9963560552
 21
-11.0469028978
  0
LINE
  5
263
100
AcDbEntity
  8
RACCORDO
100
AcDbLine
 62
253
  6
CONTINUOUS
 10
36.244886588
 20
-10.9233899659
 11
-7.3212343699
 21
-10.9233899659
  0
LINE
  5
264
100
AcDbEntity
  8
ASSI
100
AcDbLine
 62
253
  6
CONTINUOUS
 10
36.244886588
 20
-10.9233899659
 11
-7.3212343699
 21
-10.9233899659
  0
LINE
  5
265
100
AcDbEntity
  8
RACCORDO
100
AcDbLine
 62
7
  6
CONTINUOUS
 10
11.020251102
 20
-11.0839768337
 11
10.6695611359
 21
-11.0521436757
  0
LINE
  5
266
100
AcDbEntity
  8
ASSI
100
AcDbLine
 62
7
  6
CONTINUOUS
 10
11.020251102
 20
-11.0839768337
 11
10.6695611359
 21
-11.0521436757
  0
LINE
  5
267
100
AcDbEntity
  8
RACCORDO
100
AcDbLine
 62
7
  6
CONTINUOUS
 10
22.320251102
 20
-11.0839768337
 11
21.9695611359
 21
-11.0521436757
  0
LINE
  5
268
100
AcDbEntity
  8
ASSI
100
AcDbLine
 62
7
  6
CONTINUOUS
 10
22.320251102
 20
-11.0839768337
 11
21.9695611359
 21
-11.0521436757
  0
LINE
  5
269
100
AcDbEntity
  8
RACCORDO
100
AcDbLine
 62
7
  6
CONTINUOUS
 10
-4.596598884
 20
-11.0839768337
 11
-4.2459089179
 21
-11.0521436757
  0
LINE
  5
26A
100
AcDbEntity
  8
ASSI
100
AcDbLine
 62
7
  6
CONTINUOUS
 10
-4.596598884
 20
-11.0839768337
 11
-4.2459089179
 21
-11.0521436757
  0
LINE
  5
26B
100
AcDbEntity
  8
RACCORDO
100
AcDbLine
 62
253
  6
CONTINUOUS
 10
36.2283595973
 20
-9.4871187636
 11
-7.3047073792
 21
-9.4871187638
  0
LINE
  5
26C
100
AcDbEntity
  8
ASSI
100
AcDbLine
 62
253
  6
CONTINUOUS
 10
36.2283595973
 20
-9.4871187636
 11
-7.3047073792
 21
-9.4871187638
  0
LINE
  5
26D
100
AcDbEntity
  8
RACCORDO
100
AcDbLine
 62
7
  6
CONTINUOUS
 10
33.520251102
 20
-11.0839768337
 11
33.1695611359
 21
-11.0521436757
  0
LINE
  5
26E
100
AcDbEntity
  8
ASSI
100
AcDbLine
 62
7
  6
CONTINUOUS
 10
33.520251102
 20
-11.0839768337
 11
33.1695611359
 21
-11.0521436757
  0
LINE
  5
26F
100
AcDbEntity
  8
CURVE
100
AcDbLine
 62
253
  6
CONTINUOUS
 10
14.461826109
 20
-4.424664128
 11
10.961826109
 21
-0.924664128
  0
LINE
  5
270
100
AcDbEntity
  8
RACCORDO
100
AcDbLine
 62
253
  6
CONTINUOUS
 10
36.6118261079
 20
10.975335872
 11
36.5209400008
 21
10.9298962794
  0
LINE
  5
271
100
AcDbEntity
  8
ASSI
100
AcDbLine
 62
253
  6
CONTINUOUS
 10
36.6118261079
 20
10.975335872
 11
36.5209400008
 21
10.9298962794
  0
LINE
  5
272
100
AcDbEntity
  8
CURVE
100
AcDbLine
 62
253
  6
CONTINUOUS
 10
10.961826109
 20
-0.924664128
 11
17.961826109
 21
-0.924664128
  0
LINE
  5
273
100
AcDbEntity
  8
RACCORDO
100
AcDbLine
 62
253
  6
CONTINUOUS
 10
-7.7972573218
 20
10.7299038948
 11
-7.888173891
 21
10.7753587173
  0
LINE
  5
274
100
AcDbEntity
  8
ASSI
100
AcDbLine
 62
253
  6
CONTINUOUS
 10
-7.7972573218
 20
10.7299038948
 11
-7.888173891
 21
10.7753587173
  0
LINE
  5
275
100
AcDbEntity
  8
RACCORDO
100
AcDbLine
 62
253
  6
CONTINUOUS
 10
-7.5972877828
 20
10.9298962794
 11
-7.6881738898
 21
10.975335872
  0
LINE
  5
276
100
AcDbEntity
  8
ASSI
100
AcDbLine
 62
253
  6
CONTINUOUS
 10
-7.5972877828
 20
10.9298962794
 11
-7.6881738898
 21
10.975335872
  0
LINE
  5
277
100
AcDbEntity
  8
RACCORDO
100
AcDbLine
 62
253
  6
CONTINUOUS
 10
36.811826109
 20
10.7753587173
 11
36.7209095399
 21
10.7299038948
  0
LINE
  5
278
100
AcDbEntity
  8
ASSI
100
AcDbLine
 62
253
  6
CONTINUOUS
 10
36.811826109
 20
10.7753587173
 11
36.7209095399
 21
10.7299038948
  0
LINE
  5
279
100
AcDbEntity
  8
CURVE
100
AcDbLine
 62
253
  6
CONTINUOUS
 10
17.961826109
 20
-0.924664128
 11
14.461826109
 21
-4.424664128
  0
LINE
  5
27A
100
AcDbEntity
  8
DRAFT
100
AcDbLine
 62
7
  6
CONTINUOUS
 10
34.2242920996
 20
10.975335872
 11
33.961826109
 21
10.9491552687
  0
LINE
  5
27B
100
AcDbEntity
  8
ASSI
100
AcDbLine
 62
7
  6
CONTINUOUS
 10
34.2242920996
 20
10.975335872
 11
33.961826109
 21
10.9491552687
  0
LINE
  5
27C
100
AcDbEntity
  8
DRAFT
100
AcDbLine
 62
7
  6
CONTINUOUS
 10
-5.3006398816
 20
10.975335872
 11
-5.038173891
 21
10.9491552687
  0
LINE
  5
27D
100
AcDbEntity
  8
ASSI
100
AcDbLine
 62
7
  6
CONTINUOUS
 10
-5.3006398816
 20
10.975335872
 11
-5.038173891
 21
10.9491552687
  0
LINE
  5
27E
100
AcDbEntity
  8
RACCORDO
100
AcDbLine
 62
253
  6
CONTINUOUS
 10
36.220973239
 20
10.7271922825
 11
-7.297321021
 21
10.7271922825
  0
LINE
  5
27F
100
AcDbEntity
  8
ASSI
100
AcDbLine
 62
253
  6
CONTINUOUS
 10
36.220973239
 20
10.7271922825
 11
-7.297321021
 21
10.7271922825
  0
LINE
  5
280
100
AcDbEntity
  8
RACCORDO
100
AcDbLine
 62
253
  6
CONTINUOUS
 10
36.2209857209
 20
10.9273239254
 11
-7.2973335029
 21
10.9273239254
  0
LINE
  5
281
100
AcDbEntity
  8
ASSI
100
AcDbLine
 62
7
  6
CONTINUOUS
 10
36.2209857209
 20
10.9273239254
 11
-7.2973335029
 21
10.9273239254
  0
LINE
  5
282
100
AcDbEntity
  8
DRAFT
100
AcDbLine
 62
7
  6
CONTINUOUS
 10
-5.038173891
 20
10.9491552687
 11
33.961826109
 21
10.9491552687
  0
LINE
  5
283
100
AcDbEntity
  8
ASSI
100
AcDbLine
 62
7
  6
CONTINUOUS
 10
-5.038173891
 20
10.9491552687
 11
33.961826109
 21
10.9491552687
  0
LINE
  5
284
100
AcDbEntity
  8
RACCORDO
100
AcDbLine
 62
7
  6
CONTINUOUS
 10
-7.6881738898
 20
10.975335872
 11
-5.3006398816
 21
10.975335872
  0
LINE
  5
285
100
AcDbEntity
  8
ASSI
100
AcDbLine
 62
7
  6
CONTINUOUS
 10
-7.6881738898
 20
10.975335872
 11
-5.3006398816
 21
10.975335872
  0
LINE
  5
286
100
AcDbEntity
  8
RACCORDO
100
AcDbLine
 62
7
  6
CONTINUOUS
 10
34.2242920996
 20
10.975335872
 11
36.6118261079
 21
10.975335872
  0
LINE
  5
287
100
AcDbEntity
  8
ASSI
100
AcDbLine
 62
7
  6
CONTINUOUS
 10
34.2242920996
 20
10.975335872
 11
36.6118261079
 21
10.975335872
  0
LINE
  5
288
100
AcDbEntity
  8
RACCORDO
100
AcDbLine
 62
253
  6
CONTINUOUS
 10
36.244886588
 20
-10.9233899659
 11
36.2983720484
 21
-11.0839768337
  0
LINE
  5
289
100
AcDbEntity
  8
ASSI
100
AcDbLine
 62
253
  6
CONTINUOUS
 10
36.244886588
 20
-10.9233899659
 11
36.2983720484
 21
-11.0839768337
  0
LINE
  5
28A
100
AcDbEntity
  8
RACCORDO
100
AcDbLine
 62
253
  6
CONTINUOUS
 10
36.7448102304
 20
-10.4240745826
 11
36.7987518717
 21
-10.5860311059
  0
LINE
  5
28B
100
AcDbEntity
  8
ASSI
100
AcDbLine
 62
253
  6
CONTINUOUS
 10
36.7448102304
 20
-10.4240745826
 11
36.7987518717
 21
-10.5860311059
  0
LINE
  5
28C
100
AcDbEntity
  8
RACCORDO
100
AcDbLine
 62
253
  6
CONTINUOUS
 10
36.2209857209
 20
10.7271922825
 11
36.2209857209
 21
10.9273239254
  0
LINE
  5
28D
100
AcDbEntity
  8
ASSI
100
AcDbLine
 62
253
  6
CONTINUOUS
 10
36.2209857209
 20
10.7271922825
 11
36.2209857209
 21
10.9273239254
  0
LINE
  5
28E
100
AcDbEntity
  8
RACCORDO
100
AcDbLine
 62
7
  6
CONTINUOUS
 10
36.811826109
 20
10.7753587173
 11
36.811826109
 21
-2.024664128
  0
LINE
  5
28F
100
AcDbEntity
  8
ASSI
100
AcDbLine
 62
7
  6
CONTINUOUS
 10
36.811826109
 20
10.7753587173
 11
36.811826109
 21
-2.024664128
  0
LINE
  5
290
100
AcDbEntity
  8
RACCORDO
100
AcDbLine
 62
7
  6
CONTINUOUS
 10
36.811826109
 20
-2.024664128
 11
36.7987518717
 21
-10.5860311059
  0
LINE
  5
291
100
AcDbEntity
  8
ASSI
100
AcDbLine
 62
7
  6
CONTINUOUS
 10
36.811826109
 20
-2.024664128
 11
36.7987518717
 21
-10.5860311059
  0
LINE
  5
292
100
AcDbEntity
  8
RACCORDO
100
AcDbLine
 62
7
  6
CONTINUOUS
 10
-22.939816859
 20
-10.9233899659
 11
-19.8756368838
 21
-11.0839768337
  0
LINE
  5
293
100
AcDbEntity
  8
ASSI
100
AcDbLine
 62
7
  6
CONTINUOUS
 10
-22.939816859
 20
-10.9233899659
 11
-19.8756368838
 21
-11.0839768337
  0
LINE
  5
294
100
AcDbEntity
  8
RACCORDO
100
AcDbLine
 62
253
  6
CONTINUOUS
 10
-22.9223868367
 20
-10.4240745826
 11
-19.8320722775
 21
-10.5860311059
  0
LINE
  5
295
100
AcDbEntity
  8
ASSI
100
AcDbLine
 62
253
  6
CONTINUOUS
 10
-22.9223868367
 20
-10.4240745826
 11
-19.8320722775
 21
-10.5860311059
  0
LINE
  5
296
100
AcDbEntity
  8
RACCORDO
100
AcDbLine
 62
253
  6
CONTINUOUS
 10
-23.8692048924
 20
-9.4665699845
 11
-24.3600554202
 21
-9.4871324415
  0
LINE
  5
297
100
AcDbEntity
  8
ASSI
100
AcDbLine
 62
253
  6
CONTINUOUS
 10
-23.8692048924
 20
-9.4665699845
 11
-24.3600554202
 21
-9.4871324415
  0
LINE
  5
298
100
AcDbEntity
  8
RACCORDO
100
AcDbLine
 62
253
  6
CONTINUOUS
 10
-19.4830497227
 20
-6.8581557292
 11
-19.505925443
 21
-6.8581557283
  0
LINE
  5
299
100
AcDbEntity
  8
ASSI
100
AcDbLine
 62
253
  6
CONTINUOUS
 10
-19.4830497227
 20
-6.8581557292
 11
-19.505925443
 21
-6.8581557283
  0
LINE
  5
29A
100
AcDbEntity
  8
RACCORDO
100
AcDbLine
 62
7
  6
CONTINUOUS
 10
-19.4830497227
 20
-6.5966850491
 11
-19.4830497227
 21
-6.8581557292
  0
LINE
  5
29B
100
AcDbEntity
  8
ASSI
100
AcDbLine
 62
7
  6
CONTINUOUS
 10
-19.4830497227
 20
-6.5966850491
 11
-19.4830497227
 21
-6.8581557292
  0
LINE
  5
29C
100
AcDbEntity
  8
RACCORDO
100
AcDbLine
 62
7
  6
CONTINUOUS
 10
-19.0830497227
 20
10.975335872
 11
-19.0830497227
 21
-2.024664128
  0
LINE
  5
29D
100
AcDbEntity
  8
ASSI
100
AcDbLine
 62
7
  6
CONTINUOUS
 10
-19.0830497227
 20
10.975335872
 11
-19.0830497227
 21
-2.024664128
  0
LINE
  5
29E
100
AcDbEntity
  8
RACCORDO
100
AcDbLine
 62
7
  6
CONTINUOUS
 10
-19.0830497227
 20
-2.024664128
 11
-19.8756368838
 21
-11.0839768337
  0
LINE
  5
29F
100
AcDbEntity
  8
ASSI
100
AcDbLine
 62
7
  6
CONTINUOUS
 10
-19.0830497227
 20
-2.024664128
 11
-19.8756368838
 21
-11.0839768337
  0
LINE
  5
2A0
100
AcDbEntity
  8
0
100
AcDbLine
 62
7
  6
CONTINUOUS
 10
-18.2830497227
 20
5.675335872
 11
-18.2830497227
 21
7.475335872
  0
LINE
  5
2A1
100
AcDbEntity
  8
0
100
AcDbLine
 62
7
  6
CONTINUOUS
 10
-19.0830497227
 20
5.635335872
 11
-18.2830497227
 21
5.675335872
  0
LINE
  5
2A2
100
AcDbEntity
  8
0
100
AcDbLine
 62
7
  6
CONTINUOUS
 10
-19.0830497227
 20
7.515335872
 11
-18.2830497227
 21
7.475335872
  0
LINE
  5
2A3
100
AcDbEntity
  8
RACCORDO
100
AcDbLine
 62
253
  6
CONTINUOUS
 10
-19.0830497227
 20
10.7753587173
 11
-24.2916564808
 21
10.7299038948
  0
LINE
  5
2A4
100
AcDbEntity
  8
ASSI
100
AcDbLine
 62
253
  6
CONTINUOUS
 10
-19.0830497227
 20
10.7753587173
 11
-24.2916564808
 21
10.7299038948
  0
LINE
  5
2A5
100
AcDbEntity
  8
RACCORDO
100
AcDbLine
 62
7
  6
CONTINUOUS
 10
-19.0830497227
 20
10.975335872
 11
-24.5846738731
 21
10.9273239254
  0
LINE
  5
2A6
100
AcDbEntity
  8
ASSI
100
AcDbLine
 62
7
  6
CONTINUOUS
 10
-19.0830497227
 20
10.975335872
 11
-24.5846738731
 21
10.9273239254
  0
ARC
  5
2A7
100
AcDbEntity
  8
RACCORDO
100
AcDbCircle
 62
253
  6
CONTINUOUS
 10
14.4618261084
 20
6.574925611
 40
1.4205643605
100
AcDbArc
 50
359.9802406462
 51
180.0197593538
  0
ARC
  5
2A8
100
AcDbEntity
  8
ASSI
100
AcDbCircle
 62
253
  6
CONTINUOUS
 10
14.4618261084
 20
6.574925611
 40
1.4205643605
100
AcDbArc
 50
359.9802406462
 51
180.0197593538
  0
ARC
  5
2A9
100
AcDbEntity
  8
RACCORDO
100
AcDbCircle
 62
253
  6
CONTINUOUS
 10
14.4618261097
 20
6.5743922055
 40
1.4205642984
100
AcDbArc
 50
179.9982461073
 51
0.0017538927
  0
ARC
  5
2AA
100
AcDbEntity
  8
ASSI
100
AcDbCircle
 62
253
  6
CONTINUOUS
 10
14.4618261097
 20
6.5743922055
 40
1.4205642984
100
AcDbArc
 50
179.9982461073
 51
0.0017538927
  0
CIRCLE
  5
2AB
100
AcDbEntity
  8
RACCORDO
100
AcDbCircle
 62
253
  6
CONTINUOUS
 10
14.4618261091
 20
6.5755213538
 40
1.3206291745
  0
CIRCLE
  5
2AC
100
AcDbEntity
  8
ASSI
100
AcDbCircle
 62
253
  6
CONTINUOUS
 10
14.4618261091
 20
6.5755213538
 40
1.3206291745
  0
CIRCLE
  5
2AD
100
AcDbEntity
  8
DRAFT
100
AcDbCircle
 62
7
  6
CONTINUOUS
 10
14.461826109
 20
6.575335872
 40
1.3
  0
CIRCLE
  5
2AE
100
AcDbEntity
  8
ASSI
100
AcDbCircle
 62
7
  6
CONTINUOUS
 10
14.461826109
 20
6.575335872
 40
1.3
  0
CIRCLE
  5
2AF
100
AcDbEntity
  8
DRAFT
100
AcDbCircle
 62
7
  6
CONTINUOUS
 10
14.461826109
 20
6.575335872
 40
1.225
  0
CIRCLE
  5
2B0
100
AcDbEntity
  8
RACCORDO
100
AcDbCircle
 62
253
  6
CONTINUOUS
 10
14.461826109
 20
6.575335872
 40
1.2068524201
  0
CIRCLE
  5
2B1
100
AcDbEntity
  8
RACCORDO
100
AcDbCircle
 62
253
  6
CONTINUOUS
 10
14.461826109
 20
6.575335872
 40
1.1180464865
  0
ARC
  5
2B2
100
AcDbEntity
  8
RACCORDO
100
AcDbCircle
 62
253
  6
CONTINUOUS
 10
-7.3210292028
 20
-10.4231839871
 40
0.5001711055
100
AcDbArc
 50
180.1020283288
 51
269.9765227258
  0
ARC
  5
2B3
100
AcDbEntity
  8
RACCORDO
100
AcDbCircle
 62
253
  6
CONTINUOUS
 10
36.2446813816
 20
-10.423184026
 40
0.5001711055
100
AcDbArc
 50
270.0234817623
 51
359.8979761315
  0
ARC
  5
2B4
100
AcDbEntity
  8
ASSI
100
AcDbCircle
 62
253
  6
CONTINUOUS
 10
36.2446813816
 20
-10.423184026
 40
0.5001711055
100
AcDbArc
 50
270.0234817623
 51
359.8979761315
  0
ARC
  5
2B5
100
AcDbEntity
  8
ASSI
100
AcDbCircle
 62
253
  6
CONTINUOUS
 10
-7.3210292028
 20
-10.4231839871
 40
0.5001711055
100
AcDbArc
 50
180.1020283288
 51
269.9765227258
  0
ARC
  5
2B6
100
AcDbEntity
  8
RACCORDO
100
AcDbCircle
 62
253
  6
CONTINUOUS
 10
-7.597238502
 20
10.7298800833
 40
0.2000177349
100
AcDbArc
 50
90.014116768
 51
179.993179156
  0
ARC
  5
2B7
100
AcDbEntity
  8
RACCORDO
100
AcDbCircle
 62
253
  6
CONTINUOUS
 10
36.5208907269
 20
10.7298800902
 40
0.2000177349
100
AcDbArc
 50
0.0068188717
 51
89.9858852041
  0
ARC
  5
2B8
100
AcDbEntity
  8
ASSI
100
AcDbCircle
 62
253
  6
CONTINUOUS
 10
36.5208907269
 20
10.7298800902
 40
0.2000177349
100
AcDbArc
 50
0.0068188717
 51
89.9858852041
  0
ARC
  5
2B9
100
AcDbEntity
  8
ASSI
100
AcDbCircle
 62
253
  6
CONTINUOUS
 10
-7.597238502
 20
10.7298800833
 40
0.2000177349
100
AcDbArc
 50
90.014116768
 51
179.993179156
  0
ARC
  5
2BA
100
AcDbEntity
  8
RACCORDO
100
AcDbCircle
 62
7
  6
CONTINUOUS
 10
-22.8613246772
 20
-9.4254450478
 40
1.5
100
AcDbArc
 50
182.3564266604
 51
267.0004495319
  0
ARC
  5
2BB
100
AcDbEntity
  8
ASSI
100
AcDbCircle
 62
7
  6
CONTINUOUS
 10
-22.8613246772
 20
-9.4254450478
 40
1.5
100
AcDbArc
 50
182.3564266604
 51
267.0004495319
  0
ARC
  5
2BC
100
AcDbEntity
  8
RACCORDO
100
AcDbCircle
 62
253
  6
CONTINUOUS
 10
-22.8700508746
 20
-9.425445042
 40
1.0000000061
100
AcDbArc
 50
182.3569503067
 51
266.9999996841
  0
ARC
  5
2BD
100
AcDbEntity
  8
ASSI
100
AcDbCircle
 62
253
  6
CONTINUOUS
 10
-22.8700508746
 20
-9.425445042
 40
1.0000000061
100
AcDbArc
 50
182.3569503067
 51
266.9999996841
  0
ARC
  5
2BE
100
AcDbEntity
  8
RACCORDO
100
AcDbCircle
 62
7
  6
CONTINUOUS
 10
-19.7830497227
 20
-6.8581557292
 40
0.3
100
AcDbArc
 50
335.0
 51
360.0
  0
ARC
  5
2BF
100
AcDbEntity
  8
ASSI
100
AcDbCircle
 62
7
  6
CONTINUOUS
 10
-19.7830497227
 20
-6.8581557292
 40
0.3
100
AcDbArc
 50
335.0
 51
360.0
  0
ARC
  5
2C0
100
AcDbEntity
  8
RACCORDO
100
AcDbCircle
 62
7
  6
CONTINUOUS
 10
-24.5829281732
 20
10.7273315443
 40
0.2
100
AcDbArc
 50
90.5001125223
 51
180.0398954802
  0
ARC
  5
2C1
100
AcDbEntity
  8
ASSI
100
AcDbCircle
 62
7
  6
CONTINUOUS
 10
-24.5829281732
 20
10.7273315443
 40
0.2
100
AcDbArc
 50
90.5001125223
 51
180.0398954802
  0
ARC
  5
2C2
100
AcDbEntity
  8
RACCORDO
100
AcDbCircle
 62
7
  6
CONTINUOUS
 10
475.2169502773
 20
11.075335872
 40
500.0
100
AcDbArc
 50
180.0398943199
 51
182.3569484208
  0
ARC
  5
2C3
100
AcDbEntity
  8
ASSI
100
AcDbCircle
 62
7
  6
CONTINUOUS
 10
475.2169502773
 20
11.075335872
 40
500.0
100
AcDbArc
 50
180.0398943199
 51
182.3569484208
  0
ARC
  5
2C4
100
AcDbEntity
  8
RACCORDO
100
AcDbCircle
 62
253
  6
CONTINUOUS
 10
475.2082184168
 20
11.0753356939
 40
499.4999943402
100
AcDbArc
 50
180.0396231952
 51
182.356949997
  0
ARC
  5
2C5
100
AcDbEntity
  8
ASSI
100
AcDbCircle
 62
253
  6
CONTINUOUS
 10
475.2082184168
 20
11.0753356939
 40
499.4999943402
100
AcDbArc
 50
180.0396231952
 51
182.356949997
  0
SPLINE
  5
2C6
100
AcDbEntity
  8
RACCORDO
100
AcDbSpline
 62
253
  6
CONTINUOUS
 70
0
 71
3
 72
18
 73
14
 74
12
 42
0.0000001
 43
0.0000001
 44
0.0000000001
 12
-0.299989706
 22
0.000000142
 32
0.0
 13
-0.2684874758
 23
0.133821893
 33
0.0
 40
0.0
 40
0.0
 40
0.0
 40
0.0
 40
0.1406746255
 40
0.2786286441
 40
0.4110478798
 40
0.5352794916
 40
0.6488611016
 40
0.7495250868
 40
0.8352602903
 40
0.9043609514
 40
0.955459893
 40
0.9875422799
 40
1.0
 40
1.0
 40
1.0
 40
1.0
 10
-7.2973335029
 20
10.9273239254
 30
0.0
 10
-7.3114004827
 20
10.9273239321
 30
0.0
 10
-7.3392624068
 20
10.9273409024
 30
0.0
 10
-7.3803656691
 20
10.9274173825
 30
0.0
 10
-7.4198248045
 20
10.9275422911
 30
0.0
 10
-7.4568457557
 20
10.9277159729
 30
0.0
 10
-7.4906937372
 20
10.9279246717
 30
0.0
 10
-7.5206832833
 20
10.9281952495
 30
0.0
 10
-7.5462497927
 20
10.9284260433
 30
0.0
 10
-7.56678927
 20
10.9288774936
 30
0.0
 10
-7.5821349597
 20
10.9288564265
 30
0.0
 10
-7.5914673319
 20
10.929802814
 30
0.0
 10
-7.5961728689
 20
10.9293405742
 30
0.0
 10
-7.5972877828
 20
10.9298962794
 30
0.0
 11
-7.2973335029
 21
10.9273239254
 31
0.0
 11
-7.3395344344
 21
10.9273499571
 31
0.0
 11
-7.3809191471
 21
10.9274275967
 31
0.0
 11
-7.4206433494
 21
10.927555307
 31
0.0
 11
-7.4579111421
 21
10.9277305391
 31
0.0
 11
-7.4919837503
 21
10.9279498219
 31
0.0
 11
-7.5221807992
 21
10.9282087867
 31
0.0
 11
-7.5478988034
 21
10.9285022571
 31
0.0
 11
-7.5686257875
 21
10.9288243767
 31
0.0
 11
-7.583951075
 21
10.9291687599
 31
0.0
 11
-7.593568735
 21
10.9295285075
 31
0.0
 11
-7.5972877828
 21
10.9298962794
 31
0.0
  0
SPLINE
  5
2C7
100
AcDbEntity
  8
RACCORDO
100
AcDbSpline
 62
253
  6
CONTINUOUS
 70
0
 71
3
 72
18
 73
14
 74
12
 42
0.0000001
 43
0.0000001
 44
0.0000000001
 12
-0.2684874777
 22
-0.1338218893
 32
0.0
 13
-0.299989706
 23
-0.000000142
 33
0.0
 40
0.0
 40
0.0
 40
0.0
 40
0.0
 40
0.01245772
 40
0.0445401068
 40
0.0956390483
 40
0.1647397093
 40
0.2504749128
 40
0.351138898
 40
0.4647205079
 40
0.5889521196
 40
0.7213713552
 40
0.8593253738
 40
1.0
 40
1.0
 40
1.0
 40
1.0
 10
36.5209400008
 20
10.9298962794
 30
0.0
 10
36.5198250869
 20
10.9293405742
 30
0.0
 10
36.51511955
 20
10.9298028139
 30
0.0
 10
36.5057871778
 20
10.9288564265
 30
0.0
 10
36.4904414881
 20
10.9288774935
 30
0.0
 10
36.4699020108
 20
10.9284260433
 30
0.0
 10
36.4443355015
 20
10.9281952495
 30
0.0
 10
36.4143459554
 20
10.9279246717
 30
0.0
 10
36.3804979739
 20
10.9277159729
 30
0.0
 10
36.3434770227
 20
10.9275422911
 30
0.0
 10
36.3040178873
 20
10.9274173825
 30
0.0
 10
36.262914625
 20
10.9273409024
 30
0.0
 10
36.2350527008
 20
10.9273239321
 30
0.0
 10
36.2209857209
 20
10.9273239254
 30
0.0
 11
36.5209400008
 21
10.9298962794
 31
0.0
 11
36.5172209531
 21
10.9295285075
 31
0.0
 11
36.5076032931
 21
10.9291687599
 31
0.0
 11
36.4922780056
 21
10.9288243767
 31
0.0
 11
36.4715510215
 21
10.9285022571
 31
0.0
 11
36.4458330174
 21
10.9282087867
 31
0.0
 11
36.4156359684
 21
10.9279498219
 31
0.0
 11
36.3815633603
 21
10.9277305391
 31
0.0
 11
36.3442955676
 21
10.927555307
 31
0.0
 11
36.3045713653
 21
10.9274275967
 31
0.0
 11
36.2631866526
 21
10.9273499571
 31
0.0
 11
36.2209857209
 21
10.9273239254
 31
0.0
  0
SPLINE
  5
2C8
100
AcDbEntity
  8
RACCORDO
100
AcDbSpline
 62
253
  6
CONTINUOUS
 70
0
 71
3
 72
21
 73
17
 74
15
 42
0.0000001
 43
0.0000001
 44
0.0000000001
 12
0.3113269094
 22
1.402385911
 32
0.0
 13
0.0006885319
 23
1.4365271365
 33
0.0
 40
0.0
 40
0.0
 40
0.0
 40
0.0
 40
0.0116253613
 40
0.0346870886
 40
0.0689537638
 40
0.1140486773
 40
0.1694730336
 40
0.2346119018
 40
0.3087402368
 40
0.3910339711
 40
0.4805783092
 40
0.5763759237
 40
0.6773619052
 40
0.7824150232
 40
0.8903612899
 40
1.0
 40
1.0
 40
1.0
 40
1.0
 10
-7.3212343009
 20
-10.9233899658
 30
0.0
 10
-7.3200278717
 20
-10.9179555515
 30
0.0
 10
-7.319105613
 20
-10.9012765139
 30
0.0
 10
-7.3171610798
 20
-10.8683838654
 30
0.0
 10
-7.3156635156
 20
-10.8193237848
 30
0.0
 10
-7.3139777939
 20
-10.7548196214
 30
0.0
 10
-7.3124490619
 20
-10.6755041163
 30
0.0
 10
-7.3109847088
 20
-10.5822908778
 30
0.0
 10
-7.3096468846
 20
-10.4762057466
 30
0.0
 10
-7.3084389013
 20
-10.3584329076
 30
0.0
 10
-7.3073800535
 20
-10.2302818219
 30
0.0
 10
-7.3064816158
 20
-10.0931787611
 30
0.0
 10
-7.305754574
 20
-9.9486483069
 30
0.0
 10
-7.3052072614
 20
-9.7982997422
 30
0.0
 10
-7.3048460442
 20
-9.6438073137
 30
0.0
 10
-7.3047325425
 20
-9.5396184245
 30
0.0
 10
-7.3047073792
 20
-9.4871187638
 30
0.0
 11
-7.3212343009
 21
-10.9233899658
 31
0.0
 11
-7.3194033996
 21
-10.9067904847
 31
0.0
 11
-7.3176030416
 21
-10.8737106395
 31
0.0
 11
-7.3158531265
 21
-10.824516739
 31
0.0
 11
-7.3141733047
 21
-10.7597584481
 31
0.0
 11
-7.3125821985
 21
-10.6801557471
 31
0.0
 11
-7.3110975117
 21
-10.5865937636
 31
0.0
 11
-7.3097357797
 21
-10.4801150938
 31
0.0
 11
-7.3085121423
 21
-10.3619042306
 31
0.0
 11
-7.3074402034
 21
-10.2332758107
 31
0.0
 11
-7.3065318965
 21
-10.0956629196
 31
0.0
 11
-7.3057973158
 21
-9.95059566
 31
0.0
 11
-7.3052446121
 21
-9.799685
 31
0.0
 11
-7.3048799602
 21
-9.6446176695
 31
0.0
 11
-7.3047073792
 21
-9.4871187638
 31
0.0
  0
SPLINE
  5
2C9
100
AcDbEntity
  8
RACCORDO
100
AcDbSpline
 62
253
  6
CONTINUOUS
 70
0
 71
3
 72
21
 73
17
 74
15
 42
0.0000001
 43
0.0000001
 44
0.0000000001
 12
0.0006885319
 22
-1.4365271366
 32
0.0
 13
0.3113269084
 23
-1.4023859114
 33
0.0
 40
0.0
 40
0.0
 40
0.0
 40
0.0
 40
0.1096387099
 40
0.2175849767
 40
0.3226380947
 40
0.4236240761
 40
0.5194216906
 40
0.6089660287
 40
0.6912597631
 40
0.765388098
 40
0.8305269663
 40
0.8859513226
 40
0.9310462361
 40
0.9653129114
 40
0.9883746386
 40
1.0
 40
1.0
 40
1.0
 40
1.0
 10
36.2283595973
 20
-9.4871187636
 30
0.0
 10
36.2283847605
 20
-9.5396184243
 30
0.0
 10
36.2284982622
 20
-9.6438073135
 30
0.0
 10
36.2288594794
 20
-9.7982997419
 30
0.0
 10
36.229406792
 20
-9.9486483066
 30
0.0
 10
36.2301338338
 20
-10.0931787608
 30
0.0
 10
36.2310322716
 20
-10.2302818216
 30
0.0
 10
36.2320911193
 20
-10.3584329073
 30
0.0
 10
36.2332991026
 20
-10.4762057464
 30
0.0
 10
36.2346369268
 20
-10.5822908775
 30
0.0
 10
36.23610128
 20
-10.6755041161
 30
0.0
 10
36.2376300119
 20
-10.7548196213
 30
0.0
 10
36.2393157336
 20
-10.8193237846
 30
0.0
 10
36.2408132979
 20
-10.8683838653
 30
0.0
 10
36.2427578311
 20
-10.9012765138
 30
0.0
 10
36.2436800897
 20
-10.9179555515
 30
0.0
 10
36.244886519
 20
-10.9233899658
 30
0.0
 11
36.2283595973
 21
-9.4871187636
 31
0.0
 11
36.2285321782
 21
-9.6446176692
 31
0.0
 11
36.2288968301
 21
-9.7996849997
 31
0.0
 11
36.2294495339
 21
-9.9505956597
 31
0.0
 11
36.2301841145
 21
-10.0956629193
 31
0.0
 11
36.2310924214
 21
-10.2332758104
 31
0.0
 11
36.2321643603
 21
-10.3619042303
 31
0.0
 11
36.2333879977
 21
-10.4801150935
 31
0.0
 11
36.2347497297
 21
-10.5865937634
 31
0.0
 11
36.2362344166
 21
-10.6801557469
 31
0.0
 11
36.2378255227
 21
-10.759758448
 31
0.0
 11
36.2395053445
 21
-10.8245167388
 31
0.0
 11
36.2412552596
 21
-10.8737106394
 31
0.0
 11
36.2430556176
 21
-10.9067904846
 31
0.0
 11
36.244886519
 21
-10.9233899658
 31
0.0
  0
SPLINE
  5
2CA
100
AcDbEntity
  8
RACCORDO
100
AcDbSpline
 62
253
  6
CONTINUOUS
 70
0
 71
3
 72
11
 73
7
 74
5
 42
0.0000001
 43
0.0000001
 44
0.0000000001
 12
0.0002437994
 22
-20.1964756175
 32
0.0
 13
0.0145100747
 23
-20.1964704066
 33
0.0
 40
0.0
 40
0.0
 40
0.0
 40
0.0
 40
0.2500744177
 40
0.5001049865
 40
0.750083017
 40
1.0
 40
1.0
 40
1.0
 40
1.0
 10
36.7209095399
 20
10.7299038948
 30
0.0
 10
36.7209298625
 20
9.0463632681
 30
0.0
 10
36.7212676048
 20
5.6795772087
 30
0.0
 10
36.722665464
 20
0.6298995884
 30
0.0
 10
36.7249543936
 20
-4.4187178309
 30
0.0
 10
36.7270746884
 20
-7.7840896676
 30
0.0
 10
36.7282834598
 20
-9.4665699845
 30
0.0
 11
36.7209095399
 21
10.7299038948
 31
0.0
 11
36.7214162246
 21
5.6792820399
 31
0.0
 11
36.7228141711
 21
0.6295459464
 31
0.0
 11
36.725103244
 21
-4.419128733
 31
0.0
 11
36.7282834598
 21
-9.4665699845
 31
0.0
  0
SPLINE
  5
2CB
100
AcDbEntity
  8
RACCORDO
100
AcDbSpline
 62
253
  6
CONTINUOUS
 70
0
 71
3
 72
21
 73
17
 74
15
 42
0.0000001
 43
0.0000001
 44
0.0000000001
 12
0.0006885301
 22
-0.957887823
 32
0.0
 13
0.3025944495
 23
-0.9088378044
 33
0.0
 40
0.0
 40
0.0
 40
0.0
 40
0.0
 40
0.1095890288
 40
0.2175144953
 40
0.3225483467
 40
0.423516912
 40
0.519299397
 40
0.6088312783
 40
0.6911156636
 40
0.7652382519
 40
0.8303754916
 40
0.8858030898
 40
0.9309078341
 40
0.965194018
 40
0.9882927082
 40
1.0
 40
1.0
 40
1.0
 40
1.0
 10
36.7282834598
 20
-9.4665699845
 30
0.0
 10
36.7283086116
 20
-9.5015613165
 30
0.0
 10
36.7284220983
 20
-9.571012784
 30
0.0
 10
36.7287832726
 20
-9.6740006154
 30
0.0
 10
36.7293305617
 20
-9.7742351122
 30
0.0
 10
36.7300576074
 20
-9.8705911719
 30
0.0
 10
36.7309560396
 20
-9.9619958199
 30
0.0
 10
36.7320149307
 20
-10.0474326726
 30
0.0
 10
36.7332228632
 20
-10.1259505249
 30
0.0
 10
36.7345609928
 20
-10.1966771607
 30
0.0
 10
36.7360246196
 20
-10.2588203138
 30
0.0
 10
36.7375557738
 20
-10.3117042783
 30
0.0
 10
36.7392353186
 20
-10.3546976468
 30
0.0
 10
36.7407489873
 20
-10.3874405625
 30
0.0
 10
36.7426633341
 20
-10.4093230503
 30
0.0
 10
36.7436293766
 20
-10.4205279061
 30
0.0
 10
36.7448102304
 20
-10.4240745826
 30
0.0
 11
36.7282834598
 21
-9.4665699845
 31
0.0
 11
36.7284559845
 21
-9.571543866
 31
0.0
 11
36.728820619
 21
-9.6749237398
 31
0.0
 11
36.7293733044
 21
-9.775532895
 31
0.0
 11
36.7301078805
 21
-9.8722466896
 31
0.0
 11
36.7310161889
 21
-9.9639910932
 31
0.0
 11
36.7320881408
 21
-10.0497459146
 31
0.0
 11
36.7333118016
 21
-10.1285556465
 31
0.0
 11
36.7346735681
 21
-10.1995437293
 31
0.0
 11
36.7361582989
 21
-10.2619202464
 31
0.0
 11
36.7377494471
 21
-10.3149898337
 31
0.0
 11
36.7394293195
 21
-10.3581624602
 31
0.0
 11
36.7411792563
 21
-10.3909581326
 31
0.0
 11
36.7429796919
 21
-10.4130107182
 31
0.0
 11
36.7448102304
 21
-10.4240745826
 31
0.0
  0
SPLINE
  5
2CC
100
AcDbEntity
  8
RACCORDO
100
AcDbSpline
 62
253
  6
CONTINUOUS
 70
0
 71
3
 72
11
 73
7
 74
5
 42
0.0000001
 43
0.0000001
 44
0.0000000001
 12
0.0002454386
 22
-20.2143127839
 32
0.0
 13
0.0145083669
 23
-20.2143075788
 33
0.0
 40
0.0
 40
0.0
 40
0.0
 40
0.0
 40
0.2500749619
 40
0.5001055662
 40
0.7500836323
 40
1.0
 40
1.0
 40
1.0
 40
1.0
 10
36.220973239
 20
10.7271922825
 30
0.0
 10
36.2209936984
 20
9.0421611162
 30
0.0
 10
36.221349921
 20
5.6723976671
 30
0.0
 10
36.2227405251
 20
0.6182561148
 30
0.0
 10
36.2250313454
 20
-4.4348164872
 30
0.0
 10
36.2271509775
 20
-7.8031566552
 30
0.0
 10
36.2283596036
 20
-9.4871187636
 30
0.0
 11
36.220973239
 21
10.7271922825
 31
0.0
 11
36.2214927127
 21
5.6720988099
 31
0.0
 11
36.2228907567
 21
0.6179021607
 31
0.0
 11
36.2251797175
 21
-4.4352321379
 31
0.0
 11
36.2283596036
 21
-9.4871187636
 31
0.0
  0
SPLINE
  5
2CD
100
AcDbEntity
  8
RACCORDO
100
AcDbSpline
 62
253
  6
CONTINUOUS
 70
0
 71
3
 72
11
 73
7
 74
5
 42
0.0000001
 43
0.0000001
 44
0.0000000001
 12
0.0145083669
 22
20.214307579
 32
0.0
 13
0.0002454386
 23
20.214312784
 33
0.0
 40
0.0
 40
0.0
 40
0.0
 40
0.0
 40
0.2499163677
 40
0.4998944338
 40
0.7499250381
 40
1.0
 40
1.0
 40
1.0
 40
1.0
 10
-7.3047073856
 20
-9.4871187638
 30
0.0
 10
-7.3034987594
 20
-7.8031566553
 30
0.0
 10
-7.3013791274
 20
-4.4348164873
 30
0.0
 10
-7.2990883071
 20
0.6182561148
 30
0.0
 10
-7.297697703
 20
5.6723976671
 30
0.0
 10
-7.2973414803
 20
9.0421611162
 30
0.0
 10
-7.297321021
 20
10.7271922825
 30
0.0
 11
-7.3047073856
 21
-9.4871187638
 31
0.0
 11
-7.3015274995
 21
-4.4352321379
 31
0.0
 11
-7.2992385387
 21
0.6179021607
 31
0.0
 11
-7.2978404947
 21
5.6720988099
 31
0.0
 11
-7.297321021
 21
10.7271922825
 31
0.0
  0
SPLINE
  5
2CE
100
AcDbEntity
  8
RACCORDO
100
AcDbSpline
 62
253
  6
CONTINUOUS
 70
0
 71
3
 72
21
 73
17
 74
15
 42
0.0000001
 43
0.0000001
 44
0.0000000001
 12
0.3025944467
 22
0.9088378053
 32
0.0
 13
0.0006885301
 23
0.957887823
 33
0.0
 40
0.0
 40
0.0
 40
0.0
 40
0.0
 40
0.0117072917
 40
0.034805982
 40
0.0690921658
 40
0.1141969101
 40
0.1696245083
 40
0.2347617479
 40
0.3088843362
 40
0.3911687215
 40
0.4807006028
 40
0.5764830878
 40
0.6774516531
 40
0.7824855045
 40
0.890410971
 40
1.0
 40
1.0
 40
1.0
 40
1.0
 10
-7.8211580124
 20
-10.4240745826
 30
0.0
 10
-7.8199771586
 20
-10.4205279061
 30
0.0
 10
-7.819011116
 20
-10.4093230503
 30
0.0
 10
-7.8170967693
 20
-10.3874405626
 30
0.0
 10
-7.8155831006
 20
-10.3546976469
 30
0.0
 10
-7.8139035558
 20
-10.3117042784
 30
0.0
 10
-7.8123724016
 20
-10.258820314
 30
0.0
 10
-7.8109087748
 20
-10.1966771609
 30
0.0
 10
-7.8095706452
 20
-10.1259505251
 30
0.0
 10
-7.8083627126
 20
-10.0474326728
 30
0.0
 10
-7.8073038215
 20
-9.9619958201
 30
0.0
 10
-7.8064053894
 20
-9.870591172
 30
0.0
 10
-7.8056783437
 20
-9.7742351124
 30
0.0
 10
-7.8051310546
 20
-9.6740006156
 30
0.0
 10
-7.8047698802
 20
-9.5710127841
 30
0.0
 10
-7.8046563935
 20
-9.5015613166
 30
0.0
 10
-7.8046312417
 20
-9.4665699845
 30
0.0
 11
-7.8211580124
 21
-10.4240745826
 31
0.0
 11
-7.8193274738
 21
-10.4130107182
 31
0.0
 11
-7.8175270383
 21
-10.3909581327
 31
0.0
 11
-7.8157771015
 21
-10.3581624603
 31
0.0
 11
-7.8140972291
 21
-10.3149898338
 31
0.0
 11
-7.8125060808
 21
-10.2619202465
 31
0.0
 11
-7.8110213501
 21
-10.1995437295
 31
0.0
 11
-7.8096595835
 21
-10.1285556467
 31
0.0
 11
-7.8084359228
 21
-10.0497459148
 31
0.0
 11
-7.8073639708
 21
-9.9639910933
 31
0.0
 11
-7.8064556625
 21
-9.8722466898
 31
0.0
 11
-7.8057210864
 21
-9.7755328952
 31
0.0
 11
-7.805168401
 21
-9.67492374
 31
0.0
 11
-7.8048037664
 21
-9.5715438662
 31
0.0
 11
-7.8046312417
 21
-9.4665699845
 31
0.0
  0
SPLINE
  5
2CF
100
AcDbEntity
  8
RACCORDO
100
AcDbSpline
 62
253
  6
CONTINUOUS
 70
0
 71
3
 72
11
 73
7
 74
5
 42
0.0000001
 43
0.0000001
 44
0.0000000001
 12
0.0145100747
 22
20.1964704066
 32
0.0
 13
0.0002437994
 23
20.1964756175
 33
0.0
 40
0.0
 40
0.0
 40
0.0
 40
0.0
 40
0.249916983
 40
0.4998950135
 40
0.7499255823
 40
1.0
 40
1.0
 40
1.0
 40
1.0
 10
-7.8046312417
 20
-9.4665699845
 30
0.0
 10
-7.8034224704
 20
-7.7840896676
 30
0.0
 10
-7.8013021756
 20
-4.4187178309
 30
0.0
 10
-7.799013246
 20
0.6298995884
 30
0.0
 10
-7.7976153868
 20
5.6795772087
 30
0.0
 10
-7.7972776445
 20
9.0463632681
 30
0.0
 10
-7.7972573218
 20
10.7299038948
 30
0.0
 11
-7.8046312417
 21
-9.4665699845
 31
0.0
 11
-7.8014510259
 21
-4.419128733
 31
0.0
 11
-7.7991619531
 21
0.6295459464
 31
0.0
 11
-7.7977640065
 21
5.6792820399
 31
0.0
 11
-7.7972573218
 21
10.7299038948
 31
0.0
  0
SPLINE
  5
2D0
100
AcDbEntity
  8
RACCORDO
100
AcDbSpline
 62
253
  6
CONTINUOUS
 70
0
 71
3
 72
17
 73
13
 74
11
 42
0.0000001
 43
0.0000001
 44
0.0000000001
 12
0.1956282812
 22
-0.461440029
 32
0.0
 13
0.5011957657
 23
-0.0003594732
 33
0.0
 40
0.0
 40
0.0
 40
0.0
 40
0.0
 40
0.0160132903
 40
0.0548770558
 40
0.1162690414
 40
0.1988277038
 40
0.3006095192
 40
0.4191865661
 40
0.551717786
 40
0.6950219317
 40
0.8456561653
 40
1.0
 40
1.0
 40
1.0
 40
1.0
 10
-7.8046312417
 20
-9.4665699845
 30
0.0
 10
-7.8035870243
 20
-9.4690330422
 30
0.0
 10
-7.792289383
 20
-9.470177349
 30
0.0
 10
-7.7750567001
 20
-9.4738673145
 30
0.0
 10
-7.7435696501
 20
-9.476083372
 30
0.0
 10
-7.7030404098
 20
-9.4789099479
 30
0.0
 10
-7.65232365
 20
-9.4811896533
 30
0.0
 10
-7.5934572887
 20
-9.4832558469
 30
0.0
 10
-7.5275672282
 20
-9.4849056266
 30
0.0
 10
-7.4563342848
 20
-9.4861414251
 30
0.0
 10
-7.3814438046
 20
-9.4869161088
 30
0.0
 10
-7.3304928863
 20
-9.4871139586
 30
0.0
 10
-7.3047073942
 20
-9.4871324528
 30
0.0
 11
-7.8046312417
 21
-9.4665699845
 31
0.0
 11
-7.7972630727
 21
-9.4697517256
 31
0.0
 11
-7.7780338057
 21
-9.4728568482
 31
0.0
 11
-7.7474064954
 21
-9.4758105785
 31
0.0
 11
-7.7061186695
 21
-9.4785417886
 31
0.0
 11
-7.655164569
 21
-9.480984709
 31
0.0
 11
-7.5957712056
 21
-9.4830805124
 31
0.0
 11
-7.5293688144
 21
-9.4847787302
 31
0.0
 11
-7.4575564132
 21
-9.4860384683
 31
0.0
 11
-7.3820632968
 21
-9.4868293911
 31
0.0
 11
-7.3047073942
 21
-9.4871324528
 31
0.0
  0
SPLINE
  5
2D1
100
AcDbEntity
  8
RACCORDO
100
AcDbSpline
 62
253
  6
CONTINUOUS
 70
0
 71
3
 72
18
 73
14
 74
12
 42
0.0000001
 43
0.0000001
 44
0.0000000001
 12
-0.4999598993
 22
0.0000026839
 32
0.0
 13
-0.4768081841
 23
0.1503790427
 33
0.0
 40
0.0
 40
0.0
 40
0.0
 40
0.0
 40
0.1407570357
 40
0.2787072446
 40
0.4111226913
 40
0.5353461367
 40
0.6489169725
 40
0.7495704425
 40
0.8352997461
 40
0.9043974138
 40
0.9554947188
 40
0.9875693603
 40
1.0
 40
1.0
 40
1.0
 40
1.0
 10
-7.297321021
 20
10.7271922773
 30
0.0
 10
-7.3207786454
 20
10.7271924032
 30
0.0
 10
-7.3672261388
 20
10.7272105049
 30
0.0
 10
-7.4357410104
 20
10.7272914568
 30
0.0
 10
-7.5015006021
 20
10.7274233159
 30
0.0
 10
-7.5631965422
 20
10.7276067868
 30
0.0
 10
-7.6196010848
 20
10.7278262049
 30
0.0
 10
-7.669583842
 20
10.728113571
 30
0.0
 10
-7.7121735607
 20
10.7283505679
 30
0.0
 10
-7.7464520547
 20
10.7288430884
 30
0.0
 10
-7.7719163077
 20
10.7287807873
 30
0.0
 10
-7.7876772741
 20
10.7298522053
 30
0.0
 10
-7.7952816449
 20
10.7292807922
 30
0.0
 10
-7.7972573218
 20
10.7299038948
 30
0.0
 11
-7.297321021
 21
10.7271922773
 31
0.0
 11
-7.3676938889
 21
10.7272200676
 31
0.0
 11
-7.4366634125
 21
10.7273022082
 31
0.0
 11
-7.5028656885
 21
10.7274370817
 31
0.0
 11
-7.5649721545
 21
10.7276219768
 31
0.0
 11
-7.6217525473
 21
10.7278532279
 31
0.0
 11
-7.6720745055
 21
10.7281262174
 31
0.0
 11
-7.7149346037
 21
10.7284354961
 31
0.0
 11
-7.7494789995
 21
10.7287748809
 31
0.0
 11
-7.775023027
 21
10.7291376584
 31
0.0
 11
-7.7910545859
 21
10.729516504
 31
0.0
 11
-7.7972573218
 21
10.7299038948
 31
0.0
  0
SPLINE
  5
2D2
100
AcDbEntity
  8
RACCORDO
100
AcDbSpline
 62
253
  6
CONTINUOUS
 70
0
 71
3
 72
18
 73
14
 74
12
 42
0.0000001
 43
0.0000001
 44
0.0000000001
 12
-0.4768081835
 22
-0.1503790444
 32
0.0
 13
-0.4999598993
 23
-0.0000026839
 33
0.0
 40
0.0
 40
0.0
 40
0.0
 40
0.0
 40
0.0124306396
 40
0.044505281
 40
0.095602586
 40
0.1647002536
 40
0.2504295571
 40
0.351083027
 40
0.4646538628
 40
0.5888773081
 40
0.7212927548
 40
0.8592429635
 40
1.0
 40
1.0
 40
1.0
 40
1.0
 10
36.7209095399
 20
10.7299038948
 30
0.0
 10
36.718933863
 20
10.7292807922
 30
0.0
 10
36.7113294922
 20
10.7298522053
 30
0.0
 10
36.6955685258
 20
10.7287807873
 30
0.0
 10
36.6701042729
 20
10.7288430884
 30
0.0
 10
36.6358257789
 20
10.7283505679
 30
0.0
 10
36.5932360602
 20
10.728113571
 30
0.0
 10
36.5432533031
 20
10.7278262049
 30
0.0
 10
36.4868487605
 20
10.7276067868
 30
0.0
 10
36.4251528205
 20
10.7274233159
 30
0.0
 10
36.3593932288
 20
10.7272914568
 30
0.0
 10
36.2908783571
 20
10.7272105049
 30
0.0
 10
36.2444308636
 20
10.7271924032
 30
0.0
 10
36.220973239
 20
10.7271922773
 30
0.0
 11
36.7209095399
 21
10.7299038948
 31
0.0
 11
36.714706804
 21
10.729516504
 31
0.0
 11
36.6986752452
 21
10.7291376584
 31
0.0
 11
36.6731312177
 21
10.7287748809
 31
0.0
 11
36.6385868219
 21
10.7284354961
 31
0.0
 11
36.5957267238
 21
10.7281262174
 31
0.0
 11
36.5454047655
 21
10.7278532279
 31
0.0
 11
36.4886243728
 21
10.7276219768
 31
0.0
 11
36.4265179069
 21
10.7274370817
 31
0.0
 11
36.3603156309
 21
10.7273022082
 31
0.0
 11
36.2913461073
 21
10.7272200676
 31
0.0
 11
36.220973239
 21
10.7271922773
 31
0.0
  0
SPLINE
  5
2D3
100
AcDbEntity
  8
RACCORDO
100
AcDbSpline
 62
253
  6
CONTINUOUS
 70
0
 71
3
 72
17
 73
13
 74
11
 42
0.0000001
 43
0.0000001
 44
0.0000000001
 12
-0.195632535
 22
-0.4614382212
 32
0.0
 13
-0.5011957617
 23
-0.0003594721
 33
0.0
 40
0.0
 40
0.0
 40
0.0
 40
0.0
 40
0.0160133458
 40
0.0548771568
 40
0.1162691731
 40
0.1988278512
 40
0.3006096677
 40
0.4191867025
 40
0.551717899
 40
0.6950220123
 40
0.8456562072
 40
1.0
 40
1.0
 40
1.0
 40
1.0
 10
36.7282834598
 20
-9.4665699845
 30
0.0
 10
36.727239216
 20
-9.4690330411
 30
0.0
 10
36.7159415909
 20
-9.4701773449
 30
0.0
 10
36.6987088545
 20
-9.4738673109
 30
0.0
 10
36.6672218068
 20
-9.4760833675
 30
0.0
 10
36.6266925513
 20
-9.4789099419
 30
0.0
 10
36.5759757939
 20
-9.4811896461
 30
0.0
 10
36.5171094378
 20
-9.4832558384
 30
0.0
 10
36.4512193895
 20
-9.484905617
 30
0.0
 10
36.3799864623
 20
-9.4861414147
 30
0.0
 10
36.3050960016
 20
-9.4869160978
 30
0.0
 10
36.2541450971
 20
-9.4871139474
 30
0.0
 10
36.2283596122
 20
-9.4871324415
 30
0.0
 11
36.7282834598
 21
-9.4665699845
 31
0.0
 11
36.7209152601
 21
-9.4697517244
 31
0.0
 11
36.7016859698
 21
-9.4728568456
 31
0.0
 11
36.6710586441
 21
-9.4758105745
 31
0.0
 11
36.6297708107
 21
-9.4785417831
 31
0.0
 11
36.57881671
 21
-9.480984702
 31
0.0
 11
36.519423353
 21
-9.4830805041
 31
0.0
 11
36.453020974
 21
-9.4847787208
 31
0.0
 11
36.3812085897
 21
-9.486038458
 31
0.0
 11
36.3057154932
 21
-9.4868293802
 31
0.0
 11
36.2283596122
 21
-9.4871324415
 31
0.0
  0
SPLINE
  5
2D4
100
AcDbEntity
  8
ASSI
100
AcDbSpline
 62
253
  6
CONTINUOUS
 70
0
 71
3
 72
18
 73
14
 74
12
 42
0.0000001
 43
0.0000001
 44
0.0000000001
 12
-0.4768081835
 22
-0.1503790444
 32
0.0
 13
-0.4999598993
 23
-0.0000026839
 33
0.0
 40
0.0
 40
0.0
 40
0.0
 40
0.0
 40
0.0124306396
 40
0.044505281
 40
0.095602586
 40
0.1647002536
 40
0.2504295571
 40
0.351083027
 40
0.4646538628
 40
0.5888773081
 40
0.7212927548
 40
0.8592429635
 40
1.0
 40
1.0
 40
1.0
 40
1.0
 10
36.7209095399
 20
10.7299038948
 30
0.0
 10
36.718933863
 20
10.7292807922
 30
0.0
 10
36.7113294922
 20
10.7298522053
 30
0.0
 10
36.6955685258
 20
10.7287807873
 30
0.0
 10
36.6701042729
 20
10.7288430884
 30
0.0
 10
36.6358257789
 20
10.7283505679
 30
0.0
 10
36.5932360602
 20
10.728113571
 30
0.0
 10
36.5432533031
 20
10.7278262049
 30
0.0
 10
36.4868487605
 20
10.7276067868
 30
0.0
 10
36.4251528205
 20
10.7274233159
 30
0.0
 10
36.3593932288
 20
10.7272914568
 30
0.0
 10
36.2908783571
 20
10.7272105049
 30
0.0
 10
36.2444308636
 20
10.7271924032
 30
0.0
 10
36.220973239
 20
10.7271922773
 30
0.0
 11
36.7209095399
 21
10.7299038948
 31
0.0
 11
36.714706804
 21
10.729516504
 31
0.0
 11
36.6986752452
 21
10.7291376584
 31
0.0
 11
36.6731312177
 21
10.7287748809
 31
0.0
 11
36.6385868219
 21
10.7284354961
 31
0.0
 11
36.5957267238
 21
10.7281262174
 31
0.0
 11
36.5454047655
 21
10.7278532279
 31
0.0
 11
36.4886243728
 21
10.7276219768
 31
0.0
 11
36.4265179069
 21
10.7274370817
 31
0.0
 11
36.3603156309
 21
10.7273022082
 31
0.0
 11
36.2913461073
 21
10.7272200676
 31
0.0
 11
36.220973239
 21
10.7271922773
 31
0.0
  0
SPLINE
  5
2D5
100
AcDbEntity
  8
ASSI
100
AcDbSpline
 62
253
  6
CONTINUOUS
 70
0
 71
3
 72
18
 73
14
 74
12
 42
0.0000001
 43
0.0000001
 44
0.0000000001
 12
-0.2684874777
 22
-0.1338218893
 32
0.0
 13
-0.299989706
 23
-0.000000142
 33
0.0
 40
0.0
 40
0.0
 40
0.0
 40
0.0
 40
0.01245772
 40
0.0445401068
 40
0.0956390483
 40
0.1647397093
 40
0.2504749128
 40
0.351138898
 40
0.4647205079
 40
0.5889521196
 40
0.7213713552
 40
0.8593253738
 40
1.0
 40
1.0
 40
1.0
 40
1.0
 10
36.5209400008
 20
10.9298962794
 30
0.0
 10
36.5198250869
 20
10.9293405742
 30
0.0
 10
36.51511955
 20
10.9298028139
 30
0.0
 10
36.5057871778
 20
10.9288564265
 30
0.0
 10
36.4904414881
 20
10.9288774935
 30
0.0
 10
36.4699020108
 20
10.9284260433
 30
0.0
 10
36.4443355015
 20
10.9281952495
 30
0.0
 10
36.4143459554
 20
10.9279246717
 30
0.0
 10
36.3804979739
 20
10.9277159729
 30
0.0
 10
36.3434770227
 20
10.9275422911
 30
0.0
 10
36.3040178873
 20
10.9274173825
 30
0.0
 10
36.262914625
 20
10.9273409024
 30
0.0
 10
36.2350527008
 20
10.9273239321
 30
0.0
 10
36.2209857209
 20
10.9273239254
 30
0.0
 11
36.5209400008
 21
10.9298962794
 31
0.0
 11
36.5172209531
 21
10.9295285075
 31
0.0
 11
36.5076032931
 21
10.9291687599
 31
0.0
 11
36.4922780056
 21
10.9288243767
 31
0.0
 11
36.4715510215
 21
10.9285022571
 31
0.0
 11
36.4458330174
 21
10.9282087867
 31
0.0
 11
36.4156359684
 21
10.9279498219
 31
0.0
 11
36.3815633603
 21
10.9277305391
 31
0.0
 11
36.3442955676
 21
10.927555307
 31
0.0
 11
36.3045713653
 21
10.9274275967
 31
0.0
 11
36.2631866526
 21
10.9273499571
 31
0.0
 11
36.2209857209
 21
10.9273239254
 31
0.0
  0
SPLINE
  5
2D6
100
AcDbEntity
  8
ASSI
100
AcDbSpline
 62
253
  6
CONTINUOUS
 70
0
 71
3
 72
17
 73
13
 74
11
 42
0.0000001
 43
0.0000001
 44
0.0000000001
 12
-0.195632535
 22
-0.4614382212
 32
0.0
 13
-0.5011957617
 23
-0.0003594721
 33
0.0
 40
0.0
 40
0.0
 40
0.0
 40
0.0
 40
0.0160133458
 40
0.0548771568
 40
0.1162691731
 40
0.1988278512
 40
0.3006096677
 40
0.4191867025
 40
0.551717899
 40
0.6950220123
 40
0.8456562072
 40
1.0
 40
1.0
 40
1.0
 40
1.0
 10
36.7282834598
 20
-9.4665699845
 30
0.0
 10
36.727239216
 20
-9.4690330411
 30
0.0
 10
36.7159415909
 20
-9.4701773449
 30
0.0
 10
36.6987088545
 20
-9.4738673109
 30
0.0
 10
36.6672218068
 20
-9.4760833675
 30
0.0
 10
36.6266925513
 20
-9.4789099419
 30
0.0
 10
36.5759757939
 20
-9.4811896461
 30
0.0
 10
36.5171094378
 20
-9.4832558384
 30
0.0
 10
36.4512193895
 20
-9.484905617
 30
0.0
 10
36.3799864623
 20
-9.4861414147
 30
0.0
 10
36.3050960016
 20
-9.4869160978
 30
0.0
 10
36.2541450971
 20
-9.4871139474
 30
0.0
 10
36.2283596122
 20
-9.4871324415
 30
0.0
 11
36.7282834598
 21
-9.4665699845
 31
0.0
 11
36.7209152601
 21
-9.4697517244
 31
0.0
 11
36.7016859698
 21
-9.4728568456
 31
0.0
 11
36.6710586441
 21
-9.4758105745
 31
0.0
 11
36.6297708107
 21
-9.4785417831
 31
0.0
 11
36.57881671
 21
-9.480984702
 31
0.0
 11
36.519423353
 21
-9.4830805041
 31
0.0
 11
36.453020974
 21
-9.4847787208
 31
0.0
 11
36.3812085897
 21
-9.486038458
 31
0.0
 11
36.3057154932
 21
-9.4868293802
 31
0.0
 11
36.2283596122
 21
-9.4871324415
 31
0.0
  0
SPLINE
  5
2D7
100
AcDbEntity
  8
ASSI
100
AcDbSpline
 62
253
  6
CONTINUOUS
 70
0
 71
3
 72
21
 73
17
 74
15
 42
0.0000001
 43
0.0000001
 44
0.0000000001
 12
0.3113269094
 22
1.402385911
 32
0.0
 13
0.0006885319
 23
1.4365271365
 33
0.0
 40
0.0
 40
0.0
 40
0.0
 40
0.0
 40
0.0116253613
 40
0.0346870886
 40
0.0689537638
 40
0.1140486773
 40
0.1694730336
 40
0.2346119018
 40
0.3087402368
 40
0.3910339711
 40
0.4805783092
 40
0.5763759237
 40
0.6773619052
 40
0.7824150232
 40
0.8903612899
 40
1.0
 40
1.0
 40
1.0
 40
1.0
 10
-7.3212343009
 20
-10.9233899658
 30
0.0
 10
-7.3200278717
 20
-10.9179555515
 30
0.0
 10
-7.319105613
 20
-10.9012765139
 30
0.0
 10
-7.3171610798
 20
-10.8683838654
 30
0.0
 10
-7.3156635156
 20
-10.8193237848
 30
0.0
 10
-7.3139777939
 20
-10.7548196214
 30
0.0
 10
-7.3124490619
 20
-10.6755041163
 30
0.0
 10
-7.3109847088
 20
-10.5822908778
 30
0.0
 10
-7.3096468846
 20
-10.4762057466
 30
0.0
 10
-7.3084389013
 20
-10.3584329076
 30
0.0
 10
-7.3073800535
 20
-10.2302818219
 30
0.0
 10
-7.3064816158
 20
-10.0931787611
 30
0.0
 10
-7.305754574
 20
-9.9486483069
 30
0.0
 10
-7.3052072614
 20
-9.7982997422
 30
0.0
 10
-7.3048460442
 20
-9.6438073137
 30
0.0
 10
-7.3047325425
 20
-9.5396184245
 30
0.0
 10
-7.3047073792
 20
-9.4871187638
 30
0.0
 11
-7.3212343009
 21
-10.9233899658
 31
0.0
 11
-7.3194033996
 21
-10.9067904847
 31
0.0
 11
-7.3176030416
 21
-10.8737106395
 31
0.0
 11
-7.3158531265
 21
-10.824516739
 31
0.0
 11
-7.3141733047
 21
-10.7597584481
 31
0.0
 11
-7.3125821985
 21
-10.6801557471
 31
0.0
 11
-7.3110975117
 21
-10.5865937636
 31
0.0
 11
-7.3097357797
 21
-10.4801150938
 31
0.0
 11
-7.3085121423
 21
-10.3619042306
 31
0.0
 11
-7.3074402034
 21
-10.2332758107
 31
0.0
 11
-7.3065318965
 21
-10.0956629196
 31
0.0
 11
-7.3057973158
 21
-9.95059566
 31
0.0
 11
-7.3052446121
 21
-9.799685
 31
0.0
 11
-7.3048799602
 21
-9.6446176695
 31
0.0
 11
-7.3047073792
 21
-9.4871187638
 31
0.0
  0
SPLINE
  5
2D8
100
AcDbEntity
  8
ASSI
100
AcDbSpline
 62
253
  6
CONTINUOUS
 70
0
 71
3
 72
11
 73
7
 74
5
 42
0.0000001
 43
0.0000001
 44
0.0000000001
 12
0.0002437994
 22
-20.1964756175
 32
0.0
 13
0.0145100747
 23
-20.1964704066
 33
0.0
 40
0.0
 40
0.0
 40
0.0
 40
0.0
 40
0.2500744177
 40
0.5001049865
 40
0.750083017
 40
1.0
 40
1.0
 40
1.0
 40
1.0
 10
36.7209095399
 20
10.7299038948
 30
0.0
 10
36.7209298625
 20
9.0463632681
 30
0.0
 10
36.7212676048
 20
5.6795772087
 30
0.0
 10
36.722665464
 20
0.6298995884
 30
0.0
 10
36.7249543936
 20
-4.4187178309
 30
0.0
 10
36.7270746884
 20
-7.7840896676
 30
0.0
 10
36.7282834598
 20
-9.4665699845
 30
0.0
 11
36.7209095399
 21
10.7299038948
 31
0.0
 11
36.7214162246
 21
5.6792820399
 31
0.0
 11
36.7228141711
 21
0.6295459464
 31
0.0
 11
36.725103244
 21
-4.419128733
 31
0.0
 11
36.7282834598
 21
-9.4665699845
 31
0.0
  0
SPLINE
  5
2D9
100
AcDbEntity
  8
ASSI
100
AcDbSpline
 62
253
  6
CONTINUOUS
 70
0
 71
3
 72
21
 73
17
 74
15
 42
0.0000001
 43
0.0000001
 44
0.0000000001
 12
0.0006885301
 22
-0.957887823
 32
0.0
 13
0.3025944495
 23
-0.9088378044
 33
0.0
 40
0.0
 40
0.0
 40
0.0
 40
0.0
 40
0.1095890288
 40
0.2175144953
 40
0.3225483467
 40
0.423516912
 40
0.519299397
 40
0.6088312783
 40
0.6911156636
 40
0.7652382519
 40
0.8303754916
 40
0.8858030898
 40
0.9309078341
 40
0.965194018
 40
0.9882927082
 40
1.0
 40
1.0
 40
1.0
 40
1.0
 10
36.7282834598
 20
-9.4665699845
 30
0.0
 10
36.7283086116
 20
-9.5015613165
 30
0.0
 10
36.7284220983
 20
-9.571012784
 30
0.0
 10
36.7287832726
 20
-9.6740006154
 30
0.0
 10
36.7293305617
 20
-9.7742351122
 30
0.0
 10
36.7300576074
 20
-9.8705911719
 30
0.0
 10
36.7309560396
 20
-9.9619958199
 30
0.0
 10
36.7320149307
 20
-10.0474326726
 30
0.0
 10
36.7332228632
 20
-10.1259505249
 30
0.0
 10
36.7345609928
 20
-10.1966771607
 30
0.0
 10
36.7360246196
 20
-10.2588203138
 30
0.0
 10
36.7375557738
 20
-10.3117042783
 30
0.0
 10
36.7392353186
 20
-10.3546976468
 30
0.0
 10
36.7407489873
 20
-10.3874405625
 30
0.0
 10
36.7426633341
 20
-10.4093230503
 30
0.0
 10
36.7436293766
 20
-10.4205279061
 30
0.0
 10
36.7448102304
 20
-10.4240745826
 30
0.0
 11
36.7282834598
 21
-9.4665699845
 31
0.0
 11
36.7284559845
 21
-9.571543866
 31
0.0
 11
36.728820619
 21
-9.6749237398
 31
0.0
 11
36.7293733044
 21
-9.775532895
 31
0.0
 11
36.7301078805
 21
-9.8722466896
 31
0.0
 11
36.7310161889
 21
-9.9639910932
 31
0.0
 11
36.7320881408
 21
-10.0497459146
 31
0.0
 11
36.7333118016
 21
-10.1285556465
 31
0.0
 11
36.7346735681
 21
-10.1995437293
 31
0.0
 11
36.7361582989
 21
-10.2619202464
 31
0.0
 11
36.7377494471
 21
-10.3149898337
 31
0.0
 11
36.7394293195
 21
-10.3581624602
 31
0.0
 11
36.7411792563
 21
-10.3909581326
 31
0.0
 11
36.7429796919
 21
-10.4130107182
 31
0.0
 11
36.7448102304
 21
-10.4240745826
 31
0.0
  0
SPLINE
  5
2DA
100
AcDbEntity
  8
ASSI
100
AcDbSpline
 62
253
  6
CONTINUOUS
 70
0
 71
3
 72
21
 73
17
 74
15
 42
0.0000001
 43
0.0000001
 44
0.0000000001
 12
0.3025944467
 22
0.9088378053
 32
0.0
 13
0.0006885301
 23
0.957887823
 33
0.0
 40
0.0
 40
0.0
 40
0.0
 40
0.0
 40
0.0117072917
 40
0.034805982
 40
0.0690921658
 40
0.1141969101
 40
0.1696245083
 40
0.2347617479
 40
0.3088843362
 40
0.3911687215
 40
0.4807006028
 40
0.5764830878
 40
0.6774516531
 40
0.7824855045
 40
0.890410971
 40
1.0
 40
1.0
 40
1.0
 40
1.0
 10
-7.8211580124
 20
-10.4240745826
 30
0.0
 10
-7.8199771586
 20
-10.4205279061
 30
0.0
 10
-7.819011116
 20
-10.4093230503
 30
0.0
 10
-7.8170967693
 20
-10.3874405626
 30
0.0
 10
-7.8155831006
 20
-10.3546976469
 30
0.0
 10
-7.8139035558
 20
-10.3117042784
 30
0.0
 10
-7.8123724016
 20
-10.258820314
 30
0.0
 10
-7.8109087748
 20
-10.1966771609
 30
0.0
 10
-7.8095706452
 20
-10.1259505251
 30
0.0
 10
-7.8083627126
 20
-10.0474326728
 30
0.0
 10
-7.8073038215
 20
-9.9619958201
 30
0.0
 10
-7.8064053894
 20
-9.870591172
 30
0.0
 10
-7.8056783437
 20
-9.7742351124
 30
0.0
 10
-7.8051310546
 20
-9.6740006156
 30
0.0
 10
-7.8047698802
 20
-9.5710127841
 30
0.0
 10
-7.8046563935
 20
-9.5015613166
 30
0.0
 10
-7.8046312417
 20
-9.4665699845
 30
0.0
 11
-7.8211580124
 21
-10.4240745826
 31
0.0
 11
-7.8193274738
 21
-10.4130107182
 31
0.0
 11
-7.8175270383
 21
-10.3909581327
 31
0.0
 11
-7.8157771015
 21
-10.3581624603
 31
0.0
 11
-7.8140972291
 21
-10.3149898338
 31
0.0
 11
-7.8125060808
 21
-10.2619202465
 31
0.0
 11
-7.8110213501
 21
-10.1995437295
 31
0.0
 11
-7.8096595835
 21
-10.1285556467
 31
0.0
 11
-7.8084359228
 21
-10.0497459148
 31
0.0
 11
-7.8073639708
 21
-9.9639910933
 31
0.0
 11
-7.8064556625
 21
-9.8722466898
 31
0.0
 11
-7.8057210864
 21
-9.7755328952
 31
0.0
 11
-7.805168401
 21
-9.67492374
 31
0.0
 11
-7.8048037664
 21
-9.5715438662
 31
0.0
 11
-7.8046312417
 21
-9.4665699845
 31
0.0
  0
SPLINE
  5
2DB
100
AcDbEntity
  8
ASSI
100
AcDbSpline
 62
253
  6
CONTINUOUS
 70
0
 71
3
 72
11
 73
7
 74
5
 42
0.0000001
 43
0.0000001
 44
0.0000000001
 12
0.0145100747
 22
20.1964704066
 32
0.0
 13
0.0002437994
 23
20.1964756175
 33
0.0
 40
0.0
 40
0.0
 40
0.0
 40
0.0
 40
0.249916983
 40
0.4998950135
 40
0.7499255823
 40
1.0
 40
1.0
 40
1.0
 40
1.0
 10
-7.8046312417
 20
-9.4665699845
 30
0.0
 10
-7.8034224704
 20
-7.7840896676
 30
0.0
 10
-7.8013021756
 20
-4.4187178309
 30
0.0
 10
-7.799013246
 20
0.6298995884
 30
0.0
 10
-7.7976153868
 20
5.6795772087
 30
0.0
 10
-7.7972776445
 20
9.0463632681
 30
0.0
 10
-7.7972573218
 20
10.7299038948
 30
0.0
 11
-7.8046312417
 21
-9.4665699845
 31
0.0
 11
-7.8014510259
 21
-4.419128733
 31
0.0
 11
-7.7991619531
 21
0.6295459464
 31
0.0
 11
-7.7977640065
 21
5.6792820399
 31
0.0
 11
-7.7972573218
 21
10.7299038948
 31
0.0
  0
SPLINE
  5
2DC
100
AcDbEntity
  8
ASSI
100
AcDbSpline
 62
253
  6
CONTINUOUS
 70
0
 71
3
 72
11
 73
7
 74
5
 42
0.0000001
 43
0.0000001
 44
0.0000000001
 12
0.0002454386
 22
-20.2143127839
 32
0.0
 13
0.0145083669
 23
-20.2143075788
 33
0.0
 40
0.0
 40
0.0
 40
0.0
 40
0.0
 40
0.2500749619
 40
0.5001055662
 40
0.7500836323
 40
1.0
 40
1.0
 40
1.0
 40
1.0
 10
36.220973239
 20
10.7271922825
 30
0.0
 10
36.2209936984
 20
9.0421611162
 30
0.0
 10
36.221349921
 20
5.6723976671
 30
0.0
 10
36.2227405251
 20
0.6182561148
 30
0.0
 10
36.2250313454
 20
-4.4348164872
 30
0.0
 10
36.2271509775
 20
-7.8031566552
 30
0.0
 10
36.2283596036
 20
-9.4871187636
 30
0.0
 11
36.220973239
 21
10.7271922825
 31
0.0
 11
36.2214927127
 21
5.6720988099
 31
0.0
 11
36.2228907567
 21
0.6179021607
 31
0.0
 11
36.2251797175
 21
-4.4352321379
 31
0.0
 11
36.2283596036
 21
-9.4871187636
 31
0.0
  0
SPLINE
  5
2DD
100
AcDbEntity
  8
ASSI
100
AcDbSpline
 62
253
  6
CONTINUOUS
 70
0
 71
3
 72
11
 73
7
 74
5
 42
0.0000001
 43
0.0000001
 44
0.0000000001
 12
0.0145083669
 22
20.214307579
 32
0.0
 13
0.0002454386
 23
20.214312784
 33
0.0
 40
0.0
 40
0.0
 40
0.0
 40
0.0
 40
0.2499163677
 40
0.4998944338
 40
0.7499250381
 40
1.0
 40
1.0
 40
1.0
 40
1.0
 10
-7.3047073856
 20
-9.4871187638
 30
0.0
 10
-7.3034987594
 20
-7.8031566553
 30
0.0
 10
-7.3013791274
 20
-4.4348164873
 30
0.0
 10
-7.2990883071
 20
0.6182561148
 30
0.0
 10
-7.297697703
 20
5.6723976671
 30
0.0
 10
-7.2973414803
 20
9.0421611162
 30
0.0
 10
-7.297321021
 20
10.7271922825
 30
0.0
 11
-7.3047073856
 21
-9.4871187638
 31
0.0
 11
-7.3015274995
 21
-4.4352321379
 31
0.0
 11
-7.2992385387
 21
0.6179021607
 31
0.0
 11
-7.2978404947
 21
5.6720988099
 31
0.0
 11
-7.297321021
 21
10.7271922825
 31
0.0
  0
SPLINE
  5
2DE
100
AcDbEntity
  8
ASSI
100
AcDbSpline
 62
253
  6
CONTINUOUS
 70
0
 71
3
 72
18
 73
14
 74
12
 42
0.0000001
 43
0.0000001
 44
0.0000000001
 12
-0.299989706
 22
0.000000142
 32
0.0
 13
-0.2684874758
 23
0.133821893
 33
0.0
 40
0.0
 40
0.0
 40
0.0
 40
0.0
 40
0.1406746255
 40
0.2786286441
 40
0.4110478798
 40
0.5352794916
 40
0.6488611016
 40
0.7495250868
 40
0.8352602903
 40
0.9043609514
 40
0.955459893
 40
0.9875422799
 40
1.0
 40
1.0
 40
1.0
 40
1.0
 10
-7.2973335029
 20
10.9273239254
 30
0.0
 10
-7.3114004827
 20
10.9273239321
 30
0.0
 10
-7.3392624068
 20
10.9273409024
 30
0.0
 10
-7.3803656691
 20
10.9274173825
 30
0.0
 10
-7.4198248045
 20
10.9275422911
 30
0.0
 10
-7.4568457557
 20
10.9277159729
 30
0.0
 10
-7.4906937372
 20
10.9279246717
 30
0.0
 10
-7.5206832833
 20
10.9281952495
 30
0.0
 10
-7.5462497927
 20
10.9284260433
 30
0.0
 10
-7.56678927
 20
10.9288774936
 30
0.0
 10
-7.5821349597
 20
10.9288564265
 30
0.0
 10
-7.5914673319
 20
10.929802814
 30
0.0
 10
-7.5961728689
 20
10.9293405742
 30
0.0
 10
-7.5972877828
 20
10.9298962794
 30
0.0
 11
-7.2973335029
 21
10.9273239254
 31
0.0
 11
-7.3395344344
 21
10.9273499571
 31
0.0
 11
-7.3809191471
 21
10.9274275967
 31
0.0
 11
-7.4206433494
 21
10.927555307
 31
0.0
 11
-7.4579111421
 21
10.9277305391
 31
0.0
 11
-7.4919837503
 21
10.9279498219
 31
0.0
 11
-7.5221807992
 21
10.9282087867
 31
0.0
 11
-7.5478988034
 21
10.9285022571
 31
0.0
 11
-7.5686257875
 21
10.9288243767
 31
0.0
 11
-7.583951075
 21
10.9291687599
 31
0.0
 11
-7.593568735
 21
10.9295285075
 31
0.0
 11
-7.5972877828
 21
10.9298962794
 31
0.0
  0
SPLINE
  5
2DF
100
AcDbEntity
  8
ASSI
100
AcDbSpline
 62
253
  6
CONTINUOUS
 70
0
 71
3
 72
17
 73
13
 74
11
 42
0.0000001
 43
0.0000001
 44
0.0000000001
 12
0.1956282812
 22
-0.461440029
 32
0.0
 13
0.5011957657
 23
-0.0003594732
 33
0.0
 40
0.0
 40
0.0
 40
0.0
 40
0.0
 40
0.0160132903
 40
0.0548770558
 40
0.1162690414
 40
0.1988277038
 40
0.3006095192
 40
0.4191865661
 40
0.551717786
 40
0.6950219317
 40
0.8456561653
 40
1.0
 40
1.0
 40
1.0
 40
1.0
 10
-7.8046312417
 20
-9.4665699845
 30
0.0
 10
-7.8035870243
 20
-9.4690330422
 30
0.0
 10
-7.792289383
 20
-9.470177349
 30
0.0
 10
-7.7750567001
 20
-9.4738673145
 30
0.0
 10
-7.7435696501
 20
-9.476083372
 30
0.0
 10
-7.7030404098
 20
-9.4789099479
 30
0.0
 10
-7.65232365
 20
-9.4811896533
 30
0.0
 10
-7.5934572887
 20
-9.4832558469
 30
0.0
 10
-7.5275672282
 20
-9.4849056266
 30
0.0
 10
-7.4563342848
 20
-9.4861414251
 30
0.0
 10
-7.3814438046
 20
-9.4869161088
 30
0.0
 10
-7.3304928863
 20
-9.4871139586
 30
0.0
 10
-7.3047073942
 20
-9.4871324528
 30
0.0
 11
-7.8046312417
 21
-9.4665699845
 31
0.0
 11
-7.7972630727
 21
-9.4697517256
 31
0.0
 11
-7.7780338057
 21
-9.4728568482
 31
0.0
 11
-7.7474064954
 21
-9.4758105785
 31
0.0
 11
-7.7061186695
 21
-9.4785417886
 31
0.0
 11
-7.655164569
 21
-9.480984709
 31
0.0
 11
-7.5957712056
 21
-9.4830805124
 31
0.0
 11
-7.5293688144
 21
-9.4847787302
 31
0.0
 11
-7.4575564132
 21
-9.4860384683
 31
0.0
 11
-7.3820632968
 21
-9.4868293911
 31
0.0
 11
-7.3047073942
 21
-9.4871324528
 31
0.0
  0
SPLINE
  5
2E0
100
AcDbEntity
  8
ASSI
100
AcDbSpline
 62
253
  6
CONTINUOUS
 70
0
 71
3
 72
18
 73
14
 74
12
 42
0.0000001
 43
0.0000001
 44
0.0000000001
 12
-0.4999598993
 22
0.0000026839
 32
0.0
 13
-0.4768081841
 23
0.1503790427
 33
0.0
 40
0.0
 40
0.0
 40
0.0
 40
0.0
 40
0.1407570357
 40
0.2787072446
 40
0.4111226913
 40
0.5353461367
 40
0.6489169725
 40
0.7495704425
 40
0.8352997461
 40
0.9043974138
 40
0.9554947188
 40
0.9875693603
 40
1.0
 40
1.0
 40
1.0
 40
1.0
 10
-7.297321021
 20
10.7271922773
 30
0.0
 10
-7.3207786454
 20
10.7271924032
 30
0.0
 10
-7.3672261388
 20
10.7272105049
 30
0.0
 10
-7.4357410104
 20
10.7272914568
 30
0.0
 10
-7.5015006021
 20
10.7274233159
 30
0.0
 10
-7.5631965422
 20
10.7276067868
 30
0.0
 10
-7.6196010848
 20
10.7278262049
 30
0.0
 10
-7.669583842
 20
10.728113571
 30
0.0
 10
-7.7121735607
 20
10.7283505679
 30
0.0
 10
-7.7464520547
 20
10.7288430884
 30
0.0
 10
-7.7719163077
 20
10.7287807873
 30
0.0
 10
-7.7876772741
 20
10.7298522053
 30
0.0
 10
-7.7952816449
 20
10.7292807922
 30
0.0
 10
-7.7972573218
 20
10.7299038948
 30
0.0
 11
-7.297321021
 21
10.7271922773
 31
0.0
 11
-7.3676938889
 21
10.7272200676
 31
0.0
 11
-7.4366634125
 21
10.7273022082
 31
0.0
 11
-7.5028656885
 21
10.7274370817
 31
0.0
 11
-7.5649721545
 21
10.7276219768
 31
0.0
 11
-7.6217525473
 21
10.7278532279
 31
0.0
 11
-7.6720745055
 21
10.7281262174
 31
0.0
 11
-7.7149346037
 21
10.7284354961
 31
0.0
 11
-7.7494789995
 21
10.7287748809
 31
0.0
 11
-7.775023027
 21
10.7291376584
 31
0.0
 11
-7.7910545859
 21
10.729516504
 31
0.0
 11
-7.7972573218
 21
10.7299038948
 31
0.0
  0
SPLINE
  5
2E1
100
AcDbEntity
  8
ASSI
100
AcDbSpline
 62
253
  6
CONTINUOUS
 70
0
 71
3
 72
21
 73
17
 74
15
 42
0.0000001
 43
0.0000001
 44
0.0000000001
 12
0.0006885319
 22
-1.4365271366
 32
0.0
 13
0.3113269084
 23
-1.4023859114
 33
0.0
 40
0.0
 40
0.0
 40
0.0
 40
0.0
 40
0.1096387099
 40
0.2175849767
 40
0.3226380947
 40
0.4236240761
 40
0.5194216906
 40
0.6089660287
 40
0.6912597631
 40
0.765388098
 40
0.8305269663
 40
0.8859513226
 40
0.9310462361
 40
0.9653129114
 40
0.9883746386
 40
1.0
 40
1.0
 40
1.0
 40
1.0
 10
36.2283595973
 20
-9.4871187636
 30
0.0
 10
36.2283847605
 20
-9.5396184243
 30
0.0
 10
36.2284982622
 20
-9.6438073135
 30
0.0
 10
36.2288594794
 20
-9.7982997419
 30
0.0
 10
36.229406792
 20
-9.9486483066
 30
0.0
 10
36.2301338338
 20
-10.0931787608
 30
0.0
 10
36.2310322716
 20
-10.2302818216
 30
0.0
 10
36.2320911193
 20
-10.3584329073
 30
0.0
 10
36.2332991026
 20
-10.4762057464
 30
0.0
 10
36.2346369268
 20
-10.5822908775
 30
0.0
 10
36.23610128
 20
-10.6755041161
 30
0.0
 10
36.2376300119
 20
-10.7548196213
 30
0.0
 10
36.2393157336
 20
-10.8193237846
 30
0.0
 10
36.2408132979
 20
-10.8683838653
 30
0.0
 10
36.2427578311
 20
-10.9012765138
 30
0.0
 10
36.2436800897
 20
-10.9179555515
 30
0.0
 10
36.244886519
 20
-10.9233899658
 30
0.0
 11
36.2283595973
 21
-9.4871187636
 31
0.0
 11
36.2285321782
 21
-9.6446176692
 31
0.0
 11
36.2288968301
 21
-9.7996849997
 31
0.0
 11
36.2294495339
 21
-9.9505956597
 31
0.0
 11
36.2301841145
 21
-10.0956629193
 31
0.0
 11
36.2310924214
 21
-10.2332758104
 31
0.0
 11
36.2321643603
 21
-10.3619042303
 31
0.0
 11
36.2333879977
 21
-10.4801150935
 31
0.0
 11
36.2347497297
 21
-10.5865937634
 31
0.0
 11
36.2362344166
 21
-10.6801557469
 31
0.0
 11
36.2378255227
 21
-10.759758448
 31
0.0
 11
36.2395053445
 21
-10.8245167388
 31
0.0
 11
36.2412552596
 21
-10.8737106394
 31
0.0
 11
36.2430556176
 21
-10.9067904846
 31
0.0
 11
36.244886519
 21
-10.9233899658
 31
0.0
  0
SPLINE
  5
2E2
100
AcDbEntity
  8
RACCORDO
100
AcDbSpline
 62
253
  6
CONTINUOUS
 70
0
 71
3
 72
15
 73
11
 74
9
 42
0.0000001
 43
0.0000001
 44
0.0000000001
 12
-0.0017453778
 22
0.2000612775
 32
0.0
 13
0.2000612729
 23
0.0017459083
 33
0.0
 40
0.0
 40
0.0
 40
0.0
 40
0.0
 40
0.1950020658
 40
0.3825082119
 40
0.5553167043
 40
0.7067913013
 40
0.8311172079
 40
0.9235272361
 40
0.9804964655
 40
1.0
 40
1.0
 40
1.0
 40
1.0
 10
-24.2916564808
 20
10.7299038948
 30
0.0
 10
-24.2917699315
 20
10.7429080156
 30
0.0
 10
-24.2919455756
 20
10.768411153
 30
0.0
 10
-24.2920931197
 20
10.8054687205
 30
0.0
 10
-24.2920268829
 20
10.8395228975
 30
0.0
 10
-24.2920344923
 20
10.8696744672
 30
0.0
 10
-24.2913017111
 20
10.8935815171
 30
0.0
 10
-24.291977156
 20
10.9133760273
 30
0.0
 10
-24.2895856346
 20
10.9218229574
 30
0.0
 10
-24.2912119406
 20
10.9298849289
 30
0.0
 10
-24.2899113066
 20
10.9298962794
 30
0.0
 11
-24.2916564808
 21
10.7299038948
 31
0.0
 11
-24.2919297818
 21
10.7689167845
 31
0.0
 11
-24.2920584705
 21
10.8064307105
 31
0.0
 11
-24.2920376022
 21
10.8410043076
 31
0.0
 11
-24.2918679789
 21
10.8713091875
 31
0.0
 11
-24.2915561182
 21
10.8961809787
 31
0.0
 11
-24.2911140025
 21
10.9146640635
 31
0.0
 11
-24.2905586189
 21
10.9260482948
 31
0.0
 11
-24.2899113066
 21
10.9298962794
 31
0.0
  0
LINE
  5
2E3
100
AcDbEntity
  8
RACCORDO
100
AcDbLine
 62
253
  6
CONTINUOUS
 10
-24.2916564808
 20
10.7299038948
 11
-24.7829285161
 21
10.7271922773
  0
SPLINE
  5
2E4
100
AcDbEntity
  8
RACCORDO
100
AcDbSpline
 62
253
  6
CONTINUOUS
 70
0
 71
3
 72
17
 73
13
 74
11
 42
0.0000001
 43
0.0000001
 44
0.0000000001
 12
-0.0261499573
 22
-0.4991229354
 32
0.0
 13
0.4991225191
 23
-0.0261579028
 33
0.0
 40
0.0
 40
0.0
 40
0.0
 40
0.0
 40
0.1563933181
 40
0.3089189061
 40
0.4538267206
 40
0.5875542932
 40
0.7068145503
 40
0.8086770505
 40
0.8906409733
 40
0.9506992977
 40
0.9873995059
 40
1.0
 40
1.0
 40
1.0
 40
1.0
 10
-22.9223868367
 20
-10.4240745826
 30
0.0
 10
-22.9237500629
 20
-10.4500944132
 30
0.0
 10
-22.9263726264
 20
-10.5014934014
 30
0.0
 10
-22.9300192319
 20
-10.5770180128
 30
0.0
 10
-22.9332584805
 20
-10.6487645976
 30
0.0
 10
-22.9360596334
 20
-10.7150385285
 30
0.0
 10
-22.9382033961
 20
-10.7739858337
 30
0.0
 10
-22.9401040989
 20
-10.8248354839
 30
0.0
 10
-22.9404246598
 20
-10.8644307649
 30
0.0
 10
-22.9424539123
 20
-10.8966026249
 30
0.0
 10
-22.9393476241
 20
-10.9105125812
 30
0.0
 10
-22.9419250084
 20
-10.9232794824
 30
0.0
 10
-22.9398286116
 20
-10.9233893499
 30
0.0
 11
-22.9223868367
 21
-10.4240745826
 31
0.0
 11
-22.9263694958
 21
-10.502139608
 31
0.0
 11
-22.9300395836
 21
-10.5782846436
 31
0.0
 11
-22.9333068352
 21
-10.6506369214
 31
0.0
 11
-22.9360908934
 21
-10.717416955
 31
0.0
 11
-22.938323285
 21
-10.7769823064
 31
0.0
 11
-22.9399491048
 21
-10.8278679805
 31
0.0
 11
-22.9409283663
 21
-10.868822457
 31
0.0
 11
-22.9412369846
 21
-10.8988384707
 31
0.0
 11
-22.9408673695
 21
-10.9171777853
 31
0.0
 11
-22.9398286116
 21
-10.9233893499
 31
0.0
  0
SPLINE
  5
2E5
100
AcDbEntity
  8
ASSI
100
AcDbSpline
 62
253
  6
CONTINUOUS
 70
0
 71
3
 72
15
 73
11
 74
9
 42
0.0000001
 43
0.0000001
 44
0.0000000001
 12
-0.0017453778
 22
0.2000612775
 32
0.0
 13
0.2000612729
 23
0.0017459083
 33
0.0
 40
0.0
 40
0.0
 40
0.0
 40
0.0
 40
0.1950020658
 40
0.3825082119
 40
0.5553167043
 40
0.7067913013
 40
0.8311172079
 40
0.9235272361
 40
0.9804964655
 40
1.0
 40
1.0
 40
1.0
 40
1.0
 10
-24.2916564808
 20
10.7299038948
 30
0.0
 10
-24.2917699315
 20
10.7429080156
 30
0.0
 10
-24.2919455756
 20
10.768411153
 30
0.0
 10
-24.2920931197
 20
10.8054687205
 30
0.0
 10
-24.2920268829
 20
10.8395228975
 30
0.0
 10
-24.2920344923
 20
10.8696744672
 30
0.0
 10
-24.2913017111
 20
10.8935815171
 30
0.0
 10
-24.291977156
 20
10.9133760273
 30
0.0
 10
-24.2895856346
 20
10.9218229574
 30
0.0
 10
-24.2912119406
 20
10.9298849289
 30
0.0
 10
-24.2899113066
 20
10.9298962794
 30
0.0
 11
-24.2916564808
 21
10.7299038948
 31
0.0
 11
-24.2919297818
 21
10.7689167845
 31
0.0
 11
-24.2920584705
 21
10.8064307105
 31
0.0
 11
-24.2920376022
 21
10.8410043076
 31
0.0
 11
-24.2918679789
 21
10.8713091875
 31
0.0
 11
-24.2915561182
 21
10.8961809787
 31
0.0
 11
-24.2911140025
 21
10.9146640635
 31
0.0
 11
-24.2905586189
 21
10.9260482948
 31
0.0
 11
-24.2899113066
 21
10.9298962794
 31
0.0
  0
LINE
  5
2E6
100
AcDbEntity
  8
ASSI
100
AcDbLine
 62
253
  6
CONTINUOUS
 10
-24.2916564808
 20
10.7299038948
 11
-24.7829285161
 21
10.7271922773
  0
SPLINE
  5
2E7
100
AcDbEntity
  8
ASSI
100
AcDbSpline
 62
253
  6
CONTINUOUS
 70
0
 71
3
 72
17
 73
13
 74
11
 42
0.0000001
 43
0.0000001
 44
0.0000000001
 12
-0.0261499573
 22
-0.4991229354
 32
0.0
 13
0.4991225191
 23
-0.0261579028
 33
0.0
 40
0.0
 40
0.0
 40
0.0
 40
0.0
 40
0.1563933181
 40
0.3089189061
 40
0.4538267206
 40
0.5875542932
 40
0.7068145503
 40
0.8086770505
 40
0.8906409733
 40
0.9506992977
 40
0.9873995059
 40
1.0
 40
1.0
 40
1.0
 40
1.0
 10
-22.9223868367
 20
-10.4240745826
 30
0.0
 10
-22.9237500629
 20
-10.4500944132
 30
0.0
 10
-22.9263726264
 20
-10.5014934014
 30
0.0
 10
-22.9300192319
 20
-10.5770180128
 30
0.0
 10
-22.9332584805
 20
-10.6487645976
 30
0.0
 10
-22.9360596334
 20
-10.7150385285
 30
0.0
 10
-22.9382033961
 20
-10.7739858337
 30
0.0
 10
-22.9401040989
 20
-10.8248354839
 30
0.0
 10
-22.9404246598
 20
-10.8644307649
 30
0.0
 10
-22.9424539123
 20
-10.8966026249
 30
0.0
 10
-22.9393476241
 20
-10.9105125812
 30
0.0
 10
-22.9419250084
 20
-10.9232794824
 30
0.0
 10
-22.9398286116
 20
-10.9233893499
 30
0.0
 11
-22.9223868367
 21
-10.4240745826
 31
0.0
 11
-22.9263694958
 21
-10.502139608
 31
0.0
 11
-22.9300395836
 21
-10.5782846436
 31
0.0
 11
-22.9333068352
 21
-10.6506369214
 31
0.0
 11
-22.9360908934
 21
-10.717416955
 31
0.0
 11
-22.938323285
 21
-10.7769823064
 31
0.0
 11
-22.9399491048
 21
-10.8278679805
 31
0.0
 11
-22.9409283663
 21
-10.868822457
 31
0.0
 11
-22.9412369846
 21
-10.8988384707
 31
0.0
 11
-22.9408673695
 21
-10.9171777853
 31
0.0
 11
-22.9398286116
 21
-10.9233893499
 31
0.0
  0
ELLIPSE
  5
2E8
100
AcDbEntity
  8
RACCORDO
100
AcDbEllipse
 62
7
  6
CONTINUOUS
 10
10.4963560552
 20
-11.0573844536
 30
0.0
 11
0.2
 21
-0.0
 31
0.0
 40
0.0524077793
 41
0.5235987756
 42
1.5707963268
  0
ELLIPSE
  5
2E9
100
AcDbEntity
  8
RACCORDO
100
AcDbEllipse
 62
7
  6
CONTINUOUS
 10
7.1272961629
 20
-11.0573844536
 30
0.0
 11
0.2
 21
0.0
 31
0.0
 40
0.0524077793
 41
1.5707963268
 42
2.617993878
  0
ELLIPSE
  5
2EA
100
AcDbEntity
  8
RACCORDO
100
AcDbEllipse
 62
7
  6
CONTINUOUS
 10
21.7963560552
 20
-11.0573844536
 30
0.0
 11
0.2
 21
0.0
 31
0.0
 40
0.0524077793
 41
0.5235987756
 42
1.5707963268
  0
ELLIPSE
  5
2EB
100
AcDbEntity
  8
RACCORDO
100
AcDbEllipse
 62
7
  6
CONTINUOUS
 10
18.4272961629
 20
-11.0573844536
 30
0.0
 11
0.2
 21
0.0
 31
0.0
 40
0.0524077793
 41
1.5707963268
 42
2.617993878
  0
ELLIPSE
  5
2EC
100
AcDbEntity
  8
RACCORDO
100
AcDbEllipse
 62
7
  6
CONTINUOUS
 10
-0.7036439448
 20
-11.0573844536
 30
0.0
 11
0.2
 21
0.0
 31
0.0
 40
0.0524077793
 41
0.5235987756
 42
1.5707963268
  0
ELLIPSE
  5
2ED
100
AcDbEntity
  8
RACCORDO
100
AcDbEllipse
 62
7
  6
CONTINUOUS
 10
-4.0727038371
 20
-11.0573844536
 30
0.0
 11
0.2
 21
0.0
 31
0.0
 40
0.0524077793
 41
1.5707963268
 42
2.617993878
  0
ELLIPSE
  5
2EE
100
AcDbEntity
  8
RACCORDO
100
AcDbEllipse
 62
7
  6
CONTINUOUS
 10
29.6272961629
 20
-11.0573844536
 30
0.0
 11
0.2
 21
0.0
 31
0.0
 40
0.0524077793
 41
1.5707963268
 42
2.617993878
  0
ELLIPSE
  5
2EF
100
AcDbEntity
  8
RACCORDO
100
AcDbEllipse
 62
7
  6
CONTINUOUS
 10
32.9963560552
 20
-11.0573844536
 30
0.0
 11
0.2
 21
-0.0
 31
0.0
 40
0.0524077793
 41
0.5235987756
 42
1.5707963268
  0
ELLIPSE
  5
2F0
100
AcDbEntity
  8
RACCORDO
100
AcDbEllipse
 62
7
  6
CONTINUOUS
 10
36.6117956434
 20
10.7753282564
 30
0.0
 11
0.1789222233
 21
0.0894542984
 31
0.0
 40
0.9998096356
 41
-0.4635410001
 42
1.1071030277
  0
ELLIPSE
  5
2F1
100
AcDbEntity
  8
RACCORDO
100
AcDbEllipse
 62
7
  6
CONTINUOUS
 10
-7.6881434254
 20
10.7753282564
 30
0.0
 11
0.1789222233
 21
-0.0894542985
 31
0.0
 40
0.9998096356
 41
2.034489626
 42
3.6051336537
  0
ELLIPSE
  5
2F2
100
AcDbEntity
  8
RACCORDO
100
AcDbEllipse
 62
7
  6
CONTINUOUS
 10
36.2986764029
 20
-10.5855758722
 30
0.0
 11
0.498078285
 21
0.0448076117
 31
0.0
 40
0.9965957691
 41
-1.6608206152
 42
-0.0909376769
  0
ELLIPSE
  5
2F3
100
AcDbEntity
  8
RACCORDO
100
AcDbEllipse
 62
7
  6
CONTINUOUS
 10
-7.3750241848
 20
-10.5855758722
 30
0.0
 11
0.498078285
 21
-0.0448076117
 31
0.0
 40
0.9965957691
 41
-3.0506549766
 42
-1.4807720384
  0
ELLIPSE
  5
2F4
100
AcDbEntity
  8
ASSI
100
AcDbEllipse
 62
7
  6
CONTINUOUS
 10
10.4963560552
 20
-11.0573844536
 30
0.0
 11
0.2
 21
-0.0
 31
0.0
 40
0.0524077793
 41
0.5235987756
 42
1.5707963268
  0
ELLIPSE
  5
2F5
100
AcDbEntity
  8
ASSI
100
AcDbEllipse
 62
7
  6
CONTINUOUS
 10
7.1272961629
 20
-11.0573844536
 30
0.0
 11
0.2
 21
0.0
 31
0.0
 40
0.0524077793
 41
1.5707963268
 42
2.617993878
  0
ELLIPSE
  5
2F6
100
AcDbEntity
  8
ASSI
100
AcDbEllipse
 62
7
  6
CONTINUOUS
 10
21.7963560552
 20
-11.0573844536
 30
0.0
 11
0.2
 21
0.0
 31
0.0
 40
0.0524077793
 41
0.5235987756
 42
1.5707963268
  0
ELLIPSE
  5
2F7
100
AcDbEntity
  8
ASSI
100
AcDbEllipse
 62
7
  6
CONTINUOUS
 10
18.4272961629
 20
-11.0573844536
 30
0.0
 11
0.2
 21
0.0
 31
0.0
 40
0.0524077793
 41
1.5707963268
 42
2.617993878
  0
ELLIPSE
  5
2F8
100
AcDbEntity
  8
ASSI
100
AcDbEllipse
 62
7
  6
CONTINUOUS
 10
-0.7036439448
 20
-11.0573844536
 30
0.0
 11
0.2
 21
0.0
 31
0.0
 40
0.0524077793
 41
0.5235987756
 42
1.5707963268
  0
ELLIPSE
  5
2F9
100
AcDbEntity
  8
ASSI
100
AcDbEllipse
 62
7
  6
CONTINUOUS
 10
-4.0727038371
 20
-11.0573844536
 30
0.0
 11
0.2
 21
0.0
 31
0.0
 40
0.0524077793
 41
1.5707963268
 42
2.617993878
  0
ELLIPSE
  5
2FA
100
AcDbEntity
  8
ASSI
100
AcDbEllipse
 62
7
  6
CONTINUOUS
 10
29.6272961629
 20
-11.0573844536
 30
0.0
 11
0.2
 21
0.0
 31
0.0
 40
0.0524077793
 41
1.5707963268
 42
2.617993878
  0
ELLIPSE
  5
2FB
100
AcDbEntity
  8
ASSI
100
AcDbEllipse
 62
7
  6
CONTINUOUS
 10
32.9963560552
 20
-11.0573844536
 30
0.0
 11
0.2
 21
-0.0
 31
0.0
 40
0.0524077793
 41
0.5235987756
 42
1.5707963268
  0
ELLIPSE
  5
2FC
100
AcDbEntity
  8
ASSI
100
AcDbEllipse
 62
7
  6
CONTINUOUS
 10
36.6117956434
 20
10.7753282564
 30
0.0
 11
0.1789222233
 21
0.0894542984
 31
0.0
 40
0.9998096356
 41
-0.4635410001
 42
1.1071030277
  0
ELLIPSE
  5
2FD
100
AcDbEntity
  8
ASSI
100
AcDbEllipse
 62
7
  6
CONTINUOUS
 10
-7.6881434254
 20
10.7753282564
 30
0.0
 11
0.1789222233
 21
-0.0894542985
 31
0.0
 40
0.9998096356
 41
2.034489626
 42
3.6051336537
  0
ELLIPSE
  5
2FE
100
AcDbEntity
  8
ASSI
100
AcDbEllipse
 62
7
  6
CONTINUOUS
 10
36.2986764029
 20
-10.5855758722
 30
0.0
 11
0.498078285
 21
0.0448076117
 31
0.0
 40
0.9965957691
 41
-1.6608206152
 42
-0.0909376769
  0
ELLIPSE
  5
2FF
100
AcDbEntity
  8
ASSI
100
AcDbEllipse
 62
7
  6
CONTINUOUS
 10
-7.3750241848
 20
-10.5855758722
 30
0.0
 11
0.498078285
 21
-0.0448076117
 31
0.0
 40
0.9965957691
 41
-3.0506549766
 42
-1.4807720384
  0
ENDSEC
  0
SECTION
  2
OBJECTS
  0
DICTIONARY
  5
C
100
AcDbDictionary
280
0
281
1
  3
ACAD_GROUP
350
D
  3
ACAD_MLINESTYLE
350
17
  3
ACAD_LAYOUT
350
1A
  3
ACAD_PLOTSETTINGS
350
19
  3
ACAD_PLOTSTYLENAME
350
E
  0
DICTIONARY
  5
D
102
{ACAD_REACTORS
330
C
102
}
100
AcDbDictionary
280
0
281
1
  0
ACDBDICTIONARYWDFLT
  5
E
102
{ACAD_REACTORS
330
C
102
}
100
AcDbDictionary
281
1
  3
Normal
350
F
100
AcDbDictionaryWithDefault
340
F
  0
DICTIONARY
  5
17
102
{ACAD_REACTORS
330
C
102
}
100
AcDbDictionary
280
0
281
1
  3
Standard
350
18
  0
DICTIONARY
  5
19
102
{ACAD_REACTORS
330
C
102
}
100
AcDbDictionary
281
1
  0
DICTIONARY
  5
1A
102
{ACAD_REACTORS
330
C
102
}
100
AcDbDictionary
281
1
  3
Model
350
300
  3
Layout1
350
301
  0
ACDBPLACEHOLDER
  5
F
102
{ACAD_REACTORS
330
E
102
}
  0
MLINESTYLE
  5
18
102
{ACAD_REACTORS
330
17
102
}
100
AcDbMlineStyle
  2
STANDARD
 70
0
  3

 62
256
 51
90.0
 52
90.0
 71
2
 49
0.5
 62
256
  6
BYLAYER
 49
-0.5
 62
256
  6
BYLAYER
  0
LAYOUT
  5
300
102
{ACAD_REACTORS
330
1A
102
}
100
AcDbPlotSettings
  1

  2
none_device
  4
ISO_A4_(297.00_x_210.00_MM)
  6

 40
0.0
 41
0.0
 42
0.0
 43
0.0
 44
297.0
 45
210.0
 46
0.0
 47
0.0
 48
0.0
 49
0.0
140
0.0
141
0.0
142
1.0
143
1.0
 70
1024
 72
1
 73
0
 74
0
  7

 75
0
147
1.0
148
0.0
149
0.0
100
AcDbLayout
  1
Model
 70
0
 71
0
 10
0.0
 20
0.0
 11
297.0
 21
210.0
 12
0.0
 22
0.0
 32
0.0
 14
0.0
 24
0.0
 34
0.0
 15
0.0
 25
0.0
 35
0.0
146
0.0
 13
0.0
 23
0.0
 33
0.0
 16
1.0
 26
0.0
 36
0.0
 17
0.0
 27
1.0
 37
0.0
 76
0
330
213
345
0
346
0
  0
LAYOUT
  5
301
102
{ACAD_REACTORS
330
1A
102
}
100
AcDbPlotSettings
  1

  2
none_device
  4
ISO_A4_(297.00_x_210.00_MM)
  6

 40
0.0
 41
0.0
 42
0.0
 43
0.0
 44
297.0
 45
210.0
 46
0.0
 47
0.0
 48
0.0
 49
0.0
140
0.0
141
0.0
142
1.0
143
1.0
 70
0
 72
1
 73
0
 74
0
  7

 75
0
147
1.0
148
0.0
149
0.0
100
AcDbLayout
  1
Layout1
 70
0
 71
1
 10
0.0
 20
0.0
 11
297.0
 21
210.0
 12
0.0
 22
0.0
 32
0.0
 14
0.0
 24
0.0
 34
0.0
 15
0.0
 25
0.0
 35
0.0
146
0.0
 13
0.0
 23
0.0
 33
0.0
 16
1.0
 26
0.0
 36
0.0
 17
0.0
 27
1.0
 37
0.0
 76
0
330
214
345
0
346
0
  0
ENDSEC
  0
EOF
