  0
SECTION
  2
HEADER
  9
$ACADVER
  1
AC1015
  9
$DWGCODEPAGE
  3
ANSI_1252
  9
$EXTMAX
 10
297.0
 20
210.0
 30
0.0
  9
$EXTMIN
 10
0.0
 20
0.0
 30
0.0
  9
$LIMMIN
 10
0.0
 20
0.0
  9
$LIMMAX
 10
297.0
 20
210.0
  9
$VIEWCTR
 10
148.5
 20
105.0
  9
$VIEWSIZE
 40
210.0
  9
$CLAYER
  8
0
  9
$LTSCALE
 40
16.335
  9
$CELTYPE
  6
BYLAYER
  9
$DIMSCALE
 40
1.0
  9
$DIMASZ
 40
3.0
  9
$DIMEXO
 40
1.85625
  9
$DIMDLI
 40
11.286
  9
$DIMEXE
 40
5.346
  9
$DIMCEN
 40
2.673
  9
$DIMLFAC
 40
1.0
  9
$DIMBLK
  1
_FILLED
  9
$DIMTXT
 40
3.0
  9
$DIMTOL
 70
1
  9
$DIMLIM
 70
0
  9
$DIMTFAC
 40
1.0
  9
$DIMTP
 40
0.01
  9
$DIMTM
 40
0.01
  9
$PDMODE
 70
3
  9
$PDSIZE
 40
3.0
  9
$HANDSEED
  5
291
  9
$TILEMODE
 70
1
  9
$MEASUREMENT
 70
1
  9
$INSUNITS
 70
4
  0
ENDSEC
  0
SECTION
  2
CLASSES
  0
CLASS
  1
ACDBDICTIONARYWDFLT
  2
AcDbDictionaryWithDefault
  3
AutoCAD 2000
 90
0
280
0
281
0
  0
CLASS
  1
ACDBPLACEHOLDER
  2
AcDbPlaceHolder
  3
AutoCAD 2000
 90
0
280
0
281
0
  0
CLASS
  1
LAYOUT
  2
AcDbLayout
  3
AutoCAD 2000
 90
0
280
0
281
0
  0
ENDSEC
  0
SECTION
  2
TABLES
  0
TABLE
  2
VPORT
  5
8
100
AcDbSymbolTable
 70
2
  0
VPORT
  5
1F4
100
AcDbSymbolTableRecord
100
AcDbViewportTableRecord
  2
*ACTIVE
 70
0
 10
0.0
 20
0.0
 11
1.0
 21
1.0
 12
148.5
 22
105.0
 13
0.0
 23
0.0
 14
1.0
 24
1.0
 15
0.0
 25
0.0
 16
0.0
 26
0.0
 36
1.0
 17
0.0
 27
0.0
 37
0.0
 40
210.0
 41
1.4142857143
 42
50.0
 43
0.0
 44
0.0
 50
0.0
 51
0.0
 71
0
 72
100
 73
1
 74
1
 75
0
 76
0
 77
0
 78
0
  0
ENDTAB
  0
TABLE
  2
LTYPE
  5
5
100
AcDbSymbolTable
 70
6
  0
LTYPE
  5
14
100
AcDbSymbolTableRecord
100
AcDbLinetypeTableRecord
  2
BYBLOCK
 70
0
  3

 72
65
 73
0
 40
0.0
  0
LTYPE
  5
15
100
AcDbSymbolTableRecord
100
AcDbLinetypeTableRecord
  2
BYLAYER
 70
0
  3

 72
65
 73
0
 40
0.0
  0
LTYPE
  5
16
100
AcDbSymbolTableRecord
100
AcDbLinetypeTableRecord
  2
CONTINUOUS
 70
64
  3
Solid line
 72
65
 73
0
 40
0.0
  0
LTYPE
  5
1F5
100
AcDbSymbolTableRecord
100
AcDbLinetypeTableRecord
  2
CENTER
 70
64
  3
____ _ ____ _ ____ _ ____ _ ____ _ ____ _ ____
 72
65
 73
4
 40
0.6
 49
0.375
 74
0
 49
-0.075
 74
0
 49
0.075
 74
0
 49
-0.075
 74
0
  0
LTYPE
  5
1F6
100
AcDbSymbolTableRecord
100
AcDbLinetypeTableRecord
  2
HIDDEN
 70
64
  3
- - - - - - - - - - - - - - - - - - - -
 72
65
 73
2
 40
0.2
 49
0.1
 74
0
 49
-0.1
 74
0
  0
LTYPE
  5
1F7
100
AcDbSymbolTableRecord
100
AcDbLinetypeTableRecord
  2
PHANTOM
 70
64
  3
_____ _ _ _____ _ _ _____ _ _ _____
 72
65
 73
6
 40
0.8
 49
0.45
 74
0
 49
-0.05
 74
0
 49
0.1
 74
0
 49
-0.05
 74
0
 49
0.1
 74
0
 49
-0.05
 74
0
  0
LTYPE
  5
1F8
100
AcDbSymbolTableRecord
100
AcDbLinetypeTableRecord
  2
DOT
 70
64
  3
. . . . . . . . . . . . . . . . . . . .
 72
65
 73
2
 40
0.2
 49
0.1
 74
0
 49
-0.1
 74
0
  0
LTYPE
  5
1F9
100
AcDbSymbolTableRecord
100
AcDbLinetypeTableRecord
  2
DASHED
 70
64
  3
- - - - - - - - - - - - - - - - - - - -
 72
65
 73
2
 40
0.2
 49
0.1
 74
0
 49
-0.1
 74
0
  0
ENDTAB
  0
TABLE
  2
LAYER
  5
2
100
AcDbSymbolTable
 70
36
  0
LAYER
  5
10
100
AcDbSymbolTableRecord
100
AcDbLayerTableRecord
  2
0
 70
0
 62
7
  6
CONTINUOUS
370
-3
390
F
  0
LAYER
  5
1FA
100
AcDbSymbolTableRecord
100
AcDbLayerTableRecord
  2
DEFAULT_1
 70
0
 62
7
  6
CENTER
370
-3
390
F
  0
LAYER
  5
1FB
100
AcDbSymbolTableRecord
100
AcDbLayerTableRecord
  2
DEFAULT_2
 70
0
 62
7
  6
HIDDEN
370
-3
390
F
  0
LAYER
  5
1FC
100
AcDbSymbolTableRecord
100
AcDbLayerTableRecord
  2
DEFAULT_3
 70
0
 62
7
  6
PHANTOM
370
-3
390
F
  0
LAYER
  5
1FD
100
AcDbSymbolTableRecord
100
AcDbLayerTableRecord
  2
ASSI
 70
0
 62
7
  6
CONTINUOUS
370
-3
390
F
  0
LAYER
  5
1FE
100
AcDbSymbolTableRecord
100
AcDbLayerTableRecord
  2
COLORE_MATERIALE
 70
0
 62
7
  6
CONTINUOUS
370
-3
390
F
  0
LAYER
  5
1FF
100
AcDbSymbolTableRecord
100
AcDbLayerTableRecord
  2
COORDINATE
 70
0
 62
7
  6
CONTINUOUS
370
-3
390
F
  0
LAYER
  5
200
100
AcDbSymbolTableRecord
100
AcDbLayerTableRecord
  2
COORD_ORIGINE
 70
0
 62
7
  6
CONTINUOUS
370
-3
390
F
  0
LAYER
  5
201
100
AcDbSymbolTableRecord
100
AcDbLayerTableRecord
  2
COPY
 70
0
 62
7
  6
CONTINUOUS
370
-3
390
F
  0
LAYER
  5
202
100
AcDbSymbolTableRecord
100
AcDbLayerTableRecord
  2
CURVE
 70
0
 62
7
  6
CONTINUOUS
370
-3
390
F
  0
LAYER
  5
203
100
AcDbSymbolTableRecord
100
AcDbLayerTableRecord
  2
DRAFT
 70
0
 62
7
  6
CONTINUOUS
370
-3
390
F
  0
LAYER
  5
204
100
AcDbSymbolTableRecord
100
AcDbLayerTableRecord
  2
IGS
 70
0
 62
7
  6
CONTINUOUS
370
-3
390
F
  0
LAYER
  5
205
100
AcDbSymbolTableRecord
100
AcDbLayerTableRecord
  2
PIANI
 70
0
 62
7
  6
CONTINUOUS
370
-3
390
F
  0
LAYER
  5
206
100
AcDbSymbolTableRecord
100
AcDbLayerTableRecord
  2
PIANI_ORIGINE
 70
0
 62
7
  6
CONTINUOUS
370
-3
390
F
  0
LAYER
  5
207
100
AcDbSymbolTableRecord
100
AcDbLayerTableRecord
  2
PIANI_RIFERIMENTO
 70
0
 62
7
  6
CONTINUOUS
370
-3
390
F
  0
LAYER
  5
208
100
AcDbSymbolTableRecord
100
AcDbLayerTableRecord
  2
RACCORDO
 70
0
 62
7
  6
CONTINUOUS
370
-3
390
F
  0
LAYER
  5
209
100
AcDbSymbolTableRecord
100
AcDbLayerTableRecord
  2
SMUSSO
 70
0
 62
7
  6
CONTINUOUS
370
-3
390
F
  0
LAYER
  5
20A
100
AcDbSymbolTableRecord
100
AcDbLayerTableRecord
  2
SNAPLINE
 70
0
 62
7
  6
CONTINUOUS
370
-3
390
F
  0
LAYER
  5
20B
100
AcDbSymbolTableRecord
100
AcDbLayerTableRecord
  2
SOLIDO
 70
0
 62
7
  6
CONTINUOUS
370
-3
390
F
  0
LAYER
  5
20C
100
AcDbSymbolTableRecord
100
AcDbLayerTableRecord
  2
SUPERFICI
 70
0
 62
7
  6
CONTINUOUS
370
-3
390
F
  0
LAYER
  5
20D
100
AcDbSymbolTableRecord
100
AcDbLayerTableRecord
  2
TRASH
 70
0
 62
7
  6
CONTINUOUS
370
-3
390
F
  0
ENDTAB
  0
TABLE
  2
STYLE
  5
3
100
AcDbSymbolTable
 70
1
  0
STYLE
  5
11
100
AcDbSymbolTableRecord
100
AcDbTextStyleTableRecord
  2
STANDARD
 70
0
 40
0.0
 41
0.8
 50
0.0
 71
0
 42
0.2
  3
txt
  4

  0
STYLE
  5
20E
100
AcDbSymbolTableRecord
100
AcDbTextStyleTableRecord
  2
TEXTSTYLE_1
 70
0
 40
0.0
 41
0.8
 50
0.0
 71
0
 42
0.2
  3
gdt
  4

  0
ENDTAB
  0
TABLE
  2
VIEW
  5
6
100
AcDbSymbolTable
 70
0
  0
ENDTAB
  0
TABLE
  2
UCS
  5
7
100
AcDbSymbolTable
 70
0
  0
ENDTAB
  0
TABLE
  2
APPID
  5
9
100
AcDbSymbolTable
 70
1
  0
APPID
  5
20F
100
AcDbSymbolTableRecord
100
AcDbRegAppTableRecord
  2
ACAD
 70
0
  0
ENDTAB
  0
TABLE
  2
BLOCK_RECORD
  5
1
100
AcDbSymbolTable
 70
0
  0
BLOCK_RECORD
  5
210
100
AcDbSymbolTableRecord
100
AcDbBlockTableRecord
  2
*Model_Space
  0
BLOCK_RECORD
  5
211
100
AcDbSymbolTableRecord
100
AcDbBlockTableRecord
  2
*Paper_Space
  0
BLOCK_RECORD
  5
212
100
AcDbSymbolTableRecord
100
AcDbBlockTableRecord
  2
_FILLED
  0
BLOCK_RECORD
  5
213
100
AcDbSymbolTableRecord
100
AcDbBlockTableRecord
  2
*D0
  0
BLOCK_RECORD
  5
214
100
AcDbSymbolTableRecord
100
AcDbBlockTableRecord
  2
*D1
  0
BLOCK_RECORD
  5
215
100
AcDbSymbolTableRecord
100
AcDbBlockTableRecord
  2
*D2
  0
ENDTAB
  0
TABLE
  2
DIMSTYLE
  5
A
100
AcDbSymbolTable
 70
1
100
AcDbDimStyleTable
 71
0
  0
DIMSTYLE
105
216
100
AcDbSymbolTableRecord
100
AcDbDimStyleTableRecord
  2
STANDARD
 70
0
  3

  4

 40
1.0
 41
3.0
 42
0.0625
 43
0.38
 44
0.18
 45
0.0
 46
0.0
 47
0.01
 48
0.01
140
3.0
141
0.09
142
0.0
143
25.4
144
1.0
145
0.0
146
1.0
147
0.09
 71
1.0
 72
0.0
 73
0
 74
0
 75
0
 76
0
 77
1
 78
8
170
0
171
2
172
0
173
0
174
0
175
0
176
0
177
0
178
0
270
2
271
2
272
2
273
2
274
2
275
0
280
0
281
0
282
0
283
1
284
8
285
0
286
0
287
3
288
0
340
11
341
212
342
212
343
212
344
212
  0
DIMSTYLE
105
217
100
AcDbSymbolTableRecord
100
AcDbDimStyleTableRecord
  2
DIMSTYLE_1
 70
0
  3

  4

 40
1.0
 41
3.0
 42
0.0625
 43
0.38
 44
0.18
 45
0.0
 46
0.0
 47
0.0
 48
0.0
140
3.0
141
0.09
142
0.0
143
25.4
144
1.0
145
0.0
146
1.0
147
0.09
 71
0.0
 72
0.0
 73
0
 74
0
 75
0
 76
0
 77
1
 78
8
170
0
171
2
172
0
173
0
174
0
175
0
176
0
177
0
178
0
270
2
271
2
272
2
273
2
274
2
275
0
280
0
281
0
282
0
283
1
284
8
285
0
286
0
287
3
288
0
340
11
341
212
342
212
343
212
344
212
  0
DIMSTYLE
105
218
100
AcDbSymbolTableRecord
100
AcDbDimStyleTableRecord
  2
DIMSTYLE_2
 70
0
  3

  4

 40
1.0
 41
3.0
 42
0.0625
 43
0.38
 44
0.18
 45
0.0
 46
0.0
 47
0.0
 48
0.0
140
3.0
141
0.09
142
0.0
143
25.4
144
1.0
145
0.0
146
1.0
147
0.09
 71
0.0
 72
0.0
 73
0
 74
0
 75
0
 76
0
 77
1
 78
8
170
0
171
2
172
0
173
0
174
0
175
0
176
0
177
0
178
0
270
2
271
1
272
1
273
2
274
2
275
0
280
0
281
0
282
0
283
1
284
8
285
0
286
0
287
3
288
0
340
11
341
212
342
212
343
212
344
212
  0
ENDTAB
  0
ENDSEC
  0
SECTION
  2
BLOCKS
  0
BLOCK
  5
20
100
AcDbEntity
  8
0
100
AcDbBlockBegin
  2
*Model_Space
 70
0
 10
0.0
 20
0.0
 30
0.0
  3
*Model_Space
  1

  0
ENDBLK
  5
21
100
AcDbEntity
  8
0
100
AcDbBlockEnd
  0
BLOCK
  5
1C
100
AcDbEntity
  8
0
100
AcDbBlockBegin
  2
*Paper_Space
 70
0
 10
0.0
 20
0.0
 30
0.0
  3
*Paper_Space
  1

  0
ENDBLK
  5
1D
100
AcDbEntity
  8
0
100
AcDbBlockEnd
  0
BLOCK
  5
219
100
AcDbEntity
  8
0
100
AcDbBlockBegin
  2
_FILLED
 70
64
 10
0.0
 20
0.0
  3
_FILLED
  1

  0
SOLID
  5
21A
100
AcDbEntity
  8
0
  6
BYBLOCK
 62
0
100
AcDbTrace
 10
0.0
 20
0.0
 11
-1.0
 21
0.3166666667
 12
-1.0
 22
-0.3166666667
 13
-1.0
 23
-0.3166666667
  0
ENDBLK
  5
21B
100
AcDbEntity
  8
0
  6
BYBLOCK
 62
0
100
AcDbBlockEnd
  0
BLOCK
  5
21C
100
AcDbEntity
  8
0
100
AcDbBlockBegin
 62
7
  6
CONTINUOUS
  2
*D0
 70
65
 10
0.0
 20
0.0
  3
*D0
  1

  0
MTEXT
  5
21D
100
AcDbEntity
  8
0
100
AcDbMText
 62
7
  6
CONTINUOUS
  7
STANDARD
 71
2
 72
1
 10
20.062931566
 20
22.6806383101
 30
0.0
 11
1.0
 21
0.0
 31
0.0
 44
0.9
  1
22,2
 40
3.0
 41
8.7857142857
  0
LINE
  5
21E
100
AcDbEntity
  8
0
100
AcDbLine
 62
7
  6
CONTINUOUS
 10
31.162931566
 20
7.4393651779
 11
31.162931566
 21
20.4306383101
  0
LINE
  5
21F
100
AcDbEntity
  8
0
100
AcDbLine
 62
7
  6
CONTINUOUS
 10
8.962931566
 20
7.4393651779
 11
8.962931566
 21
20.4306383101
  0
LINE
  5
220
100
AcDbEntity
  8
0
100
AcDbLine
 62
7
  6
CONTINUOUS
 10
31.162931566
 20
18.9306383101
 11
20.062931566
 21
18.9306383101
  0
LINE
  5
221
100
AcDbEntity
  8
0
100
AcDbLine
 62
7
  6
CONTINUOUS
 10
8.962931566
 20
18.9306383101
 11
20.062931566
 21
18.9306383101
  0
INSERT
  5
222
100
AcDbEntity
  8
0
100
AcDbBlockReference
 62
7
  6
CONTINUOUS
  2
_FILLED
 10
31.162931566
 20
18.9306383101
 41
3.0
 42
3.0
 43
3.0
 50
0.0
  0
INSERT
  5
223
100
AcDbEntity
  8
0
100
AcDbBlockReference
 62
7
  6
CONTINUOUS
  2
_FILLED
 10
8.962931566
 20
18.9306383101
 41
3.0
 42
3.0
 43
3.0
 50
180.0
  0
ENDBLK
  5
224
100
AcDbEntity
  8
0
  6
BYBLOCK
 62
0
100
AcDbBlockEnd
  0
BLOCK
  5
225
100
AcDbEntity
  8
0
100
AcDbBlockBegin
 62
7
  6
CONTINUOUS
  2
*D1
 70
65
 10
0.0
 20
0.0
  3
*D1
  1

  0
MTEXT
  5
226
100
AcDbEntity
  8
0
100
AcDbMText
 62
7
  6
CONTINUOUS
  7
STANDARD
 71
2
 72
1
 10
35.412931566
 20
-0.139998256
 30
0.0
 11
0.0
 21
1.0
 31
0.0
 44
0.9
  1
22,1
 40
3.0
 41
8.1428571429
  0
LINE
  5
227
100
AcDbEntity
  8
0
100
AcDbLine
 62
7
  6
CONTINUOUS
 10
31.4227849155
 20
10.9306383101
 11
40.662931566
 21
10.9306383101
  0
LINE
  5
228
100
AcDbEntity
  8
0
100
AcDbLine
 62
7
  6
CONTINUOUS
 10
31.1633121657
 20
-11.2106348221
 11
40.662931566
 21
-11.2106348221
  0
LINE
  5
229
100
AcDbEntity
  8
0
100
AcDbLine
 62
7
  6
CONTINUOUS
 10
39.162931566
 20
10.9306383101
 11
39.162931566
 21
-0.139998256
  0
LINE
  5
22A
100
AcDbEntity
  8
0
100
AcDbLine
 62
7
  6
CONTINUOUS
 10
39.162931566
 20
-11.2106348221
 11
39.162931566
 21
-0.139998256
  0
INSERT
  5
22B
100
AcDbEntity
  8
0
100
AcDbBlockReference
 62
7
  6
CONTINUOUS
  2
_FILLED
 10
39.162931566
 20
10.9306383101
 41
3.0
 42
3.0
 43
3.0
 50
90.0
  0
INSERT
  5
22C
100
AcDbEntity
  8
0
100
AcDbBlockReference
 62
7
  6
CONTINUOUS
  2
_FILLED
 10
39.162931566
 20
-11.2106348221
 41
3.0
 42
3.0
 43
3.0
 50
270.0
  0
ENDBLK
  5
22D
100
AcDbEntity
  8
0
  6
BYBLOCK
 62
0
100
AcDbBlockEnd
  0
BLOCK
  5
22E
100
AcDbEntity
  8
0
100
AcDbBlockBegin
 62
7
  6
CONTINUOUS
  2
*D2
 70
65
 10
0.0
 20
0.0
  3
*D2
  1

  0
MTEXT
  5
22F
100
AcDbEntity
  8
0
100
AcDbMText
 62
7
  6
CONTINUOUS
  7
STANDARD
 71
2
 72
1
 10
-6.4436673115
 20
22.6806383101
 30
0.0
 11
1.0
 21
0.0
 31
0.0
 44
0.9
  1
9,9
 40
3.0
 41
6.4285714286
  0
LINE
  5
230
100
AcDbEntity
  8
0
100
AcDbLine
 62
7
  6
CONTINUOUS
 10
-1.4705228327
 20
2.5023073178
 11
-1.4705228327
 21
20.4306383101
  0
LINE
  5
231
100
AcDbEntity
  8
0
100
AcDbLine
 62
7
  6
CONTINUOUS
 10
-11.4168117903
 20
11.1912215892
 11
-11.4168117903
 21
20.4306383101
  0
LINE
  5
232
100
AcDbEntity
  8
0
100
AcDbLine
 62
7
  6
CONTINUOUS
 10
-1.4705228327
 20
18.9306383101
 11
2.5294771673
 21
18.9306383101
  0
LINE
  5
233
100
AcDbEntity
  8
0
100
AcDbLine
 62
7
  6
CONTINUOUS
 10
2.5294771673
 20
18.9306383101
 11
-6.4436673115
 21
18.9306383101
  0
LINE
  5
234
100
AcDbEntity
  8
0
100
AcDbLine
 62
7
  6
CONTINUOUS
 10
-11.4168117903
 20
18.9306383101
 11
-15.4168117903
 21
18.9306383101
  0
LINE
  5
235
100
AcDbEntity
  8
0
100
AcDbLine
 62
7
  6
CONTINUOUS
 10
-15.4168117903
 20
18.9306383101
 11
-6.4436673115
 21
18.9306383101
  0
INSERT
  5
236
100
AcDbEntity
  8
0
100
AcDbBlockReference
 62
7
  6
CONTINUOUS
  2
_FILLED
 10
-1.4705228327
 20
18.9306383101
 41
3.0
 42
3.0
 43
3.0
 50
180.0
  0
INSERT
  5
237
100
AcDbEntity
  8
0
100
AcDbBlockReference
 62
7
  6
CONTINUOUS
  2
_FILLED
 10
-11.4168117903
 20
18.9306383101
 41
3.0
 42
3.0
 43
3.0
  0
ENDBLK
  5
238
100
AcDbEntity
  8
0
  6
BYBLOCK
 62
0
100
AcDbBlockEnd
  0
ENDSEC
  0
SECTION
  2
ENTITIES
  0
DIMENSION
  5
239
100
AcDbEntity
  8
0
100
AcDbDimension
 62
7
  6
CONTINUOUS
  2
*D0
 10
8.962931566
 20
18.9306383101
 11
15.6700744232
 21
21.1806383101
 70
160
 71
2
 42
22.2
  3
DIMSTYLE_1
100
AcDbAlignedDimension
 13
31.162931566
 23
7.4393651779
 14
8.962931566
 24
7.4393651779
 50
180.0
100
AcDbRotatedDimension
  0
DIMENSION
  5
23A
100
AcDbEntity
  8
0
100
AcDbDimension
 62
7
  6
CONTINUOUS
  2
*D1
 10
39.162931566
 20
-11.2106348221
 11
38.7372312888
 21
-3.779841815
 70
160
 71
2
 42
22.1412731322
  3
DIMSTYLE_2
100
AcDbAlignedDimension
 13
31.4227849155
 23
10.9306383101
 14
31.1633121657
 24
-11.2106348221
 50
270.0
100
AcDbRotatedDimension
  0
DIMENSION
  5
23B
100
AcDbEntity
  8
0
100
AcDbDimension
 62
7
  6
CONTINUOUS
  2
*D2
 10
-11.4168117903
 20
18.9306383101
 11
-9.6579530258
 21
21.1806383101
 70
160
 71
2
 42
9.9462889575
  3
DIMSTYLE_2
100
AcDbAlignedDimension
 13
-1.4705228327
 23
2.5023073178
 14
-11.4168117903
 24
11.1912215892
 50
180.0
100
AcDbRotatedDimension
  0
LINE
  5
23C
100
AcDbEntity
  8
DRAFT
100
AcDbLine
 62
7
  6
CONTINUOUS
 10
8.962931566
 20
6.9393651779
 11
8.962931566
 21
-2.149289894
  0
LINE
  5
23D
100
AcDbEntity
  8
RACCORDO
100
AcDbLine
 62
7
  6
CONTINUOUS
 10
8.962931566
 20
-2.149289894
 11
8.962931566
 21
-10.71040597
  0
LINE
  5
23E
100
AcDbEntity
  8
RACCORDO
100
AcDbLine
 62
7
  6
CONTINUOUS
 10
9.0030782153
 20
10.7306611554
 11
9.0030782153
 21
6.9393651779
  0
LINE
  5
23F
100
AcDbEntity
  8
RACCORDO
100
AcDbLine
 62
253
  6
CONTINUOUS
 10
9.5764635386
 20
10.6912215891
 11
9.5764635386
 21
10.8913532313
  0
LINE
  5
240
100
AcDbEntity
  8
RACCORDO
100
AcDbLine
 62
7
  6
CONTINUOUS
 10
22.469555893
 20
-11.2106348221
 11
23.8551965391
 21
-11.0848561518
  0
LINE
  5
241
100
AcDbEntity
  8
RACCORDO
100
AcDbLine
 62
7
  6
CONTINUOUS
 10
9.4625509663
 20
-11.2106348221
 11
11.269555893
 21
-11.2106348221
  0
LINE
  5
242
100
AcDbEntity
  8
DRAFT
100
AcDbLine
 62
7
  6
CONTINUOUS
 10
17.656307239
 20
-11.2106348221
 11
22.469555893
 21
-11.2106348221
  0
LINE
  5
243
100
AcDbEntity
  8
RACCORDO
100
AcDbLine
 62
7
  6
CONTINUOUS
 10
28.856307239
 20
-11.2106348221
 11
30.6633121657
 21
-11.2106348221
  0
LINE
  5
244
100
AcDbEntity
  8
RACCORDO
100
AcDbLine
 62
7
  6
CONTINUOUS
 10
12.8284016198
 20
-11.0796153739
 11
16.0974615122
 21
-11.0796153739
  0
LINE
  5
245
100
AcDbEntity
  8
RACCORDO
100
AcDbLine
 62
7
  6
CONTINUOUS
 10
24.0284016198
 20
-11.0796153739
 11
27.2974615122
 21
-11.0796153739
  0
LINE
  5
246
100
AcDbEntity
  8
RACCORDO
100
AcDbLine
 62
253
  6
CONTINUOUS
 10
30.5732866271
 20
-10.940338574
 11
9.5525765049
 21
-10.940338574
  0
LINE
  5
247
100
AcDbEntity
  8
RACCORDO
100
AcDbLine
 62
7
  6
CONTINUOUS
 10
17.656307239
 20
-11.2106348221
 11
16.2706665929
 21
-11.0848561518
  0
LINE
  5
248
100
AcDbEntity
  8
RACCORDO
100
AcDbLine
 62
7
  6
CONTINUOUS
 10
11.269555893
 20
-11.2106348221
 11
12.6551965391
 21
-11.0848561518
  0
LINE
  5
249
100
AcDbEntity
  8
RACCORDO
100
AcDbLine
 62
253
  6
CONTINUOUS
 10
30.5567597963
 20
-9.5040221865
 11
9.5691033357
 21
-9.5040221865
  0
LINE
  5
24A
100
AcDbEntity
  8
RACCORDO
100
AcDbLine
 62
7
  6
CONTINUOUS
 10
28.856307239
 20
-11.2106348221
 11
27.4706665929
 21
-11.0848561518
  0
LINE
  5
24B
100
AcDbEntity
  8
RACCORDO
100
AcDbLine
 62
253
  6
CONTINUOUS
 10
8.962931566
 20
-10.71040597
 11
9.0526526886
 21
-10.4410237127
  0
LINE
  5
24C
100
AcDbEntity
  8
RACCORDO
100
AcDbLine
 62
253
  6
CONTINUOUS
 10
9.4625509663
 20
-11.2106348221
 11
9.5525765049
 21
-10.940338574
  0
LINE
  5
24D
100
AcDbEntity
  8
RACCORDO
100
AcDbLine
 62
253
  6
CONTINUOUS
 10
30.9227849155
 20
10.9306383101
 11
30.8493538734
 21
10.8939255852
  0
LINE
  5
24E
100
AcDbEntity
  8
RACCORDO
100
AcDbLine
 62
253
  6
CONTINUOUS
 10
31.1227849167
 20
10.7306611554
 11
31.0493234507
 21
10.6939332197
  0
LINE
  5
24F
100
AcDbEntity
  8
RACCORDO
100
AcDbLine
 62
253
  6
CONTINUOUS
 10
9.0765396813
 20
10.6939332197
 11
9.0030782153
 21
10.7306611554
  0
LINE
  5
250
100
AcDbEntity
  8
RACCORDO
100
AcDbLine
 62
253
  6
CONTINUOUS
 10
9.2765092586
 20
10.8939255852
 11
9.2030782165
 21
10.9306383101
  0
LINE
  5
251
100
AcDbEntity
  8
DRAFT
100
AcDbLine
 62
7
  6
CONTINUOUS
 10
9.0030782153
 20
6.9393651779
 11
8.962931566
 21
6.9393651779
  0
LINE
  5
252
100
AcDbEntity
  8
DRAFT
100
AcDbLine
 62
7
  6
CONTINUOUS
 10
31.1227849167
 20
6.9393651779
 11
31.162931566
 21
6.9393651779
  0
LINE
  5
253
100
AcDbEntity
  8
RACCORDO
100
AcDbLine
 62
253
  6
CONTINUOUS
 10
30.5732866271
 20
-10.940338574
 11
30.6633121657
 21
-11.2106348221
  0
LINE
  5
254
100
AcDbEntity
  8
RACCORDO
100
AcDbLine
 62
253
  6
CONTINUOUS
 10
31.0732104434
 20
-10.4410237127
 11
31.162931566
 21
-10.71040597
  0
LINE
  5
255
100
AcDbEntity
  8
RACCORDO
100
AcDbLine
 62
253
  6
CONTINUOUS
 10
30.5493995935
 20
10.6912215891
 11
30.5493995935
 21
10.8913532313
  0
LINE
  5
256
100
AcDbEntity
  8
DRAFT
100
AcDbLine
 62
7
  6
CONTINUOUS
 10
28.2379088931
 20
10.9306383101
 11
28.062931566
 21
10.9131845745
  0
LINE
  5
257
100
AcDbEntity
  8
DRAFT
100
AcDbLine
 62
7
  6
CONTINUOUS
 10
11.887954239
 20
10.9306383101
 11
12.062931566
 21
10.9131845745
  0
LINE
  5
258
100
AcDbEntity
  8
RACCORDO
100
AcDbLine
 62
7
  6
CONTINUOUS
 10
31.1227849167
 20
10.7306611554
 11
31.1227849167
 21
6.9393651779
  0
LINE
  5
259
100
AcDbEntity
  8
DRAFT
100
AcDbLine
 62
7
  6
CONTINUOUS
 10
31.162931566
 20
6.9393651779
 11
31.162931566
 21
-2.149289894
  0
LINE
  5
25A
100
AcDbEntity
  8
RACCORDO
100
AcDbLine
 62
7
  6
CONTINUOUS
 10
31.162931566
 20
-2.149289894
 11
31.162931566
 21
-10.71040597
  0
LINE
  5
25B
100
AcDbEntity
  8
RACCORDO
100
AcDbLine
 62
253
  6
CONTINUOUS
 10
30.5493974862
 20
10.6912215891
 11
9.5764656459
 21
10.6912215891
  0
LINE
  5
25C
100
AcDbEntity
  8
RACCORDO
100
AcDbLine
 62
253
  6
CONTINUOUS
 10
30.5493995935
 20
10.8913532313
 11
9.5764635386
 21
10.8913532313
  0
LINE
  5
25D
100
AcDbEntity
  8
DRAFT
100
AcDbLine
 62
7
  6
CONTINUOUS
 10
28.062931566
 20
10.9131845745
 11
12.062931566
 21
10.9131845745
  0
LINE
  5
25E
100
AcDbEntity
  8
RACCORDO
100
AcDbLine
 62
7
  6
CONTINUOUS
 10
9.2030782165
 20
10.9306383101
 11
11.887954239
 21
10.9306383101
  0
LINE
  5
25F
100
AcDbEntity
  8
RACCORDO
100
AcDbLine
 62
7
  6
CONTINUOUS
 10
28.2379088931
 20
10.9306383101
 11
30.9227849155
 21
10.9306383101
  0
LINE
  5
260
100
AcDbEntity
  8
RACCORDO
100
AcDbLine
 62
7
  6
CONTINUOUS
 10
-9.5744944423
 20
-10.9403384801
 11
-4.4169329942
 21
-11.2106348221
  0
LINE
  5
261
100
AcDbEntity
  8
RACCORDO
100
AcDbLine
 62
253
  6
CONTINUOUS
 10
-9.5570526674
 20
-10.4410237127
 11
-4.4169329942
 21
-10.71040597
  0
LINE
  5
262
100
AcDbEntity
  8
RACCORDO
100
AcDbLine
 62
253
  6
CONTINUOUS
 10
-10.5038722929
 20
-9.483480957
 11
-10.9947238676
 21
-9.504024346
  0
LINE
  5
263
100
AcDbEntity
  8
0
100
AcDbLine
 62
7
  6
CONTINUOUS
 10
-1.4705228327
 20
-2.123576962
 11
-4.4169329942
 21
-2.149289894
  0
LINE
  5
264
100
AcDbEntity
  8
RACCORDO
100
AcDbLine
 62
7
  6
CONTINUOUS
 10
-6.7169329942
 20
10.9306383101
 11
-6.7169329942
 21
6.9393651779
  0
LINE
  5
265
100
AcDbEntity
  8
DRAFT
100
AcDbLine
 62
7
  6
CONTINUOUS
 10
-4.4169329942
 20
6.9393651779
 11
-4.4169329942
 21
-2.149289894
  0
LINE
  5
266
100
AcDbEntity
  8
RACCORDO
100
AcDbLine
 62
7
  6
CONTINUOUS
 10
-4.4169329942
 20
-2.149289894
 11
-4.4169329942
 21
-11.2106348221
  0
LINE
  5
267
100
AcDbEntity
  8
0
100
AcDbLine
 62
7
  6
CONTINUOUS
 10
-1.4705228327
 20
2.0023073178
 11
-4.4169329942
 21
2.0280202498
  0
LINE
  5
268
100
AcDbEntity
  8
0
100
AcDbLine
 62
253
  6
CONTINUOUS
 10
-2.0973529084
 20
-2.1290472252
 11
-2.0973529084
 21
2.007777581
  0
LINE
  5
269
100
AcDbEntity
  8
0
100
AcDbLine
 62
7
  6
CONTINUOUS
 10
-1.4705228327
 20
-2.123576962
 11
-1.4705228327
 21
2.0023073178
  0
LINE
  5
26A
100
AcDbEntity
  8
DRAFT
100
AcDbLine
 62
7
  6
CONTINUOUS
 10
-6.7169329942
 20
6.9393651779
 11
-4.4169329942
 21
6.9393651779
  0
LINE
  5
26B
100
AcDbEntity
  8
RACCORDO
100
AcDbLine
 62
253
  6
CONTINUOUS
 10
-6.7169329942
 20
10.7306611554
 11
-10.9255375619
 21
10.6939332197
  0
LINE
  5
26C
100
AcDbEntity
  8
RACCORDO
100
AcDbLine
 62
7
  6
CONTINUOUS
 10
-6.7169329942
 20
10.9306383101
 11
-11.2185571457
 21
10.8913532313
  0
ARC
  5
26D
100
AcDbEntity
  8
RACCORDO
100
AcDbCircle
 62
253
  6
CONTINUOUS
 10
30.8493043667
 20
10.6939096604
 40
0.2000177349
100
AcDbArc
 50
0.0067431416
 51
89.9858185153
  0
ARC
  5
26E
100
AcDbEntity
  8
RACCORDO
100
AcDbCircle
 62
253
  6
CONTINUOUS
 10
9.276558759
 20
10.6939096667
 40
0.2000177349
100
AcDbArc
 50
90.014179674
 51
179.9932586686
  0
ARC
  5
26F
100
AcDbEntity
  8
RACCORDO
100
AcDbCircle
 62
7
  6
CONTINUOUS
 10
488.5830670058
 20
11.0393651779
 40
500.0
100
AcDbArc
 50
180.0398943198
 51
182.3547616242
  0
ARC
  5
270
100
AcDbEntity
  8
RACCORDO
100
AcDbCircle
 62
253
  6
CONTINUOUS
 10
488.5696423461
 20
11.0392127041
 40
499.4952992464
100
AcDbArc
 50
180.039606096
 51
182.3547665404
  0
ARC
  5
271
100
AcDbEntity
  8
RACCORDO
100
AcDbCircle
 62
7
  6
CONTINUOUS
 10
-9.4959905079
 20
-9.442394178
 40
1.5
100
AcDbArc
 50
182.3546792953
 51
267.0000685439
  0
ARC
  5
272
100
AcDbEntity
  8
RACCORDO
100
AcDbCircle
 62
253
  6
CONTINUOUS
 10
-9.504716711
 20
-9.4423941779
 40
1.0000000001
100
AcDbArc
 50
182.3547618778
 51
266.9999999941
  0
ARC
  5
273
100
AcDbEntity
  8
RACCORDO
100
AcDbCircle
 62
7
  6
CONTINUOUS
 10
-11.2168118183
 20
10.6913608468
 40
0.2
100
AcDbArc
 50
90.5000057908
 51
180.0398944159
  0
SPLINE
  5
274
100
AcDbEntity
  8
RACCORDO
100
AcDbSpline
 62
253
  6
CONTINUOUS
 70
0
 71
3
 72
25
 73
21
 74
19
 42
0.0000001
 43
0.0000001
 44
0.0000000001
 12
-0.1958201669
 22
-0.4614627462
 32
0.0
 13
-0.5012916066
 23
-0.0003592089
 33
0.0
 40
0.0
 40
0.0
 40
0.0
 40
0.0
 40
0.0062949909
 40
0.0193678593
 40
0.0395493223
 40
0.0667849085
 40
0.1009084735
 40
0.1416841299
 40
0.1888188447
 40
0.2419685163
 40
0.3007422221
 40
0.3647059575
 40
0.4333863148
 40
0.5062742685
 40
0.5828291254
 40
0.6624826547
 40
0.7446433891
 40
0.828701079
 40
0.9140312737
 40
1.0
 40
1.0
 40
1.0
 40
1.0
 10
31.0566836453
 20
-9.483480957
 30
0.0
 10
31.0562727499
 20
-9.4844492583
 30
0.0
 10
31.0528057325
 20
-9.4857722074
 30
0.0
 10
31.0467456742
 20
-9.4873648772
 30
0.0
 10
31.036578626
 20
-9.4889886534
 30
0.0
 10
31.023127706
 20
-9.4906248954
 30
0.0
 10
31.0061057862
 20
-9.4922243238
 30
0.0
 10
30.9857826431
 20
-9.4937729689
 30
0.0
 10
30.9622544277
 20
-9.4952523259
 30
0.0
 10
30.9357137557
 20
-9.4966497466
 30
0.0
 10
30.9063517995
 20
-9.497953071
 30
0.0
 10
30.874388772
 20
-9.4991517515
 30
0.0
 10
30.8400618546
 20
-9.5002362222
 30
0.0
 10
30.803626629
 20
-9.5011979982
 30
0.0
 10
30.7653541668
 20
-9.5020296238
 30
0.0
 10
30.7255292968
 20
-9.5027247011
 30
0.0
 10
30.6844483927
 20
-9.5032779083
 30
0.0
 10
30.642417186
 20
-9.503685025
 30
0.0
 10
30.5997484919
 20
-9.5039429531
 30
0.0
 10
30.5711249314
 20
-9.5040140524
 30
0.0
 10
30.5567597978
 20
-9.504024346
 30
0.0
 11
31.0566836453
 21
-9.483480957
 31
0.0
 11
31.0540717805
 21
-9.4852518729
 31
0.0
 11
31.0477585895
 21
-9.4870096085
 31
0.0
 11
31.0377910594
 21
-9.4887410815
 31
0.0
 11
31.0242433752
 21
-9.4904334051
 31
0.0
 11
31.0072163677
 21
-9.492073984
 31
0.0
 11
30.9868367632
 21
-9.4936506079
 31
0.0
 11
30.9632562403
 21
-9.4951515425
 31
0.0
 11
30.9366503008
 21
-9.4965656168
 31
0.0
 11
30.907216964
 21
-9.4978823064
 31
0.0
 11
30.8751752921
 21
-9.4990918116
 31
0.0
 11
30.8407637606
 21
-9.5001851304
 31
0.0
 11
30.804238483
 21
-9.5011541257
 31
0.0
 11
30.7658713047
 21
-9.5019915855
 31
0.0
 11
30.7259477796
 21
-9.502691277
 31
0.0
 11
30.6847650452
 21
-9.5032479924
 31
0.0
 11
30.6426296107
 21
-9.5036575885
 31
0.0
 11
30.5998550761
 21
-9.5039170166
 31
0.0
 11
30.5567597978
 21
-9.504024346
 31
0.0
  0
SPLINE
  5
275
100
AcDbEntity
  8
RACCORDO
100
AcDbSpline
 62
253
  6
CONTINUOUS
 70
0
 71
3
 72
25
 73
21
 74
19
 42
0.0000001
 43
0.0000001
 44
0.0000000001
 12
-0.000717266
 22
-0.784323681
 32
0.0
 13
-0.7843236826
 23
-0.0007155193
 33
0.0
 40
0.0
 40
0.0
 40
0.0
 40
0.0
 40
0.0555078874
 40
0.1110211574
 40
0.1665406022
 40
0.2220668264
 40
0.2776002287
 40
0.3331409895
 40
0.3886890664
 40
0.4442441946
 40
0.4998058955
 40
0.5553734915
 40
0.6109461259
 40
0.6665227897
 40
0.7221023518
 40
0.777683593
 40
0.8332652436
 40
0.8888460215
 40
0.9444246707
 40
1.0
 40
1.0
 40
1.0
 40
1.0
 10
31.0732104434
 20
-10.4410237127
 30
0.0
 10
31.0731971721
 20
-10.4555357629
 30
0.0
 10
31.0719020625
 20
-10.4845760617
 30
0.0
 10
31.0661690826
 20
-10.5277906915
 30
0.0
 10
31.0566892904
 20
-10.570349092
 30
0.0
 10
31.0435347749
 20
-10.6119233845
 30
0.0
 10
31.0268055555
 20
-10.6521986978
 30
0.0
 10
31.0066288265
 20
-10.6908685616
 30
0.0
 10
30.9831579861
 20
-10.7276391121
 30
0.0
 10
30.9565714706
 20
-10.7622308218
 30
0.0
 10
30.927071396
 20
-10.7943807587
 30
0.0
 10
30.8948820205
 20
-10.8238445472
 30
0.0
 10
30.8602480418
 20
-10.8503982337
 30
0.0
 10
30.8234327274
 20
-10.8738399856
 30
0.0
 10
30.7847159498
 20
-10.8939916243
 30
0.0
 10
30.7443919251
 20
-10.9106999781
 30
0.0
 10
30.7027674788
 20
-10.9238380456
 30
0.0
 10
30.6601578456
 20
-10.9333059615
 30
0.0
 10
30.6168912486
 20
-10.9390317495
 30
0.0
 10
30.5878162781
 20
-10.940325225
 30
0.0
 10
30.5732865958
 20
-10.9403384801
 30
0.0
 11
31.0732104434
 21
-10.4410237127
 31
0.0
 11
31.0712705181
 21
-10.4845166395
 31
0.0
 11
31.0655450381
 21
-10.5276789435
 31
0.0
 11
31.0560775269
 21
-10.570182515
 31
0.0
 11
31.0429399544
 21
-10.6117042523
 31
0.0
 11
31.0262321892
 21
-10.6519285168
 31
0.0
 11
31.0060812398
 21
-10.6905495333
 31
0.0
 11
30.9826402889
 21
-10.7272737142
 31
0.0
 11
30.956087529
 21
-10.761821891
 31
0.0
 11
30.9266248078
 21
-10.7939314366
 31
0.0
 11
30.894476094
 21
-10.823358262
 31
0.0
 11
30.8598857742
 21
-10.8498786714
 31
0.0
 11
30.823116796
 21
-10.8732910631
 31
0.0
 11
30.7844486683
 21
-10.8934174617
 31
0.0
 11
30.7441753369
 21
-10.910104871
 31
0.0
 11
30.7026029502
 21
-10.9232264374
 31
0.0
 11
30.6600475314
 21
-10.9326824139
 31
0.0
 11
30.6168325767
 21
-10.9384009184
 31
0.0
 11
30.5732865958
 21
-10.9403384801
 31
0.0
  0
SPLINE
  5
276
100
AcDbEntity
  8
RACCORDO
100
AcDbSpline
 62
253
  6
CONTINUOUS
 70
0
 71
3
 72
25
 73
21
 74
19
 42
0.0000001
 43
0.0000001
 44
0.0000000001
 12
-0.2999925228
 22
0.0000000262
 32
0.0
 13
-0.2683571571
 23
0.1340893357
 33
0.0
 40
0.0
 40
0.0
 40
0.0
 40
0.0
 40
0.0861787623
 40
0.1717293147
 40
0.2560031974
 40
0.3383714708
 40
0.4182217699
 40
0.4949601168
 40
0.5680149474
 40
0.6368425911
 40
0.7009310296
 40
0.7598031999
 40
0.8130210033
 40
0.8601886891
 40
0.9009554521
 40
0.9350181196
 40
0.9621241874
 40
0.982073696
 40
0.9947225481
 40
1.0
 40
1.0
 40
1.0
 40
1.0
 10
9.5764635386
 20
10.8913532313
 30
0.0
 10
9.5678458771
 20
10.891353232
 30
0.0
 10
9.550673373
 20
10.891359676
 30
0.0
 10
9.5250737053
 20
10.8913886455
 30
0.0
 10
9.4998551062
 20
10.8914366858
 30
0.0
 10
9.4752065625
 20
10.891503431
 30
0.0
 10
9.4513116143
 20
10.891588371
 30
0.0
 10
9.4283480637
 20
10.8916908527
 30
0.0
 10
9.4064868497
 20
10.8918100943
 30
0.0
 10
9.385890703
 20
10.8919451428
 30
0.0
 10
9.3667129585
 20
10.8920950306
 30
0.0
 10
9.3490962305
 20
10.8922582565
 30
0.0
 10
9.3331720647
 20
10.8924344719
 30
0.0
 10
9.3190576466
 20
10.8926190502
 30
0.0
 10
9.3068620639
 20
10.8928198024
 30
0.0
 10
9.2966642418
 20
10.8930068253
 30
0.0
 10
9.2885724116
 20
10.8932538833
 30
0.0
 10
9.2825648779
 20
10.8933642678
 30
0.0
 10
9.2788593293
 20
10.8937413635
 30
0.0
 10
9.2769813393
 20
10.8936897019
 30
0.0
 10
9.2765092586
 20
10.8939255852
 30
0.0
 11
9.5764635386
 21
10.8913532313
 31
0.0
 11
9.5506105561
 21
10.8913629707
 31
0.0
 11
9.5249460466
 21
10.8913921226
 31
0.0
 11
9.4996645582
 21
10.8914404706
 31
0.0
 11
9.4749547833
 21
10.8915076545
 31
0.0
 11
9.4510004433
 21
10.8915931745
 31
0.0
 11
9.4279797445
 21
10.8916963948
 31
0.0
 11
9.4060641709
 21
10.8918165467
 31
0.0
 11
9.3854168416
 21
10.8919527359
 31
0.0
 11
9.3661913839
 21
10.8921039492
 31
0.0
 11
9.3485309448
 21
10.8922690609
 31
0.0
 11
9.3325669916
 21
10.8924468419
 31
0.0
 11
9.3184183026
 21
10.8926359693
 31
0.0
 11
9.3061901987
 21
10.8928350357
 31
0.0
 11
9.2959737606
 21
10.893042558
 31
0.0
 11
9.2878449708
 21
10.8932569924
 31
0.0
 11
9.2818643033
 21
10.8934767445
 31
0.0
 11
9.2780763259
 21
10.893700174
 31
0.0
 11
9.2765092586
 21
10.8939255852
 31
0.0
  0
SPLINE
  5
277
100
AcDbEntity
  8
RACCORDO
100
AcDbSpline
 62
253
  6
CONTINUOUS
 70
0
 71
3
 72
25
 73
21
 74
19
 42
0.0000001
 43
0.0000001
 44
0.0000000001
 12
-0.2683571574
 22
-0.1340893351
 32
0.0
 13
-0.2999925228
 23
-0.0000000262
 33
0.0
 40
0.0
 40
0.0
 40
0.0
 40
0.0
 40
0.0052774519
 40
0.0179263039
 40
0.0378758125
 40
0.0649818804
 40
0.0990445479
 40
0.1398113109
 40
0.1869789966
 40
0.2401968
 40
0.2990689704
 40
0.3631574089
 40
0.4319850525
 40
0.5050398832
 40
0.58177823
 40
0.6616285291
 40
0.7439968026
 40
0.8282706852
 40
0.9138212376
 40
1.0
 40
1.0
 40
1.0
 40
1.0
 10
30.8493538734
 20
10.8939255852
 30
0.0
 10
30.8488817927
 20
10.8936897019
 30
0.0
 10
30.8470038027
 20
10.8937413635
 30
0.0
 10
30.8432982542
 20
10.8933642678
 30
0.0
 10
30.8372907204
 20
10.8932538833
 30
0.0
 10
30.8291988902
 20
10.8930068253
 30
0.0
 10
30.8190010682
 20
10.8928198024
 30
0.0
 10
30.8068054854
 20
10.8926190502
 30
0.0
 10
30.7926910673
 20
10.8924344719
 30
0.0
 10
30.7767669016
 20
10.8922582565
 30
0.0
 10
30.7591501735
 20
10.8920950306
 30
0.0
 10
30.7399724291
 20
10.8919451428
 30
0.0
 10
30.7193762824
 20
10.8918100943
 30
0.0
 10
30.6975150684
 20
10.8916908527
 30
0.0
 10
30.6745515178
 20
10.891588371
 30
0.0
 10
30.6506565695
 20
10.891503431
 30
0.0
 10
30.6260080259
 20
10.8914366858
 30
0.0
 10
30.6007894267
 20
10.8913886455
 30
0.0
 10
30.5751897591
 20
10.891359676
 30
0.0
 10
30.5580172549
 20
10.891353232
 30
0.0
 10
30.5493995935
 20
10.8913532313
 30
0.0
 11
30.8493538734
 21
10.8939255852
 31
0.0
 11
30.8477868062
 21
10.893700174
 31
0.0
 11
30.8439988288
 21
10.8934767445
 31
0.0
 11
30.8380181613
 21
10.8932569924
 31
0.0
 11
30.8298893714
 21
10.893042558
 31
0.0
 11
30.8196729333
 21
10.8928350357
 31
0.0
 11
30.8074448295
 21
10.8926359693
 31
0.0
 11
30.7932961404
 21
10.8924468419
 31
0.0
 11
30.7773321872
 21
10.8922690609
 31
0.0
 11
30.7596717481
 21
10.8921039492
 31
0.0
 11
30.7404462904
 21
10.8919527359
 31
0.0
 11
30.7197989611
 21
10.8918165467
 31
0.0
 11
30.6978833876
 21
10.8916963948
 31
0.0
 11
30.6748626887
 21
10.8915931745
 31
0.0
 11
30.6509083487
 21
10.8915076545
 31
0.0
 11
30.6261985739
 21
10.8914404706
 31
0.0
 11
30.6009170855
 21
10.8913921226
 31
0.0
 11
30.575252576
 21
10.8913629707
 31
0.0
 11
30.5493995935
 21
10.8913532313
 31
0.0
  0
SPLINE
  5
278
100
AcDbEntity
  8
RACCORDO
100
AcDbSpline
 62
253
  6
CONTINUOUS
 70
0
 71
3
 72
30
 73
26
 74
24
 42
0.0000001
 43
0.0000001
 44
0.0000000001
 12
0.000687644
 22
-0.9579356754
 32
0.0
 13
0.3026884419
 23
-0.9088569404
 33
0.0
 40
0.0
 40
0.0
 40
0.0
 40
0.0
 40
0.0668539054
 40
0.1332604003
 40
0.198941199
 40
0.2636250342
 40
0.3270452992
 40
0.3889407973
 40
0.4490561696
 40
0.5071436439
 40
0.5629637263
 40
0.6162864562
 40
0.6668919201
 40
0.7145716598
 40
0.7591291218
 40
0.8003808509
 40
0.8381569043
 40
0.8723019799
 40
0.9026757924
 40
0.9291539353
 40
0.9516284593
 40
0.9700090247
 40
0.9842240693
 40
0.9942245592
 40
1.0
 40
1.0
 40
1.0
 40
1.0
 10
31.0566836453
 20
-9.483480957
 30
0.0
 10
31.0566989692
 20
-9.504828204
 30
0.0
 10
31.0567533283
 20
-9.5473798214
 30
0.0
 10
31.0569063688
 20
-9.6109039572
 30
0.0
 10
31.0571301087
 20
-9.6737349508
 30
0.0
 10
31.057423613
 20
-9.7356121081
 30
0.0
 10
31.0577856531
 20
-9.7962801905
 30
0.0
 10
31.0582147145
 20
-9.8554890348
 30
0.0
 10
31.0587089988
 20
-9.9129944871
 30
0.0
 10
31.0592664291
 20
-9.9685593165
 30
0.0
 10
31.0598846576
 20
-10.0219543936
 30
0.0
 10
31.0605610706
 20
-10.0729594724
 30
0.0
 10
31.0612927939
 20
-10.1213642016
 30
0.0
 10
31.0620766978
 20
-10.1669688744
 30
0.0
 10
31.0629093906
 20
-10.2095854008
 30
0.0
 10
31.0637872432
 20
-10.2490379341
 30
0.0
 10
31.0647062662
 20
-10.2851637869
 30
0.0
 10
31.0656624225
 20
-10.3178138249
 30
0.0
 10
31.0666504154
 20
-10.3468537919
 30
0.0
 10
31.0676670393
 20
-10.3721629055
 30
0.0
 10
31.0687001132
 20
-10.3936403437
 30
0.0
 10
31.0697585618
 20
-10.4111891269
 30
0.0
 10
31.0707847178
 20
-10.4247637597
 30
0.0
 10
31.0718614748
 20
-10.4342595843
 30
0.0
 10
31.0726277236
 20
-10.4392740296
 30
0.0
 10
31.0732104434
 20
-10.4410237127
 30
0.0
 11
31.0566836453
 21
-9.483480957
 31
0.0
 11
31.0567656305
 21
-9.5475226621
 31
0.0
 11
31.0569192057
 21
-9.6111356436
 31
0.0
 11
31.0571437354
 21
-9.6740532394
 31
0.0
 11
31.0574382936
 21
-9.7360155087
 31
0.0
 11
31.0578016658
 21
-9.7967669719
 31
0.0
 11
31.058232356
 21
-9.8560573288
 31
0.0
 11
31.0587285876
 21
-9.9136418653
 31
0.0
 11
31.0592883154
 21
-9.9692831283
 31
0.0
 11
31.0599092313
 21
-10.0227515853
 31
0.0
 11
31.0605887772
 21
-10.0738268233
 31
0.0
 11
31.0613241497
 21
-10.122298037
 31
0.0
 11
31.0621123184
 21
-10.1679653715
 31
0.0
 11
31.0629500319
 21
-10.2106403436
 31
0.0
 11
31.0638338374
 21
-10.2501469721
 31
0.0
 11
31.064760088
 21
-10.2863221545
 31
0.0
 11
31.0657249657
 21
-10.3190167144
 31
0.0
 11
31.0667244903
 21
-10.3480957073
 31
0.0
 11
31.0677545399
 21
-10.3734391477
 31
0.0
 11
31.068810862
 21
-10.394942372
 31
0.0
 11
31.0698891033
 21
-10.4125167301
 31
0.0
 11
31.0709848165
 21
-10.4260896766
 31
0.0
 11
31.0720934732
 21
-10.4356051374
 31
0.0
 11
31.0732104434
 21
-10.4410237127
 31
0.0
  0
SPLINE
  5
279
100
AcDbEntity
  8
RACCORDO
100
AcDbSpline
 62
253
  6
CONTINUOUS
 70
0
 71
3
 72
14
 73
10
 74
8
 42
0.0000001
 43
0.0000001
 44
0.0000000001
 12
0.0002435655
 22
-20.1774159278
 32
0.0
 13
0.0144829112
 23
-20.1774107315
 33
0.0
 40
0.0
 40
0.0
 40
0.0
 40
0.0
 40
0.1428967959
 40
0.285788411
 40
0.4286699384
 40
0.5715366192
 40
0.7143836949
 40
0.8572064076
 40
1.0
 40
1.0
 40
1.0
 40
1.0
 10
31.0493234507
 20
10.6939332197
 30
0.0
 10
31.0493350523
 20
9.7328371915
 30
0.0
 10
31.0494550332
 20
7.8106799789
 30
0.0
 10
31.0499256133
 20
4.9275294645
 30
0.0
 10
31.0506866501
 20
2.0445815604
 30
0.0
 10
31.0517381544
 20
-0.8380666886
 30
0.0
 10
31.0530800815
 20
-3.7203192411
 30
0.0
 10
31.0547123892
 20
-6.6020800653
 30
0.0
 10
31.0559942897
 20
-8.5230793027
 30
0.0
 10
31.0566836453
 20
-9.483480957
 30
0.0
 11
31.0493234507
 21
10.6939332197
 31
0.0
 11
31.0495034742
 21
7.8106451403
 31
0.0
 11
31.049974045
 21
4.9274616263
 31
0.0
 11
31.050735109
 21
2.0444817199
 31
0.0
 11
31.0517866409
 21
-0.8381985278
 31
0.0
 11
31.0531286056
 21
-3.720483077
 31
0.0
 11
31.0547609586
 21
-6.6022758935
 31
0.0
 11
31.0566836453
 21
-9.483480957
 31
0.0
  0
SPLINE
  5
27A
100
AcDbEntity
  8
RACCORDO
100
AcDbSpline
 62
253
  6
CONTINUOUS
 70
0
 71
3
 72
14
 73
10
 74
8
 42
0.0000001
 43
0.0000001
 44
0.0000000001
 12
0.0144829112
 22
20.1774107315
 32
0.0
 13
0.0002435655
 23
20.1774159278
 33
0.0
 40
0.0
 40
0.0
 40
0.0
 40
0.0
 40
0.1427935924
 40
0.2856163051
 40
0.4284633808
 40
0.5713300616
 40
0.714211589
 40
0.8571032041
 40
1.0
 40
1.0
 40
1.0
 40
1.0
 10
9.0691794867
 20
-9.483480957
 30
0.0
 10
9.0698688423
 20
-8.5230793027
 30
0.0
 10
9.0711507428
 20
-6.6020800653
 30
0.0
 10
9.0727830506
 20
-3.7203192411
 30
0.0
 10
9.0741249776
 20
-0.8380666886
 30
0.0
 10
9.0751764819
 20
2.0445815604
 30
0.0
 10
9.0759375187
 20
4.9275294645
 30
0.0
 10
9.0764080988
 20
7.8106799789
 30
0.0
 10
9.0765280798
 20
9.7328371915
 30
0.0
 10
9.0765396813
 20
10.6939332197
 30
0.0
 11
9.0691794867
 21
-9.483480957
 31
0.0
 11
9.0711021735
 21
-6.6022758935
 31
0.0
 11
9.0727345264
 21
-3.720483077
 31
0.0
 11
9.0740764912
 21
-0.8381985278
 31
0.0
 11
9.0751280231
 21
2.0444817199
 31
0.0
 11
9.075889087
 21
4.9274616263
 31
0.0
 11
9.0763596578
 21
7.8106451403
 31
0.0
 11
9.0765396813
 21
10.6939332197
 31
0.0
  0
SPLINE
  5
27B
100
AcDbEntity
  8
RACCORDO
100
AcDbSpline
 62
253
  6
CONTINUOUS
 70
0
 71
3
 72
30
 73
26
 74
24
 42
0.0000001
 43
0.0000001
 44
0.0000000001
 12
0.3026884418
 22
0.9088569405
 32
0.0
 13
0.000687644
 23
0.9579356754
 33
0.0
 40
0.0
 40
0.0
 40
0.0
 40
0.0
 40
0.0057754408
 40
0.0157759307
 40
0.0299909753
 40
0.0483715407
 40
0.0708460647
 40
0.0973242076
 40
0.1276980201
 40
0.1618430957
 40
0.1996191491
 40
0.2408708782
 40
0.2854283402
 40
0.3331080799
 40
0.3837135437
 40
0.4370362737
 40
0.4928563561
 40
0.5509438303
 40
0.6110592026
 40
0.6729547008
 40
0.7363749658
 40
0.801058801
 40
0.8667395997
 40
0.9331460946
 40
1.0
 40
1.0
 40
1.0
 40
1.0
 10
9.0526526886
 20
-10.4410237127
 30
0.0
 10
9.0532354084
 20
-10.4392740296
 30
0.0
 10
9.0540016572
 20
-10.4342595843
 30
0.0
 10
9.0550784142
 20
-10.4247637597
 30
0.0
 10
9.0561045702
 20
-10.4111891269
 30
0.0
 10
9.0571630188
 20
-10.3936403437
 30
0.0
 10
9.0581960927
 20
-10.3721629055
 30
0.0
 10
9.0592127166
 20
-10.3468537919
 30
0.0
 10
9.0602007096
 20
-10.3178138249
 30
0.0
 10
9.0611568658
 20
-10.2851637869
 30
0.0
 10
9.0620758888
 20
-10.2490379341
 30
0.0
 10
9.0629537414
 20
-10.2095854008
 30
0.0
 10
9.0637864343
 20
-10.1669688745
 30
0.0
 10
9.0645703382
 20
-10.1213642016
 30
0.0
 10
9.0653020614
 20
-10.0729594724
 30
0.0
 10
9.0659784744
 20
-10.0219543936
 30
0.0
 10
9.0665967029
 20
-9.9685593165
 30
0.0
 10
9.0671541333
 20
-9.9129944871
 30
0.0
 10
9.0676484176
 20
-9.8554890348
 30
0.0
 10
9.0680774789
 20
-9.7962801905
 30
0.0
 10
9.0684395191
 20
-9.7356121081
 30
0.0
 10
9.0687330233
 20
-9.6737349508
 30
0.0
 10
9.0689567633
 20
-9.6109039572
 30
0.0
 10
9.0691098037
 20
-9.5473798214
 30
0.0
 10
9.0691641628
 20
-9.504828204
 30
0.0
 10
9.0691794867
 20
-9.483480957
 30
0.0
 11
9.0526526886
 21
-10.4410237127
 31
0.0
 11
9.0537696588
 21
-10.4356051374
 31
0.0
 11
9.0548783156
 21
-10.4260896766
 31
0.0
 11
9.0559740288
 21
-10.4125167301
 31
0.0
 11
9.05705227
 21
-10.394942372
 31
0.0
 11
9.0581085921
 21
-10.3734391477
 31
0.0
 11
9.0591386417
 21
-10.3480957073
 31
0.0
 11
9.0601381663
 21
-10.3190167144
 31
0.0
 11
9.0611030441
 21
-10.2863221545
 31
0.0
 11
9.0620292946
 21
-10.2501469721
 31
0.0
 11
9.0629131001
 21
-10.2106403436
 31
0.0
 11
9.0637508136
 21
-10.1679653716
 31
0.0
 11
9.0645389823
 21
-10.1222980371
 31
0.0
 11
9.0652743548
 21
-10.0738268234
 31
0.0
 11
9.0659539007
 21
-10.0227515853
 31
0.0
 11
9.0665748166
 21
-9.9692831283
 31
0.0
 11
9.0671345444
 21
-9.9136418653
 31
0.0
 11
9.067630776
 21
-9.8560573288
 31
0.0
 11
9.0680614662
 21
-9.796766972
 31
0.0
 11
9.0684248384
 21
-9.7360155087
 31
0.0
 11
9.0687193966
 21
-9.6740532394
 31
0.0
 11
9.0689439264
 21
-9.6111356437
 31
0.0
 11
9.0690975015
 21
-9.5475226621
 31
0.0
 11
9.0691794867
 21
-9.483480957
 31
0.0
  0
SPLINE
  5
27C
100
AcDbEntity
  8
RACCORDO
100
AcDbSpline
 62
253
  6
CONTINUOUS
 70
0
 71
3
 72
25
 73
21
 74
19
 42
0.0000001
 43
0.0000001
 44
0.0000000001
 12
0.000717266
 22
-0.784323681
 32
0.0
 13
0.7843236826
 23
-0.0007155193
 33
0.0
 40
0.0
 40
0.0
 40
0.0
 40
0.0
 40
0.0555078869
 40
0.1110211564
 40
0.1665406009
 40
0.2220668248
 40
0.2776002267
 40
0.3331409874
 40
0.3886890642
 40
0.4442441923
 40
0.4998058933
 40
0.5553734893
 40
0.6109461239
 40
0.6665227879
 40
0.7221023502
 40
0.7776835917
 40
0.8332652426
 40
0.8888460208
 40
0.9444246704
 40
1.0
 40
1.0
 40
1.0
 40
1.0
 10
9.0526526886
 20
-10.4410237127
 30
0.0
 10
9.05266596
 20
-10.4555357628
 30
0.0
 10
9.0539610695
 20
-10.4845760613
 30
0.0
 10
9.0596940493
 20
-10.5277906908
 30
0.0
 10
9.0691738414
 20
-10.570349091
 30
0.0
 10
9.0823283567
 20
-10.6119233833
 30
0.0
 10
9.0990575758
 20
-10.6521986964
 30
0.0
 10
9.1192343048
 20
-10.6908685602
 30
0.0
 10
9.1427051449
 20
-10.7276391107
 30
0.0
 10
9.1692916603
 20
-10.7622308205
 30
0.0
 10
9.1987917348
 20
-10.7943807575
 30
0.0
 10
9.2309811103
 20
-10.8238445461
 30
0.0
 10
9.265615089
 20
-10.8503982328
 30
0.0
 10
9.3024304034
 20
-10.8738399849
 30
0.0
 10
9.3411471811
 20
-10.8939916237
 30
0.0
 10
9.3814712059
 20
-10.9106999777
 30
0.0
 10
9.4230956525
 20
-10.9238380454
 30
0.0
 10
9.4657052859
 20
-10.9333059614
 30
0.0
 10
9.5089718832
 20
-10.9390317495
 30
0.0
 10
9.5380468538
 20
-10.940325225
 30
0.0
 10
9.5525765362
 20
-10.9403384801
 30
0.0
 11
9.0526526886
 21
-10.4410237127
 31
0.0
 11
9.0545926138
 21
-10.4845166391
 31
0.0
 11
9.0603180938
 21
-10.5276789427
 31
0.0
 11
9.0697856048
 21
-10.570182514
 31
0.0
 11
9.0829231772
 21
-10.611704251
 31
0.0
 11
9.0996309422
 21
-10.6519285154
 31
0.0
 11
9.1197818914
 21
-10.6905495319
 31
0.0
 11
9.1432228421
 21
-10.7272737128
 31
0.0
 11
9.1697756019
 21
-10.7618218896
 31
0.0
 11
9.199238323
 21
-10.7939314353
 31
0.0
 11
9.2313870368
 21
-10.8233582609
 31
0.0
 11
9.2659773565
 21
-10.8498786705
 31
0.0
 11
9.3027463348
 21
-10.8732910624
 31
0.0
 11
9.3414144626
 21
-10.8934174612
 31
0.0
 11
9.3816877941
 21
-10.9101048707
 31
0.0
 11
9.4232601811
 21
-10.9232264372
 31
0.0
 11
9.4658156001
 21
-10.9326824138
 31
0.0
 11
9.5090305551
 21
-10.9384009183
 31
0.0
 11
9.5525765362
 21
-10.9403384801
 31
0.0
  0
SPLINE
  5
27D
100
AcDbEntity
  8
RACCORDO
100
AcDbSpline
 62
253
  6
CONTINUOUS
 70
0
 71
3
 72
25
 73
21
 74
19
 42
0.0000001
 43
0.0000001
 44
0.0000000001
 12
0.1958199457
 22
-0.4614628403
 32
0.0
 13
0.5012916068
 23
-0.0003592089
 33
0.0
 40
0.0
 40
0.0
 40
0.0
 40
0.0
 40
0.0062949894
 40
0.0193678562
 40
0.0395493178
 40
0.066784903
 40
0.100908467
 40
0.1416841228
 40
0.1888188372
 40
0.2419685086
 40
0.3007422145
 40
0.3647059501
 40
0.4333863078
 40
0.5062742622
 40
0.5828291199
 40
0.6624826501
 40
0.7446433856
 40
0.8287010766
 40
0.9140312725
 40
1.0
 40
1.0
 40
1.0
 40
1.0
 10
9.0691794867
 20
-9.483480957
 30
0.0
 10
9.0695903815
 20
-9.4844492583
 30
0.0
 10
9.0730573987
 20
-9.4857722076
 30
0.0
 10
9.079117456
 20
-9.4873648773
 30
0.0
 10
9.0892845036
 20
-9.4889886535
 30
0.0
 10
9.102735423
 20
-9.4906248955
 30
0.0
 10
9.1197573424
 20
-9.492224324
 30
0.0
 10
9.1400804852
 20
-9.4937729691
 30
0.0
 10
9.1636087003
 20
-9.4952523261
 30
0.0
 10
9.1901493723
 20
-9.4966497469
 30
0.0
 10
9.2195113286
 20
-9.4979530713
 30
0.0
 10
9.2514743562
 20
-9.4991517519
 30
0.0
 10
9.2858012738
 20
-9.5002362226
 30
0.0
 10
9.3222364998
 20
-9.5011979986
 30
0.0
 10
9.3605089623
 20
-9.5020296243
 30
0.0
 10
9.4003338328
 20
-9.5027247016
 30
0.0
 10
9.4414147375
 20
-9.5032779088
 30
0.0
 10
9.4834459448
 20
-9.5036850255
 30
0.0
 10
9.5261146395
 20
-9.5039429536
 30
0.0
 10
9.5547382004
 20
-9.504014053
 30
0.0
 10
9.5691033343
 20
-9.5040243465
 30
0.0
 11
9.0691794867
 21
-9.483480957
 31
0.0
 11
9.0717913506
 21
-9.4852518729
 31
0.0
 11
9.0781045408
 21
-9.4870096085
 31
0.0
 11
9.0880720701
 21
-9.4887410816
 31
0.0
 11
9.1016197538
 21
-9.4904334052
 31
0.0
 11
9.1186467609
 21
-9.4920739842
 31
0.0
 11
9.139026365
 21
-9.4936506081
 31
0.0
 11
9.1626068878
 21
-9.4951515427
 31
0.0
 11
9.1892128271
 21
-9.4965656171
 31
0.0
 11
9.218646164
 21
-9.4978823067
 31
0.0
 11
9.2506878361
 21
-9.499091812
 31
0.0
 11
9.2850993678
 21
-9.5001851308
 31
0.0
 11
9.3216246457
 21
-9.5011541261
 31
0.0
 11
9.3599918245
 21
-9.501991586
 31
0.0
 11
9.39991535
 21
-9.5026912774
 31
0.0
 11
9.441098085
 21
-9.5032479929
 31
0.0
 11
9.48323352
 21
-9.503657589
 31
0.0
 11
9.5260080553
 21
-9.5039170171
 31
0.0
 11
9.5691033343
 21
-9.5040243465
 31
0.0
  0
SPLINE
  5
27E
100
AcDbEntity
  8
RACCORDO
100
AcDbSpline
 62
253
  6
CONTINUOUS
 70
0
 71
3
 72
14
 73
10
 74
8
 42
0.0000001
 43
0.0000001
 44
0.0000000001
 12
0.0002452032
 22
-20.195245525
 32
0.0
 13
0.0144812132
 23
-20.1952403345
 33
0.0
 40
0.0
 40
0.0
 40
0.0
 40
0.0
 40
0.1428969416
 40
0.2857885515
 40
0.4286700716
 40
0.5715367441
 40
0.7143838118
 40
0.8572065174
 40
1.0
 40
1.0
 40
1.0
 40
1.0
 10
30.5493974862
 20
10.6912215891
 30
0.0
 10
30.5494091658
 20
9.7292753156
 30
0.0
 10
30.5495324215
 20
7.8054186605
 30
0.0
 10
30.5500018714
 20
4.919719579
 30
0.0
 10
30.5507633104
 20
2.0342243232
 30
0.0
 10
30.55181472
 20
-0.8509709946
 30
0.0
 10
30.5531565992
 20
-3.7357702678
 30
0.0
 10
30.5547887595
 20
-6.6200766947
 30
0.0
 10
30.556070522
 20
-8.5427726203
 30
0.0
 10
30.5567597963
 20
-9.5040221865
 30
0.0
 11
30.5493974862
 21
10.6912215891
 31
0.0
 11
30.5495798556
 21
7.8053827744
 31
0.0
 11
30.5500505585
 21
4.9196516675
 31
0.0
 11
30.5508116865
 21
2.0341243881
 31
0.0
 11
30.5518632143
 21
-0.851102949
 31
0.0
 11
30.5532051068
 21
-3.735934242
 31
0.0
 11
30.5548373194
 21
-6.6202733874
 31
0.0
 11
30.5567597963
 21
-9.5040221865
 31
0.0
  0
SPLINE
  5
27F
100
AcDbEntity
  8
RACCORDO
100
AcDbSpline
 62
253
  6
CONTINUOUS
 70
0
 71
3
 72
14
 73
10
 74
8
 42
0.0000001
 43
0.0000001
 44
0.0000000001
 12
0.0144812132
 22
20.1952403345
 32
0.0
 13
0.0002452032
 23
20.195245525
 33
0.0
 40
0.0
 40
0.0
 40
0.0
 40
0.0
 40
0.1427934826
 40
0.2856161882
 40
0.4284632559
 40
0.5713299284
 40
0.7142114485
 40
0.8571030584
 40
1.0
 40
1.0
 40
1.0
 40
1.0
 10
9.5691033357
 20
-9.5040221865
 30
0.0
 10
9.56979261
 20
-8.5427726203
 30
0.0
 10
9.5710743725
 20
-6.6200766947
 30
0.0
 10
9.5727065328
 20
-3.7357702678
 30
0.0
 10
9.574048412
 20
-0.8509709946
 30
0.0
 10
9.5750998216
 20
2.0342243232
 30
0.0
 10
9.5758612607
 20
4.919719579
 30
0.0
 10
9.5763307106
 20
7.8054186605
 30
0.0
 10
9.5764539663
 20
9.7292753156
 30
0.0
 10
9.5764656459
 20
10.6912215891
 30
0.0
 11
9.5691033357
 21
-9.5040221865
 31
0.0
 11
9.5710258126
 21
-6.6202733874
 31
0.0
 11
9.5726580252
 21
-3.735934242
 31
0.0
 11
9.5739999178
 21
-0.851102949
 31
0.0
 11
9.5750514455
 21
2.0341243881
 31
0.0
 11
9.5758125735
 21
4.9196516675
 31
0.0
 11
9.5762832764
 21
7.8053827744
 31
0.0
 11
9.5764656459
 21
10.6912215891
 31
0.0
  0
SPLINE
  5
280
100
AcDbEntity
  8
RACCORDO
100
AcDbSpline
 62
253
  6
CONTINUOUS
 70
0
 71
3
 72
25
 73
21
 74
19
 42
0.0000001
 43
0.0000001
 44
0.0000000001
 12
-0.4999514562
 22
0.0000024705
 32
0.0
 13
-0.4767492927
 23
0.1505376048
 33
0.0
 40
0.0
 40
0.0
 40
0.0
 40
0.0
 40
0.0861969881
 40
0.1717524091
 40
0.256031515
 40
0.3384045658
 40
0.4182593068
 40
0.4950016755
 40
0.5680600643
 40
0.6368907505
 40
0.7009816714
 40
0.7598557866
 40
0.8130749107
 40
0.8602431478
 40
0.9010094925
 40
0.9350704832
 40
0.9621730859
 40
0.9821164272
 40
0.9947534316
 40
1.0
 40
1.0
 40
1.0
 40
1.0
 10
9.5764656459
 20
10.6912215884
 30
0.0
 10
9.562100876
 20
10.6912216594
 30
0.0
 10
9.5334782532
 20
10.6912285879
 30
0.0
 10
9.4908104864
 20
10.6912593181
 30
0.0
 10
9.4487800001
 20
10.6913101365
 30
0.0
 10
9.4076995646
 20
10.6913806538
 30
0.0
 10
9.3678751704
 20
10.6914703323
 30
0.0
 10
9.3296031202
 20
10.6915784795
 30
0.0
 10
9.2931683
 20
10.6917042707
 30
0.0
 10
9.2588419209
 20
10.6918466947
 30
0.0
 10
9.2268794748
 20
10.6920047432
 30
0.0
 10
9.1975187419
 20
10.6921767858
 30
0.0
 10
9.1709785627
 20
10.692362602
 30
0.0
 10
9.1474554669
 20
10.6925568448
 30
0.0
 10
9.1271275903
 20
10.6927691762
 30
0.0
 10
9.1101373405
 20
10.6929638987
 30
0.0
 10
9.0966354979
 20
10.6932302387
 30
0.0
 10
9.0866610023
 20
10.6933320674
 30
0.0
 10
9.0804182702
 20
10.6937561246
 30
0.0
 10
9.0773734473
 20
10.6936699441
 30
0.0
 10
9.0765396813
 20
10.6939332127
 30
0.0
 11
9.5764656459
 21
10.6912215884
 31
0.0
 11
9.5333713374
 21
10.6912320609
 31
0.0
 11
9.4905977913
 21
10.6912629826
 31
0.0
 11
9.4484623606
 21
10.6913141252
 31
0.0
 11
9.4072798951
 21
10.6913851053
 31
0.0
 11
9.3673565031
 21
10.6914753948
 31
0.0
 11
9.3289891987
 21
10.6915843206
 31
0.0
 11
9.2924637708
 21
10.6917110701
 31
0.0
 11
9.2580520687
 21
10.6918546982
 31
0.0
 11
9.2260101162
 21
10.6920141346
 31
0.0
 11
9.1965764312
 21
10.6921881906
 31
0.0
 11
9.1699701124
 21
10.6923755689
 31
0.0
 11
9.1463891258
 21
10.6925748736
 31
0.0
 11
9.1260090117
 21
10.6927846196
 31
0.0
 11
9.1089815733
 21
10.6930032434
 31
0.0
 11
9.0954334703
 21
10.6932291157
 31
0.0
 11
9.0854654543
 21
10.6934605606
 31
0.0
 11
9.0791519479
 21
10.6936958376
 31
0.0
 11
9.0765396813
 21
10.6939332127
 31
0.0
  0
SPLINE
  5
281
100
AcDbEntity
  8
RACCORDO
100
AcDbSpline
 62
253
  6
CONTINUOUS
 70
0
 71
3
 72
30
 73
26
 74
24
 42
0.0000001
 43
0.0000001
 44
0.0000000001
 12
0.3113732278
 22
1.402428659
 32
0.0
 13
0.0006874711
 23
1.4365789077
 33
0.0
 40
0.0
 40
0.0
 40
0.0
 40
0.0
 40
0.0057112417
 40
0.0156767772
 40
0.0298694975
 40
0.0482350824
 40
0.0706996498
 40
0.0971716146
 40
0.1275422763
 40
0.161686729
 40
0.1994643314
 40
0.2407195117
 40
0.285282118
 40
0.3329685169
 40
0.3835819985
 40
0.4369139648
 40
0.4927443727
 40
0.5508431398
 40
0.6109706555
 40
0.6728790345
 40
0.7363128064
 40
0.8010106665
 40
0.866705897
 40
0.9331271275
 40
1.0
 40
1.0
 40
1.0
 40
1.0
 10
9.5525765154
 20
-10.940338574
 30
0.0
 10
9.5531692913
 20
-10.9376687043
 30
0.0
 10
9.5539223965
 20
-10.9301743162
 30
0.0
 10
9.5550058461
 20
-10.9159267055
 30
0.0
 10
9.5560276701
 20
-10.8955807229
 30
0.0
 10
9.5570874754
 20
-10.8692567006
 30
0.0
 10
9.5581199126
 20
-10.8370435472
 30
0.0
 10
9.5591366845
 20
-10.7990804303
 30
0.0
 10
9.5601245895
 20
-10.7555213551
 30
0.0
 10
9.5610807495
 20
-10.7065468099
 30
0.0
 10
9.5619997549
 20
-10.6523585236
 30
0.0
 10
9.5628776013
 20
-10.5931801514
 30
0.0
 10
9.5637102874
 20
-10.5292557703
 30
0.0
 10
9.5644941868
 20
-10.4608491513
 30
0.0
 10
9.5652259065
 20
-10.3882424384
 30
0.0
 10
9.5659023169
 20
-10.311735194
 30
0.0
 10
9.5665205437
 20
-10.2316429462
 30
0.0
 10
9.5670779728
 20
-10.1482960635
 30
0.0
 10
9.5675722567
 20
-10.0620382389
 30
0.0
 10
9.5680013178
 20
-9.9732253168
 30
0.0
 10
9.568363359
 20
-9.8822235255
 30
0.0
 10
9.568656863
 20
-9.7894081083
 30
0.0
 10
9.5688806064
 20
-9.6951619194
 30
0.0
 10
9.569033649
 20
-9.5998740628
 30
0.0
 10
9.5690880117
 20
-9.5360449059
 30
0.0
 10
9.5691033361
 20
-9.5040221865
 30
0.0
 11
9.5525765154
 21
-10.940338574
 31
0.0
 11
9.5536935394
 21
-10.9322103181
 31
0.0
 11
9.5548021834
 21
-10.9179370293
 31
0.0
 11
9.555897898
 21
-10.8975775277
 31
0.0
 11
9.5569761344
 21
-10.8712159546
 31
0.0
 11
9.5580324538
 21
-10.8389611193
 31
0.0
 11
9.5590625
 21
-10.800946001
 31
0.0
 11
9.5600620215
 21
-10.7573275947
 31
0.0
 11
9.5610268961
 21
-10.7082858792
 31
0.0
 11
9.5619531436
 21
-10.654023271
 31
0.0
 11
9.5628369463
 21
-10.5947635326
 31
0.0
 11
9.5636746574
 21
-10.5307513062
 31
0.0
 11
9.564462824
 21
-10.4622505577
 31
0.0
 11
9.5651981949
 21
-10.389544008
 31
0.0
 11
9.5658777396
 21
-10.3129314351
 31
0.0
 11
9.5664986547
 21
-10.2327290429
 31
0.0
 11
9.567058382
 21
-10.1492674469
 31
0.0
 11
9.5675546137
 21
-10.0628909416
 31
0.0
 11
9.5679853043
 21
-9.9739557027
 31
0.0
 11
9.5683486775
 21
-9.882828798
 31
0.0
 11
9.5686432365
 21
-9.789885673
 31
0.0
 11
9.5688677686
 21
-9.6955095468
 31
0.0
 11
9.5690213447
 21
-9.6000903207
 31
0.0
 11
9.5691033361
 21
-9.5040221865
 31
0.0
  0
SPLINE
  5
282
100
AcDbEntity
  8
RACCORDO
100
AcDbSpline
 62
253
  6
CONTINUOUS
 70
0
 71
3
 72
30
 73
26
 74
24
 42
0.0000001
 43
0.0000001
 44
0.0000000001
 12
0.0006874711
 22
-1.4365789077
 32
0.0
 13
0.3113732277
 23
-1.4024286591
 33
0.0
 40
0.0
 40
0.0
 40
0.0
 40
0.0
 40
0.0668728725
 40
0.133294103
 40
0.1989893335
 40
0.2636871936
 40
0.3271209655
 40
0.3890293445
 40
0.4491568602
 40
0.5072556273
 40
0.5630860352
 40
0.6164180015
 40
0.6670314831
 40
0.714717882
 40
0.7592804883
 40
0.8005356686
 40
0.838313271
 40
0.8724577237
 40
0.9028283854
 40
0.9293003502
 40
0.9517649176
 40
0.9701305024
 40
0.9843232228
 40
0.9942887583
 40
1.0
 40
1.0
 40
1.0
 40
1.0
 10
30.5567597959
 20
-9.5040221865
 30
0.0
 10
30.5567751203
 20
-9.5360449059
 30
0.0
 10
30.556829483
 20
-9.5998740628
 30
0.0
 10
30.5569825256
 20
-9.6951619193
 30
0.0
 10
30.557206269
 20
-9.7894081083
 30
0.0
 10
30.557499773
 20
-9.8822235255
 30
0.0
 10
30.5578618143
 20
-9.9732253168
 30
0.0
 10
30.5582908754
 20
-10.0620382389
 30
0.0
 10
30.5587851592
 20
-10.1482960635
 30
0.0
 10
30.5593425883
 20
-10.2316429462
 30
0.0
 10
30.5599608151
 20
-10.311735194
 30
0.0
 10
30.5606372255
 20
-10.3882424384
 30
0.0
 10
30.5613689452
 20
-10.4608491513
 30
0.0
 10
30.5621528446
 20
-10.5292557703
 30
0.0
 10
30.5629855307
 20
-10.5931801513
 30
0.0
 10
30.5638633771
 20
-10.6523585236
 30
0.0
 10
30.5647823825
 20
-10.7065468099
 30
0.0
 10
30.5657385425
 20
-10.7555213551
 30
0.0
 10
30.5667264475
 20
-10.7990804303
 30
0.0
 10
30.5677432194
 20
-10.8370435472
 30
0.0
 10
30.5687756567
 20
-10.8692567006
 30
0.0
 10
30.569835462
 20
-10.8955807229
 30
0.0
 10
30.5708572859
 20
-10.9159267055
 30
0.0
 10
30.5719407356
 20
-10.9301743162
 30
0.0
 10
30.5726938407
 20
-10.9376687043
 30
0.0
 10
30.5732866166
 20
-10.940338574
 30
0.0
 11
30.5567597959
 21
-9.5040221865
 31
0.0
 11
30.5568417873
 21
-9.6000903207
 31
0.0
 11
30.5569953635
 21
-9.6955095468
 31
0.0
 11
30.5572198955
 21
-9.789885673
 31
0.0
 11
30.5575144545
 21
-9.882828798
 31
0.0
 11
30.5578778278
 21
-9.9739557027
 31
0.0
 11
30.5583085183
 21
-10.0628909416
 31
0.0
 11
30.55880475
 21
-10.1492674469
 31
0.0
 11
30.5593644773
 21
-10.2327290429
 31
0.0
 11
30.5599853925
 21
-10.3129314351
 31
0.0
 11
30.5606649371
 21
-10.389544008
 31
0.0
 11
30.561400308
 21
-10.4622505577
 31
0.0
 11
30.5621884747
 21
-10.5307513062
 31
0.0
 11
30.5630261857
 21
-10.5947635326
 31
0.0
 11
30.5639099884
 21
-10.654023271
 31
0.0
 11
30.564836236
 21
-10.7082858792
 31
0.0
 11
30.5658011105
 21
-10.7573275947
 31
0.0
 11
30.5668006321
 21
-10.800946001
 31
0.0
 11
30.5678306782
 21
-10.8389611193
 31
0.0
 11
30.5688869976
 21
-10.8712159545
 31
0.0
 11
30.569965234
 21
-10.8975775277
 31
0.0
 11
30.5710609486
 21
-10.9179370293
 31
0.0
 11
30.5721695927
 21
-10.9322103181
 31
0.0
 11
30.5732866166
 21
-10.940338574
 31
0.0
  0
SPLINE
  5
283
100
AcDbEntity
  8
RACCORDO
100
AcDbSpline
 62
253
  6
CONTINUOUS
 70
0
 71
3
 72
25
 73
21
 74
19
 42
0.0000001
 43
0.0000001
 44
0.0000000001
 12
-0.4767492926
 22
-0.1505376049
 32
0.0
 13
-0.4999514562
 23
-0.0000024705
 33
0.0
 40
0.0
 40
0.0
 40
0.0
 40
0.0
 40
0.0052465684
 40
0.0178835728
 40
0.0378269141
 40
0.0649295168
 40
0.0989905075
 40
0.1397568522
 40
0.1869250893
 40
0.2401442133
 40
0.2990183286
 40
0.3631092494
 40
0.4319399357
 40
0.5049983244
 40
0.5817406932
 40
0.6615954341
 40
0.743968485
 40
0.8282475909
 40
0.9138030119
 40
1.0
 40
1.0
 40
1.0
 40
1.0
 10
31.0493234507
 20
10.6939332127
 30
0.0
 10
31.0484896848
 20
10.6936699441
 30
0.0
 10
31.0454448618
 20
10.6937561246
 30
0.0
 10
31.0392021297
 20
10.6933320674
 30
0.0
 10
31.0292276341
 20
10.6932302387
 30
0.0
 10
31.0157257916
 20
10.6929638987
 30
0.0
 10
30.9987355418
 20
10.6927691762
 30
0.0
 10
30.9784076651
 20
10.6925568448
 30
0.0
 10
30.9548845694
 20
10.692362602
 30
0.0
 10
30.9283443901
 20
10.6921767858
 30
0.0
 10
30.8989836573
 20
10.6920047432
 30
0.0
 10
30.8670212111
 20
10.6918466947
 30
0.0
 10
30.832694832
 20
10.6917042707
 30
0.0
 10
30.7962600118
 20
10.6915784795
 30
0.0
 10
30.7579879616
 20
10.6914703323
 30
0.0
 10
30.7181635674
 20
10.6913806538
 30
0.0
 10
30.6770831319
 20
10.6913101365
 30
0.0
 10
30.6350526456
 20
10.6912593181
 30
0.0
 10
30.5923848789
 20
10.6912285879
 30
0.0
 10
30.5637622561
 20
10.6912216594
 30
0.0
 10
30.5493974862
 20
10.6912215884
 30
0.0
 11
31.0493234507
 21
10.6939332127
 31
0.0
 11
31.0467111841
 21
10.6936958376
 31
0.0
 11
31.0403976777
 21
10.6934605606
 31
0.0
 11
31.0304296617
 21
10.6932291157
 31
0.0
 11
31.0168815587
 21
10.6930032434
 31
0.0
 11
30.9998541203
 21
10.6927846196
 31
0.0
 11
30.9794740062
 21
10.6925748736
 31
0.0
 11
30.9558930196
 21
10.6923755689
 31
0.0
 11
30.9292867009
 21
10.6921881906
 31
0.0
 11
30.8998530158
 21
10.6920141346
 31
0.0
 11
30.8678110633
 21
10.6918546982
 31
0.0
 11
30.8333993612
 21
10.6917110701
 31
0.0
 11
30.7968739333
 21
10.6915843206
 31
0.0
 11
30.7585066289
 21
10.6914753948
 31
0.0
 11
30.718583237
 21
10.6913851053
 31
0.0
 11
30.6774007714
 21
10.6913141252
 31
0.0
 11
30.6352653408
 21
10.6912629826
 31
0.0
 11
30.5924917946
 21
10.6912320609
 31
0.0
 11
30.5493974862
 21
10.6912215884
 31
0.0
  0
SPLINE
  5
284
100
AcDbEntity
  8
RACCORDO
100
AcDbSpline
 62
253
  6
CONTINUOUS
 70
0
 71
3
 72
21
 73
17
 74
15
 42
0.0000001
 43
0.0000001
 44
0.0000000001
 12
-0.0017455179
 22
0.2000774649
 32
0.0
 13
0.2000774603
 23
0.0017460495
 33
0.0
 40
0.0
 40
0.0
 40
0.0
 40
0.0
 40
0.1119051635
 40
0.2224018458
 40
0.3301012055
 40
0.4336496086
 40
0.5317456731
 40
0.6231566677
 40
0.7067340676
 40
0.7814280913
 40
0.8463010785
 40
0.90053965
 40
0.9434658204
 40
0.9745481468
 40
0.9934196193
 40
1.0
 40
1.0
 40
1.0
 40
1.0
 10
-10.9255397544
 20
10.6939332006
 30
0.0
 10
-10.9256048652
 20
10.7013964344
 30
0.0
 10
-10.9257198222
 20
10.7162290957
 30
0.0
 10
-10.9258470356
 20
10.7382448571
 30
0.0
 10
-10.9259270767
 20
10.7597034557
 30
0.0
 10
-10.9259590608
 20
10.780335222
 30
0.0
 10
-10.9259424645
 20
10.7998803077
 30
0.0
 10
-10.9258783787
 20
10.8180944988
 30
0.0
 10
-10.9257654244
 20
10.8347437864
 30
0.0
 10
-10.9256131419
 20
10.8496349075
 30
0.0
 10
-10.9254002864
 20
10.8625313131
 30
0.0
 10
-10.9252005672
 20
10.8734156927
 30
0.0
 10
-10.9248279943
 20
10.88175542
 30
0.0
 10
-10.9247659864
 20
10.8884263449
 30
0.0
 10
-10.9240546532
 20
10.8913239251
 30
0.0
 10
-10.9242334421
 20
10.8939217553
 30
0.0
 10
-10.9237945802
 20
10.8939255852
 30
0.0
 11
-10.9255397544
 21
10.6939332006
 31
0.0
 11
-10.9257131452
 21
10.7163230827
 31
0.0
 11
-10.9258404697
 21
10.7384314535
 31
0.0
 11
-10.9259201269
 21
10.7599803411
 31
0.0
 11
-10.9259511153
 21
10.7806988084
 31
0.0
 11
-10.9259330453
 21
10.8003263588
 31
0.0
 11
-10.925866144
 21
10.8186162126
 31
0.0
 11
-10.9257512527
 21
10.8353384085
 31
0.0
 11
-10.9255898158
 21
10.8502826962
 31
0.0
 11
-10.9253838632
 21
10.863261179
 31
0.0
 11
-10.9251359843
 21
10.8741106766
 31
0.0
 11
-10.9248492957
 21
10.8826947767
 31
0.0
 11
-10.9245274021
 21
10.8889055505
 31
0.0
 11
-10.9241743506
 21
10.8926649089
 31
0.0
 11
-10.9237945802
 21
10.8939255852
 31
0.0
  0
LINE
  5
285
100
AcDbEntity
  8
RACCORDO
100
AcDbLine
 62
253
  6
CONTINUOUS
 10
-10.9255375619
 20
10.6939332127
 11
-11.4168117899
 21
10.6912215884
  0
SPLINE
  5
286
100
AcDbEntity
  8
RACCORDO
100
AcDbSpline
 62
253
  6
CONTINUOUS
 70
0
 71
3
 72
25
 73
21
 74
19
 42
0.0000001
 43
0.0000001
 44
0.0000000001
 12
-0.0261520944
 22
-0.4991637263
 32
0.0
 13
0.4991633099
 23
-0.0261600406
 33
0.0
 40
0.0
 40
0.0
 40
0.0
 40
0.0
 40
0.0871281388
 40
0.1735872093
 40
0.2587201775
 40
0.3418800998
 40
0.4224350473
 40
0.499772917
 40
0.5733060948
 40
0.6424759367
 40
0.7067570364
 40
0.7656612515
 40
0.8187414672
 40
0.8655950871
 40
0.9058672674
 40
0.9392539774
 40
0.9655051829
 40
0.9844293395
 40
0.9959059158
 40
1.0
 40
1.0
 40
1.0
 40
1.0
 10
-9.5570526674
 20
-10.4410237127
 30
0.0
 10
-9.5578121951
 20
-10.4555207815
 30
0.0
 10
-9.5593035371
 20
-10.4844047455
 30
0.0
 10
-9.5614605456
 20
-10.5274577113
 30
0.0
 10
-9.5635182367
 20
-10.5698536045
 30
0.0
 10
-9.5654610002
 20
-10.6112701431
 30
0.0
 10
-9.5672741132
 20
-10.6513924852
 30
0.0
 10
-9.5689438682
 20
-10.6899156489
 30
0.0
 10
-9.5704576449
 20
-10.7265467317
 30
0.0
 10
-9.5718041573
 20
-10.761007483
 30
0.0
 10
-9.5729730863
 20
-10.7930352473
 30
0.0
 10
-9.5739567698
 20
-10.8223888724
 30
0.0
 10
-9.5747451807
 20
-10.8488377991
 30
0.0
 10
-9.5753424697
 20
-10.8722043539
 30
0.0
 10
-9.5757168295
 20
-10.8922402916
 30
0.0
 10
-9.5759502557
 20
-10.9089980555
 30
0.0
 10
-9.5758223976
 20
-10.9217968057
 30
0.0
 10
-9.5758950548
 20
-10.9319024385
 30
0.0
 10
-9.5750696586
 20
-10.9364494344
 30
0.0
 10
-9.5751756478
 20
-10.9403027796
 30
0.0
 10
-9.5744944423
 20
-10.9403384801
 30
0.0
 11
-9.5570526674
 21
-10.4410237127
 31
0.0
 11
-9.5592981735
 21
-10.4845166395
 31
0.0
 11
-9.5614602754
 21
-10.5276789435
 31
0.0
 11
-9.5635225372
 21
-10.570182515
 31
0.0
 11
-9.5654692821
 21
-10.6117042523
 31
0.0
 11
-9.5672857113
 21
-10.6519285168
 31
0.0
 11
-9.5689580169
 21
-10.6905495333
 31
0.0
 11
-9.5704734863
 21
-10.7272737142
 31
0.0
 11
-9.5718205994
 21
-10.761821891
 31
0.0
 11
-9.5729891157
 21
-10.7939314366
 31
0.0
 11
-9.5739701524
 21
-10.823358262
 31
0.0
 11
-9.5747562518
 21
-10.8498786714
 31
0.0
 11
-9.5753414384
 21
-10.8732910631
 31
0.0
 11
-9.5757212636
 21
-10.8934174617
 31
0.0
 11
-9.57589284
 21
-10.910104871
 31
0.0
 11
-9.5758548635
 21
-10.9232264374
 31
0.0
 11
-9.5756076226
 21
-10.9326824139
 31
0.0
 11
-9.5751529969
 21
-10.9384009184
 31
0.0
 11
-9.5744944423
 21
-10.9403384801
 31
0.0
  0
ELLIPSE
  5
287
100
AcDbEntity
  8
RACCORDO
100
AcDbEllipse
 62
7
  6
CONTINUOUS
 10
9.46300773
 20
-10.7099486491
 30
0.0
 11
0.1582391023
 21
0.4751033573
 31
0.0
 40
0.9984778551
 41
-4.3904252414
 42
-2.8205423031
  0
ELLIPSE
  5
288
100
AcDbEntity
  8
RACCORDO
100
AcDbEllipse
 62
7
  6
CONTINUOUS
 10
24.0284016198
 20
-11.0900969298
 30
0.0
 11
0.2
 21
0.0
 31
0.0
 40
0.0524077793
 41
1.5707963268
 42
2.617993878
  0
ELLIPSE
  5
289
100
AcDbEntity
  8
RACCORDO
100
AcDbEllipse
 62
7
  6
CONTINUOUS
 10
30.662855402
 20
-10.7099486491
 30
0.0
 11
-0.1582391023
 21
0.4751033573
 31
0.0
 40
0.9984778551
 41
-3.4626430041
 42
-1.8927600658
  0
ELLIPSE
  5
28A
100
AcDbEntity
  8
RACCORDO
100
AcDbEllipse
 62
7
  6
CONTINUOUS
 10
27.2974615122
 20
-11.0900969298
 30
0.0
 11
0.2
 21
0.0
 31
0.0
 40
0.0524077793
 41
0.5235987756
 42
1.5707963268
  0
ELLIPSE
  5
28B
100
AcDbEntity
  8
RACCORDO
100
AcDbEllipse
 62
7
  6
CONTINUOUS
 10
16.0974615122
 20
-11.0900969298
 30
0.0
 11
0.2
 21
-0.0
 31
0.0
 40
0.0524077793
 41
0.5235987756
 42
1.5707963268
  0
ELLIPSE
  5
28C
100
AcDbEntity
  8
RACCORDO
100
AcDbEllipse
 62
7
  6
CONTINUOUS
 10
12.8284016198
 20
-11.0900969298
 30
0.0
 11
0.2
 21
0.0
 31
0.0
 40
0.0524077793
 41
1.5707963268
 42
2.617993878
  0
ELLIPSE
  5
28D
100
AcDbEntity
  8
RACCORDO
100
AcDbEllipse
 62
7
  6
CONTINUOUS
 10
30.9227544511
 20
10.7306306944
 30
0.0
 11
0.1789222233
 21
0.0894542984
 31
0.0
 40
0.9998096356
 41
-0.4635410001
 42
1.1071030277
  0
ELLIPSE
  5
28E
100
AcDbEntity
  8
RACCORDO
100
AcDbEllipse
 62
7
  6
CONTINUOUS
 10
9.203108681
 20
10.7306306944
 30
0.0
 11
0.1789222233
 21
-0.0894542985
 31
0.0
 40
0.9998096356
 41
2.034489626
 42
3.6051336537
  0
ENDSEC
  0
SECTION
  2
OBJECTS
  0
DICTIONARY
  5
C
100
AcDbDictionary
280
0
281
1
  3
ACAD_GROUP
350
D
  3
ACAD_MLINESTYLE
350
17
  3
ACAD_LAYOUT
350
1A
  3
ACAD_PLOTSETTINGS
350
19
  3
ACAD_PLOTSTYLENAME
350
E
  0
DICTIONARY
  5
D
102
{ACAD_REACTORS
330
C
102
}
100
AcDbDictionary
280
0
281
1
  0
ACDBDICTIONARYWDFLT
  5
E
102
{ACAD_REACTORS
330
C
102
}
100
AcDbDictionary
281
1
  3
Normal
350
F
100
AcDbDictionaryWithDefault
340
F
  0
DICTIONARY
  5
17
102
{ACAD_REACTORS
330
C
102
}
100
AcDbDictionary
280
0
281
1
  3
Standard
350
18
  0
DICTIONARY
  5
19
102
{ACAD_REACTORS
330
C
102
}
100
AcDbDictionary
281
1
  0
DICTIONARY
  5
1A
102
{ACAD_REACTORS
330
C
102
}
100
AcDbDictionary
281
1
  3
Model
350
28F
  3
Layout1
350
290
  0
ACDBPLACEHOLDER
  5
F
102
{ACAD_REACTORS
330
E
102
}
  0
MLINESTYLE
  5
18
102
{ACAD_REACTORS
330
17
102
}
100
AcDbMlineStyle
  2
STANDARD
 70
0
  3

 62
256
 51
90.0
 52
90.0
 71
2
 49
0.5
 62
256
  6
BYLAYER
 49
-0.5
 62
256
  6
BYLAYER
  0
LAYOUT
  5
28F
102
{ACAD_REACTORS
330
1A
102
}
100
AcDbPlotSettings
  1

  2
none_device
  4
ISO_A4_(297.00_x_210.00_MM)
  6

 40
0.0
 41
0.0
 42
0.0
 43
0.0
 44
297.0
 45
210.0
 46
0.0
 47
0.0
 48
0.0
 49
0.0
140
0.0
141
0.0
142
1.0
143
1.0
 70
1024
 72
1
 73
0
 74
0
  7

 75
0
147
1.0
148
0.0
149
0.0
100
AcDbLayout
  1
Model
 70
0
 71
0
 10
0.0
 20
0.0
 11
297.0
 21
210.0
 12
0.0
 22
0.0
 32
0.0
 14
0.0
 24
0.0
 34
0.0
 15
0.0
 25
0.0
 35
0.0
146
0.0
 13
0.0
 23
0.0
 33
0.0
 16
1.0
 26
0.0
 36
0.0
 17
0.0
 27
1.0
 37
0.0
 76
0
330
210
345
0
346
0
  0
LAYOUT
  5
290
102
{ACAD_REACTORS
330
1A
102
}
100
AcDbPlotSettings
  1

  2
none_device
  4
ISO_A4_(297.00_x_210.00_MM)
  6

 40
0.0
 41
0.0
 42
0.0
 43
0.0
 44
297.0
 45
210.0
 46
0.0
 47
0.0
 48
0.0
 49
0.0
140
0.0
141
0.0
142
1.0
143
1.0
 70
0
 72
1
 73
0
 74
0
  7

 75
0
147
1.0
148
0.0
149
0.0
100
AcDbLayout
  1
Layout1
 70
0
 71
1
 10
0.0
 20
0.0
 11
297.0
 21
210.0
 12
0.0
 22
0.0
 32
0.0
 14
0.0
 24
0.0
 34
0.0
 15
0.0
 25
0.0
 35
0.0
146
0.0
 13
0.0
 23
0.0
 33
0.0
 16
1.0
 26
0.0
 36
0.0
 17
0.0
 27
1.0
 37
0.0
 76
0
330
211
345
0
346
0
  0
ENDSEC
  0
EOF
