  0
SECTION
  2
HEADER
  9
$ACADVER
  1
AC1015
  9
$DWGCODEPAGE
  3
ANSI_1252
  9
$EXTMAX
 10
297.0
 20
210.0
 30
0.0
  9
$EXTMIN
 10
0.0
 20
0.0
 30
0.0
  9
$LIMMIN
 10
0.0
 20
0.0
  9
$LIMMAX
 10
297.0
 20
210.0
  9
$VIEWCTR
 10
148.5
 20
105.0
  9
$VIEWSIZE
 40
210.0
  9
$CLAYER
  8
0
  9
$LTSCALE
 40
16.335
  9
$CELTYPE
  6
BYLAYER
  9
$DIMSCALE
 40
1.0
  9
$DIMASZ
 40
3.0
  9
$DIMEXO
 40
1.85625
  9
$DIMDLI
 40
11.286
  9
$DIMEXE
 40
5.346
  9
$DIMCEN
 40
2.673
  9
$DIMLFAC
 40
1.0
  9
$DIMBLK
  1
_FILLED
  9
$DIMTXT
 40
3.0
  9
$DIMTOL
 70
1
  9
$DIMLIM
 70
0
  9
$DIMTFAC
 40
1.0
  9
$DIMTP
 40
0.01
  9
$DIMTM
 40
0.01
  9
$PDMODE
 70
3
  9
$PDSIZE
 40
3.0
  9
$HANDSEED
  5
29B
  9
$TILEMODE
 70
1
  9
$MEASUREMENT
 70
1
  9
$INSUNITS
 70
4
  0
ENDSEC
  0
SECTION
  2
CLASSES
  0
CLASS
  1
ACDBDICTIONARYWDFLT
  2
AcDbDictionaryWithDefault
  3
AutoCAD 2000
 90
0
280
0
281
0
  0
CLASS
  1
ACDBPLACEHOLDER
  2
AcDbPlaceHolder
  3
AutoCAD 2000
 90
0
280
0
281
0
  0
CLASS
  1
LAYOUT
  2
AcDbLayout
  3
AutoCAD 2000
 90
0
280
0
281
0
  0
ENDSEC
  0
SECTION
  2
TABLES
  0
TABLE
  2
VPORT
  5
8
100
AcDbSymbolTable
 70
2
  0
VPORT
  5
1F4
100
AcDbSymbolTableRecord
100
AcDbViewportTableRecord
  2
*ACTIVE
 70
0
 10
0.0
 20
0.0
 11
1.0
 21
1.0
 12
148.5
 22
105.0
 13
0.0
 23
0.0
 14
1.0
 24
1.0
 15
0.0
 25
0.0
 16
0.0
 26
0.0
 36
1.0
 17
0.0
 27
0.0
 37
0.0
 40
210.0
 41
1.4142857143
 42
50.0
 43
0.0
 44
0.0
 50
0.0
 51
0.0
 71
0
 72
100
 73
1
 74
1
 75
0
 76
0
 77
0
 78
0
  0
ENDTAB
  0
TABLE
  2
LTYPE
  5
5
100
AcDbSymbolTable
 70
6
  0
LTYPE
  5
14
100
AcDbSymbolTableRecord
100
AcDbLinetypeTableRecord
  2
BYBLOCK
 70
0
  3

 72
65
 73
0
 40
0.0
  0
LTYPE
  5
15
100
AcDbSymbolTableRecord
100
AcDbLinetypeTableRecord
  2
BYLAYER
 70
0
  3

 72
65
 73
0
 40
0.0
  0
LTYPE
  5
16
100
AcDbSymbolTableRecord
100
AcDbLinetypeTableRecord
  2
CONTINUOUS
 70
64
  3
Solid line
 72
65
 73
0
 40
0.0
  0
LTYPE
  5
1F5
100
AcDbSymbolTableRecord
100
AcDbLinetypeTableRecord
  2
CENTER
 70
64
  3
____ _ ____ _ ____ _ ____ _ ____ _ ____ _ ____
 72
65
 73
4
 40
0.6
 49
0.375
 74
0
 49
-0.075
 74
0
 49
0.075
 74
0
 49
-0.075
 74
0
  0
LTYPE
  5
1F6
100
AcDbSymbolTableRecord
100
AcDbLinetypeTableRecord
  2
HIDDEN
 70
64
  3
- - - - - - - - - - - - - - - - - - - -
 72
65
 73
2
 40
0.2
 49
0.1
 74
0
 49
-0.1
 74
0
  0
LTYPE
  5
1F7
100
AcDbSymbolTableRecord
100
AcDbLinetypeTableRecord
  2
PHANTOM
 70
64
  3
_____ _ _ _____ _ _ _____ _ _ _____
 72
65
 73
6
 40
0.8
 49
0.45
 74
0
 49
-0.05
 74
0
 49
0.1
 74
0
 49
-0.05
 74
0
 49
0.1
 74
0
 49
-0.05
 74
0
  0
LTYPE
  5
1F8
100
AcDbSymbolTableRecord
100
AcDbLinetypeTableRecord
  2
DOT
 70
64
  3
. . . . . . . . . . . . . . . . . . . .
 72
65
 73
2
 40
0.2
 49
0.1
 74
0
 49
-0.1
 74
0
  0
LTYPE
  5
1F9
100
AcDbSymbolTableRecord
100
AcDbLinetypeTableRecord
  2
DASHED
 70
64
  3
- - - - - - - - - - - - - - - - - - - -
 72
65
 73
2
 40
0.2
 49
0.1
 74
0
 49
-0.1
 74
0
  0
ENDTAB
  0
TABLE
  2
LAYER
  5
2
100
AcDbSymbolTable
 70
36
  0
LAYER
  5
10
100
AcDbSymbolTableRecord
100
AcDbLayerTableRecord
  2
0
 70
0
 62
7
  6
CONTINUOUS
370
-3
390
F
  0
LAYER
  5
1FA
100
AcDbSymbolTableRecord
100
AcDbLayerTableRecord
  2
DEFAULT_1
 70
0
 62
7
  6
CENTER
370
-3
390
F
  0
LAYER
  5
1FB
100
AcDbSymbolTableRecord
100
AcDbLayerTableRecord
  2
DEFAULT_2
 70
0
 62
7
  6
HIDDEN
370
-3
390
F
  0
LAYER
  5
1FC
100
AcDbSymbolTableRecord
100
AcDbLayerTableRecord
  2
DEFAULT_3
 70
0
 62
7
  6
PHANTOM
370
-3
390
F
  0
LAYER
  5
1FD
100
AcDbSymbolTableRecord
100
AcDbLayerTableRecord
  2
ASSI
 70
0
 62
7
  6
CONTINUOUS
370
-3
390
F
  0
LAYER
  5
1FE
100
AcDbSymbolTableRecord
100
AcDbLayerTableRecord
  2
COLORE_MATERIALE
 70
0
 62
7
  6
CONTINUOUS
370
-3
390
F
  0
LAYER
  5
1FF
100
AcDbSymbolTableRecord
100
AcDbLayerTableRecord
  2
COORDINATE
 70
0
 62
7
  6
CONTINUOUS
370
-3
390
F
  0
LAYER
  5
200
100
AcDbSymbolTableRecord
100
AcDbLayerTableRecord
  2
COORD_ORIGINE
 70
0
 62
7
  6
CONTINUOUS
370
-3
390
F
  0
LAYER
  5
201
100
AcDbSymbolTableRecord
100
AcDbLayerTableRecord
  2
COPY
 70
0
 62
7
  6
CONTINUOUS
370
-3
390
F
  0
LAYER
  5
202
100
AcDbSymbolTableRecord
100
AcDbLayerTableRecord
  2
CURVE
 70
0
 62
7
  6
CONTINUOUS
370
-3
390
F
  0
LAYER
  5
203
100
AcDbSymbolTableRecord
100
AcDbLayerTableRecord
  2
DRAFT
 70
0
 62
7
  6
CONTINUOUS
370
-3
390
F
  0
LAYER
  5
204
100
AcDbSymbolTableRecord
100
AcDbLayerTableRecord
  2
IGS
 70
0
 62
7
  6
CONTINUOUS
370
-3
390
F
  0
LAYER
  5
205
100
AcDbSymbolTableRecord
100
AcDbLayerTableRecord
  2
PIANI
 70
0
 62
7
  6
CONTINUOUS
370
-3
390
F
  0
LAYER
  5
206
100
AcDbSymbolTableRecord
100
AcDbLayerTableRecord
  2
PIANI_ORIGINE
 70
0
 62
7
  6
CONTINUOUS
370
-3
390
F
  0
LAYER
  5
207
100
AcDbSymbolTableRecord
100
AcDbLayerTableRecord
  2
PIANI_RIFERIMENTO
 70
0
 62
7
  6
CONTINUOUS
370
-3
390
F
  0
LAYER
  5
208
100
AcDbSymbolTableRecord
100
AcDbLayerTableRecord
  2
RACCORDO
 70
0
 62
7
  6
CONTINUOUS
370
-3
390
F
  0
LAYER
  5
209
100
AcDbSymbolTableRecord
100
AcDbLayerTableRecord
  2
SMUSSO
 70
0
 62
7
  6
CONTINUOUS
370
-3
390
F
  0
LAYER
  5
20A
100
AcDbSymbolTableRecord
100
AcDbLayerTableRecord
  2
SNAPLINE
 70
0
 62
7
  6
CONTINUOUS
370
-3
390
F
  0
LAYER
  5
20B
100
AcDbSymbolTableRecord
100
AcDbLayerTableRecord
  2
SUPERFICI
 70
0
 62
7
  6
CONTINUOUS
370
-3
390
F
  0
LAYER
  5
20C
100
AcDbSymbolTableRecord
100
AcDbLayerTableRecord
  2
TRASH
 70
0
 62
7
  6
CONTINUOUS
370
-3
390
F
  0
ENDTAB
  0
TABLE
  2
STYLE
  5
3
100
AcDbSymbolTable
 70
1
  0
STYLE
  5
11
100
AcDbSymbolTableRecord
100
AcDbTextStyleTableRecord
  2
STANDARD
 70
0
 40
0.0
 41
0.8
 50
0.0
 71
0
 42
0.2
  3
txt
  4

  0
STYLE
  5
20D
100
AcDbSymbolTableRecord
100
AcDbTextStyleTableRecord
  2
TEXTSTYLE_1
 70
0
 40
0.0
 41
0.8
 50
0.0
 71
0
 42
0.2
  3
gdt
  4

  0
ENDTAB
  0
TABLE
  2
VIEW
  5
6
100
AcDbSymbolTable
 70
0
  0
ENDTAB
  0
TABLE
  2
UCS
  5
7
100
AcDbSymbolTable
 70
0
  0
ENDTAB
  0
TABLE
  2
APPID
  5
9
100
AcDbSymbolTable
 70
1
  0
APPID
  5
20E
100
AcDbSymbolTableRecord
100
AcDbRegAppTableRecord
  2
ACAD
 70
0
  0
ENDTAB
  0
TABLE
  2
BLOCK_RECORD
  5
1
100
AcDbSymbolTable
 70
0
  0
BLOCK_RECORD
  5
20F
100
AcDbSymbolTableRecord
100
AcDbBlockTableRecord
  2
*Model_Space
  0
BLOCK_RECORD
  5
210
100
AcDbSymbolTableRecord
100
AcDbBlockTableRecord
  2
*Paper_Space
  0
BLOCK_RECORD
  5
211
100
AcDbSymbolTableRecord
100
AcDbBlockTableRecord
  2
_FILLED
  0
BLOCK_RECORD
  5
212
100
AcDbSymbolTableRecord
100
AcDbBlockTableRecord
  2
*D0
  0
BLOCK_RECORD
  5
213
100
AcDbSymbolTableRecord
100
AcDbBlockTableRecord
  2
*D1
  0
BLOCK_RECORD
  5
214
100
AcDbSymbolTableRecord
100
AcDbBlockTableRecord
  2
*D2
  0
ENDTAB
  0
TABLE
  2
DIMSTYLE
  5
A
100
AcDbSymbolTable
 70
1
100
AcDbDimStyleTable
 71
0
  0
DIMSTYLE
105
215
100
AcDbSymbolTableRecord
100
AcDbDimStyleTableRecord
  2
STANDARD
 70
0
  3

  4

 40
1.0
 41
3.0
 42
0.0625
 43
0.38
 44
0.18
 45
0.0
 46
0.0
 47
0.01
 48
0.01
140
3.0
141
0.09
142
0.0
143
25.4
144
1.0
145
0.0
146
1.0
147
0.09
 71
1.0
 72
0.0
 73
0
 74
0
 75
0
 76
0
 77
1
 78
8
170
0
171
2
172
0
173
0
174
0
175
0
176
0
177
0
178
0
270
2
271
2
272
2
273
2
274
2
275
0
280
0
281
0
282
0
283
1
284
8
285
0
286
0
287
3
288
0
340
11
341
211
342
211
343
211
344
211
  0
DIMSTYLE
105
216
100
AcDbSymbolTableRecord
100
AcDbDimStyleTableRecord
  2
DIMSTYLE_1
 70
0
  3

  4

 40
1.0
 41
3.0
 42
0.0625
 43
0.38
 44
0.18
 45
0.0
 46
0.0
 47
0.0
 48
0.0
140
3.0
141
0.09
142
0.0
143
25.4
144
1.0
145
0.0
146
1.0
147
0.09
 71
0.0
 72
0.0
 73
0
 74
0
 75
0
 76
0
 77
1
 78
8
170
0
171
2
172
0
173
0
174
0
175
0
176
0
177
0
178
0
270
2
271
1
272
1
273
2
274
2
275
0
280
0
281
0
282
0
283
1
284
8
285
0
286
0
287
3
288
0
340
11
341
211
342
211
343
211
344
211
  0
ENDTAB
  0
ENDSEC
  0
SECTION
  2
BLOCKS
  0
BLOCK
  5
20
100
AcDbEntity
  8
0
100
AcDbBlockBegin
  2
*Model_Space
 70
0
 10
0.0
 20
0.0
 30
0.0
  3
*Model_Space
  1

  0
ENDBLK
  5
21
100
AcDbEntity
  8
0
100
AcDbBlockEnd
  0
BLOCK
  5
1C
100
AcDbEntity
  8
0
100
AcDbBlockBegin
  2
*Paper_Space
 70
0
 10
0.0
 20
0.0
 30
0.0
  3
*Paper_Space
  1

  0
ENDBLK
  5
1D
100
AcDbEntity
  8
0
100
AcDbBlockEnd
  0
BLOCK
  5
217
100
AcDbEntity
  8
0
100
AcDbBlockBegin
  2
_FILLED
 70
64
 10
0.0
 20
0.0
  3
_FILLED
  1

  0
SOLID
  5
218
100
AcDbEntity
  8
0
  6
BYBLOCK
 62
0
100
AcDbTrace
 10
0.0
 20
0.0
 11
-1.0
 21
0.3166666667
 12
-1.0
 22
-0.3166666667
 13
-1.0
 23
-0.3166666667
  0
ENDBLK
  5
219
100
AcDbEntity
  8
0
  6
BYBLOCK
 62
0
100
AcDbBlockEnd
  0
BLOCK
  5
21A
100
AcDbEntity
  8
0
100
AcDbBlockBegin
 62
7
  6
CONTINUOUS
  2
*D0
 70
65
 10
0.0
 20
0.0
  3
*D0
  1

  0
MTEXT
  5
21B
100
AcDbEntity
  8
0
100
AcDbMText
 62
7
  6
CONTINUOUS
  7
STANDARD
 71
2
 72
1
 10
18.0118035233
 20
22.8641728148
 30
0.0
 11
1.0
 21
0.0
 31
0.0
 44
0.9
  1
44,7
 40
3.0
 41
8.7857142857
  0
LINE
  5
21C
100
AcDbEntity
  8
0
100
AcDbLine
 62
7
  6
CONTINUOUS
 10
40.3618035233
 20
7.5827530333
 11
40.3618035233
 21
20.6141728148
  0
LINE
  5
21D
100
AcDbEntity
  8
0
100
AcDbLine
 62
7
  6
CONTINUOUS
 10
-4.3381964767
 20
7.5827530333
 11
-4.3381964767
 21
20.6141728148
  0
LINE
  5
21E
100
AcDbEntity
  8
0
100
AcDbLine
 62
7
  6
CONTINUOUS
 10
40.3618035233
 20
19.1141728148
 11
18.0118035233
 21
19.1141728148
  0
LINE
  5
21F
100
AcDbEntity
  8
0
100
AcDbLine
 62
7
  6
CONTINUOUS
 10
-4.3381964767
 20
19.1141728148
 11
18.0118035233
 21
19.1141728148
  0
INSERT
  5
220
100
AcDbEntity
  8
0
100
AcDbBlockReference
 62
7
  6
CONTINUOUS
  2
_FILLED
 10
40.3618035233
 20
19.1141728148
 41
3.0
 42
3.0
 43
3.0
  0
INSERT
  5
221
100
AcDbEntity
  8
0
100
AcDbBlockReference
 62
7
  6
CONTINUOUS
  2
_FILLED
 10
-4.3381964767
 20
19.1141728148
 41
3.0
 42
3.0
 43
3.0
 50
180.0
  0
ENDBLK
  5
222
100
AcDbEntity
  8
0
  6
BYBLOCK
 62
0
100
AcDbBlockEnd
  0
BLOCK
  5
223
100
AcDbEntity
  8
0
100
AcDbBlockBegin
 62
7
  6
CONTINUOUS
  2
*D1
 70
65
 10
0.0
 20
0.0
  3
*D1
  1

  0
MTEXT
  5
224
100
AcDbEntity
  8
0
100
AcDbMText
 62
7
  6
CONTINUOUS
  7
STANDARD
 71
2
 72
1
 10
44.6118035233
 20
0.0435362487
 30
0.0
 11
0.0
 21
1.0
 31
0.0
 44
0.9
  1
22,1
 40
3.0
 41
8.1428571429
  0
LINE
  5
225
100
AcDbEntity
  8
0
100
AcDbLine
 62
7
  6
CONTINUOUS
 10
40.6216568728
 20
11.1141728148
 11
49.8618035233
 21
11.1141728148
  0
LINE
  5
226
100
AcDbEntity
  8
0
100
AcDbLine
 62
7
  6
CONTINUOUS
 10
40.3621841231
 20
-11.0271003174
 11
49.8618035233
 21
-11.0271003174
  0
LINE
  5
227
100
AcDbEntity
  8
0
100
AcDbLine
 62
7
  6
CONTINUOUS
 10
48.3618035233
 20
11.1141728148
 11
48.3618035233
 21
0.0435362487
  0
LINE
  5
228
100
AcDbEntity
  8
0
100
AcDbLine
 62
7
  6
CONTINUOUS
 10
48.3618035233
 20
-11.0271003174
 11
48.3618035233
 21
0.0435362487
  0
INSERT
  5
229
100
AcDbEntity
  8
0
100
AcDbBlockReference
 62
7
  6
CONTINUOUS
  2
_FILLED
 10
48.3618035233
 20
11.1141728148
 41
3.0
 42
3.0
 43
3.0
 50
90.0
  0
INSERT
  5
22A
100
AcDbEntity
  8
0
100
AcDbBlockReference
 62
7
  6
CONTINUOUS
  2
_FILLED
 10
48.3618035233
 20
-11.0271003174
 41
3.0
 42
3.0
 43
3.0
 50
270.0
  0
ENDBLK
  5
22B
100
AcDbEntity
  8
0
  6
BYBLOCK
 62
0
100
AcDbBlockEnd
  0
BLOCK
  5
22C
100
AcDbEntity
  8
0
100
AcDbBlockBegin
 62
7
  6
CONTINUOUS
  2
*D2
 70
65
 10
0.0
 20
0.0
  3
*D2
  1

  0
MTEXT
  5
22D
100
AcDbEntity
  8
0
100
AcDbMText
 62
7
  6
CONTINUOUS
  7
STANDARD
 71
2
 72
1
 10
-17.2456136953
 20
22.8641728148
 30
0.0
 11
1.0
 21
0.0
 31
0.0
 44
0.9
  1
9,9
 40
3.0
 41
6.4285714286
  0
LINE
  5
22E
100
AcDbEntity
  8
0
100
AcDbLine
 62
7
  6
CONTINUOUS
 10
-12.2724692166
 20
2.6858418225
 11
-12.2724692166
 21
20.6141728148
  0
LINE
  5
22F
100
AcDbEntity
  8
0
100
AcDbLine
 62
7
  6
CONTINUOUS
 10
-22.2187581741
 20
11.3747560939
 11
-22.2187581741
 21
20.6141728148
  0
LINE
  5
230
100
AcDbEntity
  8
0
100
AcDbLine
 62
7
  6
CONTINUOUS
 10
-12.2724692166
 20
19.1141728148
 11
-8.2724692166
 21
19.1141728148
  0
LINE
  5
231
100
AcDbEntity
  8
0
100
AcDbLine
 62
7
  6
CONTINUOUS
 10
-8.2724692166
 20
19.1141728148
 11
-17.2456136953
 21
19.1141728148
  0
LINE
  5
232
100
AcDbEntity
  8
0
100
AcDbLine
 62
7
  6
CONTINUOUS
 10
-22.2187581741
 20
19.1141728148
 11
-26.2187581741
 21
19.1141728148
  0
LINE
  5
233
100
AcDbEntity
  8
0
100
AcDbLine
 62
7
  6
CONTINUOUS
 10
-26.2187581741
 20
19.1141728148
 11
-17.2456136953
 21
19.1141728148
  0
INSERT
  5
234
100
AcDbEntity
  8
0
100
AcDbBlockReference
 62
7
  6
CONTINUOUS
  2
_FILLED
 10
-12.2724692166
 20
19.1141728148
 41
3.0
 42
3.0
 43
3.0
 50
180.0
  0
INSERT
  5
235
100
AcDbEntity
  8
0
100
AcDbBlockReference
 62
7
  6
CONTINUOUS
  2
_FILLED
 10
-22.2187581741
 20
19.1141728148
 41
3.0
 42
3.0
 43
3.0
  0
ENDBLK
  5
236
100
AcDbEntity
  8
0
  6
BYBLOCK
 62
0
100
AcDbBlockEnd
  0
ENDSEC
  0
SECTION
  2
ENTITIES
  0
DIMENSION
  5
237
100
AcDbEntity
  8
0
100
AcDbDimension
 62
7
  6
CONTINUOUS
  2
*D0
 10
-4.3381964767
 20
19.1141728148
 11
13.6189463805
 21
21.3641728148
 70
160
 71
2
 42
44.7
  3
DIMSTYLE_1
100
AcDbAlignedDimension
 13
40.3618035233
 23
7.5827530333
 14
-4.3381964767
 24
7.5827530333
 50
180.0
100
AcDbRotatedDimension
  0
DIMENSION
  5
238
100
AcDbEntity
  8
0
100
AcDbDimension
 62
7
  6
CONTINUOUS
  2
*D1
 10
48.3618035233
 20
-11.0271003174
 11
47.9361032461
 21
-3.5963073102
 70
160
 71
2
 42
22.1412731322
  3
DIMSTYLE_1
100
AcDbAlignedDimension
 13
40.6216568728
 23
11.1141728148
 14
40.3621841231
 24
-11.0271003174
 50
270.0
100
AcDbRotatedDimension
  0
DIMENSION
  5
239
100
AcDbEntity
  8
0
100
AcDbDimension
 62
7
  6
CONTINUOUS
  2
*D2
 10
-22.2187581741
 20
19.1141728148
 11
-20.4598994096
 21
21.3641728148
 70
160
 71
2
 42
9.9462889575
  3
DIMSTYLE_1
100
AcDbAlignedDimension
 13
-12.2724692166
 23
2.6858418225
 14
-22.2187581741
 24
11.3747560939
 50
180.0
100
AcDbRotatedDimension
  0
LINE
  5
23A
100
AcDbEntity
  8
DRAFT
100
AcDbLine
 62
7
  6
CONTINUOUS
 10
-4.3381964767
 20
7.0827530333
 11
-4.3381964767
 21
-1.9657553893
  0
LINE
  5
23B
100
AcDbEntity
  8
RACCORDO
100
AcDbLine
 62
7
  6
CONTINUOUS
 10
-4.3381964767
 20
-1.9657553893
 11
-4.3381964767
 21
-10.5268714653
  0
LINE
  5
23C
100
AcDbEntity
  8
RACCORDO
100
AcDbLine
 62
7
  6
CONTINUOUS
 10
-4.2980498273
 20
10.9141956601
 11
-4.2980498273
 21
7.1228996826
  0
LINE
  5
23D
100
AcDbEntity
  8
RACCORDO
100
AcDbLine
 62
253
  6
CONTINUOUS
 10
-3.7246645042
 20
10.8747560936
 11
-3.7246645042
 21
11.074887736
  0
LINE
  5
23E
100
AcDbEntity
  8
DRAFT
100
AcDbLine
 62
7
  6
CONTINUOUS
 10
-4.3381964767
 20
7.0827530333
 11
-4.2980498273
 21
7.1228996826
  0
LINE
  5
23F
100
AcDbEntity
  8
RACCORDO
100
AcDbLine
 62
253
  6
CONTINUOUS
 10
-4.3381964767
 20
-10.5268714653
 11
-4.2484753541
 21
-10.257489208
  0
LINE
  5
240
100
AcDbEntity
  8
RACCORDO
100
AcDbLine
 62
253
  6
CONTINUOUS
 10
-3.8385770764
 20
-11.0271003174
 11
-3.7485515554
 21
-10.7568041224
  0
LINE
  5
241
100
AcDbEntity
  8
RACCORDO
100
AcDbLine
 62
7
  6
CONTINUOUS
 10
31.6684278503
 20
-11.0271003174
 11
33.0540684964
 21
-10.9013216471
  0
LINE
  5
242
100
AcDbEntity
  8
RACCORDO
100
AcDbLine
 62
7
  6
CONTINUOUS
 10
4.3551791963
 20
-11.0271003174
 11
2.9695385502
 21
-10.9013216471
  0
LINE
  5
243
100
AcDbEntity
  8
RACCORDO
100
AcDbLine
 62
7
  6
CONTINUOUS
 10
21.3344532541
 20
-11.0271003174
 11
21.8540684964
 21
-10.979933316
  0
LINE
  5
244
100
AcDbEntity
  8
RACCORDO
100
AcDbLine
 62
7
  6
CONTINUOUS
 10
10.0344532541
 20
-11.0271003174
 11
10.5540684964
 21
-10.979933316
  0
LINE
  5
245
100
AcDbEntity
  8
RACCORDO
100
AcDbLine
 62
7
  6
CONTINUOUS
 10
39.8621841231
 20
-11.0271003174
 11
38.0551791963
 21
-11.0271003174
  0
LINE
  5
246
100
AcDbEntity
  8
DRAFT
100
AcDbLine
 62
7
  6
CONTINUOUS
 10
31.6684278503
 20
-11.0271003174
 11
25.9891537925
 21
-11.0271003174
  0
LINE
  5
247
100
AcDbEntity
  8
DRAFT
100
AcDbLine
 62
7
  6
CONTINUOUS
 10
21.3344532541
 20
-11.0271003174
 11
14.6891537925
 21
-11.0271003174
  0
LINE
  5
248
100
AcDbEntity
  8
DRAFT
100
AcDbLine
 62
7
  6
CONTINUOUS
 10
10.0344532541
 20
-11.0271003174
 11
4.3551791963
 21
-11.0271003174
  0
LINE
  5
249
100
AcDbEntity
  8
RACCORDO
100
AcDbLine
 62
7
  6
CONTINUOUS
 10
-2.0315721497
 20
-11.0271003174
 11
-3.8385770764
 21
-11.0271003174
  0
LINE
  5
24A
100
AcDbEntity
  8
RACCORDO
100
AcDbLine
 62
7
  6
CONTINUOUS
 10
25.2963334695
 20
-10.9746925381
 11
22.0272735772
 21
-10.9746925381
  0
LINE
  5
24B
100
AcDbEntity
  8
RACCORDO
100
AcDbLine
 62
7
  6
CONTINUOUS
 10
13.9963334695
 20
-10.9746925381
 11
10.7272735772
 21
-10.9746925381
  0
LINE
  5
24C
100
AcDbEntity
  8
RACCORDO
100
AcDbLine
 62
7
  6
CONTINUOUS
 10
36.4963334695
 20
-10.8960808692
 11
33.2272735772
 21
-10.8960808692
  0
LINE
  5
24D
100
AcDbEntity
  8
RACCORDO
100
AcDbLine
 62
7
  6
CONTINUOUS
 10
2.7963334695
 20
-10.8960808692
 11
-0.4727264228
 21
-10.8960808692
  0
LINE
  5
24E
100
AcDbEntity
  8
RACCORDO
100
AcDbLine
 62
253
  6
CONTINUOUS
 10
39.7721586021
 20
-10.7568041224
 11
-3.7485515554
 21
-10.7568041224
  0
LINE
  5
24F
100
AcDbEntity
  8
RACCORDO
100
AcDbLine
 62
7
  6
CONTINUOUS
 10
14.6891537925
 20
-11.0271003174
 11
14.1695385502
 21
-10.979933316
  0
LINE
  5
250
100
AcDbEntity
  8
RACCORDO
100
AcDbLine
 62
7
  6
CONTINUOUS
 10
25.9891537925
 20
-11.0271003174
 11
25.4695385502
 21
-10.979933316
  0
LINE
  5
251
100
AcDbEntity
  8
RACCORDO
100
AcDbLine
 62
7
  6
CONTINUOUS
 10
-2.0315721497
 20
-11.0271003174
 11
-0.6459315036
 21
-10.9013216471
  0
LINE
  5
252
100
AcDbEntity
  8
RACCORDO
100
AcDbLine
 62
253
  6
CONTINUOUS
 10
39.7556317529
 20
-9.3204864769
 11
-3.7320247063
 21
-9.3204864769
  0
LINE
  5
253
100
AcDbEntity
  8
RACCORDO
100
AcDbLine
 62
7
  6
CONTINUOUS
 10
38.0551791963
 20
-11.0271003174
 11
36.6695385502
 21
-10.9013216471
  0
LINE
  5
254
100
AcDbEntity
  8
RACCORDO
100
AcDbLine
 62
253
  6
CONTINUOUS
 10
40.1216568728
 20
11.1141728148
 11
40.0482258307
 21
11.0774600899
  0
LINE
  5
255
100
AcDbEntity
  8
RACCORDO
100
AcDbLine
 62
253
  6
CONTINUOUS
 10
-4.2245883761
 20
10.8774677318
 11
-4.2980498273
 21
10.9141956601
  0
LINE
  5
256
100
AcDbEntity
  8
RACCORDO
100
AcDbLine
 62
253
  6
CONTINUOUS
 10
-4.0246187841
 20
11.0774600899
 11
-4.0980498262
 21
11.1141728148
  0
LINE
  5
257
100
AcDbEntity
  8
RACCORDO
100
AcDbLine
 62
253
  6
CONTINUOUS
 10
40.321656874
 20
10.9141956601
 11
40.2481954227
 21
10.8774677318
  0
LINE
  5
258
100
AcDbEntity
  8
DRAFT
100
AcDbLine
 62
7
  6
CONTINUOUS
 10
37.6867808504
 20
11.1141728148
 11
37.5118035233
 21
11.0967190792
  0
LINE
  5
259
100
AcDbEntity
  8
DRAFT
100
AcDbLine
 62
7
  6
CONTINUOUS
 10
-1.6631738037
 20
11.1141728148
 11
-1.4881964767
 21
11.0967190792
  0
LINE
  5
25A
100
AcDbEntity
  8
RACCORDO
100
AcDbLine
 62
253
  6
CONTINUOUS
 10
39.7482685939
 20
10.8747560936
 11
-3.7246615472
 21
10.8747560936
  0
LINE
  5
25B
100
AcDbEntity
  8
RACCORDO
100
AcDbLine
 62
253
  6
CONTINUOUS
 10
39.7482715508
 20
11.074887736
 11
-3.7246645042
 21
11.074887736
  0
LINE
  5
25C
100
AcDbEntity
  8
DRAFT
100
AcDbLine
 62
7
  6
CONTINUOUS
 10
37.5118035233
 20
11.0967190792
 11
-1.4881964767
 21
11.0967190792
  0
LINE
  5
25D
100
AcDbEntity
  8
RACCORDO
100
AcDbLine
 62
7
  6
CONTINUOUS
 10
40.1216568728
 20
11.1141728148
 11
37.6867808504
 21
11.1141728148
  0
LINE
  5
25E
100
AcDbEntity
  8
RACCORDO
100
AcDbLine
 62
7
  6
CONTINUOUS
 10
-1.6631738037
 20
11.1141728148
 11
-4.0980498262
 21
11.1141728148
  0
LINE
  5
25F
100
AcDbEntity
  8
RACCORDO
100
AcDbLine
 62
253
  6
CONTINUOUS
 10
39.7721586021
 20
-10.7568041224
 11
39.8621841231
 21
-11.0271003174
  0
LINE
  5
260
100
AcDbEntity
  8
RACCORDO
100
AcDbLine
 62
253
  6
CONTINUOUS
 10
40.2720824007
 20
-10.257489208
 11
40.3618035233
 21
-10.5268714653
  0
LINE
  5
261
100
AcDbEntity
  8
RACCORDO
100
AcDbLine
 62
253
  6
CONTINUOUS
 10
39.7482715508
 20
10.8747560936
 11
39.7482715508
 21
11.074887736
  0
LINE
  5
262
100
AcDbEntity
  8
DRAFT
100
AcDbLine
 62
7
  6
CONTINUOUS
 10
40.3618035233
 20
7.0827530333
 11
40.321656874
 21
7.1228996826
  0
LINE
  5
263
100
AcDbEntity
  8
RACCORDO
100
AcDbLine
 62
7
  6
CONTINUOUS
 10
40.321656874
 20
10.9141956601
 11
40.321656874
 21
7.1228996826
  0
LINE
  5
264
100
AcDbEntity
  8
DRAFT
100
AcDbLine
 62
7
  6
CONTINUOUS
 10
40.3618035233
 20
7.0827530333
 11
40.3618035233
 21
-1.9657553893
  0
LINE
  5
265
100
AcDbEntity
  8
RACCORDO
100
AcDbLine
 62
7
  6
CONTINUOUS
 10
40.3618035233
 20
-1.9657553893
 11
40.3618035233
 21
-10.5268714653
  0
LINE
  5
266
100
AcDbEntity
  8
RACCORDO
100
AcDbLine
 62
7
  6
CONTINUOUS
 10
-20.3764380209
 20
-10.7568041224
 11
-15.2188793781
 21
-11.0271003174
  0
LINE
  5
267
100
AcDbEntity
  8
RACCORDO
100
AcDbLine
 62
253
  6
CONTINUOUS
 10
-20.3589990512
 20
-10.257489208
 11
-15.2188793781
 21
-10.5268714653
  0
LINE
  5
268
100
AcDbEntity
  8
RACCORDO
100
AcDbLine
 62
253
  6
CONTINUOUS
 10
-21.3058186767
 20
-9.2999464523
 11
-21.7966702342
 21
-9.3204898406
  0
LINE
  5
269
100
AcDbEntity
  8
0
100
AcDbLine
 62
7
  6
CONTINUOUS
 10
-12.2724692166
 20
-1.9400424573
 11
-15.2188793781
 21
-1.9657553893
  0
LINE
  5
26A
100
AcDbEntity
  8
RACCORDO
100
AcDbLine
 62
7
  6
CONTINUOUS
 10
-17.5188793781
 20
11.1141728148
 11
-17.5188793781
 21
7.1228996826
  0
LINE
  5
26B
100
AcDbEntity
  8
DRAFT
100
AcDbLine
 62
7
  6
CONTINUOUS
 10
-15.2188793781
 20
7.0827530333
 11
-15.2188793781
 21
-1.9657553893
  0
LINE
  5
26C
100
AcDbEntity
  8
RACCORDO
100
AcDbLine
 62
7
  6
CONTINUOUS
 10
-15.2188793781
 20
-1.9657553893
 11
-15.2188793781
 21
-11.0271003174
  0
LINE
  5
26D
100
AcDbEntity
  8
0
100
AcDbLine
 62
7
  6
CONTINUOUS
 10
-12.2724692166
 20
2.1858418225
 11
-15.2188793781
 21
2.2115547545
  0
LINE
  5
26E
100
AcDbEntity
  8
0
100
AcDbLine
 62
253
  6
CONTINUOUS
 10
-12.8992992923
 20
-1.9455127205
 11
-12.8992992923
 21
2.1913120857
  0
LINE
  5
26F
100
AcDbEntity
  8
0
100
AcDbLine
 62
7
  6
CONTINUOUS
 10
-12.2724692166
 20
-1.9400424573
 11
-12.2724692166
 21
2.1858418225
  0
LINE
  5
270
100
AcDbEntity
  8
DRAFT
100
AcDbLine
 62
7
  6
CONTINUOUS
 10
-15.2188793781
 20
7.0827530333
 11
-17.5188793781
 21
7.1228996826
  0
LINE
  5
271
100
AcDbEntity
  8
RACCORDO
100
AcDbLine
 62
253
  6
CONTINUOUS
 10
-17.5188793781
 20
10.9141956601
 11
-21.7274831029
 21
10.8774677318
  0
LINE
  5
272
100
AcDbEntity
  8
RACCORDO
100
AcDbLine
 62
7
  6
CONTINUOUS
 10
-17.5188793781
 20
11.1141728148
 11
-22.0205035292
 21
11.074887736
  0
ARC
  5
273
100
AcDbEntity
  8
RACCORDO
100
AcDbCircle
 62
253
  6
CONTINUOUS
 10
40.0481759202
 20
10.8774437358
 40
0.2000182652
100
AcDbArc
 50
0.006866097
 51
89.985702868
  0
ARC
  5
274
100
AcDbEntity
  8
RACCORDO
100
AcDbCircle
 62
253
  6
CONTINUOUS
 10
-4.0245700323
 20
10.8774448944
 40
0.2000167957
100
AcDbArc
 50
90.0139652878
 51
179.9934657423
  0
ARC
  5
275
100
AcDbEntity
  8
RACCORDO
100
AcDbCircle
 62
7
  6
CONTINUOUS
 10
477.7811206219
 20
11.2228996826
 40
500.0
100
AcDbArc
 50
180.0398943199
 51
182.354761486
  0
ARC
  5
276
100
AcDbEntity
  8
RACCORDO
100
AcDbCircle
 62
253
  6
CONTINUOUS
 10
477.7661982994
 20
11.2226950467
 40
499.493800705
100
AcDbArc
 50
180.0396002306
 51
182.3547676205
  0
ARC
  5
277
100
AcDbEntity
  8
RACCORDO
100
AcDbCircle
 62
7
  6
CONTINUOUS
 10
-20.2979368917
 20
-9.2588596733
 40
1.5
100
AcDbArc
 50
182.3546332304
 51
267.000107296
  0
ARC
  5
278
100
AcDbEntity
  8
RACCORDO
100
AcDbCircle
 62
253
  6
CONTINUOUS
 10
-20.3066630947
 20
-9.258859673
 40
1.0000000003
100
AcDbArc
 50
182.3547618871
 51
266.9999999848
  0
ARC
  5
279
100
AcDbEntity
  8
RACCORDO
100
AcDbCircle
 62
7
  6
CONTINUOUS
 10
-22.0187581805
 20
10.8748953517
 40
0.2
100
AcDbArc
 50
90.5000119192
 51
180.0398945299
  0
SPLINE
  5
27A
100
AcDbEntity
  8
RACCORDO
100
AcDbSpline
 62
253
  6
CONTINUOUS
 70
0
 71
3
 72
28
 73
24
 74
22
 42
0.0000001
 43
0.0000001
 44
0.0000000001
 12
0.0006876718
 22
-0.957934379
 32
0.0
 13
0.3026801753
 23
-0.9088583272
 33
0.0
 40
0.0
 40
0.0
 40
0.0
 40
0.0
 40
0.0731992823
 40
0.1458325933
 40
0.2175334721
 40
0.2879465598
 40
0.3567237453
 40
0.42352535
 40
0.4880207271
 40
0.5498910412
 40
0.6088302975
 40
0.6645473235
 40
0.7167664878
 40
0.7652298319
 40
0.8096977432
 40
0.8499508122
 40
0.8857904224
 40
0.9170401759
 40
0.9435467234
 40
0.9651814702
 40
0.9818418571
 40
0.9934557489
 40
1.0
 40
1.0
 40
1.0
 40
1.0
 10
40.2555556026
 20
-9.2999464523
 30
0.0
 10
40.2555723817
 20
-9.323319822
 30
0.0
 10
40.2556343358
 20
-9.369885825
 30
0.0
 10
40.2558129289
 20
-9.439346561
 30
0.0
 10
40.2560760772
 20
-9.5079173595
 30
0.0
 10
40.2564224576
 20
-9.5752564674
 30
0.0
 10
40.2568503251
 20
-9.6410306813
 30
0.0
 10
40.2573575248
 20
-9.704914682
 30
0.0
 10
40.2579414953
 20
-9.7665924905
 30
0.0
 10
40.2585992768
 20
-9.8257588718
 30
0.0
 10
40.2593275215
 20
-9.8821211808
 30
0.0
 10
40.260122503
 20
-9.9354005454
 30
0.0
 10
40.2609801085
 20
-9.9853334081
 30
0.0
 10
40.2618958806
 20
-10.0316726162
 30
0.0
 10
40.262864852
 20
-10.0741889711
 30
0.0
 10
40.263882009
 20
-10.1126719375
 30
0.0
 10
40.2649405839
 20
-10.1469316691
 30
0.0
 10
40.2660369188
 20
-10.1767972358
 30
0.0
 10
40.2671546919
 20
-10.202125642
 30
0.0
 10
40.2683082915
 20
-10.2227799211
 30
0.0
 10
40.2694180893
 20
-10.2386936352
 30
0.0
 10
40.2706060995
 20
-10.2497207464
 30
0.0
 10
40.271422129
 20
-10.255506609
 30
0.0
 10
40.2720824007
 20
-10.257489208
 30
0.0
 11
40.2555556026
 21
-9.2999464523
 31
0.0
 11
40.2556491319
 21
-9.370066517
 31
0.0
 11
40.2558284755
 21
-9.4396442495
 31
0.0
 11
40.256092743
 21
-9.5083284956
 31
0.0
 11
40.2564406268
 21
-9.5757787333
 31
0.0
 11
40.2568704063
 21
-9.6416613789
 31
0.0
 11
40.2573799597
 21
-9.7056509204
 31
0.0
 11
40.2579667653
 21
-9.7674304885
 31
0.0
 11
40.2586279223
 21
-9.8266945169
 31
0.0
 11
40.25936016
 21
-9.8831497229
 31
0.0
 11
40.2601598605
 21
-9.9365169999
 31
0.0
 11
40.2610230661
 21
-9.9865320972
 31
0.0
 11
40.2619455099
 21
-10.0329476473
 31
0.0
 11
40.2629226257
 21
-10.0755337911
 31
0.0
 11
40.2639495838
 21
-10.1140799218
 31
0.0
 11
40.2650213022
 21
-10.1483951938
 31
0.0
 11
40.2661324801
 21
-10.1783097844
 31
0.0
 11
40.267277614
 21
-10.2036754887
 31
0.0
 11
40.2684510447
 21
-10.2243669154
 31
0.0
 11
40.2696469669
 21
-10.2402816058
 31
0.0
 11
40.2708594498
 21
-10.2513406871
 31
0.0
 11
40.2720824007
 21
-10.257489208
 31
0.0
  0
SPLINE
  5
27B
100
AcDbEntity
  8
RACCORDO
100
AcDbSpline
 62
253
  6
CONTINUOUS
 70
0
 71
3
 72
12
 73
8
 74
6
 42
0.0000001
 43
0.0000001
 44
0.0000000001
 12
0.0002435667
 22
-20.1774159269
 32
0.0
 13
0.0144829105
 23
-20.1774107307
 33
0.0
 40
0.0
 40
0.0
 40
0.0
 40
0.0
 40
0.2000542187
 40
0.400094572
 40
0.6001076925
 40
0.8000805207
 40
1.0
 40
1.0
 40
1.0
 40
1.0
 10
40.2481954227
 20
10.8774677318
 30
0.0
 10
40.2482116649
 20
9.5319420054
 30
0.0
 10
40.2484338583
 20
6.8409838076
 30
0.0
 10
40.2493366555
 20
2.8047763917
 30
0.0
 10
40.2508087097
 20
-1.2308834414
 30
0.0
 10
40.2528499747
 20
-5.2657300508
 30
0.0
 10
40.254590464
 20
-7.9553273035
 30
0.0
 10
40.2555556026
 20
-9.2999464523
 30
0.0
 11
40.2481954227
 21
10.8774677318
 31
0.0
 11
40.248528799
 21
6.8408905661
 31
0.0
 11
40.2494316145
 21
2.8045932574
 31
0.0
 11
40.2509037572
 21
-1.2311543975
 31
0.0
 11
40.252945131
 21
-5.2660888115
 31
0.0
 11
40.2555556026
 21
-9.2999464523
 31
0.0
  0
SPLINE
  5
27C
100
AcDbEntity
  8
RACCORDO
100
AcDbSpline
 62
253
  6
CONTINUOUS
 70
0
 71
3
 72
12
 73
8
 74
6
 42
0.0000001
 43
0.0000001
 44
0.0000000001
 12
0.0144829105
 22
20.1774107307
 32
0.0
 13
0.0002435667
 23
20.1774159269
 33
0.0
 40
0.0
 40
0.0
 40
0.0
 40
0.0
 40
0.1999194793
 40
0.3998923075
 40
0.599905428
 40
0.7999457813
 40
1.0
 40
1.0
 40
1.0
 40
1.0
 10
-4.231948556
 20
-9.2999464523
 30
0.0
 10
-4.2309834174
 20
-7.9553273035
 30
0.0
 10
-4.229242928
 20
-5.2657300508
 30
0.0
 10
-4.2272016631
 20
-1.2308834414
 30
0.0
 10
-4.2257296089
 20
2.8047763917
 30
0.0
 10
-4.2248268117
 20
6.8409838076
 30
0.0
 10
-4.2246046183
 20
9.5319420054
 30
0.0
 10
-4.2245883761
 20
10.8774677318
 30
0.0
 11
-4.231948556
 21
-9.2999464523
 31
0.0
 11
-4.2293380844
 21
-5.2660888115
 31
0.0
 11
-4.2272967106
 21
-1.2311543975
 31
0.0
 11
-4.2258245679
 21
2.8045932574
 31
0.0
 11
-4.2249217524
 21
6.8408905661
 31
0.0
 11
-4.2245883761
 21
10.8774677318
 31
0.0
  0
SPLINE
  5
27D
100
AcDbEntity
  8
RACCORDO
100
AcDbSpline
 62
253
  6
CONTINUOUS
 70
0
 71
3
 72
28
 73
24
 74
22
 42
0.0000001
 43
0.0000001
 44
0.0000000001
 12
0.3026801751
 22
0.9088583273
 32
0.0
 13
0.0006876718
 23
0.957934379
 33
0.0
 40
0.0
 40
0.0
 40
0.0
 40
0.0
 40
0.006544251
 40
0.0181581429
 40
0.0348185298
 40
0.0564532766
 40
0.0829598241
 40
0.1142095776
 40
0.1500491877
 40
0.1903022567
 40
0.2347701681
 40
0.2832335122
 40
0.3354526765
 40
0.3911697025
 40
0.4501089588
 40
0.5119792729
 40
0.57647465
 40
0.6432762547
 40
0.7120534402
 40
0.7824665279
 40
0.8541674067
 40
0.9268007177
 40
1.0
 40
1.0
 40
1.0
 40
1.0
 10
-4.2484753541
 20
-10.257489208
 30
0.0
 10
-4.2478150824
 20
-10.255506609
 30
0.0
 10
-4.2469990528
 20
-10.2497207464
 30
0.0
 10
-4.2458110427
 20
-10.2386936352
 30
0.0
 10
-4.2447012449
 20
-10.2227799211
 30
0.0
 10
-4.2435476453
 20
-10.202125642
 30
0.0
 10
-4.2424298721
 20
-10.1767972358
 30
0.0
 10
-4.2413335373
 20
-10.1469316691
 30
0.0
 10
-4.2402749624
 20
-10.1126719376
 30
0.0
 10
-4.2392578053
 20
-10.0741889711
 30
0.0
 10
-4.238288834
 20
-10.0316726162
 30
0.0
 10
-4.2373730619
 20
-9.9853334082
 30
0.0
 10
-4.2365154564
 20
-9.9354005454
 30
0.0
 10
-4.2357204749
 20
-9.8821211808
 30
0.0
 10
-4.2349922302
 20
-9.8257588718
 30
0.0
 10
-4.2343344487
 20
-9.7665924905
 30
0.0
 10
-4.2337504782
 20
-9.704914682
 30
0.0
 10
-4.2332432784
 20
-9.6410306813
 30
0.0
 10
-4.232815411
 20
-9.5752564675
 30
0.0
 10
-4.2324690306
 20
-9.5079173596
 30
0.0
 10
-4.2322058822
 20
-9.4393465611
 30
0.0
 10
-4.2320272892
 20
-9.369885825
 30
0.0
 10
-4.231965335
 20
-9.323319822
 30
0.0
 10
-4.231948556
 20
-9.2999464523
 30
0.0
 11
-4.2484753541
 21
-10.257489208
 31
0.0
 11
-4.2472524031
 21
-10.2513406871
 31
0.0
 11
-4.2460399203
 21
-10.2402816058
 31
0.0
 11
-4.2448439981
 21
-10.2243669154
 31
0.0
 11
-4.2436705674
 21
-10.2036754887
 31
0.0
 11
-4.2425254335
 21
-10.1783097845
 31
0.0
 11
-4.2414142556
 21
-10.1483951938
 31
0.0
 11
-4.2403425371
 21
-10.1140799219
 31
0.0
 11
-4.2393155791
 21
-10.0755337911
 31
0.0
 11
-4.2383384632
 21
-10.0329476473
 31
0.0
 11
-4.2374160195
 21
-9.9865320972
 31
0.0
 11
-4.2365528139
 21
-9.936517
 31
0.0
 11
-4.2357531134
 21
-9.8831497229
 31
0.0
 11
-4.2350208756
 21
-9.8266945169
 31
0.0
 11
-4.2343597187
 21
-9.7674304885
 31
0.0
 11
-4.233772913
 21
-9.7056509204
 31
0.0
 11
-4.2332633597
 21
-9.641661379
 31
0.0
 11
-4.2328335802
 21
-9.5757787333
 31
0.0
 11
-4.2324856964
 21
-9.5083284956
 31
0.0
 11
-4.2322214289
 21
-9.4396442495
 31
0.0
 11
-4.2320420853
 21
-9.370066517
 31
0.0
 11
-4.231948556
 21
-9.2999464523
 31
0.0
  0
SPLINE
  5
27E
100
AcDbEntity
  8
RACCORDO
100
AcDbSpline
 62
253
  6
CONTINUOUS
 70
0
 71
3
 72
23
 73
19
 74
17
 42
0.0000001
 43
0.0000001
 44
0.0000000001
 12
-0.0007172057
 22
-0.784257721
 32
0.0
 13
-0.7842577226
 23
-0.0007154592
 33
0.0
 40
0.0
 40
0.0
 40
0.0
 40
0.0
 40
0.0624467159
 40
0.1249003792
 40
0.1873620694
 40
0.2498325574
 40
0.3123122765
 40
0.3748013052
 40
0.4372993648
 40
0.4998058302
 40
0.5623197539
 40
0.6248399026
 40
0.6873648043
 40
0.749892805
 40
0.812422132
 40
0.8749509618
 40
0.9374774899
 40
1.0
 40
1.0
 40
1.0
 40
1.0
 10
40.2720824007
 20
-10.257489208
 30
0.0
 10
40.2720674716
 20
-10.273813981
 30
0.0
 10
40.2704317783
 20
-10.3064865785
 30
0.0
 10
40.2631852211
 20
-10.3550034325
 30
0.0
 10
40.2512152514
 20
-10.402587015
 30
0.0
 10
40.2346370587
 20
-10.4487733993
 30
0.0
 10
40.2136101543
 20
-10.4931199668
 30
0.0
 10
40.1883368418
 20
-10.5351997032
 30
0.0
 10
40.1590602661
 20
-10.5746079741
 30
0.0
 10
40.1260620711
 20
-10.6109656998
 30
0.0
 10
40.0896596922
 20
-10.6439231903
 30
0.0
 10
40.0502032881
 20
-10.6731634547
 30
0.0
 10
40.0080724237
 20
-10.6984052602
 30
0.0
 10
39.9636722292
 20
-10.7194058309
 30
0.0
 10
39.917430217
 20
-10.7359631804
 30
0.0
 10
39.8697895138
 20
-10.7479180546
 30
0.0
 10
39.8212145238
 20
-10.7551554538
 30
0.0
 10
39.7885031402
 20
-10.7567890646
 30
0.0
 10
39.7721585531
 20
-10.7568039754
 30
0.0
 11
40.2720824007
 21
-10.257489208
 31
0.0
 11
40.2696331961
 21
-10.3064022669
 31
0.0
 11
40.2623986044
 21
-10.3548448136
 31
0.0
 11
40.2504482176
 21
-10.4023508617
 31
0.0
 11
40.2338969909
 21
-10.4484634337
 31
0.0
 11
40.2129041364
 21
-10.4927389559
 31
0.0
 11
40.187671592
 21
-10.5347515264
 31
0.0
 11
40.1584420785
 21
-10.5740970112
 31
0.0
 11
40.1254967651
 21
-10.6103969319
 31
0.0
 11
40.0891525647
 21
-10.6433021064
 31
0.0
 11
40.049759085
 21
-10.6724960083
 31
0.0
 11
40.0076952662
 21
-10.6976978108
 31
0.0
 11
39.9633657352
 21
-10.7186650887
 31
0.0
 11
39.9171969137
 21
-10.7351961502
 31
0.0
 11
39.8696329162
 21
-10.7471319773
 31
0.0
 11
39.8211312778
 21
-10.7543577548
 31
0.0
 11
39.7721585531
 21
-10.7568039754
 31
0.0
  0
SPLINE
  5
27F
100
AcDbEntity
  8
RACCORDO
100
AcDbSpline
 62
253
  6
CONTINUOUS
 70
0
 71
3
 72
28
 73
24
 74
22
 42
0.0000001
 43
0.0000001
 44
0.0000000001
 12
0.3113705086
 22
1.4024296457
 32
0.0
 13
0.0006875216
 23
1.4365792815
 33
0.0
 40
0.0
 40
0.0
 40
0.0
 40
0.0
 40
0.0064766373
 40
0.0180548716
 40
0.0346930876
 40
0.0563134476
 40
0.0828109416
 40
0.1140556617
 40
0.1498934663
 40
0.1901474267
 40
0.2346185444
 40
0.2830871346
 40
0.3353133552
 40
0.3910390467
 40
0.4499883989
 40
0.5118700755
 40
0.5763779274
 40
0.6431929716
 40
0.7119844165
 40
0.7824124441
 40
0.8541287984
 40
0.9267779905
 40
1.0
 40
1.0
 40
1.0
 40
1.0
 10
-3.748551539
 20
-10.7568041224
 30
0.0
 10
-3.7478793277
 20
-10.7537764464
 30
0.0
 10
-3.7470799272
 20
-10.7451354336
 30
0.0
 10
-3.7458827527
 20
-10.7285853026
 30
0.0
 10
-3.7447785094
 20
-10.7047345067
 30
0.0
 10
-3.7436230529
 20
-10.6737509935
 30
0.0
 10
-3.7425060987
 20
-10.6357619929
 30
0.0
 10
-3.7414095538
 20
-10.5909641346
 30
0.0
 10
-3.7403510891
 20
-10.5395756176
 30
0.0
 10
-3.7393339237
 20
-10.4818518524
 30
0.0
 10
-3.7383649738
 20
-10.4180780468
 30
0.0
 10
-3.7374492091
 20
-10.3485699155
 30
0.0
 10
-3.7365916116
 20
-10.2736712985
 30
0.0
 10
-3.7357966354
 20
-10.1937529178
 30
0.0
 10
-3.7350683945
 20
-10.1092101132
 30
0.0
 10
-3.7344106155
 20
-10.0204611891
 30
0.0
 10
-3.733826646
 20
-9.9279451089
 30
0.0
 10
-3.7333194468
 20
-9.8321197193
 30
0.0
 10
-3.7328915776
 20
-9.7334589822
 30
0.0
 10
-3.7325451969
 20
-9.6324508718
 30
0.0
 10
-3.7322820435
 20
-9.5295951846
 30
0.0
 10
-3.7321034447
 20
-9.4254013893
 30
0.0
 10
-3.732041486
 20
-9.3555495508
 30
0.0
 10
-3.7320247054
 20
-9.3204864769
 30
0.0
 11
-3.748551539
 21
-10.7568041224
 31
0.0
 11
-3.7473285017
 21
-10.7475806528
 31
0.0
 11
-3.7461160368
 21
-10.7309918495
 31
0.0
 11
-3.7449201146
 21
-10.7071196676
 31
0.0
 11
-3.743746692
 21
-10.6760824766
 31
0.0
 11
-3.7426015635
 21
-10.6380339497
 31
0.0
 11
-3.741490392
 21
-10.593162183
 31
0.0
 11
-3.7404186797
 21
-10.5416894854
 31
0.0
 11
-3.7393917276
 21
-10.4838705926
 31
0.0
 11
-3.7384146174
 21
-10.4199917717
 31
0.0
 11
-3.7374921786
 21
-10.3503689016
 31
0.0
 11
-3.736628977
 21
-10.2753467524
 31
0.0
 11
-3.7358292796
 21
-10.1952963638
 31
0.0
 11
-3.735097044
 21
-10.1106141018
 31
0.0
 11
-3.7344358883
 21
-10.0217186157
 31
0.0
 11
-3.7338490829
 21
-9.9290498195
 31
0.0
 11
-3.7333395291
 21
-9.8330660527
 31
0.0
 11
-3.732909748
 21
-9.7342426116
 31
0.0
 11
-3.7325618625
 21
-9.6330677527
 31
0.0
 11
-3.7322975913
 21
-9.5300418511
 31
0.0
 11
-3.7321182452
 21
-9.4256756691
 31
0.0
 11
-3.7320247054
 21
-9.3204864769
 31
0.0
  0
SPLINE
  5
280
100
AcDbEntity
  8
RACCORDO
100
AcDbSpline
 62
253
  6
CONTINUOUS
 70
0
 71
3
 72
28
 73
24
 74
22
 42
0.0000001
 43
0.0000001
 44
0.0000000001
 12
0.0006875216
 22
-1.4365792815
 32
0.0
 13
0.3113705085
 23
-1.4024296457
 33
0.0
 40
0.0
 40
0.0
 40
0.0
 40
0.0
 40
0.0732220095
 40
0.1458712015
 40
0.2175875559
 40
0.2880155835
 40
0.3568070283
 40
0.4236220726
 40
0.4881299245
 40
0.5500116011
 40
0.6089609533
 40
0.6646866447
 40
0.7169128653
 40
0.7653814556
 40
0.8098525732
 40
0.8501065337
 40
0.8859443383
 40
0.9171890584
 40
0.9436865524
 40
0.9653069124
 40
0.9819451284
 40
0.9935233627
 40
1.0
 40
1.0
 40
1.0
 40
1.0
 10
39.7556317521
 20
-9.3204864769
 30
0.0
 10
39.7556485327
 20
-9.3555495508
 30
0.0
 10
39.7557104913
 20
-9.4254013893
 30
0.0
 10
39.7558890901
 20
-9.5295951845
 30
0.0
 10
39.7561522436
 20
-9.6324508718
 30
0.0
 10
39.7564986242
 20
-9.7334589822
 30
0.0
 10
39.7569264934
 20
-9.8321197193
 30
0.0
 10
39.7574336926
 20
-9.9279451089
 30
0.0
 10
39.7580176621
 20
-10.0204611891
 30
0.0
 10
39.7586754411
 20
-10.1092101131
 30
0.0
 10
39.759403682
 20
-10.1937529178
 30
0.0
 10
39.7601986583
 20
-10.2736712984
 30
0.0
 10
39.7610562557
 20
-10.3485699155
 30
0.0
 10
39.7619720205
 20
-10.4180780468
 30
0.0
 10
39.7629409703
 20
-10.4818518524
 30
0.0
 10
39.7639581358
 20
-10.5395756176
 30
0.0
 10
39.7650166005
 20
-10.5909641346
 30
0.0
 10
39.7661131454
 20
-10.6357619929
 30
0.0
 10
39.7672300995
 20
-10.6737509934
 30
0.0
 10
39.7683855561
 20
-10.7047345067
 30
0.0
 10
39.7694897993
 20
-10.7285853026
 30
0.0
 10
39.7706869738
 20
-10.7451354336
 30
0.0
 10
39.7714863744
 20
-10.7537764464
 30
0.0
 10
39.7721585857
 20
-10.7568041224
 30
0.0
 11
39.7556317521
 21
-9.3204864769
 31
0.0
 11
39.7557252919
 21
-9.4256756691
 31
0.0
 11
39.7559046379
 21
-9.5300418511
 31
0.0
 11
39.7561689092
 21
-9.6330677527
 31
0.0
 11
39.7565167946
 21
-9.7342426115
 31
0.0
 11
39.7569465757
 21
-9.8330660527
 31
0.0
 11
39.7574561295
 21
-9.9290498194
 31
0.0
 11
39.7580429349
 21
-10.0217186156
 31
0.0
 11
39.7587040906
 21
-10.1106141018
 31
0.0
 11
39.7594363262
 21
-10.1952963638
 31
0.0
 11
39.7602360236
 21
-10.2753467523
 31
0.0
 11
39.7610992253
 21
-10.3503689016
 31
0.0
 11
39.7620216641
 21
-10.4199917716
 31
0.0
 11
39.7629987743
 21
-10.4838705925
 31
0.0
 11
39.7640257263
 21
-10.5416894854
 31
0.0
 11
39.7650974387
 21
-10.593162183
 31
0.0
 11
39.7662086101
 21
-10.6380339497
 31
0.0
 11
39.7673537386
 21
-10.6760824766
 31
0.0
 11
39.7685271612
 21
-10.7071196676
 31
0.0
 11
39.7697230834
 21
-10.7309918495
 31
0.0
 11
39.7709355483
 21
-10.7475806528
 31
0.0
 11
39.7721585857
 21
-10.7568041224
 31
0.0
  0
SPLINE
  5
281
100
AcDbEntity
  8
RACCORDO
100
AcDbSpline
 62
253
  6
CONTINUOUS
 70
0
 71
3
 72
12
 73
8
 74
6
 42
0.0000001
 43
0.0000001
 44
0.0000000001
 12
0.0002452044
 22
-20.1952443117
 32
0.0
 13
0.0144812117
 23
-20.1952391213
 33
0.0
 40
0.0
 40
0.0
 40
0.0
 40
0.0
 40
0.2000545025
 40
0.4000948262
 40
0.6001079149
 40
0.8000807114
 40
1.0
 40
1.0
 40
1.0
 40
1.0
 10
39.7482685939
 20
10.8747560936
 30
0.0
 10
39.7482849453
 20
9.528039576
 30
0.0
 10
39.7485117198
 20
6.8347019868
 30
0.0
 10
39.7494128742
 20
2.7949267565
 30
0.0
 10
39.7508853978
 20
-1.2442982839
 30
0.0
 10
39.7529263931
 20
-5.282708297
 30
0.0
 10
39.7546667284
 20
-7.9746805311
 30
0.0
 10
39.7556317529
 20
-9.3204864769
 30
0.0
 11
39.7482685939
 21
10.8747560936
 31
0.0
 11
39.7486052418
 21
6.8346065546
 31
0.0
 11
39.7495081853
 21
2.7947434439
 31
0.0
 11
39.7509803222
 21
-1.2445694783
 31
0.0
 11
39.7530215565
 21
-5.2830684453
 31
0.0
 11
39.7556317529
 21
-9.3204864769
 31
0.0
  0
SPLINE
  5
282
100
AcDbEntity
  8
RACCORDO
100
AcDbSpline
 62
253
  6
CONTINUOUS
 70
0
 71
3
 72
12
 73
8
 74
6
 42
0.0000001
 43
0.0000001
 44
0.0000000001
 12
0.0144812117
 22
20.1952391213
 32
0.0
 13
0.0002452044
 23
20.1952443117
 33
0.0
 40
0.0
 40
0.0
 40
0.0
 40
0.0
 40
0.1999192886
 40
0.3998920851
 40
0.5999051738
 40
0.7999454975
 40
1.0
 40
1.0
 40
1.0
 40
1.0
 10
-3.7320247063
 20
-9.3204864769
 30
0.0
 10
-3.7310596817
 20
-7.9746805311
 30
0.0
 10
-3.7293193465
 20
-5.282708297
 30
0.0
 10
-3.7272783511
 20
-1.2442982839
 30
0.0
 10
-3.7258058276
 20
2.7949267565
 30
0.0
 10
-3.7249046731
 20
6.8347019868
 30
0.0
 10
-3.7246778986
 20
9.528039576
 30
0.0
 10
-3.7246615472
 20
10.8747560936
 30
0.0
 11
-3.7320247063
 21
-9.3204864769
 31
0.0
 11
-3.7294145099
 21
-5.2830684453
 31
0.0
 11
-3.7273732756
 21
-1.2445694783
 31
0.0
 11
-3.7259011386
 21
2.7947434439
 31
0.0
 11
-3.7249981952
 21
6.8346065546
 31
0.0
 11
-3.7246615472
 21
10.8747560936
 31
0.0
  0
SPLINE
  5
283
100
AcDbEntity
  8
RACCORDO
100
AcDbSpline
 62
253
  6
CONTINUOUS
 70
0
 71
3
 72
23
 73
19
 74
17
 42
0.0000001
 43
0.0000001
 44
0.0000000001
 12
0.0007172057
 22
-0.784257721
 32
0.0
 13
0.7842577226
 23
-0.0007154592
 33
0.0
 40
0.0
 40
0.0
 40
0.0
 40
0.0
 40
0.0624467145
 40
0.1249003766
 40
0.1873620657
 40
0.249832553
 40
0.3123122715
 40
0.3748012999
 40
0.4372993593
 40
0.4998058248
 40
0.5623197487
 40
0.6248398978
 40
0.6873648001
 40
0.7498928015
 40
0.8124221293
 40
0.87495096
 40
0.937477489
 40
1.0
 40
1.0
 40
1.0
 40
1.0
 10
-4.2484753541
 20
-10.257489208
 30
0.0
 10
-4.248460425
 20
-10.2738139807
 30
0.0
 10
-4.2468247318
 20
-10.3064865774
 30
0.0
 10
-4.2395781749
 20
-10.3550034306
 30
0.0
 10
-4.2276082056
 20
-10.4025870123
 30
0.0
 10
-4.2110300134
 20
-10.4487733961
 30
0.0
 10
-4.1900031094
 20
-10.4931199634
 30
0.0
 10
-4.1647297975
 20
-10.5351996998
 30
0.0
 10
-4.1354532222
 20
-10.5746079708
 30
0.0
 10
-4.1024550274
 20
-10.6109656968
 30
0.0
 10
-4.0660526487
 20
-10.6439231878
 30
0.0
 10
-4.0265962446
 20
-10.6731634526
 30
0.0
 10
-3.98446538
 20
-10.6984052587
 30
0.0
 10
-3.9400651851
 20
-10.7194058299
 30
0.0
 10
-3.8938231724
 20
-10.7359631798
 30
0.0
 10
-3.8461824686
 20
-10.7479180544
 30
0.0
 10
-3.7976074779
 20
-10.7551554537
 30
0.0
 10
-3.7648960938
 20
-10.7567890646
 30
0.0
 10
-3.7485515065
 20
-10.7568039754
 30
0.0
 11
-4.2484753541
 21
-10.257489208
 31
0.0
 11
-4.2460261496
 21
-10.3064022658
 31
0.0
 11
-4.2387915581
 21
-10.3548448116
 31
0.0
 11
-4.2268411718
 21
-10.402350859
 31
0.0
 11
-4.2102899456
 21
-10.4484634305
 31
0.0
 11
-4.1892970916
 21
-10.4927389525
 31
0.0
 11
-4.1640645477
 21
-10.534751523
 31
0.0
 11
-4.1348350346
 21
-10.5740970079
 31
0.0
 11
-4.1018897215
 21
-10.6103969289
 31
0.0
 11
-4.0655455212
 21
-10.6433021039
 31
0.0
 11
-4.0261520415
 21
-10.6724960062
 31
0.0
 11
-3.9840882225
 21
-10.6976978092
 31
0.0
 11
-3.9397586912
 21
-10.7186650876
 31
0.0
 11
-3.8935898692
 21
-10.7351961496
 31
0.0
 11
-3.846025871
 21
-10.747131977
 31
0.0
 11
-3.7975242319
 21
-10.7543577547
 31
0.0
 11
-3.7485515065
 21
-10.7568039754
 31
0.0
  0
SPLINE
  5
284
100
AcDbEntity
  8
RACCORDO
100
AcDbSpline
 62
253
  6
CONTINUOUS
 70
0
 71
3
 72
23
 73
19
 74
17
 42
0.0000001
 43
0.0000001
 44
0.0000000001
 12
0.1958139994
 22
-0.4614488269
 32
0.0
 13
0.501276384
 23
-0.000359198
 33
0.0
 40
0.0
 40
0.0
 40
0.0
 40
0.0
 40
0.0075179306
 40
0.0237181142
 40
0.0489151049
 40
0.082971657
 40
0.125604945
 40
0.1764322344
 40
0.2349857561
 40
0.3007211345
 40
0.3730242503
 40
0.4512178774
 40
0.5345685242
 40
0.6222936129
 40
0.7135690194
 40
0.8075369478
 40
0.9033140889
 40
1.0
 40
1.0
 40
1.0
 40
1.0
 10
-4.231948556
 20
-9.2999464523
 30
0.0
 10
-4.2314578507
 20
-9.3011028324
 30
0.0
 10
-4.2270613418
 20
-9.3025007977
 30
0.0
 10
-4.2196062205
 20
-9.3043373662
 30
0.0
 10
-4.2068490486
 20
-9.3061155007
 30
0.0
 10
-4.190034878
 20
-9.3079436631
 30
0.0
 10
-4.1687557404
 20
-9.3096976708
 30
0.0
 10
-4.1434256184
 20
-9.3113834169
 30
0.0
 10
-4.114202458
 20
-9.312967861
 30
0.0
 10
-4.0813875575
 20
-9.3144372431
 30
0.0
 10
-4.0452808323
 20
-9.3157746881
 30
0.0
 10
-4.0062248697
 20
-9.3169669372
 30
0.0
 10
-3.9645865307
 20
-9.3180019292
 30
0.0
 10
-3.920758137
 20
-9.3188694797
 30
0.0
 10
-3.8751523397
 20
-9.3195610836
 30
0.0
 10
-3.8281986368
 20
-9.3200700124
 30
0.0
 10
-3.7803392156
 20
-9.3203913318
 30
0.0
 10
-3.7481801631
 20
-9.3204782654
 30
0.0
 10
-3.7320247084
 20
-9.3204898418
 30
0.0
 11
-4.231948556
 21
-9.2999464523
 31
0.0
 11
-4.2287492598
 21
-9.3019380756
 31
0.0
 11
-4.2208717773
 21
-9.3039109417
 31
0.0
 11
-4.2083902993
 21
-9.3058464699
 31
0.0
 11
-4.1914223772
 21
-9.3077264313
 31
0.0
 11
-4.170127816
 21
-9.3095331204
 31
0.0
 11
-4.1447071694
 21
-9.3112495216
 31
0.0
 11
-4.1153998509
 21
-9.3128594696
 31
0.0
 11
-4.0824818787
 21
-9.314347802
 31
0.0
 11
-4.0462632766
 21
-9.3157005015
 31
0.0
 11
-4.0070851539
 21
-9.3169048282
 31
0.0
 11
-3.9653164928
 21
-9.3179494398
 31
0.0
 11
-3.9213506737
 21
-9.318824498
 31
0.0
 11
-3.8756017694
 21
-9.3195217615
 31
0.0
 11
-3.8285006465
 21
-9.3200346633
 31
0.0
 11
-3.7804909065
 21
-9.320358373
 31
0.0
 11
-3.7320247084
 21
-9.3204898418
 31
0.0
  0
SPLINE
  5
285
100
AcDbEntity
  8
RACCORDO
100
AcDbSpline
 62
253
  6
CONTINUOUS
 70
0
 71
3
 72
24
 73
20
 74
18
 42
0.0000001
 43
0.0000001
 44
0.0000000001
 12
-0.4999521308
 22
0.0000024885
 32
0.0
 13
-0.4767501352
 23
0.1505371774
 33
0.0
 40
0.0
 40
0.0
 40
0.0
 40
0.0
 40
0.0912540829
 40
0.1817454916
 40
0.2707238878
 40
0.3574429796
 40
0.4411795708
 40
0.5212364791
 40
0.5969446007
 40
0.6676724633
 40
0.7328295844
 40
0.7918732703
 40
0.8443105044
 40
0.8897039432
 40
0.9276744698
 40
0.9579063104
 40
0.980147827
 40
0.9942146207
 40
1.0
 40
1.0
 40
1.0
 40
1.0
 10
-3.7246615472
 20
10.8747560925
 30
0.0
 10
-3.739869105
 20
10.8747561682
 30
0.0
 10
-3.7701571208
 20
10.8747639183
 30
0.0
 10
-3.8152734377
 20
10.8747983182
 30
0.0
 10
-3.8596339721
 20
10.8748551761
 30
0.0
 10
-3.9028687759
 20
10.874934005
 30
0.0
 10
-3.9446167601
 20
10.8750341236
 30
0.0
 10
-3.9845296944
 20
10.8751546757
 30
0.0
 10
-4.0222746457
 20
10.8752945752
 30
0.0
 10
-4.0575364171
 20
10.8754527175
 30
0.0
 10
-4.0900210179
 20
10.8756272689
 30
0.0
 10
-4.1194570586
 20
10.875818006
 30
0.0
 10
-4.1456001514
 20
10.8760187699
 30
0.0
 10
-4.1682285625
 20
10.8762407996
 30
0.0
 10
-4.1871636639
 20
10.8764426533
 30
0.0
 10
-4.2022197281
 20
10.8767282673
 30
0.0
 10
-4.2133412843
 20
10.8768230701
 30
0.0
 10
-4.2202871496
 20
10.8772936232
 30
0.0
 10
-4.2236689826
 20
10.8771774171
 30
0.0
 10
-4.2245883761
 20
10.877467722
 30
0.0
 11
-3.7246615472
 21
10.8747560925
 31
0.0
 11
-3.7702842189
 21
10.874767819
 31
0.0
 11
-3.8155255783
 21
10.8748024587
 31
0.0
 11
-3.8600104802
 21
10.8748597254
 31
0.0
 11
-3.9033658022
 21
10.874939138
 31
0.0
 11
-3.9452299678
 21
10.8750400331
 31
0.0
 11
-3.9852544052
 21
10.875161569
 31
0.0
 11
-4.0231045787
 21
10.8753027285
 31
0.0
 11
-4.0584647641
 21
10.8754623322
 31
0.0
 11
-4.0910397263
 21
10.875639045
 31
0.0
 11
-4.1205581162
 21
10.8758313927
 31
0.0
 11
-4.1467734108
 21
10.8760377674
 31
0.0
 11
-4.1694669037
 21
10.8762564453
 31
0.0
 11
-4.1884489663
 21
10.8764855974
 31
0.0
 11
-4.2035615699
 21
10.8767233123
 31
0.0
 11
-4.2146785796
 21
10.8769676105
 31
0.0
 11
-4.2217069
 21
10.8772164311
 31
0.0
 11
-4.2245883761
 21
10.877467722
 31
0.0
  0
SPLINE
  5
286
100
AcDbEntity
  8
RACCORDO
100
AcDbSpline
 62
253
  6
CONTINUOUS
 70
0
 71
3
 72
24
 73
20
 74
18
 42
0.0000001
 43
0.0000001
 44
0.0000000001
 12
-0.299992241
 22
0.000000035
 32
0.0
 13
-0.2683670413
 23
0.1340689219
 33
0.0
 40
0.0
 40
0.0
 40
0.0
 40
0.0
 40
0.0912301317
 40
0.1817170644
 40
0.2706904398
 40
0.3574052007
 40
0.441137941
 40
0.5211915682
 40
0.5968970004
 40
0.6676227939
 40
0.732778367
 40
0.7918209116
 40
0.8442575814
 40
0.8896512674
 40
0.9276231747
 40
0.9578581199
 40
0.9801053631
 40
0.9941837438
 40
1.0
 40
1.0
 40
1.0
 40
1.0
 10
-3.7246645042
 20
11.074887736
 30
0.0
 10
-3.7337872814
 20
11.0748877371
 30
0.0
 10
-3.7519585187
 20
11.0748949535
 30
0.0
 10
-3.7790268459
 20
11.0749273931
 30
0.0
 10
-3.8056436133
 20
11.0749811548
 30
0.0
 10
-3.8315849259
 20
11.0750557794
 30
0.0
 10
-3.8566342156
 20
11.0751506213
 30
0.0
 10
-3.8805825057
 20
11.0752648712
 30
0.0
 10
-3.9032300295
 20
11.0753975052
 30
0.0
 10
-3.9243876111
 20
11.0755474635
 30
0.0
 10
-3.9438788868
 20
11.0757130575
 30
0.0
 10
-3.9615407224
 20
11.0758939191
 30
0.0
 10
-3.9772273009
 20
11.0760847071
 30
0.0
 10
-3.9908030715
 20
11.0762945557
 30
0.0
 10
-4.0021683093
 20
11.0764886263
 30
0.0
 10
-4.0111912618
 20
11.0767532106
 30
0.0
 10
-4.0178901681
 20
11.0768587193
 30
0.0
 10
-4.0220116083
 20
11.0772766324
 30
0.0
 10
-4.0240984869
 20
11.0772001635
 30
0.0
 10
-4.0246187841
 20
11.0774600899
 30
0.0
 11
-3.7246645042
 21
11.074887736
 31
0.0
 11
-3.7520328336
 21
11.074898653
 31
0.0
 11
-3.7791781917
 21
11.0749313221
 31
0.0
 11
-3.8058694591
 21
11.0749854716
 31
0.0
 11
-3.8318831059
 21
11.0750606496
 31
0.0
 11
-3.8570020964
 21
11.0751562283
 31
0.0
 11
-3.8810172872
 21
11.0752714125
 31
0.0
 11
-3.9037279352
 21
11.07540524
 31
0.0
 11
-3.9249445846
 21
11.0755565945
 31
0.0
 11
-3.9444900323
 21
11.0757242119
 31
0.0
 11
-3.9622013975
 21
11.0759066953
 31
0.0
 11
-3.9779307726
 21
11.0761025212
 31
0.0
 11
-3.9915469448
 21
11.0763100558
 31
0.0
 11
-4.0029361455
 21
11.0765275645
 31
0.0
 11
-4.0120035867
 21
11.0767532361
 31
0.0
 11
-4.0186735551
 21
11.0769851878
 31
0.0
 11
-4.022890345
 21
11.077221477
 31
0.0
 11
-4.0246187841
 21
11.0774600899
 31
0.0
  0
SPLINE
  5
287
100
AcDbEntity
  8
RACCORDO
100
AcDbSpline
 62
253
  6
CONTINUOUS
 70
0
 71
3
 72
24
 73
20
 74
18
 42
0.0000001
 43
0.0000001
 44
0.0000000001
 12
-0.2683670417
 22
-0.1340689211
 32
0.0
 13
-0.299992241
 23
-0.000000035
 33
0.0
 40
0.0
 40
0.0
 40
0.0
 40
0.0
 40
0.0058162562
 40
0.0198946369
 40
0.04214188
 40
0.0723768253
 40
0.1103487325
 40
0.1557424186
 40
0.2081790883
 40
0.267221633
 40
0.332377206
 40
0.4031029995
 40
0.4788084317
 40
0.5588620589
 40
0.6425947992
 40
0.7293095601
 40
0.8182829355
 40
0.9087698682
 40
1.0
 40
1.0
 40
1.0
 40
1.0
 10
40.0482258307
 20
11.0774600899
 30
0.0
 10
40.0477055336
 20
11.0772001635
 30
0.0
 10
40.045618655
 20
11.0772766324
 30
0.0
 10
40.0414972148
 20
11.0768587193
 30
0.0
 10
40.0347983085
 20
11.0767532106
 30
0.0
 10
40.0257753559
 20
11.0764886263
 30
0.0
 10
40.0144101181
 20
11.0762945557
 30
0.0
 10
40.0008343476
 20
11.0760847071
 30
0.0
 10
39.9851477691
 20
11.0758939191
 30
0.0
 10
39.9674859335
 20
11.0757130575
 30
0.0
 10
39.9479946577
 20
11.0755474635
 30
0.0
 10
39.9268370761
 20
11.0753975052
 30
0.0
 10
39.9041895523
 20
11.0752648712
 30
0.0
 10
39.8802412623
 20
11.0751506213
 30
0.0
 10
39.8551919725
 20
11.0750557794
 30
0.0
 10
39.82925066
 20
11.0749811548
 30
0.0
 10
39.8026338926
 20
11.0749273931
 30
0.0
 10
39.7755655653
 20
11.0748949535
 30
0.0
 10
39.757394328
 20
11.0748877371
 30
0.0
 10
39.7482715508
 20
11.074887736
 30
0.0
 11
40.0482258307
 21
11.0774600899
 31
0.0
 11
40.0464973916
 21
11.077221477
 31
0.0
 11
40.0422806017
 21
11.0769851878
 31
0.0
 11
40.0356106333
 21
11.0767532361
 31
0.0
 11
40.0265431922
 21
11.0765275645
 31
0.0
 11
40.0151539914
 21
11.0763100558
 31
0.0
 11
40.0015378193
 21
11.0761025212
 31
0.0
 11
39.9858084442
 21
11.0759066953
 31
0.0
 11
39.9680970789
 21
11.0757242119
 31
0.0
 11
39.9485516313
 21
11.0755565945
 31
0.0
 11
39.9273349818
 21
11.07540524
 31
0.0
 11
39.9046243339
 21
11.0752714125
 31
0.0
 11
39.8806091431
 21
11.0751562283
 31
0.0
 11
39.8554901525
 21
11.0750606496
 31
0.0
 11
39.8294765057
 21
11.0749854716
 31
0.0
 11
39.8027852384
 21
11.0749313221
 31
0.0
 11
39.7756398803
 21
11.074898653
 31
0.0
 11
39.7482715508
 21
11.074887736
 31
0.0
  0
SPLINE
  5
288
100
AcDbEntity
  8
RACCORDO
100
AcDbSpline
 62
253
  6
CONTINUOUS
 70
0
 71
3
 72
24
 73
20
 74
18
 42
0.0000001
 43
0.0000001
 44
0.0000000001
 12
-0.4767501351
 22
-0.1505371776
 32
0.0
 13
-0.4999521308
 23
-0.0000024885
 33
0.0
 40
0.0
 40
0.0
 40
0.0
 40
0.0
 40
0.0057853793
 40
0.019852173
 40
0.0420936896
 40
0.0723255301
 40
0.1102960568
 40
0.1556894955
 40
0.2081267297
 40
0.2671704155
 40
0.3323275366
 40
0.4030553992
 40
0.4787635208
 40
0.5588204291
 40
0.6425570203
 40
0.7292761121
 40
0.8182545083
 40
0.908745917
 40
1.0
 40
1.0
 40
1.0
 40
1.0
 10
40.2481954227
 20
10.877467722
 30
0.0
 10
40.2472760292
 20
10.8771774171
 30
0.0
 10
40.2438941963
 20
10.8772936232
 30
0.0
 10
40.236948331
 20
10.8768230701
 30
0.0
 10
40.2258267748
 20
10.8767282673
 30
0.0
 10
40.2107707105
 20
10.8764426533
 30
0.0
 10
40.1918356092
 20
10.8762407996
 30
0.0
 10
40.1692071981
 20
10.8760187699
 30
0.0
 10
40.1430641053
 20
10.875818006
 30
0.0
 10
40.1136280646
 20
10.8756272689
 30
0.0
 10
40.0811434637
 20
10.8754527175
 30
0.0
 10
40.0458816923
 20
10.8752945752
 30
0.0
 10
40.0081367411
 20
10.8751546757
 30
0.0
 10
39.9682238068
 20
10.8750341236
 30
0.0
 10
39.9264758226
 20
10.874934005
 30
0.0
 10
39.8832410188
 20
10.8748551761
 30
0.0
 10
39.8388804844
 20
10.8747983182
 30
0.0
 10
39.7937641674
 20
10.8747639183
 30
0.0
 10
39.7634761516
 20
10.8747561682
 30
0.0
 10
39.7482685939
 20
10.8747560925
 30
0.0
 11
40.2481954227
 21
10.877467722
 31
0.0
 11
40.2453139467
 21
10.8772164311
 31
0.0
 11
40.2382856262
 21
10.8769676105
 31
0.0
 11
40.2271686165
 21
10.8767233123
 31
0.0
 11
40.2120560129
 21
10.8764855974
 31
0.0
 11
40.1930739503
 21
10.8762564453
 31
0.0
 11
40.1703804575
 21
10.8760377674
 31
0.0
 11
40.1441651629
 21
10.8758313927
 31
0.0
 11
40.114646773
 21
10.875639045
 31
0.0
 11
40.0820718108
 21
10.8754623322
 31
0.0
 11
40.0467116254
 21
10.8753027285
 31
0.0
 11
40.0088614519
 21
10.875161569
 31
0.0
 11
39.9688370145
 21
10.8750400331
 31
0.0
 11
39.9269728489
 21
10.874939138
 31
0.0
 11
39.8836175269
 21
10.8748597254
 31
0.0
 11
39.839132625
 21
10.8748024587
 31
0.0
 11
39.7938912656
 21
10.874767819
 31
0.0
 11
39.7482685939
 21
10.8747560925
 31
0.0
  0
SPLINE
  5
289
100
AcDbEntity
  8
RACCORDO
100
AcDbSpline
 62
253
  6
CONTINUOUS
 70
0
 71
3
 72
23
 73
19
 74
17
 42
0.0000001
 43
0.0000001
 44
0.0000000001
 12
-0.1958144916
 22
-0.4614486174
 32
0.0
 13
-0.5012763835
 23
-0.0003591979
 33
0.0
 40
0.0
 40
0.0
 40
0.0
 40
0.0
 40
0.0075179345
 40
0.0237181219
 40
0.0489151158
 40
0.0829716705
 40
0.1256049604
 40
0.176432251
 40
0.2349857732
 40
0.3007211516
 40
0.3730242667
 40
0.4512178925
 40
0.5345685376
 40
0.6222936241
 40
0.7135690281
 40
0.8075369538
 40
0.903314092
 40
1.0
 40
1.0
 40
1.0
 40
1.0
 10
40.2555556026
 20
-9.2999464523
 30
0.0
 10
40.2550648958
 20
-9.3011028325
 30
0.0
 10
40.2506683867
 20
-9.3025007971
 30
0.0
 10
40.2432132625
 20
-9.3043373661
 30
0.0
 10
40.2304560896
 20
-9.3061155003
 30
0.0
 10
40.2136419174
 20
-9.3079436627
 30
0.0
 10
40.192362779
 20
-9.3096976703
 30
0.0
 10
40.1670326564
 20
-9.3113834163
 30
0.0
 10
40.1378094957
 20
-9.3129678604
 30
0.0
 10
40.1049945953
 20
-9.3144372424
 30
0.0
 10
40.0688878705
 20
-9.3157746872
 30
0.0
 10
40.0298319086
 20
-9.3169669363
 30
0.0
 10
39.9881935704
 20
-9.3180019282
 30
0.0
 10
39.9443651779
 20
-9.3188694786
 30
0.0
 10
39.8987593819
 20
-9.3195610824
 30
0.0
 10
39.8518056803
 20
-9.3200700112
 30
0.0
 10
39.8039462607
 20
-9.3203913306
 30
0.0
 10
39.7717872092
 20
-9.3204782641
 30
0.0
 10
39.7556317551
 20
-9.3204898406
 30
0.0
 11
40.2555556026
 21
-9.2999464523
 31
0.0
 11
40.2523563041
 21
-9.3019380755
 31
0.0
 11
40.2444788196
 21
-9.3039109415
 31
0.0
 11
40.23199734
 21
-9.3058464696
 31
0.0
 11
40.2150294166
 21
-9.307726431
 31
0.0
 11
40.1937348545
 21
-9.3095331199
 31
0.0
 11
40.1683142073
 21
-9.311249521
 31
0.0
 11
40.1390068885
 21
-9.312859469
 31
0.0
 11
40.1060889164
 21
-9.3143478013
 31
0.0
 11
40.0698703146
 21
-9.3157005006
 31
0.0
 11
40.0306921926
 21
-9.3169048273
 31
0.0
 11
39.9889235325
 21
-9.3179494388
 31
0.0
 11
39.9449577144
 21
-9.318824497
 31
0.0
 11
39.8992088115
 21
-9.3195217604
 31
0.0
 11
39.85210769
 21
-9.3200346622
 31
0.0
 11
39.8040979515
 21
-9.3203583718
 31
0.0
 11
39.7556317551
 21
-9.3204898406
 31
0.0
  0
SPLINE
  5
28A
100
AcDbEntity
  8
RACCORDO
100
AcDbSpline
 62
253
  6
CONTINUOUS
 70
0
 71
3
 72
23
 73
19
 74
17
 42
0.0000001
 43
0.0000001
 44
0.0000000001
 12
-0.0261516865
 22
-0.4991559418
 32
0.0
 13
0.4991555254
 23
-0.0261596326
 33
0.0
 40
0.0
 40
0.0
 40
0.0
 40
0.0
 40
0.0979871817
 40
0.1950232916
 40
0.2901752017
 40
0.3825279267
 40
0.4711934375
 40
0.5553192191
 40
0.6340964926
 40
0.7067680292
 40
0.7726354882
 40
0.8310662277
 40
0.8814995662
 40
0.9234525413
 40
0.9565254334
 40
0.9804082146
 40
0.9948946581
 40
1.0
 40
1.0
 40
1.0
 40
1.0
 10
-20.3589990512
 20
-10.257489208
 30
0.0
 10
-20.3598532279
 20
-10.273792836
 30
0.0
 10
-20.3615256582
 20
-10.306243302
 30
0.0
 10
-20.3639310263
 20
-10.3545305631
 30
0.0
 10
-20.3662058593
 20
-10.4018843097
 30
0.0
 10
-20.3683283492
 20
-10.4478490507
 30
0.0
 10
-20.3702781448
 20
-10.4919825636
 30
0.0
 10
-20.3720367604
 20
-10.5338605714
 30
0.0
 10
-20.37358709
 20
-10.573079365
 30
0.0
 10
-20.3749159211
 20
-10.6092646094
 30
0.0
 10
-20.3760065253
 20
-10.6420587479
 30
0.0
 10
-20.3768633375
 20
-10.6711763804
 30
0.0
 10
-20.3774365626
 20
-10.696245971
 30
0.0
 10
-20.3778483213
 20
-10.7172927065
 30
0.0
 10
-20.3777602591
 20
-10.7333907444
 30
0.0
 10
-20.3780239594
 20
-10.7461703475
 30
0.0
 10
-20.3769465471
 20
-10.7518438389
 30
0.0
 10
-20.3772902793
 20
-10.7567594574
 30
0.0
 10
-20.3764408261
 20
-10.7568039754
 30
0.0
 11
-20.3589990512
 21
-10.257489208
 31
0.0
 11
-20.361519725
 21
-10.3064022669
 31
0.0
 11
-20.363932211
 21
-10.3548448136
 31
0.0
 11
-20.3662133027
 21
-10.4023508617
 31
0.0
 11
-20.3683410575
 21
-10.4484634337
 31
0.0
 11
-20.3702950076
 21
-10.4927389559
 31
0.0
 11
-20.3720563574
 21
-10.5347515264
 31
0.0
 11
-20.3736081639
 21
-10.5740970112
 31
0.0
 11
-20.3749354995
 21
-10.6103969319
 31
0.0
 11
-20.3760255963
 21
-10.6433021064
 31
0.0
 11
-20.3768679681
 21
-10.6724960083
 31
0.0
 11
-20.3774545119
 21
-10.6976978108
 31
0.0
 11
-20.3777795855
 21
-10.7186650887
 31
0.0
 11
-20.377840062
 21
-10.7351961502
 31
0.0
 11
-20.3776353595
 21
-10.7471319773
 31
0.0
 11
-20.3771674472
 21
-10.7543577548
 31
0.0
 11
-20.3764408261
 21
-10.7568039754
 31
0.0
  0
SPLINE
  5
28B
100
AcDbEntity
  8
RACCORDO
100
AcDbSpline
 62
253
  6
CONTINUOUS
 70
0
 71
3
 72
20
 73
16
 74
14
 42
0.0000001
 43
0.0000001
 44
0.0000000001
 12
-0.0017454999
 22
0.2000753938
 32
0.0
 13
0.2000753892
 23
0.0017460315
 33
0.0
 40
0.0
 40
0.0
 40
0.0
 40
0.0
 40
0.1204740191
 40
0.2391899165
 40
0.3544174474
 40
0.4644772786
 40
0.5677655121
 40
0.6627771273
 40
0.7481280223
 40
0.8225753743
 40
0.8850361326
 40
0.9346036999
 40
0.9705637832
 40
0.992416049
 40
1.0
 40
1.0
 40
1.0
 40
1.0
 10
-21.7274861377
 20
10.8774677053
 30
0.0
 10
-21.7275562334
 20
10.8855023343
 30
0.0
 10
-21.7276786895
 20
10.9014544966
 30
0.0
 10
-21.7278098641
 20
10.9250917614
 30
0.0
 10
-21.7278862916
 20
10.9480348111
 30
0.0
 10
-21.7279066925
 20
10.9699486516
 30
0.0
 10
-21.7278718117
 20
10.9905155218
 30
0.0
 10
-21.7277794536
 20
11.0094298563
 30
0.0
 10
-21.727640903
 20
11.026434393
 30
0.0
 10
-21.7274293774
 20
11.0412240443
 30
0.0
 10
-21.7272362662
 20
11.0537519385
 30
0.0
 10
-21.7268280909
 20
11.063372217
 30
0.0
 10
-21.7268105551
 20
11.0710955087
 30
0.0
 10
-21.7259730257
 20
11.0744317101
 30
0.0
 10
-21.7262467508
 20
11.077455676
 30
0.0
 10
-21.7257409635
 20
11.0774600899
 30
0.0
 11
-21.7274861377
 21
10.8774677053
 31
0.0
 11
-21.7276709822
 21
10.9015718007
 31
0.0
 11
-21.7278022427
 21
10.9253244718
 31
0.0
 11
-21.7278780052
 21
10.9483794183
 31
0.0
 11
-21.7278971653
 21
10.970400512
 31
0.0
 11
-21.7278594437
 21
10.991066698
 31
0.0
 11
-21.7277653902
 21
11.0100766751
 31
0.0
 11
-21.7276163762
 21
11.0271532887
 31
0.0
 11
-21.7274145741
 21
11.0420475718
 31
0.0
 11
-21.7271629262
 21
11.0545423743
 31
0.0
 11
-21.7268651013
 21
11.0644555294
 31
0.0
 11
-21.7265254416
 21
11.0716425093
 31
0.0
 11
-21.726148899
 21
11.0759985321
 31
0.0
 11
-21.7257409635
 21
11.0774600899
 31
0.0
  0
LINE
  5
28C
100
AcDbEntity
  8
RACCORDO
100
AcDbLine
 62
253
  6
CONTINUOUS
 10
-21.7274831029
 20
10.877467722
 11
-22.2187581731
 21
10.8747560925
  0
ELLIPSE
  5
28D
100
AcDbEntity
  8
RACCORDO
100
AcDbEllipse
 62
7
  6
CONTINUOUS
 10
-0.4727264228
 20
-10.906562425
 30
0.0
 11
0.2
 21
0.0
 31
0.0
 40
0.0524077793
 41
1.5707963268
 42
2.617993878
  0
ELLIPSE
  5
28E
100
AcDbEntity
  8
RACCORDO
100
AcDbEllipse
 62
7
  6
CONTINUOUS
 10
2.7963334695
 20
-10.906562425
 30
0.0
 11
0.2
 21
-0.0
 31
0.0
 40
0.0524077793
 41
0.5235987756
 42
1.5707963268
  0
ELLIPSE
  5
28F
100
AcDbEntity
  8
RACCORDO
100
AcDbEllipse
 62
7
  6
CONTINUOUS
 10
13.9963334695
 20
-10.985174094
 30
0.0
 11
0.2
 21
0.0
 31
0.0
 40
0.0524077793
 41
0.5235987756
 42
1.5707963268
  0
ELLIPSE
  5
290
100
AcDbEntity
  8
RACCORDO
100
AcDbEllipse
 62
7
  6
CONTINUOUS
 10
10.7272735772
 20
-10.985174094
 30
0.0
 11
0.2
 21
-0.0
 31
0.0
 40
0.0524077793
 41
1.5707963268
 42
2.617993878
  0
ELLIPSE
  5
291
100
AcDbEntity
  8
RACCORDO
100
AcDbEllipse
 62
7
  6
CONTINUOUS
 10
25.2963334695
 20
-10.985174094
 30
0.0
 11
0.2
 21
0.0
 31
0.0
 40
0.0524077793
 41
0.5235987756
 42
1.5707963268
  0
ELLIPSE
  5
292
100
AcDbEntity
  8
RACCORDO
100
AcDbEllipse
 62
7
  6
CONTINUOUS
 10
22.0272735772
 20
-10.985174094
 30
0.0
 11
0.2
 21
0.0
 31
0.0
 40
0.0524077793
 41
1.5707963268
 42
2.617993878
  0
ELLIPSE
  5
293
100
AcDbEntity
  8
RACCORDO
100
AcDbEllipse
 62
7
  6
CONTINUOUS
 10
36.4963334695
 20
-10.906562425
 30
0.0
 11
0.2
 21
0.0
 31
0.0
 40
0.0524077793
 41
0.5235987756
 42
1.5707963268
  0
ELLIPSE
  5
294
100
AcDbEntity
  8
RACCORDO
100
AcDbEllipse
 62
7
  6
CONTINUOUS
 10
39.8617273593
 20
-10.5264141444
 30
0.0
 11
-0.1582391023
 21
0.4751033573
 31
0.0
 40
0.9984778551
 41
-3.4626430041
 42
-1.8927600658
  0
ELLIPSE
  5
295
100
AcDbEntity
  8
RACCORDO
100
AcDbEllipse
 62
7
  6
CONTINUOUS
 10
-3.8381203127
 20
-10.5264141444
 30
0.0
 11
0.1582391023
 21
0.4751033573
 31
0.0
 40
0.9984778551
 41
-4.3904252414
 42
-2.8205423031
  0
ELLIPSE
  5
296
100
AcDbEntity
  8
RACCORDO
100
AcDbEllipse
 62
7
  6
CONTINUOUS
 10
33.2272735772
 20
-10.906562425
 30
0.0
 11
0.2
 21
-0.0
 31
0.0
 40
0.0524077793
 41
1.5707963268
 42
2.617993878
  0
ELLIPSE
  5
297
100
AcDbEntity
  8
RACCORDO
100
AcDbEllipse
 62
7
  6
CONTINUOUS
 10
40.1216264084
 20
10.9141651991
 30
0.0
 11
0.1789222233
 21
0.0894542984
 31
0.0
 40
0.9998096356
 41
-0.4635410001
 42
1.1071030277
  0
ELLIPSE
  5
298
100
AcDbEntity
  8
RACCORDO
100
AcDbEllipse
 62
7
  6
CONTINUOUS
 10
-4.0980193617
 20
10.9141651991
 30
0.0
 11
0.1789222233
 21
-0.0894542985
 31
0.0
 40
0.9998096356
 41
2.0344896259
 42
3.6051336537
  0
ENDSEC
  0
SECTION
  2
OBJECTS
  0
DICTIONARY
  5
C
100
AcDbDictionary
280
0
281
1
  3
ACAD_GROUP
350
D
  3
ACAD_MLINESTYLE
350
17
  3
ACAD_LAYOUT
350
1A
  3
ACAD_PLOTSETTINGS
350
19
  3
ACAD_PLOTSTYLENAME
350
E
  0
DICTIONARY
  5
D
102
{ACAD_REACTORS
330
C
102
}
100
AcDbDictionary
280
0
281
1
  0
ACDBDICTIONARYWDFLT
  5
E
102
{ACAD_REACTORS
330
C
102
}
100
AcDbDictionary
281
1
  3
Normal
350
F
100
AcDbDictionaryWithDefault
340
F
  0
DICTIONARY
  5
17
102
{ACAD_REACTORS
330
C
102
}
100
AcDbDictionary
280
0
281
1
  3
Standard
350
18
  0
DICTIONARY
  5
19
102
{ACAD_REACTORS
330
C
102
}
100
AcDbDictionary
281
1
  0
DICTIONARY
  5
1A
102
{ACAD_REACTORS
330
C
102
}
100
AcDbDictionary
281
1
  3
Model
350
299
  3
Layout1
350
29A
  0
ACDBPLACEHOLDER
  5
F
102
{ACAD_REACTORS
330
E
102
}
  0
MLINESTYLE
  5
18
102
{ACAD_REACTORS
330
17
102
}
100
AcDbMlineStyle
  2
STANDARD
 70
0
  3

 62
256
 51
90.0
 52
90.0
 71
2
 49
0.5
 62
256
  6
BYLAYER
 49
-0.5
 62
256
  6
BYLAYER
  0
LAYOUT
  5
299
102
{ACAD_REACTORS
330
1A
102
}
100
AcDbPlotSettings
  1

  2
none_device
  4
ISO_A4_(297.00_x_210.00_MM)
  6

 40
0.0
 41
0.0
 42
0.0
 43
0.0
 44
297.0
 45
210.0
 46
0.0
 47
0.0
 48
0.0
 49
0.0
140
0.0
141
0.0
142
1.0
143
1.0
 70
1024
 72
1
 73
0
 74
0
  7

 75
0
147
1.0
148
0.0
149
0.0
100
AcDbLayout
  1
Model
 70
0
 71
0
 10
0.0
 20
0.0
 11
297.0
 21
210.0
 12
0.0
 22
0.0
 32
0.0
 14
0.0
 24
0.0
 34
0.0
 15
0.0
 25
0.0
 35
0.0
146
0.0
 13
0.0
 23
0.0
 33
0.0
 16
1.0
 26
0.0
 36
0.0
 17
0.0
 27
1.0
 37
0.0
 76
0
330
20F
345
0
346
0
  0
LAYOUT
  5
29A
102
{ACAD_REACTORS
330
1A
102
}
100
AcDbPlotSettings
  1

  2
none_device
  4
ISO_A4_(297.00_x_210.00_MM)
  6

 40
0.0
 41
0.0
 42
0.0
 43
0.0
 44
297.0
 45
210.0
 46
0.0
 47
0.0
 48
0.0
 49
0.0
140
0.0
141
0.0
142
1.0
143
1.0
 70
0
 72
1
 73
0
 74
0
  7

 75
0
147
1.0
148
0.0
149
0.0
100
AcDbLayout
  1
Layout1
 70
0
 71
1
 10
0.0
 20
0.0
 11
297.0
 21
210.0
 12
0.0
 22
0.0
 32
0.0
 14
0.0
 24
0.0
 34
0.0
 15
0.0
 25
0.0
 35
0.0
146
0.0
 13
0.0
 23
0.0
 33
0.0
 16
1.0
 26
0.0
 36
0.0
 17
0.0
 27
1.0
 37
0.0
 76
0
330
210
345
0
346
0
  0
ENDSEC
  0
EOF
