  0
SECTION
  2
HEADER
  9
$ACADVER
  1
AC1015
  9
$DWGCODEPAGE
  3
ANSI_1252
  9
$EXTMAX
 10
297.0
 20
210.0
 30
0.0
  9
$EXTMIN
 10
0.0
 20
0.0
 30
0.0
  9
$LIMMIN
 10
0.0
 20
0.0
  9
$LIMMAX
 10
297.0
 20
210.0
  9
$VIEWCTR
 10
148.5
 20
105.0
  9
$VIEWSIZE
 40
210.0
  9
$CLAYER
  8
0
  9
$LTSCALE
 40
16.335
  9
$CELTYPE
  6
BYLAYER
  9
$DIMSCALE
 40
1.0
  9
$DIMASZ
 40
3.0
  9
$DIMEXO
 40
1.85625
  9
$DIMDLI
 40
11.286
  9
$DIMEXE
 40
5.346
  9
$DIMCEN
 40
2.673
  9
$DIMLFAC
 40
1.0
  9
$DIMBLK
  1
_FILLED
  9
$DIMTXT
 40
3.0
  9
$DIMTOL
 70
1
  9
$DIMLIM
 70
0
  9
$DIMTFAC
 40
1.0
  9
$DIMTP
 40
0.01
  9
$DIMTM
 40
0.01
  9
$PDMODE
 70
3
  9
$PDSIZE
 40
3.0
  9
$HANDSEED
  5
798
  9
$TILEMODE
 70
1
  9
$MEASUREMENT
 70
1
  9
$INSUNITS
 70
4
  0
ENDSEC
  0
SECTION
  2
CLASSES
  0
CLASS
  1
ACDBDICTIONARYWDFLT
  2
AcDbDictionaryWithDefault
  3
AutoCAD 2000
 90
0
280
0
281
0
  0
CLASS
  1
ACDBPLACEHOLDER
  2
AcDbPlaceHolder
  3
AutoCAD 2000
 90
0
280
0
281
0
  0
CLASS
  1
LAYOUT
  2
AcDbLayout
  3
AutoCAD 2000
 90
0
280
0
281
0
  0
ENDSEC
  0
SECTION
  2
TABLES
  0
TABLE
  2
VPORT
  5
8
100
AcDbSymbolTable
 70
2
  0
VPORT
  5
1F4
100
AcDbSymbolTableRecord
100
AcDbViewportTableRecord
  2
*ACTIVE
 70
0
 10
0.0
 20
0.0
 11
1.0
 21
1.0
 12
148.5
 22
105.0
 13
0.0
 23
0.0
 14
1.0
 24
1.0
 15
0.0
 25
0.0
 16
0.0
 26
0.0
 36
1.0
 17
0.0
 27
0.0
 37
0.0
 40
210.0
 41
1.4142857143
 42
50.0
 43
0.0
 44
0.0
 50
0.0
 51
0.0
 71
0
 72
100
 73
1
 74
1
 75
0
 76
0
 77
0
 78
0
  0
ENDTAB
  0
TABLE
  2
LTYPE
  5
5
100
AcDbSymbolTable
 70
6
  0
LTYPE
  5
14
100
AcDbSymbolTableRecord
100
AcDbLinetypeTableRecord
  2
BYBLOCK
 70
0
  3

 72
65
 73
0
 40
0.0
  0
LTYPE
  5
15
100
AcDbSymbolTableRecord
100
AcDbLinetypeTableRecord
  2
BYLAYER
 70
0
  3

 72
65
 73
0
 40
0.0
  0
LTYPE
  5
16
100
AcDbSymbolTableRecord
100
AcDbLinetypeTableRecord
  2
CONTINUOUS
 70
64
  3
Solid line
 72
65
 73
0
 40
0.0
  0
LTYPE
  5
1F5
100
AcDbSymbolTableRecord
100
AcDbLinetypeTableRecord
  2
CENTER
 70
64
  3
____ _ ____ _ ____ _ ____ _ ____ _ ____ _ ____
 72
65
 73
4
 40
0.6
 49
0.375
 74
0
 49
-0.075
 74
0
 49
0.075
 74
0
 49
-0.075
 74
0
  0
LTYPE
  5
1F6
100
AcDbSymbolTableRecord
100
AcDbLinetypeTableRecord
  2
HIDDEN
 70
64
  3
- - - - - - - - - - - - - - - - - - - -
 72
65
 73
2
 40
0.2
 49
0.1
 74
0
 49
-0.1
 74
0
  0
LTYPE
  5
1F7
100
AcDbSymbolTableRecord
100
AcDbLinetypeTableRecord
  2
PHANTOM
 70
64
  3
_____ _ _ _____ _ _ _____ _ _ _____
 72
65
 73
6
 40
0.8
 49
0.45
 74
0
 49
-0.05
 74
0
 49
0.1
 74
0
 49
-0.05
 74
0
 49
0.1
 74
0
 49
-0.05
 74
0
  0
LTYPE
  5
1F8
100
AcDbSymbolTableRecord
100
AcDbLinetypeTableRecord
  2
DOT
 70
64
  3
. . . . . . . . . . . . . . . . . . . .
 72
65
 73
2
 40
0.2
 49
0.1
 74
0
 49
-0.1
 74
0
  0
LTYPE
  5
1F9
100
AcDbSymbolTableRecord
100
AcDbLinetypeTableRecord
  2
DASHED
 70
64
  3
- - - - - - - - - - - - - - - - - - - -
 72
65
 73
2
 40
0.2
 49
0.1
 74
0
 49
-0.1
 74
0
  0
ENDTAB
  0
TABLE
  2
LAYER
  5
2
100
AcDbSymbolTable
 70
36
  0
LAYER
  5
10
100
AcDbSymbolTableRecord
100
AcDbLayerTableRecord
  2
0
 70
0
 62
7
  6
CONTINUOUS
370
-3
390
F
  0
LAYER
  5
1FA
100
AcDbSymbolTableRecord
100
AcDbLayerTableRecord
  2
DEFAULT_1
 70
0
 62
7
  6
CENTER
370
-3
390
F
  0
LAYER
  5
1FB
100
AcDbSymbolTableRecord
100
AcDbLayerTableRecord
  2
DEFAULT_2
 70
0
 62
7
  6
HIDDEN
370
-3
390
F
  0
LAYER
  5
1FC
100
AcDbSymbolTableRecord
100
AcDbLayerTableRecord
  2
DEFAULT_3
 70
0
 62
7
  6
PHANTOM
370
-3
390
F
  0
LAYER
  5
1FD
100
AcDbSymbolTableRecord
100
AcDbLayerTableRecord
  2
1615-LED-1-1-VIMAR_110000
 70
0
 62
7
  6
CONTINUOUS
370
-3
390
F
  0
LAYER
  5
1FE
100
AcDbSymbolTableRecord
100
AcDbLayerTableRecord
  2
200A_170000
 70
0
 62
7
  6
CONTINUOUS
370
-3
390
F
  0
LAYER
  5
1FF
100
AcDbSymbolTableRecord
100
AcDbLayerTableRecord
  2
2125-CC-RF-VIMAR_65000
 70
0
 62
7
  6
CONTINUOUS
370
-3
390
F
  0
LAYER
  5
200
100
AcDbSymbolTableRecord
100
AcDbLayerTableRecord
  2
2125-CC-RF-VIMAR_65000_1
 70
0
 62
7
  6
CONTINUOUS
370
-3
390
F
  0
LAYER
  5
201
100
AcDbSymbolTableRecord
100
AcDbLayerTableRecord
  2
2125-R1-RF-VIMAR_60000
 70
0
 62
7
  6
CONTINUOUS
370
-3
390
F
  0
LAYER
  5
202
100
AcDbSymbolTableRecord
100
AcDbLayerTableRecord
  2
3216-CS2-RF_1_180000
 70
0
 62
7
  6
CONTINUOUS
370
-3
390
F
  0
LAYER
  5
203
100
AcDbSymbolTableRecord
100
AcDbLayerTableRecord
  2
3216-CS2-RF_1_180000_1
 70
0
 62
7
  6
CONTINUOUS
370
-3
390
F
  0
LAYER
  5
204
100
AcDbSymbolTableRecord
100
AcDbLayerTableRecord
  2
3216-CS2-RF_1_180000_2
 70
0
 62
7
  6
CONTINUOUS
370
-3
390
F
  0
LAYER
  5
205
100
AcDbSymbolTableRecord
100
AcDbLayerTableRecord
  2
43000435A0
 70
0
 62
7
  6
CONTINUOUS
370
-3
390
F
  0
LAYER
  5
206
100
AcDbSymbolTableRecord
100
AcDbLayerTableRecord
  2
ASSI
 70
0
 62
7
  6
CONTINUOUS
370
-3
390
F
  0
LAYER
  5
207
100
AcDbSymbolTableRecord
100
AcDbLayerTableRecord
  2
CAPC1608N_80000
 70
0
 62
7
  6
CONTINUOUS
370
-3
390
F
  0
LAYER
  5
208
100
AcDbSymbolTableRecord
100
AcDbLayerTableRecord
  2
CAPC1608N_80000_1
 70
0
 62
7
  6
CONTINUOUS
370
-3
390
F
  0
LAYER
  5
209
100
AcDbSymbolTableRecord
100
AcDbLayerTableRecord
  2
CAPC1608N_80000_10
 70
0
 62
7
  6
CONTINUOUS
370
-3
390
F
  0
LAYER
  5
20A
100
AcDbSymbolTableRecord
100
AcDbLayerTableRecord
  2
CAPC1608N_80000_11
 70
0
 62
7
  6
CONTINUOUS
370
-3
390
F
  0
LAYER
  5
20B
100
AcDbSymbolTableRecord
100
AcDbLayerTableRecord
  2
CAPC1608N_80000_12
 70
0
 62
7
  6
CONTINUOUS
370
-3
390
F
  0
LAYER
  5
20C
100
AcDbSymbolTableRecord
100
AcDbLayerTableRecord
  2
CAPC1608N_80000_13
 70
0
 62
7
  6
CONTINUOUS
370
-3
390
F
  0
LAYER
  5
20D
100
AcDbSymbolTableRecord
100
AcDbLayerTableRecord
  2
CAPC1608N_80000_14
 70
0
 62
7
  6
CONTINUOUS
370
-3
390
F
  0
LAYER
  5
20E
100
AcDbSymbolTableRecord
100
AcDbLayerTableRecord
  2
CAPC1608N_80000_15
 70
0
 62
7
  6
CONTINUOUS
370
-3
390
F
  0
LAYER
  5
20F
100
AcDbSymbolTableRecord
100
AcDbLayerTableRecord
  2
CAPC1608N_80000_16
 70
0
 62
7
  6
CONTINUOUS
370
-3
390
F
  0
LAYER
  5
210
100
AcDbSymbolTableRecord
100
AcDbLayerTableRecord
  2
CAPC1608N_80000_17
 70
0
 62
7
  6
CONTINUOUS
370
-3
390
F
  0
LAYER
  5
211
100
AcDbSymbolTableRecord
100
AcDbLayerTableRecord
  2
CAPC1608N_80000_18
 70
0
 62
7
  6
CONTINUOUS
370
-3
390
F
  0
LAYER
  5
212
100
AcDbSymbolTableRecord
100
AcDbLayerTableRecord
  2
CAPC1608N_80000_19
 70
0
 62
7
  6
CONTINUOUS
370
-3
390
F
  0
LAYER
  5
213
100
AcDbSymbolTableRecord
100
AcDbLayerTableRecord
  2
CAPC1608N_80000_2
 70
0
 62
7
  6
CONTINUOUS
370
-3
390
F
  0
LAYER
  5
214
100
AcDbSymbolTableRecord
100
AcDbLayerTableRecord
  2
CAPC1608N_80000_20
 70
0
 62
7
  6
CONTINUOUS
370
-3
390
F
  0
LAYER
  5
215
100
AcDbSymbolTableRecord
100
AcDbLayerTableRecord
  2
CAPC1608N_80000_21
 70
0
 62
7
  6
CONTINUOUS
370
-3
390
F
  0
LAYER
  5
216
100
AcDbSymbolTableRecord
100
AcDbLayerTableRecord
  2
CAPC1608N_80000_3
 70
0
 62
7
  6
CONTINUOUS
370
-3
390
F
  0
LAYER
  5
217
100
AcDbSymbolTableRecord
100
AcDbLayerTableRecord
  2
CAPC1608N_80000_4
 70
0
 62
7
  6
CONTINUOUS
370
-3
390
F
  0
LAYER
  5
218
100
AcDbSymbolTableRecord
100
AcDbLayerTableRecord
  2
CAPC1608N_80000_5
 70
0
 62
7
  6
CONTINUOUS
370
-3
390
F
  0
LAYER
  5
219
100
AcDbSymbolTableRecord
100
AcDbLayerTableRecord
  2
CAPC1608N_80000_6
 70
0
 62
7
  6
CONTINUOUS
370
-3
390
F
  0
LAYER
  5
21A
100
AcDbSymbolTableRecord
100
AcDbLayerTableRecord
  2
CAPC1608N_80000_7
 70
0
 62
7
  6
CONTINUOUS
370
-3
390
F
  0
LAYER
  5
21B
100
AcDbSymbolTableRecord
100
AcDbLayerTableRecord
  2
CAPC1608N_80000_8
 70
0
 62
7
  6
CONTINUOUS
370
-3
390
F
  0
LAYER
  5
21C
100
AcDbSymbolTableRecord
100
AcDbLayerTableRecord
  2
CAPC1608N_80000_9
 70
0
 62
7
  6
CONTINUOUS
370
-3
390
F
  0
LAYER
  5
21D
100
AcDbSymbolTableRecord
100
AcDbLayerTableRecord
  2
CC-0603-VIMAR_1000
 70
0
 62
7
  6
CONTINUOUS
370
-3
390
F
  0
LAYER
  5
21E
100
AcDbSymbolTableRecord
100
AcDbLayerTableRecord
  2
CC-0603-VIMAR_1000_1
 70
0
 62
7
  6
CONTINUOUS
370
-3
390
F
  0
LAYER
  5
21F
100
AcDbSymbolTableRecord
100
AcDbLayerTableRecord
  2
CC-0603-VIMAR_1000_2
 70
0
 62
7
  6
CONTINUOUS
370
-3
390
F
  0
LAYER
  5
220
100
AcDbSymbolTableRecord
100
AcDbLayerTableRecord
  2
CN-1S-HEADER-PIH-1_254000
 70
0
 62
7
  6
CONTINUOUS
370
-3
390
F
  0
LAYER
  5
221
100
AcDbSymbolTableRecord
100
AcDbLayerTableRecord
  2
CN-1S-HEADER-PIH-1_254000_1
 70
0
 62
7
  6
CONTINUOUS
370
-3
390
F
  0
LAYER
  5
222
100
AcDbSymbolTableRecord
100
AcDbLayerTableRecord
  2
CN-1S-HEADER-PIH-1_254000_2
 70
0
 62
7
  6
CONTINUOUS
370
-3
390
F
  0
LAYER
  5
223
100
AcDbSymbolTableRecord
100
AcDbLayerTableRecord
  2
CN-1S-HEADER-PIH-1_254000_3
 70
0
 62
7
  6
CONTINUOUS
370
-3
390
F
  0
LAYER
  5
224
100
AcDbSymbolTableRecord
100
AcDbLayerTableRecord
  2
CN-1S-HEADER-PIH-1_254000_4
 70
0
 62
7
  6
CONTINUOUS
370
-3
390
F
  0
LAYER
  5
225
100
AcDbSymbolTableRecord
100
AcDbLayerTableRecord
  2
CN-1S-HEADER-PIH-1_254000_5
 70
0
 62
7
  6
CONTINUOUS
370
-3
390
F
  0
LAYER
  5
226
100
AcDbSymbolTableRecord
100
AcDbLayerTableRecord
  2
CN-1S-HEADER-PIH-1_254000_6
 70
0
 62
7
  6
CONTINUOUS
370
-3
390
F
  0
LAYER
  5
227
100
AcDbSymbolTableRecord
100
AcDbLayerTableRecord
  2
CN-1S-HEADER-PIH-1_254000_7
 70
0
 62
7
  6
CONTINUOUS
370
-3
390
F
  0
LAYER
  5
228
100
AcDbSymbolTableRecord
100
AcDbLayerTableRecord
  2
CN-243-VIMAR_850000
 70
0
 62
7
  6
CONTINUOUS
370
-3
390
F
  0
LAYER
  5
229
100
AcDbSymbolTableRecord
100
AcDbLayerTableRecord
  2
CN-243-VIMAR_850000_1
 70
0
 62
7
  6
CONTINUOUS
370
-3
390
F
  0
LAYER
  5
22A
100
AcDbSymbolTableRecord
100
AcDbLayerTableRecord
  2
CN1-TP10_SMD-VIMAR_10000
 70
0
 62
7
  6
CONTINUOUS
370
-3
390
F
  0
LAYER
  5
22B
100
AcDbSymbolTableRecord
100
AcDbLayerTableRecord
  2
CN1-TP10_SMD-VIMAR_10000_1
 70
0
 62
7
  6
CONTINUOUS
370
-3
390
F
  0
LAYER
  5
22C
100
AcDbSymbolTableRecord
100
AcDbLayerTableRecord
  2
CN1-TP10_SMD-VIMAR_10000_2
 70
0
 62
7
  6
CONTINUOUS
370
-3
390
F
  0
LAYER
  5
22D
100
AcDbSymbolTableRecord
100
AcDbLayerTableRecord
  2
CN1-TP10_SMD-VIMAR_10000_3
 70
0
 62
7
  6
CONTINUOUS
370
-3
390
F
  0
LAYER
  5
22E
100
AcDbSymbolTableRecord
100
AcDbLayerTableRecord
  2
COLOR5
 70
0
 62
7
  6
CONTINUOUS
370
-3
390
F
  0
LAYER
  5
22F
100
AcDbSymbolTableRecord
100
AcDbLayerTableRecord
  2
COLORE_MATERIALE
 70
0
 62
7
  6
CONTINUOUS
370
-3
390
F
  0
LAYER
  5
230
100
AcDbSymbolTableRecord
100
AcDbLayerTableRecord
  2
COORDINATE
 70
0
 62
7
  6
CONTINUOUS
370
-3
390
F
  0
LAYER
  5
231
100
AcDbSymbolTableRecord
100
AcDbLayerTableRecord
  2
COORD_ORIGINE
 70
0
 62
7
  6
CONTINUOUS
370
-3
390
F
  0
LAYER
  5
232
100
AcDbSymbolTableRecord
100
AcDbLayerTableRecord
  2
COPY-PUBBLISH
 70
0
 62
7
  6
CONTINUOUS
370
-3
390
F
  0
LAYER
  5
233
100
AcDbSymbolTableRecord
100
AcDbLayerTableRecord
  2
COPY_PUBLISH
 70
0
 62
7
  6
CONTINUOUS
370
-3
390
F
  0
LAYER
  5
234
100
AcDbSymbolTableRecord
100
AcDbLayerTableRecord
  2
COSMETIC
 70
0
 62
7
  6
CONTINUOUS
370
-3
390
F
  0
LAYER
  5
235
100
AcDbSymbolTableRecord
100
AcDbLayerTableRecord
  2
CP-CE1-RF_550000
 70
0
 62
7
  6
CONTINUOUS
370
-3
390
F
  0
LAYER
  5
236
100
AcDbSymbolTableRecord
100
AcDbLayerTableRecord
  2
CP-CE10-RF-VIMAR_630000
 70
0
 62
7
  6
CONTINUOUS
370
-3
390
F
  0
LAYER
  5
237
100
AcDbSymbolTableRecord
100
AcDbLayerTableRecord
  2
CP-CE10-RF-VIMAR_630000_1
 70
0
 62
7
  6
CONTINUOUS
370
-3
390
F
  0
LAYER
  5
238
100
AcDbSymbolTableRecord
100
AcDbLayerTableRecord
  2
CP-CE4-RF_550000
 70
0
 62
7
  6
CONTINUOUS
370
-3
390
F
  0
LAYER
  5
239
100
AcDbSymbolTableRecord
100
AcDbLayerTableRecord
  2
CP-CE4-RF_550000_1
 70
0
 62
7
  6
CONTINUOUS
370
-3
390
F
  0
LAYER
  5
23A
100
AcDbSymbolTableRecord
100
AcDbLayerTableRecord
  2
CP-DO-214AC-D-VIMAR_240000
 70
0
 62
7
  6
CONTINUOUS
370
-3
390
F
  0
LAYER
  5
23B
100
AcDbSymbolTableRecord
100
AcDbLayerTableRecord
  2
CP-DO-214AC-VIMAR_240000
 70
0
 62
7
  6
CONTINUOUS
370
-3
390
F
  0
LAYER
  5
23C
100
AcDbSymbolTableRecord
100
AcDbLayerTableRecord
  2
CURVE
 70
0
 62
7
  6
CONTINUOUS
370
-3
390
F
  0
LAYER
  5
23D
100
AcDbSymbolTableRecord
100
AcDbLayerTableRecord
  2
CURVE_LED_TASTO
 70
0
 62
7
  6
CONTINUOUS
370
-3
390
F
  0
LAYER
  5
23E
100
AcDbSymbolTableRecord
100
AcDbLayerTableRecord
  2
DRAFT
 70
0
 62
7
  6
CONTINUOUS
370
-3
390
F
  0
LAYER
  5
23F
100
AcDbSymbolTableRecord
100
AcDbLayerTableRecord
  2
E4_MARK_10000
 70
0
 62
7
  6
CONTINUOUS
370
-3
390
F
  0
LAYER
  5
240
100
AcDbSymbolTableRecord
100
AcDbLayerTableRecord
  2
I3-TO5-H1-VIMAR_980000
 70
0
 62
7
  6
CONTINUOUS
370
-3
390
F
  0
LAYER
  5
241
100
AcDbSymbolTableRecord
100
AcDbLayerTableRecord
  2
IGES_SCRITTE
 70
0
 62
7
  6
CONTINUOUS
370
-3
390
F
  0
LAYER
  5
242
100
AcDbSymbolTableRecord
100
AcDbLayerTableRecord
  2
IMPORT_IGES
 70
0
 62
7
  6
CONTINUOUS
370
-3
390
F
  0
LAYER
  5
243
100
AcDbSymbolTableRecord
100
AcDbLayerTableRecord
  2
INTF_1
 70
0
 62
7
  6
CONTINUOUS
370
-3
390
F
  0
LAYER
  5
244
100
AcDbSymbolTableRecord
100
AcDbLayerTableRecord
  2
INTF_10
 70
0
 62
7
  6
CONTINUOUS
370
-3
390
F
  0
LAYER
  5
245
100
AcDbSymbolTableRecord
100
AcDbLayerTableRecord
  2
INTF_BLANK
 70
0
 62
7
  6
CONTINUOUS
370
-3
390
F
  0
LAYER
  5
246
100
AcDbSymbolTableRecord
100
AcDbLayerTableRecord
  2
LDR_VIMAR_700000
 70
0
 62
7
  6
CONTINUOUS
370
-3
390
F
  0
LAYER
  5
247
100
AcDbSymbolTableRecord
100
AcDbLayerTableRecord
  2
LOGO_RESIST-RESTYLING_10000
 70
0
 62
7
  6
CONTINUOUS
370
-3
390
F
  0
LAYER
  5
248
100
AcDbSymbolTableRecord
100
AcDbLayerTableRecord
  2
MM3-SOT-89-RF-VIMAR_150000
 70
0
 62
7
  6
CONTINUOUS
370
-3
390
F
  0
LAYER
  5
249
100
AcDbSymbolTableRecord
100
AcDbLayerTableRecord
  2
MM3-X-6-VIMAR_430000
 70
0
 62
7
  6
CONTINUOUS
370
-3
390
F
  0
LAYER
  5
24A
100
AcDbSymbolTableRecord
100
AcDbLayerTableRecord
  2
MM4-SWITCH-8-VIMAR_500000
 70
0
 62
7
  6
CONTINUOUS
370
-3
390
F
  0
LAYER
  5
24B
100
AcDbSymbolTableRecord
100
AcDbLayerTableRecord
  2
MM5-FMT-RF_120000
 70
0
 62
7
  6
CONTINUOUS
370
-3
390
F
  0
LAYER
  5
24C
100
AcDbSymbolTableRecord
100
AcDbLayerTableRecord
  2
NO-PB_MARK_10000
 70
0
 62
7
  6
CONTINUOUS
370
-3
390
F
  0
LAYER
  5
24D
100
AcDbSymbolTableRecord
100
AcDbLayerTableRecord
  2
NOTE
 70
0
 62
7
  6
CONTINUOUS
370
-3
390
F
  0
LAYER
  5
24E
100
AcDbSymbolTableRecord
100
AcDbLayerTableRecord
  2
PIANI
 70
0
 62
7
  6
CONTINUOUS
370
-3
390
F
  0
LAYER
  5
24F
100
AcDbSymbolTableRecord
100
AcDbLayerTableRecord
  2
PIANI_ORIGINE
 70
0
 62
7
  6
CONTINUOUS
370
-3
390
F
  0
LAYER
  5
250
100
AcDbSymbolTableRecord
100
AcDbLayerTableRecord
  2
PIANI_RIF
 70
0
 62
7
  6
CONTINUOUS
370
-3
390
F
  0
LAYER
  5
251
100
AcDbSymbolTableRecord
100
AcDbLayerTableRecord
  2
PIANI_RIFERIMENTO
 70
0
 62
7
  6
CONTINUOUS
370
-3
390
F
  0
LAYER
  5
252
100
AcDbSymbolTableRecord
100
AcDbLayerTableRecord
  2
PUNTI
 70
0
 62
7
  6
CONTINUOUS
370
-3
390
F
  0
LAYER
  5
253
100
AcDbSymbolTableRecord
100
AcDbLayerTableRecord
  2
QFP50P1200X1200X120-64N_120000
 70
0
 62
7
  6
CONTINUOUS
370
-3
390
F
  0
LAYER
  5
254
100
AcDbSymbolTableRecord
100
AcDbLayerTableRecord
  2
RACCORDO
 70
0
 62
7
  6
CONTINUOUS
370
-3
390
F
  0
LAYER
  5
255
100
AcDbSymbolTableRecord
100
AcDbLayerTableRecord
  2
RD-C25-NTC-1-VIMAR_1800000
 70
0
 62
7
  6
CONTINUOUS
370
-3
390
F
  0
LAYER
  5
256
100
AcDbSymbolTableRecord
100
AcDbLayerTableRecord
  2
RESC1608N_45000
 70
0
 62
7
  6
CONTINUOUS
370
-3
390
F
  0
LAYER
  5
257
100
AcDbSymbolTableRecord
100
AcDbLayerTableRecord
  2
RESC1608N_45000_1
 70
0
 62
7
  6
CONTINUOUS
370
-3
390
F
  0
LAYER
  5
258
100
AcDbSymbolTableRecord
100
AcDbLayerTableRecord
  2
RESC1608N_45000_10
 70
0
 62
7
  6
CONTINUOUS
370
-3
390
F
  0
LAYER
  5
259
100
AcDbSymbolTableRecord
100
AcDbLayerTableRecord
  2
RESC1608N_45000_11
 70
0
 62
7
  6
CONTINUOUS
370
-3
390
F
  0
LAYER
  5
25A
100
AcDbSymbolTableRecord
100
AcDbLayerTableRecord
  2
RESC1608N_45000_12
 70
0
 62
7
  6
CONTINUOUS
370
-3
390
F
  0
LAYER
  5
25B
100
AcDbSymbolTableRecord
100
AcDbLayerTableRecord
  2
RESC1608N_45000_13
 70
0
 62
7
  6
CONTINUOUS
370
-3
390
F
  0
LAYER
  5
25C
100
AcDbSymbolTableRecord
100
AcDbLayerTableRecord
  2
RESC1608N_45000_14
 70
0
 62
7
  6
CONTINUOUS
370
-3
390
F
  0
LAYER
  5
25D
100
AcDbSymbolTableRecord
100
AcDbLayerTableRecord
  2
RESC1608N_45000_15
 70
0
 62
7
  6
CONTINUOUS
370
-3
390
F
  0
LAYER
  5
25E
100
AcDbSymbolTableRecord
100
AcDbLayerTableRecord
  2
RESC1608N_45000_16
 70
0
 62
7
  6
CONTINUOUS
370
-3
390
F
  0
LAYER
  5
25F
100
AcDbSymbolTableRecord
100
AcDbLayerTableRecord
  2
RESC1608N_45000_17
 70
0
 62
7
  6
CONTINUOUS
370
-3
390
F
  0
LAYER
  5
260
100
AcDbSymbolTableRecord
100
AcDbLayerTableRecord
  2
RESC1608N_45000_18
 70
0
 62
7
  6
CONTINUOUS
370
-3
390
F
  0
LAYER
  5
261
100
AcDbSymbolTableRecord
100
AcDbLayerTableRecord
  2
RESC1608N_45000_19
 70
0
 62
7
  6
CONTINUOUS
370
-3
390
F
  0
LAYER
  5
262
100
AcDbSymbolTableRecord
100
AcDbLayerTableRecord
  2
RESC1608N_45000_2
 70
0
 62
7
  6
CONTINUOUS
370
-3
390
F
  0
LAYER
  5
263
100
AcDbSymbolTableRecord
100
AcDbLayerTableRecord
  2
RESC1608N_45000_20
 70
0
 62
7
  6
CONTINUOUS
370
-3
390
F
  0
LAYER
  5
264
100
AcDbSymbolTableRecord
100
AcDbLayerTableRecord
  2
RESC1608N_45000_21
 70
0
 62
7
  6
CONTINUOUS
370
-3
390
F
  0
LAYER
  5
265
100
AcDbSymbolTableRecord
100
AcDbLayerTableRecord
  2
RESC1608N_45000_22
 70
0
 62
7
  6
CONTINUOUS
370
-3
390
F
  0
LAYER
  5
266
100
AcDbSymbolTableRecord
100
AcDbLayerTableRecord
  2
RESC1608N_45000_3
 70
0
 62
7
  6
CONTINUOUS
370
-3
390
F
  0
LAYER
  5
267
100
AcDbSymbolTableRecord
100
AcDbLayerTableRecord
  2
RESC1608N_45000_4
 70
0
 62
7
  6
CONTINUOUS
370
-3
390
F
  0
LAYER
  5
268
100
AcDbSymbolTableRecord
100
AcDbLayerTableRecord
  2
RESC1608N_45000_5
 70
0
 62
7
  6
CONTINUOUS
370
-3
390
F
  0
LAYER
  5
269
100
AcDbSymbolTableRecord
100
AcDbLayerTableRecord
  2
RESC1608N_45000_6
 70
0
 62
7
  6
CONTINUOUS
370
-3
390
F
  0
LAYER
  5
26A
100
AcDbSymbolTableRecord
100
AcDbLayerTableRecord
  2
RESC1608N_45000_7
 70
0
 62
7
  6
CONTINUOUS
370
-3
390
F
  0
LAYER
  5
26B
100
AcDbSymbolTableRecord
100
AcDbLayerTableRecord
  2
RESC1608N_45000_8
 70
0
 62
7
  6
CONTINUOUS
370
-3
390
F
  0
LAYER
  5
26C
100
AcDbSymbolTableRecord
100
AcDbLayerTableRecord
  2
RESC1608N_45000_9
 70
0
 62
7
  6
CONTINUOUS
370
-3
390
F
  0
LAYER
  5
26D
100
AcDbSymbolTableRecord
100
AcDbLayerTableRecord
  2
RESC6432X70N_70000
 70
0
 62
7
  6
CONTINUOUS
370
-3
390
F
  0
LAYER
  5
26E
100
AcDbSymbolTableRecord
100
AcDbLayerTableRecord
  2
RGB____0____0____0__
 70
0
 62
7
  6
CONTINUOUS
370
-3
390
F
  0
LAYER
  5
26F
100
AcDbSymbolTableRecord
100
AcDbLayerTableRecord
  2
SHELL
 70
0
 62
7
  6
CONTINUOUS
370
-3
390
F
  0
LAYER
  5
270
100
AcDbSymbolTableRecord
100
AcDbLayerTableRecord
  2
SMUSSO
 70
0
 62
7
  6
CONTINUOUS
370
-3
390
F
  0
LAYER
  5
271
100
AcDbSymbolTableRecord
100
AcDbLayerTableRecord
  2
SNAPLINE
 70
0
 62
7
  6
CONTINUOUS
370
-3
390
F
  0
LAYER
  5
272
100
AcDbSymbolTableRecord
100
AcDbLayerTableRecord
  2
SOLIDO
 70
0
 62
7
  6
CONTINUOUS
370
-3
390
F
  0
LAYER
  5
273
100
AcDbSymbolTableRecord
100
AcDbLayerTableRecord
  2
SOP20-1-VIMAR_270000
 70
0
 62
7
  6
CONTINUOUS
370
-3
390
F
  0
LAYER
  5
274
100
AcDbSymbolTableRecord
100
AcDbLayerTableRecord
  2
SOP8-T1-RF-FINE-VIMAR_150000
 70
0
 62
7
  6
CONTINUOUS
370
-3
390
F
  0
LAYER
  5
275
100
AcDbSymbolTableRecord
100
AcDbLayerTableRecord
  2
SUPERFICI
 70
0
 62
7
  6
CONTINUOUS
370
-3
390
F
  0
LAYER
  5
276
100
AcDbSymbolTableRecord
100
AcDbLayerTableRecord
  2
SUP_PRO
 70
0
 62
7
  6
CONTINUOUS
370
-3
390
F
  0
LAYER
  5
277
100
AcDbSymbolTableRecord
100
AcDbLayerTableRecord
  2
TP15_SMD_0
 70
0
 62
7
  6
CONTINUOUS
370
-3
390
F
  0
LAYER
  5
278
100
AcDbSymbolTableRecord
100
AcDbLayerTableRecord
  2
TP15_SMD_0_1
 70
0
 62
7
  6
CONTINUOUS
370
-3
390
F
  0
LAYER
  5
279
100
AcDbSymbolTableRecord
100
AcDbLayerTableRecord
  2
TP15_SMD_0_2
 70
0
 62
7
  6
CONTINUOUS
370
-3
390
F
  0
LAYER
  5
27A
100
AcDbSymbolTableRecord
100
AcDbLayerTableRecord
  2
TP15_SMD_0_3
 70
0
 62
7
  6
CONTINUOUS
370
-3
390
F
  0
LAYER
  5
27B
100
AcDbSymbolTableRecord
100
AcDbLayerTableRecord
  2
TP15_SMD_0_4
 70
0
 62
7
  6
CONTINUOUS
370
-3
390
F
  0
LAYER
  5
27C
100
AcDbSymbolTableRecord
100
AcDbLayerTableRecord
  2
TP15_SMD_0_5
 70
0
 62
7
  6
CONTINUOUS
370
-3
390
F
  0
LAYER
  5
27D
100
AcDbSymbolTableRecord
100
AcDbLayerTableRecord
  2
TP15_SMD_0_6
 70
0
 62
7
  6
CONTINUOUS
370
-3
390
F
  0
LAYER
  5
27E
100
AcDbSymbolTableRecord
100
AcDbLayerTableRecord
  2
TP15_SMD_0_7
 70
0
 62
7
  6
CONTINUOUS
370
-3
390
F
  0
LAYER
  5
27F
100
AcDbSymbolTableRecord
100
AcDbLayerTableRecord
  2
TRASH
 70
0
 62
7
  6
CONTINUOUS
370
-3
390
F
  0
LAYER
  5
280
100
AcDbSymbolTableRecord
100
AcDbLayerTableRecord
  2
XSEC_DATUMS
 70
0
 62
7
  6
CONTINUOUS
370
-3
390
F
  0
LAYER
  5
281
100
AcDbSymbolTableRecord
100
AcDbLayerTableRecord
  2
___SHELL
 70
0
 62
7
  6
CONTINUOUS
370
-3
390
F
  0
ENDTAB
  0
TABLE
  2
STYLE
  5
3
100
AcDbSymbolTable
 70
1
  0
STYLE
  5
11
100
AcDbSymbolTableRecord
100
AcDbTextStyleTableRecord
  2
STANDARD
 70
0
 40
0.0
 41
0.8
 50
0.0
 71
0
 42
0.2
  3
txt
  4

  0
STYLE
  5
282
100
AcDbSymbolTableRecord
100
AcDbTextStyleTableRecord
  2
TEXTSTYLE_1
 70
0
 40
0.0
 41
0.8
 50
0.0
 71
0
 42
0.2
  3
gdt
  4

  0
ENDTAB
  0
TABLE
  2
VIEW
  5
6
100
AcDbSymbolTable
 70
0
  0
ENDTAB
  0
TABLE
  2
UCS
  5
7
100
AcDbSymbolTable
 70
0
  0
ENDTAB
  0
TABLE
  2
APPID
  5
9
100
AcDbSymbolTable
 70
1
  0
APPID
  5
283
100
AcDbSymbolTableRecord
100
AcDbRegAppTableRecord
  2
ACAD
 70
0
  0
ENDTAB
  0
TABLE
  2
BLOCK_RECORD
  5
1
100
AcDbSymbolTable
 70
0
  0
BLOCK_RECORD
  5
284
100
AcDbSymbolTableRecord
100
AcDbBlockTableRecord
  2
*Model_Space
  0
BLOCK_RECORD
  5
285
100
AcDbSymbolTableRecord
100
AcDbBlockTableRecord
  2
*Paper_Space
  0
BLOCK_RECORD
  5
286
100
AcDbSymbolTableRecord
100
AcDbBlockTableRecord
  2
_FILLED
  0
BLOCK_RECORD
  5
287
100
AcDbSymbolTableRecord
100
AcDbBlockTableRecord
  2
*D0
  0
BLOCK_RECORD
  5
288
100
AcDbSymbolTableRecord
100
AcDbBlockTableRecord
  2
*D1
  0
BLOCK_RECORD
  5
289
100
AcDbSymbolTableRecord
100
AcDbBlockTableRecord
  2
*D2
  0
BLOCK_RECORD
  5
28A
100
AcDbSymbolTableRecord
100
AcDbBlockTableRecord
  2
*D3
  0
ENDTAB
  0
TABLE
  2
DIMSTYLE
  5
A
100
AcDbSymbolTable
 70
1
100
AcDbDimStyleTable
 71
0
  0
DIMSTYLE
105
28B
100
AcDbSymbolTableRecord
100
AcDbDimStyleTableRecord
  2
STANDARD
 70
0
  3

  4

 40
1.0
 41
3.0
 42
0.0625
 43
0.38
 44
0.18
 45
0.0
 46
0.0
 47
0.01
 48
0.01
140
3.0
141
0.09
142
0.0
143
25.4
144
1.0
145
0.0
146
1.0
147
0.09
 71
1.0
 72
0.0
 73
0
 74
0
 75
0
 76
0
 77
1
 78
8
170
0
171
2
172
0
173
0
174
0
175
0
176
0
177
0
178
0
270
2
271
2
272
2
273
2
274
2
275
0
280
0
281
0
282
0
283
1
284
8
285
0
286
0
287
3
288
0
340
11
341
286
342
286
343
286
344
286
  0
DIMSTYLE
105
28C
100
AcDbSymbolTableRecord
100
AcDbDimStyleTableRecord
  2
DIMSTYLE_1
 70
0
  3

  4

 40
1.0
 41
3.0
 42
0.0625
 43
0.38
 44
0.18
 45
0.0
 46
0.0
 47
0.0
 48
0.0
140
3.0
141
0.09
142
0.0
143
25.4
144
1.0
145
0.0
146
1.0
147
0.09
 71
0.0
 72
0.0
 73
0
 74
0
 75
0
 76
0
 77
1
 78
8
170
0
171
2
172
0
173
0
174
0
175
0
176
0
177
0
178
0
270
2
271
2
272
2
273
2
274
2
275
0
280
0
281
0
282
0
283
1
284
8
285
0
286
0
287
3
288
0
340
11
341
286
342
286
343
286
344
286
  0
ENDTAB
  0
ENDSEC
  0
SECTION
  2
BLOCKS
  0
BLOCK
  5
20
100
AcDbEntity
  8
0
100
AcDbBlockBegin
  2
*Model_Space
 70
0
 10
0.0
 20
0.0
 30
0.0
  3
*Model_Space
  1

  0
ENDBLK
  5
21
100
AcDbEntity
  8
0
100
AcDbBlockEnd
  0
BLOCK
  5
1C
100
AcDbEntity
  8
0
100
AcDbBlockBegin
  2
*Paper_Space
 70
0
 10
0.0
 20
0.0
 30
0.0
  3
*Paper_Space
  1

  0
ENDBLK
  5
1D
100
AcDbEntity
  8
0
100
AcDbBlockEnd
  0
BLOCK
  5
28D
100
AcDbEntity
  8
0
100
AcDbBlockBegin
  2
_FILLED
 70
64
 10
0.0
 20
0.0
  3
_FILLED
  1

  0
SOLID
  5
28E
100
AcDbEntity
  8
0
  6
BYBLOCK
 62
0
100
AcDbTrace
 10
0.0
 20
0.0
 11
-1.0
 21
0.3166666667
 12
-1.0
 22
-0.3166666667
 13
-1.0
 23
-0.3166666667
  0
ENDBLK
  5
28F
100
AcDbEntity
  8
0
  6
BYBLOCK
 62
0
100
AcDbBlockEnd
  0
BLOCK
  5
290
100
AcDbEntity
  8
0
100
AcDbBlockBegin
 62
7
  6
CONTINUOUS
  2
*D0
 70
65
 10
0.0
 20
0.0
  3
*D0
  1

  0
MTEXT
  5
291
100
AcDbEntity
  8
0
100
AcDbMText
 62
7
  6
CONTINUOUS
  7
STANDARD
 71
2
 72
1
 10
55.6744074844
 20
0.0336548857
 30
0.0
 11
0.0
 21
1.0
 31
0.0
 44
0.9
  1
49
 40
3.0
 41
4.7142857143
  0
LINE
  5
292
100
AcDbEntity
  8
0
100
AcDbLine
 62
7
  6
CONTINUOUS
 10
50.5744117152
 20
24.5336548857
 11
60.9244074844
 21
24.5336548857
  0
LINE
  5
293
100
AcDbEntity
  8
0
100
AcDbLine
 62
7
  6
CONTINUOUS
 10
50.5744117152
 20
-24.4663451143
 11
60.9244074844
 21
-24.4663451143
  0
LINE
  5
294
100
AcDbEntity
  8
0
100
AcDbLine
 62
7
  6
CONTINUOUS
 10
59.4244074844
 20
24.5336548857
 11
59.4244074844
 21
0.0336548857
  0
LINE
  5
295
100
AcDbEntity
  8
0
100
AcDbLine
 62
7
  6
CONTINUOUS
 10
59.4244074844
 20
-24.4663451143
 11
59.4244074844
 21
0.0336548857
  0
INSERT
  5
296
100
AcDbEntity
  8
0
100
AcDbBlockReference
 62
7
  6
CONTINUOUS
  2
_FILLED
 10
59.4244074844
 20
24.5336548857
 41
3.0
 42
3.0
 43
3.0
 50
90.0
  0
INSERT
  5
297
100
AcDbEntity
  8
0
100
AcDbBlockReference
 62
7
  6
CONTINUOUS
  2
_FILLED
 10
59.4244074844
 20
-24.4663451143
 41
3.0
 42
3.0
 43
3.0
 50
270.0
  0
ENDBLK
  5
298
100
AcDbEntity
  8
0
  6
BYBLOCK
 62
0
100
AcDbBlockEnd
  0
BLOCK
  5
299
100
AcDbEntity
  8
0
100
AcDbBlockBegin
 62
7
  6
CONTINUOUS
  2
*D1
 70
65
 10
0.0
 20
0.0
  3
*D1
  1

  0
MTEXT
  5
29A
100
AcDbEntity
  8
0
100
AcDbMText
 62
7
  6
CONTINUOUS
  7
STANDARD
 71
2
 72
1
 10
28.4244074844
 20
36.7836548857
 30
0.0
 11
1.0
 21
0.0
 31
0.0
 44
0.9
  1
44,8
 40
3.0
 41
8.7857142857
  0
LINE
  5
29B
100
AcDbEntity
  8
0
100
AcDbLine
 62
7
  6
CONTINUOUS
 10
50.8244074844
 20
22.433559694
 11
50.8244074844
 21
34.5336548857
  0
LINE
  5
29C
100
AcDbEntity
  8
0
100
AcDbLine
 62
7
  6
CONTINUOUS
 10
6.0244074844
 20
22.433559694
 11
6.0244074844
 21
34.5336548857
  0
LINE
  5
29D
100
AcDbEntity
  8
0
100
AcDbLine
 62
7
  6
CONTINUOUS
 10
50.8244074844
 20
33.0336548857
 11
28.4244074844
 21
33.0336548857
  0
LINE
  5
29E
100
AcDbEntity
  8
0
100
AcDbLine
 62
7
  6
CONTINUOUS
 10
6.0244074844
 20
33.0336548857
 11
28.4244074844
 21
33.0336548857
  0
INSERT
  5
29F
100
AcDbEntity
  8
0
100
AcDbBlockReference
 62
7
  6
CONTINUOUS
  2
_FILLED
 10
50.8244074844
 20
33.0336548857
 41
3.0
 42
3.0
 43
3.0
 50
0.0
  0
INSERT
  5
2A0
100
AcDbEntity
  8
0
100
AcDbBlockReference
 62
7
  6
CONTINUOUS
  2
_FILLED
 10
6.0244074844
 20
33.0336548857
 41
3.0
 42
3.0
 43
3.0
 50
180.0
  0
ENDBLK
  5
2A1
100
AcDbEntity
  8
0
  6
BYBLOCK
 62
0
100
AcDbBlockEnd
  0
BLOCK
  5
2A2
100
AcDbEntity
  8
0
100
AcDbBlockBegin
 62
7
  6
CONTINUOUS
  2
*D2
 70
65
 10
0.0
 20
0.0
  3
*D2
  1

  0
MTEXT
  5
2A3
100
AcDbEntity
  8
0
100
AcDbMText
 62
7
  6
CONTINUOUS
  7
STANDARD
 71
2
 72
1
 10
-13.7350956418
 20
36.7836548857
 30
0.0
 11
1.0
 21
0.0
 31
0.0
 44
0.9
  1
19
 40
3.0
 41
4.0714285714
  0
LINE
  5
2A4
100
AcDbEntity
  8
0
100
AcDbLine
 62
7
  6
CONTINUOUS
 10
-4.2350956418
 20
18.5240199168
 11
-4.2350956418
 21
34.5336548857
  0
LINE
  5
2A5
100
AcDbEntity
  8
0
100
AcDbLine
 62
7
  6
CONTINUOUS
 10
-23.2350956418
 20
24.7792872824
 11
-23.2350956418
 21
34.5336548857
  0
LINE
  5
2A6
100
AcDbEntity
  8
0
100
AcDbLine
 62
7
  6
CONTINUOUS
 10
-4.2350956418
 20
33.0336548857
 11
-13.7350956418
 21
33.0336548857
  0
LINE
  5
2A7
100
AcDbEntity
  8
0
100
AcDbLine
 62
7
  6
CONTINUOUS
 10
-23.2350956418
 20
33.0336548857
 11
-13.7350956418
 21
33.0336548857
  0
INSERT
  5
2A8
100
AcDbEntity
  8
0
100
AcDbBlockReference
 62
7
  6
CONTINUOUS
  2
_FILLED
 10
-4.2350956418
 20
33.0336548857
 41
3.0
 42
3.0
 43
3.0
  0
INSERT
  5
2A9
100
AcDbEntity
  8
0
100
AcDbBlockReference
 62
7
  6
CONTINUOUS
  2
_FILLED
 10
-23.2350956418
 20
33.0336548857
 41
3.0
 42
3.0
 43
3.0
 50
180.0
  0
ENDBLK
  5
2AA
100
AcDbEntity
  8
0
  6
BYBLOCK
 62
0
100
AcDbBlockEnd
  0
BLOCK
  5
2AB
100
AcDbEntity
  8
0
100
AcDbBlockBegin
 62
7
  6
CONTINUOUS
  2
*D3
 70
65
 10
0.0
 20
0.0
  3
*D3
  1

  0
MTEXT
  5
2AC
100
AcDbEntity
  8
0
100
AcDbMText
 62
7
  6
CONTINUOUS
  7
STANDARD
 71
2
 72
1
 10
-22.7350956418
 20
46.7836548857
 30
0.0
 11
1.0
 21
0.0
 31
0.0
 44
0.9
  1
37
 40
3.0
 41
4.5
  0
LINE
  5
2AD
100
AcDbEntity
  8
0
100
AcDbLine
 62
7
  6
CONTINUOUS
 10
-4.2350956418
 20
18.5240199168
 11
-4.2350956418
 21
44.5336548857
  0
LINE
  5
2AE
100
AcDbEntity
  8
0
100
AcDbLine
 62
7
  6
CONTINUOUS
 10
-41.2350956418
 20
2.0336548857
 11
-41.2350956418
 21
44.5336548857
  0
LINE
  5
2AF
100
AcDbEntity
  8
0
100
AcDbLine
 62
7
  6
CONTINUOUS
 10
-4.2350956418
 20
43.0336548857
 11
-22.7350956418
 21
43.0336548857
  0
LINE
  5
2B0
100
AcDbEntity
  8
0
100
AcDbLine
 62
7
  6
CONTINUOUS
 10
-41.2350956418
 20
43.0336548857
 11
-22.7350956418
 21
43.0336548857
  0
INSERT
  5
2B1
100
AcDbEntity
  8
0
100
AcDbBlockReference
 62
7
  6
CONTINUOUS
  2
_FILLED
 10
-4.2350956418
 20
43.0336548857
 41
3.0
 42
3.0
 43
3.0
 50
360.0
  0
INSERT
  5
2B2
100
AcDbEntity
  8
0
100
AcDbBlockReference
 62
7
  6
CONTINUOUS
  2
_FILLED
 10
-41.2350956418
 20
43.0336548857
 41
3.0
 42
3.0
 43
3.0
 50
180.0
  0
ENDBLK
  5
2B3
100
AcDbEntity
  8
0
  6
BYBLOCK
 62
0
100
AcDbBlockEnd
  0
ENDSEC
  0
SECTION
  2
ENTITIES
  0
DIMENSION
  5
2B4
100
AcDbEntity
  8
0
100
AcDbDimension
 62
7
  6
CONTINUOUS
  2
*D0
 10
59.4244074844
 20
-24.4663451143
 11
58.2305810081
 21
-2.0736229643
 70
160
 71
2
 42
49.0
  3
DIMSTYLE_1
100
AcDbAlignedDimension
 13
50.5744117152
 23
24.5336548857
 14
50.5744117152
 24
-24.4663451143
 50
270.0
100
AcDbRotatedDimension
  0
DIMENSION
  5
2B5
100
AcDbEntity
  8
0
100
AcDbDimension
 62
7
  6
CONTINUOUS
  2
*D1
 10
6.0244074844
 20
33.0336548857
 11
24.0315503416
 21
35.2836548857
 70
160
 71
2
 42
44.8
  3
DIMSTYLE_1
100
AcDbAlignedDimension
 13
50.8244074844
 23
22.433559694
 14
6.0244074844
 24
22.433559694
 50
180.0
100
AcDbRotatedDimension
  0
DIMENSION
  5
2B6
100
AcDbEntity
  8
0
100
AcDbDimension
 62
7
  6
CONTINUOUS
  2
*D2
 10
-23.2350956418
 20
33.0336548857
 11
-15.7708099275
 21
35.2836548857
 70
160
 71
2
 42
19.0
  3
DIMSTYLE_1
100
AcDbAlignedDimension
 13
-4.2350956418
 23
18.5240199168
 14
-23.2350956418
 24
24.7792872824
 50
180.0
100
AcDbRotatedDimension
  0
DIMENSION
  5
2B7
100
AcDbEntity
  8
0
100
AcDbDimension
 62
7
  6
CONTINUOUS
  2
*D3
 10
-41.2350956418
 20
43.0336548857
 11
-24.9850956418
 21
45.2836548857
 70
160
 71
2
 42
37.0
  3
DIMSTYLE_1
100
AcDbAlignedDimension
 13
-4.2350956418
 23
18.5240199168
 14
-41.2350956418
 24
2.0336548857
 50
180.0
100
AcDbRotatedDimension
  0
LINE
  5
2B8
100
AcDbEntity
  8
RACCORDO
100
AcDbLine
 62
253
  6
CONTINUOUS
 10
8.6744117152
 20
24.5336548857
 11
8.6613131365
 21
24.5205563069
  0
LINE
  5
2B9
100
AcDbEntity
  8
RACCORDO
100
AcDbLine
 62
253
  6
CONTINUOUS
 10
8.6744117152
 20
-24.4663451143
 11
8.6613131365
 21
-24.4532465356
  0
LINE
  5
2BA
100
AcDbEntity
  8
RACCORDO
100
AcDbLine
 62
7
  6
CONTINUOUS
 10
6.5244074844
 20
22.4420717214
 11
6.5235785591
 21
22.4408839717
  0
LINE
  5
2BB
100
AcDbEntity
  8
RACCORDO
100
AcDbLine
 62
253
  6
CONTINUOUS
 10
8.9244074844
 20
24.2836591164
 11
8.9113089057
 21
24.2705605377
  0
LINE
  5
2BC
100
AcDbEntity
  8
RACCORDO
100
AcDbLine
 62
253
  6
CONTINUOUS
 10
6.0393327057
 20
21.9410217364
 11
6.0244074844
 21
21.933559694
  0
LINE
  5
2BD
100
AcDbEntity
  8
RACCORDO
100
AcDbLine
 62
253
  6
CONTINUOUS
 10
6.0244074844
 20
-21.8662499227
 11
6.0393327057
 21
-21.8737119651
  0
LINE
  5
2BE
100
AcDbEntity
  8
RACCORDO
100
AcDbLine
 62
253
  6
CONTINUOUS
 10
8.9244074844
 20
-24.2163493451
 11
8.9113089057
 21
-24.2032507664
  0
LINE
  5
2BF
100
AcDbEntity
  8
RACCORDO
100
AcDbLine
 62
7
  6
CONTINUOUS
 10
6.5244074844
 20
-22.3747619501
 11
6.5235785591
 21
-22.3735742004
  0
LINE
  5
2C0
100
AcDbEntity
  8
RACCORDO
100
AcDbLine
 62
7
  6
CONTINUOUS
 10
50.0744117152
 20
-24.4663451143
 11
48.1744032536
 21
-24.4663451143
  0
LINE
  5
2C1
100
AcDbEntity
  8
RACCORDO
100
AcDbLine
 62
7
  6
CONTINUOUS
 10
31.1744117152
 20
-24.4663451143
 11
29.2744032536
 21
-24.4663451143
  0
LINE
  5
2C2
100
AcDbEntity
  8
RACCORDO
100
AcDbLine
 62
7
  6
CONTINUOUS
 10
27.5744117152
 20
-24.4663451143
 11
25.6744032536
 21
-24.4663451143
  0
LINE
  5
2C3
100
AcDbEntity
  8
RACCORDO
100
AcDbLine
 62
7
  6
CONTINUOUS
 10
8.6744117152
 20
-24.4663451143
 11
6.7744032536
 21
-24.4663451143
  0
LINE
  5
2C4
100
AcDbEntity
  8
RACCORDO
100
AcDbLine
 62
7
  6
CONTINUOUS
 10
6.7875018323
 20
-24.4532465356
 11
8.6613131365
 21
-24.4532465356
  0
LINE
  5
2C5
100
AcDbEntity
  8
RACCORDO
100
AcDbLine
 62
7
  6
CONTINUOUS
 10
25.6875018323
 20
-24.4532465356
 11
27.5613131365
 21
-24.4532465356
  0
LINE
  5
2C6
100
AcDbEntity
  8
RACCORDO
100
AcDbLine
 62
7
  6
CONTINUOUS
 10
29.2875018323
 20
-24.4532465356
 11
31.1613131365
 21
-24.4532465356
  0
LINE
  5
2C7
100
AcDbEntity
  8
RACCORDO
100
AcDbLine
 62
7
  6
CONTINUOUS
 10
48.1875018323
 20
-24.4532465356
 11
50.0613131365
 21
-24.4532465356
  0
LINE
  5
2C8
100
AcDbEntity
  8
RACCORDO
100
AcDbLine
 62
253
  6
CONTINUOUS
 10
6.5375060631
 20
-23.8106826816
 11
6.5316882333
 21
-23.2333324125
  0
LINE
  5
2C9
100
AcDbEntity
  8
RACCORDO
100
AcDbLine
 62
7
  6
CONTINUOUS
 10
6.0244074844
 20
21.933559694
 11
6.0244074844
 21
-21.8662499227
  0
LINE
  5
2CA
100
AcDbEntity
  8
ASSI
100
AcDbLine
 62
7
  6
CONTINUOUS
 10
6.0244074844
 20
-18.0880441631
 11
6.0244074844
 21
18.1553539344
  0
LINE
  5
2CB
100
AcDbEntity
  8
RACCORDO
100
AcDbLine
 62
253
  6
CONTINUOUS
 10
6.5316882333
 20
23.3006421838
 11
6.5375060631
 21
23.877992453
  0
LINE
  5
2CC
100
AcDbEntity
  8
RACCORDO
100
AcDbLine
 62
253
  6
CONTINUOUS
 10
6.5375060631
 20
-24.2032507664
 11
8.9113089057
 21
-24.2032507664
  0
LINE
  5
2CD
100
AcDbEntity
  8
RACCORDO
100
AcDbLine
 62
253
  6
CONTINUOUS
 10
25.4375060631
 20
-24.2032507664
 11
27.8113089057
 21
-24.2032507664
  0
LINE
  5
2CE
100
AcDbEntity
  8
RACCORDO
100
AcDbLine
 62
253
  6
CONTINUOUS
 10
29.0375060631
 20
-24.2032507664
 11
31.4113089057
 21
-24.2032507664
  0
LINE
  5
2CF
100
AcDbEntity
  8
RACCORDO
100
AcDbLine
 62
253
  6
CONTINUOUS
 10
47.9375060631
 20
-24.2032507664
 11
50.3113089057
 21
-24.2032507664
  0
LINE
  5
2D0
100
AcDbEntity
  8
RACCORDO
100
AcDbLine
 62
253
  6
CONTINUOUS
 10
6.5375060631
 20
-23.8106826816
 11
8.9113089057
 21
-23.8106826816
  0
LINE
  5
2D1
100
AcDbEntity
  8
RACCORDO
100
AcDbLine
 62
253
  6
CONTINUOUS
 10
25.4375060631
 20
-23.8106826816
 11
27.8113089057
 21
-23.8106826816
  0
LINE
  5
2D2
100
AcDbEntity
  8
RACCORDO
100
AcDbLine
 62
253
  6
CONTINUOUS
 10
29.0375060631
 20
-23.8106826816
 11
31.4113089057
 21
-23.8106826816
  0
LINE
  5
2D3
100
AcDbEntity
  8
RACCORDO
100
AcDbLine
 62
253
  6
CONTINUOUS
 10
47.9375060631
 20
-23.8106826816
 11
50.3113089057
 21
-23.8106826816
  0
LINE
  5
2D4
100
AcDbEntity
  8
RACCORDO
100
AcDbLine
 62
7
  6
CONTINUOUS
 10
12.8782001707
 20
-23.7616840812
 11
21.4706147981
 21
-23.7616840812
  0
LINE
  5
2D5
100
AcDbEntity
  8
RACCORDO
100
AcDbLine
 62
7
  6
CONTINUOUS
 10
35.3782001707
 20
-23.7616840812
 11
43.9706147981
 21
-23.7616840812
  0
LINE
  5
2D6
100
AcDbEntity
  8
RACCORDO
100
AcDbLine
 62
253
  6
CONTINUOUS
 10
50.0613131365
 20
-23.5941763307
 11
48.1875018323
 21
-23.5941763307
  0
LINE
  5
2D7
100
AcDbEntity
  8
RACCORDO
100
AcDbLine
 62
253
  6
CONTINUOUS
 10
31.1613131365
 20
-23.5941763307
 11
29.2875018323
 21
-23.5941763307
  0
LINE
  5
2D8
100
AcDbEntity
  8
RACCORDO
100
AcDbLine
 62
253
  6
CONTINUOUS
 10
27.5613131365
 20
-23.5941763307
 11
25.6875018323
 21
-23.5941763307
  0
LINE
  5
2D9
100
AcDbEntity
  8
RACCORDO
100
AcDbLine
 62
253
  6
CONTINUOUS
 10
8.6613131365
 20
-23.5941763307
 11
6.7875018323
 21
-23.5941763307
  0
LINE
  5
2DA
100
AcDbEntity
  8
RACCORDO
100
AcDbLine
 62
253
  6
CONTINUOUS
 10
13.277324861
 20
-23.5616874658
 11
21.0714901078
 21
-23.5616874658
  0
LINE
  5
2DB
100
AcDbEntity
  8
RACCORDO
100
AcDbLine
 62
253
  6
CONTINUOUS
 10
35.777324861
 20
-23.5616874658
 11
43.5714901078
 21
-23.5616874658
  0
LINE
  5
2DC
100
AcDbEntity
  8
RACCORDO
100
AcDbLine
 62
7
  6
CONTINUOUS
 10
6.7824112313
 20
-23.0889948452
 11
8.6664037376
 21
-23.0889948452
  0
LINE
  5
2DD
100
AcDbEntity
  8
RACCORDO
100
AcDbLine
 62
7
  6
CONTINUOUS
 10
25.6824112313
 20
-23.0889948452
 11
27.5664037376
 21
-23.0889948452
  0
LINE
  5
2DE
100
AcDbEntity
  8
RACCORDO
100
AcDbLine
 62
7
  6
CONTINUOUS
 10
29.2824112313
 20
-23.0889948452
 11
31.1664037376
 21
-23.0889948452
  0
LINE
  5
2DF
100
AcDbEntity
  8
RACCORDO
100
AcDbLine
 62
7
  6
CONTINUOUS
 10
48.1824112313
 20
-23.0889948452
 11
50.0664037376
 21
-23.0889948452
  0
LINE
  5
2E0
100
AcDbEntity
  8
DRAFT
100
AcDbLine
 62
7
  6
CONTINUOUS
 10
47.923576999
 20
-22.3738262365
 11
44.073576999
 21
-22.3738262365
  0
LINE
  5
2E1
100
AcDbEntity
  8
DRAFT
100
AcDbLine
 62
7
  6
CONTINUOUS
 10
35.2752379698
 20
-22.3738262365
 11
31.4252379698
 21
-22.3738262365
  0
LINE
  5
2E2
100
AcDbEntity
  8
DRAFT
100
AcDbLine
 62
7
  6
CONTINUOUS
 10
29.023576999
 20
-22.3738262365
 11
27.8252379698
 21
-22.3738262365
  0
LINE
  5
2E3
100
AcDbEntity
  8
DRAFT
100
AcDbLine
 62
7
  6
CONTINUOUS
 10
25.423576999
 20
-22.3738262365
 11
21.573576999
 21
-22.3738262365
  0
LINE
  5
2E4
100
AcDbEntity
  8
DRAFT
100
AcDbLine
 62
7
  6
CONTINUOUS
 10
12.7752379698
 20
-22.3738262365
 11
8.9252379698
 21
-22.3738262365
  0
LINE
  5
2E5
100
AcDbEntity
  8
RACCORDO
100
AcDbLine
 62
7
  6
CONTINUOUS
 10
43.5714901078
 20
-22.3139373351
 11
35.777324861
 21
-22.3139373351
  0
LINE
  5
2E6
100
AcDbEntity
  8
RACCORDO
100
AcDbLine
 62
7
  6
CONTINUOUS
 10
21.0714901078
 20
-22.3139373351
 11
13.277324861
 21
-22.3139373351
  0
LINE
  5
2E7
100
AcDbEntity
  8
RACCORDO
100
AcDbLine
 62
7
  6
CONTINUOUS
 10
6.7816840025
 20
-22.2877334454
 11
8.6671309663
 21
-22.2877334454
  0
LINE
  5
2E8
100
AcDbEntity
  8
RACCORDO
100
AcDbLine
 62
7
  6
CONTINUOUS
 10
25.6816840025
 20
-22.2877334454
 11
27.5671309663
 21
-22.2877334454
  0
LINE
  5
2E9
100
AcDbEntity
  8
RACCORDO
100
AcDbLine
 62
7
  6
CONTINUOUS
 10
29.2816840025
 20
-22.2877334454
 11
31.1671309663
 21
-22.2877334454
  0
LINE
  5
2EA
100
AcDbEntity
  8
RACCORDO
100
AcDbLine
 62
7
  6
CONTINUOUS
 10
48.1816840025
 20
-22.2877334454
 11
50.0671309663
 21
-22.2877334454
  0
LINE
  5
2EB
100
AcDbEntity
  8
RACCORDO
100
AcDbLine
 62
253
  6
CONTINUOUS
 10
6.7875018323
 20
-23.5941763307
 11
6.7824112313
 21
-23.0889948452
  0
LINE
  5
2EC
100
AcDbEntity
  8
RACCORDO
100
AcDbLine
 62
7
  6
CONTINUOUS
 10
6.5244074844
 20
-22.3747619501
 11
6.5244074844
 21
-24.2163493451
  0
LINE
  5
2ED
100
AcDbEntity
  8
RACCORDO
100
AcDbLine
 62
7
  6
CONTINUOUS
 10
6.5244074844
 20
22.4420717214
 11
6.5244074844
 21
24.2836591164
  0
LINE
  5
2EE
100
AcDbEntity
  8
RACCORDO
100
AcDbLine
 62
7
  6
CONTINUOUS
 10
6.5316882333
 20
-23.2333324125
 11
6.5316882333
 21
-22.2997560758
  0
LINE
  5
2EF
100
AcDbEntity
  8
RACCORDO
100
AcDbLine
 62
7
  6
CONTINUOUS
 10
6.5316882333
 20
22.3670658471
 11
6.5316882333
 21
23.3006421838
  0
LINE
  5
2F0
100
AcDbEntity
  8
RACCORDO
100
AcDbLine
 62
7
  6
CONTINUOUS
 10
6.5375060631
 20
24.2705605377
 11
6.5375060631
 21
23.877992453
  0
LINE
  5
2F1
100
AcDbEntity
  8
RACCORDO
100
AcDbLine
 62
7
  6
CONTINUOUS
 10
6.5375060631
 20
-23.8106826816
 11
6.5375060631
 21
-24.2032507664
  0
LINE
  5
2F2
100
AcDbEntity
  8
RACCORDO
100
AcDbLine
 62
253
  6
CONTINUOUS
 10
6.6916582929
 20
-20.5288134392
 11
6.6916582929
 21
20.5961232105
  0
LINE
  5
2F3
100
AcDbEntity
  8
RACCORDO
100
AcDbLine
 62
253
  6
CONTINUOUS
 10
6.7816840025
 20
-23.0889948452
 11
6.7816840025
 21
-22.2877334454
  0
LINE
  5
2F4
100
AcDbEntity
  8
RACCORDO
100
AcDbLine
 62
253
  6
CONTINUOUS
 10
6.7816840025
 20
22.3550432167
 11
6.7816840025
 21
23.1563046165
  0
LINE
  5
2F5
100
AcDbEntity
  8
RACCORDO
100
AcDbLine
 62
253
  6
CONTINUOUS
 10
6.7875018323
 20
-23.5941763307
 11
6.7875018323
 21
-24.4532465356
  0
LINE
  5
2F6
100
AcDbEntity
  8
RACCORDO
100
AcDbLine
 62
253
  6
CONTINUOUS
 10
6.7875018323
 20
23.661486102
 11
6.7875018323
 21
24.5205563069
  0
LINE
  5
2F7
100
AcDbEntity
  8
RACCORDO
100
AcDbLine
 62
253
  6
CONTINUOUS
 10
8.6613131365
 20
-23.5941763307
 11
8.6613131365
 21
-24.4532465356
  0
LINE
  5
2F8
100
AcDbEntity
  8
RACCORDO
100
AcDbLine
 62
253
  6
CONTINUOUS
 10
8.6613131365
 20
23.661486102
 11
8.6613131365
 21
24.5205563069
  0
LINE
  5
2F9
100
AcDbEntity
  8
RACCORDO
100
AcDbLine
 62
253
  6
CONTINUOUS
 10
8.6671309663
 20
23.1563046165
 11
8.6671309663
 21
22.3550432167
  0
LINE
  5
2FA
100
AcDbEntity
  8
RACCORDO
100
AcDbLine
 62
253
  6
CONTINUOUS
 10
8.6671309663
 20
-22.2877334454
 11
8.6671309663
 21
-23.0889948452
  0
LINE
  5
2FB
100
AcDbEntity
  8
RACCORDO
100
AcDbLine
 62
253
  6
CONTINUOUS
 10
6.7824112313
 20
23.1563046165
 11
6.7875018323
 21
23.661486102
  0
LINE
  5
2FC
100
AcDbEntity
  8
RACCORDO
100
AcDbLine
 62
7
  6
CONTINUOUS
 10
8.9252379698
 20
22.4411360078
 11
8.9171267355
 21
22.368068938
  0
LINE
  5
2FD
100
AcDbEntity
  8
RACCORDO
100
AcDbLine
 62
253
  6
CONTINUOUS
 10
6.6751315222
 20
-21.9650703363
 11
50.1736834466
 21
-21.9650703363
  0
LINE
  5
2FE
100
AcDbEntity
  8
RACCORDO
100
AcDbLine
 62
253
  6
CONTINUOUS
 10
6.6916582929
 20
-20.5288134392
 11
50.1571566759
 21
-20.5288134392
  0
LINE
  5
2FF
100
AcDbEntity
  8
RACCORDO
100
AcDbLine
 62
7
  6
CONTINUOUS
 10
8.9252379698
 20
-22.3738262365
 11
8.9171267355
 21
-22.3007591666
  0
LINE
  5
300
100
AcDbEntity
  8
RACCORDO
100
AcDbLine
 62
253
  6
CONTINUOUS
 10
8.6613131365
 20
23.661486102
 11
8.6664037376
 21
23.1563046165
  0
LINE
  5
301
100
AcDbEntity
  8
RACCORDO
100
AcDbLine
 62
253
  6
CONTINUOUS
 10
8.9113089057
 20
23.877992453
 11
8.9171267355
 21
23.3006421838
  0
LINE
  5
302
100
AcDbEntity
  8
RACCORDO
100
AcDbLine
 62
7
  6
CONTINUOUS
 10
8.9113089057
 20
-24.2032507664
 11
8.9113089057
 21
-23.8106826816
  0
LINE
  5
303
100
AcDbEntity
  8
RACCORDO
100
AcDbLine
 62
7
  6
CONTINUOUS
 10
8.9113089057
 20
23.877992453
 11
8.9113089057
 21
24.2705605377
  0
LINE
  5
304
100
AcDbEntity
  8
RACCORDO
100
AcDbLine
 62
7
  6
CONTINUOUS
 10
8.9171267355
 20
23.3006421838
 11
8.9171267355
 21
22.368068938
  0
LINE
  5
305
100
AcDbEntity
  8
RACCORDO
100
AcDbLine
 62
7
  6
CONTINUOUS
 10
8.9171267355
 20
-22.3007591666
 11
8.9171267355
 21
-23.2333324125
  0
LINE
  5
306
100
AcDbEntity
  8
RACCORDO
100
AcDbLine
 62
7
  6
CONTINUOUS
 10
8.9244074844
 20
-22.3750719821
 11
8.9244074844
 21
-24.2163493451
  0
LINE
  5
307
100
AcDbEntity
  8
RACCORDO
100
AcDbLine
 62
7
  6
CONTINUOUS
 10
8.9244074844
 20
22.4423817534
 11
8.9244074844
 21
24.2836591164
  0
LINE
  5
308
100
AcDbEntity
  8
RACCORDO
100
AcDbLine
 62
253
  6
CONTINUOUS
 10
8.6664037376
 20
-23.0889948452
 11
8.6613131365
 21
-23.5941763307
  0
LINE
  5
309
100
AcDbEntity
  8
RACCORDO
100
AcDbLine
 62
253
  6
CONTINUOUS
 10
8.9171267355
 20
-23.2333324125
 11
8.9113089057
 21
-23.8106826816
  0
LINE
  5
30A
100
AcDbEntity
  8
RACCORDO
100
AcDbLine
 62
253
  6
CONTINUOUS
 10
27.5744117152
 20
24.5336548857
 11
27.5613131365
 21
24.5205563069
  0
LINE
  5
30B
100
AcDbEntity
  8
RACCORDO
100
AcDbLine
 62
253
  6
CONTINUOUS
 10
27.8244074844
 20
24.2836591164
 11
27.8113089057
 21
24.2705605377
  0
LINE
  5
30C
100
AcDbEntity
  8
RACCORDO
100
AcDbLine
 62
253
  6
CONTINUOUS
 10
27.5744117152
 20
-24.4663451143
 11
27.5613131365
 21
-24.4532465356
  0
LINE
  5
30D
100
AcDbEntity
  8
RACCORDO
100
AcDbLine
 62
253
  6
CONTINUOUS
 10
27.8244074844
 20
-24.2163493451
 11
27.8113089057
 21
-24.2032507664
  0
LINE
  5
30E
100
AcDbEntity
  8
RACCORDO
100
AcDbLine
 62
7
  6
CONTINUOUS
 10
12.7773333226
 20
23.8307290475
 11
12.7773333226
 21
22.4072985488
  0
LINE
  5
30F
100
AcDbEntity
  8
RACCORDO
100
AcDbLine
 62
7
  6
CONTINUOUS
 10
12.7773333226
 20
-22.3399887775
 11
12.7773333226
 21
-23.7634192762
  0
LINE
  5
310
100
AcDbEntity
  8
RACCORDO
100
AcDbLine
 62
253
  6
CONTINUOUS
 10
31.1744117152
 20
24.5336548857
 11
31.1613131365
 21
24.5205563069
  0
LINE
  5
311
100
AcDbEntity
  8
RACCORDO
100
AcDbLine
 62
253
  6
CONTINUOUS
 10
31.1744117152
 20
-24.4663451143
 11
31.1613131365
 21
-24.4532465356
  0
LINE
  5
312
100
AcDbEntity
  8
RACCORDO
100
AcDbLine
 62
253
  6
CONTINUOUS
 10
13.277324861
 20
23.6289972371
 11
13.277324861
 21
22.3812471064
  0
LINE
  5
313
100
AcDbEntity
  8
RACCORDO
100
AcDbLine
 62
253
  6
CONTINUOUS
 10
13.277324861
 20
-22.3139373351
 11
13.277324861
 21
-23.5616874658
  0
LINE
  5
314
100
AcDbEntity
  8
RACCORDO
100
AcDbLine
 62
253
  6
CONTINUOUS
 10
6.0393327057
 20
-21.8737119651
 11
6.1752076747
 21
-21.4657555689
  0
LINE
  5
315
100
AcDbEntity
  8
RACCORDO
100
AcDbLine
 62
253
  6
CONTINUOUS
 10
6.6751315222
 20
-21.9650703363
 11
6.5654921445
 21
-22.294255953
  0
LINE
  5
316
100
AcDbEntity
  8
DRAFT
100
AcDbLine
 62
7
  6
CONTINUOUS
 10
25.423576999
 20
22.4411360078
 11
25.4244074844
 21
22.4423817534
  0
LINE
  5
317
100
AcDbEntity
  8
RACCORDO
100
AcDbLine
 62
253
  6
CONTINUOUS
 10
31.4244074844
 20
24.2836591164
 11
31.4113089057
 21
24.2705605377
  0
LINE
  5
318
100
AcDbEntity
  8
RACCORDO
100
AcDbLine
 62
253
  6
CONTINUOUS
 10
31.4244074844
 20
-24.2163493451
 11
31.4113089057
 21
-24.2032507664
  0
LINE
  5
319
100
AcDbEntity
  8
DRAFT
100
AcDbLine
 62
7
  6
CONTINUOUS
 10
25.4244074844
 20
-22.3750719821
 11
25.423576999
 21
-22.3738262365
  0
LINE
  5
31A
100
AcDbEntity
  8
RACCORDO
100
AcDbLine
 62
253
  6
CONTINUOUS
 10
6.1752076747
 20
21.5330653402
 11
6.0393327057
 21
21.9410217364
  0
LINE
  5
31B
100
AcDbEntity
  8
RACCORDO
100
AcDbLine
 62
253
  6
CONTINUOUS
 10
6.5654921445
 20
22.3615657243
 11
6.6751315222
 21
22.0323801076
  0
LINE
  5
31C
100
AcDbEntity
  8
DRAFT
100
AcDbLine
 62
7
  6
CONTINUOUS
 10
29.023576999
 20
22.4411360078
 11
29.0244074844
 21
22.4423817534
  0
LINE
  5
31D
100
AcDbEntity
  8
DRAFT
100
AcDbLine
 62
7
  6
CONTINUOUS
 10
29.0244074844
 20
-22.3750719821
 11
29.023576999
 21
-22.3738262365
  0
LINE
  5
31E
100
AcDbEntity
  8
RACCORDO
100
AcDbLine
 62
7
  6
CONTINUOUS
 10
19.1244074844
 20
8.8336548857
 11
19.1244074844
 21
-5.7663451143
  0
LINE
  5
31F
100
AcDbEntity
  8
RACCORDO
100
AcDbLine
 62
7
  6
CONTINUOUS
 10
19.1244074844
 20
-6.2663451143
 11
19.1244074844
 21
-6.2270694341
  0
LINE
  5
320
100
AcDbEntity
  8
COPY-PUBBLISH
100
AcDbLine
 62
7
  6
CONTINUOUS
 10
22.7527281598
 20
9.3336548857
 11
22.7113033758
 21
9.2922301017
  0
LINE
  5
321
100
AcDbEntity
  8
COPY-PUBBLISH
100
AcDbLine
 62
253
  6
CONTINUOUS
 10
20.637511593
 20
9.3336548857
 11
20.637511593
 21
9.2922301017
  0
LINE
  5
322
100
AcDbEntity
  8
COPY-PUBBLISH
100
AcDbLine
 62
253
  6
CONTINUOUS
 10
20.637511593
 20
-6.2249203304
 11
20.637511593
 21
-6.2663451143
  0
LINE
  5
323
100
AcDbEntity
  8
RACCORDO
100
AcDbLine
 62
253
  6
CONTINUOUS
 10
21.0714901078
 20
-23.5616874658
 11
21.0714901078
 21
-22.3139373351
  0
LINE
  5
324
100
AcDbEntity
  8
RACCORDO
100
AcDbLine
 62
253
  6
CONTINUOUS
 10
21.0714901078
 20
22.3812471064
 11
21.0714901078
 21
23.6289972371
  0
LINE
  5
325
100
AcDbEntity
  8
COPY-PUBBLISH
100
AcDbLine
 62
253
  6
CONTINUOUS
 10
21.1374354406
 20
9.3336548857
 11
21.1374354406
 21
9.2836548857
  0
LINE
  5
326
100
AcDbEntity
  8
COPY-PUBBLISH
100
AcDbLine
 62
253
  6
CONTINUOUS
 10
21.1374354406
 20
-6.2163451143
 11
21.1374354406
 21
-6.2663451143
  0
LINE
  5
327
100
AcDbEntity
  8
RACCORDO
100
AcDbLine
 62
7
  6
CONTINUOUS
 10
21.5714816462
 20
-23.7634192762
 11
21.5714816462
 21
-22.3399887775
  0
LINE
  5
328
100
AcDbEntity
  8
RACCORDO
100
AcDbLine
 62
7
  6
CONTINUOUS
 10
21.5714816462
 20
22.4072985488
 11
21.5714816462
 21
23.8307290475
  0
LINE
  5
329
100
AcDbEntity
  8
COPY-PUBBLISH
100
AcDbLine
 62
253
  6
CONTINUOUS
 10
22.2113795283
 20
-6.2663451143
 11
22.2113795283
 21
-6.2163451143
  0
LINE
  5
32A
100
AcDbEntity
  8
COPY-PUBBLISH
100
AcDbLine
 62
253
  6
CONTINUOUS
 10
22.2113795283
 20
9.2836548857
 11
22.2113795283
 21
9.3336548857
  0
LINE
  5
32B
100
AcDbEntity
  8
COPY-PUBBLISH
100
AcDbLine
 62
7
  6
CONTINUOUS
 10
22.7527281598
 20
-6.2663451143
 11
22.7113033758
 21
-6.2249203304
  0
LINE
  5
32C
100
AcDbEntity
  8
COPY-PUBBLISH
100
AcDbLine
 62
253
  6
CONTINUOUS
 10
22.7113033758
 20
-6.2663451143
 11
22.7113033758
 21
-6.2249203304
  0
LINE
  5
32D
100
AcDbEntity
  8
COPY-PUBBLISH
100
AcDbLine
 62
253
  6
CONTINUOUS
 10
22.7113033758
 20
9.2922301017
 11
22.7113033758
 21
9.3336548857
  0
LINE
  5
32E
100
AcDbEntity
  8
RACCORDO
100
AcDbLine
 62
7
  6
CONTINUOUS
 10
37.7244074844
 20
-6.2663451143
 11
37.6918086025
 21
-6.2663451143
  0
LINE
  5
32F
100
AcDbEntity
  8
RACCORDO
100
AcDbLine
 62
7
  6
CONTINUOUS
 10
37.2244074844
 20
-6.2663451143
 11
19.6244074844
 21
-6.2663451143
  0
LINE
  5
330
100
AcDbEntity
  8
RACCORDO
100
AcDbLine
 62
7
  6
CONTINUOUS
 10
19.1570063663
 20
-6.2663451143
 11
19.1244074844
 21
-6.2663451143
  0
LINE
  5
331
100
AcDbEntity
  8
COPY-PUBBLISH
100
AcDbLine
 62
7
  6
CONTINUOUS
 10
21.1374354406
 20
-6.2163451143
 11
22.2113795283
 21
-6.2163451143
  0
LINE
  5
332
100
AcDbEntity
  8
COPY-PUBBLISH
100
AcDbLine
 62
7
  6
CONTINUOUS
 10
34.6374354406
 20
-6.2163451143
 11
35.7113795283
 21
-6.2163451143
  0
LINE
  5
333
100
AcDbEntity
  8
RACCORDO
100
AcDbLine
 62
253
  6
CONTINUOUS
 10
25.4375060631
 20
-23.8106826816
 11
25.4316882333
 21
-23.2333324125
  0
LINE
  5
334
100
AcDbEntity
  8
RACCORDO
100
AcDbLine
 62
253
  6
CONTINUOUS
 10
25.6875018323
 20
-23.5941763307
 11
25.6824112313
 21
-23.0889948452
  0
LINE
  5
335
100
AcDbEntity
  8
RACCORDO
100
AcDbLine
 62
7
  6
CONTINUOUS
 10
25.4244074844
 20
-22.3750719821
 11
25.4244074844
 21
-24.2163493451
  0
LINE
  5
336
100
AcDbEntity
  8
RACCORDO
100
AcDbLine
 62
7
  6
CONTINUOUS
 10
25.4244074844
 20
22.4423817534
 11
25.4244074844
 21
24.2836591164
  0
LINE
  5
337
100
AcDbEntity
  8
RACCORDO
100
AcDbLine
 62
7
  6
CONTINUOUS
 10
25.4316882333
 20
-23.2333324125
 11
25.4316882333
 21
-22.3007591666
  0
LINE
  5
338
100
AcDbEntity
  8
RACCORDO
100
AcDbLine
 62
7
  6
CONTINUOUS
 10
25.4316882333
 20
22.368068938
 11
25.4316882333
 21
23.3006421838
  0
LINE
  5
339
100
AcDbEntity
  8
RACCORDO
100
AcDbLine
 62
7
  6
CONTINUOUS
 10
25.4375060631
 20
24.2705605377
 11
25.4375060631
 21
23.877992453
  0
LINE
  5
33A
100
AcDbEntity
  8
RACCORDO
100
AcDbLine
 62
7
  6
CONTINUOUS
 10
25.4375060631
 20
-23.8106826816
 11
25.4375060631
 21
-24.2032507664
  0
LINE
  5
33B
100
AcDbEntity
  8
RACCORDO
100
AcDbLine
 62
253
  6
CONTINUOUS
 10
25.6816840025
 20
-23.0889948452
 11
25.6816840025
 21
-22.2877334454
  0
LINE
  5
33C
100
AcDbEntity
  8
RACCORDO
100
AcDbLine
 62
253
  6
CONTINUOUS
 10
25.6816840025
 20
22.3550432167
 11
25.6816840025
 21
23.1563046165
  0
LINE
  5
33D
100
AcDbEntity
  8
RACCORDO
100
AcDbLine
 62
253
  6
CONTINUOUS
 10
25.6875018323
 20
-23.5941763307
 11
25.6875018323
 21
-24.4532465356
  0
LINE
  5
33E
100
AcDbEntity
  8
RACCORDO
100
AcDbLine
 62
253
  6
CONTINUOUS
 10
25.6875018323
 20
23.661486102
 11
25.6875018323
 21
24.5205563069
  0
LINE
  5
33F
100
AcDbEntity
  8
RACCORDO
100
AcDbLine
 62
253
  6
CONTINUOUS
 10
25.4316882333
 20
23.3006421838
 11
25.4375060631
 21
23.877992453
  0
LINE
  5
340
100
AcDbEntity
  8
RACCORDO
100
AcDbLine
 62
253
  6
CONTINUOUS
 10
25.6824112313
 20
23.1563046165
 11
25.6875018323
 21
23.661486102
  0
LINE
  5
341
100
AcDbEntity
  8
RACCORDO
100
AcDbLine
 62
7
  6
CONTINUOUS
 10
27.8252379698
 20
22.4411360078
 11
27.8171267355
 21
22.368068938
  0
LINE
  5
342
100
AcDbEntity
  8
DRAFT
100
AcDbLine
 62
7
  6
CONTINUOUS
 10
8.9252379698
 20
-22.3738262365
 11
8.9244074844
 21
-22.3750719821
  0
LINE
  5
343
100
AcDbEntity
  8
RACCORDO
100
AcDbLine
 62
253
  6
CONTINUOUS
 10
19.2131732871
 20
-5.6776554641
 11
19.1244455606
 21
-5.7663831906
  0
LINE
  5
344
100
AcDbEntity
  8
RACCORDO
100
AcDbLine
 62
253
  6
CONTINUOUS
 10
50.0744117152
 20
24.5336548857
 11
50.0613131365
 21
24.5205563069
  0
LINE
  5
345
100
AcDbEntity
  8
RACCORDO
100
AcDbLine
 62
253
  6
CONTINUOUS
 10
19.713080899
 20
-6.1775955473
 11
19.6243694082
 21
-6.2663070381
  0
LINE
  5
346
100
AcDbEntity
  8
RACCORDO
100
AcDbLine
 62
253
  6
CONTINUOUS
 10
50.0744117152
 20
-24.4663451143
 11
50.0613131365
 21
-24.4532465356
  0
LINE
  5
347
100
AcDbEntity
  8
DRAFT
100
AcDbLine
 62
7
  6
CONTINUOUS
 10
8.9244074844
 20
22.4423817534
 11
8.9252379698
 21
22.4411360078
  0
LINE
  5
348
100
AcDbEntity
  8
RACCORDO
100
AcDbLine
 62
7
  6
CONTINUOUS
 10
27.8252379698
 20
-22.3738262365
 11
27.8171267355
 21
-22.3007591666
  0
LINE
  5
349
100
AcDbEntity
  8
RACCORDO
100
AcDbLine
 62
253
  6
CONTINUOUS
 10
27.5613131365
 20
23.661486102
 11
27.5664037376
 21
23.1563046165
  0
LINE
  5
34A
100
AcDbEntity
  8
RACCORDO
100
AcDbLine
 62
253
  6
CONTINUOUS
 10
27.8113089057
 20
23.877992453
 11
27.8171267355
 21
23.3006421838
  0
LINE
  5
34B
100
AcDbEntity
  8
RACCORDO
100
AcDbLine
 62
253
  6
CONTINUOUS
 10
29.0375060631
 20
-23.8106826816
 11
29.0316882333
 21
-23.2333324125
  0
LINE
  5
34C
100
AcDbEntity
  8
RACCORDO
100
AcDbLine
 62
253
  6
CONTINUOUS
 10
27.5613131365
 20
-23.5941763307
 11
27.5613131365
 21
-24.4532465356
  0
LINE
  5
34D
100
AcDbEntity
  8
RACCORDO
100
AcDbLine
 62
253
  6
CONTINUOUS
 10
27.5613131365
 20
23.661486102
 11
27.5613131365
 21
24.5205563069
  0
LINE
  5
34E
100
AcDbEntity
  8
RACCORDO
100
AcDbLine
 62
253
  6
CONTINUOUS
 10
27.5671309663
 20
23.1563046165
 11
27.5671309663
 21
22.3550432167
  0
LINE
  5
34F
100
AcDbEntity
  8
RACCORDO
100
AcDbLine
 62
253
  6
CONTINUOUS
 10
27.5671309663
 20
-22.2877334454
 11
27.5671309663
 21
-23.0889948452
  0
LINE
  5
350
100
AcDbEntity
  8
RACCORDO
100
AcDbLine
 62
7
  6
CONTINUOUS
 10
27.8113089057
 20
-24.2032507664
 11
27.8113089057
 21
-23.8106826816
  0
LINE
  5
351
100
AcDbEntity
  8
RACCORDO
100
AcDbLine
 62
7
  6
CONTINUOUS
 10
27.8113089057
 20
23.877992453
 11
27.8113089057
 21
24.2705605377
  0
LINE
  5
352
100
AcDbEntity
  8
RACCORDO
100
AcDbLine
 62
7
  6
CONTINUOUS
 10
27.8171267355
 20
23.3006421838
 11
27.8171267355
 21
22.368068938
  0
LINE
  5
353
100
AcDbEntity
  8
RACCORDO
100
AcDbLine
 62
7
  6
CONTINUOUS
 10
27.8171267355
 20
-22.3007591666
 11
27.8171267355
 21
-23.2333324125
  0
LINE
  5
354
100
AcDbEntity
  8
RACCORDO
100
AcDbLine
 62
7
  6
CONTINUOUS
 10
27.8244074844
 20
-22.3750719821
 11
27.8244074844
 21
-24.2163493451
  0
LINE
  5
355
100
AcDbEntity
  8
RACCORDO
100
AcDbLine
 62
7
  6
CONTINUOUS
 10
27.8244074844
 20
22.4423817534
 11
27.8244074844
 21
24.2836591164
  0
LINE
  5
356
100
AcDbEntity
  8
RACCORDO
100
AcDbLine
 62
7
  6
CONTINUOUS
 10
29.0244074844
 20
-22.3750719821
 11
29.0244074844
 21
-24.2163493451
  0
LINE
  5
357
100
AcDbEntity
  8
RACCORDO
100
AcDbLine
 62
7
  6
CONTINUOUS
 10
29.0244074844
 20
22.4423817534
 11
29.0244074844
 21
24.2836591164
  0
LINE
  5
358
100
AcDbEntity
  8
RACCORDO
100
AcDbLine
 62
253
  6
CONTINUOUS
 10
27.5664037376
 20
-23.0889948452
 11
27.5613131365
 21
-23.5941763307
  0
LINE
  5
359
100
AcDbEntity
  8
RACCORDO
100
AcDbLine
 62
253
  6
CONTINUOUS
 10
27.8171267355
 20
-23.2333324125
 11
27.8113089057
 21
-23.8106826816
  0
LINE
  5
35A
100
AcDbEntity
  8
RACCORDO
100
AcDbLine
 62
253
  6
CONTINUOUS
 10
29.0316882333
 20
23.3006421838
 11
29.0375060631
 21
23.877992453
  0
LINE
  5
35B
100
AcDbEntity
  8
RACCORDO
100
AcDbLine
 62
7
  6
CONTINUOUS
 10
25.423576999
 20
-22.3738262365
 11
25.4316882333
 21
-22.3007591666
  0
LINE
  5
35C
100
AcDbEntity
  8
RACCORDO
100
AcDbLine
 62
7
  6
CONTINUOUS
 10
31.4252379698
 20
22.4411360078
 11
31.4171267355
 21
22.368068938
  0
LINE
  5
35D
100
AcDbEntity
  8
RACCORDO
100
AcDbLine
 62
253
  6
CONTINUOUS
 10
50.3244074844
 20
24.2836591164
 11
50.3113089057
 21
24.2705605377
  0
LINE
  5
35E
100
AcDbEntity
  8
COPY-PUBBLISH
100
AcDbLine
 62
7
  6
CONTINUOUS
 10
20.596086809
 20
-6.2663451143
 11
20.637511593
 21
-6.2249203304
  0
LINE
  5
35F
100
AcDbEntity
  8
COPY-PUBBLISH
100
AcDbLine
 62
7
  6
CONTINUOUS
 10
36.2527281598
 20
9.3336548857
 11
36.2113033758
 21
9.2922301017
  0
LINE
  5
360
100
AcDbEntity
  8
RACCORDO
100
AcDbLine
 62
253
  6
CONTINUOUS
 10
37.1357340698
 20
9.2449053187
 11
37.2244455606
 21
9.3336168094
  0
LINE
  5
361
100
AcDbEntity
  8
RACCORDO
100
AcDbLine
 62
253
  6
CONTINUOUS
 10
37.6356416817
 20
8.7449652354
 11
37.7243694082
 21
8.8336929619
  0
LINE
  5
362
100
AcDbEntity
  8
RACCORDO
100
AcDbLine
 62
253
  6
CONTINUOUS
 10
50.3244074844
 20
-24.2163493451
 11
50.3113089057
 21
-24.2032507664
  0
LINE
  5
363
100
AcDbEntity
  8
RACCORDO
100
AcDbLine
 62
253
  6
CONTINUOUS
 10
19.1244455606
 20
8.8336929619
 11
19.2131724758
 21
8.7449660466
  0
LINE
  5
364
100
AcDbEntity
  8
RACCORDO
100
AcDbLine
 62
253
  6
CONTINUOUS
 10
19.6243694082
 20
9.3336168094
 11
19.713093435
 21
9.2448927827
  0
LINE
  5
365
100
AcDbEntity
  8
RACCORDO
100
AcDbLine
 62
7
  6
CONTINUOUS
 10
25.423576999
 20
22.4411360078
 11
25.4316882333
 21
22.368068938
  0
LINE
  5
366
100
AcDbEntity
  8
RACCORDO
100
AcDbLine
 62
7
  6
CONTINUOUS
 10
31.4252379698
 20
-22.3738262365
 11
31.4171267355
 21
-22.3007591666
  0
LINE
  5
367
100
AcDbEntity
  8
RACCORDO
100
AcDbLine
 62
253
  6
CONTINUOUS
 10
29.2875018323
 20
-23.5941763307
 11
29.2824112313
 21
-23.0889948452
  0
LINE
  5
368
100
AcDbEntity
  8
RACCORDO
100
AcDbLine
 62
7
  6
CONTINUOUS
 10
29.0316882333
 20
-23.2333324125
 11
29.0316882333
 21
-22.3007591666
  0
LINE
  5
369
100
AcDbEntity
  8
RACCORDO
100
AcDbLine
 62
7
  6
CONTINUOUS
 10
29.0316882333
 20
22.368068938
 11
29.0316882333
 21
23.3006421838
  0
LINE
  5
36A
100
AcDbEntity
  8
RACCORDO
100
AcDbLine
 62
7
  6
CONTINUOUS
 10
29.0375060631
 20
24.2705605377
 11
29.0375060631
 21
23.877992453
  0
LINE
  5
36B
100
AcDbEntity
  8
RACCORDO
100
AcDbLine
 62
7
  6
CONTINUOUS
 10
29.0375060631
 20
-23.8106826816
 11
29.0375060631
 21
-24.2032507664
  0
LINE
  5
36C
100
AcDbEntity
  8
RACCORDO
100
AcDbLine
 62
253
  6
CONTINUOUS
 10
29.2816840025
 20
-23.0889948452
 11
29.2816840025
 21
-22.2877334454
  0
LINE
  5
36D
100
AcDbEntity
  8
RACCORDO
100
AcDbLine
 62
253
  6
CONTINUOUS
 10
29.2816840025
 20
22.3550432167
 11
29.2816840025
 21
23.1563046165
  0
LINE
  5
36E
100
AcDbEntity
  8
RACCORDO
100
AcDbLine
 62
253
  6
CONTINUOUS
 10
29.2875018323
 20
-23.5941763307
 11
29.2875018323
 21
-24.4532465356
  0
LINE
  5
36F
100
AcDbEntity
  8
RACCORDO
100
AcDbLine
 62
253
  6
CONTINUOUS
 10
29.2875018323
 20
23.661486102
 11
29.2875018323
 21
24.5205563069
  0
LINE
  5
370
100
AcDbEntity
  8
RACCORDO
100
AcDbLine
 62
253
  6
CONTINUOUS
 10
31.1613131365
 20
-23.5941763307
 11
31.1613131365
 21
-24.4532465356
  0
LINE
  5
371
100
AcDbEntity
  8
RACCORDO
100
AcDbLine
 62
253
  6
CONTINUOUS
 10
31.1613131365
 20
23.661486102
 11
31.1613131365
 21
24.5205563069
  0
LINE
  5
372
100
AcDbEntity
  8
RACCORDO
100
AcDbLine
 62
253
  6
CONTINUOUS
 10
31.1671309663
 20
23.1563046165
 11
31.1671309663
 21
22.3550432167
  0
LINE
  5
373
100
AcDbEntity
  8
RACCORDO
100
AcDbLine
 62
253
  6
CONTINUOUS
 10
31.1671309663
 20
-22.2877334454
 11
31.1671309663
 21
-23.0889948452
  0
LINE
  5
374
100
AcDbEntity
  8
RACCORDO
100
AcDbLine
 62
253
  6
CONTINUOUS
 10
29.2824112313
 20
23.1563046165
 11
29.2875018323
 21
23.661486102
  0
LINE
  5
375
100
AcDbEntity
  8
RACCORDO
100
AcDbLine
 62
253
  6
CONTINUOUS
 10
6.5244074844
 20
-24.2163493451
 11
6.5375060631
 21
-24.2032507664
  0
LINE
  5
376
100
AcDbEntity
  8
RACCORDO
100
AcDbLine
 62
253
  6
CONTINUOUS
 10
6.7744032536
 20
-24.4663451143
 11
6.7875018323
 21
-24.4532465356
  0
LINE
  5
377
100
AcDbEntity
  8
COPY-PUBBLISH
100
AcDbLine
 62
7
  6
CONTINUOUS
 10
20.596086809
 20
9.3336548857
 11
20.637511593
 21
9.2922301017
  0
LINE
  5
378
100
AcDbEntity
  8
COPY-PUBBLISH
100
AcDbLine
 62
7
  6
CONTINUOUS
 10
36.2527281598
 20
-6.2663451143
 11
36.2113033758
 21
-6.2249203304
  0
LINE
  5
379
100
AcDbEntity
  8
RACCORDO
100
AcDbLine
 62
253
  6
CONTINUOUS
 10
6.5244074844
 20
24.2836591164
 11
6.5375060631
 21
24.2705605377
  0
LINE
  5
37A
100
AcDbEntity
  8
RACCORDO
100
AcDbLine
 62
253
  6
CONTINUOUS
 10
37.1357215339
 20
-6.1775830114
 11
37.2244455606
 21
-6.2663070381
  0
LINE
  5
37B
100
AcDbEntity
  8
RACCORDO
100
AcDbLine
 62
253
  6
CONTINUOUS
 10
6.7744032536
 20
24.5336548857
 11
6.7875018323
 21
24.5205563069
  0
LINE
  5
37C
100
AcDbEntity
  8
RACCORDO
100
AcDbLine
 62
253
  6
CONTINUOUS
 10
37.635642493
 20
-5.6776562753
 11
37.7243694082
 21
-5.7663831906
  0
LINE
  5
37D
100
AcDbEntity
  8
RACCORDO
100
AcDbLine
 62
253
  6
CONTINUOUS
 10
31.1613131365
 20
23.661486102
 11
31.1664037376
 21
23.1563046165
  0
LINE
  5
37E
100
AcDbEntity
  8
RACCORDO
100
AcDbLine
 62
253
  6
CONTINUOUS
 10
31.4113089057
 20
23.877992453
 11
31.4171267355
 21
23.3006421838
  0
LINE
  5
37F
100
AcDbEntity
  8
RACCORDO
100
AcDbLine
 62
7
  6
CONTINUOUS
 10
31.4113089057
 20
-24.2032507664
 11
31.4113089057
 21
-23.8106826816
  0
LINE
  5
380
100
AcDbEntity
  8
RACCORDO
100
AcDbLine
 62
7
  6
CONTINUOUS
 10
31.4113089057
 20
23.877992453
 11
31.4113089057
 21
24.2705605377
  0
LINE
  5
381
100
AcDbEntity
  8
RACCORDO
100
AcDbLine
 62
7
  6
CONTINUOUS
 10
31.4171267355
 20
23.3006421838
 11
31.4171267355
 21
22.368068938
  0
LINE
  5
382
100
AcDbEntity
  8
RACCORDO
100
AcDbLine
 62
7
  6
CONTINUOUS
 10
31.4171267355
 20
-22.3007591666
 11
31.4171267355
 21
-23.2333324125
  0
LINE
  5
383
100
AcDbEntity
  8
RACCORDO
100
AcDbLine
 62
7
  6
CONTINUOUS
 10
31.4244074844
 20
-22.3750719821
 11
31.4244074844
 21
-24.2163493451
  0
LINE
  5
384
100
AcDbEntity
  8
RACCORDO
100
AcDbLine
 62
7
  6
CONTINUOUS
 10
31.4244074844
 20
22.4423817534
 11
31.4244074844
 21
24.2836591164
  0
LINE
  5
385
100
AcDbEntity
  8
RACCORDO
100
AcDbLine
 62
253
  6
CONTINUOUS
 10
31.1664037376
 20
-23.0889948452
 11
31.1613131365
 21
-23.5941763307
  0
LINE
  5
386
100
AcDbEntity
  8
RACCORDO
100
AcDbLine
 62
253
  6
CONTINUOUS
 10
31.4171267355
 20
-23.2333324125
 11
31.4113089057
 21
-23.8106826816
  0
LINE
  5
387
100
AcDbEntity
  8
RACCORDO
100
AcDbLine
 62
7
  6
CONTINUOUS
 10
29.023576999
 20
-22.3738262365
 11
29.0316882333
 21
-22.3007591666
  0
LINE
  5
388
100
AcDbEntity
  8
DRAFT
100
AcDbLine
 62
7
  6
CONTINUOUS
 10
47.923576999
 20
22.4411360078
 11
47.9244074844
 21
22.4423817534
  0
LINE
  5
389
100
AcDbEntity
  8
DRAFT
100
AcDbLine
 62
7
  6
CONTINUOUS
 10
47.9244074844
 20
-22.3750719821
 11
47.923576999
 21
-22.3738262365
  0
LINE
  5
38A
100
AcDbEntity
  8
RACCORDO
100
AcDbLine
 62
7
  6
CONTINUOUS
 10
29.023576999
 20
22.4411360078
 11
29.0316882333
 21
22.368068938
  0
LINE
  5
38B
100
AcDbEntity
  8
COPY-PUBBLISH
100
AcDbLine
 62
253
  6
CONTINUOUS
 10
34.137511593
 20
9.3336548857
 11
34.137511593
 21
9.2922301017
  0
LINE
  5
38C
100
AcDbEntity
  8
COPY-PUBBLISH
100
AcDbLine
 62
253
  6
CONTINUOUS
 10
34.137511593
 20
-6.2249203304
 11
34.137511593
 21
-6.2663451143
  0
LINE
  5
38D
100
AcDbEntity
  8
COPY-PUBBLISH
100
AcDbLine
 62
253
  6
CONTINUOUS
 10
34.6374354406
 20
9.3336548857
 11
34.6374354406
 21
9.2836548857
  0
LINE
  5
38E
100
AcDbEntity
  8
COPY-PUBBLISH
100
AcDbLine
 62
253
  6
CONTINUOUS
 10
34.6374354406
 20
-6.2163451143
 11
34.6374354406
 21
-6.2663451143
  0
LINE
  5
38F
100
AcDbEntity
  8
RACCORDO
100
AcDbLine
 62
7
  6
CONTINUOUS
 10
35.2773333226
 20
23.8307290475
 11
35.2773333226
 21
22.4072985488
  0
LINE
  5
390
100
AcDbEntity
  8
RACCORDO
100
AcDbLine
 62
7
  6
CONTINUOUS
 10
35.2773333226
 20
-22.3399887775
 11
35.2773333226
 21
-23.7634192762
  0
LINE
  5
391
100
AcDbEntity
  8
0
100
AcDbLine
 62
253
  6
CONTINUOUS
 10
35.4244074844
 20
-15.2163451143
 11
35.4244074844
 21
-16.4663451143
  0
LINE
  5
392
100
AcDbEntity
  8
0
100
AcDbLine
 62
253
  6
CONTINUOUS
 10
35.4244074844
 20
-12.7163451143
 11
35.4244074844
 21
-11.4663451143
  0
LINE
  5
393
100
AcDbEntity
  8
COPY-PUBBLISH
100
AcDbLine
 62
253
  6
CONTINUOUS
 10
35.7113795283
 20
-6.2663451143
 11
35.7113795283
 21
-6.2163451143
  0
LINE
  5
394
100
AcDbEntity
  8
COPY-PUBBLISH
100
AcDbLine
 62
253
  6
CONTINUOUS
 10
35.7113795283
 20
9.2836548857
 11
35.7113795283
 21
9.3336548857
  0
LINE
  5
395
100
AcDbEntity
  8
RACCORDO
100
AcDbLine
 62
253
  6
CONTINUOUS
 10
35.777324861
 20
23.6289972371
 11
35.777324861
 21
22.3812471064
  0
LINE
  5
396
100
AcDbEntity
  8
RACCORDO
100
AcDbLine
 62
253
  6
CONTINUOUS
 10
35.777324861
 20
-22.3139373351
 11
35.777324861
 21
-23.5616874658
  0
LINE
  5
397
100
AcDbEntity
  8
COPY-PUBBLISH
100
AcDbLine
 62
253
  6
CONTINUOUS
 10
36.2113033758
 20
-6.2663451143
 11
36.2113033758
 21
-6.2249203304
  0
LINE
  5
398
100
AcDbEntity
  8
COPY-PUBBLISH
100
AcDbLine
 62
253
  6
CONTINUOUS
 10
36.2113033758
 20
9.2922301017
 11
36.2113033758
 21
9.3336548857
  0
LINE
  5
399
100
AcDbEntity
  8
RACCORDO
100
AcDbLine
 62
7
  6
CONTINUOUS
 10
37.7244074844
 20
-6.2663451143
 11
37.7244074844
 21
-6.2270694341
  0
LINE
  5
39A
100
AcDbEntity
  8
RACCORDO
100
AcDbLine
 62
7
  6
CONTINUOUS
 10
37.7244074844
 20
-5.7663451143
 11
37.7244074844
 21
8.8336548857
  0
LINE
  5
39B
100
AcDbEntity
  8
COPY-PUBBLISH
100
AcDbLine
 62
7
  6
CONTINUOUS
 10
34.096086809
 20
-6.2663451143
 11
34.137511593
 21
-6.2249203304
  0
LINE
  5
39C
100
AcDbEntity
  8
COPY-PUBBLISH
100
AcDbLine
 62
7
  6
CONTINUOUS
 10
35.7113795283
 20
9.2836548857
 11
34.6374354406
 21
9.2836548857
  0
LINE
  5
39D
100
AcDbEntity
  8
COPY-PUBBLISH
100
AcDbLine
 62
7
  6
CONTINUOUS
 10
22.2113795283
 20
9.2836548857
 11
21.1374354406
 21
9.2836548857
  0
LINE
  5
39E
100
AcDbEntity
  8
RACCORDO
100
AcDbLine
 62
7
  6
CONTINUOUS
 10
19.6244074844
 20
9.3336548857
 11
37.2244074844
 21
9.3336548857
  0
LINE
  5
39F
100
AcDbEntity
  8
COPY-PUBBLISH
100
AcDbLine
 62
7
  6
CONTINUOUS
 10
34.096086809
 20
9.3336548857
 11
34.137511593
 21
9.2922301017
  0
LINE
  5
3A0
100
AcDbEntity
  8
0
100
AcDbLine
 62
253
  6
CONTINUOUS
 10
42.4244074844
 20
-15.2163451143
 11
42.4244074844
 21
-16.4663451143
  0
LINE
  5
3A1
100
AcDbEntity
  8
0
100
AcDbLine
 62
253
  6
CONTINUOUS
 10
42.4244074844
 20
-12.7163451143
 11
42.4244074844
 21
-11.4663451143
  0
LINE
  5
3A2
100
AcDbEntity
  8
RACCORDO
100
AcDbLine
 62
253
  6
CONTINUOUS
 10
50.1736834466
 20
22.0323801076
 11
50.2833228244
 21
22.3615657243
  0
LINE
  5
3A3
100
AcDbEntity
  8
DRAFT
100
AcDbLine
 62
7
  6
CONTINUOUS
 10
27.8252379698
 20
-22.3738262365
 11
27.8244074844
 21
-22.3750719821
  0
LINE
  5
3A4
100
AcDbEntity
  8
DRAFT
100
AcDbLine
 62
7
  6
CONTINUOUS
 10
27.8244074844
 20
22.4423817534
 11
27.8252379698
 21
22.4411360078
  0
LINE
  5
3A5
100
AcDbEntity
  8
RACCORDO
100
AcDbLine
 62
253
  6
CONTINUOUS
 10
50.2833228244
 20
-22.294255953
 11
50.1736834466
 21
-21.9650703363
  0
LINE
  5
3A6
100
AcDbEntity
  8
RACCORDO
100
AcDbLine
 62
253
  6
CONTINUOUS
 10
43.5714901078
 20
-23.5616874658
 11
43.5714901078
 21
-22.3139373351
  0
LINE
  5
3A7
100
AcDbEntity
  8
RACCORDO
100
AcDbLine
 62
253
  6
CONTINUOUS
 10
43.5714901078
 20
22.3812471064
 11
43.5714901078
 21
23.6289972371
  0
LINE
  5
3A8
100
AcDbEntity
  8
RACCORDO
100
AcDbLine
 62
7
  6
CONTINUOUS
 10
44.0714816462
 20
-23.7634192762
 11
44.0714816462
 21
-22.3399887775
  0
LINE
  5
3A9
100
AcDbEntity
  8
RACCORDO
100
AcDbLine
 62
7
  6
CONTINUOUS
 10
44.0714816462
 20
22.4072985488
 11
44.0714816462
 21
23.8307290475
  0
LINE
  5
3AA
100
AcDbEntity
  8
RACCORDO
100
AcDbLine
 62
253
  6
CONTINUOUS
 10
50.8094822631
 20
21.9410217364
 11
50.6736072941
 21
21.5330653402
  0
LINE
  5
3AB
100
AcDbEntity
  8
DRAFT
100
AcDbLine
 62
7
  6
CONTINUOUS
 10
31.4252379698
 20
-22.3738262365
 11
31.4244074844
 21
-22.3750719821
  0
LINE
  5
3AC
100
AcDbEntity
  8
RACCORDO
100
AcDbLine
 62
253
  6
CONTINUOUS
 10
25.4244074844
 20
-24.2163493451
 11
25.4375060631
 21
-24.2032507664
  0
LINE
  5
3AD
100
AcDbEntity
  8
RACCORDO
100
AcDbLine
 62
253
  6
CONTINUOUS
 10
25.6744032536
 20
-24.4663451143
 11
25.6875018323
 21
-24.4532465356
  0
LINE
  5
3AE
100
AcDbEntity
  8
RACCORDO
100
AcDbLine
 62
253
  6
CONTINUOUS
 10
25.4244074844
 20
24.2836591164
 11
25.4375060631
 21
24.2705605377
  0
LINE
  5
3AF
100
AcDbEntity
  8
RACCORDO
100
AcDbLine
 62
253
  6
CONTINUOUS
 10
25.6744032536
 20
24.5336548857
 11
25.6875018323
 21
24.5205563069
  0
LINE
  5
3B0
100
AcDbEntity
  8
DRAFT
100
AcDbLine
 62
7
  6
CONTINUOUS
 10
31.4244074844
 20
22.4423817534
 11
31.4252379698
 21
22.4411360078
  0
LINE
  5
3B1
100
AcDbEntity
  8
RACCORDO
100
AcDbLine
 62
253
  6
CONTINUOUS
 10
50.6736072941
 20
-21.4657555689
 11
50.8094822631
 21
-21.8737119651
  0
LINE
  5
3B2
100
AcDbEntity
  8
RACCORDO
100
AcDbLine
 62
253
  6
CONTINUOUS
 10
29.0244074844
 20
-24.2163493451
 11
29.0375060631
 21
-24.2032507664
  0
LINE
  5
3B3
100
AcDbEntity
  8
RACCORDO
100
AcDbLine
 62
253
  6
CONTINUOUS
 10
29.2744032536
 20
-24.4663451143
 11
29.2875018323
 21
-24.4532465356
  0
LINE
  5
3B4
100
AcDbEntity
  8
RACCORDO
100
AcDbLine
 62
253
  6
CONTINUOUS
 10
29.0244074844
 20
24.2836591164
 11
29.0375060631
 21
24.2705605377
  0
LINE
  5
3B5
100
AcDbEntity
  8
RACCORDO
100
AcDbLine
 62
253
  6
CONTINUOUS
 10
29.2744032536
 20
24.5336548857
 11
29.2875018323
 21
24.5205563069
  0
LINE
  5
3B6
100
AcDbEntity
  8
RACCORDO
100
AcDbLine
 62
253
  6
CONTINUOUS
 10
47.9375060631
 20
-23.8106826816
 11
47.9316882333
 21
-23.2333324125
  0
LINE
  5
3B7
100
AcDbEntity
  8
RACCORDO
100
AcDbLine
 62
253
  6
CONTINUOUS
 10
48.1875018323
 20
-23.5941763307
 11
48.1824112313
 21
-23.0889948452
  0
LINE
  5
3B8
100
AcDbEntity
  8
RACCORDO
100
AcDbLine
 62
7
  6
CONTINUOUS
 10
47.9244074844
 20
-22.3750719821
 11
47.9244074844
 21
-24.2163493451
  0
LINE
  5
3B9
100
AcDbEntity
  8
RACCORDO
100
AcDbLine
 62
7
  6
CONTINUOUS
 10
47.9244074844
 20
22.4423817534
 11
47.9244074844
 21
24.2836591164
  0
LINE
  5
3BA
100
AcDbEntity
  8
RACCORDO
100
AcDbLine
 62
7
  6
CONTINUOUS
 10
47.9316882333
 20
-23.2333324125
 11
47.9316882333
 21
-22.3007591666
  0
LINE
  5
3BB
100
AcDbEntity
  8
RACCORDO
100
AcDbLine
 62
7
  6
CONTINUOUS
 10
47.9316882333
 20
22.368068938
 11
47.9316882333
 21
23.3006421838
  0
LINE
  5
3BC
100
AcDbEntity
  8
RACCORDO
100
AcDbLine
 62
7
  6
CONTINUOUS
 10
47.9375060631
 20
24.2705605377
 11
47.9375060631
 21
23.877992453
  0
LINE
  5
3BD
100
AcDbEntity
  8
RACCORDO
100
AcDbLine
 62
7
  6
CONTINUOUS
 10
47.9375060631
 20
-23.8106826816
 11
47.9375060631
 21
-24.2032507664
  0
LINE
  5
3BE
100
AcDbEntity
  8
RACCORDO
100
AcDbLine
 62
253
  6
CONTINUOUS
 10
48.1816840025
 20
-23.0889948452
 11
48.1816840025
 21
-22.2877334454
  0
LINE
  5
3BF
100
AcDbEntity
  8
RACCORDO
100
AcDbLine
 62
253
  6
CONTINUOUS
 10
48.1816840025
 20
22.3550432167
 11
48.1816840025
 21
23.1563046165
  0
LINE
  5
3C0
100
AcDbEntity
  8
RACCORDO
100
AcDbLine
 62
253
  6
CONTINUOUS
 10
48.1875018323
 20
-23.5941763307
 11
48.1875018323
 21
-24.4532465356
  0
LINE
  5
3C1
100
AcDbEntity
  8
RACCORDO
100
AcDbLine
 62
253
  6
CONTINUOUS
 10
48.1875018323
 20
23.661486102
 11
48.1875018323
 21
24.5205563069
  0
LINE
  5
3C2
100
AcDbEntity
  8
RACCORDO
100
AcDbLine
 62
253
  6
CONTINUOUS
 10
47.9316882333
 20
23.3006421838
 11
47.9375060631
 21
23.877992453
  0
LINE
  5
3C3
100
AcDbEntity
  8
RACCORDO
100
AcDbLine
 62
253
  6
CONTINUOUS
 10
48.1824112313
 20
23.1563046165
 11
48.1875018323
 21
23.661486102
  0
LINE
  5
3C4
100
AcDbEntity
  8
RACCORDO
100
AcDbLine
 62
253
  6
CONTINUOUS
 10
6.6916582929
 20
20.5961232105
 11
50.1571566759
 21
20.5961232105
  0
LINE
  5
3C5
100
AcDbEntity
  8
RACCORDO
100
AcDbLine
 62
253
  6
CONTINUOUS
 10
50.0613131365
 20
23.661486102
 11
50.0664037376
 21
23.1563046165
  0
LINE
  5
3C6
100
AcDbEntity
  8
RACCORDO
100
AcDbLine
 62
253
  6
CONTINUOUS
 10
50.3113089057
 20
23.877992453
 11
50.3171267355
 21
23.3006421838
  0
LINE
  5
3C7
100
AcDbEntity
  8
RACCORDO
100
AcDbLine
 62
253
  6
CONTINUOUS
 10
50.0613131365
 20
-23.5941763307
 11
50.0613131365
 21
-24.4532465356
  0
LINE
  5
3C8
100
AcDbEntity
  8
RACCORDO
100
AcDbLine
 62
253
  6
CONTINUOUS
 10
50.0613131365
 20
23.661486102
 11
50.0613131365
 21
24.5205563069
  0
LINE
  5
3C9
100
AcDbEntity
  8
RACCORDO
100
AcDbLine
 62
253
  6
CONTINUOUS
 10
50.0671309663
 20
23.1563046165
 11
50.0671309663
 21
22.3550432167
  0
LINE
  5
3CA
100
AcDbEntity
  8
RACCORDO
100
AcDbLine
 62
253
  6
CONTINUOUS
 10
50.0671309663
 20
-22.2877334454
 11
50.0671309663
 21
-23.0889948452
  0
LINE
  5
3CB
100
AcDbEntity
  8
RACCORDO
100
AcDbLine
 62
253
  6
CONTINUOUS
 10
50.1571566759
 20
20.5961232105
 11
50.1571566759
 21
-20.5288134392
  0
LINE
  5
3CC
100
AcDbEntity
  8
RACCORDO
100
AcDbLine
 62
7
  6
CONTINUOUS
 10
50.3113089057
 20
-24.2032507664
 11
50.3113089057
 21
-23.8106826816
  0
LINE
  5
3CD
100
AcDbEntity
  8
RACCORDO
100
AcDbLine
 62
7
  6
CONTINUOUS
 10
50.3113089057
 20
23.877992453
 11
50.3113089057
 21
24.2705605377
  0
LINE
  5
3CE
100
AcDbEntity
  8
RACCORDO
100
AcDbLine
 62
7
  6
CONTINUOUS
 10
50.3171267355
 20
23.3006421838
 11
50.3171267355
 21
22.3670658471
  0
LINE
  5
3CF
100
AcDbEntity
  8
RACCORDO
100
AcDbLine
 62
7
  6
CONTINUOUS
 10
50.3171267355
 20
-22.2997560758
 11
50.3171267355
 21
-23.2333324125
  0
LINE
  5
3D0
100
AcDbEntity
  8
RACCORDO
100
AcDbLine
 62
7
  6
CONTINUOUS
 10
50.3244074844
 20
-22.3747619501
 11
50.3244074844
 21
-24.2163493451
  0
LINE
  5
3D1
100
AcDbEntity
  8
RACCORDO
100
AcDbLine
 62
7
  6
CONTINUOUS
 10
50.3244074844
 20
22.4420717214
 11
50.3244074844
 21
24.2836591164
  0
LINE
  5
3D2
100
AcDbEntity
  8
ASSI
100
AcDbLine
 62
7
  6
CONTINUOUS
 10
50.8244074844
 20
18.1553539344
 11
50.8244074844
 21
-18.0880441631
  0
LINE
  5
3D3
100
AcDbEntity
  8
RACCORDO
100
AcDbLine
 62
7
  6
CONTINUOUS
 10
50.8244074844
 20
21.933559694
 11
50.8244074844
 21
-21.8662499227
  0
LINE
  5
3D4
100
AcDbEntity
  8
RACCORDO
100
AcDbLine
 62
253
  6
CONTINUOUS
 10
50.0664037376
 20
-23.0889948452
 11
50.0613131365
 21
-23.5941763307
  0
LINE
  5
3D5
100
AcDbEntity
  8
RACCORDO
100
AcDbLine
 62
253
  6
CONTINUOUS
 10
50.3171267355
 20
-23.2333324125
 11
50.3113089057
 21
-23.8106826816
  0
LINE
  5
3D6
100
AcDbEntity
  8
RACCORDO
100
AcDbLine
 62
7
  6
CONTINUOUS
 10
47.923576999
 20
-22.3738262365
 11
47.9316882333
 21
-22.3007591666
  0
LINE
  5
3D7
100
AcDbEntity
  8
RACCORDO
100
AcDbLine
 62
253
  6
CONTINUOUS
 10
6.6751315222
 20
22.0323801076
 11
50.1736834466
 21
22.0323801076
  0
LINE
  5
3D8
100
AcDbEntity
  8
RACCORDO
100
AcDbLine
 62
7
  6
CONTINUOUS
 10
6.7816840025
 20
22.3550432167
 11
8.6671309663
 21
22.3550432167
  0
LINE
  5
3D9
100
AcDbEntity
  8
RACCORDO
100
AcDbLine
 62
7
  6
CONTINUOUS
 10
25.6816840025
 20
22.3550432167
 11
27.5671309663
 21
22.3550432167
  0
LINE
  5
3DA
100
AcDbEntity
  8
RACCORDO
100
AcDbLine
 62
7
  6
CONTINUOUS
 10
29.2816840025
 20
22.3550432167
 11
31.1671309663
 21
22.3550432167
  0
LINE
  5
3DB
100
AcDbEntity
  8
RACCORDO
100
AcDbLine
 62
7
  6
CONTINUOUS
 10
48.1816840025
 20
22.3550432167
 11
50.0671309663
 21
22.3550432167
  0
LINE
  5
3DC
100
AcDbEntity
  8
RACCORDO
100
AcDbLine
 62
7
  6
CONTINUOUS
 10
43.5714901078
 20
22.3812471064
 11
35.777324861
 21
22.3812471064
  0
LINE
  5
3DD
100
AcDbEntity
  8
RACCORDO
100
AcDbLine
 62
7
  6
CONTINUOUS
 10
21.0714901078
 20
22.3812471064
 11
13.277324861
 21
22.3812471064
  0
LINE
  5
3DE
100
AcDbEntity
  8
DRAFT
100
AcDbLine
 62
7
  6
CONTINUOUS
 10
47.923576999
 20
22.4411360078
 11
44.073576999
 21
22.4411360078
  0
LINE
  5
3DF
100
AcDbEntity
  8
DRAFT
100
AcDbLine
 62
7
  6
CONTINUOUS
 10
35.2752379698
 20
22.4411360078
 11
31.4252379698
 21
22.4411360078
  0
LINE
  5
3E0
100
AcDbEntity
  8
DRAFT
100
AcDbLine
 62
7
  6
CONTINUOUS
 10
29.023576999
 20
22.4411360078
 11
27.8252379698
 21
22.4411360078
  0
LINE
  5
3E1
100
AcDbEntity
  8
DRAFT
100
AcDbLine
 62
7
  6
CONTINUOUS
 10
25.423576999
 20
22.4411360078
 11
21.573576999
 21
22.4411360078
  0
LINE
  5
3E2
100
AcDbEntity
  8
DRAFT
100
AcDbLine
 62
7
  6
CONTINUOUS
 10
12.7752379698
 20
22.4411360078
 11
8.9252379698
 21
22.4411360078
  0
LINE
  5
3E3
100
AcDbEntity
  8
RACCORDO
100
AcDbLine
 62
7
  6
CONTINUOUS
 10
47.923576999
 20
22.4411360078
 11
47.9316882333
 21
22.368068938
  0
LINE
  5
3E4
100
AcDbEntity
  8
RACCORDO
100
AcDbLine
 62
7
  6
CONTINUOUS
 10
6.7816840025
 20
23.1563046165
 11
8.6671309663
 21
23.1563046165
  0
LINE
  5
3E5
100
AcDbEntity
  8
RACCORDO
100
AcDbLine
 62
7
  6
CONTINUOUS
 10
25.6816840025
 20
23.1563046165
 11
27.5671309663
 21
23.1563046165
  0
LINE
  5
3E6
100
AcDbEntity
  8
RACCORDO
100
AcDbLine
 62
7
  6
CONTINUOUS
 10
29.2816840025
 20
23.1563046165
 11
31.1671309663
 21
23.1563046165
  0
LINE
  5
3E7
100
AcDbEntity
  8
RACCORDO
100
AcDbLine
 62
7
  6
CONTINUOUS
 10
48.1816840025
 20
23.1563046165
 11
50.0671309663
 21
23.1563046165
  0
LINE
  5
3E8
100
AcDbEntity
  8
RACCORDO
100
AcDbLine
 62
253
  6
CONTINUOUS
 10
43.5714901078
 20
23.6289972371
 11
35.777324861
 21
23.6289972371
  0
LINE
  5
3E9
100
AcDbEntity
  8
RACCORDO
100
AcDbLine
 62
253
  6
CONTINUOUS
 10
21.0714901078
 20
23.6289972371
 11
13.277324861
 21
23.6289972371
  0
LINE
  5
3EA
100
AcDbEntity
  8
RACCORDO
100
AcDbLine
 62
253
  6
CONTINUOUS
 10
6.7875018323
 20
23.661486102
 11
8.6613131365
 21
23.661486102
  0
LINE
  5
3EB
100
AcDbEntity
  8
RACCORDO
100
AcDbLine
 62
253
  6
CONTINUOUS
 10
25.6875018323
 20
23.661486102
 11
27.5613131365
 21
23.661486102
  0
LINE
  5
3EC
100
AcDbEntity
  8
RACCORDO
100
AcDbLine
 62
253
  6
CONTINUOUS
 10
29.2875018323
 20
23.661486102
 11
31.1613131365
 21
23.661486102
  0
LINE
  5
3ED
100
AcDbEntity
  8
RACCORDO
100
AcDbLine
 62
253
  6
CONTINUOUS
 10
48.1875018323
 20
23.661486102
 11
50.0613131365
 21
23.661486102
  0
LINE
  5
3EE
100
AcDbEntity
  8
RACCORDO
100
AcDbLine
 62
7
  6
CONTINUOUS
 10
43.9706147981
 20
23.8289938525
 11
35.3782001707
 21
23.8289938525
  0
LINE
  5
3EF
100
AcDbEntity
  8
RACCORDO
100
AcDbLine
 62
7
  6
CONTINUOUS
 10
21.4706147981
 20
23.8289938525
 11
12.8782001707
 21
23.8289938525
  0
LINE
  5
3F0
100
AcDbEntity
  8
RACCORDO
100
AcDbLine
 62
253
  6
CONTINUOUS
 10
6.5375060631
 20
23.877992453
 11
8.9113089057
 21
23.877992453
  0
LINE
  5
3F1
100
AcDbEntity
  8
RACCORDO
100
AcDbLine
 62
253
  6
CONTINUOUS
 10
25.4375060631
 20
23.877992453
 11
27.8113089057
 21
23.877992453
  0
LINE
  5
3F2
100
AcDbEntity
  8
RACCORDO
100
AcDbLine
 62
253
  6
CONTINUOUS
 10
29.0375060631
 20
23.877992453
 11
31.4113089057
 21
23.877992453
  0
LINE
  5
3F3
100
AcDbEntity
  8
RACCORDO
100
AcDbLine
 62
253
  6
CONTINUOUS
 10
47.9375060631
 20
23.877992453
 11
50.3113089057
 21
23.877992453
  0
LINE
  5
3F4
100
AcDbEntity
  8
RACCORDO
100
AcDbLine
 62
253
  6
CONTINUOUS
 10
6.5375060631
 20
24.2705605377
 11
8.9113089057
 21
24.2705605377
  0
LINE
  5
3F5
100
AcDbEntity
  8
RACCORDO
100
AcDbLine
 62
253
  6
CONTINUOUS
 10
25.4375060631
 20
24.2705605377
 11
27.8113089057
 21
24.2705605377
  0
LINE
  5
3F6
100
AcDbEntity
  8
RACCORDO
100
AcDbLine
 62
253
  6
CONTINUOUS
 10
29.0375060631
 20
24.2705605377
 11
31.4113089057
 21
24.2705605377
  0
LINE
  5
3F7
100
AcDbEntity
  8
RACCORDO
100
AcDbLine
 62
253
  6
CONTINUOUS
 10
47.9375060631
 20
24.2705605377
 11
50.3113089057
 21
24.2705605377
  0
LINE
  5
3F8
100
AcDbEntity
  8
RACCORDO
100
AcDbLine
 62
7
  6
CONTINUOUS
 10
50.0613131365
 20
24.5205563069
 11
48.1875018323
 21
24.5205563069
  0
LINE
  5
3F9
100
AcDbEntity
  8
RACCORDO
100
AcDbLine
 62
7
  6
CONTINUOUS
 10
31.1613131365
 20
24.5205563069
 11
29.2875018323
 21
24.5205563069
  0
LINE
  5
3FA
100
AcDbEntity
  8
RACCORDO
100
AcDbLine
 62
7
  6
CONTINUOUS
 10
27.5613131365
 20
24.5205563069
 11
25.6875018323
 21
24.5205563069
  0
LINE
  5
3FB
100
AcDbEntity
  8
RACCORDO
100
AcDbLine
 62
7
  6
CONTINUOUS
 10
8.6613131365
 20
24.5205563069
 11
6.7875018323
 21
24.5205563069
  0
LINE
  5
3FC
100
AcDbEntity
  8
RACCORDO
100
AcDbLine
 62
7
  6
CONTINUOUS
 10
6.7744032536
 20
24.5336548857
 11
8.6744117152
 21
24.5336548857
  0
LINE
  5
3FD
100
AcDbEntity
  8
RACCORDO
100
AcDbLine
 62
7
  6
CONTINUOUS
 10
25.6744032536
 20
24.5336548857
 11
27.5744117152
 21
24.5336548857
  0
LINE
  5
3FE
100
AcDbEntity
  8
RACCORDO
100
AcDbLine
 62
7
  6
CONTINUOUS
 10
29.2744032536
 20
24.5336548857
 11
31.1744117152
 21
24.5336548857
  0
LINE
  5
3FF
100
AcDbEntity
  8
RACCORDO
100
AcDbLine
 62
7
  6
CONTINUOUS
 10
48.1744032536
 20
24.5336548857
 11
50.0744117152
 21
24.5336548857
  0
LINE
  5
400
100
AcDbEntity
  8
RACCORDO
100
AcDbLine
 62
253
  6
CONTINUOUS
 10
50.8094822631
 20
-21.8737119651
 11
50.8244074844
 21
-21.8662499227
  0
LINE
  5
401
100
AcDbEntity
  8
RACCORDO
100
AcDbLine
 62
253
  6
CONTINUOUS
 10
50.8244074844
 20
21.933559694
 11
50.8094822631
 21
21.9410217364
  0
LINE
  5
402
100
AcDbEntity
  8
RACCORDO
100
AcDbLine
 62
7
  6
CONTINUOUS
 10
50.3244074844
 20
-22.3747619501
 11
50.3252364097
 21
-22.3735742004
  0
LINE
  5
403
100
AcDbEntity
  8
RACCORDO
100
AcDbLine
 62
253
  6
CONTINUOUS
 10
47.9244074844
 20
-24.2163493451
 11
47.9375060631
 21
-24.2032507664
  0
LINE
  5
404
100
AcDbEntity
  8
RACCORDO
100
AcDbLine
 62
253
  6
CONTINUOUS
 10
48.1744032536
 20
-24.4663451143
 11
48.1875018323
 21
-24.4532465356
  0
LINE
  5
405
100
AcDbEntity
  8
RACCORDO
100
AcDbLine
 62
253
  6
CONTINUOUS
 10
47.9244074844
 20
24.2836591164
 11
47.9375060631
 21
24.2705605377
  0
LINE
  5
406
100
AcDbEntity
  8
RACCORDO
100
AcDbLine
 62
253
  6
CONTINUOUS
 10
48.1744032536
 20
24.5336548857
 11
48.1875018323
 21
24.5205563069
  0
LINE
  5
407
100
AcDbEntity
  8
RACCORDO
100
AcDbLine
 62
7
  6
CONTINUOUS
 10
50.3244074844
 20
22.4420717214
 11
50.3252364097
 21
22.4408839717
  0
LINE
  5
408
100
AcDbEntity
  8
RACCORDO
100
AcDbLine
 62
7
  6
CONTINUOUS
 10
-23.4836412089
 20
-24.4619732803
 11
-24.2350956418
 21
-24.4663451143
  0
LINE
  5
409
100
AcDbEntity
  8
RACCORDO
100
AcDbLine
 62
253
  6
CONTINUOUS
 10
-23.4836412089
 20
-24.2119775111
 11
-24.2350956418
 21
-24.2163493451
  0
LINE
  5
40A
100
AcDbEntity
  8
ASSI
100
AcDbLine
 62
7
  6
CONTINUOUS
 10
-23.2353874275
 20
-23.7605289821
 11
-16.7321867761
 21
-23.7226944675
  0
LINE
  5
40B
100
AcDbEntity
  8
RACCORDO
100
AcDbLine
 62
253
  6
CONTINUOUS
 10
-23.2350956418
 20
-24.2119775111
 11
-23.4836412089
 21
-24.2119775111
  0
LINE
  5
40C
100
AcDbEntity
  8
RACCORDO
100
AcDbLine
 62
253
  6
CONTINUOUS
 10
-26.7350956418
 20
-24.2032507664
 11
-26.4865500746
 21
-24.2032507664
  0
LINE
  5
40D
100
AcDbEntity
  8
RACCORDO
100
AcDbLine
 62
253
  6
CONTINUOUS
 10
-26.7350956418
 20
-23.8106826816
 11
-26.4865500746
 21
-23.8106826816
  0
LINE
  5
40E
100
AcDbEntity
  8
RACCORDO
100
AcDbLine
 62
253
  6
CONTINUOUS
 10
-23.2350956418
 20
-23.8106826816
 11
-23.4836412089
 21
-23.8106826816
  0
LINE
  5
40F
100
AcDbEntity
  8
RACCORDO
100
AcDbLine
 62
7
  6
CONTINUOUS
 10
-24.2350956418
 20
-24.4663451143
 11
-26.4865500746
 21
-24.4532465356
  0
LINE
  5
410
100
AcDbEntity
  8
RACCORDO
100
AcDbLine
 62
253
  6
CONTINUOUS
 10
-24.2350956418
 20
-24.2163493451
 11
-26.4865500746
 21
-24.2032507664
  0
LINE
  5
411
100
AcDbEntity
  8
RACCORDO
100
AcDbLine
 62
253
  6
CONTINUOUS
 10
-24.2350956418
 20
23.4441400339
 11
-23.4836412089
 21
23.877992453
  0
LINE
  5
412
100
AcDbEntity
  8
RACCORDO
100
AcDbLine
 62
7
  6
CONTINUOUS
 10
-24.2350956418
 20
23.1563046165
 11
-23.3600956418
 21
23.661486102
  0
LINE
  5
413
100
AcDbEntity
  8
ASSI
100
AcDbLine
 62
7
  6
CONTINUOUS
 10
-13.8326916375
 20
-22.202225542
 11
-13.2350956418
 21
-22.1917944651
  0
LINE
  5
414
100
AcDbEntity
  8
DRAFT
100
AcDbLine
 62
7
  6
CONTINUOUS
 10
-13.8326916375
 20
-22.202225542
 11
-13.2350956418
 21
-22.1917944651
  0
LINE
  5
415
100
AcDbEntity
  8
RACCORDO
100
AcDbLine
 62
7
  6
CONTINUOUS
 10
-14.2263691063
 20
-22.2877271489
 11
-24.2350442788
 21
-22.3750715339
  0
LINE
  5
416
100
AcDbEntity
  8
RACCORDO
100
AcDbLine
 62
253
  6
CONTINUOUS
 10
-24.0901609989
 20
-21.8737119651
 11
-23.2350956418
 21
-21.8662499227
  0
LINE
  5
417
100
AcDbEntity
  8
RACCORDO
100
AcDbLine
 62
7
  6
CONTINUOUS
 10
-13.2350956418
 20
-20.9536137923
 11
-23.2350956418
 21
-20.8663451143
  0
LINE
  5
418
100
AcDbEntity
  8
RACCORDO
100
AcDbLine
 62
7
  6
CONTINUOUS
 10
-13.7263694386
 20
-21.5323205476
 11
-23.2350956418
 21
-21.3663451143
  0
LINE
  5
419
100
AcDbEntity
  8
RACCORDO
100
AcDbLine
 62
7
  6
CONTINUOUS
 10
-25.6106387838
 20
-22.294255953
 11
-31.8918745307
 21
-21.9650703363
  0
LINE
  5
41A
100
AcDbEntity
  8
RACCORDO
100
AcDbLine
 62
253
  6
CONTINUOUS
 10
-31.8744327558
 20
-21.4657555689
 11
-24.0901609989
 21
-21.8737119651
  0
LINE
  5
41B
100
AcDbEntity
  8
RACCORDO
100
AcDbLine
 62
253
  6
CONTINUOUS
 10
-23.4836412089
 20
-23.8106826816
 11
-24.2350956418
 21
-23.3768302626
  0
LINE
  5
41C
100
AcDbEntity
  8
RACCORDO
100
AcDbLine
 62
7
  6
CONTINUOUS
 10
-23.3600956418
 20
-23.5941763307
 11
-24.2350956418
 21
-23.0889948452
  0
LINE
  5
41D
100
AcDbEntity
  8
RACCORDO
100
AcDbLine
 62
253
  6
CONTINUOUS
 10
-32.8212508115
 20
-20.5082509708
 11
-33.3120839658
 21
-20.5288127095
  0
LINE
  5
41E
100
AcDbEntity
  8
ASSI
100
AcDbLine
 62
7
  6
CONTINUOUS
 10
-13.2350956418
 20
-20.0917944651
 11
-23.2350956418
 21
-20.2663451143
  0
LINE
  5
41F
100
AcDbEntity
  8
DRAFT
100
AcDbLine
 62
7
  6
CONTINUOUS
 10
-13.2350956418
 20
-20.0917944651
 11
-23.2350956418
 21
-20.2663451143
  0
LINE
  5
420
100
AcDbEntity
  8
ASSI
100
AcDbLine
 62
7
  6
CONTINUOUS
 10
-5.0702610963
 20
-19.3492767479
 11
-13.2350956418
 21
-19.4917944651
  0
LINE
  5
421
100
AcDbEntity
  8
RACCORDO
100
AcDbLine
 62
7
  6
CONTINUOUS
 10
-5.0702610963
 20
-19.3492767479
 11
-13.2350956418
 21
-19.4917944651
  0
LINE
  5
422
100
AcDbEntity
  8
ASSI
100
AcDbLine
 62
253
  6
CONTINUOUS
 10
-23.2350956418
 20
-19.5020423339
 11
-7.1662702386
 21
-19.3858627236
  0
LINE
  5
423
100
AcDbEntity
  8
RACCORDO
100
AcDbLine
 62
253
  6
CONTINUOUS
 10
-23.2350956418
 20
-19.5020423339
 11
-7.1662702386
 21
-19.3858627236
  0
LINE
  5
424
100
AcDbEntity
  8
ASSI
100
AcDbLine
 62
253
  6
CONTINUOUS
 10
-23.2350956418
 20
-18.0880441631
 11
-5.0702610963
 21
-17.956779814
  0
LINE
  5
425
100
AcDbEntity
  8
RACCORDO
100
AcDbLine
 62
253
  6
CONTINUOUS
 10
-23.2350956418
 20
-18.0880441631
 11
-5.0702610963
 21
-17.956779814
  0
LINE
  5
426
100
AcDbEntity
  8
ASSI
100
AcDbLine
 62
253
  6
CONTINUOUS
 10
-4.2350956418
 20
-17.9567101455
 11
-5.0702610963
 21
-17.9567101425
  0
LINE
  5
427
100
AcDbEntity
  8
RACCORDO
100
AcDbLine
 62
253
  6
CONTINUOUS
 10
-4.2350956418
 20
-17.9567101455
 11
-5.0702610963
 21
-17.9567101425
  0
LINE
  5
428
100
AcDbEntity
  8
CURVE
100
AcDbLine
 62
253
  6
CONTINUOUS
 10
-9.499753555
 20
-16.9663451143
 11
-10.9992966753
 21
-16.9663451143
  0
LINE
  5
429
100
AcDbEntity
  8
CURVE
100
AcDbLine
 62
253
  6
CONTINUOUS
 10
-11.7490682354
 20
-13.4663451143
 11
-10.9992966753
 21
-13.4663451143
  0
LINE
  5
42A
100
AcDbEntity
  8
CURVE
100
AcDbLine
 62
253
  6
CONTINUOUS
 10
-7.9787879618
 20
-13.4663451143
 11
-7.571768972
 21
-13.4663451143
  0
LINE
  5
42B
100
AcDbEntity
  8
CURVE
100
AcDbLine
 62
253
  6
CONTINUOUS
 10
-8.7499819949
 20
-13.4663451143
 11
-9.499753555
 21
-13.4663451143
  0
LINE
  5
42C
100
AcDbEntity
  8
CURVE
100
AcDbLine
 62
253
  6
CONTINUOUS
 10
-6.0793666761
 20
-12.6520591143
 11
-6.7577309925
 21
-12.6520591143
  0
LINE
  5
42D
100
AcDbEntity
  8
CURVE
100
AcDbLine
 62
253
  6
CONTINUOUS
 10
-13.2486113557
 20
16.0336548857
 11
-16.1477290546
 21
15.0255898857
  0
LINE
  5
42E
100
AcDbEntity
  8
CURVE
100
AcDbLine
 62
253
  6
CONTINUOUS
 10
-13.863063145
 20
15.1982388857
 11
-13.2486113557
 21
15.4072288857
  0
LINE
  5
42F
100
AcDbEntity
  8
CURVE
100
AcDbLine
 62
253
  6
CONTINUOUS
 10
-15.5935738942
 20
14.6401038857
 11
-14.3448493547
 21
15.0415238857
  0
LINE
  5
430
100
AcDbEntity
  8
CURVE
100
AcDbLine
 62
253
  6
CONTINUOUS
 10
-20.6616387598
 20
12.8630848857
 11
-17.7628689549
 21
13.7527698857
  0
LINE
  5
431
100
AcDbEntity
  8
IMPORT_IGES
100
AcDbLine
 62
7
  6
CONTINUOUS
 10
-8.2565945
 20
-9.5226789388
 11
-8.2350956418
 21
-9.5204903028
  0
LINE
  5
432
100
AcDbEntity
  8
CURVE
100
AcDbLine
 62
253
  6
CONTINUOUS
 10
-6.7577309925
 20
-11.5663451143
 11
-6.0793666761
 21
-11.5663451143
  0
LINE
  5
433
100
AcDbEntity
  8
ASSI
100
AcDbLine
 62
7
  6
CONTINUOUS
 10
-5.0702610963
 20
-10.3677028684
 11
-18.2089170321
 21
-10.2352956137
  0
LINE
  5
434
100
AcDbEntity
  8
RACCORDO
100
AcDbLine
 62
7
  6
CONTINUOUS
 10
-5.0702610963
 20
-10.3677028684
 11
-18.2089170321
 21
-10.2352956137
  0
LINE
  5
435
100
AcDbEntity
  8
CURVE
100
AcDbLine
 62
253
  6
CONTINUOUS
 10
-11.8653990102
 20
15.8765122227
 11
-11.5940117948
 21
16.0122264437
  0
LINE
  5
436
100
AcDbEntity
  8
CURVE
100
AcDbLine
 62
253
  6
CONTINUOUS
 10
-10.5084628484
 20
15.1979406647
 11
-10.7798500921
 21
15.0622264437
  0
LINE
  5
437
100
AcDbEntity
  8
IMPORT_IGES
100
AcDbLine
 62
7
  6
CONTINUOUS
 10
-17.2350956418
 20
-9.547285222
 11
-8.8022329301
 21
-9.547285222
  0
LINE
  5
438
100
AcDbEntity
  8
IMPORT_IGES
100
AcDbLine
 62
253
  6
CONTINUOUS
 10
-9.9364801877
 20
-9.347285222
 11
-11.8350956418
 21
-9.347285222
  0
LINE
  5
439
100
AcDbEntity
  8
IMPORT_IGES
100
AcDbLine
 62
253
  6
CONTINUOUS
 10
-13.0350956418
 20
-9.347285222
 11
-17.2350956418
 21
-9.347285222
  0
LINE
  5
43A
100
AcDbEntity
  8
ASSI
100
AcDbLine
 62
7
  6
CONTINUOUS
 10
-8.2344057511
 20
-9.4931069864
 11
-4.5324776811
 21
-9.5863727415
  0
LINE
  5
43B
100
AcDbEntity
  8
RACCORDO
100
AcDbLine
 62
7
  6
CONTINUOUS
 10
-8.2344057511
 20
-9.4931069864
 11
-4.5324776811
 21
-9.5863727415
  0
LINE
  5
43C
100
AcDbEntity
  8
CURVE
100
AcDbLine
 62
7
  6
CONTINUOUS
 10
-16.1477290546
 20
15.0080208785
 11
-16.1207945224
 21
15.0349554106
  0
LINE
  5
43D
100
AcDbEntity
  8
CURVE
100
AcDbLine
 62
7
  6
CONTINUOUS
 10
-16.1477290546
 20
14.9030155215
 11
-15.9598138744
 21
15.0909307017
  0
LINE
  5
43E
100
AcDbEntity
  8
CURVE
100
AcDbLine
 62
7
  6
CONTINUOUS
 10
-16.1477290546
 20
14.7980101645
 11
-15.7988332263
 21
15.1469059927
  0
LINE
  5
43F
100
AcDbEntity
  8
CURVE
100
AcDbLine
 62
7
  6
CONTINUOUS
 10
-16.1477290546
 20
14.6930048074
 11
-15.6378525783
 21
15.2028812838
  0
LINE
  5
440
100
AcDbEntity
  8
CURVE
100
AcDbLine
 62
7
  6
CONTINUOUS
 10
-16.1477290546
 20
14.5879994504
 11
-15.4768719302
 21
15.2588565748
  0
LINE
  5
441
100
AcDbEntity
  8
CURVE
100
AcDbLine
 62
7
  6
CONTINUOUS
 10
-16.1477290546
 20
14.4829940934
 11
-15.3158912822
 21
15.3148318659
  0
LINE
  5
442
100
AcDbEntity
  8
CURVE
100
AcDbLine
 62
253
  6
CONTINUOUS
 10
-16.1477290546
 20
11.2497938857
 11
-13.8503150291
 21
12.3624088857
  0
LINE
  5
443
100
AcDbEntity
  8
CURVE
100
AcDbLine
 62
253
  6
CONTINUOUS
 10
-13.2486113557
 20
12.0612008857
 11
-15.6749760926
 21
10.9084248857
  0
LINE
  5
444
100
AcDbEntity
  8
CURVE
100
AcDbLine
 62
253
  6
CONTINUOUS
 10
-17.7628689549
 20
9.7519688857
 11
-19.655711245
 21
9.0419128857
  0
LINE
  5
445
100
AcDbEntity
  8
CURVE
100
AcDbLine
 62
253
  6
CONTINUOUS
 10
-20.6616387598
 20
9.1988408857
 11
-19.0522331123
 21
9.7977188857
  0
LINE
  5
446
100
AcDbEntity
  8
CURVE
100
AcDbLine
 62
253
  6
CONTINUOUS
 10
-13.2486113557
 20
10.0087288857
 11
-16.1477290546
 21
9.0005548857
  0
LINE
  5
447
100
AcDbEntity
  8
CURVE
100
AcDbLine
 62
253
  6
CONTINUOUS
 10
-15.5937378442
 20
8.6151258857
 11
-14.3448493547
 21
9.0165978857
  0
LINE
  5
448
100
AcDbEntity
  8
ASSI
100
AcDbLine
 62
7
  6
CONTINUOUS
 10
-8.2344057511
 20
-6.2395832423
 11
-4.5324776811
 21
-6.1463174872
  0
LINE
  5
449
100
AcDbEntity
  8
RACCORDO
100
AcDbLine
 62
7
  6
CONTINUOUS
 10
-8.2344057511
 20
-6.2395832423
 11
-4.5324776811
 21
-6.1463174872
  0
LINE
  5
44A
100
AcDbEntity
  8
IMPORT_IGES
100
AcDbLine
 62
253
  6
CONTINUOUS
 10
-17.2350956418
 20
-6.3854050067
 11
-13.0350956418
 21
-6.3854050067
  0
LINE
  5
44B
100
AcDbEntity
  8
IMPORT_IGES
100
AcDbLine
 62
253
  6
CONTINUOUS
 10
-11.8350956418
 20
-6.3854050067
 11
-9.9364801877
 21
-6.3854050067
  0
LINE
  5
44C
100
AcDbEntity
  8
RACCORDO
100
AcDbLine
 62
7
  6
CONTINUOUS
 10
-34.3660835018
 20
-6.2663451143
 11
-38.753638428
 21
-6.2663451143
  0
LINE
  5
44D
100
AcDbEntity
  8
IMPORT_IGES
100
AcDbLine
 62
7
  6
CONTINUOUS
 10
-17.2350956418
 20
-6.1854050067
 11
-8.802210943
 21
-6.1854050067
  0
LINE
  5
44E
100
AcDbEntity
  8
RACCORDO
100
AcDbLine
 62
7
  6
CONTINUOUS
 10
-38.6117848305
 20
-6.0998030711
 11
-34.0816374466
 21
-6.1788770878
  0
LINE
  5
44F
100
AcDbEntity
  8
RACCORDO
100
AcDbLine
 62
253
  6
CONTINUOUS
 10
-39.0210321111
 20
-5.8742563479
 11
-34.3937890927
 21
-5.9546177716
  0
LINE
  5
450
100
AcDbEntity
  8
RACCORDO
100
AcDbLine
 62
7
  6
CONTINUOUS
 10
-26.7350956418
 20
-24.2032507664
 11
-26.7350956418
 21
-23.8106826816
  0
LINE
  5
451
100
AcDbEntity
  8
RACCORDO
100
AcDbLine
 62
7
  6
CONTINUOUS
 10
-26.7350956418
 20
23.877992453
 11
-26.7350956418
 21
24.2705605377
  0
LINE
  5
452
100
AcDbEntity
  8
RACCORDO
100
AcDbLine
 62
253
  6
CONTINUOUS
 10
-26.4865500746
 20
-24.2032507664
 11
-26.4865500746
 21
-23.8106826816
  0
LINE
  5
453
100
AcDbEntity
  8
RACCORDO
100
AcDbLine
 62
253
  6
CONTINUOUS
 10
-26.4865500746
 20
23.877992453
 11
-26.4865500746
 21
24.2705605377
  0
LINE
  5
454
100
AcDbEntity
  8
CURVE
100
AcDbLine
 62
7
  6
CONTINUOUS
 10
-16.1477290546
 20
14.3779887364
 11
-15.1549106341
 21
15.3708071569
  0
LINE
  5
455
100
AcDbEntity
  8
CURVE
100
AcDbLine
 62
7
  6
CONTINUOUS
 10
-16.1377737933
 20
14.2829386407
 11
-14.993929986
 21
15.426782448
  0
LINE
  5
456
100
AcDbEntity
  8
CURVE
100
AcDbLine
 62
7
  6
CONTINUOUS
 10
-16.060657104
 20
14.255049973
 11
-14.832949338
 21
15.482757739
  0
LINE
  5
457
100
AcDbEntity
  8
CURVE
100
AcDbLine
 62
7
  6
CONTINUOUS
 10
-15.9835404147
 20
14.2271613052
 11
-15.576482652
 21
14.6342190679
  0
LINE
  5
458
100
AcDbEntity
  8
CURVE
100
AcDbLine
 62
7
  6
CONTINUOUS
 10
-15.5597126691
 20
14.6509890509
 11
-14.6719686899
 21
15.5387330301
  0
LINE
  5
459
100
AcDbEntity
  8
CURVE
100
AcDbLine
 62
7
  6
CONTINUOUS
 10
-15.9064237255
 20
14.1992726375
 11
-15.498372132
 21
14.6073242309
  0
LINE
  5
45A
100
AcDbEntity
  8
CURVE
100
AcDbLine
 62
7
  6
CONTINUOUS
 10
-15.40495985
 20
14.700736513
 11
-14.5109880419
 21
15.5947083211
  0
LINE
  5
45B
100
AcDbEntity
  8
CURVE
100
AcDbLine
 62
7
  6
CONTINUOUS
 10
-15.8293070362
 20
14.1713839698
 11
-15.420261612
 21
14.5804293939
  0
LINE
  5
45C
100
AcDbEntity
  8
CURVE
100
AcDbLine
 62
7
  6
CONTINUOUS
 10
-15.250207031
 20
14.750483975
 11
-14.3500073938
 21
15.6506836122
  0
LINE
  5
45D
100
AcDbEntity
  8
CURVE
100
AcDbLine
 62
7
  6
CONTINUOUS
 10
-15.7521903469
 20
14.1434953021
 11
-15.342151092
 21
14.5535345569
  0
LINE
  5
45E
100
AcDbEntity
  8
CURVE
100
AcDbLine
 62
7
  6
CONTINUOUS
 10
-15.0954542119
 20
14.800231437
 11
-14.1890267458
 21
15.7066589032
  0
LINE
  5
45F
100
AcDbEntity
  8
CURVE
100
AcDbLine
 62
7
  6
CONTINUOUS
 10
-15.6750736576
 20
14.1156066344
 11
-15.264040572
 21
14.5266397199
  0
LINE
  5
460
100
AcDbEntity
  8
CURVE
100
AcDbLine
 62
7
  6
CONTINUOUS
 10
-14.9407013929
 20
14.8499788991
 11
-14.0280460977
 21
15.7626341943
  0
LINE
  5
461
100
AcDbEntity
  8
CURVE
100
AcDbLine
 62
7
  6
CONTINUOUS
 10
-15.5979569683
 20
14.0877179666
 11
-15.185930052
 21
14.4997448829
  0
LINE
  5
462
100
AcDbEntity
  8
CURVE
100
AcDbLine
 62
7
  6
CONTINUOUS
 10
-14.7859485739
 20
14.8997263611
 11
-13.8670654496
 21
15.8186094853
  0
LINE
  5
463
100
AcDbEntity
  8
CURVE
100
AcDbLine
 62
7
  6
CONTINUOUS
 10
-15.520840279
 20
14.0598292989
 11
-15.107819532
 21
14.4728500459
  0
LINE
  5
464
100
AcDbEntity
  8
CURVE
100
AcDbLine
 62
7
  6
CONTINUOUS
 10
-14.6311957548
 20
14.9494738231
 11
-13.7060848016
 21
15.8745847764
  0
LINE
  5
465
100
AcDbEntity
  8
CURVE
100
AcDbLine
 62
7
  6
CONTINUOUS
 10
-15.4437235897
 20
14.0319406312
 11
-15.0297090121
 21
14.4459552089
  0
LINE
  5
466
100
AcDbEntity
  8
CURVE
100
AcDbLine
 62
7
  6
CONTINUOUS
 10
-14.4764429358
 20
14.9992212852
 11
-13.5451041535
 21
15.9305600674
  0
LINE
  5
467
100
AcDbEntity
  8
CURVE
100
AcDbLine
 62
7
  6
CONTINUOUS
 10
-15.3666069004
 20
14.0040519635
 11
-14.9515984921
 21
14.4190603719
  0
LINE
  5
468
100
AcDbEntity
  8
CURVE
100
AcDbLine
 62
7
  6
CONTINUOUS
 10
-14.3448493547
 20
15.0258095092
 11
-13.3841235055
 21
15.9865353585
  0
LINE
  5
469
100
AcDbEntity
  8
CURVE
100
AcDbLine
 62
7
  6
CONTINUOUS
 10
-15.2894902112
 20
13.9761632958
 11
-14.8734879721
 21
14.3921655349
  0
LINE
  5
46A
100
AcDbEntity
  8
CURVE
100
AcDbLine
 62
7
  6
CONTINUOUS
 10
-14.3448493547
 20
14.9208041522
 11
-13.2486113557
 21
16.0170421512
  0
LINE
  5
46B
100
AcDbEntity
  8
CURVE
100
AcDbLine
 62
7
  6
CONTINUOUS
 10
-15.2123735219
 20
13.948274628
 11
-14.7953774521
 21
14.3652706979
  0
LINE
  5
46C
100
AcDbEntity
  8
CURVE
100
AcDbLine
 62
7
  6
CONTINUOUS
 10
-14.3448493547
 20
14.8157987952
 11
-13.2486113557
 21
15.9120367942
  0
LINE
  5
46D
100
AcDbEntity
  8
CURVE
100
AcDbLine
 62
7
  6
CONTINUOUS
 10
-16.1477290546
 20
12.9079137383
 11
-16.1107899073
 21
12.9448528857
  0
LINE
  5
46E
100
AcDbEntity
  8
CURVE
100
AcDbLine
 62
7
  6
CONTINUOUS
 10
-15.1352568326
 20
13.9203859603
 11
-14.7172669321
 21
14.3383758609
  0
LINE
  5
46F
100
AcDbEntity
  8
CURVE
100
AcDbLine
 62
7
  6
CONTINUOUS
 10
-14.3448493547
 20
14.7107934382
 11
-13.863063145
 21
15.1925796479
  0
LINE
  5
470
100
AcDbEntity
  8
CURVE
100
AcDbLine
 62
7
  6
CONTINUOUS
 10
-13.8544869269
 20
15.201155866
 11
-13.2486113557
 21
15.8070314372
  0
LINE
  5
471
100
AcDbEntity
  8
CURVE
100
AcDbLine
 62
7
  6
CONTINUOUS
 10
-16.1477290546
 20
12.8029083813
 11
-16.0057845503
 21
12.9448528857
  0
LINE
  5
472
100
AcDbEntity
  8
CURVE
100
AcDbLine
 62
7
  6
CONTINUOUS
 10
-15.0581401433
 20
13.8924972926
 11
-14.6391564121
 21
14.3114810238
  0
LINE
  5
473
100
AcDbEntity
  8
CURVE
100
AcDbLine
 62
7
  6
CONTINUOUS
 10
-14.3448493547
 20
14.6057880812
 11
-13.863063145
 21
15.0875742909
  0
LINE
  5
474
100
AcDbEntity
  8
CURVE
100
AcDbLine
 62
7
  6
CONTINUOUS
 10
-13.6953579258
 20
15.2552795101
 11
-13.2486113557
 21
15.7020260802
  0
LINE
  5
475
100
AcDbEntity
  8
CURVE
100
AcDbLine
 62
7
  6
CONTINUOUS
 10
-16.1477290546
 20
12.6979030243
 11
-15.9007791932
 21
12.9448528857
  0
LINE
  5
476
100
AcDbEntity
  8
CURVE
100
AcDbLine
 62
7
  6
CONTINUOUS
 10
-14.981023454
 20
13.8646086249
 11
-14.5610458921
 21
14.2845861868
  0
LINE
  5
477
100
AcDbEntity
  8
CURVE
100
AcDbLine
 62
7
  6
CONTINUOUS
 10
-14.3448493547
 20
14.5007827242
 11
-13.863063145
 21
14.9825689339
  0
LINE
  5
478
100
AcDbEntity
  8
CURVE
100
AcDbLine
 62
7
  6
CONTINUOUS
 10
-13.5362289247
 20
15.3094031542
 11
-13.2486113557
 21
15.5970207232
  0
LINE
  5
479
100
AcDbEntity
  8
CURVE
100
AcDbLine
 62
7
  6
CONTINUOUS
 10
-16.1477290546
 20
12.5928976673
 11
-15.7957738362
 21
12.9448528857
  0
LINE
  5
47A
100
AcDbEntity
  8
CURVE
100
AcDbLine
 62
7
  6
CONTINUOUS
 10
-14.9039067647
 20
13.8367199572
 11
-14.4829353721
 21
14.2576913498
  0
LINE
  5
47B
100
AcDbEntity
  8
CURVE
100
AcDbLine
 62
7
  6
CONTINUOUS
 10
-14.3448493547
 20
14.3957773672
 11
-13.863063145
 21
14.8775635769
  0
LINE
  5
47C
100
AcDbEntity
  8
CURVE
100
AcDbLine
 62
7
  6
CONTINUOUS
 10
-13.3770999237
 20
15.3635267982
 11
-13.2486113557
 21
15.4920153662
  0
LINE
  5
47D
100
AcDbEntity
  8
CURVE
100
AcDbLine
 62
7
  6
CONTINUOUS
 10
-16.1477290546
 20
12.4878923103
 11
-15.6907684792
 21
12.9448528857
  0
LINE
  5
47E
100
AcDbEntity
  8
CURVE
100
AcDbLine
 62
7
  6
CONTINUOUS
 10
-14.8267900754
 20
13.8088312895
 11
-14.4048248521
 21
14.2307965128
  0
LINE
  5
47F
100
AcDbEntity
  8
CURVE
100
AcDbLine
 62
7
  6
CONTINUOUS
 10
-14.3448493547
 20
14.2907720102
 11
-13.863063145
 21
14.7725582199
  0
LINE
  5
480
100
AcDbEntity
  8
CURVE
100
AcDbLine
 62
7
  6
CONTINUOUS
 10
-16.1477290546
 20
12.3828869533
 11
-15.5857631222
 21
12.9448528857
  0
LINE
  5
481
100
AcDbEntity
  8
CURVE
100
AcDbLine
 62
7
  6
CONTINUOUS
 10
-14.7496733862
 20
13.7809426217
 11
-13.863063145
 21
14.6675528629
  0
LINE
  5
482
100
AcDbEntity
  8
CURVE
100
AcDbLine
 62
7
  6
CONTINUOUS
 10
-16.0632017652
 20
12.3624088857
 11
-15.4807577652
 21
12.9448528857
  0
LINE
  5
483
100
AcDbEntity
  8
CURVE
100
AcDbLine
 62
7
  6
CONTINUOUS
 10
-14.6725566969
 20
13.753053954
 11
-13.863063145
 21
14.5625475059
  0
LINE
  5
484
100
AcDbEntity
  8
CURVE
100
AcDbLine
 62
7
  6
CONTINUOUS
 10
-15.9581964082
 20
12.3624088857
 11
-15.3757524082
 21
12.9448528857
  0
LINE
  5
485
100
AcDbEntity
  8
CURVE
100
AcDbLine
 62
7
  6
CONTINUOUS
 10
-14.5954400076
 20
13.7251652863
 11
-13.863063145
 21
14.4575421489
  0
LINE
  5
486
100
AcDbEntity
  8
CURVE
100
AcDbLine
 62
7
  6
CONTINUOUS
 10
-15.8531910512
 20
12.3624088857
 11
-15.2707470512
 21
12.9448528857
  0
LINE
  5
487
100
AcDbEntity
  8
CURVE
100
AcDbLine
 62
7
  6
CONTINUOUS
 10
-14.5183233183
 20
13.6972766186
 11
-13.863063145
 21
14.3525367919
  0
LINE
  5
488
100
AcDbEntity
  8
CURVE
100
AcDbLine
 62
7
  6
CONTINUOUS
 10
-15.7481856942
 20
12.3624088857
 11
-15.1657416942
 21
12.9448528857
  0
LINE
  5
489
100
AcDbEntity
  8
CURVE
100
AcDbLine
 62
7
  6
CONTINUOUS
 10
-14.441206629
 20
13.6693879509
 11
-13.863063145
 21
14.2475314349
  0
LINE
  5
48A
100
AcDbEntity
  8
CURVE
100
AcDbLine
 62
7
  6
CONTINUOUS
 10
-15.6431803372
 20
12.3624088857
 11
-15.0607363372
 21
12.9448528857
  0
LINE
  5
48B
100
AcDbEntity
  8
CURVE
100
AcDbLine
 62
7
  6
CONTINUOUS
 10
-14.3640899397
 20
13.6414992831
 11
-13.863063145
 21
14.1425260779
  0
LINE
  5
48C
100
AcDbEntity
  8
CURVE
100
AcDbLine
 62
7
  6
CONTINUOUS
 10
-15.5381749802
 20
12.3624088857
 11
-14.9557309802
 21
12.9448528857
  0
LINE
  5
48D
100
AcDbEntity
  8
CURVE
100
AcDbLine
 62
7
  6
CONTINUOUS
 10
-14.2869732504
 20
13.6136106154
 11
-13.8542092168
 21
14.046374649
  0
LINE
  5
48E
100
AcDbEntity
  8
CURVE
100
AcDbLine
 62
7
  6
CONTINUOUS
 10
-15.4331696232
 20
12.3624088857
 11
-14.8507256232
 21
12.9448528857
  0
LINE
  5
48F
100
AcDbEntity
  8
CURVE
100
AcDbLine
 62
7
  6
CONTINUOUS
 10
-14.2098565611
 20
13.5857219477
 11
-13.7766051184
 21
14.0189733904
  0
LINE
  5
490
100
AcDbEntity
  8
CURVE
100
AcDbLine
 62
253
  6
CONTINUOUS
 10
-12.1367862255
 20
15.6050833277
 11
-11.8653990102
 21
15.8765122227
  0
LINE
  5
491
100
AcDbEntity
  8
CURVE
100
AcDbLine
 62
7
  6
CONTINUOUS
 10
-15.3281642662
 20
12.3624088857
 11
-14.7457202662
 21
12.9448528857
  0
LINE
  5
492
100
AcDbEntity
  8
CURVE
100
AcDbLine
 62
7
  6
CONTINUOUS
 10
-14.1327398719
 20
13.55783328
 11
-13.69900102
 21
13.9915721318
  0
LINE
  5
493
100
AcDbEntity
  8
CURVE
100
AcDbLine
 62
253
  6
CONTINUOUS
 10
-12.1367862255
 20
12.8907977752
 11
-11.8653990102
 21
13.0717501453
  0
LINE
  5
494
100
AcDbEntity
  8
CURVE
100
AcDbLine
 62
253
  6
CONTINUOUS
 10
-13.863063145
 20
9.1732038857
 11
-13.2486113557
 21
9.3820858857
  0
LINE
  5
495
100
AcDbEntity
  8
CURVE
100
AcDbLine
 62
253
  6
CONTINUOUS
 10
-17.7628689549
 20
5.7110608857
 11
-20.6616387598
 21
4.7918148857
  0
LINE
  5
496
100
AcDbEntity
  8
ASSI
100
AcDbLine
 62
7
  6
CONTINUOUS
 10
-18.2089170321
 20
-5.497394615
 11
-5.0702610963
 21
-5.3649873603
  0
LINE
  5
497
100
AcDbEntity
  8
RACCORDO
100
AcDbLine
 62
7
  6
CONTINUOUS
 10
-18.2089170321
 20
-5.497394615
 11
-5.0702610963
 21
-5.3649873603
  0
LINE
  5
498
100
AcDbEntity
  8
RACCORDO
100
AcDbLine
 62
7
  6
CONTINUOUS
 10
-25.7350956418
 20
23.1563046165
 11
-25.7350956418
 21
22.3550432167
  0
LINE
  5
499
100
AcDbEntity
  8
RACCORDO
100
AcDbLine
 62
7
  6
CONTINUOUS
 10
-25.7350956418
 20
-22.2877334454
 11
-25.7350956418
 21
-23.0889948452
  0
LINE
  5
49A
100
AcDbEntity
  8
RACCORDO
100
AcDbLine
 62
253
  6
CONTINUOUS
 10
-25.4865500746
 20
23.3006421838
 11
-25.4865500746
 21
22.3670658471
  0
LINE
  5
49B
100
AcDbEntity
  8
RACCORDO
100
AcDbLine
 62
253
  6
CONTINUOUS
 10
-25.4865500746
 20
-22.2997560758
 11
-25.4865500746
 21
-23.2333324125
  0
LINE
  5
49C
100
AcDbEntity
  8
RACCORDO
100
AcDbLine
 62
7
  6
CONTINUOUS
 10
-24.2350956418
 20
-22.3747619501
 11
-24.2350956418
 21
-24.2163493451
  0
LINE
  5
49D
100
AcDbEntity
  8
RACCORDO
100
AcDbLine
 62
7
  6
CONTINUOUS
 10
-24.2350956418
 20
22.4420717214
 11
-24.2350956418
 21
24.2836591164
  0
LINE
  5
49E
100
AcDbEntity
  8
CURVE
100
AcDbLine
 62
7
  6
CONTINUOUS
 10
-15.2231589092
 20
12.3624088857
 11
-14.6407149092
 21
12.9448528857
  0
LINE
  5
49F
100
AcDbEntity
  8
CURVE
100
AcDbLine
 62
7
  6
CONTINUOUS
 10
-14.0556231826
 20
13.5299446123
 11
-13.6213969216
 21
13.9641708732
  0
LINE
  5
4A0
100
AcDbEntity
  8
CURVE
100
AcDbLine
 62
7
  6
CONTINUOUS
 10
-15.1181535522
 20
12.3624088857
 11
-14.5357095522
 21
12.9448528857
  0
LINE
  5
4A1
100
AcDbEntity
  8
CURVE
100
AcDbLine
 62
7
  6
CONTINUOUS
 10
-13.9785064933
 20
13.5020559445
 11
-13.5437928232
 21
13.9367696146
  0
LINE
  5
4A2
100
AcDbEntity
  8
CURVE
100
AcDbLine
 62
7
  6
CONTINUOUS
 10
-16.1477290546
 20
11.2278280262
 11
-16.1051356084
 21
11.2704214724
  0
LINE
  5
4A3
100
AcDbEntity
  8
CURVE
100
AcDbLine
 62
7
  6
CONTINUOUS
 10
-15.0131481952
 20
12.3624088857
 11
-14.4307041952
 21
12.9448528857
  0
LINE
  5
4A4
100
AcDbEntity
  8
CURVE
100
AcDbLine
 62
7
  6
CONTINUOUS
 10
-13.901389804
 20
13.4741672768
 11
-13.4661887248
 21
13.909368356
  0
LINE
  5
4A5
100
AcDbEntity
  8
CURVE
100
AcDbLine
 62
7
  6
CONTINUOUS
 10
-16.1477290546
 20
11.1228226692
 11
-15.9015223586
 21
11.3690293652
  0
LINE
  5
4A6
100
AcDbEntity
  8
CURVE
100
AcDbLine
 62
7
  6
CONTINUOUS
 10
-14.9081428382
 20
12.3624088857
 11
-14.3256988382
 21
12.9448528857
  0
LINE
  5
4A7
100
AcDbEntity
  8
CURVE
100
AcDbLine
 62
7
  6
CONTINUOUS
 10
-13.8242731147
 20
13.4462786091
 11
-13.3885846264
 21
13.8819670974
  0
LINE
  5
4A8
100
AcDbEntity
  8
CURVE
100
AcDbLine
 62
7
  6
CONTINUOUS
 10
-16.1477290546
 20
11.0178173122
 11
-15.6979091088
 21
11.467637258
  0
LINE
  5
4A9
100
AcDbEntity
  8
CURVE
100
AcDbLine
 62
7
  6
CONTINUOUS
 10
-14.8031374811
 20
12.3624088857
 11
-14.2206934811
 21
12.9448528857
  0
LINE
  5
4AA
100
AcDbEntity
  8
CURVE
100
AcDbLine
 62
7
  6
CONTINUOUS
 10
-13.7471564254
 20
13.4183899414
 11
-13.310980528
 21
13.8545658388
  0
LINE
  5
4AB
100
AcDbEntity
  8
CURVE
100
AcDbLine
 62
7
  6
CONTINUOUS
 10
-16.1477290546
 20
10.9128119552
 11
-15.494295859
 21
11.5662451508
  0
LINE
  5
4AC
100
AcDbEntity
  8
CURVE
100
AcDbLine
 62
7
  6
CONTINUOUS
 10
-14.6981321241
 20
12.3624088857
 11
-14.1156881241
 21
12.9448528857
  0
LINE
  5
4AD
100
AcDbEntity
  8
CURVE
100
AcDbLine
 62
7
  6
CONTINUOUS
 10
-13.6700397361
 20
13.3905012737
 11
-13.2486113557
 21
13.8119296541
  0
LINE
  5
4AE
100
AcDbEntity
  8
CURVE
100
AcDbLine
 62
7
  6
CONTINUOUS
 10
-16.1477290546
 20
10.8078065982
 11
-15.2906826092
 21
11.6648530436
  0
LINE
  5
4AF
100
AcDbEntity
  8
CURVE
100
AcDbLine
 62
7
  6
CONTINUOUS
 10
-14.5931267671
 20
12.3624088857
 11
-14.0106827671
 21
12.9448528857
  0
LINE
  5
4B0
100
AcDbEntity
  8
CURVE
100
AcDbLine
 62
7
  6
CONTINUOUS
 10
-13.5929230468
 20
13.3626126059
 11
-13.2486113557
 21
13.7069242971
  0
LINE
  5
4B1
100
AcDbEntity
  8
CURVE
100
AcDbLine
 62
7
  6
CONTINUOUS
 10
-16.1477290546
 20
10.7028012412
 11
-15.0870693594
 21
11.7634609363
  0
LINE
  5
4B2
100
AcDbEntity
  8
CURVE
100
AcDbLine
 62
7
  6
CONTINUOUS
 10
-14.4881214101
 20
12.3624088857
 11
-13.9056774101
 21
12.9448528857
  0
LINE
  5
4B3
100
AcDbEntity
  8
CURVE
100
AcDbLine
 62
7
  6
CONTINUOUS
 10
-13.5158063576
 20
13.3347239382
 11
-13.2486113557
 21
13.6019189401
  0
LINE
  5
4B4
100
AcDbEntity
  8
CURVE
100
AcDbLine
 62
7
  6
CONTINUOUS
 10
-16.1477290546
 20
10.5977958842
 11
-14.8834561096
 21
11.8620688291
  0
LINE
  5
4B5
100
AcDbEntity
  8
CURVE
100
AcDbLine
 62
7
  6
CONTINUOUS
 10
-14.3831160531
 20
12.3624088857
 11
-13.8006720531
 21
12.9448528857
  0
LINE
  5
4B6
100
AcDbEntity
  8
CURVE
100
AcDbLine
 62
7
  6
CONTINUOUS
 10
-13.4386896683
 20
13.3068352705
 11
-13.2486113557
 21
13.4969135831
  0
LINE
  5
4B7
100
AcDbEntity
  8
CURVE
100
AcDbLine
 62
7
  6
CONTINUOUS
 10
-16.1477290546
 20
10.4927905272
 11
-14.6798428599
 21
11.9606767219
  0
LINE
  5
4B8
100
AcDbEntity
  8
CURVE
100
AcDbLine
 62
7
  6
CONTINUOUS
 10
-14.2781106961
 20
12.3624088857
 11
-13.6956666961
 21
12.9448528857
  0
LINE
  5
4B9
100
AcDbEntity
  8
CURVE
100
AcDbLine
 62
7
  6
CONTINUOUS
 10
-13.361572979
 20
13.2789466028
 11
-13.2486113557
 21
13.3919082261
  0
LINE
  5
4BA
100
AcDbEntity
  8
CURVE
100
AcDbLine
 62
7
  6
CONTINUOUS
 10
-16.1477290546
 20
10.3877851702
 11
-15.6270893391
 21
10.9084248857
  0
LINE
  5
4BB
100
AcDbEntity
  8
CURVE
100
AcDbLine
 62
7
  6
CONTINUOUS
 10
-15.5837451272
 20
10.9517690976
 11
-14.4762296101
 21
12.0592846147
  0
LINE
  5
4BC
100
AcDbEntity
  8
CURVE
100
AcDbLine
 62
7
  6
CONTINUOUS
 10
-14.1731053391
 20
12.3624088857
 11
-13.5906613391
 21
12.9448528857
  0
LINE
  5
4BD
100
AcDbEntity
  8
CURVE
100
AcDbLine
 62
7
  6
CONTINUOUS
 10
-13.2844562897
 20
13.2510579351
 11
-13.2486113557
 21
13.2869028691
  0
LINE
  5
4BE
100
AcDbEntity
  8
CURVE
100
AcDbLine
 62
7
  6
CONTINUOUS
 10
-16.1045289821
 20
10.3259798857
 11
-15.5220839821
 21
10.9084248857
  0
LINE
  5
4BF
100
AcDbEntity
  8
CURVE
100
AcDbLine
 62
7
  6
CONTINUOUS
 10
-15.3836952303
 20
11.0468136374
 11
-14.2726163603
 21
12.1578925075
  0
LINE
  5
4C0
100
AcDbEntity
  8
CURVE
100
AcDbLine
 62
7
  6
CONTINUOUS
 10
-14.0680999821
 20
12.3624088857
 11
-13.4856559821
 21
12.9448528857
  0
LINE
  5
4C1
100
AcDbEntity
  8
CURVE
100
AcDbLine
 62
7
  6
CONTINUOUS
 10
-15.9995236251
 20
10.3259798857
 11
-15.4170786251
 21
10.9084248857
  0
LINE
  5
4C2
100
AcDbEntity
  8
CURVE
100
AcDbLine
 62
7
  6
CONTINUOUS
 10
-15.1836453335
 20
11.1418581773
 11
-14.0690031105
 21
12.2565004003
  0
LINE
  5
4C3
100
AcDbEntity
  8
CURVE
100
AcDbLine
 62
7
  6
CONTINUOUS
 10
-13.9630946251
 20
12.3624088857
 11
-13.3806506251
 21
12.9448528857
  0
LINE
  5
4C4
100
AcDbEntity
  8
CURVE
100
AcDbLine
 62
7
  6
CONTINUOUS
 10
-15.8945182681
 20
10.3259798857
 11
-15.3120732681
 21
10.9084248857
  0
LINE
  5
4C5
100
AcDbEntity
  8
CURVE
100
AcDbLine
 62
7
  6
CONTINUOUS
 10
-14.9835954367
 20
11.2369027171
 11
-13.8653898607
 21
12.3551082931
  0
LINE
  5
4C6
100
AcDbEntity
  8
CURVE
100
AcDbLine
 62
7
  6
CONTINUOUS
 10
-13.8580892681
 20
12.3624088857
 11
-13.2756452681
 21
12.9448528857
  0
LINE
  5
4C7
100
AcDbEntity
  8
CURVE
100
AcDbLine
 62
7
  6
CONTINUOUS
 10
-15.7895129111
 20
10.3259798857
 11
-15.2070679111
 21
10.9084248857
  0
LINE
  5
4C8
100
AcDbEntity
  8
CURVE
100
AcDbLine
 62
7
  6
CONTINUOUS
 10
-14.7835455398
 20
11.3319472569
 11
-13.2486113557
 21
12.866881441
  0
LINE
  5
4C9
100
AcDbEntity
  8
CURVE
100
AcDbLine
 62
7
  6
CONTINUOUS
 10
-15.6845075541
 20
10.3259798857
 11
-15.1020625541
 21
10.9084248857
  0
LINE
  5
4CA
100
AcDbEntity
  8
CURVE
100
AcDbLine
 62
7
  6
CONTINUOUS
 10
-14.583495643
 20
11.4269917967
 11
-13.2486113557
 21
12.761876084
  0
LINE
  5
4CB
100
AcDbEntity
  8
CURVE
100
AcDbLine
 62
7
  6
CONTINUOUS
 10
-15.5795021971
 20
10.3259798857
 11
-14.9970571971
 21
10.9084248857
  0
LINE
  5
4CC
100
AcDbEntity
  8
CURVE
100
AcDbLine
 62
7
  6
CONTINUOUS
 10
-14.3834457462
 20
11.5220363366
 11
-13.2486113557
 21
12.656870727
  0
LINE
  5
4CD
100
AcDbEntity
  8
CURVE
100
AcDbLine
 62
7
  6
CONTINUOUS
 10
-15.4744968401
 20
10.3259798857
 11
-14.8920518401
 21
10.9084248857
  0
LINE
  5
4CE
100
AcDbEntity
  8
CURVE
100
AcDbLine
 62
7
  6
CONTINUOUS
 10
-14.1833958493
 20
11.6170808764
 11
-13.2486113557
 21
12.55186537
  0
LINE
  5
4CF
100
AcDbEntity
  8
CURVE
100
AcDbLine
 62
253
  6
CONTINUOUS
 10
-10.2370756048
 20
15.4693691067
 11
-10.5084628484
 21
15.1979406647
  0
LINE
  5
4D0
100
AcDbEntity
  8
CURVE
100
AcDbLine
 62
7
  6
CONTINUOUS
 10
-15.3694914831
 20
10.3259798857
 11
-14.7870464831
 21
10.9084248857
  0
LINE
  5
4D1
100
AcDbEntity
  8
CURVE
100
AcDbLine
 62
7
  6
CONTINUOUS
 10
-13.9833459525
 20
11.7121254162
 11
-13.2486113557
 21
12.446860013
  0
LINE
  5
4D2
100
AcDbEntity
  8
CURVE
100
AcDbLine
 62
7
  6
CONTINUOUS
 10
-15.2644861261
 20
10.3259798857
 11
-14.6820411261
 21
10.9084248857
  0
LINE
  5
4D3
100
AcDbEntity
  8
CURVE
100
AcDbLine
 62
7
  6
CONTINUOUS
 10
-13.7832960557
 20
11.807169956
 11
-13.2486113557
 21
12.341854656
  0
LINE
  5
4D4
100
AcDbEntity
  8
CURVE
100
AcDbLine
 62
253
  6
CONTINUOUS
 10
-11.0512373075
 20
14.5193691067
 11
-11.3226245795
 21
14.2479406647
  0
LINE
  5
4D5
100
AcDbEntity
  8
CURVE
100
AcDbLine
 62
7
  6
CONTINUOUS
 10
-15.159480769
 20
10.3259798857
 11
-14.577035769
 21
10.9084248857
  0
LINE
  5
4D6
100
AcDbEntity
  8
CURVE
100
AcDbLine
 62
7
  6
CONTINUOUS
 10
-13.5832461588
 20
11.9022144959
 11
-13.2486113557
 21
12.236849299
  0
LINE
  5
4D7
100
AcDbEntity
  8
CURVE
100
AcDbLine
 62
7
  6
CONTINUOUS
 10
-15.054475412
 20
10.3259798857
 11
-14.472030412
 21
10.9084248857
  0
LINE
  5
4D8
100
AcDbEntity
  8
CURVE
100
AcDbLine
 62
7
  6
CONTINUOUS
 10
-13.383196262
 20
11.9972590357
 11
-13.2486113557
 21
12.131843942
  0
LINE
  5
4D9
100
AcDbEntity
  8
CURVE
100
AcDbLine
 62
7
  6
CONTINUOUS
 10
-14.949470055
 20
10.3259798857
 11
-14.367025055
 21
10.9084248857
  0
LINE
  5
4DA
100
AcDbEntity
  8
CURVE
100
AcDbLine
 62
7
  6
CONTINUOUS
 10
-14.844464698
 20
10.3259798857
 11
-14.262019698
 21
10.9084248857
  0
LINE
  5
4DB
100
AcDbEntity
  8
CURVE
100
AcDbLine
 62
7
  6
CONTINUOUS
 10
-16.1477290546
 20
8.9177101721
 11
-16.0207149211
 21
9.0447243056
  0
LINE
  5
4DC
100
AcDbEntity
  8
CURVE
100
AcDbLine
 62
7
  6
CONTINUOUS
 10
-14.739459341
 20
10.3259798857
 11
-14.157014341
 21
10.9084248857
  0
LINE
  5
4DD
100
AcDbEntity
  8
CURVE
100
AcDbLine
 62
7
  6
CONTINUOUS
 10
-16.1477290546
 20
8.8127048151
 11
-15.8597249936
 21
9.100708876
  0
LINE
  5
4DE
100
AcDbEntity
  8
CURVE
100
AcDbLine
 62
7
  6
CONTINUOUS
 10
-14.634453984
 20
10.3259798857
 11
-14.052008984
 21
10.9084248857
  0
LINE
  5
4DF
100
AcDbEntity
  8
CURVE
100
AcDbLine
 62
7
  6
CONTINUOUS
 10
-16.1477290546
 20
8.7076994581
 11
-15.6987350661
 21
9.1566934465
  0
LINE
  5
4E0
100
AcDbEntity
  8
CURVE
100
AcDbLine
 62
7
  6
CONTINUOUS
 10
-14.529448627
 20
10.3259798857
 11
-13.947003627
 21
10.9084248857
  0
LINE
  5
4E1
100
AcDbEntity
  8
CURVE
100
AcDbLine
 62
7
  6
CONTINUOUS
 10
-16.1477290546
 20
8.6026941011
 11
-15.5377451387
 21
9.212678017
  0
LINE
  5
4E2
100
AcDbEntity
  8
CURVE
100
AcDbLine
 62
7
  6
CONTINUOUS
 10
-14.42444327
 20
10.3259798857
 11
-13.84199827
 21
10.9084248857
  0
LINE
  5
4E3
100
AcDbEntity
  8
RACCORDO
100
AcDbLine
 62
253
  6
CONTINUOUS
 10
-23.4836412089
 20
24.2792872824
 11
-23.4836412089
 21
23.877992453
  0
LINE
  5
4E4
100
AcDbEntity
  8
RACCORDO
100
AcDbLine
 62
253
  6
CONTINUOUS
 10
-23.4836412089
 20
-23.8106826816
 11
-23.4836412089
 21
-24.2119775111
  0
LINE
  5
4E5
100
AcDbEntity
  8
RACCORDO
100
AcDbLine
 62
7
  6
CONTINUOUS
 10
-23.2350956418
 20
24.2792872824
 11
-23.2350956418
 21
23.877992453
  0
LINE
  5
4E6
100
AcDbEntity
  8
ASSI
100
AcDbLine
 62
7
  6
CONTINUOUS
 10
-23.2350956418
 20
18.1553539344
 11
-23.2350956418
 21
-18.0880441631
  0
LINE
  5
4E7
100
AcDbEntity
  8
RACCORDO
100
AcDbLine
 62
7
  6
CONTINUOUS
 10
-23.2350956418
 20
22.4336548857
 11
-23.2350956418
 21
-22.3663451143
  0
LINE
  5
4E8
100
AcDbEntity
  8
RACCORDO
100
AcDbLine
 62
7
  6
CONTINUOUS
 10
-23.2350956418
 20
-23.7605272845
 11
-23.2350956418
 21
-24.2119775111
  0
LINE
  5
4E9
100
AcDbEntity
  8
CURVE
100
AcDbLine
 62
7
  6
CONTINUOUS
 10
-16.1477290546
 20
8.4976887441
 11
-15.3767552112
 21
9.2686625875
  0
LINE
  5
4EA
100
AcDbEntity
  8
CURVE
100
AcDbLine
 62
7
  6
CONTINUOUS
 10
-14.319437913
 20
10.3259798857
 11
-13.736992913
 21
10.9084248857
  0
LINE
  5
4EB
100
AcDbEntity
  8
CURVE
100
AcDbLine
 62
7
  6
CONTINUOUS
 10
-16.1477290546
 20
8.3926833871
 11
-15.2157652837
 21
9.324647158
  0
LINE
  5
4EC
100
AcDbEntity
  8
CURVE
100
AcDbLine
 62
7
  6
CONTINUOUS
 10
-14.214432556
 20
10.3259798857
 11
-13.631987556
 21
10.9084248857
  0
LINE
  5
4ED
100
AcDbEntity
  8
CURVE
100
AcDbLine
 62
7
  6
CONTINUOUS
 10
-16.1477290546
 20
8.2876780301
 11
-15.0547753562
 21
9.3806317285
  0
LINE
  5
4EE
100
AcDbEntity
  8
CURVE
100
AcDbLine
 62
7
  6
CONTINUOUS
 10
-14.109427199
 20
10.3259798857
 11
-13.526982199
 21
10.9084248857
  0
LINE
  5
4EF
100
AcDbEntity
  8
CURVE
100
AcDbLine
 62
7
  6
CONTINUOUS
 10
-16.0898332465
 20
8.2405684811
 11
-14.8937854287
 21
9.436616299
  0
LINE
  5
4F0
100
AcDbEntity
  8
CURVE
100
AcDbLine
 62
7
  6
CONTINUOUS
 10
-14.004421842
 20
10.3259798857
 11
-13.421976842
 21
10.9084248857
  0
LINE
  5
4F1
100
AcDbEntity
  8
CURVE
100
AcDbLine
 62
7
  6
CONTINUOUS
 10
-16.0127144279
 20
8.2126819428
 11
-14.7327955012
 21
9.4926008694
  0
LINE
  5
4F2
100
AcDbEntity
  8
CURVE
100
AcDbLine
 62
7
  6
CONTINUOUS
 10
-13.899416485
 20
10.3259798857
 11
-13.316971485
 21
10.9084248857
  0
LINE
  5
4F3
100
AcDbEntity
  8
CURVE
100
AcDbLine
 62
253
  6
CONTINUOUS
 10
-11.3226245795
 20
12.8907977752
 11
-11.0512373075
 21
13.1622262172
  0
LINE
  5
4F4
100
AcDbEntity
  8
CURVE
100
AcDbLine
 62
7
  6
CONTINUOUS
 10
-15.9355956092
 20
8.1847954045
 11
-15.5279255104
 21
8.5924655033
  0
LINE
  5
4F5
100
AcDbEntity
  8
CURVE
100
AcDbLine
 62
7
  6
CONTINUOUS
 10
-15.4633502977
 20
8.6570407159
 11
-14.5718055737
 21
9.5485854399
  0
LINE
  5
4F6
100
AcDbEntity
  8
CURVE
100
AcDbLine
 62
7
  6
CONTINUOUS
 10
-13.794411128
 20
10.3259798857
 11
-13.2486113557
 21
10.8717796579
  0
LINE
  5
4F7
100
AcDbEntity
  8
CURVE
100
AcDbLine
 62
7
  6
CONTINUOUS
 10
-15.8584767905
 20
8.1569088661
 11
-15.4498150159
 21
8.5655706407
  0
LINE
  5
4F8
100
AcDbEntity
  8
CURVE
100
AcDbLine
 62
7
  6
CONTINUOUS
 10
-15.3085976072
 20
8.7067880494
 11
-14.4108156462
 21
9.6045700104
  0
LINE
  5
4F9
100
AcDbEntity
  8
CURVE
100
AcDbLine
 62
7
  6
CONTINUOUS
 10
-13.689405771
 20
10.3259798857
 11
-13.2486113557
 21
10.7667743009
  0
LINE
  5
4FA
100
AcDbEntity
  8
CURVE
100
AcDbLine
 62
7
  6
CONTINUOUS
 10
-15.7813579718
 20
8.1290223278
 11
-15.3717045215
 21
8.5386757781
  0
LINE
  5
4FB
100
AcDbEntity
  8
CURVE
100
AcDbLine
 62
7
  6
CONTINUOUS
 10
-15.1538449167
 20
8.7565353829
 11
-14.2498257187
 21
9.6605545809
  0
LINE
  5
4FC
100
AcDbEntity
  8
CURVE
100
AcDbLine
 62
7
  6
CONTINUOUS
 10
-13.584400414
 20
10.3259798857
 11
-13.2486113557
 21
10.6617689439
  0
LINE
  5
4FD
100
AcDbEntity
  8
CURVE
100
AcDbLine
 62
7
  6
CONTINUOUS
 10
-15.7042391531
 20
8.1011357895
 11
-15.293594027
 21
8.5117809156
  0
LINE
  5
4FE
100
AcDbEntity
  8
CURVE
100
AcDbLine
 62
7
  6
CONTINUOUS
 10
-14.9990922263
 20
8.8062827163
 11
-14.0888357912
 21
9.7165391514
  0
LINE
  5
4FF
100
AcDbEntity
  8
CURVE
100
AcDbLine
 62
7
  6
CONTINUOUS
 10
-13.479395057
 20
10.3259798857
 11
-13.2486113557
 21
10.5567635869
  0
LINE
  5
500
100
AcDbEntity
  8
CURVE
100
AcDbLine
 62
7
  6
CONTINUOUS
 10
-15.6271203344
 20
8.0732492512
 11
-15.2154835326
 21
8.484886053
  0
LINE
  5
501
100
AcDbEntity
  8
CURVE
100
AcDbLine
 62
7
  6
CONTINUOUS
 10
-14.8443395358
 20
8.8560300498
 11
-13.9278458637
 21
9.7725237219
  0
LINE
  5
502
100
AcDbEntity
  8
CURVE
100
AcDbLine
 62
7
  6
CONTINUOUS
 10
-13.3743896999
 20
10.3259798857
 11
-13.2486113557
 21
10.4517582299
  0
LINE
  5
503
100
AcDbEntity
  8
CURVE
100
AcDbLine
 62
7
  6
CONTINUOUS
 10
-15.5500015157
 20
8.0453627129
 11
-15.1373730381
 21
8.4579911905
  0
LINE
  5
504
100
AcDbEntity
  8
CURVE
100
AcDbLine
 62
7
  6
CONTINUOUS
 10
-14.6895868453
 20
8.9057773833
 11
-13.7668559362
 21
9.8285082924
  0
LINE
  5
505
100
AcDbEntity
  8
CURVE
100
AcDbLine
 62
7
  6
CONTINUOUS
 10
-13.2693843429
 20
10.3259798857
 11
-13.2486113557
 21
10.3467528729
  0
LINE
  5
506
100
AcDbEntity
  8
CURVE
100
AcDbLine
 62
7
  6
CONTINUOUS
 10
-15.472882697
 20
8.0174761746
 11
-15.0592625437
 21
8.4310963279
  0
LINE
  5
507
100
AcDbEntity
  8
CURVE
100
AcDbLine
 62
7
  6
CONTINUOUS
 10
-14.5348341549
 20
8.9555247167
 11
-13.6058660087
 21
9.8844928628
  0
LINE
  5
508
100
AcDbEntity
  8
CURVE
100
AcDbLine
 62
7
  6
CONTINUOUS
 10
-15.3957638783
 20
7.9895896362
 11
-14.9811520492
 21
8.4042014654
  0
LINE
  5
509
100
AcDbEntity
  8
CURVE
100
AcDbLine
 62
7
  6
CONTINUOUS
 10
-14.3800814644
 20
9.0052720502
 11
-13.4448760813
 21
9.9404774333
  0
LINE
  5
50A
100
AcDbEntity
  8
CURVE
100
AcDbLine
 62
7
  6
CONTINUOUS
 10
-15.3186450596
 20
7.9617030979
 11
-14.9030415548
 21
8.3773066028
  0
LINE
  5
50B
100
AcDbEntity
  8
CURVE
100
AcDbLine
 62
7
  6
CONTINUOUS
 10
-14.3448493547
 20
8.9354988029
 11
-13.2838861538
 21
9.9964620038
  0
LINE
  5
50C
100
AcDbEntity
  8
CURVE
100
AcDbLine
 62
7
  6
CONTINUOUS
 10
-15.241526241
 20
7.9338165596
 11
-14.8249310603
 21
8.3504117403
  0
LINE
  5
50D
100
AcDbEntity
  8
CURVE
100
AcDbLine
 62
7
  6
CONTINUOUS
 10
-14.3448493547
 20
8.8304934459
 11
-13.2486113557
 21
9.9267314449
  0
LINE
  5
50E
100
AcDbEntity
  8
CURVE
100
AcDbLine
 62
7
  6
CONTINUOUS
 10
-15.1644074223
 20
7.9059300213
 11
-14.7468205658
 21
8.3235168777
  0
LINE
  5
50F
100
AcDbEntity
  8
CURVE
100
AcDbLine
 62
7
  6
CONTINUOUS
 10
-14.3448493547
 20
8.7254880889
 11
-13.2486113557
 21
9.8217260879
  0
LINE
  5
510
100
AcDbEntity
  8
CURVE
100
AcDbLine
 62
7
  6
CONTINUOUS
 10
-15.0872886036
 20
7.878043483
 11
-14.6687100714
 21
8.2966220152
  0
LINE
  5
511
100
AcDbEntity
  8
CURVE
100
AcDbLine
 62
7
  6
CONTINUOUS
 10
-14.3448493547
 20
8.6204827319
 11
-13.863063145
 21
9.1022689416
  0
LINE
  5
512
100
AcDbEntity
  8
CURVE
100
AcDbLine
 62
7
  6
CONTINUOUS
 10
-13.7555943333
 20
9.2097377533
 11
-13.2486113557
 21
9.7167207309
  0
LINE
  5
513
100
AcDbEntity
  8
CURVE
100
AcDbLine
 62
7
  6
CONTINUOUS
 10
-15.0101697849
 20
7.8501569447
 11
-14.5905995769
 21
8.2697271526
  0
LINE
  5
514
100
AcDbEntity
  8
CURVE
100
AcDbLine
 62
7
  6
CONTINUOUS
 10
-14.3448493547
 20
8.5154773749
 11
-13.863063145
 21
8.9972635846
  0
LINE
  5
515
100
AcDbEntity
  8
CURVE
100
AcDbLine
 62
7
  6
CONTINUOUS
 10
-13.596507707
 20
9.2638190225
 11
-13.2486113557
 21
9.6117153738
  0
LINE
  5
516
100
AcDbEntity
  8
CURVE
100
AcDbLine
 62
7
  6
CONTINUOUS
 10
-14.9330509662
 20
7.8222704064
 11
-14.5124890825
 21
8.2428322901
  0
LINE
  5
517
100
AcDbEntity
  8
CURVE
100
AcDbLine
 62
7
  6
CONTINUOUS
 10
-14.3448493547
 20
8.4104720179
 11
-13.863063145
 21
8.8922582276
  0
LINE
  5
518
100
AcDbEntity
  8
CURVE
100
AcDbLine
 62
7
  6
CONTINUOUS
 10
-13.4374210807
 20
9.3179002918
 11
-13.2486113557
 21
9.5067100168
  0
LINE
  5
519
100
AcDbEntity
  8
CURVE
100
AcDbLine
 62
253
  6
CONTINUOUS
 10
-10.2370756048
 20
12.4836548857
 11
-10.5084628484
 21
12.2122262172
  0
LINE
  5
51A
100
AcDbEntity
  8
CURVE
100
AcDbLine
 62
7
  6
CONTINUOUS
 10
-14.8559321475
 20
7.794383868
 11
-14.434378588
 21
8.2159374275
  0
LINE
  5
51B
100
AcDbEntity
  8
CURVE
100
AcDbLine
 62
7
  6
CONTINUOUS
 10
-14.3448493547
 20
8.3054666609
 11
-13.863063145
 21
8.7872528706
  0
LINE
  5
51C
100
AcDbEntity
  8
CURVE
100
AcDbLine
 62
7
  6
CONTINUOUS
 10
-13.2783344545
 20
9.3719815611
 11
-13.2486113557
 21
9.4017046598
  0
LINE
  5
51D
100
AcDbEntity
  8
CURVE
100
AcDbLine
 62
7
  6
CONTINUOUS
 10
-14.7788133288
 20
7.7664973297
 11
-14.3562680936
 21
8.1890425649
  0
LINE
  5
51E
100
AcDbEntity
  8
CURVE
100
AcDbLine
 62
7
  6
CONTINUOUS
 10
-14.3448493547
 20
8.2004613038
 11
-13.863063145
 21
8.6822475136
  0
LINE
  5
51F
100
AcDbEntity
  8
CURVE
100
AcDbLine
 62
7
  6
CONTINUOUS
 10
-14.7016945101
 20
7.7386107914
 11
-13.863063145
 21
8.5772421566
  0
LINE
  5
520
100
AcDbEntity
  8
CURVE
100
AcDbLine
 62
7
  6
CONTINUOUS
 10
-14.6245756914
 20
7.7107242531
 11
-13.863063145
 21
8.4722367996
  0
LINE
  5
521
100
AcDbEntity
  8
CURVE
100
AcDbLine
 62
7
  6
CONTINUOUS
 10
-14.5474568727
 20
7.6828377148
 11
-13.863063145
 21
8.3672314425
  0
LINE
  5
522
100
AcDbEntity
  8
CURVE
100
AcDbLine
 62
7
  6
CONTINUOUS
 10
-14.470338054
 20
7.6549511765
 11
-13.863063145
 21
8.2622260855
  0
LINE
  5
523
100
AcDbEntity
  8
CURVE
100
AcDbLine
 62
7
  6
CONTINUOUS
 10
-14.3932192354
 20
7.6270646381
 11
-13.863063145
 21
8.1572207285
  0
LINE
  5
524
100
AcDbEntity
  8
CURVE
100
AcDbLine
 62
7
  6
CONTINUOUS
 10
-16.1477290546
 20
5.7675494619
 11
-16.0878846308
 21
5.8273938857
  0
LINE
  5
525
100
AcDbEntity
  8
CURVE
100
AcDbLine
 62
7
  6
CONTINUOUS
 10
-14.3161004167
 20
7.5991780998
 11
-13.863063145
 21
8.0522153715
  0
LINE
  5
526
100
AcDbEntity
  8
CURVE
100
AcDbLine
 62
7
  6
CONTINUOUS
 10
-16.1477290546
 20
5.6625441049
 11
-15.9828792738
 21
5.8273938857
  0
LINE
  5
527
100
AcDbEntity
  8
CURVE
100
AcDbLine
 62
7
  6
CONTINUOUS
 10
-14.238981598
 20
7.5712915615
 11
-13.8059590493
 21
8.0043141102
  0
LINE
  5
528
100
AcDbEntity
  8
CURVE
100
AcDbLine
 62
7
  6
CONTINUOUS
 10
-16.1477290546
 20
5.5575387479
 11
-15.8778739168
 21
5.8273938857
  0
LINE
  5
529
100
AcDbEntity
  8
CURVE
100
AcDbLine
 62
7
  6
CONTINUOUS
 10
-14.1618627793
 20
7.5434050232
 11
-13.7283447754
 21
7.976923027
  0
LINE
  5
52A
100
AcDbEntity
  8
ASSI
100
AcDbLine
 62
7
  6
CONTINUOUS
 10
-18.2089170321
 20
-5.497394615
 11
-17.2350956418
 21
-6.3436603857
  0
LINE
  5
52B
100
AcDbEntity
  8
SMUSSO
100
AcDbLine
 62
7
  6
CONTINUOUS
 10
-18.2089170321
 20
-5.497394615
 11
-17.2350956418
 21
-6.3436603857
  0
LINE
  5
52C
100
AcDbEntity
  8
CURVE
100
AcDbLine
 62
253
  6
CONTINUOUS
 10
-10.2495251152
 20
-11.9663451143
 11
-8.7499819949
 21
-13.4663451143
  0
LINE
  5
52D
100
AcDbEntity
  8
CURVE
100
AcDbLine
 62
253
  6
CONTINUOUS
 10
-20.6618127068
 20
8.0064108857
 11
-20.6618127068
 21
7.4011398857
  0
LINE
  5
52E
100
AcDbEntity
  8
CURVE
100
AcDbLine
 62
253
  6
CONTINUOUS
 10
-20.6616387598
 20
4.7918148857
 11
-20.6616387598
 21
5.4493268857
  0
LINE
  5
52F
100
AcDbEntity
  8
CURVE
100
AcDbLine
 62
253
  6
CONTINUOUS
 10
-20.6616387598
 20
6.5716638857
 11
-20.6616387598
 21
7.1765218857
  0
LINE
  5
530
100
AcDbEntity
  8
CURVE
100
AcDbLine
 62
253
  6
CONTINUOUS
 10
-20.6616387598
 20
8.5940688857
 11
-20.6616387598
 21
9.1988408857
  0
LINE
  5
531
100
AcDbEntity
  8
CURVE
100
AcDbLine
 62
253
  6
CONTINUOUS
 10
-20.6616387598
 20
10.4029898857
 11
-20.6616387598
 21
11.0018468857
  0
LINE
  5
532
100
AcDbEntity
  8
CURVE
100
AcDbLine
 62
253
  6
CONTINUOUS
 10
-20.6616387598
 20
12.2775568857
 11
-20.6616387598
 21
12.8630848857
  0
LINE
  5
533
100
AcDbEntity
  8
CURVE
100
AcDbLine
 62
253
  6
CONTINUOUS
 10
-11.3226245795
 20
12.4836548857
 11
-11.4583181305
 21
12.3027025155
  0
LINE
  5
534
100
AcDbEntity
  8
CURVE
100
AcDbLine
 62
7
  6
CONTINUOUS
 10
-16.1477290546
 20
5.4525333909
 11
-15.7728685598
 21
5.8273938857
  0
LINE
  5
535
100
AcDbEntity
  8
CURVE
100
AcDbLine
 62
7
  6
CONTINUOUS
 10
-14.0847439606
 20
7.5155184849
 11
-13.6507305016
 21
7.9495319439
  0
LINE
  5
536
100
AcDbEntity
  8
CURVE
100
AcDbLine
 62
7
  6
CONTINUOUS
 10
-16.1477290546
 20
5.3475280339
 11
-15.6678632028
 21
5.8273938857
  0
LINE
  5
537
100
AcDbEntity
  8
CURVE
100
AcDbLine
 62
7
  6
CONTINUOUS
 10
-14.0076251419
 20
7.4876319466
 11
-13.5731162277
 21
7.9221408607
  0
LINE
  5
538
100
AcDbEntity
  8
CURVE
100
AcDbLine
 62
7
  6
CONTINUOUS
 10
-16.1477290546
 20
5.2425226769
 11
-15.5628578458
 21
5.8273938857
  0
LINE
  5
539
100
AcDbEntity
  8
CURVE
100
AcDbLine
 62
7
  6
CONTINUOUS
 10
-13.9305063232
 20
7.4597454082
 11
-13.4955019539
 21
7.8947497776
  0
LINE
  5
53A
100
AcDbEntity
  8
CURVE
100
AcDbLine
 62
7
  6
CONTINUOUS
 10
-16.0804584888
 20
5.2047878857
 11
-15.4578524888
 21
5.8273938857
  0
LINE
  5
53B
100
AcDbEntity
  8
CURVE
100
AcDbLine
 62
7
  6
CONTINUOUS
 10
-13.8533875045
 20
7.4318588699
 11
-13.41788768
 21
7.8673586944
  0
LINE
  5
53C
100
AcDbEntity
  8
CURVE
100
AcDbLine
 62
7
  6
CONTINUOUS
 10
-15.9754531318
 20
5.2047878857
 11
-15.3528471318
 21
5.8273938857
  0
LINE
  5
53D
100
AcDbEntity
  8
CURVE
100
AcDbLine
 62
7
  6
CONTINUOUS
 10
-13.7762686858
 20
7.4039723316
 11
-13.3402734062
 21
7.8399676113
  0
LINE
  5
53E
100
AcDbEntity
  8
CURVE
100
AcDbLine
 62
7
  6
CONTINUOUS
 10
-15.8704477748
 20
5.2047878857
 11
-15.2478417748
 21
5.8273938857
  0
LINE
  5
53F
100
AcDbEntity
  8
CURVE
100
AcDbLine
 62
7
  6
CONTINUOUS
 10
-13.6991498671
 20
7.3760857933
 11
-13.2626591323
 21
7.8125765281
  0
LINE
  5
540
100
AcDbEntity
  8
CURVE
100
AcDbLine
 62
7
  6
CONTINUOUS
 10
-15.7654424178
 20
5.2047878857
 11
-15.1428364178
 21
5.8273938857
  0
LINE
  5
541
100
AcDbEntity
  8
CURVE
100
AcDbLine
 62
7
  6
CONTINUOUS
 10
-13.6220310485
 20
7.348199255
 11
-13.2486113557
 21
7.7216189477
  0
LINE
  5
542
100
AcDbEntity
  8
CURVE
100
AcDbLine
 62
7
  6
CONTINUOUS
 10
-15.6604370608
 20
5.2047878857
 11
-15.0378310608
 21
5.8273938857
  0
LINE
  5
543
100
AcDbEntity
  8
CURVE
100
AcDbLine
 62
7
  6
CONTINUOUS
 10
-13.5449122298
 20
7.3203127167
 11
-13.2486113557
 21
7.6166135907
  0
LINE
  5
544
100
AcDbEntity
  8
CURVE
100
AcDbLine
 62
7
  6
CONTINUOUS
 10
-15.5554317038
 20
5.2047878857
 11
-14.9328257038
 21
5.8273938857
  0
LINE
  5
545
100
AcDbEntity
  8
CURVE
100
AcDbLine
 62
7
  6
CONTINUOUS
 10
-13.4677934111
 20
7.2924261784
 11
-13.2486113557
 21
7.5116082337
  0
LINE
  5
546
100
AcDbEntity
  8
CURVE
100
AcDbLine
 62
7
  6
CONTINUOUS
 10
-15.4504263468
 20
5.2047878857
 11
-14.8278203468
 21
5.8273938857
  0
LINE
  5
547
100
AcDbEntity
  8
CURVE
100
AcDbLine
 62
7
  6
CONTINUOUS
 10
-13.3906745924
 20
7.26453964
 11
-13.2486113557
 21
7.4066028767
  0
LINE
  5
548
100
AcDbEntity
  8
CURVE
100
AcDbLine
 62
7
  6
CONTINUOUS
 10
-15.3454209898
 20
5.2047878857
 11
-14.7228149898
 21
5.8273938857
  0
LINE
  5
549
100
AcDbEntity
  8
CURVE
100
AcDbLine
 62
7
  6
CONTINUOUS
 10
-13.7303975654
 20
6.81981131
 11
-13.6498159898
 21
6.9003928857
  0
LINE
  5
54A
100
AcDbEntity
  8
CURVE
100
AcDbLine
 62
7
  6
CONTINUOUS
 10
-13.3135557737
 20
7.2366531017
 11
-13.2486113557
 21
7.3015975197
  0
LINE
  5
54B
100
AcDbEntity
  8
CURVE
100
AcDbLine
 62
7
  6
CONTINUOUS
 10
-15.9646155429
 20
4.4805879755
 11
-15.7536925669
 21
4.6915109515
  0
LINE
  5
54C
100
AcDbEntity
  8
CURVE
100
AcDbLine
 62
7
  6
CONTINUOUS
 10
-15.2404156328
 20
5.2047878857
 11
-14.6178096328
 21
5.8273938857
  0
LINE
  5
54D
100
AcDbEntity
  8
CURVE
100
AcDbLine
 62
7
  6
CONTINUOUS
 10
-13.7303975654
 20
6.714805953
 11
-13.5448106328
 21
6.9003928857
  0
LINE
  5
54E
100
AcDbEntity
  8
CURVE
100
AcDbLine
 62
7
  6
CONTINUOUS
 10
-16.0594892724
 20
4.280708889
 11
-15.5654163077
 21
4.7747818537
  0
LINE
  5
54F
100
AcDbEntity
  8
CURVE
100
AcDbLine
 62
7
  6
CONTINUOUS
 10
-15.1354102757
 20
5.2047878857
 11
-14.5128042757
 21
5.8273938857
  0
LINE
  5
550
100
AcDbEntity
  8
CURVE
100
AcDbLine
 62
7
  6
CONTINUOUS
 10
-13.7303975654
 20
6.609800596
 11
-13.4398052757
 21
6.9003928857
  0
LINE
  5
551
100
AcDbEntity
  8
CURVE
100
AcDbLine
 62
7
  6
CONTINUOUS
 10
-16.1002348242
 20
4.1349579802
 11
-15.4328065265
 21
4.8023862779
  0
LINE
  5
552
100
AcDbEntity
  8
CURVE
100
AcDbLine
 62
7
  6
CONTINUOUS
 10
-15.0304049187
 20
5.2047878857
 11
-14.4077989187
 21
5.8273938857
  0
LINE
  5
553
100
AcDbEntity
  8
CURVE
100
AcDbLine
 62
7
  6
CONTINUOUS
 10
-13.7303975654
 20
6.504795239
 11
-13.3347999187
 21
6.9003928857
  0
LINE
  5
554
100
AcDbEntity
  8
CURVE
100
AcDbLine
 62
7
  6
CONTINUOUS
 10
-16.1226008702
 20
4.0075865772
 11
-15.3172983794
 21
4.812889068
  0
LINE
  5
555
100
AcDbEntity
  8
CURVE
100
AcDbLine
 62
7
  6
CONTINUOUS
 10
-14.9253995617
 20
5.2047878857
 11
-14.3027935617
 21
5.8273938857
  0
LINE
  5
556
100
AcDbEntity
  8
CURVE
100
AcDbLine
 62
7
  6
CONTINUOUS
 10
-13.7303975654
 20
6.399789882
 11
-13.2486113557
 21
6.8815760917
  0
LINE
  5
557
100
AcDbEntity
  8
CURVE
100
AcDbLine
 62
7
  6
CONTINUOUS
 10
-16.1351915141
 20
3.8899905763
 11
-15.2116826167
 21
4.8134994737
  0
LINE
  5
558
100
AcDbEntity
  8
CURVE
100
AcDbLine
 62
7
  6
CONTINUOUS
 10
-14.8203942047
 20
5.2047878857
 11
-14.1977882047
 21
5.8273938857
  0
LINE
  5
559
100
AcDbEntity
  8
CURVE
100
AcDbLine
 62
7
  6
CONTINUOUS
 10
-13.7303975654
 20
6.294784525
 11
-13.2486113557
 21
6.7765707347
  0
LINE
  5
55A
100
AcDbEntity
  8
CURVE
100
AcDbLine
 62
7
  6
CONTINUOUS
 10
-16.1419712764
 20
3.778205457
 11
-15.1135651925
 21
4.8066115408
  0
LINE
  5
55B
100
AcDbEntity
  8
CURVE
100
AcDbLine
 62
7
  6
CONTINUOUS
 10
-14.7153888477
 20
5.2047878857
 11
-14.0927828477
 21
5.8273938857
  0
LINE
  5
55C
100
AcDbEntity
  8
CURVE
100
AcDbLine
 62
7
  6
CONTINUOUS
 10
-13.7303975654
 20
6.189779168
 11
-13.2486113557
 21
6.6715653777
  0
LINE
  5
55D
100
AcDbEntity
  8
CURVE
100
AcDbLine
 62
7
  6
CONTINUOUS
 10
-16.1461459087
 20
3.6690254677
 11
-15.0220307254
 21
4.793140651
  0
LINE
  5
55E
100
AcDbEntity
  8
CURVE
100
AcDbLine
 62
7
  6
CONTINUOUS
 10
-14.6103834907
 20
5.2047878857
 11
-13.9877774907
 21
5.8273938857
  0
LINE
  5
55F
100
AcDbEntity
  8
CURVE
100
AcDbLine
 62
7
  6
CONTINUOUS
 10
-13.7303975654
 20
6.0847738109
 11
-13.2486113557
 21
6.5665600207
  0
LINE
  5
560
100
AcDbEntity
  8
CURVE
100
AcDbLine
 62
7
  6
CONTINUOUS
 10
-16.1477290546
 20
3.5624369648
 11
-14.9381463273
 21
4.772019692
  0
LINE
  5
561
100
AcDbEntity
  8
CURVE
100
AcDbLine
 62
7
  6
CONTINUOUS
 10
-14.5053781337
 20
5.2047878857
 11
-13.8827721337
 21
5.8273938857
  0
LINE
  5
562
100
AcDbEntity
  8
CURVE
100
AcDbLine
 62
7
  6
CONTINUOUS
 10
-13.7303975654
 20
5.9797684539
 11
-13.2486113557
 21
6.4615546637
  0
LINE
  5
563
100
AcDbEntity
  8
CURVE
100
AcDbLine
 62
7
  6
CONTINUOUS
 10
-16.1477290546
 20
3.4574316078
 11
-15.5970919011
 21
4.0080687612
  0
LINE
  5
564
100
AcDbEntity
  8
CURVE
100
AcDbLine
 62
7
  6
CONTINUOUS
 10
-15.5228490342
 20
4.0823116282
 11
-14.8608724663
 21
4.7442881961
  0
LINE
  5
565
100
AcDbEntity
  8
CURVE
100
AcDbLine
 62
7
  6
CONTINUOUS
 10
-14.4003727767
 20
5.2047878857
 11
-13.7777667767
 21
5.8273938857
  0
LINE
  5
566
100
AcDbEntity
  8
CURVE
100
AcDbLine
 62
7
  6
CONTINUOUS
 10
-13.7303975654
 20
5.8747630969
 11
-13.2486113557
 21
6.3565493067
  0
LINE
  5
567
100
AcDbEntity
  8
CURVE
100
AcDbLine
 62
7
  6
CONTINUOUS
 10
-16.1477290546
 20
3.3524262508
 11
-15.6510304951
 21
3.8491248102
  0
LINE
  5
568
100
AcDbEntity
  8
CURVE
100
AcDbLine
 62
7
  6
CONTINUOUS
 10
-15.3546271219
 20
4.1455281834
 11
-14.7901190524
 21
4.7100362529
  0
LINE
  5
569
100
AcDbEntity
  8
CURVE
100
AcDbLine
 62
7
  6
CONTINUOUS
 10
-14.2953674197
 20
5.2047878857
 11
-13.2486113557
 21
6.2515439496
  0
LINE
  5
56A
100
AcDbEntity
  8
CURVE
100
AcDbLine
 62
7
  6
CONTINUOUS
 10
-16.1477290546
 20
3.2474208938
 11
-15.6648072117
 21
3.7303427366
  0
LINE
  5
56B
100
AcDbEntity
  8
CURVE
100
AcDbLine
 62
7
  6
CONTINUOUS
 10
-15.2430726764
 20
4.1520772719
 11
-14.7256266732
 21
4.6695232752
  0
LINE
  5
56C
100
AcDbEntity
  8
CURVE
100
AcDbLine
 62
7
  6
CONTINUOUS
 10
-14.1903620627
 20
5.2047878857
 11
-13.2486113557
 21
6.1465385926
  0
LINE
  5
56D
100
AcDbEntity
  8
CURVE
100
AcDbLine
 62
7
  6
CONTINUOUS
 10
-16.1477290546
 20
3.1424155368
 11
-15.6659428449
 21
3.6242017465
  0
LINE
  5
56E
100
AcDbEntity
  8
CURVE
100
AcDbLine
 62
7
  6
CONTINUOUS
 10
-15.1465250711
 20
4.1436195202
 11
-14.6672307102
 21
4.6229138811
  0
LINE
  5
56F
100
AcDbEntity
  8
CURVE
100
AcDbLine
 62
7
  6
CONTINUOUS
 10
-14.0853567057
 20
5.2047878857
 11
-13.2486113557
 21
6.0415332356
  0
LINE
  5
570
100
AcDbEntity
  8
CURVE
100
AcDbLine
 62
7
  6
CONTINUOUS
 10
-16.1477290546
 20
3.0374101798
 11
-15.6659428449
 21
3.5191963895
  0
LINE
  5
571
100
AcDbEntity
  8
CURVE
100
AcDbLine
 62
7
  6
CONTINUOUS
 10
-15.0642549026
 20
4.1208843317
 11
-14.6149064901
 21
4.5702327443
  0
LINE
  5
572
100
AcDbEntity
  8
CURVE
100
AcDbLine
 62
7
  6
CONTINUOUS
 10
-13.9803513487
 20
5.2047878857
 11
-13.2486113557
 21
5.9365278786
  0
LINE
  5
573
100
AcDbEntity
  8
CURVE
100
AcDbLine
 62
7
  6
CONTINUOUS
 10
-16.1477290546
 20
2.9324048228
 11
-15.6659428449
 21
3.4141910325
  0
LINE
  5
574
100
AcDbEntity
  8
CURVE
100
AcDbLine
 62
7
  6
CONTINUOUS
 10
-14.9947394991
 20
4.0853943782
 11
-14.5683251394
 21
4.5118087379
  0
LINE
  5
575
100
AcDbEntity
  8
CURVE
100
AcDbLine
 62
7
  6
CONTINUOUS
 10
-13.8753459917
 20
5.2047878857
 11
-13.2486113557
 21
5.8315225216
  0
LINE
  5
576
100
AcDbEntity
  8
CURVE
100
AcDbLine
 62
7
  6
CONTINUOUS
 10
-16.1477290546
 20
2.8273994657
 11
-15.6180776347
 21
3.3570508857
  0
LINE
  5
577
100
AcDbEntity
  8
CURVE
100
AcDbLine
 62
7
  6
CONTINUOUS
 10
-14.9378274809
 20
4.0373010394
 11
-14.5274030836
 21
4.4477254367
  0
LINE
  5
578
100
AcDbEntity
  8
CURVE
100
AcDbLine
 62
7
  6
CONTINUOUS
 10
-13.7703406347
 20
5.2047878857
 11
-13.2486113557
 21
5.7265171646
  0
LINE
  5
579
100
AcDbEntity
  8
CURVE
100
AcDbLine
 62
7
  6
CONTINUOUS
 10
-16.1356782777
 20
2.7344448857
 11
-15.5130722777
 21
3.3570508857
  0
LINE
  5
57A
100
AcDbEntity
  8
CURVE
100
AcDbLine
 62
7
  6
CONTINUOUS
 10
-14.8962835222
 20
3.9738396411
 11
-14.4918898384
 21
4.3782333249
  0
LINE
  5
57B
100
AcDbEntity
  8
CURVE
100
AcDbLine
 62
7
  6
CONTINUOUS
 10
-13.6653352777
 20
5.2047878857
 11
-13.2486113557
 21
5.6215118076
  0
LINE
  5
57C
100
AcDbEntity
  8
CURVE
100
AcDbLine
 62
7
  6
CONTINUOUS
 10
-16.0306729207
 20
2.7344448857
 11
-15.4080669207
 21
3.3570508857
  0
LINE
  5
57D
100
AcDbEntity
  8
CURVE
100
AcDbLine
 62
7
  6
CONTINUOUS
 10
-14.8701884765
 20
3.8949293298
 11
-14.4613782325
 21
4.3037395738
  0
LINE
  5
57E
100
AcDbEntity
  8
CURVE
100
AcDbLine
 62
7
  6
CONTINUOUS
 10
-13.5603299207
 20
5.2047878857
 11
-13.2486113557
 21
5.5165064506
  0
LINE
  5
57F
100
AcDbEntity
  8
CURVE
100
AcDbLine
 62
253
  6
CONTINUOUS
 10
-8.2501342882
 20
-13.1949161143
 11
-7.9787879618
 21
-13.4663451143
  0
LINE
  5
580
100
AcDbEntity
  8
CURVE
100
AcDbLine
 62
253
  6
CONTINUOUS
 10
-19.372035835
 20
14.8591796547
 11
-19.372035835
 21
14.5132730586
  0
LINE
  5
581
100
AcDbEntity
  8
CURVE
100
AcDbLine
 62
253
  6
CONTINUOUS
 10
-18.8972873419
 20
14.5333429473
 11
-18.8972873419
 21
14.8578750032
  0
LINE
  5
582
100
AcDbEntity
  8
CURVE
100
AcDbLine
 62
253
  6
CONTINUOUS
 10
-18.7893602043
 20
12.2575738857
 11
-18.7893602043
 21
12.8370788857
  0
LINE
  5
583
100
AcDbEntity
  8
CURVE
100
AcDbLine
 62
253
  6
CONTINUOUS
 10
-18.3415666377
 20
12.9580418857
 11
-18.3415666377
 21
12.1337628857
  0
LINE
  5
584
100
AcDbEntity
  8
ASSI
100
AcDbLine
 62
7
  6
CONTINUOUS
 10
-18.2089170321
 20
-10.2352956137
 11
-18.2089170321
 21
-5.497394615
  0
LINE
  5
585
100
AcDbEntity
  8
SMUSSO
100
AcDbLine
 62
7
  6
CONTINUOUS
 10
-18.2089170321
 20
-10.2352956137
 11
-18.2089170321
 21
-5.497394615
  0
LINE
  5
586
100
AcDbEntity
  8
CURVE
100
AcDbLine
 62
253
  6
CONTINUOUS
 10
-17.7628689549
 20
13.7527698857
 11
-17.7628689549
 21
13.1148388857
  0
LINE
  5
587
100
AcDbEntity
  8
CURVE
100
AcDbLine
 62
253
  6
CONTINUOUS
 10
-17.7628689549
 20
11.9667458857
 11
-17.7628689549
 21
11.3680408857
  0
LINE
  5
588
100
AcDbEntity
  8
CURVE
100
AcDbLine
 62
253
  6
CONTINUOUS
 10
-17.7628689549
 20
11.2729968857
 11
-17.7628689549
 21
10.6808808857
  0
LINE
  5
589
100
AcDbEntity
  8
CURVE
100
AcDbLine
 62
253
  6
CONTINUOUS
 10
-17.7628689549
 20
9.8368588857
 11
-17.7628689549
 21
9.7519688857
  0
LINE
  5
58A
100
AcDbEntity
  8
CURVE
100
AcDbLine
 62
253
  6
CONTINUOUS
 10
-17.7628689549
 20
8.9112948857
 11
-17.7628689549
 21
8.3322478857
  0
LINE
  5
58B
100
AcDbEntity
  8
CURVE
100
AcDbLine
 62
253
  6
CONTINUOUS
 10
-17.7628689549
 20
6.2444568857
 11
-17.7628689549
 21
5.7110608857
  0
LINE
  5
58C
100
AcDbEntity
  8
CURVE
100
AcDbLine
 62
253
  6
CONTINUOUS
 10
-17.7628689549
 20
7.4011398857
 11
-17.7628689549
 21
8.0064108857
  0
LINE
  5
58D
100
AcDbEntity
  8
CURVE
100
AcDbLine
 62
253
  6
CONTINUOUS
 10
-17.7628688615
 20
13.9305069861
 11
-17.7628688615
 21
14.5333429473
  0
LINE
  5
58E
100
AcDbEntity
  8
CURVE
100
AcDbLine
 62
253
  6
CONTINUOUS
 10
-17.7628688615
 20
15.4602325922
 11
-17.7628688615
 21
16.0424333157
  0
LINE
  5
58F
100
AcDbEntity
  8
CURVE
100
AcDbLine
 62
7
  6
CONTINUOUS
 10
-15.9256675636
 20
2.7344448857
 11
-15.3030615636
 21
3.3570508857
  0
LINE
  5
590
100
AcDbEntity
  8
CURVE
100
AcDbLine
 62
7
  6
CONTINUOUS
 10
-14.8559727852
 20
3.8041396641
 11
-14.4357823561
 21
4.2243300932
  0
LINE
  5
591
100
AcDbEntity
  8
CURVE
100
AcDbLine
 62
7
  6
CONTINUOUS
 10
-13.4553245636
 20
5.2047878857
 11
-13.2486113557
 21
5.4115010936
  0
LINE
  5
592
100
AcDbEntity
  8
CURVE
100
AcDbLine
 62
7
  6
CONTINUOUS
 10
-15.8206622066
 20
2.7344448857
 11
-15.1980562066
 21
3.3570508857
  0
LINE
  5
593
100
AcDbEntity
  8
CURVE
100
AcDbLine
 62
7
  6
CONTINUOUS
 10
-14.8468190638
 20
3.7082880284
 11
-14.4137779229
 21
4.1413291694
  0
LINE
  5
594
100
AcDbEntity
  8
CURVE
100
AcDbLine
 62
7
  6
CONTINUOUS
 10
-13.3503192066
 20
5.2047878857
 11
-13.2486113557
 21
5.3064957366
  0
LINE
  5
595
100
AcDbEntity
  8
CURVE
100
AcDbLine
 62
7
  6
CONTINUOUS
 10
-15.7156568496
 20
2.7344448857
 11
-15.0930508496
 21
3.3570508857
  0
LINE
  5
596
100
AcDbEntity
  8
CURVE
100
AcDbLine
 62
7
  6
CONTINUOUS
 10
-14.8468191688
 20
3.6032825665
 11
-14.3965446959
 21
4.0535570394
  0
LINE
  5
597
100
AcDbEntity
  8
CURVE
100
AcDbLine
 62
7
  6
CONTINUOUS
 10
-15.6106514926
 20
2.7344448857
 11
-14.9880454926
 21
3.3570508857
  0
LINE
  5
598
100
AcDbEntity
  8
CURVE
100
AcDbLine
 62
7
  6
CONTINUOUS
 10
-14.8468192737
 20
3.4982771046
 11
-14.3841209126
 21
3.9609754656
  0
LINE
  5
599
100
AcDbEntity
  8
CURVE
100
AcDbLine
 62
7
  6
CONTINUOUS
 10
-15.5056461356
 20
2.7344448857
 11
-14.8830401356
 21
3.3570508857
  0
LINE
  5
59A
100
AcDbEntity
  8
CURVE
100
AcDbLine
 62
7
  6
CONTINUOUS
 10
-14.8468193786
 20
3.3932716427
 11
-14.3755808816
 21
3.8645101396
  0
LINE
  5
59B
100
AcDbEntity
  8
CURVE
100
AcDbLine
 62
7
  6
CONTINUOUS
 10
-15.4006407786
 20
2.7344448857
 11
-14.3702067395
 21
3.7648789248
  0
LINE
  5
59C
100
AcDbEntity
  8
CURVE
100
AcDbLine
 62
7
  6
CONTINUOUS
 10
-15.2956354216
 20
2.7344448857
 11
-14.3664353422
 21
3.663644965
  0
LINE
  5
59D
100
AcDbEntity
  8
CURVE
100
AcDbLine
 62
7
  6
CONTINUOUS
 10
-15.1906300646
 20
2.7344448857
 11
-14.3650332051
 21
3.5600417452
  0
LINE
  5
59E
100
AcDbEntity
  8
CURVE
100
AcDbLine
 62
7
  6
CONTINUOUS
 10
-15.0856247076
 20
2.7344448857
 11
-14.3650332051
 21
3.4550363882
  0
LINE
  5
59F
100
AcDbEntity
  8
CURVE
100
AcDbLine
 62
7
  6
CONTINUOUS
 10
-14.9806193506
 20
2.7344448857
 11
-14.3580133506
 21
3.3570508857
  0
LINE
  5
5A0
100
AcDbEntity
  8
CURVE
100
AcDbLine
 62
7
  6
CONTINUOUS
 10
-14.8756139936
 20
2.7344448857
 11
-14.2530079936
 21
3.3570508857
  0
LINE
  5
5A1
100
AcDbEntity
  8
CURVE
100
AcDbLine
 62
7
  6
CONTINUOUS
 10
-14.7706086366
 20
2.7344448857
 11
-14.1480026366
 21
3.3570508857
  0
LINE
  5
5A2
100
AcDbEntity
  8
CURVE
100
AcDbLine
 62
7
  6
CONTINUOUS
 10
-14.6656032796
 20
2.7344448857
 11
-14.0429972796
 21
3.3570508857
  0
LINE
  5
5A3
100
AcDbEntity
  8
CURVE
100
AcDbLine
 62
7
  6
CONTINUOUS
 10
-14.5605979226
 20
2.7344448857
 11
-13.9379919226
 21
3.3570508857
  0
LINE
  5
5A4
100
AcDbEntity
  8
CURVE
100
AcDbLine
 62
7
  6
CONTINUOUS
 10
-14.4555925656
 20
2.7344448857
 11
-13.8329865656
 21
3.3570508857
  0
LINE
  5
5A5
100
AcDbEntity
  8
CURVE
100
AcDbLine
 62
7
  6
CONTINUOUS
 10
-14.3505872086
 20
2.7344448857
 11
-13.7279812086
 21
3.3570508857
  0
LINE
  5
5A6
100
AcDbEntity
  8
CURVE
100
AcDbLine
 62
7
  6
CONTINUOUS
 10
-14.2455818515
 20
2.7344448857
 11
-13.6229758515
 21
3.3570508857
  0
LINE
  5
5A7
100
AcDbEntity
  8
CURVE
100
AcDbLine
 62
7
  6
CONTINUOUS
 10
-14.1405764945
 20
2.7344448857
 11
-13.5179704945
 21
3.3570508857
  0
LINE
  5
5A8
100
AcDbEntity
  8
CURVE
100
AcDbLine
 62
7
  6
CONTINUOUS
 10
-14.0355711375
 20
2.7344448857
 11
-13.4129651375
 21
3.3570508857
  0
LINE
  5
5A9
100
AcDbEntity
  8
CURVE
100
AcDbLine
 62
7
  6
CONTINUOUS
 10
-13.9305657805
 20
2.7344448857
 11
-13.3079597805
 21
3.3570508857
  0
LINE
  5
5AA
100
AcDbEntity
  8
CURVE
100
AcDbLine
 62
7
  6
CONTINUOUS
 10
-13.8255604235
 20
2.7344448857
 11
-13.2486113557
 21
3.3113939535
  0
LINE
  5
5AB
100
AcDbEntity
  8
CURVE
100
AcDbLine
 62
7
  6
CONTINUOUS
 10
-13.7205550665
 20
2.7344448857
 11
-13.2486113557
 21
3.2063885965
  0
LINE
  5
5AC
100
AcDbEntity
  8
CURVE
100
AcDbLine
 62
7
  6
CONTINUOUS
 10
-13.6155497095
 20
2.7344448857
 11
-13.2486113557
 21
3.1013832395
  0
LINE
  5
5AD
100
AcDbEntity
  8
CURVE
100
AcDbLine
 62
7
  6
CONTINUOUS
 10
-13.5105443525
 20
2.7344448857
 11
-13.2486113557
 21
2.9963778825
  0
LINE
  5
5AE
100
AcDbEntity
  8
CURVE
100
AcDbLine
 62
7
  6
CONTINUOUS
 10
-13.4055389955
 20
2.7344448857
 11
-13.2486113557
 21
2.8913725255
  0
LINE
  5
5AF
100
AcDbEntity
  8
CURVE
100
AcDbLine
 62
7
  6
CONTINUOUS
 10
-13.3005336385
 20
2.7344448857
 11
-13.2486113557
 21
2.7863671684
  0
LINE
  5
5B0
100
AcDbEntity
  8
CURVE
100
AcDbLine
 62
253
  6
CONTINUOUS
 10
-16.1477290546
 20
2.7344448857
 11
-13.2486113557
 21
2.7344448857
  0
LINE
  5
5B1
100
AcDbEntity
  8
CURVE
100
AcDbLine
 62
253
  6
CONTINUOUS
 10
-13.2486113557
 20
3.3570508857
 11
-14.3650332051
 21
3.3570508857
  0
LINE
  5
5B2
100
AcDbEntity
  8
CURVE
100
AcDbLine
 62
253
  6
CONTINUOUS
 10
-14.8468194148
 20
3.3570508857
 11
-15.6659428449
 21
3.3570508857
  0
LINE
  5
5B3
100
AcDbEntity
  8
CURVE
100
AcDbLine
 62
253
  6
CONTINUOUS
 10
-6.0793666761
 20
-11.5663451143
 11
-5.8080203497
 21
-11.8377741143
  0
LINE
  5
5B4
100
AcDbEntity
  8
IMPORT_IGES
100
AcDbLine
 62
7
  6
CONTINUOUS
 10
-17.2350956418
 20
-9.5472374959
 11
-17.2350956418
 21
-6.1854148791
  0
LINE
  5
5B5
100
AcDbEntity
  8
ASSI
100
AcDbLine
 62
253
  6
CONTINUOUS
 10
-16.660575815
 20
-22.308970149
 11
-16.660575815
 21
-23.7171458291
  0
LINE
  5
5B6
100
AcDbEntity
  8
ASSI
100
AcDbLine
 62
253
  6
CONTINUOUS
 10
-16.660575815
 20
22.3762799203
 11
-16.660575815
 21
23.7844556004
  0
LINE
  5
5B7
100
AcDbEntity
  8
ASSI
100
AcDbLine
 62
7
  6
CONTINUOUS
 10
-16.2350956418
 20
-22.305312267
 11
-16.2350956418
 21
-23.222702929
  0
LINE
  5
5B8
100
AcDbEntity
  8
ASSI
100
AcDbLine
 62
7
  6
CONTINUOUS
 10
-16.2350956418
 20
22.3726220383
 11
-16.2350956418
 21
23.2900127004
  0
LINE
  5
5B9
100
AcDbEntity
  8
CURVE
100
AcDbLine
 62
253
  6
CONTINUOUS
 10
-16.1477290546
 20
15.0255898857
 11
-16.1477290546
 21
14.2865388857
  0
LINE
  5
5BA
100
AcDbEntity
  8
CURVE
100
AcDbLine
 62
253
  6
CONTINUOUS
 10
-16.1477290546
 20
9.0005548857
 11
-16.1477290546
 21
8.2615038857
  0
LINE
  5
5BB
100
AcDbEntity
  8
CURVE
100
AcDbLine
 62
253
  6
CONTINUOUS
 10
-16.1477290546
 20
3.6218748857
 11
-16.1477290546
 21
2.7344448857
  0
LINE
  5
5BC
100
AcDbEntity
  8
CURVE
100
AcDbLine
 62
253
  6
CONTINUOUS
 10
-16.1477290546
 20
5.2047878857
 11
-16.1477290546
 21
5.8273938857
  0
LINE
  5
5BD
100
AcDbEntity
  8
CURVE
100
AcDbLine
 62
253
  6
CONTINUOUS
 10
-16.1477290546
 20
10.3259798857
 11
-16.1477290546
 21
11.2497938857
  0
LINE
  5
5BE
100
AcDbEntity
  8
CURVE
100
AcDbLine
 62
253
  6
CONTINUOUS
 10
-16.1477290546
 20
12.3624088857
 11
-16.1477290546
 21
12.9448528857
  0
LINE
  5
5BF
100
AcDbEntity
  8
CURVE
100
AcDbLine
 62
253
  6
CONTINUOUS
 10
-15.6659428449
 20
3.3570508857
 11
-15.6659428449
 21
3.7202668857
  0
LINE
  5
5C0
100
AcDbEntity
  8
CURVE
100
AcDbLine
 62
253
  6
CONTINUOUS
 10
-20.6616387598
 20
5.4493268857
 11
-18.6663256903
 21
6.0020528857
  0
LINE
  5
5C1
100
AcDbEntity
  8
CURVE
100
AcDbLine
 62
253
  6
CONTINUOUS
 10
-13.2486113557
 20
5.2047878857
 11
-16.1477290546
 21
5.2047878857
  0
LINE
  5
5C2
100
AcDbEntity
  8
CURVE
100
AcDbLine
 62
253
  6
CONTINUOUS
 10
-16.1477290546
 20
5.8273938857
 11
-13.7303975654
 21
5.8273938857
  0
LINE
  5
5C3
100
AcDbEntity
  8
CURVE
100
AcDbLine
 62
253
  6
CONTINUOUS
 10
-14.8468194148
 20
3.3570508857
 11
-14.8468194148
 21
3.7202668857
  0
LINE
  5
5C4
100
AcDbEntity
  8
CURVE
100
AcDbLine
 62
253
  6
CONTINUOUS
 10
-14.3650332051
 20
3.6218748857
 11
-14.3650332051
 21
3.3570508857
  0
LINE
  5
5C5
100
AcDbEntity
  8
CURVE
100
AcDbLine
 62
253
  6
CONTINUOUS
 10
-14.3448493547
 20
15.0415238857
 11
-14.3448493547
 21
14.2101458857
  0
LINE
  5
5C6
100
AcDbEntity
  8
CURVE
100
AcDbLine
 62
253
  6
CONTINUOUS
 10
-14.3448493547
 20
9.0165978857
 11
-14.3448493547
 21
8.1851108857
  0
LINE
  5
5C7
100
AcDbEntity
  8
CURVE
100
AcDbLine
 62
253
  6
CONTINUOUS
 10
-13.863063145
 20
8.0244668857
 11
-13.863063145
 21
9.1732038857
  0
LINE
  5
5C8
100
AcDbEntity
  8
CURVE
100
AcDbLine
 62
253
  6
CONTINUOUS
 10
-13.863063145
 20
14.0495008857
 11
-13.863063145
 21
15.1982388857
  0
LINE
  5
5C9
100
AcDbEntity
  8
CURVE
100
AcDbLine
 62
253
  6
CONTINUOUS
 10
-13.7303975654
 20
5.8273938857
 11
-13.7303975654
 21
6.9003928857
  0
LINE
  5
5CA
100
AcDbEntity
  8
RACCORDO
100
AcDbLine
 62
253
  6
CONTINUOUS
 10
-13.7263694386
 20
21.5996303189
 11
-13.7263694386
 21
21.0166362821
  0
LINE
  5
5CB
100
AcDbEntity
  8
RACCORDO
100
AcDbLine
 62
253
  6
CONTINUOUS
 10
-13.7263694386
 20
-20.9493265108
 11
-13.7263694386
 21
-21.5323205476
  0
LINE
  5
5CC
100
AcDbEntity
  8
CURVE
100
AcDbLine
 62
253
  6
CONTINUOUS
 10
-13.7303975654
 20
6.9003928857
 11
-13.2486113557
 21
6.9003928857
  0
LINE
  5
5CD
100
AcDbEntity
  8
CURVE
100
AcDbLine
 62
253
  6
CONTINUOUS
 10
-20.6618127068
 20
7.4011398857
 11
-17.7628689549
 21
7.4011398857
  0
LINE
  5
5CE
100
AcDbEntity
  8
CURVE
100
AcDbLine
 62
253
  6
CONTINUOUS
 10
-17.7628689549
 20
8.0064108857
 11
-20.6618127068
 21
8.0064108857
  0
LINE
  5
5CF
100
AcDbEntity
  8
CURVE
100
AcDbLine
 62
253
  6
CONTINUOUS
 10
-17.7628689549
 20
8.3322478857
 11
-20.6616387598
 21
8.5940688857
  0
LINE
  5
5D0
100
AcDbEntity
  8
CURVE
100
AcDbLine
 62
253
  6
CONTINUOUS
 10
-18.6663256903
 20
6.0020528857
 11
-20.6616387598
 21
6.5716638857
  0
LINE
  5
5D1
100
AcDbEntity
  8
CURVE
100
AcDbLine
 62
253
  6
CONTINUOUS
 10
-20.6616387598
 20
7.1765218857
 11
-17.7628689549
 21
6.2444568857
  0
LINE
  5
5D2
100
AcDbEntity
  8
CURVE
100
AcDbLine
 62
253
  6
CONTINUOUS
 10
-13.2486113557
 20
12.9448528857
 11
-13.2486113557
 21
12.0612008857
  0
LINE
  5
5D3
100
AcDbEntity
  8
CURVE
100
AcDbLine
 62
253
  6
CONTINUOUS
 10
-13.2486113557
 20
10.9084248857
 11
-13.2486113557
 21
10.3259798857
  0
LINE
  5
5D4
100
AcDbEntity
  8
CURVE
100
AcDbLine
 62
253
  6
CONTINUOUS
 10
-13.2486113557
 20
6.9003928857
 11
-13.2486113557
 21
5.2047878857
  0
LINE
  5
5D5
100
AcDbEntity
  8
CURVE
100
AcDbLine
 62
253
  6
CONTINUOUS
 10
-13.2486113557
 20
2.7344448857
 11
-13.2486113557
 21
3.3570508857
  0
LINE
  5
5D6
100
AcDbEntity
  8
CURVE
100
AcDbLine
 62
253
  6
CONTINUOUS
 10
-13.2486113557
 20
7.2131688857
 11
-13.2486113557
 21
7.8076188857
  0
LINE
  5
5D7
100
AcDbEntity
  8
CURVE
100
AcDbLine
 62
253
  6
CONTINUOUS
 10
-13.2486113557
 20
9.3820858857
 11
-13.2486113557
 21
10.0087288857
  0
LINE
  5
5D8
100
AcDbEntity
  8
CURVE
100
AcDbLine
 62
253
  6
CONTINUOUS
 10
-13.2486113557
 20
13.2380948857
 11
-13.2486113557
 21
13.8325438857
  0
LINE
  5
5D9
100
AcDbEntity
  8
CURVE
100
AcDbLine
 62
253
  6
CONTINUOUS
 10
-13.2486113557
 20
15.4072288857
 11
-13.2486113557
 21
16.0336548857
  0
LINE
  5
5DA
100
AcDbEntity
  8
ASSI
100
AcDbLine
 62
7
  6
CONTINUOUS
 10
-13.2350956418
 20
22.2591042364
 11
-13.2350956418
 21
21.3550749972
  0
LINE
  5
5DB
100
AcDbEntity
  8
DRAFT
100
AcDbLine
 62
7
  6
CONTINUOUS
 10
-13.2350956418
 20
22.2591042364
 11
-13.2350956418
 21
21.3550749972
  0
LINE
  5
5DC
100
AcDbEntity
  8
ASSI
100
AcDbLine
 62
7
  6
CONTINUOUS
 10
-13.2350956418
 20
20.1591042364
 11
-13.2350956418
 21
19.5591042364
  0
LINE
  5
5DD
100
AcDbEntity
  8
DRAFT
100
AcDbLine
 62
7
  6
CONTINUOUS
 10
-13.2350956418
 20
20.1591042364
 11
-13.2350956418
 21
19.5591042364
  0
LINE
  5
5DE
100
AcDbEntity
  8
ASSI
100
AcDbLine
 62
7
  6
CONTINUOUS
 10
-13.2350956418
 20
-22.1917944651
 11
-13.2350956418
 21
-21.2877652258
  0
LINE
  5
5DF
100
AcDbEntity
  8
DRAFT
100
AcDbLine
 62
7
  6
CONTINUOUS
 10
-13.2350956418
 20
-22.1917944651
 11
-13.2350956418
 21
-21.2877652258
  0
LINE
  5
5E0
100
AcDbEntity
  8
ASSI
100
AcDbLine
 62
7
  6
CONTINUOUS
 10
-13.2350956418
 20
-19.4917944651
 11
-13.2350956418
 21
-20.0917944651
  0
LINE
  5
5E1
100
AcDbEntity
  8
DRAFT
100
AcDbLine
 62
7
  6
CONTINUOUS
 10
-13.2350956418
 20
-19.4917944651
 11
-13.2350956418
 21
-20.0917944651
  0
LINE
  5
5E2
100
AcDbEntity
  8
RACCORDO
100
AcDbLine
 62
7
  6
CONTINUOUS
 10
-13.2350956418
 20
-20.0917944651
 11
-13.2350956418
 21
-21.2877652258
  0
LINE
  5
5E3
100
AcDbEntity
  8
RACCORDO
100
AcDbLine
 62
7
  6
CONTINUOUS
 10
-13.2350956418
 20
20.1591042364
 11
-13.2350956418
 21
21.3550749972
  0
LINE
  5
5E4
100
AcDbEntity
  8
IMPORT_IGES
100
AcDbLine
 62
7
  6
CONTINUOUS
 10
-13.0350956418
 20
-6.3854050067
 11
-13.0350956418
 21
-9.347285222
  0
LINE
  5
5E5
100
AcDbEntity
  8
CURVE
100
AcDbLine
 62
253
  6
CONTINUOUS
 10
-12.1367862255
 20
12.4836548857
 11
-12.1367862255
 21
12.8907977752
  0
LINE
  5
5E6
100
AcDbEntity
  8
CURVE
100
AcDbLine
 62
253
  6
CONTINUOUS
 10
-12.1367862255
 20
13.7050833277
 11
-12.1367862255
 21
14.5193691067
  0
LINE
  5
5E7
100
AcDbEntity
  8
CURVE
100
AcDbLine
 62
253
  6
CONTINUOUS
 10
-12.1367862255
 20
15.4693691067
 11
-12.1367862255
 21
15.6050833277
  0
LINE
  5
5E8
100
AcDbEntity
  8
IMPORT_IGES
100
AcDbLine
 62
7
  6
CONTINUOUS
 10
-11.8350956418
 20
-9.347285222
 11
-11.8350956418
 21
-6.3854050067
  0
LINE
  5
5E9
100
AcDbEntity
  8
CURVE
100
AcDbLine
 62
253
  6
CONTINUOUS
 10
-11.3226245795
 20
14.2479406647
 11
-11.3226245795
 21
13.7050833277
  0
LINE
  5
5EA
100
AcDbEntity
  8
CURVE
100
AcDbLine
 62
253
  6
CONTINUOUS
 10
-11.3226245795
 20
12.4836548857
 11
-11.3226245795
 21
12.8907977752
  0
LINE
  5
5EB
100
AcDbEntity
  8
ASSI
100
AcDbLine
 62
7
  6
CONTINUOUS
 10
-17.2350956418
 20
-9.389029843
 11
-18.2089170321
 21
-10.2352956137
  0
LINE
  5
5EC
100
AcDbEntity
  8
SMUSSO
100
AcDbLine
 62
7
  6
CONTINUOUS
 10
-17.2350956418
 20
-9.389029843
 11
-18.2089170321
 21
-10.2352956137
  0
LINE
  5
5ED
100
AcDbEntity
  8
CURVE
100
AcDbLine
 62
253
  6
CONTINUOUS
 10
-17.7628689549
 20
10.6808808857
 11
-19.6478206491
 21
10.5565258857
  0
LINE
  5
5EE
100
AcDbEntity
  8
RACCORDO
100
AcDbLine
 62
253
  6
CONTINUOUS
 10
-34.3929910562
 20
9.0226466257
 11
-39.0210530915
 21
8.9415671721
  0
LINE
  5
5EF
100
AcDbEntity
  8
RACCORDO
100
AcDbLine
 62
7
  6
CONTINUOUS
 10
-34.0816374466
 20
9.2461868591
 11
-38.6117848148
 21
9.1671128426
  0
LINE
  5
5F0
100
AcDbEntity
  8
RACCORDO
100
AcDbLine
 62
7
  6
CONTINUOUS
 10
-38.7537162451
 20
9.3336548857
 11
-34.3660835018
 21
9.3336548857
  0
LINE
  5
5F1
100
AcDbEntity
  8
CURVE
100
AcDbLine
 62
253
  6
CONTINUOUS
 10
-12.1367862255
 20
10.1765120528
 11
-10.2370756048
 21
10.1765120528
  0
LINE
  5
5F2
100
AcDbEntity
  8
CURVE
100
AcDbLine
 62
253
  6
CONTINUOUS
 10
-13.2486113557
 20
10.3259798857
 11
-16.1477290546
 21
10.3259798857
  0
LINE
  5
5F3
100
AcDbEntity
  8
CURVE
100
AcDbLine
 62
253
  6
CONTINUOUS
 10
-19.655711245
 20
9.0419128857
 11
-17.7628689549
 21
8.9112948857
  0
LINE
  5
5F4
100
AcDbEntity
  8
CURVE
100
AcDbLine
 62
253
  6
CONTINUOUS
 10
-14.3448493547
 20
8.1851108857
 11
-15.5937378442
 21
8.6151258857
  0
LINE
  5
5F5
100
AcDbEntity
  8
CURVE
100
AcDbLine
 62
253
  6
CONTINUOUS
 10
-13.2486113557
 20
7.8076188857
 11
-13.863063145
 21
8.0244668857
  0
LINE
  5
5F6
100
AcDbEntity
  8
CURVE
100
AcDbLine
 62
253
  6
CONTINUOUS
 10
-16.1477290546
 20
8.2615038857
 11
-13.2486113557
 21
7.2131688857
  0
LINE
  5
5F7
100
AcDbEntity
  8
CURVE
100
AcDbLine
 62
253
  6
CONTINUOUS
 10
-19.0522331123
 20
9.7977188857
 11
-20.6616387598
 21
10.4029898857
  0
LINE
  5
5F8
100
AcDbEntity
  8
CURVE
100
AcDbLine
 62
253
  6
CONTINUOUS
 10
-19.6478206491
 20
10.5565258857
 11
-17.7628689549
 21
9.8368588857
  0
LINE
  5
5F9
100
AcDbEntity
  8
CURVE
100
AcDbLine
 62
253
  6
CONTINUOUS
 10
-10.9992966753
 20
-16.9663451143
 11
-10.9992966753
 21
-13.4663451143
  0
LINE
  5
5FA
100
AcDbEntity
  8
CURVE
100
AcDbLine
 62
253
  6
CONTINUOUS
 10
-10.6441564561
 20
11.6693691067
 11
-10.6441564561
 21
10.7193692199
  0
LINE
  5
5FB
100
AcDbEntity
  8
CURVE
100
AcDbLine
 62
253
  6
CONTINUOUS
 10
-10.2370756048
 20
15.6050833277
 11
-10.2370756048
 21
15.4693691067
  0
LINE
  5
5FC
100
AcDbEntity
  8
CURVE
100
AcDbLine
 62
253
  6
CONTINUOUS
 10
-10.2370756048
 20
12.8907977752
 11
-10.2370756048
 21
12.4836548857
  0
LINE
  5
5FD
100
AcDbEntity
  8
CURVE
100
AcDbLine
 62
253
  6
CONTINUOUS
 10
-10.2370756048
 20
13.7050833277
 11
-10.2370756048
 21
14.2479406647
  0
LINE
  5
5FE
100
AcDbEntity
  8
IMPORT_IGES
100
AcDbLine
 62
7
  6
CONTINUOUS
 10
-9.9364801877
 20
-6.3813044388
 11
-9.9364801877
 21
-9.347285222
  0
LINE
  5
5FF
100
AcDbEntity
  8
CURVE
100
AcDbLine
 62
253
  6
CONTINUOUS
 10
-9.499753555
 20
-13.4663451143
 11
-9.499753555
 21
-16.9663451143
  0
LINE
  5
600
100
AcDbEntity
  8
CURVE
100
AcDbLine
 62
253
  6
CONTINUOUS
 10
-17.7628689549
 20
13.1148388857
 11
-18.3415666377
 21
12.9580418857
  0
LINE
  5
601
100
AcDbEntity
  8
CURVE
100
AcDbLine
 62
253
  6
CONTINUOUS
 10
-18.7893602043
 20
12.8370788857
 11
-19.8651304394
 21
12.5589488857
  0
LINE
  5
602
100
AcDbEntity
  8
CURVE
100
AcDbLine
 62
253
  6
CONTINUOUS
 10
-20.6616387598
 20
11.0018468857
 11
-17.7628689549
 21
11.2729968857
  0
LINE
  5
603
100
AcDbEntity
  8
CURVE
100
AcDbLine
 62
253
  6
CONTINUOUS
 10
-15.6749760926
 20
10.9084248857
 11
-13.2486113557
 21
10.9084248857
  0
LINE
  5
604
100
AcDbEntity
  8
CURVE
100
AcDbLine
 62
253
  6
CONTINUOUS
 10
-10.2370756048
 20
11.3527025155
 11
-11.1869309152
 21
11.3527025155
  0
LINE
  5
605
100
AcDbEntity
  8
CURVE
100
AcDbLine
 62
253
  6
CONTINUOUS
 10
-10.5084628484
 20
12.2122262172
 11
-11.0512373075
 21
12.2122262172
  0
LINE
  5
606
100
AcDbEntity
  8
CURVE
100
AcDbLine
 62
253
  6
CONTINUOUS
 10
-11.4583181305
 20
12.3027025155
 11
-11.8653990102
 21
12.3027025155
  0
LINE
  5
607
100
AcDbEntity
  8
CURVE
100
AcDbLine
 62
253
  6
CONTINUOUS
 10
-13.8503150291
 20
12.3624088857
 11
-16.1477290546
 21
12.3624088857
  0
LINE
  5
608
100
AcDbEntity
  8
CURVE
100
AcDbLine
 62
253
  6
CONTINUOUS
 10
-19.8651304394
 20
12.5589488857
 11
-18.7893602043
 21
12.2575738857
  0
LINE
  5
609
100
AcDbEntity
  8
CURVE
100
AcDbLine
 62
253
  6
CONTINUOUS
 10
-18.3415666377
 20
12.1337628857
 11
-17.7628689549
 21
11.9667458857
  0
LINE
  5
60A
100
AcDbEntity
  8
CURVE
100
AcDbLine
 62
253
  6
CONTINUOUS
 10
-17.7628689549
 20
11.3680408857
 11
-20.6616387598
 21
12.2775568857
  0
LINE
  5
60B
100
AcDbEntity
  8
CURVE
100
AcDbLine
 62
253
  6
CONTINUOUS
 10
-8.2501342882
 20
-11.5663451143
 11
-8.2501342882
 21
-13.1949161143
  0
LINE
  5
60C
100
AcDbEntity
  8
IMPORT_IGES
100
AcDbLine
 62
7
  6
CONTINUOUS
 10
-8.2350956418
 20
-6.2121999259
 11
-8.2350956418
 21
-9.5204903028
  0
LINE
  5
60D
100
AcDbEntity
  8
CURVE
100
AcDbLine
 62
253
  6
CONTINUOUS
 10
-7.3004236453
 20
-13.1949161143
 11
-7.3004236453
 21
-11.5663451143
  0
LINE
  5
60E
100
AcDbEntity
  8
IMPORT_IGES
100
AcDbLine
 62
7
  6
CONTINUOUS
 10
-7.2350956418
 20
-6.214406791
 11
-7.2350956418
 21
-9.5182834377
  0
LINE
  5
60F
100
AcDbEntity
  8
CURVE
100
AcDbLine
 62
253
  6
CONTINUOUS
 10
-16.1477290546
 20
12.9448528857
 11
-13.2486113557
 21
12.9448528857
  0
LINE
  5
610
100
AcDbEntity
  8
CURVE
100
AcDbLine
 62
253
  6
CONTINUOUS
 10
-11.8653990102
 20
13.0717501453
 11
-11.4583181305
 21
13.0717501453
  0
LINE
  5
611
100
AcDbEntity
  8
CURVE
100
AcDbLine
 62
253
  6
CONTINUOUS
 10
-11.0512373075
 20
13.1622262172
 11
-10.5084628484
 21
13.1622262172
  0
LINE
  5
612
100
AcDbEntity
  8
CURVE
100
AcDbLine
 62
253
  6
CONTINUOUS
 10
-11.3226245795
 20
13.7050833277
 11
-12.1367862255
 21
13.7050833277
  0
LINE
  5
613
100
AcDbEntity
  8
CURVE
100
AcDbLine
 62
253
  6
CONTINUOUS
 10
-20.6277716845
 20
13.9305069861
 11
-17.7628688615
 21
13.9305069861
  0
LINE
  5
614
100
AcDbEntity
  8
CURVE
100
AcDbLine
 62
253
  6
CONTINUOUS
 10
-19.372035835
 20
14.5132730586
 11
-20.1678047379
 21
14.5132730586
  0
LINE
  5
615
100
AcDbEntity
  8
CURVE
100
AcDbLine
 62
253
  6
CONTINUOUS
 10
-10.5084628484
 20
14.5193691067
 11
-11.0512373075
 21
14.5193691067
  0
LINE
  5
616
100
AcDbEntity
  8
CURVE
100
AcDbLine
 62
253
  6
CONTINUOUS
 10
-17.7628688615
 20
14.5333429473
 11
-18.8972873419
 21
14.5333429473
  0
LINE
  5
617
100
AcDbEntity
  8
CURVE
100
AcDbLine
 62
253
  6
CONTINUOUS
 10
-10.6441564561
 20
10.7193692199
 11
-12.1367862255
 21
11.1265119962
  0
LINE
  5
618
100
AcDbEntity
  8
CURVE
100
AcDbLine
 62
253
  6
CONTINUOUS
 10
-11.5940117948
 20
9.6336548857
 11
-12.1367862255
 21
10.1765120528
  0
LINE
  5
619
100
AcDbEntity
  8
RACCORDO
100
AcDbLine
 62
7
  6
CONTINUOUS
 10
-6.9350956418
 20
-6.2068486413
 11
-6.9350956418
 21
-9.5258415874
  0
LINE
  5
61A
100
AcDbEntity
  8
CURVE
100
AcDbLine
 62
253
  6
CONTINUOUS
 10
-6.7577309925
 20
-13.4663451143
 11
-6.7577309925
 21
-11.5663451143
  0
LINE
  5
61B
100
AcDbEntity
  8
RACCORDO
100
AcDbLine
 62
7
  6
CONTINUOUS
 10
-5.9350956418
 20
-6.1816548089
 11
-5.9350956418
 21
-9.5510354198
  0
LINE
  5
61C
100
AcDbEntity
  8
CURVE
100
AcDbLine
 62
253
  6
CONTINUOUS
 10
-5.8080203497
 20
-11.8377741143
 11
-5.8080203497
 21
-12.3806311143
  0
LINE
  5
61D
100
AcDbEntity
  8
ASSI
100
AcDbLine
 62
253
  6
CONTINUOUS
 10
-5.0702610963
 20
-10.3677028684
 11
-5.0702610963
 21
-17.956779814
  0
LINE
  5
61E
100
AcDbEntity
  8
RACCORDO
100
AcDbLine
 62
253
  6
CONTINUOUS
 10
-5.0702610963
 20
-10.3677028684
 11
-5.0702610963
 21
-17.956779814
  0
LINE
  5
61F
100
AcDbEntity
  8
ASSI
100
AcDbLine
 62
253
  6
CONTINUOUS
 10
-5.0702610963
 20
-5.3649873603
 11
-5.0702610963
 21
18.024088296
  0
LINE
  5
620
100
AcDbEntity
  8
RACCORDO
100
AcDbLine
 62
253
  6
CONTINUOUS
 10
-5.0702610963
 20
-5.3649873603
 11
-5.0702610963
 21
18.024088296
  0
LINE
  5
621
100
AcDbEntity
  8
CURVE
100
AcDbLine
 62
253
  6
CONTINUOUS
 10
-10.2495251152
 20
-11.9663451143
 11
-11.7490682354
 21
-13.4663451143
  0
LINE
  5
622
100
AcDbEntity
  8
CURVE
100
AcDbLine
 62
253
  6
CONTINUOUS
 10
-10.7798500921
 20
15.0622264437
 11
-11.5940117948
 21
15.0622264437
  0
LINE
  5
623
100
AcDbEntity
  8
CURVE
100
AcDbLine
 62
253
  6
CONTINUOUS
 10
-19.1159890172
 20
15.4866300405
 11
-19.1331182211
 21
15.4866300405
  0
LINE
  5
624
100
AcDbEntity
  8
CURVE
100
AcDbLine
 62
253
  6
CONTINUOUS
 10
-11.5940117948
 20
16.0122264437
 11
-10.7798500921
 21
16.0122264437
  0
LINE
  5
625
100
AcDbEntity
  8
CURVE
100
AcDbLine
 62
253
  6
CONTINUOUS
 10
-14.3448493547
 20
14.2101458857
 11
-15.5935738942
 21
14.6401038857
  0
LINE
  5
626
100
AcDbEntity
  8
CURVE
100
AcDbLine
 62
253
  6
CONTINUOUS
 10
-13.2486113557
 20
13.8325438857
 11
-13.863063145
 21
14.0495008857
  0
LINE
  5
627
100
AcDbEntity
  8
CURVE
100
AcDbLine
 62
253
  6
CONTINUOUS
 10
-16.1477290546
 20
14.2865388857
 11
-13.2486113557
 21
13.2380948857
  0
LINE
  5
628
100
AcDbEntity
  8
CURVE
100
AcDbLine
 62
253
  6
CONTINUOUS
 10
-11.8653990102
 20
12.3027025155
 11
-12.1367862255
 21
12.4836548857
  0
LINE
  5
629
100
AcDbEntity
  8
CURVE
100
AcDbLine
 62
253
  6
CONTINUOUS
 10
-11.0512373075
 20
12.2122262172
 11
-11.3226245795
 21
12.4836548857
  0
LINE
  5
62A
100
AcDbEntity
  8
CURVE
100
AcDbLine
 62
253
  6
CONTINUOUS
 10
-11.4583181305
 20
13.0717501453
 11
-11.3226245795
 21
12.8907977752
  0
LINE
  5
62B
100
AcDbEntity
  8
RACCORDO
100
AcDbLine
 62
253
  6
CONTINUOUS
 10
-4.4281157424
 20
-9.5999171807
 11
-4.4281157424
 21
-6.1327719535
  0
LINE
  5
62C
100
AcDbEntity
  8
ASSI
100
AcDbLine
 62
7
  6
CONTINUOUS
 10
-4.2350956418
 20
-18.4994062071
 11
-4.2350956418
 21
-9.765565073
  0
LINE
  5
62D
100
AcDbEntity
  8
ASSI
100
AcDbLine
 62
7
  6
CONTINUOUS
 10
-4.2350956418
 20
-5.9671251557
 11
-4.2350956418
 21
18.5667159784
  0
LINE
  5
62E
100
AcDbEntity
  8
RACCORDO
100
AcDbLine
 62
7
  6
CONTINUOUS
 10
-4.2350956418
 20
-18.4994062071
 11
-4.2350956418
 21
19.1811518226
  0
LINE
  5
62F
100
AcDbEntity
  8
RACCORDO
100
AcDbLine
 62
7
  6
CONTINUOUS
 10
-25.7350956418
 20
-23.0889948452
 11
-26.6100956418
 21
-23.5941763307
  0
LINE
  5
630
100
AcDbEntity
  8
RACCORDO
100
AcDbLine
 62
253
  6
CONTINUOUS
 10
-25.4865500746
 20
-23.2333324125
 11
-26.4865500746
 21
-23.8106826816
  0
LINE
  5
631
100
AcDbEntity
  8
ASSI
100
AcDbLine
 62
253
  6
CONTINUOUS
 10
-5.0702610963
 20
18.0240199168
 11
-4.2350956418
 21
18.0240199168
  0
LINE
  5
632
100
AcDbEntity
  8
RACCORDO
100
AcDbLine
 62
253
  6
CONTINUOUS
 10
-5.0702610963
 20
18.0240199168
 11
-4.2350956418
 21
18.0240199168
  0
LINE
  5
633
100
AcDbEntity
  8
RACCORDO
100
AcDbLine
 62
253
  6
CONTINUOUS
 10
-4.2959607755
 20
18.8813345834
 11
-4.2350956418
 21
18.8813345745
  0
LINE
  5
634
100
AcDbEntity
  8
ASSI
100
AcDbLine
 62
253
  6
CONTINUOUS
 10
-5.0702610963
 20
18.024088296
 11
-23.2350956418
 21
18.1553539344
  0
LINE
  5
635
100
AcDbEntity
  8
RACCORDO
100
AcDbLine
 62
253
  6
CONTINUOUS
 10
-5.0702610963
 20
18.024088296
 11
-23.2350956418
 21
18.1553539344
  0
LINE
  5
636
100
AcDbEntity
  8
CURVE
100
AcDbLine
 62
253
  6
CONTINUOUS
 10
-11.5940117948
 20
15.0622264437
 11
-11.8653990102
 21
15.1979406647
  0
LINE
  5
637
100
AcDbEntity
  8
RACCORDO
100
AcDbLine
 62
7
  6
CONTINUOUS
 10
-26.6100956418
 20
23.661486102
 11
-25.7350956418
 21
23.1563046165
  0
LINE
  5
638
100
AcDbEntity
  8
RACCORDO
100
AcDbLine
 62
253
  6
CONTINUOUS
 10
-26.4865500746
 20
23.877992453
 11
-25.4865500746
 21
23.3006421838
  0
LINE
  5
639
100
AcDbEntity
  8
CURVE
100
AcDbLine
 62
253
  6
CONTINUOUS
 10
-10.5084628484
 20
13.1622262172
 11
-10.2370756048
 21
12.8907977752
  0
LINE
  5
63A
100
AcDbEntity
  8
CURVE
100
AcDbLine
 62
253
  6
CONTINUOUS
 10
-11.8653990102
 20
15.1979406647
 11
-12.1367862255
 21
15.4693691067
  0
LINE
  5
63B
100
AcDbEntity
  8
CURVE
100
AcDbLine
 62
253
  6
CONTINUOUS
 10
-10.2370756048
 20
14.2479406647
 11
-10.5084628484
 21
14.5193691067
  0
LINE
  5
63C
100
AcDbEntity
  8
CURVE
100
AcDbLine
 62
253
  6
CONTINUOUS
 10
-7.571768972
 20
-13.4663451143
 11
-7.3004236453
 21
-13.1949161143
  0
LINE
  5
63D
100
AcDbEntity
  8
CURVE
100
AcDbLine
 62
253
  6
CONTINUOUS
 10
-5.8080203497
 20
-12.3806311143
 11
-6.0793666761
 21
-12.6520591143
  0
LINE
  5
63E
100
AcDbEntity
  8
RACCORDO
100
AcDbLine
 62
7
  6
CONTINUOUS
 10
-13.2350956418
 20
21.0209235636
 11
-23.2350956418
 21
20.9336548857
  0
LINE
  5
63F
100
AcDbEntity
  8
ASSI
100
AcDbLine
 62
253
  6
CONTINUOUS
 10
-7.1662702386
 20
19.4531724949
 11
-23.2350956418
 21
19.5693521052
  0
LINE
  5
640
100
AcDbEntity
  8
RACCORDO
100
AcDbLine
 62
253
  6
CONTINUOUS
 10
-7.1662702386
 20
19.4531724949
 11
-23.2350956418
 21
19.5693521052
  0
LINE
  5
641
100
AcDbEntity
  8
ASSI
100
AcDbLine
 62
7
  6
CONTINUOUS
 10
-13.2350956418
 20
19.5591042364
 11
-5.0702610963
 21
19.4165865193
  0
LINE
  5
642
100
AcDbEntity
  8
RACCORDO
100
AcDbLine
 62
7
  6
CONTINUOUS
 10
-13.2350956418
 20
19.5591042364
 11
-5.0702610963
 21
19.4165865193
  0
LINE
  5
643
100
AcDbEntity
  8
ASSI
100
AcDbLine
 62
7
  6
CONTINUOUS
 10
-13.2350956418
 20
20.1591042364
 11
-23.2350956418
 21
20.3336548857
  0
LINE
  5
644
100
AcDbEntity
  8
DRAFT
100
AcDbLine
 62
7
  6
CONTINUOUS
 10
-13.2350956418
 20
20.1591042364
 11
-23.2350956418
 21
20.3336548857
  0
LINE
  5
645
100
AcDbEntity
  8
RACCORDO
100
AcDbLine
 62
7
  6
CONTINUOUS
 10
-4.4281157424
 20
19.381029988
 11
-4.9075137162
 21
19.3977709341
  0
LINE
  5
646
100
AcDbEntity
  8
RACCORDO
100
AcDbLine
 62
253
  6
CONTINUOUS
 10
-32.8212508115
 20
20.5755607421
 11
-33.3121016058
 21
20.5961232101
  0
LINE
  5
647
100
AcDbEntity
  8
CURVE
100
AcDbLine
 62
253
  6
CONTINUOUS
 10
-10.7798500921
 20
16.0122264437
 11
-10.5084628484
 21
15.8765122227
  0
LINE
  5
648
100
AcDbEntity
  8
CURVE
100
AcDbLine
 62
253
  6
CONTINUOUS
 10
-10.5084628484
 20
15.8765122227
 11
-10.2370756048
 21
15.6050833277
  0
LINE
  5
649
100
AcDbEntity
  8
RACCORDO
100
AcDbLine
 62
253
  6
CONTINUOUS
 10
-24.0901609989
 20
21.9410217364
 11
-31.8744327558
 21
21.5330653402
  0
LINE
  5
64A
100
AcDbEntity
  8
RACCORDO
100
AcDbLine
 62
7
  6
CONTINUOUS
 10
-31.8918745307
 20
22.0323801076
 11
-25.6106387838
 21
22.3615657243
  0
LINE
  5
64B
100
AcDbEntity
  8
RACCORDO
100
AcDbLine
 62
7
  6
CONTINUOUS
 10
-13.7263694386
 20
21.5996303189
 11
-23.2350956418
 21
21.4336548857
  0
LINE
  5
64C
100
AcDbEntity
  8
RACCORDO
100
AcDbLine
 62
253
  6
CONTINUOUS
 10
-23.2350956418
 20
21.933559694
 11
-24.0901609989
 21
21.9410217364
  0
LINE
  5
64D
100
AcDbEntity
  8
RACCORDO
100
AcDbLine
 62
7
  6
CONTINUOUS
 10
-14.2263691063
 20
22.3550369202
 11
-24.2350956418
 21
22.4420717214
  0
LINE
  5
64E
100
AcDbEntity
  8
ASSI
100
AcDbLine
 62
7
  6
CONTINUOUS
 10
-13.8326916375
 20
22.2695353133
 11
-13.2350956418
 21
22.2591042364
  0
LINE
  5
64F
100
AcDbEntity
  8
DRAFT
100
AcDbLine
 62
7
  6
CONTINUOUS
 10
-13.8326916375
 20
22.2695353133
 11
-13.2350956418
 21
22.2591042364
  0
LINE
  5
650
100
AcDbEntity
  8
RACCORDO
100
AcDbLine
 62
253
  6
CONTINUOUS
 10
-24.2350956418
 20
24.2836591164
 11
-26.4865500746
 21
24.2705605377
  0
LINE
  5
651
100
AcDbEntity
  8
RACCORDO
100
AcDbLine
 62
7
  6
CONTINUOUS
 10
-24.2350956418
 20
24.5336548857
 11
-26.4865500746
 21
24.5205563069
  0
LINE
  5
652
100
AcDbEntity
  8
RACCORDO
100
AcDbLine
 62
253
  6
CONTINUOUS
 10
-26.7350956418
 20
23.877992453
 11
-26.4865500746
 21
23.877992453
  0
LINE
  5
653
100
AcDbEntity
  8
RACCORDO
100
AcDbLine
 62
253
  6
CONTINUOUS
 10
-23.2350956418
 20
23.877992453
 11
-23.4836412089
 21
23.877992453
  0
LINE
  5
654
100
AcDbEntity
  8
RACCORDO
100
AcDbLine
 62
253
  6
CONTINUOUS
 10
-26.7350956418
 20
24.2705605377
 11
-26.4865500746
 21
24.2705605377
  0
LINE
  5
655
100
AcDbEntity
  8
RACCORDO
100
AcDbLine
 62
253
  6
CONTINUOUS
 10
-23.2350956418
 20
24.2792872824
 11
-23.4836412089
 21
24.2792872824
  0
LINE
  5
656
100
AcDbEntity
  8
ASSI
100
AcDbLine
 62
7
  6
CONTINUOUS
 10
-23.2353874275
 20
23.8278387534
 11
-16.7321867761
 21
23.7900042388
  0
LINE
  5
657
100
AcDbEntity
  8
RACCORDO
100
AcDbLine
 62
253
  6
CONTINUOUS
 10
-23.4836412089
 20
24.2792872824
 11
-24.2350956418
 21
24.2836591164
  0
LINE
  5
658
100
AcDbEntity
  8
RACCORDO
100
AcDbLine
 62
7
  6
CONTINUOUS
 10
-23.4836412089
 20
24.5292830517
 11
-24.2350956418
 21
24.5336548857
  0
ARC
  5
659
100
AcDbEntity
  8
RACCORDO
100
AcDbCircle
 62
7
  6
CONTINUOUS
 10
6.5396993281
 20
-21.8735275134
 40
0.500365695
100
AcDbArc
 50
180.0211211093
 51
243.431041905
  0
ARC
  5
65A
100
AcDbEntity
  8
RACCORDO
100
AcDbCircle
 62
253
  6
CONTINUOUS
 10
6.6753436492
 20
-21.4648810085
 40
0.5001648566
100
AcDbArc
 50
180.1001898918
 51
269.9757012418
  0
ARC
  5
65B
100
AcDbEntity
  8
RACCORDO
100
AcDbCircle
 62
253
  6
CONTINUOUS
 10
19.7132705232
 20
-5.6774820754
 40
0.5001063786
100
AcDbArc
 50
180.0208079909
 51
269.9791920315
  0
ARC
  5
65C
100
AcDbEntity
  8
RACCORDO
100
AcDbCircle
 62
7
  6
CONTINUOUS
 10
19.6244074844
 20
-5.7663451143
 40
0.5
100
AcDbArc
 50
180.0
 51
270.0
  0
ARC
  5
65D
100
AcDbEntity
  8
RACCORDO
100
AcDbCircle
 62
7
  6
CONTINUOUS
 10
6.5394814625
 20
-21.8738342424
 40
0.4999929279
100
AcDbArc
 50
243.4376500525
 51
268.177328329
  0
ARC
  5
65E
100
AcDbEntity
  8
RACCORDO
100
AcDbCircle
 62
7
  6
CONTINUOUS
 10
25.6875120463
 20
-24.2032405525
 40
0.2500059834
100
AcDbArc
 50
180.0023408115
 51
269.9976591885
  0
ARC
  5
65F
100
AcDbEntity
  8
RACCORDO
100
AcDbCircle
 62
7
  6
CONTINUOUS
 10
27.5613029225
 20
-24.2032405525
 40
0.2500059834
100
AcDbArc
 50
270.0023408115
 51
359.9976591885
  0
ARC
  5
660
100
AcDbEntity
  8
RACCORDO
100
AcDbCircle
 62
7
  6
CONTINUOUS
 10
6.7875120463
 20
-24.2032405524
 40
0.2500059834
100
AcDbArc
 50
180.0023408215
 51
269.9976591785
  0
ARC
  5
661
100
AcDbEntity
  8
RACCORDO
100
AcDbCircle
 62
7
  6
CONTINUOUS
 10
8.6613029225
 20
-24.2032405525
 40
0.2500059834
100
AcDbArc
 50
270.0023408115
 51
359.9976591885
  0
ARC
  5
662
100
AcDbEntity
  8
RACCORDO
100
AcDbCircle
 62
7
  6
CONTINUOUS
 10
25.674394889
 20
-24.2164306794
 40
0.2499144351
100
AcDbArc
 50
209.9955094476
 51
270.0019176864
  0
ARC
  5
663
100
AcDbEntity
  8
RACCORDO
100
AcDbCircle
 62
7
  6
CONTINUOUS
 10
27.5744930495
 20
-24.2163577098
 40
0.2499144351
100
AcDbArc
 50
299.9955094476
 51
0.0019176864
  0
ARC
  5
664
100
AcDbEntity
  8
RACCORDO
100
AcDbCircle
 62
7
  6
CONTINUOUS
 10
6.774394889
 20
-24.2164306794
 40
0.2499144351
100
AcDbArc
 50
209.9955094476
 51
270.0019176864
  0
ARC
  5
665
100
AcDbEntity
  8
RACCORDO
100
AcDbCircle
 62
7
  6
CONTINUOUS
 10
8.6744930495
 20
-24.2163577098
 40
0.2499144351
100
AcDbArc
 50
299.9955094476
 51
0.0019176864
  0
ARC
  5
666
100
AcDbEntity
  8
RACCORDO
100
AcDbCircle
 62
7
  6
CONTINUOUS
 10
25.6729664978
 20
-24.2162412025
 40
0.248559037
100
AcDbArc
 50
180.0249281439
 51
187.5678093652
  0
ARC
  5
667
100
AcDbEntity
  8
RACCORDO
100
AcDbCircle
 62
7
  6
CONTINUOUS
 10
27.5743035726
 20
-24.2177861009
 40
0.248559037
100
AcDbArc
 50
270.0249281439
 51
277.5678093652
  0
ARC
  5
668
100
AcDbEntity
  8
RACCORDO
100
AcDbCircle
 62
7
  6
CONTINUOUS
 10
6.7729664978
 20
-24.2162412025
 40
0.248559037
100
AcDbArc
 50
180.0249281439
 51
187.5678093652
  0
ARC
  5
669
100
AcDbEntity
  8
RACCORDO
100
AcDbCircle
 62
7
  6
CONTINUOUS
 10
8.6743035726
 20
-24.2177861009
 40
0.248559037
100
AcDbArc
 50
270.0249281439
 51
277.5678093652
  0
ARC
  5
66A
100
AcDbEntity
  8
RACCORDO
100
AcDbCircle
 62
7
  6
CONTINUOUS
 10
6.5396992747
 20
21.9408372057
 40
0.500365695
100
AcDbArc
 50
116.5689485743
 51
179.9788698342
  0
ARC
  5
66B
100
AcDbEntity
  8
RACCORDO
100
AcDbCircle
 62
253
  6
CONTINUOUS
 10
6.6753436501
 20
21.5321907795
 40
0.5001648569
100
AcDbArc
 50
90.0242988546
 51
179.8998100659
  0
ARC
  5
66C
100
AcDbEntity
  8
RACCORDO
100
AcDbCircle
 62
253
  6
CONTINUOUS
 10
19.7132705431
 20
8.744791827
 40
0.5001064014
100
AcDbArc
 50
90.0208102483
 51
179.9791897517
  0
ARC
  5
66D
100
AcDbEntity
  8
RACCORDO
100
AcDbCircle
 62
7
  6
CONTINUOUS
 10
19.6244074844
 20
8.8336548857
 40
0.5
100
AcDbArc
 50
90.0
 51
180.0
  0
ARC
  5
66E
100
AcDbEntity
  8
RACCORDO
100
AcDbCircle
 62
7
  6
CONTINUOUS
 10
6.5394814625
 20
21.9411440137
 40
0.4999929279
100
AcDbArc
 50
91.822671671
 51
116.5623499475
  0
ARC
  5
66F
100
AcDbEntity
  8
RACCORDO
100
AcDbCircle
 62
7
  6
CONTINUOUS
 10
27.5613029225
 20
24.2705503237
 40
0.2500059834
100
AcDbArc
 50
0.0023408215
 51
89.9976591785
  0
ARC
  5
670
100
AcDbEntity
  8
RACCORDO
100
AcDbCircle
 62
7
  6
CONTINUOUS
 10
25.6875120463
 20
24.2705503238
 40
0.2500059834
100
AcDbArc
 50
90.0023408115
 51
179.9976591885
  0
ARC
  5
671
100
AcDbEntity
  8
RACCORDO
100
AcDbCircle
 62
7
  6
CONTINUOUS
 10
6.7875120463
 20
24.2705503237
 40
0.2500059834
100
AcDbArc
 50
90.0023408215
 51
179.9976591785
  0
ARC
  5
672
100
AcDbEntity
  8
RACCORDO
100
AcDbCircle
 62
7
  6
CONTINUOUS
 10
8.6613029225
 20
24.2705503238
 40
0.2500059834
100
AcDbArc
 50
0.0023408115
 51
89.9976591885
  0
ARC
  5
673
100
AcDbEntity
  8
RACCORDO
100
AcDbCircle
 62
7
  6
CONTINUOUS
 10
27.5744200798
 20
24.2837404507
 40
0.2499144351
100
AcDbArc
 50
29.9955094476
 51
90.0019176864
  0
ARC
  5
674
100
AcDbEntity
  8
RACCORDO
100
AcDbCircle
 62
7
  6
CONTINUOUS
 10
25.6743219193
 20
24.2836674811
 40
0.2499144351
100
AcDbArc
 50
119.9955094476
 51
180.0019176864
  0
ARC
  5
675
100
AcDbEntity
  8
RACCORDO
100
AcDbCircle
 62
7
  6
CONTINUOUS
 10
6.7743219193
 20
24.2836674811
 40
0.2499144351
100
AcDbArc
 50
119.9955094476
 51
180.0019176864
  0
ARC
  5
676
100
AcDbEntity
  8
RACCORDO
100
AcDbCircle
 62
7
  6
CONTINUOUS
 10
8.6744200798
 20
24.2837404507
 40
0.2499144351
100
AcDbArc
 50
29.9955094476
 51
90.0019176864
  0
ARC
  5
677
100
AcDbEntity
  8
RACCORDO
100
AcDbCircle
 62
7
  6
CONTINUOUS
 10
27.575848471
 20
24.2835509738
 40
0.248559037
100
AcDbArc
 50
0.0249281439
 51
7.5678093652
  0
ARC
  5
678
100
AcDbEntity
  8
RACCORDO
100
AcDbCircle
 62
7
  6
CONTINUOUS
 10
25.6745113962
 20
24.2850958722
 40
0.248559037
100
AcDbArc
 50
90.0249281439
 51
97.5678093652
  0
ARC
  5
679
100
AcDbEntity
  8
RACCORDO
100
AcDbCircle
 62
7
  6
CONTINUOUS
 10
6.7745113962
 20
24.2850958722
 40
0.248559037
100
AcDbArc
 50
90.0249281439
 51
97.5678093652
  0
ARC
  5
67A
100
AcDbEntity
  8
RACCORDO
100
AcDbCircle
 62
7
  6
CONTINUOUS
 10
8.675848471
 20
24.2835509738
 40
0.248559037
100
AcDbArc
 50
0.0249281439
 51
7.5678093652
  0
ARC
  5
67B
100
AcDbEntity
  8
RACCORDO
100
AcDbCircle
 62
7
  6
CONTINUOUS
 10
29.2875120463
 20
-24.2032405524
 40
0.2500059834
100
AcDbArc
 50
180.0023408215
 51
269.9976591785
  0
ARC
  5
67C
100
AcDbEntity
  8
RACCORDO
100
AcDbCircle
 62
7
  6
CONTINUOUS
 10
31.1613029225
 20
-24.2032405525
 40
0.2500059834
100
AcDbArc
 50
270.0023408115
 51
359.9976591885
  0
ARC
  5
67D
100
AcDbEntity
  8
RACCORDO
100
AcDbCircle
 62
7
  6
CONTINUOUS
 10
29.274394889
 20
-24.2164306794
 40
0.2499144351
100
AcDbArc
 50
209.9955094476
 51
270.0019176864
  0
ARC
  5
67E
100
AcDbEntity
  8
RACCORDO
100
AcDbCircle
 62
7
  6
CONTINUOUS
 10
31.1744930495
 20
-24.2163577098
 40
0.2499144351
100
AcDbArc
 50
299.9955094476
 51
0.0019176864
  0
ARC
  5
67F
100
AcDbEntity
  8
RACCORDO
100
AcDbCircle
 62
7
  6
CONTINUOUS
 10
29.2729664978
 20
-24.2162412025
 40
0.248559037
100
AcDbArc
 50
180.0249281439
 51
187.5678093652
  0
ARC
  5
680
100
AcDbEntity
  8
RACCORDO
100
AcDbCircle
 62
7
  6
CONTINUOUS
 10
31.1743035726
 20
-24.2177861009
 40
0.248559037
100
AcDbArc
 50
270.0249281439
 51
277.5678093652
  0
CIRCLE
  5
681
100
AcDbEntity
  8
0
100
AcDbCircle
 62
7
  6
CONTINUOUS
 10
35.4244074734
 20
-13.9663451144
 40
2.5000000119
  0
CIRCLE
  5
682
100
AcDbEntity
  8
0
100
AcDbCircle
 62
7
  6
CONTINUOUS
 10
35.4244074844
 20
-13.9663451143
 40
1.25
  0
CIRCLE
  5
683
100
AcDbEntity
  8
RACCORDO
100
AcDbCircle
 62
7
  6
CONTINUOUS
 10
35.4244074844
 20
-13.9663451143
 40
1.225
  0
CIRCLE
  5
684
100
AcDbEntity
  8
RACCORDO
100
AcDbCircle
 62
253
  6
CONTINUOUS
 10
35.4244074844
 20
-13.9663451143
 40
1.0459181267
  0
ARC
  5
685
100
AcDbEntity
  8
RACCORDO
100
AcDbCircle
 62
253
  6
CONTINUOUS
 10
37.1355444364
 20
-5.6774820664
 40
0.500106389
100
AcDbArc
 50
270.0208090263
 51
359.9791909876
  0
ARC
  5
686
100
AcDbEntity
  8
RACCORDO
100
AcDbCircle
 62
7
  6
CONTINUOUS
 10
37.2244074844
 20
-5.7663451143
 40
0.5
100
AcDbArc
 50
270.0
 51
360.0
  0
ARC
  5
687
100
AcDbEntity
  8
RACCORDO
100
AcDbCircle
 62
7
  6
CONTINUOUS
 10
50.3091156985
 20
-21.8735275352
 40
0.500365695
100
AcDbArc
 50
296.5689532976
 51
359.9788813838
  0
ARC
  5
688
100
AcDbEntity
  8
RACCORDO
100
AcDbCircle
 62
253
  6
CONTINUOUS
 10
50.1734713222
 20
-21.4648810045
 40
0.5001648571
100
AcDbArc
 50
270.0242984548
 51
359.8998096407
  0
ARC
  5
689
100
AcDbEntity
  8
RACCORDO
100
AcDbCircle
 62
7
  6
CONTINUOUS
 10
50.3093335063
 20
-21.8738342424
 40
0.4999929279
100
AcDbArc
 50
271.822671671
 51
296.5623499475
  0
ARC
  5
68A
100
AcDbEntity
  8
RACCORDO
100
AcDbCircle
 62
7
  6
CONTINUOUS
 10
48.1875120463
 20
-24.2032405525
 40
0.2500059834
100
AcDbArc
 50
180.0023408115
 51
269.9976591885
  0
ARC
  5
68B
100
AcDbEntity
  8
RACCORDO
100
AcDbCircle
 62
7
  6
CONTINUOUS
 10
50.0613029225
 20
-24.2032405525
 40
0.2500059834
100
AcDbArc
 50
270.0023408115
 51
359.9976591885
  0
ARC
  5
68C
100
AcDbEntity
  8
RACCORDO
100
AcDbCircle
 62
7
  6
CONTINUOUS
 10
48.174394889
 20
-24.2164306794
 40
0.2499144351
100
AcDbArc
 50
209.9955094476
 51
270.0019176864
  0
ARC
  5
68D
100
AcDbEntity
  8
RACCORDO
100
AcDbCircle
 62
7
  6
CONTINUOUS
 10
50.0744930495
 20
-24.2163577098
 40
0.2499144351
100
AcDbArc
 50
299.9955094476
 51
0.0019176864
  0
ARC
  5
68E
100
AcDbEntity
  8
RACCORDO
100
AcDbCircle
 62
7
  6
CONTINUOUS
 10
48.1729664978
 20
-24.2162412025
 40
0.248559037
100
AcDbArc
 50
180.0249281439
 51
187.5678093652
  0
ARC
  5
68F
100
AcDbEntity
  8
RACCORDO
100
AcDbCircle
 62
7
  6
CONTINUOUS
 10
50.0743035726
 20
-24.2177861009
 40
0.248559037
100
AcDbArc
 50
270.0249281439
 51
277.5678093652
  0
CIRCLE
  5
690
100
AcDbEntity
  8
0
100
AcDbCircle
 62
7
  6
CONTINUOUS
 10
42.4244074737
 20
-13.9663451144
 40
2.5000000116
  0
CIRCLE
  5
691
100
AcDbEntity
  8
0
100
AcDbCircle
 62
7
  6
CONTINUOUS
 10
42.4244074844
 20
-13.9663451143
 40
1.25
  0
ARC
  5
692
100
AcDbEntity
  8
RACCORDO
100
AcDbCircle
 62
7
  6
CONTINUOUS
 10
50.3091157426
 20
21.9408372359
 40
0.500365695
100
AcDbArc
 50
0.0211267103
 51
63.4310548367
  0
ARC
  5
693
100
AcDbEntity
  8
RACCORDO
100
AcDbCircle
 62
253
  6
CONTINUOUS
 10
50.1734713213
 20
21.5321907745
 40
0.5001648584
100
AcDbArc
 50
0.1001905094
 51
89.9757014343
  0
ARC
  5
694
100
AcDbEntity
  8
RACCORDO
100
AcDbCircle
 62
253
  6
CONTINUOUS
 10
37.1355443958
 20
8.7447917969
 40
0.5001063786
100
AcDbArc
 50
0.0208136923
 51
89.9791863288
  0
ARC
  5
695
100
AcDbEntity
  8
RACCORDO
100
AcDbCircle
 62
7
  6
CONTINUOUS
 10
37.2244074844
 20
8.8336548857
 40
0.5
100
AcDbArc
 50
0.0
 51
90.0
  0
ARC
  5
696
100
AcDbEntity
  8
RACCORDO
100
AcDbCircle
 62
7
  6
CONTINUOUS
 10
50.3093335063
 20
21.9411440137
 40
0.4999929279
100
AcDbArc
 50
63.4376500525
 51
88.177328329
  0
ARC
  5
697
100
AcDbEntity
  8
RACCORDO
100
AcDbCircle
 62
7
  6
CONTINUOUS
 10
50.0613029225
 20
24.2705503237
 40
0.2500059834
100
AcDbArc
 50
0.0023408215
 51
89.9976591785
  0
ARC
  5
698
100
AcDbEntity
  8
RACCORDO
100
AcDbCircle
 62
7
  6
CONTINUOUS
 10
48.1875120463
 20
24.2705503238
 40
0.2500059834
100
AcDbArc
 50
90.0023408115
 51
179.9976591885
  0
ARC
  5
699
100
AcDbEntity
  8
RACCORDO
100
AcDbCircle
 62
7
  6
CONTINUOUS
 10
29.2875120463
 20
24.2705503237
 40
0.2500059834
100
AcDbArc
 50
90.0023408215
 51
179.9976591785
  0
ARC
  5
69A
100
AcDbEntity
  8
RACCORDO
100
AcDbCircle
 62
7
  6
CONTINUOUS
 10
31.1613029225
 20
24.2705503238
 40
0.2500059834
100
AcDbArc
 50
0.0023408115
 51
89.9976591885
  0
ARC
  5
69B
100
AcDbEntity
  8
RACCORDO
100
AcDbCircle
 62
7
  6
CONTINUOUS
 10
50.0744200798
 20
24.2837404507
 40
0.2499144351
100
AcDbArc
 50
29.9955094476
 51
90.0019176864
  0
ARC
  5
69C
100
AcDbEntity
  8
RACCORDO
100
AcDbCircle
 62
7
  6
CONTINUOUS
 10
48.1743219193
 20
24.2836674811
 40
0.2499144351
100
AcDbArc
 50
119.9955094476
 51
180.0019176864
  0
ARC
  5
69D
100
AcDbEntity
  8
RACCORDO
100
AcDbCircle
 62
7
  6
CONTINUOUS
 10
29.2743219193
 20
24.2836674811
 40
0.2499144351
100
AcDbArc
 50
119.9955094476
 51
180.0019176864
  0
ARC
  5
69E
100
AcDbEntity
  8
RACCORDO
100
AcDbCircle
 62
7
  6
CONTINUOUS
 10
31.1744200798
 20
24.2837404507
 40
0.2499144351
100
AcDbArc
 50
29.9955094476
 51
90.0019176864
  0
ARC
  5
69F
100
AcDbEntity
  8
RACCORDO
100
AcDbCircle
 62
7
  6
CONTINUOUS
 10
50.075848471
 20
24.2835509738
 40
0.248559037
100
AcDbArc
 50
0.0249281439
 51
7.5678093652
  0
ARC
  5
6A0
100
AcDbEntity
  8
RACCORDO
100
AcDbCircle
 62
7
  6
CONTINUOUS
 10
48.1745113962
 20
24.2850958722
 40
0.248559037
100
AcDbArc
 50
90.0249281439
 51
97.5678093652
  0
ARC
  5
6A1
100
AcDbEntity
  8
RACCORDO
100
AcDbCircle
 62
7
  6
CONTINUOUS
 10
29.2745113962
 20
24.2850958722
 40
0.248559037
100
AcDbArc
 50
90.0249281439
 51
97.5678093652
  0
ARC
  5
6A2
100
AcDbEntity
  8
RACCORDO
100
AcDbCircle
 62
7
  6
CONTINUOUS
 10
31.175848471
 20
24.2835509738
 40
0.248559037
100
AcDbArc
 50
0.0249281439
 51
7.5678093652
  0
ARC
  5
6A3
100
AcDbEntity
  8
ASSI
100
AcDbCircle
 62
253
  6
CONTINUOUS
 10
-210.4367257248
 20
-18.6748544632
 40
205.3676931213
100
AcDbArc
 50
359.8118421925
 51
0.2003368916
  0
ARC
  5
6A4
100
AcDbEntity
  8
RACCORDO
100
AcDbCircle
 62
253
  6
CONTINUOUS
 10
-210.4367257248
 20
-18.6748544632
 40
205.3676931213
100
AcDbArc
 50
359.8118421925
 51
0.2003368916
  0
ARC
  5
6A5
100
AcDbEntity
  8
RACCORDO
100
AcDbCircle
 62
7
  6
CONTINUOUS
 10
-23.4850956418
 20
-23.8106826816
 40
0.25
100
AcDbArc
 50
0.0
 51
60.0
  0
ARC
  5
6A6
100
AcDbEntity
  8
RACCORDO
100
AcDbCircle
 62
7
  6
CONTINUOUS
 10
-26.4850956418
 20
-24.2032507664
 40
0.25
100
AcDbArc
 50
180.0
 51
269.6666666667
  0
ARC
  5
6A7
100
AcDbEntity
  8
RACCORDO
100
AcDbCircle
 62
7
  6
CONTINUOUS
 10
-23.4850956418
 20
-24.2119775111
 40
0.25
100
AcDbArc
 50
270.3333333333
 51
360.0
  0
ARC
  5
6A8
100
AcDbEntity
  8
RACCORDO
100
AcDbCircle
 62
7
  6
CONTINUOUS
 10
-26.4850956418
 20
-23.8106826816
 40
0.25
100
AcDbArc
 50
120.0
 51
180.0
  0
ARC
  5
6A9
100
AcDbEntity
  8
RACCORDO
100
AcDbCircle
 62
253
  6
CONTINUOUS
 10
-21.7551161726
 20
-16.6134691326
 40
16.532650306
100
AcDbArc
 50
139.4938546081
 51
139.8575057016
  0
ARC
  5
6AA
100
AcDbEntity
  8
RACCORDO
100
AcDbCircle
 62
7
  6
CONTINUOUS
 10
-31.8133705963
 20
-20.4671260342
 40
1.5
100
AcDbArc
 50
182.3569499908
 51
267.0
  0
ARC
  5
6AB
100
AcDbEntity
  8
RACCORDO
100
AcDbCircle
 62
253
  6
CONTINUOUS
 10
-31.8220952905
 20
-20.467124542
 40
1.0000015691
100
AcDbArc
 50
182.357031858
 51
266.9999181328
  0
ARC
  5
6AC
100
AcDbEntity
  8
RACCORDO
100
AcDbCircle
 62
253
  6
CONTINUOUS
 10
-11.2245285437
 20
-25.6053524849
 40
30.3799329597
100
AcDbArc
 50
139.2548294536
 51
139.4996503261
  0
ARC
  5
6AD
100
AcDbEntity
  8
RACCORDO
100
AcDbCircle
 62
7
  6
CONTINUOUS
 10
-14.2350956418
 20
-21.2877652258
 40
1.0
100
AcDbArc
 50
270.5
 51
360.0
  0
ARC
  5
6AE
100
AcDbEntity
  8
ASSI
100
AcDbCircle
 62
7
  6
CONTINUOUS
 10
-16.7350956418
 20
-23.222702929
 40
0.5
100
AcDbArc
 50
270.3333333333
 51
360.0
  0
ARC
  5
6AF
100
AcDbEntity
  8
ASSI
100
AcDbCircle
 62
7
  6
CONTINUOUS
 10
-5.0850956418
 20
-18.4994062071
 40
0.85
100
AcDbArc
 50
271.0
 51
360.0
  0
ARC
  5
6B0
100
AcDbEntity
  8
RACCORDO
100
AcDbCircle
 62
7
  6
CONTINUOUS
 10
-5.0850956418
 20
-18.4994062071
 40
0.85
100
AcDbArc
 50
271.0
 51
360.0
  0
ARC
  5
6B1
100
AcDbEntity
  8
RACCORDO
100
AcDbCircle
 62
7
  6
CONTINUOUS
 10
-38.6030619623
 20
-5.5998791653
 40
0.5
100
AcDbArc
 50
213.2801614554
 51
269.0
  0
ARC
  5
6B2
100
AcDbEntity
  8
ASSI
100
AcDbCircle
 62
253
  6
CONTINUOUS
 10
-210.4365777708
 20
18.7421644811
 40
205.3675451676
100
AcDbArc
 50
359.7996625355
 51
0.1881578744
  0
ARC
  5
6B3
100
AcDbEntity
  8
RACCORDO
100
AcDbCircle
 62
253
  6
CONTINUOUS
 10
-210.4365777708
 20
18.7421644811
 40
205.3675451676
100
AcDbArc
 50
359.7996625355
 51
0.1881578744
  0
ARC
  5
6B4
100
AcDbEntity
  8
COPY-PUBBLISH
100
AcDbCircle
 62
7
  6
CONTINUOUS
 10
-27.7350956418
 20
1.5336548857
 40
13.5
100
AcDbArc
 50
146.7033188383
 51
213.2966939907
  0
ARC
  5
6B5
100
AcDbEntity
  8
ASSI
100
AcDbCircle
 62
7
  6
CONTINUOUS
 10
-27.7350956418
 20
1.5336548857
 40
13.5
100
AcDbArc
 50
215.3828580594
 51
244.145436374
  0
ARC
  5
6B6
100
AcDbEntity
  8
ASSI
100
AcDbCircle
 62
7
  6
CONTINUOUS
 10
-27.7350956418
 20
1.5336548857
 40
13.5
100
AcDbArc
 50
115.5037769337
 51
144.7056053233
  0
ARC
  5
6B7
100
AcDbEntity
  8
RACCORDO
100
AcDbCircle
 62
253
  6
CONTINUOUS
 10
-27.892924113
 20
1.5334539607
 40
9.9163067547
100
AcDbArc
 50
179.9988390699
 51
229.036701515
  0
ARC
  5
6B8
100
AcDbEntity
  8
RACCORDO
100
AcDbCircle
 62
253
  6
CONTINUOUS
 10
-27.8929358531
 20
1.5338750748
 40
9.9162909984
100
AcDbArc
 50
130.9571145099
 51
180.0012722387
  0
ARC
  5
6B9
100
AcDbEntity
  8
RACCORDO
100
AcDbCircle
 62
7
  6
CONTINUOUS
 10
-27.7350956418
 20
1.5336548857
 40
9.7857038582
100
AcDbArc
 50
131.7561242026
 51
228.2438757974
  0
ARC
  5
6BA
100
AcDbEntity
  8
RACCORDO
100
AcDbCircle
 62
7
  6
CONTINUOUS
 10
-38.6030619623
 20
8.6671889366
 40
0.5
100
AcDbArc
 50
91.0
 51
146.7198385446
  0
ARC
  5
6BB
100
AcDbEntity
  8
RACCORDO
100
AcDbCircle
 62
253
  6
CONTINUOUS
 10
-21.7429001598
 20
19.6911175581
 40
16.5486539921
100
AcDbArc
 50
220.1425904316
 51
220.5072026882
  0
ARC
  5
6BC
100
AcDbEntity
  8
RACCORDO
100
AcDbCircle
 62
7
  6
CONTINUOUS
 10
-31.8133705963
 20
20.5344358055
 40
1.5
100
AcDbArc
 50
93.0
 51
177.6430500092
  0
ARC
  5
6BD
100
AcDbEntity
  8
RACCORDO
100
AcDbCircle
 62
253
  6
CONTINUOUS
 10
-31.8220952947
 20
20.5344343175
 40
1.0000015648
100
AcDbArc
 50
93.0000816405
 51
177.6429683687
  0
ARC
  5
6BE
100
AcDbEntity
  8
RACCORDO
100
AcDbCircle
 62
7
  6
CONTINUOUS
 10
-23.4850956418
 20
24.2792872824
 40
0.25
100
AcDbArc
 50
0.0
 51
89.6666666667
  0
ARC
  5
6BF
100
AcDbEntity
  8
RACCORDO
100
AcDbCircle
 62
7
  6
CONTINUOUS
 10
-23.4850956418
 20
23.877992453
 40
0.25
100
AcDbArc
 50
300.0
 51
360.0
  0
ARC
  5
6C0
100
AcDbEntity
  8
RACCORDO
100
AcDbCircle
 62
7
  6
CONTINUOUS
 10
-26.4850956418
 20
24.2705605377
 40
0.25
100
AcDbArc
 50
90.3333333333
 51
180.0
  0
ARC
  5
6C1
100
AcDbEntity
  8
RACCORDO
100
AcDbCircle
 62
7
  6
CONTINUOUS
 10
-26.4850956418
 20
23.877992453
 40
0.25
100
AcDbArc
 50
180.0
 51
240.0
  0
ARC
  5
6C2
100
AcDbEntity
  8
RACCORDO
100
AcDbCircle
 62
7
  6
CONTINUOUS
 10
-14.2350956418
 20
21.3550749972
 40
1.0
100
AcDbArc
 50
0.0
 51
89.5
  0
ARC
  5
6C3
100
AcDbEntity
  8
ASSI
100
AcDbCircle
 62
7
  6
CONTINUOUS
 10
-5.0850956418
 20
18.5667159784
 40
0.85
100
AcDbArc
 50
0.0
 51
89.0
  0
ARC
  5
6C4
100
AcDbEntity
  8
RACCORDO
100
AcDbCircle
 62
7
  6
CONTINUOUS
 10
-5.0850956418
 20
18.5667159784
 40
0.85
100
AcDbArc
 50
0.0
 51
89.0
  0
ARC
  5
6C5
100
AcDbEntity
  8
RACCORDO
100
AcDbCircle
 62
7
  6
CONTINUOUS
 10
-4.4350956418
 20
19.1811375362
 40
0.2
100
AcDbArc
 50
0.0040927493
 51
88.0001428247
  0
ARC
  5
6C6
100
AcDbEntity
  8
RACCORDO
100
AcDbCircle
 62
253
  6
CONTINUOUS
 10
-13.6819813164
 20
26.5669197421
 40
27.1437013483
100
AcDbArc
 50
220.490149446
 51
220.6639446391
  0
ARC
  5
6C7
100
AcDbEntity
  8
ASSI
100
AcDbCircle
 62
7
  6
CONTINUOUS
 10
-16.7350956418
 20
23.2900127004
 40
0.5
100
AcDbArc
 50
0.0
 51
89.6666666667
  0
ARC
  5
6C8
100
AcDbEntity
  8
RACCORDO
100
AcDbCircle
 62
7
  6
CONTINUOUS
 10
466.2649043582
 20
0.0336548857
 40
500.0
100
AcDbArc
 50
177.6430500092
 51
182.3569499908
  0
ARC
  5
6C9
100
AcDbEntity
  8
RACCORDO
100
AcDbCircle
 62
253
  6
CONTINUOUS
 10
466.2561706445
 20
0.0336548857
 40
499.4999924959
100
AcDbArc
 50
177.6430499738
 51
182.3569500262
  0
SPLINE
  5
6CA
100
AcDbEntity
  8
RACCORDO
100
AcDbSpline
 62
253
  6
CONTINUOUS
 70
0
 71
3
 72
10
 73
6
 74
4
 42
0.0000001
 43
0.0000001
 44
0.0000000001
 12
0.2747529308
 22
0.1897344284
 32
0.0
 13
0.0050569482
 23
0.3338603803
 33
0.0
 40
0.0
 40
0.0
 40
0.0
 40
0.0
 40
0.3565540078
 40
0.6869446819
 40
1.0
 40
1.0
 40
1.0
 40
1.0
 10
37.4707767824
 20
-5.9550221047
 30
0.0
 10
37.5034315353
 20
-5.9324719144
 30
0.0
 10
37.5614556091
 20
-5.8809668351
 30
0.0
 10
37.6204200868
 20
-5.7844740431
 30
0.0
 10
37.6351222138
 20
-5.7125026202
 30
0.0
 10
37.6356499153
 20
-5.6776636976
 30
0.0
 11
37.4707767824
 21
-5.9550221047
 31
0.0
 11
37.5589458924
 21
-5.8750233312
 31
0.0
 11
37.6153154208
 21
-5.780195494
 31
0.0
 11
37.6356499153
 21
-5.6776636976
 31
0.0
  0
SPLINE
  5
6CB
100
AcDbEntity
  8
RACCORDO
100
AcDbSpline
 62
253
  6
CONTINUOUS
 70
0
 71
3
 72
11
 73
7
 74
5
 42
0.0000001
 43
0.0000001
 44
0.0000000001
 12
0.4204650353
 22
0.0052941599
 32
0.0
 13
0.202379623
 23
0.3685937631
 33
0.0
 40
0.0
 40
0.0
 40
0.0
 40
0.0
 40
0.2331033214
 40
0.4749995835
 40
0.7318378289
 40
1.0
 40
1.0
 40
1.0
 40
1.0
 10
37.1357260677
 20
-6.1775875452
 30
0.0
 10
37.1683966665
 20
-6.1771761831
 30
0.0
 10
37.2352247611
 20
-6.1661936721
 30
0.0
 10
37.3285838353
 20
-6.1206756455
 30
0.0
 10
37.4101956813
 20
-6.0489613928
 30
0.0
 10
37.4526865961
 20
-5.9879697393
 30
0.0
 10
37.4707767824
 20
-5.9550221047
 30
0.0
 11
37.1357260677
 21
-6.1775875452
 31
0.0
 11
37.2324864959
 21
-6.1619269352
 31
0.0
 11
37.3241963406
 21
-6.1179309251
 31
0.0
 11
37.4057886525
 21
-6.04717283
 31
0.0
 11
37.4707767824
 21
-5.9550221047
 31
0.0
  0
SPLINE
  5
6CC
100
AcDbEntity
  8
RACCORDO
100
AcDbSpline
 62
253
  6
CONTINUOUS
 70
0
 71
3
 72
11
 73
7
 74
5
 42
0.0000001
 43
0.0000001
 44
0.0000000001
 12
0.2023788505
 22
-0.368592356
 32
0.0
 13
0.4204634302
 23
-0.0052941397
 33
0.0
 40
0.0
 40
0.0
 40
0.0
 40
0.0
 40
0.2676192207
 40
0.5221227787
 40
0.7647864634
 40
1.0
 40
1.0
 40
1.0
 40
1.0
 10
19.3780381864
 20
-5.9550221047
 30
0.0
 10
19.3960916764
 20
-5.9879029044
 30
0.0
 10
19.438336915
 20
-6.0485678809
 30
0.0
 10
19.5195871685
 20
-6.1201977391
 30
0.0
 10
19.61288432
 20
-6.1660265496
 30
0.0
 10
19.680122671
 20
-6.1771724608
 30
0.0
 10
19.7130889011
 20
-6.1775875452
 30
0.0
 11
19.3780381864
 21
-5.9550221047
 31
0.0
 11
19.4428724559
 21
-6.0470014335
 31
0.0
 11
19.5236004595
 21
-6.1172568596
 31
0.0
 11
19.6154738947
 21
-6.1616560621
 31
0.0
 11
19.7130889011
 21
-6.1775875452
 31
0.0
  0
SPLINE
  5
6CD
100
AcDbEntity
  8
RACCORDO
100
AcDbSpline
 62
253
  6
CONTINUOUS
 70
0
 71
3
 72
10
 73
6
 74
4
 42
0.0000001
 43
0.0000001
 44
0.0000000001
 12
0.0050569727
 22
-0.3338619996
 32
0.0
 13
0.2747542634
 23
-0.1897353487
 33
0.0
 40
0.0
 40
0.0
 40
0.0
 40
0.0
 40
0.3110194662
 40
0.6423389613
 40
1.0
 40
1.0
 40
1.0
 40
1.0
 10
19.2131650535
 20
-5.6776636976
 30
0.0
 10
19.2136893259
 20
-5.7122762246
 30
0.0
 10
19.2282705694
 20
-5.7841185613
 30
0.0
 10
19.2870984369
 20
-5.8807188454
 30
0.0
 10
19.345281888
 20
-5.9324017907
 30
0.0
 10
19.3780381864
 20
-5.9550221047
 30
0.0
 11
19.2131650535
 21
-5.6776636976
 31
0.0
 11
19.2332503993
 21
-5.779552342
 31
0.0
 11
19.2896308746
 21
-5.8747349299
 31
0.0
 11
19.3780381864
 21
-5.9550221047
 31
0.0
  0
SPLINE
  5
6CE
100
AcDbEntity
  8
RACCORDO
100
AcDbSpline
 62
253
  6
CONTINUOUS
 70
0
 71
3
 72
16
 73
12
 74
10
 42
0.0000001
 43
0.0000001
 44
0.0000000001
 12
0.1507203039
 22
-7.4871016659
 32
0.0
 13
-0.0
 23
-7.4886185619
 33
0.0
 40
0.0
 40
0.0
 40
0.0
 40
0.0
 40
0.114706033
 40
0.2338883939
 40
0.3546313684
 40
0.4695864658
 40
0.5767003442
 40
0.6790724919
 40
0.7814334388
 40
0.887539663
 40
1.0
 40
1.0
 40
1.0
 40
1.0
 10
19.3779952599
 20
9.0219275439
 30
0.0
 10
19.3837581026
 20
8.7356556335
 30
0.0
 10
19.3940314603
 20
8.1519100747
 30
0.0
 10
19.4062303654
 20
7.2667597377
 30
0.0
 10
19.4159173518
 20
6.3809569611
 30
0.0
 10
19.4232835977
 20
5.525258741
 30
0.0
 10
19.42872276
 20
4.7154046662
 30
0.0
 10
19.4326904294
 20
3.9369801368
 30
0.0
 10
19.4355013773
 20
3.1610659287
 30
0.0
 10
19.4372584292
 20
2.3599663672
 30
0.0
 10
19.437662042
 20
1.8143790746
 30
0.0
 10
19.437662042
 20
1.5336548857
 30
0.0
 11
19.3779952599
 21
9.0219275439
 31
0.0
 11
19.393298989
 21
8.1630741518
 31
0.0
 11
19.4057561975
 21
7.2706498522
 31
0.0
 11
19.4157160453
 21
6.3665066284
 31
0.0
 11
19.4231710355
 21
5.5056840324
 31
0.0
 11
19.4285808995
 21
4.7035672974
 31
0.0
 11
19.4325021948
 21
3.9369513612
 31
0.0
 11
19.4352881687
 21
3.1704143366
 31
0.0
 11
19.4370367453
 21
2.3758272204
 31
0.0
 11
19.437662042
 21
1.5336548857
 31
0.0
  0
SPLINE
  5
6CF
100
AcDbEntity
  8
RACCORDO
100
AcDbSpline
 62
253
  6
CONTINUOUS
 70
0
 71
3
 72
29
 73
25
 74
23
 42
0.0000001
 43
0.0000001
 44
0.0000000001
 12
-18.08860698
 22
-0.4373526826
 32
0.0
 13
-18.0885972192
 23
0.4377561977
 33
0.0
 40
0.0
 40
0.0
 40
0.0
 40
0.0
 40
0.0436483208
 40
0.093141125
 40
0.1456169178
 40
0.1956025973
 40
0.2420313348
 40
0.2860198914
 40
0.3291031786
 40
0.3721591531
 40
0.4154584418
 40
0.4592832537
 40
0.5035700742
 40
0.5478181152
 40
0.5915459156
 40
0.634797831
 40
0.6778525873
 40
0.7210099537
 40
0.7653229107
 40
0.812312339
 40
0.8631704682
 40
0.914648068
 40
0.9609312455
 40
1.0
 40
1.0
 40
1.0
 40
1.0
 10
37.4708118181
 20
9.0226466257
 30
0.0
 10
37.2076327112
 20
9.0162833889
 30
0.0
 10
36.6460046811
 20
9.0038980551
 30
0.0
 10
35.7678653894
 20
8.989226221
 30
0.0
 10
34.8514685733
 20
8.9766985389
 30
0.0
 10
33.9535203729
 20
8.966856285
 30
0.0
 10
33.1067414708
 20
8.9593037928
 30
0.0
 10
32.3015802965
 20
8.953497973
 30
0.0
 10
31.5167532589
 20
8.9490074465
 30
0.0
 10
30.7360779653
 20
8.9456120997
 30
0.0
 10
29.9509265912
 20
8.9432206879
 30
0.0
 10
29.1583492348
 20
8.9418109083
 30
0.0
 10
28.3600485269
 20
8.9413917893
 30
0.0
 10
27.5623330249
 20
8.9419713947
 30
0.0
 10
26.7708606867
 20
8.9435396952
 30
0.0
 10
25.9865879912
 20
8.9460906739
 30
0.0
 10
25.2057597258
 20
8.9496555278
 30
0.0
 10
24.4185377674
 20
8.9543413308
 30
0.0
 10
23.6075932772
 20
8.9604012598
 30
0.0
 10
22.75021668
 20
8.9683016559
 30
0.0
 10
21.8496500784
 20
8.9785663681
 30
0.0
 10
20.9533706522
 20
8.9911001939
 30
0.0
 10
20.1282413642
 20
9.0057980564
 30
0.0
 10
19.6135615812
 20
9.0162266808
 30
0.0
 10
19.3779952599
 20
9.0219275439
 30
0.0
 11
37.4708118181
 21
9.0226466257
 31
0.0
 11
36.6812335267
 21
9.0053342179
 31
0.0
 11
35.7858478692
 21
8.9899666906
 31
0.0
 11
34.8364459353
 21
8.9769323819
 31
0.0
 11
33.9320655749
 21
8.9669402352
 31
0.0
 11
33.0920226222
 21
8.959418151
 31
0.0
 11
32.2961192092
 21
8.9536581772
 31
0.0
 11
31.5165876362
 21
8.9491848659
 31
0.0
 11
30.7375448319
 21
8.9457872435
 31
0.0
 11
29.9540957689
 21
8.9433947905
 31
0.0
 11
29.1611355524
 21
8.9419806868
 31
0.0
 11
28.3598146533
 21
8.9415588947
 31
0.0
 11
27.5591955268
 21
8.9421421159
 31
0.0
 11
26.7679909269
 21
8.9437139242
 31
0.0
 11
25.98539954
 21
8.9462661621
 31
0.0
 11
25.2063795303
 21
8.9498325465
 31
0.0
 11
24.4255086615
 21
8.9544950883
 31
0.0
 11
23.6237372758
 21
8.9605065665
 31
0.0
 11
22.7735520582
 21
8.968383779
 31
0.0
 11
21.8533907844
 21
8.9789179425
 31
0.0
 11
20.9220547711
 21
8.992163937
 31
0.0
 11
20.0847423193
 21
9.0069436144
 31
0.0
 11
19.3779952599
 21
9.0219275439
 31
0.0
  0
SPLINE
  5
6D0
100
AcDbEntity
  8
RACCORDO
100
AcDbSpline
 62
253
  6
CONTINUOUS
 70
0
 71
3
 72
16
 73
12
 74
10
 42
0.0000001
 43
0.0000001
 44
0.0000000001
 12
0.0
 22
7.4893373871
 32
0.0
 13
0.1504241396
 23
7.4878265923
 33
0.0
 40
0.0
 40
0.0
 40
0.0
 40
0.0
 40
0.1124227273
 40
0.2184477153
 40
0.3207217135
 40
0.4229953639
 40
0.5300588173
 40
0.6450344236
 40
0.7658245368
 40
0.8851003572
 40
1.0
 40
1.0
 40
1.0
 40
1.0
 10
37.4111529268
 20
1.5336548857
 30
0.0
 10
37.4111529268
 20
1.8143121305
 30
0.0
 10
37.4115562624
 20
2.3596551011
 30
0.0
 10
37.4133116917
 20
3.1603178064
 30
0.0
 10
37.4161190198
 20
3.9356407453
 30
0.0
 10
37.4200815753
 20
4.7135511751
 30
0.0
 10
37.4255153139
 20
5.5231624426
 30
0.0
 10
37.4328785341
 20
6.3789858268
 30
0.0
 10
37.4425646121
 20
7.2652758764
 30
0.0
 10
37.4547778919
 20
8.1513454047
 30
0.0
 10
37.4650505914
 20
8.7358637586
 30
0.0
 10
37.4708118181
 20
9.0226466257
 30
0.0
 11
37.4111529268
 21
1.5336548857
 31
0.0
 11
37.4117779247
 21
2.3756263883
 31
0.0
 11
37.4135246598
 21
3.1696813738
 31
0.0
 11
37.4163070616
 21
3.9356407986
 31
0.0
 11
37.4202224463
 21
4.7015926652
 31
0.0
 11
37.4256265792
 21
5.5034087784
 31
0.0
 11
37.4330790661
 21
6.3644676344
 31
0.0
 11
37.4430389782
 21
7.2690507157
 31
0.0
 11
37.4555032164
 21
8.1622606148
 31
0.0
 11
37.4708118181
 21
9.0226466257
 31
0.0
  0
SPLINE
  5
6D1
100
AcDbEntity
  8
RACCORDO
100
AcDbSpline
 62
253
  6
CONTINUOUS
 70
0
 71
3
 72
16
 73
12
 74
10
 42
0.0000001
 43
0.0000001
 44
0.0000000001
 12
-0.0
 22
-7.4893373864
 32
0.0
 13
-0.1504241399
 23
-7.4878265915
 33
0.0
 40
0.0
 40
0.0
 40
0.0
 40
0.0
 40
0.1124227273
 40
0.2184477153
 40
0.3207217135
 40
0.422995364
 40
0.5300588174
 40
0.6450344236
 40
0.7658245369
 40
0.8851003573
 40
1.0
 40
1.0
 40
1.0
 40
1.0
 10
19.437662042
 20
1.5336548857
 30
0.0
 10
19.437662042
 20
1.2529976408
 30
0.0
 10
19.4372587064
 20
0.7076546702
 30
0.0
 10
19.4355032771
 20
-0.0930080351
 30
0.0
 10
19.432695949
 20
-0.868330974
 30
0.0
 10
19.4287333935
 20
-1.6462414038
 30
0.0
 10
19.4232996549
 20
-2.4558526713
 30
0.0
 10
19.4159364348
 20
-3.3116760555
 30
0.0
 10
19.4062503567
 20
-4.1979661051
 30
0.0
 10
19.3940370769
 20
-5.0840356331
 30
0.0
 10
19.3837643773
 20
-5.6685539868
 30
0.0
 10
19.3780031507
 20
-5.9553368536
 30
0.0
 11
19.437662042
 21
1.5336548857
 31
0.0
 11
19.4370370441
 21
0.6916833831
 31
0.0
 11
19.4352903091
 21
-0.1023716025
 31
0.0
 11
19.4325079072
 21
-0.8683310273
 31
0.0
 11
19.4285925226
 21
-1.6342828938
 31
0.0
 11
19.4231883896
 21
-2.4360990071
 31
0.0
 11
19.4157359027
 21
-3.2971578631
 31
0.0
 11
19.4057759906
 21
-4.2017409443
 31
0.0
 11
19.3933117525
 21
-5.0949508435
 31
0.0
 11
19.3780031507
 21
-5.9553368536
 31
0.0
  0
SPLINE
  5
6D2
100
AcDbEntity
  8
RACCORDO
100
AcDbSpline
 62
253
  6
CONTINUOUS
 70
0
 71
3
 72
29
 73
25
 74
23
 42
0.0000001
 43
0.0000001
 44
0.0000000001
 12
17.4185837758
 22
0.4213629125
 32
0.0
 13
17.4185837758
 23
-0.4213629125
 33
0.0
 40
0.0
 40
0.0
 40
0.0
 40
0.0
 40
0.0436502886
 40
0.093110764
 40
0.1456261933
 40
0.195620278
 40
0.2420480898
 40
0.286032584
 40
0.3291140887
 40
0.3721717399
 40
0.4154703439
 40
0.4592944974
 40
0.5035812845
 40
0.5478298654
 40
0.5915580162
 40
0.6348099222
 40
0.6778658729
 40
0.7210278053
 40
0.7653442169
 40
0.8123354552
 40
0.8631612197
 40
0.9146400775
 40
0.9609365536
 40
1.0
 40
1.0
 40
1.0
 40
1.0
 10
19.713080899
 20
-6.1775955473
 30
0.0
 10
19.9665229687
 20
-6.1714646764
 30
0.0
 10
20.5071813938
 20
-6.1599964731
 30
0.0
 10
21.3528430205
 20
-6.1456618363
 30
0.0
 10
22.23538823
 20
-6.1336563095
 30
0.0
 10
23.1003489296
 20
-6.1241608751
 30
0.0
 10
23.9157823182
 20
-6.1168922701
 30
0.0
 10
24.6910802663
 20
-6.1113012952
 30
0.0
 10
25.4468124103
 20
-6.106977785
 30
0.0
 10
26.1985662048
 20
-6.1037084456
 30
0.0
 10
26.9546368108
 20
-6.1014059043
 30
0.0
 10
27.7178484011
 20
-6.1000486093
 30
0.0
 10
28.4865784571
 20
-6.0996452585
 30
0.0
 10
29.254750843
 20
-6.1002036441
 30
0.0
 10
30.0169114562
 20
-6.1017141087
 30
0.0
 10
30.7721429077
 20
-6.1041709099
 30
0.0
 10
31.5240819995
 20
-6.1076040533
 30
0.0
 10
32.282198064
 20
-6.1121173398
 30
0.0
 10
33.0631615683
 20
-6.1179523272
 30
0.0
 10
33.8886226534
 20
-6.1255651501
 30
0.0
 10
34.7556618319
 20
-6.1354241881
 30
0.0
 10
35.6186369623
 20
-6.147579996
 30
0.0
 10
36.4132625256
 20
-6.1614509828
 30
0.0
 10
36.9089115627
 20
-6.1720963822
 30
0.0
 10
37.1357215339
 20
-6.1775830114
 30
0.0
 11
19.713080899
 21
-6.1775955473
 31
0.0
 11
20.4734531864
 21
-6.1612182125
 31
0.0
 11
21.3351097443
 21
-6.146428786
 31
0.0
 11
22.2500355249
 21
-6.1338672632
 31
0.0
 11
23.121063279
 21
-6.124244211
 31
0.0
 11
23.929974168
 21
-6.1170014884
 31
0.0
 11
24.6963258324
 21
-6.1114558097
 31
0.0
 11
25.4469518066
 21
-6.1071486802
 31
0.0
 11
26.1971673874
 21
-6.103877065
 31
0.0
 11
26.9515848699
 21
-6.1015735468
 31
0.0
 11
27.7151616606
 21
-6.1002120996
 31
0.0
 11
28.486800338
 21
-6.0998061753
 31
0.0
 11
29.257773226
 21
-6.100368046
 31
0.0
 11
30.0196770074
 21
-6.1018818981
 31
0.0
 11
30.7732803463
 21
-6.1043398564
 31
0.0
 11
31.5234655693
 21
-6.1077745138
 31
0.0
 11
32.2754918385
 21
-6.1122651942
 31
0.0
 11
33.0476250844
 21
-6.1180549744
 31
0.0
 11
33.8663502132
 21
-6.1256414046
 31
0.0
 11
34.7518640156
 21
-6.1357791284
 31
0.0
 11
35.6487244383
 21
-6.1485342276
 31
0.0
 11
36.4552537683
 21
-6.162770351
 31
0.0
 11
37.1357215339
 21
-6.1775830114
 31
0.0
  0
SPLINE
  5
6D3
100
AcDbEntity
  8
RACCORDO
100
AcDbSpline
 62
253
  6
CONTINUOUS
 70
0
 71
3
 72
29
 73
25
 74
23
 42
0.0000001
 43
0.0000001
 44
0.0000000001
 12
-17.4185837759
 22
-0.4213629125
 32
0.0
 13
-17.4185837759
 23
0.4213629125
 33
0.0
 40
0.0
 40
0.0
 40
0.0
 40
0.0
 40
0.043647031
 40
0.0931379207
 40
0.1456119111
 40
0.1955992567
 40
0.2420307343
 40
0.2860214585
 40
0.3291061214
 40
0.3721629528
 40
0.4154628878
 40
0.4592881229
 40
0.5035749979
 40
0.547822998
 40
0.5915510492
 40
0.6348035154
 40
0.677859041
 40
0.72101799
 40
0.7653338224
 40
0.8123265325
 40
0.8631820686
 40
0.9146519244
 40
0.9609323815
 40
1.0
 40
1.0
 40
1.0
 40
1.0
 10
37.1357340698
 20
9.2449053187
 30
0.0
 10
36.8823109144
 20
9.2387749053
 30
0.0
 10
36.3414948035
 20
9.2273032496
 30
0.0
 10
35.4959160955
 20
9.2129709478
 30
0.0
 10
34.6134740475
 20
9.2009670011
 30
0.0
 10
33.7487718624
 20
9.1914736942
 30
0.0
 10
32.9333201464
 20
9.1842043032
 30
0.0
 10
32.1579463867
 20
9.1786123915
 30
0.0
 10
31.4021644805
 20
9.1742883603
 30
0.0
 10
30.6503893763
 20
9.1710187333
 30
0.0
 10
29.8943095197
 20
9.1687159826
 30
0.0
 10
29.1310834067
 20
9.1673585105
 30
0.0
 10
28.3623499314
 20
9.1669550202
 30
0.0
 10
27.5941809867
 20
9.1675132602
 30
0.0
 10
26.8320210715
 20
9.1690235716
 30
0.0
 10
26.0767894129
 20
9.1714802232
 30
0.0
 10
25.3248668627
 20
9.1749131359
 30
0.0
 10
24.5667739566
 20
9.1794260759
 30
0.0
 10
23.7858225934
 20
9.1852606859
 30
0.0
 10
22.9601834185
 20
9.1928748267
 30
0.0
 10
22.0930150737
 20
9.2027355202
 30
0.0
 10
21.230012367
 20
9.2148925789
 30
0.0
 10
20.4355078809
 20
9.2287617792
 30
0.0
 10
19.9399276301
 20
9.2394055675
 30
0.0
 10
19.713093435
 20
9.2448927827
 30
0.0
 11
37.1357340698
 21
9.2449053187
 31
0.0
 11
36.3754185317
 21
9.2285290741
 31
0.0
 11
35.5132321091
 21
9.2137313044
 31
0.0
 11
34.5990282728
 21
9.2011800851
 31
0.0
 11
33.7281179415
 21
9.1915576114
 31
0.0
 11
32.9191431884
 21
9.1843136909
 31
0.0
 11
32.1526829789
 21
9.1787668329
 31
0.0
 11
31.4020019812
 21
9.1744591505
 31
0.0
 11
30.6518006849
 21
9.1711874026
 31
0.0
 11
29.8973600126
 21
9.168883632
 31
0.0
 11
29.1337643757
 21
9.1675219991
 31
0.0
 11
28.3621241663
 21
9.1671159355
 31
0.0
 11
27.5911613985
 21
9.1676776549
 31
0.0
 11
26.8292593525
 21
9.1691913512
 31
0.0
 11
26.0756462519
 21
9.1716491912
 31
0.0
 11
25.325468434
 21
9.1750836591
 31
0.0
 11
24.5734941454
 21
9.1795738193
 31
0.0
 11
23.8013709883
 21
9.1853632387
 31
0.0
 11
22.9826202146
 21
9.1929495817
 31
0.0
 11
22.0965877176
 21
9.2030935209
 31
0.0
 11
21.1998841403
 21
9.2158472724
 31
0.0
 11
20.39363388
 21
9.2300786944
 31
0.0
 11
19.713093435
 21
9.2448927827
 31
0.0
  0
SPLINE
  5
6D4
100
AcDbEntity
  8
RACCORDO
100
AcDbSpline
 62
253
  6
CONTINUOUS
 70
0
 71
3
 72
16
 73
12
 74
10
 42
0.0000001
 43
0.0000001
 44
0.0000000001
 12
-0.1507203043
 22
7.4871016649
 32
0.0
 13
0.0
 23
7.4886185609
 33
0.0
 40
0.0
 40
0.0
 40
0.0
 40
0.0
 40
0.1147060329
 40
0.2338883938
 40
0.3546313683
 40
0.4695864657
 40
0.5767003442
 40
0.6790724918
 40
0.7814334388
 40
0.887539663
 40
1.0
 40
1.0
 40
1.0
 40
1.0
 10
37.470819709
 20
-5.9546177716
 30
0.0
 10
37.4650568662
 20
-5.6683458616
 30
0.0
 10
37.4547835085
 20
-5.0846003031
 30
0.0
 10
37.4425846034
 20
-4.1994499664
 30
0.0
 10
37.432897617
 20
-3.3136471898
 30
0.0
 10
37.4255313711
 20
-2.4579489697
 30
0.0
 10
37.4200922088
 20
-1.6480948949
 30
0.0
 10
37.4161245394
 20
-0.8696703655
 30
0.0
 10
37.4133135915
 20
-0.0937561574
 30
0.0
 10
37.4115565396
 20
0.7073434041
 30
0.0
 10
37.4111529268
 20
1.2529306967
 30
0.0
 10
37.4111529268
 20
1.5336548857
 30
0.0
 11
37.470819709
 21
-5.9546177716
 31
0.0
 11
37.4555159798
 21
-5.0957643805
 31
0.0
 11
37.4430587713
 21
-4.2033400809
 31
0.0
 11
37.4330989235
 21
-3.299196857
 31
0.0
 11
37.4256439333
 21
-2.4383742611
 31
0.0
 11
37.4202340693
 21
-1.6362575261
 31
0.0
 11
37.416312774
 21
-0.8696415899
 31
0.0
 11
37.4135268002
 21
-0.1031045652
 31
0.0
 11
37.4117782235
 21
0.6914825509
 31
0.0
 11
37.4111529268
 21
1.5336548857
 31
0.0
  0
SPLINE
  5
6D5
100
AcDbEntity
  8
RACCORDO
100
AcDbSpline
 62
253
  6
CONTINUOUS
 70
0
 71
3
 72
29
 73
25
 74
23
 42
0.0000001
 43
0.0000001
 44
0.0000000001
 12
18.0886069799
 22
0.4373526831
 32
0.0
 13
18.088597219
 23
-0.4377561982
 33
0.0
 40
0.0
 40
0.0
 40
0.0
 40
0.0
 40
0.0436506836
 40
0.0931119769
 40
0.1456278343
 40
0.1956196407
 40
0.2420447835
 40
0.2860273022
 40
0.3291075528
 40
0.3721644338
 40
0.4154624682
 40
0.459286272
 40
0.5035731136
 40
0.5478219086
 40
0.5915500201
 40
0.634801592
 40
0.6778570089
 40
0.7210176191
 40
0.7653314844
 40
0.8123199747
 40
0.8631490507
 40
0.9146361493
 40
0.9609352945
 40
1.0
 40
1.0
 40
1.0
 40
1.0
 10
19.3780031507
 20
-5.9553368536
 30
0.0
 10
19.6411965039
 20
-5.9489732724
 30
0.0
 10
20.2026487772
 20
-5.9365918714
 30
0.0
 10
21.0808538772
 20
-5.9219177554
 30
0.0
 10
21.9973392268
 20
-5.9093885093
 30
0.0
 10
22.8955443311
 20
-5.8995440239
 30
0.0
 10
23.7423020942
 20
-5.8919922339
 30
0.0
 10
24.5473868604
 20
-5.8861872605
 30
0.0
 10
25.3321646369
 20
-5.8816971669
 30
0.0
 10
26.1128195192
 20
-5.8783020256
 30
0.0
 10
26.8979627161
 20
-5.8759107464
 30
0.0
 10
27.6905265542
 20
-5.8745010709
 30
0.0
 10
28.488825857
 20
-5.874082021
 30
0.0
 10
29.2865479103
 20
-5.8746617083
 30
0.0
 10
30.0780246006
 20
-5.8762301074
 30
0.0
 10
30.8623010841
 20
-5.8787811902
 30
0.0
 10
31.6431508256
 20
-5.8823462417
 30
0.0
 10
32.4304018096
 20
-5.8870323742
 30
0.0
 10
33.2413656831
 20
-5.8930926872
 30
0.0
 10
34.0985668774
 20
-5.9009917482
 30
0.0
 10
34.9990098924
 20
-5.9112548107
 30
0.0
 10
35.8952677017
 20
-5.9237873907
 30
0.0
 10
36.72052615
 20
-5.9384873035
 30
0.0
 10
37.2352778011
 20
-5.9489174993
 30
0.0
 10
37.470819709
 20
-5.9546177716
 30
0.0
 11
19.3780031507
 21
-5.9553368536
 31
0.0
 11
20.1676241858
 21
-5.9380236254
 31
0.0
 11
21.0624397593
 21
-5.9226650035
 31
0.0
 11
22.0125665417
 21
-5.9096201893
 31
0.0
 11
22.9170577606
 21
-5.8996274084
 31
0.0
 11
23.7570356765
 21
-5.8921064233
 31
0.0
 11
24.5528298465
 21
-5.8863475399
 31
0.0
 11
25.332306477
 21
-5.8818746961
 31
0.0
 11
26.1113656861
 21
-5.8784771187
 31
0.0
 11
26.8947920532
 21
-5.8760848432
 31
0.0
 11
27.6877340291
 21
-5.8746708524
 31
0.0
 11
28.4890553099
 21
-5.8742491289
 31
0.0
 11
29.2896880801
 21
-5.8748324378
 31
0.0
 11
30.0808983085
 21
-5.8764043475
 31
0.0
 11
30.8634834795
 21
-5.8789566569
 31
0.0
 11
31.6425154403
 21
-5.8825231959
 31
0.0
 11
32.4234450016
 21
-5.8871862466
 31
0.0
 11
33.2252328197
 21
-5.893198086
 31
0.0
 11
34.075401063
 21
-5.9010754243
 31
0.0
 11
34.9950366894
 21
-5.9116032416
 31
0.0
 11
35.9265445686
 21
-5.9248507457
 31
0.0
 11
36.7641458971
 21
-5.9396352822
 31
0.0
 11
37.470819709
 21
-5.9546177716
 31
0.0
  0
SPLINE
  5
6D6
100
AcDbEntity
  8
RACCORDO
100
AcDbSpline
 62
253
  6
CONTINUOUS
 70
0
 71
3
 72
19
 73
15
 74
13
 42
0.0000001
 43
0.0000001
 44
0.0000000001
 12
-0.2899768609
 22
-14.4203675271
 32
0.0
 13
0.2899768609
 23
-14.4203675271
 33
0.0
 40
0.0
 40
0.0
 40
0.0
 40
0.0
 40
0.0667166087
 40
0.1422839932
 40
0.2251316907
 40
0.3135887071
 40
0.4058422955
 40
0.5000053577
 40
0.5941682755
 40
0.6864214581
 40
0.7748779383
 40
0.8577251799
 40
0.9332936248
 40
1.0
 40
1.0
 40
1.0
 40
1.0
 10
37.6356416817
 20
8.7449652354
 30
0.0
 10
37.6291929241
 20
8.4242725629
 30
0.0
 10
37.6175223403
 20
7.7403012831
 30
0.0
 10
37.6036055008
 20
6.6580092446
 30
0.0
 10
37.5924520229
 20
5.4711574951
 30
0.0
 10
37.5843022894
 20
4.2040567806
 30
0.0
 10
37.5793410068
 20
2.8825377336
 30
0.0
 10
37.5776752596
 20
1.5335778914
 30
0.0
 10
37.579341382
 20
0.1846200008
 30
0.0
 10
37.5843030451
 20
-1.1368938213
 30
0.0
 10
37.5924530841
 20
-2.4039878137
 30
0.0
 10
37.6036071662
 20
-3.5908398843
 30
0.0
 10
37.6175233766
 20
-4.6730856365
 30
0.0
 10
37.6291947245
 20
-5.3570127929
 30
0.0
 10
37.635642493
 20
-5.6776562753
 30
0.0
 11
37.6356416817
 21
8.7449652354
 31
0.0
 11
37.6188804411
 21
7.7828387101
 31
0.0
 11
37.6046552716
 21
6.6930017874
 31
0.0
 11
37.5932766983
 21
5.498120196
 31
0.0
 11
37.5849770622
 21
4.2223066291
 31
0.0
 11
37.5799284599
 21
2.8917166148
 31
0.0
 11
37.5782343506
 21
1.5335771976
 31
0.0
 11
37.5799288444
 21
0.1754398627
 31
0.0
 11
37.5849778173
 21
-1.1551442969
 31
0.0
 11
37.593277811
 21
-2.4309501266
 31
0.0
 11
37.6046567635
 21
-3.6258251403
 31
0.0
 11
37.6188826831
 21
-4.7156773476
 31
0.0
 11
37.635642493
 21
-5.6776562753
 31
0.0
  0
SPLINE
  5
6D7
100
AcDbEntity
  8
RACCORDO
100
AcDbSpline
 62
253
  6
CONTINUOUS
 70
0
 71
3
 72
19
 73
15
 74
13
 42
0.0000001
 43
0.0000001
 44
0.0000000001
 12
0.2899768609
 22
14.4203675271
 32
0.0
 13
-0.2899768609
 23
14.4203675271
 33
0.0
 40
0.0
 40
0.0
 40
0.0
 40
0.0
 40
0.0667166087
 40
0.1422839932
 40
0.2251316907
 40
0.3135887071
 40
0.4058422955
 40
0.5000053577
 40
0.5941682755
 40
0.6864214581
 40
0.7748779383
 40
0.8577251799
 40
0.9332936248
 40
1.0
 40
1.0
 40
1.0
 40
1.0
 10
19.2131732871
 20
-5.6776554641
 30
0.0
 10
19.2196220447
 20
-5.3569627916
 30
0.0
 10
19.2312926285
 20
-4.6729915118
 30
0.0
 10
19.2452094681
 20
-3.5906994733
 30
0.0
 10
19.2563629459
 20
-2.4038477238
 30
0.0
 10
19.2645126794
 20
-1.1367470093
 30
0.0
 10
19.269473962
 20
0.1847720377
 30
0.0
 10
19.2711397092
 20
1.5337318799
 30
0.0
 10
19.2694735868
 20
2.8826897706
 30
0.0
 10
19.2645119238
 20
4.2042035926
 30
0.0
 10
19.2563618848
 20
5.471297585
 30
0.0
 10
19.2452078026
 20
6.6581496556
 30
0.0
 10
19.2312915922
 20
7.7403954079
 30
0.0
 10
19.2196202443
 20
8.4243225642
 30
0.0
 10
19.2131724758
 20
8.7449660466
 30
0.0
 11
19.2131732871
 21
-5.6776554641
 31
0.0
 11
19.2299345277
 21
-4.7155289388
 31
0.0
 11
19.2441596973
 21
-3.625692016
 31
0.0
 11
19.2555382705
 21
-2.4308104247
 31
0.0
 11
19.2638379066
 21
-1.1549968578
 31
0.0
 11
19.2688865089
 21
0.1755931565
 31
0.0
 11
19.2705806182
 21
1.5337325738
 31
0.0
 11
19.2688861245
 21
2.8918699086
 31
0.0
 11
19.2638371515
 21
4.2224540682
 31
0.0
 11
19.2555371578
 21
5.4982598979
 31
0.0
 11
19.2441582053
 21
6.6931349117
 31
0.0
 11
19.2299322857
 21
7.7829871189
 31
0.0
 11
19.2131724758
 21
8.7449660466
 31
0.0
  0
SPLINE
  5
6D8
100
AcDbEntity
  8
RACCORDO
100
AcDbSpline
 62
253
  6
CONTINUOUS
 70
0
 71
3
 72
10
 73
6
 74
4
 42
0.0000001
 43
0.0000001
 44
0.0000000001
 12
-0.2747530955
 22
-0.1897345422
 32
0.0
 13
-0.0050569512
 23
-0.3338605805
 33
0.0
 40
0.0
 40
0.0
 40
0.0
 40
0.0
 40
0.3561755566
 40
0.6877905701
 40
1.0
 40
1.0
 40
1.0
 40
1.0
 10
19.3780381864
 20
9.022331876
 30
0.0
 10
19.3454180741
 20
8.9998056073
 30
0.0
 10
19.2873189085
 20
8.948249303
 30
0.0
 10
19.2283617297
 20
8.8517291699
 30
0.0
 10
19.2136913295
 20
8.7797182761
 30
0.0
 10
19.2131650535
 20
8.744973469
 30
0.0
 11
19.3780381864
 21
9.022331876
 31
0.0
 11
19.289950395
 21
8.9424314282
 31
0.0
 11
19.2333957967
 21
8.8472379513
 31
0.0
 11
19.2131650535
 21
8.744973469
 31
0.0
  0
SPLINE
  5
6D9
100
AcDbEntity
  8
RACCORDO
100
AcDbSpline
 62
253
  6
CONTINUOUS
 70
0
 71
3
 72
11
 73
7
 74
5
 42
0.0000001
 43
0.0000001
 44
0.0000000001
 12
-0.4204641262
 22
-0.0052941485
 32
0.0
 13
-0.2023791855
 23
-0.3685929662
 33
0.0
 40
0.0
 40
0.0
 40
0.0
 40
0.0
 40
0.2334994531
 40
0.4768969089
 40
0.7325202338
 40
1.0
 40
1.0
 40
1.0
 40
1.0
 10
19.7130889011
 20
9.2448973165
 30
0.0
 10
19.6803628533
 20
9.2444852563
 30
0.0
 10
19.6132678775
 20
9.2334416187
 30
0.0
 10
19.5198693657
 20
9.1877434341
 30
0.0
 10
19.4384023656
 20
9.1159753226
 30
0.0
 10
19.3960822988
 20
9.0551955961
 30
0.0
 10
19.3780381864
 20
9.022331876
 30
0.0
 11
19.7130889011
 21
9.2448973165
 31
0.0
 11
19.6161681457
 21
9.229186073
 31
0.0
 11
19.5239472173
 21
9.1847967087
 31
0.0
 11
19.4428331517
 21
9.1142673931
 31
0.0
 11
19.3780381864
 21
9.022331876
 31
0.0
  0
SPLINE
  5
6DA
100
AcDbEntity
  8
RACCORDO
100
AcDbSpline
 62
253
  6
CONTINUOUS
 70
0
 71
3
 72
11
 73
7
 74
5
 42
0.0000001
 43
0.0000001
 44
0.0000000001
 12
-0.2023788505
 22
0.368592356
 32
0.0
 13
-0.4204634302
 23
0.0052941397
 33
0.0
 40
0.0
 40
0.0
 40
0.0
 40
0.0
 40
0.2676192207
 40
0.5221227787
 40
0.7647864634
 40
1.0
 40
1.0
 40
1.0
 40
1.0
 10
37.4707767824
 20
9.022331876
 30
0.0
 10
37.4527232924
 20
9.0552126757
 30
0.0
 10
37.4104780538
 20
9.1158776522
 30
0.0
 10
37.3292278004
 20
9.1875075104
 30
0.0
 10
37.2359306488
 20
9.2333363209
 30
0.0
 10
37.1686922978
 20
9.2444822321
 30
0.0
 10
37.1357260677
 20
9.2448973165
 30
0.0
 11
37.4707767824
 21
9.022331876
 31
0.0
 11
37.4059425129
 21
9.1143112048
 31
0.0
 11
37.3252145093
 21
9.1845666309
 31
0.0
 11
37.2333410741
 21
9.2289658334
 31
0.0
 11
37.1357260677
 21
9.2448973165
 31
0.0
  0
SPLINE
  5
6DB
100
AcDbEntity
  8
RACCORDO
100
AcDbSpline
 62
253
  6
CONTINUOUS
 70
0
 71
3
 72
10
 73
6
 74
4
 42
0.0000001
 43
0.0000001
 44
0.0000000001
 12
-0.0050569727
 22
0.3338619996
 32
0.0
 13
-0.2747542634
 23
0.1897353487
 33
0.0
 40
0.0
 40
0.0
 40
0.0
 40
0.0
 40
0.3110194662
 40
0.6423389613
 40
1.0
 40
1.0
 40
1.0
 40
1.0
 10
37.6356499153
 20
8.744973469
 30
0.0
 10
37.635125643
 20
8.7795859959
 30
0.0
 10
37.6205443994
 20
8.8514283326
 30
0.0
 10
37.5617165319
 20
8.9480286167
 30
0.0
 10
37.5035330809
 20
8.999711562
 30
0.0
 10
37.4707767824
 20
9.022331876
 30
0.0
 11
37.6356499153
 21
8.744973469
 31
0.0
 11
37.6155645695
 21
8.8468621133
 31
0.0
 11
37.5591840942
 21
8.9420447012
 31
0.0
 11
37.4707767824
 21
9.022331876
 31
0.0
  0
SPLINE
  5
6DC
100
AcDbEntity
  8
RACCORDO
100
AcDbSpline
 62
7
  6
CONTINUOUS
 70
0
 71
3
 72
9
 73
5
 74
3
 42
0.0000001
 43
0.0000001
 44
0.0000000001
 12
0.0128743239
 22
-0.0971410768
 32
0.0
 13
0.0490620601
 23
-0.0849087654
 33
0.0
 40
0.0
 40
0.0
 40
0.0
 40
0.0
 40
0.6664791793
 40
1.0
 40
1.0
 40
1.0
 40
1.0
 10
47.9265724872
 20
-24.2489762965
 30
0.0
 10
47.9294326435
 20
-24.2705571316
 30
0.0
 10
47.9379401109
 20
-24.3025200048
 30
0.0
 10
47.952451624
 20
-24.3319036462
 30
0.0
 10
47.9579060301
 20
-24.3413432599
 30
0.0
 11
47.9265724872
 21
-24.2489762965
 31
0.0
 11
47.9434397073
 21
-24.31201663
 31
0.0
 11
47.9579060301
 21
-24.3413432599
 31
0.0
  0
SPLINE
  5
6DD
100
AcDbEntity
  8
RACCORDO
100
AcDbSpline
 62
7
  6
CONTINUOUS
 70
0
 71
3
 72
9
 73
5
 74
3
 42
0.0000001
 43
0.0000001
 44
0.0000000001
 12
0.0971410768
 22
0.0128743239
 32
0.0
 13
0.0849087654
 23
0.0490620601
 33
0.0
 40
0.0
 40
0.0
 40
0.0
 40
0.0
 40
0.6664791793
 40
1.0
 40
1.0
 40
1.0
 40
1.0
 10
50.1070386666
 20
-24.4641801115
 30
0.0
 10
50.1286195016
 20
-24.4613199553
 30
0.0
 10
50.1605823748
 20
-24.4528124879
 30
0.0
 10
50.1899660163
 20
-24.4383009748
 30
0.0
 10
50.19940563
 20
-24.4328465686
 30
0.0
 11
50.1070386666
 21
-24.4641801115
 31
0.0
 11
50.1700790001
 21
-24.4473128914
 31
0.0
 11
50.19940563
 21
-24.4328465686
 31
0.0
  0
SPLINE
  5
6DE
100
AcDbEntity
  8
RACCORDO
100
AcDbSpline
 62
7
  6
CONTINUOUS
 70
0
 71
3
 72
9
 73
5
 74
3
 42
0.0000001
 43
0.0000001
 44
0.0000000001
 12
0.0128743239
 22
-0.0971410768
 32
0.0
 13
0.0490620601
 23
-0.0849087654
 33
0.0
 40
0.0
 40
0.0
 40
0.0
 40
0.0
 40
0.6664791793
 40
1.0
 40
1.0
 40
1.0
 40
1.0
 10
29.0265724872
 20
-24.2489762965
 30
0.0
 10
29.0294326435
 20
-24.2705571316
 30
0.0
 10
29.0379401109
 20
-24.3025200048
 30
0.0
 10
29.052451624
 20
-24.3319036462
 30
0.0
 10
29.0579060301
 20
-24.3413432599
 30
0.0
 11
29.0265724872
 21
-24.2489762965
 31
0.0
 11
29.0434397073
 21
-24.31201663
 31
0.0
 11
29.0579060301
 21
-24.3413432599
 31
0.0
  0
SPLINE
  5
6DF
100
AcDbEntity
  8
RACCORDO
100
AcDbSpline
 62
7
  6
CONTINUOUS
 70
0
 71
3
 72
9
 73
5
 74
3
 42
0.0000001
 43
0.0000001
 44
0.0000000001
 12
0.0971410768
 22
0.0128743239
 32
0.0
 13
0.0849087654
 23
0.0490620601
 33
0.0
 40
0.0
 40
0.0
 40
0.0
 40
0.0
 40
0.6664791793
 40
1.0
 40
1.0
 40
1.0
 40
1.0
 10
31.2070386666
 20
-24.4641801115
 30
0.0
 10
31.2286195016
 20
-24.4613199553
 30
0.0
 10
31.2605823748
 20
-24.4528124879
 30
0.0
 10
31.2899660163
 20
-24.4383009748
 30
0.0
 10
31.29940563
 20
-24.4328465686
 30
0.0
 11
31.2070386666
 21
-24.4641801115
 31
0.0
 11
31.2700790001
 21
-24.4473128914
 31
0.0
 11
31.29940563
 21
-24.4328465686
 31
0.0
  0
SPLINE
  5
6E0
100
AcDbEntity
  8
RACCORDO
100
AcDbSpline
 62
7
  6
CONTINUOUS
 70
0
 71
3
 72
9
 73
5
 74
3
 42
0.0000001
 43
0.0000001
 44
0.0000000001
 12
-0.0128743239
 22
0.0971410768
 32
0.0
 13
-0.0490620601
 23
0.0849087654
 33
0.0
 40
0.0
 40
0.0
 40
0.0
 40
0.0
 40
0.6664791793
 40
1.0
 40
1.0
 40
1.0
 40
1.0
 10
50.3222424816
 20
24.3162860678
 30
0.0
 10
50.3193823253
 20
24.3378669029
 30
0.0
 10
50.3108748579
 20
24.3698297761
 30
0.0
 10
50.2963633449
 20
24.3992134175
 30
0.0
 10
50.2909089387
 20
24.4086530313
 30
0.0
 11
50.3222424816
 21
24.3162860678
 31
0.0
 11
50.3053752615
 21
24.3793264013
 31
0.0
 11
50.2909089387
 21
24.4086530313
 31
0.0
  0
SPLINE
  5
6E1
100
AcDbEntity
  8
RACCORDO
100
AcDbSpline
 62
7
  6
CONTINUOUS
 70
0
 71
3
 72
9
 73
5
 74
3
 42
0.0000001
 43
0.0000001
 44
0.0000000001
 12
-0.0971410768
 22
-0.0128743239
 32
0.0
 13
-0.0849087654
 23
-0.0490620601
 33
0.0
 40
0.0
 40
0.0
 40
0.0
 40
0.0
 40
0.6664791793
 40
1.0
 40
1.0
 40
1.0
 40
1.0
 10
48.1417763022
 20
24.5314898829
 30
0.0
 10
48.1201954672
 20
24.5286297266
 30
0.0
 10
48.088232594
 20
24.5201222592
 30
0.0
 10
48.0588489525
 20
24.5056107461
 30
0.0
 10
48.0494093388
 20
24.5001563399
 30
0.0
 11
48.1417763022
 21
24.5314898829
 31
0.0
 11
48.0787359687
 21
24.5146226628
 31
0.0
 11
48.0494093388
 21
24.5001563399
 31
0.0
  0
SPLINE
  5
6E2
100
AcDbEntity
  8
RACCORDO
100
AcDbSpline
 62
7
  6
CONTINUOUS
 70
0
 71
3
 72
9
 73
5
 74
3
 42
0.0000001
 43
0.0000001
 44
0.0000000001
 12
-0.0971410768
 22
-0.0128743239
 32
0.0
 13
-0.0849087654
 23
-0.0490620601
 33
0.0
 40
0.0
 40
0.0
 40
0.0
 40
0.0
 40
0.6664791793
 40
1.0
 40
1.0
 40
1.0
 40
1.0
 10
29.2417763022
 20
24.5314898829
 30
0.0
 10
29.2201954672
 20
24.5286297266
 30
0.0
 10
29.188232594
 20
24.5201222592
 30
0.0
 10
29.1588489525
 20
24.5056107461
 30
0.0
 10
29.1494093388
 20
24.5001563399
 30
0.0
 11
29.2417763022
 21
24.5314898829
 31
0.0
 11
29.1787359687
 21
24.5146226628
 31
0.0
 11
29.1494093388
 21
24.5001563399
 31
0.0
  0
SPLINE
  5
6E3
100
AcDbEntity
  8
RACCORDO
100
AcDbSpline
 62
7
  6
CONTINUOUS
 70
0
 71
3
 72
9
 73
5
 74
3
 42
0.0000001
 43
0.0000001
 44
0.0000000001
 12
-0.0128743239
 22
0.0971410768
 32
0.0
 13
-0.0490620601
 23
0.0849087654
 33
0.0
 40
0.0
 40
0.0
 40
0.0
 40
0.0
 40
0.6664791793
 40
1.0
 40
1.0
 40
1.0
 40
1.0
 10
31.4222424816
 20
24.3162860678
 30
0.0
 10
31.4193823253
 20
24.3378669029
 30
0.0
 10
31.4108748579
 20
24.3698297761
 30
0.0
 10
31.3963633449
 20
24.3992134175
 30
0.0
 10
31.3909089387
 20
24.4086530313
 30
0.0
 11
31.4222424816
 21
24.3162860678
 31
0.0
 11
31.4053752615
 21
24.3793264013
 31
0.0
 11
31.3909089387
 21
24.4086530313
 31
0.0
  0
SPLINE
  5
6E4
100
AcDbEntity
  8
RACCORDO
100
AcDbSpline
 62
7
  6
CONTINUOUS
 70
0
 71
3
 72
9
 73
5
 74
3
 42
0.0000001
 43
0.0000001
 44
0.0000000001
 12
0.0128743239
 22
-0.0971410768
 32
0.0
 13
0.0490620601
 23
-0.0849087654
 33
0.0
 40
0.0
 40
0.0
 40
0.0
 40
0.0
 40
0.6664791793
 40
1.0
 40
1.0
 40
1.0
 40
1.0
 10
25.4265724872
 20
-24.2489762965
 30
0.0
 10
25.4294326435
 20
-24.2705571316
 30
0.0
 10
25.4379401109
 20
-24.3025200048
 30
0.0
 10
25.452451624
 20
-24.3319036462
 30
0.0
 10
25.4579060301
 20
-24.3413432599
 30
0.0
 11
25.4265724872
 21
-24.2489762965
 31
0.0
 11
25.4434397073
 21
-24.31201663
 31
0.0
 11
25.4579060301
 21
-24.3413432599
 31
0.0
  0
SPLINE
  5
6E5
100
AcDbEntity
  8
RACCORDO
100
AcDbSpline
 62
7
  6
CONTINUOUS
 70
0
 71
3
 72
9
 73
5
 74
3
 42
0.0000001
 43
0.0000001
 44
0.0000000001
 12
0.0971410768
 22
0.0128743239
 32
0.0
 13
0.0849087654
 23
0.0490620601
 33
0.0
 40
0.0
 40
0.0
 40
0.0
 40
0.0
 40
0.6664791793
 40
1.0
 40
1.0
 40
1.0
 40
1.0
 10
27.6070386666
 20
-24.4641801115
 30
0.0
 10
27.6286195016
 20
-24.4613199553
 30
0.0
 10
27.6605823748
 20
-24.4528124879
 30
0.0
 10
27.6899660163
 20
-24.4383009748
 30
0.0
 10
27.69940563
 20
-24.4328465686
 30
0.0
 11
27.6070386666
 21
-24.4641801115
 31
0.0
 11
27.6700790001
 21
-24.4473128914
 31
0.0
 11
27.69940563
 21
-24.4328465686
 31
0.0
  0
SPLINE
  5
6E6
100
AcDbEntity
  8
RACCORDO
100
AcDbSpline
 62
7
  6
CONTINUOUS
 70
0
 71
3
 72
9
 73
5
 74
3
 42
0.0000001
 43
0.0000001
 44
0.0000000001
 12
0.0128743239
 22
-0.0971410768
 32
0.0
 13
0.0490620601
 23
-0.0849087654
 33
0.0
 40
0.0
 40
0.0
 40
0.0
 40
0.0
 40
0.6664791793
 40
1.0
 40
1.0
 40
1.0
 40
1.0
 10
6.5265724872
 20
-24.2489762965
 30
0.0
 10
6.5294326435
 20
-24.2705571316
 30
0.0
 10
6.5379401109
 20
-24.3025200048
 30
0.0
 10
6.552451624
 20
-24.3319036462
 30
0.0
 10
6.5579060301
 20
-24.3413432599
 30
0.0
 11
6.5265724872
 21
-24.2489762965
 31
0.0
 11
6.5434397073
 21
-24.31201663
 31
0.0
 11
6.5579060301
 21
-24.3413432599
 31
0.0
  0
SPLINE
  5
6E7
100
AcDbEntity
  8
RACCORDO
100
AcDbSpline
 62
7
  6
CONTINUOUS
 70
0
 71
3
 72
9
 73
5
 74
3
 42
0.0000001
 43
0.0000001
 44
0.0000000001
 12
0.0971410768
 22
0.0128743239
 32
0.0
 13
0.0849087654
 23
0.0490620601
 33
0.0
 40
0.0
 40
0.0
 40
0.0
 40
0.0
 40
0.6664791793
 40
1.0
 40
1.0
 40
1.0
 40
1.0
 10
8.7070386666
 20
-24.4641801115
 30
0.0
 10
8.7286195016
 20
-24.4613199553
 30
0.0
 10
8.7605823748
 20
-24.4528124879
 30
0.0
 10
8.7899660163
 20
-24.4383009748
 30
0.0
 10
8.79940563
 20
-24.4328465686
 30
0.0
 11
8.7070386666
 21
-24.4641801115
 31
0.0
 11
8.7700790001
 21
-24.4473128914
 31
0.0
 11
8.79940563
 21
-24.4328465686
 31
0.0
  0
SPLINE
  5
6E8
100
AcDbEntity
  8
RACCORDO
100
AcDbSpline
 62
7
  6
CONTINUOUS
 70
0
 71
3
 72
9
 73
5
 74
3
 42
0.0000001
 43
0.0000001
 44
0.0000000001
 12
-0.0128743239
 22
0.0971410768
 32
0.0
 13
-0.0490620601
 23
0.0849087654
 33
0.0
 40
0.0
 40
0.0
 40
0.0
 40
0.0
 40
0.6664791793
 40
1.0
 40
1.0
 40
1.0
 40
1.0
 10
27.8222424816
 20
24.3162860678
 30
0.0
 10
27.8193823253
 20
24.3378669029
 30
0.0
 10
27.8108748579
 20
24.3698297761
 30
0.0
 10
27.7963633449
 20
24.3992134175
 30
0.0
 10
27.7909089387
 20
24.4086530313
 30
0.0
 11
27.8222424816
 21
24.3162860678
 31
0.0
 11
27.8053752615
 21
24.3793264013
 31
0.0
 11
27.7909089387
 21
24.4086530313
 31
0.0
  0
SPLINE
  5
6E9
100
AcDbEntity
  8
RACCORDO
100
AcDbSpline
 62
7
  6
CONTINUOUS
 70
0
 71
3
 72
9
 73
5
 74
3
 42
0.0000001
 43
0.0000001
 44
0.0000000001
 12
-0.0971410768
 22
-0.0128743239
 32
0.0
 13
-0.0849087654
 23
-0.0490620601
 33
0.0
 40
0.0
 40
0.0
 40
0.0
 40
0.0
 40
0.6664791793
 40
1.0
 40
1.0
 40
1.0
 40
1.0
 10
25.6417763022
 20
24.5314898829
 30
0.0
 10
25.6201954672
 20
24.5286297266
 30
0.0
 10
25.588232594
 20
24.5201222592
 30
0.0
 10
25.5588489525
 20
24.5056107461
 30
0.0
 10
25.5494093388
 20
24.5001563399
 30
0.0
 11
25.6417763022
 21
24.5314898829
 31
0.0
 11
25.5787359687
 21
24.5146226628
 31
0.0
 11
25.5494093388
 21
24.5001563399
 31
0.0
  0
SPLINE
  5
6EA
100
AcDbEntity
  8
RACCORDO
100
AcDbSpline
 62
7
  6
CONTINUOUS
 70
0
 71
3
 72
9
 73
5
 74
3
 42
0.0000001
 43
0.0000001
 44
0.0000000001
 12
-0.0971410768
 22
-0.0128743239
 32
0.0
 13
-0.0849087654
 23
-0.0490620601
 33
0.0
 40
0.0
 40
0.0
 40
0.0
 40
0.0
 40
0.6664791793
 40
1.0
 40
1.0
 40
1.0
 40
1.0
 10
6.7417763022
 20
24.5314898829
 30
0.0
 10
6.7201954672
 20
24.5286297266
 30
0.0
 10
6.688232594
 20
24.5201222592
 30
0.0
 10
6.6588489525
 20
24.5056107461
 30
0.0
 10
6.6494093388
 20
24.5001563399
 30
0.0
 11
6.7417763022
 21
24.5314898829
 31
0.0
 11
6.6787359687
 21
24.5146226628
 31
0.0
 11
6.6494093388
 21
24.5001563399
 31
0.0
  0
SPLINE
  5
6EB
100
AcDbEntity
  8
RACCORDO
100
AcDbSpline
 62
7
  6
CONTINUOUS
 70
0
 71
3
 72
9
 73
5
 74
3
 42
0.0000001
 43
0.0000001
 44
0.0000000001
 12
-0.0128743239
 22
0.0971410768
 32
0.0
 13
-0.0490620601
 23
0.0849087654
 33
0.0
 40
0.0
 40
0.0
 40
0.0
 40
0.0
 40
0.6664791793
 40
1.0
 40
1.0
 40
1.0
 40
1.0
 10
8.9222424816
 20
24.3162860678
 30
0.0
 10
8.9193823253
 20
24.3378669029
 30
0.0
 10
8.9108748579
 20
24.3698297761
 30
0.0
 10
8.8963633449
 20
24.3992134175
 30
0.0
 10
8.8909089387
 20
24.4086530313
 30
0.0
 11
8.9222424816
 21
24.3162860678
 31
0.0
 11
8.9053752615
 21
24.3793264013
 31
0.0
 11
8.8909089387
 21
24.4086530313
 31
0.0
  0
SPLINE
  5
6EC
100
AcDbEntity
  8
RACCORDO
100
AcDbSpline
 62
7
  6
CONTINUOUS
 70
0
 71
3
 72
12
 73
8
 74
6
 42
0.0000001
 43
0.0000001
 44
0.0000000001
 12
-0.00316672
 22
-0.3142672
 32
0.0
 13
-0.3142831544
 23
0.0
 33
0.0
 40
0.0
 40
0.0
 40
0.0
 40
0.0
 40
0.1357657081
 40
0.2967195393
 40
0.494990308
 40
0.7319263554
 40
1.0
 40
1.0
 40
1.0
 40
1.0
 10
50.3171267355
 20
23.3006421838
 30
0.0
 10
50.3169834248
 20
23.2864199475
 30
0.0
 10
50.3080700966
 20
23.2551556091
 30
0.0
 10
50.2728767561
 20
23.2154817444
 30
0.0
 10
50.2185012937
 20
23.1833014389
 30
0.0
 10
50.1475504436
 20
23.1615406895
 30
0.0
 10
50.0944874144
 20
23.1563046165
 30
0.0
 10
50.0664037376
 20
23.1563046165
 30
0.0
 11
50.3171267355
 21
23.3006421838
 31
0.0
 11
50.3062761072
 21
23.2593760141
 31
0.0
 11
50.2740796595
 21
23.2203601346
 31
0.0
 11
50.2211539046
 21
23.1874694871
 31
0.0
 11
50.150226256
 21
23.1647911683
 31
0.0
 11
50.0664037376
 21
23.1563046165
 31
0.0
  0
SPLINE
  5
6ED
100
AcDbEntity
  8
RACCORDO
100
AcDbSpline
 62
7
  6
CONTINUOUS
 70
0
 71
3
 72
12
 73
8
 74
6
 42
0.0000001
 43
0.0000001
 44
0.0000000001
 12
0.00316672
 22
-0.3142672
 32
0.0
 13
0.3142831544
 23
0.0
 33
0.0
 40
0.0
 40
0.0
 40
0.0
 40
0.0
 40
0.1357657081
 40
0.2967195393
 40
0.494990308
 40
0.7319263554
 40
1.0
 40
1.0
 40
1.0
 40
1.0
 10
47.9316882333
 20
23.3006421838
 30
0.0
 10
47.931831544
 20
23.2864199475
 30
0.0
 10
47.9407448722
 20
23.2551556091
 30
0.0
 10
47.9759382127
 20
23.2154817444
 30
0.0
 10
48.0303136751
 20
23.1833014389
 30
0.0
 10
48.1012645252
 20
23.1615406895
 30
0.0
 10
48.1543275544
 20
23.1563046165
 30
0.0
 10
48.1824112313
 20
23.1563046165
 30
0.0
 11
47.9316882333
 21
23.3006421838
 31
0.0
 11
47.9425388616
 21
23.2593760141
 31
0.0
 11
47.9747353093
 21
23.2203601346
 31
0.0
 11
48.0276610643
 21
23.1874694871
 31
0.0
 11
48.0985887128
 21
23.1647911683
 31
0.0
 11
48.1824112313
 21
23.1563046165
 31
0.0
  0
SPLINE
  5
6EE
100
AcDbEntity
  8
RACCORDO
100
AcDbSpline
 62
7
  6
CONTINUOUS
 70
0
 71
3
 72
11
 73
7
 74
5
 42
0.0000001
 43
0.0000001
 44
0.0000000001
 12
-0.4494325074
 22
-0.003465227
 32
0.0
 13
-0.379851086
 23
-0.2402389207
 33
0.0
 40
0.0
 40
0.0
 40
0.0
 40
0.0
 40
0.2018563251
 40
0.4484393042
 40
0.7201275271
 40
1.0
 40
1.0
 40
1.0
 40
1.0
 10
21.4706147981
 20
23.8289938525
 30
0.0
 10
21.4403745333
 20
23.8287606932
 30
0.0
 10
21.3748446316
 20
23.8062838512
 30
0.0
 10
21.2794783374
 20
23.7572253122
 30
0.0
 10
21.1767138916
 20
23.6955460167
 30
0.0
 10
21.1069267287
 20
23.6514093241
 30
0.0
 10
21.0714901078
 20
23.6289972371
 30
0.0
 11
21.4706147981
 21
23.8289938525
 31
0.0
 11
21.3826252065
 21
23.8068899259
 31
0.0
 11
21.2832342143
 21
23.7578617036
 31
0.0
 11
21.1780657659
 21
23.6958113882
 31
0.0
 11
21.0714901078
 21
23.6289972371
 31
0.0
  0
SPLINE
  5
6EF
100
AcDbEntity
  8
RACCORDO
100
AcDbSpline
 62
253
  6
CONTINUOUS
 70
0
 71
3
 72
11
 73
7
 74
5
 42
0.0000001
 43
0.0000001
 44
0.0000000001
 12
0.0012232491
 22
-0.3641909974
 32
0.0
 13
0.3641918961
 23
-0.0009174701
 33
0.0
 40
0.0
 40
0.0
 40
0.0
 40
0.0
 40
0.2331625878
 40
0.4766705428
 40
0.7338113025
 40
1.0
 40
1.0
 40
1.0
 40
1.0
 10
47.9375060631
 20
23.877992453
 30
0.0
 10
47.9376011351
 20
23.8496872145
 30
0.0
 10
47.9515307269
 20
23.7911439711
 30
0.0
 10
48.0084632572
 20
23.719482875
 30
0.0
 10
48.0911312908
 20
23.6724845875
 30
0.0
 10
48.1551872435
 20
23.6615675087
 30
0.0
 10
48.1875018323
 20
23.661486102
 30
0.0
 11
47.9375060631
 21
23.877992453
 31
0.0
 11
47.9567441482
 21
23.7952841937
 31
0.0
 11
48.0109846746
 21
23.7251215231
 31
0.0
 11
48.092000177
 21
23.6781470543
 31
0.0
 11
48.1875018323
 21
23.661486102
 31
0.0
  0
SPLINE
  5
6F0
100
AcDbEntity
  8
RACCORDO
100
AcDbSpline
 62
7
  6
CONTINUOUS
 70
0
 71
3
 72
11
 73
7
 74
5
 42
0.0000001
 43
0.0000001
 44
0.0000000001
 12
0.4494325074
 22
-0.003465227
 32
0.0
 13
0.379851086
 23
-0.2402389207
 33
0.0
 40
0.0
 40
0.0
 40
0.0
 40
0.0
 40
0.2018563251
 40
0.4484393042
 40
0.7201275271
 40
1.0
 40
1.0
 40
1.0
 40
1.0
 10
12.8782001707
 20
23.8289938525
 30
0.0
 10
12.9084404355
 20
23.8287606932
 30
0.0
 10
12.9739703372
 20
23.8062838512
 30
0.0
 10
13.0693366314
 20
23.7572253122
 30
0.0
 10
13.1721010773
 20
23.6955460167
 30
0.0
 10
13.2418882401
 20
23.6514093241
 30
0.0
 10
13.277324861
 20
23.6289972371
 30
0.0
 11
12.8782001707
 21
23.8289938525
 31
0.0
 11
12.9661897623
 21
23.8068899259
 31
0.0
 11
13.0655807545
 21
23.7578617036
 31
0.0
 11
13.1707492029
 21
23.6958113882
 31
0.0
 11
13.277324861
 21
23.6289972371
 31
0.0
  0
SPLINE
  5
6F1
100
AcDbEntity
  8
RACCORDO
100
AcDbSpline
 62
7
  6
CONTINUOUS
 70
0
 71
3
 72
11
 73
7
 74
5
 42
0.0000001
 43
0.0000001
 44
0.0000000001
 12
0.4494325074
 22
0.003465227
 32
0.0
 13
0.379851086
 23
0.2402389207
 33
0.0
 40
0.0
 40
0.0
 40
0.0
 40
0.0
 40
0.2018563251
 40
0.4484393042
 40
0.7201275271
 40
1.0
 40
1.0
 40
1.0
 40
1.0
 10
12.8782001707
 20
-23.7616840812
 30
0.0
 10
12.9084404355
 20
-23.7614509219
 30
0.0
 10
12.9739703372
 20
-23.7389740799
 30
0.0
 10
13.0693366314
 20
-23.6899155409
 30
0.0
 10
13.1721010773
 20
-23.6282362454
 30
0.0
 10
13.2418882401
 20
-23.5840995527
 30
0.0
 10
13.277324861
 20
-23.5616874658
 30
0.0
 11
12.8782001707
 21
-23.7616840812
 31
0.0
 11
12.9661897623
 21
-23.7395801546
 31
0.0
 11
13.0655807545
 21
-23.6905519323
 31
0.0
 11
13.1707492029
 21
-23.6285016169
 31
0.0
 11
13.277324861
 21
-23.5616874658
 31
0.0
  0
SPLINE
  5
6F2
100
AcDbEntity
  8
RACCORDO
100
AcDbSpline
 62
7
  6
CONTINUOUS
 70
0
 71
3
 72
11
 73
7
 74
5
 42
0.0000001
 43
0.0000001
 44
0.0000000001
 12
-0.4494325074
 22
0.003465227
 32
0.0
 13
-0.379851086
 23
0.2402389207
 33
0.0
 40
0.0
 40
0.0
 40
0.0
 40
0.0
 40
0.2018563251
 40
0.4484393042
 40
0.7201275271
 40
1.0
 40
1.0
 40
1.0
 40
1.0
 10
21.4706147981
 20
-23.7616840812
 30
0.0
 10
21.4403745333
 20
-23.7614509219
 30
0.0
 10
21.3748446316
 20
-23.7389740799
 30
0.0
 10
21.2794783374
 20
-23.6899155409
 30
0.0
 10
21.1767138916
 20
-23.6282362454
 30
0.0
 10
21.1069267287
 20
-23.5840995527
 30
0.0
 10
21.0714901078
 20
-23.5616874658
 30
0.0
 11
21.4706147981
 21
-23.7616840812
 31
0.0
 11
21.3826252065
 21
-23.7395801546
 31
0.0
 11
21.2832342143
 21
-23.6905519323
 31
0.0
 11
21.1780657659
 21
-23.6285016169
 31
0.0
 11
21.0714901078
 21
-23.5616874658
 31
0.0
  0
SPLINE
  5
6F3
100
AcDbEntity
  8
RACCORDO
100
AcDbSpline
 62
7
  6
CONTINUOUS
 70
0
 71
3
 72
11
 73
7
 74
5
 42
0.0000001
 43
0.0000001
 44
0.0000000001
 12
-0.4494325074
 22
-0.003465227
 32
0.0
 13
-0.379851086
 23
-0.2402389207
 33
0.0
 40
0.0
 40
0.0
 40
0.0
 40
0.0
 40
0.2018563251
 40
0.4484393042
 40
0.7201275271
 40
1.0
 40
1.0
 40
1.0
 40
1.0
 10
43.9706147981
 20
23.8289938525
 30
0.0
 10
43.9403745333
 20
23.8287606932
 30
0.0
 10
43.8748446316
 20
23.8062838512
 30
0.0
 10
43.7794783374
 20
23.7572253122
 30
0.0
 10
43.6767138916
 20
23.6955460167
 30
0.0
 10
43.6069267287
 20
23.6514093241
 30
0.0
 10
43.5714901078
 20
23.6289972371
 30
0.0
 11
43.9706147981
 21
23.8289938525
 31
0.0
 11
43.8826252065
 21
23.8068899259
 31
0.0
 11
43.7832342143
 21
23.7578617036
 31
0.0
 11
43.6780657659
 21
23.6958113882
 31
0.0
 11
43.5714901078
 21
23.6289972371
 31
0.0
  0
SPLINE
  5
6F4
100
AcDbEntity
  8
RACCORDO
100
AcDbSpline
 62
253
  6
CONTINUOUS
 70
0
 71
3
 72
11
 73
7
 74
5
 42
0.0000001
 43
0.0000001
 44
0.0000000001
 12
-0.0012232491
 22
-0.3641909974
 32
0.0
 13
-0.3641918961
 23
-0.0009174701
 33
0.0
 40
0.0
 40
0.0
 40
0.0
 40
0.0
 40
0.2331625878
 40
0.4766705428
 40
0.7338113025
 40
1.0
 40
1.0
 40
1.0
 40
1.0
 10
31.4113089057
 20
23.877992453
 30
0.0
 10
31.4112138337
 20
23.8496872145
 30
0.0
 10
31.3972842419
 20
23.7911439711
 30
0.0
 10
31.3403517116
 20
23.719482875
 30
0.0
 10
31.257683678
 20
23.6724845875
 30
0.0
 10
31.1936277253
 20
23.6615675087
 30
0.0
 10
31.1613131365
 20
23.661486102
 30
0.0
 11
31.4113089057
 21
23.877992453
 31
0.0
 11
31.3920708206
 21
23.7952841937
 31
0.0
 11
31.3378302942
 21
23.7251215231
 31
0.0
 11
31.2568147918
 21
23.6781470543
 31
0.0
 11
31.1613131365
 21
23.661486102
 31
0.0
  0
SPLINE
  5
6F5
100
AcDbEntity
  8
RACCORDO
100
AcDbSpline
 62
7
  6
CONTINUOUS
 70
0
 71
3
 72
12
 73
8
 74
6
 42
0.0000001
 43
0.0000001
 44
0.0000000001
 12
-0.00316672
 22
-0.3142672
 32
0.0
 13
-0.3142831544
 23
-0.0
 33
0.0
 40
0.0
 40
0.0
 40
0.0
 40
0.0
 40
0.1357657081
 40
0.2967195393
 40
0.494990308
 40
0.7319263554
 40
1.0
 40
1.0
 40
1.0
 40
1.0
 10
31.4171267355
 20
23.3006421838
 30
0.0
 10
31.4169834248
 20
23.2864199475
 30
0.0
 10
31.4080700966
 20
23.2551556091
 30
0.0
 10
31.3728767561
 20
23.2154817444
 30
0.0
 10
31.3185012937
 20
23.1833014389
 30
0.0
 10
31.2475504436
 20
23.1615406895
 30
0.0
 10
31.1944874144
 20
23.1563046165
 30
0.0
 10
31.1664037376
 20
23.1563046165
 30
0.0
 11
31.4171267355
 21
23.3006421838
 31
0.0
 11
31.4062761072
 21
23.2593760141
 31
0.0
 11
31.3740796595
 21
23.2203601346
 31
0.0
 11
31.3211539046
 21
23.1874694871
 31
0.0
 11
31.250226256
 21
23.1647911683
 31
0.0
 11
31.1664037376
 21
23.1563046165
 31
0.0
  0
SPLINE
  5
6F6
100
AcDbEntity
  8
RACCORDO
100
AcDbSpline
 62
7
  6
CONTINUOUS
 70
0
 71
3
 72
11
 73
7
 74
5
 42
0.0000001
 43
0.0000001
 44
0.0000000001
 12
0.4494325074
 22
-0.003465227
 32
0.0
 13
0.379851086
 23
-0.2402389207
 33
0.0
 40
0.0
 40
0.0
 40
0.0
 40
0.0
 40
0.2018563251
 40
0.4484393042
 40
0.7201275271
 40
1.0
 40
1.0
 40
1.0
 40
1.0
 10
35.3782001707
 20
23.8289938525
 30
0.0
 10
35.4084404355
 20
23.8287606932
 30
0.0
 10
35.4739703372
 20
23.8062838512
 30
0.0
 10
35.5693366314
 20
23.7572253122
 30
0.0
 10
35.6721010773
 20
23.6955460167
 30
0.0
 10
35.7418882401
 20
23.6514093241
 30
0.0
 10
35.777324861
 20
23.6289972371
 30
0.0
 11
35.3782001707
 21
23.8289938525
 31
0.0
 11
35.4661897623
 21
23.8068899259
 31
0.0
 11
35.5655807545
 21
23.7578617036
 31
0.0
 11
35.6707492029
 21
23.6958113882
 31
0.0
 11
35.777324861
 21
23.6289972371
 31
0.0
  0
SPLINE
  5
6F7
100
AcDbEntity
  8
RACCORDO
100
AcDbSpline
 62
7
  6
CONTINUOUS
 70
0
 71
3
 72
12
 73
8
 74
6
 42
0.0000001
 43
0.0000001
 44
0.0000000001
 12
0.00316672
 22
-0.3142672
 32
0.0
 13
0.3142831544
 23
0.0
 33
0.0
 40
0.0
 40
0.0
 40
0.0
 40
0.0
 40
0.1357657081
 40
0.2967195393
 40
0.494990308
 40
0.7319263554
 40
1.0
 40
1.0
 40
1.0
 40
1.0
 10
29.0316882333
 20
23.3006421838
 30
0.0
 10
29.031831544
 20
23.2864199475
 30
0.0
 10
29.0407448722
 20
23.2551556091
 30
0.0
 10
29.0759382127
 20
23.2154817444
 30
0.0
 10
29.1303136751
 20
23.1833014389
 30
0.0
 10
29.2012645252
 20
23.1615406895
 30
0.0
 10
29.2543275544
 20
23.1563046165
 30
0.0
 10
29.2824112313
 20
23.1563046165
 30
0.0
 11
29.0316882333
 21
23.3006421838
 31
0.0
 11
29.0425388616
 21
23.2593760141
 31
0.0
 11
29.0747353093
 21
23.2203601346
 31
0.0
 11
29.1276610643
 21
23.1874694871
 31
0.0
 11
29.1985887128
 21
23.1647911683
 31
0.0
 11
29.2824112313
 21
23.1563046165
 31
0.0
  0
SPLINE
  5
6F8
100
AcDbEntity
  8
RACCORDO
100
AcDbSpline
 62
253
  6
CONTINUOUS
 70
0
 71
3
 72
11
 73
7
 74
5
 42
0.0000001
 43
0.0000001
 44
0.0000000001
 12
0.0012232491
 22
-0.3641909974
 32
0.0
 13
0.3641918961
 23
-0.0009174701
 33
0.0
 40
0.0
 40
0.0
 40
0.0
 40
0.0
 40
0.2331625878
 40
0.4766705428
 40
0.7338113025
 40
1.0
 40
1.0
 40
1.0
 40
1.0
 10
29.0375060631
 20
23.877992453
 30
0.0
 10
29.0376011351
 20
23.8496872145
 30
0.0
 10
29.0515307269
 20
23.7911439711
 30
0.0
 10
29.1084632572
 20
23.719482875
 30
0.0
 10
29.1911312908
 20
23.6724845875
 30
0.0
 10
29.2551872435
 20
23.6615675087
 30
0.0
 10
29.2875018323
 20
23.661486102
 30
0.0
 11
29.0375060631
 21
23.877992453
 31
0.0
 11
29.0567441482
 21
23.7952841937
 31
0.0
 11
29.1109846746
 21
23.7251215231
 31
0.0
 11
29.192000177
 21
23.6781470543
 31
0.0
 11
29.2875018323
 21
23.661486102
 31
0.0
  0
SPLINE
  5
6F9
100
AcDbEntity
  8
RACCORDO
100
AcDbSpline
 62
7
  6
CONTINUOUS
 70
0
 71
3
 72
10
 73
6
 74
4
 42
0.0000001
 43
0.0000001
 44
0.0000000001
 12
0.0343729863
 22
-0.0031021255
 32
0.0
 13
0.0037555946
 23
-0.0343077379
 33
0.0
 40
0.0
 40
0.0
 40
0.0
 40
0.0
 40
0.5359036063
 40
0.8695586281
 40
1.0
 40
1.0
 40
1.0
 40
1.0
 10
50.2833228244
 20
-22.294255953
 30
0.0
 10
50.2894630268
 20
-22.2948100997
 30
0.0
 10
50.3001291343
 20
-22.295562503
 30
0.0
 10
50.30975052
 20
-22.297204355
 30
0.0
 10
50.3169634405
 20
-22.2982643596
 30
0.0
 10
50.3171267355
 20
-22.2997560758
 30
0.0
 11
50.2833228244
 21
-22.294255953
 31
0.0
 11
50.3017364529
 21
-22.2959939875
 31
0.0
 11
50.3131258974
 21
-22.2976920421
 31
0.0
 11
50.3171267355
 21
-22.2997560758
 31
0.0
  0
SPLINE
  5
6FA
100
AcDbEntity
  8
RACCORDO
100
AcDbSpline
 62
7
  6
CONTINUOUS
 70
0
 71
3
 72
12
 73
8
 74
6
 42
0.0000001
 43
0.0000001
 44
0.0000000001
 12
-0.0031594254
 22
0.313543278
 32
0.0
 13
-0.3135591956
 23
0.0
 33
0.0
 40
0.0
 40
0.0
 40
0.0
 40
0.0
 40
0.1363357513
 40
0.2975671046
 40
0.4959424479
 40
0.733166537
 40
1.0
 40
1.0
 40
1.0
 40
1.0
 10
50.3171267355
 20
-23.2333324125
 30
0.0
 10
50.3169831546
 20
-23.2190833597
 30
0.0
 10
50.3080470245
 20
-23.1878019531
 30
0.0
 10
50.2728515226
 20
-23.1481643335
 30
0.0
 10
50.2185455621
 20
-23.1160135376
 30
0.0
 10
50.1478493161
 20
-23.0943323159
 30
0.0
 10
50.0950203283
 20
-23.0889948452
 30
0.0
 10
50.0671309663
 20
-23.0889948452
 30
0.0
 11
50.3171267355
 21
-23.2333324125
 31
0.0
 11
50.3062375839
 21
-23.1919931881
 31
0.0
 11
50.2740400311
 21
-23.1530164823
 31
0.0
 11
50.2212082461
 21
-23.1201844448
 31
0.0
 11
50.1503646139
 21
-23.0975100393
 31
0.0
 11
50.0671309663
 21
-23.0889948452
 31
0.0
  0
SPLINE
  5
6FB
100
AcDbEntity
  8
RACCORDO
100
AcDbSpline
 62
253
  6
CONTINUOUS
 70
0
 71
3
 72
11
 73
7
 74
5
 42
0.0000001
 43
0.0000001
 44
0.0000000001
 12
-0.0012232543
 22
0.3641925536
 32
0.0
 13
-0.3641934522
 23
0.000917474
 33
0.0
 40
0.0
 40
0.0
 40
0.0
 40
0.0
 40
0.2320250085
 40
0.47587978
 40
0.7334116474
 40
1.0
 40
1.0
 40
1.0
 40
1.0
 10
50.3113089057
 20
-23.8106826816
 30
0.0
 10
50.3112142972
 20
-23.7825154215
 30
0.0
 10
50.2973822437
 20
-23.7240755568
 30
0.0
 10
50.2405900271
 20
-23.6523470994
 30
0.0
 10
50.1578310231
 20
-23.6052083682
 30
0.0
 10
50.0936763806
 20
-23.59425786
 30
0.0
 10
50.0613131365
 20
-23.5941763307
 30
0.0
 11
50.3113089057
 21
-23.8106826816
 31
0.0
 11
50.2922541309
 21
-23.728356823
 31
0.0
 11
50.2380523018
 21
-23.65800426
 31
0.0
 11
50.1569541852
 21
-23.6108875778
 31
0.0
 11
50.0613131365
 21
-23.5941763307
 31
0.0
  0
SPLINE
  5
6FC
100
AcDbEntity
  8
RACCORDO
100
AcDbSpline
 62
253
  6
CONTINUOUS
 70
0
 71
3
 72
11
 73
7
 74
5
 42
0.0000001
 43
0.0000001
 44
0.0000000001
 12
-0.0012232491
 22
-0.3641909974
 32
0.0
 13
-0.3641918961
 23
-0.0009174701
 33
0.0
 40
0.0
 40
0.0
 40
0.0
 40
0.0
 40
0.2331625878
 40
0.4766705428
 40
0.7338113025
 40
1.0
 40
1.0
 40
1.0
 40
1.0
 10
50.3113089057
 20
23.877992453
 30
0.0
 10
50.3112138337
 20
23.8496872145
 30
0.0
 10
50.2972842419
 20
23.7911439711
 30
0.0
 10
50.2403517116
 20
23.719482875
 30
0.0
 10
50.157683678
 20
23.6724845875
 30
0.0
 10
50.0936277253
 20
23.6615675087
 30
0.0
 10
50.0613131365
 20
23.661486102
 30
0.0
 11
50.3113089057
 21
23.877992453
 31
0.0
 11
50.2920708206
 21
23.7952841937
 31
0.0
 11
50.2378302942
 21
23.7251215231
 31
0.0
 11
50.1568147918
 21
23.6781470543
 31
0.0
 11
50.0613131365
 21
23.661486102
 31
0.0
  0
SPLINE
  5
6FD
100
AcDbEntity
  8
RACCORDO
100
AcDbSpline
 62
7
  6
CONTINUOUS
 70
0
 71
3
 72
12
 73
8
 74
6
 42
0.0000001
 43
0.0000001
 44
0.0000000001
 12
-0.0031594254
 22
0.313543278
 32
0.0
 13
-0.3135591956
 23
0.0
 33
0.0
 40
0.0
 40
0.0
 40
0.0
 40
0.0
 40
0.1363357513
 40
0.2975671046
 40
0.4959424479
 40
0.733166537
 40
1.0
 40
1.0
 40
1.0
 40
1.0
 10
27.8171267355
 20
-23.2333324125
 30
0.0
 10
27.8169831546
 20
-23.2190833597
 30
0.0
 10
27.8080470245
 20
-23.1878019531
 30
0.0
 10
27.7728515226
 20
-23.1481643335
 30
0.0
 10
27.7185455621
 20
-23.1160135376
 30
0.0
 10
27.6478493161
 20
-23.0943323159
 30
0.0
 10
27.5950203283
 20
-23.0889948452
 30
0.0
 10
27.5671309663
 20
-23.0889948452
 30
0.0
 11
27.8171267355
 21
-23.2333324125
 31
0.0
 11
27.8062375839
 21
-23.1919931881
 31
0.0
 11
27.7740400311
 21
-23.1530164823
 31
0.0
 11
27.7212082461
 21
-23.1201844448
 31
0.0
 11
27.6503646139
 21
-23.0975100393
 31
0.0
 11
27.5671309663
 21
-23.0889948452
 31
0.0
  0
SPLINE
  5
6FE
100
AcDbEntity
  8
RACCORDO
100
AcDbSpline
 62
253
  6
CONTINUOUS
 70
0
 71
3
 72
11
 73
7
 74
5
 42
0.0000001
 43
0.0000001
 44
0.0000000001
 12
-0.0012232543
 22
0.3641925536
 32
0.0
 13
-0.3641934522
 23
0.000917474
 33
0.0
 40
0.0
 40
0.0
 40
0.0
 40
0.0
 40
0.2320250085
 40
0.47587978
 40
0.7334116474
 40
1.0
 40
1.0
 40
1.0
 40
1.0
 10
27.8113089057
 20
-23.8106826816
 30
0.0
 10
27.8112142972
 20
-23.7825154215
 30
0.0
 10
27.7973822437
 20
-23.7240755568
 30
0.0
 10
27.7405900271
 20
-23.6523470994
 30
0.0
 10
27.6578310231
 20
-23.6052083682
 30
0.0
 10
27.5936763806
 20
-23.59425786
 30
0.0
 10
27.5613131365
 20
-23.5941763307
 30
0.0
 11
27.8113089057
 21
-23.8106826816
 31
0.0
 11
27.7922541309
 21
-23.728356823
 31
0.0
 11
27.7380523018
 21
-23.65800426
 31
0.0
 11
27.6569541852
 21
-23.6108875778
 31
0.0
 11
27.5613131365
 21
-23.5941763307
 31
0.0
  0
SPLINE
  5
6FF
100
AcDbEntity
  8
RACCORDO
100
AcDbSpline
 62
7
  6
CONTINUOUS
 70
0
 71
3
 72
11
 73
7
 74
5
 42
0.0000001
 43
0.0000001
 44
0.0000000001
 12
0.4494325074
 22
0.003465227
 32
0.0
 13
0.379851086
 23
0.2402389207
 33
0.0
 40
0.0
 40
0.0
 40
0.0
 40
0.0
 40
0.2018563251
 40
0.4484393042
 40
0.7201275271
 40
1.0
 40
1.0
 40
1.0
 40
1.0
 10
35.3782001707
 20
-23.7616840812
 30
0.0
 10
35.4084404355
 20
-23.7614509219
 30
0.0
 10
35.4739703372
 20
-23.7389740799
 30
0.0
 10
35.5693366314
 20
-23.6899155409
 30
0.0
 10
35.6721010773
 20
-23.6282362454
 30
0.0
 10
35.7418882401
 20
-23.5840995527
 30
0.0
 10
35.777324861
 20
-23.5616874658
 30
0.0
 11
35.3782001707
 21
-23.7616840812
 31
0.0
 11
35.4661897623
 21
-23.7395801546
 31
0.0
 11
35.5655807545
 21
-23.6905519323
 31
0.0
 11
35.6707492029
 21
-23.6285016169
 31
0.0
 11
35.777324861
 21
-23.5616874658
 31
0.0
  0
SPLINE
  5
700
100
AcDbEntity
  8
RACCORDO
100
AcDbSpline
 62
253
  6
CONTINUOUS
 70
0
 71
3
 72
11
 73
7
 74
5
 42
0.0000001
 43
0.0000001
 44
0.0000000001
 12
0.0012232543
 22
0.3641925536
 32
0.0
 13
0.3641934522
 23
0.000917474
 33
0.0
 40
0.0
 40
0.0
 40
0.0
 40
0.0
 40
0.2320250085
 40
0.47587978
 40
0.7334116474
 40
1.0
 40
1.0
 40
1.0
 40
1.0
 10
25.4375060631
 20
-23.8106826816
 30
0.0
 10
25.4376006717
 20
-23.7825154215
 30
0.0
 10
25.4514327251
 20
-23.7240755568
 30
0.0
 10
25.5082249417
 20
-23.6523470994
 30
0.0
 10
25.5909839457
 20
-23.6052083682
 30
0.0
 10
25.6551385882
 20
-23.59425786
 30
0.0
 10
25.6875018323
 20
-23.5941763307
 30
0.0
 11
25.4375060631
 21
-23.8106826816
 31
0.0
 11
25.4565608379
 21
-23.728356823
 31
0.0
 11
25.510762667
 21
-23.65800426
 31
0.0
 11
25.5918607836
 21
-23.6108875778
 31
0.0
 11
25.6875018323
 21
-23.5941763307
 31
0.0
  0
SPLINE
  5
701
100
AcDbEntity
  8
RACCORDO
100
AcDbSpline
 62
7
  6
CONTINUOUS
 70
0
 71
3
 72
12
 73
8
 74
6
 42
0.0000001
 43
0.0000001
 44
0.0000000001
 12
0.00316672
 22
0.3142672
 32
0.0
 13
0.3142831544
 23
-0.0
 33
0.0
 40
0.0
 40
0.0
 40
0.0
 40
0.0
 40
0.1357657081
 40
0.2967195393
 40
0.494990308
 40
0.7319263554
 40
1.0
 40
1.0
 40
1.0
 40
1.0
 10
25.4316882333
 20
-23.2333324125
 30
0.0
 10
25.431831544
 20
-23.2191101761
 30
0.0
 10
25.4407448722
 20
-23.1878458378
 30
0.0
 10
25.4759382127
 20
-23.1481719731
 30
0.0
 10
25.5303136751
 20
-23.1159916676
 30
0.0
 10
25.6012645252
 20
-23.0942309182
 30
0.0
 10
25.6543275544
 20
-23.0889948452
 30
0.0
 10
25.6824112313
 20
-23.0889948452
 30
0.0
 11
25.4316882333
 21
-23.2333324125
 31
0.0
 11
25.4425388616
 21
-23.1920662428
 31
0.0
 11
25.4747353093
 21
-23.1530503633
 31
0.0
 11
25.5276610643
 21
-23.1201597158
 31
0.0
 11
25.5985887128
 21
-23.097481397
 31
0.0
 11
25.6824112313
 21
-23.0889948452
 31
0.0
  0
SPLINE
  5
702
100
AcDbEntity
  8
RACCORDO
100
AcDbSpline
 62
7
  6
CONTINUOUS
 70
0
 71
3
 72
11
 73
7
 74
5
 42
0.0000001
 43
0.0000001
 44
0.0000000001
 12
-0.4494325074
 22
0.003465227
 32
0.0
 13
-0.379851086
 23
0.2402389207
 33
0.0
 40
0.0
 40
0.0
 40
0.0
 40
0.0
 40
0.2018563251
 40
0.4484393042
 40
0.7201275271
 40
1.0
 40
1.0
 40
1.0
 40
1.0
 10
43.9706147981
 20
-23.7616840812
 30
0.0
 10
43.9403745333
 20
-23.7614509219
 30
0.0
 10
43.8748446316
 20
-23.7389740799
 30
0.0
 10
43.7794783374
 20
-23.6899155409
 30
0.0
 10
43.6767138916
 20
-23.6282362454
 30
0.0
 10
43.6069267287
 20
-23.5840995527
 30
0.0
 10
43.5714901078
 20
-23.5616874658
 30
0.0
 11
43.9706147981
 21
-23.7616840812
 31
0.0
 11
43.8826252065
 21
-23.7395801546
 31
0.0
 11
43.7832342143
 21
-23.6905519323
 31
0.0
 11
43.6780657659
 21
-23.6285016169
 31
0.0
 11
43.5714901078
 21
-23.5616874658
 31
0.0
  0
SPLINE
  5
703
100
AcDbEntity
  8
RACCORDO
100
AcDbSpline
 62
253
  6
CONTINUOUS
 70
0
 71
3
 72
11
 73
7
 74
5
 42
0.0000001
 43
0.0000001
 44
0.0000000001
 12
0.0012232543
 22
0.3641925536
 32
0.0
 13
0.3641934522
 23
0.000917474
 33
0.0
 40
0.0
 40
0.0
 40
0.0
 40
0.0
 40
0.2320250085
 40
0.47587978
 40
0.7334116474
 40
1.0
 40
1.0
 40
1.0
 40
1.0
 10
47.9375060631
 20
-23.8106826816
 30
0.0
 10
47.9376006717
 20
-23.7825154215
 30
0.0
 10
47.9514327251
 20
-23.7240755568
 30
0.0
 10
48.0082249417
 20
-23.6523470994
 30
0.0
 10
48.0909839457
 20
-23.6052083682
 30
0.0
 10
48.1551385882
 20
-23.59425786
 30
0.0
 10
48.1875018323
 20
-23.5941763307
 30
0.0
 11
47.9375060631
 21
-23.8106826816
 31
0.0
 11
47.9565608379
 21
-23.728356823
 31
0.0
 11
48.010762667
 21
-23.65800426
 31
0.0
 11
48.0918607836
 21
-23.6108875778
 31
0.0
 11
48.1875018323
 21
-23.5941763307
 31
0.0
  0
SPLINE
  5
704
100
AcDbEntity
  8
RACCORDO
100
AcDbSpline
 62
7
  6
CONTINUOUS
 70
0
 71
3
 72
12
 73
8
 74
6
 42
0.0000001
 43
0.0000001
 44
0.0000000001
 12
0.00316672
 22
0.3142672
 32
0.0
 13
0.3142831544
 23
-0.0
 33
0.0
 40
0.0
 40
0.0
 40
0.0
 40
0.0
 40
0.1357657081
 40
0.2967195393
 40
0.494990308
 40
0.7319263554
 40
1.0
 40
1.0
 40
1.0
 40
1.0
 10
47.9316882333
 20
-23.2333324125
 30
0.0
 10
47.931831544
 20
-23.2191101761
 30
0.0
 10
47.9407448722
 20
-23.1878458378
 30
0.0
 10
47.9759382127
 20
-23.1481719731
 30
0.0
 10
48.0303136751
 20
-23.1159916676
 30
0.0
 10
48.1012645252
 20
-23.0942309182
 30
0.0
 10
48.1543275544
 20
-23.0889948452
 30
0.0
 10
48.1824112313
 20
-23.0889948452
 30
0.0
 11
47.9316882333
 21
-23.2333324125
 31
0.0
 11
47.9425388616
 21
-23.1920662428
 31
0.0
 11
47.9747353093
 21
-23.1530503633
 31
0.0
 11
48.0276610643
 21
-23.1201597158
 31
0.0
 11
48.0985887128
 21
-23.097481397
 31
0.0
 11
48.1824112313
 21
-23.0889948452
 31
0.0
  0
SPLINE
  5
705
100
AcDbEntity
  8
RACCORDO
100
AcDbSpline
 62
7
  6
CONTINUOUS
 70
0
 71
3
 72
12
 73
8
 74
6
 42
0.0000001
 43
0.0000001
 44
0.0000000001
 12
-0.00316672
 22
0.3142672
 32
0.0
 13
-0.3142831544
 23
0.0
 33
0.0
 40
0.0
 40
0.0
 40
0.0
 40
0.0
 40
0.1357657081
 40
0.2967195393
 40
0.494990308
 40
0.7319263554
 40
1.0
 40
1.0
 40
1.0
 40
1.0
 10
8.9171267355
 20
-23.2333324125
 30
0.0
 10
8.9169834248
 20
-23.2191101761
 30
0.0
 10
8.9080700966
 20
-23.1878458378
 30
0.0
 10
8.8728767561
 20
-23.1481719731
 30
0.0
 10
8.8185012937
 20
-23.1159916676
 30
0.0
 10
8.7475504436
 20
-23.0942309182
 30
0.0
 10
8.6944874144
 20
-23.0889948452
 30
0.0
 10
8.6664037376
 20
-23.0889948452
 30
0.0
 11
8.9171267355
 21
-23.2333324125
 31
0.0
 11
8.9062761072
 21
-23.1920662428
 31
0.0
 11
8.8740796595
 21
-23.1530503633
 31
0.0
 11
8.8211539046
 21
-23.1201597158
 31
0.0
 11
8.750226256
 21
-23.097481397
 31
0.0
 11
8.6664037376
 21
-23.0889948452
 31
0.0
  0
SPLINE
  5
706
100
AcDbEntity
  8
RACCORDO
100
AcDbSpline
 62
253
  6
CONTINUOUS
 70
0
 71
3
 72
11
 73
7
 74
5
 42
0.0000001
 43
0.0000001
 44
0.0000000001
 12
-0.0012232543
 22
0.3641925536
 32
0.0
 13
-0.3641934522
 23
0.000917474
 33
0.0
 40
0.0
 40
0.0
 40
0.0
 40
0.0
 40
0.2320250085
 40
0.47587978
 40
0.7334116474
 40
1.0
 40
1.0
 40
1.0
 40
1.0
 10
8.9113089057
 20
-23.8106826816
 30
0.0
 10
8.9112142972
 20
-23.7825154215
 30
0.0
 10
8.8973822437
 20
-23.7240755568
 30
0.0
 10
8.8405900271
 20
-23.6523470994
 30
0.0
 10
8.7578310231
 20
-23.6052083682
 30
0.0
 10
8.6936763806
 20
-23.59425786
 30
0.0
 10
8.6613131365
 20
-23.5941763307
 30
0.0
 11
8.9113089057
 21
-23.8106826816
 31
0.0
 11
8.8922541309
 21
-23.728356823
 31
0.0
 11
8.8380523018
 21
-23.65800426
 31
0.0
 11
8.7569541852
 21
-23.6108875778
 31
0.0
 11
8.6613131365
 21
-23.5941763307
 31
0.0
  0
SPLINE
  5
707
100
AcDbEntity
  8
RACCORDO
100
AcDbSpline
 62
253
  6
CONTINUOUS
 70
0
 71
3
 72
11
 73
7
 74
5
 42
0.0000001
 43
0.0000001
 44
0.0000000001
 12
0.0012232543
 22
0.3641925536
 32
0.0
 13
0.3641934522
 23
0.000917474
 33
0.0
 40
0.0
 40
0.0
 40
0.0
 40
0.0
 40
0.2320250085
 40
0.47587978
 40
0.7334116474
 40
1.0
 40
1.0
 40
1.0
 40
1.0
 10
6.5375060631
 20
-23.8106826816
 30
0.0
 10
6.5376006717
 20
-23.7825154215
 30
0.0
 10
6.5514327251
 20
-23.7240755568
 30
0.0
 10
6.6082249417
 20
-23.6523470994
 30
0.0
 10
6.6909839457
 20
-23.6052083682
 30
0.0
 10
6.7551385882
 20
-23.59425786
 30
0.0
 10
6.7875018323
 20
-23.5941763307
 30
0.0
 11
6.5375060631
 21
-23.8106826816
 31
0.0
 11
6.5565608379
 21
-23.728356823
 31
0.0
 11
6.610762667
 21
-23.65800426
 31
0.0
 11
6.6918607836
 21
-23.6108875778
 31
0.0
 11
6.7875018323
 21
-23.5941763307
 31
0.0
  0
SPLINE
  5
708
100
AcDbEntity
  8
RACCORDO
100
AcDbSpline
 62
7
  6
CONTINUOUS
 70
0
 71
3
 72
12
 73
8
 74
6
 42
0.0000001
 43
0.0000001
 44
0.0000000001
 12
0.0031594254
 22
0.313543278
 32
0.0
 13
0.3135591956
 23
0.0
 33
0.0
 40
0.0
 40
0.0
 40
0.0
 40
0.0
 40
0.1363357513
 40
0.2975671046
 40
0.4959424479
 40
0.733166537
 40
1.0
 40
1.0
 40
1.0
 40
1.0
 10
6.5316882333
 20
-23.2333324125
 30
0.0
 10
6.5318318142
 20
-23.2190833597
 30
0.0
 10
6.5407679443
 20
-23.1878019531
 30
0.0
 10
6.5759634462
 20
-23.1481643335
 30
0.0
 10
6.6302694067
 20
-23.1160135376
 30
0.0
 10
6.7009656527
 20
-23.0943323159
 30
0.0
 10
6.7537946405
 20
-23.0889948452
 30
0.0
 10
6.7816840025
 20
-23.0889948452
 30
0.0
 11
6.5316882333
 21
-23.2333324125
 31
0.0
 11
6.5425773849
 21
-23.1919931881
 31
0.0
 11
6.5747749378
 21
-23.1530164823
 31
0.0
 11
6.6276067227
 21
-23.1201844448
 31
0.0
 11
6.698450355
 21
-23.0975100393
 31
0.0
 11
6.7816840025
 21
-23.0889948452
 31
0.0
  0
SPLINE
  5
709
100
AcDbEntity
  8
RACCORDO
100
AcDbSpline
 62
7
  6
CONTINUOUS
 70
0
 71
3
 72
10
 73
6
 74
4
 42
0.0000001
 43
0.0000001
 44
0.0000000001
 12
0.0037555946
 22
0.0343077379
 32
0.0
 13
0.0343729863
 23
0.0031021255
 33
0.0
 40
0.0
 40
0.0
 40
0.0
 40
0.0
 40
0.1304413719
 40
0.4640963937
 40
1.0
 40
1.0
 40
1.0
 40
1.0
 10
6.5316882333
 20
-22.2997560758
 30
0.0
 10
6.5318515283
 20
-22.2982643596
 30
0.0
 10
6.5390644488
 20
-22.297204355
 30
0.0
 10
6.5486858346
 20
-22.295562503
 30
0.0
 10
6.559351942
 20
-22.2948100997
 30
0.0
 10
6.5654921445
 20
-22.294255953
 30
0.0
 11
6.5316882333
 21
-22.2997560758
 31
0.0
 11
6.5356890714
 21
-22.2976920421
 31
0.0
 11
6.5470785159
 21
-22.2959939875
 31
0.0
 11
6.5654921445
 21
-22.294255953
 31
0.0
  0
SPLINE
  5
70A
100
AcDbEntity
  8
RACCORDO
100
AcDbSpline
 62
7
  6
CONTINUOUS
 70
0
 71
3
 72
20
 73
16
 74
14
 42
0.0000001
 43
0.0000001
 44
0.0000000001
 12
13.5279388833
 22
-16.2291978984
 32
0.0
 13
13.5279388833
 23
16.2291978984
 33
0.0
 40
0.0
 40
0.0
 40
0.0
 40
0.0
 40
0.0701949441
 40
0.1435065888
 40
0.2214222964
 40
0.3019663919
 40
0.3817350148
 40
0.4606319894
 40
0.5389247936
 40
0.6178589199
 40
0.6975997603
 40
0.7780642215
 40
0.8559533167
 40
0.9294042469
 40
1.0
 40
1.0
 40
1.0
 40
1.0
 10
19.1570063663
 20
-6.2663451143
 30
0.0
 10
19.4735373376
 20
-6.6460809942
 30
0.0
 10
20.1688391764
 20
-7.3836425863
 30
0.0
 10
21.3749595135
 20
-8.3784875494
 30
0.0
 10
22.7643946965
 20
-9.2448650572
 30
0.0
 10
24.3023356882
 20
-9.9293048829
 30
0.0
 10
25.9276226989
 20
-10.3931909829
 30
0.0
 10
27.585747588
 20
-10.6244932271
 30
0.0
 10
29.2539407572
 20
-10.6251442358
 30
0.0
 10
30.9123095473
 20
-10.3950712466
 30
0.0
 10
32.5374572649
 20
-9.9325219446
 30
0.0
 10
34.0750905325
 20
-9.2497506096
 30
0.0
 10
35.4655203137
 20
-8.3845345203
 30
0.0
 10
36.6752683412
 20
-7.3883695422
 30
0.0
 10
37.373470258
 20
-6.6482492637
 30
0.0
 10
37.6918086025
 20
-6.2663451143
 30
0.0
 11
19.1570063663
 21
-6.2663451143
 31
0.0
 11
20.1744104548
 21
-7.3454232712
 31
0.0
 11
21.3693457081
 21
-8.3309723187
 31
0.0
 11
22.7662953774
 21
-9.2018993003
 31
0.0
 11
24.3210465208
 21
-9.8937450792
 31
0.0
 11
25.9416913552
 21
-10.3562571399
 31
0.0
 11
27.5926431566
 21
-10.5865372937
 31
0.0
 11
29.2468126768
 21
-10.5871826056
 31
0.0
 11
30.8987135946
 21
-10.3580283626
 31
0.0
 11
32.5191348896
 21
-9.8968736254
 31
0.0
 11
34.0729229983
 21
-9.2070035938
 31
0.0
 11
35.470198503
 21
-8.3376633516
 31
0.0
 11
36.6682157665
 21
-7.3512268746
 31
0.0
 11
37.6918086025
 21
-6.2663451143
 31
0.0
  0
SPLINE
  5
70B
100
AcDbEntity
  8
RACCORDO
100
AcDbSpline
 62
253
  6
CONTINUOUS
 70
0
 71
3
 72
11
 73
7
 74
5
 42
0.0000001
 43
0.0000001
 44
0.0000000001
 12
-0.0012232491
 22
-0.3641909974
 32
0.0
 13
-0.3641918961
 23
-0.0009174701
 33
0.0
 40
0.0
 40
0.0
 40
0.0
 40
0.0
 40
0.2331625878
 40
0.4766705428
 40
0.7338113025
 40
1.0
 40
1.0
 40
1.0
 40
1.0
 10
27.8113089057
 20
23.877992453
 30
0.0
 10
27.8112138337
 20
23.8496872145
 30
0.0
 10
27.7972842419
 20
23.7911439711
 30
0.0
 10
27.7403517116
 20
23.719482875
 30
0.0
 10
27.657683678
 20
23.6724845875
 30
0.0
 10
27.5936277253
 20
23.6615675087
 30
0.0
 10
27.5613131365
 20
23.661486102
 30
0.0
 11
27.8113089057
 21
23.877992453
 31
0.0
 11
27.7920708206
 21
23.7952841937
 31
0.0
 11
27.7378302942
 21
23.7251215231
 31
0.0
 11
27.6568147918
 21
23.6781470543
 31
0.0
 11
27.5613131365
 21
23.661486102
 31
0.0
  0
SPLINE
  5
70C
100
AcDbEntity
  8
RACCORDO
100
AcDbSpline
 62
7
  6
CONTINUOUS
 70
0
 71
3
 72
12
 73
8
 74
6
 42
0.0000001
 43
0.0000001
 44
0.0000000001
 12
-0.00316672
 22
-0.3142672
 32
0.0
 13
-0.3142831544
 23
-0.0
 33
0.0
 40
0.0
 40
0.0
 40
0.0
 40
0.0
 40
0.1357657081
 40
0.2967195393
 40
0.494990308
 40
0.7319263554
 40
1.0
 40
1.0
 40
1.0
 40
1.0
 10
27.8171267355
 20
23.3006421838
 30
0.0
 10
27.8169834248
 20
23.2864199475
 30
0.0
 10
27.8080700966
 20
23.2551556091
 30
0.0
 10
27.7728767561
 20
23.2154817444
 30
0.0
 10
27.7185012937
 20
23.1833014389
 30
0.0
 10
27.6475504436
 20
23.1615406895
 30
0.0
 10
27.5944874144
 20
23.1563046165
 30
0.0
 10
27.5664037376
 20
23.1563046165
 30
0.0
 11
27.8171267355
 21
23.3006421838
 31
0.0
 11
27.8062761072
 21
23.2593760141
 31
0.0
 11
27.7740796595
 21
23.2203601346
 31
0.0
 11
27.7211539046
 21
23.1874694871
 31
0.0
 11
27.650226256
 21
23.1647911683
 31
0.0
 11
27.5664037376
 21
23.1563046165
 31
0.0
  0
SPLINE
  5
70D
100
AcDbEntity
  8
RACCORDO
100
AcDbSpline
 62
7
  6
CONTINUOUS
 70
0
 71
3
 72
12
 73
8
 74
6
 42
0.0000001
 43
0.0000001
 44
0.0000000001
 12
-0.00316672
 22
0.3142672
 32
0.0
 13
-0.3142831544
 23
0.0
 33
0.0
 40
0.0
 40
0.0
 40
0.0
 40
0.0
 40
0.1357657081
 40
0.2967195393
 40
0.494990308
 40
0.7319263554
 40
1.0
 40
1.0
 40
1.0
 40
1.0
 10
31.4171267355
 20
-23.2333324125
 30
0.0
 10
31.4169834248
 20
-23.2191101761
 30
0.0
 10
31.4080700966
 20
-23.1878458378
 30
0.0
 10
31.3728767561
 20
-23.1481719731
 30
0.0
 10
31.3185012937
 20
-23.1159916676
 30
0.0
 10
31.2475504436
 20
-23.0942309182
 30
0.0
 10
31.1944874144
 20
-23.0889948452
 30
0.0
 10
31.1664037376
 20
-23.0889948452
 30
0.0
 11
31.4171267355
 21
-23.2333324125
 31
0.0
 11
31.4062761072
 21
-23.1920662428
 31
0.0
 11
31.3740796595
 21
-23.1530503633
 31
0.0
 11
31.3211539046
 21
-23.1201597158
 31
0.0
 11
31.250226256
 21
-23.097481397
 31
0.0
 11
31.1664037376
 21
-23.0889948452
 31
0.0
  0
SPLINE
  5
70E
100
AcDbEntity
  8
RACCORDO
100
AcDbSpline
 62
253
  6
CONTINUOUS
 70
0
 71
3
 72
11
 73
7
 74
5
 42
0.0000001
 43
0.0000001
 44
0.0000000001
 12
-0.0012232543
 22
0.3641925536
 32
0.0
 13
-0.3641934522
 23
0.000917474
 33
0.0
 40
0.0
 40
0.0
 40
0.0
 40
0.0
 40
0.2320250085
 40
0.47587978
 40
0.7334116474
 40
1.0
 40
1.0
 40
1.0
 40
1.0
 10
31.4113089057
 20
-23.8106826816
 30
0.0
 10
31.4112142972
 20
-23.7825154215
 30
0.0
 10
31.3973822437
 20
-23.7240755568
 30
0.0
 10
31.3405900271
 20
-23.6523470994
 30
0.0
 10
31.2578310231
 20
-23.6052083682
 30
0.0
 10
31.1936763806
 20
-23.59425786
 30
0.0
 10
31.1613131365
 20
-23.5941763307
 30
0.0
 11
31.4113089057
 21
-23.8106826816
 31
0.0
 11
31.3922541309
 21
-23.728356823
 31
0.0
 11
31.3380523018
 21
-23.65800426
 31
0.0
 11
31.2569541852
 21
-23.6108875778
 31
0.0
 11
31.1613131365
 21
-23.5941763307
 31
0.0
  0
SPLINE
  5
70F
100
AcDbEntity
  8
RACCORDO
100
AcDbSpline
 62
7
  6
CONTINUOUS
 70
0
 71
3
 72
12
 73
8
 74
6
 42
0.0000001
 43
0.0000001
 44
0.0000000001
 12
0.00316672
 22
-0.3142672
 32
0.0
 13
0.3142831544
 23
0.0
 33
0.0
 40
0.0
 40
0.0
 40
0.0
 40
0.0
 40
0.1357657081
 40
0.2967195393
 40
0.494990308
 40
0.7319263554
 40
1.0
 40
1.0
 40
1.0
 40
1.0
 10
25.4316882333
 20
23.3006421838
 30
0.0
 10
25.431831544
 20
23.2864199475
 30
0.0
 10
25.4407448722
 20
23.2551556091
 30
0.0
 10
25.4759382127
 20
23.2154817444
 30
0.0
 10
25.5303136751
 20
23.1833014389
 30
0.0
 10
25.6012645252
 20
23.1615406895
 30
0.0
 10
25.6543275544
 20
23.1563046165
 30
0.0
 10
25.6824112313
 20
23.1563046165
 30
0.0
 11
25.4316882333
 21
23.3006421838
 31
0.0
 11
25.4425388616
 21
23.2593760141
 31
0.0
 11
25.4747353093
 21
23.2203601346
 31
0.0
 11
25.5276610643
 21
23.1874694871
 31
0.0
 11
25.5985887128
 21
23.1647911683
 31
0.0
 11
25.6824112313
 21
23.1563046165
 31
0.0
  0
SPLINE
  5
710
100
AcDbEntity
  8
RACCORDO
100
AcDbSpline
 62
253
  6
CONTINUOUS
 70
0
 71
3
 72
11
 73
7
 74
5
 42
0.0000001
 43
0.0000001
 44
0.0000000001
 12
0.0012232491
 22
-0.3641909974
 32
0.0
 13
0.3641918961
 23
-0.0009174701
 33
0.0
 40
0.0
 40
0.0
 40
0.0
 40
0.0
 40
0.2331625878
 40
0.4766705428
 40
0.7338113025
 40
1.0
 40
1.0
 40
1.0
 40
1.0
 10
25.4375060631
 20
23.877992453
 30
0.0
 10
25.4376011351
 20
23.8496872145
 30
0.0
 10
25.4515307269
 20
23.7911439711
 30
0.0
 10
25.5084632572
 20
23.719482875
 30
0.0
 10
25.5911312908
 20
23.6724845875
 30
0.0
 10
25.6551872435
 20
23.6615675087
 30
0.0
 10
25.6875018323
 20
23.661486102
 30
0.0
 11
25.4375060631
 21
23.877992453
 31
0.0
 11
25.4567441482
 21
23.7952841937
 31
0.0
 11
25.5109846746
 21
23.7251215231
 31
0.0
 11
25.592000177
 21
23.6781470543
 31
0.0
 11
25.6875018323
 21
23.661486102
 31
0.0
  0
SPLINE
  5
711
100
AcDbEntity
  8
RACCORDO
100
AcDbSpline
 62
7
  6
CONTINUOUS
 70
0
 71
3
 72
28
 73
24
 74
22
 42
0.0000001
 43
0.0000001
 44
0.0000000001
 12
-24.4557396874
 22
29.5909438236
 32
0.0
 13
23.7027615631
 23
-30.2435753337
 33
0.0
 40
0.0
 40
0.0
 40
0.0
 40
0.0
 40
0.0477153255
 40
0.095517882
 40
0.1433880215
 40
0.1913000231
 40
0.2392244617
 40
0.2871364116
 40
0.3350126859
 40
0.3828270987
 40
0.4305591817
 40
0.4782097779
 40
0.5257665767
 40
0.5732348401
 40
0.6206285211
 40
0.6679683469
 40
0.7152799374
 40
0.7625914884
 40
0.8099311822
 40
0.8573246409
 40
0.9047926033
 40
0.952349056
 40
1.0
 40
1.0
 40
1.0
 40
1.0
 10
19.1244074844
 20
-6.2270694341
 30
0.0
 10
18.7354362912
 20
-5.7564222619
 30
0.0
 10
18.026803078
 20
-4.7538174408
 30
0.0
 10
17.2018244861
 20
-3.1074999142
 30
0.0
 10
16.6320840626
 20
-1.3533151526
 30
0.0
 10
16.3315522852
 20
0.4678968195
 30
0.0
 10
16.307311273
 20
2.3141398317
 30
0.0
 10
16.5599461477
 20
4.1427090746
 30
0.0
 10
17.0834222713
 20
5.9114026295
 30
0.0
 10
17.8652688641
 20
7.5794952238
 30
0.0
 10
18.8870008595
 20
9.1089533089
 30
0.0
 10
20.1246514864
 20
10.4651568132
 30
0.0
 10
21.549489814
 20
11.6177646489
 30
0.0
 10
23.1286598107
 20
12.5412557447
 30
0.0
 10
24.8262504603
 20
13.2155202796
 30
0.0
 10
26.6040531438
 20
13.6260457939
 30
0.0
 10
28.422354887
 20
13.7640711731
 30
0.0
 10
30.2407017717
 20
13.6266642588
 30
0.0
 10
32.0186390305
 20
13.2167445021
 30
0.0
 10
33.7164511073
 20
12.5430605605
 30
0.0
 10
35.2959256181
 20
11.6201125765
 30
0.0
 10
36.7211533477
 20
10.467992345
 30
0.0
 10
37.5458194049
 20
9.5649488024
 30
0.0
 10
37.9223057262
 20
9.0845704975
 30
0.0
 11
19.1244074844
 21
-6.2270694341
 31
0.0
 11
18.0671461294
 21
-4.7312537449
 31
0.0
 11
17.2448587859
 21
-3.0907084766
 31
0.0
 11
16.6771491731
 21
-1.3429156377
 31
0.0
 11
16.3776313823
 21
0.4718218509
 31
0.0
 11
16.3534796349
 21
2.3114294956
 31
0.0
 11
16.6052400504
 21
4.1334043718
 31
0.0
 11
17.1269087711
 21
5.8957327756
 31
0.0
 11
17.9060073772
 21
7.5577259468
 31
0.0
 11
18.923971327
 21
9.081331108
 31
0.0
 11
20.1571345908
 21
10.4324333839
 31
0.0
 11
21.5765941526
 21
11.580537495
 31
0.0
 11
23.1496691519
 21
12.5003446016
 31
0.0
 11
24.8405946521
 21
13.1718760567
 31
0.0
 11
26.6113325135
 21
13.5807186638
 31
0.0
 11
28.4223631971
 21
13.7181749062
 31
0.0
 11
30.2334390003
 21
13.5813345667
 31
0.0
 11
32.004310845
 21
13.1730952454
 31
0.0
 11
33.6954567217
 21
12.5021421022
 31
0.0
 11
35.2688346467
 21
11.5828761662
 31
0.0
 11
36.6886747084
 21
10.4352637854
 31
0.0
 11
37.9223057262
 21
9.0845704975
 31
0.0
  0
SPLINE
  5
712
100
AcDbEntity
  8
RACCORDO
100
AcDbSpline
 62
253
  6
CONTINUOUS
 70
0
 71
3
 72
11
 73
7
 74
5
 42
0.0000001
 43
0.0000001
 44
0.0000000001
 12
0.0012232543
 22
0.3641925536
 32
0.0
 13
0.3641934522
 23
0.000917474
 33
0.0
 40
0.0
 40
0.0
 40
0.0
 40
0.0
 40
0.2320250085
 40
0.47587978
 40
0.7334116474
 40
1.0
 40
1.0
 40
1.0
 40
1.0
 10
29.0375060631
 20
-23.8106826816
 30
0.0
 10
29.0376006717
 20
-23.7825154215
 30
0.0
 10
29.0514327251
 20
-23.7240755568
 30
0.0
 10
29.1082249417
 20
-23.6523470994
 30
0.0
 10
29.1909839457
 20
-23.6052083682
 30
0.0
 10
29.2551385882
 20
-23.59425786
 30
0.0
 10
29.2875018323
 20
-23.5941763307
 30
0.0
 11
29.0375060631
 21
-23.8106826816
 31
0.0
 11
29.0565608379
 21
-23.728356823
 31
0.0
 11
29.110762667
 21
-23.65800426
 31
0.0
 11
29.1918607836
 21
-23.6108875778
 31
0.0
 11
29.2875018323
 21
-23.5941763307
 31
0.0
  0
SPLINE
  5
713
100
AcDbEntity
  8
RACCORDO
100
AcDbSpline
 62
253
  6
CONTINUOUS
 70
0
 71
3
 72
11
 73
7
 74
5
 42
0.0000001
 43
0.0000001
 44
0.0000000001
 12
-0.0012232491
 22
-0.3641909974
 32
0.0
 13
-0.3641918961
 23
-0.0009174701
 33
0.0
 40
0.0
 40
0.0
 40
0.0
 40
0.0
 40
0.2331625878
 40
0.4766705428
 40
0.7338113025
 40
1.0
 40
1.0
 40
1.0
 40
1.0
 10
8.9113089057
 20
23.877992453
 30
0.0
 10
8.9112138337
 20
23.8496872145
 30
0.0
 10
8.8972842419
 20
23.7911439711
 30
0.0
 10
8.8403517116
 20
23.719482875
 30
0.0
 10
8.757683678
 20
23.6724845875
 30
0.0
 10
8.6936277253
 20
23.6615675087
 30
0.0
 10
8.6613131365
 20
23.661486102
 30
0.0
 11
8.9113089057
 21
23.877992453
 31
0.0
 11
8.8920708206
 21
23.7952841937
 31
0.0
 11
8.8378302942
 21
23.7251215231
 31
0.0
 11
8.7568147918
 21
23.6781470543
 31
0.0
 11
8.6613131365
 21
23.661486102
 31
0.0
  0
SPLINE
  5
714
100
AcDbEntity
  8
RACCORDO
100
AcDbSpline
 62
7
  6
CONTINUOUS
 70
0
 71
3
 72
12
 73
8
 74
6
 42
0.0000001
 43
0.0000001
 44
0.0000000001
 12
-0.00316672
 22
-0.3142672
 32
0.0
 13
-0.3142831544
 23
0.0
 33
0.0
 40
0.0
 40
0.0
 40
0.0
 40
0.0
 40
0.1357657081
 40
0.2967195393
 40
0.494990308
 40
0.7319263554
 40
1.0
 40
1.0
 40
1.0
 40
1.0
 10
8.9171267355
 20
23.3006421838
 30
0.0
 10
8.9169834248
 20
23.2864199475
 30
0.0
 10
8.9080700966
 20
23.2551556091
 30
0.0
 10
8.8728767561
 20
23.2154817444
 30
0.0
 10
8.8185012937
 20
23.1833014389
 30
0.0
 10
8.7475504436
 20
23.1615406895
 30
0.0
 10
8.6944874144
 20
23.1563046165
 30
0.0
 10
8.6664037376
 20
23.1563046165
 30
0.0
 11
8.9171267355
 21
23.3006421838
 31
0.0
 11
8.9062761072
 21
23.2593760141
 31
0.0
 11
8.8740796595
 21
23.2203601346
 31
0.0
 11
8.8211539046
 21
23.1874694871
 31
0.0
 11
8.750226256
 21
23.1647911683
 31
0.0
 11
8.6664037376
 21
23.1563046165
 31
0.0
  0
SPLINE
  5
715
100
AcDbEntity
  8
RACCORDO
100
AcDbSpline
 62
7
  6
CONTINUOUS
 70
0
 71
3
 72
10
 73
6
 74
4
 42
0.0000001
 43
0.0000001
 44
0.0000000001
 12
-0.0343729863
 22
0.0031021255
 32
0.0
 13
-0.0037555946
 23
0.0343077379
 33
0.0
 40
0.0
 40
0.0
 40
0.0
 40
0.0
 40
0.5359036063
 40
0.8695586281
 40
1.0
 40
1.0
 40
1.0
 40
1.0
 10
6.5654921445
 20
22.3615657243
 30
0.0
 10
6.559351942
 20
22.362119871
 30
0.0
 10
6.5486858346
 20
22.3628722743
 30
0.0
 10
6.5390644488
 20
22.3645141263
 30
0.0
 10
6.5318515283
 20
22.3655741309
 30
0.0
 10
6.5316882333
 20
22.3670658471
 30
0.0
 11
6.5654921445
 21
22.3615657243
 31
0.0
 11
6.5470785159
 21
22.3633037588
 31
0.0
 11
6.5356890714
 21
22.3650018134
 31
0.0
 11
6.5316882333
 21
22.3670658471
 31
0.0
  0
SPLINE
  5
716
100
AcDbEntity
  8
RACCORDO
100
AcDbSpline
 62
7
  6
CONTINUOUS
 70
0
 71
3
 72
12
 73
8
 74
6
 42
0.0000001
 43
0.0000001
 44
0.0000000001
 12
0.0031594254
 22
0.313543278
 32
0.0
 13
0.3135591956
 23
0.0
 33
0.0
 40
0.0
 40
0.0
 40
0.0
 40
0.0
 40
0.1363357513
 40
0.2975671046
 40
0.4959424479
 40
0.733166537
 40
1.0
 40
1.0
 40
1.0
 40
1.0
 10
29.0316882333
 20
-23.2333324125
 30
0.0
 10
29.0318318142
 20
-23.2190833597
 30
0.0
 10
29.0407679443
 20
-23.1878019531
 30
0.0
 10
29.0759634462
 20
-23.1481643335
 30
0.0
 10
29.1302694067
 20
-23.1160135376
 30
0.0
 10
29.2009656527
 20
-23.0943323159
 30
0.0
 10
29.2537946405
 20
-23.0889948452
 30
0.0
 10
29.2816840025
 20
-23.0889948452
 30
0.0
 11
29.0316882333
 21
-23.2333324125
 31
0.0
 11
29.0425773849
 21
-23.1919931881
 31
0.0
 11
29.0747749378
 21
-23.1530164823
 31
0.0
 11
29.1276067227
 21
-23.1201844448
 31
0.0
 11
29.198450355
 21
-23.0975100393
 31
0.0
 11
29.2816840025
 21
-23.0889948452
 31
0.0
  0
SPLINE
  5
717
100
AcDbEntity
  8
RACCORDO
100
AcDbSpline
 62
7
  6
CONTINUOUS
 70
0
 71
3
 72
12
 73
8
 74
6
 42
0.0000001
 43
0.0000001
 44
0.0000000001
 12
0.00316672
 22
-0.3142672
 32
0.0
 13
0.3142831544
 23
0.0
 33
0.0
 40
0.0
 40
0.0
 40
0.0
 40
0.0
 40
0.1357657081
 40
0.2967195393
 40
0.494990308
 40
0.7319263554
 40
1.0
 40
1.0
 40
1.0
 40
1.0
 10
6.5316882333
 20
23.3006421838
 30
0.0
 10
6.531831544
 20
23.2864199475
 30
0.0
 10
6.5407448722
 20
23.2551556091
 30
0.0
 10
6.5759382127
 20
23.2154817444
 30
0.0
 10
6.6303136751
 20
23.1833014389
 30
0.0
 10
6.7012645252
 20
23.1615406895
 30
0.0
 10
6.7543275544
 20
23.1563046165
 30
0.0
 10
6.7824112313
 20
23.1563046165
 30
0.0
 11
6.5316882333
 21
23.3006421838
 31
0.0
 11
6.5425388616
 21
23.2593760141
 31
0.0
 11
6.5747353093
 21
23.2203601346
 31
0.0
 11
6.6276610643
 21
23.1874694871
 31
0.0
 11
6.6985887128
 21
23.1647911683
 31
0.0
 11
6.7824112313
 21
23.1563046165
 31
0.0
  0
SPLINE
  5
718
100
AcDbEntity
  8
RACCORDO
100
AcDbSpline
 62
253
  6
CONTINUOUS
 70
0
 71
3
 72
11
 73
7
 74
5
 42
0.0000001
 43
0.0000001
 44
0.0000000001
 12
0.0012232491
 22
-0.3641909974
 32
0.0
 13
0.3641918961
 23
-0.0009174701
 33
0.0
 40
0.0
 40
0.0
 40
0.0
 40
0.0
 40
0.2331625878
 40
0.4766705428
 40
0.7338113025
 40
1.0
 40
1.0
 40
1.0
 40
1.0
 10
6.5375060631
 20
23.877992453
 30
0.0
 10
6.5376011351
 20
23.8496872145
 30
0.0
 10
6.5515307269
 20
23.7911439711
 30
0.0
 10
6.6084632572
 20
23.719482875
 30
0.0
 10
6.6911312908
 20
23.6724845875
 30
0.0
 10
6.7551872435
 20
23.6615675087
 30
0.0
 10
6.7875018323
 20
23.661486102
 30
0.0
 11
6.5375060631
 21
23.877992453
 31
0.0
 11
6.5567441482
 21
23.7952841937
 31
0.0
 11
6.6109846746
 21
23.7251215231
 31
0.0
 11
6.692000177
 21
23.6781470543
 31
0.0
 11
6.7875018323
 21
23.661486102
 31
0.0
  0
SPLINE
  5
719
100
AcDbEntity
  8
RACCORDO
100
AcDbSpline
 62
253
  6
CONTINUOUS
 70
0
 71
3
 72
14
 73
10
 74
8
 42
0.0000001
 43
0.0000001
 44
0.0000000001
 12
0.0006913765
 22
-0.9578595696
 32
0.0
 13
0.3021962399
 23
-0.9089405182
 33
0.0
 40
0.0
 40
0.0
 40
0.0
 40
0.0
 40
0.2168379867
 40
0.4231353675
 40
0.6088606813
 40
0.7654411012
 40
0.8860931636
 40
0.9654190734
 40
1.0
 40
1.0
 40
1.0
 40
1.0
 10
50.6570805235
 20
-20.5082509708
 30
0.0
 10
50.6571304957
 20
-20.5774844177
 30
0.0
 10
50.6574577851
 20
-20.712589509
 30
0.0
 10
50.6587439337
 20
-20.9069717182
 30
0.0
 10
50.6604804296
 20
-21.0821719092
 30
0.0
 10
50.6633823685
 20
-21.2298308557
 30
0.0
 10
50.6650802058
 20
-21.343988944
 30
0.0
 10
50.6703164242
 20
-21.4181345161
 30
0.0
 10
50.6701238855
 20
-21.4552782338
 30
0.0
 10
50.6736072941
 20
-21.4657555689
 30
0.0
 11
50.6570805235
 21
-20.5082509708
 31
0.0
 11
50.6576147163
 21
-20.7159506786
 31
0.0
 11
50.6589016964
 21
-20.9135504594
 31
0.0
 11
50.6608853644
 21
-21.091438215
 31
0.0
 11
50.6634743455
 21
-21.2413979606
 31
0.0
 11
50.6665553701
 21
-21.3569246461
 31
0.0
 11
50.6699886822
 21
-21.4328301406
 31
0.0
 11
50.6736072941
 21
-21.4657555689
 31
0.0
  0
SPLINE
  5
71A
100
AcDbEntity
  8
RACCORDO
100
AcDbSpline
 62
253
  6
CONTINUOUS
 70
0
 71
3
 72
14
 73
10
 74
8
 42
0.0000001
 43
0.0000001
 44
0.0000000001
 12
0.0006935775
 22
-1.4364936565
 32
0.0
 13
0.3112916019
 23
-1.4023594563
 33
0.0
 40
0.0
 40
0.0
 40
0.0
 40
0.0
 40
0.2176262888
 40
0.4236396581
 40
0.6090210352
 40
0.7653686169
 40
0.8859572668
 40
0.9653165223
 40
1.0
 40
1.0
 40
1.0
 40
1.0
 10
50.1571566759
 20
-20.5288134392
 30
0.0
 10
50.1572069895
 20
-20.6330197003
 30
0.0
 10
50.1575342634
 20
-20.8358742058
 30
0.0
 10
50.1588262585
 20
-21.1274793101
 30
0.0
 10
50.1605499093
 20
-21.3897831082
 30
0.0
 10
50.1634800172
 20
-21.6110448042
 30
0.0
 10
50.1650912339
 20
-21.7818738158
 30
0.0
 10
50.1704921073
 20
-21.8936961118
 30
0.0
 10
50.1700845548
 20
-21.9488574353
 30
0.0
 10
50.1736834466
 20
-21.9650703363
 30
0.0
 11
50.1571566759
 21
-20.5288134392
 31
0.0
 11
50.1576940363
 21
-20.8414317971
 31
0.0
 11
50.1589812185
 21
-21.1373659304
 31
0.0
 11
50.1609621833
 21
-21.4036577656
 31
0.0
 11
50.1635463819
 21
-21.6282352334
 31
0.0
 11
50.1666228683
 21
-21.8014327628
 31
0.0
 11
50.1700519506
 21
-21.9153802582
 31
0.0
 11
50.1736834466
 21
-21.9650703363
 31
0.0
  0
SPLINE
  5
71B
100
AcDbEntity
  8
RACCORDO
100
AcDbSpline
 62
253
  6
CONTINUOUS
 70
0
 71
3
 72
12
 73
8
 74
6
 42
0.0000001
 43
0.0000001
 44
0.0000000001
 12
-0.1958062407
 22
-0.4611624018
 32
0.0
 13
-0.5010096962
 23
-0.0003593052
 33
0.0
 40
0.0
 40
0.0
 40
0.0
 40
0.0
 40
0.0545566067
 40
0.1985474284
 40
0.4189830056
 40
0.6949151841
 40
1.0
 40
1.0
 40
1.0
 40
1.0
 10
50.6570805233
 20
-20.5082509708
 30
0.0
 10
50.653519682
 20
-20.5166374561
 30
0.0
 10
50.6094516815
 20
-20.5112066535
 30
0.0
 10
50.5493852209
 20
-20.5244738859
 30
0.0
 10
50.4375346801
 20
-20.5241441325
 30
0.0
 10
50.3056358841
 20
-20.528547255
 30
0.0
 10
50.2081068263
 20
-20.52877617
 30
0.0
 10
50.1571566759
 20
-20.5288127095
 30
0.0
 11
50.6570805233
 21
-20.5082509708
 31
0.0
 11
50.6304799196
 21
-20.5145376566
 31
0.0
 11
50.5585634329
 21
-20.5202224016
 31
0.0
 11
50.4482163381
 21
-20.5247609488
 31
0.0
 11
50.3100032516
 21
-20.5277187782
 31
0.0
 11
50.1571566759
 21
-20.5288127095
 31
0.0
  0
SPLINE
  5
71C
100
AcDbEntity
  8
RACCORDO
100
AcDbSpline
 62
253
  6
CONTINUOUS
 70
0
 71
3
 72
10
 73
6
 74
4
 42
0.0000001
 43
0.0000001
 44
0.0000000001
 12
-0.0295164513
 22
-41.0838042493
 32
0.0
 13
0.0295164583
 23
-41.0838042493
 33
0.0
 40
0.0
 40
0.0
 40
0.0
 40
0.0
 40
0.3332909796
 40
0.6667086256
 40
1.0
 40
1.0
 40
1.0
 40
1.0
 10
50.6570805235
 20
20.5755607421
 30
0.0
 10
50.6538013345
 20
16.0112736213
 30
0.0
 10
50.6494312461
 20
6.8809630037
 30
0.0
 10
50.6494312432
 20
-6.8136424172
 30
0.0
 10
50.6538013299
 20
-15.9439584424
 30
0.0
 10
50.6570805235
 20
-20.5082509708
 30
0.0
 11
50.6570805235
 21
20.5755607421
 31
0.0
 11
50.6505241829
 21
6.8826974154
 31
0.0
 11
50.6505241792
 21
-6.8153714212
 31
0.0
 11
50.6570805235
 21
-20.5082509708
 31
0.0
  0
SPLINE
  5
71D
100
AcDbEntity
  8
RACCORDO
100
AcDbSpline
 62
253
  6
CONTINUOUS
 70
0
 71
3
 72
12
 73
8
 74
6
 42
0.0000001
 43
0.0000001
 44
0.0000000001
 12
-0.1955558719
 22
0.4612687949
 32
0.0
 13
-0.5010098512
 23
0.0003593453
 33
0.0
 40
0.0
 40
0.0
 40
0.0
 40
0.0
 40
0.0545505222
 40
0.1985386442
 40
0.4189749033
 40
0.6949104036
 40
1.0
 40
1.0
 40
1.0
 40
1.0
 10
50.6570805235
 20
20.5755607421
 30
0.0
 10
50.6535246319
 20
20.5839482267
 30
0.0
 10
50.6094488999
 20
20.5785153579
 30
0.0
 10
50.549392402
 20
20.5917850504
 30
0.0
 10
50.4375370619
 20
20.5914540902
 30
0.0
 10
50.305638545
 20
20.5958578621
 30
0.0
 10
50.2081076404
 20
20.596086666
 30
0.0
 10
50.1571566759
 20
20.5961232101
 30
0.0
 11
50.6570805235
 21
20.5755607421
 31
0.0
 11
50.6304830855
 21
20.5818476057
 31
0.0
 11
50.5585679486
 21
20.5875325458
 31
0.0
 11
50.4482204849
 21
20.5920712691
 31
0.0
 11
50.3100056936
 21
20.5950292246
 31
0.0
 11
50.1571566759
 21
20.5961232101
 31
0.0
  0
SPLINE
  5
71E
100
AcDbEntity
  8
RACCORDO
100
AcDbSpline
 62
253
  6
CONTINUOUS
 70
0
 71
3
 72
14
 73
10
 74
8
 42
0.0000001
 43
0.0000001
 44
0.0000000001
 12
-0.3016863208
 22
-0.9091098872
 32
0.0
 13
-0.000689729
 23
-0.9578595656
 33
0.0
 40
0.0
 40
0.0
 40
0.0
 40
0.0
 40
0.0345931879
 40
0.1139683914
 40
0.2347409956
 40
0.3913646405
 40
0.5769938884
 40
0.7832125358
 40
1.0
 40
1.0
 40
1.0
 40
1.0
 10
50.6736072941
 20
21.5330653402
 30
0.0
 10
50.6701285303
 20
21.5225823372
 30
0.0
 10
50.6703096091
 20
21.4854225679
 30
0.0
 10
50.6650797147
 20
21.4112161747
 30
0.0
 10
50.6633780697
 20
21.2969913431
 30
0.0
 10
50.6604787935
 20
21.1493101437
 30
0.0
 10
50.6587428947
 20
20.9741522109
 30
0.0
 10
50.6574577258
 20
20.779841859
 30
0.0
 10
50.657130365
 20
20.6447780576
 30
0.0
 10
50.6570805235
 20
20.5755607421
 30
0.0
 11
50.6736072941
 21
21.5330653402
 31
0.0
 11
50.669987836
 21
21.5001281898
 31
0.0
 11
50.6665532152
 21
21.4241754901
 31
0.0
 11
50.6634706101
 21
21.3085333443
 31
0.0
 11
50.6608823646
 21
21.1585321771
 31
0.0
 11
50.6589006947
 21
20.9807364235
 31
0.0
 11
50.6576145223
 21
20.7832120556
 31
0.0
 11
50.6570805235
 21
20.5755607421
 31
0.0
  0
SPLINE
  5
71F
100
AcDbEntity
  8
RACCORDO
100
AcDbSpline
 62
253
  6
CONTINUOUS
 70
0
 71
3
 72
14
 73
10
 74
8
 42
0.0000001
 43
0.0000001
 44
0.0000000001
 12
-0.3109514116
 22
-1.4024349313
 32
0.0
 13
-0.0006912979
 23
-1.4364936613
 33
0.0
 40
0.0
 40
0.0
 40
0.0
 40
0.0
 40
0.0346869728
 40
0.1140439136
 40
0.2346411618
 40
0.3909909247
 40
0.5763624032
 40
0.7823865326
 40
1.0
 40
1.0
 40
1.0
 40
1.0
 10
50.1736834466
 20
22.0323801076
 30
0.0
 10
50.1700881255
 20
22.0161647002
 30
0.0
 10
50.1704876964
 20
21.9610046008
 30
0.0
 10
50.1650932711
 20
21.849176162
 30
0.0
 10
50.1634786004
 20
21.6783438214
 30
0.0
 10
50.1605499672
 20
21.4570814091
 30
0.0
 10
50.1588262799
 20
21.1947762536
 30
0.0
 10
50.1575343439
 20
20.9031768438
 30
0.0
 10
50.1572068212
 20
20.7003233326
 30
0.0
 10
50.1571566759
 20
20.5961232105
 30
0.0
 11
50.1736834466
 21
22.0323801076
 31
0.0
 11
50.1700516736
 21
21.9826850157
 31
0.0
 11
50.1666227339
 21
21.8687408421
 31
0.0
 11
50.1635459405
 21
21.6955309644
 31
0.0
 11
50.1609618506
 21
21.4709503612
 31
0.0
 11
50.1589813053
 21
21.204672742
 31
0.0
 11
50.1576940162
 21
20.9087231514
 31
0.0
 11
50.1571566759
 21
20.5961232105
 31
0.0
  0
SPLINE
  5
720
100
AcDbEntity
  8
RACCORDO
100
AcDbSpline
 62
253
  6
CONTINUOUS
 70
0
 71
3
 72
14
 73
10
 74
8
 42
0.0000001
 43
0.0000001
 44
0.0000000001
 12
0.3021963285
 22
0.9089404887
 32
0.0
 13
0.0006913765
 23
0.9578595696
 33
0.0
 40
0.0
 40
0.0
 40
0.0
 40
0.0
 40
0.0345809267
 40
0.1139068362
 40
0.2345588988
 40
0.3911393187
 40
0.5768646325
 40
0.7831620133
 40
1.0
 40
1.0
 40
1.0
 40
1.0
 10
6.1752076747
 20
-21.4657555689
 30
0.0
 10
6.1786910844
 20
-21.4552782341
 30
0.0
 10
6.1784985435
 20
-21.4181345158
 30
0.0
 10
6.1837347637
 20
-21.3439889442
 30
0.0
 10
6.1854326001
 20
-21.2298308556
 30
0.0
 10
6.1883345393
 20
-21.0821719092
 30
0.0
 10
6.1900710351
 20
-20.9069717182
 30
0.0
 10
6.1913571837
 20
-20.712589509
 30
0.0
 10
6.1916844731
 20
-20.5774844177
 30
0.0
 10
6.1917344453
 20
-20.5082509708
 30
0.0
 11
6.1752076747
 21
-21.4657555689
 31
0.0
 11
6.1788262866
 21
-21.4328301405
 31
0.0
 11
6.1822595988
 21
-21.3569246463
 31
0.0
 11
6.1853406233
 21
-21.2413979606
 31
0.0
 11
6.1879296045
 21
-21.091438215
 31
0.0
 11
6.1899132724
 21
-20.9135504594
 31
0.0
 11
6.1912002525
 21
-20.7159506786
 31
0.0
 11
6.1917344453
 21
-20.5082509708
 31
0.0
  0
SPLINE
  5
721
100
AcDbEntity
  8
RACCORDO
100
AcDbSpline
 62
253
  6
CONTINUOUS
 70
0
 71
3
 72
14
 73
10
 74
8
 42
0.0000001
 43
0.0000001
 44
0.0000000001
 12
0.3112916526
 22
1.4023594451
 32
0.0
 13
0.0006935777
 23
1.4364936565
 33
0.0
 40
0.0
 40
0.0
 40
0.0
 40
0.0
 40
0.0346834777
 40
0.1140427332
 40
0.2346313831
 40
0.3909789648
 40
0.5763603419
 40
0.7823737112
 40
1.0
 40
1.0
 40
1.0
 40
1.0
 10
6.6751315222
 20
-21.9650703363
 30
0.0
 10
6.6787304146
 20
-21.9488574355
 30
0.0
 10
6.6783228608
 20
-21.8936961116
 30
0.0
 10
6.6837237353
 20
-21.7818738159
 30
0.0
 10
6.6853349514
 20
-21.6110448041
 30
0.0
 10
6.6882650595
 20
-21.3897831082
 30
0.0
 10
6.6899887103
 20
-21.1274793101
 30
0.0
 10
6.6912807054
 20
-20.8358742058
 30
0.0
 10
6.6916079793
 20
-20.6330197003
 30
0.0
 10
6.6916582929
 20
-20.5288134392
 30
0.0
 11
6.6751315222
 21
-21.9650703363
 31
0.0
 11
6.6787630182
 21
-21.9153802582
 31
0.0
 11
6.6821921005
 21
-21.8014327628
 31
0.0
 11
6.685268587
 21
-21.6282352334
 31
0.0
 11
6.6878527856
 21
-21.4036577656
 31
0.0
 11
6.6898337503
 21
-21.1373659304
 31
0.0
 11
6.6911209325
 21
-20.8414317971
 31
0.0
 11
6.6916582929
 21
-20.5288134392
 31
0.0
  0
SPLINE
  5
722
100
AcDbEntity
  8
RACCORDO
100
AcDbSpline
 62
253
  6
CONTINUOUS
 70
0
 71
3
 72
10
 73
6
 74
4
 42
0.0000001
 43
0.0000001
 44
0.0000000001
 12
0.0295164583
 22
41.0838042493
 32
0.0
 13
-0.0295164513
 23
41.0838042493
 33
0.0
 40
0.0
 40
0.0
 40
0.0
 40
0.0
 40
0.3332913744
 40
0.6667090204
 40
1.0
 40
1.0
 40
1.0
 40
1.0
 10
6.1917344453
 20
-20.5082509708
 30
0.0
 10
6.195013639
 20
-15.9439584424
 30
0.0
 10
6.1993837257
 20
-6.8136424172
 30
0.0
 10
6.1993837228
 20
6.8809630037
 30
0.0
 10
6.1950136343
 20
16.0112736213
 30
0.0
 10
6.1917344453
 20
20.5755607421
 30
0.0
 11
6.1917344453
 21
-20.5082509708
 31
0.0
 11
6.1982907896
 21
-6.8153714212
 31
0.0
 11
6.198290786
 21
6.8826974154
 31
0.0
 11
6.1917344453
 21
20.5755607421
 31
0.0
  0
SPLINE
  5
723
100
AcDbEntity
  8
RACCORDO
100
AcDbSpline
 62
253
  6
CONTINUOUS
 70
0
 71
3
 72
12
 73
8
 74
6
 42
0.0000001
 43
0.0000001
 44
0.0000000001
 12
0.1955558145
 22
-0.4612688192
 32
0.0
 13
0.5010098513
 23
-0.0003593476
 33
0.0
 40
0.0
 40
0.0
 40
0.0
 40
0.0
 40
0.0545505208
 40
0.1985386423
 40
0.4189749016
 40
0.6949104026
 40
1.0
 40
1.0
 40
1.0
 40
1.0
 10
6.1917344453
 20
-20.5082509708
 30
0.0
 10
6.1952903358
 20
-20.5166384556
 30
0.0
 10
6.2393660696
 20
-20.5112055862
 30
0.0
 10
6.2994225652
 20
-20.5244752792
 30
0.0
 10
6.4112779064
 20
-20.5241443186
 30
0.0
 10
6.5431764233
 20
-20.5285480904
 30
0.0
 10
6.6407073283
 20
-20.5287768945
 30
0.0
 10
6.6916582929
 20
-20.5288134389
 30
0.0
 11
6.1917344453
 21
-20.5082509708
 31
0.0
 11
6.2183318826
 21
-20.5145378344
 31
0.0
 11
6.2902470192
 21
-20.5202227744
 31
0.0
 11
6.400594483
 21
-20.5247614976
 31
0.0
 11
6.5388092747
 21
-20.527719453
 31
0.0
 11
6.6916582929
 21
-20.5288134389
 31
0.0
  0
SPLINE
  5
724
100
AcDbEntity
  8
RACCORDO
100
AcDbSpline
 62
253
  6
CONTINUOUS
 70
0
 71
3
 72
14
 73
10
 74
8
 42
0.0000001
 43
0.0000001
 44
0.0000000001
 12
-0.0006897287
 22
0.9578595656
 32
0.0
 13
-0.3016863194
 23
0.9091098877
 33
0.0
 40
0.0
 40
0.0
 40
0.0
 40
0.0
 40
0.2167874642
 40
0.4230061116
 40
0.6086353595
 40
0.7652590044
 40
0.8860316085
 40
0.9654068121
 40
1.0
 40
1.0
 40
1.0
 40
1.0
 10
6.1917344453
 20
20.5755607421
 30
0.0
 10
6.1916846038
 20
20.6447780576
 30
0.0
 10
6.191357243
 20
20.779841859
 30
0.0
 10
6.1900720741
 20
20.9741522109
 30
0.0
 10
6.1883361753
 20
21.1493101437
 30
0.0
 10
6.1854368991
 20
21.2969913431
 30
0.0
 10
6.1837352542
 20
21.4112161747
 30
0.0
 10
6.1785053597
 20
21.4854225678
 30
0.0
 10
6.1786864385
 20
21.5225823372
 30
0.0
 10
6.1752076747
 20
21.5330653402
 30
0.0
 11
6.1917344453
 21
20.5755607421
 31
0.0
 11
6.1912004465
 21
20.7832120556
 31
0.0
 11
6.1899142741
 21
20.9807364235
 31
0.0
 11
6.1879326042
 21
21.1585321771
 31
0.0
 11
6.1853443587
 21
21.3085333443
 31
0.0
 11
6.1822617536
 21
21.4241754901
 31
0.0
 11
6.1788271329
 21
21.5001281898
 31
0.0
 11
6.1752076747
 21
21.5330653402
 31
0.0
  0
SPLINE
  5
725
100
AcDbEntity
  8
RACCORDO
100
AcDbSpline
 62
253
  6
CONTINUOUS
 70
0
 71
3
 72
14
 73
10
 74
8
 42
0.0000001
 43
0.0000001
 44
0.0000000001
 12
-0.0006912976
 22
1.4364936613
 32
0.0
 13
-0.3109513718
 23
1.4024349401
 33
0.0
 40
0.0
 40
0.0
 40
0.0
 40
0.0
 40
0.2176134674
 40
0.4236375968
 40
0.6090090753
 40
0.7653588382
 40
0.8859560864
 40
0.9653130272
 40
1.0
 40
1.0
 40
1.0
 40
1.0
 10
6.6916582929
 20
20.5961232105
 30
0.0
 10
6.6916081477
 20
20.7003233326
 30
0.0
 10
6.6912806249
 20
20.9031768438
 30
0.0
 10
6.6899886889
 20
21.1947762536
 30
0.0
 10
6.6882650015
 20
21.4570814091
 30
0.0
 10
6.6853363686
 20
21.6783438214
 30
0.0
 10
6.6837216974
 20
21.849176162
 30
0.0
 10
6.678327273
 20
21.9610046009
 30
0.0
 10
6.6787268428
 20
22.0161647001
 30
0.0
 10
6.6751315222
 20
22.0323801076
 30
0.0
 11
6.6916582929
 21
20.5961232105
 31
0.0
 11
6.6911209526
 21
20.9087231514
 31
0.0
 11
6.6898336635
 21
21.204672742
 31
0.0
 11
6.6878531182
 21
21.4709503612
 31
0.0
 11
6.6852690284
 21
21.6955309644
 31
0.0
 11
6.6821922349
 21
21.8687408421
 31
0.0
 11
6.6787632952
 21
21.9826850157
 31
0.0
 11
6.6751315222
 21
22.0323801076
 31
0.0
  0
SPLINE
  5
726
100
AcDbEntity
  8
RACCORDO
100
AcDbSpline
 62
253
  6
CONTINUOUS
 70
0
 71
3
 72
12
 73
8
 74
6
 42
0.0000001
 43
0.0000001
 44
0.0000000001
 12
0.1958875435
 22
0.4611278124
 32
0.0
 13
0.5010096406
 23
0.0003593365
 33
0.0
 40
0.0
 40
0.0
 40
0.0
 40
0.0
 40
0.0545585623
 40
0.1985502546
 40
0.4189856136
 40
0.6949167232
 40
1.0
 40
1.0
 40
1.0
 40
1.0
 10
6.1917344456
 20
20.5755607421
 30
0.0
 10
6.1952968932
 20
20.583946899
 30
0.0
 10
6.2393623843
 20
20.5785167357
 30
0.0
 10
6.2994320697
 20
20.5917831785
 30
0.0
 10
6.4112810559
 20
20.591453803
 30
0.0
 10
6.5431799439
 20
20.5958567223
 30
0.0
 10
6.6407084052
 20
20.596085679
 30
0.0
 10
6.6916582929
 20
20.5961222215
 30
0.0
 11
6.1917344456
 21
20.5755607421
 31
0.0
 11
6.218336071
 21
20.5818473519
 31
0.0
 11
6.2902529932
 21
20.5875320209
 31
0.0
 11
6.4005999688
 21
20.5920705059
 31
0.0
 11
6.5388125052
 21
20.5950282975
 31
0.0
 11
6.6916582929
 21
20.5961222215
 31
0.0
  0
SPLINE
  5
727
100
AcDbEntity
  8
RACCORDO
100
AcDbSpline
 62
7
  6
CONTINUOUS
 70
0
 71
3
 72
10
 73
6
 74
4
 42
0.0000001
 43
0.0000001
 44
0.0000000001
 12
-0.0037555946
 22
-0.0343077379
 32
0.0
 13
-0.0343729863
 23
-0.0031021255
 33
0.0
 40
0.0
 40
0.0
 40
0.0
 40
0.0
 40
0.1304413719
 40
0.4640963937
 40
1.0
 40
1.0
 40
1.0
 40
1.0
 10
50.3171267355
 20
22.3670658471
 30
0.0
 10
50.3169634405
 20
22.3655741309
 30
0.0
 10
50.30975052
 20
22.3645141263
 30
0.0
 10
50.3001291343
 20
22.3628722743
 30
0.0
 10
50.2894630268
 20
22.362119871
 30
0.0
 10
50.2833228244
 20
22.3615657243
 30
0.0
 11
50.3171267355
 21
22.3670658471
 31
0.0
 11
50.3131258974
 21
22.3650018134
 31
0.0
 11
50.3017364529
 21
22.3633037588
 31
0.0
 11
50.2833228244
 21
22.3615657243
 31
0.0
  0
SPLINE
  5
728
100
AcDbEntity
  8
RACCORDO
100
AcDbSpline
 62
7
  6
CONTINUOUS
 70
0
 71
3
 72
16
 73
12
 74
10
 42
0.0000001
 43
0.0000001
 44
0.0000000001
 12
10.2079752684
 22
-13.0248818566
 32
0.0
 13
-10.5322574011
 23
-12.7438156063
 33
0.0
 40
0.0
 40
0.0
 40
0.0
 40
0.0
 40
0.1108582851
 40
0.2219050434
 40
0.3330983647
 40
0.4443832609
 40
0.5556966006
 40
0.6669726187
 40
0.7781487633
 40
0.8891712471
 40
1.0
 40
1.0
 40
1.0
 40
1.0
 10
37.9223057262
 20
9.0845704975
 30
0.0
 10
38.2995186038
 20
8.603265142
 30
0.0
 10
38.9817317711
 20
7.5827513449
 30
0.0
 10
39.7642309985
 20
5.9145163135
 30
0.0
 10
40.2882876397
 20
4.1455190582
 30
0.0
 10
40.5413856707
 20
2.3164903048
 30
0.0
 10
40.517449096
 20
0.469726199
 30
0.0
 10
40.2170786678
 20
-1.351969818
 30
0.0
 10
39.6473822429
 20
-3.1065975278
 30
0.0
 10
38.8223037566
 20
-4.7533792995
 30
0.0
 10
38.113499802
 20
-5.7562757039
 30
0.0
 10
37.7244074844
 20
-6.2270694341
 30
0.0
 11
37.9223057262
 21
9.0845704975
 31
0.0
 11
38.9409896168
 21
7.560946944
 31
0.0
 11
39.7207242652
 21
5.898842514
 31
0.0
 11
40.2429614477
 21
4.1362453839
 31
0.0
 11
40.4951898255
 21
2.3137663307
 31
0.0
 11
40.4713409921
 21
0.4736003363
 31
0.0
 11
40.1719896843
 21
-1.3415849895
 31
0.0
 11
39.6043349109
 21
-3.0897853102
 31
0.0
 11
38.7819629062
 21
-4.7307631012
 31
0.0
 11
37.7244074844
 21
-6.2270694341
 31
0.0
  0
SPLINE
  5
729
100
AcDbEntity
  8
IMPORT_IGES
100
AcDbSpline
 62
7
  6
CONTINUOUS
 70
0
 71
3
 72
11
 73
7
 74
5
 42
0.0000001
 43
0.0000001
 44
0.0000000001
 12
-0.5439013225
 22
-0.0542389511
 32
0.0
 13
-0.5466052659
 23
0.0000097553
 33
0.0
 40
0.0
 40
0.0
 40
0.0
 40
0.0
 40
0.2907401259
 40
0.5514182247
 40
0.7904316966
 40
1.0
 40
1.0
 40
1.0
 40
1.0
 10
-8.2565945
 20
-9.5226789388
 30
0.0
 10
-8.309305813
 20
-9.5279354186
 30
0.0
 10
-8.4095130809
 20
-9.5355282656
 30
0.0
 10
-8.5533462843
 20
-9.5429482651
 30
0.0
 10
-8.6825342298
 20
-9.5465588258
 30
0.0
 10
-8.7642664991
 20
-9.5472858078
 30
0.0
 10
-8.8024502118
 20
-9.5472851264
 30
0.0
 11
-8.2565945
 21
-9.5226789388
 31
0.0
 11
-8.4150131629
 21
-9.5352704092
 31
0.0
 11
-8.5573125965
 21
-9.5425673324
 31
0.0
 11
-8.6879047413
 21
-9.5462668132
 31
0.0
 11
-8.8024502118
 21
-9.5472851264
 31
0.0
  0
SPLINE
  5
72A
100
AcDbEntity
  8
IMPORT_IGES
100
AcDbSpline
 62
7
  6
CONTINUOUS
 70
0
 71
3
 72
12
 73
8
 74
6
 42
0.0000001
 43
0.0000001
 44
0.0000000001
 12
-0.5654787528
 22
0.057567111
 32
0.0
 13
-0.5684090303
 23
-0.0000356621
 33
0.0
 40
0.0
 40
0.0
 40
0.0
 40
0.0
 40
0.2784102143
 40
0.5329379023
 40
0.7660693951
 40
0.9799408959
 40
1.0
 40
1.0
 40
1.0
 40
1.0
 10
-8.2350956418
 20
-6.2121999259
 30
0.0
 10
-8.2875739954
 20
-6.206857502
 30
0.0
 10
-8.3882228313
 20
-6.198480001
 30
0.0
 10
-8.5331659739
 20
-6.1905749239
 30
0.0
 10
-8.6660288213
 20
-6.1864264704
 30
0.0
 10
-8.7545214518
 20
-6.1854412207
 30
0.0
 10
-8.7988442142
 20
-6.1854047672
 30
0.0
 10
-8.8026448062
 20
-6.1854050057
 30
0.0
 11
-8.2350956418
 21
-6.2121999259
 31
0.0
 11
-8.3927836843
 21
-6.1988900411
 31
0.0
 11
-8.5372389567
 21
-6.1909394068
 31
0.0
 11
-8.6696857822
 21
-6.1867750956
 31
0.0
 11
-8.7912430346
 21
-6.1854143792
 31
0.0
 11
-8.8026448062
 21
-6.1854050057
 31
0.0
  0
SPLINE
  5
72B
100
AcDbEntity
  8
IMPORT_IGES
100
AcDbSpline
 62
7
  6
CONTINUOUS
 70
0
 71
3
 72
25
 73
21
 74
19
 42
0.0000001
 43
0.0000001
 44
0.0000000001
 12
0.0
 22
-1.3888673144
 32
0.0
 13
-0.0
 23
1.3888673144
 33
0.0
 40
0.0
 40
0.0
 40
0.0
 40
0.0
 40
0.0349653968
 40
0.0730952714
 40
0.1137653303
 40
0.158777954
 40
0.2098856324
 40
0.2684184933
 40
0.3352000235
 40
0.4116668712
 40
0.4978114776
 40
0.5855262911
 40
0.6639119057
 40
0.7315410239
 40
0.7901430369
 40
0.8412291252
 40
0.8862359102
 40
0.9269088143
 40
0.9650298748
 40
1.0
 40
1.0
 40
1.0
 40
1.0
 10
-11.8350956418
 20
-9.347285222
 30
0.0
 10
-11.8350956418
 20
-9.3634726543
 30
0.0
 10
-11.8406684962
 20
-9.3975630057
 30
0.0
 10
-11.8664611795
 20
-9.4446488975
 30
0.0
 10
-11.9095753664
 20
-9.483800821
 30
0.0
 10
-11.9667906905
 20
-9.5122808839
 30
0.0
 10
-12.0362250393
 20
-9.5309718449
 30
0.0
 10
-12.117345678
 20
-9.541625579
 30
0.0
 10
-12.2106921906
 20
-9.5463249632
 30
0.0
 10
-12.3168934801
 20
-9.5473686911
 30
0.0
 10
-12.4327828116
 20
-9.5472396173
 30
0.0
 10
-12.5495603293
 20
-9.547374279
 30
0.0
 10
-12.6577697159
 20
-9.5463920358
 30
0.0
 10
-12.7524316523
 20
-9.5416792559
 30
0.0
 10
-12.8339647384
 20
-9.5309742688
 30
0.0
 10
-12.9034164244
 20
-9.5122737232
 30
0.0
 10
-12.9606206201
 20
-9.4837974455
 30
0.0
 10
-13.003730089
 20
-9.4446482244
 30
0.0
 10
-13.0295222608
 20
-9.3975633923
 30
0.0
 10
-13.0350956418
 20
-9.3634748433
 30
0.0
 10
-13.0350956418
 20
-9.347285222
 30
0.0
 11
-11.8350956418
 21
-9.347285222
 31
0.0
 11
-11.8429440915
 21
-9.3952091044
 31
0.0
 11
-11.86812705
 21
-9.4417955626
 31
0.0
 11
-11.9094154412
 21
-9.4803424123
 31
0.0
 11
-11.9648884002
 21
-9.5091707199
 31
0.0
 11
-12.0331496571
 21
-9.5286338766
 31
0.0
 11
-12.1136294748
 21
-9.5401131937
 31
0.0
 11
-12.2062226681
 21
-9.545515976
 31
0.0
 11
-12.3124125171
 21
-9.5471425098
 31
0.0
 11
-12.4320558602
 21
-9.547285222
 31
0.0
 11
-12.5538800332
 21
-9.5471598693
 31
0.0
 11
-12.6627354137
 21
-9.5455544753
 31
0.0
 11
-12.7565058484
 21
-9.5401184216
 31
0.0
 11
-12.8370807948
 21
-9.5286258792
 31
0.0
 11
-12.9053121318
 21
-9.5091671451
 31
0.0
 11
-12.9607772885
 21
-9.4803414095
 31
0.0
 11
-13.0020677762
 21
-9.441791015
 31
0.0
 11
-13.0272450734
 21
-9.395215412
 31
0.0
 11
-13.0350956418
 21
-9.347285222
 31
0.0
  0
SPLINE
  5
72C
100
AcDbEntity
  8
IMPORT_IGES
100
AcDbSpline
 62
7
  6
CONTINUOUS
 70
0
 71
3
 72
30
 73
26
 74
24
 42
0.0000001
 43
0.0000001
 44
0.0000000001
 12
-1.1803580001
 22
0.0000210659
 32
0.0
 13
0.0
 23
1.1803445593
 33
0.0
 40
0.0
 40
0.0
 40
0.0
 40
0.0
 40
0.0045873548
 40
0.0980332901
 40
0.1840465682
 40
0.2632966537
 40
0.3363791211
 40
0.4038191619
 40
0.4660710028
 40
0.5235371357
 40
0.5765855332
 40
0.6255514288
 40
0.6707413919
 40
0.7124355544
 40
0.7508896623
 40
0.7863054667
 40
0.8189238372
 40
0.8489714964
 40
0.8766458834
 40
0.9020909759
 40
0.9254411567
 40
0.9468039729
 40
0.9662780486
 40
0.9841003076
 40
1.0
 40
1.0
 40
1.0
 40
1.0
 10
-8.8024502118
 20
-9.5472851264
 30
0.0
 10
-8.8042551188
 20
-9.5472850942
 30
0.0
 10
-8.8428265808
 20
-9.5472681562
 30
0.0
 10
-8.9152398057
 20
-9.5465843635
 30
0.0
 10
-9.016998257
 20
-9.5439270994
 30
0.0
 10
-9.1106958326
 20
-9.5399813808
 30
0.0
 10
-9.1970245111
 20
-9.5349943782
 30
0.0
 10
-9.2765950009
 20
-9.5291554816
 30
0.0
 10
-9.3499438225
 20
-9.5226124557
 30
0.0
 10
-9.4175464113
 20
-9.5154813384
 30
0.0
 10
-9.4798313376
 20
-9.5078526504
 30
0.0
 10
-9.5371886421
 20
-9.4997954328
 30
0.0
 10
-9.5899722712
 20
-9.4913602977
 30
0.0
 10
-9.638502476
 20
-9.4825812478
 30
0.0
 10
-9.6830549247
 20
-9.4734790063
 30
0.0
 10
-9.7238845727
 20
-9.4640571271
 30
0.0
 10
-9.7612268304
 20
-9.4542987509
 30
0.0
 10
-9.7953021577
 20
-9.4441581113
 30
0.0
 10
-9.8262721684
 20
-9.4335618391
 30
0.0
 10
-9.8542295122
 20
-9.4223997848
 30
0.0
 10
-9.8791645898
 20
-9.4105031719
 30
0.0
 10
-9.9009414612
 20
-9.3976137342
 30
0.0
 10
-9.9191196284
 20
-9.3832484565
 30
0.0
 10
-9.9326082714
 20
-9.3668725322
 30
0.0
 10
-9.9364801877
 20
-9.3535409272
 30
0.0
 10
-9.9364801877
 20
-9.347285222
 30
0.0
 11
-8.8024502118
 21
-9.5472851264
 31
0.0
 11
-8.8078649326
 21
-9.5472827485
 31
0.0
 11
-8.9181583834
 21
-9.5462377507
 31
0.0
 11
-9.0196487991
 21
-9.5435763482
 31
0.0
 11
-9.113107767
 21
-9.5396262515
 31
0.0
 11
-9.1992257018
 21
-9.5346343615
 31
0.0
 11
-9.2786133446
 21
-9.5287898921
 31
0.0
 11
-9.3517995171
 21
-9.5222406923
 31
0.0
 11
-9.4192527626
 21
-9.515103011
 31
0.0
 11
-9.481400798
 21
-9.5074670156
 31
0.0
 11
-9.5386318778
 21
-9.4994014237
 31
0.0
 11
-9.5912988237
 21
-9.4909563489
 31
0.0
 11
-9.6397207329
 21
-9.4821651541
 31
0.0
 11
-9.6841841697
 21
-9.4730452351
 31
0.0
 11
-9.7249075025
 21
-9.4636065593
 31
0.0
 11
-9.762145506
 21
-9.4538263937
 31
0.0
 11
-9.7961221656
 21
-9.4436545851
 31
0.0
 11
-9.8270045325
 21
-9.4330102425
 31
0.0
 11
-9.8548602341
 21
-9.4217808332
 31
0.0
 11
-9.8796741033
 21
-9.4097852137
 31
0.0
 11
-9.9012539561
 21
-9.3967418024
 31
0.0
 11
-9.9190587389
 21
-9.382203873
 31
0.0
 11
-9.9317888941
 21
-9.3654565287
 31
0.0
 11
-9.9364801877
 21
-9.347285222
 31
0.0
  0
SPLINE
  5
72D
100
AcDbEntity
  8
IMPORT_IGES
100
AcDbSpline
 62
7
  6
CONTINUOUS
 70
0
 71
3
 72
25
 73
21
 74
19
 42
0.0000001
 43
0.0000001
 44
0.0000000001
 12
0.0
 22
1.3891448485
 32
0.0
 13
0.0
 23
-1.3891448485
 33
0.0
 40
0.0
 40
0.0
 40
0.0
 40
0.0
 40
0.0384168371
 40
0.0761976261
 40
0.1165625881
 40
0.1613050521
 40
0.2121174281
 40
0.2702728461
 40
0.3365641327
 40
0.4124064932
 40
0.4977787127
 40
0.5847365544
 40
0.6625241638
 40
0.7296848002
 40
0.7879133692
 40
0.8387030153
 40
0.8834384143
 40
0.9238060311
 40
0.9615782648
 40
1.0
 40
1.0
 40
1.0
 40
1.0
 10
-13.0359848669
 20
-6.3854050067
 30
0.0
 10
-13.0359848669
 20
-6.3676161562
 30
0.0
 10
-13.0283319732
 20
-6.3322403741
 30
0.0
 10
-13.0010477495
 20
-6.2847312779
 30
0.0
 10
-12.9573162727
 20
-6.2468386942
 30
0.0
 10
-12.9001665578
 20
-6.2192902489
 30
0.0
 10
-12.8310148546
 20
-6.2012020803
 30
0.0
 10
-12.7503902848
 20
-6.1908848054
 30
0.0
 10
-12.6577106439
 20
-6.1863347228
 30
0.0
 10
-12.5523626047
 20
-6.1853243994
 30
0.0
 10
-12.4374472944
 20
-6.1854490575
 30
0.0
 10
-12.3216313494
 20
-6.1853188921
 30
0.0
 10
-12.2142453713
 20
-6.186268092
 30
0.0
 10
-12.1202258873
 20
-6.1908310957
 30
0.0
 10
-12.03917735
 20
-6.2011997141
 30
0.0
 10
-11.9700075638
 20
-6.2192977662
 30
0.0
 10
-11.9128701556
 20
-6.2468421547
 30
0.0
 10
-11.8691437839
 20
-6.2847316393
 30
0.0
 10
-11.841859804
 20
-6.332239726
 30
0.0
 10
-11.8342063031
 20
-6.3676138882
 30
0.0
 10
-11.8342063031
 20
-6.3854050067
 30
0.0
 11
-13.0359848669
 21
-6.3854050067
 31
0.0
 11
-13.0256796745
 21
-6.3330428847
 31
0.0
 11
-12.9994280494
 21
-6.287597134
 31
0.0
 11
-12.9576372907
 21
-6.2502114547
 31
0.0
 11
-12.902102461
 21
-6.222301367
 31
0.0
 11
-12.8340779361
 21
-6.2034596005
 31
0.0
 11
-12.7540596945
 21
-6.1923462222
 31
0.0
 11
-12.6621200979
 21
-6.1871167854
 31
0.0
 11
-12.5567758272
 21
-6.1855430904
 31
0.0
 11
-12.4381815287
 21
-6.1854050067
 31
0.0
 11
-12.3173845512
 21
-6.185525873
 31
0.0
 11
-12.2093374458
 21
-6.1870782521
 31
0.0
 11
-12.1161901398
 21
-6.1923408926
 31
0.0
 11
-12.0360712082
 21
-6.2034679705
 31
0.0
 11
-11.9680782288
 21
-6.2223053376
 31
0.0
 11
-11.9125527912
 21
-6.2502122575
 31
0.0
 11
-11.8707599491
 21
-6.2876011394
 31
0.0
 11
-11.8445139972
 21
-6.3330364424
 31
0.0
 11
-11.8342063031
 21
-6.3854050067
 31
0.0
  0
SPLINE
  5
72E
100
AcDbEntity
  8
IMPORT_IGES
100
AcDbSpline
 62
7
  6
CONTINUOUS
 70
0
 71
3
 72
29
 73
25
 74
23
 42
0.0000001
 43
0.0000001
 44
0.0000000001
 12
-1.1761777247
 22
-0.0000737937
 32
0.0
 13
0.0
 23
-1.1761620097
 33
0.0
 40
0.0
 40
0.0
 40
0.0
 40
0.0
 40
0.0852546285
 40
0.172582233
 40
0.2529830587
 40
0.3270748841
 40
0.3954044718
 40
0.458449712
 40
0.5166293551
 40
0.5703200487
 40
0.6198663463
 40
0.6655795804
 40
0.7077530794
 40
0.7466302504
 40
0.7824175789
 40
0.8153798864
 40
0.8457604182
 40
0.8737388481
 40
0.89948208
 40
0.9231271304
 40
0.9447847294
 40
0.9645439095
 40
0.9829866841
 40
1.0
 40
1.0
 40
1.0
 40
1.0
 10
-8.8026448062
 20
-6.1854050057
 30
0.0
 10
-8.8360696712
 20
-6.1854071027
 30
0.0
 10
-8.9037320466
 20
-6.1859380993
 30
0.0
 10
-9.002891458
 20
-6.1882957442
 30
0.0
 10
-9.0976268492
 20
-6.1920697487
 30
0.0
 10
-9.1848544412
 20
-6.1969113889
 30
0.0
 10
-9.265208973
 20
-6.2026229313
 30
0.0
 10
-9.3392491416
 20
-6.2090508786
 30
0.0
 10
-9.4074678565
 20
-6.2160749204
 30
0.0
 10
-9.4703058474
 20
-6.2236009308
 30
0.0
 10
-9.5281611121
 20
-6.2315564214
 30
0.0
 10
-9.5813976146
 20
-6.239887947
 30
0.0
 10
-9.6303375833
 20
-6.248557505
 30
0.0
 10
-9.6752592555
 20
-6.2575398564
 30
0.0
 10
-9.7164249335
 20
-6.266826718
 30
0.0
 10
-9.7540896753
 20
-6.2764320836
 30
0.0
 10
-9.7884852088
 20
-6.2863961095
 30
0.0
 10
-9.8197906184
 20
-6.2967836809
 30
0.0
 10
-9.8481036709
 20
-6.307690774
 30
0.0
 10
-9.8734796214
 20
-6.3192645495
 30
0.0
 10
-9.8957241247
 20
-6.3317306288
 30
0.0
 10
-9.9149584233
 20
-6.3455599024
 30
0.0
 10
-9.92933073
 20
-6.3614861496
 30
0.0
 10
-9.9364801877
 20
-6.3746343002
 30
0.0
 10
-9.9364801877
 20
-6.3813044388
 30
0.0
 11
-8.8026448062
 21
-6.1854050057
 31
0.0
 11
-8.9029151877
 21
-6.1861946304
 31
0.0
 11
-9.0055973376
 21
-6.188646161
 31
0.0
 11
-9.1000862272
 21
-6.1924243708
 31
0.0
 11
-9.1870953633
 21
-6.1972705305
 31
0.0
 11
-9.2672584598
 21
-6.2029870721
 31
0.0
 11
-9.3411302502
 21
-6.2094206657
 31
0.0
 11
-9.4091968433
 21
-6.2164508849
 31
0.0
 11
-9.4718949136
 21
-6.2239836381
 31
0.0
 11
-9.5296227149
 21
-6.231947001
 31
0.0
 11
-9.5827380713
 21
-6.2402872579
 31
0.0
 11
-9.6315752337
 21
-6.2489691938
 31
0.0
 11
-9.6764068902
 21
-6.2579678648
 31
0.0
 11
-9.7174582757
 21
-6.2672681143
 31
0.0
 11
-9.755013865
 21
-6.2768917386
 31
0.0
 11
-9.7893201567
 21
-6.2868859723
 31
0.0
 11
-9.8205312439
 21
-6.2973142817
 31
0.0
 11
-9.8487536766
 21
-6.3082807934
 31
0.0
 11
-9.8740009318
 21
-6.319942483
 31
0.0
 11
-9.896140185
 21
-6.3325408682
 31
0.0
 11
-9.9147577083
 21
-6.3464507669
 31
0.0
 11
-9.9291401418
 21
-6.3626888413
 31
0.0
 11
-9.9364801877
 21
-6.3813044388
 31
0.0
  0
SPLINE
  5
72F
100
AcDbEntity
  8
RACCORDO
100
AcDbSpline
 62
253
  6
CONTINUOUS
 70
0
 71
3
 72
12
 73
8
 74
6
 42
0.0000001
 43
0.0000001
 44
0.0000000001
 12
0.0012811853
 22
0.2785052662
 32
0.0
 13
-0.2790653333
 23
0.0121717621
 33
0.0
 40
0.0
 40
0.0
 40
0.0
 40
0.0
 40
0.1050812331
 40
0.4755643329
 40
0.7598682918
 40
0.9386812276
 40
1.0
 40
1.0
 40
1.0
 40
1.0
 10
-4.4255967959
 20
19.1019704422
 30
0.0
 10
-4.4255519198
 20
19.1117256678
 30
0.0
 10
-4.4254872686
 20
19.1557413118
 30
0.0
 10
-4.4267674001
 20
19.2246697026
 30
0.0
 10
-4.4214829284
 20
19.3087726155
 30
0.0
 10
-4.4324363882
 20
19.3455160843
 30
0.0
 10
-4.4224117612
 20
19.3807812021
 30
0.0
 10
-4.4281157424
 20
19.381029988
 30
0.0
 11
-4.4255967959
 21
19.1019704422
 31
0.0
 11
-4.4255656217
 21
19.131134355
 31
0.0
 11
-4.4252305749
 21
19.2346210977
 31
0.0
 11
-4.4255659112
 21
19.3140351993
 31
0.0
 11
-4.4265507304
 21
19.3639734232
 31
0.0
 11
-4.4281157424
 21
19.381029988
 31
0.0
  0
SPLINE
  5
730
100
AcDbEntity
  8
RACCORDO
100
AcDbSpline
 62
253
  6
CONTINUOUS
 70
0
 71
3
 72
11
 73
7
 74
5
 42
0.0000001
 43
0.0000001
 44
0.0000000001
 12
-0.3167097949
 22
-0.00552819
 32
0.0
 13
-0.000049246
 23
-0.3125915244
 33
0.0
 40
0.0
 40
0.0
 40
0.0
 40
0.0
 40
0.0778706311
 40
0.3027343259
 40
0.6528150959
 40
1.0
 40
1.0
 40
1.0
 40
1.0
 10
-34.1555152898
 20
9.2448973165
 30
0.0
 10
-34.163736087
 20
9.244753822
 30
0.0
 10
-34.1494234723
 20
9.1938005771
 30
0.0
 10
-34.164599203
 20
9.1424229669
 30
0.0
 10
-34.1576138426
 20
9.0367239283
 30
0.0
 10
-34.1578124882
 20
8.9640815811
 30
0.0
 10
-34.1578181874
 20
8.927905895
 30
0.0
 11
-34.1555152898
 21
9.2448973165
 31
0.0
 11
-34.1577856012
 21
9.2203358719
 31
0.0
 11
-34.1589776942
 21
9.1491184654
 31
0.0
 11
-34.1589734622
 21
9.0382275674
 31
0.0
 11
-34.1578181874
 21
8.927905895
 31
0.0
  0
SPLINE
  5
731
100
AcDbEntity
  8
RACCORDO
100
AcDbSpline
 62
253
  6
CONTINUOUS
 70
0
 71
3
 72
11
 73
7
 74
5
 42
0.0000001
 43
0.0000001
 44
0.0000000001
 12
0.1218550099
 22
0.3217473936
 32
0.0
 13
0.3439970564
 23
0.006004491
 33
0.0
 40
0.0
 40
0.0
 40
0.0
 40
0.0
 40
0.2978499656
 40
0.5608513374
 40
0.7908904502
 40
1.0
 40
1.0
 40
1.0
 40
1.0
 10
-34.3933926806
 20
9.022331876
 30
0.0
 10
-34.3812945105
 20
9.054276026
 30
0.0
 10
-34.353381196
 20
9.1127475522
 30
0.0
 10
-34.2968638539
 20
9.1848543895
 30
0.0
 10
-34.2300860622
 20
9.2323895135
 30
0.0
 10
-34.1794929797
 20
9.2444787844
 30
0.0
 10
-34.1555152898
 20
9.2448973165
 30
0.0
 11
-34.3933926806
 21
9.022331876
 31
0.0
 11
-34.3482157721
 21
9.1143112048
 31
0.0
 11
-34.291191242
 21
9.1845666309
 31
0.0
 11
-34.2256731894
 21
9.2289658334
 31
0.0
 11
-34.1555152898
 21
9.2448973165
 31
0.0
  0
LINE
  5
732
100
AcDbEntity
  8
RACCORDO
100
AcDbLine
 62
253
  6
CONTINUOUS
 10
-34.2409740473
 20
8.8438054356
 11
-34.2716878143
 21
8.8795087044
  0
SPLINE
  5
733
100
AcDbEntity
  8
RACCORDO
100
AcDbSpline
 62
253
  6
CONTINUOUS
 70
0
 71
3
 72
11
 73
7
 74
5
 42
0.0000001
 43
0.0000001
 44
0.0000000001
 12
0.0000533717
 22
-0.3125923195
 32
0.0
 13
0.3167207317
 23
-0.0055283809
 33
0.0
 40
0.0
 40
0.0
 40
0.0
 40
0.0
 40
0.349562709
 40
0.6987382353
 40
0.9227776186
 40
1.0
 40
1.0
 40
1.0
 40
1.0
 10
-34.1578272791
 20
-5.8605963516
 30
0.0
 10
-34.1578210602
 20
-5.8970198909
 30
0.0
 10
-34.1575974357
 20
-5.9697883364
 30
0.0
 10
-34.1645824598
 20
-6.0755742452
 30
0.0
 10
-34.1494607945
 20
-6.1267534127
 30
0.0
 10
-34.1636679329
 20
-6.1774452403
 30
0.0
 10
-34.1555152898
 20
-6.1775875452
 30
0.0
 11
-34.1578272791
 21
-5.8605963516
 31
0.0
 11
-34.1589770316
 21
-5.9716641682
 31
0.0
 11
-34.1589746526
 21
-6.0822721425
 31
0.0
 11
-34.1577781749
 21
-6.1532307822
 31
0.0
 11
-34.1555152898
 21
-6.1775875452
 31
0.0
  0
SPLINE
  5
734
100
AcDbEntity
  8
RACCORDO
100
AcDbSpline
 62
253
  6
CONTINUOUS
 70
0
 71
3
 72
11
 73
7
 74
5
 42
0.0000001
 43
0.0000001
 44
0.0000000001
 12
-0.344002262
 22
0.0060045818
 32
0.0
 13
-0.1218568538
 23
0.3217522625
 33
0.0
 40
0.0
 40
0.0
 40
0.0
 40
0.0
 40
0.2071980133
 40
0.4363105068
 40
0.701568968
 40
1.0
 40
1.0
 40
1.0
 40
1.0
 10
-34.1555152898
 20
-6.1775875452
 30
0.0
 10
-34.1792741516
 20
-6.1771728327
 30
0.0
 10
-34.2295391992
 20
-6.1652734334
 30
0.0
 10
-34.2964363228
 20
-6.1180174431
 30
0.0
 10
-34.3532070791
 20
-6.0457913731
 30
0.0
 10
-34.3812707251
 20
-5.9870290579
 30
0.0
 10
-34.3933926806
 20
-5.9550221047
 30
0.0
 11
-34.1555152898
 21
-6.1775875452
 31
0.0
 11
-34.2250612802
 21
-6.1619269352
 31
0.0
 11
-34.2904683287
 21
-6.1179309251
 31
0.0
 11
-34.3481077429
 21
-6.04717283
 31
0.0
 11
-34.3933926806
 21
-5.9550221047
 31
0.0
  0
SPLINE
  5
735
100
AcDbEntity
  8
CURVE
100
AcDbSpline
 62
253
  6
CONTINUOUS
 70
0
 71
3
 72
13
 73
9
 74
7
 42
0.0000001
 43
0.0000001
 44
0.0000000001
 12
0.6830460881
 22
0.0
 32
0.0
 13
0.0852923267
 23
-0.6778031497
 33
0.0
 40
0.0
 40
0.0
 40
0.0
 40
0.0
 40
0.2490801906
 40
0.3745290044
 40
0.5000465587
 40
0.6245839973
 40
0.7501008193
 40
1.0
 40
1.0
 40
1.0
 40
1.0
 10
-15.2563809122
 20
4.1524147715
 30
0.0
 10
-15.1996698289
 20
4.1524147715
 30
0.0
 10
-15.1125985561
 20
4.1446041847
 30
0.0
 10
-15.0080821978
 20
4.0975590979
 30
0.0
 10
-14.9382879401
 20
4.0459836114
 30
0.0
 10
-14.8910242043
 20
3.9725894978
 30
0.0
 10
-14.8586398214
 20
3.8625199053
 30
0.0
 10
-14.8539238794
 20
3.7767278338
 30
0.0
 10
-14.8468190519
 20
3.7202670166
 30
0.0
 11
-15.2563809122
 21
4.1524147715
 31
0.0
 11
-15.0877440998
 21
4.1298958314
 31
0.0
 11
-15.0095479208
 21
4.0948523055
 31
0.0
 11
-14.9418875389
 21
4.042190334
 31
0.0
 11
-14.8949353072
 21
3.9712463922
 31
0.0
 11
-14.8688877968
 21
3.8895528183
 31
0.0
 11
-14.8468190519
 21
3.7202670166
 31
0.0
  0
SPLINE
  5
736
100
AcDbEntity
  8
CURVE
100
AcDbSpline
 62
253
  6
CONTINUOUS
 70
0
 71
3
 72
13
 73
9
 74
7
 42
0.0000001
 43
0.0000001
 44
0.0000000001
 12
0.0852923267
 22
0.6778031497
 32
0.0
 13
0.6830460881
 23
-0.0
 33
0.0
 40
0.0
 40
0.0
 40
0.0
 40
0.0
 40
0.2498991807
 40
0.3754160027
 40
0.4999534413
 40
0.6254709956
 40
0.7509198094
 40
1.0
 40
1.0
 40
1.0
 40
1.0
 10
-15.6659427725
 20
3.7202670166
 30
0.0
 10
-15.6588379449
 20
3.7767278338
 30
0.0
 10
-15.6541220029
 20
3.8625199053
 30
0.0
 10
-15.6217376201
 20
3.9725894978
 30
0.0
 10
-15.5744738842
 20
4.0459836114
 30
0.0
 10
-15.5046796265
 20
4.0975590979
 30
0.0
 10
-15.4001632682
 20
4.1446041847
 30
0.0
 10
-15.3130919954
 20
4.1524147715
 30
0.0
 10
-15.2563809122
 20
4.1524147715
 30
0.0
 11
-15.6659427725
 21
3.7202670166
 31
0.0
 11
-15.6438740276
 21
3.8895528183
 31
0.0
 11
-15.6178265171
 21
3.9712463922
 31
0.0
 11
-15.5708742854
 21
4.042190334
 31
0.0
 11
-15.5032139036
 21
4.0948523055
 31
0.0
 11
-15.4250177245
 21
4.1298958314
 31
0.0
 11
-15.2563809122
 21
4.1524147715
 31
0.0
  0
SPLINE
  5
737
100
AcDbEntity
  8
CURVE
100
AcDbSpline
 62
253
  6
CONTINUOUS
 70
0
 71
3
 72
15
 73
11
 74
9
 42
0.0000001
 43
0.0000001
 44
0.0000000001
 12
-1.7069126765
 22
0.0
 32
0.0
 13
-0.0632100266
 23
-1.7060017172
 33
0.0
 40
0.0
 40
0.0
 40
0.0
 40
0.0
 40
0.1248401019
 40
0.2498663855
 40
0.374885782
 40
0.5000299202
 40
0.6250550432
 40
0.7501198193
 40
0.875035251
 40
1.0
 40
1.0
 40
1.0
 40
1.0
 10
-15.2563809122
 20
4.815181686
 30
0.0
 10
-15.3274112964
 20
4.815181686
 30
0.0
 10
-15.4700101119
 20
4.805334209
 30
0.0
 10
-15.6771278635
 20
4.7456257303
 30
0.0
 10
-15.8594235486
 20
4.6271619012
 30
0.0
 10
-15.9921194455
 20
4.4553996105
 30
0.0
 10
-16.0742552543
 20
4.2566446257
 30
0.0
 10
-16.1221133334
 20
4.0479448033
 30
0.0
 10
-16.1420375922
 20
3.8351031907
 30
0.0
 10
-16.1450959056
 20
3.6929383019
 30
0.0
 10
-16.1477289139
 20
3.6218749431
 30
0.0
 11
-15.2563809122
 21
4.815181686
 31
0.0
 11
-15.468767537
 21
4.7978654448
 31
0.0
 11
-15.6729677788
 21
4.7358427702
 31
0.0
 11
-15.8511033974
 21
4.6183256666
 31
0.0
 11
-15.9837237136
 21
4.4508452889
 31
0.0
 11
-16.0685418025
 21
4.2549879188
 31
0.0
 11
-16.1174721621
 21
4.0471649122
 31
0.0
 11
-16.1394809528
 21
3.8350518009
 31
0.0
 11
-16.1477289139
 21
3.6218749431
 31
0.0
  0
SPLINE
  5
738
100
AcDbEntity
  8
CURVE
100
AcDbSpline
 62
253
  6
CONTINUOUS
 70
0
 71
3
 72
15
 73
11
 74
9
 42
0.0000001
 43
0.0000001
 44
0.0000000001
 12
-0.0632100266
 22
1.7060017172
 32
0.0
 13
-1.7069126765
 23
0.0
 33
0.0
 40
0.0
 40
0.0
 40
0.0
 40
0.0
 40
0.124964749
 40
0.2498801807
 40
0.3749449568
 40
0.4999700798
 40
0.625114218
 40
0.7501336145
 40
0.8751598981
 40
1.0
 40
1.0
 40
1.0
 40
1.0
 10
-14.3650329104
 20
3.6218749431
 30
0.0
 10
-14.3676659188
 20
3.6929383019
 30
0.0
 10
-14.3707242321
 20
3.8351031907
 30
0.0
 10
-14.3906484909
 20
4.0479448033
 30
0.0
 10
-14.43850657
 20
4.2566446257
 30
0.0
 10
-14.5206423788
 20
4.4553996105
 30
0.0
 10
-14.6533382757
 20
4.6271619012
 30
0.0
 10
-14.8356339609
 20
4.7456257303
 30
0.0
 10
-15.0427517124
 20
4.805334209
 30
0.0
 10
-15.185350528
 20
4.815181686
 30
0.0
 10
-15.2563809122
 20
4.815181686
 30
0.0
 11
-14.3650329104
 21
3.6218749431
 31
0.0
 11
-14.3732808715
 21
3.8350518009
 31
0.0
 11
-14.3952896622
 21
4.0471649122
 31
0.0
 11
-14.4442200218
 21
4.2549879188
 31
0.0
 11
-14.5290381108
 21
4.4508452889
 31
0.0
 11
-14.6616584269
 21
4.6183256666
 31
0.0
 11
-14.8397940455
 21
4.7358427702
 31
0.0
 11
-15.0439942873
 21
4.7978654448
 31
0.0
 11
-15.2563809122
 21
4.815181686
 31
0.0
  0
SPLINE
  5
739
100
AcDbEntity
  8
CURVE
100
AcDbSpline
 62
253
  6
CONTINUOUS
 70
0
 71
3
 72
9
 73
5
 74
3
 42
0.0000001
 43
0.0000001
 44
0.0000000001
 12
-0.0800078963
 22
0.4690276623
 32
0.0
 13
0.054842989
 23
0.4726325126
 33
0.0
 40
0.0
 40
0.0
 40
0.0
 40
0.0
 40
0.4997637338
 40
1.0
 40
1.0
 40
1.0
 40
1.0
 10
-20.1678047379
 20
14.5132730586
 30
0.0
 10
-20.1811330862
 20
14.5914073972
 30
0.0
 10
-20.200515696
 20
14.7493479743
 30
0.0
 10
-20.1940135464
 20
14.9086393317
 30
0.0
 10
-20.184868729
 20
14.9874486395
 30
0.0
 11
-20.1678047379
 21
14.5132730586
 31
0.0
 11
-20.1940414615
 21
14.7496107183
 31
0.0
 11
-20.184868729
 21
14.9874486395
 31
0.0
  0
SPLINE
  5
73A
100
AcDbEntity
  8
CURVE
100
AcDbSpline
 62
253
  6
CONTINUOUS
 70
0
 71
3
 72
11
 73
7
 74
5
 42
0.0000001
 43
0.0000001
 44
0.0000000001
 12
0.7353966091
 22
0.0113508516
 32
0.0
 13
0.0164209786
 23
-0.7354128479
 33
0.0
 40
0.0
 40
0.0
 40
0.0
 40
0.0
 40
0.2532883062
 40
0.5029209566
 40
0.7480829005
 40
1.0
 40
1.0
 40
1.0
 40
1.0
 10
-19.8225034643
 20
15.3293543044
 30
0.0
 10
-19.7604143438
 20
15.3303126504
 30
0.0
 10
-19.6365793273
 20
15.3100554793
 30
0.0
 10
-19.470265597
 20
15.2150084297
 30
0.0
 10
-19.3861584664
 20
15.043037936
 30
0.0
 10
-19.3734147435
 20
14.9209340119
 30
0.0
 10
-19.372035835
 20
14.8591796547
 30
0.0
 11
-19.8225034643
 21
15.3293543044
 31
0.0
 11
-19.6387294721
 21
15.2988387885
 31
0.0
 11
-19.4830856261
 21
15.2014367335
 31
0.0
 11
-19.3974388973
 21
15.04273894
 31
0.0
 11
-19.372035835
 21
14.8591796547
 31
0.0
  0
SPLINE
  5
73B
100
AcDbEntity
  8
CURVE
100
AcDbSpline
 62
253
  6
CONTINUOUS
 70
0
 71
3
 72
9
 73
5
 74
3
 42
0.0000001
 43
0.0000001
 44
0.0000000001
 12
0.0616043735
 22
0.5307774627
 32
0.0
 13
0.5341948855
 23
0.0083576149
 33
0.0
 40
0.0
 40
0.0
 40
0.0
 40
0.0
 40
0.5000882298
 40
1.0
 40
1.0
 40
1.0
 40
1.0
 10
-20.184868729
 20
14.9874486395
 30
0.0
 10
-20.1745995217
 20
15.0759271601
 30
0.0
 10
-20.0967479416
 20
15.2553155516
 30
0.0
 10
-19.9115202346
 20
15.3279616144
 30
0.0
 10
-19.8225034643
 20
15.3293543044
 30
0.0
 11
-20.184868729
 21
14.9874486395
 31
0.0
 11
-20.0698806976
 21
15.2286522055
 31
0.0
 11
-19.8225034643
 21
15.3293543044
 31
0.0
  0
SPLINE
  5
73C
100
AcDbEntity
  8
CURVE
100
AcDbSpline
 62
253
  6
CONTINUOUS
 70
0
 71
3
 72
10
 73
6
 74
4
 42
0.0000001
 43
0.0000001
 44
0.0000000001
 12
-0.5115350676
 22
-1.4163390859
 32
0.0
 13
0.2191196499
 23
-1.4898779167
 33
0.0
 40
0.0
 40
0.0
 40
0.0
 40
0.0
 40
0.2496855723
 40
0.5000317551
 40
1.0
 40
1.0
 40
1.0
 40
1.0
 10
-20.5972521385
 20
15.4242242113
 30
0.0
 10
-20.6398264472
 20
15.3063443995
 30
0.0
 10
-20.6872874125
 20
15.0570680851
 30
0.0
 10
-20.7065803878
 20
14.5549662427
 30
0.0
 10
-20.6642893068
 20
14.1788042018
 30
0.0
 10
-20.6277716845
 20
13.9305069861
 30
0.0
 11
-20.5972521385
 21
15.4242242113
 31
0.0
 11
-20.6777962059
 21
15.0569509576
 31
0.0
 11
-20.6954448242
 21
14.6803656422
 31
0.0
 11
-20.6277716845
 21
13.9305069861
 31
0.0
  0
SPLINE
  5
73D
100
AcDbEntity
  8
CURVE
100
AcDbSpline
 62
253
  6
CONTINUOUS
 70
0
 71
3
 72
17
 73
13
 74
11
 42
0.0000001
 43
0.0000001
 44
0.0000000001
 12
-0.2310222645
 22
1.7909680545
 32
0.0
 13
-0.6126205085
 23
-1.6986865176
 33
0.0
 40
0.0
 40
0.0
 40
0.0
 40
0.0
 40
0.0626721318
 40
0.1256652169
 40
0.1875930352
 40
0.2502992335
 40
0.3751417183
 40
0.5001474975
 40
0.6250710591
 40
0.7500991588
 40
0.8751486605
 40
1.0
 40
1.0
 40
1.0
 40
1.0
 10
-19.1331182211
 20
15.4866300405
 30
0.0
 10
-19.1379444404
 20
15.5240446358
 30
0.0
 10
-19.1909832786
 20
15.5863359319
 30
0.0
 10
-19.2628699926
 20
15.6703298521
 30
0.0
 10
-19.3491650543
 20
15.7450473268
 30
0.0
 10
-19.4774925103
 20
15.8234977572
 30
0.0
 10
-19.657120561
 20
15.8879126736
 30
0.0
 10
-19.8841404375
 20
15.9046648815
 30
0.0
 10
-20.1095547843
 20
15.8715092302
 30
0.0
 10
-20.3182477916
 20
15.7763691794
 30
0.0
 10
-20.4884770313
 20
15.6246287338
 30
0.0
 10
-20.5717566415
 20
15.4949186403
 30
0.0
 10
-20.5972521385
 20
15.4242242113
 30
0.0
 11
-19.1331182211
 21
15.4866300405
 31
0.0
 11
-19.1896332398
 21
15.5846782043
 31
0.0
 11
-19.2657153215
 21
15.6692337427
 31
0.0
 11
-19.3504827686
 21
15.7421599242
 31
0.0
 11
-19.4467951151
 21
15.8016863619
 31
0.0
 11
-19.6589633348
 21
15.8778113112
 31
0.0
 11
-19.8839037735
 21
15.8963451311
 31
0.0
 11
-20.1067035503
 21
15.8611990518
 31
0.0
 11
-20.3118298467
 21
15.766935054
 31
0.0
 11
-20.4810092719
 21
15.617394513
 31
0.0
 11
-20.5972521385
 21
15.4242242113
 31
0.0
  0
SPLINE
  5
73E
100
AcDbEntity
  8
CURVE
100
AcDbSpline
 62
253
  6
CONTINUOUS
 70
0
 71
3
 72
9
 73
5
 74
3
 42
0.0000001
 43
0.0000001
 44
0.0000000001
 12
-0.6591621799
 22
-0.1796303429
 32
0.0
 13
-0.2530140906
 23
-0.63471142
 33
0.0
 40
0.0
 40
0.0
 40
0.0
 40
0.0
 40
0.506910518
 40
1.0
 40
1.0
 40
1.0
 40
1.0
 10
-18.5474429166
 20
15.8355155908
 30
0.0
 10
-18.6588216639
 20
15.8051634207
 30
0.0
 10
-18.87656932
 20
15.7479214363
 30
0.0
 10
-19.0744028216
 20
15.5909532156
 30
0.0
 10
-19.1159890172
 20
15.4866300405
 30
0.0
 11
-18.5474429166
 21
15.8355155908
 31
0.0
 11
-18.8744617114
 21
15.7215048113
 31
0.0
 11
-19.1159890172
 21
15.4866300405
 31
0.0
  0
SPLINE
  5
73F
100
AcDbEntity
  8
CURVE
100
AcDbSpline
 62
253
  6
CONTINUOUS
 70
0
 71
3
 72
8
 73
4
 74
2
 42
0.0000001
 43
0.0000001
 44
0.0000000001
 12
-0.7830184647
 22
-0.212730392
 32
0.0
 13
-0.7828503484
 23
-0.2133484193
 33
0.0
 40
0.0
 40
0.0
 40
0.0
 40
0.0
 40
1.0
 40
1.0
 40
1.0
 40
1.0
 10
-17.7628688615
 20
16.0424333157
 30
0.0
 10
-18.0238750164
 20
15.971523185
 30
0.0
 10
-18.2864928004
 20
15.9066317305
 30
0.0
 10
-18.5474429166
 20
15.8355155908
 30
0.0
 11
-17.7628688615
 21
16.0424333157
 31
0.0
 11
-18.5474429166
 21
15.8355155908
 31
0.0
  0
SPLINE
  5
740
100
AcDbEntity
  8
CURVE
100
AcDbSpline
 62
253
  6
CONTINUOUS
 70
0
 71
3
 72
9
 73
5
 74
3
 42
0.0000001
 43
0.0000001
 44
0.0000000001
 12
0.8593546271
 22
0.3229459945
 32
0.0
 13
0.8822654545
 23
0.2537321442
 33
0.0
 40
0.0
 40
0.0
 40
0.0
 40
0.0
 40
0.499968398
 40
1.0
 40
1.0
 40
1.0
 40
1.0
 10
-18.6418709136
 20
15.195562295
 30
0.0
 10
-18.4986541948
 20
15.2493832255
 30
0.0
 10
-18.2030334909
 20
15.330643405
 30
0.0
 10
-17.9099223977
 20
15.4179412286
 30
0.0
 10
-17.7628688615
 20
15.4602325922
 30
0.0
 11
-18.6418709136
 21
15.195562295
 31
0.0
 11
-18.2036794987
 21
15.3321474893
 31
0.0
 11
-17.7628688615
 21
15.4602325922
 31
0.0
  0
SPLINE
  5
741
100
AcDbEntity
  8
CURVE
100
AcDbSpline
 62
253
  6
CONTINUOUS
 70
0
 71
3
 72
11
 73
7
 74
5
 42
0.0000001
 43
0.0000001
 44
0.0000000001
 12
0.0
 22
0.4505958663
 32
0.0
 13
0.421793933
 23
0.1583423737
 33
0.0
 40
0.0
 40
0.0
 40
0.0
 40
0.0
 40
0.2477795725
 40
0.4960551195
 40
0.7486644071
 40
1.0
 40
1.0
 40
1.0
 40
1.0
 10
-18.8972873419
 20
14.8578750032
 30
0.0
 10
-18.8972873419
 20
14.8950911536
 30
0.0
 10
-18.8863991206
 20
14.9704162342
 30
0.0
 10
-18.8306927617
 20
15.0709288447
 30
0.0
 10
-18.7450327933
 20
15.1469830236
 30
0.0
 10
-18.6772081896
 20
15.1822966035
 30
0.0
 10
-18.6418709136
 20
15.195562295
 30
0.0
 11
-18.8972873419
 21
14.8578750032
 31
0.0
 11
-18.8799174909
 21
14.9681635928
 31
0.0
 11
-18.8261580846
 21
15.0662674948
 31
0.0
 11
-18.7422652184
 21
15.1431824165
 31
0.0
 11
-18.6418709136
 21
15.195562295
 31
0.0
  0
SPLINE
  5
742
100
AcDbEntity
  8
RACCORDO
100
AcDbSpline
 62
7
  6
CONTINUOUS
 70
0
 71
3
 72
13
 73
9
 74
7
 42
0.0000001
 43
0.0000001
 44
0.0000000001
 12
0.4134461359
 22
-0.3690941889
 32
0.0
 13
-0.4866308059
 23
-0.2693644004
 33
0.0
 40
0.0
 40
0.0
 40
0.0
 40
0.0
 40
0.2622476987
 40
0.4803264446
 40
0.6638808104
 40
0.8052818512
 40
0.9326707064
 40
1.0
 40
1.0
 40
1.0
 40
1.0
 10
-34.2519967458
 20
-5.7663451143
 30
0.0
 10
-34.2158549799
 20
-5.7986098149
 30
0.0
 10
-34.1525169261
 20
-5.8612773809
 30
0.0
 10
-34.0799159623
 20
-5.9607249464
 30
0.0
 10
-34.0415723388
 20
-6.0558977399
 30
0.0
 10
-34.0502736033
 20
-6.1435460862
 30
0.0
 10
-34.0917229135
 20
-6.19340865
 30
0.0
 10
-34.1219068104
 20
-6.2133825687
 30
0.0
 10
-34.1328283132
 20
-6.2194279403
 30
0.0
 11
-34.2519967458
 21
-5.7663451143
 31
0.0
 11
-34.1499150714
 21
-5.8698075474
 31
0.0
 11
-34.0807287288
 21
-5.9689118399
 31
0.0
 11
-34.0479113461
 21
-6.0652040741
 31
0.0
 11
-34.0582853561
 21
-6.1428827686
 31
0.0
 11
-34.1017708565
 21
-6.1985039229
 31
0.0
 11
-34.1328283132
 21
-6.2194279403
 31
0.0
  0
SPLINE
  5
743
100
AcDbEntity
  8
RACCORDO
100
AcDbSpline
 62
7
  6
CONTINUOUS
 70
0
 71
3
 72
9
 73
5
 74
3
 42
0.0000001
 43
0.0000001
 44
0.0000000001
 12
-0.0606897689
 22
-0.0335935642
 32
0.0
 13
-0.0664424349
 23
-0.0194264271
 33
0.0
 40
0.0
 40
0.0
 40
0.0
 40
0.0
 40
0.5905954354
 40
1.0
 40
1.0
 40
1.0
 40
1.0
 10
-34.1328283132
 20
-6.2194279403
 30
0.0
 10
-34.1447760133
 20
-6.2260413422
 30
0.0
 10
-34.1659878408
 20
-6.2354941592
 30
0.0
 10
-34.1879113281
 20
-6.242759387
 30
0.0
 10
-34.1969786068
 20
-6.2454104763
 30
0.0
 11
-34.1328283132
 21
-6.2194279403
 31
0.0
 11
-34.1700794593
 21
-6.2364438857
 31
0.0
 11
-34.1969786068
 21
-6.2454104763
 31
0.0
  0
SPLINE
  5
744
100
AcDbEntity
  8
RACCORDO
100
AcDbSpline
 62
7
  6
CONTINUOUS
 70
0
 71
3
 72
9
 73
5
 74
3
 42
0.0000001
 43
0.0000001
 44
0.0000000001
 12
-0.1641346892
 22
-0.0479896708
 32
0.0
 13
-0.1707492752
 23
-0.0
 33
0.0
 40
0.0
 40
0.0
 40
0.0
 40
0.0
 40
0.3614989229
 40
1.0
 40
1.0
 40
1.0
 40
1.0
 10
-34.1969786068
 20
-6.2454104763
 30
0.0
 10
-34.2167567779
 20
-6.2511932144
 30
0.0
 10
-34.2726753058
 20
-6.2629342305
 30
0.0
 10
-34.3297423031
 20
-6.2663451143
 30
0.0
 10
-34.3660835018
 20
-6.2663451143
 30
0.0
 11
-34.1969786068
 21
-6.2454104763
 31
0.0
 11
-34.2573358368
 21
-6.2585933498
 31
0.0
 11
-34.3660835018
 21
-6.2663451143
 31
0.0
  0
SPLINE
  5
745
100
AcDbEntity
  8
RACCORDO
100
AcDbSpline
 62
7
  6
CONTINUOUS
 70
0
 71
3
 72
10
 73
6
 74
4
 42
0.0000001
 43
0.0000001
 44
0.0000000001
 12
0.2524075299
 22
0.0
 32
0.0
 13
0.2144342013
 23
-0.1348861919
 33
0.0
 40
0.0
 40
0.0
 40
0.0
 40
0.0
 40
0.4319348005
 40
0.7885950882
 40
1.0
 40
1.0
 40
1.0
 40
1.0
 10
-34.3660835018
 20
9.3336548857
 30
0.0
 10
-34.3297423031
 20
9.3336548857
 30
0.0
 10
-34.2632176639
 20
9.3296787203
 30
0.0
 10
-34.1808383059
 20
9.3102819753
 30
0.0
 10
-34.1371038838
 20
9.2898496951
 30
0.0
 10
-34.1219930694
 20
9.280344494
 30
0.0
 11
-34.3660835018
 21
9.3336548857
 31
0.0
 11
-34.2573358368
 21
9.3259031211
 31
0.0
 11
-34.1700794593
 21
9.303753657
 31
0.0
 11
-34.1219930694
 21
9.280344494
 31
0.0
  0
SPLINE
  5
746
100
AcDbEntity
  8
RACCORDO
100
AcDbSpline
 62
7
  6
CONTINUOUS
 70
0
 71
3
 72
9
 73
5
 74
3
 42
0.0000001
 43
0.0000001
 44
0.0000000001
 12
0.081030572
 22
-0.050970905
 32
0.0
 13
0.0381997509
 23
-0.0877027634
 33
0.0
 40
0.0
 40
0.0
 40
0.0
 40
0.0
 40
0.2597772587
 40
1.0
 40
1.0
 40
1.0
 40
1.0
 10
-34.1219930694
 20
9.280344494
 30
0.0
 10
-34.1149764361
 20
9.2759308
 30
0.0
 10
-34.088933125
 20
9.2573623701
 30
0.0
 10
-34.0677107975
 20
9.2318323999
 30
0.0
 10
-34.0582853561
 20
9.2101925399
 30
0.0
 11
-34.1219930694
 21
9.280344494
 31
0.0
 11
-34.1017708565
 21
9.2658136942
 31
0.0
 11
-34.0582853561
 21
9.2101925399
 31
0.0
  0
SPLINE
  5
747
100
AcDbEntity
  8
RACCORDO
100
AcDbSpline
 62
7
  6
CONTINUOUS
 70
0
 71
3
 72
11
 73
7
 74
5
 42
0.0000001
 43
0.0000001
 44
0.0000000001
 12
0.1787472755
 22
-0.4103856607
 32
0.0
 13
-0.3329406697
 23
-0.2972248517
 33
0.0
 40
0.0
 40
0.0
 40
0.0
 40
0.0
 40
0.1755919875
 40
0.4035300263
 40
0.6743404829
 40
1.0
 40
1.0
 40
1.0
 40
1.0
 10
-34.0582853561
 20
9.2101925399
 30
0.0
 10
-34.0478231596
 20
9.1861723953
 30
0.0
 10
-34.0415723388
 20
9.1232075112
 30
0.0
 10
-34.0799159623
 20
9.0280347177
 30
0.0
 10
-34.1525169261
 20
8.9285871523
 30
0.0
 10
-34.2158549799
 20
8.8659195862
 30
0.0
 10
-34.2519967458
 20
8.8336548857
 30
0.0
 11
-34.0582853561
 21
9.2101925399
 31
0.0
 11
-34.0479113461
 21
9.1325138454
 31
0.0
 11
-34.0807287288
 21
9.0362216113
 31
0.0
 11
-34.1499150714
 21
8.9371173187
 31
0.0
 11
-34.2519967458
 21
8.8336548857
 31
0.0
  0
SPLINE
  5
748
100
AcDbEntity
  8
RACCORDO
100
AcDbSpline
 62
253
  6
CONTINUOUS
 70
0
 71
3
 72
11
 73
7
 74
5
 42
0.0000001
 43
0.0000001
 44
0.0000000001
 12
-0.2499981575
 22
0.0014544467
 32
0.0
 13
0.0014543975
 23
0.2499981578
 33
0.0
 40
0.0
 40
0.0
 40
0.0
 40
0.0
 40
0.0768065397
 40
0.2956239016
 40
0.6228218045
 40
1.0
 40
1.0
 40
1.0
 40
1.0
 10
-26.4865500746
 20
-24.4532465356
 30
0.0
 10
-26.4929505724
 20
-24.4532092986
 30
0.0
 10
-26.4788595929
 20
-24.4135470223
 30
0.0
 10
-26.4918910951
 20
-24.3752444552
 30
0.0
 10
-26.4851939939
 20
-24.2914721707
 30
0.0
 10
-26.4867329303
 20
-24.2346820511
 30
0.0
 10
-26.4865500746
 20
-24.2032507664
 30
0.0
 11
-26.4865500746
 21
-24.4532465356
 31
0.0
 11
-26.4869972712
 21
-24.4340499254
 31
0.0
 11
-26.4871524706
 21
-24.3793452825
 31
0.0
 11
-26.4869912181
 21
-24.2975451842
 31
0.0
 11
-26.4865500746
 21
-24.2032507664
 31
0.0
  0
SPLINE
  5
749
100
AcDbEntity
  8
RACCORDO
100
AcDbSpline
 62
7
  6
CONTINUOUS
 70
0
 71
3
 72
11
 73
7
 74
5
 42
0.0000001
 43
0.0000001
 44
0.0000000001
 12
-0.0014542391
 22
0.2499981757
 32
0.0
 13
0.2499981745
 23
0.0014544468
 33
0.0
 40
0.0
 40
0.0
 40
0.0
 40
0.0
 40
0.3826696125
 40
0.7070808066
 40
0.9238509597
 40
1.0
 40
1.0
 40
1.0
 40
1.0
 10
-24.2350956418
 20
24.2836591164
 30
0.0
 10
-24.2352811395
 20
24.3155480181
 30
0.0
 10
-24.2337150546
 20
24.3725342845
 30
0.0
 10
-24.2403917962
 20
24.4563447322
 30
0.0
 10
-24.2274834646
 20
24.4943173522
 30
0.0
 10
-24.2414413488
 20
24.5336179674
 30
0.0
 10
-24.2350956418
 20
24.5336548857
 30
0.0
 11
-24.2350956418
 21
24.2836591164
 31
0.0
 11
-24.23554144
 21
24.3793264013
 31
0.0
 11
-24.2356979712
 21
24.4604298291
 31
0.0
 11
-24.23554144
 21
24.5146226628
 31
0.0
 11
-24.2350956418
 21
24.5336548857
 31
0.0
  0
SPLINE
  5
74A
100
AcDbEntity
  8
RACCORDO
100
AcDbSpline
 62
253
  6
CONTINUOUS
 70
0
 71
3
 72
11
 73
7
 74
5
 42
0.0000001
 43
0.0000001
 44
0.0000000001
 12
-0.0014543976
 22
0.2499981764
 32
0.0
 13
0.2499981761
 23
0.0014544468
 33
0.0
 40
0.0
 40
0.0
 40
0.0
 40
0.0
 40
0.3826696105
 40
0.7070808014
 40
0.9238509539
 40
1.0
 40
1.0
 40
1.0
 40
1.0
 10
-26.4865500746
 20
24.2705605377
 30
0.0
 10
-26.4867355925
 20
24.3024494393
 30
0.0
 10
-26.4851695448
 20
24.3594357059
 30
0.0
 10
-26.4918462952
 20
24.4432461522
 30
0.0
 10
-26.4789380149
 20
24.4812187752
 30
0.0
 10
-26.4928957822
 20
24.5205193887
 30
0.0
 10
-26.4865500746
 20
24.5205563069
 30
0.0
 11
-26.4865500746
 21
24.2705605377
 31
0.0
 11
-26.4869959244
 21
24.3662278225
 31
0.0
 11
-26.4871524856
 21
24.4473312499
 31
0.0
 11
-26.4869959244
 21
24.5015240837
 31
0.0
 11
-26.4865500746
 21
24.5205563069
 31
0.0
  0
SPLINE
  5
74B
100
AcDbEntity
  8
RACCORDO
100
AcDbSpline
 62
7
  6
CONTINUOUS
 70
0
 71
3
 72
11
 73
7
 74
5
 42
0.0000001
 43
0.0000001
 44
0.0000000001
 12
-0.2499981745
 22
0.0014544468
 32
0.0
 13
0.0014542391
 23
0.2499981757
 33
0.0
 40
0.0
 40
0.0
 40
0.0
 40
0.0
 40
0.0761490403
 40
0.2929191934
 40
0.6173303875
 40
1.0
 40
1.0
 40
1.0
 40
1.0
 10
-24.2350956418
 20
-24.4663451143
 30
0.0
 10
-24.2414413488
 20
-24.4663081961
 30
0.0
 10
-24.2274834646
 20
-24.4270075809
 30
0.0
 10
-24.2403917962
 20
-24.3890349609
 30
0.0
 10
-24.2337150546
 20
-24.3052245132
 30
0.0
 10
-24.2352811395
 20
-24.2482382468
 30
0.0
 10
-24.2350956418
 20
-24.2163493451
 30
0.0
 11
-24.2350956418
 21
-24.4663451143
 31
0.0
 11
-24.23554144
 21
-24.4473128914
 31
0.0
 11
-24.2356979712
 21
-24.3931200578
 31
0.0
 11
-24.23554144
 21
-24.31201663
 31
0.0
 11
-24.2350956418
 21
-24.2163493451
 31
0.0
  0
SPLINE
  5
74C
100
AcDbEntity
  8
RACCORDO
100
AcDbSpline
 62
7
  6
CONTINUOUS
 70
0
 71
3
 72
10
 73
6
 74
4
 42
0.0000001
 43
0.0000001
 44
0.0000000001
 12
-0.1240360505
 22
-0.0065920777
 32
0.0
 13
-0.1240408728
 23
-0.0065007067
 33
0.0
 40
0.0
 40
0.0
 40
0.0
 40
0.0
 40
0.347513582
 40
0.6843369617
 40
1.0
 40
1.0
 40
1.0
 40
1.0
 10
-25.4865500746
 20
22.3670658471
 30
0.0
 10
-25.5009181454
 20
22.3663022349
 30
0.0
 10
-25.529221191
 20
22.3649608312
 30
0.0
 10
-25.5705932644
 20
22.3633516536
 30
0.0
 10
-25.5975870775
 20
22.3622497352
 30
0.0
 10
-25.6106387838
 20
22.3615657243
 30
0.0
 11
-25.4865500746
 21
22.3670658471
 31
0.0
 11
-25.5296657424
 21
22.3650018134
 31
0.0
 11
-25.571468471
 21
22.3633037588
 31
0.0
 11
-25.6106387838
 21
22.3615657243
 31
0.0
  0
SPLINE
  5
74D
100
AcDbEntity
  8
RACCORDO
100
AcDbSpline
 62
253
  6
CONTINUOUS
 70
0
 71
3
 72
11
 73
7
 74
5
 42
0.0000001
 43
0.0000001
 44
0.0000000001
 12
-0.1246373069
 22
-0.2158854549
 32
0.0
 13
0.2158836282
 23
-0.1246404709
 33
0.0
 40
0.0
 40
0.0
 40
0.0
 40
0.0
 40
0.3828907181
 40
0.7072619023
 40
0.923914324
 40
1.0
 40
1.0
 40
1.0
 40
1.0
 10
-26.4865500746
 20
23.877992453
 30
0.0
 10
-26.5024575639
 20
23.8504389407
 30
0.0
 10
-26.5292234663
 20
23.8002767588
 30
0.0
 10
-26.5764532582
 20
23.7309952177
 30
0.0
 10
-26.5839559693
 20
23.6917131282
 30
0.0
 10
-26.6155708591
 20
23.6646472202
 30
0.0
 10
-26.6100956418
 20
23.661486102
 30
0.0
 11
-26.4865500746
 21
23.877992453
 31
0.0
 11
-26.5341897865
 21
23.7952841937
 31
0.0
 11
-26.5743826611
 21
23.7251215231
 31
0.0
 11
-26.6010320489
 21
23.6781470543
 31
0.0
 11
-26.6100956418
 21
23.661486102
 31
0.0
  0
SPLINE
  5
74E
100
AcDbEntity
  8
RACCORDO
100
AcDbSpline
 62
7
  6
CONTINUOUS
 70
0
 71
3
 72
12
 73
8
 74
6
 42
0.0000001
 43
0.0000001
 44
0.0000000001
 12
-0.2489097554
 22
-0.1437117623
 32
0.0
 13
-0.2461279857
 23
-0.148442548
 33
0.0
 40
0.0
 40
0.0
 40
0.0
 40
0.0
 40
0.2869624875
 40
0.5578922054
 40
0.7858362466
 40
0.9424027397
 40
1.0
 40
1.0
 40
1.0
 40
1.0
 10
-25.4865500746
 20
23.3006421838
 30
0.0
 10
-25.5103593288
 20
23.2868955555
 30
0.0
 10
-25.5566356309
 20
23.2601497166
 30
0.0
 10
-25.621804263
 20
23.222449009
 30
0.0
 10
-25.6760896816
 20
23.1908854812
 30
0.0
 10
-25.7127484026
 20
23.1696648589
 30
0.0
 10
-25.7303702092
 20
23.1591545778
 30
0.0
 10
-25.7350956418
 20
23.1563046165
 30
0.0
 11
-25.4865500746
 21
23.3006421838
 31
0.0
 11
-25.5579626548
 21
23.2593760141
 31
0.0
 11
-25.6253533987
 21
23.2203601346
 31
0.0
 11
-25.6820142404
 21
23.1874694871
 31
0.0
 11
-25.7208819281
 21
23.1647911683
 31
0.0
 11
-25.7350956418
 21
23.1563046165
 31
0.0
  0
SPLINE
  5
74F
100
AcDbEntity
  8
RACCORDO
100
AcDbSpline
 62
7
  6
CONTINUOUS
 70
0
 71
3
 72
10
 73
6
 74
4
 42
0.0000001
 43
0.0000001
 44
0.0000000001
 12
0.1240408728
 22
-0.0065007067
 32
0.0
 13
0.1240360505
 23
-0.0065920777
 33
0.0
 40
0.0
 40
0.0
 40
0.0
 40
0.0
 40
0.3156630383
 40
0.652486418
 40
1.0
 40
1.0
 40
1.0
 40
1.0
 10
-25.6106387838
 20
-22.294255953
 30
0.0
 10
-25.5975870775
 20
-22.2949399639
 30
0.0
 10
-25.5705932644
 20
-22.2960418822
 30
0.0
 10
-25.529221191
 20
-22.2976510599
 30
0.0
 10
-25.5009181454
 20
-22.2989924636
 30
0.0
 10
-25.4865500746
 20
-22.2997560758
 30
0.0
 11
-25.6106387838
 21
-22.294255953
 31
0.0
 11
-25.571468471
 21
-22.2959939875
 31
0.0
 11
-25.5296657424
 21
-22.2976920421
 31
0.0
 11
-25.4865500746
 21
-22.2997560758
 31
0.0
  0
SPLINE
  5
750
100
AcDbEntity
  8
RACCORDO
100
AcDbSpline
 62
7
  6
CONTINUOUS
 70
0
 71
3
 72
12
 73
8
 74
6
 42
0.0000001
 43
0.0000001
 44
0.0000000001
 12
-0.2489097542
 22
0.1437117616
 32
0.0
 13
-0.2461314079
 23
0.1484368582
 33
0.0
 40
0.0
 40
0.0
 40
0.0
 40
0.0
 40
0.2874701681
 40
0.5581272763
 40
0.7856651242
 40
0.9422058565
 40
1.0
 40
1.0
 40
1.0
 40
1.0
 10
-25.4865500746
 20
-23.2333324125
 30
0.0
 10
-25.5104014509
 20
-23.2195614644
 30
0.0
 10
-25.5566972434
 20
-23.1928043415
 30
0.0
 10
-25.6218515885
 20
-23.1551116813
 30
0.0
 10
-25.6760787741
 20
-23.1235822844
 30
0.0
 10
-25.7127178168
 20
-23.1023726367
 30
0.0
 10
-25.7303539905
 20
-23.0918544388
 30
0.0
 10
-25.7350956418
 20
-23.0889948452
 30
0.0
 11
-25.4865500746
 21
-23.2333324125
 31
0.0
 11
-25.5580889661
 21
-23.1919931881
 31
0.0
 11
-25.6254118522
 21
-23.1530164823
 31
0.0
 11
-25.6819717243
 21
-23.1201844448
 31
0.0
 11
-25.7208331227
 21
-23.0975100393
 31
0.0
 11
-25.7350956418
 21
-23.0889948452
 31
0.0
  0
SPLINE
  5
751
100
AcDbEntity
  8
RACCORDO
100
AcDbSpline
 62
253
  6
CONTINUOUS
 70
0
 71
3
 72
11
 73
7
 74
5
 42
0.0000001
 43
0.0000001
 44
0.0000000001
 12
-0.1246373044
 22
0.2158854507
 32
0.0
 13
0.215883624
 23
0.1246404684
 33
0.0
 40
0.0
 40
0.0
 40
0.0
 40
0.0
 40
0.3811215339
 40
0.7063727742
 40
0.9236829804
 40
1.0
 40
1.0
 40
1.0
 40
1.0
 10
-26.4865500746
 20
-23.8106826816
 30
0.0
 10
-26.5023840615
 20
-23.7832564836
 30
0.0
 10
-26.5291258456
 20
-23.7331545944
 30
0.0
 10
-26.5763533606
 20
-23.663888591
 30
0.0
 10
-26.5838749134
 20
-23.6244944121
 30
0.0
 10
-26.6155875067
 20
-23.5973470604
 30
0.0
 10
-26.6100956418
 20
-23.5941763307
 30
0.0
 11
-26.4865500746
 21
-23.8106826816
 31
0.0
 11
-26.5339700738
 21
-23.728356823
 31
0.0
 11
-26.574272808
 21
-23.65800426
 31
0.0
 11
-26.6010038221
 21
-23.6108875778
 31
0.0
 11
-26.6100956418
 21
-23.5941763307
 31
0.0
  0
SPLINE
  5
752
100
AcDbEntity
  8
RACCORDO
100
AcDbSpline
 62
253
  6
CONTINUOUS
 70
0
 71
3
 72
11
 73
7
 74
5
 42
0.0000001
 43
0.0000001
 44
0.0000000001
 12
0.1246373044
 22
-0.2158854507
 32
0.0
 13
-0.215883624
 23
-0.1246404684
 33
0.0
 40
0.0
 40
0.0
 40
0.0
 40
0.0
 40
0.3811215339
 40
0.7063727742
 40
0.9236829804
 40
1.0
 40
1.0
 40
1.0
 40
1.0
 10
-23.4836412089
 20
23.877992453
 30
0.0
 10
-23.4678072221
 20
23.8505662549
 30
0.0
 10
-23.4410654379
 20
23.8004643657
 30
0.0
 10
-23.3938379229
 20
23.7311983623
 30
0.0
 10
-23.3863163702
 20
23.6918041834
 30
0.0
 10
-23.3546037769
 20
23.6646568317
 30
0.0
 10
-23.3600956418
 20
23.661486102
 30
0.0
 11
-23.4836412089
 21
23.877992453
 31
0.0
 11
-23.4362212098
 21
23.7956665944
 31
0.0
 11
-23.3959184755
 21
23.7253140313
 31
0.0
 11
-23.3691874614
 21
23.6781973491
 31
0.0
 11
-23.3600956418
 21
23.661486102
 31
0.0
  0
SPLINE
  5
753
100
AcDbEntity
  8
RACCORDO
100
AcDbSpline
 62
253
  6
CONTINUOUS
 70
0
 71
3
 72
11
 73
7
 74
5
 42
0.0000001
 43
0.0000001
 44
0.0000000001
 12
0.1246373044
 22
0.2158854507
 32
0.0
 13
-0.215883624
 23
0.1246404684
 33
0.0
 40
0.0
 40
0.0
 40
0.0
 40
0.0
 40
0.3811215339
 40
0.7063727742
 40
0.9236829804
 40
1.0
 40
1.0
 40
1.0
 40
1.0
 10
-23.4836412089
 20
-23.8106826816
 30
0.0
 10
-23.4678072221
 20
-23.7832564836
 30
0.0
 10
-23.4410654379
 20
-23.7331545944
 30
0.0
 10
-23.3938379229
 20
-23.663888591
 30
0.0
 10
-23.3863163702
 20
-23.6244944121
 30
0.0
 10
-23.3546037769
 20
-23.5973470604
 30
0.0
 10
-23.3600956418
 20
-23.5941763307
 30
0.0
 11
-23.4836412089
 21
-23.8106826816
 31
0.0
 11
-23.4362212098
 21
-23.728356823
 31
0.0
 11
-23.3959184755
 21
-23.65800426
 31
0.0
 11
-23.3691874614
 21
-23.6108875778
 31
0.0
 11
-23.3600956418
 21
-23.5941763307
 31
0.0
  0
SPLINE
  5
754
100
AcDbEntity
  8
RACCORDO
100
AcDbSpline
 62
7
  6
CONTINUOUS
 70
0
 71
3
 72
12
 73
8
 74
6
 42
0.0000001
 43
0.0000001
 44
0.0000000001
 12
-0.0109036576
 22
0.4998596615
 32
0.0
 13
0.2333125718
 23
0.4422033636
 33
0.0
 40
0.0
 40
0.0
 40
0.0
 40
0.0
 40
0.3030358887
 40
0.5776030971
 40
0.7979008769
 40
0.9432218509
 40
1.0
 40
1.0
 40
1.0
 40
1.0
 10
-24.0901609989
 20
21.9410217364
 30
0.0
 10
-24.0912623987
 20
21.9915135419
 30
0.0
 10
-24.0933924885
 20
22.0878565968
 30
0.0
 10
-24.0941166013
 20
22.2204451264
 30
0.0
 10
-24.0976072124
 20
22.3281212905
 30
0.0
 10
-24.0915840346
 20
22.3965640898
 30
0.0
 10
-24.0970311773
 20
22.4325148088
 30
0.0
 10
-24.0926154919
 20
22.4408839717
 30
0.0
 11
-24.0901609989
 21
21.9410217364
 31
0.0
 11
-24.0930554492
 21
22.0925055367
 31
0.0
 11
-24.0948582279
 21
22.2297714192
 31
0.0
 11
-24.0953995104
 21
22.3399142582
 31
0.0
 11
-24.0946279075
 21
22.4125675338
 31
0.0
 11
-24.0926154919
 21
22.4408839717
 31
0.0
  0
SPLINE
  5
755
100
AcDbEntity
  8
RACCORDO
100
AcDbSpline
 62
253
  6
CONTINUOUS
 70
0
 71
3
 72
12
 73
8
 74
6
 42
0.0000001
 43
0.0000001
 44
0.0000000001
 12
-0.0261472609
 22
0.4990709999
 32
0.0
 13
0.4990705849
 23
0.0261551811
 33
0.0
 40
0.0
 40
0.0
 40
0.0
 40
0.0
 40
0.3089458618
 40
0.5876088294
 40
0.8087556966
 40
0.9507922057
 40
1.0
 40
1.0
 40
1.0
 40
1.0
 10
-31.8744327558
 20
21.5330653402
 30
0.0
 10
-31.8771254518
 20
21.584460647
 30
0.0
 10
-31.8827816398
 20
21.6831258625
 30
0.0
 10
-31.8856485867
 20
21.8142550251
 30
0.0
 10
-31.8973604926
 20
21.9299896535
 30
0.0
 10
-31.8840328458
 20
21.9816947488
 30
0.0
 10
-31.9000605817
 20
22.0319510949
 30
0.0
 10
-31.8918745274
 20
22.0323801078
 30
0.0
 11
-31.8744327558
 21
21.5330653402
 31
0.0
 11
-31.8820853947
 21
21.687272962
 31
0.0
 11
-31.8881367043
 21
21.8264047741
 31
0.0
 11
-31.8919949751
 21
21.936856766
 31
0.0
 11
-31.8932829071
 21
22.007828605
 31
0.0
 11
-31.8918745274
 21
22.0323801078
 31
0.0
  0
SPLINE
  5
756
100
AcDbEntity
  8
RACCORDO
100
AcDbSpline
 62
253
  6
CONTINUOUS
 70
0
 71
3
 72
11
 73
7
 74
5
 42
0.0000001
 43
0.0000001
 44
0.0000000001
 12
0.2499982356
 22
0.0014544472
 32
0.0
 13
-0.001454398
 23
0.2499982359
 33
0.0
 40
0.0
 40
0.0
 40
0.0
 40
0.0
 40
0.0738935379
 40
0.2902249199
 40
0.6157469602
 40
1.0
 40
1.0
 40
1.0
 40
1.0
 10
-23.4836412089
 20
-24.4619732803
 30
0.0
 10
-23.4774834576
 20
-24.4619374556
 30
0.0
 10
-23.491236694
 20
-24.4230584605
 30
0.0
 10
-23.4783024544
 20
-24.3852566544
 30
0.0
 10
-23.4850414491
 20
-24.3011847696
 30
0.0
 10
-23.4834549233
 20
-24.2439983718
 30
0.0
 10
-23.4836412089
 20
-24.2119775111
 30
0.0
 11
-23.4836412089
 21
-24.4619732803
 31
0.0
 11
-23.4832000655
 21
-24.4435049816
 31
0.0
 11
-23.4830388129
 21
-24.3894218429
 31
0.0
 11
-23.4831940124
 21
-24.3080406779
 31
0.0
 11
-23.4836412089
 21
-24.2119775111
 31
0.0
  0
SPLINE
  5
757
100
AcDbEntity
  8
RACCORDO
100
AcDbSpline
 62
7
  6
CONTINUOUS
 70
0
 71
3
 72
12
 73
8
 74
6
 42
0.0000001
 43
0.0000001
 44
0.0000000001
 12
-0.0109036576
 22
-0.4998596615
 32
0.0
 13
0.2333125718
 23
-0.4422033636
 33
0.0
 40
0.0
 40
0.0
 40
0.0
 40
0.0
 40
0.3030358887
 40
0.5776030971
 40
0.7979008769
 40
0.9432218509
 40
1.0
 40
1.0
 40
1.0
 40
1.0
 10
-24.0901609989
 20
-21.8737119651
 30
0.0
 10
-24.0912623987
 20
-21.9242037706
 30
0.0
 10
-24.0933924885
 20
-22.0205468255
 30
0.0
 10
-24.0941166013
 20
-22.1531353551
 30
0.0
 10
-24.0976072124
 20
-22.2608115192
 30
0.0
 10
-24.0915840346
 20
-22.3292543185
 30
0.0
 10
-24.0970311773
 20
-22.3652050375
 30
0.0
 10
-24.0926154919
 20
-22.3735742004
 30
0.0
 11
-24.0901609989
 21
-21.8737119651
 31
0.0
 11
-24.0930554492
 21
-22.0251957654
 31
0.0
 11
-24.0948582279
 21
-22.1624616479
 31
0.0
 11
-24.0953995104
 21
-22.2726044869
 31
0.0
 11
-24.0946279075
 21
-22.3452577625
 31
0.0
 11
-24.0926154919
 21
-22.3735742004
 31
0.0
  0
SPLINE
  5
758
100
AcDbEntity
  8
RACCORDO
100
AcDbSpline
 62
253
  6
CONTINUOUS
 70
0
 71
3
 72
12
 73
8
 74
6
 42
0.0000001
 43
0.0000001
 44
0.0000000001
 12
-0.0261472364
 22
-0.4990710012
 32
0.0
 13
0.4990705849
 23
-0.0261551811
 33
0.0
 40
0.0
 40
0.0
 40
0.0
 40
0.0
 40
0.3089507473
 40
0.5876147129
 40
0.8087596433
 40
0.9507934523
 40
1.0
 40
1.0
 40
1.0
 40
1.0
 10
-31.8744327558
 20
-21.4657555689
 30
0.0
 10
-31.8771254918
 20
-21.5171516885
 30
0.0
 10
-31.88278174
 20
-21.6158179072
 30
0.0
 10
-31.8856486632
 20
-21.7469476805
 30
0.0
 10
-31.8973604852
 20
-21.8626816809
 30
0.0
 10
-31.8840330521
 20
-21.9143860478
 30
0.0
 10
-31.9000603775
 20
-21.9646413343
 30
0.0
 10
-31.8918745307
 20
-21.9650703363
 30
0.0
 11
-31.8744327558
 21
-21.4657555689
 31
0.0
 11
-31.8820855026
 21
-21.6199656299
 31
0.0
 11
-31.8881368122
 21
-21.7590979412
 31
0.0
 11
-31.8919950232
 21
-21.8695489668
 31
0.0
 11
-31.8932829027
 21
-21.9405194571
 31
0.0
 11
-31.8918745307
 21
-21.9650703363
 31
0.0
  0
SPLINE
  5
759
100
AcDbEntity
  8
RACCORDO
100
AcDbSpline
 62
253
  6
CONTINUOUS
 70
0
 71
3
 72
11
 73
7
 74
5
 42
0.0000001
 43
0.0000001
 44
0.0000000001
 12
0.0014543976
 22
0.2499981764
 32
0.0
 13
-0.2499981761
 23
0.0014544468
 33
0.0
 40
0.0
 40
0.0
 40
0.0
 40
0.0
 40
0.3826696105
 40
0.7070808014
 40
0.9238509539
 40
1.0
 40
1.0
 40
1.0
 40
1.0
 10
-23.4836412089
 20
24.2792872824
 30
0.0
 10
-23.483455691
 20
24.311176184
 30
0.0
 10
-23.4850217388
 20
24.3681624506
 30
0.0
 10
-23.4783449884
 20
24.4519728969
 30
0.0
 10
-23.4912532686
 20
24.4899455199
 30
0.0
 10
-23.4772955014
 20
24.5292461334
 30
0.0
 10
-23.4836412089
 20
24.5292830517
 30
0.0
 11
-23.4836412089
 21
24.2792872824
 31
0.0
 11
-23.4831953592
 21
24.3749545672
 31
0.0
 11
-23.4830387979
 21
24.4560579947
 31
0.0
 11
-23.4831953592
 21
24.5102508284
 31
0.0
 11
-23.4836412089
 21
24.5292830517
 31
0.0
  0
ELLIPSE
  5
75A
100
AcDbEntity
  8
COPY-PUBBLISH
100
AcDbEllipse
 62
7
  6
CONTINUOUS
 10
35.7113795283
 20
-6.2250726468
 30
0.0
 11
0.5
 21
-0.0
 31
0.0
 40
0.0174550649
 41
0.0174532925
 42
1.5707963268
  0
ELLIPSE
  5
75B
100
AcDbEntity
  8
COPY-PUBBLISH
100
AcDbEllipse
 62
7
  6
CONTINUOUS
 10
34.6374354406
 20
-6.2250726468
 30
0.0
 11
0.5
 21
-0.0
 31
0.0
 40
0.0174550649
 41
1.5707963268
 42
3.1241393611
  0
ELLIPSE
  5
75C
100
AcDbEntity
  8
COPY-PUBBLISH
100
AcDbEllipse
 62
7
  6
CONTINUOUS
 10
22.2113795283
 20
-6.2250726468
 30
0.0
 11
0.5
 21
0.0
 31
0.0
 40
0.0174550649
 41
0.0174532925
 42
1.5707963268
  0
ELLIPSE
  5
75D
100
AcDbEntity
  8
COPY-PUBBLISH
100
AcDbEllipse
 62
7
  6
CONTINUOUS
 10
21.1374354406
 20
-6.2250726468
 30
0.0
 11
0.5
 21
-0.0
 31
0.0
 40
0.0174550649
 41
1.5707963268
 42
3.1241393611
  0
ELLIPSE
  5
75E
100
AcDbEntity
  8
COPY-PUBBLISH
100
AcDbEllipse
 62
7
  6
CONTINUOUS
 10
22.2113795283
 20
9.2923824181
 30
0.0
 11
0.5
 21
-0.0
 31
0.0
 40
0.0174550649
 41
-1.5707963268
 42
-0.0174532925
  0
ELLIPSE
  5
75F
100
AcDbEntity
  8
COPY-PUBBLISH
100
AcDbEllipse
 62
7
  6
CONTINUOUS
 10
21.1374354406
 20
9.2923824181
 30
0.0
 11
0.5
 21
0.0
 31
0.0
 40
0.0174550649
 41
-3.1241393611
 42
-1.5707963268
  0
ELLIPSE
  5
760
100
AcDbEntity
  8
COPY-PUBBLISH
100
AcDbEllipse
 62
7
  6
CONTINUOUS
 10
35.7113795283
 20
9.2923824181
 30
0.0
 11
0.5
 21
0.0
 31
0.0
 40
0.0174550649
 41
-1.5707963268
 42
-0.0174532925
  0
ELLIPSE
  5
761
100
AcDbEntity
  8
COPY-PUBBLISH
100
AcDbEllipse
 62
7
  6
CONTINUOUS
 10
34.6374354406
 20
9.2923824181
 30
0.0
 11
0.5
 21
0.0
 31
0.0
 40
0.0174550649
 41
-3.1241393611
 42
-1.5707963268
  0
ELLIPSE
  5
762
100
AcDbEntity
  8
RACCORDO
100
AcDbEllipse
 62
7
  6
CONTINUOUS
 10
6.5244836484
 20
-21.8663260752
 30
0.0
 11
0.4473055582
 21
-0.2236357461
 31
0.0
 40
0.9998096356
 41
-2.6780516535
 42
-1.5707153717
  0
ELLIPSE
  5
763
100
AcDbEntity
  8
RACCORDO
100
AcDbEllipse
 62
7
  6
CONTINUOUS
 10
50.3243313204
 20
21.9336358465
 30
0.0
 11
0.4473055583
 21
-0.2236357461
 31
0.0
 40
0.9998096356
 41
0.463541
 42
1.5708772819
  0
ELLIPSE
  5
764
100
AcDbEntity
  8
RACCORDO
100
AcDbEllipse
 62
7
  6
CONTINUOUS
 10
50.3243313204
 20
-21.8663260752
 30
0.0
 11
0.4473055582
 21
0.2236357461
 31
0.0
 40
0.9998096356
 41
-1.5708772867
 42
-0.4635410001
  0
ELLIPSE
  5
765
100
AcDbEntity
  8
RACCORDO
100
AcDbEllipse
 62
7
  6
CONTINUOUS
 10
6.5244836484
 20
21.9336358465
 30
0.0
 11
0.4473055582
 21
0.2236357461
 31
0.0
 40
0.9998096356
 41
1.5707153669
 42
2.6780516535
  0
ELLIPSE
  5
766
100
AcDbEntity
  8
RACCORDO
100
AcDbEllipse
 62
7
  6
CONTINUOUS
 10
48.1816840025
 20
22.3681451616
 30
0.0
 11
0.25
 21
-0.0
 31
0.0
 40
0.0524077793
 41
-3.1357748894
 42
-1.5707963268
  0
ELLIPSE
  5
767
100
AcDbEntity
  8
RACCORDO
100
AcDbEllipse
 62
7
  6
CONTINUOUS
 10
21.0714901078
 20
23.8307459707
 30
0.0
 11
0.5
 21
0.0
 31
0.0
 40
0.0058178298
 41
-0.6464131586
 42
-0.0058177642
  0
ELLIPSE
  5
768
100
AcDbEntity
  8
RACCORDO
100
AcDbEllipse
 62
7
  6
CONTINUOUS
 10
13.277324861
 20
23.8307459707
 30
0.0
 11
0.5
 21
0.0
 31
0.0
 40
0.0058178298
 41
-3.1357748894
 42
-2.495179495
  0
ELLIPSE
  5
769
100
AcDbEntity
  8
RACCORDO
100
AcDbEllipse
 62
7
  6
CONTINUOUS
 10
13.277324861
 20
22.407450996
 30
0.0
 11
0.5
 21
0.0
 31
0.0
 40
0.0524077793
 41
-3.1357748894
 42
-1.5707963268
  0
ELLIPSE
  5
76A
100
AcDbEntity
  8
RACCORDO
100
AcDbEllipse
 62
7
  6
CONTINUOUS
 10
21.0714901078
 20
-23.7634361994
 30
0.0
 11
0.5
 21
0.0
 31
0.0
 40
0.0058178298
 41
0.0058177642
 42
0.6464131586
  0
ELLIPSE
  5
76B
100
AcDbEntity
  8
RACCORDO
100
AcDbEllipse
 62
7
  6
CONTINUOUS
 10
21.0714901078
 20
-22.3401412247
 30
0.0
 11
0.5
 21
0.0
 31
0.0
 40
0.0524077793
 41
0.0058177642
 42
1.5707963268
  0
ELLIPSE
  5
76C
100
AcDbEntity
  8
RACCORDO
100
AcDbEllipse
 62
7
  6
CONTINUOUS
 10
43.5714901078
 20
22.407450996
 30
0.0
 11
0.5
 21
-0.0
 31
0.0
 40
0.0524077793
 41
-1.5707963268
 42
-0.0058177642
  0
ELLIPSE
  5
76D
100
AcDbEntity
  8
RACCORDO
100
AcDbEllipse
 62
7
  6
CONTINUOUS
 10
13.277324861
 20
-22.3401412247
 30
0.0
 11
0.5
 21
0.0
 31
0.0
 40
0.0524077793
 41
1.5707963268
 42
3.1357748894
  0
ELLIPSE
  5
76E
100
AcDbEntity
  8
RACCORDO
100
AcDbEllipse
 62
7
  6
CONTINUOUS
 10
13.277324861
 20
-23.7634361994
 30
0.0
 11
0.5
 21
0.0
 31
0.0
 40
0.0058178298
 41
2.495179495
 42
3.1357748894
  0
ELLIPSE
  5
76F
100
AcDbEntity
  8
RACCORDO
100
AcDbEllipse
 62
7
  6
CONTINUOUS
 10
43.5714901078
 20
23.8307459707
 30
0.0
 11
0.5
 21
-0.0
 31
0.0
 40
0.0058178298
 41
-0.6464131586
 42
-0.0058177642
  0
ELLIPSE
  5
770
100
AcDbEntity
  8
RACCORDO
100
AcDbEllipse
 62
7
  6
CONTINUOUS
 10
31.1671309663
 20
22.3681451616
 30
0.0
 11
0.25
 21
-0.0
 31
0.0
 40
0.0524077793
 41
-1.5707963268
 42
-0.0058177642
  0
ELLIPSE
  5
771
100
AcDbEntity
  8
RACCORDO
100
AcDbEllipse
 62
7
  6
CONTINUOUS
 10
29.2816840025
 20
22.3681451616
 30
0.0
 11
0.25
 21
-0.0
 31
0.0
 40
0.0524077793
 41
-3.1357748894
 42
-1.5707963268
  0
ELLIPSE
  5
772
100
AcDbEntity
  8
RACCORDO
100
AcDbEllipse
 62
7
  6
CONTINUOUS
 10
35.777324861
 20
23.8307459707
 30
0.0
 11
0.5
 21
0.0
 31
0.0
 40
0.0058178298
 41
-3.1357748894
 42
-2.495179495
  0
ELLIPSE
  5
773
100
AcDbEntity
  8
RACCORDO
100
AcDbEllipse
 62
7
  6
CONTINUOUS
 10
50.0671309663
 20
-22.3008353902
 30
0.0
 11
0.25
 21
0.0
 31
0.0
 40
0.0524077793
 41
0.5261092631
 42
1.5707963268
  0
ELLIPSE
  5
774
100
AcDbEntity
  8
RACCORDO
100
AcDbEllipse
 62
7
  6
CONTINUOUS
 10
35.777324861
 20
22.407450996
 30
0.0
 11
0.5
 21
0.0
 31
0.0
 40
0.0524077793
 41
-3.1357748894
 42
-1.5707963268
  0
ELLIPSE
  5
775
100
AcDbEntity
  8
RACCORDO
100
AcDbEllipse
 62
7
  6
CONTINUOUS
 10
43.5714901078
 20
-23.7634361994
 30
0.0
 11
0.5
 21
0.0
 31
0.0
 40
0.0058178298
 41
0.0058177642
 42
0.6464131586
  0
ELLIPSE
  5
776
100
AcDbEntity
  8
RACCORDO
100
AcDbEllipse
 62
7
  6
CONTINUOUS
 10
27.5671309663
 20
-22.3008353902
 30
0.0
 11
0.25
 21
0.0
 31
0.0
 40
0.0524077793
 41
0.0058177642
 42
1.5707963268
  0
ELLIPSE
  5
777
100
AcDbEntity
  8
RACCORDO
100
AcDbEllipse
 62
7
  6
CONTINUOUS
 10
43.5714901078
 20
-22.3401412247
 30
0.0
 11
0.5
 21
-0.0
 31
0.0
 40
0.0524077793
 41
0.0058177642
 42
1.5707963268
  0
ELLIPSE
  5
778
100
AcDbEntity
  8
RACCORDO
100
AcDbEllipse
 62
7
  6
CONTINUOUS
 10
21.0714901078
 20
22.407450996
 30
0.0
 11
0.5
 21
-0.0
 31
0.0
 40
0.0524077793
 41
-1.5707963268
 42
-0.0058177642
  0
ELLIPSE
  5
779
100
AcDbEntity
  8
RACCORDO
100
AcDbEllipse
 62
7
  6
CONTINUOUS
 10
25.6816840025
 20
-22.3008353902
 30
0.0
 11
0.25
 21
0.0
 31
0.0
 40
0.0524077793
 41
1.5707963268
 42
3.1357748894
  0
ELLIPSE
  5
77A
100
AcDbEntity
  8
RACCORDO
100
AcDbEllipse
 62
7
  6
CONTINUOUS
 10
48.1816840025
 20
-22.3008353902
 30
0.0
 11
0.25
 21
0.0
 31
0.0
 40
0.0524077793
 41
1.5707963268
 42
3.1357748894
  0
ELLIPSE
  5
77B
100
AcDbEntity
  8
RACCORDO
100
AcDbEllipse
 62
7
  6
CONTINUOUS
 10
8.6671309663
 20
-22.3008353902
 30
0.0
 11
0.25
 21
-0.0
 31
0.0
 40
0.0524077793
 41
0.0058177642
 42
1.5707963268
  0
ELLIPSE
  5
77C
100
AcDbEntity
  8
RACCORDO
100
AcDbEllipse
 62
7
  6
CONTINUOUS
 10
6.7816840025
 20
-22.3008353902
 30
0.0
 11
0.25
 21
0.0
 31
0.0
 40
0.0524077793
 41
1.5707963268
 42
2.6154833905
  0
ELLIPSE
  5
77D
100
AcDbEntity
  8
RACCORDO
100
AcDbEllipse
 62
7
  6
CONTINUOUS
 10
27.5671309663
 20
22.3681451616
 30
0.0
 11
0.25
 21
0.0
 31
0.0
 40
0.0524077793
 41
-1.5707963268
 42
-0.0058177642
  0
ELLIPSE
  5
77E
100
AcDbEntity
  8
RACCORDO
100
AcDbEllipse
 62
7
  6
CONTINUOUS
 10
35.777324861
 20
-22.3401412247
 30
0.0
 11
0.5
 21
0.0
 31
0.0
 40
0.0524077793
 41
1.5707963268
 42
3.1357748894
  0
ELLIPSE
  5
77F
100
AcDbEntity
  8
RACCORDO
100
AcDbEllipse
 62
7
  6
CONTINUOUS
 10
31.1671309663
 20
-22.3008353902
 30
0.0
 11
0.25
 21
0.0
 31
0.0
 40
0.0524077793
 41
0.0058177642
 42
1.5707963268
  0
ELLIPSE
  5
780
100
AcDbEntity
  8
RACCORDO
100
AcDbEllipse
 62
7
  6
CONTINUOUS
 10
25.6816840025
 20
22.3681451616
 30
0.0
 11
0.25
 21
0.0
 31
0.0
 40
0.0524077793
 41
-3.1357748894
 42
-1.5707963268
  0
ELLIPSE
  5
781
100
AcDbEntity
  8
RACCORDO
100
AcDbEllipse
 62
7
  6
CONTINUOUS
 10
8.6671309663
 20
22.3681451616
 30
0.0
 11
0.25
 21
-0.0
 31
0.0
 40
0.0524077793
 41
-1.5707963268
 42
-0.0058177642
  0
ELLIPSE
  5
782
100
AcDbEntity
  8
RACCORDO
100
AcDbEllipse
 62
7
  6
CONTINUOUS
 10
6.7816840025
 20
22.3681451616
 30
0.0
 11
0.25
 21
0.0
 31
0.0
 40
0.0524077793
 41
-2.6154833905
 42
-1.5707963268
  0
ELLIPSE
  5
783
100
AcDbEntity
  8
RACCORDO
100
AcDbEllipse
 62
7
  6
CONTINUOUS
 10
29.2816840025
 20
-22.3008353902
 30
0.0
 11
0.25
 21
0.0
 31
0.0
 40
0.0524077793
 41
1.5707963268
 42
3.1357748894
  0
ELLIPSE
  5
784
100
AcDbEntity
  8
RACCORDO
100
AcDbEllipse
 62
7
  6
CONTINUOUS
 10
50.3331719122
 20
-21.944610064
 30
0.0
 11
-0.2441762974
 21
2.3066033254
 31
0.0
 40
0.023266293
 41
-4.5602682193
 42
-4.5277912626
  0
ELLIPSE
  5
785
100
AcDbEntity
  8
RACCORDO
100
AcDbEllipse
 62
7
  6
CONTINUOUS
 10
50.0671309663
 20
22.3681451616
 30
0.0
 11
0.25
 21
-0.0
 31
0.0
 40
0.0524077793
 41
-1.5707963268
 42
-0.5261092631
  0
ELLIPSE
  5
786
100
AcDbEntity
  8
RACCORDO
100
AcDbEllipse
 62
7
  6
CONTINUOUS
 10
50.3331719122
 20
22.0119198353
 30
0.0
 11
0.2441762974
 21
2.3066033254
 31
0.0
 40
0.023266293
 41
1.386198609
 42
1.4186755657
  0
ELLIPSE
  5
787
100
AcDbEntity
  8
RACCORDO
100
AcDbEllipse
 62
7
  6
CONTINUOUS
 10
6.5156430567
 20
-21.944610064
 30
0.0
 11
0.2441762974
 21
2.3066033254
 31
0.0
 40
0.023266293
 41
-1.7553940446
 42
-1.7229170879
  0
ELLIPSE
  5
788
100
AcDbEntity
  8
RACCORDO
100
AcDbEllipse
 62
7
  6
CONTINUOUS
 10
6.5156430567
 20
22.0119198353
 30
0.0
 11
-0.2441762974
 21
2.3066033254
 31
0.0
 40
0.023266293
 41
-1.4186755657
 42
-1.386198609
  0
ELLIPSE
  5
789
100
AcDbEntity
  8
RACCORDO
100
AcDbEllipse
 62
7
  6
CONTINUOUS
 10
35.777324861
 20
-23.7634361994
 30
0.0
 11
0.5
 21
-0.0
 31
0.0
 40
0.0058178298
 41
2.495179495
 42
3.1357748894
  0
ELLIPSE
  5
78A
100
AcDbEntity
  8
ASSI
100
AcDbEllipse
 62
7
  6
CONTINUOUS
 10
-4.5350956418
 20
-9.7595184612
 30
0.0
 11
0.2999543919
 21
-0.0090657793
 31
0.0
 40
0.576998777
 41
0.0174373622
 42
1.5795070427
  0
ELLIPSE
  5
78B
100
AcDbEntity
  8
ASSI
100
AcDbEllipse
 62
7
  6
CONTINUOUS
 10
-4.5350956418
 20
-5.9731717675
 30
0.0
 11
0.2999543919
 21
0.0090657793
 31
0.0
 40
0.576998777
 41
-1.5795070427
 42
-0.0174373622
  0
ELLIPSE
  5
78C
100
AcDbEntity
  8
ASSI
100
AcDbEllipse
 62
7
  6
CONTINUOUS
 10
-5.0850956418
 20
-5.8559593417
 30
0.0
 11
0.8498707771
 21
0.0256863746
 31
0.0
 40
0.576998777
 41
-0.0174373622
 42
1.5359056721
  0
ELLIPSE
  5
78D
100
AcDbEntity
  8
ASSI
100
AcDbEllipse
 62
7
  6
CONTINUOUS
 10
-5.0850956418
 20
-9.876730887
 30
0.0
 11
0.8498707771
 21
-0.0256863746
 31
0.0
 40
0.576998777
 41
-1.5359056721
 42
0.0174373622
  0
ELLIPSE
  5
78E
100
AcDbEntity
  8
RACCORDO
100
AcDbEllipse
 62
7
  6
CONTINUOUS
 10
-4.5350956418
 20
-9.7595184612
 30
0.0
 11
0.2999543919
 21
-0.0090657793
 31
0.0
 40
0.576998777
 41
0.0174373622
 42
1.5795070427
  0
ELLIPSE
  5
78F
100
AcDbEntity
  8
RACCORDO
100
AcDbEllipse
 62
7
  6
CONTINUOUS
 10
-4.5350956418
 20
-5.9731717675
 30
0.0
 11
0.2999543919
 21
0.0090657793
 31
0.0
 40
0.576998777
 41
-1.5795070427
 42
-0.0174373622
  0
ELLIPSE
  5
790
100
AcDbEntity
  8
RACCORDO
100
AcDbEllipse
 62
7
  6
CONTINUOUS
 10
-5.0850956418
 20
-9.876730887
 30
0.0
 11
0.8498707771
 21
-0.0256863746
 31
0.0
 40
0.576998777
 41
-1.5359056721
 42
0.0174373622
  0
ELLIPSE
  5
791
100
AcDbEntity
  8
RACCORDO
100
AcDbEllipse
 62
7
  6
CONTINUOUS
 10
-5.0850956418
 20
-5.8559593417
 30
0.0
 11
0.8498707771
 21
0.0256863746
 31
0.0
 40
0.576998777
 41
-0.0174373622
 42
1.5359056721
  0
ELLIPSE
  5
792
100
AcDbEntity
  8
RACCORDO
100
AcDbEllipse
 62
7
  6
CONTINUOUS
 10
-13.7350956418
 20
-22.0322443952
 30
0.0
 11
0.2010518312
 21
0.4577970742
 31
0.0
 40
1.0
 41
-0.5050366164
 42
0.3963599902
  0
ELLIPSE
  5
793
100
AcDbEntity
  8
RACCORDO
100
AcDbEllipse
 62
7
  6
CONTINUOUS
 10
-13.7350956418
 20
22.0995541665
 30
0.0
 11
0.5
 21
-0.0
 31
0.0
 40
1.0
 41
-1.5533430343
 42
-0.6519464277
  0
ELLIPSE
  5
794
100
AcDbEntity
  8
RACCORDO
100
AcDbEllipse
 62
7
  6
CONTINUOUS
 10
-22.7286184783
 20
22.0119198353
 30
0.0
 11
42.9720690762
 21
2.2519182643
 31
0.0
 40
0.0116195205
 41
7.8851195272
 42
7.9175964839
  0
ELLIPSE
  5
795
100
AcDbEntity
  8
RACCORDO
100
AcDbEllipse
 62
7
  6
CONTINUOUS
 10
-22.7286184783
 20
-21.944610064
 30
0.0
 11
42.9720690761
 21
-2.2519182643
 31
0.0
 40
0.0116195205
 41
-1.6344111767
 42
-1.6019342201
  0
ENDSEC
  0
SECTION
  2
OBJECTS
  0
DICTIONARY
  5
C
100
AcDbDictionary
280
0
281
1
  3
ACAD_GROUP
350
D
  3
ACAD_MLINESTYLE
350
17
  3
ACAD_LAYOUT
350
1A
  3
ACAD_PLOTSETTINGS
350
19
  3
ACAD_PLOTSTYLENAME
350
E
  0
DICTIONARY
  5
D
102
{ACAD_REACTORS
330
C
102
}
100
AcDbDictionary
280
0
281
1
  0
ACDBDICTIONARYWDFLT
  5
E
102
{ACAD_REACTORS
330
C
102
}
100
AcDbDictionary
281
1
  3
Normal
350
F
100
AcDbDictionaryWithDefault
340
F
  0
DICTIONARY
  5
17
102
{ACAD_REACTORS
330
C
102
}
100
AcDbDictionary
280
0
281
1
  3
Standard
350
18
  0
DICTIONARY
  5
19
102
{ACAD_REACTORS
330
C
102
}
100
AcDbDictionary
281
1
  0
DICTIONARY
  5
1A
102
{ACAD_REACTORS
330
C
102
}
100
AcDbDictionary
281
1
  3
Model
350
796
  3
Layout1
350
797
  0
ACDBPLACEHOLDER
  5
F
102
{ACAD_REACTORS
330
E
102
}
  0
MLINESTYLE
  5
18
102
{ACAD_REACTORS
330
17
102
}
100
AcDbMlineStyle
  2
STANDARD
 70
0
  3

 62
256
 51
90.0
 52
90.0
 71
2
 49
0.5
 62
256
  6
BYLAYER
 49
-0.5
 62
256
  6
BYLAYER
  0
LAYOUT
  5
796
102
{ACAD_REACTORS
330
1A
102
}
100
AcDbPlotSettings
  1

  2
none_device
  4
ISO_A4_(297.00_x_210.00_MM)
  6

 40
0.0
 41
0.0
 42
0.0
 43
0.0
 44
297.0
 45
210.0
 46
0.0
 47
0.0
 48
0.0
 49
0.0
140
0.0
141
0.0
142
1.0
143
1.0
 70
1024
 72
1
 73
0
 74
0
  7

 75
0
147
1.0
148
0.0
149
0.0
100
AcDbLayout
  1
Model
 70
0
 71
0
 10
0.0
 20
0.0
 11
297.0
 21
210.0
 12
0.0
 22
0.0
 32
0.0
 14
0.0
 24
0.0
 34
0.0
 15
0.0
 25
0.0
 35
0.0
146
0.0
 13
0.0
 23
0.0
 33
0.0
 16
1.0
 26
0.0
 36
0.0
 17
0.0
 27
1.0
 37
0.0
 76
0
330
284
345
0
346
0
  0
LAYOUT
  5
797
102
{ACAD_REACTORS
330
1A
102
}
100
AcDbPlotSettings
  1

  2
none_device
  4
ISO_A4_(297.00_x_210.00_MM)
  6

 40
0.0
 41
0.0
 42
0.0
 43
0.0
 44
297.0
 45
210.0
 46
0.0
 47
0.0
 48
0.0
 49
0.0
140
0.0
141
0.0
142
1.0
143
1.0
 70
0
 72
1
 73
0
 74
0
  7

 75
0
147
1.0
148
0.0
149
0.0
100
AcDbLayout
  1
Layout1
 70
0
 71
1
 10
0.0
 20
0.0
 11
297.0
 21
210.0
 12
0.0
 22
0.0
 32
0.0
 14
0.0
 24
0.0
 34
0.0
 15
0.0
 25
0.0
 35
0.0
146
0.0
 13
0.0
 23
0.0
 33
0.0
 16
1.0
 26
0.0
 36
0.0
 17
0.0
 27
1.0
 37
0.0
 76
0
330
285
345
0
346
0
  0
ENDSEC
  0
EOF
