  0
SECTION
  2
HEADER
  9
$ACADVER
  1
AC1024
  9
$DWGCODEPAGE
  3
ANSI_1252
  9
$EXTMAX
 10
297.0
 20
210.0
 30
0.0
  9
$EXTMIN
 10
0.0
 20
0.0
 30
0.0
  9
$LIMMIN
 10
0.0
 20
0.0
  9
$LIMMAX
 10
297.0
 20
210.0
  9
$VIEWCTR
 10
148.5
 20
105.0
  9
$VIEWSIZE
 40
210.0
  9
$CLAYER
  8
0
  9
$LTSCALE
 40
16.335
  9
$CELTYPE
  6
BYLAYER
  9
$DIMSCALE
 40
1.0
  9
$DIMASZ
 40
3.0
  9
$DIMEXO
 40
0.5
  9
$DIMDLI
 40
11.286
  9
$DIMEXE
 40
1.5
  9
$DIMCEN
 40
2.673
  9
$DIMLFAC
 40
1.0
  9
$DIMBLK
  1
_FILLED
  9
$DIMALT
 70
0
  9
$DIMALTF
 40
0.0393700787
  9
$DIMTXT
 40
3.0
  9
$DIMTOL
 70
1
  9
$DIMLIM
 70
0
  9
$DIMTFAC
 40
1.0
  9
$DIMTP
 40
0.01
  9
$DIMTM
 40
0.01
  9
$DIMGAP
 40
0.625
  9
$DIMDSEP
 70
44
  9
$AUNITS
 70
0
  9
$PDMODE
 70
3
  9
$PDSIZE
 40
3.0
  9
$HANDSEED
  5
7A8
  9
$TILEMODE
 70
1
  9
$MEASUREMENT
 70
1
  9
$INSUNITS
 70
4
  0
ENDSEC
  0
SECTION
  2
CLASSES
  0
CLASS
  1
ACDBDICTIONARYWDFLT
  2
AcDbDictionaryWithDefault
  3
AutoCAD 2000
 90
0
 91
1
280
0
281
0
  0
CLASS
  1
ACDBPLACEHOLDER
  2
AcDbPlaceHolder
  3
AutoCAD 2000
 90
0
 91
1
280
0
281
0
  0
CLASS
  1
LAYOUT
  2
AcDbLayout
  3
AutoCAD 2000
 90
0
 91
0
280
0
281
0
  0
ENDSEC
  0
SECTION
  2
TABLES
  0
TABLE
  2
VPORT
  5
8
100
AcDbSymbolTable
 70
2
  0
VPORT
  5
1F4
100
AcDbSymbolTableRecord
100
AcDbViewportTableRecord
  2
*ACTIVE
 70
0
 10
0.0
 20
0.0
 11
1.0
 21
1.0
 12
148.5
 22
105.0
 13
0.0
 23
0.0
 14
1.0
 24
1.0
 15
0.0
 25
0.0
 16
0.0
 26
0.0
 36
1.0
 17
0.0
 27
0.0
 37
0.0
 40
210.0
 41
1.4142857143
 42
50.0
 43
0.0
 44
0.0
 50
0.0
 51
0.0
 71
0
 72
100
 73
1
 74
1
 75
0
 76
0
 77
0
 78
0
  0
ENDTAB
  0
TABLE
  2
LTYPE
  5
5
100
AcDbSymbolTable
 70
6
  0
LTYPE
  5
14
100
AcDbSymbolTableRecord
100
AcDbLinetypeTableRecord
  2
BYBLOCK
 70
0
  3

 72
65
 73
0
 40
0.0
  0
LTYPE
  5
15
100
AcDbSymbolTableRecord
100
AcDbLinetypeTableRecord
  2
BYLAYER
 70
0
  3

 72
65
 73
0
 40
0.0
  0
LTYPE
  5
16
100
AcDbSymbolTableRecord
100
AcDbLinetypeTableRecord
  2
CONTINUOUS
 70
64
  3
Solid line
 72
65
 73
0
 40
0.0
  0
LTYPE
  5
1F5
100
AcDbSymbolTableRecord
100
AcDbLinetypeTableRecord
  2
CENTER
 70
64
  3
____ _ ____ _ ____ _ ____ _ ____ _ ____ _ ____
 72
65
 73
4
 40
0.6
 49
0.375
 74
0
 49
-0.075
 74
0
 49
0.075
 74
0
 49
-0.075
 74
0
  0
LTYPE
  5
1F6
100
AcDbSymbolTableRecord
100
AcDbLinetypeTableRecord
  2
HIDDEN
 70
64
  3
- - - - - - - - - - - - - - - - - - - -
 72
65
 73
2
 40
0.2
 49
0.1
 74
0
 49
-0.1
 74
0
  0
LTYPE
  5
1F7
100
AcDbSymbolTableRecord
100
AcDbLinetypeTableRecord
  2
PHANTOM
 70
64
  3
_____ _ _ _____ _ _ _____ _ _ _____
 72
65
 73
6
 40
0.8
 49
0.45
 74
0
 49
-0.05
 74
0
 49
0.1
 74
0
 49
-0.05
 74
0
 49
0.1
 74
0
 49
-0.05
 74
0
  0
LTYPE
  5
1F8
100
AcDbSymbolTableRecord
100
AcDbLinetypeTableRecord
  2
DOT
 70
64
  3
. . . . . . . . . . . . . . . . . . . .
 72
65
 73
2
 40
0.2
 49
0.1
 74
0
 49
-0.1
 74
0
  0
LTYPE
  5
1F9
100
AcDbSymbolTableRecord
100
AcDbLinetypeTableRecord
  2
DASHED
 70
64
  3
- - - - - - - - - - - - - - - - - - - -
 72
65
 73
2
 40
0.2
 49
0.1
 74
0
 49
-0.1
 74
0
  0
ENDTAB
  0
TABLE
  2
LAYER
  5
2
100
AcDbSymbolTable
 70
36
  0
LAYER
  5
10
100
AcDbSymbolTableRecord
100
AcDbLayerTableRecord
  2
0
 70
0
 62
7
  6
CONTINUOUS
370
-3
390
F
  0
LAYER
  5
1FA
100
AcDbSymbolTableRecord
100
AcDbLayerTableRecord
  2
DEFAULT_1
 70
0
 62
7
  6
CENTER
370
-3
390
F
  0
LAYER
  5
1FB
100
AcDbSymbolTableRecord
100
AcDbLayerTableRecord
  2
DEFAULT_2
 70
0
 62
7
  6
HIDDEN
370
-3
390
F
  0
LAYER
  5
1FC
100
AcDbSymbolTableRecord
100
AcDbLayerTableRecord
  2
DEFAULT_3
 70
0
 62
7
  6
PHANTOM
370
-3
390
F
  0
LAYER
  5
1FD
100
AcDbSymbolTableRecord
100
AcDbLayerTableRecord
  2
ASSI
 70
0
 62
7
  6
CONTINUOUS
370
-3
390
F
  0
LAYER
  5
1FE
100
AcDbSymbolTableRecord
100
AcDbLayerTableRecord
  2
COLOR5
 70
0
 62
7
  6
CONTINUOUS
370
-3
390
F
  0
LAYER
  5
1FF
100
AcDbSymbolTableRecord
100
AcDbLayerTableRecord
  2
COORDINATE
 70
0
 62
7
  6
CONTINUOUS
370
-3
390
F
  0
LAYER
  5
200
100
AcDbSymbolTableRecord
100
AcDbLayerTableRecord
  2
COORD_ORIGINE
 70
0
 62
7
  6
CONTINUOUS
370
-3
390
F
  0
LAYER
  5
201
100
AcDbSymbolTableRecord
100
AcDbLayerTableRecord
  2
COPY_PABLISH
 70
0
 62
7
  6
CONTINUOUS
370
-3
390
F
  0
LAYER
  5
202
100
AcDbSymbolTableRecord
100
AcDbLayerTableRecord
  2
CURVE
 70
0
 62
7
  6
CONTINUOUS
370
-3
390
F
  0
LAYER
  5
203
100
AcDbSymbolTableRecord
100
AcDbLayerTableRecord
  2
DRAFT
 70
0
 62
7
  6
CONTINUOUS
370
-3
390
F
  0
LAYER
  5
204
100
AcDbSymbolTableRecord
100
AcDbLayerTableRecord
  2
IMPORT_GEOMET
 70
0
 62
7
  6
CONTINUOUS
370
-3
390
F
  0
LAYER
  5
205
100
AcDbSymbolTableRecord
100
AcDbLayerTableRecord
  2
IMPORT_IGES
 70
0
 62
7
  6
CONTINUOUS
370
-3
390
F
  0
LAYER
  5
206
100
AcDbSymbolTableRecord
100
AcDbLayerTableRecord
  2
INTF_1
 70
0
 62
7
  6
CONTINUOUS
370
-3
390
F
  0
LAYER
  5
207
100
AcDbSymbolTableRecord
100
AcDbLayerTableRecord
  2
INTF_2
 70
0
 62
7
  6
CONTINUOUS
370
-3
390
F
  0
LAYER
  5
208
100
AcDbSymbolTableRecord
100
AcDbLayerTableRecord
  2
INTF_7
 70
0
 62
7
  6
CONTINUOUS
370
-3
390
F
  0
LAYER
  5
209
100
AcDbSymbolTableRecord
100
AcDbLayerTableRecord
  2
NOTE
 70
0
 62
7
  6
CONTINUOUS
370
-3
390
F
  0
LAYER
  5
20A
100
AcDbSymbolTableRecord
100
AcDbLayerTableRecord
  2
PIANI
 70
0
 62
7
  6
CONTINUOUS
370
-3
390
F
  0
LAYER
  5
20B
100
AcDbSymbolTableRecord
100
AcDbLayerTableRecord
  2
PIANI_ORIGINE
 70
0
 62
7
  6
CONTINUOUS
370
-3
390
F
  0
LAYER
  5
20C
100
AcDbSymbolTableRecord
100
AcDbLayerTableRecord
  2
PIANI_RIF
 70
0
 62
7
  6
CONTINUOUS
370
-3
390
F
  0
LAYER
  5
20D
100
AcDbSymbolTableRecord
100
AcDbLayerTableRecord
  2
PUNTI
 70
0
 62
7
  6
CONTINUOUS
370
-3
390
F
  0
LAYER
  5
20E
100
AcDbSymbolTableRecord
100
AcDbLayerTableRecord
  2
RACCORDO
 70
0
 62
7
  6
CONTINUOUS
370
-3
390
F
  0
LAYER
  5
20F
100
AcDbSymbolTableRecord
100
AcDbLayerTableRecord
  2
RGB__255__255__255__
 70
0
 62
7
  6
CONTINUOUS
370
-3
390
F
  0
LAYER
  5
210
100
AcDbSymbolTableRecord
100
AcDbLayerTableRecord
  2
RGB____0____0____0__
 70
0
 62
7
  6
CONTINUOUS
370
-3
390
F
  0
LAYER
  5
211
100
AcDbSymbolTableRecord
100
AcDbLayerTableRecord
  2
SKEL_ASSIEMI
 70
0
 62
7
  6
CONTINUOUS
370
-3
390
F
  0
LAYER
  5
212
100
AcDbSymbolTableRecord
100
AcDbLayerTableRecord
  2
SMUSSO
 70
0
 62
7
  6
CONTINUOUS
370
-3
390
F
  0
LAYER
  5
213
100
AcDbSymbolTableRecord
100
AcDbLayerTableRecord
  2
SNAPLINE
 70
0
 62
7
  6
CONTINUOUS
370
-3
390
F
  0
LAYER
  5
214
100
AcDbSymbolTableRecord
100
AcDbLayerTableRecord
  2
SOLIDO
 70
0
 62
7
  6
CONTINUOUS
370
-3
390
F
  0
LAYER
  5
215
100
AcDbSymbolTableRecord
100
AcDbLayerTableRecord
  2
SUPERFICI
 70
0
 62
7
  6
CONTINUOUS
370
-3
390
F
  0
LAYER
  5
216
100
AcDbSymbolTableRecord
100
AcDbLayerTableRecord
  2
TRASH
 70
0
 62
7
  6
CONTINUOUS
370
-3
390
F
  0
LAYER
  5
217
100
AcDbSymbolTableRecord
100
AcDbLayerTableRecord
  2
XSEC_DATUMS
 70
0
 62
7
  6
CONTINUOUS
370
-3
390
F
  0
ENDTAB
  0
TABLE
  2
STYLE
  5
3
100
AcDbSymbolTable
 70
1
  0
STYLE
  5
11
100
AcDbSymbolTableRecord
100
AcDbTextStyleTableRecord
  2
STANDARD
 70
0
 40
0.0
 41
0.8
 50
0.0
 71
0
 42
0.2
  3
txt
  4

  0
STYLE
  5
218
100
AcDbSymbolTableRecord
100
AcDbTextStyleTableRecord
  2
TEXTSTYLE_1
 70
0
 40
0.0
 41
0.8
 50
0.0
 71
0
 42
0.2
  3
gdt
  4

  0
ENDTAB
  0
TABLE
  2
VIEW
  5
6
100
AcDbSymbolTable
 70
0
  0
ENDTAB
  0
TABLE
  2
UCS
  5
7
100
AcDbSymbolTable
 70
0
  0
ENDTAB
  0
TABLE
  2
APPID
  5
9
100
AcDbSymbolTable
 70
1
  0
APPID
  5
219
100
AcDbSymbolTableRecord
100
AcDbRegAppTableRecord
  2
ACAD
 70
0
  0
ENDTAB
  0
TABLE
  2
BLOCK_RECORD
  5
1
100
AcDbSymbolTable
 70
0
  0
BLOCK_RECORD
  5
21A
100
AcDbSymbolTableRecord
100
AcDbBlockTableRecord
  2
*Model_Space
  0
BLOCK_RECORD
  5
21B
100
AcDbSymbolTableRecord
100
AcDbBlockTableRecord
  2
*Paper_Space
  0
BLOCK_RECORD
  5
21C
100
AcDbSymbolTableRecord
100
AcDbBlockTableRecord
  2
_FILLED
  0
BLOCK_RECORD
  5
21D
100
AcDbSymbolTableRecord
100
AcDbBlockTableRecord
  2
*D0
  0
BLOCK_RECORD
  5
21E
100
AcDbSymbolTableRecord
100
AcDbBlockTableRecord
  2
*D1
  0
BLOCK_RECORD
  5
21F
100
AcDbSymbolTableRecord
100
AcDbBlockTableRecord
  2
*D2
  0
ENDTAB
  0
TABLE
  2
DIMSTYLE
  5
A
100
AcDbSymbolTable
 70
1
100
AcDbDimStyleTable
 71
0
  0
DIMSTYLE
105
220
100
AcDbSymbolTableRecord
100
AcDbDimStyleTableRecord
  2
STANDARD
 70
0
  3

  4

 40
1.0
 41
3.0
 42
0.5
 43
0.38
 44
1.5
 45
0.0
 46
0.0
 47
0.01
 48
0.01
140
3.0
141
0.09
142
0.0
143
25.4
144
1.0
145
0.0
146
1.0
147
0.625
 71
1
 72
0
 73
0
 74
0
 75
0
 76
0
 77
1
 78
8
 79
2
170
0
171
1
172
0
173
0
174
0
175
0
176
0
177
0
178
0
270
2
179
2
271
2
272
2
273
2
274
2
275
0
280
0
281
0
282
0
283
1
284
8
285
0
286
0
287
3
288
0
340
11
278
44
341
21C
342
21C
343
21C
344
21C
  0
DIMSTYLE
105
221
100
AcDbSymbolTableRecord
100
AcDbDimStyleTableRecord
  2
DIMSTYLE_1
 70
0
  3

  4

 40
1.0
 41
3.0
 42
0.5
 43
0.38
 44
1.5
 45
0.0
 46
0.0
 47
0.0
 48
0.0
140
3.0
141
0.09
142
0.0
143
25.4
144
1.0
145
0.0
146
1.0
147
0.75
 71
0
 72
0
 73
0
 74
0
 75
0
 76
0
 77
1
 78
8
 79
2
170
0
171
1
172
0
173
0
174
0
175
0
176
0
177
0
178
0
270
2
179
2
271
2
272
2
273
2
274
2
275
0
280
0
281
0
282
0
283
1
284
8
285
0
286
0
287
3
288
0
340
11
278
44
341
21C
342
21C
343
21C
344
21C
  0
DIMSTYLE
105
222
100
AcDbSymbolTableRecord
100
AcDbDimStyleTableRecord
  2
DIMSTYLE_2
 70
0
  3

  4

 40
1.0
 41
3.0
 42
0.5
 43
0.38
 44
1.5
 45
0.0
 46
0.0
 47
0.0
 48
0.0
140
3.0
141
0.09
142
0.0
143
25.4
144
1.0
145
0.0
146
1.0
147
0.75
 71
0
 72
0
 73
0
 74
0
 75
0
 76
0
 77
1
 78
8
 79
2
170
0
171
1
172
0
173
0
174
0
175
0
176
0
177
0
178
0
270
2
179
2
271
0
272
0
273
2
274
2
275
0
280
0
281
0
282
0
283
1
284
8
285
0
286
0
287
3
288
0
340
11
278
44
341
21C
342
21C
343
21C
344
21C
  0
ENDTAB
  0
ENDSEC
  0
SECTION
  2
BLOCKS
  0
BLOCK
  5
20
100
AcDbEntity
  8
0
100
AcDbBlockBegin
  2
*Model_Space
 70
0
 10
0.0
 20
0.0
 30
0.0
  3
*Model_Space
  1

  0
ENDBLK
  5
21
100
AcDbEntity
  8
0
100
AcDbBlockEnd
  0
BLOCK
  5
1C
100
AcDbEntity
  8
0
100
AcDbBlockBegin
  2
*Paper_Space
 70
0
 10
0.0
 20
0.0
 30
0.0
  3
*Paper_Space
  1

  0
ENDBLK
  5
1D
100
AcDbEntity
  8
0
100
AcDbBlockEnd
  0
BLOCK
  5
223
100
AcDbEntity
  8
0
100
AcDbBlockBegin
  2
_FILLED
 70
64
 10
0.0
 20
0.0
  3
_FILLED
  1

  0
SOLID
  5
224
100
AcDbEntity
  8
0
  6
BYBLOCK
 62
0
100
AcDbTrace
 10
0.0
 20
0.0
 11
-1.0
 21
0.3166666667
 12
-1.0
 22
-0.3166666667
 13
-1.0
 23
-0.3166666667
  0
ENDBLK
  5
225
100
AcDbEntity
  8
0
  6
BYBLOCK
 62
0
100
AcDbBlockEnd
  0
BLOCK
  5
226
100
AcDbEntity
  8
0
100
AcDbBlockBegin
 62
7
  6
CONTINUOUS
  2
*D0
 70
65
 10
0.0
 20
0.0
  3
*D0
  1

  0
LINE
  5
227
100
AcDbEntity
  8
0
100
AcDbLine
 62
7
  6
CONTINUOUS
 10
-51.0
 20
31.8340562657
 11
-51.0
 21
56.6659437343
  0
LINE
  5
228
100
AcDbEntity
  8
0
100
AcDbLine
 62
7
  6
CONTINUOUS
 10
51.0
 20
31.8340562657
 11
51.0
 21
56.6659437343
  0
LINE
  5
229
100
AcDbEntity
  8
0
100
AcDbLine
 62
7
  6
CONTINUOUS
 10
-51.0
 20
55.1659437343
 11
0.0
 21
55.1659437343
  0
LINE
  5
22A
100
AcDbEntity
  8
0
100
AcDbLine
 62
7
  6
CONTINUOUS
 10
51.0
 20
55.1659437343
 11
0.0
 21
55.1659437343
  0
INSERT
  5
22B
100
AcDbEntity
  8
0
100
AcDbBlockReference
 62
7
  6
CONTINUOUS
  2
_FILLED
 10
-51.0
 20
55.1659437343
 41
3.0
 42
3.0
 43
3.0
 50
180.0
  0
INSERT
  5
22C
100
AcDbEntity
  8
0
100
AcDbBlockReference
 62
7
  6
CONTINUOUS
  2
_FILLED
 10
51.0
 20
55.1659437343
 41
3.0
 42
3.0
 43
3.0
  0
ENDBLK
  5
22D
100
AcDbEntity
  8
0
  6
BYBLOCK
 62
0
100
AcDbBlockEnd
  0
BLOCK
  5
22E
100
AcDbEntity
  8
0
100
AcDbBlockBegin
 62
7
  6
CONTINUOUS
  2
*D1
 70
65
 10
0.0
 20
0.0
  3
*D1
  1

  0
LINE
  5
22F
100
AcDbEntity
  8
0
100
AcDbLine
 62
7
  6
CONTINUOUS
 10
-65.5892094268
 20
31.834054627
 11
-65.5892094268
 21
56.6659437343
  0
LINE
  5
230
100
AcDbEntity
  8
0
100
AcDbLine
 62
7
  6
CONTINUOUS
 10
-131.6892150293
 20
-43.7206793504
 11
-131.6892150293
 21
56.6659437343
  0
LINE
  5
231
100
AcDbEntity
  8
0
100
AcDbLine
 62
7
  6
CONTINUOUS
 10
-65.5892094268
 20
55.1659437343
 11
-98.6392122281
 21
55.1659437343
  0
LINE
  5
232
100
AcDbEntity
  8
0
100
AcDbLine
 62
7
  6
CONTINUOUS
 10
-131.6892150293
 20
55.1659437343
 11
-98.6392122281
 21
55.1659437343
  0
INSERT
  5
233
100
AcDbEntity
  8
0
100
AcDbBlockReference
 62
7
  6
CONTINUOUS
  2
_FILLED
 10
-65.5892094268
 20
55.1659437343
 41
3.0
 42
3.0
 43
3.0
 50
0.0
  0
INSERT
  5
234
100
AcDbEntity
  8
0
100
AcDbBlockReference
 62
7
  6
CONTINUOUS
  2
_FILLED
 10
-131.6892150293
 20
55.1659437343
 41
3.0
 42
3.0
 43
3.0
 50
180.0
  0
ENDBLK
  5
235
100
AcDbEntity
  8
0
  6
BYBLOCK
 62
0
100
AcDbBlockEnd
  0
BLOCK
  5
236
100
AcDbEntity
  8
0
100
AcDbBlockBegin
 62
7
  6
CONTINUOUS
  2
*D2
 70
65
 10
0.0
 20
0.0
  3
*D2
  1

  0
LINE
  5
237
100
AcDbEntity
  8
0
100
AcDbLine
 62
7
  6
CONTINUOUS
 10
-105.6892094268
 20
37.3340562657
 11
-141.1761328223
 21
37.3340562657
  0
LINE
  5
238
100
AcDbEntity
  8
0
100
AcDbLine
 62
7
  6
CONTINUOUS
 10
-105.6892094268
 20
-45.6659437343
 11
-141.1761328223
 21
-45.6659437343
  0
LINE
  5
239
100
AcDbEntity
  8
0
100
AcDbLine
 62
7
  6
CONTINUOUS
 10
-139.6761328223
 20
37.3340562657
 11
-139.6761328223
 21
-4.1659437343
  0
LINE
  5
23A
100
AcDbEntity
  8
0
100
AcDbLine
 62
7
  6
CONTINUOUS
 10
-139.6761328223
 20
-45.6659437343
 11
-139.6761328223
 21
-4.1659437343
  0
INSERT
  5
23B
100
AcDbEntity
  8
0
100
AcDbBlockReference
 62
7
  6
CONTINUOUS
  2
_FILLED
 10
-139.6761328223
 20
37.3340562657
 41
3.0
 42
3.0
 43
3.0
 50
90.0
  0
INSERT
  5
23C
100
AcDbEntity
  8
0
100
AcDbBlockReference
 62
7
  6
CONTINUOUS
  2
_FILLED
 10
-139.6761328223
 20
-45.6659437343
 41
3.0
 42
3.0
 43
3.0
 50
270.0
  0
ENDBLK
  5
23D
100
AcDbEntity
  8
0
  6
BYBLOCK
 62
0
100
AcDbBlockEnd
  0
ENDSEC
  0
SECTION
  2
ENTITIES
  0
DIMENSION
  5
23E
100
AcDbEntity
  8
0
100
AcDbDimension
 62
7
  6
CONTINUOUS
  2
*D0
 10
51.0
 20
55.1659437343
 11
-3.2142857143
 21
55.1659437343
 70
160
 71
2
 72
2
 41
0.9
 42
102.0
  3
DIMSTYLE_1
100
AcDbAlignedDimension
 13
-51.0
 23
31.3340562657
 14
51.0
 24
31.3340562657
100
AcDbRotatedDimension
  0
DIMENSION
  5
23F
100
AcDbEntity
  8
0
100
AcDbDimension
 62
7
  6
CONTINUOUS
  2
*D1
 10
-131.6892150293
 20
55.1659437343
 11
-100.9963550852
 21
55.1659437343
 70
160
 71
2
 72
2
 41
0.9
 42
66.1000056025
  3
DIMSTYLE_2
100
AcDbAlignedDimension
 13
-65.5892094268
 23
31.334054627
 14
-131.6892150293
 24
-44.2206793504
 50
180.0
100
AcDbRotatedDimension
  0
DIMENSION
  5
240
100
AcDbEntity
  8
0
100
AcDbDimension
 62
7
  6
CONTINUOUS
  2
*D2
 10
-139.6761328223
 20
-45.6659437343
 11
-139.6761328223
 21
-6.4159437343
 70
160
 71
2
 72
2
 41
0.9
 42
83.0
  3
DIMSTYLE_1
100
AcDbAlignedDimension
 13
-105.1892094268
 23
37.3340562657
 14
-105.1892094268
 24
-45.6659437343
 50
270.0
100
AcDbRotatedDimension
  0
LINE
  5
241
100
AcDbEntity
  8
0
100
AcDbLine
 62
7
  6
CONTINUOUS
 10
-44.6030083811
 20
32.8323545186
 11
-44.4229091594
 21
33.1442955211
  0
LWPOLYLINE
  5
242
100
AcDbEntity
  8
0
100
AcDbPolyline
 62
250
  6
CONTINUOUS
 90
19
 70
0
 10
-49.2471258798
 20
-39.6656624288
 10
-49.2204078343
 20
-39.9889501523
 10
-49.1672683594
 20
-40.3326857473
 10
-49.0838754247
 20
-40.6897336697
 10
-48.9563759905
 20
-41.0612783622
 10
-48.7864160302
 20
-41.4278744342
 10
-48.5978641653
 20
-41.761430295
 10
-48.3993959456
 20
-42.0566863148
 10
-48.181460233
 20
-42.3251137101
 10
-47.9466774458
 20
-42.5740716485
 10
-47.6976214088
 20
-42.8088960137
 10
-47.42915597
 20
-43.0275558168
 10
-47.131633064
 20
-43.2256353888
 10
-46.7915731574
 20
-43.411355244
 10
-46.4162415652
 20
-43.5773516485
 10
-46.0370037857
 20
-43.7011854726
 10
-45.6744063948
 20
-43.7812869839
 10
-45.3263013192
 20
-43.8307172124
 10
-45.0000098814
 20
-43.8531294977
  0
LWPOLYLINE
  5
243
100
AcDbEntity
  8
0
100
AcDbPolyline
 62
250
  6
CONTINUOUS
 90
9
 70
0
 10
-49.2471258798
 20
-39.6656624288
 10
-49.2779526577
 20
-38.843773703
 10
-49.3006800456
 20
-37.9920802509
 10
-49.3160595318
 20
-37.1119706233
 10
-49.3251508763
 20
-36.2062454849
 10
-49.329368136
 20
-35.273560384
 10
-49.3303852341
 20
-34.3089077324
 10
-49.3300285737
 20
-33.3146120151
 10
-49.3309081995
 20
-32.2912327593
  0
LINE
  5
244
100
AcDbEntity
  8
COPY_PABLISH
100
AcDbLine
 62
250
  6
CONTINUOUS
 10
-50.6602573441
 20
31.3340562657
 11
-50.6585802084
 21
27.9197181067
  0
LINE
  5
245
100
AcDbEntity
  8
0
100
AcDbLine
 62
7
  6
CONTINUOUS
 10
-51.0
 20
31.3340562657
 11
-51.0
 21
-39.6659437343
  0
LINE
  5
246
100
AcDbEntity
  8
COPY_PABLISH
100
AcDbLine
 62
7
  6
CONTINUOUS
 10
-51.0
 20
-39.6659437343
 11
-51.0
 21
31.3340562657
  0
LINE
  5
247
100
AcDbEntity
  8
RACCORDO
100
AcDbLine
 62
250
  6
CONTINUOUS
 10
-50.8165695018
 20
-39.6659437343
 11
-50.8165695018
 21
20.8523046218
  0
LINE
  5
248
100
AcDbEntity
  8
DRAFT
100
AcDbLine
 62
7
  6
CONTINUOUS
 10
-50.80450281
 20
20.94508352
 11
-50.804503108
 21
-39.6659333268
  0
LINE
  5
249
100
AcDbEntity
  8
0
100
AcDbLine
 62
7
  6
CONTINUOUS
 10
-50.6590163717
 20
-4.1659437254
 11
-50.6583711725
 21
22.3085126425
  0
LINE
  5
24A
100
AcDbEntity
  8
COPY_PABLISH
100
AcDbLine
 62
250
  6
CONTINUOUS
 10
-50.6585802084
 20
27.9197181067
 11
-50.658322097
 21
26.0517615609
  0
LINE
  5
24B
100
AcDbEntity
  8
DRAFT
100
AcDbLine
 62
250
  6
CONTINUOUS
 10
-50.6583711725
 20
22.3085126425
 11
-50.6590163704
 21
25.7572169533
  0
LINE
  5
24C
100
AcDbEntity
  8
0
100
AcDbLine
 62
250
  6
CONTINUOUS
 10
-50.6591537835
 20
-39.6659422878
 11
-50.6590163717
 21
-4.1659437254
  0
LINE
  5
24D
100
AcDbEntity
  8
DRAFT
100
AcDbLine
 62
7
  6
CONTINUOUS
 10
-50.80450281
 20
20.94508352
 11
-50.6590163704
 21
25.7572169533
  0
LINE
  5
24E
100
AcDbEntity
  8
RACCORDO
100
AcDbLine
 62
7
  6
CONTINUOUS
 10
-50.8165695018
 20
20.8523046218
 11
-50.6583336965
 21
26.0513804441
  0
LINE
  5
24F
100
AcDbEntity
  8
0
100
AcDbLine
 62
7
  6
CONTINUOUS
 10
-43.7208322382
 20
32.7389512217
 11
-43.90093146
 21
32.4270102192
  0
LINE
  5
250
100
AcDbEntity
  8
0
100
AcDbLine
 62
250
  6
CONTINUOUS
 10
-49.3506860228
 20
-16.9543893325
 11
-49.3489785529
 21
-20.0157730456
  0
LWPOLYLINE
  5
251
100
AcDbEntity
  8
0
100
AcDbPolyline
 62
250
  6
CONTINUOUS
 90
3
 70
0
 10
-49.3591737593
 20
-4.1659437396
 10
-49.3589714036
 20
-7.2671649844
 10
-49.3506860228
 20
-16.9543893325
  0
LINE
  5
252
100
AcDbEntity
  8
COPY_PABLISH
100
AcDbLine
 62
7
  6
CONTINUOUS
 10
-49.2
 20
26.8340562657
 11
-49.2
 21
27.1340562657
  0
LWPOLYLINE
  5
253
100
AcDbEntity
  8
0
100
AcDbPolyline
 62
250
  6
CONTINUOUS
 90
4
 70
0
 10
-49.3489785529
 20
-20.0157730456
 10
-49.3494908409
 20
-25.9322062948
 10
-49.3473518613
 20
-28.6867905808
 10
-49.3309081995
 20
-32.2912327593
  0
LINE
  5
254
100
AcDbEntity
  8
0
100
AcDbLine
 62
250
  6
CONTINUOUS
 10
-49.359193887
 20
-4.1659437779
 11
-49.3515418317
 21
13.2831282184
  0
LINE
  5
255
100
AcDbEntity
  8
0
100
AcDbLine
 62
250
  6
CONTINUOUS
 10
-49.3384016999
 20
22.3085034451
 11
-49.3511826616
 21
13.2831291004
  0
LINE
  5
256
100
AcDbEntity
  8
DRAFT
100
AcDbLine
 62
250
  6
CONTINUOUS
 10
-49.3384016999
 20
22.3085034451
 11
-49.335637572
 21
23.3252189326
  0
LINE
  5
257
100
AcDbEntity
  8
DRAFT
100
AcDbLine
 62
250
  6
CONTINUOUS
 10
-49.335637572
 20
23.3252189326
 11
-49.3290509513
 21
24.8932961861
  0
LWPOLYLINE
  5
258
100
AcDbEntity
  8
DRAFT
100
AcDbPolyline
 62
250
  6
CONTINUOUS
 90
3
 70
0
 10
-49.3290509513
 20
24.8932961861
 10
-49.3199499989
 20
26.3779191424
 10
-49.3168031187
 20
26.8340562613
  0
LWPOLYLINE
  5
259
100
AcDbEntity
  8
COPY_PABLISH
100
AcDbPolyline
 62
250
  6
CONTINUOUS
 90
3
 70
0
 10
-49.2939228911
 20
29.1020822777
 10
-49.3003160564
 20
28.6145300974
 10
-49.3144811942
 20
27.1114913553
  0
LWPOLYLINE
  5
25A
100
AcDbEntity
  8
COPY_PABLISH
100
AcDbPolyline
 62
250
  6
CONTINUOUS
 90
5
 70
0
 10
-49.2433038637
 20
31.4329657297
 10
-49.2575079127
 20
30.9820378174
 10
-49.2685613785
 20
30.5226545279
 10
-49.2775063146
 20
30.0554699253
 10
-49.2939228911
 20
29.1020822777
  0
LWPOLYLINE
  5
25B
100
AcDbEntity
  8
DRAFT
100
AcDbPolyline
 62
7
  6
CONTINUOUS
 90
40
 70
0
 10
-48.47755303
 20
31.3340562657
 10
-48.4671598511
 20
31.5994780077
 10
-48.4353469298
 20
31.8712926192
 10
-48.3804246567
 20
32.1476040775
 10
-48.3003442866
 20
32.4277380451
 10
-48.1939572687
 20
32.7076081062
 10
-48.0623417471
 20
32.9801963155
 10
-47.9059100966
 20
33.2427713508
 10
-47.7249889834
 20
33.4931869761
 10
-47.5228390956
 20
33.7262473432
 10
-47.3016658666
 20
33.9397069013
 10
-47.0628401005
 20
34.1325449135
 10
-46.8096412977
 20
34.3025417558
 10
-46.5433497051
 20
34.44929341
 10
-46.2671098495
 20
34.5715057548
 10
-45.9877889924
 20
34.6674071025
 10
-45.7082012311
 20
34.7378861151
 10
-45.4304311352
 20
34.7841693039
 10
-45.1605591842
 20
34.8073912437
 10
-44.9033466966
 20
34.8099936224
 10
-44.6573230025
 20
34.7946981267
 10
-44.4188919647
 20
34.7630631532
 10
-44.1898745217
 20
34.7166692822
 10
-43.9701859677
 20
34.6568223734
 10
-43.7535568495
 20
34.5822797954
 10
-43.5407113214
 20
34.4929624032
 10
-43.3329944649
 20
34.389102376
 10
-43.126038962
 20
34.2674772634
 10
-42.9207979969
 20
34.1266495447
 10
-42.7201729351
 20
33.9664484381
 10
-42.5240091302
 20
33.784060068
 10
-42.3332548447
 20
33.5763961483
 10
-42.1534126958
 20
33.3449355527
 10
-41.9908812685
 20
33.09450699
 10
-41.8480710241
 20
32.8263205519
 10
-41.7272287364
 20
32.5416219534
 10
-41.6320591489
 20
32.2471751467
 10
-41.5636728563
 20
31.9470258316
 10
-41.5220086592
 20
31.6418604079
 10
-41.5074242737
 20
31.3340562657
  0
LWPOLYLINE
  5
25C
100
AcDbEntity
  8
RACCORDO
100
AcDbPolyline
 62
250
  6
CONTINUOUS
 90
3
 70
0
 10
25.95
 20
-45.2659437343
 10
26.0086739959
 20
-45.2618351558
 10
26.0310436983
 20
-45.2571012144
  0
LWPOLYLINE
  5
25D
100
AcDbEntity
  8
0
100
AcDbPolyline
 62
250
  6
CONTINUOUS
 90
19
 70
0
 10
45.0000098814
 20
-43.8531294977
 10
45.326560893
 20
-43.8312556618
 10
45.6724612165
 20
-43.7822241424
 10
46.0307561547
 20
-43.7025560289
 10
46.4023431007
 20
-43.579229627
 10
46.7690501377
 20
-43.414492057
 10
47.1043460941
 20
-43.2314034912
 10
47.4023760885
 20
-43.0373163473
 10
47.6740412962
 20
-42.8233273287
 10
47.9270460589
 20
-42.5929273438
 10
48.1663202248
 20
-42.3482555194
 10
48.3891491558
 20
-42.0835307264
 10
48.5912925763
 20
-41.789851952
 10
48.7810802908
 20
-41.4545163075
 10
48.9508355961
 20
-41.0837239144
 10
49.0785402145
 20
-40.7073272845
 10
49.1632241979
 20
-40.3452732304
 10
49.2181446315
 20
-39.9956402515
 10
49.2471778328
 20
-39.6655225238
  0
LWPOLYLINE
  5
25E
100
AcDbEntity
  8
0
100
AcDbPolyline
 62
250
  6
CONTINUOUS
 90
55
 70
0
 10
-45.0
 20
-45.3261011784
 10
-45.1646346972
 20
-45.323921885
 10
-45.3291455308
 20
-45.316900637
 10
-45.4933885613
 20
-45.30504278
 10
-45.6572169098
 20
-45.2883402728
 10
-45.820489302
 20
-45.2668250043
 10
-45.9830753372
 20
-45.240567792
 10
-46.1448410807
 20
-45.2096076392
 10
-46.305646646
 20
-45.1739522245
 10
-46.4653582659
 20
-45.1336302614
 10
-46.623870776
 20
-45.0886658033
 10
-46.7810187848
 20
-45.0391032483
 10
-46.9365820482
 20
-44.9850151946
 10
-47.0903749899
 20
-44.9264763876
 10
-47.2423275303
 20
-44.863523827
 10
-47.3923947734
 20
-44.7961795001
 10
-47.540472895
 20
-44.7244879357
 10
-47.6864126549
 20
-44.6485192964
 10
-47.830100111
 20
-44.5683314968
 10
-47.971415603
 20
-44.4839891851
 10
-48.1102361149
 20
-44.3955636145
 10
-48.2464450251
 20
-44.3031269163
 10
-48.379966391
 20
-44.2067712623
 10
-48.5106467449
 20
-44.1065586882
 10
-48.638252393
 20
-44.0025315107
 10
-48.7625564901
 20
-43.8947457238
 10
-48.8835611589
 20
-43.7833497416
 10
-49.0013840676
 20
-43.6685208269
 10
-49.1160431822
 20
-43.550375673
 10
-49.2273311344
 20
-43.4289685402
 10
-49.3350365904
 20
-43.3043782283
 10
-49.4390287057
 20
-43.1767070373
 10
-49.5392595006
 20
-43.0460690827
 10
-49.6356449398
 20
-42.9125750573
 10
-49.7281013695
 20
-42.7763418835
 10
-49.8165535621
 20
-42.6374814919
 10
-49.90093411
 20
-42.4960998422
 10
-49.9811725801
 20
-42.35231315
 10
-50.0571986087
 20
-42.2062455931
 10
-50.1289488598
 20
-42.05801735
 10
-50.1963734589
 20
-41.9077259856
 10
-50.2594009314
 20
-41.7555249653
 10
-50.3179476944
 20
-41.6016236696
 10
-50.3719502495
 20
-41.4462148549
 10
-50.4213924811
 20
-41.2893728477
 10
-50.4662660276
 20
-41.1311310293
 10
-50.5065385218
 20
-40.9715879983
 10
-50.5421632326
 20
-40.8109115414
 10
-50.5731074393
 20
-40.649237862
 10
-50.5993424042
 20
-40.4867031343
 10
-50.6208433478
 20
-40.3234443411
 10
-50.6375895885
 20
-40.1596001723
 10
-50.649564462
 20
-39.9953092971
 10
-50.6567552481
 20
-39.8307102553
 10
-50.6591532957
 20
-39.6659422878
  0
LWPOLYLINE
  5
25F
100
AcDbEntity
  8
RACCORDO
100
AcDbPolyline
 62
250
  6
CONTINUOUS
 90
3
 70
0
 10
-25.95
 20
-45.2659437343
 10
-26.00809123
 20
-45.2619165847
 10
-26.03104936
 20
-45.257102423
  0
LWPOLYLINE
  5
260
100
AcDbEntity
  8
0
100
AcDbPolyline
 62
250
  6
CONTINUOUS
 90
6
 70
0
 10
-29.85084721
 20
-43.9234438754
 10
-29.8733771357
 20
-43.9216187427
 10
-29.8966477678
 20
-43.9219344596
 10
-29.9206502814
 20
-43.924393598
 10
-29.9454344682
 20
-43.9296379076
 10
-29.9969531956
 20
-43.9446539644
  0
LWPOLYLINE
  5
261
100
AcDbEntity
  8
0
100
AcDbPolyline
 62
7
  6
CONTINUOUS
 90
10
 70
0
 10
-28.5938116831
 20
-45.2388988651
 10
-28.5114195956
 20
-45.2468143331
 10
-28.4243217964
 20
-45.2537633754
 10
-28.3314963936
 20
-45.2598268612
 10
-28.2333627744
 20
-45.2649166787
 10
-28.1318586962
 20
-45.2688832961
 10
-28.0273483183
 20
-45.271816568
 10
-27.9190887388
 20
-45.2738373279
 10
-27.8074555066
 20
-45.275007933
 10
-27.5741579272
 20
-45.2758024504
  0
LWPOLYLINE
  5
262
100
AcDbEntity
  8
0
100
AcDbPolyline
 62
250
  6
CONTINUOUS
 90
16
 70
0
 10
-29.6627233659
 20
-43.8261216039
 10
-29.673942309
 20
-43.8250366823
 10
-29.6852876769
 20
-43.8264028571
 10
-29.696727446
 20
-43.830210923
 10
-29.7081876826
 20
-43.8369762372
 10
-29.7196781626
 20
-43.8461609399
 10
-29.731309958
 20
-43.8561833528
 10
-29.7430235986
 20
-43.8670168589
 10
-29.7548521326
 20
-43.8786812788
 10
-29.7670847605
 20
-43.88968299
 10
-29.7798172292
 20
-43.9001221177
 10
-29.7929778819
 20
-43.9099126143
 10
-29.8066367984
 20
-43.9173006436
 10
-29.8208332487
 20
-43.9217152265
 10
-29.8355649926
 20
-43.9237585018
 10
-29.85084721
 20
-43.9234438754
  0
LINE
  5
263
100
AcDbEntity
  8
0
100
AcDbLine
 62
7
  6
CONTINUOUS
 10
-28.6717744929
 20
-45.2300366873
 11
-28.5938116831
 21
-45.2388988651
  0
LWPOLYLINE
  5
264
100
AcDbEntity
  8
0
100
AcDbPolyline
 62
250
  6
CONTINUOUS
 90
5
 70
0
 10
-30.1614572664
 20
-43.9739152987
 10
-30.1903485799
 20
-43.9700627257
 10
-30.2196288123
 20
-43.9668379859
 10
-30.2492783413
 20
-43.9642477176
 10
-30.2791315297
 20
-43.9625592504
  0
LINE
  5
265
100
AcDbEntity
  8
RACCORDO
100
AcDbLine
 62
250
  6
CONTINUOUS
 10
-45.0
 20
-45.4704458503
 11
-45.0
 21
-45.6659437343
  0
LINE
  5
266
100
AcDbEntity
  8
0
100
AcDbLine
 62
250
  6
CONTINUOUS
 10
-45.000004911
 20
-43.8531005569
 11
-45.0
 21
-45.4704468423
  0
LINE
  5
267
100
AcDbEntity
  8
COPY_PABLISH
100
AcDbLine
 62
250
  6
CONTINUOUS
 10
-45.0
 20
36.9943390766
 11
-45.0
 21
37.3340562657
  0
LWPOLYLINE
  5
268
100
AcDbEntity
  8
COPY_PABLISH
100
AcDbPolyline
 62
250
  6
CONTINUOUS
 90
13
 70
0
 10
-45.0936659543
 20
35.5188554513
 10
-45.0902122461
 20
35.7226253964
 10
-45.0857200202
 20
35.9180144629
 10
-45.080240991
 20
36.1027732988
 10
-45.0738382332
 20
36.2747749287
 10
-45.066585456
 20
36.4320392406
 10
-45.0585661545
 20
36.5727557808
 10
-45.049872648
 20
36.6953045965
 10
-45.0406050174
 20
36.798274885
 10
-45.0308699534
 20
36.8804812345
 10
-45.0207795276
 20
36.9409772717
 10
-45.0104499027
 20
36.9790665559
 10
-44.9999999952
 20
36.9943105966
  0
LWPOLYLINE
  5
269
100
AcDbEntity
  8
DRAFT
100
AcDbPolyline
 62
7
  6
CONTINUOUS
 90
46
 70
0
 10
-41.5074242737
 20
31.3340562657
 10
-41.5187952006
 20
31.0419529946
 10
-41.5527514677
 20
30.7630860068
 10
-41.6063384497
 20
30.4989508875
 10
-41.6764917104
 20
30.2510977069
 10
-41.7604695939
 20
30.0197094845
 10
-41.8562241679
 20
29.8037647564
 10
-41.9611147243
 20
29.6040734348
 10
-42.0732629297
 20
29.4199205424
 10
-42.1928347363
 20
29.2481078092
 10
-42.3182737152
 20
29.0888424727
 10
-42.4484582694
 20
28.9417415358
 10
-42.5854728863
 20
28.803412857
 10
-42.7285587474
 20
28.6741859047
 10
-42.8771932423
 20
28.5541329318
 10
-43.0349169666
 20
28.44056381
 10
-43.2018157006
 20
28.3341198019
 10
-43.377407932
 20
28.2358055802
 10
-43.5651493314
 20
28.1447654199
 10
-43.7652361687
 20
28.062406967
 10
-43.9771304435
 20
27.9904712608
 10
-44.2034946446
 20
27.9299005122
 10
-44.4450395063
 20
27.8828331797
 10
-44.6998097234
 20
27.8520431365
 10
-44.9662110118
 20
27.8400150171
 10
-45.2439507418
 20
27.849212369
 10
-45.5299851212
 20
27.8820601366
 10
-45.8181537803
 20
27.9398228039
 10
-46.1074931481
 20
28.024054277
 10
-46.3939388956
 20
28.1353737734
 10
-46.6673019694
 20
28.2702782698
 10
-46.9254238193
 20
28.4269271715
 10
-47.167088855
 20
28.6037774623
 10
-47.3857186273
 20
28.7940666086
 10
-47.580174807
 20
28.9933355735
 10
-47.7522733982
 20
29.1998574471
 10
-47.9017594061
 20
29.4095465923
 10
-48.0286105434
 20
29.6175838062
 10
-48.1357899209
 20
29.8237621688
 10
-48.2270396017
 20
30.0316570948
 10
-48.3027145271
 20
30.2393351047
 10
-48.363758181
 20
30.4462319861
 10
-48.4124251479
 20
30.6591094791
 10
-48.4483791585
 20
30.8798851826
 10
-48.4702917485
 20
31.1051656548
 10
-48.47755303
 20
31.3340562657
  0
LWPOLYLINE
  5
26A
100
AcDbEntity
  8
0
100
AcDbPolyline
 62
7
  6
CONTINUOUS
 90
3
 70
0
 43
0.3500000006
 10
-3.2142856836
 20
58.0588001404
 10
-2.3571427875
 20
58.9159471436
 10
-2.3571427875
 20
55.915946228
  0
LWPOLYLINE
  5
26B
100
AcDbEntity
  8
RACCORDO
100
AcDbPolyline
 62
7
  6
CONTINUOUS
 90
16
 70
0
 10
-3.8694093471
 20
46.3819544258
 10
-3.8818743255
 20
46.3783794918
 10
-3.895934283
 20
46.3737277638
 10
-3.9115344834
 20
46.367727372
 10
-3.9284348509
 20
46.3601362714
 10
-3.9466184696
 20
46.350567664
 10
-3.9662212776
 20
46.3384176578
 10
-3.9871280242
 20
46.3230193057
 10
-4.0084977881
 20
46.3041143246
 10
-4.0292591288
 20
46.2817945028
 10
-4.0489098911
 20
46.2556640144
 10
-4.0665314517
 20
46.2258097637
 10
-4.0808209518
 20
46.1935738242
 10
-4.0912806993
 20
46.1597569059
 10
-4.0977755302
 20
46.1243483467
 10
-4.1
 20
46.0878123061
  0
LWPOLYLINE
  5
26C
100
AcDbEntity
  8
0
100
AcDbPolyline
 62
250
  6
CONTINUOUS
 90
16
 70
0
 10
29.8500827238
 20
-43.9139937903
 10
29.8351184444
 20
-43.9146764576
 10
29.8206954591
 20
-43.9131629614
 10
29.8067991577
 20
-43.9094409566
 10
29.7934719911
 20
-43.90299007
 10
29.780635029
 20
-43.8943021397
 10
29.7681042048
 20
-43.8848906923
 10
29.7559064859
 20
-43.8747755839
 10
29.7440047289
 20
-43.8639250813
 10
29.73215319
 20
-43.8537931557
 10
29.7202912612
 20
-43.8443226121
 10
29.70851515
 20
-43.8355776687
 10
29.696843456
 20
-43.829211112
 10
29.6853031532
 20
-43.825783429
 10
29.6739210061
 20
-43.824754518
 10
29.6627241901
 20
-43.8261326101
  0
LWPOLYLINE
  5
26D
100
AcDbEntity
  8
0
100
AcDbPolyline
 62
250
  6
CONTINUOUS
 90
9
 70
0
 10
30.437879904
 20
-43.9558129033
 10
30.3723063637
 20
-43.9586443185
 10
30.3405185292
 20
-43.959867286
 10
30.3095543999
 20
-43.960633741
 10
30.2792926078
 20
-43.9612217806
 10
30.2493479159
 20
-43.9625225792
 10
30.2196088029
 20
-43.9648345054
 10
30.1902287981
 20
-43.9678491446
 10
30.1612279668
 20
-43.9715602263
  0
LWPOLYLINE
  5
26E
100
AcDbEntity
  8
0
100
AcDbPolyline
 62
250
  6
CONTINUOUS
 90
6
 70
0
 10
44.9999999407
 20
-43.853071616
 10
44.4076772492
 20
-43.8671371723
 10
43.806852239
 20
-43.8771244033
 10
43.1929208967
 20
-43.884439557
 10
42.5706945341
 20
-43.8890488534
 10
41.9382754519
 20
-43.8918820808
  0
LWPOLYLINE
  5
26F
100
AcDbEntity
  8
0
100
AcDbPolyline
 62
7
  6
CONTINUOUS
 90
5
 70
0
 10
32.6951627699
 20
-43.9252683872
 10
31.5665403305
 20
-43.949077651
 10
31.1897465696
 20
-43.9549132653
 10
30.8115694251
 20
-43.9576844212
 10
30.4313587975
 20
-43.9561901614
  0
LINE
  5
270
100
AcDbEntity
  8
0
100
AcDbLine
 62
250
  6
CONTINUOUS
 10
-26.7908247711
 20
-45.2627544997
 11
-27.4523959886
 21
-45.2748802669
  0
LINE
  5
271
100
AcDbEntity
  8
0
100
AcDbLine
 62
250
  6
CONTINUOUS
 10
-28.7
 20
-45.3089571757
 11
-28.9904613383
 21
-45.3139548478
  0
LINE
  5
272
100
AcDbEntity
  8
0
100
AcDbLine
 62
7
  6
CONTINUOUS
 10
-27.4523959886
 20
-45.2748802669
 11
-26.7327265838
 21
-45.2652227248
  0
LINE
  5
273
100
AcDbEntity
  8
0
100
AcDbLine
 62
250
  6
CONTINUOUS
 10
-25.6918243373
 20
-45.2483508275
 11
-26.7908247711
 21
-45.2627544997
  0
LINE
  5
274
100
AcDbEntity
  8
0
100
AcDbLine
 62
7
  6
CONTINUOUS
 10
-26.7327265838
 20
-45.2652227248
 11
-25.977851158
 21
-45.2565122549
  0
LWPOLYLINE
  5
275
100
AcDbEntity
  8
0
100
AcDbPolyline
 62
7
  6
CONTINUOUS
 90
10
 70
0
 10
27.8076346395
 20
-45.2749818767
 10
27.9192648138
 20
-45.2738121619
 10
28.0274987357
 20
-45.2717939472
 10
28.1319843558
 20
-45.2688639928
 10
28.233472746
 20
-45.2649007371
 10
28.3315912225
 20
-45.2598140027
 10
28.424398813
 20
-45.2537532393
 10
28.5114747006
 20
-45.2468069256
 10
28.5938412937
 20
-45.2388948744
 10
28.6717746861
 20
-45.2300376837
  0
LINE
  5
276
100
AcDbEntity
  8
0
100
AcDbLine
 62
250
  6
CONTINUOUS
 10
-28.9904613383
 20
-45.3139548478
 11
-29.3959285071
 21
-45.3188001908
  0
LINE
  5
277
100
AcDbEntity
  8
0
100
AcDbLine
 62
7
  6
CONTINUOUS
 10
-25.977851158
 20
-45.2565122549
 11
-24.7843889046
 21
-45.2452547749
  0
LINE
  5
278
100
AcDbEntity
  8
0
100
AcDbLine
 62
7
  6
CONTINUOUS
 10
-27.5741579272
 20
-45.2758024504
 11
-27.4523959581
 21
-45.2748798984
  0
LINE
  5
279
100
AcDbEntity
  8
0
100
AcDbLine
 62
7
  6
CONTINUOUS
 10
-24.7843889046
 20
-45.2452547749
 11
-23.531308123
 21
-45.2362661069
  0
LINE
  5
27A
100
AcDbEntity
  8
0
100
AcDbLine
 62
250
  6
CONTINUOUS
 10
-23.4697728307
 20
-45.229743588
 11
-25.6918243373
 21
-45.2483508275
  0
LINE
  5
27B
100
AcDbEntity
  8
0
100
AcDbLine
 62
250
  6
CONTINUOUS
 10
-29.3959285071
 20
-45.3188001908
 11
-29.8731069545
 21
-45.3224409702
  0
LWPOLYLINE
  5
27C
100
AcDbEntity
  8
0
100
AcDbPolyline
 62
7
  6
CONTINUOUS
 90
4
 70
0
 10
-30.4310681531
 20
-43.9560217186
 10
-30.8113550764
 20
-43.9577574909
 10
-31.1898721274
 20
-43.9556355706
 10
-31.5672019832
 20
-43.950740517
  0
LINE
  5
27D
100
AcDbEntity
  8
0
100
AcDbLine
 62
7
  6
CONTINUOUS
 10
-23.531308123
 20
-45.2362661069
 11
-22.2318123645
 21
-45.2296620999
  0
LINE
  5
27E
100
AcDbEntity
  8
0
100
AcDbLine
 62
250
  6
CONTINUOUS
 10
-29.8731069545
 20
-45.3224409702
 11
-30.1164142406
 21
-45.3235126712
  0
LINE
  5
27F
100
AcDbEntity
  8
0
100
AcDbLine
 62
250
  6
CONTINUOUS
 10
37.483521852
 20
-43.9074800544
 11
35.6608246204
 21
-43.9133129257
  0
LINE
  5
280
100
AcDbEntity
  8
0
100
AcDbLine
 62
7
  6
CONTINUOUS
 10
-22.2318123645
 20
-45.2296620999
 11
-20.9000014292
 21
-45.2255841663
  0
LINE
  5
281
100
AcDbEntity
  8
0
100
AcDbLine
 62
250
  6
CONTINUOUS
 10
35.6608246204
 20
-43.9133129257
 11
33.8349976164
 21
-43.9175925503
  0
LWPOLYLINE
  5
282
100
AcDbEntity
  8
0
100
AcDbPolyline
 62
250
  6
CONTINUOUS
 90
3
 70
0
 10
41.9382754519
 20
-43.8918820808
 10
40.6372954315
 20
-43.8949053059
 10
37.483521852
 20
-43.9074800544
  0
LINE
  5
283
100
AcDbEntity
  8
0
100
AcDbLine
 62
250
  6
CONTINUOUS
 10
-21.2314884177
 20
-45.2212687845
 11
-23.4697728307
 21
-45.229743588
  0
LINE
  5
284
100
AcDbEntity
  8
0
100
AcDbLine
 62
7
  6
CONTINUOUS
 10
-20.9000014292
 20
-45.2255841663
 11
-20.0
 21
-45.2243291822
  0
LINE
  5
285
100
AcDbEntity
  8
0
100
AcDbLine
 62
7
  6
CONTINUOUS
 10
-30.1164142406
 20
-45.3235126712
 11
-33.8375354101
 21
-45.3244270828
  0
LINE
  5
286
100
AcDbEntity
  8
0
100
AcDbLine
 62
7
  6
CONTINUOUS
 10
-45.0
 20
-45.6659437343
 11
45.0
 21
-45.6659437343
  0
LINE
  5
287
100
AcDbEntity
  8
COPY_PABLISH
100
AcDbLine
 62
7
  6
CONTINUOUS
 10
45.0
 20
-45.6659437343
 11
-45.0
 21
-45.6659437343
  0
LINE
  5
288
100
AcDbEntity
  8
RACCORDO
100
AcDbLine
 62
250
  6
CONTINUOUS
 10
45.0
 20
-45.4825132361
 11
-45.0
 21
-45.4825132361
  0
LINE
  5
289
100
AcDbEntity
  8
0
100
AcDbLine
 62
7
  6
CONTINUOUS
 10
44.9999863571
 20
-45.4704468423
 11
28.7
 21
-45.4704468423
  0
LINE
  5
28A
100
AcDbEntity
  8
0
100
AcDbLine
 62
7
  6
CONTINUOUS
 10
-28.7
 20
-45.4704468423
 11
-44.9999863571
 21
-45.4704468423
  0
LINE
  5
28B
100
AcDbEntity
  8
0
100
AcDbLine
 62
250
  6
CONTINUOUS
 10
-33.8375354101
 20
-45.3244270828
 11
-45.0
 21
-45.3261030908
  0
LINE
  5
28C
100
AcDbEntity
  8
RACCORDO
100
AcDbLine
 62
7
  6
CONTINUOUS
 10
25.95
 20
-45.2659437343
 11
-25.95
 21
-45.2659437343
  0
LINE
  5
28D
100
AcDbEntity
  8
0
100
AcDbLine
 62
7
  6
CONTINUOUS
 10
19.9999999991
 20
-44.0594189212
 11
-19.9999886832
 21
-44.0594355357
  0
LINE
  5
28E
100
AcDbEntity
  8
0
100
AcDbLine
 62
250
  6
CONTINUOUS
 10
39.291498835
 20
-45.3245704057
 11
33.8375354101
 21
-45.3244357475
  0
LINE
  5
28F
100
AcDbEntity
  8
0
100
AcDbLine
 62
250
  6
CONTINUOUS
 10
20.1843703759
 20
-45.2205267813
 11
-21.2314884177
 21
-45.2212687845
  0
LINE
  5
290
100
AcDbEntity
  8
0
100
AcDbLine
 62
7
  6
CONTINUOUS
 10
33.8375354101
 20
-45.3244357475
 11
32.6008155102
 21
-45.3241974605
  0
LINE
  5
291
100
AcDbEntity
  8
0
100
AcDbLine
 62
250
  6
CONTINUOUS
 10
45.0
 20
-45.3261030762
 11
43.1299216601
 21
-45.3257164278
  0
LINE
  5
292
100
AcDbEntity
  8
0
100
AcDbLine
 62
250
  6
CONTINUOUS
 10
41.2287323574
 20
-45.324978741
 11
39.291498835
 21
-45.3245704057
  0
LINE
  5
293
100
AcDbEntity
  8
0
100
AcDbLine
 62
7
  6
CONTINUOUS
 10
32.6008155102
 20
-45.3241974605
 11
30.1164142406
 21
-45.3235126609
  0
LWPOLYLINE
  5
294
100
AcDbEntity
  8
0
100
AcDbPolyline
 62
250
  6
CONTINUOUS
 90
10
 70
0
 10
-19.9999999997
 20
-44.0594394487
 10
-21.5516464287
 20
-44.0589976325
 10
-22.9832920649
 20
-44.0648296037
 10
-24.2881661268
 20
-44.0860374796
 10
-25.4609038932
 20
-44.1296163052
 10
-26.5032160088
 20
-44.1934845118
 10
-27.4307870514
 20
-44.2362257709
 10
-28.2589098172
 20
-44.2114510053
 10
-28.9991333961
 20
-44.0833902631
 10
-29.6626700199
 20
-43.8261158691
  0
LINE
  5
295
100
AcDbEntity
  8
0
100
AcDbLine
 62
250
  6
CONTINUOUS
 10
43.1299216601
 20
-45.3257164278
 11
41.2287323574
 21
-45.324978741
  0
LINE
  5
296
100
AcDbEntity
  8
0
100
AcDbLine
 62
7
  6
CONTINUOUS
 10
-20.0
 20
-45.2243291822
 11
20.4520241311
 21
-45.2248120763
  0
LINE
  5
297
100
AcDbEntity
  8
0
100
AcDbLine
 62
7
  6
CONTINUOUS
 10
20.4520241311
 20
-45.2248120763
 11
21.7932647445
 21
-45.2280200456
  0
LINE
  5
298
100
AcDbEntity
  8
0
100
AcDbLine
 62
250
  6
CONTINUOUS
 10
-39.969016173
 20
-43.896917563
 11
-41.9383226931
 21
-43.8917934382
  0
LWPOLYLINE
  5
299
100
AcDbEntity
  8
0
100
AcDbPolyline
 62
7
  6
CONTINUOUS
 90
4
 70
0
 10
33.8349976164
 20
-43.9175925503
 10
33.4527008
 20
-43.916315313
 10
33.0729779658
 20
-43.9192842478
 10
32.6951627699
 20
-43.9252683872
  0
LINE
  5
29A
100
AcDbEntity
  8
0
100
AcDbLine
 62
250
  6
CONTINUOUS
 10
-33.8392170785
 20
-43.9244973803
 11
-35.057682493
 21
-43.9209041796
  0
LINE
  5
29B
100
AcDbEntity
  8
0
100
AcDbLine
 62
250
  6
CONTINUOUS
 10
22.7886457322
 20
-45.226049097
 11
20.1843703759
 21
-45.2205267813
  0
LWPOLYLINE
  5
29C
100
AcDbEntity
  8
0
100
AcDbPolyline
 62
250
  6
CONTINUOUS
 90
6
 70
0
 10
-41.9383226931
 20
-43.8917934382
 10
-42.5707349635
 20
-43.8889952905
 10
-43.192951231
 20
-43.8844180691
 10
-43.8068688204
 20
-43.877129097
 10
-44.4076841233
 20
-43.8671594828
 10
-45.000004911
 20
-43.8531005569
  0
LINE
  5
29D
100
AcDbEntity
  8
0
100
AcDbLine
 62
7
  6
CONTINUOUS
 10
21.7932647445
 20
-45.2280200456
 11
23.1072718611
 21
-45.2338171274
  0
LWPOLYLINE
  5
29E
100
AcDbEntity
  8
0
100
AcDbPolyline
 62
250
  6
CONTINUOUS
 90
3
 70
0
 10
-35.057682493
 20
-43.9209041796
 10
-36.8815167047
 20
-43.9123351353
 10
-39.969016173
 20
-43.896917563
  0
LINE
  5
29F
100
AcDbEntity
  8
0
100
AcDbLine
 62
250
  6
CONTINUOUS
 10
30.1164142406
 20
-45.3235126609
 11
29.6326799097
 21
-45.3208661626
  0
LINE
  5
2A0
100
AcDbEntity
  8
0
100
AcDbLine
 62
7
  6
CONTINUOUS
 10
23.1072718611
 20
-45.2338171274
 11
24.3777503542
 21
-45.2420390071
  0
LWPOLYLINE
  5
2A1
100
AcDbEntity
  8
0
100
AcDbPolyline
 62
7
  6
CONTINUOUS
 90
3
 70
0
 10
27.4524088075
 20
-45.2748800847
 10
27.5742529685
 20
-45.2757937266
 10
27.8076346395
 20
-45.2749818767
  0
LINE
  5
2A2
100
AcDbEntity
  8
0
100
AcDbLine
 62
250
  6
CONTINUOUS
 10
25.0489516969
 20
-45.2418860015
 11
22.7886457322
 21
-45.226049097
  0
LINE
  5
2A3
100
AcDbEntity
  8
0
100
AcDbLine
 62
7
  6
CONTINUOUS
 10
24.3777503542
 20
-45.2420390071
 11
25.5912549681
 21
-45.2525518977
  0
LINE
  5
2A4
100
AcDbEntity
  8
0
100
AcDbLine
 62
7
  6
CONTINUOUS
 10
25.5912549681
 20
-45.2525518977
 11
26.3624271293
 21
-45.2607797678
  0
LINE
  5
2A5
100
AcDbEntity
  8
0
100
AcDbLine
 62
250
  6
CONTINUOUS
 10
29.6326799097
 20
-45.3208661626
 11
29.1660400746
 21
-45.3162907337
  0
LWPOLYLINE
  5
2A6
100
AcDbEntity
  8
0
100
AcDbPolyline
 62
7
  6
CONTINUOUS
 90
3
 70
0
 10
26.3624271293
 20
-45.2607797678
 10
27.0977940633
 20
-45.2699443379
 10
27.4524088389
 20
-45.2748804528
  0
LINE
  5
2A7
100
AcDbEntity
  8
0
100
AcDbLine
 62
250
  6
CONTINUOUS
 10
26.4798037988
 20
-45.2580664739
 11
25.0489516969
 21
-45.2418860015
  0
LWPOLYLINE
  5
2A8
100
AcDbEntity
  8
0
100
AcDbPolyline
 62
7
  6
CONTINUOUS
 90
4
 70
0
 10
-32.6979352458
 20
-43.9303367868
 10
-33.0763965781
 20
-43.9252943752
 10
-33.4566242626
 20
-43.9229763954
 10
-33.8392170785
 20
-43.9244973803
  0
LINE
  5
2A9
100
AcDbEntity
  8
0
100
AcDbLine
 62
250
  6
CONTINUOUS
 10
29.1660400746
 20
-45.3162907337
 11
28.8714085449
 21
-45.3120714397
  0
LINE
  5
2AA
100
AcDbEntity
  8
0
100
AcDbLine
 62
7
  6
CONTINUOUS
 10
-31.5672019832
 20
-43.950740517
 11
-32.6979352458
 21
-43.9303367868
  0
LINE
  5
2AB
100
AcDbEntity
  8
0
100
AcDbLine
 62
250
  6
CONTINUOUS
 10
28.8714085449
 20
-45.3120714397
 11
28.7
 21
-45.3089542338
  0
LWPOLYLINE
  5
2AC
100
AcDbEntity
  8
0
100
AcDbPolyline
 62
250
  6
CONTINUOUS
 90
3
 70
0
 10
27.4524088389
 20
-45.2748804528
 10
27.2085885277
 20
-45.2701055475
 10
26.4798037988
 20
-45.2580664739
  0
LINE
  5
2AD
100
AcDbEntity
  8
0
100
AcDbLine
 62
250
  6
CONTINUOUS
 10
-30.2791315297
 20
-43.9625592504
 11
-30.3402446003
 21
-43.9603518193
  0
LWPOLYLINE
  5
2AE
100
AcDbEntity
  8
0
100
AcDbPolyline
 62
250
  6
CONTINUOUS
 90
10
 70
0
 10
30.1612279668
 20
-43.9715602263
 10
30.123519721
 20
-43.9697476791
 10
30.0866210349
 20
-43.9653407408
 10
30.0505708183
 20
-43.9583074585
 10
30.0155670564
 20
-43.9466023525
 10
29.9814626855
 20
-43.9321868832
 10
29.9478227721
 20
-43.9210920072
 10
29.9145782454
 20
-43.9153620054
 10
29.8819693626
 20
-43.9129921061
 10
29.8500827238
 20
-43.9139937903
  0
LINE
  5
2AF
100
AcDbEntity
  8
0
100
AcDbLine
 62
250
  6
CONTINUOUS
 10
-30.3402446003
 20
-43.9603518193
 11
-30.4378552295
 21
-43.9555898298
  0
LWPOLYLINE
  5
2B0
100
AcDbEntity
  8
0
100
AcDbPolyline
 62
250
  6
CONTINUOUS
 90
10
 70
0
 10
-28.4961563561
 20
-35.7735298479
 10
-28.4287704758
 20
-35.8033830124
 10
-28.3617927757
 20
-35.8335244299
 10
-28.2954864325
 20
-35.8638301115
 10
-28.2301149019
 20
-35.8941759365
 10
-28.1659419202
 20
-35.9244376519
 10
-28.1032315039
 20
-35.9544908723
 10
-28.0422479486
 20
-35.9842110808
 10
-27.9832558289
 20
-36.0134736285
 10
-27.92652
 20
-36.0421537343
  0
LINE
  5
2B1
100
AcDbEntity
  8
0
100
AcDbLine
 62
250
  6
CONTINUOUS
 10
-39.292893503
 20
-43.8998776152
 11
-39.2915944175
 21
-45.3245194689
  0
LINE
  5
2B2
100
AcDbEntity
  8
RACCORDO
100
AcDbLine
 62
7
  6
CONTINUOUS
 10
-41.0
 20
27.3026996164
 11
-41.0
 21
27.6340562657
  0
LINE
  5
2B3
100
AcDbEntity
  8
COPY_PABLISH
100
AcDbLine
 62
7
  6
CONTINUOUS
 10
-40.0
 20
29.6340562657
 11
-40.0
 21
36.9925241051
  0
LINE
  5
2B4
100
AcDbEntity
  8
0
100
AcDbLine
 62
7
  6
CONTINUOUS
 10
-40.0
 20
36.9925133216
 11
-40.0
 21
37.1071404216
  0
LINE
  5
2B5
100
AcDbEntity
  8
0
100
AcDbLine
 62
7
  6
CONTINUOUS
 10
-39.8
 20
30.0840562657
 11
-39.8
 21
30.9840562657
  0
LINE
  5
2B6
100
AcDbEntity
  8
0
100
AcDbLine
 62
7
  6
CONTINUOUS
 10
-39.75
 20
37.0896849761
 11
-39.7499999999
 21
36.9929148669
  0
LINE
  5
2B7
100
AcDbEntity
  8
ASSI
100
AcDbLine
 62
7
  6
CONTINUOUS
 10
-39.75
 20
36.9929110434
 11
-39.75
 21
29.6340562657
  0
LINE
  5
2B8
100
AcDbEntity
  8
0
100
AcDbLine
 62
250
  6
CONTINUOUS
 10
-39.14999
 20
-26.3658743913
 11
-39.14999
 21
-4.1659437343
  0
LINE
  5
2B9
100
AcDbEntity
  8
0
100
AcDbLine
 62
7
  6
CONTINUOUS
 10
-39.14999
 20
-4.1659437343
 11
-39.14999
 21
18.0341382836
  0
LINE
  5
2BA
100
AcDbEntity
  8
0
100
AcDbLine
 62
250
  6
CONTINUOUS
 10
-37.3499903972
 20
-26.3659437342
 11
-37.3499904221
 21
18.0340516248
  0
LWPOLYLINE
  5
2BB
100
AcDbEntity
  8
0
100
AcDbPolyline
 62
250
  6
CONTINUOUS
 90
10
 70
0
 10
-37.3499923476
 20
18.0340516248
 10
-37.2906047235
 20
18.7110567989
 10
-37.1146048868
 20
19.3675561816
 10
-36.8272889074
 20
19.9836176892
 10
-36.4372866465
 20
20.5405777824
 10
-35.9564247291
 20
21.0214247477
 10
-35.3994618741
 20
21.4114042585
 10
-34.7834125614
 20
21.6986953311
 10
-34.1269411589
 20
21.8746745011
 10
-33.4499784649
 20
21.9340522476
  0
LWPOLYLINE
  5
2BC
100
AcDbEntity
  8
0
100
AcDbPolyline
 62
250
  6
CONTINUOUS
 90
10
 70
0
 10
-36.3937535679
 20
18.0340457758
 10
-36.3485228158
 20
18.5228734703
 10
-36.2133058977
 20
19.0011355935
 10
-35.9911623691
 20
19.4572085802
 10
-35.6847740497
 20
19.883571824
 10
-35.3063910635
 20
20.2629559179
 10
-34.8800652577
 20
20.5710480417
 10
-34.4228663344
 20
20.7951172554
 10
-33.9422375025
 20
20.9319261338
 10
-33.4498430274
 20
20.9778191784
  0
LINE
  5
2BD
100
AcDbEntity
  8
RACCORDO
100
AcDbLine
 62
250
  6
CONTINUOUS
 10
50.8045021339
 20
-39.6659437343
 11
51.0
 21
-39.6659437343
  0
LINE
  5
2BE
100
AcDbEntity
  8
RACCORDO
100
AcDbLine
 62
250
  6
CONTINUOUS
 10
-50.8045023513
 20
-39.6659437343
 11
-51.0
 21
-39.6659437343
  0
LINE
  5
2BF
100
AcDbEntity
  8
0
100
AcDbLine
 62
250
  6
CONTINUOUS
 10
-49.5060459634
 20
-39.6656841562
 11
-50.804503108
 21
-39.6659428953
  0
LINE
  5
2C0
100
AcDbEntity
  8
0
100
AcDbLine
 62
250
  6
CONTINUOUS
 10
-49.2471258798
 20
-39.6656624288
 11
-49.5060459634
 21
-39.6656841562
  0
LINE
  5
2C1
100
AcDbEntity
  8
0
100
AcDbLine
 62
250
  6
CONTINUOUS
 10
49.2472413636
 20
-39.6655328495
 11
49.5032016259
 21
-39.6655547743
  0
LWPOLYLINE
  5
2C2
100
AcDbEntity
  8
0
100
AcDbPolyline
 62
250
  6
CONTINUOUS
 90
3
 70
0
 10
49.5032016259
 20
-39.6655547743
 10
49.9649775325
 20
-39.6656431445
 10
50.1651769706
 20
-39.6657022656
  0
LINE
  5
2C3
100
AcDbEntity
  8
0
100
AcDbLine
 62
250
  6
CONTINUOUS
 10
50.1651769706
 20
-39.6657022656
 11
50.4747932071
 21
-39.6658249745
  0
LINE
  5
2C4
100
AcDbEntity
  8
0
100
AcDbLine
 62
250
  6
CONTINUOUS
 10
50.4747932071
 20
-39.6658249745
 11
50.8045027589
 21
-39.6659429524
  0
LWPOLYLINE
  5
2C5
100
AcDbEntity
  8
0
100
AcDbPolyline
 62
250
  6
CONTINUOUS
 90
10
 70
0
 10
-30.161449159
 20
-43.9739084783
 10
-30.1039515204
 20
-44.2145823512
 10
-30.0247960427
 20
-44.4418789507
 10
-29.9253373459
 20
-44.652124476
 10
-29.8057516207
 20
-44.8432845406
 10
-29.6688567977
 20
-45.0085729907
 10
-29.521639099
 20
-45.1396555012
 10
-29.3689632624
 20
-45.2342538102
 10
-29.2120702229
 20
-45.2929116013
 10
-29.05347
 20
-45.3148652257
  0
LWPOLYLINE
  5
2C6
100
AcDbEntity
  8
0
100
AcDbPolyline
 62
250
  6
CONTINUOUS
 90
10
 70
0
 10
-29.8507157416
 20
-43.9234085276
 10
-29.8041959858
 20
-44.1329479952
 10
-29.733931956
 20
-44.3343131328
 10
-29.6405790517
 20
-44.5250241777
 10
-29.5241165898
 20
-44.7035922674
 10
-29.3863290963
 20
-44.8655562102
 10
-29.2320851713
 20
-45.0049704698
 10
-29.0651689956
 20
-45.1192421622
 10
-28.8870171077
 20
-45.2076304651
 10
-28.7000754016
 20
-45.2683487172
  0
LWPOLYLINE
  5
2C7
100
AcDbEntity
  8
0
100
AcDbPolyline
 62
7
  6
CONTINUOUS
 90
10
 70
0
 10
-35.7499972186
 20
-26.3659437271
 10
-35.7040639788
 20
-26.7719824805
 10
-35.5983399864
 20
-27.1477868651
 10
-35.4328252415
 20
-27.4933568809
 10
-35.1976771179
 20
-27.8185411018
 10
-34.9027382418
 20
-28.113490954
 10
-34.5775364917
 20
-28.3486607154
 10
-34.2319144939
 20
-28.5142018124
 10
-33.856029622
 20
-28.6199628186
 10
-33.4498818762
 20
-28.6659437343
  0
LWPOLYLINE
  5
2C8
100
AcDbEntity
  8
0
100
AcDbPolyline
 62
250
  6
CONTINUOUS
 90
10
 70
0
 10
-30.4310681531
 20
-43.9560217186
 10
-30.4136631445
 20
-44.1994145905
 10
-30.3907594818
 20
-44.4297590857
 10
-30.3625981281
 20
-44.6433056686
 10
-30.3290918372
 20
-44.8379010412
 10
-30.290862478
 20
-45.0066714088
 10
-30.2496477827
 20
-45.1411528694
 10
-30.2066276241
 20
-45.2388272898
 10
-30.1620221743
 20
-45.299963032
 10
-30.1164142406
 20
-45.323513502
  0
LINE
  5
2C9
100
AcDbEntity
  8
0
100
AcDbLine
 62
7
  6
CONTINUOUS
 10
-35.7499972186
 20
-26.3659437271
 11
-35.7499990826
 21
18.034046617
  0
LINE
  5
2CA
100
AcDbEntity
  8
RACCORDO
100
AcDbLine
 62
7
  6
CONTINUOUS
 10
-35.25
 20
18.0326519506
 11
-35.25
 21
-26.3645436762
  0
LINE
  5
2CB
100
AcDbEntity
  8
RACCORDO
100
AcDbLine
 62
250
  6
CONTINUOUS
 10
-34.2500002698
 20
18.0326519506
 11
-34.250000272
 21
-26.3645436762
  0
LINE
  5
2CC
100
AcDbEntity
  8
RACCORDO
100
AcDbLine
 62
250
  6
CONTINUOUS
 10
-33.4485999419
 20
-27.1659440063
 11
-33.4485999419
 21
-28.1659437343
  0
LINE
  5
2CD
100
AcDbEntity
  8
RACCORDO
100
AcDbLine
 62
250
  6
CONTINUOUS
 10
-33.4485956849
 20
18.8340565355
 11
-33.4485956898
 21
19.8340562657
  0
LWPOLYLINE
  5
2CE
100
AcDbEntity
  8
0
100
AcDbPolyline
 62
250
  6
CONTINUOUS
 90
3
 70
0
 10
-33.8392170785
 20
-43.9244973803
 10
-33.8392967295
 20
-44.1766359269
 10
-33.8367264972
 20
-45.2377530959
  0
LINE
  5
2CF
100
AcDbEntity
  8
0
100
AcDbLine
 62
250
  6
CONTINUOUS
 10
-33.4497530008
 20
23.7340556114
 11
-33.449991493
 21
20.3340916695
  0
LINE
  5
2D0
100
AcDbEntity
  8
0
100
AcDbLine
 62
250
  6
CONTINUOUS
 10
-33.4498813802
 20
-28.6659791381
 11
-33.4499430264
 21
-32.0659502649
  0
LINE
  5
2D1
100
AcDbEntity
  8
0
100
AcDbLine
 62
250
  6
CONTINUOUS
 10
-34.3220099317
 20
35.5770387003
 11
-34.3223418702
 21
36.9099974578
  0
LWPOLYLINE
  5
2D2
100
AcDbEntity
  8
0
100
AcDbPolyline
 62
250
  6
CONTINUOUS
 90
3
 70
0
 10
-34.3223418702
 20
36.9099974578
 10
-34.3222361517
 20
36.9698696093
 10
-34.3220113698
 20
36.9925822425
  0
LWPOLYLINE
  5
2D3
100
AcDbEntity
  8
0
100
AcDbPolyline
 62
250
  6
CONTINUOUS
 90
3
 70
0
 10
-33.8367264972
 20
-45.2377530959
 10
-33.8368989111
 20
-45.3001815756
 10
-33.8375354101
 20
-45.3244270828
  0
LWPOLYLINE
  5
2D4
100
AcDbEntity
  8
RACCORDO
100
AcDbPolyline
 62
250
  6
CONTINUOUS
 90
13
 70
0
 10
-14.0
 20
38.3724358193
 10
-13.996357841
 20
38.3780087744
 10
-13.9672498017
 20
38.389138538
 10
-13.9092506655
 20
38.4002106314
 10
-13.8225404487
 20
38.4112154258
 10
-13.7071454262
 20
38.4221496484
 10
-13.5630448641
 20
38.4330029974
 10
-13.3905817419
 20
38.4437397843
 10
-13.1904111479
 20
38.4543191442
 10
-12.9632921481
 20
38.4647078277
 10
-12.7095536892
 20
38.4748968229
 10
-12.4292999207
 20
38.4848820188
 10
-12.1227039327
 20
38.4946525804
  0
LWPOLYLINE
  5
2D5
100
AcDbEntity
  8
RACCORDO
100
AcDbPolyline
 62
250
  6
CONTINUOUS
 90
11
 70
0
 10
-11.85
 20
40.7761858505
 10
-11.8464730112
 20
40.7812312925
 10
-11.8193048305
 20
40.7910617449
 10
-11.7655043029
 20
40.8008389328
 10
-11.6852455957
 20
40.8105521841
 10
-11.5785714622
 20
40.8201963174
 10
-11.4454874907
 20
40.8297602361
 10
-11.2863351638
 20
40.8392108826
 10
-11.1017478796
 20
40.8485106406
 10
-10.8924631248
 20
40.857628487
 10
-10.6588201667
 20
40.8665550326
  0
LWPOLYLINE
  5
2D6
100
AcDbEntity
  8
RACCORDO
100
AcDbPolyline
 62
250
  6
CONTINUOUS
 90
10
 70
0
 10
-10.1
 20
42.6160979591
 10
-10.0966536286
 20
42.6206350981
 10
-10.0710848776
 20
42.6294264956
 10
-10.0202397217
 20
42.6382067619
 10
-9.9441823882
 20
42.646941041
 10
-9.84326647
 20
42.655588653
 10
-9.7180201071
 20
42.6641161402
 10
-9.5687083048
 20
42.6725149285
 10
-9.3953886497
 20
42.6807818426
 10
-9.1981314059
 20
42.6889068782
  0
LWPOLYLINE
  5
2D7
100
AcDbEntity
  8
RACCORDO
100
AcDbPolyline
 62
250
  6
CONTINUOUS
 90
10
 70
0
 10
-8.35
 20
44.3890329722
 10
-8.3470131209
 20
44.3929304488
 10
-8.3238278658
 20
44.4005619962
 10
-8.2776107564
 20
44.40818026
 10
-8.2084342268
 20
44.415753442
 10
-8.1166329918
 20
44.4232448928
 10
-8.0027045492
 20
44.430624001
 10
-7.8669199021
 20
44.4378812299
 10
-7.7093695915
 20
44.4450117409
 10
-7.5301575429
 20
44.4520050365
  0
LWPOLYLINE
  5
2D8
100
AcDbEntity
  8
RACCORDO
100
AcDbPolyline
 62
250
  6
CONTINUOUS
 90
9
 70
0
 10
-4.1
 20
46.0878123061
 10
-4.0975463148
 20
46.0902874868
 10
-4.0808828735
 20
46.0947141749
 10
-4.0486473036
 20
46.0991019353
 10
-4.0010060243
 20
46.103441233
 10
-3.9380294019
 20
46.1077258338
 10
-3.8597739195
 20
46.1119455543
 10
-3.7665740779
 20
46.1160772324
 10
-3.6589951647
 20
46.1200957446
  0
LWPOLYLINE
  5
2D9
100
AcDbEntity
  8
0
100
AcDbPolyline
 62
250
  6
CONTINUOUS
 90
5
 70
0
 10
-30.0504540822
 20
-43.9606974361
 10
-30.0777870934
 20
-43.9670951514
 10
-30.1053929522
 20
-43.9710896576
 10
-30.1332912277
 20
-43.9733599668
 10
-30.1614572664
 20
-43.9739152987
  0
LWPOLYLINE
  5
2DA
100
AcDbEntity
  8
0
100
AcDbPolyline
 62
7
  6
CONTINUOUS
 90
10
 70
0
 10
33.4498683165
 20
-28.6659437343
 10
33.8559730111
 20
-28.6199828821
 10
34.2318292298
 20
-28.5142397452
 10
34.5774369725
 20
-28.3487143236
 10
34.9026432101
 20
-28.1135618056
 10
35.1976009718
 20
-27.8186270029
 10
35.4327693448
 20
-27.4934443502
 10
35.5983013581
 20
-27.1478586592
 10
35.7040439827
 20
-26.7720251181
 10
35.7499972186
 20
-26.3659437272
  0
LWPOLYLINE
  5
2DB
100
AcDbEntity
  8
0
100
AcDbPolyline
 62
250
  6
CONTINUOUS
 90
10
 70
0
 10
33.449853
 20
-29.3097008216
 10
33.9387248183
 20
-29.2644667079
 10
34.4170250944
 20
-29.1292438662
 10
34.873127996
 20
-28.9070966543
 10
35.2995122391
 20
-28.6007112496
 10
35.6789078604
 20
-28.2223411096
 10
35.9870010881
 20
-27.7960386137
 10
36.2110641224
 20
-27.3388735279
 10
36.3478648578
 20
-26.8582879223
 10
36.3937535362
 20
-26.3659437343
  0
LWPOLYLINE
  5
2DC
100
AcDbEntity
  8
0
100
AcDbPolyline
 62
250
  6
CONTINUOUS
 90
10
 70
0
 10
33.4499942024
 20
-30.265938573
 10
34.1269610926
 20
-30.2065596851
 10
34.7834346345
 20
-30.0305778804
 10
35.3994837395
 20
-29.7432837268
 10
35.956443744
 20
-29.3533019401
 10
36.4373010343
 20
-28.8724544322
 10
36.8272985114
 20
-28.3154954256
 10
37.1146102955
 20
-27.6994364057
 10
37.2906067339
 20
-27.0429411467
 10
37.3499923056
 20
-26.3659415665
  0
LWPOLYLINE
  5
2DD
100
AcDbEntity
  8
0
100
AcDbPolyline
 62
250
  6
CONTINUOUS
 90
4
 70
0
 10
22.1601669138
 20
-33.1835495775
 10
21.4913737898
 20
-33.1938806049
 10
20.7735349635
 20
-33.1991743136
 10
20.0
 20
-33.2006618036
  0
LINE
  5
2DE
100
AcDbEntity
  8
0
100
AcDbLine
 62
250
  6
CONTINUOUS
 10
20.2928032787
 20
-32.0643254941
 11
20.0002085056
 21
-32.0672981405
  0
LWPOLYLINE
  5
2DF
100
AcDbEntity
  8
0
100
AcDbPolyline
 62
250
  6
CONTINUOUS
 90
16
 70
0
 10
-20.0001923808
 20
-32.0668332014
 10
-20.7918273421
 20
-32.0708281022
 10
-21.5529910189
 20
-32.088935699
 10
-22.2844251464
 20
-32.1180122111
 10
-22.9852063638
 20
-32.1576256551
 10
-23.6573209004
 20
-32.2146548982
 10
-24.3046215496
 20
-32.3042497971
 10
-24.9241490263
 20
-32.4421379772
 10
-25.509980099
 20
-32.6425565501
 10
-26.0605353481
 20
-32.9111333256
 10
-26.5801487955
 20
-33.2494396685
 10
-27.0615903321
 20
-33.6574191203
 10
-27.493880306
 20
-34.1215259765
 10
-27.8737316974
 20
-34.6284199769
 10
-28.2073362829
 20
-35.1808489148
 10
-28.4961563561
 20
-35.7735298479
  0
LWPOLYLINE
  5
2E0
100
AcDbEntity
  8
0
100
AcDbPolyline
 62
250
  6
CONTINUOUS
 90
16
 70
0
 10
-19.9999999998
 20
-33.2006673319
 10
-20.7768240551
 20
-33.2036601492
 10
-21.4847560794
 20
-33.207965056
 10
-22.1391643407
 20
-33.2064310292
 10
-22.7551350944
 20
-33.1920242851
 10
-23.3440132186
 20
-33.1715594118
 10
-23.9132383595
 20
-33.1666103343
 10
-24.4725553498
 20
-33.2004468572
 10
-25.0250837167
 20
-33.2950453533
 10
-25.5575431246
 20
-33.4605017337
 10
-26.055996155
 20
-33.701959535
 10
-26.5126406381
 20
-34.0277461574
 10
-26.9248608909
 20
-34.4386433182
 10
-27.2935716353
 20
-34.9123173883
 10
-27.6261260259
 20
-35.4489843885
 10
-27.9260029681
 20
-36.0423925422
  0
LINE
  5
2E1
100
AcDbEntity
  8
0
100
AcDbLine
 62
250
  6
CONTINUOUS
 10
20.600835234
 20
-32.0635422939
 11
20.2928032787
 21
-32.0643254941
  0
LINE
  5
2E2
100
AcDbEntity
  8
0
100
AcDbLine
 62
7
  6
CONTINUOUS
 10
20.0
 20
-33.2006728603
 11
-0.0000066617
 21
-33.2011734571
  0
LINE
  5
2E3
100
AcDbEntity
  8
0
100
AcDbLine
 62
7
  6
CONTINUOUS
 10
-0.0000066617
 20
-33.2011734571
 11
-19.9999999998
 21
-33.2006728603
  0
LWPOLYLINE
  5
2E4
100
AcDbEntity
  8
0
100
AcDbPolyline
 62
250
  6
CONTINUOUS
 90
3
 70
0
 10
-21.7347191951
 20
-32.0984436168
 10
-32.5525320128
 20
-32.0984436178
 10
-32.8547197582
 20
-32.100850428
  0
LINE
  5
2E5
100
AcDbEntity
  8
0
100
AcDbLine
 62
250
  6
CONTINUOUS
 10
33.4500714022
 20
-32.0659437343
 11
20.9243043716
 21
-32.0649485395
  0
LINE
  5
2E6
100
AcDbEntity
  8
0
100
AcDbLine
 62
250
  6
CONTINUOUS
 10
-21.178997367
 20
-32.1007788659
 11
-21.7347191951
 21
-32.0984436168
  0
LINE
  5
2E7
100
AcDbEntity
  8
0
100
AcDbLine
 62
250
  6
CONTINUOUS
 10
20.9243043716
 20
-32.0649485395
 11
20.600835234
 21
-32.0635422939
  0
LWPOLYLINE
  5
2E8
100
AcDbEntity
  8
0
100
AcDbPolyline
 62
250
  6
CONTINUOUS
 90
5
 70
0
 10
-32.8547197582
 20
-32.100850428
 10
-33.0046124784
 20
-32.0984436178
 10
-33.1538059853
 20
-32.0912230678
 10
-33.3022495012
 20
-32.0803919815
 10
-33.4499430264
 20
-32.0659502649
  0
LWPOLYLINE
  5
2E9
100
AcDbEntity
  8
0
100
AcDbPolyline
 62
250
  6
CONTINUOUS
 90
10
 70
0
 10
-33.4498529985
 20
-30.2659385981
 10
-34.1268840599
 20
-30.2065741598
 10
-34.7834057938
 20
-30.0305899979
 10
-35.3994848806
 20
-29.7432853237
 10
-35.9564534123
 20
-29.3532966589
 10
-36.4373063735
 20
-28.872451444
 10
-36.8273003755
 20
-28.3154961039
 10
-37.1146116561
 20
-27.6994371099
 10
-37.2906074094
 20
-27.0429423156
 10
-37.3499923053
 20
-26.3659437342
  0
LWPOLYLINE
  5
2EA
100
AcDbEntity
  8
0
100
AcDbPolyline
 62
250
  6
CONTINUOUS
 90
10
 70
0
 10
-33.449923967
 20
-29.309706647
 10
-33.9387854811
 20
-29.2644737901
 10
-34.4170733035
 20
-29.1292541675
 10
-34.8731628001
 20
-28.9071112618
 10
-35.2995329652
 20
-28.6007310044
 10
-35.6789160273
 20
-28.2223656275
 10
-35.9870014354
 20
-27.7960646138
 10
-36.2110612027
 20
-27.3388957864
 10
-36.3478611862
 20
-26.8583014886
 10
-36.39375
 20
-26.3659437343
  0
LWPOLYLINE
  5
2EB
100
AcDbEntity
  8
0
100
AcDbPolyline
 62
250
  6
CONTINUOUS
 90
10
 70
0
 10
-29.6626700199
 20
-43.8261158691
 10
-29.6345562247
 20
-44.0302543277
 10
-29.5836602544
 20
-44.2288142797
 10
-29.510420489
 20
-44.4194621755
 10
-29.4150754046
 20
-44.6003037371
 10
-29.2987530289
 20
-44.7677335416
 10
-29.1641695489
 20
-44.9171109735
 10
-29.0137488752
 20
-45.0454369066
 10
-28.8489393314
 20
-45.1506637756
 10
-28.6717744929
 20
-45.2300366873
  0
LINE
  5
2EC
100
AcDbEntity
  8
0
100
AcDbLine
 62
7
  6
CONTINUOUS
 10
-28.7
 20
-45.4704468423
 11
-28.7
 21
-45.226884002
  0
LWPOLYLINE
  5
2ED
100
AcDbEntity
  8
0
100
AcDbPolyline
 62
250
  6
CONTINUOUS
 90
5
 70
0
 10
-20.0002080505
 20
-32.0669164031
 10
-20.3034726042
 20
-32.0809287181
 10
-20.6010654127
 20
-32.0914377567
 10
-20.8929864761
 20
-32.0984436167
 10
-21.178997367
 20
-32.1007788659
  0
LINE
  5
2EE
100
AcDbEntity
  8
0
100
AcDbLine
 62
250
  6
CONTINUOUS
 10
-49.3358689489
 20
-31.2421761811
 11
-50.6583602991
 21
-31.2421612343
  0
LINE
  5
2EF
100
AcDbEntity
  8
0
100
AcDbLine
 62
250
  6
CONTINUOUS
 10
-33.4498812403
 20
-30.2659346273
 11
33.4499942022
 21
-30.2659346273
  0
LINE
  5
2F0
100
AcDbEntity
  8
0
100
AcDbLine
 62
7
  6
CONTINUOUS
 10
33.4498683165
 20
-28.6659437343
 11
-33.4498818762
 21
-28.6659437343
  0
LINE
  5
2F1
100
AcDbEntity
  8
RACCORDO
100
AcDbLine
 62
7
  6
CONTINUOUS
 10
-33.4485999419
 20
-28.1659437343
 11
33.4485999419
 21
-28.1659437343
  0
LINE
  5
2F2
100
AcDbEntity
  8
RACCORDO
100
AcDbLine
 62
250
  6
CONTINUOUS
 10
-33.4485999419
 20
-27.1659440063
 11
33.4485999419
 21
-27.1659440063
  0
LINE
  5
2F3
100
AcDbEntity
  8
0
100
AcDbLine
 62
250
  6
CONTINUOUS
 10
49.3346890483
 20
-31.2412574003
 11
50.6583612966
 21
-31.2421549843
  0
LWPOLYLINE
  5
2F4
100
AcDbEntity
  8
0
100
AcDbPolyline
 62
250
  6
CONTINUOUS
 90
10
 70
0
 10
-30.4373087412
 20
-43.956202996
 10
-30.3022849884
 20
-42.9733183241
 10
-30.1474022041
 20
-42.0048235018
 10
-29.9746146229
 20
-41.0523925498
 10
-29.7933368087
 20
-40.1147563628
 10
-29.5973151322
 20
-39.1946028782
 10
-29.3675512311
 20
-38.2989381828
 10
-29.1014435712
 20
-37.4307269933
 10
-28.8098519365
 20
-36.5886804008
 10
-28.4960735078
 20
-35.7735364521
  0
LWPOLYLINE
  5
2F5
100
AcDbEntity
  8
0
100
AcDbPolyline
 62
7
  6
CONTINUOUS
 90
11
 70
0
 10
4.1
 20
45.7487045546
 10
4.098380347
 20
45.7467289336
 10
4.0859964213
 20
45.7427956006
 10
4.0611159696
 20
45.7388803394
 10
4.0238515922
 20
45.7349829872
 10
3.9745410904
 20
45.7311388734
 10
3.9130749351
 20
45.7273484822
 10
3.8395626554
 20
45.7236113293
 10
3.7546706393
 20
45.7199612922
 10
3.658295417
 20
45.7163991629
 10
3.6011013063
 20
45.7145546973
  0
LWPOLYLINE
  5
2F6
100
AcDbEntity
  8
0
100
AcDbPolyline
 62
7
  6
CONTINUOUS
 90
8
 70
0
 10
11.85
 20
40.3495270008
 10
11.8403533544
 20
40.3412040997
 10
11.811506744
 20
40.3328811985
 10
11.7636001581
 20
40.3245986875
 10
11.6965409508
 20
40.3163567628
 10
11.6104217681
 20
40.3081552283
 10
11.5056605365
 20
40.3000338851
 10
11.3821666418
 20
40.2919931228
  0
LWPOLYLINE
  5
2F7
100
AcDbEntity
  8
0
100
AcDbPolyline
 62
7
  6
CONTINUOUS
 90
9
 70
0
 10
10.1
 20
42.1492528521
 10
10.0903444761
 20
42.141569018
 10
10.0614874188
 20
42.1338851839
 10
10.0135930999
 20
42.1262450909
 10
9.9465529418
 20
42.1186489883
 10
9.8604755222
 20
42.1110966268
 10
9.7558508455
 20
42.1036309989
 10
9.632573129
 20
42.0962525993
 10
9.4907481555
 20
42.0889609332
  0
LINE
  5
2F8
100
AcDbEntity
  8
0
100
AcDbLine
 62
250
  6
CONTINUOUS
 10
-39.14999
 20
-26.3658743913
 11
-35.7500301453
 21
-26.3659437271
  0
LINE
  5
2F9
100
AcDbEntity
  8
0
100
AcDbLine
 62
250
  6
CONTINUOUS
 10
35.7500301453
 20
-26.3659437272
 11
39.14999
 21
-26.3658489765
  0
LINE
  5
2FA
100
AcDbEntity
  8
RACCORDO
100
AcDbLine
 62
250
  6
CONTINUOUS
 10
34.250000272
 20
-26.3645436762
 11
35.25
 21
-26.3645436762
  0
LINE
  5
2FB
100
AcDbEntity
  8
RACCORDO
100
AcDbLine
 62
250
  6
CONTINUOUS
 10
-34.250000272
 20
-26.3645436762
 11
-35.25
 21
-26.3645436811
  0
LINE
  5
2FC
100
AcDbEntity
  8
0
100
AcDbLine
 62
7
  6
CONTINUOUS
 10
-44.5164975629
 20
29.4966054791
 11
-44.6994426643
 21
29.8134756897
  0
LINE
  5
2FD
100
AcDbEntity
  8
0
100
AcDbLine
 62
7
  6
CONTINUOUS
 10
-43.8334172606
 20
30.3134756897
 11
-43.6504721591
 21
29.9966054791
  0
LINE
  5
2FE
100
AcDbEntity
  8
0
100
AcDbLine
 62
250
  6
CONTINUOUS
 10
-20.0002080505
 20
-32.0669164031
 11
-20.000155738
 21
-32.1963565741
  0
LINE
  5
2FF
100
AcDbEntity
  8
RACCORDO
100
AcDbLine
 62
250
  6
CONTINUOUS
 10
-20.0
 20
-45.2659437343
 11
-20.0000000002
 21
-45.2243291822
  0
LINE
  5
300
100
AcDbEntity
  8
0
100
AcDbLine
 62
250
  6
CONTINUOUS
 10
-20.000155738
 20
-32.1963565741
 11
-20.0000939133
 21
-32.7087281833
  0
LINE
  5
301
100
AcDbEntity
  8
0
100
AcDbLine
 62
250
  6
CONTINUOUS
 10
-19.9999999982
 20
-44.0594189212
 11
-20.0000939133
 21
-32.7087281833
  0
LINE
  5
302
100
AcDbEntity
  8
0
100
AcDbLine
 62
7
  6
CONTINUOUS
 10
-19.9999886832
 20
-44.0594355357
 11
-20.0003133397
 21
-45.2205377733
  0
LINE
  5
303
100
AcDbEntity
  8
0
100
AcDbLine
 62
7
  6
CONTINUOUS
 10
-14.0
 20
38.3724358193
 11
-14.0
 21
37.3340562657
  0
LINE
  5
304
100
AcDbEntity
  8
0
100
AcDbLine
 62
7
  6
CONTINUOUS
 10
-7.210367
 20
28.6577722657
 11
-6.270788
 21
31.5842582657
  0
LINE
  5
305
100
AcDbEntity
  8
0
100
AcDbLine
 62
7
  6
CONTINUOUS
 10
-5.420746
 20
31.5842582657
 11
-6.785346
 21
27.3340672657
  0
LWPOLYLINE
  5
306
100
AcDbEntity
  8
0
100
AcDbPolyline
 62
7
  6
CONTINUOUS
 90
9
 70
0
 10
8.35
 20
43.9489787034
 10
8.3477766773
 20
43.9456569079
 10
8.3305342227
 20
43.9390339007
 10
8.295942249
 20
43.9324316049
 10
8.2441078207
 20
43.9258498928
 10
8.1753521321
 20
43.9193295482
 10
8.0895701131
 20
43.9128709521
 10
7.9868668338
 20
43.9064737236
 10
7.8678786997
 20
43.9001775033
  0
LINE
  5
307
100
AcDbEntity
  8
0
100
AcDbLine
 62
7
  6
CONTINUOUS
 10
-11.85
 20
40.7761858505
 11
-11.85
 21
40.3495270008
  0
LINE
  5
308
100
AcDbEntity
  8
0
100
AcDbLine
 62
7
  6
CONTINUOUS
 10
-11.35
 20
40.3495270008
 11
-11.35
 21
39.8560619509
  0
LINE
  5
309
100
AcDbEntity
  8
0
100
AcDbLine
 62
7
  6
CONTINUOUS
 10
-10.1
 20
42.6160979591
 11
-10.1
 21
42.1492528521
  0
LINE
  5
30A
100
AcDbEntity
  8
0
100
AcDbLine
 62
7
  6
CONTINUOUS
 10
-9.45
 20
42.1492528521
 11
-9.45
 21
41.6547065938
  0
LINE
  5
30B
100
AcDbEntity
  8
0
100
AcDbLine
 62
7
  6
CONTINUOUS
 10
-1.075333
 20
28.8163822657
 11
-0.281656
 21
31.5842582657
  0
LWPOLYLINE
  5
30C
100
AcDbEntity
  8
0
100
AcDbPolyline
 62
250
  6
CONTINUOUS
 90
10
 70
0
 10
-27.9260029681
 20
-36.0423925422
 10
-28.2293874166
 20
-36.7704191443
 10
-28.5047878111
 20
-37.549911362
 10
-28.7445610921
 20
-38.3548139414
 10
-28.9572034017
 20
-39.1936424512
 10
-29.1478015198
 20
-40.077184009
 10
-29.3166621869
 20
-41.0039612021
 10
-29.4607458244
 20
-41.9499047536
 10
-29.5773076317
 20
-42.8946883567
 10
-29.6626700199
 20
-43.8261158691
  0
LINE
  5
30D
100
AcDbEntity
  8
0
100
AcDbLine
 62
7
  6
CONTINUOUS
 10
-8.35
 20
44.3890329722
 11
-8.35
 21
43.9489787034
  0
LINE
  5
30E
100
AcDbEntity
  8
0
100
AcDbLine
 62
7
  6
CONTINUOUS
 10
-7.85
 20
43.9489787034
 11
-7.85
 21
43.4579795633
  0
LINE
  5
30F
100
AcDbEntity
  8
0
100
AcDbLine
 62
7
  6
CONTINUOUS
 10
-4.854072
 20
27.3340562657
 11
-4.854061
 21
31.5842582657
  0
LINE
  5
310
100
AcDbEntity
  8
0
100
AcDbLine
 62
7
  6
CONTINUOUS
 10
-4.1
 20
46.0878123061
 11
-4.1
 21
45.7487045546
  0
LINE
  5
311
100
AcDbEntity
  8
0
100
AcDbLine
 62
7
  6
CONTINUOUS
 10
0.153321
 20
30.1367822657
 11
-0.650333
 21
27.3340772657
  0
LINE
  5
312
100
AcDbEntity
  8
0
100
AcDbLine
 62
7
  6
CONTINUOUS
 10
1.570048
 20
27.3340672657
 11
2.934627
 21
31.5842692657
  0
LINE
  5
313
100
AcDbEntity
  8
0
100
AcDbLine
 62
7
  6
CONTINUOUS
 10
2.688435
 20
28.1699042657
 11
2.420079
 21
27.3340772657
  0
LINE
  5
314
100
AcDbEntity
  8
0
100
AcDbLine
 62
7
  6
CONTINUOUS
 10
3.359659
 20
30.2605532657
 11
2.947717
 21
28.9774352657
  0
LINE
  5
315
100
AcDbEntity
  8
0
100
AcDbLine
 62
250
  6
CONTINUOUS
 10
-50.6590665103
 20
-4.1659437313
 11
-39.1499828731
 21
-4.1659437343
  0
LINE
  5
316
100
AcDbEntity
  8
0
100
AcDbLine
 62
250
  6
CONTINUOUS
 10
39.1499842985
 20
-4.1659437343
 11
50.6590665103
 21
-4.1659437313
  0
LINE
  5
317
100
AcDbEntity
  8
0
100
AcDbLine
 62
7
  6
CONTINUOUS
 10
-4.004029
 20
31.5842582657
 11
-4.00404
 21
27.3340672657
  0
LINE
  5
318
100
AcDbEntity
  8
0
100
AcDbLine
 62
7
  6
CONTINUOUS
 10
-3.6
 20
45.7487045546
 11
-3.6
 21
45.3325374418
  0
LINE
  5
319
100
AcDbEntity
  8
0
100
AcDbLine
 62
7
  6
CONTINUOUS
 10
-3.154029
 20
27.3340672657
 11
-3.154029
 21
31.5842582657
  0
LINE
  5
31A
100
AcDbEntity
  8
0
100
AcDbLine
 62
7
  6
CONTINUOUS
 10
-2.303997
 20
30.1367822657
 11
-2.303997
 21
27.3340672657
  0
LWPOLYLINE
  5
31B
100
AcDbEntity
  8
0
100
AcDbPolyline
 62
7
  6
CONTINUOUS
 90
13
 70
0
 43
0.3500000006
 10
-1.5000000329
 20
56.7730841675
 10
-1.5000000329
 20
58.0588001404
 10
-1.2857142735
 20
58.4873691101
 10
-0.8571428254
 20
58.9159471436
 10
-0.6428571367
 20
58.9159471436
 10
-0.2142857063
 20
58.4873691101
 10
0.0
 20
58.0588001404
 10
0.0
 20
56.7730841675
 10
-0.2142857063
 20
56.3445151978
 10
-0.6428571367
 20
55.915946228
 10
-0.8571428254
 20
55.915946228
 10
-1.2857142735
 20
56.3445151978
 10
-1.5000000329
 20
56.7730841675
  0
LINE
  5
31C
100
AcDbEntity
  8
0
100
AcDbLine
 62
250
  6
CONTINUOUS
 10
-0.0000008021
 20
23.7340562657
 11
-0.0000000147
 21
35.5838957717
  0
LINE
  5
31D
100
AcDbEntity
  8
0
100
AcDbLine
 62
7
  6
CONTINUOUS
 10
0.0000000587
 20
35.5838957717
 11
-0.0000000004
 21
36.993141776
  0
LINE
  5
31E
100
AcDbEntity
  8
0
100
AcDbLine
 62
7
  6
CONTINUOUS
 10
0.153331
 20
27.3340672657
 11
0.153321
 21
30.1367822657
  0
LINE
  5
31F
100
AcDbEntity
  8
0
100
AcDbLine
 62
7
  6
CONTINUOUS
 10
1.003363
 20
31.5842582657
 11
1.003363
 21
27.3340672657
  0
LINE
  5
320
100
AcDbEntity
  8
0
100
AcDbLine
 62
7
  6
CONTINUOUS
 10
3.6
 20
45.7487045546
 11
3.6
 21
45.3325374418
  0
LINE
  5
321
100
AcDbEntity
  8
0
100
AcDbLine
 62
7
  6
CONTINUOUS
 10
4.1
 20
46.0878123061
 11
4.1
 21
45.7487045546
  0
LINE
  5
322
100
AcDbEntity
  8
0
100
AcDbLine
 62
7
  6
CONTINUOUS
 10
-7.63541
 20
27.3340562657
 11
-9.0
 21
31.5842582657
  0
LINE
  5
323
100
AcDbEntity
  8
0
100
AcDbLine
 62
7
  6
CONTINUOUS
 10
-8.149957
 20
31.5842582657
 11
-7.210367
 21
28.6577722657
  0
LWPOLYLINE
  5
324
100
AcDbEntity
  8
RACCORDO
100
AcDbPolyline
 62
7
  6
CONTINUOUS
 90
16
 70
0
 10
4.1
 20
46.0878123061
 10
4.0978397369
 20
46.1238190855
 10
4.0914748844
 20
46.1589628406
 10
4.0811192876
 20
46.1927747428
 10
4.0667690726
 20
46.2253475812
 10
4.0488748812
 20
46.255716216
 10
4.0289142172
 20
46.2822041865
 10
4.0079453076
 20
46.3046500295
 10
3.9864304239
 20
46.3235787091
 10
3.9654430166
 20
46.3389396954
 10
3.9458453364
 20
46.3510062632
 10
3.9277515241
 20
46.3604665981
 10
3.9109780656
 20
46.3679574514
 10
3.895524904
 20
46.3738730173
 10
3.8816498909
 20
46.3784482713
 10
3.8694093559
 20
46.3819544234
  0
LINE
  5
325
100
AcDbEntity
  8
0
100
AcDbLine
 62
7
  6
CONTINUOUS
 10
5.715986
 20
27.3340772657
 11
5.715986
 21
31.5842692657
  0
LINE
  5
326
100
AcDbEntity
  8
0
100
AcDbLine
 62
7
  6
CONTINUOUS
 10
6.554299
 20
30.7979872657
 11
6.554309
 21
29.7637282657
  0
LINE
  5
327
100
AcDbEntity
  8
0
100
AcDbLine
 62
7
  6
CONTINUOUS
 10
7.85
 20
43.9489787034
 11
7.85
 21
43.4579795633
  0
LINE
  5
328
100
AcDbEntity
  8
0
100
AcDbLine
 62
7
  6
CONTINUOUS
 10
8.35
 20
44.3890329722
 11
8.35
 21
43.9489787034
  0
LINE
  5
329
100
AcDbEntity
  8
0
100
AcDbLine
 62
7
  6
CONTINUOUS
 10
9.45
 20
42.1492528521
 11
9.45
 21
41.6547065938
  0
LINE
  5
32A
100
AcDbEntity
  8
0
100
AcDbLine
 62
7
  6
CONTINUOUS
 10
6.566124
 20
28.9774462657
 11
6.566029
 21
27.3340772657
  0
LWPOLYLINE
  5
32B
100
AcDbEntity
  8
0
100
AcDbPolyline
 62
250
  6
CONTINUOUS
 90
12
 70
0
 10
27.9259521159
 20
-36.0424158429
 10
27.6280674597
 20
-35.4521146214
 10
27.2960990583
 20
-34.9154807879
 10
26.9259148128
 20
-34.438261477
 10
26.5092413726
 20
-34.0250363311
 10
26.0443472623
 20
-33.7001802537
 10
25.5360172724
 20
-33.4611754101
 10
24.9980266569
 20
-33.2967706475
 10
24.4495656005
 20
-33.1991413986
 10
23.9053089867
 20
-33.1571199165
 10
23.3548294308
 20
-33.1526683747
 10
22.1601669138
 20
-33.1835495775
  0
LINE
  5
32C
100
AcDbEntity
  8
0
100
AcDbLine
 62
7
  6
CONTINUOUS
 10
-1.500344
 20
27.3340672657
 11
-2.303997
 21
30.1367822657
  0
LINE
  5
32D
100
AcDbEntity
  8
0
100
AcDbLine
 62
7
  6
CONTINUOUS
 10
-1.86901
 20
31.5842582657
 11
-1.075333
 21
28.8163822657
  0
LWPOLYLINE
  5
32E
100
AcDbEntity
  8
RACCORDO
100
AcDbPolyline
 62
7
  6
CONTINUOUS
 90
19
 70
0
 10
11.85
 20
40.7761858505
 10
11.8478693272
 20
40.812086751
 10
11.8417297006
 20
40.846561726
 10
11.8319848211
 20
40.879216473
 10
11.8189247747
 20
40.9100161672
 10
11.8030627015
 20
40.9384191208
 10
11.7854060287
 20
40.9635348142
 10
11.7666918968
 20
40.9853290408
 10
11.747378118
 20
41.0041034553
 10
11.7282722857
 20
41.0198205717
 10
11.7099733048
 20
41.0327135802
 10
11.6926705384
 20
41.0432612149
 10
11.6764828863
 20
41.0518706337
 10
11.6617754096
 20
41.0587567978
 10
11.6484959529
 20
41.0642863621
 10
11.6360201657
 20
41.0689433135
 10
11.6241442312
 20
41.0729380757
 10
11.6131181859
 20
41.0763016251
 10
11.6029478526
 20
41.0791389673
  0
LWPOLYLINE
  5
32F
100
AcDbEntity
  8
RACCORDO
100
AcDbPolyline
 62
7
  6
CONTINUOUS
 90
19
 70
0
 10
10.1
 20
42.6160979591
 10
10.0980070969
 20
42.6507920662
 10
10.0922281186
 20
42.6842867952
 10
10.0829879742
 20
42.7162098185
 10
10.0704880559
 20
42.7465659052
 10
10.0551778453
 20
42.7747643467
 10
10.0380622784
 20
42.7997918378
 10
10.0199139172
 20
42.8215277086
 10
10.0011269299
 20
42.840329989
 10
9.9823700798
 20
42.8562302989
 10
9.9641100067
 20
42.8694816728
 10
9.9466210521
 20
42.8804379931
 10
9.9302179977
 20
42.8893746147
 10
9.9153193684
 20
42.8964949355
 10
9.9018479142
 20
42.9021979758
 10
9.8892764217
 20
42.9069485688
 10
9.877440047
 20
42.9109628863
 10
9.8665663843
 20
42.9142951435
 10
9.8566649279
 20
42.9170615056
  0
LWPOLYLINE
  5
330
100
AcDbEntity
  8
RACCORDO
100
AcDbPolyline
 62
7
  6
CONTINUOUS
 90
19
 70
0
 10
8.35
 20
44.3890329722
 10
8.3481548083
 20
44.4223911341
 10
8.3427596077
 20
44.4548185325
 10
8.334050278
 20
44.4859650612
 10
8.3221246187
 20
44.5158864983
 10
8.3073602175
 20
44.5439262957
 10
8.2907705733
 20
44.5689086046
 10
8.2731551789
 20
44.5906328129
 10
8.2548529672
 20
44.6095057262
 10
8.2364552897
 20
44.6255853205
 10
8.2183771842
 20
44.6391128032
 10
8.2009220808
 20
44.6503796653
 10
8.1844488859
 20
44.6596118471
 10
8.1693354281
 20
44.6670208347
 10
8.1555542536
 20
44.6729788275
 10
8.1427692086
 20
44.6778868418
 10
8.1308888786
 20
44.6819595195
 10
8.1200877699
 20
44.6852898617
 10
8.1103821083
 20
44.6880069203
  0
LINE
  5
331
100
AcDbEntity
  8
0
100
AcDbLine
 62
7
  6
CONTINUOUS
 10
10.1
 20
42.6160979591
 11
10.1
 21
42.1492528521
  0
LINE
  5
332
100
AcDbEntity
  8
0
100
AcDbLine
 62
7
  6
CONTINUOUS
 10
11.35
 20
40.3495270008
 11
11.35
 21
39.8560619509
  0
LINE
  5
333
100
AcDbEntity
  8
0
100
AcDbLine
 62
7
  6
CONTINUOUS
 10
11.85
 20
40.7761858505
 11
11.85
 21
40.3495270008
  0
LINE
  5
334
100
AcDbEntity
  8
0
100
AcDbLine
 62
7
  6
CONTINUOUS
 10
14.0
 20
38.3724358193
 11
14.0
 21
37.3340562657
  0
LINE
  5
335
100
AcDbEntity
  8
0
100
AcDbLine
 62
7
  6
CONTINUOUS
 10
-49.3511826616
 20
13.2831291004
 11
-50.6613281005
 21
13.2831277444
  0
LINE
  5
336
100
AcDbEntity
  8
0
100
AcDbLine
 62
7
  6
CONTINUOUS
 10
49.3511826617
 20
13.2831291004
 11
50.6613649423
 21
13.2831276816
  0
LWPOLYLINE
  5
337
100
AcDbEntity
  8
0
100
AcDbPolyline
 62
250
  6
CONTINUOUS
 90
31
 70
0
 10
28.495930877
 20
-35.7735391284
 10
28.3516699535
 20
-35.4614974055
 10
28.1977258241
 20
-35.1613360995
 10
28.0345266261
 20
-34.8731206524
 10
27.8635461893
 20
-34.5961664839
 10
27.6839554518
 20
-34.3312664594
 10
27.4927021732
 20
-34.0806996826
 10
27.2865039375
 20
-33.8431494118
 10
27.0689868802
 20
-33.6200132596
 10
26.8473213864
 20
-33.4176493364
 10
26.6233211853
 20
-33.2401283357
 10
26.3947702532
 20
-33.0834412226
 10
26.1626892797
 20
-32.9418219915
 10
25.9281711354
 20
-32.8144226295
 10
25.6895442632
 20
-32.7021097187
 10
25.4437358093
 20
-32.6016784104
 10
25.1881511606
 20
-32.5124281171
 10
24.924563672
 20
-32.4350618069
 10
24.6565359922
 20
-32.3684768692
 10
24.3882363808
 20
-32.3137252222
 10
24.1147785023
 20
-32.2697546115
 10
23.8261258431
 20
-32.2323037927
 10
23.5133982817
 20
-32.2012347077
 10
23.1841697005
 20
-32.1766748406
 10
22.853550815
 20
-32.1547674959
 10
22.5250579183
 20
-32.1344842167
 10
22.1952329952
 20
-32.1168664467
 10
21.8695276685
 20
-32.101172286
 10
21.549941483
 20
-32.0871593223
 10
21.2348185847
 20
-32.0750829114
 10
20.9243015534
 20
-32.0649484121
  0
LWPOLYLINE
  5
338
100
AcDbEntity
  8
0
100
AcDbPolyline
 62
250
  6
CONTINUOUS
 90
10
 70
0
 10
27.9259521159
 20
-36.0424158429
 10
28.2288230064
 20
-36.7696597332
 10
28.5044827956
 20
-37.5492278292
 10
28.7446928112
 20
-38.3550111303
 10
28.9574074536
 20
-39.1944216547
 10
29.1479914339
 20
-40.0785742661
 10
29.316864981
 20
-41.0058247924
 10
29.4609336017
 20
-41.9515664455
 10
29.5774040705
 20
-42.8957648231
 10
29.662670823
 20
-43.826126873
  0
LWPOLYLINE
  5
339
100
AcDbEntity
  8
0
100
AcDbPolyline
 62
250
  6
CONTINUOUS
 90
10
 70
0
 10
28.495930877
 20
-35.7735391284
 10
28.8111335221
 20
-36.5933850509
 10
29.1036956821
 20
-37.4389901226
 10
29.3703440056
 20
-38.3096243075
 10
29.6002321214
 20
-39.2066702169
 10
29.7960196355
 20
-40.1270969244
 10
29.9768377224
 20
-41.0636738639
 10
30.1490575612
 20
-42.0136587018
 10
30.30333769
 20
-42.9784287985
 10
30.4378272349
 20
-43.9563499175
  0
LINE
  5
33A
100
AcDbEntity
  8
0
100
AcDbLine
 62
7
  6
CONTINUOUS
 10
4.299259
 20
27.3340772657
 11
4.030914
 21
28.1699042657
  0
LINE
  5
33B
100
AcDbEntity
  8
0
100
AcDbLine
 62
7
  6
CONTINUOUS
 10
3.771622
 20
28.9774352657
 11
3.359659
 21
30.2605532657
  0
LINE
  5
33C
100
AcDbEntity
  8
0
100
AcDbLine
 62
7
  6
CONTINUOUS
 10
3.784701
 20
31.5842692657
 11
5.149302
 21
27.3340672657
  0
LWPOLYLINE
  5
33D
100
AcDbEntity
  8
RACCORDO
100
AcDbPolyline
 62
7
  6
CONTINUOUS
 90
22
 70
0
 10
14.0
 20
38.3724358193
 10
13.9965050021
 20
38.4561345768
 10
13.9860246986
 20
38.5393691341
 10
13.9686026373
 20
38.6215574488
 10
13.9441910494
 20
38.70252403
 10
13.9130042037
 20
38.7812694254
 10
13.8758502065
 20
38.8561081121
 10
13.8329293378
 20
38.9271282325
 10
13.7850024674
 20
38.9934875915
 10
13.734617981
 20
39.0527406578
 10
13.6832237356
 20
39.1047541902
 10
13.631344367
 20
39.1503605759
 10
13.5807201164
 20
39.1893003652
 10
13.5329097152
 20
39.2217308431
 10
13.4878437359
 20
39.2488792441
 10
13.4446340587
 20
39.272092105
 10
13.4032076049
 20
39.2919716843
 10
13.3641570212
 20
39.3087378846
 10
13.3273292663
 20
39.3229118197
 10
13.2927153045
 20
39.3348749355
 10
13.260483344
 20
39.3449034776
 10
13.2306563462
 20
39.353288552
  0
LINE
  5
33E
100
AcDbEntity
  8
RACCORDO
100
AcDbLine
 62
250
  6
CONTINUOUS
 10
34.2500002698
 20
18.0326519506
 11
35.25
 21
18.0326519555
  0
LINE
  5
33F
100
AcDbEntity
  8
RACCORDO
100
AcDbLine
 62
250
  6
CONTINUOUS
 10
-34.2500002698
 20
18.0326519506
 11
-35.25
 21
18.0326519506
  0
LINE
  5
340
100
AcDbEntity
  8
0
100
AcDbLine
 62
250
  6
CONTINUOUS
 10
35.7500301453
 20
18.0340462653
 11
39.14999
 21
18.0341284964
  0
LINE
  5
341
100
AcDbEntity
  8
RACCORDO
100
AcDbLine
 62
250
  6
CONTINUOUS
 10
33.4485956849
 20
18.8340565355
 11
-33.4485956849
 21
18.8340565355
  0
LINE
  5
342
100
AcDbEntity
  8
0
100
AcDbLine
 62
250
  6
CONTINUOUS
 10
-39.14999
 20
18.0341382836
 11
-35.7500301453
 21
18.034046617
  0
LWPOLYLINE
  5
343
100
AcDbEntity
  8
0
100
AcDbPolyline
 62
7
  6
CONTINUOUS
 90
9
 70
0
 10
-8.35
 20
43.9489787034
 10
-8.3477766773
 20
43.9456569079
 10
-8.3305342227
 20
43.9390339007
 10
-8.295942249
 20
43.9324316049
 10
-8.2441078207
 20
43.9258498928
 10
-8.1753521321
 20
43.9193295482
 10
-8.0895701131
 20
43.9128709521
 10
-7.9868668338
 20
43.9064737236
 10
-7.8678786997
 20
43.9001775033
  0
LINE
  5
344
100
AcDbEntity
  8
0
100
AcDbLine
 62
250
  6
CONTINUOUS
 10
20.0000858382
 20
-32.5822253357
 11
20.0000941766
 21
-32.7090687794
  0
LINE
  5
345
100
AcDbEntity
  8
RACCORDO
100
AcDbLine
 62
250
  6
CONTINUOUS
 10
20.0
 20
-45.2659437343
 11
20.0
 21
-45.2243291822
  0
LINE
  5
346
100
AcDbEntity
  8
0
100
AcDbLine
 62
7
  6
CONTINUOUS
 10
19.999988952
 20
-44.0594297534
 11
20.0003136346
 21
-45.2205319909
  0
LINE
  5
347
100
AcDbEntity
  8
0
100
AcDbLine
 62
250
  6
CONTINUOUS
 10
20.0000941766
 20
-32.7090687794
 11
19.9999999991
 21
-44.0594189212
  0
LINE
  5
348
100
AcDbEntity
  8
0
100
AcDbLine
 62
250
  6
CONTINUOUS
 10
20.0002085056
 20
-32.0672981405
 11
20.0000858382
 21
-32.5822253357
  0
LINE
  5
349
100
AcDbEntity
  8
0
100
AcDbLine
 62
7
  6
CONTINUOUS
 10
43.8334172606
 20
30.3134756897
 11
43.6504721591
 21
29.9966054791
  0
LINE
  5
34A
100
AcDbEntity
  8
RACCORDO
100
AcDbLine
 62
7
  6
CONTINUOUS
 10
33.4485956849
 20
19.8340562657
 11
-33.4485956849
 21
19.8340562657
  0
LINE
  5
34B
100
AcDbEntity
  8
0
100
AcDbLine
 62
7
  6
CONTINUOUS
 10
33.4499327548
 20
20.3340562657
 11
-33.4499909593
 21
20.3340562657
  0
LINE
  5
34C
100
AcDbEntity
  8
0
100
AcDbLine
 62
250
  6
CONTINUOUS
 10
33.4498895307
 20
21.9340471594
 11
-33.4498430266
 21
21.9340471552
  0
LINE
  5
34D
100
AcDbEntity
  8
0
100
AcDbLine
 62
250
  6
CONTINUOUS
 10
49.3384016999
 20
22.3085034451
 11
50.6556549322
 21
22.3085235704
  0
LINE
  5
34E
100
AcDbEntity
  8
0
100
AcDbLine
 62
250
  6
CONTINUOUS
 10
-49.3384016999
 20
22.3085034451
 11
-50.6556896944
 21
22.3085196544
  0
LINE
  5
34F
100
AcDbEntity
  8
0
100
AcDbLine
 62
7
  6
CONTINUOUS
 10
4.8448229203
 20
23.7335999762
 11
13.543010292
 21
23.7355385971
  0
LINE
  5
350
100
AcDbEntity
  8
0
100
AcDbLine
 62
7
  6
CONTINUOUS
 10
-33.4497530008
 20
23.7340556114
 11
-29.7729529466
 21
23.7349034766
  0
LINE
  5
351
100
AcDbEntity
  8
0
100
AcDbLine
 62
7
  6
CONTINUOUS
 10
-29.7729529466
 20
23.7349034766
 11
4.8448229203
 21
23.7335999762
  0
LINE
  5
352
100
AcDbEntity
  8
0
100
AcDbLine
 62
7
  6
CONTINUOUS
 10
13.543010292
 20
23.7355385971
 11
33.4497530002
 21
23.7340551673
  0
LWPOLYLINE
  5
353
100
AcDbEntity
  8
0
100
AcDbPolyline
 62
7
  6
CONTINUOUS
 90
8
 70
0
 10
-11.85
 20
40.3495270008
 10
-11.8403533544
 20
40.3412040997
 10
-11.811506744
 20
40.3328811985
 10
-11.7636001581
 20
40.3245986875
 10
-11.6965409508
 20
40.3163567628
 10
-11.6104217681
 20
40.3081552283
 10
-11.5056605365
 20
40.3000338851
 10
-11.3821666418
 20
40.2919931228
  0
LINE
  5
354
100
AcDbEntity
  8
0
100
AcDbLine
 62
7
  6
CONTINUOUS
 10
8.159853
 20
27.3340772657
 11
7.308015
 21
28.9774352657
  0
LINE
  5
355
100
AcDbEntity
  8
0
100
AcDbLine
 62
7
  6
CONTINUOUS
 10
8.2124666114
 20
29.0796619445
 11
9.117283
 21
27.3340882657
  0
LINE
  5
356
100
AcDbEntity
  8
0
100
AcDbLine
 62
7
  6
CONTINUOUS
 10
44.5164975629
 20
29.4966054791
 11
44.6994426643
 21
29.8134756897
  0
LWPOLYLINE
  5
357
100
AcDbEntity
  8
0
100
AcDbPolyline
 62
7
  6
CONTINUOUS
 90
10
 70
0
 10
-33.4499909593
 20
20.3340562657
 10
-33.8560223861
 20
20.2881247805
 10
-34.2318217018
 20
20.1824048106
 10
-34.5773889063
 20
20.0168963561
 10
-34.902572841
 20
19.7817564847
 10
-35.1975246645
 20
19.4868281287
 10
-35.4326978528
 20
19.1616400843
 10
-35.5982435646
 20
18.8160352836
 10
-35.7040106412
 20
18.4401707945
 10
-35.7499990826
 20
18.034046617
  0
LINE
  5
358
100
AcDbEntity
  8
DRAFT
100
AcDbLine
 62
7
  6
CONTINUOUS
 10
49.385617359
 20
26.8340562657
 11
42.55
 21
26.8340562657
  0
LINE
  5
359
100
AcDbEntity
  8
DRAFT
100
AcDbLine
 62
7
  6
CONTINUOUS
 10
-42.55
 20
26.8340562657
 11
-49.3881684087
 21
26.8340562657
  0
LINE
  5
35A
100
AcDbEntity
  8
COPY_PABLISH
100
AcDbLine
 62
7
  6
CONTINUOUS
 10
-49.2
 20
27.1340562657
 11
-42.5
 21
27.1340562657
  0
LINE
  5
35B
100
AcDbEntity
  8
COPY_PABLISH
100
AcDbLine
 62
7
  6
CONTINUOUS
 10
42.5
 20
27.1340562657
 11
49.2
 21
27.1340562657
  0
LINE
  5
35C
100
AcDbEntity
  8
0
100
AcDbLine
 62
7
  6
CONTINUOUS
 10
9.117283
 20
27.3340882657
 11
8.159853
 21
27.3340772657
  0
LINE
  5
35D
100
AcDbEntity
  8
0
100
AcDbLine
 62
7
  6
CONTINUOUS
 10
2.420079
 20
27.3340772657
 11
1.570048
 21
27.3340672657
  0
LINE
  5
35E
100
AcDbEntity
  8
0
100
AcDbLine
 62
7
  6
CONTINUOUS
 10
1.003363
 20
27.3340672657
 11
0.153331
 21
27.3340672657
  0
LINE
  5
35F
100
AcDbEntity
  8
0
100
AcDbLine
 62
7
  6
CONTINUOUS
 10
-2.303997
 20
27.3340672657
 11
-3.154029
 21
27.3340672657
  0
LINE
  5
360
100
AcDbEntity
  8
0
100
AcDbLine
 62
7
  6
CONTINUOUS
 10
6.566029
 20
27.3340772657
 11
5.715986
 21
27.3340772657
  0
LINE
  5
361
100
AcDbEntity
  8
0
100
AcDbLine
 62
7
  6
CONTINUOUS
 10
-0.650333
 20
27.3340772657
 11
-1.500344
 21
27.3340672657
  0
LINE
  5
362
100
AcDbEntity
  8
0
100
AcDbLine
 62
7
  6
CONTINUOUS
 10
-4.00404
 20
27.3340672657
 11
-4.854072
 21
27.3340562657
  0
LINE
  5
363
100
AcDbEntity
  8
0
100
AcDbLine
 62
7
  6
CONTINUOUS
 10
5.149302
 20
27.3340672657
 11
4.299259
 21
27.3340772657
  0
LINE
  5
364
100
AcDbEntity
  8
0
100
AcDbLine
 62
7
  6
CONTINUOUS
 10
-6.785346
 20
27.3340672657
 11
-7.63541
 21
27.3340562657
  0
LINE
  5
365
100
AcDbEntity
  8
0
100
AcDbLine
 62
7
  6
CONTINUOUS
 10
4.030914
 20
28.1699042657
 11
2.688435
 21
28.1699042657
  0
LWPOLYLINE
  5
366
100
AcDbEntity
  8
0
100
AcDbPolyline
 62
7
  6
CONTINUOUS
 90
9
 70
0
 10
-10.1
 20
42.1492528521
 10
-10.0903444761
 20
42.141569018
 10
-10.0614874188
 20
42.1338851839
 10
-10.0135930999
 20
42.1262450909
 10
-9.9465529418
 20
42.1186489883
 10
-9.8604755222
 20
42.1110966268
 10
-9.7558508455
 20
42.1036309989
 10
-9.632573129
 20
42.0962525993
 10
-9.4907481555
 20
42.0889609332
  0
LWPOLYLINE
  5
367
100
AcDbEntity
  8
0
100
AcDbPolyline
 62
7
  6
CONTINUOUS
 90
11
 70
0
 10
-4.1
 20
45.7487045546
 10
-4.098380347
 20
45.7467289336
 10
-4.0859964213
 20
45.7427956006
 10
-4.0611159696
 20
45.7388803394
 10
-4.0238515922
 20
45.7349829872
 10
-3.9745410904
 20
45.7311388734
 10
-3.9130749351
 20
45.7273484822
 10
-3.8395626554
 20
45.7236113293
 10
-3.7546706393
 20
45.7199612922
 10
-3.658295417
 20
45.7163991629
 10
-3.6011013063
 20
45.7145546973
  0
LINE
  5
368
100
AcDbEntity
  8
0
100
AcDbLine
 62
7
  6
CONTINUOUS
 10
28.7
 20
-45.2268274673
 11
28.7
 21
-45.4704468423
  0
LWPOLYLINE
  5
369
100
AcDbEntity
  8
COPY_PABLISH
100
AcDbPolyline
 62
250
  6
CONTINUOUS
 90
13
 70
0
 10
-49.2433068606
 20
31.4329662393
 10
-49.4402649353
 20
31.4290737257
 10
-49.6286658433
 20
31.4241383683
 10
-49.8064419027
 20
31.4182143357
 10
-49.9716420383
 20
31.4113666469
 10
-50.1224531946
 20
31.403670458
 10
-50.2572202338
 20
31.3952102376
 10
-50.3744641006
 20
31.3860788391
 10
-50.4728980548
 20
31.3763764823
 10
-50.5514417932
 20
31.3662096532
 10
-50.609233306
 20
31.3556899355
 10
-50.6456383369
 20
31.3449327856
 10
-50.660257344
 20
31.3340562657
  0
LINE
  5
36A
100
AcDbEntity
  8
0
100
AcDbLine
 62
7
  6
CONTINUOUS
 10
2.947717
 20
28.9774352657
 11
3.771622
 21
28.9774352657
  0
LINE
  5
36B
100
AcDbEntity
  8
0
100
AcDbLine
 62
7
  6
CONTINUOUS
 10
7.308015
 20
28.9774352657
 11
6.566124
 21
28.9774462657
  0
LINE
  5
36C
100
AcDbEntity
  8
0
100
AcDbLine
 62
7
  6
CONTINUOUS
 10
6.554309
 20
29.7637282657
 11
7.588491
 21
29.7637282657
  0
LINE
  5
36D
100
AcDbEntity
  8
0
100
AcDbLine
 62
7
  6
CONTINUOUS
 10
39.8
 20
30.0840562657
 11
40.0
 21
30.0840562657
  0
LINE
  5
36E
100
AcDbEntity
  8
0
100
AcDbLine
 62
7
  6
CONTINUOUS
 10
-39.8
 20
30.0840562657
 11
-40.0
 21
30.0840562657
  0
LINE
  5
36F
100
AcDbEntity
  8
0
100
AcDbLine
 62
7
  6
CONTINUOUS
 10
7.588491
 20
30.7979872657
 11
6.554299
 21
30.7979872657
  0
LINE
  5
370
100
AcDbEntity
  8
0
100
AcDbLine
 62
7
  6
CONTINUOUS
 10
46.4671400751
 20
30.8340562657
 11
46.833030278
 21
30.8340562657
  0
LINE
  5
371
100
AcDbEntity
  8
0
100
AcDbLine
 62
7
  6
CONTINUOUS
 10
-46.4671400751
 20
30.8340562657
 11
-46.833030278
 21
30.8340562657
  0
LINE
  5
372
100
AcDbEntity
  8
0
100
AcDbLine
 62
7
  6
CONTINUOUS
 10
-39.75
 20
30.9840562657
 11
-40.0
 21
30.9840562657
  0
LINE
  5
373
100
AcDbEntity
  8
0
100
AcDbLine
 62
7
  6
CONTINUOUS
 10
39.75
 20
30.9840562657
 11
40.0
 21
30.9840562657
  0
LINE
  5
374
100
AcDbEntity
  8
COPY_PABLISH
100
AcDbLine
 62
250
  6
CONTINUOUS
 10
50.6602573441
 20
31.3340562657
 11
51.0
 21
31.3340562657
  0
LINE
  5
375
100
AcDbEntity
  8
COPY_PABLISH
100
AcDbLine
 62
250
  6
CONTINUOUS
 10
-50.6602573441
 20
31.3340562657
 11
-51.0
 21
31.3340562657
  0
LINE
  5
376
100
AcDbEntity
  8
0
100
AcDbLine
 62
7
  6
CONTINUOUS
 10
-9.0
 20
31.5842582657
 11
-8.149957
 21
31.5842582657
  0
LINE
  5
377
100
AcDbEntity
  8
0
100
AcDbLine
 62
7
  6
CONTINUOUS
 10
-6.270788
 20
31.5842582657
 11
-5.420746
 21
31.5842582657
  0
LINE
  5
378
100
AcDbEntity
  8
0
100
AcDbLine
 62
7
  6
CONTINUOUS
 10
-4.854061
 20
31.5842582657
 11
-4.004029
 21
31.5842582657
  0
LINE
  5
379
100
AcDbEntity
  8
0
100
AcDbLine
 62
7
  6
CONTINUOUS
 10
-3.154029
 20
31.5842582657
 11
-1.86901
 21
31.5842582657
  0
LINE
  5
37A
100
AcDbEntity
  8
0
100
AcDbLine
 62
7
  6
CONTINUOUS
 10
-0.281656
 20
31.5842582657
 11
1.003363
 21
31.5842582657
  0
LINE
  5
37B
100
AcDbEntity
  8
0
100
AcDbLine
 62
7
  6
CONTINUOUS
 10
2.934627
 20
31.5842692657
 11
3.784701
 21
31.5842692657
  0
LINE
  5
37C
100
AcDbEntity
  8
0
100
AcDbLine
 62
7
  6
CONTINUOUS
 10
5.715986
 20
31.5842692657
 11
7.706473
 21
31.5842692657
  0
LINE
  5
37D
100
AcDbEntity
  8
0
100
AcDbLine
 62
7
  6
CONTINUOUS
 10
-46.833030278
 20
31.8340562657
 11
-46.4671400751
 21
31.8340562657
  0
LINE
  5
37E
100
AcDbEntity
  8
0
100
AcDbLine
 62
7
  6
CONTINUOUS
 10
46.833030278
 20
31.8340562657
 11
46.4671400751
 21
31.8340562657
  0
LWPOLYLINE
  5
37F
100
AcDbEntity
  8
COPY_PABLISH
100
AcDbPolyline
 62
250
  6
CONTINUOUS
 90
13
 70
0
 10
49.2433051045
 20
31.4329659401
 10
49.4402610606
 20
31.4290731035
 10
49.6286598108
 20
31.4241374945
 10
49.8064337152
 20
31.418213281
 10
49.9716317394
 20
31.411365481
 10
50.1224408669
 20
31.4036692482
 10
50.2572059967
 20
31.3952090481
 10
50.3744481075
 20
31.3860777303
 10
50.4728804896
 20
31.3763755094
 10
50.5514228666
 20
31.3662088656
 10
50.6092132511
 20
31.3556893762
 10
50.6456174048
 20
31.3449324904
 10
50.6602357991
 20
31.3340562631
  0
LINE
  5
380
100
AcDbEntity
  8
0
100
AcDbLine
 62
250
  6
CONTINUOUS
 10
34.3222361479
 20
36.9698690396
 11
34.3220113694
 21
36.9925822425
  0
LINE
  5
381
100
AcDbEntity
  8
0
100
AcDbLine
 62
250
  6
CONTINUOUS
 10
33.4499343719
 20
20.3340916695
 11
33.4499142772
 21
20.3362676171
  0
LWPOLYLINE
  5
382
100
AcDbEntity
  8
0
100
AcDbPolyline
 62
250
  6
CONTINUOUS
 90
3
 70
0
 10
33.8362120204
 20
-45.2375874551
 10
33.8367632499
 20
-45.3001800704
 10
33.8375354101
 20
-45.3244357475
  0
LINE
  5
383
100
AcDbEntity
  8
0
100
AcDbLine
 62
250
  6
CONTINUOUS
 10
33.8349976164
 20
-43.9175925503
 11
33.8362120204
 21
-45.2375874551
  0
LINE
  5
384
100
AcDbEntity
  8
RACCORDO
100
AcDbLine
 62
250
  6
CONTINUOUS
 10
33.4485956849
 20
18.8340565355
 11
33.4485956849
 21
19.8340562657
  0
LINE
  5
385
100
AcDbEntity
  8
RACCORDO
100
AcDbLine
 62
250
  6
CONTINUOUS
 10
33.4485999419
 20
-27.1659440063
 11
33.4485999468
 21
-28.1659437343
  0
LINE
  5
386
100
AcDbEntity
  8
RACCORDO
100
AcDbLine
 62
250
  6
CONTINUOUS
 10
34.250000272
 20
-26.3645436762
 11
34.2500002698
 21
18.0326519506
  0
LINE
  5
387
100
AcDbEntity
  8
RACCORDO
100
AcDbLine
 62
7
  6
CONTINUOUS
 10
35.25
 20
-26.3645436762
 11
35.25
 21
18.0326519506
  0
LINE
  5
388
100
AcDbEntity
  8
0
100
AcDbLine
 62
7
  6
CONTINUOUS
 10
35.7499972186
 20
-26.3659437272
 11
35.7499990826
 21
18.0340462653
  0
LINE
  5
389
100
AcDbEntity
  8
0
100
AcDbLine
 62
250
  6
CONTINUOUS
 10
37.3499903976
 20
-26.3659415665
 11
37.3499907301
 21
18.0340425597
  0
LINE
  5
38A
100
AcDbEntity
  8
0
100
AcDbLine
 62
250
  6
CONTINUOUS
 10
33.4500714022
 20
-32.0659437343
 11
33.4498530014
 21
-29.3097117783
  0
LINE
  5
38B
100
AcDbEntity
  8
0
100
AcDbLine
 62
250
  6
CONTINUOUS
 10
33.4498530014
 20
-29.3097117783
 11
33.4498678204
 21
-28.6659791381
  0
LINE
  5
38C
100
AcDbEntity
  8
0
100
AcDbLine
 62
250
  6
CONTINUOUS
 10
33.4499142772
 20
20.3362676171
 11
33.4497530002
 21
23.7340551673
  0
LWPOLYLINE
  5
38D
100
AcDbEntity
  8
0
100
AcDbPolyline
 62
250
  6
CONTINUOUS
 90
3
 70
0
 10
34.3220099317
 20
35.5770387003
 10
34.3218608121
 20
36.4972153752
 10
34.3222361479
 20
36.9698690396
  0
LWPOLYLINE
  5
38E
100
AcDbEntity
  8
0
100
AcDbPolyline
 62
250
  6
CONTINUOUS
 90
10
 70
0
 10
30.4313587975
 20
-43.9561901614
 10
30.4139488519
 20
-44.1995254612
 10
30.3910245602
 20
-44.4298241277
 10
30.3628296731
 20
-44.6433370851
 10
30.3292795889
 20
-44.837911686
 10
30.2910008136
 20
-45.0066715054
 10
30.2497380322
 20
-45.1411484974
 10
30.206676439
 20
-45.2388226266
 10
30.1620396274
 20
-45.2999608208
 10
30.1164142406
 20
-45.3235134918
  0
LWPOLYLINE
  5
38F
100
AcDbEntity
  8
0
100
AcDbPolyline
 62
250
  6
CONTINUOUS
 90
10
 70
0
 10
29.662670823
 20
-43.826126873
 10
29.6345571049
 20
-44.0302646238
 10
29.5836612643
 20
-44.2288235865
 10
29.5104216539
 20
-44.4194702717
 10
29.4150767547
 20
-44.6003104152
 10
29.2987545537
 20
-44.7677387311
 10
29.1641711015
 20
-44.9171148172
 10
29.0137502167
 20
-45.0454396162
 10
28.8489402252
 20
-45.1506655333
 10
28.6717746861
 20
-45.2300376837
  0
LINE
  5
390
100
AcDbEntity
  8
0
100
AcDbLine
 62
250
  6
CONTINUOUS
 10
-29.9969531956
 20
-43.9446539644
 11
-30.0504540822
 21
-43.9606974361
  0
LWPOLYLINE
  5
391
100
AcDbEntity
  8
COPY_PABLISH
100
AcDbPolyline
 62
7
  6
CONTINUOUS
 90
16
 70
0
 10
-49.3153080964
 20
27.1113239315
 10
-49.4573730472
 20
27.0800029381
 10
-49.5946778779
 20
27.0422215451
 10
-49.7272225886
 20
26.9979797525
 10
-49.8562401997
 20
26.9469819889
 10
-49.9804976908
 20
26.8895238258
 10
-50.0962959999
 20
26.8264919774
 10
-50.2031728685
 20
26.7579756842
 10
-50.3015905551
 20
26.6838857059
 10
-50.3892367738
 20
26.6048410353
 10
-50.4663020584
 20
26.5201732635
 10
-50.5325958751
 20
26.4305507996
 10
-50.585234336
 20
26.3385978636
 10
-50.6232561452
 20
26.2451891958
 10
-50.6476225987
 20
26.1494500559
 10
-50.6583336965
 20
26.0513804441
  0
LWPOLYLINE
  5
392
100
AcDbEntity
  8
COPY_PABLISH
100
AcDbPolyline
 62
7
  6
CONTINUOUS
 90
3
 70
0
 10
-49.2
 20
27.1339723429
 10
-49.219115986
 20
27.1302618468
 10
-49.3153080964
 20
27.1113239315
  0
LWPOLYLINE
  5
393
100
AcDbEntity
  8
COPY_PABLISH
100
AcDbPolyline
 62
250
  6
CONTINUOUS
 90
3
 70
0
 10
-44.0300727112
 20
35.53817263
 10
-44.5679701267
 20
35.5306243863
 10
-45.0936657545
 20
35.5188543318
  0
LINE
  5
394
100
AcDbEntity
  8
COPY_PABLISH
100
AcDbLine
 62
250
  6
CONTINUOUS
 10
-42.3610389902
 20
35.5534990311
 11
-44.0300727112
 21
35.53817263
  0
LINE
  5
395
100
AcDbEntity
  8
ASSI
100
AcDbLine
 62
250
  6
CONTINUOUS
 10
-39.7500000627
 20
35.5552082246
 11
-36.1398341823
 21
35.5716374041
  0
LWPOLYLINE
  5
396
100
AcDbEntity
  8
ASSI
100
AcDbPolyline
 62
250
  6
CONTINUOUS
 90
3
 70
0
 10
-36.1398341823
 20
35.5716374041
 10
-35.2218084138
 20
35.5749695617
 10
-34.3220099317
 20
35.5770387003
  0
LWPOLYLINE
  5
397
100
AcDbEntity
  8
COPY_PABLISH
100
AcDbPolyline
 62
250
  6
CONTINUOUS
 90
3
 70
0
 10
-40.0000749004
 20
35.5638777232
 10
-41.7856162785
 20
35.5571600918
 10
-42.3610389902
 20
35.5534990311
  0
LINE
  5
398
100
AcDbEntity
  8
COPY_PABLISH
100
AcDbLine
 62
250
  6
CONTINUOUS
 10
45.0
 20
36.9943390766
 11
43.9657362504
 21
36.993625838
  0
LINE
  5
399
100
AcDbEntity
  8
COPY_PABLISH
100
AcDbLine
 62
250
  6
CONTINUOUS
 10
43.9657362504
 20
36.993625838
 11
42.8866489548
 21
36.9931172653
  0
LINE
  5
39A
100
AcDbEntity
  8
0
100
AcDbLine
 62
250
  6
CONTINUOUS
 10
0.0000000587
 20
35.5838957717
 11
-34.3220099317
 21
35.5770387003
  0
LINE
  5
39B
100
AcDbEntity
  8
0
100
AcDbLine
 62
7
  6
CONTINUOUS
 10
-39.75
 20
34.0840562657
 11
-40.0
 21
34.0840562657
  0
LINE
  5
39C
100
AcDbEntity
  8
0
100
AcDbLine
 62
7
  6
CONTINUOUS
 10
39.75
 20
34.0840562657
 11
40.0
 21
34.0840562657
  0
LINE
  5
39D
100
AcDbEntity
  8
ASSI
100
AcDbLine
 62
7
  6
CONTINUOUS
 10
-40.0
 20
35.1040562657
 11
-39.75
 21
35.1040562657
  0
LINE
  5
39E
100
AcDbEntity
  8
ASSI
100
AcDbLine
 62
7
  6
CONTINUOUS
 10
39.75
 20
35.1040562657
 11
40.0
 21
35.1040562657
  0
LINE
  5
39F
100
AcDbEntity
  8
0
100
AcDbLine
 62
7
  6
CONTINUOUS
 10
-40.0
 20
36.8571404216
 11
-39.75
 21
36.8571404216
  0
LINE
  5
3A0
100
AcDbEntity
  8
0
100
AcDbLine
 62
7
  6
CONTINUOUS
 10
39.75
 20
36.8571404216
 11
40.0
 21
36.8571404216
  0
LINE
  5
3A1
100
AcDbEntity
  8
COPY_PABLISH
100
AcDbLine
 62
250
  6
CONTINUOUS
 10
42.8866489548
 20
36.9931172653
 11
40.0
 21
36.9925131104
  0
LINE
  5
3A2
100
AcDbEntity
  8
ASSI
100
AcDbLine
 62
250
  6
CONTINUOUS
 10
34.3220099989
 20
36.9925453877
 11
39.7499999999
 21
36.9934088406
  0
LINE
  5
3A3
100
AcDbEntity
  8
0
100
AcDbLine
 62
7
  6
CONTINUOUS
 10
-34.322009999
 20
36.9925453905
 11
0.0
 21
36.9930725817
  0
LINE
  5
3A4
100
AcDbEntity
  8
0
100
AcDbLine
 62
7
  6
CONTINUOUS
 10
0.0
 20
36.9930725817
 11
34.3220099989
 21
36.9925453877
  0
LINE
  5
3A5
100
AcDbEntity
  8
0
100
AcDbLine
 62
7
  6
CONTINUOUS
 10
-39.75
 20
37.0896849761
 11
39.75
 21
37.0896849761
  0
LINE
  5
3A6
100
AcDbEntity
  8
0
100
AcDbLine
 62
7
  6
CONTINUOUS
 10
-40.0
 20
37.1071404216
 11
40.0
 21
37.1071404216
  0
LINE
  5
3A7
100
AcDbEntity
  8
COPY_PABLISH
100
AcDbLine
 62
7
  6
CONTINUOUS
 10
-45.0
 20
37.3340562657
 11
45.0
 21
37.3340562657
  0
LINE
  5
3A8
100
AcDbEntity
  8
0
100
AcDbLine
 62
7
  6
CONTINUOUS
 10
45.0
 20
37.3340562657
 11
-45.0
 21
37.3340562657
  0
LINE
  5
3A9
100
AcDbEntity
  8
0
100
AcDbLine
 62
250
  6
CONTINUOUS
 10
34.3220099317
 20
35.5770387003
 11
-0.0000000587
 21
35.5838957717
  0
LINE
  5
3AA
100
AcDbEntity
  8
ASSI
100
AcDbLine
 62
250
  6
CONTINUOUS
 10
-39.7499999999
 20
36.9929148669
 11
-34.322009999
 21
36.9925453905
  0
LINE
  5
3AB
100
AcDbEntity
  8
ASSI
100
AcDbLine
 62
250
  6
CONTINUOUS
 10
34.3220099317
 20
35.5770387003
 11
36.1356469767
 21
35.5765801999
  0
LINE
  5
3AC
100
AcDbEntity
  8
COPY_PABLISH
100
AcDbLine
 62
250
  6
CONTINUOUS
 10
-40.0
 20
36.9925133216
 11
-45.0
 21
36.9943390766
  0
LWPOLYLINE
  5
3AD
100
AcDbEntity
  8
ASSI
100
AcDbPolyline
 62
250
  6
CONTINUOUS
 90
4
 70
0
 10
36.1356469767
 20
35.5765801999
 10
38.0344519791
 20
35.5741910084
 10
38.9287991423
 20
35.5718757034
 10
39.750000414
 20
35.5678234934
  0
LWPOLYLINE
  5
3AE
100
AcDbEntity
  8
COPY_PABLISH
100
AcDbPolyline
 62
250
  6
CONTINUOUS
 90
3
 70
0
 10
41.7814423612
 20
35.5571854532
 10
40.6005751978
 20
35.5610313406
 10
40.0000759904
 20
35.5638514411
  0
LWPOLYLINE
  5
3AF
100
AcDbEntity
  8
COPY_PABLISH
100
AcDbPolyline
 62
250
  6
CONTINUOUS
 90
3
 70
0
 10
44.0282251341
 20
35.5382073847
 10
42.356971473
 20
35.553536898
 10
41.7814423612
 20
35.5571854532
  0
LWPOLYLINE
  5
3B0
100
AcDbEntity
  8
COPY_PABLISH
100
AcDbPolyline
 62
250
  6
CONTINUOUS
 90
3
 70
0
 10
45.0936657545
 20
35.5188543318
 10
44.5670132223
 20
35.530655729
 10
44.0282251341
 20
35.5382073847
  0
LINE
  5
3B1
100
AcDbEntity
  8
COPY_PABLISH
100
AcDbLine
 62
7
  6
CONTINUOUS
 10
49.2
 20
27.1340562657
 11
49.3153080938
 21
27.1113239323
  0
LWPOLYLINE
  5
3B2
100
AcDbEntity
  8
0
100
AcDbPolyline
 62
7
  6
CONTINUOUS
 90
10
 70
0
 10
35.7499990826
 20
18.0340462653
 10
35.7040333987
 20
18.4401135635
 10
35.5982841184
 20
18.8159396262
 10
35.4327512417
 20
19.1615244534
 10
35.1975890539
 20
19.4867166085
 10
34.9026432696
 20
19.781667528
 10
34.5774510331
 20
20.0168315225
 10
34.2318580592
 20
20.1823600287
 10
33.8560186331
 20
20.2881016097
 10
33.4499327548
 20
20.3340562657
  0
LWPOLYLINE
  5
3B3
100
AcDbEntity
  8
0
100
AcDbPolyline
 62
250
  6
CONTINUOUS
 90
10
 70
0
 10
36.39375
 20
18.0340462657
 10
36.348518871
 20
18.5228899815
 10
36.2133021157
 20
19.0011620366
 10
35.9911611791
 20
19.4572388133
 10
35.6847802078
 20
19.8835996029
 10
35.3064098695
 20
20.2629772168
 10
34.8800990031
 20
20.5710619536
 10
34.4229151769
 20
20.7951244827
 10
33.9423012401
 20
20.9319282029
 10
33.4499201069
 20
20.9778191783
  0
LWPOLYLINE
  5
3B4
100
AcDbEntity
  8
0
100
AcDbPolyline
 62
250
  6
CONTINUOUS
 90
10
 70
0
 10
37.3499926555
 20
18.0340425596
 10
37.2906073465
 20
18.7110600594
 10
37.114606498
 20
19.3675671945
 10
36.8272886798
 20
19.9836314857
 10
36.4372875575
 20
20.5405883482
 10
35.95643099
 20
21.0214293737
 10
35.3994737192
 20
21.4114051578
 10
34.783427746
 20
21.6986949218
 10
34.1269588968
 20
21.8746733726
 10
33.4499980395
 20
21.9340504288
  0
LINE
  5
3B5
100
AcDbEntity
  8
0
100
AcDbLine
 62
7
  6
CONTINUOUS
 10
39.14999
 20
18.0341284964
 11
39.14999
 21
-4.1659437343
  0
LINE
  5
3B6
100
AcDbEntity
  8
0
100
AcDbLine
 62
250
  6
CONTINUOUS
 10
39.14999
 20
-4.1659437343
 11
39.14999
 21
-26.3658489765
  0
LINE
  5
3B7
100
AcDbEntity
  8
0
100
AcDbLine
 62
7
  6
CONTINUOUS
 10
39.75
 20
37.0896849761
 11
39.7499999999
 21
36.9934088406
  0
LINE
  5
3B8
100
AcDbEntity
  8
ASSI
100
AcDbLine
 62
7
  6
CONTINUOUS
 10
39.75
 20
29.6340562657
 11
39.75
 21
36.9934056138
  0
LINE
  5
3B9
100
AcDbEntity
  8
0
100
AcDbLine
 62
7
  6
CONTINUOUS
 10
39.8
 20
30.0840562657
 11
39.8
 21
30.9840562657
  0
LINE
  5
3BA
100
AcDbEntity
  8
COPY_PABLISH
100
AcDbLine
 62
7
  6
CONTINUOUS
 10
40.0
 20
29.6340562657
 11
40.0
 21
36.9925241051
  0
LINE
  5
3BB
100
AcDbEntity
  8
0
100
AcDbLine
 62
7
  6
CONTINUOUS
 10
40.0
 20
36.9925131104
 11
40.0
 21
37.1071404216
  0
LINE
  5
3BC
100
AcDbEntity
  8
RACCORDO
100
AcDbLine
 62
7
  6
CONTINUOUS
 10
41.0
 20
27.6340562657
 11
41.0
 21
27.3025052205
  0
LINE
  5
3BD
100
AcDbEntity
  8
0
100
AcDbLine
 62
250
  6
CONTINUOUS
 10
39.2928006522
 20
-43.9000661351
 11
39.291498835
 21
-45.3245704057
  0
LWPOLYLINE
  5
3BE
100
AcDbEntity
  8
DRAFT
100
AcDbPolyline
 62
7
  6
CONTINUOUS
 90
40
 70
0
 10
41.5074242737
 20
31.3340562657
 10
41.5220038927
 20
31.6418085981
 10
41.5636578359
 20
31.946943283
 10
41.6320338018
 20
32.2470829237
 10
41.7271977279
 20
32.5415387968
 10
41.8480444081
 20
32.8262648256
 10
41.9908760751
 20
33.0944981849
 10
42.1534538173
 20
33.344993339
 10
42.3333689433
 20
33.5765308969
 10
42.5242179299
 20
33.7842696894
 10
42.7205031124
 20
33.9667325794
 10
42.9212714879
 20
34.1269998656
 10
43.1266509728
 20
34.267865764
 10
43.33373365
 20
34.3895031436
 10
43.5415650298
 20
34.4933542094
 10
43.7544883033
 20
34.5826347622
 10
43.9711456158
 20
34.6571175882
 10
44.1908185447
 20
34.7168935231
 10
44.4197793324
 20
34.7632120491
 10
44.6581083585
 20
34.7947747814
 10
44.9039881099
 20
34.8100107288
 10
45.1610304712
 20
34.8073690428
 10
45.4306901499
 20
34.784136793
 10
45.7082285297
 20
34.7378803853
 10
45.9876378378
 20
34.667451927
 10
46.2668678347
 20
34.5716005175
 10
46.5430678274
 20
34.4494330494
 10
46.8093348966
 20
34.3027284893
 10
47.0625127994
 20
34.1327861034
 10
47.3013331297
 20
33.9400007351
 10
47.5225182386
 20
33.7265856264
 10
47.7246920653
 20
33.4935615973
 10
47.9056493759
 20
33.2431681554
 10
48.0621339763
 20
32.9805826933
 10
48.1938208726
 20
32.7079251151
 10
48.3002754561
 20
32.4279455677
 10
48.3803976288
 20
32.1477161602
 10
48.4353385864
 20
31.8713457078
 10
48.4671586592
 20
31.5994932687
 10
48.47755303
 20
31.3340562657
  0
LWPOLYLINE
  5
3BF
100
AcDbEntity
  8
0
100
AcDbPolyline
 62
250
  6
CONTINUOUS
 90
73
 70
0
 10
39.1499944635
 20
-26.3658489776
 10
39.1436189048
 20
-26.4964140742
 10
39.1354855549
 20
-26.6256942439
 10
39.1256710868
 20
-26.7537079076
 10
39.1143848887
 20
-26.8805601411
 10
39.1015582129
 20
-27.0061943083
 10
39.0868633588
 20
-27.1303619968
 10
39.0706719588
 20
-27.2532175233
 10
39.0527695504
 20
-27.3746195433
 10
39.0320127533
 20
-27.4937714877
 10
39.0079819497
 20
-27.6099992634
 10
38.9813781178
 20
-27.7238166667
 10
38.9527270761
 20
-27.8361631872
 10
38.9222373605
 20
-27.9471945184
 10
38.8898269045
 20
-28.0567030469
 10
38.8554975295
 20
-28.1651102769
 10
38.8193328356
 20
-28.2723971805
 10
38.7813283219
 20
-28.3785309156
 10
38.7413018627
 20
-28.4838988258
 10
38.6993327043
 20
-28.5883346759
 10
38.6553784493
 20
-28.6919335907
 10
38.6090034124
 20
-28.7954381625
 10
38.5602256897
 20
-28.8987103672
 10
38.5089735069
 20
-29.0017627555
 10
38.4545710452
 20
-29.1054992193
 10
38.396918563
 20
-29.20985064
 10
38.335946362
 20
-29.3146638377
 10
38.2709129751
 20
-29.4206315494
 10
38.2013961107
 20
-29.5279784403
 10
38.1275390849
 20
-29.6361195332
 10
38.0494259036
 20
-29.7444918025
 10
37.9666801322
 20
-29.8531418028
 10
37.8794816587
 20
-29.96163269
 10
37.7888587058
 20
-30.0687566986
 10
37.6947949198
 20
-30.1743606321
 10
37.5973036627
 20
-30.2783466172
 10
37.4976048928
 20
-30.3797553289
 10
37.3958979218
 20
-30.4785198719
 10
37.2921241712
 20
-30.5746419083
 10
37.1872338164
 20
-30.667420885
 10
37.0814181754
 20
-30.756882995
 10
36.9747189987
 20
-30.8430769682
 10
36.8679529537
 20
-30.9254538942
 10
36.7614421731
 20
-31.0040128897
 10
36.6551590622
 20
-31.0789512069
 10
36.5494498208
 20
-31.1500845032
 10
36.4448030333
 20
-31.2173949471
 10
36.3410218533
 20
-31.2811455173
 10
36.2374254074
 20
-31.3415381539
 10
36.1342073773
 20
-31.3985942497
 10
36.0314090803
 20
-31.4524354875
 10
35.928094216
 20
-31.5033028788
 10
35.824291069
 20
-31.5511706972
 10
35.7201620922
 20
-31.5960908866
 10
35.6149429219
 20
-31.6383106676
 10
35.5085807644
 20
-31.6776848545
 10
35.4012909311
 20
-31.7142956239
 10
35.2926659965
 20
-31.7486550859
 10
35.1827033223
 20
-31.7806697415
 10
35.0715101756
 20
-31.8103259464
 10
34.9587770674
 20
-31.8382070996
 10
34.8445130699
 20
-31.8642296162
 10
34.7287497669
 20
-31.8883300129
 10
34.6111370214
 20
-31.9110770911
 10
34.491643638
 20
-31.9323294049
 10
34.3702776352
 20
-31.9520262419
 10
34.2466625279
 20
-31.9708085647
 10
34.1207181679
 20
-31.9884744985
 10
33.9924192486
 20
-32.004953738
 10
33.8613609177
 20
-32.0210316294
 10
33.7273030966
 20
-32.036839129
 10
33.5902434885
 20
-32.051876659
 10
33.4500714023
 20
-32.0659461496
  0
LWPOLYLINE
  5
3C0
100
AcDbEntity
  8
0
100
AcDbPolyline
 62
250
  6
CONTINUOUS
 90
10
 70
0
 10
29.8499769246
 20
-43.9139654233
 10
29.8032497014
 20
-44.1245291614
 10
29.73272992
 20
-44.3269849547
 10
29.6391570099
 20
-44.5188153403
 10
29.5226124246
 20
-44.6984642854
 10
29.3849208103
 20
-44.8614808543
 10
29.2308836091
 20
-45.0019531897
 10
29.0642445982
 20
-45.1172316605
 10
28.8864703561
 20
-45.2064828915
 10
28.6999977989
 20
-45.2678595045
  0
LWPOLYLINE
  5
3C1
100
AcDbEntity
  8
0
100
AcDbPolyline
 62
250
  6
CONTINUOUS
 90
10
 70
0
 10
30.1612176255
 20
-43.9715515301
 10
30.1036471011
 20
-44.2125866343
 10
30.0244014905
 20
-44.4402891039
 10
29.924850374
 20
-44.6509546157
 10
29.805166556
 20
-44.8425436558
 10
29.6681904999
 20
-45.0082065371
 10
29.5209738313
 20
-45.1395269399
 10
29.3684159471
 20
-45.2342324946
 10
29.2117453723
 20
-45.292919468
 10
29.05347
 20
-45.3148667172
  0
LWPOLYLINE
  5
3C2
100
AcDbEntity
  8
RACCORDO
100
AcDbPolyline
 62
7
  6
CONTINUOUS
 90
22
 70
0
 10
-13.2306563456
 20
39.3532885522
 10
-13.2611312349
 20
39.3447120053
 10
-13.2940463617
 20
39.3344382378
 10
-13.3293788913
 20
39.322162996
 10
-13.3670342718
 20
39.307564959
 10
-13.4069372391
 20
39.2902724482
 10
-13.449011005
 20
39.2698592503
 10
-13.4926535491
 20
39.2461295635
 10
-13.5379562718
 20
39.2184910433
 10
-13.5856461896
 20
39.1857291142
 10
-13.6357848008
 20
39.1466963407
 10
-13.6868999927
 20
39.1012759285
 10
-13.7372726449
 20
39.0498407725
 10
-13.786285585
 20
38.9918515687
 10
-13.8328146155
 20
38.9273014615
 10
-13.874823424
 20
38.857972442
 10
-13.9115414517
 20
38.7845359542
 10
-13.9426473572
 20
38.7069263285
 10
-13.9673756276
 20
38.6263001383
 10
-13.985331715
 20
38.543428272
 10
-13.9962947756
 20
38.4586106062
 10
-14.0
 20
38.3724358193
  0
LINE
  5
3C3
100
AcDbEntity
  8
0
100
AcDbLine
 62
7
  6
CONTINUOUS
 10
-11.325891767
 20
39.8625070297
 11
-13.2306563404
 21
39.3532885536
  0
LWPOLYLINE
  5
3C4
100
AcDbEntity
  8
DRAFT
100
AcDbPolyline
 62
7
  6
CONTINUOUS
 90
13
 70
0
 10
-49.3881684087
 20
26.8340562657
 10
-49.5415859312
 20
26.7943468728
 10
-49.689666876
 20
26.7455063454
 10
-49.8324112429
 20
26.6875346835
 10
-49.9715981208
 20
26.6204569711
 10
-50.1054484208
 20
26.5442481242
 10
-50.2286248767
 20
26.458832891
 10
-50.3421146724
 20
26.3640247029
 10
-50.4449306239
 20
26.2600101283
 10
-50.5287739131
 20
26.1472736208
 10
-50.590878267
 20
26.0259766646
 10
-50.6340099584
 20
25.8959577755
 10
-50.6581689874
 20
25.7572169533
  0
LWPOLYLINE
  5
3C5
100
AcDbEntity
  8
RACCORDO
100
AcDbPolyline
 62
250
  6
CONTINUOUS
 90
10
 70
0
 10
-13.2306563396
 20
39.3532885538
 10
-13.1728741175
 20
39.3645189021
 10
-13.0907544712
 20
39.3749410858
 10
-12.9814686333
 20
39.3852964344
 10
-12.844996965
 20
39.3955751922
 10
-12.6816642906
 20
39.4057435594
 10
-12.492091023
 20
39.4157628332
 10
-12.2769960466
 20
39.4256015235
 10
-12.0366908881
 20
39.4352510964
 10
-11.771274175
 20
39.4447076608
  0
LINE
  5
3C6
100
AcDbEntity
  8
0
100
AcDbLine
 62
7
  6
CONTINUOUS
 10
11.3821666418
 20
40.2919931228
 11
11.3533127925
 21
40.2903771127
  0
LWPOLYLINE
  5
3C7
100
AcDbEntity
  8
COPY_PABLISH
100
AcDbPolyline
 62
250
  6
CONTINUOUS
 90
25
 70
0
 10
-45.0936657545
 20
35.5188543318
 10
-45.3244260746
 20
35.5059974318
 10
-45.5651378092
 20
35.4774692237
 10
-45.8132205991
 20
35.4320486846
 10
-46.0654564781
 20
35.3666086894
 10
-46.3193521517
 20
35.2811124704
 10
-46.5736352766
 20
35.1787691997
 10
-46.8264904661
 20
35.0562138848
 10
-47.0743707805
 20
34.9123093676
 10
-47.3151451172
 20
34.7540972534
 10
-47.5494164542
 20
34.5799902359
 10
-47.7742551329
 20
34.3870916804
 10
-47.9854866121
 20
34.1824316148
 10
-48.1867633369
 20
33.9663103852
 10
-48.3759915808
 20
33.7362023147
 10
-48.5443631125
 20
33.4988842765
 10
-48.6947144344
 20
33.2585844538
 10
-48.8295700776
 20
33.0145020768
 10
-48.9423581514
 20
32.7700900021
 10
-49.033766384
 20
32.5308453873
 10
-49.1082930491
 20
32.2979442588
 10
-49.165335302
 20
32.0696298652
 10
-49.2055909768
 20
31.8469696579
 10
-49.2312133537
 20
31.6339934946
 10
-49.2433038637
 20
31.4329657297
  0
LINE
  5
3C8
100
AcDbEntity
  8
0
100
AcDbLine
 62
7
  6
CONTINUOUS
 10
9.4907481555
 20
42.0889609332
 11
9.45278323
 21
42.0872565553
  0
LWPOLYLINE
  5
3C9
100
AcDbEntity
  8
0
100
AcDbPolyline
 62
7
  6
CONTINUOUS
 90
9
 70
0
 10
-10.4631467705
 20
39.9263641057
 10
-10.6381505807
 20
39.9186499821
 10
-10.7944914599
 20
39.9108147268
 10
-10.9318951332
 20
39.9028720856
 10
-11.0501205476
 20
39.8948359926
 10
-11.1489602958
 20
39.8867205459
 10
-11.2282409791
 20
39.8785399826
 10
-11.2878235124
 20
39.8703086543
 10
-11.325891767
 20
39.8625070297
  0
LWPOLYLINE
  5
3CA
100
AcDbEntity
  8
0
100
AcDbPolyline
 62
7
  6
CONTINUOUS
 90
11
 70
0
 10
-10.4629906256
 20
40.4262920789
 10
-10.6381985749
 20
40.4185689568
 10
-10.7944914599
 20
40.4107385744
 10
-10.9317698467
 20
40.4028003678
 10
-11.0501331693
 20
40.3947549008
 10
-11.1489602958
 20
40.3866443935
 10
-11.2281485271
 20
40.3784685038
 10
-11.2878005625
 20
40.3702275738
 10
-11.3276033677
 20
40.3619648491
 10
-11.3474525979
 20
40.3536802151
 10
-11.35
 20
40.3495270008
  0
LWPOLYLINE
  5
3CB
100
AcDbEntity
  8
0
100
AcDbPolyline
 62
7
  6
CONTINUOUS
 90
11
 70
0
 10
-10.9018147128
 20
40.4305855454
 10
-11.0799424758
 20
40.4228631979
 10
-11.2400306983
 20
40.4150214498
 10
-11.3821666418
 20
40.4070608788
 10
-11.5056605365
 20
40.3990201165
 10
-11.6104217681
 20
40.3908987733
 10
-11.6965409508
 20
40.3826972388
 10
-11.7636001581
 20
40.3744553141
 10
-11.811506744
 20
40.3661728031
 10
-11.8403533544
 20
40.357849902
 10
-11.85
 20
40.3495270008
  0
LWPOLYLINE
  5
3CC
100
AcDbEntity
  8
0
100
AcDbPolyline
 62
7
  6
CONTINUOUS
 90
9
 70
0
 10
-8.5796999378
 20
41.7184617931
 10
-8.7511018233
 20
41.7115749563
 10
-8.904365714
 20
41.7045591052
 10
-9.039173947
 20
41.6974287813
 10
-9.1552471117
 20
41.6901987633
 10
-9.2523446286
 20
41.6828840365
 10
-9.3302652484
 20
41.6754997617
 10
-9.3888474687
 20
41.668061244
 10
-9.4299275065
 20
41.6600727607
  0
LINE
  5
3CD
100
AcDbEntity
  8
0
100
AcDbLine
 62
7
  6
CONTINUOUS
 10
-10.0584106243
 20
39.9413750617
 11
-10.4631467705
 21
39.9263641057
  0
LINE
  5
3CE
100
AcDbEntity
  8
0
100
AcDbLine
 62
7
  6
CONTINUOUS
 10
-10.0584932341
 20
40.4412941799
 11
-10.4629906256
 21
40.4262920789
  0
LINE
  5
3CF
100
AcDbEntity
  8
0
100
AcDbLine
 62
7
  6
CONTINUOUS
 10
-10.492653904
 20
40.4456368723
 11
-10.9018147128
 21
40.4305855454
  0
LINE
  5
3D0
100
AcDbEntity
  8
0
100
AcDbLine
 62
7
  6
CONTINUOUS
 10
-8.1839400658
 20
41.7317916249
 11
-8.5796999378
 21
41.7184617931
  0
LWPOLYLINE
  5
3D1
100
AcDbEntity
  8
COPY_PABLISH
100
AcDbPolyline
 62
250
  6
CONTINUOUS
 90
25
 70
0
 10
-45.0
 20
36.9943390766
 10
-45.3475982658
 20
36.983819692
 10
-45.7026680432
 20
36.9508454492
 10
-46.0636373075
 20
36.8938865239
 10
-46.4304891847
 20
36.8110263825
 10
-46.7993994165
 20
36.7011494034
 10
-47.163092727
 20
36.5651516786
 10
-47.5189972531
 20
36.4033294682
 10
-47.8657734986
 20
36.2156077748
 10
-48.1985987475
 20
36.0042355781
 10
-48.5149735976
 20
35.7709595618
 10
-48.8143620545
 20
35.5163301464
 10
-49.095344427
 20
35.2415837143
 10
-49.3574796045
 20
34.9469711377
 10
-49.5984592387
 20
34.6348655968
 10
-49.8148993009
 20
34.3103566192
 10
-50.0067682993
 20
33.9749743583
 10
-50.1735943109
 20
33.6311673679
 10
-50.3133333476
 20
33.2864061852
 10
-50.4268177065
 20
32.9443144318
 10
-50.5160106234
 20
32.605579964
 10
-50.5821128896
 20
32.2735413226
 10
-50.6268863974
 20
31.9503283789
 10
-50.6523116656
 20
31.6367886757
 10
-50.6602573441
 20
31.3340562657
  0
LINE
  5
3D2
100
AcDbEntity
  8
RACCORDO
100
AcDbLine
 62
250
  6
CONTINUOUS
 10
-10.6588201667
 20
40.8665550326
 11
-10.1190187687
 21
40.8838092808
  0
LINE
  5
3D3
100
AcDbEntity
  8
RACCORDO
100
AcDbLine
 62
250
  6
CONTINUOUS
 10
-10.4588172472
 20
41.1545929574
 11
-9.9291447033
 21
41.1715234516
  0
LINE
  5
3D4
100
AcDbEntity
  8
0
100
AcDbLine
 62
7
  6
CONTINUOUS
 10
-9.5831219544
 20
39.9557423037
 11
-10.0584106243
 21
39.9413750617
  0
LINE
  5
3D5
100
AcDbEntity
  8
0
100
AcDbLine
 62
7
  6
CONTINUOUS
 10
-9.5831219544
 20
40.4556661513
 11
-10.0584932341
 21
40.4412941799
  0
LINE
  5
3D6
100
AcDbEntity
  8
0
100
AcDbLine
 62
7
  6
CONTINUOUS
 10
-10.0153249243
 20
40.4600637972
 11
-10.492653904
 21
40.4456368723
  0
LINE
  5
3D7
100
AcDbEntity
  8
RACCORDO
100
AcDbLine
 62
250
  6
CONTINUOUS
 10
-11.771274175
 20
39.4447076608
 11
-11.1664154588
 21
39.4629808727
  0
LINE
  5
3D8
100
AcDbEntity
  8
RACCORDO
100
AcDbLine
 62
250
  6
CONTINUOUS
 10
-12.1227039327
 20
38.4946525804
 11
-11.4342834301
 21
38.5134196857
  0
LINE
  5
3D9
100
AcDbEntity
  8
0
100
AcDbLine
 62
7
  6
CONTINUOUS
 10
-7.7203654889
 20
41.7444381455
 11
-8.1839400658
 21
41.7317916249
  0
LINE
  5
3DA
100
AcDbEntity
  8
RACCORDO
100
AcDbLine
 62
250
  6
CONTINUOUS
 10
-10.1190187687
 20
40.8838092808
 11
-9.4868181347
 21
40.9001136459
  0
LINE
  5
3DB
100
AcDbEntity
  8
RACCORDO
100
AcDbLine
 62
250
  6
CONTINUOUS
 10
-9.9291447033
 20
41.1715234516
 11
-9.3088066855
 21
41.1875218944
  0
LINE
  5
3DC
100
AcDbEntity
  8
0
100
AcDbLine
 62
7
  6
CONTINUOUS
 10
-9.4735146301
 20
40.473763024
 11
-10.0153249243
 21
40.4600637972
  0
LINE
  5
3DD
100
AcDbEntity
  8
0
100
AcDbLine
 62
7
  6
CONTINUOUS
 10
-9.0406145696
 20
39.9693650559
 11
-9.5831219544
 21
39.9557423037
  0
LINE
  5
3DE
100
AcDbEntity
  8
0
100
AcDbLine
 62
7
  6
CONTINUOUS
 10
-9.0404045428
 20
40.4692922217
 11
-9.5831219544
 21
40.4556661513
  0
LINE
  5
3DF
100
AcDbEntity
  8
RACCORDO
100
AcDbLine
 62
250
  6
CONTINUOUS
 10
-11.1664154588
 20
39.4629808727
 11
-10.469595515
 21
39.4801959026
  0
LINE
  5
3E0
100
AcDbEntity
  8
RACCORDO
100
AcDbLine
 62
250
  6
CONTINUOUS
 10
-11.4342834301
 20
38.5134196857
 11
-10.6528402899
 21
38.5309714997
  0
LINE
  5
3E1
100
AcDbEntity
  8
0
100
AcDbLine
 62
7
  6
CONTINUOUS
 10
-7.1928175323
 20
41.7562965618
 11
-7.7203654889
 21
41.7444381455
  0
LINE
  5
3E2
100
AcDbEntity
  8
0
100
AcDbLine
 62
7
  6
CONTINUOUS
 10
-8.8698523658
 20
40.4866680717
 11
-9.4735146301
 21
40.473763024
  0
LINE
  5
3E3
100
AcDbEntity
  8
0
100
AcDbLine
 62
7
  6
CONTINUOUS
 10
-8.4346937692
 20
39.9821477643
 11
-9.0406145696
 21
39.9693650559
  0
LINE
  5
3E4
100
AcDbEntity
  8
0
100
AcDbLine
 62
7
  6
CONTINUOUS
 10
-8.4348411764
 20
40.4820673896
 11
-9.0404045428
 21
40.4692922217
  0
LINE
  5
3E5
100
AcDbEntity
  8
RACCORDO
100
AcDbLine
 62
250
  6
CONTINUOUS
 10
-9.4868181347
 20
40.9001136459
 11
-8.770823947
 21
40.9152533321
  0
LINE
  5
3E6
100
AcDbEntity
  8
RACCORDO
100
AcDbLine
 62
250
  6
CONTINUOUS
 10
-9.3088066855
 20
41.1875218944
 11
-8.6062474789
 21
41.2023774962
  0
LINE
  5
3E7
100
AcDbEntity
  8
RACCORDO
100
AcDbLine
 62
250
  6
CONTINUOUS
 10
-10.469595515
 20
39.4801959026
 11
-9.6869761674
 21
39.4962130686
  0
LINE
  5
3E8
100
AcDbEntity
  8
RACCORDO
100
AcDbLine
 62
250
  6
CONTINUOUS
 10
-10.6528402899
 20
38.5309714997
 11
-9.7822143742
 21
38.5472286913
  0
LINE
  5
3E9
100
AcDbEntity
  8
0
100
AcDbLine
 62
7
  6
CONTINUOUS
 10
-6.6056676242
 20
41.7672686112
 11
-7.1928175323
 21
41.7562965618
  0
LINE
  5
3EA
100
AcDbEntity
  8
0
100
AcDbLine
 62
7
  6
CONTINUOUS
 10
-8.2085648699
 20
40.4986821478
 11
-8.8698523658
 21
40.4866680717
  0
LINE
  5
3EB
100
AcDbEntity
  8
0
100
AcDbLine
 62
7
  6
CONTINUOUS
 10
-7.7696096523
 20
39.9940007675
 11
-8.4346937692
 21
39.9821477643
  0
LINE
  5
3EC
100
AcDbEntity
  8
0
100
AcDbLine
 62
7
  6
CONTINUOUS
 10
-7.7696096523
 20
40.4939246151
 11
-8.4348411764
 21
40.4820673896
  0
LINE
  5
3ED
100
AcDbEntity
  8
RACCORDO
100
AcDbLine
 62
250
  6
CONTINUOUS
 10
-8.770823947
 20
40.9152533321
 11
-7.9744815305
 21
40.9291610919
  0
LINE
  5
3EE
100
AcDbEntity
  8
RACCORDO
100
AcDbLine
 62
250
  6
CONTINUOUS
 10
-8.6062474789
 20
41.2023774962
 11
-7.8248476891
 21
41.2160242927
  0
LINE
  5
3EF
100
AcDbEntity
  8
RACCORDO
100
AcDbLine
 62
250
  6
CONTINUOUS
 10
-9.6869761674
 20
39.4962130686
 11
-8.8221186399
 21
39.5109550239
  0
LINE
  5
3F0
100
AcDbEntity
  8
RACCORDO
100
AcDbLine
 62
250
  6
CONTINUOUS
 10
-9.7822143742
 20
38.5472286913
 11
-8.8292693254
 21
38.5620528271
  0
LINE
  5
3F1
100
AcDbEntity
  8
0
100
AcDbLine
 62
7
  6
CONTINUOUS
 10
-7.1185611919
 20
40.5148626285
 11
-8.2085648699
 21
40.4986821478
  0
LINE
  5
3F2
100
AcDbEntity
  8
RACCORDO
100
AcDbLine
 62
250
  6
CONTINUOUS
 10
-7.9744815305
 20
40.9291610919
 11
-7.1049987682
 21
40.9417000925
  0
LINE
  5
3F3
100
AcDbEntity
  8
RACCORDO
100
AcDbLine
 62
250
  6
CONTINUOUS
 10
-7.8248476891
 20
41.2160242927
 11
-6.9716799413
 21
41.2283280236
  0
LINE
  5
3F4
100
AcDbEntity
  8
RACCORDO
100
AcDbLine
 62
250
  6
CONTINUOUS
 10
-8.8221186399
 20
39.5109550239
 11
-7.8848581358
 21
39.5242487694
  0
LINE
  5
3F5
100
AcDbEntity
  8
0
100
AcDbLine
 62
7
  6
CONTINUOUS
 10
-5.6239571696
 20
41.7818680598
 11
-6.6056676242
 21
41.7672686112
  0
LINE
  5
3F6
100
AcDbEntity
  8
0
100
AcDbLine
 62
7
  6
CONTINUOUS
 10
-6.6713626135
 20
40.0098571333
 11
-7.7696096523
 21
39.9940007675
  0
LINE
  5
3F7
100
AcDbEntity
  8
0
100
AcDbLine
 62
7
  6
CONTINUOUS
 10
-6.6713626135
 20
40.5097809809
 11
-7.7696096523
 21
40.4939246151
  0
LINE
  5
3F8
100
AcDbEntity
  8
RACCORDO
100
AcDbLine
 62
250
  6
CONTINUOUS
 10
-8.8292693254
 20
38.5620528271
 11
-7.8050560244
 21
38.5752753626
  0
LINE
  5
3F9
100
AcDbEntity
  8
RACCORDO
100
AcDbLine
 62
250
  6
CONTINUOUS
 10
-7.8848581358
 20
39.5242487694
 11
-6.8832639634
 21
39.5359873377
  0
LINE
  5
3FA
100
AcDbEntity
  8
RACCORDO
100
AcDbLine
 62
250
  6
CONTINUOUS
 10
-7.1049987682
 20
40.9417000925
 11
-6.1740255682
 21
40.9527089081
  0
LINE
  5
3FB
100
AcDbEntity
  8
RACCORDO
100
AcDbLine
 62
250
  6
CONTINUOUS
 10
-6.9716799413
 20
41.2283280236
 11
-6.0581755316
 21
41.2391303027
  0
LINE
  5
3FC
100
AcDbEntity
  8
0
100
AcDbLine
 62
7
  6
CONTINUOUS
 10
-5.9247528622
 20
40.5286321434
 11
-7.1185611919
 21
40.5148626285
  0
LINE
  5
3FD
100
AcDbEntity
  8
0
100
AcDbLine
 62
7
  6
CONTINUOUS
 10
-5.4679042011
 20
40.5231100457
 11
-6.6713626135
 21
40.5097809809
  0
LINE
  5
3FE
100
AcDbEntity
  8
RACCORDO
100
AcDbLine
 62
250
  6
CONTINUOUS
 10
-7.8050560244
 20
38.5752753626
 11
-6.7153058365
 21
38.586826873
  0
LINE
  5
3FF
100
AcDbEntity
  8
0
100
AcDbLine
 62
7
  6
CONTINUOUS
 10
-5.4679042011
 20
40.0231861981
 11
-6.6713626135
 21
40.0098571333
  0
LINE
  5
400
100
AcDbEntity
  8
0
100
AcDbLine
 62
7
  6
CONTINUOUS
 10
-4.5374830339
 20
41.7939985565
 11
-5.6239571696
 21
41.7818680598
  0
LINE
  5
401
100
AcDbEntity
  8
RACCORDO
100
AcDbLine
 62
250
  6
CONTINUOUS
 10
-6.8832639634
 20
39.5359873377
 11
-5.822821507
 21
39.5461041271
  0
LINE
  5
402
100
AcDbEntity
  8
RACCORDO
100
AcDbLine
 62
250
  6
CONTINUOUS
 10
-6.1740255682
 20
40.9527089081
 11
-5.1960031542
 21
40.9620552534
  0
LINE
  5
403
100
AcDbEntity
  8
RACCORDO
100
AcDbLine
 62
250
  6
CONTINUOUS
 10
-6.0581755316
 20
41.2391303027
 11
-5.098504859
 21
41.2483012555
  0
LINE
  5
404
100
AcDbEntity
  8
RACCORDO
100
AcDbLine
 62
250
  6
CONTINUOUS
 10
-6.7153058365
 20
38.586826873
 11
-5.5687894167
 21
38.5966082816
  0
LINE
  5
405
100
AcDbEntity
  8
0
100
AcDbLine
 62
7
  6
CONTINUOUS
 10
-4.6445482943
 20
40.5397899021
 11
-5.9247528622
 21
40.5286321434
  0
LINE
  5
406
100
AcDbEntity
  8
0
100
AcDbLine
 62
7
  6
CONTINUOUS
 10
-4.178213673
 20
40.0337777546
 11
-5.4679042011
 21
40.0231861981
  0
LINE
  5
407
100
AcDbEntity
  8
0
100
AcDbLine
 62
7
  6
CONTINUOUS
 10
-4.178213673
 20
40.5337016022
 11
-5.4679042011
 21
40.5231100457
  0
LINE
  5
408
100
AcDbEntity
  8
0
100
AcDbLine
 62
7
  6
CONTINUOUS
 10
-3.3664841745
 20
41.8034341331
 11
-4.5374830339
 21
41.7939985565
  0
LINE
  5
409
100
AcDbEntity
  8
RACCORDO
100
AcDbLine
 62
250
  6
CONTINUOUS
 10
-5.822821507
 20
39.5461041271
 11
-4.7144685924
 21
39.5544907201
  0
LINE
  5
40A
100
AcDbEntity
  8
RACCORDO
100
AcDbLine
 62
250
  6
CONTINUOUS
 10
-5.1960031542
 20
40.9620552534
 11
-4.1859591361
 21
40.9696638986
  0
LINE
  5
40B
100
AcDbEntity
  8
RACCORDO
100
AcDbLine
 62
250
  6
CONTINUOUS
 10
-5.098504859
 20
41.2483012555
 11
-4.1074134602
 21
41.2557670924
  0
LINE
  5
40C
100
AcDbEntity
  8
RACCORDO
100
AcDbLine
 62
250
  6
CONTINUOUS
 10
-5.5687894167
 20
38.5966082816
 11
-4.3771453006
 21
38.6045204318
  0
LINE
  5
40D
100
AcDbEntity
  8
0
100
AcDbLine
 62
7
  6
CONTINUOUS
 10
-3.2966157537
 20
40.5481731992
 11
-4.6445482943
 21
40.5397899021
  0
LINE
  5
40E
100
AcDbEntity
  8
RACCORDO
100
AcDbLine
 62
250
  6
CONTINUOUS
 10
-4.7144685924
 20
39.5544907201
 11
-3.5682659273
 21
39.5610756877
  0
LINE
  5
40F
100
AcDbEntity
  8
RACCORDO
100
AcDbLine
 62
250
  6
CONTINUOUS
 10
-4.1859591361
 20
40.9696638986
 11
-3.1580246869
 21
40.9755175413
  0
LINE
  5
410
100
AcDbEntity
  8
RACCORDO
100
AcDbLine
 62
250
  6
CONTINUOUS
 10
-4.1074134602
 20
41.2557670924
 11
-3.0987670671
 21
41.2615110661
  0
LINE
  5
411
100
AcDbEntity
  8
0
100
AcDbLine
 62
7
  6
CONTINUOUS
 10
-2.8226302193
 20
40.0414647676
 11
-4.178213673
 21
40.0337777546
  0
LINE
  5
412
100
AcDbEntity
  8
0
100
AcDbLine
 62
7
  6
CONTINUOUS
 10
-2.8226302193
 20
40.5413886152
 11
-4.178213673
 21
40.5337016022
  0
LINE
  5
413
100
AcDbEntity
  8
RACCORDO
100
AcDbLine
 62
250
  6
CONTINUOUS
 10
-4.3771453006
 20
38.6045204318
 11
-3.1513397198
 21
38.6104990999
  0
LINE
  5
414
100
AcDbEntity
  8
0
100
AcDbLine
 62
7
  6
CONTINUOUS
 10
-2.1327740846
 20
41.8099990228
 11
-3.3664841745
 21
41.8034341331
  0
LINE
  5
415
100
AcDbEntity
  8
RACCORDO
100
AcDbLine
 62
250
  6
CONTINUOUS
 10
-3.1580246869
 20
40.9755175413
 11
-2.1730567143
 21
40.9794897838
  0
LINE
  5
416
100
AcDbEntity
  8
RACCORDO
100
AcDbLine
 62
250
  6
CONTINUOUS
 10
-3.0987670671
 20
41.2615110661
 11
-2.1322811986
 21
41.2654087379
  0
LINE
  5
417
100
AcDbEntity
  8
RACCORDO
100
AcDbLine
 62
250
  6
CONTINUOUS
 10
-3.5682659273
 20
39.5610756877
 11
-2.3950945575
 21
39.5658059354
  0
LINE
  5
418
100
AcDbEntity
  8
0
100
AcDbLine
 62
7
  6
CONTINUOUS
 10
-1.9006111321
 20
40.5536597874
 11
-3.2966157537
 21
40.5481731992
  0
LINE
  5
419
100
AcDbEntity
  8
RACCORDO
100
AcDbLine
 62
250
  6
CONTINUOUS
 10
-3.1513397198
 20
38.6104990999
 11
-1.90142673
 21
38.6145054925
  0
LINE
  5
41A
100
AcDbEntity
  8
0
100
AcDbLine
 62
7
  6
CONTINUOUS
 10
-1.422532201
 20
40.0461260084
 11
-2.8226302193
 21
40.0414647676
  0
LINE
  5
41B
100
AcDbEntity
  8
0
100
AcDbLine
 62
7
  6
CONTINUOUS
 10
-1.422532201
 20
40.546049856
 11
-2.8226302193
 21
40.5413886152
  0
LINE
  5
41C
100
AcDbEntity
  8
RACCORDO
100
AcDbLine
 62
250
  6
CONTINUOUS
 10
-2.3950945575
 20
39.5658059354
 11
-1.2025621386
 21
39.5686588208
  0
LINE
  5
41D
100
AcDbEntity
  8
0
100
AcDbLine
 62
7
  6
CONTINUOUS
 10
-0.8593344488
 20
41.8135709341
 11
-2.1327740846
 21
41.8099990228
  0
LINE
  5
41E
100
AcDbEntity
  8
RACCORDO
100
AcDbLine
 62
250
  6
CONTINUOUS
 10
-2.1730567143
 20
40.9794897838
 11
-0.8187066738
 21
40.9825026862
  0
LINE
  5
41F
100
AcDbEntity
  8
RACCORDO
100
AcDbLine
 62
250
  6
CONTINUOUS
 10
-2.1322811986
 20
41.2654087379
 11
-0.8033444271
 21
41.2683648619
  0
LINE
  5
420
100
AcDbEntity
  8
RACCORDO
100
AcDbLine
 62
250
  6
CONTINUOUS
 10
-1.90142673
 20
38.6145054925
 11
-0.6355415611
 21
38.616517599
  0
LINE
  5
421
100
AcDbEntity
  8
0
100
AcDbLine
 62
7
  6
CONTINUOUS
 10
-0.478434187
 20
40.5561680311
 11
-1.9006111321
 21
40.5536597874
  0
LINE
  5
422
100
AcDbEntity
  8
RACCORDO
100
AcDbLine
 62
250
  6
CONTINUOUS
 10
-1.2025621386
 20
39.5686588208
 11
0.0
 21
39.5696128293
  0
LINE
  5
423
100
AcDbEntity
  8
0
100
AcDbLine
 62
7
  6
CONTINUOUS
 10
0.0
 20
40.0476879663
 11
-1.422532201
 21
40.0461260084
  0
LINE
  5
424
100
AcDbEntity
  8
0
100
AcDbLine
 62
7
  6
CONTINUOUS
 10
0.0
 20
40.5476118139
 11
-1.422532201
 21
40.546049856
  0
LINE
  5
425
100
AcDbEntity
  8
0
100
AcDbLine
 62
7
  6
CONTINUOUS
 10
-0.478434187
 20
40.5561680311
 11
0.478434187
 21
40.5561680311
  0
LINE
  5
426
100
AcDbEntity
  8
RACCORDO
100
AcDbLine
 62
250
  6
CONTINUOUS
 10
-0.8187066738
 20
40.9825026862
 11
0.4015325701
 21
40.9828781029
  0
LINE
  5
427
100
AcDbEntity
  8
RACCORDO
100
AcDbLine
 62
250
  6
CONTINUOUS
 10
-0.8033444271
 20
41.2683648619
 11
0.3939981935
 21
41.2687332523
  0
LINE
  5
428
100
AcDbEntity
  8
RACCORDO
100
AcDbLine
 62
250
  6
CONTINUOUS
 10
-0.6355415611
 20
38.616517599
 11
0.6355407745
 21
38.6165175984
  0
LINE
  5
429
100
AcDbEntity
  8
0
100
AcDbLine
 62
7
  6
CONTINUOUS
 10
-0.8593344488
 20
41.8135709341
 11
0.4301129618
 21
41.814083329
  0
LINE
  5
42A
100
AcDbEntity
  8
RACCORDO
100
AcDbLine
 62
250
  6
CONTINUOUS
 10
0.0
 20
39.5696128293
 11
1.2025612621
 21
39.5686588068
  0
LINE
  5
42B
100
AcDbEntity
  8
0
100
AcDbLine
 62
7
  6
CONTINUOUS
 10
0.0
 20
40.0476879663
 11
0.9497435218
 21
40.046993255
  0
LINE
  5
42C
100
AcDbEntity
  8
0
100
AcDbLine
 62
7
  6
CONTINUOUS
 10
0.0
 20
40.5476118139
 11
0.9508474876
 21
40.5469148733
  0
LINE
  5
42D
100
AcDbEntity
  8
0
100
AcDbLine
 62
7
  6
CONTINUOUS
 10
0.478434187
 20
40.5561680311
 11
1.428359661
 21
40.5548301319
  0
LINE
  5
42E
100
AcDbEntity
  8
RACCORDO
100
AcDbLine
 62
250
  6
CONTINUOUS
 10
0.6355407745
 20
38.6165175984
 11
1.9014262907
 21
38.6145054918
  0
LINE
  5
42F
100
AcDbEntity
  8
0
100
AcDbLine
 62
7
  6
CONTINUOUS
 10
0.4301129618
 20
41.814083329
 11
1.286774834
 21
41.8127181227
  0
LINE
  5
430
100
AcDbEntity
  8
RACCORDO
100
AcDbLine
 62
250
  6
CONTINUOUS
 10
0.4015325701
 20
40.9828781029
 11
1.7107552593
 21
40.9808303455
  0
LINE
  5
431
100
AcDbEntity
  8
RACCORDO
100
AcDbLine
 62
250
  6
CONTINUOUS
 10
0.3939981935
 20
41.2687332523
 11
1.6786545068
 21
41.2667240138
  0
LINE
  5
432
100
AcDbEntity
  8
0
100
AcDbLine
 62
7
  6
CONTINUOUS
 10
0.9497435218
 20
40.046993255
 11
1.8928252752
 21
40.0449139939
  0
LINE
  5
433
100
AcDbEntity
  8
0
100
AcDbLine
 62
7
  6
CONTINUOUS
 10
0.9508474876
 20
40.5469148733
 11
1.8925420193
 21
40.5448377512
  0
LINE
  5
434
100
AcDbEntity
  8
RACCORDO
100
AcDbLine
 62
250
  6
CONTINUOUS
 10
1.2025612621
 20
39.5686588068
 11
2.3950962972
 21
39.5658059228
  0
LINE
  5
435
100
AcDbEntity
  8
0
100
AcDbLine
 62
7
  6
CONTINUOUS
 10
1.428359661
 20
40.5548301319
 11
2.3705483031
 21
40.5521568004
  0
LINE
  5
436
100
AcDbEntity
  8
RACCORDO
100
AcDbLine
 62
250
  6
CONTINUOUS
 10
1.9014262907
 20
38.6145054918
 11
3.1513444041
 21
38.6104990822
  0
LINE
  5
437
100
AcDbEntity
  8
RACCORDO
100
AcDbLine
 62
250
  6
CONTINUOUS
 10
1.7107552593
 20
40.9808303455
 11
2.6635116585
 21
40.9777050209
  0
LINE
  5
438
100
AcDbEntity
  8
RACCORDO
100
AcDbLine
 62
250
  6
CONTINUOUS
 10
1.6786545068
 20
41.2667240138
 11
2.6135330834
 21
41.2636575707
  0
LINE
  5
439
100
AcDbEntity
  8
0
100
AcDbLine
 62
7
  6
CONTINUOUS
 10
1.286774834
 20
41.8127181227
 11
2.1327740846
 21
41.8099990228
  0
LINE
  5
43A
100
AcDbEntity
  8
0
100
AcDbLine
 62
7
  6
CONTINUOUS
 10
1.8928252752
 20
40.0449139939
 11
2.8226302193
 21
40.0414647676
  0
LINE
  5
43B
100
AcDbEntity
  8
0
100
AcDbLine
 62
7
  6
CONTINUOUS
 10
1.8925420193
 20
40.5448377512
 11
2.8226302193
 21
40.5413886152
  0
LINE
  5
43C
100
AcDbEntity
  8
RACCORDO
100
AcDbLine
 62
250
  6
CONTINUOUS
 10
2.3950962972
 20
39.5658059228
 11
3.5682703527
 21
39.5610756813
  0
LINE
  5
43D
100
AcDbEntity
  8
0
100
AcDbLine
 62
7
  6
CONTINUOUS
 10
2.3705483031
 20
40.5521568004
 11
3.2966157537
 21
40.5481731992
  0
LINE
  5
43E
100
AcDbEntity
  8
RACCORDO
100
AcDbLine
 62
250
  6
CONTINUOUS
 10
2.6635116585
 20
40.9777050209
 11
3.6826654224
 21
40.972756421
  0
LINE
  5
43F
100
AcDbEntity
  8
RACCORDO
100
AcDbLine
 62
250
  6
CONTINUOUS
 10
2.6135330834
 20
41.2636575707
 11
3.6135634832
 21
41.2588016688
  0
LINE
  5
440
100
AcDbEntity
  8
RACCORDO
100
AcDbLine
 62
250
  6
CONTINUOUS
 10
3.1513444041
 20
38.6104990822
 11
4.3771480375
 21
38.604520418
  0
LINE
  5
441
100
AcDbEntity
  8
0
100
AcDbLine
 62
7
  6
CONTINUOUS
 10
2.1327740846
 20
41.8099990228
 11
2.9611004975
 21
41.8059485606
  0
LINE
  5
442
100
AcDbEntity
  8
0
100
AcDbLine
 62
7
  6
CONTINUOUS
 10
2.8226302193
 20
40.0414647676
 11
3.7326364405
 21
40.03666977
  0
LINE
  5
443
100
AcDbEntity
  8
0
100
AcDbLine
 62
7
  6
CONTINUOUS
 10
2.8226302193
 20
40.5413886152
 11
3.7328821668
 21
40.5365911569
  0
LINE
  5
444
100
AcDbEntity
  8
RACCORDO
100
AcDbLine
 62
250
  6
CONTINUOUS
 10
3.5682703527
 20
39.5610756813
 11
4.7144668222
 21
39.5544907378
  0
LINE
  5
445
100
AcDbEntity
  8
0
100
AcDbLine
 62
7
  6
CONTINUOUS
 10
3.2966157537
 20
40.5481731992
 11
4.2020679115
 21
40.5428986602
  0
LINE
  5
446
100
AcDbEntity
  8
RACCORDO
100
AcDbLine
 62
250
  6
CONTINUOUS
 10
4.3771480375
 20
38.604520418
 11
5.5687749508
 21
38.5966083912
  0
LINE
  5
447
100
AcDbEntity
  8
RACCORDO
100
AcDbLine
 62
250
  6
CONTINUOUS
 10
3.6826654224
 20
40.972756421
 11
4.7044676189
 21
40.9660007186
  0
LINE
  5
448
100
AcDbEntity
  8
RACCORDO
100
AcDbLine
 62
250
  6
CONTINUOUS
 10
3.6135634832
 20
41.2588016688
 11
4.6161925906
 21
41.252172659
  0
LINE
  5
449
100
AcDbEntity
  8
0
100
AcDbLine
 62
7
  6
CONTINUOUS
 10
2.9611004975
 20
41.8059485606
 11
3.764890299
 21
41.8006002993
  0
LINE
  5
44A
100
AcDbEntity
  8
0
100
AcDbLine
 62
7
  6
CONTINUOUS
 10
3.7326364405
 20
40.03666977
 11
4.6164608989
 21
40.0305626344
  0
LINE
  5
44B
100
AcDbEntity
  8
0
100
AcDbLine
 62
7
  6
CONTINUOUS
 10
3.7328821668
 20
40.5365911569
 11
4.6161852552
 21
40.5304876239
  0
LINE
  5
44C
100
AcDbEntity
  8
0
100
AcDbLine
 62
7
  6
CONTINUOUS
 10
4.2020679115
 20
40.5428986602
 11
5.0802202758
 21
40.5363678335
  0
LINE
  5
44D
100
AcDbEntity
  8
RACCORDO
100
AcDbLine
 62
250
  6
CONTINUOUS
 10
4.7144668222
 20
39.5544907378
 11
5.8227821908
 21
39.5461044636
  0
LINE
  5
44E
100
AcDbEntity
  8
RACCORDO
100
AcDbLine
 62
250
  6
CONTINUOUS
 10
5.5687749508
 20
38.5966083912
 11
6.7152307701
 21
38.5868275898
  0
LINE
  5
44F
100
AcDbEntity
  8
0
100
AcDbLine
 62
7
  6
CONTINUOUS
 10
4.6161852552
 20
40.5304876239
 11
5.4679042011
 21
40.5231100457
  0
LINE
  5
450
100
AcDbEntity
  8
RACCORDO
100
AcDbLine
 62
250
  6
CONTINUOUS
 10
4.7044676189
 20
40.9660007186
 11
5.7020496853
 21
40.9574802656
  0
LINE
  5
451
100
AcDbEntity
  8
RACCORDO
100
AcDbLine
 62
250
  6
CONTINUOUS
 10
4.6161925906
 20
41.252172659
 11
5.5950558101
 21
41.2438121506
  0
LINE
  5
452
100
AcDbEntity
  8
0
100
AcDbLine
 62
7
  6
CONTINUOUS
 10
3.764890299
 20
41.8006002993
 11
4.5374830339
 21
41.7939985565
  0
LINE
  5
453
100
AcDbEntity
  8
0
100
AcDbLine
 62
7
  6
CONTINUOUS
 10
4.6164608989
 20
40.0305626344
 11
5.4679042011
 21
40.0231861981
  0
LINE
  5
454
100
AcDbEntity
  8
0
100
AcDbLine
 62
7
  6
CONTINUOUS
 10
5.0802202758
 20
40.5363678335
 11
5.9247528622
 21
40.5286321434
  0
LINE
  5
455
100
AcDbEntity
  8
RACCORDO
100
AcDbLine
 62
250
  6
CONTINUOUS
 10
5.8227821908
 20
39.5461044636
 11
6.8831696147
 21
39.5359883429
  0
LINE
  5
456
100
AcDbEntity
  8
RACCORDO
100
AcDbLine
 62
250
  6
CONTINUOUS
 10
6.7152307701
 20
38.5868275898
 11
7.8049487999
 21
38.57527662
  0
LINE
  5
457
100
AcDbEntity
  8
0
100
AcDbLine
 62
7
  6
CONTINUOUS
 10
5.4679042011
 20
40.0231861981
 11
6.2809940839
 21
40.0145922015
  0
LINE
  5
458
100
AcDbEntity
  8
0
100
AcDbLine
 62
7
  6
CONTINUOUS
 10
5.4679042011
 20
40.5231100457
 11
6.2811970265
 21
40.5145125992
  0
LINE
  5
459
100
AcDbEntity
  8
0
100
AcDbLine
 62
7
  6
CONTINUOUS
 10
4.5374830339
 20
41.7939985565
 11
5.2724767553
 21
41.7861980362
  0
LINE
  5
45A
100
AcDbEntity
  8
RACCORDO
100
AcDbLine
 62
250
  6
CONTINUOUS
 10
5.7020496853
 20
40.9574802656
 11
6.6581142716
 21
40.9472657462
  0
LINE
  5
45B
100
AcDbEntity
  8
RACCORDO
100
AcDbLine
 62
250
  6
CONTINUOUS
 10
5.5950558101
 20
41.2438121506
 11
6.5331807617
 21
41.2337892701
  0
LINE
  5
45C
100
AcDbEntity
  8
0
100
AcDbLine
 62
7
  6
CONTINUOUS
 10
5.9247528622
 20
40.5286321434
 11
6.7315672488
 21
40.5197291305
  0
LINE
  5
45D
100
AcDbEntity
  8
RACCORDO
100
AcDbLine
 62
250
  6
CONTINUOUS
 10
6.8831696147
 20
39.5359883429
 11
7.884756538
 21
39.5242500852
  0
LINE
  5
45E
100
AcDbEntity
  8
0
100
AcDbLine
 62
7
  6
CONTINUOUS
 10
6.2809940839
 20
40.0145922015
 11
7.0500273062
 21
40.0048409252
  0
LINE
  5
45F
100
AcDbEntity
  8
0
100
AcDbLine
 62
7
  6
CONTINUOUS
 10
6.2811970265
 20
40.5145125992
 11
7.0497765943
 21
40.5047670752
  0
LINE
  5
460
100
AcDbEntity
  8
RACCORDO
100
AcDbLine
 62
250
  6
CONTINUOUS
 10
7.8049487999
 20
38.57527662
 11
8.8291589668
 21
38.5620543929
  0
LINE
  5
461
100
AcDbEntity
  8
0
100
AcDbLine
 62
7
  6
CONTINUOUS
 10
5.2724767553
 20
41.7861980362
 11
5.9637810739
 21
41.7772633759
  0
LINE
  5
462
100
AcDbEntity
  8
0
100
AcDbLine
 62
7
  6
CONTINUOUS
 10
6.7315672488
 20
40.5197291305
 11
7.4946483119
 21
40.5097203565
  0
LINE
  5
463
100
AcDbEntity
  8
RACCORDO
100
AcDbLine
 62
250
  6
CONTINUOUS
 10
6.6581142716
 20
40.9472657462
 11
7.5586932053
 21
40.9354610855
  0
LINE
  5
464
100
AcDbEntity
  8
RACCORDO
100
AcDbLine
 62
250
  6
CONTINUOUS
 10
6.5331807617
 20
41.2337892701
 11
7.416861213
 21
41.222206087
  0
LINE
  5
465
100
AcDbEntity
  8
RACCORDO
100
AcDbLine
 62
250
  6
CONTINUOUS
 10
7.884756538
 20
39.5242500852
 11
8.8220033156
 21
39.510956821
  0
LINE
  5
466
100
AcDbEntity
  8
0
100
AcDbLine
 62
7
  6
CONTINUOUS
 10
7.0500273062
 20
40.0048409252
 11
7.7696096523
 21
39.9940007675
  0
LINE
  5
467
100
AcDbEntity
  8
0
100
AcDbLine
 62
7
  6
CONTINUOUS
 10
7.0497765943
 20
40.5047670752
 11
7.7696096523
 21
40.4939246151
  0
LINE
  5
468
100
AcDbEntity
  8
0
100
AcDbLine
 62
7
  6
CONTINUOUS
 10
7.4946483119
 20
40.5097203565
 11
8.2085648699
 21
40.4986821478
  0
LINE
  5
469
100
AcDbEntity
  8
RACCORDO
100
AcDbLine
 62
250
  6
CONTINUOUS
 10
8.8291589668
 20
38.5620543929
 11
9.7820795021
 21
38.5472309908
  0
LINE
  5
46A
100
AcDbEntity
  8
0
100
AcDbLine
 62
7
  6
CONTINUOUS
 10
5.9637810739
 20
41.7772633759
 11
6.6056676242
 21
41.7672686112
  0
LINE
  5
46B
100
AcDbEntity
  8
RACCORDO
100
AcDbLine
 62
250
  6
CONTINUOUS
 10
7.5586932053
 20
40.9354610855
 11
8.3924031752
 21
40.9221928023
  0
LINE
  5
46C
100
AcDbEntity
  8
RACCORDO
100
AcDbLine
 62
250
  6
CONTINUOUS
 10
7.416861213
 20
41.222206087
 11
8.234927403
 21
41.2091867615
  0
LINE
  5
46D
100
AcDbEntity
  8
RACCORDO
100
AcDbLine
 62
250
  6
CONTINUOUS
 10
8.8220033156
 20
39.510956821
 11
9.6868413266
 21
39.4962155892
  0
LINE
  5
46E
100
AcDbEntity
  8
0
100
AcDbLine
 62
7
  6
CONTINUOUS
 10
7.7696096523
 20
39.9940007675
 11
8.4346937692
 21
39.9821477643
  0
LINE
  5
46F
100
AcDbEntity
  8
0
100
AcDbLine
 62
7
  6
CONTINUOUS
 10
7.7696096523
 20
40.4939246151
 11
8.4348411764
 21
40.4820673896
  0
LINE
  5
470
100
AcDbEntity
  8
0
100
AcDbLine
 62
7
  6
CONTINUOUS
 10
8.2085648699
 20
40.4986821478
 11
8.8698523658
 21
40.4866680717
  0
LINE
  5
471
100
AcDbEntity
  8
RACCORDO
100
AcDbLine
 62
250
  6
CONTINUOUS
 10
9.7820795021
 20
38.5472309908
 11
10.652699554
 21
38.5309743806
  0
LINE
  5
472
100
AcDbEntity
  8
0
100
AcDbLine
 62
7
  6
CONTINUOUS
 10
6.6056676242
 20
41.7672686112
 11
7.1928175323
 21
41.7562965618
  0
LINE
  5
473
100
AcDbEntity
  8
RACCORDO
100
AcDbLine
 62
250
  6
CONTINUOUS
 10
8.3924031752
 20
40.9221928023
 11
9.1477918923
 21
40.9076482439
  0
LINE
  5
474
100
AcDbEntity
  8
RACCORDO
100
AcDbLine
 62
250
  6
CONTINUOUS
 10
8.234927403
 20
41.2091867615
 11
8.9761419321
 21
41.1949151213
  0
LINE
  5
475
100
AcDbEntity
  8
RACCORDO
100
AcDbLine
 62
250
  6
CONTINUOUS
 10
9.6868413266
 20
39.4962155892
 11
10.4694677519
 21
39.480198775
  0
LINE
  5
476
100
AcDbEntity
  8
0
100
AcDbLine
 62
7
  6
CONTINUOUS
 10
8.4346937692
 20
39.9821477643
 11
9.0406145696
 21
39.9693650559
  0
LINE
  5
477
100
AcDbEntity
  8
0
100
AcDbLine
 62
7
  6
CONTINUOUS
 10
8.4348411764
 20
40.4820673896
 11
9.0404045428
 21
40.4692922217
  0
LINE
  5
478
100
AcDbEntity
  8
0
100
AcDbLine
 62
7
  6
CONTINUOUS
 10
8.8698523658
 20
40.4866680717
 11
9.4735146301
 21
40.473763024
  0
LINE
  5
479
100
AcDbEntity
  8
RACCORDO
100
AcDbLine
 62
250
  6
CONTINUOUS
 10
10.652699554
 20
38.5309743806
 11
11.4341531213
 21
38.5134229052
  0
LINE
  5
47A
100
AcDbEntity
  8
0
100
AcDbLine
 62
7
  6
CONTINUOUS
 10
7.1928175323
 20
41.7562965618
 11
7.7203654889
 21
41.7444381455
  0
LINE
  5
47B
100
AcDbEntity
  8
RACCORDO
100
AcDbLine
 62
250
  6
CONTINUOUS
 10
9.1477918923
 20
40.9076482439
 11
9.8216629733
 21
40.8918960127
  0
LINE
  5
47C
100
AcDbEntity
  8
RACCORDO
100
AcDbLine
 62
250
  6
CONTINUOUS
 10
8.9761419321
 20
41.1949151213
 11
9.6373684625
 21
41.1794584591
  0
LINE
  5
47D
100
AcDbEntity
  8
RACCORDO
100
AcDbLine
 62
250
  6
CONTINUOUS
 10
10.4694677519
 20
39.480198775
 11
11.1662929118
 21
39.4629842157
  0
LINE
  5
47E
100
AcDbEntity
  8
0
100
AcDbLine
 62
7
  6
CONTINUOUS
 10
9.0406145696
 20
39.9693650559
 11
9.5831219544
 21
39.9557423037
  0
LINE
  5
47F
100
AcDbEntity
  8
0
100
AcDbLine
 62
7
  6
CONTINUOUS
 10
9.0404045428
 20
40.4692922217
 11
9.5831219544
 21
40.4556661513
  0
LINE
  5
480
100
AcDbEntity
  8
0
100
AcDbLine
 62
7
  6
CONTINUOUS
 10
9.4735146301
 20
40.473763024
 11
10.0153249243
 21
40.4600637972
  0
LWPOLYLINE
  5
481
100
AcDbEntity
  8
RACCORDO
100
AcDbPolyline
 62
250
  6
CONTINUOUS
 90
14
 70
0
 10
11.4341531213
 20
38.5134229052
 10
12.1225753081
 20
38.4946564666
 10
12.4291754424
 20
38.4848862098
 10
12.7094379726
 20
38.474901195
 10
12.9631873246
 20
38.4647123134
 10
13.1903171206
 20
38.4543237579
 10
13.3904977378
 20
38.4437445894
 10
13.5629713631
 20
38.4330080106
 10
13.7070837674
 20
38.4221548263
 10
13.8224919306
 20
38.4112206929
 10
13.909215856
 20
38.4002159407
 10
13.967228857
 20
38.389143872
 10
13.996350842
 20
38.3780141259
 10
14.0
 20
38.3724358193
  0
LINE
  5
482
100
AcDbEntity
  8
0
100
AcDbLine
 62
7
  6
CONTINUOUS
 10
7.7203654889
 20
41.7444381455
 11
8.1839400658
 21
41.7317916249
  0
LWPOLYLINE
  5
483
100
AcDbEntity
  8
RACCORDO
100
AcDbPolyline
 62
250
  6
CONTINUOUS
 90
13
 70
0
 10
9.8216629733
 20
40.8918960127
 10
10.4075640234
 20
40.8750735809
 10
10.6648530886
 20
40.8663379768
 10
10.8978970483
 20
40.8574067706
 10
11.1065705726
 20
40.848284761
 10
11.2905347376
 20
40.8389813589
 10
11.4490544918
 20
40.8295275864
 10
11.5814991794
 20
40.8199610532
 10
11.6875294501
 20
40.8103148126
 10
11.7671401409
 20
40.8005999701
 10
11.8202886308
 20
40.7908217167
 10
11.846801364
 20
40.7809907311
 10
11.85
 20
40.7761858505
  0
LWPOLYLINE
  5
484
100
AcDbEntity
  8
RACCORDO
100
AcDbPolyline
 62
250
  6
CONTINUOUS
 90
12
 70
0
 10
9.6373684625
 20
41.1794584591
 10
10.2122756765
 20
41.1629516678
 10
10.4647369497
 20
41.1543799793
 10
10.6934080426
 20
41.145616362
 10
10.8981659961
 20
41.1366655197
 10
11.0786782577
 20
41.1275366834
 10
11.2342235578
 20
41.1182602964
 10
11.3641830594
 20
41.1088732661
 10
11.468223772
 20
41.0994080279
 10
11.5463406366
 20
41.0898754767
 10
11.5984918408
 20
41.0802807041
 10
11.6029477308
 20
41.0791389998
  0
LINE
  5
485
100
AcDbEntity
  8
0
100
AcDbLine
 62
7
  6
CONTINUOUS
 10
9.5831219544
 20
39.9557423037
 11
10.0584106243
 21
39.9413750617
  0
LINE
  5
486
100
AcDbEntity
  8
0
100
AcDbLine
 62
7
  6
CONTINUOUS
 10
9.5831219544
 20
40.4556661513
 11
10.0584932341
 21
40.4412941799
  0
LINE
  5
487
100
AcDbEntity
  8
0
100
AcDbLine
 62
7
  6
CONTINUOUS
 10
10.0153249243
 20
40.4600637972
 11
10.492653904
 21
40.4456368723
  0
LWPOLYLINE
  5
488
100
AcDbEntity
  8
RACCORDO
100
AcDbPolyline
 62
250
  6
CONTINUOUS
 90
11
 70
0
 10
11.1662929118
 20
39.4629842157
 10
11.771156282
 20
39.4447116311
 10
12.0365812922
 20
39.4352552384
 10
12.2768967653
 20
39.4256057735
 10
12.4920019656
 20
39.4157672045
 10
12.6815847278
 20
39.4057481115
 10
12.8449273525
 20
39.3955799406
 10
12.9814102383
 20
39.3853013383
 10
13.0907085205
 20
39.3749460743
 10
13.1728411475
 20
39.364523931
 10
13.2306563355
 20
39.3532885549
  0
LWPOLYLINE
  5
489
100
AcDbEntity
  8
0
100
AcDbPolyline
 62
7
  6
CONTINUOUS
 90
10
 70
0
 10
8.1839400658
 20
41.7317916249
 10
8.5796999378
 20
41.7184617931
 10
8.7511018233
 20
41.7115749563
 10
8.904365714
 20
41.7045591052
 10
9.039173947
 20
41.6974287813
 10
9.1552471117
 20
41.6901987633
 10
9.2523446286
 20
41.6828840365
 10
9.3302652484
 20
41.6754997617
 10
9.3888474687
 20
41.668061244
 10
9.4299275065
 20
41.6600727607
  0
LWPOLYLINE
  5
48A
100
AcDbEntity
  8
0
100
AcDbPolyline
 62
7
  6
CONTINUOUS
 90
12
 70
0
 10
10.492653904
 20
40.4456368723
 10
10.9018147128
 20
40.4305855454
 10
11.0799424758
 20
40.4228631979
 10
11.2400306983
 20
40.4150214498
 10
11.3821666418
 20
40.4070608788
 10
11.5056605365
 20
40.3990201165
 10
11.6104217681
 20
40.3908987733
 10
11.6965409508
 20
40.3826972388
 10
11.7636001581
 20
40.3744553141
 10
11.811506744
 20
40.3661728031
 10
11.8403533544
 20
40.357849902
 10
11.85
 20
40.3495270008
  0
LWPOLYLINE
  5
48B
100
AcDbEntity
  8
0
100
AcDbPolyline
 62
7
  6
CONTINUOUS
 90
10
 70
0
 10
10.0584106243
 20
39.9413750617
 10
10.4631467705
 20
39.9263641057
 10
10.6381505807
 20
39.9186499821
 10
10.79449146
 20
39.9108147268
 10
10.9318951332
 20
39.9028720856
 10
11.0501205476
 20
39.8948359926
 10
11.1489602958
 20
39.8867205459
 10
11.2282409791
 20
39.8785399826
 10
11.2878235124
 20
39.8703086543
 10
11.325891767
 20
39.8625070297
  0
LWPOLYLINE
  5
48C
100
AcDbEntity
  8
0
100
AcDbPolyline
 62
7
  6
CONTINUOUS
 90
12
 70
0
 10
10.0584932341
 20
40.4412941799
 10
10.4629906256
 20
40.4262920789
 10
10.6381985749
 20
40.4185689568
 10
10.79449146
 20
40.4107385744
 10
10.9317698467
 20
40.4028003678
 10
11.0501331693
 20
40.3947549008
 10
11.1489602958
 20
40.3866443935
 10
11.2281485271
 20
40.3784685038
 10
11.2878005625
 20
40.3702275738
 10
11.3276033677
 20
40.3619648491
 10
11.3474525979
 20
40.3536802151
 10
11.35
 20
40.3495270008
  0
LINE
  5
48D
100
AcDbEntity
  8
0
100
AcDbLine
 62
7
  6
CONTINUOUS
 10
-9.4907481555
 20
42.0889609332
 11
-9.45278323
 21
42.0872565553
  0
LINE
  5
48E
100
AcDbEntity
  8
0
100
AcDbLine
 62
7
  6
CONTINUOUS
 10
-11.3821666418
 20
40.2919931228
 11
-11.3533127925
 21
40.2903771127
  0
LINE
  5
48F
100
AcDbEntity
  8
0
100
AcDbLine
 62
7
  6
CONTINUOUS
 10
11.325891767
 20
39.8625070297
 11
13.2306563404
 21
39.3532885536
  0
LWPOLYLINE
  5
490
100
AcDbEntity
  8
COPY_PABLISH
100
AcDbPolyline
 62
250
  6
CONTINUOUS
 90
13
 70
0
 10
45.093666344
 20
35.5188576234
 10
45.0902124193
 20
35.7226304801
 10
45.0857200237
 20
35.9180225161
 10
45.0802408688
 20
36.1027843154
 10
45.0738380258
 20
36.2747888405
 10
45.0665852
 20
36.43205592
 10
45.0585658817
 20
36.5727750446
 10
45.0498723853
 20
36.6953262104
 10
45.0406047867
 20
36.7982985688
 10
45.0308697712
 20
36.8805066689
 10
45.0207794048
 20
36.9410041045
 10
45.0104498443
 20
36.9790944097
 10
45.0
 20
36.9943390766
  0
LINE
  5
491
100
AcDbEntity
  8
RACCORDO
100
AcDbLine
 62
250
  6
CONTINUOUS
 10
45.0
 20
-45.4704458503
 11
45.0
 21
-45.6659437343
  0
LINE
  5
492
100
AcDbEntity
  8
0
100
AcDbLine
 62
250
  6
CONTINUOUS
 10
44.9999999407
 20
-43.853071616
 11
45.0
 21
-45.4704468423
  0
LINE
  5
493
100
AcDbEntity
  8
COPY_PABLISH
100
AcDbLine
 62
250
  6
CONTINUOUS
 10
45.0
 20
36.9943390766
 11
45.0
 21
37.3340562657
  0
LWPOLYLINE
  5
494
100
AcDbEntity
  8
0
100
AcDbPolyline
 62
250
  6
CONTINUOUS
 90
10
 70
0
 10
28.4961611111
 20
-35.7734913356
 10
28.4290316619
 20
-35.8032292206
 10
28.3622106156
 20
-35.833293738
 10
28.2959225444
 20
-35.8635847591
 10
28.2302295084
 20
-35.8940792101
 10
28.1655413239
 20
-35.9245917926
 10
28.1025802731
 20
-35.9547790131
 10
28.0417069525
 20
-35.9844611805
 10
27.9829556859
 20
-36.0136183188
 10
27.92652
 20
-36.0421537343
  0
LWPOLYLINE
  5
495
100
AcDbEntity
  8
RACCORDO
100
AcDbPolyline
 62
7
  6
CONTINUOUS
 90
19
 70
0
 10
-8.1103821084
 20
44.6880069203
 10
-8.1201597338
 20
44.6852687725
 10
-8.1310414165
 20
44.681910027
 10
-8.1430110344
 20
44.6777992091
 10
-8.1558981223
 20
44.6728388411
 10
-8.169788504
 20
44.6668124598
 10
-8.1850035886
 20
44.6593213164
 10
-8.2015992569
 20
44.6499722923
 10
-8.2191618563
 20
44.6385670214
 10
-8.2372343684
 20
44.6249548748
 10
-8.2554875466
 20
44.6089033962
 10
-8.2735732223
 20
44.5901620016
 10
-8.2909546789
 20
44.5686587138
 10
-8.3072665291
 20
44.5440835994
 10
-8.3218089508
 20
44.5165681975
 10
-8.3337118753
 20
44.4869600754
 10
-8.3425475184
 20
44.4557633638
 10
-8.3480860254
 20
44.4230053069
 10
-8.35
 20
44.3890329722
  0
LWPOLYLINE
  5
496
100
AcDbEntity
  8
RACCORDO
100
AcDbPolyline
 62
7
  6
CONTINUOUS
 90
19
 70
0
 10
-9.8566649278
 20
42.9170615056
 10
-9.8666201597
 20
42.9142794458
 10
-9.8775505009
 20
42.9109273493
 10
-9.8894467828
 20
42.9068876495
 10
-9.9020840694
 20
42.9021036259
 10
-9.9156242185
 20
42.8963580758
 10
-9.9305859423
 20
42.8891872182
 10
-9.9470623922
 20
42.8801804093
 10
-9.9646151802
 20
42.8691412528
 10
-9.982874038
 20
42.8558353501
 10
-10.001561173
 20
42.8399305202
 10
-10.020233583
 20
42.8211783703
 10
-10.0382238843
 20
42.7995788249
 10
-10.055102348
 20
42.7748873875
 10
-10.0702095464
 20
42.7471488169
 10
-10.0826847285
 20
42.7170724332
 10
-10.0920375167
 20
42.6851070156
 10
-10.0979451083
 20
42.6513257623
 10
-10.1
 20
42.6160979591
  0
LWPOLYLINE
  5
497
100
AcDbEntity
  8
RACCORDO
100
AcDbPolyline
 62
7
  6
CONTINUOUS
 90
19
 70
0
 10
-11.6029478521
 20
41.0791389674
 10
-11.61316013
 20
41.076289416
 10
-11.6242276743
 20
41.0729113985
 10
-11.6361451014
 20
41.0688990934
 10
-11.6486645694
 20
41.0642199707
 10
-11.6619880024
 20
41.0586631513
 10
-11.6767338185
 20
41.0517457105
 10
-11.6929627663
 20
41.0430950966
 10
-11.7102995585
 20
41.0325001317
 10
-11.7285944665
 20
41.0195758102
 10
-11.7476645248
 20
41.0038479066
 10
-11.7669144419
 20
40.9850928077
 10
-11.7855166751
 20
40.9633929897
 10
-11.8029764534
 20
40.9385558173
 10
-11.8186651001
 20
40.910544328
 10
-11.831707652
 20
40.8799819257
 10
-11.841556552
 20
40.8472844737
 10
-11.847813162
 20
40.8125552306
 10
-11.85
 20
40.7761858505
  0
LINE
  5
498
100
AcDbEntity
  8
0
100
AcDbLine
 62
7
  6
CONTINUOUS
 10
-9.4299275065
 20
41.6600727607
 11
-11.6029477407
 21
41.0791389972
  0
LINE
  5
499
100
AcDbEntity
  8
0
100
AcDbLine
 62
7
  6
CONTINUOUS
 10
-7.8333260239
 20
43.4579795633
 11
-9.8566648691
 21
42.9170615213
  0
LINE
  5
49A
100
AcDbEntity
  8
0
100
AcDbLine
 62
7
  6
CONTINUOUS
 10
-5.9872555597
 20
45.2556021396
 11
-8.1103819975
 21
44.6880069499
  0
LINE
  5
49B
100
AcDbEntity
  8
0
100
AcDbLine
 62
7
  6
CONTINUOUS
 10
-0.9978759266
 20
47.1496282333
 11
-3.8694093095
 21
46.3819544358
  0
LWPOLYLINE
  5
49C
100
AcDbEntity
  8
RACCORDO
100
AcDbPolyline
 62
250
  6
CONTINUOUS
 90
10
 70
0
 10
-11.6029477394
 20
41.0791389975
 10
-11.5975265095
 20
41.0805162261
 10
-11.5447355021
 20
41.0901099534
 10
-11.4659827775
 20
41.0996409438
 10
-11.3613102832
 20
41.1091041145
 10
-11.230723498
 20
41.118488578
 10
-11.0745575018
 20
41.127761896
 10
-10.8934338177
 20
41.1368871552
 10
-10.688076102
 20
41.1458339126
 10
-10.4588172472
 20
41.1545929574
  0
LWPOLYLINE
  5
49D
100
AcDbEntity
  8
RACCORDO
100
AcDbPolyline
 62
250
  6
CONTINUOUS
 90
9
 70
0
 10
-9.8566648708
 20
42.9170615209
 10
-9.8493671662
 20
42.9188666773
 10
-9.7996413732
 20
42.9274536455
 10
-9.7252584535
 20
42.9359956394
 10
-9.6265642213
 20
42.9444528733
 10
-9.504075196
 20
42.9527926245
 10
-9.3580505417
 20
42.9610065093
 10
-9.1885465639
 20
42.9690914257
 10
-8.9956319702
 20
42.9770375925
  0
LWPOLYLINE
  5
49E
100
AcDbEntity
  8
RACCORDO
100
AcDbPolyline
 62
250
  6
CONTINUOUS
 90
9
 70
0
 10
-8.1103819976
 20
44.6880069499
 10
-8.1021705227
 20
44.6899886005
 10
-8.0571841341
 20
44.6974039972
 10
-7.9898497159
 20
44.704775513
 10
-7.9004930745
 20
44.7120674733
 10
-7.7895984665
 20
44.7192500802
 10
-7.6574296712
 20
44.7263140525
 10
-7.5040748036
 20
44.7332546845
 10
-7.3296350099
 20
44.7400617616
  0
LWPOLYLINE
  5
49F
100
AcDbEntity
  8
RACCORDO
100
AcDbPolyline
 62
250
  6
CONTINUOUS
 90
8
 70
0
 10
-3.8694092994
 20
46.3819544385
 10
-3.8595653656
 20
46.38407348
 10
-3.8290780315
 20
46.3882232773
 10
-3.7840204692
 20
46.3923272431
 10
-3.7244592314
 20
46.3963794806
 10
-3.6504477333
 20
46.4003703602
 10
-3.5623023411
 20
46.4042779744
 10
-3.4605577042
 20
46.408078558
  0
LINE
  5
4A0
100
AcDbEntity
  8
0
100
AcDbLine
 62
7
  6
CONTINUOUS
 10
7.8678786997
 20
43.9001775033
 11
7.8522657862
 21
43.8994630719
  0
LWPOLYLINE
  5
4A1
100
AcDbEntity
  8
0
100
AcDbPolyline
 62
7
  6
CONTINUOUS
 90
10
 70
0
 10
-9.3311832784
 20
42.2167081948
 10
-9.4907481555
 20
42.2095447709
 10
-9.632573129
 20
42.2022531049
 10
-9.7558508455
 20
42.1948747053
 10
-9.8604755222
 20
42.1874090774
 10
-9.9465529418
 20
42.1798567158
 10
-10.0135930999
 20
42.1722606133
 10
-10.0614874188
 20
42.1646205202
 10
-10.0903444761
 20
42.1569366862
 10
-10.1
 20
42.1492528521
  0
LWPOLYLINE
  5
4A2
100
AcDbEntity
  8
0
100
AcDbPolyline
 62
7
  6
CONTINUOUS
 90
9
 70
0
 10
-5.4690866775
 20
45.2918440539
 10
-5.5852424919
 20
45.2870371873
 10
-5.6874322948
 20
45.2821346596
 10
-5.7757593101
 20
45.2771371779
 10
-5.8495674731
 20
45.2720818618
 10
-5.9087486747
 20
45.2669682806
 10
-5.9534110239
 20
45.2617968651
 10
-5.9832227831
 20
45.2566060269
 10
-5.9872670073
 20
45.2555990785
  0
LWPOLYLINE
  5
4A3
100
AcDbEntity
  8
0
100
AcDbPolyline
 62
7
  6
CONTINUOUS
 90
9
 70
0
 10
-7.1406111635
 20
43.5059672902
 10
-7.2876882742
 20
43.499973129
 10
-7.4182564269
 20
43.4938636216
 10
-7.5320198429
 20
43.4876526078
 10
-7.6287208113
 20
43.4813541578
 10
-7.7081402735
 20
43.4749825394
 10
-7.7700983188
 20
43.4685521865
 10
-7.8144545922
 20
43.4620776659
 10
-7.8333260239
 20
43.4579795633
  0
LWPOLYLINE
  5
4A4
100
AcDbEntity
  8
0
100
AcDbPolyline
 62
7
  6
CONTINUOUS
 90
10
 70
0
 10
-7.1406111635
 20
44.0058911378
 10
-7.2875271939
 20
43.9999011653
 10
-7.418291863
 20
43.9937824625
 10
-7.5320198429
 20
43.9875764554
 10
-7.6285955275
 20
43.9812825515
 10
-7.7081345228
 20
43.9749013433
 10
-7.7700983188
 20
43.9684760341
 10
-7.8143676552
 20
43.9620063246
 10
-7.8410617922
 20
43.955492514
 10
-7.85
 20
43.9489787034
  0
LWPOLYLINE
  5
4A5
100
AcDbEntity
  8
0
100
AcDbPolyline
 62
7
  6
CONTINUOUS
 90
11
 70
0
 10
-8.5795199041
 20
42.218389914
 10
-8.7511578916
 20
42.2114935907
 10
-8.904365714
 20
42.2044829528
 10
-9.0390289317
 20
42.1973572903
 10
-9.1552619843
 20
42.1901173131
 10
-9.2523446286
 20
42.182807884
 10
-9.3301579527
 20
42.1754285719
 10
-9.3888208686
 20
42.1679798078
 10
-9.4279698689
 20
42.1605077485
 10
-9.4474837844
 20
42.1530122493
 10
-9.45
 20
42.1492528521
  0
LWPOLYLINE
  5
4A6
100
AcDbEntity
  8
0
100
AcDbPolyline
 62
7
  6
CONTINUOUS
 90
11
 70
0
 10
-7.5808456296
 20
44.010068065
 10
-7.7325045921
 20
44.0039744883
 10
-7.8678786997
 20
43.9977799034
 10
-7.9868668338
 20
43.9914836831
 10
-8.0895701131
 20
43.9850864546
 10
-8.1753521321
 20
43.9786278586
 10
-8.2441078207
 20
43.972107514
 10
-8.295942249
 20
43.9655258018
 10
-8.3305342227
 20
43.9589235061
 10
-8.3477766773
 20
43.9523004988
 10
-8.35
 20
43.9489787034
  0
LWPOLYLINE
  5
4A7
100
AcDbEntity
  8
0
100
AcDbPolyline
 62
7
  6
CONTINUOUS
 90
9
 70
0
 10
-3.216916057
 20
45.7769052185
 10
-3.3056151629
 20
45.7735854942
 10
-3.3828934348
 20
45.770193223
 10
-3.4486352008
 20
45.7667276702
 10
-3.5029561329
 20
45.7631895704
 10
-3.5453079108
 20
45.7596146375
 10
-3.5755693092
 20
45.7560024986
 10
-3.5938615534
 20
45.7523535266
 10
-3.6
 20
45.7487045546
  0
LWPOLYLINE
  5
4A8
100
AcDbEntity
  8
0
100
AcDbPolyline
 62
7
  6
CONTINUOUS
 90
10
 70
0
 10
-3.658295417
 20
45.7810099464
 10
-3.7546706393
 20
45.7774478171
 10
-3.8395626554
 20
45.77379778
 10
-3.9130749351
 20
45.7700606271
 10
-3.9745410904
 20
45.7662702359
 10
-4.0238515922
 20
45.7624261221
 10
-4.0611159696
 20
45.7585287699
 10
-4.0859964213
 20
45.7546135087
 10
-4.098380347
 20
45.7506801757
 10
-4.1
 20
45.7487045546
  0
LINE
  5
4A9
100
AcDbEntity
  8
0
100
AcDbLine
 62
7
  6
CONTINUOUS
 10
-8.9586314566
 20
42.230648853
 11
-9.3311832784
 21
42.2167081948
  0
LINE
  5
4AA
100
AcDbEntity
  8
0
100
AcDbLine
 62
7
  6
CONTINUOUS
 10
-6.7982994197
 20
43.5175555511
 11
-7.1406111635
 21
43.5059672902
  0
LINE
  5
4AB
100
AcDbEntity
  8
0
100
AcDbLine
 62
7
  6
CONTINUOUS
 10
-6.7981058222
 20
44.0174831447
 11
-7.1406111635
 21
44.0058911378
  0
LINE
  5
4AC
100
AcDbEntity
  8
0
100
AcDbLine
 62
7
  6
CONTINUOUS
 10
-5.1961524227
 20
45.3011379264
 11
-5.4690866775
 21
45.2918440539
  0
LINE
  5
4AD
100
AcDbEntity
  8
0
100
AcDbLine
 62
7
  6
CONTINUOUS
 10
-8.1840362853
 20
42.2317104412
 11
-8.5795199041
 21
42.218389914
  0
LINE
  5
4AE
100
AcDbEntity
  8
RACCORDO
100
AcDbLine
 62
250
  6
CONTINUOUS
 10
-9.1981314059
 20
42.6889068782
 11
-8.73473693
 21
42.7045979605
  0
LINE
  5
4AF
100
AcDbEntity
  8
RACCORDO
100
AcDbLine
 62
250
  6
CONTINUOUS
 10
-8.9956319702
 20
42.9770375925
 11
-8.5424391973
 21
42.992383247
  0
LINE
  5
4B0
100
AcDbEntity
  8
0
100
AcDbLine
 62
7
  6
CONTINUOUS
 10
-7.2313971409
 20
44.0218380546
 11
-7.5808456296
 21
44.010068065
  0
LINE
  5
4B1
100
AcDbEntity
  8
RACCORDO
100
AcDbLine
 62
250
  6
CONTINUOUS
 10
-7.5301575429
 20
44.4520050365
 11
-7.1096165915
 21
44.4654574827
  0
LINE
  5
4B2
100
AcDbEntity
  8
RACCORDO
100
AcDbLine
 62
250
  6
CONTINUOUS
 10
-7.3296350099
 20
44.7400617616
 11
-6.9202926874
 21
44.7531559977
  0
LINE
  5
4B3
100
AcDbEntity
  8
0
100
AcDbLine
 62
7
  6
CONTINUOUS
 10
-8.5183578418
 20
42.243957644
 11
-8.9586314566
 21
42.230648853
  0
LINE
  5
4B4
100
AcDbEntity
  8
0
100
AcDbLine
 62
7
  6
CONTINUOUS
 10
-3.0078347488
 20
45.7832254233
 11
-3.216916057
 21
45.7769052185
  0
LINE
  5
4B5
100
AcDbEntity
  8
0
100
AcDbLine
 62
7
  6
CONTINUOUS
 10
-3.4323825609
 20
45.787841357
 11
-3.658295417
 21
45.7810099464
  0
LINE
  5
4B6
100
AcDbEntity
  8
RACCORDO
100
AcDbLine
 62
250
  6
CONTINUOUS
 10
-3.6589951647
 20
46.1200957446
 11
-3.4029938098
 21
46.1277231551
  0
LINE
  5
4B7
100
AcDbEntity
  8
RACCORDO
100
AcDbLine
 62
250
  6
CONTINUOUS
 10
-3.4605577042
 20
46.408078558
 11
-3.2184400229
 21
46.4152923102
  0
LINE
  5
4B8
100
AcDbEntity
  8
0
100
AcDbLine
 62
7
  6
CONTINUOUS
 10
-7.7203654889
 20
42.2443619931
 11
-8.1840362853
 21
42.2317104412
  0
LINE
  5
4B9
100
AcDbEntity
  8
0
100
AcDbLine
 62
7
  6
CONTINUOUS
 10
-6.8216986066
 20
44.0330169391
 11
-7.2313971409
 21
44.0218380546
  0
LINE
  5
4BA
100
AcDbEntity
  8
0
100
AcDbLine
 62
7
  6
CONTINUOUS
 10
-6.3944212236
 20
43.528523459
 11
-6.7982994197
 21
43.5175555511
  0
LINE
  5
4BB
100
AcDbEntity
  8
0
100
AcDbLine
 62
7
  6
CONTINUOUS
 10
-6.3945360454
 20
44.028442677
 11
-6.7981058222
 21
44.0174831447
  0
LINE
  5
4BC
100
AcDbEntity
  8
RACCORDO
100
AcDbLine
 62
250
  6
CONTINUOUS
 10
-8.73473693
 20
42.7045979605
 11
-8.1856926828
 21
42.7193543319
  0
LINE
  5
4BD
100
AcDbEntity
  8
RACCORDO
100
AcDbLine
 62
250
  6
CONTINUOUS
 10
-8.5424391973
 20
42.992383247
 11
-8.0054822998
 21
43.0068147576
  0
LINE
  5
4BE
100
AcDbEntity
  8
0
100
AcDbLine
 62
7
  6
CONTINUOUS
 10
-4.8714378982
 20
45.309910053
 11
-5.1961524227
 21
45.3011379264
  0
LINE
  5
4BF
100
AcDbEntity
  8
RACCORDO
100
AcDbLine
 62
250
  6
CONTINUOUS
 10
-7.1096165915
 20
44.4654574827
 11
-6.6123135795
 21
44.4780228088
  0
LINE
  5
4C0
100
AcDbEntity
  8
RACCORDO
100
AcDbLine
 62
250
  6
CONTINUOUS
 10
-6.9202926874
 20
44.7531559977
 11
-6.4362324981
 21
44.7653867164
  0
LINE
  5
4C1
100
AcDbEntity
  8
0
100
AcDbLine
 62
7
  6
CONTINUOUS
 10
-8.0128687369
 20
42.2565588061
 11
-8.5183578418
 21
42.243957644
  0
LINE
  5
4C2
100
AcDbEntity
  8
0
100
AcDbLine
 62
7
  6
CONTINUOUS
 10
-3.1646687731
 20
45.794196144
 11
-3.4323825609
 21
45.787841357
  0
LINE
  5
4C3
100
AcDbEntity
  8
0
100
AcDbLine
 62
7
  6
CONTINUOUS
 10
-2.7577599952
 20
45.7890900409
 11
-3.0078347488
 21
45.7832254233
  0
LINE
  5
4C4
100
AcDbEntity
  8
0
100
AcDbLine
 62
7
  6
CONTINUOUS
 10
-7.192578113
 20
42.2562236766
 11
-7.7203654889
 21
42.2443619931
  0
LINE
  5
4C5
100
AcDbEntity
  8
0
100
AcDbLine
 62
7
  6
CONTINUOUS
 10
-6.3553467982
 20
44.0434978975
 11
-6.8216986066
 21
44.0330169391
  0
LINE
  5
4C6
100
AcDbEntity
  8
RACCORDO
100
AcDbLine
 62
250
  6
CONTINUOUS
 10
-3.4029938098
 20
46.1277231551
 11
-3.0945693377
 21
46.1347513094
  0
LINE
  5
4C7
100
AcDbEntity
  8
RACCORDO
100
AcDbLine
 62
250
  6
CONTINUOUS
 10
-3.2184400229
 20
46.4152923102
 11
-2.9267421651
 21
46.421939337
  0
LINE
  5
4C8
100
AcDbEntity
  8
0
100
AcDbLine
 62
7
  6
CONTINUOUS
 10
-5.9326341587
 20
43.5387716869
 11
-6.3944212236
 21
43.528523459
  0
LINE
  5
4C9
100
AcDbEntity
  8
0
100
AcDbLine
 62
7
  6
CONTINUOUS
 10
-5.9326341587
 20
44.0386955345
 11
-6.3945360454
 21
44.028442677
  0
LINE
  5
4CA
100
AcDbEntity
  8
RACCORDO
100
AcDbLine
 62
250
  6
CONTINUOUS
 10
-8.1856926828
 20
42.7193543319
 11
-7.5540342885
 21
42.7331027336
  0
LINE
  5
4CB
100
AcDbEntity
  8
RACCORDO
100
AcDbLine
 62
250
  6
CONTINUOUS
 10
-8.0054822998
 20
43.0068147576
 11
-7.3877300484
 21
43.0202604839
  0
LINE
  5
4CC
100
AcDbEntity
  8
0
100
AcDbLine
 62
7
  6
CONTINUOUS
 10
-7.4462714621
 20
42.2683416257
 11
-8.0128687369
 21
42.2565588061
  0
LINE
  5
4CD
100
AcDbEntity
  8
RACCORDO
100
AcDbLine
 62
250
  6
CONTINUOUS
 10
-6.6123135795
 20
44.4780228088
 11
-6.0412169486
 21
44.4896324332
  0
LINE
  5
4CE
100
AcDbEntity
  8
RACCORDO
100
AcDbLine
 62
250
  6
CONTINUOUS
 10
-6.4362324981
 20
44.7653867164
 11
-5.8803437303
 21
44.7766871925
  0
LINE
  5
4CF
100
AcDbEntity
  8
0
100
AcDbLine
 62
7
  6
CONTINUOUS
 10
-4.2949878479
 20
45.3218986109
 11
-4.8714378982
 21
45.309910053
  0
LINE
  5
4D0
100
AcDbEntity
  8
0
100
AcDbLine
 62
7
  6
CONTINUOUS
 10
-6.6058380545
 20
42.2671880672
 11
-7.192578113
 21
42.2562236766
  0
LINE
  5
4D1
100
AcDbEntity
  8
RACCORDO
100
AcDbLine
 62
250
  6
CONTINUOUS
 10
-7.5540342885
 20
42.7331027336
 11
-6.8457873305
 21
42.7456992024
  0
LINE
  5
4D2
100
AcDbEntity
  8
RACCORDO
100
AcDbLine
 62
250
  6
CONTINUOUS
 10
-7.3877300484
 20
43.0202604839
 11
-6.6950753374
 21
43.0325796426
  0
LINE
  5
4D3
100
AcDbEntity
  8
0
100
AcDbLine
 62
7
  6
CONTINUOUS
 10
-6.8236305449
 20
42.2792082081
 11
-7.4462714621
 21
42.2683416257
  0
LINE
  5
4D4
100
AcDbEntity
  8
RACCORDO
100
AcDbLine
 62
250
  6
CONTINUOUS
 10
-3.0945693377
 20
46.1347513094
 11
-2.738168778
 21
46.1410705715
  0
LINE
  5
4D5
100
AcDbEntity
  8
RACCORDO
100
AcDbLine
 62
250
  6
CONTINUOUS
 10
-2.9267421651
 20
46.421939337
 11
-2.5896700569
 21
46.4279159363
  0
LINE
  5
4D6
100
AcDbEntity
  8
0
100
AcDbLine
 62
7
  6
CONTINUOUS
 10
-5.5586978956
 20
44.0577206137
 11
-6.3553467982
 21
44.0434978975
  0
LINE
  5
4D7
100
AcDbEntity
  8
0
100
AcDbLine
 62
7
  6
CONTINUOUS
 10
-2.6924731734
 20
45.8026664359
 11
-3.1646687731
 21
45.794196144
  0
LINE
  5
4D8
100
AcDbEntity
  8
0
100
AcDbLine
 62
7
  6
CONTINUOUS
 10
-5.1406567615
 20
43.5525935984
 11
-5.9326341587
 21
43.5387716869
  0
LINE
  5
4D9
100
AcDbEntity
  8
0
100
AcDbLine
 62
7
  6
CONTINUOUS
 10
-5.1406567615
 20
44.0525174459
 11
-5.9326341587
 21
44.0386955345
  0
LINE
  5
4DA
100
AcDbEntity
  8
RACCORDO
100
AcDbLine
 62
250
  6
CONTINUOUS
 10
-6.0412169486
 20
44.4896324332
 11
-5.4025894027
 21
44.5001467455
  0
LINE
  5
4DB
100
AcDbEntity
  8
RACCORDO
100
AcDbLine
 62
250
  6
CONTINUOUS
 10
-5.8803437303
 20
44.7766871925
 11
-5.2587223095
 21
44.7869215391
  0
LINE
  5
4DC
100
AcDbEntity
  8
0
100
AcDbLine
 62
7
  6
CONTINUOUS
 10
-2.3140353949
 20
45.7968341029
 11
-2.7577599952
 21
45.7890900409
  0
LINE
  5
4DD
100
AcDbEntity
  8
0
100
AcDbLine
 62
7
  6
CONTINUOUS
 10
-3.6225948663
 20
45.3322538357
 11
-4.2949878479
 21
45.3218986109
  0
LINE
  5
4DE
100
AcDbEntity
  8
RACCORDO
100
AcDbLine
 62
250
  6
CONTINUOUS
 10
-6.8457873305
 20
42.7456992024
 11
-6.0672995652
 21
42.7570177733
  0
LINE
  5
4DF
100
AcDbEntity
  8
RACCORDO
100
AcDbLine
 62
250
  6
CONTINUOUS
 10
-6.6950753374
 20
43.0325796426
 11
-5.9337260566
 21
43.043649091
  0
LINE
  5
4E0
100
AcDbEntity
  8
0
100
AcDbLine
 62
7
  6
CONTINUOUS
 10
-5.624160277
 20
42.2817879616
 11
-6.6058380545
 21
42.2671880672
  0
LINE
  5
4E1
100
AcDbEntity
  8
RACCORDO
100
AcDbLine
 62
250
  6
CONTINUOUS
 10
-2.738168778
 20
46.1410705715
 11
-2.34082179
 21
46.1465586646
  0
LINE
  5
4E2
100
AcDbEntity
  8
0
100
AcDbLine
 62
7
  6
CONTINUOUS
 10
-5.7933199795
 20
42.2936406262
 11
-6.8236305449
 21
42.2792082081
  0
LINE
  5
4E3
100
AcDbEntity
  8
RACCORDO
100
AcDbLine
 62
250
  6
CONTINUOUS
 10
-5.4025894027
 20
44.5001467455
 11
-4.7070123662
 21
44.5093996033
  0
LINE
  5
4E4
100
AcDbEntity
  8
RACCORDO
100
AcDbLine
 62
250
  6
CONTINUOUS
 10
-5.2587223095
 20
44.7869215391
 11
-4.5816678857
 21
44.7959280441
  0
LINE
  5
4E5
100
AcDbEntity
  8
0
100
AcDbLine
 62
7
  6
CONTINUOUS
 10
-4.6585009686
 20
44.0699176738
 11
-5.5586978956
 21
44.0577206137
  0
LINE
  5
4E6
100
AcDbEntity
  8
0
100
AcDbLine
 62
7
  6
CONTINUOUS
 10
-4.244030417
 20
43.5643077596
 11
-5.1406567615
 21
43.5525935984
  0
LINE
  5
4E7
100
AcDbEntity
  8
0
100
AcDbLine
 62
7
  6
CONTINUOUS
 10
-4.244030417
 20
44.0642316072
 11
-5.1406567615
 21
44.0525174459
  0
LINE
  5
4E8
100
AcDbEntity
  8
RACCORDO
100
AcDbLine
 62
250
  6
CONTINUOUS
 10
-2.5896700569
 20
46.4279159363
 11
-2.0128771564
 21
46.4353881631
  0
LINE
  5
4E9
100
AcDbEntity
  8
RACCORDO
100
AcDbLine
 62
250
  6
CONTINUOUS
 10
-6.0672995652
 20
42.7570177733
 11
-5.2513852814
 21
42.766667791
  0
LINE
  5
4EA
100
AcDbEntity
  8
RACCORDO
100
AcDbLine
 62
250
  6
CONTINUOUS
 10
-5.9337260566
 20
43.043649091
 11
-5.1357743264
 21
43.0530866861
  0
LINE
  5
4EB
100
AcDbEntity
  8
0
100
AcDbLine
 62
7
  6
CONTINUOUS
 10
-1.8
 20
45.803115773
 11
-2.3140353949
 21
45.7968341029
  0
LINE
  5
4EC
100
AcDbEntity
  8
0
100
AcDbLine
 62
7
  6
CONTINUOUS
 10
-1.9513843115
 20
45.8116351814
 11
-2.6924731734
 21
45.8026664359
  0
LINE
  5
4ED
100
AcDbEntity
  8
0
100
AcDbLine
 62
7
  6
CONTINUOUS
 10
-4.5377150348
 20
42.2939189777
 11
-5.624160277
 21
42.2817879616
  0
LINE
  5
4EE
100
AcDbEntity
  8
RACCORDO
100
AcDbLine
 62
250
  6
CONTINUOUS
 10
-4.7070123662
 20
44.5093996033
 11
-3.9682457797
 21
44.5172523849
  0
LINE
  5
4EF
100
AcDbEntity
  8
RACCORDO
100
AcDbLine
 62
250
  6
CONTINUOUS
 10
-4.5816678857
 20
44.7959280441
 11
-3.8625741693
 21
44.803571698
  0
LINE
  5
4F0
100
AcDbEntity
  8
0
100
AcDbLine
 62
7
  6
CONTINUOUS
 10
-4.663884103
 20
42.3056025294
 11
-5.7933199795
 21
42.2936406262
  0
LINE
  5
4F1
100
AcDbEntity
  8
0
100
AcDbLine
 62
7
  6
CONTINUOUS
 10
-3.6715249828
 20
44.0798618697
 11
-4.6585009686
 21
44.0699176738
  0
LINE
  5
4F2
100
AcDbEntity
  8
RACCORDO
100
AcDbLine
 62
250
  6
CONTINUOUS
 10
-5.2513852814
 20
42.766667791
 11
-4.4196319373
 21
42.7745950808
  0
LINE
  5
4F3
100
AcDbEntity
  8
RACCORDO
100
AcDbLine
 62
250
  6
CONTINUOUS
 10
-5.1357743264
 20
43.0530866861
 11
-4.3223323344
 21
43.0608394369
  0
LINE
  5
4F4
100
AcDbEntity
  8
0
100
AcDbLine
 62
7
  6
CONTINUOUS
 10
-2.6033024347
 20
45.3431251563
 11
-3.6225948663
 21
45.3322538357
  0
LINE
  5
4F5
100
AcDbEntity
  8
0
100
AcDbLine
 62
7
  6
CONTINUOUS
 10
-3.2610078521
 20
43.573675704
 11
-4.244030417
 21
43.5643077596
  0
LINE
  5
4F6
100
AcDbEntity
  8
0
100
AcDbLine
 62
7
  6
CONTINUOUS
 10
-3.2610078521
 20
44.0735995516
 11
-4.244030417
 21
44.0642316072
  0
LINE
  5
4F7
100
AcDbEntity
  8
RACCORDO
100
AcDbLine
 62
250
  6
CONTINUOUS
 10
-2.34082179
 20
46.1465586646
 11
-1.6788578522
 21
46.1530933072
  0
LINE
  5
4F8
100
AcDbEntity
  8
RACCORDO
100
AcDbLine
 62
250
  6
CONTINUOUS
 10
-3.9682457797
 20
44.5172523849
 11
-3.2002726255
 21
44.5236325102
  0
LINE
  5
4F9
100
AcDbEntity
  8
RACCORDO
100
AcDbLine
 62
250
  6
CONTINUOUS
 10
-3.8625741693
 20
44.803571698
 11
-3.115051668
 21
44.8097818855
  0
LINE
  5
4FA
100
AcDbEntity
  8
0
100
AcDbLine
 62
7
  6
CONTINUOUS
 10
-3.3667407473
 20
42.3033551376
 11
-4.5377150348
 21
42.2939189777
  0
LINE
  5
4FB
100
AcDbEntity
  8
RACCORDO
100
AcDbLine
 62
250
  6
CONTINUOUS
 10
-2.0128771564
 20
46.4353881631
 11
-1.3658492373
 21
46.44088338
  0
LINE
  5
4FC
100
AcDbEntity
  8
RACCORDO
100
AcDbLine
 62
250
  6
CONTINUOUS
 10
-4.4196319373
 20
42.7745950808
 11
-3.5896922545
 21
42.7808583962
  0
LINE
  5
4FD
100
AcDbEntity
  8
RACCORDO
100
AcDbLine
 62
250
  6
CONTINUOUS
 10
-4.3223323344
 20
43.0608394369
 11
-3.5106640673
 21
43.0669648437
  0
LINE
  5
4FE
100
AcDbEntity
  8
0
100
AcDbLine
 62
7
  6
CONTINUOUS
 10
-3.4546478764
 20
42.3148892463
 11
-4.663884103
 21
42.3056025294
  0
LINE
  5
4FF
100
AcDbEntity
  8
0
100
AcDbLine
 62
7
  6
CONTINUOUS
 10
-2.6161554334
 20
44.0873679599
 11
-3.6715249828
 21
44.0798618697
  0
LINE
  5
500
100
AcDbEntity
  8
RACCORDO
100
AcDbLine
 62
250
  6
CONTINUOUS
 10
-3.2002726255
 20
44.5236325102
 11
-2.4170779324
 21
44.528521545
  0
LINE
  5
501
100
AcDbEntity
  8
RACCORDO
100
AcDbLine
 62
250
  6
CONTINUOUS
 10
-3.115051668
 20
44.8097818855
 11
-2.3527126396
 21
44.8145409275
  0
LINE
  5
502
100
AcDbEntity
  8
0
100
AcDbLine
 62
7
  6
CONTINUOUS
 10
-1.0327008812
 20
45.8088915378
 11
-1.8
 21
45.803115773
  0
LINE
  5
503
100
AcDbEntity
  8
0
100
AcDbLine
 62
7
  6
CONTINUOUS
 10
-2.2116005712
 20
43.5805067274
 11
-3.2610078521
 21
43.573675704
  0
LINE
  5
504
100
AcDbEntity
  8
0
100
AcDbLine
 62
7
  6
CONTINUOUS
 10
-2.2116005712
 20
44.080430575
 11
-3.2610078521
 21
44.0735995516
  0
LINE
  5
505
100
AcDbEntity
  8
0
100
AcDbLine
 62
7
  6
CONTINUOUS
 10
-1.1158294836
 20
45.817557473
 11
-1.9513843115
 21
45.8116351814
  0
LINE
  5
506
100
AcDbEntity
  8
0
100
AcDbLine
 62
7
  6
CONTINUOUS
 10
-1.4807714622
 20
45.3502550817
 11
-2.6033024347
 21
45.3431251563
  0
LINE
  5
507
100
AcDbEntity
  8
RACCORDO
100
AcDbLine
 62
250
  6
CONTINUOUS
 10
-1.6788578522
 20
46.1530933072
 11
-0.9569536857
 21
46.1573908383
  0
LINE
  5
508
100
AcDbEntity
  8
RACCORDO
100
AcDbLine
 62
250
  6
CONTINUOUS
 10
-3.5896922545
 20
42.7808583962
 11
-2.389549817
 21
42.7873629524
  0
LINE
  5
509
100
AcDbEntity
  8
RACCORDO
100
AcDbLine
 62
250
  6
CONTINUOUS
 10
-3.5106640673
 20
43.0669648437
 11
-2.3369430779
 21
43.0733262598
  0
LINE
  5
50A
100
AcDbEntity
  8
0
100
AcDbLine
 62
7
  6
CONTINUOUS
 10
-2.1330504498
 20
42.3099206636
 11
-3.3667407473
 21
42.3033551376
  0
LINE
  5
50B
100
AcDbEntity
  8
0
100
AcDbLine
 62
7
  6
CONTINUOUS
 10
-2.1863016669
 20
42.3213418786
 11
-3.4546478764
 21
42.3148892463
  0
LINE
  5
50C
100
AcDbEntity
  8
RACCORDO
100
AcDbLine
 62
250
  6
CONTINUOUS
 10
-1.3658492373
 20
46.44088338
 11
-0.6736228676
 21
46.4441909677
  0
LINE
  5
50D
100
AcDbEntity
  8
RACCORDO
100
AcDbLine
 62
250
  6
CONTINUOUS
 10
-2.4170779324
 20
44.528521545
 11
-1.3072106072
 21
44.5329637055
  0
LINE
  5
50E
100
AcDbEntity
  8
RACCORDO
100
AcDbLine
 62
250
  6
CONTINUOUS
 10
-2.3527126396
 20
44.8145409275
 11
-1.2724005372
 21
44.8188645838
  0
LINE
  5
50F
100
AcDbEntity
  8
0
100
AcDbLine
 62
7
  6
CONTINUOUS
 10
-1.13699152
 20
44.0933489824
 11
-2.6161554334
 21
44.0873679599
  0
LINE
  5
510
100
AcDbEntity
  8
RACCORDO
100
AcDbLine
 62
250
  6
CONTINUOUS
 10
-2.389549817
 20
42.7873629524
 11
-1.2927253938
 21
42.7909174725
  0
LINE
  5
511
100
AcDbEntity
  8
RACCORDO
100
AcDbLine
 62
250
  6
CONTINUOUS
 10
-2.3369430779
 20
43.0733262598
 11
-1.2642656817
 21
43.0768023955
  0
LINE
  5
512
100
AcDbEntity
  8
0
100
AcDbLine
 62
7
  6
CONTINUOUS
 10
-0.7461899399
 20
43.5854358934
 11
-2.2116005712
 21
43.5805067274
  0
LINE
  5
513
100
AcDbEntity
  8
0
100
AcDbLine
 62
7
  6
CONTINUOUS
 10
-0.7473079192
 20
44.0853571723
 11
-2.2116005712
 21
44.080430575
  0
LINE
  5
514
100
AcDbEntity
  8
0
100
AcDbLine
 62
7
  6
CONTINUOUS
 10
-0.8605132427
 20
42.3134921923
 11
-2.1330504498
 21
42.3099206636
  0
LINE
  5
515
100
AcDbEntity
  8
0
100
AcDbLine
 62
7
  6
CONTINUOUS
 10
-0.881382664
 20
42.3248490642
 11
-2.1863016669
 21
42.3213418786
  0
LINE
  5
516
100
AcDbEntity
  8
RACCORDO
100
AcDbLine
 62
250
  6
CONTINUOUS
 10
-0.9569536857
 20
46.1573908383
 11
-0.2336038135
 21
46.1592509196
  0
LINE
  5
517
100
AcDbEntity
  8
0
100
AcDbLine
 62
7
  6
CONTINUOUS
 10
-0.3003041043
 20
45.3533622901
 11
-1.4807714622
 21
45.3502550817
  0
LINE
  5
518
100
AcDbEntity
  8
RACCORDO
100
AcDbLine
 62
250
  6
CONTINUOUS
 10
-1.3072106072
 20
44.5329637055
 11
-0.3069659338
 21
44.534662055
  0
LINE
  5
519
100
AcDbEntity
  8
RACCORDO
100
AcDbLine
 62
250
  6
CONTINUOUS
 10
-1.2724005372
 20
44.8188645838
 11
-0.2987916714
 21
44.820517597
  0
LINE
  5
51A
100
AcDbEntity
  8
RACCORDO
100
AcDbLine
 62
250
  6
CONTINUOUS
 10
-1.2927253938
 20
42.7909174725
 11
-0.3050164393
 21
42.7922868636
  0
LINE
  5
51B
100
AcDbEntity
  8
RACCORDO
100
AcDbLine
 62
250
  6
CONTINUOUS
 10
-1.2642656817
 20
43.0768023955
 11
-0.2983014235
 21
43.0781415875
  0
LINE
  5
51C
100
AcDbEntity
  8
0
100
AcDbLine
 62
7
  6
CONTINUOUS
 10
0.0
 20
45.8115332178
 11
-1.0327008812
 21
45.8088915378
  0
LINE
  5
51D
100
AcDbEntity
  8
0
100
AcDbLine
 62
7
  6
CONTINUOUS
 10
0.0
 20
45.820259421
 11
-1.1158294836
 21
45.817557473
  0
LINE
  5
51E
100
AcDbEntity
  8
RACCORDO
100
AcDbLine
 62
250
  6
CONTINUOUS
 10
-0.6736228676
 20
46.4441909677
 11
0.0
 21
46.4452201684
  0
LINE
  5
51F
100
AcDbEntity
  8
0
100
AcDbLine
 62
7
  6
CONTINUOUS
 10
-0.881382664
 20
42.3248490642
 11
0.4419444835
 21
42.3253517337
  0
LINE
  5
520
100
AcDbEntity
  8
0
100
AcDbLine
 62
7
  6
CONTINUOUS
 10
-0.8605132427
 20
42.3134921923
 11
0.431588298
 21
42.3140042332
  0
LINE
  5
521
100
AcDbEntity
  8
0
100
AcDbLine
 62
7
  6
CONTINUOUS
 10
-0.7461899399
 20
43.5854358934
 11
0.3735180392
 21
43.5859010702
  0
LINE
  5
522
100
AcDbEntity
  8
0
100
AcDbLine
 62
7
  6
CONTINUOUS
 10
-0.7473079192
 20
44.0853571723
 11
0.3749174257
 21
44.0858219979
  0
LINE
  5
523
100
AcDbEntity
  8
0
100
AcDbLine
 62
7
  6
CONTINUOUS
 10
-1.13699152
 20
44.0933489824
 11
0.3813505067
 21
44.094552675
  0
LINE
  5
524
100
AcDbEntity
  8
RACCORDO
100
AcDbLine
 62
250
  6
CONTINUOUS
 10
-0.3050164393
 20
42.7922868636
 11
0.6243790858
 21
42.792030117
  0
LINE
  5
525
100
AcDbEntity
  8
RACCORDO
100
AcDbLine
 62
250
  6
CONTINUOUS
 10
-0.2983014235
 20
43.0781415875
 11
0.6106332243
 21
43.0778904719
  0
LINE
  5
526
100
AcDbEntity
  8
RACCORDO
100
AcDbLine
 62
250
  6
CONTINUOUS
 10
-0.3069659338
 20
44.534662055
 11
0.6292183997
 21
44.5343462174
  0
LINE
  5
527
100
AcDbEntity
  8
RACCORDO
100
AcDbLine
 62
250
  6
CONTINUOUS
 10
-0.2987916714
 20
44.820517597
 11
0.6124628191
 21
44.8202101292
  0
LINE
  5
528
100
AcDbEntity
  8
0
100
AcDbLine
 62
7
  6
CONTINUOUS
 10
-0.3003041043
 20
45.3533622901
 11
0.5983886367
 21
45.3529724322
  0
LINE
  5
529
100
AcDbEntity
  8
RACCORDO
100
AcDbLine
 62
250
  6
CONTINUOUS
 10
-0.2336038135
 20
46.1592509196
 11
0.5037758908
 21
46.1588248949
  0
LINE
  5
52A
100
AcDbEntity
  8
0
100
AcDbLine
 62
7
  6
CONTINUOUS
 10
0.4419444835
 20
42.3253517337
 11
1.3183145414
 21
42.3240141488
  0
LINE
  5
52B
100
AcDbEntity
  8
0
100
AcDbLine
 62
7
  6
CONTINUOUS
 10
0.431588298
 20
42.3140042332
 11
1.286774834
 21
42.3126419703
  0
LINE
  5
52C
100
AcDbEntity
  8
0
100
AcDbLine
 62
7
  6
CONTINUOUS
 10
0.0
 20
45.820259421
 11
0.6748378202
 21
45.8192835059
  0
LINE
  5
52D
100
AcDbEntity
  8
RACCORDO
100
AcDbLine
 62
250
  6
CONTINUOUS
 10
0.6243790858
 20
42.792030117
 11
1.649181497
 21
42.7900015426
  0
LINE
  5
52E
100
AcDbEntity
  8
RACCORDO
100
AcDbLine
 62
250
  6
CONTINUOUS
 10
0.6106332243
 20
43.0778904719
 11
1.6128742367
 21
43.0759067277
  0
LINE
  5
52F
100
AcDbEntity
  8
0
100
AcDbLine
 62
7
  6
CONTINUOUS
 10
0.0
 20
45.8115332178
 11
0.6251334396
 21
45.8105787093
  0
LINE
  5
530
100
AcDbEntity
  8
0
100
AcDbLine
 62
7
  6
CONTINUOUS
 10
0.3813505067
 20
44.094552675
 11
1.5120518582
 21
44.0922961201
  0
LINE
  5
531
100
AcDbEntity
  8
RACCORDO
100
AcDbLine
 62
250
  6
CONTINUOUS
 10
0.0
 20
46.4452201684
 11
0.7124264057
 21
46.4440675709
  0
LINE
  5
532
100
AcDbEntity
  8
0
100
AcDbLine
 62
7
  6
CONTINUOUS
 10
0.3735180392
 20
43.5859010702
 11
1.4856222682
 21
43.5835804527
  0
LINE
  5
533
100
AcDbEntity
  8
0
100
AcDbLine
 62
7
  6
CONTINUOUS
 10
0.3749174257
 20
44.0858219979
 11
1.4853332733
 21
44.0835041999
  0
LINE
  5
534
100
AcDbEntity
  8
RACCORDO
100
AcDbLine
 62
250
  6
CONTINUOUS
 10
0.6292183997
 20
44.5343462174
 11
1.6688655006
 21
44.531820332
  0
LINE
  5
535
100
AcDbEntity
  8
RACCORDO
100
AcDbLine
 62
250
  6
CONTINUOUS
 10
0.6124628191
 20
44.8202101292
 11
1.624424646
 21
44.8177518649
  0
LINE
  5
536
100
AcDbEntity
  8
0
100
AcDbLine
 62
7
  6
CONTINUOUS
 10
1.3183145414
 20
42.3240141488
 11
2.1863016669
 21
42.3213418786
  0
LINE
  5
537
100
AcDbEntity
  8
0
100
AcDbLine
 62
7
  6
CONTINUOUS
 10
1.286774834
 20
42.3126419703
 11
2.1330504498
 21
42.3099206636
  0
LINE
  5
538
100
AcDbEntity
  8
0
100
AcDbLine
 62
7
  6
CONTINUOUS
 10
0.5983886367
 20
45.3529724322
 11
1.4807714622
 21
45.3502550817
  0
LINE
  5
539
100
AcDbEntity
  8
RACCORDO
100
AcDbLine
 62
250
  6
CONTINUOUS
 10
1.649181497
 20
42.7900015426
 11
2.7896690494
 21
42.7855101826
  0
LINE
  5
53A
100
AcDbEntity
  8
RACCORDO
100
AcDbLine
 62
250
  6
CONTINUOUS
 10
1.6128742367
 20
43.0759067277
 11
2.7282535723
 21
43.0715142613
  0
LINE
  5
53B
100
AcDbEntity
  8
RACCORDO
100
AcDbLine
 62
250
  6
CONTINUOUS
 10
1.6688655006
 20
44.531820332
 11
2.4229702678
 21
44.5284904089
  0
LINE
  5
53C
100
AcDbEntity
  8
RACCORDO
100
AcDbLine
 62
250
  6
CONTINUOUS
 10
1.624424646
 20
44.8177518649
 11
2.3584479984
 21
44.8145106745
  0
LINE
  5
53D
100
AcDbEntity
  8
0
100
AcDbLine
 62
7
  6
CONTINUOUS
 10
2.1863016669
 20
42.3213418786
 11
3.0368449772
 21
42.3173644334
  0
LINE
  5
53E
100
AcDbEntity
  8
RACCORDO
100
AcDbLine
 62
250
  6
CONTINUOUS
 10
0.5037758908
 20
46.1588248949
 11
1.2427647446
 21
46.1560009107
  0
LINE
  5
53F
100
AcDbEntity
  8
0
100
AcDbLine
 62
7
  6
CONTINUOUS
 10
2.1330504498
 20
42.3099206636
 11
2.9607986641
 21
42.3058730286
  0
LINE
  5
540
100
AcDbEntity
  8
0
100
AcDbLine
 62
7
  6
CONTINUOUS
 10
1.5120518582
 20
44.0922961201
 11
2.6161554334
 21
44.0873679599
  0
LINE
  5
541
100
AcDbEntity
  8
0
100
AcDbLine
 62
7
  6
CONTINUOUS
 10
0.6748378202
 20
45.8192835059
 11
1.3312678237
 21
45.816382381
  0
LINE
  5
542
100
AcDbEntity
  8
0
100
AcDbLine
 62
7
  6
CONTINUOUS
 10
1.4856222682
 20
43.5835804527
 11
2.567483512
 21
43.578521282
  0
LINE
  5
543
100
AcDbEntity
  8
0
100
AcDbLine
 62
7
  6
CONTINUOUS
 10
1.4853332733
 20
44.0835041999
 11
2.5671966402
 21
44.078445748
  0
LINE
  5
544
100
AcDbEntity
  8
0
100
AcDbLine
 62
7
  6
CONTINUOUS
 10
0.6251334396
 20
45.8105787093
 11
1.231272516
 21
45.8077441858
  0
LINE
  5
545
100
AcDbEntity
  8
RACCORDO
100
AcDbLine
 62
250
  6
CONTINUOUS
 10
0.7124264057
 20
46.4440675709
 11
1.4006149946
 21
46.4406520797
  0
LINE
  5
546
100
AcDbEntity
  8
RACCORDO
100
AcDbLine
 62
250
  6
CONTINUOUS
 10
2.7896690494
 20
42.7855101826
 11
3.5999982855
 21
42.7807898927
  0
LINE
  5
547
100
AcDbEntity
  8
RACCORDO
100
AcDbLine
 62
250
  6
CONTINUOUS
 10
2.7282535723
 20
43.0715142613
 11
3.5207431836
 21
43.0668978643
  0
LINE
  5
548
100
AcDbEntity
  8
0
100
AcDbLine
 62
7
  6
CONTINUOUS
 10
3.0368449772
 20
42.3173644334
 11
3.8651026669
 21
42.3121044552
  0
LINE
  5
549
100
AcDbEntity
  8
RACCORDO
100
AcDbLine
 62
250
  6
CONTINUOUS
 10
2.4229702678
 20
44.5284904089
 11
3.2073486043
 21
44.523581202
  0
LINE
  5
54A
100
AcDbEntity
  8
RACCORDO
100
AcDbLine
 62
250
  6
CONTINUOUS
 10
2.3584479984
 20
44.8145106745
 11
3.121939182
 21
44.8097319658
  0
LINE
  5
54B
100
AcDbEntity
  8
0
100
AcDbLine
 62
7
  6
CONTINUOUS
 10
1.4807714622
 20
45.3502550817
 11
2.3308161575
 21
45.3452699937
  0
LINE
  5
54C
100
AcDbEntity
  8
0
100
AcDbLine
 62
7
  6
CONTINUOUS
 10
2.9607986641
 20
42.3058730286
 11
3.764890299
 21
42.3005241469
  0
LINE
  5
54D
100
AcDbEntity
  8
0
100
AcDbLine
 62
7
  6
CONTINUOUS
 10
2.567483512
 20
43.578521282
 11
3.2610078521
 21
43.573675704
  0
LINE
  5
54E
100
AcDbEntity
  8
0
100
AcDbLine
 62
7
  6
CONTINUOUS
 10
2.5671966402
 20
44.078445748
 11
3.2610078521
 21
44.0735995516
  0
LINE
  5
54F
100
AcDbEntity
  8
RACCORDO
100
AcDbLine
 62
250
  6
CONTINUOUS
 10
3.5999982855
 20
42.7807898927
 11
4.4314190028
 21
42.7744948063
  0
LINE
  5
550
100
AcDbEntity
  8
RACCORDO
100
AcDbLine
 62
250
  6
CONTINUOUS
 10
3.5207431836
 20
43.0668978643
 11
4.3338598621
 21
43.0607413925
  0
LINE
  5
551
100
AcDbEntity
  8
0
100
AcDbLine
 62
7
  6
CONTINUOUS
 10
2.6161554334
 20
44.0873679599
 11
3.6715249828
 21
44.0798618697
  0
LINE
  5
552
100
AcDbEntity
  8
0
100
AcDbLine
 62
7
  6
CONTINUOUS
 10
3.8651026669
 20
42.3121044552
 11
4.663884103
 21
42.3056025294
  0
LINE
  5
553
100
AcDbEntity
  8
RACCORDO
100
AcDbLine
 62
250
  6
CONTINUOUS
 10
1.2427647446
 20
46.1560009107
 11
1.9396032433
 21
46.150853827
  0
LINE
  5
554
100
AcDbEntity
  8
RACCORDO
100
AcDbLine
 62
250
  6
CONTINUOUS
 10
3.2073486043
 20
44.523581202
 11
3.9758172069
 21
44.5171809268
  0
LINE
  5
555
100
AcDbEntity
  8
RACCORDO
100
AcDbLine
 62
250
  6
CONTINUOUS
 10
3.121939182
 20
44.8097319658
 11
3.8699439087
 21
44.8035021751
  0
LINE
  5
556
100
AcDbEntity
  8
0
100
AcDbLine
 62
7
  6
CONTINUOUS
 10
1.3312678237
 20
45.816382381
 11
1.9513843115
 21
45.8116351814
  0
LINE
  5
557
100
AcDbEntity
  8
0
100
AcDbLine
 62
7
  6
CONTINUOUS
 10
3.764890299
 20
42.3005241469
 11
4.5377150348
 21
42.2939189777
  0
LINE
  5
558
100
AcDbEntity
  8
0
100
AcDbLine
 62
7
  6
CONTINUOUS
 10
1.231272516
 20
45.8077441858
 11
1.8
 21
45.803115773
  0
LINE
  5
559
100
AcDbEntity
  8
0
100
AcDbLine
 62
7
  6
CONTINUOUS
 10
3.2610078521
 20
43.573675704
 11
3.925
 21
43.5677015403
  0
LINE
  5
55A
100
AcDbEntity
  8
0
100
AcDbLine
 62
7
  6
CONTINUOUS
 10
3.2610078521
 20
44.0735995516
 11
3.9252146419
 21
44.0676220092
  0
LINE
  5
55B
100
AcDbEntity
  8
RACCORDO
100
AcDbLine
 62
250
  6
CONTINUOUS
 10
4.4314190028
 20
42.7744948063
 11
5.2641949353
 21
42.7665314883
  0
LINE
  5
55C
100
AcDbEntity
  8
RACCORDO
100
AcDbLine
 62
250
  6
CONTINUOUS
 10
4.3338598621
 20
43.0607413925
 11
5.1483019164
 21
43.0529534093
  0
LINE
  5
55D
100
AcDbEntity
  8
0
100
AcDbLine
 62
7
  6
CONTINUOUS
 10
3.6715249828
 20
44.0798618697
 11
4.3385259828
 21
44.0734911872
  0
LINE
  5
55E
100
AcDbEntity
  8
0
100
AcDbLine
 62
7
  6
CONTINUOUS
 10
2.3308161575
 20
45.3452699937
 11
3.1287942714
 21
45.3381294945
  0
LINE
  5
55F
100
AcDbEntity
  8
RACCORDO
100
AcDbLine
 62
250
  6
CONTINUOUS
 10
1.4006149946
 20
46.4406520797
 11
2.0413586298
 21
46.4350834045
  0
LINE
  5
560
100
AcDbEntity
  8
0
100
AcDbLine
 62
7
  6
CONTINUOUS
 10
4.663884103
 20
42.3056025294
 11
5.4264603731
 21
42.2979186953
  0
LINE
  5
561
100
AcDbEntity
  8
0
100
AcDbLine
 62
7
  6
CONTINUOUS
 10
4.5377150348
 20
42.2939189777
 11
5.272195707
 21
42.2861239024
  0
LINE
  5
562
100
AcDbEntity
  8
RACCORDO
100
AcDbLine
 62
250
  6
CONTINUOUS
 10
3.9758172069
 20
44.5171809268
 11
4.7145388772
 21
44.5093098527
  0
LINE
  5
563
100
AcDbEntity
  8
RACCORDO
100
AcDbLine
 62
250
  6
CONTINUOUS
 10
3.8699439087
 20
44.8035021751
 11
4.5889938831
 21
44.7958407199
  0
LINE
  5
564
100
AcDbEntity
  8
0
100
AcDbLine
 62
7
  6
CONTINUOUS
 10
3.925
 20
43.5677015403
 11
4.5534467401
 21
43.5606528939
  0
LINE
  5
565
100
AcDbEntity
  8
0
100
AcDbLine
 62
7
  6
CONTINUOUS
 10
3.9252146419
 20
44.0676220092
 11
4.5531814721
 21
44.0605787454
  0
LINE
  5
566
100
AcDbEntity
  8
0
100
AcDbLine
 62
7
  6
CONTINUOUS
 10
4.3385259828
 20
44.0734911872
 11
4.9694961177
 21
44.0660864456
  0
LINE
  5
567
100
AcDbEntity
  8
RACCORDO
100
AcDbLine
 62
250
  6
CONTINUOUS
 10
5.2641949353
 20
42.7665314883
 11
6.0801329207
 21
42.7568491999
  0
LINE
  5
568
100
AcDbEntity
  8
RACCORDO
100
AcDbLine
 62
250
  6
CONTINUOUS
 10
5.1483019164
 20
43.0529534093
 11
5.9462768253
 21
43.0434842511
  0
LINE
  5
569
100
AcDbEntity
  8
0
100
AcDbLine
 62
7
  6
CONTINUOUS
 10
5.4264603731
 20
42.2979186953
 11
6.148490433
 21
42.289096694
  0
LINE
  5
56A
100
AcDbEntity
  8
0
100
AcDbLine
 62
7
  6
CONTINUOUS
 10
1.9513843115
 20
45.8116351814
 11
2.518272122
 21
45.8051713984
  0
LINE
  5
56B
100
AcDbEntity
  8
RACCORDO
100
AcDbLine
 62
250
  6
CONTINUOUS
 10
1.9396032433
 20
46.150853827
 11
2.5708856919
 21
46.1435523506
  0
LINE
  5
56C
100
AcDbEntity
  8
0
100
AcDbLine
 62
7
  6
CONTINUOUS
 10
5.272195707
 20
42.2861239024
 11
5.9637810739
 21
42.2771872235
  0
LINE
  5
56D
100
AcDbEntity
  8
0
100
AcDbLine
 62
7
  6
CONTINUOUS
 10
1.8
 20
45.803115773
 11
2.3140353949
 21
45.7968341029
  0
LINE
  5
56E
100
AcDbEntity
  8
0
100
AcDbLine
 62
7
  6
CONTINUOUS
 10
3.1287942714
 20
45.3381294945
 11
3.8568802915
 21
45.328993091
  0
LINE
  5
56F
100
AcDbEntity
  8
RACCORDO
100
AcDbLine
 62
250
  6
CONTINUOUS
 10
4.7145388772
 20
44.5093098527
 11
5.409653849
 21
44.5000420082
  0
LINE
  5
570
100
AcDbEntity
  8
RACCORDO
100
AcDbLine
 62
250
  6
CONTINUOUS
 10
4.5889938831
 20
44.7958407199
 11
5.2655985562
 21
44.7868196193
  0
LINE
  5
571
100
AcDbEntity
  8
0
100
AcDbLine
 62
7
  6
CONTINUOUS
 10
4.5534467401
 20
43.5606528939
 11
5.1406567615
 21
43.5525935984
  0
LINE
  5
572
100
AcDbEntity
  8
0
100
AcDbLine
 62
7
  6
CONTINUOUS
 10
4.5531814721
 20
44.0605787454
 11
5.1406567615
 21
44.0525174459
  0
LINE
  5
573
100
AcDbEntity
  8
0
100
AcDbLine
 62
7
  6
CONTINUOUS
 10
4.9694961177
 20
44.0660864456
 11
5.5586978956
 21
44.0577206137
  0
LINE
  5
574
100
AcDbEntity
  8
RACCORDO
100
AcDbLine
 62
250
  6
CONTINUOUS
 10
2.0413586298
 20
46.4350834045
 11
2.6130860718
 21
46.4275463706
  0
LINE
  5
575
100
AcDbEntity
  8
0
100
AcDbLine
 62
7
  6
CONTINUOUS
 10
6.148490433
 20
42.289096694
 11
6.8236305449
 21
42.2792082081
  0
LINE
  5
576
100
AcDbEntity
  8
RACCORDO
100
AcDbLine
 62
250
  6
CONTINUOUS
 10
6.0801329207
 20
42.7568491999
 11
6.8577514392
 21
42.7455064032
  0
LINE
  5
577
100
AcDbEntity
  8
RACCORDO
100
AcDbLine
 62
250
  6
CONTINUOUS
 10
5.9462768253
 20
43.0434842511
 11
6.7067760084
 21
43.0323911035
  0
LINE
  5
578
100
AcDbEntity
  8
0
100
AcDbLine
 62
7
  6
CONTINUOUS
 10
5.9637810739
 20
42.2771872235
 11
6.6058380545
 21
42.2671880672
  0
LINE
  5
579
100
AcDbEntity
  8
RACCORDO
100
AcDbLine
 62
250
  6
CONTINUOUS
 10
2.5708856919
 20
46.1435523506
 11
2.9445301254
 21
46.1376044659
  0
LINE
  5
57A
100
AcDbEntity
  8
0
100
AcDbLine
 62
7
  6
CONTINUOUS
 10
3.8568802915
 20
45.328993091
 11
4.2949878479
 21
45.3218986109
  0
LINE
  5
57B
100
AcDbEntity
  8
0
100
AcDbLine
 62
7
  6
CONTINUOUS
 10
5.1406567615
 20
43.5525935984
 11
5.6813121991
 21
43.5435966399
  0
LINE
  5
57C
100
AcDbEntity
  8
0
100
AcDbLine
 62
7
  6
CONTINUOUS
 10
5.1406567615
 20
44.0525174459
 11
5.6814636038
 21
44.0435161903
  0
LINE
  5
57D
100
AcDbEntity
  8
RACCORDO
100
AcDbLine
 62
250
  6
CONTINUOUS
 10
5.409653849
 20
44.5000420082
 11
6.047612861
 21
44.4895153169
  0
LINE
  5
57E
100
AcDbEntity
  8
RACCORDO
100
AcDbLine
 62
250
  6
CONTINUOUS
 10
5.2655985562
 20
44.7868196193
 11
5.8865692535
 21
44.776573218
  0
LINE
  5
57F
100
AcDbEntity
  8
0
100
AcDbLine
 62
7
  6
CONTINUOUS
 10
5.5586978956
 20
44.0577206137
 11
6.1024803017
 21
44.0484455305
  0
LINE
  5
580
100
AcDbEntity
  8
0
100
AcDbLine
 62
7
  6
CONTINUOUS
 10
2.518272122
 20
45.8051713984
 11
3.0164680338
 21
45.797167347
  0
LINE
  5
581
100
AcDbEntity
  8
0
100
AcDbLine
 62
7
  6
CONTINUOUS
 10
6.8236305449
 20
42.2792082081
 11
7.4462714621
 21
42.2683416257
  0
LINE
  5
582
100
AcDbEntity
  8
RACCORDO
100
AcDbLine
 62
250
  6
CONTINUOUS
 10
6.8577514392
 20
42.7455064032
 11
7.5647935581
 21
42.7328908149
  0
LINE
  5
583
100
AcDbEntity
  8
RACCORDO
100
AcDbLine
 62
250
  6
CONTINUOUS
 10
6.7067760084
 20
43.0323911035
 11
7.3982524035
 21
43.0200532453
  0
LINE
  5
584
100
AcDbEntity
  8
RACCORDO
100
AcDbLine
 62
250
  6
CONTINUOUS
 10
2.6130860718
 20
46.4275463706
 11
2.9460310974
 21
46.4215491124
  0
LINE
  5
585
100
AcDbEntity
  8
0
100
AcDbLine
 62
7
  6
CONTINUOUS
 10
6.6058380545
 20
42.2671880672
 11
7.192578113
 21
42.2562236766
  0
LINE
  5
586
100
AcDbEntity
  8
0
100
AcDbLine
 62
7
  6
CONTINUOUS
 10
2.3140353949
 20
45.7968341029
 11
2.7577599952
 21
45.7890900409
  0
LINE
  5
587
100
AcDbEntity
  8
0
100
AcDbLine
 62
7
  6
CONTINUOUS
 10
4.2949878479
 20
45.3218986109
 11
4.6909888948
 21
45.3140690917
  0
LINE
  5
588
100
AcDbEntity
  8
0
100
AcDbLine
 62
7
  6
CONTINUOUS
 10
5.6813121991
 20
43.5435966399
 11
6.1705167937
 21
43.5337434965
  0
LINE
  5
589
100
AcDbEntity
  8
0
100
AcDbLine
 62
7
  6
CONTINUOUS
 10
5.6814636038
 20
44.0435161903
 11
6.17029462
 21
44.0336705711
  0
LINE
  5
58A
100
AcDbEntity
  8
0
100
AcDbLine
 62
7
  6
CONTINUOUS
 10
6.1024803017
 20
44.0484455305
 11
6.5955824434
 21
44.038344389
  0
LINE
  5
58B
100
AcDbEntity
  8
RACCORDO
100
AcDbLine
 62
250
  6
CONTINUOUS
 10
6.047612861
 20
44.4895153169
 11
6.6179560012
 21
44.4778949648
  0
LINE
  5
58C
100
AcDbEntity
  8
RACCORDO
100
AcDbLine
 62
250
  6
CONTINUOUS
 10
5.8865692535
 20
44.776573218
 11
6.441724594
 21
44.7652622984
  0
LINE
  5
58D
100
AcDbEntity
  8
0
100
AcDbLine
 62
7
  6
CONTINUOUS
 10
7.4462714621
 20
42.2683416257
 11
8.0128687369
 21
42.2565588061
  0
LINE
  5
58E
100
AcDbEntity
  8
RACCORDO
100
AcDbLine
 62
250
  6
CONTINUOUS
 10
2.9445301254
 20
46.1376044659
 11
3.2735031773
 21
46.1308960109
  0
LINE
  5
58F
100
AcDbEntity
  8
0
100
AcDbLine
 62
7
  6
CONTINUOUS
 10
3.0164680338
 20
45.797167347
 11
3.3037271364
 21
45.7910780588
  0
LINE
  5
590
100
AcDbEntity
  8
RACCORDO
100
AcDbLine
 62
250
  6
CONTINUOUS
 10
7.5647935581
 20
42.7328908149
 11
8.1951524026
 21
42.7191255309
  0
LINE
  5
591
100
AcDbEntity
  8
RACCORDO
100
AcDbLine
 62
250
  6
CONTINUOUS
 10
7.3982524035
 20
43.0200532453
 11
8.0147337119
 21
43.0065910084
  0
LINE
  5
592
100
AcDbEntity
  8
0
100
AcDbLine
 62
7
  6
CONTINUOUS
 10
7.192578113
 20
42.2562236766
 11
7.7203654889
 21
42.2443619931
  0
LINE
  5
593
100
AcDbEntity
  8
RACCORDO
100
AcDbLine
 62
250
  6
CONTINUOUS
 10
2.9460310974
 20
46.4215491124
 11
3.233990518
 21
46.4148853663
  0
LINE
  5
594
100
AcDbEntity
  8
0
100
AcDbLine
 62
7
  6
CONTINUOUS
 10
2.7577599952
 20
45.7890900409
 11
3.0078347488
 21
45.7832254233
  0
LINE
  5
595
100
AcDbEntity
  8
0
100
AcDbLine
 62
7
  6
CONTINUOUS
 10
4.6909888948
 20
45.3140690917
 11
5.0402436859
 21
45.305588966
  0
LINE
  5
596
100
AcDbEntity
  8
0
100
AcDbLine
 62
7
  6
CONTINUOUS
 10
6.1705167937
 20
43.5337434965
 11
6.6038402327
 21
43.5231233996
  0
LINE
  5
597
100
AcDbEntity
  8
0
100
AcDbLine
 62
7
  6
CONTINUOUS
 10
6.17029462
 20
44.0336705711
 11
6.6038402327
 21
44.0230472471
  0
LINE
  5
598
100
AcDbEntity
  8
0
100
AcDbLine
 62
7
  6
CONTINUOUS
 10
6.5955824434
 20
44.038344389
 11
7.0336076148
 21
44.0275144676
  0
LINE
  5
599
100
AcDbEntity
  8
0
100
AcDbLine
 62
7
  6
CONTINUOUS
 10
8.0128687369
 20
42.2565588061
 11
8.5183578418
 21
42.243957644
  0
LINE
  5
59A
100
AcDbEntity
  8
RACCORDO
100
AcDbLine
 62
250
  6
CONTINUOUS
 10
6.6179560012
 20
44.4778949648
 11
7.1144571203
 21
44.4653201578
  0
LINE
  5
59B
100
AcDbEntity
  8
RACCORDO
100
AcDbLine
 62
250
  6
CONTINUOUS
 10
6.441724594
 20
44.7652622984
 11
6.925004236
 21
44.7530223522
  0
LWPOLYLINE
  5
59C
100
AcDbEntity
  8
RACCORDO
100
AcDbPolyline
 62
250
  6
CONTINUOUS
 90
11
 70
0
 10
3.2735031773
 20
46.1308960109
 10
3.5523462978
 20
46.123540073
 10
3.6719523175
 20
46.1196445105
 10
3.7778862537
 20
46.1156136015
 10
3.8694579068
 20
46.1114685067
 10
3.9460310388
 20
46.1072373887
 10
4.0072690536
 20
46.1029446108
 10
4.0531440918
 20
46.0985992954
 10
4.083592038
 20
46.0942075181
 10
4.0984514285
 20
46.0897787773
 10
4.1
 20
46.0878123061
  0
LINE
  5
59D
100
AcDbEntity
  8
0
100
AcDbLine
 62
7
  6
CONTINUOUS
 10
3.3037271364
 20
45.7910780588
 11
3.5505404583
 21
45.7844849601
  0
LINE
  5
59E
100
AcDbEntity
  8
RACCORDO
100
AcDbLine
 62
250
  6
CONTINUOUS
 10
8.1951524026
 20
42.7191255309
 11
8.7428512077
 21
42.7043535797
  0
LINE
  5
59F
100
AcDbEntity
  8
RACCORDO
100
AcDbLine
 62
250
  6
CONTINUOUS
 10
8.0147337119
 20
43.0065910084
 11
8.550374788
 21
42.99214426
  0
LINE
  5
5A0
100
AcDbEntity
  8
0
100
AcDbLine
 62
7
  6
CONTINUOUS
 10
7.7203654889
 20
42.2443619931
 11
8.1840362853
 21
42.2317104412
  0
LINE
  5
5A1
100
AcDbEntity
  8
0
100
AcDbLine
 62
7
  6
CONTINUOUS
 10
8.5183578418
 20
42.243957644
 11
8.9586314566
 21
42.230648853
  0
LWPOLYLINE
  5
5A2
100
AcDbEntity
  8
0
100
AcDbPolyline
 62
7
  6
CONTINUOUS
 90
11
 70
0
 10
6.6038402327
 20
43.5231233996
 10
6.9773582719
 20
43.5118325264
 10
7.1406111635
 20
43.5059672902
 10
7.2876882742
 20
43.499973129
 10
7.4182564269
 20
43.4938636216
 10
7.5320198429
 20
43.4876526078
 10
7.6287208113
 20
43.4813541578
 10
7.7081402735
 20
43.4749825394
 10
7.7700983188
 20
43.4685521865
 10
7.8144545922
 20
43.4620776659
 10
7.8333260239
 20
43.4579795633
  0
LWPOLYLINE
  5
5A3
100
AcDbEntity
  8
0
100
AcDbPolyline
 62
7
  6
CONTINUOUS
 90
12
 70
0
 10
6.6038402327
 20
44.0230472471
 10
6.9774341735
 20
44.0117515064
 10
7.1406111635
 20
44.0058911378
 10
7.2875271939
 20
43.9999011653
 10
7.418291863
 20
43.9937824625
 10
7.5320198429
 20
43.9875764554
 10
7.6285955275
 20
43.9812825515
 10
7.7081345228
 20
43.9749013433
 10
7.7700983188
 20
43.9684760341
 10
7.8143676552
 20
43.9620063246
 10
7.8410617922
 20
43.955492514
 10
7.85
 20
43.9489787034
  0
LWPOLYLINE
  5
5A4
100
AcDbEntity
  8
0
100
AcDbPolyline
 62
7
  6
CONTINUOUS
 90
13
 70
0
 10
7.0336076148
 20
44.0275144676
 10
7.4138415737
 20
44.0160228743
 10
7.5808456296
 20
44.010068065
 10
7.7325045921
 20
44.0039744883
 10
7.8678786997
 20
43.9977799034
 10
7.9868668338
 20
43.9914836831
 10
8.0895701131
 20
43.9850864546
 10
8.1753521321
 20
43.9786278586
 10
8.2441078207
 20
43.972107514
 10
8.295942249
 20
43.9655258018
 10
8.3305342227
 20
43.9589235061
 10
8.3477766773
 20
43.9523004988
 10
8.35
 20
43.9489787034
  0
LWPOLYLINE
  5
5A5
100
AcDbEntity
  8
0
100
AcDbPolyline
 62
7
  6
CONTINUOUS
 90
11
 70
0
 10
5.0402436859
 20
45.305588966
 10
5.3390680756
 20
45.2965559665
 10
5.4690866775
 20
45.2918440539
 10
5.5852424919
 20
45.2870371873
 10
5.6874322948
 20
45.2821346596
 10
5.7757593101
 20
45.2771371779
 10
5.8495674731
 20
45.2720818618
 10
5.9087486747
 20
45.2669682806
 10
5.9534110239
 20
45.2617968651
 10
5.9832227831
 20
45.2566060269
 10
5.9872670073
 20
45.2555990785
  0
LWPOLYLINE
  5
5A6
100
AcDbEntity
  8
0
100
AcDbPolyline
 62
7
  6
CONTINUOUS
 90
11
 70
0
 10
3.5505404583
 20
45.7844849601
 10
3.658295417
 20
45.7810099464
 10
3.7546706393
 20
45.7774478171
 10
3.8395626554
 20
45.77379778
 10
3.9130749351
 20
45.7700606271
 10
3.9745410904
 20
45.7662702359
 10
4.0238515922
 20
45.7624261221
 10
4.0611159696
 20
45.7585287699
 10
4.0859964213
 20
45.7546135087
 10
4.098380347
 20
45.7506801757
 10
4.1
 20
45.7487045546
  0
LWPOLYLINE
  5
5A7
100
AcDbEntity
  8
0
100
AcDbPolyline
 62
7
  6
CONTINUOUS
 90
10
 70
0
 10
3.0078347488
 20
45.7832254233
 10
3.216916057
 20
45.7769052185
 10
3.3056151629
 20
45.7735854942
 10
3.3828934348
 20
45.770193223
 10
3.4486352008
 20
45.7667276702
 10
3.5029561329
 20
45.7631895704
 10
3.5453079108
 20
45.7596146375
 10
3.5755693092
 20
45.7560024986
 10
3.5938615534
 20
45.7523535266
 10
3.6
 20
45.7487045546
  0
LWPOLYLINE
  5
5A8
100
AcDbEntity
  8
RACCORDO
100
AcDbPolyline
 62
250
  6
CONTINUOUS
 90
9
 70
0
 10
3.233990518
 20
46.4148853663
 10
3.4728118361
 20
46.4076518738
 10
3.5730007603
 20
46.4038395513
 10
3.6596063468
 20
46.3999192276
 10
3.7320267957
 20
46.3959175535
 10
3.7899437244
 20
46.3918575799
 10
3.8333308195
 20
46.3877479259
 10
3.8621274883
 20
46.383594327
 10
3.8694092078
 20
46.381954463
  0
LWPOLYLINE
  5
5A9
100
AcDbEntity
  8
RACCORDO
100
AcDbPolyline
 62
250
  6
CONTINUOUS
 90
11
 70
0
 10
7.1144571203
 20
44.4653201578
 10
7.5341396558
 20
44.4518597943
 10
7.7129068752
 20
44.4448631302
 10
7.8700049774
 20
44.4377296334
 10
8.0053300628
 20
44.4304698182
 10
8.1187913978
 20
44.4230885454
 10
8.2101184674
 20
44.4155953681
 10
8.2788159026
 20
44.408020896
 10
8.324551361
 20
44.4004017735
 10
8.3472543223
 20
44.3927697959
 10
8.35
 20
44.3890329722
  0
LWPOLYLINE
  5
5AA
100
AcDbEntity
  8
RACCORDO
100
AcDbPolyline
 62
250
  6
CONTINUOUS
 90
10
 70
0
 10
6.925004236
 20
44.7530223522
 10
7.3335110294
 20
44.7399204012
 10
7.5075178517
 20
44.7331100418
 10
7.6604325516
 20
44.7261665037
 10
7.7921540155
 20
44.7191000156
 10
7.9025939539
 20
44.7119153019
 10
7.9914890715
 20
44.7046216572
 10
8.0583571754
 20
44.6972488801
 10
8.1028747549
 20
44.6898326436
 10
8.1103820021
 20
44.6880069487
  0
LWPOLYLINE
  5
5AB
100
AcDbEntity
  8
0
100
AcDbPolyline
 62
7
  6
CONTINUOUS
 90
12
 70
0
 10
8.1840362853
 20
42.2317104412
 10
8.5795199041
 20
42.218389914
 10
8.7511578916
 20
42.2114935907
 10
8.904365714
 20
42.2044829528
 10
9.0390289317
 20
42.1973572903
 10
9.1552619843
 20
42.1901173131
 10
9.2523446286
 20
42.182807884
 10
9.3301579527
 20
42.1754285719
 10
9.3888208686
 20
42.1679798078
 10
9.4279698689
 20
42.1605077485
 10
9.4474837844
 20
42.1530122493
 10
9.45
 20
42.1492528521
  0
LWPOLYLINE
  5
5AC
100
AcDbEntity
  8
RACCORDO
100
AcDbPolyline
 62
250
  6
CONTINUOUS
 90
11
 70
0
 10
8.7428512077
 20
42.7043535797
 10
9.2047877113
 20
42.6886502046
 10
9.4012943907
 20
42.6805199522
 10
9.5738572421
 20
42.6722482331
 10
9.7224022954
 20
42.6638451847
 10
9.8468688275
 20
42.6553141592
 10
9.9469921521
 20
42.6466638312
 10
10.0222490993
 20
42.6379275852
 10
10.0722906697
 20
42.629146019
 10
10.0970555487
 20
42.6203539581
 10
10.1
 20
42.6160979591
  0
LWPOLYLINE
  5
5AD
100
AcDbEntity
  8
RACCORDO
100
AcDbPolyline
 62
250
  6
CONTINUOUS
 90
10
 70
0
 10
8.550374788
 20
42.99214426
 10
9.0021417031
 20
42.9767865783
 10
9.1943222632
 20
42.9688353076
 10
9.3630860974
 20
42.960745692
 10
9.508360878
 20
42.9525276422
 10
9.6300872403
 20
42.9441844306
 10
9.7280063379
 20
42.9357245379
 10
9.8016065068
 20
42.9271806168
 10
9.8505464157
 20
42.9185923747
 10
9.8566648745
 20
42.9170615199
  0
LWPOLYLINE
  5
5AE
100
AcDbEntity
  8
0
100
AcDbPolyline
 62
7
  6
CONTINUOUS
 90
11
 70
0
 10
8.9586314566
 20
42.230648853
 10
9.3311832784
 20
42.2167081948
 10
9.4907481555
 20
42.2095447709
 10
9.632573129
 20
42.2022531049
 10
9.7558508455
 20
42.1948747053
 10
9.8604755222
 20
42.1874090774
 10
9.9465529418
 20
42.1798567158
 10
10.0135930999
 20
42.1722606133
 10
10.0614874188
 20
42.1646205202
 10
10.0903444761
 20
42.1569366862
 10
10.1
 20
42.1492528521
  0
LINE
  5
5AF
100
AcDbEntity
  8
0
100
AcDbLine
 62
7
  6
CONTINUOUS
 10
-7.8678786997
 20
43.9001775033
 11
-7.8522657862
 21
43.8994630719
  0
LINE
  5
5B0
100
AcDbEntity
  8
0
100
AcDbLine
 62
7
  6
CONTINUOUS
 10
9.4299275065
 20
41.6600727607
 11
11.6029477407
 21
41.0791389972
  0
LINE
  5
5B1
100
AcDbEntity
  8
0
100
AcDbLine
 62
7
  6
CONTINUOUS
 10
7.8333260239
 20
43.4579795633
 11
9.8566648691
 21
42.9170615213
  0
LINE
  5
5B2
100
AcDbEntity
  8
0
100
AcDbLine
 62
7
  6
CONTINUOUS
 10
5.9872555597
 20
45.2556021396
 11
8.1103819975
 21
44.6880069499
  0
LINE
  5
5B3
100
AcDbEntity
  8
0
100
AcDbLine
 62
7
  6
CONTINUOUS
 10
0.9978759266
 20
47.1496282333
 11
3.8694093095
 21
46.3819544358
  0
LWPOLYLINE
  5
5B4
100
AcDbEntity
  8
COPY_PABLISH
100
AcDbPolyline
 62
250
  6
CONTINUOUS
 90
25
 70
0
 10
49.2433038637
 20
31.4329657297
 10
49.2309678872
 20
31.6363378948
 10
49.2048178068
 20
31.8518586534
 10
49.1637139953
 20
32.07718965
 10
49.1053595819
 20
32.3082895396
 10
49.0290882018
 20
32.5439207266
 10
48.9357373193
 20
32.7855756506
 10
48.8206330483
 20
33.0323621959
 10
48.6831213051
 20
33.2783980753
 10
48.5305183423
 20
33.5192911532
 10
48.3609625837
 20
33.7556233984
 10
48.171344136
 20
33.9839863678
 10
47.9698867992
 20
34.1982900908
 10
47.7585630113
 20
34.4011811985
 10
47.5339580528
 20
34.5923013988
 10
47.2999869714
 20
34.7647649174
 10
47.0593603856
 20
34.9214908054
 10
46.8116791256
 20
35.0639719159
 10
46.5594252733
 20
35.1851014056
 10
46.3063225605
 20
35.2859076657
 10
46.0541160494
 20
35.369872175
 10
45.8040549606
 20
35.4340623871
 10
45.558594389
 20
35.4785842037
 10
45.3209461232
 20
35.5064475812
 10
45.0936657545
 20
35.5188543318
  0
LINE
  5
5B5
100
AcDbEntity
  8
RACCORDO
100
AcDbLine
 62
7
  6
CONTINUOUS
 10
50.6583336965
 20
26.0513804441
 11
50.8165695018
 21
20.8523046218
  0
LINE
  5
5B6
100
AcDbEntity
  8
DRAFT
100
AcDbLine
 62
7
  6
CONTINUOUS
 10
50.6586006691
 20
25.7709850597
 11
50.8045030569
 21
20.94508352
  0
LWPOLYLINE
  5
5B7
100
AcDbEntity
  8
COPY_PABLISH
100
AcDbPolyline
 62
250
  6
CONTINUOUS
 90
25
 70
0
 10
50.6602573441
 20
31.3340562657
 10
50.6521185207
 20
31.6404014016
 10
50.6260816059
 20
31.9576535173
 10
50.5802363809
 20
32.2846377034
 10
50.5125269944
 20
32.6206050671
 10
50.4211730064
 20
32.9632162175
 10
50.3051083837
 20
33.308641391
 10
50.1623273857
 20
33.6563694265
 10
49.9921407163
 20
34.0025127179
 10
49.7973222069
 20
34.3385972297
 10
49.5791496761
 20
34.661595496
 10
49.3375034883
 20
34.9709267023
 10
49.0750146886
 20
35.2627802953
 10
48.7936727049
 20
35.5351081451
 10
48.49418687
 20
35.7873516757
 10
48.1778348114
 20
36.0183934405
 10
47.8448745456
 20
36.2278207959
 10
47.4980151813
 20
36.4137049521
 10
47.14271477
 20
36.5735338115
 10
46.7805519878
 20
36.7074319837
 10
46.4139127606
 20
36.8153276406
 10
46.050107395
 20
36.8964553335
 10
45.6929494288
 20
36.9520502978
 10
45.3424054094
 20
36.9841351947
 10
45.0
 20
36.9943390766
  0
LWPOLYLINE
  5
5B8
100
AcDbEntity
  8
COPY_PABLISH
100
AcDbPolyline
 62
250
  6
CONTINUOUS
 90
3
 70
0
 10
49.2685334683
 20
30.5237491557
 10
49.2574854342
 20
30.9826225617
 10
49.2433038637
 20
31.4329657297
  0
LWPOLYLINE
  5
5B9
100
AcDbEntity
  8
COPY_PABLISH
100
AcDbPolyline
 62
250
  6
CONTINUOUS
 90
4
 70
0
 10
49.3002894752
 20
28.6165630823
 10
49.2938913736
 20
29.1041481931
 10
49.2858801928
 20
29.583792262
 10
49.2685334683
 20
30.5237491557
  0
LINE
  5
5BA
100
AcDbEntity
  8
COPY_PABLISH
100
AcDbLine
 62
250
  6
CONTINUOUS
 10
49.3144812512
 20
27.1114913358
 11
49.3002894752
 21
28.6165630823
  0
LWPOLYLINE
  5
5BB
100
AcDbEntity
  8
DRAFT
100
AcDbPolyline
 62
250
  6
CONTINUOUS
 90
4
 70
0
 10
49.3253641767
 20
24.3318237942
 10
49.333874764
 20
23.3065178518
 10
49.336817674
 20
22.8011306185
 10
49.3384016999
 20
22.3085034451
  0
LWPOLYLINE
  5
5BC
100
AcDbEntity
  8
DRAFT
100
AcDbPolyline
 62
250
  6
CONTINUOUS
 90
3
 70
0
 10
49.3007905519
 20
26.8340562657
 10
49.304026263
 20
26.3603778963
 10
49.3253641767
 20
24.3318237942
  0
LINE
  5
5BD
100
AcDbEntity
  8
0
100
AcDbLine
 62
250
  6
CONTINUOUS
 10
49.3451440385
 20
19.4072166366
 11
49.3384016999
 21
22.3085034451
  0
LINE
  5
5BE
100
AcDbEntity
  8
0
100
AcDbLine
 62
250
  6
CONTINUOUS
 10
49.3511826617
 20
13.2831291004
 11
49.3451440385
 21
19.4072166366
  0
LINE
  5
5BF
100
AcDbEntity
  8
0
100
AcDbLine
 62
250
  6
CONTINUOUS
 10
49.3515418316
 20
13.2831282184
 11
49.3592013401
 21
-4.1659437787
  0
LINE
  5
5C0
100
AcDbEntity
  8
COPY_PABLISH
100
AcDbLine
 62
7
  6
CONTINUOUS
 10
49.2
 20
26.8340562657
 11
49.2
 21
27.1340562657
  0
LINE
  5
5C1
100
AcDbEntity
  8
0
100
AcDbLine
 62
250
  6
CONTINUOUS
 10
50.6583626355
 20
-31.2421549843
 11
50.6600674021
 21
-39.6659423473
  0
LINE
  5
5C2
100
AcDbEntity
  8
0
100
AcDbLine
 62
7
  6
CONTINUOUS
 10
50.6587564263
 20
13.2831309769
 11
50.6590163717
 21
-4.1659437254
  0
LINE
  5
5C3
100
AcDbEntity
  8
0
100
AcDbLine
 62
250
  6
CONTINUOUS
 10
50.6582973823
 20
22.3085260955
 11
50.6587564263
 21
13.2831309769
  0
LINE
  5
5C4
100
AcDbEntity
  8
0
100
AcDbLine
 62
250
  6
CONTINUOUS
 10
50.6590163717
 20
-4.1659437254
 11
50.6583626355
 21
-31.2421549843
  0
LINE
  5
5C5
100
AcDbEntity
  8
DRAFT
100
AcDbLine
 62
7
  6
CONTINUOUS
 10
50.8045027589
 20
-39.665935139
 11
50.8045030569
 21
20.94508352
  0
LINE
  5
5C6
100
AcDbEntity
  8
RACCORDO
100
AcDbLine
 62
250
  6
CONTINUOUS
 10
50.8165695018
 20
20.8523046218
 11
50.8165695018
 21
-39.6659437343
  0
LINE
  5
5C7
100
AcDbEntity
  8
COPY_PABLISH
100
AcDbLine
 62
7
  6
CONTINUOUS
 10
51.0
 20
31.3340562657
 11
51.0
 21
-39.6659437343
  0
LINE
  5
5C8
100
AcDbEntity
  8
0
100
AcDbLine
 62
7
  6
CONTINUOUS
 10
51.0
 20
-39.6659437343
 11
51.0
 21
31.3340562657
  0
LINE
  5
5C9
100
AcDbEntity
  8
0
100
AcDbLine
 62
250
  6
CONTINUOUS
 10
49.3345187364
 20
-31.2412582153
 11
49.3352551971
 21
-32.6311677955
  0
LWPOLYLINE
  5
5CA
100
AcDbEntity
  8
0
100
AcDbPolyline
 62
250
  6
CONTINUOUS
 90
4
 70
0
 10
49.3485939509
 20
-25.9933566598
 10
49.3483826755
 20
-20.0953756535
 10
49.3503217947
 20
-17.0185665928
 10
49.3589901293
 20
-7.2823273373
  0
LINE
  5
5CB
100
AcDbEntity
  8
0
100
AcDbLine
 62
250
  6
CONTINUOUS
 10
49.3589901293
 20
-7.2823273373
 11
49.3591812123
 21
-4.1659437405
  0
LINE
  5
5CC
100
AcDbEntity
  8
DRAFT
100
AcDbLine
 62
250
  6
CONTINUOUS
 10
50.6586006691
 20
25.7709850597
 11
50.6582973823
 21
22.3085260955
  0
LINE
  5
5CD
100
AcDbEntity
  8
COPY_PABLISH
100
AcDbLine
 62
250
  6
CONTINUOUS
 10
50.6583222613
 20
26.0517561637
 11
50.6602573441
 21
31.3340562657
  0
LWPOLYLINE
  5
5CE
100
AcDbEntity
  8
0
100
AcDbPolyline
 62
250
  6
CONTINUOUS
 90
4
 70
0
 10
49.3352551971
 20
-32.6311677955
 10
49.3340242629
 20
-33.4397939723
 10
49.3326144588
 20
-33.871419425
 10
49.3294569239
 20
-34.3632946084
  0
LWPOLYLINE
  5
5CF
100
AcDbEntity
  8
0
100
AcDbPolyline
 62
250
  6
CONTINUOUS
 90
3
 70
0
 10
49.3345187364
 20
-31.2412582153
 10
49.3462565229
 20
-28.7199480191
 10
49.3485939509
 20
-25.9933566598
  0
LWPOLYLINE
  5
5D0
100
AcDbEntity
  8
0
100
AcDbPolyline
 62
250
  6
CONTINUOUS
 90
5
 70
0
 10
49.3294569239
 20
-34.3632946084
 10
49.3185760116
 20
-35.3870689631
 10
49.3118409465
 20
-35.8686463729
 10
49.3038769055
 20
-36.3381084059
 10
49.2961670864
 20
-36.7961822862
  0
LWPOLYLINE
  5
5D1
100
AcDbEntity
  8
0
100
AcDbPolyline
 62
250
  6
CONTINUOUS
 90
55
 70
0
 10
50.6600672536
 20
-39.6659423473
 10
50.6579287684
 20
-39.8305730926
 10
50.650938249
 20
-39.9950823743
 10
50.6391009478
 20
-40.1593253659
 10
50.6224053886
 20
-40.3231541093
 10
50.6008868788
 20
-40.4864264319
 10
50.5746264382
 20
-40.6490122049
 10
50.5436664436
 20
-40.8107779786
 10
50.5080111859
 20
-40.9715835787
 10
50.467689379
 20
-41.1312952381
 10
50.4227250756
 20
-41.2898077921
 10
50.3731626743
 20
-41.4469558493
 10
50.3190747725
 20
-41.6025191656
 10
50.2605361158
 20
-41.7563121646
 10
50.1975837037
 20
-41.9082647665
 10
50.1302395234
 20
-42.0583320754
 10
50.0585481037
 20
-42.2064102671
 10
49.9825796069
 20
-42.3523501012
 10
49.9023919478
 20
-42.4960376356
 10
49.8180497741
 20
-42.63735321
 10
49.7296243392
 20
-42.7761738084
 10
49.6371877741
 20
-42.9123828089
 10
49.5408151187
 20
-43.0458660405
 10
49.440587779
 20
-43.1765072994
 10
49.3365927514
 20
-43.3041904705
 10
49.228915754
 20
-43.4288079621
 10
49.1176479948
 20
-43.5502519477
 10
49.0028905603
 20
-43.6684107401
 10
48.8847403299
 20
-43.7831839767
 10
48.7632970302
 20
-43.8944741872
 10
48.6386717224
 20
-44.0021796734
 10
48.510972825
 20
-44.1062076398
 10
48.3803063777
 20
-44.2064725841
 10
48.2467844775
 20
-44.3028892511
 10
48.1105244309
 20
-44.3953740035
 10
47.9716382019
 20
-44.4838518958
 10
47.830232798
 20
-44.5682548959
 10
47.6864251454
 20
-44.6485125624
 10
47.5403392021
 20
-44.7245550764
 10
47.3920948478
 20
-44.7963193548
 10
47.2417901004
 20
-44.8637556511
 10
47.0895783598
 20
-44.9267928745
 10
46.9356678808
 20
-44.9853479384
 10
46.7802513894
 20
-45.0393575532
 10
46.6234034948
 20
-45.0888057121
 10
46.4651568802
 20
-45.1336842298
 10
46.3056098414
 20
-45.1739609491
 10
46.1449306603
 20
-45.2095891395
 10
45.9832560511
 20
-45.2405359207
 10
45.8207250026
 20
-45.2667904717
 10
45.6574708499
 20
-45.2883105847
 10
45.4936277907
 20
-45.3050218441
 10
45.329338272
 20
-45.3168894044
 10
45.1647476678
 20
-45.3239185888
 10
45.0
 20
-45.326101164
  0
LWPOLYLINE
  5
5D2
100
AcDbEntity
  8
0
100
AcDbPolyline
 62
250
  6
CONTINUOUS
 90
6
 70
0
 10
49.2961670864
 20
-36.7961822862
 10
49.2790990046
 20
-37.6482532661
 10
49.2727423525
 20
-38.1038151516
 10
49.2675448472
 20
-38.6032946192
 10
49.2600050385
 20
-39.1257814292
 10
49.2471778328
 20
-39.6655225238
  0
LWPOLYLINE
  5
5D3
100
AcDbEntity
  8
DRAFT
100
AcDbPolyline
 62
7
  6
CONTINUOUS
 90
46
 70
0
 10
48.47755303
 20
31.3340562657
 10
48.4702824155
 20
31.1050212996
 10
48.448341533
 20
30.879596108
 10
48.4123404144
 20
30.6586771283
 10
48.3636057739
 20
30.4456498984
 10
48.302475406
 20
30.2386083683
 10
48.2267043521
 20
30.0308207101
 10
48.1353608501
 20
29.8228653998
 10
48.0280905594
 20
29.6166603131
 10
47.9011457323
 20
29.4086152516
 10
47.7515751615
 20
29.1989510747
 10
47.5793964419
 20
28.9924717927
 10
47.3848191502
 20
28.7932158528
 10
47.1660093822
 20
28.602914359
 10
46.924107214
 20
28.426048325
 10
46.66566083
 20
28.2693776217
 10
46.3917879676
 20
28.1344277596
 10
46.1047308725
 20
28.0231201993
 10
45.8149476335
 20
27.9390396856
 10
45.5266416712
 20
27.8815370818
 10
45.2406736611
 20
27.8489743381
 10
44.9631196573
 20
27.840037461
 10
44.6970113277
 20
27.8522781556
 10
44.4426404576
 20
27.8832140858
 10
44.2015276087
 20
27.9303571396
 10
43.9756142486
 20
27.9909325212
 10
43.7641880621
 20
28.0628009218
 10
43.5645362071
 20
28.1450404442
 10
43.3772120971
 20
28.2359078716
 10
43.2019981384
 20
28.3340105331
 10
43.0353461512
 20
28.4402726489
 10
42.8776868389
 20
28.5537563271
 10
42.7290115795
 20
28.673799283
 10
42.5858782625
 20
28.8030259103
 10
42.4488344377
 20
28.9413399729
 10
42.3186139712
 20
29.0884354989
 10
42.1931420761
 20
29.2476933975
 10
42.0735483834
 20
29.4194829362
 10
41.9613783585
 20
29.6036087769
 10
41.8564503333
 20
29.8032981805
 10
41.7606403567
 20
30.0192863459
 10
41.6766045584
 20
30.2507488839
 10
41.606403222
 20
30.4986849353
 10
41.5527813305
 20
30.7629027341
 10
41.51880283
 20
31.0418588586
 10
41.5074242737
 20
31.3340562657
  0
LWPOLYLINE
  5
5D4
100
AcDbEntity
  8
0
100
AcDbPolyline
 62
7
  6
CONTINUOUS
 90
8
 70
0
 10
-0.8229838659
 20
47.1584054247
 10
-0.865883451
 20
47.1572196289
 10
-0.9034687216
 20
47.1559698141
 10
-0.9350162427
 20
47.1546800365
 10
-0.9604090503
 20
47.1533495219
 10
-0.9797641084
 20
47.1519790445
 10
-0.9927088741
 20
47.150594983
 10
-0.9978905893
 20
47.1496243066
  0
LINE
  5
5D5
100
AcDbEntity
  8
0
100
AcDbLine
 62
7
  6
CONTINUOUS
 10
-0.7210358529
 20
47.1605824788
 11
-0.8229838659
 21
47.1584054247
  0
LINE
  5
5D6
100
AcDbEntity
  8
0
100
AcDbLine
 62
7
  6
CONTINUOUS
 10
-0.6008444806
 20
47.1624408157
 11
-0.7210358529
 21
47.1605824788
  0
LINE
  5
5D7
100
AcDbEntity
  8
0
100
AcDbLine
 62
7
  6
CONTINUOUS
 10
-0.3921030472
 20
47.1645449765
 11
-0.6008444806
 21
47.1624408157
  0
LINE
  5
5D8
100
AcDbEntity
  8
0
100
AcDbLine
 62
7
  6
CONTINUOUS
 10
-0.1610891269
 20
47.1657150661
 11
-0.3921030472
 21
47.1645449765
  0
LINE
  5
5D9
100
AcDbEntity
  8
0
100
AcDbLine
 62
7
  6
CONTINUOUS
 10
-0.1610891269
 20
47.1657150661
 11
0.1610891269
 21
47.1657150661
  0
LINE
  5
5DA
100
AcDbEntity
  8
0
100
AcDbLine
 62
7
  6
CONTINUOUS
 10
0.1610891269
 20
47.1657150661
 11
0.3921030472
 21
47.1645449765
  0
LINE
  5
5DB
100
AcDbEntity
  8
0
100
AcDbLine
 62
7
  6
CONTINUOUS
 10
0.3921030472
 20
47.1645449765
 11
0.6008444806
 21
47.1624408157
  0
LINE
  5
5DC
100
AcDbEntity
  8
0
100
AcDbLine
 62
7
  6
CONTINUOUS
 10
0.6008444806
 20
47.1624408157
 11
0.7210358529
 21
47.1605824788
  0
LWPOLYLINE
  5
5DD
100
AcDbEntity
  8
0
100
AcDbPolyline
 62
7
  6
CONTINUOUS
 90
9
 70
0
 10
0.7210358529
 20
47.1605824788
 10
0.8229838659
 20
47.1584054247
 10
0.865883451
 20
47.1572196289
 10
0.9034687216
 20
47.1559698141
 10
0.9350162427
 20
47.1546800365
 10
0.9604090503
 20
47.1533495219
 10
0.9797641084
 20
47.1519790445
 10
0.9927088741
 20
47.150594983
 10
0.9978905893
 20
47.1496243066
  0
LWPOLYLINE
  5
5DE
100
AcDbEntity
  8
COPY_PABLISH
100
AcDbPolyline
 62
7
  6
CONTINUOUS
 90
16
 70
0
 10
50.6583336965
 20
26.0513804441
 10
50.6476225045
 20
26.1494509281
 10
50.6232560552
 20
26.2451907079
 10
50.5852343486
 20
26.3385997836
 10
50.5325961153
 20
26.4305528104
 10
50.4663026246
 20
26.520175133
 10
50.3892376849
 20
26.6048427855
 10
50.3015918895
 20
26.6838874218
 10
50.203174645
 20
26.7579773879
 10
50.09629798
 20
26.8264937565
 10
49.980499464
 20
26.8895259458
 10
49.8562415275
 20
26.9469845376
 10
49.7272234902
 20
26.9979823503
 10
49.5946784588
 20
27.0422236567
 10
49.4573733267
 20
27.0800041841
 10
49.3153080938
 20
27.1113239323
  0
LWPOLYLINE
  5
5DF
100
AcDbEntity
  8
0
100
AcDbPolyline
 62
250
  6
CONTINUOUS
 90
10
 70
0
 10
29.662670823
 20
-43.826126873
 10
28.9993063762
 20
-44.0835506551
 10
28.259139773
 20
-44.2123231498
 10
27.4309955387
 20
-44.2380495242
 10
26.5033555768
 20
-44.1961301433
 10
25.4609930946
 20
-44.1325441844
 10
24.2882924317
 20
-44.0884761605
 10
22.9834909952
 20
-44.0662974495
 10
21.5518408994
 20
-44.0594638501
 10
19.9999999998
 20
-44.0594294941
  0
LWPOLYLINE
  5
5E0
100
AcDbEntity
  8
0
100
AcDbPolyline
 62
7
  6
CONTINUOUS
 90
7
 70
0
 43
0.3500000006
 10
2.3571427875
 20
55.915946228
 10
0.8571428254
 20
55.915946228
 10
2.3571427875
 20
58.0588001404
 10
2.3571427875
 20
58.4873691101
 10
1.9285714102
 20
58.9159471436
 10
1.2857142735
 20
58.9159471436
 10
0.8571428254
 20
58.2730846252
  0
LINE
  5
5E1
100
AcDbEntity
  8
0
100
AcDbLine
 62
7
  6
CONTINUOUS
 10
43.7208322382
 20
32.7389512217
 11
43.90093146
 21
32.4270102192
  0
LINE
  5
5E2
100
AcDbEntity
  8
0
100
AcDbLine
 62
7
  6
CONTINUOUS
 10
44.6030083811
 20
32.8323545186
 11
44.4229091594
 21
33.1442955211
  0
LWPOLYLINE
  5
5E3
100
AcDbEntity
  8
DRAFT
100
AcDbPolyline
 62
7
  6
CONTINUOUS
 90
13
 70
0
 10
50.6586006691
 20
25.7709850597
 10
50.6332291645
 20
25.9070516983
 10
50.5889929852
 20
26.0346380204
 10
50.5258921315
 20
26.1537440259
 10
50.4410847411
 20
26.2645019829
 10
50.3374126762
 20
26.3667796233
 10
50.223401523
 20
26.4601801436
 10
50.1001763866
 20
26.5445458638
 10
49.9666121619
 20
26.620034464
 10
49.8278591197
 20
26.6867221806
 10
49.685634017
 20
26.7446344258
 10
49.5382200968
 20
26.7937457875
 10
49.385617359
 20
26.8340562657
  0
LWPOLYLINE
  5
5E4
100
AcDbEntity
  8
0
100
AcDbPolyline
 62
7
  6
CONTINUOUS
 90
6
 70
0
 10
-130.9800164969
 20
-45.1708482975
 10
-130.9735757793
 20
-45.1730712865
 10
-130.9671626204
 20
-45.1752325474
 10
-130.9607780841
 20
-45.1773326052
 10
-130.9544227065
 20
-45.1793721699
 10
-130.9480969411
 20
-45.181351978
  0
LWPOLYLINE
  5
5E5
100
AcDbEntity
  8
0
100
AcDbPolyline
 62
7
  6
CONTINUOUS
 90
6
 70
0
 10
-131.0192032595
 20
-45.156177623
 10
-131.012611467
 20
-45.1587843534
 10
-131.0060427242
 20
-45.1613257273
 10
-130.9994982429
 20
-45.1638021554
 10
-130.992978585
 20
-45.1662143085
 10
-130.9864842826
 20
-45.1685628685
  0
LWPOLYLINE
  5
5E6
100
AcDbEntity
  8
0
100
AcDbPolyline
 62
7
  6
CONTINUOUS
 90
6
 70
0
 10
-131.059198539
 20
-45.139131758
 10
-131.0524839466
 20
-45.1421426611
 10
-131.045787515
 20
-45.1450850018
 10
-131.0391105595
 20
-45.1479590764
 10
-131.0324537079
 20
-45.1507654934
 10
-131.0258175321
 20
-45.1535048855
  0
LWPOLYLINE
  5
5E7
100
AcDbEntity
  8
0
100
AcDbPolyline
 62
7
  6
CONTINUOUS
 90
6
 70
0
 10
-131.0825893665
 20
-45.1281646211
 10
-131.0422419188
 20
-45.1466195223
 10
-131.0020300306
 20
-45.1628517411
 10
-130.9620393267
 20
-45.1769232002
 10
-130.9224246909
 20
-45.1888774641
 10
-130.883068753
 20
-45.1988362346
  0
LWPOLYLINE
  5
5E8
100
AcDbEntity
  8
0
100
AcDbPolyline
 62
7
  6
CONTINUOUS
 90
6
 70
0
 10
-131.0998240391
 20
-45.1195978155
 10
-131.0930175257
 20
-45.1230304345
 10
-131.0862238136
 20
-45.1263918155
 10
-131.0794443297
 20
-45.1296821184
 10
-131.072679742
 20
-45.1329018904
 10
-131.0659306861
 20
-45.1360516943
  0
LWPOLYLINE
  5
5E9
100
AcDbEntity
  8
0
100
AcDbPolyline
 62
7
  6
CONTINUOUS
 90
9
 70
0
 10
-131.3942120199
 20
-44.8973002116
 10
-131.3573401969
 20
-44.934673798
 10
-131.3197095542
 20
-44.9694443383
 10
-131.2813377585
 20
-45.0017792679
 10
-131.2423649474
 20
-45.0317065956
 10
-131.2029611588
 20
-45.0592304378
 10
-131.1631422712
 20
-45.0844552244
 10
-131.1229570092
 20
-45.1074401168
 10
-131.0829061998
 20
-45.1280019608
  0
LWPOLYLINE
  5
5EA
100
AcDbEntity
  8
0
100
AcDbPolyline
 62
7
  6
CONTINUOUS
 90
7
 70
0
 10
-130.8230519571
 20
-45.2104009408
 10
-130.8174848865
 20
-45.2112543761
 10
-130.8119509194
 20
-45.212065955
 10
-130.8064509941
 20
-45.212836233
 10
-130.8009854866
 20
-45.2135658559
 10
-130.7955516415
 20
-45.2142558588
 10
-130.790152715
 20
-45.2149064932
  0
LWPOLYLINE
  5
5EB
100
AcDbEntity
  8
0
100
AcDbPolyline
 62
7
  6
CONTINUOUS
 90
6
 70
0
 10
-130.857181668
 20
-45.2043556688
 10
-130.8514047792
 20
-45.2054774241
 10
-130.8456636932
 20
-45.2065523922
 10
-130.8399586952
 20
-45.207581315
 10
-130.8342882062
 20
-45.2085652494
 10
-130.8286525274
 20
-45.2095048924
  0
LWPOLYLINE
  5
5EC
100
AcDbEntity
  8
0
100
AcDbPolyline
 62
7
  6
CONTINUOUS
 90
3
 70
0
 10
-130.883068753
 20
-45.1988362346
 10
-130.8442444775
 20
-45.2068153484
 10
-130.8067046412
 20
-45.2128052093
  0
LWPOLYLINE
  5
5ED
100
AcDbEntity
  8
0
100
AcDbPolyline
 62
7
  6
CONTINUOUS
 90
3
 70
0
 10
-125.0275682273
 20
-45.3000042602
 10
-125.0268153532
 20
-45.3001800704
 10
-124.8064166154
 20
-45.3197856929
  0
LWPOLYLINE
  5
5EE
100
AcDbEntity
  8
0
100
AcDbPolyline
 62
7
  6
CONTINUOUS
 90
6
 70
0
 10
-130.8986359892
 20
-45.1951211449
 10
-130.892605026
 20
-45.1965944403
 10
-130.8866098242
 20
-45.1980150516
 10
-130.8806511939
 20
-45.1993836674
 10
-130.8747291104
 20
-45.2007011697
 10
-130.8688431461
 20
-45.201968513
  0
LWPOLYLINE
  5
5EF
100
AcDbEntity
  8
0
100
AcDbPolyline
 62
7
  6
CONTINUOUS
 90
6
 70
0
 10
-130.9355375451
 20
-45.1851348285
 10
-130.9293048514
 20
-45.1869393529
 10
-130.9231044585
 20
-45.1886868362
 10
-130.9169367779
 20
-45.1903780419
 10
-130.9108022821
 20
-45.1920137159
 10
-130.904701874
 20
-45.1935944949
  0
LINE
  5
5F0
100
AcDbEntity
  8
0
100
AcDbLine
 62
250
  6
CONTINUOUS
 10
-126.7403472947
 20
-43.9321868832
 11
-126.7636638773
 21
-43.9210920072
  0
LWPOLYLINE
  5
5F1
100
AcDbEntity
  8
0
100
AcDbPolyline
 62
250
  6
CONTINUOUS
 90
5
 70
0
 10
-126.0273125281
 20
-44.837911686
 10
-125.8045830099
 20
-45.0066715054
 10
-125.5654179142
 20
-45.1411484974
 10
-125.317657415
 20
-45.2388226266
 10
-125.0634659049
 20
-45.2999608208
  0
LWPOLYLINE
  5
5F2
100
AcDbEntity
  8
0
100
AcDbPolyline
 62
250
  6
CONTINUOUS
 90
3
 70
0
 10
-126.3574819781
 20
-45.1172316605
 10
-126.2452408719
 20
-45.2064828915
 10
-126.1265731265
 20
-45.2678595045
  0
LINE
  5
5F3
100
AcDbEntity
  8
0
100
AcDbLine
 62
250
  6
CONTINUOUS
 10
-126.2223843543
 20
-44.6433370851
 11
-126.0273125281
 21
-44.837911686
  0
LWPOLYLINE
  5
5F4
100
AcDbEntity
  8
0
100
AcDbPolyline
 62
7
  6
CONTINUOUS
 90
5
 70
0
 10
-131.5301345926
 20
-44.7210186875
 10
-131.4982558327
 20
-44.7692847371
 10
-131.4648124602
 20
-44.8147246097
 10
-131.4301056251
 20
-44.857322623
 10
-131.3942120199
 20
-44.8973002116
  0
LINE
  5
5F5
100
AcDbEntity
  8
RACCORDO
100
AcDbLine
 62
7
  6
CONTINUOUS
 10
-67.6700117797
 20
-45.0389718072
 11
-103.5892094268
 21
-45.6659437343
  0
LINE
  5
5F6
100
AcDbEntity
  8
0
100
AcDbLine
 62
7
  6
CONTINUOUS
 10
-103.5892094268
 20
-45.6659437343
 11
-105.1892094268
 21
-45.6659437343
  0
LINE
  5
5F7
100
AcDbEntity
  8
RACCORDO
100
AcDbLine
 62
7
  6
CONTINUOUS
 10
-115.69793563
 20
-45.4825132361
 11
-105.1892094268
 21
-45.6659437343
  0
LINE
  5
5F8
100
AcDbEntity
  8
0
100
AcDbLine
 62
7
  6
CONTINUOUS
 10
-116.3892094268
 20
-45.4704468423
 11
-124.7852771314
 21
-45.3238922884
  0
LINE
  5
5F9
100
AcDbEntity
  8
0
100
AcDbLine
 62
7
  6
CONTINUOUS
 10
-124.7852771314
 20
-45.3238922884
 11
-125.6410739283
 21
-45.3089542338
  0
LINE
  5
5FA
100
AcDbEntity
  8
0
100
AcDbLine
 62
7
  6
CONTINUOUS
 10
-127.5931509218
 20
-45.2748804528
 11
-130.7067446814
 21
-45.2205322316
  0
LINE
  5
5FB
100
AcDbEntity
  8
0
100
AcDbLine
 62
7
  6
CONTINUOUS
 10
-124.674384133
 20
-45.3257698428
 11
-124.6595635263
 21
-45.3260857389
  0
LINE
  5
5FC
100
AcDbEntity
  8
0
100
AcDbLine
 62
7
  6
CONTINUOUS
 10
-130.715418586
 20
-45.2203386818
 11
-130.7105848239
 21
-45.2204603218
  0
LINE
  5
5FD
100
AcDbEntity
  8
0
100
AcDbLine
 62
7
  6
CONTINUOUS
 10
-124.6898879592
 20
-45.3253168851
 11
-124.674384133
 21
-45.3257698428
  0
LINE
  5
5FE
100
AcDbEntity
  8
0
100
AcDbLine
 62
7
  6
CONTINUOUS
 10
-130.7362415745
 20
-45.219497485
 11
-130.7066514198
 21
-45.220538672
  0
LINE
  5
5FF
100
AcDbEntity
  8
0
100
AcDbLine
 62
7
  6
CONTINUOUS
 10
-124.6996338712
 20
-45.3249686497
 11
-124.6898879592
 21
-45.3253168851
  0
LWPOLYLINE
  5
600
100
AcDbEntity
  8
0
100
AcDbPolyline
 62
7
  6
CONTINUOUS
 90
6
 70
0
 10
-130.7487752387
 20
-45.2187378663
 10
-130.7438853111
 20
-45.219055663
 10
-130.7390769941
 20
-45.2193403231
 10
-130.7343678967
 20
-45.2195923522
 10
-130.7297410121
 20
-45.2198141847
 10
-130.7251567231
 20
-45.2200087489
  0
LINE
  5
601
100
AcDbEntity
  8
0
100
AcDbLine
 62
250
  6
CONTINUOUS
 10
-124.8064166154
 20
-45.3197856929
 11
-124.7464279915
 21
-45.3245704057
  0
LINE
  5
602
100
AcDbEntity
  8
0
100
AcDbLine
 62
250
  6
CONTINUOUS
 10
-124.9345639109
 20
-45.3009846083
 11
-124.6586217146
 21
-45.3261019539
  0
LINE
  5
603
100
AcDbEntity
  8
0
100
AcDbLine
 62
250
  6
CONTINUOUS
 10
-125.0634659049
 20
-45.2999608208
 11
-124.8070258975
 21
-45.3235134918
  0
LWPOLYLINE
  5
604
100
AcDbEntity
  8
0
100
AcDbPolyline
 62
7
  6
CONTINUOUS
 90
6
 70
0
 10
-130.7847981251
 20
-45.215517404
 10
-130.7794875333
 20
-45.2160894876
 10
-130.7742218109
 20
-45.2166235033
 10
-130.7690122483
 20
-45.2171192634
 10
-130.7638589326
 20
-45.217577811
 10
-130.7587623366
 20
-45.218000147
  0
LWPOLYLINE
  5
605
100
AcDbEntity
  8
0
100
AcDbPolyline
 62
7
  6
CONTINUOUS
 90
3
 70
0
 10
-130.8067046412
 20
-45.2128052093
 10
-130.7707568181
 20
-45.2169602627
 10
-130.7362415745
 20
-45.219497485
  0
LWPOLYLINE
  5
606
100
AcDbEntity
  8
0
100
AcDbPolyline
 62
250
  6
CONTINUOUS
 90
6
 70
0
 10
-126.6491181869
 20
-43.9715602263
 10
-126.6628867705
 20
-43.9697476791
 10
-126.6788955921
 20
-43.9653407408
 10
-126.6970604658
 20
-43.9583074585
 10
-126.7177238931
 20
-43.9466023525
 10
-126.7403472947
 20
-43.9321868832
  0
LWPOLYLINE
  5
607
100
AcDbEntity
  8
0
100
AcDbPolyline
 62
7
  6
CONTINUOUS
 90
12
 70
0
 10
-126.0911587027
 20
-45.2730445496
 10
-126.0545961495
 20
-45.2779868186
 10
-126.0172189966
 20
-45.2826371532
 10
-125.9790468087
 20
-45.2870163575
 10
-125.940060021
 20
-45.2911036275
 10
-125.9001999389
 20
-45.2948365512
 10
-125.859502885
 20
-45.2982207861
 10
-125.8179325367
 20
-45.3012506747
 10
-125.7753212319
 20
-45.3038468326
 10
-125.7316130832
 20
-45.3059827984
 10
-125.6868639779
 20
-45.3076850336
 10
-125.6410739162
 20
-45.3089535382
  0
LINE
  5
608
100
AcDbEntity
  8
0
100
AcDbLine
 62
7
  6
CONTINUOUS
 10
-126.4003261743
 20
-45.2268274673
 11
-126.0911587027
 21
-45.2730445496
  0
LWPOLYLINE
  5
609
100
AcDbEntity
  8
0
100
AcDbPolyline
 62
250
  6
CONTINUOUS
 90
3
 70
0
 10
-126.7636638773
 20
-43.9210920072
 10
-126.7873504718
 20
-43.9153620054
 10
-126.8118744999
 20
-43.9129921061
  0
LINE
  5
60A
100
AcDbEntity
  8
0
100
AcDbLine
 62
250
  6
CONTINUOUS
 10
-126.2230313365
 20
-44.642488389
 11
-126.2223843543
 21
-44.6433370851
  0
LWPOLYLINE
  5
60B
100
AcDbEntity
  8
0
100
AcDbPolyline
 62
7
  6
CONTINUOUS
 90
6
 70
0
 43
0.3500000006
 10
-140.4261372986
 20
-4.0588012962
 10
-140.4261372986
 20
-2.9873720741
 10
-140.6404217834
 20
-2.7730864563
 10
-141.7118442078
 20
-2.7730864563
 10
-142.1404222412
 20
-3.201657692
 10
-142.1404222412
 20
-3.6302289276
  0
LWPOLYLINE
  5
60C
100
AcDbEntity
  8
0
100
AcDbPolyline
 62
7
  6
CONTINUOUS
 90
10
 70
0
 43
0.3500000006
 10
-99.9249285278
 20
58.9159471436
 10
-100.5677819824
 20
58.2730846252
 10
-100.9963509521
 20
57.4159466858
 10
-100.9963509521
 20
56.3445151978
 10
-100.5677819824
 20
55.915946228
 10
-99.9249285278
 20
55.915946228
 10
-99.4963595581
 20
56.3445151978
 10
-99.4963595581
 20
57.2016622009
 10
-99.9249285278
 20
57.6302311707
 10
-100.8534976501
 20
57.6302311707
  0
LWPOLYLINE
  5
60D
100
AcDbEntity
  8
0
100
AcDbPolyline
 62
250
  6
CONTINUOUS
 90
16
 70
0
 10
-126.8372927097
 20
-43.9139937903
 10
-126.8499989053
 20
-43.9146764576
 10
-126.8632580529
 20
-43.9131629614
 10
-126.8770339354
 20
-43.9094409566
 10
-126.8913415984
 20
-43.90299007
 10
-126.9060931028
 20
-43.8943021397
 10
-126.921119391
 20
-43.8848906923
 10
-126.9363684831
 20
-43.8747755839
 10
-126.9518669682
 20
-43.8639250813
 10
-126.9676069036
 20
-43.8537931557
 10
-126.9837050189
 20
-43.8443226121
 10
-127.000070047
 20
-43.8355776687
 10
-127.016417795
 20
-43.829211112
 10
-127.0326755076
 20
-43.825783429
 10
-127.0489681309
 20
-43.824754518
 10
-127.0653210569
 20
-43.8261326101
  0
LINE
  5
60E
100
AcDbEntity
  8
0
100
AcDbLine
 62
250
  6
CONTINUOUS
 10
-126.8118744999
 20
-43.9129921061
 11
-126.8372927097
 21
-43.9139937903
  0
LWPOLYLINE
  5
60F
100
AcDbEntity
  8
0
100
AcDbPolyline
 62
7
  6
CONTINUOUS
 90
10
 70
0
 10
-127.286977559
 20
-45.2749818767
 10
-127.1856776908
 20
-45.2738121619
 10
-127.0852220061
 20
-45.2717939472
 10
-126.985590457
 20
-45.2688639928
 10
-126.8865586823
 20
-45.2649007371
 10
-126.788866953
 20
-45.2598140027
 10
-126.6940449353
 20
-45.2537532393
 10
-126.6028598916
 20
-45.2468069256
 10
-126.5151905252
 20
-45.2388948744
 10
-126.4312995685
 20
-45.2300376837
  0
LINE
  5
610
100
AcDbEntity
  8
RACCORDO
100
AcDbLine
 62
7
  6
CONTINUOUS
 10
-126.1393197153
 20
-45.2659437343
 11
-126.912620554
 21
-45.2659437343
  0
LINE
  5
611
100
AcDbEntity
  8
0
100
AcDbLine
 62
250
  6
CONTINUOUS
 10
-131.5949852773
 20
-44.0594638501
 11
-131.6761134338
 21
-44.0594294941
  0
LWPOLYLINE
  5
612
100
AcDbEntity
  8
0
100
AcDbPolyline
 62
7
  6
CONTINUOUS
 90
3
 70
0
 10
-127.59315095
 20
-45.2748800847
 10
-127.4911055008
 20
-45.2757937266
 10
-127.286977559
 20
-45.2749818767
  0
LWPOLYLINE
  5
613
100
AcDbEntity
  8
0
100
AcDbPolyline
 62
250
  6
CONTINUOUS
 90
9
 70
0
 10
-126.5821688348
 20
-44.2125866343
 10
-126.488050118
 20
-44.4402891039
 10
-126.3684128233
 20
-44.6509546157
 10
-126.2234908325
 20
-44.8425436558
 10
-126.0567453206
 20
-45.0082065371
 10
-125.8768248721
 20
-45.1395269399
 10
-125.6898074955
 20
-45.2342324946
 10
-125.4972713528
 20
-45.292919468
 10
-125.3023494789
 20
-45.3148667172
  0
LWPOLYLINE
  5
614
100
AcDbEntity
  8
0
100
AcDbPolyline
 62
250
  6
CONTINUOUS
 90
9
 70
0
 10
-126.6392101721
 20
-43.9000661351
 10
-126.5425119589
 20
-44.1534337205
 10
-126.4090711155
 20
-44.3931914615
 10
-126.2408311149
 20
-44.615497825
 10
-126.0378154987
 20
-44.8181976057
 10
-125.8045847175
 20
-44.9940792346
 10
-125.5528311789
 20
-45.1342360894
 10
-125.2907523532
 20
-45.2360676211
 10
-125.0204971202
 20
-45.2998882318
  0
LWPOLYLINE
  5
615
100
AcDbEntity
  8
COPY_PABLISH
100
AcDbPolyline
 62
7
  6
CONTINUOUS
 90
16
 70
0
 10
-126.636913188
 20
35.5656404954
 10
-126.5822466101
 20
35.7243951175
 10
-126.5150459289
 20
35.8766663291
 10
-126.4353111445
 20
36.0224541303
 10
-126.3420455946
 20
36.1630952955
 10
-126.2362459415
 20
36.2972530503
 10
-126.120902172
 20
36.4209170712
 10
-125.9964465026
 20
36.5332282584
 10
-125.8624467168
 20
36.6350457117
 10
-125.7205961529
 20
36.7249364075
 10
-125.5696977496
 20
36.8031052089
 10
-125.4109485681
 20
36.8693472527
 10
-125.2496331306
 20
36.9216149256
 10
-125.0875129442
 20
36.9592256897
 10
-124.9228265017
 20
36.9828620829
 10
-124.755573803
 20
36.9925241051
  0
LWPOLYLINE
  5
616
100
AcDbEntity
  8
0
100
AcDbPolyline
 62
7
  6
CONTINUOUS
 90
10
 70
0
 43
0.3500000006
 10
-97.5677810669
 20
58.9159471436
 10
-98.2106435852
 20
58.2730846252
 10
-98.6392125549
 20
57.4159466858
 10
-98.6392125549
 20
56.3445151978
 10
-98.2106435852
 20
55.915946228
 10
-97.5677810669
 20
55.915946228
 10
-97.1392120972
 20
56.3445151978
 10
-97.1392120972
 20
57.2016622009
 10
-97.5677810669
 20
57.6302311707
 10
-98.4963592529
 20
57.6302311707
  0
LINE
  5
617
100
AcDbEntity
  8
ASSI
100
AcDbLine
 62
7
  6
CONTINUOUS
 10
-66.0892094268
 20
-40.1659437343
 11
-66.5892094268
 21
-40.1659437343
  0
LINE
  5
618
100
AcDbEntity
  8
RACCORDO
100
AcDbLine
 62
250
  6
CONTINUOUS
 10
-66.5892124863
 20
-39.6659437343
 11
-103.5892094268
 21
-39.6659437343
  0
LINE
  5
619
100
AcDbEntity
  8
0
100
AcDbLine
 62
250
  6
CONTINUOUS
 10
-103.5892094268
 20
-39.6659437343
 11
-105.1892094268
 21
-39.6659437343
  0
LINE
  5
61A
100
AcDbEntity
  8
RACCORDO
100
AcDbLine
 62
250
  6
CONTINUOUS
 10
-105.1892094268
 20
-39.6659437343
 11
-116.1892094268
 21
-39.6659437343
  0
LINE
  5
61B
100
AcDbEntity
  8
0
100
AcDbLine
 62
250
  6
CONTINUOUS
 10
-126.5328792113
 20
-39.6655328495
 11
-116.3892094268
 21
-39.6659429524
  0
LWPOLYLINE
  5
61C
100
AcDbEntity
  8
0
100
AcDbPolyline
 62
7
  6
CONTINUOUS
 90
5
 70
0
 43
0.3500000006
 10
-142.1404222412
 20
-3.201657692
 10
-142.3547067261
 20
-2.8445153732
 10
-142.9975601807
 20
-2.8445153732
 10
-143.4261291504
 20
-3.201657692
 10
-143.4261291504
 20
-4.0588012962
  0
LWPOLYLINE
  5
61D
100
AcDbEntity
  8
0
100
AcDbPolyline
 62
250
  6
CONTINUOUS
 90
9
 70
0
 10
-126.548101455
 20
-43.853071616
 10
-126.4546364544
 20
-44.1173302522
 10
-126.3232410456
 20
-44.3666444573
 10
-126.1562067215
 20
-44.597078873
 10
-125.9539220032
 20
-44.8064135096
 10
-125.7210335073
 20
-44.9874655567
 10
-125.4690539054
 20
-45.1314221616
 10
-125.2061483661
 20
-45.2357803433
 10
-124.9345639109
 20
-45.3009846083
  0
LWPOLYLINE
  5
61E
100
AcDbEntity
  8
0
100
AcDbPolyline
 62
7
  6
CONTINUOUS
 90
48
 70
0
 10
-126.639916875
 20
-43.9083108874
 10
-126.6197121574
 20
-43.9708606984
 10
-126.5988208278
 20
-44.0287191731
 10
-126.577200559
 20
-44.0830989064
 10
-126.5553500936
 20
-44.1335958614
 10
-126.5333289395
 20
-44.1808066605
 10
-126.5110716922
 20
-44.2253981372
 10
-126.4887749823
 20
-44.267390906
 10
-126.4665750516
 20
-44.306898842
 10
-126.4442023224
 20
-44.3446752709
 10
-126.4217735347
 20
-44.3807224205
 10
-126.3993554229
 20
-44.4151162249
 10
-126.3764997633
 20
-44.4486590167
 10
-126.3532078388
 20
-44.4814030372
 10
-126.3295442061
 20
-44.5133084723
 10
-126.3050706213
 20
-44.5449795113
 10
-126.2797853203
 20
-44.5763940396
 10
-126.253684273
 20
-44.6075327391
 10
-126.2262559629
 20
-44.6389455351
 10
-126.1974899072
 20
-44.6705504153
 10
-126.1673253931
 20
-44.7023198828
 10
-126.1351013833
 20
-44.7348122466
 10
-126.1007685038
 20
-44.7678975779
 10
-126.0642272168
 20
-44.8014886981
 10
-126.0246537284
 20
-44.8361050009
 10
-125.9816959623
 20
-44.8717441009
 10
-125.9354532234
 20
-44.9080022124
 10
-125.8857270376
 20
-44.9447131119
 10
-125.8319935141
 20
-44.981897821
 10
-125.7745230255
 20
-45.0189905327
 10
-125.7143834949
 20
-45.0550201096
 10
-125.6514799351
 20
-45.0898306333
 10
-125.5858529794
 20
-45.1231815423
 10
-125.5189351062
 20
-45.1542214452
 10
-125.4507883062
 20
-45.1828887687
 10
-125.381479964
 20
-45.2091191314
 10
-125.3125950746
 20
-45.2323668537
 10
-125.244279415
 20
-45.2527258541
 10
-125.176622122
 20
-45.2703076823
 10
-125.1112213701
 20
-45.2849112613
 10
-125.0483916039
 20
-45.2967618187
 10
-124.9880680339
 20
-45.3061548991
 10
-124.9313211668
 20
-45.3132316478
 10
-124.8755406569
 20
-45.3185352284
 10
-124.8234975231
 20
-45.3220108292
 10
-124.7844386148
 20
-45.3236865399
 10
-124.7683572616
 20
-45.3241439661
 10
-124.7554412482
 20
-45.3244131089
  0
LINE
  5
61F
100
AcDbEntity
  8
0
100
AcDbLine
 62
7
  6
CONTINUOUS
 10
-126.6400179763
 20
-43.9079566186
 11
-126.639916875
 21
-43.9083108874
  0
LINE
  5
620
100
AcDbEntity
  8
0
100
AcDbLine
 62
250
  6
CONTINUOUS
 10
-126.6490866057
 20
-43.9715515301
 11
-126.5821688348
 21
-44.2125866343
  0
LINE
  5
621
100
AcDbEntity
  8
0
100
AcDbLine
 62
7
  6
CONTINUOUS
 10
-127.7468147451
 20
31.1264257704
 11
-127.8066226397
 21
30.7874157022
  0
LINE
  5
622
100
AcDbEntity
  8
0
100
AcDbLine
 62
7
  6
CONTINUOUS
 10
-127.6118647355
 20
31.5774466923
 11
-127.6106345018
 21
31.5842719027
  0
LINE
  5
623
100
AcDbEntity
  8
0
100
AcDbLine
 62
7
  6
CONTINUOUS
 10
-127.6969095523
 20
31.3979119362
 11
-127.7468147451
 21
31.1264257704
  0
LWPOLYLINE
  5
624
100
AcDbEntity
  8
DRAFT
100
AcDbPolyline
 62
7
  6
CONTINUOUS
 90
22
 70
0
 10
-127.6153596413
 20
31.3340562657
 10
-127.558622366
 20
31.6418085981
 10
-127.5004437789
 20
31.946943283
 10
-127.44082388
 20
32.2470829237
 10
-127.3787126005
 20
32.5415387968
 10
-127.3151600091
 20
32.8262648256
 10
-127.253316312
 20
33.0944981849
 10
-127.1934131259
 20
33.344993339
 10
-127.135218834
 20
33.5765308969
 10
-127.0811887926
 20
33.7842696894
 10
-127.0322353421
 20
33.9667325794
 10
-126.987446142
 20
34.1269998656
 10
-126.946539528
 20
34.267865764
 10
-126.9097057752
 20
34.3895031436
 10
-126.8767546084
 20
34.4933542094
 10
-126.8468335376
 20
34.5826347622
 10
-126.8197957048
 20
34.6571175882
 10
-126.7957879679
 20
34.7168935231
 10
-126.7743984104
 20
34.7632120491
 10
-126.7554303874
 20
34.7947747814
 10
-126.7390805437
 20
34.8100107288
 10
-126.7336000102
 20
34.8112408204
  0
LINE
  5
625
100
AcDbEntity
  8
0
100
AcDbLine
 62
7
  6
CONTINUOUS
 10
-127.6922948889
 20
31.146864214
 11
-127.6440176563
 21
31.4083765774
  0
LINE
  5
626
100
AcDbEntity
  8
0
100
AcDbLine
 62
7
  6
CONTINUOUS
 10
-127.6615816695
 20
31.5842719027
 11
-127.6969095523
 21
31.3979119362
  0
LINE
  5
627
100
AcDbEntity
  8
0
100
AcDbLine
 62
7
  6
CONTINUOUS
 10
-127.6440176563
 20
31.4083765774
 11
-127.6118647355
 21
31.5774466923
  0
LINE
  5
628
100
AcDbEntity
  8
0
100
AcDbLine
 62
7
  6
CONTINUOUS
 10
-127.5713844463
 20
31.7931904492
 11
-127.6135382395
 21
31.5842692657
  0
LINE
  5
629
100
AcDbEntity
  8
0
100
AcDbLine
 62
7
  6
CONTINUOUS
 10
-127.5197838598
 20
32.0417184882
 11
-127.5736499461
 21
31.7846802032
  0
LINE
  5
62A
100
AcDbEntity
  8
0
100
AcDbLine
 62
7
  6
CONTINUOUS
 10
-127.4592819285
 20
32.3259358412
 11
-127.533670153
 21
31.9780460846
  0
LINE
  5
62B
100
AcDbEntity
  8
0
100
AcDbLine
 62
7
  6
CONTINUOUS
 10
-127.4217811787
 20
32.4946717039
 11
-127.4709795485
 21
32.2702228989
  0
LWPOLYLINE
  5
62C
100
AcDbEntity
  8
0
100
AcDbPolyline
 62
7
  6
CONTINUOUS
 90
3
 70
0
 10
-127.35175002
 20
32.8049375477
 10
-127.3522401815
 20
32.8028034222
 10
-127.425211928
 20
32.480524506
  0
LWPOLYLINE
  5
62D
100
AcDbEntity
  8
COPY_PABLISH
100
AcDbPolyline
 62
7
  6
CONTINUOUS
 90
14
 70
0
 10
-126.8646393209
 20
34.7714617311
 10
-126.9725923146
 20
34.3709353599
 10
-127.0768166155
 20
33.9670973294
 10
-127.1771008679
 20
33.5609679729
 10
-127.272811005
 20
33.1556082905
 10
-127.3638461581
 20
32.7512028801
 10
-127.4503071958
 20
32.3475671438
 10
-127.5318626579
 20
31.9472082878
 10
-127.6083588028
 20
31.5504001135
 10
-127.679949372
 20
31.1568688195
 10
-127.7467641296
 20
30.7683002076
 10
-127.80884633
 20
30.3852562116
 10
-127.8661527187
 20
30.0071748976
 10
-127.9186832957
 20
29.6340562657
  0
LINE
  5
62E
100
AcDbEntity
  8
COPY_PABLISH
100
AcDbLine
 62
7
  6
CONTINUOUS
 10
-126.7527462787
 20
35.1696967762
 11
-126.8646393209
 21
34.7714617311
  0
LINE
  5
62F
100
AcDbEntity
  8
COPY_PABLISH
100
AcDbLine
 62
7
  6
CONTINUOUS
 10
-126.636913188
 20
35.5656404954
 11
-126.7527462787
 21
35.1696967762
  0
LWPOLYLINE
  5
630
100
AcDbEntity
  8
COPY_PABLISH
100
AcDbPolyline
 62
250
  6
CONTINUOUS
 90
13
 70
0
 10
-126.544505877
 20
35.5188576234
 10
-126.4773196275
 20
35.7226304801
 10
-126.3887133269
 20
35.9180225161
 10
-126.2797070399
 20
36.1027843154
 10
-126.1515556823
 20
36.2747888405
 10
-126.005734574
 20
36.43205592
 10
-125.8439224549
 20
36.5727750446
 10
-125.6679821587
 20
36.6953262104
 10
-125.479939167
 20
36.7982985688
 10
-125.2819582916
 20
36.8805066689
 10
-125.0763187524
 20
36.9410041045
 10
-124.8653879385
 20
36.9790944097
 10
-124.6515941536
 20
36.9943390766
  0
LWPOLYLINE
  5
631
100
AcDbEntity
  8
0
100
AcDbPolyline
 62
250
  6
CONTINUOUS
 90
4
 70
0
 10
-126.6227786161
 20
-43.9613675484
 10
-126.6277326688
 20
-43.9625225792
 10
-126.6340626131
 20
-43.9648345054
 10
-126.6411949464
 20
-43.9678491446
  0
LINE
  5
632
100
AcDbEntity
  8
0
100
AcDbLine
 62
250
  6
CONTINUOUS
 10
-67.6700117797
 20
-34.2425458714
 11
-69.6159942161
 21
-34.2628262613
  0
LWPOLYLINE
  5
633
100
AcDbEntity
  8
0
100
AcDbPolyline
 62
250
  6
CONTINUOUS
 90
3
 70
0
 10
-69.6159942161
 20
-34.2628262613
 10
-71.5810273757
 20
-34.2810811801
 10
-72.0752475017
 20
-34.2853396703
  0
LINE
  5
634
100
AcDbEntity
  8
RACCORDO
100
AcDbLine
 62
7
  6
CONTINUOUS
 10
-116.3892094268
 20
-36.3580079665
 11
-116.1892094268
 21
-36.3649921204
  0
LINE
  5
635
100
AcDbEntity
  8
RACCORDO
100
AcDbLine
 62
250
  6
CONTINUOUS
 10
-116.3892094268
 20
-35.7725783742
 11
-116.1892094268
 21
-35.7795625281
  0
LWPOLYLINE
  5
636
100
AcDbEntity
  8
0
100
AcDbPolyline
 62
250
  6
CONTINUOUS
 90
7
 70
0
 10
-126.8108486364
 20
-44.1245291614
 10
-126.7694288102
 20
-44.3269849547
 10
-126.7132666151
 20
-44.5188153403
 10
-126.6423107202
 20
-44.6984642854
 10
-126.5575569106
 20
-44.8614808543
 10
-126.461864313
 20
-45.0019531897
 10
-126.3574819781
 20
-45.1172316605
  0
LWPOLYLINE
  5
637
100
AcDbEntity
  8
0
100
AcDbPolyline
 62
7
  6
CONTINUOUS
 90
13
 70
0
 10
-128.2010604985
 20
-36.0228799151
 10
-128.1224551801
 20
-36.7653207657
 10
-128.0324092218
 20
-37.488748705
 10
-127.9314778788
 20
-38.1955491677
 10
-127.8196107923
 20
-38.890563303
 10
-127.696730639
 20
-39.5772652488
 10
-127.5640487544
 20
-40.2521983112
 10
-127.4234728342
 20
-40.9098143173
 10
-127.2756876578
 20
-41.5511304332
 10
-127.121756043
 20
-42.1752886167
 10
-126.9646279123
 20
-42.7740561132
 10
-126.8057735553
 20
-43.3447458262
 10
-126.63784698
 20
-43.9142987355
  0
LINE
  5
638
100
AcDbEntity
  8
0
100
AcDbLine
 62
7
  6
CONTINUOUS
 10
-128.2671022706
 20
-35.2638234311
 11
-128.2010604985
 21
-36.0228799151
  0
LWPOLYLINE
  5
639
100
AcDbEntity
  8
0
100
AcDbPolyline
 62
250
  6
CONTINUOUS
 90
10
 70
0
 10
-128.3948843589
 20
-36.0424158429
 10
-128.3348993112
 20
-36.7696597332
 10
-128.2543012671
 20
-37.5492278292
 10
-128.1540248443
 20
-38.3550111303
 10
-128.0323884918
 20
-39.1944216547
 10
-127.8863164938
 20
-40.0785742661
 10
-127.7153507807
 20
-41.0058247924
 10
-127.5206890035
 20
-41.9515664455
 10
-127.3030769102
 20
-42.8957648231
 10
-127.0652858392
 20
-43.826126873
  0
LWPOLYLINE
  5
63A
100
AcDbEntity
  8
0
100
AcDbPolyline
 62
250
  6
CONTINUOUS
 90
10
 70
0
 10
-127.0652858392
 20
-43.826126873
 10
-127.0500877028
 20
-44.0302646238
 10
-127.0198810371
 20
-44.2288235865
 10
-126.9748427016
 20
-44.4194702717
 10
-126.9150149758
 20
-44.6003104152
 10
-126.840986375
 20
-44.7677387311
 10
-126.7543703022
 20
-44.9171148172
 10
-126.6566141743
 20
-45.0454396162
 10
-126.5485299638
 20
-45.1506655333
 10
-126.4312995685
 20
-45.2300376837
  0
LWPOLYLINE
  5
63B
100
AcDbEntity
  8
0
100
AcDbPolyline
 62
250
  6
CONTINUOUS
 90
16
 70
0
 10
-128.3948843589
 20
-36.0424158429
 10
-128.4326626552
 20
-35.4521146214
 10
-128.459232767
 20
-34.9154807879
 10
-128.4771941269
 20
-34.438261477
 10
-128.4912043688
 20
-34.0250363311
 10
-128.5039378836
 20
-33.7001802537
 10
-128.5174778464
 20
-33.4611754101
 10
-128.5314818191
 20
-33.2967706475
 10
-128.5461512611
 20
-33.1991413986
 10
-128.5616254505
 20
-33.1571199165
 10
-128.5766405255
 20
-33.1526683747
 10
-128.5898645063
 20
-33.1672343171
 10
-128.6000464917
 20
-33.1835495775
 10
-128.6068680979
 20
-33.1938806049
 10
-128.6108202593
 20
-33.1991743136
 10
-128.6121207327
 20
-33.2006618036
  0
LWPOLYLINE
  5
63C
100
AcDbEntity
  8
0
100
AcDbPolyline
 62
7
  6
CONTINUOUS
 90
3
 70
0
 10
-128.3848422099
 20
-32.6884432541
 10
-128.3840955583
 20
-32.7389721984
 10
-128.381243011
 20
-32.9028269025
  0
LINE
  5
63D
100
AcDbEntity
  8
0
100
AcDbLine
 62
7
  6
CONTINUOUS
 10
-129.1853738097
 20
-29.6522607844
 11
-129.1850561548
 21
-29.6742716094
  0
LINE
  5
63E
100
AcDbEntity
  8
0
100
AcDbLine
 62
7
  6
CONTINUOUS
 10
-129.1879265994
 20
-29.130878436
 11
-129.1853738097
 21
-29.6522607844
  0
LINE
  5
63F
100
AcDbEntity
  8
0
100
AcDbLine
 62
7
  6
CONTINUOUS
 10
-129.1854971854
 20
18.4378553612
 11
-129.1851776208
 21
18.0340439654
  0
LINE
  5
640
100
AcDbEntity
  8
RACCORDO
100
AcDbLine
 62
7
  6
CONTINUOUS
 10
-130.1892094268
 20
-27.1659440063
 11
-130.1892094268
 21
18.8340565355
  0
LINE
  5
641
100
AcDbEntity
  8
0
100
AcDbLine
 62
7
  6
CONTINUOUS
 10
-129.1892105335
 20
-26.3659445907
 11
-129.1892105335
 21
18.0340425558
  0
LINE
  5
642
100
AcDbEntity
  8
RACCORDO
100
AcDbLine
 62
250
  6
CONTINUOUS
 10
-129.1892094268
 20
-28.1659442784
 11
-129.1892094268
 21
-26.3645436762
  0
LINE
  5
643
100
AcDbEntity
  8
RACCORDO
100
AcDbLine
 62
250
  6
CONTINUOUS
 10
-129.1892094268
 20
18.0326519506
 11
-129.1892094268
 21
19.8340568053
  0
LINE
  5
644
100
AcDbEntity
  8
0
100
AcDbLine
 62
250
  6
CONTINUOUS
 10
-128.9892137761
 20
-30.265938573
 11
-128.9892131931
 21
21.9340504288
  0
LINE
  5
645
100
AcDbEntity
  8
0
100
AcDbLine
 62
7
  6
CONTINUOUS
 10
-129.1883511199
 20
20.6300507735
 11
-129.1854971854
 21
18.4378553612
  0
LINE
  5
646
100
AcDbEntity
  8
0
100
AcDbLine
 62
7
  6
CONTINUOUS
 10
-129.1851769376
 20
-26.3659445939
 11
-129.186789514
 21
-27.5979803941
  0
LINE
  5
647
100
AcDbEntity
  8
0
100
AcDbLine
 62
7
  6
CONTINUOUS
 10
-129.186789514
 20
-27.5979803941
 11
-129.1879265994
 21
-29.130878436
  0
LINE
  5
648
100
AcDbEntity
  8
0
100
AcDbLine
 62
7
  6
CONTINUOUS
 10
-129.1857848424
 20
21.2679476572
 11
-129.1883511199
 21
20.6300507735
  0
LWPOLYLINE
  5
649
100
AcDbEntity
  8
0
100
AcDbPolyline
 62
7
  6
CONTINUOUS
 90
3
 70
0
 10
-129.1850638344
 20
21.3422782405
 10
-129.1853789789
 20
21.32042497
 10
-129.1857848424
 20
21.2679476572
  0
LINE
  5
64A
100
AcDbEntity
  8
0
100
AcDbLine
 62
7
  6
CONTINUOUS
 10
-128.3826439075
 20
24.7398576721
 11
-128.3866102113
 21
24.5523558447
  0
LINE
  5
64B
100
AcDbEntity
  8
0
100
AcDbLine
 62
7
  6
CONTINUOUS
 10
-128.3782597218
 20
24.9064726536
 11
-128.3826439075
 21
24.7398576721
  0
LINE
  5
64C
100
AcDbEntity
  8
0
100
AcDbLine
 62
7
  6
CONTINUOUS
 10
-128.3733694536
 20
25.0638939845
 11
-128.3782597218
 21
24.9064726536
  0
LINE
  5
64D
100
AcDbEntity
  8
0
100
AcDbLine
 62
7
  6
CONTINUOUS
 10
-128.3679164719
 20
25.2169471134
 11
-128.3733694536
 21
25.0638939845
  0
LINE
  5
64E
100
AcDbEntity
  8
0
100
AcDbLine
 62
7
  6
CONTINUOUS
 10
-128.3619335508
 20
25.3662437655
 11
-128.3679164719
 21
25.2169471134
  0
LINE
  5
64F
100
AcDbEntity
  8
0
100
AcDbLine
 62
7
  6
CONTINUOUS
 10
-128.3537582172
 20
25.5481553371
 11
-128.3619335508
 21
25.3662437655
  0
LINE
  5
650
100
AcDbEntity
  8
0
100
AcDbLine
 62
7
  6
CONTINUOUS
 10
-128.3448598639
 20
25.7253755869
 11
-128.3537582172
 21
25.5481553371
  0
LINE
  5
651
100
AcDbEntity
  8
0
100
AcDbLine
 62
7
  6
CONTINUOUS
 10
-128.3352844077
 20
25.8984099641
 11
-128.3448598639
 21
25.7253755869
  0
LINE
  5
652
100
AcDbEntity
  8
0
100
AcDbLine
 62
7
  6
CONTINUOUS
 10
-128.3250702477
 20
26.0676948468
 11
-128.3352844077
 21
25.8984099641
  0
LINE
  5
653
100
AcDbEntity
  8
0
100
AcDbLine
 62
7
  6
CONTINUOUS
 10
-128.3142493276
 20
26.2336131739
 11
-128.3250702477
 21
26.0676948468
  0
LWPOLYLINE
  5
654
100
AcDbEntity
  8
DRAFT
100
AcDbPolyline
 62
7
  6
CONTINUOUS
 90
22
 70
0
 10
-126.7547099474
 20
31.3340562657
 10
-126.7707056256
 20
31.1050212996
 10
-126.7894534017
 20
30.879596108
 10
-126.8109532758
 20
30.6586771283
 10
-126.8348787637
 20
30.4456498984
 10
-126.8615563496
 20
30.2386083683
 10
-126.8919654858
 20
30.0308207101
 10
-126.9260539231
 20
29.8228653998
 10
-126.9638739108
 20
29.6166603131
 10
-127.0065616495
 20
29.4086152516
 10
-127.0548497687
 20
29.1989510747
 10
-127.1080056389
 20
28.9924717927
 10
-127.1649675719
 20
28.7932158528
 10
-127.226612496
 20
28.602914359
 10
-127.2920634831
 20
28.426048325
 10
-127.3576280599
 20
28.2693776217
 10
-127.4234395407
 20
28.1344277596
 10
-127.4893646113
 20
28.0231201993
 10
-127.5513108563
 20
27.9390396856
 10
-127.6084287825
 20
27.8815370818
 10
-127.661567883
 20
27.8489743381
 10
-127.7031154778
 20
27.8399487556
  0
LINE
  5
655
100
AcDbEntity
  8
0
100
AcDbLine
 62
7
  6
CONTINUOUS
 10
-128.3028466319
 20
26.3965241996
 11
-128.3142493276
 21
26.2336131739
  0
LINE
  5
656
100
AcDbEntity
  8
0
100
AcDbLine
 62
7
  6
CONTINUOUS
 10
-128.2908831516
 20
26.5567363504
 11
-128.3028466319
 21
26.3965241996
  0
LINE
  5
657
100
AcDbEntity
  8
0
100
AcDbLine
 62
7
  6
CONTINUOUS
 10
-128.2558129623
 20
26.9986104557
 11
-128.2732253744
 21
26.7769841914
  0
LINE
  5
658
100
AcDbEntity
  8
0
100
AcDbLine
 62
7
  6
CONTINUOUS
 10
-128.2783121441
 20
26.7153065775
 11
-128.2908831516
 21
26.5567363504
  0
LINE
  5
659
100
AcDbEntity
  8
0
100
AcDbLine
 62
7
  6
CONTINUOUS
 10
-128.2645611248
 20
26.8791594727
 11
-128.2783121441
 21
26.7153065775
  0
LINE
  5
65A
100
AcDbEntity
  8
0
100
AcDbLine
 62
7
  6
CONTINUOUS
 10
-128.277447529
 20
26.7157461867
 11
-128.2246786171
 21
27.329554352
  0
LINE
  5
65B
100
AcDbEntity
  8
0
100
AcDbLine
 62
7
  6
CONTINUOUS
 10
-128.226969955
 20
27.3340672657
 11
-128.2344666077
 21
27.2499706046
  0
LINE
  5
65C
100
AcDbEntity
  8
0
100
AcDbLine
 62
7
  6
CONTINUOUS
 10
-128.2494229849
 20
27.0497660244
 11
-128.2645611248
 21
26.8791594727
  0
LWPOLYLINE
  5
65D
100
AcDbEntity
  8
DRAFT
100
AcDbPolyline
 62
7
  6
CONTINUOUS
 90
9
 70
0
 10
-127.8745689388
 20
29.4194829362
 10
-127.8578575907
 20
29.6036087769
 10
-127.8370071177
 20
29.8032981805
 10
-127.8119854948
 20
30.0192863459
 10
-127.7828247471
 20
30.2507488839
 10
-127.748667523
 20
30.4986849353
 10
-127.7092280388
 20
30.7629027341
 10
-127.6647920782
 20
31.0418588586
 10
-127.6153596413
 20
31.3340562657
  0
LWPOLYLINE
  5
65E
100
AcDbEntity
  8
0
100
AcDbPolyline
 62
7
  6
CONTINUOUS
 90
4
 70
0
 10
-128.227363977
 20
27.3293471172
 10
-128.2293258171
 20
27.3086450073
 10
-128.2634210851
 20
26.9048886973
 10
-128.270455068
 20
26.810037487
  0
LINE
  5
65F
100
AcDbEntity
  8
0
100
AcDbLine
 62
7
  6
CONTINUOUS
 10
-128.2325648895
 20
27.2295732286
 11
-128.2494229849
 21
27.0497660244
  0
LWPOLYLINE
  5
660
100
AcDbEntity
  8
0
100
AcDbPolyline
 62
7
  6
CONTINUOUS
 90
4
 70
0
 10
-128.1989295636
 20
27.9246149062
 10
-128.218059523
 20
27.7287318805
 10
-128.2363821936
 20
27.531889667
 10
-128.2538975751
 20
27.3340882657
  0
LINE
  5
661
100
AcDbEntity
  8
0
100
AcDbLine
 62
7
  6
CONTINUOUS
 10
-128.2133804118
 20
27.4232099083
 11
-128.2325648895
 21
27.2295732286
  0
LINE
  5
662
100
AcDbEntity
  8
0
100
AcDbLine
 62
7
  6
CONTINUOUS
 10
-128.1988979242
 20
27.5626929292
 11
-128.2133804118
 21
27.4232099083
  0
LWPOLYLINE
  5
663
100
AcDbEntity
  8
0
100
AcDbPolyline
 62
7
  6
CONTINUOUS
 90
3
 70
0
 10
-128.1582458653
 20
28.3135114071
 10
-128.1789913589
 20
28.1195427505
 10
-128.1989295636
 20
27.9246149062
  0
LWPOLYLINE
  5
664
100
AcDbEntity
  8
RACCORDO
100
AcDbPolyline
 62
7
  6
CONTINUOUS
 90
4
 70
0
 10
-126.3222828271
 20
26.7911630469
 10
-126.3154773052
 20
26.8540963589
 10
-126.3133505724
 20
26.9219812083
 10
-126.3140125421
 20
26.9407570117
  0
LWPOLYLINE
  5
665
100
AcDbEntity
  8
0
100
AcDbPolyline
 62
7
  6
CONTINUOUS
 90
3
 70
0
 10
-128.1143425741
 20
28.6985310929
 10
-128.1366959516
 20
28.5065088567
 10
-128.1582458653
 20
28.3135114071
  0
LWPOLYLINE
  5
666
100
AcDbEntity
  8
0
100
AcDbPolyline
 62
7
  6
CONTINUOUS
 90
4
 70
0
 10
-128.1526589266
 20
27.9720156256
 10
-128.1646189335
 20
27.8725693175
 10
-128.1766306081
 20
27.7678726564
 10
-128.1988979242
 20
27.5626929292
  0
LWPOLYLINE
  5
667
100
AcDbEntity
  8
0
100
AcDbPolyline
 62
7
  6
CONTINUOUS
 90
3
 70
0
 10
-128.0672225588
 20
29.0796619445
 10
-128.0911847765
 20
28.8895821222
 10
-128.1143425741
 20
28.6985310929
  0
LWPOLYLINE
  5
668
100
AcDbEntity
  8
RACCORDO
100
AcDbPolyline
 62
7
  6
CONTINUOUS
 90
3
 70
0
 10
-126.3222828271
 20
26.7911630469
 10
-126.3353711343
 20
26.688207201
 10
-126.3354234023
 20
26.6875328361
  0
LWPOLYLINE
  5
669
100
AcDbEntity
  8
COPY_PABLISH
100
AcDbPolyline
 62
7
  6
CONTINUOUS
 90
28
 70
0
 10
-127.9186832957
 20
29.6340562657
 10
-127.9376288539
 20
29.4940584161
 10
-127.9558309756
 20
29.3532193691
 10
-127.9732896609
 20
29.2120077377
 10
-127.9901070722
 20
29.070597077
 10
-128.0061810471
 20
28.9298255543
 10
-128.0212050985
 20
28.7911464878
 10
-128.0351339021
 20
28.6551195577
 10
-128.0480127822
 20
28.5221552648
 10
-128.0596712252
 20
28.3933796384
 10
-128.0700715462
 20
28.2692234854
 10
-128.07925143
 20
28.150038464
 10
-128.0871534182
 20
28.0366804667
 10
-128.0937464457
 20
27.9297442088
 10
-128.0990615774
 20
27.8290880267
 10
-128.1031345501
 20
27.7344362422
 10
-128.1059839265
 20
27.6460645932
 10
-128.1075911439
 20
27.5641832325
 10
-128.1079362505
 20
27.4885807187
 10
-128.1070547312
 20
27.4196933484
 10
-128.1049111011
 20
27.3576488027
 10
-128.1013789535
 20
27.302113683
 10
-128.0964949843
 20
27.2535845243
 10
-128.0902224976
 20
27.2126085372
 10
-128.0823249982
 20
27.1794186412
 10
-128.0727236544
 20
27.154705659
 10
-128.0614972979
 20
27.1393390333
 10
-128.0486459287
 20
27.1340562657
  0
LINE
  5
66A
100
AcDbEntity
  8
0
100
AcDbLine
 62
7
  6
CONTINUOUS
 10
-128.0145940609
 20
29.4580823745
 11
-128.0672225588
 21
29.0796619445
  0
LINE
  5
66B
100
AcDbEntity
  8
0
100
AcDbLine
 62
7
  6
CONTINUOUS
 10
-127.9741707737
 20
29.3863530337
 11
-127.9511842535
 21
29.5489880082
  0
LINE
  5
66C
100
AcDbEntity
  8
0
100
AcDbLine
 62
7
  6
CONTINUOUS
 10
-127.9776675693
 20
29.7139013307
 11
-128.0145940609
 21
29.4580823745
  0
LINE
  5
66D
100
AcDbEntity
  8
0
100
AcDbLine
 62
7
  6
CONTINUOUS
 10
-127.9511842535
 20
29.5489880082
 11
-127.9127115028
 21
29.8115590957
  0
LINE
  5
66E
100
AcDbEntity
  8
0
100
AcDbLine
 62
7
  6
CONTINUOUS
 10
-127.9509330791
 20
29.893516116
 11
-127.9776675693
 21
29.7139013307
  0
LINE
  5
66F
100
AcDbEntity
  8
0
100
AcDbLine
 62
7
  6
CONTINUOUS
 10
-127.9206578498
 20
30.0909234801
 11
-127.9509330791
 21
29.893516116
  0
LINE
  5
670
100
AcDbEntity
  8
0
100
AcDbLine
 62
7
  6
CONTINUOUS
 10
-127.9127115028
 20
29.8115590957
 11
-127.8674683712
 21
30.1074594794
  0
LINE
  5
671
100
AcDbEntity
  8
0
100
AcDbLine
 62
7
  6
CONTINUOUS
 10
-127.8863076691
 20
30.3083995197
 11
-127.9206578498
 21
30.0909234801
  0
LINE
  5
672
100
AcDbEntity
  8
0
100
AcDbLine
 62
7
  6
CONTINUOUS
 10
-127.8674683712
 20
30.1074594794
 11
-127.8316802411
 21
30.3331368652
  0
LINE
  5
673
100
AcDbEntity
  8
ASSI
100
AcDbLine
 62
7
  6
CONTINUOUS
 10
-127.9226159117
 20
29.6340562657
 11
-127.8891868498
 21
29.8435661205
  0
LINE
  5
674
100
AcDbEntity
  8
0
100
AcDbLine
 62
7
  6
CONTINUOUS
 10
-127.8472838579
 20
30.5463118981
 11
-127.8863076691
 21
30.3083995197
  0
LINE
  5
675
100
AcDbEntity
  8
0
100
AcDbLine
 62
7
  6
CONTINUOUS
 10
-127.8316802411
 20
30.3331368652
 11
-127.7918681187
 21
30.5746450985
  0
LINE
  5
676
100
AcDbEntity
  8
0
100
AcDbLine
 62
7
  6
CONTINUOUS
 10
-127.8066226397
 20
30.7874157022
 11
-127.8472838579
 21
30.5463118981
  0
LINE
  5
677
100
AcDbEntity
  8
0
100
AcDbLine
 62
7
  6
CONTINUOUS
 10
-127.7918681187
 20
30.5746450985
 11
-127.7511254836
 21
30.8149223854
  0
LWPOLYLINE
  5
678
100
AcDbEntity
  8
0
100
AcDbPolyline
 62
7
  6
CONTINUOUS
 90
3
 70
0
 10
-127.7511254836
 20
30.8149223854
 10
-127.7111572905
 20
31.0415663539
 10
-127.6922948889
 20
31.146864214
  0
LWPOLYLINE
  5
679
100
AcDbEntity
  8
0
100
AcDbPolyline
 62
7
  6
CONTINUOUS
 90
13
 70
0
 43
0.3500000006
 10
-142.1404222412
 20
-5.9873718567
 10
-142.3547067261
 20
-6.2730863914
 10
-142.9975601807
 20
-6.2730863914
 10
-143.4261291504
 20
-5.9873718567
 10
-143.4261291504
 20
-5.3445150032
 10
-142.9975601807
 20
-5.0588004684
 10
-142.3547067261
 20
-5.0588004684
 10
-142.1404222412
 20
-5.3445150032
 10
-141.7118442078
 20
-4.9159437675
 10
-140.8547062683
 20
-4.9159437675
 10
-140.4261372986
 20
-5.3445150032
 10
-140.4261372986
 20
-5.9873718567
 10
-140.8547062683
 20
-6.4159442253
  0
LINE
  5
67A
100
AcDbEntity
  8
0
100
AcDbLine
 62
7
  6
CONTINUOUS
 10
-66.8635246346
 20
-33.5659437343
 11
-72.0892094205
 21
-33.5659437343
  0
LINE
  5
67B
100
AcDbEntity
  8
0
100
AcDbLine
 62
250
  6
CONTINUOUS
 10
-73.1030976898
 20
-33.2659437343
 11
-72.3892094268
 21
-33.2659437343
  0
LINE
  5
67C
100
AcDbEntity
  8
0
100
AcDbLine
 62
250
  6
CONTINUOUS
 10
-126.6128119974
 20
-31.2412574003
 11
-124.7615368774
 21
-31.2421549843
  0
LINE
  5
67D
100
AcDbEntity
  8
RACCORDO
100
AcDbLine
 62
250
  6
CONTINUOUS
 10
-116.3892094268
 20
-30.8309289365
 11
-116.1892094268
 21
-30.8338218678
  0
LWPOLYLINE
  5
67E
100
AcDbEntity
  8
0
100
AcDbPolyline
 62
250
  6
CONTINUOUS
 90
22
 70
0
 10
-72.0752475017
 20
-34.2853396703
 10
-72.1503215055
 20
-34.2833355306
 10
-72.2247473334
 20
-34.2757263289
 10
-72.2985249854
 20
-34.2625120651
 10
-72.3721605029
 20
-34.2436275826
 10
-72.4451478445
 20
-34.2191380379
 10
-72.515968886
 20
-34.1892389013
 10
-72.5845906072
 20
-34.1537601435
 10
-72.6510460282
 20
-34.1128717937
 10
-72.7139160855
 20
-34.0672794093
 10
-72.7730887334
 20
-34.0168615406
 10
-72.8286760175
 20
-33.9617396373
 10
-72.8795950108
 20
-33.9029836063
 10
-72.9257264625
 20
-33.8404762682
 10
-72.9671896235
 20
-33.7743348023
 10
-73.0032593201
 20
-33.7059806543
 10
-73.033762965
 20
-33.6353798096
 10
-73.0588731455
 20
-33.5625662826
 10
-73.0783824495
 20
-33.4890635627
 10
-73.0922217395
 20
-33.4153794795
 10
-73.1004601529
 20
-33.3410062034
 10
-73.1030976898
 20
-33.2659437343
  0
LWPOLYLINE
  5
67F
100
AcDbEntity
  8
0
100
AcDbPolyline
 62
7
  6
CONTINUOUS
 90
13
 70
0
 10
-72.0892094205
 20
-33.5659437343
 10
-72.1293523706
 20
-33.5630460129
 10
-72.1675799313
 20
-33.5554495917
 10
-72.2038921024
 20
-33.5431544709
 10
-72.2388490328
 20
-33.5257931775
 10
-72.2718905737
 20
-33.5037331843
 10
-72.301336279
 20
-33.4780769103
 10
-72.3269936903
 20
-33.4486317719
 10
-72.349055266
 20
-33.4155903525
 10
-72.3664179347
 20
-33.3806328216
 10
-72.3787140058
 20
-33.3443192354
 10
-72.3863111699
 20
-33.3060895376
 10
-72.3892094268
 20
-33.2659437282
  0
LINE
  5
680
100
AcDbEntity
  8
0
100
AcDbLine
 62
250
  6
CONTINUOUS
 10
-126.8371669242
 20
-43.9139654233
 11
-126.8108486364
 21
-44.1245291614
  0
LWPOLYLINE
  5
681
100
AcDbEntity
  8
0
100
AcDbPolyline
 62
250
  6
CONTINUOUS
 90
5
 70
0
 10
-124.6638689865
 20
-39.6659423473
 10
-124.6491930419
 20
-39.8305730926
 10
-124.6381860865
 20
-39.9950823743
 10
-124.6308481201
 20
-40.1593253659
 10
-124.6284021393
 20
-40.3231541093
  0
LINE
  5
682
100
AcDbEntity
  8
COPY_PABLISH
100
AcDbLine
 62
250
  6
CONTINUOUS
 10
-126.527887677
 20
33.0323621959
 11
-126.5413188267
 21
33.5192911532
  0
LWPOLYLINE
  5
683
100
AcDbEntity
  8
COPY_PABLISH
100
AcDbPolyline
 62
250
  6
CONTINUOUS
 90
8
 70
0
 10
-126.5413188267
 20
33.5192911532
 10
-126.5504651226
 20
33.9839863678
 10
-126.5526293562
 20
34.1982900908
 10
-126.5521242248
 20
34.4011811985
 10
-126.5496629445
 20
34.5923013988
 10
-126.5462870282
 20
34.7647649174
 10
-126.5416660272
 20
34.9214908054
 10
-126.5317029224
 20
35.1851014056
  0
LWPOLYLINE
  5
684
100
AcDbEntity
  8
DRAFT
100
AcDbPolyline
 62
7
  6
CONTINUOUS
 90
3
 70
0
 10
-128.1459944957
 20
27.2226368539
 10
-128.1468732766
 20
27.3073680741
 10
-128.1463323987
 20
27.4006334386
  0
LINE
  5
685
100
AcDbEntity
  8
0
100
AcDbLine
 62
7
  6
CONTINUOUS
 10
-128.3872558566
 20
-32.4808178282
 11
-128.3848422099
 21
-32.6884432541
  0
LWPOLYLINE
  5
686
100
AcDbEntity
  8
0
100
AcDbPolyline
 62
7
  6
CONTINUOUS
 90
5
 70
0
 10
-128.3889514779
 20
-32.0882286137
 10
-128.3812418148
 20
-32.9029533135
 10
-128.3578901447
 20
-33.7037516854
 10
-128.3196243619
 20
-34.4904920843
 10
-128.2671022706
 20
-35.2638234311
  0
LWPOLYLINE
  5
687
100
AcDbEntity
  8
0
100
AcDbPolyline
 62
250
  6
CONTINUOUS
 90
10
 70
0
 10
-128.2239432842
 20
-35.7734913356
 10
-128.223679151
 20
-35.8032292206
 10
-128.228328472
 20
-35.833293738
 10
-128.237884489
 20
-35.8635847591
 10
-128.2523827336
 20
-35.8940792101
 10
-128.2717950296
 20
-35.9245917926
 10
-128.295905315
 20
-35.9547790131
 10
-128.3245120799
 20
-35.9844611805
 10
-128.3575525085
 20
-36.0136183188
 10
-128.3949094268
 20
-36.0421537343
  0
LWPOLYLINE
  5
688
100
AcDbEntity
  8
0
100
AcDbPolyline
 62
250
  6
CONTINUOUS
 90
8
 70
0
 10
-126.6064521336
 20
-36.3381084059
 10
-126.602731242
 20
-36.7961822862
 10
-126.5982310601
 20
-37.2272974314
 10
-126.5924522336
 20
-37.6482532661
 10
-126.5832475331
 20
-38.1038151516
 10
-126.5698807044
 20
-38.6032946192
 10
-126.5530350773
 20
-39.1257814292
 10
-126.5326721276
 20
-39.6655225238
  0
LINE
  5
689
100
AcDbEntity
  8
0
100
AcDbLine
 62
250
  6
CONTINUOUS
 10
-126.6107134152
 20
-35.3870689631
 11
-126.6064521336
 21
-36.3381084059
  0
LINE
  5
68A
100
AcDbEntity
  8
0
100
AcDbLine
 62
7
  6
CONTINUOUS
 10
-128.3877051662
 20
-32.4283279281
 11
-128.3888778103
 21
-32.1862823993
  0
LINE
  5
68B
100
AcDbEntity
  8
0
100
AcDbLine
 62
250
  6
CONTINUOUS
 10
-126.5804801644
 20
13.2831291004
 11
-126.5945895263
 21
17.4155640568
  0
LINE
  5
68C
100
AcDbEntity
  8
0
100
AcDbLine
 62
250
  6
CONTINUOUS
 10
-126.5945895263
 20
17.4155640568
 11
-126.6129932075
 21
22.3085034451
  0
LINE
  5
68D
100
AcDbEntity
  8
DRAFT
100
AcDbLine
 62
250
  6
CONTINUOUS
 10
-126.6224627364
 20
24.8458754395
 11
-126.6129932075
 21
22.3085034451
  0
LINE
  5
68E
100
AcDbEntity
  8
0
100
AcDbLine
 62
7
  6
CONTINUOUS
 10
-128.3889946539
 20
-32.1456440399
 11
-128.3888609594
 21
-32.2080312784
  0
LINE
  5
68F
100
AcDbEntity
  8
0
100
AcDbLine
 62
7
  6
CONTINUOUS
 10
-128.3890399219
 20
-32.1136391925
 11
-128.3889946539
 21
-32.1456440399
  0
LINE
  5
690
100
AcDbEntity
  8
0
100
AcDbLine
 62
250
  6
CONTINUOUS
 10
-126.5814563351
 20
13.2831282184
 11
-126.5628078529
 21
-4.1659437787
  0
LINE
  5
691
100
AcDbEntity
  8
0
100
AcDbLine
 62
7
  6
CONTINUOUS
 10
-128.3890818033
 20
-32.0743761647
 11
-128.3890399219
 21
-32.1136391925
  0
LINE
  5
692
100
AcDbEntity
  8
0
100
AcDbLine
 62
250
  6
CONTINUOUS
 10
-126.6134830234
 20
-33.0431593019
 11
-126.6107134152
 21
-35.3870689631
  0
LINE
  5
693
100
AcDbEntity
  8
0
100
AcDbLine
 62
7
  6
CONTINUOUS
 10
-128.389211931
 20
-26.3658489776
 11
-128.389211931
 21
-32.0659461496
  0
LINE
  5
694
100
AcDbEntity
  8
0
100
AcDbLine
 62
7
  6
CONTINUOUS
 10
-128.3895566241
 20
18.809398076
 11
-128.3892094257
 21
-26.3658489765
  0
LINE
  5
695
100
AcDbEntity
  8
0
100
AcDbLine
 62
250
  6
CONTINUOUS
 10
-126.6123386172
 20
-31.2412582153
 11
-126.6134830234
 21
-33.0431593019
  0
LINE
  5
696
100
AcDbEntity
  8
0
100
AcDbLine
 62
7
  6
CONTINUOUS
 10
-128.3892137452
 20
-31.6776848545
 11
-128.3894604731
 21
-31.9520262419
  0
LWPOLYLINE
  5
697
100
AcDbEntity
  8
DRAFT
100
AcDbPolyline
 62
250
  6
CONTINUOUS
 90
4
 70
0
 10
-126.62169674
 20
26.8340562657
 10
-126.6234285533
 20
26.3603778963
 10
-126.6239640668
 20
25.8665840092
 10
-126.6224627364
 20
24.8458754395
  0
LINE
  5
698
100
AcDbEntity
  8
DRAFT
100
AcDbLine
 62
7
  6
CONTINUOUS
 10
-126.7046214537
 20
33.7265856264
 11
-126.7063640073
 21
33.2431681554
  0
LWPOLYLINE
  5
699
100
AcDbEntity
  8
0
100
AcDbPolyline
 62
250
  6
CONTINUOUS
 90
10
 70
0
 10
-126.6123386172
 20
-31.2412582153
 10
-126.6018622882
 20
-28.7199480191
 10
-126.5924069595
 20
-25.9933566598
 10
-126.5840353324
 20
-23.0936731633
 10
-126.5767927446
 20
-20.0953756535
 10
-126.5707888404
 20
-17.0185665928
 10
-126.5662227098
 20
-13.8223685601
 10
-126.5632673524
 20
-10.5389354976
 10
-126.5620454792
 20
-7.2823273373
 10
-126.5627539703
 20
-4.1659437405
  0
LWPOLYLINE
  5
69A
100
AcDbEntity
  8
COPY_PABLISH
100
AcDbPolyline
 62
250
  6
CONTINUOUS
 90
10
 70
0
 10
-126.6117061306
 20
27.1114913358
 10
-126.6088343746
 20
27.619122352
 10
-126.6045684945
 20
28.1210602245
 10
-126.5989058317
 20
28.6165630823
 10
-126.592078291
 20
29.1041481931
 10
-126.5838450208
 20
29.583792262
 10
-126.5734886364
 20
30.0569818604
 10
-126.5607580599
 20
30.5237491557
 10
-126.5458721947
 20
30.9826225617
 10
-126.5216002698
 20
31.6363378948
  0
LINE
  5
69B
100
AcDbEntity
  8
0
100
AcDbLine
 62
7
  6
CONTINUOUS
 10
-128.3920155147
 20
24.1203749098
 11
-128.3895566241
 21
18.809398076
  0
LWPOLYLINE
  5
69C
100
AcDbEntity
  8
DRAFT
100
AcDbPolyline
 62
7
  6
CONTINUOUS
 90
3
 70
0
 10
-126.699149065
 20
34.4494330494
 10
-126.700936414
 20
34.1327861034
 10
-126.7046214537
 20
33.7265856264
  0
LWPOLYLINE
  5
69D
100
AcDbEntity
  8
DRAFT
100
AcDbPolyline
 62
7
  6
CONTINUOUS
 90
7
 70
0
 10
-126.7063640073
 20
33.2431681554
 10
-126.7104907569
 20
32.7079251151
 10
-126.7138234576
 20
32.4279455677
 10
-126.7197442755
 20
32.1477161602
 10
-126.7288113823
 20
31.8713457078
 10
-126.7404666063
 20
31.5994932687
 10
-126.7547099474
 20
31.3340562657
  0
LWPOLYLINE
  5
69E
100
AcDbEntity
  8
0
100
AcDbPolyline
 62
250
  6
CONTINUOUS
 90
5
 70
0
 10
-126.5210809492
 20
-41.0837239144
 10
-126.5174272213
 20
-40.7073272845
 10
-126.5188237447
 20
-40.3452732304
 10
-126.5239081721
 20
-39.9956402515
 10
-126.5326721276
 20
-39.6655225238
  0
LINE
  5
69F
100
AcDbEntity
  8
0
100
AcDbLine
 62
7
  6
CONTINUOUS
 10
-128.3899986422
 20
24.3312342401
 11
-128.3920155147
 21
24.1203749098
  0
LWPOLYLINE
  5
6A0
100
AcDbEntity
  8
0
100
AcDbPolyline
 62
7
  6
CONTINUOUS
 90
3
 70
0
 10
-128.3866102113
 20
24.5523558447
 10
-128.3875466081
 20
24.4994199732
 10
-128.3899986422
 20
24.3312342401
  0
LINE
  5
6A1
100
AcDbEntity
  8
COPY_PABLISH
100
AcDbLine
 62
250
  6
CONTINUOUS
 10
-124.6395479349
 20
35.7873516757
 11
-124.6285686006
 21
36.5735338115
  0
LINE
  5
6A2
100
AcDbEntity
  8
0
100
AcDbLine
 62
250
  6
CONTINUOUS
 10
-126.5464565172
 20
-42.3482555194
 11
-126.5210809492
 21
-41.0837239144
  0
LWPOLYLINE
  5
6A3
100
AcDbEntity
  8
DRAFT
100
AcDbPolyline
 62
7
  6
CONTINUOUS
 90
14
 70
0
 10
-128.1463323987
 20
27.4006334386
 10
-128.1441093788
 20
27.5042224059
 10
-128.1403877462
 20
27.6187500454
 10
-128.1349839717
 20
27.7441050593
 10
-128.1270849849
 20
27.8814558954
 10
-128.1166039522
 20
28.0313888234
 10
-128.1036277073
 20
28.1935702359
 10
-128.0876036801
 20
28.3677552818
 10
-128.0684860154
 20
28.5536487204
 10
-128.0463205684
 20
28.7507924858
 10
-128.0206923349
 20
28.9584031396
 10
-127.9914629803
 20
29.175563471
 10
-127.9587708392
 20
29.4012212822
 10
-127.9226159117
 20
29.6340562657
  0
LWPOLYLINE
  5
6A4
100
AcDbEntity
  8
COPY_PABLISH
100
AcDbPolyline
 62
250
  6
CONTINUOUS
 90
7
 70
0
 10
-126.5216002698
 20
31.6363378948
 10
-126.5168175668
 20
31.8518586534
 10
-126.5144686316
 20
32.07718965
 10
-126.5149272049
 20
32.3082895396
 10
-126.5178179846
 20
32.5439207266
 10
-126.5220201016
 20
32.7855756506
 10
-126.527887677
 20
33.0323621959
  0
LWPOLYLINE
  5
6A5
100
AcDbEntity
  8
COPY_PABLISH
100
AcDbPolyline
 62
250
  6
CONTINUOUS
 90
8
 70
0
 10
-124.6530531496
 20
31.3340562657
 10
-124.6440557494
 20
31.6404014016
 10
-124.6370891573
 20
31.9576535173
 10
-124.6321533733
 20
32.2846377034
 10
-124.6295293357
 20
32.6206050671
 10
-124.6289361061
 20
32.9632162175
 10
-124.6295308694
 20
33.308641391
 10
-124.6315495824
 20
33.6563694265
  0
LWPOLYLINE
  5
6A6
100
AcDbEntity
  8
COPY_PABLISH
100
AcDbPolyline
 62
250
  6
CONTINUOUS
 90
7
 70
0
 10
-126.5317029224
 20
35.1851014056
 10
-126.528635899
 20
35.2859076657
 10
-126.5266875127
 20
35.369872175
 10
-126.5271739239
 20
35.4340623871
 10
-126.5305297926
 20
35.4785842037
 10
-126.5363075546
 20
35.5064475812
 10
-126.5444937721
 20
35.5188543318
  0
LINE
  5
6A7
100
AcDbEntity
  8
0
100
AcDbLine
 62
250
  6
CONTINUOUS
 10
-73.1030976898
 20
-28.0659437343
 11
-72.3892094268
 21
-28.0659437404
  0
LINE
  5
6A8
100
AcDbEntity
  8
0
100
AcDbLine
 62
7
  6
CONTINUOUS
 10
-72.0892094206
 20
-27.7659437343
 11
-66.8635246346
 21
-27.7659437343
  0
LINE
  5
6A9
100
AcDbEntity
  8
0
100
AcDbLine
 62
250
  6
CONTINUOUS
 10
-129.1851769377
 20
-26.3659448193
 11
-128.3892094257
 21
-26.3658489765
  0
LINE
  5
6AA
100
AcDbEntity
  8
RACCORDO
100
AcDbLine
 62
250
  6
CONTINUOUS
 10
-130.1892094268
 20
-26.3645436762
 11
-129.1892094268
 21
-26.3645436762
  0
LINE
  5
6AB
100
AcDbEntity
  8
0
100
AcDbLine
 62
7
  6
CONTINUOUS
 10
-129.1851769376
 20
-26.3659445939
 11
-129.1851250888
 21
-26.3659446291
  0
LINE
  5
6AC
100
AcDbEntity
  8
0
100
AcDbLine
 62
250
  6
CONTINUOUS
 10
-72.0752475017
 20
-27.0465477983
 11
-70.105476326
 21
-27.0643147495
  0
LWPOLYLINE
  5
6AD
100
AcDbEntity
  8
0
100
AcDbPolyline
 62
250
  6
CONTINUOUS
 90
3
 70
0
 10
-70.105476326
 20
-27.0643147495
 10
-68.1547163692
 20
-27.0840777311
 10
-67.6700117797
 20
-27.0893415928
  0
LINE
  5
6AE
100
AcDbEntity
  8
RACCORDO
100
AcDbLine
 62
250
  6
CONTINUOUS
 10
-116.3892094268
 20
-29.4175768748
 11
-116.1892094268
 21
-29.4204698061
  0
LINE
  5
6AF
100
AcDbEntity
  8
COPY_PABLISH
100
AcDbLine
 62
250
  6
CONTINUOUS
 10
-124.6315495824
 20
33.6563694265
 11
-124.637600302
 21
34.3385972297
  0
LWPOLYLINE
  5
6B0
100
AcDbEntity
  8
0
100
AcDbPolyline
 62
250
  6
CONTINUOUS
 90
10
 70
0
 10
-124.7615369008
 20
-31.2421549843
 10
-124.7551032747
 20
-32.202369952
 10
-124.7463664764
 20
-33.1564581419
 10
-124.7353265059
 20
-34.1044195541
 10
-124.7203852567
 20
-35.0461646829
 10
-124.7031408354
 20
-35.981783034
 10
-124.6883875617
 20
-36.9115431242
 10
-124.6777235424
 20
-37.8355344594
 10
-124.6695506707
 20
-38.7536675337
 10
-124.6638689467
 20
-39.6659423473
  0
LWPOLYLINE
  5
6B1
100
AcDbEntity
  8
COPY_PABLISH
100
AcDbPolyline
 62
250
  6
CONTINUOUS
 90
5
 70
0
 10
-124.637600302
 20
34.3385972297
 10
-124.641667324
 20
34.9709267023
 10
-124.6424055062
 20
35.2627802953
 10
-124.6415337119
 20
35.5351081451
 10
-124.6395479349
 20
35.7873516757
  0
LINE
  5
6B2
100
AcDbEntity
  8
0
100
AcDbLine
 62
250
  6
CONTINUOUS
 10
-124.7652903236
 20
22.3085260955
 11
-124.7389892834
 21
13.2831309769
  0
LINE
  5
6B3
100
AcDbEntity
  8
0
100
AcDbLine
 62
7
  6
CONTINUOUS
 10
-124.7389892834
 20
13.2831309769
 11
-124.7240921748
 21
-4.1659437254
  0
LWPOLYLINE
  5
6B4
100
AcDbEntity
  8
0
100
AcDbPolyline
 62
250
  6
CONTINUOUS
 90
8
 70
0
 10
-124.6308481559
 20
-40.6490122049
 10
-124.6308484912
 20
-45.2405359207
 10
-124.6298198545
 20
-45.2667904717
 10
-124.6287912174
 20
-45.2883105847
 10
-124.6308484959
 20
-45.3050218441
 10
-124.6370203284
 20
-45.3168894044
 10
-124.6462780765
 20
-45.3239185888
 10
-124.65862174
 20
-45.326101164
  0
LWPOLYLINE
  5
6B5
100
AcDbEntity
  8
0
100
AcDbPolyline
 62
250
  6
CONTINUOUS
 90
5
 70
0
 10
-124.7240921748
 20
-4.1659437254
 10
-124.7243569201
 20
-7.1450611454
 10
-124.7257748157
 20
-10.1315390839
 10
-124.7283458617
 20
-13.1253775408
 10
-124.7323089985
 20
-16.1266070415
  0
LINE
  5
6B6
100
AcDbEntity
  8
0
100
AcDbLine
 62
250
  6
CONTINUOUS
 10
-124.7323089985
 20
-16.1266070415
 11
-124.7487279058
 21
-25.1741534006
  0
LINE
  5
6B7
100
AcDbEntity
  8
0
100
AcDbLine
 62
250
  6
CONTINUOUS
 10
-124.7487279058
 20
-25.1741534006
 11
-124.7615369008
 21
-31.2421549843
  0
LWPOLYLINE
  5
6B8
100
AcDbEntity
  8
COPY_PABLISH
100
AcDbPolyline
 62
250
  6
CONTINUOUS
 90
10
 70
0
 10
-124.7639139665
 20
26.0517561637
 10
-124.7609923842
 20
26.6879284183
 10
-124.7560479952
 20
27.3120459245
 10
-124.7490807995
 20
27.9241086822
 10
-124.7405258166
 20
28.5244603673
 10
-124.7299480269
 20
29.112757304
 10
-124.7160423713
 20
29.687968465
 10
-124.69837383
 20
30.2497501743
 10
-124.6773774228
 20
30.7984461079
 10
-124.6530531496
 20
31.3340562657
  0
LINE
  5
6B9
100
AcDbEntity
  8
DRAFT
100
AcDbLine
 62
250
  6
CONTINUOUS
 10
-124.7551691108
 20
24.6246414338
 11
-124.7652903236
 21
22.3085260955
  0
LINE
  5
6BA
100
AcDbEntity
  8
DRAFT
100
AcDbLine
 62
250
  6
CONTINUOUS
 10
-124.7479160861
 20
25.7709850597
 11
-124.7551691108
 21
24.6246414338
  0
LWPOLYLINE
  5
6BB
100
AcDbEntity
  8
COPY_PABLISH
100
AcDbPolyline
 62
250
  6
CONTINUOUS
 90
7
 70
0
 10
-124.6285686006
 20
36.5735338115
 10
-124.6276554658
 20
36.7074319837
 10
-124.6278923289
 20
36.8153276406
 10
-124.6303023166
 20
36.8964553335
 10
-124.635226471
 20
36.9520502978
 10
-124.64232375
 20
36.9841351947
 10
-124.6515941536
 20
36.9943390766
  0
LINE
  5
6BC
100
AcDbEntity
  8
0
100
AcDbLine
 62
250
  6
CONTINUOUS
 10
-124.6284021393
 20
-40.3231541093
 11
-124.6308481559
 21
-40.6490122049
  0
LINE
  5
6BD
100
AcDbEntity
  8
0
100
AcDbLine
 62
7
  6
CONTINUOUS
 10
-131.647003205
 20
-43.8842757826
 11
-131.6753404205
 21
-44.054699949
  0
LINE
  5
6BE
100
AcDbEntity
  8
0
100
AcDbLine
 62
7
  6
CONTINUOUS
 10
-131.6350949905
 20
-43.8143296263
 11
-131.647003205
 21
-43.8842757826
  0
LINE
  5
6BF
100
AcDbEntity
  8
0
100
AcDbLine
 62
250
  6
CONTINUOUS
 10
-129.1851250888
 20
-26.3659446291
 11
-129.1858611916
 21
-26.3659448093
  0
LINE
  5
6C0
100
AcDbEntity
  8
RACCORDO
100
AcDbLine
 62
250
  6
CONTINUOUS
 10
-120.5892094268
 20
23.3699546506
 11
-120.5892094268
 21
23.6575110916
  0
LINE
  5
6C1
100
AcDbEntity
  8
RACCORDO
100
AcDbLine
 62
7
  6
CONTINUOUS
 10
-120.1892094268
 20
23.1390145429
 11
-120.1892094268
 21
23.4281061074
  0
LINE
  5
6C2
100
AcDbEntity
  8
ASSI
100
AcDbLine
 62
7
  6
CONTINUOUS
 10
-66.0892094268
 20
-21.1659437343
 11
-66.5892094268
 21
-21.1659437343
  0
LINE
  5
6C3
100
AcDbEntity
  8
0
100
AcDbLine
 62
7
  6
CONTINUOUS
 10
-66.5892094268
 20
-20.6659437343
 11
-66.3892094268
 21
-20.6659437343
  0
LINE
  5
6C4
100
AcDbEntity
  8
0
100
AcDbLine
 62
7
  6
CONTINUOUS
 10
-116.3892094268
 20
-45.4704468423
 11
-116.3892094268
 21
-39.665935139
  0
LINE
  5
6C5
100
AcDbEntity
  8
DRAFT
100
AcDbLine
 62
7
  6
CONTINUOUS
 10
-116.3892094268
 20
-39.665935139
 11
-116.3892094268
 21
20.94508352
  0
LINE
  5
6C6
100
AcDbEntity
  8
RACCORDO
100
AcDbLine
 62
7
  6
CONTINUOUS
 10
-116.1892094268
 20
21.1340562657
 11
-116.1892094268
 21
-44.9825893885
  0
LINE
  5
6C7
100
AcDbEntity
  8
RACCORDO
100
AcDbLine
 62
250
  6
CONTINUOUS
 10
-115.69793563
 20
20.8523046218
 11
-115.69793563
 21
-45.4825132361
  0
LWPOLYLINE
  5
6C8
100
AcDbEntity
  8
0
100
AcDbPolyline
 62
7
  6
CONTINUOUS
 90
25
 70
0
 10
-81.5892094268
 20
-15.6659437343
 10
-80.8382843226
 20
-15.6410770843
 10
-80.0873592183
 20
-15.5671061508
 10
-79.3460124255
 20
-15.4449744589
 10
-78.6143666404
 20
-15.2740650784
 10
-77.8922991668
 20
-15.0549949395
 10
-77.1890202268
 20
-14.7905583582
 10
-76.5047704982
 20
-14.4801741988
 10
-75.8393093033
 20
-14.124423597
 10
-75.2011248315
 20
-13.7278442758
 10
-74.5905664927
 20
-13.2899132268
 10
-74.007284877
 20
-12.8111534583
 10
-73.4587199447
 20
-12.297671718
 10
-72.9453164102
 20
-11.7490232239
 10
-72.4666295591
 20
-11.1656527581
 10
-72.0287652091
 20
-10.555001414
 10
-71.6322462888
 20
-9.9167197289
 10
-71.2765498696
 20
-9.2511571656
 10
-70.9662129832
 20
-8.5668032065
 10
-70.7018166769
 20
-7.8634171375
 10
-70.4827799034
 20
-7.1412396727
 10
-70.3118965532
 20
-6.4094824375
 10
-70.1900979231
 20
-5.6712159736
 10
-70.1164527162
 20
-4.9233697392
 10
-70.0909609325
 20
-4.1659437343
  0
LWPOLYLINE
  5
6C9
100
AcDbEntity
  8
0
100
AcDbPolyline
 62
7
  6
CONTINUOUS
 90
5
 70
0
 10
-126.6392101721
 20
-43.9000661351
 10
-126.6400967887
 20
-43.9027147784
 10
-126.6403790326
 20
-43.905185757
 10
-126.640133799
 20
-43.9074800544
 10
-126.6400179763
 20
-43.9079566186
  0
LWPOLYLINE
  5
6CA
100
AcDbEntity
  8
DRAFT
100
AcDbPolyline
 62
7
  6
CONTINUOUS
 90
7
 70
0
 10
-127.6328988289
 20
26.8356212818
 10
-127.6373482742
 20
26.8447664869
 10
-127.6434864643
 20
26.8767861491
 10
-127.6483113017
 20
26.9298273303
 10
-127.6519312455
 20
27.0034341554
 10
-127.6542378366
 20
27.0970087175
 10
-127.654457132
 20
27.1340562657
  0
LINE
  5
6CB
100
AcDbEntity
  8
ASSI
100
AcDbLine
 62
7
  6
CONTINUOUS
 10
-66.3892094268
 20
-8.9659437343
 11
-66.0892094268
 21
-8.9659437343
  0
LINE
  5
6CC
100
AcDbEntity
  8
COPY_PABLISH
100
AcDbLine
 62
7
  6
CONTINUOUS
 10
-105.1892094268
 20
37.3340562657
 11
-105.1892094268
 21
-45.6659437343
  0
LINE
  5
6CD
100
AcDbEntity
  8
0
100
AcDbLine
 62
7
  6
CONTINUOUS
 10
-105.1892094268
 20
-45.6659437343
 11
-105.1892094268
 21
37.3340562657
  0
LINE
  5
6CE
100
AcDbEntity
  8
DRAFT
100
AcDbLine
 62
7
  6
CONTINUOUS
 10
-103.5892094268
 20
37.3340562657
 11
-103.5892094268
 21
-45.6659437343
  0
LINE
  5
6CF
100
AcDbEntity
  8
ASSI
100
AcDbLine
 62
7
  6
CONTINUOUS
 10
-103.5892094268
 20
-45.6659437343
 11
-103.5892094268
 21
37.3340562657
  0
LWPOLYLINE
  5
6D0
100
AcDbEntity
  8
0
100
AcDbPolyline
 62
250
  6
CONTINUOUS
 90
11
 70
0
 10
-126.5483134832
 20
-43.8531294977
 10
-126.5379121487
 20
-43.8312556618
 10
-126.5311829517
 20
-43.7822241424
 10
-126.528150949
 20
-43.7025560289
 10
-126.5302587326
 20
-43.579229627
 10
-126.536079805
 20
-43.414492057
 10
-126.5413284718
 20
-43.2314034912
 10
-126.5452051624
 20
-43.0373163473
 10
-126.5485095459
 20
-42.8233273287
 10
-126.5493647682
 20
-42.5929273438
 10
-126.5464565172
 20
-42.3482555194
  0
LWPOLYLINE
  5
6D1
100
AcDbEntity
  8
0
100
AcDbPolyline
 62
7
  6
CONTINUOUS
 90
4
 70
0
 43
0.3500000006
 10
-140.8547062683
 20
-6.4159442253
 10
-141.7118442078
 20
-6.4159442253
 10
-142.1404222412
 20
-5.9873718567
 10
-142.1404222412
 20
-5.3445150032
  0
LINE
  5
6D2
100
AcDbEntity
  8
0
100
AcDbLine
 62
7
  6
CONTINUOUS
 10
-66.5892094268
 20
-5.9698739934
 11
-66.3892094268
 21
-5.9698737343
  0
LINE
  5
6D3
100
AcDbEntity
  8
0
100
AcDbLine
 62
7
  6
CONTINUOUS
 10
-66.5892094268
 20
-5.7697467288
 11
-66.3892094268
 21
-5.7697467343
  0
LINE
  5
6D4
100
AcDbEntity
  8
0
100
AcDbLine
 62
7
  6
CONTINUOUS
 10
-66.5892094268
 20
-5.7420647343
 11
-66.3892094268
 21
-5.7420647343
  0
LINE
  5
6D5
100
AcDbEntity
  8
0
100
AcDbLine
 62
7
  6
CONTINUOUS
 10
-66.5892094268
 20
-4.2810327343
 11
-66.3892094268
 21
-4.2810327343
  0
LINE
  5
6D6
100
AcDbEntity
  8
0
100
AcDbLine
 62
7
  6
CONTINUOUS
 10
-66.3892094268
 20
-4.1810347335
 11
-66.5892094268
 21
-4.1810347335
  0
LINE
  5
6D7
100
AcDbEntity
  8
0
100
AcDbLine
 62
250
  6
CONTINUOUS
 10
-128.3892868637
 20
-4.16594372
 11
-124.7241045598
 21
-4.1659437313
  0
LINE
  5
6D8
100
AcDbEntity
  8
0
100
AcDbLine
 62
7
  6
CONTINUOUS
 10
-66.5892094268
 20
-3.7070912314
 11
-66.3892094268
 21
-3.7070907343
  0
LINE
  5
6D9
100
AcDbEntity
  8
0
100
AcDbLine
 62
7
  6
CONTINUOUS
 10
-66.5892094268
 20
-3.5902084459
 11
-66.3892094268
 21
-3.5902087343
  0
LINE
  5
6DA
100
AcDbEntity
  8
0
100
AcDbLine
 62
7
  6
CONTINUOUS
 10
-66.5892094268
 20
-1.9444291389
 11
-66.3892094268
 21
-1.9444291389
  0
LINE
  5
6DB
100
AcDbEntity
  8
0
100
AcDbLine
 62
7
  6
CONTINUOUS
 10
-66.3892094268
 20
-1.8648494042
 11
-66.5217073943
 21
-1.8648494223
  0
LWPOLYLINE
  5
6DC
100
AcDbEntity
  8
0
100
AcDbPolyline
 62
7
  6
CONTINUOUS
 90
4
 70
0
 10
-67.0576512822
 20
-27.6122303385
 10
-67.0068275322
 20
-27.6535516425
 10
-66.9572699863
 20
-27.6928361745
 10
-66.8635246346
 20
-27.7659437343
  0
LWPOLYLINE
  5
6DD
100
AcDbEntity
  8
0
100
AcDbPolyline
 62
7
  6
CONTINUOUS
 90
3
 70
0
 10
-67.2165291478
 20
-27.4793782109
 10
-67.1625847796
 20
-27.5247750383
 10
-67.0576512822
 20
-27.6122303385
  0
LINE
  5
6DE
100
AcDbEntity
  8
0
100
AcDbLine
 62
7
  6
CONTINUOUS
 10
-67.382860312
 20
-27.3372959788
 11
-67.2165291478
 21
-27.4793782109
  0
LWPOLYLINE
  5
6DF
100
AcDbEntity
  8
0
100
AcDbPolyline
 62
7
  6
CONTINUOUS
 90
3
 70
0
 10
-67.6700117797
 20
-27.0893352756
 10
-67.6122048012
 20
-27.1396025087
 10
-67.382860312
 20
-27.3372959788
  0
LINE
  5
6E0
100
AcDbEntity
  8
RACCORDO
100
AcDbLine
 62
7
  6
CONTINUOUS
 10
-95.587077159
 20
37.1943785274
 11
-95.5622492321
 21
38.6167695094
  0
LINE
  5
6E1
100
AcDbEntity
  8
ASSI
100
AcDbLine
 62
7
  6
CONTINUOUS
 10
-66.3892094268
 20
0.6340562657
 11
-66.0892094268
 21
0.6340562657
  0
LWPOLYLINE
  5
6E2
100
AcDbEntity
  8
0
100
AcDbPolyline
 62
7
  6
CONTINUOUS
 90
25
 70
0
 10
-93.0874579211
 20
-4.1659437343
 10
-93.0619661375
 20
-4.9233697392
 10
-92.9883209306
 20
-5.6712159736
 10
-92.8665223005
 20
-6.4094824375
 10
-92.6956389503
 20
-7.1412396727
 10
-92.4766021768
 20
-7.8634171375
 10
-92.2122058704
 20
-8.5668032065
 10
-91.9018689841
 20
-9.2511571656
 10
-91.5461725649
 20
-9.9167197289
 10
-91.1496536445
 20
-10.555001414
 10
-90.7117892945
 20
-11.1656527581
 10
-90.2331024435
 20
-11.7490232239
 10
-89.7196989089
 20
-12.297671718
 10
-89.1711339767
 20
-12.8111534583
 10
-88.587852361
 20
-13.2899132268
 10
-87.9772940221
 20
-13.7278442758
 10
-87.3391095504
 20
-14.124423597
 10
-86.6736483554
 20
-14.4801741988
 10
-85.9893986268
 20
-14.7905583582
 10
-85.2861196869
 20
-15.0549949395
 10
-84.5640522133
 20
-15.2740650784
 10
-83.8324064282
 20
-15.4449744589
 10
-83.0910596354
 20
-15.5671061508
 10
-82.3401345311
 20
-15.6410770843
 10
-81.5892094268
 20
-15.6659437343
  0
LINE
  5
6E3
100
AcDbEntity
  8
RACCORDO
100
AcDbLine
 62
7
  6
CONTINUOUS
 10
-93.3780664325
 20
40.5563380171
 11
-93.3706190746
 21
40.9829968668
  0
LINE
  5
6E4
100
AcDbEntity
  8
0
100
AcDbLine
 62
7
  6
CONTINUOUS
 10
-92.8868687882
 20
40.0476879663
 11
-92.878142585
 21
40.5476118139
  0
LINE
  5
6E5
100
AcDbEntity
  8
RACCORDO
100
AcDbLine
 62
7
  6
CONTINUOUS
 10
-91.5969186344
 20
42.3255221571
 11
-91.5887698228
 21
42.7923672641
  0
LINE
  5
6E6
100
AcDbEntity
  8
0
100
AcDbLine
 62
7
  6
CONTINUOUS
 10
-90.9557438358
 20
41.8142542453
 11
-90.9470176326
 21
42.3141780929
  0
LINE
  5
6E7
100
AcDbEntity
  8
RACCORDO
100
AcDbLine
 62
7
  6
CONTINUOUS
 10
-89.8157708363
 20
44.0947062971
 11
-89.8080896605
 21
44.5347605659
  0
LWPOLYLINE
  5
6E8
100
AcDbEntity
  8
0
100
AcDbPolyline
 62
7
  6
CONTINUOUS
 90
25
 70
0
 10
-81.5892094268
 20
7.3340562657
 10
-82.3401345311
 20
7.3091896156
 10
-83.0910596354
 20
7.2352186822
 10
-83.8324064282
 20
7.1130869903
 10
-84.5640522133
 20
6.9421776098
 10
-85.2861196869
 20
6.7231074709
 10
-85.9893986268
 20
6.4586708896
 10
-86.6736483554
 20
6.1482867302
 10
-87.3391095504
 20
5.7925361284
 10
-87.9772940221
 20
5.3959568072
 10
-88.587852361
 20
4.9580257582
 10
-89.1711339767
 20
4.4792659896
 10
-89.7196989089
 20
3.9657842493
 10
-90.2331024435
 20
3.4171357553
 10
-90.7117892945
 20
2.8337652894
 10
-91.1496536445
 20
2.2231139454
 10
-91.5461725649
 20
1.5848322603
 10
-91.9018689841
 20
0.9192696969
 10
-92.2122058704
 20
0.2349157379
 10
-92.4766021768
 20
-0.4684703311
 10
-92.6956389503
 20
-1.1906477959
 10
-92.8665223005
 20
-1.9224050311
 10
-92.9883209306
 20
-2.6606714951
 10
-93.0619661375
 20
-3.4085177294
 10
-93.0874579211
 20
-4.1659437343
  0
LINE
  5
6E9
100
AcDbEntity
  8
0
100
AcDbLine
 62
7
  6
CONTINUOUS
 10
-89.324573192
 20
43.5860562463
 11
-89.3158469887
 21
44.0859800939
  0
LINE
  5
6EA
100
AcDbEntity
  8
RACCORDO
100
AcDbLine
 62
7
  6
CONTINUOUS
 10
-124.7632588462
 20
26.0513804441
 11
-115.69793563
 21
20.8523046218
  0
LINE
  5
6EB
100
AcDbEntity
  8
COPY_PABLISH
100
AcDbLine
 62
7
  6
CONTINUOUS
 10
-124.7632588462
 20
26.0513804441
 11
-126.6510571004
 21
27.1340562657
  0
LINE
  5
6EC
100
AcDbEntity
  8
DRAFT
100
AcDbLine
 62
7
  6
CONTINUOUS
 10
-116.3892094268
 20
20.94508352
 11
-126.5892094268
 21
26.8340562657
  0
LINE
  5
6ED
100
AcDbEntity
  8
RACCORDO
100
AcDbLine
 62
7
  6
CONTINUOUS
 10
-85.5350038003
 20
45.820259421
 11
-85.5290846525
 21
46.1593671725
  0
LINE
  5
6EE
100
AcDbEntity
  8
0
100
AcDbLine
 62
7
  6
CONTINUOUS
 10
-85.043806156
 20
45.3116093702
 11
-85.0350799527
 21
45.8115332178
  0
LINE
  5
6EF
100
AcDbEntity
  8
0
100
AcDbLine
 62
7
  6
CONTINUOUS
 10
-66.5892094268
 20
12.3340562657
 11
-66.3892094268
 21
12.3340562657
  0
LINE
  5
6F0
100
AcDbEntity
  8
ASSI
100
AcDbLine
 62
7
  6
CONTINUOUS
 10
-66.5892094268
 20
12.8340562657
 11
-66.0892094268
 21
12.8340562657
  0
LINE
  5
6F1
100
AcDbEntity
  8
0
100
AcDbLine
 62
7
  6
CONTINUOUS
 10
-126.5804801644
 20
13.2831291004
 11
-124.7380170618
 21
13.2831276816
  0
LWPOLYLINE
  5
6F2
100
AcDbEntity
  8
DRAFT
100
AcDbPolyline
 62
7
  6
CONTINUOUS
 90
10
 70
0
 10
-128.0704089598
 20
26.8340562657
 10
-128.0857949577
 20
26.8400669323
 10
-128.0993394713
 20
26.857395086
 10
-128.1110425007
 20
26.8849786534
 10
-128.1207779352
 20
26.9214872748
 10
-128.1286718854
 20
26.9660221532
 10
-128.1351026834
 20
27.0187305945
 10
-128.140181942
 20
27.07907208
 10
-128.1437980483
 20
27.1465899717
 10
-128.1459944957
 20
27.2226368539
  0
LINE
  5
6F3
100
AcDbEntity
  8
RACCORDO
100
AcDbLine
 62
250
  6
CONTINUOUS
 10
-130.1892094268
 20
18.0326519506
 11
-129.1892094268
 21
18.0326519555
  0
LINE
  5
6F4
100
AcDbEntity
  8
RACCORDO
100
AcDbLine
 62
250
  6
CONTINUOUS
 10
-116.1892094268
 20
18.0340562657
 11
-116.3892094268
 21
18.0340562657
  0
LINE
  5
6F5
100
AcDbEntity
  8
0
100
AcDbLine
 62
250
  6
CONTINUOUS
 10
-129.1857792545
 20
18.0340424273
 11
-128.3892094257
 21
18.0341284964
  0
LINE
  5
6F6
100
AcDbEntity
  8
0
100
AcDbLine
 62
7
  6
CONTINUOUS
 10
-129.1851776208
 20
18.0340439654
 11
-129.1851253567
 21
18.0340438527
  0
LWPOLYLINE
  5
6F7
100
AcDbEntity
  8
DRAFT
100
AcDbPolyline
 62
7
  6
CONTINUOUS
 90
7
 70
0
 10
-126.7336000102
 20
34.8112408204
 10
-126.7255268978
 20
34.8073690428
 10
-126.7149584209
 20
34.784136793
 10
-126.7071861417
 20
34.7378803853
 10
-126.7018211643
 20
34.667451927
 10
-126.6992814638
 20
34.5716005175
 10
-126.699149065
 20
34.4494330494
  0
LWPOLYLINE
  5
6F8
100
AcDbEntity
  8
COPY_PABLISH
100
AcDbPolyline
 62
250
  6
CONTINUOUS
 90
10
 70
0
 10
-126.5444937721
 20
35.5188543318
 10
-126.5644314982
 20
35.530655729
 10
-126.5816380274
 20
35.5382073847
 10
-126.5961547411
 20
35.5431952743
 10
-126.6076782733
 20
35.5482001665
 10
-126.616580275
 20
35.553536898
 10
-126.6238967161
 20
35.5571854532
 10
-126.6299762458
 20
35.55905312
 10
-126.6344905753
 20
35.5610313406
 10
-126.6374474757
 20
35.5638514411
  0
LINE
  5
6F9
100
AcDbEntity
  8
0
100
AcDbLine
 62
7
  6
CONTINUOUS
 10
-77.8449027508
 20
45.1859520439
 11
-77.8361765476
 21
45.6858758915
  0
LINE
  5
6FA
100
AcDbEntity
  8
RACCORDO
100
AcDbLine
 62
7
  6
CONTINUOUS
 10
-77.3362527
 20
45.6771496883
 11
-77.3303335522
 21
46.0162574397
  0
LWPOLYLINE
  5
6FB
100
AcDbEntity
  8
0
100
AcDbPolyline
 62
250
  6
CONTINUOUS
 90
10
 70
0
 10
-126.548101455
 20
-43.853071616
 10
-126.5694992874
 20
-43.8671371723
 10
-126.5875027863
 20
-43.8771244033
 10
-126.6023474271
 20
-43.884439557
 10
-126.6142056304
 20
-43.8890488534
 10
-126.6233630463
 20
-43.8918820808
 10
-126.63012839
 20
-43.8935187587
 10
-126.6347873002
 20
-43.8949053059
 10
-126.6376520364
 20
-43.8970954105
 10
-126.6392101721
 20
-43.9000661351
  0
LINE
  5
6FC
100
AcDbEntity
  8
0
100
AcDbLine
 62
250
  6
CONTINUOUS
 10
-126.6129932075
 20
22.3085034451
 11
-124.7679483645
 21
22.3085235704
  0
LWPOLYLINE
  5
6FD
100
AcDbEntity
  8
0
100
AcDbPolyline
 62
250
  6
CONTINUOUS
 90
3
 70
0
 10
-72.0853955271
 20
-33.6740845593
 10
-72.0872875969
 20
-33.6148485355
 10
-72.0892094205
 20
-33.5659478301
  0
LINE
  5
6FE
100
AcDbEntity
  8
0
100
AcDbLine
 62
250
  6
CONTINUOUS
 10
-72.0818153505
 20
-33.8197650282
 11
-72.0853955271
 21
-33.6740845593
  0
LINE
  5
6FF
100
AcDbEntity
  8
0
100
AcDbLine
 62
250
  6
CONTINUOUS
 10
-72.0786868439
 20
-33.9940416787
 11
-72.0818153505
 21
-33.8197650282
  0
LWPOLYLINE
  5
700
100
AcDbEntity
  8
0
100
AcDbPolyline
 62
250
  6
CONTINUOUS
 90
3
 70
0
 10
-72.0752472865
 20
-34.2853396699
 10
-72.0762005176
 20
-34.1862106087
 10
-72.0786868439
 20
-33.9940416787
  0
LINE
  5
701
100
AcDbEntity
  8
0
100
AcDbLine
 62
250
  6
CONTINUOUS
 10
-73.1030976898
 20
-33.2659437343
 11
-73.1030976898
 21
-28.0659437343
  0
LINE
  5
702
100
AcDbEntity
  8
0
100
AcDbLine
 62
7
  6
CONTINUOUS
 10
-72.3892094268
 20
-33.2659437282
 11
-72.3892094268
 21
-28.0659437404
  0
LINE
  5
703
100
AcDbEntity
  8
0
100
AcDbLine
 62
250
  6
CONTINUOUS
 10
-72.0752474898
 20
-27.0465477984
 11
-72.0773462246
 21
-27.2432775905
  0
LINE
  5
704
100
AcDbEntity
  8
0
100
AcDbLine
 62
250
  6
CONTINUOUS
 10
-72.0773462246
 20
-27.2432775905
 11
-72.0801735998
 21
-27.4279241821
  0
LINE
  5
705
100
AcDbEntity
  8
0
100
AcDbLine
 62
7
  6
CONTINUOUS
 10
-73.626964378
 20
43.3120534653
 11
-73.6182381748
 21
43.8119773128
  0
LINE
  5
706
100
AcDbEntity
  8
RACCORDO
100
AcDbLine
 62
7
  6
CONTINUOUS
 10
-73.1183143272
 20
43.8032511096
 11
-73.1106331514
 21
44.2433053784
  0
LINE
  5
707
100
AcDbEntity
  8
0
100
AcDbLine
 62
7
  6
CONTINUOUS
 10
-72.0586223973
 20
41.4844037637
 11
-72.0498961941
 21
41.9843276113
  0
LINE
  5
708
100
AcDbEntity
  8
RACCORDO
100
AcDbLine
 62
7
  6
CONTINUOUS
 10
-71.3999951923
 20
41.9729835471
 11
-71.3918463806
 21
42.4398286541
  0
LWPOLYLINE
  5
709
100
AcDbEntity
  8
0
100
AcDbPolyline
 62
250
  6
CONTINUOUS
 90
5
 70
0
 10
-72.0801735998
 20
-27.4279241821
 10
-72.0835559564
 20
-27.5891465223
 10
-72.0853913245
 20
-27.6578055126
 10
-72.0872855454
 20
-27.7170422847
 10
-72.0892094206
 20
-27.7659437343
  0
LWPOLYLINE
  5
70A
100
AcDbEntity
  8
0
100
AcDbPolyline
 62
250
  6
CONTINUOUS
 90
22
 70
0
 10
-73.1030976898
 20
-28.0659437343
 10
-73.1004582229
 20
-27.9908939789
 10
-73.0922239783
 20
-27.9165394638
 10
-73.0783949561
 20
-27.842880189
 10
-73.0589027141
 20
-27.7694121336
 10
-73.0338156944
 20
-27.6966393186
 10
-73.0033392231
 20
-27.6260738065
 10
-72.9673034032
 20
-27.5577480603
 10
-72.9258781316
 20
-27.4916296171
 10
-72.8797784247
 20
-27.4291331506
 10
-72.8288836766
 20
-27.3703715945
 10
-72.7733144932
 20
-27.3152320152
 10
-72.7141477079
 20
-27.2647902848
 10
-72.6512669963
 20
-27.2191664581
 10
-72.5847886829
 20
-27.1782404803
 10
-72.5161385745
 20
-27.1427280602
 10
-72.4452821008
 20
-27.1128019106
 10
-72.3722538322
 20
-27.0882893187
 10
-72.2985832862
 20
-27.0693878545
 10
-72.224780302
 20
-27.0561633747
 10
-72.1503350405
 20
-27.0485500226
 10
-72.0752475017
 20
-27.0465477983
  0
LINE
  5
70B
100
AcDbEntity
  8
RACCORDO
100
AcDbLine
 62
250
  6
CONTINUOUS
 10
-126.0531743298
 20
26.7911630469
 11
-126.3222828271
 21
26.7911630469
  0
LINE
  5
70C
100
AcDbEntity
  8
DRAFT
100
AcDbLine
 62
7
  6
CONTINUOUS
 10
-126.5892094268
 20
26.8340562657
 11
-128.0704089598
 21
26.8340562657
  0
LINE
  5
70D
100
AcDbEntity
  8
COPY_PABLISH
100
AcDbLine
 62
7
  6
CONTINUOUS
 10
-128.0486459287
 20
27.1340562657
 11
-126.6510571004
 21
27.1340562657
  0
LINE
  5
70E
100
AcDbEntity
  8
0
100
AcDbLine
 62
7
  6
CONTINUOUS
 10
-128.2223374976
 20
27.3340882657
 11
-128.2538975751
 21
27.3340882657
  0
LWPOLYLINE
  5
70F
100
AcDbEntity
  8
0
100
AcDbPolyline
 62
7
  6
CONTINUOUS
 90
46
 70
0
 10
-71.0495424461
 20
-4.1659437343
 10
-71.0762737786
 20
-3.4241359447
 10
-71.1531096784
 20
-2.692979832
 10
-71.2800501456
 20
-1.9724753962
 10
-71.4581982388
 20
-1.2592272547
 10
-71.6864508994
 20
-0.5566307901
 10
-71.9614989515
 20
0.1251278501
 10
-72.2840241228
 20
0.7857450951
 10
-72.6533446856
 20
1.4255245157
 10
-73.0641062809
 20
2.0351906774
 10
-73.5169126327
 20
2.6143048822
 10
-74.011160017
 20
3.1633058281
 10
-74.5396829028
 20
3.6742341745
 10
-75.1029806247
 20
4.1465352695
 10
-75.7005538481
 20
4.580763765
 10
-76.3237390381
 20
4.9706242756
 10
-76.9729093167
 20
5.3154704367
 10
-77.6476915618
 20
5.6159486129
 10
-78.3383028729
 20
5.8677025126
 10
-79.0449738519
 20
6.0700223077
 10
-79.7674738967
 20
6.2236178264
 10
-80.4953283006
 20
6.3262622618
 10
-81.2286150672
 20
6.3772133451
 10
-81.9672561929
 20
6.3772133451
 10
-82.7005429595
 20
6.3262622618
 10
-83.4283973634
 20
6.2236178264
 10
-84.1508974082
 20
6.0700223077
 10
-84.8575683872
 20
5.8677025126
 10
-85.5481796983
 20
5.6159486129
 10
-86.2229619434
 20
5.3154704367
 10
-86.872132222
 20
4.9706242756
 10
-87.495317412
 20
4.580763765
 10
-88.0928906354
 20
4.1465352695
 10
-88.6561883573
 20
3.6742341745
 10
-89.1847112431
 20
3.1633058281
 10
-89.6789586274
 20
2.6143048822
 10
-90.1317649792
 20
2.0351906774
 10
-90.5425265745
 20
1.4255245157
 10
-90.9118471373
 20
0.7857450951
 10
-91.2343723086
 20
0.1251278501
 10
-91.5094203607
 20
-0.5566307901
 10
-91.7376730213
 20
-1.2592272547
 10
-91.9158211145
 20
-1.9724753962
 10
-92.0427615817
 20
-2.692979832
 10
-92.1195974815
 20
-3.4241359447
 10
-92.1463288139
 20
-4.1659437343
  0
LWPOLYLINE
  5
710
100
AcDbEntity
  8
0
100
AcDbPolyline
 62
7
  6
CONTINUOUS
 90
46
 70
0
 10
-70.361865744
 20
-4.1659437343
 10
-70.3903707194
 20
-3.3749164705
 10
-70.4723047358
 20
-2.59524763
 10
-70.6076677932
 20
-1.8269372126
 10
-70.7976361391
 20
-1.0663645499
 10
-71.0410335259
 20
-0.3171503104
 10
-71.3343312118
 20
0.4098435003
 10
-71.6782561575
 20
1.1142931691
 10
-72.0720814022
 20
1.796522409
 10
-72.5100973214
 20
2.446640354
 10
-72.9929476966
 20
3.064179198
 10
-73.5199887462
 20
3.6496067469
 10
-74.0835795011
 20
4.1944355523
 10
-74.6842524273
 20
4.6980741608
 10
-75.3214750589
 20
5.1611140256
 10
-75.9860090293
 20
5.5768420583
 10
-76.6782522173
 20
5.9445690073
 10
-77.3978067442
 20
6.264984124
 10
-78.1342406067
 20
6.533442074
 10
-78.8877997075
 20
6.7491859314
 10
-79.6582381439
 20
6.9129726219
 10
-80.4343862049
 20
7.0224275886
 10
-81.2163270698
 20
7.0767593124
 10
-82.0039775593
 20
7.0767593124
 10
-82.7859184242
 20
7.0224275886
 10
-83.5620664852
 20
6.9129726219
 10
-84.3325049216
 20
6.7491859314
 10
-85.0860640224
 20
6.533442074
 10
-85.8224978849
 20
6.264984124
 10
-86.5420524118
 20
5.9445690073
 10
-87.2342955998
 20
5.5768420583
 10
-87.8988295702
 20
5.1611140256
 10
-88.5360522018
 20
4.6980741608
 10
-89.136725128
 20
4.1944355523
 10
-89.700315883
 20
3.6496067469
 10
-90.2273569326
 20
3.064179198
 10
-90.7102073077
 20
2.446640354
 10
-91.1482232269
 20
1.796522409
 10
-91.5420484716
 20
1.1142931691
 10
-91.8859734173
 20
0.4098435003
 10
-92.1792711032
 20
-0.3171503104
 10
-92.42266849
 20
-1.0663645499
 10
-92.6126368359
 20
-1.8269372126
 10
-92.7479998933
 20
-2.59524763
 10
-92.8299339097
 20
-3.3749164705
 10
-92.8584388851
 20
-4.1659437343
  0
LWPOLYLINE
  5
711
100
AcDbEntity
  8
0
100
AcDbPolyline
 62
7
  6
CONTINUOUS
 90
24
 70
0
 10
-70.1119038203
 20
-4.1659437343
 10
-70.1373956039
 20
-3.4085177294
 10
-70.2110408108
 20
-2.6606714951
 10
-70.3328394409
 20
-1.9224050311
 10
-70.5037227911
 20
-1.1906477959
 10
-70.7227595646
 20
-0.4684703311
 10
-70.9871558709
 20
0.2349157379
 10
-71.2974927573
 20
0.9192696969
 10
-71.6531891765
 20
1.5848322603
 10
-72.0497080968
 20
2.2231139454
 10
-72.4875724468
 20
2.8337652894
 10
-72.9662592979
 20
3.4171357553
 10
-73.4796628325
 20
3.9657842493
 10
-74.0282277647
 20
4.4792659896
 10
-74.6115093804
 20
4.9580257582
 10
-75.2220677193
 20
5.3959568072
 10
-75.860252191
 20
5.7925361284
 10
-76.5257133859
 20
6.1482867302
 10
-77.2099631146
 20
6.4586708896
 10
-77.9132420545
 20
6.7231074709
 10
-78.6353095281
 20
6.9421776098
 10
-79.3669553132
 20
7.1130869903
 10
-80.108302106
 20
7.2352186822
 10
-80.8592272103
 20
7.3091896156
  0
LWPOLYLINE
  5
712
100
AcDbEntity
  8
0
100
AcDbPolyline
 62
7
  6
CONTINUOUS
 90
25
 70
0
 10
-70.0909609325
 20
-4.1659437343
 10
-70.1164527162
 20
-3.4085177294
 10
-70.1900979231
 20
-2.6606714951
 10
-70.3118965532
 20
-1.9224050311
 10
-70.4827799034
 20
-1.1906477959
 10
-70.7018166769
 20
-0.4684703311
 10
-70.9662129832
 20
0.2349157379
 10
-71.2765498696
 20
0.9192696969
 10
-71.6322462888
 20
1.5848322603
 10
-72.0287652091
 20
2.2231139454
 10
-72.4666295591
 20
2.8337652894
 10
-72.9453164102
 20
3.4171357553
 10
-73.4587199447
 20
3.9657842493
 10
-74.007284877
 20
4.4792659896
 10
-74.5905664927
 20
4.9580257582
 10
-75.2011248315
 20
5.3959568072
 10
-75.8393093033
 20
5.7925361284
 10
-76.5047704982
 20
6.1482867302
 10
-77.1890202268
 20
6.4586708896
 10
-77.8922991668
 20
6.7231074709
 10
-78.6143666404
 20
6.9421776098
 10
-79.3460124255
 20
7.1130869903
 10
-80.0873592183
 20
7.2352186822
 10
-80.8382843226
 20
7.3091896156
 10
-81.5892094268
 20
7.3340562657
  0
LINE
  5
713
100
AcDbEntity
  8
RACCORDO
100
AcDbLine
 62
250
  6
CONTINUOUS
 10
-67.6700117797
 20
36.7070843386
 11
-67.6700117797
 21
31.3340562657
  0
LINE
  5
714
100
AcDbEntity
  8
0
100
AcDbLine
 62
250
  6
CONTINUOUS
 10
-67.6700117797
 20
31.3340562657
 11
-67.6700117797
 21
-27.0893415928
  0
LINE
  5
715
100
AcDbEntity
  8
0
100
AcDbLine
 62
250
  6
CONTINUOUS
 10
-67.6700117797
 20
-34.2425458714
 11
-67.6700117797
 21
-39.6659437343
  0
LINE
  5
716
100
AcDbEntity
  8
RACCORDO
100
AcDbLine
 62
250
  6
CONTINUOUS
 10
-67.6700117797
 20
-39.6659437343
 11
-67.6700117797
 21
-45.0389718072
  0
LINE
  5
717
100
AcDbEntity
  8
0
100
AcDbLine
 62
7
  6
CONTINUOUS
 10
-70.1903261081
 20
39.6515183402
 11
-70.1815999049
 21
40.1514421877
  0
LINE
  5
718
100
AcDbEntity
  8
RACCORDO
100
AcDbLine
 62
7
  6
CONTINUOUS
 10
-69.6816760573
 20
40.1427159845
 11
-69.6742286994
 21
40.5693748342
  0
LINE
  5
719
100
AcDbEntity
  8
RACCORDO
100
AcDbLine
 62
7
  6
CONTINUOUS
 10
-67.5913416946
 20
36.7057111472
 11
-67.5665137677
 21
38.1281021292
  0
LWPOLYLINE
  5
71A
100
AcDbEntity
  8
0
100
AcDbPolyline
 62
7
  6
CONTINUOUS
 90
46
 70
0
 10
-71.0495424461
 20
-4.1659437343
 10
-71.0762737786
 20
-4.9077515239
 10
-71.1531096784
 20
-5.6389076366
 10
-71.2800501456
 20
-6.3594120724
 10
-71.4581982388
 20
-7.0726602139
 10
-71.6864508994
 20
-7.7752566785
 10
-71.9614989515
 20
-8.4570153188
 10
-72.2840241228
 20
-9.1176325637
 10
-72.6533446856
 20
-9.7574119843
 10
-73.0641062809
 20
-10.367078146
 10
-73.5169126327
 20
-10.9461923508
 10
-74.011160017
 20
-11.4951932967
 10
-74.5396829028
 20
-12.0061216431
 10
-75.1029806247
 20
-12.4784227381
 10
-75.7005538481
 20
-12.9126512336
 10
-76.3237390381
 20
-13.3025117442
 10
-76.9729093167
 20
-13.6473579053
 10
-77.6476915618
 20
-13.9478360815
 10
-78.3383028729
 20
-14.1995899812
 10
-79.0449738519
 20
-14.4019097763
 10
-79.7674738967
 20
-14.555505295
 10
-80.4953283006
 20
-14.6581497304
 10
-81.2286150672
 20
-14.7091008137
 10
-81.9672561929
 20
-14.7091008137
 10
-82.7005429595
 20
-14.6581497304
 10
-83.4283973634
 20
-14.555505295
 10
-84.1508974082
 20
-14.4019097763
 10
-84.8575683872
 20
-14.1995899812
 10
-85.5481796983
 20
-13.9478360815
 10
-86.2229619434
 20
-13.6473579053
 10
-86.872132222
 20
-13.3025117442
 10
-87.495317412
 20
-12.9126512336
 10
-88.0928906354
 20
-12.4784227381
 10
-88.6561883573
 20
-12.0061216431
 10
-89.1847112431
 20
-11.4951932967
 10
-89.6789586274
 20
-10.9461923508
 10
-90.1317649792
 20
-10.367078146
 10
-90.5425265745
 20
-9.7574119843
 10
-90.9118471373
 20
-9.1176325637
 10
-91.2343723086
 20
-8.4570153188
 10
-91.5094203607
 20
-7.7752566785
 10
-91.7376730213
 20
-7.0726602139
 10
-91.9158211145
 20
-6.3594120724
 10
-92.0427615817
 20
-5.6389076366
 10
-92.1195974815
 20
-4.9077515239
 10
-92.1463288139
 20
-4.1659437343
  0
LWPOLYLINE
  5
71B
100
AcDbEntity
  8
0
100
AcDbPolyline
 62
7
  6
CONTINUOUS
 90
46
 70
0
 10
-70.361865744
 20
-4.1659437343
 10
-70.3903707194
 20
-4.9569709981
 10
-70.4723047358
 20
-5.7366398386
 10
-70.6076677932
 20
-6.504950256
 10
-70.7976361391
 20
-7.2655229187
 10
-71.0410335259
 20
-8.0147371582
 10
-71.3343312118
 20
-8.7417309689
 10
-71.6782561575
 20
-9.4461806377
 10
-72.0720814022
 20
-10.1284098777
 10
-72.5100973214
 20
-10.7785278226
 10
-72.9929476966
 20
-11.3960666666
 10
-73.5199887462
 20
-11.9814942156
 10
-74.0835795011
 20
-12.5263230209
 10
-74.6842524273
 20
-13.0299616294
 10
-75.3214750589
 20
-13.4930014943
 10
-75.9860090293
 20
-13.9087295269
 10
-76.6782522173
 20
-14.2764564759
 10
-77.3978067442
 20
-14.5968715927
 10
-78.1342406067
 20
-14.8653295426
 10
-78.8877997075
 20
-15.0810734
 10
-79.6582381439
 20
-15.2448600905
 10
-80.4343862049
 20
-15.3543150572
 10
-81.2163270698
 20
-15.408646781
 10
-82.0039775593
 20
-15.408646781
 10
-82.7859184242
 20
-15.3543150572
 10
-83.5620664852
 20
-15.2448600905
 10
-84.3325049216
 20
-15.0810734
 10
-85.0860640224
 20
-14.8653295426
 10
-85.8224978849
 20
-14.5968715927
 10
-86.5420524118
 20
-14.2764564759
 10
-87.2342955998
 20
-13.9087295269
 10
-87.8988295702
 20
-13.4930014943
 10
-88.5360522018
 20
-13.0299616294
 10
-89.136725128
 20
-12.5263230209
 10
-89.700315883
 20
-11.9814942156
 10
-90.2273569326
 20
-11.3960666666
 10
-90.7102073077
 20
-10.7785278226
 10
-91.1482232269
 20
-10.1284098777
 10
-91.5420484716
 20
-9.4461806377
 10
-91.8859734173
 20
-8.7417309689
 10
-92.1792711032
 20
-8.0147371582
 10
-92.42266849
 20
-7.2655229187
 10
-92.6126368359
 20
-6.504950256
 10
-92.7479998933
 20
-5.7366398386
 10
-92.8299339097
 20
-4.9569709981
 10
-92.8584388851
 20
-4.1659437343
  0
LWPOLYLINE
  5
71C
100
AcDbEntity
  8
0
100
AcDbPolyline
 62
7
  6
CONTINUOUS
 90
13
 70
0
 10
-72.3892094268
 20
-28.0659437404
 10
-72.3863108802
 20
-28.0257965797
 10
-72.3787132934
 20
-27.9875658219
 10
-72.3664166667
 20
-27.9512514669
 10
-72.3490531524
 20
-27.9162934428
 10
-72.3269905981
 20
-27.8832518216
 10
-72.301332546
 20
-27.8538068191
 10
-72.2718867121
 20
-27.8281511922
 10
-72.2388453804
 20
-27.806092184
 10
-72.203888946
 20
-27.7887317396
 10
-72.1675775403
 20
-27.7764371741
 10
-72.1293510319
 20
-27.7688411723
 10
-72.0892094206
 20
-27.7659437343
  0
LINE
  5
71D
100
AcDbEntity
  8
0
100
AcDbLine
 62
250
  6
CONTINUOUS
 10
-126.6411949464
 20
-43.9678491446
 11
-126.6491181869
 21
-43.9715602263
  0
LINE
  5
71E
100
AcDbEntity
  8
0
100
AcDbLine
 62
7
  6
CONTINUOUS
 10
-128.0167998891
 20
29.0796619445
 11
-128.0672225588
 21
29.0796619445
  0
LWPOLYLINE
  5
71F
100
AcDbEntity
  8
DRAFT
100
AcDbPolyline
 62
7
  6
CONTINUOUS
 90
18
 70
0
 10
-127.7031154778
 20
27.8399487556
 10
-127.7091842225
 20
27.840037461
 10
-127.7506066739
 20
27.8522781556
 10
-127.7865063641
 20
27.8832140858
 10
-127.8173527386
 20
27.9303571396
 10
-127.8428869958
 20
27.9909325212
 10
-127.8633679372
 20
28.0628009218
 10
-127.8800414134
 20
28.1450404442
 10
-127.893030353
 20
28.2359078716
 10
-127.9022118274
 20
28.3340105331
 10
-127.9084629005
 20
28.4402726489
 10
-127.9120052028
 20
28.5537563271
 10
-127.9126171038
 20
28.673799283
 10
-127.9105107756
 20
28.8030259103
 10
-127.9059127655
 20
28.9413399729
 10
-127.8985965262
 20
29.0884354989
 10
-127.8880945887
 20
29.2476933975
 10
-127.8745689388
 20
29.4194829362
  0
LINE
  5
720
100
AcDbEntity
  8
COPY_PABLISH
100
AcDbLine
 62
250
  6
CONTINUOUS
 10
-126.5288142757
 20
31.4329659401
 11
-124.6530527738
 21
31.3340562631
  0
LINE
  5
721
100
AcDbEntity
  8
0
100
AcDbLine
 62
7
  6
CONTINUOUS
 10
-66.8635246346
 20
-27.7659437343
 11
-66.8635246346
 21
-33.5659437343
  0
LINE
  5
722
100
AcDbEntity
  8
0
100
AcDbLine
 62
7
  6
CONTINUOUS
 10
-66.3892094268
 20
12.3340562657
 11
-66.3892094268
 21
-20.6659437343
  0
LINE
  5
723
100
AcDbEntity
  8
RACCORDO
100
AcDbLine
 62
250
  6
CONTINUOUS
 10
-66.0892094268
 20
31.8340562657
 11
-66.0892094268
 21
12.8340562657
  0
LINE
  5
724
100
AcDbEntity
  8
RACCORDO
100
AcDbLine
 62
250
  6
CONTINUOUS
 10
-66.0892094268
 20
0.6340562657
 11
-66.0892094268
 21
-8.9659437343
  0
LINE
  5
725
100
AcDbEntity
  8
RACCORDO
100
AcDbLine
 62
250
  6
CONTINUOUS
 10
-66.0892094268
 20
-21.1659437343
 11
-66.0892094268
 21
-40.1659437343
  0
LINE
  5
726
100
AcDbEntity
  8
RACCORDO
100
AcDbLine
 62
7
  6
CONTINUOUS
 10
-65.5892094268
 20
31.3340559261
 11
-65.5892094268
 21
13.3340566053
  0
LINE
  5
727
100
AcDbEntity
  8
RACCORDO
100
AcDbLine
 62
7
  6
CONTINUOUS
 10
-65.5892094268
 20
0.1340554316
 11
-65.5892094268
 21
-8.4659429002
  0
LINE
  5
728
100
AcDbEntity
  8
RACCORDO
100
AcDbLine
 62
7
  6
CONTINUOUS
 10
-65.5892094268
 20
-39.6659437343
 11
-65.5892094268
 21
-21.6659437343
  0
LINE
  5
729
100
AcDbEntity
  8
RACCORDO
100
AcDbLine
 62
7
  6
CONTINUOUS
 10
-66.5892546988
 20
35.6098455013
 11
-66.5892124863
 21
-43.8345309806
  0
LINE
  5
72A
100
AcDbEntity
  8
RACCORDO
100
AcDbLine
 62
7
  6
CONTINUOUS
 10
-66.5892124863
 20
-43.8345309806
 11
-66.5892546988
 21
-43.9417329699
  0
LWPOLYLINE
  5
72B
100
AcDbEntity
  8
0
100
AcDbPolyline
 62
250
  6
CONTINUOUS
 90
9
 70
0
 10
-127.0652858392
 20
-43.826126873
 10
-127.9264775917
 20
-44.0835506551
 10
-128.7106026771
 20
-44.2123231498
 10
-129.413556443
 20
-44.2380495242
 10
-130.0324103508
 20
-44.1961301433
 10
-130.5679018635
 20
-44.1325441844
 10
-131.0186158163
 20
-44.0884761605
 10
-131.3681315034
 20
-44.0662974495
 10
-131.5949852773
 20
-44.0594638501
  0
LINE
  5
72C
100
AcDbEntity
  8
COPY_PABLISH
100
AcDbLine
 62
250
  6
CONTINUOUS
 10
-124.6530531496
 20
31.3340562657
 11
-105.1892094268
 21
31.3340562657
  0
LINE
  5
72D
100
AcDbEntity
  8
RACCORDO
100
AcDbLine
 62
250
  6
CONTINUOUS
 10
-66.5892124863
 20
31.3340562657
 11
-103.5892094268
 21
31.3340562657
  0
LINE
  5
72E
100
AcDbEntity
  8
0
100
AcDbLine
 62
250
  6
CONTINUOUS
 10
-103.5892094268
 20
31.3340562657
 11
-105.1892094268
 21
31.3340562657
  0
LINE
  5
72F
100
AcDbEntity
  8
0
100
AcDbLine
 62
7
  6
CONTINUOUS
 10
-127.6106350196
 20
31.5842692657
 11
-127.6615811543
 21
31.5842692657
  0
LINE
  5
730
100
AcDbEntity
  8
ASSI
100
AcDbLine
 62
7
  6
CONTINUOUS
 10
-66.5892094268
 20
31.8340562657
 11
-66.0892094268
 21
31.8340562657
  0
LINE
  5
731
100
AcDbEntity
  8
RACCORDO
100
AcDbLine
 62
7
  6
CONTINUOUS
 10
-94.8043234325
 20
39.5696128293
 11
-92.8868687882
 21
40.0476879663
  0
LINE
  5
732
100
AcDbEntity
  8
RACCORDO
100
AcDbLine
 62
7
  6
CONTINUOUS
 10
-93.1432413348
 20
41.2688498627
 11
-90.9557438358
 21
41.8142542453
  0
LINE
  5
733
100
AcDbEntity
  8
ASSI
100
AcDbLine
 62
7
  6
CONTINUOUS
 10
-124.8281751068
 20
36.9880776941
 11
-124.7050260541
 21
36.9934056138
  0
LINE
  5
734
100
AcDbEntity
  8
COPY_PABLISH
100
AcDbLine
 62
7
  6
CONTINUOUS
 10
-105.1892094268
 20
37.3340562657
 11
-124.7562036889
 21
36.9925131104
  0
LINE
  5
735
100
AcDbEntity
  8
0
100
AcDbLine
 62
7
  6
CONTINUOUS
 10
-103.5892094268
 20
37.3340562657
 11
-105.1892094268
 21
37.3340562657
  0
LINE
  5
736
100
AcDbEntity
  8
0
100
AcDbLine
 62
7
  6
CONTINUOUS
 10
-67.6012441949
 20
36.7058839959
 11
-67.5913416946
 21
36.7057111472
  0
LINE
  5
737
100
AcDbEntity
  8
RACCORDO
100
AcDbLine
 62
7
  6
CONTINUOUS
 10
-67.6700117797
 20
36.7070843386
 11
-103.5892094268
 21
37.3340562657
  0
LINE
  5
738
100
AcDbEntity
  8
RACCORDO
100
AcDbLine
 62
250
  6
CONTINUOUS
 10
-95.5622492321
 20
38.6167695094
 11
-67.5665137677
 21
38.1281021292
  0
LINE
  5
739
100
AcDbEntity
  8
RACCORDO
100
AcDbLine
 62
7
  6
CONTINUOUS
 10
-91.3613920829
 20
43.0782202601
 11
-89.324573192
 21
43.5860562463
  0
LINE
  5
73A
100
AcDbEntity
  8
RACCORDO
100
AcDbLine
 62
7
  6
CONTINUOUS
 10
-89.5807119206
 20
44.8206135619
 11
-87.4434406243
 21
45.3534951457
  0
LINE
  5
73B
100
AcDbEntity
  8
RACCORDO
100
AcDbLine
 62
7
  6
CONTINUOUS
 10
-85.3017069126
 20
46.4452201684
 11
-82.4110425763
 21
47.1659437343
  0
LWPOLYLINE
  5
73C
100
AcDbEntity
  8
ASSI
100
AcDbPolyline
 62
7
  6
CONTINUOUS
 90
3
 70
0
 10
-125.0696083165
 20
36.9553082529
 10
-124.9497025276
 20
36.9753785738
 10
-124.8281751068
 20
36.9880776941
  0
LINE
  5
73D
100
AcDbEntity
  8
RACCORDO
100
AcDbLine
 62
250
  6
CONTINUOUS
 10
-94.8043234325
 20
39.5696128293
 11
-68.290724107
 21
39.1068162316
  0
LINE
  5
73E
100
AcDbEntity
  8
0
100
AcDbLine
 62
7
  6
CONTINUOUS
 10
-92.8868687882
 20
40.0476879663
 11
-70.1903261081
 21
39.6515183402
  0
LINE
  5
73F
100
AcDbEntity
  8
0
100
AcDbLine
 62
7
  6
CONTINUOUS
 10
-93.3780664325
 20
40.5563380171
 11
-69.6816760573
 21
40.1427159845
  0
LINE
  5
740
100
AcDbEntity
  8
RACCORDO
100
AcDbLine
 62
250
  6
CONTINUOUS
 10
-93.3706190746
 20
40.9829968668
 11
-69.6742286994
 21
40.5693748342
  0
LINE
  5
741
100
AcDbEntity
  8
RACCORDO
100
AcDbLine
 62
250
  6
CONTINUOUS
 10
-93.1432413348
 20
41.2688498627
 11
-69.8914918012
 21
40.8629890649
  0
LINE
  5
742
100
AcDbEntity
  8
0
100
AcDbLine
 62
7
  6
CONTINUOUS
 10
-90.9557438358
 20
41.8142542453
 11
-72.0586223973
 21
41.4844037637
  0
LINE
  5
743
100
AcDbEntity
  8
0
100
AcDbLine
 62
7
  6
CONTINUOUS
 10
-91.5969186344
 20
42.3255221571
 11
-71.3999951923
 21
41.9729835471
  0
LINE
  5
744
100
AcDbEntity
  8
0
100
AcDbLine
 62
7
  6
CONTINUOUS
 10
-67.5545124134
 20
-34.1424735452
 11
-67.6700117797
 21
-34.2425521931
  0
LINE
  5
745
100
AcDbEntity
  8
0
100
AcDbLine
 62
7
  6
CONTINUOUS
 10
-67.32681351
 20
-33.9465816088
 11
-67.5545124134
 21
-34.1424735452
  0
LINE
  5
746
100
AcDbEntity
  8
0
100
AcDbLine
 62
7
  6
CONTINUOUS
 10
-67.2166827038
 20
-33.8526390649
 11
-67.32681351
 21
-33.9465816088
  0
LWPOLYLINE
  5
747
100
AcDbEntity
  8
0
100
AcDbPolyline
 62
7
  6
CONTINUOUS
 90
5
 70
0
 10
-66.9573130374
 20
-33.6390861562
 10
-67.0068936419
 20
-33.6783893635
 10
-67.057741804
 20
-33.7197314925
 10
-67.1096619358
 20
-33.7628949523
 10
-67.2166827038
 20
-33.8526390649
  0
LINE
  5
748
100
AcDbEntity
  8
0
100
AcDbLine
 62
7
  6
CONTINUOUS
 10
-66.8635246346
 20
-33.5659437343
 11
-66.9573130374
 21
-33.6390861562
  0
LINE
  5
749
100
AcDbEntity
  8
RACCORDO
100
AcDbLine
 62
250
  6
CONTINUOUS
 10
-91.5887698228
 20
42.7923672641
 11
-71.3918463806
 21
42.4398286541
  0
LINE
  5
74A
100
AcDbEntity
  8
RACCORDO
100
AcDbLine
 62
250
  6
CONTINUOUS
 10
-91.3613920829
 20
43.0782202601
 11
-71.6091094824
 21
42.7334428848
  0
LINE
  5
74B
100
AcDbEntity
  8
0
100
AcDbLine
 62
7
  6
CONTINUOUS
 10
-89.324573192
 20
43.5860562463
 11
-73.626964378
 21
43.3120534653
  0
LINE
  5
74C
100
AcDbEntity
  8
0
100
AcDbLine
 62
7
  6
CONTINUOUS
 10
-89.8157708363
 20
44.0947062971
 11
-73.1183143272
 21
43.8032511096
  0
LINE
  5
74D
100
AcDbEntity
  8
RACCORDO
100
AcDbLine
 62
250
  6
CONTINUOUS
 10
-89.8080896605
 20
44.5347605659
 11
-73.1106331514
 21
44.2433053784
  0
LINE
  5
74E
100
AcDbEntity
  8
RACCORDO
100
AcDbLine
 62
250
  6
CONTINUOUS
 10
-89.5807119206
 20
44.8206135619
 11
-73.3278962532
 21
44.5369196091
  0
LINE
  5
74F
100
AcDbEntity
  8
0
100
AcDbLine
 62
7
  6
CONTINUOUS
 10
-87.4434406243
 20
45.3534951457
 11
-75.4452682825
 21
45.1440662684
  0
LINE
  5
750
100
AcDbEntity
  8
0
100
AcDbLine
 62
7
  6
CONTINUOUS
 10
-85.5350038003
 20
45.820259421
 11
-77.3362527
 21
45.6771496883
  0
LINE
  5
751
100
AcDbEntity
  8
RACCORDO
100
AcDbLine
 62
250
  6
CONTINUOUS
 10
-85.5290846525
 20
46.1593671725
 11
-77.3303335522
 21
46.0162574397
  0
LINE
  5
752
100
AcDbEntity
  8
RACCORDO
100
AcDbLine
 62
7
  6
CONTINUOUS
 10
-68.290724107
 20
39.1068162316
 11
-70.1903261081
 21
39.6515183402
  0
LINE
  5
753
100
AcDbEntity
  8
RACCORDO
100
AcDbLine
 62
250
  6
CONTINUOUS
 10
-85.3017069126
 20
46.4452201684
 11
-77.547596654
 21
46.3098716704
  0
LINE
  5
754
100
AcDbEntity
  8
0
100
AcDbLine
 62
7
  6
CONTINUOUS
 10
-82.4110425763
 20
47.1659437343
 11
-80.411347186
 21
47.1310389214
  0
LINE
  5
755
100
AcDbEntity
  8
RACCORDO
100
AcDbLine
 62
7
  6
CONTINUOUS
 10
-69.8914918012
 20
40.8629890649
 11
-72.0586223973
 21
41.4844037637
  0
LINE
  5
756
100
AcDbEntity
  8
RACCORDO
100
AcDbLine
 62
7
  6
CONTINUOUS
 10
-71.6091094824
 20
42.7334428848
 11
-73.626964378
 21
43.3120534653
  0
LINE
  5
757
100
AcDbEntity
  8
RACCORDO
100
AcDbLine
 62
7
  6
CONTINUOUS
 10
-73.3278962532
 20
44.5369196091
 11
-75.4452682825
 21
45.1440662684
  0
LINE
  5
758
100
AcDbEntity
  8
RACCORDO
100
AcDbLine
 62
7
  6
CONTINUOUS
 10
-77.547596654
 20
46.3098716704
 11
-80.411347186
 21
47.1310389214
  0
ARC
  5
759
100
AcDbEntity
  8
0
100
AcDbCircle
 62
7
  6
CONTINUOUS
 10
-45.0
 20
-39.6659437343
 40
6.0
100
AcDbArc
 50
180.0
 51
270.0
  0
ARC
  5
75A
100
AcDbEntity
  8
COPY_PABLISH
100
AcDbCircle
 62
7
  6
CONTINUOUS
 10
-45.0
 20
-39.6659437343
 40
6.0
100
AcDbArc
 50
180.0
 51
270.0
  0
ARC
  5
75B
100
AcDbEntity
  8
RACCORDO
100
AcDbCircle
 62
250
  6
CONTINUOUS
 10
-45.0
 20
-39.6659437343
 40
5.8165695012
100
AcDbArc
 50
180.0
 51
270.0
  0
ARC
  5
75C
100
AcDbEntity
  8
0
100
AcDbCircle
 62
7
  6
CONTINUOUS
 10
-45.0
 20
-39.6659429165
 40
5.8045012097
100
AcDbArc
 50
179.9999053417
 51
270.0001346675
  0
ARC
  5
75D
100
AcDbEntity
  8
0
100
AcDbCircle
 62
250
  6
CONTINUOUS
 10
-33.4499961757
 20
-26.365945248
 40
5.6999981714
100
AcDbArc
 50
179.9992877517
 51
270.0005342407
  0
ARC
  5
75E
100
AcDbEntity
  8
RACCORDO
100
AcDbCircle
 62
7
  6
CONTINUOUS
 10
-33.4485999419
 20
-26.3645436762
 40
1.8014006022
100
AcDbArc
 50
180.0
 51
270.0
  0
ARC
  5
75F
100
AcDbEntity
  8
RACCORDO
100
AcDbCircle
 62
250
  6
CONTINUOUS
 10
-33.4485999419
 20
-26.3645436762
 40
0.8013933246
100
AcDbArc
 50
180.0
 51
270.0
  0
ARC
  5
760
100
AcDbEntity
  8
RACCORDO
100
AcDbCircle
 62
7
  6
CONTINUOUS
 10
-25.95
 20
-44.5159437343
 40
0.75
100
AcDbArc
 50
261.8256448754
 51
270.0
  0
ARC
  5
761
100
AcDbEntity
  8
0
100
AcDbCircle
 62
7
  6
CONTINUOUS
 10
-45.0
 20
31.3340562657
 40
6.0
100
AcDbArc
 50
90.0
 51
180.0
  0
ARC
  5
762
100
AcDbEntity
  8
COPY_PABLISH
100
AcDbCircle
 62
7
  6
CONTINUOUS
 10
-45.0
 20
31.3340562657
 40
6.0
100
AcDbArc
 50
90.0
 51
180.0
  0
CIRCLE
  5
763
100
AcDbEntity
  8
DRAFT
100
AcDbCircle
 62
7
  6
CONTINUOUS
 10
-45.0
 20
31.3340562657
 40
3.15
  0
CIRCLE
  5
764
100
AcDbEntity
  8
RACCORDO
100
AcDbCircle
 62
7
  6
CONTINUOUS
 10
-45.0
 20
31.3340562657
 40
2.15
  0
CIRCLE
  5
765
100
AcDbEntity
  8
RACCORDO
100
AcDbCircle
 62
7
  6
CONTINUOUS
 10
-45.0
 20
31.3340562657
 40
1.9
  0
ARC
  5
766
100
AcDbEntity
  8
0
100
AcDbCircle
 62
7
  6
CONTINUOUS
 10
-45.0
 20
31.3340562657
 40
1.55
100
AcDbArc
 50
318.819063369
 51
44.8401754115
  0
ARC
  5
767
100
AcDbEntity
  8
0
100
AcDbCircle
 62
7
  6
CONTINUOUS
 10
-45.0
 20
31.3340562657
 40
1.55
100
AcDbArc
 50
75.1598245885
 51
161.180936631
  0
ARC
  5
768
100
AcDbEntity
  8
0
100
AcDbCircle
 62
7
  6
CONTINUOUS
 10
-45.0
 20
31.3340562657
 40
1.55
100
AcDbArc
 50
198.819063369
 51
281.180936631
  0
CIRCLE
  5
769
100
AcDbEntity
  8
0
100
AcDbCircle
 62
7
  6
CONTINUOUS
 10
-45.0
 20
31.3340562657
 40
1.5
  0
CIRCLE
  5
76A
100
AcDbEntity
  8
0
100
AcDbCircle
 62
7
  6
CONTINUOUS
 10
-45.0
 20
31.3340562657
 40
1.4
  0
ARC
  5
76B
100
AcDbEntity
  8
DRAFT
100
AcDbCircle
 62
7
  6
CONTINUOUS
 10
-42.55
 20
29.6340562657
 40
2.8
100
AcDbArc
 50
270.0
 51
360.0
  0
ARC
  5
76C
100
AcDbEntity
  8
COPY_PABLISH
100
AcDbCircle
 62
7
  6
CONTINUOUS
 10
-42.5
 20
29.6340562657
 40
2.5
100
AcDbArc
 50
270.0
 51
360.0
  0
ARC
  5
76D
100
AcDbEntity
  8
0
100
AcDbCircle
 62
250
  6
CONTINUOUS
 10
-33.4499961757
 20
18.0340562779
 40
5.7000554805
100
AcDbArc
 50
89.9990454604
 51
179.9991756859
  0
ARC
  5
76E
100
AcDbEntity
  8
RACCORDO
100
AcDbCircle
 62
7
  6
CONTINUOUS
 10
-33.4485956849
 20
18.0326519506
 40
1.8014048547
100
AcDbArc
 50
90.0
 51
180.0
  0
ARC
  5
76F
100
AcDbEntity
  8
RACCORDO
100
AcDbCircle
 62
250
  6
CONTINUOUS
 10
-33.4485956849
 20
18.0326519506
 40
0.8013975771
100
AcDbArc
 50
90.0
 51
180.0
  0
ARC
  5
770
100
AcDbEntity
  8
0
100
AcDbCircle
 62
7
  6
CONTINUOUS
 10
45.0
 20
-39.6659437343
 40
6.0
100
AcDbArc
 50
270.0
 51
360.0
  0
ARC
  5
771
100
AcDbEntity
  8
COPY_PABLISH
100
AcDbCircle
 62
7
  6
CONTINUOUS
 10
45.0
 20
-39.6659437343
 40
6.0
100
AcDbArc
 50
270.0
 51
360.0
  0
ARC
  5
772
100
AcDbEntity
  8
RACCORDO
100
AcDbCircle
 62
250
  6
CONTINUOUS
 10
45.0
 20
-39.6659437343
 40
5.8165695012
100
AcDbArc
 50
270.0
 51
360.0
  0
ARC
  5
773
100
AcDbEntity
  8
0
100
AcDbCircle
 62
7
  6
CONTINUOUS
 10
45.0
 20
-39.6659429165
 40
5.8045012097
100
AcDbArc
 50
269.9998653325
 51
0.0000767708
  0
ARC
  5
774
100
AcDbEntity
  8
RACCORDO
100
AcDbCircle
 62
7
  6
CONTINUOUS
 10
33.4485999419
 20
-26.3645436762
 40
1.8014006022
100
AcDbArc
 50
270.0
 51
360.0
  0
ARC
  5
775
100
AcDbEntity
  8
RACCORDO
100
AcDbCircle
 62
250
  6
CONTINUOUS
 10
33.4485999419
 20
-26.3645436762
 40
0.8013933246
100
AcDbArc
 50
270.0
 51
360.0
  0
ARC
  5
776
100
AcDbEntity
  8
RACCORDO
100
AcDbCircle
 62
7
  6
CONTINUOUS
 10
25.95
 20
-44.5159437343
 40
0.75
100
AcDbArc
 50
270.0
 51
278.1725472212
  0
ARC
  5
777
100
AcDbEntity
  8
0
100
AcDbCircle
 62
7
  6
CONTINUOUS
 10
7.706473
 20
30.2808552657
 40
1.303416637
100
AcDbArc
 50
292.8428913313
 51
90.0
  0
ARC
  5
778
100
AcDbEntity
  8
0
100
AcDbCircle
 62
7
  6
CONTINUOUS
 10
7.588491
 20
30.2808552657
 40
0.51713
100
AcDbArc
 50
270.0
 51
90.0
  0
ARC
  5
779
100
AcDbEntity
  8
0
100
AcDbCircle
 62
250
  6
CONTINUOUS
 10
33.4499961757
 20
18.0340562779
 40
5.6996894988
100
AcDbArc
 50
0.0007259339
 51
90.0007577791
  0
ARC
  5
77A
100
AcDbEntity
  8
RACCORDO
100
AcDbCircle
 62
7
  6
CONTINUOUS
 10
33.4485956849
 20
18.0326519506
 40
1.8014048547
100
AcDbArc
 50
0.0
 51
90.0
  0
ARC
  5
77B
100
AcDbEntity
  8
RACCORDO
100
AcDbCircle
 62
250
  6
CONTINUOUS
 10
33.4485956849
 20
18.0326519506
 40
0.8013975771
100
AcDbArc
 50
0.0
 51
90.0
  0
ARC
  5
77C
100
AcDbEntity
  8
DRAFT
100
AcDbCircle
 62
7
  6
CONTINUOUS
 10
42.55
 20
29.6340562657
 40
2.8
100
AcDbArc
 50
180.0
 51
270.0
  0
ARC
  5
77D
100
AcDbEntity
  8
COPY_PABLISH
100
AcDbCircle
 62
7
  6
CONTINUOUS
 10
42.5
 20
29.6340562657
 40
2.5
100
AcDbArc
 50
180.0
 51
270.0
  0
ARC
  5
77E
100
AcDbEntity
  8
0
100
AcDbCircle
 62
7
  6
CONTINUOUS
 10
45.0
 20
31.3340562657
 40
6.0
100
AcDbArc
 50
0.0
 51
90.0
  0
ARC
  5
77F
100
AcDbEntity
  8
COPY_PABLISH
100
AcDbCircle
 62
7
  6
CONTINUOUS
 10
45.0
 20
31.3340562657
 40
6.0
100
AcDbArc
 50
0.0
 51
90.0
  0
CIRCLE
  5
780
100
AcDbEntity
  8
DRAFT
100
AcDbCircle
 62
7
  6
CONTINUOUS
 10
45.0
 20
31.3340562657
 40
3.15
  0
CIRCLE
  5
781
100
AcDbEntity
  8
RACCORDO
100
AcDbCircle
 62
7
  6
CONTINUOUS
 10
45.0
 20
31.3340562657
 40
2.15
  0
CIRCLE
  5
782
100
AcDbEntity
  8
RACCORDO
100
AcDbCircle
 62
7
  6
CONTINUOUS
 10
45.0
 20
31.3340562657
 40
1.9
  0
ARC
  5
783
100
AcDbEntity
  8
0
100
AcDbCircle
 62
7
  6
CONTINUOUS
 10
45.0
 20
31.3340562657
 40
1.55
100
AcDbArc
 50
135.1598245885
 51
221.180936631
  0
ARC
  5
784
100
AcDbEntity
  8
0
100
AcDbCircle
 62
7
  6
CONTINUOUS
 10
45.0
 20
31.3340562657
 40
1.55
100
AcDbArc
 50
18.819063369
 51
104.8401754115
  0
ARC
  5
785
100
AcDbEntity
  8
0
100
AcDbCircle
 62
7
  6
CONTINUOUS
 10
45.0
 20
31.3340562657
 40
1.55
100
AcDbArc
 50
258.819063369
 51
341.180936631
  0
CIRCLE
  5
786
100
AcDbEntity
  8
0
100
AcDbCircle
 62
7
  6
CONTINUOUS
 10
45.0
 20
31.3340562657
 40
1.5
  0
CIRCLE
  5
787
100
AcDbEntity
  8
0
100
AcDbCircle
 62
7
  6
CONTINUOUS
 10
45.0
 20
31.3340562657
 40
1.4
  0
ARC
  5
788
100
AcDbEntity
  8
0
100
AcDbCircle
 62
7
  6
CONTINUOUS
 10
-131.3892111375
 20
-32.0659407685
 40
2.9999992065
100
AcDbArc
 50
337.7641245515
 51
36.8700501467
  0
ARC
  5
789
100
AcDbEntity
  8
0
100
AcDbCircle
 62
7
  6
CONTINUOUS
 10
-130.6892054185
 20
-44.2206767336
 40
1.0000067531
100
AcDbArc
 50
170.7207803973
 51
269.0026629717
  0
ARC
  5
78A
100
AcDbEntity
  8
RACCORDO
100
AcDbCircle
 62
7
  6
CONTINUOUS
 10
-129.1892094268
 20
-27.1659442784
 40
1.0
100
AcDbArc
 50
179.9999844136
 51
270.0
  0
ARC
  5
78B
100
AcDbEntity
  8
0
100
AcDbCircle
 62
7
  6
CONTINUOUS
 10
-128.1892371227
 20
-29.6659520138
 40
0.9999728757
100
AcDbArc
 50
175.8251938817
 51
216.8698180065
  0
ARC
  5
78C
100
AcDbEntity
  8
RACCORDO
100
AcDbCircle
 62
7
  6
CONTINUOUS
 10
-115.6892094268
 20
-44.9825893885
 40
0.5
100
AcDbArc
 50
180.0
 51
269.0
  0
ARC
  5
78D
100
AcDbEntity
  8
0
100
AcDbCircle
 62
7
  6
CONTINUOUS
 10
-131.3892560856
 20
23.7340718221
 40
3.0000466614
100
AcDbArc
 50
323.1301819413
 51
357.4002882931
  0
ARC
  5
78E
100
AcDbEntity
  8
0
100
AcDbCircle
 62
7
  6
CONTINUOUS
 10
-124.7212764968
 20
34.9927974197
 40
2.0000894328
100
AcDbArc
 50
102.7975844011
 51
149.7631719848
  0
ARC
  5
78F
100
AcDbEntity
  8
RACCORDO
100
AcDbCircle
 62
7
  6
CONTINUOUS
 10
-129.1892094268
 20
18.8340562657
 40
1.0
100
AcDbArc
 50
90.0
 51
179.9999845413
  0
ARC
  5
790
100
AcDbEntity
  8
0
100
AcDbCircle
 62
7
  6
CONTINUOUS
 10
-128.1892371227
 20
21.3340645452
 40
0.9999728757
100
AcDbArc
 50
143.1301819413
 51
183.7514578538
  0
ARC
  5
791
100
AcDbEntity
  8
0
100
AcDbCircle
 62
7
  6
CONTINUOUS
 10
-82.3304087295
 20
-52.1217137343
 40
50.0000015031
100
AcDbArc
 50
157.7641019934
 51
170.7207803953
  0
ARC
  5
792
100
AcDbEntity
  8
RACCORDO
100
AcDbCircle
 62
7
  6
CONTINUOUS
 10
-67.6892094268
 20
-43.9391393425
 40
1.1
100
AcDbArc
 50
271.0
 51
359.8648670373
  0
ARC
  5
793
100
AcDbEntity
  8
RACCORDO
100
AcDbCircle
 62
7
  6
CONTINUOUS
 10
-66.0892094268
 20
-39.6659437343
 40
0.5
100
AcDbArc
 50
270.0
 51
360.0
  0
ARC
  5
794
100
AcDbEntity
  8
RACCORDO
100
AcDbCircle
 62
7
  6
CONTINUOUS
 10
-66.0892094268
 20
-21.6659437343
 40
0.5
100
AcDbArc
 50
0.0
 51
90.0
  0
ARC
  5
795
100
AcDbEntity
  8
RACCORDO
100
AcDbCircle
 62
7
  6
CONTINUOUS
 10
-66.0892094268
 20
-8.4659437343
 40
0.5
100
AcDbArc
 50
270.0
 51
360.0
  0
ARC
  5
796
100
AcDbEntity
  8
RACCORDO
100
AcDbCircle
 62
7
  6
CONTINUOUS
 10
-67.6892094268
 20
35.6072518739
 40
1.1
100
AcDbArc
 50
0.1351329627
 51
89.0
  0
ARC
  5
797
100
AcDbEntity
  8
RACCORDO
100
AcDbCircle
 62
7
  6
CONTINUOUS
 10
-68.5663614629
 20
38.1455545356
 40
1.0
100
AcDbArc
 50
359.0
 51
74.0
  0
ARC
  5
798
100
AcDbEntity
  8
RACCORDO
100
AcDbCircle
 62
7
  6
CONTINUOUS
 10
-94.5624015369
 20
38.599317103
 40
1.0
100
AcDbArc
 50
104.0
 51
179.0
  0
ARC
  5
799
100
AcDbEntity
  8
RACCORDO
100
AcDbCircle
 62
7
  6
CONTINUOUS
 10
-66.0892094268
 20
0.1340562657
 40
0.5
100
AcDbArc
 50
0.0
 51
90.0
  0
ARC
  5
79A
100
AcDbEntity
  8
RACCORDO
100
AcDbCircle
 62
7
  6
CONTINUOUS
 10
-66.0892094268
 20
13.3340562657
 40
0.5
100
AcDbArc
 50
270.0
 51
360.0
  0
ARC
  5
79B
100
AcDbEntity
  8
RACCORDO
100
AcDbCircle
 62
7
  6
CONTINUOUS
 10
-66.0892094268
 20
31.3340562657
 40
0.5
100
AcDbArc
 50
0.0
 51
90.0
  0
ARC
  5
79C
100
AcDbEntity
  8
RACCORDO
100
AcDbCircle
 62
7
  6
CONTINUOUS
 10
-77.6302878608
 20
46.0214931616
 40
0.3
100
AcDbArc
 50
359.0
 51
74.0000000076
  0
ARC
  5
79D
100
AcDbEntity
  8
RACCORDO
100
AcDbCircle
 62
7
  6
CONTINUOUS
 10
-85.229130344
 20
46.1541314506
 40
0.3
100
AcDbArc
 50
103.9999999924
 51
179.0
  0
ARC
  5
79E
100
AcDbEntity
  8
RACCORDO
100
AcDbCircle
 62
7
  6
CONTINUOUS
 10
-73.4105874599
 20
44.2485411003
 40
0.3
100
AcDbArc
 50
359.0
 51
74.0000000002
  0
ARC
  5
79F
100
AcDbEntity
  8
RACCORDO
100
AcDbCircle
 62
7
  6
CONTINUOUS
 10
-89.5081353519
 20
44.529524844
 40
0.3
100
AcDbArc
 50
103.9999999998
 51
179.0
  0
ARC
  5
7A0
100
AcDbEntity
  8
RACCORDO
100
AcDbCircle
 62
7
  6
CONTINUOUS
 10
-71.6918006892
 20
42.445064376
 40
0.3
100
AcDbArc
 50
359.0
 51
74.0
  0
ARC
  5
7A1
100
AcDbEntity
  8
RACCORDO
100
AcDbCircle
 62
7
  6
CONTINUOUS
 10
-91.2888155142
 20
42.7871315422
 40
0.3
100
AcDbArc
 50
104.0
 51
179.0
  0
ARC
  5
7A2
100
AcDbEntity
  8
RACCORDO
100
AcDbCircle
 62
7
  6
CONTINUOUS
 10
-69.974183008
 20
40.5746105561
 40
0.3
100
AcDbArc
 50
359.0
 51
74.0000000001
  0
ARC
  5
7A3
100
AcDbEntity
  8
RACCORDO
100
AcDbCircle
 62
7
  6
CONTINUOUS
 10
-93.0706647661
 20
40.9777611448
 40
0.3
100
AcDbArc
 50
103.9999999999
 51
179.0
  0
ELLIPSE
  5
7A4
100
AcDbEntity
  8
RACCORDO
100
AcDbEllipse
 62
7
  6
CONTINUOUS
 10
50.3166456542
 20
20.8473000355
 30
0.0
 11
0.5
 21
0.0
 31
0.0
 40
0.5735124604
 41
0.0174532925
 42
0.2040827128
  0
ELLIPSE
  5
7A5
100
AcDbEntity
  8
RACCORDO
100
AcDbEllipse
 62
7
  6
CONTINUOUS
 10
-50.3166456542
 20
20.8473000355
 30
0.0
 11
0.5
 21
0.0
 31
0.0
 40
0.5735124604
 41
2.9375076835
 42
3.1241393611
  0
ENDSEC
  0
SECTION
  2
OBJECTS
  0
DICTIONARY
  5
C
100
AcDbDictionary
280
0
281
1
  3
ACAD_GROUP
350
D
  3
ACAD_MLINESTYLE
350
17
  3
ACAD_LAYOUT
350
1A
  3
ACAD_PLOTSETTINGS
350
19
  3
ACAD_PLOTSTYLENAME
350
E
  0
DICTIONARY
  5
D
102
{ACAD_REACTORS
330
C
102
}
100
AcDbDictionary
280
0
281
1
  0
ACDBDICTIONARYWDFLT
  5
E
102
{ACAD_REACTORS
330
C
102
}
100
AcDbDictionary
281
1
  3
Normal
350
F
100
AcDbDictionaryWithDefault
340
F
  0
DICTIONARY
  5
17
102
{ACAD_REACTORS
330
C
102
}
100
AcDbDictionary
280
0
281
1
  3
Standard
350
18
  0
DICTIONARY
  5
19
102
{ACAD_REACTORS
330
C
102
}
100
AcDbDictionary
281
1
  0
DICTIONARY
  5
1A
102
{ACAD_REACTORS
330
C
102
}
100
AcDbDictionary
281
1
  3
Model
350
7A6
  3
Layout1
350
7A7
  0
ACDBPLACEHOLDER
  5
F
102
{ACAD_REACTORS
330
E
102
}
  0
MLINESTYLE
  5
18
102
{ACAD_REACTORS
330
17
102
}
100
AcDbMlineStyle
  2
STANDARD
 70
0
  3

 62
256
 51
90.0
 52
90.0
 71
2
 49
0.5
 62
256
  6
BYLAYER
 49
-0.5
 62
256
  6
BYLAYER
  0
LAYOUT
  5
7A6
102
{ACAD_REACTORS
330
1A
102
}
100
AcDbPlotSettings
  1

  2
none_device
  4
ISO_A4_(297.00_x_210.00_MM)
  6

 40
0.0
 41
0.0
 42
0.0
 43
0.0
 44
297.0
 45
210.0
 46
0.0
 47
0.0
 48
0.0
 49
0.0
140
0.0
141
0.0
142
1.0
143
1.0
 70
1024
 72
1
 73
0
 74
0
  7

 75
0
147
1.0
148
0.0
149
0.0
100
AcDbLayout
  1
Model
 70
0
 71
0
 10
0.0
 20
0.0
 11
297.0
 21
210.0
 12
0.0
 22
0.0
 32
0.0
 14
0.0
 24
0.0
 34
0.0
 15
0.0
 25
0.0
 35
0.0
146
0.0
 13
0.0
 23
0.0
 33
0.0
 16
1.0
 26
0.0
 36
0.0
 17
0.0
 27
1.0
 37
0.0
 76
0
330
21A
345
0
346
0
  0
LAYOUT
  5
7A7
102
{ACAD_REACTORS
330
1A
102
}
100
AcDbPlotSettings
  1

  2
none_device
  4
ISO_A4_(297.00_x_210.00_MM)
  6

 40
0.0
 41
0.0
 42
0.0
 43
0.0
 44
297.0
 45
210.0
 46
0.0
 47
0.0
 48
0.0
 49
0.0
140
0.0
141
0.0
142
1.0
143
1.0
 70
0
 72
1
 73
0
 74
0
  7

 75
0
147
1.0
148
0.0
149
0.0
100
AcDbLayout
  1
Layout1
 70
0
 71
1
 10
0.0
 20
0.0
 11
297.0
 21
210.0
 12
0.0
 22
0.0
 32
0.0
 14
0.0
 24
0.0
 34
0.0
 15
0.0
 25
0.0
 35
0.0
146
0.0
 13
0.0
 23
0.0
 33
0.0
 16
1.0
 26
0.0
 36
0.0
 17
0.0
 27
1.0
 37
0.0
 76
0
330
21B
345
0
346
0
  0
ENDSEC
  0
EOF
