  0
SECTION
  2
HEADER
  9
$ACADVER
  1
AC1024
  9
$DWGCODEPAGE
  3
ANSI_1252
  9
$EXTMAX
 10
297.0
 20
210.0
 30
0.0
  9
$EXTMIN
 10
0.0
 20
0.0
 30
0.0
  9
$LIMMIN
 10
0.0
 20
0.0
  9
$LIMMAX
 10
297.0
 20
210.0
  9
$VIEWCTR
 10
148.5
 20
105.0
  9
$VIEWSIZE
 40
210.0
  9
$CLAYER
  8
0
  9
$LTSCALE
 40
16.335
  9
$CELTYPE
  6
BYLAYER
  9
$DIMSCALE
 40
1.0
  9
$DIMASZ
 40
3.0
  9
$DIMEXO
 40
0.5
  9
$DIMDLI
 40
11.286
  9
$DIMEXE
 40
1.5
  9
$DIMCEN
 40
2.673
  9
$DIMLFAC
 40
1.0
  9
$DIMBLK
  1
_FILLED
  9
$DIMALT
 70
0
  9
$DIMALTF
 40
0.0393700787
  9
$DIMTXT
 40
3.0
  9
$DIMTOL
 70
1
  9
$DIMLIM
 70
0
  9
$DIMTFAC
 40
1.0
  9
$DIMTP
 40
0.01
  9
$DIMTM
 40
0.01
  9
$DIMGAP
 40
0.625
  9
$DIMDSEP
 70
44
  9
$AUNITS
 70
0
  9
$PDMODE
 70
3
  9
$PDSIZE
 40
3.0
  9
$HANDSEED
  5
705
  9
$TILEMODE
 70
1
  9
$MEASUREMENT
 70
1
  9
$INSUNITS
 70
4
  0
ENDSEC
  0
SECTION
  2
CLASSES
  0
CLASS
  1
ACDBDICTIONARYWDFLT
  2
AcDbDictionaryWithDefault
  3
AutoCAD 2000
 90
0
 91
1
280
0
281
0
  0
CLASS
  1
ACDBPLACEHOLDER
  2
AcDbPlaceHolder
  3
AutoCAD 2000
 90
0
 91
1
280
0
281
0
  0
CLASS
  1
LAYOUT
  2
AcDbLayout
  3
AutoCAD 2000
 90
0
 91
0
280
0
281
0
  0
ENDSEC
  0
SECTION
  2
TABLES
  0
TABLE
  2
VPORT
  5
8
100
AcDbSymbolTable
 70
2
  0
VPORT
  5
1F4
100
AcDbSymbolTableRecord
100
AcDbViewportTableRecord
  2
*ACTIVE
 70
0
 10
0.0
 20
0.0
 11
1.0
 21
1.0
 12
148.5
 22
105.0
 13
0.0
 23
0.0
 14
1.0
 24
1.0
 15
0.0
 25
0.0
 16
0.0
 26
0.0
 36
1.0
 17
0.0
 27
0.0
 37
0.0
 40
210.0
 41
1.4142857143
 42
50.0
 43
0.0
 44
0.0
 50
0.0
 51
0.0
 71
0
 72
100
 73
1
 74
1
 75
0
 76
0
 77
0
 78
0
  0
ENDTAB
  0
TABLE
  2
LTYPE
  5
5
100
AcDbSymbolTable
 70
6
  0
LTYPE
  5
14
100
AcDbSymbolTableRecord
100
AcDbLinetypeTableRecord
  2
BYBLOCK
 70
0
  3

 72
65
 73
0
 40
0.0
  0
LTYPE
  5
15
100
AcDbSymbolTableRecord
100
AcDbLinetypeTableRecord
  2
BYLAYER
 70
0
  3

 72
65
 73
0
 40
0.0
  0
LTYPE
  5
16
100
AcDbSymbolTableRecord
100
AcDbLinetypeTableRecord
  2
CONTINUOUS
 70
64
  3
Solid line
 72
65
 73
0
 40
0.0
  0
LTYPE
  5
1F5
100
AcDbSymbolTableRecord
100
AcDbLinetypeTableRecord
  2
CENTER
 70
64
  3
____ _ ____ _ ____ _ ____ _ ____ _ ____ _ ____
 72
65
 73
4
 40
0.6
 49
0.375
 74
0
 49
-0.075
 74
0
 49
0.075
 74
0
 49
-0.075
 74
0
  0
LTYPE
  5
1F6
100
AcDbSymbolTableRecord
100
AcDbLinetypeTableRecord
  2
HIDDEN
 70
64
  3
- - - - - - - - - - - - - - - - - - - -
 72
65
 73
2
 40
0.2
 49
0.1
 74
0
 49
-0.1
 74
0
  0
LTYPE
  5
1F7
100
AcDbSymbolTableRecord
100
AcDbLinetypeTableRecord
  2
PHANTOM
 70
64
  3
_____ _ _ _____ _ _ _____ _ _ _____
 72
65
 73
6
 40
0.8
 49
0.45
 74
0
 49
-0.05
 74
0
 49
0.1
 74
0
 49
-0.05
 74
0
 49
0.1
 74
0
 49
-0.05
 74
0
  0
LTYPE
  5
1F8
100
AcDbSymbolTableRecord
100
AcDbLinetypeTableRecord
  2
DOT
 70
64
  3
. . . . . . . . . . . . . . . . . . . .
 72
65
 73
2
 40
0.2
 49
0.1
 74
0
 49
-0.1
 74
0
  0
LTYPE
  5
1F9
100
AcDbSymbolTableRecord
100
AcDbLinetypeTableRecord
  2
DASHED
 70
64
  3
- - - - - - - - - - - - - - - - - - - -
 72
65
 73
2
 40
0.2
 49
0.1
 74
0
 49
-0.1
 74
0
  0
ENDTAB
  0
TABLE
  2
LAYER
  5
2
100
AcDbSymbolTable
 70
36
  0
LAYER
  5
10
100
AcDbSymbolTableRecord
100
AcDbLayerTableRecord
  2
0
 70
0
 62
7
  6
CONTINUOUS
370
-3
390
F
  0
LAYER
  5
1FA
100
AcDbSymbolTableRecord
100
AcDbLayerTableRecord
  2
DEFAULT_1
 70
0
 62
7
  6
CENTER
370
-3
390
F
  0
LAYER
  5
1FB
100
AcDbSymbolTableRecord
100
AcDbLayerTableRecord
  2
DEFAULT_2
 70
0
 62
7
  6
HIDDEN
370
-3
390
F
  0
LAYER
  5
1FC
100
AcDbSymbolTableRecord
100
AcDbLayerTableRecord
  2
DEFAULT_3
 70
0
 62
7
  6
PHANTOM
370
-3
390
F
  0
LAYER
  5
1FD
100
AcDbSymbolTableRecord
100
AcDbLayerTableRecord
  2
1_IMPORT
 70
0
 62
7
  6
CONTINUOUS
370
-3
390
F
  0
LAYER
  5
1FE
100
AcDbSymbolTableRecord
100
AcDbLayerTableRecord
  2
21714904_SKEL
 70
0
 62
7
  6
CONTINUOUS
370
-3
390
F
  0
LAYER
  5
1FF
100
AcDbSymbolTableRecord
100
AcDbLayerTableRecord
  2
ASSI
 70
0
 62
7
  6
CONTINUOUS
370
-3
390
F
  0
LAYER
  5
200
100
AcDbSymbolTableRecord
100
AcDbLayerTableRecord
  2
COLOR5
 70
0
 62
7
  6
CONTINUOUS
370
-3
390
F
  0
LAYER
  5
201
100
AcDbSymbolTableRecord
100
AcDbLayerTableRecord
  2
COORDINATE
 70
0
 62
7
  6
CONTINUOUS
370
-3
390
F
  0
LAYER
  5
202
100
AcDbSymbolTableRecord
100
AcDbLayerTableRecord
  2
COORD_ORIGINE
 70
0
 62
7
  6
CONTINUOUS
370
-3
390
F
  0
LAYER
  5
203
100
AcDbSymbolTableRecord
100
AcDbLayerTableRecord
  2
COPY_GEOM
 70
0
 62
7
  6
CONTINUOUS
370
-3
390
F
  0
LAYER
  5
204
100
AcDbSymbolTableRecord
100
AcDbLayerTableRecord
  2
CURVE
 70
0
 62
7
  6
CONTINUOUS
370
-3
390
F
  0
LAYER
  5
205
100
AcDbSymbolTableRecord
100
AcDbLayerTableRecord
  2
DRAFT
 70
0
 62
7
  6
CONTINUOUS
370
-3
390
F
  0
LAYER
  5
206
100
AcDbSymbolTableRecord
100
AcDbLayerTableRecord
  2
IGES_INCISIONI
 70
0
 62
7
  6
CONTINUOUS
370
-3
390
F
  0
LAYER
  5
207
100
AcDbSymbolTableRecord
100
AcDbLayerTableRecord
  2
IGES_SCRITTE
 70
0
 62
7
  6
CONTINUOUS
370
-3
390
F
  0
LAYER
  5
208
100
AcDbSymbolTableRecord
100
AcDbLayerTableRecord
  2
INTF_1
 70
0
 62
7
  6
CONTINUOUS
370
-3
390
F
  0
LAYER
  5
209
100
AcDbSymbolTableRecord
100
AcDbLayerTableRecord
  2
INTF_7
 70
0
 62
7
  6
CONTINUOUS
370
-3
390
F
  0
LAYER
  5
20A
100
AcDbSymbolTableRecord
100
AcDbLayerTableRecord
  2
LAY0001
 70
0
 62
7
  6
CONTINUOUS
370
-3
390
F
  0
LAYER
  5
20B
100
AcDbSymbolTableRecord
100
AcDbLayerTableRecord
  2
MARCHI
 70
0
 62
7
  6
CONTINUOUS
370
-3
390
F
  0
LAYER
  5
20C
100
AcDbSymbolTableRecord
100
AcDbLayerTableRecord
  2
NOTE
 70
0
 62
7
  6
CONTINUOUS
370
-3
390
F
  0
LAYER
  5
20D
100
AcDbSymbolTableRecord
100
AcDbLayerTableRecord
  2
PIANI
 70
0
 62
7
  6
CONTINUOUS
370
-3
390
F
  0
LAYER
  5
20E
100
AcDbSymbolTableRecord
100
AcDbLayerTableRecord
  2
PIANI_ORIGINE
 70
0
 62
7
  6
CONTINUOUS
370
-3
390
F
  0
LAYER
  5
20F
100
AcDbSymbolTableRecord
100
AcDbLayerTableRecord
  2
PUNTI
 70
0
 62
7
  6
CONTINUOUS
370
-3
390
F
  0
LAYER
  5
210
100
AcDbSymbolTableRecord
100
AcDbLayerTableRecord
  2
RACCORDO
 70
0
 62
7
  6
CONTINUOUS
370
-3
390
F
  0
LAYER
  5
211
100
AcDbSymbolTableRecord
100
AcDbLayerTableRecord
  2
RGB__255__255__255__
 70
0
 62
7
  6
CONTINUOUS
370
-3
390
F
  0
LAYER
  5
212
100
AcDbSymbolTableRecord
100
AcDbLayerTableRecord
  2
RGB____0____0____0__
 70
0
 62
7
  6
CONTINUOUS
370
-3
390
F
  0
LAYER
  5
213
100
AcDbSymbolTableRecord
100
AcDbLayerTableRecord
  2
SCATOLA
 70
0
 62
7
  6
CONTINUOUS
370
-3
390
F
  0
LAYER
  5
214
100
AcDbSymbolTableRecord
100
AcDbLayerTableRecord
  2
SKEL
 70
0
 62
7
  6
CONTINUOUS
370
-3
390
F
  0
LAYER
  5
215
100
AcDbSymbolTableRecord
100
AcDbLayerTableRecord
  2
SMUSSO
 70
0
 62
7
  6
CONTINUOUS
370
-3
390
F
  0
LAYER
  5
216
100
AcDbSymbolTableRecord
100
AcDbLayerTableRecord
  2
SNAPLINE
 70
0
 62
7
  6
CONTINUOUS
370
-3
390
F
  0
LAYER
  5
217
100
AcDbSymbolTableRecord
100
AcDbLayerTableRecord
  2
SOLIDO
 70
0
 62
7
  6
CONTINUOUS
370
-3
390
F
  0
LAYER
  5
218
100
AcDbSymbolTableRecord
100
AcDbLayerTableRecord
  2
SUPERFICI
 70
0
 62
7
  6
CONTINUOUS
370
-3
390
F
  0
LAYER
  5
219
100
AcDbSymbolTableRecord
100
AcDbLayerTableRecord
  2
SUP_APP
 70
0
 62
7
  6
CONTINUOUS
370
-3
390
F
  0
LAYER
  5
21A
100
AcDbSymbolTableRecord
100
AcDbLayerTableRecord
  2
TRASH
 70
0
 62
7
  6
CONTINUOUS
370
-3
390
F
  0
LAYER
  5
21B
100
AcDbSymbolTableRecord
100
AcDbLayerTableRecord
  2
XSEC_DATUMS
 70
0
 62
7
  6
CONTINUOUS
370
-3
390
F
  0
ENDTAB
  0
TABLE
  2
STYLE
  5
3
100
AcDbSymbolTable
 70
1
  0
STYLE
  5
11
100
AcDbSymbolTableRecord
100
AcDbTextStyleTableRecord
  2
STANDARD
 70
0
 40
0.0
 41
0.8
 50
0.0
 71
0
 42
0.2
  3
txt
  4

  0
STYLE
  5
21C
100
AcDbSymbolTableRecord
100
AcDbTextStyleTableRecord
  2
TEXTSTYLE_1
 70
0
 40
0.0
 41
0.8
 50
0.0
 71
0
 42
0.2
  3
gdt
  4

  0
ENDTAB
  0
TABLE
  2
VIEW
  5
6
100
AcDbSymbolTable
 70
0
  0
ENDTAB
  0
TABLE
  2
UCS
  5
7
100
AcDbSymbolTable
 70
0
  0
ENDTAB
  0
TABLE
  2
APPID
  5
9
100
AcDbSymbolTable
 70
1
  0
APPID
  5
21D
100
AcDbSymbolTableRecord
100
AcDbRegAppTableRecord
  2
ACAD
 70
0
  0
ENDTAB
  0
TABLE
  2
BLOCK_RECORD
  5
1
100
AcDbSymbolTable
 70
0
  0
BLOCK_RECORD
  5
21E
100
AcDbSymbolTableRecord
100
AcDbBlockTableRecord
  2
*Model_Space
  0
BLOCK_RECORD
  5
21F
100
AcDbSymbolTableRecord
100
AcDbBlockTableRecord
  2
*Paper_Space
  0
BLOCK_RECORD
  5
220
100
AcDbSymbolTableRecord
100
AcDbBlockTableRecord
  2
_FILLED
  0
BLOCK_RECORD
  5
221
100
AcDbSymbolTableRecord
100
AcDbBlockTableRecord
  2
*D0
  0
BLOCK_RECORD
  5
222
100
AcDbSymbolTableRecord
100
AcDbBlockTableRecord
  2
*D1
  0
BLOCK_RECORD
  5
223
100
AcDbSymbolTableRecord
100
AcDbBlockTableRecord
  2
*D2
  0
ENDTAB
  0
TABLE
  2
DIMSTYLE
  5
A
100
AcDbSymbolTable
 70
1
100
AcDbDimStyleTable
 71
0
  0
DIMSTYLE
105
224
100
AcDbSymbolTableRecord
100
AcDbDimStyleTableRecord
  2
STANDARD
 70
0
  3

  4

 40
1.0
 41
3.0
 42
0.5
 43
0.38
 44
1.5
 45
0.0
 46
0.0
 47
0.01
 48
0.01
140
3.0
141
0.09
142
0.0
143
25.4
144
1.0
145
0.0
146
1.0
147
0.625
 71
1
 72
0
 73
0
 74
0
 75
0
 76
0
 77
1
 78
8
 79
2
170
0
171
1
172
0
173
0
174
0
175
0
176
0
177
0
178
0
270
2
179
2
271
2
272
2
273
2
274
2
275
0
280
0
281
0
282
0
283
1
284
8
285
0
286
0
287
3
288
0
340
11
278
44
341
220
342
220
343
220
344
220
  0
DIMSTYLE
105
225
100
AcDbSymbolTableRecord
100
AcDbDimStyleTableRecord
  2
DIMSTYLE_1
 70
0
  3

  4

 40
1.0
 41
3.0
 42
0.5
 43
0.38
 44
1.5
 45
0.0
 46
0.0
 47
0.0
 48
0.0
140
3.0
141
0.09
142
0.0
143
25.4
144
1.0
145
0.0
146
1.0
147
0.75
 71
0
 72
0
 73
0
 74
0
 75
0
 76
0
 77
1
 78
8
 79
2
170
0
171
1
172
0
173
0
174
0
175
0
176
0
177
0
178
0
270
2
179
2
271
2
272
2
273
2
274
2
275
0
280
0
281
0
282
0
283
1
284
8
285
0
286
0
287
3
288
0
340
11
278
44
341
220
342
220
343
220
344
220
  0
DIMSTYLE
105
226
100
AcDbSymbolTableRecord
100
AcDbDimStyleTableRecord
  2
DIMSTYLE_2
 70
0
  3

  4

 40
1.0
 41
3.0
 42
0.5
 43
0.38
 44
1.5
 45
0.0
 46
0.0
 47
0.0
 48
0.0
140
3.0
141
0.09
142
0.0
143
25.4
144
1.0
145
0.0
146
1.0
147
0.75
 71
0
 72
0
 73
0
 74
0
 75
0
 76
0
 77
1
 78
8
 79
2
170
0
171
1
172
0
173
0
174
0
175
0
176
0
177
0
178
0
270
2
179
2
271
0
272
0
273
2
274
2
275
0
280
0
281
0
282
0
283
1
284
8
285
0
286
0
287
3
288
0
340
11
278
44
341
220
342
220
343
220
344
220
  0
ENDTAB
  0
ENDSEC
  0
SECTION
  2
BLOCKS
  0
BLOCK
  5
20
100
AcDbEntity
  8
0
100
AcDbBlockBegin
  2
*Model_Space
 70
0
 10
0.0
 20
0.0
 30
0.0
  3
*Model_Space
  1

  0
ENDBLK
  5
21
100
AcDbEntity
  8
0
100
AcDbBlockEnd
  0
BLOCK
  5
1C
100
AcDbEntity
  8
0
100
AcDbBlockBegin
  2
*Paper_Space
 70
0
 10
0.0
 20
0.0
 30
0.0
  3
*Paper_Space
  1

  0
ENDBLK
  5
1D
100
AcDbEntity
  8
0
100
AcDbBlockEnd
  0
BLOCK
  5
227
100
AcDbEntity
  8
0
100
AcDbBlockBegin
  2
_FILLED
 70
64
 10
0.0
 20
0.0
  3
_FILLED
  1

  0
SOLID
  5
228
100
AcDbEntity
  8
0
  6
BYBLOCK
 62
0
100
AcDbTrace
 10
0.0
 20
0.0
 11
-1.0
 21
0.3166666667
 12
-1.0
 22
-0.3166666667
 13
-1.0
 23
-0.3166666667
  0
ENDBLK
  5
229
100
AcDbEntity
  8
0
  6
BYBLOCK
 62
0
100
AcDbBlockEnd
  0
BLOCK
  5
22A
100
AcDbEntity
  8
0
100
AcDbBlockBegin
 62
7
  6
CONTINUOUS
  2
*D0
 70
65
 10
0.0
 20
0.0
  3
*D0
  1

  0
LINE
  5
22B
100
AcDbEntity
  8
0
100
AcDbLine
 62
7
  6
CONTINUOUS
 10
-68.0
 20
36.0000000253
 11
-68.0
 21
51.0000001122
  0
LINE
  5
22C
100
AcDbEntity
  8
0
100
AcDbLine
 62
7
  6
CONTINUOUS
 10
68.0
 20
36.0000000253
 11
68.0
 21
51.0000001122
  0
LINE
  5
22D
100
AcDbEntity
  8
0
100
AcDbLine
 62
7
  6
CONTINUOUS
 10
-68.0
 20
49.5000001122
 11
0.0
 21
49.5000001122
  0
LINE
  5
22E
100
AcDbEntity
  8
0
100
AcDbLine
 62
7
  6
CONTINUOUS
 10
68.0
 20
49.5000001122
 11
0.0
 21
49.5000001122
  0
INSERT
  5
22F
100
AcDbEntity
  8
0
100
AcDbBlockReference
 62
7
  6
CONTINUOUS
  2
_FILLED
 10
-68.0
 20
49.5000001122
 41
3.0
 42
3.0
 43
3.0
 50
180.0
  0
INSERT
  5
230
100
AcDbEntity
  8
0
100
AcDbBlockReference
 62
7
  6
CONTINUOUS
  2
_FILLED
 10
68.0
 20
49.5000001122
 41
3.0
 42
3.0
 43
3.0
  0
ENDBLK
  5
231
100
AcDbEntity
  8
0
  6
BYBLOCK
 62
0
100
AcDbBlockEnd
  0
BLOCK
  5
232
100
AcDbEntity
  8
0
100
AcDbBlockBegin
 62
7
  6
CONTINUOUS
  2
*D1
 70
65
 10
0.0
 20
0.0
  3
*D1
  1

  0
LINE
  5
233
100
AcDbEntity
  8
0
100
AcDbLine
 62
7
  6
CONTINUOUS
 10
-85.6662385975
 20
35.999997283
 11
-85.6662385975
 21
51.0000001122
  0
LINE
  5
234
100
AcDbEntity
  8
0
100
AcDbLine
 62
7
  6
CONTINUOUS
 10
-151.7662433873
 20
-39.5547402411
 11
-151.7662433873
 21
51.0000001122
  0
LINE
  5
235
100
AcDbEntity
  8
0
100
AcDbLine
 62
7
  6
CONTINUOUS
 10
-85.6662385975
 20
49.5000001122
 11
-118.7162409924
 21
49.5000001122
  0
LINE
  5
236
100
AcDbEntity
  8
0
100
AcDbLine
 62
7
  6
CONTINUOUS
 10
-151.7662433873
 20
49.5000001122
 11
-118.7162409924
 21
49.5000001122
  0
INSERT
  5
237
100
AcDbEntity
  8
0
100
AcDbBlockReference
 62
7
  6
CONTINUOUS
  2
_FILLED
 10
-85.6662385975
 20
49.5000001122
 41
3.0
 42
3.0
 43
3.0
 50
360.0
  0
INSERT
  5
238
100
AcDbEntity
  8
0
100
AcDbBlockReference
 62
7
  6
CONTINUOUS
  2
_FILLED
 10
-151.7662433873
 20
49.5000001122
 41
3.0
 42
3.0
 43
3.0
 50
180.0
  0
ENDBLK
  5
239
100
AcDbEntity
  8
0
  6
BYBLOCK
 62
0
100
AcDbBlockEnd
  0
BLOCK
  5
23A
100
AcDbEntity
  8
0
100
AcDbBlockBegin
 62
7
  6
CONTINUOUS
  2
*D2
 70
65
 10
0.0
 20
0.0
  3
*D2
  1

  0
LINE
  5
23B
100
AcDbEntity
  8
0
100
AcDbLine
 62
7
  6
CONTINUOUS
 10
-125.7662385975
 20
41.5000000253
 11
-161.2531580472
 21
41.5000000253
  0
LINE
  5
23C
100
AcDbEntity
  8
0
100
AcDbLine
 62
7
  6
CONTINUOUS
 10
-125.7662385975
 20
-41.4999999747
 11
-161.2531580472
 21
-41.4999999747
  0
LINE
  5
23D
100
AcDbEntity
  8
0
100
AcDbLine
 62
7
  6
CONTINUOUS
 10
-159.7531580472
 20
41.5000000253
 11
-159.7531580472
 21
0.0000000253
  0
LINE
  5
23E
100
AcDbEntity
  8
0
100
AcDbLine
 62
7
  6
CONTINUOUS
 10
-159.7531580472
 20
-41.4999999747
 11
-159.7531580472
 21
0.0000000253
  0
INSERT
  5
23F
100
AcDbEntity
  8
0
100
AcDbBlockReference
 62
7
  6
CONTINUOUS
  2
_FILLED
 10
-159.7531580472
 20
41.5000000253
 41
3.0
 42
3.0
 43
3.0
 50
90.0
  0
INSERT
  5
240
100
AcDbEntity
  8
0
100
AcDbBlockReference
 62
7
  6
CONTINUOUS
  2
_FILLED
 10
-159.7531580472
 20
-41.4999999747
 41
3.0
 42
3.0
 43
3.0
 50
270.0
  0
ENDBLK
  5
241
100
AcDbEntity
  8
0
  6
BYBLOCK
 62
0
100
AcDbBlockEnd
  0
ENDSEC
  0
SECTION
  2
ENTITIES
  0
DIMENSION
  5
242
100
AcDbEntity
  8
0
100
AcDbDimension
 62
7
  6
CONTINUOUS
  2
*D0
 10
68.0
 20
49.5000001122
 11
-3.1071428571
 21
49.5000001122
 70
160
 71
2
 72
2
 41
0.9
 42
136.0
  3
DIMSTYLE_1
100
AcDbAlignedDimension
 13
-68.0
 23
35.5000000253
 14
68.0
 24
35.5000000253
100
AcDbRotatedDimension
  0
DIMENSION
  5
243
100
AcDbEntity
  8
0
100
AcDbDimension
 62
7
  6
CONTINUOUS
  2
*D1
 10
-151.7662433873
 20
49.5000001122
 11
-121.0733838495
 21
49.5000001122
 70
160
 71
2
 72
2
 41
0.9
 42
66.1000047898
  3
DIMSTYLE_2
100
AcDbAlignedDimension
 13
-85.6662385975
 23
35.499997283
 14
-151.7662433873
 24
-40.0547402411
 50
180.0
100
AcDbRotatedDimension
  0
DIMENSION
  5
244
100
AcDbEntity
  8
0
100
AcDbDimension
 62
7
  6
CONTINUOUS
  2
*D2
 10
-159.7531580472
 20
-41.4999999747
 11
-159.7531580472
 21
-2.2499999747
 70
160
 71
2
 72
2
 41
0.9
 42
83.0
  3
DIMSTYLE_1
100
AcDbAlignedDimension
 13
-125.2662385975
 23
41.5000000253
 14
-125.2662385975
 24
-41.4999999747
 50
270.0
100
AcDbRotatedDimension
  0
LWPOLYLINE
  5
245
100
AcDbEntity
  8
SUPERFICI
100
AcDbPolyline
 62
250
  6
CONTINUOUS
 90
13
 70
0
 10
-65.9490690865
 20
-39.5557490365
 10
-65.6801863706
 20
-39.8011536444
 10
-65.395939684
 20
-40.028875154
 10
-65.0974841221
 20
-40.2379431533
 10
-64.7859188958
 20
-40.4275332525
 10
-64.4626271827
 20
-40.5967425734
 10
-64.1293143059
 20
-40.7446707832
 10
-63.7875252845
 20
-40.8706984395
 10
-63.4385594661
 20
-40.9744074077
 10
-63.0838409073
 20
-41.0554004886
 10
-62.7248383715
 20
-41.1133752959
 10
-62.3630576016
 20
-41.1481327672
 10
-62.0
 20
-41.1595680786
  0
LWPOLYLINE
  5
246
100
AcDbEntity
  8
SUPERFICI
100
AcDbPolyline
 62
250
  6
CONTINUOUS
 90
10
 70
0
 10
-67.2155779589
 20
-37.7012857027
 10
-67.1141138269
 20
-37.9276439313
 10
-67.0021034571
 20
-38.1507071887
 10
-66.8795817947
 20
-38.3699495837
 10
-66.7460495189
 20
-38.5857008139
 10
-66.602079944
 20
-38.7965089703
 10
-66.4497019643
 20
-38.9994029933
 10
-66.2900583303
 20
-39.1933199672
 10
-66.1230220385
 20
-39.3788436593
 10
-65.9490690865
 20
-39.5557490365
  0
LWPOLYLINE
  5
247
100
AcDbEntity
  8
SUPERFICI
100
AcDbPolyline
 62
250
  6
CONTINUOUS
 90
10
 70
0
 10
-67.6609243056
 20
-35.4999990417
 10
-67.6555123347
 20
-35.7478206376
 10
-67.6391119192
 20
-35.9968288505
 10
-67.6115350519
 20
-36.2465254734
 10
-67.5724191003
 20
-36.4974978666
 10
-67.5217184956
 20
-36.7480900015
 10
-67.4602011675
 20
-36.9945030231
 10
-67.3885548415
 20
-37.2352290125
 10
-67.3068903691
 20
-37.470951459
 10
-67.2155779589
 20
-37.7012857027
  0
LINE
  5
248
100
AcDbEntity
  8
DRAFT
100
AcDbLine
 62
7
  6
CONTINUOUS
 10
-67.6593867789
 20
29.910937152
 11
-67.804503115
 21
25.1110272795
  0
LINE
  5
249
100
AcDbEntity
  8
RACCORDO
100
AcDbLine
 62
7
  6
CONTINUOUS
 10
-67.8165695018
 20
25.0169478663
 11
-67.6591506687
 21
30.2130549328
  0
LINE
  5
24A
100
AcDbEntity
  8
0
100
AcDbLine
 62
7
  6
CONTINUOUS
 10
-63.1597282293
 20
35.2369555125
 11
-63.1449972769
 21
35.2718517972
  0
LINE
  5
24B
100
AcDbEntity
  8
0
100
AcDbLine
 62
7
  6
CONTINUOUS
 10
-60.8402717707
 20
35.7630445381
 11
-60.8550027231
 21
35.7281482534
  0
LINE
  5
24C
100
AcDbEntity
  8
0
100
AcDbLine
 62
7
  6
CONTINUOUS
 10
-63.1746647022
 20
35.2021811175
 11
-63.1597282293
 21
35.2369555125
  0
LINE
  5
24D
100
AcDbEntity
  8
0
100
AcDbLine
 62
7
  6
CONTINUOUS
 10
-60.8253352978
 20
35.797818933
 11
-60.8402717707
 21
35.7630445381
  0
LINE
  5
24E
100
AcDbEntity
  8
0
100
AcDbLine
 62
7
  6
CONTINUOUS
 10
-63.1898066956
 20
35.1675286123
 11
-63.1746647022
 21
35.2021811175
  0
LINE
  5
24F
100
AcDbEntity
  8
0
100
AcDbLine
 62
7
  6
CONTINUOUS
 10
-60.8101933044
 20
35.8324714382
 11
-60.8253352978
 21
35.797818933
  0
LINE
  5
250
100
AcDbEntity
  8
0
100
AcDbLine
 62
7
  6
CONTINUOUS
 10
-63.171604981
 20
35.1549274006
 11
-63.1221062937
 21
35.2611776428
  0
LINE
  5
251
100
AcDbEntity
  8
0
100
AcDbLine
 62
7
  6
CONTINUOUS
 10
-60.828395019
 20
35.8450726499
 11
-60.8778937063
 21
35.7388224077
  0
LINE
  5
252
100
AcDbEntity
  8
0
100
AcDbLine
 62
7
  6
CONTINUOUS
 10
-62.5197174349
 20
36.0197268075
 11
-62.4999466441
 21
36.0621338874
  0
LINE
  5
253
100
AcDbEntity
  8
0
100
AcDbLine
 62
7
  6
CONTINUOUS
 10
-61.480282565
 20
34.980273243
 11
-61.5000533558
 21
34.9378661631
  0
LINE
  5
254
100
AcDbEntity
  8
0
100
AcDbLine
 62
7
  6
CONTINUOUS
 10
-62.4999466441
 20
36.0621338874
 11
-62.5204046482
 21
36.0204046734
  0
LINE
  5
255
100
AcDbEntity
  8
0
100
AcDbLine
 62
7
  6
CONTINUOUS
 10
-61.5000533558
 20
34.9378661631
 11
-61.4795953518
 21
34.9795953771
  0
LINE
  5
256
100
AcDbEntity
  8
0
100
AcDbLine
 62
7
  6
CONTINUOUS
 10
-62.6272974066
 20
36.1272972594
 11
-62.6
 21
36.1818871774
  0
LINE
  5
257
100
AcDbEntity
  8
0
100
AcDbLine
 62
7
  6
CONTINUOUS
 10
-61.3727025934
 20
34.8727027911
 11
-61.4
 21
34.8181128732
  0
LINE
  5
258
100
AcDbEntity
  8
0
100
AcDbLine
 62
7
  6
CONTINUOUS
 10
-62.6272975093
 20
34.872702509
 11
-62.6
 21
34.9000000189
  0
LINE
  5
259
100
AcDbEntity
  8
0
100
AcDbLine
 62
7
  6
CONTINUOUS
 10
-62.5204046482
 20
34.9795953771
 11
-62.5197234842
 21
34.9802765411
  0
LINE
  5
25A
100
AcDbEntity
  8
0
100
AcDbLine
 62
7
  6
CONTINUOUS
 10
-61.4802765158
 20
36.0197235094
 11
-61.4795953518
 21
36.0204046734
  0
LINE
  5
25B
100
AcDbEntity
  8
0
100
AcDbLine
 62
7
  6
CONTINUOUS
 10
-61.4
 20
36.1000000316
 11
-61.3727024907
 21
36.1272975416
  0
LWPOLYLINE
  5
25C
100
AcDbEntity
  8
SUPERFICI
100
AcDbPolyline
 62
250
  6
CONTINUOUS
 90
10
 70
0
 10
-64.8016226701
 20
-38.3772950641
 10
-64.9206599516
 20
-38.2580184298
 10
-65.0352591789
 20
-38.1328132683
 10
-65.1454817877
 20
-38.0014770267
 10
-65.2514048056
 20
-37.8639156903
 10
-65.3530929926
 20
-37.7198098729
 10
-65.4505755349
 20
-37.5685876953
 10
-65.5438954827
 20
-37.4098812956
 10
-65.6331332733
 20
-37.2435537838
 10
-65.7183625475
 20
-37.0693463745
  0
LWPOLYLINE
  5
25D
100
AcDbEntity
  8
SUPERFICI
100
AcDbPolyline
 62
250
  6
CONTINUOUS
 90
10
 70
0
 10
-66.0566057393
 20
-35.4998159096
 10
-66.0481215536
 20
-35.6984430263
 10
-66.0323231806
 20
-35.8915865928
 10
-66.0091076846
 20
-36.0789847544
 10
-65.9784121128
 20
-36.2605739449
 10
-65.9402837735
 20
-36.4360188536
 10
-65.894948588
 20
-36.6047274925
 10
-65.8426770354
 20
-36.7664672087
 10
-65.7837060594
 20
-36.921344166
 10
-65.7183598514
 20
-37.069345337
  0
LINE
  5
25E
100
AcDbEntity
  8
SUPERFICI
100
AcDbLine
 62
250
  6
CONTINUOUS
 10
-66.1079259799
 20
-17.5177411677
 11
-66.0918290147
 21
-23.9326579873
  0
LINE
  5
25F
100
AcDbEntity
  8
DRAFT
100
AcDbLine
 62
250
  6
CONTINUOUS
 10
-66.0666894706
 20
29.7577946
 11
-66.068951104
 21
31.0000000253
  0
LINE
  5
260
100
AcDbEntity
  8
SUPERFICI
100
AcDbLine
 62
250
  6
CONTINUOUS
 10
-66.0918290147
 20
-23.9326579873
 11
-66.0899907417
 21
-25.1616657687
  0
LWPOLYLINE
  5
261
100
AcDbEntity
  8
SUPERFICI
100
AcDbPolyline
 62
250
  6
CONTINUOUS
 90
7
 70
0
 10
-66.1147761996
 20
-32.6846620315
 10
-66.11434007
 20
-33.1770067635
 10
-66.1114402104
 20
-33.6633372628
 10
-66.1050708535
 20
-34.1397109004
 10
-66.0943759482
 20
-34.6045204464
 10
-66.0785351366
 20
-35.0581117228
 10
-66.0566093237
 20
-35.4998165789
  0
LINE
  5
262
100
AcDbEntity
  8
SUPERFICI
100
AcDbLine
 62
250
  6
CONTINUOUS
 10
-66.1104552718
 20
-15.1055886352
 11
-66.1079259799
 21
-17.5177411677
  0
LWPOLYLINE
  5
263
100
AcDbEntity
  8
DRAFT
100
AcDbPolyline
 62
250
  6
CONTINUOUS
 90
3
 70
0
 10
-66.102337955
 20
0.0000000244
 10
-66.1026128488
 20
1.9413693697
 10
-66.1013228066
 20
3.7542160239
  0
LINE
  5
264
100
AcDbEntity
  8
0
100
AcDbLine
 62
7
  6
CONTINUOUS
 10
-68.0
 20
35.5000000253
 11
-68.0
 21
-35.4999999747
  0
LINE
  5
265
100
AcDbEntity
  8
COPY_GEOM
100
AcDbLine
 62
7
  6
CONTINUOUS
 10
-68.0
 20
35.5000000253
 11
-68.0
 21
-35.4999999747
  0
LINE
  5
266
100
AcDbEntity
  8
RACCORDO
100
AcDbLine
 62
250
  6
CONTINUOUS
 10
-67.8165695018
 20
-35.4999999747
 11
-67.8165695018
 21
25.0169478663
  0
LINE
  5
267
100
AcDbEntity
  8
DRAFT
100
AcDbLine
 62
7
  6
CONTINUOUS
 10
-67.804503115
 20
-35.5000125428
 11
-67.804503115
 21
25.1110272795
  0
LINE
  5
268
100
AcDbEntity
  8
DRAFT
100
AcDbLine
 62
250
  6
CONTINUOUS
 10
-67.6593867789
 20
29.910937152
 11
-67.6590392707
 21
0.0000000253
  0
LINE
  5
269
100
AcDbEntity
  8
COPY_GEOM
100
AcDbLine
 62
250
  6
CONTINUOUS
 10
-67.6607460059
 20
35.5000000253
 11
-67.6591451011
 21
30.2132387101
  0
LINE
  5
26A
100
AcDbEntity
  8
COPY_GEOM
100
AcDbLine
 62
7
  6
CONTINUOUS
 10
-66.2
 20
31.0000000253
 11
-66.2
 21
31.3000000253
  0
LINE
  5
26B
100
AcDbEntity
  8
SUPERFICI
100
AcDbLine
 62
250
  6
CONTINUOUS
 10
-66.1023379269
 20
0.0000000244
 11
-66.1015209672
 21
-2.6258519901
  0
LINE
  5
26C
100
AcDbEntity
  8
SUPERFICI
100
AcDbLine
 62
250
  6
CONTINUOUS
 10
-67.6590392707
 20
0.0000000253
 11
-67.6597518598
 21
-30.3180844654
  0
LINE
  5
26D
100
AcDbEntity
  8
SUPERFICI
100
AcDbLine
 62
250
  6
CONTINUOUS
 10
-67.6597518598
 20
-30.3180844654
 11
-67.6609218467
 21
-35.4999990417
  0
LINE
  5
26E
100
AcDbEntity
  8
SUPERFICI
100
AcDbLine
 62
250
  6
CONTINUOUS
 10
-66.0899907417
 20
-25.1616657687
 11
-66.0899653823
 21
-26.351259671
  0
LINE
  5
26F
100
AcDbEntity
  8
SUPERFICI
100
AcDbLine
 62
250
  6
CONTINUOUS
 10
-66.1015209672
 20
-2.6258519901
 11
-66.1025189915
 21
-4.7606085137
  0
LWPOLYLINE
  5
270
100
AcDbEntity
  8
SUPERFICI
100
AcDbPolyline
 62
250
  6
CONTINUOUS
 90
3
 70
0
 10
-66.1025189915
 20
-4.7606085137
 10
-66.1056980637
 20
-7.8540601059
 10
-66.1104552718
 20
-15.1055886352
  0
LINE
  5
271
100
AcDbEntity
  8
DRAFT
100
AcDbLine
 62
250
  6
CONTINUOUS
 10
-66.0748396687
 20
20.5668996201
 11
-66.0666894706
 21
29.7577946
  0
LINE
  5
272
100
AcDbEntity
  8
DRAFT
100
AcDbLine
 62
250
  6
CONTINUOUS
 10
-66.1013228066
 20
3.7542160239
 11
-66.0748396687
 21
20.5668996201
  0
LINE
  5
273
100
AcDbEntity
  8
SUPERFICI
100
AcDbLine
 62
250
  6
CONTINUOUS
 10
-66.0899653823
 20
-26.351259671
 11
-66.0923825786
 21
-27.4868001255
  0
LINE
  5
274
100
AcDbEntity
  8
SUPERFICI
100
AcDbLine
 62
250
  6
CONTINUOUS
 10
-66.1118002127
 20
-31.6899408935
 11
-66.1147761996
 21
-32.6846620315
  0
LINE
  5
275
100
AcDbEntity
  8
SUPERFICI
100
AcDbLine
 62
250
  6
CONTINUOUS
 10
-66.0923825786
 20
-27.4868001255
 11
-66.1004491226
 21
-29.6466688694
  0
LINE
  5
276
100
AcDbEntity
  8
COPY_GEOM
100
AcDbLine
 62
250
  6
CONTINUOUS
 10
-66.0845102467
 20
32.7866095185
 11
-66.0908216359
 21
31.300042626
  0
LINE
  5
277
100
AcDbEntity
  8
SUPERFICI
100
AcDbLine
 62
250
  6
CONTINUOUS
 10
-66.1004491226
 20
-29.6466688694
 11
-66.1118002127
 21
-31.6899408935
  0
LWPOLYLINE
  5
278
100
AcDbEntity
  8
COPY_GEOM
100
AcDbPolyline
 62
250
  6
CONTINUOUS
 90
3
 70
0
 10
-66.0694565513
 20
34.6745997895
 10
-66.0814873683
 20
33.2688603571
 10
-66.0845102467
 20
32.7866095185
  0
LWPOLYLINE
  5
279
100
AcDbEntity
  8
COPY_GEOM
100
AcDbPolyline
 62
250
  6
CONTINUOUS
 90
3
 70
0
 10
-66.0564932033
 20
35.5760141587
 10
-66.0641777012
 20
35.1294076697
 10
-66.0694565513
 20
34.6745997895
  0
LWPOLYLINE
  5
27A
100
AcDbEntity
  8
DRAFT
100
AcDbPolyline
 62
7
  6
CONTINUOUS
 90
40
 70
0
 10
-65.4760045959
 20
35.5000000253
 10
-65.4641189377
 20
35.7850667921
 10
-65.4280741041
 20
36.0733788343
 10
-65.3668169048
 20
36.3627680026
 10
-65.2791492723
 20
36.6518314721
 10
-65.1645833318
 20
36.9369955009
 10
-65.0242064157
 20
37.2128603644
 10
-64.8586282413
 20
37.4769377143
 10
-64.6686566354
 20
37.726835488
 10
-64.4574107139
 20
37.9580902615
 10
-64.2264714791
 20
38.1691700717
 10
-63.9780624301
 20
38.35824183
 10
-63.7177405191
 20
38.5219829485
 10
-63.4476345316
 20
38.6604102048
 10
-63.1708631107
 20
38.7732011611
 10
-62.8955347376
 20
38.8591509726
 10
-62.6263886819
 20
38.9197703242
 10
-62.3636782974
 20
38.9578067796
 10
-62.1087608247
 20
38.9754230985
 10
-61.8650041152
 20
38.9747779823
 10
-61.6317624203
 20
38.9581534958
 10
-61.4039817607
 20
38.9265929503
 10
-61.1830572723
 20
38.8811162998
 10
-60.9692375013
 20
38.8226000961
 10
-60.7560571274
 20
38.749287767
 10
-60.5439306148
 20
38.6604700657
 10
-60.3348085525
 20
38.5560780887
 10
-60.12549705
 20
38.4330688793
 10
-59.9169706463
 20
38.2896726829
 10
-59.7125261155
 20
38.1256029843
 10
-59.5134831235
 20
37.9390542704
 10
-59.3209471443
 20
37.7271813274
 10
-59.1402914678
 20
37.4914865777
 10
-58.9784521179
 20
37.2379676788
 10
-58.8376346794
 20
36.9683696661
 10
-58.7195466793
 20
36.6839389274
 10
-58.6275179126
 20
36.3919337638
 10
-58.5621385645
 20
36.0966053246
 10
-58.5227841954
 20
35.798531728
 10
-58.509277095
 20
35.5000000253
  0
LINE
  5
27B
100
AcDbEntity
  8
0
100
AcDbLine
 62
7
  6
CONTINUOUS
 10
-63.190047749
 20
35.8323044834
 11
-63.1716048889
 21
35.8450726991
  0
LINE
  5
27C
100
AcDbEntity
  8
0
100
AcDbLine
 62
7
  6
CONTINUOUS
 10
-60.828395111
 20
35.1549273514
 11
-60.809952252
 21
35.1676955664
  0
LINE
  5
27D
100
AcDbEntity
  8
0
100
AcDbLine
 62
7
  6
CONTINUOUS
 10
-62.6
 20
32.6678447036
 11
-62.6
 21
35.0461926587
  0
LINE
  5
27E
100
AcDbEntity
  8
0
100
AcDbLine
 62
7
  6
CONTINUOUS
 10
-62.6
 20
35.9538073919
 11
-62.6
 21
38.3321553469
  0
LINE
  5
27F
100
AcDbEntity
  8
COPY_GEOM
100
AcDbLine
 62
250
  6
CONTINUOUS
 10
-62.0
 20
41.5000000253
 11
-62.0
 21
41.1596220694
  0
LINE
  5
280
100
AcDbEntity
  8
RACCORDO
100
AcDbLine
 62
250
  6
CONTINUOUS
 10
-62.0
 20
-41.4999999747
 11
-62.0
 21
-41.3045030897
  0
LINE
  5
281
100
AcDbEntity
  8
SUPERFICI
100
AcDbLine
 62
250
  6
CONTINUOUS
 10
-61.9999375231
 20
-39.5834602063
 11
-62.0
 21
-41.3045030897
  0
LINE
  5
282
100
AcDbEntity
  8
0
100
AcDbLine
 62
7
  6
CONTINUOUS
 10
-61.4
 20
38.3321553469
 11
-61.4
 21
35.9538073919
  0
LINE
  5
283
100
AcDbEntity
  8
0
100
AcDbLine
 62
7
  6
CONTINUOUS
 10
-61.4
 20
35.0461926587
 11
-61.4
 21
32.6678447036
  0
LWPOLYLINE
  5
284
100
AcDbEntity
  8
COPY_GEOM
100
AcDbPolyline
 62
250
  6
CONTINUOUS
 90
13
 70
0
 10
-62.1108202518
 20
39.5797637014
 10
-62.1072465238
 20
39.7953472272
 10
-62.1023331579
 20
40.0029932704
 10
-62.0961415306
 20
40.2001080554
 10
-62.0887489854
 20
40.3842293563
 10
-62.0802478664
 20
40.5530572527
 10
-62.0707443652
 20
40.7044828597
 10
-62.060357194
 20
40.8366146697
 10
-62.049216103
 20
40.9478021807
 10
-62.0374602599
 20
41.0366565125
 10
-62.025236511
 20
41.1020677562
 10
-62.0126975473
 20
41.1432188385
 10
-61.9999999969
 20
41.1595957274
  0
LWPOLYLINE
  5
285
100
AcDbEntity
  8
DRAFT
100
AcDbPolyline
 62
7
  6
CONTINUOUS
 90
43
 70
0
 10
-58.509277095
 20
35.5000000253
 10
-58.5191910063
 20
35.2296722779
 10
-58.5489038171
 20
34.9685013715
 10
-58.5965258569
 20
34.7177903587
 10
-58.6597377349
 20
34.4799383207
 10
-58.7368652226
 20
34.2543259833
 10
-58.8278219002
 20
34.0376453262
 10
-58.9316108085
 20
33.8305060359
 10
-59.0471137519
 20
33.633645131
 10
-59.1755174542
 20
33.4444431088
 10
-59.3164226676
 20
33.2636535968
 10
-59.4692047626
 20
33.0922360003
 10
-59.6357840266
 20
32.9286688453
 10
-59.8160149045
 20
32.7741826696
 10
-60.0095034644
 20
32.6301578088
 10
-60.2185154072
 20
32.4963146204
 10
-60.4436566492
 20
32.3741591816
 10
-60.6836336132
 20
32.266259069
 10
-60.937950071
 20
32.174597347
 10
-61.2060377113
 20
32.1012152887
 10
-61.4862486263
 20
32.0483958887
 10
-61.776025924
 20
32.018282152
 10
-62.0750586476
 20
32.0126719776
 10
-62.3796138143
 20
32.0334216081
 10
-62.6816629273
 20
32.0808390932
 10
-62.9800778823
 20
32.1550542635
 10
-63.2712341607
 20
32.2554755453
 10
-63.5443238547
 20
32.3771752109
 10
-63.7950918641
 20
32.5152147142
 10
-64.0263844373
 20
32.6681055963
 10
-64.2392246956
 20
32.8341789581
 10
-64.4330743416
 20
33.0108076247
 10
-64.6082909937
 20
33.1960349455
 10
-64.7669065587
 20
33.3901467336
 10
-64.9083096984
 20
33.5907790953
 10
-65.0331553598
 20
33.7971190724
 10
-65.1440742807
 20
34.0129400294
 10
-65.2404507325
 20
34.2378602687
 10
-65.3212505306
 20
34.4704127077
 10
-65.3867036809
 20
34.7135400569
 10
-65.4355054002
 20
34.96764269
 10
-65.4657533001
 20
35.2302506568
 10
-65.4760045959
 20
35.5000000253
  0
LINE
  5
286
100
AcDbEntity
  8
0
100
AcDbLine
 62
7
  6
CONTINUOUS
 10
-63.1716048889
 20
35.8450726991
 11
-63.0240804449
 21
35.9234094023
  0
LINE
  5
287
100
AcDbEntity
  8
0
100
AcDbLine
 62
7
  6
CONTINUOUS
 10
-60.828395111
 20
35.1549273514
 11
-60.9759195551
 21
35.0765906483
  0
LINE
  5
288
100
AcDbEntity
  8
0
100
AcDbLine
 62
7
  6
CONTINUOUS
 10
-63.0240804449
 20
35.9234094023
 11
-62.9261983137
 21
35.9747361533
  0
LINE
  5
289
100
AcDbEntity
  8
0
100
AcDbLine
 62
7
  6
CONTINUOUS
 10
-60.9759195551
 20
35.0765906483
 11
-61.0738016863
 21
35.0252638972
  0
LINE
  5
28A
100
AcDbEntity
  8
0
100
AcDbLine
 62
7
  6
CONTINUOUS
 10
-62.9261983137
 20
35.9747361533
 11
-62.852211212
 21
36.0131386553
  0
LINE
  5
28B
100
AcDbEntity
  8
0
100
AcDbLine
 62
7
  6
CONTINUOUS
 10
-61.0738016863
 20
35.0252638972
 11
-61.147788788
 21
34.9868613952
  0
LWPOLYLINE
  5
28C
100
AcDbEntity
  8
0
100
AcDbPolyline
 62
7
  6
CONTINUOUS
 90
4
 70
0
 10
-62.852211212
 20
36.0131386553
 10
-62.7747633728
 20
36.0529282247
 10
-62.747603948
 20
36.0666771008
 10
-62.6899108284
 20
36.0961974556
  0
LWPOLYLINE
  5
28D
100
AcDbEntity
  8
0
100
AcDbPolyline
 62
7
  6
CONTINUOUS
 90
4
 70
0
 10
-61.147788788
 20
34.9868613952
 10
-61.2252366272
 20
34.9470718258
 10
-61.252396052
 20
34.9333229497
 10
-61.3100891716
 20
34.903802595
  0
LWPOLYLINE
  5
28E
100
AcDbEntity
  8
0
100
AcDbPolyline
 62
7
  6
CONTINUOUS
 90
3
 70
0
 10
-62.6899108284
 20
36.0961974556
 10
-62.6592374971
 20
36.1116535493
 10
-62.6272974066
 20
36.1272972594
  0
LWPOLYLINE
  5
28F
100
AcDbEntity
  8
0
100
AcDbPolyline
 62
7
  6
CONTINUOUS
 90
3
 70
0
 10
-61.3100891716
 20
34.903802595
 10
-61.3407625029
 20
34.8883465012
 10
-61.3727025934
 20
34.8727027911
  0
LINE
  5
290
100
AcDbEntity
  8
0
100
AcDbLine
 62
7
  6
CONTINUOUS
 10
-62.5204046482
 20
36.0204046734
 11
-62.5621339943
 21
35.9999465209
  0
LINE
  5
291
100
AcDbEntity
  8
0
100
AcDbLine
 62
7
  6
CONTINUOUS
 10
-61.4795953518
 20
34.9795953771
 11
-61.4378660057
 21
35.0000535297
  0
LINE
  5
292
100
AcDbEntity
  8
0
100
AcDbLine
 62
7
  6
CONTINUOUS
 10
-61.3714854341
 20
35.0310835315
 11
-61.4
 21
35.0177107383
  0
LINE
  5
293
100
AcDbEntity
  8
0
100
AcDbLine
 62
7
  6
CONTINUOUS
 10
-60.8778971865
 20
35.2611740074
 11
-60.9209077207
 21
35.2410414298
  0
LINE
  5
294
100
AcDbEntity
  8
0
100
AcDbLine
 62
7
  6
CONTINUOUS
 10
-61.1514585825
 20
35.1336312061
 11
-61.1855775365
 21
35.1176782604
  0
LWPOLYLINE
  5
295
100
AcDbEntity
  8
0
100
AcDbPolyline
 62
7
  6
CONTINUOUS
 90
3
 70
0
 10
-61.0419513494
 20
35.184678792
 10
-61.0796620899
 20
35.1670561593
 10
-61.1514585825
 20
35.1336312061
  0
LINE
  5
296
100
AcDbEntity
  8
TRASH
100
AcDbLine
 62
7
  6
CONTINUOUS
 10
-63.1449972701
 20
35.7281482434
 11
-63.122106287
 21
35.7388223978
  0
LINE
  5
297
100
AcDbEntity
  8
0
100
AcDbLine
 62
7
  6
CONTINUOUS
 10
-62.5621339943
 20
35.9999465209
 11
-62.5197267822
 21
36.0197174602
  0
LINE
  5
298
100
AcDbEntity
  8
0
100
AcDbLine
 62
7
  6
CONTINUOUS
 10
-63.1221028135
 20
35.7388260431
 11
-62.6
 21
35.9822893123
  0
LINE
  5
299
100
AcDbEntity
  8
0
100
AcDbLine
 62
7
  6
CONTINUOUS
 10
-57.0
 20
41.2730841812
 11
-57.0
 21
41.1571313728
  0
LINE
  5
29A
100
AcDbEntity
  8
DRAFT
100
AcDbLine
 62
7
  6
CONTINUOUS
 10
-57.0
 20
33.8000000253
 11
-57.0
 21
32.6450061435
  0
LINE
  5
29B
100
AcDbEntity
  8
COPY_GEOM
100
AcDbLine
 62
7
  6
CONTINUOUS
 10
-57.0
 20
33.8000000253
 11
-57.0
 21
41.1571388069
  0
LINE
  5
29C
100
AcDbEntity
  8
0
100
AcDbLine
 62
7
  6
CONTINUOUS
 10
-56.8
 20
34.2500000253
 11
-56.8
 21
35.1500000253
  0
LINE
  5
29D
100
AcDbEntity
  8
0
100
AcDbLine
 62
7
  6
CONTINUOUS
 10
-56.75
 20
41.2556288318
 11
-56.7500000003
 21
41.1578222582
  0
LINE
  5
29E
100
AcDbEntity
  8
ASSI
100
AcDbLine
 62
7
  6
CONTINUOUS
 10
-56.75
 20
41.1578276044
 11
-56.75
 21
33.8000000253
  0
LINE
  5
29F
100
AcDbEntity
  8
TRASH
100
AcDbLine
 62
7
  6
CONTINUOUS
 10
-60.877893713
 20
35.2611776527
 11
-60.8550027299
 21
35.2718518071
  0
LINE
  5
2A0
100
AcDbEntity
  8
0
100
AcDbLine
 62
7
  6
CONTINUOUS
 10
-61.4378660057
 20
35.0000535297
 11
-61.4802732177
 21
34.9802825903
  0
LWPOLYLINE
  5
2A1
100
AcDbEntity
  8
0
100
AcDbPolyline
 62
7
  6
CONTINUOUS
 90
3
 70
0
 10
-61.1855775365
 20
35.1176782604
 10
-61.2508551379
 20
35.0872867541
 10
-61.2820629572
 20
35.072696856
  0
LINE
  5
2A2
100
AcDbEntity
  8
0
100
AcDbLine
 62
7
  6
CONTINUOUS
 10
-60.9209077207
 20
35.2410414298
 11
-61.0419513494
 21
35.184678792
  0
LINE
  5
2A3
100
AcDbEntity
  8
0
100
AcDbLine
 62
7
  6
CONTINUOUS
 10
-61.2820629572
 20
35.072696856
 11
-61.3714854341
 21
35.0310835315
  0
LINE
  5
2A4
100
AcDbEntity
  8
SUPERFICI
100
AcDbLine
 62
250
  6
CONTINUOUS
 10
-50.3999769328
 20
0.0000000259
 11
-50.39999
 21
-22.2001460422
  0
LINE
  5
2A5
100
AcDbEntity
  8
SUPERFICI
100
AcDbLine
 62
7
  6
CONTINUOUS
 10
-48.600011288
 20
-22.2000059749
 11
-48.6000095533
 21
22.2000100253
  0
LINE
  5
2A6
100
AcDbEntity
  8
SUPERFICI
100
AcDbLine
 62
7
  6
CONTINUOUS
 10
-50.4015648788
 20
14.7132215515
 11
-50.3992561006
 21
9.5330729918
  0
LINE
  5
2A7
100
AcDbEntity
  8
SUPERFICI
100
AcDbLine
 62
7
  6
CONTINUOUS
 10
-50.3992561006
 20
9.5330729918
 11
-50.3999769328
 21
0.0000000259
  0
LINE
  5
2A8
100
AcDbEntity
  8
SUPERFICI
100
AcDbLine
 62
7
  6
CONTINUOUS
 10
-50.3980259634
 20
16.6661361289
 11
-50.4015648788
 21
14.7132215515
  0
LINE
  5
2A9
100
AcDbEntity
  8
SUPERFICI
100
AcDbLine
 62
250
  6
CONTINUOUS
 10
-51.5942145268
 20
-39.7051297017
 11
-51.5959276412
 21
-40.5466892559
  0
LWPOLYLINE
  5
2AA
100
AcDbEntity
  8
SUPERFICI
100
AcDbPolyline
 62
7
  6
CONTINUOUS
 90
9
 70
0
 10
-50.399981625
 20
22.200009756
 10
-50.4044825012
 20
21.5861277863
 10
-50.4065706202
 20
20.9801630457
 10
-50.4062459885
 20
20.3821155342
 10
-50.401864323
 20
19.8028725164
 10
-50.3950699002
 20
19.2315467278
 10
-50.3907955791
 20
18.6354763741
 10
-50.3916623686
 20
17.9949176443
 10
-50.3980259634
 20
16.6661361289
  0
LINE
  5
2AB
100
AcDbEntity
  8
SUPERFICI
100
AcDbLine
 62
250
  6
CONTINUOUS
 10
-51.5959276412
 20
-40.5466892559
 11
-51.5984343264
 21
-41.0294956811
  0
LWPOLYLINE
  5
2AC
100
AcDbEntity
  8
SUPERFICI
100
AcDbPolyline
 62
250
  6
CONTINUOUS
 90
4
 70
0
 10
-51.5984343264
 20
-41.0294956811
 10
-51.5995274408
 20
-41.1231155711
 10
-51.6000470389
 20
-41.1472341056
 10
-51.60054
 20
-41.1568855733
  0
LWPOLYLINE
  5
2AD
100
AcDbEntity
  8
SUPERFICI
100
AcDbPolyline
 62
250
  6
CONTINUOUS
 90
19
 70
0
 10
-47.5527870066
 20
22.2000100253
 10
-47.5428306713
 20
22.4236276071
 10
-47.5126430795
 20
22.6542952128
 10
-47.4617620914
 20
22.8895960403
 10
-47.3892744858
 20
23.1282514442
 10
-47.295000271
 20
23.365990472
 10
-47.1806576917
 20
23.5958574534
 10
-47.0479282302
 20
23.8135240273
 10
-46.8966889096
 20
24.0180009982
 10
-46.7267211695
 20
24.207522179
 10
-46.5387495525
 20
24.379572013
 10
-46.3350155868
 20
24.5332417149
 10
-46.1171198223
 20
24.6686848162
 10
-45.8859876191
 20
24.7858776885
 10
-45.6459704553
 20
24.8829255405
 10
-45.4040454023
 20
24.9579053042
 10
-45.1645845134
 20
25.01080149
 10
-44.9290305881
 20
25.0423401214
 10
-44.6999900084
 20
25.0527900798
  0
LWPOLYLINE
  5
2AE
100
AcDbEntity
  8
SUPERFICI
100
AcDbPolyline
 62
7
  6
CONTINUOUS
 90
19
 70
0
 10
-46.9999933488
 20
22.2000100312
 10
-46.9895320783
 20
22.4028127183
 10
-46.9620990649
 20
22.6019503462
 10
-46.9176943087
 20
22.7974229151
 10
-46.8552535691
 20
22.991544977
 10
-46.7758410868
 20
23.1820019798
 10
-46.6826495833
 20
23.3618502671
 10
-46.5761935981
 20
23.5293778396
 10
-46.4559585919
 20
23.6862966965
 10
-46.3235936682
 20
23.8307991797
 10
-46.1790451488
 20
23.9627771689
 10
-46.022366712
 20
24.0823387843
 10
-45.8553684968
 20
24.1880007285
 10
-45.6764421839
 20
24.2802727431
 10
-45.4871960925
 20
24.3586450866
 10
-45.2942653188
 20
24.4201052359
 10
-45.0998615615
 20
24.4636490168
 10
-44.9017731219
 20
24.4902806035
 10
-44.7
 20
24.4999999962
  0
LWPOLYLINE
  5
2AF
100
AcDbEntity
  8
SUPERFICI
100
AcDbPolyline
 62
250
  6
CONTINUOUS
 90
5
 70
0
 10
35.2781007628
 20
-39.7584853399
 10
35.306541554
 20
-39.7511553393
 10
35.3347527394
 20
-39.7454420979
 10
35.3626681112
 20
-39.7410774367
 10
35.3902956775
 20
-39.7383371534
  0
LINE
  5
2B0
100
AcDbEntity
  8
SUPERFICI
100
AcDbLine
 62
250
  6
CONTINUOUS
 10
33.6184827818
 20
-41.0969486606
 11
33.5
 21
-41.1231250277
  0
LINE
  5
2B1
100
AcDbEntity
  8
SUPERFICI
100
AcDbLine
 62
250
  6
CONTINUOUS
 10
-33.6185198096
 20
-41.0969571202
 11
-33.5
 21
-41.1231317181
  0
LWPOLYLINE
  5
2B2
100
AcDbEntity
  8
SUPERFICI
100
AcDbPolyline
 62
250
  6
CONTINUOUS
 90
16
 70
0
 10
-34.6505805427
 20
-39.5300027127
 10
-34.4444214159
 20
-39.6050163825
 10
-34.2141815238
 20
-39.6684601209
 10
-33.9653768016
 20
-39.7205847089
 10
-33.7052503284
 20
-39.7619771399
 10
-33.4418844148
 20
-39.7937150487
 10
-33.1769956674
 20
-39.8173712414
 10
-32.9089019308
 20
-39.8349414067
 10
-32.6349900893
 20
-39.8484122768
 10
-32.3507708833
 20
-39.859499219
 10
-32.0488370967
 20
-39.8687917625
 10
-31.7205078335
 20
-39.8765952421
 10
-31.3573066474
 20
-39.8831185617
 10
-30.9586060737
 20
-39.8886421295
 10
-30.5271387222
 20
-39.8935182827
 10
-29.580173313
 20
-39.902064974
  0
LINE
  5
2B3
100
AcDbEntity
  8
SUPERFICI
100
AcDbLine
 62
250
  6
CONTINUOUS
 10
-44.6991265281
 20
27.7735373189
 11
-44.6999908493
 21
27.9000035074
  0
LINE
  5
2B4
100
AcDbEntity
  8
SUPERFICI
100
AcDbLine
 62
7
  6
CONTINUOUS
 10
-47.000006584
 20
-22.2000000239
 11
-46.9999933488
 21
22.2000100312
  0
LINE
  5
2B5
100
AcDbEntity
  8
RACCORDO
100
AcDbLine
 62
7
  6
CONTINUOUS
 10
-46.5
 20
22.1999951424
 11
-46.5
 21
-22.199998879
  0
LINE
  5
2B6
100
AcDbEntity
  8
RACCORDO
100
AcDbLine
 62
250
  6
CONTINUOUS
 10
-45.5000006624
 20
22.1999944998
 11
-45.5000001475
 21
-22.1999988206
  0
LINE
  5
2B7
100
AcDbEntity
  8
RACCORDO
100
AcDbLine
 62
250
  6
CONTINUOUS
 10
-44.6999988382
 20
-23.0000001222
 11
-44.6999988654
 21
-23.9999999747
  0
LINE
  5
2B8
100
AcDbEntity
  8
SUPERFICI
100
AcDbLine
 62
250
  6
CONTINUOUS
 10
-44.7
 20
-24.4999999747
 11
-44.7
 21
-27.8999899747
  0
LINE
  5
2B9
100
AcDbEntity
  8
RACCORDO
100
AcDbLine
 62
250
  6
CONTINUOUS
 10
-44.6999937535
 20
23.0000006876
 11
-44.6999940793
 21
24.0000000253
  0
LINE
  5
2BA
100
AcDbEntity
  8
SUPERFICI
100
AcDbLine
 62
250
  6
CONTINUOUS
 10
-44.7
 20
24.5000000249
 11
-44.6996351075
 21
27.3905198081
  0
LWPOLYLINE
  5
2BB
100
AcDbEntity
  8
SUPERFICI
100
AcDbPolyline
 62
250
  6
CONTINUOUS
 90
3
 70
0
 10
-44.6996351075
 20
27.3905198081
 10
-44.699030716
 20
27.6460106393
 10
-44.6991265281
 20
27.7735373189
  0
LWPOLYLINE
  5
2BC
100
AcDbEntity
  8
0
100
AcDbPolyline
 62
7
  6
CONTINUOUS
 90
5
 70
0
 43
0.3500000006
 10
-0.5357142924
 20
51.9642863617
 10
-0.1785714249
 20
52.1785708466
 10
-0.1785714249
 20
52.821428833
 10
-0.5357142924
 20
53.2500023346
 10
-1.3928570824
 20
53.2500023346
  0
LWPOLYLINE
  5
2BD
100
AcDbEntity
  8
RACCORDO
100
AcDbPolyline
 62
250
  6
CONTINUOUS
 90
3
 70
0
 10
30.75
 20
-41.0999999747
 10
30.8208043024
 20
-41.0935836208
 10
30.8435033208
 20
-41.0873409828
  0
LWPOLYLINE
  5
2BE
100
AcDbEntity
  8
SUPERFICI
100
AcDbPolyline
 62
250
  6
CONTINUOUS
 90
8
 70
0
 10
35.3927917816
 20
-39.7592354085
 10
35.7260852773
 20
-39.7339813933
 10
36.0708533832
 20
-39.7163846074
 10
36.4271183386
 20
-39.7064566504
 10
36.7946240668
 20
-39.7073969069
 10
37.1737554143
 20
-39.7160286876
 10
37.5650963141
 20
-39.7227903655
 10
37.9677599096
 20
-39.7236654792
  0
LWPOLYLINE
  5
2BF
100
AcDbEntity
  8
SUPERFICI
100
AcDbPolyline
 62
7
  6
CONTINUOUS
 90
5
 70
0
 10
33.2308923115
 20
-41.0572220635
 10
33.296474699
 20
-41.0537907147
 10
33.3632879284
 20
-41.0498617663
 10
33.4311618092
 20
-41.0453409514
 10
33.5
 20
-41.0401526864
  0
LINE
  5
2C0
100
AcDbEntity
  8
SUPERFICI
100
AcDbLine
 62
7
  6
CONTINUOUS
 10
33.1032257638
 20
-41.0629754734
 11
33.2308923115
 21
-41.0572220635
  0
LINE
  5
2C1
100
AcDbEntity
  8
SUPERFICI
100
AcDbLine
 62
7
  6
CONTINUOUS
 10
32.1223948165
 20
-41.0951252096
 11
32.1702233429
 21
-41.0931901699
  0
LINE
  5
2C2
100
AcDbEntity
  8
SUPERFICI
100
AcDbLine
 62
7
  6
CONTINUOUS
 10
32.9798690158
 20
-41.0676415401
 11
33.1032257638
 21
-41.0629754734
  0
LWPOLYLINE
  5
2C3
100
AcDbEntity
  8
SUPERFICI
100
AcDbPolyline
 62
250
  6
CONTINUOUS
 90
13
 70
0
 10
61.9999999999
 20
-41.15956741
 10
62.3630546409
 20
-41.1481325853
 10
62.7248339027
 20
-41.1133757231
 10
63.0838363615
 20
-41.0554013753
 10
63.4385566485
 20
-40.9744081988
 10
63.7875254613
 20
-40.8706984059
 10
64.1293173909
 20
-40.7446695299
 10
64.4626333387
 20
-40.5967395992
 10
64.7859279416
 20
-40.4275281398
 10
65.0974939262
 20
-40.2379367464
 10
65.3959477184
 20
-40.028869132
 10
65.6801910343
 20
-39.8011496557
 10
65.9490690865
 20
-39.5557490365
  0
LINE
  5
2C4
100
AcDbEntity
  8
SUPERFICI
100
AcDbLine
 62
7
  6
CONTINUOUS
 10
32.1702233429
 20
-41.0931901699
 11
32.525721703
 21
-41.0814052122
  0
LINE
  5
2C5
100
AcDbEntity
  8
SUPERFICI
100
AcDbLine
 62
7
  6
CONTINUOUS
 10
32.8026105008
 20
-41.0733030799
 11
32.9798690158
 21
-41.0676415401
  0
LINE
  5
2C6
100
AcDbEntity
  8
SUPERFICI
100
AcDbLine
 62
7
  6
CONTINUOUS
 10
32.525721703
 20
-41.0814052122
 11
32.8026105008
 21
-41.0733030799
  0
LWPOLYLINE
  5
2C7
100
AcDbEntity
  8
SUPERFICI
100
AcDbPolyline
 62
7
  6
CONTINUOUS
 90
3
 70
0
 10
-32.914187723
 20
-41.0706892533
 10
-32.3994369959
 20
-41.0864422349
 10
-32.1561982326
 20
-41.0942692713
  0
LINE
  5
2C8
100
AcDbEntity
  8
SUPERFICI
100
AcDbLine
 62
7
  6
CONTINUOUS
 10
-33.0460910583
 20
-41.0659504987
 11
-32.914187723
 21
-41.0706892533
  0
LWPOLYLINE
  5
2C9
100
AcDbEntity
  8
SUPERFICI
100
AcDbPolyline
 62
7
  6
CONTINUOUS
 90
4
 70
0
 10
-32.1561982326
 20
-41.0942692713
 10
-32.0984732822
 20
-41.0968028785
 10
-32.042058671
 20
-41.0998896365
 10
-31.9869437349
 20
-41.1010110228
  0
LWPOLYLINE
  5
2CA
100
AcDbEntity
  8
SUPERFICI
100
AcDbPolyline
 62
7
  6
CONTINUOUS
 90
5
 70
0
 10
-33.3727540223
 20
-41.0495954513
 10
-33.3082888968
 20
-41.053555674
 10
-33.243239698
 20
-41.0571182602
 10
-33.1777218553
 20
-41.060341326
 10
-33.0460910583
 20
-41.0659504987
  0
LWPOLYLINE
  5
2CB
100
AcDbEntity
  8
SUPERFICI
100
AcDbPolyline
 62
250
  6
CONTINUOUS
 90
10
 70
0
 10
-35.3931696643
 20
-39.7606135741
 10
-35.3634590127
 20
-39.7627511416
 10
-35.3338022327
 20
-39.7651822035
 10
-35.3042234851
 20
-39.7679046753
 10
-35.2748124647
 20
-39.7714840801
 10
-35.2455258818
 20
-39.7753499272
 10
-35.2162041021
 20
-39.7777983506
 10
-35.18682742
 20
-39.7782610323
 10
-35.1574994066
 20
-39.7773025574
 10
-35.1282600932
 20
-39.7749186732
  0
LWPOLYLINE
  5
2CC
100
AcDbEntity
  8
SUPERFICI
100
AcDbPolyline
 62
7
  6
CONTINUOUS
 90
3
 70
0
 10
-33.5
 20
-41.040303171
 10
-33.4366691525
 20
-41.0451841847
 10
-33.3727540223
 20
-41.0495954513
  0
LWPOLYLINE
  5
2CD
100
AcDbEntity
  8
RACCORDO
100
AcDbPolyline
 62
250
  6
CONTINUOUS
 90
3
 70
0
 10
-30.75
 20
-41.0999999747
 10
-30.8200356845
 20
-41.0937227552
 10
-30.8434769124
 20
-41.0873406586
  0
LWPOLYLINE
  5
2CE
100
AcDbEntity
  8
SUPERFICI
100
AcDbPolyline
 62
250
  6
CONTINUOUS
 90
10
 70
0
 10
-32.9701699206
 20
-31.8664480357
 10
-33.0167145971
 20
-31.8430578538
 10
-33.0652768039
 20
-31.8191122641
 10
-33.115598397
 20
-31.7947341668
 10
-33.1674216547
 20
-31.7700462604
 10
-33.220489275
 20
-31.745171043
 10
-33.2745443755
 20
-31.7202308127
 10
-33.3293304958
 20
-31.6953476659
 10
-33.3845915979
 20
-31.6706434977
 10
-33.4400720632
 20
-31.6462400031
  0
LINE
  5
2CF
100
AcDbEntity
  8
0
100
AcDbLine
 62
7
  6
CONTINUOUS
 10
-62.4999470109
 20
34.9378664893
 11
-62.5197234838
 21
34.9802765414
  0
LINE
  5
2D0
100
AcDbEntity
  8
0
100
AcDbLine
 62
7
  6
CONTINUOUS
 10
-63.122106287
 20
35.7388223978
 11
-63.1716048889
 21
35.8450726991
  0
LINE
  5
2D1
100
AcDbEntity
  8
0
100
AcDbLine
 62
7
  6
CONTINUOUS
 10
-63.1449972701
 20
35.7281482434
 11
-63.190047749
 21
35.8323044834
  0
LINE
  5
2D2
100
AcDbEntity
  8
0
100
AcDbLine
 62
7
  6
CONTINUOUS
 10
-60.8550027299
 20
35.2718518071
 11
-60.8174918048
 21
35.1850438484
  0
LWPOLYLINE
  5
2D3
100
AcDbEntity
  8
SUPERFICI
100
AcDbPolyline
 62
250
  6
CONTINUOUS
 90
15
 70
0
 10
-34.8310109339
 20
-39.6452935129
 10
-34.8078507534
 20
-39.7638013433
 10
-34.7736663733
 20
-39.8895869116
 10
-34.728039015
 20
-40.0209738334
 10
-34.6699364721
 20
-40.1573848591
 10
-34.5994686695
 20
-40.2950369251
 10
-34.5189793078
 20
-40.4272576106
 10
-34.4306374504
 20
-40.5498314137
 10
-34.3339195705
 20
-40.6627141444
 10
-34.2277268907
 20
-40.7655465626
 10
-34.1119746228
 20
-40.8579758539
 10
-33.9897104993
 20
-40.9382473122
 10
-33.8650512104
 20
-41.0048264442
 10
-33.740861248
 20
-41.0575597792
 10
-33.6185198096
 20
-41.0969571202
  0
LWPOLYLINE
  5
2D4
100
AcDbEntity
  8
SUPERFICI
100
AcDbPolyline
 62
250
  6
CONTINUOUS
 90
16
 70
0
 10
-35.1277069837
 20
-39.769400352
 10
-35.1013191746
 20
-39.9087536792
 10
-35.0649786418
 20
-40.0420830045
 10
-35.0194894206
 20
-40.1767985774
 10
-34.9644883794
 20
-40.3133752312
 10
-34.9001810762
 20
-40.447119044
 10
-34.8283612116
 20
-40.5729085338
 10
-34.7506311754
 20
-40.6876450833
 10
-34.6667484994
 20
-40.7907933642
 10
-34.5763986127
 20
-40.8821630495
 10
-34.4798052186
 20
-40.9618817474
 10
-34.3793196361
 20
-41.0283327647
 10
-34.278310069
 20
-41.0800863597
 10
-34.178948315
 20
-41.1171307053
 10
-34.082085831
 20
-41.140006973
 10
-33.98912
 20
-41.1488988606
  0
LWPOLYLINE
  5
2D5
100
AcDbEntity
  8
SUPERFICI
100
AcDbPolyline
 62
250
  6
CONTINUOUS
 90
16
 70
0
 10
-35.3939726347
 20
-39.7683054452
 10
-35.3844723963
 20
-39.8962023633
 10
-35.3718161198
 20
-40.0293235659
 10
-35.3560192596
 20
-40.1657343995
 10
-35.3368924225
 20
-40.3047608198
 10
-35.3146708767
 20
-40.4422568313
 10
-35.2902988992
 20
-40.5712067857
 10
-35.264607401
 20
-40.6873998441
 10
-35.2374818045
 20
-40.7914543251
 10
-35.2086893913
 20
-40.8844567279
 10
-35.1780671619
 20
-40.9669451626
 10
-35.1466661339
 20
-41.0359663497
 10
-35.1161377408
 20
-41.0888109464
 10
-35.0873129683
 20
-41.1257281424
 10
-35.060177901
 20
-41.1481674488
 10
-35.0350280285
 20
-41.1568865898
  0
LINE
  5
2D6
100
AcDbEntity
  8
SUPERFICI
100
AcDbLine
 62
250
  6
CONTINUOUS
 10
-41.6401169201
 20
-40.2702903299
 11
-41.6364798576
 21
-39.7272599074
  0
LINE
  5
2D7
100
AcDbEntity
  8
SUPERFICI
100
AcDbLine
 62
250
  6
CONTINUOUS
 10
-41.6448932458
 20
-40.6656470908
 11
-41.6401169201
 21
-40.2702903299
  0
LWPOLYLINE
  5
2D8
100
AcDbEntity
  8
0
100
AcDbPolyline
 62
7
  6
CONTINUOUS
 90
3
 70
0
 43
0.3500000006
 10
-3.1071428747
 20
52.3928553314
 10
-2.2499999785
 20
53.2500023346
 10
-2.2499999785
 20
50.2500014191
  0
LWPOLYLINE
  5
2D9
100
AcDbEntity
  8
SUPERFICI
100
AcDbPolyline
 62
7
  6
CONTINUOUS
 90
3
 70
0
 10
31.9868566609
 20
-41.1010098017
 10
32.0308310143
 20
-41.1002661769
 10
32.1223948165
 20
-41.0951252096
  0
LINE
  5
2DA
100
AcDbEntity
  8
SUPERFICI
100
AcDbLine
 62
250
  6
CONTINUOUS
 10
-31.9869437449
 20
-41.1010110845
 11
-31.3898236349
 21
-41.0907782306
  0
LWPOLYLINE
  5
2DB
100
AcDbEntity
  8
SUPERFICI
100
AcDbPolyline
 62
250
  6
CONTINUOUS
 90
14
 70
0
 10
31.0705301944
 20
-39.8876610762
 10
31.4574153219
 20
-39.881799571
 10
31.8026195352
 20
-39.8752170947
 10
32.1102286951
 20
-39.8676177103
 10
32.3926126901
 20
-39.8585426823
 10
32.6605442464
 20
-39.8476443747
 10
32.922422791
 20
-39.8342164513
 10
33.1830275703
 20
-39.8163365498
 10
33.4452318573
 20
-39.7922951959
 10
33.710450586
 20
-39.7608925189
 10
33.9739250679
 20
-39.7205760605
 10
34.2242002026
 20
-39.6693660492
 10
34.4519945451
 20
-39.6059942235
 10
34.6505697526
 20
-39.5299011028
  0
LINE
  5
2DC
100
AcDbEntity
  8
SUPERFICI
100
AcDbLine
 62
250
  6
CONTINUOUS
 10
-33.9329615468
 20
-41.1481246897
 11
-33.5
 21
-41.1408554004
  0
LINE
  5
2DD
100
AcDbEntity
  8
SUPERFICI
100
AcDbLine
 62
250
  6
CONTINUOUS
 10
-31.3898236349
 20
-41.0907782306
 11
-30.6789574551
 21
-41.0813244124
  0
LINE
  5
2DE
100
AcDbEntity
  8
SUPERFICI
100
AcDbLine
 62
7
  6
CONTINUOUS
 10
-31.9869437449
 20
-41.1010110845
 11
-30.9554013063
 21
-41.0884990412
  0
LWPOLYLINE
  5
2DF
100
AcDbEntity
  8
SUPERFICI
100
AcDbPolyline
 62
250
  6
CONTINUOUS
 90
8
 70
0
 10
57.8632245242
 20
-39.6660672314
 10
58.5220171788
 20
-39.6590765438
 10
59.1572793784
 20
-39.6507023086
 10
59.7696486737
 20
-39.6407307526
 10
60.3598307031
 20
-39.6290334599
 10
60.9282198846
 20
-39.6155623944
 10
61.4749183107
 20
-39.6003424955
 10
62.2077076018
 20
-39.5764870267
  0
LINE
  5
2E0
100
AcDbEntity
  8
SUPERFICI
100
AcDbLine
 62
250
  6
CONTINUOUS
 10
-34.3343640846
 20
-41.1526389923
 11
-33.9329615468
 21
-41.1481246897
  0
LINE
  5
2E1
100
AcDbEntity
  8
SUPERFICI
100
AcDbLine
 62
250
  6
CONTINUOUS
 10
-30.6789574551
 20
-41.0813244124
 11
-29.8579185054
 21
-41.072779634
  0
LINE
  5
2E2
100
AcDbEntity
  8
SUPERFICI
100
AcDbLine
 62
7
  6
CONTINUOUS
 10
-30.9554013063
 20
-41.0884990412
 11
-29.8529901974
 21
-41.0780093974
  0
LINE
  5
2E3
100
AcDbEntity
  8
SUPERFICI
100
AcDbLine
 62
250
  6
CONTINUOUS
 10
56.4700541337
 20
-39.6772695059
 11
57.8632245242
 21
-39.6660672314
  0
LINE
  5
2E4
100
AcDbEntity
  8
SUPERFICI
100
AcDbLine
 62
250
  6
CONTINUOUS
 10
-29.8579185054
 20
-41.072779634
 11
-28.9392813976
 21
-41.0655902646
  0
LWPOLYLINE
  5
2E5
100
AcDbEntity
  8
SUPERFICI
100
AcDbPolyline
 62
250
  6
CONTINUOUS
 90
4
 70
0
 10
51.5941457679
 20
-39.7051353131
 10
50.6120553356
 20
-39.7119971069
 10
49.599669703
 20
-39.7166585273
 10
48.5581461315
 20
-39.7197549115
  0
LINE
  5
2E6
100
AcDbEntity
  8
SUPERFICI
100
AcDbLine
 62
7
  6
CONTINUOUS
 10
-29.8529901974
 20
-41.0780093974
 11
-28.6921760513
 21
-41.0696832682
  0
LWPOLYLINE
  5
2E7
100
AcDbEntity
  8
SUPERFICI
100
AcDbPolyline
 62
250
  6
CONTINUOUS
 90
3
 70
0
 10
-26.3067490671
 20
-39.8982729691
 10
-25.6806108266
 20
-39.8947415853
 10
-24.9999997942
 20
-39.8934967667
  0
LWPOLYLINE
  5
2E8
100
AcDbEntity
  8
SUPERFICI
100
AcDbPolyline
 62
250
  6
CONTINUOUS
 90
4
 70
0
 10
51.5941457165
 20
-39.7051416551
 10
53.3446681427
 20
-39.6957506746
 10
54.1705831759
 20
-39.6913206925
 10
56.4700541337
 20
-39.6772695059
  0
LINE
  5
2E9
100
AcDbEntity
  8
SUPERFICI
100
AcDbLine
 62
250
  6
CONTINUOUS
 10
-28.9392813976
 20
-41.0655902646
 11
-27.9319964439
 21
-41.0601012537
  0
LINE
  5
2EA
100
AcDbEntity
  8
SUPERFICI
100
AcDbLine
 62
250
  6
CONTINUOUS
 10
-34.9194499898
 20
-41.1564697834
 11
-34.3343640846
 21
-41.1526389923
  0
LINE
  5
2EB
100
AcDbEntity
  8
SUPERFICI
100
AcDbLine
 62
7
  6
CONTINUOUS
 10
-28.6921760513
 20
-41.0696832682
 11
-27.4868365614
 21
-41.06359952
  0
LINE
  5
2EC
100
AcDbEntity
  8
SUPERFICI
100
AcDbLine
 62
250
  6
CONTINUOUS
 10
-27.9319964439
 20
-41.0601012537
 11
-26.8355785676
 21
-41.0564538616
  0
LINE
  5
2ED
100
AcDbEntity
  8
SUPERFICI
100
AcDbLine
 62
7
  6
CONTINUOUS
 10
-27.4868365614
 20
-41.06359952
 11
-26.2510116057
 21
-41.0598129874
  0
LINE
  5
2EE
100
AcDbEntity
  8
SUPERFICI
100
AcDbLine
 62
250
  6
CONTINUOUS
 10
-40.1513901196
 20
-39.7282359602
 11
-39.2327509963
 21
-39.7261982174
  0
LINE
  5
2EF
100
AcDbEntity
  8
SUPERFICI
100
AcDbLine
 62
250
  6
CONTINUOUS
 10
48.5581461315
 20
-39.7197549115
 11
46.4042580372
 21
-39.7232655716
  0
LINE
  5
2F0
100
AcDbEntity
  8
SUPERFICI
100
AcDbLine
 62
250
  6
CONTINUOUS
 10
-26.8355785676
 20
-41.0564538616
 11
-25.636916642
 21
-41.0547344245
  0
LINE
  5
2F1
100
AcDbEntity
  8
SUPERFICI
100
AcDbLine
 62
250
  6
CONTINUOUS
 10
37.9677599096
 20
-39.7236654792
 11
38.80834474
 21
-39.7222732769
  0
LINE
  5
2F2
100
AcDbEntity
  8
SUPERFICI
100
AcDbLine
 62
250
  6
CONTINUOUS
 10
-39.2327509963
 20
-39.7261982174
 11
-38.7931849979
 21
-39.725794832
  0
LWPOLYLINE
  5
2F3
100
AcDbEntity
  8
SUPERFICI
100
AcDbPolyline
 62
250
  6
CONTINUOUS
 90
3
 70
0
 10
46.4042580372
 20
-39.7232655716
 10
44.1015374059
 20
-39.7250204052
 10
41.1330298125
 20
-39.7278127415
  0
LINE
  5
2F4
100
AcDbEntity
  8
SUPERFICI
100
AcDbLine
 62
7
  6
CONTINUOUS
 10
-26.2510116057
 20
-41.0598129874
 11
-25.0
 21
-41.0583859525
  0
LINE
  5
2F5
100
AcDbEntity
  8
SUPERFICI
100
AcDbLine
 62
250
  6
CONTINUOUS
 10
-37.0900144531
 20
-41.1581158249
 11
-34.9194499898
 21
-41.1564697834
  0
LINE
  5
2F6
100
AcDbEntity
  8
SUPERFICI
100
AcDbLine
 62
250
  6
CONTINUOUS
 10
-62.0
 20
-41.1595670269
 11
-57.4120524862
 21
-41.1572012297
  0
LINE
  5
2F7
100
AcDbEntity
  8
0
100
AcDbLine
 62
7
  6
CONTINUOUS
 10
-62.0
 20
-41.4999999747
 11
62.0
 21
-41.4999999747
  0
LINE
  5
2F8
100
AcDbEntity
  8
COPY_GEOM
100
AcDbLine
 62
7
  6
CONTINUOUS
 10
-62.0
 20
-41.4999999747
 11
62.0
 21
-41.4999999747
  0
LINE
  5
2F9
100
AcDbEntity
  8
RACCORDO
100
AcDbLine
 62
250
  6
CONTINUOUS
 10
62.0
 20
-41.3165694765
 11
-62.0
 21
-41.3165694765
  0
LINE
  5
2FA
100
AcDbEntity
  8
SUPERFICI
100
AcDbLine
 62
7
  6
CONTINUOUS
 10
62.0000058883
 20
-41.3045030897
 11
33.5
 21
-41.3045030897
  0
LINE
  5
2FB
100
AcDbEntity
  8
SUPERFICI
100
AcDbLine
 62
7
  6
CONTINUOUS
 10
-33.5
 20
-41.3045030897
 11
-62.0000058885
 21
-41.3045030897
  0
LINE
  5
2FC
100
AcDbEntity
  8
RACCORDO
100
AcDbLine
 62
7
  6
CONTINUOUS
 10
30.75
 20
-41.0999999747
 11
-30.75
 21
-41.0999999747
  0
LINE
  5
2FD
100
AcDbEntity
  8
SUPERFICI
100
AcDbLine
 62
250
  6
CONTINUOUS
 10
-25.636916642
 20
-41.0547344245
 11
25.0000097967
 21
-41.0545896866
  0
LINE
  5
2FE
100
AcDbEntity
  8
SUPERFICI
100
AcDbLine
 62
7
  6
CONTINUOUS
 10
24.9999993826
 20
-39.8934961972
 11
-24.9999997942
 21
-39.8934969267
  0
LWPOLYLINE
  5
2FF
100
AcDbEntity
  8
SUPERFICI
100
AcDbPolyline
 62
250
  6
CONTINUOUS
 90
4
 70
0
 10
-57.4120524862
 20
-41.1572012297
 10
-39.2920794784
 20
-41.1576643596
 10
-38.5403093945
 20
-41.1578402936
 10
-37.0900144531
 20
-41.1581158249
  0
LINE
  5
300
100
AcDbEntity
  8
SUPERFICI
100
AcDbLine
 62
250
  6
CONTINUOUS
 10
52.6929383547
 20
-41.156825749
 11
58.4525012126
 21
-41.1574548814
  0
LWPOLYLINE
  5
301
100
AcDbEntity
  8
SUPERFICI
100
AcDbPolyline
 62
250
  6
CONTINUOUS
 90
3
 70
0
 10
58.4525012126
 20
-41.1574548814
 10
60.8139174202
 20
-41.1586904942
 10
61.9999999999
 20
-41.1595663584
  0
LINE
  5
302
100
AcDbEntity
  8
SUPERFICI
100
AcDbLine
 62
250
  6
CONTINUOUS
 10
25.0000097967
 20
-41.0545896866
 11
26.2484616908
 21
-41.0553554374
  0
LINE
  5
303
100
AcDbEntity
  8
SUPERFICI
100
AcDbLine
 62
7
  6
CONTINUOUS
 10
-25.0
 20
-41.0583859525
 11
25.8358106383
 21
-41.0590752554
  0
LINE
  5
304
100
AcDbEntity
  8
SUPERFICI
100
AcDbLine
 62
250
  6
CONTINUOUS
 10
40.1624672772
 20
-39.7272097673
 11
41.1330298125
 21
-39.7278127415
  0
LINE
  5
305
100
AcDbEntity
  8
SUPERFICI
100
AcDbLine
 62
250
  6
CONTINUOUS
 10
-44.101371804
 20
-39.7249139923
 11
-40.1513901196
 21
-39.7282359602
  0
LWPOLYLINE
  5
306
100
AcDbEntity
  8
SUPERFICI
100
AcDbPolyline
 62
250
  6
CONTINUOUS
 90
6
 70
0
 10
-44.101371804
 20
-39.7249139923
 10
-47.4937616193
 20
-39.7217608166
 10
-48.5580334492
 20
-39.7197039079
 10
-49.5996055798
 20
-39.716625222
 10
-50.6120524918
 20
-39.7119790075
 10
-51.5942145268
 20
-39.7051297017
  0
LWPOLYLINE
  5
307
100
AcDbEntity
  8
SUPERFICI
100
AcDbPolyline
 62
250
  6
CONTINUOUS
 90
3
 70
0
 10
24.9999993826
 20
-39.8934959733
 10
25.7146639002
 20
-39.894638304
 10
26.3780510735
 20
-39.897740503
  0
LINE
  5
308
100
AcDbEntity
  8
SUPERFICI
100
AcDbLine
 62
250
  6
CONTINUOUS
 10
26.2484616908
 20
-41.0553554374
 11
27.3957578031
 21
-41.0580376625
  0
LINE
  5
309
100
AcDbEntity
  8
SUPERFICI
100
AcDbLine
 62
7
  6
CONTINUOUS
 10
25.8358106383
 20
-41.0590752554
 11
27.0781853554
 21
-41.0620814207
  0
LINE
  5
30A
100
AcDbEntity
  8
SUPERFICI
100
AcDbLine
 62
250
  6
CONTINUOUS
 10
34.9163871071
 20
-41.1564504175
 11
52.6929383547
 21
-41.156825749
  0
LINE
  5
30B
100
AcDbEntity
  8
SUPERFICI
100
AcDbLine
 62
250
  6
CONTINUOUS
 10
38.80834474
 20
-39.7222732769
 11
40.1624672772
 21
-39.7272097673
  0
LINE
  5
30C
100
AcDbEntity
  8
SUPERFICI
100
AcDbLine
 62
250
  6
CONTINUOUS
 10
27.3957578031
 20
-41.0580376625
 11
28.4449830472
 21
-41.0626060407
  0
LINE
  5
30D
100
AcDbEntity
  8
SUPERFICI
100
AcDbLine
 62
7
  6
CONTINUOUS
 10
27.0781853554
 20
-41.0620814207
 11
28.2956512259
 21
-41.067408684
  0
LINE
  5
30E
100
AcDbEntity
  8
SUPERFICI
100
AcDbLine
 62
250
  6
CONTINUOUS
 10
-52.4865362462
 20
-39.7002869326
 11
-51.5942145268
 21
-39.7051297017
  0
LINE
  5
30F
100
AcDbEntity
  8
SUPERFICI
100
AcDbLine
 62
250
  6
CONTINUOUS
 10
-55.7323196459
 20
-39.6821864275
 11
-52.4865362462
 21
-39.7002869326
  0
LWPOLYLINE
  5
310
100
AcDbEntity
  8
SUPERFICI
100
AcDbPolyline
 62
250
  6
CONTINUOUS
 90
6
 70
0
 10
-29.580173313
 20
-39.902064974
 10
-29.0713687979
 20
-39.9052205172
 10
-28.5443977631
 20
-39.90714255
 10
-28.0042386898
 20
-39.907440758
 10
-27.4556938851
 20
-39.9057511274
 10
-26.3067490671
 20
-39.8982729691
  0
LWPOLYLINE
  5
311
100
AcDbEntity
  8
SUPERFICI
100
AcDbPolyline
 62
250
  6
CONTINUOUS
 90
9
 70
0
 10
-38.7931849979
 20
-39.725794832
 10
-37.9520703727
 20
-39.7304386431
 10
-37.5496441725
 20
-39.7305704057
 10
-37.1585543966
 20
-39.7233539822
 10
-36.7800604662
 20
-39.7135527992
 10
-36.4144350177
 20
-39.7120545426
 10
-36.061561869
 20
-39.7224767187
 10
-35.7214163841
 20
-39.7411767873
 10
-35.3939747284
 20
-39.7681419297
  0
LINE
  5
312
100
AcDbEntity
  8
SUPERFICI
100
AcDbLine
 62
7
  6
CONTINUOUS
 10
28.2956512259
 20
-41.067408684
 11
29.4729397641
 21
-41.0749976425
  0
LINE
  5
313
100
AcDbEntity
  8
SUPERFICI
100
AcDbLine
 62
250
  6
CONTINUOUS
 10
28.4449830472
 20
-41.0626060407
 11
29.4102077684
 21
-41.0690129299
  0
LWPOLYLINE
  5
314
100
AcDbEntity
  8
SUPERFICI
100
AcDbPolyline
 62
250
  6
CONTINUOUS
 90
8
 70
0
 10
26.3780510735
 20
-39.897740503
 10
27.5560209224
 20
-39.9064785876
 10
28.1087582333
 20
-39.908700144
 10
28.6533804278
 20
-39.908303782
 10
29.1847273767
 20
-39.9059788068
 10
29.6974186823
 20
-39.9023743334
 10
30.1857855256
 20
-39.8979282003
 10
31.0705301944
 20
-39.8876610762
  0
LINE
  5
315
100
AcDbEntity
  8
SUPERFICI
100
AcDbLine
 62
250
  6
CONTINUOUS
 10
34.3270740103
 20
-41.1525645302
 11
34.9163871071
 21
-41.1564504175
  0
LINE
  5
316
100
AcDbEntity
  8
SUPERFICI
100
AcDbLine
 62
7
  6
CONTINUOUS
 10
29.4729397641
 20
-41.0749976425
 11
30.5959550959
 21
-41.0847786172
  0
LINE
  5
317
100
AcDbEntity
  8
SUPERFICI
100
AcDbLine
 62
250
  6
CONTINUOUS
 10
29.4102077684
 20
-41.0690129299
 11
30.2801922269
 21
-41.0768800417
  0
LWPOLYLINE
  5
318
100
AcDbEntity
  8
SUPERFICI
100
AcDbPolyline
 62
7
  6
CONTINUOUS
 90
3
 70
0
 10
30.5959550959
 20
-41.0847786172
 10
31.6510778851
 20
-41.0966169496
 10
31.9868566771
 20
-41.1010099019
  0
LINE
  5
319
100
AcDbEntity
  8
SUPERFICI
100
AcDbLine
 62
250
  6
CONTINUOUS
 10
30.2801922269
 20
-41.0768800417
 11
31.0487373401
 21
-41.0859668334
  0
LINE
  5
31A
100
AcDbEntity
  8
SUPERFICI
100
AcDbLine
 62
250
  6
CONTINUOUS
 10
33.8767145374
 20
-41.14737242
 11
34.3270740103
 21
-41.1525645302
  0
LWPOLYLINE
  5
31B
100
AcDbEntity
  8
SUPERFICI
100
AcDbPolyline
 62
250
  6
CONTINUOUS
 90
3
 70
0
 10
31.0487373401
 20
-41.0859668334
 10
31.7022962697
 20
-41.095789818
 10
31.9868566771
 20
-41.1010099019
  0
LINE
  5
31C
100
AcDbEntity
  8
SUPERFICI
100
AcDbLine
 62
250
  6
CONTINUOUS
 10
33.5
 20
-41.1408229063
 11
33.8767145374
 21
-41.14737242
  0
LWPOLYLINE
  5
31D
100
AcDbEntity
  8
SUPERFICI
100
AcDbPolyline
 62
250
  6
CONTINUOUS
 90
6
 70
0
 10
35.1286532664
 20
-39.7778087574
 10
35.1596062493
 20
-39.7785987101
 10
35.1900729704
 20
-39.7769442856
 10
35.2200064439
 20
-39.772936676
 10
35.2493309364
 20
-39.7664583889
 10
35.2781007628
 20
-39.7584853399
  0
LWPOLYLINE
  5
31E
100
AcDbEntity
  8
SUPERFICI
100
AcDbPolyline
 62
250
  6
CONTINUOUS
 90
9
 70
0
 10
-61.4749534522
 20
-39.6003443226
 10
-60.9282646903
 20
-39.6155647215
 10
-60.3598601586
 20
-39.6290359201
 10
-59.7696181386
 20
-39.6407331755
 10
-59.157163549
 20
-39.6507040143
 10
-58.5218480683
 20
-39.6590763298
 10
-57.863060066
 20
-39.6660643902
 10
-57.1796825347
 20
-39.6719860829
 10
-55.7323196459
 20
-39.6821864275
  0
LWPOLYLINE
  5
31F
100
AcDbEntity
  8
SUPERFICI
100
AcDbPolyline
 62
250
  6
CONTINUOUS
 90
13
 70
0
 10
-61.4749534522
 20
-39.6003443226
 10
-62.2085662248
 20
-39.5764184504
 10
-62.4284102145
 20
-39.5559197331
 10
-62.657438264
 20
-39.5208710683
 10
-62.8928196151
 20
-39.4692996144
 10
-63.1327900606
 20
-39.4004068679
 10
-63.376773387
 20
-39.3145894635
 10
-63.6228011045
 20
-39.2089680097
 10
-63.8676691415
 20
-39.082296249
 10
-64.1096358921
 20
-38.9375166111
 10
-64.3472135007
 20
-38.7742750614
 10
-64.5784340268
 20
-38.5884209309
 10
-64.8016226701
 20
-38.3772950641
  0
LINE
  5
320
100
AcDbEntity
  8
0
100
AcDbLine
 62
7
  6
CONTINUOUS
 10
-62.6
 20
34.8181120151
 11
-62.6044491399
 21
34.826985314
  0
LINE
  5
321
100
AcDbEntity
  8
0
100
AcDbLine
 62
7
  6
CONTINUOUS
 10
-61.4
 20
36.1818880354
 11
-61.3955508601
 21
36.1730147365
  0
LINE
  5
322
100
AcDbEntity
  8
0
100
AcDbLine
 62
7
  6
CONTINUOUS
 10
-62.6044491399
 20
34.826985314
 11
-62.6272975093
 21
34.872702509
  0
LINE
  5
323
100
AcDbEntity
  8
0
100
AcDbLine
 62
7
  6
CONTINUOUS
 10
-61.3955508601
 20
36.1730147365
 11
-61.3727024907
 21
36.1272975416
  0
LINE
  5
324
100
AcDbEntity
  8
0
100
AcDbLine
 62
7
  6
CONTINUOUS
 10
-62.5204046482
 20
34.9795953771
 11
-62.4999470109
 21
34.9378664893
  0
LINE
  5
325
100
AcDbEntity
  8
0
100
AcDbLine
 62
7
  6
CONTINUOUS
 10
-61.4795953518
 20
36.0204046734
 11
-61.5000529891
 21
36.0621335612
  0
LINE
  5
326
100
AcDbEntity
  8
0
100
AcDbLine
 62
7
  6
CONTINUOUS
 10
-61.5000529891
 20
36.0621335612
 11
-61.4802765161
 21
36.0197235091
  0
LINE
  5
327
100
AcDbEntity
  8
0
100
AcDbLine
 62
7
  6
CONTINUOUS
 10
-60.877893713
 20
35.2611776527
 11
-60.828395111
 21
35.1549273514
  0
LINE
  5
328
100
AcDbEntity
  8
0
100
AcDbLine
 62
7
  6
CONTINUOUS
 10
-60.8174918048
 20
35.1850438484
 11
-60.809952252
 21
35.1676955664
  0
LWPOLYLINE
  5
329
100
AcDbEntity
  8
SUPERFICI
100
AcDbPolyline
 62
250
  6
CONTINUOUS
 90
16
 70
0
 10
-34.6505805427
 20
-39.5300027127
 10
-34.6376255674
 20
-39.6420521438
 10
-34.6150182528
 20
-39.7623976477
 10
-34.5822408056
 20
-39.8896286244
 10
-34.5383339554
 20
-40.0233120887
 10
-34.4830981613
 20
-40.1601470175
 10
-34.4180310009
 20
-40.2940711396
 10
-34.3444005399
 20
-40.4214453327
 10
-34.261919231
 20
-40.5416257163
 10
-34.1704390111
 20
-40.6530850415
 10
-34.0703240721
 20
-40.7540384873
 10
-33.9632326829
 20
-40.8437462897
 10
-33.8508141697
 20
-40.9220415558
 10
-33.7348467051
 20
-40.9886273918
 10
-33.61726555
 20
-41.0431325799
 10
-33.5
 20
-41.0852210451
  0
LINE
  5
32A
100
AcDbEntity
  8
SUPERFICI
100
AcDbLine
 62
7
  6
CONTINUOUS
 10
-33.5
 20
-41.3045030897
 11
-33.5
 21
-41.040303171
  0
LWPOLYLINE
  5
32B
100
AcDbEntity
  8
SUPERFICI
100
AcDbPolyline
 62
250
  6
CONTINUOUS
 90
13
 70
0
 10
-34.6505805427
 20
-39.5300027127
 10
-34.5852356478
 20
-38.7348575304
 10
-34.5046117516
 20
-37.9987447183
 10
-34.4104033661
 20
-37.2914040547
 10
-34.3030651103
 20
-36.598093096
 10
-34.1799266586
 20
-35.9088802908
 10
-34.0361274803
 20
-35.208983514
 10
-33.8666467691
 20
-34.4929027875
 10
-33.6732728087
 20
-33.7898440411
 10
-33.4783681298
 20
-33.1687801015
 10
-33.3002200246
 20
-32.6632784764
 10
-33.1456151978
 20
-32.2623440461
 10
-32.970169926
 20
-31.866448033
  0
LWPOLYLINE
  5
32C
100
AcDbEntity
  8
SUPERFICI
100
AcDbPolyline
 62
250
  6
CONTINUOUS
 90
8
 70
0
 10
-41.6602087212
 20
-41.157709729
 10
-41.6585346079
 20
-41.1483471818
 10
-41.6567224833
 20
-41.1244060707
 10
-41.6547950686
 20
-41.0852566011
 10
-41.6527554283
 20
-41.0295737105
 10
-41.6506599006
 20
-40.9572227399
 10
-41.6486170739
 20
-40.8710021938
 10
-41.6448932458
 20
-40.6656470908
  0
LWPOLYLINE
  5
32D
100
AcDbEntity
  8
0
100
AcDbPolyline
 62
7
  6
CONTINUOUS
 90
10
 70
0
 43
0.3500000006
 10
1.8214286013
 20
53.2500023346
 10
1.1785713937
 20
52.6071443481
 10
0.7500000165
 20
51.7500018768
 10
0.7500000165
 20
50.6785703888
 10
1.1785713937
 20
50.2500014191
 10
1.8214286013
 20
50.2500014191
 10
2.2499999785
 20
50.6785703888
 10
2.2499999785
 20
51.5357128601
 10
1.8214286013
 20
51.9642863617
 10
0.8928571422
 20
51.9642863617
  0
LINE
  5
32E
100
AcDbEntity
  8
RACCORDO
100
AcDbLine
 62
250
  6
CONTINUOUS
 10
-68.0
 20
-35.4999999747
 11
-67.804503115
 21
-35.4999999747
  0
LINE
  5
32F
100
AcDbEntity
  8
RACCORDO
100
AcDbLine
 62
250
  6
CONTINUOUS
 10
68.0
 20
-35.4999999747
 11
67.804503115
 21
-35.4999999747
  0
LINE
  5
330
100
AcDbEntity
  8
SUPERFICI
100
AcDbLine
 62
250
  6
CONTINUOUS
 10
-67.804503115
 20
-35.4999994582
 11
-67.1075773396
 21
-35.4999021931
  0
LINE
  5
331
100
AcDbEntity
  8
SUPERFICI
100
AcDbLine
 62
250
  6
CONTINUOUS
 10
-66.0566057393
 20
-35.4998159096
 11
-67.1075773396
 21
-35.4999021931
  0
LWPOLYLINE
  5
332
100
AcDbEntity
  8
SUPERFICI
100
AcDbPolyline
 62
250
  6
CONTINUOUS
 90
3
 70
0
 10
66.0566007775
 20
-35.499824024
 10
67.6503688846
 20
-35.4999952365
 10
67.804503115
 20
-35.4999991745
  0
LWPOLYLINE
  5
333
100
AcDbEntity
  8
SUPERFICI
100
AcDbPolyline
 62
7
  6
CONTINUOUS
 90
19
 70
0
 10
44.7
 20
-24.4999999717
 10
44.9028014134
 20
-24.4895392923
 10
45.1019386126
 20
-24.4621065652
 10
45.2974115977
 20
-24.4177017905
 10
45.4915352211
 20
-24.3552606773
 10
45.6819946304
 20
-24.2758475164
 10
45.8618452678
 20
-24.1826551804
 10
46.0293748788
 20
-24.076198235
 10
46.186295718
 20
-23.9559621144
 10
46.3307999914
 20
-23.8235959938
 10
46.4627795377
 20
-23.6790461544
 10
46.5823425182
 20
-23.522366315
 10
46.6880056228
 20
-23.3553668067
 10
46.780278609
 20
-23.1764391231
 10
46.8586517194
 20
-22.9871917706
 10
46.920112372
 20
-22.7942605994
 10
46.9636563729
 20
-22.5998575596
 10
46.9902879161
 20
-22.4017707011
 10
47.0000070015
 20
-22.2000000239
  0
LWPOLYLINE
  5
334
100
AcDbEntity
  8
SUPERFICI
100
AcDbPolyline
 62
250
  6
CONTINUOUS
 90
19
 70
0
 10
44.7
 20
-25.052789491
 10
44.9236247524
 20
-25.0428327481
 10
45.1542984233
 20
-25.012644531
 10
45.3896038683
 20
-24.9617630388
 10
45.6282618188
 20
-24.8892755108
 10
45.8660015753
 20
-24.7950021917
 10
46.095868524
 20
-24.6806609936
 10
46.3135344737
 20
-24.5479332165
 10
46.5180099918
 20
-24.3966959661
 10
46.707529249
 20
-24.2267303297
 10
46.8795767233
 20
-24.0387607656
 10
47.0332438086
 20
-23.835028867
 10
47.1686844319
 20
-23.6171348558
 10
47.2858749559
 20
-23.3860042871
 10
47.3829208285
 20
-23.1459884545
 10
47.4578993765
 20
-22.9040634144
 10
47.5107949834
 20
-22.664600915
 10
47.5423333334
 20
-22.4290442356
 10
47.5527830832
 20
-22.1999999747
  0
LWPOLYLINE
  5
335
100
AcDbEntity
  8
SUPERFICI
100
AcDbPolyline
 62
250
  6
CONTINUOUS
 90
6
 70
0
 10
27.7498259888
 20
-28.9864845439
 10
26.8602330492
 20
-29.0102328303
 10
26.3857415715
 20
-29.021468993
 10
25.9264944549
 20
-29.0295110119
 10
25.4734648499
 20
-29.0339879631
 10
24.999952784
 20
-29.0353699585
  0
LINE
  5
336
100
AcDbEntity
  8
SUPERFICI
100
AcDbLine
 62
7
  6
CONTINUOUS
 10
24.999952784
 20
-29.0353681914
 11
-24.9999580991
 21
-29.034403905
  0
LINE
  5
337
100
AcDbEntity
  8
SUPERFICI
100
AcDbLine
 62
250
  6
CONTINUOUS
 10
-44.7
 20
-27.8999899747
 11
-24.9994354515
 21
-27.9007207251
  0
LINE
  5
338
100
AcDbEntity
  8
SUPERFICI
100
AcDbLine
 62
250
  6
CONTINUOUS
 10
24.9996233621
 20
-27.9007207161
 11
44.7
 21
-27.8999899747
  0
LINE
  5
339
100
AcDbEntity
  8
SUPERFICI
100
AcDbLine
 62
7
  6
CONTINUOUS
 10
44.7
 20
-26.1000101854
 11
-44.7
 21
-26.1000095162
  0
LWPOLYLINE
  5
33A
100
AcDbEntity
  8
SUPERFICI
100
AcDbPolyline
 62
250
  6
CONTINUOUS
 90
3
 70
0
 10
25.7605819414
 20
-27.9128589469
 10
25.3788788987
 20
-27.9059622921
 10
24.9834944079
 20
-27.9000928106
  0
LWPOLYLINE
  5
33B
100
AcDbEntity
  8
SUPERFICI
100
AcDbPolyline
 62
250
  6
CONTINUOUS
 90
6
 70
0
 10
-27.2929417599
 20
-29.0002366243
 10
-26.845425293
 20
-29.0122018513
 10
-26.3892576906
 20
-29.0221534013
 10
-25.9384712514
 20
-29.0296664366
 10
-25.4829289876
 20
-29.0343988956
 10
-24.9999529754
 20
-29.0360457424
  0
LWPOLYLINE
  5
33C
100
AcDbEntity
  8
SUPERFICI
100
AcDbPolyline
 62
250
  6
CONTINUOUS
 90
19
 70
0
 10
-44.7
 20
-25.052789491
 10
-44.9236248283
 20
-25.042832747
 10
-45.1542985495
 20
-25.012644527
 10
-45.3896040206
 20
-24.961763031
 10
-45.6282619747
 20
-24.8892754988
 10
-45.8660017157
 20
-24.7950021755
 10
-46.0958686349
 20
-24.6806609732
 10
-46.3135345444
 20
-24.5479331931
 10
-46.518010018
 20
-24.3966959403
 10
-46.7075292361
 20
-24.2267302979
 10
-46.8795766853
 20
-24.0387607197
 10
-47.0332437549
 20
-23.8350288045
 10
-47.1686843639
 20
-23.6171347852
 10
-47.2858748716
 20
-23.386004227
 10
-47.3829207318
 20
-23.1459884169
 10
-47.4578992758
 20
-22.9040633964
 10
-47.5107948848
 20
-22.664600908
 10
-47.5423332381
 20
-22.4290442347
 10
-47.5527829896
 20
-22.1999999747
  0
LWPOLYLINE
  5
33D
100
AcDbEntity
  8
SUPERFICI
100
AcDbPolyline
 62
7
  6
CONTINUOUS
 90
19
 70
0
 10
-44.7
 20
-24.4999999717
 10
-44.9017789409
 20
-24.4902849046
 10
-45.0998763546
 20
-24.463652826
 10
-45.2942922411
 20
-24.420103736
 10
-45.487243889
 20
-24.3586294445
 10
-45.6765140096
 20
-24.2802381416
 10
-45.855450737
 20
-24.1879543969
 10
-46.0224367573
 20
-24.0822896574
 10
-46.1790893844
 20
-23.962732476
 10
-46.3236086938
 20
-23.8307730817
 10
-46.4559378873
 20
-23.6863164514
 10
-46.5761337631
 20
-23.5294576082
 10
-46.6825667907
 20
-23.3619718496
 10
-46.7757634047
 20
-23.1821340025
 10
-46.8551971705
 20
-22.9916692401
 10
-46.9176592547
 20
-22.7975283793
 10
-46.9620800461
 20
-22.6020283592
 10
-46.9895291559
 20
-22.4028522407
 10
-47.000006584
 20
-22.2000000239
  0
LINE
  5
33E
100
AcDbEntity
  8
RACCORDO
100
AcDbLine
 62
250
  6
CONTINUOUS
 10
-25.0
 20
-41.0999999747
 11
-25.0000000001
 21
-41.0583859525
  0
LINE
  5
33F
100
AcDbEntity
  8
SUPERFICI
100
AcDbLine
 62
250
  6
CONTINUOUS
 10
-24.9999529754
 20
-29.0360403609
 11
-25.0000099003
 21
-41.0545897185
  0
LINE
  5
340
100
AcDbEntity
  8
SUPERFICI
100
AcDbLine
 62
250
  6
CONTINUOUS
 10
-24.9999580991
 20
-29.034403905
 11
-24.9994354515
 21
-27.9007207251
  0
LINE
  5
341
100
AcDbEntity
  8
SUPERFICI
100
AcDbLine
 62
7
  6
CONTINUOUS
 10
-44.7
 20
-24.4999999717
 11
44.7
 21
-24.4999999717
  0
LINE
  5
342
100
AcDbEntity
  8
RACCORDO
100
AcDbLine
 62
7
  6
CONTINUOUS
 10
-44.6999988926
 20
-23.9999999747
 11
44.6999988926
 21
-23.9999999747
  0
LINE
  5
343
100
AcDbEntity
  8
RACCORDO
100
AcDbLine
 62
250
  6
CONTINUOUS
 10
-44.6999988382
 20
-23.0000001222
 11
44.6999988382
 21
-23.0000001222
  0
LINE
  5
344
100
AcDbEntity
  8
RACCORDO
100
AcDbLine
 62
250
  6
CONTINUOUS
 10
45.5000001475
 20
-22.1999988015
 11
46.5
 21
-22.1999988257
  0
LINE
  5
345
100
AcDbEntity
  8
RACCORDO
100
AcDbLine
 62
250
  6
CONTINUOUS
 10
-45.5000001475
 20
-22.1999988206
 11
-46.5
 21
-22.1999989019
  0
LINE
  5
346
100
AcDbEntity
  8
SUPERFICI
100
AcDbLine
 62
250
  6
CONTINUOUS
 10
-47.0000071208
 20
-22.2000000239
 11
-50.39999
 21
-22.2001460422
  0
LWPOLYLINE
  5
347
100
AcDbEntity
  8
SUPERFICI
100
AcDbPolyline
 62
250
  6
CONTINUOUS
 90
3
 70
0
 10
49.9738937885
 20
-22.2000388191
 10
49.7630873404
 20
-22.2000074947
 10
47.0000071208
 20
-22.2000000239
  0
LINE
  5
348
100
AcDbEntity
  8
SUPERFICI
100
AcDbLine
 62
250
  6
CONTINUOUS
 10
50.39999
 20
-22.200146042
 11
49.9738937885
 21
-22.2000388191
  0
LINE
  5
349
100
AcDbEntity
  8
0
100
AcDbLine
 62
7
  6
CONTINUOUS
 10
-8.210367
 20
33.3237160253
 11
-7.270788
 21
36.2502020253
  0
LINE
  5
34A
100
AcDbEntity
  8
0
100
AcDbLine
 62
7
  6
CONTINUOUS
 10
-6.420746
 20
36.2502020253
 11
-7.785346
 21
32.0000110253
  0
LWPOLYLINE
  5
34B
100
AcDbEntity
  8
SUPERFICI
100
AcDbPolyline
 62
250
  6
CONTINUOUS
 90
19
 70
0
 10
-33.4400720632
 20
-31.6462400031
 10
-33.5892244479
 20
-32.0148448561
 10
-33.7330548422
 20
-32.3950060947
 10
-33.8708502292
 20
-32.786622042
 10
-34.0001928997
 20
-33.1896974023
 10
-34.1218984358
 20
-33.6040011782
 10
-34.2402909731
 20
-34.0290767089
 10
-34.356030976
 20
-34.4667868946
 10
-34.4671667741
 20
-34.9150038627
 10
-34.5747848974
 20
-35.3673241203
 10
-34.6777540643
 20
-35.8160198589
 10
-34.7771035206
 20
-36.2686392911
 10
-34.8768090555
 20
-36.7415652892
 10
-34.979178138
 20
-37.2494656709
 10
-35.0791674296
 20
-37.7768446477
 10
-35.1705029045
 20
-38.2950249272
 10
-35.2521555437
 20
-38.7947628255
 10
-35.3264869709
 20
-39.2857355193
 10
-35.3939747284
 20
-39.7681419297
  0
LWPOLYLINE
  5
34C
100
AcDbEntity
  8
SUPERFICI
100
AcDbPolyline
 62
250
  6
CONTINUOUS
 90
34
 70
0
 10
-33.4400720632
 20
-31.6462400031
 10
-33.2896265674
 20
-31.3191586809
 10
-33.1308473171
 20
-31.008259311
 10
-32.9648760616
 20
-30.713930821
 10
-32.7932468785
 20
-30.4372694373
 10
-32.616608158
 20
-30.1785038508
 10
-32.4348102528
 20
-29.9369416227
 10
-32.248399758
 20
-29.7129477314
 10
-32.0588128546
 20
-29.5079776568
 10
-31.8673998389
 20
-29.3228813813
 10
-31.6750833956
 20
-29.1579020478
 10
-31.4813729137
 20
-29.0111965657
 10
-31.2859777403
 20
-28.8802810266
 10
-31.0880635821
 20
-28.7633371081
 10
-30.886982538
 20
-28.6577256073
 10
-30.6803565936
 20
-28.5614151929
 10
-30.4658950469
 20
-28.473712488
 10
-30.2409744854
 20
-28.3942393382
 10
-30.003369544
 20
-28.322302851
 10
-29.7523529604
 20
-28.2572738992
 10
-29.48824392
 20
-28.1988747005
 10
-29.2122378369
 20
-28.1471337731
 10
-28.9246148183
 20
-28.1020062002
 10
-28.6253060956
 20
-28.06289322
 10
-28.3152756077
 20
-28.0288762443
 10
-27.9949454578
 20
-27.9994318985
 10
-27.6643819811
 20
-27.9744410088
 10
-27.3231161452
 20
-27.953710968
 10
-26.9693112035
 20
-27.9369152359
 10
-26.60224997
 20
-27.9237207556
 10
-26.2226898215
 20
-27.9137792066
 10
-25.8301312699
 20
-27.906742233
 10
-25.4227762982
 20
-27.9022827492
 10
-24.999469065
 20
-27.9001507582
  0
LINE
  5
34D
100
AcDbEntity
  8
SUPERFICI
100
AcDbLine
 62
250
  6
CONTINUOUS
 10
-64.8016215346
 20
-38.3772940471
 11
-65.9490691007
 21
-39.5557490512
  0
LWPOLYLINE
  5
34E
100
AcDbEntity
  8
SUPERFICI
100
AcDbPolyline
 62
250
  6
CONTINUOUS
 90
22
 70
0
 10
34.830937418
 20
-39.6450072357
 10
34.8408283791
 20
-39.6508192185
 10
34.8509141109
 20
-39.6571033453
 10
34.8611972261
 20
-39.6638684423
 10
34.8717067494
 20
-39.6713598433
 10
34.8824188942
 20
-39.6793482332
 10
34.8932547777
 20
-39.6871302446
 10
34.9040518095
 20
-39.6946785793
 10
34.9149683468
 20
-39.7020314431
 10
34.9264183273
 20
-39.7085944801
 10
34.9384560944
 20
-39.7139832427
 10
34.9510543088
 20
-39.7186225085
 10
34.9645275655
 20
-39.7231510827
 10
34.9790350667
 20
-39.7277589648
 10
34.994464521
 20
-39.7323140876
 10
35.0107229566
 20
-39.7369407099
 10
35.0276798008
 20
-39.7411129314
 10
35.0454755999
 20
-39.7452697681
 10
35.0644254454
 20
-39.7509478301
 10
35.0846463917
 20
-39.7585946217
 10
35.1060497976
 20
-39.7675812986
 10
35.1286532664
 20
-39.7778087574
  0
LINE
  5
34F
100
AcDbEntity
  8
0
100
AcDbLine
 62
7
  6
CONTINUOUS
 10
-61.4802765158
 20
34.9802765411
 11
-61.4795953518
 21
34.9795953771
  0
LINE
  5
350
100
AcDbEntity
  8
0
100
AcDbLine
 62
7
  6
CONTINUOUS
 10
-62.5197234842
 20
36.0197235094
 11
-62.5204046482
 21
36.0204046734
  0
LINE
  5
351
100
AcDbEntity
  8
0
100
AcDbLine
 62
7
  6
CONTINUOUS
 10
-61.4
 20
34.9000001671
 11
-61.3727025934
 21
34.8727027911
  0
LINE
  5
352
100
AcDbEntity
  8
0
100
AcDbLine
 62
7
  6
CONTINUOUS
 10
-62.6
 20
36.0999998834
 11
-62.6272974066
 21
36.1272972594
  0
LINE
  5
353
100
AcDbEntity
  8
0
100
AcDbLine
 62
7
  6
CONTINUOUS
 10
-2.075333
 20
33.4823260253
 11
-1.281656
 21
36.2502020253
  0
LINE
  5
354
100
AcDbEntity
  8
0
100
AcDbLine
 62
7
  6
CONTINUOUS
 10
-0.846679
 20
34.8027260253
 11
-1.650333
 21
32.0000210253
  0
LWPOLYLINE
  5
355
100
AcDbEntity
  8
SUPERFICI
100
AcDbPolyline
 62
250
  6
CONTINUOUS
 90
19
 70
0
 10
-32.9701699206
 20
-31.8664480357
 10
-32.7606281468
 20
-31.4534531402
 10
-32.5110512316
 20
-31.0069727819
 10
-32.2746006783
 20
-30.6376882221
 10
-32.0520355631
 20
-30.3409920847
 10
-31.8370061892
 20
-30.1000621239
 10
-31.6205623526
 20
-29.8968804525
 10
-31.3947167327
 20
-29.7141731459
 10
-31.1513681421
 20
-29.5435724063
 10
-30.8814950801
 20
-29.3882954978
 10
-30.5757287713
 20
-29.2544190946
 10
-30.2365905443
 20
-29.148075994
 10
-29.8818171421
 20
-29.0692506517
 10
-29.5281200486
 20
-29.0153571028
 10
-29.1805214061
 20
-28.9827790342
 10
-28.8329475628
 20
-28.967706838
 10
-28.4780639863
 20
-28.9661394828
 10
-28.1082665854
 20
-28.9739196234
 10
-27.2929417599
 20
-29.0002366243
  0
LWPOLYLINE
  5
356
100
AcDbEntity
  8
SUPERFICI
100
AcDbPolyline
 62
250
  6
CONTINUOUS
 90
8
 70
0
 10
34.6506824938
 20
-39.5316901769
 10
34.6680505058
 20
-39.5432295186
 10
34.6860812433
 20
-39.554317319
 10
34.7047849104
 20
-39.5653989233
 10
34.7241722171
 20
-39.5770174085
 10
34.7442483928
 20
-39.589487964
 10
34.7650013502
 20
-39.6027299142
 10
34.830937418
 20
-39.6450072357
  0
LINE
  5
357
100
AcDbEntity
  8
0
100
AcDbLine
 62
7
  6
CONTINUOUS
 10
-5.854072
 20
32.0000000253
 11
-5.854061
 21
36.2502020253
  0
LINE
  5
358
100
AcDbEntity
  8
0
100
AcDbLine
 62
7
  6
CONTINUOUS
 10
-5.004029
 20
36.2502020253
 11
-5.00404
 21
32.0000110253
  0
LINE
  5
359
100
AcDbEntity
  8
0
100
AcDbLine
 62
7
  6
CONTINUOUS
 10
0.570048
 20
32.0000110253
 11
1.934627
 21
36.2502130253
  0
LINE
  5
35A
100
AcDbEntity
  8
0
100
AcDbLine
 62
7
  6
CONTINUOUS
 10
1.688435
 20
32.8358480253
 11
1.420079
 21
32.0000210253
  0
LINE
  5
35B
100
AcDbEntity
  8
0
100
AcDbLine
 62
7
  6
CONTINUOUS
 10
2.359659
 20
34.9264970253
 11
1.947717
 21
33.6433790253
  0
LWPOLYLINE
  5
35C
100
AcDbEntity
  8
0
100
AcDbPolyline
 62
7
  6
CONTINUOUS
 90
3
 70
0
 10
61.3100891716
 20
36.0961974556
 10
61.3407625029
 20
36.1116535493
 10
61.3727025934
 20
36.1272972594
  0
LINE
  5
35D
100
AcDbEntity
  8
0
100
AcDbLine
 62
7
  6
CONTINUOUS
 10
61.4795953518
 20
36.0204046734
 11
61.4378660057
 21
35.9999465209
  0
LINE
  5
35E
100
AcDbEntity
  8
TRASH
100
AcDbLine
 62
7
  6
CONTINUOUS
 10
60.8550027299
 20
35.7281482434
 11
60.877893713
 21
35.7388223978
  0
LINE
  5
35F
100
AcDbEntity
  8
TRASH
100
AcDbLine
 62
7
  6
CONTINUOUS
 10
63.122106287
 20
35.2611776527
 11
63.1449972701
 21
35.2718518071
  0
LINE
  5
360
100
AcDbEntity
  8
0
100
AcDbLine
 62
7
  6
CONTINUOUS
 10
61.4378660057
 20
35.9999465209
 11
61.4802732178
 21
36.0197174602
  0
LINE
  5
361
100
AcDbEntity
  8
0
100
AcDbLine
 62
7
  6
CONTINUOUS
 10
62.5621339943
 20
35.0000535297
 11
62.5197267823
 21
34.9802825903
  0
LINE
  5
362
100
AcDbEntity
  8
0
100
AcDbLine
 62
7
  6
CONTINUOUS
 10
60.8778971865
 20
35.7388260431
 11
61.4
 21
35.9822893123
  0
LINE
  5
363
100
AcDbEntity
  8
0
100
AcDbLine
 62
7
  6
CONTINUOUS
 10
63.1221028135
 20
35.2611740074
 11
62.6
 21
35.0177107383
  0
LINE
  5
364
100
AcDbEntity
  8
SUPERFICI
100
AcDbLine
 62
250
  6
CONTINUOUS
 10
65.7183571554
 20
-37.0693442995
 11
67.2155647497
 21
-37.7012801267
  0
LINE
  5
365
100
AcDbEntity
  8
0
100
AcDbLine
 62
7
  6
CONTINUOUS
 10
-63.1898066956
 20
35.1675286123
 11
-63.171604981
 21
35.1549274006
  0
LINE
  5
366
100
AcDbEntity
  8
0
100
AcDbLine
 62
7
  6
CONTINUOUS
 10
-60.828395019
 20
35.8450726499
 11
-60.8101933044
 21
35.8324714382
  0
LINE
  5
367
100
AcDbEntity
  8
0
100
AcDbLine
 62
7
  6
CONTINUOUS
 10
-4.154029
 20
32.0000110253
 11
-4.154029
 21
36.2502020253
  0
LINE
  5
368
100
AcDbEntity
  8
0
100
AcDbLine
 62
7
  6
CONTINUOUS
 10
-3.303997
 20
34.8027260253
 11
-3.303997
 21
32.0000110253
  0
LINE
  5
369
100
AcDbEntity
  8
0
100
AcDbLine
 62
7
  6
CONTINUOUS
 10
-0.846669
 20
32.0000110253
 11
-0.846679
 21
34.8027260253
  0
LINE
  5
36A
100
AcDbEntity
  8
SUPERFICI
100
AcDbLine
 62
250
  6
CONTINUOUS
 10
0.0
 20
39.7498200253
 11
0.0
 21
41.159016826
  0
LINE
  5
36B
100
AcDbEntity
  8
0
100
AcDbLine
 62
7
  6
CONTINUOUS
 10
0.003363
 20
36.2502020253
 11
0.003363
 21
32.0000110253
  0
LINE
  5
36C
100
AcDbEntity
  8
0
100
AcDbLine
 62
250
  6
CONTINUOUS
 10
0.0
 20
39.7498200253
 11
0.0017082973
 21
36.2502019915
  0
LINE
  5
36D
100
AcDbEntity
  8
0
100
AcDbLine
 62
250
  6
CONTINUOUS
 10
0.0017549518
 20
32.0000110169
 11
0.0000961481
 21
27.8999900253
  0
LINE
  5
36E
100
AcDbEntity
  8
0
100
AcDbLine
 62
7
  6
CONTINUOUS
 10
60.8283951111
 20
35.8450726991
 11
60.9759195551
 21
35.9234094023
  0
LINE
  5
36F
100
AcDbEntity
  8
0
100
AcDbLine
 62
7
  6
CONTINUOUS
 10
63.171604889
 20
35.1549273514
 11
63.0240804449
 21
35.0765906483
  0
LINE
  5
370
100
AcDbEntity
  8
0
100
AcDbLine
 62
7
  6
CONTINUOUS
 10
60.9759195551
 20
35.9234094023
 11
61.0738016863
 21
35.9747361533
  0
LINE
  5
371
100
AcDbEntity
  8
0
100
AcDbLine
 62
7
  6
CONTINUOUS
 10
63.0240804449
 20
35.0765906483
 11
62.9261983137
 21
35.0252638972
  0
LINE
  5
372
100
AcDbEntity
  8
0
100
AcDbLine
 62
7
  6
CONTINUOUS
 10
61.0738016863
 20
35.9747361533
 11
61.147788788
 21
36.0131386553
  0
LINE
  5
373
100
AcDbEntity
  8
0
100
AcDbLine
 62
7
  6
CONTINUOUS
 10
62.9261983137
 20
35.0252638972
 11
62.852211212
 21
34.9868613952
  0
LWPOLYLINE
  5
374
100
AcDbEntity
  8
0
100
AcDbPolyline
 62
7
  6
CONTINUOUS
 90
4
 70
0
 10
61.147788788
 20
36.0131386553
 10
61.2252366272
 20
36.0529282247
 10
61.252396052
 20
36.0666771008
 10
61.3100891716
 20
36.0961974556
  0
LWPOLYLINE
  5
375
100
AcDbEntity
  8
0
100
AcDbPolyline
 62
7
  6
CONTINUOUS
 90
4
 70
0
 10
62.852211212
 20
34.9868613952
 10
62.7747633728
 20
34.9470718258
 10
62.747603948
 20
34.9333229497
 10
62.6899108284
 20
34.903802595
  0
LWPOLYLINE
  5
376
100
AcDbEntity
  8
0
100
AcDbPolyline
 62
7
  6
CONTINUOUS
 90
3
 70
0
 10
62.6899108284
 20
34.903802595
 10
62.6592374971
 20
34.8883465012
 10
62.6272974066
 20
34.8727027911
  0
LINE
  5
377
100
AcDbEntity
  8
0
100
AcDbLine
 62
7
  6
CONTINUOUS
 10
62.5204046482
 20
34.9795953771
 11
62.5621339943
 21
35.0000535297
  0
LINE
  5
378
100
AcDbEntity
  8
SUPERFICI
100
AcDbLine
 62
250
  6
CONTINUOUS
 10
-50.3999638654
 20
0.0000000265
 11
-67.6590394992
 21
0.0000000253
  0
LINE
  5
379
100
AcDbEntity
  8
SUPERFICI
100
AcDbLine
 62
250
  6
CONTINUOUS
 10
67.6590164008
 20
0.0000000253
 11
50.3999734864
 21
0.0000000269
  0
LINE
  5
37A
100
AcDbEntity
  8
0
100
AcDbLine
 62
7
  6
CONTINUOUS
 10
4.715986
 20
32.0000210253
 11
4.715986
 21
36.2502130253
  0
LINE
  5
37B
100
AcDbEntity
  8
0
100
AcDbLine
 62
7
  6
CONTINUOUS
 10
5.554299
 20
35.4639310253
 11
5.554309
 21
34.4296720253
  0
LINE
  5
37C
100
AcDbEntity
  8
0
100
AcDbLine
 62
7
  6
CONTINUOUS
 10
5.566124
 20
33.6433900253
 11
5.566029
 21
32.0000210253
  0
LINE
  5
37D
100
AcDbEntity
  8
0
100
AcDbLine
 62
7
  6
CONTINUOUS
 10
60.809952251
 20
35.8323044834
 11
60.8283951111
 21
35.8450726991
  0
LINE
  5
37E
100
AcDbEntity
  8
0
100
AcDbLine
 62
7
  6
CONTINUOUS
 10
-62.5197234838
 20
34.9802765414
 11
-62.5621335303
 21
35.000053008
  0
LINE
  5
37F
100
AcDbEntity
  8
TRASH
100
AcDbLine
 62
7
  6
CONTINUOUS
 10
-63.1221062937
 20
35.2611776428
 11
-63.1449972769
 21
35.2718517972
  0
LINE
  5
380
100
AcDbEntity
  8
0
100
AcDbLine
 62
7
  6
CONTINUOUS
 10
-62.6
 20
35.0177102182
 11
-63.1221066533
 21
35.2611752843
  0
LWPOLYLINE
  5
381
100
AcDbEntity
  8
0
100
AcDbPolyline
 62
7
  6
CONTINUOUS
 90
4
 70
0
 10
-62.6272975093
 20
34.872702509
 10
-62.6591558065
 20
34.8883081993
 10
-62.6897554608
 20
34.903726765
 10
-62.7191594664
 20
34.9187978525
  0
LWPOLYLINE
  5
382
100
AcDbEntity
  8
0
100
AcDbPolyline
 62
7
  6
CONTINUOUS
 90
4
 70
0
 10
-61.3727024907
 20
36.1272975416
 10
-61.3408441935
 20
36.1116918513
 10
-61.3102445392
 20
36.0962732855
 10
-61.2808405336
 20
36.081202198
  0
LINE
  5
383
100
AcDbEntity
  8
0
100
AcDbLine
 62
7
  6
CONTINUOUS
 10
-62.5621335303
 20
35.000053008
 11
-62.5204046482
 21
34.9795953771
  0
LINE
  5
384
100
AcDbEntity
  8
0
100
AcDbLine
 62
7
  6
CONTINUOUS
 10
-61.4378664696
 20
35.9999470425
 11
-61.4795953518
 21
36.0204046734
  0
LINE
  5
385
100
AcDbEntity
  8
0
100
AcDbLine
 62
7
  6
CONTINUOUS
 10
-62.7191594664
 20
34.9187978525
 11
-62.8008536937
 21
34.9604183299
  0
LINE
  5
386
100
AcDbEntity
  8
0
100
AcDbLine
 62
7
  6
CONTINUOUS
 10
-61.2808405336
 20
36.081202198
 11
-61.1991463063
 21
36.0395817207
  0
LINE
  5
387
100
AcDbEntity
  8
0
100
AcDbLine
 62
7
  6
CONTINUOUS
 10
-62.8008536937
 20
34.9604183299
 11
-62.8766776315
 21
34.9995102219
  0
LINE
  5
388
100
AcDbEntity
  8
0
100
AcDbLine
 62
7
  6
CONTINUOUS
 10
-61.1991463063
 20
36.0395817207
 11
-61.1233223684
 21
36.0004898286
  0
LINE
  5
389
100
AcDbEntity
  8
0
100
AcDbLine
 62
7
  6
CONTINUOUS
 10
-62.8766776315
 20
34.9995102219
 11
-62.9995138679
 21
35.063647802
  0
LINE
  5
38A
100
AcDbEntity
  8
0
100
AcDbLine
 62
7
  6
CONTINUOUS
 10
-61.1233223684
 20
36.0004898286
 11
-61.0004861321
 21
35.9363522486
  0
LWPOLYLINE
  5
38B
100
AcDbEntity
  8
0
100
AcDbPolyline
 62
7
  6
CONTINUOUS
 90
4
 70
0
 10
-62.9995138679
 20
35.063647802
 10
-63.0980377467
 20
35.1157285125
 10
-63.1225892044
 20
35.1288224855
 10
-63.171604981
 20
35.1549274006
  0
LWPOLYLINE
  5
38C
100
AcDbEntity
  8
0
100
AcDbPolyline
 62
7
  6
CONTINUOUS
 90
4
 70
0
 10
-61.0004861321
 20
35.9363522486
 10
-60.9019622533
 20
35.884271538
 10
-60.8774107956
 20
35.871177565
 10
-60.828395019
 20
35.8450726499
  0
LINE
  5
38D
100
AcDbEntity
  8
0
100
AcDbLine
 62
7
  6
CONTINUOUS
 10
-8.63541
 20
32.0000000253
 11
-10.0
 21
36.2502020253
  0
LINE
  5
38E
100
AcDbEntity
  8
0
100
AcDbLine
 62
7
  6
CONTINUOUS
 10
-9.149957
 20
36.2502020253
 11
-8.210367
 21
33.3237160253
  0
LINE
  5
38F
100
AcDbEntity
  8
0
100
AcDbLine
 62
7
  6
CONTINUOUS
 10
63.171604889
 20
35.1549273514
 11
63.190047748
 21
35.1676955664
  0
LINE
  5
390
100
AcDbEntity
  8
SUPERFICI
100
AcDbLine
 62
250
  6
CONTINUOUS
 10
-65.7183598514
 20
-37.069345337
 11
-67.2155779364
 21
-37.7012856932
  0
LINE
  5
391
100
AcDbEntity
  8
0
100
AcDbLine
 62
7
  6
CONTINUOUS
 10
-61.4802765161
 20
36.0197235091
 11
-61.4378664696
 21
35.9999470425
  0
LINE
  5
392
100
AcDbEntity
  8
TRASH
100
AcDbLine
 62
7
  6
CONTINUOUS
 10
-60.8778937063
 20
35.7388224077
 11
-60.8550027231
 21
35.7281482534
  0
LINE
  5
393
100
AcDbEntity
  8
0
100
AcDbLine
 62
7
  6
CONTINUOUS
 10
-61.4
 20
35.9822898324
 11
-60.8778933466
 21
35.7388247662
  0
LINE
  5
394
100
AcDbEntity
  8
0
100
AcDbLine
 62
7
  6
CONTINUOUS
 10
-2.500344
 20
32.0000110253
 11
-3.303997
 21
34.8027260253
  0
LINE
  5
395
100
AcDbEntity
  8
0
100
AcDbLine
 62
7
  6
CONTINUOUS
 10
-2.86901
 20
36.2502020253
 11
-2.075333
 21
33.4823260253
  0
LINE
  5
396
100
AcDbEntity
  8
SUPERFICI
100
AcDbLine
 62
250
  6
CONTINUOUS
 10
-34.8310146618
 20
-39.645284929
 11
-34.7864174002
 21
-39.6165569386
  0
LWPOLYLINE
  5
397
100
AcDbEntity
  8
SUPERFICI
100
AcDbPolyline
 62
250
  6
CONTINUOUS
 90
3
 70
0
 10
-34.7864174002
 20
-39.6165569386
 10
-34.7442474321
 20
-39.5897538908
 10
-34.7241273052
 20
-39.5770914891
  0
LWPOLYLINE
  5
398
100
AcDbEntity
  8
SUPERFICI
100
AcDbPolyline
 62
250
  6
CONTINUOUS
 90
4
 70
0
 10
-34.7241273052
 20
-39.5770914891
 10
-34.6859639299
 20
-39.5534648968
 10
-34.6679305269
 20
-39.541976266
 10
-34.6505805427
 20
-39.5300027127
  0
LWPOLYLINE
  5
399
100
AcDbEntity
  8
SUPERFICI
100
AcDbPolyline
 62
250
  6
CONTINUOUS
 90
19
 70
0
 10
32.9701682383
 20
-31.8664576562
 10
32.7682046331
 20
-31.4677619481
 10
32.525836179
 20
-31.032946233
 10
32.2893967845
 20
-30.6599370472
 10
32.0625446917
 20
-30.3538980205
 10
31.8405763988
 20
-30.1039161281
 10
31.6166467843
 20
-29.8934459811
 10
31.3845230307
 20
-29.7072699938
 10
31.1375369764
 20
-29.5368071978
 10
30.8675131211
 20
-29.3832638108
 10
30.5663296644
 20
-29.2510100626
 10
30.2360403264
 20
-29.1459122287
 10
29.8895854698
 20
-29.0688832533
 10
29.5378816594
 20
-29.0179618605
 10
29.1852222219
 20
-28.9890694965
 10
28.8336752992
 20
-28.9764806605
 10
28.484704344
 20
-28.9741670286
 10
28.1300695668
 20
-28.9780582217
 10
27.7498259888
 20
-28.9864845439
  0
LINE
  5
39A
100
AcDbEntity
  8
0
100
AcDbLine
 62
7
  6
CONTINUOUS
 10
3.299259
 20
32.0000210253
 11
3.030914
 21
32.8358480253
  0
LINE
  5
39B
100
AcDbEntity
  8
0
100
AcDbLine
 62
7
  6
CONTINUOUS
 10
2.771622
 20
33.6433790253
 11
2.359659
 21
34.9264970253
  0
LINE
  5
39C
100
AcDbEntity
  8
0
100
AcDbLine
 62
7
  6
CONTINUOUS
 10
2.784701
 20
36.2502130253
 11
4.149302
 21
32.0000110253
  0
LINE
  5
39D
100
AcDbEntity
  8
0
100
AcDbLine
 62
7
  6
CONTINUOUS
 10
61.4795953518
 20
34.9795953771
 11
61.4802765158
 21
34.9802765411
  0
LINE
  5
39E
100
AcDbEntity
  8
0
100
AcDbLine
 62
7
  6
CONTINUOUS
 10
62.5197234842
 20
36.0197235094
 11
62.5204046482
 21
36.0204046734
  0
LINE
  5
39F
100
AcDbEntity
  8
0
100
AcDbLine
 62
7
  6
CONTINUOUS
 10
61.3727024907
 20
34.872702509
 11
61.4
 21
34.9000000189
  0
LINE
  5
3A0
100
AcDbEntity
  8
0
100
AcDbLine
 62
7
  6
CONTINUOUS
 10
62.6
 20
36.1000000316
 11
62.6272975093
 21
36.1272975416
  0
LWPOLYLINE
  5
3A1
100
AcDbEntity
  8
SUPERFICI
100
AcDbPolyline
 62
250
  6
CONTINUOUS
 90
22
 70
0
 10
-35.1282600932
 20
-39.7749186732
 10
-35.1054510692
 20
-39.7642705667
 10
-35.0839228379
 20
-39.7552845232
 10
-35.0636486489
 20
-39.7479451286
 10
-35.0447050164
 20
-39.7427694378
 10
-35.0269577495
 20
-39.7392129951
 10
-35.0100751117
 20
-39.7356692906
 10
-34.9939054844
 20
-39.7316481948
 10
-34.9785698441
 20
-39.7276169276
 10
-34.9641530693
 20
-39.723403885
 10
-34.9507515602
 20
-39.7191283781
 10
-34.9382250261
 20
-39.7146472378
 10
-34.9263076981
 20
-39.7093953784
 10
-34.9150738438
 20
-39.7029988645
 10
-34.9044212258
 20
-39.6958131787
 10
-34.8938417974
 20
-39.6883754628
 10
-34.8831774634
 20
-39.6806535836
 10
-34.8725933949
 20
-39.6726774576
 10
-34.8620827083
 20
-39.6650864415
 10
-34.8516456899
 20
-39.6580959111
 10
-34.8412885925
 20
-39.6514946717
 10
-34.8310146618
 20
-39.645284929
  0
LINE
  5
3A2
100
AcDbEntity
  8
0
100
AcDbLine
 62
7
  6
CONTINUOUS
 10
60.3280087497
 20
35.7281395174
 11
60.3810555397
 21
35.7398070693
  0
LINE
  5
3A3
100
AcDbEntity
  8
0
100
AcDbLine
 62
7
  6
CONTINUOUS
 10
63.6719912502
 20
35.2718605326
 11
63.4052030739
 21
35.2136918122
  0
LINE
  5
3A4
100
AcDbEntity
  8
0
100
AcDbLine
 62
7
  6
CONTINUOUS
 10
63.4052030739
 20
35.2136918122
 11
63.190047748
 21
35.1676955664
  0
LINE
  5
3A5
100
AcDbEntity
  8
SUPERFICI
100
AcDbLine
 62
250
  6
CONTINUOUS
 10
50.399989998
 20
22.2000100254
 11
50.2735500808
 21
22.1991308699
  0
LINE
  5
3A6
100
AcDbEntity
  8
0
100
AcDbLine
 62
7
  6
CONTINUOUS
 10
-63.5119012961
 20
35.2369418475
 11
-63.1898066956
 21
35.1675286123
  0
LINE
  5
3A7
100
AcDbEntity
  8
0
100
AcDbLine
 62
7
  6
CONTINUOUS
 10
-63.6720177359
 20
35.2720547257
 11
-63.5119012961
 21
35.2369418475
  0
LINE
  5
3A8
100
AcDbEntity
  8
SUPERFICI
100
AcDbLine
 62
250
  6
CONTINUOUS
 10
64.8016203992
 20
-38.3772930301
 11
65.9490691008
 21
-39.5557490512
  0
LINE
  5
3A9
100
AcDbEntity
  8
0
100
AcDbLine
 62
7
  6
CONTINUOUS
 10
7.159853
 20
32.0000210253
 11
6.308015
 21
33.6433790253
  0
LINE
  5
3AA
100
AcDbEntity
  8
0
100
AcDbLine
 62
7
  6
CONTINUOUS
 10
7.2124666115
 20
33.7456057041
 11
8.117283
 21
32.0000320253
  0
LWPOLYLINE
  5
3AB
100
AcDbEntity
  8
SUPERFICI
100
AcDbPolyline
 62
250
  6
CONTINUOUS
 90
34
 70
0
 10
33.4402366943
 20
-31.6462296793
 10
33.3020293995
 20
-31.3446046046
 10
33.1576009458
 20
-31.0574672608
 10
33.0076113376
 20
-30.7848977417
 10
32.8528135302
 20
-30.5268461087
 10
32.6935738196
 20
-30.2835017776
 10
32.529895699
 20
-30.055295632
 10
32.361504818
 20
-29.842161465
 10
32.1894539029
 20
-29.6442707184
 10
32.0156438779
 20
-29.4624040155
 10
31.8407871647
 20
-29.2977828871
 10
31.6645333365
 20
-29.1492581759
 10
31.4870697815
 20
-29.0140423357
 10
31.3095775787
 20
-28.8927548944
 10
31.1308942369
 20
-28.784811017
 10
30.9476418138
 20
-28.685603431
 10
30.7601602865
 20
-28.5944131088
 10
30.5679827634
 20
-28.5119709662
 10
30.3665212443
 20
-28.4358377843
 10
30.1544722412
 20
-28.3653735327
 10
29.9328758359
 20
-28.3012201212
 10
29.7006362329
 20
-28.242858557
 10
29.4565848672
 20
-28.190319559
 10
29.201455426
 20
-28.1435680005
 10
28.9370063802
 20
-28.1019853451
 10
28.6633283676
 20
-28.0656948299
 10
28.3798419324
 20
-28.0345665724
 10
28.0873586462
 20
-28.0076032495
 10
27.7861475349
 20
-27.9848553961
 10
27.4754606098
 20
-27.9662668145
 10
27.1546505072
 20
-27.9506817012
 10
26.8241222007
 20
-27.9383735218
 10
26.4830054039
 20
-27.9290658749
 10
25.7605819414
 20
-27.9128589469
  0
LINE
  5
3AC
100
AcDbEntity
  8
SUPERFICI
100
AcDbLine
 62
250
  6
CONTINUOUS
 10
24.9996233621
 20
-27.9007207161
 11
24.999761373
 21
-28.1589379205
  0
LINE
  5
3AD
100
AcDbEntity
  8
RACCORDO
100
AcDbLine
 62
250
  6
CONTINUOUS
 10
25.0
 20
-41.0999999747
 11
25.0
 21
-41.0583859525
  0
LINE
  5
3AE
100
AcDbEntity
  8
SUPERFICI
100
AcDbLine
 62
250
  6
CONTINUOUS
 10
25.0000097967
 20
-41.0545894129
 11
24.999952784
 21
-29.0353681914
  0
LINE
  5
3AF
100
AcDbEntity
  8
SUPERFICI
100
AcDbLine
 62
250
  6
CONTINUOUS
 10
24.999761373
 20
-28.1589379205
 11
24.99995786
 21
-29.0337334603
  0
LINE
  5
3B0
100
AcDbEntity
  8
0
100
AcDbLine
 62
7
  6
CONTINUOUS
 10
60.3810555397
 20
35.7398070693
 11
60.6485267331
 21
35.7978706372
  0
LINE
  5
3B1
100
AcDbEntity
  8
0
100
AcDbLine
 62
7
  6
CONTINUOUS
 10
60.6485267331
 20
35.7978706372
 11
60.809952251
 21
35.8323044834
  0
LWPOLYLINE
  5
3B2
100
AcDbEntity
  8
SUPERFICI
100
AcDbPolyline
 62
7
  6
CONTINUOUS
 90
8
 70
0
 10
38.0109126698
 20
27.8879438088
 10
37.2080024858
 20
27.8730792517
 10
36.8117332086
 20
27.8684183035
 10
36.4205873989
 20
27.8670716269
 10
36.0317979275
 20
27.8681604666
 10
35.6337607924
 20
27.8708130423
 10
35.2256333438
 20
27.8752146632
 10
34.372559403
 20
27.88728177
  0
LINE
  5
3B3
100
AcDbEntity
  8
RACCORDO
100
AcDbLine
 62
250
  6
CONTINUOUS
 10
45.5000006624
 20
22.1999945148
 11
46.5
 21
22.1999953198
  0
LINE
  5
3B4
100
AcDbEntity
  8
RACCORDO
100
AcDbLine
 62
250
  6
CONTINUOUS
 10
-45.5000006624
 20
22.1999944998
 11
-46.5
 21
22.1999948211
  0
LINE
  5
3B5
100
AcDbEntity
  8
SUPERFICI
100
AcDbLine
 62
250
  6
CONTINUOUS
 10
-46.9999928792
 20
22.2000100312
 11
-50.399981625
 21
22.200009756
  0
LINE
  5
3B6
100
AcDbEntity
  8
RACCORDO
100
AcDbLine
 62
250
  6
CONTINUOUS
 10
44.6999937467
 20
23.0000006876
 11
-44.6999937535
 21
23.0000006876
  0
LINE
  5
3B7
100
AcDbEntity
  8
RACCORDO
100
AcDbLine
 62
7
  6
CONTINUOUS
 10
44.6999940017
 20
24.0000000253
 11
-44.699994012
 21
24.0000000253
  0
LINE
  5
3B8
100
AcDbEntity
  8
SUPERFICI
100
AcDbLine
 62
7
  6
CONTINUOUS
 10
44.7
 20
24.5000000201
 11
-44.7
 21
24.4999999962
  0
LINE
  5
3B9
100
AcDbEntity
  8
SUPERFICI
100
AcDbLine
 62
7
  6
CONTINUOUS
 10
44.6999717366
 20
26.1000090159
 11
-44.6999697879
 21
26.1000089691
  0
LINE
  5
3BA
100
AcDbEntity
  8
SUPERFICI
100
AcDbLine
 62
250
  6
CONTINUOUS
 10
49.576400444
 20
22.1997901593
 11
48.704810969
 21
22.1999401767
  0
LINE
  5
3BB
100
AcDbEntity
  8
SUPERFICI
100
AcDbLine
 62
250
  6
CONTINUOUS
 10
48.704810969
 20
22.1999401767
 11
46.9999928792
 21
22.2000100312
  0
LWPOLYLINE
  5
3BC
100
AcDbEntity
  8
SUPERFICI
100
AcDbPolyline
 62
250
  6
CONTINUOUS
 90
3
 70
0
 10
50.2735500808
 20
22.1991308699
 10
50.1460365522
 20
22.1990293344
 10
49.576400444
 20
22.1997901593
  0
LINE
  5
3BD
100
AcDbEntity
  8
0
100
AcDbLine
 62
7
  6
CONTINUOUS
 10
-60.8101933044
 20
35.8324714382
 11
-60.4881002192
 21
35.7630585334
  0
LWPOLYLINE
  5
3BE
100
AcDbEntity
  8
0
100
AcDbPolyline
 62
7
  6
CONTINUOUS
 90
3
 70
0
 10
-60.4881002192
 20
35.7630585334
 10
-60.3812816791
 20
35.7396789584
 10
-60.3279822641
 20
35.7279453248
  0
LWPOLYLINE
  5
3BF
100
AcDbEntity
  8
SUPERFICI
100
AcDbPolyline
 62
250
  6
CONTINUOUS
 90
10
 70
0
 10
34.6506824938
 20
-39.5316901769
 10
34.5586892171
 20
-38.4829679728
 10
34.4402148644
 20
-37.5035094838
 10
34.3049413124
 20
-36.605601943
 10
34.1491050739
 20
-35.7531012282
 10
33.9643099273
 20
-34.8968139231
 10
33.7367073218
 20
-34.0148926848
 10
33.4849126602
 20
-33.1901942331
 10
33.2346116183
 20
-32.49073997
 10
32.9701682544
 20
-31.866457648
  0
LWPOLYLINE
  5
3C0
100
AcDbEntity
  8
SUPERFICI
100
AcDbPolyline
 62
250
  6
CONTINUOUS
 90
22
 70
0
 10
-44.6999908493
 20
27.9000035068
 10
-45.0983258895
 20
27.8889108214
 10
-45.5016151617
 20
27.8478468678
 10
-45.9074147713
 20
27.7756032459
 10
-46.3124924552
 20
27.6706874313
 10
-46.7145605202
 20
27.5328705737
 10
-47.1126282672
 20
27.3627573807
 10
-47.5074700899
 20
27.1585695872
 10
-47.8921947272
 20
26.9202868017
 10
-48.2553938456
 20
26.6531743843
 10
-48.5917877972
 20
26.3617137024
 10
-48.9031302966
 20
26.046077765
 10
-49.1895755059
 20
25.7068759759
 10
-49.4517375191
 20
25.3423066382
 10
-49.6849227167
 20
24.9577856942
 10
-49.8834836292
 20
24.5657501086
 10
-50.0475109991
 20
24.174593069
 10
-50.1799357926
 20
23.7822569694
 10
-50.2809218159
 20
23.3865059967
 10
-50.3505258319
 20
22.9884022021
 10
-50.3898766129
 20
22.5921146885
 10
-50.3999816234
 20
22.2000097561
  0
LWPOLYLINE
  5
3C1
100
AcDbEntity
  8
SUPERFICI
100
AcDbPolyline
 62
7
  6
CONTINUOUS
 90
6
 70
0
 10
40.7398416164
 20
27.930352462
 10
40.3910047238
 20
27.9280116639
 10
40.0276855468
 20
27.9243869541
 10
39.651027905
 20
27.9195637016
 10
39.2610227056
 20
27.9135108606
 10
38.0109126698
 20
27.8879438088
  0
LINE
  5
3C2
100
AcDbEntity
  8
SUPERFICI
100
AcDbLine
 62
7
  6
CONTINUOUS
 10
-33.540852546
 20
27.897921623
 11
-35.4330258533
 21
27.8857890652
  0
LINE
  5
3C3
100
AcDbEntity
  8
SUPERFICI
100
AcDbLine
 62
7
  6
CONTINUOUS
 10
30.7916335024
 20
27.9065081179
 11
29.6051441583
 21
27.9012462949
  0
LINE
  5
3C4
100
AcDbEntity
  8
SUPERFICI
100
AcDbLine
 62
7
  6
CONTINUOUS
 10
-35.4330258533
 20
27.8857890652
 11
-36.0657896264
 21
27.8828492049
  0
LINE
  5
3C5
100
AcDbEntity
  8
SUPERFICI
100
AcDbLine
 62
7
  6
CONTINUOUS
 10
29.6051441583
 20
27.9012462949
 11
28.311105985
 21
27.8983760774
  0
LINE
  5
3C6
100
AcDbEntity
  8
SUPERFICI
100
AcDbLine
 62
7
  6
CONTINUOUS
 10
-32.2782709081
 20
27.9016271586
 11
-33.540852546
 21
27.897921623
  0
LINE
  5
3C7
100
AcDbEntity
  8
SUPERFICI
100
AcDbLine
 62
7
  6
CONTINUOUS
 10
41.4009405577
 20
27.9317258366
 11
40.7398416164
 21
27.930352462
  0
LINE
  5
3C8
100
AcDbEntity
  8
SUPERFICI
100
AcDbLine
 62
7
  6
CONTINUOUS
 10
-36.0657896264
 20
27.8828492049
 11
-36.7016256075
 21
27.8822746064
  0
LINE
  5
3C9
100
AcDbEntity
  8
SUPERFICI
100
AcDbLine
 62
7
  6
CONTINUOUS
 10
28.311105985
 20
27.8983760774
 11
27.0300079741
 21
27.8976437022
  0
LINE
  5
3CA
100
AcDbEntity
  8
DRAFT
100
AcDbLine
 62
7
  6
CONTINUOUS
 10
66.1994747004
 20
31.0000000253
 11
59.55
 21
31.0000000253
  0
LINE
  5
3CB
100
AcDbEntity
  8
DRAFT
100
AcDbLine
 62
7
  6
CONTINUOUS
 10
-59.55
 20
31.0000000253
 11
-66.1997291685
 21
31.0000000253
  0
LINE
  5
3CC
100
AcDbEntity
  8
COPY_GEOM
100
AcDbLine
 62
7
  6
CONTINUOUS
 10
59.5
 20
31.3000000253
 11
66.2
 21
31.3000000253
  0
LINE
  5
3CD
100
AcDbEntity
  8
COPY_GEOM
100
AcDbLine
 62
7
  6
CONTINUOUS
 10
-59.5
 20
31.3000000253
 11
-66.2
 21
31.3000000253
  0
LINE
  5
3CE
100
AcDbEntity
  8
0
100
AcDbLine
 62
7
  6
CONTINUOUS
 10
8.117283
 20
32.0000320253
 11
7.159853
 21
32.0000210253
  0
LINE
  5
3CF
100
AcDbEntity
  8
0
100
AcDbLine
 62
7
  6
CONTINUOUS
 10
1.420079
 20
32.0000210253
 11
0.570048
 21
32.0000110253
  0
LINE
  5
3D0
100
AcDbEntity
  8
0
100
AcDbLine
 62
7
  6
CONTINUOUS
 10
0.003363
 20
32.0000110253
 11
-0.846669
 21
32.0000110253
  0
LINE
  5
3D1
100
AcDbEntity
  8
0
100
AcDbLine
 62
7
  6
CONTINUOUS
 10
-3.303997
 20
32.0000110253
 11
-4.154029
 21
32.0000110253
  0
LINE
  5
3D2
100
AcDbEntity
  8
0
100
AcDbLine
 62
7
  6
CONTINUOUS
 10
5.566029
 20
32.0000210253
 11
4.715986
 21
32.0000210253
  0
LINE
  5
3D3
100
AcDbEntity
  8
0
100
AcDbLine
 62
7
  6
CONTINUOUS
 10
-1.650333
 20
32.0000210253
 11
-2.500344
 21
32.0000110253
  0
LINE
  5
3D4
100
AcDbEntity
  8
0
100
AcDbLine
 62
7
  6
CONTINUOUS
 10
4.149302
 20
32.0000110253
 11
3.299259
 21
32.0000210253
  0
LINE
  5
3D5
100
AcDbEntity
  8
0
100
AcDbLine
 62
7
  6
CONTINUOUS
 10
-5.00404
 20
32.0000110253
 11
-5.854072
 21
32.0000000253
  0
LINE
  5
3D6
100
AcDbEntity
  8
0
100
AcDbLine
 62
7
  6
CONTINUOUS
 10
-7.785346
 20
32.0000110253
 11
-8.63541
 21
32.0000000253
  0
LINE
  5
3D7
100
AcDbEntity
  8
SUPERFICI
100
AcDbLine
 62
7
  6
CONTINUOUS
 10
-17.4564792381
 20
27.9000108466
 11
-26.3637815283
 21
27.8996116456
  0
LINE
  5
3D8
100
AcDbEntity
  8
SUPERFICI
100
AcDbLine
 62
7
  6
CONTINUOUS
 10
-26.3637815283
 20
27.8996116456
 11
-32.2782709081
 21
27.9016271586
  0
LINE
  5
3D9
100
AcDbEntity
  8
SUPERFICI
100
AcDbLine
 62
7
  6
CONTINUOUS
 10
27.0300079741
 20
27.8976437022
 11
-17.4564792381
 21
27.9000108466
  0
LINE
  5
3DA
100
AcDbEntity
  8
SUPERFICI
100
AcDbLine
 62
7
  6
CONTINUOUS
 10
-36.7016256075
 20
27.8822746064
 11
-37.3491621366
 21
27.8849202816
  0
LINE
  5
3DB
100
AcDbEntity
  8
SUPERFICI
100
AcDbLine
 62
7
  6
CONTINUOUS
 10
42.024576882
 20
27.9292120198
 11
41.4009405577
 21
27.9317258366
  0
LINE
  5
3DC
100
AcDbEntity
  8
SUPERFICI
100
AcDbLine
 62
7
  6
CONTINUOUS
 10
-40.1269396606
 20
27.9177300515
 11
-40.8594590447
 21
27.9216632342
  0
LWPOLYLINE
  5
3DD
100
AcDbEntity
  8
SUPERFICI
100
AcDbPolyline
 62
7
  6
CONTINUOUS
 90
11
 70
0
 10
-40.8594590447
 20
27.9216632342
 10
-41.2299932972
 20
27.924238222
 10
-41.6032376237
 20
27.9295365807
 10
-41.9793079954
 20
27.9358051038
 10
-42.3584813396
 20
27.9394785921
 10
-42.7408220706
 20
27.9393647261
 10
-43.1262657741
 20
27.9366559496
 10
-43.5148961352
 20
27.9313643423
 10
-43.906741049
 20
27.9234938259
 10
-44.3017726203
 20
27.913040223
 10
-44.6999908493
 20
27.9000035074
  0
LINE
  5
3DE
100
AcDbEntity
  8
SUPERFICI
100
AcDbLine
 62
7
  6
CONTINUOUS
 10
-37.3491621366
 20
27.8849202816
 11
-38.0126958785
 21
27.890885477
  0
LWPOLYLINE
  5
3DF
100
AcDbEntity
  8
SUPERFICI
100
AcDbPolyline
 62
7
  6
CONTINUOUS
 90
6
 70
0
 10
33.4400743757
 20
27.9001048268
 10
32.9464445672
 20
27.9049760712
 10
32.4345103762
 20
27.9074979106
 10
31.9043507485
 20
27.9084113855
 10
31.3563008011
 20
27.9081951025
 10
30.7916335024
 20
27.9065081179
  0
LINE
  5
3E0
100
AcDbEntity
  8
SUPERFICI
100
AcDbLine
 62
7
  6
CONTINUOUS
 10
43.1557914757
 20
27.9204044879
 11
42.024576882
 21
27.9292120198
  0
LINE
  5
3E1
100
AcDbEntity
  8
SUPERFICI
100
AcDbLine
 62
7
  6
CONTINUOUS
 10
-39.0499593014
 20
27.9047077193
 11
-40.1269396606
 21
27.9177300515
  0
LINE
  5
3E2
100
AcDbEntity
  8
SUPERFICI
100
AcDbLine
 62
7
  6
CONTINUOUS
 10
34.372559403
 20
27.88728177
 11
33.4400743757
 21
27.9001048268
  0
LINE
  5
3E3
100
AcDbEntity
  8
SUPERFICI
100
AcDbLine
 62
7
  6
CONTINUOUS
 10
-38.0126958785
 20
27.890885477
 11
-39.0499593014
 21
27.9047077193
  0
LINE
  5
3E4
100
AcDbEntity
  8
SUPERFICI
100
AcDbLine
 62
7
  6
CONTINUOUS
 10
43.672123998
 20
27.9130334239
 11
43.1557914757
 21
27.9204044879
  0
LWPOLYLINE
  5
3E5
100
AcDbEntity
  8
SUPERFICI
100
AcDbPolyline
 62
7
  6
CONTINUOUS
 90
3
 70
0
 10
44.7809911009
 20
27.8923506693
 10
44.4914151046
 20
27.8982504369
 10
43.672123998
 20
27.9130334239
  0
LWPOLYLINE
  5
3E6
100
AcDbEntity
  8
SUPERFICI
100
AcDbPolyline
 62
250
  6
CONTINUOUS
 90
13
 70
0
 10
35.3927917816
 20
-39.7592354085
 10
35.3135905318
 20
-39.2050803739
 10
35.2250670267
 20
-38.6296476644
 10
35.1257494516
 20
-38.0324731634
 10
35.0138489903
 20
-37.4130285106
 10
34.8881080574
 20
-36.7711385855
 10
34.7477610381
 20
-36.1068727862
 10
34.5942422604
 20
-35.420264978
 10
34.422655032
 20
-34.7111291615
 10
34.2232719237
 20
-33.9792524949
 10
33.9924087035
 20
-33.2245075494
 10
33.7317474338
 20
-32.4468589483
 10
33.4402366943
 20
-31.6462296793
  0
LINE
  5
3E7
100
AcDbEntity
  8
SUPERFICI
100
AcDbLine
 62
7
  6
CONTINUOUS
 10
33.5
 20
-41.0401526864
 11
33.5
 21
-41.3045030897
  0
LWPOLYLINE
  5
3E8
100
AcDbEntity
  8
SUPERFICI
100
AcDbPolyline
 62
250
  6
CONTINUOUS
 90
15
 70
0
 10
44.7809911009
 20
27.8923506693
 10
44.7771604421
 20
27.8770391134
 10
44.7713562886
 20
27.8629598306
 10
44.7635786405
 20
27.8501129615
 10
44.7531187036
 20
27.8393218887
 10
44.7406852722
 20
27.8297630303
 10
44.7284047285
 20
27.8189664715
 10
44.7156608653
 20
27.8062433919
 10
44.70306989
 20
27.7922839307
 10
44.6946068061
 20
27.7766875863
 10
44.6930504159
 20
27.7589582291
 10
44.6956219172
 20
27.7395955438
 10
44.6979599078
 20
27.7196925114
 10
44.6985655923
 20
27.6997021643
 10
44.6989377661
 20
27.679174196
  0
LWPOLYLINE
  5
3E9
100
AcDbEntity
  8
COPY_GEOM
100
AcDbPolyline
 62
250
  6
CONTINUOUS
 90
13
 70
0
 10
-66.0564948575
 20
35.5760144772
 10
-66.2747744401
 20
35.5736476771
 10
-66.4852450099
 20
35.5703439002
 10
-66.6852285432
 20
35.5661451742
 10
-66.8721804529
 20
35.5611049142
 10
-67.0437219664
 20
35.5552872429
 10
-67.1976703923
 20
35.5487661748
 10
-67.3320668936
 20
35.5416246741
 10
-67.4452014115
 20
35.5339535997
 10
-67.5356344246
 20
35.5258505484
 10
-67.6022152646
 20
35.5174186137
 10
-67.6440967582
 20
35.5087650734
 10
-67.6607460059
 20
35.5000000253
  0
LINE
  5
3EA
100
AcDbEntity
  8
0
100
AcDbLine
 62
7
  6
CONTINUOUS
 10
3.030914
 20
32.8358480253
 11
1.688435
 21
32.8358480253
  0
LINE
  5
3EB
100
AcDbEntity
  8
0
100
AcDbLine
 62
7
  6
CONTINUOUS
 10
1.947717
 20
33.6433790253
 11
2.771622
 21
33.6433790253
  0
LINE
  5
3EC
100
AcDbEntity
  8
0
100
AcDbLine
 62
7
  6
CONTINUOUS
 10
6.308015
 20
33.6433790253
 11
5.566124
 21
33.6433900253
  0
LINE
  5
3ED
100
AcDbEntity
  8
0
100
AcDbLine
 62
7
  6
CONTINUOUS
 10
-57.0
 20
34.2500000253
 11
-56.8
 21
34.2500000253
  0
LINE
  5
3EE
100
AcDbEntity
  8
0
100
AcDbLine
 62
7
  6
CONTINUOUS
 10
56.8
 20
34.2500000253
 11
57.0
 21
34.2500000253
  0
LINE
  5
3EF
100
AcDbEntity
  8
0
100
AcDbLine
 62
7
  6
CONTINUOUS
 10
5.554309
 20
34.4296720253
 11
6.588491
 21
34.4296720253
  0
LINE
  5
3F0
100
AcDbEntity
  8
0
100
AcDbLine
 62
7
  6
CONTINUOUS
 10
56.75
 20
35.1500000253
 11
57.0
 21
35.1500000253
  0
LINE
  5
3F1
100
AcDbEntity
  8
0
100
AcDbLine
 62
7
  6
CONTINUOUS
 10
-56.75
 20
35.1500000253
 11
-57.0
 21
35.1500000253
  0
LINE
  5
3F2
100
AcDbEntity
  8
0
100
AcDbLine
 62
7
  6
CONTINUOUS
 10
6.588491
 20
35.4639310253
 11
5.554299
 21
35.4639310253
  0
LINE
  5
3F3
100
AcDbEntity
  8
COPY_GEOM
100
AcDbLine
 62
250
  6
CONTINUOUS
 10
-68.0
 20
35.5000000253
 11
-67.6607460059
 21
35.5000000253
  0
LINE
  5
3F4
100
AcDbEntity
  8
COPY_GEOM
100
AcDbLine
 62
250
  6
CONTINUOUS
 10
68.0
 20
35.5000000253
 11
67.660746006
 21
35.5000000253
  0
LINE
  5
3F5
100
AcDbEntity
  8
0
100
AcDbLine
 62
7
  6
CONTINUOUS
 10
-10.0
 20
36.2502020253
 11
-9.149957
 21
36.2502020253
  0
LINE
  5
3F6
100
AcDbEntity
  8
0
100
AcDbLine
 62
7
  6
CONTINUOUS
 10
-7.270788
 20
36.2502020253
 11
-6.420746
 21
36.2502020253
  0
LINE
  5
3F7
100
AcDbEntity
  8
0
100
AcDbLine
 62
7
  6
CONTINUOUS
 10
-5.854061
 20
36.2502020253
 11
-5.004029
 21
36.2502020253
  0
LINE
  5
3F8
100
AcDbEntity
  8
0
100
AcDbLine
 62
7
  6
CONTINUOUS
 10
-4.154029
 20
36.2502020253
 11
-2.86901
 21
36.2502020253
  0
LINE
  5
3F9
100
AcDbEntity
  8
0
100
AcDbLine
 62
7
  6
CONTINUOUS
 10
-1.281656
 20
36.2502020253
 11
0.003363
 21
36.2502020253
  0
LINE
  5
3FA
100
AcDbEntity
  8
0
100
AcDbLine
 62
7
  6
CONTINUOUS
 10
1.934627
 20
36.2502130253
 11
2.784701
 21
36.2502130253
  0
LINE
  5
3FB
100
AcDbEntity
  8
0
100
AcDbLine
 62
7
  6
CONTINUOUS
 10
4.715986
 20
36.2502130253
 11
6.706473
 21
36.2502130253
  0
LINE
  5
3FC
100
AcDbEntity
  8
0
100
AcDbLine
 62
7
  6
CONTINUOUS
 10
-60.8549920759
 20
35.2718072804
 11
-60.3280087498
 21
35.2718605326
  0
LINE
  5
3FD
100
AcDbEntity
  8
0
100
AcDbLine
 62
7
  6
CONTINUOUS
 10
63.1450079241
 20
35.2718072804
 11
63.6719912502
 21
35.2718605326
  0
LINE
  5
3FE
100
AcDbEntity
  8
0
100
AcDbLine
 62
7
  6
CONTINUOUS
 10
-63.6719912503
 20
35.7281395174
 11
-63.1450079231
 21
35.7281927653
  0
LINE
  5
3FF
100
AcDbEntity
  8
0
100
AcDbLine
 62
7
  6
CONTINUOUS
 10
60.3280087497
 20
35.7281395174
 11
60.8549920769
 21
35.7281927653
  0
LINE
  5
400
100
AcDbEntity
  8
0
100
AcDbLine
 62
7
  6
CONTINUOUS
 10
-63.1450395831
 20
35.2716467541
 11
-63.6720177359
 21
35.2720547257
  0
LINE
  5
401
100
AcDbEntity
  8
0
100
AcDbLine
 62
7
  6
CONTINUOUS
 10
60.8549604169
 20
35.2716467541
 11
60.3279822641
 21
35.2720547257
  0
LINE
  5
402
100
AcDbEntity
  8
0
100
AcDbLine
 62
7
  6
CONTINUOUS
 10
-60.8549604169
 20
35.7283532964
 11
-60.3279822641
 21
35.7279453248
  0
LINE
  5
403
100
AcDbEntity
  8
0
100
AcDbLine
 62
7
  6
CONTINUOUS
 10
63.1450395831
 20
35.7283532964
 11
63.6720177359
 21
35.7279453248
  0
LWPOLYLINE
  5
404
100
AcDbEntity
  8
COPY_GEOM
100
AcDbPolyline
 62
250
  6
CONTINUOUS
 90
13
 70
0
 10
66.0564932346
 20
35.5760141647
 10
66.2747722366
 20
35.5736478875
 10
66.4852422751
 20
35.5703445219
 10
66.6852253461
 20
35.5661460992
 10
66.8721768803
 20
35.561106039
 10
67.0437181212
 20
35.5552884704
 10
67.1976663914
 20
35.5487674153
 10
67.332062865
 20
35.541625847
 10
67.4451974919
 20
35.533954634
 10
67.535630756
 20
35.5258513841
 10
67.6022119913
 20
35.5174192024
 10
67.6440940234
 20
35.5087653792
 10
67.6607439488
 20
35.5000000253
  0
LWPOLYLINE
  5
405
100
AcDbEntity
  8
SUPERFICI
100
AcDbPolyline
 62
250
  6
CONTINUOUS
 90
6
 70
0
 10
41.6509009524
 20
-40.9600956522
 10
41.6529904387
 20
-41.0316711211
 10
41.6550193832
 20
-41.0865702362
 10
41.6569317031
 20
-41.1250259592
 10
41.6587257348
 20
-41.1484685964
 10
41.66038
 20
-41.1576251283
  0
LINE
  5
406
100
AcDbEntity
  8
SUPERFICI
100
AcDbLine
 62
250
  6
CONTINUOUS
 10
41.646939954
 20
-40.7780961171
 11
41.6509009524
 21
-40.9600956522
  0
LINE
  5
407
100
AcDbEntity
  8
SUPERFICI
100
AcDbLine
 62
250
  6
CONTINUOUS
 10
41.643421734
 20
-40.5497800506
 11
41.646939954
 21
-40.7780961171
  0
LINE
  5
408
100
AcDbEntity
  8
SUPERFICI
100
AcDbLine
 62
250
  6
CONTINUOUS
 10
41.639083929
 20
-40.1318724296
 11
41.643421734
 21
-40.5497800506
  0
LINE
  5
409
100
AcDbEntity
  8
SUPERFICI
100
AcDbLine
 62
250
  6
CONTINUOUS
 10
41.6366647214
 20
-39.7273037931
 11
41.639083929
 21
-40.1318724296
  0
LWPOLYLINE
  5
40A
100
AcDbEntity
  8
SUPERFICI
100
AcDbPolyline
 62
250
  6
CONTINUOUS
 90
16
 70
0
 10
35.3927907305
 20
-39.7593175252
 10
35.3830943175
 20
-39.8901402671
 10
35.3702255578
 20
-40.0258004695
 10
35.3542301609
 20
-40.1642547087
 10
35.3349543675
 20
-40.3047007489
 10
35.3126471968
 20
-40.4430395423
 10
35.2882320439
 20
-40.5724618328
 10
35.2625347271
 20
-40.6888330316
 10
35.2354506728
 20
-40.7928353219
 10
35.2067471383
 20
-40.8857431945
 10
35.1762493787
 20
-40.9681531762
 10
35.1450317976
 20
-41.0370341762
 10
35.1147851741
 20
-41.0896074886
 10
35.086344353
 20
-41.1261812732
 10
35.0596650292
 20
-41.148322411
 10
35.03502
 20
-41.1568866664
  0
LWPOLYLINE
  5
40B
100
AcDbEntity
  8
SUPERFICI
100
AcDbPolyline
 62
250
  6
CONTINUOUS
 90
16
 70
0
 10
34.6505697526
 20
-39.5299011028
 10
34.6376123797
 20
-39.64196895
 10
34.6150011141
 20
-39.7623318865
 10
34.5822189413
 20
-39.8895780667
 10
34.5383074599
 20
-40.0232731602
 10
34.4830677332
 20
-40.160115925
 10
34.417997406
 20
-40.2940449509
 10
34.3443648503
 20
-40.4214212173
 10
34.2618828498
 20
-40.5416011259
 10
34.170402963
 20
-40.65305883
 10
34.0702901521
 20
-40.7540103872
 10
33.9632032869
 20
-40.8437170645
 10
33.8507904844
 20
-40.922013218
 10
33.7348294937
 20
-40.9886019537
 10
33.6172562124
 20
-41.0431113499
 10
33.5
 20
-41.0852050255
  0
LWPOLYLINE
  5
40C
100
AcDbEntity
  8
SUPERFICI
100
AcDbPolyline
 62
250
  6
CONTINUOUS
 90
15
 70
0
 10
34.830955591
 20
-39.6450671214
 10
34.807784384
 20
-39.7636285174
 10
34.7735854317
 20
-39.8894637047
 10
34.72794224
 20
-40.020893371
 10
34.6698252656
 20
-40.1573369653
 10
34.5993461048
 20
-40.2950112027
 10
34.5188482174
 20
-40.427246372
 10
34.4305014043
 20
-40.5498272867
 10
34.3337829548
 20
-40.662710505
 10
34.2275929007
 20
-40.7655409671
 10
34.1118472841
 20
-40.857969283
 10
33.9895955689
 20
-40.9382400544
 10
33.8649556062
 20
-41.0048183716
 10
33.7407919537
 20
-41.0575510546
 10
33.6184827818
 20
-41.0969486606
  0
LINE
  5
40D
100
AcDbEntity
  8
SUPERFICI
100
AcDbLine
 62
7
  6
CONTINUOUS
 10
35.1217092229
 20
-39.8090275836
 11
35.1116034494
 21
-39.8545380487
  0
LINE
  5
40E
100
AcDbEntity
  8
0
100
AcDbLine
 62
7
  6
CONTINUOUS
 10
60.8402717707
 20
35.2369555125
 11
60.8550027231
 21
35.2718517972
  0
LINE
  5
40F
100
AcDbEntity
  8
0
100
AcDbLine
 62
7
  6
CONTINUOUS
 10
60.8253352978
 20
35.2021811175
 11
60.8402717707
 21
35.2369555125
  0
LINE
  5
410
100
AcDbEntity
  8
0
100
AcDbLine
 62
7
  6
CONTINUOUS
 10
60.8101933044
 20
35.1675286123
 11
60.8253352978
 21
35.2021811175
  0
LINE
  5
411
100
AcDbEntity
  8
0
100
AcDbLine
 62
7
  6
CONTINUOUS
 10
60.828395019
 20
35.1549274006
 11
60.8778937063
 21
35.2611776428
  0
LINE
  5
412
100
AcDbEntity
  8
0
100
AcDbLine
 62
7
  6
CONTINUOUS
 10
63.171604981
 20
35.8450726499
 11
63.1221062937
 21
35.7388224077
  0
LINE
  5
413
100
AcDbEntity
  8
0
100
AcDbLine
 62
7
  6
CONTINUOUS
 10
61.4802825651
 20
36.0197268075
 11
61.5000533559
 21
36.0621338874
  0
LINE
  5
414
100
AcDbEntity
  8
0
100
AcDbLine
 62
7
  6
CONTINUOUS
 10
62.519717435
 20
34.980273243
 11
62.4999466442
 21
34.9378661631
  0
LINE
  5
415
100
AcDbEntity
  8
0
100
AcDbLine
 62
7
  6
CONTINUOUS
 10
61.5000533559
 20
36.0621338874
 11
61.4795953518
 21
36.0204046734
  0
LINE
  5
416
100
AcDbEntity
  8
0
100
AcDbLine
 62
7
  6
CONTINUOUS
 10
62.4999466442
 20
34.9378661631
 11
62.5204046482
 21
34.9795953771
  0
LINE
  5
417
100
AcDbEntity
  8
0
100
AcDbLine
 62
7
  6
CONTINUOUS
 10
61.3727025934
 20
36.1272972594
 11
61.4
 21
36.1818871774
  0
LINE
  5
418
100
AcDbEntity
  8
0
100
AcDbLine
 62
7
  6
CONTINUOUS
 10
62.6272974066
 20
34.8727027911
 11
62.6
 21
34.8181128732
  0
LWPOLYLINE
  5
419
100
AcDbEntity
  8
SUPERFICI
100
AcDbPolyline
 62
250
  6
CONTINUOUS
 90
10
 70
0
 10
33.4402366943
 20
-31.6462296793
 10
33.3846718819
 20
-31.6706685325
 10
33.3293392608
 20
-31.6954000004
 10
33.2744967434
 20
-31.7203019407
 10
33.2204021736
 20
-31.745252244
 10
33.1673133259
 20
-31.7701288333
 10
33.1154879062
 20
-31.7948096645
 10
33.0651835513
 20
-31.8191727259
 10
33.016657829
 20
-31.8430960385
 10
32.9701682383
 20
-31.8664576562
  0
LWPOLYLINE
  5
41A
100
AcDbEntity
  8
COPY_GEOM
100
AcDbPolyline
 62
7
  6
CONTINUOUS
 90
16
 70
0
 10
-66.2
 20
31.2982466409
 10
-66.3534001648
 20
31.2699979147
 10
-66.5017529609
 20
31.234582484
 10
-66.6450583884
 20
31.1920003489
 10
-66.7846061996
 20
31.1419659428
 10
-66.9191066422
 20
31.0847648323
 10
-67.0446904585
 20
31.0212537171
 10
-67.1609899351
 20
30.951439133
 10
-67.2683727854
 20
30.8753145443
 10
-67.3640728925
 20
30.7937170432
 10
-67.4482146257
 20
30.7061041839
 10
-67.5206736156
 20
30.6130184122
 10
-67.5783106374
 20
30.5169241583
 10
-67.6200792826
 20
30.4186428987
 10
-67.6470259598
 20
30.3173531569
 10
-67.6591506687
 20
30.2130549328
  0
LWPOLYLINE
  5
41B
100
AcDbEntity
  8
COPY_GEOM
100
AcDbPolyline
 62
250
  6
CONTINUOUS
 90
34
 70
0
 10
-62.0
 20
41.1596220694
 10
-62.3535100504
 20
41.1487756389
 10
-62.7151112325
 20
41.1146475113
 10
-63.0831356785
 20
41.0555543894
 10
-63.4614033496
 20
40.9683675312
 10
-63.8418145802
 20
40.8523396278
 10
-64.205552985
 20
40.7130857181
 10
-64.5477531916
 20
40.5547413563
 10
-64.8715500326
 20
40.3781365021
 10
-65.1720539447
 20
40.1883494559
 10
-65.4480058248
 20
39.9893591381
 10
-65.7013623568
 20
39.7829337887
 10
-65.9328871582
 20
39.5714272675
 10
-66.1426971794
 20
39.3578123799
 10
-66.3324219945
 20
39.1435300997
 10
-66.5049326607
 20
38.9280146624
 10
-66.6612252532
 20
38.7123465534
 10
-66.8018300842
 20
38.4981799058
 10
-66.9284708502
 20
38.2851815628
 10
-67.0418441217
 20
38.0743376328
 10
-67.1426926348
 20
37.8665178391
 10
-67.2324581685
 20
37.6608529396
 10
-67.311834393
 20
37.4576636311
 10
-67.3812720372
 20
37.257837376
 10
-67.4415883197
 20
37.06114059
 10
-67.4933913066
 20
36.8676864211
 10
-67.5371050976
 20
36.6782041757
 10
-67.5732188225
 20
36.4932931272
 10
-67.6022966725
 20
36.3131948468
 10
-67.6248695661
 20
36.138269855
 10
-67.6414378905
 20
35.9692462447
 10
-67.6525642098
 20
35.8064963579
 10
-67.6588210821
 20
35.6500335535
 10
-67.6607460059
 20
35.5000000253
  0
LWPOLYLINE
  5
41C
100
AcDbEntity
  8
COPY_GEOM
100
AcDbPolyline
 62
250
  6
CONTINUOUS
 90
3
 70
0
 10
-61.0588088547
 20
39.6097669382
 10
-61.5906923116
 20
39.5964241438
 10
-62.110820073
 20
39.5797630238
  0
LWPOLYLINE
  5
41D
100
AcDbEntity
  8
COPY_GEOM
100
AcDbPolyline
 62
250
  6
CONTINUOUS
 90
3
 70
0
 10
-58.8103264276
 20
39.6511798637
 10
-59.3909699958
 20
39.6424753634
 10
-61.0588088547
 20
39.6097669382
  0
LINE
  5
41E
100
AcDbEntity
  8
COPY_GEOM
100
AcDbLine
 62
250
  6
CONTINUOUS
 10
-57.0001688902
 20
39.6714294961
 11
-58.8103264276
 21
39.6511798637
  0
LINE
  5
41F
100
AcDbEntity
  8
ASSI
100
AcDbLine
 62
250
  6
CONTINUOUS
 10
55.0362536126
 20
39.6559496054
 11
56.7500002788
 21
39.6655222647
  0
LINE
  5
420
100
AcDbEntity
  8
ASSI
100
AcDbLine
 62
250
  6
CONTINUOUS
 10
-23.5377645345
 20
39.7090685335
 11
-10.755089451
 21
39.7368383667
  0
LINE
  5
421
100
AcDbEntity
  8
ASSI
100
AcDbLine
 62
250
  6
CONTINUOUS
 10
-10.755089451
 20
39.7368383667
 11
-7.4394193953
 21
39.7432065322
  0
LINE
  5
422
100
AcDbEntity
  8
ASSI
100
AcDbLine
 62
250
  6
CONTINUOUS
 10
-46.4929632038
 20
39.6702986206
 11
-42.9682547345
 21
39.6762751757
  0
LINE
  5
423
100
AcDbEntity
  8
ASSI
100
AcDbLine
 62
250
  6
CONTINUOUS
 10
-42.9682547345
 20
39.6762751757
 11
-23.5377645345
 21
39.7090685335
  0
LINE
  5
424
100
AcDbEntity
  8
ASSI
100
AcDbLine
 62
250
  6
CONTINUOUS
 10
-7.4394193953
 20
39.7432065322
 11
-3.8946690483
 21
39.7479120782
  0
LINE
  5
425
100
AcDbEntity
  8
COPY_GEOM
100
AcDbLine
 62
250
  6
CONTINUOUS
 10
62.0
 20
41.1596220694
 11
60.980554499
 21
41.1587533118
  0
LWPOLYLINE
  5
426
100
AcDbEntity
  8
COPY_GEOM
100
AcDbPolyline
 62
250
  6
CONTINUOUS
 90
3
 70
0
 10
60.980554499
 20
41.1587533118
 10
59.3510176651
 20
41.1578207233
 10
58.7818920974
 20
41.1575962276
  0
LINE
  5
427
100
AcDbEntity
  8
ASSI
100
AcDbLine
 62
250
  6
CONTINUOUS
 10
-3.8946690483
 20
39.7479120782
 11
0.0
 21
39.7498200253
  0
LWPOLYLINE
  5
428
100
AcDbEntity
  8
COPY_GEOM
100
AcDbPolyline
 62
250
  6
CONTINUOUS
 90
3
 70
0
 10
58.7818920974
 20
41.1575962276
 10
57.6065111293
 20
41.1572495623
 10
57.0
 20
41.1571312819
  0
LINE
  5
429
100
AcDbEntity
  8
0
100
AcDbLine
 62
7
  6
CONTINUOUS
 10
56.75
 20
38.2500000253
 11
57.0
 21
38.2500000253
  0
LINE
  5
42A
100
AcDbEntity
  8
0
100
AcDbLine
 62
7
  6
CONTINUOUS
 10
-56.75
 20
38.2500000253
 11
-57.0
 21
38.2500000253
  0
LINE
  5
42B
100
AcDbEntity
  8
0
100
AcDbLine
 62
7
  6
CONTINUOUS
 10
-57.0
 20
39.5000000253
 11
-56.75
 21
39.5000000253
  0
LINE
  5
42C
100
AcDbEntity
  8
0
100
AcDbLine
 62
7
  6
CONTINUOUS
 10
56.75
 20
39.5000000253
 11
57.0
 21
39.5000000253
  0
LINE
  5
42D
100
AcDbEntity
  8
0
100
AcDbLine
 62
7
  6
CONTINUOUS
 10
-57.0
 20
41.0730841812
 11
-56.7500000003
 21
41.0730841812
  0
LINE
  5
42E
100
AcDbEntity
  8
0
100
AcDbLine
 62
7
  6
CONTINUOUS
 10
56.75
 20
41.0730841812
 11
57.0
 21
41.0730841812
  0
LINE
  5
42F
100
AcDbEntity
  8
ASSI
100
AcDbLine
 62
250
  6
CONTINUOUS
 10
56.75
 20
41.1575023256
 11
50.0552150901
 21
41.1569549648
  0
LINE
  5
430
100
AcDbEntity
  8
0
100
AcDbLine
 62
7
  6
CONTINUOUS
 10
-56.75
 20
41.2556288318
 11
56.75
 21
41.2556288318
  0
LINE
  5
431
100
AcDbEntity
  8
0
100
AcDbLine
 62
7
  6
CONTINUOUS
 10
-57.0
 20
41.2730841812
 11
57.0
 21
41.2730841812
  0
LINE
  5
432
100
AcDbEntity
  8
0
100
AcDbLine
 62
7
  6
CONTINUOUS
 10
62.0
 20
41.5000000253
 11
-62.0
 21
41.5000000253
  0
LINE
  5
433
100
AcDbEntity
  8
COPY_GEOM
100
AcDbLine
 62
7
  6
CONTINUOUS
 10
62.0
 20
41.5000000253
 11
-62.0
 21
41.5000000253
  0
LINE
  5
434
100
AcDbEntity
  8
ASSI
100
AcDbLine
 62
250
  6
CONTINUOUS
 10
-52.3711833079
 20
41.1574010744
 11
-56.7500000003
 21
41.1578222582
  0
LINE
  5
435
100
AcDbEntity
  8
ASSI
100
AcDbLine
 62
250
  6
CONTINUOUS
 10
50.0552150901
 20
41.1569549648
 11
-52.3711833079
 21
41.1574010744
  0
LINE
  5
436
100
AcDbEntity
  8
ASSI
100
AcDbLine
 62
250
  6
CONTINUOUS
 10
0.0
 20
39.7498200253
 11
2.0954083416
 21
39.7492376691
  0
LWPOLYLINE
  5
437
100
AcDbEntity
  8
COPY_GEOM
100
AcDbPolyline
 62
250
  6
CONTINUOUS
 90
4
 70
0
 10
-57.0
 20
41.1571313728
 10
-60.9813909415
 20
41.1587539756
 10
-61.4973855588
 20
41.1591639019
 10
-62.0
 20
41.1596220694
  0
LINE
  5
438
100
AcDbEntity
  8
ASSI
100
AcDbLine
 62
250
  6
CONTINUOUS
 10
2.0954083416
 20
39.7492376691
 11
5.9231284614
 21
39.7453389215
  0
LINE
  5
439
100
AcDbEntity
  8
ASSI
100
AcDbLine
 62
250
  6
CONTINUOUS
 10
32.874608451
 20
39.6895725768
 11
45.2010130433
 21
39.6724033171
  0
LINE
  5
43A
100
AcDbEntity
  8
ASSI
100
AcDbLine
 62
250
  6
CONTINUOUS
 10
5.9231284614
 20
39.7453389215
 11
9.4036638957
 21
39.739192628
  0
LWPOLYLINE
  5
43B
100
AcDbEntity
  8
ASSI
100
AcDbPolyline
 62
250
  6
CONTINUOUS
 90
5
 70
0
 10
50.9368827973
 20
39.65344494
 10
52.036460891
 20
39.651227092
 10
53.0935893809
 20
39.650763314
 10
54.0959729828
 20
39.6522541714
 10
55.0362536126
 20
39.6559496054
  0
LWPOLYLINE
  5
43C
100
AcDbEntity
  8
ASSI
100
AcDbPolyline
 62
250
  6
CONTINUOUS
 90
5
 70
0
 10
-55.081614841
 20
39.6574058211
 10
-54.1690451213
 20
39.6553612219
 10
-53.1964380802
 20
39.6552436198
 10
-52.1682073701
 20
39.65648361
 10
-46.4929632038
 20
39.6702986206
  0
LINE
  5
43D
100
AcDbEntity
  8
ASSI
100
AcDbLine
 62
250
  6
CONTINUOUS
 10
9.4036638957
 20
39.739192628
 11
32.874608451
 21
39.6895725768
  0
LINE
  5
43E
100
AcDbEntity
  8
ASSI
100
AcDbLine
 62
250
  6
CONTINUOUS
 10
45.2010130433
 20
39.6724033171
 11
47.452758086
 21
39.6662233383
  0
LINE
  5
43F
100
AcDbEntity
  8
ASSI
100
AcDbLine
 62
250
  6
CONTINUOUS
 10
47.452758086
 20
39.6662233383
 11
50.9368827973
 21
39.65344494
  0
LINE
  5
440
100
AcDbEntity
  8
ASSI
100
AcDbLine
 62
250
  6
CONTINUOUS
 10
-56.7499993677
 20
39.6648490646
 11
-55.081614841
 21
39.6574058211
  0
LINE
  5
441
100
AcDbEntity
  8
COPY_GEOM
100
AcDbLine
 62
250
  6
CONTINUOUS
 10
58.8085948244
 20
39.6512073466
 11
57.0001699614
 21
39.6714219873
  0
LINE
  5
442
100
AcDbEntity
  8
COPY_GEOM
100
AcDbLine
 62
250
  6
CONTINUOUS
 10
59.3892704022
 20
39.6425102292
 11
58.8085948244
 21
39.6512073466
  0
LWPOLYLINE
  5
443
100
AcDbEntity
  8
COPY_GEOM
100
AcDbPolyline
 62
250
  6
CONTINUOUS
 90
4
 70
0
 10
62.1108200731
 20
39.5797630238
 10
61.5902718509
 20
39.5964433901
 10
61.0580064009
 20
39.60979171
 10
59.3892704022
 20
39.6425102292
  0
LWPOLYLINE
  5
444
100
AcDbEntity
  8
SUPERFICI
100
AcDbPolyline
 62
7
  6
CONTINUOUS
 90
19
 70
0
 10
46.9999929835
 20
22.2000100312
 10
46.9902721691
 20
22.4020258046
 10
46.9635369365
 20
22.6004829958
 10
46.9197872856
 20
22.7953816049
 10
46.8579871275
 20
22.9890192132
 10
46.7791725513
 20
23.1790982392
 10
46.6864518238
 20
23.3587259392
 10
46.5803276048
 20
23.5262259245
 10
46.4602972347
 20
23.6832745837
 10
46.3279610015
 20
23.828008338
 10
46.1832344989
 20
23.9603352029
 10
46.0262021332
 20
24.080347163
 10
45.8587174111
 20
24.1864565933
 10
45.6791024869
 20
24.2791707588
 10
45.4890352062
 20
24.3579823945
 10
45.2954026128
 20
24.4197820805
 10
45.1005003879
 20
24.4635333434
 10
44.9020328503
 20
24.4902726566
 10
44.7
 20
24.5000000201
  0
LWPOLYLINE
  5
445
100
AcDbEntity
  8
SUPERFICI
100
AcDbPolyline
 62
250
  6
CONTINUOUS
 90
19
 70
0
 10
47.5527869559
 20
22.2000100253
 10
47.5428306192
 20
22.4236276178
 10
47.5126430249
 20
22.6542952201
 10
47.4617620357
 20
22.8895960314
 10
47.3892744346
 20
23.1282514028
 10
47.2950002322
 20
23.3659903893
 10
47.1806576676
 20
23.5958573382
 10
47.0479282168
 20
23.8135238974
 10
46.8966889054
 20
24.0180008624
 10
46.7267211802
 20
24.2075220367
 10
46.5387495862
 20
24.3795718614
 10
46.335015646
 20
24.5332415532
 10
46.117119908
 20
24.6686846429
 10
45.8859877328
 20
24.7858775015
 10
45.645970591
 20
24.8829253412
 10
45.4040455411
 20
24.9579050979
 10
45.16458463
 20
25.0108012814
 10
44.9290306581
 20
25.0423399124
 10
44.6999900056
 20
25.0527898711
  0
LINE
  5
446
100
AcDbEntity
  8
SUPERFICI
100
AcDbLine
 62
250
  6
CONTINUOUS
 10
44.6989377661
 20
27.679174196
 11
44.6994147111
 21
27.6356318981
  0
LINE
  5
447
100
AcDbEntity
  8
SUPERFICI
100
AcDbLine
 62
250
  6
CONTINUOUS
 10
44.6994147111
 20
27.6356318981
 11
44.69957617
 21
27.5888237575
  0
LINE
  5
448
100
AcDbEntity
  8
RACCORDO
100
AcDbLine
 62
250
  6
CONTINUOUS
 10
44.6999937467
 20
23.0000006876
 11
44.6999938742
 21
24.0000000253
  0
LINE
  5
449
100
AcDbEntity
  8
RACCORDO
100
AcDbLine
 62
250
  6
CONTINUOUS
 10
44.6999988382
 20
-23.0000001222
 11
44.6999989146
 21
-23.9999999747
  0
LINE
  5
44A
100
AcDbEntity
  8
SUPERFICI
100
AcDbLine
 62
250
  6
CONTINUOUS
 10
44.7
 20
-27.8999899747
 11
44.7
 21
-24.4999999747
  0
LINE
  5
44B
100
AcDbEntity
  8
RACCORDO
100
AcDbLine
 62
250
  6
CONTINUOUS
 10
45.5000001475
 20
-22.1999988015
 11
45.5000006624
 21
22.1999945148
  0
LINE
  5
44C
100
AcDbEntity
  8
RACCORDO
100
AcDbLine
 62
7
  6
CONTINUOUS
 10
46.5
 20
-22.1999988498
 11
46.5
 21
22.1999951654
  0
LINE
  5
44D
100
AcDbEntity
  8
SUPERFICI
100
AcDbLine
 62
7
  6
CONTINUOUS
 10
47.0000070015
 20
-22.2000000239
 11
46.9999929835
 21
22.2000100312
  0
LINE
  5
44E
100
AcDbEntity
  8
SUPERFICI
100
AcDbLine
 62
250
  6
CONTINUOUS
 10
44.69957617
 20
27.5888237575
 11
44.7
 21
24.5000000262
  0
LWPOLYLINE
  5
44F
100
AcDbEntity
  8
SUPERFICI
100
AcDbPolyline
 62
250
  6
CONTINUOUS
 90
16
 70
0
 10
35.1116034494
 20
-39.8545380487
 10
35.1019788151
 20
-39.8956898973
 10
35.0656293957
 20
-40.0236320284
 10
35.0189489651
 20
-40.1560134079
 10
34.9610621284
 20
-40.2924872786
 10
34.8925436177
 20
-40.4287725785
 10
34.8164802279
 20
-40.5573158138
 10
34.7355790119
 20
-40.6736879266
 10
34.6494193477
 20
-40.7784401789
 10
34.5572549494
 20
-40.8723070287
 10
34.4586800851
 20
-40.9556618509
 10
34.3570092729
 20
-41.0255866531
 10
34.2573876062
 20
-41.0794124974
 10
34.1625542144
 20
-41.1172220187
 10
34.072741473
 20
-41.1402054403
 10
33.98912
 20
-41.1488990059
  0
LINE
  5
450
100
AcDbEntity
  8
SUPERFICI
100
AcDbLine
 62
250
  6
CONTINUOUS
 10
35.1291660566
 20
-39.7835258839
 11
35.1217092229
 21
-39.8090275836
  0
LINE
  5
451
100
AcDbEntity
  8
0
100
AcDbLine
 62
7
  6
CONTINUOUS
 10
63.1597282293
 20
35.7630445381
 11
63.1449972769
 21
35.7281482534
  0
LINE
  5
452
100
AcDbEntity
  8
0
100
AcDbLine
 62
7
  6
CONTINUOUS
 10
63.1746647022
 20
35.797818933
 11
63.1597282293
 21
35.7630445381
  0
LINE
  5
453
100
AcDbEntity
  8
0
100
AcDbLine
 62
7
  6
CONTINUOUS
 10
63.1898066956
 20
35.8324714382
 11
63.1746647022
 21
35.797818933
  0
LWPOLYLINE
  5
454
100
AcDbEntity
  8
DRAFT
100
AcDbPolyline
 62
7
  6
CONTINUOUS
 90
16
 70
0
 10
-66.1997291685
 20
31.0000000253
 10
-66.3393932791
 20
30.9686433339
 10
-66.4787493071
 20
30.929665585
 10
-66.6177972524
 20
30.8830667784
 10
-66.7595359385
 20
30.8286127431
 10
-66.900966542
 20
30.7665376501
 10
-67.0330925924
 20
30.6975440128
 10
-67.1542718992
 20
30.620530391
 10
-67.266146653
 20
30.5365982248
 10
-67.3646469547
 20
30.4497543479
 10
-67.448685012
 20
30.3600240629
 10
-67.5193486173
 20
30.2673820671
 10
-67.5758312489
 20
30.1757592856
 10
-67.617864066
 20
30.0864660268
 10
-67.6457159093
 20
29.9981919823
 10
-67.6593867789
 20
29.910937152
  0
LINE
  5
455
100
AcDbEntity
  8
0
100
AcDbLine
 62
7
  6
CONTINUOUS
 10
-60.3280087498
 20
35.2718605326
 11
-60.5947969261
 21
35.2136918122
  0
LINE
  5
456
100
AcDbEntity
  8
0
100
AcDbLine
 62
7
  6
CONTINUOUS
 10
-63.5657485318
 20
35.7514564021
 11
-63.297719801
 21
35.8093874215
  0
LINE
  5
457
100
AcDbEntity
  8
0
100
AcDbLine
 62
7
  6
CONTINUOUS
 10
-60.5947969261
 20
35.2136918122
 11
-60.809952252
 21
35.1676955664
  0
LINE
  5
458
100
AcDbEntity
  8
0
100
AcDbLine
 62
7
  6
CONTINUOUS
 10
-63.297719801
 20
35.8093874215
 11
-63.190047749
 21
35.8323044834
  0
LWPOLYLINE
  5
459
100
AcDbEntity
  8
COPY_GEOM
100
AcDbPolyline
 62
250
  6
CONTINUOUS
 90
34
 70
0
 10
-62.110820073
 20
39.5797630238
 10
-62.3451343698
 20
39.5638137965
 10
-62.5887556306
 20
39.5320067966
 10
-62.8392320578
 20
39.4829449231
 10
-63.0973225869
 20
39.4119984857
 10
-63.3563705261
 20
39.3199919586
 10
-63.6048622871
 20
39.2146574811
 10
-63.8414473311
 20
39.0957285277
 10
-64.0664608627
 20
38.961673923
 10
-64.274959674
 20
38.8207864439
 10
-64.4679076859
 20
38.6753483425
 10
-64.6467764417
 20
38.5236929386
 10
-64.8097001058
 20
38.3700393547
 10
-64.9577268597
 20
38.2169073742
 10
-65.0929482201
 20
38.0637026779
 10
-65.2155639608
 20
37.9106127015
 10
-65.326644863
 20
37.7587929779
 10
-65.4274106617
 20
37.6089398784
 10
-65.5180731415
 20
37.4604950112
 10
-65.5992193016
 20
37.3144162955
 10
-65.6718677451
 20
37.1713853676
 10
-65.7366106429
 20
37.0302099333
 10
-65.7939178261
 20
36.891285507
 10
-65.8443416283
 20
36.7554604648
 10
-65.8883818733
 20
36.621984371
 10
-65.9263315707
 20
36.4910908876
 10
-65.9585769633
 20
36.363518982
 10
-65.9856374467
 20
36.2391289663
 10
-66.0076574756
 20
36.1182393566
 10
-66.024967334
 20
36.0013242768
 10
-66.038293075
 20
35.8883765726
 10
-66.0479775429
 20
35.7795845852
 10
-66.0539987388
 20
35.6753693659
 10
-66.0564932033
 20
35.5760141587
  0
LINE
  5
45A
100
AcDbEntity
  8
0
100
AcDbLine
 62
7
  6
CONTINUOUS
 10
60.4880987039
 20
35.2369418475
 11
60.8101933044
 21
35.1675286123
  0
LWPOLYLINE
  5
45B
100
AcDbEntity
  8
0
100
AcDbPolyline
 62
7
  6
CONTINUOUS
 90
3
 70
0
 10
63.1898066956
 20
35.8324714382
 10
63.5118997808
 20
35.7630585334
 10
63.5653456691
 20
35.7513833612
  0
LINE
  5
45C
100
AcDbEntity
  8
0
100
AcDbLine
 62
7
  6
CONTINUOUS
 10
60.3279822641
 20
35.2720547257
 11
60.4880987039
 21
35.2369418475
  0
LWPOLYLINE
  5
45D
100
AcDbEntity
  8
SUPERFICI
100
AcDbPolyline
 62
250
  6
CONTINUOUS
 90
22
 70
0
 10
50.3999899974
 20
22.2000100255
 10
50.3888384489
 20
22.5754400021
 10
50.3505001094
 20
22.957772503
 10
50.2834453824
 20
23.3448241742
 10
50.1856869036
 20
23.7342540334
 10
50.0566429627
 20
24.1232552664
 10
49.8972077139
 20
24.5090092767
 10
49.7062298904
 20
24.8905564583
 10
49.483368297
 20
25.2633077216
 10
49.2321826462
 20
25.6199016694
 10
48.9545125939
 20
25.957561064
 10
48.6507886935
 20
26.2748045505
 10
48.3243353578
 20
26.5674447865
 10
47.977246815
 20
26.8333753947
 10
47.6115897278
 20
27.0717849623
 10
47.2313681528
 20
27.2814860095
 10
46.8393768569
 20
27.46281218
 10
46.4371126361
 20
27.6144226682
 10
46.0272888921
 20
27.7333294272
 10
45.6129142152
 20
27.8186286107
 10
45.1965869517
 20
27.8714377707
 10
44.7809271591
 20
27.8921955923
  0
LWPOLYLINE
  5
45E
100
AcDbEntity
  8
SUPERFICI
100
AcDbPolyline
 62
250
  6
CONTINUOUS
 90
3
 70
0
 10
51.5995240021
 20
-41.1231070122
 10
51.6000461045
 20
-41.1472313346
 10
51.60054
 20
-41.1568856421
  0
LINE
  5
45F
100
AcDbEntity
  8
SUPERFICI
100
AcDbLine
 62
250
  6
CONTINUOUS
 10
51.5984218996
 20
-41.0294692843
 11
51.5995240021
 21
-41.1231070122
  0
LINE
  5
460
100
AcDbEntity
  8
SUPERFICI
100
AcDbLine
 62
250
  6
CONTINUOUS
 10
51.5958821325
 20
-40.5466107211
 11
51.5984218996
 21
-41.0294692843
  0
LINE
  5
461
100
AcDbEntity
  8
SUPERFICI
100
AcDbLine
 62
250
  6
CONTINUOUS
 10
51.5941457165
 20
-39.7051416551
 11
51.5958821325
 21
-40.5466107211
  0
LINE
  5
462
100
AcDbEntity
  8
SUPERFICI
100
AcDbLine
 62
7
  6
CONTINUOUS
 10
48.6000109268
 20
-22.2000019751
 11
48.600009684
 21
22.199981813
  0
LINE
  5
463
100
AcDbEntity
  8
SUPERFICI
100
AcDbLine
 62
250
  6
CONTINUOUS
 10
50.39999
 20
-22.200146042
 11
50.3999817432
 21
0.0000000261
  0
LINE
  5
464
100
AcDbEntity
  8
SUPERFICI
100
AcDbLine
 62
7
  6
CONTINUOUS
 10
50.3999817432
 20
0.0000000261
 11
50.3998249313
 21
11.2971438579
  0
LINE
  5
465
100
AcDbEntity
  8
SUPERFICI
100
AcDbLine
 62
7
  6
CONTINUOUS
 10
50.3998249313
 20
11.2971438579
 11
50.4008715335
 21
14.9079859478
  0
LWPOLYLINE
  5
466
100
AcDbEntity
  8
SUPERFICI
100
AcDbPolyline
 62
7
  6
CONTINUOUS
 90
8
 70
0
 10
50.4008715335
 20
14.9079859478
 10
50.3961844142
 20
18.7708607827
 10
50.4003540671
 20
19.3510504322
 10
50.4062825621
 20
19.9031487075
 10
50.4096430749
 20
20.4607357866
 10
50.4089933548
 20
21.0350050623
 10
50.4057756669
 20
21.6147631419
 10
50.399989998
 20
22.2000100254
  0
LINE
  5
467
100
AcDbEntity
  8
0
100
AcDbLine
 62
7
  6
CONTINUOUS
 10
-63.6719912503
 20
35.7281395174
 11
-63.5657485318
 21
35.7514564021
  0
LWPOLYLINE
  5
468
100
AcDbEntity
  8
0
100
AcDbPolyline
 62
7
  6
CONTINUOUS
 90
6
 70
0
 43
0.3500000006
 10
-1.3928570824
 20
50.2500014191
 10
-0.3214285684
 20
50.2500014191
 10
-0.1071428532
 20
50.4642859039
 10
-0.1071428532
 20
51.5357128601
 10
-0.5357142924
 20
51.9642863617
 10
-0.9642857051
 20
51.9642863617
  0
LINE
  5
469
100
AcDbEntity
  8
0
100
AcDbLine
 62
7
  6
CONTINUOUS
 10
63.5653456691
 20
35.7513833612
 11
63.6720177359
 21
35.7279453248
  0
LINE
  5
46A
100
AcDbEntity
  8
0
100
AcDbLine
 62
7
  6
CONTINUOUS
 10
56.75
 20
41.2556288318
 11
56.75
 21
41.1575023256
  0
LINE
  5
46B
100
AcDbEntity
  8
ASSI
100
AcDbLine
 62
7
  6
CONTINUOUS
 10
56.75
 20
33.8000000253
 11
56.75
 21
41.1575024212
  0
LINE
  5
46C
100
AcDbEntity
  8
0
100
AcDbLine
 62
7
  6
CONTINUOUS
 10
56.8
 20
35.1500000253
 11
56.8
 21
34.2500000253
  0
LINE
  5
46D
100
AcDbEntity
  8
0
100
AcDbLine
 62
7
  6
CONTINUOUS
 10
57.0
 20
41.2730841812
 11
57.0
 21
41.1571312819
  0
LINE
  5
46E
100
AcDbEntity
  8
DRAFT
100
AcDbLine
 62
7
  6
CONTINUOUS
 10
57.0
 20
32.6450195887
 11
57.0
 21
33.8000000253
  0
LINE
  5
46F
100
AcDbEntity
  8
COPY_GEOM
100
AcDbLine
 62
7
  6
CONTINUOUS
 10
57.0
 20
33.8000000253
 11
57.0
 21
41.1571388069
  0
LWPOLYLINE
  5
470
100
AcDbEntity
  8
DRAFT
100
AcDbPolyline
 62
7
  6
CONTINUOUS
 90
40
 70
0
 10
58.509277095
 20
35.5000000253
 10
58.5227875148
 20
35.7985692734
 10
58.5621533573
 20
36.096689224
 10
58.6275547348
 20
36.3920714209
 10
58.7196123204
 20
36.6841191356
 10
58.8377410324
 20
36.9685968837
 10
58.9786391538
 20
37.2382905358
 10
59.14061961
 20
37.4919546503
 10
59.3214818065
 20
37.7278203689
 10
59.5143061774
 20
37.939888177
 10
59.7137760761
 20
38.1266853629
 10
59.9187470292
 20
38.2909908758
 10
60.127744243
 20
38.4344957916
 10
60.3374008072
 20
38.5574810922
 10
60.5467720808
 20
38.6617699773
 10
60.759025028
 20
38.7504154084
 10
60.9721865041
 20
38.823507365
 10
61.1858475695
 20
38.8817841871
 10
61.4064911051
 20
38.9270244564
 10
61.6338296912
 20
38.9583700471
 10
61.8665074558
 20
38.9748341844
 10
62.1097181057
 20
38.9753920043
 10
62.3641453084
 20
38.9577572029
 10
62.6263975553
 20
38.9197686635
 10
62.8951651454
 20
38.8592497247
 10
63.1701986085
 20
38.7734391869
 10
63.4467617121
 20
38.6608102982
 10
63.7167826917
 20
38.5225276379
 10
63.9771745057
 20
38.3588565476
 10
64.2257455364
 20
38.1697758087
 10
64.4568393417
 20
37.9586616399
 10
64.6682092633
 20
37.7273717596
 10
64.858295111
 20
37.4774195233
 10
65.0239660788
 20
37.2132847609
 10
65.1644100782
 20
36.9373770158
 10
65.2790282998
 20
36.6521757067
 10
65.3667427148
 20
36.3630572168
 10
65.4280391925
 20
36.0735871458
 10
65.4641097343
 20
35.7851781046
 10
65.476004596
 20
35.5000000253
  0
LINE
  5
471
100
AcDbEntity
  8
TRASH
100
AcDbLine
 62
7
  6
CONTINUOUS
 10
60.8778937063
 20
35.2611776428
 11
60.8550027231
 21
35.2718517972
  0
LINE
  5
472
100
AcDbEntity
  8
0
100
AcDbLine
 62
7
  6
CONTINUOUS
 10
61.4802765162
 20
34.9802765414
 11
61.4378664697
 21
35.000053008
  0
LINE
  5
473
100
AcDbEntity
  8
TRASH
100
AcDbLine
 62
7
  6
CONTINUOUS
 10
63.1221062937
 20
35.7388224077
 11
63.1449972769
 21
35.7281482534
  0
LINE
  5
474
100
AcDbEntity
  8
0
100
AcDbLine
 62
7
  6
CONTINUOUS
 10
62.5197234839
 20
36.0197235091
 11
62.5621335304
 21
35.9999470425
  0
LINE
  5
475
100
AcDbEntity
  8
0
100
AcDbLine
 62
7
  6
CONTINUOUS
 10
62.6285131845
 20
35.9689182741
 11
62.8143050653
 21
35.8823759145
  0
LINE
  5
476
100
AcDbEntity
  8
0
100
AcDbLine
 62
7
  6
CONTINUOUS
 10
62.8143050653
 20
35.8823759145
 11
63.1221066534
 21
35.7388247662
  0
LINE
  5
477
100
AcDbEntity
  8
0
100
AcDbLine
 62
7
  6
CONTINUOUS
 10
61.4
 20
35.0177102182
 11
60.8778933467
 21
35.2611752843
  0
LWPOLYLINE
  5
478
100
AcDbEntity
  8
0
100
AcDbPolyline
 62
7
  6
CONTINUOUS
 90
4
 70
0
 10
61.3727024907
 20
34.872702509
 10
61.3408441935
 20
34.8883081993
 10
61.3102445392
 20
34.903726765
 10
61.2808405336
 20
34.9187978525
  0
LINE
  5
479
100
AcDbEntity
  8
0
100
AcDbLine
 62
7
  6
CONTINUOUS
 10
61.4378664697
 20
35.000053008
 11
61.4795953518
 21
34.9795953771
  0
LWPOLYLINE
  5
47A
100
AcDbEntity
  8
0
100
AcDbPolyline
 62
7
  6
CONTINUOUS
 90
4
 70
0
 10
61.2808405336
 20
34.9187978525
 10
61.1991463063
 20
34.9604183299
 10
61.1733791232
 20
34.9737175553
 10
61.1482253607
 20
34.9866377232
  0
LWPOLYLINE
  5
47B
100
AcDbEntity
  8
COPY_GEOM
100
AcDbPolyline
 62
250
  6
CONTINUOUS
 90
13
 70
0
 10
62.1108204068
 20
39.5797642875
 10
62.1072468695
 20
39.7953503883
 10
62.1023336603
 20
40.0029991147
 10
62.0961421527
 20
40.2001166298
 10
62.0887496882
 20
40.3842406471
 10
62.0802486098
 20
40.5530711877
 10
62.070745109
 20
40.7044993108
 10
62.0603578987
 20
40.8366334572
 10
62.049216731
 20
40.9478230778
 10
62.0374607758
 20
41.0366792513
 10
62.0252368828
 20
41.1020920339
 10
62.0126977467
 20
41.1432443241
 10
62.0
 20
41.1596220694
  0
LINE
  5
47C
100
AcDbEntity
  8
0
100
AcDbLine
 62
7
  6
CONTINUOUS
 10
61.4
 20
32.6678447036
 11
61.4
 21
35.0461926587
  0
LINE
  5
47D
100
AcDbEntity
  8
0
100
AcDbLine
 62
7
  6
CONTINUOUS
 10
61.4
 20
35.9538073919
 11
61.4
 21
38.3321553469
  0
LINE
  5
47E
100
AcDbEntity
  8
COPY_GEOM
100
AcDbLine
 62
250
  6
CONTINUOUS
 10
62.0
 20
41.5000000253
 11
62.0
 21
41.1596220694
  0
LINE
  5
47F
100
AcDbEntity
  8
RACCORDO
100
AcDbLine
 62
250
  6
CONTINUOUS
 10
62.0
 20
-41.4999999747
 11
62.0
 21
-41.3045030897
  0
LINE
  5
480
100
AcDbEntity
  8
SUPERFICI
100
AcDbLine
 62
250
  6
CONTINUOUS
 10
61.9999999998
 20
-41.3045030897
 11
61.9999372135
 21
-39.5834589852
  0
LINE
  5
481
100
AcDbEntity
  8
0
100
AcDbLine
 62
7
  6
CONTINUOUS
 10
62.6
 20
38.3321553469
 11
62.6
 21
35.9538073919
  0
LINE
  5
482
100
AcDbEntity
  8
0
100
AcDbLine
 62
7
  6
CONTINUOUS
 10
62.6
 20
35.0461926587
 11
62.6
 21
32.6678447036
  0
LWPOLYLINE
  5
483
100
AcDbEntity
  8
DRAFT
100
AcDbPolyline
 62
7
  6
CONTINUOUS
 90
43
 70
0
 10
65.476004596
 20
35.5000000253
 10
65.4662709014
 20
35.2371406609
 10
65.4367497769
 20
34.9758259896
 10
65.3876240495
 20
34.7175381045
 10
65.3193345962
 20
34.4642121967
 10
65.2322059706
 20
34.2167868463
 10
65.1260916183
 20
33.9753203343
 10
65.001674239
 20
33.7419605596
 10
64.8591076518
 20
33.5175113552
 10
64.6966006898
 20
33.3005751718
 10
64.5134532718
 20
33.0924215697
 10
64.3104897772
 20
32.8960347103
 10
64.0877006031
 20
32.7132631058
 10
63.8454123074
 20
32.5462638348
 10
63.5847809367
 20
32.3976521176
 10
63.3074224421
 20
32.2700083876
 10
63.0119031032
 20
32.1646516764
 10
62.7029084275
 20
32.0852041737
 10
62.392427061
 20
32.034879754
 10
62.0853490535
 20
32.012940708
 10
61.7820537957
 20
32.0179161843
 10
61.4881566026
 20
32.0481138597
 10
61.2060566947
 20
32.1012126837
 10
60.9368296534
 20
32.1749554711
 10
60.6834686495
 20
32.2663245353
 10
60.4477569117
 20
32.3721277069
 10
60.2290173793
 20
32.4901322133
 10
60.0261009585
 20
32.6187471013
 10
59.8396718673
 20
32.7554308647
 10
59.668916115
 20
32.8986389938
 10
59.5107981081
 20
33.0493055259
 10
59.3655982843
 20
33.2059603058
 10
59.2330041741
 20
33.3676937094
 10
59.1101041353
 20
33.5374849068
 10
58.9973141905
 20
33.7149246916
 10
58.895235456
 20
33.8992603338
 10
58.80256396
 20
34.0938494596
 10
58.7205162102
 20
34.2981673634
 10
58.6501931737
 20
34.511880172
 10
58.5917262778
 20
34.7391277915
 10
58.5470331378
 20
34.9809556754
 10
58.5187973667
 20
35.234961592
 10
58.509277095
 20
35.5000000253
  0
LINE
  5
484
100
AcDbEntity
  8
0
100
AcDbLine
 62
7
  6
CONTINUOUS
 10
62.6
 20
35.9822898324
 11
62.6285131845
 21
35.9689182741
  0
LWPOLYLINE
  5
485
100
AcDbEntity
  8
0
100
AcDbPolyline
 62
7
  6
CONTINUOUS
 90
4
 70
0
 10
62.6272975093
 20
36.1272975416
 10
62.6591558065
 20
36.1116918513
 10
62.6897554608
 20
36.0962732855
 10
62.7191594664
 20
36.081202198
  0
LINE
  5
486
100
AcDbEntity
  8
0
100
AcDbLine
 62
7
  6
CONTINUOUS
 10
62.5621335304
 20
35.9999470425
 11
62.5204046482
 21
36.0204046734
  0
LINE
  5
487
100
AcDbEntity
  8
0
100
AcDbLine
 62
7
  6
CONTINUOUS
 10
62.7191594664
 20
36.081202198
 11
62.8008536937
 21
36.0395817207
  0
LINE
  5
488
100
AcDbEntity
  8
0
100
AcDbLine
 62
7
  6
CONTINUOUS
 10
62.8008536937
 20
36.0395817207
 11
62.8766776316
 21
36.0004898286
  0
LINE
  5
489
100
AcDbEntity
  8
0
100
AcDbLine
 62
7
  6
CONTINUOUS
 10
61.1482253607
 20
34.9866377232
 11
61.0004861321
 21
35.063647802
  0
LINE
  5
48A
100
AcDbEntity
  8
0
100
AcDbLine
 62
7
  6
CONTINUOUS
 10
62.8766776316
 20
36.0004898286
 11
62.9995138679
 21
35.9363522486
  0
LWPOLYLINE
  5
48B
100
AcDbEntity
  8
0
100
AcDbPolyline
 62
7
  6
CONTINUOUS
 90
3
 70
0
 10
61.0004861321
 20
35.063647802
 10
60.9019622533
 20
35.1157285125
 10
60.828395019
 20
35.1549274006
  0
LWPOLYLINE
  5
48C
100
AcDbEntity
  8
0
100
AcDbPolyline
 62
7
  6
CONTINUOUS
 90
3
 70
0
 10
62.9995138679
 20
35.9363522486
 10
63.0980377467
 20
35.884271538
 10
63.171604981
 20
35.8450726499
  0
LINE
  5
48D
100
AcDbEntity
  8
0
100
AcDbLine
 62
7
  6
CONTINUOUS
 10
60.8101933044
 20
35.1675286123
 11
60.828395019
 21
35.1549274006
  0
LINE
  5
48E
100
AcDbEntity
  8
DRAFT
100
AcDbLine
 62
7
  6
CONTINUOUS
 10
67.804503115
 20
25.1110272795
 11
67.6595836093
 21
29.9044267328
  0
LINE
  5
48F
100
AcDbEntity
  8
RACCORDO
100
AcDbLine
 62
7
  6
CONTINUOUS
 10
67.6591506687
 20
30.2130549328
 11
67.8165695018
 21
25.0169478663
  0
LWPOLYLINE
  5
490
100
AcDbEntity
  8
COPY_GEOM
100
AcDbPolyline
 62
250
  6
CONTINUOUS
 90
34
 70
0
 10
66.0564932034
 20
35.5760141587
 10
66.0537618454
 20
35.6805774226
 10
66.0472140496
 20
35.7899253034
 10
66.0367010645
 20
35.9037518889
 10
66.0222294467
 20
36.0215509082
 10
66.0034439387
 20
36.1431742522
 10
65.9796036387
 20
36.2687844443
 10
65.9503499783
 20
36.3978731727
 10
65.9155159505
 20
36.5300843444
 10
65.8745609409
 20
36.6656863486
 10
65.8270172054
 20
36.8039633045
 10
65.7725855649
 20
36.9445536713
 10
65.7108475474
 20
37.0881040251
 10
65.641168278
 20
37.2337474863
 10
65.5630472072
 20
37.3810122199
 10
65.4760549438
 20
37.5309238716
 10
65.3790984036
 20
37.6828220299
 10
65.2715349306
 20
37.8356742584
 10
65.1533740643
 20
37.9897879875
 10
65.0233465531
 20
38.1446333939
 10
64.8803321758
 20
38.298930532
 10
64.7244629754
 20
38.4519342726
 10
64.553306456
 20
38.6048367883
 10
64.366202314
 20
38.7547248323
 10
64.1669479227
 20
38.895744781
 10
63.955109109
 20
39.0293764435
 10
63.7298860333
 20
39.1544575392
 10
63.4973171195
 20
39.2632711717
 10
63.2588455706
 20
39.3566680783
 10
63.0154620395
 20
39.4362768436
 10
62.7756832452
 20
39.4973756984
 10
62.544595047
 20
39.5397486291
 10
62.3222544297
 20
39.5668122889
 10
62.1108200731
 20
39.5797630238
  0
LWPOLYLINE
  5
491
100
AcDbEntity
  8
COPY_GEOM
100
AcDbPolyline
 62
250
  6
CONTINUOUS
 90
34
 70
0
 10
67.660746006
 20
35.5000000253
 10
67.6586110835
 20
35.6578641961
 10
67.6517078829
 20
35.8219946315
 10
67.6394859893
 20
35.9922288388
 10
67.6213692173
 20
36.1684614317
 10
67.596782948
 20
36.3503653232
 10
67.5651860786
 20
36.5373925832
 10
67.526022814
 20
36.7291609788
 10
67.4787083479
 20
36.9253827574
 10
67.4226857224
 20
37.1255907652
 10
67.3574643531
 20
37.3291116466
 10
67.2824262804
 20
37.5356725016
 10
67.1967703556
 20
37.7453072552
 10
67.1000377351
 20
37.9570704004
 10
66.9915206377
 20
38.1705758285
 10
66.8698156311
 20
38.3864804145
 10
66.7342026917
 20
38.6038300794
 10
66.5839994503
 20
38.8215801067
 10
66.4175382892
 20
39.0398858535
 10
66.2342963687
 20
39.2570797726
 10
66.0333727345
 20
39.4719363358
 10
65.8121444728
 20
39.6846614435
 10
65.5682774018
 20
39.8943963941
 10
65.3025459776
 20
40.0973908958
 10
65.0172574645
 20
40.2894075188
 10
64.7112177681
 20
40.4690054001
 10
64.3859151244
 20
40.6330828206
 10
64.0489930596
 20
40.7765522186
 10
63.6997440943
 20
40.8991023719
 10
63.3414255647
 20
40.9989913883
 10
62.9891402773
 20
41.0730219127
 10
62.649380123
 20
41.1226011257
 10
62.3192277273
 20
41.1508006831
 10
62.0
 20
41.1596220694
  0
LWPOLYLINE
  5
492
100
AcDbEntity
  8
COPY_GEOM
100
AcDbPolyline
 62
250
  6
CONTINUOUS
 90
4
 70
0
 10
66.0814529392
 20
33.2729080702
 10
66.0694157194
 20
34.6767859521
 10
66.064140359
 20
35.1305813291
 10
66.0564932034
 20
35.5760141587
  0
LWPOLYLINE
  5
493
100
AcDbEntity
  8
COPY_GEOM
100
AcDbPolyline
 62
250
  6
CONTINUOUS
 90
3
 70
0
 10
66.0908351532
 20
31.3000421149
 10
66.0844856222
 20
32.790568506
 10
66.0814529392
 20
33.2729080702
  0
LINE
  5
494
100
AcDbEntity
  8
SUPERFICI
100
AcDbLine
 62
250
  6
CONTINUOUS
 10
66.0970894701
 20
-30.1419220464
 11
66.0944646853
 21
-29.0826734122
  0
LWPOLYLINE
  5
495
100
AcDbEntity
  8
DRAFT
100
AcDbPolyline
 62
250
  6
CONTINUOUS
 90
3
 70
0
 10
66.0824805953
 20
9.1493466028
 10
66.0989566451
 20
1.9398239935
 10
66.102337955
 20
0.0000000244
  0
LINE
  5
496
100
AcDbEntity
  8
DRAFT
100
AcDbLine
 62
250
  6
CONTINUOUS
 10
66.0725650577
 20
15.1821645703
 11
66.0824805953
 21
9.1493466028
  0
LINE
  5
497
100
AcDbEntity
  8
DRAFT
100
AcDbLine
 62
250
  6
CONTINUOUS
 10
66.0667519167
 20
20.5202887111
 11
66.0725650577
 21
15.1821645703
  0
LINE
  5
498
100
AcDbEntity
  8
SUPERFICI
100
AcDbLine
 62
250
  6
CONTINUOUS
 10
66.1054669063
 20
-6.520512454
 11
66.102337927
 21
0.0000000244
  0
LINE
  5
499
100
AcDbEntity
  8
COPY_GEOM
100
AcDbLine
 62
7
  6
CONTINUOUS
 10
66.2
 20
31.0000000253
 11
66.2
 21
31.3000000253
  0
LINE
  5
49A
100
AcDbEntity
  8
SUPERFICI
100
AcDbLine
 62
250
  6
CONTINUOUS
 10
67.660921847
 20
-35.4999988394
 11
67.65928984
 21
-25.9966443141
  0
LINE
  5
49B
100
AcDbEntity
  8
SUPERFICI
100
AcDbLine
 62
250
  6
CONTINUOUS
 10
67.65928984
 20
-25.9966443141
 11
67.6590163437
 21
0.0000000253
  0
LINE
  5
49C
100
AcDbEntity
  8
DRAFT
100
AcDbLine
 62
7
  6
CONTINUOUS
 10
67.804503115
 20
25.1110272795
 11
67.804503115
 21
-35.5000122604
  0
LINE
  5
49D
100
AcDbEntity
  8
RACCORDO
100
AcDbLine
 62
250
  6
CONTINUOUS
 10
67.8165695018
 20
25.0169478663
 11
67.8165695018
 21
-35.4999999747
  0
LINE
  5
49E
100
AcDbEntity
  8
0
100
AcDbLine
 62
7
  6
CONTINUOUS
 10
68.0
 20
-35.4999999747
 11
68.0
 21
35.5000000253
  0
LINE
  5
49F
100
AcDbEntity
  8
COPY_GEOM
100
AcDbLine
 62
7
  6
CONTINUOUS
 10
68.0
 20
-35.4999999747
 11
68.0
 21
35.5000000253
  0
LINE
  5
4A0
100
AcDbEntity
  8
DRAFT
100
AcDbLine
 62
250
  6
CONTINUOUS
 10
66.0660584747
 20
25.4061390205
 11
66.0667519167
 21
20.5202887111
  0
LINE
  5
4A1
100
AcDbEntity
  8
SUPERFICI
100
AcDbLine
 62
250
  6
CONTINUOUS
 10
66.0944646853
 20
-29.0826734122
 11
66.0938047187
 21
-27.4306583618
  0
LINE
  5
4A2
100
AcDbEntity
  8
SUPERFICI
100
AcDbLine
 62
250
  6
CONTINUOUS
 10
66.105175342
 20
-11.1640930804
 11
66.1054669063
 21
-6.520512454
  0
LINE
  5
4A3
100
AcDbEntity
  8
DRAFT
100
AcDbLine
 62
250
  6
CONTINUOUS
 10
67.6590163437
 20
0.0000000253
 11
67.6595836093
 21
29.9044267328
  0
LINE
  5
4A4
100
AcDbEntity
  8
COPY_GEOM
100
AcDbLine
 62
250
  6
CONTINUOUS
 10
67.6591452729
 20
30.2132330385
 11
67.6604233128
 21
34.9620472301
  0
LINE
  5
4A5
100
AcDbEntity
  8
COPY_GEOM
100
AcDbLine
 62
250
  6
CONTINUOUS
 10
67.6604233128
 20
34.9620472301
 11
67.660746006
 21
35.5000000253
  0
LINE
  5
4A6
100
AcDbEntity
  8
SUPERFICI
100
AcDbLine
 62
250
  6
CONTINUOUS
 10
66.1059223927
 20
-20.3839354592
 11
66.105175342
 21
-11.1640930804
  0
LWPOLYLINE
  5
4A7
100
AcDbEntity
  8
SUPERFICI
100
AcDbPolyline
 62
250
  6
CONTINUOUS
 90
3
 70
0
 10
66.0938047187
 20
-27.4306583618
 10
66.096691036
 20
-25.6837291178
 10
66.1059223927
 20
-20.3839354592
  0
LWPOLYLINE
  5
4A8
100
AcDbEntity
  8
DRAFT
100
AcDbPolyline
 62
250
  6
CONTINUOUS
 90
3
 70
0
 10
66.0669632133
 20
31.0000001019
 10
66.0640997454
 20
29.7493603724
 10
66.0660584747
 20
25.4061390205
  0
LWPOLYLINE
  5
4A9
100
AcDbEntity
  8
SUPERFICI
100
AcDbPolyline
 62
250
  6
CONTINUOUS
 90
8
 70
0
 10
66.0481113948
 20
-35.6983683812
 10
66.07608269
 20
-35.0582680505
 10
66.0899315486
 20
-34.6037478469
 10
66.0990106447
 20
-34.1367261133
 10
66.1040393547
 20
-33.6554917339
 10
66.1058281114
 20
-33.1625139917
 10
66.1055242868
 20
-32.6652824447
 10
66.0970894701
 20
-30.1419220464
  0
LINE
  5
4AA
100
AcDbEntity
  8
0
100
AcDbLine
 62
7
  6
CONTINUOUS
 10
63.171604981
 20
35.8450726499
 11
63.1898066956
 21
35.8324714382
  0
LINE
  5
4AB
100
AcDbEntity
  8
0
100
AcDbLine
 62
7
  6
CONTINUOUS
 10
61.4
 20
36.0999998834
 11
61.3727025934
 21
36.1272972594
  0
LINE
  5
4AC
100
AcDbEntity
  8
0
100
AcDbLine
 62
7
  6
CONTINUOUS
 10
62.6
 20
34.9000001671
 11
62.6272974066
 21
34.8727027911
  0
LINE
  5
4AD
100
AcDbEntity
  8
0
100
AcDbLine
 62
7
  6
CONTINUOUS
 10
61.4802765158
 20
36.0197235094
 11
61.4795953518
 21
36.0204046734
  0
LINE
  5
4AE
100
AcDbEntity
  8
0
100
AcDbLine
 62
7
  6
CONTINUOUS
 10
62.5197234842
 20
34.9802765411
 11
62.5204046482
 21
34.9795953771
  0
LWPOLYLINE
  5
4AF
100
AcDbEntity
  8
SUPERFICI
100
AcDbPolyline
 62
250
  6
CONTINUOUS
 90
10
 70
0
 10
67.2155647721
 20
-37.7012801361
 10
67.3068925971
 20
-37.4709082111
 10
67.3885632301
 20
-37.2351654414
 10
67.4602088458
 20
-36.9944374288
 10
67.5217184388
 20
-36.7480534402
 10
67.5724106111
 20
-36.4975101101
 10
67.6115247012
 20
-36.2465698784
 10
67.639104943
 20
-35.9968759695
 10
67.655509574
 20
-35.7478529022
 10
67.6609243059
 20
-35.4999988394
  0
LWPOLYLINE
  5
4B0
100
AcDbEntity
  8
SUPERFICI
100
AcDbPolyline
 62
250
  6
CONTINUOUS
 90
9
 70
0
 10
65.7183571554
 20
-37.0693442995
 10
65.7838376329
 20
-36.9214455002
 10
65.8428830554
 20
-36.7666120779
 10
65.8951770791
 20
-36.6048663698
 10
65.9404935395
 20
-36.4361103698
 10
65.9785730035
 20
-36.2605944908
 10
66.0092028887
 20
-36.0789388105
 10
66.0323541925
 20
-35.8915025037
 10
66.0481113948
 20
-35.6983683812
  0
LWPOLYLINE
  5
4B1
100
AcDbEntity
  8
SUPERFICI
100
AcDbPolyline
 62
250
  6
CONTINUOUS
 90
10
 70
0
 10
65.7183625475
 20
-37.0693463745
 10
65.6331341302
 20
-37.2435518951
 10
65.5438970944
 20
-37.4098781048
 10
65.4505777669
 20
-37.5685837343
 10
65.3530957098
 20
-37.7198056103
 10
65.2514078036
 20
-37.863911558
 10
65.1454847157
 20
-38.0014734365
 10
65.0352616007
 20
-38.132810586
 10
64.9206614151
 20
-38.2580169603
 10
64.8016226701
 20
-38.3772950641
  0
LWPOLYLINE
  5
4B2
100
AcDbEntity
  8
SUPERFICI
100
AcDbPolyline
 62
250
  6
CONTINUOUS
 90
10
 70
0
 10
65.9490690865
 20
-39.5557490365
 10
66.1230139487
 20
-39.3788505395
 10
66.2900437038
 20
-39.1933330296
 10
66.4496822168
 20
-38.9994213838
 10
66.602055477
 20
-38.796532668
 10
66.7460215228
 20
-38.5857287676
 10
66.879553599
 20
-38.3699774628
 10
67.0020785026
 20
-38.1507291663
 10
67.1140940961
 20
-37.9276548543
 10
67.2155647721
 20
-37.7012801361
  0
LWPOLYLINE
  5
4B3
100
AcDbEntity
  8
SUPERFICI
100
AcDbPolyline
 62
250
  6
CONTINUOUS
 90
12
 70
0
 10
64.8016226701
 20
-38.3772950641
 10
64.5748674567
 20
-38.5916058052
 10
64.3405827174
 20
-38.7793003501
 10
64.1006954105
 20
-38.9432922339
 10
63.8577102897
 20
-39.0877678876
 10
63.6131176316
 20
-39.2134703126
 10
63.3679323289
 20
-39.3180734288
 10
63.1253341809
 20
-39.4028874703
 10
62.8874163159
 20
-39.4707633474
 10
62.653959648
 20
-39.5215929888
 10
62.4263758235
 20
-39.5562202908
 10
62.2077076018
 20
-39.5764870267
  0
LINE
  5
4B4
100
AcDbEntity
  8
0
100
AcDbLine
 62
7
  6
CONTINUOUS
 10
61.4
 20
34.8181120151
 11
61.3727024907
 21
34.872702509
  0
LINE
  5
4B5
100
AcDbEntity
  8
0
100
AcDbLine
 62
7
  6
CONTINUOUS
 10
62.6
 20
36.1818880354
 11
62.6272975093
 21
36.1272975416
  0
LINE
  5
4B6
100
AcDbEntity
  8
0
100
AcDbLine
 62
7
  6
CONTINUOUS
 10
61.4795953518
 20
34.9795953771
 11
61.5000529891
 21
34.9378664893
  0
LINE
  5
4B7
100
AcDbEntity
  8
0
100
AcDbLine
 62
7
  6
CONTINUOUS
 10
62.5204046482
 20
36.0204046734
 11
62.4999470109
 21
36.0621335612
  0
LINE
  5
4B8
100
AcDbEntity
  8
0
100
AcDbLine
 62
7
  6
CONTINUOUS
 10
61.5000529891
 20
34.9378664893
 11
61.4802765162
 21
34.9802765414
  0
LINE
  5
4B9
100
AcDbEntity
  8
0
100
AcDbLine
 62
7
  6
CONTINUOUS
 10
62.4999470109
 20
36.0621335612
 11
62.5197234839
 21
36.0197235091
  0
LINE
  5
4BA
100
AcDbEntity
  8
0
100
AcDbLine
 62
7
  6
CONTINUOUS
 10
60.877893713
 20
35.7388223978
 11
60.8283951111
 21
35.8450726991
  0
LINE
  5
4BB
100
AcDbEntity
  8
0
100
AcDbLine
 62
7
  6
CONTINUOUS
 10
63.122106287
 20
35.2611776527
 11
63.171604889
 21
35.1549273514
  0
LINE
  5
4BC
100
AcDbEntity
  8
0
100
AcDbLine
 62
7
  6
CONTINUOUS
 10
60.8550027299
 20
35.7281482434
 11
60.809952251
 21
35.8323044834
  0
LINE
  5
4BD
100
AcDbEntity
  8
0
100
AcDbLine
 62
7
  6
CONTINUOUS
 10
63.1449972701
 20
35.2718518071
 11
63.190047748
 21
35.1676955664
  0
LWPOLYLINE
  5
4BE
100
AcDbEntity
  8
DRAFT
100
AcDbPolyline
 62
7
  6
CONTINUOUS
 90
16
 70
0
 10
67.6595836093
 20
29.9044267328
 10
67.6452539918
 20
30.0001124861
 10
67.6157912662
 20
30.0951998991
 10
67.5711954325
 20
30.1896889716
 10
67.5107750215
 20
30.2847656728
 10
67.4352215025
 20
30.3792440336
 10
67.3466092827
 20
30.4695661467
 10
67.2437215096
 20
30.5555712026
 10
67.1277750357
 20
30.6374200108
 10
67.0044948261
 20
30.7120370925
 10
66.8729292153
 20
30.7784610784
 10
66.7340298687
 20
30.8376533378
 10
66.5963767478
 20
30.8894224993
 10
66.4628298397
 20
30.9337047725
 10
66.3305291572
 20
30.9705639478
 10
66.1994747004
 20
31.0000000253
  0
LWPOLYLINE
  5
4BF
100
AcDbEntity
  8
COPY_GEOM
100
AcDbPolyline
 62
7
  6
CONTINUOUS
 90
16
 70
0
 10
67.6591506687
 20
30.2130549328
 10
67.6470259394
 20
30.3173535459
 10
67.6200792432
 20
30.4186436245
 10
67.5783105801
 20
30.5169251685
 10
67.5206735341
 20
30.6130196504
 10
67.4482145212
 20
30.7061055977
 10
67.3640727892
 20
30.7937185929
 10
67.2683727412
 20
30.8753161803
 10
67.160989974
 20
30.9514408155
 10
67.0446905262
 20
31.0212554482
 10
66.9191066192
 20
31.0847666405
 10
66.7846060317
 20
31.1419678302
 10
66.6450581385
 20
31.1920022799
 10
66.5017527313
 20
31.2345844104
 10
66.3534000185
 20
31.2699998009
 10
66.2
 20
31.2982484514
  0
LWPOLYLINE
  5
4C0
100
AcDbEntity
  8
SUPERFICI
100
AcDbPolyline
 62
250
  6
CONTINUOUS
 90
3
 70
0
 10
-146.2743044264
 20
-41.0575510546
 10
-146.1953401034
 20
-41.0969486606
 10
-146.1186333307
 20
-41.1231250277
  0
LINE
  5
4C1
100
AcDbEntity
  8
SUPERFICI
100
AcDbLine
 62
7
  6
CONTINUOUS
 10
-151.3230772753
 20
-40.8837314369
 11
-151.2188239316
 21
-40.9444817111
  0
LINE
  5
4C2
100
AcDbEntity
  8
SUPERFICI
100
AcDbLine
 62
250
  6
CONTINUOUS
 10
-146.3542405272
 20
-41.0048183716
 11
-146.2743044264
 21
-41.0575510546
  0
LWPOLYLINE
  5
4C3
100
AcDbEntity
  8
SUPERFICI
100
AcDbPolyline
 62
250
  6
CONTINUOUS
 90
3
 70
0
 10
-146.5839634183
 20
-40.9886019537
 10
-146.5048794246
 20
-41.0431113499
 10
-146.4257874076
 20
-41.0852050255
  0
LWPOLYLINE
  5
4C4
100
AcDbEntity
  8
COPY_GEOM
100
AcDbPolyline
 62
7
  6
CONTINUOUS
 90
4
 70
0
 10
-145.7414177042
 20
40.9590796286
 10
-145.5807646123
 20
41.0279396614
 10
-145.4167114421
 20
41.0823655373
 10
-145.2507892539
 20
41.1217241174
  0
LWPOLYLINE
  5
4C5
100
AcDbEntity
  8
ASSI
100
AcDbPolyline
 62
7
  6
CONTINUOUS
 90
5
 70
0
 10
-145.4812619906
 20
41.0260300326
 10
-145.4560691917
 20
41.0355376501
 10
-145.3782989008
 20
41.0627518276
 10
-145.2989798793
 20
41.0876974761
 10
-145.2181843236
 20
41.1100912109
  0
LINE
  5
4C6
100
AcDbEntity
  8
SUPERFICI
100
AcDbLine
 62
250
  6
CONTINUOUS
 10
-147.1811766665
 20
-39.5316901769
 11
-147.1278774824
 21
-39.554317319
  0
LWPOLYLINE
  5
4C7
100
AcDbEntity
  8
SUPERFICI
100
AcDbPolyline
 62
250
  6
CONTINUOUS
 90
8
 70
0
 10
-147.1278774824
 20
-39.554317319
 10
-147.1022738895
 20
-39.5653989233
 10
-147.0772168633
 20
-39.5770174085
 10
-147.0526277839
 20
-39.589487964
 10
-147.0285065898
 20
-39.6027299142
 10
-147.0049084494
 20
-39.6165155258
 10
-146.9819100103
 20
-39.6306033656
 10
-146.9595159885
 20
-39.6450072357
  0
LWPOLYLINE
  5
4C8
100
AcDbEntity
  8
SUPERFICI
100
AcDbPolyline
 62
250
  6
CONTINUOUS
 90
3
 70
0
 10
-146.8218593328
 20
-39.7369407099
 10
-146.8036904504
 20
-39.7452697681
 10
-146.7951658904
 20
-39.750374573
  0
LINE
  5
4C9
100
AcDbEntity
  8
SUPERFICI
100
AcDbLine
 62
250
  6
CONTINUOUS
 10
-146.8404034482
 20
-39.7277589648
 11
-146.8218593328
 21
-39.7369407099
  0
LWPOLYLINE
  5
4CA
100
AcDbEntity
  8
SUPERFICI
100
AcDbPolyline
 62
250
  6
CONTINUOUS
 90
6
 70
0
 10
-146.9595159885
 20
-39.6450072357
 10
-146.9501659799
 20
-39.6508192185
 10
-146.9407730391
 20
-39.6571033453
 10
-146.931336916
 20
-39.6638684423
 10
-146.9217852907
 20
-39.6713598433
 10
-146.8846912149
 20
-39.7020314431
  0
LWPOLYLINE
  5
4CB
100
AcDbEntity
  8
SUPERFICI
100
AcDbPolyline
 62
250
  6
CONTINUOUS
 90
6
 70
0
 10
-146.8846912149
 20
-39.7020314431
 10
-146.8757926239
 20
-39.7085944801
 10
-146.8670381213
 20
-39.7139832427
 10
-146.8583825849
 20
-39.7186225085
 10
-146.8495303469
 20
-39.7231510827
 10
-146.8404034482
 20
-39.7277589648
  0
LINE
  5
4CC
100
AcDbEntity
  8
COPY_GEOM
100
AcDbLine
 62
7
  6
CONTINUOUS
 10
-146.6888927869
 20
39.9974877227
 11
-146.6108514481
 21
40.1489660709
  0
LWPOLYLINE
  5
4CD
100
AcDbEntity
  8
COPY_GEOM
100
AcDbPolyline
 62
7
  6
CONTINUOUS
 90
8
 70
0
 10
-146.6108514481
 20
40.1489660709
 10
-146.5191338436
 20
40.2943138418
 10
-146.4145457173
 20
40.4324600106
 10
-146.2995043003
 20
40.5601915038
 10
-146.1739953259
 20
40.677143985
 10
-146.038033061
 20
40.7836817904
 10
-145.894077537
 20
40.8776848549
 10
-145.7414177042
 20
40.9590796286
  0
LINE
  5
4CE
100
AcDbEntity
  8
SUPERFICI
100
AcDbLine
 62
7
  6
CONTINUOUS
 10
-144.9512200349
 20
-41.1561542983
 11
-144.9445857934
 21
-41.1563747661
  0
LINE
  5
4CF
100
AcDbEntity
  8
SUPERFICI
100
AcDbLine
 62
7
  6
CONTINUOUS
 10
-144.9607027697
 20
-41.1557902989
 11
-144.9512200349
 21
-41.1561542983
  0
LINE
  5
4D0
100
AcDbEntity
  8
SUPERFICI
100
AcDbLine
 62
7
  6
CONTINUOUS
 10
-144.9695031005
 20
-41.155401695
 11
-144.9607027697
 21
-41.1557902989
  0
LINE
  5
4D1
100
AcDbEntity
  8
SUPERFICI
100
AcDbLine
 62
7
  6
CONTINUOUS
 10
-145.073548205
 20
-41.1472313346
 11
-144.9232185219
 21
-41.1568856421
  0
LINE
  5
4D2
100
AcDbEntity
  8
SUPERFICI
100
AcDbLine
 62
250
  6
CONTINUOUS
 10
-144.9216884584
 20
-41.1492483337
 11
-144.7856902317
 21
-41.1591963618
  0
LWPOLYLINE
  5
4D3
100
AcDbEntity
  8
SUPERFICI
100
AcDbPolyline
 62
250
  6
CONTINUOUS
 90
9
 70
0
 10
-151.7531573407
 20
-39.8934959733
 10
-151.7410605732
 20
-39.894638304
 10
-151.7063926275
 20
-39.897740503
 10
-151.6509590843
 20
-39.9022152627
 10
-151.5724774432
 20
-39.9064785876
 10
-151.4673916646
 20
-39.908700144
 10
-151.335329807
 20
-39.908303782
 10
-151.1791293425
 20
-39.9059788068
 10
-150.3705341321
 20
-39.8876610762
  0
LWPOLYLINE
  5
4D4
100
AcDbEntity
  8
SUPERFICI
100
AcDbPolyline
 62
7
  6
CONTINUOUS
 90
7
 70
0
 10
-146.1186333097
 20
-41.1231250295
 10
-146.075165998
 20
-41.1273554617
 10
-146.0307409254
 20
-41.1310735593
 10
-145.985358092
 20
-41.1342793224
 10
-145.9390174978
 20
-41.1369727509
 10
-145.8917191427
 20
-41.1391538448
 10
-145.8434630268
 20
-41.1408226041
  0
LWPOLYLINE
  5
4D5
100
AcDbEntity
  8
SUPERFICI
100
AcDbPolyline
 62
7
  6
CONTINUOUS
 90
9
 70
0
 10
-145.0912407701
 20
-41.1452319702
 10
-145.0674001382
 20
-41.1479072393
 10
-145.0461843292
 20
-41.1500132896
 10
-145.0282939921
 20
-41.1515852358
 10
-145.0129591633
 20
-41.1527820185
 10
-145.0000279762
 20
-41.1536817956
 10
-144.9898400449
 20
-41.1543193959
 10
-144.9820080818
 20
-41.1547664262
 10
-144.9695031005
 20
-41.155401695
  0
LWPOLYLINE
  5
4D6
100
AcDbEntity
  8
SUPERFICI
100
AcDbPolyline
 62
7
  6
CONTINUOUS
 90
5
 70
0
 10
-146.4257874612
 20
-41.0852050187
 10
-146.2644497455
 20
-41.1059808909
 10
-146.2291627323
 20
-41.110415196
 10
-146.1931399564
 20
-41.1147151188
 10
-146.1186333097
 20
-41.1231250295
  0
LINE
  5
4D7
100
AcDbEntity
  8
SUPERFICI
100
AcDbLine
 62
7
  6
CONTINUOUS
 10
-145.231509906
 20
-41.1230537668
 11
-145.073548205
 21
-41.1472313346
  0
LWPOLYLINE
  5
4D8
100
AcDbEntity
  8
SUPERFICI
100
AcDbPolyline
 62
7
  6
CONTINUOUS
 90
7
 70
0
 10
-146.7120500543
 20
-41.0401526864
 10
-146.6633506402
 20
-41.0488740882
 10
-146.6150468188
 20
-41.0571104182
 10
-146.5671385902
 20
-41.0648616762
 10
-146.5196259545
 20
-41.0721278623
 10
-146.4725089115
 20
-41.0789089764
 10
-146.4257874612
 20
-41.0852050187
  0
LWPOLYLINE
  5
4D9
100
AcDbEntity
  8
SUPERFICI
100
AcDbPolyline
 62
7
  6
CONTINUOUS
 90
7
 70
0
 10
-145.2403696697
 20
-41.1213359964
 10
-145.215000184
 20
-41.1262547453
 10
-145.1898280172
 20
-41.130793287
 10
-145.1647736574
 20
-41.1349697845
 10
-145.1399336479
 20
-41.1387718354
 10
-145.1156216361
 20
-41.1421630261
 10
-145.0912407701
 20
-41.1452319702
  0
LWPOLYLINE
  5
4DA
100
AcDbEntity
  8
SUPERFICI
100
AcDbPolyline
 62
250
  6
CONTINUOUS
 90
16
 70
0
 10
-146.6124552154
 20
-37.0693442995
 10
-146.5780269689
 20
-37.1247131605
 10
-146.5266782131
 20
-37.1834144555
 10
-146.4578185496
 20
-37.2445084986
 10
-146.3699004333
 20
-37.3075600707
 10
-146.2631798124
 20
-37.3705634371
 10
-146.1414370689
 20
-37.4301691519
 10
-146.0083105282
 20
-37.484226876
 10
-145.862968356
 20
-37.5326751551
 10
-145.7042250494
 20
-37.5757261954
 10
-145.5321241799
 20
-37.6135743357
 10
-145.3525010471
 20
-37.6451265228
 10
-145.1739980789
 20
-37.6694436158
 10
-145.0018072805
 20
-37.6866210786
 10
-144.837350546
 20
-37.6971541975
 10
-144.6834186925
 20
-37.7012801267
  0
LWPOLYLINE
  5
4DB
100
AcDbEntity
  8
SUPERFICI
100
AcDbPolyline
 62
7
  6
CONTINUOUS
 90
99
 70
0
 10
-146.6902111985
 20
-40.0122055163
 10
-146.6861378607
 20
-40.0202891125
 10
-146.6819379596
 20
-40.0285314526
 10
-146.6776085644
 20
-40.03693268
 10
-146.6731366843
 20
-40.0455119706
 10
-146.6685200096
 20
-40.0542673206
 10
-146.6637548942
 20
-40.0631991204
 10
-146.6588255205
 20
-40.0723299623
 10
-146.6537278294
 20
-40.0816597644
 10
-146.6484587481
 20
-40.0911864334
 10
-146.6430030437
 20
-40.1009293099
 10
-146.6373566916
 20
-40.1108868665
 10
-146.6315154425
 20
-40.1210577402
 10
-146.6254628152
 20
-40.1314612184
 10
-146.6191921548
 20
-40.142098696
 10
-146.6127005168
 20
-40.1529649518
 10
-146.6059762077
 20
-40.1640690057
 10
-146.5990107866
 20
-40.1754137242
 10
-146.5918021088
 20
-40.1869913366
 10
-146.5843476669
 20
-40.1987946241
 10
-146.5766414341
 20
-40.2108217731
 10
-146.5686786707
 20
-40.2230686432
 10
-146.5604589798
 20
-40.2355243201
 10
-146.5519736655
 20
-40.2481903387
 10
-146.5432205923
 20
-40.2610580666
 10
-146.534209866
 20
-40.2741012826
 10
-146.5249345375
 20
-40.2873189746
 10
-146.5153916189
 20
-40.3007041817
 10
-146.505598483
 20
-40.3142219802
 10
-146.4955503435
 20
-40.3278690147
 10
-146.485243587
 20
-40.3416401141
 10
-146.4746990387
 20
-40.3554980947
 10
-146.4639157892
 20
-40.3694355855
 10
-146.4528882069
 20
-40.3834512111
 10
-146.4416315928
 20
-40.397517296
 10
-146.4301463796
 20
-40.4116256762
 10
-146.4184269791
 20
-40.4257755191
 10
-146.4064806759
 20
-40.4399504656
 10
-146.3943055316
 20
-40.4541454917
 10
-146.3818990464
 20
-40.4683561152
 10
-146.369268343
 20
-40.4825669781
 10
-146.3564115305
 20
-40.4967732167
 10
-146.3433267993
 20
-40.510969767
 10
-146.330022056
 20
-40.5251412032
 10
-146.3164956493
 20
-40.5392826472
 10
-146.3027462921
 20
-40.5533887391
 10
-146.2887831203
 20
-40.5674436403
 10
-146.2746048081
 20
-40.5814424505
 10
-146.2602105449
 20
-40.59537967
 10
-146.2456109602
 20
-40.6092389777
 10
-146.2308050954
 20
-40.6230155129
 10
-146.2157926163
 20
-40.6367037563
 10
-146.2005858541
 20
-40.6502869415
 10
-146.1851841802
 20
-40.6637603977
 10
-146.169587812
 20
-40.6771186506
 10
-146.1538111662
 20
-40.6903444239
 10
-146.137858927
 20
-40.7034293304
 10
-146.1217270155
 20
-40.7163722146
 10
-146.105417172
 20
-40.7291670568
 10
-146.0889406135
 20
-40.7418010297
 10
-146.0722888502
 20
-40.7542797764
 10
-146.0554336564
 20
-40.7666243437
 10
-146.0383765509
 20
-40.7788327297
 10
-146.0211207407
 20
-40.7909017597
 10
-146.0036392589
 20
-40.8028487388
 10
-145.985934284
 20
-40.8146699466
 10
-145.9680077476
 20
-40.8263618876
 10
-145.9498312553
 20
-40.8379401981
 10
-145.9314069098
 20
-40.8494000002
 10
-145.912736412
 20
-40.8607367319
 10
-145.8937898508
 20
-40.8719643762
 10
-145.8745696301
 20
-40.88307668
 10
-145.8550772009
 20
-40.8940680115
 10
-145.8352804515
 20
-40.9049509773
 10
-145.8151835269
 20
-40.9157171503
 10
-145.7947865913
 20
-40.9263603261
 10
-145.7740508841
 20
-40.9368937436
 10
-145.7529805101
 20
-40.9473075346
 10
-145.7315764813
 20
-40.9575934304
 10
-145.7097948325
 20
-40.9677638034
 10
-145.6876342193
 20
-40.9778094753
 10
-145.665102471
 20
-40.9877170783
 10
-145.6421692202
 20
-40.9974895174
 10
-145.618811939
 20
-41.0071246658
 10
-145.5950620733
 20
-41.0165977734
 10
-145.5709710635
 20
-41.025877975
 10
-145.5465338743
 20
-41.0349575186
 10
-145.5217686574
 20
-41.0438199082
 10
-145.4967630753
 20
-41.0524258311
 10
-145.4715220387
 20
-41.0607671612
 10
-145.44605747
 20
-41.068833448
 10
-145.4204685827
 20
-41.0765885902
 10
-145.3947638321
 20
-41.0840270939
 10
-145.3689539345
 20
-41.0911428296
 10
-145.3431417312
 20
-41.0979062379
 10
-145.3173353196
 20
-41.1043157444
 10
-145.29154636
 20
-41.1103688754
 10
-145.2658823174
 20
-41.1160427338
 10
-145.2403696697
 20
-41.1213359964
  0
LINE
  5
4DC
100
AcDbEntity
  8
SUPERFICI
100
AcDbLine
 62
7
  6
CONTINUOUS
 10
-146.6979956143
 20
-39.9965015344
 11
-146.6902111985
 21
-40.0122055163
  0
LINE
  5
4DD
100
AcDbEntity
  8
SUPERFICI
100
AcDbLine
 62
7
  6
CONTINUOUS
 10
-146.7053382516
 20
-39.9813651583
 11
-146.6979956143
 21
-39.9965015344
  0
LINE
  5
4DE
100
AcDbEntity
  8
SUPERFICI
100
AcDbLine
 62
7
  6
CONTINUOUS
 10
-146.712269869
 20
-39.9667698301
 11
-146.7053382516
 21
-39.9813651583
  0
LINE
  5
4DF
100
AcDbEntity
  8
SUPERFICI
100
AcDbLine
 62
7
  6
CONTINUOUS
 10
-146.7187969672
 20
-39.9527379829
 11
-146.712269869
 21
-39.9667698301
  0
LINE
  5
4E0
100
AcDbEntity
  8
SUPERFICI
100
AcDbLine
 62
7
  6
CONTINUOUS
 10
-146.7248912086
 20
-39.9393696582
 11
-146.7187969672
 21
-39.9527379829
  0
LWPOLYLINE
  5
4E1
100
AcDbEntity
  8
0
100
AcDbPolyline
 62
7
  6
CONTINUOUS
 90
6
 70
0
 43
0.3500000006
 10
-160.5031578369
 20
0.107141922
 10
-160.5031578369
 20
1.1785711441
 10
-160.7174423218
 20
1.3928578949
 10
-161.7888647461
 20
1.3928578949
 10
-162.2174518433
 20
0.9642866592
 10
-162.2174518433
 20
0.5357154236
  0
LWPOLYLINE
  5
4E2
100
AcDbEntity
  8
COPY_GEOM
100
AcDbPolyline
 62
7
  6
CONTINUOUS
 90
3
 70
0
 10
-146.8063638988
 20
39.6729262203
 10
-146.7540636038
 20
39.8388077725
 10
-146.6888927869
 20
39.9974877227
  0
LINE
  5
4E3
100
AcDbEntity
  8
ASSI
100
AcDbLine
 62
7
  6
CONTINUOUS
 10
-146.8119887096
 20
39.6656131387
 11
-146.7925526801
 21
39.716731449
  0
LWPOLYLINE
  5
4E4
100
AcDbEntity
  8
0
100
AcDbPolyline
 62
7
  6
CONTINUOUS
 90
10
 70
0
 43
0.3500000006
 10
-120.0019581299
 20
53.2500023346
 10
-120.6448115845
 20
52.6071443481
 10
-121.0733805542
 20
51.7500018768
 10
-121.0733805542
 20
50.6785703888
 10
-120.6448115845
 20
50.2500014191
 10
-120.0019581299
 20
50.2500014191
 10
-119.5733800964
 20
50.6785703888
 10
-119.5733800964
 20
51.5357128601
 10
-120.0019581299
 20
51.9642863617
 10
-120.9305272522
 20
51.9642863617
  0
LWPOLYLINE
  5
4E5
100
AcDbEntity
  8
SUPERFICI
100
AcDbPolyline
 62
7
  6
CONTINUOUS
 90
4
 70
0
 10
-146.93302034
 20
-41.0537907147
 10
-146.8617281255
 20
-41.0498617663
 10
-146.7880617033
 20
-41.0453409514
 10
-146.7120500543
 20
-41.0401526864
  0
LINE
  5
4E6
100
AcDbEntity
  8
SUPERFICI
100
AcDbLine
 62
7
  6
CONTINUOUS
 10
-148.0168360366
 20
-41.0951252096
 11
-147.9781406159
 21
-41.0931901699
  0
LINE
  5
4E7
100
AcDbEntity
  8
SUPERFICI
100
AcDbLine
 62
7
  6
CONTINUOUS
 10
-147.0683396182
 20
-41.0602561463
 11
-146.93302034
 21
-41.0537907147
  0
LINE
  5
4E8
100
AcDbEntity
  8
SUPERFICI
100
AcDbLine
 62
7
  6
CONTINUOUS
 10
-147.1950579785
 20
-41.0654246786
 11
-147.0683396182
 21
-41.0602561463
  0
LINE
  5
4E9
100
AcDbEntity
  8
SUPERFICI
100
AcDbLine
 62
7
  6
CONTINUOUS
 10
-147.9781406159
 20
-41.0931901699
 11
-147.7235892805
 21
-41.0830644366
  0
LWPOLYLINE
  5
4EA
100
AcDbEntity
  8
SUPERFICI
100
AcDbPolyline
 62
250
  6
CONTINUOUS
 90
12
 70
0
 10
-149.9259262797
 20
-39.8752170947
 10
-149.7138682582
 20
-39.8676177103
 10
-149.5033094994
 20
-39.8585426823
 10
-149.2892245031
 20
-39.8476443747
 10
-149.0670408413
 20
-39.8342164513
 10
-148.8317127287
 20
-39.8163365498
 10
-148.5795894363
 20
-39.7922951959
 10
-148.3088758734
 20
-39.7608925189
 10
-148.0238338956
 20
-39.7205760605
 10
-147.7351925853
 20
-39.6693660492
 10
-147.4520807696
 20
-39.6059942235
 10
-147.1816433658
 20
-39.5299011028
  0
LINE
  5
4EB
100
AcDbEntity
  8
SUPERFICI
100
AcDbLine
 62
7
  6
CONTINUOUS
 10
-147.3704622035
 20
-41.0715495432
 11
-147.1950579785
 21
-41.0654246786
  0
LWPOLYLINE
  5
4EC
100
AcDbEntity
  8
SUPERFICI
100
AcDbPolyline
 62
7
  6
CONTINUOUS
 90
3
 70
0
 10
-147.7235892805
 20
-41.0830644366
 10
-147.5303956689
 20
-41.076597542
 10
-147.3704622035
 20
-41.0715495432
  0
LINE
  5
4ED
100
AcDbEntity
  8
SUPERFICI
100
AcDbLine
 62
250
  6
CONTINUOUS
 10
-150.3705341321
 20
-39.8876610762
 11
-149.9259262797
 21
-39.8752170947
  0
LWPOLYLINE
  5
4EE
100
AcDbEntity
  8
SUPERFICI
100
AcDbPolyline
 62
7
  6
CONTINUOUS
 90
3
 70
0
 10
-148.1243253068
 20
-41.1010098017
 10
-148.0898304893
 20
-41.1002661769
 10
-148.0168360366
 20
-41.0951252096
  0
LINE
  5
4EF
100
AcDbEntity
  8
SCATOLA
100
AcDbLine
 62
7
  6
CONTINUOUS
 10
-87.7470409504
 20
-40.8730280476
 11
-123.6662385975
 21
-41.4999999747
  0
LINE
  5
4F0
100
AcDbEntity
  8
0
100
AcDbLine
 62
7
  6
CONTINUOUS
 10
-123.6662385975
 20
-41.4999999747
 11
-125.2662385975
 21
-41.4999999747
  0
LINE
  5
4F1
100
AcDbEntity
  8
RACCORDO
100
AcDbLine
 62
7
  6
CONTINUOUS
 10
-147.2162385975
 20
-41.0999999747
 11
-146.3103088199
 21
-41.0999999747
  0
LINE
  5
4F2
100
AcDbEntity
  8
SUPERFICI
100
AcDbLine
 62
7
  6
CONTINUOUS
 10
-144.7696368642
 20
-41.15956741
 11
-144.7695711557
 21
-41.1595680146
  0
LINE
  5
4F3
100
AcDbEntity
  8
SUPERFICI
100
AcDbLine
 62
7
  6
CONTINUOUS
 10
-150.7843625315
 20
-41.0545784884
 11
-148.1243252926
 21
-41.1010099019
  0
LINE
  5
4F4
100
AcDbEntity
  8
RACCORDO
100
AcDbLine
 62
7
  6
CONTINUOUS
 10
-125.2662385975
 20
-41.4999999747
 11
-135.7749648007
 21
-41.3165694765
  0
LINE
  5
4F5
100
AcDbEntity
  8
SUPERFICI
100
AcDbLine
 62
7
  6
CONTINUOUS
 10
-136.4662385975
 20
-41.3045030897
 11
-145.8434457141
 21
-41.1408229063
  0
LINE
  5
4F6
100
AcDbEntity
  8
SUPERFICI
100
AcDbLine
 62
7
  6
CONTINUOUS
 10
-144.7856902317
 20
-41.1591963618
 11
-144.7695711557
 21
-41.1595680146
  0
LINE
  5
4F7
100
AcDbEntity
  8
SUPERFICI
100
AcDbLine
 62
7
  6
CONTINUOUS
 10
-144.9382684224
 20
-41.1565580969
 11
-144.9309659788
 21
-41.15673674
  0
LINE
  5
4F8
100
AcDbEntity
  8
SUPERFICI
100
AcDbLine
 62
7
  6
CONTINUOUS
 10
-144.9445857934
 20
-41.1563747661
 11
-144.9382684224
 21
-41.1565580969
  0
LWPOLYLINE
  5
4F9
100
AcDbEntity
  8
SUPERFICI
100
AcDbPolyline
 62
250
  6
CONTINUOUS
 90
11
 70
0
 10
-148.6241914784
 20
-28.9890694965
 10
-148.6345231574
 20
-28.9764806605
 10
-148.6442843625
 20
-28.9741670286
 10
-148.6533555911
 20
-28.9780582217
 10
-148.6618322743
 20
-28.9864845439
 10
-148.6698027407
 20
-28.9978455742
 10
-148.6769887435
 20
-29.0102328303
 10
-148.6828040891
 20
-29.021468993
 10
-148.6867111633
 20
-29.0295110119
 10
-148.6887777941
 20
-29.0339879631
 10
-148.6893798062
 20
-29.0353699593
  0
LINE
  5
4FA
100
AcDbEntity
  8
SUPERFICI
100
AcDbLine
 62
7
  6
CONTINUOUS
 10
-146.7305373191
 20
-39.9267413537
 11
-146.7248912086
 21
-39.9393696582
  0
LINE
  5
4FB
100
AcDbEntity
  8
SUPERFICI
100
AcDbLine
 62
7
  6
CONTINUOUS
 10
-146.7357401819
 20
-39.9148864333
 11
-146.7305373191
 21
-39.9267413537
  0
LINE
  5
4FC
100
AcDbEntity
  8
SUPERFICI
100
AcDbLine
 62
7
  6
CONTINUOUS
 10
-146.7405060857
 20
-39.9038343465
 11
-146.7357401819
 21
-39.9148864333
  0
LINE
  5
4FD
100
AcDbEntity
  8
SUPERFICI
100
AcDbLine
 62
7
  6
CONTINUOUS
 10
-146.7448630521
 20
-39.8935616097
 11
-146.7405060857
 21
-39.9038343465
  0
LWPOLYLINE
  5
4FE
100
AcDbEntity
  8
SUPERFICI
100
AcDbPolyline
 62
250
  6
CONTINUOUS
 90
14
 70
0
 10
-146.6914057556
 20
-40.0236320284
 10
-146.6360854697
 20
-40.1560134079
 10
-146.5670486102
 20
-40.2924872786
 10
-146.4849151695
 20
-40.4287725785
 10
-146.3933461262
 20
-40.5573158138
 10
-146.2955779201
 20
-40.6736879266
 10
-146.1910868644
 20
-40.7784401789
 10
-146.0789506297
 20
-40.8723070287
 10
-145.9586573934
 20
-40.9556618509
 10
-145.8342304387
 20
-41.0255866531
 10
-145.7119663654
 20
-41.0794124974
 10
-145.5952446708
 20
-41.1172220187
 10
-145.4843652923
 20
-41.1402054403
 10
-145.3807785806
 20
-41.1488990059
  0
LINE
  5
4FF
100
AcDbEntity
  8
SUPERFICI
100
AcDbLine
 62
7
  6
CONTINUOUS
 10
-146.7488361234
 20
-39.8840470853
 11
-146.7448630521
 21
-39.8935616097
  0
LINE
  5
500
100
AcDbEntity
  8
SUPERFICI
100
AcDbLine
 62
7
  6
CONTINUOUS
 10
-146.7524588028
 20
-39.8752444993
 11
-146.7488361234
 21
-39.8840470853
  0
LINE
  5
501
100
AcDbEntity
  8
SUPERFICI
100
AcDbLine
 62
7
  6
CONTINUOUS
 10
-146.7557681312
 20
-39.8670933006
 11
-146.7524588028
 21
-39.8752444993
  0
LINE
  5
502
100
AcDbEntity
  8
SUPERFICI
100
AcDbLine
 62
7
  6
CONTINUOUS
 10
-146.7602067059
 20
-39.8559892148
 11
-146.7557681312
 21
-39.8670933006
  0
LINE
  5
503
100
AcDbEntity
  8
SUPERFICI
100
AcDbLine
 62
7
  6
CONTINUOUS
 10
-146.764107591
 20
-39.8460615354
 11
-146.7602067059
 21
-39.8559892148
  0
LINE
  5
504
100
AcDbEntity
  8
SUPERFICI
100
AcDbLine
 62
7
  6
CONTINUOUS
 10
-146.7675577298
 20
-39.8371441178
 11
-146.764107591
 21
-39.8460615354
  0
LINE
  5
505
100
AcDbEntity
  8
SUPERFICI
100
AcDbLine
 62
7
  6
CONTINUOUS
 10
-146.7706285724
 20
-39.8290950897
 11
-146.7675577298
 21
-39.8371441178
  0
LINE
  5
506
100
AcDbEntity
  8
SUPERFICI
100
AcDbLine
 62
7
  6
CONTINUOUS
 10
-146.7742515012
 20
-39.8194573678
 11
-146.7706285724
 21
-39.8290950897
  0
LINE
  5
507
100
AcDbEntity
  8
SUPERFICI
100
AcDbLine
 62
7
  6
CONTINUOUS
 10
-146.777475236
 20
-39.8107462192
 11
-146.7742515012
 21
-39.8194573678
  0
LINE
  5
508
100
AcDbEntity
  8
SUPERFICI
100
AcDbLine
 62
7
  6
CONTINUOUS
 10
-146.7803980865
 20
-39.8027320593
 11
-146.777475236
 21
-39.8107462192
  0
LINE
  5
509
100
AcDbEntity
  8
SUPERFICI
100
AcDbLine
 62
7
  6
CONTINUOUS
 10
-146.783731326
 20
-39.7934503155
 11
-146.7803980865
 21
-39.8027320593
  0
LINE
  5
50A
100
AcDbEntity
  8
SUPERFICI
100
AcDbLine
 62
7
  6
CONTINUOUS
 10
-146.7867987525
 20
-39.7847665308
 11
-146.783731326
 21
-39.7934503155
  0
LINE
  5
50B
100
AcDbEntity
  8
SUPERFICI
100
AcDbLine
 62
7
  6
CONTINUOUS
 10
-146.7896726152
 20
-39.776498707
 11
-146.7867987525
 21
-39.7847665308
  0
LINE
  5
50C
100
AcDbEntity
  8
SUPERFICI
100
AcDbLine
 62
7
  6
CONTINUOUS
 10
-146.7924046151
 20
-39.7685123438
 11
-146.7896726152
 21
-39.776498707
  0
LINE
  5
50D
100
AcDbEntity
  8
SUPERFICI
100
AcDbLine
 62
7
  6
CONTINUOUS
 10
-146.7950351728
 20
-39.7606973313
 11
-146.7924046151
 21
-39.7685123438
  0
LWPOLYLINE
  5
50E
100
AcDbEntity
  8
SUPERFICI
100
AcDbPolyline
 62
7
  6
CONTINUOUS
 90
14
 70
0
 10
-146.8102642017
 20
-39.7051416551
 10
-146.7648197113
 20
-39.8412884639
 10
-146.7043189689
 20
-39.9819767325
 10
-146.6285672158
 20
-40.1252335891
 10
-146.5366102362
 20
-40.2700244391
 10
-146.4290172927
 20
-40.412518256
 10
-146.3089957925
 20
-40.5466107211
 10
-146.1793898903
 20
-40.6684257358
 10
-146.039695981
 20
-40.7776465603
 10
-145.8892928999
 20
-40.8744111451
 10
-145.728362571
 20
-40.9589952439
 10
-145.5612138036
 20
-41.0294692843
 10
-145.3942269035
 20
-41.0841320155
 10
-145.231509906
 20
-41.1230537668
  0
LINE
  5
50F
100
AcDbEntity
  8
SUPERFICI
100
AcDbLine
 62
250
  6
CONTINUOUS
 10
-146.7087767894
 20
-39.9716105283
 11
-146.6914057556
 21
-40.0236320284
  0
LINE
  5
510
100
AcDbEntity
  8
SUPERFICI
100
AcDbLine
 62
7
  6
CONTINUOUS
 10
-146.797601896
 20
-39.7529444225
 11
-146.7950351728
 21
-39.7606973313
  0
LINE
  5
511
100
AcDbEntity
  8
SUPERFICI
100
AcDbLine
 62
7
  6
CONTINUOUS
 10
-146.8001431847
 20
-39.7451339908
 11
-146.797601896
 21
-39.7529444225
  0
LINE
  5
512
100
AcDbEntity
  8
SUPERFICI
100
AcDbLine
 62
7
  6
CONTINUOUS
 10
-146.8021898304
 20
-39.7387386123
 11
-146.8001431847
 21
-39.7451339908
  0
LINE
  5
513
100
AcDbEntity
  8
SUPERFICI
100
AcDbLine
 62
7
  6
CONTINUOUS
 10
-146.8042853838
 20
-39.7320851395
 11
-146.8021898304
 21
-39.7387386123
  0
LINE
  5
514
100
AcDbEntity
  8
SUPERFICI
100
AcDbLine
 62
7
  6
CONTINUOUS
 10
-146.8064599571
 20
-39.7250587934
 11
-146.8042853838
 21
-39.7320851395
  0
LINE
  5
515
100
AcDbEntity
  8
SUPERFICI
100
AcDbLine
 62
7
  6
CONTINUOUS
 10
-146.8075874214
 20
-39.7213632713
 11
-146.8064599571
 21
-39.7250587934
  0
LINE
  5
516
100
AcDbEntity
  8
SUPERFICI
100
AcDbLine
 62
7
  6
CONTINUOUS
 10
-147.6617487308
 20
36.3054829351
 11
-147.6838907643
 21
36.1836943531
  0
LINE
  5
517
100
AcDbEntity
  8
SUPERFICI
100
AcDbLine
 62
7
  6
CONTINUOUS
 10
-147.7399045744
 20
35.829664001
 11
-147.7694691822
 21
35.6666863933
  0
LINE
  5
518
100
AcDbEntity
  8
SUPERFICI
100
AcDbLine
 62
7
  6
CONTINUOUS
 10
-147.6887347406
 20
36.1355000914
 11
-147.7196756287
 21
35.9657208104
  0
LWPOLYLINE
  5
519
100
AcDbEntity
  8
SUPERFICI
100
AcDbPolyline
 62
7
  6
CONTINUOUS
 90
3
 70
0
 10
-147.7194886394
 20
35.9807875653
 10
-147.7200389685
 20
35.9778116115
 10
-147.7516071162
 20
35.803795366
  0
LWPOLYLINE
  5
51A
100
AcDbEntity
  8
ASSI
100
AcDbPolyline
 62
7
  6
CONTINUOUS
 90
16
 70
0
 10
-147.5015652191
 20
36.7208104828
 10
-147.4487737972
 20
37.006672613
 10
-147.4218455655
 20
37.1489993383
 10
-147.3942203013
 20
37.2910575558
 10
-147.3659642427
 20
37.4323883694
 10
-147.3370111517
 20
37.5734506751
 10
-147.3069070134
 20
37.7157118647
 10
-147.2756625582
 20
37.8591417257
 10
-147.2432670558
 20
38.0037704706
 10
-147.2092342996
 20
38.1511561277
 10
-147.1735406271
 20
38.3012755729
 10
-147.136209701
 20
38.4541519303
 10
-147.0968263033
 20
38.6114126012
 10
-147.0554225787
 20
38.773032974
 10
-147.0119663826
 20
38.9390376601
 10
-146.9659460629
 20
39.1111278961
  0
LINE
  5
51B
100
AcDbEntity
  8
SUPERFICI
100
AcDbLine
 62
7
  6
CONTINUOUS
 10
-147.7108998752
 20
35.985583607
 11
-147.7399045744
 21
35.829664001
  0
LINE
  5
51C
100
AcDbEntity
  8
SUPERFICI
100
AcDbLine
 62
7
  6
CONTINUOUS
 10
-147.6382248865
 20
36.4313533469
 11
-147.6617487308
 21
36.3054829351
  0
LINE
  5
51D
100
AcDbEntity
  8
SUPERFICI
100
AcDbLine
 62
7
  6
CONTINUOUS
 10
-147.656129812
 20
36.3089226205
 11
-147.6887347406
 21
36.1355000914
  0
LINE
  5
51E
100
AcDbEntity
  8
SUPERFICI
100
AcDbLine
 62
7
  6
CONTINUOUS
 10
-147.6775393369
 20
36.1604438894
 11
-147.7108998752
 21
35.985583607
  0
LINE
  5
51F
100
AcDbEntity
  8
SUPERFICI
100
AcDbLine
 62
7
  6
CONTINUOUS
 10
-147.6743727367
 20
36.1768313624
 11
-147.6775393369
 21
36.1604438894
  0
LINE
  5
520
100
AcDbEntity
  8
SUPERFICI
100
AcDbLine
 62
7
  6
CONTINUOUS
 10
-147.6133028165
 20
36.560925615
 11
-147.6382248865
 21
36.4313533469
  0
LINE
  5
521
100
AcDbEntity
  8
SUPERFICI
100
AcDbLine
 62
7
  6
CONTINUOUS
 10
-147.6219714421
 20
36.4848774718
 11
-147.656129812
 21
36.3089226205
  0
LINE
  5
522
100
AcDbEntity
  8
SUPERFICI
100
AcDbLine
 62
7
  6
CONTINUOUS
 10
-147.5868885167
 20
36.6942147668
 11
-147.6133028165
 21
36.560925615
  0
LINE
  5
523
100
AcDbEntity
  8
SUPERFICI
100
AcDbLine
 62
7
  6
CONTINUOUS
 10
-147.5864616688
 20
36.6619100475
 11
-147.6219714421
 21
36.4848774718
  0
LINE
  5
524
100
AcDbEntity
  8
SUPERFICI
100
AcDbLine
 62
7
  6
CONTINUOUS
 10
-147.5588642824
 20
36.8313260135
 11
-147.5868885167
 21
36.6942147668
  0
LINE
  5
525
100
AcDbEntity
  8
SUPERFICI
100
AcDbLine
 62
7
  6
CONTINUOUS
 10
-147.5499060134
 20
36.8382464228
 11
-147.5864616688
 21
36.6619100475
  0
LINE
  5
526
100
AcDbEntity
  8
SUPERFICI
100
AcDbLine
 62
7
  6
CONTINUOUS
 10
-147.5293736712
 20
36.9712577522
 11
-147.5588642824
 21
36.8313260135
  0
LINE
  5
527
100
AcDbEntity
  8
SUPERFICI
100
AcDbLine
 62
7
  6
CONTINUOUS
 10
-147.512769611
 20
37.0117233021
 11
-147.5499060134
 21
36.8382464228
  0
LINE
  5
528
100
AcDbEntity
  8
SUPERFICI
100
AcDbLine
 62
7
  6
CONTINUOUS
 10
-147.4987427601
 20
37.1124056324
 11
-147.5293736712
 21
36.9712577522
  0
LINE
  5
529
100
AcDbEntity
  8
SUPERFICI
100
AcDbLine
 62
7
  6
CONTINUOUS
 10
-147.4754352173
 20
37.1809114595
 11
-147.512769611
 21
37.0117233021
  0
LINE
  5
52A
100
AcDbEntity
  8
SUPERFICI
100
AcDbLine
 62
7
  6
CONTINUOUS
 10
-147.4671811649
 20
37.2538611055
 11
-147.4987427601
 21
37.1124056324
  0
LINE
  5
52B
100
AcDbEntity
  8
SUPERFICI
100
AcDbLine
 62
7
  6
CONTINUOUS
 10
-147.4382000667
 20
37.3449094608
 11
-147.4754352173
 21
37.1809114595
  0
LINE
  5
52C
100
AcDbEntity
  8
SUPERFICI
100
AcDbLine
 62
7
  6
CONTINUOUS
 10
-147.4349198221
 20
37.3947163112
 11
-147.4671811649
 21
37.2538611055
  0
LINE
  5
52D
100
AcDbEntity
  8
SUPERFICI
100
AcDbLine
 62
7
  6
CONTINUOUS
 10
-147.4013880596
 20
37.5027857231
 11
-147.4382000667
 21
37.3449094608
  0
LINE
  5
52E
100
AcDbEntity
  8
SUPERFICI
100
AcDbLine
 62
7
  6
CONTINUOUS
 10
-147.4022427583
 20
37.533923808
 11
-147.4349198221
 21
37.3947163112
  0
LINE
  5
52F
100
AcDbEntity
  8
SUPERFICI
100
AcDbLine
 62
7
  6
CONTINUOUS
 10
-147.3653568465
 20
37.6535440958
 11
-147.4013880596
 21
37.5027857231
  0
LINE
  5
530
100
AcDbEntity
  8
SUPERFICI
100
AcDbLine
 62
7
  6
CONTINUOUS
 10
-147.3695379724
 20
37.670095802
 11
-147.4022427583
 21
37.533923808
  0
LWPOLYLINE
  5
531
100
AcDbEntity
  8
COPY_GEOM
100
AcDbPolyline
 62
7
  6
CONTINUOUS
 90
12
 70
0
 10
-146.9351287003
 20
39.1778869418
 10
-147.0567241621
 20
38.6812017146
 10
-147.1711502842
 20
38.1828705387
 10
-147.2786568066
 20
37.6811881841
 10
-147.3789939892
 20
37.1778598808
 10
-147.4714126119
 20
36.6780013187
 10
-147.5555091189
 20
36.1819083153
 10
-147.6316870661
 20
35.689285053
 10
-147.7004079
 20
35.2043597691
 10
-147.7618254364
 20
34.7285418761
 10
-147.8157858597
 20
34.2604219615
 10
-147.8622891697
 20
33.8000000253
  0
LINE
  5
532
100
AcDbEntity
  8
SUPERFICI
100
AcDbLine
 62
7
  6
CONTINUOUS
 10
-147.330490762
 20
37.7961487695
 11
-147.3653568465
 21
37.6535440958
  0
LINE
  5
533
100
AcDbEntity
  8
SUPERFICI
100
AcDbLine
 62
7
  6
CONTINUOUS
 10
-147.3373390056
 20
37.8013622637
 11
-147.3695379724
 21
37.670095802
  0
LINE
  5
534
100
AcDbEntity
  8
SUPERFICI
100
AcDbLine
 62
7
  6
CONTINUOUS
 10
-147.2971454953
 20
37.9297345247
 11
-147.330490762
 21
37.7961487695
  0
LINE
  5
535
100
AcDbEntity
  8
SUPERFICI
100
AcDbLine
 62
7
  6
CONTINUOUS
 10
-147.2963528358
 20
37.9648165988
 11
-147.3373390056
 21
37.8013622637
  0
LINE
  5
536
100
AcDbEntity
  8
SUPERFICI
100
AcDbLine
 62
7
  6
CONTINUOUS
 10
-147.2553671026
 20
38.0935327202
 11
-147.2971454953
 21
37.9297345247
  0
LINE
  5
537
100
AcDbEntity
  8
SUPERFICI
100
AcDbLine
 62
7
  6
CONTINUOUS
 10
-147.2589238203
 20
38.1108737697
 11
-147.2963528358
 21
37.9648165988
  0
LINE
  5
538
100
AcDbEntity
  8
COPY_GEOM
100
AcDbLine
 62
7
  6
CONTINUOUS
 10
-146.8063638988
 20
39.6729262203
 11
-146.9351287003
 21
39.1778869418
  0
LINE
  5
539
100
AcDbEntity
  8
SUPERFICI
100
AcDbLine
 62
7
  6
CONTINUOUS
 10
-147.2168610808
 20
38.2412566049
 11
-147.2553671026
 21
38.0935327202
  0
LINE
  5
53A
100
AcDbEntity
  8
SUPERFICI
100
AcDbLine
 62
7
  6
CONTINUOUS
 10
-147.2165195127
 20
38.2730300322
 11
-147.2589238203
 21
38.1108737697
  0
LINE
  5
53B
100
AcDbEntity
  8
SUPERFICI
100
AcDbLine
 62
7
  6
CONTINUOUS
 10
-147.1734036269
 20
38.4045631944
 11
-147.2168610808
 21
38.2412566049
  0
LINE
  5
53C
100
AcDbEntity
  8
SUPERFICI
100
AcDbLine
 62
7
  6
CONTINUOUS
 10
-147.1777449971
 20
38.4184646539
 11
-147.2165195127
 21
38.2730300322
  0
LINE
  5
53D
100
AcDbEntity
  8
ASSI
100
AcDbLine
 62
7
  6
CONTINUOUS
 10
-146.9659460629
 20
39.1111278961
 11
-146.9171910688
 21
39.2898707605
  0
LWPOLYLINE
  5
53E
100
AcDbEntity
  8
COPY_GEOM
100
AcDbPolyline
 62
250
  6
CONTINUOUS
 90
13
 70
0
 10
-146.6838748432
 20
39.5797642875
 10
-146.6249195269
 20
39.7953503883
 10
-146.5423136111
 20
40.0029991147
 10
-146.4370889645
 20
40.2001166298
 10
-146.3105599971
 20
40.3842406471
 10
-146.1643072413
 20
40.5530711877
 10
-146.0001576082
 20
40.7044993108
 10
-145.8201615672
 20
40.8366334572
 10
-145.6265675326
 20
40.9478230778
 10
-145.4217937776
 20
41.0366792513
 10
-145.2083982265
 20
41.1020920339
 10
-144.9890465022
 20
41.1432443241
 10
-144.7664786294
 20
41.1596220694
  0
LINE
  5
53F
100
AcDbEntity
  8
SUPERFICI
100
AcDbLine
 62
7
  6
CONTINUOUS
 10
-147.1351080774
 20
38.5754002195
 11
-147.1777449971
 21
38.4184646539
  0
LINE
  5
540
100
AcDbEntity
  8
SUPERFICI
100
AcDbLine
 62
7
  6
CONTINUOUS
 10
-147.1277059868
 20
38.5727610692
 11
-147.1734036269
 21
38.4045631944
  0
LINE
  5
541
100
AcDbEntity
  8
SUPERFICI
100
AcDbLine
 62
7
  6
CONTINUOUS
 10
-147.095570788
 20
38.7182711298
 11
-147.1351080774
 21
38.5754002195
  0
LINE
  5
542
100
AcDbEntity
  8
SUPERFICI
100
AcDbLine
 62
7
  6
CONTINUOUS
 10
-147.0820530454
 20
38.7376048784
 11
-147.1277059868
 21
38.5727610692
  0
LINE
  5
543
100
AcDbEntity
  8
ASSI
100
AcDbLine
 62
7
  6
CONTINUOUS
 10
-146.9171910688
 20
39.2898707605
 11
-146.8119887096
 21
39.6656131387
  0
LINE
  5
544
100
AcDbEntity
  8
SUPERFICI
100
AcDbLine
 62
7
  6
CONTINUOUS
 10
-147.0521619409
 20
38.872366491
 11
-147.095570788
 21
38.7182711298
  0
LINE
  5
545
100
AcDbEntity
  8
SUPERFICI
100
AcDbLine
 62
7
  6
CONTINUOUS
 10
-147.0276837554
 20
38.930410962
 11
-147.0820530454
 21
38.7376048784
  0
LINE
  5
546
100
AcDbEntity
  8
SUPERFICI
100
AcDbLine
 62
7
  6
CONTINUOUS
 10
-146.9755857994
 20
39.1122694023
 11
-147.0276837554
 21
38.930410962
  0
LINE
  5
547
100
AcDbEntity
  8
SUPERFICI
100
AcDbLine
 62
7
  6
CONTINUOUS
 10
-147.0052894162
 20
39.0357458587
 11
-147.0521619409
 21
38.872366491
  0
LINE
  5
548
100
AcDbEntity
  8
SUPERFICI
100
AcDbLine
 62
7
  6
CONTINUOUS
 10
-146.9771479502
 20
39.1324531273
 11
-147.0052894162
 21
39.0357458587
  0
LWPOLYLINE
  5
549
100
AcDbEntity
  8
0
100
AcDbPolyline
 62
7
  6
CONTINUOUS
 90
10
 70
0
 43
0.3500000006
 10
-117.6448106689
 20
53.2500023346
 10
-118.2876731873
 20
52.6071443481
 10
-118.716242157
 20
51.7500018768
 10
-118.716242157
 20
50.6785703888
 10
-118.2876731873
 20
50.2500014191
 10
-117.6448106689
 20
50.2500014191
 10
-117.2162416992
 20
50.6785703888
 10
-117.2162416992
 20
51.5357128601
 10
-117.6448106689
 20
51.9642863617
 10
-118.5733797913
 20
51.9642863617
  0
LWPOLYLINE
  5
54A
100
AcDbEntity
  8
SUPERFICI
100
AcDbPolyline
 62
250
  6
CONTINUOUS
 90
10
 70
0
 10
-148.4662389577
 20
22.2000100254
 10
-148.4669019913
 20
22.1994822061
 10
-148.4689041542
 20
22.1991308699
 10
-148.4722638137
 20
22.1989560167
 10
-148.4770061351
 20
22.1990293344
 10
-148.4831447276
 20
22.1992791351
 10
-148.4906630889
 20
22.1994903559
 10
-148.4995490694
 20
22.1995820156
 10
-148.5098095542
 20
22.1996350953
 10
-149.2621836296
 20
22.2000273429
  0
LINE
  5
54B
100
AcDbEntity
  8
SCATOLA
100
AcDbLine
 62
7
  6
CONTINUOUS
 10
-86.1662385975
 20
-35.9999999747
 11
-86.6662385975
 21
-35.9999999747
  0
LINE
  5
54C
100
AcDbEntity
  8
SCATOLA
100
AcDbLine
 62
250
  6
CONTINUOUS
 10
-86.6662416569
 20
-35.4999999747
 11
-123.6662385975
 21
-35.4999999747
  0
LINE
  5
54D
100
AcDbEntity
  8
0
100
AcDbLine
 62
250
  6
CONTINUOUS
 10
-123.6662385975
 20
-35.4999999747
 11
-125.2662385975
 21
-35.4999999747
  0
LINE
  5
54E
100
AcDbEntity
  8
RACCORDO
100
AcDbLine
 62
250
  6
CONTINUOUS
 10
-125.2662385975
 20
-35.4999999747
 11
-136.2662385975
 21
-35.4999999747
  0
LINE
  5
54F
100
AcDbEntity
  8
SUPERFICI
100
AcDbLine
 62
250
  6
CONTINUOUS
 10
-146.6291032633
 20
-35.499824024
 11
-136.4662385975
 21
-35.4999991745
  0
LWPOLYLINE
  5
550
100
AcDbEntity
  8
0
100
AcDbPolyline
 62
7
  6
CONTINUOUS
 90
5
 70
0
 43
0.3500000006
 10
-162.2174518433
 20
0.9642866592
 10
-162.4317363281
 20
1.321428978
 10
-163.0745897827
 20
1.321428978
 10
-163.5031587524
 20
0.9642866592
 10
-163.5031587524
 20
0.107141922
  0
LWPOLYLINE
  5
551
100
AcDbEntity
  8
SUPERFICI
100
AcDbPolyline
 62
250
  6
CONTINUOUS
 90
16
 70
0
 10
-146.6350106157
 20
-38.3772930301
 10
-146.6018183455
 20
-38.4798788944
 10
-146.5515248457
 20
-38.5888976645
 10
-146.4834941855
 20
-38.7025882248
 10
-146.3961183626
 20
-38.8201435839
 10
-146.2896068364
 20
-38.9377733154
 10
-146.1677714898
 20
-39.0491224794
 10
-146.0343155251
 20
-39.150104938
 10
-145.8883788119
 20
-39.2406148796
 10
-145.7287252811
 20
-39.3210683771
 10
-145.5553954221
 20
-39.3918364805
 10
-145.3743719668
 20
-39.4508407539
 10
-145.1945122524
 20
-39.4962986974
 10
-145.0211417898
 20
-39.5283913871
 10
-144.8557243896
 20
-39.5480582795
 10
-144.701118575
 20
-39.5557490512
  0
LINE
  5
552
100
AcDbEntity
  8
SUPERFICI
100
AcDbLine
 62
7
  6
CONTINUOUS
 10
-146.8093612541
 20
-39.7154712241
 11
-146.8075874214
 21
-39.7213632713
  0
LINE
  5
553
100
AcDbEntity
  8
SUPERFICI
100
AcDbLine
 62
7
  6
CONTINUOUS
 10
-146.811300073
 20
-39.7089142843
 11
-146.8093612541
 21
-39.7154712241
  0
LINE
  5
554
100
AcDbEntity
  8
SUPERFICI
100
AcDbLine
 62
7
  6
CONTINUOUS
 10
-146.8127895724
 20
-39.7037873329
 11
-146.811300073
 21
-39.7089142843
  0
LINE
  5
555
100
AcDbEntity
  8
SUPERFICI
100
AcDbLine
 62
7
  6
CONTINUOUS
 10
-146.8145874392
 20
-39.6974866244
 11
-146.8127895724
 21
-39.7037873329
  0
LINE
  5
556
100
AcDbEntity
  8
SUPERFICI
100
AcDbLine
 62
7
  6
CONTINUOUS
 10
-146.8564045764
 20
-39.5479534107
 11
-146.8148326371
 21
-39.6968315834
  0
LWPOLYLINE
  5
557
100
AcDbEntity
  8
SUPERFICI
100
AcDbPolyline
 62
250
  6
CONTINUOUS
 90
15
 70
0
 10
-146.6892679256
 20
-39.5834589852
 10
-146.6519445141
 20
-39.7230312596
 10
-146.5981046975
 20
-39.8704422746
 10
-146.5272433752
 20
-40.0233706369
 10
-146.4379123155
 20
-40.180734331
 10
-146.3304710326
 20
-40.3376233088
 10
-146.2086996618
 20
-40.4858792037
 10
-146.0761754431
 20
-40.6202746925
 10
-145.9320911537
 20
-40.7406770647
 10
-145.7752626159
 20
-40.8476195208
 10
-145.6056957514
 20
-40.9415758691
 10
-145.4289843731
 20
-41.0198907784
 10
-145.2533796603
 20
-41.0802933177
 10
-145.0838295818
 20
-41.1230138279
 10
-144.9216884584
 20
-41.1492483337
  0
LWPOLYLINE
  5
558
100
AcDbEntity
  8
SUPERFICI
100
AcDbPolyline
 62
250
  6
CONTINUOUS
 90
10
 70
0
 10
-146.8989837628
 20
-40.020893371
 10
-146.8635260423
 20
-40.1573369653
 10
-146.8200411529
 20
-40.2950112027
 10
-146.7699378919
 20
-40.427246372
 10
-146.7145548717
 20
-40.5498272867
 10
-146.6535504811
 20
-40.662710505
 10
-146.5862017706
 20
-40.7655409671
 10
-146.5124475211
 20
-40.857969283
 10
-146.4342423523
 20
-40.9382400544
 10
-146.3542405272
 20
-41.0048183716
  0
LWPOLYLINE
  5
559
100
AcDbEntity
  8
SUPERFICI
100
AcDbPolyline
 62
250
  6
CONTINUOUS
 90
3
 70
0
 10
-147.1811766665
 20
-39.5316901769
 10
-147.4305535253
 20
-38.4829679728
 10
-147.636503399
 20
-37.5035094838
  0
LWPOLYLINE
  5
55A
100
AcDbEntity
  8
SUPERFICI
100
AcDbPolyline
 62
7
  6
CONTINUOUS
 90
4
 70
0
 10
-147.5795464532
 20
-36.5601084493
 10
-147.3772736284
 20
-37.4934556006
 10
-147.1367134732
 20
-38.4925348266
 10
-146.8564045764
 20
-39.5479534107
  0
LINE
  5
55B
100
AcDbEntity
  8
SUPERFICI
100
AcDbLine
 62
250
  6
CONTINUOUS
 10
-146.9264081951
 20
-39.8894637047
 11
-146.8989837628
 21
-40.020893371
  0
LWPOLYLINE
  5
55C
100
AcDbEntity
  8
SUPERFICI
100
AcDbPolyline
 62
250
  6
CONTINUOUS
 90
4
 70
0
 10
-147.636503399
 20
-37.5035094838
 10
-147.8073068123
 20
-36.605601943
 10
-147.9542206957
 20
-35.7531012282
 10
-148.0884409002
 20
-34.8968139231
  0
LINE
  5
55D
100
AcDbEntity
  8
SUPERFICI
100
AcDbLine
 62
250
  6
CONTINUOUS
 10
-146.9595006694
 20
-39.6450671214
 11
-146.9464802178
 21
-39.7636285174
  0
LWPOLYLINE
  5
55E
100
AcDbEntity
  8
SUPERFICI
100
AcDbPolyline
 62
7
  6
CONTINUOUS
 90
4
 70
0
 10
-148.2889972116
 20
-31.7839433857
 10
-148.2160631678
 20
-32.506595697
 10
-148.1274332908
 20
-33.2561302419
 10
-148.0217170059
 20
-34.0327710236
  0
LWPOLYLINE
  5
55F
100
AcDbEntity
  8
SUPERFICI
100
AcDbPolyline
 62
250
  6
CONTINUOUS
 90
5
 70
0
 10
-148.5830159226
 20
-29.2510100626
 10
-148.5926841651
 20
-29.1459122287
 10
-148.6029996246
 20
-29.0688832533
 10
-148.6135855686
 20
-29.0179618605
 10
-148.6241914784
 20
-28.9890694965
  0
LINE
  5
560
100
AcDbEntity
  8
SUPERFICI
100
AcDbLine
 62
7
  6
CONTINUOUS
 10
-148.3474869863
 20
-31.0888745431
 11
-148.2889972116
 21
-31.7839433857
  0
LINE
  5
561
100
AcDbEntity
  8
SUPERFICI
100
AcDbLine
 62
250
  6
CONTINUOUS
 10
-148.4430486972
 20
-31.8664576562
 11
-148.4715908006
 21
-31.4677619481
  0
LWPOLYLINE
  5
562
100
AcDbEntity
  8
SUPERFICI
100
AcDbPolyline
 62
250
  6
CONTINUOUS
 90
5
 70
0
 10
-148.4715908006
 20
-31.4677619481
 10
-148.499491216
 20
-31.032946233
 10
-148.5203300066
 20
-30.6599370472
 10
-148.5350776443
 20
-30.3538980205
 10
-148.5453879765
 20
-30.1039161281
  0
LINE
  5
563
100
AcDbEntity
  8
RACCORDO
100
AcDbLine
 62
7
  6
CONTINUOUS
 10
-150.2662385975
 20
-23.0000001222
 11
-150.2662385975
 21
23.0000006876
  0
LINE
  5
564
100
AcDbEntity
  8
SUPERFICI
100
AcDbLine
 62
7
  6
CONTINUOUS
 10
-148.4198965362
 20
30.0155200621
 11
-148.4279112008
 21
29.8787450564
  0
LINE
  5
565
100
AcDbEntity
  8
SUPERFICI
100
AcDbLine
 62
7
  6
CONTINUOUS
 10
-148.4123746897
 20
30.0637039041
 11
-148.4211762982
 21
29.9136112189
  0
LINE
  5
566
100
AcDbEntity
  8
SUPERFICI
100
AcDbLine
 62
7
  6
CONTINUOUS
 10
-148.4104511873
 20
30.1648994519
 11
-148.4198965362
 21
30.0155200621
  0
LINE
  5
567
100
AcDbEntity
  8
SUPERFICI
100
AcDbLine
 62
7
  6
CONTINUOUS
 10
-148.4024053464
 20
30.2213994277
 11
-148.4123746897
 21
30.0637039041
  0
LINE
  5
568
100
AcDbEntity
  8
SUPERFICI
100
AcDbLine
 62
7
  6
CONTINUOUS
 10
-148.3617551394
 20
30.8042752397
 11
-148.3753416884
 21
30.6022125593
  0
LINE
  5
569
100
AcDbEntity
  8
SUPERFICI
100
AcDbLine
 62
7
  6
CONTINUOUS
 10
-148.4008072241
 20
30.307025583
 11
-148.4104511873
 21
30.1648994519
  0
LINE
  5
56A
100
AcDbEntity
  8
SUPERFICI
100
AcDbLine
 62
7
  6
CONTINUOUS
 10
-148.3913648224
 20
30.3839581097
 11
-148.4024053464
 21
30.2213994277
  0
LINE
  5
56B
100
AcDbEntity
  8
SUPERFICI
100
AcDbLine
 62
7
  6
CONTINUOUS
 10
-148.34555009
 20
31.0297821286
 11
-148.3617551394
 21
30.8042752397
  0
LINE
  5
56C
100
AcDbEntity
  8
SUPERFICI
100
AcDbLine
 62
7
  6
CONTINUOUS
 10
-148.3898612961
 20
30.4581950388
 11
-148.4008072241
 21
30.307025583
  0
LINE
  5
56D
100
AcDbEntity
  8
SUPERFICI
100
AcDbLine
 62
7
  6
CONTINUOUS
 10
-148.379299986
 20
30.5499854615
 11
-148.3913648224
 21
30.3839581097
  0
LINE
  5
56E
100
AcDbEntity
  8
SUPERFICI
100
AcDbLine
 62
7
  6
CONTINUOUS
 10
-148.3293180901
 20
31.2418279869
 11
-148.34555009
 21
31.0297821286
  0
LINE
  5
56F
100
AcDbEntity
  8
SUPERFICI
100
AcDbLine
 62
7
  6
CONTINUOUS
 10
-148.3777328012
 20
30.615520344
 11
-148.3898612961
 21
30.4581950388
  0
LINE
  5
570
100
AcDbEntity
  8
SUPERFICI
100
AcDbLine
 62
7
  6
CONTINUOUS
 10
-148.3671458285
 20
30.7072741828
 11
-148.379299986
 21
30.5499854615
  0
LINE
  5
571
100
AcDbEntity
  8
SUPERFICI
100
AcDbLine
 62
7
  6
CONTINUOUS
 10
-148.3098221937
 20
31.4814138738
 11
-148.3293180901
 21
31.2418279869
  0
LINE
  5
572
100
AcDbEntity
  8
SUPERFICI
100
AcDbLine
 62
7
  6
CONTINUOUS
 10
-148.3643781775
 20
30.7786928639
 11
-148.3777328012
 21
30.615520344
  0
LINE
  5
573
100
AcDbEntity
  8
SUPERFICI
100
AcDbLine
 62
7
  6
CONTINUOUS
 10
-148.3538628019
 20
30.869740747
 11
-148.3671458285
 21
30.7072741828
  0
LINE
  5
574
100
AcDbEntity
  8
SUPERFICI
100
AcDbLine
 62
7
  6
CONTINUOUS
 10
-148.3596799668
 20
30.833947774
 11
-148.3643781775
 21
30.7786928639
  0
LINE
  5
575
100
AcDbEntity
  8
SUPERFICI
100
AcDbLine
 62
7
  6
CONTINUOUS
 10
-148.2902668639
 20
31.707911344
 11
-148.3098221937
 21
31.4814138738
  0
LINE
  5
576
100
AcDbEntity
  8
SUPERFICI
100
AcDbLine
 62
7
  6
CONTINUOUS
 10
-148.3394144253
 20
31.0371328699
 11
-148.3538628019
 21
30.869740747
  0
LWPOLYLINE
  5
577
100
AcDbEntity
  8
DRAFT
100
AcDbPolyline
 62
7
  6
CONTINUOUS
 90
3
 70
0
 10
-147.9473413608
 20
33.5399162783
 10
-147.9355452685
 20
33.668946808
 10
-147.9227161095
 20
33.8000000253
  0
LINE
  5
578
100
AcDbEntity
  8
SUPERFICI
100
AcDbLine
 62
7
  6
CONTINUOUS
 10
-148.2705666333
 20
31.9242909464
 11
-148.2902668639
 21
31.707911344
  0
LINE
  5
579
100
AcDbEntity
  8
SUPERFICI
100
AcDbLine
 62
7
  6
CONTINUOUS
 10
-148.3237137143
 20
31.209790412
 11
-148.3394144253
 21
31.0371328699
  0
LWPOLYLINE
  5
57A
100
AcDbEntity
  8
COPY_GEOM
100
AcDbPolyline
 62
7
  6
CONTINUOUS
 90
22
 70
0
 10
-147.8622891697
 20
33.8000000253
 10
-147.8795091808
 20
33.6151367404
 10
-147.894761732
 20
33.4325672384
 10
-147.9080468234
 20
33.2532457765
 10
-147.9193806234
 20
33.0785845191
 10
-147.9287469636
 20
32.9088974393
 10
-147.9360973383
 20
32.7435207944
 10
-147.9414462092
 20
32.5832032201
 10
-147.9447791147
 20
32.4289443951
 10
-147.9460041641
 20
32.2806670749
 10
-147.945108341
 20
32.1391465251
 10
-147.9421046618
 20
32.0055621096
 10
-147.9369402851
 20
31.8806223403
 10
-147.9295459671
 20
31.7651179513
 10
-147.9199909516
 20
31.6602901973
 10
-147.9084301285
 20
31.5674183847
 10
-147.8947838108
 20
31.4872667911
 10
-147.8791316856
 20
31.4205617438
 10
-147.8618677034
 20
31.3681315164
 10
-147.843123181
 20
31.3304110342
 10
-147.8227668015
 20
31.3076277854
 10
-147.800798565
 20
31.3000000253
  0
LINE
  5
57B
100
AcDbEntity
  8
SUPERFICI
100
AcDbLine
 62
7
  6
CONTINUOUS
 10
-148.2506006893
 20
32.1332338218
 11
-148.2705666333
 21
31.9242909464
  0
LINE
  5
57C
100
AcDbEntity
  8
SUPERFICI
100
AcDbLine
 62
7
  6
CONTINUOUS
 10
-148.3077094937
 20
31.3774034185
 11
-148.3237137143
 21
31.209790412
  0
LINE
  5
57D
100
AcDbEntity
  8
0
100
AcDbLine
 62
7
  6
CONTINUOUS
 10
-148.2586591091
 20
32.197564816
 11
-148.2784479869
 21
32.0000320253
  0
LINE
  5
57E
100
AcDbEntity
  8
SUPERFICI
100
AcDbLine
 62
7
  6
CONTINUOUS
 10
-148.290259705
 20
31.5519518018
 11
-148.3077094937
 21
31.3774034185
  0
LINE
  5
57F
100
AcDbEntity
  8
SUPERFICI
100
AcDbLine
 62
7
  6
CONTINUOUS
 10
-148.2267711258
 20
32.3708467754
 11
-148.2506006893
 21
32.1332338218
  0
LINE
  5
580
100
AcDbEntity
  8
ASSI
100
AcDbLine
 62
7
  6
CONTINUOUS
 10
-147.9227161095
 20
33.8000000253
 11
-147.9069922615
 21
33.9506627765
  0
LINE
  5
581
100
AcDbEntity
  8
0
100
AcDbLine
 62
7
  6
CONTINUOUS
 10
-148.2380622385
 20
32.394207594
 11
-148.2586591091
 21
32.197564816
  0
LINE
  5
582
100
AcDbEntity
  8
SUPERFICI
100
AcDbLine
 62
7
  6
CONTINUOUS
 10
-148.2712836385
 20
31.7334895977
 11
-148.290259705
 21
31.5519518018
  0
LINE
  5
583
100
AcDbEntity
  8
SUPERFICI
100
AcDbLine
 62
7
  6
CONTINUOUS
 10
-148.2020971416
 20
32.6052106697
 11
-148.2267711258
 21
32.3708467754
  0
LINE
  5
584
100
AcDbEntity
  8
ASSI
100
AcDbLine
 62
7
  6
CONTINUOUS
 10
-147.9069922615
 20
33.9506627765
 11
-147.8905920451
 21
34.1008555993
  0
LINE
  5
585
100
AcDbEntity
  8
SUPERFICI
100
AcDbLine
 62
7
  6
CONTINUOUS
 10
-148.2507335865
 20
31.9218049946
 11
-148.2712836385
 21
31.7334895977
  0
LINE
  5
586
100
AcDbEntity
  8
SUPERFICI
100
AcDbLine
 62
7
  6
CONTINUOUS
 10
-148.1763811487
 20
32.8385189825
 11
-148.2020971416
 21
32.6052106697
  0
LWPOLYLINE
  5
587
100
AcDbEntity
  8
ASSI
100
AcDbPolyline
 62
7
  6
CONTINUOUS
 90
9
 70
0
 10
-147.8905920451
 20
34.1008555993
 10
-147.8735154601
 20
34.2505784936
 10
-147.8557766019
 20
34.3998779345
 10
-147.8373613751
 20
34.5487074469
 10
-147.8182274943
 20
34.696927606
 10
-147.7983356177
 20
34.8445280615
 10
-147.7777250871
 20
34.9915191637
 10
-147.7564716428
 20
35.1377925385
 10
-147.7344121682
 20
35.2832111628
  0
LINE
  5
588
100
AcDbEntity
  8
SUPERFICI
100
AcDbLine
 62
7
  6
CONTINUOUS
 10
-148.2288225861
 20
32.1145409897
 11
-148.2507335865
 21
31.9218049946
  0
LINE
  5
589
100
AcDbEntity
  8
SUPERFICI
100
AcDbLine
 62
7
  6
CONTINUOUS
 10
-148.149993539
 20
33.0677681925
 11
-148.1763811487
 21
32.8385189825
  0
LINE
  5
58A
100
AcDbEntity
  8
SUPERFICI
100
AcDbLine
 62
7
  6
CONTINUOUS
 10
-148.2039097744
 20
32.3252473381
 11
-148.2288225861
 21
32.1145409897
  0
LINE
  5
58B
100
AcDbEntity
  8
SUPERFICI
100
AcDbLine
 62
7
  6
CONTINUOUS
 10
-148.1231401582
 20
33.2917783047
 11
-148.149993539
 21
33.0677681925
  0
LINE
  5
58C
100
AcDbEntity
  8
SUPERFICI
100
AcDbLine
 62
7
  6
CONTINUOUS
 10
-148.1872360807
 20
32.4622563238
 11
-148.2039097744
 21
32.3252473381
  0
LINE
  5
58D
100
AcDbEntity
  8
SUPERFICI
100
AcDbLine
 62
7
  6
CONTINUOUS
 10
-148.0959932102
 20
33.5097958037
 11
-148.1231401582
 21
33.2917783047
  0
LWPOLYLINE
  5
58E
100
AcDbEntity
  8
0
100
AcDbPolyline
 62
7
  6
CONTINUOUS
 90
6
 70
0
 10
-148.122965146
 20
33.3640310752
 10
-148.1475948291
 20
33.1718785785
 10
-148.1714212869
 20
32.9788092574
 10
-148.1944433274
 20
32.7848298147
 10
-148.2166573752
 20
32.5899603592
 10
-148.2380622385
 20
32.394207594
  0
LINE
  5
58F
100
AcDbEntity
  8
SUPERFICI
100
AcDbLine
 62
7
  6
CONTINUOUS
 10
-148.0648554722
 20
33.7505709718
 11
-148.0959932102
 21
33.5097958037
  0
LINE
  5
590
100
AcDbEntity
  8
SUPERFICI
100
AcDbLine
 62
7
  6
CONTINUOUS
 10
-148.0339021382
 20
33.9811231612
 11
-148.0648554722
 21
33.7505709718
  0
LWPOLYLINE
  5
591
100
AcDbEntity
  8
DRAFT
100
AcDbPolyline
 62
7
  6
CONTINUOUS
 90
22
 70
0
 10
-147.5862407531
 20
35.5000000253
 10
-147.5452380958
 20
35.7985692734
 10
-147.5015459239
 20
36.096689224
 10
-147.4551642376
 20
36.3920714209
 10
-147.4050926039
 20
36.6841191356
 10
-147.3523314556
 20
36.9685968837
 10
-147.2998820914
 20
37.2382905358
 10
-147.2478088186
 20
37.4919546503
 10
-147.1960473299
 20
37.7278203689
 10
-147.1474060012
 20
37.939888177
 10
-147.1027255082
 20
38.1266853629
 10
-147.0611651754
 20
38.2909908758
 10
-147.0230113519
 20
38.4344957916
 10
-146.9886064173
 20
38.5574810922
 10
-146.9576079919
 20
38.6617699773
 10
-146.9292752861
 20
38.7504154084
 10
-146.9036076372
 20
38.823507365
 10
-146.8806057077
 20
38.8817841871
 10
-146.8595306962
 20
38.9270244564
 10
-146.8402134932
 20
38.9583700471
 10
-146.8228232082
 20
38.9748341844
 10
-146.8139093312
 20
38.9772418352
  0
LWPOLYLINE
  5
592
100
AcDbEntity
  8
0
100
AcDbPolyline
 62
7
  6
CONTINUOUS
 90
3
 70
0
 10
-148.0712925282
 20
33.7456057041
 10
-148.0975310457
 20
33.5552734504
 10
-148.122965146
 20
33.3640310752
  0
LINE
  5
593
100
AcDbEntity
  8
SUPERFICI
100
AcDbLine
 62
7
  6
CONTINUOUS
 10
-148.0033740314
 20
34.200598863
 11
-148.0339021382
 21
33.9811231612
  0
LINE
  5
594
100
AcDbEntity
  8
SUPERFICI
100
AcDbLine
 62
7
  6
CONTINUOUS
 10
-147.9734440846
 20
34.4085982089
 11
-148.0033740314
 21
34.200598863
  0
LINE
  5
595
100
AcDbEntity
  8
SUPERFICI
100
AcDbLine
 62
7
  6
CONTINUOUS
 10
-147.9442420529
 20
34.6050876958
 11
-147.9734440846
 21
34.4085982089
  0
LINE
  5
596
100
AcDbEntity
  8
SUPERFICI
100
AcDbLine
 62
7
  6
CONTINUOUS
 10
-147.9158615519
 20
34.7902907249
 11
-147.9442420529
 21
34.6050876958
  0
LINE
  5
597
100
AcDbEntity
  8
0
100
AcDbLine
 62
7
  6
CONTINUOUS
 10
-148.0213704476
 20
34.072128492
 11
-148.0712925282
 21
33.7456057041
  0
LINE
  5
598
100
AcDbEntity
  8
ASSI
100
AcDbLine
 62
7
  6
CONTINUOUS
 10
-147.7344121682
 20
35.2832111628
 11
-147.6889295684
 21
35.5721979252
  0
LINE
  5
599
100
AcDbEntity
  8
ASSI
100
AcDbLine
 62
7
  6
CONTINUOUS
 10
-147.6889295684
 20
35.5721979252
 11
-147.5757612017
 21
36.29011043
  0
LINE
  5
59A
100
AcDbEntity
  8
SUPERFICI
100
AcDbLine
 62
7
  6
CONTINUOUS
 10
-147.8850853586
 20
34.9850792444
 11
-147.9158615519
 21
34.7902907249
  0
LWPOLYLINE
  5
59B
100
AcDbEntity
  8
ASSI
100
AcDbPolyline
 62
7
  6
CONTINUOUS
 90
4
 70
0
 10
-147.5757612017
 20
36.29011043
 10
-147.5523247069
 20
36.4336828873
 10
-147.5274284092
 20
36.5772750778
 10
-147.5015652191
 20
36.7208104828
  0
LINE
  5
59C
100
AcDbEntity
  8
SUPERFICI
100
AcDbLine
 62
7
  6
CONTINUOUS
 10
-147.749981886
 20
35.7997365763
 11
-147.7669683818
 21
35.6957932846
  0
LINE
  5
59D
100
AcDbEntity
  8
SUPERFICI
100
AcDbLine
 62
7
  6
CONTINUOUS
 10
-147.8557594914
 20
35.1651679777
 11
-147.8850853586
 21
34.9850792444
  0
LINE
  5
59E
100
AcDbEntity
  8
SUPERFICI
100
AcDbLine
 62
7
  6
CONTINUOUS
 10
-147.7852867777
 20
35.5876931962
 11
-147.8173182127
 21
35.3935845151
  0
LINE
  5
59F
100
AcDbEntity
  8
SUPERFICI
100
AcDbLine
 62
7
  6
CONTINUOUS
 10
-147.827517365
 20
35.3337990109
 11
-147.8557594914
 21
35.1651679777
  0
LINE
  5
5A0
100
AcDbEntity
  8
SUPERFICI
100
AcDbLine
 62
7
  6
CONTINUOUS
 10
-147.7243280648
 20
35.9525378381
 11
-147.749981886
 21
35.7997365763
  0
LINE
  5
5A1
100
AcDbEntity
  8
SUPERFICI
100
AcDbLine
 62
7
  6
CONTINUOUS
 10
-147.7582522653
 20
35.7465336394
 11
-147.7852867777
 21
35.5876931962
  0
LINE
  5
5A2
100
AcDbEntity
  8
SUPERFICI
100
AcDbLine
 62
7
  6
CONTINUOUS
 10
-147.7967214949
 20
35.5126121431
 11
-147.827517365
 21
35.3337990109
  0
LINE
  5
5A3
100
AcDbEntity
  8
SUPERFICI
100
AcDbLine
 62
7
  6
CONTINUOUS
 10
-147.69780255
 20
36.1054702048
 11
-147.7243280648
 21
35.9525378381
  0
LINE
  5
5A4
100
AcDbEntity
  8
SUPERFICI
100
AcDbLine
 62
7
  6
CONTINUOUS
 10
-147.7516071162
 20
35.803795366
 11
-147.7705947427
 21
35.6963864889
  0
LINE
  5
5A5
100
AcDbEntity
  8
SUPERFICI
100
AcDbLine
 62
7
  6
CONTINUOUS
 10
-147.6838907643
 20
36.1836943531
 11
-147.69780255
 21
36.1054702048
  0
LWPOLYLINE
  5
5A6
100
AcDbEntity
  8
SUPERFICI
100
AcDbPolyline
 62
7
  6
CONTINUOUS
 90
3
 70
0
 10
-147.7196756287
 20
35.9657208104
 10
-147.7296129404
 20
35.9100731113
 10
-147.7582522653
 20
35.7465336394
  0
LINE
  5
5A7
100
AcDbEntity
  8
SUPERFICI
100
AcDbLine
 62
7
  6
CONTINUOUS
 10
-147.7694691822
 20
35.6666863933
 11
-147.7967214949
 21
35.5126121431
  0
LWPOLYLINE
  5
5A8
100
AcDbEntity
  8
0
100
AcDbPolyline
 62
7
  6
CONTINUOUS
 90
13
 70
0
 43
0.3500000006
 10
-162.2174518433
 20
-1.8214286385
 10
-162.4317363281
 20
-2.1071431732
 10
-163.0745897827
 20
-2.1071431732
 10
-163.5031587524
 20
-1.8214286385
 10
-163.5031587524
 20
-1.178571785
 10
-163.0745897827
 20
-0.8928561172
 10
-162.4317363281
 20
-0.8928561172
 10
-162.2174518433
 20
-1.178571785
 10
-161.7888647461
 20
-0.7500005493
 10
-160.9317268066
 20
-0.7500005493
 10
-160.5031578369
 20
-1.178571785
 10
-160.5031578369
 20
-1.8214286385
 10
-160.9317268066
 20
-2.2499998741
  0
LINE
  5
5A9
100
AcDbEntity
  8
RACCORDO
100
AcDbLine
 62
7
  6
CONTINUOUS
 10
-136.2662385975
 20
-31.9999999747
 11
-136.4662385975
 21
-31.9930158208
  0
LINE
  5
5AA
100
AcDbEntity
  8
RACCORDO
100
AcDbLine
 62
250
  6
CONTINUOUS
 10
-136.2662385975
 20
-31.4145703824
 11
-136.4662385975
 21
-31.4075862285
  0
LINE
  5
5AB
100
AcDbEntity
  8
SUPERFICI
100
AcDbLine
 62
250
  6
CONTINUOUS
 10
-146.9464802178
 20
-39.7636285174
 11
-146.9264081951
 21
-39.8894637047
  0
LWPOLYLINE
  5
5AC
100
AcDbEntity
  8
SUPERFICI
100
AcDbPolyline
 62
250
  6
CONTINUOUS
 90
12
 70
0
 10
-147.1615013773
 20
-39.7623318865
 10
-147.1414219349
 20
-39.8895780667
 10
-147.1138839241
 20
-40.0232731602
 10
-147.0786932088
 20
-40.160115925
 10
-147.0367615863
 20
-40.2940449509
 10
-146.9888873077
 20
-40.4214212173
 10
-146.9348626098
 20
-40.5416011259
 10
-146.8745586617
 20
-40.65305883
 10
-146.8081915818
 20
-40.7540103872
 10
-146.7368768426
 20
-40.8437170645
 10
-146.661732726
 20
-40.922013218
 10
-146.5839634183
 20
-40.9886019537
  0
LWPOLYLINE
  5
5AD
100
AcDbEntity
  8
SUPERFICI
100
AcDbPolyline
 62
7
  6
CONTINUOUS
 90
4
 70
0
 10
-148.0217170059
 20
-34.0327710236
 10
-147.8961595527
 20
-34.8445773812
 10
-147.749800983
 20
-35.6853256721
 10
-147.5795464532
 20
-36.5601084493
  0
LWPOLYLINE
  5
5AE
100
AcDbEntity
  8
SUPERFICI
100
AcDbPolyline
 62
250
  6
CONTINUOUS
 90
5
 70
0
 10
-148.0884409002
 20
-34.8968139231
 10
-148.2118543237
 20
-34.0148926848
 10
-148.3135544454
 20
-33.1901942331
 10
-148.3879515722
 20
-32.49073997
 10
-148.4430486855
 20
-31.866457648
  0
LWPOLYLINE
  5
5AF
100
AcDbEntity
  8
SUPERFICI
100
AcDbPolyline
 62
250
  6
CONTINUOUS
 90
12
 70
0
 10
-146.8150307517
 20
-39.6959129951
 10
-146.8156565215
 20
-39.6913206925
 10
-146.8149578498
 20
-39.6868439606
 10
-146.8129631021
 20
-39.6821925773
 10
-146.8096817355
 20
-39.6772695059
 10
-146.8051303832
 20
-39.6719911714
 10
-146.799034667
 20
-39.6660672314
 10
-146.7909291056
 20
-39.6590765438
 10
-146.7804763743
 20
-39.6507023086
 10
-146.7674679454
 20
-39.6407307526
 10
-146.7518015718
 20
-39.6290334599
 10
-146.7334748007
 20
-39.6155623944
  0
LWPOLYLINE
  5
5B0
100
AcDbEntity
  8
SUPERFICI
100
AcDbPolyline
 62
250
  6
CONTINUOUS
 90
3
 70
0
 10
-147.1816433658
 20
-39.5299011028
 10
-147.174782793
 20
-39.64196895
 10
-147.1615013773
 20
-39.7623318865
  0
LWPOLYLINE
  5
5B1
100
AcDbEntity
  8
SUPERFICI
100
AcDbPolyline
 62
7
  6
CONTINUOUS
 90
3
 70
0
 10
-148.4272353551
 20
-29.759100823
 10
-148.393227615
 20
-30.4146258319
 10
-148.3474869863
 20
-31.0888745431
  0
LWPOLYLINE
  5
5B2
100
AcDbEntity
  8
SUPERFICI
100
AcDbPolyline
 62
250
  6
CONTINUOUS
 90
3
 70
0
 10
-148.5668127829
 20
-29.5368071978
 10
-148.5744068075
 20
-29.3832638108
 10
-148.5830159226
 20
-29.2510100626
  0
LWPOLYLINE
  5
5B3
100
AcDbEntity
  8
SUPERFICI
100
AcDbPolyline
 62
250
  6
CONTINUOUS
 90
3
 70
0
 10
-148.5453879765
 20
-30.1039161281
 10
-148.559843984
 20
-29.7072699938
 10
-148.5668127829
 20
-29.5368071978
  0
LINE
  5
5B4
100
AcDbEntity
  8
SUPERFICI
100
AcDbLine
 62
7
  6
CONTINUOUS
 10
-148.4502379138
 20
-29.1248134559
 11
-148.4272353551
 21
-29.759100823
  0
LWPOLYLINE
  5
5B5
100
AcDbEntity
  8
SUPERFICI
100
AcDbPolyline
 62
250
  6
CONTINUOUS
 90
7
 70
0
 10
-146.6291209675
 20
-35.4998246932
 10
-146.6405975232
 20
-35.0582680505
 10
-146.6512967315
 20
-34.6037478469
 10
-146.6612241184
 20
-34.1367261133
 10
-146.6704474406
 20
-33.6554917339
 10
-146.6789089124
 20
-33.1625139917
 10
-146.6864262603
 20
-32.6652824447
  0
LINE
  5
5B6
100
AcDbEntity
  8
SUPERFICI
100
AcDbLine
 62
7
  6
CONTINUOUS
 10
-148.4631267609
 20
-28.51192525
 11
-148.4523512713
 21
-29.024319448
  0
LINE
  5
5B7
100
AcDbEntity
  8
SUPERFICI
100
AcDbLine
 62
7
  6
CONTINUOUS
 10
-148.4575592657
 20
-28.8317080099
 11
-148.4502379138
 21
-29.1248134559
  0
LINE
  5
5B8
100
AcDbEntity
  8
SUPERFICI
100
AcDbLine
 62
7
  6
CONTINUOUS
 10
-148.4618635775
 20
-28.5992480245
 11
-148.4575592657
 21
-28.8317080099
  0
LINE
  5
5B9
100
AcDbEntity
  8
SUPERFICI
100
AcDbLine
 62
250
  6
CONTINUOUS
 10
-146.6864262603
 20
-32.6652824447
 11
-146.6983995087
 21
-31.6720205064
  0
LINE
  5
5BA
100
AcDbEntity
  8
SUPERFICI
100
AcDbLine
 62
250
  6
CONTINUOUS
 10
-146.6983995087
 20
-31.6720205064
 11
-146.7072113077
 21
-30.6575202307
  0
LINE
  5
5BB
100
AcDbEntity
  8
SUPERFICI
100
AcDbLine
 62
7
  6
CONTINUOUS
 10
-148.466562195
 20
-28.1104574549
 11
-148.4618635775
 21
-28.5992480245
  0
LINE
  5
5BC
100
AcDbEntity
  8
SUPERFICI
100
AcDbLine
 62
250
  6
CONTINUOUS
 10
-146.7072113077
 20
-30.6575202307
 11
-146.7132346403
 21
-29.6173045922
  0
LWPOLYLINE
  5
5BD
100
AcDbEntity
  8
SUPERFICI
100
AcDbPolyline
 62
250
  6
CONTINUOUS
 90
10
 70
0
 10
-148.299668353
 20
-31.6571318542
 10
-148.2996072079
 20
-31.6706685325
 10
-148.3036900645
 20
-31.6954000004
 10
-148.3118871809
 20
-31.7203019407
 10
-148.3241195908
 20
-31.745252244
 10
-148.3403083491
 20
-31.7701288333
 10
-148.3603745316
 20
-31.7948096645
 10
-148.3842392351
 20
-31.8191727259
 10
-148.4118235774
 20
-31.8430960385
 10
-148.4430486972
 20
-31.8664576562
  0
LINE
  5
5BE
100
AcDbEntity
  8
SUPERFICI
100
AcDbLine
 62
7
  6
CONTINUOUS
 10
-148.4654343775
 20
-28.3012201212
 11
-148.4667509647
 21
-27.9000643693
  0
LINE
  5
5BF
100
AcDbEntity
  8
SUPERFICI
100
AcDbLine
 62
250
  6
CONTINUOUS
 10
-146.7132346403
 20
-29.6173045922
 11
-146.7169797323
 21
-28.5396965429
  0
LINE
  5
5C0
100
AcDbEntity
  8
SUPERFICI
100
AcDbLine
 62
7
  6
CONTINUOUS
 10
-148.4732580979
 20
24.3853724128
 11
-148.4670263164
 21
22.8989832545
  0
LINE
  5
5C1
100
AcDbEntity
  8
SUPERFICI
100
AcDbLine
 62
250
  6
CONTINUOUS
 10
-146.7169797323
 20
-28.5396965429
 11
-146.7189897194
 21
-27.4306583618
  0
LINE
  5
5C2
100
AcDbEntity
  8
SUPERFICI
100
AcDbLine
 62
7
  6
CONTINUOUS
 10
-149.2662397147
 20
-22.2000014574
 11
-149.2662435165
 21
22.2000129302
  0
LINE
  5
5C3
100
AcDbEntity
  8
RACCORDO
100
AcDbLine
 62
250
  6
CONTINUOUS
 10
-149.2662385975
 20
-24.0000002698
 11
-149.2662385975
 21
-22.1999988498
  0
LINE
  5
5C4
100
AcDbEntity
  8
RACCORDO
100
AcDbLine
 62
250
  6
CONTINUOUS
 10
-149.2662385975
 20
22.1999951654
 11
-149.2662385975
 21
24.0000013499
  0
LINE
  5
5C5
100
AcDbEntity
  8
SUPERFICI
100
AcDbLine
 62
7
  6
CONTINUOUS
 10
-149.0662308516
 20
-22.2000019751
 11
-149.0662317847
 21
22.199981813
  0
LINE
  5
5C6
100
AcDbEntity
  8
SUPERFICI
100
AcDbLine
 62
7
  6
CONTINUOUS
 10
-148.4737799843
 20
25.2762514644
 11
-148.4732580979
 21
24.3853724128
  0
LINE
  5
5C7
100
AcDbEntity
  8
DRAFT
100
AcDbLine
 62
250
  6
CONTINUOUS
 10
-146.7135030217
 20
17.0524682362
 11
-146.7127579227
 21
13.2189125099
  0
LINE
  5
5C8
100
AcDbEntity
  8
SUPERFICI
100
AcDbLine
 62
7
  6
CONTINUOUS
 10
-149.2618946364
 20
25.4963793461
 11
-149.2589930898
 21
24.4224873753
  0
LINE
  5
5C9
100
AcDbEntity
  8
SUPERFICI
100
AcDbLine
 62
7
  6
CONTINUOUS
 10
-149.2621766908
 20
-22.2000013698
 11
-149.2595807055
 21
-24.4203408276
  0
LINE
  5
5CA
100
AcDbEntity
  8
SUPERFICI
100
AcDbLine
 62
250
  6
CONTINUOUS
 10
-149.0662446716
 20
-26.1000201491
 11
-149.066244134
 21
-22.2000019754
  0
LINE
  5
5CB
100
AcDbEntity
  8
SUPERFICI
100
AcDbLine
 62
7
  6
CONTINUOUS
 10
-148.4662499996
 20
22.1376185214
 11
-148.4662389577
 21
22.2000100254
  0
LINE
  5
5CC
100
AcDbEntity
  8
SUPERFICI
100
AcDbLine
 62
250
  6
CONTINUOUS
 10
-146.7189897194
 20
-27.4306583618
 11
-146.719520476
 21
-25.6837291178
  0
LINE
  5
5CD
100
AcDbEntity
  8
SUPERFICI
100
AcDbLine
 62
250
  6
CONTINUOUS
 10
-146.7166530297
 20
-1.3792064475
 11
-146.7165584927
 21
0.0000000244
  0
LINE
  5
5CE
100
AcDbEntity
  8
DRAFT
100
AcDbLine
 62
250
  6
CONTINUOUS
 10
-146.7127579227
 20
13.2189125099
 11
-146.7145702835
 21
5.4834919037
  0
LINE
  5
5CF
100
AcDbEntity
  8
DRAFT
100
AcDbLine
 62
250
  6
CONTINUOUS
 10
-146.7145702835
 20
5.4834919037
 11
-146.7165586161
 21
0.0000000244
  0
LINE
  5
5D0
100
AcDbEntity
  8
SUPERFICI
100
AcDbLine
 62
7
  6
CONTINUOUS
 10
-148.4668294007
 20
-27.9662668145
 11
-148.4662390109
 21
23.3642962653
  0
LWPOLYLINE
  5
5D1
100
AcDbEntity
  8
SUPERFICI
100
AcDbPolyline
 62
250
  6
CONTINUOUS
 90
3
 70
0
 10
-146.719520476
 20
-25.6837291178
 10
-146.716723169
 20
-21.8183738257
 10
-146.7166530297
 20
-1.3792064475
  0
LINE
  5
5D2
100
AcDbEntity
  8
SUPERFICI
100
AcDbLine
 62
7
  6
CONTINUOUS
 10
-149.2595807055
 20
-24.4203408276
 11
-149.2599420462
 21
-24.8370172595
  0
LINE
  5
5D3
100
AcDbEntity
  8
SUPERFICI
100
AcDbLine
 62
250
  6
CONTINUOUS
 10
-149.0662378945
 20
22.199981813
 11
-149.0662384141
 21
26.1000135991
  0
LINE
  5
5D4
100
AcDbEntity
  8
SUPERFICI
100
AcDbLine
 62
7
  6
CONTINUOUS
 10
-149.259854056
 20
24.6469736862
 11
-149.2621973359
 21
22.2000271354
  0
LINE
  5
5D5
100
AcDbEntity
  8
COPY_GEOM
100
AcDbLine
 62
250
  6
CONTINUOUS
 10
-146.6099254939
 20
36.3978731727
 11
-146.6094851746
 21
36.6656863486
  0
LINE
  5
5D6
100
AcDbEntity
  8
SUPERFICI
100
AcDbLine
 62
7
  6
CONTINUOUS
 10
-149.2599420462
 20
-24.8370172595
 11
-149.262686829
 21
-25.4914417415
  0
LWPOLYLINE
  5
5D7
100
AcDbEntity
  8
DRAFT
100
AcDbPolyline
 62
250
  6
CONTINUOUS
 90
6
 70
0
 10
-146.7061637137
 20
31.0000001019
 10
-146.7125469505
 20
29.7493603724
 10
-146.7159891294
 20
28.3927016019
 10
-146.7174364147
 20
26.9399544917
 10
-146.7177333718
 20
25.4061390205
 10
-146.7135030217
 20
17.0524682362
  0
LINE
  5
5D8
100
AcDbEntity
  8
SUPERFICI
100
AcDbLine
 62
7
  6
CONTINUOUS
 10
-148.4791918709
 20
27.9436530632
 11
-148.4809823888
 21
27.4921164258
  0
LINE
  5
5D9
100
AcDbEntity
  8
SUPERFICI
100
AcDbLine
 62
7
  6
CONTINUOUS
 10
-148.4713673049
 20
28.3450815115
 11
-148.4737799843
 21
25.2762514644
  0
LWPOLYLINE
  5
5DA
100
AcDbEntity
  8
COPY_GEOM
100
AcDbPolyline
 62
250
  6
CONTINUOUS
 90
9
 70
0
 10
-146.7043060233
 20
31.3000421149
 10
-146.7003214358
 20
31.8031459701
 10
-146.6953038217
 20
32.3002202895
 10
-146.6892494127
 20
32.790568506
 10
-146.6823207254
 20
33.2729080702
 10
-146.674345358
 20
33.7473256162
 10
-146.6648119677
 20
34.2152640989
 10
-146.6535397167
 20
34.6767859521
 10
-146.6406824438
 20
35.1305813291
  0
LINE
  5
5DB
100
AcDbEntity
  8
SUPERFICI
100
AcDbLine
 62
7
  6
CONTINUOUS
 10
-149.2661762538
 20
-25.4890243823
 11
-149.2661771443
 21
-25.4891058748
  0
LINE
  5
5DC
100
AcDbEntity
  8
COPY_GEOM
100
AcDbLine
 62
250
  6
CONTINUOUS
 10
-146.6123606699
 20
36.1431742522
 11
-146.6099254939
 21
36.3978731727
  0
LINE
  5
5DD
100
AcDbEntity
  8
SUPERFICI
100
AcDbLine
 62
7
  6
CONTINUOUS
 10
-148.4694633983
 20
28.5282692257
 11
-148.4713673049
 21
28.3450815115
  0
LINE
  5
5DE
100
AcDbEntity
  8
SUPERFICI
100
AcDbLine
 62
7
  6
CONTINUOUS
 10
-148.472481219
 20
28.6107847641
 11
-148.4791918709
 21
27.9436530632
  0
LWPOLYLINE
  5
5DF
100
AcDbEntity
  8
DRAFT
100
AcDbPolyline
 62
7
  6
CONTINUOUS
 90
10
 70
0
 10
-147.7323966547
 20
33.5374849068
 10
-147.7295456343
 20
33.7149246916
 10
-147.7239236618
 20
33.8992603338
 10
-147.7151179768
 20
34.0938494596
 10
-147.7033006085
 20
34.2981673634
 10
-147.6882995276
 20
34.511880172
 10
-147.6691858864
 20
34.7391277915
 10
-147.645650069
 20
34.9809556754
 10
-147.6180016912
 20
35.234961592
 10
-147.5862407531
 20
35.5000000253
  0
LINE
  5
5E0
100
AcDbEntity
  8
SUPERFICI
100
AcDbLine
 62
7
  6
CONTINUOUS
 10
-148.4670282983
 20
28.6856676742
 11
-148.4694633983
 21
28.5282692257
  0
LINE
  5
5E1
100
AcDbEntity
  8
SUPERFICI
100
AcDbLine
 62
7
  6
CONTINUOUS
 10
-148.4694758754
 20
28.7862659492
 11
-148.472481219
 21
28.6107847641
  0
LINE
  5
5E2
100
AcDbEntity
  8
SUPERFICI
100
AcDbLine
 62
7
  6
CONTINUOUS
 10
-148.4641709
 20
28.827311217
 11
-148.4670282983
 21
28.6856676742
  0
LWPOLYLINE
  5
5E3
100
AcDbEntity
  8
COPY_GEOM
100
AcDbPolyline
 62
250
  6
CONTINUOUS
 90
3
 70
0
 10
-146.6194695972
 20
35.7899253034
 10
-146.6167060664
 20
35.9037518889
 10
-146.6123606699
 20
36.1431742522
  0
LINE
  5
5E4
100
AcDbEntity
  8
SUPERFICI
100
AcDbLine
 62
7
  6
CONTINUOUS
 10
-148.465798067
 20
28.949806259
 11
-148.4694758754
 21
28.7862659492
  0
LINE
  5
5E5
100
AcDbEntity
  8
SUPERFICI
100
AcDbLine
 62
7
  6
CONTINUOUS
 10
-148.4603462394
 20
28.9810559751
 11
-148.4641709
 21
28.827311217
  0
LINE
  5
5E6
100
AcDbEntity
  8
SUPERFICI
100
AcDbLine
 62
7
  6
CONTINUOUS
 10
-148.4617674568
 20
29.0957772664
 11
-148.465798067
 21
28.949806259
  0
LINE
  5
5E7
100
AcDbEntity
  8
SUPERFICI
100
AcDbLine
 62
7
  6
CONTINUOUS
 10
-148.4562127833
 20
29.1208965598
 11
-148.4603462394
 21
28.9810559751
  0
LINE
  5
5E8
100
AcDbEntity
  8
SUPERFICI
100
AcDbLine
 62
7
  6
CONTINUOUS
 10
-148.4574560258
 20
29.2292354031
 11
-148.4617674568
 21
29.0957772664
  0
LWPOLYLINE
  5
5E9
100
AcDbEntity
  8
COPY_GEOM
100
AcDbPolyline
 62
250
  6
CONTINUOUS
 90
3
 70
0
 10
-146.6406824438
 20
35.1305813291
 10
-146.6226428455
 20
35.6805774226
 10
-146.6194695972
 20
35.7899253034
  0
LINE
  5
5EA
100
AcDbEntity
  8
SUPERFICI
100
AcDbLine
 62
7
  6
CONTINUOUS
 10
-148.4510502101
 20
29.2719388658
 11
-148.4562127833
 21
29.1208965598
  0
LINE
  5
5EB
100
AcDbEntity
  8
SUPERFICI
100
AcDbLine
 62
7
  6
CONTINUOUS
 10
-148.4519489968
 20
29.3778189095
 11
-148.4574560258
 21
29.2292354031
  0
LINE
  5
5EC
100
AcDbEntity
  8
SUPERFICI
100
AcDbLine
 62
7
  6
CONTINUOUS
 10
-148.4455081825
 20
29.4147143864
 11
-148.4510502101
 21
29.2719388658
  0
LINE
  5
5ED
100
AcDbEntity
  8
SUPERFICI
100
AcDbLine
 62
7
  6
CONTINUOUS
 10
-148.4460881127
 20
29.5176067382
 11
-148.4519489968
 21
29.3778189095
  0
LINE
  5
5EE
100
AcDbEntity
  8
SUPERFICI
100
AcDbLine
 62
7
  6
CONTINUOUS
 10
-148.438728089
 20
29.5706224149
 11
-148.4455081825
 21
29.4147143864
  0
LWPOLYLINE
  5
5EF
100
AcDbEntity
  8
DRAFT
100
AcDbPolyline
 62
7
  6
CONTINUOUS
 90
21
 70
0
 10
-146.7430293908
 20
35.5000000253
 10
-146.7555636839
 20
35.2371406609
 10
-146.7710419251
 20
34.9758259896
 10
-146.7894641142
 20
34.7175381045
 10
-146.8108446847
 20
34.4642121967
 10
-146.8351692033
 20
34.2167868463
 10
-146.8623943695
 20
33.9753203343
 10
-146.8924861335
 20
33.7419605596
 10
-146.925478545
 20
33.5175113552
 10
-146.9614304535
 20
33.3005751718
 10
-147.0005801271
 20
33.0924215697
 10
-147.0426892976
 20
32.8960347103
 10
-147.0871020091
 20
32.7132631058
 10
-147.1340504276
 20
32.5462638348
 10
-147.1833023871
 20
32.3976521176
 10
-147.2335054336
 20
32.2700083876
 10
-147.2852640398
 20
32.1646516764
 10
-147.3379737329
 20
32.0852041737
 10
-147.3884686413
 20
32.034879754
 10
-147.4361843082
 20
32.012940708
 10
-147.4491861343
 20
32.0116694177
  0
LINE
  5
5F0
100
AcDbEntity
  8
SUPERFICI
100
AcDbLine
 62
7
  6
CONTINUOUS
 10
-148.4399106152
 20
29.6504222119
 11
-148.4460881127
 21
29.5176067382
  0
LINE
  5
5F1
100
AcDbEntity
  8
SUPERFICI
100
AcDbLine
 62
7
  6
CONTINUOUS
 10
-148.4315516017
 20
29.7194944498
 11
-148.438728089
 21
29.5706224149
  0
LINE
  5
5F2
100
AcDbEntity
  8
SUPERFICI
100
AcDbLine
 62
7
  6
CONTINUOUS
 10
-148.4323660666
 20
29.7977639428
 11
-148.4399106152
 21
29.6504222119
  0
LINE
  5
5F3
100
AcDbEntity
  8
SUPERFICI
100
AcDbLine
 62
7
  6
CONTINUOUS
 10
-148.423099011
 20
29.8791972565
 11
-148.4315516017
 21
29.7194944498
  0
LINE
  5
5F4
100
AcDbEntity
  8
SUPERFICI
100
AcDbLine
 62
7
  6
CONTINUOUS
 10
-148.4279112008
 20
29.8787450564
 11
-148.4323660666
 21
29.7977639428
  0
LINE
  5
5F5
100
AcDbEntity
  8
SUPERFICI
100
AcDbLine
 62
7
  6
CONTINUOUS
 10
-148.4211762982
 20
29.9136112189
 11
-148.423099011
 21
29.8791972565
  0
LINE
  5
5F6
100
AcDbEntity
  8
SCATOLA
100
AcDbLine
 62
250
  6
CONTINUOUS
 10
-87.6676544471
 20
-30.0182811497
 11
-89.6948657223
 21
-30.0357912952
  0
LWPOLYLINE
  5
5F7
100
AcDbEntity
  8
SCATOLA
100
AcDbPolyline
 62
250
  6
CONTINUOUS
 90
3
 70
0
 10
-89.6948657223
 20
-30.0357912952
 10
-91.6600241635
 20
-30.0504979322
 10
-92.154021913
 20
-30.0538573056
  0
LINE
  5
5F8
100
AcDbEntity
  8
SCATOLA
100
AcDbLine
 62
250
  6
CONTINUOUS
 10
-86.6687111356
 20
-29.3999999747
 11
-87.3671375301
 21
-29.3999999748
  0
LINE
  5
5F9
100
AcDbEntity
  8
SCATOLA
100
AcDbLine
 62
7
  6
CONTINUOUS
 10
-87.3671377023
 20
-29.3999999747
 11
-92.166238589
 21
-29.3999999747
  0
LINE
  5
5FA
100
AcDbEntity
  8
SCATOLA
100
AcDbLine
 62
250
  6
CONTINUOUS
 10
-93.1140410279
 20
-29.0999999747
 11
-92.4662385975
 21
-29.0999999747
  0
LWPOLYLINE
  5
5FB
100
AcDbEntity
  8
SCATOLA
100
AcDbPolyline
 62
250
  6
CONTINUOUS
 90
22
 70
0
 10
-92.154021913
 20
-30.0538573056
 10
-92.2241773082
 20
-30.0518624498
 10
-92.293726888
 20
-30.0446324478
 10
-92.3626706525
 20
-30.0321672997
 10
-92.4314840316
 20
-30.0144052182
 10
-92.4996915953
 20
-29.9914079906
 10
-92.5658670538
 20
-29.9633609785
 10
-92.6299769542
 20
-29.9301043071
 10
-92.6920547494
 20
-29.8917978512
 10
-92.750774507
 20
-29.8491065972
 10
-92.8060294836
 20
-29.8019183798
 10
-92.8579264226
 20
-29.7503453643
 10
-92.9054596231
 20
-29.6953890324
 10
-92.9485173132
 20
-29.6369426213
 10
-92.9872112646
 20
-29.5751128938
 10
-93.0208710921
 20
-29.5112216204
 10
-93.0493374689
 20
-29.4452362459
 10
-93.0727697218
 20
-29.3771893254
 10
-93.0909754447
 20
-29.3085002945
 10
-93.1038905024
 20
-29.2396422984
 10
-93.1115790301
 20
-29.1701421918
 10
-93.1140410279
 20
-29.0999999747
  0
LWPOLYLINE
  5
5FC
100
AcDbEntity
  8
DRAFT
100
AcDbPolyline
 62
7
  6
CONTINUOUS
 90
19
 70
0
 10
-148.0047516414
 20
31.6573084525
 10
-148.0086858437
 20
31.7362955889
 10
-148.0118740359
 20
31.8191274677
 10
-148.0143547812
 20
31.9057536336
 10
-148.0160895163
 20
31.9959402991
 10
-148.0169138659
 20
32.089343167
 10
-148.0167669062
 20
32.1856922591
 10
-148.0157095611
 20
32.2848834863
 10
-148.0137602265
 20
32.3868005764
 10
-148.0108944486
 20
32.4911439259
 10
-148.0071366813
 20
32.5978261956
 10
-148.0025786831
 20
32.7070757576
 10
-147.9972697431
 20
32.8186388695
 10
-147.9911605722
 20
32.9324030224
 10
-147.9841950619
 20
33.0488532088
 10
-147.9764134185
 20
33.1678378942
 10
-147.9677754358
 20
33.289139092
 10
-147.9581043862
 20
33.4131669978
 10
-147.9473413608
 20
33.5399162783
  0
LWPOLYLINE
  5
5FD
100
AcDbEntity
  8
COPY_GEOM
100
AcDbPolyline
 62
250
  6
CONTINUOUS
 90
8
 70
0
 10
-144.7168398789
 20
40.6330828206
 10
-144.7206573394
 20
40.7765522186
 10
-144.7254116401
 20
40.8991023719
 10
-144.7310167584
 20
40.9989913883
 10
-144.7378848053
 20
41.0730219127
 10
-144.7461531513
 20
41.1226011257
 10
-144.755684426
 20
41.1508006831
 10
-144.7664786294
 20
41.1596220694
  0
LWPOLYLINE
  5
5FE
100
AcDbEntity
  8
COPY_GEOM
100
AcDbPolyline
 62
250
  6
CONTINUOUS
 90
8
 70
0
 10
-146.6450059415
 20
39.1544575392
 10
-146.6472116887
 20
39.2632711717
 10
-146.6502325853
 20
39.3566680783
 10
-146.654008627
 20
39.4362768436
 10
-146.6592012222
 20
39.4973756984
 10
-146.666025068
 20
39.5397486291
 10
-146.6742506929
 20
39.5668122889
 10
-146.6838689671
 20
39.5797630238
  0
LWPOLYLINE
  5
5FF
100
AcDbEntity
  8
DRAFT
100
AcDbPolyline
 62
7
  6
CONTINUOUS
 90
10
 70
0
 10
-146.7351014045
 20
38.1697758087
 10
-146.7258677645
 20
37.7273717596
 10
-146.7218565676
 20
37.4774195233
 10
-146.7191913505
 20
37.2132847609
 10
-146.7177764374
 20
36.9373770158
 10
-146.7177075042
 20
36.6521757067
 10
-146.7200879892
 20
36.3630572168
 10
-146.7252857049
 20
36.0735871458
 10
-146.7329328388
 20
35.7851781046
 10
-146.7430293908
 20
35.5000000253
  0
LWPOLYLINE
  5
600
100
AcDbEntity
  8
SUPERFICI
100
AcDbPolyline
 62
250
  6
CONTINUOUS
 90
8
 70
0
 10
-144.6919826023
 20
-35.4999988394
 10
-144.7143978156
 20
-34.13587017
 10
-144.7340801022
 20
-32.6838360001
 10
-144.7510294622
 20
-31.1438963295
 10
-144.7653430862
 20
-29.499451151
 10
-144.7769237835
 20
-27.7671004719
 10
-144.7854799822
 20
-25.9966443141
 10
-144.7900697192
 20
-24.1948621361
  0
LINE
  5
601
100
AcDbEntity
  8
COPY_GEOM
100
AcDbLine
 62
250
  6
CONTINUOUS
 10
-144.7083242306
 20
40.0973908958
 11
-144.7168398789
 21
40.6330828206
  0
LINE
  5
602
100
AcDbEntity
  8
COPY_GEOM
100
AcDbLine
 62
250
  6
CONTINUOUS
 10
-146.614416457
 20
37.2337474863
 11
-146.6383042956
 21
38.6048367883
  0
LINE
  5
603
100
AcDbEntity
  8
COPY_GEOM
100
AcDbLine
 62
250
  6
CONTINUOUS
 10
-146.6383042956
 20
38.6048367883
 11
-146.6450059415
 21
39.1544575392
  0
LINE
  5
604
100
AcDbEntity
  8
COPY_GEOM
100
AcDbLine
 62
250
  6
CONTINUOUS
 10
-146.6110811498
 20
36.9445536713
 11
-146.614416457
 21
37.2337474863
  0
LINE
  5
605
100
AcDbEntity
  8
COPY_GEOM
100
AcDbLine
 62
250
  6
CONTINUOUS
 10
-144.6858536425
 20
38.1705758285
 11
-144.7083242306
 21
40.0973908958
  0
LWPOLYLINE
  5
606
100
AcDbEntity
  8
DRAFT
100
AcDbPolyline
 62
7
  6
CONTINUOUS
 90
4
 70
0
 10
-146.113457849
 20
30.9735708265
 10
-146.1131823324
 20
30.9075864593
 10
-146.11036068
 20
30.7365568927
 10
-146.1086118909
 20
30.6780540961
  0
LINE
  5
607
100
AcDbEntity
  8
COPY_GEOM
100
AcDbLine
 62
250
  6
CONTINUOUS
 10
-146.6094851746
 20
36.6656863486
 11
-146.6110811498
 21
36.9445536713
  0
LINE
  5
608
100
AcDbEntity
  8
COPY_GEOM
100
AcDbLine
 62
250
  6
CONTINUOUS
 10
-144.6821272517
 20
37.5356725016
 11
-144.6858536425
 21
38.1705758285
  0
LINE
  5
609
100
AcDbEntity
  8
SUPERFICI
100
AcDbLine
 62
250
  6
CONTINUOUS
 10
-144.683418693
 20
-37.7012801361
 11
-144.6903243498
 21
-35.9968759695
  0
LINE
  5
60A
100
AcDbEntity
  8
SUPERFICI
100
AcDbLine
 62
250
  6
CONTINUOUS
 10
-144.6903243498
 20
-35.9968759695
 11
-144.6919826452
 21
-35.4999988394
  0
LINE
  5
60B
100
AcDbEntity
  8
SUPERFICI
100
AcDbLine
 62
250
  6
CONTINUOUS
 10
-144.7900697192
 20
-24.1948621361
 11
-144.8011485337
 21
0.0000000253
  0
LINE
  5
60C
100
AcDbEntity
  8
COPY_GEOM
100
AcDbLine
 62
250
  6
CONTINUOUS
 10
-144.6817434084
 20
37.1255907652
 11
-144.6821272517
 21
37.5356725016
  0
LINE
  5
60D
100
AcDbEntity
  8
DRAFT
100
AcDbLine
 62
250
  6
CONTINUOUS
 10
-144.8011485337
 20
0.0000000253
 11
-144.8009460073
 21
3.6666940722
  0
LINE
  5
60E
100
AcDbEntity
  8
DRAFT
100
AcDbLine
 62
250
  6
CONTINUOUS
 10
-144.8009460073
 20
3.6666940722
 11
-144.7941127195
 21
21.9922564948
  0
LWPOLYLINE
  5
60F
100
AcDbEntity
  8
DRAFT
100
AcDbPolyline
 62
250
  6
CONTINUOUS
 90
7
 70
0
 10
-144.7941127195
 20
21.9922564948
 10
-144.791399612
 20
24.3275956093
 10
-144.7893547411
 20
25.4820499778
 10
-144.7861263383
 20
26.6179012807
 10
-144.7814844212
 20
27.7320128303
 10
-144.7756589723
 20
28.8275213144
 10
-144.7686499915
 20
29.9044267328
  0
LINE
  5
610
100
AcDbEntity
  8
COPY_GEOM
100
AcDbLine
 62
250
  6
CONTINUOUS
 10
-144.6832659922
 20
36.7291609788
 11
-144.6817434084
 21
37.1255907652
  0
LWPOLYLINE
  5
611
100
AcDbEntity
  8
COPY_GEOM
100
AcDbPolyline
 62
250
  6
CONTINUOUS
 90
10
 70
0
 10
-144.7937928327
 20
30.2132330385
 10
-144.7901350578
 20
30.8496180087
 10
-144.785065059
 20
31.4738237927
 10
-144.7785828362
 20
32.0858503906
 10
-144.7709826819
 20
32.6857810261
 10
-144.7619703037
 20
33.2735324754
 10
-144.7506628242
 20
33.8488550671
 10
-144.7367659508
 20
34.4116655774
 10
-144.7205739761
 20
34.9620472301
 10
-144.7020869
 20
35.5000000253
  0
LWPOLYLINE
  5
612
100
AcDbEntity
  8
SUPERFICI
100
AcDbPolyline
 62
250
  6
CONTINUOUS
 90
9
 70
0
 10
-146.610530247
 20
-36.9214455002
 10
-146.6094322269
 20
-36.7666120779
 10
-146.6092160038
 20
-36.6048663698
 10
-146.6099357518
 20
-36.4361103698
 10
-146.6116431307
 20
-36.2605944908
 10
-146.6143783237
 20
-36.0789388105
 10
-146.6181759439
 20
-35.8915025037
 10
-146.6230734493
 20
-35.6983683812
 10
-146.6291032633
 20
-35.499824024
  0
LINE
  5
613
100
AcDbEntity
  8
COPY_GEOM
100
AcDbLine
 62
250
  6
CONTINUOUS
 10
-144.6866272778
 20
36.3503653232
 11
-144.6832659922
 21
36.7291609788
  0
LINE
  5
614
100
AcDbEntity
  8
SUPERFICI
100
AcDbLine
 62
250
  6
CONTINUOUS
 10
-144.694169094
 20
-38.9994213838
 11
-144.683418693
 21
-37.7012801361
  0
LWPOLYLINE
  5
615
100
AcDbEntity
  8
SUPERFICI
100
AcDbPolyline
 62
250
  6
CONTINUOUS
 90
9
 70
0
 10
-146.635027455
 20
-38.3772950641
 10
-146.6456721758
 20
-39.2134703126
 10
-146.6483840796
 20
-39.3180734288
 10
-146.6520780389
 20
-39.4028874703
 10
-146.6566286679
 20
-39.4707633474
 10
-146.6625763926
 20
-39.5215929888
 10
-146.6700952956
 20
-39.5562202908
 10
-146.6789954344
 20
-39.5764870267
 10
-146.6892671213
 20
-39.5834588108
  0
LINE
  5
616
100
AcDbEntity
  8
COPY_GEOM
100
AcDbLine
 62
250
  6
CONTINUOUS
 10
-144.6917333
 20
35.9922288388
 11
-144.6866272778
 21
36.3503653232
  0
LINE
  5
617
100
AcDbEntity
  8
SUPERFICI
100
AcDbLine
 62
250
  6
CONTINUOUS
 10
-146.610530247
 20
-36.9214455002
 11
-146.6202621173
 21
-37.5685837343
  0
LWPOLYLINE
  5
618
100
AcDbEntity
  8
SUPERFICI
100
AcDbPolyline
 62
250
  6
CONTINUOUS
 90
3
 70
0
 10
-146.6202621173
 20
-37.5685837343
 10
-146.6327026045
 20
-38.2580169603
 10
-146.635027455
 20
-38.3772950641
  0
LWPOLYLINE
  5
619
100
AcDbEntity
  8
COPY_GEOM
100
AcDbPolyline
 62
250
  6
CONTINUOUS
 90
3
 70
0
 10
-144.7020869
 20
35.5000000253
 10
-144.6982656639
 20
35.6578641961
 10
-144.6917333
 20
35.9922288388
  0
LINE
  5
61A
100
AcDbEntity
  8
RACCORDO
100
AcDbLine
 62
250
  6
CONTINUOUS
 10
-136.2662385975
 20
-26.5854295671
 11
-136.4662385975
 21
-26.5825366358
  0
LINE
  5
61B
100
AcDbEntity
  8
RACCORDO
100
AcDbLine
 62
250
  6
CONTINUOUS
 10
-136.2662385975
 20
-25.1720775054
 11
-136.4662385975
 21
-25.1691845741
  0
LWPOLYLINE
  5
61C
100
AcDbEntity
  8
SCATOLA
100
AcDbPolyline
 62
7
  6
CONTINUOUS
 90
13
 70
0
 10
-92.166238589
 20
-29.3999999747
 10
-92.206375441
 20
-29.3971048336
 10
-92.244599429
 20
-29.3895098648
 10
-92.2809105532
 20
-29.3772150683
 10
-92.3158700922
 20
-29.3598528379
 10
-92.3489167672
 20
-29.3377907797
 10
-92.3783667422
 20
-29.3121317133
 10
-92.4040265022
 20
-29.2826819787
 10
-92.4260895621
 20
-29.2496352358
 10
-92.4434526307
 20
-29.2146752833
 10
-92.4557479443
 20
-29.1783633873
 10
-92.4633432665
 20
-29.1401382817
 10
-92.4662385975
 20
-29.0999999665
  0
LWPOLYLINE
  5
61D
100
AcDbEntity
  8
SUPERFICI
100
AcDbPolyline
 62
250
  6
CONTINUOUS
 90
7
 70
0
 10
-144.7368302772
 20
-41.0554013753
 10
-144.7297228026
 20
-40.9744081988
 10
-144.7243686853
 20
-40.8706984059
 10
-144.7198039052
 20
-40.7446695299
 10
-144.7159272962
 20
-40.5967395992
 10
-144.7128400245
 20
-40.4275281398
 10
-144.694169094
 20
-38.9994213838
  0
LWPOLYLINE
  5
61E
100
AcDbEntity
  8
SUPERFICI
100
AcDbPolyline
 62
7
  6
CONTINUOUS
 90
8
 70
0
 10
-148.5288108373
 20
-28.5051610952
 10
-148.532898263
 20
-28.5247296658
 10
-148.5360004414
 20
-28.5391733871
 10
-148.5391520017
 20
-28.5535123906
 10
-148.5423520948
 20
-28.5677486931
 10
-148.5455988847
 20
-28.5818798339
 10
-148.5488907796
 20
-28.595904537
 10
-148.5522266511
 20
-28.6098234941
  0
LWPOLYLINE
  5
61F
100
AcDbEntity
  8
SUPERFICI
100
AcDbPolyline
 62
7
  6
CONTINUOUS
 90
4
 70
0
 10
-148.5522266511
 20
-28.6098234941
 10
-148.5556053588
 20
-28.6236372484
 10
-148.5590258102
 20
-28.6373464465
 10
-148.5624864865
 20
-28.6509499849
  0
LWPOLYLINE
  5
620
100
AcDbEntity
  8
SUPERFICI
100
AcDbPolyline
 62
7
  6
CONTINUOUS
 90
4
 70
0
 10
-148.5624864865
 20
-28.6509499849
 10
-148.5659856049
 20
-28.6644457946
 10
-148.569522043
 20
-28.6778343993
 10
-148.5730943106
 20
-28.6911148937
  0
LINE
  5
621
100
AcDbEntity
  8
SUPERFICI
100
AcDbLine
 62
7
  6
CONTINUOUS
 10
-148.5730943106
 20
-28.6911148937
 11
-148.5793089109
 21
-28.7136136857
  0
LINE
  5
622
100
AcDbEntity
  8
SUPERFICI
100
AcDbLine
 62
7
  6
CONTINUOUS
 10
-148.576699988
 20
-28.70428304
 11
-148.5818973871
 21
-28.7228151012
  0
LINE
  5
623
100
AcDbEntity
  8
SUPERFICI
100
AcDbLine
 62
7
  6
CONTINUOUS
 10
-148.580343705
 20
-28.7173599409
 11
-148.5869330036
 21
-28.7404044431
  0
LINE
  5
624
100
AcDbEntity
  8
SUPERFICI
100
AcDbLine
 62
7
  6
CONTINUOUS
 10
-148.5840183277
 20
-28.730324099
 11
-148.587702828
 21
-28.7431075989
  0
LINE
  5
625
100
AcDbEntity
  8
SCATOLA
100
AcDbLine
 62
250
  6
CONTINUOUS
 10
-93.1140410279
 20
-23.8999999747
 11
-92.4662385975
 21
-23.8999999831
  0
LINE
  5
626
100
AcDbEntity
  8
SCATOLA
100
AcDbLine
 62
7
  6
CONTINUOUS
 10
-92.1662385891
 20
-23.5999999747
 11
-87.3671377023
 21
-23.5999999747
  0
LINE
  5
627
100
AcDbEntity
  8
SCATOLA
100
AcDbLine
 62
250
  6
CONTINUOUS
 10
-86.6687111356
 20
-23.5999999747
 11
-87.3671377023
 21
-23.5999999747
  0
LINE
  5
628
100
AcDbEntity
  8
RACCORDO
100
AcDbLine
 62
250
  6
CONTINUOUS
 10
-150.2662385975
 20
-22.1999988015
 11
-149.2662385975
 21
-22.1999988257
  0
LINE
  5
629
100
AcDbEntity
  8
SCATOLA
100
AcDbLine
 62
250
  6
CONTINUOUS
 10
-92.154021913
 20
-22.9461426439
 11
-90.1845304622
 21
-22.9603419487
  0
LWPOLYLINE
  5
62A
100
AcDbEntity
  8
SUPERFICI
100
AcDbPolyline
 62
250
  6
CONTINUOUS
 90
3
 70
0
 10
-148.4662389568
 20
-22.200146042
 10
-148.4738400663
 20
-22.2000850015
 10
-149.2659023965
 20
-22.200001448
  0
LINE
  5
62B
100
AcDbEntity
  8
SCATOLA
100
AcDbLine
 62
250
  6
CONTINUOUS
 10
-90.1845304622
 20
-22.9603419487
 11
-88.2323720283
 21
-22.976604732
  0
LWPOLYLINE
  5
62C
100
AcDbEntity
  8
SCATOLA
100
AcDbPolyline
 62
250
  6
CONTINUOUS
 90
28
 70
0
 10
-88.2323720283
 20
-22.976604732
 10
-87.6660781699
 20
-22.9817399207
 10
-87.5858141283
 20
-22.983750015
 10
-87.5066788433
 20
-22.9870318193
 10
-87.4289536961
 20
-22.9915069135
 10
-87.35319169
 20
-22.9972537177
 10
-87.2801790891
 20
-23.0045074922
 10
-87.2100359469
 20
-23.0133147046
 10
-87.143298526
 20
-23.0236288873
 10
-87.0811647413
 20
-23.035545898
 10
-87.0237418344
 20
-23.0491401635
 10
-86.9710396497
 20
-23.0643372569
 10
-86.92374634
 20
-23.0810097555
 10
-86.8817844221
 20
-23.0991637193
 10
-86.844739824
 20
-23.1187930883
 10
-86.8125249162
 20
-23.1397522596
 10
-86.7848359455
 20
-23.1620365501
 10
-86.7612215019
 20
-23.185650643
 10
-86.7412962669
 20
-23.2104629848
 10
-86.7246358992
 20
-23.2364962263
 10
-86.7109260966
 20
-23.2637277167
 10
-86.6999091818
 20
-23.291957951
 10
-86.6911961651
 20
-23.3213346184
 10
-86.6844305793
 20
-23.3517100297
 10
-86.6793516104
 20
-23.3824416124
 10
-86.6756472809
 20
-23.4133151756
 10
-86.6730027518
 20
-23.4445449101
 10
-86.6711746374
 20
-23.4761308159
  0
LWPOLYLINE
  5
62D
100
AcDbEntity
  8
DRAFT
100
AcDbPolyline
 62
7
  6
CONTINUOUS
 90
7
 70
0
 10
-147.9661767329
 20
31.2693848321
 10
-147.9745153968
 20
31.3232693806
 10
-147.9820902707
 20
31.381618022
 10
-147.9888418535
 20
31.4443022796
 10
-147.9948296463
 20
31.5111758194
 10
-148.0001201144
 20
31.5822172001
 10
-148.0047516414
 20
31.6573084525
  0
LINE
  5
62E
100
AcDbEntity
  8
DRAFT
100
AcDbLine
 62
7
  6
CONTINUOUS
 10
-138.7662385975
 20
26.7403992528
 11
-138.7662385975
 21
26.4389328987
  0
LINE
  5
62F
100
AcDbEntity
  8
DRAFT
100
AcDbLine
 62
7
  6
CONTINUOUS
 10
-136.4662385975
 20
25.1110272795
 11
-136.4662385975
 21
-35.5000122604
  0
LINE
  5
630
100
AcDbEntity
  8
SUPERFICI
100
AcDbLine
 62
7
  6
CONTINUOUS
 10
-136.4662385975
 20
-41.3045030897
 11
-136.4662385975
 21
-35.5000122604
  0
LINE
  5
631
100
AcDbEntity
  8
RACCORDO
100
AcDbLine
 62
7
  6
CONTINUOUS
 10
-136.2662385975
 20
25.3000000253
 11
-136.2662385975
 21
-40.816645629
  0
LINE
  5
632
100
AcDbEntity
  8
SUPERFICI
100
AcDbLine
 62
7
  6
CONTINUOUS
 10
-148.5851634592
 20
-28.7342691714
 11
-148.5914123141
 21
-28.7557692123
  0
LINE
  5
633
100
AcDbEntity
  8
SUPERFICI
100
AcDbLine
 62
7
  6
CONTINUOUS
 10
-148.5895665071
 20
-28.7494462137
 11
-148.59512778
 21
-28.768250266
  0
LINE
  5
634
100
AcDbEntity
  8
SUPERFICI
100
AcDbLine
 62
7
  6
CONTINUOUS
 10
-148.59512778
 20
-28.768250266
 11
-148.6023353711
 21
-28.7918724132
  0
LINE
  5
635
100
AcDbEntity
  8
SUPERFICI
100
AcDbLine
 62
7
  6
CONTINUOUS
 10
-148.6009240256
 20
-28.787292407
 11
-148.6071790623
 21
-28.8073968459
  0
LINE
  5
636
100
AcDbEntity
  8
SUPERFICI
100
AcDbLine
 62
7
  6
CONTINUOUS
 10
-148.6058564959
 20
-28.8032341512
 11
-148.6146388269
 21
-28.8307451941
  0
LINE
  5
637
100
AcDbEntity
  8
SUPERFICI
100
AcDbLine
 62
7
  6
CONTINUOUS
 10
-148.6085510962
 20
-28.8117785774
 11
-148.6151166783
 21
-28.8322676807
  0
LINE
  5
638
100
AcDbEntity
  8
SUPERFICI
100
AcDbLine
 62
7
  6
CONTINUOUS
 10
-148.6139472943
 20
-28.828608266
 11
-148.6198993726
 21
-28.8468745373
  0
LINE
  5
639
100
AcDbEntity
  8
SUPERFICI
100
AcDbLine
 62
7
  6
CONTINUOUS
 10
-148.6175421599
 20
-28.8396575996
 11
-148.6254054022
 21
-28.8633316877
  0
LINE
  5
63A
100
AcDbEntity
  8
SUPERFICI
100
AcDbLine
 62
7
  6
CONTINUOUS
 10
-148.6241402756
 20
-28.859567131
 11
-148.6311201801
 21
-28.8801821382
  0
LINE
  5
63B
100
AcDbEntity
  8
SUPERFICI
100
AcDbLine
 62
7
  6
CONTINUOUS
 10
-148.6293515911
 20
-28.8749685972
 11
-148.6359754119
 21
-28.8942002158
  0
LINE
  5
63C
100
AcDbEntity
  8
SUPERFICI
100
AcDbLine
 62
7
  6
CONTINUOUS
 10
-148.6344313973
 20
-28.8897202059
 11
-148.6403112299
 21
-28.9065279063
  0
LINE
  5
63D
100
AcDbEntity
  8
SUPERFICI
100
AcDbLine
 62
7
  6
CONTINUOUS
 10
-148.6398477279
 20
-28.9051776114
 11
-148.6477650734
 21
-28.9272935513
  0
LINE
  5
63E
100
AcDbEntity
  8
SUPERFICI
100
AcDbLine
 62
7
  6
CONTINUOUS
 10
-148.645768088
 20
-28.9217672821
 11
-148.6542345885
 21
-28.9449646046
  0
LINE
  5
63F
100
AcDbEntity
  8
SUPERFICI
100
AcDbLine
 62
7
  6
CONTINUOUS
 10
-148.6518373835
 20
-28.9384575167
 11
-148.6603992289
 21
-28.961484907
  0
LINE
  5
640
100
AcDbEntity
  8
SUPERFICI
100
AcDbLine
 62
7
  6
CONTINUOUS
 10
-148.6580897949
 20
-28.9553314011
 11
-148.6663858357
 21
-28.9772443449
  0
LINE
  5
641
100
AcDbEntity
  8
SUPERFICI
100
AcDbLine
 62
7
  6
CONTINUOUS
 10
-148.6644993862
 20
-28.9723078016
 11
-148.6726075469
 21
-28.9933576908
  0
LINE
  5
642
100
AcDbEntity
  8
SUPERFICI
100
AcDbLine
 62
7
  6
CONTINUOUS
 10
-148.6705823923
 20
-28.9881311853
 11
-148.6775762035
 21
-29.0060061737
  0
LINE
  5
643
100
AcDbEntity
  8
RACCORDO
100
AcDbLine
 62
250
  6
CONTINUOUS
 10
-135.7749648007
 20
25.0169478663
 11
-135.7749648007
 21
-41.3165694765
  0
LINE
  5
644
100
AcDbEntity
  8
SUPERFICI
100
AcDbLine
 62
7
  6
CONTINUOUS
 10
-148.6761909921
 20
-29.0024820808
 11
-148.6835665242
 21
-29.0210262634
  0
LINE
  5
645
100
AcDbEntity
  8
SUPERFICI
100
AcDbLine
 62
7
  6
CONTINUOUS
 10
-148.6814354168
 20
-29.0157017418
 11
-148.6893473639
 21
-29.0352947979
  0
LINE
  5
646
100
AcDbEntity
  8
SUPERFICI
100
AcDbLine
 62
7
  6
CONTINUOUS
 10
-148.6863668195
 20
-29.0279623098
 11
-148.6898669122
 21
-29.0365679605
  0
LINE
  5
647
100
AcDbEntity
  8
SCATOLA
100
AcDbLine
 62
7
  6
CONTINUOUS
 10
-86.1662385975
 20
-16.9999999747
 11
-86.6662385975
 21
-16.9999999747
  0
LINE
  5
648
100
AcDbEntity
  8
SCATOLA
100
AcDbLine
 62
7
  6
CONTINUOUS
 10
-86.6662385975
 20
-16.4999999747
 11
-86.4662385975
 21
-16.4999999747
  0
LWPOLYLINE
  5
649
100
AcDbEntity
  8
SCATOLA
100
AcDbPolyline
 62
7
  6
CONTINUOUS
 90
25
 70
0
 10
-101.6662385975
 20
-11.4999999747
 10
-100.9153134932
 20
-11.4751333247
 10
-100.164388389
 20
-11.4011623912
 10
-99.4230415961
 20
-11.2790306994
 10
-98.6913958111
 20
-11.1081213188
 10
-97.9693283374
 20
-10.8890511799
 10
-97.2660493975
 20
-10.6246145986
 10
-96.5817996689
 20
-10.3142304392
 10
-95.916338474
 20
-9.9584798375
 10
-95.2781540022
 20
-9.5619005162
 10
-94.6675956633
 20
-9.1239694672
 10
-94.0843140476
 20
-8.6452096987
 10
-93.5357491154
 20
-8.1317279584
 10
-93.0223455809
 20
-7.5830794643
 10
-92.5436587298
 20
-6.9997089985
 10
-92.1057943798
 20
-6.3890576545
 10
-91.7092754595
 20
-5.7507759693
 10
-91.3535790402
 20
-5.085213406
 10
-91.0432421539
 20
-4.4008594469
 10
-90.7788458475
 20
-3.6974733779
 10
-90.5598090741
 20
-2.9752959131
 10
-90.3889257239
 20
-2.2435386779
 10
-90.2671270937
 20
-1.505272214
 10
-90.1934818868
 20
-0.7574259796
 10
-90.1679901032
 20
0.0000000253
  0
LINE
  5
64A
100
AcDbEntity
  8
0
100
AcDbLine
 62
7
  6
CONTINUOUS
 10
-125.2662385975
 20
-41.4999999747
 11
-125.2662385975
 21
41.5000000253
  0
LINE
  5
64B
100
AcDbEntity
  8
COPY_GEOM
100
AcDbLine
 62
7
  6
CONTINUOUS
 10
-125.2662385975
 20
-41.4999999747
 11
-125.2662385975
 21
41.5000000253
  0
LINE
  5
64C
100
AcDbEntity
  8
SCATOLA
100
AcDbLine
 62
7
  6
CONTINUOUS
 10
-123.6662385975
 20
41.5000000253
 11
-123.6662385975
 21
-41.4999999747
  0
LINE
  5
64D
100
AcDbEntity
  8
ASSI
100
AcDbLine
 62
7
  6
CONTINUOUS
 10
-123.6662385975
 20
-41.4999999747
 11
-123.6662385975
 21
41.5000000253
  0
LINE
  5
64E
100
AcDbEntity
  8
SCATOLA
100
AcDbLine
 62
7
  6
CONTINUOUS
 10
-86.4662385975
 20
-4.7999999747
 11
-86.1662385975
 21
-4.7999999747
  0
LWPOLYLINE
  5
64F
100
AcDbEntity
  8
DRAFT
100
AcDbPolyline
 62
7
  6
CONTINUOUS
 90
7
 70
0
 10
-147.4199336218
 20
31.0033567712
 10
-147.4244693841
 20
31.0099852047
 10
-147.4348023883
 20
31.0400917424
 10
-147.444464898
 20
31.09043521
 10
-147.4536396682
 20
31.1613146826
 10
-147.462143944
 20
31.2523591625
 10
-147.4653178511
 20
31.3000000253
  0
LWPOLYLINE
  5
650
100
AcDbEntity
  8
0
100
AcDbPolyline
 62
7
  6
CONTINUOUS
 90
4
 70
0
 43
0.3500000006
 10
-160.9317268066
 20
-2.2499998741
 10
-161.7888647461
 20
-2.2499998741
 10
-162.2174518433
 20
-1.8214286385
 10
-162.2174518433
 20
-1.178571785
  0
LINE
  5
651
100
AcDbEntity
  8
SCATOLA
100
AcDbLine
 62
7
  6
CONTINUOUS
 10
-86.6662385975
 20
-1.8039302338
 11
-86.4662385975
 21
-1.8039299747
  0
LINE
  5
652
100
AcDbEntity
  8
SCATOLA
100
AcDbLine
 62
7
  6
CONTINUOUS
 10
-86.6662385975
 20
-1.6038029692
 11
-86.4662385975
 21
-1.6038029747
  0
LINE
  5
653
100
AcDbEntity
  8
SCATOLA
100
AcDbLine
 62
7
  6
CONTINUOUS
 10
-86.6662385975
 20
-1.5761209747
 11
-86.4662385975
 21
-1.5761209747
  0
LINE
  5
654
100
AcDbEntity
  8
SCATOLA
100
AcDbLine
 62
7
  6
CONTINUOUS
 10
-86.6662385975
 20
-0.1150889747
 11
-86.4662385975
 21
-0.1150889747
  0
LINE
  5
655
100
AcDbEntity
  8
SCATOLA
100
AcDbLine
 62
7
  6
CONTINUOUS
 10
-86.4662385975
 20
-0.015090974
 11
-86.6662385975
 21
-0.015090974
  0
LINE
  5
656
100
AcDbEntity
  8
SUPERFICI
100
AcDbLine
 62
7
  6
CONTINUOUS
 10
-148.4662805548
 20
0.0000000276
 11
-148.4662337435
 21
0.0000000272
  0
LINE
  5
657
100
AcDbEntity
  8
SUPERFICI
100
AcDbLine
 62
250
  6
CONTINUOUS
 10
-148.4662805464
 20
0.0000000276
 11
-144.8011485347
 21
0.0000000253
  0
LINE
  5
658
100
AcDbEntity
  8
SCATOLA
100
AcDbLine
 62
7
  6
CONTINUOUS
 10
-86.6662385975
 20
0.4588525282
 11
-86.4662385975
 21
0.4588530253
  0
LINE
  5
659
100
AcDbEntity
  8
SCATOLA
100
AcDbLine
 62
7
  6
CONTINUOUS
 10
-86.6662385975
 20
0.5757353137
 11
-86.4662385975
 21
0.5757350253
  0
LINE
  5
65A
100
AcDbEntity
  8
SCATOLA
100
AcDbLine
 62
7
  6
CONTINUOUS
 10
-86.6662385975
 20
2.2215146207
 11
-86.4662385975
 21
2.2215146207
  0
LINE
  5
65B
100
AcDbEntity
  8
SCATOLA
100
AcDbLine
 62
7
  6
CONTINUOUS
 10
-86.4662385975
 20
2.3010943554
 11
-86.5938670867
 21
2.3010943373
  0
LINE
  5
65C
100
AcDbEntity
  8
COPY_GEOM
100
AcDbLine
 62
250
  6
CONTINUOUS
 10
-146.801655023
 20
39.6644216387
 11
-146.8067634132
 21
39.6714219873
  0
LWPOLYLINE
  5
65D
100
AcDbEntity
  8
SCATOLA
100
AcDbPolyline
 62
7
  6
CONTINUOUS
 90
25
 70
0
 10
-113.1644870918
 20
0.0000000253
 10
-113.1389953082
 20
-0.7574259796
 10
-113.0653501013
 20
-1.505272214
 10
-112.9435514711
 20
-2.2435386779
 10
-112.7726681209
 20
-2.9752959131
 10
-112.5536313474
 20
-3.6974733779
 10
-112.2892350411
 20
-4.4008594469
 10
-111.9788981547
 20
-5.085213406
 10
-111.6232017355
 20
-5.7507759693
 10
-111.2266828152
 20
-6.3890576545
 10
-110.7888184652
 20
-6.9997089985
 10
-110.3101316141
 20
-7.5830794643
 10
-109.7967280796
 20
-8.1317279584
 10
-109.2481631473
 20
-8.6452096987
 10
-108.6648815317
 20
-9.1239694672
 10
-108.0543231928
 20
-9.5619005162
 10
-107.416138721
 20
-9.9584798375
 10
-106.7506775261
 20
-10.3142304392
 10
-106.0664277975
 20
-10.6246145986
 10
-105.3631488575
 20
-10.8890511799
 10
-104.6410813839
 20
-11.1081213188
 10
-103.9094355989
 20
-11.2790306994
 10
-103.168088806
 20
-11.4011623912
 10
-102.4171637018
 20
-11.4751333247
 10
-101.6662385975
 20
-11.4999999747
  0
LINE
  5
65E
100
AcDbEntity
  8
SCATOLA
100
AcDbLine
 62
7
  6
CONTINUOUS
 10
-86.4662385975
 20
4.8000000253
 11
-86.1662385975
 21
4.8000000253
  0
LWPOLYLINE
  5
65F
100
AcDbEntity
  8
SCATOLA
100
AcDbPolyline
 62
7
  6
CONTINUOUS
 90
25
 70
0
 10
-101.6662385975
 20
11.5000000253
 10
-102.4171637018
 20
11.4751333752
 10
-103.168088806
 20
11.4011624417
 10
-103.9094355989
 20
11.2790307499
 10
-104.6410813839
 20
11.1081213694
 10
-105.3631488575
 20
10.8890512305
 10
-106.0664277975
 20
10.6246146491
 10
-106.7506775261
 20
10.3142304898
 10
-107.416138721
 20
9.958479888
 10
-108.0543231928
 20
9.5619005667
 10
-108.6648815317
 20
9.1239695177
 10
-109.2481631473
 20
8.6452097492
 10
-109.7967280796
 20
8.1317280089
 10
-110.3101316141
 20
7.5830795149
 10
-110.7888184652
 20
6.999709049
 10
-111.2266828152
 20
6.389057705
 10
-111.6232017355
 20
5.7507760198
 10
-111.9788981547
 20
5.0852134565
 10
-112.2892350411
 20
4.4008594975
 10
-112.5536313474
 20
3.6974734284
 10
-112.7726681209
 20
2.9752959637
 10
-112.9435514711
 20
2.2435387285
 10
-113.0653501013
 20
1.5052722645
 10
-113.1389953082
 20
0.7574260301
 10
-113.1644870918
 20
0.0000000253
  0
LWPOLYLINE
  5
660
100
AcDbEntity
  8
SCATOLA
100
AcDbPolyline
 62
250
  6
CONTINUOUS
 90
10
 70
0
 10
-86.6822804162
 20
-29.6367716967
 10
-86.7081871777
 20
-29.5993467591
 10
-86.7503547229
 20
-29.5628384847
 10
-86.8077502261
 20
-29.5281410847
 10
-86.8789678774
 20
-29.4961044157
 10
-86.9622633157
 20
-29.4675131641
 10
-87.055596354
 20
-29.4430676262
 10
-87.1566809507
 20
-29.423366556
 10
-87.2630412021
 20
-29.4088924993
 10
-87.3720719861
 20
-29.3999999747
  0
LWPOLYLINE
  5
661
100
AcDbEntity
  8
SUPERFICI
100
AcDbPolyline
 62
250
  6
CONTINUOUS
 90
4
 70
0
 10
-144.7695711557
 20
-41.1595680146
 10
-144.756947978
 20
-41.1481325853
 10
-144.746012449
 20
-41.1133757231
 10
-144.7368302772
 20
-41.0554013753
  0
LINE
  5
662
100
AcDbEntity
  8
RACCORDO
100
AcDbLine
 62
7
  6
CONTINUOUS
 10
-144.7934837071
 20
30.2130549328
 11
-135.7749648007
 21
25.0169478663
  0
LINE
  5
663
100
AcDbEntity
  8
COPY_GEOM
100
AcDbLine
 62
7
  6
CONTINUOUS
 10
-144.7934837071
 20
30.2130549328
 11
-146.67697805
 21
31.2982484514
  0
LINE
  5
664
100
AcDbEntity
  8
DRAFT
100
AcDbLine
 62
7
  6
CONTINUOUS
 10
-136.4662385975
 20
25.1110272795
 11
-146.6662385975
 21
31.0000000253
  0
LINE
  5
665
100
AcDbEntity
  8
SUPERFICI
100
AcDbLine
 62
250
  6
CONTINUOUS
 10
-146.7334748007
 20
-39.6155623944
 11
-146.6892679256
 21
-39.5834589852
  0
LINE
  5
666
100
AcDbEntity
  8
SCATOLA
100
AcDbLine
 62
7
  6
CONTINUOUS
 10
-86.6662385975
 20
16.5000000253
 11
-86.4662385975
 21
16.5000000253
  0
LINE
  5
667
100
AcDbEntity
  8
SCATOLA
100
AcDbLine
 62
7
  6
CONTINUOUS
 10
-86.6662385975
 20
17.0000000253
 11
-86.1662385975
 21
17.0000000253
  0
LWPOLYLINE
  5
668
100
AcDbEntity
  8
COPY_GEOM
100
AcDbPolyline
 62
250
  6
CONTINUOUS
 90
9
 70
0
 10
-146.6838689671
 20
39.5797630238
 10
-146.707650246
 20
39.5964433901
 10
-146.7286490041
 20
39.60979171
 10
-146.7469113901
 20
39.6209300341
 10
-146.7622510174
 20
39.6318233339
 10
-146.7749265271
 20
39.6425102292
 10
-146.7856349821
 20
39.6512073466
 10
-146.79461522
 20
39.6579379016
 10
-146.801655023
 20
39.6644216387
  0
LINE
  5
669
100
AcDbEntity
  8
RACCORDO
100
AcDbLine
 62
250
  6
CONTINUOUS
 10
-136.2662385975
 20
22.2000000253
 11
-136.4662385975
 21
22.2000000253
  0
LINE
  5
66A
100
AcDbEntity
  8
RACCORDO
100
AcDbLine
 62
250
  6
CONTINUOUS
 10
-150.2662385975
 20
22.1999945148
 11
-149.2662385975
 21
22.1999953198
  0
LWPOLYLINE
  5
66B
100
AcDbEntity
  8
DRAFT
100
AcDbPolyline
 62
7
  6
CONTINUOUS
 90
11
 70
0
 10
-147.8488572667
 20
31.0000000253
 10
-147.8632469743
 20
31.0028993435
 10
-147.8770514208
 20
31.0115114569
 10
-147.8902706063
 20
31.0256998436
 10
-147.9029085649
 20
31.0453041421
 10
-147.9149612624
 20
31.0701766062
 10
-147.9264165966
 20
31.1002171679
 10
-147.937288663
 20
31.1352928575
 10
-147.947563366
 20
31.1752502891
 10
-147.9571863171
 20
31.2199984844
 10
-147.9661767329
 20
31.2693848321
  0
LWPOLYLINE
  5
66C
100
AcDbEntity
  8
SCATOLA
100
AcDbPolyline
 62
7
  6
CONTINUOUS
 90
43
 70
0
 10
-91.1265668323
 20
0.0000000253
 10
-91.1574259303
 20
0.7956117829
 10
-91.2455826771
 20
1.578143734
 10
-91.3910370725
 20
2.3475958785
 10
-91.595238003
 20
3.1081095267
 10
-91.8567365823
 20
3.8555433683
 10
-92.1711861511
 20
4.577473473
 10
-92.5394717706
 20
5.2734735527
 10
-92.9607083798
 20
5.9439698956
 10
-93.4278941355
 20
6.5778174349
 10
-93.9417970653
 20
7.174403596
 10
-94.5016491418
 20
7.7343409537
 10
-95.09814444
 20
8.2483221653
 10
-95.7318954413
 20
8.7155790866
 10
-96.4022896643
 20
9.1368798618
 10
-97.0981837398
 20
9.5052215816
 10
-97.8200038911
 20
9.8197190499
 10
-98.5673238949
 20
10.0812574627
 10
-99.3277217131
 20
10.2854894988
 10
-100.1014159379
 20
10.4314572978
 10
-100.888187977
 20
10.52011872
 10
-101.6749600162
 20
10.5500000253
 10
-102.4617320553
 20
10.52011872
 10
-103.2485040944
 20
10.4314572978
 10
-104.0221983192
 20
10.2854894988
 10
-104.7825961374
 20
10.0812574627
 10
-105.5299161412
 20
9.8197190499
 10
-106.2517362925
 20
9.5052215816
 10
-106.9476303681
 20
9.1368798618
 10
-107.618024591
 20
8.7155790866
 10
-108.2517755923
 20
8.2483221653
 10
-108.8482708905
 20
7.7343409537
 10
-109.408122967
 20
7.174403596
 10
-109.9220258968
 20
6.5778174349
 10
-110.3892116526
 20
5.9439698956
 10
-110.8104482617
 20
5.2734735527
 10
-111.1787338812
 20
4.577473473
 10
-111.49318345
 20
3.8555433683
 10
-111.7546820293
 20
3.1081095267
 10
-111.9588829598
 20
2.3475958785
 10
-112.1043373553
 20
1.578143734
 10
-112.192494102
 20
0.7956117829
 10
-112.2233532001
 20
0.0000000253
  0
LWPOLYLINE
  5
66D
100
AcDbEntity
  8
SCATOLA
100
AcDbPolyline
 62
7
  6
CONTINUOUS
 90
46
 70
0
 10
-90.4388901302
 20
0.0000000253
 10
-90.4673951055
 20
0.791027289
 10
-90.5493291219
 20
1.5706961296
 10
-90.6846921794
 20
2.339006547
 10
-90.8746605252
 20
3.0995792097
 10
-91.118057912
 20
3.8487934492
 10
-91.4113555979
 20
4.5757872599
 10
-91.7552805436
 20
5.2802369286
 10
-92.1491057883
 20
5.9624661686
 10
-92.5871217075
 20
6.6125841136
 10
-93.0699720827
 20
7.2301229576
 10
-93.5970131323
 20
7.8155505065
 10
-94.1606038872
 20
8.3603793119
 10
-94.7612768134
 20
8.8640179204
 10
-95.398499445
 20
9.3270577852
 10
-96.0630334154
 20
9.7427858178
 10
-96.7552766034
 20
10.1105127669
 10
-97.4748311303
 20
10.4309278836
 10
-98.2112649928
 20
10.6993858336
 10
-98.9648240936
 20
10.9151296909
 10
-99.73526253
 20
11.0789163815
 10
-100.5114105911
 20
11.1883713482
 10
-101.2933514559
 20
11.242703072
 10
-102.0810019454
 20
11.242703072
 10
-102.8629428103
 20
11.1883713482
 10
-103.6390908713
 20
11.0789163815
 10
-104.4095293077
 20
10.9151296909
 10
-105.1630884085
 20
10.6993858336
 10
-105.899522271
 20
10.4309278836
 10
-106.6190767979
 20
10.1105127669
 10
-107.3113199859
 20
9.7427858178
 10
-107.9758539563
 20
9.3270577852
 10
-108.6130765879
 20
8.8640179204
 10
-109.2137495141
 20
8.3603793119
 10
-109.7773402691
 20
7.8155505065
 10
-110.3043813187
 20
7.2301229576
 10
-110.7872316938
 20
6.6125841136
 10
-111.225247613
 20
5.9624661686
 10
-111.6190728577
 20
5.2802369286
 10
-111.9629978034
 20
4.5757872599
 10
-112.2562954893
 20
3.8487934492
 10
-112.4996928761
 20
3.0995792097
 10
-112.689661222
 20
2.339006547
 10
-112.8250242794
 20
1.5706961296
 10
-112.9069582958
 20
0.791027289
 10
-112.9354632712
 20
0.0000000253
  0
LWPOLYLINE
  5
66E
100
AcDbEntity
  8
SCATOLA
100
AcDbPolyline
 62
7
  6
CONTINUOUS
 90
25
 70
0
 10
-90.1679901032
 20
0.0000000253
 10
-90.1934818868
 20
0.7574260301
 10
-90.2671270937
 20
1.5052722645
 10
-90.3889257239
 20
2.2435387285
 10
-90.5598090741
 20
2.9752959637
 10
-90.7788458475
 20
3.6974734284
 10
-91.0432421539
 20
4.4008594975
 10
-91.3535790402
 20
5.0852134565
 10
-91.7092754595
 20
5.7507760198
 10
-92.1057943798
 20
6.389057705
 10
-92.5436587298
 20
6.999709049
 10
-93.0223455809
 20
7.5830795149
 10
-93.5357491154
 20
8.1317280089
 10
-94.0843140476
 20
8.6452097492
 10
-94.6675956633
 20
9.1239695177
 10
-95.2781540022
 20
9.5619005667
 10
-95.916338474
 20
9.958479888
 10
-96.5817996689
 20
10.3142304898
 10
-97.2660493975
 20
10.6246146491
 10
-97.9693283374
 20
10.8890512305
 10
-98.6913958111
 20
11.1081213694
 10
-99.4230415961
 20
11.2790307499
 10
-100.164388389
 20
11.4011624417
 10
-100.9153134932
 20
11.4751333752
 10
-101.6662385975
 20
11.5000000253
  0
LWPOLYLINE
  5
66F
100
AcDbEntity
  8
SCATOLA
100
AcDbPolyline
 62
250
  6
CONTINUOUS
 90
4
 70
0
 10
-92.1611224359
 20
-29.5498603111
 10
-92.1627760212
 20
-29.4894942698
 10
-92.1644916555
 20
-29.4392424274
 10
-92.166238589
 20
-29.4000053374
  0
LINE
  5
670
100
AcDbEntity
  8
SCATOLA
100
AcDbLine
 62
250
  6
CONTINUOUS
 10
-92.1581183192
 20
-29.6964458907
 11
-92.1611224359
 21
-29.5498603111
  0
LINE
  5
671
100
AcDbEntity
  8
SCATOLA
100
AcDbLine
 62
250
  6
CONTINUOUS
 10
-92.1556937157
 20
-29.868538517
 11
-92.1581183192
 21
-29.6964458907
  0
LINE
  5
672
100
AcDbEntity
  8
SCATOLA
100
AcDbLine
 62
250
  6
CONTINUOUS
 10
-92.1540216754
 20
-30.0538573051
 11
-92.1556937157
 21
-29.868538517
  0
LINE
  5
673
100
AcDbEntity
  8
SCATOLA
100
AcDbLine
 62
250
  6
CONTINUOUS
 10
-93.1140410279
 20
-29.0999999747
 11
-93.1140410279
 21
-23.8999999747
  0
LINE
  5
674
100
AcDbEntity
  8
SCATOLA
100
AcDbLine
 62
7
  6
CONTINUOUS
 10
-92.4662385975
 20
-29.0999999665
 11
-92.4662385975
 21
-23.8999999831
  0
LINE
  5
675
100
AcDbEntity
  8
SCATOLA
100
AcDbLine
 62
250
  6
CONTINUOUS
 10
-92.1540219131
 20
-22.9461426439
 11
-92.1556939571
 21
-23.1314614662
  0
LINE
  5
676
100
AcDbEntity
  8
SCATOLA
100
AcDbLine
 62
250
  6
CONTINUOUS
 10
-92.1556939571
 20
-23.1314614662
 11
-92.1581185124
 21
-23.3035551552
  0
LWPOLYLINE
  5
677
100
AcDbEntity
  8
SCATOLA
100
AcDbPolyline
 62
250
  6
CONTINUOUS
 90
5
 70
0
 10
-92.1581185124
 20
-23.3035551552
 10
-92.1611225521
 20
-23.4501423785
 10
-92.1627760966
 20
-23.5105093218
 10
-92.1644916937
 20
-23.5607620528
 10
-92.1662385975
 20
-23.5999999747
  0
LWPOLYLINE
  5
678
100
AcDbEntity
  8
SCATOLA
100
AcDbPolyline
 62
250
  6
CONTINUOUS
 90
22
 70
0
 10
-93.1140410279
 20
-23.8999999747
 10
-93.1115799089
 20
-23.8298532326
 10
-93.1038896773
 20
-23.7603457364
 10
-93.0909703331
 20
-23.6914774861
 10
-93.0727574135
 20
-23.622773542
 10
-93.0493153813
 20
-23.5547088438
 10
-93.0208376246
 20
-23.4887082103
 10
-92.9871637641
 20
-23.4248051685
 10
-92.9484541791
 20
-23.3629661914
 10
-92.9053833952
 20
-23.3045155166
 10
-92.8578401968
 20
-23.2495615429
 10
-92.8059357995
 20
-23.1979958717
 10
-92.7506783754
 20
-23.1508175447
 10
-92.6919628244
 20
-23.1081392922
 10
-92.6298942466
 20
-23.069848384
 10
-92.5657961135
 20
-23.0366056711
 10
-92.4996359409
 20
-23.008569976
 10
-92.431446213
 20
-22.9855824761
 10
-92.3626478539
 20
-22.9678275546
 10
-92.2937145048
 20
-22.9553666726
 10
-92.2241725245
 20
-22.9481383691
 10
-92.154021913
 20
-22.9461426439
  0
LWPOLYLINE
  5
679
100
AcDbEntity
  8
SCATOLA
100
AcDbPolyline
 62
7
  6
CONTINUOUS
 90
46
 70
0
 10
-90.4388901302
 20
0.0000000253
 10
-90.4673951055
 20
-0.7910272385
 10
-90.5493291219
 20
-1.5706960791
 10
-90.6846921794
 20
-2.3390064964
 10
-90.8746605252
 20
-3.0995791591
 10
-91.118057912
 20
-3.8487933986
 10
-91.4113555979
 20
-4.5757872093
 10
-91.7552805436
 20
-5.2802368781
 10
-92.1491057883
 20
-5.9624661181
 10
-92.5871217075
 20
-6.612584063
 10
-93.0699720827
 20
-7.230122907
 10
-93.5970131323
 20
-7.815550456
 10
-94.1606038872
 20
-8.3603792614
 10
-94.7612768134
 20
-8.8640178698
 10
-95.398499445
 20
-9.3270577347
 10
-96.0630334154
 20
-9.7427857673
 10
-96.7552766034
 20
-10.1105127163
 10
-97.4748311303
 20
-10.4309278331
 10
-98.2112649928
 20
-10.6993857831
 10
-98.9648240936
 20
-10.9151296404
 10
-99.73526253
 20
-11.0789163309
 10
-100.5114105911
 20
-11.1883712976
 10
-101.2933514559
 20
-11.2427030215
 10
-102.0810019454
 20
-11.2427030215
 10
-102.8629428103
 20
-11.1883712976
 10
-103.6390908713
 20
-11.0789163309
 10
-104.4095293077
 20
-10.9151296404
 10
-105.1630884085
 20
-10.6993857831
 10
-105.899522271
 20
-10.4309278331
 10
-106.6190767979
 20
-10.1105127163
 10
-107.3113199859
 20
-9.7427857673
 10
-107.9758539563
 20
-9.3270577347
 10
-108.6130765879
 20
-8.8640178698
 10
-109.2137495141
 20
-8.3603792614
 10
-109.7773402691
 20
-7.815550456
 10
-110.3043813187
 20
-7.230122907
 10
-110.7872316938
 20
-6.612584063
 10
-111.225247613
 20
-5.9624661181
 10
-111.6190728577
 20
-5.2802368781
 10
-111.9629978034
 20
-4.5757872093
 10
-112.2562954893
 20
-3.8487933986
 10
-112.4996928761
 20
-3.0995791591
 10
-112.689661222
 20
-2.3390064964
 10
-112.8250242794
 20
-1.5706960791
 10
-112.9069582958
 20
-0.7910272385
 10
-112.9354632712
 20
0.0000000253
  0
LWPOLYLINE
  5
67A
100
AcDbEntity
  8
SCATOLA
100
AcDbPolyline
 62
7
  6
CONTINUOUS
 90
43
 70
0
 10
-91.1265668323
 20
0.0000000253
 10
-91.1574259303
 20
-0.7956117323
 10
-91.2455826771
 20
-1.5781436834
 10
-91.3910370725
 20
-2.347595828
 10
-91.595238003
 20
-3.1081094761
 10
-91.8567365823
 20
-3.8555433177
 10
-92.1711861511
 20
-4.5774734224
 10
-92.5394717706
 20
-5.2734735022
 10
-92.9607083798
 20
-5.943969845
 10
-93.4278941355
 20
-6.5778173843
 10
-93.9417970653
 20
-7.1744035455
 10
-94.5016491418
 20
-7.7343409031
 10
-95.09814444
 20
-8.2483221148
 10
-95.7318954413
 20
-8.715579036
 10
-96.4022896643
 20
-9.1368798113
 10
-97.0981837398
 20
-9.5052215311
 10
-97.8200038911
 20
-9.8197189994
 10
-98.5673238949
 20
-10.0812574122
 10
-99.3277217131
 20
-10.2854894482
 10
-100.1014159379
 20
-10.4314572472
 10
-100.888187977
 20
-10.5201186695
 10
-101.6749600162
 20
-10.5499999747
 10
-102.4617320553
 20
-10.5201186695
 10
-103.2485040944
 20
-10.4314572472
 10
-104.0221983192
 20
-10.2854894482
 10
-104.7825961374
 20
-10.0812574122
 10
-105.5299161412
 20
-9.8197189994
 10
-106.2517362925
 20
-9.5052215311
 10
-106.9476303681
 20
-9.1368798113
 10
-107.618024591
 20
-8.715579036
 10
-108.2517755923
 20
-8.2483221148
 10
-108.8482708905
 20
-7.7343409031
 10
-109.408122967
 20
-7.1744035455
 10
-109.9220258968
 20
-6.5778173843
 10
-110.3892116526
 20
-5.943969845
 10
-110.8104482617
 20
-5.2734735022
 10
-111.1787338812
 20
-4.5774734224
 10
-111.49318345
 20
-3.8555433177
 10
-111.7546820293
 20
-3.1081094761
 10
-111.9588829598
 20
-2.347595828
 10
-112.1043373553
 20
-1.5781436834
 10
-112.192494102
 20
-0.7956117323
 10
-112.2233532001
 20
0.0000000253
  0
LWPOLYLINE
  5
67B
100
AcDbEntity
  8
SCATOLA
100
AcDbPolyline
 62
7
  6
CONTINUOUS
 90
13
 70
0
 10
-92.4662385975
 20
-23.8999999831
 10
-92.4633430949
 20
-23.8598607081
 10
-92.4557474481
 20
-23.821634805
 10
-92.4434516569
 20
-23.7853222738
 10
-92.4260877849
 20
-23.7503617806
 10
-92.4040237687
 20
-23.7173146594
 10
-92.3783634177
 20
-23.6878649115
 10
-92.3489134578
 20
-23.6622064373
 10
-92.3158671632
 20
-23.6401453365
 10
-92.2809081659
 20
-23.6227839098
 10
-92.2445976764
 20
-23.6104895907
 10
-92.2063744841
 20
-23.6028949457
 10
-92.1662385891
 20
-23.5999999747
  0
LWPOLYLINE
  5
67C
100
AcDbEntity
  8
DRAFT
100
AcDbPolyline
 62
7
  6
CONTINUOUS
 90
15
 70
0
 10
-147.4491861343
 20
32.0116694177
 10
-147.4816851903
 20
32.0179161843
 10
-147.5234987864
 20
32.0481138597
 10
-147.5612515469
 20
32.1012126837
 10
-147.5953170214
 20
32.1749554711
 10
-147.6253433579
 20
32.2663245353
 10
-147.6510369394
 20
32.3721277069
 10
-147.6726913829
 20
32.4901322133
 10
-147.6908356873
 20
32.6187471013
 10
-147.7054480348
 20
32.7554308647
 10
-147.7165502431
 20
32.8986389938
 10
-147.7247367641
 20
33.0493055259
 10
-147.7301575033
 20
33.2059603058
 10
-147.732662555
 20
33.3676937094
 10
-147.7323966547
 20
33.5374849068
  0
LWPOLYLINE
  5
67D
100
AcDbEntity
  8
SCATOLA
100
AcDbPolyline
 62
250
  6
CONTINUOUS
 90
6
 70
0
 10
-86.6711746374
 20
-23.4761308159
 10
-86.6703227168
 20
-23.4970980035
 10
-86.6696875501
 20
-23.5179362599
 10
-86.6692328256
 20
-23.5386455853
 10
-86.6689304205
 20
-23.5592259796
 10
-86.6687604212
 20
-23.5796774427
  0
LWPOLYLINE
  5
67E
100
AcDbEntity
  8
SCATOLA
100
AcDbPolyline
 62
250
  6
CONTINUOUS
 90
3
 70
0
 10
-87.7559588109
 20
-29.4959437754
 10
-87.7575961631
 20
-29.4437967582
 10
-87.7592576349
 20
-29.3999999747
  0
LINE
  5
67F
100
AcDbEntity
  8
SCATOLA
100
AcDbLine
 62
250
  6
CONTINUOUS
 10
-87.7528508487
 20
-29.6221501928
 11
-87.7559588109
 21
-29.4959437754
  0
LINE
  5
680
100
AcDbEntity
  8
SCATOLA
100
AcDbLine
 62
250
  6
CONTINUOUS
 10
-87.7501135673
 20
-29.7713172362
 11
-87.7528508487
 21
-29.6221501928
  0
LWPOLYLINE
  5
681
100
AcDbEntity
  8
SCATOLA
100
AcDbPolyline
 62
250
  6
CONTINUOUS
 90
3
 70
0
 10
-87.7470409582
 20
-30.0189984131
 10
-87.7479053393
 20
-29.9348144699
 10
-87.7501135673
 20
-29.7713172362
  0
LINE
  5
682
100
AcDbEntity
  8
SCATOLA
100
AcDbLine
 62
250
  6
CONTINUOUS
 10
-87.7470409504
 20
40.8730280982
 11
-87.7470409504
 21
-22.9810015364
  0
LINE
  5
683
100
AcDbEntity
  8
SCATOLA
100
AcDbLine
 62
250
  6
CONTINUOUS
 10
-87.7470409504
 20
-30.0189984131
 11
-87.7470409504
 21
-40.8730280476
  0
LINE
  5
684
100
AcDbEntity
  8
SCATOLA
100
AcDbLine
 62
250
  6
CONTINUOUS
 10
-87.3671377023
 20
-23.5999999747
 11
-87.3671377023
 21
-29.3999999747
  0
LINE
  5
685
100
AcDbEntity
  8
SCATOLA
100
AcDbLine
 62
250
  6
CONTINUOUS
 10
-86.6687604212
 20
-23.5796774427
 11
-86.6687111356
 21
-29.3999999747
  0
LINE
  5
686
100
AcDbEntity
  8
SCATOLA
100
AcDbLine
 62
7
  6
CONTINUOUS
 10
-86.4662385975
 20
16.5000000253
 11
-86.4662385975
 21
-1.5761209747
  0
LINE
  5
687
100
AcDbEntity
  8
SCATOLA
100
AcDbLine
 62
7
  6
CONTINUOUS
 10
-86.4662385975
 20
-1.6038029747
 11
-86.4662385975
 21
-16.4999999747
  0
LINE
  5
688
100
AcDbEntity
  8
SCATOLA
100
AcDbLine
 62
7
  6
CONTINUOUS
 10
-86.6662838694
 20
39.7757892609
 11
-86.6662416569
 21
-39.6300961359
  0
LINE
  5
689
100
AcDbEntity
  8
SCATOLA
100
AcDbLine
 62
7
  6
CONTINUOUS
 10
-86.6662416569
 20
-39.6300961359
 11
-86.6662838694
 21
-39.7757892104
  0
LWPOLYLINE
  5
68A
100
AcDbEntity
  8
SCATOLA
100
AcDbPolyline
 62
250
  6
CONTINUOUS
 90
10
 70
0
 10
-86.6687111356
 20
-29.3999999747
 10
-86.6688120276
 20
-29.4257173455
 10
-86.6691007012
 20
-29.451671086
 10
-86.6696064493
 20
-29.4778611963
 10
-86.6703560882
 20
-29.50440597
 10
-86.671432025
 20
-29.5311871134
 10
-86.672998343
 20
-29.5578497458
 10
-86.675222908
 20
-29.5842755737
 10
-86.6782508782
 20
-29.6105828907
 10
-86.6822804162
 20
-29.6367716967
  0
LINE
  5
68B
100
AcDbEntity
  8
SCATOLA
100
AcDbLine
 62
250
  6
CONTINUOUS
 10
-87.7470410193
 20
-22.9810015364
 11
-87.7489348557
 21
-23.1481471445
  0
LINE
  5
68C
100
AcDbEntity
  8
SCATOLA
100
AcDbLine
 62
250
  6
CONTINUOUS
 10
-87.7489348557
 20
-23.1481471445
 11
-87.7514258139
 21
-23.3056223425
  0
LWPOLYLINE
  5
68D
100
AcDbEntity
  8
SCATOLA
100
AcDbPolyline
 62
250
  6
CONTINUOUS
 90
5
 70
0
 10
-87.7514258139
 20
-23.3056223425
 10
-87.7543697559
 20
-23.4443158845
 10
-87.7559591266
 20
-23.504056158
 10
-87.7575963421
 20
-23.5562031988
 10
-87.7592576349
 20
-23.5999999747
  0
LINE
  5
68E
100
AcDbEntity
  8
DRAFT
100
AcDbLine
 62
7
  6
CONTINUOUS
 10
-146.6662385975
 20
31.0000000253
 11
-147.8488572667
 21
31.0000000253
  0
LINE
  5
68F
100
AcDbEntity
  8
COPY_GEOM
100
AcDbLine
 62
7
  6
CONTINUOUS
 10
-146.6769636593
 20
31.3000000253
 11
-147.800798565
 21
31.3000000253
  0
LWPOLYLINE
  5
690
100
AcDbEntity
  8
DRAFT
100
AcDbPolyline
 62
7
  6
CONTINUOUS
 90
10
 70
0
 10
-146.8139093312
 20
38.9772418352
 10
-146.8071283679
 20
38.9753920043
 10
-146.7931151065
 20
38.9577572029
 10
-146.7807972898
 20
38.9197686635
 10
-146.7699850419
 20
38.8592497247
 10
-146.7608350789
 20
38.7734391869
 10
-146.7531906847
 20
38.6608102982
 10
-146.7463918352
 20
38.5225276379
 10
-146.7403238475
 20
38.3588565476
 10
-146.7351014045
 20
38.1697758087
  0
LINE
  5
691
100
AcDbEntity
  8
SCATOLA
100
AcDbLine
 62
250
  6
CONTINUOUS
 10
-86.1662385975
 20
36.0000000253
 11
-86.1662385975
 21
17.0000000253
  0
LINE
  5
692
100
AcDbEntity
  8
SCATOLA
100
AcDbLine
 62
250
  6
CONTINUOUS
 10
-86.1662385975
 20
4.8000000253
 11
-86.1662385975
 21
-4.7999999747
  0
LINE
  5
693
100
AcDbEntity
  8
SCATOLA
100
AcDbLine
 62
250
  6
CONTINUOUS
 10
-86.1662385975
 20
-16.9999999747
 11
-86.1662385975
 21
-35.9999999747
  0
LINE
  5
694
100
AcDbEntity
  8
SCATOLA
100
AcDbLine
 62
7
  6
CONTINUOUS
 10
-85.6662385975
 20
35.4995917735
 11
-85.6662385975
 21
17.500408277
  0
LINE
  5
695
100
AcDbEntity
  8
SCATOLA
100
AcDbLine
 62
7
  6
CONTINUOUS
 10
-85.6662385975
 20
4.2996144508
 11
-85.6662385975
 21
-4.2996144002
  0
LINE
  5
696
100
AcDbEntity
  8
SCATOLA
100
AcDbLine
 62
7
  6
CONTINUOUS
 10
-85.6662385975
 20
-17.5004082265
 11
-85.6662385975
 21
-35.499591723
  0
LINE
  5
697
100
AcDbEntity
  8
0
100
AcDbLine
 62
250
  6
CONTINUOUS
 10
-147.8622891697
 20
33.8000000253
 11
-147.9227161095
 21
33.8000000253
  0
LINE
  5
698
100
AcDbEntity
  8
SCATOLA
100
AcDbLine
 62
250
  6
CONTINUOUS
 10
-86.6662416569
 20
35.5000000253
 11
-123.6662385975
 21
35.5000000253
  0
LINE
  5
699
100
AcDbEntity
  8
0
100
AcDbLine
 62
250
  6
CONTINUOUS
 10
-123.6662385975
 20
35.5000000253
 11
-125.2662385975
 21
35.5000000253
  0
LINE
  5
69A
100
AcDbEntity
  8
COPY_GEOM
100
AcDbLine
 62
250
  6
CONTINUOUS
 10
-125.2662385975
 20
35.5000000253
 11
-144.7020869
 21
35.5000000253
  0
LINE
  5
69B
100
AcDbEntity
  8
COPY_GEOM
100
AcDbLine
 62
250
  6
CONTINUOUS
 10
-146.6262246131
 20
35.5760141647
 11
-144.7020868641
 21
35.5000000253
  0
LWPOLYLINE
  5
69C
100
AcDbEntity
  8
SCATOLA
100
AcDbPolyline
 62
250
  6
CONTINUOUS
 90
24
 70
0
 10
-86.6822804162
 20
-29.6367716967
 10
-86.6882240388
 20
-29.6664350072
 10
-86.6958527253
 20
-29.6951624233
 10
-86.7054728219
 20
-29.7229539451
 10
-86.7174376878
 20
-29.7498892115
 10
-86.7320779711
 20
-29.7758885835
 10
-86.7496663966
 20
-29.8007131442
 10
-86.7705179199
 20
-29.8243121448
 10
-86.7950082055
 20
-29.846736334
 10
-86.8234757725
 20
-29.8678990412
 10
-86.8563309322
 20
-29.8878222002
 10
-86.8938417886
 20
-29.9064838772
 10
-86.9360529284
 20
-29.9237315991
 10
-86.9833149648
 20
-29.9395444257
 10
-87.035694121
 20
-29.9539432973
 10
-87.0925657324
 20
-29.966838562
 10
-87.1539213323
 20
-29.9781731074
 10
-87.2196488718
 20
-29.9880040459
 10
-87.2886509104
 20
-29.9964130628
 10
-87.3604627496
 20
-30.0033596742
 10
-87.4349426142
 20
-30.0088843639
 10
-87.511281314
 20
-30.013190269
 10
-87.5889327296
 20
-30.0163451017
 10
-87.6676544471
 20
-30.0182811497
  0
LINE
  5
69D
100
AcDbEntity
  8
SCATOLA
100
AcDbLine
 62
7
  6
CONTINUOUS
 10
-86.6662385975
 20
36.0000000253
 11
-86.1662385975
 21
36.0000000253
  0
LWPOLYLINE
  5
69E
100
AcDbEntity
  8
SCATOLA
100
AcDbPolyline
 62
250
  6
CONTINUOUS
 90
13
 70
0
 10
-86.6711746374
 20
-23.4761308159
 10
-86.684456062
 20
-23.4914103834
 10
-86.7080876448
 20
-23.5064586005
 10
-86.7417115761
 20
-23.5210476196
 10
-86.7848187506
 20
-23.534956546
 10
-86.8367564753
 20
-23.5479747824
 10
-86.8967383528
 20
-23.5599052176
 10
-86.9638946753
 20
-23.5699576999
 10
-87.0371695497
 20
-23.5789408969
 10
-87.1153421009
 20
-23.5874617816
 10
-87.1972182116
 20
-23.5943075579
 10
-87.2816365751
 20
-23.5984278059
 10
-87.3673650972
 20
-23.5999999974
  0
LINE
  5
69F
100
AcDbEntity
  8
ASSI
100
AcDbLine
 62
7
  6
CONTINUOUS
 10
-144.9715721247
 20
41.1518733016
 11
-144.8878823198
 21
41.1575024212
  0
LINE
  5
6A0
100
AcDbEntity
  8
0
100
AcDbLine
 62
7
  6
CONTINUOUS
 10
-144.7664786201
 20
41.1596215361
 11
-144.8878877938
 21
41.1575023256
  0
LINE
  5
6A1
100
AcDbEntity
  8
ASSI
100
AcDbLine
 62
7
  6
CONTINUOUS
 10
-144.8878877938
 20
41.1575023256
 11
-144.8879486054
 21
41.1575012641
  0
LINE
  5
6A2
100
AcDbEntity
  8
COPY_GEOM
100
AcDbLine
 62
7
  6
CONTINUOUS
 10
-125.2662385975
 20
41.5000000253
 11
-144.9091757471
 21
41.1571312819
  0
LINE
  5
6A3
100
AcDbEntity
  8
0
100
AcDbLine
 62
7
  6
CONTINUOUS
 10
-123.6662385975
 20
41.5000000253
 11
-125.2662385975
 21
41.5000000253
  0
LINE
  5
6A4
100
AcDbEntity
  8
SCATOLA
100
AcDbLine
 62
7
  6
CONTINUOUS
 10
-87.7470409504
 20
40.8730280982
 11
-123.6662385975
 21
41.5000000253
  0
LWPOLYLINE
  5
6A5
100
AcDbEntity
  8
ASSI
100
AcDbPolyline
 62
7
  6
CONTINUOUS
 90
4
 70
0
 10
-145.2181843236
 20
41.1100912109
 10
-145.1366072848
 20
41.1284198873
 10
-145.0544804464
 20
41.1421791237
 10
-144.9715721247
 20
41.1518733016
  0
LWPOLYLINE
  5
6A6
100
AcDbEntity
  8
COPY_GEOM
100
AcDbPolyline
 62
7
  6
CONTINUOUS
 90
3
 70
0
 10
-145.2507892539
 20
41.1217241174
 10
-145.0814669873
 20
41.1466485407
 10
-144.9087446425
 20
41.1571388069
  0
ARC
  5
6A7
100
AcDbEntity
  8
0
100
AcDbCircle
 62
7
  6
CONTINUOUS
 10
-62.0
 20
-35.4999999747
 40
6.0
100
AcDbArc
 50
180.0
 51
270.0
  0
ARC
  5
6A8
100
AcDbEntity
  8
COPY_GEOM
100
AcDbCircle
 62
7
  6
CONTINUOUS
 10
-62.0
 20
-35.4999999747
 40
6.0
100
AcDbArc
 50
180.0
 51
270.0
  0
ARC
  5
6A9
100
AcDbEntity
  8
RACCORDO
100
AcDbCircle
 62
250
  6
CONTINUOUS
 10
-62.0
 20
-35.4999999747
 40
5.8165695014
100
AcDbArc
 50
180.0
 51
270.0
  0
ARC
  5
6AA
100
AcDbEntity
  8
SUPERFICI
100
AcDbCircle
 62
7
  6
CONTINUOUS
 10
-62.0
 20
-35.4999991569
 40
5.8045045938
100
AcDbArc
 50
180.0001321314
 51
269.9999418751
  0
ARC
  5
6AB
100
AcDbEntity
  8
SUPERFICI
100
AcDbCircle
 62
250
  6
CONTINUOUS
 10
-44.6999868695
 20
-22.1999868442
 40
5.6997772344
100
AcDbArc
 50
180.0016003039
 51
269.9998679621
  0
ARC
  5
6AC
100
AcDbEntity
  8
SUPERFICI
100
AcDbCircle
 62
250
  6
CONTINUOUS
 10
-44.7000033352
 20
-22.2000033099
 40
3.8999012951
100
AcDbArc
 50
180.0000392332
 51
270.0000489578
  0
ARC
  5
6AD
100
AcDbEntity
  8
RACCORDO
100
AcDbCircle
 62
7
  6
CONTINUOUS
 10
-44.6999987361
 20
-22.1999987108
 40
1.800001559
100
AcDbArc
 50
180.0000053544
 51
269.999995018
  0
ARC
  5
6AE
100
AcDbEntity
  8
SUPERFICI
100
AcDbCircle
 62
7
  6
CONTINUOUS
 10
-44.6999987361
 20
-22.1999987108
 40
1.800001559
100
AcDbArc
 50
180.0000244612
 51
269.9999758606
  0
ARC
  5
6AF
100
AcDbEntity
  8
RACCORDO
100
AcDbCircle
 62
250
  6
CONTINUOUS
 10
-44.6999987361
 20
-22.1999987108
 40
0.7999937603
100
AcDbArc
 50
180.000007861
 51
269.9999926857
  0
ARC
  5
6B0
100
AcDbEntity
  8
RACCORDO
100
AcDbCircle
 62
7
  6
CONTINUOUS
 10
-30.75
 20
-40.3499999747
 40
0.75
100
AcDbArc
 50
260.1916302972
 51
270.0
  0
ARC
  5
6B1
100
AcDbEntity
  8
0
100
AcDbCircle
 62
7
  6
CONTINUOUS
 10
-62.0
 20
35.5000000253
 40
6.0
100
AcDbArc
 50
90.0
 51
180.0
  0
ARC
  5
6B2
100
AcDbEntity
  8
COPY_GEOM
100
AcDbCircle
 62
7
  6
CONTINUOUS
 10
-62.0
 20
35.5000000253
 40
6.0
100
AcDbArc
 50
90.0
 51
180.0
  0
ARC
  5
6B3
100
AcDbEntity
  8
SUPERFICI
100
AcDbCircle
 62
250
  6
CONTINUOUS
 10
-44.7000023977
 20
22.200002423
 40
3.899906059
100
AcDbArc
 50
89.9995209457
 51
179.9998882976
  0
CIRCLE
  5
6B4
100
AcDbEntity
  8
DRAFT
100
AcDbCircle
 62
7
  6
CONTINUOUS
 10
-62.0
 20
35.5000000253
 40
3.15
  0
CIRCLE
  5
6B5
100
AcDbEntity
  8
0
100
AcDbCircle
 62
7
  6
CONTINUOUS
 10
-62.0
 20
35.5000000253
 40
3.0
  0
ARC
  5
6B6
100
AcDbEntity
  8
0
100
AcDbCircle
 62
7
  6
CONTINUOUS
 10
-62.0
 20
35.5000000253
 40
2.8950136038
100
AcDbArc
 50
258.0385857315
 51
281.9614142685
  0
ARC
  5
6B7
100
AcDbEntity
  8
0
100
AcDbCircle
 62
7
  6
CONTINUOUS
 10
-62.0
 20
35.5000000253
 40
2.8950136038
100
AcDbArc
 50
78.0385857315
 51
101.9614142685
  0
ARC
  5
6B8
100
AcDbEntity
  8
0
100
AcDbCircle
 62
7
  6
CONTINUOUS
 10
-62.0
 20
35.5000000253
 40
2.8155023425
100
AcDbArc
 50
102.3044249574
 51
257.6955750426
  0
ARC
  5
6B9
100
AcDbEntity
  8
0
100
AcDbCircle
 62
7
  6
CONTINUOUS
 10
-62.0
 20
35.5000000253
 40
2.8155023425
100
AcDbArc
 50
282.3044249574
 51
77.6955750426
  0
ARC
  5
6BA
100
AcDbEntity
  8
DRAFT
100
AcDbCircle
 62
7
  6
CONTINUOUS
 10
-59.55
 20
33.8000000253
 40
2.8
100
AcDbArc
 50
270.0
 51
360.0
  0
ARC
  5
6BB
100
AcDbEntity
  8
COPY_GEOM
100
AcDbCircle
 62
7
  6
CONTINUOUS
 10
-59.5
 20
33.8000000253
 40
2.5
100
AcDbArc
 50
270.0
 51
360.0
  0
ARC
  5
6BC
100
AcDbEntity
  8
RACCORDO
100
AcDbCircle
 62
7
  6
CONTINUOUS
 10
-44.699993268
 20
22.1999932932
 40
1.8000080568
100
AcDbArc
 50
90.000023683
 51
179.9999411371
  0
ARC
  5
6BD
100
AcDbEntity
  8
0
100
AcDbCircle
 62
7
  6
CONTINUOUS
 10
-62.0
 20
35.5000000253
 40
1.6874840352
100
AcDbArc
 50
172.230101045
 51
187.7632444202
  0
ARC
  5
6BE
100
AcDbEntity
  8
0
100
AcDbCircle
 62
7
  6
CONTINUOUS
 10
-62.0
 20
35.5000000253
 40
1.6874840352
100
AcDbArc
 50
352.2301010241
 51
7.7632444202
  0
ARC
  5
6BF
100
AcDbEntity
  8
TRASH
100
AcDbCircle
 62
7
  6
CONTINUOUS
 10
-62.0
 20
35.5000000253
 40
1.1472328625
100
AcDbArc
 50
347.9845776281
 51
12.0153200785
  0
ARC
  5
6C0
100
AcDbEntity
  8
TRASH
100
AcDbCircle
 62
7
  6
CONTINUOUS
 10
-62.0
 20
35.5000000253
 40
1.1472328625
100
AcDbArc
 50
167.9845776281
 51
192.0153200785
  0
ARC
  5
6C1
100
AcDbEntity
  8
RACCORDO
100
AcDbCircle
 62
250
  6
CONTINUOUS
 10
-44.699993268
 20
22.1999932932
 40
0.8000002581
100
AcDbArc
 50
90.0000347701
 51
179.9999135808
  0
ARC
  5
6C2
100
AcDbEntity
  8
0
100
AcDbCircle
 62
7
  6
CONTINUOUS
 10
-62.0
 20
35.5000000253
 40
0.7522905861
100
AcDbArc
 50
138.3509867785
 51
142.8981211086
  0
ARC
  5
6C3
100
AcDbEntity
  8
0
100
AcDbCircle
 62
7
  6
CONTINUOUS
 10
-62.0
 20
35.5000000253
 40
0.7522905861
100
AcDbArc
 50
48.3509342563
 51
131.6490283615
  0
ARC
  5
6C4
100
AcDbEntity
  8
0
100
AcDbCircle
 62
7
  6
CONTINUOUS
 10
-62.0
 20
35.5000000253
 40
0.7522905861
100
AcDbArc
 50
37.1018788914
 51
41.6490663885
  0
ARC
  5
6C5
100
AcDbEntity
  8
0
100
AcDbCircle
 62
7
  6
CONTINUOUS
 10
-62.0
 20
35.5000000253
 40
0.7522905861
100
AcDbArc
 50
318.3509867785
 51
322.8981211086
  0
ARC
  5
6C6
100
AcDbEntity
  8
0
100
AcDbCircle
 62
7
  6
CONTINUOUS
 10
-62.0
 20
35.5000000253
 40
0.7522905861
100
AcDbArc
 50
228.3509342563
 51
311.6490283615
  0
ARC
  5
6C7
100
AcDbEntity
  8
0
100
AcDbCircle
 62
7
  6
CONTINUOUS
 10
-62.0
 20
35.5000000253
 40
0.7522905861
100
AcDbArc
 50
217.1018788914
 51
221.6490663885
  0
ARC
  5
6C8
100
AcDbEntity
  8
0
100
AcDbCircle
 62
7
  6
CONTINUOUS
 10
62.0
 20
-35.4999999747
 40
6.0
100
AcDbArc
 50
270.0
 51
360.0
  0
ARC
  5
6C9
100
AcDbEntity
  8
COPY_GEOM
100
AcDbCircle
 62
7
  6
CONTINUOUS
 10
62.0
 20
-35.4999999747
 40
6.0
100
AcDbArc
 50
270.0
 51
360.0
  0
ARC
  5
6CA
100
AcDbEntity
  8
RACCORDO
100
AcDbCircle
 62
250
  6
CONTINUOUS
 10
62.0
 20
-35.4999999747
 40
5.8165695014
100
AcDbArc
 50
270.0
 51
360.0
  0
ARC
  5
6CB
100
AcDbEntity
  8
SUPERFICI
100
AcDbCircle
 62
7
  6
CONTINUOUS
 10
62.0
 20
-35.4999991569
 40
5.8045045938
100
AcDbArc
 50
270.0000581232
 51
359.9998706561
  0
ARC
  5
6CC
100
AcDbEntity
  8
SUPERFICI
100
AcDbCircle
 62
250
  6
CONTINUOUS
 10
44.6999868696
 20
-22.1999868442
 40
5.6997772344
100
AcDbArc
 50
270.0001319947
 51
359.9983996528
  0
ARC
  5
6CD
100
AcDbEntity
  8
SUPERFICI
100
AcDbCircle
 62
250
  6
CONTINUOUS
 10
44.7000033352
 20
-22.2000033099
 40
3.8999012873
100
AcDbArc
 50
269.9999510425
 51
0.0000195277
  0
ARC
  5
6CE
100
AcDbEntity
  8
RACCORDO
100
AcDbCircle
 62
7
  6
CONTINUOUS
 10
44.6999987361
 20
-22.1999987108
 40
1.800001559
100
AcDbArc
 50
270.000004982
 51
359.999995574
  0
ARC
  5
6CF
100
AcDbEntity
  8
SUPERFICI
100
AcDbCircle
 62
7
  6
CONTINUOUS
 10
44.6999987361
 20
-22.1999987108
 40
1.800001559
100
AcDbArc
 50
270.0000241393
 51
359.9999787574
  0
ARC
  5
6D0
100
AcDbEntity
  8
RACCORDO
100
AcDbCircle
 62
250
  6
CONTINUOUS
 10
44.6999987361
 20
-22.1999987108
 40
0.7999937603
100
AcDbArc
 50
270.0000073143
 51
359.999993502
  0
ARC
  5
6D1
100
AcDbEntity
  8
RACCORDO
100
AcDbCircle
 62
7
  6
CONTINUOUS
 10
30.75
 20
-40.3499999747
 40
0.75
100
AcDbArc
 50
270.0
 51
279.8014149831
  0
ARC
  5
6D2
100
AcDbEntity
  8
0
100
AcDbCircle
 62
7
  6
CONTINUOUS
 10
62.0
 20
35.5000000253
 40
6.0
100
AcDbArc
 50
0.0
 51
90.0
  0
ARC
  5
6D3
100
AcDbEntity
  8
COPY_GEOM
100
AcDbCircle
 62
7
  6
CONTINUOUS
 10
62.0
 20
35.5000000253
 40
6.0
100
AcDbArc
 50
0.0
 51
90.0
  0
ARC
  5
6D4
100
AcDbEntity
  8
SUPERFICI
100
AcDbCircle
 62
250
  6
CONTINUOUS
 10
44.7000023977
 20
22.200002423
 40
3.899906059
100
AcDbArc
 50
359.9996972288
 51
90.0004504254
  0
CIRCLE
  5
6D5
100
AcDbEntity
  8
DRAFT
100
AcDbCircle
 62
7
  6
CONTINUOUS
 10
62.0
 20
35.5000000253
 40
3.15
  0
CIRCLE
  5
6D6
100
AcDbEntity
  8
0
100
AcDbCircle
 62
7
  6
CONTINUOUS
 10
62.0
 20
35.5000000253
 40
3.0
  0
ARC
  5
6D7
100
AcDbEntity
  8
0
100
AcDbCircle
 62
7
  6
CONTINUOUS
 10
62.0
 20
35.5000000253
 40
2.8950136038
100
AcDbArc
 50
258.0385857315
 51
281.9614142685
  0
ARC
  5
6D8
100
AcDbEntity
  8
0
100
AcDbCircle
 62
7
  6
CONTINUOUS
 10
62.0
 20
35.5000000253
 40
2.8950136038
100
AcDbArc
 50
78.0385857315
 51
101.9614142685
  0
ARC
  5
6D9
100
AcDbEntity
  8
0
100
AcDbCircle
 62
7
  6
CONTINUOUS
 10
62.0
 20
35.5000000253
 40
2.8155023425
100
AcDbArc
 50
102.3044249574
 51
257.6955750426
  0
ARC
  5
6DA
100
AcDbEntity
  8
0
100
AcDbCircle
 62
7
  6
CONTINUOUS
 10
62.0
 20
35.5000000253
 40
2.8155023425
100
AcDbArc
 50
282.3044249574
 51
77.6955750426
  0
ARC
  5
6DB
100
AcDbEntity
  8
DRAFT
100
AcDbCircle
 62
7
  6
CONTINUOUS
 10
59.55
 20
33.8000000253
 40
2.8
100
AcDbArc
 50
180.0
 51
270.0
  0
ARC
  5
6DC
100
AcDbEntity
  8
COPY_GEOM
100
AcDbCircle
 62
7
  6
CONTINUOUS
 10
59.5
 20
33.8000000253
 40
2.5
100
AcDbArc
 50
180.0
 51
270.0
  0
ARC
  5
6DD
100
AcDbEntity
  8
RACCORDO
100
AcDbCircle
 62
7
  6
CONTINUOUS
 10
44.699993268
 20
22.1999932932
 40
1.8000080568
100
AcDbArc
 50
0.0000595933
 51
89.9999766447
  0
ARC
  5
6DE
100
AcDbEntity
  8
SUPERFICI
100
AcDbCircle
 62
7
  6
CONTINUOUS
 10
44.699993268
 20
22.1999932932
 40
1.8000080568
100
AcDbArc
 50
0.0002897328
 51
89.9998868568
  0
ARC
  5
6DF
100
AcDbEntity
  8
0
100
AcDbCircle
 62
7
  6
CONTINUOUS
 10
62.0
 20
35.5000000253
 40
1.6874840352
100
AcDbArc
 50
172.230101045
 51
187.7632444202
  0
ARC
  5
6E0
100
AcDbEntity
  8
0
100
AcDbCircle
 62
7
  6
CONTINUOUS
 10
62.0
 20
35.5000000253
 40
1.6874840352
100
AcDbArc
 50
352.2301010241
 51
7.7632444202
  0
ARC
  5
6E1
100
AcDbEntity
  8
0
100
AcDbCircle
 62
7
  6
CONTINUOUS
 10
6.706473
 20
34.9467990253
 40
1.303416637
100
AcDbArc
 50
292.8428913313
 51
90.0
  0
ARC
  5
6E2
100
AcDbEntity
  8
TRASH
100
AcDbCircle
 62
7
  6
CONTINUOUS
 10
62.0
 20
35.5000000253
 40
1.1472328625
100
AcDbArc
 50
347.9845776281
 51
12.0153200785
  0
ARC
  5
6E3
100
AcDbEntity
  8
TRASH
100
AcDbCircle
 62
7
  6
CONTINUOUS
 10
62.0
 20
35.5000000253
 40
1.1472328625
100
AcDbArc
 50
167.9845776281
 51
192.0153200785
  0
ARC
  5
6E4
100
AcDbEntity
  8
RACCORDO
100
AcDbCircle
 62
250
  6
CONTINUOUS
 10
44.699993268
 20
22.1999932932
 40
0.8000002581
100
AcDbArc
 50
0.0000874915
 51
89.9999657111
  0
ARC
  5
6E5
100
AcDbEntity
  8
0
100
AcDbCircle
 62
7
  6
CONTINUOUS
 10
62.0
 20
35.5000000253
 40
0.7522905861
100
AcDbArc
 50
138.3509867785
 51
142.8981211086
  0
ARC
  5
6E6
100
AcDbEntity
  8
0
100
AcDbCircle
 62
7
  6
CONTINUOUS
 10
62.0
 20
35.5000000253
 40
0.7522905861
100
AcDbArc
 50
48.3509342563
 51
131.6490283615
  0
ARC
  5
6E7
100
AcDbEntity
  8
0
100
AcDbCircle
 62
7
  6
CONTINUOUS
 10
62.0
 20
35.5000000253
 40
0.7522905861
100
AcDbArc
 50
37.1018788914
 51
41.6490663885
  0
ARC
  5
6E8
100
AcDbEntity
  8
0
100
AcDbCircle
 62
7
  6
CONTINUOUS
 10
62.0
 20
35.5000000253
 40
0.7522905861
100
AcDbArc
 50
318.3509867785
 51
322.8981211086
  0
ARC
  5
6E9
100
AcDbEntity
  8
0
100
AcDbCircle
 62
7
  6
CONTINUOUS
 10
62.0
 20
35.5000000253
 40
0.7522905861
100
AcDbArc
 50
228.3509342563
 51
311.6490283615
  0
ARC
  5
6EA
100
AcDbEntity
  8
0
100
AcDbCircle
 62
7
  6
CONTINUOUS
 10
62.0
 20
35.5000000253
 40
0.7522905861
100
AcDbArc
 50
217.1018788914
 51
221.6490663885
  0
ARC
  5
6EB
100
AcDbEntity
  8
0
100
AcDbCircle
 62
7
  6
CONTINUOUS
 10
6.588491
 20
34.9467990253
 40
0.51713
100
AcDbArc
 50
270.0
 51
90.0
  0
ARC
  5
6EC
100
AcDbEntity
  8
SUPERFICI
100
AcDbCircle
 62
7
  6
CONTINUOUS
 10
-151.4661688382
 20
-27.8999767215
 40
2.999929881
100
AcDbArc
 50
337.7946185758
 51
342.3027690147
  0
ARC
  5
6ED
100
AcDbEntity
  8
SUPERFICI
100
AcDbCircle
 62
7
  6
CONTINUOUS
 10
-151.4661688382
 20
-27.8999767215
 40
2.999929881
100
AcDbArc
 50
4.0822184122
 51
32.7729942037
  0
ARC
  5
6EE
100
AcDbEntity
  8
SUPERFICI
100
AcDbCircle
 62
7
  6
CONTINUOUS
 10
-151.4661688382
 20
-27.8999767215
 40
2.999929881
100
AcDbArc
 50
345.1561039149
 51
359.9857904188
  0
ARC
  5
6EF
100
AcDbEntity
  8
SUPERFICI
100
AcDbCircle
 62
7
  6
CONTINUOUS
 10
-151.4648750988
 20
-27.899519768
 40
2.9986041438
100
AcDbArc
 50
359.9910156289
 51
36.8779502501
  0
ARC
  5
6F0
100
AcDbEntity
  8
SUPERFICI
100
AcDbCircle
 62
7
  6
CONTINUOUS
 10
-150.7662412631
 20
-40.0547402411
 40
1.0000021242
100
AcDbArc
 50
170.7208889691
 51
268.9978773997
  0
ARC
  5
6F1
100
AcDbEntity
  8
RACCORDO
100
AcDbCircle
 62
7
  6
CONTINUOUS
 10
-149.2662385975
 20
-23.0000002698
 40
1.0
100
AcDbArc
 50
179.9999915481
 51
270.0
  0
ARC
  5
6F2
100
AcDbEntity
  8
SUPERFICI
100
AcDbCircle
 62
7
  6
CONTINUOUS
 10
-148.2662448077
 20
-25.4999915627
 40
0.999991588
100
AcDbArc
 50
153.4356397202
 51
216.870037979
  0
ARC
  5
6F3
100
AcDbEntity
  8
RACCORDO
100
AcDbCircle
 62
7
  6
CONTINUOUS
 10
-147.2162385975
 20
-40.3499999747
 40
0.75
100
AcDbArc
 50
254.6477443097
 51
270.0
  0
ARC
  5
6F4
100
AcDbEntity
  8
RACCORDO
100
AcDbCircle
 62
7
  6
CONTINUOUS
 10
-135.7662385975
 20
-40.816645629
 40
0.5
100
AcDbArc
 50
180.0
 51
269.0
  0
ARC
  5
6F5
100
AcDbEntity
  8
SUPERFICI
100
AcDbCircle
 62
7
  6
CONTINUOUS
 10
-151.4661688382
 20
27.8999767721
 40
2.999929881
100
AcDbArc
 50
323.1298677326
 51
355.8976463588
  0
ARC
  5
6F6
100
AcDbEntity
  8
RACCORDO
100
AcDbCircle
 62
7
  6
CONTINUOUS
 10
-149.2662385975
 20
23.0000000253
 40
1.0
100
AcDbArc
 50
90.0
 51
179.999962051
  0
ARC
  5
6F7
100
AcDbEntity
  8
SUPERFICI
100
AcDbCircle
 62
7
  6
CONTINUOUS
 10
-148.2662448076
 20
25.4999916138
 40
0.9999915877
100
AcDbArc
 50
143.1299724898
 51
185.415264972
  0
ARC
  5
6F8
100
AcDbEntity
  8
SUPERFICI
100
AcDbCircle
 62
7
  6
CONTINUOUS
 10
-102.4074379002
 20
-47.9557699747
 40
50.0000015031
100
AcDbArc
 50
157.7648931724
 51
170.72080482
  0
ARC
  5
6F9
100
AcDbEntity
  8
SCATOLA
100
AcDbCircle
 62
7
  6
CONTINUOUS
 10
-87.7662385975
 20
-39.773195583
 40
1.1
100
AcDbArc
 50
271.0
 51
359.8648670373
  0
ARC
  5
6FA
100
AcDbEntity
  8
SCATOLA
100
AcDbCircle
 62
7
  6
CONTINUOUS
 10
-86.1662385975
 20
-35.4999999747
 40
0.5
100
AcDbArc
 50
270.0
 51
360.0
  0
ARC
  5
6FB
100
AcDbEntity
  8
SCATOLA
100
AcDbCircle
 62
7
  6
CONTINUOUS
 10
-86.1662385975
 20
-17.4999999747
 40
0.5
100
AcDbArc
 50
0.0
 51
90.0
  0
ARC
  5
6FC
100
AcDbEntity
  8
SCATOLA
100
AcDbCircle
 62
7
  6
CONTINUOUS
 10
-86.1662385975
 20
-4.2999999747
 40
0.5
100
AcDbArc
 50
270.0
 51
360.0
  0
ARC
  5
6FD
100
AcDbEntity
  8
SCATOLA
100
AcDbCircle
 62
7
  6
CONTINUOUS
 10
-87.7662385975
 20
39.7731956335
 40
1.1
100
AcDbArc
 50
0.1351329627
 51
89.0
  0
ARC
  5
6FE
100
AcDbEntity
  8
SCATOLA
100
AcDbCircle
 62
7
  6
CONTINUOUS
 10
-86.1662385975
 20
4.3000000253
 40
0.5
100
AcDbArc
 50
0.0
 51
90.0
  0
ARC
  5
6FF
100
AcDbEntity
  8
SCATOLA
100
AcDbCircle
 62
7
  6
CONTINUOUS
 10
-86.1662385975
 20
17.5000000253
 40
0.5
100
AcDbArc
 50
270.0
 51
360.0
  0
ARC
  5
700
100
AcDbEntity
  8
SCATOLA
100
AcDbCircle
 62
7
  6
CONTINUOUS
 10
-86.1662385975
 20
35.5000000253
 40
0.5
100
AcDbArc
 50
0.0
 51
90.0
  0
ELLIPSE
  5
701
100
AcDbEntity
  8
RACCORDO
100
AcDbEllipse
 62
7
  6
CONTINUOUS
 10
67.3166456542
 20
25.0119201798
 30
0.0
 11
0.5
 21
-0.0
 31
0.0
 40
0.576159691
 41
0.0174532925
 42
0.2049153869
  0
ELLIPSE
  5
702
100
AcDbEntity
  8
RACCORDO
100
AcDbEllipse
 62
7
  6
CONTINUOUS
 10
-67.3166456542
 20
25.0119201798
 30
0.0
 11
0.5
 21
0.0
 31
0.0
 40
0.576159691
 41
2.9366772667
 42
3.1241393611
  0
ENDSEC
  0
SECTION
  2
OBJECTS
  0
DICTIONARY
  5
C
100
AcDbDictionary
280
0
281
1
  3
ACAD_GROUP
350
D
  3
ACAD_MLINESTYLE
350
17
  3
ACAD_LAYOUT
350
1A
  3
ACAD_PLOTSETTINGS
350
19
  3
ACAD_PLOTSTYLENAME
350
E
  0
DICTIONARY
  5
D
102
{ACAD_REACTORS
330
C
102
}
100
AcDbDictionary
280
0
281
1
  0
ACDBDICTIONARYWDFLT
  5
E
102
{ACAD_REACTORS
330
C
102
}
100
AcDbDictionary
281
1
  3
Normal
350
F
100
AcDbDictionaryWithDefault
340
F
  0
DICTIONARY
  5
17
102
{ACAD_REACTORS
330
C
102
}
100
AcDbDictionary
280
0
281
1
  3
Standard
350
18
  0
DICTIONARY
  5
19
102
{ACAD_REACTORS
330
C
102
}
100
AcDbDictionary
281
1
  0
DICTIONARY
  5
1A
102
{ACAD_REACTORS
330
C
102
}
100
AcDbDictionary
281
1
  3
Model
350
703
  3
Layout1
350
704
  0
ACDBPLACEHOLDER
  5
F
102
{ACAD_REACTORS
330
E
102
}
  0
MLINESTYLE
  5
18
102
{ACAD_REACTORS
330
17
102
}
100
AcDbMlineStyle
  2
STANDARD
 70
0
  3

 62
256
 51
90.0
 52
90.0
 71
2
 49
0.5
 62
256
  6
BYLAYER
 49
-0.5
 62
256
  6
BYLAYER
  0
LAYOUT
  5
703
102
{ACAD_REACTORS
330
1A
102
}
100
AcDbPlotSettings
  1

  2
none_device
  4
ISO_A4_(297.00_x_210.00_MM)
  6

 40
0.0
 41
0.0
 42
0.0
 43
0.0
 44
297.0
 45
210.0
 46
0.0
 47
0.0
 48
0.0
 49
0.0
140
0.0
141
0.0
142
1.0
143
1.0
 70
1024
 72
1
 73
0
 74
0
  7

 75
0
147
1.0
148
0.0
149
0.0
100
AcDbLayout
  1
Model
 70
0
 71
0
 10
0.0
 20
0.0
 11
297.0
 21
210.0
 12
0.0
 22
0.0
 32
0.0
 14
0.0
 24
0.0
 34
0.0
 15
0.0
 25
0.0
 35
0.0
146
0.0
 13
0.0
 23
0.0
 33
0.0
 16
1.0
 26
0.0
 36
0.0
 17
0.0
 27
1.0
 37
0.0
 76
0
330
21E
345
0
346
0
  0
LAYOUT
  5
704
102
{ACAD_REACTORS
330
1A
102
}
100
AcDbPlotSettings
  1

  2
none_device
  4
ISO_A4_(297.00_x_210.00_MM)
  6

 40
0.0
 41
0.0
 42
0.0
 43
0.0
 44
297.0
 45
210.0
 46
0.0
 47
0.0
 48
0.0
 49
0.0
140
0.0
141
0.0
142
1.0
143
1.0
 70
0
 72
1
 73
0
 74
0
  7

 75
0
147
1.0
148
0.0
149
0.0
100
AcDbLayout
  1
Layout1
 70
0
 71
1
 10
0.0
 20
0.0
 11
297.0
 21
210.0
 12
0.0
 22
0.0
 32
0.0
 14
0.0
 24
0.0
 34
0.0
 15
0.0
 25
0.0
 35
0.0
146
0.0
 13
0.0
 23
0.0
 33
0.0
 16
1.0
 26
0.0
 36
0.0
 17
0.0
 27
1.0
 37
0.0
 76
0
330
21F
345
0
346
0
  0
ENDSEC
  0
EOF
