  0
SECTION
  2
HEADER
  9
$ACADVER
  1
AC1024
  9
$DWGCODEPAGE
  3
ANSI_1252
  9
$EXTMAX
 10
558.8
 20
431.8
 30
0.0
  9
$EXTMIN
 10
0.0
 20
0.0
 30
0.0
  9
$LIMMIN
 10
0.0
 20
0.0
  9
$LIMMAX
 10
558.8
 20
431.8
  9
$VIEWCTR
 10
279.4
 20
215.9
  9
$VIEWSIZE
 40
431.8
  9
$CLAYER
  8
0
  9
$LTSCALE
 40
30.734
  9
$CELTYPE
  6
BYLAYER
  9
$DIMSCALE
 40
1.0
  9
$DIMASZ
 40
3.0
  9
$DIMEXO
 40
0.5
  9
$DIMDLI
 40
21.2344
  9
$DIMEXE
 40
1.5
  9
$DIMCEN
 40
5.0292
  9
$DIMLFAC
 40
1.0
  9
$DIMBLK
  1
_FILLED
  9
$DIMALT
 70
0
  9
$DIMALTF
 40
0.0393700787
  9
$DIMTXT
 40
3.0
  9
$DIMTOL
 70
1
  9
$DIMLIM
 70
0
  9
$DIMTFAC
 40
1.0
  9
$DIMTP
 40
0.01
  9
$DIMTM
 40
0.01
  9
$DIMGAP
 40
0.625
  9
$DIMDSEP
 70
44
  9
$AUNITS
 70
0
  9
$PDMODE
 70
3
  9
$PDSIZE
 40
3.0
  9
$HANDSEED
  5
372
  9
$TILEMODE
 70
1
  9
$MEASUREMENT
 70
1
  9
$INSUNITS
 70
4
  0
ENDSEC
  0
SECTION
  2
CLASSES
  0
CLASS
  1
ACDBDICTIONARYWDFLT
  2
AcDbDictionaryWithDefault
  3
AutoCAD 2000
 90
0
 91
1
280
0
281
0
  0
CLASS
  1
ACDBPLACEHOLDER
  2
AcDbPlaceHolder
  3
AutoCAD 2000
 90
0
 91
1
280
0
281
0
  0
CLASS
  1
LAYOUT
  2
AcDbLayout
  3
AutoCAD 2000
 90
0
 91
0
280
0
281
0
  0
ENDSEC
  0
SECTION
  2
TABLES
  0
TABLE
  2
VPORT
  5
8
100
AcDbSymbolTable
 70
2
  0
VPORT
  5
1F4
100
AcDbSymbolTableRecord
100
AcDbViewportTableRecord
  2
*ACTIVE
 70
0
 10
0.0
 20
0.0
 11
1.0
 21
1.0
 12
279.4
 22
215.9
 13
0.0
 23
0.0
 14
1.0
 24
1.0
 15
0.0
 25
0.0
 16
0.0
 26
0.0
 36
1.0
 17
0.0
 27
0.0
 37
0.0
 40
431.8
 41
1.2941176471
 42
50.0
 43
0.0
 44
0.0
 50
0.0
 51
0.0
 71
0
 72
100
 73
1
 74
1
 75
0
 76
0
 77
0
 78
0
  0
ENDTAB
  0
TABLE
  2
LTYPE
  5
5
100
AcDbSymbolTable
 70
6
  0
LTYPE
  5
14
100
AcDbSymbolTableRecord
100
AcDbLinetypeTableRecord
  2
BYBLOCK
 70
0
  3

 72
65
 73
0
 40
0.0
  0
LTYPE
  5
15
100
AcDbSymbolTableRecord
100
AcDbLinetypeTableRecord
  2
BYLAYER
 70
0
  3

 72
65
 73
0
 40
0.0
  0
LTYPE
  5
16
100
AcDbSymbolTableRecord
100
AcDbLinetypeTableRecord
  2
CONTINUOUS
 70
64
  3
Solid line
 72
65
 73
0
 40
0.0
  0
LTYPE
  5
1F5
100
AcDbSymbolTableRecord
100
AcDbLinetypeTableRecord
  2
CENTER
 70
64
  3
____ _ ____ _ ____ _ ____ _ ____ _ ____ _ ____
 72
65
 73
4
 40
0.6
 49
0.375
 74
0
 49
-0.075
 74
0
 49
0.075
 74
0
 49
-0.075
 74
0
  0
LTYPE
  5
1F6
100
AcDbSymbolTableRecord
100
AcDbLinetypeTableRecord
  2
HIDDEN
 70
64
  3
- - - - - - - - - - - - - - - - - - - -
 72
65
 73
2
 40
0.2
 49
0.1
 74
0
 49
-0.1
 74
0
  0
LTYPE
  5
1F7
100
AcDbSymbolTableRecord
100
AcDbLinetypeTableRecord
  2
PHANTOM
 70
64
  3
_____ _ _ _____ _ _ _____ _ _ _____
 72
65
 73
6
 40
0.8
 49
0.45
 74
0
 49
-0.05
 74
0
 49
0.1
 74
0
 49
-0.05
 74
0
 49
0.1
 74
0
 49
-0.05
 74
0
  0
LTYPE
  5
1F8
100
AcDbSymbolTableRecord
100
AcDbLinetypeTableRecord
  2
DOT
 70
64
  3
. . . . . . . . . . . . . . . . . . . .
 72
65
 73
2
 40
0.2
 49
0.1
 74
0
 49
-0.1
 74
0
  0
LTYPE
  5
1F9
100
AcDbSymbolTableRecord
100
AcDbLinetypeTableRecord
  2
DASHED
 70
64
  3
- - - - - - - - - - - - - - - - - - - -
 72
65
 73
2
 40
0.2
 49
0.1
 74
0
 49
-0.1
 74
0
  0
ENDTAB
  0
TABLE
  2
LAYER
  5
2
100
AcDbSymbolTable
 70
36
  0
LAYER
  5
10
100
AcDbSymbolTableRecord
100
AcDbLayerTableRecord
  2
0
 70
0
 62
7
  6
CONTINUOUS
370
-3
390
F
  0
LAYER
  5
1FA
100
AcDbSymbolTableRecord
100
AcDbLayerTableRecord
  2
DEFAULT_1
 70
0
 62
7
  6
CENTER
370
-3
390
F
  0
LAYER
  5
1FB
100
AcDbSymbolTableRecord
100
AcDbLayerTableRecord
  2
DEFAULT_2
 70
0
 62
7
  6
HIDDEN
370
-3
390
F
  0
LAYER
  5
1FC
100
AcDbSymbolTableRecord
100
AcDbLayerTableRecord
  2
DEFAULT_3
 70
0
 62
7
  6
PHANTOM
370
-3
390
F
  0
LAYER
  5
1FD
100
AcDbSymbolTableRecord
100
AcDbLayerTableRecord
  2
ASSI
 70
0
 62
7
  6
CONTINUOUS
370
-3
390
F
  0
LAYER
  5
1FE
100
AcDbSymbolTableRecord
100
AcDbLayerTableRecord
  2
COORDINATE
 70
0
 62
7
  6
CONTINUOUS
370
-3
390
F
  0
LAYER
  5
1FF
100
AcDbSymbolTableRecord
100
AcDbLayerTableRecord
  2
COPY_PUBLISH
 70
0
 62
7
  6
CONTINUOUS
370
-3
390
F
  0
LAYER
  5
200
100
AcDbSymbolTableRecord
100
AcDbLayerTableRecord
  2
COSMETICI
 70
0
 62
7
  6
CONTINUOUS
370
-3
390
F
  0
LAYER
  5
201
100
AcDbSymbolTableRecord
100
AcDbLayerTableRecord
  2
CURVE
 70
0
 62
7
  6
CONTINUOUS
370
-3
390
F
  0
LAYER
  5
202
100
AcDbSymbolTableRecord
100
AcDbLayerTableRecord
  2
DRAFT
 70
0
 62
7
  6
CONTINUOUS
370
-3
390
F
  0
LAYER
  5
203
100
AcDbSymbolTableRecord
100
AcDbLayerTableRecord
  2
IMPORT_IGES
 70
0
 62
7
  6
CONTINUOUS
370
-3
390
F
  0
LAYER
  5
204
100
AcDbSymbolTableRecord
100
AcDbLayerTableRecord
  2
INTF_1
 70
0
 62
7
  6
CONTINUOUS
370
-3
390
F
  0
LAYER
  5
205
100
AcDbSymbolTableRecord
100
AcDbLayerTableRecord
  2
INTF_11
 70
0
 62
7
  6
CONTINUOUS
370
-3
390
F
  0
LAYER
  5
206
100
AcDbSymbolTableRecord
100
AcDbLayerTableRecord
  2
INTF_12
 70
0
 62
7
  6
CONTINUOUS
370
-3
390
F
  0
LAYER
  5
207
100
AcDbSymbolTableRecord
100
AcDbLayerTableRecord
  2
INTF_2
 70
0
 62
7
  6
CONTINUOUS
370
-3
390
F
  0
LAYER
  5
208
100
AcDbSymbolTableRecord
100
AcDbLayerTableRecord
  2
INTF_8
 70
0
 62
7
  6
CONTINUOUS
370
-3
390
F
  0
LAYER
  5
209
100
AcDbSymbolTableRecord
100
AcDbLayerTableRecord
  2
NOTE
 70
0
 62
7
  6
CONTINUOUS
370
-3
390
F
  0
LAYER
  5
20A
100
AcDbSymbolTableRecord
100
AcDbLayerTableRecord
  2
PIANI
 70
0
 62
7
  6
CONTINUOUS
370
-3
390
F
  0
LAYER
  5
20B
100
AcDbSymbolTableRecord
100
AcDbLayerTableRecord
  2
PUNTI
 70
0
 62
7
  6
CONTINUOUS
370
-3
390
F
  0
LAYER
  5
20C
100
AcDbSymbolTableRecord
100
AcDbLayerTableRecord
  2
RACCORDO
 70
0
 62
7
  6
CONTINUOUS
370
-3
390
F
  0
LAYER
  5
20D
100
AcDbSymbolTableRecord
100
AcDbLayerTableRecord
  2
RGB____0____0____0__
 70
0
 62
7
  6
CONTINUOUS
370
-3
390
F
  0
LAYER
  5
20E
100
AcDbSymbolTableRecord
100
AcDbLayerTableRecord
  2
SIMBOLI
 70
0
 62
7
  6
CONTINUOUS
370
-3
390
F
  0
LAYER
  5
20F
100
AcDbSymbolTableRecord
100
AcDbLayerTableRecord
  2
SMUSSO
 70
0
 62
7
  6
CONTINUOUS
370
-3
390
F
  0
LAYER
  5
210
100
AcDbSymbolTableRecord
100
AcDbLayerTableRecord
  2
SNAPLINE
 70
0
 62
7
  6
CONTINUOUS
370
-3
390
F
  0
LAYER
  5
211
100
AcDbSymbolTableRecord
100
AcDbLayerTableRecord
  2
SUPERFICI
 70
0
 62
7
  6
CONTINUOUS
370
-3
390
F
  0
LAYER
  5
212
100
AcDbSymbolTableRecord
100
AcDbLayerTableRecord
  2
TRASH
 70
0
 62
7
  6
CONTINUOUS
370
-3
390
F
  0
ENDTAB
  0
TABLE
  2
STYLE
  5
3
100
AcDbSymbolTable
 70
1
  0
STYLE
  5
11
100
AcDbSymbolTableRecord
100
AcDbTextStyleTableRecord
  2
STANDARD
 70
0
 40
0.0
 41
0.8
 50
0.0
 71
0
 42
0.2
  3
txt
  4

  0
STYLE
  5
213
100
AcDbSymbolTableRecord
100
AcDbTextStyleTableRecord
  2
TEXTSTYLE_1
 70
0
 40
0.0
 41
0.8
 50
0.0
 71
0
 42
0.2
  3
gdt
  4

  0
ENDTAB
  0
TABLE
  2
VIEW
  5
6
100
AcDbSymbolTable
 70
0
  0
ENDTAB
  0
TABLE
  2
UCS
  5
7
100
AcDbSymbolTable
 70
0
  0
ENDTAB
  0
TABLE
  2
APPID
  5
9
100
AcDbSymbolTable
 70
1
  0
APPID
  5
214
100
AcDbSymbolTableRecord
100
AcDbRegAppTableRecord
  2
ACAD
 70
0
  0
ENDTAB
  0
TABLE
  2
BLOCK_RECORD
  5
1
100
AcDbSymbolTable
 70
0
  0
BLOCK_RECORD
  5
215
100
AcDbSymbolTableRecord
100
AcDbBlockTableRecord
  2
*Model_Space
  0
BLOCK_RECORD
  5
216
100
AcDbSymbolTableRecord
100
AcDbBlockTableRecord
  2
*Paper_Space
  0
BLOCK_RECORD
  5
217
100
AcDbSymbolTableRecord
100
AcDbBlockTableRecord
  2
_FILLED
  0
BLOCK_RECORD
  5
218
100
AcDbSymbolTableRecord
100
AcDbBlockTableRecord
  2
*D0
  0
BLOCK_RECORD
  5
219
100
AcDbSymbolTableRecord
100
AcDbBlockTableRecord
  2
*D1
  0
BLOCK_RECORD
  5
21A
100
AcDbSymbolTableRecord
100
AcDbBlockTableRecord
  2
*D2
  0
ENDTAB
  0
TABLE
  2
DIMSTYLE
  5
A
100
AcDbSymbolTable
 70
1
100
AcDbDimStyleTable
 71
0
  0
DIMSTYLE
105
21B
100
AcDbSymbolTableRecord
100
AcDbDimStyleTableRecord
  2
STANDARD
 70
0
  3

  4

 40
1.0
 41
3.0
 42
0.5
 43
0.38
 44
1.5
 45
0.0
 46
0.0
 47
0.01
 48
0.01
140
3.0
141
0.09
142
0.0
143
25.4
144
1.0
145
0.0
146
1.0
147
0.625
 71
1
 72
0
 73
0
 74
0
 75
0
 76
0
 77
1
 78
8
 79
2
170
0
171
1
172
0
173
0
174
0
175
0
176
0
177
0
178
0
270
2
179
2
271
2
272
2
273
2
274
2
275
0
280
0
281
0
282
0
283
1
284
8
285
0
286
0
287
3
288
0
340
11
278
44
341
217
342
217
343
217
344
217
  0
DIMSTYLE
105
21C
100
AcDbSymbolTableRecord
100
AcDbDimStyleTableRecord
  2
DIMSTYLE_1
 70
0
  3

  4

 40
1.0
 41
3.0
 42
0.5
 43
0.38
 44
1.5
 45
0.0
 46
0.0
 47
0.0
 48
0.0
140
3.0
141
0.09
142
0.0
143
25.4
144
1.0
145
0.0
146
1.0
147
0.75
 71
0
 72
0
 73
0
 74
0
 75
0
 76
0
 77
1
 78
8
 79
2
170
0
171
1
172
0
173
0
174
0
175
0
176
0
177
0
178
0
270
2
179
2
271
0
272
0
273
2
274
2
275
0
280
0
281
0
282
0
283
1
284
8
285
0
286
0
287
3
288
0
340
11
278
44
341
217
342
217
343
217
344
217
  0
DIMSTYLE
105
21D
100
AcDbSymbolTableRecord
100
AcDbDimStyleTableRecord
  2
DIMSTYLE_2
 70
0
  3

  4

 40
1.0
 41
3.0
 42
0.5
 43
0.38
 44
1.5
 45
0.0
 46
0.0
 47
0.0
 48
0.0
140
3.0
141
0.09
142
0.0
143
25.4
144
1.0
145
0.0
146
1.0
147
0.75
 71
0
 72
0
 73
0
 74
0
 75
0
 76
0
 77
1
 78
8
 79
2
170
0
171
1
172
0
173
0
174
0
175
0
176
0
177
0
178
0
270
2
179
2
271
2
272
2
273
2
274
2
275
0
280
0
281
0
282
0
283
1
284
8
285
0
286
0
287
3
288
0
340
11
278
44
341
217
342
217
343
217
344
217
  0
ENDTAB
  0
ENDSEC
  0
SECTION
  2
BLOCKS
  0
BLOCK
  5
20
100
AcDbEntity
  8
0
100
AcDbBlockBegin
  2
*Model_Space
 70
0
 10
0.0
 20
0.0
 30
0.0
  3
*Model_Space
  1

  0
ENDBLK
  5
21
100
AcDbEntity
  8
0
100
AcDbBlockEnd
  0
BLOCK
  5
1C
100
AcDbEntity
  8
0
100
AcDbBlockBegin
  2
*Paper_Space
 70
0
 10
0.0
 20
0.0
 30
0.0
  3
*Paper_Space
  1

  0
ENDBLK
  5
1D
100
AcDbEntity
  8
0
100
AcDbBlockEnd
  0
BLOCK
  5
21E
100
AcDbEntity
  8
0
100
AcDbBlockBegin
  2
_FILLED
 70
64
 10
0.0
 20
0.0
  3
_FILLED
  1

  0
SOLID
  5
21F
100
AcDbEntity
  8
0
  6
BYBLOCK
 62
0
100
AcDbTrace
 10
0.0
 20
0.0
 11
-1.0
 21
0.3166666667
 12
-1.0
 22
-0.3166666667
 13
-1.0
 23
-0.3166666667
  0
ENDBLK
  5
220
100
AcDbEntity
  8
0
  6
BYBLOCK
 62
0
100
AcDbBlockEnd
  0
BLOCK
  5
221
100
AcDbEntity
  8
0
100
AcDbBlockBegin
 62
7
  6
CONTINUOUS
  2
*D0
 70
65
 10
0.0
 20
0.0
  3
*D0
  1

  0
LINE
  5
222
100
AcDbEntity
  8
0
100
AcDbLine
 62
7
  6
CONTINUOUS
 10
-68.569683078
 20
55.6002563137
 11
-68.569683078
 21
68.5202563137
  0
LINE
  5
223
100
AcDbEntity
  8
0
100
AcDbLine
 62
7
  6
CONTINUOUS
 10
68.569683078
 20
55.6002563137
 11
68.569683078
 21
68.5202563137
  0
LINE
  5
224
100
AcDbEntity
  8
0
100
AcDbLine
 62
7
  6
CONTINUOUS
 10
-68.569683078
 20
67.0202563137
 11
0.0
 21
67.0202563137
  0
LINE
  5
225
100
AcDbEntity
  8
0
100
AcDbLine
 62
7
  6
CONTINUOUS
 10
68.569683078
 20
67.0202563137
 11
0.0
 21
67.0202563137
  0
INSERT
  5
226
100
AcDbEntity
  8
0
100
AcDbBlockReference
 62
7
  6
CONTINUOUS
  2
_FILLED
 10
-68.569683078
 20
67.0202563137
 41
3.0
 42
3.0
 43
3.0
 50
180.0
  0
INSERT
  5
227
100
AcDbEntity
  8
0
100
AcDbBlockReference
 62
7
  6
CONTINUOUS
  2
_FILLED
 10
68.569683078
 20
67.0202563137
 41
3.0
 42
3.0
 43
3.0
  0
ENDBLK
  5
228
100
AcDbEntity
  8
0
  6
BYBLOCK
 62
0
100
AcDbBlockEnd
  0
BLOCK
  5
229
100
AcDbEntity
  8
0
100
AcDbBlockBegin
 62
7
  6
CONTINUOUS
  2
*D1
 70
65
 10
0.0
 20
0.0
  3
*D1
  1

  0
LINE
  5
22A
100
AcDbEntity
  8
0
100
AcDbLine
 62
7
  6
CONTINUOUS
 10
67.43
 20
56.7399393917
 11
78.0271507827
 21
56.7399393917
  0
LINE
  5
22B
100
AcDbEntity
  8
0
100
AcDbLine
 62
7
  6
CONTINUOUS
 10
67.43
 20
-57.3994267642
 11
78.0271507827
 21
-57.3994267642
  0
LINE
  5
22C
100
AcDbEntity
  8
0
100
AcDbLine
 62
7
  6
CONTINUOUS
 10
76.5271507827
 20
56.7399393917
 11
76.5271507827
 21
-0.3297436863
  0
LINE
  5
22D
100
AcDbEntity
  8
0
100
AcDbLine
 62
7
  6
CONTINUOUS
 10
76.5271507827
 20
-57.3994267642
 11
76.5271507827
 21
-0.3297436863
  0
INSERT
  5
22E
100
AcDbEntity
  8
0
100
AcDbBlockReference
 62
7
  6
CONTINUOUS
  2
_FILLED
 10
76.5271507827
 20
56.7399393917
 41
3.0
 42
3.0
 43
3.0
 50
90.0
  0
INSERT
  5
22F
100
AcDbEntity
  8
0
100
AcDbBlockReference
 62
7
  6
CONTINUOUS
  2
_FILLED
 10
76.5271507827
 20
-57.3994267642
 41
3.0
 42
3.0
 43
3.0
 50
270.0
  0
ENDBLK
  5
230
100
AcDbEntity
  8
0
  6
BYBLOCK
 62
0
100
AcDbBlockEnd
  0
BLOCK
  5
231
100
AcDbEntity
  8
0
100
AcDbBlockBegin
 62
7
  6
CONTINUOUS
  2
*D2
 70
65
 10
0.0
 20
0.0
  3
*D2
  1

  0
LINE
  5
232
100
AcDbEntity
  8
0
100
AcDbLine
 62
7
  6
CONTINUOUS
 10
-110.4521783284
 20
57.2399393917
 11
-110.4521783284
 21
68.5202563137
  0
LINE
  5
233
100
AcDbEntity
  8
0
100
AcDbLine
 62
7
  6
CONTINUOUS
 10
-134.2521783284
 20
55.1803738579
 11
-134.2521783284
 21
68.5202563137
  0
LINE
  5
234
100
AcDbEntity
  8
0
100
AcDbLine
 62
7
  6
CONTINUOUS
 10
-110.4521783284
 20
67.0202563137
 11
-122.3521783284
 21
67.0202563137
  0
LINE
  5
235
100
AcDbEntity
  8
0
100
AcDbLine
 62
7
  6
CONTINUOUS
 10
-134.2521783284
 20
67.0202563137
 11
-122.3521783284
 21
67.0202563137
  0
INSERT
  5
236
100
AcDbEntity
  8
0
100
AcDbBlockReference
 62
7
  6
CONTINUOUS
  2
_FILLED
 10
-110.4521783284
 20
67.0202563137
 41
3.0
 42
3.0
 43
3.0
  0
INSERT
  5
237
100
AcDbEntity
  8
0
100
AcDbBlockReference
 62
7
  6
CONTINUOUS
  2
_FILLED
 10
-134.2521783284
 20
67.0202563137
 41
3.0
 42
3.0
 43
3.0
 50
180.0
  0
ENDBLK
  5
238
100
AcDbEntity
  8
0
  6
BYBLOCK
 62
0
100
AcDbBlockEnd
  0
ENDSEC
  0
SECTION
  2
ENTITIES
  0
DIMENSION
  5
239
100
AcDbEntity
  8
0
100
AcDbDimension
 62
7
  6
CONTINUOUS
  2
*D0
 10
68.569683078
 20
67.0202563137
 11
-3.1071428571
 21
67.0202563137
 70
160
 71
2
 72
2
 41
0.9
 42
137.1393661559
  3
DIMSTYLE_1
100
AcDbAlignedDimension
 13
-68.569683078
 23
55.1002563137
 14
68.569683078
 24
55.1002563137
100
AcDbRotatedDimension
  0
DIMENSION
  5
23A
100
AcDbEntity
  8
0
100
AcDbDimension
 62
7
  6
CONTINUOUS
  2
*D1
 10
76.5271507827
 20
-57.3994267642
 11
76.5271507827
 21
-3.2226008291
 70
160
 71
2
 72
2
 41
0.9
 42
114.1393661559
  3
DIMSTYLE_1
100
AcDbAlignedDimension
 13
66.93
 23
56.7399393917
 14
66.93
 24
-57.3994267642
 50
270.0
100
AcDbRotatedDimension
  0
DIMENSION
  5
23B
100
AcDbEntity
  8
0
100
AcDbDimension
 62
7
  6
CONTINUOUS
  2
*D2
 10
-134.2521783284
 20
67.0202563137
 11
-126.6378926141
 21
67.0202563137
 70
160
 71
2
 72
2
 41
0.9
 42
23.8
  3
DIMSTYLE_2
100
AcDbAlignedDimension
 13
-110.4521783284
 23
56.7399393917
 14
-134.2521783284
 24
54.6803738579
 50
180.0
100
AcDbRotatedDimension
  0
LINE
  5
23C
100
AcDbEntity
  8
DRAFT
100
AcDbLine
 62
7
  6
CONTINUOUS
 10
-68.569683078
 20
55.1002563137
 11
-68.569683078
 21
-55.7597436863
  0
LINE
  5
23D
100
AcDbEntity
  8
DRAFT
100
AcDbLine
 62
7
  6
CONTINUOUS
 10
-68.43
 20
47.5809843006
 11
-68.43
 21
-55.7597436863
  0
LINE
  5
23E
100
AcDbEntity
  8
RACCORDO
100
AcDbLine
 62
7
  6
CONTINUOUS
 10
-68.4
 20
47.8814904427
 11
-68.4
 21
-55.8302234313
  0
LINE
  5
23F
100
AcDbEntity
  8
RACCORDO
100
AcDbLine
 62
250
  6
CONTINUOUS
 10
-67.9096377991
 20
-55.3398612305
 11
-67.9096377991
 21
54.6803738579
  0
LINE
  5
240
100
AcDbEntity
  8
DRAFT
100
AcDbLine
 62
250
  6
CONTINUOUS
 10
-66.93
 20
56.7399393917
 11
-66.93
 21
56.6073064356
  0
LINE
  5
241
100
AcDbEntity
  8
DRAFT
100
AcDbLine
 62
250
  6
CONTINUOUS
 10
-66.93
 20
-57.3994267642
 11
-66.93
 21
-57.2597436863
  0
LINE
  5
242
100
AcDbEntity
  8
RACCORDO
100
AcDbLine
 62
250
  6
CONTINUOUS
 10
-66.9099804742
 20
-55.3398612305
 11
-66.9099804742
 21
54.6803738579
  0
LINE
  5
243
100
AcDbEntity
  8
RACCORDO
100
AcDbLine
 62
250
  6
CONTINUOUS
 10
-66.5101175442
 20
56.0798941129
 11
-66.5101175442
 21
55.0802367879
  0
LINE
  5
244
100
AcDbEntity
  8
RACCORDO
100
AcDbLine
 62
250
  6
CONTINUOUS
 10
-66.5101175442
 20
-56.7393814854
 11
-66.5101175442
 21
-55.7397241604
  0
LINE
  5
245
100
AcDbEntity
  8
RACCORDO
100
AcDbLine
 62
250
  6
CONTINUOUS
 10
-60.2
 20
-48.2297436863
 11
-60.2
 21
35.7702563137
  0
LINE
  5
246
100
AcDbEntity
  8
RACCORDO
100
AcDbLine
 62
7
  6
CONTINUOUS
 10
-60.0
 20
-48.2297436863
 11
-60.0
 21
35.7702563137
  0
LWPOLYLINE
  5
247
100
AcDbEntity
  8
0
100
AcDbPolyline
 62
7
  6
CONTINUOUS
 90
5
 70
0
 43
0.3500000087
 10
-0.5357142998
 20
69.4845432373
 10
-0.1785714221
 20
69.6988255066
 10
-0.1785714221
 20
70.3416808411
 10
-0.5357142998
 20
70.7702539063
 10
-1.3928571327
 20
70.7702539063
  0
LINE
  5
248
100
AcDbEntity
  8
RACCORDO
100
AcDbLine
 62
250
  6
CONTINUOUS
 10
-59.5
 20
36.4702563137
 11
-59.5
 21
36.2702563137
  0
LINE
  5
249
100
AcDbEntity
  8
RACCORDO
100
AcDbLine
 62
250
  6
CONTINUOUS
 10
-59.5
 20
-48.9297436863
 11
-59.5
 21
-48.7297436863
  0
LINE
  5
24A
100
AcDbEntity
  8
DRAFT
100
AcDbLine
 62
7
  6
CONTINUOUS
 10
15.7
 20
-57.2597436863
 11
14.934009069
 21
-57.286492679
  0
LINE
  5
24B
100
AcDbEntity
  8
RACCORDO
100
AcDbLine
 62
7
  6
CONTINUOUS
 10
-12.7830947194
 20
-59.0202563137
 11
12.7836082454
 21
-59.0202563137
  0
LINE
  5
24C
100
AcDbEntity
  8
RACCORDO
100
AcDbLine
 62
250
  6
CONTINUOUS
 10
12.770944351
 20
-59.0075887929
 11
-12.770430825
 21
-59.0075887929
  0
LINE
  5
24D
100
AcDbEntity
  8
RACCORDO
100
AcDbLine
 62
250
  6
CONTINUOUS
 10
12.9240078464
 20
-58.4726839669
 11
-12.9234943203
 21
-58.4726839669
  0
LINE
  5
24E
100
AcDbEntity
  8
DRAFT
100
AcDbLine
 62
7
  6
CONTINUOUS
 10
-66.93
 20
-57.3994267642
 11
-14.8203633531
 21
-57.3994267642
  0
LINE
  5
24F
100
AcDbEntity
  8
DRAFT
100
AcDbLine
 62
7
  6
CONTINUOUS
 10
14.8208768791
 20
-57.3994267642
 11
66.93
 21
-57.3994267642
  0
LINE
  5
250
100
AcDbEntity
  8
DRAFT
100
AcDbLine
 62
7
  6
CONTINUOUS
 10
-66.93
 20
-57.2597436863
 11
-15.7
 21
-57.2597436863
  0
LINE
  5
251
100
AcDbEntity
  8
DRAFT
100
AcDbLine
 62
7
  6
CONTINUOUS
 10
15.7
 20
-57.2597436863
 11
66.93
 21
-57.2597436863
  0
LINE
  5
252
100
AcDbEntity
  8
RACCORDO
100
AcDbLine
 62
7
  6
CONTINUOUS
 10
-67.000479745
 20
-57.2297436863
 11
-15.55
 21
-57.2297436863
  0
LINE
  5
253
100
AcDbEntity
  8
RACCORDO
100
AcDbLine
 62
7
  6
CONTINUOUS
 10
15.55
 20
-57.2297436863
 11
67.000479745
 21
-57.2297436863
  0
LINE
  5
254
100
AcDbEntity
  8
RACCORDO
100
AcDbLine
 62
7
  6
CONTINUOUS
 10
-14.3609163104
 20
-56.9485496155
 11
14.3614298364
 21
-56.9485496155
  0
LINE
  5
255
100
AcDbEntity
  8
RACCORDO
100
AcDbLine
 62
250
  6
CONTINUOUS
 10
66.5101175442
 20
-56.7393814854
 11
-66.5101175442
 21
-56.7393814854
  0
LINE
  5
256
100
AcDbEntity
  8
DRAFT
100
AcDbLine
 62
250
  6
CONTINUOUS
 10
68.569683078
 20
-55.7597436863
 11
68.43
 21
-55.7597436863
  0
LINE
  5
257
100
AcDbEntity
  8
DRAFT
100
AcDbLine
 62
250
  6
CONTINUOUS
 10
-68.569683078
 20
-55.7597436863
 11
-68.43
 21
-55.7597436863
  0
LINE
  5
258
100
AcDbEntity
  8
RACCORDO
100
AcDbLine
 62
250
  6
CONTINUOUS
 10
66.5101175442
 20
-55.7397241604
 11
-66.5101175442
 21
-55.7397241604
  0
LINE
  5
259
100
AcDbEntity
  8
RACCORDO
100
AcDbLine
 62
250
  6
CONTINUOUS
 10
-67.9096377991
 20
-55.3398612305
 11
-66.9099804742
 21
-55.3398612305
  0
LINE
  5
25A
100
AcDbEntity
  8
RACCORDO
100
AcDbLine
 62
250
  6
CONTINUOUS
 10
67.9096377991
 20
-55.3398612305
 11
66.9099804742
 21
-55.3398612305
  0
LINE
  5
25B
100
AcDbEntity
  8
DRAFT
100
AcDbLine
 62
7
  6
CONTINUOUS
 10
-14.9334769276
 20
-57.2865112618
 11
-15.7
 21
-57.2597436863
  0
LWPOLYLINE
  5
25C
100
AcDbEntity
  8
0
100
AcDbPolyline
 62
7
  6
CONTINUOUS
 90
3
 70
0
 43
0.3500000087
 10
-3.107142732
 20
69.9131163025
 10
-2.2500000656
 20
70.7702539063
 10
-2.2500000656
 20
67.7702595032
  0
LINE
  5
25D
100
AcDbEntity
  8
0
100
AcDbLine
 62
7
  6
CONTINUOUS
 10
51.8
 20
-53.1297436863
 11
52.211912
 21
-53.1297436863
  0
LINE
  5
25E
100
AcDbEntity
  8
0
100
AcDbLine
 62
7
  6
CONTINUOUS
 10
52.959294
 20
-53.1297436863
 11
53.371206
 21
-53.1297436863
  0
LINE
  5
25F
100
AcDbEntity
  8
0
100
AcDbLine
 62
7
  6
CONTINUOUS
 10
56.836419
 20
-53.1297436863
 11
57.209892
 21
-53.1297436863
  0
LINE
  5
260
100
AcDbEntity
  8
0
100
AcDbLine
 62
7
  6
CONTINUOUS
 10
59.197814
 20
-53.1297436863
 11
59.571287
 21
-53.1297436863
  0
LINE
  5
261
100
AcDbEntity
  8
0
100
AcDbLine
 62
7
  6
CONTINUOUS
 10
55.532978
 20
-52.4002706863
 11
56.836419
 21
-52.4002706863
  0
LINE
  5
262
100
AcDbEntity
  8
0
100
AcDbLine
 62
7
  6
CONTINUOUS
 10
57.209892
 20
-52.4002706863
 11
57.647575
 21
-52.4002706863
  0
LINE
  5
263
100
AcDbEntity
  8
0
100
AcDbLine
 62
7
  6
CONTINUOUS
 10
57.893936
 20
-52.4002706863
 11
59.197814
 21
-52.4002706863
  0
LINE
  5
264
100
AcDbEntity
  8
0
100
AcDbLine
 62
7
  6
CONTINUOUS
 10
59.571287
 20
-52.4002706863
 11
60.00897
 21
-52.4002706863
  0
LINE
  5
265
100
AcDbEntity
  8
0
100
AcDbLine
 62
7
  6
CONTINUOUS
 10
60.00897
 20
-52.0770316863
 11
59.571287
 21
-52.0770316863
  0
LINE
  5
266
100
AcDbEntity
  8
0
100
AcDbLine
 62
7
  6
CONTINUOUS
 10
59.197814
 20
-52.0770316863
 11
58.238143
 21
-52.0770316863
  0
LINE
  5
267
100
AcDbEntity
  8
0
100
AcDbLine
 62
7
  6
CONTINUOUS
 10
57.647575
 20
-52.0770316863
 11
57.209892
 21
-52.0770316863
  0
LINE
  5
268
100
AcDbEntity
  8
0
100
AcDbLine
 62
7
  6
CONTINUOUS
 10
56.836419
 20
-52.0770316863
 11
55.876748
 21
-52.0770316863
  0
LINE
  5
269
100
AcDbEntity
  8
0
100
AcDbLine
 62
7
  6
CONTINUOUS
 10
53.371206
 20
-51.8411546863
 11
54.3308684468
 21
-51.8411546863
  0
LINE
  5
26A
100
AcDbEntity
  8
0
100
AcDbLine
 62
7
  6
CONTINUOUS
 10
54.1906719297
 20
-51.4873376863
 11
53.371206
 21
-51.4873376863
  0
LINE
  5
26B
100
AcDbEntity
  8
0
100
AcDbLine
 62
7
  6
CONTINUOUS
 10
53.371206
 20
-50.4302576863
 11
54.2076937565
 21
-50.4302576863
  0
LINE
  5
26C
100
AcDbEntity
  8
0
100
AcDbLine
 62
7
  6
CONTINUOUS
 10
59.571287
 20
-50.1419636863
 11
59.261588
 21
-50.1419636863
  0
LINE
  5
26D
100
AcDbEntity
  8
0
100
AcDbLine
 62
7
  6
CONTINUOUS
 10
57.209892
 20
-50.1419636863
 11
56.900194
 21
-50.1419636863
  0
LINE
  5
26E
100
AcDbEntity
  8
0
100
AcDbLine
 62
7
  6
CONTINUOUS
 10
54.3308738031
 20
-50.0808096863
 11
52.959294
 21
-50.0808096863
  0
LINE
  5
26F
100
AcDbEntity
  8
0
100
AcDbLine
 62
7
  6
CONTINUOUS
 10
52.211912
 20
-50.0808096863
 11
51.8
 21
-50.0808096863
  0
LINE
  5
270
100
AcDbEntity
  8
RACCORDO
100
AcDbLine
 62
250
  6
CONTINUOUS
 10
59.5
 20
-48.9297436863
 11
-59.5
 21
-48.9297436863
  0
LINE
  5
271
100
AcDbEntity
  8
RACCORDO
100
AcDbLine
 62
7
  6
CONTINUOUS
 10
59.5
 20
-48.7297436863
 11
-59.5
 21
-48.7297436863
  0
LINE
  5
272
100
AcDbEntity
  8
RACCORDO
100
AcDbLine
 62
250
  6
CONTINUOUS
 10
60.2
 20
-48.2297436863
 11
60.0
 21
-48.2297436863
  0
LINE
  5
273
100
AcDbEntity
  8
RACCORDO
100
AcDbLine
 62
250
  6
CONTINUOUS
 10
-60.2
 20
-48.2297436863
 11
-60.0
 21
-48.2297436863
  0
LINE
  5
274
100
AcDbEntity
  8
RACCORDO
100
AcDbLine
 62
7
  6
CONTINUOUS
 10
-15.2007124567
 20
-57.0197436863
 11
-13.4892252392
 21
-58.728233935
  0
LINE
  5
275
100
AcDbEntity
  8
RACCORDO
100
AcDbLine
 62
250
  6
CONTINUOUS
 10
-15.1102348938
 20
-56.9662998242
 11
-13.6291214701
 21
-58.5367612914
  0
LINE
  5
276
100
AcDbEntity
  8
RACCORDO
100
AcDbLine
 62
250
  6
CONTINUOUS
 10
-14.3609163104
 20
-56.9485496155
 11
-12.9234943203
 21
-58.4726839669
  0
LINE
  5
277
100
AcDbEntity
  8
RACCORDO
100
AcDbLine
 62
7
  6
CONTINUOUS
 10
15.2007121641
 20
-57.0202559628
 11
15.1107484198
 21
-56.9662998242
  0
LINE
  5
278
100
AcDbEntity
  8
0
100
AcDbLine
 62
7
  6
CONTINUOUS
 10
15.55
 20
-57.2297436863
 11
15.2007121641
 21
-57.0202559628
  0
LINE
  5
279
100
AcDbEntity
  8
RACCORDO
100
AcDbLine
 62
250
  6
CONTINUOUS
 10
12.7836082454
 20
-59.0202563137
 11
12.770944351
 21
-59.0075887929
  0
LINE
  5
27A
100
AcDbEntity
  8
RACCORDO
100
AcDbLine
 62
250
  6
CONTINUOUS
 10
13.4897387652
 20
-58.728233935
 11
13.4765715008
 21
-58.7150629
  0
LINE
  5
27B
100
AcDbEntity
  8
0
100
AcDbLine
 62
7
  6
CONTINUOUS
 10
-5.42338
 20
51.4823653137
 11
-6.209048
 21
48.7293773137
  0
LINE
  5
27C
100
AcDbEntity
  8
0
100
AcDbLine
 62
7
  6
CONTINUOUS
 10
-5.874698
 20
47.4828533137
 11
-4.589095
 21
51.4823653137
  0
LINE
  5
27D
100
AcDbEntity
  8
0
100
AcDbLine
 62
7
  6
CONTINUOUS
 10
-0.138804
 20
51.4823653137
 11
-0.973659
 21
49.2618233137
  0
LINE
  5
27E
100
AcDbEntity
  8
0
100
AcDbLine
 62
7
  6
CONTINUOUS
 10
-0.919674
 20
47.4828533137
 11
0.072969
 21
50.0835723137
  0
LINE
  5
27F
100
AcDbEntity
  8
DRAFT
100
AcDbLine
 62
7
  6
CONTINUOUS
 10
-15.7
 20
-57.2597436863
 11
-15.7
 21
-57.2297436863
  0
LINE
  5
280
100
AcDbEntity
  8
0
100
AcDbLine
 62
7
  6
CONTINUOUS
 10
2.446799
 20
51.4823653137
 11
1.192297
 21
47.4828533137
  0
LINE
  5
281
100
AcDbEntity
  8
0
100
AcDbLine
 62
7
  6
CONTINUOUS
 10
-2.19631
 20
47.4828533137
 11
-2.016148
 21
50.0944593137
  0
LINE
  5
282
100
AcDbEntity
  8
0
100
AcDbLine
 62
7
  6
CONTINUOUS
 10
-2.633862
 20
51.4823653137
 11
-2.994994
 21
47.4828533137
  0
LINE
  5
283
100
AcDbEntity
  8
0
100
AcDbLine
 62
7
  6
CONTINUOUS
 10
2.419237
 20
48.8991313137
 11
2.834925
 21
50.3834013137
  0
LINE
  5
284
100
AcDbEntity
  8
0
100
AcDbLine
 62
7
  6
CONTINUOUS
 10
2.018095
 20
47.4828533137
 11
2.248463
 21
48.2812983137
  0
LINE
  5
285
100
AcDbEntity
  8
RACCORDO
100
AcDbLine
 62
250
  6
CONTINUOUS
 10
-68.4
 20
-55.8302234313
 11
-67.9096377991
 21
-55.3398612305
  0
LINE
  5
286
100
AcDbEntity
  8
RACCORDO
100
AcDbLine
 62
250
  6
CONTINUOUS
 10
-67.000479745
 20
-57.2297436863
 11
-66.5101175442
 21
-56.7393814854
  0
LINE
  5
287
100
AcDbEntity
  8
RACCORDO
100
AcDbLine
 62
250
  6
CONTINUOUS
 10
-67.9096377991
 20
54.6803738579
 11
-68.4074777788
 21
55.1782138376
  0
LINE
  5
288
100
AcDbEntity
  8
RACCORDO
100
AcDbLine
 62
250
  6
CONTINUOUS
 10
-66.5101175442
 20
56.0798941129
 11
-66.9825547872
 21
56.5523313559
  0
LINE
  5
289
100
AcDbEntity
  8
0
100
AcDbLine
 62
7
  6
CONTINUOUS
 10
-4.279278
 20
51.4826053137
 11
-4.279278
 21
47.4828533137
  0
LINE
  5
28A
100
AcDbEntity
  8
0
100
AcDbLine
 62
7
  6
CONTINUOUS
 10
-3.444423
 20
47.4828533137
 11
-3.444423
 21
51.4826053137
  0
LWPOLYLINE
  5
28B
100
AcDbEntity
  8
0
100
AcDbPolyline
 62
7
  6
CONTINUOUS
 90
4
 70
0
 43
0.3500000087
 10
0.7499999997
 20
70.1273985718
 10
0.7499999997
 20
70.7702539063
 10
2.2500000656
 20
70.7702539063
 10
1.3928571327
 20
67.7702595032
  0
LINE
  5
28C
100
AcDbEntity
  8
0
100
AcDbLine
 62
7
  6
CONTINUOUS
 10
1.061203
 20
47.4828533137
 11
0.687203
 21
51.4823653137
  0
LINE
  5
28D
100
AcDbEntity
  8
0
100
AcDbLine
 62
7
  6
CONTINUOUS
 10
0.072969
 20
50.0835723137
 11
0.244493
 21
47.4828533137
  0
LINE
  5
28E
100
AcDbEntity
  8
0
100
AcDbLine
 62
7
  6
CONTINUOUS
 10
4.7267246802
 20
51.4356379222
 11
4.7267246802
 21
47.4828532018
  0
LINE
  5
28F
100
AcDbEntity
  8
0
100
AcDbLine
 62
7
  6
CONTINUOUS
 10
5.5305380517
 20
49.7030648525
 11
5.5305380517
 21
50.8010089554
  0
LINE
  5
290
100
AcDbEntity
  8
0
100
AcDbLine
 62
7
  6
CONTINUOUS
 10
5.5582205912
 20
47.4828532018
 11
5.5582205912
 21
49.048041382
  0
LWPOLYLINE
  5
291
100
AcDbEntity
  8
0
100
AcDbPolyline
 62
7
  6
CONTINUOUS
 90
2
 70
0
 43
0.3500000087
 10
75.7771544922
 20
1.2059699936
 10
74.2771530273
 20
1.2059699936
  0
LINE
  5
292
100
AcDbEntity
  8
0
100
AcDbLine
 62
7
  6
CONTINUOUS
 10
6.8730962309
 20
49.3497900604
 11
6.8730962309
 21
49.3734236911
  0
LINE
  5
293
100
AcDbEntity
  8
RACCORDO
100
AcDbLine
 62
250
  6
CONTINUOUS
 10
66.9825547872
 20
56.5523313559
 11
66.5101175442
 21
56.0798941129
  0
LINE
  5
294
100
AcDbEntity
  8
RACCORDO
100
AcDbLine
 62
250
  6
CONTINUOUS
 10
68.4074777788
 20
55.1782138376
 11
67.9096377991
 21
54.6803738579
  0
LINE
  5
295
100
AcDbEntity
  8
RACCORDO
100
AcDbLine
 62
250
  6
CONTINUOUS
 10
66.5101175442
 20
-56.7393814854
 11
67.000479745
 21
-57.2297436863
  0
LINE
  5
296
100
AcDbEntity
  8
RACCORDO
100
AcDbLine
 62
250
  6
CONTINUOUS
 10
67.9096377991
 20
-55.3398612305
 11
68.4
 21
-55.8302234313
  0
LINE
  5
297
100
AcDbEntity
  8
0
100
AcDbLine
 62
7
  6
CONTINUOUS
 10
-7.878338
 20
51.4823653137
 11
-6.610415
 21
47.4828533137
  0
LINE
  5
298
100
AcDbEntity
  8
0
100
AcDbLine
 62
7
  6
CONTINUOUS
 10
-6.209048
 20
48.7293773137
 11
-6.971428
 21
51.4823653137
  0
LINE
  5
299
100
AcDbEntity
  8
DRAFT
100
AcDbLine
 62
7
  6
CONTINUOUS
 10
15.7
 20
-57.2297436863
 11
15.7
 21
-57.2597436863
  0
LINE
  5
29A
100
AcDbEntity
  8
0
100
AcDbLine
 62
7
  6
CONTINUOUS
 10
-2.016148
 20
50.0944593137
 11
-1.036762
 21
47.4828533137
  0
LINE
  5
29B
100
AcDbEntity
  8
0
100
AcDbLine
 62
7
  6
CONTINUOUS
 10
-0.973659
 20
49.2618233137
 11
-1.799696
 21
51.4823653137
  0
LINE
  5
29C
100
AcDbEntity
  8
0
100
AcDbLine
 62
7
  6
CONTINUOUS
 10
4.481571
 20
47.4828533137
 11
3.254421
 21
51.4823653137
  0
LINE
  5
29D
100
AcDbEntity
  8
0
100
AcDbLine
 62
7
  6
CONTINUOUS
 10
3.385396
 20
48.2812983137
 11
3.601668
 21
47.4828533137
  0
LINE
  5
29E
100
AcDbEntity
  8
0
100
AcDbLine
 62
7
  6
CONTINUOUS
 10
2.834925
 20
50.3834013137
 11
3.218551
 21
48.8991313137
  0
LINE
  5
29F
100
AcDbEntity
  8
RACCORDO
100
AcDbLine
 62
250
  6
CONTINUOUS
 10
-13.4760579748
 20
-58.7150629
 11
-13.4892252392
 21
-58.728233935
  0
LINE
  5
2A0
100
AcDbEntity
  8
RACCORDO
100
AcDbLine
 62
250
  6
CONTINUOUS
 10
-12.770430825
 20
-59.0075887929
 11
-12.7830947194
 21
-59.0202563137
  0
LINE
  5
2A1
100
AcDbEntity
  8
RACCORDO
100
AcDbLine
 62
250
  6
CONTINUOUS
 10
-60.2
 20
35.7702563137
 11
-60.0
 21
35.7702563137
  0
LINE
  5
2A2
100
AcDbEntity
  8
RACCORDO
100
AcDbLine
 62
250
  6
CONTINUOUS
 10
60.2
 20
35.7702563137
 11
60.0
 21
35.7702563137
  0
LINE
  5
2A3
100
AcDbEntity
  8
RACCORDO
100
AcDbLine
 62
7
  6
CONTINUOUS
 10
-59.5
 20
36.2702563137
 11
59.5
 21
36.2702563137
  0
LINE
  5
2A4
100
AcDbEntity
  8
RACCORDO
100
AcDbLine
 62
250
  6
CONTINUOUS
 10
-59.5
 20
36.4702563137
 11
59.5
 21
36.4702563137
  0
LINE
  5
2A5
100
AcDbEntity
  8
0
100
AcDbLine
 62
7
  6
CONTINUOUS
 10
-15.2004558893
 20
-57.0202562556
 11
-15.55
 21
-57.2297436863
  0
LINE
  5
2A6
100
AcDbEntity
  8
RACCORDO
100
AcDbLine
 62
7
  6
CONTINUOUS
 10
-15.1102348938
 20
-56.9662998242
 11
-15.2004558893
 21
-57.0202562556
  0
LINE
  5
2A7
100
AcDbEntity
  8
0
100
AcDbLine
 62
7
  6
CONTINUOUS
 10
-6.610415
 20
47.4828533137
 11
-5.874698
 21
47.4828533137
  0
LINE
  5
2A8
100
AcDbEntity
  8
0
100
AcDbLine
 62
7
  6
CONTINUOUS
 10
-4.279278
 20
47.4828533137
 11
-3.444423
 21
47.4828533137
  0
LINE
  5
2A9
100
AcDbEntity
  8
0
100
AcDbLine
 62
7
  6
CONTINUOUS
 10
-2.994994
 20
47.4828533137
 11
-2.19631
 21
47.4828533137
  0
LINE
  5
2AA
100
AcDbEntity
  8
0
100
AcDbLine
 62
7
  6
CONTINUOUS
 10
-1.036762
 20
47.4828533137
 11
-0.919674
 21
47.4828533137
  0
LINE
  5
2AB
100
AcDbEntity
  8
0
100
AcDbLine
 62
7
  6
CONTINUOUS
 10
0.244493
 20
47.4828533137
 11
1.061203
 21
47.4828533137
  0
LINE
  5
2AC
100
AcDbEntity
  8
0
100
AcDbLine
 62
7
  6
CONTINUOUS
 10
1.192297
 20
47.4828533137
 11
2.018095
 21
47.4828533137
  0
LINE
  5
2AD
100
AcDbEntity
  8
0
100
AcDbLine
 62
7
  6
CONTINUOUS
 10
3.601668
 20
47.4828533137
 11
4.481571
 21
47.4828533137
  0
LINE
  5
2AE
100
AcDbEntity
  8
0
100
AcDbLine
 62
7
  6
CONTINUOUS
 10
4.7267246802
 20
47.4828532018
 11
5.5582205912
 21
47.4828532018
  0
LINE
  5
2AF
100
AcDbEntity
  8
0
100
AcDbLine
 62
7
  6
CONTINUOUS
 10
6.8366860434
 20
47.4828532018
 11
7.6397196251
 21
47.4828532018
  0
LINE
  5
2B0
100
AcDbEntity
  8
DRAFT
100
AcDbLine
 62
7
  6
CONTINUOUS
 10
-68.43
 20
47.5809843006
 11
-68.4
 21
47.5809843006
  0
LINE
  5
2B1
100
AcDbEntity
  8
DRAFT
100
AcDbLine
 62
7
  6
CONTINUOUS
 10
68.4
 20
47.5809843006
 11
68.43
 21
47.5809843006
  0
LINE
  5
2B2
100
AcDbEntity
  8
0
100
AcDbLine
 62
7
  6
CONTINUOUS
 10
2.248463
 20
48.2812983137
 11
3.385396
 21
48.2812983137
  0
LINE
  5
2B3
100
AcDbEntity
  8
0
100
AcDbLine
 62
7
  6
CONTINUOUS
 10
3.218551
 20
48.8991313137
 11
2.419237
 21
48.8991313137
  0
LINE
  5
2B4
100
AcDbEntity
  8
0
100
AcDbLine
 62
7
  6
CONTINUOUS
 10
5.5582205912
 20
49.048041382
 11
6.0058499546
 21
49.048041382
  0
LINE
  5
2B5
100
AcDbEntity
  8
0
100
AcDbLine
 62
7
  6
CONTINUOUS
 10
51.8
 20
-50.0808096863
 11
51.8
 21
-53.1297436863
  0
LINE
  5
2B6
100
AcDbEntity
  8
0
100
AcDbLine
 62
7
  6
CONTINUOUS
 10
52.211912
 20
-53.1297436863
 11
52.211912
 21
-50.0808096863
  0
LINE
  5
2B7
100
AcDbEntity
  8
0
100
AcDbLine
 62
7
  6
CONTINUOUS
 10
52.959294
 20
-50.0808096863
 11
52.959294
 21
-53.1297436863
  0
LINE
  5
2B8
100
AcDbEntity
  8
0
100
AcDbLine
 62
7
  6
CONTINUOUS
 10
53.371206
 20
-53.1297436863
 11
53.371206
 21
-51.8411546863
  0
LINE
  5
2B9
100
AcDbEntity
  8
0
100
AcDbLine
 62
7
  6
CONTINUOUS
 10
53.371206
 20
-51.4873376863
 11
53.371206
 21
-50.4302576863
  0
LINE
  5
2BA
100
AcDbEntity
  8
RACCORDO
100
AcDbLine
 62
250
  6
CONTINUOUS
 10
12.9240078464
 20
-58.4726839669
 11
14.3614298364
 21
-56.9485496155
  0
LINE
  5
2BB
100
AcDbEntity
  8
RACCORDO
100
AcDbLine
 62
250
  6
CONTINUOUS
 10
13.6296349961
 20
-58.5367612914
 11
15.1107484198
 21
-56.9662998242
  0
LINE
  5
2BC
100
AcDbEntity
  8
RACCORDO
100
AcDbLine
 62
7
  6
CONTINUOUS
 10
15.2012259827
 20
-57.0197436863
 11
13.4897387652
 21
-58.728233935
  0
LINE
  5
2BD
100
AcDbEntity
  8
0
100
AcDbLine
 62
7
  6
CONTINUOUS
 10
6.0076494697
 20
49.7030648525
 11
5.5305380517
 21
49.7030648525
  0
LINE
  5
2BE
100
AcDbEntity
  8
0
100
AcDbLine
 62
7
  6
CONTINUOUS
 10
3.254421
 20
51.4823653137
 11
2.446799
 21
51.4823653137
  0
LINE
  5
2BF
100
AcDbEntity
  8
0
100
AcDbLine
 62
7
  6
CONTINUOUS
 10
0.687203
 20
51.4823653137
 11
-0.138804
 21
51.4823653137
  0
LINE
  5
2C0
100
AcDbEntity
  8
0
100
AcDbLine
 62
7
  6
CONTINUOUS
 10
-1.799696
 20
51.4823653137
 11
-2.633862
 21
51.4823653137
  0
LINE
  5
2C1
100
AcDbEntity
  8
0
100
AcDbLine
 62
7
  6
CONTINUOUS
 10
-4.589095
 20
51.4823653137
 11
-5.42338
 21
51.4823653137
  0
LINE
  5
2C2
100
AcDbEntity
  8
0
100
AcDbLine
 62
7
  6
CONTINUOUS
 10
-6.971428
 20
51.4823653137
 11
-7.878338
 21
51.4823653137
  0
LINE
  5
2C3
100
AcDbEntity
  8
0
100
AcDbLine
 62
7
  6
CONTINUOUS
 10
-3.444423
 20
51.4826053137
 11
-4.279278
 21
51.4826053137
  0
LINE
  5
2C4
100
AcDbEntity
  8
RACCORDO
100
AcDbLine
 62
250
  6
CONTINUOUS
 10
-67.9096377991
 20
54.6803738579
 11
-66.9099804742
 21
54.6803738579
  0
LINE
  5
2C5
100
AcDbEntity
  8
RACCORDO
100
AcDbLine
 62
250
  6
CONTINUOUS
 10
67.9096377991
 20
54.6803738579
 11
66.9099804742
 21
54.6803738579
  0
LINE
  5
2C6
100
AcDbEntity
  8
RACCORDO
100
AcDbLine
 62
250
  6
CONTINUOUS
 10
-66.5101175442
 20
55.0802367879
 11
66.5101175442
 21
55.0802367879
  0
LWPOLYLINE
  5
2C7
100
AcDbEntity
  8
0
100
AcDbPolyline
 62
7
  6
CONTINUOUS
 90
3
 70
0
 43
0.3500000087
 10
73.6342976929
 20
-3.2226005829
 10
72.7771515625
 20
-2.36545765
 10
75.7771544922
 20
-2.36545765
  0
LWPOLYLINE
  5
2C8
100
AcDbEntity
  8
0
100
AcDbPolyline
 62
7
  6
CONTINUOUS
 90
3
 70
0
 43
0.3500000087
 10
73.6342976929
 20
-1.5083147171
 10
72.7771515625
 20
-0.65117285
 10
75.7771544922
 20
-0.65117285
  0
LINE
  5
2C9
100
AcDbEntity
  8
0
100
AcDbLine
 62
7
  6
CONTINUOUS
 10
55.532978
 20
-52.0377186863
 11
55.532978
 21
-52.4002706863
  0
LINE
  5
2CA
100
AcDbEntity
  8
0
100
AcDbLine
 62
7
  6
CONTINUOUS
 10
56.836419
 20
-50.7111076863
 11
56.836419
 21
-52.0770316863
  0
LINE
  5
2CB
100
AcDbEntity
  8
0
100
AcDbLine
 62
7
  6
CONTINUOUS
 10
56.836419
 20
-52.4002706863
 11
56.836419
 21
-53.1297436863
  0
LINE
  5
2CC
100
AcDbEntity
  8
0
100
AcDbLine
 62
7
  6
CONTINUOUS
 10
57.209892
 20
-53.1297436863
 11
57.209892
 21
-52.4002706863
  0
LINE
  5
2CD
100
AcDbEntity
  8
0
100
AcDbLine
 62
7
  6
CONTINUOUS
 10
57.209892
 20
-52.0770316863
 11
57.209892
 21
-50.1419636863
  0
LINE
  5
2CE
100
AcDbEntity
  8
0
100
AcDbLine
 62
7
  6
CONTINUOUS
 10
57.647575
 20
-52.4002706863
 11
57.647575
 21
-52.0770316863
  0
LINE
  5
2CF
100
AcDbEntity
  8
0
100
AcDbLine
 62
7
  6
CONTINUOUS
 10
57.893936
 20
-52.0377186863
 11
57.893936
 21
-52.4002706863
  0
LINE
  5
2D0
100
AcDbEntity
  8
0
100
AcDbLine
 62
7
  6
CONTINUOUS
 10
59.197814
 20
-50.7104806863
 11
59.197814
 21
-52.0770316863
  0
LINE
  5
2D1
100
AcDbEntity
  8
0
100
AcDbLine
 62
7
  6
CONTINUOUS
 10
59.197814
 20
-52.4002706863
 11
59.197814
 21
-53.1297436863
  0
LINE
  5
2D2
100
AcDbEntity
  8
RACCORDO
100
AcDbLine
 62
250
  6
CONTINUOUS
 10
59.5
 20
36.4702563137
 11
59.5
 21
36.2702563137
  0
LINE
  5
2D3
100
AcDbEntity
  8
RACCORDO
100
AcDbLine
 62
250
  6
CONTINUOUS
 10
59.5
 20
-48.9297436863
 11
59.5
 21
-48.7297436863
  0
LINE
  5
2D4
100
AcDbEntity
  8
0
100
AcDbLine
 62
7
  6
CONTINUOUS
 10
59.571287
 20
-53.1297436863
 11
59.571287
 21
-52.4002706863
  0
LINE
  5
2D5
100
AcDbEntity
  8
0
100
AcDbLine
 62
7
  6
CONTINUOUS
 10
59.571287
 20
-52.0770316863
 11
59.571287
 21
-50.1419636863
  0
LINE
  5
2D6
100
AcDbEntity
  8
RACCORDO
100
AcDbLine
 62
7
  6
CONTINUOUS
 10
60.0
 20
35.7702563137
 11
60.0
 21
-48.2297436863
  0
LINE
  5
2D7
100
AcDbEntity
  8
0
100
AcDbLine
 62
7
  6
CONTINUOUS
 10
60.00897
 20
-52.4002706863
 11
60.00897
 21
-52.0770316863
  0
LINE
  5
2D8
100
AcDbEntity
  8
RACCORDO
100
AcDbLine
 62
250
  6
CONTINUOUS
 10
60.2
 20
35.7702563137
 11
60.2
 21
-48.2297436863
  0
LINE
  5
2D9
100
AcDbEntity
  8
DRAFT
100
AcDbLine
 62
250
  6
CONTINUOUS
 10
68.569683078
 20
55.1002563137
 11
68.4477541141
 21
55.1002563137
  0
LINE
  5
2DA
100
AcDbEntity
  8
DRAFT
100
AcDbLine
 62
250
  6
CONTINUOUS
 10
-68.569683078
 20
55.1002563137
 11
-68.4477541141
 21
55.1002563137
  0
LINE
  5
2DB
100
AcDbEntity
  8
DRAFT
100
AcDbLine
 62
7
  6
CONTINUOUS
 10
-68.1806244511
 20
55.9297560741
 11
-68.167928766
 21
55.9297560741
  0
LINE
  5
2DC
100
AcDbEntity
  8
DRAFT
100
AcDbLine
 62
7
  6
CONTINUOUS
 10
68.167928766
 20
55.9297560741
 11
68.1806244511
 21
55.9297560741
  0
LINE
  5
2DD
100
AcDbEntity
  8
RACCORDO
100
AcDbLine
 62
250
  6
CONTINUOUS
 10
-66.5101175442
 20
56.0798941129
 11
66.5101175442
 21
56.0798941129
  0
LINE
  5
2DE
100
AcDbEntity
  8
RACCORDO
100
AcDbLine
 62
7
  6
CONTINUOUS
 10
-66.9825547872
 20
56.5523313559
 11
66.9825547872
 21
56.5523313559
  0
LINE
  5
2DF
100
AcDbEntity
  8
DRAFT
100
AcDbLine
 62
7
  6
CONTINUOUS
 10
66.93
 20
56.6073064356
 11
-66.93
 21
56.6073064356
  0
LINE
  5
2E0
100
AcDbEntity
  8
DRAFT
100
AcDbLine
 62
7
  6
CONTINUOUS
 10
66.93
 20
56.7399393917
 11
-66.93
 21
56.7399393917
  0
LINE
  5
2E1
100
AcDbEntity
  8
RACCORDO
100
AcDbLine
 62
250
  6
CONTINUOUS
 10
66.5101175442
 20
56.0798941129
 11
66.5101175442
 21
55.0802367879
  0
LINE
  5
2E2
100
AcDbEntity
  8
RACCORDO
100
AcDbLine
 62
250
  6
CONTINUOUS
 10
66.5101175442
 20
-56.7393814854
 11
66.5101175442
 21
-55.7397241604
  0
LINE
  5
2E3
100
AcDbEntity
  8
RACCORDO
100
AcDbLine
 62
250
  6
CONTINUOUS
 10
66.9099804742
 20
54.6803738579
 11
66.9099804742
 21
-55.3398612305
  0
LINE
  5
2E4
100
AcDbEntity
  8
DRAFT
100
AcDbLine
 62
250
  6
CONTINUOUS
 10
66.93
 20
-57.3994267642
 11
66.93
 21
-57.2597436863
  0
LINE
  5
2E5
100
AcDbEntity
  8
DRAFT
100
AcDbLine
 62
250
  6
CONTINUOUS
 10
66.93
 20
56.6073064356
 11
66.93
 21
56.7399393917
  0
LINE
  5
2E6
100
AcDbEntity
  8
RACCORDO
100
AcDbLine
 62
250
  6
CONTINUOUS
 10
67.9096377991
 20
54.6803738579
 11
67.9096377991
 21
-55.3398612305
  0
LINE
  5
2E7
100
AcDbEntity
  8
RACCORDO
100
AcDbLine
 62
7
  6
CONTINUOUS
 10
68.4
 20
-55.8302234313
 11
68.4
 21
47.8814904427
  0
LINE
  5
2E8
100
AcDbEntity
  8
DRAFT
100
AcDbLine
 62
7
  6
CONTINUOUS
 10
68.43
 20
-55.7597436863
 11
68.43
 21
47.5809843006
  0
LINE
  5
2E9
100
AcDbEntity
  8
DRAFT
100
AcDbLine
 62
7
  6
CONTINUOUS
 10
68.569683078
 20
-55.7597436863
 11
68.569683078
 21
55.1002563137
  0
LWPOLYLINE
  5
2EA
100
AcDbEntity
  8
0
100
AcDbPolyline
 62
7
  6
CONTINUOUS
 90
6
 70
0
 43
0.3500000087
 10
-1.3928571327
 20
67.7702595032
 10
-0.3214285665
 20
67.7702595032
 10
-0.1071428583
 20
67.9845417725
 10
-0.1071428583
 20
69.0559701721
 10
-0.5357142998
 20
69.4845432373
 10
-0.9642857329
 20
69.4845432373
  0
LWPOLYLINE
  5
2EB
100
AcDbEntity
  8
0
100
AcDbPolyline
 62
7
  6
CONTINUOUS
 90
3
 70
0
 43
0.3500000087
 10
75.1342906311
 20
1.7059704819
 10
75.1342906311
 20
0.2059711487
 10
72.7771515625
 20
0.8488286148
  0
LINE
  5
2EC
100
AcDbEntity
  8
0
100
AcDbLine
 62
7
  6
CONTINUOUS
 10
58.238143
 20
-52.0770316863
 11
59.197814
 21
-50.7104806863
  0
LINE
  5
2ED
100
AcDbEntity
  8
0
100
AcDbLine
 62
7
  6
CONTINUOUS
 10
55.876748
 20
-52.0770316863
 11
56.836419
 21
-50.7111076863
  0
LINE
  5
2EE
100
AcDbEntity
  8
0
100
AcDbLine
 62
7
  6
CONTINUOUS
 10
56.900194
 20
-50.1419636863
 11
55.532978
 21
-52.0377186863
  0
LINE
  5
2EF
100
AcDbEntity
  8
0
100
AcDbLine
 62
7
  6
CONTINUOUS
 10
59.261588
 20
-50.1419636863
 11
57.893936
 21
-52.0377186863
  0
LWPOLYLINE
  5
2F0
100
AcDbEntity
  8
0
100
AcDbPolyline
 62
7
  6
CONTINUOUS
 90
5
 70
0
 43
0.3500000087
 10
-123.4236027954
 20
69.4845432373
 10
-123.0664656799
 20
69.6988255066
 10
-123.0664656799
 20
70.3416808411
 10
-123.4236027954
 20
70.7702539063
 10
-124.2807489258
 20
70.7702539063
  0
LINE
  5
2F1
100
AcDbEntity
  8
DRAFT
100
AcDbLine
 62
7
  6
CONTINUOUS
 10
-114.4521783284
 20
-56.9490560572
 11
-114.5521783284
 21
-56.949928744
  0
LINE
  5
2F2
100
AcDbEntity
  8
RACCORDO
100
AcDbLine
 62
7
  6
CONTINUOUS
 10
-133.2783552767
 20
-56.7393814854
 11
-114.5521783284
 21
-57.2297436863
  0
LINE
  5
2F3
100
AcDbEntity
  8
RACCORDO
100
AcDbLine
 62
7
  6
CONTINUOUS
 10
-122.5521783284
 20
-59.0202563137
 11
-122.914928663
 21
-59.0075887929
  0
LINE
  5
2F4
100
AcDbEntity
  8
RACCORDO
100
AcDbLine
 62
250
  6
CONTINUOUS
 10
-122.5521783284
 20
-58.728233935
 11
-122.9293474225
 21
-58.7150629
  0
LINE
  5
2F5
100
AcDbEntity
  8
DRAFT
100
AcDbLine
 62
7
  6
CONTINUOUS
 10
-110.4521783284
 20
-57.3994267642
 11
-114.4521783284
 21
-57.2597436863
  0
LINE
  5
2F6
100
AcDbEntity
  8
DRAFT
100
AcDbLine
 62
250
  6
CONTINUOUS
 10
-110.4521783284
 20
-55.7597436863
 11
-114.4521783284
 21
-55.7597436863
  0
LINE
  5
2F7
100
AcDbEntity
  8
RACCORDO
100
AcDbLine
 62
250
  6
CONTINUOUS
 10
-133.2783552767
 20
-55.3398612305
 11
-134.2521783284
 21
-55.3398612305
  0
LINE
  5
2F8
100
AcDbEntity
  8
DRAFT
100
AcDbLine
 62
7
  6
CONTINUOUS
 10
-114.4521783284
 20
-53.3297436863
 11
-114.5521783284
 21
-53.3297436863
  0
LINE
  5
2F9
100
AcDbEntity
  8
0
100
AcDbLine
 62
7
  6
CONTINUOUS
 10
-134.2521783284
 20
-53.1297436863
 11
-134.3521783284
 21
-53.1297436863
  0
LINE
  5
2FA
100
AcDbEntity
  8
DRAFT
100
AcDbLine
 62
250
  6
CONTINUOUS
 10
-114.4521783284
 20
-52.5297436863
 11
-114.5521783284
 21
-52.5297436863
  0
LINE
  5
2FB
100
AcDbEntity
  8
0
100
AcDbLine
 62
7
  6
CONTINUOUS
 10
-134.2521783284
 20
-52.4002706863
 11
-134.3521783284
 21
-52.4002706863
  0
LINE
  5
2FC
100
AcDbEntity
  8
0
100
AcDbLine
 62
7
  6
CONTINUOUS
 10
-134.2521783284
 20
-52.0770316863
 11
-134.3521783284
 21
-52.0770316863
  0
LINE
  5
2FD
100
AcDbEntity
  8
DRAFT
100
AcDbLine
 62
7
  6
CONTINUOUS
 10
-114.5521783284
 20
-55.7297436863
 11
-114.4516852946
 21
-55.7314977987
  0
LINE
  5
2FE
100
AcDbEntity
  8
RACCORDO
100
AcDbLine
 62
250
  6
CONTINUOUS
 10
-133.2783552767
 20
-55.3398612305
 11
-114.5521783284
 21
-55.8302234313
  0
LINE
  5
2FF
100
AcDbEntity
  8
0
100
AcDbLine
 62
7
  6
CONTINUOUS
 10
-134.2521783284
 20
-50.1419636863
 11
-134.3521783284
 21
-50.1419636863
  0
LINE
  5
300
100
AcDbEntity
  8
0
100
AcDbLine
 62
7
  6
CONTINUOUS
 10
-134.2521783284
 20
-50.0808096863
 11
-134.3521783284
 21
-50.0808096863
  0
LINE
  5
301
100
AcDbEntity
  8
0
100
AcDbLine
 62
7
  6
CONTINUOUS
 10
-110.4521783284
 20
-48.4097436863
 11
-107.9521783284
 21
-48.4097436863
  0
LINE
  5
302
100
AcDbEntity
  8
0
100
AcDbLine
 62
250
  6
CONTINUOUS
 10
-110.4521783284
 20
-42.5297436863
 11
-107.9521783284
 21
-42.5297436863
  0
LINE
  5
303
100
AcDbEntity
  8
RACCORDO
100
AcDbLine
 62
7
  6
CONTINUOUS
 10
-124.0116460826
 20
-58.4726839669
 11
-125.2905466547
 21
-56.9485496155
  0
LINE
  5
304
100
AcDbEntity
  8
RACCORDO
100
AcDbLine
 62
250
  6
CONTINUOUS
 10
-123.2949198957
 20
-58.5367612914
 11
-124.6126935337
 21
-56.9662998242
  0
LWPOLYLINE
  5
305
100
AcDbEntity
  8
0
100
AcDbPolyline
 62
7
  6
CONTINUOUS
 90
3
 70
0
 43
0.3500000087
 10
-121.4236093689
 20
68.0559691956
 10
-121.495036792
 20
67.8416869263
 10
-121.6378916382
 20
67.5559687073
  0
LINE
  5
306
100
AcDbEntity
  8
0
100
AcDbLine
 62
7
  6
CONTINUOUS
 10
-134.3521783284
 20
-53.1297436863
 11
-134.3521783284
 21
-50.0808096863
  0
LINE
  5
307
100
AcDbEntity
  8
0
100
AcDbLine
 62
7
  6
CONTINUOUS
 10
-134.3521783284
 20
47.4828532018
 11
-134.3521783284
 21
51.5292919235
  0
LINE
  5
308
100
AcDbEntity
  8
RACCORDO
100
AcDbLine
 62
7
  6
CONTINUOUS
 10
-134.2521783284
 20
-55.7397241604
 11
-134.2521783284
 21
55.0802367879
  0
LINE
  5
309
100
AcDbEntity
  8
RACCORDO
100
AcDbLine
 62
250
  6
CONTINUOUS
 10
-133.2783552767
 20
54.6803738579
 11
-133.2783552767
 21
-55.3398612305
  0
LINE
  5
30A
100
AcDbEntity
  8
DRAFT
100
AcDbLine
 62
7
  6
CONTINUOUS
 10
-114.4318383261
 20
55.9297560741
 11
-114.2502892539
 21
56.6073064356
  0
LINE
  5
30B
100
AcDbEntity
  8
RACCORDO
100
AcDbLine
 62
7
  6
CONTINUOUS
 10
-122.5521783284
 20
-57.0197436863
 11
-122.5521783284
 21
-59.0202563137
  0
LWPOLYLINE
  5
30C
100
AcDbEntity
  8
0
100
AcDbPolyline
 62
7
  6
CONTINUOUS
 90
4
 70
0
 43
0.3500000087
 10
-120.4236083923
 20
68.1988240417
 10
-120.4236083923
 20
69.0559701721
 10
-119.9950353271
 20
69.4845432373
 10
-119.3521799927
 20
69.4845432373
  0
LINE
  5
30D
100
AcDbEntity
  8
RACCORDO
100
AcDbLine
 62
7
  6
CONTINUOUS
 10
-114.5521783284
 20
-57.2297436863
 11
-114.5521783284
 21
47.8814904427
  0
LINE
  5
30E
100
AcDbEntity
  8
DRAFT
100
AcDbLine
 62
7
  6
CONTINUOUS
 10
-114.4521783284
 20
-57.2597436863
 11
-114.4521783284
 21
47.5809843006
  0
LINE
  5
30F
100
AcDbEntity
  8
DRAFT
100
AcDbLine
 62
7
  6
CONTINUOUS
 10
-110.4521783284
 20
-57.3994267642
 11
-110.4521783284
 21
56.7399393917
  0
LINE
  5
310
100
AcDbEntity
  8
0
100
AcDbLine
 62
7
  6
CONTINUOUS
 10
-107.9521783284
 20
-48.4097436863
 11
-107.9521783284
 21
40.4475317507
  0
LINE
  5
311
100
AcDbEntity
  8
0
100
AcDbLine
 62
250
  6
CONTINUOUS
 10
-110.4521783284
 20
32.6325804397
 11
-107.9521783284
 21
32.6325804397
  0
LWPOLYLINE
  5
312
100
AcDbEntity
  8
0
100
AcDbPolyline
 62
7
  6
CONTINUOUS
 90
10
 70
0
 43
0.3500000087
 10
-121.495036792
 20
68.2702599915
 10
-121.4236093689
 20
68.1273966187
 10
-121.4236093689
 20
68.0559691956
 10
-121.5664642151
 20
67.9131143494
 10
-121.6378916382
 20
67.9131143494
 10
-121.7093190613
 20
67.9845417725
 10
-121.7093190613
 20
68.0559691956
 10
-121.6378916382
 20
68.1988240417
 10
-121.5664642151
 20
68.2702599915
 10
-121.495036792
 20
68.2702599915
  0
LINE
  5
313
100
AcDbEntity
  8
0
100
AcDbLine
 62
250
  6
CONTINUOUS
 10
-110.4521783284
 20
38.5393791055
 11
-107.9521783284
 21
38.5393791055
  0
LINE
  5
314
100
AcDbEntity
  8
0
100
AcDbLine
 62
7
  6
CONTINUOUS
 10
-114.5521783284
 20
38.5702563137
 11
-114.4521783284
 21
38.5702563137
  0
LINE
  5
315
100
AcDbEntity
  8
0
100
AcDbLine
 62
250
  6
CONTINUOUS
 10
-110.4521783284
 20
40.4444436227
 11
-107.9521783284
 21
40.4444436227
  0
LINE
  5
316
100
AcDbEntity
  8
0
100
AcDbLine
 62
7
  6
CONTINUOUS
 10
-110.4521783284
 20
40.4475317507
 11
-107.9521783284
 21
40.4475317507
  0
LINE
  5
317
100
AcDbEntity
  8
RACCORDO
100
AcDbLine
 62
7
  6
CONTINUOUS
 10
-114.4521783284
 20
44.1368126772
 11
-114.5521783284
 21
44.1349754267
  0
LINE
  5
318
100
AcDbEntity
  8
RACCORDO
100
AcDbLine
 62
7
  6
CONTINUOUS
 10
-114.4521783284
 20
43.7353461839
 11
-114.5521783284
 21
43.7336004115
  0
LINE
  5
319
100
AcDbEntity
  8
RACCORDO
100
AcDbLine
 62
7
  6
CONTINUOUS
 10
-114.5521783284
 20
44.8666565834
 11
-114.4521783284
 21
44.8684023558
  0
LINE
  5
31A
100
AcDbEntity
  8
RACCORDO
100
AcDbLine
 62
7
  6
CONTINUOUS
 10
-114.4521783284
 20
43.9098968331
 11
-114.5521783284
 21
43.9082425389
  0
LINE
  5
31B
100
AcDbEntity
  8
0
100
AcDbLine
 62
7
  6
CONTINUOUS
 10
-134.2521783284
 20
47.4828532018
 11
-134.3521783284
 21
47.4828532018
  0
LINE
  5
31C
100
AcDbEntity
  8
0
100
AcDbLine
 62
250
  6
CONTINUOUS
 10
-134.2521783284
 20
48.5653514674
 11
-134.3521783284
 21
48.5653514674
  0
LINE
  5
31D
100
AcDbEntity
  8
0
100
AcDbLine
 62
7
  6
CONTINUOUS
 10
-134.2521783284
 20
49.3497900604
 11
-134.3521783284
 21
49.3497900604
  0
LINE
  5
31E
100
AcDbEntity
  8
0
100
AcDbLine
 62
7
  6
CONTINUOUS
 10
-134.2521783284
 20
49.3734236911
 11
-134.3521783284
 21
49.3734236911
  0
LINE
  5
31F
100
AcDbEntity
  8
0
100
AcDbLine
 62
250
  6
CONTINUOUS
 10
-134.2521783284
 20
51.3935292706
 11
-134.3521783284
 21
51.3935292706
  0
LINE
  5
320
100
AcDbEntity
  8
0
100
AcDbLine
 62
7
  6
CONTINUOUS
 10
-134.2521783284
 20
51.5292919235
 11
-134.3521783284
 21
51.5292919235
  0
LINE
  5
321
100
AcDbEntity
  8
DRAFT
100
AcDbLine
 62
7
  6
CONTINUOUS
 10
-114.2502892539
 20
56.6073064356
 11
-110.4521783284
 21
56.7399393917
  0
LINE
  5
322
100
AcDbEntity
  8
RACCORDO
100
AcDbLine
 62
250
  6
CONTINUOUS
 10
-114.2666134758
 20
55.1782138376
 11
-133.2783552767
 21
54.6803738579
  0
LINE
  5
323
100
AcDbEntity
  8
RACCORDO
100
AcDbLine
 62
7
  6
CONTINUOUS
 10
-115.2367048508
 20
56.5523313559
 11
-133.2783552767
 21
56.0798941129
  0
LINE
  5
324
100
AcDbEntity
  8
RACCORDO
100
AcDbLine
 62
250
  6
CONTINUOUS
 10
-133.2783552767
 20
54.6803738579
 11
-134.2521783284
 21
54.6803738579
  0
LINE
  5
325
100
AcDbEntity
  8
DRAFT
100
AcDbLine
 62
250
  6
CONTINUOUS
 10
-110.4521783284
 20
55.1002563137
 11
-113.9437670215
 21
55.1002563137
  0
LWPOLYLINE
  5
326
100
AcDbEntity
  8
0
100
AcDbPolyline
 62
7
  6
CONTINUOUS
 90
6
 70
0
 43
0.3500000087
 10
-124.2807489258
 20
67.7702595032
 10
-123.2093205261
 20
67.7702595032
 10
-122.9950382568
 20
67.9845417725
 10
-122.9950382568
 20
69.0559701721
 10
-123.4236027954
 20
69.4845432373
 10
-123.8521758606
 20
69.4845432373
  0
LWPOLYLINE
  5
327
100
AcDbEntity
  8
0
100
AcDbPolyline
 62
7
  6
CONTINUOUS
 90
7
 70
0
 43
0.3500000087
 10
-125.1378950562
 20
67.7702595032
 10
-126.637896521
 20
67.7702595032
 10
-125.1378950562
 20
69.9131163025
 10
-125.1378950562
 20
70.3416808411
 10
-125.5664681213
 20
70.7702539063
 10
-126.2093234558
 20
70.7702539063
 10
-126.637896521
 20
70.1273985718
  0
LWPOLYLINE
  5
328
100
AcDbEntity
  8
0
100
AcDbPolyline
 62
7
  6
CONTINUOUS
 90
13
 70
0
 43
0.3500000087
 10
-119.9950353271
 20
69.4845432373
 10
-120.2807535461
 20
69.6988255066
 10
-120.2807535461
 20
70.3416808411
 10
-119.9950353271
 20
70.7702539063
 10
-119.3521799927
 20
70.7702539063
 10
-119.0664617737
 20
70.3416808411
 10
-119.0664617737
 20
69.6988255066
 10
-119.3521799927
 20
69.4845432373
 10
-118.9236069275
 20
69.0559701721
 10
-118.9236069275
 20
68.1988240417
 10
-119.3521799927
 20
67.7702595032
 10
-119.9950353271
 20
67.7702595032
 10
-120.4236083923
 20
68.1988240417
  0
ARC
  5
329
100
AcDbEntity
  8
DRAFT
100
AcDbCircle
 62
7
  6
CONTINUOUS
 10
66.93
 20
-55.7597436863
 40
1.639683078
100
AcDbArc
 50
270.0
 51
360.0
  0
ARC
  5
32A
100
AcDbEntity
  8
DRAFT
100
AcDbCircle
 62
7
  6
CONTINUOUS
 10
66.93
 20
55.1002563137
 40
1.639683078
100
AcDbArc
 50
0.0
 51
90.0
  0
ARC
  5
32B
100
AcDbEntity
  8
DRAFT
100
AcDbCircle
 62
7
  6
CONTINUOUS
 10
-66.93
 20
55.1002563137
 40
1.639683078
100
AcDbArc
 50
90.0
 51
180.0
  0
ARC
  5
32C
100
AcDbEntity
  8
DRAFT
100
AcDbCircle
 62
7
  6
CONTINUOUS
 10
-66.93
 20
-55.7597436863
 40
1.639683078
100
AcDbArc
 50
180.0
 51
270.0
  0
ARC
  5
32D
100
AcDbEntity
  8
DRAFT
100
AcDbCircle
 62
7
  6
CONTINUOUS
 10
66.9436836007
 20
55.0736515908
 40
1.5043063364
100
AcDbArc
 50
4.7086750737
 51
34.687663413
  0
ARC
  5
32E
100
AcDbEntity
  8
DRAFT
100
AcDbCircle
 62
7
  6
CONTINUOUS
 10
-66.9436836009
 20
55.0736515908
 40
1.5043063362
100
AcDbArc
 50
145.3123365856
 51
175.2913235588
  0
ARC
  5
32F
100
AcDbEntity
  8
DRAFT
100
AcDbCircle
 62
7
  6
CONTINUOUS
 10
66.9462085072
 20
55.0737861903
 40
1.5017789041
100
AcDbArc
 50
1.0099388745
 51
4.7114648517
  0
ARC
  5
330
100
AcDbEntity
  8
DRAFT
100
AcDbCircle
 62
7
  6
CONTINUOUS
 10
-66.9462085079
 20
55.0737861902
 40
1.5017789034
100
AcDbArc
 50
175.2885337718
 51
178.9900611232
  0
ARC
  5
331
100
AcDbEntity
  8
DRAFT
100
AcDbCircle
 62
7
  6
CONTINUOUS
 10
-66.93
 20
-55.7597436863
 40
1.5
100
AcDbArc
 50
180.0
 51
270.0
  0
ARC
  5
332
100
AcDbEntity
  8
DRAFT
100
AcDbCircle
 62
7
  6
CONTINUOUS
 10
66.93
 20
-55.7597436863
 40
1.5
100
AcDbArc
 50
270.0
 51
360.0
  0
ARC
  5
333
100
AcDbEntity
  8
RACCORDO
100
AcDbCircle
 62
250
  6
CONTINUOUS
 10
-66.5093405664
 20
-55.3390842527
 40
1.4002997633
100
AcDbArc
 50
180.0317914934
 51
269.9682085066
  0
ARC
  5
334
100
AcDbEntity
  8
RACCORDO
100
AcDbCircle
 62
250
  6
CONTINUOUS
 10
66.5093411489
 20
54.6795974626
 40
1.4002997633
100
AcDbArc
 50
0.0317676749
 51
89.9682323251
  0
ARC
  5
335
100
AcDbEntity
  8
RACCORDO
100
AcDbCircle
 62
250
  6
CONTINUOUS
 10
-66.5093405672
 20
54.6795968809
 40
1.400299762
100
AcDbArc
 50
90.0317914631
 51
179.9682085369
  0
ARC
  5
336
100
AcDbEntity
  8
RACCORDO
100
AcDbCircle
 62
250
  6
CONTINUOUS
 10
66.5093411502
 20
-55.3390848365
 40
1.400299762
100
AcDbArc
 50
270.03176762
 51
359.96823238
  0
ARC
  5
337
100
AcDbEntity
  8
RACCORDO
100
AcDbCircle
 62
250
  6
CONTINUOUS
 10
12.7695753488
 20
-58.0069712458
 40
1.0006184836
100
AcDbArc
 50
270.0783895927
 51
314.955643995
  0
ARC
  5
338
100
AcDbEntity
  8
RACCORDO
100
AcDbCircle
 62
250
  6
CONTINUOUS
 10
-12.7690619606
 20
-58.0069715784
 40
1.0006181508
100
AcDbArc
 50
225.0443481356
 51
269.9216182768
  0
ARC
  5
339
100
AcDbEntity
  8
RACCORDO
100
AcDbCircle
 62
250
  6
CONTINUOUS
 10
-59.5
 20
35.7702563137
 40
0.7
100
AcDbArc
 50
90.0
 51
180.0
  0
ARC
  5
33A
100
AcDbEntity
  8
RACCORDO
100
AcDbCircle
 62
250
  6
CONTINUOUS
 10
-59.5
 20
-48.2297436863
 40
0.7
100
AcDbArc
 50
180.0
 51
270.0
  0
ARC
  5
33B
100
AcDbEntity
  8
RACCORDO
100
AcDbCircle
 62
250
  6
CONTINUOUS
 10
59.5
 20
-48.2297436863
 40
0.7
100
AcDbArc
 50
270.0
 51
360.0
  0
ARC
  5
33C
100
AcDbEntity
  8
RACCORDO
100
AcDbCircle
 62
250
  6
CONTINUOUS
 10
59.5
 20
35.7702563137
 40
0.7
100
AcDbArc
 50
0.0
 51
90.0
  0
ARC
  5
33D
100
AcDbEntity
  8
RACCORDO
100
AcDbCircle
 62
7
  6
CONTINUOUS
 10
59.5
 20
-48.2297436863
 40
0.5
100
AcDbArc
 50
270.0
 51
360.0
  0
ARC
  5
33E
100
AcDbEntity
  8
RACCORDO
100
AcDbCircle
 62
7
  6
CONTINUOUS
 10
59.5
 20
35.7702563137
 40
0.5
100
AcDbArc
 50
0.0
 51
90.0
  0
ARC
  5
33F
100
AcDbEntity
  8
RACCORDO
100
AcDbCircle
 62
7
  6
CONTINUOUS
 10
-59.5
 20
35.7702563137
 40
0.5
100
AcDbArc
 50
90.0
 51
180.0
  0
ARC
  5
340
100
AcDbEntity
  8
RACCORDO
100
AcDbCircle
 62
7
  6
CONTINUOUS
 10
-59.5
 20
-48.2297436863
 40
0.5
100
AcDbArc
 50
180.0
 51
270.0
  0
ARC
  5
341
100
AcDbEntity
  8
RACCORDO
100
AcDbCircle
 62
250
  6
CONTINUOUS
 10
66.5101653169
 20
-55.3399090032
 40
0.3998146005
100
AcDbArc
 50
269.9931539007
 51
0.0068460994
  0
ARC
  5
342
100
AcDbEntity
  8
RACCORDO
100
AcDbCircle
 62
250
  6
CONTINUOUS
 10
66.5101653172
 20
54.6804216309
 40
0.3998146002
100
AcDbArc
 50
359.9931538606
 51
90.0068461395
  0
ARC
  5
343
100
AcDbEntity
  8
RACCORDO
100
AcDbCircle
 62
250
  6
CONTINUOUS
 10
-66.510170016
 20
-55.3399137023
 40
0.3998088204
100
AcDbArc
 50
179.9924803967
 51
270.0075196033
  0
ARC
  5
344
100
AcDbEntity
  8
RACCORDO
100
AcDbCircle
 62
250
  6
CONTINUOUS
 10
-66.5101700162
 20
54.68042633
 40
0.39980882
100
AcDbArc
 50
89.9924803663
 51
180.0075196338
  0
ARC
  5
345
100
AcDbEntity
  8
DRAFT
100
AcDbCircle
 62
7
  6
CONTINUOUS
 10
-120.5521783284
 20
51.7702563137
 40
7.4
100
AcDbArc
 50
325.5200478553
 51
34.2007747971
  0
ARC
  5
346
100
AcDbEntity
  8
RACCORDO
100
AcDbCircle
 62
7
  6
CONTINUOUS
 10
-120.5521783284
 20
51.7702563137
 40
7.15
100
AcDbArc
 50
327.0516121124
 51
41.9761868435
  0
ARC
  5
347
100
AcDbEntity
  8
RACCORDO
100
AcDbCircle
 62
7
  6
CONTINUOUS
 10
-122.8625794179
 20
-57.5085025524
 40
1.5
100
AcDbArc
 50
220.0
 51
268.0
  0
ARC
  5
348
100
AcDbEntity
  8
RACCORDO
100
AcDbCircle
 62
7
  6
CONTINUOUS
 10
-133.2521783284
 20
55.0802367879
 40
1.0
100
AcDbArc
 50
91.5
 51
180.0
  0
ARC
  5
349
100
AcDbEntity
  8
RACCORDO
100
AcDbCircle
 62
7
  6
CONTINUOUS
 10
-133.2521783284
 20
-55.7397241604
 40
1.0
100
AcDbArc
 50
180.0
 51
268.5
  0
ARC
  5
34A
100
AcDbEntity
  8
RACCORDO
100
AcDbCircle
 62
250
  6
CONTINUOUS
 10
-122.9118963847
 20
-58.2153648426
 40
0.5000026873
100
AcDbArc
 50
220.0001371035
 51
267.9998628965
  0
SPLINE
  5
34B
100
AcDbEntity
  8
0
100
AcDbSpline
 62
7
  6
CONTINUOUS
 70
0
 71
3
 72
9
 73
5
 74
0
 42
0.0000001
 43
0.0000001
 44
0.0000000001
 40
0.0
 40
0.0
 40
0.0
 40
0.0
 40
0.2703953699
 40
1.0
 40
1.0
 40
1.0
 40
1.0
 10
5.5305380517
 20
50.8010089554
 30
0.0
 10
5.5888073379
 20
50.8109517025
 30
0.0
 10
5.8049781767
 20
50.8436526052
 30
0.0
 10
6.026135684
 20
50.8429427057
 30
0.0
 10
6.1845717889
 20
50.8245526104
 30
0.0
  0
SPLINE
  5
34C
100
AcDbEntity
  8
0
100
AcDbSpline
 62
7
  6
CONTINUOUS
 70
0
 71
3
 72
9
 73
5
 74
0
 42
0.0000001
 43
0.0000001
 44
0.0000000001
 40
0.0
 40
0.0
 40
0.0
 40
0.0
 40
0.5013510385
 40
1.0
 40
1.0
 40
1.0
 40
1.0
 10
6.1845717889
 20
50.8245526104
 30
0.0
 10
6.3069293736
 20
50.8103469225
 30
0.0
 10
6.5544118819
 20
50.7025932906
 30
0.0
 10
6.6542487249
 20
50.4470879451
 30
0.0
 10
6.6561646941
 20
50.3245873515
 30
0.0
  0
SPLINE
  5
34D
100
AcDbEntity
  8
0
100
AcDbSpline
 62
7
  6
CONTINUOUS
 70
0
 71
3
 72
10
 73
6
 74
0
 42
0.0000001
 43
0.0000001
 44
0.0000000001
 40
0.0
 40
0.0
 40
0.0
 40
0.0
 40
0.2929210355
 40
0.5275938042
 40
1.0
 40
1.0
 40
1.0
 40
1.0
 10
6.6561646941
 20
50.3245873515
 30
0.0
 10
6.6576879227
 20
50.2258706708
 30
0.0
 10
6.6363953426
 20
50.0424304595
 30
0.0
 10
6.4271347461
 20
49.7587163914
 30
0.0
 10
6.1668333031
 20
49.7066203393
 30
0.0
 10
6.0076494697
 20
49.7030648525
 30
0.0
  0
SPLINE
  5
34E
100
AcDbEntity
  8
0
100
AcDbSpline
 62
7
  6
CONTINUOUS
 70
0
 71
3
 72
9
 73
5
 74
0
 42
0.0000001
 43
0.0000001
 44
0.0000000001
 40
0.0
 40
0.0
 40
0.0
 40
0.0
 40
0.3559141631
 40
1.0
 40
1.0
 40
1.0
 40
1.0
 10
6.0058499546
 20
49.048041382
 30
0.0
 10
6.078601554
 20
49.048041382
 30
0.0
 10
6.2878883957
 20
49.0039879806
 30
0.0
 10
6.4253657742
 20
48.8188981446
 30
0.0
 10
6.4716244279
 20
48.6956363555
 30
0.0
  0
SPLINE
  5
34F
100
AcDbEntity
  8
0
100
AcDbSpline
 62
7
  6
CONTINUOUS
 70
0
 71
3
 72
9
 73
5
 74
0
 42
0.0000001
 43
0.0000001
 44
0.0000000001
 40
0.0
 40
0.0
 40
0.0
 40
0.0
 40
0.5586214172
 40
1.0
 40
1.0
 40
1.0
 40
1.0
 10
6.4716244279
 20
48.6956363555
 30
0.0
 10
6.5545680748
 20
48.4748572627
 30
0.0
 10
6.6636463445
 20
48.066036703
 30
0.0
 10
6.7851964745
 20
47.6619448532
 30
0.0
 10
6.8366860434
 20
47.4828532018
 30
0.0
  0
SPLINE
  5
350
100
AcDbEntity
  8
0
100
AcDbSpline
 62
7
  6
CONTINUOUS
 70
0
 71
3
 72
9
 73
5
 74
0
 42
0.0000001
 43
0.0000001
 44
0.0000000001
 40
0.0
 40
0.0
 40
0.0
 40
0.0
 40
0.1980141723
 40
1.0
 40
1.0
 40
1.0
 40
1.0
 10
7.6397196251
 20
47.4828532018
 30
0.0
 10
7.6203524677
 20
47.5541615941
 30
0.0
 10
7.5255589103
 20
47.9150886631
 30
0.0
 10
7.4329841986
 20
48.2766042308
 30
0.0
 10
7.3543165415
 20
48.5653514674
 30
0.0
  0
SPLINE
  5
351
100
AcDbEntity
  8
0
100
AcDbSpline
 62
7
  6
CONTINUOUS
 70
0
 71
3
 72
9
 73
5
 74
0
 42
0.0000001
 43
0.0000001
 44
0.0000000001
 40
0.0
 40
0.0
 40
0.0
 40
0.0
 40
0.2426586216
 40
1.0
 40
1.0
 40
1.0
 40
1.0
 10
7.3543165415
 20
48.5653514674
 30
0.0
 10
7.3345169024
 20
48.6380293318
 30
0.0
 10
7.2588853367
 20
48.9315202597
 30
0.0
 10
7.0914709468
 20
49.2627131424
 30
0.0
 10
6.8730962309
 20
49.3497900604
 30
0.0
  0
SPLINE
  5
352
100
AcDbEntity
  8
0
100
AcDbSpline
 62
7
  6
CONTINUOUS
 70
0
 71
3
 72
19
 73
15
 74
0
 42
0.0000001
 43
0.0000001
 44
0.0000000001
 40
0.0
 40
0.0
 40
0.0
 40
0.0
 40
0.0559393466
 40
0.1686372252
 40
0.2404177
 40
0.3213529219
 40
0.4125585942
 40
0.4628837461
 40
0.5169478289
 40
0.6016690262
 40
0.6778254114
 40
0.8104735527
 40
0.9200958321
 40
1.0
 40
1.0
 40
1.0
 40
1.0
 10
6.8730962309
 20
49.3734236911
 30
0.0
 10
6.9192082887
 20
49.379373634
 30
0.0
 10
7.0363880427
 20
49.4717662212
 30
0.0
 10
7.1822935266
 20
49.6030828683
 30
0.0
 10
7.3047723307
 20
49.7895558161
 30
0.0
 10
7.3868883297
 20
49.9756448647
 30
0.0
 10
7.4278832128
 20
50.1574125127
 30
0.0
 10
7.4405570492
 20
50.3196768169
 30
0.0
 10
7.437768018
 20
50.4770439635
 30
0.0
 10
7.4120878392
 20
50.6547873078
 30
0.0
 10
7.3356054507
 20
50.8875118994
 30
0.0
 10
7.19189087
 20
51.115656035
 30
0.0
 10
6.9889964501
 20
51.2940497014
 30
0.0
 10
6.8494914294
 20
51.3709922756
 30
0.0
 10
6.7870194286
 20
51.3935292706
 30
0.0
  0
SPLINE
  5
353
100
AcDbEntity
  8
0
100
AcDbSpline
 62
7
  6
CONTINUOUS
 70
0
 71
3
 72
9
 73
5
 74
0
 42
0.0000001
 43
0.0000001
 44
0.0000000001
 40
0.0
 40
0.0
 40
0.0
 40
0.0
 40
0.2957417834
 40
1.0
 40
1.0
 40
1.0
 40
1.0
 10
6.7870194286
 20
51.3935292706
 30
0.0
 10
6.5946958973
 20
51.4630113642
 30
0.0
 10
5.903409228
 20
51.5762713182
 30
0.0
 10
5.2084964381
 20
51.5065147514
 30
0.0
 10
4.7267246802
 20
51.4356379222
 30
0.0
  0
SPLINE
  5
354
100
AcDbEntity
  8
RACCORDO
100
AcDbSpline
 62
7
  6
CONTINUOUS
 70
0
 71
3
 72
11
 73
7
 74
0
 42
0.0000001
 43
0.0000001
 44
0.0000000001
 40
0.0
 40
0.0
 40
0.0
 40
0.0
 40
0.270912995
 40
0.5221709047
 40
0.7608097587
 40
1.0
 40
1.0
 40
1.0
 40
1.0
 10
66.9825547872
 20
56.5523313559
 30
0.0
 10
67.1793641014
 20
56.5523313559
 30
0.0
 10
67.5632623802
 20
56.4722232589
 30
0.0
 10
68.0293879396
 20
56.1515159603
 30
0.0
 10
68.3313210908
 20
55.7016876558
 30
0.0
 10
68.4050109829
 20
55.3519601118
 30
0.0
 10
68.4074777788
 20
55.1782138376
 30
0.0
  0
SPLINE
  5
355
100
AcDbEntity
  8
RACCORDO
100
AcDbSpline
 62
7
  6
CONTINUOUS
 70
0
 71
3
 72
11
 73
7
 74
0
 42
0.0000001
 43
0.0000001
 44
0.0000000001
 40
0.0
 40
0.0
 40
0.0
 40
0.0
 40
0.2391902413
 40
0.4778290953
 40
0.729087005
 40
1.0
 40
1.0
 40
1.0
 40
1.0
 10
-68.4074777788
 20
55.1782138376
 30
0.0
 10
-68.4050109829
 20
55.3519601118
 30
0.0
 10
-68.3313210908
 20
55.7016876558
 30
0.0
 10
-68.0293879396
 20
56.1515159603
 30
0.0
 10
-67.5632623802
 20
56.4722232589
 30
0.0
 10
-67.1793641014
 20
56.5523313559
 30
0.0
 10
-66.9825547872
 20
56.5523313559
 30
0.0
  0
SPLINE
  5
356
100
AcDbEntity
  8
0
100
AcDbSpline
 62
7
  6
CONTINUOUS
 70
0
 71
3
 72
14
 73
10
 74
0
 42
0.0000001
 43
0.0000001
 44
0.0000000001
 40
0.0
 40
0.0
 40
0.0
 40
0.0
 40
0.1096187685
 40
0.2547323752
 40
0.4248482786
 40
0.5830935386
 40
0.7749982577
 40
0.8886617975
 40
1.0
 40
1.0
 40
1.0
 40
1.0
 10
54.3308684468
 20
-51.8411541986
 30
0.0
 10
54.3833693337
 20
-51.841154384
 30
0.0
 10
54.5060191987
 20
-51.8372412003
 30
0.0
 10
54.7033700697
 20
-51.7823644474
 30
0.0
 10
54.9104018401
 20
-51.6815640085
 30
0.0
 10
55.0834771467
 20
-51.4963826847
 30
0.0
 10
55.1844817721
 20
-51.2940891163
 30
0.0
 10
55.2251281527
 20
-51.0979497054
 30
0.0
 10
55.2355106172
 20
-50.9902819322
 30
0.0
 10
55.2355106172
 20
-50.9369575072
 30
0.0
  0
SPLINE
  5
357
100
AcDbEntity
  8
0
100
AcDbSpline
 62
7
  6
CONTINUOUS
 70
0
 71
3
 72
13
 73
9
 74
0
 42
0.0000001
 43
0.0000001
 44
0.0000000001
 40
0.0
 40
0.0
 40
0.0
 40
0.0
 40
0.128908915
 40
0.2095862613
 40
0.3283783679
 40
0.6007321573
 40
0.8106826608
 40
1.0
 40
1.0
 40
1.0
 40
1.0
 10
55.2355106172
 20
-50.9369575072
 30
0.0
 10
55.2355106172
 20
-50.8769767099
 30
0.0
 10
55.2256041413
 20
-50.7791798532
 30
0.0
 10
55.1881893682
 20
-50.6308863305
 30
0.0
 10
55.1053252973
 20
-50.4259721202
 30
0.0
 10
54.9000152099
 20
-50.2168140889
 30
0.0
 10
54.606435095
 20
-50.0944250964
 30
0.0
 10
54.418962376
 20
-50.0808097535
 30
0.0
 10
54.3308738031
 20
-50.0808099154
 30
0.0
  0
SPLINE
  5
358
100
AcDbEntity
  8
0
100
AcDbSpline
 62
7
  6
CONTINUOUS
 70
0
 71
3
 72
13
 73
9
 74
0
 42
0.0000001
 43
0.0000001
 44
0.0000000001
 40
0.0
 40
0.0
 40
0.0
 40
0.0
 40
0.1370648557
 40
0.3462584322
 40
0.4971632819
 40
0.6839039345
 40
0.809494973
 40
1.0
 40
1.0
 40
1.0
 40
1.0
 10
54.2076937565
 20
-50.4302579121
 30
0.0
 10
54.2488580158
 20
-50.4302577383
 30
0.0
 10
54.3526220263
 20
-50.439475775
 30
0.0
 10
54.5004173401
 20
-50.4658927725
 30
0.0
 10
54.6515764602
 20
-50.5368732555
 30
0.0
 10
54.7451017763
 20
-50.6467204586
 30
0.0
 10
54.8012606605
 20
-50.7880910572
 30
0.0
 10
54.8109313012
 20
-50.8841118344
 30
0.0
 10
54.8109313012
 20
-50.9413256072
 30
0.0
  0
SPLINE
  5
359
100
AcDbEntity
  8
0
100
AcDbSpline
 62
7
  6
CONTINUOUS
 70
0
 71
3
 72
13
 73
9
 74
0
 42
0.0000001
 43
0.0000001
 44
0.0000000001
 40
0.0
 40
0.0
 40
0.0
 40
0.0
 40
0.1483105547
 40
0.3543221736
 40
0.5750206164
 40
0.7306110553
 40
0.8603075425
 40
1.0
 40
1.0
 40
1.0
 40
1.0
 10
54.8109313012
 20
-50.9413256072
 30
0.0
 10
54.8109313012
 20
-50.988109614
 30
0.0
 10
54.8008530309
 20
-51.0996645142
 30
0.0
 10
54.7453117982
 20
-51.2770631236
 30
0.0
 10
54.6046155228
 20
-51.4100634431
 30
0.0
 10
54.4522018383
 20
-51.4622214081
 30
0.0
 10
54.3200424502
 20
-51.4871926518
 30
0.0
 10
54.234737418
 20
-51.4873380896
 30
0.0
 10
54.1906719297
 20
-51.487338102
 30
0.0
  0
SPLINE
  5
35A
100
AcDbEntity
  8
RACCORDO
100
AcDbSpline
 62
250
  6
CONTINUOUS
 70
0
 71
3
 72
13
 73
9
 74
0
 42
0.0000001
 43
0.0000001
 44
0.0000000001
 40
0.0
 40
0.0
 40
0.0
 40
0.0
 40
0.1596396581
 40
0.3105320786
 40
0.5172541259
 40
0.6990965575
 40
0.8577172382
 40
1.0
 40
1.0
 40
1.0
 40
1.0
 10
-12.9234943203
 20
-58.4726839669
 30
0.0
 10
-12.9582901523
 20
-58.4919414306
 30
0.0
 10
-13.0274853433
 20
-58.5267838313
 30
0.0
 10
-13.1473506228
 20
-58.5744673517
 30
0.0
 10
-13.2779416011
 20
-58.6087518555
 30
0.0
 10
-13.4149536487
 20
-58.6183268953
 30
0.0
 10
-13.5348693824
 20
-58.5969802583
 30
0.0
 10
-13.6021038288
 20
-58.5597052007
 30
0.0
 10
-13.6291214701
 20
-58.5367612914
 30
0.0
  0
SPLINE
  5
35B
100
AcDbEntity
  8
RACCORDO
100
AcDbSpline
 62
250
  6
CONTINUOUS
 70
0
 71
3
 72
13
 73
9
 74
0
 42
0.0000001
 43
0.0000001
 44
0.0000000001
 40
0.0
 40
0.0
 40
0.0
 40
0.0
 40
0.1596398597
 40
0.31053247
 40
0.5172547346
 40
0.6990972276
 40
0.8577177259
 40
1.0
 40
1.0
 40
1.0
 40
1.0
 10
12.9240078464
 20
-58.4726839669
 30
0.0
 10
12.9588037591
 20
-58.4919413468
 30
0.0
 10
13.0279990886
 20
-58.5267835987
 30
0.0
 10
13.1478645361
 20
-58.5744669253
 30
0.0
 10
13.2784555882
 20
-58.6087513064
 30
0.0
 10
13.4154675763
 20
-58.6183263709
 30
0.0
 10
13.5353831172
 20
-58.5969799442
 30
0.0
 10
13.602617448
 20
-58.5597050951
 30
0.0
 10
13.6296349961
 20
-58.5367612914
 30
0.0
  0
SPLINE
  5
35C
100
AcDbEntity
  8
RACCORDO
100
AcDbSpline
 62
250
  6
CONTINUOUS
 70
0
 71
3
 72
17
 73
13
 74
0
 42
0.0000001
 43
0.0000001
 44
0.0000000001
 40
0.0
 40
0.0
 40
0.0
 40
0.0
 40
0.2128325651
 40
0.4048798001
 40
0.5736125202
 40
0.7168133016
 40
0.8324603005
 40
0.9188848803
 40
0.9507442796
 40
0.9748765326
 40
0.9912550533
 40
1.0
 40
1.0
 40
1.0
 40
1.0
 10
-12.9234943203
 20
-58.4726839669
 30
0.0
 10
-12.9116047743
 20
-58.5103597318
 30
0.0
 10
-12.8892170968
 20
-58.5821044157
 30
0.0
 10
-12.8579490777
 20
-58.6838881685
 30
0.0
 10
-12.8309438013
 20
-58.773456564
 30
0.0
 10
-12.8086158096
 20
-58.8496273754
 30
0.0
 10
-12.7912866866
 20
-58.9113205874
 30
0.0
 10
-12.7801948491
 20
-58.9533348404
 30
0.0
 10
-12.7742340503
 20
-58.9790585818
 30
0.0
 10
-12.7715045069
 20
-58.9922752909
 30
0.0
 10
-12.7703140958
 20
-59.0012303962
 30
0.0
 10
-12.7699280612
 20
-59.006045323
 30
0.0
 10
-12.770430825
 20
-59.0075887929
 30
0.0
  0
SPLINE
  5
35D
100
AcDbEntity
  8
RACCORDO
100
AcDbSpline
 62
250
  6
CONTINUOUS
 70
0
 71
3
 72
17
 73
13
 74
0
 42
0.0000001
 43
0.0000001
 44
0.0000000001
 40
0.0
 40
0.0
 40
0.0
 40
0.0
 40
0.0087418681
 40
0.0251121296
 40
0.0492365953
 40
0.081078997
 40
0.1674741438
 40
0.2830987415
 40
0.4262941642
 40
0.5950410265
 40
0.787139306
 40
1.0
 40
1.0
 40
1.0
 40
1.0
 10
12.770944351
 20
-59.0075887929
 30
0.0
 10
12.7704396375
 20
-59.0060465564
 30
0.0
 10
12.7708222631
 20
-59.001232862
 30
0.0
 10
12.7720110015
 20
-58.9922813936
 30
0.0
 10
12.7747402184
 20
-58.9790706638
 30
0.0
 10
12.7806964732
 20
-58.9533562524
 30
0.0
 10
12.7917840907
 20
-58.9113538429
 30
0.0
 10
12.8091167952
 20
-58.8496725227
 30
0.0
 10
12.8314519943
 20
-58.7735062354
 30
0.0
 10
12.8584625286
 20
-58.6839276367
 30
0.0
 10
12.8897032604
 20
-58.5821170985
 30
0.0
 10
12.9121060685
 20
-58.5103614522
 30
0.0
 10
12.9240078464
 20
-58.4726839669
 30
0.0
  0
SPLINE
  5
35E
100
AcDbEntity
  8
RACCORDO
100
AcDbSpline
 62
250
  6
CONTINUOUS
 70
0
 71
3
 72
14
 73
10
 74
0
 42
0.0000001
 43
0.0000001
 44
0.0000000001
 40
0.0
 40
0.0
 40
0.0
 40
0.0
 40
0.0226770118
 40
0.0809353101
 40
0.1735022724
 40
0.2963200135
 40
0.4446701079
 40
0.6139672261
 40
1.0
 40
1.0
 40
1.0
 40
1.0
 10
13.4765715008
 20
-58.7150629
 30
0.0
 10
13.4753120998
 20
-58.7138017182
 30
0.0
 10
13.4800590984
 20
-58.7063672133
 30
0.0
 10
13.4863029557
 20
-58.6967129013
 30
0.0
 10
13.5006211704
 20
-58.6791302148
 30
0.0
 10
13.518811644
 20
-58.6576981722
 30
0.0
 10
13.5418847979
 20
-58.6316587143
 30
0.0
 10
13.5790067365
 20
-58.5907588412
 30
0.0
 10
13.608818057
 20
-58.5588340838
 30
0.0
 10
13.6296349961
 20
-58.5367612914
 30
0.0
  0
SPLINE
  5
35F
100
AcDbEntity
  8
RACCORDO
100
AcDbSpline
 62
250
  6
CONTINUOUS
 70
0
 71
3
 72
14
 73
10
 74
0
 42
0.0000001
 43
0.0000001
 44
0.0000000001
 40
0.0
 40
0.0
 40
0.0
 40
0.0
 40
0.3859417318
 40
0.5552057064
 40
0.7035481089
 40
0.8263974957
 40
0.9190048559
 40
0.9772987791
 40
1.0
 40
1.0
 40
1.0
 40
1.0
 10
-13.6291214701
 20
-58.5367612914
 30
0.0
 10
-13.6083094839
 20
-58.558828815
 30
0.0
 10
-13.578504787
 20
-58.5907462563
 30
0.0
 10
-13.5413898578
 20
-58.6316382946
 30
0.0
 10
-13.5183165421
 20
-58.6576766019
 30
0.0
 10
-13.5001232201
 20
-58.6791123538
 30
0.0
 10
-13.4857965656
 20
-58.6967003456
 30
0.0
 10
-13.4795531982
 20
-58.7063620027
 30
0.0
 10
-13.4747975368
 20
-58.7138000711
 30
0.0
 10
-13.4760579748
 20
-58.7150629
 30
0.0
  0
SPLINE
  5
360
100
AcDbEntity
  8
RACCORDO
100
AcDbSpline
 62
250
  6
CONTINUOUS
 70
0
 71
3
 72
21
 73
17
 74
0
 42
0.0000001
 43
0.0000001
 44
0.0000000001
 40
0.0
 40
0.0
 40
0.0
 40
0.0
 40
0.0015197654
 40
0.0052478546
 40
0.0113229033
 40
0.0197596835
 40
0.0436590395
 40
0.0767411415
 40
0.1186989335
 40
0.1691343085
 40
0.2275608278
 40
0.2934236848
 40
0.4448463506
 40
0.6176003234
 40
0.8050416935
 40
1.0
 40
1.0
 40
1.0
 40
1.0
 10
-133.2783552767
 20
56.0798941129
 30
0.0
 10
-133.279064436
 20
56.079875525
 30
0.0
 10
-133.280088875
 20
56.0767946734
 30
0.0
 10
-133.2810173614
 20
56.0722703217
 30
0.0
 10
-133.2821025562
 20
56.0634531503
 30
0.0
 10
-133.2835808605
 20
56.045802047
 30
0.0
 10
-133.2851246678
 20
56.0151377614
 30
0.0
 10
-133.286581911
 20
55.9690539848
 30
0.0
 10
-133.287741569
 20
55.9104648193
 30
0.0
 10
-133.2885820445
 20
55.8400795975
 30
0.0
 10
-133.2890863233
 20
55.7585185003
 30
0.0
 10
-133.2893050458
 20
55.6298216891
 30
0.0
 10
-133.2886035999
 20
55.4477565153
 30
0.0
 10
-133.2864742366
 20
55.2089502448
 30
0.0
 10
-133.2830639911
 20
54.949834814
 30
0.0
 10
-133.2800610194
 20
54.7713613846
 30
0.0
 10
-133.2783552767
 20
54.6803738579
 30
0.0
  0
SPLINE
  5
361
100
AcDbEntity
  8
RACCORDO
100
AcDbSpline
 62
250
  6
CONTINUOUS
 70
0
 71
3
 72
21
 73
17
 74
0
 42
0.0000001
 43
0.0000001
 44
0.0000000001
 40
0.0
 40
0.0
 40
0.0
 40
0.0
 40
0.1949559152
 40
0.3823943829
 40
0.5551481721
 40
0.7065718179
 40
0.7724350386
 40
0.8308621255
 40
0.8812979636
 40
0.9232567891
 40
0.9563396032
 40
0.9802398379
 40
0.988676808
 40
0.9947519981
 40
0.9984801903
 40
1.0
 40
1.0
 40
1.0
 40
1.0
 10
-133.2783552767
 20
-55.3398612305
 30
0.0
 10
-133.2800609669
 20
-55.4308476417
 30
0.0
 10
-133.2830639345
 20
-55.6093185995
 30
0.0
 10
-133.2864741721
 20
-55.8684314735
 30
0.0
 10
-133.2886035449
 20
-56.1072367605
 30
0.0
 10
-133.289305045
 20
-56.2893024757
 30
0.0
 10
-133.2890863321
 20
-56.4180001788
 30
0.0
 10
-133.2885820984
 20
-56.4995619273
 30
0.0
 10
-133.2877416249
 20
-56.5699481122
 30
0.0
 10
-133.2865820149
 20
-56.6285383113
 30
0.0
 10
-133.2851246777
 20
-56.6746233075
 30
0.0
 10
-133.2835809276
 20
-56.7052884343
 30
0.0
 10
-133.2821026147
 20
-56.7229400961
 30
0.0
 10
-133.2810174142
 20
-56.7317574819
 30
0.0
 10
-133.2800888979
 20
-56.7362819438
 30
0.0
 10
-133.2790644566
 20
-56.7393628925
 30
0.0
 10
-133.2783552767
 20
-56.7393814854
 30
0.0
  0
SPLINE
  5
362
100
AcDbEntity
  8
RACCORDO
100
AcDbSpline
 62
250
  6
CONTINUOUS
 70
0
 71
3
 72
11
 73
7
 74
0
 42
0.0000001
 43
0.0000001
 44
0.0000000001
 40
0.0
 40
0.0
 40
0.0
 40
0.0
 40
0.2052785172
 40
0.4342044175
 40
0.6990632704
 40
1.0
 40
1.0
 40
1.0
 40
1.0
 10
-124.0116460826
 20
-58.4726839669
 30
0.0
 10
-123.9780629834
 20
-58.5127067461
 30
0.0
 10
-123.885720273
 20
-58.5808048491
 30
0.0
 10
-123.7088696345
 20
-58.6212999559
 30
0.0
 10
-123.5050073914
 20
-58.6069921417
 30
0.0
 10
-123.366093465
 20
-58.5650579284
 30
0.0
 10
-123.2949198957
 20
-58.5367612914
 30
0.0
  0
SPLINE
  5
363
100
AcDbEntity
  8
RACCORDO
100
AcDbSpline
 62
250
  6
CONTINUOUS
 70
0
 71
3
 72
14
 73
10
 74
0
 42
0.0000001
 43
0.0000001
 44
0.0000000001
 40
0.0
 40
0.0
 40
0.0
 40
0.0
 40
0.0200263138
 40
0.0701411233
 40
0.151740023
 40
0.2642785109
 40
0.4068286561
 40
0.5781140568
 40
1.0
 40
1.0
 40
1.0
 40
1.0
 10
-122.914928663
 20
-59.0075887929
 30
0.0
 10
-122.9168902034
 20
-59.0075202944
 30
0.0
 10
-122.919324273
 20
-58.9985881214
 30
0.0
 10
-122.9216358164
 20
-58.9859650611
 30
0.0
 10
-122.9239538214
 20
-58.9609948183
 30
0.0
 10
-122.9258649371
 20
-58.9285387829
 30
0.0
 10
-122.9274221075
 20
-58.8865916273
 30
0.0
 10
-122.9290225977
 20
-58.8145885079
 30
0.0
 10
-122.9293454866
 20
-58.7564110371
 30
0.0
 10
-122.9293474225
 20
-58.7150629
 30
0.0
  0
ELLIPSE
  5
364
100
AcDbEntity
  8
DRAFT
100
AcDbEllipse
 62
7
  6
CONTINUOUS
 10
68.2169833061
 20
51.7702563137
 30
0.0
 11
-0.0
 21
7.4
 31
0.0
 40
0.0349207695
 41
4.1106002895
 42
5.1791543194
  0
ELLIPSE
  5
365
100
AcDbEntity
  8
DRAFT
100
AcDbEllipse
 62
7
  6
CONTINUOUS
 10
66.93
 20
55.1142270456
 30
0.0
 11
0.0
 21
1.4930793899
 31
0.0
 40
0.9999562224
 41
5.2902172468
 42
6.2831853072
  0
ELLIPSE
  5
366
100
AcDbEntity
  8
DRAFT
100
AcDbEllipse
 62
7
  6
CONTINUOUS
 10
-66.93
 20
55.1142270456
 30
0.0
 11
0.0
 21
1.4930793899
 31
0.0
 40
0.9999562224
 41
6.2831853072
 42
7.2761533676
  0
ELLIPSE
  5
367
100
AcDbEntity
  8
DRAFT
100
AcDbEllipse
 62
7
  6
CONTINUOUS
 10
-68.2169833061
 20
51.7702563137
 30
0.0
 11
-0.0
 21
7.4
 31
0.0
 40
0.0349207695
 41
1.1040309877
 42
2.1725850177
  0
ELLIPSE
  5
368
100
AcDbEntity
  8
RACCORDO
100
AcDbEllipse
 62
7
  6
CONTINUOUS
 10
66.9995200905
 20
-55.8292637768
 30
0.0
 11
0.9906280719
 21
-0.9906280719
 31
0.0
 40
0.999315002
 41
-0.7850555471
 42
0.7850555471
  0
ELLIPSE
  5
369
100
AcDbEntity
  8
RACCORDO
100
AcDbEllipse
 62
7
  6
CONTINUOUS
 10
-66.9995200905
 20
-55.8292637768
 30
0.0
 11
0.9906280719
 21
0.9906280719
 31
0.0
 40
0.999315002
 41
-3.9266482006
 42
-2.3565371065
  0
ELLIPSE
  5
36A
100
AcDbEntity
  8
RACCORDO
100
AcDbEllipse
 62
7
  6
CONTINUOUS
 10
-12.781876351
 20
-58.0196467694
 30
0.0
 11
0.707866938
 21
0.7080696436
 31
0.0
 40
0.9987831137
 41
-3.1408603936
 42
-2.3569464636
  0
ELLIPSE
  5
36B
100
AcDbEntity
  8
RACCORDO
100
AcDbEllipse
 62
7
  6
CONTINUOUS
 10
12.782389877
 20
-58.0196467694
 30
0.0
 11
-0.707866938
 21
0.7080696436
 31
0.0
 40
0.9987831137
 41
-3.9262388436
 42
-3.1423249136
  0
ELLIPSE
  5
36C
100
AcDbEntity
  8
RACCORDO
100
AcDbEllipse
 62
7
  6
CONTINUOUS
 10
68.2428844706
 20
51.7702563137
 30
0.0
 11
-0.0
 21
7.15
 31
0.0
 40
0.0261859216
 41
-2.1458541787
 42
-1.0739706287
  0
ELLIPSE
  5
36D
100
AcDbEntity
  8
RACCORDO
100
AcDbEllipse
 62
7
  6
CONTINUOUS
 10
-68.2428844706
 20
51.7702563137
 30
0.0
 11
0.0
 21
7.15
 31
0.0
 40
0.0261859216
 41
1.0739706287
 42
2.1458541787
  0
ELLIPSE
  5
36E
100
AcDbEntity
  8
RACCORDO
100
AcDbEllipse
 62
7
  6
CONTINUOUS
 10
-13.7217359402
 20
-56.9835008784
 30
0.0
 11
1.3894253256
 21
-0.0160867289
 31
0.0
 40
0.02233236
 41
2.0490863209
 42
3.1053316941
  0
ELLIPSE
  5
36F
100
AcDbEntity
  8
RACCORDO
100
AcDbEllipse
 62
7
  6
CONTINUOUS
 10
13.7222494662
 20
-56.9835008784
 30
0.0
 11
1.3894253256
 21
0.0160867289
 31
0.0
 40
0.02233236
 41
0.0362609594
 42
1.0925063327
  0
ENDSEC
  0
SECTION
  2
OBJECTS
  0
DICTIONARY
  5
C
100
AcDbDictionary
280
0
281
1
  3
ACAD_GROUP
350
D
  3
ACAD_MLINESTYLE
350
17
  3
ACAD_LAYOUT
350
1A
  3
ACAD_PLOTSETTINGS
350
19
  3
ACAD_PLOTSTYLENAME
350
E
  0
DICTIONARY
  5
D
102
{ACAD_REACTORS
330
C
102
}
100
AcDbDictionary
280
0
281
1
  0
ACDBDICTIONARYWDFLT
  5
E
102
{ACAD_REACTORS
330
C
102
}
100
AcDbDictionary
281
1
  3
Normal
350
F
100
AcDbDictionaryWithDefault
340
F
  0
DICTIONARY
  5
17
102
{ACAD_REACTORS
330
C
102
}
100
AcDbDictionary
280
0
281
1
  3
Standard
350
18
  0
DICTIONARY
  5
19
102
{ACAD_REACTORS
330
C
102
}
100
AcDbDictionary
281
1
  0
DICTIONARY
  5
1A
102
{ACAD_REACTORS
330
C
102
}
100
AcDbDictionary
281
1
  3
Model
350
370
  3
Layout1
350
371
  0
ACDBPLACEHOLDER
  5
F
102
{ACAD_REACTORS
330
E
102
}
  0
MLINESTYLE
  5
18
102
{ACAD_REACTORS
330
17
102
}
100
AcDbMlineStyle
  2
STANDARD
 70
0
  3

 62
256
 51
90.0
 52
90.0
 71
2
 49
0.5
 62
256
  6
BYLAYER
 49
-0.5
 62
256
  6
BYLAYER
  0
LAYOUT
  5
370
102
{ACAD_REACTORS
330
1A
102
}
100
AcDbPlotSettings
  1

  2
none_device
  4
ANSI_C_(22.00_x_17.00_Inches)
  6

 40
0.0
 41
0.0
 42
0.0
 43
0.0
 44
558.8
 45
431.8
 46
0.0
 47
0.0
 48
0.0
 49
0.0
140
0.0
141
0.0
142
1.0
143
1.0
 70
1024
 72
1
 73
0
 74
0
  7

 75
0
147
1.0
148
0.0
149
0.0
100
AcDbLayout
  1
Model
 70
0
 71
0
 10
0.0
 20
0.0
 11
558.8
 21
431.8
 12
0.0
 22
0.0
 32
0.0
 14
0.0
 24
0.0
 34
0.0
 15
0.0
 25
0.0
 35
0.0
146
0.0
 13
0.0
 23
0.0
 33
0.0
 16
1.0
 26
0.0
 36
0.0
 17
0.0
 27
1.0
 37
0.0
 76
0
330
215
345
0
346
0
  0
LAYOUT
  5
371
102
{ACAD_REACTORS
330
1A
102
}
100
AcDbPlotSettings
  1

  2
none_device
  4
ANSI_C_(22.00_x_17.00_Inches)
  6

 40
0.0
 41
0.0
 42
0.0
 43
0.0
 44
558.8
 45
431.8
 46
0.0
 47
0.0
 48
0.0
 49
0.0
140
0.0
141
0.0
142
1.0
143
1.0
 70
0
 72
1
 73
0
 74
0
  7

 75
0
147
1.0
148
0.0
149
0.0
100
AcDbLayout
  1
Layout1
 70
0
 71
1
 10
0.0
 20
0.0
 11
558.8
 21
431.8
 12
0.0
 22
0.0
 32
0.0
 14
0.0
 24
0.0
 34
0.0
 15
0.0
 25
0.0
 35
0.0
146
0.0
 13
0.0
 23
0.0
 33
0.0
 16
1.0
 26
0.0
 36
0.0
 17
0.0
 27
1.0
 37
0.0
 76
0
330
216
345
0
346
0
  0
ENDSEC
  0
EOF
