0
SECTION
2
HEADER
9
$ACADVER
1
AC1015
9
$DWGCODEPAGE
3
ANSI_1252
9
$EXTMAX
10
431.8000000000
20
558.8000000000
30
0.0000000000
9
$EXTMIN
10
0.0000000000
20
0.0000000000
30
0.0000000000
9
$LIMMIN
10
0.0000000000
20
0.0000000000
9
$LIMMAX
10
431.8000000000
20
558.8000000000
9
$VIEWCTR
10
215.9000000000
20
279.4000000000
9
$VIEWSIZE
40
558.8000000000
9
$CLAYER
8
0
9
$LTSCALE
40
36.4254814815
9
$CELTYPE
6
BYLAYER
9
$DIMSCALE
40
1
9
$DIMASZ
40
3.0000000000
9
$DIMEXO
40
4.1392592593
9
$DIMDLI
40
25.1666962963
9
$DIMEXE
40
11.9210666667
9
$DIMCEN
40
5.9605333333
9
$DIMLFAC
40
1.0000000000
9
$DIMBLK
1
_FILLED
9
$DIMTXT
40
3.0000000000
9
$DIMTOL
70
1
9
$DIMLIM
70
0
9
$DIMTFAC
40
1.0000000000
9
$DIMTP
40
0.0100000000
9
$DIMTM
40
0.0100000000
9
$PDMODE
70
3
9
$PDSIZE
40
3.0000000000
9
$HANDSEED
5
472
9
$MEASUREMENT
70
1
9
$INSUNITS
70
4
0
ENDSEC
0
SECTION
2
CLASSES
0
CLASS
1
ACDBDICTIONARYWDFLT
2
AcDbDictionaryWithDefault
3
AutoCAD 2000
90
0
280
0
281
0
0
CLASS
1
ACDBPLACEHOLDER
2
AcDbPlaceHolder
3
AutoCAD 2000
90
0
280
0
281
0
0
CLASS
1
LAYOUT
2
AcDbLayout
3
AutoCAD 2000
90
0
280
0
281
0
0
ENDSEC
0
SECTION
2
TABLES
0
TABLE
2
VPORT
5
8
100
AcDbSymbolTable
70
2
0
VPORT
5
1F4
100
AcDbSymbolTableRecord
100
AcDbViewportTableRecord
2
*ACTIVE
70
0
10
0.0
20
0.0
11
1.0
21
1.0
12
215.9000000000
22
279.4000000000
13
0.0
23
0.0
14
1.0
24
1.0
15
0.0
25
0.0
16
0.0
26
0.0
36
1.0
17
0.0
27
0.0
37
0.0
40
558.8000000000
41
0.7727272727
42
50.0
43
0.0
44
0.0
50
0.0
51
0.0
71
0
72
100
73
1
74
1
75
0
76
0
77
0
78
0
0
ENDTAB
0
TABLE
2
LTYPE
5
5
100
AcDbSymbolTable
70
6
0
LTYPE
5
14
100
AcDbSymbolTableRecord
100
AcDbLinetypeTableRecord
2
BYBLOCK
70
0
3

72
65
73
0
40
0.0
0
LTYPE
5
15
100
AcDbSymbolTableRecord
100
AcDbLinetypeTableRecord
2
BYLAYER
70
0
3

72
65
73
0
40
0.0
0
LTYPE
5
16
100
AcDbSymbolTableRecord
100
AcDbLinetypeTableRecord
2
CONTINUOUS
70
64
3
Solid line
72
65
73
0
40
0
0
LTYPE
5
1F5
100
AcDbSymbolTableRecord
100
AcDbLinetypeTableRecord
2
CENTER
70
64
3
____ _ ____ _ ____ _ ____ _ ____ _ ____ _ ____
72
65
73
4
40
0.6
49
0.375
74
0
49
-0.075
74
0
49
0.075
74
0
49
-0.075
74
0
0
LTYPE
5
1F6
100
AcDbSymbolTableRecord
100
AcDbLinetypeTableRecord
2
HIDDEN
70
64
3
- - - - - - - - - - - - - - - - - - - -
72
65
73
2
40
0.2
49
0.1
74
0
49
-0.1
74
0
0
LTYPE
5
1F7
100
AcDbSymbolTableRecord
100
AcDbLinetypeTableRecord
2
PHANTOM
70
64
3
_____ _ _ _____ _ _ _____ _ _ _____
72
65
73
6
40
0.8
49
0.45
74
0
49
-0.05
74
0
49
0.1
74
0
49
-0.05
74
0
49
0.1
74
0
49
-0.05
74
0
0
LTYPE
5
1F8
100
AcDbSymbolTableRecord
100
AcDbLinetypeTableRecord
2
DOT
70
64
3
. . . . . . . . . . . . . . . . . . . .
72
65
73
2
40
0.2
49
0.1
74
0
49
-0.1
74
0
0
LTYPE
5
1F9
100
AcDbSymbolTableRecord
100
AcDbLinetypeTableRecord
2
DASHED
70
64
3
- - - - - - - - - - - - - - - - - - - -
72
65
73
2
40
0.2
49
0.1
74
0
49
-0.1
74
0
0
ENDTAB
0
TABLE
2
LAYER
5
2
100
AcDbSymbolTable
70
36
0
LAYER
5
10
100
AcDbSymbolTableRecord
100
AcDbLayerTableRecord
2
0
70
0
62
7
6
CONTINUOUS
370
-3
390
F
0
LAYER
5
1FA
100
AcDbSymbolTableRecord
100
AcDbLayerTableRecord
2
DEFAULT_1
70
0
62
7
6
CENTER
370
-3
390
F
0
LAYER
5
1FB
100
AcDbSymbolTableRecord
100
AcDbLayerTableRecord
2
DEFAULT_2
70
0
62
8
6
HIDDEN
370
-3
390
F
0
LAYER
5
1FC
100
AcDbSymbolTableRecord
100
AcDbLayerTableRecord
2
DEFAULT_3
70
0
62
7
6
PHANTOM
370
-3
390
F
0
LAYER
5
1FD
100
AcDbSymbolTableRecord
100
AcDbLayerTableRecord
2
_2D_DELETED_OBJS
70
0
62
7
6
CONTINUOUS
370
-3
390
F
0
LAYER
5
1FE
100
AcDbSymbolTableRecord
100
AcDbLayerTableRecord
2
ASSI
70
0
62
7
6
CONTINUOUS
370
-3
390
F
0
LAYER
5
1FF
100
AcDbSymbolTableRecord
100
AcDbLayerTableRecord
2
COORDINATE
70
0
62
7
6
CONTINUOUS
370
-3
390
F
0
LAYER
5
200
100
AcDbSymbolTableRecord
100
AcDbLayerTableRecord
2
COORD_ORIGINE
70
0
62
7
6
CONTINUOUS
370
-3
390
F
0
LAYER
5
201
100
AcDbSymbolTableRecord
100
AcDbLayerTableRecord
2
COSMETICHE
70
0
62
7
6
CONTINUOUS
370
-3
390
F
0
LAYER
5
202
100
AcDbSymbolTableRecord
100
AcDbLayerTableRecord
2
CURVE
70
0
62
7
6
CONTINUOUS
370
-3
390
F
0
LAYER
5
203
100
AcDbSymbolTableRecord
100
AcDbLayerTableRecord
2
DRAFT
70
0
62
7
6
CONTINUOUS
370
-3
390
F
0
LAYER
5
204
100
AcDbSymbolTableRecord
100
AcDbLayerTableRecord
2
IGS
70
0
62
7
6
CONTINUOUS
370
-3
390
F
0
LAYER
5
205
100
AcDbSymbolTableRecord
100
AcDbLayerTableRecord
2
NOTE
70
0
62
7
6
CONTINUOUS
370
-3
390
F
0
LAYER
5
206
100
AcDbSymbolTableRecord
100
AcDbLayerTableRecord
2
PIANI
70
0
62
7
6
CONTINUOUS
370
-3
390
F
0
LAYER
5
207
100
AcDbSymbolTableRecord
100
AcDbLayerTableRecord
2
PIANI_ORIGINE
70
0
62
7
6
CONTINUOUS
370
-3
390
F
0
LAYER
5
208
100
AcDbSymbolTableRecord
100
AcDbLayerTableRecord
2
PUNTI
70
0
62
7
6
CONTINUOUS
370
-3
390
F
0
LAYER
5
209
100
AcDbSymbolTableRecord
100
AcDbLayerTableRecord
2
RACCORDO
70
0
62
7
6
CONTINUOUS
370
-3
390
F
0
LAYER
5
20A
100
AcDbSymbolTableRecord
100
AcDbLayerTableRecord
2
SMUSSO
70
0
62
7
6
CONTINUOUS
370
-3
390
F
0
LAYER
5
20B
100
AcDbSymbolTableRecord
100
AcDbLayerTableRecord
2
SUPERFICI
70
0
62
7
6
CONTINUOUS
370
-3
390
F
0
LAYER
5
20C
100
AcDbSymbolTableRecord
100
AcDbLayerTableRecord
2
TESTO
70
0
62
7
6
CONTINUOUS
370
-3
390
F
0
LAYER
5
20D
100
AcDbSymbolTableRecord
100
AcDbLayerTableRecord
2
TRASH
70
0
62
7
6
CONTINUOUS
370
-3
390
F
0
LAYER
5
20E
100
AcDbSymbolTableRecord
100
AcDbLayerTableRecord
2
XSEC_DATUMS
70
0
62
7
6
CONTINUOUS
370
-3
390
F
0
ENDTAB
0
TABLE
2
STYLE
5
3
100
AcDbSymbolTable
70
1
0
STYLE
5
11
100
AcDbSymbolTableRecord
100
AcDbTextStyleTableRecord
2
STANDARD
70
0
40
0.0
41
0.8000000000
50
0.0
71
0
42
0.2
3
txt
4

0
ENDTAB
0
TABLE
2
VIEW
5
6
100
AcDbSymbolTable
70
0
0
ENDTAB
0
TABLE
2
UCS
5
7
100
AcDbSymbolTable
70
0
0
ENDTAB
0
TABLE
2
APPID
5
9
100
AcDbSymbolTable
70
1
0
APPID
5
20F
100
AcDbSymbolTableRecord
100
AcDbRegAppTableRecord
2
ACAD
70
0
0
ENDTAB
0
TABLE
2
BLOCK_RECORD
5
1
100
AcDbSymbolTable
70
0
0
BLOCK_RECORD
5
1F
100
AcDbSymbolTableRecord
100
AcDbBlockTableRecord
2
*MODEL_SPACE
0
BLOCK_RECORD
5
1B
100
AcDbSymbolTableRecord
100
AcDbBlockTableRecord
2
*PAPER_SPACE
0
BLOCK_RECORD
5
210
100
AcDbSymbolTableRecord
100
AcDbBlockTableRecord
2
_FILLED
0
BLOCK_RECORD
5
211
100
AcDbSymbolTableRecord
100
AcDbBlockTableRecord
2
*D0
0
BLOCK_RECORD
5
212
100
AcDbSymbolTableRecord
100
AcDbBlockTableRecord
2
*D1
0
BLOCK_RECORD
5
213
100
AcDbSymbolTableRecord
100
AcDbBlockTableRecord
2
*D2
0
ENDTAB
0
TABLE
2
DIMSTYLE
5
A
100
AcDbSymbolTable
70
1
100
AcDbDimStyleTable
71
0
0
DIMSTYLE
105
214
100
AcDbSymbolTableRecord
100
AcDbDimStyleTableRecord
2
STANDARD
70
0
3

4

40
1.0
41
3.0000000000
42
0.0625
43
0.38
44
0.18
45
0.0
46
0.0
47
0.0100000000
48
0.0100000000
140
3.0000000000
141
0.09
142
0.0
143
25.4
144
1.0000000000
145
0.0
146
1.0000000000
147
0.09
71
1
72
0
73
0
74
0
75
0
76
0
77
1
78
8
170
0
171
2
172
0
173
0
174
0
175
0
176
0
177
0
178
0
270
2
271
2
272
2
273
2
274
2
275
0
280
0
281
0
282
0
283
1
284
8
285
0
286
0
287
3
288
0
340
11
341
210
342
210
343
210
344
210
0
DIMSTYLE
105
215
100
AcDbSymbolTableRecord
100
AcDbDimStyleTableRecord
2
DIMSTYLE_1
70
0
3

4

40
1.0
41
3.0000000000
42
0.0625
43
0.38
44
0.18
45
0.0
46
0.0
47
0.0000000000
48
0.0000000000
140
3.0000000000
141
0.09
142
0.0
143
25.4
144
1.0000000000
145
0.0
146
1.0000000000
147
0.09
71
0
72
0
73
0
74
0
75
0
76
0
77
1
78
8
170
0
171
2
172
0
173
0
174
0
175
0
176
0
177
0
178
0
270
2
271
2
272
2
273
2
274
2
275
0
280
0
281
0
282
0
283
1
284
8
285
0
286
0
287
3
288
0
340
11
341
210
342
210
343
210
344
210
0
DIMSTYLE
105
216
100
AcDbSymbolTableRecord
100
AcDbDimStyleTableRecord
2
DIMSTYLE_2
70
0
3

4

40
1.0
41
3.0000000000
42
0.0625
43
0.38
44
0.18
45
0.0
46
0.0
47
0.0000000000
48
0.0000000000
140
3.0000000000
141
0.09
142
0.0
143
25.4
144
1.0000000000
145
0.0
146
1.0000000000
147
0.09
71
0
72
0
73
0
74
0
75
0
76
0
77
1
78
8
170
0
171
2
172
0
173
0
174
0
175
0
176
0
177
0
178
0
270
2
271
0
272
0
273
2
274
2
275
0
280
0
281
0
282
0
283
1
284
8
285
0
286
0
287
3
288
0
340
11
341
210
342
210
343
210
344
210
0
ENDTAB
0
ENDSEC
0
SECTION
2
BLOCKS
0
BLOCK
5
20
100
AcDbEntity
8
0
100
AcDbBlockBegin
2
*MODEL_SPACE
70
0
10
0.0
20
0.0
30
0.0
3
*MODEL_SPACE
1

0
ENDBLK
5
21
100
AcDbEntity
8
0
100
AcDbBlockEnd
0
BLOCK
5
1C
100
AcDbEntity
8
0
100
AcDbBlockBegin
2
*PAPER_SPACE
70
0
10
0.0
20
0.0
30
0.0
3
*PAPER_SPACE
1

0
ENDBLK
5
1D
100
AcDbEntity
8
0
100
AcDbBlockEnd
0
BLOCK
5
217
100
AcDbEntity
8
0
100
AcDbBlockBegin
62
2
6
CONTINUOUS
2
*D0
70
65
10
0.0000000000
20
0.0000000000
3
*D0
1

0
TEXT
5
218
100
AcDbEntity
8
0
100
AcDbText
62
2
6
CONTINUOUS
10
54.5179680658
20
-1.4263438426
7
STANDARD
40
3.0000000000
1
85
50
90.0000000000
41
0.7500000000
72
0
100
AcDbText
0
LINE
5
219
100
AcDbEntity
8
0
100
AcDbLine
62
2
6
CONTINUOUS
10
40.5000000000
20
42.5000000000
11
56.7679680658
21
42.5000000000
0
LINE
5
21A
100
AcDbEntity
8
0
100
AcDbLine
62
2
6
CONTINUOUS
10
40.5000000000
20
-42.5000000000
11
56.7679680658
21
-42.5000000000
0
LINE
5
21B
100
AcDbEntity
8
0
100
AcDbLine
62
2
6
CONTINUOUS
10
55.2679680658
20
42.5000000000
11
55.2679680658
21
0.0000000000
0
LINE
5
21C
100
AcDbEntity
8
0
100
AcDbLine
62
2
6
CONTINUOUS
10
55.2679680658
20
-42.5000000000
11
55.2679680658
21
0.0000000000
0
INSERT
5
21D
100
AcDbEntity
8
0
100
AcDbBlockReference
62
2
6
CONTINUOUS
2
_FILLED
10
55.2679680658
20
42.5000000000
41
  3.000000
42
  3.000000
43
  3.000000
50
 90.000000
0
INSERT
5
21E
100
AcDbEntity
8
0
100
AcDbBlockReference
62
2
6
CONTINUOUS
2
_FILLED
10
55.2679680658
20
-42.5000000000
41
  3.000000
42
  3.000000
43
  3.000000
50
270.000000
0
ENDBLK
5
21F
100
AcDbEntity
8
0
6
BYBLOCK
62
0
100
AcDbBlockEnd
0
BLOCK
5
220
100
AcDbEntity
8
0
100
AcDbBlockBegin
62
2
6
CONTINUOUS
2
*D1
70
65
10
0.0000000000
20
0.0000000000
3
*D1
1

0
TEXT
5
221
100
AcDbEntity
8
0
100
AcDbText
62
2
6
CONTINUOUS
10
-2.0698435523
20
49.8198019045
7
STANDARD
40
3.0000000000
1
88
41
0.7857142857
72
0
100
AcDbText
0
LINE
5
222
100
AcDbEntity
8
0
100
AcDbLine
62
2
6
CONTINUOUS
10
44.0000000000
20
39.0000000000
11
44.0000000000
21
50.5698019045
0
LINE
5
223
100
AcDbEntity
8
0
100
AcDbLine
62
2
6
CONTINUOUS
10
-44.0000000000
20
39.0000000000
11
-44.0000000000
21
50.5698019045
0
LINE
5
224
100
AcDbEntity
8
0
100
AcDbLine
62
2
6
CONTINUOUS
10
44.0000000000
20
49.0698019045
11
0.0000000000
21
49.0698019045
0
LINE
5
225
100
AcDbEntity
8
0
100
AcDbLine
62
2
6
CONTINUOUS
10
-44.0000000000
20
49.0698019045
11
0.0000000000
21
49.0698019045
0
INSERT
5
226
100
AcDbEntity
8
0
100
AcDbBlockReference
62
2
6
CONTINUOUS
2
_FILLED
10
44.0000000000
20
49.0698019045
41
  3.000000
42
  3.000000
43
  3.000000
0
INSERT
5
227
100
AcDbEntity
8
0
100
AcDbBlockReference
62
2
6
CONTINUOUS
2
_FILLED
10
-44.0000000000
20
49.0698019045
41
  3.000000
42
  3.000000
43
  3.000000
50
180.000000
0
ENDBLK
5
228
100
AcDbEntity
8
0
6
BYBLOCK
62
0
100
AcDbBlockEnd
0
BLOCK
5
229
100
AcDbEntity
8
0
100
AcDbBlockBegin
62
2
6
CONTINUOUS
2
*D2
70
65
10
0.0000000000
20
0.0000000000
3
*D2
1

0
TEXT
5
22A
100
AcDbEntity
8
0
100
AcDbText
62
2
6
CONTINUOUS
10
-91.0736597953
20
52.1678459892
7
STANDARD
40
3.0000000000
1
22
41
0.7857142857
72
0
100
AcDbText
0
LINE
5
22B
100
AcDbEntity
8
0
100
AcDbLine
62
2
6
CONTINUOUS
10
-77.4738081499
20
43.0000000000
11
-77.4738081499
21
52.9178459892
0
LINE
5
22C
100
AcDbEntity
8
0
100
AcDbLine
62
2
6
CONTINUOUS
10
-99.2738081499
20
22.7000000000
11
-99.2738081499
21
52.9178459892
0
LINE
5
22D
100
AcDbEntity
8
0
100
AcDbLine
62
2
6
CONTINUOUS
10
-77.4738081499
20
51.4178459892
11
-88.3738081499
21
51.4178459892
0
LINE
5
22E
100
AcDbEntity
8
0
100
AcDbLine
62
2
6
CONTINUOUS
10
-99.2738081499
20
51.4178459892
11
-88.3738081499
21
51.4178459892
0
INSERT
5
22F
100
AcDbEntity
8
0
100
AcDbBlockReference
62
2
6
CONTINUOUS
2
_FILLED
10
-77.4738081499
20
51.4178459892
41
  3.000000
42
  3.000000
43
  3.000000
0
INSERT
5
230
100
AcDbEntity
8
0
100
AcDbBlockReference
62
2
6
CONTINUOUS
2
_FILLED
10
-99.2738081499
20
51.4178459892
41
  3.000000
42
  3.000000
43
  3.000000
50
180.000000
0
ENDBLK
5
231
100
AcDbEntity
8
0
6
BYBLOCK
62
0
100
AcDbBlockEnd
0
BLOCK
5
232
100
AcDbEntity
8
0
100
AcDbBlockBegin
2
_FILLED
70
64
10
0.0000000000
20
0.0000000000
3
_FILLED
1

0
SOLID
5
233
100
AcDbEntity
8
0
6
BYBLOCK
62
0
100
AcDbTrace
10
0.0000000000
20
0.0000000000
11
-1.0000000000
21
0.3166666667
12
-1.0000000000
22
-0.3166666667
13
-1.0000000000
23
-0.3166666667
0
ENDBLK
5
234
100
AcDbEntity
8
0
6
BYBLOCK
62
0
100
AcDbBlockEnd
0
ENDSEC
0
SECTION
2
ENTITIES
0
DIMENSION
5
235
100
AcDbEntity
8
0
100
AcDbDimension
62
2
6
CONTINUOUS
2
*D0
10
55.2679680658
20
-42.5000000000
11
53.0179680658
21
0.8236561574
70
160
3
DIMSTYLE_1
100
AcDbAlignedDimension
13
40.5000000000
23
42.5000000000
14
40.5000000000
24
-42.5000000000
50
270.000000
100
AcDbRotatedDimension
0
DIMENSION
5
236
100
AcDbEntity
8
0
100
AcDbDimension
62
2
6
CONTINUOUS
2
*D1
10
-44.0000000000
20
49.0698019045
11
0.2872993048
21
51.3198019045
70
160
3
DIMSTYLE_1
100
AcDbAlignedDimension
13
44.0000000000
23
39.0000000000
14
-44.0000000000
24
39.0000000000
50
180.000000
100
AcDbRotatedDimension
0
DIMENSION
5
237
100
AcDbEntity
8
0
100
AcDbDimension
62
2
6
CONTINUOUS
2
*D2
10
-99.2738081499
20
51.4178459892
11
-88.7165169382
21
53.6678459892
70
160
3
DIMSTYLE_2
100
AcDbAlignedDimension
13
-77.4738081499
23
43.0000000000
14
-99.2738081499
24
22.7000000000
50
180.000000
100
AcDbRotatedDimension
0
LINE
5
238
100
AcDbEntity
8
0
100
AcDbLine
62
7
6
CONTINUOUS
10
-31.9694559627
20
-42.5000000000
11
-32.0000000000
21
-42.4389072728
0
LINE
5
239
100
AcDbEntity
8
0
100
AcDbLine
62
7
6
CONTINUOUS
10
-44.0000000000
20
38.5000000000
11
-44.0000000000
21
-38.5000000000
0
LINE
5
23A
100
AcDbEntity
8
0
100
AcDbLine
62
7
6
CONTINUOUS
10
-43.7500000000
20
37.5000000000
11
-43.7500000000
21
-38.4900000000
0
LINE
5
23B
100
AcDbEntity
8
0
100
AcDbLine
62
7
6
CONTINUOUS
10
-40.5000000000
20
42.1723447486
11
-40.5000000000
21
42.1647740418
0
LINE
5
23C
100
AcDbEntity
8
0
100
AcDbLine
62
7
6
CONTINUOUS
10
-40.0000000000
20
-42.5000000000
11
40.0000000000
21
-42.5000000000
0
LINE
5
23D
100
AcDbEntity
8
0
100
AcDbLine
62
7
6
CONTINUOUS
10
-36.0000000000
20
-42.4389072728
11
-32.0000000000
21
-42.4389072728
0
LINE
5
23E
100
AcDbEntity
8
0
100
AcDbLine
62
7
6
CONTINUOUS
10
32.0000000000
20
-42.4389072728
11
36.0000000000
21
-42.4389072728
0
LINE
5
23F
100
AcDbEntity
8
0
100
AcDbLine
62
9
6
CONTINUOUS
10
19.2000000152
20
-42.3961782450
11
-19.2000000225
21
-42.3961782450
0
LINE
5
240
100
AcDbEntity
8
0
100
AcDbLine
62
9
6
CONTINUOUS
10
40.0000000000
20
-42.3689346968
11
19.2000000190
21
-42.3689349006
0
LINE
5
241
100
AcDbEntity
8
0
100
AcDbLine
62
9
6
CONTINUOUS
10
-19.2000000281
20
-42.3689349983
11
-40.0000000000
21
-42.3689346969
0
LINE
5
242
100
AcDbEntity
8
0
100
AcDbLine
62
9
6
CONTINUOUS
10
19.0285665399
20
-42.2962087060
11
-19.0285665399
21
-42.2962087060
0
LINE
5
243
100
AcDbEntity
8
0
100
AcDbLine
62
7
6
CONTINUOUS
10
-39.9900000000
20
-42.2500000000
11
-22.6754234025
21
-42.2500000000
0
LINE
5
244
100
AcDbEntity
8
0
100
AcDbLine
62
7
6
CONTINUOUS
10
22.6754234025
20
-42.2500000000
11
39.9900000000
21
-42.2500000000
0
LINE
5
245
100
AcDbEntity
8
0
100
AcDbLine
62
7
6
CONTINUOUS
10
-19.8354216568
20
-42.1243235325
11
19.8354216568
21
-42.1243235325
0
LINE
5
246
100
AcDbEntity
8
0
100
AcDbLine
62
7
6
CONTINUOUS
10
-22.6723766096
20
-42.0754493507
11
22.6723766096
21
-42.0754493507
0
LINE
5
247
100
AcDbEntity
8
0
100
AcDbLine
62
9
6
CONTINUOUS
10
-21.0009928400
20
-41.1789648818
11
21.0009928400
21
-41.1789648818
0
LINE
5
248
100
AcDbEntity
8
0
100
AcDbLine
62
9
6
CONTINUOUS
10
-40.0000000000
20
42.5000000000
11
-40.0000000000
21
42.3219583377
0
LINE
5
249
100
AcDbEntity
8
0
100
AcDbLine
62
9
6
CONTINUOUS
10
-40.0000000000
20
-42.5000000000
11
-40.0000076425
21
-42.2495413133
0
LINE
5
24A
100
AcDbEntity
8
0
100
AcDbLine
62
9
6
CONTINUOUS
10
-39.9900000000
20
-42.0968686041
11
-39.9900000000
21
-42.2500000000
0
LINE
5
24B
100
AcDbEntity
8
0
100
AcDbLine
62
9
6
CONTINUOUS
10
-39.9900000000
20
42.1130421103
11
-39.9900000000
21
42.1993909428
0
LINE
5
24C
100
AcDbEntity
8
0
100
AcDbLine
62
9
6
CONTINUOUS
10
44.0000000000
20
-38.5000000000
11
43.8691832390
21
-38.5000000000
0
LINE
5
24D
100
AcDbEntity
8
0
100
AcDbLine
62
9
6
CONTINUOUS
10
-44.0000000000
20
-38.5000000000
11
-43.8692464992
21
-38.5000000000
0
LINE
5
24E
100
AcDbEntity
8
0
100
AcDbLine
62
9
6
CONTINUOUS
10
43.7500000000
20
-38.4900000000
11
43.6061049150
21
-38.4900000000
0
LINE
5
24F
100
AcDbEntity
8
0
100
AcDbLine
62
9
6
CONTINUOUS
10
-43.6061049150
20
-38.4900000000
11
-43.7500000000
21
-38.4900000000
0
LINE
5
250
100
AcDbEntity
8
0
100
AcDbLine
62
7
6
CONTINUOUS
10
20.4125030000
20
-31.9999930000
11
20.9925250000
21
-31.9999850000
0
LINE
5
251
100
AcDbEntity
8
0
100
AcDbLine
62
7
6
CONTINUOUS
10
25.5623810000
20
-31.9999780000
11
24.9090760000
21
-31.9999850000
0
LINE
5
252
100
AcDbEntity
8
0
100
AcDbLine
62
7
6
CONTINUOUS
10
18.3174130000
20
-31.9999930000
11
18.8974200000
21
-31.9999850000
0
LINE
5
253
100
AcDbEntity
8
0
100
AcDbLine
62
7
6
CONTINUOUS
10
16.0289860000
20
-32.0000000000
11
16.6090080000
21
-31.9999930000
0
LINE
5
254
100
AcDbEntity
8
0
100
AcDbLine
62
7
6
CONTINUOUS
10
14.1311320000
20
-32.0000000000
11
14.7111760000
21
-31.9999930000
0
LINE
5
255
100
AcDbEntity
8
0
100
AcDbLine
62
7
6
CONTINUOUS
10
17.1890150000
20
-31.9999930000
11
17.7690370000
21
-31.9999930000
0
LINE
5
256
100
AcDbEntity
8
0
100
AcDbLine
62
7
6
CONTINUOUS
10
19.4458030000
20
-31.9999930000
11
20.0258240000
21
-31.9999930000
0
LINE
5
257
100
AcDbEntity
8
0
100
AcDbLine
62
7
6
CONTINUOUS
10
23.8215260000
20
-31.9999850000
11
23.2414970000
21
-31.9999850000
0
LINE
5
258
100
AcDbEntity
8
0
100
AcDbLine
62
7
6
CONTINUOUS
10
22.8548180000
20
-31.9999930000
11
22.2747890000
21
-31.9999850000
0
LINE
5
259
100
AcDbEntity
8
0
100
AcDbLine
62
7
6
CONTINUOUS
10
22.0916830000
20
-31.4296570000
11
21.1756380000
21
-31.4296570000
0
LINE
5
25A
100
AcDbEntity
8
0
100
AcDbLine
62
7
6
CONTINUOUS
10
21.3525600000
20
-30.8786350000
11
21.9147540000
21
-30.8786350000
0
LINE
5
25B
100
AcDbEntity
8
0
100
AcDbLine
62
7
6
CONTINUOUS
10
24.3278220000
20
-30.8786350000
11
23.8215910000
21
-30.8786280000
0
LINE
5
25C
100
AcDbEntity
8
0
100
AcDbLine
62
7
6
CONTINUOUS
10
23.8135290000
20
-30.3421060000
11
24.5192050000
21
-30.3421060000
0
LINE
5
25D
100
AcDbEntity
8
0
100
AcDbLine
62
7
6
CONTINUOUS
10
24.5192050000
20
-29.6363770000
11
23.8135220000
21
-29.6363770000
0
LINE
5
25E
100
AcDbEntity
8
0
100
AcDbLine
62
7
6
CONTINUOUS
10
13.2000000000
20
-29.0998620000
11
13.7800290000
21
-29.0998620000
0
LINE
5
25F
100
AcDbEntity
8
0
100
AcDbLine
62
7
6
CONTINUOUS
10
15.0622860000
20
-29.0998620000
11
15.6423150000
21
-29.0998620000
0
LINE
5
260
100
AcDbEntity
8
0
100
AcDbLine
62
7
6
CONTINUOUS
10
16.0289940000
20
-29.0998620000
11
16.6090150000
21
-29.0998620000
0
LINE
5
261
100
AcDbEntity
8
0
100
AcDbLine
62
7
6
CONTINUOUS
10
17.1890150000
20
-29.0998620000
11
18.0658520000
21
-29.0998620000
0
LINE
5
262
100
AcDbEntity
8
0
100
AcDbLine
62
7
6
CONTINUOUS
10
19.1489880000
20
-29.0998620000
11
20.0258240000
21
-29.0998620000
0
LINE
5
263
100
AcDbEntity
8
0
100
AcDbLine
62
7
6
CONTINUOUS
10
21.3436280000
20
-29.0998550000
11
21.9236790000
21
-29.0998550000
0
LINE
5
264
100
AcDbEntity
8
0
100
AcDbLine
62
7
6
CONTINUOUS
10
23.2414970000
20
-29.0998550000
11
24.5997110000
21
-29.0998550000
0
LINE
5
265
100
AcDbEntity
8
0
100
AcDbLine
62
9
6
CONTINUOUS
10
-26.1018653341
20
22.2000000000
11
-26.1000126856
21
-0.0008319560
0
LINE
5
266
100
AcDbEntity
8
0
100
AcDbLine
62
7
6
CONTINUOUS
10
-24.5000000000
20
-22.2000000000
11
-24.5000000000
21
22.2000000000
0
LINE
5
267
100
AcDbEntity
8
0
100
AcDbLine
62
7
6
CONTINUOUS
10
-24.0000000000
20
-22.2000000000
11
-24.0000000000
21
22.2000000000
0
LINE
5
268
100
AcDbEntity
8
0
100
AcDbLine
62
9
6
CONTINUOUS
10
-23.9804947957
20
22.2000000000
11
-23.9804947957
21
-22.2000000000
0
LINE
5
269
100
AcDbEntity
8
0
100
AcDbLine
62
9
6
CONTINUOUS
10
-26.1000126856
20
-0.0008319560
11
-26.1086438825
21
-22.2000000000
0
LINE
5
26A
100
AcDbEntity
8
0
100
AcDbLine
62
9
6
CONTINUOUS
10
-20.9674737752
20
-27.8999938077
11
20.9674737752
21
-27.8999938077
0
LINE
5
26B
100
AcDbEntity
8
0
100
AcDbLine
62
7
6
CONTINUOUS
10
22.2000000000
20
-24.5000000000
11
-22.2000000000
21
-24.5000000000
0
LINE
5
26C
100
AcDbEntity
8
0
100
AcDbLine
62
7
6
CONTINUOUS
10
22.2000000000
20
-24.0000000000
11
-22.2000000000
21
-24.0000000000
0
LINE
5
26D
100
AcDbEntity
8
0
100
AcDbLine
62
9
6
CONTINUOUS
10
-22.2000000000
20
-23.9804947957
11
22.2000000000
21
-23.9804947957
0
LINE
5
26E
100
AcDbEntity
8
0
100
AcDbLine
62
9
6
CONTINUOUS
10
-22.2000000000
20
-26.0995707387
11
22.2000000000
21
-26.0995707387
0
LINE
5
26F
100
AcDbEntity
8
0
100
AcDbLine
62
9
6
CONTINUOUS
10
-20.9674737752
20
-27.8999938077
11
-20.9677117849
21
-26.0999956903
0
LINE
5
270
100
AcDbEntity
8
0
100
AcDbLine
62
9
6
CONTINUOUS
10
-22.9806471005
20
22.2000000000
11
-22.9806471005
21
-22.2000000000
0
LINE
5
271
100
AcDbEntity
8
0
100
AcDbLine
62
9
6
CONTINUOUS
10
-22.2000000000
20
26.1022231451
11
-22.2000000000
21
24.5000000000
0
LINE
5
272
100
AcDbEntity
8
0
100
AcDbLine
62
9
6
CONTINUOUS
10
-22.2000000000
20
-26.0995707387
11
-22.2000000000
21
-24.5000000000
0
LINE
5
273
100
AcDbEntity
8
0
100
AcDbLine
62
9
6
CONTINUOUS
10
-22.2000000000
20
-22.9806471005
11
-22.2000000000
21
-24.0000000000
0
LINE
5
274
100
AcDbEntity
8
0
100
AcDbLine
62
9
6
CONTINUOUS
10
-22.2000000000
20
22.9806471005
11
-22.2000000000
21
24.0000000000
0
LINE
5
275
100
AcDbEntity
8
0
100
AcDbLine
62
9
6
CONTINUOUS
10
-21.0009928400
20
-41.1789648818
11
-21.0009838932
21
-42.0749058302
0
LINE
5
276
100
AcDbEntity
8
0
100
AcDbLine
62
7
6
CONTINUOUS
10
-22.6754234025
20
-42.2500000000
11
-22.6723766096
21
-42.0754493507
0
LINE
5
277
100
AcDbEntity
8
0
100
AcDbLine
62
9
6
CONTINUOUS
10
-22.2000000000
20
-22.9806471005
11
22.2000000000
21
-22.9806471005
0
LINE
5
278
100
AcDbEntity
8
0
100
AcDbLine
62
9
6
CONTINUOUS
10
26.1086438825
20
-22.2000000000
11
24.5000000000
21
-22.2000000000
0
LINE
5
279
100
AcDbEntity
8
0
100
AcDbLine
62
9
6
CONTINUOUS
10
-26.1086438825
20
-22.2000000000
11
-24.5000000000
21
-22.2000000000
0
LINE
5
27A
100
AcDbEntity
8
0
100
AcDbLine
62
9
6
CONTINUOUS
10
-24.0000000000
20
-22.2000000000
11
-22.9806471005
21
-22.2000000000
0
LINE
5
27B
100
AcDbEntity
8
0
100
AcDbLine
62
9
6
CONTINUOUS
10
22.9806471005
20
-22.2000000000
11
24.0000000000
21
-22.2000000000
0
LINE
5
27C
100
AcDbEntity
8
0
100
AcDbLine
62
9
6
CONTINUOUS
10
-19.2000000225
20
-42.3961782450
11
-19.2000001149
21
-42.1243235325
0
LINE
5
27D
100
AcDbEntity
8
0
100
AcDbLine
62
7
6
CONTINUOUS
10
-19.0000000000
20
-42.1921365940
11
-19.0000000000
21
-42.1243235325
0
LINE
5
27E
100
AcDbEntity
8
0
100
AcDbLine
62
9
6
CONTINUOUS
10
-18.7355891919
20
-42.0754493507
11
-18.7355891921
21
-42.1243235325
0
LINE
5
27F
100
AcDbEntity
8
0
100
AcDbLine
62
7
6
CONTINUOUS
10
-36.0305440373
20
-42.5000000000
11
-36.0000000000
21
-42.4389072728
0
LINE
5
280
100
AcDbEntity
8
0
100
AcDbLine
62
9
6
CONTINUOUS
10
-0.0039624750
20
27.8996358738
11
-0.0040910230
21
26.1000286370
0
LINE
5
281
100
AcDbEntity
8
0
100
AcDbLine
62
9
6
CONTINUOUS
10
0.0043004151
20
41.4560939662
11
0.0043594860
21
42.1047391915
0
LINE
5
282
100
AcDbEntity
8
0
100
AcDbLine
62
9
6
CONTINUOUS
10
26.1000126854
20
-0.0008319559
11
42.9216920453
21
0.0000000000
0
LINE
5
283
100
AcDbEntity
8
0
100
AcDbLine
62
9
6
CONTINUOUS
10
-42.9216904546
20
-0.0000000000
11
-26.1000126840
21
-0.0008319560
0
LINE
5
284
100
AcDbEntity
8
0
100
AcDbLine
62
7
6
CONTINUOUS
10
14.1311320000
20
-32.0000000000
11
13.2000000000
21
-29.0998620000
0
LINE
5
285
100
AcDbEntity
8
0
100
AcDbLine
62
7
6
CONTINUOUS
10
13.7800290000
20
-29.0998620000
11
14.4211610000
21
-31.0967590000
0
LINE
5
286
100
AcDbEntity
8
0
100
AcDbLine
62
7
6
CONTINUOUS
10
24.9090760000
20
-31.9999850000
11
24.3278220000
21
-30.8786350000
0
LINE
5
287
100
AcDbEntity
8
0
100
AcDbLine
62
7
6
CONTINUOUS
10
24.9449767907
20
-30.8088806669
11
25.5623810000
21
-31.9999780000
0
LINE
5
288
100
AcDbEntity
8
0
100
AcDbLine
62
7
6
CONTINUOUS
10
21.9147540000
20
-30.8786350000
11
21.6336500000
21
-30.0030960000
0
LINE
5
289
100
AcDbEntity
8
0
100
AcDbLine
62
7
6
CONTINUOUS
10
22.2747890000
20
-31.9999850000
11
22.0916830000
21
-31.4296570000
0
LINE
5
28A
100
AcDbEntity
8
0
100
AcDbLine
62
7
6
CONTINUOUS
10
21.9236790000
20
-29.0998550000
11
22.8548180000
21
-31.9999930000
0
LINE
5
28B
100
AcDbEntity
8
0
100
AcDbLine
62
7
6
CONTINUOUS
10
18.3174130000
20
-31.9999930000
11
17.7690370000
21
-30.0875510000
0
LINE
5
28C
100
AcDbEntity
8
0
100
AcDbLine
62
7
6
CONTINUOUS
10
18.0658520000
20
-29.0998620000
11
18.6074200000
21
-30.9885310000
0
LINE
5
28D
100
AcDbEntity
8
0
100
AcDbLine
62
7
6
CONTINUOUS
10
16.0289940000
20
-29.0998620000
11
16.0289860000
21
-32.0000000000
0
LINE
5
28E
100
AcDbEntity
8
0
100
AcDbLine
62
7
6
CONTINUOUS
10
16.6090150000
20
-29.0998620000
11
16.6090080000
21
-31.9999930000
0
LINE
5
28F
100
AcDbEntity
8
0
100
AcDbLine
62
7
6
CONTINUOUS
10
36.0305440373
20
-42.5000000000
11
36.0000000000
21
-42.4389072728
0
LINE
5
290
100
AcDbEntity
8
0
100
AcDbLine
62
9
6
CONTINUOUS
10
20.9680114624
20
-27.9000059960
11
20.9845409030
21
-30.2185089518
0
LINE
5
291
100
AcDbEntity
8
0
100
AcDbLine
62
9
6
CONTINUOUS
10
20.9844837900
20
-30.2186891191
11
20.9947305714
21
-31.9931334122
0
LINE
5
292
100
AcDbEntity
8
0
100
AcDbLine
62
7
6
CONTINUOUS
10
17.1890150000
20
-29.0998620000
11
17.1890150000
21
-31.9999930000
0
LINE
5
293
100
AcDbEntity
8
0
100
AcDbLine
62
7
6
CONTINUOUS
10
17.7690370000
20
-30.0875510000
11
17.7690370000
21
-31.9999930000
0
LINE
5
294
100
AcDbEntity
8
0
100
AcDbLine
62
9
6
CONTINUOUS
10
18.7355891920
20
-42.0754493507
11
18.7355891921
21
-42.1243235325
0
LINE
5
295
100
AcDbEntity
8
0
100
AcDbLine
62
7
6
CONTINUOUS
10
19.0000000000
20
-42.1243235325
11
19.0000000000
21
-42.1921365940
0
LINE
5
296
100
AcDbEntity
8
0
100
AcDbLine
62
9
6
CONTINUOUS
10
19.2000000777
20
-42.1243235325
11
19.2000000152
21
-42.3961782450
0
LINE
5
297
100
AcDbEntity
8
0
100
AcDbLine
62
7
6
CONTINUOUS
10
19.4457950000
20
-30.0875510000
11
19.4458030000
21
-31.9999930000
0
LINE
5
298
100
AcDbEntity
8
0
100
AcDbLine
62
7
6
CONTINUOUS
10
20.0258240000
20
-29.0998620000
11
20.0258240000
21
-31.9999930000
0
LINE
5
299
100
AcDbEntity
8
0
100
AcDbLine
62
7
6
CONTINUOUS
10
22.6754234025
20
-42.2500000000
11
22.6723766096
21
-42.0754493507
0
LINE
5
29A
100
AcDbEntity
8
0
100
AcDbLine
62
9
6
CONTINUOUS
10
20.9948025645
20
-31.9929103484
11
21.0009838932
21
-42.0749058302
0
LINE
5
29B
100
AcDbEntity
8
0
100
AcDbLine
62
9
6
CONTINUOUS
10
22.2000000000
20
26.1022231451
11
22.2000000000
21
24.5000000000
0
LINE
5
29C
100
AcDbEntity
8
0
100
AcDbLine
62
9
6
CONTINUOUS
10
22.2000000000
20
-26.0995707387
11
22.2000000000
21
-24.5000000000
0
LINE
5
29D
100
AcDbEntity
8
0
100
AcDbLine
62
9
6
CONTINUOUS
10
22.2000000000
20
-22.9806471005
11
22.2000000000
21
-24.0000000000
0
LINE
5
29E
100
AcDbEntity
8
0
100
AcDbLine
62
9
6
CONTINUOUS
10
22.2000000000
20
22.9806471005
11
22.2000000000
21
24.0000000000
0
LINE
5
29F
100
AcDbEntity
8
0
100
AcDbLine
62
9
6
CONTINUOUS
10
22.9806471005
20
-22.2000000000
11
22.9806471005
21
22.2000000000
0
LINE
5
2A0
100
AcDbEntity
8
0
100
AcDbLine
62
7
6
CONTINUOUS
10
23.2414970000
20
-31.9999850000
11
23.2414970000
21
-29.0998550000
0
LINE
5
2A1
100
AcDbEntity
8
0
100
AcDbLine
62
7
6
CONTINUOUS
10
23.8135220000
20
-29.6363770000
11
23.8135290000
21
-30.3421060000
0
LINE
5
2A2
100
AcDbEntity
8
0
100
AcDbLine
62
9
6
CONTINUOUS
10
23.9804947957
20
-22.2000000000
11
23.9804947957
21
22.2000000000
0
LINE
5
2A3
100
AcDbEntity
8
0
100
AcDbLine
62
7
6
CONTINUOUS
10
24.0000000000
20
22.2000000000
11
24.0000000000
21
-22.2000000000
0
LINE
5
2A4
100
AcDbEntity
8
0
100
AcDbLine
62
7
6
CONTINUOUS
10
24.5000000000
20
22.2000000000
11
24.5000000000
21
-22.2000000000
0
LINE
5
2A5
100
AcDbEntity
8
0
100
AcDbLine
62
9
6
CONTINUOUS
10
20.9674737752
20
-27.8999938077
11
20.9677117849
21
-26.0999956903
0
LINE
5
2A6
100
AcDbEntity
8
0
100
AcDbLine
62
7
6
CONTINUOUS
10
23.8215910000
20
-30.8786280000
11
23.8215260000
21
-31.9999850000
0
LINE
5
2A7
100
AcDbEntity
8
0
100
AcDbLine
62
7
6
CONTINUOUS
10
14.4211610000
20
-31.0967590000
11
15.0622860000
21
-29.0998620000
0
LINE
5
2A8
100
AcDbEntity
8
0
100
AcDbLine
62
7
6
CONTINUOUS
10
15.6423150000
20
-29.0998620000
11
14.7111760000
21
-31.9999930000
0
LINE
5
2A9
100
AcDbEntity
8
0
100
AcDbLine
62
9
6
CONTINUOUS
10
26.1018653341
20
22.2000000000
11
24.5000000000
21
22.2000000000
0
LINE
5
2AA
100
AcDbEntity
8
0
100
AcDbLine
62
9
6
CONTINUOUS
10
-26.1018653341
20
22.2000000000
11
-24.5000000000
21
22.2000000000
0
LINE
5
2AB
100
AcDbEntity
8
0
100
AcDbLine
62
9
6
CONTINUOUS
10
-24.0000000000
20
22.2000000000
11
-22.9806471005
21
22.2000000000
0
LINE
5
2AC
100
AcDbEntity
8
0
100
AcDbLine
62
9
6
CONTINUOUS
10
22.9806471005
20
22.2000000000
11
24.0000000000
21
22.2000000000
0
LINE
5
2AD
100
AcDbEntity
8
0
100
AcDbLine
62
9
6
CONTINUOUS
10
22.2000000000
20
22.9806471005
11
-22.2000000000
21
22.9806471005
0
LINE
5
2AE
100
AcDbEntity
8
0
100
AcDbLine
62
9
6
CONTINUOUS
10
22.2000000000
20
23.9804947957
11
-22.2000000000
21
23.9804947957
0
LINE
5
2AF
100
AcDbEntity
8
0
100
AcDbLine
62
7
6
CONTINUOUS
10
-22.2000000000
20
24.0000000000
11
22.2000000000
21
24.0000000000
0
LINE
5
2B0
100
AcDbEntity
8
0
100
AcDbLine
62
7
6
CONTINUOUS
10
-22.2000000000
20
24.5000000000
11
22.2000000000
21
24.5000000000
0
LINE
5
2B1
100
AcDbEntity
8
0
100
AcDbLine
62
9
6
CONTINUOUS
10
26.1086438825
20
-22.2000000000
11
26.1000126856
21
-0.0008319560
0
LINE
5
2B2
100
AcDbEntity
8
0
100
AcDbLine
62
9
6
CONTINUOUS
10
26.1000126856
20
-0.0008319560
11
26.1018653341
21
22.2000000000
0
LINE
5
2B3
100
AcDbEntity
8
0
100
AcDbLine
62
7
6
CONTINUOUS
10
18.6074200000
20
-30.9885310000
11
19.1489880000
21
-29.0998620000
0
LINE
5
2B4
100
AcDbEntity
8
0
100
AcDbLine
62
7
6
CONTINUOUS
10
19.4457950000
20
-30.0875510000
11
18.8974200000
21
-31.9999850000
0
LINE
5
2B5
100
AcDbEntity
8
0
100
AcDbLine
62
9
6
CONTINUOUS
10
22.2000000000
20
26.1022231451
11
-0.0040910230
21
26.1000286370
0
LINE
5
2B6
100
AcDbEntity
8
0
100
AcDbLine
62
9
6
CONTINUOUS
10
-0.0040910230
20
26.1000286370
11
-22.2000000000
21
26.1022231451
0
LINE
5
2B7
100
AcDbEntity
8
0
100
AcDbLine
62
7
6
CONTINUOUS
10
20.4125030000
20
-31.9999930000
11
21.3436280000
21
-29.0998550000
0
LINE
5
2B8
100
AcDbEntity
8
0
100
AcDbLine
62
7
6
CONTINUOUS
10
21.6336500000
20
-30.0030960000
11
21.3525600000
21
-30.8786350000
0
LINE
5
2B9
100
AcDbEntity
8
0
100
AcDbLine
62
7
6
CONTINUOUS
10
21.1756380000
20
-31.4296570000
11
20.9925250000
21
-31.9999850000
0
LINE
5
2BA
100
AcDbEntity
8
0
100
AcDbLine
62
9
6
CONTINUOUS
10
39.9900000000
20
-42.0968686041
11
39.9900000000
21
-42.2500000000
0
LINE
5
2BB
100
AcDbEntity
8
0
100
AcDbLine
62
9
6
CONTINUOUS
10
39.9900000000
20
42.1130421103
11
39.9900000000
21
42.1993909428
0
LINE
5
2BC
100
AcDbEntity
8
0
100
AcDbLine
62
9
6
CONTINUOUS
10
40.0000000000
20
42.3219583377
11
40.0000000000
21
42.5000000000
0
LINE
5
2BD
100
AcDbEntity
8
0
100
AcDbLine
62
7
6
CONTINUOUS
10
40.5000000000
20
42.1647740418
11
40.5000000000
21
42.1723447486
0
LINE
5
2BE
100
AcDbEntity
8
0
100
AcDbLine
62
9
6
CONTINUOUS
10
40.0000000000
20
-42.5000000000
11
40.0000292063
21
-42.2495403250
0
LINE
5
2BF
100
AcDbEntity
8
0
100
AcDbLine
62
9
6
CONTINUOUS
10
43.6148052695
20
38.4900000000
11
43.7484878319
21
38.4900001097
0
LINE
5
2C0
100
AcDbEntity
8
0
100
AcDbLine
62
9
6
CONTINUOUS
10
-43.6148052695
20
38.4900000000
11
-43.7484878330
21
38.4899997944
0
LINE
5
2C1
100
AcDbEntity
8
0
100
AcDbLine
62
9
6
CONTINUOUS
10
-43.8641154491
20
38.5000000000
11
-44.0000000000
21
38.5000000000
0
LINE
5
2C2
100
AcDbEntity
8
0
100
AcDbLine
62
9
6
CONTINUOUS
10
43.8633470193
20
38.5000000000
11
44.0000000000
21
38.5000000000
0
LINE
5
2C3
100
AcDbEntity
8
0
100
AcDbLine
62
7
6
CONTINUOUS
10
43.7500000000
20
-38.4900000000
11
43.7500000000
21
37.5000000000
0
LINE
5
2C4
100
AcDbEntity
8
0
100
AcDbLine
62
7
6
CONTINUOUS
10
44.0000000000
20
-38.5000000000
11
44.0000000000
21
38.5000000000
0
LINE
5
2C5
100
AcDbEntity
8
0
100
AcDbLine
62
7
6
CONTINUOUS
10
-41.3067066756
20
42.0916407392
11
-40.9149573841
21
42.0916407392
0
LINE
5
2C6
100
AcDbEntity
8
0
100
AcDbLine
62
7
6
CONTINUOUS
10
40.9138046316
20
42.0916407392
11
41.3067066756
21
42.0916407392
0
LINE
5
2C7
100
AcDbEntity
8
0
100
AcDbLine
62
7
6
CONTINUOUS
10
39.9900000000
20
42.1993909428
11
-39.9900000000
21
42.1993909428
0
LINE
5
2C8
100
AcDbEntity
8
0
100
AcDbLine
62
7
6
CONTINUOUS
10
-40.0000000000
20
42.3219583377
11
40.0000000000
21
42.3219583377
0
LINE
5
2C9
100
AcDbEntity
8
0
100
AcDbLine
62
7
6
CONTINUOUS
10
40.0000000000
20
42.5000000000
11
-40.0000000000
21
42.5000000000
0
LINE
5
2CA
100
AcDbEntity
8
0
100
AcDbLine
62
7
6
CONTINUOUS
10
31.9694559627
20
-42.5000000000
11
32.0000000000
21
-42.4389072728
0
LINE
5
2CB
100
AcDbEntity
8
0
100
AcDbLine
62
7
6
CONTINUOUS
10
-77.4738081499
20
-42.5000000000
11
-84.9825343392
21
-42.3689346968
0
LINE
5
2CC
100
AcDbEntity
8
0
100
AcDbLine
62
7
6
CONTINUOUS
10
-95.7063590670
20
-42.0748811723
11
-85.6738081499
21
-42.2500000000
0
LINE
5
2CD
100
AcDbEntity
8
0
100
AcDbLine
62
7
6
CONTINUOUS
10
-95.7966224875
20
-42.0692136248
11
-95.7063416989
21
-42.0748814755
0
LINE
5
2CE
100
AcDbEntity
8
0
100
AcDbLine
62
7
6
CONTINUOUS
10
-95.8874426314
20
-42.0551239222
11
-95.7966817851
21
-42.0692072231
0
LINE
5
2CF
100
AcDbEntity
8
0
100
AcDbLine
62
7
6
CONTINUOUS
10
-93.7092298067
20
-42.1243235325
11
-92.8738081499
21
-42.1243235325
0
LINE
5
2D0
100
AcDbEntity
8
0
100
AcDbLine
62
7
6
CONTINUOUS
10
-75.9080047167
20
-39.5804442346
11
-77.4738081499
21
-40.0000000000
0
LINE
5
2D1
100
AcDbEntity
8
0
100
AcDbLine
62
9
6
CONTINUOUS
10
-94.8631552461
20
-38.5050511515
11
-93.9175520501
21
-38.4900000000
0
LINE
5
2D2
100
AcDbEntity
8
0
100
AcDbLine
62
9
6
CONTINUOUS
10
-77.4738081499
20
-38.5000000000
11
-84.9682953667
21
-38.5000000000
0
LINE
5
2D3
100
AcDbEntity
8
0
100
AcDbLine
62
9
6
CONTINUOUS
10
-85.6738081499
20
-38.4900000000
11
-93.9175520501
21
-38.4900000000
0
LINE
5
2D4
100
AcDbEntity
8
0
100
AcDbLine
62
9
6
CONTINUOUS
10
-77.4738081499
20
-36.7000000000
11
-75.4738081499
21
-36.7000000000
0
LWPOLYLINE
5
2D5
100
AcDbEntity
8
0
100
AcDbPolyline
62
7
6
CONTINUOUS
90
10
70
0
10
-94.9240821439
20
41.4501355863
10
-94.9953253474
20
41.2550081494
10
-95.0691408539
20
41.0495003167
10
-95.1399836344
20
40.8489332550
10
-95.2073268139
20
40.6551073757
10
-95.2712327125
20
40.4681918944
10
-95.3318478337
20
40.2880992955
10
-95.3888125315
20
40.1162595861
10
-95.4422286471
20
39.9527480000
10
-95.5384613635
20
39.6520676974
0
LINE
5
2D6
100
AcDbEntity
8
0
100
AcDbLine
62
7
6
CONTINUOUS
10
-85.4738081499
20
-32.2872686779
11
-85.6745544436
21
-32.2855167915
0
LINE
5
2D7
100
AcDbEntity
8
0
100
AcDbLine
62
7
6
CONTINUOUS
10
-97.9498565659
20
-26.1324018413
11
-97.9741136541
21
-26.0995585562
0
LWPOLYLINE
5
2D8
100
AcDbEntity
8
0
100
AcDbPolyline
62
7
6
CONTINUOUS
90
3
70
0
10
-97.9498565659
20
-26.1324018413
10
-97.9419419079
20
-26.1433235603
10
-97.9036478099
20
-26.1976773621
0
LWPOLYLINE
5
2D9
100
AcDbEntity
8
0
100
AcDbPolyline
62
7
6
CONTINUOUS
90
20
70
0
10
-97.9036478099
20
-26.1976773621
10
-97.8668214532
20
-26.2524797874
10
-97.8314815047
20
-26.3076454147
10
-97.7976166287
20
-26.3631297851
10
-97.7652143223
20
-26.4188895299
10
-97.7342843862
20
-26.4748389562
10
-97.7048095029
20
-26.5309352644
10
-97.6767713787
20
-26.5871368427
10
-97.6501713881
20
-26.6433585640
10
-97.6249868872
20
-26.6995595004
10
-97.6011940096
20
-26.7557009608
10
-97.5787856596
20
-26.8117006058
10
-97.5577333967
20
-26.8675228151
10
-97.5380096337
20
-26.9231296203
10
-97.5196019970
20
-26.9784349906
10
-97.5024755904
20
-27.0334130907
10
-97.4866005213
20
-27.0880227839
10
-97.4719640152
20
-27.1421546712
10
-97.4585290192
20
-27.1957750125
10
-97.4462570207
20
-27.2488566382
0
LINE
5
2DA
100
AcDbEntity
8
0
100
AcDbLine
62
7
6
CONTINUOUS
10
-95.7357477654
20
39.0088706911
11
-95.7838786830
21
38.8460429330
0
LINE
5
2DB
100
AcDbEntity
8
0
100
AcDbLine
62
7
6
CONTINUOUS
10
-95.6863128666
20
39.1736274758
11
-95.7357477654
21
39.0088706911
0
LINE
5
2DC
100
AcDbEntity
8
0
100
AcDbLine
62
7
6
CONTINUOUS
10
-95.6204085511
20
39.3894680324
11
-95.6863128666
21
39.1736274758
0
LINE
5
2DD
100
AcDbEntity
8
0
100
AcDbLine
62
7
6
CONTINUOUS
10
-95.5384613635
20
39.6520676974
11
-95.6204085511
21
39.3894680324
0
LINE
5
2DE
100
AcDbEntity
8
0
100
AcDbLine
62
7
6
CONTINUOUS
10
-85.6738081499
20
-34.8521815275
11
-85.4738081499
21
-34.7985916890
0
LINE
5
2DF
100
AcDbEntity
8
0
100
AcDbLine
62
7
6
CONTINUOUS
10
-97.5183962773
20
-31.9999780000
11
-97.3182917860
21
-31.9999780000
0
LINE
5
2E0
100
AcDbEntity
8
0
100
AcDbLine
62
7
6
CONTINUOUS
10
-97.5537576576
20
-30.8088806669
11
-97.3537132510
21
-30.8088806669
0
LINE
5
2E1
100
AcDbEntity
8
0
100
AcDbLine
62
7
6
CONTINUOUS
10
-97.5767729364
20
-29.0998531129
11
-97.3767690364
21
-29.0998531129
0
LINE
5
2E2
100
AcDbEntity
8
0
100
AcDbLine
62
7
6
CONTINUOUS
10
-85.4738081499
20
-31.8834912292
11
-85.6738081499
21
-31.8765070753
0
LINE
5
2E3
100
AcDbEntity
8
0
100
AcDbLine
62
9
6
CONTINUOUS
10
-85.4738081499
20
-31.1224327591
11
-85.6738081499
21
-31.1154486052
0
LWPOLYLINE
5
2E4
100
AcDbEntity
8
0
100
AcDbPolyline
62
7
6
CONTINUOUS
90
14
70
0
10
-96.6733854002
20
-41.2504406382
10
-96.6531150963
20
-41.3401163065
10
-96.6246986225
20
-41.4275405701
10
-96.5883791211
20
-41.5119756282
10
-96.5444662722
20
-41.5927095008
10
-96.4933338007
20
-41.6690616766
10
-96.4354163630
20
-41.7403888952
10
-96.3712061915
20
-41.8060903666
10
-96.3012469189
20
-41.8656147107
10
-96.2261286482
20
-41.9184636422
10
-96.1464831709
20
-41.9641951197
10
-96.0629865017
20
-42.0024232947
10
-95.9763520109
20
-42.0328256202
10
-95.8873144151
20
-42.0551498367
0
LINE
5
2E5
100
AcDbEntity
8
0
100
AcDbLine
62
7
6
CONTINUOUS
10
-96.7528017121
20
-40.5082060927
11
-96.6833312616
21
-41.1803014314
0
LINE
5
2E6
100
AcDbEntity
8
0
100
AcDbLine
62
7
6
CONTINUOUS
10
-96.8138989209
20
-39.8877797896
11
-96.7528017121
21
-40.5082060927
0
LINE
5
2E7
100
AcDbEntity
8
0
100
AcDbLine
62
7
6
CONTINUOUS
10
-96.8591417499
20
-39.4075454860
11
-96.8138989209
21
-39.8877797896
0
LINE
5
2E8
100
AcDbEntity
8
0
100
AcDbLine
62
9
6
CONTINUOUS
10
-85.4738081499
20
-27.8713776008
11
-85.6738081499
21
-27.8684846695
0
LINE
5
2E9
100
AcDbEntity
8
0
100
AcDbLine
62
9
6
CONTINUOUS
10
-85.4738081499
20
-26.0340199206
11
-85.6738081499
21
-26.0311269894
0
LWPOLYLINE
5
2EA
100
AcDbEntity
8
0
100
AcDbPolyline
62
7
6
CONTINUOUS
90
3
70
0
10
-97.4462570207
20
-27.2488566382
10
-97.4351247868
20
-27.3012991013
10
-97.4250605070
20
-27.3532377081
0
LWPOLYLINE
5
2EB
100
AcDbEntity
8
0
100
AcDbPolyline
62
7
6
CONTINUOUS
90
6
70
0
10
-97.4250605070
20
-27.3532377081
10
-97.4160586207
20
-27.4044827043
10
-97.4081628134
20
-27.4544382067
10
-97.4012542563
20
-27.5034467638
10
-97.3953270795
20
-27.5511030215
10
-97.3904871428
20
-27.5956636020
0
LINE
5
2EC
100
AcDbEntity
8
0
100
AcDbLine
62
7
6
CONTINUOUS
10
-96.6833326192
20
-41.1803105049
11
-96.6733995233
21
-41.2503410640
0
LWPOLYLINE
5
2ED
100
AcDbEntity
8
0
100
AcDbPolyline
62
7
6
CONTINUOUS
90
4
70
0
10
-97.3904871428
20
-27.5956636020
10
-97.3866086806
20
-27.6369300511
10
-97.3835455401
20
-27.6749976382
10
-97.3812577692
20
-27.7085296146
0
LINE
5
2EE
100
AcDbEntity
8
0
100
AcDbLine
62
7
6
CONTINUOUS
10
-96.9163304370
20
-38.7710879812
11
-96.8591417499
21
-39.4075454860
0
LINE
5
2EF
100
AcDbEntity
8
0
100
AcDbLine
62
7
6
CONTINUOUS
10
-96.9688428167
20
-38.1532738192
11
-96.9163304370
21
-38.7710879812
0
LINE
5
2F0
100
AcDbEntity
8
0
100
AcDbLine
62
7
6
CONTINUOUS
10
-97.0169984010
20
-37.5537756571
11
-96.9688428167
21
-38.1532738192
0
LINE
5
2F1
100
AcDbEntity
8
0
100
AcDbLine
62
7
6
CONTINUOUS
10
-97.0611761324
20
-36.9708015804
11
-97.0169984010
21
-37.5537756571
0
LINE
5
2F2
100
AcDbEntity
8
0
100
AcDbLine
62
7
6
CONTINUOUS
10
-97.1016748130
20
-36.4025144239
11
-97.0611761324
21
-36.9708015804
0
LINE
5
2F3
100
AcDbEntity
8
0
100
AcDbLine
62
7
6
CONTINUOUS
10
-97.1388856576
20
-35.8450349134
11
-97.1016748130
21
-36.4025144239
0
LINE
5
2F4
100
AcDbEntity
8
0
100
AcDbLine
62
7
6
CONTINUOUS
10
-97.1727768344
20
-35.3004027298
11
-97.1387612130
21
-35.8469647248
0
LWPOLYLINE
5
2F5
100
AcDbEntity
8
0
100
AcDbPolyline
62
7
6
CONTINUOUS
90
7
70
0
10
-97.3812577692
20
-27.7085296146
10
-97.3796361175
20
-27.7366826742
10
-97.3784960714
20
-27.7601479239
10
-97.3776896057
20
-27.7798848852
10
-97.3771493372
20
-27.7956441356
10
-97.3768060729
20
-27.8075301344
10
-97.3767715376
20
-27.8089476388
0
LINE
5
2F6
100
AcDbEntity
8
0
100
AcDbLine
62
7
6
CONTINUOUS
10
-97.2036786306
20
-34.7651033731
11
-97.1726672824
21
-35.3022293623
0
LINE
5
2F7
100
AcDbEntity
8
0
100
AcDbLine
62
7
6
CONTINUOUS
10
-97.2315808184
20
-34.2412575736
11
-97.2035814799
21
-34.7668542246
0
LINE
5
2F8
100
AcDbEntity
8
0
100
AcDbLine
62
7
6
CONTINUOUS
10
-97.2621556587
20
-33.6086566778
11
-97.2314944393
21
-34.2429497235
0
LINE
5
2F9
100
AcDbEntity
8
0
100
AcDbLine
62
7
6
CONTINUOUS
10
-97.2879980557
20
-33.0078567937
11
-97.2620817069
21
-33.6102777363
0
LINE
5
2FA
100
AcDbEntity
8
0
100
AcDbLine
62
7
6
CONTINUOUS
10
-97.3095172845
20
-32.4406941535
11
-97.2879361753
21
-33.0093878862
0
LINE
5
2FB
100
AcDbEntity
8
0
100
AcDbLine
62
7
6
CONTINUOUS
10
-97.3242969511
20
-31.9999780000
11
-97.3094663475
21
-32.4421299438
0
LINE
5
2FC
100
AcDbEntity
8
0
100
AcDbLine
62
7
6
CONTINUOUS
10
-97.3793316481
20
-28.5689743107
11
-97.3780283424
21
-29.0998531129
0
LINE
5
2FD
100
AcDbEntity
8
0
100
AcDbLine
62
9
6
CONTINUOUS
10
-97.9672516730
20
-22.2000000000
11
-97.9737986355
21
-0.0008319560
0
LINE
5
2FE
100
AcDbEntity
8
0
100
AcDbLine
62
7
6
CONTINUOUS
10
-97.3764107914
20
6.6599717739
11
-97.3737670748
21
0.0007290656
0
LINE
5
2FF
100
AcDbEntity
8
0
100
AcDbLine
62
7
6
CONTINUOUS
10
-99.2738081499
20
-22.9806471005
11
-99.2738081499
21
22.9806471005
0
LINE
5
300
100
AcDbEntity
8
0
100
AcDbLine
62
9
6
CONTINUOUS
10
-98.2912605563
20
-23.9804947957
11
-98.2912605563
21
23.9804947957
0
LINE
5
301
100
AcDbEntity
8
0
100
AcDbLine
62
7
6
CONTINUOUS
10
-98.1738081499
20
25.5000000000
11
-98.1738081499
21
-25.5000000000
0
LINE
5
302
100
AcDbEntity
8
0
100
AcDbLine
62
9
6
CONTINUOUS
10
-97.9737986355
20
-0.0008319560
11
-97.9721359545
21
26.1022231451
0
LINE
5
303
100
AcDbEntity
8
0
100
AcDbLine
62
7
6
CONTINUOUS
10
-97.3759598825
20
10.6204498687
11
-97.3764107914
21
6.6599717739
0
LINE
5
304
100
AcDbEntity
8
0
100
AcDbLine
62
7
6
CONTINUOUS
10
-97.3780117124
20
-28.0260961121
11
-97.3793316481
21
-28.5689743107
0
LINE
5
305
100
AcDbEntity
8
0
100
AcDbLine
62
7
6
CONTINUOUS
10
-97.3728309063
20
-27.1849260249
11
-97.3782977805
21
-28.0890881109
0
LINE
5
306
100
AcDbEntity
8
0
100
AcDbLine
62
7
6
CONTINUOUS
10
-70.4738081499
20
-25.5586247418
11
-75.4738081499
21
-25.6022590807
0
LINE
5
307
100
AcDbEntity
8
0
100
AcDbLine
62
7
6
CONTINUOUS
10
-70.4738081499
20
-25.3586247418
11
-75.4738081499
21
-25.4022590807
0
LINE
5
308
100
AcDbEntity
8
0
100
AcDbLine
62
9
6
CONTINUOUS
10
-70.7711901892
20
-25.3199284669
11
-75.4738081499
21
-25.3610236693
0
LINE
5
309
100
AcDbEntity
8
0
100
AcDbLine
62
7
6
CONTINUOUS
10
-71.4650816144
20
-22.7414514135
11
-75.4738081499
21
-22.7064677870
0
LINE
5
30A
100
AcDbEntity
8
0
100
AcDbLine
62
7
6
CONTINUOUS
10
-98.2912605563
20
-23.9804947957
11
-98.1738081499
21
-23.9825449351
0
LINE
5
30B
100
AcDbEntity
8
0
100
AcDbLine
62
9
6
CONTINUOUS
10
-99.2738081499
20
-22.2000000000
11
-97.9672516730
21
-22.2000000000
0
LINE
5
30C
100
AcDbEntity
8
0
100
AcDbLine
62
7
6
CONTINUOUS
10
-70.4738081499
20
-16.5750000000
11
-59.9738081499
21
-13.7615334795
0
LINE
5
30D
100
AcDbEntity
8
0
100
AcDbLine
62
7
6
CONTINUOUS
10
-75.4738081499
20
-18.1226293254
11
-70.4738081499
21
-17.9945974516
0
LINE
5
30E
100
AcDbEntity
8
0
100
AcDbLine
62
9
6
CONTINUOUS
10
-75.4738081499
20
-17.2012163560
11
-70.4738081499
21
-17.1872347387
0
LINE
5
30F
100
AcDbEntity
8
0
100
AcDbLine
62
7
6
CONTINUOUS
10
-87.6738081499
20
42.3219583377
11
-87.6738081499
21
42.0916407392
0
LINE
5
310
100
AcDbEntity
8
0
100
AcDbLine
62
7
6
CONTINUOUS
10
-59.9738081499
20
-12.7669926300
11
-75.4738081499
21
-12.9022590807
0
LINE
5
311
100
AcDbEntity
8
0
100
AcDbLine
62
7
6
CONTINUOUS
10
-85.6738081499
20
-42.2500000000
11
-85.6738081499
21
37.5000000000
0
LINE
5
312
100
AcDbEntity
8
0
100
AcDbLine
62
7
6
CONTINUOUS
10
-85.4738081499
20
37.5000000000
11
-85.4738081499
21
-41.8690108351
0
LINE
5
313
100
AcDbEntity
8
0
100
AcDbLine
62
7
6
CONTINUOUS
10
-59.9738081499
20
-11.5330073700
11
-75.4738081499
21
-11.3977409193
0
LINE
5
314
100
AcDbEntity
8
0
100
AcDbLine
62
7
6
CONTINUOUS
10
-59.9738081499
20
-8.2669926300
11
-75.4738081499
21
-8.4022590807
0
LINE
5
315
100
AcDbEntity
8
0
100
AcDbLine
62
7
6
CONTINUOUS
10
-77.4738081499
20
-42.5000000000
11
-77.4738081499
21
42.5000000000
0
LINE
5
316
100
AcDbEntity
8
0
100
AcDbLine
62
7
6
CONTINUOUS
10
-68.4699342010
20
-5.9000000000
11
-59.9738081499
21
-5.9000000000
0
LINE
5
317
100
AcDbEntity
8
0
100
AcDbLine
62
7
6
CONTINUOUS
10
-57.4738081499
20
-5.7500000000
11
-68.2738081499
21
-5.7500000000
0
LINE
5
318
100
AcDbEntity
8
0
100
AcDbLine
62
9
6
CONTINUOUS
10
-56.4738081499
20
-4.7500000000
11
-57.4738081499
21
-4.7500000000
0
LINE
5
319
100
AcDbEntity
8
0
100
AcDbLine
62
3
6
CONTINUOUS
10
-57.4738081499
20
-4.7500000000
11
-58.9738081499
21
-4.7500000000
0
LINE
5
31A
100
AcDbEntity
8
0
100
AcDbLine
62
9
6
CONTINUOUS
10
-58.9738081499
20
-4.7500000000
11
-59.9738081499
21
-4.7500000000
0
LINE
5
31B
100
AcDbEntity
8
0
100
AcDbLine
62
3
6
CONTINUOUS
10
-59.9738081499
20
-4.7500000000
11
-68.2738081499
21
-4.7500000000
0
LINE
5
31C
100
AcDbEntity
8
0
100
AcDbLine
62
7
6
CONTINUOUS
10
-61.5022042767
20
-4.4500000000
11
-64.3792464575
21
-4.4500000000
0
LINE
5
31D
100
AcDbEntity
8
0
100
AcDbLine
62
7
6
CONTINUOUS
10
-61.5022042767
20
-2.9500000000
11
-64.3792464575
21
-2.9500000000
0
LINE
5
31E
100
AcDbEntity
8
0
100
AcDbLine
62
7
6
CONTINUOUS
10
-67.1813158366
20
-3.2701084033
11
-75.4738081499
21
-3.1977409193
0
LINE
5
31F
100
AcDbEntity
8
0
100
AcDbLine
62
9
6
CONTINUOUS
10
-75.9080047167
20
39.5804442346
11
-75.9080047167
21
-39.5804442346
0
LINE
5
320
100
AcDbEntity
8
0
100
AcDbLine
62
7
6
CONTINUOUS
10
-75.4738081499
20
-39.0145882543
11
-75.4738081499
21
39.0145882543
0
LINE
5
321
100
AcDbEntity
8
0
100
AcDbLine
62
7
6
CONTINUOUS
10
-55.4738081499
20
-2.2500000000
11
-56.3738081499
21
-2.2500000000
0
LINE
5
322
100
AcDbEntity
8
0
100
AcDbLine
62
7
6
CONTINUOUS
10
-57.9738081499
20
-2.2500000000
11
-58.8738081499
21
-2.2500000000
0
LINE
5
323
100
AcDbEntity
8
0
100
AcDbLine
62
7
6
CONTINUOUS
10
-59.9738081499
20
-2.2360679775
11
-58.9738081499
21
-2.2360679775
0
LINE
5
324
100
AcDbEntity
8
0
100
AcDbLine
62
7
6
CONTINUOUS
10
-71.9738081499
20
-1.7500000000
11
-59.9738081499
21
-1.7500000000
0
LINE
5
325
100
AcDbEntity
8
0
100
AcDbLine
62
7
6
CONTINUOUS
10
-57.9738081499
20
-1.7500000000
11
-52.3418691499
21
-1.7500000000
0
LINE
5
326
100
AcDbEntity
8
0
100
AcDbLine
62
7
6
CONTINUOUS
10
-75.4738081499
20
-1.5000000000
11
-71.9738081499
21
-1.5000000000
0
LINE
5
327
100
AcDbEntity
8
0
100
AcDbLine
62
7
6
CONTINUOUS
10
-51.9738081499
20
-1.2500000000
11
-50.1738081499
21
-1.2500000000
0
LINE
5
328
100
AcDbEntity
8
0
100
AcDbLine
62
9
6
CONTINUOUS
10
-97.9737986353
20
-0.0008319559
11
-94.9309047606
21
0.0000000000
0
LINE
5
329
100
AcDbEntity
8
0
100
AcDbLine
62
9
6
CONTINUOUS
10
-58.9738081499
20
-0.0000000000
11
-57.9738081499
21
-0.0000000000
0
LINE
5
32A
100
AcDbEntity
8
0
100
AcDbLine
62
7
6
CONTINUOUS
10
-71.9738081499
20
-1.7499694124
11
-71.9738081499
21
1.7499694124
0
LINE
5
32B
100
AcDbEntity
8
0
100
AcDbLine
62
7
6
CONTINUOUS
10
-67.1813158366
20
3.2701084033
11
-75.4738081499
21
3.1977409193
0
LINE
5
32C
100
AcDbEntity
8
0
100
AcDbLine
62
7
6
CONTINUOUS
10
-51.9738081499
20
1.2500000000
11
-50.1738081499
21
1.2500000000
0
LINE
5
32D
100
AcDbEntity
8
0
100
AcDbLine
62
7
6
CONTINUOUS
10
-75.4738081499
20
1.5000000000
11
-71.9738081499
21
1.5000000000
0
LINE
5
32E
100
AcDbEntity
8
0
100
AcDbLine
62
7
6
CONTINUOUS
10
-71.9738081499
20
1.7500000000
11
-59.9738081499
21
1.7500000000
0
LINE
5
32F
100
AcDbEntity
8
0
100
AcDbLine
62
7
6
CONTINUOUS
10
-57.9738081499
20
1.7500000000
11
-52.3418691499
21
1.7500000000
0
LINE
5
330
100
AcDbEntity
8
0
100
AcDbLine
62
7
6
CONTINUOUS
10
-59.9738081499
20
2.2360679775
11
-58.9738081499
21
2.2360679775
0
LINE
5
331
100
AcDbEntity
8
0
100
AcDbLine
62
7
6
CONTINUOUS
10
-55.4738081499
20
2.2500000000
11
-56.3738081499
21
2.2500000000
0
LINE
5
332
100
AcDbEntity
8
0
100
AcDbLine
62
7
6
CONTINUOUS
10
-57.9738081499
20
2.2500000000
11
-58.8738081499
21
2.2500000000
0
LINE
5
333
100
AcDbEntity
8
0
100
AcDbLine
62
7
6
CONTINUOUS
10
-61.5022042767
20
2.9500000000
11
-64.3792464575
21
2.9500000000
0
LINE
5
334
100
AcDbEntity
8
0
100
AcDbLine
62
9
6
CONTINUOUS
10
-70.7711901892
20
25.3199284669
11
-70.7711901892
21
23.9864873566
0
LINE
5
335
100
AcDbEntity
8
0
100
AcDbLine
62
9
6
CONTINUOUS
10
-70.7711901892
20
17.8849423847
11
-70.7711901892
21
17.1880678433
0
LINE
5
336
100
AcDbEntity
8
0
100
AcDbLine
62
9
6
CONTINUOUS
10
-70.7711901892
20
-23.9864873566
11
-70.7711901892
21
-25.3199284669
0
LINE
5
337
100
AcDbEntity
8
0
100
AcDbLine
62
7
6
CONTINUOUS
10
-70.4738081499
20
25.5586247418
11
-70.4738081499
21
23.7414133366
0
LINE
5
338
100
AcDbEntity
8
0
100
AcDbLine
62
7
6
CONTINUOUS
10
-70.4738081499
20
17.9331989413
11
-70.4738081499
21
16.5750000000
0
LINE
5
339
100
AcDbEntity
8
0
100
AcDbLine
62
7
6
CONTINUOUS
10
-70.4738081499
20
-16.5750000000
11
-70.4738081499
21
-17.9944833812
0
LINE
5
33A
100
AcDbEntity
8
0
100
AcDbLine
62
7
6
CONTINUOUS
10
-70.4738081499
20
-23.7414133366
11
-70.4738081499
21
-25.5586247418
0
LINE
5
33B
100
AcDbEntity
8
0
100
AcDbLine
62
7
6
CONTINUOUS
10
-68.2738081499
20
-4.7500000000
11
-68.2738081499
21
-5.7500000000
0
LINE
5
33C
100
AcDbEntity
8
0
100
AcDbLine
62
7
6
CONTINUOUS
10
-68.2738081499
20
4.7500000000
11
-68.2738081499
21
5.7500000000
0
LINE
5
33D
100
AcDbEntity
8
0
100
AcDbLine
62
9
6
CONTINUOUS
10
-67.7738081499
20
5.7500000000
11
-67.7738081499
21
4.7500000000
0
LINE
5
33E
100
AcDbEntity
8
0
100
AcDbLine
62
9
6
CONTINUOUS
10
-67.7738081499
20
-5.7500000000
11
-67.7738081499
21
-4.7500000000
0
LINE
5
33F
100
AcDbEntity
8
0
100
AcDbLine
62
7
6
CONTINUOUS
10
-61.5022042767
20
4.4500000000
11
-64.3792464575
21
4.4500000000
0
LINE
5
340
100
AcDbEntity
8
0
100
AcDbLine
62
9
6
CONTINUOUS
10
-56.4738081499
20
4.7500000000
11
-57.4738081499
21
4.7500000000
0
LINE
5
341
100
AcDbEntity
8
0
100
AcDbLine
62
9
6
CONTINUOUS
10
-58.9738081499
20
4.7500000000
11
-59.9738081499
21
4.7500000000
0
LINE
5
342
100
AcDbEntity
8
0
100
AcDbLine
62
3
6
CONTINUOUS
10
-68.2738081499
20
4.7500000000
11
-59.9738081499
21
4.7500000000
0
LINE
5
343
100
AcDbEntity
8
0
100
AcDbLine
62
3
6
CONTINUOUS
10
-58.9738081499
20
4.7500000000
11
-57.4738081499
21
4.7500000000
0
LINE
5
344
100
AcDbEntity
8
0
100
AcDbLine
62
7
6
CONTINUOUS
10
-68.2738081499
20
5.7500000000
11
-57.4738081499
21
5.7500000000
0
LINE
5
345
100
AcDbEntity
8
0
100
AcDbLine
62
7
6
CONTINUOUS
10
-68.4699342010
20
5.9000000000
11
-59.9738081499
21
5.9000000000
0
LINE
5
346
100
AcDbEntity
8
0
100
AcDbLine
62
7
6
CONTINUOUS
10
-64.3792464575
20
4.7500000000
11
-64.3792464575
21
4.4500000000
0
LINE
5
347
100
AcDbEntity
8
0
100
AcDbLine
62
7
6
CONTINUOUS
10
-64.3792464575
20
2.9500000000
11
-64.3792464575
21
1.7500000000
0
LINE
5
348
100
AcDbEntity
8
0
100
AcDbLine
62
7
6
CONTINUOUS
10
-64.3792464575
20
-1.7500000000
11
-64.3792464575
21
-2.9500000000
0
LINE
5
349
100
AcDbEntity
8
0
100
AcDbLine
62
7
6
CONTINUOUS
10
-64.3792464575
20
-4.4500000000
11
-64.3792464575
21
-4.7500000000
0
LINE
5
34A
100
AcDbEntity
8
0
100
AcDbLine
62
7
6
CONTINUOUS
10
-59.9738081499
20
8.2669926300
11
-75.4738081499
21
8.4022590807
0
LINE
5
34B
100
AcDbEntity
8
0
100
AcDbLine
62
7
6
CONTINUOUS
10
-62.9892272241
20
5.9000000000
11
-62.9892272241
21
5.7500000000
0
LINE
5
34C
100
AcDbEntity
8
0
100
AcDbLine
62
7
6
CONTINUOUS
10
-62.9892272241
20
4.7500000000
11
-62.9892272241
21
4.4500000000
0
LINE
5
34D
100
AcDbEntity
8
0
100
AcDbLine
62
7
6
CONTINUOUS
10
-62.9892272241
20
2.9500000000
11
-62.9892272241
21
1.7500000000
0
LINE
5
34E
100
AcDbEntity
8
0
100
AcDbLine
62
7
6
CONTINUOUS
10
-62.9892272241
20
-1.7500000000
11
-62.9892272241
21
-2.9500000000
0
LINE
5
34F
100
AcDbEntity
8
0
100
AcDbLine
62
7
6
CONTINUOUS
10
-62.9892272241
20
-4.4500000000
11
-62.9892272241
21
-4.7500000000
0
LINE
5
350
100
AcDbEntity
8
0
100
AcDbLine
62
7
6
CONTINUOUS
10
-62.9892272241
20
-5.7500000000
11
-62.9892272241
21
-5.9000000000
0
LINE
5
351
100
AcDbEntity
8
0
100
AcDbLine
62
7
6
CONTINUOUS
10
-62.8660409128
20
-2.9500000000
11
-62.8660409128
21
-4.4500000000
0
LINE
5
352
100
AcDbEntity
8
0
100
AcDbLine
62
7
6
CONTINUOUS
10
-62.8660409128
20
2.9500000000
11
-62.8660409128
21
4.4500000000
0
LINE
5
353
100
AcDbEntity
8
0
100
AcDbLine
62
9
6
CONTINUOUS
10
-61.8738081499
20
5.7500000000
11
-61.8738081499
21
4.7500000000
0
LINE
5
354
100
AcDbEntity
8
0
100
AcDbLine
62
9
6
CONTINUOUS
10
-61.8738081499
20
-5.7500000000
11
-61.8738081499
21
-4.7500000000
0
LINE
5
355
100
AcDbEntity
8
0
100
AcDbLine
62
7
6
CONTINUOUS
10
-61.5022042767
20
-2.9500000000
11
-61.5022042767
21
-4.4500000000
0
LINE
5
356
100
AcDbEntity
8
0
100
AcDbLine
62
7
6
CONTINUOUS
10
-61.5022042767
20
2.9500000000
11
-61.5022042767
21
4.4500000000
0
LINE
5
357
100
AcDbEntity
8
0
100
AcDbLine
62
7
6
CONTINUOUS
10
-61.3738081499
20
5.7500000000
11
-61.3738081499
21
4.7500000000
0
LINE
5
358
100
AcDbEntity
8
0
100
AcDbLine
62
7
6
CONTINUOUS
10
-61.3738081499
20
-5.7500000000
11
-61.3738081499
21
-4.7500000000
0
LINE
5
359
100
AcDbEntity
8
0
100
AcDbLine
62
7
6
CONTINUOUS
10
-61.1738081499
20
5.7500000000
11
-61.1738081499
21
4.7500000000
0
LINE
5
35A
100
AcDbEntity
8
0
100
AcDbLine
62
7
6
CONTINUOUS
10
-61.1738081499
20
-5.7500000000
11
-61.1738081499
21
-4.7500000000
0
LINE
5
35B
100
AcDbEntity
8
0
100
AcDbLine
62
7
6
CONTINUOUS
10
-59.9738081499
20
11.5330073700
11
-75.4738081499
21
11.3977409193
0
LINE
5
35C
100
AcDbEntity
8
0
100
AcDbLine
62
7
6
CONTINUOUS
10
-59.9738081499
20
12.7669926300
11
-75.4738081499
21
12.9022590807
0
LINE
5
35D
100
AcDbEntity
8
0
100
AcDbLine
62
7
6
CONTINUOUS
10
-60.0738081499
20
5.7500000000
11
-60.0738081499
21
4.7500000000
0
LINE
5
35E
100
AcDbEntity
8
0
100
AcDbLine
62
7
6
CONTINUOUS
10
-60.0738081499
20
-5.7500000000
11
-60.0738081499
21
-4.7500000000
0
LINE
5
35F
100
AcDbEntity
8
0
100
AcDbLine
62
7
6
CONTINUOUS
10
-59.9738081499
20
13.7615334795
11
-59.9738081499
21
5.9000000000
0
LINE
5
360
100
AcDbEntity
8
0
100
AcDbLine
62
9
6
CONTINUOUS
10
-59.9738081499
20
5.7500000000
11
-59.9738081499
21
4.7500000000
0
LINE
5
361
100
AcDbEntity
8
0
100
AcDbLine
62
9
6
CONTINUOUS
10
-59.9738081499
20
-5.7500000000
11
-59.9738081499
21
-4.7500000000
0
LINE
5
362
100
AcDbEntity
8
0
100
AcDbLine
62
3
6
CONTINUOUS
10
-59.9738081499
20
-4.7500000000
11
-59.9738081499
21
4.7500000000
0
LINE
5
363
100
AcDbEntity
8
0
100
AcDbLine
62
7
6
CONTINUOUS
10
-59.9738081499
20
-5.9000000000
11
-59.9738081499
21
-13.7615334795
0
LINE
5
364
100
AcDbEntity
8
0
100
AcDbLine
62
7
6
CONTINUOUS
10
-58.9738081499
20
-4.7500000000
11
-58.9738081499
21
4.7500000000
0
LINE
5
365
100
AcDbEntity
8
0
100
AcDbLine
62
9
6
CONTINUOUS
10
-58.8738081499
20
-2.2500000000
11
-58.8738081499
21
2.2500000000
0
LINE
5
366
100
AcDbEntity
8
0
100
AcDbLine
62
7
6
CONTINUOUS
10
-57.9738081499
20
-2.2478961733
11
-57.9738081499
21
2.2478961733
0
LINE
5
367
100
AcDbEntity
8
0
100
AcDbLine
62
9
6
CONTINUOUS
10
-57.4738081499
20
5.7500000000
11
-57.4738081499
21
4.7500000000
0
LINE
5
368
100
AcDbEntity
8
0
100
AcDbLine
62
9
6
CONTINUOUS
10
-57.4738081499
20
-5.7500000000
11
-57.4738081499
21
-4.7500000000
0
LINE
5
369
100
AcDbEntity
8
0
100
AcDbLine
62
3
6
CONTINUOUS
10
-57.4738081499
20
-4.7500000000
11
-57.4738081499
21
-1.7500000000
0
LINE
5
36A
100
AcDbEntity
8
0
100
AcDbLine
62
3
6
CONTINUOUS
10
-57.4738081499
20
1.7500000000
11
-57.4738081499
21
4.7500000000
0
LINE
5
36B
100
AcDbEntity
8
0
100
AcDbLine
62
7
6
CONTINUOUS
10
-56.4738081499
20
-4.7500000000
11
-56.4738081499
21
-1.7500000000
0
LINE
5
36C
100
AcDbEntity
8
0
100
AcDbLine
62
7
6
CONTINUOUS
10
-56.4738081499
20
1.7500000000
11
-56.4738081499
21
4.7500000000
0
LINE
5
36D
100
AcDbEntity
8
0
100
AcDbLine
62
9
6
CONTINUOUS
10
-56.3738081499
20
-2.2500000000
11
-56.3738081499
21
-1.7500000000
0
LINE
5
36E
100
AcDbEntity
8
0
100
AcDbLine
62
9
6
CONTINUOUS
10
-56.3738081499
20
1.7500000000
11
-56.3738081499
21
2.2500000000
0
LINE
5
36F
100
AcDbEntity
8
0
100
AcDbLine
62
7
6
CONTINUOUS
10
-55.4738081499
20
-2.2478961733
11
-55.4738081499
21
-1.7500000000
0
LINE
5
370
100
AcDbEntity
8
0
100
AcDbLine
62
7
6
CONTINUOUS
10
-55.4738081499
20
1.7500000000
11
-55.4738081499
21
2.2478961733
0
LINE
5
371
100
AcDbEntity
8
0
100
AcDbLine
62
7
6
CONTINUOUS
10
-51.9738081499
20
-1.3819390000
11
-52.3418691499
21
-1.7500000000
0
LINE
5
372
100
AcDbEntity
8
0
100
AcDbLine
62
9
6
CONTINUOUS
10
-70.7711901892
20
17.1880678433
11
-75.4738081499
21
17.2012168120
0
LINE
5
373
100
AcDbEntity
8
0
100
AcDbLine
62
7
6
CONTINUOUS
10
-70.5350030699
20
17.9961700648
11
-75.4738081499
21
18.1226292367
0
LINE
5
374
100
AcDbEntity
8
0
100
AcDbLine
62
7
6
CONTINUOUS
10
-59.9738081499
20
13.7615334795
11
-70.4738081499
21
16.5750000000
0
LINE
5
375
100
AcDbEntity
8
0
100
AcDbLine
62
7
6
CONTINUOUS
10
-51.9738081499
20
1.3819390000
11
-52.3418691499
21
1.7500000000
0
LINE
5
376
100
AcDbEntity
8
0
100
AcDbLine
62
7
6
CONTINUOUS
10
-88.5385821917
20
42.1647740418
11
-88.5731990927
21
42.1993909428
0
LINE
5
377
100
AcDbEntity
8
0
100
AcDbLine
62
7
6
CONTINUOUS
10
-52.3418691499
20
1.7500000000
11
-52.3418691499
21
-1.7500000000
0
LINE
5
378
100
AcDbEntity
8
0
100
AcDbLine
62
7
6
CONTINUOUS
10
-51.9738081499
20
-1.3819390000
11
-51.9738081499
21
1.3819390000
0
LINE
5
379
100
AcDbEntity
8
0
100
AcDbLine
62
7
6
CONTINUOUS
10
-71.4650816144
20
22.7414514135
11
-75.4738081499
21
22.7064677870
0
LINE
5
37A
100
AcDbEntity
8
0
100
AcDbLine
62
9
6
CONTINUOUS
10
-99.2738081499
20
22.2000000000
11
-97.9724057454
21
22.2000000000
0
LINE
5
37B
100
AcDbEntity
8
0
100
AcDbLine
62
9
6
CONTINUOUS
10
-85.6738081499
20
22.2000000000
11
-85.4738081499
21
22.2000000000
0
LINE
5
37C
100
AcDbEntity
8
0
100
AcDbLine
62
9
6
CONTINUOUS
10
-50.1738081499
20
-1.2500000000
11
-50.1738081499
21
1.2500000000
0
LINE
5
37D
100
AcDbEntity
8
0
100
AcDbLine
62
7
6
CONTINUOUS
10
-49.9738081499
20
1.0500000000
11
-49.9738081499
21
-1.0500000000
0
LINE
5
37E
100
AcDbEntity
8
0
100
AcDbLine
62
7
6
CONTINUOUS
10
-98.1738081499
20
23.9825449351
11
-98.2912605563
21
23.9804947957
0
LINE
5
37F
100
AcDbEntity
8
0
100
AcDbLine
62
9
6
CONTINUOUS
10
-75.4738081499
20
25.3610236693
11
-70.7711901892
21
25.3199284669
0
LINE
5
380
100
AcDbEntity
8
0
100
AcDbLine
62
7
6
CONTINUOUS
10
-75.4738081499
20
25.4022590807
11
-70.4738081499
21
25.3586247418
0
LINE
5
381
100
AcDbEntity
8
0
100
AcDbLine
62
7
6
CONTINUOUS
10
-75.4738081499
20
25.6022590807
11
-70.4738081499
21
25.5586247418
0
LINE
5
382
100
AcDbEntity
8
0
100
AcDbLine
62
7
6
CONTINUOUS
10
-85.6738081499
20
31.1765070753
11
-85.4738081499
21
31.1834912292
0
LINE
5
383
100
AcDbEntity
8
0
100
AcDbLine
62
7
6
CONTINUOUS
10
-85.6738081499
20
32.8000000000
11
-85.4738081499
21
32.8000000000
0
LINE
5
384
100
AcDbEntity
8
0
100
AcDbLine
62
9
6
CONTINUOUS
10
-77.4738081499
20
36.7000000000
11
-75.4738081499
21
36.7000000000
0
LINE
5
385
100
AcDbEntity
8
0
100
AcDbLine
62
9
6
CONTINUOUS
10
-93.4191090723
20
38.4900000000
11
-85.7604402011
21
38.4900001097
0
LINE
5
386
100
AcDbEntity
8
0
100
AcDbLine
62
9
6
CONTINUOUS
10
-85.3026521729
20
38.5000000000
11
-77.4738081499
21
38.5000000000
0
LINE
5
387
100
AcDbEntity
8
0
100
AcDbLine
62
7
6
CONTINUOUS
10
-75.9080047167
20
39.5804442346
11
-77.4738081499
21
40.0000000000
0
LINE
5
388
100
AcDbEntity
8
0
100
AcDbLine
62
7
6
CONTINUOUS
10
-94.0030457052
20
42.1046126177
11
-88.5731990927
21
42.1993909428
0
LINE
5
389
100
AcDbEntity
8
0
100
AcDbLine
62
7
6
CONTINUOUS
10
-87.6738081499
20
42.3219583377
11
-77.4738081499
21
42.5000000000
0
LWPOLYLINE
5
38A
100
AcDbEntity
8
0
100
AcDbPolyline
62
7
6
CONTINUOUS
90
14
70
0
10
-94.0030700465
20
42.1046121928
10
-94.0994760707
20
42.0982614846
10
-94.1953561784
20
42.0825220139
10
-94.2894186838
20
42.0575000069
10
-94.3807685893
20
42.0233807185
10
-94.4685103823
20
41.9804440300
10
-94.5517609612
20
41.9290713542
10
-94.6296932375
20
41.8697263846
10
-94.7015442294
20
41.8029401146
10
-94.7665973152
20
41.7293210039
10
-94.8241934075
20
41.6495495683
10
-94.8737387125
20
41.5643741791
10
-94.9147146300
20
41.4746007970
10
-94.9240900943
20
41.4501187494
0
ARC
5
38B
100
AcDbEntity
8
0
100
AcDbCircle
62
9
6
CONTINUOUS
10
-22.2000000000
20
-22.2000000000
40
1.7804947929
100
AcDbArc
50
180.0000000000
51
270.0000000000
0
ARC
5
38C
100
AcDbEntity
8
0
100
AcDbCircle
62
9
6
CONTINUOUS
10
-22.2000000000
20
-22.2000000000
40
0.7806448049
100
AcDbArc
50
180.0000000000
51
270.0000000000
0
ARC
5
38D
100
AcDbEntity
8
0
100
AcDbCircle
62
9
6
CONTINUOUS
10
22.2000000000
20
22.2000000000
40
1.7804947929
100
AcDbArc
50
0.0000000000
51
90.0000000000
0
ARC
5
38E
100
AcDbEntity
8
0
100
AcDbCircle
62
9
6
CONTINUOUS
10
22.2000000000
20
22.2000000000
40
0.7806448049
100
AcDbArc
50
0.0000000000
51
90.0000000000
0
ARC
5
38F
100
AcDbEntity
8
0
100
AcDbCircle
62
9
6
CONTINUOUS
10
22.2000000000
20
-22.2000000000
40
1.7804947929
100
AcDbArc
50
270.0000000000
51
360.0000000000
0
ARC
5
390
100
AcDbEntity
8
0
100
AcDbCircle
62
9
6
CONTINUOUS
10
-22.2000000000
20
22.2000000000
40
1.7804947929
100
AcDbArc
50
90.0000000000
51
180.0000000000
0
ARC
5
391
100
AcDbEntity
8
0
100
AcDbCircle
62
9
6
CONTINUOUS
10
-22.2000000000
20
22.2000000000
40
0.7806448049
100
AcDbArc
50
90.0000000000
51
180.0000000000
0
ARC
5
392
100
AcDbEntity
8
0
100
AcDbCircle
62
9
6
CONTINUOUS
10
22.2000000000
20
-22.2000000000
40
0.7806448049
100
AcDbArc
50
270.0000000000
51
360.0000000000
0
ARC
5
393
100
AcDbEntity
8
0
100
AcDbCircle
62
7
6
CONTINUOUS
10
40.0000000000
20
-38.5000000000
40
4.0000000000
100
AcDbArc
50
270.0000000000
51
360.0000000000
0
ARC
5
394
100
AcDbEntity
8
0
100
AcDbCircle
62
7
6
CONTINUOUS
10
40.0000000000
20
38.5000000000
40
4.0000000000
100
AcDbArc
50
0.0000000000
51
90.0000000000
0
ARC
5
395
100
AcDbEntity
8
0
100
AcDbCircle
62
7
6
CONTINUOUS
10
-40.0000000000
20
38.5000000000
40
4.0000000000
100
AcDbArc
50
90.0000000000
51
180.0000000000
0
ARC
5
396
100
AcDbEntity
8
0
100
AcDbCircle
62
7
6
CONTINUOUS
10
-40.0000000000
20
-38.5000000000
40
4.0000000000
100
AcDbArc
50
180.0000000000
51
270.0000000000
0
ARC
5
397
100
AcDbEntity
8
0
100
AcDbCircle
62
7
6
CONTINUOUS
10
40.0000000000
20
38.5000000000
40
3.8219583377
100
AcDbArc
50
70.0076584058
51
90.0000000000
0
ARC
5
398
100
AcDbEntity
8
0
100
AcDbCircle
62
7
6
CONTINUOUS
10
-40.0000000000
20
38.5000000000
40
3.8219583377
100
AcDbArc
50
90.0000000000
51
109.9923415942
0
ARC
5
399
100
AcDbEntity
8
0
100
AcDbCircle
62
7
6
CONTINUOUS
10
-39.9900000000
20
-38.4900000000
40
3.7600000000
100
AcDbArc
50
180.0000000000
51
270.0000000000
0
ARC
5
39A
100
AcDbEntity
8
0
100
AcDbCircle
62
7
6
CONTINUOUS
10
39.9900000000
20
-38.4900000000
40
3.7600000000
100
AcDbArc
50
270.0000000000
51
360.0000000000
0
ARC
5
39B
100
AcDbEntity
8
0
100
AcDbCircle
62
7
6
CONTINUOUS
10
24.5192050000
20
-29.9892430000
40
0.3528650000
100
AcDbArc
50
270.0000000000
51
90.0000000000
0
ARC
5
39C
100
AcDbEntity
8
0
100
AcDbCircle
62
7
6
CONTINUOUS
10
24.5997110000
20
-29.9892430000
40
0.8893898871
100
AcDbArc
50
292.8428685270
51
90.0000000000
0
ARC
5
39D
100
AcDbEntity
8
0
100
AcDbCircle
62
7
6
CONTINUOUS
10
-19.8354033303
20
-41.6243235325
40
0.5000000000
100
AcDbArc
50
244.6975482080
51
269.9978999375
0
ARC
5
39E
100
AcDbEntity
8
0
100
AcDbCircle
62
7
6
CONTINUOUS
10
19.8354219762
20
-41.6243052327
40
0.5000000000
100
AcDbArc
50
269.9999634043
51
295.2996469069
0
ARC
5
39F
100
AcDbEntity
8
0
100
AcDbCircle
62
7
6
CONTINUOUS
10
22.2000000000
20
22.2000000000
40
2.3000000000
100
AcDbArc
50
0.0000000000
51
90.0000000000
0
ARC
5
3A0
100
AcDbEntity
8
0
100
AcDbCircle
62
7
6
CONTINUOUS
10
-22.2000000000
20
22.2000000000
40
2.3000000000
100
AcDbArc
50
90.0000000000
51
180.0000000000
0
ARC
5
3A1
100
AcDbEntity
8
0
100
AcDbCircle
62
7
6
CONTINUOUS
10
-22.2000000000
20
-22.2000000000
40
2.3000000000
100
AcDbArc
50
180.0000000000
51
270.0000000000
0
ARC
5
3A2
100
AcDbEntity
8
0
100
AcDbCircle
62
7
6
CONTINUOUS
10
22.2000000000
20
-22.2000000000
40
2.3000000000
100
AcDbArc
50
270.0000000000
51
360.0000000000
0
ARC
5
3A3
100
AcDbEntity
8
0
100
AcDbCircle
62
7
6
CONTINUOUS
10
-22.2000000000
20
22.2000000000
40
1.8000000000
100
AcDbArc
50
90.0000000000
51
180.0000000000
0
ARC
5
3A4
100
AcDbEntity
8
0
100
AcDbCircle
62
7
6
CONTINUOUS
10
22.2000000000
20
22.2000000000
40
1.8000000000
100
AcDbArc
50
0.0000000000
51
90.0000000000
0
ARC
5
3A5
100
AcDbEntity
8
0
100
AcDbCircle
62
7
6
CONTINUOUS
10
22.2000000000
20
-22.2000000000
40
1.8000000000
100
AcDbArc
50
270.0000000000
51
360.0000000000
0
ARC
5
3A6
100
AcDbEntity
8
0
100
AcDbCircle
62
7
6
CONTINUOUS
10
-22.2000000000
20
-22.2000000000
40
1.8000000000
100
AcDbArc
50
180.0000000000
51
270.0000000000
0
ARC
5
3A7
100
AcDbEntity
8
0
100
AcDbCircle
62
9
6
CONTINUOUS
10
-22.2000000000
20
22.2000000000
40
3.9019934976
100
AcDbArc
50
90.0000000000
51
180.0000000000
0
ARC
5
3A8
100
AcDbEntity
8
0
100
AcDbCircle
62
9
6
CONTINUOUS
10
22.2000000000
20
22.2000000000
40
3.9019922454
100
AcDbArc
50
0.0000000000
51
90.0000000000
0
ARC
5
3A9
100
AcDbEntity
8
0
100
AcDbCircle
62
7
6
CONTINUOUS
10
-57.4738081499
20
4.7500000000
40
1.0000000000
100
AcDbArc
50
0.0000000000
51
90.0000000000
0
ARC
5
3AA
100
AcDbEntity
8
0
100
AcDbCircle
62
7
6
CONTINUOUS
10
-57.4738081499
20
-4.7500000000
40
1.0000000000
100
AcDbArc
50
270.0000000000
51
360.0000000000
0
ARC
5
3AB
100
AcDbEntity
8
0
100
AcDbCircle
62
7
6
CONTINUOUS
10
-61.9738081499
20
-2.8250000000
40
3.1250000000
100
AcDbArc
50
275.2334102182
51
290.2838819874
0
ARC
5
3AC
100
AcDbEntity
8
0
100
AcDbCircle
62
7
6
CONTINUOUS
10
-61.9738081499
20
-2.8250000000
40
3.1250000000
100
AcDbArc
50
251.4152271188
51
264.7665897818
0
ARC
5
3AD
100
AcDbEntity
8
0
100
AcDbCircle
62
7
6
CONTINUOUS
10
-61.9738081499
20
2.8250000000
40
3.1250000000
100
AcDbArc
50
69.7161180126
51
84.7665897818
0
ARC
5
3AE
100
AcDbEntity
8
0
100
AcDbCircle
62
7
6
CONTINUOUS
10
-61.9738081499
20
2.8250000000
40
3.1250000000
100
AcDbArc
50
95.2334102182
51
108.5847728812
0
ARC
5
3AF
100
AcDbEntity
8
0
100
AcDbCircle
62
7
6
CONTINUOUS
10
-56.3738081499
20
-2.3500000000
40
0.1000000000
100
AcDbArc
50
90.0000000000
51
180.0000000000
0
ARC
5
3B0
100
AcDbEntity
8
0
100
AcDbCircle
62
7
6
CONTINUOUS
10
-56.3738081499
20
2.3500000000
40
0.1000000000
100
AcDbArc
50
180.0000000000
51
270.0000000000
0
ARC
5
3B1
100
AcDbEntity
8
0
100
AcDbCircle
62
7
6
CONTINUOUS
10
-59.9738081499
20
-4.7500000000
40
1.0000000000
100
AcDbArc
50
270.0000000000
51
360.0000000000
0
ARC
5
3B2
100
AcDbEntity
8
0
100
AcDbCircle
62
7
6
CONTINUOUS
10
-59.9738081499
20
4.7500000000
40
1.0000000000
100
AcDbArc
50
0.0000000000
51
90.0000000000
0
ARC
5
3B3
100
AcDbEntity
8
0
100
AcDbCircle
62
7
6
CONTINUOUS
10
-64.4738081499
20
2.8250000000
40
3.1250000000
100
AcDbArc
50
69.7161180126
51
84.7665897818
0
ARC
5
3B4
100
AcDbEntity
8
0
100
AcDbCircle
62
7
6
CONTINUOUS
10
-64.4738081499
20
2.8250000000
40
3.1250000000
100
AcDbArc
50
95.2334102182
51
110.2838819874
0
ARC
5
3B5
100
AcDbEntity
8
0
100
AcDbCircle
62
7
6
CONTINUOUS
10
-64.4738081499
20
-2.8250000000
40
3.1250000000
100
AcDbArc
50
275.2334102182
51
290.2838819874
0
ARC
5
3B6
100
AcDbEntity
8
0
100
AcDbCircle
62
7
6
CONTINUOUS
10
-64.4738081499
20
-2.8250000000
40
3.1250000000
100
AcDbArc
50
249.7161180126
51
264.7665897818
0
ARC
5
3B7
100
AcDbEntity
8
0
100
AcDbCircle
62
7
6
CONTINUOUS
10
-58.8738081499
20
2.3500000000
40
0.1000000000
100
AcDbArc
50
180.0000000000
51
270.0000000000
0
ARC
5
3B8
100
AcDbEntity
8
0
100
AcDbCircle
62
7
6
CONTINUOUS
10
-58.8738081499
20
-2.3500000000
40
0.1000000000
100
AcDbArc
50
90.0000000000
51
180.0000000000
0
ARC
5
3B9
100
AcDbEntity
8
0
100
AcDbCircle
62
7
6
CONTINUOUS
10
-50.1738081499
20
1.0500000000
40
0.2000000000
100
AcDbArc
50
0.0000000000
51
90.0000000000
0
ARC
5
3BA
100
AcDbEntity
8
0
100
AcDbCircle
62
7
6
CONTINUOUS
10
-50.1738081499
20
-1.0500000000
40
0.2000000000
100
AcDbArc
50
270.0000000000
51
360.0000000000
0
ARC
5
3BB
100
AcDbEntity
8
0
100
AcDbCircle
62
7
6
CONTINUOUS
10
-76.0596253703
20
39.0145882543
40
0.5858172204
100
AcDbArc
50
0.0000000000
51
74.9999998760
0
ARC
5
3BC
100
AcDbEntity
8
0
100
AcDbCircle
62
7
6
CONTINUOUS
10
-76.0596253703
20
-39.0145882519
40
0.5858172204
100
AcDbArc
50
285.0000000000
51
359.9999997621
0
ARC
5
3BD
100
AcDbEntity
8
0
100
AcDbCircle
62
7
6
CONTINUOUS
10
-98.2738081499
20
22.9806471005
40
1.0000000000
100
AcDbArc
50
91.0000000000
51
180.0000000000
0
ARC
5
3BE
100
AcDbEntity
8
0
100
AcDbCircle
62
7
6
CONTINUOUS
10
-98.2738081499
20
-22.9806471005
40
1.0000000000
100
AcDbArc
50
180.0000000000
51
268.9999999971
0
ARC
5
3BF
100
AcDbEntity
8
0
100
AcDbCircle
62
7
6
CONTINUOUS
10
-91.3738081499
20
37.5000000000
40
5.7000000000
100
AcDbArc
50
0.0000000000
51
55.0557346587
0
ARC
5
3C0
100
AcDbEntity
8
0
100
AcDbCircle
62
7
6
CONTINUOUS
10
-97.1738081499
20
25.5000000000
40
1.0000000000
100
AcDbArc
50
142.9707148414
51
180.0000000000
0
ARC
5
3C1
100
AcDbEntity
8
0
100
AcDbCircle
62
7
6
CONTINUOUS
10
-97.1738081499
20
-25.5000000000
40
1.0000000000
100
AcDbArc
50
180.0000000000
51
216.8391602508
0
ARC
5
3C2
100
AcDbEntity
8
0
100
AcDbCircle
62
7
6
CONTINUOUS
10
-93.7092123060
20
-41.6243235325
40
0.5000000000
100
AcDbArc
50
255.1062267792
51
269.9979945704
0
ARC
5
3C3
100
AcDbEntity
8
0
100
AcDbCircle
62
7
6
CONTINUOUS
10
-100.3737216735
20
27.9001152975
40
3.0000000000
100
AcDbArc
50
323.1280334590
51
359.9908436824
0
ARC
5
3C4
100
AcDbEntity
8
0
100
AcDbCircle
62
7
6
CONTINUOUS
10
-100.3738251972
20
-27.8999772707
40
3.0000000003
100
AcDbArc
50
36.0999634564
51
36.8694579073
0
ARC
5
3C5
100
AcDbEntity
8
0
100
AcDbCircle
62
7
6
CONTINUOUS
10
-95.6874941143
20
-41.0750581333
40
1.0000000000
100
AcDbArc
50
263.5116283030
51
269.0000059116
0
ARC
5
3C6
100
AcDbEntity
8
0
100
AcDbCircle
62
7
6
CONTINUOUS
10
-71.4738081499
20
23.7414133366
40
1.0000000000
100
AcDbArc
50
270.5000000000
51
360.0000000000
0
ARC
5
3C7
100
AcDbEntity
8
0
100
AcDbCircle
62
7
6
CONTINUOUS
10
-71.4738081499
20
-23.7414133366
40
1.0000000000
100
AcDbArc
50
0.0000000000
51
89.5000000000
0
ARC
5
3C8
100
AcDbEntity
8
0
100
AcDbCircle
62
7
6
CONTINUOUS
10
-84.9737903191
20
-41.8689933268
40
0.5000038358
100
AcDbArc
50
180.0020062401
51
268.9979937599
0
ARC
5
3C9
100
AcDbEntity
8
0
100
AcDbCircle
62
7
6
CONTINUOUS
10
-91.3654364857
20
37.5000000000
40
5.8916283358
100
AcDbArc
50
0.0000000000
51
51.2011035197
0
SPLINE
5
3CA
100
AcDbEntity
8
0
100
AcDbSpline
62
7
6
CONTINUOUS
70
0
71
3
72
24
73
20
74
18
42
0.0000001000
43
0.0000001000
44
0.0000000001
12
0.0162246427
22
4.6989442849
32
0.0000000000
13
4.4331012374
23
1.5581893502
33
0.0000000000
40
0.0000000000
40
0.0000000000
40
0.0000000000
40
0.0000000000
40
0.0534742003
40
0.1070755596
40
0.1609452796
40
0.2152355773
40
0.2700958473
40
0.3256737339
40
0.3821129125
40
0.4395509531
40
0.4981152303
40
0.5579157442
40
0.6190305870
40
0.6814772640
40
0.7451566450
40
0.8097505669
40
0.8745857363
40
0.9384295291
40
1.0000000000
40
1.0000000000
40
1.0000000000
40
1.0000000000
10
-43.8641154491
20
38.5000000000
30
0.0000000000
10
-43.8638262492
20
38.5837574293
30
0.0000000000
10
-43.8577334952
20
38.7515046951
30
0.0000000000
10
-43.8320106434
20
39.0024560779
30
0.0000000000
10
-43.7895524814
20
39.2524346618
30
0.0000000000
10
-43.7301041289
20
39.5009553162
30
0.0000000000
10
-43.6533077521
20
39.7474853802
30
0.0000000000
10
-43.5587181600
20
39.9913729336
30
0.0000000000
10
-43.4458217890
20
40.2318238073
30
0.0000000000
10
-43.3140653636
20
40.4678655466
30
0.0000000000
10
-43.1628976284
20
40.6983117025
30
0.0000000000
10
-42.9918346080
20
40.9217189447
30
0.0000000000
10
-42.8005683060
20
41.1363335737
30
0.0000000000
10
-42.5891591339
20
41.3400215487
30
0.0000000000
10
-42.3583797057
20
41.5301869791
30
0.0000000000
10
-42.1102679318
20
41.7037398412
30
0.0000000000
10
-41.8489418143
20
41.8571959774
30
0.0000000000
10
-41.5806350737
20
41.9875177503
30
0.0000000000
10
-41.3976893859
20
42.0596612551
30
0.0000000000
10
-41.3067066756
20
42.0916407392
30
0.0000000000
11
-43.8641154491
21
38.5000000000
31
0.0000000000
11
-43.8549921591
21
38.7511081062
31
0.0000000000
11
-43.8293093015
21
39.0016665700
31
0.0000000000
11
-43.7869209839
21
39.2512245848
31
0.0000000000
11
-43.7275702869
21
39.4993332205
31
0.0000000000
11
-43.6509001847
21
39.7454546854
31
0.0000000000
11
-43.5564650820
21
39.9889418682
31
0.0000000000
11
-43.4437506785
21
40.2290038564
31
0.0000000000
11
-43.3122011290
21
40.4646743831
31
0.0000000000
11
-43.1612590382
21
40.6947766994
31
0.0000000000
11
-42.9904254716
21
40.9178852625
31
0.0000000000
11
-42.7993588959
21
41.1322778140
31
0.0000000000
11
-42.5880475841
21
41.3358748406
31
0.0000000000
11
-42.3571220952
21
41.5261656791
31
0.0000000000
11
-42.1084090543
21
41.7001463647
31
0.0000000000
11
-41.8457007878
21
41.8544229622
31
0.0000000000
11
-41.5758546480
21
41.9855076258
31
0.0000000000
11
-41.3067066756
21
42.0916407392
31
0.0000000000
0
SPLINE
5
3CB
100
AcDbEntity
8
0
100
AcDbSpline
62
7
6
CONTINUOUS
70
0
71
3
72
24
73
20
74
18
42
0.0000001000
43
0.0000001000
44
0.0000000001
12
4.4315095829
22
-1.5605483049
32
0.0000000000
13
0.0159731822
23
-4.6982265859
33
0.0000000000
40
0.0000000000
40
0.0000000000
40
0.0000000000
40
0.0000000000
40
0.0603964033
40
0.1234302119
40
0.1879295006
40
0.2525659313
40
0.3165182798
40
0.3793428217
40
0.4408588683
40
0.5010367004
40
0.5599295036
40
0.6176356577
40
0.6742786359
40
0.7299965416
40
0.7849363928
40
0.8392505037
40
0.8930948073
40
0.9466269312
40
1.0000000000
40
1.0000000000
40
1.0000000000
40
1.0000000000
10
41.3067066756
20
42.0916407392
30
0.0000000000
10
41.3959224223
20
42.0602235709
30
0.0000000000
10
41.5759516604
20
41.9892697866
30
0.0000000000
10
41.8411303056
20
41.8609545123
30
0.0000000000
10
42.1012692820
20
41.7089940352
30
0.0000000000
10
42.3497585558
20
41.5361193460
30
0.0000000000
10
42.5818061180
20
41.3458535740
30
0.0000000000
10
42.7948000056
20
41.1414945149
30
0.0000000000
10
42.9876022530
20
40.9258755804
30
0.0000000000
10
43.1599676448
20
40.7013306075
30
0.0000000000
10
43.3121363045
20
40.4697627012
30
0.0000000000
10
43.4445916437
20
40.2327193113
30
0.0000000000
10
43.5579198672
20
39.9914548487
30
0.0000000000
10
43.6527261121
20
39.7469813754
30
0.0000000000
10
43.7295817090
20
39.5001109332
30
0.0000000000
10
43.7889896522
20
39.2514949343
30
0.0000000000
10
43.8313610074
20
39.0016536889
30
0.0000000000
10
43.8569986637
20
38.7510411706
30
0.0000000000
10
43.8630628400
20
38.5835862569
30
0.0000000000
10
43.8633470193
20
38.5000000000
30
0.0000000000
11
41.3067066756
21
42.0916407392
31
0.0000000000
11
41.5707011954
21
41.9875961102
31
0.0000000000
11
41.8372754415
21
41.8585910760
31
0.0000000000
11
42.0989325057
21
41.7057342776
31
0.0000000000
11
42.3482139616
21
41.5323004364
31
0.0000000000
11
42.5805569488
21
41.3417864787
31
0.0000000000
11
42.7935410863
21
41.1374325902
31
0.0000000000
11
42.9861888297
21
40.9219836431
31
0.0000000000
11
43.1583450504
21
40.6977094842
31
0.0000000000
11
43.3102953933
21
40.4664730388
31
0.0000000000
11
43.4425449519
21
40.2297979284
31
0.0000000000
11
43.5556896329
21
39.9889249804
31
0.0000000000
11
43.6503387951
21
39.7448580638
31
0.0000000000
11
43.7270656142
21
39.4984039453
31
0.0000000000
11
43.7863734303
21
39.2502101340
31
0.0000000000
11
43.8286735458
21
39.0007975311
31
0.0000000000
11
43.8542693660
21
38.7505958581
31
0.0000000000
11
43.8633470193
21
38.5000000000
31
0.0000000000
0
SPLINE
5
3CC
100
AcDbEntity
8
0
100
AcDbSpline
62
7
6
CONTINUOUS
70
0
71
3
72
10
73
6
74
4
42
0.0000001000
43
0.0000001000
44
0.0000000001
12
0.0557529389
22
0.0937473632
32
0.0000000000
13
0.0000000879
23
0.1090732865
33
0.0000000000
40
0.0000000000
40
0.0000000000
40
0.0000000000
40
0.0000000000
40
0.3274132347
40
0.6618432597
40
1.0000000000
40
1.0000000000
40
1.0000000000
40
1.0000000000
10
-19.0285665399
20
-42.2962087060
30
0.0000000000
10
-19.0224817898
20
-42.2859773302
30
0.0000000000
10
-19.0119876211
20
-42.2641577473
30
0.0000000000
10
-19.0022233629
20
-42.2289520896
30
0.0000000000
10
-19.0000000098
20
-42.2044386920
30
0.0000000000
10
-18.9999999999
20
-42.1921440697
30
0.0000000000
11
-19.0285665399
21
-42.2962087060
31
0.0000000000
11
-19.0130855603
21
-42.2640266244
31
0.0000000000
11
-19.0033337396
21
-42.2288769622
31
0.0000000000
11
-18.9999999999
21
-42.1921440697
31
0.0000000000
0
SPLINE
5
3CD
100
AcDbEntity
8
0
100
AcDbSpline
62
9
6
CONTINUOUS
70
0
71
3
72
10
73
6
74
4
42
0.0000001000
43
0.0000001000
44
0.0000000001
12
0.2875334156
22
-0.0000000406
32
0.0000000000
13
0.0342082615
23
0.2877162896
33
0.0000000000
40
0.0000000000
40
0.0000000000
40
0.0000000000
40
0.0000000000
40
0.3600722450
40
0.7201110318
40
1.0000000000
40
1.0000000000
40
1.0000000000
40
1.0000000000
10
-19.2000000281
20
-42.3689349983
30
0.0000000000
10
-19.1654890940
20
-42.3689350032
30
0.0000000000
10
-19.0951450059
20
-42.3501881448
30
0.0000000000
10
-19.0244126836
20
-42.2794640700
30
0.0000000000
10
-19.0045685404
20
-42.2188715621
30
0.0000000000
10
-19.0013770354
20
-42.1920286902
30
0.0000000000
11
-19.2000000281
21
-42.3689349983
31
0.0000000000
11
-19.0999944291
21
-42.3421409441
31
0.0000000000
11
-19.0267899180
21
-42.2689415672
31
0.0000000000
11
-19.0013770354
21
-42.1920286902
31
0.0000000000
0
SPLINE
5
3CE
100
AcDbEntity
8
0
100
AcDbSpline
62
9
6
CONTINUOUS
70
0
71
3
72
8
73
4
74
2
42
0.0000001000
43
0.0000001000
44
0.0000000001
12
0.0027393784
22
0.0230401595
32
0.0000000000
13
0.0000000502
23
0.0230255902
33
0.0000000000
40
0.0000000000
40
0.0000000000
40
0.0000000000
40
0.0000000000
40
1.0000000000
40
1.0000000000
40
1.0000000000
40
1.0000000000
10
-19.0013770354
20
-42.1920286902
30
0.0000000000
10
-19.0004639092
20
-42.1843486371
30
0.0000000000
10
-19.0000000168
20
-42.1766406558
30
0.0000000000
10
-19.0000000000
20
-42.1689654591
30
0.0000000000
11
-19.0013770354
21
-42.1920286902
31
0.0000000000
11
-19.0000000000
21
-42.1689654591
31
0.0000000000
0
SPLINE
5
3CF
100
AcDbEntity
8
0
100
AcDbSpline
62
7
6
CONTINUOUS
70
0
71
3
72
8
73
4
74
2
42
0.0000001000
43
0.0000001000
44
0.0000000001
12
0.0135026374
22
-0.0227043933
32
0.0000000000
13
0.0164255687
23
-0.0208771495
33
0.0000000000
40
0.0000000000
40
0.0000000000
40
0.0000000000
40
0.0000000000
40
1.0000000000
40
1.0000000000
40
1.0000000000
40
1.0000000000
10
19.0285665399
20
-42.2962087060
30
0.0000000000
10
19.0330674190
20
-42.3037768371
30
0.0000000000
10
19.0380849501
20
-42.3110743992
30
0.0000000000
10
19.0435601396
20
-42.3180334490
30
0.0000000000
11
19.0285665399
21
-42.2962087060
31
0.0000000000
11
19.0435601396
21
-42.3180334490
31
0.0000000000
0
SPLINE
5
3D0
100
AcDbEntity
8
0
100
AcDbSpline
62
7
6
CONTINUOUS
70
0
71
3
72
10
73
6
74
4
42
0.0000001000
43
0.0000001000
44
0.0000000001
12
0.1118126020
22
-0.1421155303
32
0.0000000000
13
0.1797930990
23
-0.0031378154
33
0.0000000000
40
0.0000000000
40
0.0000000000
40
0.0000000000
40
0.0000000000
40
0.2707676762
40
0.6458180193
40
1.0000000000
40
1.0000000000
40
1.0000000000
40
1.0000000000
10
19.0435601396
20
-42.3180334490
30
0.0000000000
10
19.0536518858
20
-42.3308602130
30
0.0000000000
10
19.0814305059
20
-42.3587108267
30
0.0000000000
10
19.1348855094
20
-42.3879573132
30
0.0000000000
10
19.1787735080
20
-42.3958077925
30
0.0000000000
10
19.2000000000
20
-42.3961782450
30
0.0000000000
11
19.0435601396
21
-42.3180334490
31
0.0000000000
11
19.0781303853
21
-42.3526382048
31
0.0000000000
11
19.1372989628
21
-42.3850027943
31
0.0000000000
11
19.2000000000
21
-42.3961782450
31
0.0000000000
0
SPLINE
5
3D1
100
AcDbEntity
8
0
100
AcDbSpline
62
7
6
CONTINUOUS
70
0
71
3
72
8
73
4
74
2
42
0.0000001000
43
0.0000001000
44
0.0000000001
12
-0.0135026374
22
-0.0227043933
32
0.0000000000
13
-0.0164255687
23
-0.0208771495
33
0.0000000000
40
0.0000000000
40
0.0000000000
40
0.0000000000
40
0.0000000000
40
1.0000000000
40
1.0000000000
40
1.0000000000
40
1.0000000000
10
-19.0285665399
20
-42.2962087060
30
0.0000000000
10
-19.0330674190
20
-42.3037768371
30
0.0000000000
10
-19.0380849500
20
-42.3110743992
30
0.0000000000
10
-19.0435601396
20
-42.3180334490
30
0.0000000000
11
-19.0285665399
21
-42.2962087060
31
0.0000000000
11
-19.0435601396
21
-42.3180334490
31
0.0000000000
0
SPLINE
5
3D2
100
AcDbEntity
8
0
100
AcDbSpline
62
7
6
CONTINUOUS
70
0
71
3
72
10
73
6
74
4
42
0.0000001000
43
0.0000001000
44
0.0000000001
12
-0.1118126020
22
-0.1421155304
32
0.0000000000
13
-0.1797930990
23
-0.0031378121
33
0.0000000000
40
0.0000000000
40
0.0000000000
40
0.0000000000
40
0.0000000000
40
0.2707676762
40
0.6458180193
40
1.0000000000
40
1.0000000000
40
1.0000000000
40
1.0000000000
10
-19.0435601396
20
-42.3180334490
30
0.0000000000
10
-19.0536518857
20
-42.3308602130
30
0.0000000000
10
-19.0814305059
20
-42.3587108267
30
0.0000000000
10
-19.1348855094
20
-42.3879573130
30
0.0000000000
10
-19.1787735080
20
-42.3958077929
30
0.0000000000
10
-19.2000000000
20
-42.3961782450
30
0.0000000000
11
-19.0435601396
21
-42.3180334490
31
0.0000000000
11
-19.0781303853
21
-42.3526382048
31
0.0000000000
11
-19.1372989628
21
-42.3850027943
31
0.0000000000
11
-19.2000000000
21
-42.3961782450
31
0.0000000000
0
SPLINE
5
3D3
100
AcDbEntity
8
0
100
AcDbSpline
62
7
6
CONTINUOUS
70
0
71
3
72
10
73
6
74
4
42
0.0000001000
43
0.0000001000
44
0.0000000001
12
-0.0557550100
22
0.0937508457
32
0.0000000000
13
-0.0000000398
23
0.1090772799
33
0.0000000000
40
0.0000000000
40
0.0000000000
40
0.0000000000
40
0.0000000000
40
0.3274010724
40
0.6618186746
40
1.0000000000
40
1.0000000000
40
1.0000000000
40
1.0000000000
10
19.0285665399
20
-42.2962087060
30
0.0000000000
10
19.0224817898
20
-42.2859773302
30
0.0000000000
10
19.0119876519
20
-42.2641577473
30
0.0000000000
10
19.0022228892
20
-42.2289507818
30
0.0000000000
10
19.0000000045
20
-42.2044359842
30
0.0000000000
10
19.0000000000
20
-42.1921400178
30
0.0000000000
11
19.0285665399
21
-42.2962087060
31
0.0000000000
11
19.0130855603
21
-42.2640266244
31
0.0000000000
11
19.0033337396
21
-42.2288769622
31
0.0000000000
11
19.0000000000
21
-42.1921400178
31
0.0000000000
0
SPLINE
5
3D4
100
AcDbEntity
8
0
100
AcDbSpline
62
9
6
CONTINUOUS
70
0
71
3
72
10
73
6
74
4
42
0.0000001000
43
0.0000001000
44
0.0000000001
12
-0.2875295041
22
-0.0000000274
32
0.0000000000
13
-0.0342137231
23
0.2877117080
33
0.0000000000
40
0.0000000000
40
0.0000000000
40
0.0000000000
40
0.0000000000
40
0.3600599726
40
0.7200961983
40
1.0000000000
40
1.0000000000
40
1.0000000000
40
1.0000000000
10
19.2000000190
20
-42.3689349006
30
0.0000000000
10
19.1654907306
20
-42.3689349039
30
0.0000000000
10
19.0951491863
20
-42.3501896676
30
0.0000000000
10
19.0244157205
20
-42.2794689459
30
0.0000000000
10
19.0045696896
20
-42.2188764948
30
0.0000000000
10
19.0013775059
20
-42.1920326279
30
0.0000000000
11
19.2000000190
21
-42.3689349006
31
0.0000000000
11
19.0999988478
21
-42.3421433972
31
0.0000000000
11
19.0267935794
21
-42.2689478107
31
0.0000000000
11
19.0013775059
21
-42.1920326279
31
0.0000000000
0
SPLINE
5
3D5
100
AcDbEntity
8
0
100
AcDbSpline
62
9
6
CONTINUOUS
70
0
71
3
72
8
73
4
74
2
42
0.0000001000
43
0.0000001000
44
0.0000000001
12
-0.0027403368
22
0.0230441735
32
0.0000000000
13
-0.0000000230
23
0.0230296144
33
0.0000000000
40
0.0000000000
40
0.0000000000
40
0.0000000000
40
0.0000000000
40
1.0000000000
40
1.0000000000
40
1.0000000000
40
1.0000000000
10
19.0013775059
20
-42.1920326279
30
0.0000000000
10
19.0004640603
20
-42.1843512367
30
0.0000000000
10
19.0000000077
20
-42.1766418997
30
0.0000000000
10
19.0000000000
20
-42.1689653615
30
0.0000000000
11
19.0013775059
21
-42.1920326279
31
0.0000000000
11
19.0000000000
21
-42.1689653615
31
0.0000000000
0
SPLINE
5
3D6
100
AcDbEntity
8
0
100
AcDbSpline
62
9
6
CONTINUOUS
70
0
71
3
72
29
73
25
74
23
42
0.0000001000
43
0.0000001000
44
0.0000000001
12
-6.0761843910
22
-0.0000160534
32
0.0000000000
13
-0.0005817917
23
6.0761843632
33
0.0000000000
40
0.0000000000
40
0.0000000000
40
0.0000000000
40
0.0000000000
40
0.0454438771
40
0.0909319366
40
0.1364352246
40
0.1818973380
40
0.2273045450
40
0.2726987680
40
0.3181088637
40
0.3635521516
40
0.4090330568
40
0.4545207663
40
0.4999713096
40
0.5454191007
40
0.5909159698
40
0.6364246065
40
0.6818961064
40
0.7273111500
40
0.7726966560
40
0.8180940120
40
0.8635398811
40
0.9090351241
40
0.9545350767
40
1.0000000000
40
1.0000000000
40
1.0000000000
40
1.0000000000
10
-40.0000000000
20
-42.3689346969
30
0.0000000000
10
-40.0920417922
20
-42.3689349401
30
0.0000000000
10
-40.2762825150
20
-42.3623573020
30
0.0000000000
10
-40.5512566346
20
-42.3327920780
30
0.0000000000
10
-40.8234690542
20
-42.2836613725
30
0.0000000000
10
-41.0913170031
20
-42.2152662943
30
0.0000000000
10
-41.3533969550
20
-42.1280163729
30
0.0000000000
10
-41.6084962883
20
-42.0223549959
30
0.0000000000
10
-41.8554840720
20
-41.8987525837
30
0.0000000000
10
-42.0931829179
20
-41.7577665799
30
0.0000000000
10
-42.3203465708
20
-41.6000906981
30
0.0000000000
10
-42.5356869916
20
-41.4265923024
30
0.0000000000
10
-42.7380484601
20
-41.2382159153
30
0.0000000000
10
-42.9264708717
20
-41.0358719884
30
0.0000000000
10
-43.1000473060
20
-40.8205054649
30
0.0000000000
10
-43.2578286892
20
-40.5932540456
30
0.0000000000
10
-43.3988991428
20
-40.3554614320
30
0.0000000000
10
-43.5225398712
20
-40.1084373825
30
0.0000000000
10
-43.6282085791
20
-39.8533710927
30
0.0000000000
10
-43.7154590893
20
-39.5913658323
30
0.0000000000
10
-43.7838667065
20
-39.3235927194
30
0.0000000000
10
-43.8330292623
20
-39.0514117002
30
0.0000000000
10
-43.8626368404
20
-38.7763912907
30
0.0000000000
10
-43.8692376822
20
-38.5920844187
30
0.0000000000
10
-43.8692464992
20
-38.5000000000
30
0.0000000000
11
-40.0000000000
21
-42.3689346969
31
0.0000000000
11
-40.2759495355
21
-42.3590819064
31
0.0000000000
11
-40.5507595751
21
-42.3295354126
31
0.0000000000
11
-40.8228496420
21
-42.2804262733
31
0.0000000000
11
-41.0904978197
21
-42.2120824205
31
0.0000000000
11
-41.3522749167
21
-42.1249332646
31
0.0000000000
11
-41.6071042622
21
-42.0193837455
31
0.0000000000
11
-41.8538513318
21
-41.8959017892
31
0.0000000000
11
-42.0913407182
21
-41.7550400209
31
0.0000000000
11
-42.3183624941
21
-41.5974626173
31
0.0000000000
11
-42.5335891138
21
-41.4240559275
31
0.0000000000
11
-42.7357277750
21
-41.2358869718
31
0.0000000000
11
-42.9239187136
21
-41.0337916266
31
0.0000000000
11
-43.0973948801
21
-40.8185495172
31
0.0000000000
11
-43.2550984488
21
-40.5914102013
31
0.0000000000
11
-43.3960689976
21
-40.3537860305
31
0.0000000000
11
-43.5195805403
21
-40.1070201489
31
0.0000000000
11
-43.6251277300
21
-39.8522471688
31
0.0000000000
11
-43.7122808885
21
-39.5905344917
31
0.0000000000
11
-43.7806300267
21
-39.3229895363
31
0.0000000000
11
-43.8297668150
21
-39.0509541350
31
0.0000000000
11
-43.8593579881
21
-38.7760762206
31
0.0000000000
11
-43.8692464992
21
-38.5000000000
31
0.0000000000
0
SPLINE
5
3D7
100
AcDbEntity
8
0
100
AcDbSpline
62
9
6
CONTINUOUS
70
0
71
3
72
9
73
5
74
3
42
0.0000001000
43
0.0000001000
44
0.0000000001
12
0.1136594492
22
0.0368071447
32
0.0000000000
13
0.1187177873
23
0.0042381797
33
0.0000000000
40
0.0000000000
40
0.0000000000
40
0.0000000000
40
0.0000000000
40
0.3516474556
40
1.0000000000
40
1.0000000000
40
1.0000000000
40
1.0000000000
10
-43.8692464992
20
-38.5000000000
30
0.0000000000
10
-43.8559238138
20
-38.4956856204
30
0.0000000000
10
-43.8149170741
20
-38.5017562404
30
0.0000000000
10
-43.7752069511
20
-38.5010160185
30
0.0000000000
10
-43.7495499580
20
-38.5001000737
30
0.0000000000
11
-43.8692464992
21
-38.5000000000
31
0.0000000000
11
-43.8272443168
21
-38.4991128555
31
0.0000000000
11
-43.7495499580
21
-38.5001000737
31
0.0000000000
0
SPLINE
5
3D8
100
AcDbEntity
8
0
100
AcDbSpline
62
9
6
CONTINUOUS
70
0
71
3
72
16
73
12
74
10
42
0.0000001000
43
0.0000001000
44
0.0000000001
12
-0.0074986509
22
76.0000029693
32
0.0000000000
13
0.0611822943
23
75.9999787125
33
0.0000000000
40
0.0000000000
40
0.0000000000
40
0.0000000000
40
0.0000000000
40
0.1343195412
40
0.2794467819
40
0.4188196142
40
0.5428572288
40
0.6528127771
40
0.7507748429
40
0.8397302817
40
0.9222970354
40
1.0000000000
40
1.0000000000
40
1.0000000000
40
1.0000000000
10
-43.8692464992
20
-38.5000000000
30
0.0000000000
10
-43.8695822377
20
-35.0972381571
30
0.0000000000
10
-43.8707499513
20
-28.0179194540
30
0.0000000000
10
-43.8732105043
20
-17.4078223828
30
0.0000000000
10
-43.8755084410
20
-7.0582007595
30
0.0000000000
10
-43.8768656897
20
2.4004047874
30
0.0000000000
10
-43.8770244782
20
10.8099376439
30
0.0000000000
10
-43.8760088348
20
18.3307219457
30
0.0000000000
10
-43.8739057518
20
25.1576565034
30
0.0000000000
10
-43.8707758396
20
31.4713600230
30
0.0000000000
10
-43.8679488784
20
35.5315254476
30
0.0000000000
10
-43.8663641965
20
37.5000000000
30
0.0000000000
11
-43.8692464992
21
-38.5000000000
31
0.0000000000
11
-43.8708143072
21
-28.2917145420
31
0.0000000000
11
-43.8732257897
21
-17.2620440300
31
0.0000000000
11
-43.8754479773
21
-6.6697085426
31
0.0000000000
11
-43.8767093153
21
2.7571505033
31
0.0000000000
11
-43.8768034639
21
11.1137725346
31
0.0000000000
11
-43.8757529952
21
18.5588897885
31
0.0000000000
11
-43.8736365494
21
25.3195031083
31
0.0000000000
11
-43.8704986648
21
31.5945758766
31
0.0000000000
11
-43.8663641965
21
37.5000000000
31
0.0000000000
0
SPLINE
5
3D9
100
AcDbEntity
8
0
100
AcDbSpline
62
9
6
CONTINUOUS
70
0
71
3
72
10
73
6
74
4
42
0.0000001000
43
0.0000001000
44
0.0000000001
12
0.0415815221
22
-0.1099016454
32
0.0000000000
13
0.1120007846
23
-0.0045655787
33
0.0000000000
40
0.0000000000
40
0.0000000000
40
0.0000000000
40
0.0000000000
40
0.2451864054
40
0.8948146256
40
1.0000000000
40
1.0000000000
40
1.0000000000
40
1.0000000000
10
-43.8663641936
20
37.5000000622
30
0.0000000000
10
-43.8629657856
20
37.4910179324
30
0.0000000000
10
-43.8148068435
20
37.5005414034
30
0.0000000000
10
-43.7817869446
20
37.4944361611
30
0.0000000000
10
-43.7539558965
20
37.4929123670
30
0.0000000000
10
-43.7500289484
20
37.4927522896
30
0.0000000000
11
-43.8663641936
21
37.5000000622
31
0.0000000000
11
-43.8379713262
21
37.4951117528
31
0.0000000000
11
-43.7616561094
21
37.4933969559
31
0.0000000000
11
-43.7500289484
21
37.4927522896
31
0.0000000000
0
SPLINE
5
3DA
100
AcDbEntity
8
0
100
AcDbSpline
62
9
6
CONTINUOUS
70
0
71
3
72
10
73
6
74
4
42
0.0000001000
43
0.0000001000
44
0.0000000001
12
0.0008053936
22
1.0000025227
32
0.0000000000
13
0.0037432936
23
0.9999958409
33
0.0000000000
40
0.0000000000
40
0.0000000000
40
0.0000000000
40
0.0000000000
40
0.3388016696
40
0.6724783759
40
1.0000000000
40
1.0000000000
40
1.0000000000
40
1.0000000000
10
-43.8663641965
20
37.5000000000
30
0.0000000000
10
-43.8662732403
20
37.6129341748
30
0.0000000000
10
-43.8659862621
20
37.8370941294
30
0.0000000000
10
-43.8652367261
20
38.1704276165
30
0.0000000000
10
-43.8645241190
20
38.3908265794
30
0.0000000000
10
-43.8641154491
20
38.5000000000
30
0.0000000000
11
-43.8663641965
21
37.5000000000
31
0.0000000000
11
-43.8659289776
21
37.8388023546
31
0.0000000000
11
-43.8651768441
21
38.1724791633
31
0.0000000000
11
-43.8641154491
21
38.5000000000
31
0.0000000000
0
SPLINE
5
3DB
100
AcDbEntity
8
0
100
AcDbSpline
62
9
6
CONTINUOUS
70
0
71
3
72
10
73
6
74
4
42
0.0000001000
43
0.0000001000
44
0.0000000001
12
0.0103410780
22
-0.1270824815
32
0.0000000000
13
0.1257643035
23
-0.0146106090
33
0.0000000000
40
0.0000000000
40
0.0000000000
40
0.0000000000
40
0.0000000000
40
0.2624934791
40
0.7956959984
40
1.0000000000
40
1.0000000000
40
1.0000000000
40
1.0000000000
10
-43.8641154234
20
38.5000000000
30
0.0000000000
10
-43.8632106016
20
38.4888805591
30
0.0000000000
10
-43.8266170677
20
38.4686755624
30
0.0000000000
10
-43.7876955851
20
38.4615423830
30
0.0000000000
10
-43.7571284984
20
38.4575770011
30
0.0000000000
10
-43.7485637816
20
38.4565819991
30
0.0000000000
11
-43.8641154234
21
38.5000000000
31
0.0000000000
11
-43.8396788347
21
38.4771308253
31
0.0000000000
11
-43.7739209742
21
38.4598733886
31
0.0000000000
11
-43.7485637816
21
38.4565819991
31
0.0000000000
0
SPLINE
5
3DC
100
AcDbEntity
8
0
100
AcDbSpline
62
9
6
CONTINUOUS
70
0
71
3
72
11
73
7
74
5
42
0.0000001000
43
0.0000001000
44
0.0000000001
12
0.7654222714
22
0.6493855162
32
0.0000000000
13
0.8960314014
23
0.4519631139
33
0.0000000000
40
0.0000000000
40
0.0000000000
40
0.0000000000
40
0.0000000000
40
0.0907644447
40
0.3990118856
40
0.7043088816
40
1.0000000000
40
1.0000000000
40
1.0000000000
40
1.0000000000
10
-42.1410551410
20
41.5377825413
30
0.0000000000
10
-42.1178974318
20
41.5574295799
30
0.0000000000
10
-42.0151774644
20
41.6427214870
30
0.0000000000
10
-41.8269340231
20
41.7847507630
30
0.0000000000
10
-41.5713699900
20
41.9501404627
30
0.0000000000
10
-41.3950228514
20
42.0470935796
30
0.0000000000
10
-41.3067066756
20
42.0916407392
30
0.0000000000
11
-42.1410551410
21
41.5377825413
31
0.0000000000
11
-42.0709622638
21
41.5959829724
31
0.0000000000
11
-41.8240080428
21
41.7822859340
31
0.0000000000
11
-41.5667542127
21
41.9486965356
31
0.0000000000
11
-41.3067066756
21
42.0916407392
31
0.0000000000
0
SPLINE
5
3DD
100
AcDbEntity
8
0
100
AcDbSpline
62
9
6
CONTINUOUS
70
0
71
3
72
12
73
8
74
6
42
0.0000001000
43
0.0000001000
44
0.0000000001
12
1.0966727079
22
-0.5257470415
32
0.0000000000
13
0.8992365373
23
-0.8192155375
33
0.0000000000
40
0.0000000000
40
0.0000000000
40
0.0000000000
40
0.0000000000
40
0.2381219850
40
0.4858107439
40
0.7380989925
40
0.9894595270
40
1.0000000000
40
1.0000000000
40
1.0000000000
40
1.0000000000
10
41.3067066756
20
42.0916407392
30
0.0000000000
10
41.3937539697
20
42.0499100961
30
0.0000000000
10
41.5683416822
20
41.9583542237
30
0.0000000000
10
41.8230061218
20
41.8007865474
30
0.0000000000
10
42.0699242264
20
41.6219762916
30
0.0000000000
10
42.2295624005
20
41.4876525383
30
0.0000000000
10
42.3081750467
20
41.4162543911
30
0.0000000000
10
42.3113345061
20
41.4133760847
30
0.0000000000
11
41.3067066756
21
42.0916407392
31
0.0000000000
11
41.5632291687
21
41.9572371967
31
0.0000000000
11
41.8194081043
21
41.7987607446
31
0.0000000000
11
42.0679325624
21
41.6188179064
31
0.0000000000
11
42.3018429834
21
41.4219965456
31
0.0000000000
11
42.3113345061
21
41.4133760847
31
0.0000000000
0
SPLINE
5
3DE
100
AcDbEntity
8
0
100
AcDbSpline
62
9
6
CONTINUOUS
70
0
71
3
72
10
73
6
74
4
42
0.0000001000
43
0.0000001000
44
0.0000000001
12
-0.0104064647
22
-0.1243917259
32
0.0000000000
13
-0.1248063597
23
-0.0124366977
33
0.0000000000
40
0.0000000000
40
0.0000000000
40
0.0000000000
40
0.0000000000
40
0.2266094933
40
0.6912263751
40
1.0000000000
40
1.0000000000
40
1.0000000000
40
1.0000000000
10
43.8633470210
20
38.4999999623
30
0.0000000000
10
43.8625609531
20
38.4906038470
30
0.0000000000
10
43.8310936520
20
38.4738400291
30
0.0000000000
10
43.7931558619
20
38.4667758199
30
0.0000000000
10
43.7614071340
20
38.4628993442
30
0.0000000000
10
43.7485614966
20
38.4616193028
30
0.0000000000
11
43.8633470210
21
38.4999999623
31
0.0000000000
11
43.8424922471
21
38.4808891700
31
0.0000000000
11
43.7863744546
21
38.4662476359
31
0.0000000000
11
43.7485614966
21
38.4616193028
31
0.0000000000
0
SPLINE
5
3DF
100
AcDbEntity
8
0
100
AcDbSpline
62
9
6
CONTINUOUS
70
0
71
3
72
10
73
6
74
4
42
0.0000001000
43
0.0000001000
44
0.0000000001
12
0.0036409511
22
-0.9999959952
32
0.0000000000
13
0.0006967799
23
-1.0000023807
33
0.0000000000
40
0.0000000000
40
0.0000000000
40
0.0000000000
40
0.0000000000
40
0.3284336758
40
0.6621285512
40
1.0000000000
40
1.0000000000
40
1.0000000000
40
1.0000000000
10
43.8633470193
20
38.5000000000
30
0.0000000000
10
43.8637456229
20
38.3905225465
30
0.0000000000
10
43.8644368170
20
38.1698134887
30
0.0000000000
10
43.8651520019
20
37.8364800004
30
0.0000000000
10
43.8654149258
20
37.6126240844
30
0.0000000000
10
43.8654933998
20
37.5000000000
30
0.0000000000
11
43.8633470193
21
38.5000000000
31
0.0000000000
11
43.8643777737
21
38.1715670800
31
0.0000000000
11
43.8650953462
21
37.8378721007
31
0.0000000000
11
43.8654933998
21
37.5000000000
31
0.0000000000
0
SPLINE
5
3E0
100
AcDbEntity
8
0
100
AcDbSpline
62
9
6
CONTINUOUS
70
0
71
3
72
10
73
6
74
4
42
0.0000001000
43
0.0000001000
44
0.0000000001
12
-0.0468068958
22
-0.1070333831
32
0.0000000000
13
-0.1152064509
23
-0.0006863936
33
0.0000000000
40
0.0000000000
40
0.0000000000
40
0.0000000000
40
0.0000000000
40
0.2100697149
40
0.7686522835
40
1.0000000000
40
1.0000000000
40
1.0000000000
40
1.0000000000
10
43.8654933998
20
37.5000000000
30
0.0000000000
10
43.8622158294
20
37.4925051759
30
0.0000000000
10
43.8217638713
20
37.5014926318
30
0.0000000000
10
43.7885719232
20
37.4951714412
30
0.0000000000
10
43.7588907580
20
37.4942017167
30
0.0000000000
10
43.7500065082
20
37.4941487849
30
0.0000000000
11
43.8654933998
21
37.5000000000
31
0.0000000000
11
43.8412208976
21
37.4963834626
31
0.0000000000
11
43.7759793324
21
37.4951148412
31
0.0000000000
11
43.7500065082
21
37.4941487849
31
0.0000000000
0
SPLINE
5
3E1
100
AcDbEntity
8
0
100
AcDbSpline
62
9
6
CONTINUOUS
70
0
71
3
72
15
73
11
74
9
42
0.0000001000
43
0.0000001000
44
0.0000000001
12
0.0529339595
22
-75.9999840230
32
0.0000000000
13
-0.0059698398
23
-76.0000022228
33
0.0000000000
40
0.0000000000
40
0.0000000000
40
0.0000000000
40
0.0000000000
40
0.0883648351
40
0.1831142129
40
0.2866593787
40
0.4028645591
40
0.5346411468
40
0.6821834154
40
0.8431561366
40
1.0000000000
40
1.0000000000
40
1.0000000000
40
1.0000000000
10
43.8654933998
20
37.5000000000
30
0.0000000000
10
43.8670525667
20
35.2614246486
30
0.0000000000
10
43.8698039278
20
30.6225318859
30
0.0000000000
10
43.8727400897
20
23.3604946139
30
0.0000000000
10
43.8745672860
20
15.3931681868
30
0.0000000000
10
43.8751996273
20
6.4878188987
30
0.0000000000
10
43.8745718373
20
-3.5321236922
30
0.0000000000
10
43.8728347361
20
-14.6861772221
30
0.0000000000
10
43.8706246406
20
-26.4752683417
30
0.0000000000
10
43.8694953499
20
-34.5266220111
30
0.0000000000
10
43.8691832390
20
-38.5000000000
30
0.0000000000
11
43.8654933998
21
37.5000000000
31
0.0000000000
11
43.8695040541
21
30.7842735146
31
0.0000000000
11
43.8724493082
21
23.5833211686
31
0.0000000000
11
43.8742980364
21
15.7138885329
31
0.0000000000
11
43.8749872307
21
6.8822945637
31
0.0000000000
11
43.8744502593
21
-3.1327264084
31
0.0000000000
11
43.8728310019
21
-14.3459390737
31
0.0000000000
11
43.8707025399
21
-26.5798660934
31
0.0000000000
11
43.8691832390
21
-38.5000000000
31
0.0000000000
0
SPLINE
5
3E2
100
AcDbEntity
8
0
100
AcDbSpline
62
9
6
CONTINUOUS
70
0
71
3
72
9
73
5
74
3
42
0.0000001000
43
0.0000001000
44
0.0000000001
12
-0.1145014182
22
0.0340038594
32
0.0000000000
13
-0.1187961187
23
0.0039572351
33
0.0000000000
40
0.0000000000
40
0.0000000000
40
0.0000000000
40
0.0000000000
40
0.3492092553
40
1.0000000000
40
1.0000000000
40
1.0000000000
40
1.0000000000
10
43.8691828190
20
-38.5000000000
30
0.0000000000
10
43.8558545006
20
-38.4960418459
30
0.0000000000
10
43.8150334005
20
-38.5016614547
30
0.0000000000
10
43.7753229380
20
-38.5009345374
30
0.0000000000
10
43.7495524665
20
-38.5000760934
30
0.0000000000
11
43.8691828190
21
-38.5000000000
31
0.0000000000
11
43.8274797277
21
-38.4991927442
31
0.0000000000
11
43.7495524665
21
-38.5000760934
31
0.0000000000
0
SPLINE
5
3E3
100
AcDbEntity
8
0
100
AcDbSpline
62
9
6
CONTINUOUS
70
0
71
3
72
29
73
25
74
23
42
0.0000001000
43
0.0000001000
44
0.0000000001
12
-0.0004625441
22
-6.0761506081
32
0.0000000000
13
-6.0761506256
23
0.0000183247
33
0.0000000000
40
0.0000000000
40
0.0000000000
40
0.0000000000
40
0.0000000000
40
0.0454643151
40
0.0909643743
40
0.1364606722
40
0.1819085794
40
0.2273071570
40
0.2726920860
40
0.3181062097
40
0.3635773983
40
0.4090876299
40
0.4545863458
40
0.5000356127
40
0.5454788655
40
0.5909598632
40
0.6364366439
40
0.6818803860
40
0.7272943635
40
0.7726932592
40
0.8181002298
40
0.8635615091
40
0.9090651600
40
0.9545549388
40
1.0000000000
40
1.0000000000
40
1.0000000000
40
1.0000000000
10
43.8691832390
20
-38.5000000000
30
0.0000000000
10
43.8691762293
20
-38.5920826753
30
0.0000000000
10
43.8625791638
20
-38.7763876398
30
0.0000000000
10
43.8329767323
20
-39.0514081987
30
0.0000000000
10
43.7838177418
20
-39.3235949098
30
0.0000000000
10
43.7154116980
20
-39.5913758983
30
0.0000000000
10
43.6281622480
20
-39.8533856483
30
0.0000000000
10
43.5224961539
20
-40.1084507565
30
0.0000000000
10
43.3988595300
20
-40.3554710422
30
0.0000000000
10
43.2577911774
20
-40.5932639751
30
0.0000000000
10
43.1000082070
20
-40.8205201761
30
0.0000000000
10
42.9264267961
20
-41.0358935467
30
0.0000000000
10
42.7380104977
20
-41.2382301155
30
0.0000000000
10
42.5356691352
20
-41.4265884640
30
0.0000000000
10
42.3203606604
20
-41.6000653921
30
0.0000000000
10
42.0932187150
20
-41.7577328745
30
0.0000000000
10
41.8555239127
20
-41.8987235461
30
0.0000000000
10
41.6085233428
20
-42.0223378844
30
0.0000000000
10
41.3534109064
20
-42.1280078287
30
0.0000000000
10
41.0913260415
20
-42.2152612444
30
0.0000000000
10
40.8234814286
20
-42.2836573584
30
0.0000000000
10
40.5512683380
20
-42.3327899837
30
0.0000000000
10
40.2762892648
20
-42.3623568802
30
0.0000000000
10
40.0920436791
20
-42.3689349744
30
0.0000000000
10
40.0000000000
20
-42.3689346968
30
0.0000000000
11
43.8691832390
21
-38.5000000000
31
0.0000000000
11
43.8593003744
21
-38.7760711886
31
0.0000000000
11
43.8297144259
21
-39.0509487720
31
0.0000000000
11
43.7805812152
21
-39.3229897717
31
0.0000000000
11
43.7122327594
21
-39.5905460992
31
0.0000000000
11
43.6250800408
21
-39.8522651307
31
0.0000000000
11
43.5195365934
21
-40.1070342078
31
0.0000000000
11
43.3960300157
21
-40.3537946083
31
0.0000000000
11
43.2550629102
21
-40.5914168382
31
0.0000000000
11
43.0973558620
21
-40.8185636643
31
0.0000000000
11
42.9238739475
21
-41.0338135806
31
0.0000000000
11
42.7356775506
21
-41.2359139996
31
0.0000000000
11
42.5335727765
21
-41.4240520915
31
0.0000000000
11
42.3183811965
21
-41.5974348206
31
0.0000000000
11
42.0913843912
21
-41.7550015564
31
0.0000000000
11
41.8538970489
21
-41.8958691724
31
0.0000000000
11
41.6071324682
21
-42.0193654146
31
0.0000000000
11
41.3522794171
21
-42.1249278914
31
0.0000000000
11
41.0905056949
21
-42.2120777820
31
0.0000000000
11
40.8228643670
21
-42.2804217730
31
0.0000000000
11
40.5507739566
21
-42.3295327684
31
0.0000000000
11
40.2759551800
21
-42.3590813581
31
0.0000000000
11
40.0000000000
21
-42.3689346968
31
0.0000000000
0
SPLINE
5
3E4
100
AcDbEntity
8
0
100
AcDbSpline
62
7
6
CONTINUOUS
70
0
71
3
72
9
73
5
74
3
42
0.0000001000
43
0.0000001000
44
0.0000000001
12
0.0000000000
22
0.9900015566
32
0.0000000000
13
-0.0030476632
23
0.9899968656
33
0.0000000000
40
0.0000000000
40
0.0000000000
40
0.0000000000
40
0.0000000000
40
0.5026377006
40
1.0000000000
40
1.0000000000
40
1.0000000000
40
1.0000000000
10
43.7500000000
20
37.5000000000
30
0.0000000000
10
43.7500000000
20
37.6658707020
30
0.0000000000
10
43.7497490428
20
37.9958712691
30
0.0000000000
10
43.7489930962
20
38.3258710706
30
0.0000000000
10
43.7484878319
20
38.4900001097
30
0.0000000000
11
43.7500000000
21
37.5000000000
31
0.0000000000
11
43.7496201360
21
37.9976119610
31
0.0000000000
11
43.7484878319
21
38.4900001097
31
0.0000000000
0
SPLINE
5
3E5
100
AcDbEntity
8
0
100
AcDbSpline
62
7
6
CONTINUOUS
70
0
71
3
72
15
73
11
74
9
42
0.0000001000
43
0.0000001000
44
0.0000000001
12
-0.0135177437
22
4.3910353935
32
0.0000000000
13
-4.0661986360
23
1.6639856252
33
0.0000000000
40
0.0000000000
40
0.0000000000
40
0.0000000000
40
0.0000000000
40
0.1541970040
40
0.3088559976
40
0.4536600589
40
0.5857203498
40
0.7017298522
40
0.8033475627
40
0.8996300842
40
1.0000000000
40
1.0000000000
40
1.0000000000
40
1.0000000000
10
43.7484878322
20
38.4900000018
30
0.0000000000
10
43.7477930336
20
38.7156948359
30
0.0000000000
10
43.7049610282
20
39.1687102107
30
0.0000000000
10
43.5221448093
20
39.8107910709
30
0.0000000000
10
43.2434212953
20
40.3810749058
30
0.0000000000
10
42.9087121542
20
40.8515421137
30
0.0000000000
10
42.5532375133
20
41.2220117759
30
0.0000000000
10
42.1945384332
20
41.5108738358
30
0.0000000000
10
41.8243076828
20
41.7439508789
30
0.0000000000
10
41.5641305516
20
41.8686248482
30
0.0000000000
10
41.4280892134
20
41.9242962139
30
0.0000000000
11
43.7484878322
21
38.4900000018
31
0.0000000000
11
43.6846783580
21
39.1640742700
31
0.0000000000
11
43.4987699679
21
39.8172488742
31
0.0000000000
11
43.2195853028
21
40.3885210972
31
0.0000000000
11
42.8834659721
21
40.8610562105
31
0.0000000000
11
42.5308074135
21
41.2286492269
31
0.0000000000
11
42.1832983665
21
41.5085420697
31
0.0000000000
11
41.8255264880
21
41.7338060731
31
0.0000000000
11
41.4280892134
21
41.9242962139
31
0.0000000000
0
SPLINE
5
3E6
100
AcDbEntity
8
0
100
AcDbSpline
62
7
6
CONTINUOUS
70
0
71
3
72
9
73
5
74
3
42
0.0000001000
43
0.0000001000
44
0.0000000001
12
-0.8913908071
22
0.3647784140
32
0.0000000000
13
-0.9539407155
23
0.1288696542
33
0.0000000000
40
0.0000000000
40
0.0000000000
40
0.0000000000
40
0.0000000000
40
0.4868812332
40
1.0000000000
40
1.0000000000
40
1.0000000000
40
1.0000000000
10
41.4280892134
20
41.9242962139
30
0.0000000000
10
41.2834220615
20
41.9834974686
30
0.0000000000
10
40.9787458881
20
42.0865993672
30
0.0000000000
10
40.6631616278
20
42.1503029359
30
0.0000000000
10
40.5000000000
20
42.1723447486
30
0.0000000000
11
41.4280892134
21
41.9242962139
31
0.0000000000
11
40.9841540411
21
42.0745547222
31
0.0000000000
11
40.5000000000
21
42.1723447486
31
0.0000000000
0
SPLINE
5
3E7
100
AcDbEntity
8
0
100
AcDbSpline
62
7
6
CONTINUOUS
70
0
71
3
72
9
73
5
74
3
42
0.0000001000
43
0.0000001000
44
0.0000000001
12
-1.0219346905
22
-0.1380550888
32
0.0000000000
13
-0.9478915738
23
-0.4082379184
33
0.0000000000
40
0.0000000000
40
0.0000000000
40
0.0000000000
40
0.0000000000
40
0.4868779266
40
1.0000000000
40
1.0000000000
40
1.0000000000
40
1.0000000000
10
-40.5000000000
20
42.1723447486
30
0.0000000000
10
-40.6658524811
20
42.1499394234
30
0.0000000000
10
-41.0038743842
20
42.0813330785
30
0.0000000000
10
-41.3293597886
20
41.9675009620
30
0.0000000000
10
-41.4914878185
20
41.8976756663
30
0.0000000000
11
-40.5000000000
21
42.1723447486
31
0.0000000000
11
-40.9920315093
21
42.0724128191
31
0.0000000000
11
-41.4914878185
21
41.8976756663
31
0.0000000000
0
SPLINE
5
3E8
100
AcDbEntity
8
0
100
AcDbSpline
62
7
6
CONTINUOUS
70
0
71
3
72
14
73
10
74
8
42
0.0000001000
43
0.0000001000
44
0.0000000001
12
-3.9724716124
22
-1.7108639710
32
0.0000000000
13
-0.0133038010
23
-4.3216579911
33
0.0000000000
40
0.0000000000
40
0.0000000000
40
0.0000000000
40
0.0000000000
40
0.1303958049
40
0.2686580992
40
0.4143912488
40
0.5657398835
40
0.7188575172
40
0.8677357701
40
1.0000000000
40
1.0000000000
40
1.0000000000
40
1.0000000000
10
-41.4914878185
20
41.8976756663
30
0.0000000000
10
-41.6641523630
20
41.8233125048
30
0.0000000000
10
-42.0084808513
20
41.6434239198
30
0.0000000000
10
-42.4906216648
20
41.2871413047
30
0.0000000000
10
-42.9292337525
20
40.8347047814
30
0.0000000000
10
-43.2958388390
20
40.2956539427
30
0.0000000000
10
-43.5635231006
20
39.6961194072
30
0.0000000000
10
-43.7153748467
20
39.0860833597
30
0.0000000000
10
-43.7479012940
20
38.6805333976
30
0.0000000000
10
-43.7484878330
20
38.4899998089
30
0.0000000000
11
-41.4914878185
21
41.8976756663
31
0.0000000000
11
-41.9909199149
21
41.6366541642
31
0.0000000000
11
-42.4714296315
21
41.2814827222
31
0.0000000000
11
-42.9097651343
21
40.8292384196
31
0.0000000000
11
-43.2775569123
21
40.2883594759
31
0.0000000000
11
-43.5473332248
21
39.6841236310
31
0.0000000000
11
-43.7027374639
21
39.0597694428
31
0.0000000000
11
-43.7484878330
21
38.4899998089
31
0.0000000000
0
SPLINE
5
3E9
100
AcDbEntity
8
0
100
AcDbSpline
62
7
6
CONTINUOUS
70
0
71
3
72
9
73
5
74
3
42
0.0000001000
43
0.0000001000
44
0.0000000001
12
0.0000000000
22
0.9900012413
32
0.0000000000
13
0.0030476616
23
0.9899965503
33
0.0000000000
40
0.0000000000
40
0.0000000000
40
0.0000000000
40
0.0000000000
40
0.5026376366
40
1.0000000000
40
1.0000000000
40
1.0000000000
40
1.0000000000
10
-43.7500000000
20
37.5000000000
30
0.0000000000
10
-43.7500000000
20
37.6658706281
30
0.0000000000
10
-43.7497490429
20
37.9958710900
30
0.0000000000
10
-43.7489930970
20
38.3258707864
30
0.0000000000
10
-43.7484878330
20
38.4899997944
30
0.0000000000
11
-43.7500000000
21
37.5000000000
31
0.0000000000
11
-43.7496201364
21
37.9976117392
31
0.0000000000
11
-43.7484878330
21
38.4899997944
31
0.0000000000
0
SPLINE
5
3EA
100
AcDbEntity
8
0
100
AcDbSpline
62
7
6
CONTINUOUS
70
0
71
3
72
9
73
5
74
3
42
0.0000001000
43
0.0000001000
44
0.0000000001
12
-0.5114671034
22
0.0000000000
32
0.0000000000
13
-0.5067758787
23
-0.0691144456
33
0.0000000000
40
0.0000000000
40
0.0000000000
40
0.0000000000
40
0.0000000000
40
0.4984927135
40
1.0000000000
40
1.0000000000
40
1.0000000000
40
1.0000000000
10
-39.9900000000
20
42.1993909428
30
0.0000000000
10
-40.0749875414
20
42.1993909428
30
0.0000000000
10
-40.2455249824
20
42.1936289799
30
0.0000000000
10
-40.4152827347
20
42.1763278412
30
0.0000000000
10
-40.5000000000
20
42.1647740418
30
0.0000000000
11
-39.9900000000
21
42.1993909428
31
0.0000000000
11
-40.2448171361
21
42.1907789225
31
0.0000000000
11
-40.5000000000
21
42.1647740418
31
0.0000000000
0
SPLINE
5
3EB
100
AcDbEntity
8
0
100
AcDbSpline
62
7
6
CONTINUOUS
70
0
71
3
72
9
73
5
74
3
42
0.0000001000
43
0.0000001000
44
0.0000000001
12
-0.5067758787
22
0.0691144456
32
0.0000000000
13
-0.5114671033
23
0.0000000000
33
0.0000000000
40
0.0000000000
40
0.0000000000
40
0.0000000000
40
0.0000000000
40
0.5015269535
40
1.0000000000
40
1.0000000000
40
1.0000000000
40
1.0000000000
10
40.5000000000
20
42.1647740418
30
0.0000000000
10
40.4152794125
20
42.1763282943
30
0.0000000000
10
40.2455216217
20
42.1936292080
30
0.0000000000
10
40.0749841884
20
42.1993909428
30
0.0000000000
10
39.9900000000
20
42.1993909428
30
0.0000000000
11
40.5000000000
21
42.1647740418
31
0.0000000000
11
40.2448070943
21
42.1907796020
31
0.0000000000
11
39.9900000000
21
42.1993909428
31
0.0000000000
0
SPLINE
5
3EC
100
AcDbEntity
8
0
100
AcDbSpline
62
9
6
CONTINUOUS
70
0
71
3
72
12
73
8
74
6
42
0.0000001000
43
0.0000001000
44
0.0000000001
12
0.0148060471
22
-0.9790337789
32
0.0000000000
13
0.9752444634
23
-0.0873189314
33
0.0000000000
40
0.0000000000
40
0.0000000000
40
0.0000000000
40
0.0000000000
40
0.2971439487
40
0.5637913681
40
0.7779009711
40
0.9236781081
40
1.0000000000
40
1.0000000000
40
1.0000000000
40
1.0000000000
10
-40.1807253225
20
-41.1588259927
30
0.0000000000
10
-40.1792588134
20
-41.2557973137
30
0.0000000000
10
-40.1711709083
20
-41.4400252580
30
0.0000000000
10
-40.1457476665
20
-41.6917245771
30
0.0000000000
10
-40.1051540459
20
-41.8956445707
30
0.0000000000
10
-40.0658801226
20
-42.0258473310
30
0.0000000000
10
-40.0148108342
20
-42.0946471555
30
0.0000000000
10
-39.9900000000
20
-42.0968686041
30
0.0000000000
11
-40.1807253225
21
-41.1588259927
31
0.0000000000
11
-40.1678618001
21
-41.4494887173
31
0.0000000000
11
-40.1392819347
21
-41.7090064369
31
0.0000000000
11
-40.0975111187
21
-41.9144474668
31
0.0000000000
11
-40.0462403326
21
-42.0476584839
31
0.0000000000
11
-39.9900000000
21
-42.0968686041
31
0.0000000000
0
SPLINE
5
3ED
100
AcDbEntity
8
0
100
AcDbSpline
62
9
6
CONTINUOUS
70
0
71
3
72
30
73
26
74
24
42
0.0000001000
43
0.0000001000
44
0.0000000001
12
18.9889283517
22
0.0645977051
32
0.0000000000
13
18.9890382276
23
0.0000119341
33
0.0000000000
40
0.0000000000
40
0.0000000000
40
0.0000000000
40
0.0000000000
40
0.0209437470
40
0.0438827902
40
0.0690914999
40
0.0968224096
40
0.1273224378
40
0.1608305296
40
0.1975507112
40
0.2375773726
40
0.2809542447
40
0.3277774645
40
0.3785532920
40
0.4339497251
40
0.4939831589
40
0.5578341562
40
0.6238597818
40
0.6883837097
40
0.7478958084
40
0.8016907616
40
0.8501330221
40
0.8937070465
40
0.9328921847
40
0.9681574153
40
1.0000000000
40
1.0000000000
40
1.0000000000
40
1.0000000000
10
-39.9900000000
20
-42.0968686041
30
0.0000000000
10
-39.8574335627
20
-42.0964176315
30
0.0000000000
10
-39.5796710994
20
-42.0954952695
30
0.0000000000
10
-39.1423462315
20
-42.0941149196
30
0.0000000000
10
-38.6620607599
20
-42.0926816011
30
0.0000000000
10
-38.1339166158
20
-42.0911999144
30
0.0000000000
10
-37.5532399583
20
-42.0896784061
30
0.0000000000
10
-36.9156639834
20
-42.0881277708
30
0.0000000000
10
-36.2177873472
20
-42.0865612733
30
0.0000000000
10
-35.4574443443
20
-42.0849977437
30
0.0000000000
10
-34.6331521785
20
-42.0834579331
30
0.0000000000
10
-33.7408210607
20
-42.0819574716
30
0.0000000000
10
-32.7724097899
20
-42.0805130703
30
0.0000000000
10
-31.7203819028
20
-42.0791514013
30
0.0000000000
10
-30.5855921743
20
-42.0779143239
30
0.0000000000
10
-29.3835228538
20
-42.0768580855
30
0.0000000000
10
-28.1530299541
20
-42.0760388793
30
0.0000000000
10
-26.9500007533
20
-42.0754729246
30
0.0000000000
10
-25.8243877080
20
-42.0751371939
30
0.0000000000
10
-24.8005664292
20
-42.0749622147
30
0.0000000000
10
-23.8776280401
20
-42.0748903186
30
0.0000000000
10
-23.0471650937
20
-42.0748776075
30
0.0000000000
10
-22.3001085221
20
-42.0748882436
30
0.0000000000
10
-21.6273082029
20
-42.0749016564
30
0.0000000000
10
-21.2025372459
20
-42.0749059569
30
0.0000000000
10
-21.0009838932
20
-42.0749058302
30
0.0000000000
11
-39.9900000000
21
-42.0968686041
31
0.0000000000
11
-39.5923005809
21
-42.0955476056
31
0.0000000000
11
-39.1567123854
21
-42.0941721654
31
0.0000000000
11
-38.6780253664
21
-42.0927428331
31
0.0000000000
11
-38.1514441380
21
-42.0912645702
31
0.0000000000
11
-37.5722799273
21
-42.0897456038
31
0.0000000000
11
-36.9359953774
21
-42.0881961844
31
0.0000000000
11
-36.2387162068
21
-42.0866291933
31
0.0000000000
11
-35.4786500149
21
-42.0850642461
31
0.0000000000
11
-34.6549663728
21
-42.0835233117
31
0.0000000000
11
-33.7658397214
21
-42.0820265548
31
0.0000000000
11
-32.8016566681
21
-42.0805870011
31
0.0000000000
11
-31.7497325650
21
-42.0792237513
31
0.0000000000
11
-30.6097560745
21
-42.0779796034
31
0.0000000000
11
-29.3972875162
21
-42.0769124881
31
0.0000000000
11
-28.1435246682
21
-42.0760738333
31
0.0000000000
11
-26.9182774707
21
-42.0754945811
31
0.0000000000
11
-25.7882000051
21
-42.0751515979
31
0.0000000000
11
-24.7666855993
21
-42.0749730882
31
0.0000000000
11
-23.8468136660
21
-42.0748980221
31
0.0000000000
11
-23.0193848511
21
-42.0748814725
31
0.0000000000
11
-22.2752967641
21
-42.0748893408
31
0.0000000000
11
-21.6056439513
21
-42.0749009374
31
0.0000000000
11
-21.0009838932
21
-42.0749058302
31
0.0000000000
0
SPLINE
5
3EE
100
AcDbEntity
8
0
100
AcDbSpline
62
9
6
CONTINUOUS
70
0
71
3
72
30
73
26
74
24
42
0.0000001000
43
0.0000001000
44
0.0000000001
12
19.1793473185
22
-0.1324310319
32
0.0000000000
13
19.1798044318
23
0.0018707534
33
0.0000000000
40
0.0000000000
40
0.0000000000
40
0.0000000000
40
0.0000000000
40
0.0211896247
40
0.0443805230
40
0.0698417590
40
0.0978216893
40
0.1285588682
40
0.1622803584
40
0.1991829421
40
0.2393629299
40
0.2828579783
40
0.3297671173
40
0.3806052909
40
0.4360430574
40
0.4960932774
40
0.5599425934
40
0.6259213234
40
0.6903563579
40
0.7497182344
40
0.8033010366
40
0.8514917768
40
0.8947655281
40
0.9336111934
40
0.9685185941
40
1.0000000000
40
1.0000000000
40
1.0000000000
40
1.0000000000
10
-40.1807253225
20
-41.1588259927
30
0.0000000000
10
-40.0452575983
20
-41.1597613807
30
0.0000000000
10
-39.7615278087
20
-41.1617249885
30
0.0000000000
10
-39.3150209748
20
-41.1647530994
30
0.0000000000
10
-38.8251016109
20
-41.1678814133
30
0.0000000000
10
-38.2869366286
20
-41.1711240600
30
0.0000000000
10
-37.6959606098
20
-41.1743465463
30
0.0000000000
10
-37.0479377856
20
-41.1773451981
30
0.0000000000
10
-36.3395425751
20
-41.1799907048
30
0.0000000000
10
-35.5686610846
20
-41.1823582786
30
0.0000000000
10
-34.7338034616
20
-41.1842388010
30
0.0000000000
10
-33.8308042262
20
-41.1856524895
30
0.0000000000
10
-32.8514514429
20
-41.1866828573
30
0.0000000000
10
-31.7880838310
20
-41.1873047229
30
0.0000000000
10
-30.6415323384
20
-41.1873911391
30
0.0000000000
10
-29.4275896576
20
-41.1871545589
30
0.0000000000
10
-28.1856139355
20
-41.1863145785
30
0.0000000000
10
-26.9723278847
20
-41.1851902416
30
0.0000000000
10
-25.8382925595
20
-41.1838755585
30
0.0000000000
10
-24.8081115655
20
-41.1824744680
30
0.0000000000
10
-23.8807860641
20
-41.1812984527
30
0.0000000000
10
-23.0476788805
20
-41.1803014386
30
0.0000000000
10
-22.2994954088
20
-41.1795632424
30
0.0000000000
10
-21.6267033468
20
-41.1791127332
30
0.0000000000
10
-21.2022619098
20
-41.1789845652
30
0.0000000000
10
-21.0009928400
20
-41.1789649339
30
0.0000000000
11
-40.1807253225
21
-41.1588259927
31
0.0000000000
11
-39.7743221176
21
-41.1616274579
31
0.0000000000
11
-39.3295353347
21
-41.1646266508
31
0.0000000000
11
-38.8412037970
21
-41.1677506768
31
0.0000000000
11
-38.3045638547
21
-41.1709690445
31
0.0000000000
11
-37.7150394351
21
-41.1741651651
31
0.0000000000
11
-37.0682747742
21
-41.1771591787
31
0.0000000000
11
-36.3604955007
21
-41.1798375431
31
0.0000000000
11
-35.5898547869
21
-41.1821921932
31
0.0000000000
11
-34.7556304365
21
-41.1840977295
31
0.0000000000
11
-33.8559234752
21
-41.1855392654
31
0.0000000000
11
-32.8808577971
21
-41.1865792671
31
0.0000000000
11
-31.8175724547
21
-41.1872008038
31
0.0000000000
11
-30.6658209816
21
-41.1873390211
31
0.0000000000
11
-29.4412036128
21
-41.1870605604
31
0.0000000000
11
-28.1757447270
21
-41.1862544750
31
0.0000000000
11
-26.9398938893
21
-41.1851103103
31
0.0000000000
11
-25.8013454645
21
-41.1837926834
31
0.0000000000
11
-24.7736386768
21
-41.1824441518
31
0.0000000000
11
-23.8493504467
21
-41.1812701832
31
0.0000000000
11
-23.0193689245
21
-41.1802981879
31
0.0000000000
11
-22.2743170033
21
-41.1795798708
31
0.0000000000
11
-21.6048000264
21
-41.1791412074
31
0.0000000000
11
-21.0009928400
21
-41.1789649339
31
0.0000000000
0
SPLINE
5
3EF
100
AcDbEntity
8
0
100
AcDbSpline
62
9
6
CONTINUOUS
70
0
71
3
72
11
73
7
74
5
42
0.0000001000
43
0.0000001000
44
0.0000000001
12
-0.7312634473
22
0.0034062567
32
0.0000000000
13
-0.5434847310
23
0.4892669815
33
0.0000000000
40
0.0000000000
40
0.0000000000
40
0.0000000000
40
0.0000000000
40
0.3959797903
40
0.7143160822
40
0.9226648432
40
1.0000000000
40
1.0000000000
40
1.0000000000
40
1.0000000000
10
-42.8751391902
20
-38.5050511602
30
0.0000000000
10
-42.9716610391
20
-38.5046015573
30
0.0000000000
10
-43.1443239840
20
-38.5004346060
30
0.0000000000
10
-43.3741069343
20
-38.5072066233
30
0.0000000000
10
-43.5118675876
20
-38.4845552282
30
0.0000000000
10
-43.5920847757
20
-38.5026125122
30
0.0000000000
10
-43.6060949347
20
-38.4899999993
30
0.0000000000
11
-42.8751391902
21
-38.5050511602
31
0.0000000000
11
-43.1646996882
21
-38.5028733125
31
0.0000000000
11
-43.3974637889
21
-38.4993862207
31
0.0000000000
11
-43.5497585178
21
-38.4949445371
31
0.0000000000
11
-43.6060949347
21
-38.4899999993
31
0.0000000000
0
SPLINE
5
3F0
100
AcDbEntity
8
0
100
AcDbSpline
62
9
6
CONTINUOUS
70
0
71
3
72
18
73
14
74
12
42
0.0000001000
43
0.0000001000
44
0.0000000001
12
-0.0009231322
22
-5.6690536358
32
0.0000000000
13
5.6690365281
23
0.0139578379
33
0.0000000000
40
0.0000000000
40
0.0000000000
40
0.0000000000
40
0.0000000000
40
0.1039114242
40
0.2285903708
40
0.3539634315
40
0.4678472534
40
0.5692250774
40
0.6593189550
40
0.7403729087
40
0.8146341666
40
0.8829700443
40
0.9450369012
40
1.0000000000
40
1.0000000000
40
1.0000000000
40
1.0000000000
10
-43.6061049150
20
-38.4900000000
30
0.0000000000
10
-43.6061368896
20
-38.6863598125
30
0.0000000000
10
-43.5708046010
20
-39.1190709727
30
0.0000000000
10
-43.3966880659
20
-39.7693213397
30
0.0000000000
10
-43.0902519247
20
-40.3900768369
30
0.0000000000
10
-42.7001989876
20
-40.9064549812
30
0.0000000000
10
-42.2780009628
20
-41.3033696518
30
0.0000000000
10
-41.8527047183
20
-41.5968166574
30
0.0000000000
10
-41.4380037783
20
-41.8071689903
30
0.0000000000
10
-41.0397102713
20
-41.9513551288
30
0.0000000000
10
-40.6628812546
20
-42.0416721324
30
0.0000000000
10
-40.3151466388
20
-42.0881047321
30
0.0000000000
10
-40.0938626050
20
-42.0971243262
30
0.0000000000
10
-39.9900000000
20
-42.0968686041
30
0.0000000000
11
-43.6061049150
21
-38.4900000000
31
0.0000000000
11
-43.5580801485
21
-39.0771185695
31
0.0000000000
11
-43.3752650050
21
-39.7598786476
31
0.0000000000
11
-43.0606671354
21
-40.3972081784
31
0.0000000000
11
-42.6715652208
21
-40.9123940628
31
0.0000000000
11
-42.2528487319
21
-41.3060631641
31
0.0000000000
11
-41.8324668354
21
-41.5961348637
31
0.0000000000
11
-41.4226745273
21
-41.8040045225
31
0.0000000000
11
-41.0268244479
21
-41.9473090475
31
0.0000000000
11
-40.6500950262
21
-42.0376058782
31
0.0000000000
11
-40.3013301200
21
-42.0841756406
31
0.0000000000
11
-39.9900000000
21
-42.0968686041
31
0.0000000000
0
SPLINE
5
3F1
100
AcDbEntity
8
0
100
AcDbSpline
62
9
6
CONTINUOUS
70
0
71
3
72
18
73
14
74
12
42
0.0000001000
43
0.0000001000
44
0.0000000001
12
0.0177588853
22
-4.1850516982
32
0.0000000000
13
4.1849898142
23
-0.0288677989
33
0.0000000000
40
0.0000000000
40
0.0000000000
40
0.0000000000
40
0.0000000000
40
0.1025494741
40
0.2260211243
40
0.3508451070
40
0.4648261525
40
0.5666852080
40
0.6574104429
40
0.7390912364
40
0.8138880999
40
0.8826220259
40
0.9449325419
40
1.0000000000
40
1.0000000000
40
1.0000000000
40
1.0000000000
10
-42.8751391902
20
-38.5050511602
30
0.0000000000
10
-42.8745321355
20
-38.6481094438
30
0.0000000000
10
-42.8467449253
20
-38.9638592445
30
0.0000000000
10
-42.7148438709
20
-39.4385219447
30
0.0000000000
10
-42.4847799071
20
-39.8922560312
30
0.0000000000
10
-42.1932655580
20
-40.2707145698
30
0.0000000000
10
-41.8785084878
20
-40.5628076871
30
0.0000000000
10
-41.5619711551
20
-40.7798859485
30
0.0000000000
10
-41.2537438545
20
-40.9365121104
30
0.0000000000
10
-40.9581034821
20
-41.0448217261
30
0.0000000000
10
-40.6787636850
20
-41.1136352511
30
0.0000000000
10
-40.4213177171
20
-41.1501233769
30
0.0000000000
10
-40.2575442443
20
-41.1582961022
30
0.0000000000
10
-40.1807253272
20
-41.1588259943
30
0.0000000000
11
-42.8751391902
21
-38.5050511602
31
0.0000000000
11
-42.8375448953
21
-38.9325801513
31
0.0000000000
11
-42.6994437710
21
-39.4305241188
31
0.0000000000
11
-42.4634960866
21
-39.8966034609
31
0.0000000000
11
-42.1725999502
21
-40.2746621090
31
0.0000000000
11
-41.8602131857
21
-40.5647259550
31
0.0000000000
11
-41.5471055327
21
-40.7795061605
31
0.0000000000
11
-41.2423523466
21
-40.9343643306
31
0.0000000000
11
-40.9484161904
21
-41.0420225525
31
0.0000000000
11
-40.6691013625
21
-41.1107985333
31
0.0000000000
11
-40.4109022292
21
-41.1473614794
31
0.0000000000
11
-40.1807253272
21
-41.1588259943
31
0.0000000000
0
SPLINE
5
3F2
100
AcDbEntity
8
0
100
AcDbSpline
62
9
6
CONTINUOUS
70
0
71
3
72
11
73
7
74
5
42
0.0000001000
43
0.0000001000
44
0.0000000001
12
-0.6829771983
22
0.0001887936
32
0.0000000000
13
-0.6829761657
23
0.0012025632
33
0.0000000000
40
0.0000000000
40
0.0000000000
40
0.0000000000
40
0.0000000000
40
0.3988434914
40
0.7166253270
40
0.9234892585
40
1.0000000000
40
1.0000000000
40
1.0000000000
40
1.0000000000
10
-42.9216905070
20
0.0004638743
30
0.0000000000
10
-43.0124908438
20
0.0004889740
30
0.0000000000
10
-43.1756370898
20
0.0005360347
30
0.0000000000
10
-43.3858778244
20
0.0005485020
30
0.0000000000
10
-43.5227365042
20
0.0006181816
30
0.0000000000
10
-43.5872493794
20
0.0005713075
30
0.0000000000
10
-43.6046677170
20
0.0006019772
30
0.0000000000
11
-42.9216905070
21
0.0004638743
31
0.0000000000
11
-43.1940915198
21
0.0005297774
31
0.0000000000
11
-43.4111292722
21
0.0005697114
31
0.0000000000
11
-43.5524126243
21
0.0005908079
31
0.0000000000
11
-43.6046677170
21
0.0006019772
31
0.0000000000
0
SPLINE
5
3F3
100
AcDbEntity
8
0
100
AcDbSpline
62
9
6
CONTINUOUS
70
0
71
3
72
34
73
30
74
28
42
0.0000001000
43
0.0000001000
44
0.0000000001
12
0.0002344452
22
-38.4906020447
32
0.0000000000
13
-0.0105514883
23
-38.4906005992
33
0.0000000000
40
0.0000000000
40
0.0000000000
40
0.0000000000
40
0.0000000000
40
0.0463152670
40
0.0970016086
40
0.1524424437
40
0.2121966564
40
0.2774074702
40
0.3477960697
40
0.4158477502
40
0.4788451663
40
0.5361855960
40
0.5874016115
40
0.6330822542
40
0.6741236798
40
0.7114216677
40
0.7456800263
40
0.7771968149
40
0.8061556882
40
0.8327239381
40
0.8570635531
40
0.8793306416
40
0.8996735713
40
0.9182349853
40
0.9351547269
40
0.9505714321
40
0.9646237768
40
0.9774514660
40
0.9891944815
40
1.0000000000
40
1.0000000000
40
1.0000000000
40
1.0000000000
10
-43.6046677170
20
0.0006019772
30
0.0000000000
10
-43.6046640975
20
-0.5936321927
30
0.0000000000
10
-43.6046774338
20
-1.8381822973
30
0.0000000000
10
-43.6047436406
20
-3.7940494413
30
0.0000000000
10
-43.6048485291
20
-5.9223409543
30
0.0000000000
10
-43.6049803418
20
-8.2369843595
30
0.0000000000
10
-43.6051270714
20
-10.7434105811
30
0.0000000000
10
-43.6052705066
20
-13.3562949795
30
0.0000000000
10
-43.6053847497
20
-15.9407810433
30
0.0000000000
10
-43.6054634661
20
-18.3578564707
30
0.0000000000
10
-43.6055109239
20
-20.5589269389
30
0.0000000000
10
-43.6055305325
20
-22.5378197290
30
0.0000000000
10
-43.6055321233
20
-24.3075930250
30
0.0000000000
10
-43.6055237196
20
-25.8987952351
30
0.0000000000
10
-43.6055102164
20
-27.3434472472
30
0.0000000000
10
-43.6054949973
20
-28.6658962557
30
0.0000000000
10
-43.6054823076
20
-29.8813527501
30
0.0000000000
10
-43.6054755230
20
-30.9981436065
30
0.0000000000
10
-43.6054771044
20
-32.0228498858
30
0.0000000000
10
-43.6054887491
20
-32.9616992222
30
0.0000000000
10
-43.6055116956
20
-33.8206764508
30
0.0000000000
10
-43.6055466963
20
-34.6055182006
30
0.0000000000
10
-43.6055939307
20
-35.3217524165
30
0.0000000000
10
-43.6056531043
20
-35.9747821831
30
0.0000000000
10
-43.6057235730
20
-36.5699596843
30
0.0000000000
10
-43.6058044823
20
-37.1126353295
30
0.0000000000
10
-43.6058947680
20
-37.6081767964
30
0.0000000000
10
-43.6059933846
20
-38.0620608284
30
0.0000000000
10
-43.6060669102
20
-38.3513630350
30
0.0000000000
10
-43.6061049150
20
-38.4900000000
30
0.0000000000
11
-43.6046677170
21
0.0006019772
31
0.0000000000
11
-43.6046833968
21
-1.7821005324
31
0.0000000000
11
-43.6047463689
21
-3.7330483352
31
0.0000000000
11
-43.6048484255
21
-5.8669994543
31
0.0000000000
11
-43.6049769393
21
-8.1669750721
31
0.0000000000
11
-43.6051217154
21
-10.6769785518
31
0.0000000000
11
-43.6052672431
21
-13.3862781202
31
0.0000000000
11
-43.6053823402
21
-16.0056282683
31
0.0000000000
11
-43.6054611730
21
-18.4304367430
31
0.0000000000
11
-43.6055080900
21
-20.6375044018
31
0.0000000000
11
-43.6055281068
21
-22.6088396725
31
0.0000000000
11
-43.6055302689
21
-24.3671151128
31
0.0000000000
11
-43.6055223444
21
-25.9468242899
31
0.0000000000
11
-43.6055093128
21
-27.3824463025
31
0.0000000000
11
-43.6054948370
21
-28.7010711494
31
0.0000000000
11
-43.6054828849
21
-29.9141713152
31
0.0000000000
11
-43.6054768129
21
-31.0288157857
31
0.0000000000
11
-43.6054790805
21
-32.0514437185
31
0.0000000000
11
-43.6054914128
21
-32.9882901531
31
0.0000000000
11
-43.6055150248
21
-33.8453637946
31
0.0000000000
11
-43.6055506298
21
-34.6283754040
31
0.0000000000
11
-43.6055983927
21
-35.3428154018
31
0.0000000000
11
-43.6056580078
21
-35.9940664419
31
0.0000000000
11
-43.6057288217
21
-36.5874647029
31
0.0000000000
11
-43.6058099450
21
-37.1283479046
31
0.0000000000
11
-43.6059003175
21
-37.6220933768
31
0.0000000000
11
-43.6059988915
21
-38.0740891028
31
0.0000000000
11
-43.6061049150
21
-38.4900000000
31
0.0000000000
0
SPLINE
5
3F4
100
AcDbEntity
8
0
100
AcDbSpline
62
9
6
CONTINUOUS
70
0
71
3
72
34
73
30
74
28
42
0.0000001000
43
0.0000001000
44
0.0000000001
12
0.0056832151
22
-38.5055537184
32
0.0000000000
13
0.1607846116
23
-38.5052184485
33
0.0000000000
40
0.0000000000
40
0.0000000000
40
0.0000000000
40
0.0000000000
40
0.0463369841
40
0.0970316839
40
0.1524681173
40
0.2122062775
40
0.2773912181
40
0.3477420269
40
0.4157497309
40
0.4787051415
40
0.5360057167
40
0.5871857236
40
0.6328367701
40
0.6738540816
40
0.7111323428
40
0.7453760612
40
0.7768839291
40
0.8058395911
40
0.8324102629
40
0.8567579828
40
0.8790390592
40
0.8994018029
40
0.9179886190
40
0.9349390425
40
0.9503913804
40
0.9644837140
40
0.9773550408
40
0.9891448472
40
1.0000000000
40
1.0000000000
40
1.0000000000
40
1.0000000000
10
-42.9216905070
20
0.0004638743
30
0.0000000000
10
-42.9216027260
20
-0.5942798697
30
0.0000000000
10
-42.9213325245
20
-1.8396994301
30
0.0000000000
10
-42.9206523516
20
-3.7966557660
30
0.0000000000
10
-42.9196499087
20
-5.9256185539
30
0.0000000000
10
-42.9183020704
20
-8.2405661031
30
0.0000000000
10
-42.9165580251
20
-10.7469422005
30
0.0000000000
10
-42.9144553266
20
-13.3594591797
30
0.0000000000
10
-42.9121062065
20
-15.9433595092
30
0.0000000000
10
-42.9096401618
20
-18.3597574879
30
0.0000000000
10
-42.9072386212
20
-20.5601688113
30
0.0000000000
10
-42.9049631109
20
-22.5384754276
30
0.0000000000
10
-42.9027776472
20
-24.3077833048
30
0.0000000000
10
-42.9007179041
20
-25.8986597242
30
0.0000000000
10
-42.8987845009
20
-27.3431210199
30
0.0000000000
10
-42.8969335320
20
-28.6655268494
30
0.0000000000
10
-42.8951259097
20
-29.8811105324
30
0.0000000000
10
-42.8933709381
20
-30.9982092101
30
0.0000000000
10
-42.8916636212
20
-32.0234060234
30
0.0000000000
10
-42.8900003833
20
-32.9629332467
30
0.0000000000
10
-42.8883581835
20
-33.8227804718
30
0.0000000000
10
-42.8867291599
20
-34.6086853138
30
0.0000000000
10
-42.8851050279
20
-35.3261700916
30
0.0000000000
10
-42.8834783389
20
-35.9806287218
30
0.0000000000
10
-42.8818419506
20
-36.5773996179
30
0.0000000000
10
-42.8801909274
20
-37.1218142951
30
0.0000000000
10
-42.8785392514
20
-37.6192194653
30
0.0000000000
10
-42.8768791758
20
-38.0750745418
30
0.0000000000
10
-42.8757208139
20
-38.3657244752
30
0.0000000000
10
-42.8751390334
20
-38.5050511514
30
0.0000000000
11
-42.9216905070
21
0.0004638743
31
0.0000000000
11
-42.9213075637
21
-1.7837673361
31
0.0000000000
11
-42.9206351851
21
-3.7357947251
31
0.0000000000
11
-42.9196377634
21
-5.8704050827
31
0.0000000000
11
-42.9183011181
21
-8.1706556560
31
0.0000000000
11
-42.9165602980
21
-10.6806373107
31
0.0000000000
11
-42.9143832425
21
-13.3895333122
31
0.0000000000
11
-42.9119967521
21
-16.0082065518
31
0.0000000000
11
-42.9095361147
21
-18.4323382752
31
0.0000000000
11
-42.9071300293
21
-20.6387273641
31
0.0000000000
11
-42.9048519800
21
-22.6094405734
31
0.0000000000
11
-42.9026858155
21
-24.3672580811
31
0.0000000000
11
-42.9006436962
21
-25.9466510680
31
0.0000000000
11
-42.8987171047
21
-27.3820698825
31
0.0000000000
11
-42.8968643883
21
-28.7006419338
31
0.0000000000
11
-42.8950595019
21
-29.9138685016
31
0.0000000000
11
-42.8933045618
21
-31.0288209337
31
0.0000000000
11
-42.8915974304
21
-32.0519379503
31
0.0000000000
11
-42.8899306484
21
-32.9894589147
31
0.0000000000
11
-42.8882868135
21
-33.8474025324
31
0.0000000000
11
-42.8866558351
21
-34.6314795675
31
0.0000000000
11
-42.8850297960
21
-35.3471733754
31
0.0000000000
11
-42.8834013518
21
-35.9998567902
31
0.0000000000
11
-42.8817639428
21
-36.5948553730
31
0.0000000000
11
-42.8801161817
21
-37.1374859847
31
0.0000000000
11
-42.8784654713
21
-37.6331008061
31
0.0000000000
11
-42.8768084075
21
-38.0870708124
31
0.0000000000
11
-42.8751390334
21
-38.5050511514
31
0.0000000000
0
SPLINE
5
3F5
100
AcDbEntity
8
0
100
AcDbSpline
62
9
6
CONTINUOUS
70
0
71
3
72
11
73
7
74
5
42
0.0000001000
43
0.0000001000
44
0.0000000001
12
-0.7470727427
22
-0.0201686621
32
0.0000000000
13
-0.1371312587
23
-0.7346560255
33
0.0000000000
40
0.0000000000
40
0.0000000000
40
0.0000000000
40
0.0000000000
40
0.3905808092
40
0.7057994513
40
0.9143799059
40
1.0000000000
40
1.0000000000
40
1.0000000000
40
1.0000000000
10
-42.8780769872
20
38.5793489250
30
0.0000000000
10
-42.9753410793
20
38.5767230943
30
0.0000000000
10
-43.1479321146
20
38.5686561605
30
0.0000000000
10
-43.3856285498
20
38.5528352244
30
0.0000000000
10
-43.5151741055
20
38.5257651264
30
0.0000000000
10
-43.6108915391
20
38.5109671060
30
0.0000000000
10
-43.6148052695
20
38.4900000000
30
0.0000000000
11
-42.8780769872
21
38.5793489250
31
0.0000000000
11
-43.1696937657
21
38.5665254315
31
0.0000000000
11
-43.4043614356
21
38.5458461086
31
0.0000000000
11
-43.5579890636
21
38.5194338262
31
0.0000000000
11
-43.6148052695
21
38.4900000000
31
0.0000000000
0
SPLINE
5
3F6
100
AcDbEntity
8
0
100
AcDbSpline
62
9
6
CONTINUOUS
70
0
71
3
72
17
73
13
74
11
42
0.0000001000
43
0.0000001000
44
0.0000000001
12
0.0628292203
22
-38.4893495463
32
0.0000000000
13
-0.0010952982
23
-38.4894008113
33
0.0000000000
40
0.0000000000
40
0.0000000000
40
0.0000000000
40
0.0000000000
40
0.0655152355
40
0.1389571809
40
0.2199624580
40
0.3084774501
40
0.4048044729
40
0.5092073873
40
0.6221562281
40
0.7451317506
40
0.8759745245
40
1.0000000000
40
1.0000000000
40
1.0000000000
40
1.0000000000
10
-43.6148052695
20
38.4900000000
30
0.0000000000
10
-43.6134331791
20
37.6494537336
30
0.0000000000
10
-43.6114616368
20
35.8666617191
30
0.0000000000
10
-43.6099212540
20
33.0445876986
30
0.0000000000
10
-43.6090902893
20
29.9274310968
30
0.0000000000
10
-43.6085862234
20
26.5166634744
30
0.0000000000
10
-43.6081515567
20
22.8057088258
30
0.0000000000
10
-43.6076207530
20
18.7812727882
30
0.0000000000
10
-43.6068904542
20
14.4149418474
30
0.0000000000
10
-43.6059423842
20
9.7093928238
30
0.0000000000
10
-43.6049597433
20
4.8617327979
30
0.0000000000
10
-43.6046224354
20
1.5918240564
30
0.0000000000
10
-43.6046677170
20
0.0006019772
30
0.0000000000
11
-43.6148052695
21
38.4900000000
31
0.0000000000
11
-43.6117960453
21
35.9683596366
31
0.0000000000
11
-43.6100993405
21
33.1416236732
31
0.0000000000
11
-43.6091749677
21
30.0237792285
31
0.0000000000
11
-43.6086177068
21
26.6168902651
31
0.0000000000
11
-43.6081549365
21
22.9093209020
31
0.0000000000
11
-43.6076124626
21
18.8909153194
31
0.0000000000
11
-43.6068882280
21
14.5435821740
31
0.0000000000
11
-43.6059617841
21
9.8103280869
31
0.0000000000
11
-43.6050278047
21
4.7742682033
31
0.0000000000
11
-43.6046677170
21
0.0006019772
31
0.0000000000
0
SPLINE
5
3F7
100
AcDbEntity
8
0
100
AcDbSpline
62
9
6
CONTINUOUS
70
0
71
3
72
17
73
13
74
11
42
0.0000001000
43
0.0000001000
44
0.0000000001
12
-0.5182120984
22
-38.5755887284
32
0.0000000000
13
0.0024193288
23
-38.5790692432
33
0.0000000000
40
0.0000000000
40
0.0000000000
40
0.0000000000
40
0.0000000000
40
0.0664977162
40
0.1403754704
40
0.2214768452
40
0.3098933384
40
0.4060088330
40
0.5101322064
40
0.6227670880
40
0.7454288418
40
0.8760339817
40
1.0000000000
40
1.0000000000
40
1.0000000000
40
1.0000000000
10
-42.8780769872
20
38.5793489250
30
0.0000000000
10
-42.8895636276
20
37.7242860750
30
0.0000000000
10
-42.9066744598
20
35.9191677630
30
0.0000000000
10
-42.9200064517
20
33.0710717297
30
0.0000000000
10
-42.9273155661
20
29.9410865379
30
0.0000000000
10
-42.9312442309
20
26.5251258615
30
0.0000000000
10
-42.9330700304
20
22.8131077285
30
0.0000000000
10
-42.9332671877
20
18.7896482783
30
0.0000000000
10
-42.9318312889
20
14.4248124006
30
0.0000000000
10
-42.9285517213
20
9.7194301082
30
0.0000000000
10
-42.9239185711
20
4.8683342103
30
0.0000000000
10
-42.9217913795
20
1.5946284046
30
0.0000000000
10
-42.9216914079
20
0.0004638695
30
0.0000000000
11
-42.8780769872
21
38.5793489250
31
0.0000000000
11
-42.9038313605
21
36.0140582014
31
0.0000000000
11
-42.9185092555
21
33.1639609939
31
0.0000000000
11
-42.9265045715
21
30.0351556517
31
0.0000000000
11
-42.9307717710
21
26.6241323003
31
0.0000000000
11
-42.9327566337
21
22.9160865031
31
0.0000000000
11
-42.9330187099
21
18.8991036702
31
0.0000000000
11
-42.9316185410
21
14.5537549914
31
0.0000000000
11
-42.9284257470
21
9.8215797668
31
0.0000000000
11
-42.9241000909
21
4.7829568775
31
0.0000000000
11
-42.9216914079
21
0.0004638695
31
0.0000000000
0
SPLINE
5
3F8
100
AcDbEntity
8
0
100
AcDbSpline
62
9
6
CONTINUOUS
70
0
71
3
72
11
73
7
74
5
42
0.0000001000
43
0.0000001000
44
0.0000000001
12
0.0266240394
22
0.7782876642
32
0.0000000000
13
0.7718249376
23
0.1035702348
33
0.0000000000
40
0.0000000000
40
0.0000000000
40
0.0000000000
40
0.0000000000
40
0.3852287154
40
0.6982115538
40
0.9076556910
40
1.0000000000
40
1.0000000000
40
1.0000000000
40
1.0000000000
10
-40.1145903607
20
41.3539263269
30
0.0000000000
10
-40.1111715792
20
41.4538659126
30
0.0000000000
10
-40.1014586197
20
41.6324314447
30
0.0000000000
10
-40.0752859280
20
41.8752915294
30
0.0000000000
10
-40.0453030606
20
42.0150662010
30
0.0000000000
10
-40.0137578785
20
42.1098398174
30
0.0000000000
10
-39.9899999983
20
42.1130278579
30
0.0000000000
11
-40.1145903607
21
41.3539263269
31
0.0000000000
11
-40.0972815151
21
41.6534207068
31
0.0000000000
11
-40.0685623518
21
41.8954559662
31
0.0000000000
11
-40.0314874254
21
42.0542894748
31
0.0000000000
11
-39.9899999983
21
42.1130278579
31
0.0000000000
0
SPLINE
5
3F9
100
AcDbEntity
8
0
100
AcDbSpline
62
9
6
CONTINUOUS
70
0
71
3
72
15
73
11
74
9
42
0.0000001000
43
0.0000001000
44
0.0000000001
12
-5.6851472096
22
0.0089951073
32
0.0000000000
13
0.0062320762
23
-5.6851509099
33
0.0000000000
40
0.0000000000
40
0.0000000000
40
0.0000000000
40
0.0000000000
40
0.1147471385
40
0.2373144883
40
0.3642769081
40
0.4924372808
40
0.6198260860
40
0.7473216688
40
0.8742367360
40
1.0000000000
40
1.0000000000
40
1.0000000000
40
1.0000000000
10
-39.9900000000
20
42.1130421103
30
0.0000000000
10
-40.2074514581
20
42.1133861646
30
0.0000000000
10
-40.6582592465
20
42.0733596244
30
0.0000000000
10
-41.3265278244
20
41.8844179368
30
0.0000000000
10
-41.9683921429
20
41.5569579117
30
0.0000000000
10
-42.5393153815
20
41.1023568122
30
0.0000000000
10
-43.0086371559
20
40.5422454123
30
0.0000000000
10
-43.3558986846
20
39.9018898121
30
0.0000000000
10
-43.5680040729
20
39.2085648692
30
0.0000000000
10
-43.6150665249
20
38.7283277117
30
0.0000000000
10
-43.6148052695
20
38.4900000000
30
0.0000000000
11
-39.9900000000
21
42.1130421103
31
0.0000000000
11
-40.6397910447
21
42.0552589521
31
0.0000000000
11
-41.3103338336
21
41.8657265390
31
0.0000000000
11
-41.9532848135
21
41.5376859183
31
0.0000000000
11
-42.5232850724
21
41.0838418719
31
0.0000000000
11
-42.9884063687
21
40.5287166115
31
0.0000000000
11
-43.3339603907
21
39.8915557692
31
0.0000000000
11
-43.5449544001
21
39.2015633167
31
0.0000000000
11
-43.6148052695
21
38.4900000000
31
0.0000000000
0
SPLINE
5
3FA
100
AcDbEntity
8
0
100
AcDbSpline
62
9
6
CONTINUOUS
70
0
71
3
72
15
73
11
74
9
42
0.0000001000
43
0.0000001000
44
0.0000000001
12
-4.3087804352
22
-0.0865586817
32
0.0000000000
13
-0.0586764180
23
-4.3092503202
33
0.0000000000
40
0.0000000000
40
0.0000000000
40
0.0000000000
40
0.0000000000
40
0.1132975228
40
0.2356292555
40
0.3635947765
40
0.4934109523
40
0.6222366883
40
0.7502518883
40
0.8763503933
40
1.0000000000
40
1.0000000000
40
1.0000000000
40
1.0000000000
10
-40.1145903607
20
41.3539263269
30
0.0000000000
10
-40.2773150772
20
41.3506573655
30
0.0000000000
10
-40.6158581551
20
41.3123665532
30
0.0000000000
10
-41.1178112644
20
41.1572868437
30
0.0000000000
10
-41.6025086655
20
40.8985106443
30
0.0000000000
10
-42.0365387555
20
40.5466256635
30
0.0000000000
10
-42.3964516001
20
40.1191843520
30
0.0000000000
10
-42.6659381340
20
39.6356128945
30
0.0000000000
10
-42.8343450170
20
39.1161942368
30
0.0000000000
10
-42.8756574529
20
38.7569609222
30
0.0000000000
10
-42.8780758915
20
38.5793485530
30
0.0000000000
11
-40.1145903607
21
41.3539263269
31
0.0000000000
11
-40.5998147703
21
41.2994520420
31
0.0000000000
11
-41.1037324761
21
41.1444872474
31
0.0000000000
11
-41.5904630742
21
40.8851982727
31
0.0000000000
11
-42.0251515884
21
40.5329995942
31
0.0000000000
11
-42.3825317073
21
40.1081235987
31
0.0000000000
11
-42.6506528721
21
39.6259569467
31
0.0000000000
11
-42.8175854194
21
39.1087906418
31
0.0000000000
11
-42.8780758915
21
38.5793485530
31
0.0000000000
0
SPLINE
5
3FB
100
AcDbEntity
8
0
100
AcDbSpline
62
9
6
CONTINUOUS
70
0
71
3
72
25
73
21
74
19
42
0.0000001000
43
0.0000001000
44
0.0000000001
12
-39.9943645962
22
0.0000886365
32
0.0000000000
13
-39.9942616537
23
0.0907426706
33
0.0000000000
40
0.0000000000
40
0.0000000000
40
0.0000000000
40
0.0000000000
40
0.0512295399
40
0.1069437770
40
0.1674179550
40
0.2340494087
40
0.3075072882
40
0.3850587419
40
0.4636447948
40
0.5391874576
40
0.6074223639
40
0.6675632582
40
0.7215792586
40
0.7708543240
40
0.8155324745
40
0.8553853486
40
0.8915657573
40
0.9259705198
40
0.9609636921
40
1.0000000000
40
1.0000000000
40
1.0000000000
40
1.0000000000
10
0.0043594860
20
42.1047391915
30
0.0000000000
10
-0.6786048123
20
42.1047407051
30
0.0000000000
10
-2.1043209489
20
42.1047450553
30
0.0000000000
10
-4.3362458599
20
42.1047537222
30
0.0000000000
10
-6.7735006899
20
42.1047616810
30
0.0000000000
10
-9.4473040872
20
42.1047631302
30
0.0000000000
10
-12.3487724139
20
42.1047536457
30
0.0000000000
10
-15.4096129404
20
42.1047292674
30
0.0000000000
10
-18.4982466607
20
42.1046833935
30
0.0000000000
10
-21.4626772513
20
42.1046327706
30
0.0000000000
10
-24.1812070426
20
42.1046048237
30
0.0000000000
10
-26.6127551062
20
42.1046229380
30
0.0000000000
10
-28.7915409037
20
42.1047286522
30
0.0000000000
10
-30.7641858212
20
42.1049595118
30
0.0000000000
10
-32.5480156306
20
42.1053601641
30
0.0000000000
10
-34.1572745458
20
42.1059788821
30
0.0000000000
10
-35.6295741084
20
42.1068673540
30
0.0000000000
10
-37.0370864904
20
42.1081310749
30
0.0000000000
10
-38.4826715273
20
42.1100089177
30
0.0000000000
10
-39.4695905621
20
42.1118613573
30
0.0000000000
10
-39.9900000000
20
42.1130421103
30
0.0000000000
11
0.0043594860
21
42.1047391915
31
0.0000000000
11
-2.0445334090
21
42.1047451451
31
0.0000000000
11
-4.2727889236
21
42.1047532558
31
0.0000000000
11
-6.6914152469
21
42.1047603683
31
0.0000000000
11
-9.3562978992
21
42.1047614708
31
0.0000000000
11
-12.2941991156
21
42.1047515872
31
0.0000000000
11
-15.3958202268
21
42.1047258402
31
0.0000000000
11
-18.5388194787
21
42.1046816027
31
0.0000000000
11
-21.5601002766
21
42.1046347033
31
0.0000000000
11
-24.2891119990
21
42.1046122870
31
0.0000000000
11
-26.6944088524
21
42.1046408940
31
0.0000000000
11
-28.8547444633
21
42.1047575187
31
0.0000000000
11
-30.8254693775
21
42.1050037450
31
0.0000000000
11
-32.6123435703
21
42.1054249418
31
0.0000000000
11
-34.2062338202
21
42.1060586884
31
0.0000000000
11
-35.6532459989
21
42.1069544205
31
0.0000000000
11
-37.0292420371
21
42.1082152552
31
0.0000000000
11
-38.4287705038
21
42.1100663512
31
0.0000000000
11
-39.9900000000
21
42.1130421103
31
0.0000000000
0
SPLINE
5
3FC
100
AcDbEntity
8
0
100
AcDbSpline
62
9
6
CONTINUOUS
70
0
71
3
72
25
73
21
74
19
42
0.0000001000
43
0.0000001000
44
0.0000000001
12
-40.1194329921
22
-0.0014842452
32
0.0000000000
13
-40.1114368404
23
-0.8009621766
33
0.0000000000
40
0.0000000000
40
0.0000000000
40
0.0000000000
40
0.0000000000
40
0.0510712172
40
0.1066117282
40
0.1668949864
40
0.2333139597
40
0.3065368054
40
0.3838388386
40
0.4621732612
40
0.5374840839
40
0.6055231520
40
0.6655168234
40
0.7194386278
40
0.7686792444
40
0.8134010241
40
0.8533870305
40
0.8898020472
40
0.9245695259
40
0.9601102252
40
1.0000000000
40
1.0000000000
40
1.0000000000
40
1.0000000000
10
0.0043004151
20
41.4560939662
30
0.0000000000
10
-0.6786823431
20
41.4560686988
30
0.0000000000
10
-2.1044163703
20
41.4559921755
30
0.0000000000
10
-4.3363271064
20
41.4558108020
30
0.0000000000
10
-6.7734855943
20
41.4555550634
30
0.0000000000
10
-9.4471124853
20
41.4551959453
30
0.0000000000
10
-12.3483338890
20
41.4546778091
30
0.0000000000
10
-15.4089022881
20
41.4540137959
30
0.0000000000
10
-18.4973934784
20
41.4531906182
30
0.0000000000
10
-21.4620095341
20
41.4519142114
30
0.0000000000
10
-24.1813519498
20
41.4504293744
30
0.0000000000
10
-26.6146554966
20
41.4483251842
30
0.0000000000
10
-28.7965635244
20
41.4453465871
30
0.0000000000
10
-30.7742365958
20
41.4413991400
30
0.0000000000
10
-32.5655394712
20
41.4357103996
30
0.0000000000
10
-34.1853143727
20
41.4279090742
30
0.0000000000
10
-35.6719515292
20
41.4174415081
30
0.0000000000
10
-37.0991077472
20
41.4032013167
30
0.0000000000
10
-38.5726661447
20
41.3829684460
30
0.0000000000
10
-39.5812447047
20
41.3645758882
30
0.0000000000
10
-40.1145900990
20
41.3539258212
30
0.0000000000
11
0.0043004151
21
41.4560939662
31
0.0000000000
11
-2.0446478581
21
41.4559863564
31
0.0000000000
11
-4.2729016619
21
41.4558075259
31
0.0000000000
11
-6.6914317912
21
41.4555524022
31
0.0000000000
11
-9.3561233160
21
41.4551894622
31
0.0000000000
11
-12.2937823213
21
41.4546692767
31
0.0000000000
11
-15.3950959921
21
41.4539913376
31
0.0000000000
11
-18.5378284836
21
41.4530922405
31
0.0000000000
11
-21.5592557216
21
41.4518112395
31
0.0000000000
11
-24.2889440899
21
41.4502165142
31
0.0000000000
11
-26.6958551896
21
41.4480435363
31
0.0000000000
11
-28.8591653028
21
41.4450233441
31
0.0000000000
11
-30.8346665570
21
41.4408714091
31
0.0000000000
11
-32.6288693660
21
41.4349912765
31
0.0000000000
11
-34.2330656505
21
41.4270564577
31
0.0000000000
11
-35.6939777268
21
41.4165547886
31
0.0000000000
11
-37.0887578632
21
41.4024418741
31
0.0000000000
11
-38.5144946998
21
41.3827583627
31
0.0000000000
11
-40.1145900990
21
41.3539258212
31
0.0000000000
0
SPLINE
5
3FD
100
AcDbEntity
8
0
100
AcDbSpline
62
9
6
CONTINUOUS
70
0
71
3
72
11
73
7
74
5
42
0.0000001000
43
0.0000001000
44
0.0000000001
12
-0.0266230652
22
0.7783016400
32
0.0000000000
13
-0.7718347679
23
0.1036017443
33
0.0000000000
40
0.0000000000
40
0.0000000000
40
0.0000000000
40
0.0000000000
40
0.3852270543
40
0.6982096617
40
0.9076545980
40
1.0000000000
40
1.0000000000
40
1.0000000000
40
1.0000000000
10
40.1145903079
20
41.3539262249
30
0.0000000000
10
40.1111716662
20
41.4538671742
30
0.0000000000
10
40.1014587688
20
41.6324355309
30
0.0000000000
10
40.0752865890
20
41.8752994154
30
0.0000000000
10
40.0453027880
20
42.0150776474
30
0.0000000000
10
40.0137584640
20
42.1098530620
30
0.0000000000
10
39.9900000000
20
42.1130421103
30
0.0000000000
11
40.1145903079
21
41.3539262249
31
0.0000000000
11
40.0972818081
21
41.6534247058
31
0.0000000000
11
40.0685627476
21
41.8954641881
31
0.0000000000
11
40.0314877039
21
42.0543013052
31
0.0000000000
11
39.9900000000
21
42.1130421103
31
0.0000000000
0
SPLINE
5
3FE
100
AcDbEntity
8
0
100
AcDbSpline
62
9
6
CONTINUOUS
70
0
71
3
72
25
73
21
74
19
42
0.0000001000
43
0.0000001000
44
0.0000000001
12
-39.9855426894
22
-0.0907285534
32
0.0000000000
13
-39.9856456223
23
-0.0000889128
33
0.0000000000
40
0.0000000000
40
0.0000000000
40
0.0000000000
40
0.0000000000
40
0.0395798391
40
0.0751742637
40
0.1103083870
40
0.1472912232
40
0.1879741959
40
0.2332993922
40
0.2829474816
40
0.3369148127
40
0.3962563058
40
0.4624313611
40
0.5349449183
40
0.6112293521
40
0.6884544464
40
0.7632996129
40
0.8324239740
40
0.8943399221
40
0.9497913803
40
1.0000000000
40
1.0000000000
40
1.0000000000
40
1.0000000000
10
39.9900000000
20
42.1130421103
30
0.0000000000
10
39.4624595509
20
42.1118451031
30
0.0000000000
10
38.4604973795
20
42.1099700081
30
0.0000000000
10
36.9902478621
20
42.1080773583
30
0.0000000000
10
35.5546119816
20
42.1068101146
30
0.0000000000
10
34.0511528549
20
42.1059266711
30
0.0000000000
10
32.4118613743
20
42.1053199254
30
0.0000000000
10
30.6037603847
20
42.1049339071
30
0.0000000000
10
28.6185981534
20
42.1047158267
30
0.0000000000
10
26.4466190217
20
42.1046196936
30
0.0000000000
10
24.0543594224
20
42.1046058522
30
0.0000000000
10
21.4149055477
20
42.1046337062
30
0.0000000000
10
18.5496268665
20
42.1046823964
30
0.0000000000
10
15.5370672024
20
42.1047276806
30
0.0000000000
10
12.4934305715
20
42.1047528915
30
0.0000000000
10
9.5452273159
20
42.1047630917
30
0.0000000000
10
6.8010727590
20
42.1047618057
30
0.0000000000
10
4.3154081842
20
42.1047536381
30
0.0000000000
10
2.0818629875
20
42.1047449886
30
0.0000000000
10
0.6735675108
20
42.1047406796
30
0.0000000000
10
0.0043594860
20
42.1047391915
30
0.0000000000
11
39.9900000000
21
42.1130421103
31
0.0000000000
11
38.4073774397
21
42.1100328416
31
0.0000000000
11
36.9841126160
21
42.1081660589
31
0.0000000000
11
35.5792525853
21
42.1068991891
31
0.0000000000
11
34.1004702730
21
42.1060066978
31
0.0000000000
11
32.4737354622
21
42.1053830013
31
0.0000000000
11
30.6613782694
21
42.1049760883
31
0.0000000000
11
28.6761673737
21
42.1047429494
31
0.0000000000
11
26.5182488008
21
42.1046360452
31
0.0000000000
11
24.1454408873
21
42.1046124889
31
0.0000000000
11
21.4993885791
21
42.1046355250
31
0.0000000000
11
18.5998871772
21
42.1046806185
31
0.0000000000
11
15.5496048430
21
42.1047240823
31
0.0000000000
11
12.4617095868
21
42.1047506330
31
0.0000000000
11
9.4689772847
21
42.1047613182
31
0.0000000000
11
6.7049950761
21
42.1047603915
31
0.0000000000
11
4.2292459163
21
42.1047530996
31
0.0000000000
11
2.0119835603
21
42.1047450333
31
0.0000000000
11
0.0043594860
21
42.1047391915
31
0.0000000000
0
SPLINE
5
3FF
100
AcDbEntity
8
0
100
AcDbSpline
62
9
6
CONTINUOUS
70
0
71
3
72
25
73
21
74
19
42
0.0000001000
43
0.0000001000
44
0.0000000001
12
-40.1028378008
22
0.8007910580
32
0.0000000000
13
-40.1108322500
23
0.0014870032
33
0.0000000000
40
0.0000000000
40
0.0000000000
40
0.0000000000
40
0.0000000000
40
0.0404419709
40
0.0765888058
40
0.1120865800
40
0.1493010878
40
0.1901114888
40
0.2354731507
40
0.2850808387
40
0.3389501748
40
0.3981438114
40
0.4641280815
40
0.5364188606
40
0.6124590693
40
0.6894356264
40
0.7640411763
40
0.8329449798
40
0.8946653015
40
0.9499437158
40
1.0000000000
40
1.0000000000
40
1.0000000000
40
1.0000000000
10
40.1145903079
20
41.3539262249
30
0.0000000000
10
39.5739777085
20
41.3647214144
30
0.0000000000
10
38.5501300543
20
41.3833652268
30
0.0000000000
10
37.0516361880
20
41.4037884013
30
0.0000000000
10
35.5962272652
20
41.4180979080
30
0.0000000000
10
34.0784318049
20
41.4285401231
30
0.0000000000
10
32.4287361651
20
41.4362467798
30
0.0000000000
10
30.6133311420
20
41.4417942871
30
0.0000000000
10
28.6233200778
20
41.4456238899
30
0.0000000000
10
26.4483700347
20
41.4485006290
30
0.0000000000
10
24.0544594921
20
41.4505013620
30
0.0000000000
10
21.4142487602
20
41.4519348831
30
0.0000000000
10
18.5487945603
20
41.4531667810
30
0.0000000000
10
15.5363702822
20
41.4539848967
30
0.0000000000
10
12.4929968459
20
41.4546484698
30
0.0000000000
10
9.5450391013
20
41.4551817160
30
0.0000000000
10
6.8010614332
20
41.4555526015
30
0.0000000000
10
4.3154929181
20
41.4558129026
30
0.0000000000
10
2.0819209597
20
41.4559935950
30
0.0000000000
10
0.6735668205
20
41.4560686268
30
0.0000000000
10
0.0043004149
20
41.4560934381
30
0.0000000000
11
40.1145903079
21
41.3539262249
31
0.0000000000
11
38.4926916188
21
41.3831034610
31
0.0000000000
11
37.0429482493
21
41.4029809638
31
0.0000000000
11
35.6191738671
21
41.4171882998
31
0.0000000000
11
34.1265058956
21
41.4276853165
31
0.0000000000
11
32.4895856155
21
41.4355449832
31
0.0000000000
11
30.6701006810
21
41.4412930602
31
0.0000000000
11
28.6802991099
21
41.4453228988
31
0.0000000000
11
26.5195571721
21
41.4482393815
31
0.0000000000
11
24.1452520519
21
41.4503158998
31
0.0000000000
11
21.4985684986
21
41.4518415103
31
0.0000000000
11
18.5989254456
21
41.4530706450
31
0.0000000000
11
15.5488895132
21
41.4539544459
31
0.0000000000
11
12.4612958179
21
41.4546359644
31
0.0000000000
11
9.4688051688
21
41.4551717953
31
0.0000000000
11
6.7050162880
21
41.4555507913
31
0.0000000000
11
4.2293628279
21
41.4558115502
31
0.0000000000
11
2.0120996303
21
41.4559885298
31
0.0000000000
11
0.0043004149
21
41.4560934381
31
0.0000000000
0
SPLINE
5
400
100
AcDbEntity
8
0
100
AcDbSpline
62
9
6
CONTINUOUS
70
0
71
3
72
11
73
7
74
5
42
0.0000001000
43
0.0000001000
44
0.0000000001
12
0.7470535676
22
-0.0201682921
32
0.0000000000
13
0.1371063343
23
-0.7346411681
33
0.0000000000
40
0.0000000000
40
0.0000000000
40
0.0000000000
40
0.0000000000
40
0.3905821688
40
0.7058007513
40
0.9143804827
40
1.0000000000
40
1.0000000000
40
1.0000000000
40
1.0000000000
10
42.8780757241
20
38.5793484958
30
0.0000000000
10
42.9753376583
20
38.5767227041
30
0.0000000000
10
43.1479244980
20
38.5686559639
30
0.0000000000
10
43.3856152121
20
38.5528346771
30
0.0000000000
10
43.5151566099
20
38.5257655217
30
0.0000000000
10
43.6108715829
20
38.5109665369
30
0.0000000000
10
43.6147845756
20
38.4899999962
30
0.0000000000
11
42.8780757241
21
38.5793484958
31
0.0000000000
11
43.1696860256
21
38.5665250900
31
0.0000000000
11
43.4043475894
21
38.5458458497
31
0.0000000000
11
43.5579706288
21
38.5194336765
31
0.0000000000
11
43.6147845756
21
38.4899999962
31
0.0000000000
0
SPLINE
5
401
100
AcDbEntity
8
0
100
AcDbSpline
62
9
6
CONTINUOUS
70
0
71
3
72
15
73
11
74
9
42
0.0000001000
43
0.0000001000
44
0.0000000001
12
0.0061765126
22
5.6851506133
32
0.0000000000
13
-5.6851467330
23
-0.0090702843
33
0.0000000000
40
0.0000000000
40
0.0000000000
40
0.0000000000
40
0.0000000000
40
0.1262145854
40
0.2529427472
40
0.3802889002
40
0.5075146276
40
0.6356448821
40
0.7627070619
40
0.8854194464
40
1.0000000000
40
1.0000000000
40
1.0000000000
40
1.0000000000
10
43.6148052695
20
38.4900000000
30
0.0000000000
10
43.6150651248
20
38.7291829758
30
0.0000000000
10
43.5677818540
20
39.2099365088
30
0.0000000000
10
43.3552233367
20
39.9033313055
30
0.0000000000
10
43.0082301891
20
40.5427373300
30
0.0000000000
10
42.5393074393
20
41.1023124363
30
0.0000000000
10
41.9685709997
20
41.5568585257
30
0.0000000000
10
41.3263503354
20
41.8845377398
30
0.0000000000
10
40.6578978314
20
42.0734217414
30
0.0000000000
10
40.2071357533
20
42.1133885363
30
0.0000000000
10
39.9900000000
20
42.1130421103
30
0.0000000000
11
43.6148052695
21
38.4900000000
31
0.0000000000
11
43.5444491779
21
39.2040917947
31
0.0000000000
11
43.3333765658
21
39.8929488871
31
0.0000000000
11
42.9880370316
21
40.5292595411
31
0.0000000000
11
42.5234819990
21
41.0836496565
31
0.0000000000
11
41.9536610275
21
41.5374439063
31
0.0000000000
11
41.3102196048
21
41.8657710965
31
0.0000000000
11
40.6388552437
21
42.0554281280
31
0.0000000000
11
39.9900000000
21
42.1130421103
31
0.0000000000
0
SPLINE
5
402
100
AcDbEntity
8
0
100
AcDbSpline
62
9
6
CONTINUOUS
70
0
71
3
72
15
73
11
74
9
42
0.0000001000
43
0.0000001000
44
0.0000000001
12
-0.0587715301
22
4.3092478963
32
0.0000000000
13
-4.3087816591
23
0.0864415308
33
0.0000000000
40
0.0000000000
40
0.0000000000
40
0.0000000000
40
0.0000000000
40
0.1240857449
40
0.2500054158
40
0.3778745340
40
0.5065379273
40
0.6363221503
40
0.7643865745
40
0.8868615062
40
1.0000000000
40
1.0000000000
40
1.0000000000
40
1.0000000000
10
42.8780757241
20
38.5793484958
30
0.0000000000
10
42.8756448211
20
38.7575872409
30
0.0000000000
10
42.8341648530
20
39.1171979970
30
0.0000000000
10
42.6654337165
20
39.6366654929
30
0.0000000000
10
42.3961541475
20
40.1195379216
30
0.0000000000
10
42.0365464357
20
40.5465803442
30
0.0000000000
10
41.6026585632
20
40.8984195894
30
0.0000000000
10
41.1177011169
20
41.1573641164
30
0.0000000000
10
40.6156044753
20
41.3124137153
30
0.0000000000
10
40.2770867710
20
41.3506664777
30
0.0000000000
10
40.1145904154
20
41.3539264326
30
0.0000000000
11
42.8780757241
21
38.5793484958
31
0.0000000000
11
42.8171869544
21
39.1106367353
31
0.0000000000
11
42.6502128217
21
39.6269795179
31
0.0000000000
11
42.3822594871
21
40.1085189531
31
0.0000000000
11
42.0253102076
21
40.5328429213
31
0.0000000000
11
41.5907629535
21
40.8849969652
31
0.0000000000
11
41.1036683828
21
41.1445089656
31
0.0000000000
11
40.5991402691
21
41.2995879064
31
0.0000000000
11
40.1145904154
21
41.3539264326
31
0.0000000000
0
SPLINE
5
403
100
AcDbEntity
8
0
100
AcDbSpline
62
9
6
CONTINUOUS
70
0
71
3
72
11
73
7
74
5
42
0.0000001000
43
0.0000001000
44
0.0000000001
12
0.6829784852
22
0.0001177130
32
0.0000000000
13
0.6812446599
23
0.0486347446
33
0.0000000000
40
0.0000000000
40
0.0000000000
40
0.0000000000
40
0.0000000000
40
0.3988432032
40
0.7166246837
40
0.9234883570
40
1.0000000000
40
1.0000000000
40
1.0000000000
40
1.0000000000
10
42.9216911135
20
-0.0004630037
30
0.0000000000
10
43.0124915557
20
-0.0004473540
30
0.0000000000
10
43.1756242415
20
-0.0000646036
30
0.0000000000
10
43.3859109230
20
-0.0009118486
30
0.0000000000
10
43.5226819984
20
0.0013821376
30
0.0000000000
10
43.5872933343
20
-0.0006383976
30
0.0000000000
10
43.6046677170
20
0.0006019772
30
0.0000000000
11
42.9216911135
21
-0.0004630037
31
0.0000000000
11
43.1940924180
21
-0.0003435206
31
0.0000000000
11
43.4111302016
21
-0.0001025131
31
0.0000000000
11
43.5524132587
21
0.0002265668
31
0.0000000000
11
43.6046677170
21
0.0006019772
31
0.0000000000
0
SPLINE
5
404
100
AcDbEntity
8
0
100
AcDbSpline
62
9
6
CONTINUOUS
70
0
71
3
72
17
73
13
74
11
42
0.0000001000
43
0.0000001000
44
0.0000000001
12
-0.0010958439
22
38.4894008183
32
0.0000000000
13
0.0628434239
23
38.4893495302
33
0.0000000000
40
0.0000000000
40
0.0000000000
40
0.0000000000
40
0.0000000000
40
0.1188565333
40
0.2506940794
40
0.3829383530
40
0.5022027131
40
0.6082658314
40
0.7033403683
40
0.7890359895
40
0.8667257963
40
0.9370739483
40
1.0000000000
40
1.0000000000
40
1.0000000000
40
1.0000000000
10
43.6046677170
20
0.0006019772
30
0.0000000000
10
43.6046243009
20
1.5255075605
30
0.0000000000
10
43.6049390382
20
4.7418625352
30
0.0000000000
10
43.6059299899
20
9.6548850204
30
0.0000000000
10
43.6069242281
20
14.5731398446
30
0.0000000000
10
43.6076784349
20
19.1607139478
30
0.0000000000
10
43.6082061222
20
23.2714077793
30
0.0000000000
10
43.6086403150
20
26.9514214040
30
0.0000000000
10
43.6091604014
20
30.2674110924
30
0.0000000000
10
43.6100156090
20
33.2661661446
30
0.0000000000
10
43.6115624708
20
35.9727918624
30
0.0000000000
10
43.6134871067
20
37.6826724006
30
0.0000000000
10
43.6148052695
20
38.4900000000
30
0.0000000000
11
43.6046677170
21
0.0006019772
31
0.0000000000
11
43.6049978172
21
4.5753187171
31
0.0000000000
11
43.6059293204
21
9.6496667879
31
0.0000000000
11
43.6069242147
21
14.7396695466
31
0.0000000000
11
43.6076770970
21
19.3300832433
31
0.0000000000
11
43.6082167697
21
23.4123890851
31
0.0000000000
11
43.6086794394
21
27.0717510155
31
0.0000000000
11
43.6092505235
21
30.3701240781
31
0.0000000000
11
43.6101922428
21
33.3603580464
31
0.0000000000
11
43.6118808638
21
36.0680157391
31
0.0000000000
11
43.6148052695
21
38.4900000000
31
0.0000000000
0
SPLINE
5
405
100
AcDbEntity
8
0
100
AcDbSpline
62
9
6
CONTINUOUS
70
0
71
3
72
17
73
13
74
11
42
0.0000001000
43
0.0000001000
44
0.0000000001
12
0.0023929190
22
38.5799972170
32
0.0000000000
13
-0.5181523929
23
38.5765175863
33
0.0000000000
40
0.0000000000
40
0.0000000000
40
0.0000000000
40
0.0000000000
40
0.1188242341
40
0.2504246731
40
0.3823284534
40
0.5012580623
40
0.6070377240
40
0.7019092460
40
0.7875243024
40
0.8653276693
40
0.9361161974
40
1.0000000000
40
1.0000000000
40
1.0000000000
40
1.0000000000
10
42.9216911135
20
-0.0004630037
30
0.0000000000
10
42.9217858924
20
1.5276165371
30
0.0000000000
10
42.9238017609
20
4.7480773308
30
0.0000000000
10
42.9285174120
20
9.6648185338
30
0.0000000000
10
42.9319539571
20
14.5829161513
30
0.0000000000
10
42.9333388941
20
19.1689595752
30
0.0000000000
10
42.9329402184
20
23.2787683644
30
0.0000000000
10
42.9308965802
20
26.9601515879
30
0.0000000000
10
42.9267073413
20
30.2817577611
30
0.0000000000
10
42.9191769605
20
33.2936510627
30
0.0000000000
10
42.9058001799
20
36.0260593885
30
0.0000000000
10
42.8891128671
20
37.7578780707
30
0.0000000000
10
42.8780790187
20
38.5793496156
30
0.0000000000
11
42.9216911135
21
-0.0004630037
31
0.0000000000
11
42.9239404643
21
4.5837750758
31
0.0000000000
11
42.9282936221
21
9.6609177900
31
0.0000000000
11
42.9317166239
21
14.7497641247
31
0.0000000000
11
42.9330669888
21
19.3380679126
31
0.0000000000
11
42.9325980733
21
23.4190469471
31
0.0000000000
11
42.9303776828
21
27.0791893366
31
0.0000000000
11
42.9258659623
21
30.3822149014
31
0.0000000000
11
42.9176965125
21
33.3838574665
31
0.0000000000
11
42.9030974569
21
36.1148396678
31
0.0000000000
11
42.8780790187
21
38.5793496156
31
0.0000000000
0
SPLINE
5
406
100
AcDbEntity
8
0
100
AcDbSpline
62
9
6
CONTINUOUS
70
0
71
3
72
11
73
7
74
5
42
0.0000001000
43
0.0000001000
44
0.0000000001
12
0.7312735800
22
0.0034061242
32
0.0000000000
13
0.5435522234
23
0.4892071452
33
0.0000000000
40
0.0000000000
40
0.0000000000
40
0.0000000000
40
0.0000000000
40
0.3959781252
40
0.7143139720
40
0.9226633542
40
1.0000000000
40
1.0000000000
40
1.0000000000
40
1.0000000000
10
42.8751390336
20
-38.5050511515
30
0.0000000000
10
42.9716618140
20
-38.5046015679
30
0.0000000000
10
43.1443271306
20
-38.5004351386
30
0.0000000000
10
43.3741112552
20
-38.5072055421
30
0.0000000000
10
43.5118773387
20
-38.4845571582
30
0.0000000000
10
43.5920927464
20
-38.5026112132
30
0.0000000000
10
43.6061049150
20
-38.4900000000
30
0.0000000000
11
42.8751390336
21
-38.5050511515
31
0.0000000000
11
43.1647023265
21
-38.5028733539
31
0.0000000000
11
43.3974693276
21
-38.4993862810
31
0.0000000000
11
43.5497666224
21
-38.4949445830
31
0.0000000000
11
43.6061049150
21
-38.4900000000
31
0.0000000000
0
SPLINE
5
407
100
AcDbEntity
8
0
100
AcDbSpline
62
9
6
CONTINUOUS
70
0
71
3
72
33
73
29
74
27
42
0.0000001000
43
0.0000001000
44
0.0000000001
12
-0.0105517293
22
38.4906005991
32
0.0000000000
13
0.0002345658
23
38.4906020447
33
0.0000000000
40
0.0000000000
40
0.0000000000
40
0.0000000000
40
0.0000000000
40
0.0118768772
40
0.0249122688
40
0.0392494633
40
0.0550220438
40
0.0723629709
40
0.0914038761
40
0.1122773443
40
0.1351184764
40
0.1600676782
40
0.1872723398
40
0.2168828747
40
0.2490553318
40
0.2839605551
40
0.3217991198
40
0.3628227918
40
0.4073134896
40
0.4555781515
40
0.5080350254
40
0.5654582458
40
0.6287610628
40
0.6983208093
40
0.7701291726
40
0.8381815220
40
0.8984876268
40
0.9519541251
40
1.0000000000
40
1.0000000000
40
1.0000000000
40
1.0000000000
10
43.6061049150
20
-38.4900000000
30
0.0000000000
10
43.6060631411
20
-38.3376172880
30
0.0000000000
10
43.6059825419
20
-38.0179878906
30
0.0000000000
10
43.6058758111
20
-37.5144094105
30
0.0000000000
10
43.6057795351
20
-36.9608482724
30
0.0000000000
10
43.6056952138
20
-36.3520462473
30
0.0000000000
10
43.6056240663
20
-35.6828946694
30
0.0000000000
10
43.6055668442
20
-34.9482976756
30
0.0000000000
10
43.6055238920
20
-34.1431319475
30
0.0000000000
10
43.6054949642
20
-33.2621615866
30
0.0000000000
10
43.6054791578
20
-32.2999607450
30
0.0000000000
10
43.6054749320
20
-31.2509071056
30
0.0000000000
10
43.6054803427
20
-30.1091776526
30
0.0000000000
10
43.6054926529
20
-28.8686484463
30
0.0000000000
10
43.6055082762
20
-27.5225519675
30
0.0000000000
10
43.6055224639
20
-26.0628926247
30
0.0000000000
10
43.6055316080
20
-24.4802497205
30
0.0000000000
10
43.6055313323
20
-22.7638378966
30
0.0000000000
10
43.6055154776
20
-20.9007357975
30
0.0000000000
10
43.6054761969
20
-18.8717068393
30
0.0000000000
10
43.6054100230
20
-16.6497353338
30
0.0000000000
10
43.6053115826
20
-14.2083305415
30
0.0000000000
10
43.6051752119
20
-11.5823614801
30
0.0000000000
10
43.6050190026
20
-8.8954549653
30
0.0000000000
10
43.6048702423
20
-6.3272745306
30
0.0000000000
10
43.6047516630
20
-3.9944239038
30
0.0000000000
10
43.6046787118
20
-1.9182603588
30
0.0000000000
10
43.6046639604
20
-0.6158362394
30
0.0000000000
10
43.6046677170
20
0.0006019772
30
0.0000000000
11
43.6061049150
21
-38.4900000000
31
0.0000000000
11
43.6059892120
21
-38.0328518615
31
0.0000000000
11
43.6058823795
21
-37.5311118034
31
0.0000000000
11
43.6057858403
21
-36.9792645608
31
0.0000000000
11
43.6057011025
21
-36.3721684483
31
0.0000000000
11
43.6056294001
21
-35.7047057293
31
0.0000000000
11
43.6055715368
21
-34.9718098279
31
0.0000000000
11
43.6055278615
21
-34.1683774677
31
0.0000000000
11
43.6054981506
21
-33.2892085457
31
0.0000000000
11
43.6054815318
21
-32.3288987458
31
0.0000000000
11
43.6054765216
21
-31.2817749433
31
0.0000000000
11
43.6054811309
21
-30.1420476278
31
0.0000000000
11
43.6054926382
21
-28.9037103867
31
0.0000000000
11
43.6055074340
21
-27.5601873244
31
0.0000000000
11
43.6055211484
21
-26.1037581914
31
0.0000000000
11
43.6055298516
21
-24.5247323581
31
0.0000000000
11
43.6055290541
21
-22.8122586119
31
0.0000000000
11
43.6055127159
21
-20.9545227198
31
0.0000000000
11
43.6054740817
21
-18.9354260612
31
0.0000000000
11
43.6054085762
21
-16.7251717378
31
0.0000000000
11
43.6053103267
21
-14.2886082036
31
0.0000000000
11
43.6051739850
21
-11.6112116849
31
0.0000000000
11
43.6050163016
21
-8.8472645533
31
0.0000000000
11
43.6048677694
21
-6.2278886575
31
0.0000000000
11
43.6047536385
21
-3.9066703794
31
0.0000000000
11
43.6046848713
21
-1.8487126724
31
0.0000000000
11
43.6046677170
21
0.0006019772
31
0.0000000000
0
SPLINE
5
408
100
AcDbEntity
8
0
100
AcDbSpline
62
9
6
CONTINUOUS
70
0
71
3
72
33
73
29
74
27
42
0.0000001000
43
0.0000001000
44
0.0000000001
12
0.1607790164
22
38.5042915818
32
0.0000000000
13
0.0056776621
23
38.5046268372
33
0.0000000000
40
0.0000000000
40
0.0000000000
40
0.0000000000
40
0.0000000000
40
0.0119313475
40
0.0250178756
40
0.0394022500
40
0.0552172852
40
0.0725950111
40
0.0916666088
40
0.1125643740
40
0.1354232204
40
0.1603835101
40
0.1875929324
40
0.2172021414
40
0.2493672257
40
0.2842590512
40
0.3220789230
40
0.3630798624
40
0.4075433534
40
0.4557757569
40
0.5081973317
40
0.5655832992
40
0.6288457653
40
0.6983656957
40
0.7701431841
40
0.8381767259
40
0.8984786664
40
0.9519546684
40
1.0000000000
40
1.0000000000
40
1.0000000000
40
1.0000000000
10
42.8751390336
20
-38.5050511515
30
0.0000000000
10
42.8757784704
20
-38.3519151243
30
0.0000000000
10
42.8770521914
20
-38.0308163160
30
0.0000000000
10
42.8788687427
20
-37.5250965852
30
0.0000000000
10
42.8806729655
20
-36.9695298719
30
0.0000000000
10
42.8824658716
20
-36.3588858716
30
0.0000000000
10
42.8842288600
20
-35.6880816272
30
0.0000000000
10
42.8859739983
20
-34.9520409297
30
0.0000000000
10
42.8877084893
20
-34.1456505290
30
0.0000000000
10
42.8894433230
20
-33.2636793404
30
0.0000000000
10
42.8911858233
20
-32.3006986895
30
0.0000000000
10
42.8929605254
20
-31.2510778978
30
0.0000000000
10
42.8947771788
20
-30.1089844076
30
0.0000000000
10
42.8966399210
20
-28.8682881794
30
0.0000000000
10
42.8985419895
20
-27.5222090610
30
0.0000000000
10
42.9005007391
20
-26.0627228120
30
0.0000000000
10
42.9025586171
20
-24.4803854493
30
0.0000000000
10
42.9046893435
20
-22.7644045189
30
0.0000000000
10
42.9068547077
20
-20.9018410871
30
0.0000000000
10
42.9090872020
20
-18.8734192464
30
0.0000000000
10
42.9114008438
20
-16.6520883957
30
0.0000000000
10
42.9137146445
20
-14.2113021638
30
0.0000000000
10
42.9159128533
20
-11.5858023724
30
0.0000000000
10
42.9178814615
20
-8.8990662174
30
0.0000000000
10
42.9194409632
20
-6.3306415687
30
0.0000000000
10
42.9205745344
20
-3.9971140277
30
0.0000000000
10
42.9213131296
20
-1.9201325357
30
0.0000000000
10
42.9215993773
20
-0.6171188598
30
0.0000000000
10
42.9216903057
20
-0.0004630044
30
0.0000000000
11
42.8751390336
21
-38.5050511515
31
0.0000000000
11
42.8769660101
21
-38.0456426976
31
0.0000000000
11
42.8787813459
21
-37.5417540794
31
0.0000000000
11
42.8805859460
21
-36.9878920449
31
0.0000000000
11
42.8823772031
21
-36.3789426430
31
0.0000000000
11
42.8841443732
21
-35.7098221196
31
0.0000000000
11
42.8858927247
21
-34.9754794387
31
0.0000000000
11
42.8876307880
21
-34.1708206562
31
0.0000000000
11
42.8893681794
21
-33.2906510107
31
0.0000000000
11
42.8911153972
21
-32.3295659473
31
0.0000000000
11
42.8928916950
21
-31.2818787918
31
0.0000000000
11
42.8947087391
21
-30.1417886822
31
0.0000000000
11
42.8965698867
21
-28.9032854996
31
0.0000000000
11
42.8984736362
21
-27.5597901121
31
0.0000000000
11
42.9004362661
21
-26.1035513699
31
0.0000000000
11
42.9024859664
21
-24.5248268135
31
0.0000000000
11
42.9046076191
21
-22.8127779788
31
0.0000000000
11
42.9067738174
21
-20.9556085232
31
0.0000000000
11
42.9089981073
21
-18.9371365507
31
0.0000000000
11
42.9112895001
21
-16.7275124508
31
0.0000000000
11
42.9135956771
21
-14.2916158676
31
0.0000000000
11
42.9158426994
21
-11.6147778020
31
0.0000000000
11
42.9178572991
21
-8.8510130998
31
0.0000000000
11
42.9194450169
21
-6.2314074159
31
0.0000000000
11
42.9205636992
21
-3.9095039409
31
0.0000000000
11
42.9212887732
21
-1.8504305471
31
0.0000000000
11
42.9216903057
21
-0.0004630044
31
0.0000000000
0
SPLINE
5
409
100
AcDbEntity
8
0
100
AcDbSpline
62
9
6
CONTINUOUS
70
0
71
3
72
12
73
8
74
6
42
0.0000001000
43
0.0000001000
44
0.0000000001
12
-0.0148063028
22
-0.9790316180
32
0.0000000000
13
-0.9752423643
23
-0.0873181920
33
0.0000000000
40
0.0000000000
40
0.0000000000
40
0.0000000000
40
0.0000000000
40
0.2971440405
40
0.5637914498
40
0.7779009975
40
0.9236780885
40
1.0000000000
40
1.0000000000
40
1.0000000000
40
1.0000000000
10
40.1807253030
20
-41.1588259864
30
0.0000000000
10
40.1792587681
20
-41.2557971234
30
0.0000000000
10
40.1711708259
20
-41.4400246850
30
0.0000000000
10
40.1457475576
20
-41.6917234553
30
0.0000000000
10
40.1051539434
20
-41.8956429336
30
0.0000000000
10
40.0658800418
20
-42.0258453886
30
0.0000000000
10
40.0148107871
20
-42.0946449720
30
0.0000000000
10
39.9900000000
20
-42.0968664025
30
0.0000000000
11
40.1807253030
21
-41.1588259864
31
0.0000000000
11
40.1678617178
21
-41.4494881568
31
0.0000000000
11
40.1392818269
21
-41.7090052850
31
0.0000000000
11
40.0975110217
21
-41.9144457906
31
0.0000000000
11
40.0462402756
21
-42.0476564380
31
0.0000000000
11
39.9900000000
21
-42.0968664025
31
0.0000000000
0
SPLINE
5
40A
100
AcDbEntity
8
0
100
AcDbSpline
62
9
6
CONTINUOUS
70
0
71
3
72
17
73
13
74
11
42
0.0000001000
43
0.0000001000
44
0.0000000001
12
5.6683554760
22
-0.0139087070
32
0.0000000000
13
-0.0009962032
23
5.6683724527
33
0.0000000000
40
0.0000000000
40
0.0000000000
40
0.0000000000
40
0.0000000000
40
0.0672683692
40
0.1416493753
40
0.2239129122
40
0.3152207888
40
0.4167551544
40
0.5294530995
40
0.6515986037
40
0.7765287812
40
0.8959707273
40
1.0000000000
40
1.0000000000
40
1.0000000000
40
1.0000000000
10
39.9900000000
20
-42.0968686041
30
0.0000000000
10
40.1171003429
20
-42.0971804762
30
0.0000000000
10
40.3849797849
20
-42.0836685885
30
0.0000000000
10
40.8034465416
20
-42.0153728806
30
0.0000000000
10
41.2543219696
20
-41.8833307739
30
0.0000000000
10
41.7302878739
20
-41.6700074220
30
0.0000000000
10
42.2174610782
20
-41.3557052973
30
0.0000000000
10
42.6886534228
20
-40.9242093633
30
0.0000000000
10
43.0996319203
20
-40.3774525354
30
0.0000000000
10
43.4028410110
20
-39.7497977366
30
0.0000000000
10
43.5715526712
20
-39.1095568586
30
0.0000000000
10
43.6061394597
20
-38.6865588880
30
0.0000000000
10
43.6061049150
20
-38.4900000000
30
0.0000000000
11
39.9900000000
21
-42.0968686041
31
0.0000000000
11
40.3708175690
21
-42.0776506695
31
0.0000000000
11
40.7869318784
21
-42.0097413497
31
0.0000000000
11
41.2344340647
21
-41.8786771222
31
0.0000000000
11
41.7067300931
21
-41.6669883793
31
0.0000000000
11
42.1903408196
21
-41.3549615343
31
0.0000000000
11
42.6614415009
21
-40.9235135135
31
0.0000000000
11
43.0774264949
21
-40.3700449324
31
0.0000000000
11
43.3854729493
21
-39.7324048146
31
0.0000000000
11
43.5579825714
21
-39.0777098082
31
0.0000000000
11
43.6061049150
21
-38.4900000000
31
0.0000000000
0
SPLINE
5
40B
100
AcDbEntity
8
0
100
AcDbSpline
62
9
6
CONTINUOUS
70
0
71
3
72
17
73
13
74
11
42
0.0000001000
43
0.0000001000
44
0.0000000001
12
4.1845057392
22
0.0289374025
32
0.0000000000
13
0.0176518139
23
4.1845685642
33
0.0000000000
40
0.0000000000
40
0.0000000000
40
0.0000000000
40
0.0000000000
40
0.0674142229
40
0.1421289219
40
0.2249292182
40
0.3169355945
40
0.4192112758
40
0.5324725370
40
0.6547102413
40
0.7790637884
40
0.8973396557
40
1.0000000000
40
1.0000000000
40
1.0000000000
40
1.0000000000
10
40.1807253030
20
-41.1588259864
30
0.0000000000
10
40.2747570372
20
-41.1581757223
30
0.0000000000
10
40.4730784371
20
-41.1463670978
30
0.0000000000
10
40.7829895639
20
-41.0933480927
30
0.0000000000
10
41.1173842929
20
-40.9934911236
30
0.0000000000
10
41.4709039328
20
-40.8341941436
30
0.0000000000
10
41.8333100557
20
-40.6014392324
30
0.0000000000
10
42.1845162061
20
-40.2838291458
30
0.0000000000
10
42.4917617987
20
-39.8830702918
30
0.0000000000
10
42.7195130593
20
-39.4242014881
30
0.0000000000
10
42.8473372583
20
-38.9568785384
30
0.0000000000
10
42.8745351881
20
-38.6482475793
30
0.0000000000
10
42.8751392352
20
-38.5050511627
30
0.0000000000
11
40.1807253030
21
-41.1588259864
31
0.0000000000
11
40.4623305626
21
-41.1420931837
31
0.0000000000
11
40.7705140264
21
-41.0894248629
31
0.0000000000
11
41.1025257718
21
-40.9903230730
31
0.0000000000
11
41.4535545765
21
-40.8321718849
31
0.0000000000
11
41.8136370450
21
-40.6008487043
31
0.0000000000
11
42.1650534707
21
-40.2828256961
31
0.0000000000
11
42.4760423981
21
-39.8767036396
31
0.0000000000
11
42.7071176741
21
-39.4104529013
31
0.0000000000
11
42.8374727937
21
-38.9329897641
31
0.0000000000
11
42.8751392352
21
-38.5050511627
31
0.0000000000
0
SPLINE
5
40C
100
AcDbEntity
8
0
100
AcDbSpline
62
9
6
CONTINUOUS
70
0
71
3
72
30
73
26
74
24
42
0.0000001000
43
0.0000001000
44
0.0000000001
12
18.9890382267
22
-0.0000119167
32
0.0000000000
13
18.9889283505
23
-0.0645978156
33
0.0000000000
40
0.0000000000
40
0.0000000000
40
0.0000000000
40
0.0000000000
40
0.0333621908
40
0.0699746761
40
0.1102607411
40
0.1546241466
40
0.2034785239
40
0.2572331030
40
0.3162350078
40
0.3801003329
40
0.4472109775
40
0.5151131332
40
0.5800445055
40
0.6386552022
40
0.6905862144
40
0.7371121275
40
0.7790899710
40
0.8170324740
40
0.8514191628
40
0.8826148844
40
0.9108752455
40
0.9364682263
40
0.9596673666
40
0.9807490538
40
1.0000000000
40
1.0000000000
40
1.0000000000
40
1.0000000000
10
21.0009838932
20
-42.0749058302
30
0.0000000000
10
21.2121558653
20
-42.0749059628
30
0.0000000000
10
21.6550731315
20
-42.0749012483
30
0.0000000000
10
22.3529882737
20
-42.0748871425
30
0.0000000000
10
23.1205375784
20
-42.0748772374
30
0.0000000000
10
23.9655741353
20
-42.0748940809
30
0.0000000000
10
24.8958620662
20
-42.0749742585
30
0.0000000000
10
25.9188069920
20
-42.0751595265
30
0.0000000000
10
27.0367663694
20
-42.0755075815
30
0.0000000000
10
28.2392652764
20
-42.0760877306
30
0.0000000000
10
29.4980997695
20
-42.0769441811
30
0.0000000000
10
30.7636817782
20
-42.0780856956
30
0.0000000000
10
31.9754615817
20
-42.0794553918
30
0.0000000000
10
33.0861489253
20
-42.0809559148
30
0.0000000000
10
34.0803354155
20
-42.0825064376
30
0.0000000000
10
34.9692411161
20
-42.0840665499
30
0.0000000000
10
35.7696038939
20
-42.0856227675
30
0.0000000000
10
36.4931291428
20
-42.0871648291
30
0.0000000000
10
37.1484069042
20
-42.0886814092
30
0.0000000000
10
37.7423997163
20
-42.0901636932
30
0.0000000000
10
38.2807310988
20
-42.0916038312
30
0.0000000000
10
38.7684466309
20
-42.0929935333
30
0.0000000000
10
39.2107234267
20
-42.0943275954
30
0.0000000000
10
39.6128571600
20
-42.0956046568
30
0.0000000000
10
39.8681483874
20
-42.0964540811
30
0.0000000000
10
39.9900000000
20
-42.0968686041
30
0.0000000000
11
21.0009838932
21
-42.0749058302
31
0.0000000000
11
21.6344998097
21
-42.0749005040
31
0.0000000000
11
22.3297356916
21
-42.0748884187
31
0.0000000000
11
23.0947293200
21
-42.0748815555
31
0.0000000000
11
23.9371477236
21
-42.0749023683
31
0.0000000000
11
24.8648453578
21
-42.0749855616
31
0.0000000000
11
25.8855930984
21
-42.0751746335
31
0.0000000000
11
27.0059824680
21
-42.0755286866
31
0.0000000000
11
28.2187234238
21
-42.0761168290
31
0.0000000000
11
29.4930897222
21
-42.0769875665
31
0.0000000000
11
30.7824858266
21
-42.0781528259
31
0.0000000000
11
32.0154693471
21
-42.0795482800
31
0.0000000000
11
33.1284290889
21
-42.0810540674
31
0.0000000000
11
34.1145478621
21
-42.0825936906
31
0.0000000000
11
34.9980288399
21
-42.0841463808
31
0.0000000000
11
35.7951462044
21
-42.0856985193
31
0.0000000000
11
36.5156362043
21
-42.0872358655
31
0.0000000000
11
37.1686046002
21
-42.0887488169
31
0.0000000000
11
37.7609795013
21
-42.0902286790
31
0.0000000000
11
38.2976146549
21
-42.0916653520
31
0.0000000000
11
38.7835987717
21
-42.0930508931
31
0.0000000000
11
39.2241261261
21
-42.0943802827
31
0.0000000000
11
39.6244450715
21
-42.0956520279
31
0.0000000000
11
39.9900000000
21
-42.0968686041
31
0.0000000000
0
SPLINE
5
40D
100
AcDbEntity
8
0
100
AcDbSpline
62
9
6
CONTINUOUS
70
0
71
3
72
30
73
26
74
24
42
0.0000001000
43
0.0000001000
44
0.0000000001
12
19.1797865226
22
-0.0018706652
32
0.0000000000
13
19.1793294065
23
0.1324313683
33
0.0000000000
40
0.0000000000
40
0.0000000000
40
0.0000000000
40
0.0000000000
40
0.0329836937
40
0.0692277856
40
0.1091705585
40
0.1532368203
40
0.2018438978
40
0.2553933319
40
0.3142536660
40
0.3780337608
40
0.4451012939
40
0.5130036347
40
0.5779589428
40
0.6366211664
40
0.6886260822
40
0.7352521659
40
0.7773626290
40
0.8154671781
40
0.8500416685
40
0.8814510708
40
0.9099419204
40
0.9357713859
40
0.9592071047
40
0.9805225028
40
1.0000000000
40
1.0000000000
40
1.0000000000
40
1.0000000000
10
21.0010107517
20
-41.1789649388
30
0.0000000000
10
21.2118841528
20
-41.1789855060
30
0.0000000000
10
21.6544755306
20
-41.1791235417
30
0.0000000000
10
22.3524313831
20
-41.1796061570
30
0.0000000000
10
23.1212407678
20
-41.1803842708
30
0.0000000000
10
23.9690897312
20
-41.1814063105
30
0.0000000000
10
24.9039294957
20
-41.1826033894
30
0.0000000000
10
25.9333514642
20
-41.1840006244
30
0.0000000000
10
27.0597787509
20
-41.1852708624
30
0.0000000000
10
28.2726309824
20
-41.1863923212
30
0.0000000000
10
29.5432914256
20
-41.1872024259
30
0.0000000000
10
30.8214655497
20
-41.1874157865
30
0.0000000000
10
32.0459023369
20
-41.1872224652
30
0.0000000000
10
33.1687024615
20
-41.1864130617
30
0.0000000000
10
34.1743185574
20
-41.1851758335
30
0.0000000000
10
35.0741142533
20
-41.1835606903
30
0.0000000000
10
35.8850400021
20
-41.1814567436
30
0.0000000000
10
36.6189153070
20
-41.1789935181
30
0.0000000000
10
37.2843747235
20
-41.1763224771
30
0.0000000000
10
37.8883692038
20
-41.1733337911
30
0.0000000000
10
38.4364530883
20
-41.1702446673
30
0.0000000000
10
38.9335584854
20
-41.1671993146
30
0.0000000000
10
39.3847892595
20
-41.1642859937
30
0.0000000000
10
39.7954101153
20
-41.1614899506
30
0.0000000000
10
40.0562035500
20
-41.1596858052
30
0.0000000000
10
40.1807253285
20
-41.1588259947
30
0.0000000000
11
21.0010107517
21
-41.1789649388
31
0.0000000000
11
21.6336309293
21
-41.1791551783
31
0.0000000000
11
22.3287847207
21
-41.1796251508
31
0.0000000000
11
23.0948782079
21
-41.1803810645
31
0.0000000000
11
23.9400591136
21
-41.1813813717
31
0.0000000000
11
24.8723317256
21
-41.1825742812
31
0.0000000000
11
25.8993975671
21
-41.1839170883
31
0.0000000000
11
27.0283254867
21
-41.1851987260
31
0.0000000000
11
28.2516135859
21
-41.1863158239
31
0.0000000000
11
29.5379543214
21
-41.1870987510
31
0.0000000000
11
30.8403067048
21
-41.1873468644
31
0.0000000000
11
32.0861356272
21
-41.1870932630
31
0.0000000000
11
33.2112642660
21
-41.1862811023
31
0.0000000000
11
34.2087066733
21
-41.1850345311
31
0.0000000000
11
35.1029834867
21
-41.1833836453
31
0.0000000000
11
35.9106504500
21
-41.1812826065
31
0.0000000000
11
36.6414834688
21
-41.1788338091
31
0.0000000000
11
37.3046093176
21
-41.1761330382
31
0.0000000000
11
37.9070276591
21
-41.1731690201
31
0.0000000000
11
38.4534674675
21
-41.1701019634
31
0.0000000000
11
38.9488618688
21
-41.1670769742
31
0.0000000000
11
39.3983445593
21
-41.1641707843
31
0.0000000000
11
39.8071599708
21
-41.1614022090
31
0.0000000000
11
40.1807253285
21
-41.1588259947
31
0.0000000000
0
SPLINE
5
40E
100
AcDbEntity
8
0
100
AcDbSpline
62
9
6
CONTINUOUS
70
0
71
3
72
20
73
16
74
14
42
0.0000001000
43
0.0000001000
44
0.0000000001
12
0.0205702830
22
22.1936250822
32
0.0000000000
13
-0.1016883336
23
22.1934016525
33
0.0000000000
40
0.0000000000
40
0.0000000000
40
0.0000000000
40
0.0000000000
40
0.0464384697
40
0.0981530371
40
0.1551964299
40
0.2176291156
40
0.2855262867
40
0.3589706077
40
0.4379934049
40
0.5226487743
40
0.6137590201
40
0.7123916967
40
0.8145535737
40
0.9123729703
40
1.0000000000
40
1.0000000000
40
1.0000000000
40
1.0000000000
10
27.9000589376
20
0.0007290656
30
0.0000000000
10
27.9003773551
20
0.3442750608
30
0.0000000000
10
27.9009593318
20
1.0703990527
30
0.0000000000
10
27.9015258552
20
2.2185232170
30
0.0000000000
10
27.9017748893
20
3.4849707602
30
0.0000000000
10
27.9016172752
20
4.8711352532
30
0.0000000000
10
27.9009913507
20
6.3786316915
30
0.0000000000
10
27.8998856422
20
8.0088595077
30
0.0000000000
10
27.8982134963
20
9.7630620184
30
0.0000000000
10
27.8958778409
20
11.6479542349
30
0.0000000000
10
27.8928515503
20
13.6779171531
30
0.0000000000
10
27.8888028529
20
15.8373895772
30
0.0000000000
10
27.8835361174
20
18.0464930786
30
0.0000000000
10
27.8766839066
20
20.1741736334
30
0.0000000000
10
27.8707909318
20
21.5460712493
30
0.0000000000
10
27.8678207163
20
22.1943185376
30
0.0000000000
11
27.9000589376
21
0.0007290656
31
0.0000000000
11
27.9008779781
21
1.0313671684
31
0.0000000000
11
27.9014524113
21
2.1791012391
31
0.0000000000
11
27.9017045204
21
3.4451014303
31
0.0000000000
11
27.9015551637
21
4.8307096372
31
0.0000000000
11
27.9009449191
21
6.3375945204
31
0.0000000000
11
27.8998416664
21
7.9675905707
31
0.0000000000
11
27.8981725171
21
9.7213928644
31
0.0000000000
11
27.8958611020
21
11.6002017794
31
0.0000000000
11
27.8928102184
21
13.6222669830
31
0.0000000000
11
27.8886692763
21
15.8112806519
31
0.0000000000
11
27.8831365999
21
18.0786172701
31
0.0000000000
11
27.8760307471
21
20.2495735886
31
0.0000000000
11
27.8678207163
21
22.1943185376
31
0.0000000000
0
SPLINE
5
40F
100
AcDbEntity
8
0
100
AcDbSpline
62
9
6
CONTINUOUS
70
0
71
3
72
10
73
6
74
4
42
0.0000001000
43
0.0000001000
44
0.0000000001
12
-1.7168270708
22
-0.0076167951
32
0.0000000000
13
-1.7168036208
23
-0.0117700474
33
0.0000000000
40
0.0000000000
40
0.0000000000
40
0.0000000000
40
0.0000000000
40
0.3558302215
40
0.6939287726
40
1.0000000000
40
1.0000000000
40
1.0000000000
40
1.0000000000
10
27.8254614798
20
-22.1905450630
30
0.0000000000
10
27.6218284942
20
-22.1914484916
30
0.0000000000
10
27.2247104987
20
-22.1933429597
30
0.0000000000
10
26.6524377256
20
-22.1964791333
30
0.0000000000
10
26.2837986275
20
-22.1987991757
30
0.0000000000
10
26.1086438970
20
-22.2000000000
30
0.0000000000
11
27.8254614798
21
-22.1905450630
31
0.0000000000
11
27.2145634914
21
-22.1934654680
31
0.0000000000
11
26.6341098361
21
-22.1966621686
31
0.0000000000
11
26.1086438970
21
-22.2000000000
31
0.0000000000
0
SPLINE
5
410
100
AcDbEntity
8
0
100
AcDbSpline
62
9
6
CONTINUOUS
70
0
71
3
72
18
73
14
74
12
42
0.0000001000
43
0.0000001000
44
0.0000000001
12
-0.0210539651
22
22.1914215082
32
0.0000000000
13
-0.0085439581
23
22.1914298509
33
0.0000000000
40
0.0000000000
40
0.0000000000
40
0.0000000000
40
0.0000000000
40
0.1429654211
40
0.2704329077
40
0.3850074371
40
0.4885754558
40
0.5826267798
40
0.6683997212
40
0.7466684485
40
0.8181752042
40
0.8836923081
40
0.9440002954
40
1.0000000000
40
1.0000000000
40
1.0000000000
40
1.0000000000
10
27.8254614798
20
-22.1905450630
30
0.0000000000
10
27.8244581502
20
-21.1330097561
30
0.0000000000
10
27.8291670821
20
-19.1325747517
30
0.0000000000
10
27.8434924481
20
-16.2846563838
30
0.0000000000
10
27.8575935514
20
-13.7281678635
30
0.0000000000
10
27.8697200526
20
-11.4188567160
30
0.0000000000
10
27.8795055250
20
-9.3225859098
30
0.0000000000
10
27.8871211871
20
-7.4134499413
30
0.0000000000
10
27.8927267961
20
-5.6710732117
30
0.0000000000
10
27.8966477671
20
-4.0785276496
30
0.0000000000
10
27.8990703953
20
-2.6188374437
30
0.0000000000
10
27.9002046357
20
-1.2738536090
30
0.0000000000
10
27.9002178261
20
-0.4135087740
30
0.0000000000
10
27.9000583398
20
0.0007290650
30
0.0000000000
11
27.8254614798
21
-22.1905450630
31
0.0000000000
11
27.8309330662
21
-19.0179424328
31
0.0000000000
11
27.8442133357
21
-16.1892876101
31
0.0000000000
11
27.8579248100
21
-13.6467517618
31
0.0000000000
11
27.8698556040
21
-11.3484601368
31
0.0000000000
11
27.8795443240
21
-9.2613491124
31
0.0000000000
11
27.8870865638
21
-7.3579397008
31
0.0000000000
11
27.8926592514
21
-5.6210535399
31
0.0000000000
11
27.8965353668
21
-4.0342210037
31
0.0000000000
11
27.8989283341
21
-2.5803046506
31
0.0000000000
11
27.9000399864
21
-1.2419845441
31
0.0000000000
11
27.9000583398
21
0.0007290650
31
0.0000000000
0
SPLINE
5
411
100
AcDbEntity
8
0
100
AcDbSpline
62
9
6
CONTINUOUS
70
0
71
3
72
16
73
12
74
10
42
0.0000001000
43
0.0000001000
44
0.0000000001
12
6.1227958490
22
0.0058534476
32
0.0000000000
13
-0.0095420846
23
6.1227912115
33
0.0000000000
40
0.0000000000
40
0.0000000000
40
0.0000000000
40
0.0000000000
40
0.1181233849
40
0.2314125373
40
0.3392513354
40
0.4407083191
40
0.5498064972
40
0.6695533809
40
0.7912645859
40
0.9019576728
40
1.0000000000
40
1.0000000000
40
1.0000000000
40
1.0000000000
10
22.2000000000
20
-26.0995707387
30
0.0000000000
10
22.4410817902
20
-26.0993402623
30
0.0000000000
10
22.9144974590
20
-26.0548928074
30
0.0000000000
10
23.5843507133
20
-25.8666403815
30
0.0000000000
10
24.1809114276
20
-25.5805180893
30
0.0000000000
10
24.7146730421
20
-25.2051588554
30
0.0000000000
10
25.1976311561
20
-24.7302417778
30
0.0000000000
10
25.6136423187
20
-24.1430382631
30
0.0000000000
10
25.9132123703
20
-23.4847627128
30
0.0000000000
10
26.0762468108
20
-22.8268701466
30
0.0000000000
10
26.1089557252
20
-22.4000975664
30
0.0000000000
10
26.1086438825
20
-22.2000000000
30
0.0000000000
11
22.2000000000
21
-26.0995707387
31
0.0000000000
11
22.9200904693
21
-26.0320869622
31
0.0000000000
11
23.5878462954
21
-25.8443428324
31
0.0000000000
11
24.1831067612
21
-25.5586360245
31
0.0000000000
11
24.6913891639
21
-25.2015095945
31
0.0000000000
11
25.1677343515
21
-24.7332139665
31
0.0000000000
11
25.5913555503
21
-24.1347936500
31
0.0000000000
11
25.8998101369
21
-23.4564143437
31
0.0000000000
11
26.0627252230
21
-22.7985346076
31
0.0000000000
11
26.1086438825
21
-22.2000000000
31
0.0000000000
0
SPLINE
5
412
100
AcDbEntity
8
0
100
AcDbSpline
62
9
6
CONTINUOUS
70
0
71
3
72
10
73
6
74
4
42
0.0000001000
43
0.0000001000
44
0.0000000001
12
-0.0044867691
22
1.8057704500
32
0.0000000000
13
-0.0069978067
23
1.8057624650
33
0.0000000000
40
0.0000000000
40
0.0000000000
40
0.0000000000
40
0.0000000000
40
0.3547024702
40
0.6932371268
40
1.0000000000
40
1.0000000000
40
1.0000000000
40
1.0000000000
10
22.2056019853
20
-27.9053257701
30
0.0000000000
10
22.2050714960
20
-27.6918220237
30
0.0000000000
10
22.2039534552
20
-27.2745465137
30
0.0000000000
10
22.2020952962
20
-26.6726240252
30
0.0000000000
10
22.2007155548
20
-26.2842055170
30
0.0000000000
10
22.1999999991
20
-26.0995585562
30
0.0000000000
11
22.2056019853
21
-27.9053257701
31
0.0000000000
11
22.2038828473
21
-27.2648148608
31
0.0000000000
11
22.2019865328
21
-26.6535000358
31
0.0000000000
11
22.1999999991
21
-26.0995585562
31
0.0000000000
0
SPLINE
5
413
100
AcDbEntity
8
0
100
AcDbSpline
62
9
6
CONTINUOUS
70
0
71
3
72
16
73
12
74
10
42
0.0000001000
43
0.0000001000
44
0.0000000001
12
8.9041943243
22
-0.0620292668
32
0.0000000000
13
-0.0075478762
23
8.9044071798
33
0.0000000000
40
0.0000000000
40
0.0000000000
40
0.0000000000
40
0.0000000000
40
0.1183877526
40
0.2317636595
40
0.3406910319
40
0.4426306232
40
0.5505027290
40
0.6688061625
40
0.7901318191
40
0.9012788522
40
1.0000000000
40
1.0000000000
40
1.0000000000
40
1.0000000000
10
22.2056019853
20
-27.9053257701
30
0.0000000000
10
22.5569845035
20
-27.9077736052
30
0.0000000000
10
23.2471653735
20
-27.8517374333
30
0.0000000000
10
24.2279589458
20
-27.5823832077
30
0.0000000000
10
25.0955918237
20
-27.1525177898
30
0.0000000000
10
25.8582301065
20
-26.5855011675
30
0.0000000000
10
26.5379511561
20
-25.8820059125
30
0.0000000000
10
27.1216909363
20
-25.0250102324
30
0.0000000000
10
27.5453244747
20
-24.0673010654
30
0.0000000000
10
27.7784444885
20
-23.1075143759
30
0.0000000000
10
27.8257101831
20
-22.4835628564
30
0.0000000000
10
27.8254618047
20
-22.1905450908
30
0.0000000000
11
22.2056019853
21
-27.9053257701
31
0.0000000000
11
23.2560965125
21
-27.8173357588
31
0.0000000000
11
24.2290297810
21
-27.5479231031
31
0.0000000000
11
25.0983549574
21
-27.1177536600
31
0.0000000000
11
25.8281329164
21
-26.5779711808
31
0.0000000000
11
26.4961855988
21
-25.8877988122
31
0.0000000000
11
27.0890397966
21
-25.0170390937
31
0.0000000000
11
27.5257155515
21
-24.0288920310
31
0.0000000000
11
27.7590148882
21
-23.0670837730
31
0.0000000000
11
27.8254618047
21
-22.1905450908
31
0.0000000000
0
SPLINE
5
414
100
AcDbEntity
8
0
100
AcDbSpline
62
9
6
CONTINUOUS
70
0
71
3
72
10
73
6
74
4
42
0.0000001000
43
0.0000001000
44
0.0000000001
12
1.2386165253
22
0.0005637203
32
0.0000000000
13
1.2385844020
23
-0.0089383323
33
0.0000000000
40
0.0000000000
40
0.0000000000
40
0.0000000000
40
0.0000000000
40
0.3245097956
40
0.6577761047
40
1.0000000000
40
1.0000000000
40
1.0000000000
40
1.0000000000
10
20.9669997399
20
-27.9000047736
30
0.0000000000
10
21.1009808051
20
-27.8999437960
30
0.0000000000
10
21.3725586923
20
-27.9003579537
30
0.0000000000
10
21.7854266231
20
-27.9023443392
30
0.0000000000
10
22.0643109582
20
-27.9043061742
30
0.0000000000
10
22.2056020178
20
-27.9053258111
30
0.0000000000
11
20.9669997399
21
-27.9000047736
31
0.0000000000
11
21.3689425801
21
-27.9005696495
31
0.0000000000
11
21.7817273718
21
-27.9024774748
31
0.0000000000
11
22.2056020178
21
-27.9053258111
31
0.0000000000
0
SPLINE
5
415
100
AcDbEntity
8
0
100
AcDbSpline
62
9
6
CONTINUOUS
70
0
71
3
72
10
73
6
74
4
42
0.0000001000
43
0.0000001000
44
0.0000000001
12
0.0044782347
22
1.8057583338
32
0.0000000000
13
0.0070056943
23
1.8057502969
33
0.0000000000
40
0.0000000000
40
0.0000000000
40
0.0000000000
40
0.0000000000
40
0.3547034010
40
0.6932379550
40
1.0000000000
40
1.0000000000
40
1.0000000000
40
1.0000000000
10
-22.2056020209
20
-27.9053258129
30
0.0000000000
10
-22.2050725392
20
-27.6918229388
30
0.0000000000
10
-22.2039556843
20
-27.2745497316
30
0.0000000000
10
-22.2020973100
20
-26.6726312894
30
0.0000000000
10
-22.2007163604
20
-26.2842159563
30
0.0000000000
10
-22.2000000000
20
-26.0995707383
30
0.0000000000
11
-22.2056020209
21
-27.9053258129
31
0.0000000000
11
-22.2038847524
21
-27.2648175230
31
0.0000000000
11
-22.2019882435
21
-26.6535069929
31
0.0000000000
11
-22.2000000000
21
-26.0995707383
31
0.0000000000
0
SPLINE
5
416
100
AcDbEntity
8
0
100
AcDbSpline
62
9
6
CONTINUOUS
70
0
71
3
72
10
73
6
74
4
42
0.0000001000
43
0.0000001000
44
0.0000000001
12
1.2381103707
22
0.0089365435
32
0.0000000000
13
1.2381424922
23
-0.0005664760
33
0.0000000000
40
0.0000000000
40
0.0000000000
40
0.0000000000
40
0.0000000000
40
0.3434060277
40
0.6767867752
40
1.0000000000
40
1.0000000000
40
1.0000000000
40
1.0000000000
10
-22.2056020209
20
-27.9053258129
30
0.0000000000
10
-22.0638771662
20
-27.9043028586
30
0.0000000000
10
-21.7845644669
20
-27.9023370736
30
0.0000000000
10
-21.3718545166
20
-27.9003569865
30
0.0000000000
10
-21.1008684528
20
-27.8999444292
30
0.0000000000
10
-20.9674737769
20
-27.9000054600
30
0.0000000000
11
-22.2056020209
21
-27.9053258129
31
0.0000000000
11
-21.7804259787
21
-27.9024690449
31
0.0000000000
11
-21.3676574543
21
-27.9005656681
31
0.0000000000
11
-20.9674737769
21
-27.9000054600
31
0.0000000000
0
SPLINE
5
417
100
AcDbEntity
8
0
100
AcDbSpline
62
9
6
CONTINUOUS
70
0
71
3
72
16
73
12
74
10
42
0.0000001000
43
0.0000001000
44
0.0000000001
12
-0.0096382225
22
-6.1227892840
32
0.0000000000
13
6.1227939619
23
-0.0059675932
33
0.0000000000
40
0.0000000000
40
0.0000000000
40
0.0000000000
40
0.0000000000
40
0.0971644630
40
0.2069707134
40
0.3274038097
40
0.4474910025
40
0.5578432736
40
0.6594606320
40
0.7675059743
40
0.8809673335
40
1.0000000000
40
1.0000000000
40
1.0000000000
40
1.0000000000
10
-26.1086438825
20
-22.2000000000
30
0.0000000000
10
-26.1089560467
20
-22.3983058442
30
0.0000000000
10
-26.0768179893
20
-22.8214563998
30
0.0000000000
10
-25.9166684075
20
-23.4735809795
30
0.0000000000
10
-25.6211899478
20
-24.1294823030
30
0.0000000000
10
-25.2074339020
20
-24.7191075597
30
0.0000000000
10
-24.7233875368
20
-25.1981633342
30
0.0000000000
10
-24.1877260901
20
-25.5765944675
30
0.0000000000
10
-23.5906944897
20
-25.8643283824
30
0.0000000000
10
-22.9185860671
20
-26.0543336601
30
0.0000000000
10
-22.4429374973
20
-26.0993339592
30
0.0000000000
10
-22.2000000000
20
-26.0995707387
30
0.0000000000
11
-26.1086438825
21
-22.2000000000
31
0.0000000000
11
-26.0635514834
21
-22.7932068975
31
0.0000000000
11
-25.9033128480
21
-23.4461537557
31
0.0000000000
11
-25.6006494258
21
-24.1185636075
31
0.0000000000
11
-25.1785256414
21
-24.7205874697
31
0.0000000000
11
-24.6982371285
21
-25.1958195341
31
0.0000000000
11
-24.1899247763
21
-25.5546085336
31
0.0000000000
11
-23.5940625773
21
-25.8419811013
31
0.0000000000
11
-22.9255844348
21
-26.0310478912
31
0.0000000000
11
-22.2000000000
21
-26.0995707387
31
0.0000000000
0
SPLINE
5
418
100
AcDbEntity
8
0
100
AcDbSpline
62
9
6
CONTINUOUS
70
0
71
3
72
10
73
6
74
4
42
0.0000001000
43
0.0000001000
44
0.0000000001
12
1.7168314231
22
-0.0076170571
32
0.0000000000
13
1.7168079765
23
-0.0117697478
33
0.0000000000
40
0.0000000000
40
0.0000000000
40
0.0000000000
40
0.0000000000
40
0.3558299074
40
0.6939285078
40
1.0000000000
40
1.0000000000
40
1.0000000000
40
1.0000000000
10
-27.8254618808
20
-22.1905450976
30
0.0000000000
10
-27.6218285587
20
-22.1914485565
30
0.0000000000
10
-27.2247097079
20
-22.1933430572
30
0.0000000000
10
-26.6524354835
20
-22.1964792110
30
0.0000000000
10
-26.2837952705
20
-22.1987992052
30
0.0000000000
10
-26.1086399441
20
-22.1999999999
30
0.0000000000
11
-27.8254618808
21
-22.1905450976
31
0.0000000000
11
-27.2145628827
21
-22.1934655529
31
0.0000000000
11
-26.6341076707
21
-22.1966622349
31
0.0000000000
11
-26.1086399441
21
-22.1999999999
31
0.0000000000
0
SPLINE
5
419
100
AcDbEntity
8
0
100
AcDbSpline
62
9
6
CONTINUOUS
70
0
71
3
72
16
73
12
74
10
42
0.0000001000
43
0.0000001000
44
0.0000000001
12
-0.0081371941
22
-8.9043940255
32
0.0000000000
13
8.9041794678
23
0.0623472574
33
0.0000000000
40
0.0000000000
40
0.0000000000
40
0.0000000000
40
0.0000000000
40
0.0978437946
40
0.2080994956
40
0.3281659486
40
0.4468447762
40
0.5559454953
40
0.6579735669
40
0.7671783206
40
0.8807072188
40
1.0000000000
40
1.0000000000
40
1.0000000000
40
1.0000000000
10
-27.8254618808
20
-22.1905450976
30
0.0000000000
10
-27.8257272721
20
-22.4809583311
30
0.0000000000
10
-27.7792513864
20
-23.0996317341
30
0.0000000000
10
-27.5502081986
20
-24.0510418594
30
0.0000000000
10
-27.1322748054
20
-25.0053094452
30
0.0000000000
10
-26.5517228924
20
-25.8657715628
30
0.0000000000
10
-25.8704791638
20
-26.5749552459
30
0.0000000000
10
-25.1054131344
20
-27.1466179002
30
0.0000000000
10
-24.2372813946
20
-27.5790862465
30
0.0000000000
10
-23.2530245107
20
-27.8508930879
30
0.0000000000
10
-22.5596701241
20
-27.9078049960
30
0.0000000000
10
-22.2056020131
20
-27.9053258034
30
0.0000000000
11
-27.8254618808
21
-22.1905450976
31
0.0000000000
11
-27.7601892423
21
-23.0593366331
31
0.0000000000
11
-27.5306887871
21
-24.0138959267
31
0.0000000000
11
-27.1021442692
21
-24.9933682350
31
0.0000000000
11
-26.5112142466
21
-25.8694679837
31
0.0000000000
11
-25.8376734094
21
-26.5695456528
31
0.0000000000
11
-25.1085186964
21
-27.1114893619
31
0.0000000000
11
-24.2378863350
21
-27.5445783090
31
0.0000000000
11
-23.2640573228
21
-27.8158511151
31
0.0000000000
11
-22.2056020131
21
-27.9053258034
31
0.0000000000
0
SPLINE
5
41A
100
AcDbEntity
8
0
100
AcDbSpline
62
9
6
CONTINUOUS
70
0
71
3
72
18
73
14
74
12
42
0.0000001000
43
0.0000001000
44
0.0000000001
12
-0.0085506199
22
-22.1899719308
32
0.0000000000
13
-0.0210264538
23
-22.1899636163
33
0.0000000000
40
0.0000000000
40
0.0000000000
40
0.0000000000
40
0.0000000000
40
0.0578903597
40
0.1213951627
40
0.1907428701
40
0.2661526203
40
0.3478281381
40
0.4359396009
40
0.5307767142
40
0.6332072623
40
0.7443089126
40
0.8655824771
40
1.0000000000
40
1.0000000000
40
1.0000000000
40
1.0000000000
10
-27.9000589090
20
-0.0007292036
30
0.0000000000
10
-27.9002239085
20
-0.4289243557
30
0.0000000000
10
-27.9001954883
20
-1.3268429609
30
0.0000000000
10
-27.8989379029
20
-2.7377023194
30
0.0000000000
10
-27.8962430528
20
-4.2781448363
30
0.0000000000
10
-27.8919249927
20
-5.9529866942
30
0.0000000000
10
-27.8858312471
20
-7.7666129712
30
0.0000000000
10
-27.8777327828
20
-9.7239302698
30
0.0000000000
10
-27.8676196230
20
-11.8347579278
30
0.0000000000
10
-27.8554612805
20
-14.1156278152
30
0.0000000000
10
-27.8418373262
20
-16.5920342292
30
0.0000000000
10
-27.8285993002
20
-19.3050417727
30
0.0000000000
10
-27.8245193660
20
-21.1963050818
30
0.0000000000
10
-27.8254614739
20
-22.1905450623
30
0.0000000000
11
-27.9000589090
21
-0.0007292036
31
0.0000000000
11
-27.9000212536
21
-1.2853147546
31
0.0000000000
11
-27.8987837687
21
-2.6944841128
31
0.0000000000
11
-27.8961178364
21
-4.2333055983
31
0.0000000000
11
-27.8918351469
21
-5.9066404828
31
0.0000000000
11
-27.8857652338
21
-7.7190078986
31
0.0000000000
11
-27.8777334771
21
-9.6741824344
31
0.0000000000
11
-27.8677067886
21
-11.7785915866
31
0.0000000000
11
-27.8557410438
21
-14.0514912442
31
0.0000000000
11
-27.8424956344
21
-16.5167983478
31
0.0000000000
11
-27.8302318306
21
-19.2078275963
31
0.0000000000
11
-27.8254614739
21
-22.1905450623
31
0.0000000000
0
SPLINE
5
41B
100
AcDbEntity
8
0
100
AcDbSpline
62
9
6
CONTINUOUS
70
0
71
3
72
10
73
6
74
4
42
0.0000001000
43
0.0000001000
44
0.0000000001
12
1.7659587746
22
0.0045623836
32
0.0000000000
13
1.7659504645
23
0.0070827650
33
0.0000000000
40
0.0000000000
40
0.0000000000
40
0.0000000000
40
0.0000000000
40
0.3550538381
40
0.6933835416
40
1.0000000000
40
1.0000000000
40
1.0000000000
40
1.0000000000
10
-27.8678207246
20
22.1943185407
30
0.0000000000
10
-27.6588172444
20
22.1948585046
30
0.0000000000
10
-27.2506551986
20
22.1959942781
30
0.0000000000
10
-26.6620033106
20
22.1978789750
30
0.0000000000
10
-26.2823551463
20
22.1992761026
30
0.0000000000
10
-26.1018653205
20
22.2000000000
30
0.0000000000
11
-27.8678207246
21
22.1943185407
31
0.0000000000
11
-27.2408106278
21
22.1960665213
31
0.0000000000
11
-26.6433354173
21
22.1979887193
31
0.0000000000
11
-26.1018653205
21
22.2000000000
31
0.0000000000
0
SPLINE
5
41C
100
AcDbEntity
8
0
100
AcDbSpline
62
9
6
CONTINUOUS
70
0
71
3
72
20
73
16
74
14
42
0.0000001000
43
0.0000001000
44
0.0000000001
12
-0.1016248327
22
-22.1948602624
32
0.0000000000
13
0.0205671278
23
-22.1950833895
33
0.0000000000
40
0.0000000000
40
0.0000000000
40
0.0000000000
40
0.0000000000
40
0.0783511797
40
0.1636010631
40
0.2565284295
40
0.3550106422
40
0.4546286110
40
0.5492689585
40
0.6348401007
40
0.7116801620
40
0.7807519942
40
0.8430900956
40
0.8997162879
40
0.9516382032
40
1.0000000000
40
1.0000000000
40
1.0000000000
40
1.0000000000
10
-27.8678207246
20
22.1943185407
30
0.0000000000
10
-27.8704748665
20
21.6146540455
30
0.0000000000
10
-27.8757299356
20
20.4042850571
30
0.0000000000
10
-27.8821671828
20
18.5064049116
30
0.0000000000
10
-27.8874351742
20
16.4595840471
30
0.0000000000
10
-27.8917813078
20
14.3064605278
30
0.0000000000
10
-27.8952100517
20
12.1406621147
30
0.0000000000
10
-27.8978835663
20
10.0703835360
30
0.0000000000
10
-27.8997640262
20
8.1686234159
30
0.0000000000
10
-27.9009524203
20
6.4560279774
30
0.0000000000
10
-27.9016062107
20
4.9153187668
30
0.0000000000
10
-27.9017754958
20
3.5241589922
30
0.0000000000
10
-27.9015395421
20
2.2598805667
30
0.0000000000
10
-27.9009796455
20
1.0990040480
30
0.0000000000
10
-27.9003891299
20
0.3570688348
30
0.0000000000
10
-27.9000575755
20
-0.0007292031
30
0.0000000000
11
-27.8678207246
21
22.1943185407
31
0.0000000000
11
-27.8752446418
21
20.4553226726
31
0.0000000000
11
-27.8817276647
21
18.5632046963
31
0.0000000000
11
-27.8871440831
21
16.5006802774
31
0.0000000000
11
-27.8916066415
21
14.3148629709
31
0.0000000000
11
-27.8951580857
21
12.1038357481
31
0.0000000000
11
-27.8978589529
21
10.0032861794
31
0.0000000000
11
-27.8997295363
21
8.1040276467
31
0.0000000000
11
-27.9009115976
21
6.3985557568
31
0.0000000000
11
-27.9015460565
21
4.8655001537
31
0.0000000000
11
-27.9017061264
21
3.4819002103
31
0.0000000000
11
-27.9014684274
21
2.2250766328
31
0.0000000000
11
-27.9009045695
21
1.0726650373
31
0.0000000000
11
-27.9000575755
21
-0.0007292031
31
0.0000000000
0
SPLINE
5
41D
100
AcDbEntity
8
0
100
AcDbSpline
62
9
6
CONTINUOUS
70
0
71
3
72
10
73
6
74
4
42
0.0000001000
43
0.0000001000
44
0.0000000001
12
-0.0038420051
22
-1.7683430884
32
0.0000000000
13
-0.0059710443
23
-1.7683371811
33
0.0000000000
40
0.0000000000
40
0.0000000000
40
0.0000000000
40
0.0000000000
40
0.3550815293
40
0.6934254009
40
1.0000000000
40
1.0000000000
40
1.0000000000
40
1.0000000000
10
-22.1952128161
20
27.8705612145
30
0.0000000000
10
-22.1956675578
20
27.6612592252
30
0.0000000000
10
-22.1966242676
20
27.2525213651
30
0.0000000000
10
-22.1982122898
20
26.6630744057
30
0.0000000000
10
-22.1993898098
20
26.2829296086
30
0.0000000000
10
-22.2000000000
20
26.1022205212
30
0.0000000000
11
-22.1952128161
21
27.8705612145
31
0.0000000000
11
-22.1966852412
21
27.2426554908
31
0.0000000000
11
-22.1983049547
21
26.6443482243
31
0.0000000000
11
-22.2000000000
21
26.1022205212
31
0.0000000000
0
SPLINE
5
41E
100
AcDbEntity
8
0
100
AcDbSpline
62
9
6
CONTINUOUS
70
0
71
3
72
16
73
12
74
10
42
0.0000001000
43
0.0000001000
44
0.0000000001
12
-8.9116049437
22
-0.0394543792
32
0.0000000000
13
-0.0429632479
23
-8.9115887181
33
0.0000000000
40
0.0000000000
40
0.0000000000
40
0.0000000000
40
0.0000000000
40
0.0867075898
40
0.1841200160
40
0.2925923451
40
0.4079303536
40
0.5256704854
40
0.6451761509
40
0.7636669017
40
0.8828277226
40
1.0000000000
40
1.0000000000
40
1.0000000000
40
1.0000000000
10
-22.1952128161
20
27.8705612145
30
0.0000000000
10
-22.4527807447
20
27.8694208832
30
0.0000000000
10
-23.0002038870
20
27.8312421920
30
0.0000000000
10
-23.8533765273
20
27.6497325706
30
0.0000000000
10
-24.7479185696
20
27.3046529263
30
0.0000000000
10
-25.6208699877
20
26.7764478581
30
0.0000000000
10
-26.4051337756
20
26.0726810117
30
0.0000000000
10
-27.0461854813
20
25.2243094404
30
0.0000000000
10
-27.5169218058
20
24.2665430071
30
0.0000000000
10
-27.8015019451
20
23.2457335990
30
0.0000000000
10
-27.8661429115
20
22.5423822860
30
0.0000000000
10
-27.8678209454
20
22.1943185709
30
0.0000000000
11
-22.1952128161
21
27.8705612145
31
0.0000000000
11
-22.9660375885
21
27.8165981348
31
0.0000000000
11
-23.8150842036
21
27.6356725536
31
0.0000000000
11
-24.7167623568
21
27.2872026148
31
0.0000000000
11
-25.5958093595
21
26.7545056561
31
0.0000000000
11
-26.3765312668
21
26.0534864868
31
0.0000000000
11
-27.0189687808
21
25.2040783535
31
0.0000000000
11
-27.4855556191
21
24.2568013650
31
0.0000000000
11
-27.7713426769
21
23.2340552847
31
0.0000000000
11
-27.8678209454
21
22.1943185709
31
0.0000000000
0
SPLINE
5
41F
100
AcDbEntity
8
0
100
AcDbSpline
62
9
6
CONTINUOUS
70
0
71
3
72
25
73
21
74
19
42
0.0000001000
43
0.0000001000
44
0.0000000001
12
-22.1912791872
22
-0.0071062855
32
0.0000000000
13
-22.1910633703
23
-0.0981272483
33
0.0000000000
40
0.0000000000
40
0.0000000000
40
0.0000000000
40
0.0000000000
40
0.0320735501
40
0.0671901899
40
0.1054897555
40
0.1471155603
40
0.1922233623
40
0.2409795271
40
0.2935702416
40
0.3503867041
40
0.4121358272
40
0.4795010010
40
0.5520130937
40
0.6279952757
40
0.7046621822
40
0.7771351437
40
0.8422237514
40
0.9003983729
40
0.9526464578
40
1.0000000000
40
1.0000000000
40
1.0000000000
40
1.0000000000
10
-0.0039624750
20
27.8996358738
30
0.0000000000
10
-0.2412135097
20
27.8995598992
30
0.0000000000
10
-0.7382255908
20
27.8993798610
30
0.0000000000
10
-1.5185430961
20
27.8990410695
30
0.0000000000
10
-2.3695194906
20
27.8986174563
30
0.0000000000
10
-3.2944014093
20
27.8981060915
30
0.0000000000
10
-4.2966317278
20
27.8975006326
30
0.0000000000
10
-5.3799704620
20
27.8967966969
30
0.0000000000
10
-6.5499192024
20
27.8959901284
30
0.0000000000
10
-7.8159780190
20
27.8950782141
30
0.0000000000
10
-9.1913248237
20
27.8940336261
30
0.0000000000
10
-10.6827735775
20
27.8928236114
30
0.0000000000
10
-12.2795054815
20
27.8914291681
30
0.0000000000
10
-13.9450429610
20
27.8897724627
30
0.0000000000
10
-15.6102906304
20
27.8877845506
30
0.0000000000
10
-17.1949569200
20
27.8853916866
30
0.0000000000
10
-18.6428329918
20
27.8824968931
30
0.0000000000
10
-19.9411022437
20
27.8791010019
30
0.0000000000
10
-21.1081813870
20
27.8751661762
30
0.0000000000
10
-21.8449376534
20
27.8721100203
30
0.0000000000
10
-22.1952128055
20
27.8705611293
30
0.0000000000
11
-0.0039624750
21
27.8996358738
31
0.0000000000
11
-0.7157155696
21
27.8993798688
31
0.0000000000
11
-1.4949986956
21
27.8990433864
31
0.0000000000
11
-2.3449149870
21
27.8986222240
31
0.0000000000
11
-3.2686447503
21
27.8981127641
31
0.0000000000
11
-4.2696444481
21
27.8975096125
31
0.0000000000
11
-5.3516059405
21
27.8968082532
31
0.0000000000
11
-6.5186609529
21
27.8960059049
31
0.0000000000
11
-7.7794906718
21
27.8950965942
31
0.0000000000
11
-9.1497823744
21
27.8940538639
31
0.0000000000
11
-10.6447013376
21
27.8928396181
31
0.0000000000
11
-12.2538368875
21
27.8914197910
31
0.0000000000
11
-13.9399779333
21
27.8897218095
31
0.0000000000
11
-15.6413134913
21
27.8876553211
31
0.0000000000
11
-17.2495793790
21
27.8851710042
31
0.0000000000
11
-18.6939759400
21
27.8822379384
31
0.0000000000
11
-19.9849407351
21
27.8788149850
31
0.0000000000
11
-21.1443859784
21
27.8748866652
31
0.0000000000
11
-22.1952128055
21
27.8705611293
31
0.0000000000
0
SPLINE
5
420
100
AcDbEntity
8
0
100
AcDbSpline
62
9
6
CONTINUOUS
70
0
71
3
72
10
73
6
74
4
42
0.0000001000
43
0.0000001000
44
0.0000000001
12
0.0038421783
22
-1.7683403875
32
0.0000000000
13
0.0059708784
23
-1.7683344811
33
0.0000000000
40
0.0000000000
40
0.0000000000
40
0.0000000000
40
0.0000000000
40
0.3550817224
40
0.6934255621
40
1.0000000000
40
1.0000000000
40
1.0000000000
40
1.0000000000
10
22.1952128057
20
27.8705611314
30
0.0000000000
10
22.1956675682
20
27.6612593479
30
0.0000000000
10
22.1966243047
20
27.2525220171
30
0.0000000000
10
22.1982123291
20
26.6630759578
30
0.0000000000
10
22.1993898271
20
26.2829318551
30
0.0000000000
10
22.2000000000
20
26.1022231386
30
0.0000000000
11
22.1952128057
21
27.8705611314
31
0.0000000000
11
22.1966852727
21
27.2426560252
31
0.0000000000
11
22.1983049879
21
26.6443497287
31
0.0000000000
11
22.2000000000
21
26.1022231386
31
0.0000000000
0
SPLINE
5
421
100
AcDbEntity
8
0
100
AcDbSpline
62
9
6
CONTINUOUS
70
0
71
3
72
25
73
21
74
19
42
0.0000001000
43
0.0000001000
44
0.0000000001
12
-22.1989882766
22
0.0981580510
32
0.0000000000
13
-22.1992041530
23
0.0071050804
33
0.0000000000
40
0.0000000000
40
0.0000000000
40
0.0000000000
40
0.0000000000
40
0.0444525630
40
0.0932421557
40
0.1465265848
40
0.2044609154
40
0.2672113468
40
0.3350959451
40
0.4085304824
40
0.4861537568
40
0.5628641710
40
0.6342744178
40
0.6993322090
40
0.7576813363
40
0.8095514571
40
0.8557640392
40
0.8971256149
40
0.9344309655
40
0.9684653615
40
1.0000000000
40
1.0000000000
40
1.0000000000
40
1.0000000000
10
22.1952128057
20
27.8705611314
30
0.0000000000
10
21.8662788310
20
27.8720155904
30
0.0000000000
10
21.1763175172
20
27.8748903616
30
0.0000000000
10
20.0920659326
20
27.8786241127
30
0.0000000000
10
18.9080508243
20
27.8818518580
30
0.0000000000
10
17.6207277650
20
27.8845982400
30
0.0000000000
10
16.2253663303
20
27.8869118100
30
0.0000000000
10
14.7153068731
20
27.8888924849
30
0.0000000000
10
13.0951919847
20
27.8906526831
30
0.0000000000
10
11.4097681622
20
27.8922073894
30
0.0000000000
10
9.7393234216
20
27.8936018508
30
0.0000000000
10
8.1618598192
20
27.8948239010
30
0.0000000000
10
6.7202647834
20
27.8958712448
30
0.0000000000
10
5.4232614350
20
27.8967689360
30
0.0000000000
10
4.2657075750
20
27.8975208388
30
0.0000000000
10
3.2338570389
20
27.8981413056
30
0.0000000000
10
2.3097818963
20
27.8986486371
30
0.0000000000
10
1.4758220674
20
27.8990604284
30
0.0000000000
10
0.7145789401
20
27.8993893430
30
0.0000000000
10
0.2293854847
20
27.8995629789
30
0.0000000000
10
-0.0039624748
20
27.8996376643
30
0.0000000000
11
22.1952128057
21
27.8705611314
31
0.0000000000
11
21.2084096779
21
27.8746432764
31
0.0000000000
11
20.1253259583
21
27.8783857588
31
0.0000000000
11
18.9424584712
21
27.8816460975
31
0.0000000000
11
17.6563653739
21
27.8844243833
31
0.0000000000
11
16.2633576431
21
27.8867715587
31
0.0000000000
11
14.7563748534
21
27.8887842799
31
0.0000000000
11
13.1261874679
21
27.8905756787
31
0.0000000000
11
11.4030132206
21
27.8921882966
31
0.0000000000
11
9.7001035863
21
27.8936169256
31
0.0000000000
11
8.1148533343
21
27.8948469957
31
0.0000000000
11
6.6706224551
21
27.8958985829
31
0.0000000000
11
5.3753185071
21
27.8967923893
31
0.0000000000
11
4.2238432907
21
27.8975382389
31
0.0000000000
11
3.1979608780
21
27.8981534530
31
0.0000000000
11
2.2797669043
21
27.8986562269
31
0.0000000000
11
1.4516178686
21
27.8990634729
31
0.0000000000
11
0.6960813951
21
27.8993876349
31
0.0000000000
11
-0.0039624748
21
27.8996376643
31
0.0000000000
0
SPLINE
5
422
100
AcDbEntity
8
0
100
AcDbSpline
62
9
6
CONTINUOUS
70
0
71
3
72
10
73
6
74
4
42
0.0000001000
43
0.0000001000
44
0.0000000001
12
-1.7659683174
22
0.0045598522
32
0.0000000000
13
-1.7659599909
23
0.0070852374
33
0.0000000000
40
0.0000000000
40
0.0000000000
40
0.0000000000
40
0.0000000000
40
0.3550531273
40
0.6933829479
40
1.0000000000
40
1.0000000000
40
1.0000000000
40
1.0000000000
10
27.8678210593
20
22.1943185870
30
0.0000000000
10
27.6588168680
20
22.1948582503
30
0.0000000000
10
27.2506529666
20
22.1959936515
30
0.0000000000
10
26.6619978998
20
22.1978783684
30
0.0000000000
10
26.2823472681
20
22.1992758478
30
0.0000000000
10
26.1018561193
20
22.1999999993
30
0.0000000000
11
27.8678210593
21
22.1943185870
31
0.0000000000
11
27.2408088302
21
22.1960659851
31
0.0000000000
11
26.6433301866
21
22.1979882053
31
0.0000000000
11
26.1018561193
21
22.1999999993
31
0.0000000000
0
SPLINE
5
423
100
AcDbEntity
8
0
100
AcDbSpline
62
9
6
CONTINUOUS
70
0
71
3
72
16
73
12
74
10
42
0.0000001000
43
0.0000001000
44
0.0000000001
12
-0.0423622724
22
8.9116238298
32
0.0000000000
13
-8.9116351138
23
0.0399179709
33
0.0000000000
40
0.0000000000
40
0.0000000000
40
0.0000000000
40
0.0000000000
40
0.1168884336
40
0.2354961100
40
0.3530682383
40
0.4719426209
40
0.5894533685
40
0.7049505272
40
0.8144120501
40
0.9124613314
40
1.0000000000
40
1.0000000000
40
1.0000000000
40
1.0000000000
10
27.8678210593
20
22.1943185870
30
0.0000000000
10
27.8661705061
20
22.5415405037
30
0.0000000000
10
27.8018515027
20
23.2423950361
30
0.0000000000
10
27.5195954433
20
24.2583519224
30
0.0000000000
10
27.0536107510
20
25.2113407795
30
0.0000000000
10
26.4186459329
20
26.0575484472
30
0.0000000000
10
25.6388234428
20
26.7630887501
30
0.0000000000
10
24.7656492280
20
27.2962522143
30
0.0000000000
10
23.8671099922
20
27.6460392924
30
0.0000000000
10
23.0070528810
20
27.8305898387
30
0.0000000000
10
22.4552503722
20
27.8693964143
30
0.0000000000
10
22.1952128146
20
27.8705612029
30
0.0000000000
11
27.8678210593
21
22.1943185870
31
0.0000000000
11
27.7717854798
21
23.2315597456
31
0.0000000000
11
27.4882116299
21
24.2498095315
31
0.0000000000
11
27.0271720365
21
25.1906949348
31
0.0000000000
11
26.3909579675
21
26.0377537510
31
0.0000000000
11
25.6145970549
21
26.7405628319
31
0.0000000000
11
24.7364947762
21
27.2775464076
31
0.0000000000
11
23.8276741026
21
27.6319861807
31
0.0000000000
11
22.9733944614
21
27.8155946887
31
0.0000000000
11
22.1952128146
21
27.8705612029
31
0.0000000000
0
SPLINE
5
424
100
AcDbEntity
8
0
100
AcDbSpline
62
9
6
CONTINUOUS
70
0
71
3
72
12
73
8
74
6
42
0.0000001000
43
0.0000001000
44
0.0000000001
12
0.0454342702
22
-13.5563865205
32
0.0000000000
13
0.1067253441
23
-13.5560425445
33
0.0000000000
40
0.0000000000
40
0.0000000000
40
0.0000000000
40
0.0000000000
40
0.2181800357
40
0.4321460936
40
0.6352228949
40
0.8242134425
40
1.0000000000
40
1.0000000000
40
1.0000000000
40
1.0000000000
10
0.0030341435
20
41.4560938589
30
0.0000000000
10
0.0063384270
20
40.4701828937
30
0.0000000000
10
0.0025768818
20
38.5173832560
30
0.0000000000
10
0.0003397211
20
35.6469313453
30
0.0000000000
10
0.0002226817
20
32.9083682363
30
0.0000000000
10
-0.0037618273
20
30.3423581066
30
0.0000000000
10
-0.0077561669
20
28.6939601345
30
0.0000000000
10
-0.0015025399
20
27.8996367835
30
0.0000000000
11
0.0030341435
21
41.4560938589
31
0.0000000000
11
0.0031110723
21
38.4983443530
31
0.0000000000
11
0.0006667866
21
35.5977225094
31
0.0000000000
11
-0.0004977957
21
32.8447196827
31
0.0000000000
11
-0.0042396087
21
30.2826791146
31
0.0000000000
11
-0.0015025399
21
27.8996367835
31
0.0000000000
0
SPLINE
5
425
100
AcDbEntity
8
0
100
AcDbSpline
62
9
6
CONTINUOUS
70
0
71
3
72
10
73
6
74
4
42
0.0000001000
43
0.0000001000
44
0.0000000001
12
-0.0803117746
22
-13.2788103866
32
0.0000000000
13
0.0189478431
23
-13.2790397334
33
0.0000000000
40
0.0000000000
40
0.0000000000
40
0.0000000000
40
0.0000000000
40
0.3327897785
40
0.6686653114
40
1.0000000000
40
1.0000000000
40
1.0000000000
40
1.0000000000
10
-20.9680114623
20
-27.9000059907
30
0.0000000000
10
-20.9769204415
20
-29.3730234465
30
0.0000000000
10
-21.0034465797
20
-32.3326784608
30
0.0000000000
10
-21.0009477712
20
-36.7590611642
30
0.0000000000
10
-21.0029805889
20
-39.7123627345
30
0.0000000000
10
-21.0008878963
20
-41.1789648995
30
0.0000000000
11
-20.9680114623
21
-27.9000059907
31
0.0000000000
11
-20.9963398274
21
-32.3190483822
31
0.0000000000
11
-21.0018740701
21
-36.7791540358
31
0.0000000000
11
-21.0008878963
21
-41.1789648995
31
0.0000000000
0
SPLINE
5
426
100
AcDbEntity
8
0
100
AcDbSpline
62
7
6
CONTINUOUS
70
0
71
3
72
8
73
4
74
2
42
0.0000001000
43
0.0000001000
44
0.0000000001
12
-0.2653826160
22
-0.8281890560
32
0.0000000000
13
-0.2466634329
23
-0.8339629111
33
0.0000000000
40
0.0000000000
40
0.0000000000
40
0.0000000000
40
0.0000000000
40
1.0000000000
40
1.0000000000
40
1.0000000000
40
1.0000000000
10
-95.5324001635
20
39.6785153398
30
0.0000000000
10
-95.6208610355
20
39.4024523211
30
0.0000000000
10
-95.7062160463
20
39.1253854498
30
0.0000000000
10
-95.7884371906
20
38.8473978127
30
0.0000000000
11
-95.5324001635
21
39.6785153398
31
0.0000000000
11
-95.7884371906
21
38.8473978127
31
0.0000000000
0
SPLINE
5
427
100
AcDbEntity
8
0
100
AcDbSpline
62
7
6
CONTINUOUS
70
0
71
3
72
12
73
8
74
6
42
0.0000001000
43
0.0000001000
44
0.0000000001
12
-3.1487598007
22
-10.6458783096
32
0.0000000000
13
-0.0017768986
23
-11.0977862917
33
0.0000000000
40
0.0000000000
40
0.0000000000
40
0.0000000000
40
0.0000000000
40
0.0327429012
40
0.3017890684
40
0.5532563299
40
0.7851655929
40
1.0000000000
40
1.0000000000
40
1.0000000000
40
1.0000000000
10
-95.7884371906
20
38.8473978127
30
0.0000000000
10
-95.8228037010
20
38.7312054989
30
0.0000000000
10
-96.1345111909
20
37.6587862809
30
0.0000000000
10
-96.6203652386
20
35.6686608912
30
0.0000000000
10
-97.0768907078
20
32.9204230609
30
0.0000000000
10
-97.3224048948
20
30.3474188017
30
0.0000000000
10
-97.3735946809
20
28.6943655629
30
0.0000000000
10
-97.3737219272
20
27.8996367835
30
0.0000000000
11
-95.7884371906
21
38.8473978127
31
0.0000000000
11
-95.8898921758
21
38.4983443530
31
0.0000000000
11
-96.5980556509
21
35.5977225094
31
0.0000000000
11
-97.0553839403
21
32.8447196827
31
0.0000000000
11
-97.2998714809
21
30.2826791146
31
0.0000000000
11
-97.3737219272
21
27.8996367835
31
0.0000000000
0
SPLINE
5
428
100
AcDbEntity
8
0
100
AcDbSpline
62
7
6
CONTINUOUS
70
0
71
3
72
9
73
5
74
3
42
0.0000001000
43
0.0000001000
44
0.0000000001
12
0.0314251441
22
0.8560484099
32
0.0000000000
13
0.0089307724
23
0.6539533880
33
0.0000000000
40
0.0000000000
40
0.0000000000
40
0.0000000000
40
0.0000000000
40
0.3854596099
40
1.0000000000
40
1.0000000000
40
1.0000000000
40
1.0000000000
10
-97.3735923473
20
-27.7553475333
30
0.0000000000
10
-97.3695546394
20
-27.6453568379
30
0.0000000000
10
-97.3791364754
20
-27.5418353360
30
0.0000000000
10
-97.3753033314
20
-27.3196765690
30
0.0000000000
10
-97.3734738913
20
-27.1857163123
30
0.0000000000
11
-97.3735923473
21
-27.7553475333
31
0.0000000000
11
-97.3749482751
21
-27.5479231031
31
0.0000000000
11
-97.3734738913
21
-27.1857163123
31
0.0000000000
0
SPLINE
5
429
100
AcDbEntity
8
0
100
AcDbSpline
62
7
6
CONTINUOUS
70
0
71
3
72
9
73
5
74
3
42
0.0000001000
43
0.0000001000
44
0.0000000001
12
0.0008557211
22
-0.0854373896
32
0.0000000000
13
0.0025716641
23
-0.0697781434
33
0.0000000000
40
0.0000000000
40
0.0000000000
40
0.0000000000
40
0.0000000000
40
0.6544911944
40
1.0000000000
40
1.0000000000
40
1.0000000000
40
1.0000000000
10
-97.3758549102
20
-27.4922767800
30
0.0000000000
10
-97.3756682229
20
-27.5109161197
30
0.0000000000
10
-97.3751970586
20
-27.5376827383
30
0.0000000000
10
-97.3743737656
20
-27.5612397970
30
0.0000000000
10
-97.3740775881
20
-27.5692761180
30
0.0000000000
11
-97.3758549102
21
-27.4922767800
31
0.0000000000
11
-97.3749006397
21
-27.5445783090
31
0.0000000000
11
-97.3740775881
21
-27.5692761180
31
0.0000000000
0
SPLINE
5
42A
100
AcDbEntity
8
0
100
AcDbSpline
62
7
6
CONTINUOUS
70
0
71
3
72
15
73
11
74
9
42
0.0000001000
43
0.0000001000
44
0.0000000001
12
-0.0075514002
22
10.3337891504
32
0.0000000000
13
0.0025918087
23
10.3337915850
33
0.0000000000
40
0.0000000000
40
0.0000000000
40
0.0000000000
40
0.0000000000
40
0.0720653909
40
0.1831315198
40
0.3056422426
40
0.4397274150
40
0.5855485147
40
0.7432830681
40
0.9129983404
40
1.0000000000
40
1.0000000000
40
1.0000000000
40
1.0000000000
10
-97.3739806753
20
0.2866585913
30
0.0000000000
10
-97.3741620735
20
0.5348947762
30
0.0000000000
10
-97.3745962609
20
1.1657089669
30
0.0000000000
10
-97.3752068607
20
2.2185232370
30
0.0000000000
10
-97.3757675924
20
3.4849707332
30
0.0000000000
10
-97.3761782937
20
4.8711351723
30
0.0000000000
10
-97.3764007366
20
6.3786315676
30
0.0000000000
10
-97.3764150109
20
8.0088593253
30
0.0000000000
10
-97.3762319540
20
9.4364777859
30
0.0000000000
10
-97.3760347827
20
10.3207642155
30
0.0000000000
10
-97.3759596188
20
10.6204498881
30
0.0000000000
11
-97.3739806753
21
0.2866585913
31
0.0000000000
11
-97.3744932118
21
1.0313671684
31
0.0000000000
11
-97.3751590365
21
2.1791012391
31
0.0000000000
11
-97.3757204281
21
3.4451014303
31
0.0000000000
11
-97.3761334097
21
4.8307096372
31
0.0000000000
11
-97.3763611897
21
6.3375945204
31
0.0000000000
11
-97.3763787979
21
7.9675905707
31
0.0000000000
11
-97.3761588030
21
9.7213928644
31
0.0000000000
11
-97.3759596188
21
10.6204498881
31
0.0000000000
0
SPLINE
5
42B
100
AcDbEntity
8
0
100
AcDbSpline
62
7
6
CONTINUOUS
70
0
71
3
72
13
73
9
74
7
42
0.0000001000
43
0.0000001000
44
0.0000000001
12
0.0029028320
22
11.5738713704
32
0.0000000000
13
0.0212507699
23
11.5738522195
33
0.0000000000
40
0.0000000000
40
0.0000000000
40
0.0000000000
40
0.0000000000
40
0.0846520466
40
0.2593615457
40
0.4484956527
40
0.6443969922
40
0.8319709531
40
1.0000000000
40
1.0000000000
40
1.0000000000
40
1.0000000000
10
-97.3759596188
20
10.6204498881
30
0.0000000000
10
-97.3758777086
20
10.9470338543
30
0.0000000000
10
-97.3755963939
20
11.9476395697
30
0.0000000000
10
-97.3749760213
20
13.6779165139
30
0.0000000000
10
-97.3739918401
20
15.8373883550
30
0.0000000000
10
-97.3727866342
20
18.0464906580
30
0.0000000000
10
-97.3712490736
20
20.1741702566
30
0.0000000000
10
-97.3696563643
20
21.5460707518
30
0.0000000000
10
-97.3684661155
20
22.1943185376
30
0.0000000000
11
-97.3759596188
21
10.6204498881
31
0.0000000000
11
-97.3756858244
21
11.6002017794
31
0.0000000000
11
-97.3749645114
21
13.6222669830
31
0.0000000000
11
-97.3739715477
21
15.8112806519
31
0.0000000000
11
-97.3727007361
21
18.0786172701
31
0.0000000000
11
-97.3710272772
21
20.2495735886
31
0.0000000000
11
-97.3684661155
21
22.1943185376
31
0.0000000000
0
SPLINE
5
42C
100
AcDbEntity
8
0
100
AcDbSpline
62
7
6
CONTINUOUS
70
0
71
3
72
14
73
10
74
8
42
0.0000001000
43
0.0000001000
44
0.0000000001
12
0.0745007646
22
5.4552982780
32
0.0000000000
13
-0.0158024828
23
4.9898453914
33
0.0000000000
40
0.0000000000
40
0.0000000000
40
0.0000000000
40
0.0000000000
40
0.0125418367
40
0.1207177129
40
0.2590336686
40
0.4335450021
40
0.6315822914
40
0.8243363474
40
1.0000000000
40
1.0000000000
40
1.0000000000
40
1.0000000000
10
-97.3734738913
20
-27.1857163123
30
0.0000000000
10
-97.3731624325
20
-27.1629098255
30
0.0000000000
10
-97.3703113732
20
-26.9441084458
30
0.0000000000
10
-97.3727114730
20
-26.5358578000
30
0.0000000000
10
-97.3684415066
20
-25.8245452415
30
0.0000000000
10
-97.3611478990
20
-24.9789406151
30
0.0000000000
10
-97.3526496949
20
-24.0374003049
30
0.0000000000
10
-97.3482737598
20
-23.0955845030
30
0.0000000000
10
-97.3486659789
20
-22.4827232466
30
0.0000000000
10
-97.3495912862
20
-22.1905450908
30
0.0000000000
11
-97.3734738913
21
-27.1857163123
31
0.0000000000
11
-97.3726128645
21
-27.1177536600
31
0.0000000000
11
-97.3715108290
21
-26.5779711808
31
0.0000000000
11
-97.3685557555
21
-25.8877988122
31
0.0000000000
11
-97.3614219769
21
-25.0170390937
31
0.0000000000
11
-97.3533036723
21
-24.0288920310
31
0.0000000000
11
-97.3490281593
21
-23.0670837730
31
0.0000000000
11
-97.3495912862
21
-22.1905450908
31
0.0000000000
0
SPLINE
5
42D
100
AcDbEntity
8
0
100
AcDbSpline
62
7
6
CONTINUOUS
70
0
71
3
72
10
73
6
74
4
42
0.0000001000
43
0.0000001000
44
0.0000000001
12
-0.0097955493
22
0.0281205768
32
0.0000000000
13
-0.0091002036
23
0.0286102050
33
0.0000000000
40
0.0000000000
40
0.0000000000
40
0.0000000000
40
0.0000000000
40
0.2717946294
40
0.5576763618
40
1.0000000000
40
1.0000000000
40
1.0000000000
40
1.0000000000
10
-97.3673683730
20
27.8705611314
30
0.0000000000
10
-97.3682558322
20
27.8731088054
30
0.0000000000
10
-97.3695808699
20
27.8785049294
30
0.0000000000
10
-97.3711234912
20
27.8883103882
30
0.0000000000
10
-97.3723806488
20
27.8954193410
30
0.0000000000
10
-97.3737223939
20
27.8996376643
30
0.0000000000
11
-97.3673683730
21
27.8705611314
31
0.0000000000
11
-97.3694370062
21
27.8783857588
31
0.0000000000
11
-97.3709027840
21
27.8867715587
31
0.0000000000
11
-97.3737223939
21
27.8996376643
31
0.0000000000
0
SPLINE
5
42E
100
AcDbEntity
8
0
100
AcDbSpline
62
7
6
CONTINUOUS
70
0
71
3
72
10
73
6
74
4
42
0.0000001000
43
0.0000001000
44
0.0000000001
12
-0.0242312765
22
-1.8968313434
32
0.0000000000
13
-1.1424086804
23
-1.5144169528
33
0.0000000000
40
0.0000000000
40
0.0000000000
40
0.0000000000
40
0.0000000000
40
0.3333334947
40
0.6666667995
40
1.0000000000
40
1.0000000000
40
1.0000000000
40
1.0000000000
10
-97.3673683730
20
27.8705611314
30
0.0000000000
10
-97.3700607384
20
27.6598019913
30
0.0000000000
10
-97.4202485937
20
27.2374628901
30
0.0000000000
10
-97.6262505545
20
26.6351138727
30
0.0000000000
10
-97.8452016986
20
26.2704916218
30
0.0000000000
10
-97.9721359458
20
26.1022231386
30
0.0000000000
11
-97.3673683730
21
27.8705611314
31
0.0000000000
11
-97.4420353236
21
27.2426560252
31
0.0000000000
11
-97.6466547166
21
26.6443497287
31
0.0000000000
11
-97.9721359458
21
26.1022231386
31
0.0000000000
0
SPLINE
5
42F
100
AcDbEntity
8
0
100
AcDbSpline
62
7
6
CONTINUOUS
70
0
71
3
72
8
73
4
74
2
42
0.0000001000
43
0.0000001000
44
0.0000000001
12
-0.0001691191
22
-0.0154496652
32
0.0000000000
13
-0.0001813297
23
-0.0155381240
33
0.0000000000
40
0.0000000000
40
0.0000000000
40
0.0000000000
40
0.0000000000
40
1.0000000000
40
1.0000000000
40
1.0000000000
40
1.0000000000
10
-97.3725869259
20
-27.1114893619
30
0.0000000000
10
-97.3726432990
20
-27.1166392502
30
0.0000000000
10
-97.3727018673
20
-27.1218052773
30
0.0000000000
10
-97.3727623105
20
-27.1269846519
30
0.0000000000
11
-97.3725869259
21
-27.1114893619
31
0.0000000000
11
-97.3727623105
21
-27.1269846519
31
0.0000000000
0
SPLINE
5
430
100
AcDbEntity
8
0
100
AcDbSpline
62
7
6
CONTINUOUS
70
0
71
3
72
9
73
5
74
3
42
0.0000001000
43
0.0000001000
44
0.0000000001
12
-0.2406427900
22
0.8835834726
32
0.0000000000
13
-0.4949782713
23
0.7703704708
33
0.0000000000
40
0.0000000000
40
0.0000000000
40
0.0000000000
40
0.0000000000
40
0.5304611292
40
1.0000000000
40
1.0000000000
40
1.0000000000
40
1.0000000000
10
-97.4805419445
20
-27.1098435749
30
0.0000000000
10
-97.5230924932
20
-26.9536080127
30
0.0000000000
10
-97.6271490396
20
-26.6657039058
30
0.0000000000
10
-97.7739955106
20
-26.3967872337
30
0.0000000000
10
-97.8514660234
20
-26.2762142734
30
0.0000000000
11
-97.4805419445
21
-27.1098435749
31
0.0000000000
11
-97.6455290139
21
-26.6535069929
31
0.0000000000
11
-97.8514660234
21
-26.2762142734
31
0.0000000000
0
SPLINE
5
431
100
AcDbEntity
8
0
100
AcDbSpline
62
7
6
CONTINUOUS
70
0
71
3
72
8
73
4
74
2
42
0.0000001000
43
0.0000001000
44
0.0000000001
12
-0.0026387165
22
0.1581847436
32
0.0000000000
13
-0.0109987508
23
0.1580185164
33
0.0000000000
40
0.0000000000
40
0.0000000000
40
0.0000000000
40
0.0000000000
40
1.0000000000
40
1.0000000000
40
1.0000000000
40
1.0000000000
10
-97.3755319984
20
-27.8485353452
30
0.0000000000
10
-97.3764115705
20
-27.7958070974
30
0.0000000000
10
-97.3786887027
20
-27.7430626795
30
0.0000000000
10
-97.3823549529
20
-27.6903898407
30
0.0000000000
11
-97.3755319984
21
-27.8485353452
31
0.0000000000
11
-97.3823549529
21
-27.6903898407
31
0.0000000000
0
SPLINE
5
432
100
AcDbEntity
8
0
100
AcDbSpline
62
7
6
CONTINUOUS
70
0
71
3
72
8
73
4
74
2
42
0.0000001000
43
0.0000001000
44
0.0000000001
12
-0.0298540610
22
0.4289118400
32
0.0000000000
13
-0.0907535712
23
0.4204833373
33
0.0000000000
40
0.0000000000
40
0.0000000000
40
0.0000000000
40
0.0000000000
40
1.0000000000
40
1.0000000000
40
1.0000000000
40
1.0000000000
10
-97.3823549529
20
-27.6903898407
30
0.0000000000
10
-97.3923063066
20
-27.5474192273
30
0.0000000000
10
-97.4124919873
20
-27.4049759732
30
0.0000000000
10
-97.4427431777
20
-27.2648148608
30
0.0000000000
11
-97.3823549529
21
-27.6903898407
31
0.0000000000
11
-97.4427431777
21
-27.2648148608
31
0.0000000000
0
SPLINE
5
433
100
AcDbEntity
8
0
100
AcDbSpline
62
7
6
CONTINUOUS
70
0
71
3
72
9
73
5
74
3
42
0.0000001000
43
0.0000001000
44
0.0000000001
12
-0.2637564532
22
1.2220477075
32
0.0000000000
13
-0.7343947656
23
1.0088409738
33
0.0000000000
40
0.0000000000
40
0.0000000000
40
0.0000000000
40
0.0000000000
40
0.5163640640
40
1.0000000000
40
1.0000000000
40
1.0000000000
40
1.0000000000
10
-97.4427431777
20
-27.2648148608
30
0.0000000000
10
-97.4881412957
20
-27.0544743539
30
0.0000000000
10
-97.6199607203
20
-26.6570786532
30
0.0000000000
10
-97.8314650200
20
-26.2950403192
30
0.0000000000
10
-97.9498582533
20
-26.1324030697
30
0.0000000000
11
-97.4427431777
21
-27.2648148608
31
0.0000000000
11
-97.6455214487
21
-26.6535000358
31
0.0000000000
11
-97.9498582533
21
-26.1324030697
31
0.0000000000
0
SPLINE
5
434
100
AcDbEntity
8
0
100
AcDbSpline
62
7
6
CONTINUOUS
70
0
71
3
72
18
73
14
74
12
42
0.0000001000
43
0.0000001000
44
0.0000000001
12
-0.0707724782
22
22.1911797171
32
0.0000000000
13
0.0046350710
23
22.1912920871
33
0.0000000000
40
0.0000000000
40
0.0000000000
40
0.0000000000
40
0.0000000000
40
0.1429665074
40
0.2704335351
40
0.3850072069
40
0.4885745466
40
0.5826254964
40
0.6683983359
40
0.7466671709
40
0.8181741712
40
0.8836916001
40
0.9439999445
40
1.0000000000
40
1.0000000000
40
1.0000000000
40
1.0000000000
10
-97.3495823572
20
-22.1905450630
30
0.0000000000
10
-97.3529550552
20
-21.1330132435
30
0.0000000000
10
-97.3572745155
20
-19.1325938370
30
0.0000000000
10
-97.3613937002
20
-16.2846610796
30
0.0000000000
10
-97.3645816716
20
-13.7281666543
30
0.0000000000
10
-97.3672402435
20
-11.4188538054
30
0.0000000000
10
-97.3694237274
20
-9.3225831171
30
0.0000000000
10
-97.3711509515
20
-7.4134475792
30
0.0000000000
10
-97.3724217280
20
-5.6710715137
30
0.0000000000
10
-97.3732869361
20
-4.0785264669
30
0.0000000000
10
-97.3737780389
20
-2.6188367670
30
0.0000000000
10
-97.3739379103
20
-1.2738533783
30
0.0000000000
10
-97.3738528831
20
-0.4135087977
30
0.0000000000
10
-97.3737663617
20
0.0007290650
30
0.0000000000
11
-97.3495823572
21
-22.1905450630
31
0.0000000000
11
-97.3571235160
21
-19.0179424328
31
0.0000000000
11
-97.3614326487
21
-16.1892876101
31
0.0000000000
11
-97.3646405662
21
-13.6467517618
31
0.0000000000
11
-97.3672772655
21
-11.3484601368
31
0.0000000000
11
-97.3694377000
21
-9.2613491124
31
0.0000000000
11
-97.3711429886
21
-7.3579397008
31
0.0000000000
11
-97.3724019188
21
-5.6210535399
31
0.0000000000
11
-97.3732539112
21
-4.0342210037
31
0.0000000000
11
-97.3737360966
21
-2.5803046506
31
0.0000000000
11
-97.3738913423
21
-1.2419845441
31
0.0000000000
11
-97.3737663617
21
0.0007290650
31
0.0000000000
0
SPLINE
5
435
100
AcDbEntity
8
0
100
AcDbSpline
62
7
6
CONTINUOUS
70
0
71
3
72
9
73
5
74
3
42
0.0000001000
43
0.0000001000
44
0.0000000001
12
0.4296162331
22
0.0075708538
32
0.0000000000
13
0.4296162382
23
0.0075705600
33
0.0000000000
40
0.0000000000
40
0.0000000000
40
0.0000000000
40
0.0000000000
40
0.4999565337
40
1.0000000000
40
1.0000000000
40
1.0000000000
40
1.0000000000
10
-88.5385821917
20
42.1647740418
30
0.0000000000
10
-88.4669857108
20
42.1660357411
30
0.0000000000
10
-88.3237802994
20
42.1685593345
30
0.0000000000
10
-88.1805748870
20
42.1710828789
30
0.0000000000
10
-88.1089659561
20
42.1723447486
30
0.0000000000
11
-88.5385821917
21
42.1647740418
31
0.0000000000
11
-88.3237927484
21
42.1685591029
31
0.0000000000
11
-88.1089659561
21
42.1723447486
31
0.0000000000
0
SPLINE
5
436
100
AcDbEntity
8
0
100
AcDbSpline
62
7
6
CONTINUOUS
70
0
71
3
72
8
73
4
74
2
42
0.0000001000
43
0.0000001000
44
0.0000000001
12
0.0060979446
22
-0.2612371803
32
0.0000000000
13
0.0068259253
23
-0.2612194271
33
0.0000000000
40
0.0000000000
40
0.0000000000
40
0.0000000000
40
0.0000000000
40
1.0000000000
40
1.0000000000
40
1.0000000000
40
1.0000000000
10
-97.5537576576
20
-30.8088806669
30
0.0000000000
10
-97.5517250094
20
-30.8959597270
30
0.0000000000
10
-97.5495708295
20
-30.9830360257
30
0.0000000000
10
-97.5472955211
20
-31.0701091680
30
0.0000000000
11
-97.5537576576
21
-30.8088806669
31
0.0000000000
11
-97.5472955211
21
-31.0701091680
31
0.0000000000
0
SPLINE
5
437
100
AcDbEntity
8
0
100
AcDbSpline
62
7
6
CONTINUOUS
70
0
71
3
72
10
73
6
74
4
42
0.0000001000
43
0.0000001000
44
0.0000000001
12
0.0243019440
22
-0.9300043068
32
0.0000000000
13
0.0335032873
23
-0.9297173973
33
0.0000000000
40
0.0000000000
40
0.0000000000
40
0.0000000000
40
0.0000000000
40
0.1412450978
40
0.5682048089
40
1.0000000000
40
1.0000000000
40
1.0000000000
40
1.0000000000
10
-97.5472955211
20
-31.0701091680
30
0.0000000000
10
-97.5461513443
20
-31.1138953511
30
0.0000000000
10
-97.5414252964
20
-31.2900364468
30
0.0000000000
10
-97.5322368602
20
-31.6000080692
30
0.0000000000
10
-97.5232184634
20
-31.8661621663
30
0.0000000000
10
-97.5183962773
20
-31.9999780000
30
0.0000000000
11
-97.5472955211
21
-31.0701091680
31
0.0000000000
11
-97.5437711508
21
-31.2014652726
31
0.0000000000
11
-97.5320025114
21
-31.5985004192
31
0.0000000000
11
-97.5183962773
21
-31.9999780000
31
0.0000000000
0
SPLINE
5
438
100
AcDbEntity
8
0
100
AcDbSpline
62
7
6
CONTINUOUS
70
0
71
3
72
12
73
8
74
6
42
0.0000001000
43
0.0000001000
44
0.0000000001
12
0.5706111458
22
0.0000000000
32
0.0000000000
13
0.0063059163
23
-0.5724348414
33
0.0000000000
40
0.0000000000
40
0.0000000000
40
0.0000000000
40
0.0000000000
40
0.0428145255
40
0.1661192625
40
0.3682514653
40
0.6491708858
40
1.0000000000
40
1.0000000000
40
1.0000000000
40
1.0000000000
10
-97.5767729364
20
-29.0998531129
30
0.0000000000
10
-97.5686294546
20
-29.0998531129
30
0.0000000000
10
-97.5853746132
20
-29.1507344749
30
0.0000000000
10
-97.5671799489
20
-29.2026158811
30
0.0000000000
10
-97.5743961270
20
-29.3280787706
30
0.0000000000
10
-97.5677690070
20
-29.4822513822
30
0.0000000000
10
-97.5669294550
20
-29.6034106535
30
0.0000000000
10
-97.5661920220
20
-29.6703529230
30
0.0000000000
11
-97.5767729364
21
-29.0998531129
31
0.0000000000
11
-97.5756035045
21
-29.1242555532
31
0.0000000000
11
-97.5739389732
21
-29.1945949183
31
0.0000000000
11
-97.5717796899
21
-29.3099135921
31
0.0000000000
11
-97.5691513471
21
-29.4701877949
31
0.0000000000
11
-97.5661920220
21
-29.6703529230
31
0.0000000000
0
SPLINE
5
439
100
AcDbEntity
8
0
100
AcDbSpline
62
7
6
CONTINUOUS
70
0
71
3
72
8
73
4
74
2
42
0.0000001000
43
0.0000001000
44
0.0000000001
12
0.0016255071
22
-0.1475593498
32
0.0000000000
13
0.0020855914
23
-0.1469166878
33
0.0000000000
40
0.0000000000
40
0.0000000000
40
0.0000000000
40
0.0000000000
40
1.0000000000
40
1.0000000000
40
1.0000000000
40
1.0000000000
10
-97.5661920220
20
-29.6703529230
30
0.0000000000
10
-97.5656501863
20
-29.7195393729
30
0.0000000000
10
-97.5649619352
20
-29.7685416473
30
0.0000000000
10
-97.5642667381
20
-29.8175138766
30
0.0000000000
11
-97.5661920220
21
-29.6703529230
31
0.0000000000
11
-97.5642667381
21
-29.8175138766
31
0.0000000000
0
SPLINE
5
43A
100
AcDbEntity
8
0
100
AcDbSpline
62
7
6
CONTINUOUS
70
0
71
3
72
10
73
6
74
4
42
0.0000001000
43
0.0000001000
44
0.0000000001
12
0.0053507863
22
-0.3769289560
32
0.0000000000
13
0.0042210576
23
-0.3773540552
33
0.0000000000
40
0.0000000000
40
0.0000000000
40
0.0000000000
40
0.0000000000
40
0.2007030404
40
0.8028750988
40
1.0000000000
40
1.0000000000
40
1.0000000000
40
1.0000000000
10
-97.5642667381
20
-29.8175138766
30
0.0000000000
10
-97.5639087651
20
-29.8427308057
30
0.0000000000
10
-97.5624693933
20
-29.9435745621
30
0.0000000000
10
-97.5610194431
20
-30.0694384996
30
0.0000000000
10
-97.5598838580
20
-30.1699854567
30
0.0000000000
10
-97.5596064995
20
-30.1947807503
30
0.0000000000
11
-97.5642667381
21
-29.8175138766
31
0.0000000000
11
-97.5632063356
21
-29.8931618084
31
0.0000000000
11
-97.5604454011
21
-30.1203877125
31
0.0000000000
11
-97.5596064995
21
-30.1947807503
31
0.0000000000
0
SPLINE
5
43B
100
AcDbEntity
8
0
100
AcDbSpline
62
7
6
CONTINUOUS
70
0
71
3
72
9
73
5
74
3
42
0.0000001000
43
0.0000001000
44
0.0000000001
12
0.0023724095
22
-0.2120886316
32
0.0000000000
13
0.0021623498
23
-0.2120869354
33
0.0000000000
40
0.0000000000
40
0.0000000000
40
0.0000000000
40
0.0000000000
40
0.6775511529
40
1.0000000000
40
1.0000000000
40
1.0000000000
40
1.0000000000
10
-97.5596064995
20
-30.1947807503
30
0.0000000000
10
-97.5590706899
20
-30.2426810493
30
0.0000000000
10
-97.5582947733
20
-30.3133668806
30
0.0000000000
10
-97.5575609633
20
-30.3840610093
30
0.0000000000
10
-97.5573285476
20
-30.4068567385
30
0.0000000000
11
-97.5596064995
21
-30.1947807503
31
0.0000000000
11
-97.5580385737
21
-30.3384713914
31
0.0000000000
11
-97.5573285476
21
-30.4068567385
31
0.0000000000
0
SPLINE
5
43C
100
AcDbEntity
8
0
100
AcDbSpline
62
7
6
CONTINUOUS
70
0
71
3
72
10
73
6
74
4
42
0.0000001000
43
0.0000001000
44
0.0000000001
12
0.0040987879
22
-0.4020160684
32
0.0000000000
13
0.0024305646
23
-0.4020307057
33
0.0000000000
40
0.0000000000
40
0.0000000000
40
0.0000000000
40
0.0000000000
40
0.3166638531
40
0.7159638182
40
1.0000000000
40
1.0000000000
40
1.0000000000
40
1.0000000000
10
-97.5573285476
20
-30.4068567385
30
0.0000000000
10
-97.5568959016
20
-30.4492913910
30
0.0000000000
10
-97.5559506167
20
-30.5452382084
30
0.0000000000
10
-97.5547260712
20
-30.6792438000
30
0.0000000000
10
-97.5539877804
20
-30.7708169114
30
0.0000000000
10
-97.5537576576
20
-30.8088806669
30
0.0000000000
11
-97.5573285476
21
-30.4068567385
31
0.0000000000
11
-97.5560731316
21
-30.5341633681
31
0.0000000000
11
-97.5546185535
21
-30.6946905586
31
0.0000000000
11
-97.5537576576
21
-30.8088806669
31
0.0000000000
0
SPLINE
5
43D
100
AcDbEntity
8
0
100
AcDbSpline
62
7
6
CONTINUOUS
70
0
71
3
72
10
73
6
74
4
42
0.0000001000
43
0.0000001000
44
0.0000000001
12
-0.0429866263
22
1.1908554158
32
0.0000000000
13
-0.0278556975
23
1.1913053897
33
0.0000000000
40
0.0000000000
40
0.0000000000
40
0.0000000000
40
0.0000000000
40
0.3370941283
40
0.6704273603
40
1.0000000000
40
1.0000000000
40
1.0000000000
40
1.0000000000
10
-97.3182917860
20
-31.9999780000
30
0.0000000000
10
-97.3231219657
20
-31.8661678772
30
0.0000000000
10
-97.3321554995
20
-31.6000194823
30
0.0000000000
10
-97.3439447681
20
-31.2029830779
30
0.0000000000
10
-97.3506530924
20
-30.9397545543
30
0.0000000000
10
-97.3537132510
20
-30.8088806669
30
0.0000000000
11
-97.3182917860
21
-31.9999780000
31
0.0000000000
11
-97.3319205761
21
-31.5985174509
31
0.0000000000
11
-97.3437092416
21
-31.2014822085
31
0.0000000000
11
-97.3537132510
21
-30.8088806669
31
0.0000000000
0
SPLINE
5
43E
100
AcDbEntity
8
0
100
AcDbSpline
62
9
6
CONTINUOUS
70
0
71
3
72
8
73
4
74
2
42
0.0000001000
43
0.0000001000
44
0.0000000001
12
-0.0002330743
22
0.0306446186
32
0.0000000000
13
-0.0001463783
23
0.0306447333
33
0.0000000000
40
0.0000000000
40
0.0000000000
40
0.0000000000
40
0.0000000000
40
1.0000000000
40
1.0000000000
40
1.0000000000
40
1.0000000000
10
-97.9741299160
20
-26.0995707387
30
0.0000000000
10
-97.9742076074
20
-26.0893558658
30
0.0000000000
10
-97.9742697956
20
-26.0791409724
30
0.0000000000
10
-97.9743185884
20
-26.0689260613
30
0.0000000000
11
-97.9741299160
21
-26.0995707387
31
0.0000000000
11
-97.9743185884
21
-26.0689260613
31
0.0000000000
0
SPLINE
5
43F
100
AcDbEntity
8
0
100
AcDbSpline
62
9
6
CONTINUOUS
70
0
71
3
72
16
73
12
74
10
42
0.0000001000
43
0.0000001000
44
0.0000000001
12
-0.0184802428
22
3.8688940799
32
0.0000000000
13
-0.0046907439
23
3.8689330200
33
0.0000000000
40
0.0000000000
40
0.0000000000
40
0.0000000000
40
0.0000000000
40
0.0095218496
40
0.0580479859
40
0.1318944806
40
0.2242006222
40
0.3452407141
40
0.4999146360
40
0.6752555726
40
0.8452973519
40
1.0000000000
40
1.0000000000
40
1.0000000000
40
1.0000000000
10
-97.9743185884
20
-26.0689260613
30
0.0000000000
10
-97.9743772437
20
-26.0566463855
30
0.0000000000
10
-97.9746168119
20
-25.9817857267
30
0.0000000000
10
-97.9738356900
20
-25.8116883775
30
0.0000000000
10
-97.9734235159
20
-25.5348298958
30
0.0000000000
10
-97.9732774364
20
-25.1644528633
30
0.0000000000
10
-97.9724540918
20
-24.6898379538
30
0.0000000000
10
-97.9703408599
20
-24.1081407287
30
0.0000000000
10
-97.9680987560
20
-23.4632489079
30
0.0000000000
10
-97.9669141914
20
-22.8183168281
30
0.0000000000
10
-97.9670097828
20
-22.3995113944
30
0.0000000000
10
-97.9672516730
20
-22.2000000000
30
0.0000000000
11
-97.9743185884
21
-26.0689260613
31
0.0000000000
11
-97.9744401422
21
-26.0320869622
31
0.0000000000
11
-97.9740626619
21
-25.8443428324
31
0.0000000000
11
-97.9735052783
21
-25.5586360245
31
0.0000000000
11
-97.9732230173
21
-25.2015095945
31
0.0000000000
11
-97.9723992655
21
-24.7332139665
31
0.0000000000
11
-97.9704522860
21
-24.1347936500
31
0.0000000000
11
-97.9682632619
21
-23.4564143437
31
0.0000000000
11
-97.9671149697
21
-22.7985346076
31
0.0000000000
11
-97.9672516730
21
-22.2000000000
31
0.0000000000
0
SPLINE
5
440
100
AcDbEntity
8
0
100
AcDbSpline
62
9
6
CONTINUOUS
70
0
71
3
72
26
73
22
74
20
42
0.0000001000
43
0.0000001000
44
0.0000000001
12
1.1718368738
22
-0.6195066095
32
0.0000000000
13
1.2740513528
23
0.0452897534
33
0.0000000000
40
0.0000000000
40
0.0000000000
40
0.0000000000
40
0.0000000000
40
0.0003602065
40
0.0134950591
40
0.0296389858
40
0.0563586387
40
0.0958537920
40
0.1486646241
40
0.2118861625
40
0.2801008026
40
0.3498605643
40
0.4202439185
40
0.4906543120
40
0.5604615244
40
0.6292412657
40
0.6966099738
40
0.7621054814
40
0.8253508054
40
0.8861048253
40
0.9442889074
40
1.0000000000
40
1.0000000000
40
1.0000000000
40
1.0000000000
10
-96.6825037713
20
-41.1787444764
30
0.0000000000
10
-96.6823630702
20
-41.1788188599
30
0.0000000000
10
-96.6770852928
20
-41.1815719092
30
0.0000000000
10
-96.6649707631
20
-41.1848798548
30
0.0000000000
10
-96.6409840444
20
-41.1851717642
30
0.0000000000
10
-96.6061092766
20
-41.1867130106
30
0.0000000000
10
-96.5554810145
20
-41.1871950598
30
0.0000000000
10
-96.4894096127
20
-41.1874348917
30
0.0000000000
10
-96.4111061141
20
-41.1871673075
30
0.0000000000
10
-96.3256133122
20
-41.1863372429
30
0.0000000000
10
-96.2370792077
20
-41.1850914072
30
0.0000000000
10
-96.1476186501
20
-41.1834649646
30
0.0000000000
10
-96.0581478947
20
-41.1813501651
30
0.0000000000
10
-95.9693680795
20
-41.1788879254
30
0.0000000000
10
-95.8818873998
20
-41.1762154479
30
0.0000000000
10
-95.7962503362
20
-41.1732269251
30
0.0000000000
10
-95.7129701077
20
-41.1701473764
30
0.0000000000
10
-95.6325010212
20
-41.1671143852
30
0.0000000000
10
-95.5551362176
20
-41.1642123337
30
0.0000000000
10
-95.4809709757
20
-41.1614268523
30
0.0000000000
10
-95.4326029733
20
-41.1596670419
30
0.0000000000
10
-95.4089433757
20
-41.1588259947
30
0.0000000000
11
-96.6825037713
21
-41.1787444764
31
0.0000000000
11
-96.6820811546
21
-41.1789649388
31
0.0000000000
11
-96.6660851300
21
-41.1839170883
31
0.0000000000
11
-96.6455438909
21
-41.1851987260
31
0.0000000000
11
-96.6114985013
21
-41.1863158239
31
0.0000000000
11
-96.5611539526
21
-41.1870987510
31
0.0000000000
11
-96.4938281997
21
-41.1873468644
31
0.0000000000
11
-96.4132302364
21
-41.1870932630
31
0.0000000000
11
-96.3262701806
21
-41.1862811023
31
0.0000000000
11
-96.2373452616
21
-41.1850345311
31
0.0000000000
11
-96.1476318032
21
-41.1833836453
31
0.0000000000
11
-96.0578932776
21
-41.1812826065
31
0.0000000000
11
-95.9689328262
21
-41.1788338091
31
0.0000000000
11
-95.8812901585
21
-41.1761330382
31
0.0000000000
11
-95.7954559130
21
-41.1731690201
31
0.0000000000
11
-95.7120149164
21
-41.1701019634
31
0.0000000000
11
-95.6314429960
21
-41.1670769742
31
0.0000000000
11
-95.5540449071
21
-41.1641707843
31
0.0000000000
11
-95.4799202621
21
-41.1614022090
31
0.0000000000
11
-95.4089433757
21
-41.1588259947
31
0.0000000000
0
SPLINE
5
441
100
AcDbEntity
8
0
100
AcDbSpline
62
9
6
CONTINUOUS
70
0
71
3
72
10
73
6
74
4
42
0.0000001000
43
0.0000001000
44
0.0000000001
12
-0.6132181411
22
-0.0747790242
32
0.0000000000
13
-0.6177361170
23
-0.0055209455
33
0.0000000000
40
0.0000000000
40
0.0000000000
40
0.0000000000
40
0.0000000000
40
0.1387939426
40
0.4768821134
40
1.0000000000
40
1.0000000000
40
1.0000000000
40
1.0000000000
10
-97.3495823572
20
-22.1905450630
30
0.0000000000
10
-97.3779526783
20
-22.1940046882
30
0.0000000000
10
-97.4765024305
20
-22.1924257949
30
0.0000000000
10
-97.6820835315
20
-22.1985179317
30
0.0000000000
10
-97.8595354212
20
-22.1990372982
30
0.0000000000
10
-97.9672516919
20
-22.2000000000
30
0.0000000000
11
-97.3495823572
21
-22.1905450630
31
0.0000000000
11
-97.4352740627
21
-22.1934654680
31
0.0000000000
11
-97.6441072123
21
-22.1966621686
31
0.0000000000
11
-97.9672516919
21
-22.2000000000
31
0.0000000000
0
SPLINE
5
442
100
AcDbEntity
8
0
100
AcDbSpline
62
9
6
CONTINUOUS
70
0
71
3
72
11
73
7
74
5
42
0.0000001000
43
0.0000001000
44
0.0000000001
12
0.3096746411
22
1.2605447563
32
0.0000000000
13
1.2978282836
23
0.0226541903
33
0.0000000000
40
0.0000000000
40
0.0000000000
40
0.0000000000
40
0.0000000000
40
0.2508959654
40
0.5011699581
40
0.7507912157
40
1.0000000000
40
1.0000000000
40
1.0000000000
40
1.0000000000
10
-94.4652295505
20
41.3539262249
30
0.0000000000
10
-94.4393308445
20
41.4593480894
30
0.0000000000
10
-94.3525654337
20
41.6630252962
30
0.0000000000
10
-94.1320890090
20
41.9092513438
30
0.0000000000
10
-93.8447679940
20
42.0712182434
30
0.0000000000
10
-93.6279304663
20
42.1111602359
30
0.0000000000
10
-93.5201203967
20
42.1130421103
30
0.0000000000
11
-94.4652295505
21
41.3539262249
31
0.0000000000
11
-94.3373183612
21
41.6534247058
31
0.0000000000
11
-94.1206335594
21
41.8954641881
31
0.0000000000
11
-93.8382217813
21
42.0543013052
31
0.0000000000
11
-93.5201203967
21
42.1130421103
31
0.0000000000
0
SPLINE
5
443
100
AcDbEntity
8
0
100
AcDbSpline
62
9
6
CONTINUOUS
70
0
71
3
72
15
73
11
74
9
42
0.0000001000
43
0.0000001000
44
0.0000000001
12
-0.4639286713
22
0.0744468406
32
0.0000000000
13
-0.1863148995
23
0.3377510446
33
0.0000000000
40
0.0000000000
40
0.0000000000
40
0.0000000000
40
0.0000000000
40
0.3630839019
40
0.5852736571
40
0.7344631256
40
0.8386605090
40
0.9109272560
40
0.9577382048
40
0.9843874359
40
1.0000000000
40
1.0000000000
40
1.0000000000
40
1.0000000000
10
-94.4652295505
20
41.3539262249
30
0.0000000000
10
-94.5213778946
20
41.3629363747
30
0.0000000000
10
-94.6116994266
20
41.3786317271
30
0.0000000000
10
-94.7246313045
20
41.4005887683
30
0.0000000000
10
-94.7975750172
20
41.4155569718
30
0.0000000000
10
-94.8474243144
20
41.4266045580
30
0.0000000000
10
-94.8814462290
20
41.4341700650
30
0.0000000000
10
-94.9035766089
20
41.4408103641
30
0.0000000000
10
-94.9167883938
20
41.4435671630
30
0.0000000000
10
-94.9229634344
20
41.4484316607
30
0.0000000000
10
-94.9239330521
20
41.4501893807
30
0.0000000000
11
-94.4652295505
21
41.3539262249
31
0.0000000000
11
-94.6333160251
21
41.3831034610
31
0.0000000000
11
-94.7358051832
21
41.4029809638
31
0.0000000000
11
-94.8044490981
21
41.4171882998
31
0.0000000000
11
-94.8522691432
21
41.4276853165
31
0.0000000000
11
-94.8853025256
21
41.4355449832
31
0.0000000000
11
-94.9065329252
21
41.4412930602
31
0.0000000000
11
-94.9183882488
21
41.4453228988
31
0.0000000000
11
-94.9239330521
21
41.4501893807
31
0.0000000000
0
SPLINE
5
444
100
AcDbEntity
8
0
100
AcDbSpline
62
9
6
CONTINUOUS
70
0
71
3
72
11
73
7
74
5
42
0.0000001000
43
0.0000001000
44
0.0000000001
12
0.9427364985
22
-0.0937730827
32
0.0000000000
13
0.9432757514
23
-0.0881836351
33
0.0000000000
40
0.0000000000
40
0.0000000000
40
0.0000000000
40
0.0000000000
40
0.1401118256
40
0.3703794707
40
0.6671645599
40
1.0000000000
40
1.0000000000
40
1.0000000000
40
1.0000000000
10
-94.3622742890
20
38.5793484958
30
0.0000000000
10
-94.3182447784
20
38.5749689232
30
0.0000000000
10
-94.2018153867
20
38.5637904330
30
0.0000000000
10
-93.9920754779
20
38.5438264062
30
0.0000000000
10
-93.7217242634
20
38.5183432153
30
0.0000000000
10
-93.5237605782
20
38.4997835425
30
0.0000000000
10
-93.4191087116
20
38.4899999962
30
0.0000000000
11
-94.3622742890
21
38.5793484958
31
0.0000000000
11
-94.2301547733
21
38.5665250900
31
0.0000000000
11
-94.0129841193
21
38.5458458497
31
0.0000000000
11
-93.7330565371
21
38.5194336765
31
0.0000000000
11
-93.4191087116
21
38.4899999962
31
0.0000000000
0
SPLINE
5
445
100
AcDbEntity
8
0
100
AcDbSpline
62
9
6
CONTINUOUS
70
0
71
3
72
15
73
11
74
9
42
0.0000001000
43
0.0000001000
44
0.0000000001
12
0.2464050627
22
3.6445971618
32
0.0000000000
13
-3.6523923703
23
-0.0619184956
33
0.0000000000
40
0.0000000000
40
0.0000000000
40
0.0000000000
40
0.0000000000
40
0.1957635234
40
0.3844119914
40
0.5586063268
40
0.7103970398
40
0.8347591637
40
0.9250698853
40
0.9783448779
40
1.0000000000
40
1.0000000000
40
1.0000000000
40
1.0000000000
10
-93.4191090723
20
38.4900000000
30
0.0000000000
10
-93.4030300312
20
38.7278263939
30
0.0000000000
10
-93.3783247030
20
39.1952882851
30
0.0000000000
10
-93.3599789907
20
39.8754258607
30
0.0000000000
10
-93.3565253887
20
40.5016262718
30
0.0000000000
10
-93.3667829617
20
41.0514073589
30
0.0000000000
10
-93.3823093820
20
41.4933270626
30
0.0000000000
10
-93.4174293437
20
41.8278052972
30
0.0000000000
10
-93.4391157385
20
42.0100293538
30
0.0000000000
10
-93.4937560625
20
42.1134890611
30
0.0000000000
10
-93.5201203967
20
42.1130421103
30
0.0000000000
11
-93.4191090723
21
38.4900000000
31
0.0000000000
11
-93.3810003907
21
39.2040917947
31
0.0000000000
11
-93.3620672756
21
39.8929488871
31
0.0000000000
11
-93.3591198585
21
40.5292595411
31
0.0000000000
11
-93.3690422691
21
41.0836496565
31
0.0000000000
11
-93.3901425391
21
41.5374439063
31
0.0000000000
11
-93.4222933347
21
41.8657710965
31
0.0000000000
11
-93.4659158765
21
42.0554281280
31
0.0000000000
11
-93.5201203967
21
42.1130421103
31
0.0000000000
0
SPLINE
5
446
100
AcDbEntity
8
0
100
AcDbSpline
62
9
6
CONTINUOUS
70
0
71
3
72
15
73
11
74
9
42
0.0000001000
43
0.0000001000
44
0.0000000001
12
0.2495131392
22
2.7949923667
32
0.0000000000
13
-2.7703230025
23
0.4467097475
33
0.0000000000
40
0.0000000000
40
0.0000000000
40
0.0000000000
40
0.0000000000
40
0.1897866646
40
0.3738971762
40
0.5455020750
40
0.6967651954
40
0.8224853175
40
0.9156368959
40
0.9729273702
40
1.0000000000
40
1.0000000000
40
1.0000000000
40
1.0000000000
10
-94.3622742890
20
38.5793484958
30
0.0000000000
10
-94.3464895335
20
38.7561659221
30
0.0000000000
10
-94.3226375134
20
39.1051786644
30
0.0000000000
10
-94.3059051256
20
39.6152795379
30
0.0000000000
10
-94.3042070944
20
40.0893885060
30
0.0000000000
10
-94.3149061093
20
40.5094215562
30
0.0000000000
10
-94.3321235361
20
40.8537742619
30
0.0000000000
10
-94.3634227136
20
41.1142289078
30
0.0000000000
10
-94.3905638377
20
41.2707478187
30
0.0000000000
10
-94.4402304047
20
41.3498952300
30
0.0000000000
10
-94.4652303810
20
41.3539264326
30
0.0000000000
11
-94.3622742890
21
38.5793484958
31
0.0000000000
11
-94.3254659574
21
39.1106367353
31
0.0000000000
11
-94.3081252885
21
39.6269795179
31
0.0000000000
11
-94.3066198047
21
40.1085189531
31
0.0000000000
11
-94.3173876905
21
40.5328429213
31
0.0000000000
11
-94.3384638089
21
40.8849969652
31
0.0000000000
11
-94.3697687575
21
41.1445089656
31
0.0000000000
11
-94.4121401816
21
41.2995879064
31
0.0000000000
11
-94.4652303810
21
41.3539264326
31
0.0000000000
0
SPLINE
5
447
100
AcDbEntity
8
0
100
AcDbSpline
62
9
6
CONTINUOUS
70
0
71
3
72
11
73
7
74
5
42
0.0000001000
43
0.0000001000
44
0.0000000001
12
0.9310188811
22
0.0004803037
32
0.0000000000
13
0.9310182824
23
0.0011599978
33
0.0000000000
40
0.0000000000
40
0.0000000000
40
0.0000000000
40
0.0000000000
40
0.1509467054
40
0.3834248374
40
0.6755925461
40
1.0000000000
40
1.0000000000
40
1.0000000000
40
1.0000000000
10
-94.9309074541
20
-0.0004630037
30
0.0000000000
10
-94.8840627099
20
-0.0004388370
30
0.0000000000
10
-94.7650708245
20
-0.0003209629
30
0.0000000000
10
-94.5554077941
20
-0.0000847679
30
0.0000000000
10
-94.2919130721
20
0.0002378106
30
0.0000000000
10
-94.1005654900
20
0.0004765399
30
0.0000000000
10
-93.9998890664
20
0.0006019772
30
0.0000000000
11
-94.9309074541
21
-0.0004630037
31
0.0000000000
11
-94.7903732534
21
-0.0003435206
31
0.0000000000
11
-94.5739318284
21
-0.0001025131
31
0.0000000000
11
-94.3019183381
21
0.0002265668
31
0.0000000000
11
-93.9998890664
21
0.0006019772
31
0.0000000000
0
SPLINE
5
448
100
AcDbEntity
8
0
100
AcDbSpline
62
9
6
CONTINUOUS
70
0
71
3
72
17
73
13
74
11
42
0.0000001000
43
0.0000001000
44
0.0000000001
12
-0.0627958022
22
38.4985657124
32
0.0000000000
13
3.5855122142
23
38.3312875779
33
0.0000000000
40
0.0000000000
40
0.0000000000
40
0.0000000000
40
0.0000000000
40
0.1188290955
40
0.2506423680
40
0.3828632705
40
0.5021043420
40
0.6081451104
40
0.7031993804
40
0.7888787005
40
0.8665625466
40
0.9369387204
40
1.0000000000
40
1.0000000000
40
1.0000000000
40
1.0000000000
10
-93.9998890664
20
0.0006019772
30
0.0000000000
10
-94.0023763892
20
1.5255185582
30
0.0000000000
10
-93.9843438887
20
4.7419974718
30
0.0000000000
10
-93.9275732848
20
9.6548954764
30
0.0000000000
10
-93.8706141878
20
14.5730917007
30
0.0000000000
10
-93.8274053834
20
19.1606793695
30
0.0000000000
10
-93.7971741372
20
23.2714012843
30
0.0000000000
10
-93.7722984283
20
26.9514578183
30
0.0000000000
10
-93.7425031907
20
30.2675614954
30
0.0000000000
10
-93.6934931412
20
33.2667886483
30
0.0000000000
10
-93.6048264386
20
35.9747614398
30
0.0000000000
10
-93.4944780684
20
37.6842599856
30
0.0000000000
10
-93.4191090723
20
38.4900000000
30
0.0000000000
11
-93.9998890664
21
0.0006019772
31
0.0000000000
11
-93.9809776394
21
4.5753187171
31
0.0000000000
11
-93.9276118534
21
9.6496667879
31
0.0000000000
11
-93.8706143998
21
14.7396695466
31
0.0000000000
11
-93.8274818047
21
19.3300832433
31
0.0000000000
11
-93.7965639711
21
23.4123890851
31
0.0000000000
11
-93.7700576452
21
27.0717510155
31
0.0000000000
11
-93.7373402570
21
30.3701240781
31
0.0000000000
11
-93.6833891931
21
33.3603580464
31
0.0000000000
11
-93.5866481659
21
36.0680157391
31
0.0000000000
11
-93.4191090723
21
38.4900000000
31
0.0000000000
0
SPLINE
5
449
100
AcDbEntity
8
0
100
AcDbSpline
62
9
6
CONTINUOUS
70
0
71
3
72
17
73
13
74
11
42
0.0000001000
43
0.0000001000
44
0.0000000001
12
-0.0615455165
22
38.5883324221
32
0.0000000000
13
3.4352659923
23
38.4351679395
33
0.0000000000
40
0.0000000000
40
0.0000000000
40
0.0000000000
40
0.0000000000
40
0.1187994878
40
0.2503788800
40
0.3822624817
40
0.5011715441
40
0.6069311875
40
0.7017843984
40
0.7873845562
40
0.8651820339
40
0.9359947456
40
1.0000000000
40
1.0000000000
40
1.0000000000
40
1.0000000000
10
-94.9309074541
20
-0.0004630037
30
0.0000000000
10
-94.9333446461
20
1.5276283714
30
0.0000000000
10
-94.9147379142
20
4.7482170491
30
0.0000000000
10
-94.8566629062
20
9.6648274436
30
0.0000000000
10
-94.7988682827
20
14.5828649209
30
0.0000000000
10
-94.7554567638
20
19.1689228185
30
0.0000000000
10
-94.7255517216
20
23.2787595900
30
0.0000000000
10
-94.7015146541
20
26.9601817605
30
0.0000000000
10
-94.6732602933
20
30.2818877723
30
0.0000000000
10
-94.6267913169
20
33.2942022957
30
0.0000000000
10
-94.5419893168
20
36.0278329244
30
0.0000000000
10
-94.4355780081
20
37.7593320482
30
0.0000000000
10
-94.3622863168
20
38.5793496156
30
0.0000000000
11
-94.9309074541
21
-0.0004630037
31
0.0000000000
11
-94.9113129283
21
4.5837750758
31
0.0000000000
11
-94.8567601703
21
9.6609177900
31
0.0000000000
11
-94.7989457837
21
14.7497641247
31
0.0000000000
11
-94.7556280355
21
19.3380679126
31
0.0000000000
11
-94.7250667542
21
23.4190469471
31
0.0000000000
11
-94.6994699758
21
27.0791893366
31
0.0000000000
11
-94.6684155049
21
30.3822149014
31
0.0000000000
11
-94.6172419852
21
33.3838574665
31
0.0000000000
11
-94.5247518937
21
36.1148396678
31
0.0000000000
11
-94.3622863168
21
38.5793496156
31
0.0000000000
0
SPLINE
5
44A
100
AcDbEntity
8
0
100
AcDbSpline
62
9
6
CONTINUOUS
70
0
71
3
72
33
73
29
74
27
42
0.0000001000
43
0.0000001000
44
0.0000000001
12
-0.6044371661
22
38.4860796434
32
0.0000000000
13
0.0134383401
23
38.4908234520
33
0.0000000000
40
0.0000000000
40
0.0000000000
40
0.0000000000
40
0.0000000000
40
0.0118780562
40
0.0249143415
40
0.0392521726
40
0.0550251655
40
0.0723663200
40
0.0914073092
40
0.1122807574
40
0.1351217994
40
0.1600708685
40
0.1872753730
40
0.2168857365
40
0.2490580111
40
0.2839630385
40
0.3218013887
40
0.3628248243
40
0.4073152635
40
0.4555796509
40
0.5080362514
40
0.5654592207
40
0.6287618386
40
0.6983214767
40
0.7701298060
40
0.8381821188
40
0.8984881122
40
0.9519543976
40
1.0000000000
40
1.0000000000
40
1.0000000000
40
1.0000000000
10
-93.9175520501
20
-38.4900000000
30
0.0000000000
10
-93.9199452297
20
-38.3376200606
30
0.0000000000
10
-93.9245627026
20
-38.0179952004
30
0.0000000000
10
-93.9306773331
20
-37.5144157457
30
0.0000000000
10
-93.9361930032
20
-36.9608535183
30
0.0000000000
10
-93.9410237838
20
-36.3520503579
30
0.0000000000
10
-93.9450998365
20
-35.6828976751
30
0.0000000000
10
-93.9483780985
20
-34.9482997042
30
0.0000000000
10
-93.9508388284
20
-34.1431331667
30
0.0000000000
10
-93.9524961056
20
-33.2621621967
30
0.0000000000
10
-93.9534016552
20
-32.2999609545
30
0.0000000000
10
-93.9536437522
20
-31.2509071002
30
0.0000000000
10
-93.9533337725
20
-30.1091775782
30
0.0000000000
10
-93.9526285193
20
-28.8686484082
30
0.0000000000
10
-93.9517334601
20
-27.5225520096
30
0.0000000000
10
-93.9509206524
20
-26.0628927005
30
0.0000000000
10
-93.9503967823
20
-24.4802497655
30
0.0000000000
10
-93.9504125764
20
-22.7638377918
30
0.0000000000
10
-93.9513208936
20
-20.9007353318
30
0.0000000000
10
-93.9535712872
20
-18.8717059436
30
0.0000000000
10
-93.9573623884
20
-16.6497339163
30
0.0000000000
10
-93.9630020339
20
-14.2083284310
30
0.0000000000
10
-93.9708147070
20
-11.5823599689
30
0.0000000000
10
-93.9797639275
20
-8.8954550297
30
0.0000000000
10
-93.9882863922
20
-6.3272761419
30
0.0000000000
10
-93.9950797971
20
-3.9944262974
30
0.0000000000
10
-93.9992591711
20
-1.9182621916
30
0.0000000000
10
-94.0001042842
20
-0.6158362888
30
0.0000000000
10
-93.9998890664
20
0.0006019772
30
0.0000000000
11
-93.9175520501
21
-38.4900000000
31
0.0000000000
11
-93.9241806710
21
-38.0328518615
31
0.0000000000
11
-93.9303010975
21
-37.5311118034
31
0.0000000000
11
-93.9358318246
21
-36.9792645608
31
0.0000000000
11
-93.9406864482
21
-36.3721684483
31
0.0000000000
11
-93.9447942762
21
-35.7047057293
31
0.0000000000
11
-93.9481092658
21
-34.9718098279
31
0.0000000000
11
-93.9506114223
21
-34.1683774677
31
0.0000000000
11
-93.9523135551
21
-33.2892085457
31
0.0000000000
11
-93.9532656458
21
-32.3288987458
31
0.0000000000
11
-93.9535526829
21
-31.2817749433
31
0.0000000000
11
-93.9532886178
21
-30.1420476278
31
0.0000000000
11
-93.9526293632
21
-28.9037103867
31
0.0000000000
11
-93.9517817108
21
-27.5601873244
31
0.0000000000
11
-93.9509960137
21
-26.1037581914
31
0.0000000000
11
-93.9504974103
21
-24.5247323581
31
0.0000000000
11
-93.9505430967
21
-22.8122586119
31
0.0000000000
11
-93.9514791123
21
-20.9545227198
31
0.0000000000
11
-93.9536924635
21
-18.9354260612
31
0.0000000000
11
-93.9574452738
21
-16.7251717378
31
0.0000000000
11
-93.9630739835
21
-14.2886082036
31
0.0000000000
11
-93.9708849901
21
-11.6112116849
31
0.0000000000
11
-93.9799186663
21
-8.8472645533
31
0.0000000000
11
-93.9884280712
21
-6.2278886575
31
0.0000000000
11
-93.9949666279
21
-3.9066703794
31
0.0000000000
11
-93.9989062957
21
-1.8487126724
31
0.0000000000
11
-93.9998890664
21
0.0006019772
31
0.0000000000
0
SPLINE
5
44B
100
AcDbEntity
8
0
100
AcDbSpline
62
9
6
CONTINUOUS
70
0
71
3
72
33
73
29
74
27
42
0.0000001000
43
0.0000001000
44
0.0000000001
12
-0.5568309111
22
38.5007455352
32
0.0000000000
13
0.0151632435
23
38.5047690229
33
0.0000000000
40
0.0000000000
40
0.0000000000
40
0.0000000000
40
0.0000000000
40
0.0119322658
40
0.0250194690
40
0.0394043014
40
0.0552196088
40
0.0725974585
40
0.0916690687
40
0.1125667702
40
0.1354255068
40
0.1603856639
40
0.1875949455
40
0.2172040131
40
0.2493689557
40
0.2842606346
40
0.3220803470
40
0.3630811081
40
0.4075444008
40
0.4557765906
40
0.5081979509
40
0.5655837246
40
0.6288460499
40
0.6983659346
40
0.7701434593
40
0.8381770451
40
0.8984789622
40
0.9519548451
40
1.0000000000
40
1.0000000000
40
1.0000000000
40
1.0000000000
10
-94.8631552461
20
-38.5050511515
30
0.0000000000
10
-94.8653699976
20
-38.3519174422
30
0.0000000000
10
-94.8696289883
20
-38.0308223825
30
0.0000000000
10
-94.8752262741
20
-37.5251017802
30
0.0000000000
10
-94.8802209776
20
-36.9695340913
30
0.0000000000
10
-94.8845281043
20
-36.3588890562
30
0.0000000000
10
-94.8880844899
20
-35.6880838615
30
0.0000000000
10
-94.8908449631
20
-34.9520423248
30
0.0000000000
10
-94.8927888581
20
-34.1456512404
30
0.0000000000
10
-94.8939279089
20
-33.2636795522
30
0.0000000000
10
-94.8943121702
20
-32.3006986043
30
0.0000000000
10
-94.8940226687
20
-31.2510776746
30
0.0000000000
10
-94.8931674784
20
-30.1089841815
30
0.0000000000
10
-94.8919013295
20
-28.8682880488
30
0.0000000000
10
-94.8904304983
20
-27.5222090777
30
0.0000000000
10
-94.8890200009
20
-26.0627229169
30
0.0000000000
10
-94.8878617191
20
-24.4803855499
30
0.0000000000
10
-94.8872123210
20
-22.7644044974
30
0.0000000000
10
-94.8874340341
20
-20.9018407571
30
0.0000000000
10
-94.8889631113
20
-18.8734184850
30
0.0000000000
10
-94.8919917746
20
-16.6520870617
30
0.0000000000
10
-94.8968514175
20
-14.2113000859
30
0.0000000000
10
-94.9039026934
20
-11.5858007533
30
0.0000000000
10
-94.9121540804
20
-8.8990660033
30
0.0000000000
10
-94.9201130578
20
-6.3306428423
30
0.0000000000
10
-94.9264927042
20
-3.9971160923
30
0.0000000000
10
-94.9304040139
20
-1.9201341261
30
0.0000000000
10
-94.9311489180
20
-0.6171188684
30
0.0000000000
10
-94.9309060779
20
-0.0004630044
30
0.0000000000
11
-94.8631552461
21
-38.5050511515
31
0.0000000000
11
-94.8692720250
21
-38.0456426976
31
0.0000000000
11
-94.8748757197
21
-37.5417540794
31
0.0000000000
11
-94.8798856079
21
-36.9878920449
31
0.0000000000
11
-94.8842172388
21
-36.3789426430
31
0.0000000000
11
-94.8878042845
21
-35.7098221196
31
0.0000000000
11
-94.8906005737
21
-34.9754794387
31
0.0000000000
11
-94.8925848244
21
-34.1708206562
31
0.0000000000
11
-94.8937679111
21
-33.2906510107
31
0.0000000000
11
-94.8941972136
21
-32.3295659473
31
0.0000000000
11
-94.8939520637
21
-31.2818787918
31
0.0000000000
11
-94.8931425469
21
-30.1417886822
31
0.0000000000
11
-94.8919227549
21
-28.9032854996
31
0.0000000000
11
-94.8904986920
21
-27.5597901121
31
0.0000000000
11
-94.8891140597
21
-26.1035513699
31
0.0000000000
11
-94.8879835118
21
-24.5248268135
31
0.0000000000
11
-94.8873668070
21
-22.8127779788
31
0.0000000000
11
-94.8876159413
21
-20.9556085232
31
0.0000000000
11
-94.8891108902
21
-18.9371365507
31
0.0000000000
11
-94.8921087943
21
-16.7275124508
31
0.0000000000
11
-94.8969602422
21
-14.2916158676
31
0.0000000000
11
-94.9039940949
21
-11.6147778020
31
0.0000000000
11
-94.9123147225
21
-8.8510130998
31
0.0000000000
11
-94.9202516655
21
-6.2314074159
31
0.0000000000
11
-94.9263832538
21
-3.9095039409
31
0.0000000000
11
-94.9300611238
21
-1.8504305471
31
0.0000000000
11
-94.9309060779
21
-0.0004630044
31
0.0000000000
0
SPLINE
5
44C
100
AcDbEntity
8
0
100
AcDbSpline
62
9
6
CONTINUOUS
70
0
71
3
72
12
73
8
74
6
42
0.0000001000
43
0.0000001000
44
0.0000000001
12
0.0883634487
22
-1.4692076150
32
0.0000000000
13
1.4716382944
23
-0.0256874582
33
0.0000000000
40
0.0000000000
40
0.0000000000
40
0.0000000000
40
0.0000000000
40
0.2017713729
40
0.4027963340
40
0.6027530403
40
0.8016869268
40
1.0000000000
40
1.0000000000
40
1.0000000000
40
1.0000000000
10
-95.4089432442
20
-41.1588259864
30
0.0000000000
10
-95.4030001727
20
-41.2576406656
30
0.0000000000
10
-95.3619076355
20
-41.4543756191
30
0.0000000000
10
-95.2180105963
20
-41.7174532129
30
0.0000000000
10
-95.0042124314
20
-41.9262288462
30
0.0000000000
10
-94.7396047594
20
-42.0617358905
30
0.0000000000
10
-94.5439816087
20
-42.0951683495
30
0.0000000000
10
-94.4466999045
20
-42.0968664025
30
0.0000000000
11
-95.4089432442
21
-41.1588259864
31
0.0000000000
11
-95.3480133583
21
-41.4494881568
31
0.0000000000
11
-95.2058990298
21
-41.7090052850
31
0.0000000000
11
-94.9951578351
21
-41.9144457906
31
0.0000000000
11
-94.7344113913
21
-42.0476564380
31
0.0000000000
11
-94.4466999045
21
-42.0968664025
31
0.0000000000
0
SPLINE
5
44D
100
AcDbEntity
8
0
100
AcDbSpline
62
9
6
CONTINUOUS
70
0
71
3
72
17
73
13
74
11
42
0.0000001000
43
0.0000001000
44
0.0000000001
12
2.7836638713
22
0.0991033926
32
0.0000000000
13
-0.0402418360
23
2.7851367337
33
0.0000000000
40
0.0000000000
40
0.0000000000
40
0.0000000000
40
0.0000000000
40
0.0205455770
40
0.0492583873
40
0.0919217691
40
0.1541011191
40
0.2413148036
40
0.3585667059
40
0.5063511830
40
0.6746934898
40
0.8463608741
40
1.0000000000
40
1.0000000000
40
1.0000000000
40
1.0000000000
10
-95.4089432442
20
-41.1588259864
30
0.0000000000
10
-95.3898792507
20
-41.1581472743
30
0.0000000000
10
-95.3446390453
20
-41.1423949853
30
0.0000000000
10
-95.2824825225
20
-41.0817464885
30
0.0000000000
10
-95.2166110179
20
-40.9759839824
30
0.0000000000
10
-95.1463603344
20
-40.8115534263
30
0.0000000000
10
-95.0727958116
20
-40.5748675220
30
0.0000000000
10
-95.0000108425
20
-40.2557361558
30
0.0000000000
10
-94.9355075692
20
-39.8583220833
30
0.0000000000
10
-94.8880265370
20
-39.4076880504
30
0.0000000000
10
-94.8633783351
20
-38.9498275543
30
0.0000000000
10
-94.8610950611
20
-38.6476864872
30
0.0000000000
10
-94.8631559680
20
-38.5050511627
30
0.0000000000
11
-95.4089432442
21
-41.1588259864
31
0.0000000000
11
-95.3542159037
21
-41.1420931837
31
0.0000000000
11
-95.2940291906
21
-41.0894248629
31
0.0000000000
11
-95.2284489209
21
-40.9903230730
31
0.0000000000
11
-95.1578438250
21
-40.8321718849
31
0.0000000000
11
-95.0836595750
21
-40.6008487043
31
0.0000000000
11
-95.0093174694
21
-40.2828256961
31
0.0000000000
11
-94.9421253302
21
-39.8767036396
31
0.0000000000
11
-94.8923015245
21
-39.4104529013
31
0.0000000000
11
-94.8663655757
21
-38.9329897641
31
0.0000000000
11
-94.8631559680
21
-38.5050511627
31
0.0000000000
0
SPLINE
5
44E
100
AcDbEntity
8
0
100
AcDbSpline
62
9
6
CONTINUOUS
70
0
71
3
72
17
73
13
74
11
42
0.0000001000
43
0.0000001000
44
0.0000000001
12
3.7120047251
22
-0.0646547536
32
0.0000000000
13
-0.0421211176
23
3.7123288012
33
0.0000000000
40
0.0000000000
40
0.0000000000
40
0.0000000000
40
0.0000000000
40
0.0153539662
40
0.0395684353
40
0.0788600091
40
0.1388131950
40
0.2250719519
40
0.3428925489
40
0.4929924438
40
0.6652264914
40
0.8416958142
40
1.0000000000
40
1.0000000000
40
1.0000000000
40
1.0000000000
10
-94.4466999429
20
-42.0968686041
30
0.0000000000
10
-94.4277019445
20
-42.0971995064
30
0.0000000000
10
-94.3793388443
20
-42.0756359213
30
0.0000000000
10
-94.3208840986
20
-41.9954134646
30
0.0000000000
10
-94.2570277048
20
-41.8563197396
30
0.0000000000
10
-94.1894008383
20
-41.6363445931
30
0.0000000000
10
-94.1181129168
20
-41.3173395691
30
0.0000000000
10
-94.0478645350
20
-40.8844533835
30
0.0000000000
10
-93.9857511014
20
-40.3431528289
30
0.0000000000
10
-93.9403186658
20
-39.7273826878
30
0.0000000000
10
-93.9170823732
20
-39.1002548850
30
0.0000000000
10
-93.9153294004
20
-38.6858923961
30
0.0000000000
10
-93.9175520501
20
-38.4900000000
30
0.0000000000
11
-94.4466999429
21
-42.0968686041
31
0.0000000000
11
-94.3930345728
21
-42.0776506695
31
0.0000000000
11
-94.3341283000
21
-42.0097413497
31
0.0000000000
11
-94.2700893092
21
-41.8786771222
31
0.0000000000
11
-94.2013154015
21
-41.6669883793
31
0.0000000000
11
-94.1292470100
21
-41.3549615343
31
0.0000000000
11
-94.0572317854
21
-40.9235135135
31
0.0000000000
11
-93.9923718416
21
-40.3700449324
31
0.0000000000
11
-93.9445541143
21
-39.7324048146
31
0.0000000000
11
-93.9200260073
21
-39.0777098082
31
0.0000000000
11
-93.9175520501
21
-38.4900000000
31
0.0000000000
0
SPLINE
5
44F
100
AcDbEntity
8
0
100
AcDbSpline
62
7
6
CONTINUOUS
70
0
71
3
72
10
73
6
74
4
42
0.0000001000
43
0.0000001000
44
0.0000000001
12
-0.0029680930
22
0.4893799264
32
0.0000000000
13
-0.0051952149
23
0.4893668687
33
0.0000000000
40
0.0000000000
40
0.0000000000
40
0.0000000000
40
0.0000000000
40
0.2726684892
40
0.6756806079
40
1.0000000000
40
1.0000000000
40
1.0000000000
40
1.0000000000
10
-97.3537132510
20
-30.8088806669
30
0.0000000000
10
-97.3539830194
20
-30.7644011719
30
0.0000000000
10
-97.3548999578
20
-30.6541824887
30
0.0000000000
10
-97.3564190129
20
-30.4910529618
30
0.0000000000
10
-97.3576489777
20
-30.3724255655
30
0.0000000000
10
-97.3582106141
20
-30.3195218437
30
0.0000000000
11
-97.3537132510
21
-30.8088806669
31
0.0000000000
11
-97.3547408990
21
-30.6754436847
31
0.0000000000
11
-97.3565769626
21
-30.4782225627
31
0.0000000000
11
-97.3582106141
21
-30.3195218437
31
0.0000000000
0
SPLINE
5
450
100
AcDbEntity
8
0
100
AcDbSpline
62
7
6
CONTINUOUS
70
0
71
3
72
11
73
7
74
5
42
0.0000001000
43
0.0000001000
44
0.0000000001
12
-0.0079607040
22
0.7498640274
32
0.0000000000
13
-0.0121807390
23
0.7486440770
33
0.0000000000
40
0.0000000000
40
0.0000000000
40
0.0000000000
40
0.0000000000
40
0.1131810044
40
0.4667529624
40
0.8027443635
40
1.0000000000
40
1.0000000000
40
1.0000000000
40
1.0000000000
10
-97.3582106141
20
-30.3195218437
30
0.0000000000
10
-97.3585109475
20
-30.2912317225
30
0.0000000000
10
-97.3597650641
20
-30.1745559160
30
0.0000000000
10
-97.3619800266
20
-29.9737768491
30
0.0000000000
10
-97.3653560920
20
-29.7526489095
30
0.0000000000
10
-97.3664433868
20
-29.6184892060
30
0.0000000000
10
-97.3672442933
20
-29.5692644514
30
0.0000000000
11
-97.3582106141
21
-30.3195218437
31
0.0000000000
11
-97.3591211441
21
-30.2346433407
31
0.0000000000
11
-97.3622184766
21
-29.9695185891
31
0.0000000000
11
-97.3655099735
21
-29.7175808676
31
0.0000000000
11
-97.3672442933
21
-29.5692644514
31
0.0000000000
0
SPLINE
5
451
100
AcDbEntity
8
0
100
AcDbSpline
62
7
6
CONTINUOUS
70
0
71
3
72
12
73
8
74
6
42
0.0000001000
43
0.0000001000
44
0.0000000001
12
-0.0076330331
22
0.4691361495
32
0.0000000000
13
-0.4699218096
23
0.0000000000
33
0.0000000000
40
0.0000000000
40
0.0000000000
40
0.0000000000
40
0.0000000000
40
0.1435045080
40
0.5049037406
40
0.7691664369
40
0.9379248653
40
1.0000000000
40
1.0000000000
40
1.0000000000
40
1.0000000000
10
-97.3672442933
20
-29.5692644514
30
0.0000000000
10
-97.3676094182
20
-29.5468234006
30
0.0000000000
10
-97.3691856147
20
-29.4681617621
30
0.0000000000
10
-97.3740923391
20
-29.3509199263
30
0.0000000000
10
-97.3664712686
20
-29.2158439389
30
0.0000000000
10
-97.3865789238
20
-29.1582833828
30
0.0000000000
10
-97.3670455499
20
-29.0998531129
30
0.0000000000
10
-97.3767690364
20
-29.0998531129
30
0.0000000000
11
-97.3672442933
21
-29.5692644514
31
0.0000000000
11
-97.3686382600
21
-29.5022461182
31
0.0000000000
11
-97.3713776726
21
-29.3324388321
31
0.0000000000
11
-97.3736521040
21
-29.2082768578
31
0.0000000000
11
-97.3754607219
21
-29.1289942184
31
0.0000000000
11
-97.3767690364
21
-29.0998531129
31
0.0000000000
0
SPLINE
5
452
100
AcDbEntity
8
0
100
AcDbSpline
62
9
6
CONTINUOUS
70
0
71
3
72
16
73
12
74
10
42
0.0000001000
43
0.0000001000
44
0.0000000001
12
0.0102072992
22
5.6762426537
32
0.0000000000
13
-1.8330061388
23
5.3721432732
33
0.0000000000
40
0.0000000000
40
0.0000000000
40
0.0000000000
40
0.0000000000
40
0.1827335592
40
0.3621212842
40
0.5278795948
40
0.6771081663
40
0.8009238814
40
0.8955258592
40
0.9579687119
40
0.9903155270
40
1.0000000000
40
1.0000000000
40
1.0000000000
40
1.0000000000
10
-97.3684921278
20
22.1943185870
30
0.0000000000
10
-97.3678703891
20
22.5400652613
30
0.0000000000
10
-97.3671197558
20
23.2252319827
30
0.0000000000
10
-97.3678550579
20
24.2240122612
30
0.0000000000
10
-97.3687876311
20
25.1594499157
30
0.0000000000
10
-97.3700258406
20
25.9895754992
30
0.0000000000
10
-97.3678344167
20
26.6855487632
30
0.0000000000
10
-97.3715582586
20
27.2160756122
30
0.0000000000
10
-97.3606117091
20
27.5762311249
30
0.0000000000
10
-97.3749005870
20
27.7711526956
30
0.0000000000
10
-97.3614567379
20
27.8532190774
30
0.0000000000
10
-97.3673739708
20
27.8705612029
30
0.0000000000
11
-97.3684921278
21
22.1943185870
31
0.0000000000
11
-97.3674324063
21
23.2315597456
31
0.0000000000
11
-97.3679200485
21
24.2498095315
31
0.0000000000
11
-97.3689004077
21
25.1906949348
31
0.0000000000
11
-97.3693812620
21
26.0377537510
31
0.0000000000
11
-97.3690092548
21
26.7405628319
31
0.0000000000
11
-97.3679353023
21
27.2775464076
31
0.0000000000
11
-97.3668756289
21
27.6319861807
31
0.0000000000
11
-97.3666330479
21
27.8155946887
31
0.0000000000
11
-97.3673739708
21
27.8705612029
31
0.0000000000
0
SPLINE
5
453
100
AcDbEntity
8
0
100
AcDbSpline
62
9
6
CONTINUOUS
70
0
71
3
72
10
73
6
74
4
42
0.0000001000
43
0.0000001000
44
0.0000000001
12
-0.5926757149
22
0.1160840405
32
0.0000000000
13
-0.6039285308
23
0.0032151452
33
0.0000000000
40
0.0000000000
40
0.0000000000
40
0.0000000000
40
0.0000000000
40
0.1237682920
40
0.4620931095
40
1.0000000000
40
1.0000000000
40
1.0000000000
40
1.0000000000
10
-97.3684921278
20
22.1943185870
30
0.0000000000
10
-97.3929436148
20
22.1991077615
30
0.0000000000
10
-97.4869949866
20
22.1918659277
30
0.0000000000
10
-97.6873425973
20
22.2014598210
30
0.0000000000
10
-97.8641077455
20
22.1994235164
30
0.0000000000
10
-97.9723935182
20
22.1999999993
30
0.0000000000
11
-97.3684921278
21
22.1943185870
31
0.0000000000
11
-97.4432199624
21
22.1960659851
31
0.0000000000
11
-97.6475378259
21
22.1979882053
31
0.0000000000
11
-97.9723935182
21
22.1999999993
31
0.0000000000
0
SPLINE
5
454
100
AcDbEntity
8
0
100
AcDbSpline
62
7
6
CONTINUOUS
70
0
71
3
72
9
73
5
74
3
42
0.0000001000
43
0.0000001000
44
0.0000000001
12
0.0000000000
22
0.0969636198
32
0.0000000000
13
-0.1023438935
23
0.0022290767
33
0.0000000000
40
0.0000000000
40
0.0000000000
40
0.0000000000
40
0.0000000000
40
0.5729438866
40
1.0000000000
40
1.0000000000
40
1.0000000000
40
1.0000000000
10
-70.4738081499
20
17.9331947947
30
0.0000000000
10
-70.4738081499
20
17.9517130324
30
0.0000000000
10
-70.4867272585
20
17.9888516421
30
0.0000000000
10
-70.5203936574
20
17.9958396860
30
0.0000000000
10
-70.5349625192
20
17.9961569996
30
0.0000000000
11
-70.4738081499
21
17.9331947947
31
0.0000000000
11
-70.4954226014
21
17.9843723448
31
0.0000000000
11
-70.5349625192
21
17.9961569996
31
0.0000000000
0
SPLINE
5
455
100
AcDbEntity
8
0
100
AcDbSpline
62
7
6
CONTINUOUS
70
0
71
3
72
24
73
20
74
18
42
0.0000001000
43
0.0000001000
44
0.0000000001
12
3.8703890781
22
-2.1692040724
32
0.0000000000
13
0.8478613665
23
-4.3550532748
33
0.0000000000
40
0.0000000000
40
0.0000000000
40
0.0000000000
40
0.0000000000
40
0.0454594226
40
0.0970877735
40
0.1535471223
40
0.2131354665
40
0.2745198455
40
0.3367573950
40
0.3992386481
40
0.4615844884
40
0.5235668179
40
0.5850555153
40
0.6459846385
40
0.7063310627
40
0.7661002894
40
0.8253160658
40
0.8840131536
40
0.9422304888
40
1.0000000000
40
1.0000000000
40
1.0000000000
40
1.0000000000
10
-87.6738081499
20
42.0916407392
30
0.0000000000
10
-87.6151595990
20
42.0587704843
30
0.0000000000
10
-87.4923022724
20
41.9842676881
30
0.0000000000
10
-87.3045760396
20
41.8563007614
30
0.0000000000
10
-87.1080951345
20
41.7047558911
30
0.0000000000
10
-86.9099823916
20
41.5324462216
30
0.0000000000
10
-86.7163059311
20
41.3427282266
30
0.0000000000
10
-86.5311551114
20
41.1388703470
30
0.0000000000
10
-86.3570339695
20
40.9236916729
30
0.0000000000
10
-86.1952954743
20
40.6995345582
30
0.0000000000
10
-86.0465421810
20
40.4683136241
30
0.0000000000
10
-85.9109023001
20
40.2315878355
30
0.0000000000
10
-85.7882127372
20
39.9906211749
30
0.0000000000
10
-85.6781383125
20
39.7464334202
30
0.0000000000
10
-85.5802503632
20
39.4998432306
30
0.0000000000
10
-85.4940786427
20
39.2515069594
30
0.0000000000
10
-85.4191455640
20
39.0019525812
30
0.0000000000
10
-85.3549900940
20
38.7516299269
30
0.0000000000
10
-85.3189790184
20
38.5838630996
30
0.0000000000
10
-85.3026521729
20
38.5000000000
30
0.0000000000
11
-87.6738081499
21
42.0916407392
31
0.0000000000
11
-87.5010202139
21
41.9875961102
31
0.0000000000
11
-87.3117353513
21
41.8585910760
31
0.0000000000
11
-87.1132788342
21
41.7057342776
31
0.0000000000
11
-86.9137321077
21
41.5323004364
31
0.0000000000
11
-86.7191050613
21
41.3417864787
31
0.0000000000
11
-86.5333876158
21
41.1374325902
31
0.0000000000
11
-86.3589411840
21
40.9219836431
31
0.0000000000
11
-86.1970209480
21
40.6977094842
31
0.0000000000
11
-86.0481683536
21
40.4664730388
31
0.0000000000
11
-85.9124757870
21
40.2297979284
31
0.0000000000
11
-85.7897593663
21
39.9889249804
31
0.0000000000
11
-85.6796715404
21
39.7448580638
31
0.0000000000
11
-85.5817758732
21
39.4984039453
31
0.0000000000
11
-85.4955975670
21
39.2502101340
31
0.0000000000
11
-85.4206558267
21
39.0007975311
31
0.0000000000
11
-85.3564851015
21
38.7505958581
31
0.0000000000
11
-85.3026521729
21
38.5000000000
31
0.0000000000
0
SPLINE
5
456
100
AcDbEntity
8
0
100
AcDbSpline
62
7
6
CONTINUOUS
70
0
71
3
72
9
73
5
74
3
42
0.0000001000
43
0.0000001000
44
0.0000000001
12
-0.2589918836
22
-1.4735873471
32
0.0000000000
13
-0.1782938507
23
-1.4854558651
33
0.0000000000
40
0.0000000000
40
0.0000000000
40
0.0000000000
40
0.0000000000
40
0.4939145889
40
1.0000000000
40
1.0000000000
40
1.0000000000
40
1.0000000000
10
-66.9626169388
20
4.7500159767
30
0.0000000000
10
-67.0052568953
20
4.5074072137
30
0.0000000000
10
-67.0849715633
20
4.0150577128
30
0.0000000000
10
-67.1512385310
20
3.5206975840
30
0.0000000000
10
-67.1813158366
20
3.2701084033
30
0.0000000000
11
-66.9626169388
21
4.7500159767
31
0.0000000000
11
-67.0807207820
21
4.0205595151
31
0.0000000000
11
-67.1813158366
21
3.2701084033
31
0.0000000000
0
SPLINE
5
457
100
AcDbEntity
8
0
100
AcDbSpline
62
7
6
CONTINUOUS
70
0
71
3
72
9
73
5
74
3
42
0.0000001000
43
0.0000001000
44
0.0000000001
12
0.1782938507
22
-1.4854558651
32
0.0000000000
13
0.2589918836
23
-1.4735873471
33
0.0000000000
40
0.0000000000
40
0.0000000000
40
0.0000000000
40
0.0000000000
40
0.5060854111
40
1.0000000000
40
1.0000000000
40
1.0000000000
40
1.0000000000
10
-67.1813158366
20
-3.2701084033
30
0.0000000000
10
-67.1512385310
20
-3.5206975841
30
0.0000000000
10
-67.0849715633
20
-4.0150577129
30
0.0000000000
10
-67.0052568953
20
-4.5074072138
30
0.0000000000
10
-66.9626169388
20
-4.7500159767
30
0.0000000000
11
-67.1813158366
21
-3.2701084033
31
0.0000000000
11
-67.0807207820
21
-4.0205595152
31
0.0000000000
11
-66.9626169388
21
-4.7500159767
31
0.0000000000
0
SPLINE
5
458
100
AcDbEntity
8
0
100
AcDbSpline
62
9
6
CONTINUOUS
70
0
71
3
72
11
73
7
74
5
42
0.0000001000
43
0.0000001000
44
0.0000000001
12
-0.2480442478
22
-0.0517534216
32
0.0000000000
13
-0.0412067360
23
0.2500127405
33
0.0000000000
40
0.0000000000
40
0.0000000000
40
0.0000000000
40
0.0000000000
40
0.3835951855
40
0.7074308783
40
0.9233385020
40
1.0000000000
40
1.0000000000
40
1.0000000000
40
1.0000000000
10
-85.3026521650
20
38.4999999623
30
0.0000000000
10
-85.3343683581
20
38.4933825078
30
0.0000000000
10
-85.3912716056
20
38.4831621205
30
0.0000000000
10
-85.4738606938
20
38.4635650933
30
0.0000000000
10
-85.5136932180
20
38.4662600740
30
0.0000000000
10
-85.5511843152
20
38.4517342437
30
0.0000000000
10
-85.5522373052
20
38.4581230275
30
0.0000000000
11
-85.3026521650
21
38.4999999623
31
0.0000000000
11
-85.3979524593
21
38.4808891700
31
0.0000000000
11
-85.4786909803
21
38.4662476359
31
0.0000000000
11
-85.5328128632
21
38.4582614579
31
0.0000000000
11
-85.5522373052
21
38.4581230275
31
0.0000000000
0
SPLINE
5
459
100
AcDbEntity
8
0
100
AcDbSpline
62
9
6
CONTINUOUS
70
0
71
3
72
10
73
6
74
4
42
0.0000001000
43
0.0000001000
44
0.0000000001
12
0.2059355341
22
-0.9873093182
32
0.0000000000
13
0.0402126848
23
-1.0077559595
33
0.0000000000
40
0.0000000000
40
0.0000000000
40
0.0000000000
40
0.0000000000
40
0.3308678769
40
0.6642326657
40
1.0000000000
40
1.0000000000
40
1.0000000000
40
1.0000000000
10
-85.3026521729
20
38.5000000000
30
0.0000000000
10
-85.2799396886
20
38.3911103540
30
0.0000000000
10
-85.2404184494
20
38.1711906003
30
0.0000000000
10
-85.1993238342
20
37.8373704539
30
0.0000000000
10
-85.1841868166
20
37.6127905107
30
0.0000000000
10
-85.1796861146
20
37.5000000000
30
0.0000000000
11
-85.3026521729
21
38.5000000000
31
0.0000000000
11
-85.2436002927
21
38.1715670800
31
0.0000000000
11
-85.2024905923
21
37.8378721007
31
0.0000000000
11
-85.1796861146
21
37.5000000000
31
0.0000000000
0
SPLINE
5
45A
100
AcDbEntity
8
0
100
AcDbSpline
62
9
6
CONTINUOUS
70
0
71
3
72
11
73
7
74
5
42
0.0000001000
43
0.0000001000
44
0.0000000001
12
-0.2942581079
22
-0.0117451703
32
0.0000000000
13
0.0000000000
23
0.2944924160
33
0.0000000000
40
0.0000000000
40
0.0000000000
40
0.0000000000
40
0.0000000000
40
0.3835862845
40
0.7073951780
40
0.9232927139
40
1.0000000000
40
1.0000000000
40
1.0000000000
40
1.0000000000
10
-85.1796861146
20
37.5000000000
30
0.0000000000
10
-85.2173105727
20
37.4984982379
30
0.0000000000
10
-85.2845035985
20
37.4976935482
30
0.0000000000
10
-85.3829009047
20
37.4911297689
30
0.0000000000
10
-85.4280999815
20
37.5018258163
30
0.0000000000
10
-85.4738081499
20
37.4924700953
30
0.0000000000
10
-85.4738081499
20
37.5000000000
30
0.0000000000
11
-85.1796861146
21
37.5000000000
31
0.0000000000
11
-85.2925914595
21
37.4963834626
31
0.0000000000
11
-85.3879422839
21
37.4951148412
31
0.0000000000
11
-85.4515098131
21
37.4963834605
31
0.0000000000
11
-85.4738081499
21
37.5000000000
31
0.0000000000
0
SPLINE
5
45B
100
AcDbEntity
8
0
100
AcDbSpline
62
9
6
CONTINUOUS
70
0
71
3
72
15
73
11
74
9
42
0.0000001000
43
0.0000001000
44
0.0000000001
12
3.0304952791
22
-75.9476255078
32
0.0000000000
13
-0.3420447080
23
-76.0072939088
33
0.0000000000
40
0.0000000000
40
0.0000000000
40
0.0000000000
40
0.0000000000
40
0.0884071462
40
0.1831724728
40
0.2867160309
40
0.4029100480
40
0.5346732814
40
0.6822049494
40
0.8431685912
40
1.0000000000
40
1.0000000000
40
1.0000000000
40
1.0000000000
10
-85.1796861146
20
37.5000000000
30
0.0000000000
10
-85.0903803015
20
35.2618957220
30
0.0000000000
10
-84.9327652083
20
30.6235968405
30
0.0000000000
10
-84.7645349392
20
23.3611785915
30
0.0000000000
10
-84.6598454630
20
15.3934908744
30
0.0000000000
10
-84.6236162512
20
6.4878275065
30
0.0000000000
10
-84.6595838931
20
-3.5322968337
30
0.0000000000
10
-84.7591023625
20
-14.6862765121
30
0.0000000000
10
-84.8857158786
20
-26.4751128847
30
0.0000000000
10
-84.9504142489
20
-34.5265563379
30
0.0000000000
10
-84.9682953667
20
-38.5000000000
30
0.0000000000
11
-85.1796861146
21
37.5000000000
31
0.0000000000
11
-84.9499158808
21
30.7842735146
31
0.0000000000
11
-84.7811823882
21
23.5833211686
31
0.0000000000
11
-84.6752688195
21
15.7138885329
31
0.0000000000
11
-84.6357849040
21
6.8822945637
31
0.0000000000
11
-84.6665479801
21
-3.1327264084
31
0.0000000000
11
-84.7593151698
21
-14.3459390737
31
0.0000000000
11
-84.8812546769
21
-26.5798660934
31
0.0000000000
11
-84.9682953667
21
-38.5000000000
31
0.0000000000
0
SPLINE
5
45C
100
AcDbEntity
8
0
100
AcDbSpline
62
9
6
CONTINUOUS
70
0
71
3
72
11
73
7
74
5
42
0.0000001000
43
0.0000001000
44
0.0000000001
12
-0.5055167895
22
0.0026204459
32
0.0000000000
13
-0.0001068003
23
-0.5055235700
33
0.0000000000
40
0.0000000000
40
0.0000000000
40
0.0000000000
40
0.0000000000
40
0.3839857888
40
0.7081436855
40
0.9242018602
40
1.0000000000
40
1.0000000000
40
1.0000000000
40
1.0000000000
10
-84.9682953594
20
-38.5000000000
30
0.0000000000
10
-85.0329991138
20
-38.4996645953
30
0.0000000000
10
-85.1483672714
20
-38.5029295537
30
0.0000000000
10
-85.3179917762
20
-38.4893796249
30
0.0000000000
10
-85.3944575648
20
-38.5155514959
30
0.0000000000
10
-85.4738054515
20
-38.4872274179
30
0.0000000000
10
-85.4738081499
20
-38.5000000000
30
0.0000000000
11
-84.9682953594
21
-38.5000000000
31
0.0000000000
11
-85.1624075519
21
-38.4991927442
31
0.0000000000
11
-85.3262767697
21
-38.4989105194
31
0.0000000000
11
-85.4354989074
21
-38.4991927337
31
0.0000000000
11
-85.4738081499
21
-38.5000000000
31
0.0000000000
0
SPLINE
5
45D
100
AcDbEntity
8
0
100
AcDbSpline
62
9
6
CONTINUOUS
70
0
71
3
72
29
73
25
74
23
42
0.0000001000
43
0.0000001000
44
0.0000000001
12
-0.0173710940
22
-3.8689221689
32
0.0000000000
13
-0.0132877126
23
-3.8689383652
33
0.0000000000
40
0.0000000000
40
0.0000000000
40
0.0000000000
40
0.0000000000
40
0.0713560708
40
0.1424035810
40
0.2127178784
40
0.2818729899
40
0.3495193097
40
0.4153692551
40
0.4791491835
40
0.5405671598
40
0.5992775545
40
0.6549129557
40
0.7071496116
40
0.7557774337
40
0.8005914493
40
0.8413175207
40
0.8777273890
40
0.9096472983
40
0.9369318893
40
0.9594574030
40
0.9771221814
40
0.9898158344
40
0.9974532194
40
1.0000000000
40
1.0000000000
40
1.0000000000
40
1.0000000000
10
-84.9682953667
20
-38.5000000000
30
0.0000000000
10
-84.9687085444
20
-38.5920236947
30
0.0000000000
10
-84.9695171746
20
-38.7756732238
30
0.0000000000
10
-84.9706804078
20
-39.0500031622
30
0.0000000000
10
-84.9717926549
20
-39.3214948130
30
0.0000000000
10
-84.9728537625
20
-39.5886002763
30
0.0000000000
10
-84.9738630465
20
-39.8499484301
30
0.0000000000
10
-84.9748202226
20
-40.1043646073
30
0.0000000000
10
-84.9757251944
20
-40.3507485165
30
0.0000000000
10
-84.9765775497
20
-40.5879250080
30
0.0000000000
10
-84.9773763151
20
-40.8145980038
30
0.0000000000
10
-84.9781201174
20
-41.0294303954
30
0.0000000000
10
-84.9788079674
20
-41.2312598751
30
0.0000000000
10
-84.9794394185
20
-41.4191336253
30
0.0000000000
10
-84.9800141642
20
-41.5921628142
30
0.0000000000
10
-84.9805316731
20
-41.7494351766
30
0.0000000000
10
-84.9809907811
20
-41.8900787089
30
0.0000000000
10
-84.9813901082
20
-42.0133874886
30
0.0000000000
10
-84.9817288993
20
-42.1187903608
30
0.0000000000
10
-84.9820076255
20
-42.2058091485
30
0.0000000000
10
-84.9822256750
20
-42.2740107767
30
0.0000000000
10
-84.9823840289
20
-42.3230119669
30
0.0000000000
10
-84.9824787015
20
-42.3525162790
30
0.0000000000
10
-84.9825230589
20
-42.3656502512
30
0.0000000000
10
-84.9825343392
20
-42.3689346968
30
0.0000000000
11
-84.9682953667
21
-38.5000000000
31
0.0000000000
11
-84.9695114178
21
-38.7760711886
31
0.0000000000
11
-84.9706778105
21
-39.0509487720
31
0.0000000000
11
-84.9717931021
21
-39.3229897717
31
0.0000000000
11
-84.9728564981
21
-39.5905460992
31
0.0000000000
11
-84.9738675906
21
-39.8522651307
31
0.0000000000
11
-84.9748264169
21
-40.1070342078
31
0.0000000000
11
-84.9757330618
21
-40.3537946083
31
0.0000000000
11
-84.9765872681
21
-40.5914168382
31
0.0000000000
11
-84.9773878939
21
-40.8185636643
31
0.0000000000
11
-84.9781332885
21
-41.0338135806
31
0.0000000000
11
-84.9788221880
21
-41.2359139996
31
0.0000000000
11
-84.9794546647
21
-41.4240520915
31
0.0000000000
11
-84.9800307332
21
-41.5974348206
31
0.0000000000
11
-84.9805492632
21
-41.7550015564
31
0.0000000000
11
-84.9810090349
21
-41.8958691724
31
0.0000000000
11
-84.9814089306
21
-42.0193654146
31
0.0000000000
11
-84.9817484112
21
-42.1249278914
31
0.0000000000
11
-84.9820276078
21
-42.2120777820
31
0.0000000000
11
-84.9822466292
21
-42.2804217730
31
0.0000000000
11
-84.9824048680
21
-42.3295327684
31
0.0000000000
11
-84.9825010122
21
-42.3590813581
31
0.0000000000
11
-84.9825343392
21
-42.3689346968
31
0.0000000000
0
SPLINE
5
45E
100
AcDbEntity
8
0
100
AcDbSpline
62
7
6
CONTINUOUS
70
0
71
3
72
10
73
6
74
4
42
0.0000001000
43
0.0000001000
44
0.0000000001
12
-0.5498495117
22
-2.6229480667
32
0.0000000000
13
-0.3033620712
23
-2.6627359050
33
0.0000000000
40
0.0000000000
40
0.0000000000
40
0.0000000000
40
0.0000000000
40
0.3353734111
40
0.6685814863
40
1.0000000000
40
1.0000000000
40
1.0000000000
40
1.0000000000
10
-68.4699342010
20
5.9000000000
30
0.0000000000
10
-68.5314025031
20
5.6067776532
30
0.0000000000
10
-68.6448145081
20
5.0202678903
30
0.0000000000
10
-68.7870289830
20
4.1382094238
30
0.0000000000
10
-68.8633529762
20
3.5492970138
30
0.0000000000
10
-68.8968662451
20
3.2551370217
30
0.0000000000
11
-68.4699342010
21
5.9000000000
31
0.0000000000
11
-68.6405695749
21
5.0175585909
31
0.0000000000
11
-68.7827100731
21
4.1359590976
31
0.0000000000
11
-68.8968662451
21
3.2551370217
31
0.0000000000
0
SPLINE
5
45F
100
AcDbEntity
8
0
100
AcDbSpline
62
7
6
CONTINUOUS
70
0
71
3
72
10
73
6
74
4
42
0.0000001000
43
0.0000001000
44
0.0000000001
12
-0.1573057499
22
0.0013727865
32
0.0000000000
13
-0.1406935219
23
-0.0703726962
33
0.0000000000
40
0.0000000000
40
0.0000000000
40
0.0000000000
40
0.0000000000
40
0.3114103389
40
0.6444501266
40
1.0000000000
40
1.0000000000
40
1.0000000000
40
1.0000000000
10
-70.6203382097
20
25.3599034902
30
0.0000000000
10
-70.6366670886
20
25.3600459902
30
0.0000000000
10
-70.6705341188
20
25.3565919099
30
0.0000000000
10
-70.7212419648
20
25.3425914850
30
0.0000000000
10
-70.7545156679
20
25.3282697372
30
0.0000000000
10
-70.7711901892
20
25.3199294028
30
0.0000000000
11
-70.6203382097
21
25.3599034902
31
0.0000000000
11
-70.6691199712
21
25.3554075927
31
0.0000000000
11
-70.7197161472
21
25.3418115997
31
0.0000000000
11
-70.7711901892
21
25.3199294028
31
0.0000000000
0
SPLINE
5
460
100
AcDbEntity
8
0
100
AcDbSpline
62
7
6
CONTINUOUS
70
0
71
3
72
10
73
6
74
4
42
0.0000001000
43
0.0000001000
44
0.0000000001
12
0.3033620712
22
-2.6627359050
32
0.0000000000
13
0.5498495117
23
-2.6229480667
33
0.0000000000
40
0.0000000000
40
0.0000000000
40
0.0000000000
40
0.0000000000
40
0.3314185137
40
0.6646265889
40
1.0000000000
40
1.0000000000
40
1.0000000000
40
1.0000000000
10
-68.8968662451
20
-3.2551370217
30
0.0000000000
10
-68.8633529762
20
-3.5492970138
30
0.0000000000
10
-68.7870289830
20
-4.1382094238
30
0.0000000000
10
-68.6448145081
20
-5.0202678903
30
0.0000000000
10
-68.5314025031
20
-5.6067776532
30
0.0000000000
10
-68.4699342010
20
-5.9000000000
30
0.0000000000
11
-68.8968662451
21
-3.2551370217
31
0.0000000000
11
-68.7827100731
21
-4.1359590976
31
0.0000000000
11
-68.6405695749
21
-5.0175585909
31
0.0000000000
11
-68.4699342010
21
-5.9000000000
31
0.0000000000
0
SPLINE
5
461
100
AcDbEntity
8
0
100
AcDbSpline
62
9
6
CONTINUOUS
70
0
71
3
72
10
73
6
74
4
42
0.0000001000
43
0.0000001000
44
0.0000000001
12
0.0000000000
22
0.4217636310
32
0.0000000000
13
-0.4217528945
23
0.0030093956
33
0.0000000000
40
0.0000000000
40
0.0000000000
40
0.0000000000
40
0.0000000000
40
0.3040423841
40
0.6381120988
40
1.0000000000
40
1.0000000000
40
1.0000000000
40
1.0000000000
10
-70.4738081499
20
23.7414133366
30
0.0000000000
10
-70.4738081499
20
23.7841580099
30
0.0000000000
10
-70.5054614279
20
23.8753515434
30
0.0000000000
10
-70.6212570657
20
23.9649022479
30
0.0000000000
10
-70.7203144326
20
23.9861243353
30
0.0000000000
10
-70.7711901892
20
23.9864873566
30
0.0000000000
11
-70.4738081499
21
23.7414133366
31
0.0000000000
11
-70.5135608760
21
23.8633300484
31
0.0000000000
11
-70.6222912422
21
23.9529407752
31
0.0000000000
11
-70.7711901892
21
23.9864873566
31
0.0000000000
0
SPLINE
5
462
100
AcDbEntity
8
0
100
AcDbSpline
62
9
6
CONTINUOUS
70
0
71
3
72
13
73
9
74
7
42
0.0000001000
43
0.0000001000
44
0.0000000001
12
-0.0002441977
22
-1.0960547412
32
0.0000000000
13
-1.0960211550
23
-0.0085838876
33
0.0000000000
40
0.0000000000
40
0.0000000000
40
0.0000000000
40
0.0000000000
40
0.1780382823
40
0.3461726131
40
0.5111701943
40
0.6766141521
40
0.8411946706
40
1.0000000000
40
1.0000000000
40
1.0000000000
40
1.0000000000
10
-70.7711901892
20
23.9864873566
30
0.0000000000
10
-70.7712046814
20
23.9214407888
30
0.0000000000
10
-70.7886384815
20
23.7942595233
30
0.0000000000
10
-70.8628713534
20
23.6207102711
30
0.0000000000
10
-70.9760355725
20
23.4754034946
30
0.0000000000
10
-71.1215920848
20
23.3645928539
30
0.0000000000
10
-71.2885467389
20
23.2959438541
30
0.0000000000
10
-71.4070636142
20
23.2796932777
30
0.0000000000
10
-71.4650816144
20
23.2792388886
30
0.0000000000
11
-70.7711901892
21
23.9864873566
31
0.0000000000
11
-70.7978231949
21
23.7931736511
31
0.0000000000
11
-70.8702643739
21
23.6237244593
31
0.0000000000
11
-70.9814596077
21
23.4811024585
31
0.0000000000
11
-71.1257854600
21
23.3713178406
31
0.0000000000
11
-71.2926088411
21
23.3026866130
31
0.0000000000
11
-71.4650816144
21
23.2792388886
31
0.0000000000
0
SPLINE
5
463
100
AcDbEntity
8
0
100
AcDbSpline
62
9
6
CONTINUOUS
70
0
71
3
72
12
73
8
74
6
42
0.0000001000
43
0.0000001000
44
0.0000000001
12
0.5380005185
22
0.0046950549
32
0.0000000000
13
-0.0226201505
23
0.5375452821
33
0.0000000000
40
0.0000000000
40
0.0000000000
40
0.0000000000
40
0.0000000000
40
0.0678457920
40
0.2540800505
40
0.5138399705
40
0.7842903038
40
1.0000000000
40
1.0000000000
40
1.0000000000
40
1.0000000000
10
-71.4650815071
20
22.7414514145
30
0.0000000000
10
-71.4529144833
20
22.7415575944
30
0.0000000000
10
-71.4735479081
20
22.8146735091
30
0.0000000000
10
-71.4527053311
20
22.8829614111
30
0.0000000000
10
-71.4617140694
20
23.0222969472
30
0.0000000000
10
-71.4607807445
20
23.1528153222
30
0.0000000000
10
-71.4634551524
20
23.2405876455
30
0.0000000000
10
-71.4650816144
20
23.2792388887
30
0.0000000000
11
-71.4650815071
21
22.7414514145
31
0.0000000000
11
-71.4617277099
21
22.7777994779
31
0.0000000000
11
-71.4598199318
21
22.8779792570
31
0.0000000000
11
-71.4598201991
21
23.0177355501
31
0.0000000000
11
-71.4617281466
21
23.1632310008
31
0.0000000000
11
-71.4650816144
21
23.2792388887
31
0.0000000000
0
SPLINE
5
464
100
AcDbEntity
8
0
100
AcDbSpline
62
9
6
CONTINUOUS
70
0
71
3
72
9
73
5
74
3
42
0.0000001000
43
0.0000001000
44
0.0000000001
12
-4.0087265306
22
-0.0356308754
32
0.0000000000
13
-4.0087265406
23
-0.0356297449
33
0.0000000000
40
0.0000000000
40
0.0000000000
40
0.0000000000
40
0.0000000000
40
0.7496213508
40
1.0000000000
40
1.0000000000
40
1.0000000000
40
1.0000000000
10
-71.4650816144
20
23.2792388886
30
0.0000000000
10
-72.4667572799
20
23.2703356670
30
0.0000000000
10
-73.8029994592
20
23.2584589818
30
0.0000000000
10
-75.1392416389
20
23.2465823441
30
0.0000000000
10
-75.4738081511
20
23.2436087016
30
0.0000000000
11
-71.4650816144
21
23.2792388886
31
0.0000000000
11
-74.4701086149
21
23.2525296601
31
0.0000000000
11
-75.4738081511
21
23.2436087016
31
0.0000000000
0
SPLINE
5
465
100
AcDbEntity
8
0
100
AcDbSpline
62
9
6
CONTINUOUS
70
0
71
3
72
10
73
6
74
4
42
0.0000001000
43
0.0000001000
44
0.0000000001
12
0.0000000000
22
-0.4217641908
32
0.0000000000
13
-0.4217534724
23
-0.0030068492
33
0.0000000000
40
0.0000000000
40
0.0000000000
40
0.0000000000
40
0.0000000000
40
0.3040316212
40
0.6381054434
40
1.0000000000
40
1.0000000000
40
1.0000000000
40
1.0000000000
10
-70.4738081499
20
-23.7414133366
30
0.0000000000
10
-70.4738081499
20
-23.7841565535
30
0.0000000000
10
-70.5054593295
20
-23.8753493342
30
0.0000000000
10
-70.6212541712
20
-23.9649022444
30
0.0000000000
10
-70.7203134273
20
-23.9861246358
30
0.0000000000
10
-70.7711901892
20
-23.9864873566
30
0.0000000000
11
-70.4738081499
21
-23.7414133366
31
0.0000000000
11
-70.5135578305
21
-23.8633264459
31
0.0000000000
11
-70.6222883237
21
-23.9529400364
31
0.0000000000
11
-70.7711901892
21
-23.9864873566
31
0.0000000000
0
SPLINE
5
466
100
AcDbEntity
8
0
100
AcDbSpline
62
7
6
CONTINUOUS
70
0
71
3
72
10
73
6
74
4
42
0.0000001000
43
0.0000001000
44
0.0000000001
12
-0.1573057499
22
-0.0013727865
32
0.0000000000
13
-0.1406935219
23
0.0703726962
33
0.0000000000
40
0.0000000000
40
0.0000000000
40
0.0000000000
40
0.0000000000
40
0.3114103389
40
0.6444501266
40
1.0000000000
40
1.0000000000
40
1.0000000000
40
1.0000000000
10
-70.6203382097
20
-25.3599034902
30
0.0000000000
10
-70.6366670886
20
-25.3600459902
30
0.0000000000
10
-70.6705341188
20
-25.3565919099
30
0.0000000000
10
-70.7212419648
20
-25.3425914850
30
0.0000000000
10
-70.7545156679
20
-25.3282697372
30
0.0000000000
10
-70.7711901892
20
-25.3199294028
30
0.0000000000
11
-70.6203382097
21
-25.3599034902
31
0.0000000000
11
-70.6691199712
21
-25.3554075927
31
0.0000000000
11
-70.7197161472
21
-25.3418115997
31
0.0000000000
11
-70.7711901892
21
-25.3199294028
31
0.0000000000
0
SPLINE
5
467
100
AcDbEntity
8
0
100
AcDbSpline
62
9
6
CONTINUOUS
70
0
71
3
72
12
73
8
74
6
42
0.0000001000
43
0.0000001000
44
0.0000000001
12
0.5377841611
22
-0.0138385485
32
0.0000000000
13
-0.0229070783
23
-0.5374742553
33
0.0000000000
40
0.0000000000
40
0.0000000000
40
0.0000000000
40
0.0000000000
40
0.0679469463
40
0.2542117179
40
0.5139443200
40
0.7843385848
40
1.0000000000
40
1.0000000000
40
1.0000000000
40
1.0000000000
10
-71.4650820729
20
-22.7415162296
30
0.0000000000
10
-71.4529018090
20
-22.7418296586
30
0.0000000000
10
-71.4734593968
20
-22.8144944425
30
0.0000000000
10
-71.4526591262
20
-22.8832149432
30
0.0000000000
10
-71.4616376312
20
-23.0223299407
30
0.0000000000
10
-71.4607348105
20
-23.1528693215
30
0.0000000000
10
-71.4634348853
20
-23.2406018331
30
0.0000000000
10
-71.4650816096
20
-23.2792393192
30
0.0000000000
11
-71.4650820729
21
-22.7415162296
31
0.0000000000
11
-71.4616875979
21
-22.7779111623
31
0.0000000000
11
-71.4597557981
21
-22.8780959422
31
0.0000000000
11
-71.4597550850
21
-23.0178222595
31
0.0000000000
11
-71.4616862473
21
-23.1632713285
31
0.0000000000
11
-71.4650816096
21
-23.2792393192
31
0.0000000000
0
SPLINE
5
468
100
AcDbEntity
8
0
100
AcDbSpline
62
9
6
CONTINUOUS
70
0
71
3
72
13
73
9
74
7
42
0.0000001000
43
0.0000001000
44
0.0000000001
12
1.0960211704
22
-0.0085872586
32
0.0000000000
13
0.0002462483
23
-1.0960547825
33
0.0000000000
40
0.0000000000
40
0.0000000000
40
0.0000000000
40
0.0000000000
40
0.1588054209
40
0.3233857808
40
0.4888298529
40
0.6538273597
40
0.8219617276
40
1.0000000000
40
1.0000000000
40
1.0000000000
40
1.0000000000
10
-71.4650816144
20
-23.2792388886
30
0.0000000000
10
-71.4070635799
20
-23.2796934564
30
0.0000000000
10
-71.2885466019
20
-23.2959433055
30
0.0000000000
10
-71.1215923090
20
-23.3645932901
30
0.0000000000
10
-70.9760353515
20
-23.4754032225
30
0.0000000000
10
-70.8628715843
20
-23.6207104325
30
0.0000000000
10
-70.7886381885
20
-23.7942594351
30
0.0000000000
10
-70.7712048031
20
-23.9214407900
30
0.0000000000
10
-70.7711901892
20
-23.9864873566
30
0.0000000000
11
-71.4650816144
21
-23.2792388886
31
0.0000000000
11
-71.2926087082
21
-23.3026864301
31
0.0000000000
11
-71.1257856267
21
-23.3713179472
31
0.0000000000
11
-70.9814594962
21
-23.4811024173
31
0.0000000000
11
-70.8702644601
21
-23.6237244779
31
0.0000000000
11
-70.7978230911
21
-23.7931736402
31
0.0000000000
11
-70.7711901892
21
-23.9864873566
31
0.0000000000
0
SPLINE
5
469
100
AcDbEntity
8
0
100
AcDbSpline
62
9
6
CONTINUOUS
70
0
71
3
72
9
73
5
74
3
42
0.0000001000
43
0.0000001000
44
0.0000000001
12
4.0087265406
22
-0.0356297449
32
0.0000000000
13
4.0087265306
23
-0.0356308754
33
0.0000000000
40
0.0000000000
40
0.0000000000
40
0.0000000000
40
0.0000000000
40
0.2503786492
40
1.0000000000
40
1.0000000000
40
1.0000000000
40
1.0000000000
10
-75.4738081511
20
-23.2436087016
30
0.0000000000
10
-75.1392416389
20
-23.2465823441
30
0.0000000000
10
-73.8029994592
20
-23.2584589818
30
0.0000000000
10
-72.4667572799
20
-23.2703356670
30
0.0000000000
10
-71.4650816144
20
-23.2792388886
30
0.0000000000
11
-75.4738081511
21
-23.2436087016
31
0.0000000000
11
-74.4701086149
21
-23.2525296601
31
0.0000000000
11
-71.4650816144
21
-23.2792388886
31
0.0000000000
0
SPLINE
5
46A
100
AcDbEntity
8
0
100
AcDbSpline
62
9
6
CONTINUOUS
70
0
71
3
72
9
73
5
74
3
42
0.0000001000
43
0.0000001000
44
0.0000000001
12
4.9999999930
22
0.0141014898
32
0.0000000000
13
4.9999999765
23
0.0141073545
33
0.0000000000
40
0.0000000000
40
0.0000000000
40
0.0000000000
40
0.0000000000
40
0.3000000000
40
1.0000000000
40
1.0000000000
40
1.0000000000
40
1.0000000000
10
-75.4738081482
20
-17.0257129123
30
0.0000000000
10
-74.9738081489
20
-17.0243027633
30
0.0000000000
10
-73.3071414855
20
-17.0196019475
30
0.0000000000
10
-71.6404748111
20
-17.0149050244
30
0.0000000000
10
-70.4738081499
20
-17.0116133084
30
0.0000000000
11
-75.4738081482
21
-17.0257129123
31
0.0000000000
11
-73.9738081499
21
-17.0214826242
31
0.0000000000
11
-70.4738081499
21
-17.0116133084
31
0.0000000000
0
SPLINE
5
46B
100
AcDbEntity
8
0
100
AcDbSpline
62
9
6
CONTINUOUS
70
0
71
3
72
9
73
5
74
3
42
0.0000001000
43
0.0000001000
44
0.0000000001
12
-4.9999876592
22
-0.1295507367
32
0.0000000000
13
-5.0000119512
23
-0.1286099309
33
0.0000000000
40
0.0000000000
40
0.0000000000
40
0.0000000000
40
0.0000000000
40
0.7001812610
40
1.0000000000
40
1.0000000000
40
1.0000000000
40
1.0000000000
10
-70.4738081499
20
-17.8772386595
30
0.0000000000
10
-71.6407740379
20
-17.9074749922
30
0.0000000000
10
-73.3074394797
20
-17.9505471502
30
0.0000000000
10
-74.9741089489
20
-17.9934630639
30
0.0000000000
10
-75.4738080416
20
-18.0063162863
30
0.0000000000
11
-70.4738081499
21
-17.8772386595
31
0.0000000000
11
-73.9747118336
21
-17.9677150286
31
0.0000000000
11
-75.4738080416
21
-18.0063162863
31
0.0000000000
0
SPLINE
5
46C
100
AcDbEntity
8
0
100
AcDbSpline
62
9
6
CONTINUOUS
70
0
71
3
72
9
73
5
74
3
42
0.0000001000
43
0.0000001000
44
0.0000000001
12
4.7026285516
22
-0.1209602036
32
0.0000000000
13
4.7026070618
23
-0.1217926631
33
0.0000000000
40
0.0000000000
40
0.0000000000
40
0.0000000000
40
0.0000000000
40
0.2871758178
40
1.0000000000
40
1.0000000000
40
1.0000000000
40
1.0000000000
10
-75.4738080739
20
18.0063163339
30
0.0000000000
10
-75.0236476739
20
17.9947373855
30
0.0000000000
10
-73.4561058241
20
17.9543784043
30
0.0000000000
10
-71.8885675336
20
17.9138813031
30
0.0000000000
10
-70.7711901892
20
17.8849423847
30
0.0000000000
11
-75.4738080739
21
18.0063163339
31
0.0000000000
11
-74.1233277421
21
17.9715457479
31
0.0000000000
11
-70.7711901892
21
17.8849423847
31
0.0000000000
0
SPLINE
5
46D
100
AcDbEntity
8
0
100
AcDbSpline
62
7
6
CONTINUOUS
70
0
71
3
72
10
73
6
74
4
42
0.0000001000
43
0.0000001000
44
0.0000000001
12
0.2776318559
22
-0.3460828405
32
0.0000000000
13
-0.0000000000
23
-0.4436809438
33
0.0000000000
40
0.0000000000
40
0.0000000000
40
0.0000000000
40
0.0000000000
40
0.3031157213
40
0.6356803265
40
1.0000000000
40
1.0000000000
40
1.0000000000
40
1.0000000000
10
-70.5968003210
20
17.0119601223
30
0.0000000000
10
-70.5687487942
20
16.9769924057
30
0.0000000000
10
-70.5228256246
20
16.8932277388
30
0.0000000000
10
-70.4827839270
20
16.7500676154
30
0.0000000000
10
-70.4738081499
20
16.6466860749
30
0.0000000000
10
-70.4738081499
20
16.5928055094
30
0.0000000000
11
-70.5968003210
21
17.0119601223
31
0.0000000000
11
-70.5296072927
21
16.8954622203
31
0.0000000000
11
-70.4883661798
21
16.7537902970
31
0.0000000000
11
-70.4738081499
21
16.5928055094
31
0.0000000000
0
SPLINE
5
46E
100
AcDbEntity
8
0
100
AcDbSpline
62
9
6
CONTINUOUS
70
0
71
3
72
9
73
5
74
3
42
0.0000001000
43
0.0000001000
44
0.0000000001
12
-4.8770078068
22
0.0137600549
32
0.0000000000
13
-4.8770078220
23
0.0137546469
33
0.0000000000
40
0.0000000000
40
0.0000000000
40
0.0000000000
40
0.0000000000
40
0.7050437553
40
1.0000000000
40
1.0000000000
40
1.0000000000
40
1.0000000000
10
-70.5968003210
20
17.0119601223
30
0.0000000000
10
-71.7429682873
20
17.0151939359
30
0.0000000000
10
-73.3686375709
20
17.0197753921
30
0.0000000000
10
-74.9943068442
20
17.0243605519
30
0.0000000000
10
-75.4738081483
20
17.0257128916
30
0.0000000000
11
-70.5968003210
21
17.0119601223
31
0.0000000000
11
-74.0353042354
21
17.0216560311
31
0.0000000000
11
-75.4738081483
21
17.0257128916
31
0.0000000000
0
SPLINE
5
46F
100
AcDbEntity
8
0
100
AcDbSpline
62
7
6
CONTINUOUS
70
0
71
3
72
10
73
6
74
4
42
0.0000001000
43
0.0000001000
44
0.0000000001
12
-0.1553271331
22
0.1936235136
32
0.0000000000
13
-0.1921576464
23
0.1571369536
33
0.0000000000
40
0.0000000000
40
0.0000000000
40
0.0000000000
40
0.0000000000
40
0.3427666130
40
0.6779645969
40
1.0000000000
40
1.0000000000
40
1.0000000000
40
1.0000000000
10
-70.5968006149
20
17.0119606319
30
0.0000000000
10
-70.6145476000
20
17.0340831906
30
0.0000000000
10
-70.6513450448
20
17.0765027639
30
0.0000000000
10
-70.7097138800
20
17.1352221355
30
0.0000000000
10
-70.7505630008
20
17.1711981559
30
0.0000000000
10
-70.7711901892
20
17.1880660433
30
0.0000000000
11
-70.5968006149
21
17.0119606319
31
0.0000000000
11
-70.6524650558
21
17.0763091964
31
0.0000000000
11
-70.7111291129
21
17.1353144951
31
0.0000000000
11
-70.7711901892
21
17.1880660433
31
0.0000000000
0
SPLINE
5
470
100
AcDbEntity
8
0
100
AcDbSpline
62
7
6
CONTINUOUS
70
0
71
3
72
9
73
5
74
3
42
0.0000001000
43
0.0000001000
44
0.0000000001
12
-0.0596741801
22
0.0012997192
32
0.0000000000
13
-0.0535372812
23
-0.0169769994
33
0.0000000000
40
0.0000000000
40
0.0000000000
40
0.0000000000
40
0.0000000000
40
0.2048956344
40
1.0000000000
40
1.0000000000
40
1.0000000000
40
1.0000000000
10
-70.5349625192
20
17.9961569996
30
0.0000000000
10
-70.5390381788
20
17.9962457685
30
0.0000000000
10
-70.5590026861
20
17.9956603453
30
0.0000000000
10
-70.5774506004
20
17.9915800742
30
0.0000000000
10
-70.5916398424
20
17.9870805787
30
0.0000000000
11
-70.5349625192
21
17.9961569996
31
0.0000000000
11
-70.5471557896
21
17.9958591457
31
0.0000000000
11
-70.5916398424
21
17.9870805787
31
0.0000000000
0
SPLINE
5
471
100
AcDbEntity
8
0
100
AcDbSpline
62
7
6
CONTINUOUS
70
0
71
3
72
10
73
6
74
4
42
0.0000001000
43
0.0000001000
44
0.0000000001
12
-0.1965532342
22
-0.0623282332
32
0.0000000000
13
-0.1643380834
23
-0.1267944770
33
0.0000000000
40
0.0000000000
40
0.0000000000
40
0.0000000000
40
0.0000000000
40
0.1243702497
40
0.5407505397
40
1.0000000000
40
1.0000000000
40
1.0000000000
40
1.0000000000
10
-70.5916398424
20
17.9870805787
30
0.0000000000
10
-70.5997883006
20
17.9844966527
30
0.0000000000
10
-70.6345305500
20
17.9714620932
30
0.0000000000
10
-70.6964368985
20
17.9392028538
30
0.0000000000
10
-70.7460327972
20
17.9043502455
30
0.0000000000
10
-70.7711901892
20
17.8849401471
30
0.0000000000
11
-70.5916398424
21
17.9870805787
31
0.0000000000
11
-70.6157024425
21
17.9782676087
31
0.0000000000
11
-70.6927403525
21
17.9390921532
31
0.0000000000
11
-70.7711901892
21
17.8849401471
31
0.0000000000
0
ENDSEC
0
SECTION
2
OBJECTS
0
DICTIONARY
5
C
100
AcDbDictionary
280
0
281
1
3
ACAD_GROUP
350
D
3
ACAD_MLINESTYLE
350
17
3
ACAD_LAYOUT
350
1A
3
ACAD_PLOTSETTINGS
350
19
3
ACAD_PLOTSTYLENAME
350
E
0
DICTIONARY
5
D
102
{ACAD_REACTORS
330
C
102
}
100
AcDbDictionary
280
0
281
1
0
ACDBDICTIONARYWDFLT
5
E
102
{ACAD_REACTORS
330
C
102
}
100
AcDbDictionary
281
1
3
Normal
350
F
100
AcDbDictionaryWithDefault
340
F
0
DICTIONARY
5
17
102
{ACAD_REACTORS
330
C
102
}
100
AcDbDictionary
280
0
281
1
3
Standard
350
18
0
DICTIONARY
5
19
102
{ACAD_REACTORS
330
C
102
}
100
AcDbDictionary
281
1
0
DICTIONARY
5
1A
102
{ACAD_REACTORS
330
C
102
}
100
AcDbDictionary
281
1
3
Layout1
350
1E
3
Model
350
22
0
ACDBPLACEHOLDER
5
F
102
{ACAD_REACTORS
330
E
102
}
0
MLINESTYLE
5
18
102
{ACAD_REACTORS
330
17
102
}
100
AcDbMlineStyle
2
STANDARD
70
0
3

62
256
51
90.0
52
90.0
71
2
49
0.5
62
256
6
BYLAYER
49
-0.5
62
256
6
BYLAYER
0
LAYOUT
5
1E
102
{ACAD_REACTORS
330
1A
102
}
100
AcDbPlotSettings
1

2

4

6

40
0.0
41
0.0
42
0.0
43
0.0
44
0.0
45
0.0
46
0.0
47
0.0
48
0.0
49
0.0
140
0.0
141
0.0
142
1.0
143
1.0
70
0
72
0
73
0
74
0
7

75
0
147
1.0
148
0.0
149
0.0
100
AcDbLayout
1
Layout1
70
0
71
0
10
0.0
20
0.0
11
0.0
21
0.0
12
0.0
22
0.0
32
0.0
14
0.0
24
0.0
34
0.0
15
0.0
25
0.0
35
0.0
146
0.0
13
0.0
23
0.0
33
0.0
16
0.0
26
0.0
36
0.0
17
0.0
27
0.0
37
0.0
76
0
330
1B
331
0
345
0
346
0
0
LAYOUT
5
22
102
{ACAD_REACTORS
330
1A
102
}
100
AcDbPlotSettings
1

2

4

6

40
0.0
41
0.0
42
0.0
43
0.0
44
0.0
45
0.0
46
0.0
47
0.0
48
0.0
49
0.0
140
0.0
141
0.0
142
1.0
143
1.0
70
0
72
0
73
0
74
0
7

75
0
147
1.0
148
0.0
149
0.0
100
AcDbLayout
1
Model
70
0
71
0
10
0.0
20
0.0
11
0.0
21
0.0
12
0.0
22
0.0
32
0.0
14
0.0
24
0.0
34
0.0
15
0.0
25
0.0
35
0.0
146
0.0
13
0.0
23
0.0
33
0.0
16
0.0
26
0.0
36
0.0
17
0.0
27
0.0
37
0.0
76
0
330
1F
331
0
345
0
346
0
0
ENDSEC
0
EOF
