  0
SECTION
  2
HEADER
  9
$ACADVER
  1
AC1024
  9
$DWGCODEPAGE
  3
ANSI_1252
  9
$EXTMAX
 10
297.0
 20
210.0
 30
0.0
  9
$EXTMIN
 10
0.0
 20
0.0
 30
0.0
  9
$LIMMIN
 10
0.0
 20
0.0
  9
$LIMMAX
 10
297.0
 20
210.0
  9
$VIEWCTR
 10
148.5
 20
105.0
  9
$VIEWSIZE
 40
210.0
  9
$CLAYER
  8
0
  9
$LTSCALE
 40
16.335
  9
$CELTYPE
  6
BYLAYER
  9
$DIMSCALE
 40
1.0
  9
$DIMASZ
 40
3.0
  9
$DIMEXO
 40
0.5
  9
$DIMDLI
 40
11.286
  9
$DIMEXE
 40
1.5
  9
$DIMCEN
 40
2.673
  9
$DIMLFAC
 40
1.0
  9
$DIMBLK
  1
_FILLED
  9
$DIMALT
 70
0
  9
$DIMALTF
 40
0.0393700787
  9
$DIMTXT
 40
3.0
  9
$DIMTOL
 70
1
  9
$DIMLIM
 70
0
  9
$DIMTFAC
 40
1.0
  9
$DIMTP
 40
0.01
  9
$DIMTM
 40
0.01
  9
$DIMGAP
 40
0.625
  9
$DIMDSEP
 70
44
  9
$AUNITS
 70
0
  9
$PDMODE
 70
3
  9
$PDSIZE
 40
3.0
  9
$HANDSEED
  5
548
  9
$TILEMODE
 70
1
  9
$MEASUREMENT
 70
1
  9
$INSUNITS
 70
4
  0
ENDSEC
  0
SECTION
  2
CLASSES
  0
CLASS
  1
ACDBDICTIONARYWDFLT
  2
AcDbDictionaryWithDefault
  3
AutoCAD 2000
 90
0
 91
1
280
0
281
0
  0
CLASS
  1
ACDBPLACEHOLDER
  2
AcDbPlaceHolder
  3
AutoCAD 2000
 90
0
 91
1
280
0
281
0
  0
CLASS
  1
LAYOUT
  2
AcDbLayout
  3
AutoCAD 2000
 90
0
 91
0
280
0
281
0
  0
ENDSEC
  0
SECTION
  2
TABLES
  0
TABLE
  2
VPORT
  5
8
100
AcDbSymbolTable
 70
2
  0
VPORT
  5
1F4
100
AcDbSymbolTableRecord
100
AcDbViewportTableRecord
  2
*ACTIVE
 70
0
 10
0.0
 20
0.0
 11
1.0
 21
1.0
 12
148.5
 22
105.0
 13
0.0
 23
0.0
 14
1.0
 24
1.0
 15
0.0
 25
0.0
 16
0.0
 26
0.0
 36
1.0
 17
0.0
 27
0.0
 37
0.0
 40
210.0
 41
1.4142857143
 42
50.0
 43
0.0
 44
0.0
 50
0.0
 51
0.0
 71
0
 72
100
 73
1
 74
1
 75
0
 76
0
 77
0
 78
0
  0
ENDTAB
  0
TABLE
  2
LTYPE
  5
5
100
AcDbSymbolTable
 70
6
  0
LTYPE
  5
14
100
AcDbSymbolTableRecord
100
AcDbLinetypeTableRecord
  2
BYBLOCK
 70
0
  3

 72
65
 73
0
 40
0.0
  0
LTYPE
  5
15
100
AcDbSymbolTableRecord
100
AcDbLinetypeTableRecord
  2
BYLAYER
 70
0
  3

 72
65
 73
0
 40
0.0
  0
LTYPE
  5
16
100
AcDbSymbolTableRecord
100
AcDbLinetypeTableRecord
  2
CONTINUOUS
 70
64
  3
Solid line
 72
65
 73
0
 40
0.0
  0
LTYPE
  5
1F5
100
AcDbSymbolTableRecord
100
AcDbLinetypeTableRecord
  2
CENTER
 70
64
  3
____ _ ____ _ ____ _ ____ _ ____ _ ____ _ ____
 72
65
 73
4
 40
0.6
 49
0.375
 74
0
 49
-0.075
 74
0
 49
0.075
 74
0
 49
-0.075
 74
0
  0
LTYPE
  5
1F6
100
AcDbSymbolTableRecord
100
AcDbLinetypeTableRecord
  2
HIDDEN
 70
64
  3
- - - - - - - - - - - - - - - - - - - -
 72
65
 73
2
 40
0.2
 49
0.1
 74
0
 49
-0.1
 74
0
  0
LTYPE
  5
1F7
100
AcDbSymbolTableRecord
100
AcDbLinetypeTableRecord
  2
PHANTOM
 70
64
  3
_____ _ _ _____ _ _ _____ _ _ _____
 72
65
 73
6
 40
0.8
 49
0.45
 74
0
 49
-0.05
 74
0
 49
0.1
 74
0
 49
-0.05
 74
0
 49
0.1
 74
0
 49
-0.05
 74
0
  0
LTYPE
  5
1F8
100
AcDbSymbolTableRecord
100
AcDbLinetypeTableRecord
  2
DOT
 70
64
  3
. . . . . . . . . . . . . . . . . . . .
 72
65
 73
2
 40
0.2
 49
0.1
 74
0
 49
-0.1
 74
0
  0
LTYPE
  5
1F9
100
AcDbSymbolTableRecord
100
AcDbLinetypeTableRecord
  2
DASHED
 70
64
  3
- - - - - - - - - - - - - - - - - - - -
 72
65
 73
2
 40
0.2
 49
0.1
 74
0
 49
-0.1
 74
0
  0
ENDTAB
  0
TABLE
  2
LAYER
  5
2
100
AcDbSymbolTable
 70
36
  0
LAYER
  5
10
100
AcDbSymbolTableRecord
100
AcDbLayerTableRecord
  2
0
 70
0
 62
7
  6
CONTINUOUS
370
-3
390
F
  0
LAYER
  5
1FA
100
AcDbSymbolTableRecord
100
AcDbLayerTableRecord
  2
DEFAULT_1
 70
0
 62
7
  6
CENTER
370
-3
390
F
  0
LAYER
  5
1FB
100
AcDbSymbolTableRecord
100
AcDbLayerTableRecord
  2
DEFAULT_2
 70
0
 62
7
  6
HIDDEN
370
-3
390
F
  0
LAYER
  5
1FC
100
AcDbSymbolTableRecord
100
AcDbLayerTableRecord
  2
DEFAULT_3
 70
0
 62
7
  6
PHANTOM
370
-3
390
F
  0
LAYER
  5
1FD
100
AcDbSymbolTableRecord
100
AcDbLayerTableRecord
  2
ASSI
 70
0
 62
7
  6
CONTINUOUS
370
-3
390
F
  0
LAYER
  5
1FE
100
AcDbSymbolTableRecord
100
AcDbLayerTableRecord
  2
COORDINATE
 70
0
 62
7
  6
CONTINUOUS
370
-3
390
F
  0
LAYER
  5
1FF
100
AcDbSymbolTableRecord
100
AcDbLayerTableRecord
  2
COORD_ORIGINE
 70
0
 62
7
  6
CONTINUOUS
370
-3
390
F
  0
LAYER
  5
200
100
AcDbSymbolTableRecord
100
AcDbLayerTableRecord
  2
COSMETICHE
 70
0
 62
7
  6
CONTINUOUS
370
-3
390
F
  0
LAYER
  5
201
100
AcDbSymbolTableRecord
100
AcDbLayerTableRecord
  2
CURVE
 70
0
 62
7
  6
CONTINUOUS
370
-3
390
F
  0
LAYER
  5
202
100
AcDbSymbolTableRecord
100
AcDbLayerTableRecord
  2
DRAFT
 70
0
 62
7
  6
CONTINUOUS
370
-3
390
F
  0
LAYER
  5
203
100
AcDbSymbolTableRecord
100
AcDbLayerTableRecord
  2
IGS
 70
0
 62
7
  6
CONTINUOUS
370
-3
390
F
  0
LAYER
  5
204
100
AcDbSymbolTableRecord
100
AcDbLayerTableRecord
  2
NOTE
 70
0
 62
7
  6
CONTINUOUS
370
-3
390
F
  0
LAYER
  5
205
100
AcDbSymbolTableRecord
100
AcDbLayerTableRecord
  2
PIANI
 70
0
 62
7
  6
CONTINUOUS
370
-3
390
F
  0
LAYER
  5
206
100
AcDbSymbolTableRecord
100
AcDbLayerTableRecord
  2
PIANI_ORIGINE
 70
0
 62
7
  6
CONTINUOUS
370
-3
390
F
  0
LAYER
  5
207
100
AcDbSymbolTableRecord
100
AcDbLayerTableRecord
  2
PUNTI
 70
0
 62
7
  6
CONTINUOUS
370
-3
390
F
  0
LAYER
  5
208
100
AcDbSymbolTableRecord
100
AcDbLayerTableRecord
  2
RACCORDO
 70
0
 62
7
  6
CONTINUOUS
370
-3
390
F
  0
LAYER
  5
209
100
AcDbSymbolTableRecord
100
AcDbLayerTableRecord
  2
SMUSSO
 70
0
 62
7
  6
CONTINUOUS
370
-3
390
F
  0
LAYER
  5
20A
100
AcDbSymbolTableRecord
100
AcDbLayerTableRecord
  2
SNAPLINE
 70
0
 62
7
  6
CONTINUOUS
370
-3
390
F
  0
LAYER
  5
20B
100
AcDbSymbolTableRecord
100
AcDbLayerTableRecord
  2
SUPERFICI
 70
0
 62
7
  6
CONTINUOUS
370
-3
390
F
  0
LAYER
  5
20C
100
AcDbSymbolTableRecord
100
AcDbLayerTableRecord
  2
TESTO
 70
0
 62
7
  6
CONTINUOUS
370
-3
390
F
  0
LAYER
  5
20D
100
AcDbSymbolTableRecord
100
AcDbLayerTableRecord
  2
TRASH
 70
0
 62
7
  6
CONTINUOUS
370
-3
390
F
  0
LAYER
  5
20E
100
AcDbSymbolTableRecord
100
AcDbLayerTableRecord
  2
XSEC_DATUMS
 70
0
 62
7
  6
CONTINUOUS
370
-3
390
F
  0
ENDTAB
  0
TABLE
  2
STYLE
  5
3
100
AcDbSymbolTable
 70
1
  0
STYLE
  5
11
100
AcDbSymbolTableRecord
100
AcDbTextStyleTableRecord
  2
STANDARD
 70
0
 40
0.0
 41
0.8
 50
0.0
 71
0
 42
0.2
  3
txt
  4

  0
STYLE
  5
20F
100
AcDbSymbolTableRecord
100
AcDbTextStyleTableRecord
  2
TEXTSTYLE_1
 70
0
 40
0.0
 41
0.8
 50
0.0
 71
0
 42
0.2
  3
gdt
  4

  0
ENDTAB
  0
TABLE
  2
VIEW
  5
6
100
AcDbSymbolTable
 70
0
  0
ENDTAB
  0
TABLE
  2
UCS
  5
7
100
AcDbSymbolTable
 70
0
  0
ENDTAB
  0
TABLE
  2
APPID
  5
9
100
AcDbSymbolTable
 70
1
  0
APPID
  5
210
100
AcDbSymbolTableRecord
100
AcDbRegAppTableRecord
  2
ACAD
 70
0
  0
ENDTAB
  0
TABLE
  2
BLOCK_RECORD
  5
1
100
AcDbSymbolTable
 70
0
  0
BLOCK_RECORD
  5
211
100
AcDbSymbolTableRecord
100
AcDbBlockTableRecord
  2
*Model_Space
  0
BLOCK_RECORD
  5
212
100
AcDbSymbolTableRecord
100
AcDbBlockTableRecord
  2
*Paper_Space
  0
BLOCK_RECORD
  5
213
100
AcDbSymbolTableRecord
100
AcDbBlockTableRecord
  2
_FILLED
  0
BLOCK_RECORD
  5
214
100
AcDbSymbolTableRecord
100
AcDbBlockTableRecord
  2
*D0
  0
BLOCK_RECORD
  5
215
100
AcDbSymbolTableRecord
100
AcDbBlockTableRecord
  2
*D1
  0
BLOCK_RECORD
  5
216
100
AcDbSymbolTableRecord
100
AcDbBlockTableRecord
  2
*D2
  0
BLOCK_RECORD
  5
217
100
AcDbSymbolTableRecord
100
AcDbBlockTableRecord
  2
*D3
  0
ENDTAB
  0
TABLE
  2
DIMSTYLE
  5
A
100
AcDbSymbolTable
 70
1
100
AcDbDimStyleTable
 71
0
  0
DIMSTYLE
105
218
100
AcDbSymbolTableRecord
100
AcDbDimStyleTableRecord
  2
STANDARD
 70
0
  3

  4

 40
1.0
 41
3.0
 42
0.5
 43
0.38
 44
1.5
 45
0.0
 46
0.0
 47
0.01
 48
0.01
140
3.0
141
0.09
142
0.0
143
25.4
144
1.0
145
0.0
146
1.0
147
0.625
 71
1
 72
0
 73
0
 74
0
 75
0
 76
0
 77
1
 78
8
 79
2
170
0
171
1
172
0
173
0
174
0
175
0
176
0
177
0
178
0
270
2
179
2
271
2
272
2
273
2
274
2
275
0
280
0
281
0
282
0
283
1
284
8
285
0
286
0
287
3
288
0
340
11
278
44
341
213
342
213
343
213
344
213
  0
DIMSTYLE
105
219
100
AcDbSymbolTableRecord
100
AcDbDimStyleTableRecord
  2
DIMSTYLE_1
 70
0
  3

  4

 40
1.0
 41
3.0
 42
0.5
 43
0.38
 44
1.5
 45
0.0
 46
0.0
 47
0.0
 48
0.0
140
3.0
141
0.09
142
0.0
143
25.4
144
1.0
145
0.0
146
1.0
147
0.75
 71
0
 72
0
 73
0
 74
0
 75
0
 76
0
 77
1
 78
8
 79
2
170
0
171
1
172
0
173
0
174
0
175
0
176
0
177
0
178
0
270
2
179
2
271
2
272
2
273
2
274
2
275
0
280
0
281
0
282
0
283
1
284
8
285
0
286
0
287
3
288
0
340
11
278
44
341
213
342
213
343
213
344
213
  0
ENDTAB
  0
ENDSEC
  0
SECTION
  2
BLOCKS
  0
BLOCK
  5
20
100
AcDbEntity
  8
0
100
AcDbBlockBegin
  2
*Model_Space
 70
0
 10
0.0
 20
0.0
 30
0.0
  3
*Model_Space
  1

  0
ENDBLK
  5
21
100
AcDbEntity
  8
0
100
AcDbBlockEnd
  0
BLOCK
  5
1C
100
AcDbEntity
  8
0
100
AcDbBlockBegin
  2
*Paper_Space
 70
0
 10
0.0
 20
0.0
 30
0.0
  3
*Paper_Space
  1

  0
ENDBLK
  5
1D
100
AcDbEntity
  8
0
100
AcDbBlockEnd
  0
BLOCK
  5
21A
100
AcDbEntity
  8
0
100
AcDbBlockBegin
  2
_FILLED
 70
64
 10
0.0
 20
0.0
  3
_FILLED
  1

  0
SOLID
  5
21B
100
AcDbEntity
  8
0
  6
BYBLOCK
 62
0
100
AcDbTrace
 10
0.0
 20
0.0
 11
-1.0
 21
0.3166666667
 12
-1.0
 22
-0.3166666667
 13
-1.0
 23
-0.3166666667
  0
ENDBLK
  5
21C
100
AcDbEntity
  8
0
  6
BYBLOCK
 62
0
100
AcDbBlockEnd
  0
BLOCK
  5
21D
100
AcDbEntity
  8
0
100
AcDbBlockBegin
 62
7
  6
CONTINUOUS
  2
*D0
 70
65
 10
0.0
 20
0.0
  3
*D0
  1

  0
LINE
  5
21E
100
AcDbEntity
  8
0
100
AcDbLine
 62
7
  6
CONTINUOUS
 10
-44.0
 20
39.0
 11
-44.0
 21
52.0
  0
LINE
  5
21F
100
AcDbEntity
  8
0
100
AcDbLine
 62
7
  6
CONTINUOUS
 10
44.0
 20
39.0
 11
44.0
 21
52.0
  0
LINE
  5
220
100
AcDbEntity
  8
0
100
AcDbLine
 62
7
  6
CONTINUOUS
 10
-44.0
 20
50.5
 11
0.0
 21
50.5
  0
LINE
  5
221
100
AcDbEntity
  8
0
100
AcDbLine
 62
7
  6
CONTINUOUS
 10
44.0
 20
50.5
 11
0.0
 21
50.5
  0
INSERT
  5
222
100
AcDbEntity
  8
0
100
AcDbBlockReference
 62
7
  6
CONTINUOUS
  2
_FILLED
 10
-44.0
 20
50.5
 41
3.0
 42
3.0
 43
3.0
 50
180.0
  0
INSERT
  5
223
100
AcDbEntity
  8
0
100
AcDbBlockReference
 62
7
  6
CONTINUOUS
  2
_FILLED
 10
44.0
 20
50.5
 41
3.0
 42
3.0
 43
3.0
  0
ENDBLK
  5
224
100
AcDbEntity
  8
0
  6
BYBLOCK
 62
0
100
AcDbBlockEnd
  0
BLOCK
  5
225
100
AcDbEntity
  8
0
100
AcDbBlockBegin
 62
7
  6
CONTINUOUS
  2
*D1
 70
65
 10
0.0
 20
0.0
  3
*D1
  1

  0
LINE
  5
226
100
AcDbEntity
  8
0
100
AcDbLine
 62
7
  6
CONTINUOUS
 10
-101.1301966214
 20
22.7
 11
-101.1301966214
 21
52.0
  0
LINE
  5
227
100
AcDbEntity
  8
0
100
AcDbLine
 62
7
  6
CONTINUOUS
 10
-79.3301966214
 20
43.0
 11
-79.3301966214
 21
52.0
  0
LINE
  5
228
100
AcDbEntity
  8
0
100
AcDbLine
 62
7
  6
CONTINUOUS
 10
-101.1301966214
 20
50.5
 11
-90.2301966214
 21
50.5
  0
LINE
  5
229
100
AcDbEntity
  8
0
100
AcDbLine
 62
7
  6
CONTINUOUS
 10
-79.3301966214
 20
50.5
 11
-90.2301966214
 21
50.5
  0
INSERT
  5
22A
100
AcDbEntity
  8
0
100
AcDbBlockReference
 62
7
  6
CONTINUOUS
  2
_FILLED
 10
-101.1301966214
 20
50.5
 41
3.0
 42
3.0
 43
3.0
 50
180.0
  0
INSERT
  5
22B
100
AcDbEntity
  8
0
100
AcDbBlockReference
 62
7
  6
CONTINUOUS
  2
_FILLED
 10
-79.3301966214
 20
50.5
 41
3.0
 42
3.0
 43
3.0
  0
ENDBLK
  5
22C
100
AcDbEntity
  8
0
  6
BYBLOCK
 62
0
100
AcDbBlockEnd
  0
BLOCK
  5
22D
100
AcDbEntity
  8
0
100
AcDbBlockBegin
 62
7
  6
CONTINUOUS
  2
*D2
 70
65
 10
0.0
 20
0.0
  3
*D2
  1

  0
LINE
  5
22E
100
AcDbEntity
  8
0
100
AcDbLine
 62
7
  6
CONTINUOUS
 10
-79.3301966214
 20
43.0
 11
-79.3301966214
 21
52.0
  0
LINE
  5
22F
100
AcDbEntity
  8
0
100
AcDbLine
 62
7
  6
CONTINUOUS
 10
-51.8301966214
 20
1.55
 11
-51.8301966214
 21
52.0
  0
LINE
  5
230
100
AcDbEntity
  8
0
100
AcDbLine
 62
7
  6
CONTINUOUS
 10
-79.3301966214
 20
50.5
 11
-65.5801966214
 21
50.5
  0
LINE
  5
231
100
AcDbEntity
  8
0
100
AcDbLine
 62
7
  6
CONTINUOUS
 10
-51.8301966214
 20
50.5
 11
-65.5801966214
 21
50.5
  0
INSERT
  5
232
100
AcDbEntity
  8
0
100
AcDbBlockReference
 62
7
  6
CONTINUOUS
  2
_FILLED
 10
-79.3301966214
 20
50.5
 41
3.0
 42
3.0
 43
3.0
 50
180.0
  0
INSERT
  5
233
100
AcDbEntity
  8
0
100
AcDbBlockReference
 62
7
  6
CONTINUOUS
  2
_FILLED
 10
-51.8301966214
 20
50.5
 41
3.0
 42
3.0
 43
3.0
  0
ENDBLK
  5
234
100
AcDbEntity
  8
0
  6
BYBLOCK
 62
0
100
AcDbBlockEnd
  0
BLOCK
  5
235
100
AcDbEntity
  8
0
100
AcDbBlockBegin
 62
7
  6
CONTINUOUS
  2
*D3
 70
65
 10
0.0
 20
0.0
  3
*D3
  1

  0
LINE
  5
236
100
AcDbEntity
  8
0
100
AcDbLine
 62
7
  6
CONTINUOUS
 10
-79.8301966214
 20
42.5
 11
-110.6301966214
 21
42.5
  0
LINE
  5
237
100
AcDbEntity
  8
0
100
AcDbLine
 62
7
  6
CONTINUOUS
 10
-79.8301966214
 20
-42.5
 11
-110.6301966214
 21
-42.5
  0
LINE
  5
238
100
AcDbEntity
  8
0
100
AcDbLine
 62
7
  6
CONTINUOUS
 10
-109.1301966214
 20
42.5
 11
-109.1301966214
 21
0.0
  0
LINE
  5
239
100
AcDbEntity
  8
0
100
AcDbLine
 62
7
  6
CONTINUOUS
 10
-109.1301966214
 20
-42.5
 11
-109.1301966214
 21
0.0
  0
INSERT
  5
23A
100
AcDbEntity
  8
0
100
AcDbBlockReference
 62
7
  6
CONTINUOUS
  2
_FILLED
 10
-109.1301966214
 20
42.5
 41
3.0
 42
3.0
 43
3.0
 50
90.0
  0
INSERT
  5
23B
100
AcDbEntity
  8
0
100
AcDbBlockReference
 62
7
  6
CONTINUOUS
  2
_FILLED
 10
-109.1301966214
 20
-42.5
 41
3.0
 42
3.0
 43
3.0
 50
270.0
  0
ENDBLK
  5
23C
100
AcDbEntity
  8
0
  6
BYBLOCK
 62
0
100
AcDbBlockEnd
  0
ENDSEC
  0
SECTION
  2
ENTITIES
  0
DIMENSION
  5
23D
100
AcDbEntity
  8
0
100
AcDbDimension
 62
7
  6
CONTINUOUS
  2
*D0
 10
44.0
 20
50.5
 11
-2.3571428571
 21
50.5
 70
160
 71
2
 72
2
 41
0.9
 42
88.0
  3
DIMSTYLE_1
100
AcDbAlignedDimension
 13
-44.0
 23
38.5
 14
44.0
 24
38.5
100
AcDbRotatedDimension
  0
DIMENSION
  5
23E
100
AcDbEntity
  8
0
100
AcDbDimension
 62
7
  6
CONTINUOUS
  2
*D1
 10
-79.3301966214
 20
50.5
 11
-94.3016251929
 21
50.5
 70
160
 71
2
 72
2
 41
0.9
 42
21.8
  3
DIMSTYLE_1
100
AcDbAlignedDimension
 13
-101.1301966214
 23
22.2
 14
-79.3301966214
 24
42.5
100
AcDbRotatedDimension
  0
DIMENSION
  5
23F
100
AcDbEntity
  8
0
100
AcDbDimension
 62
7
  6
CONTINUOUS
  2
*D2
 10
-51.8301966214
 20
50.5
 11
-69.8659109071
 21
50.5
 70
160
 71
2
 72
2
 41
0.9
 42
27.5
  3
DIMSTYLE_1
100
AcDbAlignedDimension
 13
-79.3301966214
 23
42.5
 14
-51.8301966214
 24
1.05
100
AcDbRotatedDimension
  0
DIMENSION
  5
240
100
AcDbEntity
  8
0
100
AcDbDimension
 62
7
  6
CONTINUOUS
  2
*D3
 10
-109.1301966214
 20
-42.5
 11
-109.1301966214
 21
-2.25
 70
160
 71
2
 72
2
 41
0.9
 42
85.0
  3
DIMSTYLE_1
100
AcDbAlignedDimension
 13
-79.3301966214
 23
42.5
 14
-79.3301966214
 24
-42.5
 50
270.0
100
AcDbRotatedDimension
  0
LWPOLYLINE
  5
241
100
AcDbEntity
  8
RACCORDO
100
AcDbPolyline
 62
250
  6
CONTINUOUS
 90
11
 70
0
 10
-42.1409815585
 20
41.5376958106
 10
-42.0709622638
 20
41.5959829724
 10
-41.9902485878
 20
41.6599425802
 10
-41.9077005158
 20
41.7222466371
 10
-41.8240080428
 20
41.782285934
 10
-41.7391231707
 20
41.8400976716
 10
-41.6530938977
 20
41.8957409575
 10
-41.5667542127
 20
41.9486965356
 10
-41.4803821122
 20
41.9988530662
 10
-41.3936995999
 20
42.046476824
 10
-41.3067066756
 20
42.0916407392
  0
LWPOLYLINE
  5
242
100
AcDbEntity
  8
0
100
AcDbPolyline
 62
7
  6
CONTINUOUS
 90
22
 70
0
 10
-41.4914878185
 20
41.8976756663
 10
-41.6586678064
 20
41.8207251951
 10
-41.825845104
 20
41.7336463271
 10
-41.9909199149
 20
41.6366541642
 10
-42.1540534862
 20
41.5290755102
 10
-42.3150845707
 20
41.4104563141
 10
-42.4714296315
 20
41.2814827222
 10
-42.6232782122
 20
41.141477482
 10
-42.7704407691
 20
40.9901917079
 10
-42.9097651343
 20
40.8292384196
 10
-43.0412180572
 20
40.6580895705
 10
-43.1648327883
 20
40.4768167086
 10
-43.2775569123
 20
40.2883594759
 10
-43.3789787573
 20
40.0925015434
 10
-43.4695099952
 20
39.8896385039
 10
-43.5473332248
 20
39.684123631
 10
-43.6116678977
 20
39.4754625174
 10
-43.6632945625
 20
39.2648693597
 10
-43.7027374639
 20
39.0597694428
 10
-43.7301713502
 20
38.8631085581
 10
-43.7454214733
 20
38.6730462423
 10
-43.748487833
 20
38.4899998089
  0
LWPOLYLINE
  5
243
100
AcDbEntity
  8
RACCORDO
100
AcDbPolyline
 62
250
  6
CONTINUOUS
 90
34
 70
0
 10
-43.606104915
 20
-38.49
 10
-43.601484609
 20
-38.6733618673
 10
-43.5861722924
 20
-38.8693203994
 10
-43.5580801485
 20
-39.0771185695
 10
-43.5140968393
 20
-39.2998613588
 10
-43.4524158614
 20
-39.5319734958
 10
-43.375265005
 20
-39.7598786476
 10
-43.283583599
 20
-39.9810161055
 10
-43.1772234107
 20
-40.1959660553
 10
-43.0606671354
 20
-40.3972081784
 10
-42.936976716
 20
-40.5826878189
 10
-42.8066288211
 20
-40.754514465
 10
-42.6715652208
 20
-40.9123940628
 10
-42.5336042
 20
-41.0563579201
 10
-42.3938138616
 20
-41.1872349288
 10
-42.2528487319
 20
-41.3060631641
 10
-42.1119532275
 20
-41.4132413407
 10
-41.9719382947
 20
-41.5094853983
 10
-41.8324668354
 20
-41.5961348637
 10
-41.6942378632
 20
-41.6736716007
 10
-41.5578837027
 20
-41.7425999243
 10
-41.4226745273
 20
-41.8040045225
 10
-41.2887861206
 20
-41.8583668476
 10
-41.1568875488
 20
-41.9059500946
 10
-41.0268244479
 20
-41.9473090475
 10
-40.8986640342
 20
-41.9828520365
 10
-40.7729312169
 20
-42.0128464972
 10
-40.6500950262
 20
-42.0376058782
 10
-40.5302821243
 20
-42.057519132
 10
-40.4137938369
 20
-42.0729348341
 10
-40.30133012
 20
-42.0841756406
 10
-40.193218273
 20
-42.0916399101
 10
-40.0894079962
 20
-42.0957432633
 10
-39.99
 20
-42.0968686041
  0
LWPOLYLINE
  5
244
100
AcDbEntity
  8
RACCORDO
100
AcDbPolyline
 62
7
  6
CONTINUOUS
 90
52
 70
0
 10
-43.8641154491
 20
38.5
 10
-43.8629107798
 20
38.5836955164
 10
-43.8598706943
 20
38.66741182
 10
-43.8549921591
 20
38.7511081062
 10
-43.8482755056
 20
38.8347184864
 10
-43.8397181722
 20
38.91822691
 10
-43.8293093015
 20
39.00166657
 10
-43.8170450306
 20
39.0849934787
 10
-43.8029218948
 20
39.1681672595
 10
-43.7869209839
 20
39.2512245848
 10
-43.7690357516
 20
39.3341218464
 10
-43.749260829
 20
39.4168141289
 10
-43.7275702869
 20
39.4993332205
 10
-43.7039556784
 20
39.5816324831
 10
-43.6784098055
 20
39.6636641997
 10
-43.6509001847
 20
39.7454546854
 10
-43.6214167139
 20
39.8269539708
 10
-43.5899509823
 20
39.908110149
 10
-43.556465082
 20
39.9889418682
 10
-43.5209478216
 20
40.0693949887
 10
-43.4833902801
 20
40.1494126539
 10
-43.4437506785
 20
40.2290038564
 10
-43.4020173292
 20
40.3081098261
 10
-43.3581818558
 20
40.3866677645
 10
-43.312201129
 20
40.4646743831
 10
-43.2640636486
 20
40.542066098
 10
-43.2137630641
 20
40.6187732101
 10
-43.1612590382
 20
40.6947766994
 10
-43.106540744
 20
40.7700087988
 10
-43.0496061964
 20
40.8443917256
 10
-42.9904254716
 20
40.9178852625
 10
-42.9289884191
 20
40.9904193976
 10
-42.8653012201
 20
41.061906984
 10
-42.7993588959
 20
41.132277814
 10
-42.7311507172
 20
41.2014640208
 10
-42.6606975387
 20
41.2693678125
 10
-42.5880475841
 20
41.3358748406
 10
-42.5131862224
 20
41.4009275577
 10
-42.4361597023
 20
41.4644174289
 10
-42.3571220952
 20
41.5261656791
 10
-42.276053786
 20
41.5861351616
 10
-42.1930377856
 20
41.6442143245
 10
-42.1084090543
 20
41.7001463647
 10
-42.022136841
 20
41.7539333411
 10
-41.9343578721
 20
41.8054731938
 10
-41.8457007878
 20
41.8544229622
 10
-41.7562376486
 20
41.9007883991
 10
-41.6660563735
 20
41.9445687073
 10
-41.575854648
 20
41.9855076258
 10
-41.4859373298
 20
42.0235797934
 10
-41.3961920772
 20
42.0589371265
 10
-41.3067066756
 20
42.0916407392
  0
LINE
  5
245
100
AcDbEntity
  8
0
100
AcDbLine
 62
7
  6
CONTINUOUS
 10
-31.9694559627
 20
-42.5
 11
-32.0
 21
-42.4389072728
  0
LINE
  5
246
100
AcDbEntity
  8
DRAFT
100
AcDbLine
 62
7
  6
CONTINUOUS
 10
-31.9694559627
 20
-42.5
 11
-32.0
 21
-42.4389072728
  0
LWPOLYLINE
  5
247
100
AcDbEntity
  8
RACCORDO
100
AcDbPolyline
 62
250
  6
CONTINUOUS
 90
34
 70
0
 10
-42.8751391902
 20
-38.5050511602
 10
-42.8711091015
 20
-38.6384296002
 10
-42.8591069175
 20
-38.7811368947
 10
-42.8375448953
 20
-38.9325801513
 10
-42.8041151338
 20
-39.094942307
 10
-42.7575295718
 20
-39.2641877243
 10
-42.699443771
 20
-39.4305241188
 10
-42.6305409705
 20
-39.5921004998
 10
-42.5507748545
 20
-39.7492919951
 10
-42.4634960866
 20
-39.8966034609
 10
-42.3709419943
 20
-40.0325467822
 10
-42.2734829457
 20
-40.158657813
 10
-42.1725999502
 20
-40.274662109
 10
-42.0696187539
 20
-40.3805800143
 10
-41.9653135738
 20
-40.4770316083
 10
-41.8602131857
 20
-40.564725955
 10
-41.7552273291
 20
-40.6439462662
 10
-41.6509303562
 20
-40.715222125
 10
-41.5471055327
 20
-40.7795061605
 10
-41.444264207
 20
-40.8371438173
 10
-41.3428529051
 20
-40.8885023648
 10
-41.2423523466
 20
-40.9343643306
 10
-41.1428891793
 20
-40.9750786896
 10
-41.0449445031
 20
-41.0108317346
 10
-40.9484161904
 20
-41.0420225525
 10
-40.8533514882
 20
-41.0689488932
 10
-40.7601292029
 20
-41.091800372
 10
-40.6691013625
 20
-41.1107985333
 10
-40.5803601924
 20
-41.1262275793
 10
-40.4941218714
 20
-41.1383390831
 10
-40.4109022292
 20
-41.1473614794
 10
-40.3309391666
 20
-41.1535848326
 10
-40.2541898459
 20
-41.1573135171
 10
-40.1807253272
 20
-41.1588259943
  0
LWPOLYLINE
  5
248
100
AcDbEntity
  8
RACCORDO
100
AcDbPolyline
 62
250
  6
CONTINUOUS
 90
16
 70
0
 10
-40.1807253225
 20
-41.1588259927
 10
-40.1782841372
 20
-41.2576210303
 10
-40.173982124
 20
-41.3548288429
 10
-40.1678618001
 20
-41.4494887173
 10
-40.1599836532
 20
-41.5406651218
 10
-40.1504255435
 20
-41.6274569521
 10
-40.1392819347
 20
-41.7090064369
 10
-40.1266629599
 20
-41.7845076157
 10
-40.1126933336
 20
-41.8532143037
 10
-40.0975111187
 20
-41.9144474668
 10
-40.0812663623
 20
-41.9676019322
 10
-40.0641196127
 20
-42.0121523699
 10
-40.0462403326
 20
-42.0476584839
 10
-40.0278052246
 20
-42.0737693643
 10
-40.0089964843
 20
-42.090226955
 10
-39.99
 20
-42.0968686041
  0
LINE
  5
249
100
AcDbEntity
  8
RACCORDO
100
AcDbLine
 62
250
  6
CONTINUOUS
 10
-42.8756969843
 20
-38.3697246702
 11
-42.8751390334
 21
-38.5050511514
  0
LINE
  5
24A
100
AcDbEntity
  8
RACCORDO
100
AcDbLine
 62
250
  6
CONTINUOUS
 10
-42.8773618913
 20
-37.9399555482
 11
-42.8756969843
 21
-38.3697246702
  0
LINE
  5
24B
100
AcDbEntity
  8
RACCORDO
100
AcDbLine
 62
250
  6
CONTINUOUS
 10
-42.8790162664
 20
-37.4727218108
 11
-42.8773618913
 21
-37.9399555482
  0
LINE
  5
24C
100
AcDbEntity
  8
RACCORDO
100
AcDbLine
 62
250
  6
CONTINUOUS
 10
-42.8812155859
 20
-36.7813531533
 11
-42.8790162664
 21
-37.4727218108
  0
LINE
  5
24D
100
AcDbEntity
  8
RACCORDO
100
AcDbLine
 62
250
  6
CONTINUOUS
 10
-42.9063569654
 20
-21.3209728437
 11
-42.8812155859
 21
-36.7813531533
  0
LINE
  5
24E
100
AcDbEntity
  8
RACCORDO
100
AcDbLine
 62
250
  6
CONTINUOUS
 10
-43.6148052695
 20
38.49
 11
-43.6111046485
 21
35.0594957851
  0
LINE
  5
24F
100
AcDbEntity
  8
RACCORDO
100
AcDbLine
 62
250
  6
CONTINUOUS
 10
-43.8692464992
 20
-38.5
 11
-43.8764109148
 21
-0.2626932353
  0
LINE
  5
250
100
AcDbEntity
  8
RACCORDO
100
AcDbLine
 62
250
  6
CONTINUOUS
 10
-43.6111046485
 20
35.0594957851
 11
-43.6084594027
 21
25.4148188855
  0
LWPOLYLINE
  5
251
100
AcDbEntity
  8
RACCORDO
100
AcDbPolyline
 62
250
  6
CONTINUOUS
 90
3
 70
0
 10
-42.9222429555
 20
1.5661950567
 10
-42.9215945477
 20
-0.5756379199
 10
-42.9063569654
 20
-21.3209728437
  0
LINE
  5
252
100
AcDbEntity
  8
DRAFT
100
AcDbLine
 62
7
  6
CONTINUOUS
 10
-44.0
 20
38.5
 11
-44.0
 21
-38.5
  0
LINE
  5
253
100
AcDbEntity
  8
ASSI
100
AcDbLine
 62
7
  6
CONTINUOUS
 10
-43.75
 20
37.5
 11
-43.75
 21
-38.49
  0
LINE
  5
254
100
AcDbEntity
  8
RACCORDO
100
AcDbLine
 62
250
  6
CONTINUOUS
 10
-43.6084594027
 20
25.4148188855
 11
-43.6047765127
 21
-4.4246605182
  0
LINE
  5
255
100
AcDbEntity
  8
0
100
AcDbLine
 62
7
  6
CONTINUOUS
 10
-40.5
 20
42.1723447486
 11
-40.5
 21
42.1647740418
  0
LINE
  5
256
100
AcDbEntity
  8
RACCORDO
100
AcDbLine
 62
250
  6
CONTINUOUS
 10
-43.8764109148
 20
-0.2626932353
 11
-43.8757529952
 21
18.5588897885
  0
LINE
  5
257
100
AcDbEntity
  8
RACCORDO
100
AcDbLine
 62
250
  6
CONTINUOUS
 10
-43.6047765127
 20
-4.4246605182
 11
-43.606104915
 21
-38.49
  0
LINE
  5
258
100
AcDbEntity
  8
RACCORDO
100
AcDbLine
 62
250
  6
CONTINUOUS
 10
-43.8757529952
 20
18.5588897885
 11
-43.8704986648
 21
31.5945758766
  0
LINE
  5
259
100
AcDbEntity
  8
RACCORDO
100
AcDbLine
 62
250
  6
CONTINUOUS
 10
-42.9282922684
 20
28.9300911166
 11
-42.9222429555
 21
1.5661950567
  0
LINE
  5
25A
100
AcDbEntity
  8
RACCORDO
100
AcDbLine
 62
250
  6
CONTINUOUS
 10
-42.9218128352
 20
32.1521717917
 11
-42.9282922684
 21
28.9300911166
  0
LINE
  5
25B
100
AcDbEntity
  8
RACCORDO
100
AcDbLine
 62
250
  6
CONTINUOUS
 10
-43.8704986648
 20
31.5945758766
 11
-43.8648574081
 21
38.2823367724
  0
LINE
  5
25C
100
AcDbEntity
  8
RACCORDO
100
AcDbLine
 62
250
  6
CONTINUOUS
 10
-43.8648574081
 20
38.2823367724
 11
-43.8641154491
 21
38.5
  0
LWPOLYLINE
  5
25D
100
AcDbEntity
  8
RACCORDO
100
AcDbPolyline
 62
250
  6
CONTINUOUS
 90
7
 70
0
 10
-42.8780769872
 20
38.579348925
 10
-42.8878676546
 20
37.756041286
 10
-42.8964570556
 20
36.9008854365
 10
-42.9038313605
 20
36.0140582014
 10
-42.9097940827
 20
35.0953834144
 10
-42.914514392
 20
34.1450925236
 10
-42.9218128352
 20
32.1521717917
  0
LWPOLYLINE
  5
25E
100
AcDbEntity
  8
RACCORDO
100
AcDbPolyline
 62
250
  6
CONTINUOUS
 90
13
 70
0
 10
-40.1145903607
 20
41.3539263269
 10
-40.1102299299
 20
41.458266425
 10
-40.1044373137
 20
41.5584958652
 10
-40.0972815151
 20
41.6534207068
 10
-40.0888477749
 20
41.7419101975
 10
-40.0792365571
 20
41.8229102436
 10
-40.0685623518
 20
41.8954559662
 10
-40.0569523112
 20
41.9586831951
 10
-40.0445447356
 20
42.0118387623
 10
-40.0314874254
 20
42.0542894748
 10
-40.0179359206
 20
42.0855296563
 10
-40.0040516479
 20
42.1051871713
 10
-39.9899999983
 20
42.1130278579
  0
LWPOLYLINE
  5
25F
100
AcDbEntity
  8
RACCORDO
100
AcDbPolyline
 62
250
  6
CONTINUOUS
 90
10
 70
0
 10
-19.2000000281
 20
-42.3689349983
 10
-19.1652679549
 20
-42.3658965869
 10
-19.1315916484
 20
-42.3568737863
 10
-19.0999944291
 20
-42.3421409441
 10
-19.0714363392
 20
-42.3221458629
 10
-19.0467851505
 20
-42.2974962981
 10
-19.026789918
 20
-42.2689415672
 10
-19.0120580108
 20
-42.2373495504
 10
-19.0030367601
 20
-42.2036802249
 10
-19.0000000002
 20
-42.1689566636
  0
LWPOLYLINE
  5
260
100
AcDbEntity
  8
RACCORDO
100
AcDbPolyline
 62
250
  6
CONTINUOUS
 90
31
 70
0
 10
40.180725303
 20
-41.1588259864
 10
40.2713788506
 20
-41.1566684537
 10
40.3652933154
 20
-41.1512046799
 10
40.4623305626
 20
-41.1420931837
 10
40.5622219681
 20
-41.1290095157
 10
40.6649054577
 20
-41.1115974924
 10
40.7705140264
 20
-41.0894248629
 10
40.8787439155
 20
-41.0621167186
 10
40.9893620827
 20
-41.029273464
 10
41.1025257718
 20
-40.990323073
 10
41.2178457394
 20
-40.9448169821
 10
41.3348740844
 20
-40.8923229633
 10
41.4535545765
 20
-40.8321718849
 10
41.5733347501
 20
-40.7638605485
 10
41.69351218
 20
-40.6869664641
 10
41.813637045
 20
-40.6008487043
 10
41.9331782035
 20
-40.5047955513
 10
42.0508611951
 20
-40.3986737277
 10
42.1650534707
 20
-40.2828256961
 10
42.2752381292
 20
-40.1565176324
 10
42.3798267536
 20
-40.0202322149
 10
42.4760423981
 20
-39.8767036396
 10
42.5633407545
 20
-39.7261918381
 10
42.6409969328
 20
-39.5693937889
 10
42.7071176741
 20
-39.4104529013
 10
42.7619116008
 20
-39.2500250251
 10
42.8055045103
 20
-39.0891432449
 10
42.8374727937
 20
-38.9329897641
 10
42.8587998802
 20
-38.7838794954
 10
42.870964118
 20
-38.6410451358
 10
42.8751392352
 20
-38.5050511627
  0
LWPOLYLINE
  5
261
100
AcDbEntity
  8
RACCORDO
100
AcDbPolyline
 62
250
  6
CONTINUOUS
 90
31
 70
0
 10
39.99
 20
-42.0968686041
 10
40.1126564387
 20
-42.0950847064
 10
40.239655728
 20
-42.0888338519
 10
40.370817569
 20
-42.0776506695
 10
40.5057669809
 20
-42.0610844434
 10
40.6444121637
 20
-42.0386445739
 10
40.7869318784
 20
-42.0097413497
 10
40.9328965863
 20
-41.9738549149
 10
41.081986768
 20
-41.9304295544
 10
41.2344340647
 20
-41.8786771222
 10
41.3896868583
 20
-41.8179806348
 10
41.547131275
 20
-41.7477318565
 10
41.7067300931
 20
-41.6669883793
 10
41.8677036928
 20
-41.5750679613
 10
42.0290890455
 20
-41.4713714896
 10
42.1903408196
 20
-41.3549615343
 10
42.3507128952
 20
-41.2248857949
 10
42.5084576212
 20
-41.0809453637
 10
42.6614415009
 20
-40.9235135135
 10
42.8089724127
 20
-40.7516048146
 10
42.9488690535
 20
-40.5658925335
 10
43.0774264949
 20
-40.3700449324
 10
43.1939706367
 20
-40.164402325
 10
43.2975087121
 20
-39.9499582137
 10
43.3854729493
 20
-39.7324048146
 10
43.4582088536
 20
-39.5125881416
 10
43.5159139672
 20
-39.2919452293
 10
43.5579825714
 20
-39.0777098082
 10
43.5857695987
 20
-38.8730886145
 10
43.6012976672
 20
-38.6769469332
 10
43.606104915
 20
-38.49
  0
LINE
  5
262
100
AcDbEntity
  8
RACCORDO
100
AcDbLine
 62
250
  6
CONTINUOUS
 10
39.2532289351
 20
-41.1651247752
 11
40.1807253285
 21
-41.1588259947
  0
LINE
  5
263
100
AcDbEntity
  8
RACCORDO
100
AcDbLine
 62
250
  6
CONTINUOUS
 10
38.9488618688
 20
-41.1670769742
 11
39.2532289351
 21
-41.1651247752
  0
LINE
  5
264
100
AcDbEntity
  8
RACCORDO
100
AcDbLine
 62
250
  6
CONTINUOUS
 10
-39.99
 20
-42.0968686041
 11
-37.1547239155
 21
-42.088715087
  0
LINE
  5
265
100
AcDbEntity
  8
RACCORDO
100
AcDbLine
 62
250
  6
CONTINUOUS
 10
35.1029834867
 20
-41.1833836453
 11
38.9488618688
 21
-41.1670769742
  0
LINE
  5
266
100
AcDbEntity
  8
RACCORDO
100
AcDbLine
 62
250
  6
CONTINUOUS
 10
-37.1547239155
 20
-42.088715087
 11
-33.4532547723
 21
-42.0815396402
  0
LINE
  5
267
100
AcDbEntity
  8
RACCORDO
100
AcDbLine
 62
250
  6
CONTINUOUS
 10
-33.4532547723
 20
-42.0815396402
 11
-28.5608627653
 21
-42.0763257084
  0
LINE
  5
268
100
AcDbEntity
  8
DRAFT
100
AcDbLine
 62
7
  6
CONTINUOUS
 10
-40.0
 20
-42.5
 11
-36.0305440373
 21
-42.5
  0
LINE
  5
269
100
AcDbEntity
  8
0
100
AcDbLine
 62
7
  6
CONTINUOUS
 10
-36.0305440373
 20
-42.5
 11
-31.9694559627
 21
-42.5
  0
LINE
  5
26A
100
AcDbEntity
  8
DRAFT
100
AcDbLine
 62
7
  6
CONTINUOUS
 10
-31.9694559627
 20
-42.5
 11
31.9694559627
 21
-42.5
  0
LINE
  5
26B
100
AcDbEntity
  8
0
100
AcDbLine
 62
7
  6
CONTINUOUS
 10
31.9694559627
 20
-42.5
 11
36.0305440373
 21
-42.5
  0
LINE
  5
26C
100
AcDbEntity
  8
DRAFT
100
AcDbLine
 62
7
  6
CONTINUOUS
 10
36.0305440373
 20
-42.5
 11
40.0
 21
-42.5
  0
LINE
  5
26D
100
AcDbEntity
  8
0
100
AcDbLine
 62
7
  6
CONTINUOUS
 10
-36.0
 20
-42.4389072728
 11
-32.0
 21
-42.4389072728
  0
LINE
  5
26E
100
AcDbEntity
  8
DRAFT
100
AcDbLine
 62
7
  6
CONTINUOUS
 10
-36.0
 20
-42.4389072728
 11
-32.0
 21
-42.4389072728
  0
LINE
  5
26F
100
AcDbEntity
  8
0
100
AcDbLine
 62
7
  6
CONTINUOUS
 10
32.0
 20
-42.4389072728
 11
36.0
 21
-42.4389072728
  0
LINE
  5
270
100
AcDbEntity
  8
DRAFT
100
AcDbLine
 62
7
  6
CONTINUOUS
 10
32.0
 20
-42.4389072728
 11
36.0
 21
-42.4389072728
  0
LINE
  5
271
100
AcDbEntity
  8
RACCORDO
100
AcDbLine
 62
250
  6
CONTINUOUS
 10
19.2000000152
 20
-42.396178245
 11
-19.2000000225
 21
-42.396178245
  0
LINE
  5
272
100
AcDbEntity
  8
RACCORDO
100
AcDbLine
 62
250
  6
CONTINUOUS
 10
40.0
 20
-42.3689346968
 11
19.200000019
 21
-42.3689349006
  0
LINE
  5
273
100
AcDbEntity
  8
RACCORDO
100
AcDbLine
 62
250
  6
CONTINUOUS
 10
-19.2000000281
 20
-42.3689349983
 11
-40.0
 21
-42.3689346969
  0
LINE
  5
274
100
AcDbEntity
  8
RACCORDO
100
AcDbLine
 62
250
  6
CONTINUOUS
 10
19.0285665399
 20
-42.296208706
 11
-19.0285665399
 21
-42.296208706
  0
LINE
  5
275
100
AcDbEntity
  8
DRAFT
100
AcDbLine
 62
7
  6
CONTINUOUS
 10
-39.99
 20
-42.25
 11
-22.6754234025
 21
-42.25
  0
LINE
  5
276
100
AcDbEntity
  8
DRAFT
100
AcDbLine
 62
7
  6
CONTINUOUS
 10
22.6754234025
 20
-42.25
 11
39.99
 21
-42.25
  0
LINE
  5
277
100
AcDbEntity
  8
RACCORDO
100
AcDbLine
 62
7
  6
CONTINUOUS
 10
-19.8354216568
 20
-42.1243235325
 11
19.8354216568
 21
-42.1243235325
  0
LINE
  5
278
100
AcDbEntity
  8
DRAFT
100
AcDbLine
 62
7
  6
CONTINUOUS
 10
-22.6723766096
 20
-42.0754493507
 11
22.6723766096
 21
-42.0754493507
  0
LINE
  5
279
100
AcDbEntity
  8
RACCORDO
100
AcDbLine
 62
250
  6
CONTINUOUS
 10
-28.5608627653
 20
-42.0763257084
 11
-24.4491087303
 21
-42.0749382364
  0
LINE
  5
27A
100
AcDbEntity
  8
RACCORDO
100
AcDbLine
 62
250
  6
CONTINUOUS
 10
-21.3962399407
 20
-41.179053622
 11
21.00099284
 21
-41.1789648818
  0
LINE
  5
27B
100
AcDbEntity
  8
RACCORDO
100
AcDbLine
 62
250
  6
CONTINUOUS
 10
30.4097997692
 20
-41.1873196496
 11
35.1029834867
 21
-41.1833836453
  0
LINE
  5
27C
100
AcDbEntity
  8
RACCORDO
100
AcDbLine
 62
250
  6
CONTINUOUS
 10
-24.4491087303
 20
-42.0749382364
 11
29.4930897222
 21
-42.0769875665
  0
LINE
  5
27D
100
AcDbEntity
  8
RACCORDO
100
AcDbLine
 62
250
  6
CONTINUOUS
 10
21.0010107517
 20
-41.1789649388
 11
23.9400591136
 21
-41.1813813717
  0
LINE
  5
27E
100
AcDbEntity
  8
RACCORDO
100
AcDbLine
 62
250
  6
CONTINUOUS
 10
29.4930897222
 20
-42.0769875665
 11
33.1284290889
 21
-42.0810540674
  0
LWPOLYLINE
  5
27F
100
AcDbEntity
  8
RACCORDO
100
AcDbPolyline
 62
250
  6
CONTINUOUS
 90
3
 70
0
 10
23.9400591136
 20
-41.1813813717
 10
25.2038875382
 20
-41.1830128507
 10
30.4097997692
 20
-41.1873196496
  0
LINE
  5
280
100
AcDbEntity
  8
RACCORDO
100
AcDbLine
 62
250
  6
CONTINUOUS
 10
33.1284290889
 20
-42.0810540674
 11
36.5156362043
 21
-42.0872358655
  0
LINE
  5
281
100
AcDbEntity
  8
RACCORDO
100
AcDbLine
 62
250
  6
CONTINUOUS
 10
36.5156362043
 20
-42.0872358655
 11
39.3618317314
 21
-42.094810511
  0
LINE
  5
282
100
AcDbEntity
  8
RACCORDO
100
AcDbLine
 62
250
  6
CONTINUOUS
 10
39.3618317314
 20
-42.094810511
 11
39.99
 21
-42.0968686041
  0
LINE
  5
283
100
AcDbEntity
  8
RACCORDO
100
AcDbLine
 62
250
  6
CONTINUOUS
 10
-37.2904991561
 20
-41.1761923581
 11
-21.3962399407
 21
-41.179053622
  0
LINE
  5
284
100
AcDbEntity
  8
RACCORDO
100
AcDbLine
 62
250
  6
CONTINUOUS
 10
-40.1807253225
 20
-41.1588259927
 11
-37.2904991561
 21
-41.1761923581
  0
LWPOLYLINE
  5
285
100
AcDbEntity
  8
RACCORDO
100
AcDbPolyline
 62
250
  6
CONTINUOUS
 90
67
 70
0
 10
-40.0
 20
-42.3689346969
 10
-40.0920228159
 20
-42.3678402472
 10
-40.1840233789
 20
-42.3645560735
 10
-40.2759495355
 20
-42.3590819064
 10
-40.3677555841
 20
-42.3514181006
 10
-40.4593827888
 20
-42.3415671857
 10
-40.5507595751
 20
-42.3295354126
 10
-40.6418400984
 20
-42.3153278542
 10
-40.7325664137
 20
-42.2989525822
 10
-40.822849642
 20
-42.2804262733
 10
-40.9126296224
 20
-42.2597636526
 10
-41.0018653403
 20
-42.2369765514
 10
-41.0904978197
 20
-42.2120824205
 10
-41.1784656649
 20
-42.185101719
 10
-41.2657320129
 20
-42.1560489901
 10
-41.3522749167
 20
-42.1249332646
 10
-41.4380484301
 20
-42.0917716167
 10
-41.5230015495
 20
-42.0565843245
 10
-41.6071042622
 20
-42.0193837455
 10
-41.6903110899
 20
-41.9801890607
 10
-41.772572304
 20
-41.9390227484
 10
-41.8538513318
 20
-41.8959017892
 10
-41.9341039812
 20
-41.8508477032
 10
-42.0132814856
 20
-41.8038859157
 10
-42.0913407182
 20
-41.7550400209
 10
-42.1682430816
 20
-41.7043316989
 10
-42.2439372177
 20
-41.6517923043
 10
-42.3183624941
 20
-41.5974626173
 10
-42.3914788399
 20
-41.5413713544
 10
-42.4632421707
 20
-41.4835517906
 10
-42.5335891138
 20
-41.4240559275
 10
-42.6024678834
 20
-41.3629307402
 10
-42.6698542682
 20
-41.3002009571
 10
-42.735727775
 20
-41.2358869718
 10
-42.8000485013
 20
-41.170028127
 10
-42.8627829754
 20
-41.1026590888
 10
-42.9239187136
 20
-41.0337916266
 10
-42.9834321022
 20
-40.9634476999
 10
-43.0412740839
 20
-40.8916805218
 10
-43.0973948801
 20
-40.8185495172
 10
-43.1517637051
 20
-40.7440937221
 10
-43.2043476239
 20
-40.6683571231
 10
-43.2550984488
 20
-40.5914102013
 10
-43.3039854121
 20
-40.5133033007
 10
-43.3509860467
 20
-40.4340761497
 10
-43.3960689976
 20
-40.3537860305
 10
-43.4392063404
 20
-40.2724890017
 10
-43.4803812844
 20
-40.1902233131
 10
-43.5195805403
 20
-40.1070201489
 10
-43.5567819689
 20
-40.022930121
 10
-43.5919672903
 20
-39.9379983618
 10
-43.62512773
 20
-39.8522471688
 10
-43.6562443871
 20
-39.7657237434
 10
-43.6852987626
 20
-39.6784777381
 10
-43.7122808885
 20
-39.5905344917
 10
-43.7371753736
 20
-39.5019352346
 10
-43.7599634333
 20
-39.4127371314
 10
-43.7806300267
 20
-39.3229895363
 10
-43.7991630726
 20
-39.2327326887
 10
-43.8155473145
 20
-39.1420272485
 10
-43.829766815
 20
-39.050954135
 10
-43.841813154
 20
-38.9595660949
 10
-43.8516794584
 20
-38.8679138648
 10
-43.8593579881
 20
-38.7760762206
 10
-43.8648456503
 20
-38.6841143366
 10
-43.8681418787
 20
-38.5920715282
 10
-43.8692464992
 20
-38.5
  0
LWPOLYLINE
  5
286
100
AcDbEntity
  8
RACCORDO
100
AcDbPolyline
 62
250
  6
CONTINUOUS
 90
10
 70
0
 10
19.200000019
 20
-42.3689349006
 10
19.1652699402
 20
-42.3658968391
 10
19.1315951438
 20
-42.3568749606
 10
19.0999988478
 20
-42.3421433972
 10
19.0714411143
 20
-42.3221497716
 10
19.046789678
 20
-42.2975015955
 10
19.0267935794
 20
-42.2689478107
 10
19.0120604056
 20
-42.2373560317
 10
19.0030378279
 20
-42.2036861835
 10
19.0
 20
-42.1689613335
  0
LINE
  5
287
100
AcDbEntity
  8
DRAFT
100
AcDbLine
 62
250
  6
CONTINUOUS
 10
-40.0
 20
42.5
 11
-40.0
 21
42.3219583377
  0
LINE
  5
288
100
AcDbEntity
  8
RACCORDO
100
AcDbLine
 62
250
  6
CONTINUOUS
 10
-40.0
 20
-42.5
 11
-40.0000076425
 21
-42.2495413133
  0
LINE
  5
289
100
AcDbEntity
  8
RACCORDO
100
AcDbLine
 62
250
  6
CONTINUOUS
 10
-39.99
 20
-42.0968686041
 11
-39.99
 21
-42.25
  0
LINE
  5
28A
100
AcDbEntity
  8
0
100
AcDbLine
 62
250
  6
CONTINUOUS
 10
-39.99
 20
42.1130421103
 11
-39.99
 21
42.1993909428
  0
LWPOLYLINE
  5
28B
100
AcDbEntity
  8
RACCORDO
100
AcDbPolyline
 62
250
  6
CONTINUOUS
 90
7
 70
0
 10
43.3974693276
 20
-38.499386281
 10
43.4581285646
 20
-38.4979910662
 10
43.5090877495
 20
-38.4965048592
 10
43.5497666224
 20
-38.494944583
 10
43.5797019829
 20
-38.4933280041
 10
43.5985529643
 20
-38.49167353
 10
43.606104915
 20
-38.49
  0
LINE
  5
28C
100
AcDbEntity
  8
RACCORDO
100
AcDbLine
 62
250
  6
CONTINUOUS
 10
43.2499161323
 20
-38.5018414027
 11
43.3974693276
 21
-38.499386281
  0
LINE
  5
28D
100
AcDbEntity
  8
RACCORDO
100
AcDbLine
 62
250
  6
CONTINUOUS
 10
43.0731296418
 20
-38.5037587193
 11
43.2499161323
 21
-38.5018414027
  0
LINE
  5
28E
100
AcDbEntity
  8
RACCORDO
100
AcDbLine
 62
250
  6
CONTINUOUS
 10
42.8751390336
 20
-38.5050511515
 11
43.0731296418
 21
-38.5037587193
  0
LWPOLYLINE
  5
28F
100
AcDbEntity
  8
RACCORDO
100
AcDbPolyline
 62
250
  6
CONTINUOUS
 90
3
 70
0
 10
-43.8272443168
 20
-38.4991128555
 10
-43.7590115579
 20
-38.4988363847
 10
-43.7495953348
 20
-38.4988289996
  0
LINE
  5
290
100
AcDbEntity
  8
RACCORDO
100
AcDbLine
 62
250
  6
CONTINUOUS
 10
-44.0
 20
-38.5
 11
-43.8692464992
 21
-38.5
  0
LINE
  5
291
100
AcDbEntity
  8
RACCORDO
100
AcDbLine
 62
250
  6
CONTINUOUS
 10
44.0
 20
-38.5
 11
43.869183239
 21
-38.5
  0
LINE
  5
292
100
AcDbEntity
  8
RACCORDO
100
AcDbLine
 62
250
  6
CONTINUOUS
 10
43.75
 20
-38.49
 11
43.606104915
 21
-38.49
  0
LINE
  5
293
100
AcDbEntity
  8
RACCORDO
100
AcDbLine
 62
250
  6
CONTINUOUS
 10
-43.606104915
 20
-38.49
 11
-43.75
 21
-38.49
  0
LINE
  5
294
100
AcDbEntity
  8
RACCORDO
100
AcDbLine
 62
250
  6
CONTINUOUS
 10
-42.8751391902
 20
-38.5050511602
 11
-43.1646996882
 21
-38.5028733125
  0
LWPOLYLINE
  5
295
100
AcDbEntity
  8
RACCORDO
100
AcDbPolyline
 62
250
  6
CONTINUOUS
 90
9
 70
0
 10
-43.1646996882
 20
-38.5028733125
 10
-43.3277961619
 20
-38.5006745588
 10
-43.3974637889
 20
-38.4993862207
 10
-43.4581221136
 20
-38.4979910071
 10
-43.5090804387
 20
-38.4965048049
 10
-43.5497585178
 20
-38.4949445371
 10
-43.5796931622
 20
-38.4933279701
 10
-43.5985435155
 20
-38.4916735112
 10
-43.6060949347
 20
-38.4899999993
  0
LWPOLYLINE
  5
296
100
AcDbEntity
  8
RACCORDO
100
AcDbPolyline
 62
250
  6
CONTINUOUS
 90
4
 70
0
 10
-43.8692464992
 20
-38.5
 10
-43.8637444856
 20
-38.4996468831
 10
-43.849665227
 20
-38.4993495093
 10
-43.8272443168
 20
-38.4991128555
  0
LWPOLYLINE
  5
297
100
AcDbEntity
  8
RACCORDO
100
AcDbPolyline
 62
250
  6
CONTINUOUS
 90
6
 70
0
 10
43.869182819
 20
-38.5
 10
43.8637199816
 20
-38.4996785382
 10
43.8497409806
 20
-38.4994079445
 10
43.8274797277
 20
-38.4991927442
 10
43.797308723
 20
-38.49903664
 10
43.7495904807
 20
-38.4989349083
  0
LWPOLYLINE
  5
298
100
AcDbEntity
  8
RACCORDO
100
AcDbPolyline
 62
250
  6
CONTINUOUS
 90
28
 70
0
 10
-27.8254618808
 20
-22.1905450976
 10
-27.8188558876
 20
-22.468665817
 10
-27.79772908
 20
-22.7585884292
 10
-27.7601892423
 20
-23.0593366331
 10
-27.7041503819
 20
-23.370489345
 10
-27.6279267366
 20
-23.689910467
 10
-27.5306887871
 20
-24.0138959267
 10
-27.4101294514
 20
-24.3434649151
 10
-27.2658025829
 20
-24.673832812
 10
-27.1021442692
 20
-24.993368235
 10
-26.9205560831
 20
-25.3005802773
 10
-26.7214867516
 20
-25.5951960541
 10
-26.5112142466
 20
-25.8694679837
 10
-26.2941556345
 20
-26.1213880895
 10
-26.0697347213
 20
-26.3543482863
 10
-25.8376734094
 20
-26.5695456528
 10
-25.6028845513
 20
-26.7647788494
 10
-25.3637267811
 20
-26.9431072522
 10
-25.1085186964
 20
-27.1114893619
 10
-24.8326737459
 20
-27.2706756665
 10
-24.5416270004
 20
-27.4160118459
 10
-24.237886335
 20
-27.544578309
 10
-23.923487559
 20
-27.6541555485
 10
-23.5988284368
 20
-27.7445051394
 10
-23.2640573228
 20
-27.8158511151
 10
-22.9194809844
 20
-27.8674528637
 10
-22.566185486
 20
-27.8976941955
 10
-22.2056020131
 20
-27.9053258034
  0
LWPOLYLINE
  5
299
100
AcDbEntity
  8
RACCORDO
100
AcDbPolyline
 62
250
  6
CONTINUOUS
 90
28
 70
0
 10
22.2056019853
 20
-27.9053257701
 10
22.5628540378
 20
-27.8979031772
 10
22.9134975938
 20
-27.8682096553
 10
23.2560965125
 20
-27.8173357588
 10
23.5900007333
 20
-27.7466838823
 10
23.914635825
 20
-27.65689211
 10
24.229029781
 20
-27.5479231031
 10
24.5322955649
 20
-27.4202687002
 10
24.8228070565
 20
-27.2759812347
 10
25.0983549574
 20
-27.11775366
 10
25.353962801
 20
-26.9499235936
 10
25.593683531
 20
-26.7720300325
 10
25.8281329164
 20
-26.5779711808
 10
26.0583179877
 20
-26.3655452426
 10
26.280432808
 20
-26.1363483917
 10
26.4961855988
 20
-25.8877988122
 10
26.7062950017
 20
-25.6161182837
 10
26.9059202669
 20
-25.3235693479
 10
27.0890397966
 20
-25.0170390937
 10
27.2553693663
 20
-24.6957372809
 10
27.4027369115
 20
-24.361877541
 10
27.5257155515
 20
-24.028892031
 10
27.6245747604
 20
-23.7023738598
 10
27.7020266088
 20
-23.3806383098
 10
27.7590148882
 20
-23.067083773
 10
27.7972158444
 20
-22.763751906
 10
27.8187227159
 20
-22.4712318617
 10
27.8254618047
 20
-22.1905450908
  0
LINE
  5
29A
100
AcDbEntity
  8
0
100
AcDbLine
 62
7
  6
CONTINUOUS
 10
20.412503
 20
-31.999993
 11
20.992525
 21
-31.999985
  0
LINE
  5
29B
100
AcDbEntity
  8
0
100
AcDbLine
 62
7
  6
CONTINUOUS
 10
25.562381
 20
-31.999978
 11
24.909076
 21
-31.999985
  0
LINE
  5
29C
100
AcDbEntity
  8
0
100
AcDbLine
 62
7
  6
CONTINUOUS
 10
18.317413
 20
-31.999993
 11
18.89742
 21
-31.999985
  0
LINE
  5
29D
100
AcDbEntity
  8
0
100
AcDbLine
 62
7
  6
CONTINUOUS
 10
16.028986
 20
-32.0
 11
16.609008
 21
-31.999993
  0
LINE
  5
29E
100
AcDbEntity
  8
0
100
AcDbLine
 62
7
  6
CONTINUOUS
 10
14.131132
 20
-32.0
 11
14.711176
 21
-31.999993
  0
LINE
  5
29F
100
AcDbEntity
  8
0
100
AcDbLine
 62
7
  6
CONTINUOUS
 10
17.189015
 20
-31.999993
 11
17.769037
 21
-31.999993
  0
LINE
  5
2A0
100
AcDbEntity
  8
0
100
AcDbLine
 62
7
  6
CONTINUOUS
 10
19.445803
 20
-31.999993
 11
20.025824
 21
-31.999993
  0
LINE
  5
2A1
100
AcDbEntity
  8
0
100
AcDbLine
 62
7
  6
CONTINUOUS
 10
23.821526
 20
-31.999985
 11
23.241497
 21
-31.999985
  0
LINE
  5
2A2
100
AcDbEntity
  8
0
100
AcDbLine
 62
7
  6
CONTINUOUS
 10
22.854818
 20
-31.999993
 11
22.274789
 21
-31.999985
  0
LINE
  5
2A3
100
AcDbEntity
  8
0
100
AcDbLine
 62
7
  6
CONTINUOUS
 10
22.091683
 20
-31.429657
 11
21.175638
 21
-31.429657
  0
LINE
  5
2A4
100
AcDbEntity
  8
0
100
AcDbLine
 62
7
  6
CONTINUOUS
 10
21.35256
 20
-30.878635
 11
21.914754
 21
-30.878635
  0
LINE
  5
2A5
100
AcDbEntity
  8
0
100
AcDbLine
 62
7
  6
CONTINUOUS
 10
24.327822
 20
-30.878635
 11
23.821591
 21
-30.878628
  0
LINE
  5
2A6
100
AcDbEntity
  8
0
100
AcDbLine
 62
7
  6
CONTINUOUS
 10
23.813529
 20
-30.342106
 11
24.519205
 21
-30.342106
  0
LINE
  5
2A7
100
AcDbEntity
  8
0
100
AcDbLine
 62
7
  6
CONTINUOUS
 10
24.519205
 20
-29.636377
 11
23.813522
 21
-29.636377
  0
LINE
  5
2A8
100
AcDbEntity
  8
0
100
AcDbLine
 62
7
  6
CONTINUOUS
 10
13.2
 20
-29.099862
 11
13.780029
 21
-29.099862
  0
LINE
  5
2A9
100
AcDbEntity
  8
0
100
AcDbLine
 62
7
  6
CONTINUOUS
 10
15.062286
 20
-29.099862
 11
15.642315
 21
-29.099862
  0
LINE
  5
2AA
100
AcDbEntity
  8
0
100
AcDbLine
 62
7
  6
CONTINUOUS
 10
16.028994
 20
-29.099862
 11
16.609015
 21
-29.099862
  0
LINE
  5
2AB
100
AcDbEntity
  8
0
100
AcDbLine
 62
7
  6
CONTINUOUS
 10
17.189015
 20
-29.099862
 11
18.065852
 21
-29.099862
  0
LINE
  5
2AC
100
AcDbEntity
  8
0
100
AcDbLine
 62
7
  6
CONTINUOUS
 10
19.148988
 20
-29.099862
 11
20.025824
 21
-29.099862
  0
LINE
  5
2AD
100
AcDbEntity
  8
0
100
AcDbLine
 62
7
  6
CONTINUOUS
 10
21.343628
 20
-29.099855
 11
21.923679
 21
-29.099855
  0
LINE
  5
2AE
100
AcDbEntity
  8
0
100
AcDbLine
 62
7
  6
CONTINUOUS
 10
23.241497
 20
-29.099855
 11
24.599711
 21
-29.099855
  0
LWPOLYLINE
  5
2AF
100
AcDbEntity
  8
RACCORDO
100
AcDbPolyline
 62
250
  6
CONTINUOUS
 90
28
 70
0
 10
-26.1086438825
 20
-22.2
 10
-26.1042782084
 20
-22.3897898294
 10
-26.0896714261
 20
-22.5877376334
 10
-26.0635514834
 20
-22.7932068975
 10
-26.0245322476
 20
-23.0058506684
 10
-25.9713869753
 20
-23.2242867224
 10
-25.903312848
 20
-23.4461537557
 10
-25.8185040133
 20
-23.6721420121
 10
-25.7166174003
 20
-23.8989234607
 10
-25.6006494258
 20
-24.1185636075
 10
-25.4713045445
 20
-24.329914689
 10
-25.3289740372
 20
-24.5324575326
 10
-25.1785256414
 20
-24.7205874697
 10
-25.0231588591
 20
-24.8927177157
 10
-24.8628087101
 20
-25.0509050432
 10
-24.6982371285
 20
-25.1958195341
 10
-24.5332148352
 20
-25.3258475335
 10
-24.3664342544
 20
-25.4435669936
 10
-24.1899247763
 20
-25.5546085336
 10
-24.0005311877
 20
-25.6596982777
 10
-23.801581952
 20
-25.7558782595
 10
-23.5940625773
 20
-25.8419811013
 10
-23.37866076
 20
-25.9170488957
 10
-23.1556600824
 20
-25.9803248775
 10
-22.9255844348
 20
-26.0310478912
 10
-22.6890788826
 20
-26.0683945796
 10
-22.4469321806
 20
-26.0915013934
 10
-22.2
 20
-26.0995707387
  0
LWPOLYLINE
  5
2B0
100
AcDbEntity
  8
RACCORDO
100
AcDbPolyline
 62
250
  6
CONTINUOUS
 90
5
 70
0
 10
-27.8380902495
 20
-17.3862830699
 10
-27.8302318306
 20
-19.2078275963
 10
-27.8272808788
 20
-20.1697226909
 10
-27.8255182072
 20
-21.1639806066
 10
-27.8254614739
 20
-22.1905450623
  0
LINE
  5
2B1
100
AcDbEntity
  8
RACCORDO
100
AcDbLine
 62
250
  6
CONTINUOUS
 10
-27.8880004517
 20
-7.099158235
 11
-27.8380902495
 21
-17.3862830699
  0
LINE
  5
2B2
100
AcDbEntity
  8
RACCORDO
100
AcDbLine
 62
250
  6
CONTINUOUS
 10
-27.8997539132
 20
-1.7410076212
 11
-27.8880004517
 21
-7.099158235
  0
LINE
  5
2B3
100
AcDbEntity
  8
RACCORDO
100
AcDbLine
 62
250
  6
CONTINUOUS
 10
-26.1018653341
 20
22.2
 11
-26.1000126856
 21
-0.000831956
  0
LINE
  5
2B4
100
AcDbEntity
  8
0
100
AcDbLine
 62
7
  6
CONTINUOUS
 10
-24.5
 20
-22.2
 11
-24.5
 21
22.2
  0
LINE
  5
2B5
100
AcDbEntity
  8
DRAFT
100
AcDbLine
 62
7
  6
CONTINUOUS
 10
-24.0
 20
-22.2
 11
-24.0
 21
22.2
  0
LINE
  5
2B6
100
AcDbEntity
  8
RACCORDO
100
AcDbLine
 62
250
  6
CONTINUOUS
 10
-23.9804947957
 20
22.2
 11
-23.9804947957
 21
-22.2
  0
LINE
  5
2B7
100
AcDbEntity
  8
RACCORDO
100
AcDbLine
 62
250
  6
CONTINUOUS
 10
-27.900058909
 20
-0.0007292036
 11
-27.8997539132
 21
-1.7410076212
  0
LINE
  5
2B8
100
AcDbEntity
  8
RACCORDO
100
AcDbLine
 62
250
  6
CONTINUOUS
 10
-26.1000126856
 20
-0.000831956
 11
-26.1086438825
 21
-22.2
  0
LINE
  5
2B9
100
AcDbEntity
  8
RACCORDO
100
AcDbLine
 62
250
  6
CONTINUOUS
 10
-27.8775294724
 20
19.8422544438
 11
-27.9000575755
 21
-0.0007292031
  0
LINE
  5
2BA
100
AcDbEntity
  8
RACCORDO
100
AcDbLine
 62
250
  6
CONTINUOUS
 10
-27.8678207246
 20
22.1943185407
 11
-27.8775294724
 21
19.8422544438
  0
LWPOLYLINE
  5
2BB
100
AcDbEntity
  8
RACCORDO
100
AcDbPolyline
 62
250
  6
CONTINUOUS
 90
28
 70
0
 10
22.2
 20
-26.0995707387
 10
22.4445694057
 20
-26.0916532432
 10
22.6848810816
 20
-26.068926513
 10
22.9200904693
 20
-26.0320869622
 10
23.1495777003
 20
-25.9818558626
 10
23.3725094021
 20
-25.9189864024
 10
23.5878462954
 20
-25.8443428324
 10
23.7951307817
 20
-25.7587652405
 10
23.9938630903
 20
-25.6631509892
 10
24.1831067612
 20
-25.5586360245
 10
24.359758722
 20
-25.4480104709
 10
24.5267266644
 20
-25.3306766071
 10
24.6913891639
 20
-25.2015095945
 10
24.854614854
 20
-25.0585140437
 10
25.0133114322
 20
-24.9029589563
 10
25.1677343515
 20
-24.7332139665
 10
25.3180809546
 20
-24.5469019637
 10
25.4608673992
 20
-24.3457309371
 10
25.5913555503
 20
-24.13479365
 10
25.7092480622
 20
-23.9139446198
 10
25.8132923224
 20
-23.6847613638
 10
25.8998101369
 20
-23.4564143437
 10
25.9690388702
 20
-23.2328135163
 10
26.0230478001
 20
-23.0128087139
 10
26.062725223
 20
-22.7985346076
 10
26.0893136057
 20
-22.5913070947
 10
26.1041920119
 20
-22.3915778867
 10
26.1086438825
 20
-22.2
  0
LINE
  5
2BC
100
AcDbEntity
  8
RACCORDO
100
AcDbLine
 62
250
  6
CONTINUOUS
 10
-22.2056020209
 20
-27.9053258129
 11
-21.5038585384
 21
-27.9010653073
  0
LINE
  5
2BD
100
AcDbEntity
  8
RACCORDO
100
AcDbLine
 62
250
  6
CONTINUOUS
 10
-21.5038585384
 20
-27.9010653073
 11
20.9674737752
 21
-27.8999938077
  0
LINE
  5
2BE
100
AcDbEntity
  8
0
100
AcDbLine
 62
7
  6
CONTINUOUS
 10
22.2
 20
-24.5
 11
-22.2
 21
-24.5
  0
LINE
  5
2BF
100
AcDbEntity
  8
DRAFT
100
AcDbLine
 62
7
  6
CONTINUOUS
 10
22.2
 20
-24.0
 11
-22.2
 21
-24.0
  0
LINE
  5
2C0
100
AcDbEntity
  8
RACCORDO
100
AcDbLine
 62
250
  6
CONTINUOUS
 10
-22.2
 20
-23.9804947957
 11
22.2
 21
-23.9804947957
  0
LINE
  5
2C1
100
AcDbEntity
  8
RACCORDO
100
AcDbLine
 62
250
  6
CONTINUOUS
 10
-22.2
 20
-26.0995707387
 11
22.2
 21
-26.0995707387
  0
LINE
  5
2C2
100
AcDbEntity
  8
RACCORDO
100
AcDbLine
 62
250
  6
CONTINUOUS
 10
20.9669997399
 20
-27.9000047736
 11
21.5053283051
 21
-27.9010712342
  0
LINE
  5
2C3
100
AcDbEntity
  8
RACCORDO
100
AcDbLine
 62
250
  6
CONTINUOUS
 10
21.5053283051
 20
-27.9010712342
 11
22.2056020178
 21
-27.9053258111
  0
LWPOLYLINE
  5
2C4
100
AcDbEntity
  8
RACCORDO
100
AcDbPolyline
 62
250
  6
CONTINUOUS
 90
8
 70
0
 10
-43.8641154234
 20
38.5
 10
-43.860923839
 20
38.4919523312
 10
-43.8527324641
 20
38.484286368
 10
-43.8396788347
 20
38.4771308253
 10
-43.8219821258
 20
38.4706058478
 10
-43.7999394711
 20
38.4648209924
 10
-43.7739209742
 20
38.4598733886
 10
-43.7485824906
 20
38.4564209571
  0
LINE
  5
2C5
100
AcDbEntity
  8
RACCORDO
100
AcDbLine
 62
250
  6
CONTINUOUS
 10
-20.9674737752
 20
-27.8999938077
 11
-20.9677117849
 21
-26.0999956903
  0
LINE
  5
2C6
100
AcDbEntity
  8
RACCORDO
100
AcDbLine
 62
250
  6
CONTINUOUS
 10
-22.9806471005
 20
22.2
 11
-22.9806471005
 21
-22.2
  0
LINE
  5
2C7
100
AcDbEntity
  8
RACCORDO
100
AcDbLine
 62
250
  6
CONTINUOUS
 10
-22.2
 20
-22.9806471005
 11
-22.2
 21
-24.0
  0
LINE
  5
2C8
100
AcDbEntity
  8
RACCORDO
100
AcDbLine
 62
250
  6
CONTINUOUS
 10
-22.2
 20
22.9806471005
 11
-22.2
 21
24.0
  0
LINE
  5
2C9
100
AcDbEntity
  8
RACCORDO
100
AcDbLine
 62
250
  6
CONTINUOUS
 10
-21.00099284
 20
-41.1789648818
 11
-21.0009838932
 21
-42.0749058302
  0
LWPOLYLINE
  5
2CA
100
AcDbEntity
  8
RACCORDO
100
AcDbPolyline
 62
250
  6
CONTINUOUS
 90
3
 70
0
 10
-21.0012996078
 20
-33.8049844297
 10
-21.0025660629
 20
-38.2527185555
 10
-21.0008878963
 20
-41.1789648995
  0
LINE
  5
2CB
100
AcDbEntity
  8
RACCORDO
100
AcDbLine
 62
250
  6
CONTINUOUS
 10
-22.2056020209
 20
-27.9053258129
 11
-22.2044812111
 21
-27.4765192185
  0
LWPOLYLINE
  5
2CC
100
AcDbEntity
  8
RACCORDO
100
AcDbPolyline
 62
250
  6
CONTINUOUS
 90
3
 70
0
 10
-22.1952128161
 20
27.8705612145
 10
-22.1994312306
 20
26.275137157
 10
-22.2
 20
24.5
  0
LINE
  5
2CD
100
AcDbEntity
  8
RACCORDO
100
AcDbLine
 62
250
  6
CONTINUOUS
 10
-20.9963398274
 20
-32.3190483822
 11
-21.0012996078
 21
-33.8049844297
  0
LWPOLYLINE
  5
2CE
100
AcDbEntity
  8
RACCORDO
100
AcDbPolyline
 62
250
  6
CONTINUOUS
 90
3
 70
0
 10
-22.2044812111
 20
-27.4765192185
 10
-22.200667319
 20
-26.2761972105
 10
-22.2
 20
-24.5
  0
LINE
  5
2CF
100
AcDbEntity
  8
RACCORDO
100
AcDbLine
 62
250
  6
CONTINUOUS
 10
-20.9680114623
 20
-27.9000059907
 11
-20.9963398274
 21
-32.3190483822
  0
LINE
  5
2D0
100
AcDbEntity
  8
DRAFT
100
AcDbLine
 62
7
  6
CONTINUOUS
 10
-22.6754234025
 20
-42.25
 11
-22.6723766096
 21
-42.0754493507
  0
LINE
  5
2D1
100
AcDbEntity
  8
RACCORDO
100
AcDbLine
 62
250
  6
CONTINUOUS
 10
27.8254614798
 20
-22.190545063
 11
26.108643897
 21
-22.2
  0
LINE
  5
2D2
100
AcDbEntity
  8
RACCORDO
100
AcDbLine
 62
250
  6
CONTINUOUS
 10
-22.2
 20
-22.9806471005
 11
22.2
 21
-22.9806471005
  0
LINE
  5
2D3
100
AcDbEntity
  8
RACCORDO
100
AcDbLine
 62
250
  6
CONTINUOUS
 10
-26.1086438825
 20
-22.2
 11
-24.5
 21
-22.2
  0
LINE
  5
2D4
100
AcDbEntity
  8
RACCORDO
100
AcDbLine
 62
250
  6
CONTINUOUS
 10
26.1086438825
 20
-22.2
 11
24.5
 21
-22.2
  0
LINE
  5
2D5
100
AcDbEntity
  8
RACCORDO
100
AcDbLine
 62
250
  6
CONTINUOUS
 10
22.9806471005
 20
-22.2
 11
24.0
 21
-22.2
  0
LINE
  5
2D6
100
AcDbEntity
  8
RACCORDO
100
AcDbLine
 62
250
  6
CONTINUOUS
 10
-22.9806471005
 20
-22.2
 11
-24.0
 21
-22.2
  0
LINE
  5
2D7
100
AcDbEntity
  8
RACCORDO
100
AcDbLine
 62
250
  6
CONTINUOUS
 10
-27.8254618808
 20
-22.1905450976
 11
-26.4516874578
 21
-22.1977660495
  0
LINE
  5
2D8
100
AcDbEntity
  8
RACCORDO
100
AcDbLine
 62
250
  6
CONTINUOUS
 10
-26.4516874578
 20
-22.1977660495
 11
-26.1086399441
 21
-22.1999999999
  0
LINE
  5
2D9
100
AcDbEntity
  8
RACCORDO
100
AcDbLine
 62
250
  6
CONTINUOUS
 10
-19.2000000225
 20
-42.396178245
 11
-19.2000001149
 21
-42.1243235325
  0
LINE
  5
2DA
100
AcDbEntity
  8
RACCORDO
100
AcDbLine
 62
7
  6
CONTINUOUS
 10
-19.0
 20
-42.1689566636
 11
-19.0
 21
-42.1243235325
  0
LINE
  5
2DB
100
AcDbEntity
  8
RACCORDO
100
AcDbLine
 62
250
  6
CONTINUOUS
 10
-18.7355891919
 20
-42.0754493507
 11
-18.7355891921
 21
-42.1243235325
  0
LWPOLYLINE
  5
2DC
100
AcDbEntity
  8
RACCORDO
100
AcDbPolyline
 62
250
  6
CONTINUOUS
 90
8
 70
0
 10
43.8654933998
 20
37.5
 10
43.8623142059
 20
37.4985603932
 10
43.8541778966
 20
37.4973481051
 10
43.8412208976
 20
37.4963834626
 10
43.8236604655
 20
37.49568264
 10
43.8017910451
 20
37.4952573889
 10
43.7759793324
 20
37.4951148412
 10
43.75
 20
37.4952411413
  0
LINE
  5
2DD
100
AcDbEntity
  8
0
100
AcDbLine
 62
7
  6
CONTINUOUS
 10
-36.0305440373
 20
-42.5
 11
-36.0
 21
-42.4389072728
  0
LINE
  5
2DE
100
AcDbEntity
  8
DRAFT
100
AcDbLine
 62
7
  6
CONTINUOUS
 10
-36.0305440373
 20
-42.5
 11
-36.0
 21
-42.4389072728
  0
LWPOLYLINE
  5
2DF
100
AcDbEntity
  8
RACCORDO
100
AcDbPolyline
 62
7
  6
CONTINUOUS
 90
9
 70
0
 10
19.0440206292
 20
-42.3176711484
 10
19.060541911
 20
-42.3365098948
 10
19.0781303853
 20
-42.3526382048
 10
19.097010951
 20
-42.3659671435
 10
19.1169587091
 20
-42.376666503
 10
19.1372989628
 20
-42.3850027943
 10
19.157806813
 20
-42.3910282746
 10
19.1787071587
 20
-42.3947268751
 10
19.2
 20
-42.396178245
  0
LINE
  5
2E0
100
AcDbEntity
  8
RACCORDO
100
AcDbLine
 62
7
  6
CONTINUOUS
 10
19.0285665399
 20
-42.296208706
 11
19.0440206292
 21
-42.3176711484
  0
LINE
  5
2E1
100
AcDbEntity
  8
RACCORDO
100
AcDbLine
 62
250
  6
CONTINUOUS
 10
-0.005420371
 20
28.6731039938
 11
-0.0015025399
 21
27.8996367835
  0
LWPOLYLINE
  5
2E2
100
AcDbEntity
  8
RACCORDO
100
AcDbPolyline
 62
250
  6
CONTINUOUS
 90
4
 70
0
 10
0.0030341435
 20
41.4560938589
 10
0.0049237088
 20
40.4656746881
 10
0.0046199864
 20
39.479372311
 10
0.0006667866
 20
35.5977225094
  0
LWPOLYLINE
  5
2E3
100
AcDbEntity
  8
0
100
AcDbPolyline
 62
7
  6
CONTINUOUS
 90
4
 70
0
 43
0.3500000006
 10
-2.3571427875
 20
51.678570694
 10
-2.3571427875
 20
52.5357131653
 10
-1.9285714102
 20
52.9642866669
 10
-1.2857142735
 20
52.9642866669
  0
LWPOLYLINE
  5
2E4
100
AcDbEntity
  8
0
100
AcDbPolyline
 62
7
  6
CONTINUOUS
 90
4
 70
0
 43
0.3500000006
 10
0.0
 20
51.678570694
 10
0.0
 20
52.5357131653
 10
0.4285714127
 20
52.9642866669
 10
1.0714285848
 20
52.9642866669
  0
LINE
  5
2E5
100
AcDbEntity
  8
RACCORDO
100
AcDbLine
 62
250
  6
CONTINUOUS
 10
-0.003962475
 20
27.8996358738
 11
-0.004091023
 21
26.100028637
  0
LINE
  5
2E6
100
AcDbEntity
  8
RACCORDO
100
AcDbLine
 62
250
  6
CONTINUOUS
 10
0.0043004151
 20
41.4560939662
 11
0.004359486
 21
42.1047391915
  0
LINE
  5
2E7
100
AcDbEntity
  8
RACCORDO
100
AcDbLine
 62
250
  6
CONTINUOUS
 10
0.0006667866
 20
35.5977225094
 11
0.0005718225
 21
33.7429967297
  0
LINE
  5
2E8
100
AcDbEntity
  8
RACCORDO
100
AcDbLine
 62
250
  6
CONTINUOUS
 10
0.0005718225
 20
33.7429967297
 11
-0.005420371
 21
28.6731039938
  0
LINE
  5
2E9
100
AcDbEntity
  8
RACCORDO
100
AcDbLine
 62
250
  6
CONTINUOUS
 10
43.5976253744
 20
0.0004744958
 11
43.604667717
 21
0.0006019772
  0
LINE
  5
2EA
100
AcDbEntity
  8
RACCORDO
100
AcDbLine
 62
250
  6
CONTINUOUS
 10
43.5147187868
 20
0.0001095342
 11
43.5976253744
 21
0.0004744958
  0
LINE
  5
2EB
100
AcDbEntity
  8
RACCORDO
100
AcDbLine
 62
250
  6
CONTINUOUS
 10
42.9216911135
 20
-0.0004630037
 11
43.5147187868
 21
0.0001095342
  0
LINE
  5
2EC
100
AcDbEntity
  8
RACCORDO
100
AcDbLine
 62
250
  6
CONTINUOUS
 10
26.1000126854
 20
-0.0008319559
 11
42.9216920453
 21
0.0
  0
LINE
  5
2ED
100
AcDbEntity
  8
RACCORDO
100
AcDbLine
 62
250
  6
CONTINUOUS
 10
-27.9000587577
 20
0.0000000001
 11
-43.604667717
 21
0.0006019772
  0
LINE
  5
2EE
100
AcDbEntity
  8
RACCORDO
100
AcDbLine
 62
250
  6
CONTINUOUS
 10
-27.900058909
 20
-0.0007292036
 11
-26.100012684
 21
-0.000831956
  0
LINE
  5
2EF
100
AcDbEntity
  8
0
100
AcDbLine
 62
7
  6
CONTINUOUS
 10
14.131132
 20
-32.0
 11
13.2
 21
-29.099862
  0
LINE
  5
2F0
100
AcDbEntity
  8
0
100
AcDbLine
 62
7
  6
CONTINUOUS
 10
13.780029
 20
-29.099862
 11
14.421161
 21
-31.096759
  0
LINE
  5
2F1
100
AcDbEntity
  8
0
100
AcDbLine
 62
7
  6
CONTINUOUS
 10
24.909076
 20
-31.999985
 11
24.327822
 21
-30.878635
  0
LINE
  5
2F2
100
AcDbEntity
  8
0
100
AcDbLine
 62
7
  6
CONTINUOUS
 10
24.9449767907
 20
-30.8088806669
 11
25.562381
 21
-31.999978
  0
LINE
  5
2F3
100
AcDbEntity
  8
RACCORDO
100
AcDbLine
 62
7
  6
CONTINUOUS
 10
-19.0285665399
 20
-42.296208706
 11
-19.0440206292
 21
-42.3176711484
  0
LINE
  5
2F4
100
AcDbEntity
  8
0
100
AcDbLine
 62
7
  6
CONTINUOUS
 10
21.914754
 20
-30.878635
 11
21.63365
 21
-30.003096
  0
LINE
  5
2F5
100
AcDbEntity
  8
0
100
AcDbLine
 62
7
  6
CONTINUOUS
 10
22.274789
 20
-31.999985
 11
22.091683
 21
-31.429657
  0
LINE
  5
2F6
100
AcDbEntity
  8
0
100
AcDbLine
 62
7
  6
CONTINUOUS
 10
21.923679
 20
-29.099855
 11
22.854818
 21
-31.999993
  0
LINE
  5
2F7
100
AcDbEntity
  8
0
100
AcDbLine
 62
7
  6
CONTINUOUS
 10
18.317413
 20
-31.999993
 11
17.769037
 21
-30.087551
  0
LINE
  5
2F8
100
AcDbEntity
  8
0
100
AcDbLine
 62
7
  6
CONTINUOUS
 10
18.065852
 20
-29.099862
 11
18.60742
 21
-30.988531
  0
LINE
  5
2F9
100
AcDbEntity
  8
0
100
AcDbLine
 62
7
  6
CONTINUOUS
 10
16.028994
 20
-29.099862
 11
16.028986
 21
-32.0
  0
LINE
  5
2FA
100
AcDbEntity
  8
0
100
AcDbLine
 62
7
  6
CONTINUOUS
 10
16.609015
 20
-29.099862
 11
16.609008
 21
-31.999993
  0
LWPOLYLINE
  5
2FB
100
AcDbEntity
  8
RACCORDO
100
AcDbPolyline
 62
7
  6
CONTINUOUS
 90
9
 70
0
 10
-19.0440206292
 20
-42.3176711484
 10
-19.060541911
 20
-42.3365098948
 10
-19.0781303853
 20
-42.3526382048
 10
-19.097010951
 20
-42.3659671435
 10
-19.1169587091
 20
-42.376666503
 10
-19.1372989628
 20
-42.3850027943
 10
-19.157806813
 20
-42.3910282746
 10
-19.1787071587
 20
-42.3947268751
 10
-19.2
 20
-42.396178245
  0
LWPOLYLINE
  5
2FC
100
AcDbEntity
  8
RACCORDO
100
AcDbPolyline
 62
250
  6
CONTINUOUS
 90
8
 70
0
 10
-43.8663641936
 20
37.5000000622
 10
-43.8626454564
 20
37.4980542433
 10
-43.8531279351
 20
37.4964156421
 10
-43.8379713262
 20
37.4951117528
 10
-43.8174299454
 20
37.4941644544
 10
-43.7918484608
 20
37.4935896411
 10
-43.7616561094
 20
37.4933969559
 10
-43.75
 20
37.4934624387
  0
LINE
  5
2FD
100
AcDbEntity
  8
0
100
AcDbLine
 62
7
  6
CONTINUOUS
 10
36.0305440373
 20
-42.5
 11
36.0
 21
-42.4389072728
  0
LINE
  5
2FE
100
AcDbEntity
  8
DRAFT
100
AcDbLine
 62
7
  6
CONTINUOUS
 10
36.0305440373
 20
-42.5
 11
36.0
 21
-42.4389072728
  0
LINE
  5
2FF
100
AcDbEntity
  8
0
100
AcDbLine
 62
250
  6
CONTINUOUS
 10
20.9680114624
 20
-27.900005996
 11
20.984540903
 21
-30.2185089518
  0
LINE
  5
300
100
AcDbEntity
  8
0
100
AcDbLine
 62
250
  6
CONTINUOUS
 10
20.98448379
 20
-30.2186891191
 11
20.9947305714
 21
-31.9931334122
  0
LINE
  5
301
100
AcDbEntity
  8
0
100
AcDbLine
 62
7
  6
CONTINUOUS
 10
17.189015
 20
-29.099862
 11
17.189015
 21
-31.999993
  0
LINE
  5
302
100
AcDbEntity
  8
0
100
AcDbLine
 62
7
  6
CONTINUOUS
 10
17.769037
 20
-30.087551
 11
17.769037
 21
-31.999993
  0
LINE
  5
303
100
AcDbEntity
  8
RACCORDO
100
AcDbLine
 62
250
  6
CONTINUOUS
 10
18.735589192
 20
-42.0754493507
 11
18.7355891921
 21
-42.1243235325
  0
LINE
  5
304
100
AcDbEntity
  8
RACCORDO
100
AcDbLine
 62
7
  6
CONTINUOUS
 10
19.0
 20
-42.1243235325
 11
19.0
 21
-42.1689613335
  0
LINE
  5
305
100
AcDbEntity
  8
RACCORDO
100
AcDbLine
 62
250
  6
CONTINUOUS
 10
19.2000000777
 20
-42.1243235325
 11
19.2000000152
 21
-42.396178245
  0
LINE
  5
306
100
AcDbEntity
  8
0
100
AcDbLine
 62
7
  6
CONTINUOUS
 10
19.445795
 20
-30.087551
 11
19.445803
 21
-31.999993
  0
LINE
  5
307
100
AcDbEntity
  8
0
100
AcDbLine
 62
7
  6
CONTINUOUS
 10
20.025824
 20
-29.099862
 11
20.025824
 21
-31.999993
  0
LINE
  5
308
100
AcDbEntity
  8
DRAFT
100
AcDbLine
 62
7
  6
CONTINUOUS
 10
22.6754234025
 20
-42.25
 11
22.6723766096
 21
-42.0754493507
  0
LINE
  5
309
100
AcDbEntity
  8
RACCORDO
100
AcDbLine
 62
250
  6
CONTINUOUS
 10
22.2026330799
 20
-26.8522459525
 11
22.1999999991
 21
-26.0995585562
  0
LINE
  5
30A
100
AcDbEntity
  8
RACCORDO
100
AcDbLine
 62
250
  6
CONTINUOUS
 10
22.2056019853
 20
-27.9053257701
 11
22.2026330799
 21
-26.8522459525
  0
LINE
  5
30B
100
AcDbEntity
  8
RACCORDO
100
AcDbLine
 62
250
  6
CONTINUOUS
 10
22.1952128057
 20
27.8705611314
 11
22.2
 21
26.1022231386
  0
LINE
  5
30C
100
AcDbEntity
  8
0
100
AcDbLine
 62
250
  6
CONTINUOUS
 10
20.9948025645
 20
-31.9929103484
 11
21.0008878934
 21
-41.1789648989
  0
LINE
  5
30D
100
AcDbEntity
  8
RACCORDO
100
AcDbLine
 62
250
  6
CONTINUOUS
 10
21.00099284
 20
-41.1789648818
 11
21.0009838932
 21
-42.0749058302
  0
LINE
  5
30E
100
AcDbEntity
  8
RACCORDO
100
AcDbLine
 62
250
  6
CONTINUOUS
 10
22.2
 20
26.1022231451
 11
22.2
 21
24.5
  0
LINE
  5
30F
100
AcDbEntity
  8
RACCORDO
100
AcDbLine
 62
250
  6
CONTINUOUS
 10
22.2
 20
-26.0995707387
 11
22.2
 21
-24.5
  0
LINE
  5
310
100
AcDbEntity
  8
RACCORDO
100
AcDbLine
 62
250
  6
CONTINUOUS
 10
22.2
 20
-22.9806471005
 11
22.2
 21
-24.0
  0
LINE
  5
311
100
AcDbEntity
  8
RACCORDO
100
AcDbLine
 62
250
  6
CONTINUOUS
 10
22.2
 20
22.9806471005
 11
22.2
 21
24.0
  0
LINE
  5
312
100
AcDbEntity
  8
RACCORDO
100
AcDbLine
 62
250
  6
CONTINUOUS
 10
22.9806471005
 20
-22.2
 11
22.9806471005
 21
22.2
  0
LINE
  5
313
100
AcDbEntity
  8
0
100
AcDbLine
 62
7
  6
CONTINUOUS
 10
23.241497
 20
-31.999985
 11
23.241497
 21
-29.099855
  0
LINE
  5
314
100
AcDbEntity
  8
0
100
AcDbLine
 62
7
  6
CONTINUOUS
 10
23.813522
 20
-29.636377
 11
23.813529
 21
-30.342106
  0
LINE
  5
315
100
AcDbEntity
  8
RACCORDO
100
AcDbLine
 62
250
  6
CONTINUOUS
 10
23.9804947957
 20
-22.2
 11
23.9804947957
 21
22.2
  0
LINE
  5
316
100
AcDbEntity
  8
DRAFT
100
AcDbLine
 62
7
  6
CONTINUOUS
 10
24.0
 20
22.2
 11
24.0
 21
-22.2
  0
LINE
  5
317
100
AcDbEntity
  8
0
100
AcDbLine
 62
7
  6
CONTINUOUS
 10
24.5
 20
22.2
 11
24.5
 21
-22.2
  0
LINE
  5
318
100
AcDbEntity
  8
0
100
AcDbLine
 62
7
  6
CONTINUOUS
 10
23.821591
 20
-30.878628
 11
23.821526
 21
-31.999985
  0
LINE
  5
319
100
AcDbEntity
  8
RACCORDO
100
AcDbLine
 62
250
  6
CONTINUOUS
 10
20.9674737752
 20
-27.8999938077
 11
20.9677117849
 21
-26.0999956903
  0
LINE
  5
31A
100
AcDbEntity
  8
0
100
AcDbLine
 62
7
  6
CONTINUOUS
 10
14.421161
 20
-31.096759
 11
15.062286
 21
-29.099862
  0
LINE
  5
31B
100
AcDbEntity
  8
0
100
AcDbLine
 62
7
  6
CONTINUOUS
 10
15.642315
 20
-29.099862
 11
14.711176
 21
-31.999993
  0
LINE
  5
31C
100
AcDbEntity
  8
RACCORDO
100
AcDbLine
 62
250
  6
CONTINUOUS
 10
-27.8678207246
 20
22.1943185407
 11
-26.1018653205
 21
22.2
  0
LINE
  5
31D
100
AcDbEntity
  8
RACCORDO
100
AcDbLine
 62
250
  6
CONTINUOUS
 10
-26.1018653341
 20
22.2
 11
-24.5
 21
22.2
  0
LINE
  5
31E
100
AcDbEntity
  8
RACCORDO
100
AcDbLine
 62
250
  6
CONTINUOUS
 10
22.9806471005
 20
22.2
 11
24.0
 21
22.2
  0
LINE
  5
31F
100
AcDbEntity
  8
RACCORDO
100
AcDbLine
 62
250
  6
CONTINUOUS
 10
-22.9806471005
 20
22.2
 11
-24.0
 21
22.2
  0
LINE
  5
320
100
AcDbEntity
  8
RACCORDO
100
AcDbLine
 62
250
  6
CONTINUOUS
 10
22.2
 20
22.9806471005
 11
-22.2
 21
22.9806471005
  0
LINE
  5
321
100
AcDbEntity
  8
RACCORDO
100
AcDbLine
 62
250
  6
CONTINUOUS
 10
22.2
 20
23.9804947957
 11
-22.2
 21
23.9804947957
  0
LINE
  5
322
100
AcDbEntity
  8
DRAFT
100
AcDbLine
 62
7
  6
CONTINUOUS
 10
-22.2
 20
24.0
 11
22.2
 21
24.0
  0
LINE
  5
323
100
AcDbEntity
  8
0
100
AcDbLine
 62
7
  6
CONTINUOUS
 10
-22.2
 20
24.5
 11
22.2
 21
24.5
  0
LWPOLYLINE
  5
324
100
AcDbEntity
  8
RACCORDO
100
AcDbPolyline
 62
250
  6
CONTINUOUS
 90
3
 70
0
 10
27.8678210593
 20
22.194318587
 10
26.2745805981
 20
22.1993249177
 10
24.5
 20
22.2
  0
LWPOLYLINE
  5
325
100
AcDbEntity
  8
RACCORDO
100
AcDbPolyline
 62
250
  6
CONTINUOUS
 90
28
 70
0
 10
27.8678210593
 20
22.194318587
 10
27.8564334568
 20
22.5399003423
 10
27.8245195007
 20
22.886143091
 10
27.7717854798
 20
23.2315597456
 10
27.6981052124
 20
23.575765931
 10
27.6034126352
 20
23.9165408386
 10
27.4882116299
 20
24.2498095315
 10
27.3538305383
 20
24.5729059663
 10
27.2004640729
 20
24.8863464306
 10
27.0271720365
 20
25.1906949348
 10
26.8333989105
 20
25.4859551133
 10
26.6205853921
 20
25.7694635739
 10
26.3909579675
 20
26.037753751
 10
26.1459902919
 20
26.2892916591
 10
25.8865869073
 20
26.5238993799
 10
25.6145970549
 20
26.7405628319
 10
25.3302749725
 20
26.9392397827
 10
25.0358575046
 20
27.1188257181
 10
24.7364947762
 20
27.2775464076
 10
24.4333220411
 20
27.4159585502
 10
24.1281690986
 20
27.5343087001
 10
23.8276741026
 20
27.6319861807
 10
23.5353800942
 20
27.7100541886
 10
23.2505616303
 20
27.7706600107
 10
22.9733944614
 20
27.8155946887
 10
22.7044627014
 20
27.8463266665
 10
22.4448424377
 20
27.8641727987
 10
22.1952128146
 20
27.8705612029
  0
LINE
  5
326
100
AcDbEntity
  8
RACCORDO
100
AcDbLine
 62
250
  6
CONTINUOUS
 10
27.8831365999
 20
18.0786172701
 11
27.8678207163
 21
22.1943185376
  0
LINE
  5
327
100
AcDbEntity
  8
RACCORDO
100
AcDbLine
 62
250
  6
CONTINUOUS
 10
26.1086438825
 20
-22.2
 11
26.1000126856
 21
-0.000831956
  0
LINE
  5
328
100
AcDbEntity
  8
RACCORDO
100
AcDbLine
 62
250
  6
CONTINUOUS
 10
26.1000126856
 20
-0.000831956
 11
26.1018653341
 21
22.2
  0
LWPOLYLINE
  5
329
100
AcDbEntity
  8
RACCORDO
100
AcDbPolyline
 62
250
  6
CONTINUOUS
 90
3
 70
0
 10
27.8254614798
 20
-22.190545063
 10
27.8255925612
 20
-21.0948955356
 10
27.8276246487
 20
-20.037338322
  0
LINE
  5
32A
100
AcDbEntity
  8
RACCORDO
100
AcDbLine
 62
250
  6
CONTINUOUS
 10
27.8965353668
 20
-4.0342210037
 11
27.8831365999
 21
18.0786172701
  0
LINE
  5
32B
100
AcDbEntity
  8
RACCORDO
100
AcDbLine
 62
250
  6
CONTINUOUS
 10
27.8822906994
 20
-8.6071039184
 11
27.8965353668
 21
-4.0342210037
  0
LINE
  5
32C
100
AcDbEntity
  8
RACCORDO
100
AcDbLine
 62
250
  6
CONTINUOUS
 10
27.8276246487
 20
-20.037338322
 11
27.8350084314
 21
-18.0389518254
  0
LWPOLYLINE
  5
32D
100
AcDbEntity
  8
RACCORDO
100
AcDbPolyline
 62
250
  6
CONTINUOUS
 90
3
 70
0
 10
27.8350084314
 20
-18.0389518254
 10
27.8534959785
 20
-14.4655701044
 10
27.8822906994
 20
-8.6071039184
  0
LINE
  5
32E
100
AcDbEntity
  8
0
100
AcDbLine
 62
7
  6
CONTINUOUS
 10
18.60742
 20
-30.988531
 11
19.148988
 21
-29.099862
  0
LINE
  5
32F
100
AcDbEntity
  8
0
100
AcDbLine
 62
7
  6
CONTINUOUS
 10
19.445795
 20
-30.087551
 11
18.89742
 21
-31.999985
  0
LWPOLYLINE
  5
330
100
AcDbEntity
  8
RACCORDO
100
AcDbPolyline
 62
250
  6
CONTINUOUS
 90
9
 70
0
 10
43.863347021
 20
38.4999999623
 10
43.8606228154
 20
38.4932999012
 10
43.8536321302
 20
38.4868938124
 10
43.8424922471
 20
38.48088917
 10
43.8273900581
 20
38.4753867126
 10
43.8085789302
 20
38.4704787543
 10
43.7863744546
 20
38.4662476359
 10
43.7611491525
 20
38.4627643427
 10
43.7485680211
 20
38.4615538279
  0
LWPOLYLINE
  5
331
100
AcDbEntity
  8
RACCORDO
100
AcDbPolyline
 62
250
  6
CONTINUOUS
 90
28
 70
0
 10
-22.1952128161
 20
27.8705612145
 10
-22.4421973854
 20
27.8642982485
 10
-22.6993526598
 20
27.8467862644
 10
-22.9660375885
 20
27.8165981348
 10
-23.2413810435
 20
27.7723689394
 10
-23.5246235772
 20
27.7126096767
 10
-23.8150842036
 20
27.6356725536
 10
-24.1129917417
 20
27.5396835522
 10
-24.4153946898
 20
27.4234834841
 10
-24.7167623568
 20
27.2872026148
 10
-25.0157362853
 20
27.1302215953
 10
-25.3106179873
 20
26.9520348957
 10
-25.5958093595
 20
26.7545056561
 10
-25.8689388007
 20
26.53880467
 10
-26.1298225454
 20
26.3048269369
 10
-26.3765312668
 20
26.0534864868
 10
-26.6081427304
 20
25.7848967137
 10
-26.8230895868
 20
25.5005921193
 10
-27.0189687808
 20
25.2040783535
 10
-27.1943547076
 20
24.8978498075
 10
-27.3496726724
 20
24.5820772116
 10
-27.4855556191
 20
24.256801365
 10
-27.6017739755
 20
23.9217889594
 10
-27.697185075
 20
23.5795438915
 10
-27.7713426769
 20
23.2340552847
 10
-27.8243382071
 20
22.8875138003
 10
-27.856386225
 20
22.540426342
 10
-27.8678209454
 20
22.1943185709
  0
LINE
  5
332
100
AcDbEntity
  8
RACCORDO
100
AcDbLine
 62
250
  6
CONTINUOUS
 10
-17.7488663849
 20
27.8842466505
 11
-22.1952128055
 21
27.8705611293
  0
LINE
  5
333
100
AcDbEntity
  8
RACCORDO
100
AcDbLine
 62
250
  6
CONTINUOUS
 10
22.2
 20
26.1022231451
 11
-0.004091023
 21
26.100028637
  0
LINE
  5
334
100
AcDbEntity
  8
RACCORDO
100
AcDbLine
 62
250
  6
CONTINUOUS
 10
-0.004091023
 20
26.100028637
 11
-22.2
 21
26.1022231451
  0
LINE
  5
335
100
AcDbEntity
  8
RACCORDO
100
AcDbLine
 62
250
  6
CONTINUOUS
 10
19.3480904029
 20
27.880614256
 11
-17.7488663849
 21
27.8842466505
  0
LINE
  5
336
100
AcDbEntity
  8
RACCORDO
100
AcDbLine
 62
250
  6
CONTINUOUS
 10
22.1952128057
 20
27.8705611314
 11
19.3480904029
 21
27.880614256
  0
LINE
  5
337
100
AcDbEntity
  8
0
100
AcDbLine
 62
7
  6
CONTINUOUS
 10
20.412503
 20
-31.999993
 11
21.343628
 21
-29.099855
  0
LINE
  5
338
100
AcDbEntity
  8
0
100
AcDbLine
 62
7
  6
CONTINUOUS
 10
21.63365
 20
-30.003096
 11
21.35256
 21
-30.878635
  0
LINE
  5
339
100
AcDbEntity
  8
0
100
AcDbLine
 62
7
  6
CONTINUOUS
 10
21.175638
 20
-31.429657
 11
20.992525
 21
-31.999985
  0
LINE
  5
33A
100
AcDbEntity
  8
RACCORDO
100
AcDbLine
 62
250
  6
CONTINUOUS
 10
39.99
 20
-42.0968686041
 11
39.99
 21
-42.25
  0
LINE
  5
33B
100
AcDbEntity
  8
0
100
AcDbLine
 62
250
  6
CONTINUOUS
 10
39.99
 20
42.1130421103
 11
39.99
 21
42.1993909428
  0
LINE
  5
33C
100
AcDbEntity
  8
DRAFT
100
AcDbLine
 62
250
  6
CONTINUOUS
 10
40.0
 20
42.3219583377
 11
40.0
 21
42.5
  0
LINE
  5
33D
100
AcDbEntity
  8
0
100
AcDbLine
 62
7
  6
CONTINUOUS
 10
40.5
 20
42.1647740418
 11
40.5
 21
42.1723447486
  0
LINE
  5
33E
100
AcDbEntity
  8
RACCORDO
100
AcDbLine
 62
250
  6
CONTINUOUS
 10
40.0
 20
-42.5
 11
40.0000292063
 21
-42.249540325
  0
LWPOLYLINE
  5
33F
100
AcDbEntity
  8
RACCORDO
100
AcDbPolyline
 62
250
  6
CONTINUOUS
 90
16
 70
0
 10
40.180725303
 20
-41.1588259864
 10
40.1782840928
 20
-41.2576208501
 10
40.1739820586
 20
-41.3548284766
 10
40.1678617178
 20
-41.4494881568
 10
40.1599835581
 20
-41.540664363
 10
40.15042544
 20
-41.6274559948
 10
40.1392818269
 20
-41.709005285
 10
40.126662852
 20
-41.7845062768
 10
40.1126932293
 20
-41.8532127889
 10
40.0975110217
 20
-41.9144457906
 10
40.0812662759
 20
-41.967600112
 10
40.0641195398
 20
-42.0121504257
 10
40.0462402756
 20
-42.047656438
 10
40.0278051853
 20
-42.0737672408
 10
40.0089964642
 20
-42.0902247792
 10
39.99
 20
-42.0968664025
  0
LWPOLYLINE
  5
340
100
AcDbEntity
  8
RACCORDO
100
AcDbPolyline
 62
250
  6
CONTINUOUS
 90
13
 70
0
 10
-42.8780769872
 20
38.579348925
 10
-42.9798507442
 20
38.5760470262
 10
-43.0774302146
 20
38.5717560884
 10
-43.1696937657
 20
38.5665254315
 10
-43.2555808686
 20
38.5604151772
 10
-43.3341042893
 20
38.5534955577
 10
-43.4043614356
 20
38.5458461086
 10
-43.4655447328
 20
38.5375547544
 10
-43.5169509058
 20
38.5287167982
 10
-43.5579890636
 20
38.5194338262
 10
-43.5881874905
 20
38.5098125396
 10
-43.607199069
 20
38.4999635284
 10
-43.6148052695
 20
38.49
  0
LINE
  5
341
100
AcDbEntity
  8
ASSI
100
AcDbLine
 62
250
  6
CONTINUOUS
 10
43.6148052695
 20
38.49
 11
43.7484878319
 21
38.4900001097
  0
LINE
  5
342
100
AcDbEntity
  8
ASSI
100
AcDbLine
 62
250
  6
CONTINUOUS
 10
-43.6148052695
 20
38.49
 11
-43.748487833
 21
38.4899997944
  0
LINE
  5
343
100
AcDbEntity
  8
RACCORDO
100
AcDbLine
 62
250
  6
CONTINUOUS
 10
43.8633470193
 20
38.5
 11
44.0
 21
38.5
  0
LINE
  5
344
100
AcDbEntity
  8
RACCORDO
100
AcDbLine
 62
250
  6
CONTINUOUS
 10
-43.8641154491
 20
38.5
 11
-44.0
 21
38.5
  0
LWPOLYLINE
  5
345
100
AcDbEntity
  8
RACCORDO
100
AcDbPolyline
 62
250
  6
CONTINUOUS
 90
13
 70
0
 10
42.8780757241
 20
38.5793484958
 10
42.9798473606
 20
38.5760466298
 10
43.0774246555
 20
38.5717557205
 10
43.1696860256
 20
38.56652509
 10
43.2555709902
 20
38.5604148617
 10
43.334092361
 20
38.5534952694
 10
43.4043475894
 20
38.5458458497
 10
43.46552914
 20
38.537554528
 10
43.5169337734
 20
38.5287166081
 10
43.5579706288
 20
38.5194336765
 10
43.5881680161
 20
38.5098124344
 10
43.6071788371
 20
38.4999634719
 10
43.6147845756
 20
38.4899999962
  0
LWPOLYLINE
  5
346
100
AcDbEntity
  8
0
100
AcDbPolyline
 62
7
  6
CONTINUOUS
 90
13
 70
0
 43
0.3500000006
 10
-1.9285714102
 20
52.9642866669
 10
-2.2142856617
 20
53.1785711517
 10
-2.2142856617
 20
53.8214291382
 10
-1.9285714102
 20
54.2499981079
 10
-1.2857142735
 20
54.2499981079
 10
-1.0000000219
 20
53.8214291382
 10
-1.0000000219
 20
53.1785711517
 10
-1.2857142735
 20
52.9642866669
 10
-0.8571428254
 20
52.5357131653
 10
-0.8571428254
 20
51.678570694
 10
-1.2857142735
 20
51.2500017242
 10
-1.9285714102
 20
51.2500017242
 10
-2.3571427875
 20
51.678570694
  0
LWPOLYLINE
  5
347
100
AcDbEntity
  8
RACCORDO
100
AcDbPolyline
 62
250
  6
CONTINUOUS
 90
25
 70
0
 10
42.8780757241
 20
38.5793484958
 10
42.869698757
 20
38.756704701
 10
42.849406565
 20
38.9341033783
 10
42.8171869544
 20
39.1106367353
 10
42.7731302589
 20
39.2854270443
 10
42.717421456
 20
39.4577579021
 10
42.6502128217
 20
39.6269795179
 10
42.5716588065
 20
39.7924747692
 10
42.4821516975
 20
39.9533423599
 10
42.3822594871
 20
40.1085189531
 10
42.2725878643
 20
40.2570890437
 10
42.1535235828
 20
40.3986400393
 10
42.0253102076
 20
40.5328429213
 10
41.8880758379
 20
40.6593411537
 10
41.7427280465
 20
40.7771281666
 10
41.5907629535
 20
40.8849969652
 10
41.432749922
 20
40.9825878909
 10
41.2696190875
 20
41.0694041503
 10
41.1036683828
 20
41.1445089656
 10
40.9357344164
 20
41.2079101916
 10
40.7667123728
 20
41.2596612389
 10
40.5991402691
 20
41.2995879064
 10
40.4343986579
 20
41.3281325601
 10
40.2726487705
 20
41.3460218
 10
40.1145904154
 20
41.3539264326
  0
LWPOLYLINE
  5
348
100
AcDbEntity
  8
RACCORDO
100
AcDbPolyline
 62
250
  6
CONTINUOUS
 90
13
 70
0
 10
40.1145903079
 20
41.3539262249
 10
40.110230019
 20
41.4582676274
 10
40.1044375184
 20
41.5584984446
 10
40.0972818081
 20
41.6534247058
 10
40.0888481289
 20
41.7419156292
 10
40.0792369451
 20
41.8229170922
 10
40.0685627476
 20
41.8954641881
 10
40.05695269
 20
41.9586927206
 10
40.0445450746
 20
42.0118494979
 10
40.0314877039
 20
42.0543013052
 10
40.0179361206
 20
42.0855424477
 10
40.0040517547
 20
42.1052007741
 10
39.99
 20
42.1130421103
  0
LWPOLYLINE
  5
349
100
AcDbEntity
  8
0
100
AcDbPolyline
 62
7
  6
CONTINUOUS
 90
25
 70
0
 10
43.7484878322
 20
38.4900000018
 10
43.7407845537
 20
38.7163755943
 10
43.719514729
 20
38.9411945671
 10
43.684678358
 20
39.16407427
 10
43.6352079356
 20
39.3866938597
 10
43.572170967
 20
39.6065455497
 10
43.4987699679
 20
39.8172488742
 10
43.4147264579
 20
40.0175288771
 10
43.3203189173
 20
40.2086491077
 10
43.2195853028
 20
40.3885210972
 10
43.1123754725
 20
40.5572489184
 10
42.9988395683
 20
40.7152163529
 10
42.8834659721
 20
40.8610562105
 10
42.7669475245
 20
40.994445319
 10
42.648591385
 20
41.1166205687
 10
42.5308074135
 20
41.2286492269
 10
42.414969724
 20
41.3302309464
 10
42.2997042026
 20
41.4225181036
 10
42.1832983665
 20
41.5085420697
 10
42.0662703722
 20
41.5888303303
 10
41.9481020632
 20
41.6633021569
 10
41.825526488
 20
41.7338060731
 10
41.6977077183
 20
41.8013589771
 10
41.5654816824
 20
41.8651601396
 10
41.4280892134
 20
41.9242962139
  0
LWPOLYLINE
  5
34A
100
AcDbEntity
  8
RACCORDO
100
AcDbPolyline
 62
250
  6
CONTINUOUS
 90
25
 70
0
 10
43.6148052695
 20
38.49
 10
43.6071715927
 20
38.7290816734
 10
43.583706496
 20
38.9674637338
 10
43.5444491779
 20
39.2040917947
 10
43.4895138829
 20
39.4378882446
 10
43.4190801026
 20
39.6678298017
 10
43.3333765658
 20
39.8929488871
 10
43.2326309957
 20
40.112378268
 10
43.1172800207
 20
40.324937722
 10
42.9880370316
 20
40.5292595411
 10
42.845722559
 20
40.7241460569
 10
42.6907927492
 20
40.9090601237
 10
42.523481999
 20
41.0836496565
 10
42.3439724673
 20
41.2474679649
 10
42.153418513
 20
41.3992173335
 10
41.9536610275
 20
41.5374439063
 10
41.7454351502
 20
41.6617704027
 10
41.5299679398
 20
41.771588721
 10
41.3102196048
 20
41.8657710965
 10
41.087263839
 20
41.944437659
 10
40.8623288077
 20
42.0077160105
 10
40.6388552437
 20
42.055428128
 10
40.4187322309
 20
42.0882415846
 10
40.2021589752
 20
42.1071614294
 10
39.99
 20
42.1130421103
  0
LWPOLYLINE
  5
34B
100
AcDbEntity
  8
RACCORDO
100
AcDbPolyline
 62
250
  6
CONTINUOUS
 90
5
 70
0
 10
42.9089754259
 20
35.2342243032
 10
42.9030974569
 20
36.1148396678
 10
42.8958984859
 20
36.9660314215
 10
42.8875547363
 20
37.7875961538
 10
42.8780790187
 20
38.5793496156
  0
LINE
  5
34C
100
AcDbEntity
  8
RACCORDO
100
AcDbLine
 62
250
  6
CONTINUOUS
 10
42.9176965125
 20
33.3838574665
 11
42.9089754259
 21
35.2342243032
  0
LINE
  5
34D
100
AcDbEntity
  8
RACCORDO
100
AcDbLine
 62
250
  6
CONTINUOUS
 10
42.9236487852
 20
31.4150943708
 11
42.9176965125
 21
33.3838574665
  0
LINE
  5
34E
100
AcDbEntity
  8
RACCORDO
100
AcDbLine
 62
250
  6
CONTINUOUS
 10
42.9291770959
 20
28.2178047711
 11
42.9236487852
 21
31.4150943708
  0
LINE
  5
34F
100
AcDbEntity
  8
RACCORDO
100
AcDbLine
 62
250
  6
CONTINUOUS
 10
43.8633470193
 20
38.5
 11
43.8653962173
 21
37.6130881582
  0
LINE
  5
350
100
AcDbEntity
  8
RACCORDO
100
AcDbLine
 62
250
  6
CONTINUOUS
 10
43.8653962173
 20
37.6130881582
 11
43.8724493082
 21
23.5833211686
  0
LINE
  5
351
100
AcDbEntity
  8
RACCORDO
100
AcDbLine
 62
250
  6
CONTINUOUS
 10
42.9329537836
 20
22.1086943394
 11
42.9291770959
 21
28.2178047711
  0
LINE
  5
352
100
AcDbEntity
  8
ASSI
100
AcDbLine
 62
7
  6
CONTINUOUS
 10
43.75
 20
-38.49
 11
43.75
 21
37.5
  0
LINE
  5
353
100
AcDbEntity
  8
RACCORDO
100
AcDbLine
 62
250
  6
CONTINUOUS
 10
43.8724493082
 20
23.5833211686
 11
43.874939152
 21
3.6759929693
  0
LINE
  5
354
100
AcDbEntity
  8
DRAFT
100
AcDbLine
 62
7
  6
CONTINUOUS
 10
44.0
 20
-38.5
 11
44.0
 21
38.5
  0
LINE
  5
355
100
AcDbEntity
  8
RACCORDO
100
AcDbLine
 62
250
  6
CONTINUOUS
 10
43.606104915
 20
-38.49
 11
43.6048209612
 21
2.9948985448
  0
LINE
  5
356
100
AcDbEntity
  8
RACCORDO
100
AcDbLine
 62
250
  6
CONTINUOUS
 10
43.874939152
 20
3.6759929693
 11
43.869183239
 21
-38.5
  0
LINE
  5
357
100
AcDbEntity
  8
RACCORDO
100
AcDbLine
 62
250
  6
CONTINUOUS
 10
43.6048209612
 20
2.9948985448
 11
43.6098092831
 21
32.3959575253
  0
LINE
  5
358
100
AcDbEntity
  8
RACCORDO
100
AcDbLine
 62
250
  6
CONTINUOUS
 10
42.9229328966
 20
3.00091836
 11
42.9329537836
 21
22.1086943394
  0
LINE
  5
359
100
AcDbEntity
  8
RACCORDO
100
AcDbLine
 62
250
  6
CONTINUOUS
 10
43.6098092831
 20
32.3959575253
 11
43.6127183562
 21
36.9070853185
  0
LINE
  5
35A
100
AcDbEntity
  8
RACCORDO
100
AcDbLine
 62
250
  6
CONTINUOUS
 10
43.6127183562
 20
36.9070853185
 11
43.6148052695
 21
38.49
  0
LINE
  5
35B
100
AcDbEntity
  8
RACCORDO
100
AcDbLine
 62
250
  6
CONTINUOUS
 10
42.8817824128
 20
-36.5884233241
 11
42.9229328966
 21
3.00091836
  0
LINE
  5
35C
100
AcDbEntity
  8
RACCORDO
100
AcDbLine
 62
250
  6
CONTINUOUS
 10
42.880585946
 20
-36.9878920449
 11
42.8817824128
 21
-36.5884233241
  0
LINE
  5
35D
100
AcDbEntity
  8
RACCORDO
100
AcDbLine
 62
250
  6
CONTINUOUS
 10
42.8787813459
 20
-37.5417540794
 11
42.880585946
 21
-36.9878920449
  0
LINE
  5
35E
100
AcDbEntity
  8
RACCORDO
100
AcDbLine
 62
250
  6
CONTINUOUS
 10
42.8769660101
 20
-38.0456426976
 11
42.8787813459
 21
-37.5417540794
  0
LINE
  5
35F
100
AcDbEntity
  8
RACCORDO
100
AcDbLine
 62
250
  6
CONTINUOUS
 10
42.8751390336
 20
-38.5050511515
 11
42.8769660101
 21
-38.0456426976
  0
LWPOLYLINE
  5
360
100
AcDbEntity
  8
RACCORDO
100
AcDbPolyline
 62
250
  6
CONTINUOUS
 90
67
 70
0
 10
43.869183239
 20
-38.5
 10
43.8680804903
 20
-38.5920693232
 10
43.8647861556
 20
-38.6841104548
 10
43.8593003744
 20
-38.7760711886
 10
43.851623684
 20
-38.8679081532
 10
43.8417591402
 20
-38.9595602223
 10
43.8297144259
 20
-39.050948772
 10
43.8154963618
 20
-39.1420230995
 10
43.799113329
 20
-39.2327304022
 10
43.7805812152
 20
-39.3229897717
 10
43.7599151345
 20
-39.4127409333
 10
43.7371272026
 20
-39.5019432225
 10
43.7122327594
 20
-39.5905460992
 10
43.6852506863
 20
-39.6784922257
 10
43.6561963671
 20
-39.7657405537
 10
43.6250800408
 20
-39.8522651307
 10
43.5919204939
 20
-39.9380158196
 10
43.5567365297
 20
-40.022945968
 10
43.5195365934
 20
-40.1070342078
 10
43.4803389305
 20
-40.1902355166
 10
43.4391657397
 20
-40.2724991864
 10
43.3960300157
 20
-40.3537946083
 10
43.350948562
 20
-40.4340834523
 10
43.3039492417
 20
-40.5133097151
 10
43.2550629102
 20
-40.5914168382
 10
43.2043115855
 20
-40.6683655929
 10
43.1517263078
 20
-40.7441050126
 10
43.097355862
 20
-40.8185636643
 10
43.0412333218
 20
-40.8916973656
 10
42.983389334
 20
-40.9634672561
 10
42.9238739475
 20
-41.0338135806
 10
42.8627350614
 20
-41.1026844271
 10
42.7999974246
 20
-41.1700564911
 10
42.7356775506
 20
-41.2359139996
 10
42.6698121053
 20
-41.3002198261
 10
42.6024385177
 20
-41.3629378335
 10
42.5335727765
 20
-41.4240520915
 10
42.4632377814
 20
-41.4835389208
 10
42.391486505
 20
-41.5413502288
 10
42.3183811965
 20
-41.5974348206
 10
42.2439658453
 20
-41.6517593357
 10
42.1682804384
 20
-41.7042949636
 10
42.0913843912
 20
-41.7550015564
 10
42.0133283289
 20
-41.803847947
 10
41.9341513157
 20
-41.8508118717
 10
41.8538970489
 20
-41.8958691724
 10
41.7726139228
 20
-41.9389944285
 10
41.6903463522
 20
-41.9801658009
 10
41.6071324682
 20
-42.0193654146
 10
41.5230213637
 20
-42.0565710211
 10
41.4380591391
 20
-42.0917630951
 10
41.3522794171
 20
-42.1249278914
 10
41.2657354296
 20
-42.1560446097
 10
41.1784711142
 20
-42.1850972347
 10
41.0905056949
 20
-42.212077782
 10
41.0018754941
 20
-42.2369718835
 10
40.9126424533
 20
-42.2597589353
 10
40.822864367
 20
-42.280421773
 10
40.7325818744
 20
-42.2989485785
 10
40.6418554838
 20
-42.3153244832
 10
40.5507739566
 20
-42.3295327684
 10
40.4593947734
 20
-42.341565352
 10
40.367764232
 20
-42.3514170183
 10
40.27595518
 20
-42.3590813581
 10
40.1840267878
 20
-42.3645558461
 10
40.0920243411
 20
-42.3678401941
 10
40.0
 20
-42.3689346968
  0
LWPOLYLINE
  5
361
100
AcDbEntity
  8
RACCORDO
100
AcDbPolyline
 62
250
  6
CONTINUOUS
 90
25
 70
0
 10
-40.1145903607
 20
41.3539263269
 10
-40.2730012417
 20
41.3459870608
 10
-40.4349797299
 20
41.3280423781
 10
-40.5998147703
 20
41.299452042
 10
-40.767270464
 20
41.2595102755
 10
-40.9360314061
 20
41.207806258
 10
-41.1037324761
 20
41.1444872474
 10
-41.2695176303
 20
41.0694552577
 10
-41.432514283
 20
40.9827180443
 10
-41.5904630742
 20
40.8851982727
 10
-41.7424276397
 20
40.7773600839
 10
-41.8878220915
 20
40.6595583147
 10
-42.0251515884
 20
40.5329995942
 10
-42.1535071984
 20
40.3986610029
 10
-42.2727287887
 20
40.2569058331
 10
-42.3825317073
 20
40.1081235987
 10
-42.482508962
 20
39.9527548368
 10
-42.572064373
 20
39.7916826543
 10
-42.6506528721
 20
39.6259569467
 10
-42.7179196313
 20
39.4563767423
 10
-42.7736339258
 20
39.2836643301
 10
-42.8175854194
 20
39.1087906418
 10
-42.8496425214
 20
38.9325915071
 10
-42.8697783357
 20
38.7558130747
 10
-42.8780758915
 20
38.579348553
  0
LWPOLYLINE
  5
362
100
AcDbEntity
  8
RACCORDO
100
AcDbPolyline
 62
250
  6
CONTINUOUS
 90
25
 70
0
 10
-39.99
 20
42.1130421103
 10
-40.2026727384
 20
42.1071319326
 10
-40.4195581245
 20
42.088144174
 10
-40.6397910447
 20
42.0552589521
 10
-40.8631027218
 20
42.0075250413
 10
-41.0876886049
 20
41.9443032534
 10
-41.3103338336
 20
41.865726539
 10
-41.5298646944
 20
41.7716370513
 10
-41.7451533943
 20
41.6619260441
 10
-41.9532848135
 20
41.5376859183
 10
-42.1530387175
 20
41.3994993703
 10
-42.3436556884
 20
41.2477381129
 10
-42.5232850724
 20
41.0838418719
 10
-42.6907807597
 20
40.9090735036
 10
-42.8459220467
 20
40.7238911741
 10
-42.9884063687
 20
40.5287166115
 10
-43.1177551851
 20
40.324127691
 10
-43.2331734106
 20
40.1112934007
 10
-43.3339603907
 20
39.8915557692
 10
-43.4197238082
 20
39.6659513101
 10
-43.4901612047
 20
39.4354893409
 10
-43.5449544001
 20
39.2015633167
 10
-43.5839840961
 20
38.9653579155
 10
-43.607253826
 20
38.7278198332
 10
-43.6148052695
 20
38.49
  0
LINE
  5
363
100
AcDbEntity
  8
RACCORDO
100
AcDbLine
 62
250
  6
CONTINUOUS
 10
-39.0286393556
 20
41.3741478228
 11
-40.114590099
 21
41.3539258212
  0
LINE
  5
364
100
AcDbEntity
  8
RACCORDO
100
AcDbLine
 62
250
  6
CONTINUOUS
 10
-38.0251357064
 20
41.3902113177
 11
-39.0286393556
 21
41.3741478228
  0
LINE
  5
365
100
AcDbEntity
  8
RACCORDO
100
AcDbLine
 62
250
  6
CONTINUOUS
 10
-36.6239850015
 20
41.4076953857
 11
-38.0251357064
 21
41.3902113177
  0
LINE
  5
366
100
AcDbEntity
  8
RACCORDO
100
AcDbLine
 62
250
  6
CONTINUOUS
 10
-35.2172144299
 20
41.4204189179
 11
-36.6239850015
 21
41.4076953857
  0
LINE
  5
367
100
AcDbEntity
  8
RACCORDO
100
AcDbLine
 62
250
  6
CONTINUOUS
 10
-33.1829827583
 20
41.4325933923
 11
-35.2172144299
 21
41.4204189179
  0
LINE
  5
368
100
AcDbEntity
  8
RACCORDO
100
AcDbLine
 62
250
  6
CONTINUOUS
 10
-30.834666557
 20
41.4408714091
 11
-33.1829827583
 21
41.4325933923
  0
LWPOLYLINE
  5
369
100
AcDbEntity
  8
RACCORDO
100
AcDbPolyline
 62
250
  6
CONTINUOUS
 90
3
 70
0
 10
39.99
 20
42.1130421103
 10
37.4512687675
 20
42.1087015675
 10
36.984112616
 20
42.1081660589
  0
LINE
  5
36A
100
AcDbEntity
  8
RACCORDO
100
AcDbLine
 62
250
  6
CONTINUOUS
 10
-25.9235513601
 20
41.4488524713
 11
-30.834666557
 21
41.4408714091
  0
LINE
  5
36B
100
AcDbEntity
  8
RACCORDO
100
AcDbLine
 62
250
  6
CONTINUOUS
 10
36.984112616
 20
42.1081660589
 11
33.0352099274
 21
42.1055648867
  0
LINE
  5
36C
100
AcDbEntity
  8
RACCORDO
100
AcDbLine
 62
7
  6
CONTINUOUS
 10
-41.3067066756
 20
42.0916407392
 11
-40.9149573841
 21
42.0916407392
  0
LINE
  5
36D
100
AcDbEntity
  8
RACCORDO
100
AcDbLine
 62
7
  6
CONTINUOUS
 10
40.9138046316
 20
42.0916407392
 11
41.3067066756
 21
42.0916407392
  0
LINE
  5
36E
100
AcDbEntity
  8
0
100
AcDbLine
 62
7
  6
CONTINUOUS
 10
39.99
 20
42.1993909428
 11
-39.99
 21
42.1993909428
  0
LINE
  5
36F
100
AcDbEntity
  8
DRAFT
100
AcDbLine
 62
7
  6
CONTINUOUS
 10
-40.0
 20
42.3219583377
 11
40.0
 21
42.3219583377
  0
LINE
  5
370
100
AcDbEntity
  8
DRAFT
100
AcDbLine
 62
7
  6
CONTINUOUS
 10
40.0
 20
42.5
 11
-40.0
 21
42.5
  0
LINE
  5
371
100
AcDbEntity
  8
RACCORDO
100
AcDbLine
 62
250
  6
CONTINUOUS
 10
33.0352099274
 20
42.1055648867
 11
-31.4418602338
 21
42.105123311
  0
LINE
  5
372
100
AcDbEntity
  8
RACCORDO
100
AcDbLine
 62
250
  6
CONTINUOUS
 10
29.3625307584
 20
41.4441251061
 11
-25.9235513601
 21
41.4488524713
  0
LWPOLYLINE
  5
373
100
AcDbEntity
  8
RACCORDO
100
AcDbPolyline
 62
250
  6
CONTINUOUS
 90
3
 70
0
 10
-31.4418602338
 20
42.105123311
 10
-39.4516233869
 20
42.111925228
 10
-39.99
 20
42.1130421103
  0
LINE
  5
374
100
AcDbEntity
  8
RACCORDO
100
AcDbLine
 62
250
  6
CONTINUOUS
 10
32.4895856155
 20
41.4355449832
 11
29.3625307584
 21
41.4441251061
  0
LINE
  5
375
100
AcDbEntity
  8
RACCORDO
100
AcDbLine
 62
250
  6
CONTINUOUS
 10
34.6373019499
 20
41.4245194764
 11
32.4895856155
 21
41.4355449832
  0
LINE
  5
376
100
AcDbEntity
  8
RACCORDO
100
AcDbLine
 62
250
  6
CONTINUOUS
 10
36.0979092356
 20
41.41293829
 11
34.6373019499
 21
41.4245194764
  0
LINE
  5
377
100
AcDbEntity
  8
RACCORDO
100
AcDbLine
 62
250
  6
CONTINUOUS
 10
37.5178784058
 20
41.3971219999
 11
36.0979092356
 21
41.41293829
  0
LINE
  5
378
100
AcDbEntity
  8
RACCORDO
100
AcDbLine
 62
250
  6
CONTINUOUS
 10
38.4926916188
 20
41.383103461
 11
37.5178784058
 21
41.3971219999
  0
LWPOLYLINE
  5
379
100
AcDbEntity
  8
RACCORDO
100
AcDbPolyline
 62
250
  6
CONTINUOUS
 90
3
 70
0
 10
40.1145903079
 20
41.3539262249
 10
39.5550691272
 20
41.3646639967
 10
38.4926916188
 20
41.383103461
  0
LWPOLYLINE
  5
37A
100
AcDbEntity
  8
0
100
AcDbPolyline
 62
7
  6
CONTINUOUS
 90
13
 70
0
 43
0.3500000006
 10
0.4285714127
 20
52.9642866669
 10
0.1428571435
 20
53.1785711517
 10
0.1428571435
 20
53.8214291382
 10
0.4285714127
 20
54.2499981079
 10
1.0714285848
 20
54.2499981079
 10
1.3571429071
 20
53.8214291382
 10
1.3571429071
 20
53.1785711517
 10
1.0714285848
 20
52.9642866669
 10
1.5000000329
 20
52.5357131653
 10
1.5000000329
 20
51.678570694
 10
1.0714285848
 20
51.2500017242
 10
0.4285714127
 20
51.2500017242
 10
0.0
 20
51.678570694
  0
LINE
  5
37B
100
AcDbEntity
  8
0
100
AcDbLine
 62
7
  6
CONTINUOUS
 10
31.9694559627
 20
-42.5
 11
32.0
 21
-42.4389072728
  0
LINE
  5
37C
100
AcDbEntity
  8
DRAFT
100
AcDbLine
 62
7
  6
CONTINUOUS
 10
31.9694559627
 20
-42.5
 11
32.0
 21
-42.4389072728
  0
LWPOLYLINE
  5
37D
100
AcDbEntity
  8
0
100
AcDbPolyline
 62
7
  6
CONTINUOUS
 90
7
 70
0
 10
-40.5
 20
42.1723447486
 10
-40.6631855253
 20
42.1467452473
 10
-40.8271960284
 20
42.1135348356
 10
-40.9920315093
 20
42.0724128191
 10
-41.1579678573
 20
42.022979064
 10
-41.3247291831
 20
41.9648509822
 10
-41.4914878185
 20
41.8976756663
  0
LWPOLYLINE
  5
37E
100
AcDbEntity
  8
RACCORDO
100
AcDbPolyline
 62
7
  6
CONTINUOUS
 90
52
 70
0
 10
41.3067066756
 20
42.0916407392
 10
41.3942622031
 20
42.0596122783
 10
41.4822900028
 20
42.0249554217
 10
41.5707011954
 20
41.9875961102
 10
41.6595891663
 20
41.9473773197
 10
41.7486642053
 20
41.9043038937
 10
41.8372754415
 20
41.858591076
 10
41.9253599087
 20
41.8102039741
 10
42.0128058392
 20
41.7591346599
 10
42.0989325057
 20
41.7057342776
 10
42.1836031471
 20
41.6500856664
 10
42.2668325713
 20
41.5921778585
 10
42.3482139616
 20
41.5323004364
 10
42.4276552437
 20
41.4705597345
 10
42.5051731126
 20
41.4069834117
 10
42.5805569488
 20
41.3417864787
 10
42.6537513447
 20
41.2750801336
 10
42.7247734003
 20
41.2069146525
 10
42.7935410863
 20
41.1374325902
 10
42.8600280735
 20
41.066736465
 10
42.9242481321
 20
40.9948903415
 10
42.9861888297
 20
40.9219836431
 10
43.0458416587
 20
40.8481082124
 10
43.103219594
 20
40.7733327498
 10
43.1583450504
 20
40.6977094842
 10
43.211219758
 20
40.6213201695
 10
43.2618571231
 20
40.5442326998
 10
43.3102953933
 20
40.4664730388
 10
43.3565418472
 20
40.3881140487
 10
43.4006104233
 20
40.3092200838
 10
43.4425449519
 20
40.2297979284
 10
43.4823553538
 20
40.149912804
 10
43.5200556492
 20
40.0696244294
 10
43.5556896329
 20
39.9889249804
 10
43.5892680239
 20
39.9078731475
 10
43.6208042538
 20
39.8265239069
 10
43.6503387951
 20
39.7448580638
 10
43.6778819381
 20
39.6629287641
 10
43.7034458535
 20
39.5807866889
 10
43.7270656142
 20
39.4984039453
 10
43.7487501866
 20
39.4158292504
 10
43.768509979
 20
39.3331095337
 10
43.7863734303
 20
39.250210134
 10
43.8023476031
 20
39.1671761553
 10
43.8164406683
 20
39.0840517095
 10
43.8286735458
 20
39.0007975311
 10
43.8390510638
 20
38.9174552614
 10
43.8475787549
 20
38.8340678429
 10
43.854269366
 20
38.7505958581
 10
43.8591266382
 20
38.667053198
 10
43.8621511507
 20
38.5835077008
 10
43.8633470193
 20
38.5
  0
LWPOLYLINE
  5
37F
100
AcDbEntity
  8
0
100
AcDbPolyline
 62
7
  6
CONTINUOUS
 90
7
 70
0
 10
41.4280892134
 20
41.9242962139
 10
41.285044699
 20
41.9792887284
 10
41.1368337516
 20
42.0299688212
 10
40.9841540411
 20
42.0745547222
 10
40.8272381239
 20
42.1126654618
 10
40.6658534435
 20
42.1451947095
 10
40.5
 20
42.1723447486
  0
LWPOLYLINE
  5
380
100
AcDbEntity
  8
RACCORDO
100
AcDbPolyline
 62
250
  6
CONTINUOUS
 90
14
 70
0
 10
41.3067066756
 20
42.0916407392
 10
41.3922523464
 20
42.0493853527
 10
41.4777598441
 20
42.0046094316
 10
41.5632291687
 20
41.9572371967
 10
41.6489310951
 20
41.9070274835
 10
41.7345948485
 20
41.8540601118
 10
41.8194081043
 20
41.7987607446
 10
41.9033578493
 20
41.7410308055
 10
41.9864570968
 20
41.6808512507
 10
42.0679325624
 20
41.6188179064
 10
42.1476737371
 20
41.5549514641
 10
42.2257911299
 20
41.4891764615
 10
42.3018429834
 20
41.4219965456
 10
42.3112450774
 20
41.4132779205
  0
LWPOLYLINE
  5
381
100
AcDbEntity
  8
0
100
AcDbPolyline
 62
7
  6
CONTINUOUS
 90
3
 70
0
 43
0.3500000006
 10
-91.9444855957
 20
53.3928556366
 10
-91.0873385925
 20
54.2499981079
 10
-91.0873385925
 20
51.2500017242
  0
LINE
  5
382
100
AcDbEntity
  8
RACCORDO
100
AcDbLine
 62
7
  6
CONTINUOUS
 10
-79.3301966214
 20
-42.5
 11
-86.8389228108
 21
-42.3689346968
  0
LINE
  5
383
100
AcDbEntity
  8
RACCORDO
100
AcDbLine
 62
7
  6
CONTINUOUS
 10
-97.5627277058
 20
-42.0748815185
 11
-87.5301966214
 21
-42.25
  0
LINE
  5
384
100
AcDbEntity
  8
DRAFT
100
AcDbLine
 62
7
  6
CONTINUOUS
 10
-96.3030884145
 20
-42.0968686041
 11
-97.5301966214
 21
-42.0754493507
  0
LINE
  5
385
100
AcDbEntity
  8
RACCORDO
100
AcDbLine
 62
7
  6
CONTINUOUS
 10
-97.6530109591
 20
-42.0692136248
 11
-97.5627301705
 21
-42.0748814755
  0
LINE
  5
386
100
AcDbEntity
  8
RACCORDO
100
AcDbLine
 62
7
  6
CONTINUOUS
 10
-97.7438311029
 20
-42.0551239222
 11
-97.6530702567
 21
-42.0692072231
  0
LWPOLYLINE
  5
387
100
AcDbEntity
  8
RACCORDO
100
AcDbPolyline
 62
250
  6
CONTINUOUS
 90
31
 70
0
 10
-96.3030884145
 20
-42.0968686041
 10
-96.2857822803
 20
-42.0950847064
 10
-96.2678938236
 20
-42.0888338519
 10
-96.2494230444
 20
-42.0776506695
 10
-96.2303659358
 20
-42.0610844434
 10
-96.2107265047
 20
-42.0386445739
 10
-96.1905167716
 20
-42.0097413497
 10
-96.1697260099
 20
-41.9738549149
 10
-96.1483649463
 20
-41.9304295544
 10
-96.1264777807
 20
-41.8786771222
 10
-96.1040258974
 20
-41.8179806348
 10
-96.0810479121
 20
-41.7477318565
 10
-96.0577038731
 20
-41.6669883793
 10
-96.0339231426
 20
-41.5750679613
 10
-96.0097763584
 20
-41.4713714896
 10
-95.9856354815
 20
-41.3549615343
 10
-95.961361458
 20
-41.2248857949
 10
-95.9370933419
 20
-41.0809453637
 10
-95.913620257
 20
-40.9235135135
 10
-95.8908390617
 20
-40.7516048146
 10
-95.8688528977
 20
-40.5658925335
 10
-95.8487603132
 20
-40.3700449324
 10
-95.8306961058
 20
-40.164402325
 10
-95.814525478
 20
-39.9499582137
 10
-95.8009425858
 20
-39.7324048146
 10
-95.7902245727
 20
-39.5125881416
 10
-95.7820942953
 20
-39.2919452293
 10
-95.7764144789
 20
-39.0777098082
 10
-95.7731393654
 20
-38.8730886145
 10
-95.772314713
 20
-38.6769469332
 10
-95.7739405217
 20
-38.49
  0
LINE
  5
388
100
AcDbEntity
  8
RACCORDO
100
AcDbLine
 62
250
  6
CONTINUOUS
 10
-97.7376786301
 20
-41.1761330382
 11
-97.2653318472
 21
-41.1588259947
  0
LINE
  5
389
100
AcDbEntity
  8
RACCORDO
100
AcDbLine
 62
250
  6
CONTINUOUS
 10
-97.8844940888
 20
-41.1805019246
 11
-97.7376786301
 21
-41.1761330382
  0
LINE
  5
38A
100
AcDbEntity
  8
RACCORDO
100
AcDbLine
 62
250
  6
CONTINUOUS
 10
-97.9740503234
 20
-41.1827300589
 11
-97.8844940888
 21
-41.1805019246
  0
LINE
  5
38B
100
AcDbEntity
  8
RACCORDO
100
AcDbLine
 62
250
  6
CONTINUOUS
 10
-98.0638392727
 20
-41.1845317221
 11
-97.9740503234
 21
-41.1827300589
  0
LINE
  5
38C
100
AcDbEntity
  8
RACCORDO
100
AcDbLine
 62
250
  6
CONTINUOUS
 10
-98.1531215662
 20
-41.1859139626
 11
-98.0638392727
 21
-41.1845317221
  0
LINE
  5
38D
100
AcDbEntity
  8
RACCORDO
100
AcDbLine
 62
250
  6
CONTINUOUS
 10
-98.2411320733
 20
-41.1868807828
 11
-98.1531215662
 21
-41.1859139626
  0
LINE
  5
38E
100
AcDbEntity
  8
RACCORDO
100
AcDbLine
 62
250
  6
CONTINUOUS
 10
-98.2975409375
 20
-41.1872361152
 11
-98.2411320733
 21
-41.1868807828
  0
LINE
  5
38F
100
AcDbEntity
  8
RACCORDO
100
AcDbLine
 62
7
  6
CONTINUOUS
 10
-95.5656182782
 20
-42.1243235325
 11
-94.7301966214
 21
-42.1243235325
  0
LINE
  5
390
100
AcDbEntity
  8
RACCORDO
100
AcDbLine
 62
250
  6
CONTINUOUS
 10
-98.3743551676
 20
-41.1873196496
 11
-98.2975409375
 21
-41.1872361152
  0
LINE
  5
391
100
AcDbEntity
  8
SUPERFICI
100
AcDbLine
 62
7
  6
CONTINUOUS
 10
-77.7643931882
 20
-39.5804442346
 11
-79.3301966214
 21
-40.0
  0
LWPOLYLINE
  5
392
100
AcDbEntity
  8
RACCORDO
100
AcDbPolyline
 62
250
  6
CONTINUOUS
 90
31
 70
0
 10
-97.2653317158
 20
-41.1588259864
 10
-97.2477236639
 20
-41.1566684537
 10
-97.2294763582
 20
-41.1512046799
 10
-97.2106043753
 20
-41.1420931837
 10
-97.191146452
 20
-41.1290095157
 10
-97.1710989978
 20
-41.1115974924
 10
-97.1504176622
 20
-41.0894248629
 10
-97.1291432144
 20
-41.0621167186
 10
-97.1073013607
 20
-41.029273464
 10
-97.0848373925
 20
-40.990323073
 10
-97.0618057029
 20
-40.9448169821
 10
-97.038274909
 20
-40.8923229633
 10
-97.0142322966
 20
-40.8321718849
 10
-96.9897678222
 20
-40.7638605485
 10
-96.9650127386
 20
-40.6869664641
 10
-96.9400480465
 20
-40.6008487043
 10
-96.914975279
 20
-40.5047955513
 10
-96.8900721044
 20
-40.3986737277
 10
-96.8657059409
 20
-40.2828256961
 10
-96.8420162991
 20
-40.1565176324
 10
-96.8193954017
 20
-40.0202322149
 10
-96.7985138018
 20
-39.8767036396
 10
-96.7795665766
 20
-39.7261918381
 10
-96.7627944148
 20
-39.5693937889
 10
-96.7486899961
 20
-39.4104529013
 10
-96.7372824872
 20
-39.2500250251
 10
-96.7286044129
 20
-39.0891432449
 10
-96.7227540473
 20
-38.9329897641
 10
-96.7195044622
 20
-38.7838794954
 10
-96.7185306114
 20
-38.6410451358
 10
-96.7195444395
 20
-38.5050511627
  0
LINE
  5
393
100
AcDbEntity
  8
RACCORDO
100
AcDbLine
 62
250
  6
CONTINUOUS
 10
-96.7195437177
 20
-38.5050511515
 11
-95.7739405217
 21
-38.49
  0
LWPOLYLINE
  5
394
100
AcDbEntity
  8
RACCORDO
100
AcDbPolyline
 62
250
  6
CONTINUOUS
 90
4
 70
0
 10
-87.2918873789
 20
-38.4991927337
 10
-87.3130507322
 20
-38.4994079465
 10
-87.3258921057
 20
-38.4996785462
 10
-87.3301966214
 20
-38.5
  0
LINE
  5
395
100
AcDbEntity
  8
RACCORDO
100
AcDbLine
 62
250
  6
CONTINUOUS
 10
-87.2261445869
 20
-38.4989421171
 11
-87.2918873789
 21
-38.4991927337
  0
LINE
  5
396
100
AcDbEntity
  8
RACCORDO
100
AcDbLine
 62
250
  6
CONTINUOUS
 10
-79.3301966214
 20
-38.5
 11
-86.8246838383
 21
-38.5
  0
LINE
  5
397
100
AcDbEntity
  8
RACCORDO
100
AcDbLine
 62
250
  6
CONTINUOUS
 10
-87.5301966214
 20
-38.49
 11
-95.7739405217
 21
-38.49
  0
LINE
  5
398
100
AcDbEntity
  8
SUPERFICI
100
AcDbLine
 62
250
  6
CONTINUOUS
 10
-77.3301966214
 20
-36.7
 11
-79.3301966214
 21
-36.7
  0
LINE
  5
399
100
AcDbEntity
  8
RACCORDO
100
AcDbLine
 62
250
  6
CONTINUOUS
 10
-86.9560776816
 20
-38.4994079445
 11
-87.2261445869
 21
-38.4989421171
  0
LINE
  5
39A
100
AcDbEntity
  8
RACCORDO
100
AcDbLine
 62
250
  6
CONTINUOUS
 10
-86.8246838309
 20
-38.5
 11
-86.9560776816
 21
-38.4994079445
  0
LWPOLYLINE
  5
39B
100
AcDbEntity
  8
0
100
AcDbPolyline
 62
7
  6
CONTINUOUS
 90
8
 70
0
 43
0.3500000006
 10
-109.8801930542
 20
0.107141922
 10
-109.8801930542
 20
0.9642866592
 10
-110.3087710876
 20
1.3928578949
 10
-111.1659090271
 20
1.3928578949
 10
-111.5944779968
 20
0.9642866592
 10
-111.5944779968
 20
0.107141922
 10
-112.8801939697
 20
0.107141922
 10
-112.8801939697
 20
1.3928578949
  0
LINE
  5
39C
100
AcDbEntity
  8
0
100
AcDbLine
 62
7
  6
CONTINUOUS
 10
-97.1484381431
 20
40.406656508
 11
-97.2118713591
 21
40.2171127797
  0
LINE
  5
39D
100
AcDbEntity
  8
0
100
AcDbLine
 62
7
  6
CONTINUOUS
 10
-97.0812934304
 20
40.603988917
 11
-97.1488784528
 21
40.4053514328
  0
LINE
  5
39E
100
AcDbEntity
  8
0
100
AcDbLine
 62
7
  6
CONTINUOUS
 10
-97.0098718878
 20
40.810330277
 11
-97.0817324396
 21
40.6027094114
  0
LINE
  5
39F
100
AcDbEntity
  8
0
100
AcDbLine
 62
7
  6
CONTINUOUS
 10
-96.9343894201
 20
41.0245977999
 11
-97.0103052146
 21
40.8090891
  0
LWPOLYLINE
  5
3A0
100
AcDbEntity
  8
0
100
AcDbPolyline
 62
7
  6
CONTINUOUS
 90
3
 70
0
 10
-96.7804700084
 20
41.4501372348
 10
-96.8550315336
 20
41.245845329
 10
-96.9348116285
 20
41.0234098438
  0
LINE
  5
3A1
100
AcDbEntity
  8
RACCORDO
100
AcDbLine
 62
7
  6
CONTINUOUS
 10
-87.3301966214
 20
-32.2872686779
 11
-87.5309429152
 21
-32.2855167915
  0
LINE
  5
3A2
100
AcDbEntity
  8
RACCORDO
100
AcDbLine
 62
7
  6
CONTINUOUS
 10
-99.8062450374
 20
-26.1324018413
 11
-99.8305021257
 21
-26.0995585562
  0
LWPOLYLINE
  5
3A3
100
AcDbEntity
  8
RACCORDO
100
AcDbPolyline
 62
7
  6
CONTINUOUS
 90
3
 70
0
 10
-99.8062450374
 20
-26.1324018413
 10
-99.7983303795
 20
-26.1433235603
 10
-99.7600362815
 20
-26.1976773621
  0
LINE
  5
3A4
100
AcDbEntity
  8
RACCORDO
100
AcDbLine
 62
7
  6
CONTINUOUS
 10
-99.7078142458
 20
-26.2761868271
 11
-99.8062450374
 21
-26.1324018413
  0
LWPOLYLINE
  5
3A5
100
AcDbEntity
  8
RACCORDO
100
AcDbPolyline
 62
7
  6
CONTINUOUS
 90
20
 70
0
 10
-99.7600362815
 20
-26.1976773621
 10
-99.7232099248
 20
-26.2524797874
 10
-99.6878699763
 20
-26.3076454147
 10
-99.6540051002
 20
-26.3631297851
 10
-99.6216027938
 20
-26.4188895299
 10
-99.5906728577
 20
-26.4748389562
 10
-99.5611979744
 20
-26.5309352644
 10
-99.5331598503
 20
-26.5871368427
 10
-99.5065598596
 20
-26.643358564
 10
-99.4813753588
 20
-26.6995595004
 10
-99.4575824812
 20
-26.7557009608
 10
-99.4351741312
 20
-26.8117006058
 10
-99.4141218682
 20
-26.8675228151
 10
-99.3943981052
 20
-26.9231296203
 10
-99.3759904685
 20
-26.9784349906
 10
-99.358864062
 20
-27.0334130907
 10
-99.3429889928
 20
-27.0880227839
 10
-99.3283524868
 20
-27.1421546712
 10
-99.3149174908
 20
-27.1957750125
 10
-99.3026454922
 20
-27.2488566382
  0
LINE
  5
3A6
100
AcDbEntity
  8
0
100
AcDbLine
 62
7
  6
CONTINUOUS
 10
-97.5926436428
 20
39.0071666013
 11
-97.6395599164
 21
38.8484521235
  0
LWPOLYLINE
  5
3A7
100
AcDbEntity
  8
RACCORDO
100
AcDbPolyline
 62
7
  6
CONTINUOUS
 90
14
 70
0
 10
-97.4520178005
 20
39.479372311
 10
-97.7462806474
 20
38.498344353
 10
-98.0114298741
 20
37.52143833
 10
-98.2476500385
 20
36.551928927
 10
-98.4544441224
 20
35.5977225094
 10
-98.6329479619
 20
34.6616203732
 10
-98.7849898288
 20
33.7429967297
 10
-98.9117724118
 20
32.8447196827
 10
-99.0146882029
 20
31.9695343365
 10
-99.0955883215
 20
31.1164639632
 10
-99.1562599525
 20
30.2826791146
 10
-99.1980769144
 20
29.4676310802
 10
-99.2222572791
 20
28.6731039938
 10
-99.2301103988
 20
27.8996367835
  0
LINE
  5
3A8
100
AcDbEntity
  8
0
100
AcDbLine
 62
7
  6
CONTINUOUS
 10
-97.5387819186
 20
39.186583944
 11
-97.5926436428
 21
39.0071666013
  0
LWPOLYLINE
  5
3A9
100
AcDbEntity
  8
RACCORDO
100
AcDbPolyline
 62
250
  6
CONTINUOUS
 90
13
 70
0
 10
-96.3216180221
 20
41.3539262249
 10
-96.2898993858
 20
41.4582676274
 10
-96.2470923472
 20
41.5584984446
 10
-96.1937068328
 20
41.6534247058
 10
-96.1303787819
 20
41.7419156292
 10
-96.0578625719
 20
41.8229170922
 10
-95.977022031
 20
41.8954641881
 10
-95.8888201489
 20
41.9586927206
 10
-95.794307605
 20
42.0118494979
 10
-95.6946102528
 20
42.0543013052
 10
-95.5909157082
 20
42.0855424477
 10
-95.4844592026
 20
42.1052007741
 10
-95.3765088683
 20
42.1130421103
  0
LINE
  5
3AA
100
AcDbEntity
  8
0
100
AcDbLine
 62
7
  6
CONTINUOUS
 10
-97.4661911958
 20
39.4238085671
 11
-97.5387819186
 21
39.186583944
  0
LINE
  5
3AB
100
AcDbEntity
  8
0
100
AcDbLine
 62
7
  6
CONTINUOUS
 10
-97.3252653758
 20
39.8702865072
 11
-97.4661911958
 21
39.4238085671
  0
LINE
  5
3AC
100
AcDbEntity
  8
0
100
AcDbLine
 62
7
  6
CONTINUOUS
 10
-97.2704304842
 20
40.0393221559
 11
-97.3256860968
 21
39.8689797729
  0
LINE
  5
3AD
100
AcDbEntity
  8
0
100
AcDbLine
 62
7
  6
CONTINUOUS
 10
-97.2114337492
 20
40.2184310913
 11
-97.2708614158
 21
40.0380035131
  0
LINE
  5
3AE
100
AcDbEntity
  8
RACCORDO
100
AcDbLine
 62
7
  6
CONTINUOUS
 10
-97.3864453963
 20
39.6784864709
 11
-97.4520178005
 21
39.479372311
  0
LINE
  5
3AF
100
AcDbEntity
  8
RACCORDO
100
AcDbLine
 62
7
  6
CONTINUOUS
 10
-87.5301966214
 20
-34.8521815275
 11
-87.3301966214
 21
-34.798591689
  0
LINE
  5
3B0
100
AcDbEntity
  8
0
100
AcDbLine
 62
7
  6
CONTINUOUS
 10
-99.3747847489
 20
-31.999978
 11
-99.1746802575
 21
-31.999978
  0
LINE
  5
3B1
100
AcDbEntity
  8
0
100
AcDbLine
 62
7
  6
CONTINUOUS
 10
-99.4101461292
 20
-30.8088806669
 11
-99.2101017225
 21
-30.8088806669
  0
LINE
  5
3B2
100
AcDbEntity
  8
0
100
AcDbLine
 62
7
  6
CONTINUOUS
 10
-99.4331614166
 20
-29.099855
 11
-99.2331575167
 21
-29.099855
  0
LINE
  5
3B3
100
AcDbEntity
  8
RACCORDO
100
AcDbLine
 62
7
  6
CONTINUOUS
 10
-87.3301966214
 20
-31.8834912292
 11
-87.5301966214
 21
-31.8765070753
  0
LINE
  5
3B4
100
AcDbEntity
  8
RACCORDO
100
AcDbLine
 62
250
  6
CONTINUOUS
 10
-87.3301966214
 20
-31.1224327591
 11
-87.5301966214
 21
-31.1154486052
  0
LWPOLYLINE
  5
3B5
100
AcDbEntity
  8
RACCORDO
100
AcDbPolyline
 62
7
  6
CONTINUOUS
 90
5
 70
0
 10
-99.3520430362
 20
-27.0563711661
 10
-99.4197556382
 20
-26.8522513374
 10
-99.5019174855
 20
-26.6535069929
 10
-99.5981063547
 20
-26.4611594642
 10
-99.7078279388
 20
-26.2761972105
  0
LWPOLYLINE
  5
3B6
100
AcDbEntity
  8
RACCORDO
100
AcDbPolyline
 62
7
  6
CONTINUOUS
 90
14
 70
0
 10
-98.5297738717
 20
-41.2504406382
 10
-98.5095035678
 20
-41.3401163065
 10
-98.4810870941
 20
-41.4275405701
 10
-98.4447675926
 20
-41.5119756282
 10
-98.4008547438
 20
-41.5927095008
 10
-98.3497222722
 20
-41.6690616765
 10
-98.2918048346
 20
-41.7403888952
 10
-98.2275946631
 20
-41.8060903666
 10
-98.1576353905
 20
-41.8656147107
 10
-98.0825171198
 20
-41.9184636422
 10
-98.0028716425
 20
-41.9641951196
 10
-97.9193749733
 20
-42.0024232947
 10
-97.8327404824
 20
-42.0328256202
 10
-97.7437028867
 20
-42.0551498367
  0
LINE
  5
3B7
100
AcDbEntity
  8
0
100
AcDbLine
 62
7
  6
CONTINUOUS
 10
-98.6025036473
 20
-40.5743470281
 11
-98.5397197295
 21
-41.180301466
  0
LINE
  5
3B8
100
AcDbEntity
  8
0
100
AcDbLine
 62
7
  6
CONTINUOUS
 10
-98.6631137205
 20
-39.9622158719
 11
-98.6025036473
 21
-40.5743470281
  0
LINE
  5
3B9
100
AcDbEntity
  8
0
100
AcDbLine
 62
7
  6
CONTINUOUS
 10
-98.7198106225
 20
-39.3610969676
 11
-98.6631137205
 21
-39.9622158719
  0
LWPOLYLINE
  5
3BA
100
AcDbEntity
  8
0
100
AcDbPolyline
 62
7
  6
CONTINUOUS
 90
3
 70
0
 43
0.3500000006
 10
-89.5159069519
 20
51.5357128601
 10
-89.5873381348
 20
51.3214283752
 10
-89.7302005005
 20
51.0357127075
  0
LWPOLYLINE
  5
3BB
100
AcDbEntity
  8
0
100
AcDbPolyline
 62
7
  6
CONTINUOUS
 90
13
 70
0
 43
0.3500000006
 10
-111.5944779968
 20
-1.8214286385
 10
-111.8087715454
 20
-2.1071431732
 10
-112.451625
 20
-2.1071431732
 10
-112.8801939697
 20
-1.8214286385
 10
-112.8801939697
 20
-1.178571785
 10
-112.451625
 20
-0.8928561172
 10
-111.8087715454
 20
-0.8928561172
 10
-111.5944779968
 20
-1.178571785
 10
-111.1659090271
 20
-0.7500005493
 10
-110.3087710876
 20
-0.7500005493
 10
-109.8801930542
 20
-1.178571785
 10
-109.8801930542
 20
-1.8214286385
 10
-110.3087710876
 20
-2.2499998741
  0
LINE
  5
3BC
100
AcDbEntity
  8
RACCORDO
100
AcDbLine
 62
250
  6
CONTINUOUS
 10
-87.3301966214
 20
-27.8713776008
 11
-87.5301966214
 21
-27.8684846695
  0
LINE
  5
3BD
100
AcDbEntity
  8
RACCORDO
100
AcDbLine
 62
250
  6
CONTINUOUS
 10
-87.3301966214
 20
-26.0340199206
 11
-87.5301966214
 21
-26.0311269894
  0
LINE
  5
3BE
100
AcDbEntity
  8
RACCORDO
100
AcDbLine
 62
7
  6
CONTINUOUS
 10
-99.2991316493
 20
-27.2648148608
 11
-99.352042879
 21
-27.0563672221
  0
LWPOLYLINE
  5
3BF
100
AcDbEntity
  8
RACCORDO
100
AcDbPolyline
 62
7
  6
CONTINUOUS
 90
3
 70
0
 10
-99.3026454922
 20
-27.2488566382
 10
-99.2915132583
 20
-27.3012991013
 10
-99.2814489785
 20
-27.3532377081
  0
LWPOLYLINE
  5
3C0
100
AcDbEntity
  8
RACCORDO
100
AcDbPolyline
 62
7
  6
CONTINUOUS
 90
6
 70
0
 10
-99.2814489785
 20
-27.3532377081
 10
-99.2724470923
 20
-27.4044827043
 10
-99.2645512849
 20
-27.4544382067
 10
-99.2576427279
 20
-27.5034467638
 10
-99.2517155511
 20
-27.5511030215
 10
-99.2468756144
 20
-27.595663602
  0
LWPOLYLINE
  5
3C1
100
AcDbEntity
  8
RACCORDO
100
AcDbPolyline
 62
250
  6
CONTINUOUS
 90
21
 70
0
 10
-98.5397206965
 20
-41.1803115501
 10
-98.5397087306
 20
-41.1803810645
 10
-98.5395419116
 20
-41.1806890267
 10
-98.5391337438
 20
-41.1810252229
 10
-98.5384077047
 20
-41.1813813717
 10
-98.5372859587
 20
-41.1817588267
 10
-98.5356820384
 20
-41.1821590982
 10
-98.5334985224
 20
-41.1825742812
 10
-98.5306403292
 20
-41.1830128507
 10
-98.5270066076
 20
-41.1834697496
 10
-98.5224736016
 20
-41.1839170883
 10
-98.5168873075
 20
-41.184353953
 10
-98.5100895146
 20
-41.1847867143
 10
-98.5019323625
 20
-41.185198726
 10
-98.4922510136
 20
-41.1855945529
 10
-98.4809156617
 20
-41.1859747815
 10
-98.4678869729
 20
-41.1863158239
 10
-98.4530199968
 20
-41.1866199911
 10
-98.436202948
 20
-41.1868894577
 10
-98.4175424242
 20
-41.187098751
 10
-98.3743551676
 20
-41.1873196496
  0
LINE
  5
3C2
100
AcDbEntity
  8
RACCORDO
100
AcDbLine
 62
7
  6
CONTINUOUS
 10
-98.5397210908
 20
-41.1803105049
 11
-98.5297879949
 21
-41.250341064
  0
LWPOLYLINE
  5
3C3
100
AcDbEntity
  8
0
100
AcDbPolyline
 62
7
  6
CONTINUOUS
 90
4
 70
0
 10
-99.4331614079
 20
-29.0998531129
 10
-99.4328266083
 20
-29.1026051364
 10
-99.4324367977
 20
-29.1107851968
 10
-99.431991976
 20
-29.1242555532
  0
LWPOLYLINE
  5
3C4
100
AcDbEntity
  8
RACCORDO
100
AcDbPolyline
 62
250
  6
CONTINUOUS
 90
16
 70
0
 10
-97.2653317158
 20
-41.1588259864
 10
-97.254530269
 20
-41.2576208501
 10
-97.2341531777
 20
-41.3548284766
 10
-97.2044018299
 20
-41.4494881568
 10
-97.16557026
 20
-41.540664363
 10
-97.1180422431
 20
-41.6274559948
 10
-97.0622875014
 20
-41.709005285
 10
-96.9988570628
 20
-41.7845062768
 10
-96.9283778142
 20
-41.8532127889
 10
-96.8515463067
 20
-41.9144457906
 10
-96.7691218709
 20
-41.967600112
 10
-96.6819191128
 20
-42.0121504257
 10
-96.5907998629
 20
-42.047656438
 10
-96.4966646586
 20
-42.0737672408
 10
-96.4004438442
 20
-42.0902247792
 10
-96.303088376
 20
-42.0968664025
  0
LWPOLYLINE
  5
3C5
100
AcDbEntity
  8
RACCORDO
100
AcDbPolyline
 62
7
  6
CONTINUOUS
 90
3
 70
0
 10
-99.2387119344
 20
-27.6903876488
 10
-99.2612898444
 20
-27.4765176515
 10
-99.2991316493
 20
-27.2648148608
  0
LWPOLYLINE
  5
3C6
100
AcDbEntity
  8
RACCORDO
100
AcDbPolyline
 62
7
  6
CONTINUOUS
 90
4
 70
0
 10
-99.2468756144
 20
-27.595663602
 10
-99.2429971522
 20
-27.6369300511
 10
-99.2399340117
 20
-27.6749976382
 10
-99.2376462408
 20
-27.7085296146
  0
LINE
  5
3C7
100
AcDbEntity
  8
0
100
AcDbLine
 62
7
  6
CONTINUOUS
 10
-98.7728641056
 20
-38.7694262192
 11
-98.7198106225
 21
-39.3610969676
  0
LINE
  5
3C8
100
AcDbEntity
  8
0
100
AcDbLine
 62
7
  6
CONTINUOUS
 10
-98.8223349995
 20
-38.1882725084
 11
-98.7728641056
 21
-38.7694262192
  0
LINE
  5
3C9
100
AcDbEntity
  8
0
100
AcDbLine
 62
7
  6
CONTINUOUS
 10
-98.8772380112
 20
-37.5043029598
 11
-98.8223349995
 21
-38.1882725084
  0
LINE
  5
3CA
100
AcDbEntity
  8
0
100
AcDbLine
 62
7
  6
CONTINUOUS
 10
-98.9275398596
 20
-36.8341035083
 11
-98.8772380112
 21
-37.5043029598
  0
LINE
  5
3CB
100
AcDbEntity
  8
0
100
AcDbLine
 62
7
  6
CONTINUOUS
 10
-98.9734480611
 20
-36.1765758963
 11
-98.9275398596
 21
-36.8341035083
  0
LINE
  5
3CC
100
AcDbEntity
  8
0
100
AcDbLine
 62
7
  6
CONTINUOUS
 10
-99.0017009626
 20
-35.7447176622
 11
-98.9661688427
 21
-36.2842311573
  0
LINE
  5
3CD
100
AcDbEntity
  8
0
100
AcDbLine
 62
7
  6
CONTINUOUS
 10
-99.0344579802
 20
-35.2115948951
 11
-99.0017009626
 21
-35.7447176622
  0
LWPOLYLINE
  5
3CE
100
AcDbEntity
  8
RACCORDO
100
AcDbPolyline
 62
7
  6
CONTINUOUS
 90
7
 70
0
 10
-99.2376462408
 20
-27.7085296146
 10
-99.236024589
 20
-27.7366826742
 10
-99.234884543
 20
-27.7601479239
 10
-99.2340780772
 20
-27.7798848852
 10
-99.2335378088
 20
-27.7956441356
 10
-99.2331945444
 20
-27.8075301344
 10
-99.2331615355
 20
-27.8088849916
  0
LINE
  5
3CF
100
AcDbEntity
  8
0
100
AcDbLine
 62
7
  6
CONTINUOUS
 10
-99.0644451417
 20
-34.6857126929
 11
-99.0344579802
 21
-35.2115948951
  0
LINE
  5
3D0
100
AcDbEntity
  8
0
100
AcDbLine
 62
7
  6
CONTINUOUS
 10
-99.0916691307
 20
-34.16832379
 11
-99.0644451417
 21
-34.6857126929
  0
LINE
  5
3D1
100
AcDbEntity
  8
0
100
AcDbLine
 62
7
  6
CONTINUOUS
 10
-99.1207137279
 20
-33.5608746119
 11
-99.0916691307
 21
-34.16832379
  0
LINE
  5
3D2
100
AcDbEntity
  8
0
100
AcDbLine
 62
7
  6
CONTINUOUS
 10
-99.1458893559
 20
-32.9705166674
 11
-99.1207137279
 21
-33.5608746119
  0
LINE
  5
3D3
100
AcDbEntity
  8
0
100
AcDbLine
 62
7
  6
CONTINUOUS
 10
-99.167349985
 20
-32.3997715481
 11
-99.1458893559
 21
-32.9705166674
  0
LINE
  5
3D4
100
AcDbEntity
  8
RACCORDO
100
AcDbLine
 62
7
  6
CONTINUOUS
 10
-99.233414042
 20
-27.8485873024
 11
-99.2387119344
 21
-27.6903876488
  0
LINE
  5
3D5
100
AcDbEntity
  8
0
100
AcDbLine
 62
7
  6
CONTINUOUS
 10
-99.1806813239
 20
-31.999978
 11
-99.167349985
 21
-32.3997715481
  0
LINE
  5
3D6
100
AcDbEntity
  8
0
100
AcDbLine
 62
7
  6
CONTINUOUS
 10
-99.3925159858
 20
-31.4656614663
 11
-99.3747847489
 21
-31.999978
  0
LINE
  5
3D7
100
AcDbEntity
  8
0
100
AcDbLine
 62
7
  6
CONTINUOUS
 10
-99.1746802575
 20
-31.999978
 11
-99.1924410067
 21
-31.4656803585
  0
LWPOLYLINE
  5
3D8
100
AcDbEntity
  8
0
100
AcDbPolyline
 62
7
  6
CONTINUOUS
 90
4
 70
0
 10
-99.2318491934
 20
-29.1289942184
 10
-99.2323408875
 20
-29.1130886329
 10
-99.2327769924
 20
-29.1032300477
 10
-99.233157508
 20
-29.0998531129
  0
LINE
  5
3D9
100
AcDbEntity
  8
RACCORDO
100
AcDbLine
 62
250
  6
CONTINUOUS
 10
-99.8284309005
 20
26.0985989851
 11
-99.828524426
 21
26.1022231451
  0
LWPOLYLINE
  5
3DA
100
AcDbEntity
  8
0
100
AcDbPolyline
 62
7
  6
CONTINUOUS
 90
3
 70
0
 10
-99.1924410067
 20
-31.4656803585
 10
-99.2069653478
 20
-30.939255214
 10
-99.2101017225
 20
-30.8088806669
  0
LWPOLYLINE
  5
3DB
100
AcDbEntity
  8
0
100
AcDbPolyline
 62
7
  6
CONTINUOUS
 90
3
 70
0
 10
-99.4101461292
 20
-30.8088806669
 10
-99.4070153083
 20
-30.9392476976
 10
-99.3925159858
 20
-31.4656614663
  0
LINE
  5
3DC
100
AcDbEntity
  8
0
100
AcDbLine
 62
7
  6
CONTINUOUS
 10
-99.431991976
 20
-29.1242555532
 11
-99.4309372738
 21
-29.1661523887
  0
LINE
  5
3DD
100
AcDbEntity
  8
0
100
AcDbLine
 62
7
  6
CONTINUOUS
 10
-99.2306964827
 20
-29.1767212089
 11
-99.2318491934
 21
-29.1289942184
  0
LINE
  5
3DE
100
AcDbEntity
  8
RACCORDO
100
AcDbLine
 62
250
  6
CONTINUOUS
 10
-99.8305183875
 20
-26.0995707387
 11
-99.8306982311
 21
-26.0916532432
  0
LINE
  5
3DF
100
AcDbEntity
  8
0
100
AcDbLine
 62
7
  6
CONTINUOUS
 10
-99.4309372738
 20
-29.1661523887
 11
-99.4281681614
 21
-29.3099135921
  0
LINE
  5
3E0
100
AcDbEntity
  8
0
100
AcDbLine
 62
7
  6
CONTINUOUS
 10
-99.2269018524
 20
-29.3840072662
 11
-99.2306964827
 21
-29.1767212089
  0
LINE
  5
3E1
100
AcDbEntity
  8
0
100
AcDbLine
 62
7
  6
CONTINUOUS
 10
-99.4281681614
 20
-29.3099135921
 11
-99.4195948071
 21
-29.8931618084
  0
LINE
  5
3E2
100
AcDbEntity
  8
0
100
AcDbLine
 62
7
  6
CONTINUOUS
 10
-99.2175396343
 20
-30.0579820712
 11
-99.2269018524
 21
-29.3840072662
  0
LINE
  5
3E3
100
AcDbEntity
  8
0
100
AcDbLine
 62
7
  6
CONTINUOUS
 10
-99.4195948071
 20
-29.8931618084
 11
-99.4119169138
 21
-30.5921913198
  0
LINE
  5
3E4
100
AcDbEntity
  8
0
100
AcDbLine
 62
7
  6
CONTINUOUS
 10
-99.4119169138
 20
-30.5921913198
 11
-99.4101461292
 21
-30.8088806669
  0
LWPOLYLINE
  5
3E5
100
AcDbEntity
  8
0
100
AcDbPolyline
 62
7
  6
CONTINUOUS
 90
3
 70
0
 10
-99.2101017225
 20
-30.8088806669
 10
-99.2103544479
 20
-30.7719994323
 10
-99.2175396343
 20
-30.0579820712
  0
LINE
  5
3E6
100
AcDbEntity
  8
RACCORDO
100
AcDbLine
 62
250
  6
CONTINUOUS
 10
-99.828331262
 20
26.0658941998
 11
-99.8284309005
 21
26.0985989851
  0
LINE
  5
3E7
100
AcDbEntity
  8
RACCORDO
100
AcDbLine
 62
250
  6
CONTINUOUS
 10
-99.2178211203
 20
-16.1892876101
 11
-99.2258261716
 21
-9.2613491124
  0
LINE
  5
3E8
100
AcDbEntity
  8
RACCORDO
100
AcDbLine
 62
250
  6
CONTINUOUS
 10
-99.8306982311
 20
-26.0916532432
 11
-99.8308286138
 21
-26.0320869622
  0
LINE
  5
3E9
100
AcDbEntity
  8
0
100
AcDbLine
 62
7
  6
CONTINUOUS
 10
-99.2357130712
 20
-28.6081771767
 11
-99.2344188735
 21
-29.099855
  0
LINE
  5
3EA
100
AcDbEntity
  8
RACCORDO
100
AcDbLine
 62
250
  6
CONTINUOUS
 10
-99.2229899291
 20
27.7706600107
 11
-99.2231661946
 21
27.8463266665
  0
LINE
  5
3EB
100
AcDbEntity
  8
RACCORDO
100
AcDbLine
 62
250
  6
CONTINUOUS
 10
-99.2258261716
 20
-9.2613491124
 11
-99.2296423828
 21
-4.0342210037
  0
LINE
  5
3EC
100
AcDbEntity
  8
0
100
AcDbLine
 62
7
  6
CONTINUOUS
 10
-99.2327875476
 20
6.4437535993
 11
-99.2303622592
 21
0.2772434335
  0
LINE
  5
3ED
100
AcDbEntity
  8
RACCORDO
100
AcDbLine
 62
7
  6
CONTINUOUS
 10
-101.1301966214
 20
-22.9806471005
 11
-101.1301966214
 21
22.9806471005
  0
LINE
  5
3EE
100
AcDbEntity
  8
RACCORDO
100
AcDbLine
 62
250
  6
CONTINUOUS
 10
-100.1476490279
 20
-23.9804947957
 11
-100.1476490279
 21
23.9804947957
  0
LINE
  5
3EF
100
AcDbEntity
  8
0
100
AcDbLine
 62
7
  6
CONTINUOUS
 10
-100.0301966214
 20
25.5
 11
-100.0301966214
 21
-25.5
  0
LINE
  5
3F0
100
AcDbEntity
  8
RACCORDO
100
AcDbLine
 62
250
  6
CONTINUOUS
 10
-99.2296423828
 20
-4.0342210037
 11
-99.2302689337
 21
-1.5682708956
  0
LINE
  5
3F1
100
AcDbEntity
  8
RACCORDO
100
AcDbLine
 62
7
  6
CONTINUOUS
 10
-99.2302689337
 20
-1.5682708956
 11
-99.2326958495
 21
5.8216879569
  0
LINE
  5
3F2
100
AcDbEntity
  8
0
100
AcDbLine
 62
7
  6
CONTINUOUS
 10
-99.2323454447
 20
10.6320361365
 11
-99.2327875476
 21
6.4437535993
  0
LINE
  5
3F3
100
AcDbEntity
  8
RACCORDO
100
AcDbLine
 62
7
  6
CONTINUOUS
 10
-99.2326958495
 20
5.8216879569
 11
-99.2323308893
 21
10.6878947002
  0
LINE
  5
3F4
100
AcDbEntity
  8
RACCORDO
100
AcDbLine
 62
250
  6
CONTINUOUS
 10
-99.8301871071
 20
-0.000831956
 11
-99.8289698535
 21
25.3192377435
  0
LINE
  5
3F5
100
AcDbEntity
  8
RACCORDO
100
AcDbLine
 62
250
  6
CONTINUOUS
 10
-99.2323308893
 20
10.6878947002
 11
-99.2285938588
 21
18.8177881271
  0
LINE
  5
3F6
100
AcDbEntity
  8
RACCORDO
100
AcDbLine
 62
250
  6
CONTINUOUS
 10
-99.2054166309
 20
-23.067083773
 11
-99.2178211203
 21
-16.1892876101
  0
LINE
  5
3F7
100
AcDbEntity
  8
RACCORDO
100
AcDbLine
 62
250
  6
CONTINUOUS
 10
-99.8289698535
 20
25.3192377435
 11
-99.828331262
 21
26.0658941998
  0
LINE
  5
3F8
100
AcDbEntity
  8
RACCORDO
100
AcDbLine
 62
250
  6
CONTINUOUS
 10
-99.2248805994
 20
22.194318587
 11
-99.2257697335
 21
26.037753751
  0
LINE
  5
3F9
100
AcDbEntity
  8
RACCORDO
100
AcDbLine
 62
250
  6
CONTINUOUS
 10
-99.2285938588
 20
18.8177881271
 11
-99.224854587
 21
22.1943185376
  0
LINE
  5
3FA
100
AcDbEntity
  8
RACCORDO
100
AcDbLine
 62
250
  6
CONTINUOUS
 10
-99.2257697335
 20
26.037753751
 11
-99.224725749
 21
27.1188257181
  0
LINE
  5
3FB
100
AcDbEntity
  8
RACCORDO
100
AcDbLine
 62
250
  6
CONTINUOUS
 10
-99.8308286138
 20
-26.0320869622
 11
-99.8287877371
 21
-24.7332139665
  0
LINE
  5
3FC
100
AcDbEntity
  8
RACCORDO
100
AcDbLine
 62
250
  6
CONTINUOUS
 10
-99.8253137442
 20
-23.6847613638
 11
-99.8301871071
 21
-0.000831956
  0
LINE
  5
3FD
100
AcDbEntity
  8
RACCORDO
100
AcDbLine
 62
250
  6
CONTINUOUS
 10
-99.224725749
 20
27.1188257181
 11
-99.2229899291
 21
27.7706600107
  0
LINE
  5
3FE
100
AcDbEntity
  8
RACCORDO
100
AcDbLine
 62
250
  6
CONTINUOUS
 10
-99.8287877371
 20
-24.7332139665
 11
-99.8253137442
 21
-23.6847613638
  0
LINE
  5
3FF
100
AcDbEntity
  8
0
100
AcDbLine
 62
7
  6
CONTINUOUS
 10
-99.234720212
 20
-28.0971029815
 11
-99.2357130712
 21
-28.6081771767
  0
LINE
  5
400
100
AcDbEntity
  8
RACCORDO
100
AcDbLine
 62
250
  6
CONTINUOUS
 10
-99.2291712749
 20
-27.171633454
 11
-99.2262999754
 21
-26.1363483917
  0
LINE
  5
401
100
AcDbEntity
  8
RACCORDO
100
AcDbLine
 62
250
  6
CONTINUOUS
 10
-99.2096921439
 20
-24.028892031
 11
-99.2054166309
 21
-23.067083773
  0
LINE
  5
402
100
AcDbEntity
  8
RACCORDO
100
AcDbLine
 62
7
  6
CONTINUOUS
 10
-99.2325338931
 20
-27.7552538111
 11
-99.2291712749
 21
-27.171633454
  0
LINE
  5
403
100
AcDbEntity
  8
0
100
AcDbLine
 62
7
  6
CONTINUOUS
 10
-99.232287048
 20
-27.683030816
 11
-99.2347171963
 21
-28.0963858996
  0
LINE
  5
404
100
AcDbEntity
  8
0
100
AcDbLine
 62
7
  6
CONTINUOUS
 10
-99.2292205625
 20
-27.1852483248
 11
-99.232287048
 21
-27.683030816
  0
LWPOLYLINE
  5
405
100
AcDbEntity
  8
RACCORDO
100
AcDbPolyline
 62
250
  6
CONTINUOUS
 90
3
 70
0
 10
-99.2262999754
 20
-26.1363483917
 10
-99.2205490678
 20
-25.3235693479
 10
-99.2096921439
 20
-24.028892031
  0
LWPOLYLINE
  5
406
100
AcDbEntity
  8
RACCORDO
100
AcDbPolyline
 62
7
  6
CONTINUOUS
 90
10
 70
0
 10
-99.2237568446
 20
27.8705611314
 10
-99.2338803697
 20
27.6596790561
 10
-99.2588105101
 20
27.4500312492
 10
-99.2984237951
 20
27.2426560252
 10
-99.3525240336
 20
27.0385804435
 10
-99.4208432853
 20
26.8388152215
 10
-99.5030431881
 20
26.6443497287
 10
-99.5987166338
 20
26.4561470869
 10
-99.707389784
 20
26.2751394003
 10
-99.8285244174
 20
26.1022231386
  0
LWPOLYLINE
  5
407
100
AcDbEntity
  8
RACCORDO
100
AcDbPolyline
 62
250
  6
CONTINUOUS
 90
25
 70
0
 10
-96.2827471347
 20
37.7875961538
 10
-96.2040618005
 20
38.756704701
 10
-96.1918152889
 20
38.9341033783
 10
-96.1818544289
 20
39.1106367353
 10
-96.1740795098
 20
39.2854270443
 10
-96.1683478703
 20
39.4577579021
 10
-96.16451376
 20
39.6269795179
 10
-96.1624360478
 20
39.7924747692
 10
-96.1619815927
 20
39.9533423599
 10
-96.1630082763
 20
40.1085189531
 10
-96.1653744678
 20
40.2570890437
 10
-96.1689873008
 20
40.3986400393
 10
-96.1737761621
 20
40.5328429213
 10
-96.1796913155
 20
40.6593411537
 10
-96.1867223311
 20
40.7771281666
 10
-96.1948522805
 20
40.8849969652
 10
-96.2041076421
 20
40.9825878909
 10
-96.2145451545
 20
41.0694041503
 10
-96.226157229
 20
41.1445089656
 10
-96.2390103392
 20
41.2079101916
 10
-96.2531660105
 20
41.2596612389
 10
-96.2685286531
 20
41.2995879064
 10
-96.2850490868
 20
41.3281325601
 10
-96.3027632227
 20
41.3460218
 10
-96.3216188526
 20
41.3539264326
  0
LINE
  5
408
100
AcDbEntity
  8
RACCORDO
100
AcDbLine
 62
7
  6
CONTINUOUS
 10
-72.3301966214
 20
-25.5586247418
 11
-77.3301966214
 21
-25.6022590807
  0
LINE
  5
409
100
AcDbEntity
  8
RACCORDO
100
AcDbLine
 62
7
  6
CONTINUOUS
 10
-72.3301966214
 20
-25.3586247418
 11
-77.3301966214
 21
-25.4022590807
  0
LINE
  5
40A
100
AcDbEntity
  8
RACCORDO
100
AcDbLine
 62
250
  6
CONTINUOUS
 10
-72.6275786608
 20
-25.3199284669
 11
-77.3301966214
 21
-25.3610236693
  0
LINE
  5
40B
100
AcDbEntity
  8
RACCORDO
100
AcDbLine
 62
7
  6
CONTINUOUS
 10
-77.3301966214
 20
-22.706467787
 11
-73.3214700859
 21
-22.7414514135
  0
LINE
  5
40C
100
AcDbEntity
  8
RACCORDO
100
AcDbLine
 62
250
  6
CONTINUOUS
 10
-77.3301966214
 20
-23.2436085682
 11
-73.3214700859
 21
-23.2792388886
  0
LINE
  5
40D
100
AcDbEntity
  8
RACCORDO
100
AcDbLine
 62
7
  6
CONTINUOUS
 10
-100.1476490279
 20
-23.9804947957
 11
-100.0301966214
 21
-23.9825449351
  0
LWPOLYLINE
  5
40E
100
AcDbEntity
  8
RACCORDO
100
AcDbPolyline
 62
7
  6
CONTINUOUS
 90
10
 70
0
 10
-72.4767266812
 20
-25.3599034902
 10
-72.4926677855
 20
-25.3594250284
 10
-72.5089526819
 20
-25.3579259361
 10
-72.5255084427
 20
-25.3554075927
 10
-72.5422346015
 20
-25.3518506702
 10
-72.559091361
 20
-25.3472924371
 10
-72.5761046187
 20
-25.3418115997
 10
-72.5932447888
 20
-25.3354313975
 10
-72.6104222145
 20
-25.3281343714
 10
-72.6275786608
 20
-25.3199294028
  0
LWPOLYLINE
  5
40F
100
AcDbEntity
  8
RACCORDO
100
AcDbPolyline
 62
250
  6
CONTINUOUS
 90
19
 70
0
 10
-73.3214700859
 20
-23.2792388886
 10
-73.2633513589
 20
-23.2820095111
 10
-73.2058603902
 20
-23.289828459
 10
-73.1489971797
 20
-23.3026864301
 10
-73.09213776
 20
-23.3206934002
 10
-73.0359060985
 20
-23.3437036357
 10
-72.9821740983
 20
-23.3713179472
 10
-72.9311718698
 20
-23.4036576719
 10
-72.8826693024
 20
-23.4405380213
 10
-72.8378479678
 20
-23.4811024173
 10
-72.7968934796
 20
-23.5252292655
 10
-72.7596202241
 20
-23.5729674894
 10
-72.7266529316
 20
-23.6237244779
 10
-72.6979385567
 20
-23.6773482891
 10
-72.6735301448
 20
-23.7339137242
 10
-72.6542115626
 20
-23.7931736402
 10
-72.640244099
 20
-23.8550181918
 10
-72.631366465
 20
-23.9194716012
 10
-72.6275786608
 20
-23.9864873566
  0
LWPOLYLINE
  5
410
100
AcDbEntity
  8
RACCORDO
100
AcDbPolyline
 62
250
  6
CONTINUOUS
 90
3
 70
0
 10
-99.2231661946
 20
27.8463266665
 10
-99.2234240383
 20
27.8641727987
 10
-99.2237624423
 20
27.8705612029
  0
LINE
  5
411
100
AcDbEntity
  8
RACCORDO
100
AcDbLine
 62
250
  6
CONTINUOUS
 10
-95.7739405217
 20
-38.49
 11
-95.7847119303
 21
-37.7037216854
  0
LINE
  5
412
100
AcDbEntity
  8
RACCORDO
100
AcDbLine
 62
250
  6
CONTINUOUS
 10
-96.7195437177
 20
-38.5050511515
 11
-96.7294572545
 21
-37.7150664664
  0
LINE
  5
413
100
AcDbEntity
  8
RACCORDO
100
AcDbLine
 62
250
  6
CONTINUOUS
 10
-95.7847119303
 20
-37.7037216854
 11
-95.7922202961
 21
-36.9792645608
  0
LINE
  5
414
100
AcDbEntity
  8
RACCORDO
100
AcDbLine
 62
250
  6
CONTINUOUS
 10
-96.7294572545
 20
-37.7150664664
 11
-96.7377976637
 21
-36.7912173978
  0
LINE
  5
415
100
AcDbEntity
  8
RACCORDO
100
AcDbLine
 62
250
  6
CONTINUOUS
 10
-95.7922202961
 20
-36.9792645608
 11
-95.7985288783
 21
-36.1565759269
  0
LINE
  5
416
100
AcDbEntity
  8
RACCORDO
100
AcDbLine
 62
250
  6
CONTINUOUS
 10
-96.7377976637
 20
-36.7912173978
 11
-96.744192756
 21
-35.7098221196
  0
LINE
  5
417
100
AcDbEntity
  8
RACCORDO
100
AcDbLine
 62
250
  6
CONTINUOUS
 10
-95.7985288783
 20
-36.1565759269
 11
-95.8034823151
 21
-35.2237568358
  0
LINE
  5
418
100
AcDbEntity
  8
RACCORDO
100
AcDbLine
 62
250
  6
CONTINUOUS
 10
-96.744192756
 20
-35.7098221196
 11
-96.7484019975
 21
-34.4472380458
  0
LINE
  5
419
100
AcDbEntity
  8
RACCORDO
100
AcDbLine
 62
250
  6
CONTINUOUS
 10
-95.8034823151
 20
-35.2237568358
 11
-95.8076543118
 21
-33.8839364938
  0
LINE
  5
41A
100
AcDbEntity
  8
RACCORDO
100
AcDbLine
 62
250
  6
CONTINUOUS
 10
-95.8472383055
 20
-5.4223130905
 11
-95.8529703471
 21
-3.1934561734
  0
LINE
  5
41B
100
AcDbEntity
  8
RACCORDO
100
AcDbLine
 62
250
  6
CONTINUOUS
 10
-95.8123868361
 20
-17.4857667377
 11
-95.8472383055
 21
-5.4223130905
  0
LINE
  5
41C
100
AcDbEntity
  8
RACCORDO
100
AcDbLine
 62
250
  6
CONTINUOUS
 10
-96.7809734668
 20
-4.6529779221
 11
-96.7855221
 21
-2.5115639551
  0
LINE
  5
41D
100
AcDbEntity
  8
RACCORDO
100
AcDbLine
 62
250
  6
CONTINUOUS
 10
-96.7473113769
 20
-17.487894563
 11
-96.7809734668
 21
-4.6529779221
  0
LINE
  5
41E
100
AcDbEntity
  8
RACCORDO
100
AcDbLine
 62
250
  6
CONTINUOUS
 10
-95.8529703471
 20
-3.1934561734
 11
-95.8559509017
 21
-1.209091894
  0
LINE
  5
41F
100
AcDbEntity
  8
RACCORDO
100
AcDbLine
 62
250
  6
CONTINUOUS
 10
-96.7484019975
 20
-34.4472380458
 11
-96.7503800955
 21
-32.9794904852
  0
LINE
  5
420
100
AcDbEntity
  8
RACCORDO
100
AcDbLine
 62
250
  6
CONTINUOUS
 10
-95.8076543118
 20
-33.8839364938
 11
-95.8096541174
 21
-32.3288987458
  0
LINE
  5
421
100
AcDbEntity
  8
RACCORDO
100
AcDbLine
 62
250
  6
CONTINUOUS
 10
-96.7855221
 20
-2.5115639551
 11
-96.787350044
 21
-0.5938860054
  0
LINE
  5
422
100
AcDbEntity
  8
RACCORDO
100
AcDbLine
 62
250
  6
CONTINUOUS
 10
-95.8559509017
 20
-1.209091894
 11
-95.856277538
 21
0.0006019772
  0
LINE
  5
423
100
AcDbEntity
  8
RACCORDO
100
AcDbLine
 62
250
  6
CONTINUOUS
 10
-96.7437552786
 20
-22.8127779788
 11
-96.7473113769
 21
-17.487894563
  0
LINE
  5
424
100
AcDbEntity
  8
RACCORDO
100
AcDbLine
 62
250
  6
CONTINUOUS
 10
-95.8096541174
 20
-32.3288987458
 11
-95.8094935888
 21
-29.7404687575
  0
LWPOLYLINE
  5
425
100
AcDbEntity
  8
RACCORDO
100
AcDbPolyline
 62
250
  6
CONTINUOUS
 90
5
 70
0
 10
-96.787350044
 20
-0.5938860054
 10
-96.7863331627
 20
1.4728155634
 10
-96.7794815126
 20
3.00091836
 10
-96.7677013999
 20
4.5837750758
 10
-96.7518943516
 20
6.2392502062
  0
LINE
  5
426
100
AcDbEntity
  8
RACCORDO
100
AcDbLine
 62
250
  6
CONTINUOUS
 10
-96.7503800955
 20
-32.9794904852
 11
-96.7501268615
 21
-30.9123384173
  0
LWPOLYLINE
  5
427
100
AcDbEntity
  8
RACCORDO
100
AcDbPolyline
 62
250
  6
CONTINUOUS
 90
3
 70
0
 10
-95.8094935888
 20
-29.7404687575
 10
-95.8087469447
 20
-28.4678426146
 10
-95.8123868361
 20
-17.4857667377
  0
LINE
  5
428
100
AcDbEntity
  8
RACCORDO
100
AcDbLine
 62
250
  6
CONTINUOUS
 10
-96.7501268615
 20
-30.9123384173
 11
-96.7437552786
 21
-22.8127779788
  0
LWPOLYLINE
  5
429
100
AcDbEntity
  8
RACCORDO
100
AcDbPolyline
 62
250
  6
CONTINUOUS
 90
5
 70
0
 10
-95.856277538
 20
0.0006019772
 10
-95.8538019911
 20
1.4699929648
 10
-95.8474981821
 20
2.9948985448
 10
-95.837366111
 20
4.5753187171
 10
-95.8222641966
 20
6.2291785426
  0
LINE
  5
42A
100
AcDbEntity
  8
RACCORDO
100
AcDbLine
 62
250
  6
CONTINUOUS
 10
-96.600740102
 20
20.7515492919
 11
-96.5558584474
 21
27.0791893366
  0
LINE
  5
42B
100
AcDbEntity
  8
RACCORDO
100
AcDbLine
 62
250
  6
CONTINUOUS
 10
-95.6724961454
 20
20.7441540654
 11
-95.6355782482
 21
25.8943682108
  0
LWPOLYLINE
  5
42C
100
AcDbEntity
  8
RACCORDO
100
AcDbPolyline
 62
250
  6
CONTINUOUS
 90
12
 70
0
 10
-96.5558584474
 20
27.0791893366
 10
-96.5467514097
 20
28.2178047711
 10
-96.5365776063
 20
29.3167896523
 10
-96.5248039764
 20
30.3822149014
 10
-96.5109042533
 20
31.4150943708
 10
-96.4940965705
 20
32.4145627149
 10
-96.4736304567
 20
33.3838574665
 10
-96.4487435754
 20
34.3240245993
 10
-96.4182659038
 20
35.2342243032
 10
-96.3811403652
 20
36.1148396678
 10
-96.3364550031
 20
36.9660314215
 10
-96.2827471347
 20
37.7875961538
  0
LWPOLYLINE
  5
42D
100
AcDbEntity
  8
RACCORDO
100
AcDbPolyline
 62
250
  6
CONTINUOUS
 90
13
 70
0
 10
-95.6355782482
 20
25.8943682108
 10
-95.6167868318
 20
28.2093611782
 10
-95.6064374288
 20
29.3068614667
 10
-95.5937287285
 20
30.3701240781
 10
-95.5789027189
 20
31.4001596403
 10
-95.5617174119
 20
32.3959575253
 10
-95.5397776646
 20
33.3603580464
 10
-95.5133224331
 20
34.2944226841
 10
-95.4821127612
 20
35.1970899578
 10
-95.4430366375
 20
36.0680157391
 10
-95.3950567248
 20
36.9070853185
 10
-95.3392103602
 20
37.7144134055
 10
-95.2754975438
 20
38.49
  0
LINE
  5
42E
100
AcDbEntity
  8
RACCORDO
100
AcDbLine
 62
250
  6
CONTINUOUS
 10
-96.6248019245
 20
17.8647533217
 11
-96.600740102
 21
20.7515492919
  0
LINE
  5
42F
100
AcDbEntity
  8
RACCORDO
100
AcDbLine
 62
250
  6
CONTINUOUS
 10
-95.6968294976
 20
17.8560862619
 11
-95.6724961454
 21
20.7441540654
  0
LINE
  5
430
100
AcDbEntity
  8
RACCORDO
100
AcDbLine
 62
250
  6
CONTINUOUS
 10
-95.7270028714
 20
14.7396695466
 11
-95.6968294976
 21
17.8560862619
  0
LINE
  5
431
100
AcDbEntity
  8
RACCORDO
100
AcDbLine
 62
250
  6
CONTINUOUS
 10
-96.6553342553
 20
14.7497641247
 11
-96.6248019245
 21
17.8647533217
  0
LINE
  5
432
100
AcDbEntity
  8
RACCORDO
100
AcDbLine
 62
250
  6
CONTINUOUS
 10
-95.8222641966
 20
6.2291785426
 11
-95.7270028714
 21
14.7396695466
  0
LWPOLYLINE
  5
433
100
AcDbEntity
  8
RACCORDO
100
AcDbPolyline
 62
250
  6
CONTINUOUS
 90
4
 70
0
 10
-96.7518943516
 20
6.2392502062
 10
-96.7131486419
 20
9.66091779
 10
-96.6930679088
 20
11.3748231727
 10
-96.6553342553
 20
14.7497641247
  0
LWPOLYLINE
  5
434
100
AcDbEntity
  8
RACCORDO
100
AcDbPolyline
 62
250
  6
CONTINUOUS
 90
25
 70
0
 10
-95.2754975438
 20
38.49
 10
-95.2606640315
 20
38.7290816734
 10
-95.2479611376
 20
38.9674637338
 10
-95.2373888622
 20
39.2040917947
 10
-95.2290653486
 20
39.4378882446
 10
-95.2228724536
 20
39.6678298017
 10
-95.2184557472
 20
39.8929488871
 10
-95.2158124887
 20
40.112378268
 10
-95.214945419
 20
40.324937722
 10
-95.21550833
 20
40.5292595411
 10
-95.2174484849
 20
40.7241460569
 10
-95.2208186205
 20
40.9090601237
 10
-95.2254307406
 20
41.0836496565
 10
-95.2312268956
 20
41.2474679649
 10
-95.2382650351
 20
41.3992173335
 10
-95.2465310106
 20
41.5374439063
 10
-95.2560045056
 20
41.6617704027
 10
-95.2667058367
 20
41.771588721
 10
-95.2786818063
 20
41.8657710965
 10
-95.2919809695
 20
41.944437659
 10
-95.3065547711
 20
42.0077160105
 10
-95.3223043481
 20
42.055428128
 10
-95.3391967461
 20
42.0882415846
 10
-95.3572649195
 20
42.1071614294
 10
-95.3765088683
 20
42.1130421103
  0
LWPOLYLINE
  5
435
100
AcDbEntity
  8
RACCORDO
100
AcDbPolyline
 62
250
  6
CONTINUOUS
 90
4
 70
0
 10
-99.2059708287
 20
-22.190545063
 10
-99.2205189066
 20
-22.1914799092
 10
-99.2491277522
 20
-22.1924549092
 10
-99.2916625342
 20
-22.193465468
  0
LINE
  5
436
100
AcDbEntity
  8
RACCORDO
100
AcDbLine
 62
250
  6
CONTINUOUS
 10
-99.2916625342
 20
-22.193465468
 11
-99.4176433688
 21
-22.1955740664
  0
LINE
  5
437
100
AcDbEntity
  8
RACCORDO
100
AcDbLine
 62
250
  6
CONTINUOUS
 10
-99.4176433688
 20
-22.1955740664
 11
-99.8236401635
 21
-22.2
  0
LINE
  5
438
100
AcDbEntity
  8
RACCORDO
100
AcDbLine
 62
250
  6
CONTINUOUS
 10
-99.8236401445
 20
-22.2
 11
-101.1301966214
 21
-22.2
  0
LINE
  5
439
100
AcDbEntity
  8
DRAFT
100
AcDbLine
 62
7
  6
CONTINUOUS
 10
-72.3301966214
 20
-16.575
 11
-61.8301966214
 21
-13.7615334795
  0
LINE
  5
43A
100
AcDbEntity
  8
RACCORDO
100
AcDbLine
 62
250
  6
CONTINUOUS
 10
-72.3301966214
 20
-17.8772386595
 11
-77.3301966214
 21
-18.0063120786
  0
LINE
  5
43B
100
AcDbEntity
  8
RACCORDO
100
AcDbLine
 62
7
  6
CONTINUOUS
 10
-77.3301966214
 20
-18.1226293254
 11
-72.3301966214
 21
-17.9945974516
  0
LINE
  5
43C
100
AcDbEntity
  8
RACCORDO
100
AcDbLine
 62
250
  6
CONTINUOUS
 10
-77.3301966214
 20
-17.201216356
 11
-72.3301966214
 21
-17.1872347387
  0
LINE
  5
43D
100
AcDbEntity
  8
RACCORDO
100
AcDbLine
 62
250
  6
CONTINUOUS
 10
-77.3301966214
 20
-17.0257123309
 11
-72.3301966214
 21
-17.0116133084
  0
LWPOLYLINE
  5
43E
100
AcDbEntity
  8
RACCORDO
100
AcDbPolyline
 62
7
  6
CONTINUOUS
 90
11
 70
0
 10
-99.2275209465
 20
27.8881425953
 10
-99.2276319975
 20
27.8887842799
 10
-99.2277422181
 20
27.8894039717
 10
-99.2278518107
 20
27.8900014989
 10
-99.227960736
 20
27.8905756787
 10
-99.2280701393
 20
27.8911325554
 10
-99.2281798215
 20
27.8916724075
 10
-99.2282878822
 20
27.8921882966
 10
-99.2283945796
 20
27.892683992
 10
-99.2285001825
 20
27.8931623912
 10
-99.2286028453
 20
27.8936169256
  0
LINE
  5
43F
100
AcDbEntity
  8
RACCORDO
100
AcDbLine
 62
7
  6
CONTINUOUS
 10
-99.2266092819
 20
27.8826241387
 11
-99.227407856
 21
27.8874737963
  0
LINE
  5
440
100
AcDbEntity
  8
RACCORDO
100
AcDbLine
 62
7
  6
CONTINUOUS
 10
-89.5301966214
 20
42.3219583377
 11
-89.5301966214
 21
42.0916407392
  0
LWPOLYLINE
  5
441
100
AcDbEntity
  8
RACCORDO
100
AcDbPolyline
 62
7
  6
CONTINUOUS
 90
8
 70
0
 10
-72.447946248
 20
17.9868217824
 10
-72.472090914
 20
17.9782676087
 10
-72.4972319037
 20
17.9673719274
 10
-72.5229758547
 20
17.9540914082
 10
-72.5491288241
 20
17.9390921532
 10
-72.5754587752
 20
17.9226271966
 10
-72.6016836287
 20
17.9045514134
 10
-72.6275786608
 20
17.8849401471
  0
LINE
  5
442
100
AcDbEntity
  8
DRAFT
100
AcDbLine
 62
7
  6
CONTINUOUS
 10
-61.8301966214
 20
-12.76699263
 11
-77.3301966214
 21
-12.9022590807
  0
LWPOLYLINE
  5
443
100
AcDbEntity
  8
RACCORDO
100
AcDbPolyline
 62
7
  6
CONTINUOUS
 90
11
 70
0
 10
-99.2237568446
 20
27.8705611314
 10
-99.224211257
 20
27.8719417116
 10
-99.2246139318
 20
27.8733073341
 10
-99.2249719124
 20
27.8746432764
 10
-99.2252901063
 20
27.8759390007
 10
-99.2255727751
 20
27.8771882539
 10
-99.2258254777
 20
27.8783857588
 10
-99.2260520877
 20
27.8795279705
 10
-99.2262557328
 20
27.880614256
 10
-99.2264405039
 20
27.8816460975
 10
-99.2266092819
 20
27.8826241387
  0
LINE
  5
444
100
AcDbEntity
  8
RACCORDO
100
AcDbLine
 62
7
  6
CONTINUOUS
 10
-99.2300907241
 20
27.8995624313
 11
-99.2301108654
 21
27.8996376643
  0
LINE
  5
445
100
AcDbEntity
  8
RACCORDO
100
AcDbLine
 62
7
  6
CONTINUOUS
 10
-99.2299254492
 20
27.8989374094
 11
-99.2299585901
 21
27.8990634729
  0
LINE
  5
446
100
AcDbEntity
  8
RACCORDO
100
AcDbLine
 62
7
  6
CONTINUOUS
 10
-99.229618268
 20
27.8977570748
 11
-99.2296710771
 21
27.8979616545
  0
LINE
  5
447
100
AcDbEntity
  8
RACCORDO
100
AcDbLine
 62
7
  6
CONTINUOUS
 10
-99.2293720641
 20
27.8967923893
 11
-99.2294390595
 21
27.8970567765
  0
LINE
  5
448
100
AcDbEntity
  8
RACCORDO
100
AcDbLine
 62
7
  6
CONTINUOUS
 10
-99.2291483898
 20
27.8958985829
 11
-99.2292266928
 21
27.8962134443
  0
LINE
  5
449
100
AcDbEntity
  8
RACCORDO
100
AcDbLine
 62
7
  6
CONTINUOUS
 10
-99.2288913252
 20
27.8948469957
 11
-99.2289805766
 21
27.8952158624
  0
LINE
  5
44A
100
AcDbEntity
  8
RACCORDO
100
AcDbLine
 62
7
  6
CONTINUOUS
 10
-99.2287021272
 20
27.8940475627
 11
-99.2287984642
 21
27.8944578493
  0
LWPOLYLINE
  5
44B
100
AcDbEntity
  8
0
100
AcDbPolyline
 62
7
  6
CONTINUOUS
 90
4
 70
0
 43
0.3500000006
 10
-88.5159066467
 20
51.678570694
 10
-88.5159066467
 20
52.5357131653
 10
-88.087337677
 20
52.9642866669
 10
-87.4444842224
 20
52.9642866669
  0
LINE
  5
44C
100
AcDbEntity
  8
0
100
AcDbLine
 62
7
  6
CONTINUOUS
 10
-87.5301966214
 20
-42.25
 11
-87.5301966214
 21
-38.49
  0
LINE
  5
44D
100
AcDbEntity
  8
ASSI
100
AcDbLine
 62
7
  6
CONTINUOUS
 10
-87.5301966214
 20
-38.49
 11
-87.5301966214
 21
37.5
  0
LINE
  5
44E
100
AcDbEntity
  8
RACCORDO
100
AcDbLine
 62
7
  6
CONTINUOUS
 10
-87.3301966214
 20
37.5
 11
-87.3301966214
 21
-41.8690108351
  0
LINE
  5
44F
100
AcDbEntity
  8
RACCORDO
100
AcDbLine
 62
250
  6
CONTINUOUS
 10
-86.8246838383
 20
-38.5
 11
-86.8389186814
 21
-42.3678401941
  0
LINE
  5
450
100
AcDbEntity
  8
DRAFT
100
AcDbLine
 62
7
  6
CONTINUOUS
 10
-61.8301966214
 20
-11.53300737
 11
-77.3301966214
 21
-11.3977409193
  0
LWPOLYLINE
  5
451
100
AcDbEntity
  8
RACCORDO
100
AcDbPolyline
 62
250
  6
CONTINUOUS
 90
25
 70
0
 10
-87.0360745862
 20
37.5
 10
-86.9527026481
 20
35.3153384894
 10
-86.8761125702
 20
33.0767629942
 10
-86.8063043524
 20
30.7842735146
 10
-86.7432119509
 20
28.4446572515
 10
-86.6869014096
 20
26.0511270039
 10
-86.6375708598
 20
23.5833211686
 10
-86.5951526517
 20
21.0453296202
 10
-86.5597144351
 20
18.4330624839
 10
-86.5316572911
 20
15.7138885329
 10
-86.5109735304
 20
12.8851257161
 10
-86.4976708424
 20
9.9494560846
 10
-86.4921733756
 20
6.8822945637
 10
-86.4949278048
 20
3.6759929693
 10
-86.5054874552
 20
0.3381994856
 10
-86.5229364516
 20
-3.1327264084
 10
-86.5481854947
 20
-6.7439047879
 10
-86.5803238837
 20
-10.4882155778
 10
-86.6157036413
 20
-14.3459390737
 10
-86.6554817801
 20
-18.3599282434
 10
-86.6985012875
 20
-22.4873301191
 10
-86.7376431485
 20
-26.5798660934
 10
-86.7705343581
 20
-30.5881099637
 10
-86.7995479214
 20
-34.5614879326
 10
-86.8246838383
 20
-38.5
  0
LINE
  5
452
100
AcDbEntity
  8
DRAFT
100
AcDbLine
 62
7
  6
CONTINUOUS
 10
-61.8301966214
 20
-8.26699263
 11
-77.3301966214
 21
-8.4022590807
  0
LINE
  5
453
100
AcDbEntity
  8
DRAFT
100
AcDbLine
 62
7
  6
CONTINUOUS
 10
-79.3301966214
 20
-42.5
 11
-79.3301966214
 21
42.5
  0
LWPOLYLINE
  5
454
100
AcDbEntity
  8
RACCORDO
100
AcDbPolyline
 62
250
  6
CONTINUOUS
 90
11
 70
0
 10
-73.3214699786
 20
22.7414514145
 10
-73.3202361807
 20
22.745572337
 10
-73.3191079449
 20
22.7578000356
 10
-73.3181161814
 20
22.7777994779
 10
-73.317288056
 20
22.805022689
 10
-73.316646263
 20
22.8387237555
 10
-73.3162084034
 20
22.877979257
 10
-73.3159864936
 20
22.9217135863
 10
-73.3159865961
 20
22.9687284226
 10
-73.3162086707
 20
23.0177355501
 10
-73.317288487
 20
23.1163376813
  0
LWPOLYLINE
  5
455
100
AcDbEntity
  8
0
100
AcDbPolyline
 62
7
  6
CONTINUOUS
 90
3
 70
0
 43
0.3500000006
 10
-64.4373395233
 20
51.5357128601
 10
-64.5087661743
 20
51.3214283752
 10
-64.6516240082
 20
51.0357127075
  0
LINE
  5
456
100
AcDbEntity
  8
DRAFT
100
AcDbLine
 62
7
  6
CONTINUOUS
 10
-70.3263226725
 20
-5.9
 11
-61.8301966214
 21
-5.9
  0
LINE
  5
457
100
AcDbEntity
  8
0
100
AcDbLine
 62
7
  6
CONTINUOUS
 10
-59.3301966214
 20
-5.75
 11
-70.1301966214
 21
-5.75
  0
LINE
  5
458
100
AcDbEntity
  8
0
100
AcDbLine
 62
250
  6
CONTINUOUS
 10
-58.3301966214
 20
-4.75
 11
-59.3301966214
 21
-4.75
  0
LINE
  5
459
100
AcDbEntity
  8
0
100
AcDbLine
 62
7
  6
CONTINUOUS
 10
-59.3301966214
 20
-4.75
 11
-60.8301966214
 21
-4.75
  0
LINE
  5
45A
100
AcDbEntity
  8
0
100
AcDbLine
 62
250
  6
CONTINUOUS
 10
-60.8301966214
 20
-4.75
 11
-61.8301966214
 21
-4.75
  0
LINE
  5
45B
100
AcDbEntity
  8
0
100
AcDbLine
 62
7
  6
CONTINUOUS
 10
-61.8301966214
 20
-4.75
 11
-70.1301966214
 21
-4.75
  0
LINE
  5
45C
100
AcDbEntity
  8
DRAFT
100
AcDbLine
 62
7
  6
CONTINUOUS
 10
-63.3585927483
 20
-4.45
 11
-66.2356349291
 21
-4.45
  0
LINE
  5
45D
100
AcDbEntity
  8
DRAFT
100
AcDbLine
 62
7
  6
CONTINUOUS
 10
-63.3585927483
 20
-2.95
 11
-66.2356349291
 21
-2.95
  0
LINE
  5
45E
100
AcDbEntity
  8
DRAFT
100
AcDbLine
 62
7
  6
CONTINUOUS
 10
-69.0377043081
 20
-3.2701084033
 11
-77.3301966214
 21
-3.1977409193
  0
LWPOLYLINE
  5
45F
100
AcDbEntity
  8
RACCORDO
100
AcDbPolyline
 62
250
  6
CONTINUOUS
 90
9
 70
0
 10
-73.3214705444
 20
-22.7415162296
 10
-73.3202219106
 20
-22.7456572226
 10
-73.3190799892
 20
-22.7579006515
 10
-73.3180760694
 20
-22.7779111623
 10
-73.3172376729
 20
-22.8051406557
 10
-73.3165877946
 20
-22.8388432969
 10
-73.3161442696
 20
-22.8780959422
 10
-73.3159192865
 20
-22.9218234306
 10
-73.31591904
 20
-22.9688280343
  0
LWPOLYLINE
  5
460
100
AcDbEntity
  8
RACCORDO
100
AcDbPolyline
 62
250
  6
CONTINUOUS
 90
10
 70
0
 10
-87.1758363099
 20
38.5835077008
 10
-87.1373631089
 20
38.3911070333
 10
-87.1176791488
 20
38.2816293932
 10
-87.0999887643
 20
38.17156708
 10
-87.0842785092
 20
38.0608799106
 10
-87.0705618297
 20
37.9496080679
 10
-87.0588790638
 20
37.8378721007
 10
-87.0492436576
 20
37.7257121917
 10
-87.0416421651
 20
37.6130881582
 10
-87.0360745862
 20
37.5
  0
LINE
  5
461
100
AcDbEntity
  8
SUPERFICI
100
AcDbLine
 62
250
  6
CONTINUOUS
 10
-77.7643931882
 20
39.5804442346
 11
-77.7643931882
 21
-39.5804442346
  0
LINE
  5
462
100
AcDbEntity
  8
SUPERFICI
100
AcDbLine
 62
7
  6
CONTINUOUS
 10
-77.3301966214
 20
-39.0145882543
 11
-77.3301966214
 21
39.0145882543
  0
LINE
  5
463
100
AcDbEntity
  8
RACCORDO
100
AcDbLine
 62
250
  6
CONTINUOUS
 10
-99.2301555463
 20
0.0007290656
 11
-99.2378208145
 21
0.000586059
  0
LINE
  5
464
100
AcDbEntity
  8
RACCORDO
100
AcDbLine
 62
250
  6
CONTINUOUS
 10
-99.2378208145
 20
0.000586059
 11
-99.419841968
 21
-0.000079264
  0
LINE
  5
465
100
AcDbEntity
  8
RACCORDO
100
AcDbLine
 62
250
  6
CONTINUOUS
 10
-99.419841968
 20
-0.000079264
 11
-99.8301871069
 21
-0.0008319559
  0
LINE
  5
466
100
AcDbEntity
  8
0
100
AcDbLine
 62
7
  6
CONTINUOUS
 10
-57.3301966214
 20
-2.25
 11
-58.2301966214
 21
-2.25
  0
LINE
  5
467
100
AcDbEntity
  8
0
100
AcDbLine
 62
7
  6
CONTINUOUS
 10
-59.8301966214
 20
-2.25
 11
-60.7301966214
 21
-2.25
  0
LWPOLYLINE
  5
468
100
AcDbEntity
  8
0
100
AcDbPolyline
 62
7
  6
CONTINUOUS
 90
4
 70
0
 43
0.3500000006
 10
-110.3087710876
 20
-2.2499998741
 10
-111.1659090271
 20
-2.2499998741
 10
-111.5944779968
 20
-1.8214286385
 10
-111.5944779968
 20
-1.178571785
  0
LINE
  5
469
100
AcDbEntity
  8
0
100
AcDbLine
 62
7
  6
CONTINUOUS
 10
-61.8301966214
 20
-2.2360679775
 11
-60.8301966214
 21
-2.2360679775
  0
LINE
  5
46A
100
AcDbEntity
  8
0
100
AcDbLine
 62
7
  6
CONTINUOUS
 10
-73.8301966214
 20
-1.75
 11
-61.8301966214
 21
-1.75
  0
LINE
  5
46B
100
AcDbEntity
  8
0
100
AcDbLine
 62
7
  6
CONTINUOUS
 10
-59.8301966214
 20
-1.75
 11
-54.1982576214
 21
-1.75
  0
LINE
  5
46C
100
AcDbEntity
  8
0
100
AcDbLine
 62
7
  6
CONTINUOUS
 10
-77.3301966214
 20
-1.5
 11
-73.8301966214
 21
-1.5
  0
LINE
  5
46D
100
AcDbEntity
  8
0
100
AcDbLine
 62
7
  6
CONTINUOUS
 10
-73.8301966214
 20
-1.381939
 11
-61.8301966214
 21
-1.381939
  0
LINE
  5
46E
100
AcDbEntity
  8
0
100
AcDbLine
 62
7
  6
CONTINUOUS
 10
-59.8301966214
 20
-1.381939
 11
-53.8301966214
 21
-1.381939
  0
LINE
  5
46F
100
AcDbEntity
  8
0
100
AcDbLine
 62
7
  6
CONTINUOUS
 10
-53.8301966214
 20
-1.25
 11
-52.0301966214
 21
-1.25
  0
LINE
  5
470
100
AcDbEntity
  8
RACCORDO
100
AcDbLine
 62
250
  6
CONTINUOUS
 10
-99.2301549909
 20
0.0000000002
 11
-95.856277538
 21
0.0006019772
  0
LINE
  5
471
100
AcDbEntity
  8
0
100
AcDbLine
 62
250
  6
CONTINUOUS
 10
-60.8301966214
 20
0.0
 11
-59.8301966214
 21
0.0
  0
LWPOLYLINE
  5
472
100
AcDbEntity
  8
RACCORDO
100
AcDbPolyline
 62
250
  6
CONTINUOUS
 90
5
 70
0
 10
-73.317288487
 20
23.1163376813
 10
-73.3181166182
 20
23.1632310008
 10
-73.3191083271
 20
23.2067872491
 10
-73.320236453
 20
23.2458129804
 10
-73.3214700859
 20
23.2792388887
  0
LINE
  5
473
100
AcDbEntity
  8
0
100
AcDbLine
 62
7
  6
CONTINUOUS
 10
-73.8301966214
 20
-1.75
 11
-73.8301966214
 21
1.75
  0
LWPOLYLINE
  5
474
100
AcDbEntity
  8
RACCORDO
100
AcDbPolyline
 62
250
  6
CONTINUOUS
 90
7
 70
0
 10
-73.31591904
 20
-22.9688280343
 10
-73.316586708
 20
-23.0674641159
 10
-73.3172363649
 20
-23.1163938784
 10
-73.3180747189
 20
-23.1632713285
 10
-73.3190787834
 20
-23.2068124597
 10
-73.3202210198
 20
-23.2458246473
 10
-73.3214700812
 20
-23.2792393192
  0
LWPOLYLINE
  5
475
100
AcDbEntity
  8
RACCORDO
100
AcDbPolyline
 62
250
  6
CONTINUOUS
 90
19
 70
0
 10
-72.6275786608
 20
23.9864873566
 10
-72.6313665323
 20
23.9194716092
 10
-72.6402442008
 20
23.8550182034
 10
-72.6542116664
 20
23.7931736511
 10
-72.6735301927
 20
23.733913725
 10
-72.697938516
 20
23.6773482753
 10
-72.7266528454
 20
23.6237244593
 10
-72.7596201927
 20
23.5729674916
 10
-72.7968935461
 20
23.5252292985
 10
-72.8378480793
 20
23.4811024585
 10
-72.882669335
 20
23.4405380127
 10
-72.9311717706
 20
23.4036575902
 10
-72.9821739316
 20
23.3713178406
 10
-73.0359060049
 20
23.3437036104
 10
-73.0921378036
 20
23.3206935051
 10
-73.1489973126
 20
23.302686613
 10
-73.2058605268
 20
23.2898286337
 10
-73.2633514513
 20
23.2820096248
 10
-73.3214700859
 20
23.2792388886
  0
LINE
  5
476
100
AcDbEntity
  8
DRAFT
100
AcDbLine
 62
7
  6
CONTINUOUS
 10
-69.0377043081
 20
3.2701084033
 11
-77.3301966214
 21
3.1977409193
  0
LINE
  5
477
100
AcDbEntity
  8
0
100
AcDbLine
 62
7
  6
CONTINUOUS
 10
-53.8301966214
 20
1.25
 11
-52.0301966214
 21
1.25
  0
LINE
  5
478
100
AcDbEntity
  8
0
100
AcDbLine
 62
7
  6
CONTINUOUS
 10
-73.8301966214
 20
1.381939
 11
-61.8301966214
 21
1.381939
  0
LINE
  5
479
100
AcDbEntity
  8
0
100
AcDbLine
 62
7
  6
CONTINUOUS
 10
-59.8301966214
 20
1.381939
 11
-53.8301966214
 21
1.381939
  0
LINE
  5
47A
100
AcDbEntity
  8
0
100
AcDbLine
 62
7
  6
CONTINUOUS
 10
-77.3301966214
 20
1.5
 11
-73.8301966214
 21
1.5
  0
LINE
  5
47B
100
AcDbEntity
  8
0
100
AcDbLine
 62
7
  6
CONTINUOUS
 10
-73.8301966214
 20
1.75
 11
-61.8301966214
 21
1.75
  0
LINE
  5
47C
100
AcDbEntity
  8
0
100
AcDbLine
 62
7
  6
CONTINUOUS
 10
-59.8301966214
 20
1.75
 11
-54.1982576214
 21
1.75
  0
LINE
  5
47D
100
AcDbEntity
  8
0
100
AcDbLine
 62
7
  6
CONTINUOUS
 10
-61.8301966214
 20
2.2360679775
 11
-60.8301966214
 21
2.2360679775
  0
LINE
  5
47E
100
AcDbEntity
  8
0
100
AcDbLine
 62
7
  6
CONTINUOUS
 10
-57.3301966214
 20
2.25
 11
-58.2301966214
 21
2.25
  0
LINE
  5
47F
100
AcDbEntity
  8
0
100
AcDbLine
 62
7
  6
CONTINUOUS
 10
-59.8301966214
 20
2.25
 11
-60.7301966214
 21
2.25
  0
LINE
  5
480
100
AcDbEntity
  8
DRAFT
100
AcDbLine
 62
7
  6
CONTINUOUS
 10
-63.3585927483
 20
2.95
 11
-66.2356349291
 21
2.95
  0
LWPOLYLINE
  5
481
100
AcDbEntity
  8
RACCORDO
100
AcDbPolyline
 62
250
  6
CONTINUOUS
 90
10
 70
0
 10
-72.3301966214
 20
23.7414133366
 10
-72.3347032466
 20
23.7837340777
 10
-72.3480880477
 20
23.8247841382
 10
-72.3699493476
 20
23.8633300484
 10
-72.3996307143
 20
23.8982134584
 10
-72.4362407139
 20
23.9283860015
 10
-72.4786797138
 20
23.9529407752
 10
-72.5256727839
 20
23.9711395551
 10
-72.5758079419
 20
23.9824350416
 10
-72.6275786608
 20
23.9864873566
  0
LINE
  5
482
100
AcDbEntity
  8
RACCORDO
100
AcDbLine
 62
250
  6
CONTINUOUS
 10
-72.6275786608
 20
25.3199284669
 11
-72.6275786608
 21
23.9864873566
  0
LINE
  5
483
100
AcDbEntity
  8
RACCORDO
100
AcDbLine
 62
250
  6
CONTINUOUS
 10
-72.6275786608
 20
17.8849423847
 11
-72.6275786608
 21
17.1880678433
  0
LINE
  5
484
100
AcDbEntity
  8
RACCORDO
100
AcDbLine
 62
250
  6
CONTINUOUS
 10
-72.6275786608
 20
-23.9864873566
 11
-72.6275786608
 21
-25.3199284669
  0
LINE
  5
485
100
AcDbEntity
  8
RACCORDO
100
AcDbLine
 62
7
  6
CONTINUOUS
 10
-72.3301966214
 20
25.5586247418
 11
-72.3301966214
 21
23.7414133366
  0
LINE
  5
486
100
AcDbEntity
  8
RACCORDO
100
AcDbLine
 62
7
  6
CONTINUOUS
 10
-72.3301966214
 20
17.9944833812
 11
-72.3301966214
 21
16.575
  0
LINE
  5
487
100
AcDbEntity
  8
RACCORDO
100
AcDbLine
 62
7
  6
CONTINUOUS
 10
-72.3301966214
 20
-17.9944833812
 11
-72.3301966214
 21
-16.575
  0
LINE
  5
488
100
AcDbEntity
  8
RACCORDO
100
AcDbLine
 62
7
  6
CONTINUOUS
 10
-72.3301966214
 20
-23.7414133366
 11
-72.3301966214
 21
-25.5586247418
  0
LINE
  5
489
100
AcDbEntity
  8
0
100
AcDbLine
 62
7
  6
CONTINUOUS
 10
-70.1301966214
 20
-4.75
 11
-70.1301966214
 21
-5.75
  0
LINE
  5
48A
100
AcDbEntity
  8
0
100
AcDbLine
 62
7
  6
CONTINUOUS
 10
-70.1301966214
 20
4.75
 11
-70.1301966214
 21
5.75
  0
LINE
  5
48B
100
AcDbEntity
  8
0
100
AcDbLine
 62
250
  6
CONTINUOUS
 10
-69.6301966214
 20
5.75
 11
-69.6301966214
 21
4.75
  0
LINE
  5
48C
100
AcDbEntity
  8
0
100
AcDbLine
 62
250
  6
CONTINUOUS
 10
-69.6301966214
 20
-5.75
 11
-69.6301966214
 21
-4.75
  0
LWPOLYLINE
  5
48D
100
AcDbEntity
  8
RACCORDO
100
AcDbPolyline
 62
250
  6
CONTINUOUS
 90
10
 70
0
 10
-72.3301966214
 20
-23.7414133366
 10
-72.3347027242
 20
-23.7837319784
 10
-72.3480863243
 20
-23.824780827
 10
-72.369946302
 20
-23.8633264459
 10
-72.3996269466
 20
-23.8982105527
 10
-72.4362371505
 20
-23.9283842907
 10
-72.4786767952
 20
-23.9529400364
 10
-72.525670604
 20
-23.971139395
 10
-72.5758067634
 20
-23.982435147
 10
-72.6275786608
 20
-23.9864873566
  0
LINE
  5
48E
100
AcDbEntity
  8
DRAFT
100
AcDbLine
 62
7
  6
CONTINUOUS
 10
-63.3585927483
 20
4.45
 11
-66.2356349291
 21
4.45
  0
LINE
  5
48F
100
AcDbEntity
  8
0
100
AcDbLine
 62
7
  6
CONTINUOUS
 10
-70.1301966214
 20
4.75
 11
-61.8301966214
 21
4.75
  0
LINE
  5
490
100
AcDbEntity
  8
0
100
AcDbLine
 62
7
  6
CONTINUOUS
 10
-60.8301966214
 20
4.75
 11
-59.3301966214
 21
4.75
  0
LINE
  5
491
100
AcDbEntity
  8
0
100
AcDbLine
 62
250
  6
CONTINUOUS
 10
-58.3301966214
 20
4.75
 11
-59.3301966214
 21
4.75
  0
LINE
  5
492
100
AcDbEntity
  8
0
100
AcDbLine
 62
250
  6
CONTINUOUS
 10
-60.8301966214
 20
4.75
 11
-61.8301966214
 21
4.75
  0
LINE
  5
493
100
AcDbEntity
  8
0
100
AcDbLine
 62
7
  6
CONTINUOUS
 10
-70.1301966214
 20
5.75
 11
-59.3301966214
 21
5.75
  0
LINE
  5
494
100
AcDbEntity
  8
DRAFT
100
AcDbLine
 62
7
  6
CONTINUOUS
 10
-70.3263226725
 20
5.9
 11
-61.8301966214
 21
5.9
  0
LWPOLYLINE
  5
495
100
AcDbEntity
  8
RACCORDO
100
AcDbPolyline
 62
7
  6
CONTINUOUS
 90
7
 70
0
 10
-72.3301966214
 20
17.9331947947
 10
-72.3328381926
 20
17.954307426
 10
-72.340287939
 20
17.9714696353
 10
-72.351811073
 20
17.9843723448
 10
-72.366570311
 20
17.9923155962
 10
-72.3839053932
 20
17.9956825273
 10
-72.3913531786
 20
17.9960565476
  0
LWPOLYLINE
  5
496
100
AcDbEntity
  8
0
100
AcDbPolyline
 62
7
  6
CONTINUOUS
 90
4
 70
0
 43
0.3500000006
 10
-67.5087670898
 20
53.6071446533
 10
-67.5087670898
 20
54.2499981079
 10
-66.0087666321
 20
54.2499981079
 10
-66.8659091034
 20
51.2500017242
  0
LINE
  5
497
100
AcDbEntity
  8
DRAFT
100
AcDbLine
 62
7
  6
CONTINUOUS
 10
-66.2356349291
 20
4.75
 11
-66.2356349291
 21
4.45
  0
LINE
  5
498
100
AcDbEntity
  8
DRAFT
100
AcDbLine
 62
7
  6
CONTINUOUS
 10
-66.2356349291
 20
2.95
 11
-66.2356349291
 21
1.75
  0
LINE
  5
499
100
AcDbEntity
  8
DRAFT
100
AcDbLine
 62
7
  6
CONTINUOUS
 10
-66.2356349291
 20
-1.75
 11
-66.2356349291
 21
-2.95
  0
LINE
  5
49A
100
AcDbEntity
  8
DRAFT
100
AcDbLine
 62
7
  6
CONTINUOUS
 10
-66.2356349291
 20
-4.45
 11
-66.2356349291
 21
-4.75
  0
LINE
  5
49B
100
AcDbEntity
  8
DRAFT
100
AcDbLine
 62
7
  6
CONTINUOUS
 10
-61.8301966214
 20
8.26699263
 11
-77.3301966214
 21
8.4022590807
  0
LINE
  5
49C
100
AcDbEntity
  8
DRAFT
100
AcDbLine
 62
7
  6
CONTINUOUS
 10
-64.8456156956
 20
5.9
 11
-64.8456156956
 21
5.75
  0
LINE
  5
49D
100
AcDbEntity
  8
DRAFT
100
AcDbLine
 62
7
  6
CONTINUOUS
 10
-64.8456156956
 20
4.75
 11
-64.8456156956
 21
4.45
  0
LINE
  5
49E
100
AcDbEntity
  8
DRAFT
100
AcDbLine
 62
7
  6
CONTINUOUS
 10
-64.8456156956
 20
2.95
 11
-64.8456156956
 21
1.75
  0
LINE
  5
49F
100
AcDbEntity
  8
DRAFT
100
AcDbLine
 62
7
  6
CONTINUOUS
 10
-64.8456156956
 20
-1.75
 11
-64.8456156956
 21
-2.95
  0
LINE
  5
4A0
100
AcDbEntity
  8
DRAFT
100
AcDbLine
 62
7
  6
CONTINUOUS
 10
-64.8456156956
 20
-4.45
 11
-64.8456156956
 21
-4.75
  0
LINE
  5
4A1
100
AcDbEntity
  8
DRAFT
100
AcDbLine
 62
7
  6
CONTINUOUS
 10
-64.8456156956
 20
-5.75
 11
-64.8456156956
 21
-5.9
  0
LINE
  5
4A2
100
AcDbEntity
  8
DRAFT
100
AcDbLine
 62
7
  6
CONTINUOUS
 10
-64.7224293844
 20
-2.95
 11
-64.7224293844
 21
-4.45
  0
LINE
  5
4A3
100
AcDbEntity
  8
DRAFT
100
AcDbLine
 62
7
  6
CONTINUOUS
 10
-64.7224293844
 20
2.95
 11
-64.7224293844
 21
4.45
  0
LINE
  5
4A4
100
AcDbEntity
  8
0
100
AcDbLine
 62
250
  6
CONTINUOUS
 10
-63.7301966214
 20
5.75
 11
-63.7301966214
 21
4.75
  0
LINE
  5
4A5
100
AcDbEntity
  8
0
100
AcDbLine
 62
250
  6
CONTINUOUS
 10
-63.7301966214
 20
-5.75
 11
-63.7301966214
 21
-4.75
  0
LINE
  5
4A6
100
AcDbEntity
  8
DRAFT
100
AcDbLine
 62
7
  6
CONTINUOUS
 10
-63.3585927483
 20
-2.95
 11
-63.3585927483
 21
-4.45
  0
LINE
  5
4A7
100
AcDbEntity
  8
DRAFT
100
AcDbLine
 62
7
  6
CONTINUOUS
 10
-63.3585927483
 20
2.95
 11
-63.3585927483
 21
4.45
  0
LINE
  5
4A8
100
AcDbEntity
  8
0
100
AcDbLine
 62
7
  6
CONTINUOUS
 10
-63.2301966214
 20
5.75
 11
-63.2301966214
 21
4.75
  0
LINE
  5
4A9
100
AcDbEntity
  8
0
100
AcDbLine
 62
7
  6
CONTINUOUS
 10
-63.2301966214
 20
-5.75
 11
-63.2301966214
 21
-4.75
  0
LINE
  5
4AA
100
AcDbEntity
  8
0
100
AcDbLine
 62
7
  6
CONTINUOUS
 10
-63.0301966214
 20
5.75
 11
-63.0301966214
 21
4.75
  0
LINE
  5
4AB
100
AcDbEntity
  8
0
100
AcDbLine
 62
7
  6
CONTINUOUS
 10
-63.0301966214
 20
-5.75
 11
-63.0301966214
 21
-4.75
  0
LINE
  5
4AC
100
AcDbEntity
  8
DRAFT
100
AcDbLine
 62
7
  6
CONTINUOUS
 10
-61.8301966214
 20
11.53300737
 11
-77.3301966214
 21
11.3977409193
  0
LINE
  5
4AD
100
AcDbEntity
  8
DRAFT
100
AcDbLine
 62
7
  6
CONTINUOUS
 10
-61.8301966214
 20
12.76699263
 11
-77.3301966214
 21
12.9022590807
  0
LWPOLYLINE
  5
4AE
100
AcDbEntity
  8
RACCORDO
100
AcDbPolyline
 62
7
  6
CONTINUOUS
 90
10
 70
0
 10
-72.4531887925
 20
17.0119601223
 10
-72.4279075703
 20
16.9759246018
 10
-72.4055098942
 20
16.9370919677
 10
-72.3859957643
 20
16.8954622203
 10
-72.3693381002
 20
16.8508182794
 10
-72.3555639823
 20
16.8033772251
 10
-72.3447546513
 20
16.753790297
 10
-72.3369371877
 20
16.7022745749
 10
-72.3320845111
 20
16.648612979
 10
-72.3301966214
 20
16.5928055094
  0
LWPOLYLINE
  5
4AF
100
AcDbEntity
  8
0
100
AcDbPolyline
 62
7
  6
CONTINUOUS
 90
10
 70
0
 43
0.3500000006
 10
-89.5873381348
 20
51.7500018768
 10
-89.5159069519
 20
51.607144043
 10
-89.5159069519
 20
51.5357128601
 10
-89.6587693176
 20
51.3928550262
 10
-89.7302005005
 20
51.3928550262
 10
-89.8016226196
 20
51.4642862091
 10
-89.8016226196
 20
51.5357128601
 10
-89.7302005005
 20
51.678570694
 10
-89.6587693176
 20
51.7500018768
 10
-89.5873381348
 20
51.7500018768
  0
LINE
  5
4B0
100
AcDbEntity
  8
0
100
AcDbLine
 62
7
  6
CONTINUOUS
 10
-61.9301966214
 20
5.75
 11
-61.9301966214
 21
4.75
  0
LINE
  5
4B1
100
AcDbEntity
  8
0
100
AcDbLine
 62
7
  6
CONTINUOUS
 10
-61.9301966214
 20
-5.75
 11
-61.9301966214
 21
-4.75
  0
LINE
  5
4B2
100
AcDbEntity
  8
DRAFT
100
AcDbLine
 62
7
  6
CONTINUOUS
 10
-61.8301966214
 20
13.7615334795
 11
-61.8301966214
 21
5.9
  0
LINE
  5
4B3
100
AcDbEntity
  8
0
100
AcDbLine
 62
250
  6
CONTINUOUS
 10
-61.8301966214
 20
5.75
 11
-61.8301966214
 21
4.75
  0
LINE
  5
4B4
100
AcDbEntity
  8
DRAFT
100
AcDbLine
 62
7
  6
CONTINUOUS
 10
-61.8301966214
 20
-5.9
 11
-61.8301966214
 21
-13.7615334795
  0
LINE
  5
4B5
100
AcDbEntity
  8
0
100
AcDbLine
 62
250
  6
CONTINUOUS
 10
-61.8301966214
 20
-5.75
 11
-61.8301966214
 21
-4.75
  0
LINE
  5
4B6
100
AcDbEntity
  8
0
100
AcDbLine
 62
7
  6
CONTINUOUS
 10
-61.8301966214
 20
-4.75
 11
-61.8301966214
 21
4.75
  0
LINE
  5
4B7
100
AcDbEntity
  8
0
100
AcDbLine
 62
7
  6
CONTINUOUS
 10
-60.8301966214
 20
-4.75
 11
-60.8301966214
 21
4.75
  0
LINE
  5
4B8
100
AcDbEntity
  8
0
100
AcDbLine
 62
250
  6
CONTINUOUS
 10
-60.7301966214
 20
-2.25
 11
-60.7301966214
 21
2.25
  0
LINE
  5
4B9
100
AcDbEntity
  8
0
100
AcDbLine
 62
7
  6
CONTINUOUS
 10
-59.8301966214
 20
-2.25
 11
-59.8301966214
 21
2.25
  0
LWPOLYLINE
  5
4BA
100
AcDbEntity
  8
RACCORDO
100
AcDbPolyline
 62
7
  6
CONTINUOUS
 90
10
 70
0
 10
-72.4531890865
 20
17.0119606319
 10
-72.4712079793
 20
17.03400864
 10
-72.4898049425
 20
17.0554590862
 10
-72.5088535274
 20
17.0763091964
 10
-72.5281839908
 20
17.0965989538
 10
-72.5477255331
 20
17.1163036962
 10
-72.5675175845
 20
17.1353144951
 10
-72.5875122031
 20
17.1535889367
 10
-72.607563799
 20
17.1711701033
 10
-72.6275786608
 20
17.1880660433
  0
LINE
  5
4BB
100
AcDbEntity
  8
0
100
AcDbLine
 62
250
  6
CONTINUOUS
 10
-59.3301966214
 20
5.75
 11
-59.3301966214
 21
4.75
  0
LINE
  5
4BC
100
AcDbEntity
  8
0
100
AcDbLine
 62
250
  6
CONTINUOUS
 10
-59.3301966214
 20
-5.75
 11
-59.3301966214
 21
-4.75
  0
LINE
  5
4BD
100
AcDbEntity
  8
0
100
AcDbLine
 62
7
  6
CONTINUOUS
 10
-59.3301966214
 20
-4.75
 11
-59.3301966214
 21
-1.75
  0
LINE
  5
4BE
100
AcDbEntity
  8
0
100
AcDbLine
 62
7
  6
CONTINUOUS
 10
-59.3301966214
 20
1.75
 11
-59.3301966214
 21
4.75
  0
LINE
  5
4BF
100
AcDbEntity
  8
0
100
AcDbLine
 62
7
  6
CONTINUOUS
 10
-58.3301966214
 20
-4.75
 11
-58.3301966214
 21
-1.75
  0
LINE
  5
4C0
100
AcDbEntity
  8
0
100
AcDbLine
 62
7
  6
CONTINUOUS
 10
-58.3301966214
 20
1.75
 11
-58.3301966214
 21
4.75
  0
LINE
  5
4C1
100
AcDbEntity
  8
0
100
AcDbLine
 62
250
  6
CONTINUOUS
 10
-58.2301966214
 20
-2.25
 11
-58.2301966214
 21
-1.75
  0
LINE
  5
4C2
100
AcDbEntity
  8
0
100
AcDbLine
 62
250
  6
CONTINUOUS
 10
-58.2301966214
 20
1.75
 11
-58.2301966214
 21
2.25
  0
LINE
  5
4C3
100
AcDbEntity
  8
0
100
AcDbLine
 62
7
  6
CONTINUOUS
 10
-57.3301966214
 20
-2.25
 11
-57.3301966214
 21
-1.75
  0
LINE
  5
4C4
100
AcDbEntity
  8
0
100
AcDbLine
 62
7
  6
CONTINUOUS
 10
-57.3301966214
 20
1.75
 11
-57.3301966214
 21
2.25
  0
LINE
  5
4C5
100
AcDbEntity
  8
0
100
AcDbLine
 62
7
  6
CONTINUOUS
 10
-53.8301966214
 20
-1.381939
 11
-54.1982576214
 21
-1.75
  0
LWPOLYLINE
  5
4C6
100
AcDbEntity
  8
RACCORDO
100
AcDbPolyline
 62
7
  6
CONTINUOUS
 90
4
 70
0
 10
-72.3913531786
 20
17.9960565476
 10
-72.4035442612
 20
17.9958591457
 10
-72.4250601694
 20
17.9929710627
 10
-72.447946248
 20
17.9868217824
  0
LINE
  5
4C7
100
AcDbEntity
  8
RACCORDO
100
AcDbLine
 62
250
  6
CONTINUOUS
 10
-72.4531887925
 20
17.0119601223
 11
-77.3301966214
 21
17.0257123309
  0
LINE
  5
4C8
100
AcDbEntity
  8
RACCORDO
100
AcDbLine
 62
250
  6
CONTINUOUS
 10
-72.6275786608
 20
17.1880678433
 11
-77.3301966214
 21
17.201216812
  0
LINE
  5
4C9
100
AcDbEntity
  8
RACCORDO
100
AcDbLine
 62
7
  6
CONTINUOUS
 10
-72.3913915415
 20
17.9961700648
 11
-77.3301966214
 21
18.1226292367
  0
LINE
  5
4CA
100
AcDbEntity
  8
RACCORDO
100
AcDbLine
 62
250
  6
CONTINUOUS
 10
-77.3301966214
 20
18.0063133804
 11
-72.6275786608
 21
17.8849423847
  0
LINE
  5
4CB
100
AcDbEntity
  8
DRAFT
100
AcDbLine
 62
7
  6
CONTINUOUS
 10
-61.8301966214
 20
13.7615334795
 11
-72.3301966214
 21
16.575
  0
LINE
  5
4CC
100
AcDbEntity
  8
0
100
AcDbLine
 62
7
  6
CONTINUOUS
 10
-53.8301966214
 20
1.381939
 11
-54.1982576214
 21
1.75
  0
LINE
  5
4CD
100
AcDbEntity
  8
0
100
AcDbLine
 62
7
  6
CONTINUOUS
 10
-90.3949706633
 20
42.1647740418
 11
-90.4295875643
 21
42.1993909428
  0
LINE
  5
4CE
100
AcDbEntity
  8
0
100
AcDbLine
 62
7
  6
CONTINUOUS
 10
-54.1982576214
 20
1.75
 11
-54.1982576214
 21
-1.75
  0
LINE
  5
4CF
100
AcDbEntity
  8
0
100
AcDbLine
 62
7
  6
CONTINUOUS
 10
-53.8301966214
 20
1.381939
 11
-53.8301966214
 21
-1.381939
  0
LINE
  5
4D0
100
AcDbEntity
  8
RACCORDO
100
AcDbLine
 62
250
  6
CONTINUOUS
 10
-73.3214700859
 20
23.2792388886
 11
-77.3301966214
 21
23.2436085682
  0
LINE
  5
4D1
100
AcDbEntity
  8
RACCORDO
100
AcDbLine
 62
7
  6
CONTINUOUS
 10
-73.3214700859
 20
22.7414514135
 11
-77.3301966214
 21
22.706467787
  0
LINE
  5
4D2
100
AcDbEntity
  8
DRAFT
100
AcDbLine
 62
250
  6
CONTINUOUS
 10
-87.5301966214
 20
22.2
 11
-87.3301966214
 21
22.2
  0
LINE
  5
4D3
100
AcDbEntity
  8
RACCORDO
100
AcDbLine
 62
250
  6
CONTINUOUS
 10
-99.828794217
 20
22.2
 11
-101.1301966214
 21
22.2
  0
LINE
  5
4D4
100
AcDbEntity
  8
RACCORDO
100
AcDbLine
 62
250
  6
CONTINUOUS
 10
-99.3536471737
 20
22.1966913858
 11
-99.8287819898
 21
22.1999999993
  0
LWPOLYLINE
  5
4D5
100
AcDbEntity
  8
RACCORDO
100
AcDbPolyline
 62
250
  6
CONTINUOUS
 90
4
 70
0
 10
-99.2248805994
 20
22.194318587
 10
-99.2350657596
 20
22.194876646
 10
-99.2600161142
 20
22.1954600734
 10
-99.3536471737
 20
22.1966913858
  0
LINE
  5
4D6
100
AcDbEntity
  8
0
100
AcDbLine
 62
250
  6
CONTINUOUS
 10
-52.0301966214
 20
-1.25
 11
-52.0301966214
 21
1.25
  0
LINE
  5
4D7
100
AcDbEntity
  8
0
100
AcDbLine
 62
7
  6
CONTINUOUS
 10
-51.8301966214
 20
1.05
 11
-51.8301966214
 21
-1.05
  0
LWPOLYLINE
  5
4D8
100
AcDbEntity
  8
RACCORDO
100
AcDbPolyline
 62
7
  6
CONTINUOUS
 90
10
 70
0
 10
-72.4767266812
 20
25.3599034902
 10
-72.4926677855
 20
25.3594250284
 10
-72.5089526819
 20
25.3579259361
 10
-72.5255084427
 20
25.3554075927
 10
-72.5422346015
 20
25.3518506702
 10
-72.559091361
 20
25.3472924371
 10
-72.5761046187
 20
25.3418115997
 10
-72.5932447888
 20
25.3354313975
 10
-72.6104222145
 20
25.3281343714
 10
-72.6275786608
 20
25.3199294028
  0
LINE
  5
4D9
100
AcDbEntity
  8
RACCORDO
100
AcDbLine
 62
7
  6
CONTINUOUS
 10
-100.0301966214
 20
23.9825449351
 11
-100.1476490279
 21
23.9804947957
  0
LINE
  5
4DA
100
AcDbEntity
  8
RACCORDO
100
AcDbLine
 62
250
  6
CONTINUOUS
 10
-77.3301966214
 20
25.3610236693
 11
-72.6275786608
 21
25.3199284669
  0
LINE
  5
4DB
100
AcDbEntity
  8
RACCORDO
100
AcDbLine
 62
7
  6
CONTINUOUS
 10
-77.3301966214
 20
25.4022590807
 11
-72.3301966214
 21
25.3586247418
  0
LINE
  5
4DC
100
AcDbEntity
  8
RACCORDO
100
AcDbLine
 62
7
  6
CONTINUOUS
 10
-77.3301966214
 20
25.6022590807
 11
-72.3301966214
 21
25.5586247418
  0
LWPOLYLINE
  5
4DD
100
AcDbEntity
  8
RACCORDO
100
AcDbPolyline
 62
250
  6
CONTINUOUS
 90
3
 70
0
 10
-89.5145083163
 20
42.0827859338
 10
-89.4744336347
 20
42.0596122783
 10
-89.416837656
 20
42.0249554217
  0
LWPOLYLINE
  5
4DE
100
AcDbEntity
  8
RACCORDO
100
AcDbPolyline
 62
250
  6
CONTINUOUS
 90
4
 70
0
 10
-89.416837656
 20
42.0249554217
 10
-89.3574086855
 20
41.9875961102
 10
-89.2958754168
 20
41.9473773197
 10
-89.2325091562
 20
41.9043038937
  0
LWPOLYLINE
  5
4DF
100
AcDbEntity
  8
RACCORDO
100
AcDbPolyline
 62
250
  6
CONTINUOUS
 90
46
 70
0
 10
-89.2325091562
 20
41.9043038937
 10
-89.1681238228
 20
41.858591076
 10
-89.1026914104
 20
41.8102039741
 10
-89.0362399252
 20
41.7591346599
 10
-88.9696673057
 20
41.7057342776
 10
-88.9030502761
 20
41.6500856664
 10
-88.8363121121
 20
41.5921778585
 10
-88.7701205792
 20
41.5323004364
 10
-88.7045504911
 20
41.4705597345
 10
-88.6395270342
 20
41.4069834117
 10
-88.5754935329
 20
41.3417864787
 10
-88.5125103023
 20
41.2750801336
 10
-88.4505170274
 20
41.2069146525
 10
-88.3897760874
 20
41.1374325902
 10
-88.3303284537
 20
41.066736465
 10
-88.2721331549
 20
40.9948903415
 10
-88.2153296556
 20
40.9219836431
 10
-88.1599443905
 20
40.8481082124
 10
-88.105950925
 20
40.7733327498
 10
-88.0534094196
 20
40.6977094842
 10
-88.0023365062
 20
40.6213201695
 10
-87.952715553
 20
40.5442326998
 10
-87.9045568251
 20
40.4664730388
 10
-87.8578705547
 20
40.3881140487
 10
-87.8126465096
 20
40.3092200838
 10
-87.7688642586
 20
40.2297979284
 10
-87.7265298633
 20
40.149912804
 10
-87.685637262
 20
40.0696244294
 10
-87.6461478379
 20
39.9889249804
 10
-87.608064883
 20
39.9078731475
 10
-87.5713851053
 20
39.8265239069
 10
-87.5360600119
 20
39.7448580638
 10
-87.5020910237
 20
39.6629287641
 10
-87.4694767197
 20
39.5807866889
 10
-87.4381643448
 20
39.4984039453
 10
-87.4081541209
 20
39.4158292504
 10
-87.3794458261
 20
39.3331095337
 10
-87.3519860386
 20
39.250210134
 10
-87.3257741938
 20
39.1671761553
 10
-87.3008108563
 20
39.0840517095
 10
-87.2770442983
 20
39.0007975311
 10
-87.2544733222
 20
38.9174552614
 10
-87.2330991256
 20
38.8340678429
 10
-87.2128735731
 20
38.7505958581
 10
-87.1937806195
 20
38.667053198
 10
-87.1758363099
 20
38.5835077008
  0
LINE
  5
4E0
100
AcDbEntity
  8
DRAFT
100
AcDbLine
 62
7
  6
CONTINUOUS
 10
-87.5301966214
 20
31.1765070753
 11
-87.3301966214
 21
31.1834912292
  0
LINE
  5
4E1
100
AcDbEntity
  8
ASSI
100
AcDbLine
 62
7
  6
CONTINUOUS
 10
-87.5301966214
 20
32.8
 11
-87.3301966214
 21
32.8
  0
LINE
  5
4E2
100
AcDbEntity
  8
RACCORDO
100
AcDbLine
 62
250
  6
CONTINUOUS
 10
-89.5301966214
 20
42.0916407392
 11
-89.5267661309
 21
42.0897151003
  0
LINE
  5
4E3
100
AcDbEntity
  8
RACCORDO
100
AcDbLine
 62
7
  6
CONTINUOUS
 10
-89.5267661309
 20
42.0897151003
 11
-89.5145083163
 21
42.0827859338
  0
LWPOLYLINE
  5
4E4
100
AcDbEntity
  8
RACCORDO
100
AcDbPolyline
 62
250
  6
CONTINUOUS
 90
3
 70
0
 10
-96.2186627606
 20
38.5793484958
 10
-96.1851094472
 20
38.5760466298
 10
-95.2754971831
 20
38.4899999962
  0
LWPOLYLINE
  5
4E5
100
AcDbEntity
  8
RACCORDO
100
AcDbPolyline
 62
250
  6
CONTINUOUS
 90
18
 70
0
 10
-96.6608375697
 20
41.4171882998
 10
-96.6945586789
 20
41.4245194764
 10
-96.7086576148
 20
41.4276853165
 10
-96.721166987
 20
41.4305787784
 10
-96.7321266542
 20
41.4331787883
 10
-96.7416909971
 20
41.4355449832
 10
-96.7499802782
 20
41.4376808504
 10
-96.7570331949
 20
41.439581536
 10
-96.7629213968
 20
41.4412930602
 10
-96.7677826535
 20
41.4428052579
 10
-96.7717108558
 20
41.4441251061
 10
-96.7747767203
 20
41.4453228988
 10
-96.7770867333
 20
41.4464091902
 10
-96.7787378921
 20
41.447370256
 10
-96.7798092867
 20
41.4482393815
 10
-96.7803916629
 20
41.449014667
 10
-96.7805624584
 20
41.4496952863
 10
-96.7804836342
 20
41.4500999013
  0
LWPOLYLINE
  5
4E6
100
AcDbEntity
  8
0
100
AcDbPolyline
 62
7
  6
CONTINUOUS
 90
13
 70
0
 43
0.3500000006
 10
-88.087337677
 20
52.9642866669
 10
-88.3730533447
 20
53.1785711517
 10
-88.3730533447
 20
53.8214291382
 10
-88.087337677
 20
54.2499981079
 10
-87.4444842224
 20
54.2499981079
 10
-87.1587685547
 20
53.8214291382
 10
-87.1587685547
 20
53.1785711517
 10
-87.4444842224
 20
52.9642866669
 10
-87.0159152527
 20
52.5357131653
 10
-87.0159152527
 20
51.678570694
 10
-87.4444842224
 20
51.2500017242
 10
-88.087337677
 20
51.2500017242
 10
-88.5159066467
 20
51.678570694
  0
LWPOLYLINE
  5
4E7
100
AcDbEntity
  8
0
100
AcDbPolyline
 62
7
  6
CONTINUOUS
 90
10
 70
0
 43
0.3500000006
 10
-64.5087661743
 20
51.7500018768
 10
-64.4373395233
 20
51.607144043
 10
-64.4373395233
 20
51.5357128601
 10
-64.5801973572
 20
51.3928550262
 10
-64.6516240082
 20
51.3928550262
 10
-64.723055191
 20
51.4642862091
 10
-64.723055191
 20
51.5357128601
 10
-64.6516240082
 20
51.678570694
 10
-64.5801973572
 20
51.7500018768
 10
-64.5087661743
 20
51.7500018768
  0
LWPOLYLINE
  5
4E8
100
AcDbEntity
  8
RACCORDO
100
AcDbPolyline
 62
250
  6
CONTINUOUS
 90
13
 70
0
 10
-87.0360745862
 20
37.5
 10
-87.0746473494
 20
37.4985603932
 10
-87.1124939958
 20
37.4973481051
 10
-87.148979931
 20
37.4963834626
 10
-87.1834933764
 20
37.49568264
 10
-87.2154556271
 20
37.4952573889
 10
-87.2443307554
 20
37.4951148412
 10
-87.269634597
 20
37.495257388
 10
-87.290942869
 20
37.4956826383
 10
-87.3078982847
 20
37.4963834605
 10
-87.3202165436
 20
37.4973481032
 10
-87.3276910991
 20
37.498560392
 10
-87.3301966214
 20
37.5
  0
LINE
  5
4E9
100
AcDbEntity
  8
SUPERFICI
100
AcDbLine
 62
250
  6
CONTINUOUS
 10
-77.3301966214
 20
36.7
 11
-79.3301966214
 21
36.7
  0
LINE
  5
4EA
100
AcDbEntity
  8
ASSI
100
AcDbLine
 62
250
  6
CONTINUOUS
 10
-95.2754975438
 20
38.49
 11
-87.6168286727
 21
38.4900001097
  0
LINE
  5
4EB
100
AcDbEntity
  8
RACCORDO
100
AcDbLine
 62
250
  6
CONTINUOUS
 10
-87.1590406444
 20
38.5
 11
-79.3301966214
 21
38.5
  0
LWPOLYLINE
  5
4EC
100
AcDbEntity
  8
RACCORDO
100
AcDbPolyline
 62
250
  6
CONTINUOUS
 90
4
 70
0
 10
-96.3216180221
 20
41.3539262249
 10
-96.3870165507
 20
41.3646639967
 10
-96.4425856376
 20
41.374394592
 10
-96.4897044967
 20
41.383103461
  0
LWPOLYLINE
  5
4ED
100
AcDbEntity
  8
RACCORDO
100
AcDbPolyline
 62
250
  6
CONTINUOUS
 90
3
 70
0
 10
-96.4897044967
 20
41.383103461
 10
-96.5627720217
 20
41.3971219999
 10
-96.5921936548
 20
41.4029809638
  0
LWPOLYLINE
  5
4EE
100
AcDbEntity
  8
RACCORDO
100
AcDbPolyline
 62
250
  6
CONTINUOUS
 90
3
 70
0
 10
-96.5921936548
 20
41.4029809638
 10
-96.6406824029
 20
41.41293829
 10
-96.6608375697
 20
41.4171882998
  0
LINE
  5
4EF
100
AcDbEntity
  8
SUPERFICI
100
AcDbLine
 62
7
  6
CONTINUOUS
 10
-77.7643931882
 20
39.5804442346
 11
-79.3301966214
 21
40.0
  0
LWPOLYLINE
  5
4F0
100
AcDbEntity
  8
RACCORDO
100
AcDbPolyline
 62
250
  6
CONTINUOUS
 90
13
 70
0
 10
-87.1590406366
 20
38.4999999623
 10
-87.1915691613
 20
38.4932999012
 10
-87.2235145737
 20
38.4868938124
 10
-87.2543409308
 20
38.48088917
 10
-87.2835310639
 20
38.4753867126
 10
-87.3105952547
 20
38.4704787543
 10
-87.3350794519
 20
38.4662476359
 10
-87.3565728881
 20
38.4627643427
 10
-87.3747149713
 20
38.4600873128
 10
-87.3892013348
 20
38.4582614579
 10
-87.3997889431
 20
38.4573174098
 10
-87.4063001697
 20
38.4572710068
 10
-87.4086257768
 20
38.4581230275
  0
LINE
  5
4F1
100
AcDbEntity
  8
0
100
AcDbLine
 62
7
  6
CONTINUOUS
 10
-90.3949706633
 20
42.1647740418
 11
-89.9653544276
 21
42.1723447486
  0
LINE
  5
4F2
100
AcDbEntity
  8
RACCORDO
100
AcDbLine
 62
7
  6
CONTINUOUS
 10
-95.8594445805
 20
42.1046124361
 11
-95.3765088683
 21
42.1130421103
  0
LINE
  5
4F3
100
AcDbEntity
  8
0
100
AcDbLine
 62
7
  6
CONTINUOUS
 10
-95.3765088683
 20
42.1130421103
 11
-90.4295875643
 21
42.1993909428
  0
LINE
  5
4F4
100
AcDbEntity
  8
DRAFT
100
AcDbLine
 62
7
  6
CONTINUOUS
 10
-89.5301966214
 20
42.3219583377
 11
-79.3301966214
 21
42.5
  0
LWPOLYLINE
  5
4F5
100
AcDbEntity
  8
RACCORDO
100
AcDbPolyline
 62
7
  6
CONTINUOUS
 90
14
 70
0
 10
-95.8594585181
 20
42.1046121928
 10
-95.9558645423
 20
42.0982614846
 10
-96.05174465
 20
42.0825220139
 10
-96.1458071553
 20
42.0575000069
 10
-96.2371570609
 20
42.0233807185
 10
-96.3248988539
 20
41.98044403
 10
-96.4081494328
 20
41.9290713542
 10
-96.4860817091
 20
41.8697263846
 10
-96.5579327009
 20
41.8029401146
 10
-96.6229857868
 20
41.7293210039
 10
-96.6805818791
 20
41.6495495683
 10
-96.7301271841
 20
41.5643741791
 10
-96.7711031016
 20
41.474600797
 10
-96.7804785659
 20
41.4501187494
  0
LWPOLYLINE
  5
4F6
100
AcDbEntity
  8
0
100
AcDbPolyline
 62
7
  6
CONTINUOUS
 90
8
 70
0
 43
0.3500000006
 10
-63.4373392181
 20
51.2500017242
 10
-62.5801967468
 20
51.2500017242
 10
-62.1516232452
 20
51.678570694
 10
-62.1516232452
 20
52.5357131653
 10
-62.5801967468
 20
52.9642866669
 10
-63.4373392181
 20
52.9642866669
 10
-63.4373392181
 20
54.2499981079
 10
-62.1516232452
 20
54.2499981079
  0
LWPOLYLINE
  5
4F7
100
AcDbEntity
  8
0
100
AcDbPolyline
 62
7
  6
CONTINUOUS
 90
7
 70
0
 43
0.3500000006
 10
-68.3659095612
 20
51.2500017242
 10
-69.8659100189
 20
51.2500017242
 10
-68.3659095612
 20
53.3928556366
 10
-68.3659095612
 20
53.8214291382
 10
-68.7944830627
 20
54.2499981079
 10
-69.4373410492
 20
54.2499981079
 10
-69.8659100189
 20
53.6071446533
  0
LWPOLYLINE
  5
4F8
100
AcDbEntity
  8
0
100
AcDbPolyline
 62
7
  6
CONTINUOUS
 90
7
 70
0
 43
0.3500000006
 10
-92.8016235352
 20
51.2500017242
 10
-94.3016239929
 20
51.2500017242
 10
-92.8016235352
 20
53.3928556366
 10
-92.8016235352
 20
53.8214291382
 10
-93.2301925049
 20
54.2499981079
 10
-93.8730550232
 20
54.2499981079
 10
-94.3016239929
 20
53.6071446533
  0
ARC
  5
4F9
100
AcDbEntity
  8
DRAFT
100
AcDbCircle
 62
7
  6
CONTINUOUS
 10
-40.0
 20
-38.5
 40
4.0
100
AcDbArc
 50
180.0
 51
270.0
  0
ARC
  5
4FA
100
AcDbEntity
  8
0
100
AcDbCircle
 62
7
  6
CONTINUOUS
 10
-39.99
 20
-38.49
 40
3.76
100
AcDbArc
 50
180.0
 51
270.0
  0
ARC
  5
4FB
100
AcDbEntity
  8
0
100
AcDbCircle
 62
7
  6
CONTINUOUS
 10
-22.2
 20
-22.2
 40
2.3
100
AcDbArc
 50
180.0
 51
270.0
  0
ARC
  5
4FC
100
AcDbEntity
  8
DRAFT
100
AcDbCircle
 62
7
  6
CONTINUOUS
 10
-22.2
 20
-22.2
 40
1.8
100
AcDbArc
 50
180.0
 51
270.0
  0
ARC
  5
4FD
100
AcDbEntity
  8
RACCORDO
100
AcDbCircle
 62
250
  6
CONTINUOUS
 10
-22.2
 20
-22.2
 40
1.7804947929
100
AcDbArc
 50
180.0
 51
270.0
  0
ARC
  5
4FE
100
AcDbEntity
  8
RACCORDO
100
AcDbCircle
 62
250
  6
CONTINUOUS
 10
-22.2
 20
-22.2
 40
0.7806448049
100
AcDbArc
 50
180.0
 51
270.0
  0
ARC
  5
4FF
100
AcDbEntity
  8
RACCORDO
100
AcDbCircle
 62
7
  6
CONTINUOUS
 10
-19.8354033303
 20
-41.6243235325
 40
0.5
100
AcDbArc
 50
244.697548208
 51
269.9978999375
  0
ARC
  5
500
100
AcDbEntity
  8
DRAFT
100
AcDbCircle
 62
7
  6
CONTINUOUS
 10
-40.0
 20
38.5
 40
4.0
100
AcDbArc
 50
90.0
 51
180.0
  0
ARC
  5
501
100
AcDbEntity
  8
RACCORDO
100
AcDbCircle
 62
250
  6
CONTINUOUS
 10
-22.2
 20
22.2
 40
3.9019934976
100
AcDbArc
 50
90.0
 51
180.0
  0
ARC
  5
502
100
AcDbEntity
  8
RACCORDO
100
AcDbCircle
 62
7
  6
CONTINUOUS
 10
-40.0
 20
38.5
 40
3.8219583377
100
AcDbArc
 50
90.0
 51
109.9923415942
  0
ARC
  5
503
100
AcDbEntity
  8
0
100
AcDbCircle
 62
7
  6
CONTINUOUS
 10
-22.2
 20
22.2
 40
2.3
100
AcDbArc
 50
90.0
 51
180.0
  0
ARC
  5
504
100
AcDbEntity
  8
DRAFT
100
AcDbCircle
 62
7
  6
CONTINUOUS
 10
-22.2
 20
22.2
 40
1.8
100
AcDbArc
 50
90.0
 51
180.0
  0
ARC
  5
505
100
AcDbEntity
  8
RACCORDO
100
AcDbCircle
 62
250
  6
CONTINUOUS
 10
-22.2
 20
22.2
 40
1.7804947929
100
AcDbArc
 50
90.0
 51
180.0
  0
ARC
  5
506
100
AcDbEntity
  8
RACCORDO
100
AcDbCircle
 62
250
  6
CONTINUOUS
 10
-22.2
 20
22.2
 40
0.7806448049
100
AcDbArc
 50
90.0
 51
180.0
  0
ARC
  5
507
100
AcDbEntity
  8
DRAFT
100
AcDbCircle
 62
7
  6
CONTINUOUS
 10
40.0
 20
-38.5
 40
4.0
100
AcDbArc
 50
270.0
 51
360.0
  0
ARC
  5
508
100
AcDbEntity
  8
0
100
AcDbCircle
 62
7
  6
CONTINUOUS
 10
39.99
 20
-38.49
 40
3.76
100
AcDbArc
 50
270.0
 51
360.0
  0
ARC
  5
509
100
AcDbEntity
  8
0
100
AcDbCircle
 62
7
  6
CONTINUOUS
 10
22.2
 20
-22.2
 40
2.3
100
AcDbArc
 50
270.0
 51
360.0
  0
ARC
  5
50A
100
AcDbEntity
  8
DRAFT
100
AcDbCircle
 62
7
  6
CONTINUOUS
 10
22.2
 20
-22.2
 40
1.8
100
AcDbArc
 50
270.0
 51
360.0
  0
ARC
  5
50B
100
AcDbEntity
  8
RACCORDO
100
AcDbCircle
 62
250
  6
CONTINUOUS
 10
22.2
 20
-22.2
 40
1.7804947929
100
AcDbArc
 50
270.0
 51
360.0
  0
ARC
  5
50C
100
AcDbEntity
  8
0
100
AcDbCircle
 62
7
  6
CONTINUOUS
 10
24.599711
 20
-29.989243
 40
0.8893898871
100
AcDbArc
 50
292.842868527
 51
90.0
  0
ARC
  5
50D
100
AcDbEntity
  8
RACCORDO
100
AcDbCircle
 62
250
  6
CONTINUOUS
 10
22.2
 20
-22.2
 40
0.7806448049
100
AcDbArc
 50
270.0
 51
360.0
  0
ARC
  5
50E
100
AcDbEntity
  8
RACCORDO
100
AcDbCircle
 62
7
  6
CONTINUOUS
 10
19.8354219762
 20
-41.6243052327
 40
0.5
100
AcDbArc
 50
269.9999634043
 51
295.2996469069
  0
ARC
  5
50F
100
AcDbEntity
  8
0
100
AcDbCircle
 62
7
  6
CONTINUOUS
 10
24.519205
 20
-29.989243
 40
0.352865
100
AcDbArc
 50
270.0
 51
90.0
  0
ARC
  5
510
100
AcDbEntity
  8
DRAFT
100
AcDbCircle
 62
7
  6
CONTINUOUS
 10
40.0
 20
38.5
 40
4.0
100
AcDbArc
 50
0.0
 51
90.0
  0
ARC
  5
511
100
AcDbEntity
  8
RACCORDO
100
AcDbCircle
 62
250
  6
CONTINUOUS
 10
22.2
 20
22.2
 40
3.9019922454
100
AcDbArc
 50
0.0
 51
90.0
  0
ARC
  5
512
100
AcDbEntity
  8
RACCORDO
100
AcDbCircle
 62
7
  6
CONTINUOUS
 10
40.0
 20
38.5
 40
3.8219583377
100
AcDbArc
 50
70.0076584058
 51
90.0
  0
ARC
  5
513
100
AcDbEntity
  8
0
100
AcDbCircle
 62
7
  6
CONTINUOUS
 10
22.2
 20
22.2
 40
2.3
100
AcDbArc
 50
0.0
 51
90.0
  0
ARC
  5
514
100
AcDbEntity
  8
DRAFT
100
AcDbCircle
 62
7
  6
CONTINUOUS
 10
22.2
 20
22.2
 40
1.8
100
AcDbArc
 50
0.0
 51
90.0
  0
ARC
  5
515
100
AcDbEntity
  8
RACCORDO
100
AcDbCircle
 62
250
  6
CONTINUOUS
 10
22.2
 20
22.2
 40
1.7804947929
100
AcDbArc
 50
0.0
 51
90.0
  0
ARC
  5
516
100
AcDbEntity
  8
RACCORDO
100
AcDbCircle
 62
250
  6
CONTINUOUS
 10
22.2
 20
22.2
 40
0.7806448049
100
AcDbArc
 50
0.0
 51
90.0
  0
ARC
  5
517
100
AcDbEntity
  8
RACCORDO
100
AcDbCircle
 62
7
  6
CONTINUOUS
 10
-102.2302136688
 20
-27.8999772707
 40
3.0000000003
100
AcDbArc
 50
36.0999623054
 51
36.8694568176
  0
ARC
  5
518
100
AcDbEntity
  8
RACCORDO
100
AcDbCircle
 62
7
  6
CONTINUOUS
 10
-100.1301966214
 20
-22.9806471005
 40
1.0
100
AcDbArc
 50
180.0
 51
268.9999999971
  0
ARC
  5
519
100
AcDbEntity
  8
RACCORDO
100
AcDbCircle
 62
7
  6
CONTINUOUS
 10
-99.0301966214
 20
-25.5
 40
1.0
100
AcDbArc
 50
180.0
 51
216.8391602508
  0
ARC
  5
51A
100
AcDbEntity
  8
0
100
AcDbCircle
 62
7
  6
CONTINUOUS
 10
-99.0301966214
 20
-25.5
 40
1.0
100
AcDbArc
 50
180.0
 51
216.8391602508
  0
ARC
  5
51B
100
AcDbEntity
  8
RACCORDO
100
AcDbCircle
 62
7
  6
CONTINUOUS
 10
-97.5438825859
 20
-41.0750581333
 40
1.0
100
AcDbArc
 50
263.5116282946
 51
269.000005906
  0
ARC
  5
51C
100
AcDbEntity
  8
SUPERFICI
100
AcDbCircle
 62
7
  6
CONTINUOUS
 10
-77.9160138418
 20
-39.0145882543
 40
0.5858172204
100
AcDbArc
 50
285.0000001439
 51
360.0
  0
ARC
  5
51D
100
AcDbEntity
  8
RACCORDO
100
AcDbCircle
 62
7
  6
CONTINUOUS
 10
-86.8301787906
 20
-41.8689933268
 40
0.5000038358
100
AcDbArc
 50
180.0020062393
 51
268.9979937607
  0
ARC
  5
51E
100
AcDbEntity
  8
RACCORDO
100
AcDbCircle
 62
7
  6
CONTINUOUS
 10
-95.5656007776
 20
-41.6243235325
 40
0.5
100
AcDbArc
 50
255.1062267792
 51
269.9979945704
  0
ARC
  5
51F
100
AcDbEntity
  8
RACCORDO
100
AcDbCircle
 62
7
  6
CONTINUOUS
 10
-93.2218249572
 20
37.5
 40
5.8916283358
100
AcDbArc
 50
0.0
 51
51.2011035197
  0
ARC
  5
520
100
AcDbEntity
  8
ASSI
100
AcDbCircle
 62
7
  6
CONTINUOUS
 10
-93.2218249572
 20
37.5
 40
5.8916283358
100
AcDbArc
 50
0.0
 51
32.8978922236
  0
ARC
  5
521
100
AcDbEntity
  8
ASSI
100
AcDbCircle
 62
7
  6
CONTINUOUS
 10
-93.2301966214
 20
37.5
 40
5.7
100
AcDbArc
 50
0.0
 51
10.002096405
  0
ARC
  5
522
100
AcDbEntity
  8
0
100
AcDbCircle
 62
7
  6
CONTINUOUS
 10
-93.2301966214
 20
37.5
 40
5.7
100
AcDbArc
 50
10.002096405
 51
55.0557346587
  0
ARC
  5
523
100
AcDbEntity
  8
RACCORDO
100
AcDbCircle
 62
7
  6
CONTINUOUS
 10
-102.2301101451
 20
27.9001152975
 40
3.0
100
AcDbArc
 50
323.1280333683
 51
359.9908435427
  0
ARC
  5
524
100
AcDbEntity
  8
RACCORDO
100
AcDbCircle
 62
7
  6
CONTINUOUS
 10
-100.1301966214
 20
22.9806471005
 40
1.0
100
AcDbArc
 50
91.0
 51
180.0
  0
ARC
  5
525
100
AcDbEntity
  8
RACCORDO
100
AcDbCircle
 62
7
  6
CONTINUOUS
 10
-99.0301966214
 20
25.5
 40
1.0
100
AcDbArc
 50
142.9707148414
 51
180.0
  0
ARC
  5
526
100
AcDbEntity
  8
0
100
AcDbCircle
 62
7
  6
CONTINUOUS
 10
-99.0301966214
 20
25.5
 40
1.0
100
AcDbArc
 50
142.9707148414
 51
180.0
  0
ARC
  5
527
100
AcDbEntity
  8
SUPERFICI
100
AcDbCircle
 62
7
  6
CONTINUOUS
 10
-77.9160138418
 20
39.0145882543
 40
0.5858172204
100
AcDbArc
 50
0.0
 51
74.999999876
  0
ARC
  5
528
100
AcDbEntity
  8
0
100
AcDbCircle
 62
7
  6
CONTINUOUS
 10
-63.8301966214
 20
-2.825
 40
3.125
100
AcDbArc
 50
275.2333267768
 51
290.2842123131
  0
ARC
  5
529
100
AcDbEntity
  8
0
100
AcDbCircle
 62
7
  6
CONTINUOUS
 10
-63.8301966214
 20
-2.825
 40
3.125
100
AcDbArc
 50
251.4152308359
 51
264.7666732232
  0
ARC
  5
52A
100
AcDbEntity
  8
0
100
AcDbCircle
 62
7
  6
CONTINUOUS
 10
-66.3301966214
 20
-2.825
 40
3.125
100
AcDbArc
 50
275.2333267768
 51
290.2842123131
  0
ARC
  5
52B
100
AcDbEntity
  8
0
100
AcDbCircle
 62
7
  6
CONTINUOUS
 10
-66.3301966214
 20
-2.825
 40
3.125
100
AcDbArc
 50
249.7157876869
 51
264.7666732232
  0
ARC
  5
52C
100
AcDbEntity
  8
0
100
AcDbCircle
 62
7
  6
CONTINUOUS
 10
-59.3301966214
 20
-4.75
 40
1.0
100
AcDbArc
 50
270.0
 51
360.0
  0
ARC
  5
52D
100
AcDbEntity
  8
0
100
AcDbCircle
 62
7
  6
CONTINUOUS
 10
-61.8301966214
 20
-4.75
 40
1.0
100
AcDbArc
 50
270.0
 51
360.0
  0
ARC
  5
52E
100
AcDbEntity
  8
RACCORDO
100
AcDbCircle
 62
7
  6
CONTINUOUS
 10
-73.3301966214
 20
-23.7414133366
 40
1.0
100
AcDbArc
 50
0.0
 51
89.5
  0
ARC
  5
52F
100
AcDbEntity
  8
0
100
AcDbCircle
 62
7
  6
CONTINUOUS
 10
-58.2301966214
 20
-2.35
 40
0.1
100
AcDbArc
 50
90.0
 51
180.0
  0
ARC
  5
530
100
AcDbEntity
  8
0
100
AcDbCircle
 62
7
  6
CONTINUOUS
 10
-60.7301966214
 20
-2.35
 40
0.1
100
AcDbArc
 50
90.0
 51
180.0
  0
ARC
  5
531
100
AcDbEntity
  8
0
100
AcDbCircle
 62
7
  6
CONTINUOUS
 10
-63.8301966214
 20
2.825
 40
3.125
100
AcDbArc
 50
69.7157876869
 51
84.7666732232
  0
ARC
  5
532
100
AcDbEntity
  8
0
100
AcDbCircle
 62
7
  6
CONTINUOUS
 10
-63.8301966214
 20
2.825
 40
3.125
100
AcDbArc
 50
95.2333267768
 51
108.5847691641
  0
ARC
  5
533
100
AcDbEntity
  8
0
100
AcDbCircle
 62
7
  6
CONTINUOUS
 10
-66.3301966214
 20
2.825
 40
3.125
100
AcDbArc
 50
69.7157876869
 51
84.7666732232
  0
ARC
  5
534
100
AcDbEntity
  8
0
100
AcDbCircle
 62
7
  6
CONTINUOUS
 10
-66.3301966214
 20
2.825
 40
3.125
100
AcDbArc
 50
95.2333267768
 51
110.2842123131
  0
ARC
  5
535
100
AcDbEntity
  8
0
100
AcDbCircle
 62
7
  6
CONTINUOUS
 10
-59.3301966214
 20
4.75
 40
1.0
100
AcDbArc
 50
0.0
 51
90.0
  0
ARC
  5
536
100
AcDbEntity
  8
0
100
AcDbCircle
 62
7
  6
CONTINUOUS
 10
-61.8301966214
 20
4.75
 40
1.0
100
AcDbArc
 50
0.0
 51
90.0
  0
ARC
  5
537
100
AcDbEntity
  8
RACCORDO
100
AcDbCircle
 62
7
  6
CONTINUOUS
 10
-73.3301966214
 20
23.7414133366
 40
1.0
100
AcDbArc
 50
270.5
 51
360.0
  0
ARC
  5
538
100
AcDbEntity
  8
0
100
AcDbCircle
 62
7
  6
CONTINUOUS
 10
-52.0301966214
 20
1.05
 40
0.2
100
AcDbArc
 50
0.0
 51
90.0
  0
ARC
  5
539
100
AcDbEntity
  8
0
100
AcDbCircle
 62
7
  6
CONTINUOUS
 10
-52.0301966214
 20
-1.05
 40
0.2
100
AcDbArc
 50
270.0
 51
360.0
  0
ARC
  5
53A
100
AcDbEntity
  8
0
100
AcDbCircle
 62
7
  6
CONTINUOUS
 10
-58.2301966214
 20
2.35
 40
0.1
100
AcDbArc
 50
180.0
 51
270.0
  0
ARC
  5
53B
100
AcDbEntity
  8
0
100
AcDbCircle
 62
7
  6
CONTINUOUS
 10
-60.7301966214
 20
2.35
 40
0.1
100
AcDbArc
 50
180.0
 51
270.0
  0
ELLIPSE
  5
53C
100
AcDbEntity
  8
RACCORDO
100
AcDbEllipse
 62
7
  6
CONTINUOUS
 10
-19.2
 20
-42.192136594
 30
0.0
 11
-0.0
 21
0.2020668318
 31
0.0
 40
0.9897715436
 41
-2.1118483949
 42
-1.5707963268
  0
ELLIPSE
  5
53D
100
AcDbEntity
  8
RACCORDO
100
AcDbEllipse
 62
7
  6
CONTINUOUS
 10
19.2
 20
-42.192136594
 30
0.0
 11
0.0
 21
0.2020668318
 31
0.0
 40
0.9897715436
 41
-4.7123889804
 42
-4.1713369123
  0
ELLIPSE
  5
53E
100
AcDbEntity
  8
ASSI
100
AcDbEllipse
 62
7
  6
CONTINUOUS
 10
43.6505061299
 20
37.5
 30
0.0
 11
0.0
 21
5.7
 31
0.0
 40
0.0174550649
 41
-1.5707963268
 42
-1.3962267931
  0
ELLIPSE
  5
53F
100
AcDbEntity
  8
ASSI
100
AcDbEllipse
 62
7
  6
CONTINUOUS
 10
-43.6505061299
 20
37.5
 30
0.0
 11
0.0
 21
5.7
 31
0.0
 40
0.0174550649
 41
1.3962268494
 42
1.5707963268
  0
ELLIPSE
  5
540
100
AcDbEntity
  8
0
100
AcDbEllipse
 62
7
  6
CONTINUOUS
 10
-39.99
 20
38.4241020879
 30
0.0
 11
-0.0
 21
3.7752888549
 31
0.0
 40
0.9998476487
 41
0.0
 42
0.1355240609
  0
ELLIPSE
  5
541
100
AcDbEntity
  8
0
100
AcDbEllipse
 62
7
  6
CONTINUOUS
 10
39.99
 20
38.4241020879
 30
0.0
 11
-0.0
 21
3.7752888549
 31
0.0
 40
0.9998476487
 41
-0.1355240609
 42
0.0
  0
ELLIPSE
  5
542
100
AcDbEntity
  8
DRAFT
100
AcDbEllipse
 62
7
  6
CONTINUOUS
 10
-41.7907091767
 20
0.0
 30
0.0
 11
27.442543015
 21
-0.0
 31
0.0
 40
0.9999619202
 41
2.9676197498
 42
3.022142254
  0
ELLIPSE
  5
543
100
AcDbEntity
  8
DRAFT
100
AcDbEllipse
 62
7
  6
CONTINUOUS
 10
-41.7907091767
 20
0.0
 30
0.0
 11
27.442543015
 21
0.0
 31
0.0
 40
0.9999619202
 41
-3.022142254
 42
-2.9676197498
  0
ELLIPSE
  5
544
100
AcDbEntity
  8
DRAFT
100
AcDbEllipse
 62
7
  6
CONTINUOUS
 10
-42.180770935
 20
0.0
 30
0.0
 11
28.7573127568
 21
0.0
 31
0.0
 40
0.9999862919
 41
2.9349572788
 42
3.0281546022
  0
ELLIPSE
  5
545
100
AcDbEntity
  8
DRAFT
100
AcDbEllipse
 62
7
  6
CONTINUOUS
 10
-42.180770935
 20
0.0
 30
0.0
 11
28.7573127568
 21
0.0
 31
0.0
 40
0.9999862919
 41
-3.0281546022
 42
-2.9349572788
  0
ENDSEC
  0
SECTION
  2
OBJECTS
  0
DICTIONARY
  5
C
100
AcDbDictionary
280
0
281
1
  3
ACAD_GROUP
350
D
  3
ACAD_MLINESTYLE
350
17
  3
ACAD_LAYOUT
350
1A
  3
ACAD_PLOTSETTINGS
350
19
  3
ACAD_PLOTSTYLENAME
350
E
  0
DICTIONARY
  5
D
102
{ACAD_REACTORS
330
C
102
}
100
AcDbDictionary
280
0
281
1
  0
ACDBDICTIONARYWDFLT
  5
E
102
{ACAD_REACTORS
330
C
102
}
100
AcDbDictionary
281
1
  3
Normal
350
F
100
AcDbDictionaryWithDefault
340
F
  0
DICTIONARY
  5
17
102
{ACAD_REACTORS
330
C
102
}
100
AcDbDictionary
280
0
281
1
  3
Standard
350
18
  0
DICTIONARY
  5
19
102
{ACAD_REACTORS
330
C
102
}
100
AcDbDictionary
281
1
  0
DICTIONARY
  5
1A
102
{ACAD_REACTORS
330
C
102
}
100
AcDbDictionary
281
1
  3
Model
350
546
  3
Layout1
350
547
  0
ACDBPLACEHOLDER
  5
F
102
{ACAD_REACTORS
330
E
102
}
  0
MLINESTYLE
  5
18
102
{ACAD_REACTORS
330
17
102
}
100
AcDbMlineStyle
  2
STANDARD
 70
0
  3

 62
256
 51
90.0
 52
90.0
 71
2
 49
0.5
 62
256
  6
BYLAYER
 49
-0.5
 62
256
  6
BYLAYER
  0
LAYOUT
  5
546
102
{ACAD_REACTORS
330
1A
102
}
100
AcDbPlotSettings
  1

  2
none_device
  4
ISO_A4_(297.00_x_210.00_MM)
  6

 40
0.0
 41
0.0
 42
0.0
 43
0.0
 44
297.0
 45
210.0
 46
0.0
 47
0.0
 48
0.0
 49
0.0
140
0.0
141
0.0
142
1.0
143
1.0
 70
1024
 72
1
 73
0
 74
0
  7

 75
0
147
1.0
148
0.0
149
0.0
100
AcDbLayout
  1
Model
 70
0
 71
0
 10
0.0
 20
0.0
 11
297.0
 21
210.0
 12
0.0
 22
0.0
 32
0.0
 14
0.0
 24
0.0
 34
0.0
 15
0.0
 25
0.0
 35
0.0
146
0.0
 13
0.0
 23
0.0
 33
0.0
 16
1.0
 26
0.0
 36
0.0
 17
0.0
 27
1.0
 37
0.0
 76
0
330
211
345
0
346
0
  0
LAYOUT
  5
547
102
{ACAD_REACTORS
330
1A
102
}
100
AcDbPlotSettings
  1

  2
none_device
  4
ISO_A4_(297.00_x_210.00_MM)
  6

 40
0.0
 41
0.0
 42
0.0
 43
0.0
 44
297.0
 45
210.0
 46
0.0
 47
0.0
 48
0.0
 49
0.0
140
0.0
141
0.0
142
1.0
143
1.0
 70
0
 72
1
 73
0
 74
0
  7

 75
0
147
1.0
148
0.0
149
0.0
100
AcDbLayout
  1
Layout1
 70
0
 71
1
 10
0.0
 20
0.0
 11
297.0
 21
210.0
 12
0.0
 22
0.0
 32
0.0
 14
0.0
 24
0.0
 34
0.0
 15
0.0
 25
0.0
 35
0.0
146
0.0
 13
0.0
 23
0.0
 33
0.0
 16
1.0
 26
0.0
 36
0.0
 17
0.0
 27
1.0
 37
0.0
 76
0
330
212
345
0
346
0
  0
ENDSEC
  0
EOF
