  0
SECTION
  2
HEADER
  9
$ACADVER
  1
AC1024
  9
$DWGCODEPAGE
  3
ANSI_1252
  9
$EXTMAX
 10
558.8
 20
431.8
 30
0.0
  9
$EXTMIN
 10
0.0
 20
0.0
 30
0.0
  9
$LIMMIN
 10
0.0
 20
0.0
  9
$LIMMAX
 10
558.8
 20
431.8
  9
$VIEWCTR
 10
279.4
 20
215.9
  9
$VIEWSIZE
 40
431.8
  9
$CLAYER
  8
0
  9
$LTSCALE
 40
30.734
  9
$CELTYPE
  6
BYLAYER
  9
$DIMSCALE
 40
1.0
  9
$DIMASZ
 40
3.0
  9
$DIMEXO
 40
0.5
  9
$DIMDLI
 40
21.2344
  9
$DIMEXE
 40
1.5
  9
$DIMCEN
 40
5.0292
  9
$DIMLFAC
 40
1.0
  9
$DIMBLK
  1
_FILLED
  9
$DIMALT
 70
0
  9
$DIMALTF
 40
0.0393700787
  9
$DIMTXT
 40
3.0
  9
$DIMTOL
 70
1
  9
$DIMLIM
 70
0
  9
$DIMTFAC
 40
1.0
  9
$DIMTP
 40
0.01
  9
$DIMTM
 40
0.01
  9
$DIMGAP
 40
0.625
  9
$DIMDSEP
 70
44
  9
$AUNITS
 70
0
  9
$PDMODE
 70
3
  9
$PDSIZE
 40
3.0
  9
$HANDSEED
  5
73F
  9
$TILEMODE
 70
1
  9
$MEASUREMENT
 70
1
  9
$INSUNITS
 70
4
  0
ENDSEC
  0
SECTION
  2
CLASSES
  0
CLASS
  1
ACDBDICTIONARYWDFLT
  2
AcDbDictionaryWithDefault
  3
AutoCAD 2000
 90
0
 91
1
280
0
281
0
  0
CLASS
  1
ACDBPLACEHOLDER
  2
AcDbPlaceHolder
  3
AutoCAD 2000
 90
0
 91
1
280
0
281
0
  0
CLASS
  1
LAYOUT
  2
AcDbLayout
  3
AutoCAD 2000
 90
0
 91
0
280
0
281
0
  0
ENDSEC
  0
SECTION
  2
TABLES
  0
TABLE
  2
VPORT
  5
8
100
AcDbSymbolTable
 70
2
  0
VPORT
  5
1F4
100
AcDbSymbolTableRecord
100
AcDbViewportTableRecord
  2
*ACTIVE
 70
0
 10
0.0
 20
0.0
 11
1.0
 21
1.0
 12
279.4
 22
215.9
 13
0.0
 23
0.0
 14
1.0
 24
1.0
 15
0.0
 25
0.0
 16
0.0
 26
0.0
 36
1.0
 17
0.0
 27
0.0
 37
0.0
 40
431.8
 41
1.2941176471
 42
50.0
 43
0.0
 44
0.0
 50
0.0
 51
0.0
 71
0
 72
100
 73
1
 74
1
 75
0
 76
0
 77
0
 78
0
  0
ENDTAB
  0
TABLE
  2
LTYPE
  5
5
100
AcDbSymbolTable
 70
6
  0
LTYPE
  5
14
100
AcDbSymbolTableRecord
100
AcDbLinetypeTableRecord
  2
BYBLOCK
 70
0
  3

 72
65
 73
0
 40
0.0
  0
LTYPE
  5
15
100
AcDbSymbolTableRecord
100
AcDbLinetypeTableRecord
  2
BYLAYER
 70
0
  3

 72
65
 73
0
 40
0.0
  0
LTYPE
  5
16
100
AcDbSymbolTableRecord
100
AcDbLinetypeTableRecord
  2
CONTINUOUS
 70
64
  3
Solid line
 72
65
 73
0
 40
0.0
  0
LTYPE
  5
1F5
100
AcDbSymbolTableRecord
100
AcDbLinetypeTableRecord
  2
CENTER
 70
64
  3
____ _ ____ _ ____ _ ____ _ ____ _ ____ _ ____
 72
65
 73
4
 40
0.6
 49
0.375
 74
0
 49
-0.075
 74
0
 49
0.075
 74
0
 49
-0.075
 74
0
  0
LTYPE
  5
1F6
100
AcDbSymbolTableRecord
100
AcDbLinetypeTableRecord
  2
HIDDEN
 70
64
  3
- - - - - - - - - - - - - - - - - - - -
 72
65
 73
2
 40
0.2
 49
0.1
 74
0
 49
-0.1
 74
0
  0
LTYPE
  5
1F7
100
AcDbSymbolTableRecord
100
AcDbLinetypeTableRecord
  2
PHANTOM
 70
64
  3
_____ _ _ _____ _ _ _____ _ _ _____
 72
65
 73
6
 40
0.8
 49
0.45
 74
0
 49
-0.05
 74
0
 49
0.1
 74
0
 49
-0.05
 74
0
 49
0.1
 74
0
 49
-0.05
 74
0
  0
LTYPE
  5
1F8
100
AcDbSymbolTableRecord
100
AcDbLinetypeTableRecord
  2
DOT
 70
64
  3
. . . . . . . . . . . . . . . . . . . .
 72
65
 73
2
 40
0.2
 49
0.1
 74
0
 49
-0.1
 74
0
  0
LTYPE
  5
1F9
100
AcDbSymbolTableRecord
100
AcDbLinetypeTableRecord
  2
DASHED
 70
64
  3
- - - - - - - - - - - - - - - - - - - -
 72
65
 73
2
 40
0.2
 49
0.1
 74
0
 49
-0.1
 74
0
  0
ENDTAB
  0
TABLE
  2
LAYER
  5
2
100
AcDbSymbolTable
 70
36
  0
LAYER
  5
10
100
AcDbSymbolTableRecord
100
AcDbLayerTableRecord
  2
0
 70
0
 62
7
  6
CONTINUOUS
370
-3
390
F
  0
LAYER
  5
1FA
100
AcDbSymbolTableRecord
100
AcDbLayerTableRecord
  2
DEFAULT_1
 70
0
 62
7
  6
CENTER
370
-3
390
F
  0
LAYER
  5
1FB
100
AcDbSymbolTableRecord
100
AcDbLayerTableRecord
  2
DEFAULT_2
 70
0
 62
7
  6
HIDDEN
370
-3
390
F
  0
LAYER
  5
1FC
100
AcDbSymbolTableRecord
100
AcDbLayerTableRecord
  2
DEFAULT_3
 70
0
 62
7
  6
PHANTOM
370
-3
390
F
  0
LAYER
  5
1FD
100
AcDbSymbolTableRecord
100
AcDbLayerTableRecord
  2
ASSI
 70
0
 62
7
  6
CONTINUOUS
370
-3
390
F
  0
LAYER
  5
1FE
100
AcDbSymbolTableRecord
100
AcDbLayerTableRecord
  2
COLOR5
 70
0
 62
7
  6
CONTINUOUS
370
-3
390
F
  0
LAYER
  5
1FF
100
AcDbSymbolTableRecord
100
AcDbLayerTableRecord
  2
COORDINATE
 70
0
 62
7
  6
CONTINUOUS
370
-3
390
F
  0
LAYER
  5
200
100
AcDbSymbolTableRecord
100
AcDbLayerTableRecord
  2
COORD_ORIGINE
 70
0
 62
7
  6
CONTINUOUS
370
-3
390
F
  0
LAYER
  5
201
100
AcDbSymbolTableRecord
100
AcDbLayerTableRecord
  2
CURVE
 70
0
 62
7
  6
CONTINUOUS
370
-3
390
F
  0
LAYER
  5
202
100
AcDbSymbolTableRecord
100
AcDbLayerTableRecord
  2
DRAFT
 70
0
 62
7
  6
CONTINUOUS
370
-3
390
F
  0
LAYER
  5
203
100
AcDbSymbolTableRecord
100
AcDbLayerTableRecord
  2
IGS
 70
0
 62
7
  6
CONTINUOUS
370
-3
390
F
  0
LAYER
  5
204
100
AcDbSymbolTableRecord
100
AcDbLayerTableRecord
  2
INTF_1
 70
0
 62
7
  6
CONTINUOUS
370
-3
390
F
  0
LAYER
  5
205
100
AcDbSymbolTableRecord
100
AcDbLayerTableRecord
  2
INTF_7
 70
0
 62
7
  6
CONTINUOUS
370
-3
390
F
  0
LAYER
  5
206
100
AcDbSymbolTableRecord
100
AcDbLayerTableRecord
  2
NOTE
 70
0
 62
7
  6
CONTINUOUS
370
-3
390
F
  0
LAYER
  5
207
100
AcDbSymbolTableRecord
100
AcDbLayerTableRecord
  2
PIANI
 70
0
 62
7
  6
CONTINUOUS
370
-3
390
F
  0
LAYER
  5
208
100
AcDbSymbolTableRecord
100
AcDbLayerTableRecord
  2
PIANI_ORIGINE
 70
0
 62
7
  6
CONTINUOUS
370
-3
390
F
  0
LAYER
  5
209
100
AcDbSymbolTableRecord
100
AcDbLayerTableRecord
  2
PUNTI
 70
0
 62
7
  6
CONTINUOUS
370
-3
390
F
  0
LAYER
  5
20A
100
AcDbSymbolTableRecord
100
AcDbLayerTableRecord
  2
RACCORDO
 70
0
 62
7
  6
CONTINUOUS
370
-3
390
F
  0
LAYER
  5
20B
100
AcDbSymbolTableRecord
100
AcDbLayerTableRecord
  2
RGB__255__255__255__
 70
0
 62
7
  6
CONTINUOUS
370
-3
390
F
  0
LAYER
  5
20C
100
AcDbSymbolTableRecord
100
AcDbLayerTableRecord
  2
RGB____0____0____0__
 70
0
 62
7
  6
CONTINUOUS
370
-3
390
F
  0
LAYER
  5
20D
100
AcDbSymbolTableRecord
100
AcDbLayerTableRecord
  2
SKEL_COPERCHIO
 70
0
 62
7
  6
CONTINUOUS
370
-3
390
F
  0
LAYER
  5
20E
100
AcDbSymbolTableRecord
100
AcDbLayerTableRecord
  2
SMUSSO
 70
0
 62
7
  6
CONTINUOUS
370
-3
390
F
  0
LAYER
  5
20F
100
AcDbSymbolTableRecord
100
AcDbLayerTableRecord
  2
SNAPLINE
 70
0
 62
7
  6
CONTINUOUS
370
-3
390
F
  0
LAYER
  5
210
100
AcDbSymbolTableRecord
100
AcDbLayerTableRecord
  2
SUPERFICI
 70
0
 62
7
  6
CONTINUOUS
370
-3
390
F
  0
LAYER
  5
211
100
AcDbSymbolTableRecord
100
AcDbLayerTableRecord
  2
TESTO
 70
0
 62
7
  6
CONTINUOUS
370
-3
390
F
  0
LAYER
  5
212
100
AcDbSymbolTableRecord
100
AcDbLayerTableRecord
  2
TRASH
 70
0
 62
7
  6
CONTINUOUS
370
-3
390
F
  0
LAYER
  5
213
100
AcDbSymbolTableRecord
100
AcDbLayerTableRecord
  2
XSEC_DATUMS
 70
0
 62
7
  6
CONTINUOUS
370
-3
390
F
  0
ENDTAB
  0
TABLE
  2
STYLE
  5
3
100
AcDbSymbolTable
 70
1
  0
STYLE
  5
11
100
AcDbSymbolTableRecord
100
AcDbTextStyleTableRecord
  2
STANDARD
 70
0
 40
0.0
 41
0.8
 50
0.0
 71
0
 42
0.2
  3
txt
  4

  0
STYLE
  5
214
100
AcDbSymbolTableRecord
100
AcDbTextStyleTableRecord
  2
TEXTSTYLE_1
 70
0
 40
0.0
 41
0.8
 50
0.0
 71
0
 42
0.2
  3
gdt
  4

  0
ENDTAB
  0
TABLE
  2
VIEW
  5
6
100
AcDbSymbolTable
 70
0
  0
ENDTAB
  0
TABLE
  2
UCS
  5
7
100
AcDbSymbolTable
 70
0
  0
ENDTAB
  0
TABLE
  2
APPID
  5
9
100
AcDbSymbolTable
 70
1
  0
APPID
  5
215
100
AcDbSymbolTableRecord
100
AcDbRegAppTableRecord
  2
ACAD
 70
0
  0
ENDTAB
  0
TABLE
  2
BLOCK_RECORD
  5
1
100
AcDbSymbolTable
 70
0
  0
BLOCK_RECORD
  5
216
100
AcDbSymbolTableRecord
100
AcDbBlockTableRecord
  2
*Model_Space
  0
BLOCK_RECORD
  5
217
100
AcDbSymbolTableRecord
100
AcDbBlockTableRecord
  2
*Paper_Space
  0
BLOCK_RECORD
  5
218
100
AcDbSymbolTableRecord
100
AcDbBlockTableRecord
  2
_FILLED
  0
BLOCK_RECORD
  5
219
100
AcDbSymbolTableRecord
100
AcDbBlockTableRecord
  2
*D0
  0
BLOCK_RECORD
  5
21A
100
AcDbSymbolTableRecord
100
AcDbBlockTableRecord
  2
*D1
  0
BLOCK_RECORD
  5
21B
100
AcDbSymbolTableRecord
100
AcDbBlockTableRecord
  2
*D2
  0
ENDTAB
  0
TABLE
  2
DIMSTYLE
  5
A
100
AcDbSymbolTable
 70
1
100
AcDbDimStyleTable
 71
0
  0
DIMSTYLE
105
21C
100
AcDbSymbolTableRecord
100
AcDbDimStyleTableRecord
  2
STANDARD
 70
0
  3

  4

 40
1.0
 41
3.0
 42
0.5
 43
0.38
 44
1.5
 45
0.0
 46
0.0
 47
0.01
 48
0.01
140
3.0
141
0.09
142
0.0
143
25.4
144
1.0
145
0.0
146
1.0
147
0.625
 71
1.0
 72
0.0
 73
0
 74
0
 75
0
 76
0
 77
1
 78
8
 79
2
170
0
171
1
172
0
173
0
174
0
175
0
176
0
177
0
178
0
270
2
179
2
271
2
272
2
273
2
274
2
275
0
280
0
281
0
282
0
283
1
284
8
285
0
286
0
287
3
288
0
340
11
278
44
341
218
342
218
343
218
344
218
  0
DIMSTYLE
105
21D
100
AcDbSymbolTableRecord
100
AcDbDimStyleTableRecord
  2
DIMSTYLE_1
 70
0
  3

  4

 40
1.0
 41
3.0
 42
0.5
 43
0.38
 44
1.5
 45
0.0
 46
0.0
 47
0.0
 48
0.0
140
3.0
141
0.09
142
0.0
143
25.4
144
1.0
145
0.0
146
1.0
147
0.75
 71
0.0
 72
0.0
 73
0
 74
0
 75
0
 76
0
 77
1
 78
8
 79
2
170
0
171
1
172
0
173
0
174
0
175
0
176
0
177
0
178
0
270
2
179
2
271
1
272
1
273
2
274
2
275
0
280
0
281
0
282
0
283
1
284
8
285
0
286
0
287
3
288
0
340
11
278
44
341
218
342
218
343
218
344
218
  0
DIMSTYLE
105
21E
100
AcDbSymbolTableRecord
100
AcDbDimStyleTableRecord
  2
DIMSTYLE_2
 70
0
  3

  4

 40
1.0
 41
3.0
 42
0.5
 43
0.38
 44
1.5
 45
0.0
 46
0.0
 47
0.0
 48
0.0
140
3.0
141
0.09
142
0.0
143
25.4
144
1.0
145
0.0
146
1.0
147
0.75
 71
0.0
 72
0.0
 73
0
 74
0
 75
0
 76
0
 77
1
 78
8
 79
2
170
0
171
1
172
0
173
0
174
0
175
0
176
0
177
0
178
0
270
2
179
2
271
2
272
2
273
2
274
2
275
0
280
0
281
0
282
0
283
1
284
8
285
0
286
0
287
3
288
0
340
11
278
44
341
218
342
218
343
218
344
218
  0
ENDTAB
  0
ENDSEC
  0
SECTION
  2
BLOCKS
  0
BLOCK
  5
20
100
AcDbEntity
  8
0
100
AcDbBlockBegin
  2
*Model_Space
 70
0
 10
0.0
 20
0.0
 30
0.0
  3
*Model_Space
  1

  0
ENDBLK
  5
21
100
AcDbEntity
  8
0
100
AcDbBlockEnd
  0
BLOCK
  5
1C
100
AcDbEntity
  8
0
100
AcDbBlockBegin
  2
*Paper_Space
 70
0
 10
0.0
 20
0.0
 30
0.0
  3
*Paper_Space
  1

  0
ENDBLK
  5
1D
100
AcDbEntity
  8
0
100
AcDbBlockEnd
  0
BLOCK
  5
21F
100
AcDbEntity
  8
0
100
AcDbBlockBegin
  2
_FILLED
 70
64
 10
0.0
 20
0.0
  3
_FILLED
  1

  0
SOLID
  5
220
100
AcDbEntity
  8
0
  6
BYBLOCK
 62
0
100
AcDbTrace
 10
0.0
 20
0.0
 11
-1.0
 21
0.3166666667
 12
-1.0
 22
-0.3166666667
 13
-1.0
 23
-0.3166666667
  0
ENDBLK
  5
221
100
AcDbEntity
  8
0
  6
BYBLOCK
 62
0
100
AcDbBlockEnd
  0
BLOCK
  5
222
100
AcDbEntity
  8
0
100
AcDbBlockBegin
 62
7
  6
CONTINUOUS
  2
*D0
 70
65
 10
0.0
 20
0.0
  3
*D0
  1

  0
LINE
  5
223
100
AcDbEntity
  8
0
100
AcDbLine
 62
7
  6
CONTINUOUS
 10
-75.4949769592
 20
39.0
 11
-75.4949769592
 21
52.0
  0
LINE
  5
224
100
AcDbEntity
  8
0
100
AcDbLine
 62
7
  6
CONTINUOUS
 10
-97.286605295
 20
22.7
 11
-97.286605295
 21
52.0
  0
LINE
  5
225
100
AcDbEntity
  8
0
100
AcDbLine
 62
7
  6
CONTINUOUS
 10
-75.4949769592
 20
50.5
 11
-86.3907911271
 21
50.5
  0
LINE
  5
226
100
AcDbEntity
  8
0
100
AcDbLine
 62
7
  6
CONTINUOUS
 10
-97.286605295
 20
50.5
 11
-86.3907911271
 21
50.5
  0
INSERT
  5
227
100
AcDbEntity
  8
0
100
AcDbBlockReference
 62
7
  6
CONTINUOUS
  2
_FILLED
 10
-75.4949769592
 20
50.5
 41
3.0
 42
3.0
 43
3.0
  0
INSERT
  5
228
100
AcDbEntity
  8
0
100
AcDbBlockReference
 62
7
  6
CONTINUOUS
  2
_FILLED
 10
-97.286605295
 20
50.5
 41
3.0
 42
3.0
 43
3.0
 50
180.0
  0
ENDBLK
  5
229
100
AcDbEntity
  8
0
  6
BYBLOCK
 62
0
100
AcDbBlockEnd
  0
BLOCK
  5
22A
100
AcDbEntity
  8
0
100
AcDbBlockBegin
 62
7
  6
CONTINUOUS
  2
*D1
 70
65
 10
0.0
 20
0.0
  3
*D1
  1

  0
LINE
  5
22B
100
AcDbEntity
  8
0
100
AcDbLine
 62
7
  6
CONTINUOUS
 10
-44.0
 20
39.0
 11
-44.0
 21
52.0
  0
LINE
  5
22C
100
AcDbEntity
  8
0
100
AcDbLine
 62
7
  6
CONTINUOUS
 10
44.0
 20
39.0
 11
44.0
 21
52.0
  0
LINE
  5
22D
100
AcDbEntity
  8
0
100
AcDbLine
 62
7
  6
CONTINUOUS
 10
-44.0
 20
50.5
 11
0.0
 21
50.5
  0
LINE
  5
22E
100
AcDbEntity
  8
0
100
AcDbLine
 62
7
  6
CONTINUOUS
 10
44.0
 20
50.5
 11
0.0
 21
50.5
  0
INSERT
  5
22F
100
AcDbEntity
  8
0
100
AcDbBlockReference
 62
7
  6
CONTINUOUS
  2
_FILLED
 10
-44.0
 20
50.5
 41
3.0
 42
3.0
 43
3.0
 50
180.0
  0
INSERT
  5
230
100
AcDbEntity
  8
0
100
AcDbBlockReference
 62
7
  6
CONTINUOUS
  2
_FILLED
 10
44.0
 20
50.5
 41
3.0
 42
3.0
 43
3.0
  0
ENDBLK
  5
231
100
AcDbEntity
  8
0
  6
BYBLOCK
 62
0
100
AcDbBlockEnd
  0
BLOCK
  5
232
100
AcDbEntity
  8
0
100
AcDbBlockBegin
 62
7
  6
CONTINUOUS
  2
*D2
 70
65
 10
0.0
 20
0.0
  3
*D2
  1

  0
LINE
  5
233
100
AcDbEntity
  8
0
100
AcDbLine
 62
7
  6
CONTINUOUS
 10
40.5
 20
42.5
 11
53.5
 21
42.5
  0
LINE
  5
234
100
AcDbEntity
  8
0
100
AcDbLine
 62
7
  6
CONTINUOUS
 10
40.5
 20
-42.5
 11
53.5
 21
-42.5
  0
LINE
  5
235
100
AcDbEntity
  8
0
100
AcDbLine
 62
7
  6
CONTINUOUS
 10
52.0
 20
42.5
 11
52.0
 21
0.0
  0
LINE
  5
236
100
AcDbEntity
  8
0
100
AcDbLine
 62
7
  6
CONTINUOUS
 10
52.0
 20
-42.5
 11
52.0
 21
0.0
  0
INSERT
  5
237
100
AcDbEntity
  8
0
100
AcDbBlockReference
 62
7
  6
CONTINUOUS
  2
_FILLED
 10
52.0
 20
42.5
 41
3.0
 42
3.0
 43
3.0
 50
90.0
  0
INSERT
  5
238
100
AcDbEntity
  8
0
100
AcDbBlockReference
 62
7
  6
CONTINUOUS
  2
_FILLED
 10
52.0
 20
-42.5
 41
3.0
 42
3.0
 43
3.0
 50
270.0
  0
ENDBLK
  5
239
100
AcDbEntity
  8
0
  6
BYBLOCK
 62
0
100
AcDbBlockEnd
  0
ENDSEC
  0
SECTION
  2
ENTITIES
  0
DIMENSION
  5
23A
100
AcDbEntity
  8
0
100
AcDbDimension
 62
7
  6
CONTINUOUS
  2
*D0
 10
-97.286605295
 20
50.5
 11
-90.4622196985
 21
50.5
 70
160
 71
2
 72
2
 41
0.9
 42
21.7916283358
  3
DIMSTYLE_1
100
AcDbAlignedDimension
 13
-75.4949769592
 23
38.5
 14
-97.286605295
 24
22.2
 50
180.0
100
AcDbRotatedDimension
  0
DIMENSION
  5
23B
100
AcDbEntity
  8
0
100
AcDbDimension
 62
7
  6
CONTINUOUS
  2
*D1
 10
44.0
 20
50.5
 11
-2.3571428571
 21
50.5
 70
160
 71
2
 72
2
 41
0.9
 42
88.0
  3
DIMSTYLE_2
100
AcDbAlignedDimension
 13
-44.0
 23
38.5
 14
44.0
 24
38.5
100
AcDbRotatedDimension
  0
DIMENSION
  5
23C
100
AcDbEntity
  8
0
100
AcDbDimension
 62
7
  6
CONTINUOUS
  2
*D2
 10
52.0
 20
-42.5
 11
52.0
 21
-2.25
 70
160
 71
2
 72
2
 41
0.9
 42
85.0
  3
DIMSTYLE_2
100
AcDbAlignedDimension
 13
40.0
 23
42.5
 14
40.0
 24
-42.5
 50
270.0
100
AcDbRotatedDimension
  0
LWPOLYLINE
  5
23D
100
AcDbEntity
  8
RACCORDO
100
AcDbPolyline
 62
250
  6
CONTINUOUS
 90
11
 70
0
 10
-42.1409815664
 20
41.5376958054
 10
-42.0709622637
 20
41.5959829737
 10
-41.9902485877
 20
41.6599425814
 10
-41.9077005156
 20
41.7222466381
 10
-41.8240080426
 20
41.782285935
 10
-41.7391231705
 20
41.8400976724
 10
-41.6530938975
 20
41.8957409582
 10
-41.5667542126
 20
41.948696536
 10
-41.4803821121
 20
41.9988530665
 10
-41.3936995998
 20
42.0464768241
 10
-41.3067066756
 20
42.0916407392
  0
LWPOLYLINE
  5
23E
100
AcDbEntity
  8
0
100
AcDbPolyline
 62
7
  6
CONTINUOUS
 90
19
 70
0
 10
-41.4914878185
 20
41.8976756663
 10
-41.6586678064
 20
41.8207251951
 10
-41.825845104
 20
41.7336463271
 10
-41.9909199149
 20
41.6366541642
 10
-42.1540534862
 20
41.5290755102
 10
-42.3150845707
 20
41.4104563141
 10
-42.4714296315
 20
41.2814827222
 10
-42.6232782122
 20
41.141477482
 10
-42.7704407691
 20
40.9901917079
 10
-42.9097651343
 20
40.8292384196
 10
-43.0412180572
 20
40.6580895705
 10
-43.1648327883
 20
40.4768167086
 10
-43.2775569123
 20
40.2883594759
 10
-43.3789787573
 20
40.0925015434
 10
-43.4695099952
 20
39.8896385039
 10
-43.5473332248
 20
39.684123631
 10
-43.6116678977
 20
39.4754625174
 10
-43.6632945625
 20
39.2648693597
 10
-43.7027374639
 20
39.0597694428
  0
LINE
  5
23F
100
AcDbEntity
  8
0
100
AcDbLine
 62
7
  6
CONTINUOUS
 10
-43.7027374639
 20
39.0597694428
 11
-43.7301713502
 21
38.8631085581
  0
LWPOLYLINE
  5
240
100
AcDbEntity
  8
RACCORDO
100
AcDbPolyline
 62
250
  6
CONTINUOUS
 90
4
 70
0
 10
-43.8593579881
 20
-38.7760762206
 10
-43.8648456503
 20
-38.6841143366
 10
-43.8681418787
 20
-38.5920715282
 10
-43.8692464992
 20
-38.5
  0
LWPOLYLINE
  5
241
100
AcDbEntity
  8
SUPERFICI
100
AcDbPolyline
 62
7
  6
CONTINUOUS
 90
34
 70
0
 10
-43.5932129677
 20
-38.4899998103
 10
-43.5902449891
 20
-38.6331612005
 10
-43.5816632466
 20
-38.7767891173
 10
-43.5673654911
 20
-38.9205312405
 10
-43.5470510403
 20
-39.064150345
 10
-43.5207946816
 20
-39.2071294973
 10
-43.4890633664
 20
-39.3487336664
 10
-43.4516387121
 20
-39.4885983495
 10
-43.4085128688
 20
-39.6264004967
 10
-43.3604975185
 20
-39.7615909487
 10
-43.3076547775
 20
-39.8934742461
 10
-43.2497242474
 20
-40.0222287144
 10
-43.1870323717
 20
-40.1486586569
 10
-43.1199663136
 20
-40.2717430581
 10
-43.0478957961
 20
-40.3919566549
 10
-42.9694870504
 20
-40.5120231818
 10
-42.8846615109
 20
-40.631251377
 10
-42.7929862678
 20
-40.749175394
 10
-42.6923092505
 20
-40.8681690782
 10
-42.5817143109
 20
-40.9877380978
 10
-42.4611377244
 20
-41.1063240672
 10
-42.3294250629
 20
-41.2241295083
 10
-42.1846896363
 20
-41.3412070611
 10
-42.0274136509
 20
-41.4550074578
 10
-41.8601410583
 20
-41.5622739162
 10
-41.6825606061
 20
-41.6630883415
 10
-41.4940484201
 20
-41.7564052659
 10
-41.2973800332
 20
-41.8386248749
 10
-41.0925879823
 20
-41.9106458576
 10
-40.879598291
 20
-41.9721851193
 10
-40.6619509823
 20
-42.0193259598
 10
-40.4413789317
 20
-42.051741846
 10
-40.2172391828
 20
-42.0718719454
 10
-39.99
 20
-42.080588424
  0
LWPOLYLINE
  5
242
100
AcDbEntity
  8
SKEL_COPERCHIO
100
AcDbPolyline
 62
7
  6
CONTINUOUS
 90
34
 70
0
 10
-43.593212958
 20
-38.4900000687
 10
-43.5903758638
 20
-38.6333713232
 10
-43.581773196
 20
-38.7769601609
 10
-43.5673654911
 20
-38.9205312405
 10
-43.5470815966
 20
-39.0640967893
 10
-43.5209226793
 20
-39.2071598944
 10
-43.4890633664
 20
-39.3487336664
 10
-43.4516086951
 20
-39.4885395894
 10
-43.408646571
 20
-39.6264144701
 10
-43.3604975185
 20
-39.7615909487
 10
-43.3075297573
 20
-39.8934463199
 10
-43.249774856
 20
-40.0222695859
 10
-43.1870323717
 20
-40.1486586569
 10
-43.1197916529
 20
-40.2717500608
 10
-43.0478314854
 20
-40.3920582734
 10
-42.9694870504
 20
-40.5120231818
 10
-42.8845944352
 20
-40.6312252304
 10
-42.79297035
 20
-40.7492726933
 10
-42.6923092505
 20
-40.8681690782
 10
-42.5817576274
 20
-40.9875844245
 10
-42.4612887865
 20
-41.1062212561
 10
-42.3294250629
 20
-41.2241295083
 10
-42.1847001042
 20
-41.3409420858
 10
-42.0276832296
 20
-41.4545197976
 10
-41.8601410583
 20
-41.5622739162
 10
-41.6823224958
 20
-41.6629981213
 10
-41.4941476744
 20
-41.7557010201
 10
-41.2973800332
 20
-41.8386248749
 10
-41.0922879948
 20
-41.9109113363
 10
-40.8795590919
 20
-41.9715767835
 10
-40.6619509823
 20
-42.0193259598
 10
-40.4409579517
 20
-42.0535988386
 10
-40.2166889687
 20
-42.0741456886
 10
-39.99
 20
-42.080588424
  0
LINE
  5
243
100
AcDbEntity
  8
RACCORDO
100
AcDbLine
 62
7
  6
CONTINUOUS
 10
-43.8641154491
 20
38.5
 11
-43.8629107797
 21
38.5836955164
  0
LINE
  5
244
100
AcDbEntity
  8
0
100
AcDbLine
 62
7
  6
CONTINUOUS
 10
-43.7454214733
 20
38.6730462423
 11
-43.748487833
 21
38.4899998089
  0
LWPOLYLINE
  5
245
100
AcDbEntity
  8
RACCORDO
100
AcDbPolyline
 62
7
  6
CONTINUOUS
 90
3
 70
0
 10
-43.8629107797
 20
38.5836955164
 10
-43.8598706942
 20
38.66741182
 10
-43.8549921591
 20
38.7511081062
  0
LINE
  5
246
100
AcDbEntity
  8
0
100
AcDbLine
 62
7
  6
CONTINUOUS
 10
-43.7301713502
 20
38.8631085581
 11
-43.7454214733
 21
38.6730462423
  0
LWPOLYLINE
  5
247
100
AcDbEntity
  8
RACCORDO
100
AcDbPolyline
 62
7
  6
CONTINUOUS
 90
49
 70
0
 10
-43.8549921591
 20
38.7511081062
 10
-43.8482755055
 20
38.8347184864
 10
-43.8397181721
 20
38.91822691
 10
-43.8293093015
 20
39.00166657
 10
-43.8170450306
 20
39.0849934787
 10
-43.8029218948
 20
39.1681672595
 10
-43.7869209839
 20
39.2512245848
 10
-43.7690357515
 20
39.3341218464
 10
-43.749260829
 20
39.4168141289
 10
-43.7275702868
 20
39.4993332205
 10
-43.7039556784
 20
39.5816324832
 10
-43.6784098054
 20
39.6636641997
 10
-43.6509001846
 20
39.7454546854
 10
-43.6214167139
 20
39.8269539709
 10
-43.5899509822
 20
39.9081101491
 10
-43.5564650819
 20
39.9889418683
 10
-43.5209478214
 20
40.0693949888
 10
-43.48339028
 20
40.1494126541
 10
-43.4437506784
 20
40.2290038566
 10
-43.4020173291
 20
40.3081098263
 10
-43.3581818556
 20
40.3866677647
 10
-43.3122011288
 20
40.4646743834
 10
-43.2640636484
 20
40.5420660983
 10
-43.2137630639
 20
40.6187732104
 10
-43.1612590379
 20
40.6947766997
 10
-43.1065407437
 20
40.7700087991
 10
-43.0496061961
 20
40.8443917259
 10
-42.9904254712
 20
40.9178852628
 10
-42.9289884187
 20
40.990419398
 10
-42.8653012197
 20
41.0619069844
 10
-42.7993588954
 20
41.1322778144
 10
-42.7311507167
 20
41.2014640212
 10
-42.6606975382
 20
41.2693678129
 10
-42.5880475836
 20
41.335874841
 10
-42.5131862218
 20
41.4009275581
 10
-42.4361597018
 20
41.4644174293
 10
-42.3571220946
 20
41.5261656795
 10
-42.2760537854
 20
41.586135162
 10
-42.1930377851
 20
41.6442143249
 10
-42.1084090537
 20
41.7001463651
 10
-42.0221368405
 20
41.7539333414
 10
-41.9343578716
 20
41.8054731941
 10
-41.8457007873
 20
41.8544229624
 10
-41.7562376483
 20
41.9007883992
 10
-41.6660563732
 20
41.9445687075
 10
-41.5758546477
 20
41.9855076259
 10
-41.4859373296
 20
42.0235797934
 10
-41.3961920771
 20
42.0589371266
 10
-41.3067066756
 20
42.0916407392
  0
LWPOLYLINE
  5
248
100
AcDbEntity
  8
RACCORDO
100
AcDbPolyline
 62
250
  6
CONTINUOUS
 90
4
 70
0
 10
40.27595518
 20
-42.3590813581
 10
40.1840267878
 20
-42.3645558461
 10
40.0920243411
 20
-42.3678401941
 10
40.0
 20
-42.3689346968
  0
LWPOLYLINE
  5
249
100
AcDbEntity
  8
RACCORDO
100
AcDbPolyline
 62
250
  6
CONTINUOUS
 90
61
 70
0
 10
-40.2759495355
 20
-42.3590819064
 10
-40.3677555841
 20
-42.3514181006
 10
-40.4593827888
 20
-42.3415671857
 10
-40.5507595751
 20
-42.3295354126
 10
-40.6418400984
 20
-42.3153278542
 10
-40.7325664137
 20
-42.2989525822
 10
-40.822849642
 20
-42.2804262733
 10
-40.9126296224
 20
-42.2597636526
 10
-41.0018653404
 20
-42.2369765514
 10
-41.0904978197
 20
-42.2120824205
 10
-41.1784656649
 20
-42.185101719
 10
-41.2657320129
 20
-42.1560489901
 10
-41.3522749167
 20
-42.1249332646
 10
-41.4380484301
 20
-42.0917716167
 10
-41.5230015495
 20
-42.0565843245
 10
-41.6071042622
 20
-42.0193837455
 10
-41.6903110899
 20
-41.9801890607
 10
-41.772572304
 20
-41.9390227484
 10
-41.8538513318
 20
-41.8959017892
 10
-41.9341039812
 20
-41.8508477032
 10
-42.0132814856
 20
-41.8038859157
 10
-42.0913407182
 20
-41.7550400209
 10
-42.1682430816
 20
-41.7043316989
 10
-42.2439372177
 20
-41.6517923043
 10
-42.3183624941
 20
-41.5974626173
 10
-42.3914788399
 20
-41.5413713544
 10
-42.4632421707
 20
-41.4835517906
 10
-42.5335891138
 20
-41.4240559275
 10
-42.6024678834
 20
-41.3629307402
 10
-42.6698542682
 20
-41.3002009571
 10
-42.735727775
 20
-41.2358869718
 10
-42.8000485013
 20
-41.170028127
 10
-42.8627829754
 20
-41.1026590888
 10
-42.9239187136
 20
-41.0337916266
 10
-42.9834321022
 20
-40.9634476999
 10
-43.0412740839
 20
-40.8916805218
 10
-43.0973948801
 20
-40.8185495172
 10
-43.1517637051
 20
-40.7440937221
 10
-43.2043476239
 20
-40.6683571231
 10
-43.2550984488
 20
-40.5914102013
 10
-43.3039854121
 20
-40.5133033007
 10
-43.3509860467
 20
-40.4340761497
 10
-43.3960689976
 20
-40.3537860305
 10
-43.4392063404
 20
-40.2724890017
 10
-43.4803812844
 20
-40.1902233131
 10
-43.5195805403
 20
-40.1070201489
 10
-43.5567819689
 20
-40.022930121
 10
-43.5919672903
 20
-39.9379983618
 10
-43.62512773
 20
-39.8522471688
 10
-43.6562443871
 20
-39.7657237434
 10
-43.6852987626
 20
-39.6784777381
 10
-43.7122808885
 20
-39.5905344917
 10
-43.7371753736
 20
-39.5019352346
 10
-43.7599634333
 20
-39.4127371314
 10
-43.7806300267
 20
-39.3229895363
 10
-43.7991630726
 20
-39.2327326887
 10
-43.8155473146
 20
-39.1420272485
 10
-43.829766815
 20
-39.050954135
 10
-43.841813154
 20
-38.9595660949
 10
-43.8516794584
 20
-38.8679138648
 10
-43.8593579881
 20
-38.7760762206
  0
LINE
  5
24A
100
AcDbEntity
  8
0
100
AcDbLine
 62
7
  6
CONTINUOUS
 10
-31.9694559627
 20
-42.5
 11
-32.0
 21
-42.4389072728
  0
LINE
  5
24B
100
AcDbEntity
  8
DRAFT
100
AcDbLine
 62
7
  6
CONTINUOUS
 10
-31.9694559627
 20
-42.5
 11
-32.0
 21
-42.4389072728
  0
LWPOLYLINE
  5
24C
100
AcDbEntity
  8
SUPERFICI
100
AcDbPolyline
 62
7
  6
CONTINUOUS
 90
19
 70
0
 10
-41.816862068
 20
-38.49
 10
-41.8141781943
 20
-38.6127732692
 10
-41.8006223479
 20
-38.7412497609
 10
-41.7758900749
 20
-38.8744834868
 10
-41.7399565224
 20
-39.0119955809
 10
-41.6921092427
 20
-39.1520425323
 10
-41.6309738755
 20
-39.291670405
 10
-41.555279894
 20
-39.4299500464
 10
-41.4653639232
 20
-39.5651627412
 10
-41.3623787441
 20
-39.6935320158
 10
-41.2449996945
 20
-39.814878125
 10
-41.1137440479
 20
-39.9274167068
 10
-40.9730250982
 20
-40.0263508883
 10
-40.8228572283
 20
-40.1120392797
 10
-40.6631874885
 20
-40.1843404698
 10
-40.4991224265
 20
-40.2396428579
 10
-40.3328079026
 20
-40.2778018695
 10
-40.1629718439
 20
-40.3010951618
 10
-39.99
 20
-40.3103811461
  0
LWPOLYLINE
  5
24D
100
AcDbEntity
  8
SUPERFICI
100
AcDbPolyline
 62
7
  6
CONTINUOUS
 90
6
 70
0
 10
-43.5929524491
 20
-35.0194581493
 10
-43.5919762199
 20
-35.7162504364
 10
-43.5929155621
 20
-36.4144523758
 10
-43.5955052723
 20
-37.112942338
 10
-43.5963021327
 20
-37.8058855838
 10
-43.5932129677
 20
-38.4899998103
  0
LINE
  5
24E
100
AcDbEntity
  8
SKEL_COPERCHIO
100
AcDbLine
 62
7
  6
CONTINUOUS
 10
-43.6018259212
 20
38.49
 11
-43.5991338327
 21
35.8488911395
  0
LINE
  5
24F
100
AcDbEntity
  8
RACCORDO
100
AcDbLine
 62
250
  6
CONTINUOUS
 10
-43.8692464992
 20
-38.5
 11
-43.8764143046
 21
-0.2328294036
  0
LINE
  5
250
100
AcDbEntity
  8
SKEL_COPERCHIO
100
AcDbLine
 62
7
  6
CONTINUOUS
 10
-43.5991338327
 20
35.8488911395
 11
-43.5973636768
 21
31.8654761448
  0
LINE
  5
251
100
AcDbEntity
  8
DRAFT
100
AcDbLine
 62
7
  6
CONTINUOUS
 10
-44.0
 20
38.5
 11
-44.0
 21
-38.5
  0
LINE
  5
252
100
AcDbEntity
  8
SUPERFICI
100
AcDbLine
 62
7
  6
CONTINUOUS
 10
-43.75
 20
38.49
 11
-43.75
 21
-38.49
  0
LINE
  5
253
100
AcDbEntity
  8
SKEL_COPERCHIO
100
AcDbLine
 62
7
  6
CONTINUOUS
 10
-43.75
 20
38.49
 11
-43.75
 21
-38.49
  0
LINE
  5
254
100
AcDbEntity
  8
ASSI
100
AcDbLine
 62
7
  6
CONTINUOUS
 10
-43.75
 20
37.5
 11
-43.75
 21
-38.49
  0
LINE
  5
255
100
AcDbEntity
  8
SKEL_COPERCHIO
100
AcDbLine
 62
7
  6
CONTINUOUS
 10
-43.5973636768
 20
31.8654761448
 11
-43.5926378847
 21
2.8138841933
  0
LINE
  5
256
100
AcDbEntity
  8
SUPERFICI
100
AcDbLine
 62
7
  6
CONTINUOUS
 10
-41.9497258095
 20
38.49
 11
-41.9497258095
 21
-38.49
  0
LINE
  5
257
100
AcDbEntity
  8
0
100
AcDbLine
 62
7
  6
CONTINUOUS
 10
-40.5
 20
42.1723447486
 11
-40.5
 21
42.1647740418
  0
LINE
  5
258
100
AcDbEntity
  8
RACCORDO
100
AcDbLine
 62
250
  6
CONTINUOUS
 10
-43.8764143046
 20
-0.2328294036
 11
-43.8757490762
 21
18.5762352524
  0
LINE
  5
259
100
AcDbEntity
  8
SKEL_COPERCHIO
100
AcDbLine
 62
7
  6
CONTINUOUS
 10
-43.5926378847
 20
2.8138841933
 11
-43.5928341821
 21
-35.0187164185
  0
LINE
  5
25A
100
AcDbEntity
  8
SUPERFICI
100
AcDbLine
 62
7
  6
CONTINUOUS
 10
-43.5927168095
 20
3.759277259
 11
-43.5929516707
 21
-14.5379810187
  0
LINE
  5
25B
100
AcDbEntity
  8
SUPERFICI
100
AcDbLine
 62
7
  6
CONTINUOUS
 10
-43.5929516707
 20
-14.5379810187
 11
-43.5928257391
 21
-27.4024142182
  0
LINE
  5
25C
100
AcDbEntity
  8
SUPERFICI
100
AcDbLine
 62
7
  6
CONTINUOUS
 10
-43.5928257391
 20
-27.4024142182
 11
-43.5926297337
 21
-29.483485497
  0
LINE
  5
25D
100
AcDbEntity
  8
SKEL_COPERCHIO
100
AcDbLine
 62
7
  6
CONTINUOUS
 10
-43.5928341821
 20
-35.0187164185
 11
-43.593212958
 21
-38.4900000687
  0
LINE
  5
25E
100
AcDbEntity
  8
SUPERFICI
100
AcDbLine
 62
7
  6
CONTINUOUS
 10
-41.8159750299
 20
-25.6082470946
 11
-41.8158947198
 21
-30.6191399713
  0
LINE
  5
25F
100
AcDbEntity
  8
SUPERFICI
100
AcDbLine
 62
7
  6
CONTINUOUS
 10
-43.5926297337
 20
-29.483485497
 11
-43.5924297894
 21
-31.5395542775
  0
LINE
  5
260
100
AcDbEntity
  8
SUPERFICI
100
AcDbLine
 62
7
  6
CONTINUOUS
 10
-41.8148822097
 20
0.0019471964
 11
-41.8159750299
 21
-25.6082470946
  0
LINE
  5
261
100
AcDbEntity
  8
SUPERFICI
100
AcDbLine
 62
7
  6
CONTINUOUS
 10
-41.8158947198
 20
-30.6191399713
 11
-41.8158709148
 21
-32.1015026577
  0
LINE
  5
262
100
AcDbEntity
  8
SUPERFICI
100
AcDbLine
 62
7
  6
CONTINUOUS
 10
-41.8158709148
 20
-32.1015026577
 11
-41.8158493971
 21
-33.5762990303
  0
LINE
  5
263
100
AcDbEntity
  8
RACCORDO
100
AcDbLine
 62
250
  6
CONTINUOUS
 10
-43.8757490762
 20
18.5762352524
 11
-43.8704956919
 21
31.5995377734
  0
LINE
  5
264
100
AcDbEntity
  8
SUPERFICI
100
AcDbLine
 62
7
  6
CONTINUOUS
 10
-43.5968077945
 20
31.8646334309
 11
-43.5927168095
 21
3.759277259
  0
LWPOLYLINE
  5
265
100
AcDbEntity
  8
SUPERFICI
100
AcDbPolyline
 62
7
  6
CONTINUOUS
 90
3
 70
0
 10
-43.5924297894
 20
-31.5395542775
 10
-43.5928182713
 20
-32.2306544107
 10
-43.5922450225
 20
-33.6214044694
  0
LINE
  5
266
100
AcDbEntity
  8
SUPERFICI
100
AcDbLine
 62
7
  6
CONTINUOUS
 10
-41.8212569227
 20
35.2886320739
 11
-41.8148788582
 21
0.0019471946
  0
LINE
  5
267
100
AcDbEntity
  8
SUPERFICI
100
AcDbLine
 62
7
  6
CONTINUOUS
 10
-41.8158493971
 20
-33.5762990303
 11
-41.8158408917
 21
-35.0501024457
  0
LWPOLYLINE
  5
268
100
AcDbEntity
  8
SUPERFICI
100
AcDbPolyline
 62
7
  6
CONTINUOUS
 90
3
 70
0
 10
-43.5973668877
 20
33.8498187013
 10
-43.5979328561
 20
33.1861215917
 10
-43.5968077945
 20
31.8646334309
  0
LINE
  5
269
100
AcDbEntity
  8
SUPERFICI
100
AcDbLine
 62
7
  6
CONTINUOUS
 10
-43.5922450225
 20
-33.6214044694
 11
-43.5929524491
 21
-35.0194581493
  0
LWPOLYLINE
  5
26A
100
AcDbEntity
  8
SUPERFICI
100
AcDbPolyline
 62
7
  6
CONTINUOUS
 90
3
 70
0
 10
-41.8158408917
 20
-35.0501024457
 10
-41.8162525297
 20
-35.5421288272
 10
-41.8159097525
 20
-36.5239858254
  0
LWPOLYLINE
  5
26B
100
AcDbEntity
  8
SUPERFICI
100
AcDbPolyline
 62
7
  6
CONTINUOUS
 90
5
 70
0
 10
-41.8159097525
 20
-36.5239858254
 10
-41.8164802139
 20
-37.0158427658
 10
-41.8180220006
 20
-37.5094137669
 10
-41.8185497219
 20
-38.0013649147
 10
-41.816862068
 20
-38.49
  0
LINE
  5
26C
100
AcDbEntity
  8
RACCORDO
100
AcDbLine
 62
250
  6
CONTINUOUS
 10
-43.8704956919
 20
31.5995377734
 11
-43.865176844
 21
38.172479163
  0
LWPOLYLINE
  5
26D
100
AcDbEntity
  8
SUPERFICI
100
AcDbPolyline
 62
7
  6
CONTINUOUS
 90
7
 70
0
 10
-41.8257108617
 20
38.489999881
 10
-41.8271840846
 20
38.0378400041
 10
-41.825971669
 20
37.5820027612
 10
-41.8235957735
 20
37.1238306306
 10
-41.8225049909
 20
36.6654686785
 10
-41.8227662051
 20
36.2072620879
 10
-41.8212569227
 20
35.2886320739
  0
LINE
  5
26E
100
AcDbEntity
  8
RACCORDO
100
AcDbLine
 62
250
  6
CONTINUOUS
 10
-43.865176844
 20
38.172479163
 11
-43.8641154491
 21
38.5
  0
LWPOLYLINE
  5
26F
100
AcDbEntity
  8
SUPERFICI
100
AcDbPolyline
 62
7
  6
CONTINUOUS
 90
7
 70
0
 10
-43.6018259212
 20
38.49
 10
-43.6051864932
 20
37.8364775546
 10
-43.6035181851
 20
37.1768746745
 10
-43.5996537166
 20
36.5132177624
 10
-43.5980006382
 20
35.8485236419
 10
-43.5988543776
 20
35.1832843
 10
-43.5973668877
 20
33.8498187013
  0
LWPOLYLINE
  5
270
100
AcDbEntity
  8
RACCORDO
100
AcDbPolyline
 62
250
  6
CONTINUOUS
 90
8
 70
0
 10
-19.2000000281
 20
-42.3689349983
 10
-19.165267954
 20
-42.3658965867
 10
-19.1315916468
 20
-42.3568737857
 10
-19.0999944271
 20
-42.342140943
 10
-19.0714363372
 20
-42.3221458613
 10
-19.0467851487
 20
-42.2974962961
 10
-19.0267899167
 20
-42.2689415651
 10
-19.0179571356
 20
-42.25
  0
LWPOLYLINE
  5
271
100
AcDbEntity
  8
SUPERFICI
100
AcDbPolyline
 62
7
  6
CONTINUOUS
 90
19
 70
0
 10
39.99
 20
-40.3103811461
 10
40.163083023
 20
-40.3010754424
 10
40.3329950265
 20
-40.2777593471
 10
40.4993514912
 20
-40.239577046
 10
40.6634154563
 20
-40.184255798
 10
40.8230533838
 20
-40.1119428409
 10
40.9731905747
 20
-40.0262457126
 10
41.1138902081
 20
-39.9273025122
 10
41.2451274087
 20
-39.8147573177
 10
41.3624880338
 20
-39.6934079897
 10
41.465453719
 20
-39.5650405922
 10
41.5553504043
 20
-39.4298338161
 10
41.6310278013
 20
-39.2915604475
 10
41.6921503021
 20
-39.1519342046
 10
41.7399869958
 20
-39.0118881369
 10
41.7759111244
 20
-38.8743859831
 10
41.800634951
 20
-38.7411750216
 10
41.8141837658
 20
-38.6127310014
 10
41.816862068
 20
-38.49
  0
LWPOLYLINE
  5
272
100
AcDbEntity
  8
SUPERFICI
100
AcDbPolyline
 62
7
  6
CONTINUOUS
 90
34
 70
0
 10
39.99
 20
-42.080588424
 10
40.2095307023
 20
-42.0726055776
 10
40.4271255564
 20
-42.0536867814
 10
40.6422934437
 20
-42.0229478861
 10
40.855673807
 20
-41.9780252285
 10
41.0654848326
 20
-41.919127665
 10
41.2680634986
 20
-41.8498192609
 10
41.4633319136
 20
-41.7702246161
 10
41.6512824689
 20
-41.6794181286
 10
41.8292315236
 20
-41.5807518948
 10
41.9979155769
 20
-41.4749569367
 10
42.1573549683
 20
-41.3619235068
 10
42.3045150318
 20
-41.2451292005
 10
42.4389319681
 20
-41.1270187383
 10
42.562429765
 20
-41.0075002882
 10
42.6756407102
 20
-40.8868810233
 10
42.7784945028
 20
-40.7669426359
 10
42.8720935386
 20
-40.6480523499
 10
42.9585860113
 20
-40.5279176583
 10
43.0383765239
 20
-40.4071077207
 10
43.111606389
 20
-40.2862876545
 10
43.1797299502
 20
-40.162595598
 10
43.2434054541
 20
-40.0355469667
 10
43.3022281787
 20
-39.906194784
 10
43.3559120138
 20
-39.773627893
 10
43.4047354446
 20
-39.6376588999
 10
43.4486209731
 20
-39.4989960299
 10
43.4867418739
 20
-39.3581012127
 10
43.519120382
 20
-39.215251133
 10
43.5459604365
 20
-39.0708550141
 10
43.5667375172
 20
-38.9257015479
 10
43.5813600224
 20
-38.7803337595
 10
43.5901503932
 20
-38.6349797363
 10
43.5932129754
 20
-38.489999408
  0
LWPOLYLINE
  5
273
100
AcDbEntity
  8
SKEL_COPERCHIO
100
AcDbPolyline
 62
7
  6
CONTINUOUS
 90
34
 70
0
 10
39.99
 20
-42.080588424
 10
40.2090852684
 20
-42.0745942966
 10
40.4267819613
 20
-42.0553186264
 10
40.6422934437
 20
-42.0229478861
 10
40.8556140341
 20
-41.977527544
 10
41.0651931024
 20
-41.9194308082
 10
41.2680634986
 20
-41.8498192609
 10
41.4634078671
 20
-41.7695713607
 10
41.6510309453
 20
-41.6793696027
 10
41.8292315236
 20
-41.5807518948
 10
41.9981732351
 20
-41.4744627726
 10
42.1573410062
 20
-41.3616724899
 10
42.3045150318
 20
-41.2451292005
 10
42.4391090515
 20
-41.1268829442
 10
42.5624848805
 20
-41.0073265311
 10
42.6756407102
 20
-40.8868810233
 10
42.7784872574
 20
-40.7670356137
 10
42.8720341941
 20
-40.6480193792
 10
42.9585860113
 20
-40.5279176583
 10
43.0383062605
 20
-40.4072156149
 10
43.1114271112
 20
-40.2862965057
 10
43.1797299502
 20
-40.162595598
 10
43.2434515273
 20
-40.0355911593
 10
43.3020951613
 20
-39.9061685655
 10
43.3559120138
 20
-39.773627893
 10
43.4048671751
 20
-39.6376740711
 10
43.4485796359
 20
-39.4989387437
 10
43.4867418739
 20
-39.3581012127
 10
43.519257496
 20
-39.2152791485
 10
43.5459895176
 20
-39.0707992469
 10
43.5667375172
 20
-38.9257015479
 10
43.5814874336
 20
-38.7805058538
 10
43.5903028697
 20
-38.6351908694
 10
43.5932129579
 20
-38.4899998727
  0
LWPOLYLINE
  5
274
100
AcDbEntity
  8
SUPERFICI
100
AcDbPolyline
 62
7
  6
CONTINUOUS
 90
4
 70
0
 10
-37.8092449975
 20
-42.0752607368
 10
-36.9017976885
 20
-42.0718166631
 10
-36.4478005548
 20
-42.0717793504
 10
-35.5440680662
 20
-42.0689093584
  0
LINE
  5
275
100
AcDbEntity
  8
SKEL_COPERCHIO
100
AcDbLine
 62
7
  6
CONTINUOUS
 10
-39.99
 20
-42.080588424
 11
-37.808470521
 21
-42.0745071707
  0
LINE
  5
276
100
AcDbEntity
  8
SKEL_COPERCHIO
100
AcDbLine
 62
7
  6
CONTINUOUS
 10
-37.808470521
 20
-42.0745071707
 11
-35.0958594656
 21
-42.0687933847
  0
LINE
  5
277
100
AcDbEntity
  8
SUPERFICI
100
AcDbLine
 62
7
  6
CONTINUOUS
 10
-39.99
 20
-40.3103811461
 11
-39.6990579749
 21
-40.3099172204
  0
LWPOLYLINE
  5
278
100
AcDbEntity
  8
SUPERFICI
100
AcDbPolyline
 62
7
  6
CONTINUOUS
 90
3
 70
0
 10
-35.2885542518
 20
-40.2973886645
 10
-34.9848942862
 20
-40.2970073849
 10
-34.3530887096
 20
-40.2956037136
  0
LINE
  5
279
100
AcDbEntity
  8
SKEL_COPERCHIO
100
AcDbLine
 62
7
  6
CONTINUOUS
 10
-35.0958594656
 20
-42.0687933847
 11
-31.5097682684
 21
-42.0635904876
  0
LINE
  5
27A
100
AcDbEntity
  8
SUPERFICI
100
AcDbLine
 62
7
  6
CONTINUOUS
 10
-37.93771443
 20
-40.303702387
 11
-37.6423430076
 21
-40.3033639659
  0
LWPOLYLINE
  5
27B
100
AcDbEntity
  8
SUPERFICI
100
AcDbPolyline
 62
7
  6
CONTINUOUS
 90
3
 70
0
 10
-36.1760133069
 20
-40.2990343126
 10
-35.8841342438
 20
-40.2987452837
 10
-35.2885542518
 20
-40.2973886645
  0
LINE
  5
27C
100
AcDbEntity
  8
SUPERFICI
100
AcDbLine
 62
7
  6
CONTINUOUS
 10
-34.3530887096
 20
-40.2956037136
 11
-30.9212611632
 21
-40.2908954992
  0
LINE
  5
27D
100
AcDbEntity
  8
SUPERFICI
100
AcDbLine
 62
7
  6
CONTINUOUS
 10
-34.2030115707
 20
-42.0669889891
 11
-29.6024363815
 21
-42.0617100506
  0
LINE
  5
27E
100
AcDbEntity
  8
SKEL_COPERCHIO
100
AcDbLine
 62
7
  6
CONTINUOUS
 10
-31.5097682684
 20
-42.0635904876
 11
-27.5778530437
 21
-42.060469737
  0
LWPOLYLINE
  5
27F
100
AcDbEntity
  8
SUPERFICI
100
AcDbPolyline
 62
7
  6
CONTINUOUS
 90
3
 70
0
 10
-35.5440680662
 20
-42.0689093584
 10
-35.0961158191
 20
-42.0687098956
 10
-34.2030115707
 20
-42.0669889891
  0
LINE
  5
280
100
AcDbEntity
  8
SUPERFICI
100
AcDbLine
 62
7
  6
CONTINUOUS
 10
-30.9212611632
 20
-40.2908954992
 11
-26.3397903527
 21
-40.2878915983
  0
LINE
  5
281
100
AcDbEntity
  8
SUPERFICI
100
AcDbLine
 62
7
  6
CONTINUOUS
 10
-29.6024363815
 20
-42.0617100506
 11
-24.3767992469
 21
-42.0595811328
  0
LINE
  5
282
100
AcDbEntity
  8
DRAFT
100
AcDbLine
 62
7
  6
CONTINUOUS
 10
-40.0
 20
-42.5
 11
-36.0305440373
 21
-42.5
  0
LINE
  5
283
100
AcDbEntity
  8
0
100
AcDbLine
 62
7
  6
CONTINUOUS
 10
-36.0305440373
 20
-42.5
 11
-31.9694559627
 21
-42.5
  0
LINE
  5
284
100
AcDbEntity
  8
DRAFT
100
AcDbLine
 62
7
  6
CONTINUOUS
 10
-31.9694559627
 20
-42.5
 11
31.9694559627
 21
-42.5
  0
LINE
  5
285
100
AcDbEntity
  8
0
100
AcDbLine
 62
7
  6
CONTINUOUS
 10
31.9694559627
 20
-42.5
 11
36.0305440373
 21
-42.5
  0
LINE
  5
286
100
AcDbEntity
  8
DRAFT
100
AcDbLine
 62
7
  6
CONTINUOUS
 10
36.0305440373
 20
-42.5
 11
40.0
 21
-42.5
  0
LINE
  5
287
100
AcDbEntity
  8
0
100
AcDbLine
 62
7
  6
CONTINUOUS
 10
-36.0
 20
-42.4389072728
 11
-32.0
 21
-42.4389072728
  0
LINE
  5
288
100
AcDbEntity
  8
DRAFT
100
AcDbLine
 62
7
  6
CONTINUOUS
 10
-36.0
 20
-42.4389072728
 11
-32.0
 21
-42.4389072728
  0
LINE
  5
289
100
AcDbEntity
  8
0
100
AcDbLine
 62
7
  6
CONTINUOUS
 10
32.0
 20
-42.4389072728
 11
36.0
 21
-42.4389072728
  0
LINE
  5
28A
100
AcDbEntity
  8
DRAFT
100
AcDbLine
 62
7
  6
CONTINUOUS
 10
32.0
 20
-42.4389072728
 11
36.0
 21
-42.4389072728
  0
LINE
  5
28B
100
AcDbEntity
  8
RACCORDO
100
AcDbLine
 62
250
  6
CONTINUOUS
 10
19.2000000152
 20
-42.396178245
 11
-19.2000000225
 21
-42.396178245
  0
LINE
  5
28C
100
AcDbEntity
  8
RACCORDO
100
AcDbLine
 62
250
  6
CONTINUOUS
 10
40.0
 20
-42.3689346968
 11
19.200000019
 21
-42.3689349006
  0
LINE
  5
28D
100
AcDbEntity
  8
RACCORDO
100
AcDbLine
 62
250
  6
CONTINUOUS
 10
-19.2000000281
 20
-42.3689349983
 11
-40.0
 21
-42.3689346969
  0
LINE
  5
28E
100
AcDbEntity
  8
RACCORDO
100
AcDbLine
 62
250
  6
CONTINUOUS
 10
19.0285665399
 20
-42.296208706
 11
-19.0285665399
 21
-42.296208706
  0
LINE
  5
28F
100
AcDbEntity
  8
DRAFT
100
AcDbLine
 62
7
  6
CONTINUOUS
 10
-39.99
 20
-42.25
 11
-22.6754234025
 21
-42.25
  0
LINE
  5
290
100
AcDbEntity
  8
SUPERFICI
100
AcDbLine
 62
7
  6
CONTINUOUS
 10
-39.99
 20
-42.25
 11
39.99
 21
-42.25
  0
LINE
  5
291
100
AcDbEntity
  8
SKEL_COPERCHIO
100
AcDbLine
 62
7
  6
CONTINUOUS
 10
-39.99
 20
-42.25
 11
39.99
 21
-42.25
  0
LINE
  5
292
100
AcDbEntity
  8
DRAFT
100
AcDbLine
 62
7
  6
CONTINUOUS
 10
22.6754234025
 20
-42.25
 11
39.99
 21
-42.25
  0
LINE
  5
293
100
AcDbEntity
  8
RACCORDO
100
AcDbLine
 62
7
  6
CONTINUOUS
 10
-19.8354216568
 20
-42.1243235325
 11
19.8354216568
 21
-42.1243235325
  0
LINE
  5
294
100
AcDbEntity
  8
DRAFT
100
AcDbLine
 62
7
  6
CONTINUOUS
 10
-22.6723766096
 20
-42.0754493507
 11
22.6723766096
 21
-42.0754493507
  0
LINE
  5
295
100
AcDbEntity
  8
SKEL_COPERCHIO
100
AcDbLine
 62
7
  6
CONTINUOUS
 10
-27.5778530437
 20
-42.060469737
 11
-23.825906512
 21
-42.0595354343
  0
LINE
  5
296
100
AcDbEntity
  8
RACCORDO
100
AcDbLine
 62
250
  6
CONTINUOUS
 10
-21.00099284
 20
-41.1789648818
 11
21.00099284
 21
-41.1789648818
  0
LINE
  5
297
100
AcDbEntity
  8
SUPERFICI
100
AcDbLine
 62
7
  6
CONTINUOUS
 10
-39.99
 20
-40.4497258095
 11
39.99
 21
-40.4497258095
  0
LINE
  5
298
100
AcDbEntity
  8
SUPERFICI
100
AcDbLine
 62
7
  6
CONTINUOUS
 10
36.5143540825
 20
-42.0718901817
 11
36.9579974559
 21
-42.0719535561
  0
LINE
  5
299
100
AcDbEntity
  8
SUPERFICI
100
AcDbLine
 62
7
  6
CONTINUOUS
 10
-24.3767992469
 20
-42.0595811328
 11
22.1603525822
 21
-42.0594746108
  0
LWPOLYLINE
  5
29A
100
AcDbEntity
  8
SUPERFICI
100
AcDbPolyline
 62
7
  6
CONTINUOUS
 90
3
 70
0
 10
-26.3397903527
 20
-40.2878915983
 10
-23.1725647462
 20
-40.2875322287
 10
-22.4743848826
 20
-40.2876845107
  0
LINE
  5
29B
100
AcDbEntity
  8
SUPERFICI
100
AcDbLine
 62
7
  6
CONTINUOUS
 10
21.7587206102
 20
-40.2877497861
 11
25.7862638505
 21
-40.2877389029
  0
LINE
  5
29C
100
AcDbEntity
  8
SKEL_COPERCHIO
100
AcDbLine
 62
7
  6
CONTINUOUS
 10
-23.825906512
 20
-42.0595354343
 11
26.5970615061
 21
-42.0600654967
  0
LINE
  5
29D
100
AcDbEntity
  8
SUPERFICI
100
AcDbLine
 62
7
  6
CONTINUOUS
 10
-22.4743848826
 20
-40.2876845107
 11
21.7587206102
 21
-40.2877497861
  0
LINE
  5
29E
100
AcDbEntity
  8
SUPERFICI
100
AcDbLine
 62
7
  6
CONTINUOUS
 10
22.1603525822
 20
-42.0594746108
 11
27.1277520242
 21
-42.0602754113
  0
LINE
  5
29F
100
AcDbEntity
  8
SKEL_COPERCHIO
100
AcDbLine
 62
7
  6
CONTINUOUS
 10
26.5970615061
 20
-42.0600654967
 11
29.6909994305
 21
-42.0618329826
  0
LINE
  5
2A0
100
AcDbEntity
  8
SUPERFICI
100
AcDbLine
 62
7
  6
CONTINUOUS
 10
36.787998868
 20
-40.301055312
 11
37.0783550193
 21
-40.3013027394
  0
LINE
  5
2A1
100
AcDbEntity
  8
SKEL_COPERCHIO
100
AcDbLine
 62
7
  6
CONTINUOUS
 10
29.6909994305
 20
-42.0618329826
 11
30.6679537544
 21
-42.0627066337
  0
LWPOLYLINE
  5
2A2
100
AcDbEntity
  8
SUPERFICI
100
AcDbPolyline
 62
7
  6
CONTINUOUS
 90
3
 70
0
 10
35.9177603863
 20
-40.298812152
 10
36.207565495
 20
-40.2991098707
 10
36.787998868
 20
-40.301055312
  0
LINE
  5
2A3
100
AcDbEntity
  8
SUPERFICI
100
AcDbLine
 62
7
  6
CONTINUOUS
 10
25.7862638505
 20
-40.2877389029
 11
30.9693879581
 21
-40.2909445373
  0
LWPOLYLINE
  5
2A4
100
AcDbEntity
  8
SKEL_COPERCHIO
100
AcDbPolyline
 62
7
  6
CONTINUOUS
 90
3
 70
0
 10
30.6679537544
 20
-42.0627066337
 10
31.6117283075
 20
-42.0637059802
 10
32.073784043
 20
-42.064251937
  0
LINE
  5
2A5
100
AcDbEntity
  8
SUPERFICI
100
AcDbLine
 62
7
  6
CONTINUOUS
 10
27.1277520242
 20
-42.0602754113
 11
31.1438030901
 21
-42.0632183023
  0
LINE
  5
2A6
100
AcDbEntity
  8
SKEL_COPERCHIO
100
AcDbLine
 62
7
  6
CONTINUOUS
 10
32.073784043
 20
-42.064251937
 11
32.9794906662
 21
-42.0654323167
  0
LWPOLYLINE
  5
2A7
100
AcDbEntity
  8
SUPERFICI
100
AcDbPolyline
 62
7
  6
CONTINUOUS
 90
3
 70
0
 10
35.0236379508
 20
-40.2970811415
 10
35.3257924996
 20
-40.2974701081
 10
35.9177603863
 20
-40.298812152
  0
LINE
  5
2A8
100
AcDbEntity
  8
SKEL_COPERCHIO
100
AcDbLine
 62
7
  6
CONTINUOUS
 10
32.9794906662
 20
-42.0654323167
 11
33.8703932207
 21
-42.0667413911
  0
LWPOLYLINE
  5
2A9
100
AcDbEntity
  8
SUPERFICI
100
AcDbPolyline
 62
7
  6
CONTINUOUS
 90
6
 70
0
 10
-39.99
 20
-42.080588424
 10
-39.568328186
 20
-42.0813256277
 10
-39.1404011807
 20
-42.0796825937
 10
-38.7057027506
 20
-42.0768189615
 10
-38.2615792916
 20
-42.0754880259
 10
-37.8092449975
 20
-42.0752607368
  0
LINE
  5
2AA
100
AcDbEntity
  8
SKEL_COPERCHIO
100
AcDbLine
 62
7
  6
CONTINUOUS
 10
33.8703932207
 20
-42.0667413911
 11
34.7517359633
 21
-42.0681870144
  0
LINE
  5
2AB
100
AcDbEntity
  8
SUPERFICI
100
AcDbLine
 62
7
  6
CONTINUOUS
 10
39.7013885081
 20
-40.309910511
 11
39.99
 21
-40.3103811461
  0
LINE
  5
2AC
100
AcDbEntity
  8
SUPERFICI
100
AcDbLine
 62
7
  6
CONTINUOUS
 10
33.0091405464
 20
-40.2936977051
 11
34.3943701221
 21
-40.2956859182
  0
LWPOLYLINE
  5
2AD
100
AcDbEntity
  8
SUPERFICI
100
AcDbPolyline
 62
7
  6
CONTINUOUS
 90
3
 70
0
 10
30.9693879581
 20
-40.2909445373
 10
32.6297878506
 20
-40.2930415789
 10
33.0091405464
 20
-40.2936977051
  0
LINE
  5
2AE
100
AcDbEntity
  8
SKEL_COPERCHIO
100
AcDbLine
 62
7
  6
CONTINUOUS
 10
34.7517359633
 20
-42.0681870144
 11
35.6307047528
 21
-42.0697832126
  0
LINE
  5
2AF
100
AcDbEntity
  8
SUPERFICI
100
AcDbLine
 62
7
  6
CONTINUOUS
 10
31.1438030901
 20
-42.0632183023
 11
34.3111053826
 21
-42.0671908296
  0
LINE
  5
2B0
100
AcDbEntity
  8
SKEL_COPERCHIO
100
AcDbLine
 62
7
  6
CONTINUOUS
 10
35.6307047528
 20
-42.0697832126
 11
36.9579584107
 21
-42.0725207362
  0
LINE
  5
2B1
100
AcDbEntity
  8
SUPERFICI
100
AcDbLine
 62
7
  6
CONTINUOUS
 10
34.3111053826
 20
-42.0671908296
 11
35.6304070968
 21
-42.0691085826
  0
LINE
  5
2B2
100
AcDbEntity
  8
SKEL_COPERCHIO
100
AcDbLine
 62
7
  6
CONTINUOUS
 10
36.9579584107
 20
-42.0725207362
 11
38.2876091625
 21
-42.0757113076
  0
LINE
  5
2B3
100
AcDbEntity
  8
SKEL_COPERCHIO
100
AcDbLine
 62
7
  6
CONTINUOUS
 10
38.2876091625
 20
-42.0757113076
 11
39.99
 21
-42.080588424
  0
LINE
  5
2B4
100
AcDbEntity
  8
SUPERFICI
100
AcDbLine
 62
7
  6
CONTINUOUS
 10
35.6304070968
 20
-42.0691085826
 11
36.5143540825
 21
-42.0718901817
  0
LWPOLYLINE
  5
2B5
100
AcDbEntity
  8
SUPERFICI
100
AcDbPolyline
 62
7
  6
CONTINUOUS
 90
7
 70
0
 10
36.9579974559
 20
-42.0719535561
 10
37.8455135665
 20
-42.075297878
 10
38.2883219108
 20
-42.0755198097
 10
38.7240796947
 20
-42.0768689448
 10
39.1517326933
 20
-42.079726561
 10
39.5735644676
 20
-42.0813641907
 10
39.99
 20
-42.080588424
  0
LINE
  5
2B6
100
AcDbEntity
  8
RACCORDO
100
AcDbLine
 62
250
  6
CONTINUOUS
 10
-40.0
 20
-42.3689346969
 11
-40.0920228159
 21
-42.3678402472
  0
LWPOLYLINE
  5
2B7
100
AcDbEntity
  8
RACCORDO
100
AcDbPolyline
 62
250
  6
CONTINUOUS
 90
3
 70
0
 10
-40.0920228159
 20
-42.3678402472
 10
-40.1840233789
 20
-42.3645560735
 10
-40.2759495355
 20
-42.3590819064
  0
LWPOLYLINE
  5
2B8
100
AcDbEntity
  8
RACCORDO
100
AcDbPolyline
 62
250
  6
CONTINUOUS
 90
8
 70
0
 10
19.200000019
 20
-42.3689349006
 10
19.1652699402
 20
-42.3658968391
 10
19.1315951438
 20
-42.3568749606
 10
19.0999988478
 20
-42.3421433972
 10
19.0714411143
 20
-42.3221497716
 10
19.046789678
 20
-42.2975015955
 10
19.0267935794
 20
-42.2689478107
 10
19.0179570593
 20
-42.25
  0
LINE
  5
2B9
100
AcDbEntity
  8
RACCORDO
100
AcDbLine
 62
250
  6
CONTINUOUS
 10
-40.0
 20
-42.3689083221
 11
-40.0000076424
 21
-42.2495413133
  0
LINE
  5
2BA
100
AcDbEntity
  8
DRAFT
100
AcDbLine
 62
250
  6
CONTINUOUS
 10
-40.0
 20
42.5
 11
-40.0
 21
42.3219583377
  0
LINE
  5
2BB
100
AcDbEntity
  8
RACCORDO
100
AcDbLine
 62
250
  6
CONTINUOUS
 10
-40.0
 20
-42.5
 11
-40.0
 21
-42.3689346969
  0
LINE
  5
2BC
100
AcDbEntity
  8
SUPERFICI
100
AcDbLine
 62
250
  6
CONTINUOUS
 10
-39.99
 20
-40.3103811461
 11
-39.99
 21
-40.4497258095
  0
LINE
  5
2BD
100
AcDbEntity
  8
SKEL_COPERCHIO
100
AcDbLine
 62
250
  6
CONTINUOUS
 10
-39.99
 20
-42.080588424
 11
-39.99
 21
-42.25
  0
LINE
  5
2BE
100
AcDbEntity
  8
RACCORDO
100
AcDbLine
 62
250
  6
CONTINUOUS
 10
-39.99
 20
-42.0968686041
 11
-39.99
 21
-42.25
  0
LINE
  5
2BF
100
AcDbEntity
  8
SUPERFICI
100
AcDbLine
 62
250
  6
CONTINUOUS
 10
-39.99
 20
-42.080588424
 11
-39.99
 21
-42.25
  0
LINE
  5
2C0
100
AcDbEntity
  8
SUPERFICI
100
AcDbLine
 62
250
  6
CONTINUOUS
 10
-39.99
 20
40.3243092385
 11
-39.99
 21
40.4497258095
  0
LINE
  5
2C1
100
AcDbEntity
  8
SKEL_COPERCHIO
100
AcDbLine
 62
250
  6
CONTINUOUS
 10
-39.99
 20
42.0997757343
 11
-39.99
 21
42.1993909428
  0
LINE
  5
2C2
100
AcDbEntity
  8
0
100
AcDbLine
 62
250
  6
CONTINUOUS
 10
-39.99
 20
42.1130421103
 11
-39.99
 21
42.1993909428
  0
LINE
  5
2C3
100
AcDbEntity
  8
SUPERFICI
100
AcDbLine
 62
250
  6
CONTINUOUS
 10
-39.99
 20
42.0997757343
 11
-39.99
 21
42.25
  0
LWPOLYLINE
  5
2C4
100
AcDbEntity
  8
SUPERFICI
100
AcDbPolyline
 62
250
  6
CONTINUOUS
 90
6
 70
0
 10
-26.1606290668
 20
25.5382321942
 10
-26.2872237201
 20
25.3806237193
 10
-26.408623005
 20
25.2156445356
 10
-26.5245413096
 20
25.0435376166
 10
-26.6341217982
 20
24.865031882
 10
-26.7370788588
 20
24.6803703052
  0
LWPOLYLINE
  5
2C5
100
AcDbEntity
  8
SUPERFICI
100
AcDbPolyline
 62
250
  6
CONTINUOUS
 90
3
 70
0
 10
-25.8909968192
 20
25.8320659379
 10
-26.0284001082
 20
25.6886654929
 10
-26.1604024564
 20
25.5381753133
  0
LWPOLYLINE
  5
2C6
100
AcDbEntity
  8
SUPERFICI
100
AcDbPolyline
 62
250
  6
CONTINUOUS
 90
3
 70
0
 10
-25.610066814
 20
26.0984427478
 10
-25.7538018108
 20
25.9677923804
 10
-25.8909968192
 20
25.8320659379
  0
LWPOLYLINE
  5
2C7
100
AcDbEntity
  8
SUPERFICI
100
AcDbPolyline
 62
7
  6
CONTINUOUS
 90
4
 70
0
 10
-37.6423430076
 20
-40.3033639659
 10
-37.0539590428
 20
-40.301236273
 10
-36.7610801055
 20
-40.3009971963
 10
-36.1760133069
 20
-40.2990343126
  0
LWPOLYLINE
  5
2C8
100
AcDbEntity
  8
RACCORDO
100
AcDbPolyline
 62
250
  6
CONTINUOUS
 90
3
 70
0
 10
-43.8272443168
 20
-38.4991128555
 10
-43.7590115579
 20
-38.4988363847
 10
-43.7495953348
 20
-38.4988289996
  0
LINE
  5
2C9
100
AcDbEntity
  8
SUPERFICI
100
AcDbLine
 62
7
  6
CONTINUOUS
 10
-39.6990579749
 20
-40.3099172204
 11
-37.93771443
 21
-40.303702387
  0
LINE
  5
2CA
100
AcDbEntity
  8
RACCORDO
100
AcDbLine
 62
250
  6
CONTINUOUS
 10
44.0
 20
-38.5
 11
43.869183239
 21
-38.5
  0
LINE
  5
2CB
100
AcDbEntity
  8
RACCORDO
100
AcDbLine
 62
250
  6
CONTINUOUS
 10
-44.0
 20
-38.5
 11
-43.8692464992
 21
-38.5
  0
LINE
  5
2CC
100
AcDbEntity
  8
SKEL_COPERCHIO
100
AcDbLine
 62
250
  6
CONTINUOUS
 10
-43.593212958
 20
-38.4900000687
 11
-43.75
 21
-38.49
  0
LINE
  5
2CD
100
AcDbEntity
  8
SUPERFICI
100
AcDbLine
 62
250
  6
CONTINUOUS
 10
-43.593212958
 20
-38.4900000687
 11
-43.75
 21
-38.49
  0
LINE
  5
2CE
100
AcDbEntity
  8
RACCORDO
100
AcDbLine
 62
250
  6
CONTINUOUS
 10
43.75
 20
-38.49
 11
43.606104915
 21
-38.49
  0
LINE
  5
2CF
100
AcDbEntity
  8
SUPERFICI
100
AcDbLine
 62
250
  6
CONTINUOUS
 10
41.9497258095
 20
-38.49
 11
41.816862068
 21
-38.49
  0
LINE
  5
2D0
100
AcDbEntity
  8
SUPERFICI
100
AcDbLine
 62
250
  6
CONTINUOUS
 10
-41.816862068
 20
-38.49
 11
-41.9497258095
 21
-38.49
  0
LINE
  5
2D1
100
AcDbEntity
  8
RACCORDO
100
AcDbLine
 62
250
  6
CONTINUOUS
 10
-43.606104915
 20
-38.49
 11
-43.75
 21
-38.49
  0
LINE
  5
2D2
100
AcDbEntity
  8
SKEL_COPERCHIO
100
AcDbLine
 62
250
  6
CONTINUOUS
 10
43.75
 20
-38.49
 11
43.5932129579
 21
-38.4899998727
  0
LINE
  5
2D3
100
AcDbEntity
  8
SUPERFICI
100
AcDbLine
 62
250
  6
CONTINUOUS
 10
43.75
 20
-38.49
 11
43.5932129579
 21
-38.4899998727
  0
LINE
  5
2D4
100
AcDbEntity
  8
SUPERFICI
100
AcDbLine
 62
7
  6
CONTINUOUS
 10
34.3943701221
 20
-40.2956859182
 11
35.0236379508
 21
-40.2970811415
  0
LWPOLYLINE
  5
2D5
100
AcDbEntity
  8
SUPERFICI
100
AcDbPolyline
 62
7
  6
CONTINUOUS
 90
3
 70
0
 10
37.0783550193
 20
-40.3013027394
 10
37.661712703
 20
-40.3034064557
 10
37.9545862885
 20
-40.3037509791
  0
LINE
  5
2D6
100
AcDbEntity
  8
SUPERFICI
100
AcDbLine
 62
7
  6
CONTINUOUS
 10
37.9545862885
 20
-40.3037509791
 11
39.7013885081
 21
-40.309910511
  0
LWPOLYLINE
  5
2D7
100
AcDbEntity
  8
SUPERFICI
100
AcDbPolyline
 62
250
  6
CONTINUOUS
 90
9
 70
0
 10
-25.2312989605
 20
-26.415992966
 10
-25.1070493835
 20
-26.5080747275
 10
-24.9773093729
 20
-26.5972294954
 10
-24.8418015329
 20
-26.6838735445
 10
-24.7008032593
 20
-26.7675906
 10
-24.5551467395
 20
-26.8471318373
 10
-24.4051093691
 20
-26.9220809816
 10
-24.2504137524
 20
-26.9928543077
 10
-24.0910598895
 20
-27.0594518156
  0
LWPOLYLINE
  5
2D8
100
AcDbEntity
  8
SUPERFICI
100
AcDbPolyline
 62
250
  6
CONTINUOUS
 90
3
 70
0
 10
-25.3882413944
 20
-26.2900616903
 10
-25.3693317952
 20
-26.3054933608
 10
-25.2312989605
 20
-26.415992966
  0
LWPOLYLINE
  5
2D9
100
AcDbEntity
  8
SUPERFICI
100
AcDbPolyline
 62
250
  6
CONTINUOUS
 90
52
 70
0
 10
-25.350058104
 20
-26.3209842108
 10
-25.3308735644
 20
-26.3374202582
 10
-25.3111924205
 20
-26.3539467056
 10
-25.2910146723
 20
-26.370563553
 10
-25.2702283061
 20
-26.3873278305
 10
-25.2489453356
 20
-26.4041825081
 10
-25.2275018024
 20
-26.4209564956
 10
-25.2060114586
 20
-26.4375937493
 10
-25.1843605519
 20
-26.4541503131
 10
-25.1625438673
 20
-26.4706232284
 10
-25.1405614004
 20
-26.4870123768
 10
-25.1184131554
 20
-26.5033178769
 10
-25.0960939303
 20
-26.5195371257
 10
-25.0736040935
 20
-26.535668914
 10
-25.0509432765
 20
-26.551714451
 10
-25.0281051723
 20
-26.5676747619
 10
-25.0050974904
 20
-26.5835422129
 10
-24.9819125213
 20
-26.5993244377
 10
-24.9585208298
 20
-26.615045363
 10
-24.9349100601
 20
-26.6307186974
 10
-24.911092568
 20
-26.6463307323
 10
-24.8870759852
 20
-26.6618642681
 10
-24.8628562568
 20
-26.6773229954
 10
-24.8384374376
 20
-26.6927032237
 10
-24.8138393237
 20
-26.7079766814
 10
-24.7890610911
 20
-26.7231423538
 10
-24.7641035637
 20
-26.7382012556
 10
-24.7389890088
 20
-26.7531281598
 10
-24.7137165494
 20
-26.7679217441
 10
-24.6882870626
 20
-26.7825833307
 10
-24.662725447
 20
-26.7970916592
 10
-24.6370356674
 20
-26.8114424256
 10
-24.6112137589
 20
-26.8256399339
 10
-24.5852727255
 20
-26.8396758357
 10
-24.5592262867
 20
-26.8535381737
 10
-24.5330607229
 20
-26.8672389052
 10
-24.5067478789
 20
-26.8808055535
 10
-24.480280368
 20
-26.8942459899
 10
-24.453665577
 20
-26.9075523432
 10
-24.4268975113
 20
-26.9207285226
 10
-24.3999749812
 20
-26.9337746467
 10
-24.3728991766
 20
-26.9466905969
 10
-24.3456676717
 20
-26.9594799273
 10
-24.3182804684
 20
-26.9721425507
 10
-24.2907375649
 20
-26.9846785543
 10
-24.2630365309
 20
-26.9970917528
 10
-24.2352671054
 20
-27.0097370422
 10
-24.2073395494
 20
-27.0222595266
 10
-24.1789822146
 20
-27.0335983334
 10
-24.1501045517
 20
-27.0433998384
 10
-24.12079711
 20
-27.0520176658
 10
-24.0910598895
 20
-27.0594518156
  0
LWPOLYLINE
  5
2DA
100
AcDbEntity
  8
SUPERFICI
100
AcDbPolyline
 62
250
  6
CONTINUOUS
 90
3
 70
0
 10
-25.4425643168
 20
-26.2442462642
 10
-25.4248576552
 20
-26.259438142
 10
-25.4067869016
 20
-26.2746891991
  0
LWPOLYLINE
  5
2DB
100
AcDbEntity
  8
SUPERFICI
100
AcDbPolyline
 62
250
  6
CONTINUOUS
 90
28
 70
0
 10
-26.1364391046
 20
-25.5302592038
 10
-26.1166850329
 20
-25.5485365627
 10
-26.0977189425
 20
-25.5672767995
 10
-26.0795408334
 20
-25.5864799141
 10
-26.0624249868
 20
-25.6063470647
 10
-26.0460971215
 20
-25.6266770932
 10
-26.0297343943
 20
-25.6468665255
 10
-26.0130630007
 20
-25.6667141375
 10
-25.9963567451
 20
-25.6864211532
 10
-25.9796141975
 20
-25.7059877707
 10
-25.9628352922
 20
-25.7254138515
 10
-25.9460200949
 20
-25.744699534
 10
-25.9291673725
 20
-25.7638454312
 10
-25.9122796206
 20
-25.7828520418
 10
-25.8953543436
 20
-25.8017188671
 10
-25.8783828214
 20
-25.8204450246
 10
-25.8613626776
 20
-25.8390301716
 10
-25.8442962886
 20
-25.8574746508
 10
-25.8271820629
 20
-25.8757786086
 10
-25.8100164168
 20
-25.8939413625
 10
-25.7928029339
 20
-25.9119635951
 10
-25.7755507733
 20
-25.9298475001
 10
-25.7582598855
 20
-25.9475928103
 10
-25.7409303199
 20
-25.9651997931
 10
-25.723571384
 20
-25.982671444
 10
-25.7061830833
 20
-26.0000075924
 10
-25.6887654124
 20
-26.017208409
 10
-25.6538733632
 20
-26.05121524
  0
LWPOLYLINE
  5
2DC
100
AcDbEntity
  8
SUPERFICI
100
AcDbPolyline
 62
250
  6
CONTINUOUS
 90
11
 70
0
 10
-25.6538733632
 20
-26.05121524
 10
-25.6363989849
 20
-26.0680212545
 10
-25.618903222
 20
-26.0846969433
 10
-25.6013884202
 20
-26.1012428461
 10
-25.5838522339
 20
-26.1176584231
 10
-25.5662863203
 20
-26.1339435534
 10
-25.5486883063
 20
-26.150097749
 10
-25.5310605651
 20
-26.166121498
 10
-25.5134018733
 20
-26.1820161434
 10
-25.4957122088
 20
-26.1977816268
 10
-25.4779915936
 20
-26.2134180066
  0
LWPOLYLINE
  5
2DD
100
AcDbEntity
  8
SUPERFICI
100
AcDbPolyline
 62
250
  6
CONTINUOUS
 90
10
 70
0
 10
-26.1364391046
 20
-25.5302592038
 10
-26.0524137536
 20
-25.6321509474
 10
-25.9674723363
 20
-25.7304891245
 10
-25.8816148526
 20
-25.8252737351
 10
-25.7947366528
 20
-25.9164444937
 10
-25.7069423867
 20
-26.0040616857
 10
-25.6185460039
 20
-26.0883061678
 10
-25.529652154
 20
-26.1692382254
 10
-25.4401561874
 20
-26.2467975731
 10
-25.350058104
 20
-26.3209842108
  0
LWPOLYLINE
  5
2DE
100
AcDbEntity
  8
SUPERFICI
100
AcDbPolyline
 62
250
  6
CONTINUOUS
 90
10
 70
0
 10
-26.9239795319
 20
24.2918507051
 10
-27.0130294516
 20
24.0754909997
 10
-27.092449627
 20
23.8534321997
 10
-27.1622400579
 20
23.625674305
 10
-27.2228601623
 20
23.3903027551
 10
-27.2738505223
 20
23.1492321106
 10
-27.3138328845
 20
22.9082060533
 10
-27.342347831
 20
22.6691391438
 10
-27.3598547797
 20
22.4301168217
 10
-27.3663537306
 20
22.1911390868
  0
LWPOLYLINE
  5
2DF
100
AcDbEntity
  8
SUPERFICI
100
AcDbPolyline
 62
250
  6
CONTINUOUS
 90
10
 70
0
 10
-26.9239795319
 20
24.2918507051
 10
-27.0138699002
 20
24.0758006737
 10
-27.0939199483
 20
23.8539657551
 10
-27.1641296761
 20
23.6263459491
 10
-27.2249578834
 20
23.3910155296
 10
-27.2759457704
 20
23.1499002229
 10
-27.3157169385
 20
22.9087772073
 10
-27.3438125881
 20
22.6695722092
 10
-27.3606915188
 20
22.4303595024
 10
-27.3663537306
 20
22.1911390868
  0
LWPOLYLINE
  5
2E0
100
AcDbEntity
  8
SUPERFICI
100
AcDbPolyline
 62
250
  6
CONTINUOUS
 90
3
 70
0
 10
-26.7373527474
 20
24.6806271113
 10
-26.8338784444
 20
24.4894715968
 10
-26.9239795319
 20
24.2918507051
  0
LWPOLYLINE
  5
2E1
100
AcDbEntity
  8
SUPERFICI
100
AcDbPolyline
 62
250
  6
CONTINUOUS
 90
5
 70
0
 10
-24.9700247528
 20
26.5709428538
 10
-25.1394290585
 20
26.4608841718
 10
-25.3028349327
 20
26.3449633675
 10
-25.4597444394
 20
26.2240356236
 10
-25.6099916001
 20
26.0983860012
  0
LWPOLYLINE
  5
2E2
100
AcDbEntity
  8
SUPERFICI
100
AcDbPolyline
 62
250
  6
CONTINUOUS
 90
4
 70
0
 10
-24.4263191827
 20
26.8650909835
 10
-24.6133820886
 20
26.7725394682
 10
-24.7945180086
 20
26.6742702962
 10
-24.9697269426
 20
26.5702834674
  0
LWPOLYLINE
  5
2E3
100
AcDbEntity
  8
RACCORDO
100
AcDbPolyline
 62
250
  6
CONTINUOUS
 90
4
 70
0
 10
-43.8692464992
 20
-38.5
 10
-43.8637444856
 20
-38.4996468831
 10
-43.849665227
 20
-38.4993495093
 10
-43.8272443168
 20
-38.4991128555
  0
LWPOLYLINE
  5
2E4
100
AcDbEntity
  8
RACCORDO
100
AcDbPolyline
 62
250
  6
CONTINUOUS
 90
6
 70
0
 10
43.869182819
 20
-38.5
 10
43.8637199816
 20
-38.4996785382
 10
43.8497409806
 20
-38.4994079444
 10
43.8274797277
 20
-38.4991927442
 10
43.797308723
 20
-38.49903664
 10
43.7495904807
 20
-38.4989349083
  0
LWPOLYLINE
  5
2E5
100
AcDbEntity
  8
SUPERFICI
100
AcDbPolyline
 62
250
  6
CONTINUOUS
 90
10
 70
0
 10
-24.0910598895
 20
-27.0594518156
 10
-23.9032979224
 20
-27.1311278592
 10
-23.7075102359
 20
-27.1949652759
 10
-23.5036968302
 20
-27.2509640654
 10
-23.289527072
 20
-27.2997486021
 10
-23.0673315945
 20
-27.3406945117
 10
-22.8441022974
 20
-27.3719286717
 10
-22.622169814
 20
-27.3928267082
 10
-22.3992035109
 20
-27.4040129951
 10
-22.1752033882
 20
-27.4054875325
  0
LWPOLYLINE
  5
2E6
100
AcDbEntity
  8
SUPERFICI
100
AcDbPolyline
 62
250
  6
CONTINUOUS
 90
10
 70
0
 10
-24.0910598895
 20
-27.0594518156
 10
-23.9036455868
 20
-27.1359258543
 10
-23.7080723453
 20
-27.2032065575
 10
-23.5043401648
 20
-27.2612939254
 10
-23.2900566742
 20
-27.3106053858
 10
-23.0676142446
 20
-27.3507235108
 10
-22.8441899899
 20
-27.3803960164
 10
-22.6221762812
 20
-27.3992054745
 10
-22.3991807473
 20
-27.4075693132
 10
-22.1752033882
 20
-27.4054875325
  0
LWPOLYLINE
  5
2E7
100
AcDbEntity
  8
SUPERFICI
100
AcDbPolyline
 62
250
  6
CONTINUOUS
 90
3
 70
0
 10
-26.9361352117
 20
-24.1639575238
 10
-26.8386431029
 20
-24.3548363684
 10
-26.7904863476
 20
-24.4502513594
  0
LWPOLYLINE
  5
2E8
100
AcDbEntity
  8
SUPERFICI
100
AcDbPolyline
 62
250
  6
CONTINUOUS
 90
12
 70
0
 10
-26.7904863476
 20
-24.4502513594
 10
-26.6970105436
 20
-24.6415623449
 10
-26.6483732782
 20
-24.7363986073
 10
-26.5965491489
 20
-24.8304752606
 10
-26.5426292232
 20
-24.9237408273
 10
-26.4873980414
 20
-25.0152460751
 10
-26.4308802482
 20
-25.104495082
 10
-26.3730511989
 20
-25.1919837699
 10
-26.3146214993
 20
-25.2782506727
 10
-26.255828018
 20
-25.3634753016
 10
-26.1964338865
 20
-25.4474781453
 10
-26.1364391046
 20
-25.5302592038
  0
LWPOLYLINE
  5
2E9
100
AcDbEntity
  8
SUPERFICI
100
AcDbPolyline
 62
250
  6
CONTINUOUS
 90
10
 70
0
 10
-26.9361352117
 20
-24.1639575238
 10
-26.8683282731
 20
-24.3268049813
 10
-26.7948253986
 20
-24.4875871437
 10
-26.7156265882
 20
-24.646304011
 10
-26.6301533221
 20
-24.8038805764
 10
-26.53898412
 20
-24.9593918467
 10
-26.4438545413
 20
-25.1100628425
 10
-26.3453431057
 20
-25.2549685707
 10
-26.2428712935
 20
-25.3950340245
 10
-26.1364391046
 20
-25.5302592038
  0
LWPOLYLINE
  5
2EA
100
AcDbEntity
  8
SUPERFICI
100
AcDbPolyline
 62
7
  6
CONTINUOUS
 90
10
 70
0
 10
-27.3256811416
 20
-22.213431947
 10
-27.3103787166
 20
-22.4092039682
 10
-27.2886508498
 20
-22.6103712879
 10
-27.2604975412
 20
-22.8169339063
 10
-27.2266783538
 20
-23.029101207
 10
-27.1864337246
 20
-23.2466638063
 10
-27.1374849646
 20
-23.4689935528
 10
-27.079072511
 20
-23.6958810627
 10
-27.0119559267
 20
-23.9275357197
 10
-26.9361352117
 20
-24.1639575238
  0
LWPOLYLINE
  5
2EB
100
AcDbEntity
  8
RACCORDO
100
AcDbPolyline
 62
250
  6
CONTINUOUS
 90
28
 70
0
 10
-27.8254618808
 20
-22.1905450976
 10
-27.8188558876
 20
-22.468665817
 10
-27.79772908
 20
-22.7585884292
 10
-27.7601892423
 20
-23.0593366331
 10
-27.7041503819
 20
-23.370489345
 10
-27.6279267366
 20
-23.689910467
 10
-27.5306887871
 20
-24.0138959267
 10
-27.4101294514
 20
-24.3434649151
 10
-27.2658025829
 20
-24.673832812
 10
-27.1021442692
 20
-24.993368235
 10
-26.9205560831
 20
-25.3005802773
 10
-26.7214867516
 20
-25.5951960541
 10
-26.5112142466
 20
-25.8694679837
 10
-26.2941556345
 20
-26.1213880895
 10
-26.0697347213
 20
-26.3543482863
 10
-25.8376734094
 20
-26.5695456528
 10
-25.6028845513
 20
-26.7647788494
 10
-25.3637267811
 20
-26.9431072522
 10
-25.1085186964
 20
-27.1114893619
 10
-24.8326737459
 20
-27.2706756665
 10
-24.5416270004
 20
-27.4160118459
 10
-24.237886335
 20
-27.544578309
 10
-23.923487559
 20
-27.6541555485
 10
-23.5988284368
 20
-27.7445051394
 10
-23.2640573228
 20
-27.8158511151
 10
-22.9194809844
 20
-27.8674528637
 10
-22.566185486
 20
-27.8976941955
 10
-22.2056020131
 20
-27.9053258034
  0
LWPOLYLINE
  5
2EC
100
AcDbEntity
  8
RACCORDO
100
AcDbPolyline
 62
250
  6
CONTINUOUS
 90
28
 70
0
 10
22.2056019853
 20
-27.9053257701
 10
22.5628540378
 20
-27.8979031772
 10
22.9134975938
 20
-27.8682096553
 10
23.2560965125
 20
-27.8173357588
 10
23.5900007333
 20
-27.7466838823
 10
23.914635825
 20
-27.65689211
 10
24.229029781
 20
-27.5479231031
 10
24.5322955649
 20
-27.4202687002
 10
24.8228070565
 20
-27.2759812347
 10
25.0983549574
 20
-27.11775366
 10
25.353962801
 20
-26.9499235936
 10
25.593683531
 20
-26.7720300325
 10
25.8281329164
 20
-26.5779711808
 10
26.0583179877
 20
-26.3655452426
 10
26.280432808
 20
-26.1363483917
 10
26.4961855988
 20
-25.8877988122
 10
26.7062950017
 20
-25.6161182837
 10
26.9059202669
 20
-25.3235693479
 10
27.0890397966
 20
-25.0170390937
 10
27.2553693663
 20
-24.6957372809
 10
27.4027369115
 20
-24.361877541
 10
27.5257155515
 20
-24.028892031
 10
27.6245747604
 20
-23.7023738598
 10
27.7020266088
 20
-23.3806383098
 10
27.7590148882
 20
-23.067083773
 10
27.7972158444
 20
-22.763751906
 10
27.8187227159
 20
-22.4712318617
 10
27.8254618047
 20
-22.1905450908
  0
LINE
  5
2ED
100
AcDbEntity
  8
0
100
AcDbLine
 62
7
  6
CONTINUOUS
 10
20.412503
 20
-31.999993
 11
20.992525
 21
-31.999985
  0
LINE
  5
2EE
100
AcDbEntity
  8
0
100
AcDbLine
 62
7
  6
CONTINUOUS
 10
25.562381
 20
-31.999978
 11
24.909076
 21
-31.999985
  0
LINE
  5
2EF
100
AcDbEntity
  8
0
100
AcDbLine
 62
7
  6
CONTINUOUS
 10
18.317413
 20
-31.999993
 11
18.89742
 21
-31.999985
  0
LINE
  5
2F0
100
AcDbEntity
  8
0
100
AcDbLine
 62
7
  6
CONTINUOUS
 10
16.028986
 20
-32.0
 11
16.609008
 21
-31.999993
  0
LINE
  5
2F1
100
AcDbEntity
  8
0
100
AcDbLine
 62
7
  6
CONTINUOUS
 10
14.131132
 20
-32.0
 11
14.711176
 21
-31.999993
  0
LINE
  5
2F2
100
AcDbEntity
  8
0
100
AcDbLine
 62
7
  6
CONTINUOUS
 10
17.189015
 20
-31.999993
 11
17.769037
 21
-31.999993
  0
LINE
  5
2F3
100
AcDbEntity
  8
0
100
AcDbLine
 62
7
  6
CONTINUOUS
 10
19.445803
 20
-31.999993
 11
20.025824
 21
-31.999993
  0
LINE
  5
2F4
100
AcDbEntity
  8
0
100
AcDbLine
 62
7
  6
CONTINUOUS
 10
23.821526
 20
-31.999985
 11
23.241497
 21
-31.999985
  0
LINE
  5
2F5
100
AcDbEntity
  8
0
100
AcDbLine
 62
7
  6
CONTINUOUS
 10
22.854818
 20
-31.999993
 11
22.274789
 21
-31.999985
  0
LINE
  5
2F6
100
AcDbEntity
  8
0
100
AcDbLine
 62
7
  6
CONTINUOUS
 10
22.091683
 20
-31.429657
 11
21.175638
 21
-31.429657
  0
LINE
  5
2F7
100
AcDbEntity
  8
0
100
AcDbLine
 62
7
  6
CONTINUOUS
 10
21.35256
 20
-30.878635
 11
21.914754
 21
-30.878635
  0
LINE
  5
2F8
100
AcDbEntity
  8
0
100
AcDbLine
 62
7
  6
CONTINUOUS
 10
24.327822
 20
-30.878635
 11
23.821591
 21
-30.878628
  0
LINE
  5
2F9
100
AcDbEntity
  8
0
100
AcDbLine
 62
7
  6
CONTINUOUS
 10
23.813529
 20
-30.342106
 11
24.519205
 21
-30.342106
  0
LINE
  5
2FA
100
AcDbEntity
  8
0
100
AcDbLine
 62
7
  6
CONTINUOUS
 10
24.519205
 20
-29.636377
 11
23.813522
 21
-29.636377
  0
LINE
  5
2FB
100
AcDbEntity
  8
0
100
AcDbLine
 62
7
  6
CONTINUOUS
 10
13.2
 20
-29.099862
 11
13.780029
 21
-29.099862
  0
LINE
  5
2FC
100
AcDbEntity
  8
0
100
AcDbLine
 62
7
  6
CONTINUOUS
 10
15.062286
 20
-29.099862
 11
15.642315
 21
-29.099862
  0
LINE
  5
2FD
100
AcDbEntity
  8
0
100
AcDbLine
 62
7
  6
CONTINUOUS
 10
16.028994
 20
-29.099862
 11
16.609015
 21
-29.099862
  0
LINE
  5
2FE
100
AcDbEntity
  8
0
100
AcDbLine
 62
7
  6
CONTINUOUS
 10
17.189015
 20
-29.099862
 11
18.065852
 21
-29.099862
  0
LINE
  5
2FF
100
AcDbEntity
  8
0
100
AcDbLine
 62
7
  6
CONTINUOUS
 10
19.148988
 20
-29.099862
 11
20.025824
 21
-29.099862
  0
LINE
  5
300
100
AcDbEntity
  8
0
100
AcDbLine
 62
7
  6
CONTINUOUS
 10
21.343628
 20
-29.099855
 11
21.923679
 21
-29.099855
  0
LINE
  5
301
100
AcDbEntity
  8
0
100
AcDbLine
 62
7
  6
CONTINUOUS
 10
23.241497
 20
-29.099855
 11
24.599711
 21
-29.099855
  0
LWPOLYLINE
  5
302
100
AcDbEntity
  8
RACCORDO
100
AcDbPolyline
 62
250
  6
CONTINUOUS
 90
28
 70
0
 10
-26.1086438825
 20
-22.2
 10
-26.1042782084
 20
-22.3897898294
 10
-26.0896714261
 20
-22.5877376334
 10
-26.0635514834
 20
-22.7932068975
 10
-26.0245322476
 20
-23.0058506684
 10
-25.9713869753
 20
-23.2242867224
 10
-25.903312848
 20
-23.4461537557
 10
-25.8185040133
 20
-23.6721420121
 10
-25.7166174003
 20
-23.8989234607
 10
-25.6006494258
 20
-24.1185636075
 10
-25.4713045445
 20
-24.329914689
 10
-25.3289740372
 20
-24.5324575326
 10
-25.1785256414
 20
-24.7205874697
 10
-25.0231588591
 20
-24.8927177157
 10
-24.8628087101
 20
-25.0509050432
 10
-24.6982371285
 20
-25.1958195341
 10
-24.5332148352
 20
-25.3258475335
 10
-24.3664342544
 20
-25.4435669936
 10
-24.1899247763
 20
-25.5546085336
 10
-24.0005311877
 20
-25.6596982777
 10
-23.801581952
 20
-25.7558782595
 10
-23.5940625773
 20
-25.8419811013
 10
-23.37866076
 20
-25.9170488957
 10
-23.1556600824
 20
-25.9803248775
 10
-22.9255844348
 20
-26.0310478912
 10
-22.6890788826
 20
-26.0683945796
 10
-22.4469321806
 20
-26.0915013934
 10
-22.2
 20
-26.0995707387
  0
LWPOLYLINE
  5
303
100
AcDbEntity
  8
SUPERFICI
100
AcDbPolyline
 62
7
  6
CONTINUOUS
 90
10
 70
0
 10
-27.3398889167
 20
-16.916451938
 10
-27.3276384561
 20
-17.5692556696
 10
-27.3177364587
 20
-18.2044620558
 10
-27.3101829244
 20
-18.8220710968
 10
-27.3045518646
 20
-19.4200364645
 10
-27.301269268
 20
-20.0004044869
 10
-27.3016131007
 20
-20.569314148
 10
-27.3060093516
 20
-21.1288117757
 10
-27.3140320319
 20
-21.676851042
 10
-27.3256811416
 20
-22.213431947
  0
LWPOLYLINE
  5
304
100
AcDbEntity
  8
SUPERFICI
100
AcDbPolyline
 62
7
  6
CONTINUOUS
 90
10
 70
0
 10
-27.3256811416
 20
-22.213431947
 10
-27.3223071821
 20
-22.4104185496
 10
-27.3093967627
 20
-22.612544099
 10
-27.2869498833
 20
-22.8198085953
 10
-27.2555542378
 20
-23.0324844804
 10
-27.2146221323
 20
-23.2502993123
 10
-27.1623904851
 20
-23.4724357653
 10
-27.0982716023
 20
-23.6986213972
 10
-27.0228531778
 20
-23.92912865
 10
-26.9361352117
 20
-24.1639575238
  0
LINE
  5
305
100
AcDbEntity
  8
SUPERFICI
100
AcDbLine
 62
250
  6
CONTINUOUS
 10
-27.3798576024
 20
-9.2937290189
 11
-27.3613986663
 21
-12.0028143448
  0
LWPOLYLINE
  5
306
100
AcDbEntity
  8
SUPERFICI
100
AcDbPolyline
 62
250
  6
CONTINUOUS
 90
5
 70
0
 10
-27.3613986663
 20
-12.0028143448
 10
-27.3533953255
 20
-13.2928849985
 10
-27.3474536483
 20
-14.5424727605
 10
-27.3429515121
 20
-15.750328407
 10
-27.3398889167
 20
-16.916451938
  0
LINE
  5
307
100
AcDbEntity
  8
SUPERFICI
100
AcDbLine
 62
250
  6
CONTINUOUS
 10
-27.3517998065
 20
-15.0256501555
 11
-27.3398889167
 21
-16.916451938
  0
LINE
  5
308
100
AcDbEntity
  8
SUPERFICI
100
AcDbLine
 62
7
  6
CONTINUOUS
 10
-27.3398889167
 20
-16.916451938
 11
-27.3337413052
 21
-18.2048496054
  0
LWPOLYLINE
  5
309
100
AcDbEntity
  8
RACCORDO
100
AcDbPolyline
 62
250
  6
CONTINUOUS
 90
5
 70
0
 10
-27.833934012
 20
-18.2808254906
 10
-27.8302318306
 20
-19.2078275963
 10
-27.8272808788
 20
-20.1697226909
 10
-27.8255182072
 20
-21.1639806066
 10
-27.8254614739
 20
-22.1905450623
  0
LINE
  5
30A
100
AcDbEntity
  8
SUPERFICI
100
AcDbLine
 62
250
  6
CONTINUOUS
 10
-27.3853163514
 20
-7.5700300236
 11
-27.3659581213
 21
-12.0121277757
  0
LWPOLYLINE
  5
30B
100
AcDbEntity
  8
SUPERFICI
100
AcDbPolyline
 62
250
  6
CONTINUOUS
 90
3
 70
0
 10
-27.3659581213
 20
-12.0121277757
 10
-27.3617470256
 20
-13.0401025879
 10
-27.3517998065
 20
-15.0256501555
  0
LINE
  5
30C
100
AcDbEntity
  8
RACCORDO
100
AcDbLine
 62
250
  6
CONTINUOUS
 10
-27.8857652338
 20
-7.7190078986
 11
-27.833934012
 21
-18.2808254906
  0
LINE
  5
30D
100
AcDbEntity
  8
SUPERFICI
100
AcDbLine
 62
7
  6
CONTINUOUS
 10
-27.3337413052
 20
-18.2048496054
 11
-27.3290955609
 21
-19.4209479367
  0
LINE
  5
30E
100
AcDbEntity
  8
RACCORDO
100
AcDbLine
 62
250
  6
CONTINUOUS
 10
-27.8961178364
 20
-4.2333055983
 11
-27.8857652338
 21
-7.7190078986
  0
LINE
  5
30F
100
AcDbEntity
  8
SUPERFICI
100
AcDbLine
 62
7
  6
CONTINUOUS
 10
-27.3290955609
 20
-19.4209479367
 11
-27.3260918364
 21
-20.5706435148
  0
LWPOLYLINE
  5
310
100
AcDbEntity
  8
SUPERFICI
100
AcDbPolyline
 62
250
  6
CONTINUOUS
 90
5
 70
0
 10
-27.3991406223
 20
-1.3542200647
 10
-27.3980965264
 20
-2.6714207719
 10
-27.3961920513
 20
-3.9516021214
 10
-27.3932916182
 20
-5.1911849226
 10
-27.3853163514
 20
-7.5700300236
  0
LINE
  5
311
100
AcDbEntity
  8
RACCORDO
100
AcDbLine
 62
250
  6
CONTINUOUS
 10
-27.9001550476
 20
-0.8432776088
 11
-27.8961178364
 21
-4.2333055983
  0
LWPOLYLINE
  5
312
100
AcDbEntity
  8
SUPERFICI
100
AcDbPolyline
 62
7
  6
CONTINUOUS
 90
3
 70
0
 10
-27.3260918364
 20
-20.5706435148
 10
-27.3252907412
 20
-21.677522672
 10
-27.3256811416
 20
-22.213431947
  0
LWPOLYLINE
  5
313
100
AcDbEntity
  8
SUPERFICI
100
AcDbPolyline
 62
250
  6
CONTINUOUS
 90
5
 70
0
 10
-27.4140535659
 20
6.2965647826
 10
-27.4138738975
 20
4.7444186396
 10
-27.4110516085
 20
3.1812758975
 10
-27.4062017557
 20
1.5998030177
 10
-27.3993243392
 20
0.0000000002
  0
LINE
  5
314
100
AcDbEntity
  8
RACCORDO
100
AcDbLine
 62
250
  6
CONTINUOUS
 10
-26.1018653341
 20
22.2
 11
-26.1000126856
 21
-0.000831956
  0
LINE
  5
315
100
AcDbEntity
  8
RACCORDO
100
AcDbLine
 62
250
  6
CONTINUOUS
 10
-23.9804947957
 20
22.2
 11
-23.9804947957
 21
-22.2
  0
LINE
  5
316
100
AcDbEntity
  8
RACCORDO
100
AcDbLine
 62
250
  6
CONTINUOUS
 10
-27.900058909
 20
-0.0007292036
 11
-27.9001550476
 21
-0.8432776088
  0
LINE
  5
317
100
AcDbEntity
  8
RACCORDO
100
AcDbLine
 62
250
  6
CONTINUOUS
 10
-26.1000126856
 20
-0.000831956
 11
-26.1086438825
 21
-22.2
  0
LINE
  5
318
100
AcDbEntity
  8
SUPERFICI
100
AcDbLine
 62
250
  6
CONTINUOUS
 10
-27.3985069174
 20
2.5443406725
 11
-27.3991406223
 21
-1.3542200647
  0
LINE
  5
319
100
AcDbEntity
  8
SUPERFICI
100
AcDbLine
 62
250
  6
CONTINUOUS
 10
-27.3882417674
 20
14.3255872852
 11
-27.3894908403
 21
11.0626520966
  0
LINE
  5
31A
100
AcDbEntity
  8
SUPERFICI
100
AcDbLine
 62
250
  6
CONTINUOUS
 10
-27.4101753821
 20
9.3238660397
 11
-27.4140535659
 21
6.2965647826
  0
LWPOLYLINE
  5
31B
100
AcDbEntity
  8
SUPERFICI
100
AcDbPolyline
 62
250
  6
CONTINUOUS
 90
3
 70
0
 10
-27.3894908403
 20
11.0626520966
 10
-27.3939686464
 20
7.5266406608
 10
-27.3985069174
 20
2.5443406725
  0
LWPOLYLINE
  5
31C
100
AcDbEntity
  8
SUPERFICI
100
AcDbPolyline
 62
250
  6
CONTINUOUS
 90
6
 70
0
 10
-27.3993243392
 20
0.0000000002
 10
-27.4032395845
 20
-1.6813939716
 10
-27.4042909493
 20
-3.3098122893
 10
-27.4024784335
 20
-4.8852549529
 10
-27.396989686
 20
-6.4052233401
 10
-27.3798576024
 20
-9.2937290189
  0
LINE
  5
31D
100
AcDbEntity
  8
RACCORDO
100
AcDbLine
 62
250
  6
CONTINUOUS
 10
-27.8836495092
 20
17.8928789107
 11
-27.9000575755
 21
-0.0007292031
  0
LWPOLYLINE
  5
31E
100
AcDbEntity
  8
SUPERFICI
100
AcDbPolyline
 62
250
  6
CONTINUOUS
 90
5
 70
0
 10
-27.3827494278
 20
19.5866193633
 10
-27.3846559727
 20
19.0272898951
 10
-27.3847640147
 20
18.4495237011
 10
-27.3834926075
 20
17.8550795995
 10
-27.3808417511
 20
17.2439575902
  0
LWPOLYLINE
  5
31F
100
AcDbEntity
  8
SUPERFICI
100
AcDbPolyline
 62
250
  6
CONTINUOUS
 90
3
 70
0
 10
-27.3808417511
 20
17.2439575902
 10
-27.3839918613
 20
16.3094524756
 10
-27.3882417674
 20
14.3255872852
  0
LINE
  5
320
100
AcDbEntity
  8
RACCORDO
100
AcDbLine
 62
250
  6
CONTINUOUS
 10
-27.8728389697
 20
21.0520499083
 11
-27.8836495092
 21
17.8928789107
  0
LWPOLYLINE
  5
321
100
AcDbEntity
  8
SUPERFICI
100
AcDbPolyline
 62
250
  6
CONTINUOUS
 90
3
 70
0
 10
-27.3663537306
 20
22.1911390868
 10
-27.3682983766
 20
21.692294672
 10
-27.3808417511
 20
17.2439575902
  0
LINE
  5
322
100
AcDbEntity
  8
RACCORDO
100
AcDbLine
 62
250
  6
CONTINUOUS
 10
-27.8678207246
 20
22.1943185407
 11
-27.8728389697
 21
21.0520499083
  0
LINE
  5
323
100
AcDbEntity
  8
SUPERFICI
100
AcDbLine
 62
250
  6
CONTINUOUS
 10
-27.3663537306
 20
22.1911390868
 11
-27.3827494278
 21
19.5866193633
  0
LWPOLYLINE
  5
324
100
AcDbEntity
  8
SUPERFICI
100
AcDbPolyline
 62
250
  6
CONTINUOUS
 90
6
 70
0
 10
-27.3808417511
 20
17.2439575902
 10
-27.3909122242
 20
16.0664005784
 10
-27.3989100835
 20
14.8318602679
 10
-27.4048353289
 20
13.5403366588
 10
-27.4080578869
 20
12.1862789026
 10
-27.4101753821
 20
9.3238660397
  0
LWPOLYLINE
  5
325
100
AcDbEntity
  8
RACCORDO
100
AcDbPolyline
 62
250
  6
CONTINUOUS
 90
28
 70
0
 10
22.2
 20
-26.0995707387
 10
22.4445694057
 20
-26.0916532432
 10
22.6848810816
 20
-26.068926513
 10
22.9200904693
 20
-26.0320869622
 10
23.1495777003
 20
-25.9818558626
 10
23.3725094021
 20
-25.9189864024
 10
23.5878462954
 20
-25.8443428324
 10
23.7951307817
 20
-25.7587652405
 10
23.9938630903
 20
-25.6631509892
 10
24.1831067612
 20
-25.5586360245
 10
24.359758722
 20
-25.4480104709
 10
24.5267266644
 20
-25.3306766071
 10
24.6913891639
 20
-25.2015095945
 10
24.854614854
 20
-25.0585140437
 10
25.0133114322
 20
-24.9029589563
 10
25.1677343515
 20
-24.7332139665
 10
25.3180809546
 20
-24.5469019637
 10
25.4608673992
 20
-24.3457309371
 10
25.5913555503
 20
-24.13479365
 10
25.7092480622
 20
-23.9139446198
 10
25.8132923224
 20
-23.6847613638
 10
25.8998101369
 20
-23.4564143437
 10
25.9690388702
 20
-23.2328135163
 10
26.0230478001
 20
-23.0128087139
 10
26.062725223
 20
-22.7985346076
 10
26.0893136057
 20
-22.5913070947
 10
26.1041920119
 20
-22.3915778867
 10
26.1086438825
 20
-22.2
  0
LINE
  5
326
100
AcDbEntity
  8
SUPERFICI
100
AcDbLine
 62
250
  6
CONTINUOUS
 10
-21.2233366069
 20
-27.4043412857
 11
-20.964284602
 21
-27.4001916514
  0
LWPOLYLINE
  5
327
100
AcDbEntity
  8
SUPERFICI
100
AcDbPolyline
 62
250
  6
CONTINUOUS
 90
5
 70
0
 10
22.1752033882
 20
-27.4054875325
 10
22.0348561372
 20
-27.4073047452
 10
21.895967543
 20
-27.408425385
 10
21.7585376054
 20
-27.4088494519
 10
21.6225776271
 20
-27.4084500633
  0
LINE
  5
328
100
AcDbEntity
  8
RACCORDO
100
AcDbLine
 62
250
  6
CONTINUOUS
 10
-22.2056020209
 20
-27.9053258129
 11
-21.6414470775
 21
-27.901714501
  0
LWPOLYLINE
  5
329
100
AcDbEntity
  8
SUPERFICI
100
AcDbPolyline
 62
250
  6
CONTINUOUS
 90
3
 70
0
 10
-21.3550028159
 20
-27.4023395899
 10
-21.2233395328
 20
-27.4016328106
 10
-20.964284602
 20
-27.4001916514
  0
LINE
  5
32A
100
AcDbEntity
  8
RACCORDO
100
AcDbLine
 62
250
  6
CONTINUOUS
 10
-21.6414470775
 20
-27.901714501
 11
-21.2328507764
 21
-27.9002300725
  0
LINE
  5
32B
100
AcDbEntity
  8
SUPERFICI
100
AcDbLine
 62
250
  6
CONTINUOUS
 10
-22.1752033882
 20
-27.4054875325
 11
-21.3550028159
 21
-27.4023395899
  0
LINE
  5
32C
100
AcDbEntity
  8
SUPERFICI
100
AcDbLine
 62
250
  6
CONTINUOUS
 10
-20.9642836458
 20
-27.4072274977
 11
-16.3055542123
 21
-27.4044013748
  0
LINE
  5
32D
100
AcDbEntity
  8
SUPERFICI
100
AcDbLine
 62
250
  6
CONTINUOUS
 10
6.988094708
 20
-27.4034358627
 11
0.0
 21
-27.4068155483
  0
LINE
  5
32E
100
AcDbEntity
  8
SUPERFICI
100
AcDbLine
 62
250
  6
CONTINUOUS
 10
-16.3055542123
 20
-27.4044013748
 11
-11.6468245487
 21
-27.4031373898
  0
LINE
  5
32F
100
AcDbEntity
  8
RACCORDO
100
AcDbLine
 62
250
  6
CONTINUOUS
 10
-21.2328507764
 20
-27.9002300725
 11
20.9674737752
 21
-27.8999938077
  0
LINE
  5
330
100
AcDbEntity
  8
SUPERFICI
100
AcDbLine
 62
250
  6
CONTINUOUS
 10
-20.9642836458
 20
-27.4001916514
 11
0.0
 21
-27.3997738242
  0
LINE
  5
331
100
AcDbEntity
  8
SUPERFICI
100
AcDbLine
 62
250
  6
CONTINUOUS
 10
20.9642836458
 20
-27.4001916514
 11
0.0
 21
-27.3997738242
  0
LINE
  5
332
100
AcDbEntity
  8
RACCORDO
100
AcDbLine
 62
250
  6
CONTINUOUS
 10
-20.9677117849
 20
-26.0999956903
 11
22.2
 21
-26.0995707387
  0
LINE
  5
333
100
AcDbEntity
  8
RACCORDO
100
AcDbLine
 62
250
  6
CONTINUOUS
 10
-22.2
 20
-23.9804947957
 11
22.2
 21
-23.9804947957
  0
LINE
  5
334
100
AcDbEntity
  8
SUPERFICI
100
AcDbLine
 62
250
  6
CONTINUOUS
 10
-11.6468245487
 20
-27.4031373898
 11
-6.988094708
 21
-27.4034358627
  0
LINE
  5
335
100
AcDbEntity
  8
SUPERFICI
100
AcDbLine
 62
250
  6
CONTINUOUS
 10
13.9761894159
 20
-27.4035741564
 11
6.988094708
 21
-27.4034358627
  0
LINE
  5
336
100
AcDbEntity
  8
RACCORDO
100
AcDbLine
 62
250
  6
CONTINUOUS
 10
-22.2
 20
-26.0995707387
 11
-20.967711785
 21
-26.0999956903
  0
LWPOLYLINE
  5
337
100
AcDbEntity
  8
SUPERFICI
100
AcDbPolyline
 62
250
  6
CONTINUOUS
 90
3
 70
0
 10
-6.988094708
 20
-27.4034358627
 10
-2.3293649027
 20
-27.4052980985
 10
0.0
 20
-27.4068155483
  0
LINE
  5
338
100
AcDbEntity
  8
SUPERFICI
100
AcDbLine
 62
250
  6
CONTINUOUS
 10
20.9642836458
 20
-27.4072274977
 11
13.9761894159
 21
-27.4035741564
  0
LINE
  5
339
100
AcDbEntity
  8
RACCORDO
100
AcDbLine
 62
250
  6
CONTINUOUS
 10
20.9669997399
 20
-27.9000047736
 11
21.3689425801
 21
-27.9005696495
  0
LINE
  5
33A
100
AcDbEntity
  8
SUPERFICI
100
AcDbLine
 62
250
  6
CONTINUOUS
 10
22.1752033882
 20
-27.4054875325
 11
21.6225773563
 21
-27.4037921795
  0
LWPOLYLINE
  5
33B
100
AcDbEntity
  8
SUPERFICI
100
AcDbPolyline
 62
250
  6
CONTINUOUS
 90
3
 70
0
 10
21.6225773563
 20
-27.4037921795
 10
21.0931001282
 20
-27.4009168311
 10
20.964284602
 20
-27.4001916514
  0
LINE
  5
33C
100
AcDbEntity
  8
RACCORDO
100
AcDbLine
 62
250
  6
CONTINUOUS
 10
21.3689425801
 20
-27.9005696495
 11
21.9217940944
 21
-27.9033216648
  0
LINE
  5
33D
100
AcDbEntity
  8
RACCORDO
100
AcDbLine
 62
250
  6
CONTINUOUS
 10
21.9217940944
 20
-27.9033216648
 11
22.2056020178
 21
-27.9053258111
  0
LINE
  5
33E
100
AcDbEntity
  8
SUPERFICI
100
AcDbLine
 62
250
  6
CONTINUOUS
 10
21.6225776271
 20
-27.4084500633
 11
21.2233366069
 21
-27.4043412857
  0
LWPOLYLINE
  5
33F
100
AcDbEntity
  8
SUPERFICI
100
AcDbPolyline
 62
250
  6
CONTINUOUS
 90
6
 70
0
 10
-22.1752033882
 20
-27.4054875325
 10
-22.0348561372
 20
-27.4073047452
 10
-21.895967543
 20
-27.408425385
 10
-21.7585376054
 20
-27.4088494519
 10
-21.6225776271
 20
-27.4084500633
 10
-21.2233366069
 20
-27.4043412857
  0
LINE
  5
340
100
AcDbEntity
  8
SUPERFICI
100
AcDbLine
 62
250
  6
CONTINUOUS
 10
21.2233366069
 20
-27.4043412857
 11
20.964284602
 21
-27.4001916514
  0
LWPOLYLINE
  5
341
100
AcDbEntity
  8
RACCORDO
100
AcDbPolyline
 62
250
  6
CONTINUOUS
 90
8
 70
0
 10
-43.8641154234
 20
38.5
 10
-43.860923839
 20
38.4919523312
 10
-43.8527324642
 20
38.4842863681
 10
-43.8396788349
 20
38.4771308255
 10
-43.8219821261
 20
38.470605848
 10
-43.7999394715
 20
38.4648209926
 10
-43.7739209749
 20
38.4598733888
 10
-43.7485824906
 20
38.4564209573
  0
LINE
  5
342
100
AcDbEntity
  8
SUPERFICI
100
AcDbLine
 62
250
  6
CONTINUOUS
 10
-21.0013306182
 20
-38.8745345113
 11
-21.000711836
 21
-40.2875751991
  0
LINE
  5
343
100
AcDbEntity
  8
RACCORDO
100
AcDbLine
 62
250
  6
CONTINUOUS
 10
-20.9674737752
 20
-27.8999938077
 11
-20.9677117849
 21
-26.0999956903
  0
LINE
  5
344
100
AcDbEntity
  8
RACCORDO
100
AcDbLine
 62
250
  6
CONTINUOUS
 10
-22.9806471005
 20
22.2
 11
-22.9806471005
 21
-22.2
  0
LINE
  5
345
100
AcDbEntity
  8
RACCORDO
100
AcDbLine
 62
250
  6
CONTINUOUS
 10
-22.2
 20
-22.9806471005
 11
-22.2
 21
-24.0
  0
LINE
  5
346
100
AcDbEntity
  8
RACCORDO
100
AcDbLine
 62
250
  6
CONTINUOUS
 10
-22.2
 20
22.9806471005
 11
-22.2
 21
24.0
  0
LWPOLYLINE
  5
347
100
AcDbEntity
  8
RACCORDO
100
AcDbPolyline
 62
250
  6
CONTINUOUS
 90
4
 70
0
 10
-21.0018740701
 20
-36.7791540358
 10
-21.0025660629
 20
-38.2527185555
 10
-21.0023101858
 20
-39.7193857928
 10
-21.0008878963
 20
-41.1789648995
  0
LINE
  5
348
100
AcDbEntity
  8
RACCORDO
100
AcDbLine
 62
250
  6
CONTINUOUS
 10
-22.2056020209
 20
-27.9053258129
 11
-22.2044812111
 21
-27.4765192185
  0
LWPOLYLINE
  5
349
100
AcDbEntity
  8
RACCORDO
100
AcDbPolyline
 62
250
  6
CONTINUOUS
 90
3
 70
0
 10
-22.1952128161
 20
27.8705612145
 10
-22.1994312306
 20
26.275137157
 10
-22.2
 20
24.5
  0
LWPOLYLINE
  5
34A
100
AcDbEntity
  8
RACCORDO
100
AcDbPolyline
 62
250
  6
CONTINUOUS
 90
3
 70
0
 10
-22.2044812111
 20
-27.4765192185
 10
-22.200667319
 20
-26.2761972105
 10
-22.2
 20
-24.5
  0
LWPOLYLINE
  5
34B
100
AcDbEntity
  8
SUPERFICI
100
AcDbPolyline
 62
250
  6
CONTINUOUS
 90
5
 70
0
 10
-20.9931472358
 20
-31.6965771344
 10
-20.998583132
 20
-33.1390794221
 10
-20.999539718
 20
-34.5858109522
 10
-20.9996343492
 20
-36.0253442333
 10
-21.0013306182
 20
-38.8745345113
  0
LWPOLYLINE
  5
34C
100
AcDbEntity
  8
SUPERFICI
100
AcDbPolyline
 62
250
  6
CONTINUOUS
 90
8
 70
0
 10
-20.9840543067
 20
-30.2621993876
 10
-20.9962046156
 20
-32.2813787945
 10
-21.0018800022
 20
-33.9234165105
 10
-21.0022504725
 20
-35.5703960754
 10
-21.0016947502
 20
-37.2090658552
 10
-21.0022739172
 20
-38.8348143973
 10
-21.0017937851
 20
-40.4517140487
 10
-21.0000000001
 20
-42.0595094714
  0
LWPOLYLINE
  5
34D
100
AcDbEntity
  8
SKEL_COPERCHIO
100
AcDbPolyline
 62
250
  6
CONTINUOUS
 90
10
 70
0
 10
-20.9642836458
 20
-27.4001916463
 10
-20.9745727926
 20
-29.021695094
 10
-20.9858638805
 20
-30.6488358647
 10
-20.9962046156
 20
-32.2813787945
 10
-21.0018800022
 20
-33.9234165105
 10
-21.0022504725
 20
-35.5703960754
 10
-21.0016947502
 20
-37.2090658552
 10
-21.0022739172
 20
-38.8348143973
 10
-21.0017937851
 20
-40.4517140487
 10
-21.0000000001
 20
-42.0595094714
  0
LWPOLYLINE
  5
34E
100
AcDbEntity
  8
SUPERFICI
100
AcDbPolyline
 62
250
  6
CONTINUOUS
 90
3
 70
0
 10
-20.9642836458
 20
-27.4001916463
 10
-20.9745727926
 20
-29.021695094
 10
-20.9858638805
 20
-30.6488358647
  0
LWPOLYLINE
  5
34F
100
AcDbEntity
  8
RACCORDO
100
AcDbPolyline
 62
250
  6
CONTINUOUS
 90
5
 70
0
 10
-20.9680114623
 20
-27.9000059907
 10
-20.9874744865
 20
-30.8412399653
 10
-20.9963398274
 20
-32.3190483822
 10
-21.0012996078
 20
-33.8049844297
 10
-21.0018740701
 20
-36.7791540358
  0
LINE
  5
350
100
AcDbEntity
  8
SUPERFICI
100
AcDbLine
 62
250
  6
CONTINUOUS
 10
-20.9733816482
 20
-28.8323589636
 11
-20.9840543067
 21
-30.2621993876
  0
LINE
  5
351
100
AcDbEntity
  8
DRAFT
100
AcDbLine
 62
7
  6
CONTINUOUS
 10
-22.6754234025
 20
-42.25
 11
-22.6723766096
 21
-42.0754493507
  0
LINE
  5
352
100
AcDbEntity
  8
RACCORDO
100
AcDbLine
 62
250
  6
CONTINUOUS
 10
27.8254614798
 20
-22.190545063
 11
26.108643897
 21
-22.2
  0
LINE
  5
353
100
AcDbEntity
  8
RACCORDO
100
AcDbLine
 62
250
  6
CONTINUOUS
 10
-22.2
 20
-22.9806471005
 11
22.2
 21
-22.9806471005
  0
LINE
  5
354
100
AcDbEntity
  8
RACCORDO
100
AcDbLine
 62
250
  6
CONTINUOUS
 10
-26.1086438825
 20
-22.2
 11
-24.5
 21
-22.2
  0
LINE
  5
355
100
AcDbEntity
  8
RACCORDO
100
AcDbLine
 62
250
  6
CONTINUOUS
 10
26.1086438825
 20
-22.2
 11
24.5
 21
-22.2
  0
LINE
  5
356
100
AcDbEntity
  8
RACCORDO
100
AcDbLine
 62
250
  6
CONTINUOUS
 10
22.9806471005
 20
-22.2
 11
24.0
 21
-22.2
  0
LINE
  5
357
100
AcDbEntity
  8
RACCORDO
100
AcDbLine
 62
250
  6
CONTINUOUS
 10
-22.9806471005
 20
-22.2
 11
-24.0
 21
-22.2
  0
LINE
  5
358
100
AcDbEntity
  8
RACCORDO
100
AcDbLine
 62
250
  6
CONTINUOUS
 10
-27.8254618808
 20
-22.1905450976
 11
-26.6341076707
 21
-22.1966622349
  0
LINE
  5
359
100
AcDbEntity
  8
RACCORDO
100
AcDbLine
 62
250
  6
CONTINUOUS
 10
-26.6341076707
 20
-22.1966622349
 11
-26.1086399441
 21
-22.1999999999
  0
LINE
  5
35A
100
AcDbEntity
  8
RACCORDO
100
AcDbLine
 62
250
  6
CONTINUOUS
 10
-19.2000000225
 20
-42.396178245
 11
-19.200000118
 21
-42.25
  0
LINE
  5
35B
100
AcDbEntity
  8
RACCORDO
100
AcDbLine
 62
250
  6
CONTINUOUS
 10
-18.7355891919
 20
-42.0754493507
 11
-18.7355891921
 21
-42.1243235325
  0
LWPOLYLINE
  5
35C
100
AcDbEntity
  8
RACCORDO
100
AcDbPolyline
 62
250
  6
CONTINUOUS
 90
8
 70
0
 10
43.8654933995
 20
37.5
 10
43.8623142058
 20
37.4985603933
 10
43.854177897
 20
37.4973481051
 10
43.8412208986
 20
37.4963834627
 10
43.8236604674
 20
37.4956826402
 10
43.8017910482
 20
37.495257389
 10
43.7759793368
 20
37.4951148413
 10
43.75
 20
37.4952411415
  0
LINE
  5
35D
100
AcDbEntity
  8
0
100
AcDbLine
 62
7
  6
CONTINUOUS
 10
-36.0305440373
 20
-42.5
 11
-36.0
 21
-42.4389072728
  0
LINE
  5
35E
100
AcDbEntity
  8
DRAFT
100
AcDbLine
 62
7
  6
CONTINUOUS
 10
-36.0305440373
 20
-42.5
 11
-36.0
 21
-42.4389072728
  0
LWPOLYLINE
  5
35F
100
AcDbEntity
  8
RACCORDO
100
AcDbPolyline
 62
7
  6
CONTINUOUS
 90
9
 70
0
 10
19.0440206292
 20
-42.3176711484
 10
19.060541911
 20
-42.3365098948
 10
19.0781303853
 20
-42.3526382048
 10
19.097010951
 20
-42.3659671435
 10
19.1169587091
 20
-42.376666503
 10
19.1372989628
 20
-42.3850027943
 10
19.157806813
 20
-42.3910282746
 10
19.1787071587
 20
-42.3947268751
 10
19.2
 20
-42.396178245
  0
LINE
  5
360
100
AcDbEntity
  8
RACCORDO
100
AcDbLine
 62
7
  6
CONTINUOUS
 10
19.0285665399
 20
-42.296208706
 11
19.0440206292
 21
-42.3176711484
  0
LWPOLYLINE
  5
361
100
AcDbEntity
  8
SKEL_COPERCHIO
100
AcDbPolyline
 62
250
  6
CONTINUOUS
 90
4
 70
0
 10
0.0023342622
 20
42.0929825499
 10
0.0051857417
 20
41.0154283531
 10
0.0051552715
 20
39.9415433859
 10
0.0035026849
 20
38.8728247854
  0
LWPOLYLINE
  5
362
100
AcDbEntity
  8
SUPERFICI
100
AcDbPolyline
 62
250
  6
CONTINUOUS
 90
4
 70
0
 10
0.0023342622
 20
42.0929825499
 10
0.0051857417
 20
41.0154283531
 10
0.0051552715
 20
39.9415433859
 10
0.0035026849
 20
38.8728247854
  0
LWPOLYLINE
  5
363
100
AcDbEntity
  8
RACCORDO
100
AcDbPolyline
 62
250
  6
CONTINUOUS
 90
4
 70
0
 10
0.0030341435
 20
41.4560938589
 10
0.0049237088
 20
40.4656746881
 10
0.0046199864
 20
39.479372311
 10
0.0031110723
 20
38.498344353
  0
LINE
  5
364
100
AcDbEntity
  8
SKEL_COPERCHIO
100
AcDbLine
 62
250
  6
CONTINUOUS
 10
0.000015794
 20
34.6931014213
 11
0.0005517338
 21
33.6948039194
  0
LINE
  5
365
100
AcDbEntity
  8
SUPERFICI
100
AcDbLine
 62
250
  6
CONTINUOUS
 10
0.000015794
 20
34.6931014213
 11
0.0005517338
 21
33.6948039194
  0
LINE
  5
366
100
AcDbEntity
  8
RACCORDO
100
AcDbLine
 62
250
  6
CONTINUOUS
 10
0.0001467115
 20
34.6616203732
 11
0.0005718225
 21
33.7429967297
  0
LWPOLYLINE
  5
367
100
AcDbEntity
  8
0
100
AcDbPolyline
 62
7
  6
CONTINUOUS
 90
4
 70
0
 43
0.3500000087
 10
-2.357142799
 20
51.6785700165
 10
-2.357142799
 20
52.5357118835
 10
-1.9285714658
 20
52.9642849487
 10
-1.2857142661
 20
52.9642849487
  0
LWPOLYLINE
  5
368
100
AcDbEntity
  8
0
100
AcDbPolyline
 62
7
  6
CONTINUOUS
 90
4
 70
0
 43
0.3500000087
 10
0.0
 20
51.6785700165
 10
0.0
 20
52.5357118835
 10
0.4285714331
 20
52.9642849487
 10
1.0714285995
 20
52.9642849487
  0
LINE
  5
369
100
AcDbEntity
  8
RACCORDO
100
AcDbLine
 62
250
  6
CONTINUOUS
 10
-0.003962475
 20
27.8996358738
 11
-0.004091023
 21
26.100028637
  0
LWPOLYLINE
  5
36A
100
AcDbEntity
  8
SUPERFICI
100
AcDbPolyline
 62
250
  6
CONTINUOUS
 90
6
 70
0
 10
0.0129428871
 20
40.3145851383
 10
0.0121822693
 20
39.1706789967
 10
0.0079882369
 20
38.0366259962
 10
0.0021969196
 20
36.9144282239
 10
-0.001746878
 20
35.8022832757
 10
-0.0040204187
 20
34.7055605822
  0
LINE
  5
36B
100
AcDbEntity
  8
RACCORDO
100
AcDbLine
 62
250
  6
CONTINUOUS
 10
0.0031110723
 20
38.498344353
 11
0.0001467115
 21
34.6616203732
  0
LINE
  5
36C
100
AcDbEntity
  8
SKEL_COPERCHIO
100
AcDbLine
 62
250
  6
CONTINUOUS
 10
0.0035026849
 20
38.8728247854
 11
0.000015794
 21
34.6931014213
  0
LINE
  5
36D
100
AcDbEntity
  8
SUPERFICI
100
AcDbLine
 62
250
  6
CONTINUOUS
 10
0.0035026849
 20
38.8728247854
 11
0.000015794
 21
34.6931014213
  0
LWPOLYLINE
  5
36E
100
AcDbEntity
  8
SKEL_COPERCHIO
100
AcDbPolyline
 62
250
  6
CONTINUOUS
 90
4
 70
0
 10
0.0005517338
 20
33.6948039194
 10
-0.0024916965
 20
31.773384152
 10
-0.0032166373
 20
30.8524998491
 10
-0.0049994186
 20
29.9543569988
  0
LWPOLYLINE
  5
36F
100
AcDbEntity
  8
SUPERFICI
100
AcDbPolyline
 62
250
  6
CONTINUOUS
 90
7
 70
0
 10
0.0005517338
 20
33.6948039194
 10
-0.0024916965
 20
31.773384152
 10
-0.0032166373
 20
30.8524998491
 10
-0.0049994186
 20
29.9543569988
 10
-0.0068252115
 20
29.0783007526
 10
-0.0056951901
 20
28.226507686
 10
-0.0000000856
 20
27.3996295494
  0
LINE
  5
370
100
AcDbEntity
  8
RACCORDO
100
AcDbLine
 62
250
  6
CONTINUOUS
 10
0.0005718225
 20
33.7429967297
 11
-0.0042396087
 21
30.2826791146
  0
LWPOLYLINE
  5
371
100
AcDbEntity
  8
SKEL_COPERCHIO
100
AcDbPolyline
 62
250
  6
CONTINUOUS
 90
4
 70
0
 10
-0.0049994186
 20
29.9543569988
 10
-0.0068252115
 20
29.0783007526
 10
-0.0056951901
 20
28.226507686
 10
-0.0000000856
 20
27.3996295494
  0
LWPOLYLINE
  5
372
100
AcDbEntity
  8
RACCORDO
100
AcDbPolyline
 62
250
  6
CONTINUOUS
 90
4
 70
0
 10
-0.0042396087
 20
30.2826791146
 10
-0.0059199244
 20
29.4676310802
 10
-0.005420371
 20
28.6731039938
 10
-0.0015025399
 20
27.8996367835
  0
LWPOLYLINE
  5
373
100
AcDbEntity
  8
SUPERFICI
100
AcDbPolyline
 62
250
  6
CONTINUOUS
 90
4
 70
0
 10
-0.0141307432
 20
31.6026804467
 10
-0.02094257
 20
29.6864571343
 10
-0.0209252949
 20
28.7738344825
 10
-0.0157920755
 20
27.8932966901
  0
LWPOLYLINE
  5
374
100
AcDbEntity
  8
SUPERFICI
100
AcDbPolyline
 62
250
  6
CONTINUOUS
 90
3
 70
0
 10
-0.0040204187
 20
34.7055605822
 10
-0.011782709
 20
32.6040392177
 10
-0.0141307432
 20
31.6026804467
  0
LINE
  5
375
100
AcDbEntity
  8
SUPERFICI
100
AcDbLine
 62
250
  6
CONTINUOUS
 10
35.5095009977
 20
-0.001578395
 11
37.1058152487
 21
-0.000530896
  0
LINE
  5
376
100
AcDbEntity
  8
RACCORDO
100
AcDbLine
 62
250
  6
CONTINUOUS
 10
27.9000589376
 20
0.0007290656
 11
26.1000126854
 21
-0.0008319559
  0
LWPOLYLINE
  5
377
100
AcDbEntity
  8
0
100
AcDbPolyline
 62
7
  6
CONTINUOUS
 90
4
 70
0
 43
0.3500000087
 10
50.8214300873
 20
-2.2499998718
 10
49.9642839569
 20
-2.2499998718
 10
49.535715155
 20
-1.8214289383
 10
49.535715155
 20
-1.1785714722
  0
LINE
  5
378
100
AcDbEntity
  8
SKEL_COPERCHIO
100
AcDbLine
 62
250
  6
CONTINUOUS
 10
-43.5924257154
 20
-0.0
 11
-27.3993240578
 21
0.0000000002
  0
LINE
  5
379
100
AcDbEntity
  8
SUPERFICI
100
AcDbLine
 62
250
  6
CONTINUOUS
 10
-43.5924257154
 20
0.0
 11
-27.3993240578
 21
0.0
  0
LINE
  5
37A
100
AcDbEntity
  8
RACCORDO
100
AcDbLine
 62
250
  6
CONTINUOUS
 10
27.9000583537
 20
0.0000000002
 11
42.9216920453
 21
0.0
  0
LINE
  5
37B
100
AcDbEntity
  8
SUPERFICI
100
AcDbLine
 62
250
  6
CONTINUOUS
 10
27.3993246205
 20
0.0
 11
43.5924257154
 21
0.0
  0
LINE
  5
37C
100
AcDbEntity
  8
SUPERFICI
100
AcDbLine
 62
250
  6
CONTINUOUS
 10
-38.6901089116
 20
0.001313951
 11
-32.2887257513
 21
0.000553522
  0
LINE
  5
37D
100
AcDbEntity
  8
RACCORDO
100
AcDbLine
 62
250
  6
CONTINUOUS
 10
-42.9216904546
 20
-0.0
 11
-26.100012684
 21
-0.000831956
  0
LINE
  5
37E
100
AcDbEntity
  8
SUPERFICI
100
AcDbLine
 62
250
  6
CONTINUOUS
 10
-41.8148822097
 20
0.0019471964
 11
-38.6901089116
 21
0.001313951
  0
LWPOLYLINE
  5
37F
100
AcDbEntity
  8
SUPERFICI
100
AcDbPolyline
 62
250
  6
CONTINUOUS
 90
4
 70
0
 10
29.0445055838
 20
-0.000090482
 10
30.6686466128
 20
-0.0010638399
 10
32.2888012355
 20
-0.0002509439
 10
35.5095009977
 20
-0.001578395
  0
LWPOLYLINE
  5
380
100
AcDbEntity
  8
SUPERFICI
100
AcDbPolyline
 62
250
  6
CONTINUOUS
 90
3
 70
0
 10
37.1058152487
 20
-0.000530896
 10
40.260351492
 20
-0.0028422098
 10
41.814874441
 20
-0.0002840325
  0
LINE
  5
381
100
AcDbEntity
  8
0
100
AcDbLine
 62
7
  6
CONTINUOUS
 10
14.131132
 20
-32.0
 11
13.2
 21
-29.099862
  0
LINE
  5
382
100
AcDbEntity
  8
0
100
AcDbLine
 62
7
  6
CONTINUOUS
 10
13.780029
 20
-29.099862
 11
14.421161
 21
-31.096759
  0
LINE
  5
383
100
AcDbEntity
  8
0
100
AcDbLine
 62
7
  6
CONTINUOUS
 10
24.909076
 20
-31.999985
 11
24.327822
 21
-30.878635
  0
LINE
  5
384
100
AcDbEntity
  8
0
100
AcDbLine
 62
7
  6
CONTINUOUS
 10
24.9449767907
 20
-30.8088806669
 11
25.562381
 21
-31.999978
  0
LINE
  5
385
100
AcDbEntity
  8
RACCORDO
100
AcDbLine
 62
7
  6
CONTINUOUS
 10
-19.0285665399
 20
-42.296208706
 11
-19.0440206292
 21
-42.3176711484
  0
LINE
  5
386
100
AcDbEntity
  8
0
100
AcDbLine
 62
7
  6
CONTINUOUS
 10
21.914754
 20
-30.878635
 11
21.63365
 21
-30.003096
  0
LINE
  5
387
100
AcDbEntity
  8
0
100
AcDbLine
 62
7
  6
CONTINUOUS
 10
22.274789
 20
-31.999985
 11
22.091683
 21
-31.429657
  0
LINE
  5
388
100
AcDbEntity
  8
0
100
AcDbLine
 62
7
  6
CONTINUOUS
 10
21.923679
 20
-29.099855
 11
22.854818
 21
-31.999993
  0
LINE
  5
389
100
AcDbEntity
  8
0
100
AcDbLine
 62
7
  6
CONTINUOUS
 10
18.317413
 20
-31.999993
 11
17.769037
 21
-30.087551
  0
LINE
  5
38A
100
AcDbEntity
  8
0
100
AcDbLine
 62
7
  6
CONTINUOUS
 10
18.065852
 20
-29.099862
 11
18.60742
 21
-30.988531
  0
LINE
  5
38B
100
AcDbEntity
  8
0
100
AcDbLine
 62
7
  6
CONTINUOUS
 10
16.028994
 20
-29.099862
 11
16.028986
 21
-32.0
  0
LINE
  5
38C
100
AcDbEntity
  8
0
100
AcDbLine
 62
7
  6
CONTINUOUS
 10
16.609015
 20
-29.099862
 11
16.609008
 21
-31.999993
  0
LWPOLYLINE
  5
38D
100
AcDbEntity
  8
RACCORDO
100
AcDbPolyline
 62
7
  6
CONTINUOUS
 90
9
 70
0
 10
-19.0440206292
 20
-42.3176711484
 10
-19.060541911
 20
-42.3365098948
 10
-19.0781303853
 20
-42.3526382048
 10
-19.097010951
 20
-42.3659671435
 10
-19.1169587091
 20
-42.376666503
 10
-19.1372989628
 20
-42.3850027943
 10
-19.157806813
 20
-42.3910282746
 10
-19.1787071587
 20
-42.3947268751
 10
-19.2
 20
-42.396178245
  0
LWPOLYLINE
  5
38E
100
AcDbEntity
  8
RACCORDO
100
AcDbPolyline
 62
250
  6
CONTINUOUS
 90
8
 70
0
 10
-43.8663641936
 20
37.5000000622
 10
-43.8626454564
 20
37.4980542433
 10
-43.8531279351
 20
37.4964156421
 10
-43.8379713263
 20
37.4951117529
 10
-43.8174299456
 20
37.4941644545
 10
-43.7918484612
 20
37.4935896412
 10
-43.76165611
 20
37.4933969559
 10
-43.75
 20
37.4934624387
  0
LINE
  5
38F
100
AcDbEntity
  8
0
100
AcDbLine
 62
7
  6
CONTINUOUS
 10
36.0305440373
 20
-42.5
 11
36.0
 21
-42.4389072728
  0
LINE
  5
390
100
AcDbEntity
  8
DRAFT
100
AcDbLine
 62
7
  6
CONTINUOUS
 10
36.0305440373
 20
-42.5
 11
36.0
 21
-42.4389072728
  0
LWPOLYLINE
  5
391
100
AcDbEntity
  8
SUPERFICI
100
AcDbPolyline
 62
250
  6
CONTINUOUS
 90
3
 70
0
 10
20.9733699898
 20
-28.8323589541
 10
20.98402872
 20
-30.2621993659
 10
20.9962046156
 20
-32.2813787945
  0
LINE
  5
392
100
AcDbEntity
  8
0
100
AcDbLine
 62
250
  6
CONTINUOUS
 10
20.9680114624
 20
-27.900005996
 11
20.984540903
 21
-30.2185089518
  0
LWPOLYLINE
  5
393
100
AcDbEntity
  8
SUPERFICI
100
AcDbPolyline
 62
250
  6
CONTINUOUS
 90
3
 70
0
 10
20.9642836458
 20
-27.4001916463
 10
20.9745727926
 20
-29.021695094
 10
20.9858638805
 20
-30.6488358647
  0
LINE
  5
394
100
AcDbEntity
  8
0
100
AcDbLine
 62
250
  6
CONTINUOUS
 10
20.98448379
 20
-30.2186891191
 11
20.9947305714
 21
-31.9931334122
  0
LWPOLYLINE
  5
395
100
AcDbEntity
  8
SUPERFICI
100
AcDbPolyline
 62
250
  6
CONTINUOUS
 90
4
 70
0
 10
20.9931060184
 20
-31.6965771121
 10
20.9985254567
 20
-33.1390793873
 10
20.9994650032
 20
-34.5858109182
 10
20.9995413389
 20
-36.0253442107
  0
LWPOLYLINE
  5
396
100
AcDbEntity
  8
SKEL_COPERCHIO
100
AcDbPolyline
 62
250
  6
CONTINUOUS
 90
7
 70
0
 10
20.9944221553
 20
-31.9999729832
 10
21.0018800022
 20
-33.9234165105
 10
21.0022504725
 20
-35.5703960754
 10
21.0016947502
 20
-37.2090658552
 10
21.0022739172
 20
-38.8348143973
 10
21.0017937851
 20
-40.4517140487
 10
21.0000000001
 20
-42.0595094714
  0
LWPOLYLINE
  5
397
100
AcDbEntity
  8
SUPERFICI
100
AcDbPolyline
 62
250
  6
CONTINUOUS
 90
7
 70
0
 10
20.9962046156
 20
-32.2813787945
 10
21.0018800022
 20
-33.9234165105
 10
21.0022504725
 20
-35.5703960754
 10
21.0016947502
 20
-37.2090658552
 10
21.0022739172
 20
-38.8348143973
 10
21.0017937851
 20
-40.4517140487
 10
21.0000000001
 20
-42.0595094714
  0
LINE
  5
398
100
AcDbEntity
  8
0
100
AcDbLine
 62
7
  6
CONTINUOUS
 10
17.189015
 20
-29.099862
 11
17.189015
 21
-31.999993
  0
LINE
  5
399
100
AcDbEntity
  8
0
100
AcDbLine
 62
7
  6
CONTINUOUS
 10
17.769037
 20
-30.087551
 11
17.769037
 21
-31.999993
  0
LINE
  5
39A
100
AcDbEntity
  8
RACCORDO
100
AcDbLine
 62
250
  6
CONTINUOUS
 10
18.735589192
 20
-42.0754493507
 11
18.7355891921
 21
-42.1243235325
  0
LINE
  5
39B
100
AcDbEntity
  8
RACCORDO
100
AcDbLine
 62
250
  6
CONTINUOUS
 10
19.2000000797
 20
-42.25
 11
19.2000000152
 21
-42.396178245
  0
LINE
  5
39C
100
AcDbEntity
  8
0
100
AcDbLine
 62
7
  6
CONTINUOUS
 10
19.445795
 20
-30.087551
 11
19.445803
 21
-31.999993
  0
LINE
  5
39D
100
AcDbEntity
  8
0
100
AcDbLine
 62
7
  6
CONTINUOUS
 10
20.025824
 20
-29.099862
 11
20.025824
 21
-31.999993
  0
LINE
  5
39E
100
AcDbEntity
  8
DRAFT
100
AcDbLine
 62
7
  6
CONTINUOUS
 10
22.6754234025
 20
-42.25
 11
22.6723766096
 21
-42.0754493507
  0
LINE
  5
39F
100
AcDbEntity
  8
RACCORDO
100
AcDbLine
 62
250
  6
CONTINUOUS
 10
22.2026330799
 20
-26.8522459525
 11
22.1999999991
 21
-26.0995585562
  0
LINE
  5
3A0
100
AcDbEntity
  8
RACCORDO
100
AcDbLine
 62
250
  6
CONTINUOUS
 10
22.2056019853
 20
-27.9053257701
 11
22.2026330799
 21
-26.8522459525
  0
LWPOLYLINE
  5
3A1
100
AcDbEntity
  8
RACCORDO
100
AcDbPolyline
 62
250
  6
CONTINUOUS
 90
3
 70
0
 10
22.1952128057
 20
27.8705611314
 10
22.1956830615
 20
27.6596790561
 10
22.2
 20
26.1022231386
  0
LINE
  5
3A2
100
AcDbEntity
  8
0
100
AcDbLine
 62
250
  6
CONTINUOUS
 10
20.9948025645
 20
-31.9929103484
 11
21.0008878934
 21
-41.1789648989
  0
LWPOLYLINE
  5
3A3
100
AcDbEntity
  8
SUPERFICI
100
AcDbPolyline
 62
250
  6
CONTINUOUS
 90
3
 70
0
 10
20.9995413389
 20
-36.0253442107
 10
21.0011971913
 20
-38.874534485
 10
21.0005570457
 20
-40.2875751951
  0
LINE
  5
3A4
100
AcDbEntity
  8
RACCORDO
100
AcDbLine
 62
250
  6
CONTINUOUS
 10
22.2
 20
26.1022231451
 11
22.2
 21
24.5
  0
LINE
  5
3A5
100
AcDbEntity
  8
RACCORDO
100
AcDbLine
 62
250
  6
CONTINUOUS
 10
22.2
 20
-26.0995707387
 11
22.2
 21
-24.5
  0
LINE
  5
3A6
100
AcDbEntity
  8
RACCORDO
100
AcDbLine
 62
250
  6
CONTINUOUS
 10
22.2
 20
-22.9806471005
 11
22.2
 21
-24.0
  0
LINE
  5
3A7
100
AcDbEntity
  8
RACCORDO
100
AcDbLine
 62
250
  6
CONTINUOUS
 10
22.2
 20
22.9806471005
 11
22.2
 21
24.0
  0
LINE
  5
3A8
100
AcDbEntity
  8
RACCORDO
100
AcDbLine
 62
250
  6
CONTINUOUS
 10
22.9806471005
 20
-22.2
 11
22.9806471005
 21
22.2
  0
LINE
  5
3A9
100
AcDbEntity
  8
0
100
AcDbLine
 62
7
  6
CONTINUOUS
 10
23.241497
 20
-31.999985
 11
23.241497
 21
-29.099855
  0
LINE
  5
3AA
100
AcDbEntity
  8
0
100
AcDbLine
 62
7
  6
CONTINUOUS
 10
23.813522
 20
-29.636377
 11
23.813529
 21
-30.342106
  0
LINE
  5
3AB
100
AcDbEntity
  8
RACCORDO
100
AcDbLine
 62
250
  6
CONTINUOUS
 10
23.9804947957
 20
-22.2
 11
23.9804947957
 21
22.2
  0
LINE
  5
3AC
100
AcDbEntity
  8
0
100
AcDbLine
 62
7
  6
CONTINUOUS
 10
23.821591
 20
-30.878628
 11
23.821526
 21
-31.999985
  0
LINE
  5
3AD
100
AcDbEntity
  8
RACCORDO
100
AcDbLine
 62
250
  6
CONTINUOUS
 10
20.9674737752
 20
-27.8999938077
 11
20.9677117849
 21
-26.0999956903
  0
LINE
  5
3AE
100
AcDbEntity
  8
0
100
AcDbLine
 62
7
  6
CONTINUOUS
 10
14.421161
 20
-31.096759
 11
15.062286
 21
-29.099862
  0
LINE
  5
3AF
100
AcDbEntity
  8
0
100
AcDbLine
 62
7
  6
CONTINUOUS
 10
15.642315
 20
-29.099862
 11
14.711176
 21
-31.999993
  0
LINE
  5
3B0
100
AcDbEntity
  8
RACCORDO
100
AcDbLine
 62
250
  6
CONTINUOUS
 10
-27.8678207246
 20
22.1943185407
 11
-26.1018653205
 21
22.2
  0
LINE
  5
3B1
100
AcDbEntity
  8
RACCORDO
100
AcDbLine
 62
250
  6
CONTINUOUS
 10
-26.1018653341
 20
22.2
 11
-24.5
 21
22.2
  0
LINE
  5
3B2
100
AcDbEntity
  8
RACCORDO
100
AcDbLine
 62
250
  6
CONTINUOUS
 10
22.9806471005
 20
22.2
 11
24.0
 21
22.2
  0
LINE
  5
3B3
100
AcDbEntity
  8
RACCORDO
100
AcDbLine
 62
250
  6
CONTINUOUS
 10
-22.9806471005
 20
22.2
 11
-24.0
 21
22.2
  0
LINE
  5
3B4
100
AcDbEntity
  8
RACCORDO
100
AcDbLine
 62
250
  6
CONTINUOUS
 10
22.2
 20
22.9806471005
 11
-22.2
 21
22.9806471005
  0
LINE
  5
3B5
100
AcDbEntity
  8
RACCORDO
100
AcDbLine
 62
250
  6
CONTINUOUS
 10
22.2
 20
23.9804947957
 11
-22.2
 21
23.9804947957
  0
LWPOLYLINE
  5
3B6
100
AcDbEntity
  8
RACCORDO
100
AcDbPolyline
 62
250
  6
CONTINUOUS
 90
3
 70
0
 10
27.8678210593
 20
22.194318587
 10
26.2745805981
 20
22.1993249177
 10
24.5
 20
22.2
  0
LWPOLYLINE
  5
3B7
100
AcDbEntity
  8
RACCORDO
100
AcDbPolyline
 62
250
  6
CONTINUOUS
 90
28
 70
0
 10
27.8678210593
 20
22.194318587
 10
27.8564334568
 20
22.5399003423
 10
27.8245195007
 20
22.886143091
 10
27.7717854798
 20
23.2315597456
 10
27.6981052124
 20
23.575765931
 10
27.6034126352
 20
23.9165408386
 10
27.4882116299
 20
24.2498095315
 10
27.3538305383
 20
24.5729059663
 10
27.2004640729
 20
24.8863464306
 10
27.0271720365
 20
25.1906949348
 10
26.8333989105
 20
25.4859551133
 10
26.6205853921
 20
25.7694635739
 10
26.3909579675
 20
26.037753751
 10
26.1459902919
 20
26.2892916591
 10
25.8865869073
 20
26.5238993799
 10
25.6145970549
 20
26.7405628319
 10
25.3302749725
 20
26.9392397827
 10
25.0358575046
 20
27.1188257181
 10
24.7364947762
 20
27.2775464076
 10
24.4333220411
 20
27.4159585502
 10
24.1281690986
 20
27.5343087001
 10
23.8276741026
 20
27.6319861807
 10
23.5353800942
 20
27.7100541886
 10
23.2505616303
 20
27.7706600107
 10
22.9733944614
 20
27.8155946887
 10
22.7044627014
 20
27.8463266665
 10
22.4448424377
 20
27.8641727987
 10
22.1952128146
 20
27.8705612029
  0
LWPOLYLINE
  5
3B8
100
AcDbEntity
  8
SUPERFICI
100
AcDbPolyline
 62
250
  6
CONTINUOUS
 90
6
 70
0
 10
27.3808610955
 20
17.2405799314
 10
27.3909244325
 20
16.0631358931
 10
27.3989163384
 20
14.8287425959
 10
27.4048368133
 20
13.5374000399
 10
27.4080558919
 20
12.1835578852
 10
27.4101696512
 20
9.3216768188
  0
LWPOLYLINE
  5
3B9
100
AcDbEntity
  8
SUPERFICI
100
AcDbPolyline
 62
250
  6
CONTINUOUS
 90
6
 70
0
 10
27.3664017614
 20
22.1867921353
 10
27.3827693701
 20
19.5827511278
 10
27.3846764383
 20
19.0235305216
 10
27.384784093
 20
18.4458832694
 10
27.3835123121
 20
17.851566406
 10
27.3808610955
 20
17.2405799314
  0
LINE
  5
3BA
100
AcDbEntity
  8
RACCORDO
100
AcDbLine
 62
250
  6
CONTINUOUS
 10
27.8785679671
 20
19.5462290906
 11
27.8678207163
 21
22.1943185376
  0
LINE
  5
3BB
100
AcDbEntity
  8
SUPERFICI
100
AcDbLine
 62
250
  6
CONTINUOUS
 10
27.3664017614
 20
22.1867921353
 11
27.3735799583
 21
20.12515024
  0
LWPOLYLINE
  5
3BC
100
AcDbEntity
  8
SUPERFICI
100
AcDbPolyline
 62
250
  6
CONTINUOUS
 90
5
 70
0
 10
27.3993243392
 20
0.0000000002
 10
27.4032395814
 20
-1.6813939644
 10
27.4042909426
 20
-3.3098122745
 10
27.4024784227
 20
-4.8852549301
 10
27.3969896694
 20
-6.4052233075
  0
LWPOLYLINE
  5
3BD
100
AcDbEntity
  8
SUPERFICI
100
AcDbPolyline
 62
250
  6
CONTINUOUS
 90
3
 70
0
 10
27.3735799583
 20
20.12515024
 10
27.3795196176
 20
17.8514700286
 10
27.3864640985
 20
15.3334826253
  0
LINE
  5
3BE
100
AcDbEntity
  8
RACCORDO
100
AcDbLine
 62
250
  6
CONTINUOUS
 10
27.8886692763
 20
15.8112806519
 11
27.8785679671
 21
19.5462290906
  0
LINE
  5
3BF
100
AcDbEntity
  8
SUPERFICI
100
AcDbLine
 62
250
  6
CONTINUOUS
 10
27.3864640985
 20
15.3334826253
 11
27.3882425479
 21
14.3225385721
  0
LWPOLYLINE
  5
3C0
100
AcDbEntity
  8
SUPERFICI
100
AcDbPolyline
 62
250
  6
CONTINUOUS
 90
6
 70
0
 10
27.4101696512
 20
9.3216768188
 10
27.4140475323
 20
6.2950499859
 10
27.4138686667
 20
4.7432694424
 10
27.4110475957
 20
3.1804976357
 10
27.4061994865
 20
1.5994078216
 10
27.3993243392
 20
0.0000000002
  0
LINE
  5
3C1
100
AcDbEntity
  8
SUPERFICI
100
AcDbLine
 62
250
  6
CONTINUOUS
 10
27.3894856877
 20
11.0601248125
 11
27.3953515427
 21
6.3008118338
  0
LINE
  5
3C2
100
AcDbEntity
  8
SUPERFICI
100
AcDbLine
 62
250
  6
CONTINUOUS
 10
27.3953515427
 20
6.3008118338
 11
27.398504585
 21
2.5437220288
  0
LINE
  5
3C3
100
AcDbEntity
  8
RACCORDO
100
AcDbLine
 62
250
  6
CONTINUOUS
 10
26.1086438825
 20
-22.2
 11
26.1000126856
 21
-0.000831956
  0
LINE
  5
3C4
100
AcDbEntity
  8
SUPERFICI
100
AcDbLine
 62
250
  6
CONTINUOUS
 10
27.398504585
 20
2.5437220288
 11
27.3993243392
 21
0.0000000002
  0
LINE
  5
3C5
100
AcDbEntity
  8
SUPERFICI
100
AcDbLine
 62
250
  6
CONTINUOUS
 10
27.3882425479
 20
14.3225385721
 11
27.3894856877
 21
11.0601248125
  0
LINE
  5
3C6
100
AcDbEntity
  8
RACCORDO
100
AcDbLine
 62
250
  6
CONTINUOUS
 10
26.1000126856
 20
-0.000831956
 11
26.1018653341
 21
22.2
  0
LWPOLYLINE
  5
3C7
100
AcDbEntity
  8
SUPERFICI
100
AcDbPolyline
 62
250
  6
CONTINUOUS
 90
5
 70
0
 10
27.3993243392
 20
0.0000000002
 10
27.3991406211
 20
-1.3542200603
 10
27.3980965227
 20
-2.6714207619
 10
27.3961920442
 20
-3.9516021049
 10
27.3932916055
 20
-5.1911848974
  0
LWPOLYLINE
  5
3C8
100
AcDbEntity
  8
RACCORDO
100
AcDbPolyline
 62
250
  6
CONTINUOUS
 90
4
 70
0
 10
27.8254614798
 20
-22.190545063
 10
27.8255925612
 20
-21.0948955356
 10
27.8276246487
 20
-20.037338322
 10
27.8309330662
 20
-19.0179424328
  0
LINE
  5
3C9
100
AcDbEntity
  8
SUPERFICI
100
AcDbLine
 62
7
  6
CONTINUOUS
 10
27.3254276394
 20
-21.129926528
 11
27.3256811416
 21
-22.213431947
  0
LINE
  5
3CA
100
AcDbEntity
  8
RACCORDO
100
AcDbLine
 62
250
  6
CONTINUOUS
 10
27.9000589376
 20
0.0007290656
 11
27.8886692763
 21
15.8112806519
  0
LINE
  5
3CB
100
AcDbEntity
  8
RACCORDO
100
AcDbLine
 62
250
  6
CONTINUOUS
 10
27.8982828732
 20
-3.0514573215
 11
27.9000583398
 21
0.000729065
  0
LINE
  5
3CC
100
AcDbEntity
  8
SUPERFICI
100
AcDbLine
 62
7
  6
CONTINUOUS
 10
27.3273300493
 20
-20.0016391603
 11
27.3254276394
 21
-21.129926528
  0
LINE
  5
3CD
100
AcDbEntity
  8
RACCORDO
100
AcDbLine
 62
250
  6
CONTINUOUS
 10
27.8910033237
 20
-6.1827333442
 11
27.8982828732
 21
-3.0514573215
  0
LINE
  5
3CE
100
AcDbEntity
  8
SUPERFICI
100
AcDbLine
 62
250
  6
CONTINUOUS
 10
27.3932916055
 20
-5.1911848974
 11
27.3853163272
 21
-7.570029981
  0
LINE
  5
3CF
100
AcDbEntity
  8
SUPERFICI
100
AcDbLine
 62
7
  6
CONTINUOUS
 10
27.3337413052
 20
-18.2048496054
 11
27.3273300493
 21
-20.0016391603
  0
LINE
  5
3D0
100
AcDbEntity
  8
RACCORDO
100
AcDbLine
 62
250
  6
CONTINUOUS
 10
27.879544324
 20
-9.2613491124
 11
27.8910033237
 21
-6.1827333442
  0
LINE
  5
3D1
100
AcDbEntity
  8
SUPERFICI
100
AcDbLine
 62
250
  6
CONTINUOUS
 10
27.3853163272
 20
-7.570029981
 11
27.3617470094
 21
-13.0401025478
  0
LINE
  5
3D2
100
AcDbEntity
  8
RACCORDO
100
AcDbLine
 62
250
  6
CONTINUOUS
 10
27.8309330662
 20
-19.0179424328
 11
27.8395138338
 21
-17.0982362877
  0
LINE
  5
3D3
100
AcDbEntity
  8
SUPERFICI
100
AcDbLine
 62
7
  6
CONTINUOUS
 10
27.3398889167
 20
-16.916451938
 11
27.3337413052
 21
-18.2048496054
  0
LINE
  5
3D4
100
AcDbEntity
  8
SUPERFICI
100
AcDbLine
 62
250
  6
CONTINUOUS
 10
27.3617470094
 20
-13.0401025478
 11
27.3517997994
 21
-15.0256501325
  0
LINE
  5
3D5
100
AcDbEntity
  8
RACCORDO
100
AcDbLine
 62
250
  6
CONTINUOUS
 10
27.8395138338
 20
-17.0982362877
 11
27.879544324
 21
-9.2613491124
  0
LINE
  5
3D6
100
AcDbEntity
  8
SUPERFICI
100
AcDbLine
 62
250
  6
CONTINUOUS
 10
27.3969896694
 20
-6.4052233075
 11
27.3798575763
 21
-9.2937289699
  0
LINE
  5
3D7
100
AcDbEntity
  8
SUPERFICI
100
AcDbLine
 62
250
  6
CONTINUOUS
 10
27.3517997994
 20
-15.0256501325
 11
27.3398889167
 21
-16.916451938
  0
LWPOLYLINE
  5
3D8
100
AcDbEntity
  8
SUPERFICI
100
AcDbPolyline
 62
250
  6
CONTINUOUS
 90
6
 70
0
 10
27.3798575763
 20
-9.2937289699
 10
27.3613986467
 20
-12.0028142995
 10
27.353395311
 20
-13.2928849602
 10
27.3474536383
 20
-14.542472732
 10
27.3429515069
 20
-15.7503283912
 10
27.3398889167
 20
-16.916451938
  0
LWPOLYLINE
  5
3D9
100
AcDbEntity
  8
SUPERFICI
100
AcDbPolyline
 62
7
  6
CONTINUOUS
 90
10
 70
0
 10
27.3256811416
 20
-22.213431947
 10
27.3223071843
 20
-22.4104185464
 10
27.3093967658
 20
-22.6125440938
 10
27.2869498859
 20
-22.8198085892
 10
27.2555542377
 20
-23.0324844751
 10
27.2146221282
 20
-23.2502993089
 10
27.1623904787
 20
-23.4724357634
 10
27.0982715964
 20
-23.6986213962
 10
27.022853174
 20
-23.9291286496
 10
26.9361352117
 20
-24.1639575238
  0
LWPOLYLINE
  5
3DA
100
AcDbEntity
  8
SUPERFICI
100
AcDbPolyline
 62
7
  6
CONTINUOUS
 90
10
 70
0
 10
27.3398889167
 20
-16.916451938
 10
27.3276384561
 20
-17.5692556695
 10
27.3177364587
 20
-18.2044620558
 10
27.3101829244
 20
-18.8220710968
 10
27.3045518645
 20
-19.4200364646
 10
27.3012692678
 20
-20.000404487
 10
27.3016131006
 20
-20.569314148
 10
27.3060093515
 20
-21.1288117757
 10
27.3140320318
 20
-21.676851042
 10
27.3256811416
 20
-22.213431947
  0
LWPOLYLINE
  5
3DB
100
AcDbEntity
  8
SUPERFICI
100
AcDbPolyline
 62
7
  6
CONTINUOUS
 90
10
 70
0
 10
27.3256811416
 20
-22.213431947
 10
27.3103787187
 20
-22.409203965
 10
27.2886508528
 20
-22.6103712828
 10
27.2604975438
 20
-22.8169339003
 10
27.2266783537
 20
-23.0291012017
 10
27.1864337205
 20
-23.2466638029
 10
27.1374849584
 20
-23.468993551
 10
27.0790725052
 20
-23.6958810617
 10
27.0119559229
 20
-23.9275357193
 10
26.9361352117
 20
-24.1639575238
  0
LINE
  5
3DC
100
AcDbEntity
  8
0
100
AcDbLine
 62
7
  6
CONTINUOUS
 10
18.60742
 20
-30.988531
 11
19.148988
 21
-29.099862
  0
LINE
  5
3DD
100
AcDbEntity
  8
0
100
AcDbLine
 62
7
  6
CONTINUOUS
 10
19.445795
 20
-30.087551
 11
18.89742
 21
-31.999985
  0
LWPOLYLINE
  5
3DE
100
AcDbEntity
  8
RACCORDO
100
AcDbPolyline
 62
250
  6
CONTINUOUS
 90
9
 70
0
 10
43.8633470207
 20
38.4999999623
 10
43.8606228153
 20
38.4932999016
 10
43.8536321306
 20
38.4868938132
 10
43.8424922482
 20
38.4808891712
 10
43.8273900601
 20
38.4753867141
 10
43.8085789334
 20
38.4704787561
 10
43.7863744593
 20
38.466247638
 10
43.7611491588
 20
38.462764345
 10
43.7485680211
 20
38.4615538296
  0
LWPOLYLINE
  5
3DF
100
AcDbEntity
  8
SUPERFICI
100
AcDbPolyline
 62
250
  6
CONTINUOUS
 90
3
 70
0
 10
-0.0157920829
 20
27.8932966899
 10
-2.9449711729
 20
27.7858271646
 10
-4.4367949237
 20
27.7318502123
  0
LWPOLYLINE
  5
3E0
100
AcDbEntity
  8
SUPERFICI
100
AcDbPolyline
 62
250
  6
CONTINUOUS
 90
6
 70
0
 10
-4.4367949237
 20
27.7318502123
 10
-7.5141869861
 20
27.6244598076
 10
-9.0212029996
 20
27.5689505972
 10
-10.4678228523
 20
27.5111841692
 10
-11.8736846187
 20
27.451684463
 10
-13.2387882988
 20
27.3904514787
  0
LWPOLYLINE
  5
3E1
100
AcDbEntity
  8
RACCORDO
100
AcDbPolyline
 62
250
  6
CONTINUOUS
 90
28
 70
0
 10
-22.1952128161
 20
27.8705612145
 10
-22.4421973854
 20
27.8642982485
 10
-22.6993526598
 20
27.8467862644
 10
-22.9660375885
 20
27.8165981348
 10
-23.2413810435
 20
27.7723689394
 10
-23.5246235772
 20
27.7126096767
 10
-23.8150842036
 20
27.6356725536
 10
-24.1129917417
 20
27.5396835522
 10
-24.4153946898
 20
27.4234834841
 10
-24.7167623568
 20
27.2872026148
 10
-25.0157362853
 20
27.1302215953
 10
-25.3106179873
 20
26.9520348957
 10
-25.5958093595
 20
26.7545056561
 10
-25.8689388007
 20
26.53880467
 10
-26.1298225454
 20
26.3048269369
 10
-26.3765312668
 20
26.0534864868
 10
-26.6081427304
 20
25.7848967137
 10
-26.8230895868
 20
25.5005921193
 10
-27.0189687808
 20
25.2040783535
 10
-27.1943547076
 20
24.8978498075
 10
-27.3496726724
 20
24.5820772116
 10
-27.4855556191
 20
24.256801365
 10
-27.6017739755
 20
23.9217889594
 10
-27.697185075
 20
23.5795438915
 10
-27.7713426769
 20
23.2340552847
 10
-27.8243382071
 20
22.8875138003
 10
-27.856386225
 20
22.540426342
 10
-27.8678209454
 20
22.1943185709
  0
LWPOLYLINE
  5
3E2
100
AcDbEntity
  8
SUPERFICI
100
AcDbPolyline
 62
250
  6
CONTINUOUS
 90
10
 70
0
 10
-22.1901805055
 20
27.3702730174
 10
-22.4134325601
 20
27.365077774
 10
-22.6432580403
 20
27.3479997543
 10
-22.879656946
 20
27.3190389583
 10
-23.1229912452
 20
27.2793303823
 10
-23.37289897
 20
27.22773903
 10
-23.6282942166
 20
27.1608599128
 10
-23.8888150169
 20
27.0775580346
 10
-24.1548233389
 20
26.9789683914
 10
-24.4263191827
 20
26.8650909835
  0
LWPOLYLINE
  5
3E3
100
AcDbEntity
  8
SUPERFICI
100
AcDbPolyline
 62
250
  6
CONTINUOUS
 90
10
 70
0
 10
-22.1901805055
 20
27.3702730174
 10
-22.4136530078
 20
27.3663998445
 10
-22.6436551088
 20
27.3502973472
 10
-22.8801868087
 20
27.3219655256
 10
-23.1236251221
 20
27.2825180019
 10
-23.3735930343
 20
27.2308411538
 10
-23.6289595009
 20
27.1635941146
 10
-23.8893475071
 20
27.079663262
 10
-24.1551340677
 20
26.9801622183
 10
-24.4263191827
 20
26.8650909835
  0
LINE
  5
3E4
100
AcDbEntity
  8
SUPERFICI
100
AcDbLine
 62
250
  6
CONTINUOUS
 10
-18.1660288114
 20
27.387802982
 11
-22.1901805055
 21
27.3702730174
  0
LINE
  5
3E5
100
AcDbEntity
  8
RACCORDO
100
AcDbLine
 62
250
  6
CONTINUOUS
 10
-19.1405346946
 20
27.8811526843
 11
-22.1952128055
 21
27.8705611293
  0
LINE
  5
3E6
100
AcDbEntity
  8
SUPERFICI
100
AcDbLine
 62
250
  6
CONTINUOUS
 10
-18.1659963316
 20
27.3836242999
 11
-20.9334649374
 21
27.374996105
  0
LINE
  5
3E7
100
AcDbEntity
  8
SUPERFICI
100
AcDbLine
 62
250
  6
CONTINUOUS
 10
-16.6326673604
 20
27.391288119
 11
-18.1660288114
 21
27.387802982
  0
LINE
  5
3E8
100
AcDbEntity
  8
SUPERFICI
100
AcDbLine
 62
250
  6
CONTINUOUS
 10
-13.2387882988
 20
27.3904514787
 11
-15.8255085501
 21
27.3862505984
  0
LINE
  5
3E9
100
AcDbEntity
  8
SUPERFICI
100
AcDbLine
 62
250
  6
CONTINUOUS
 10
-15.8255085501
 20
27.3862505984
 11
-18.1659963316
 21
27.3836242999
  0
LINE
  5
3EA
100
AcDbEntity
  8
SUPERFICI
100
AcDbLine
 62
250
  6
CONTINUOUS
 10
13.2466352975
 20
27.3904150712
 11
14.998321951
 21
27.3922226882
  0
LWPOLYLINE
  5
3EB
100
AcDbEntity
  8
SUPERFICI
100
AcDbPolyline
 62
250
  6
CONTINUOUS
 90
5
 70
0
 10
-7.444702039
 20
27.4006126445
 10
-8.9613052418
 20
27.3996971689
 10
-10.4224079657
 20
27.3975665625
 10
-11.8482356513
 20
27.3944846658
 10
-13.2387882988
 20
27.3904514787
  0
LINE
  5
3EC
100
AcDbEntity
  8
SUPERFICI
100
AcDbLine
 62
250
  6
CONTINUOUS
 10
-14.9907576548
 20
27.3922279774
 11
-16.6326673604
 21
27.391288119
  0
LINE
  5
3ED
100
AcDbEntity
  8
RACCORDO
100
AcDbLine
 62
250
  6
CONTINUOUS
 10
22.2
 20
26.1022231451
 11
-0.004091023
 21
26.100028637
  0
LINE
  5
3EE
100
AcDbEntity
  8
RACCORDO
100
AcDbLine
 62
250
  6
CONTINUOUS
 10
-0.004091023
 20
26.100028637
 11
-22.2
 21
26.1022231451
  0
LINE
  5
3EF
100
AcDbEntity
  8
SUPERFICI
100
AcDbLine
 62
250
  6
CONTINUOUS
 10
7.4502477647
 20
27.4006100694
 11
-7.444702039
 21
27.4006126445
  0
LWPOLYLINE
  5
3F0
100
AcDbEntity
  8
SUPERFICI
100
AcDbPolyline
 62
250
  6
CONTINUOUS
 90
5
 70
0
 10
7.4502477647
 20
27.4006100694
 10
8.9676591958
 20
27.399691401
 10
10.4294046954
 20
27.3975536069
 10
11.8557300626
 20
27.3944614969
 10
13.2466352975
 20
27.3904150712
  0
LINE
  5
3F1
100
AcDbEntity
  8
SUPERFICI
100
AcDbLine
 62
250
  6
CONTINUOUS
 10
14.998321951
 20
27.3922226882
 11
16.6399402572
 21
27.3912932735
  0
LINE
  5
3F2
100
AcDbEntity
  8
RACCORDO
100
AcDbLine
 62
250
  6
CONTINUOUS
 10
15.2720502355
 20
27.8881425953
 11
-19.1405346946
 21
27.8811526843
  0
LINE
  5
3F3
100
AcDbEntity
  8
SUPERFICI
100
AcDbLine
 62
250
  6
CONTINUOUS
 10
-13.2387882988
 20
27.3904514787
 11
-14.9907576548
 21
27.3922279774
  0
LINE
  5
3F4
100
AcDbEntity
  8
SUPERFICI
100
AcDbLine
 62
250
  6
CONTINUOUS
 10
13.2466352975
 20
27.3904150712
 11
18.1729707792
 21
27.3836287337
  0
LINE
  5
3F5
100
AcDbEntity
  8
SUPERFICI
100
AcDbLine
 62
250
  6
CONTINUOUS
 10
16.6399402572
 20
27.3912932735
 11
18.1730031907
 21
27.3878008648
  0
LINE
  5
3F6
100
AcDbEntity
  8
RACCORDO
100
AcDbLine
 62
250
  6
CONTINUOUS
 10
20.8582066108
 20
27.8759390007
 11
15.2720502355
 21
27.8881425953
  0
LINE
  5
3F7
100
AcDbEntity
  8
SUPERFICI
100
AcDbLine
 62
250
  6
CONTINUOUS
 10
20.2798774699
 20
27.3772403144
 11
22.1962744294
 21
27.3702494021
  0
LINE
  5
3F8
100
AcDbEntity
  8
RACCORDO
100
AcDbLine
 62
250
  6
CONTINUOUS
 10
22.1952128057
 20
27.8705611314
 11
20.8582066108
 21
27.8759390007
  0
LWPOLYLINE
  5
3F9
100
AcDbEntity
  8
SUPERFICI
100
AcDbPolyline
 62
250
  6
CONTINUOUS
 90
3
 70
0
 10
18.1730031907
 20
27.3878008648
 10
19.6004419669
 20
27.382110138
 10
20.2800253342
 20
27.3790184101
  0
LWPOLYLINE
  5
3FA
100
AcDbEntity
  8
SUPERFICI
100
AcDbPolyline
 62
250
  6
CONTINUOUS
 90
3
 70
0
 10
18.1729707792
 20
27.3836287337
 10
20.939972038
 20
27.3760939133
 10
21.5787217364
 20
27.3731709107
  0
LWPOLYLINE
  5
3FB
100
AcDbEntity
  8
SUPERFICI
100
AcDbPolyline
 62
250
  6
CONTINUOUS
 90
10
 70
0
 10
22.1962744294
 20
27.3702494021
 10
22.4197513255
 20
27.3660962581
 10
22.6497287559
 20
27.3497179442
 10
22.8862067205
 20
27.3211144602
 10
23.1295640693
 20
27.281401158
 10
23.3794219523
 20
27.2294626859
 10
23.63464382
 20
27.1619529879
 10
23.8948508224
 20
27.0777567122
 10
24.1604218094
 20
26.9779892107
 10
24.4313567811
 20
26.8626504834
  0
LWPOLYLINE
  5
3FC
100
AcDbEntity
  8
SUPERFICI
100
AcDbPolyline
 62
250
  6
CONTINUOUS
 90
10
 70
0
 10
22.1962744294
 20
27.3702494021
 10
22.4195299939
 20
27.3647719088
 10
22.6493302536
 20
27.3474170799
 10
22.8856752083
 20
27.3181849155
 10
23.128928812
 20
27.2782130969
 10
23.3787271107
 20
27.2263639428
 10
23.6339782432
 20
27.1592244088
 10
23.8943182555
 20
27.0756568135
 10
24.1601111014
 20
26.9767988383
 10
24.4313567811
 20
26.8626504834
  0
LINE
  5
3FD
100
AcDbEntity
  8
SUPERFICI
100
AcDbLine
 62
250
  6
CONTINUOUS
 10
4.4185207795
 20
27.731850749
 11
7.5052823975
 21
27.6244621591
  0
LWPOLYLINE
  5
3FE
100
AcDbEntity
  8
SUPERFICI
100
AcDbPolyline
 62
250
  6
CONTINUOUS
 90
3
 70
0
 10
-0.0157920829
 20
27.8932966899
 10
1.4440904598
 20
27.8396430302
 10
4.4185207795
 20
27.731850749
  0
LWPOLYLINE
  5
3FF
100
AcDbEntity
  8
SUPERFICI
100
AcDbPolyline
 62
250
  6
CONTINUOUS
 90
5
 70
0
 10
7.5052823975
 20
27.6244621591
 10
9.0168293443
 20
27.5689499232
 10
10.4677093967
 20
27.5111754199
 10
11.8776447144
 20
27.4516638026
 10
13.2466352975
 20
27.3904150712
  0
LINE
  5
400
100
AcDbEntity
  8
0
100
AcDbLine
 62
7
  6
CONTINUOUS
 10
20.412503
 20
-31.999993
 11
21.343628
 21
-29.099855
  0
LINE
  5
401
100
AcDbEntity
  8
0
100
AcDbLine
 62
7
  6
CONTINUOUS
 10
21.63365
 20
-30.003096
 11
21.35256
 21
-30.878635
  0
LINE
  5
402
100
AcDbEntity
  8
0
100
AcDbLine
 62
7
  6
CONTINUOUS
 10
21.175638
 20
-31.429657
 11
20.992525
 21
-31.999985
  0
LWPOLYLINE
  5
403
100
AcDbEntity
  8
SUPERFICI
100
AcDbPolyline
 62
250
  6
CONTINUOUS
 90
10
 70
0
 10
26.9361352117
 20
-24.1639575238
 10
26.8683282812
 20
-24.3268049648
 10
26.7948254128
 20
-24.4875871149
 10
26.7156266066
 20
-24.6463039744
 10
26.6301533428
 20
-24.8038805365
 10
26.5389841411
 20
-24.9593918079
 10
26.4438545606
 20
-25.1100628083
 10
26.3453431208
 20
-25.2549685444
 10
26.2428713021
 20
-25.3950340096
 10
26.1364391046
 20
-25.5302592038
  0
LINE
  5
404
100
AcDbEntity
  8
SUPERFICI
100
AcDbLine
 62
250
  6
CONTINUOUS
 10
26.7904863603
 20
-24.4502513323
 11
26.6970105616
 21
-24.6415623083
  0
LWPOLYLINE
  5
405
100
AcDbEntity
  8
SUPERFICI
100
AcDbPolyline
 62
250
  6
CONTINUOUS
 90
3
 70
0
 10
26.9361352117
 20
-24.1639575238
 10
26.8871927292
 20
-24.2594050792
 10
26.7904863603
 20
-24.4502513323
  0
LWPOLYLINE
  5
406
100
AcDbEntity
  8
SUPERFICI
100
AcDbPolyline
 62
250
  6
CONTINUOUS
 90
11
 70
0
 10
26.6970105616
 20
-24.6415623083
 10
26.6483732978
 20
-24.7363985682
 10
26.5965491694
 20
-24.8304752207
 10
26.5426292439
 20
-24.9237407879
 10
26.4873980616
 20
-25.0152460376
 10
26.4308802671
 20
-25.1044950478
 10
26.3730512157
 20
-25.1919837404
 10
26.3146215132
 20
-25.278250649
 10
26.2558280281
 20
-25.3634752847
 10
26.1964338919
 20
-25.4474781363
 10
26.1364391046
 20
-25.5302592038
  0
LWPOLYLINE
  5
407
100
AcDbEntity
  8
SUPERFICI
100
AcDbPolyline
 62
250
  6
CONTINUOUS
 90
10
 70
0
 10
26.1364391046
 20
-25.5302592038
 10
26.052413757
 20
-25.6321509002
 10
25.967472346
 20
-25.7304890463
 10
25.8816148716
 20
-25.8252736421
 10
25.794736689
 20
-25.9164444081
 10
25.7069424429
 20
-26.0040616238
 10
25.6185460679
 20
-26.0883061281
 10
25.5296522089
 20
-26.1692382004
 10
25.4401562209
 20
-26.2467975614
 10
25.350058104
 20
-26.3209842108
  0
LWPOLYLINE
  5
408
100
AcDbEntity
  8
SUPERFICI
100
AcDbPolyline
 62
250
  6
CONTINUOUS
 90
12
 70
0
 10
25.688765471
 20
-26.0172083517
 10
25.6538734256
 20
-26.051215192
 10
25.6363990481
 20
-26.0680212107
 10
25.6189032852
 20
-26.0846969032
 10
25.6013884828
 20
-26.1012428094
 10
25.5838522951
 20
-26.1176583895
 10
25.5662863796
 20
-26.1339435229
 10
25.5486883634
 20
-26.1500977216
 10
25.5310606194
 20
-26.1661214735
 10
25.5134019244
 20
-26.1820161218
 10
25.4957122561
 20
-26.197781608
 10
25.4779916367
 20
-26.2134179906
  0
LWPOLYLINE
  5
409
100
AcDbEntity
  8
SUPERFICI
100
AcDbPolyline
 62
250
  6
CONTINUOUS
 90
27
 70
0
 10
26.1364391046
 20
-25.5302592038
 10
26.1166850331
 20
-25.5485365516
 10
26.0977189432
 20
-25.567276778
 10
26.0795408347
 20
-25.586479883
 10
26.0624249888
 20
-25.6063470246
 10
26.0460971244
 20
-25.6266770449
 10
26.0297343981
 20
-25.6468664696
 10
26.0130630057
 20
-25.6667140747
 10
25.9963567514
 20
-25.6864210843
 10
25.9796142052
 20
-25.7059876963
 10
25.9628353015
 20
-25.7254137723
 10
25.9460201058
 20
-25.7446994507
 10
25.9291673852
 20
-25.7638453445
 10
25.9122796351
 20
-25.7828519521
 10
25.8953543601
 20
-25.8017187752
 10
25.8783828402
 20
-25.8204449315
 10
25.8613626992
 20
-25.8390300781
 10
25.8442963133
 20
-25.8574745579
 10
25.8271820909
 20
-25.8757785172
 10
25.8100164487
 20
-25.8939412736
 10
25.79280297
 20
-25.9119635095
 10
25.7755508135
 20
-25.9298474184
 10
25.7582599298
 20
-25.947592733
 10
25.7409303683
 20
-25.9651997206
 10
25.7235714361
 20
-25.9826713765
 10
25.7061831389
 20
-26.00000753
 10
25.688765471
 20
-26.0172083517
  0
LWPOLYLINE
  5
40A
100
AcDbEntity
  8
SUPERFICI
100
AcDbPolyline
 62
250
  6
CONTINUOUS
 90
3
 70
0
 10
25.44256435
 20
-26.2442462533
 10
25.4248576828
 20
-26.2594381334
 10
25.406786923
 20
-26.2746891928
  0
LWPOLYLINE
  5
40B
100
AcDbEntity
  8
SUPERFICI
100
AcDbPolyline
 62
250
  6
CONTINUOUS
 90
52
 70
0
 10
25.350058104
 20
-26.3209842108
 10
25.3308735657
 20
-26.337420257
 10
25.311192423
 20
-26.3539467032
 10
25.291014676
 20
-26.3705635496
 10
25.2702283109
 20
-26.3873278261
 10
25.2489453416
 20
-26.4041825027
 10
25.2275018093
 20
-26.4209564894
 10
25.2060114665
 20
-26.4375937424
 10
25.1843605608
 20
-26.4541503054
 10
25.1625438771
 20
-26.4706232201
 10
25.140561411
 20
-26.487012368
 10
25.1184131668
 20
-26.5033178675
 10
25.0960939425
 20
-26.5195371159
 10
25.0736041063
 20
-26.5356689038
 10
25.0509432899
 20
-26.5517144405
 10
25.0281051863
 20
-26.5676747511
 10
25.0050975049
 20
-26.5835422019
 10
24.9819125362
 20
-26.5993244265
 10
24.9585208451
 20
-26.6150453517
 10
24.9349100757
 20
-26.6307186862
 10
24.9110925839
 20
-26.6463307212
 10
24.8870760012
 20
-26.6618642571
 10
24.8628562729
 20
-26.6773229846
 10
24.8384374538
 20
-26.6927032132
 10
24.8138393398
 20
-26.7079766712
 10
24.7890611071
 20
-26.7231423439
 10
24.7641035795
 20
-26.7382012462
 10
24.7389890245
 20
-26.7531281508
 10
24.7137165649
 20
-26.7679217355
 10
24.6882870778
 20
-26.7825833225
 10
24.6627254618
 20
-26.7970916514
 10
24.6370356819
 20
-26.8114424182
 10
24.611213773
 20
-26.8256399269
 10
24.5852727392
 20
-26.839675829
 10
24.5592262999
 20
-26.8535381674
 10
24.5330607357
 20
-26.8672388993
 10
24.5067478913
 20
-26.880805548
 10
24.4802803798
 20
-26.8942459848
 10
24.4536655882
 20
-26.9075523383
 10
24.4268975219
 20
-26.9207285181
 10
24.3999749912
 20
-26.9337746426
 10
24.3728991859
 20
-26.9466905932
 10
24.3456676803
 20
-26.9594799239
 10
24.3182804762
 20
-26.9721425478
 10
24.2907375719
 20
-26.9846785517
 10
24.263036537
 20
-26.9970917506
 10
24.2352671106
 20
-27.0097370403
 10
24.2073395537
 20
-27.0222595251
 10
24.1789822179
 20
-27.0335983323
 10
24.1501045539
 20
-27.0433998376
 10
24.1207971111
 20
-27.0520176654
 10
24.0910598895
 20
-27.0594518156
  0
LINE
  5
40C
100
AcDbEntity
  8
SUPERFICI
100
AcDbLine
 62
250
  6
CONTINUOUS
 10
25.3882414092
 20
-26.2900616862
 11
25.3693318029
 21
-26.3054933589
  0
LWPOLYLINE
  5
40D
100
AcDbEntity
  8
SUPERFICI
100
AcDbPolyline
 62
250
  6
CONTINUOUS
 90
10
 70
0
 10
25.3693318029
 20
-26.3054933589
 10
25.2312989674
 20
-26.4159929606
 10
25.1070493953
 20
-26.5080747184
 10
24.9773093878
 20
-26.5972294844
 10
24.8418015489
 20
-26.6838735339
 10
24.7008032746
 20
-26.7675905916
 10
24.5551467527
 20
-26.8471318312
 10
24.4051093792
 20
-26.9220809774
 10
24.2504137581
 20
-26.9928543055
 10
24.0910598895
 20
-27.0594518156
  0
LWPOLYLINE
  5
40E
100
AcDbEntity
  8
SUPERFICI
100
AcDbPolyline
 62
250
  6
CONTINUOUS
 90
10
 70
0
 10
24.0910598895
 20
-27.0594518156
 10
23.9036455788
 20
-27.1359258556
 10
23.7080723296
 20
-27.2032065601
 10
23.5043401417
 20
-27.2612939289
 10
23.2900566419
 20
-27.3106053902
 10
23.0676142034
 20
-27.3507235159
 10
22.8441899468
 20
-27.3803960215
 10
22.6221762454
 20
-27.3992054786
 10
22.3991807259
 20
-27.4075693156
 10
22.1752033882
 20
-27.4054875325
  0
LWPOLYLINE
  5
40F
100
AcDbEntity
  8
SUPERFICI
100
AcDbPolyline
 62
250
  6
CONTINUOUS
 90
10
 70
0
 10
24.0910598895
 20
-27.0594518156
 10
23.9032979144
 20
-27.1311278606
 10
23.7075102203
 20
-27.1949652784
 10
23.5036968072
 20
-27.2509640689
 10
23.2895270398
 20
-27.2997486066
 10
23.0673315534
 20
-27.3406945169
 10
22.8441022543
 20
-27.371928677
 10
22.6221697782
 20
-27.3928267125
 10
22.3992034895
 20
-27.4040129976
 10
22.1752033882
 20
-27.4054875325
  0
LWPOLYLINE
  5
410
100
AcDbEntity
  8
SUPERFICI
100
AcDbPolyline
 62
250
  6
CONTINUOUS
 90
4
 70
0
 10
24.4313567811
 20
26.8626504834
 10
24.6178664451
 20
26.7706799464
 10
24.7985308047
 20
26.6727603079
 10
24.9733498598
 20
26.5688915679
  0
LWPOLYLINE
  5
411
100
AcDbEntity
  8
SUPERFICI
100
AcDbPolyline
 62
250
  6
CONTINUOUS
 90
5
 70
0
 10
24.9730540377
 20
26.5682372631
 10
25.1422899599
 20
26.4582778722
 10
25.3057518536
 20
26.3425130695
 10
25.4627850368
 20
26.2215753356
 10
25.6131712822
 20
26.0956754974
  0
LWPOLYLINE
  5
412
100
AcDbEntity
  8
SUPERFICI
100
AcDbPolyline
 62
250
  6
CONTINUOUS
 90
3
 70
0
 10
25.6130941125
 20
26.0956164886
 10
25.7570682602
 20
25.9645385849
 10
25.8946576417
 20
25.8283570277
  0
LWPOLYLINE
  5
413
100
AcDbEntity
  8
SUPERFICI
100
AcDbPolyline
 62
250
  6
CONTINUOUS
 90
3
 70
0
 10
25.8946576417
 20
25.8283570277
 10
26.0315923864
 20
25.6854531201
 10
26.1631563917
 20
25.5353045168
  0
LWPOLYLINE
  5
414
100
AcDbEntity
  8
SUPERFICI
100
AcDbPolyline
 62
250
  6
CONTINUOUS
 90
5
 70
0
 10
26.162931261
 20
25.5352491392
 10
26.2891318432
 20
25.3778847573
 10
26.4103852052
 20
25.2131241614
 10
26.5263477489
 20
25.0411566071
 10
26.63598868
 20
24.8625498616
  0
LWPOLYLINE
  5
415
100
AcDbEntity
  8
SUPERFICI
100
AcDbPolyline
 62
250
  6
CONTINUOUS
 90
4
 70
0
 10
26.6357050177
 20
24.8622631463
 10
26.7386880548
 20
24.6772353825
 10
26.8354367169
 20
24.4856350821
 10
26.9259510043
 20
24.287462245
  0
LWPOLYLINE
  5
416
100
AcDbEntity
  8
SUPERFICI
100
AcDbPolyline
 62
250
  6
CONTINUOUS
 90
10
 70
0
 10
26.9259510043
 20
24.287462245
 10
27.0155433426
 20
24.0715682796
 10
27.095317915
 20
23.8498530498
 10
27.1652747214
 20
23.6223165558
 10
27.2258745289
 20
23.3870350531
 10
27.2766565705
 20
23.1459322861
 10
27.3162385447
 20
22.9047794876
 10
27.3441596843
 20
22.6655004017
 10
27.3608807566
 20
22.4261712843
 10
27.3664017614
 20
22.1867921353
  0
LWPOLYLINE
  5
417
100
AcDbEntity
  8
SUPERFICI
100
AcDbPolyline
 62
250
  6
CONTINUOUS
 90
10
 70
0
 10
26.9259510043
 20
24.287462245
 10
27.0147007276
 20
24.071258451
 10
27.0938444211
 20
23.8493193294
 10
27.1633820849
 20
23.6216448802
 10
27.2237759292
 20
23.386322665
 10
27.2745637437
 20
23.1452651222
 10
27.3143588973
 20
22.9042095663
 10
27.3426991796
 20
22.6650684357
 10
27.360046801
 20
22.425929292
 10
27.3664017614
 20
22.1867921353
  0
LINE
  5
418
100
AcDbEntity
  8
SUPERFICI
100
AcDbLine
 62
250
  6
CONTINUOUS
 10
39.99
 20
-40.3103811461
 11
39.99
 21
-40.4497258095
  0
LINE
  5
419
100
AcDbEntity
  8
SKEL_COPERCHIO
100
AcDbLine
 62
250
  6
CONTINUOUS
 10
39.99
 20
-42.080588424
 11
39.99
 21
-42.25
  0
LINE
  5
41A
100
AcDbEntity
  8
RACCORDO
100
AcDbLine
 62
250
  6
CONTINUOUS
 10
39.99
 20
-42.0968686041
 11
39.99
 21
-42.25
  0
LINE
  5
41B
100
AcDbEntity
  8
SUPERFICI
100
AcDbLine
 62
250
  6
CONTINUOUS
 10
39.99
 20
-42.080588424
 11
39.99
 21
-42.25
  0
LINE
  5
41C
100
AcDbEntity
  8
SUPERFICI
100
AcDbLine
 62
250
  6
CONTINUOUS
 10
39.99
 20
40.3243092385
 11
39.99
 21
40.4497258095
  0
LINE
  5
41D
100
AcDbEntity
  8
SKEL_COPERCHIO
100
AcDbLine
 62
250
  6
CONTINUOUS
 10
39.99
 20
42.0997757343
 11
39.99
 21
42.1993909428
  0
LINE
  5
41E
100
AcDbEntity
  8
0
100
AcDbLine
 62
250
  6
CONTINUOUS
 10
39.99
 20
42.1130421103
 11
39.99
 21
42.1993909428
  0
LINE
  5
41F
100
AcDbEntity
  8
SUPERFICI
100
AcDbLine
 62
250
  6
CONTINUOUS
 10
39.99
 20
42.0997757343
 11
39.99
 21
42.25
  0
LINE
  5
420
100
AcDbEntity
  8
DRAFT
100
AcDbLine
 62
250
  6
CONTINUOUS
 10
40.0
 20
42.3219583377
 11
40.0
 21
42.5
  0
LINE
  5
421
100
AcDbEntity
  8
0
100
AcDbLine
 62
7
  6
CONTINUOUS
 10
40.5
 20
42.1647740418
 11
40.5
 21
42.1723447486
  0
LINE
  5
422
100
AcDbEntity
  8
RACCORDO
100
AcDbLine
 62
250
  6
CONTINUOUS
 10
40.0
 20
-42.5
 11
40.000029202
 21
-42.2495403252
  0
LWPOLYLINE
  5
423
100
AcDbEntity
  8
0
100
AcDbPolyline
 62
7
  6
CONTINUOUS
 90
13
 70
0
 43
0.3500000087
 10
49.535715155
 20
-1.8214289383
 10
49.3214286224
 20
-2.107142894
 10
48.678573288
 20
-2.107142894
 10
48.2500002228
 20
-1.8214289383
 10
48.2500002228
 20
-1.1785714722
 10
48.678573288
 20
-0.8928575165
 10
49.3214286224
 20
-0.8928575165
 10
49.535715155
 20
-1.1785714722
 10
49.9642839569
 20
-0.7500005386
 10
50.8214300873
 20
-0.7500005386
 10
51.2499988892
 20
-1.1785714722
 10
51.2499988892
 20
-1.8214289383
 10
50.8214300873
 20
-2.2499998718
  0
LWPOLYLINE
  5
424
100
AcDbEntity
  8
SUPERFICI
100
AcDbPolyline
 62
7
  6
CONTINUOUS
 90
3
 70
0
 10
-35.8203342734
 20
40.3176688835
 10
-36.3420342665
 20
40.317270301
 10
-37.3875849661
 20
40.3196520592
  0
LWPOLYLINE
  5
425
100
AcDbEntity
  8
SUPERFICI
100
AcDbPolyline
 62
7
  6
CONTINUOUS
 90
6
 70
0
 10
-37.3875849661
 20
40.3196520592
 10
-37.9088296065
 20
40.3192404152
 10
-38.4296446595
 20
40.3208957652
 10
-38.9506404878
 20
40.324606301
 10
-39.4708233073
 20
40.3265122223
 10
-39.99
 20
40.3243092385
  0
LINE
  5
426
100
AcDbEntity
  8
SUPERFICI
100
AcDbLine
 62
250
  6
CONTINUOUS
 10
-41.8257108617
 20
38.489999881
 11
-41.9497258095
 21
38.49
  0
LINE
  5
427
100
AcDbEntity
  8
ASSI
100
AcDbLine
 62
250
  6
CONTINUOUS
 10
43.6148052695
 20
38.49
 11
43.7484878319
 21
38.4900001097
  0
LINE
  5
428
100
AcDbEntity
  8
SUPERFICI
100
AcDbLine
 62
250
  6
CONTINUOUS
 10
41.825710862
 20
38.49
 11
41.9497258095
 21
38.49
  0
LINE
  5
429
100
AcDbEntity
  8
SKEL_COPERCHIO
100
AcDbLine
 62
250
  6
CONTINUOUS
 10
-43.6018259212
 20
38.49
 11
-43.75
 21
38.49
  0
LINE
  5
42A
100
AcDbEntity
  8
SUPERFICI
100
AcDbLine
 62
250
  6
CONTINUOUS
 10
-43.6018259212
 20
38.49
 11
-43.75
 21
38.49
  0
LINE
  5
42B
100
AcDbEntity
  8
SKEL_COPERCHIO
100
AcDbLine
 62
250
  6
CONTINUOUS
 10
43.6018259215
 20
38.4900002043
 11
43.75
 21
38.49
  0
LINE
  5
42C
100
AcDbEntity
  8
SUPERFICI
100
AcDbLine
 62
250
  6
CONTINUOUS
 10
43.6018259215
 20
38.4900002043
 11
43.75
 21
38.49
  0
LINE
  5
42D
100
AcDbEntity
  8
ASSI
100
AcDbLine
 62
250
  6
CONTINUOUS
 10
-43.6148052695
 20
38.49
 11
-43.748487833
 21
38.4899997944
  0
LINE
  5
42E
100
AcDbEntity
  8
RACCORDO
100
AcDbLine
 62
250
  6
CONTINUOUS
 10
43.863347019
 20
38.5
 11
44.0
 21
38.5
  0
LINE
  5
42F
100
AcDbEntity
  8
RACCORDO
100
AcDbLine
 62
250
  6
CONTINUOUS
 10
-43.8641154491
 20
38.5
 11
-44.0
 21
38.5
  0
LINE
  5
430
100
AcDbEntity
  8
SUPERFICI
100
AcDbLine
 62
7
  6
CONTINUOUS
 10
39.99
 20
40.4497258095
 11
-39.99
 21
40.4497258095
  0
LINE
  5
431
100
AcDbEntity
  8
SUPERFICI
100
AcDbLine
 62
7
  6
CONTINUOUS
 10
-0.9778879789
 20
40.3146387633
 11
-28.3406005381
 21
40.3145605854
  0
LINE
  5
432
100
AcDbEntity
  8
SUPERFICI
100
AcDbLine
 62
7
  6
CONTINUOUS
 10
32.980226071
 20
40.3156927697
 11
-0.9778879789
 21
40.3146387633
  0
LINE
  5
433
100
AcDbEntity
  8
SUPERFICI
100
AcDbLine
 62
7
  6
CONTINUOUS
 10
33.4785437657
 20
40.315513991
 11
32.980226071
 21
40.3156927697
  0
LINE
  5
434
100
AcDbEntity
  8
SUPERFICI
100
AcDbLine
 62
7
  6
CONTINUOUS
 10
-28.3406005381
 20
40.3145605854
 11
-31.5992612848
 21
40.3149904812
  0
LWPOLYLINE
  5
435
100
AcDbEntity
  8
SUPERFICI
100
AcDbPolyline
 62
7
  6
CONTINUOUS
 90
3
 70
0
 10
34.9798867805
 20
40.3162420464
 10
34.4798187191
 20
40.3165171077
 10
33.4785437657
 20
40.315513991
  0
LINE
  5
436
100
AcDbEntity
  8
SUPERFICI
100
AcDbLine
 62
7
  6
CONTINUOUS
 10
-31.5992612848
 20
40.3149904812
 11
-33.1942004537
 21
40.315395529
  0
LWPOLYLINE
  5
437
100
AcDbEntity
  8
SUPERFICI
100
AcDbPolyline
 62
7
  6
CONTINUOUS
 90
3
 70
0
 10
36.4869937604
 20
40.3175132062
 10
35.9849006919
 20
40.3178493315
 10
34.9798867805
 20
40.3162420464
  0
LWPOLYLINE
  5
438
100
AcDbEntity
  8
SUPERFICI
100
AcDbPolyline
 62
7
  6
CONTINUOUS
 90
3
 70
0
 10
-33.1942004537
 20
40.315395529
 10
-33.7220834064
 20
40.3159980126
 10
-34.7721515477
 20
40.3160602732
  0
LINE
  5
439
100
AcDbEntity
  8
SUPERFICI
100
AcDbLine
 62
7
  6
CONTINUOUS
 10
-34.7721515477
 20
40.3160602732
 11
-35.8203342734
 21
40.3176688835
  0
LWPOLYLINE
  5
43A
100
AcDbEntity
  8
SUPERFICI
100
AcDbPolyline
 62
7
  6
CONTINUOUS
 90
7
 70
0
 10
39.99
 20
40.3243092385
 10
39.4936420972
 20
40.3260289435
 10
38.9957779911
 20
40.3242877974
 10
38.496412232
 20
40.3210175779
 10
37.9957943331
 20
40.3195519376
 10
37.4935981464
 20
40.3198286785
 10
36.4869937604
 20
40.3175132062
  0
LWPOLYLINE
  5
43B
100
AcDbEntity
  8
0
100
AcDbPolyline
 62
7
  6
CONTINUOUS
 90
13
 70
0
 43
0.3500000087
 10
-1.9285714658
 20
52.9642849487
 10
-2.2142856879
 20
53.178567218
 10
-2.2142856879
 20
53.8214310791
 10
-1.9285714658
 20
54.2500041443
 10
-1.2857142661
 20
54.2500041443
 10
-0.9999999774
 20
53.8214310791
 10
-0.9999999774
 20
53.178567218
 10
-1.2857142661
 20
52.9642849487
 10
-0.8571428663
 20
52.5357118835
 10
-0.8571428663
 20
51.6785700165
 10
-1.2857142661
 20
51.2500012146
 10
-1.9285714658
 20
51.2500012146
 10
-2.357142799
 20
51.6785700165
  0
LWPOLYLINE
  5
43C
100
AcDbEntity
  8
SUPERFICI
100
AcDbPolyline
 62
7
  6
CONTINUOUS
 90
28
 70
0
 10
43.6018259196
 20
38.4900002402
 10
43.5923626349
 20
38.7259760381
 10
43.5703754399
 20
38.9572251823
 10
43.5354343665
 20
39.1831418989
 10
43.4858285007
 20
39.4033152274
 10
43.4222313498
 20
39.6169320359
 10
43.3479061714
 20
39.8230780146
 10
43.2627430704
 20
40.0214974489
 10
43.1660519503
 20
40.2118844311
 10
43.0605483447
 20
40.3937759828
 10
42.9464821805
 20
40.5671060996
 10
42.8231047688
 20
40.7318932878
 10
42.6918941921
 20
40.8881594696
 10
42.5530949154
 20
41.036210452
 10
42.4061510792
 20
41.1759285236
 10
42.2515127909
 20
41.3069056104
 10
42.0888210824
 20
41.4300410201
 10
41.9182158247
 20
41.5448179004
 10
41.7412800712
 20
41.6490605301
 10
41.5584853505
 20
41.7433391194
 10
41.3698935493
 20
41.8279645
 10
41.1771126461
 20
41.9008107766
 10
40.980638752
 20
41.9623471037
 10
40.7811971081
 20
42.0132429232
 10
40.5813333711
 20
42.0520085528
 10
40.3825953684
 20
42.0786302811
 10
40.185214387
 20
42.0943760584
 10
39.99
 20
42.0997757343
  0
LWPOLYLINE
  5
43D
100
AcDbEntity
  8
SUPERFICI
100
AcDbPolyline
 62
7
  6
CONTINUOUS
 90
19
 70
0
 10
41.825710862
 20
38.49
 10
41.8198012249
 20
38.6398482122
 10
41.8013116726
 20
38.7909824402
 10
41.7696968903
 20
38.9426474045
 10
41.7236141853
 20
39.0953027541
 10
41.6630342459
 20
39.2467541241
 10
41.5895513779
 20
39.3925942731
 10
41.5022389541
 20
39.5325175263
 10
41.4008946268
 20
39.6658089475
 10
41.2888779849
 20
39.7883858894
 10
41.1659243032
 20
39.9005663932
 10
41.0319796478
 20
40.0021445158
 10
40.8917496326
 20
40.0894072008
 10
40.7462367178
 20
40.1626075333
 10
40.5953494699
 20
40.2228392841
 10
40.4431044991
 20
40.2685290342
 10
40.2915299205
 20
40.2998155819
 10
40.1402491311
 20
40.3181912863
 10
39.99
 20
40.3243092385
  0
LINE
  5
43E
100
AcDbEntity
  8
0
100
AcDbLine
 62
7
  6
CONTINUOUS
 10
43.7484878322
 20
38.4900000018
 11
43.7407845537
 21
38.7163755943
  0
LWPOLYLINE
  5
43F
100
AcDbEntity
  8
SKEL_COPERCHIO
100
AcDbPolyline
 62
7
  6
CONTINUOUS
 90
28
 70
0
 10
43.6018259215
 20
38.4900002043
 10
43.5944265668
 20
38.725592763
 10
43.5720545152
 20
38.9569421628
 10
43.5354343665
 20
39.1831418989
 10
43.4853425981
 20
39.4033110313
 10
43.4225760288
 20
39.6167791705
 10
43.3479061714
 20
39.8230780146
 10
43.2622072775
 20
40.0214991984
 10
43.1662529827
 20
40.2116897017
 10
43.0605483447
 20
40.3937759828
 10
42.9459928807
 20
40.5671245056
 10
42.8231880007
 20
40.7316421185
 10
42.6918941921
 20
40.8881594696
 10
42.5527275722
 20
41.036221836
 10
42.4061958568
 20
41.1755440677
 10
42.2515127909
 20
41.3069056104
 10
42.088517636
 20
41.4302035938
 10
41.9181774977
 20
41.5444717983
 10
41.7412800712
 20
41.6490605301
 10
41.5582539442
 20
41.7436283146
 10
41.3697721064
 20
41.8277394792
 10
41.1771126461
 20
41.9008107766
 10
40.980508737
 20
41.9627763658
 10
40.7810247805
 20
42.0133240263
 10
40.5813333711
 20
42.0520085528
 10
40.3828233068
 20
42.0790256161
 10
40.1855024554
 20
42.0948338913
 10
39.99
 20
42.0997757343
  0
LINE
  5
440
100
AcDbEntity
  8
RACCORDO
100
AcDbLine
 62
250
  6
CONTINUOUS
 10
43.863347019
 20
38.5
 11
43.8652635325
 21
37.7257121901
  0
LWPOLYLINE
  5
441
100
AcDbEntity
  8
SUPERFICI
100
AcDbPolyline
 62
7
  6
CONTINUOUS
 90
6
 70
0
 10
43.5993687435
 20
35.2030368434
 10
43.598644865
 20
35.8865695631
 10
43.5996919613
 20
36.5585105373
 10
43.6027671027
 20
37.2148215673
 10
43.604160236
 20
37.8588942327
 10
43.6018259196
 20
38.4900002402
  0
LWPOLYLINE
  5
442
100
AcDbEntity
  8
SUPERFICI
100
AcDbPolyline
 62
7
  6
CONTINUOUS
 90
3
 70
0
 10
43.5978117328
 20
33.1974997253
 10
43.5971615178
 20
33.8552971467
 10
43.5993687435
 20
35.2030368434
  0
LWPOLYLINE
  5
443
100
AcDbEntity
  8
SUPERFICI
100
AcDbPolyline
 62
7
  6
CONTINUOUS
 90
6
 70
0
 10
41.8228622902
 20
36.2863503394
 10
41.8226694412
 20
36.7301723499
 10
41.8236597515
 20
37.1733310246
 10
41.8258078067
 20
37.6153406351
 10
41.8269365108
 20
38.0546025704
 10
41.825710862
 20
38.49
  0
LINE
  5
444
100
AcDbEntity
  8
RACCORDO
100
AcDbLine
 62
250
  6
CONTINUOUS
 10
43.8652635325
 20
37.7257121901
 11
43.872444709
 21
23.5976539436
  0
LINE
  5
445
100
AcDbEntity
  8
RACCORDO
100
AcDbLine
 62
250
  6
CONTINUOUS
 10
43.872444709
 20
23.5976539436
 11
43.8746564123
 21
12.9110881689
  0
LINE
  5
446
100
AcDbEntity
  8
SUPERFICI
100
AcDbLine
 62
7
  6
CONTINUOUS
 10
41.9497258095
 20
-38.49
 11
41.9497258095
 21
38.49
  0
LINE
  5
447
100
AcDbEntity
  8
ASSI
100
AcDbLine
 62
7
  6
CONTINUOUS
 10
43.75
 20
-38.49
 11
43.75
 21
37.5
  0
LINE
  5
448
100
AcDbEntity
  8
SKEL_COPERCHIO
100
AcDbLine
 62
7
  6
CONTINUOUS
 10
43.75
 20
-38.49
 11
43.75
 21
38.49
  0
LINE
  5
449
100
AcDbEntity
  8
SUPERFICI
100
AcDbLine
 62
7
  6
CONTINUOUS
 10
43.75
 20
-38.49
 11
43.75
 21
38.49
  0
LINE
  5
44A
100
AcDbEntity
  8
DRAFT
100
AcDbLine
 62
7
  6
CONTINUOUS
 10
44.0
 20
-38.5
 11
44.0
 21
38.5
  0
LINE
  5
44B
100
AcDbEntity
  8
SUPERFICI
100
AcDbLine
 62
7
  6
CONTINUOUS
 10
41.8149716307
 20
-3.6953458469
 11
41.8150128507
 21
0.6543156969
  0
LINE
  5
44C
100
AcDbEntity
  8
RACCORDO
100
AcDbLine
 62
250
  6
CONTINUOUS
 10
43.8746564123
 20
12.9110881689
 11
43.874452762
 21
-3.1092184081
  0
LINE
  5
44D
100
AcDbEntity
  8
RACCORDO
100
AcDbLine
 62
250
  6
CONTINUOUS
 10
43.874452762
 20
-3.1092184081
 11
43.869183239
 21
-38.5
  0
LINE
  5
44E
100
AcDbEntity
  8
SUPERFICI
100
AcDbLine
 62
7
  6
CONTINUOUS
 10
41.816047514
 20
-31.5163508669
 11
41.8149716307
 21
-3.6953458469
  0
LINE
  5
44F
100
AcDbEntity
  8
SUPERFICI
100
AcDbLine
 62
7
  6
CONTINUOUS
 10
43.5964812367
 20
27.9223224466
 11
43.5967231693
 21
29.9323678504
  0
LINE
  5
450
100
AcDbEntity
  8
SUPERFICI
100
AcDbLine
 62
7
  6
CONTINUOUS
 10
43.5924601691
 20
-2.1383868421
 11
43.5964812367
 21
27.9223224466
  0
LINE
  5
451
100
AcDbEntity
  8
SUPERFICI
100
AcDbLine
 62
7
  6
CONTINUOUS
 10
43.5924268979
 20
-31.5746748681
 11
43.5924601691
 21
-2.1383868421
  0
LINE
  5
452
100
AcDbEntity
  8
SUPERFICI
100
AcDbLine
 62
7
  6
CONTINUOUS
 10
41.8158259687
 20
-34.9956858171
 11
41.816047514
 21
-31.5163508669
  0
LINE
  5
453
100
AcDbEntity
  8
SUPERFICI
100
AcDbLine
 62
7
  6
CONTINUOUS
 10
41.8150128507
 20
0.6543156969
 11
41.8206057268
 21
34.0689358551
  0
LWPOLYLINE
  5
454
100
AcDbEntity
  8
SUPERFICI
100
AcDbPolyline
 62
7
  6
CONTINUOUS
 90
3
 70
0
 10
43.592255764
 20
-33.6463764464
 10
43.5929092078
 20
-32.9535554974
 10
43.5924268979
 20
-31.5746748681
  0
LINE
  5
455
100
AcDbEntity
  8
SUPERFICI
100
AcDbLine
 62
7
  6
CONTINUOUS
 10
43.5967231693
 20
29.9323678504
 11
43.5978117328
 21
33.1974997253
  0
LINE
  5
456
100
AcDbEntity
  8
SUPERFICI
100
AcDbLine
 62
7
  6
CONTINUOUS
 10
41.8206057268
 20
34.0689358551
 11
41.8213951961
 21
35.3967412542
  0
LINE
  5
457
100
AcDbEntity
  8
SUPERFICI
100
AcDbLine
 62
7
  6
CONTINUOUS
 10
41.8213951961
 20
35.3967412542
 11
41.8228622902
 21
36.2863503394
  0
LWPOLYLINE
  5
458
100
AcDbEntity
  8
SUPERFICI
100
AcDbPolyline
 62
7
  6
CONTINUOUS
 90
7
 70
0
 10
41.816862068
 20
-38.49
 10
41.8185715718
 20
-37.9953940267
 10
41.818037588
 20
-37.4968416126
 10
41.8164762829
 20
-36.9960142718
 10
41.8159134245
 20
-36.4960055588
 10
41.8164578772
 20
-35.9970253379
 10
41.8158259687
 20
-34.9956858171
  0
LWPOLYLINE
  5
459
100
AcDbEntity
  8
SUPERFICI
100
AcDbPolyline
 62
7
  6
CONTINUOUS
 90
7
 70
0
 10
43.5932129754
 20
-38.489999408
 10
43.5962142589
 20
-37.8107172574
 10
43.5954386759
 20
-37.1223505093
 10
43.5929167251
 20
-36.4280313686
 10
43.5920130421
 20
-35.7331925193
 10
43.5929696509
 20
-35.0390569082
 10
43.592255764
 20
-33.6463764464
  0
LINE
  5
45A
100
AcDbEntity
  8
RACCORDO
100
AcDbLine
 62
250
  6
CONTINUOUS
 10
43.869183239
 20
-38.5
 11
43.8680804903
 21
-38.5920693232
  0
LWPOLYLINE
  5
45B
100
AcDbEntity
  8
RACCORDO
100
AcDbPolyline
 62
250
  6
CONTINUOUS
 90
3
 70
0
 10
43.8680804903
 20
-38.5920693232
 10
43.8647861556
 20
-38.6841104548
 10
43.8593003744
 20
-38.7760711886
  0
LWPOLYLINE
  5
45C
100
AcDbEntity
  8
SUPERFICI
100
AcDbPolyline
 62
7
  6
CONTINUOUS
 90
19
 70
0
 10
-39.99
 20
40.3243092385
 10
-40.1396991749
 20
40.3182136023
 10
-40.2903353487
 20
40.2999946143
 10
-40.4411862384
 20
40.269012735
 10
-40.5925921324
 20
40.2238118137
 10
-40.7425996056
 20
40.1642550662
 10
-40.887359458
 20
40.0918673463
 10
-41.0269381756
 20
40.0056161772
 10
-41.1603666943
 20
39.905205136
 10
-41.2831427203
 20
39.7940917816
 10
-41.3953800291
 20
39.672389087
 10
-41.4972165496
 20
39.5398024
 10
-41.5851839088
 20
39.4002938794
 10
-41.6594946556
 20
39.2545981379
 10
-41.7210202138
 20
39.1029376553
 10
-41.7679617989
 20
38.949443101
 10
-41.8002710397
 20
38.7961988997
 10
-41.8193414581
 20
38.642805178
 10
-41.8257108617
 20
38.489999881
  0
LWPOLYLINE
  5
45D
100
AcDbEntity
  8
SUPERFICI
100
AcDbPolyline
 62
7
  6
CONTINUOUS
 90
28
 70
0
 10
-39.99
 20
42.0997757343
 10
-40.1840774121
 20
42.0946001382
 10
-40.3813048071
 20
42.0788960658
 10
-40.5808096117
 20
42.0520947066
 10
-40.7825648586
 20
42.0128448227
 10
-40.9846550637
 20
41.9611334831
 10
-41.1836679444
 20
41.8985294846
 10
-41.3786363042
 20
41.824357405
 10
-41.569277921
 20
41.7381208292
 10
-41.7538877112
 20
41.6420500985
 10
-41.932448233
 20
41.5358130342
 10
-42.1044478622
 20
41.4188424025
 10
-42.26813187
 20
41.2934968046
 10
-42.4233571197
 20
41.1603709828
 10
-42.5705572226
 20
41.0185373345
 10
-42.7092622922
 20
40.8684625724
 10
-42.8401079751
 20
40.7102250074
 10
-42.9628339794
 20
40.5436160648
 10
-43.0758304004
 20
40.3689128114
 10
-43.1798268954
 20
40.1861744148
 10
-43.2747009676
 20
39.9955222373
 10
-43.3578542979
 20
39.7977271339
 10
-43.4299006352
 20
39.5932869693
 10
-43.4911253684
 20
39.3824235236
 10
-43.538732666
 20
39.1659859094
 10
-43.5721958482
 20
38.9447624148
 10
-43.5930825968
 20
38.7192268243
 10
-43.6018259212
 20
38.49
  0
LWPOLYLINE
  5
45E
100
AcDbEntity
  8
SKEL_COPERCHIO
100
AcDbPolyline
 62
7
  6
CONTINUOUS
 90
28
 70
0
 10
-39.99
 20
42.0997757343
 10
-40.18443819
 20
42.0948902697
 10
-40.3815877345
 20
42.0791591975
 10
-40.5808096117
 20
42.0520947066
 10
-40.7823581599
 20
42.0130257738
 10
-40.9845028636
 20
41.9616392009
 10
-41.1836679444
 20
41.8985294846
 10
-41.3785088808
 20
41.8241235564
 10
-41.5690335497
 20
41.7384210431
 10
-41.7538877112
 20
41.6420500985
 10
-41.9324118161
 20
41.5354526059
 10
-42.1041343025
 20
41.4190085272
 10
-42.26813187
 20
41.2934968046
 10
-42.4234097516
 20
41.159971309
 10
-42.5701869232
 20
41.0185431935
 10
-42.7092622922
 20
40.8684625724
 10
-42.840214157
 20
40.7099671045
 10
-42.9623739072
 20
40.5436265597
 10
-43.0758304004
 20
40.3689128114
 10
-43.1800581265
 20
40.1859770896
 10
-43.2742441343
 20
39.995508566
 10
-43.3578542979
 20
39.7977271339
 10
-43.43023481
 20
39.5931463854
 10
-43.4907257159
 20
39.3824082353
 10
-43.538732666
 20
39.1659859094
 10
-43.5736387866
 20
38.9445401623
 10
-43.594849722
 20
38.7189268552
 10
-43.6018259212
 20
38.49
  0
LWPOLYLINE
  5
45F
100
AcDbEntity
  8
SUPERFICI
100
AcDbPolyline
 62
7
  6
CONTINUOUS
 90
6
 70
0
 10
-36.126154387
 20
42.0962049862
 10
-36.9258112145
 20
42.0948938627
 10
-37.7124953299
 20
42.0963996189
 10
-38.4836146291
 20
42.101332736
 10
-39.2427941079
 20
42.1035820543
 10
-39.99
 20
42.0997757343
  0
LINE
  5
460
100
AcDbEntity
  8
SKEL_COPERCHIO
100
AcDbLine
 62
7
  6
CONTINUOUS
 10
39.99
 20
42.0997757343
 11
37.8292318468
 21
42.0965301073
  0
LWPOLYLINE
  5
461
100
AcDbEntity
  8
SKEL_COPERCHIO
100
AcDbPolyline
 62
7
  6
CONTINUOUS
 90
3
 70
0
 10
37.8292318468
 20
42.0965301073
 10
34.9279336558
 20
42.0942338986
 10
34.2024868484
 20
42.0939078869
  0
LINE
  5
462
100
AcDbEntity
  8
SKEL_COPERCHIO
100
AcDbLine
 62
7
  6
CONTINUOUS
 10
34.2024868484
 20
42.0939078869
 11
28.3909561628
 21
42.0928282549
  0
LINE
  5
463
100
AcDbEntity
  8
RACCORDO
100
AcDbLine
 62
7
  6
CONTINUOUS
 10
-41.3067066756
 20
42.0916407392
 11
-40.9149573841
 21
42.0916407392
  0
LINE
  5
464
100
AcDbEntity
  8
RACCORDO
100
AcDbLine
 62
7
  6
CONTINUOUS
 10
40.9138046316
 20
42.0916407392
 11
41.3067066756
 21
42.0916407392
  0
LINE
  5
465
100
AcDbEntity
  8
0
100
AcDbLine
 62
7
  6
CONTINUOUS
 10
39.99
 20
42.1993909428
 11
-39.99
 21
42.1993909428
  0
LINE
  5
466
100
AcDbEntity
  8
SUPERFICI
100
AcDbLine
 62
7
  6
CONTINUOUS
 10
39.99
 20
42.25
 11
-39.99
 21
42.25
  0
LINE
  5
467
100
AcDbEntity
  8
DRAFT
100
AcDbLine
 62
7
  6
CONTINUOUS
 10
-40.0
 20
42.3219583377
 11
40.0
 21
42.3219583377
  0
LINE
  5
468
100
AcDbEntity
  8
DRAFT
100
AcDbLine
 62
7
  6
CONTINUOUS
 10
40.0
 20
42.5
 11
-40.0
 21
42.5
  0
LINE
  5
469
100
AcDbEntity
  8
SUPERFICI
100
AcDbLine
 62
7
  6
CONTINUOUS
 10
-19.9129511713
 20
42.0928563977
 11
-25.8018563179
 21
42.0927719449
  0
LINE
  5
46A
100
AcDbEntity
  8
SKEL_COPERCHIO
100
AcDbLine
 62
7
  6
CONTINUOUS
 10
28.3909561628
 20
42.0928282549
 11
-32.227638941
 21
42.0932872827
  0
LINE
  5
46B
100
AcDbEntity
  8
SUPERFICI
100
AcDbLine
 62
7
  6
CONTINUOUS
 10
-25.8018563179
 20
42.0927719449
 11
-29.9074770043
 21
42.0924962878
  0
LINE
  5
46C
100
AcDbEntity
  8
SUPERFICI
100
AcDbLine
 62
7
  6
CONTINUOUS
 10
30.5869770668
 20
42.0925297903
 11
-19.9129511713
 21
42.0928563977
  0
LWPOLYLINE
  5
46D
100
AcDbEntity
  8
SUPERFICI
100
AcDbPolyline
 62
7
  6
CONTINUOUS
 90
3
 70
0
 10
-29.9074770043
 20
42.0924962878
 10
-30.6873442947
 20
42.093026187
 10
-32.2257476557
 20
42.0923850315
  0
LINE
  5
46E
100
AcDbEntity
  8
SKEL_COPERCHIO
100
AcDbLine
 62
7
  6
CONTINUOUS
 10
-32.227638941
 20
42.0932872827
 11
-36.923337562
 21
42.0956103556
  0
LWPOLYLINE
  5
46F
100
AcDbEntity
  8
SUPERFICI
100
AcDbPolyline
 62
7
  6
CONTINUOUS
 90
3
 70
0
 10
32.7537203966
 20
42.0926863553
 10
32.0332378708
 20
42.0932873026
 10
30.5869770668
 20
42.0925297903
  0
LWPOLYLINE
  5
470
100
AcDbEntity
  8
SUPERFICI
100
AcDbPolyline
 62
7
  6
CONTINUOUS
 90
3
 70
0
 10
34.9271058831
 20
42.0931674527
 10
34.203441705
 20
42.0940708759
 10
32.7537203966
 20
42.0926863553
  0
LWPOLYLINE
  5
471
100
AcDbEntity
  8
SUPERFICI
100
AcDbPolyline
 62
7
  6
CONTINUOUS
 90
5
 70
0
 10
-32.2257476557
 20
42.0923850315
 10
-32.9970103622
 20
42.0934887949
 10
-33.7707722937
 20
42.0937115654
 10
-34.5435994082
 20
42.0924782459
 10
-36.126154387
 20
42.0962049862
  0
LWPOLYLINE
  5
472
100
AcDbEntity
  8
SKEL_COPERCHIO
100
AcDbPolyline
 62
7
  6
CONTINUOUS
 90
3
 70
0
 10
-36.923337562
 20
42.0956103556
 10
-39.242809472
 20
42.0984909015
 10
-39.99
 20
42.0997757343
  0
LWPOLYLINE
  5
473
100
AcDbEntity
  8
SUPERFICI
100
AcDbPolyline
 62
7
  6
CONTINUOUS
 90
7
 70
0
 10
39.99
 20
42.0997757343
 10
39.2736950473
 20
42.103881827
 10
38.5529853821
 20
42.101603506
 10
37.8292318468
 20
42.0965301073
 10
37.1052754619
 20
42.094505123
 10
36.3807687367
 20
42.0956498333
 10
34.9271058831
 20
42.0931674527
  0
LWPOLYLINE
  5
474
100
AcDbEntity
  8
0
100
AcDbPolyline
 62
7
  6
CONTINUOUS
 90
13
 70
0
 43
0.3500000087
 10
0.4285714331
 20
52.9642849487
 10
0.1428571444
 20
53.178567218
 10
0.1428571444
 20
53.8214310791
 10
0.4285714331
 20
54.2500041443
 10
1.0714285995
 20
54.2500041443
 10
1.3571428883
 20
53.8214310791
 10
1.3571428883
 20
53.178567218
 10
1.0714285995
 20
52.9642849487
 10
1.4999999993
 20
52.5357118835
 10
1.4999999993
 20
51.6785700165
 10
1.0714285995
 20
51.2500012146
 10
0.4285714331
 20
51.2500012146
 10
0.0
 20
51.6785700165
  0
LINE
  5
475
100
AcDbEntity
  8
0
100
AcDbLine
 62
7
  6
CONTINUOUS
 10
43.7407845537
 20
38.7163755943
 11
43.719514729
 21
38.9411945671
  0
LWPOLYLINE
  5
476
100
AcDbEntity
  8
RACCORDO
100
AcDbPolyline
 62
7
  6
CONTINUOUS
 90
4
 70
0
 10
43.8542693657
 20
38.7505958581
 10
43.8591266379
 20
38.667053198
 10
43.8621511504
 20
38.5835077008
 10
43.863347019
 20
38.5
  0
LWPOLYLINE
  5
477
100
AcDbEntity
  8
RACCORDO
100
AcDbPolyline
 62
250
  6
CONTINUOUS
 90
61
 70
0
 10
43.8593003744
 20
-38.7760711886
 10
43.851623684
 20
-38.8679081532
 10
43.8417591402
 20
-38.9595602223
 10
43.8297144259
 20
-39.050948772
 10
43.8154963619
 20
-39.1420230995
 10
43.799113329
 20
-39.2327304022
 10
43.7805812152
 20
-39.3229897717
 10
43.7599151345
 20
-39.4127409333
 10
43.7371272026
 20
-39.5019432225
 10
43.7122327594
 20
-39.5905460992
 10
43.6852506863
 20
-39.6784922257
 10
43.6561963671
 20
-39.7657405537
 10
43.6250800408
 20
-39.8522651307
 10
43.5919204939
 20
-39.9380158196
 10
43.5567365297
 20
-40.022945968
 10
43.5195365934
 20
-40.1070342078
 10
43.4803389305
 20
-40.1902355166
 10
43.4391657397
 20
-40.2724991864
 10
43.3960300157
 20
-40.3537946083
 10
43.350948562
 20
-40.4340834523
 10
43.3039492418
 20
-40.5133097151
 10
43.2550629102
 20
-40.5914168382
 10
43.2043115856
 20
-40.6683655929
 10
43.1517263078
 20
-40.7441050126
 10
43.097355862
 20
-40.8185636643
 10
43.0412333218
 20
-40.8916973656
 10
42.983389334
 20
-40.9634672561
 10
42.9238739475
 20
-41.0338135806
 10
42.8627350614
 20
-41.1026844271
 10
42.7999974246
 20
-41.1700564911
 10
42.7356775506
 20
-41.2359139996
 10
42.6698121053
 20
-41.3002198261
 10
42.6024385177
 20
-41.3629378335
 10
42.5335727765
 20
-41.4240520915
 10
42.4632377814
 20
-41.4835389208
 10
42.391486505
 20
-41.5413502288
 10
42.3183811965
 20
-41.5974348206
 10
42.2439658453
 20
-41.6517593357
 10
42.1682804384
 20
-41.7042949636
 10
42.0913843912
 20
-41.7550015564
 10
42.0133283289
 20
-41.803847947
 10
41.9341513157
 20
-41.8508118717
 10
41.8538970489
 20
-41.8958691724
 10
41.7726139228
 20
-41.9389944285
 10
41.6903463522
 20
-41.9801658009
 10
41.6071324682
 20
-42.0193654146
 10
41.5230213637
 20
-42.0565710211
 10
41.4380591391
 20
-42.0917630951
 10
41.3522794171
 20
-42.1249278914
 10
41.2657354296
 20
-42.1560446097
 10
41.1784711142
 20
-42.1850972347
 10
41.0905056949
 20
-42.212077782
 10
41.0018754941
 20
-42.2369718835
 10
40.9126424533
 20
-42.2597589353
 10
40.822864367
 20
-42.280421773
 10
40.7325818744
 20
-42.2989485785
 10
40.6418554838
 20
-42.3153244832
 10
40.5507739566
 20
-42.3295327684
 10
40.4593947734
 20
-42.341565352
 10
40.367764232
 20
-42.3514170183
 10
40.27595518
 20
-42.3590813581
  0
LINE
  5
478
100
AcDbEntity
  8
0
100
AcDbLine
 62
7
  6
CONTINUOUS
 10
31.9694559627
 20
-42.5
 11
32.0
 21
-42.4389072728
  0
LINE
  5
479
100
AcDbEntity
  8
DRAFT
100
AcDbLine
 62
7
  6
CONTINUOUS
 10
31.9694559627
 20
-42.5
 11
32.0
 21
-42.4389072728
  0
LWPOLYLINE
  5
47A
100
AcDbEntity
  8
0
100
AcDbPolyline
 62
7
  6
CONTINUOUS
 90
7
 70
0
 10
-40.5
 20
42.1723447486
 10
-40.6631855253
 20
42.1467452473
 10
-40.8271960284
 20
42.1135348356
 10
-40.9920315093
 20
42.0724128191
 10
-41.1579678573
 20
42.022979064
 10
-41.3247291831
 20
41.9648509822
 10
-41.4914878185
 20
41.8976756663
  0
LWPOLYLINE
  5
47B
100
AcDbEntity
  8
0
100
AcDbPolyline
 62
7
  6
CONTINUOUS
 90
23
 70
0
 10
43.719514729
 20
38.9411945671
 10
43.684678358
 20
39.16407427
 10
43.6352079356
 20
39.3866938597
 10
43.572170967
 20
39.6065455497
 10
43.4987699679
 20
39.8172488742
 10
43.4147264579
 20
40.0175288771
 10
43.3203189173
 20
40.2086491077
 10
43.2195853028
 20
40.3885210972
 10
43.1123754725
 20
40.5572489184
 10
42.9988395683
 20
40.7152163529
 10
42.8834659721
 20
40.8610562105
 10
42.7669475245
 20
40.994445319
 10
42.648591385
 20
41.1166205687
 10
42.5308074135
 20
41.2286492269
 10
42.414969724
 20
41.3302309464
 10
42.2997042026
 20
41.4225181036
 10
42.1832983665
 20
41.5085420697
 10
42.0662703722
 20
41.5888303303
 10
41.9481020632
 20
41.6633021569
 10
41.825526488
 20
41.7338060731
 10
41.6977077183
 20
41.8013589771
 10
41.5654816824
 20
41.8651601396
 10
41.4280892134
 20
41.9242962139
  0
LWPOLYLINE
  5
47C
100
AcDbEntity
  8
0
100
AcDbPolyline
 62
7
  6
CONTINUOUS
 90
8
 70
0
 43
0.3500000087
 10
51.2499988892
 20
0.1071434601
 10
51.2499988892
 20
0.9642853271
 10
50.8214300873
 20
1.3928562607
 10
49.9642839569
 20
1.3928562607
 10
49.535715155
 20
0.9642853271
 10
49.535715155
 20
0.1071434601
 10
48.2500002228
 20
0.1071434601
 10
48.2500002228
 20
1.3928562607
  0
LWPOLYLINE
  5
47D
100
AcDbEntity
  8
RACCORDO
100
AcDbPolyline
 62
7
  6
CONTINUOUS
 90
49
 70
0
 10
41.3067066756
 20
42.0916407392
 10
41.3942622025
 20
42.0596122785
 10
41.4822900016
 20
42.0249554222
 10
41.5707011937
 20
41.9875961109
 10
41.659589164
 20
41.9473773207
 10
41.7486642025
 20
41.904303895
 10
41.8372754382
 20
41.8585910776
 10
41.9253599051
 20
41.810203976
 10
42.0128058353
 20
41.7591346621
 10
42.0989325016
 20
41.7057342801
 10
42.1836031428
 20
41.650085669
 10
42.2668325669
 20
41.5921778613
 10
42.3482139573
 20
41.5323004394
 10
42.4276552394
 20
41.4705597377
 10
42.5051731083
 20
41.406983415
 10
42.5805569446
 20
41.3417864821
 10
42.6537513407
 20
41.275080137
 10
42.7247733964
 20
41.206914656
 10
42.7935410827
 20
41.1374325936
 10
42.86002807
 20
41.0667364683
 10
42.9242481289
 20
40.9948903447
 10
42.9861888268
 20
40.9219836462
 10
43.045841656
 20
40.8481082153
 10
43.1032195916
 20
40.7733327525
 10
43.1583450483
 20
40.6977094867
 10
43.2112197561
 20
40.6213201718
 10
43.2618571214
 20
40.5442327019
 10
43.3102953918
 20
40.4664730407
 10
43.3565418458
 20
40.3881140505
 10
43.400610422
 20
40.3092200854
 10
43.4425449508
 20
40.2297979298
 10
43.4823553528
 20
40.1499128053
 10
43.5200556483
 20
40.0696244306
 10
43.5556896321
 20
39.9889249814
 10
43.5892680232
 20
39.9078731484
 10
43.6208042532
 20
39.8265239076
 10
43.6503387945
 20
39.7448580644
 10
43.6778819376
 20
39.6629287646
 10
43.7034458531
 20
39.5807866893
 10
43.7270656138
 20
39.4984039455
 10
43.7487501863
 20
39.4158292506
 10
43.7685099787
 20
39.3331095339
 10
43.78637343
 20
39.2502101341
 10
43.8023476027
 20
39.1671761553
 10
43.816440668
 20
39.0840517096
 10
43.8286735455
 20
39.0007975311
 10
43.8390510635
 20
38.9174552614
 10
43.8475787546
 20
38.8340678429
 10
43.8542693657
 20
38.7505958581
  0
LWPOLYLINE
  5
47E
100
AcDbEntity
  8
0
100
AcDbPolyline
 62
7
  6
CONTINUOUS
 90
7
 70
0
 10
41.4280892134
 20
41.9242962139
 10
41.285044699
 20
41.9792887284
 10
41.1368337516
 20
42.0299688212
 10
40.9841540411
 20
42.0745547222
 10
40.8272381239
 20
42.1126654618
 10
40.6658534435
 20
42.1451947095
 10
40.5
 20
42.1723447486
  0
LWPOLYLINE
  5
47F
100
AcDbEntity
  8
RACCORDO
100
AcDbPolyline
 62
250
  6
CONTINUOUS
 90
14
 70
0
 10
41.3067066756
 20
42.0916407392
 10
41.3922523459
 20
42.0493853537
 10
41.4777598433
 20
42.0046094337
 10
41.5632291676
 20
41.9572371999
 10
41.6489310937
 20
41.9070274879
 10
41.7345948469
 20
41.8540601172
 10
41.8194081026
 20
41.7987607512
 10
41.9033578476
 20
41.7410308131
 10
41.9864570952
 20
41.6808512594
 10
42.0679325609
 20
41.6188179161
 10
42.1476737359
 20
41.5549514746
 10
42.2257911291
 20
41.4891764728
 10
42.301842983
 20
41.4219965576
 10
42.3112451702
 20
41.4132778462
  0
LINE
  5
480
100
AcDbEntity
  8
RACCORDO
100
AcDbLine
 62
7
  6
CONTINUOUS
 10
-91.7220269518
 20
-42.1243235325
 11
-90.886605295
 21
-42.1243235325
  0
LINE
  5
481
100
AcDbEntity
  8
RACCORDO
100
AcDbLine
 62
7
  6
CONTINUOUS
 10
-75.4949769592
 20
-42.5
 11
-83.0037031485
 21
-42.3689346968
  0
LINE
  5
482
100
AcDbEntity
  8
SUPERFICI
100
AcDbLine
 62
250
  6
CONTINUOUS
 10
-93.3921879861
 20
-42.080588424
 11
-83.686605295
 21
-42.25
  0
LINE
  5
483
100
AcDbEntity
  8
SKEL_COPERCHIO
100
AcDbLine
 62
7
  6
CONTINUOUS
 10
-94.6004145587
 20
-42.0594987507
 11
-83.686605295
 21
-42.25
  0
LINE
  5
484
100
AcDbEntity
  8
RACCORDO
100
AcDbLine
 62
7
  6
CONTINUOUS
 10
-92.459497088
 20
-42.0968686041
 11
-83.686605295
 21
-42.25
  0
LINE
  5
485
100
AcDbEntity
  8
SUPERFICI
100
AcDbLine
 62
7
  6
CONTINUOUS
 10
-93.3921879861
 20
-42.080588424
 11
-94.6002372369
 21
-42.0595018459
  0
LWPOLYLINE
  5
486
100
AcDbEntity
  8
0
100
AcDbPolyline
 62
7
  6
CONTINUOUS
 90
3
 70
0
 43
0.3500000087
 10
-88.1050741028
 20
53.3928580139
 10
-87.247936499
 20
54.2500041443
 10
-87.247936499
 20
51.2500012146
  0
LINE
  5
487
100
AcDbEntity
  8
SUPERFICI
100
AcDbLine
 62
7
  6
CONTINUOUS
 10
-73.929173526
 20
-39.5804442346
 11
-75.4949769592
 21
-40.0
  0
LWPOLYLINE
  5
488
100
AcDbEntity
  8
SUPERFICI
100
AcDbPolyline
 62
7
  6
CONTINUOUS
 90
13
 70
0
 10
-93.3921879861
 20
-42.080588424
 10
-93.3525251263
 20
-42.0726055776
 10
-93.3129350934
 20
-42.0536867814
 10
-93.273494505
 20
-42.0229478861
 10
-93.2341500657
 20
-41.9780252285
 10
-93.1951370522
 20
-41.919127665
 10
-93.1569253537
 20
-41.8498192609
 10
-93.1195342245
 20
-41.7702246161
 10
-93.0830333008
 20
-41.6794181286
 10
-93.04787811
 20
-41.5807518948
 10
-93.0139535024
 20
-41.4749569367
 10
-92.9813513063
 20
-41.3619235068
 10
-92.9455289314
 20
-41.2241295083
  0
LWPOLYLINE
  5
489
100
AcDbEntity
  8
SKEL_COPERCHIO
100
AcDbPolyline
 62
7
  6
CONTINUOUS
 90
34
 70
0
 10
-93.3921879861
 20
-42.080588424
 10
-93.3523874557
 20
-42.0745942966
 10
-93.312822962
 20
-42.0553186264
 10
-93.273494505
 20
-42.0229478861
 10
-93.2342021743
 20
-41.977527544
 10
-93.1951458802
 20
-41.9194308082
 10
-93.1569253537
 20
-41.8498192609
 10
-93.1195772948
 20
-41.7695713607
 10
-93.0830650034
 20
-41.6793696027
 10
-93.04787811
 20
-41.5807518948
 10
-93.0139689195
 20
-41.4744627726
 10
-92.9813851271
 20
-41.3616724899
 10
-92.9507594485
 20
-41.2451292005
 10
-92.9223411553
 20
-41.1268829442
 10
-92.8958809759
 20
-41.0073265311
 10
-92.8712638112
 20
-40.8868810233
 10
-92.8486040232
 20
-40.7670356137
 10
-92.82778725
 20
-40.6480193792
 10
-92.8083553066
 20
-40.5279176583
 10
-92.7902541351
 20
-40.4072156149
 10
-92.7735377935
 20
-40.2862965057
 10
-92.7579102708
 20
-40.162595598
 10
-92.7432315838
 20
-40.0355911593
 10
-92.7296417158
 20
-39.9061685655
 10
-92.7172646053
 20
-39.773627893
 10
-92.7060582151
 20
-39.6376740711
 10
-92.6960645824
 20
-39.4989387437
 10
-92.6875337577
 20
-39.3581012127
 10
-92.6804986818
 20
-39.2152791485
 10
-92.6749264139
 20
-39.0707992469
 10
-92.6709681811
 20
-38.9257015479
 10
-92.6686743927
 20
-38.7805058538
 10
-92.6679946394
 20
-38.6351908694
 10
-92.6758319043
 20
-37.805286765
  0
LWPOLYLINE
  5
48A
100
AcDbEntity
  8
RACCORDO
100
AcDbPolyline
 62
250
  6
CONTINUOUS
 90
31
 70
0
 10
-93.4217403893
 20
-41.1588259864
 10
-93.4041323375
 20
-41.1566684537
 10
-93.3858850317
 20
-41.1512046799
 10
-93.3670130488
 20
-41.1420931837
 10
-93.3475551255
 20
-41.1290095157
 10
-93.3275076714
 20
-41.1115974924
 10
-93.3068263357
 20
-41.0894248629
 10
-93.2855518879
 20
-41.0621167186
 10
-93.2637100343
 20
-41.029273464
 10
-93.241246066
 20
-40.990323073
 10
-93.2182143764
 20
-40.9448169821
 10
-93.1946835826
 20
-40.8923229633
 10
-93.1706409701
 20
-40.8321718849
 10
-93.1461764957
 20
-40.7638605485
 10
-93.1214214122
 20
-40.6869664641
 10
-93.0964567201
 20
-40.6008487043
 10
-93.0713839526
 20
-40.5047955513
 10
-93.0464807779
 20
-40.3986737277
 10
-93.0221146145
 20
-40.2828256961
 10
-92.9984249727
 20
-40.1565176324
 10
-92.9758040752
 20
-40.0202322149
 10
-92.9549224753
 20
-39.8767036396
 10
-92.9359752502
 20
-39.7261918381
 10
-92.9192030884
 20
-39.5693937889
 10
-92.9050986696
 20
-39.4104529013
 10
-92.8936911607
 20
-39.2500250251
 10
-92.8850130864
 20
-39.0891432449
 10
-92.8791627208
 20
-38.9329897641
 10
-92.8759131357
 20
-38.7838794954
 10
-92.874939285
 20
-38.6410451358
 10
-92.8759531131
 20
-38.5050511627
  0
LWPOLYLINE
  5
48B
100
AcDbEntity
  8
RACCORDO
100
AcDbPolyline
 62
250
  6
CONTINUOUS
 90
31
 70
0
 10
-92.459497088
 20
-42.0968686041
 10
-92.4421909538
 20
-42.0950847064
 10
-92.4243024971
 20
-42.0888338519
 10
-92.4058317179
 20
-42.0776506695
 10
-92.3867746093
 20
-42.0610844434
 10
-92.3671351782
 20
-42.0386445739
 10
-92.3469254451
 20
-42.0097413497
 10
-92.3261346835
 20
-41.9738549149
 10
-92.3047736198
 20
-41.9304295544
 10
-92.2828864543
 20
-41.8786771222
 10
-92.2604345709
 20
-41.8179806348
 10
-92.2374565857
 20
-41.7477318565
 10
-92.2141125467
 20
-41.6669883793
 10
-92.1903318162
 20
-41.5750679613
 10
-92.1661850319
 20
-41.4713714896
 10
-92.1420441551
 20
-41.3549615343
 10
-92.1177701315
 20
-41.2248857949
 10
-92.0935020154
 20
-41.0809453637
 10
-92.0700289305
 20
-40.9235135135
 10
-92.0472477352
 20
-40.7516048146
 10
-92.0252615712
 20
-40.5658925335
 10
-92.0051689867
 20
-40.3700449324
 10
-91.9871047794
 20
-40.164402325
 10
-91.9709341515
 20
-39.9499582137
 10
-91.9573512594
 20
-39.7324048146
 10
-91.9466332463
 20
-39.5125881416
 10
-91.9385029688
 20
-39.2919452293
 10
-91.9328231524
 20
-39.0777098082
 10
-91.929548039
 20
-38.8730886145
 10
-91.9287233866
 20
-38.6769469332
 10
-91.9303491952
 20
-38.49
  0
LINE
  5
48C
100
AcDbEntity
  8
RACCORDO
100
AcDbLine
 62
250
  6
CONTINUOUS
 10
-93.8940873036
 20
-41.1761330382
 11
-93.4217405208
 21
-41.1588259947
  0
LINE
  5
48D
100
AcDbEntity
  8
RACCORDO
100
AcDbLine
 62
250
  6
CONTINUOUS
 10
-94.0409027623
 20
-41.1805019246
 11
-93.8940873036
 21
-41.1761330382
  0
LINE
  5
48E
100
AcDbEntity
  8
RACCORDO
100
AcDbLine
 62
250
  6
CONTINUOUS
 10
-94.1304589969
 20
-41.1827300589
 11
-94.0409027623
 21
-41.1805019246
  0
LINE
  5
48F
100
AcDbEntity
  8
RACCORDO
100
AcDbLine
 62
250
  6
CONTINUOUS
 10
-94.2202479462
 20
-41.1845317221
 11
-94.1304589969
 21
-41.1827300589
  0
LINE
  5
490
100
AcDbEntity
  8
RACCORDO
100
AcDbLine
 62
250
  6
CONTINUOUS
 10
-94.3095302397
 20
-41.1859139626
 11
-94.2202479462
 21
-41.1845317221
  0
LWPOLYLINE
  5
491
100
AcDbEntity
  8
RACCORDO
100
AcDbPolyline
 62
250
  6
CONTINUOUS
 90
4
 70
0
 10
-83.4566677166
 20
-38.4991927337
 10
-83.4778310699
 20
-38.4994079465
 10
-83.4906724434
 20
-38.4996785462
 10
-83.4949769592
 20
-38.5
  0
LINE
  5
492
100
AcDbEntity
  8
RACCORDO
100
AcDbLine
 62
250
  6
CONTINUOUS
 10
-94.3975407468
 20
-41.1868807828
 11
-94.3095302397
 21
-41.1859139626
  0
LINE
  5
493
100
AcDbEntity
  8
RACCORDO
100
AcDbLine
 62
250
  6
CONTINUOUS
 10
-94.453949611
 20
-41.1872361152
 11
-94.3975407468
 21
-41.1868807828
  0
LINE
  5
494
100
AcDbEntity
  8
RACCORDO
100
AcDbLine
 62
250
  6
CONTINUOUS
 10
-83.3909249246
 20
-38.4989421171
 11
-83.4566677166
 21
-38.4991927337
  0
LINE
  5
495
100
AcDbEntity
  8
RACCORDO
100
AcDbLine
 62
250
  6
CONTINUOUS
 10
-75.4949769592
 20
-38.5
 11
-82.9894641756
 21
-38.5
  0
LINE
  5
496
100
AcDbEntity
  8
SUPERFICI
100
AcDbLine
 62
250
  6
CONTINUOUS
 10
-92.6689289179
 20
-38.4900000687
 11
-83.686605295
 21
-38.49
  0
LINE
  5
497
100
AcDbEntity
  8
RACCORDO
100
AcDbLine
 62
250
  6
CONTINUOUS
 10
-83.686605295
 20
-38.49
 11
-91.9303491952
 21
-38.49
  0
LINE
  5
498
100
AcDbEntity
  8
SKEL_COPERCHIO
100
AcDbLine
 62
250
  6
CONTINUOUS
 10
-83.686605295
 20
-38.49
 11
-92.6689289187
 21
-38.4899998727
  0
LINE
  5
499
100
AcDbEntity
  8
RACCORDO
100
AcDbLine
 62
250
  6
CONTINUOUS
 10
-94.5307638411
 20
-41.1873196496
 11
-94.453949611
 21
-41.1872361152
  0
LINE
  5
49A
100
AcDbEntity
  8
RACCORDO
100
AcDbLine
 62
250
  6
CONTINUOUS
 10
-83.120858019
 20
-38.4994079444
 11
-83.3909249246
 21
-38.4989421171
  0
LINE
  5
49B
100
AcDbEntity
  8
RACCORDO
100
AcDbLine
 62
250
  6
CONTINUOUS
 10
-82.9894641683
 20
-38.5
 11
-83.120858019
 21
-38.4994079444
  0
LINE
  5
49C
100
AcDbEntity
  8
SUPERFICI
100
AcDbLine
 62
250
  6
CONTINUOUS
 10
-91.6696557181
 20
-40.3103811461
 11
-83.686605295
 21
-40.4497258095
  0
LINE
  5
49D
100
AcDbEntity
  8
SUPERFICI
100
AcDbLine
 62
7
  6
CONTINUOUS
 10
-91.6696557181
 20
-40.3103811461
 11
-92.9786961501
 21
-40.2875317603
  0
LWPOLYLINE
  5
49E
100
AcDbEntity
  8
SUPERFICI
100
AcDbPolyline
 62
7
  6
CONTINUOUS
 90
19
 70
0
 10
-91.6696557181
 20
-40.3103811461
 10
-91.6340750202
 20
-40.3010754424
 10
-91.5990743427
 20
-40.2777593471
 10
-91.5647314461
 20
-40.239577046
 10
-91.5308125557
 20
-40.184255798
 10
-91.4977166171
 20
-40.1119428409
 10
-91.4664370177
 20
-40.0262457126
 10
-91.4369981641
 20
-39.9273025122
 10
-91.4094629725
 20
-39.8147573177
 10
-91.3848086988
 20
-39.6934079897
 10
-91.3632353046
 20
-39.5650405922
 10
-91.3445320521
 20
-39.4298338161
 10
-91.3290009626
 20
-39.2915604475
 10
-91.3168086699
 20
-39.1519342046
 10
-91.3077194552
 20
-39.0118881369
 10
-91.3014041228
 20
-38.8743859831
 10
-91.2977208212
 20
-38.7411750216
 10
-91.2967219347
 20
-38.6127310014
 10
-91.3138806032
 20
-37.4968416126
  0
LINE
  5
49F
100
AcDbEntity
  8
RACCORDO
100
AcDbLine
 62
250
  6
CONTINUOUS
 10
-92.8759523912
 20
-38.5050511515
 11
-91.9303491952
 21
-38.49
  0
LINE
  5
4A0
100
AcDbEntity
  8
SUPERFICI
100
AcDbLine
 62
250
  6
CONTINUOUS
 10
-73.4949769592
 20
-36.7
 11
-75.4949769592
 21
-36.7
  0
LINE
  5
4A1
100
AcDbEntity
  8
RACCORDO
100
AcDbLine
 62
7
  6
CONTINUOUS
 10
-83.686605295
 20
-34.8521815275
 11
-83.4949769592
 21
-34.8008348696
  0
LINE
  5
4A2
100
AcDbEntity
  8
0
100
AcDbLine
 62
7
  6
CONTINUOUS
 10
-95.5311934224
 20
-31.999978
 11
-95.3310889311
 21
-31.999978
  0
LINE
  5
4A3
100
AcDbEntity
  8
0
100
AcDbLine
 62
7
  6
CONTINUOUS
 10
-95.5665548027
 20
-30.8088806669
 11
-95.3665103961
 21
-30.8088806669
  0
LINE
  5
4A4
100
AcDbEntity
  8
RACCORDO
100
AcDbLine
 62
7
  6
CONTINUOUS
 10
-83.4949769592
 20
-32.2871956195
 11
-83.6873515887
 21
-32.2855167915
  0
LINE
  5
4A5
100
AcDbEntity
  8
RACCORDO
100
AcDbLine
 62
7
  6
CONTINUOUS
 10
-83.4949769592
 20
-31.8834912292
 11
-83.686605295
 21
-31.8767994202
  0
LINE
  5
4A6
100
AcDbEntity
  8
RACCORDO
100
AcDbLine
 62
250
  6
CONTINUOUS
 10
-83.4949769592
 20
-31.1224327591
 11
-83.686605295
 21
-31.1157409501
  0
LWPOLYLINE
  5
4A7
100
AcDbEntity
  8
RACCORDO
100
AcDbPolyline
 62
250
  6
CONTINUOUS
 90
20
 70
0
 10
-94.696112249
 20
-41.1803905813
 10
-94.6959505852
 20
-41.1806890267
 10
-94.6955424173
 20
-41.1810252229
 10
-94.6948163782
 20
-41.1813813717
 10
-94.6936946322
 20
-41.1817588267
 10
-94.6920907119
 20
-41.1821590982
 10
-94.689907196
 20
-41.1825742812
 10
-94.6870490028
 20
-41.1830128507
 10
-94.6834152811
 20
-41.1834697496
 10
-94.6788822751
 20
-41.1839170883
 10
-94.6732959811
 20
-41.184353953
 10
-94.6664981882
 20
-41.1847867143
 10
-94.658341036
 20
-41.185198726
 10
-94.6486596871
 20
-41.1855945529
 10
-94.6373243352
 20
-41.1859747815
 10
-94.6242956465
 20
-41.1863158239
 10
-94.6094286703
 20
-41.1866199911
 10
-94.5926116216
 20
-41.1868894577
 10
-94.5739510977
 20
-41.187098751
 10
-94.5307638411
 20
-41.1873196496
  0
LINE
  5
4A8
100
AcDbEntity
  8
0
100
AcDbLine
 62
7
  6
CONTINUOUS
 10
-95.5895700902
 20
-29.099855
 11
-95.3895661902
 21
-29.099855
  0
LINE
  5
4A9
100
AcDbEntity
  8
RACCORDO
100
AcDbLine
 62
250
  6
CONTINUOUS
 10
-83.4949769592
 20
-27.8713776008
 11
-83.686605295
 21
-27.8686057628
  0
LWPOLYLINE
  5
4AA
100
AcDbEntity
  8
SKEL_COPERCHIO
100
AcDbPolyline
 62
7
  6
CONTINUOUS
 90
7
 70
0
 10
-92.9525009844
 20
41.4076131453
 10
-93.0396243341
 20
41.167728505
 10
-93.1226126455
 20
40.93475291
 10
-93.2008828767
 20
40.710809802
 10
-93.2745281816
 20
40.4961717744
 10
-93.3437786299
 20
40.2906930574
 10
-93.4083068651
 20
40.0958869204
  0
LWPOLYLINE
  5
4AB
100
AcDbEntity
  8
0
100
AcDbPolyline
 62
7
  6
CONTINUOUS
 90
3
 70
0
 10
-92.9368811279
 20
41.4501305883
 10
-93.0114402072
 20
41.245845329
 10
-93.0912203021
 20
41.0234098438
  0
LWPOLYLINE
  5
4AC
100
AcDbEntity
  8
SUPERFICI
100
AcDbPolyline
 62
7
  6
CONTINUOUS
 90
6
 70
0
 10
-93.0484854605
 20
41.1244343634
 10
-92.9843506101
 20
41.2994653457
 10
-92.9156010725
 20
41.4842129883
 10
-92.8424433954
 20
41.6776720708
 10
-92.7631328011
 20
41.8839082677
 10
-92.6813252818
 20
42.0929965786
  0
LINE
  5
4AD
100
AcDbEntity
  8
SKEL_COPERCHIO
100
AcDbLine
 62
7
  6
CONTINUOUS
 10
-92.8610265946
 20
41.6545615367
 11
-92.9525009844
 21
41.4076131453
  0
LINE
  5
4AE
100
AcDbEntity
  8
SKEL_COPERCHIO
100
AcDbLine
 62
7
  6
CONTINUOUS
 10
-92.7651416751
 20
41.9082897237
 11
-92.8610265946
 21
41.6545615367
  0
LWPOLYLINE
  5
4AF
100
AcDbEntity
  8
SUPERFICI
100
AcDbPolyline
 62
250
  6
CONTINUOUS
 90
16
 70
0
 10
-92.6821002323
 20
42.0929825499
 10
-93.089680794
 20
41.0154283531
 10
-93.4598856004
 20
39.9415433859
 10
-93.7937076834
 20
38.8728247854
 10
-94.0929055479
 20
37.8080089542
 10
-94.3576933289
 20
36.7511027054
 10
-94.5874856417
 20
35.7116634073
 10
-94.7837418344
 20
34.6931014213
 10
-94.9487477692
 20
33.6948039194
 10
-95.0840322522
 20
32.7204238081
 10
-95.1913903019
 20
31.773384152
 10
-95.2731673665
 20
30.8524998491
 10
-95.3315894356
 20
29.9543569988
 10
-95.3683767474
 20
29.0783007526
 10
-95.3850863642
 20
28.226507686
 10
-95.3833705785
 20
27.3996295494
  0
LWPOLYLINE
  5
4B0
100
AcDbEntity
  8
SUPERFICI
100
AcDbPolyline
 62
7
  6
CONTINUOUS
 90
8
 70
0
 10
-92.6942093686
 20
42.092771686
 10
-92.7723092209
 20
41.8894986427
 10
-92.8469437747
 20
41.6921493413
 10
-92.9181285891
 20
41.5009830616
 10
-92.9860221487
 20
41.3158704012
 10
-93.0506600556
 20
41.1370044152
 10
-93.1120658558
 20
40.9646114978
 10
-93.2257780799
 20
40.6386889136
  0
LINE
  5
4B1
100
AcDbEntity
  8
SKEL_COPERCHIO
100
AcDbLine
 62
7
  6
CONTINUOUS
 10
-92.6942093686
 20
42.092771686
 11
-92.7651416751
 21
41.9082897237
  0
LINE
  5
4B2
100
AcDbEntity
  8
RACCORDO
100
AcDbLine
 62
7
  6
CONTINUOUS
 10
-68.4949769592
 20
-25.5586247418
 11
-73.4949769592
 21
-25.6022590807
  0
LINE
  5
4B3
100
AcDbEntity
  8
RACCORDO
100
AcDbLine
 62
7
  6
CONTINUOUS
 10
-68.4949769592
 20
-25.3586247418
 11
-73.4949769592
 21
-25.4022590807
  0
LINE
  5
4B4
100
AcDbEntity
  8
RACCORDO
100
AcDbLine
 62
250
  6
CONTINUOUS
 10
-68.7923589985
 20
-25.3199284669
 11
-73.4949769592
 21
-25.3610236693
  0
LINE
  5
4B5
100
AcDbEntity
  8
RACCORDO
100
AcDbLine
 62
250
  6
CONTINUOUS
 10
-83.4949769592
 20
-26.0340199206
 11
-83.686605295
 21
-26.0312480826
  0
LINE
  5
4B6
100
AcDbEntity
  8
RACCORDO
100
AcDbLine
 62
7
  6
CONTINUOUS
 10
-96.3040577014
 20
-23.9804947957
 11
-96.186605295
 21
-23.9825449351
  0
LWPOLYLINE
  5
4B7
100
AcDbEntity
  8
RACCORDO
100
AcDbPolyline
 62
7
  6
CONTINUOUS
 90
10
 70
0
 10
-68.641507019
 20
-25.3599034902
 10
-68.6574481232
 20
-25.3594250284
 10
-68.6737330197
 20
-25.3579259361
 10
-68.6902887805
 20
-25.3554075927
 10
-68.7070149392
 20
-25.3518506702
 10
-68.7238716988
 20
-25.3472924371
 10
-68.7408849565
 20
-25.3418115997
 10
-68.7580251266
 20
-25.3354313975
 10
-68.7752025522
 20
-25.3281343714
 10
-68.7923589985
 20
-25.3199294028
  0
LINE
  5
4B8
100
AcDbEntity
  8
RACCORDO
100
AcDbLine
 62
7
  6
CONTINUOUS
 10
-95.962653711
 20
-26.1324018413
 11
-95.9869107992
 21
-26.0995585562
  0
LWPOLYLINE
  5
4B9
100
AcDbEntity
  8
RACCORDO
100
AcDbPolyline
 62
7
  6
CONTINUOUS
 90
3
 70
0
 10
-95.962653711
 20
-26.1324018413
 10
-95.954739053
 20
-26.1433235603
 10
-95.916444955
 20
-26.1976773621
  0
LINE
  5
4BA
100
AcDbEntity
  8
RACCORDO
100
AcDbLine
 62
7
  6
CONTINUOUS
 10
-95.8642229194
 20
-26.2761868271
 11
-95.962653711
 21
-26.1324018413
  0
LWPOLYLINE
  5
4BB
100
AcDbEntity
  8
RACCORDO
100
AcDbPolyline
 62
7
  6
CONTINUOUS
 90
19
 70
0
 10
-95.916444955
 20
-26.1976773621
 10
-95.8796185984
 20
-26.2524797874
 10
-95.8442786498
 20
-26.3076454147
 10
-95.8104137738
 20
-26.3631297851
 10
-95.7780114674
 20
-26.4188895299
 10
-95.7470815313
 20
-26.4748389562
 10
-95.717606648
 20
-26.5309352644
 10
-95.6895685238
 20
-26.5871368427
 10
-95.6629685332
 20
-26.643358564
 10
-95.6377840323
 20
-26.6995595004
 10
-95.6139911547
 20
-26.7557009608
 10
-95.5915828048
 20
-26.8117006058
 10
-95.5705305418
 20
-26.8675228151
 10
-95.5508067788
 20
-26.9231296203
 10
-95.5323991421
 20
-26.9784349906
 10
-95.5152727355
 20
-27.0334130907
 10
-95.4993976664
 20
-27.0880227839
 10
-95.4847611603
 20
-27.1421546712
 10
-95.4713261644
 20
-27.1957750125
  0
LWPOLYLINE
  5
4BC
100
AcDbEntity
  8
SKEL_COPERCHIO
100
AcDbPolyline
 62
7
  6
CONTINUOUS
 90
12
 70
0
 10
-93.7937076834
 20
38.8728247854
 10
-94.0929055479
 20
37.8080089542
 10
-94.3576933289
 20
36.7511027054
 10
-94.5874856417
 20
35.7116634073
 10
-94.7837418344
 20
34.6931014213
 10
-94.9487477692
 20
33.6948039194
 10
-95.0840322522
 20
32.7204238081
 10
-95.1913903019
 20
31.773384152
 10
-95.2731673665
 20
30.8524998491
 10
-95.3315894356
 20
29.9543569988
 10
-95.3683767474
 20
29.0783007526
 10
-95.3850863642
 20
28.226507686
  0
LINE
  5
4BD
100
AcDbEntity
  8
0
100
AcDbLine
 62
7
  6
CONTINUOUS
 10
-93.7490523163
 20
39.0071666013
 11
-93.79596859
 21
38.8484521235
  0
LINE
  5
4BE
100
AcDbEntity
  8
SUPERFICI
100
AcDbLine
 62
7
  6
CONTINUOUS
 10
-93.7966132811
 20
38.8462560258
 11
-93.7415906662
 21
39.031807969
  0
LINE
  5
4BF
100
AcDbEntity
  8
SKEL_COPERCHIO
100
AcDbLine
 62
7
  6
CONTINUOUS
 10
-93.7275050139
 20
39.0792979341
 11
-93.7921647041
 21
38.8614033011
  0
LWPOLYLINE
  5
4C0
100
AcDbEntity
  8
RACCORDO
100
AcDbPolyline
 62
7
  6
CONTINUOUS
 90
13
 70
0
 10
-93.6084264741
 20
39.479372311
 10
-93.9026893209
 20
38.498344353
 10
-94.1678385477
 20
37.52143833
 10
-94.404058712
 20
36.551928927
 10
-94.610852796
 20
35.5977225094
 10
-94.7893566355
 20
34.6616203732
 10
-94.9413985023
 20
33.7429967297
 10
-95.0681810854
 20
32.8447196827
 10
-95.1710968764
 20
31.9695343365
 10
-95.251996995
 20
31.1164639632
 10
-95.312668626
 20
30.2826791146
 10
-95.354485588
 20
29.4676310802
 10
-95.3786659527
 20
28.6731039938
  0
LINE
  5
4C1
100
AcDbEntity
  8
0
100
AcDbLine
 62
7
  6
CONTINUOUS
 10
-93.6951905922
 20
39.186583944
 11
-93.7490523163
 21
39.0071666013
  0
LINE
  5
4C2
100
AcDbEntity
  8
SUPERFICI
100
AcDbLine
 62
7
  6
CONTINUOUS
 10
-93.6914754255
 20
39.1988509886
 11
-93.7503371201
 21
39.0028504793
  0
LWPOLYLINE
  5
4C3
100
AcDbEntity
  8
RACCORDO
100
AcDbPolyline
 62
250
  6
CONTINUOUS
 90
8
 70
0
 10
-92.4780266956
 20
41.3539262249
 10
-92.4463080594
 20
41.4582676274
 10
-92.4035010208
 20
41.5584984446
 10
-92.3501155063
 20
41.6534247058
 10
-92.2867874555
 20
41.7419156292
 10
-92.2142712454
 20
41.8229170922
 10
-92.1334307045
 20
41.8954641881
 10
-92.0452288224
 20
41.9586927206
  0
LINE
  5
4C4
100
AcDbEntity
  8
SKEL_COPERCHIO
100
AcDbLine
 62
7
  6
CONTINUOUS
 10
-93.6616951508
 20
39.2966861938
 11
-93.7275050139
 21
39.0792979341
  0
LINE
  5
4C5
100
AcDbEntity
  8
SUPERFICI
100
AcDbLine
 62
7
  6
CONTINUOUS
 10
-93.638927572
 20
39.3708965045
 11
-93.7162511029
 21
39.1160958676
  0
LINE
  5
4C6
100
AcDbEntity
  8
0
100
AcDbLine
 62
7
  6
CONTINUOUS
 10
-93.6225998693
 20
39.4238085671
 11
-93.6951905922
 21
39.186583944
  0
LINE
  5
4C7
100
AcDbEntity
  8
SKEL_COPERCHIO
100
AcDbLine
 62
7
  6
CONTINUOUS
 10
-93.5746955223
 20
39.5775979907
 11
-93.6616951508
 21
39.2966861938
  0
LINE
  5
4C8
100
AcDbEntity
  8
SUPERFICI
100
AcDbLine
 62
7
  6
CONTINUOUS
 10
-93.5760515166
 20
39.5732740762
 11
-93.6530417998
 21
39.3233376736
  0
LINE
  5
4C9
100
AcDbEntity
  8
SKEL_COPERCHIO
100
AcDbLine
 62
7
  6
CONTINUOUS
 10
-93.4598856004
 20
39.9415433859
 11
-93.7937076834
 21
38.8728247854
  0
LINE
  5
4CA
100
AcDbEntity
  8
0
100
AcDbLine
 62
7
  6
CONTINUOUS
 10
-93.5330061852
 20
39.7097202581
 11
-93.6225998693
 21
39.4238085671
  0
LINE
  5
4CB
100
AcDbEntity
  8
SUPERFICI
100
AcDbLine
 62
7
  6
CONTINUOUS
 10
-93.5030734803
 20
39.8036281856
 11
-93.5760515166
 21
39.5732740762
  0
LINE
  5
4CC
100
AcDbEntity
  8
SUPERFICI
100
AcDbLine
 62
7
  6
CONTINUOUS
 10
-93.5415829654
 20
39.6788918792
 11
-93.4639744365
 21
39.9195181711
  0
LINE
  5
4CD
100
AcDbEntity
  8
0
100
AcDbLine
 62
7
  6
CONTINUOUS
 10
-93.4268391577
 20
40.0393221559
 11
-93.5330061852
 21
39.7097202581
  0
LINE
  5
4CE
100
AcDbEntity
  8
SUPERFICI
100
AcDbLine
 62
7
  6
CONTINUOUS
 10
-93.4206271462
 20
40.0583138738
 11
-93.5030734803
 21
39.8036281856
  0
LWPOLYLINE
  5
4CF
100
AcDbEntity
  8
SKEL_COPERCHIO
100
AcDbPolyline
 62
7
  6
CONTINUOUS
 90
3
 70
0
 10
-93.4083056691
 20
40.0958905618
 10
-93.4683797162
 20
39.9115002114
 10
-93.5746955223
 20
39.5775979907
  0
LINE
  5
4D0
100
AcDbEntity
  8
SUPERFICI
100
AcDbLine
 62
7
  6
CONTINUOUS
 10
-91.6756559206
 20
39.602589051
 11
-91.7575346738
 21
39.3519920044
  0
LINE
  5
4D1
100
AcDbEntity
  8
0
100
AcDbLine
 62
7
  6
CONTINUOUS
 10
-93.3678424228
 20
40.2184310913
 11
-93.4272700893
 21
40.0380035131
  0
LINE
  5
4D2
100
AcDbEntity
  8
RACCORDO
100
AcDbLine
 62
7
  6
CONTINUOUS
 10
-93.5428540698
 20
39.6784864709
 11
-93.6084264741
 21
39.479372311
  0
LINE
  5
4D3
100
AcDbEntity
  8
SUPERFICI
100
AcDbLine
 62
7
  6
CONTINUOUS
 10
-91.7721124273
 20
39.301675
 11
-91.6938645111
 21
39.5401502895
  0
LINE
  5
4D4
100
AcDbEntity
  8
SUPERFICI
100
AcDbLine
 62
7
  6
CONTINUOUS
 10
-93.4639744365
 20
39.9195181711
 11
-93.3862018344
 21
40.1553254214
  0
LINE
  5
4D5
100
AcDbEntity
  8
SUPERFICI
100
AcDbLine
 62
7
  6
CONTINUOUS
 10
-93.3283900875
 20
40.3366683185
 11
-93.4206271462
 21
40.0583138738
  0
LINE
  5
4D6
100
AcDbEntity
  8
0
100
AcDbLine
 62
7
  6
CONTINUOUS
 10
-93.3048468167
 20
40.406656508
 11
-93.3682800327
 21
40.2171127797
  0
LINE
  5
4D7
100
AcDbEntity
  8
SUPERFICI
100
AcDbLine
 62
7
  6
CONTINUOUS
 10
-91.5852965727
 20
39.872662349
 11
-91.6756559206
 21
39.602589051
  0
LINE
  5
4D8
100
AcDbEntity
  8
SUPERFICI
100
AcDbLine
 62
7
  6
CONTINUOUS
 10
-91.6938645111
 20
39.5401502895
 11
-91.611884861
 21
39.7842065716
  0
LINE
  5
4D9
100
AcDbEntity
  8
SUPERFICI
100
AcDbLine
 62
7
  6
CONTINUOUS
 10
-93.3862018344
 20
40.1553254214
 11
-93.302548213
 21
40.4033620045
  0
LWPOLYLINE
  5
4DA
100
AcDbEntity
  8
SUPERFICI
100
AcDbPolyline
 62
250
  6
CONTINUOUS
 90
13
 70
0
 10
-91.4288837073
 20
40.3145851383
 10
-91.8177584688
 20
39.1706789967
 10
-92.1625710018
 20
38.0366259962
 10
-92.4650331528
 20
36.9144282239
 10
-92.7277235199
 20
35.8022832757
 10
-92.951426514
 20
34.7055605822
 10
-93.1362273848
 20
33.6371596612
 10
-93.2843100079
 20
32.6040392177
 10
-93.39946939
 20
31.6026804467
 10
-93.484830636
 20
30.6302294919
 10
-93.542916566
 20
29.6864571343
 10
-93.5760130932
 20
28.7738344825
 10
-93.5865183513
 20
27.8932966901
  0
LINE
  5
4DB
100
AcDbEntity
  8
0
100
AcDbLine
 62
7
  6
CONTINUOUS
 10
-93.237702104
 20
40.603988917
 11
-93.3052871263
 21
40.4053514328
  0
LINE
  5
4DC
100
AcDbEntity
  8
SUPERFICI
100
AcDbLine
 62
7
  6
CONTINUOUS
 10
-93.2257780799
 20
40.6386889136
 11
-93.3283900875
 21
40.3366683185
  0
LWPOLYLINE
  5
4DD
100
AcDbEntity
  8
RACCORDO
100
AcDbPolyline
 62
7
  6
CONTINUOUS
 90
6
 70
0
 10
-95.5089327071
 20
27.0385804435
 10
-95.5772519589
 20
26.8388152215
 10
-95.6594518617
 20
26.6443497287
 10
-95.7551253073
 20
26.4561470869
 10
-95.8637984575
 20
26.2751394003
 10
-95.984933091
 20
26.1022231386
  0
LINE
  5
4DE
100
AcDbEntity
  8
SKEL_COPERCHIO
100
AcDbLine
 62
7
  6
CONTINUOUS
 10
-93.4374210412
 20
40.0067082677
 11
-93.4598856004
 21
39.9415433859
  0
LINE
  5
4DF
100
AcDbEntity
  8
0
100
AcDbLine
 62
7
  6
CONTINUOUS
 10
-93.1662805614
 20
40.810330277
 11
-93.2381411132
 21
40.6027094114
  0
LINE
  5
4E0
100
AcDbEntity
  8
SUPERFICI
100
AcDbLine
 62
7
  6
CONTINUOUS
 10
-91.611884861
 20
39.7842065716
 11
-91.524031355
 21
40.0395803097
  0
LINE
  5
4E1
100
AcDbEntity
  8
SUPERFICI
100
AcDbLine
 62
7
  6
CONTINUOUS
 10
-93.302548213
 20
40.4033620045
 11
-93.2104669853
 21
40.6700785083
  0
LWPOLYLINE
  5
4E2
100
AcDbEntity
  8
SUPERFICI
100
AcDbPolyline
 62
7
  6
CONTINUOUS
 90
3
 70
0
 10
-91.4326877495
 20
40.3145174373
 10
-91.4859053858
 20
40.1623808904
 10
-91.5852965727
 20
39.872662349
  0
LINE
  5
4E3
100
AcDbEntity
  8
0
100
AcDbLine
 62
7
  6
CONTINUOUS
 10
-93.0907980936
 20
41.0245977999
 11
-93.1667138882
 21
40.8090891
  0
LINE
  5
4E4
100
AcDbEntity
  8
SUPERFICI
100
AcDbLine
 62
7
  6
CONTINUOUS
 10
-91.524031355
 20
40.0395803097
 11
-91.4270267814
 21
40.3146162499
  0
LWPOLYLINE
  5
4E5
100
AcDbEntity
  8
SUPERFICI
100
AcDbPolyline
 62
7
  6
CONTINUOUS
 90
3
 70
0
 10
-93.2104669853
 20
40.6700785083
 10
-93.1072686052
 20
40.9616390378
 10
-93.0484862999
 20
41.1244320551
  0
LINE
  5
4E6
100
AcDbEntity
  8
RACCORDO
100
AcDbLine
 62
250
  6
CONTINUOUS
 10
-95.3623795023
 20
-22.190545063
 11
-95.3769275802
 21
-22.1914799092
  0
LWPOLYLINE
  5
4E7
100
AcDbEntity
  8
RACCORDO
100
AcDbPolyline
 62
250
  6
CONTINUOUS
 90
3
 70
0
 10
-95.3769275802
 20
-22.1914799092
 10
-95.4055364257
 20
-22.1924549092
 10
-95.4480712078
 20
-22.193465468
  0
LINE
  5
4E8
100
AcDbEntity
  8
RACCORDO
100
AcDbLine
 62
250
  6
CONTINUOUS
 10
-95.4480712078
 20
-22.193465468
 11
-95.5740520423
 21
-22.1955740664
  0
LINE
  5
4E9
100
AcDbEntity
  8
RACCORDO
100
AcDbLine
 62
250
  6
CONTINUOUS
 10
-95.5740520423
 20
-22.1955740664
 11
-95.980048837
 21
-22.2
  0
LINE
  5
4EA
100
AcDbEntity
  8
RACCORDO
100
AcDbLine
 62
250
  6
CONTINUOUS
 10
-95.9800488181
 20
-22.2
 11
-97.286605295
 21
-22.2
  0
LINE
  5
4EB
100
AcDbEntity
  8
RACCORDO
100
AcDbLine
 62
7
  6
CONTINUOUS
 10
-73.4949769592
 20
-22.706467787
 11
-69.4862504237
 21
-22.7414514135
  0
LINE
  5
4EC
100
AcDbEntity
  8
RACCORDO
100
AcDbLine
 62
250
  6
CONTINUOUS
 10
-73.4949769592
 20
-23.2436085682
 11
-69.4862504237
 21
-23.2792388886
  0
LWPOLYLINE
  5
4ED
100
AcDbEntity
  8
RACCORDO
100
AcDbPolyline
 62
250
  6
CONTINUOUS
 90
19
 70
0
 10
-69.4862504237
 20
-23.2792388886
 10
-69.4281843679
 20
-23.282003346
 10
-69.3707406921
 20
-23.2898095761
 10
-69.313919396
 20
-23.3026483031
 10
-69.2570984417
 20
-23.3206272314
 10
-69.2008998672
 20
-23.3436030039
 10
-69.1471897872
 20
-23.3711834119
 10
-69.0961952819
 20
-23.4034899935
 10
-69.047689271
 20
-23.4403378229
 10
-69.0028566284
 20
-23.4808766967
 10
-68.9618822113
 20
-23.524985683
 10
-68.9245811625
 20
-23.5727129447
 10
-68.8915837843
 20
-23.6234699861
 10
-68.8628364074
 20
-23.6771052499
 10
-68.838392701
 20
-23.733692875
 10
-68.8190439759
 20
-23.7929881582
 10
-68.8050540022
 20
-23.8548819025
 10
-68.7961590098
 20
-23.9193972242
 10
-68.7923589985
 20
-23.9864873566
  0
LINE
  5
4EE
100
AcDbEntity
  8
RACCORDO
100
AcDbLine
 62
7
  6
CONTINUOUS
 10
-95.4548324687
 20
27.2426560252
 11
-95.5089327071
 21
27.0385804435
  0
LINE
  5
4EF
100
AcDbEntity
  8
SUPERFICI
100
AcDbLine
 62
7
  6
CONTINUOUS
 10
-92.0094479744
 20
38.5419321116
 11
-92.0694542343
 21
38.3393820143
  0
LINE
  5
4F0
100
AcDbEntity
  8
SUPERFICI
100
AcDbLine
 62
7
  6
CONTINUOUS
 10
-91.9701578214
 20
38.6724610524
 11
-92.0333119191
 21
38.4616194807
  0
LINE
  5
4F1
100
AcDbEntity
  8
SUPERFICI
100
AcDbLine
 62
7
  6
CONTINUOUS
 10
-91.9213570647
 20
38.8323407601
 11
-91.970395735
 21
38.671675571
  0
LINE
  5
4F2
100
AcDbEntity
  8
SUPERFICI
100
AcDbLine
 62
7
  6
CONTINUOUS
 10
-91.8301602059
 20
39.1247466936
 11
-91.9214618714
 21
38.8301911718
  0
LINE
  5
4F3
100
AcDbEntity
  8
SUPERFICI
100
AcDbLine
 62
7
  6
CONTINUOUS
 10
-91.7575346738
 20
39.3519920044
 11
-91.8303462419
 21
39.1241583464
  0
LINE
  5
4F4
100
AcDbEntity
  8
SUPERFICI
100
AcDbLine
 62
7
  6
CONTINUOUS
 10
-91.8483908786
 20
39.0636622988
 11
-91.7718424517
 21
39.3025074878
  0
LWPOLYLINE
  5
4F5
100
AcDbEntity
  8
0
100
AcDbPolyline
 62
7
  6
CONTINUOUS
 90
3
 70
0
 43
0.3500000087
 10
-85.6765076111
 20
51.5357151703
 10
-85.7479350342
 20
51.3214286377
 10
-85.8907898804
 20
51.035714682
  0
LINE
  5
4F6
100
AcDbEntity
  8
RACCORDO
100
AcDbLine
 62
250
  6
CONTINUOUS
 10
-68.4949769592
 20
-17.877236189
 11
-73.4949769592
 21
-18.0063134984
  0
LINE
  5
4F7
100
AcDbEntity
  8
RACCORDO
100
AcDbLine
 62
7
  6
CONTINUOUS
 10
-73.4949769592
 20
-18.1226292198
 11
-68.4949769592
 21
-17.9945974467
  0
LWPOLYLINE
  5
4F8
100
AcDbEntity
  8
RACCORDO
100
AcDbPolyline
 62
7
  6
CONTINUOUS
 90
5
 70
0
 10
-95.5084517097
 20
-27.0563711661
 10
-95.5761643117
 20
-26.8522513374
 10
-95.658326159
 20
-26.6535069929
 10
-95.7545150282
 20
-26.4611594642
 10
-95.8642366123
 20
-26.2761972105
  0
LINE
  5
4F9
100
AcDbEntity
  8
RACCORDO
100
AcDbLine
 62
7
  6
CONTINUOUS
 10
-95.4555403228
 20
-27.2648148608
 11
-95.5084515525
 21
-27.0563672221
  0
LINE
  5
4FA
100
AcDbEntity
  8
RACCORDO
100
AcDbLine
 62
7
  6
CONTINUOUS
 10
-95.4713261644
 20
-27.1957750125
 11
-95.4590541658
 21
-27.2488566382
  0
LINE
  5
4FB
100
AcDbEntity
  8
RACCORDO
100
AcDbLine
 62
250
  6
CONTINUOUS
 10
-94.69612937
 20
-41.1803115501
 11
-94.696112249
 21
-41.1803905813
  0
LINE
  5
4FC
100
AcDbEntity
  8
RACCORDO
100
AcDbLine
 62
7
  6
CONTINUOUS
 10
-95.4590541658
 20
-27.2488566382
 11
-95.4479219319
 21
-27.3012991013
  0
LINE
  5
4FD
100
AcDbEntity
  8
RACCORDO
100
AcDbLine
 62
7
  6
CONTINUOUS
 10
-95.3951206079
 20
-27.6903876488
 11
-95.417698518
 21
-27.4765176515
  0
LINE
  5
4FE
100
AcDbEntity
  8
SKEL_COPERCHIO
100
AcDbLine
 62
7
  6
CONTINUOUS
 10
-94.7109064397
 20
-41.0400162427
 11
-94.6328420856
 21
-41.766250536
  0
LINE
  5
4FF
100
AcDbEntity
  8
SUPERFICI
100
AcDbLine
 62
7
  6
CONTINUOUS
 10
-94.7197660465
 20
-40.955243562
 11
-94.626150418
 21
-41.8210919253
  0
LWPOLYLINE
  5
500
100
AcDbEntity
  8
SUPERFICI
100
AcDbPolyline
 62
7
  6
CONTINUOUS
 90
3
 70
0
 10
-94.6527206851
 20
-41.5764681925
 10
-94.7060398094
 20
-41.0716874018
 10
-94.7325056567
 20
-40.813722001
  0
LINE
  5
501
100
AcDbEntity
  8
0
100
AcDbLine
 62
7
  6
CONTINUOUS
 10
-94.7589123208
 20
-40.5743470281
 11
-94.696128403
 21
-41.180301466
  0
LINE
  5
502
100
AcDbEntity
  8
SKEL_COPERCHIO
100
AcDbLine
 62
7
  6
CONTINUOUS
 10
-94.7746555902
 20
-40.4180929222
 11
-94.7109064397
 21
-41.0400162427
  0
LINE
  5
503
100
AcDbEntity
  8
SUPERFICI
100
AcDbLine
 62
7
  6
CONTINUOUS
 10
-94.7853690195
 20
-40.3106940345
 11
-94.7197660465
 21
-40.955243562
  0
LINE
  5
504
100
AcDbEntity
  8
0
100
AcDbLine
 62
7
  6
CONTINUOUS
 10
-94.819522394
 20
-39.9622158719
 11
-94.7589123208
 21
-40.5743470281
  0
LINE
  5
505
100
AcDbEntity
  8
SKEL_COPERCHIO
100
AcDbLine
 62
7
  6
CONTINUOUS
 10
-94.8358484695
 20
-39.7921546711
 11
-94.7746555902
 21
-40.4180929222
  0
LINE
  5
506
100
AcDbEntity
  8
SUPERFICI
100
AcDbLine
 62
7
  6
CONTINUOUS
 10
-94.8458743244
 20
-39.6865369218
 11
-94.7853690195
 21
-40.3106940345
  0
LWPOLYLINE
  5
507
100
AcDbEntity
  8
RACCORDO
100
AcDbPolyline
 62
7
  6
CONTINUOUS
 90
4
 70
0
 10
-95.4032842879
 20
-27.595663602
 10
-95.3994058257
 20
-27.6369300511
 10
-95.3963426852
 20
-27.6749976382
 10
-95.3940549143
 20
-27.7085296146
  0
LINE
  5
508
100
AcDbEntity
  8
0
100
AcDbLine
 62
7
  6
CONTINUOUS
 10
-94.8762192961
 20
-39.3610969676
 11
-94.819522394
 21
-39.9622158719
  0
LINE
  5
509
100
AcDbEntity
  8
SKEL_COPERCHIO
100
AcDbLine
 62
7
  6
CONTINUOUS
 10
-94.8935752823
 20
-39.1708523201
 11
-94.8358484695
 21
-39.7921546711
  0
LINE
  5
50A
100
AcDbEntity
  8
SUPERFICI
100
AcDbLine
 62
7
  6
CONTINUOUS
 10
-94.9005108778
 20
-39.093950962
 11
-94.8458743244
 21
-39.6865369218
  0
LINE
  5
50B
100
AcDbEntity
  8
0
100
AcDbLine
 62
7
  6
CONTINUOUS
 10
-94.9292727792
 20
-38.7694262192
 11
-94.8762192961
 21
-39.3610969676
  0
LINE
  5
50C
100
AcDbEntity
  8
SKEL_COPERCHIO
100
AcDbLine
 62
7
  6
CONTINUOUS
 10
-94.9472400714
 20
-38.5618703683
 11
-94.8935752823
 21
-39.1708523201
  0
LINE
  5
50D
100
AcDbEntity
  8
SUPERFICI
100
AcDbLine
 62
7
  6
CONTINUOUS
 10
-94.9588316039
 20
-38.4258826879
 11
-94.9005108778
 21
-39.093950962
  0
LINE
  5
50E
100
AcDbEntity
  8
0
100
AcDbLine
 62
7
  6
CONTINUOUS
 10
-94.978743673
 20
-38.1882725084
 11
-94.9292727792
 21
-38.7694262192
  0
LINE
  5
50F
100
AcDbEntity
  8
SKEL_COPERCHIO
100
AcDbLine
 62
7
  6
CONTINUOUS
 10
-94.9970486178
 20
-37.9651316862
 11
-94.9472400714
 21
-38.5618703683
  0
LWPOLYLINE
  5
510
100
AcDbEntity
  8
SUPERFICI
100
AcDbPolyline
 62
7
  6
CONTINUOUS
 90
27
 70
0
 10
-94.9538236484
 20
-38.4089415876
 10
-94.9824955267
 20
-38.0554721713
 10
-95.010545501
 20
-37.6972561877
 10
-95.0379244158
 20
-37.3344239544
 10
-95.0645992507
 20
-36.9668911176
 10
-95.0905409936
 20
-36.5944920247
 10
-95.1157000329
 20
-36.2173390684
 10
-95.1400429454
 20
-35.8352981901
 10
-95.1635382795
 20
-35.4481666537
 10
-95.1861270695
 20
-35.0561784192
 10
-95.2077827064
 20
-34.6589999819
 10
-95.2284835284
 20
-34.2561022049
 10
-95.2481618069
 20
-33.8477850646
 10
-95.2667808602
 20
-33.4337040584
 10
-95.284314219
 20
-33.0131294568
 10
-95.3006884426
 20
-32.5863262428
 10
-95.3158499592
 20
-32.1530428604
 10
-95.3297559958
 20
-31.7125199218
 10
-95.3423263655
 20
-31.2649744283
 10
-95.3534916211
 20
-30.810220723
 10
-95.3631898678
 20
-30.3474832088
 10
-95.3713353964
 20
-29.8767617384
 10
-95.3778398987
 20
-29.3981394924
 10
-95.3826166511
 20
-28.9112630665
 10
-95.3855691261
 20
-28.4160471859
 10
-95.386603506
 20
-27.9126266523
 10
-95.3856391942
 20
-27.4010308248
  0
LINE
  5
511
100
AcDbEntity
  8
SUPERFICI
100
AcDbLine
 62
7
  6
CONTINUOUS
 10
-95.0114443379
 20
-37.7862924949
 11
-94.9588317865
 21
-38.4258805329
  0
LINE
  5
512
100
AcDbEntity
  8
0
100
AcDbLine
 62
7
  6
CONTINUOUS
 10
-95.0336466848
 20
-37.5043029598
 11
-94.978743673
 21
-38.1882725084
  0
LINE
  5
513
100
AcDbEntity
  8
SKEL_COPERCHIO
100
AcDbLine
 62
7
  6
CONTINUOUS
 10
-95.0433533057
 20
-37.3785191216
 11
-94.9970486178
 21
-37.9651316862
  0
LINE
  5
514
100
AcDbEntity
  8
SUPERFICI
100
AcDbLine
 62
7
  6
CONTINUOUS
 10
-95.059197288
 20
-37.1697025977
 11
-95.0114445165
 21
-37.7862902566
  0
LINE
  5
515
100
AcDbEntity
  8
0
100
AcDbLine
 62
7
  6
CONTINUOUS
 10
-95.0839485332
 20
-36.8341035083
 11
-95.0336466848
 21
-37.5043029598
  0
LINE
  5
516
100
AcDbEntity
  8
SKEL_COPERCHIO
100
AcDbLine
 62
7
  6
CONTINUOUS
 10
-95.0863372273
 20
-36.8010669355
 11
-95.0433533057
 21
-37.3785191216
  0
LINE
  5
517
100
AcDbEntity
  8
SUPERFICI
100
AcDbLine
 62
7
  6
CONTINUOUS
 10
-95.1026758453
 20
-36.5718053208
 11
-95.059197288
 21
-37.1697025977
  0
LINE
  5
518
100
AcDbEntity
  8
SKEL_COPERCHIO
100
AcDbLine
 62
7
  6
CONTINUOUS
 10
-95.1260455992
 20
-36.2331129735
 11
-95.0863372273
 21
-36.8010669355
  0
LINE
  5
519
100
AcDbEntity
  8
0
100
AcDbLine
 62
7
  6
CONTINUOUS
 10
-95.1298567347
 20
-36.1765758963
 11
-95.0839485332
 21
-36.8341035083
  0
LINE
  5
51A
100
AcDbEntity
  8
SUPERFICI
100
AcDbLine
 62
7
  6
CONTINUOUS
 10
-95.1423712387
 20
-35.9881493555
 11
-95.1026759963
 21
-36.5718031745
  0
LINE
  5
51B
100
AcDbEntity
  8
SKEL_COPERCHIO
100
AcDbLine
 62
7
  6
CONTINUOUS
 10
-95.1483198323
 20
-35.8970202958
 11
-95.1260456045
 21
-36.2331128947
  0
LINE
  5
51C
100
AcDbEntity
  8
SUPERFICI
100
AcDbLine
 62
7
  6
CONTINUOUS
 10
-95.1486491788
 20
-35.891944289
 11
-95.1423713706
 21
-35.9881473468
  0
LINE
  5
51D
100
AcDbEntity
  8
0
100
AcDbLine
 62
7
  6
CONTINUOUS
 10
-95.1512915925
 20
-35.8510999665
 11
-95.1225775162
 21
-36.2842311573
  0
LINE
  5
51E
100
AcDbEntity
  8
RACCORDO
100
AcDbLine
 62
7
  6
CONTINUOUS
 10
-95.4152191837
 20
27.4500312492
 11
-95.4548324687
 21
27.2426560252
  0
LINE
  5
51F
100
AcDbEntity
  8
RACCORDO
100
AcDbLine
 62
250
  6
CONTINUOUS
 10
-73.4949769592
 20
-17.201216356
 11
-68.4949769592
 21
-17.1872347387
  0
LINE
  5
520
100
AcDbEntity
  8
RACCORDO
100
AcDbLine
 62
250
  6
CONTINUOUS
 10
-73.4949769592
 20
-17.0257123309
 11
-68.4949769592
 21
-17.0116133084
  0
LINE
  5
521
100
AcDbEntity
  8
RACCORDO
100
AcDbLine
 62
7
  6
CONTINUOUS
 10
-95.4479219319
 20
-27.3012991013
 11
-95.4378576521
 21
-27.3532377081
  0
LINE
  5
522
100
AcDbEntity
  8
RACCORDO
100
AcDbLine
 62
7
  6
CONTINUOUS
 10
-95.417698518
 20
-27.4765176515
 11
-95.4555403228
 21
-27.2648148608
  0
LWPOLYLINE
  5
523
100
AcDbEntity
  8
RACCORDO
100
AcDbPolyline
 62
7
  6
CONTINUOUS
 90
6
 70
0
 10
-95.4378576521
 20
-27.3532377081
 10
-95.4288557658
 20
-27.4044827043
 10
-95.4209599585
 20
-27.4544382067
 10
-95.4140514014
 20
-27.5034467638
 10
-95.4081242246
 20
-27.5511030215
 10
-95.4032842879
 20
-27.595663602
  0
LWPOLYLINE
  5
524
100
AcDbEntity
  8
0
100
AcDbPolyline
 62
7
  6
CONTINUOUS
 90
4
 70
0
 10
-95.5895700815
 20
-29.0998531129
 10
-95.5892352819
 20
-29.1026051364
 10
-95.5888454712
 20
-29.1107851968
 10
-95.5884006496
 20
-29.1242555532
  0
LINE
  5
525
100
AcDbEntity
  8
SKEL_COPERCHIO
100
AcDbLine
 62
7
  6
CONTINUOUS
 10
-94.6328420856
 20
-41.766250536
 11
-94.6002317922
 21
-42.0595019409
  0
LINE
  5
526
100
AcDbEntity
  8
SUPERFICI
100
AcDbLine
 62
7
  6
CONTINUOUS
 10
-94.6387213716
 20
-41.7127771092
 11
-94.6002317922
 21
-42.0595019409
  0
LINE
  5
527
100
AcDbEntity
  8
SUPERFICI
100
AcDbLine
 62
7
  6
CONTINUOUS
 10
-93.0414703849
 20
-39.6475262564
 11
-92.9787138269
 21
-40.2875314518
  0
LINE
  5
528
100
AcDbEntity
  8
SUPERFICI
100
AcDbLine
 62
7
  6
CONTINUOUS
 10
-93.1001573463
 20
-39.0168292106
 11
-93.0414701699
 21
-39.6475285063
  0
LINE
  5
529
100
AcDbEntity
  8
SUPERFICI
100
AcDbLine
 62
7
  6
CONTINUOUS
 10
-93.1546796306
 20
-38.39808943
 11
-93.1001573463
 21
-39.0168292106
  0
LINE
  5
52A
100
AcDbEntity
  8
SUPERFICI
100
AcDbLine
 62
7
  6
CONTINUOUS
 10
-93.2050176871
 20
-37.7940280133
 11
-93.1546796306
 21
-38.39808943
  0
LINE
  5
52B
100
AcDbEntity
  8
SUPERFICI
100
AcDbLine
 62
7
  6
CONTINUOUS
 10
-93.1789400127
 20
-38.0277714677
 11
-93.2419731613
 21
-37.2131902262
  0
LINE
  5
52C
100
AcDbEntity
  8
SUPERFICI
100
AcDbLine
 62
7
  6
CONTINUOUS
 10
-93.2514604197
 20
-37.2038528348
 11
-93.2050176871
 21
-37.7940280133
  0
LINE
  5
52D
100
AcDbEntity
  8
SUPERFICI
100
AcDbLine
 62
7
  6
CONTINUOUS
 10
-93.2943164027
 20
-36.6255537841
 11
-93.2514604197
 21
-37.2038528348
  0
LINE
  5
52E
100
AcDbEntity
  8
SUPERFICI
100
AcDbLine
 62
7
  6
CONTINUOUS
 10
-93.2418916726
 20
-37.2142895665
 11
-93.2999599053
 21
-36.3947187386
  0
LINE
  5
52F
100
AcDbEntity
  8
SUPERFICI
100
AcDbLine
 62
7
  6
CONTINUOUS
 10
-93.333738274
 20
-36.0584280508
 11
-93.2943164027
 21
-36.6255537841
  0
LINE
  5
530
100
AcDbEntity
  8
SUPERFICI
100
AcDbLine
 62
7
  6
CONTINUOUS
 10
-93.2996712305
 20
-36.3989895305
 11
-93.353118102
 21
-35.5676371483
  0
LINE
  5
531
100
AcDbEntity
  8
SUPERFICI
100
AcDbLine
 62
7
  6
CONTINUOUS
 10
-93.3698240294
 20
-35.5024021529
 11
-93.333738274
 21
-36.0584280508
  0
LINE
  5
532
100
AcDbEntity
  8
SKEL_COPERCHIO
100
AcDbLine
 62
7
  6
CONTINUOUS
 10
-95.1828998322
 20
-35.3448589188
 11
-95.1483198323
 21
-35.8970202958
  0
LINE
  5
533
100
AcDbEntity
  8
0
100
AcDbLine
 62
7
  6
CONTINUOUS
 10
-95.1846060666
 20
-35.3165253664
 11
-95.1512195567
 21
-35.8522162504
  0
LINE
  5
534
100
AcDbEntity
  8
SUPERFICI
100
AcDbLine
 62
7
  6
CONTINUOUS
 10
-95.1844479138
 20
-35.319156312
 11
-95.1486491788
 21
-35.891944289
  0
LINE
  5
535
100
AcDbEntity
  8
SUPERFICI
100
AcDbLine
 62
7
  6
CONTINUOUS
 10
-93.4026808012
 20
-34.9573401254
 11
-93.3698240294
 21
-35.5024021529
  0
LINE
  5
536
100
AcDbEntity
  8
SUPERFICI
100
AcDbLine
 62
7
  6
CONTINUOUS
 10
-93.3525273108
 20
-35.577320931
 11
-93.3997766772
 21
-34.7596437215
  0
LWPOLYLINE
  5
537
100
AcDbEntity
  8
RACCORDO
100
AcDbPolyline
 62
7
  6
CONTINUOUS
 90
7
 70
0
 10
-95.3940549143
 20
-27.7085296146
 10
-95.3924332626
 20
-27.7366826742
 10
-95.3912932165
 20
-27.7601479239
 10
-95.3904867508
 20
-27.7798848852
 10
-95.3899464823
 20
-27.7956441356
 10
-95.389603218
 20
-27.8075301344
 10
-95.389570209
 20
-27.8088849916
  0
LINE
  5
538
100
AcDbEntity
  8
SKEL_COPERCHIO
100
AcDbLine
 62
7
  6
CONTINUOUS
 10
-95.2143720849
 20
-34.8029125716
 11
-95.1828998322
 21
-35.3448589188
  0
LINE
  5
539
100
AcDbEntity
  8
0
100
AcDbLine
 62
7
  6
CONTINUOUS
 10
-95.2151410921
 20
-34.7891164514
 11
-95.1845379689
 21
-35.3176583215
  0
LINE
  5
53A
100
AcDbEntity
  8
SUPERFICI
100
AcDbLine
 62
7
  6
CONTINUOUS
 10
-95.2172221643
 20
-34.7516363828
 11
-95.1844480223
 21
-35.3191545068
  0
LINE
  5
53B
100
AcDbEntity
  8
SUPERFICI
100
AcDbLine
 62
7
  6
CONTINUOUS
 10
-93.4324378369
 20
-34.4230071418
 11
-93.4026808012
 21
-34.9573401254
  0
LINE
  5
53C
100
AcDbEntity
  8
SKEL_COPERCHIO
100
AcDbLine
 62
7
  6
CONTINUOUS
 10
-95.2428359273
 20
-34.2713942098
 11
-95.2143720849
 21
-34.8029125716
  0
LINE
  5
53D
100
AcDbEntity
  8
0
100
AcDbLine
 62
7
  6
CONTINUOUS
 10
-95.2429117973
 20
-34.2699149796
 11
-95.2150775243
 21
-34.7902579603
  0
LINE
  5
53E
100
AcDbEntity
  8
SUPERFICI
100
AcDbLine
 62
7
  6
CONTINUOUS
 10
-93.3993200186
 20
-34.7680139637
 11
-93.4408789993
 21
-33.958944474
  0
LINE
  5
53F
100
AcDbEntity
  8
SUPERFICI
100
AcDbLine
 62
7
  6
CONTINUOUS
 10
-95.2469778845
 20
-34.1900998273
 11
-95.2172222564
 21
-34.7516347203
  0
LINE
  5
540
100
AcDbEntity
  8
SUPERFICI
100
AcDbLine
 62
7
  6
CONTINUOUS
 10
-93.4592281442
 20
-33.8990974452
 11
-93.4324378369
 21
-34.4230071418
  0
LINE
  5
541
100
AcDbEntity
  8
SKEL_COPERCHIO
100
AcDbLine
 62
7
  6
CONTINUOUS
 10
-95.2683983621
 20
-33.7504538861
 11
-95.2428359273
 21
-34.2713942098
  0
LINE
  5
542
100
AcDbEntity
  8
0
100
AcDbLine
 62
7
  6
CONTINUOUS
 10
-95.2726048185
 20
-33.6598852131
 11
-95.2428534181
 21
-34.2710532243
  0
LINE
  5
543
100
AcDbEntity
  8
SUPERFICI
100
AcDbLine
 62
7
  6
CONTINUOUS
 10
-95.2736776114
 20
-33.6365402132
 11
-95.2469778845
 21
-34.1900998273
  0
LINE
  5
544
100
AcDbEntity
  8
SUPERFICI
100
AcDbLine
 62
7
  6
CONTINUOUS
 10
-93.4405353741
 20
-33.9660778638
 11
-93.4767878837
 21
-33.1603093923
  0
LINE
  5
545
100
AcDbEntity
  8
SUPERFICI
100
AcDbLine
 62
7
  6
CONTINUOUS
 10
-93.4831832572
 20
-33.3852476701
 11
-93.4592281442
 21
-33.8990974452
  0
LINE
  5
546
100
AcDbEntity
  8
SKEL_COPERCHIO
100
AcDbLine
 62
7
  6
CONTINUOUS
 10
-95.2911726077
 20
-33.2401889553
 11
-95.2683983621
 21
-33.7504538861
  0
LINE
  5
547
100
AcDbEntity
  8
SUPERFICI
100
AcDbLine
 62
7
  6
CONTINUOUS
 10
-95.2973269175
 20
-33.0929086757
 11
-95.2736775379
 21
-33.6365418166
  0
LINE
  5
548
100
AcDbEntity
  8
0
100
AcDbLine
 62
7
  6
CONTINUOUS
 10
-95.2984093726
 20
-33.0665286417
 11
-95.2725531679
 21
-33.6610066053
  0
LINE
  5
549
100
AcDbEntity
  8
SUPERFICI
100
AcDbLine
 62
7
  6
CONTINUOUS
 10
-93.504434397
 20
-32.8810722398
 11
-93.4831832572
 21
-33.3852476701
  0
LINE
  5
54A
100
AcDbEntity
  8
SUPERFICI
100
AcDbLine
 62
7
  6
CONTINUOUS
 10
-93.4765423115
 20
-33.1661833652
 11
-93.5072182802
 21
-32.3729935399
  0
LINE
  5
54B
100
AcDbEntity
  8
SKEL_COPERCHIO
100
AcDbLine
 62
7
  6
CONTINUOUS
 10
-95.3149967037
 20
-32.6420146988
 11
-95.2911726077
 21
-33.2401889553
  0
LINE
  5
54C
100
AcDbEntity
  8
SUPERFICI
100
AcDbLine
 62
7
  6
CONTINUOUS
 10
-95.317979372
 20
-32.5611262061
 11
-95.2973268499
 21
-33.0929103187
  0
LINE
  5
54D
100
AcDbEntity
  8
0
100
AcDbLine
 62
7
  6
CONTINUOUS
 10
-95.3204695465
 20
-32.492377437
 11
-95.2983646149
 21
-33.0676223363
  0
LINE
  5
54E
100
AcDbEntity
  8
SUPERFICI
100
AcDbLine
 62
7
  6
CONTINUOUS
 10
-93.5231129787
 20
-32.386190262
 11
-93.504434397
 21
-32.8810722398
  0
LINE
  5
54F
100
AcDbEntity
  8
RACCORDO
100
AcDbLine
 62
7
  6
CONTINUOUS
 10
-95.3898227156
 20
-27.8485873024
 11
-95.3951206079
 21
-27.6903876488
  0
LINE
  5
550
100
AcDbEntity
  8
SKEL_COPERCHIO
100
AcDbLine
 62
7
  6
CONTINUOUS
 10
-95.3352036992
 20
-32.0594066717
 11
-95.3149967037
 21
-32.6420146988
  0
LINE
  5
551
100
AcDbEntity
  8
0
100
AcDbLine
 62
7
  6
CONTINUOUS
 10
-95.3310889311
 20
-31.999978
 11
-95.3447177212
 21
-31.5985174509
  0
LINE
  5
552
100
AcDbEntity
  8
SUPERFICI
100
AcDbLine
 62
7
  6
CONTINUOUS
 10
-93.5070557187
 20
-32.3775679438
 11
-93.5321600551
 21
-31.6047169929
  0
LINE
  5
553
100
AcDbEntity
  8
SUPERFICI
100
AcDbLine
 62
7
  6
CONTINUOUS
 10
-95.3357250127
 20
-32.0431492995
 11
-95.31797931
 21
-32.5611279054
  0
LINE
  5
554
100
AcDbEntity
  8
SKEL_COPERCHIO
100
AcDbLine
 62
7
  6
CONTINUOUS
 10
-95.3370882952
 20
-31.999993
 11
-95.3352036992
 21
-32.0594066717
  0
LINE
  5
555
100
AcDbEntity
  8
0
100
AcDbLine
 62
7
  6
CONTINUOUS
 10
-95.3370899974
 20
-31.999978
 11
-95.3204315146
 21
-32.4934360511
  0
LINE
  5
556
100
AcDbEntity
  8
0
100
AcDbLine
 62
7
  6
CONTINUOUS
 10
-95.5489246593
 20
-31.4656614663
 11
-95.5311934224
 21
-31.999978
  0
LWPOLYLINE
  5
557
100
AcDbEntity
  8
0
100
AcDbPolyline
 62
7
  6
CONTINUOUS
 90
4
 70
0
 10
-95.388257867
 20
-29.1289942184
 10
-95.3887495611
 20
-29.1130886329
 10
-95.3891856659
 20
-29.1032300477
 10
-95.3895661815
 20
-29.0998531129
  0
LINE
  5
558
100
AcDbEntity
  8
SUPERFICI
100
AcDbLine
 62
7
  6
CONTINUOUS
 10
-93.5418159327
 20
-31.8201570263
 11
-93.5231129787
 21
-32.386190262
  0
LINE
  5
559
100
AcDbEntity
  8
SUPERFICI
100
AcDbLine
 62
7
  6
CONTINUOUS
 10
-93.546566382
 20
-31.6608384462
 11
-93.5418159327
 21
-31.8201570263
  0
LINE
  5
55A
100
AcDbEntity
  8
0
100
AcDbLine
 62
7
  6
CONTINUOUS
 10
-95.3447177212
 20
-31.5985174509
 11
-95.3565063867
 21
-31.2014822085
  0
LINE
  5
55B
100
AcDbEntity
  8
SUPERFICI
100
AcDbLine
 62
7
  6
CONTINUOUS
 10
-95.3506884942
 20
-31.5409264436
 11
-95.3357250127
 21
-32.0431492995
  0
LINE
  5
55C
100
AcDbEntity
  8
RACCORDO
100
AcDbLine
 62
250
  6
CONTINUOUS
 10
-95.9848395741
 20
26.0985989851
 11
-95.9849330996
 21
26.1022231451
  0
LINE
  5
55D
100
AcDbEntity
  8
0
100
AcDbLine
 62
7
  6
CONTINUOUS
 10
-95.3565063867
 20
-31.2014822085
 11
-95.3665103961
 21
-30.8088806669
  0
LWPOLYLINE
  5
55E
100
AcDbEntity
  8
0
100
AcDbPolyline
 62
7
  6
CONTINUOUS
 90
3
 70
0
 10
-95.5665548027
 20
-30.8088806669
 10
-95.5634239819
 20
-30.9392476976
 10
-95.5489246593
 20
-31.4656614663
  0
LINE
  5
55F
100
AcDbEntity
  8
0
100
AcDbLine
 62
7
  6
CONTINUOUS
 10
-95.5884006496
 20
-29.1242555532
 11
-95.5873459474
 21
-29.1661523887
  0
LINE
  5
560
100
AcDbEntity
  8
SUPERFICI
100
AcDbLine
 62
7
  6
CONTINUOUS
 10
-95.3648338076
 20
-30.9772162225
 11
-95.3506885431
 21
-31.5409246717
  0
LINE
  5
561
100
AcDbEntity
  8
0
100
AcDbLine
 62
7
  6
CONTINUOUS
 10
-95.3871051562
 20
-29.1767212089
 11
-95.388257867
 21
-29.1289942184
  0
LINE
  5
562
100
AcDbEntity
  8
RACCORDO
100
AcDbLine
 62
250
  6
CONTINUOUS
 10
-95.9869270611
 20
-26.0995707387
 11
-95.9871069046
 21
-26.0916532432
  0
LINE
  5
563
100
AcDbEntity
  8
SUPERFICI
100
AcDbLine
 62
7
  6
CONTINUOUS
 10
-95.3755212253
 20
-30.4469954936
 11
-95.3648338468
 21
-30.9772144858
  0
LINE
  5
564
100
AcDbEntity
  8
0
100
AcDbLine
 62
7
  6
CONTINUOUS
 10
-95.5873459474
 20
-29.1661523887
 11
-95.584576835
 21
-29.3099135921
  0
LINE
  5
565
100
AcDbEntity
  8
0
100
AcDbLine
 62
7
  6
CONTINUOUS
 10
-95.3833105259
 20
-29.3840072662
 11
-95.3871051562
 21
-29.1767212089
  0
LWPOLYLINE
  5
566
100
AcDbEntity
  8
RACCORDO
100
AcDbPolyline
 62
250
  6
CONTINUOUS
 90
3
 70
0
 10
-95.3795748682
 20
27.8463266665
 10
-95.3798327119
 20
27.8641727987
 10
-95.3801711159
 20
27.8705612029
  0
LINE
  5
567
100
AcDbEntity
  8
0
100
AcDbLine
 62
7
  6
CONTINUOUS
 10
-95.584576835
 20
-29.3099135921
 11
-95.5769830375
 21
-29.8175127289
  0
LINE
  5
568
100
AcDbEntity
  8
SUPERFICI
100
AcDbLine
 62
7
  6
CONTINUOUS
 10
-95.3829721837
 20
-29.9655086012
 11
-95.3755211965
 21
-30.4469971195
  0
LINE
  5
569
100
AcDbEntity
  8
0
100
AcDbLine
 62
7
  6
CONTINUOUS
 10
-95.3739483079
 20
-30.0579820712
 11
-95.3833105259
 21
-29.3840072662
  0
LINE
  5
56A
100
AcDbEntity
  8
0
100
AcDbLine
 62
7
  6
CONTINUOUS
 10
-95.5769830375
 20
-29.8175127289
 11
-95.5701289553
 21
-30.4068567718
  0
LINE
  5
56B
100
AcDbEntity
  8
SUPERFICI
100
AcDbLine
 62
7
  6
CONTINUOUS
 10
-95.3884230773
 20
-29.4612265746
 11
-95.3829721653
 21
-29.9655099941
  0
LINE
  5
56C
100
AcDbEntity
  8
SUPERFICI
100
AcDbLine
 62
7
  6
CONTINUOUS
 10
-95.3833766735
 20
27.4001077173
 11
-95.383701707
 21
27.4333993203
  0
LINE
  5
56D
100
AcDbEntity
  8
0
100
AcDbLine
 62
7
  6
CONTINUOUS
 10
-95.5701289553
 20
-30.4068567718
 11
-95.5665548027
 21
-30.8088806669
  0
LWPOLYLINE
  5
56E
100
AcDbEntity
  8
0
100
AcDbPolyline
 62
7
  6
CONTINUOUS
 90
3
 70
0
 10
-95.3665103961
 20
-30.8088806669
 10
-95.3667631214
 20
-30.7719994323
 10
-95.3739483079
 20
-30.0579820712
  0
LINE
  5
56F
100
AcDbEntity
  8
SUPERFICI
100
AcDbLine
 62
7
  6
CONTINUOUS
 10
-95.3913157543
 20
-28.9891317195
 11
-95.3884230773
 21
-29.4612265746
  0
LINE
  5
570
100
AcDbEntity
  8
SUPERFICI
100
AcDbLine
 62
7
  6
CONTINUOUS
 10
-95.383701707
 20
27.4333993203
 11
-95.3841562532
 21
27.5080829256
  0
LWPOLYLINE
  5
571
100
AcDbEntity
  8
SUPERFICI
100
AcDbPolyline
 62
250
  6
CONTINUOUS
 90
10
 70
0
 10
-95.3856360443
 20
-27.4001916463
 10
-95.3816989777
 20
-29.021695094
 10
-95.3570646846
 20
-30.6488358647
 10
-95.3115130672
 20
-32.2813787945
 10
-95.2446157687
 20
-33.9234165105
 10
-95.1562476082
 20
-35.5703960754
 10
-95.0471425481
 20
-37.2090658552
 10
-94.9179668154
 20
-38.8348143973
 10
-94.7687539602
 20
-40.4517140487
 10
-94.5998003721
 20
-42.0595094714
  0
LINE
  5
572
100
AcDbEntity
  8
SKEL_COPERCHIO
100
AcDbLine
 62
7
  6
CONTINUOUS
 10
-95.3850863642
 20
28.226507686
 11
-95.3844094742
 21
27.8996411522
  0
LINE
  5
573
100
AcDbEntity
  8
SKEL_COPERCHIO
100
AcDbLine
 62
7
  6
CONTINUOUS
 10
-95.3867103925
 20
-26.0605685289
 11
-95.3851690337
 21
-26.5652174757
  0
LINE
  5
574
100
AcDbEntity
  8
RACCORDO
100
AcDbLine
 62
250
  6
CONTINUOUS
 10
-95.9847399355
 20
26.0658941998
 11
-95.9848395741
 21
26.0985989851
  0
LINE
  5
575
100
AcDbEntity
  8
SUPERFICI
100
AcDbLine
 62
7
  6
CONTINUOUS
 10
-95.3867103381
 20
-26.0605814747
 11
-95.3850363058
 21
-26.6622162572
  0
LINE
  5
576
100
AcDbEntity
  8
RACCORDO
100
AcDbLine
 62
250
  6
CONTINUOUS
 10
-95.3715620192
 20
-18.0389518254
 11
-95.378372666
 21
-12.8547368671
  0
LINE
  5
577
100
AcDbEntity
  8
RACCORDO
100
AcDbLine
 62
250
  6
CONTINUOUS
 10
-95.378372666
 20
-12.8547368671
 11
-95.3839401338
 21
-7.3579397008
  0
LINE
  5
578
100
AcDbEntity
  8
RACCORDO
100
AcDbLine
 62
250
  6
CONTINUOUS
 10
-95.9871069046
 20
-26.0916532432
 11
-95.9872372873
 21
-26.0320869622
  0
LINE
  5
579
100
AcDbEntity
  8
0
100
AcDbLine
 62
7
  6
CONTINUOUS
 10
-95.3921217447
 20
-28.6081771767
 11
-95.3908275471
 21
-29.099855
  0
LINE
  5
57A
100
AcDbEntity
  8
RACCORDO
100
AcDbLine
 62
250
  6
CONTINUOUS
 10
-95.3615109846
 20
-22.763751906
 11
-95.3715620192
 21
-18.0389518254
  0
LINE
  5
57B
100
AcDbEntity
  8
RACCORDO
100
AcDbLine
 62
250
  6
CONTINUOUS
 10
-95.3793986026
 20
27.7706600107
 11
-95.3795748682
 21
27.8463266665
  0
LINE
  5
57C
100
AcDbEntity
  8
SUPERFICI
100
AcDbLine
 62
7
  6
CONTINUOUS
 10
-95.3840477617
 20
27.3992320284
 11
-95.3840353329
 21
27.3766606475
  0
LINE
  5
57D
100
AcDbEntity
  8
SKEL_COPERCHIO
100
AcDbLine
 62
7
  6
CONTINUOUS
 10
-95.3921287901
 20
-28.5696911734
 11
-95.3908271111
 21
-29.099862
  0
LINE
  5
57E
100
AcDbEntity
  8
RACCORDO
100
AcDbLine
 62
250
  6
CONTINUOUS
 10
-95.3839401338
 20
-7.3579397008
 11
-95.3861156251
 21
-3.8731957615
  0
LINE
  5
57F
100
AcDbEntity
  8
RACCORDO
100
AcDbLine
 62
250
  6
CONTINUOUS
 10
-95.3861156251
 20
-3.8731957615
 11
-95.3866776072
 21
-1.5682708956
  0
LINE
  5
580
100
AcDbEntity
  8
RACCORDO
100
AcDbLine
 62
7
  6
CONTINUOUS
 10
-97.286605295
 20
-22.9806471005
 11
-97.286605295
 21
22.9806471005
  0
LINE
  5
581
100
AcDbEntity
  8
RACCORDO
100
AcDbLine
 62
250
  6
CONTINUOUS
 10
-96.3040577014
 20
-23.9804947957
 11
-96.3040577014
 21
23.9804947957
  0
LINE
  5
582
100
AcDbEntity
  8
0
100
AcDbLine
 62
7
  6
CONTINUOUS
 10
-96.186605295
 20
25.5
 11
-96.186605295
 21
-25.5
  0
LINE
  5
583
100
AcDbEntity
  8
SUPERFICI
100
AcDbLine
 62
250
  6
CONTINUOUS
 10
-95.386605295
 20
27.4006664835
 11
-95.386605295
 21
-16.916451938
  0
LINE
  5
584
100
AcDbEntity
  8
SUPERFICI
100
AcDbLine
 62
7
  6
CONTINUOUS
 10
-95.386605295
 20
-16.916451938
 11
-95.386605295
 21
-24.1639575238
  0
LINE
  5
585
100
AcDbEntity
  8
SKEL_COPERCHIO
100
AcDbLine
 62
7
  6
CONTINUOUS
 10
-95.386605295
 20
-26.3209842108
 11
-95.386605295
 21
-27.0594518156
  0
LINE
  5
586
100
AcDbEntity
  8
SUPERFICI
100
AcDbLine
 62
250
  6
CONTINUOUS
 10
-95.386605295
 20
-24.1639575238
 11
-95.386605295
 21
-27.4060968561
  0
LINE
  5
587
100
AcDbEntity
  8
SUPERFICI
100
AcDbLine
 62
7
  6
CONTINUOUS
 10
-95.3839975688
 20
-9.2574878654
 11
-95.3839331521
 21
-10.256271748
  0
LINE
  5
588
100
AcDbEntity
  8
SUPERFICI
100
AcDbLine
 62
7
  6
CONTINUOUS
 10
-95.3840013246
 20
26.2749607922
 11
-95.384141979
 21
25.1211325572
  0
LINE
  5
589
100
AcDbEntity
  8
SUPERFICI
100
AcDbLine
 62
7
  6
CONTINUOUS
 10
-95.3865636546
 20
0.0000000002
 11
-95.3839975688
 21
-9.2574878654
  0
LINE
  5
58A
100
AcDbEntity
  8
RACCORDO
100
AcDbLine
 62
7
  6
CONTINUOUS
 10
-95.3866776072
 20
-1.5682708956
 11
-95.3870042078
 21
0.6058968974
  0
LINE
  5
58B
100
AcDbEntity
  8
SKEL_COPERCHIO
100
AcDbLine
 62
7
  6
CONTINUOUS
 10
-95.3865627217
 20
0.0000000002
 11
-95.3866221886
 21
-1.5682708887
  0
LINE
  5
58C
100
AcDbEntity
  8
SKEL_COPERCHIO
100
AcDbLine
 62
7
  6
CONTINUOUS
 10
-95.3887200597
 20
10.7655737961
 11
-95.3865634764
 21
0.0000000002
  0
LINE
  5
58D
100
AcDbEntity
  8
RACCORDO
100
AcDbLine
 62
7
  6
CONTINUOUS
 10
-95.3889600399
 20
9.6972268177
 11
-95.3887395629
 21
10.6878947002
  0
LINE
  5
58E
100
AcDbEntity
  8
SUPERFICI
100
AcDbLine
 62
7
  6
CONTINUOUS
 10
-95.3872823855
 20
15.0127452296
 11
-95.3865636622
 21
0.0000000002
  0
LINE
  5
58F
100
AcDbEntity
  8
0
100
AcDbLine
 62
7
  6
CONTINUOUS
 10
-95.3887541183
 20
10.6320361365
 11
-95.3867709328
 21
0.2772434335
  0
LINE
  5
590
100
AcDbEntity
  8
SUPERFICI
100
AcDbLine
 62
7
  6
CONTINUOUS
 10
-95.3847695599
 20
22.0542112254
 11
-95.3858825547
 21
18.6060623383
  0
LINE
  5
591
100
AcDbEntity
  8
RACCORDO
100
AcDbLine
 62
250
  6
CONTINUOUS
 10
-95.9865957806
 20
-0.000831956
 11
-95.985378527
 21
25.3192377435
  0
LINE
  5
592
100
AcDbEntity
  8
RACCORDO
100
AcDbLine
 62
250
  6
CONTINUOUS
 10
-95.3887395629
 20
10.6878947002
 11
-95.3859544604
 21
17.3270664773
  0
LINE
  5
593
100
AcDbEntity
  8
SUPERFICI
100
AcDbLine
 62
7
  6
CONTINUOUS
 10
-95.3921001258
 20
-28.4894590931
 11
-95.3913157543
 21
-28.9891317195
  0
LINE
  5
594
100
AcDbEntity
  8
RACCORDO
100
AcDbLine
 62
250
  6
CONTINUOUS
 10
-95.3807470458
 20
22.5399003423
 11
-95.3821784071
 21
26.037753751
  0
LINE
  5
595
100
AcDbEntity
  8
RACCORDO
100
AcDbLine
 62
250
  6
CONTINUOUS
 10
-95.985378527
 20
25.3192377435
 11
-95.9847399355
 21
26.0658941998
  0
LINE
  5
596
100
AcDbEntity
  8
RACCORDO
100
AcDbLine
 62
250
  6
CONTINUOUS
 10
-95.3821784071
 20
26.037753751
 11
-95.3815013256
 21
26.9392397827
  0
LINE
  5
597
100
AcDbEntity
  8
RACCORDO
100
AcDbLine
 62
250
  6
CONTINUOUS
 10
-95.3859544604
 20
17.3270664773
 11
-95.3807470458
 21
22.5399003423
  0
LINE
  5
598
100
AcDbEntity
  8
RACCORDO
100
AcDbLine
 62
250
  6
CONTINUOUS
 10
-95.981060407
 20
-23.4564143437
 11
-95.9865957806
 21
-0.000831956
  0
LWPOLYLINE
  5
599
100
AcDbEntity
  8
RACCORDO
100
AcDbPolyline
 62
250
  6
CONTINUOUS
 90
3
 70
0
 10
-95.9872372873
 20
-26.0320869622
 10
-95.9870244275
 20
-25.9189864024
 10
-95.9851964106
 20
-24.7332139665
  0
LINE
  5
59A
100
AcDbEntity
  8
SUPERFICI
100
AcDbLine
 62
7
  6
CONTINUOUS
 10
-95.3850363058
 20
-26.6622162572
 11
-95.3853689605
 21
-27.1048336452
  0
LINE
  5
59B
100
AcDbEntity
  8
RACCORDO
100
AcDbLine
 62
250
  6
CONTINUOUS
 10
-95.3626986821
 20
-23.3806383098
 11
-95.3615109846
 21
-22.763751906
  0
LINE
  5
59C
100
AcDbEntity
  8
SKEL_COPERCHIO
100
AcDbLine
 62
7
  6
CONTINUOUS
 10
-95.3851690337
 20
-26.5652174757
 11
-95.3855060824
 21
-27.149874602
  0
LINE
  5
59D
100
AcDbEntity
  8
RACCORDO
100
AcDbLine
 62
250
  6
CONTINUOUS
 10
-95.3815013256
 20
26.9392397827
 11
-95.3793986026
 21
27.7706600107
  0
LINE
  5
59E
100
AcDbEntity
  8
RACCORDO
100
AcDbLine
 62
250
  6
CONTINUOUS
 10
-95.9851964106
 20
-24.7332139665
 11
-95.981060407
 21
-23.4564143437
  0
LINE
  5
59F
100
AcDbEntity
  8
0
100
AcDbLine
 62
7
  6
CONTINUOUS
 10
-95.3911288856
 20
-28.0971029815
 11
-95.3921217447
 21
-28.6081771767
  0
LINE
  5
5A0
100
AcDbEntity
  8
SUPERFICI
100
AcDbLine
 62
250
  6
CONTINUOUS
 10
-95.3856360443
 20
-27.4001916514
 11
-95.3856344103
 21
-27.3997738242
  0
LINE
  5
5A1
100
AcDbEntity
  8
SKEL_COPERCHIO
100
AcDbLine
 62
7
  6
CONTINUOUS
 10
-95.390388339
 20
-27.9444737557
 11
-95.3921287901
 21
-28.5696911734
  0
LINE
  5
5A2
100
AcDbEntity
  8
SUPERFICI
100
AcDbLine
 62
7
  6
CONTINUOUS
 10
-95.3905816203
 20
-27.9806587513
 11
-95.3921001258
 21
-28.4894590931
  0
LINE
  5
5A3
100
AcDbEntity
  8
RACCORDO
100
AcDbLine
 62
250
  6
CONTINUOUS
 10
-95.3855799484
 20
-27.171633454
 11
-95.3813529006
 21
-25.8877988122
  0
LINE
  5
5A4
100
AcDbEntity
  8
RACCORDO
100
AcDbLine
 62
250
  6
CONTINUOUS
 10
-95.3661008174
 20
-24.028892031
 11
-95.3626986821
 21
-23.3806383098
  0
LINE
  5
5A5
100
AcDbEntity
  8
RACCORDO
100
AcDbLine
 62
7
  6
CONTINUOUS
 10
-95.38806268
 20
-27.5977913609
 11
-95.3855799484
 21
-27.171633454
  0
LINE
  5
5A6
100
AcDbEntity
  8
SUPERFICI
100
AcDbLine
 62
7
  6
CONTINUOUS
 10
-95.3853689605
 20
-27.1048336452
 11
-95.3872877856
 21
-27.4918085218
  0
LINE
  5
5A7
100
AcDbEntity
  8
SUPERFICI
100
AcDbLine
 62
7
  6
CONTINUOUS
 10
-95.3872877856
 20
-27.4918085218
 11
-95.3875519908
 21
-27.5287999764
  0
LINE
  5
5A8
100
AcDbEntity
  8
0
100
AcDbLine
 62
7
  6
CONTINUOUS
 10
-95.3886957216
 20
-27.683030816
 11
-95.3911258698
 21
-28.0963858996
  0
LINE
  5
5A9
100
AcDbEntity
  8
SKEL_COPERCHIO
100
AcDbLine
 62
7
  6
CONTINUOUS
 10
-95.3855060828
 20
-27.1498747334
 11
-95.3907221059
 21
-28.0083364155
  0
LINE
  5
5AA
100
AcDbEntity
  8
SUPERFICI
100
AcDbLine
 62
7
  6
CONTINUOUS
 10
-95.3875519908
 20
-27.5287999764
 11
-95.3905816173
 21
-27.9806581809
  0
LINE
  5
5AB
100
AcDbEntity
  8
0
100
AcDbLine
 62
7
  6
CONTINUOUS
 10
-95.385629236
 20
-27.1852483248
 11
-95.3886957216
 21
-27.683030816
  0
LINE
  5
5AC
100
AcDbEntity
  8
RACCORDO
100
AcDbLine
 62
250
  6
CONTINUOUS
 10
-95.3813529006
 20
-25.8877988122
 11
-95.3661008174
 21
-24.028892031
  0
LINE
  5
5AD
100
AcDbEntity
  8
RACCORDO
100
AcDbLine
 62
7
  6
CONTINUOUS
 10
-95.3786659527
 20
28.6731039938
 11
-95.3865190723
 21
27.8996367835
  0
LWPOLYLINE
  5
5AE
100
AcDbEntity
  8
RACCORDO
100
AcDbPolyline
 62
7
  6
CONTINUOUS
 90
3
 70
0
 10
-95.3801655181
 20
27.8705611314
 10
-95.3902890433
 20
27.6596790561
 10
-95.4152191837
 20
27.4500312492
  0
LWPOLYLINE
  5
5AF
100
AcDbEntity
  8
SKEL_COPERCHIO
100
AcDbPolyline
 62
7
  6
CONTINUOUS
 90
27
 70
0
 10
-92.1587722507
 20
38.725592763
 10
-92.144857454
 20
38.9569421628
 10
-92.1337481774
 20
39.1831418989
 10
-92.125768468
 20
39.4033110313
 10
-92.1205942786
 20
39.6167791705
 10
-92.1172534677
 20
39.8230780146
 10
-92.1156723976
 20
40.0214991984
 10
-92.1159247059
 20
40.2116897017
 10
-92.1172591644
 20
40.3937759828
 10
-92.1195585501
 20
40.5671245056
 10
-92.122940086
 20
40.7316421185
 10
-92.1270042128
 20
40.8881594696
 10
-92.1316254538
 20
41.036221836
 10
-92.1369292856
 20
41.1755440677
 10
-92.1428925786
 20
41.3069056104
 10
-92.1494257477
 20
41.4302035938
 10
-92.156618378
 20
41.5444717983
 10
-92.1647160956
 20
41.6490605301
 10
-92.1736593053
 20
41.7436283146
 10
-92.1835076023
 20
41.8277394792
 10
-92.194685398
 20
41.9008107766
 10
-92.2072442652
 20
41.9627763658
 10
-92.2211326311
 20
42.0133240263
 10
-92.2366201896
 20
42.0520085528
 10
-92.2537968387
 20
42.0790256161
 10
-92.2725726805
 20
42.0948338913
 10
-92.2929477149
 20
42.0997757343
  0
LINE
  5
5B0
100
AcDbEntity
  8
SUPERFICI
100
AcDbLine
 62
7
  6
CONTINUOUS
 10
-92.144872054
 20
38.9572251823
 11
-92.1591549276
 21
38.7192268243
  0
LINE
  5
5B1
100
AcDbEntity
  8
SUPERFICI
100
AcDbLine
 62
7
  6
CONTINUOUS
 10
-92.2640608168
 20
37.1768746745
 11
-92.2214117374
 21
37.8588942327
  0
LINE
  5
5B2
100
AcDbEntity
  8
SUPERFICI
100
AcDbLine
 62
7
  6
CONTINUOUS
 10
-92.1587924474
 20
38.7259760381
 11
-92.2226142393
 21
37.8364775546
  0
LWPOLYLINE
  5
5B3
100
AcDbEntity
  8
RACCORDO
100
AcDbPolyline
 62
250
  6
CONTINUOUS
 90
25
 70
0
 10
-92.4391558082
 20
37.7875961538
 10
-92.360470474
 20
38.756704701
 10
-92.3482239624
 20
38.9341033783
 10
-92.3382631025
 20
39.1106367353
 10
-92.3304881834
 20
39.2854270443
 10
-92.3247565438
 20
39.4577579021
 10
-92.3209224336
 20
39.6269795179
 10
-92.3188447214
 20
39.7924747692
 10
-92.3183902662
 20
39.9533423599
 10
-92.3194169498
 20
40.1085189531
 10
-92.3217831414
 20
40.2570890437
 10
-92.3253959744
 20
40.3986400393
 10
-92.3301848356
 20
40.5328429213
 10
-92.336099989
 20
40.6593411537
 10
-92.3431310047
 20
40.7771281666
 10
-92.351260954
 20
40.8849969652
 10
-92.3605163157
 20
40.9825878909
 10
-92.3709538281
 20
41.0694041503
 10
-92.3825659026
 20
41.1445089656
 10
-92.3954190128
 20
41.2079101916
 10
-92.4095746841
 20
41.2596612389
 10
-92.4249373267
 20
41.2995879064
 10
-92.4414577603
 20
41.3281325601
 10
-92.4591718963
 20
41.3460218
 10
-92.4780275262
 20
41.3539264326
  0
LINE
  5
5B4
100
AcDbEntity
  8
SUPERFICI
100
AcDbLine
 62
7
  6
CONTINUOUS
 10
-90.7765755417
 20
38.642805178
 11
-90.8359048403
 21
38.0378400041
  0
LWPOLYLINE
  5
5B5
100
AcDbEntity
  8
RACCORDO
100
AcDbPolyline
 62
7
  6
CONTINUOUS
 90
8
 70
0
 10
-68.612726584
 20
17.9868217759
 10
-68.6368712493
 20
17.9782676015
 10
-68.6620122374
 20
17.9673719186
 10
-68.6877561864
 20
17.9540913977
 10
-68.7139091551
 20
17.9390921423
 10
-68.7402391071
 20
17.9226271871
 10
-68.7664639629
 20
17.9045514061
 10
-68.7923589985
 20
17.8849401429
  0
LINE
  5
5B6
100
AcDbEntity
  8
SUPERFICI
100
AcDbLine
 62
7
  6
CONTINUOUS
 10
-93.5320622291
 20
-31.6080416776
 11
-93.5521197581
 21
-30.8488845195
  0
LINE
  5
5B7
100
AcDbEntity
  8
SUPERFICI
100
AcDbLine
 62
7
  6
CONTINUOUS
 10
-93.5611168632
 20
-31.1151810766
 11
-93.546566382
 21
-31.6608384462
  0
LINE
  5
5B8
100
AcDbEntity
  8
SUPERFICI
100
AcDbLine
 62
7
  6
CONTINUOUS
 10
-93.5724824099
 20
-30.5941568737
 11
-93.5611168632
 21
-31.1151810766
  0
LINE
  5
5B9
100
AcDbEntity
  8
SUPERFICI
100
AcDbLine
 62
7
  6
CONTINUOUS
 10
-93.58084777
 20
-30.1048698635
 11
-93.5724824099
 21
-30.5941568737
  0
LWPOLYLINE
  5
5BA
100
AcDbEntity
  8
SUPERFICI
100
AcDbPolyline
 62
7
  6
CONTINUOUS
 90
3
 70
0
 10
-91.3137159994
 20
-37.5094137669
 10
-91.3204655612
 20
-36.9960142718
 10
-91.3257819511
 20
-36.4960055588
  0
LINE
  5
5BB
100
AcDbEntity
  8
RACCORDO
100
AcDbLine
 62
250
  6
CONTINUOUS
 10
-91.9303491952
 20
-38.49
 11
-91.939077443
 21
-37.8707641023
  0
LWPOLYLINE
  5
5BC
100
AcDbEntity
  8
SUPERFICI
100
AcDbPolyline
 62
7
  6
CONTINUOUS
 90
5
 70
0
 10
-93.571994992
 20
-29.8199777987
 10
-93.5801092788
 20
-29.180889581
 10
-93.5848533574
 20
-28.5660356521
 10
-93.5865827352
 20
-27.9744836705
 10
-93.5856455009
 20
-27.4061513895
  0
LINE
  5
5BD
100
AcDbEntity
  8
SUPERFICI
100
AcDbLine
 62
7
  6
CONTINUOUS
 10
-92.1195595467
 20
40.5671060996
 11
-92.1170016195
 21
40.3689128114
  0
LINE
  5
5BE
100
AcDbEntity
  8
RACCORDO
100
AcDbLine
 62
250
  6
CONTINUOUS
 10
-92.8759523912
 20
-38.5050511515
 11
-92.8839987513
 21
-37.8828251451
  0
LINE
  5
5BF
100
AcDbEntity
  8
SUPERFICI
100
AcDbLine
 62
7
  6
CONTINUOUS
 10
-93.5865933674
 20
-29.6480535603
 11
-93.58084777
 21
-30.1048698635
  0
LINE
  5
5C0
100
AcDbEntity
  8
SUPERFICI
100
AcDbLine
 62
7
  6
CONTINUOUS
 10
-91.325517681
 20
-36.5239858254
 11
-91.3202403549
 21
-37.0158427658
  0
LINE
  5
5C1
100
AcDbEntity
  8
RACCORDO
100
AcDbLine
 62
250
  6
CONTINUOUS
 10
-91.939077443
 20
-37.8707641023
 11
-91.9468573164
 21
-37.1691619722
  0
LINE
  5
5C2
100
AcDbEntity
  8
RACCORDO
100
AcDbLine
 62
250
  6
CONTINUOUS
 10
-92.8839987513
 20
-37.8828251451
 11
-92.8910835041
 21
-37.1784447961
  0
LINE
  5
5C3
100
AcDbEntity
  8
SUPERFICI
100
AcDbLine
 62
7
  6
CONTINUOUS
 10
-92.6811165587
 20
-37.112942338
 11
-92.6689289171
 21
-38.4899998103
  0
LWPOLYLINE
  5
5C4
100
AcDbEntity
  8
SKEL_COPERCHIO
100
AcDbPolyline
 62
7
  6
CONTINUOUS
 90
4
 70
0
 10
-92.6758319043
 20
-37.805286765
 10
-92.6814889613
 20
-37.1179639303
 10
-92.6859000895
 20
-36.4280313686
 10
-92.6888665618
 20
-35.7344532957
  0
LINE
  5
5C5
100
AcDbEntity
  8
RACCORDO
100
AcDbLine
 62
250
  6
CONTINUOUS
 10
-91.9468573164
 20
-37.1691619722
 11
-91.9534835933
 21
-36.3721684483
  0
LINE
  5
5C6
100
AcDbEntity
  8
SUPERFICI
100
AcDbLine
 62
7
  6
CONTINUOUS
 10
-91.3332843731
 20
-35.5421288272
 11
-91.325517681
 21
-36.5239858254
  0
LINE
  5
5C7
100
AcDbEntity
  8
SUPERFICI
100
AcDbLine
 62
7
  6
CONTINUOUS
 10
-92.6859667135
 20
-36.4144523758
 11
-92.6810723643
 21
-37.1223505093
  0
LINE
  5
5C8
100
AcDbEntity
  8
RACCORDO
100
AcDbLine
 62
250
  6
CONTINUOUS
 10
-92.8910835041
 20
-37.1784447961
 11
-92.8970143839
 21
-36.378942643
  0
LINE
  5
5C9
100
AcDbEntity
  8
SUPERFICI
100
AcDbLine
 62
7
  6
CONTINUOUS
 10
-92.6689289171
 20
-38.4899998103
 11
-92.6680118794
 21
-38.6331612005
  0
LINE
  5
5CA
100
AcDbEntity
  8
SUPERFICI
100
AcDbLine
 62
7
  6
CONTINUOUS
 10
-92.668016505
 20
-38.6349797363
 11
-92.6689289197
 21
-38.489999408
  0
LINE
  5
5CB
100
AcDbEntity
  8
SUPERFICI
100
AcDbLine
 62
7
  6
CONTINUOUS
 10
-92.1172591644
 20
40.3937759828
 11
-92.1158388104
 21
40.1861744148
  0
LINE
  5
5CC
100
AcDbEntity
  8
SUPERFICI
100
AcDbLine
 62
7
  6
CONTINUOUS
 10
-91.3299370723
 20
-35.9970253379
 11
-91.3366790587
 21
-34.9956858171
  0
LINE
  5
5CD
100
AcDbEntity
  8
SUPERFICI
100
AcDbLine
 62
7
  6
CONTINUOUS
 10
-93.5904735395
 20
-29.1623275757
 11
-93.5865933674
 21
-29.6480535603
  0
LINE
  5
5CE
100
AcDbEntity
  8
RACCORDO
100
AcDbLine
 62
250
  6
CONTINUOUS
 10
-91.9534835933
 20
-36.3721684483
 11
-91.9587852516
 21
-35.4678664593
  0
LINE
  5
5CF
100
AcDbEntity
  8
SUPERFICI
100
AcDbLine
 62
7
  6
CONTINUOUS
 10
-92.6890770869
 20
-35.7162504364
 11
-92.6859000895
 21
-36.4280313686
  0
LINE
  5
5D0
100
AcDbEntity
  8
RACCORDO
100
AcDbLine
 62
250
  6
CONTINUOUS
 10
-92.8970143839
 20
-36.378942643
 11
-92.9016233992
 21
-35.4724765333
  0
LINE
  5
5D1
100
AcDbEntity
  8
SUPERFICI
100
AcDbLine
 62
7
  6
CONTINUOUS
 10
-91.336378406
 20
-35.0501024457
 11
-91.3410496972
 21
-33.9974019955
  0
LINE
  5
5D2
100
AcDbEntity
  8
SUPERFICI
100
AcDbLine
 62
7
  6
CONTINUOUS
 10
-93.5838975687
 20
27.4657146285
 11
-93.5841794046
 21
27.5179302436
  0
LINE
  5
5D3
100
AcDbEntity
  8
RACCORDO
100
AcDbLine
 62
250
  6
CONTINUOUS
 10
-91.9587852516
 20
-35.4678664593
 11
-91.9626638812
 21
-34.4444108316
  0
LINE
  5
5D4
100
AcDbEntity
  8
RACCORDO
100
AcDbLine
 62
250
  6
CONTINUOUS
 10
-92.9016233992
 20
-35.4724765333
 11
-92.904810671
 21
-34.4472380458
  0
LINE
  5
5D5
100
AcDbEntity
  8
RACCORDO
100
AcDbLine
 62
250
  6
CONTINUOUS
 10
-91.9737637627
 20
-15.1270173513
 11
-92.0036469791
 21
-5.4223130905
  0
LINE
  5
5D6
100
AcDbEntity
  8
SUPERFICI
100
AcDbLine
 62
7
  6
CONTINUOUS
 10
-92.6861300202
 20
-12.2840732781
 11
-92.7093181158
 21
-3.5610656538
  0
LINE
  5
5D7
100
AcDbEntity
  8
RACCORDO
100
AcDbLine
 62
250
  6
CONTINUOUS
 10
-92.0036469791
 20
-5.4223130905
 11
-92.0093790206
 21
-3.1934561734
  0
LINE
  5
5D8
100
AcDbEntity
  8
RACCORDO
100
AcDbLine
 62
250
  6
CONTINUOUS
 10
-92.9353308677
 20
-5.4256544918
 11
-92.9407021182
 21
-3.1959318033
  0
LINE
  5
5D9
100
AcDbEntity
  8
RACCORDO
100
AcDbLine
 62
250
  6
CONTINUOUS
 10
-92.9079076205
 20
-15.1298056214
 11
-92.9353308677
 21
-5.4256544918
  0
LINE
  5
5DA
100
AcDbEntity
  8
SKEL_COPERCHIO
100
AcDbLine
 62
7
  6
CONTINUOUS
 10
-92.6826908114
 20
-13.8918303304
 11
-92.7076695401
 21
-4.2726892963
  0
LWPOLYLINE
  5
5DB
100
AcDbEntity
  8
SUPERFICI
100
AcDbPolyline
 62
250
  6
CONTINUOUS
 90
10
 70
0
 10
-93.5856500313
 20
-27.4072876375
 10
-93.5831721262
 20
-28.8323589541
 10
-93.5644827312
 20
-30.2621993659
 10
-93.5294255662
 20
-31.6965771121
 10
-93.4776731725
 20
-33.1390793873
 10
-93.4091343977
 20
-34.5858109182
 10
-93.3243755121
 20
-36.0253442107
 10
-93.2239129046
 20
-37.4537302828
 10
-93.1077793389
 20
-38.874534485
 10
-92.9762075391
 20
-40.2875751951
  0
LINE
  5
5DC
100
AcDbEntity
  8
SKEL_COPERCHIO
100
AcDbLine
 62
7
  6
CONTINUOUS
 10
-92.7076695401
 20
-4.2726892963
 11
-92.712056164
 21
-2.1383868421
  0
LINE
  5
5DD
100
AcDbEntity
  8
SUPERFICI
100
AcDbLine
 62
7
  6
CONTINUOUS
 10
-92.6916805573
 20
-34.3203133718
 11
-92.6890099
 21
-35.7331925193
  0
LINE
  5
5DE
100
AcDbEntity
  8
SKEL_COPERCHIO
100
AcDbLine
 62
7
  6
CONTINUOUS
 10
-92.6888665618
 20
-35.7344532957
 11
-92.6916579019
 21
-34.342575322
  0
LINE
  5
5DF
100
AcDbEntity
  8
SUPERFICI
100
AcDbLine
 62
7
  6
CONTINUOUS
 10
-92.6864965418
 20
-12.1287209704
 11
-92.6800896282
 21
-15.3908419274
  0
LINE
  5
5E0
100
AcDbEntity
  8
RACCORDO
100
AcDbLine
 62
250
  6
CONTINUOUS
 10
-91.9626638812
 20
-34.4444108316
 11
-91.9651107002
 21
-33.2892085457
  0
LINE
  5
5E1
100
AcDbEntity
  8
SUPERFICI
100
AcDbLine
 62
7
  6
CONTINUOUS
 10
-92.7077719332
 20
-4.2303709564
 11
-92.7130262709
 21
-1.4237583371
  0
LINE
  5
5E2
100
AcDbEntity
  8
RACCORDO
100
AcDbLine
 62
250
  6
CONTINUOUS
 10
-92.0093790206
 20
-3.1934561734
 11
-92.0117034408
 21
-1.8487126724
  0
LINE
  5
5E3
100
AcDbEntity
  8
SUPERFICI
100
AcDbLine
 62
7
  6
CONTINUOUS
 10
-93.5867068898
 20
-26.0576243888
 11
-93.5850384555
 21
-26.6590404264
  0
LINE
  5
5E4
100
AcDbEntity
  8
SUPERFICI
100
AcDbLine
 62
7
  6
CONTINUOUS
 10
-93.5920959062
 20
-28.6539026737
 11
-93.5904735395
 21
-29.1623275757
  0
LINE
  5
5E5
100
AcDbEntity
  8
RACCORDO
100
AcDbLine
 62
250
  6
CONTINUOUS
 10
-92.904810671
 20
-34.4472380458
 11
-92.9065650562
 21
-33.2906510107
  0
LINE
  5
5E6
100
AcDbEntity
  8
SKEL_COPERCHIO
100
AcDbLine
 62
7
  6
CONTINUOUS
 10
-92.6776936268
 20
-17.3949469213
 11
-92.6826908114
 21
-13.8918303304
  0
LINE
  5
5E7
100
AcDbEntity
  8
RACCORDO
100
AcDbLine
 62
250
  6
CONTINUOUS
 10
-91.9648624067
 20
-20.3005230631
 11
-91.9737637627
 21
-15.1270173513
  0
LINE
  5
5E8
100
AcDbEntity
  8
RACCORDO
100
AcDbLine
 62
250
  6
CONTINUOUS
 10
-92.9407021182
 20
-3.1959318033
 11
-92.9434729014
 21
-1.2105414578
  0
LINE
  5
5E9
100
AcDbEntity
  8
RACCORDO
100
AcDbLine
 62
250
  6
CONTINUOUS
 10
-92.9012537822
 20
-19.6300947631
 11
-92.9079076205
 21
-15.1298056214
  0
LINE
  5
5EA
100
AcDbEntity
  8
SUPERFICI
100
AcDbLine
 62
7
  6
CONTINUOUS
 10
-92.6922671632
 20
-33.6214044694
 11
-92.6916579019
 21
-34.342575322
  0
LINE
  5
5EB
100
AcDbEntity
  8
SUPERFICI
100
AcDbLine
 62
7
  6
CONTINUOUS
 10
-92.6811646372
 20
-14.7277842485
 11
-92.6771285174
 21
-18.1090486721
  0
LWPOLYLINE
  5
5EC
100
AcDbEntity
  8
SUPERFICI
100
AcDbPolyline
 62
7
  6
CONTINUOUS
 90
3
 70
0
 10
-93.5841773998
 20
27.5171189864
 10
-93.5840474831
 20
27.399569981
 10
-93.5840348413
 20
27.3765122414
  0
LINE
  5
5ED
100
AcDbEntity
  8
SKEL_COPERCHIO
100
AcDbLine
 62
7
  6
CONTINUOUS
 10
-92.712056164
 20
-2.1383868421
 11
-92.7140300121
 21
-0.0
  0
LWPOLYLINE
  5
5EE
100
AcDbEntity
  8
RACCORDO
100
AcDbPolyline
 62
250
  6
CONTINUOUS
 90
3
 70
0
 10
-92.0117034408
 20
-1.8487126724
 10
-92.0126871654
 20
-0.5926536774
 10
-92.0126862115
 20
0.0006019772
  0
LINE
  5
5EF
100
AcDbEntity
  8
SUPERFICI
100
AcDbLine
 62
7
  6
CONTINUOUS
 10
-92.7140300121
 20
-0.0
 11
-92.7120922057
 21
-2.1157246752
  0
LINE
  5
5F0
100
AcDbEntity
  8
SUPERFICI
100
AcDbLine
 62
7
  6
CONTINUOUS
 10
-92.6777085437
 20
-17.394293376
 11
-92.6764181317
 21
-19.9867485567
  0
LINE
  5
5F1
100
AcDbEntity
  8
SUPERFICI
100
AcDbLine
 62
7
  6
CONTINUOUS
 10
-92.115923747
 20
40.2118844311
 11
-92.1157884124
 21
39.9955222373
  0
LINE
  5
5F2
100
AcDbEntity
  8
RACCORDO
100
AcDbLine
 62
250
  6
CONTINUOUS
 10
-91.9651107002
 20
-33.2892085457
 11
-91.966319603
 21
-31.6408910637
  0
LINE
  5
5F3
100
AcDbEntity
  8
SUPERFICI
100
AcDbLine
 62
250
  6
CONTINUOUS
 10
-93.586605295
 20
27.8932966899
 11
-93.586605295
 21
-16.916451938
  0
LINE
  5
5F4
100
AcDbEntity
  8
SUPERFICI
100
AcDbLine
 62
7
  6
CONTINUOUS
 10
-93.586605295
 20
-16.916451938
 11
-93.586605295
 21
-24.1639575238
  0
LINE
  5
5F5
100
AcDbEntity
  8
SUPERFICI
100
AcDbLine
 62
250
  6
CONTINUOUS
 10
-93.586605295
 20
-24.1639575238
 11
-93.586605295
 21
-27.408089163
  0
LINE
  5
5F6
100
AcDbEntity
  8
SUPERFICI
100
AcDbLine
 62
7
  6
CONTINUOUS
 10
-93.5839991237
 20
-9.2487015278
 11
-93.5839327848
 21
-10.2467586535
  0
LINE
  5
5F7
100
AcDbEntity
  8
SUPERFICI
100
AcDbLine
 62
7
  6
CONTINUOUS
 10
-93.58400099
 20
26.2708461958
 11
-93.5841405971
 21
25.1265629731
  0
LINE
  5
5F8
100
AcDbEntity
  8
SUPERFICI
100
AcDbLine
 62
7
  6
CONTINUOUS
 10
-93.5865636308
 20
-0.0003144625
 11
-93.5839991237
 21
-9.2487015278
  0
LINE
  5
5F9
100
AcDbEntity
  8
RACCORDO
100
AcDbLine
 62
250
  6
CONTINUOUS
 10
-92.9434729014
 20
-1.2105414578
 11
-92.943703223
 21
-0.0004630044
  0
LINE
  5
5FA
100
AcDbEntity
  8
RACCORDO
100
AcDbLine
 62
250
  6
CONTINUOUS
 10
-92.9001639522
 20
-22.8127779788
 11
-92.9012537822
 21
-19.6300947631
  0
LINE
  5
5FB
100
AcDbEntity
  8
SKEL_COPERCHIO
100
AcDbLine
 62
7
  6
CONTINUOUS
 10
-92.6916579019
 20
-34.342575322
 11
-92.692012559
 21
-32.9526286676
  0
LINE
  5
5FC
100
AcDbEntity
  8
SKEL_COPERCHIO
100
AcDbLine
 62
7
  6
CONTINUOUS
 10
-92.6764957771
 20
-21.1009369157
 11
-92.6776936268
 21
-17.3949469213
  0
LINE
  5
5FD
100
AcDbEntity
  8
RACCORDO
100
AcDbLine
 62
250
  6
CONTINUOUS
 10
-91.9632945554
 20
-24.5247323581
 11
-91.9648624067
 21
-20.3005230631
  0
LINE
  5
5FE
100
AcDbEntity
  8
SUPERFICI
100
AcDbLine
 62
7
  6
CONTINUOUS
 10
-93.5873949243
 20
14.6281188232
 11
-93.5865635888
 21
0.0012519936
  0
LINE
  5
5FF
100
AcDbEntity
  8
SUPERFICI
100
AcDbLine
 62
7
  6
CONTINUOUS
 10
-93.5847673581
 20
22.0496921358
 11
-93.5858686592
 21
18.602622616
  0
LINE
  5
600
100
AcDbEntity
  8
RACCORDO
100
AcDbLine
 62
250
  6
CONTINUOUS
 10
-92.9065650562
 20
-33.2906510107
 11
-92.9068999321
 21
-31.6411599945
  0
LINE
  5
601
100
AcDbEntity
  8
RACCORDO
100
AcDbLine
 62
250
  6
CONTINUOUS
 10
-91.966319603
 20
-31.6408910637
 11
-91.9662234691
 21
-30.5326909316
  0
LINE
  5
602
100
AcDbEntity
  8
RACCORDO
100
AcDbLine
 62
250
  6
CONTINUOUS
 10
-91.9662234691
 20
-30.5326909316
 11
-91.9659022624
 21
-29.7404687575
  0
LWPOLYLINE
  5
603
100
AcDbEntity
  8
RACCORDO
100
AcDbPolyline
 62
250
  6
CONTINUOUS
 90
7
 70
0
 10
-92.9437045992
 20
-0.0004630037
 10
-92.9427418362
 20
1.4728155634
 10
-92.9358901862
 20
3.00091836
 10
-92.9241100735
 20
4.5837750758
 10
-92.9083030252
 20
6.2392502062
 10
-92.8895292041
 20
7.9494910672
 10
-92.82984435
 20
13.0901296692
  0
LINE
  5
604
100
AcDbEntity
  8
RACCORDO
100
AcDbLine
 62
250
  6
CONTINUOUS
 10
-92.9068999321
 20
-31.6411599945
 11
-92.906535535
 21
-30.9123384173
  0
LINE
  5
605
100
AcDbEntity
  8
RACCORDO
100
AcDbLine
 62
250
  6
CONTINUOUS
 10
-92.901114769
 20
-25.0654815047
 11
-92.9001639522
 21
-22.8127779788
  0
LINE
  5
606
100
AcDbEntity
  8
SUPERFICI
100
AcDbLine
 62
7
  6
CONTINUOUS
 10
-92.676550682
 20
-19.2472862044
 11
-92.6773934573
 21
-22.7173394817
  0
LINE
  5
607
100
AcDbEntity
  8
RACCORDO
100
AcDbLine
 62
250
  6
CONTINUOUS
 10
-91.9659022624
 20
-29.7404687575
 11
-91.9632945554
 21
-24.5247323581
  0
LINE
  5
608
100
AcDbEntity
  8
RACCORDO
100
AcDbLine
 62
250
  6
CONTINUOUS
 10
-92.906535535
 20
-30.9123384173
 11
-92.901114769
 21
-25.0654815047
  0
LINE
  5
609
100
AcDbEntity
  8
SUPERFICI
100
AcDbLine
 62
7
  6
CONTINUOUS
 10
-92.6768638748
 20
-21.9987892581
 11
-92.6801734109
 21
-25.1840836755
  0
LINE
  5
60A
100
AcDbEntity
  8
SKEL_COPERCHIO
100
AcDbLine
 62
7
  6
CONTINUOUS
 10
-92.692012559
 20
-32.9526286676
 11
-92.6898920707
 21
-30.8943322442
  0
LINE
  5
60B
100
AcDbEntity
  8
SUPERFICI
100
AcDbLine
 62
7
  6
CONTINUOUS
 10
-92.6922584334
 20
-33.6463764464
 11
-92.6898908469
 21
-30.8944323726
  0
LWPOLYLINE
  5
60C
100
AcDbEntity
  8
SKEL_COPERCHIO
100
AcDbPolyline
 62
7
  6
CONTINUOUS
 90
3
 70
0
 10
-92.682649755
 20
-26.7792277194
 10
-92.6814654649
 20
-26.0522407278
 10
-92.6764957771
 20
-21.1009369157
  0
LWPOLYLINE
  5
60D
100
AcDbEntity
  8
RACCORDO
100
AcDbPolyline
 62
250
  6
CONTINUOUS
 90
5
 70
0
 10
-92.0126862115
 20
0.0006019772
 10
-92.0102106646
 20
1.4699929648
 10
-92.0039068556
 20
2.9948985448
 10
-91.9937747845
 20
4.5753187171
 10
-91.9786728701
 20
6.2291785426
  0
LINE
  5
60E
100
AcDbEntity
  8
SKEL_COPERCHIO
100
AcDbLine
 62
7
  6
CONTINUOUS
 10
-92.6898920707
 20
-30.8943322442
 11
-92.682649755
 21
-26.7792277194
  0
LINE
  5
60F
100
AcDbEntity
  8
SUPERFICI
100
AcDbLine
 62
7
  6
CONTINUOUS
 10
-92.6909175216
 20
-31.5395542775
 11
-92.6792565037
 21
-24.5283092697
  0
LINE
  5
610
100
AcDbEntity
  8
SUPERFICI
100
AcDbLine
 62
7
  6
CONTINUOUS
 10
-92.7118928844
 20
0.9370815978
 11
-92.7140300121
 21
-0.0
  0
LINE
  5
611
100
AcDbEntity
  8
SUPERFICI
100
AcDbLine
 62
7
  6
CONTINUOUS
 10
-93.5850384555
 20
-26.6590404264
 11
-93.5853635447
 21
-27.1052724992
  0
LWPOLYLINE
  5
612
100
AcDbEntity
  8
SKEL_COPERCHIO
100
AcDbPolyline
 62
7
  6
CONTINUOUS
 90
5
 70
0
 10
-92.7140300121
 20
-0.0
 10
-92.7115780977
 20
0.9246526183
 10
-92.70761841
 20
1.8498603979
 10
-92.7021509489
 20
2.7756233386
 10
-92.694904137
 20
3.7021882822
  0
LINE
  5
613
100
AcDbEntity
  8
SUPERFICI
100
AcDbLine
 62
7
  6
CONTINUOUS
 10
-93.5912397963
 20
-28.1276767517
 11
-93.5920959062
 21
-28.6539026737
  0
LINE
  5
614
100
AcDbEntity
  8
SUPERFICI
100
AcDbLine
 62
7
  6
CONTINUOUS
 10
-93.5853635447
 20
-27.1052724992
 11
-93.5858262003
 21
-27.2387568653
  0
LINE
  5
615
100
AcDbEntity
  8
SUPERFICI
100
AcDbLine
 62
7
  6
CONTINUOUS
 10
-92.7119243105
 20
0.9270593639
 11
-92.7077759094
 21
1.8745397837
  0
LINE
  5
616
100
AcDbEntity
  8
SUPERFICI
100
AcDbLine
 62
7
  6
CONTINUOUS
 10
-92.6686914768
 20
-38.7803337595
 11
-92.6680118794
 21
-38.6331612005
  0
LINE
  5
617
100
AcDbEntity
  8
SUPERFICI
100
AcDbLine
 62
7
  6
CONTINUOUS
 10
-92.7078980227
 20
1.8517861593
 11
-92.7018748403
 21
2.8138841933
  0
LINE
  5
618
100
AcDbEntity
  8
SKEL_COPERCHIO
100
AcDbLine
 62
7
  6
CONTINUOUS
 10
-92.5173452696
 20
20.9909420164
 11
-92.4770825059
 21
27.2292215211
  0
LINE
  5
619
100
AcDbEntity
  8
SUPERFICI
100
AcDbLine
 62
7
  6
CONTINUOUS
 10
-93.5859554441
 20
-27.2683852335
 11
-93.5874359576
 21
-27.5191324091
  0
LINE
  5
61A
100
AcDbEntity
  8
RACCORDO
100
AcDbLine
 62
250
  6
CONTINUOUS
 10
-92.7470747487
 20
22.1086943394
 11
-92.7208427898
 21
25.9012010012
  0
LINE
  5
61B
100
AcDbEntity
  8
SUPERFICI
100
AcDbLine
 62
7
  6
CONTINUOUS
 10
-93.5874359576
 20
-27.5191324091
 11
-93.5912397963
 21
-28.1276767517
  0
LINE
  5
61C
100
AcDbEntity
  8
SKEL_COPERCHIO
100
AcDbLine
 62
7
  6
CONTINUOUS
 10
-92.4770825059
 20
27.2292215211
 11
-92.4668878449
 21
28.604512193
  0
LWPOLYLINE
  5
61D
100
AcDbEntity
  8
RACCORDO
100
AcDbPolyline
 62
250
  6
CONTINUOUS
 90
14
 70
0
 10
-91.7919869218
 20
25.8943682108
 10
-91.7828547903
 20
27.0717510155
 10
-91.7731955053
 20
28.2093611782
 10
-91.7628461023
 20
29.3068614667
 10
-91.7501374021
 20
30.3701240781
 10
-91.7353113924
 20
31.4001596403
 10
-91.7181260855
 20
32.3959575253
 10
-91.6961863382
 20
33.3603580464
 10
-91.6697311067
 20
34.2944226841
 10
-91.6385214348
 20
35.1970899578
 10
-91.599445311
 20
36.0680157391
 10
-91.5514653983
 20
36.9070853185
 10
-91.4956190338
 20
37.7144134055
 10
-91.4319062174
 20
38.49
  0
LWPOLYLINE
  5
61E
100
AcDbEntity
  8
RACCORDO
100
AcDbPolyline
 62
250
  6
CONTINUOUS
 90
12
 70
0
 10
-92.7208427898
 20
25.9012010012
 10
-92.7031600833
 20
28.2178047711
 10
-92.6929862798
 20
29.3167896523
 10
-92.68121265
 20
30.3822149014
 10
-92.6673129269
 20
31.4150943708
 10
-92.650505244
 20
32.4145627149
 10
-92.6300391303
 20
33.3838574665
 10
-92.605152249
 20
34.3240245993
 10
-92.5746745774
 20
35.2342243032
 10
-92.5375490388
 20
36.1148396678
 10
-92.4928636767
 20
36.9660314215
 10
-92.4391558082
 20
37.7875961538
  0
LINE
  5
61F
100
AcDbEntity
  8
SUPERFICI
100
AcDbLine
 62
7
  6
CONTINUOUS
 10
-92.7021509489
 20
2.7756233386
 11
-92.6943088043
 21
3.759277259
  0
LINE
  5
620
100
AcDbEntity
  8
SKEL_COPERCHIO
100
AcDbLine
 62
7
  6
CONTINUOUS
 10
-92.5374533592
 20
18.3800659885
 11
-92.5173452696
 21
20.9909420164
  0
LINE
  5
621
100
AcDbEntity
  8
SUPERFICI
100
AcDbLine
 62
7
  6
CONTINUOUS
 10
-92.5374460917
 20
18.3797549737
 11
-92.4668878449
 21
28.604512193
  0
LINE
  5
622
100
AcDbEntity
  8
SUPERFICI
100
AcDbLine
 62
7
  6
CONTINUOUS
 10
-92.1156721675
 20
40.0214974489
 11
-92.1175549165
 21
39.7977271339
  0
LINE
  5
623
100
AcDbEntity
  8
SKEL_COPERCHIO
100
AcDbLine
 62
7
  6
CONTINUOUS
 10
-92.5532651268
 20
16.587910451
 11
-92.5374533592
 21
18.3800659885
  0
LINE
  5
624
100
AcDbEntity
  8
SUPERFICI
100
AcDbLine
 62
7
  6
CONTINUOUS
 10
-92.4722941782
 20
27.9116543152
 11
-92.4549755394
 21
29.9323678504
  0
LWPOLYLINE
  5
625
100
AcDbEntity
  8
SKEL_COPERCHIO
100
AcDbPolyline
 62
7
  6
CONTINUOUS
 90
15
 70
0
 10
-92.4668878449
 20
28.604512193
 10
-92.4549740508
 20
29.9331239154
 10
-92.447805877
 20
30.5882340484
 10
-92.4397856314
 20
31.2404292508
 10
-92.4307823259
 20
31.8891965622
 10
-92.4198763697
 20
32.5411048854
 10
-92.4073130368
 20
33.1973491634
 10
-92.3928470532
 20
33.8567344532
 10
-92.3748230057
 20
34.5222448282
 10
-92.3531763486
 20
35.2007972686
 10
-92.3279716276
 20
35.8854747942
 10
-92.2977470665
 20
36.5585105373
 10
-92.2620154069
 20
37.2139822088
 10
-92.2212639073
 20
37.8578120978
 10
-92.1587722507
 20
38.725592763
  0
LINE
  5
626
100
AcDbEntity
  8
SUPERFICI
100
AcDbLine
 62
7
  6
CONTINUOUS
 10
-92.5368929802
 20
18.4460187572
 11
-92.5609419727
 21
15.7874661966
  0
LINE
  5
627
100
AcDbEntity
  8
SKEL_COPERCHIO
100
AcDbLine
 62
7
  6
CONTINUOUS
 10
-92.694904137
 20
3.7021882822
 11
-92.6767019251
 21
5.5562431277
  0
LINE
  5
628
100
AcDbEntity
  8
SUPERFICI
100
AcDbLine
 62
7
  6
CONTINUOUS
 10
-92.5532651268
 20
16.587910451
 11
-92.5793396538
 21
13.9956260078
  0
LINE
  5
629
100
AcDbEntity
  8
SKEL_COPERCHIO
100
AcDbLine
 62
7
  6
CONTINUOUS
 10
-92.5807863185
 20
13.8609274229
 11
-92.5532651268
 21
16.587910451
  0
LWPOLYLINE
  5
62A
100
AcDbEntity
  8
RACCORDO
100
AcDbPolyline
 62
250
  6
CONTINUOUS
 90
6
 70
0
 10
-92.82984435
 20
13.0901296692
 10
-92.8117429288
 20
14.7497641247
 10
-92.7956171016
 20
16.3350386347
 10
-92.7812105981
 20
17.8647533217
 10
-92.7684251806
 20
19.3380679126
 10
-92.7470747487
 20
22.1086943394
  0
LINE
  5
62B
100
AcDbEntity
  8
SUPERFICI
100
AcDbLine
 62
7
  6
CONTINUOUS
 10
-92.447805877
 20
30.5882340484
 11
-92.4553005165
 21
29.9014212842
  0
LINE
  5
62C
100
AcDbEntity
  8
SUPERFICI
100
AcDbLine
 62
7
  6
CONTINUOUS
 10
-92.665204682
 20
6.6055887712
 11
-92.6948164256
 21
3.7012786264
  0
LWPOLYLINE
  5
62D
100
AcDbEntity
  8
RACCORDO
100
AcDbPolyline
 62
250
  6
CONTINUOUS
 90
9
 70
0
 10
-91.9786728701
 20
6.2291785426
 10
-91.9211653465
 20
11.3636780662
 10
-91.9015181758
 20
13.0794287543
 10
-91.8834115449
 20
14.7396695466
 10
-91.8675545881
 20
16.3256328522
 10
-91.8532381711
 20
17.8560862619
 10
-91.8402789499
 20
19.3300832433
 10
-91.828904819
 20
20.7441540654
 10
-91.7919869218
 20
25.8943682108
  0
LINE
  5
62E
100
AcDbEntity
  8
SUPERFICI
100
AcDbLine
 62
7
  6
CONTINUOUS
 10
-92.5711605635
 20
14.7742459806
 11
-92.6099265193
 21
11.2752532734
  0
LINE
  5
62F
100
AcDbEntity
  8
SKEL_COPERCHIO
100
AcDbLine
 62
7
  6
CONTINUOUS
 10
-92.6767019251
 20
5.5562431277
 11
-92.6559138129
 21
7.4095349269
  0
LINE
  5
630
100
AcDbEntity
  8
SKEL_COPERCHIO
100
AcDbLine
 62
7
  6
CONTINUOUS
 10
-92.6119097767
 20
11.1061046051
 11
-92.5807863185
 21
13.8609274229
  0
LINE
  5
631
100
AcDbEntity
  8
SKEL_COPERCHIO
100
AcDbLine
 62
7
  6
CONTINUOUS
 10
-92.6559138129
 20
7.4095349269
 11
-92.6119097767
 21
11.1061046051
  0
LINE
  5
632
100
AcDbEntity
  8
SUPERFICI
100
AcDbLine
 62
7
  6
CONTINUOUS
 10
-92.6012300335
 20
12.0268371224
 11
-92.6767019251
 21
5.5562431277
  0
LINE
  5
633
100
AcDbEntity
  8
SUPERFICI
100
AcDbLine
 62
7
  6
CONTINUOUS
 10
-92.6450155298
 20
8.3351946394
 11
-92.6339587347
 21
9.2599669232
  0
LINE
  5
634
100
AcDbEntity
  8
SUPERFICI
100
AcDbLine
 62
7
  6
CONTINUOUS
 10
-92.4481855155
 20
30.5551912324
 11
-92.4397877716
 21
31.2404700906
  0
LINE
  5
635
100
AcDbEntity
  8
SUPERFICI
100
AcDbLine
 62
7
  6
CONTINUOUS
 10
-91.1714739065
 20
28.505481825
 11
-91.1535282395
 21
30.0399770479
  0
LINE
  5
636
100
AcDbEntity
  8
SUPERFICI
100
AcDbLine
 62
7
  6
CONTINUOUS
 10
-92.4401678128
 20
31.2106396615
 11
-92.4307809518
 21
31.8882178803
  0
LINE
  5
637
100
AcDbEntity
  8
SUPERFICI
100
AcDbLine
 62
7
  6
CONTINUOUS
 10
-91.1580359368
 20
29.6923981238
 11
-91.1396372966
 21
30.9828689704
  0
LINE
  5
638
100
AcDbEntity
  8
SUPERFICI
100
AcDbLine
 62
7
  6
CONTINUOUS
 10
-92.6709681811
 20
-38.9257015479
 11
-92.6686500814
 21
-38.7767891173
  0
LINE
  5
639
100
AcDbEntity
  8
SUPERFICI
100
AcDbLine
 62
7
  6
CONTINUOUS
 10
-92.4311314736
 20
31.8646334309
 11
-92.4198763697
 21
32.5411048854
  0
LINE
  5
63A
100
AcDbEntity
  8
SUPERFICI
100
AcDbLine
 62
7
  6
CONTINUOUS
 10
-91.1443231344
 20
30.6841114485
 11
-91.1319939512
 21
31.4348199396
  0
LINE
  5
63B
100
AcDbEntity
  8
SUPERFICI
100
AcDbLine
 62
7
  6
CONTINUOUS
 10
-92.1172534677
 20
39.8230780146
 11
-92.1210818615
 21
39.5932869693
  0
LINE
  5
63C
100
AcDbEntity
  8
SUPERFICI
100
AcDbLine
 62
7
  6
CONTINUOUS
 10
-91.1367435147
 20
31.160294365
 11
-91.1235889392
 21
31.881344599
  0
LINE
  5
63D
100
AcDbEntity
  8
SUPERFICI
100
AcDbLine
 62
7
  6
CONTINUOUS
 10
-92.4073052477
 20
33.1974997253
 11
-92.4201900162
 21
32.5233144168
  0
LINE
  5
63E
100
AcDbEntity
  8
SUPERFICI
100
AcDbLine
 62
7
  6
CONTINUOUS
 10
-90.7412605065
 20
39.2467541241
 11
-90.7381841035
 21
39.4002938794
  0
LINE
  5
63F
100
AcDbEntity
  8
SUPERFICI
100
AcDbLine
 62
7
  6
CONTINUOUS
 10
-91.1283936493
 20
31.6301004892
 11
-91.1144787257
 21
32.3218865772
  0
LINE
  5
640
100
AcDbEntity
  8
SUPERFICI
100
AcDbLine
 62
7
  6
CONTINUOUS
 10
-92.3928270897
 20
33.8552971467
 11
-92.4074972244
 21
33.1861215917
  0
LINE
  5
641
100
AcDbEntity
  8
SUPERFICI
100
AcDbLine
 62
7
  6
CONTINUOUS
 10
-91.1193280071
 20
32.092920172
 11
-91.1045871361
 21
32.7565153751
  0
LINE
  5
642
100
AcDbEntity
  8
SUPERFICI
100
AcDbLine
 62
7
  6
CONTINUOUS
 10
-92.1205900185
 20
39.6169320359
 11
-92.1264266637
 21
39.3824235236
  0
LINE
  5
643
100
AcDbEntity
  8
SUPERFICI
100
AcDbLine
 62
7
  6
CONTINUOUS
 10
-91.1094706029
 20
32.5488633059
 11
-91.0934310554
 21
33.1926952862
  0
LINE
  5
644
100
AcDbEntity
  8
SUPERFICI
100
AcDbLine
 62
7
  6
CONTINUOUS
 10
-92.3928895911
 20
33.8498187013
 11
-92.3748230057
 21
34.5222448282
  0
LINE
  5
645
100
AcDbEntity
  8
SUPERFICI
100
AcDbLine
 62
7
  6
CONTINUOUS
 10
-92.6749199289
 20
-39.0708550141
 11
-92.6708576743
 21
-38.9205312405
  0
LINE
  5
646
100
AcDbEntity
  8
SUPERFICI
100
AcDbLine
 62
7
  6
CONTINUOUS
 10
-91.0983493094
 20
33.0048379334
 11
-91.081027942
 21
33.6308743095
  0
LINE
  5
647
100
AcDbEntity
  8
SUPERFICI
100
AcDbLine
 62
7
  6
CONTINUOUS
 10
-91.0859950787
 20
33.4608817314
 11
-91.0673248417
 21
34.0689358551
  0
LINE
  5
648
100
AcDbEntity
  8
SUPERFICI
100
AcDbLine
 62
7
  6
CONTINUOUS
 10
-92.3749972558
 20
34.5162002414
 11
-92.3531618898
 21
35.2030368434
  0
LINE
  5
649
100
AcDbEntity
  8
SUPERFICI
100
AcDbLine
 62
7
  6
CONTINUOUS
 10
-91.072340876
 20
33.9153900507
 11
-91.0517198807
 21
34.509787464
  0
LINE
  5
64A
100
AcDbEntity
  8
SUPERFICI
100
AcDbLine
 62
7
  6
CONTINUOUS
 10
-90.7466153005
 20
39.0953027541
 11
-90.7410403574
 21
39.2545981379
  0
LINE
  5
64B
100
AcDbEntity
  8
SUPERFICI
100
AcDbLine
 62
7
  6
CONTINUOUS
 10
-92.3540054552
 20
35.1832843
 11
-92.3279194946
 21
35.8865695631
  0
LINE
  5
64C
100
AcDbEntity
  8
SUPERFICI
100
AcDbLine
 62
7
  6
CONTINUOUS
 10
-92.1257609432
 20
39.4033152274
 11
-92.1344622534
 21
39.1659859094
  0
LINE
  5
64D
100
AcDbEntity
  8
SUPERFICI
100
AcDbLine
 62
7
  6
CONTINUOUS
 10
-91.0567543269
 20
34.3720711957
 11
-91.0342356052
 21
34.9530318736
  0
LINE
  5
64E
100
AcDbEntity
  8
SUPERFICI
100
AcDbLine
 62
7
  6
CONTINUOUS
 10
-91.0392702992
 20
34.8304619818
 11
-91.0147903795
 21
35.3967412542
  0
LINE
  5
64F
100
AcDbEntity
  8
SUPERFICI
100
AcDbLine
 62
7
  6
CONTINUOUS
 10
-92.329669924
 20
35.8485236419
 11
-92.2977470665
 21
36.5585105373
  0
LINE
  5
650
100
AcDbEntity
  8
SUPERFICI
100
AcDbLine
 62
7
  6
CONTINUOUS
 10
-92.1337481774
 20
39.1831418989
 11
-92.1454728154
 21
38.9447624148
  0
LINE
  5
651
100
AcDbEntity
  8
SUPERFICI
100
AcDbLine
 62
7
  6
CONTINUOUS
 10
-91.0197892401
 20
35.2886320739
 11
-90.9926260046
 21
35.8414810215
  0
LINE
  5
652
100
AcDbEntity
  8
SUPERFICI
100
AcDbLine
 62
7
  6
CONTINUOUS
 10
-90.7543425259
 20
38.9426474045
 11
-90.7462674951
 21
39.1029376553
  0
LINE
  5
653
100
AcDbEntity
  8
SUPERFICI
100
AcDbLine
 62
7
  6
CONTINUOUS
 10
-92.2999381019
 20
36.5132177624
 11
-92.2621298361
 21
37.2148215673
  0
LINE
  5
654
100
AcDbEntity
  8
SUPERFICI
100
AcDbLine
 62
7
  6
CONTINUOUS
 10
-90.9974774422
 20
35.7479219666
 11
-90.9677936738
 21
36.2863503394
  0
LWPOLYLINE
  5
655
100
AcDbEntity
  8
RACCORDO
100
AcDbPolyline
 62
250
  6
CONTINUOUS
 90
25
 70
0
 10
-91.4319062174
 20
38.49
 10
-91.417072705
 20
38.7290816734
 10
-91.4043698111
 20
38.9674637338
 10
-91.3937975358
 20
39.2040917947
 10
-91.3854740222
 20
39.4378882446
 10
-91.3792811271
 20
39.6678298017
 10
-91.3748644207
 20
39.8929488871
 10
-91.3722211623
 20
40.112378268
 10
-91.3713540925
 20
40.324937722
 10
-91.3719170036
 20
40.5292595411
 10
-91.3738571584
 20
40.7241460569
 10
-91.3772272941
 20
40.9090601237
 10
-91.3818394142
 20
41.0836496565
 10
-91.3876355692
 20
41.2474679649
 10
-91.3946737086
 20
41.3992173335
 10
-91.4029396842
 20
41.5374439063
 10
-91.4124131791
 20
41.6617704027
 10
-91.4231145103
 20
41.771588721
 10
-91.4350904798
 20
41.8657710965
 10
-91.448389643
 20
41.944437659
 10
-91.4629634446
 20
42.0077160105
 10
-91.4787130216
 20
42.055428128
 10
-91.4956054197
 20
42.0882415846
 10
-91.5136735931
 20
42.1071614294
 10
-91.5329175418
 20
42.1130421103
  0
LINE
  5
656
100
AcDbEntity
  8
SUPERFICI
100
AcDbLine
 62
7
  6
CONTINUOUS
 10
-90.9724146236
 20
36.2072620879
 11
-90.9402173402
 21
36.7301723499
  0
LINE
  5
657
100
AcDbEntity
  8
SUPERFICI
100
AcDbLine
 62
7
  6
CONTINUOUS
 10
-90.7644157088
 20
38.7909824402
 11
-90.7539458926
 21
38.949443101
  0
LINE
  5
658
100
AcDbEntity
  8
SUPERFICI
100
AcDbLine
 62
7
  6
CONTINUOUS
 10
-90.9444961033
 20
36.6654686785
 11
-90.9089249196
 21
37.1733310246
  0
LINE
  5
659
100
AcDbEntity
  8
SUPERFICI
100
AcDbLine
 62
7
  6
CONTINUOUS
 10
-90.9125902163
 20
37.1238306306
 11
-90.8735601645
 21
37.6153406351
  0
LINE
  5
65A
100
AcDbEntity
  8
SUPERFICI
100
AcDbLine
 62
7
  6
CONTINUOUS
 10
-90.7767853579
 20
38.6398482122
 11
-90.7640734025
 21
38.7961988997
  0
LINE
  5
65B
100
AcDbEntity
  8
SUPERFICI
100
AcDbLine
 62
7
  6
CONTINUOUS
 10
-90.8762838968
 20
37.5820027612
 11
-90.8344015573
 21
38.0546025704
  0
LINE
  5
65C
100
AcDbEntity
  8
SUPERFICI
100
AcDbLine
 62
7
  6
CONTINUOUS
 10
-92.1647160956
 20
41.6490605301
 11
-92.1559911463
 21
41.5358130342
  0
LINE
  5
65D
100
AcDbEntity
  8
SUPERFICI
100
AcDbLine
 62
7
  6
CONTINUOUS
 10
-92.1566161549
 20
41.5448179004
 11
-92.1487799578
 21
41.4188424025
  0
LWPOLYLINE
  5
65E
100
AcDbEntity
  8
SUPERFICI
100
AcDbPolyline
 62
7
  6
CONTINUOUS
 90
3
 70
0
 10
-90.743747676
 20
39.7883858894
 10
-90.750071978
 20
39.9005663932
 10
-90.7589836908
 20
40.0056161772
  0
LINE
  5
65F
100
AcDbEntity
  8
SUPERFICI
100
AcDbLine
 62
7
  6
CONTINUOUS
 10
-92.1494251527
 20
41.4300410201
 11
-92.1422437039
 21
41.2934968046
  0
LINE
  5
660
100
AcDbEntity
  8
SUPERFICI
100
AcDbLine
 62
7
  6
CONTINUOUS
 10
-92.1428925786
 20
41.3069056104
 11
-92.1362909186
 21
41.1603709828
  0
LINE
  5
661
100
AcDbEntity
  8
SUPERFICI
100
AcDbLine
 62
7
  6
CONTINUOUS
 10
-92.1369288537
 20
41.1759285236
 11
-92.1310154551
 21
41.0185373345
  0
LINE
  5
662
100
AcDbEntity
  8
SUPERFICI
100
AcDbLine
 62
7
  6
CONTINUOUS
 10
-90.7396323317
 20
39.6658089475
 11
-90.7440045256
 21
39.7940917816
  0
LINE
  5
663
100
AcDbEntity
  8
SUPERFICI
100
AcDbLine
 62
7
  6
CONTINUOUS
 10
-92.1316259296
 20
41.036210452
 11
-92.1264447763
 21
40.8684625724
  0
LINE
  5
664
100
AcDbEntity
  8
SUPERFICI
100
AcDbLine
 62
7
  6
CONTINUOUS
 10
-92.1270042128
 20
40.8881594696
 11
-92.1224558992
 21
40.7102250074
  0
LINE
  5
665
100
AcDbEntity
  8
SUPERFICI
100
AcDbLine
 62
7
  6
CONTINUOUS
 10
-92.1229400029
 20
40.7318932878
 11
-92.1191744179
 21
40.5436160648
  0
LINE
  5
666
100
AcDbEntity
  8
SUPERFICI
100
AcDbLine
 62
7
  6
CONTINUOUS
 10
-90.7377379411
 20
39.5325175263
 11
-90.7397906156
 21
39.672389087
  0
LINE
  5
667
100
AcDbEntity
  8
SUPERFICI
100
AcDbLine
 62
7
  6
CONTINUOUS
 10
-91.4033358304
 20
-4.8520304656
 11
-91.3701859915
 21
-14.0567946539
  0
LINE
  5
668
100
AcDbEntity
  8
SUPERFICI
100
AcDbLine
 62
7
  6
CONTINUOUS
 10
-91.3712887983
 20
-13.7228560281
 11
-91.3628757393
 21
-16.5168440138
  0
LINE
  5
669
100
AcDbEntity
  8
SUPERFICI
100
AcDbLine
 62
7
  6
CONTINUOUS
 10
-91.4031665376
 20
-4.906516096
 11
-91.4094093634
 21
-2.4913327907
  0
LINE
  5
66A
100
AcDbEntity
  8
SUPERFICI
100
AcDbLine
 62
7
  6
CONTINUOUS
 10
-91.3407882841
 20
-34.0680995926
 11
-91.3450786763
 21
-32.5060415784
  0
LINE
  5
66B
100
AcDbEntity
  8
SUPERFICI
100
AcDbLine
 62
7
  6
CONTINUOUS
 10
-91.3637791434
 20
-16.1847375857
 11
-91.3562285821
 21
-19.3926111882
  0
LINE
  5
66C
100
AcDbEntity
  8
SUPERFICI
100
AcDbLine
 62
7
  6
CONTINUOUS
 10
-91.4112891562
 20
-1.2568338916
 11
-91.4093849092
 21
-2.5018442152
  0
LINE
  5
66D
100
AcDbEntity
  8
SUPERFICI
100
AcDbLine
 62
7
  6
CONTINUOUS
 10
-91.3567629201
 20
-19.1226081865
 11
-91.352292707
 21
-21.8739656633
  0
LINE
  5
66E
100
AcDbEntity
  8
SUPERFICI
100
AcDbLine
 62
7
  6
CONTINUOUS
 10
-91.3449073294
 20
-32.5938948181
 11
-91.3475530868
 21
-30.5232558942
  0
LINE
  5
66F
100
AcDbEntity
  8
SUPERFICI
100
AcDbLine
 62
7
  6
CONTINUOUS
 10
-91.3525367396
 20
-21.6795879492
 11
-91.3498541106
 21
-24.588648422
  0
LINE
  5
670
100
AcDbEntity
  8
SUPERFICI
100
AcDbLine
 62
7
  6
CONTINUOUS
 10
-91.347481764
 20
-30.6191399713
 11
-91.3499329224
 21
-24.4615188596
  0
LINE
  5
671
100
AcDbEntity
  8
SUPERFICI
100
AcDbLine
 62
7
  6
CONTINUOUS
 10
-91.4120506921
 20
0.6995893849
 11
-91.4112891562
 21
-1.2568338916
  0
LINE
  5
672
100
AcDbEntity
  8
SUPERFICI
100
AcDbLine
 62
7
  6
CONTINUOUS
 10
-91.4109285698
 20
1.3923253247
 11
-91.4120985428
 21
0.6543156969
  0
LINE
  5
673
100
AcDbEntity
  8
SUPERFICI
100
AcDbLine
 62
7
  6
CONTINUOUS
 10
-91.4087147133
 20
2.0807760204
 11
-91.4111430147
 21
1.307761335
  0
LINE
  5
674
100
AcDbEntity
  8
SUPERFICI
100
AcDbLine
 62
7
  6
CONTINUOUS
 10
-90.7382717135
 20
39.3925942731
 11
-90.7377717209
 21
39.5398024
  0
LINE
  5
675
100
AcDbEntity
  8
SUPERFICI
100
AcDbLine
 62
7
  6
CONTINUOUS
 10
-91.4091860757
 20
1.960548393
 11
-91.4024963021
 21
3.267183971
  0
LINE
  5
676
100
AcDbEntity
  8
SUPERFICI
100
AcDbLine
 62
7
  6
CONTINUOUS
 10
-91.3964731487
 20
4.12660683
 11
-91.4054780568
 21
2.7647766065
  0
LINE
  5
677
100
AcDbEntity
  8
SUPERFICI
100
AcDbLine
 62
7
  6
CONTINUOUS
 10
-91.1923927164
 20
26.1510195948
 11
-91.1873483713
 21
26.7755456543
  0
LINE
  5
678
100
AcDbEntity
  8
SUPERFICI
100
AcDbLine
 62
7
  6
CONTINUOUS
 10
-91.2357664339
 20
20.3414684535
 11
-91.1821912166
 21
27.3762376291
  0
LINE
  5
679
100
AcDbEntity
  8
SUPERFICI
100
AcDbLine
 62
7
  6
CONTINUOUS
 10
-91.3980237846
 20
3.9201690021
 11
-91.387303755
 21
5.2261263076
  0
LINE
  5
67A
100
AcDbEntity
  8
SUPERFICI
100
AcDbLine
 62
7
  6
CONTINUOUS
 10
-91.2356976641
 20
20.3516435014
 11
-91.2575755569
 21
17.7408912333
  0
LINE
  5
67B
100
AcDbEntity
  8
SUPERFICI
100
AcDbLine
 62
7
  6
CONTINUOUS
 10
-91.3909731332
 20
4.8076860851
 11
-91.3749116452
 21
6.5326488376
  0
LINE
  5
67C
100
AcDbEntity
  8
SUPERFICI
100
AcDbLine
 62
7
  6
CONTINUOUS
 10
-91.1861683605
 20
26.9147170573
 11
-91.1714739065
 21
28.505481825
  0
LINE
  5
67D
100
AcDbEntity
  8
SUPERFICI
100
AcDbLine
 62
7
  6
CONTINUOUS
 10
-91.2560166285
 20
17.9181894754
 11
-91.282033419
 21
15.1576988713
  0
LINE
  5
67E
100
AcDbEntity
  8
SUPERFICI
100
AcDbLine
 62
7
  6
CONTINUOUS
 10
-91.1700548636
 20
28.6421717241
 11
-91.1756428935
 21
28.0872556797
  0
LINE
  5
67F
100
AcDbEntity
  8
SUPERFICI
100
AcDbLine
 62
7
  6
CONTINUOUS
 10
-91.2784107242
 20
15.5216925228
 11
-91.378415007
 21
6.1767788743
  0
LINE
  5
680
100
AcDbEntity
  8
SUPERFICI
100
AcDbLine
 62
7
  6
CONTINUOUS
 10
-91.3542450058
 20
8.4957266348
 11
-91.3396103281
 21
9.8152263249
  0
LINE
  5
681
100
AcDbEntity
  8
SUPERFICI
100
AcDbLine
 62
7
  6
CONTINUOUS
 10
-91.3159113114
 20
11.9471427852
 11
-91.3326285096
 21
10.4395623266
  0
LINE
  5
682
100
AcDbEntity
  8
SUPERFICI
100
AcDbLine
 62
7
  6
CONTINUOUS
 10
-92.680498831
 20
-39.215251133
 11
-92.6747023605
 21
-39.064150345
  0
LINE
  5
683
100
AcDbEntity
  8
SUPERFICI
100
AcDbLine
 62
7
  6
CONTINUOUS
 10
-92.6875337577
 20
-39.3581012127
 11
-92.6801416218
 21
-39.2071294973
  0
LINE
  5
684
100
AcDbEntity
  8
SUPERFICI
100
AcDbLine
 62
7
  6
CONTINUOUS
 10
-92.6960607785
 20
-39.4989960299
 11
-92.6870209183
 21
-39.3487336664
  0
LINE
  5
685
100
AcDbEntity
  8
SUPERFICI
100
AcDbLine
 62
7
  6
CONTINUOUS
 10
-92.7060582978
 20
-39.6376588999
 11
-92.6953800726
 21
-39.4885983495
  0
LINE
  5
686
100
AcDbEntity
  8
SUPERFICI
100
AcDbLine
 62
7
  6
CONTINUOUS
 10
-92.7172646053
 20
-39.773627893
 11
-92.7051944158
 21
-39.6264004967
  0
LINE
  5
687
100
AcDbEntity
  8
SUPERFICI
100
AcDbLine
 62
7
  6
CONTINUOUS
 10
-92.729642625
 20
-39.906194784
 11
-92.7162085375
 21
-39.7615909487
  0
LINE
  5
688
100
AcDbEntity
  8
SUPERFICI
100
AcDbLine
 62
7
  6
CONTINUOUS
 10
-92.7432365974
 20
-40.0355469667
 11
-92.7283898677
 21
-39.8934742461
  0
LINE
  5
689
100
AcDbEntity
  8
RACCORDO
100
AcDbLine
 62
7
  6
CONTINUOUS
 10
-95.3852999988
 20
27.8948469957
 11
-95.3853892501
 21
27.8952158624
  0
LINE
  5
68A
100
AcDbEntity
  8
RACCORDO
100
AcDbLine
 62
7
  6
CONTINUOUS
 10
-95.3851108007
 20
27.8940475627
 11
-95.3852071378
 21
27.8944578493
  0
LWPOLYLINE
  5
68B
100
AcDbEntity
  8
RACCORDO
100
AcDbPolyline
 62
7
  6
CONTINUOUS
 90
11
 70
0
 10
-95.3839296201
 20
27.8881425953
 10
-95.3840406711
 20
27.8887842799
 10
-95.3841508916
 20
27.8894039717
 10
-95.3842604843
 20
27.8900014989
 10
-95.3843694095
 20
27.8905756787
 10
-95.3844788129
 20
27.8911325554
 10
-95.3845884951
 20
27.8916724075
 10
-95.3846965557
 20
27.8921882966
 10
-95.3848032531
 20
27.892683992
 10
-95.3849088561
 20
27.8931623912
 10
-95.3850115188
 20
27.8936169256
  0
LINE
  5
68C
100
AcDbEntity
  8
RACCORDO
100
AcDbLine
 62
7
  6
CONTINUOUS
 10
-95.3830179555
 20
27.8826241387
 11
-95.3838165296
 21
27.8874737963
  0
LINE
  5
68D
100
AcDbEntity
  8
SUPERFICI
100
AcDbLine
 62
7
  6
CONTINUOUS
 10
-92.1736583297
 20
41.7433391194
 11
-92.1641263818
 21
41.6420500985
  0
LINE
  5
68E
100
AcDbEntity
  8
SUPERFICI
100
AcDbLine
 62
7
  6
CONTINUOUS
 10
-90.7503900248
 20
39.905205136
 11
-90.7440045256
 21
39.7940917816
  0
LINE
  5
68F
100
AcDbEntity
  8
RACCORDO
100
AcDbLine
 62
7
  6
CONTINUOUS
 10
-85.6949769592
 20
42.3219583377
 11
-85.6949769592
 21
42.0916407392
  0
LINE
  5
690
100
AcDbEntity
  8
SUPERFICI
100
AcDbLine
 62
7
  6
CONTINUOUS
 10
-92.7579102708
 20
-40.162595598
 11
-92.7417782375
 21
-40.0222287144
  0
LINE
  5
691
100
AcDbEntity
  8
SUPERFICI
100
AcDbLine
 62
7
  6
CONTINUOUS
 10
-92.7735428812
 20
-40.2862876545
 11
-92.7562294657
 21
-40.1486586569
  0
LINE
  5
692
100
AcDbEntity
  8
SUPERFICI
100
AcDbLine
 62
7
  6
CONTINUOUS
 10
-92.7902690743
 20
-40.4071077207
 11
-92.7716278479
 21
-40.2717430581
  0
LINE
  5
693
100
AcDbEntity
  8
SUPERFICI
100
AcDbLine
 62
7
  6
CONTINUOUS
 10
-92.8083553066
 20
-40.5279176583
 11
-92.7881020762
 21
-40.3919566549
  0
LINE
  5
694
100
AcDbEntity
  8
SUPERFICI
100
AcDbLine
 62
7
  6
CONTINUOUS
 10
-92.8277904709
 20
-40.6480523499
 11
-92.805892842
 21
-40.5120231818
  0
LINE
  5
695
100
AcDbEntity
  8
SUPERFICI
100
AcDbLine
 62
7
  6
CONTINUOUS
 10
-92.8486278109
 20
-40.7669426359
 11
-92.8249769028
 21
-40.631251377
  0
LWPOLYLINE
  5
696
100
AcDbEntity
  8
RACCORDO
100
AcDbPolyline
 62
7
  6
CONTINUOUS
 90
11
 70
0
 10
-95.3801655181
 20
27.8705611314
 10
-95.3806199305
 20
27.8719417116
 10
-95.3810226053
 20
27.8733073341
 10
-95.3813805859
 20
27.8746432764
 10
-95.3816987799
 20
27.8759390007
 10
-95.3819814487
 20
27.8771882539
 10
-95.3822341513
 20
27.8783857588
 10
-95.3824607613
 20
27.8795279705
 10
-95.3826644063
 20
27.880614256
 10
-95.3828491775
 20
27.8816460975
 10
-95.3830179555
 20
27.8826241387
  0
LINE
  5
697
100
AcDbEntity
  8
RACCORDO
100
AcDbLine
 62
7
  6
CONTINUOUS
 10
-95.3864993977
 20
27.8995624313
 11
-95.386519539
 21
27.8996376643
  0
LWPOLYLINE
  5
698
100
AcDbEntity
  8
RACCORDO
100
AcDbPolyline
 62
7
  6
CONTINUOUS
 90
3
 70
0
 10
-95.3860269416
 20
27.8977570748
 10
-95.3860797507
 20
27.8979616545
 10
-95.3863672637
 20
27.8990634729
  0
LINE
  5
699
100
AcDbEntity
  8
RACCORDO
100
AcDbLine
 62
7
  6
CONTINUOUS
 10
-95.3857807377
 20
27.8967923893
 11
-95.385847733
 21
27.8970567765
  0
LINE
  5
69A
100
AcDbEntity
  8
RACCORDO
100
AcDbLine
 62
7
  6
CONTINUOUS
 10
-95.3855570633
 20
27.8958985829
 11
-95.3856353663
 21
27.8962134443
  0
LINE
  5
69B
100
AcDbEntity
  8
SUPERFICI
100
AcDbLine
 62
7
  6
CONTINUOUS
 10
-92.194685398
 20
41.9008107766
 11
-92.183019609
 21
41.824357405
  0
LINE
  5
69C
100
AcDbEntity
  8
SUPERFICI
100
AcDbLine
 62
7
  6
CONTINUOUS
 10
-90.7586333572
 20
40.0021445158
 11
-90.7695946115
 21
40.0918673463
  0
LINE
  5
69D
100
AcDbEntity
  8
SUPERFICI
100
AcDbLine
 62
7
  6
CONTINUOUS
 10
-92.1835028197
 20
41.8279645
 11
-92.1731143592
 21
41.7381208292
  0
LWPOLYLINE
  5
69E
100
AcDbEntity
  8
0
100
AcDbPolyline
 62
7
  6
CONTINUOUS
 90
4
 70
0
 43
0.3500000087
 10
-84.6765066345
 20
51.6785700165
 10
-84.6765066345
 20
52.5357118835
 10
-84.2479335693
 20
52.9642849487
 10
-83.6050782349
 20
52.9642849487
  0
LINE
  5
69F
100
AcDbEntity
  8
0
100
AcDbLine
 62
7
  6
CONTINUOUS
 10
-83.686605295
 20
-42.25
 11
-83.686605295
 21
-38.49
  0
LINE
  5
6A0
100
AcDbEntity
  8
SUPERFICI
100
AcDbLine
 62
7
  6
CONTINUOUS
 10
-83.686605295
 20
-42.25
 11
-83.686605295
 21
42.25
  0
LINE
  5
6A1
100
AcDbEntity
  8
ASSI
100
AcDbLine
 62
7
  6
CONTINUOUS
 10
-83.686605295
 20
-38.49
 11
-83.686605295
 21
37.5
  0
LINE
  5
6A2
100
AcDbEntity
  8
SKEL_COPERCHIO
100
AcDbLine
 62
7
  6
CONTINUOUS
 10
-83.686605295
 20
-42.25
 11
-83.686605295
 21
38.9903883603
  0
LINE
  5
6A3
100
AcDbEntity
  8
RACCORDO
100
AcDbLine
 62
7
  6
CONTINUOUS
 10
-83.4949769592
 20
37.5
 11
-83.4949769592
 21
-41.8690108351
  0
LINE
  5
6A4
100
AcDbEntity
  8
RACCORDO
100
AcDbLine
 62
250
  6
CONTINUOUS
 10
-82.9894641756
 20
-38.5
 11
-83.0037031485
 21
-42.3689346968
  0
LINE
  5
6A5
100
AcDbEntity
  8
SUPERFICI
100
AcDbLine
 62
7
  6
CONTINUOUS
 10
-92.8712638112
 20
-40.8868810233
 11
-92.8454165442
 21
-40.749175394
  0
LINE
  5
6A6
100
AcDbEntity
  8
SUPERFICI
100
AcDbLine
 62
7
  6
CONTINUOUS
 10
-92.8958706883
 20
-41.0075002882
 11
-92.8676129897
 21
-40.8681690782
  0
LINE
  5
6A7
100
AcDbEntity
  8
SUPERFICI
100
AcDbLine
 62
7
  6
CONTINUOUS
 10
-92.9223594547
 20
-41.1270187383
 11
-92.8917014254
 21
-40.9877380978
  0
LINE
  5
6A8
100
AcDbEntity
  8
SUPERFICI
100
AcDbLine
 62
7
  6
CONTINUOUS
 10
-92.9507594485
 20
-41.2451292005
 11
-92.9176258015
 21
-41.1063240672
  0
LINE
  5
6A9
100
AcDbEntity
  8
RACCORDO
100
AcDbLine
 62
250
  6
CONTINUOUS
 10
-95.3865642199
 20
0.0007290656
 11
-95.3942294881
 21
0.000586059
  0
LWPOLYLINE
  5
6AA
100
AcDbEntity
  8
SUPERFICI
100
AcDbPolyline
 62
250
  6
CONTINUOUS
 90
3
 70
0
 10
-93.502475194
 20
0.0006413315
 10
-93.572210253
 20
0.0002288511
 10
-93.5840183856
 20
0.0000007316
  0
LINE
  5
6AB
100
AcDbEntity
  8
SUPERFICI
100
AcDbLine
 62
250
  6
CONTINUOUS
 10
-92.9473057004
 20
-0.001578395
 11
-92.6478386057
 21
-0.000530896
  0
LINE
  5
6AC
100
AcDbEntity
  8
RACCORDO
100
AcDbLine
 62
250
  6
CONTINUOUS
 10
-95.3942294881
 20
0.000586059
 11
-95.5762506416
 21
-0.000079264
  0
LINE
  5
6AD
100
AcDbEntity
  8
RACCORDO
100
AcDbLine
 62
250
  6
CONTINUOUS
 10
-95.5762506416
 20
-0.000079264
 11
-95.9865957804
 21
-0.0008319559
  0
LINE
  5
6AE
100
AcDbEntity
  8
SUPERFICI
100
AcDbLine
 62
250
  6
CONTINUOUS
 10
-95.3865636647
 20
0.0
 11
-92.7140300121
 21
0.0
  0
LINE
  5
6AF
100
AcDbEntity
  8
SKEL_COPERCHIO
100
AcDbLine
 62
250
  6
CONTINUOUS
 10
-95.3865634764
 20
0.0000000002
 11
-92.7140300121
 21
-0.0
  0
LINE
  5
6B0
100
AcDbEntity
  8
RACCORDO
100
AcDbLine
 62
250
  6
CONTINUOUS
 10
-95.3865636645
 20
0.0000000002
 11
-92.0126862115
 21
0.0006019772
  0
LINE
  5
6B1
100
AcDbEntity
  8
SUPERFICI
100
AcDbLine
 62
250
  6
CONTINUOUS
 10
-91.4119924236
 20
0.0019471964
 11
-91.8796914985
 21
0.0019950448
  0
LINE
  5
6B2
100
AcDbEntity
  8
SUPERFICI
100
AcDbLine
 62
250
  6
CONTINUOUS
 10
-91.8796914985
 20
0.0019950448
 11
-93.3749442006
 21
0.000553522
  0
LWPOLYLINE
  5
6B3
100
AcDbEntity
  8
SUPERFICI
100
AcDbPolyline
 62
250
  6
CONTINUOUS
 90
3
 70
0
 10
-92.6478386057
 20
-0.000530896
 10
-91.8797001706
 20
-0.0028422098
 10
-91.4119808139
 20
-0.0002840325
  0
LWPOLYLINE
  5
6B4
100
AcDbEntity
  8
SUPERFICI
100
AcDbPolyline
 62
250
  6
CONTINUOUS
 90
5
 70
0
 10
-93.5840183913
 20
-0.0000031152
 10
-93.5722090408
 20
-0.000090482
 10
-93.5024708696
 20
-0.0010638399
 10
-93.3749367076
 20
-0.0002509439
 10
-92.9473057004
 20
-0.001578395
  0
LINE
  5
6B5
100
AcDbEntity
  8
SUPERFICI
100
AcDbLine
 62
7
  6
CONTINUOUS
 10
-92.2072443508
 20
41.9623471037
 11
-92.1942902433
 21
41.8985294846
  0
LINE
  5
6B6
100
AcDbEntity
  8
SUPERFICI
100
AcDbLine
 62
7
  6
CONTINUOUS
 10
-90.7692388789
 20
40.0894072008
 11
-90.7821620577
 21
40.1642550662
  0
LWPOLYLINE
  5
6B7
100
AcDbEntity
  8
RACCORDO
100
AcDbPolyline
 62
250
  6
CONTINUOUS
 90
25
 70
0
 10
-83.2008549394
 20
37.5
 10
-83.1175586451
 20
35.3173934728
 10
-83.0410315182
 20
33.081006486
 10
-82.9712735587
 20
30.7908390397
 10
-82.9082193057
 20
28.4536730545
 10
-82.8519342201
 20
26.0627266097
 10
-82.8026146844
 20
23.5976539436
 10
-82.7601927824
 20
21.0627324024
 10
-82.7247364304
 20
18.4536846398
 10
-82.6966457592
 20
15.7373328549
 10
-82.6759062896
 20
12.9110881689
 10
-82.6625325009
 20
9.9775394605
 10
-82.6569679615
 20
6.9112755651
 10
-82.6596582073
 20
3.7044090575
 10
-82.6701577023
 20
0.3648273628
 10
-82.6875734073
 20
-3.1092184081
 10
-82.7128313008
 20
-6.7255148186
 10
-82.7450054043
 20
-10.4762753052
 10
-82.7804247433
 20
-14.3398890668
 10
-82.8202465707
 20
-18.359088385
 10
-82.8633136336
 20
-22.4911409781
 10
-82.9024831989
 20
-26.5862392008
 10
-82.9353743555
 20
-30.594447171
 10
-82.9643680144
 20
-34.5657007708
 10
-82.9894641756
 20
-38.5
  0
LWPOLYLINE
  5
6B8
100
AcDbEntity
  8
SUPERFICI
100
AcDbPolyline
 62
7
  6
CONTINUOUS
 90
12
 70
0
 10
-92.9757048102
 20
-41.3412070611
 10
-93.0079639226
 20
-41.4550074578
 10
-93.0417079612
 20
-41.5622739162
 10
-93.076893072
 20
-41.6630883415
 10
-93.1136029752
 20
-41.7564052659
 10
-93.1513526788
 20
-41.8386248749
 10
-93.1900532225
 20
-41.9106458576
 10
-93.2297113829
 20
-41.9721851193
 10
-93.2698878563
 20
-42.0193259598
 10
-93.3103533418
 20
-42.051741846
 10
-93.3511471393
 20
-42.0718719454
 10
-93.3921879861
 20
-42.080588424
  0
LINE
  5
6B9
100
AcDbEntity
  8
SUPERFICI
100
AcDbLine
 62
7
  6
CONTINUOUS
 10
-92.2211256144
 20
42.0132429232
 11
-92.2069952589
 21
41.9611334831
  0
LINE
  5
6BA
100
AcDbEntity
  8
SUPERFICI
100
AcDbLine
 62
7
  6
CONTINUOUS
 10
-90.781831925
 20
40.1626075333
 11
-90.7966666122
 21
40.2238118137
  0
LWPOLYLINE
  5
6BB
100
AcDbEntity
  8
RACCORDO
100
AcDbPolyline
 62
250
  6
CONTINUOUS
 90
11
 70
0
 10
-69.4862503178
 20
22.7414514145
 10
-69.485016522
 20
22.7455723371
 10
-69.483888288
 20
22.7578000359
 10
-69.4828965259
 20
22.7777994784
 10
-69.4820684016
 20
22.8050226894
 10
-69.4814266093
 20
22.8387237556
 10
-69.4809887499
 20
22.8779792567
 10
-69.4807668393
 20
22.9217135856
 10
-69.4807669405
 20
22.9687284215
 10
-69.4809890136
 20
23.0177355488
 10
-69.4820688269
 20
23.1163376805
  0
LINE
  5
6BC
100
AcDbEntity
  8
SUPERFICI
100
AcDbLine
 62
7
  6
CONTINUOUS
 10
-90.7963884332
 20
40.2228392841
 11
-90.8127213455
 21
40.2685290342
  0
LWPOLYLINE
  5
6BD
100
AcDbEntity
  8
RACCORDO
100
AcDbPolyline
 62
250
  6
CONTINUOUS
 90
9
 70
0
 10
-69.4862508779
 20
-22.7415155739
 10
-69.4850023174
 20
-22.7456563632
 10
-69.4838604634
 20
-22.7578996322
 10
-69.4828566035
 20
-22.7779100302
 10
-69.4820182574
 20
-22.805139459
 10
-69.4813684187
 20
-22.8388420831
 10
-69.4809249213
 20
-22.878094756
 10
-69.4806999529
 20
-22.9218223126
 10
-69.4806997075
 20
-22.9688270189
  0
LINE
  5
6BE
100
AcDbEntity
  8
DRAFT
100
AcDbLine
 62
7
  6
CONTINUOUS
 10
-75.4949769592
 20
-42.5
 11
-75.4949769592
 21
42.5
  0
LINE
  5
6BF
100
AcDbEntity
  8
SUPERFICI
100
AcDbLine
 62
250
  6
CONTINUOUS
 10
-73.929173526
 20
39.5804442346
 11
-73.929173526
 21
-39.5804442346
  0
LWPOLYLINE
  5
6C0
100
AcDbEntity
  8
SUPERFICI
100
AcDbPolyline
 62
7
  6
CONTINUOUS
 90
3
 70
0
 10
-92.2211256144
 20
42.0132429232
 10
-92.2366201896
 20
42.0520085528
 10
-92.2538150678
 20
42.0786302811
  0
LWPOLYLINE
  5
6C1
100
AcDbEntity
  8
RACCORDO
100
AcDbPolyline
 62
250
  6
CONTINUOUS
 90
10
 70
0
 10
-83.3406166643
 20
38.5835077008
 10
-83.3021434629
 20
38.3911070323
 10
-83.2824595027
 20
38.2816293917
 10
-83.264769118
 20
38.1715670779
 10
-83.2490588628
 20
38.0608799083
 10
-83.2353421831
 20
37.9496080656
 10
-83.2236594172
 20
37.8378720986
 10
-83.2140240109
 20
37.7257121901
 10
-83.2064225183
 20
37.6130881572
 10
-83.2008549394
 20
37.5
  0
LINE
  5
6C2
100
AcDbEntity
  8
SUPERFICI
100
AcDbLine
 62
7
  6
CONTINUOUS
 10
-73.4949769592
 20
-39.0145882543
 11
-73.4949769592
 21
39.0145882543
  0
LWPOLYLINE
  5
6C3
100
AcDbEntity
  8
RACCORDO
100
AcDbPolyline
 62
250
  6
CONTINUOUS
 90
5
 70
0
 10
-69.4820688269
 20
23.1163376805
 10
-69.4828969569
 20
23.1632310003
 10
-69.4838886651
 20
23.2067872488
 10
-69.4850167907
 20
23.2458129803
 10
-69.4862504237
 20
23.2792388887
  0
LINE
  5
6C4
100
AcDbEntity
  8
RACCORDO
100
AcDbLine
 62
250
  6
CONTINUOUS
 10
-68.7923589985
 20
25.3199284669
 11
-68.7923589985
 21
23.9864873566
  0
LINE
  5
6C5
100
AcDbEntity
  8
RACCORDO
100
AcDbLine
 62
250
  6
CONTINUOUS
 10
-68.7923589985
 20
17.8849392887
 11
-68.7923589985
 21
17.1880678433
  0
LINE
  5
6C6
100
AcDbEntity
  8
RACCORDO
100
AcDbLine
 62
250
  6
CONTINUOUS
 10
-68.7923589985
 20
-23.9864873566
 11
-68.7923589985
 21
-25.3199284669
  0
LINE
  5
6C7
100
AcDbEntity
  8
RACCORDO
100
AcDbLine
 62
7
  6
CONTINUOUS
 10
-68.4949769592
 20
25.5586247418
 11
-68.4949769592
 21
23.7414133366
  0
LINE
  5
6C8
100
AcDbEntity
  8
RACCORDO
100
AcDbLine
 62
7
  6
CONTINUOUS
 10
-68.4949769592
 20
-17.9944833763
 11
-68.4949769592
 21
17.9331989383
  0
LINE
  5
6C9
100
AcDbEntity
  8
RACCORDO
100
AcDbLine
 62
7
  6
CONTINUOUS
 10
-68.4949769592
 20
-23.7414133366
 11
-68.4949769592
 21
-25.5586247418
  0
LWPOLYLINE
  5
6CA
100
AcDbEntity
  8
RACCORDO
100
AcDbPolyline
 62
250
  6
CONTINUOUS
 90
7
 70
0
 10
-69.4806997075
 20
-22.9688270189
 10
-69.4813673374
 20
-23.0674633801
 10
-69.4820169561
 20
-23.1163933026
 10
-69.4828552601
 20
-23.1632709143
 10
-69.4838592646
 20
-23.2068121999
 10
-69.4850014325
 20
-23.2458245264
 10
-69.486250419
 20
-23.2792393144
  0
LWPOLYLINE
  5
6CB
100
AcDbEntity
  8
RACCORDO
100
AcDbPolyline
 62
250
  6
CONTINUOUS
 90
19
 70
0
 10
-68.7923589985
 20
23.9864873566
 10
-68.7961590774
 20
23.9193972323
 10
-68.8050541047
 20
23.8548819142
 10
-68.8190440804
 20
23.7929881691
 10
-68.8383927494
 20
23.7336928759
 10
-68.8628363668
 20
23.6771052362
 10
-68.8915836979
 20
23.6234699675
 10
-68.9245811307
 20
23.5727129468
 10
-68.9618822773
 20
23.524985716
 10
-69.0028567395
 20
23.4808767378
 10
-69.0476893037
 20
23.4403378145
 10
-69.0961951834
 20
23.4034899123
 10
-69.1471896214
 20
23.3711833059
 10
-69.200899774
 20
23.3436029785
 10
-69.2570984849
 20
23.3206273354
 10
-69.3139195279
 20
23.3026484847
 10
-69.3707408276
 20
23.2898097495
 10
-69.4281844596
 20
23.2820034589
 10
-69.4862504237
 20
23.2792388886
  0
LINE
  5
6CC
100
AcDbEntity
  8
SUPERFICI
100
AcDbLine
 62
7
  6
CONTINUOUS
 10
-91.5308599606
 20
-40.1843404698
 11
-91.5647787045
 21
-40.2396428579
  0
LWPOLYLINE
  5
6CD
100
AcDbEntity
  8
RACCORDO
100
AcDbPolyline
 62
250
  6
CONTINUOUS
 90
15
 70
0
 10
-83.7008403681
 20
39.7448580644
 10
-83.6668713797
 20
39.6629287646
 10
-83.6342570756
 20
39.5807866893
 10
-83.6029447006
 20
39.4984039455
 10
-83.5729344766
 20
39.4158292506
 10
-83.5442261816
 20
39.3331095339
 10
-83.516766394
 20
39.2502101341
 10
-83.4905545491
 20
39.1671761553
 10
-83.4655912115
 20
39.0840517096
 10
-83.4418246533
 20
39.0007975311
 10
-83.4192536771
 20
38.9174552614
 10
-83.3978794804
 20
38.8340678429
 10
-83.3776539277
 20
38.7505958581
 10
-83.358560974
 20
38.667053198
 10
-83.3406166643
 20
38.5835077008
  0
LWPOLYLINE
  5
6CE
100
AcDbEntity
  8
RACCORDO
100
AcDbPolyline
 62
250
  6
CONTINUOUS
 90
10
 70
0
 10
-68.4949769592
 20
23.7414133366
 10
-68.4994835794
 20
23.7837340534
 10
-68.5128683682
 20
23.8247840974
 10
-68.5347296528
 20
23.8633299996
 10
-68.5644110049
 20
23.8982134095
 10
-68.6010209946
 20
23.9283859595
 10
-68.6434599927
 20
23.9529407449
 10
-68.6904530716
 20
23.9711395383
 10
-68.7405882495
 20
23.9824350361
 10
-68.7923589985
 20
23.9864873566
  0
LWPOLYLINE
  5
6CF
100
AcDbEntity
  8
RACCORDO
100
AcDbPolyline
 62
250
  6
CONTINUOUS
 90
10
 70
0
 10
-68.4949769592
 20
-23.7414133366
 10
-68.4994830619
 20
-23.7837319784
 10
-68.512866662
 20
-23.824780827
 10
-68.5347266398
 20
-23.8633264459
 10
-68.5644072844
 20
-23.8982105527
 10
-68.6010174883
 20
-23.9283842907
 10
-68.643457133
 20
-23.9529400364
 10
-68.6904509418
 20
-23.971139395
 10
-68.7405871011
 20
-23.982435147
 10
-68.7923589985
 20
-23.9864873566
  0
LWPOLYLINE
  5
6D0
100
AcDbEntity
  8
RACCORDO
100
AcDbPolyline
 62
7
  6
CONTINUOUS
 90
4
 70
0
 10
-68.5561335139
 20
17.9960565423
 10
-68.5683245981
 20
17.9958591402
 10
-68.5898405059
 20
17.9929710567
 10
-68.612726584
 20
17.9868217759
  0
LINE
  5
6D1
100
AcDbEntity
  8
RACCORDO
100
AcDbLine
 62
250
  6
CONTINUOUS
 10
-68.6179691302
 20
17.0119601223
 11
-73.4949769592
 21
17.0257123309
  0
LINE
  5
6D2
100
AcDbEntity
  8
RACCORDO
100
AcDbLine
 62
250
  6
CONTINUOUS
 10
-68.7923589985
 20
17.1880678433
 11
-73.4949769592
 21
17.201216812
  0
LINE
  5
6D3
100
AcDbEntity
  8
RACCORDO
100
AcDbLine
 62
250
  6
CONTINUOUS
 10
-73.4949769592
 20
18.0063147943
 11
-68.7923589985
 21
17.8849392887
  0
LWPOLYLINE
  5
6D4
100
AcDbEntity
  8
RACCORDO
100
AcDbPolyline
 62
7
  6
CONTINUOUS
 90
7
 70
0
 10
-68.4949769592
 20
17.9331947916
 10
-68.4976185304
 20
17.9543074226
 10
-68.5050682767
 20
17.9714696314
 10
-68.5165914106
 20
17.9843723406
 10
-68.5313506484
 20
17.9923155915
 10
-68.5486857304
 20
17.9956825223
 10
-68.5561335139
 20
17.9960565423
  0
LINE
  5
6D5
100
AcDbEntity
  8
RACCORDO
100
AcDbLine
 62
7
  6
CONTINUOUS
 10
-68.5561718768
 20
17.9961700595
 11
-73.4949769592
 21
18.1226292198
  0
LWPOLYLINE
  5
6D6
100
AcDbEntity
  8
0
100
AcDbPolyline
 62
7
  6
CONTINUOUS
 90
10
 70
0
 43
0.3500000087
 10
-85.7479350342
 20
51.7500017029
 10
-85.6765076111
 20
51.6071425934
 10
-85.6765076111
 20
51.5357151703
 10
-85.8193624573
 20
51.3928560608
 10
-85.8907898804
 20
51.3928560608
 10
-85.9622173035
 20
51.4642877472
 10
-85.9622173035
 20
51.5357151703
 10
-85.8907898804
 20
51.6785700165
 10
-85.8193624573
 20
51.7500017029
 10
-85.7479350342
 20
51.7500017029
  0
LINE
  5
6D7
100
AcDbEntity
  8
RACCORDO
100
AcDbLine
 62
7
  6
CONTINUOUS
 10
-96.186605295
 20
23.9825449351
 11
-96.3040577014
 21
23.9804947957
  0
LINE
  5
6D8
100
AcDbEntity
  8
RACCORDO
100
AcDbLine
 62
250
  6
CONTINUOUS
 10
-69.4862504237
 20
23.2792388886
 11
-73.4949769592
 21
23.2436085682
  0
LINE
  5
6D9
100
AcDbEntity
  8
RACCORDO
100
AcDbLine
 62
7
  6
CONTINUOUS
 10
-69.4862504237
 20
22.7414514135
 11
-73.4949769592
 21
22.706467787
  0
LINE
  5
6DA
100
AcDbEntity
  8
DRAFT
100
AcDbLine
 62
250
  6
CONTINUOUS
 10
-83.686605295
 20
22.2
 11
-83.4949769592
 21
22.2
  0
LINE
  5
6DB
100
AcDbEntity
  8
RACCORDO
100
AcDbLine
 62
250
  6
CONTINUOUS
 10
-95.9852028905
 20
22.2
 11
-97.286605295
 21
22.2
  0
LINE
  5
6DC
100
AcDbEntity
  8
RACCORDO
100
AcDbLine
 62
250
  6
CONTINUOUS
 10
-95.5100558472
 20
22.1966913858
 11
-95.9851906633
 21
22.1999999993
  0
LWPOLYLINE
  5
6DD
100
AcDbEntity
  8
RACCORDO
100
AcDbPolyline
 62
250
  6
CONTINUOUS
 90
4
 70
0
 10
-95.3812892729
 20
22.194318587
 10
-95.3914744332
 20
22.194876646
 10
-95.4164247878
 20
22.1954600734
 10
-95.5100558472
 20
22.1966913858
  0
LWPOLYLINE
  5
6DE
100
AcDbEntity
  8
RACCORDO
100
AcDbPolyline
 62
7
  6
CONTINUOUS
 90
10
 70
0
 10
-68.6179694242
 20
17.0119606319
 10
-68.635988317
 20
17.03400864
 10
-68.6545852803
 20
17.0554590862
 10
-68.6736338651
 20
17.0763091964
 10
-68.6929643286
 20
17.0965989538
 10
-68.7125058709
 20
17.1163036962
 10
-68.7322979222
 20
17.1353144951
 10
-68.7522925408
 20
17.1535889367
 10
-68.7723441367
 20
17.1711701033
 10
-68.7923589985
 20
17.1880660433
  0
LWPOLYLINE
  5
6DF
100
AcDbEntity
  8
RACCORDO
100
AcDbPolyline
 62
7
  6
CONTINUOUS
 90
10
 70
0
 10
-68.6179691302
 20
17.0119601223
 10
-68.5926987195
 20
16.9759470486
 10
-68.5703082681
 20
16.9371318425
 10
-68.5507977762
 20
16.8955145039
 10
-68.5341389848
 20
16.8508787433
 10
-68.5203601528
 20
16.8034408503
 10
-68.5095460566
 20
16.7538496935
 10
-68.501724955
 20
16.7023215626
 10
-68.4968685892
 20
16.6486401678
 10
-68.4949769592
 20
16.5928055094
  0
LWPOLYLINE
  5
6E0
100
AcDbEntity
  8
RACCORDO
100
AcDbPolyline
 62
7
  6
CONTINUOUS
 90
10
 70
0
 10
-68.641507019
 20
25.3599034902
 10
-68.6574481232
 20
25.3594250284
 10
-68.6737330197
 20
25.3579259361
 10
-68.6902887805
 20
25.3554075927
 10
-68.7070149392
 20
25.3518506702
 10
-68.7238716988
 20
25.3472924371
 10
-68.7408849565
 20
25.3418115997
 10
-68.7580251266
 20
25.3354313975
 10
-68.7752025522
 20
25.3281343714
 10
-68.7923589985
 20
25.3199294028
  0
LINE
  5
6E1
100
AcDbEntity
  8
RACCORDO
100
AcDbLine
 62
250
  6
CONTINUOUS
 10
-73.4949769592
 20
25.3610236693
 11
-68.7923589985
 21
25.3199284669
  0
LINE
  5
6E2
100
AcDbEntity
  8
RACCORDO
100
AcDbLine
 62
7
  6
CONTINUOUS
 10
-73.4949769592
 20
25.4022590807
 11
-68.4949769592
 21
25.3586247418
  0
LINE
  5
6E3
100
AcDbEntity
  8
RACCORDO
100
AcDbLine
 62
7
  6
CONTINUOUS
 10
-73.4949769592
 20
25.6022590807
 11
-68.4949769592
 21
25.5586247418
  0
LINE
  5
6E4
100
AcDbEntity
  8
0
100
AcDbLine
 62
7
  6
CONTINUOUS
 10
-86.5513793368
 20
42.1647740418
 11
-86.5859962378
 21
42.1993909428
  0
LINE
  5
6E5
100
AcDbEntity
  8
DRAFT
100
AcDbLine
 62
7
  6
CONTINUOUS
 10
-83.686605295
 20
31.1767994202
 11
-83.4949769592
 21
31.1834912292
  0
LINE
  5
6E6
100
AcDbEntity
  8
ASSI
100
AcDbLine
 62
7
  6
CONTINUOUS
 10
-83.686605295
 20
32.8
 11
-83.4949769592
 21
32.8
  0
LWPOLYLINE
  5
6E7
100
AcDbEntity
  8
RACCORDO
100
AcDbPolyline
 62
250
  6
CONTINUOUS
 90
32
 70
0
 10
-85.3972895016
 20
41.904303895
 10
-85.3329041697
 20
41.8585910776
 10
-85.2674717586
 20
41.810203976
 10
-85.2010202747
 20
41.7591346621
 10
-85.1344476563
 20
41.7057342801
 10
-85.0678306276
 20
41.650085669
 10
-85.0010924645
 20
41.5921778613
 10
-84.9349009324
 20
41.5323004394
 10
-84.869330845
 20
41.4705597377
 10
-84.8043073887
 20
41.406983415
 10
-84.740273888
 20
41.3417864821
 10
-84.677290658
 20
41.275080137
 10
-84.6152973835
 20
41.206914656
 10
-84.5545564438
 20
41.1374325936
 10
-84.4951088104
 20
41.0667364683
 10
-84.4369135118
 20
40.9948903447
 10
-84.3801100126
 20
40.9219836462
 10
-84.3247247476
 20
40.8481082153
 10
-84.2707312821
 20
40.7733327525
 10
-84.2181897768
 20
40.6977094867
 10
-84.1671168634
 20
40.6213201718
 10
-84.1174959101
 20
40.5442327019
 10
-84.0693371822
 20
40.4664730407
 10
-84.0226509117
 20
40.3881140505
 10
-83.9774268666
 20
40.3092200854
 10
-83.9336446154
 20
40.2297979298
 10
-83.89131022
 20
40.1499128053
 10
-83.8504176187
 20
40.0696244306
 10
-83.8109281944
 20
39.9889249814
 10
-83.7728452394
 20
39.9078731484
 10
-83.7361654616
 20
39.8265239076
 10
-83.7008403681
 20
39.7448580644
  0
LINE
  5
6E8
100
AcDbEntity
  8
RACCORDO
100
AcDbLine
 62
250
  6
CONTINUOUS
 10
-85.6949769592
 20
42.0916407392
 11
-85.6915464687
 21
42.0897151002
  0
LINE
  5
6E9
100
AcDbEntity
  8
RACCORDO
100
AcDbLine
 62
7
  6
CONTINUOUS
 10
-85.6915464687
 20
42.0897151002
 11
-85.6792887314
 21
42.0827859775
  0
LWPOLYLINE
  5
6EA
100
AcDbEntity
  8
RACCORDO
100
AcDbPolyline
 62
250
  6
CONTINUOUS
 90
3
 70
0
 10
-85.6792887314
 20
42.0827859775
 10
-85.639213974
 20
42.0596122785
 10
-85.5816179969
 20
42.0249554222
  0
LWPOLYLINE
  5
6EB
100
AcDbEntity
  8
RACCORDO
100
AcDbPolyline
 62
250
  6
CONTINUOUS
 90
4
 70
0
 10
-85.5816179969
 20
42.0249554222
 10
-85.522189028
 20
41.9875961109
 10
-85.4606557607
 20
41.9473773207
 10
-85.3972895016
 20
41.904303895
  0
LWPOLYLINE
  5
6EC
100
AcDbEntity
  8
RACCORDO
100
AcDbPolyline
 62
250
  6
CONTINUOUS
 90
13
 70
0
 10
-83.3238209909
 20
38.4999999623
 10
-83.3563495134
 20
38.4932999016
 10
-83.3882949238
 20
38.4868938132
 10
-83.419121279
 20
38.4808891712
 10
-83.4483114101
 20
38.4753867141
 10
-83.4753755992
 20
38.4704787561
 10
-83.4998597948
 20
38.466247638
 10
-83.5213532296
 20
38.462764345
 10
-83.5394953117
 20
38.4600873153
 10
-83.5539816742
 20
38.4582614604
 10
-83.5645692818
 20
38.4573174124
 10
-83.571080508
 20
38.4572710094
 10
-83.573406115
 20
38.4581230301
  0
LWPOLYLINE
  5
6ED
100
AcDbEntity
  8
RACCORDO
100
AcDbPolyline
 62
250
  6
CONTINUOUS
 90
13
 70
0
 10
-83.2008549394
 20
37.5
 10
-83.2394277005
 20
37.4985603933
 10
-83.277274345
 20
37.4973481051
 10
-83.3137602783
 20
37.4963834627
 10
-83.3482737219
 20
37.4956826402
 10
-83.3802359709
 20
37.495257389
 10
-83.4091110977
 20
37.4951148413
 10
-83.4344149379
 20
37.4952573882
 10
-83.4557232088
 20
37.4956826385
 10
-83.4726786236
 20
37.4963834606
 10
-83.4849968819
 20
37.4973481033
 10
-83.492471437
 20
37.4985603921
 10
-83.4949769592
 20
37.5
  0
LINE
  5
6EE
100
AcDbEntity
  8
SUPERFICI
100
AcDbLine
 62
250
  6
CONTINUOUS
 10
-73.4949769592
 20
36.7
 11
-75.4949769592
 21
36.7
  0
LINE
  5
6EF
100
AcDbEntity
  8
SUPERFICI
100
AcDbLine
 62
250
  6
CONTINUOUS
 10
-92.1754925674
 20
38.4900002043
 11
-83.686605295
 21
38.49
  0
LINE
  5
6F0
100
AcDbEntity
  8
ASSI
100
AcDbLine
 62
250
  6
CONTINUOUS
 10
-91.4319062174
 20
38.49
 11
-83.7732373463
 21
38.4900001097
  0
LINE
  5
6F1
100
AcDbEntity
  8
SKEL_COPERCHIO
100
AcDbLine
 62
250
  6
CONTINUOUS
 10
-92.1754925677
 20
38.4900002043
 11
-83.686605295
 21
38.49
  0
LINE
  5
6F2
100
AcDbEntity
  8
RACCORDO
100
AcDbLine
 62
250
  6
CONTINUOUS
 10
-83.3238209987
 20
38.5
 11
-75.4949769592
 21
38.5
  0
LWPOLYLINE
  5
6F3
100
AcDbEntity
  8
RACCORDO
100
AcDbPolyline
 62
250
  6
CONTINUOUS
 90
3
 70
0
 10
-92.3750714341
 20
38.5793484958
 10
-92.3415181208
 20
38.5760466298
 10
-91.4319058567
 20
38.4899999962
  0
LWPOLYLINE
  5
6F4
100
AcDbEntity
  8
RACCORDO
100
AcDbPolyline
 62
250
  6
CONTINUOUS
 90
4
 70
0
 10
-92.4780266956
 20
41.3539262249
 10
-92.5434252242
 20
41.3646639967
 10
-92.5989943111
 20
41.374394592
 10
-92.6461131702
 20
41.383103461
  0
LWPOLYLINE
  5
6F5
100
AcDbEntity
  8
RACCORDO
100
AcDbPolyline
 62
250
  6
CONTINUOUS
 90
3
 70
0
 10
-92.6461131702
 20
41.383103461
 10
-92.7191806953
 20
41.3971219999
 10
-92.7486023283
 20
41.4029809638
  0
LWPOLYLINE
  5
6F6
100
AcDbEntity
  8
RACCORDO
100
AcDbPolyline
 62
250
  6
CONTINUOUS
 90
3
 70
0
 10
-92.7486023283
 20
41.4029809638
 10
-92.7970910764
 20
41.41293829
 10
-92.8172462432
 20
41.4171882998
  0
LWPOLYLINE
  5
6F7
100
AcDbEntity
  8
RACCORDO
100
AcDbPolyline
 62
250
  6
CONTINUOUS
 90
18
 70
0
 10
-92.8172462432
 20
41.4171882998
 10
-92.8509673524
 20
41.4245194764
 10
-92.8650662884
 20
41.4276853165
 10
-92.8775756606
 20
41.4305787784
 10
-92.8885353277
 20
41.4331787883
 10
-92.8980996707
 20
41.4355449832
 10
-92.9063889517
 20
41.4376808504
 10
-92.9134418684
 20
41.439581536
 10
-92.9193300703
 20
41.4412930602
 10
-92.924191327
 20
41.4428052579
 10
-92.9281195293
 20
41.4441251061
 10
-92.9311853939
 20
41.4453228988
 10
-92.9334954068
 20
41.4464091902
 10
-92.9351465657
 20
41.447370256
 10
-92.9362179603
 20
41.4482393815
 10
-92.9368003365
 20
41.449014667
 10
-92.936971132
 20
41.4496952863
 10
-92.9368923077
 20
41.4500999013
  0
LWPOLYLINE
  5
6F8
100
AcDbEntity
  8
SUPERFICI
100
AcDbPolyline
 62
7
  6
CONTINUOUS
 90
3
 70
0
 10
-92.2929477149
 20
42.0997757343
 10
-92.2726631894
 20
42.0946001382
 10
-92.253896655
 20
42.0788960658
  0
LINE
  5
6F9
100
AcDbEntity
  8
SUPERFICI
100
AcDbLine
 62
7
  6
CONTINUOUS
 10
-92.2725959693
 20
42.0943760584
 11
-92.2929477149
 21
42.0997757343
  0
LWPOLYLINE
  5
6FA
100
AcDbEntity
  8
SUPERFICI
100
AcDbPolyline
 62
7
  6
CONTINUOUS
 90
4
 70
0
 10
-90.8717158356
 20
40.3243092385
 10
-90.8504885826
 20
40.3182136023
 10
-90.8308809651
 20
40.2999946143
 10
-90.812937971
 20
40.269012735
  0
LINE
  5
6FB
100
AcDbEntity
  8
0
100
AcDbLine
 62
7
  6
CONTINUOUS
 10
-86.5513793368
 20
42.1647740418
 11
-86.1217631012
 21
42.1723447486
  0
LINE
  5
6FC
100
AcDbEntity
  8
SUPERFICI
100
AcDbLine
 62
250
  6
CONTINUOUS
 10
-90.8717158356
 20
40.3243092385
 11
-83.686605295
 21
40.4497258095
  0
LINE
  5
6FD
100
AcDbEntity
  8
SUPERFICI
100
AcDbLine
 62
7
  6
CONTINUOUS
 10
-90.8717158356
 20
40.3243092385
 11
-91.432690889
 21
40.3145173825
  0
LINE
  5
6FE
100
AcDbEntity
  8
SUPERFICI
100
AcDbLine
 62
250
  6
CONTINUOUS
 10
-92.2929477149
 20
42.0997757343
 11
-83.686605295
 21
42.25
  0
LINE
  5
6FF
100
AcDbEntity
  8
0
100
AcDbLine
 62
7
  6
CONTINUOUS
 10
-91.5329175418
 20
42.1130421103
 11
-86.5859962378
 21
42.1993909428
  0
LINE
  5
700
100
AcDbEntity
  8
SKEL_COPERCHIO
100
AcDbLine
 62
7
  6
CONTINUOUS
 10
-85.6937327219
 20
42.2149654604
 11
-92.6942271957
 21
42.0927713749
  0
LINE
  5
701
100
AcDbEntity
  8
SUPERFICI
100
AcDbLine
 62
7
  6
CONTINUOUS
 10
-92.2929477149
 20
42.0997757343
 11
-92.6942130165
 21
42.0927716224
  0
LINE
  5
702
100
AcDbEntity
  8
DRAFT
100
AcDbLine
 62
7
  6
CONTINUOUS
 10
-85.6949769592
 20
42.3219583377
 11
-75.4949769592
 21
42.5
  0
LWPOLYLINE
  5
703
100
AcDbEntity
  8
0
100
AcDbPolyline
 62
7
  6
CONTINUOUS
 90
7
 70
0
 43
0.3500000087
 10
-88.9622202332
 20
51.2500012146
 10
-90.462221698
 20
51.2500012146
 10
-88.9622202332
 20
53.3928580139
 10
-88.9622202332
 20
53.8214310791
 10
-89.3907932983
 20
54.2500041443
 10
-90.0336486328
 20
54.2500041443
 10
-90.462221698
 20
53.6071402832
  0
LINE
  5
704
100
AcDbEntity
  8
SUPERFICI
100
AcDbLine
 62
7
  6
CONTINUOUS
 10
-73.929173526
 20
39.5804442346
 11
-75.4949769592
 21
40.0
  0
LWPOLYLINE
  5
705
100
AcDbEntity
  8
0
100
AcDbPolyline
 62
7
  6
CONTINUOUS
 90
13
 70
0
 43
0.3500000087
 10
-84.2479335693
 20
52.9642849487
 10
-84.5336517883
 20
53.178567218
 10
-84.5336517883
 20
53.8214310791
 10
-84.2479335693
 20
54.2500041443
 10
-83.6050782349
 20
54.2500041443
 10
-83.3193600159
 20
53.8214310791
 10
-83.3193600159
 20
53.178567218
 10
-83.6050782349
 20
52.9642849487
 10
-83.1765051697
 20
52.5357118835
 10
-83.1765051697
 20
51.6785700165
 10
-83.6050782349
 20
51.2500012146
 10
-84.2479335693
 20
51.2500012146
 10
-84.6765066345
 20
51.6785700165
  0
ARC
  5
706
100
AcDbEntity
  8
DRAFT
100
AcDbCircle
 62
7
  6
CONTINUOUS
 10
40.0
 20
-38.5
 40
4.0
100
AcDbArc
 50
270.0
 51
360.0
  0
ARC
  5
707
100
AcDbEntity
  8
DRAFT
100
AcDbCircle
 62
7
  6
CONTINUOUS
 10
40.0
 20
38.5
 40
4.0
100
AcDbArc
 50
0.0
 51
90.0
  0
ARC
  5
708
100
AcDbEntity
  8
DRAFT
100
AcDbCircle
 62
7
  6
CONTINUOUS
 10
-40.0
 20
38.5
 40
4.0
100
AcDbArc
 50
90.0
 51
180.0
  0
ARC
  5
709
100
AcDbEntity
  8
DRAFT
100
AcDbCircle
 62
7
  6
CONTINUOUS
 10
-40.0
 20
-38.5
 40
4.0
100
AcDbArc
 50
180.0
 51
270.0
  0
ARC
  5
70A
100
AcDbEntity
  8
RACCORDO
100
AcDbCircle
 62
250
  6
CONTINUOUS
 10
-22.2
 20
22.2
 40
3.9019934976
100
AcDbArc
 50
90.0
 51
180.0
  0
ARC
  5
70B
100
AcDbEntity
  8
RACCORDO
100
AcDbCircle
 62
250
  6
CONTINUOUS
 10
22.2
 20
22.2
 40
3.9019922454
100
AcDbArc
 50
0.0
 51
90.0
  0
ARC
  5
70C
100
AcDbEntity
  8
RACCORDO
100
AcDbCircle
 62
7
  6
CONTINUOUS
 10
40.0
 20
38.5
 40
3.8219583377
100
AcDbArc
 50
70.0076584058
 51
90.0
  0
ARC
  5
70D
100
AcDbEntity
  8
RACCORDO
100
AcDbCircle
 62
7
  6
CONTINUOUS
 10
-40.0
 20
38.5
 40
3.8219583377
100
AcDbArc
 50
90.0
 51
109.9923415942
  0
ARC
  5
70E
100
AcDbEntity
  8
SKEL_COPERCHIO
100
AcDbCircle
 62
7
  6
CONTINUOUS
 10
39.99
 20
-38.49
 40
3.76
100
AcDbArc
 50
270.0
 51
360.0
  0
ARC
  5
70F
100
AcDbEntity
  8
SKEL_COPERCHIO
100
AcDbCircle
 62
7
  6
CONTINUOUS
 10
-39.99
 20
-38.49
 40
3.76
100
AcDbArc
 50
180.0
 51
270.0
  0
ARC
  5
710
100
AcDbEntity
  8
0
100
AcDbCircle
 62
7
  6
CONTINUOUS
 10
-39.99
 20
-38.49
 40
3.76
100
AcDbArc
 50
180.0
 51
270.0
  0
ARC
  5
711
100
AcDbEntity
  8
0
100
AcDbCircle
 62
7
  6
CONTINUOUS
 10
39.99
 20
-38.49
 40
3.76
100
AcDbArc
 50
270.0
 51
360.0
  0
ARC
  5
712
100
AcDbEntity
  8
SUPERFICI
100
AcDbCircle
 62
7
  6
CONTINUOUS
 10
39.99
 20
-38.49
 40
3.76
100
AcDbArc
 50
270.0
 51
360.0
  0
ARC
  5
713
100
AcDbEntity
  8
SUPERFICI
100
AcDbCircle
 62
7
  6
CONTINUOUS
 10
39.99
 20
38.49
 40
3.76
100
AcDbArc
 50
0.0
 51
90.0
  0
ARC
  5
714
100
AcDbEntity
  8
SUPERFICI
100
AcDbCircle
 62
7
  6
CONTINUOUS
 10
-39.99
 20
38.49
 40
3.76
100
AcDbArc
 50
90.0
 51
180.0
  0
ARC
  5
715
100
AcDbEntity
  8
SUPERFICI
100
AcDbCircle
 62
7
  6
CONTINUOUS
 10
-39.99
 20
-38.49
 40
3.76
100
AcDbArc
 50
180.0
 51
270.0
  0
ARC
  5
716
100
AcDbEntity
  8
SUPERFICI
100
AcDbCircle
 62
7
  6
CONTINUOUS
 10
39.99
 20
-38.49
 40
1.9597258095
100
AcDbArc
 50
270.0
 51
360.0
  0
ARC
  5
717
100
AcDbEntity
  8
SUPERFICI
100
AcDbCircle
 62
7
  6
CONTINUOUS
 10
-39.99
 20
-38.49
 40
1.9597258095
100
AcDbArc
 50
180.0
 51
270.0
  0
ARC
  5
718
100
AcDbEntity
  8
SUPERFICI
100
AcDbCircle
 62
7
  6
CONTINUOUS
 10
-39.99
 20
38.49
 40
1.9597258095
100
AcDbArc
 50
90.0
 51
180.0000000001
  0
ARC
  5
719
100
AcDbEntity
  8
SUPERFICI
100
AcDbCircle
 62
7
  6
CONTINUOUS
 10
39.99
 20
38.49
 40
1.9597258095
100
AcDbArc
 50
0.0
 51
90.0
  0
ARC
  5
71A
100
AcDbEntity
  8
RACCORDO
100
AcDbCircle
 62
250
  6
CONTINUOUS
 10
-22.2
 20
-22.2
 40
1.7804947929
100
AcDbArc
 50
180.0
 51
270.0
  0
ARC
  5
71B
100
AcDbEntity
  8
RACCORDO
100
AcDbCircle
 62
250
  6
CONTINUOUS
 10
22.2
 20
22.2
 40
1.7804947929
100
AcDbArc
 50
0.0
 51
90.0
  0
ARC
  5
71C
100
AcDbEntity
  8
RACCORDO
100
AcDbCircle
 62
250
  6
CONTINUOUS
 10
22.2
 20
-22.2
 40
1.7804947929
100
AcDbArc
 50
270.0
 51
360.0
  0
ARC
  5
71D
100
AcDbEntity
  8
RACCORDO
100
AcDbCircle
 62
250
  6
CONTINUOUS
 10
-22.2
 20
22.2
 40
1.7804947929
100
AcDbArc
 50
90.0
 51
180.0
  0
ARC
  5
71E
100
AcDbEntity
  8
0
100
AcDbCircle
 62
7
  6
CONTINUOUS
 10
24.599711
 20
-29.989243
 40
0.8893898871
100
AcDbArc
 50
292.842868527
 51
90.0
  0
ARC
  5
71F
100
AcDbEntity
  8
RACCORDO
100
AcDbCircle
 62
250
  6
CONTINUOUS
 10
-22.2
 20
-22.2
 40
0.7806448049
100
AcDbArc
 50
180.0
 51
270.0
  0
ARC
  5
720
100
AcDbEntity
  8
RACCORDO
100
AcDbCircle
 62
250
  6
CONTINUOUS
 10
22.2
 20
22.2
 40
0.7806448049
100
AcDbArc
 50
0.0
 51
90.0
  0
ARC
  5
721
100
AcDbEntity
  8
RACCORDO
100
AcDbCircle
 62
250
  6
CONTINUOUS
 10
-22.2
 20
22.2
 40
0.7806448049
100
AcDbArc
 50
90.0
 51
180.0
  0
ARC
  5
722
100
AcDbEntity
  8
RACCORDO
100
AcDbCircle
 62
250
  6
CONTINUOUS
 10
22.2
 20
-22.2
 40
0.7806448049
100
AcDbArc
 50
270.0
 51
360.0
  0
ARC
  5
723
100
AcDbEntity
  8
0
100
AcDbCircle
 62
7
  6
CONTINUOUS
 10
24.519205
 20
-29.989243
 40
0.352865
100
AcDbArc
 50
270.0
 51
90.0
  0
ARC
  5
724
100
AcDbEntity
  8
RACCORDO
100
AcDbCircle
 62
7
  6
CONTINUOUS
 10
-98.3866223423
 20
-27.8999772707
 40
3.0000000003
100
AcDbArc
 50
36.0999623054
 51
36.8694568176
  0
ARC
  5
725
100
AcDbEntity
  8
RACCORDO
100
AcDbCircle
 62
7
  6
CONTINUOUS
 10
-96.286605295
 20
-22.9806471005
 40
1.0
100
AcDbArc
 50
180.0
 51
268.9999999971
  0
ARC
  5
726
100
AcDbEntity
  8
RACCORDO
100
AcDbCircle
 62
7
  6
CONTINUOUS
 10
-95.186605295
 20
-25.5
 40
1.0
100
AcDbArc
 50
180.0
 51
216.8391602508
  0
ARC
  5
727
100
AcDbEntity
  8
0
100
AcDbCircle
 62
7
  6
CONTINUOUS
 10
-95.186605295
 20
-25.5
 40
1.0
100
AcDbArc
 50
180.0
 51
216.8391602508
  0
ARC
  5
728
100
AcDbEntity
  8
RACCORDO
100
AcDbCircle
 62
7
  6
CONTINUOUS
 10
-91.7220094511
 20
-41.6243235325
 40
0.5
100
AcDbArc
 50
255.1062267792
 51
269.9979945704
  0
ARC
  5
729
100
AcDbEntity
  8
RACCORDO
100
AcDbCircle
 62
7
  6
CONTINUOUS
 10
-89.386605295
 20
37.5
 40
5.8916283358
100
AcDbArc
 50
49.8694639884
 51
51.2011035197
  0
ARC
  5
72A
100
AcDbEntity
  8
RACCORDO
100
AcDbCircle
 62
7
  6
CONTINUOUS
 10
-89.386605295
 20
37.5
 40
5.8916283358
100
AcDbArc
 50
0.0
 51
14.6531582864
  0
ARC
  5
72B
100
AcDbEntity
  8
ASSI
100
AcDbCircle
 62
7
  6
CONTINUOUS
 10
-89.386605295
 20
37.5
 40
5.8916283358
100
AcDbArc
 50
0.0
 51
14.6471236868
  0
ARC
  5
72C
100
AcDbEntity
  8
ASSI
100
AcDbCircle
 62
7
  6
CONTINUOUS
 10
-89.386605295
 20
37.5
 40
5.7
100
AcDbArc
 50
0.0
 51
10.0020975147
  0
ARC
  5
72D
100
AcDbEntity
  8
0
100
AcDbCircle
 62
7
  6
CONTINUOUS
 10
-89.386605295
 20
37.5
 40
5.7
100
AcDbArc
 50
10.002096405
 51
55.0557346587
  0
ARC
  5
72E
100
AcDbEntity
  8
RACCORDO
100
AcDbCircle
 62
7
  6
CONTINUOUS
 10
-98.3865188186
 20
27.9001152975
 40
3.0
100
AcDbArc
 50
323.1280334643
 51
359.9908435427
  0
ARC
  5
72F
100
AcDbEntity
  8
RACCORDO
100
AcDbCircle
 62
7
  6
CONTINUOUS
 10
-96.286605295
 20
22.9806471005
 40
1.0
100
AcDbArc
 50
91.0
 51
180.0
  0
ARC
  5
730
100
AcDbEntity
  8
RACCORDO
100
AcDbCircle
 62
7
  6
CONTINUOUS
 10
-95.186605295
 20
25.5
 40
1.0
100
AcDbArc
 50
142.9707148414
 51
180.0
  0
ARC
  5
731
100
AcDbEntity
  8
0
100
AcDbCircle
 62
7
  6
CONTINUOUS
 10
-95.186605295
 20
25.5
 40
1.0
100
AcDbArc
 50
142.9707148414
 51
180.0
  0
ARC
  5
732
100
AcDbEntity
  8
RACCORDO
100
AcDbCircle
 62
7
  6
CONTINUOUS
 10
-69.4949769592
 20
-23.7414133366
 40
1.0
100
AcDbArc
 50
0.0
 51
89.5
  0
ARC
  5
733
100
AcDbEntity
  8
SUPERFICI
100
AcDbCircle
 62
7
  6
CONTINUOUS
 10
-74.0807941796
 20
-39.0145882543
 40
0.5858172204
100
AcDbArc
 50
285.0000001439
 51
360.0
  0
ARC
  5
734
100
AcDbEntity
  8
RACCORDO
100
AcDbCircle
 62
7
  6
CONTINUOUS
 10
-82.9949591284
 20
-41.8689933267
 40
0.5000038358
100
AcDbArc
 50
180.0020062408
 51
268.9979937592
  0
ARC
  5
735
100
AcDbEntity
  8
RACCORDO
100
AcDbCircle
 62
7
  6
CONTINUOUS
 10
-69.4949769592
 20
23.7414133366
 40
1.0
100
AcDbArc
 50
270.5
 51
360.0
  0
ARC
  5
736
100
AcDbEntity
  8
SUPERFICI
100
AcDbCircle
 62
7
  6
CONTINUOUS
 10
-74.0807941796
 20
39.0145882543
 40
0.5858172204
100
AcDbArc
 50
0.0
 51
74.999999876
  0
ELLIPSE
  5
737
100
AcDbEntity
  8
RACCORDO
100
AcDbEllipse
 62
7
  6
CONTINUOUS
 10
-19.2
 20
-42.192136594
 30
0.0
 11
-0.0
 21
0.2020668318
 31
0.0
 40
0.9897715436
 41
-2.1118483949
 42
-1.8613020533
  0
ELLIPSE
  5
738
100
AcDbEntity
  8
RACCORDO
100
AcDbEllipse
 62
7
  6
CONTINUOUS
 10
19.2
 20
-42.192136594
 30
0.0
 11
-0.0
 21
0.2020668318
 31
0.0
 40
0.9897715436
 41
-4.4218832539
 42
-4.1713369123
  0
ELLIPSE
  5
739
100
AcDbEntity
  8
ASSI
100
AcDbEllipse
 62
7
  6
CONTINUOUS
 10
43.6505061299
 20
37.5
 30
0.0
 11
0.0
 21
5.7
 31
0.0
 40
0.0174550649
 41
-1.5707963268
 42
-1.3962267931
  0
ELLIPSE
  5
73A
100
AcDbEntity
  8
ASSI
100
AcDbEllipse
 62
7
  6
CONTINUOUS
 10
-43.6505061299
 20
37.5
 30
0.0
 11
0.0
 21
5.7
 31
0.0
 40
0.0174550649
 41
1.3962268494
 42
1.5707963268
  0
ELLIPSE
  5
73B
100
AcDbEntity
  8
0
100
AcDbEllipse
 62
7
  6
CONTINUOUS
 10
-39.99
 20
38.4241020879
 30
0.0
 11
-0.0
 21
3.7752888549
 31
0.0
 40
0.9998476487
 41
0.0
 42
0.1355240609
  0
ELLIPSE
  5
73C
100
AcDbEntity
  8
0
100
AcDbEllipse
 62
7
  6
CONTINUOUS
 10
39.99
 20
38.4241020879
 30
0.0
 11
0.0
 21
3.7752888549
 31
0.0
 40
0.9998476487
 41
-0.1355240609
 42
0.0
  0
ENDSEC
  0
SECTION
  2
OBJECTS
  0
DICTIONARY
  5
C
100
AcDbDictionary
280
0
281
1
  3
ACAD_GROUP
350
D
  3
ACAD_MLINESTYLE
350
17
  3
ACAD_LAYOUT
350
1A
  3
ACAD_PLOTSETTINGS
350
19
  3
ACAD_PLOTSTYLENAME
350
E
  0
DICTIONARY
  5
D
102
{ACAD_REACTORS
330
C
102
}
100
AcDbDictionary
280
0
281
1
  0
ACDBDICTIONARYWDFLT
  5
E
102
{ACAD_REACTORS
330
C
102
}
100
AcDbDictionary
281
1
  3
Normal
350
F
100
AcDbDictionaryWithDefault
340
F
  0
DICTIONARY
  5
17
102
{ACAD_REACTORS
330
C
102
}
100
AcDbDictionary
280
0
281
1
  3
Standard
350
18
  0
DICTIONARY
  5
19
102
{ACAD_REACTORS
330
C
102
}
100
AcDbDictionary
281
1
  0
DICTIONARY
  5
1A
102
{ACAD_REACTORS
330
C
102
}
100
AcDbDictionary
281
1
  3
Model
350
73D
  3
Layout1
350
73E
  0
ACDBPLACEHOLDER
  5
F
102
{ACAD_REACTORS
330
E
102
}
  0
MLINESTYLE
  5
18
102
{ACAD_REACTORS
330
17
102
}
100
AcDbMlineStyle
  2
STANDARD
 70
0
  3

 62
256
 51
90.0
 52
90.0
 71
2
 49
0.5
 62
256
  6
BYLAYER
 49
-0.5
 62
256
  6
BYLAYER
  0
LAYOUT
  5
73D
102
{ACAD_REACTORS
330
1A
102
}
100
AcDbPlotSettings
  1

  2
none_device
  4
ANSI_C_(22.00_x_17.00_Inches)
  6

 40
0.0
 41
0.0
 42
0.0
 43
0.0
 44
558.8
 45
431.8
 46
0.0
 47
0.0
 48
0.0
 49
0.0
140
0.0
141
0.0
142
1.0
143
1.0
 70
1024
 72
1
 73
0
 74
0
  7

 75
0
147
1.0
148
0.0
149
0.0
100
AcDbLayout
  1
Model
 70
0
 71
0
 10
0.0
 20
0.0
 11
558.8
 21
431.8
 12
0.0
 22
0.0
 32
0.0
 14
0.0
 24
0.0
 34
0.0
 15
0.0
 25
0.0
 35
0.0
146
0.0
 13
0.0
 23
0.0
 33
0.0
 16
1.0
 26
0.0
 36
0.0
 17
0.0
 27
1.0
 37
0.0
 76
0
330
216
345
0
346
0
  0
LAYOUT
  5
73E
102
{ACAD_REACTORS
330
1A
102
}
100
AcDbPlotSettings
  1

  2
none_device
  4
ANSI_C_(22.00_x_17.00_Inches)
  6

 40
0.0
 41
0.0
 42
0.0
 43
0.0
 44
558.8
 45
431.8
 46
0.0
 47
0.0
 48
0.0
 49
0.0
140
0.0
141
0.0
142
1.0
143
1.0
 70
0
 72
1
 73
0
 74
0
  7

 75
0
147
1.0
148
0.0
149
0.0
100
AcDbLayout
  1
Layout1
 70
0
 71
1
 10
0.0
 20
0.0
 11
558.8
 21
431.8
 12
0.0
 22
0.0
 32
0.0
 14
0.0
 24
0.0
 34
0.0
 15
0.0
 25
0.0
 35
0.0
146
0.0
 13
0.0
 23
0.0
 33
0.0
 16
1.0
 26
0.0
 36
0.0
 17
0.0
 27
1.0
 37
0.0
 76
0
330
217
345
0
346
0
  0
ENDSEC
  0
EOF
