  0
SECTION
  2
HEADER
  9
$ACADVER
  1
AC1024
  9
$DWGCODEPAGE
  3
ANSI_1252
  9
$EXTMAX
 10
558.8
 20
431.8
 30
0.0
  9
$EXTMIN
 10
0.0
 20
0.0
 30
0.0
  9
$LIMMIN
 10
0.0
 20
0.0
  9
$LIMMAX
 10
558.8
 20
431.8
  9
$VIEWCTR
 10
279.4
 20
215.9
  9
$VIEWSIZE
 40
431.8
  9
$CLAYER
  8
0
  9
$LTSCALE
 40
30.734
  9
$CELTYPE
  6
BYLAYER
  9
$DIMSCALE
 40
1.0
  9
$DIMASZ
 40
3.0
  9
$DIMEXO
 40
0.5
  9
$DIMDLI
 40
21.2344
  9
$DIMEXE
 40
1.5
  9
$DIMCEN
 40
5.0292
  9
$DIMLFAC
 40
1.0
  9
$DIMBLK
  1
_FILLED
  9
$DIMALT
 70
0
  9
$DIMALTF
 40
0.0393700787
  9
$DIMTXT
 40
3.0
  9
$DIMTOL
 70
1
  9
$DIMLIM
 70
0
  9
$DIMTFAC
 40
1.0
  9
$DIMTP
 40
0.01
  9
$DIMTM
 40
0.01
  9
$DIMGAP
 40
0.625
  9
$DIMDSEP
 70
44
  9
$AUNITS
 70
0
  9
$PDMODE
 70
3
  9
$PDSIZE
 40
3.0
  9
$HANDSEED
  5
49F
  9
$TILEMODE
 70
1
  9
$MEASUREMENT
 70
1
  9
$INSUNITS
 70
4
  0
ENDSEC
  0
SECTION
  2
CLASSES
  0
CLASS
  1
ACDBDICTIONARYWDFLT
  2
AcDbDictionaryWithDefault
  3
AutoCAD 2000
 90
0
 91
1
280
0
281
0
  0
CLASS
  1
ACDBPLACEHOLDER
  2
AcDbPlaceHolder
  3
AutoCAD 2000
 90
0
 91
1
280
0
281
0
  0
CLASS
  1
LAYOUT
  2
AcDbLayout
  3
AutoCAD 2000
 90
0
 91
0
280
0
281
0
  0
ENDSEC
  0
SECTION
  2
TABLES
  0
TABLE
  2
VPORT
  5
8
100
AcDbSymbolTable
 70
2
  0
VPORT
  5
1F4
100
AcDbSymbolTableRecord
100
AcDbViewportTableRecord
  2
*ACTIVE
 70
0
 10
0.0
 20
0.0
 11
1.0
 21
1.0
 12
279.4
 22
215.9
 13
0.0
 23
0.0
 14
1.0
 24
1.0
 15
0.0
 25
0.0
 16
0.0
 26
0.0
 36
1.0
 17
0.0
 27
0.0
 37
0.0
 40
431.8
 41
1.2941176471
 42
50.0
 43
0.0
 44
0.0
 50
0.0
 51
0.0
 71
0
 72
100
 73
1
 74
1
 75
0
 76
0
 77
0
 78
0
  0
ENDTAB
  0
TABLE
  2
LTYPE
  5
5
100
AcDbSymbolTable
 70
6
  0
LTYPE
  5
14
100
AcDbSymbolTableRecord
100
AcDbLinetypeTableRecord
  2
BYBLOCK
 70
0
  3

 72
65
 73
0
 40
0.0
  0
LTYPE
  5
15
100
AcDbSymbolTableRecord
100
AcDbLinetypeTableRecord
  2
BYLAYER
 70
0
  3

 72
65
 73
0
 40
0.0
  0
LTYPE
  5
16
100
AcDbSymbolTableRecord
100
AcDbLinetypeTableRecord
  2
CONTINUOUS
 70
64
  3
Solid line
 72
65
 73
0
 40
0.0
  0
LTYPE
  5
1F5
100
AcDbSymbolTableRecord
100
AcDbLinetypeTableRecord
  2
CENTER
 70
64
  3
____ _ ____ _ ____ _ ____ _ ____ _ ____ _ ____
 72
65
 73
4
 40
0.6
 49
0.375
 74
0
 49
-0.075
 74
0
 49
0.075
 74
0
 49
-0.075
 74
0
  0
LTYPE
  5
1F6
100
AcDbSymbolTableRecord
100
AcDbLinetypeTableRecord
  2
HIDDEN
 70
64
  3
- - - - - - - - - - - - - - - - - - - -
 72
65
 73
2
 40
0.2
 49
0.1
 74
0
 49
-0.1
 74
0
  0
LTYPE
  5
1F7
100
AcDbSymbolTableRecord
100
AcDbLinetypeTableRecord
  2
PHANTOM
 70
64
  3
_____ _ _ _____ _ _ _____ _ _ _____
 72
65
 73
6
 40
0.8
 49
0.45
 74
0
 49
-0.05
 74
0
 49
0.1
 74
0
 49
-0.05
 74
0
 49
0.1
 74
0
 49
-0.05
 74
0
  0
LTYPE
  5
1F8
100
AcDbSymbolTableRecord
100
AcDbLinetypeTableRecord
  2
DOT
 70
64
  3
. . . . . . . . . . . . . . . . . . . .
 72
65
 73
2
 40
0.2
 49
0.1
 74
0
 49
-0.1
 74
0
  0
LTYPE
  5
1F9
100
AcDbSymbolTableRecord
100
AcDbLinetypeTableRecord
  2
DASHED
 70
64
  3
- - - - - - - - - - - - - - - - - - - -
 72
65
 73
2
 40
0.2
 49
0.1
 74
0
 49
-0.1
 74
0
  0
ENDTAB
  0
TABLE
  2
LAYER
  5
2
100
AcDbSymbolTable
 70
36
  0
LAYER
  5
10
100
AcDbSymbolTableRecord
100
AcDbLayerTableRecord
  2
0
 70
0
 62
7
  6
CONTINUOUS
370
-3
390
F
  0
LAYER
  5
1FA
100
AcDbSymbolTableRecord
100
AcDbLayerTableRecord
  2
DEFAULT_1
 70
0
 62
7
  6
CENTER
370
-3
390
F
  0
LAYER
  5
1FB
100
AcDbSymbolTableRecord
100
AcDbLayerTableRecord
  2
DEFAULT_2
 70
0
 62
7
  6
HIDDEN
370
-3
390
F
  0
LAYER
  5
1FC
100
AcDbSymbolTableRecord
100
AcDbLayerTableRecord
  2
DEFAULT_3
 70
0
 62
7
  6
PHANTOM
370
-3
390
F
  0
LAYER
  5
1FD
100
AcDbSymbolTableRecord
100
AcDbLayerTableRecord
  2
ASSI
 70
0
 62
7
  6
CONTINUOUS
370
-3
390
F
  0
LAYER
  5
1FE
100
AcDbSymbolTableRecord
100
AcDbLayerTableRecord
  2
COLOR5
 70
0
 62
7
  6
CONTINUOUS
370
-3
390
F
  0
LAYER
  5
1FF
100
AcDbSymbolTableRecord
100
AcDbLayerTableRecord
  2
COORDINATE
 70
0
 62
7
  6
CONTINUOUS
370
-3
390
F
  0
LAYER
  5
200
100
AcDbSymbolTableRecord
100
AcDbLayerTableRecord
  2
COORD_ORIGINE
 70
0
 62
7
  6
CONTINUOUS
370
-3
390
F
  0
LAYER
  5
201
100
AcDbSymbolTableRecord
100
AcDbLayerTableRecord
  2
CURVE
 70
0
 62
7
  6
CONTINUOUS
370
-3
390
F
  0
LAYER
  5
202
100
AcDbSymbolTableRecord
100
AcDbLayerTableRecord
  2
DRAFT
 70
0
 62
7
  6
CONTINUOUS
370
-3
390
F
  0
LAYER
  5
203
100
AcDbSymbolTableRecord
100
AcDbLayerTableRecord
  2
IGS
 70
0
 62
7
  6
CONTINUOUS
370
-3
390
F
  0
LAYER
  5
204
100
AcDbSymbolTableRecord
100
AcDbLayerTableRecord
  2
INTF_1
 70
0
 62
7
  6
CONTINUOUS
370
-3
390
F
  0
LAYER
  5
205
100
AcDbSymbolTableRecord
100
AcDbLayerTableRecord
  2
INTF_7
 70
0
 62
7
  6
CONTINUOUS
370
-3
390
F
  0
LAYER
  5
206
100
AcDbSymbolTableRecord
100
AcDbLayerTableRecord
  2
NOTE
 70
0
 62
7
  6
CONTINUOUS
370
-3
390
F
  0
LAYER
  5
207
100
AcDbSymbolTableRecord
100
AcDbLayerTableRecord
  2
PIANI
 70
0
 62
7
  6
CONTINUOUS
370
-3
390
F
  0
LAYER
  5
208
100
AcDbSymbolTableRecord
100
AcDbLayerTableRecord
  2
PIANI_ORIGINE
 70
0
 62
7
  6
CONTINUOUS
370
-3
390
F
  0
LAYER
  5
209
100
AcDbSymbolTableRecord
100
AcDbLayerTableRecord
  2
PUNTI
 70
0
 62
7
  6
CONTINUOUS
370
-3
390
F
  0
LAYER
  5
20A
100
AcDbSymbolTableRecord
100
AcDbLayerTableRecord
  2
RACCORDO
 70
0
 62
7
  6
CONTINUOUS
370
-3
390
F
  0
LAYER
  5
20B
100
AcDbSymbolTableRecord
100
AcDbLayerTableRecord
  2
RGB__255__255__255__
 70
0
 62
7
  6
CONTINUOUS
370
-3
390
F
  0
LAYER
  5
20C
100
AcDbSymbolTableRecord
100
AcDbLayerTableRecord
  2
RGB____0____0____0__
 70
0
 62
7
  6
CONTINUOUS
370
-3
390
F
  0
LAYER
  5
20D
100
AcDbSymbolTableRecord
100
AcDbLayerTableRecord
  2
SKEL_COPERCHIO
 70
0
 62
7
  6
CONTINUOUS
370
-3
390
F
  0
LAYER
  5
20E
100
AcDbSymbolTableRecord
100
AcDbLayerTableRecord
  2
SMUSSO
 70
0
 62
7
  6
CONTINUOUS
370
-3
390
F
  0
LAYER
  5
20F
100
AcDbSymbolTableRecord
100
AcDbLayerTableRecord
  2
SNAPLINE
 70
0
 62
7
  6
CONTINUOUS
370
-3
390
F
  0
LAYER
  5
210
100
AcDbSymbolTableRecord
100
AcDbLayerTableRecord
  2
SUPERFICI
 70
0
 62
7
  6
CONTINUOUS
370
-3
390
F
  0
LAYER
  5
211
100
AcDbSymbolTableRecord
100
AcDbLayerTableRecord
  2
TESTO
 70
0
 62
7
  6
CONTINUOUS
370
-3
390
F
  0
LAYER
  5
212
100
AcDbSymbolTableRecord
100
AcDbLayerTableRecord
  2
TRASH
 70
0
 62
7
  6
CONTINUOUS
370
-3
390
F
  0
LAYER
  5
213
100
AcDbSymbolTableRecord
100
AcDbLayerTableRecord
  2
XSEC_DATUMS
 70
0
 62
7
  6
CONTINUOUS
370
-3
390
F
  0
ENDTAB
  0
TABLE
  2
STYLE
  5
3
100
AcDbSymbolTable
 70
1
  0
STYLE
  5
11
100
AcDbSymbolTableRecord
100
AcDbTextStyleTableRecord
  2
STANDARD
 70
0
 40
0.0
 41
0.8
 50
0.0
 71
0
 42
0.2
  3
txt
  4

  0
STYLE
  5
214
100
AcDbSymbolTableRecord
100
AcDbTextStyleTableRecord
  2
TEXTSTYLE_1
 70
0
 40
0.0
 41
0.8
 50
0.0
 71
0
 42
0.2
  3
gdt
  4

  0
ENDTAB
  0
TABLE
  2
VIEW
  5
6
100
AcDbSymbolTable
 70
0
  0
ENDTAB
  0
TABLE
  2
UCS
  5
7
100
AcDbSymbolTable
 70
0
  0
ENDTAB
  0
TABLE
  2
APPID
  5
9
100
AcDbSymbolTable
 70
1
  0
APPID
  5
215
100
AcDbSymbolTableRecord
100
AcDbRegAppTableRecord
  2
ACAD
 70
0
  0
ENDTAB
  0
TABLE
  2
BLOCK_RECORD
  5
1
100
AcDbSymbolTable
 70
0
  0
BLOCK_RECORD
  5
216
100
AcDbSymbolTableRecord
100
AcDbBlockTableRecord
  2
*Model_Space
  0
BLOCK_RECORD
  5
217
100
AcDbSymbolTableRecord
100
AcDbBlockTableRecord
  2
*Paper_Space
  0
BLOCK_RECORD
  5
218
100
AcDbSymbolTableRecord
100
AcDbBlockTableRecord
  2
_FILLED
  0
BLOCK_RECORD
  5
219
100
AcDbSymbolTableRecord
100
AcDbBlockTableRecord
  2
*D0
  0
BLOCK_RECORD
  5
21A
100
AcDbSymbolTableRecord
100
AcDbBlockTableRecord
  2
*D1
  0
BLOCK_RECORD
  5
21B
100
AcDbSymbolTableRecord
100
AcDbBlockTableRecord
  2
*D2
  0
BLOCK_RECORD
  5
21C
100
AcDbSymbolTableRecord
100
AcDbBlockTableRecord
  2
*D3
  0
ENDTAB
  0
TABLE
  2
DIMSTYLE
  5
A
100
AcDbSymbolTable
 70
1
100
AcDbDimStyleTable
 71
0
  0
DIMSTYLE
105
21D
100
AcDbSymbolTableRecord
100
AcDbDimStyleTableRecord
  2
STANDARD
 70
0
  3

  4

 40
1.0
 41
3.0
 42
0.5
 43
0.38
 44
1.5
 45
0.0
 46
0.0
 47
0.01
 48
0.01
140
3.0
141
0.09
142
0.0
143
25.4
144
1.0
145
0.0
146
1.0
147
0.625
 71
1
 72
0
 73
0
 74
0
 75
0
 76
0
 77
1
 78
8
 79
2
170
0
171
1
172
0
173
0
174
0
175
0
176
0
177
0
178
0
270
2
179
2
271
2
272
2
273
2
274
2
275
0
280
0
281
0
282
0
283
1
284
8
285
0
286
0
287
3
288
0
340
11
278
44
341
218
342
218
343
218
344
218
  0
DIMSTYLE
105
21E
100
AcDbSymbolTableRecord
100
AcDbDimStyleTableRecord
  2
DIMSTYLE_1
 70
0
  3

  4

 40
1.0
 41
3.0
 42
0.5
 43
0.38
 44
1.5
 45
0.0
 46
0.0
 47
0.0
 48
0.0
140
3.0
141
0.09
142
0.0
143
25.4
144
1.0
145
0.0
146
1.0
147
0.75
 71
0
 72
0
 73
0
 74
0
 75
0
 76
0
 77
1
 78
8
 79
2
170
0
171
1
172
0
173
0
174
0
175
0
176
0
177
0
178
0
270
2
179
2
271
1
272
1
273
2
274
2
275
0
280
0
281
0
282
0
283
1
284
8
285
0
286
0
287
3
288
0
340
11
278
44
341
218
342
218
343
218
344
218
  0
DIMSTYLE
105
21F
100
AcDbSymbolTableRecord
100
AcDbDimStyleTableRecord
  2
DIMSTYLE_2
 70
0
  3

  4

 40
1.0
 41
3.0
 42
0.5
 43
0.38
 44
1.5
 45
0.0
 46
0.0
 47
0.0
 48
0.0
140
3.0
141
0.09
142
0.0
143
25.4
144
1.0
145
0.0
146
1.0
147
0.75
 71
0
 72
0
 73
0
 74
0
 75
0
 76
0
 77
1
 78
8
 79
2
170
0
171
1
172
0
173
0
174
0
175
0
176
0
177
0
178
0
270
2
179
2
271
2
272
2
273
2
274
2
275
0
280
0
281
0
282
0
283
1
284
8
285
0
286
0
287
3
288
0
340
11
278
44
341
218
342
218
343
218
344
218
  0
ENDTAB
  0
ENDSEC
  0
SECTION
  2
BLOCKS
  0
BLOCK
  5
20
100
AcDbEntity
  8
0
100
AcDbBlockBegin
  2
*Model_Space
 70
0
 10
0.0
 20
0.0
 30
0.0
  3
*Model_Space
  1

  0
ENDBLK
  5
21
100
AcDbEntity
  8
0
100
AcDbBlockEnd
  0
BLOCK
  5
1C
100
AcDbEntity
  8
0
100
AcDbBlockBegin
  2
*Paper_Space
 70
0
 10
0.0
 20
0.0
 30
0.0
  3
*Paper_Space
  1

  0
ENDBLK
  5
1D
100
AcDbEntity
  8
0
100
AcDbBlockEnd
  0
BLOCK
  5
220
100
AcDbEntity
  8
0
100
AcDbBlockBegin
  2
_FILLED
 70
64
 10
0.0
 20
0.0
  3
_FILLED
  1

  0
SOLID
  5
221
100
AcDbEntity
  8
0
  6
BYBLOCK
 62
0
100
AcDbTrace
 10
0.0
 20
0.0
 11
-1.0
 21
0.3166666667
 12
-1.0
 22
-0.3166666667
 13
-1.0
 23
-0.3166666667
  0
ENDBLK
  5
222
100
AcDbEntity
  8
0
  6
BYBLOCK
 62
0
100
AcDbBlockEnd
  0
BLOCK
  5
223
100
AcDbEntity
  8
0
100
AcDbBlockBegin
 62
7
  6
CONTINUOUS
  2
*D0
 70
65
 10
0.0
 20
0.0
  3
*D0
  1

  0
LINE
  5
224
100
AcDbEntity
  8
0
100
AcDbLine
 62
7
  6
CONTINUOUS
 10
-75.4949769592
 20
39.0
 11
-75.4949769592
 21
52.0
  0
LINE
  5
225
100
AcDbEntity
  8
0
100
AcDbLine
 62
7
  6
CONTINUOUS
 10
-97.286605295
 20
22.7
 11
-97.286605295
 21
52.0
  0
LINE
  5
226
100
AcDbEntity
  8
0
100
AcDbLine
 62
7
  6
CONTINUOUS
 10
-75.4949769592
 20
50.5
 11
-86.3907911271
 21
50.5
  0
LINE
  5
227
100
AcDbEntity
  8
0
100
AcDbLine
 62
7
  6
CONTINUOUS
 10
-97.286605295
 20
50.5
 11
-86.3907911271
 21
50.5
  0
INSERT
  5
228
100
AcDbEntity
  8
0
100
AcDbBlockReference
 62
7
  6
CONTINUOUS
  2
_FILLED
 10
-75.4949769592
 20
50.5
 41
3.0
 42
3.0
 43
3.0
  0
INSERT
  5
229
100
AcDbEntity
  8
0
100
AcDbBlockReference
 62
7
  6
CONTINUOUS
  2
_FILLED
 10
-97.286605295
 20
50.5
 41
3.0
 42
3.0
 43
3.0
 50
180.0
  0
ENDBLK
  5
22A
100
AcDbEntity
  8
0
  6
BYBLOCK
 62
0
100
AcDbBlockEnd
  0
BLOCK
  5
22B
100
AcDbEntity
  8
0
100
AcDbBlockBegin
 62
7
  6
CONTINUOUS
  2
*D1
 70
65
 10
0.0
 20
0.0
  3
*D1
  1

  0
LINE
  5
22C
100
AcDbEntity
  8
0
100
AcDbLine
 62
7
  6
CONTINUOUS
 10
-44.0
 20
39.0
 11
-44.0
 21
52.0
  0
LINE
  5
22D
100
AcDbEntity
  8
0
100
AcDbLine
 62
7
  6
CONTINUOUS
 10
44.0
 20
39.0
 11
44.0
 21
52.0
  0
LINE
  5
22E
100
AcDbEntity
  8
0
100
AcDbLine
 62
7
  6
CONTINUOUS
 10
-44.0
 20
50.5
 11
0.0
 21
50.5
  0
LINE
  5
22F
100
AcDbEntity
  8
0
100
AcDbLine
 62
7
  6
CONTINUOUS
 10
44.0
 20
50.5
 11
0.0
 21
50.5
  0
INSERT
  5
230
100
AcDbEntity
  8
0
100
AcDbBlockReference
 62
7
  6
CONTINUOUS
  2
_FILLED
 10
-44.0
 20
50.5
 41
3.0
 42
3.0
 43
3.0
 50
180.0
  0
INSERT
  5
231
100
AcDbEntity
  8
0
100
AcDbBlockReference
 62
7
  6
CONTINUOUS
  2
_FILLED
 10
44.0
 20
50.5
 41
3.0
 42
3.0
 43
3.0
  0
ENDBLK
  5
232
100
AcDbEntity
  8
0
  6
BYBLOCK
 62
0
100
AcDbBlockEnd
  0
BLOCK
  5
233
100
AcDbEntity
  8
0
100
AcDbBlockBegin
 62
7
  6
CONTINUOUS
  2
*D2
 70
65
 10
0.0
 20
0.0
  3
*D2
  1

  0
LINE
  5
234
100
AcDbEntity
  8
0
100
AcDbLine
 62
7
  6
CONTINUOUS
 10
40.5
 20
42.5
 11
53.5
 21
42.5
  0
LINE
  5
235
100
AcDbEntity
  8
0
100
AcDbLine
 62
7
  6
CONTINUOUS
 10
40.5
 20
-42.5
 11
53.5
 21
-42.5
  0
LINE
  5
236
100
AcDbEntity
  8
0
100
AcDbLine
 62
7
  6
CONTINUOUS
 10
52.0
 20
42.5
 11
52.0
 21
0.0
  0
LINE
  5
237
100
AcDbEntity
  8
0
100
AcDbLine
 62
7
  6
CONTINUOUS
 10
52.0
 20
-42.5
 11
52.0
 21
0.0
  0
INSERT
  5
238
100
AcDbEntity
  8
0
100
AcDbBlockReference
 62
7
  6
CONTINUOUS
  2
_FILLED
 10
52.0
 20
42.5
 41
3.0
 42
3.0
 43
3.0
 50
90.0
  0
INSERT
  5
239
100
AcDbEntity
  8
0
100
AcDbBlockReference
 62
7
  6
CONTINUOUS
  2
_FILLED
 10
52.0
 20
-42.5
 41
3.0
 42
3.0
 43
3.0
 50
270.0
  0
ENDBLK
  5
23A
100
AcDbEntity
  8
0
  6
BYBLOCK
 62
0
100
AcDbBlockEnd
  0
BLOCK
  5
23B
100
AcDbEntity
  8
0
100
AcDbBlockBegin
 62
7
  6
CONTINUOUS
  2
*D3
 70
65
 10
0.0
 20
0.0
  3
*D3
  1

  0
LINE
  5
23C
100
AcDbEntity
  8
0
100
AcDbLine
 62
7
  6
CONTINUOUS
 10
-68.4949769592
 20
17.0927680211
 11
-68.4949769592
 21
62.0
  0
LINE
  5
23D
100
AcDbEntity
  8
0
100
AcDbLine
 62
7
  6
CONTINUOUS
 10
-97.286605295
 20
22.7
 11
-97.286605295
 21
62.0
  0
LINE
  5
23E
100
AcDbEntity
  8
0
100
AcDbLine
 62
7
  6
CONTINUOUS
 10
-68.4949769592
 20
60.5
 11
-82.8907911271
 21
60.5
  0
LINE
  5
23F
100
AcDbEntity
  8
0
100
AcDbLine
 62
7
  6
CONTINUOUS
 10
-97.286605295
 20
60.5
 11
-82.8907911271
 21
60.5
  0
INSERT
  5
240
100
AcDbEntity
  8
0
100
AcDbBlockReference
 62
7
  6
CONTINUOUS
  2
_FILLED
 10
-68.4949769592
 20
60.5
 41
3.0
 42
3.0
 43
3.0
  0
INSERT
  5
241
100
AcDbEntity
  8
0
100
AcDbBlockReference
 62
7
  6
CONTINUOUS
  2
_FILLED
 10
-97.286605295
 20
60.5
 41
3.0
 42
3.0
 43
3.0
 50
180.0
  0
ENDBLK
  5
242
100
AcDbEntity
  8
0
  6
BYBLOCK
 62
0
100
AcDbBlockEnd
  0
ENDSEC
  0
SECTION
  2
ENTITIES
  0
DIMENSION
  5
243
100
AcDbEntity
  8
0
100
AcDbDimension
 62
7
  6
CONTINUOUS
  2
*D0
 10
-97.286605295
 20
50.5
 11
-90.4622196985
 21
50.5
 70
160
 71
2
 72
2
 41
0.9
 42
21.7916283358
  3
DIMSTYLE_1
100
AcDbAlignedDimension
 13
-75.4949769592
 23
38.5
 14
-97.286605295
 24
22.2
 50
180.0
100
AcDbRotatedDimension
  0
DIMENSION
  5
244
100
AcDbEntity
  8
0
100
AcDbDimension
 62
7
  6
CONTINUOUS
  2
*D1
 10
44.0
 20
50.5
 11
-2.3571428571
 21
50.5
 70
160
 71
2
 72
2
 41
0.9
 42
88.0
  3
DIMSTYLE_2
100
AcDbAlignedDimension
 13
-44.0
 23
38.5
 14
44.0
 24
38.5
100
AcDbRotatedDimension
  0
DIMENSION
  5
245
100
AcDbEntity
  8
0
100
AcDbDimension
 62
7
  6
CONTINUOUS
  2
*D2
 10
52.0
 20
-42.5
 11
52.0
 21
-2.25
 70
160
 71
2
 72
2
 41
0.9
 42
85.0
  3
DIMSTYLE_2
100
AcDbAlignedDimension
 13
40.0
 23
42.5
 14
40.0
 24
-42.5
 50
270.0
100
AcDbRotatedDimension
  0
DIMENSION
  5
246
100
AcDbEntity
  8
0
100
AcDbDimension
 62
7
  6
CONTINUOUS
  2
*D3
 10
-97.286605295
 20
60.5
 11
-87.2836482699
 21
60.5
 70
160
 71
2
 72
2
 41
0.9
 42
28.7916283358
  3
DIMSTYLE_1
100
AcDbAlignedDimension
 13
-68.4949769592
 23
16.5927680211
 14
-97.286605295
 24
22.2
 50
180.0
100
AcDbRotatedDimension
  0
LINE
  5
247
100
AcDbEntity
  8
0
100
AcDbLine
 62
7
  6
CONTINUOUS
 10
-31.9694559627
 20
-42.5
 11
-32.0
 21
-42.4389072728
  0
LINE
  5
248
100
AcDbEntity
  8
DRAFT
100
AcDbLine
 62
7
  6
CONTINUOUS
 10
-31.9694559627
 20
-42.5
 11
-32.0
 21
-42.4389072728
  0
LINE
  5
249
100
AcDbEntity
  8
DRAFT
100
AcDbLine
 62
7
  6
CONTINUOUS
 10
-44.0
 20
38.5
 11
-44.0
 21
-38.5
  0
LINE
  5
24A
100
AcDbEntity
  8
SKEL_COPERCHIO
100
AcDbLine
 62
7
  6
CONTINUOUS
 10
-43.75
 20
38.49
 11
-43.75
 21
-38.49
  0
LINE
  5
24B
100
AcDbEntity
  8
ASSI
100
AcDbLine
 62
7
  6
CONTINUOUS
 10
-43.75
 20
37.5
 11
-43.75
 21
-38.49
  0
LINE
  5
24C
100
AcDbEntity
  8
0
100
AcDbLine
 62
7
  6
CONTINUOUS
 10
-40.5
 20
42.1723447486
 11
-40.5
 21
42.1647740418
  0
LINE
  5
24D
100
AcDbEntity
  8
DRAFT
100
AcDbLine
 62
7
  6
CONTINUOUS
 10
-40.0
 20
-42.5
 11
-36.0305440373
 21
-42.5
  0
LINE
  5
24E
100
AcDbEntity
  8
0
100
AcDbLine
 62
7
  6
CONTINUOUS
 10
-36.0305440373
 20
-42.5
 11
-31.9694559627
 21
-42.5
  0
LINE
  5
24F
100
AcDbEntity
  8
DRAFT
100
AcDbLine
 62
7
  6
CONTINUOUS
 10
-31.9694559627
 20
-42.5
 11
31.9694559627
 21
-42.5
  0
LINE
  5
250
100
AcDbEntity
  8
0
100
AcDbLine
 62
7
  6
CONTINUOUS
 10
31.9694559627
 20
-42.5
 11
36.0305440373
 21
-42.5
  0
LINE
  5
251
100
AcDbEntity
  8
DRAFT
100
AcDbLine
 62
7
  6
CONTINUOUS
 10
36.0305440373
 20
-42.5
 11
40.0
 21
-42.5
  0
LINE
  5
252
100
AcDbEntity
  8
0
100
AcDbLine
 62
7
  6
CONTINUOUS
 10
-36.0
 20
-42.4389072728
 11
-32.0
 21
-42.4389072728
  0
LINE
  5
253
100
AcDbEntity
  8
DRAFT
100
AcDbLine
 62
7
  6
CONTINUOUS
 10
-36.0
 20
-42.4389072728
 11
-32.0
 21
-42.4389072728
  0
LINE
  5
254
100
AcDbEntity
  8
0
100
AcDbLine
 62
7
  6
CONTINUOUS
 10
32.0
 20
-42.4389072728
 11
36.0
 21
-42.4389072728
  0
LINE
  5
255
100
AcDbEntity
  8
DRAFT
100
AcDbLine
 62
7
  6
CONTINUOUS
 10
32.0
 20
-42.4389072728
 11
36.0
 21
-42.4389072728
  0
LINE
  5
256
100
AcDbEntity
  8
RACCORDO
100
AcDbLine
 62
250
  6
CONTINUOUS
 10
19.2000000152
 20
-42.396178245
 11
-19.2000000225
 21
-42.396178245
  0
LINE
  5
257
100
AcDbEntity
  8
RACCORDO
100
AcDbLine
 62
250
  6
CONTINUOUS
 10
40.0
 20
-42.3689346968
 11
19.200000019
 21
-42.3689349006
  0
LINE
  5
258
100
AcDbEntity
  8
RACCORDO
100
AcDbLine
 62
250
  6
CONTINUOUS
 10
-19.2000000281
 20
-42.3689349983
 11
-40.0
 21
-42.3689346969
  0
LINE
  5
259
100
AcDbEntity
  8
RACCORDO
100
AcDbLine
 62
250
  6
CONTINUOUS
 10
19.0285665399
 20
-42.296208706
 11
-19.0285665399
 21
-42.296208706
  0
LINE
  5
25A
100
AcDbEntity
  8
DRAFT
100
AcDbLine
 62
7
  6
CONTINUOUS
 10
-39.99
 20
-42.25
 11
-22.6754234025
 21
-42.25
  0
LINE
  5
25B
100
AcDbEntity
  8
SKEL_COPERCHIO
100
AcDbLine
 62
7
  6
CONTINUOUS
 10
-39.99
 20
-42.25
 11
39.99
 21
-42.25
  0
LINE
  5
25C
100
AcDbEntity
  8
DRAFT
100
AcDbLine
 62
7
  6
CONTINUOUS
 10
22.6754234025
 20
-42.25
 11
39.99
 21
-42.25
  0
LINE
  5
25D
100
AcDbEntity
  8
RACCORDO
100
AcDbLine
 62
7
  6
CONTINUOUS
 10
-19.8354216568
 20
-42.1243235325
 11
19.8354216568
 21
-42.1243235325
  0
LINE
  5
25E
100
AcDbEntity
  8
DRAFT
100
AcDbLine
 62
7
  6
CONTINUOUS
 10
-22.6723766096
 20
-42.0754493507
 11
22.6723766096
 21
-42.0754493507
  0
LINE
  5
25F
100
AcDbEntity
  8
SKEL_COPERCHIO
100
AcDbLine
 62
7
  6
CONTINUOUS
 10
-22.7096550753
 20
-42.059502477
 11
22.7319621568
 21
-42.0595026066
  0
LINE
  5
260
100
AcDbEntity
  8
RACCORDO
100
AcDbLine
 62
250
  6
CONTINUOUS
 10
-21.00099284
 20
-41.1789648818
 11
21.00099284
 21
-41.1789648818
  0
LINE
  5
261
100
AcDbEntity
  8
DRAFT
100
AcDbLine
 62
250
  6
CONTINUOUS
 10
-40.0
 20
42.5
 11
-40.0
 21
42.3219583377
  0
LINE
  5
262
100
AcDbEntity
  8
RACCORDO
100
AcDbLine
 62
250
  6
CONTINUOUS
 10
-40.0
 20
-42.5
 11
-40.0000076424
 21
-42.2495413133
  0
LINE
  5
263
100
AcDbEntity
  8
SKEL_COPERCHIO
100
AcDbLine
 62
250
  6
CONTINUOUS
 10
-39.99
 20
-42.080588424
 11
-39.99
 21
-42.25
  0
LINE
  5
264
100
AcDbEntity
  8
RACCORDO
100
AcDbLine
 62
250
  6
CONTINUOUS
 10
-39.99
 20
-42.0968686041
 11
-39.99
 21
-42.25
  0
LINE
  5
265
100
AcDbEntity
  8
SKEL_COPERCHIO
100
AcDbLine
 62
250
  6
CONTINUOUS
 10
-39.99
 20
42.0997757343
 11
-39.99
 21
42.1993909428
  0
LINE
  5
266
100
AcDbEntity
  8
0
100
AcDbLine
 62
250
  6
CONTINUOUS
 10
-39.99
 20
42.1130421103
 11
-39.99
 21
42.1993909428
  0
LINE
  5
267
100
AcDbEntity
  8
RACCORDO
100
AcDbLine
 62
250
  6
CONTINUOUS
 10
44.0
 20
-38.5
 11
43.869183239
 21
-38.5
  0
LINE
  5
268
100
AcDbEntity
  8
RACCORDO
100
AcDbLine
 62
250
  6
CONTINUOUS
 10
-44.0
 20
-38.5
 11
-43.8692464992
 21
-38.5
  0
LINE
  5
269
100
AcDbEntity
  8
SKEL_COPERCHIO
100
AcDbLine
 62
250
  6
CONTINUOUS
 10
-43.593212958
 20
-38.4900000687
 11
-43.75
 21
-38.49
  0
LINE
  5
26A
100
AcDbEntity
  8
RACCORDO
100
AcDbLine
 62
250
  6
CONTINUOUS
 10
43.75
 20
-38.49
 11
43.606104915
 21
-38.49
  0
LINE
  5
26B
100
AcDbEntity
  8
RACCORDO
100
AcDbLine
 62
250
  6
CONTINUOUS
 10
-43.606104915
 20
-38.49
 11
-43.75
 21
-38.49
  0
LINE
  5
26C
100
AcDbEntity
  8
SKEL_COPERCHIO
100
AcDbLine
 62
250
  6
CONTINUOUS
 10
43.75
 20
-38.49
 11
43.5932129579
 21
-38.4899998727
  0
LINE
  5
26D
100
AcDbEntity
  8
0
100
AcDbLine
 62
7
  6
CONTINUOUS
 10
20.412503
 20
-31.999993
 11
20.992525
 21
-31.999985
  0
LINE
  5
26E
100
AcDbEntity
  8
0
100
AcDbLine
 62
7
  6
CONTINUOUS
 10
25.562381
 20
-31.999978
 11
24.909076
 21
-31.999985
  0
LINE
  5
26F
100
AcDbEntity
  8
0
100
AcDbLine
 62
7
  6
CONTINUOUS
 10
18.317413
 20
-31.999993
 11
18.89742
 21
-31.999985
  0
LINE
  5
270
100
AcDbEntity
  8
0
100
AcDbLine
 62
7
  6
CONTINUOUS
 10
16.028986
 20
-32.0
 11
16.609008
 21
-31.999993
  0
LINE
  5
271
100
AcDbEntity
  8
0
100
AcDbLine
 62
7
  6
CONTINUOUS
 10
14.131132
 20
-32.0
 11
14.711176
 21
-31.999993
  0
LINE
  5
272
100
AcDbEntity
  8
0
100
AcDbLine
 62
7
  6
CONTINUOUS
 10
17.189015
 20
-31.999993
 11
17.769037
 21
-31.999993
  0
LINE
  5
273
100
AcDbEntity
  8
0
100
AcDbLine
 62
7
  6
CONTINUOUS
 10
19.445803
 20
-31.999993
 11
20.025824
 21
-31.999993
  0
LINE
  5
274
100
AcDbEntity
  8
0
100
AcDbLine
 62
7
  6
CONTINUOUS
 10
23.821526
 20
-31.999985
 11
23.241497
 21
-31.999985
  0
LINE
  5
275
100
AcDbEntity
  8
0
100
AcDbLine
 62
7
  6
CONTINUOUS
 10
22.854818
 20
-31.999993
 11
22.274789
 21
-31.999985
  0
LINE
  5
276
100
AcDbEntity
  8
0
100
AcDbLine
 62
7
  6
CONTINUOUS
 10
22.091683
 20
-31.429657
 11
21.175638
 21
-31.429657
  0
LINE
  5
277
100
AcDbEntity
  8
0
100
AcDbLine
 62
7
  6
CONTINUOUS
 10
21.35256
 20
-30.878635
 11
21.914754
 21
-30.878635
  0
LINE
  5
278
100
AcDbEntity
  8
0
100
AcDbLine
 62
7
  6
CONTINUOUS
 10
24.327822
 20
-30.878635
 11
23.821591
 21
-30.878628
  0
LINE
  5
279
100
AcDbEntity
  8
0
100
AcDbLine
 62
7
  6
CONTINUOUS
 10
23.813529
 20
-30.342106
 11
24.519205
 21
-30.342106
  0
LINE
  5
27A
100
AcDbEntity
  8
0
100
AcDbLine
 62
7
  6
CONTINUOUS
 10
24.519205
 20
-29.636377
 11
23.813522
 21
-29.636377
  0
LINE
  5
27B
100
AcDbEntity
  8
0
100
AcDbLine
 62
7
  6
CONTINUOUS
 10
13.2
 20
-29.099862
 11
13.780029
 21
-29.099862
  0
LINE
  5
27C
100
AcDbEntity
  8
0
100
AcDbLine
 62
7
  6
CONTINUOUS
 10
15.062286
 20
-29.099862
 11
15.642315
 21
-29.099862
  0
LINE
  5
27D
100
AcDbEntity
  8
0
100
AcDbLine
 62
7
  6
CONTINUOUS
 10
16.028994
 20
-29.099862
 11
16.609015
 21
-29.099862
  0
LINE
  5
27E
100
AcDbEntity
  8
0
100
AcDbLine
 62
7
  6
CONTINUOUS
 10
17.189015
 20
-29.099862
 11
18.065852
 21
-29.099862
  0
LINE
  5
27F
100
AcDbEntity
  8
0
100
AcDbLine
 62
7
  6
CONTINUOUS
 10
19.148988
 20
-29.099862
 11
20.025824
 21
-29.099862
  0
LINE
  5
280
100
AcDbEntity
  8
0
100
AcDbLine
 62
7
  6
CONTINUOUS
 10
21.343628
 20
-29.099855
 11
21.923679
 21
-29.099855
  0
LINE
  5
281
100
AcDbEntity
  8
0
100
AcDbLine
 62
7
  6
CONTINUOUS
 10
23.241497
 20
-29.099855
 11
24.599711
 21
-29.099855
  0
LINE
  5
282
100
AcDbEntity
  8
RACCORDO
100
AcDbLine
 62
250
  6
CONTINUOUS
 10
-26.1018653341
 20
22.2
 11
-26.1000126856
 21
-0.000831956
  0
LINE
  5
283
100
AcDbEntity
  8
RACCORDO
100
AcDbLine
 62
250
  6
CONTINUOUS
 10
-23.9804947957
 20
22.2
 11
-23.9804947957
 21
-22.2
  0
LINE
  5
284
100
AcDbEntity
  8
RACCORDO
100
AcDbLine
 62
250
  6
CONTINUOUS
 10
-26.1000126856
 20
-0.000831956
 11
-26.1086438825
 21
-22.2
  0
LINE
  5
285
100
AcDbEntity
  8
RACCORDO
100
AcDbLine
 62
250
  6
CONTINUOUS
 10
-20.9674737752
 20
-27.8999938077
 11
20.9674737752
 21
-27.8999938077
  0
LINE
  5
286
100
AcDbEntity
  8
RACCORDO
100
AcDbLine
 62
250
  6
CONTINUOUS
 10
-22.2
 20
-23.9804947957
 11
22.2
 21
-23.9804947957
  0
LINE
  5
287
100
AcDbEntity
  8
RACCORDO
100
AcDbLine
 62
250
  6
CONTINUOUS
 10
-22.2
 20
-26.0995707387
 11
22.2
 21
-26.0995707387
  0
LINE
  5
288
100
AcDbEntity
  8
RACCORDO
100
AcDbLine
 62
250
  6
CONTINUOUS
 10
-20.9674737752
 20
-27.8999938077
 11
-20.9677117849
 21
-26.0999956903
  0
LINE
  5
289
100
AcDbEntity
  8
RACCORDO
100
AcDbLine
 62
250
  6
CONTINUOUS
 10
-22.9806471005
 20
22.2
 11
-22.9806471005
 21
-22.2
  0
LINE
  5
28A
100
AcDbEntity
  8
RACCORDO
100
AcDbLine
 62
250
  6
CONTINUOUS
 10
-22.2
 20
26.1022231451
 11
-22.2
 21
24.5
  0
LINE
  5
28B
100
AcDbEntity
  8
RACCORDO
100
AcDbLine
 62
250
  6
CONTINUOUS
 10
-22.2
 20
-26.0995707387
 11
-22.2
 21
-24.5
  0
LINE
  5
28C
100
AcDbEntity
  8
RACCORDO
100
AcDbLine
 62
250
  6
CONTINUOUS
 10
-22.2
 20
-22.9806471005
 11
-22.2
 21
-24.0
  0
LINE
  5
28D
100
AcDbEntity
  8
RACCORDO
100
AcDbLine
 62
250
  6
CONTINUOUS
 10
-22.2
 20
22.9806471005
 11
-22.2
 21
24.0
  0
LINE
  5
28E
100
AcDbEntity
  8
DRAFT
100
AcDbLine
 62
7
  6
CONTINUOUS
 10
-22.6754234025
 20
-42.25
 11
-22.6723766096
 21
-42.0754493507
  0
LINE
  5
28F
100
AcDbEntity
  8
RACCORDO
100
AcDbLine
 62
250
  6
CONTINUOUS
 10
-22.2
 20
-22.9806471005
 11
22.2
 21
-22.9806471005
  0
LINE
  5
290
100
AcDbEntity
  8
RACCORDO
100
AcDbLine
 62
250
  6
CONTINUOUS
 10
-26.1086438825
 20
-22.2
 11
-24.5
 21
-22.2
  0
LINE
  5
291
100
AcDbEntity
  8
RACCORDO
100
AcDbLine
 62
250
  6
CONTINUOUS
 10
26.1086438825
 20
-22.2
 11
24.5
 21
-22.2
  0
LINE
  5
292
100
AcDbEntity
  8
RACCORDO
100
AcDbLine
 62
250
  6
CONTINUOUS
 10
22.9806471005
 20
-22.2
 11
24.0
 21
-22.2
  0
LINE
  5
293
100
AcDbEntity
  8
RACCORDO
100
AcDbLine
 62
250
  6
CONTINUOUS
 10
-22.9806471005
 20
-22.2
 11
-24.0
 21
-22.2
  0
LINE
  5
294
100
AcDbEntity
  8
RACCORDO
100
AcDbLine
 62
250
  6
CONTINUOUS
 10
-19.2000000225
 20
-42.396178245
 11
-19.200000118
 21
-42.25
  0
LINE
  5
295
100
AcDbEntity
  8
RACCORDO
100
AcDbLine
 62
250
  6
CONTINUOUS
 10
-18.7355891919
 20
-42.0754493507
 11
-18.7355891921
 21
-42.1243235325
  0
LINE
  5
296
100
AcDbEntity
  8
0
100
AcDbLine
 62
7
  6
CONTINUOUS
 10
-36.0305440373
 20
-42.5
 11
-36.0
 21
-42.4389072728
  0
LINE
  5
297
100
AcDbEntity
  8
DRAFT
100
AcDbLine
 62
7
  6
CONTINUOUS
 10
-36.0305440373
 20
-42.5
 11
-36.0
 21
-42.4389072728
  0
LWPOLYLINE
  5
298
100
AcDbEntity
  8
0
100
AcDbPolyline
 62
7
  6
CONTINUOUS
 90
4
 70
0
 43
0.3500000087
 10
-2.357142799
 20
51.6785700165
 10
-2.357142799
 20
52.5357118835
 10
-1.9285714658
 20
52.9642849487
 10
-1.2857142661
 20
52.9642849487
  0
LWPOLYLINE
  5
299
100
AcDbEntity
  8
0
100
AcDbPolyline
 62
7
  6
CONTINUOUS
 90
4
 70
0
 43
0.3500000087
 10
0.0
 20
51.6785700165
 10
0.0
 20
52.5357118835
 10
0.4285714331
 20
52.9642849487
 10
1.0714285995
 20
52.9642849487
  0
LINE
  5
29A
100
AcDbEntity
  8
RACCORDO
100
AcDbLine
 62
250
  6
CONTINUOUS
 10
-0.003962475
 20
27.8996358738
 11
-0.004091023
 21
26.100028637
  0
LWPOLYLINE
  5
29B
100
AcDbEntity
  8
0
100
AcDbPolyline
 62
7
  6
CONTINUOUS
 90
4
 70
0
 43
0.3500000087
 10
50.8214300873
 20
-2.2499998718
 10
49.9642839569
 20
-2.2499998718
 10
49.535715155
 20
-1.8214289383
 10
49.535715155
 20
-1.1785714722
  0
LINE
  5
29C
100
AcDbEntity
  8
SKEL_COPERCHIO
100
AcDbLine
 62
250
  6
CONTINUOUS
 10
-43.5924257154
 20
-0.0
 11
-27.3993240578
 21
0.0000000002
  0
LINE
  5
29D
100
AcDbEntity
  8
RACCORDO
100
AcDbLine
 62
250
  6
CONTINUOUS
 10
26.1000126854
 20
-0.0008319559
 11
42.9216920453
 21
0.0
  0
LINE
  5
29E
100
AcDbEntity
  8
RACCORDO
100
AcDbLine
 62
250
  6
CONTINUOUS
 10
-42.9216904546
 20
-0.0
 11
-26.100012684
 21
-0.000831956
  0
LINE
  5
29F
100
AcDbEntity
  8
0
100
AcDbLine
 62
7
  6
CONTINUOUS
 10
14.131132
 20
-32.0
 11
13.2
 21
-29.099862
  0
LINE
  5
2A0
100
AcDbEntity
  8
0
100
AcDbLine
 62
7
  6
CONTINUOUS
 10
13.780029
 20
-29.099862
 11
14.421161
 21
-31.096759
  0
LINE
  5
2A1
100
AcDbEntity
  8
0
100
AcDbLine
 62
7
  6
CONTINUOUS
 10
24.909076
 20
-31.999985
 11
24.327822
 21
-30.878635
  0
LINE
  5
2A2
100
AcDbEntity
  8
0
100
AcDbLine
 62
7
  6
CONTINUOUS
 10
24.9449767907
 20
-30.8088806669
 11
25.562381
 21
-31.999978
  0
LINE
  5
2A3
100
AcDbEntity
  8
0
100
AcDbLine
 62
7
  6
CONTINUOUS
 10
21.914754
 20
-30.878635
 11
21.63365
 21
-30.003096
  0
LINE
  5
2A4
100
AcDbEntity
  8
0
100
AcDbLine
 62
7
  6
CONTINUOUS
 10
22.274789
 20
-31.999985
 11
22.091683
 21
-31.429657
  0
LINE
  5
2A5
100
AcDbEntity
  8
0
100
AcDbLine
 62
7
  6
CONTINUOUS
 10
21.923679
 20
-29.099855
 11
22.854818
 21
-31.999993
  0
LINE
  5
2A6
100
AcDbEntity
  8
0
100
AcDbLine
 62
7
  6
CONTINUOUS
 10
18.317413
 20
-31.999993
 11
17.769037
 21
-30.087551
  0
LINE
  5
2A7
100
AcDbEntity
  8
0
100
AcDbLine
 62
7
  6
CONTINUOUS
 10
18.065852
 20
-29.099862
 11
18.60742
 21
-30.988531
  0
LINE
  5
2A8
100
AcDbEntity
  8
0
100
AcDbLine
 62
7
  6
CONTINUOUS
 10
16.028994
 20
-29.099862
 11
16.028986
 21
-32.0
  0
LINE
  5
2A9
100
AcDbEntity
  8
0
100
AcDbLine
 62
7
  6
CONTINUOUS
 10
16.609015
 20
-29.099862
 11
16.609008
 21
-31.999993
  0
LINE
  5
2AA
100
AcDbEntity
  8
0
100
AcDbLine
 62
7
  6
CONTINUOUS
 10
36.0305440373
 20
-42.5
 11
36.0
 21
-42.4389072728
  0
LINE
  5
2AB
100
AcDbEntity
  8
DRAFT
100
AcDbLine
 62
7
  6
CONTINUOUS
 10
36.0305440373
 20
-42.5
 11
36.0
 21
-42.4389072728
  0
LINE
  5
2AC
100
AcDbEntity
  8
0
100
AcDbLine
 62
250
  6
CONTINUOUS
 10
20.9680114624
 20
-27.900005996
 11
20.984540903
 21
-30.2185089518
  0
LINE
  5
2AD
100
AcDbEntity
  8
0
100
AcDbLine
 62
250
  6
CONTINUOUS
 10
20.98448379
 20
-30.2186891191
 11
20.9947305714
 21
-31.9931334122
  0
LINE
  5
2AE
100
AcDbEntity
  8
0
100
AcDbLine
 62
7
  6
CONTINUOUS
 10
17.189015
 20
-29.099862
 11
17.189015
 21
-31.999993
  0
LINE
  5
2AF
100
AcDbEntity
  8
0
100
AcDbLine
 62
7
  6
CONTINUOUS
 10
17.769037
 20
-30.087551
 11
17.769037
 21
-31.999993
  0
LINE
  5
2B0
100
AcDbEntity
  8
RACCORDO
100
AcDbLine
 62
250
  6
CONTINUOUS
 10
18.735589192
 20
-42.0754493507
 11
18.7355891921
 21
-42.1243235325
  0
LINE
  5
2B1
100
AcDbEntity
  8
RACCORDO
100
AcDbLine
 62
250
  6
CONTINUOUS
 10
19.2000000797
 20
-42.25
 11
19.2000000152
 21
-42.396178245
  0
LINE
  5
2B2
100
AcDbEntity
  8
0
100
AcDbLine
 62
7
  6
CONTINUOUS
 10
19.445795
 20
-30.087551
 11
19.445803
 21
-31.999993
  0
LINE
  5
2B3
100
AcDbEntity
  8
0
100
AcDbLine
 62
7
  6
CONTINUOUS
 10
20.025824
 20
-29.099862
 11
20.025824
 21
-31.999993
  0
LINE
  5
2B4
100
AcDbEntity
  8
DRAFT
100
AcDbLine
 62
7
  6
CONTINUOUS
 10
22.6754234025
 20
-42.25
 11
22.6723766096
 21
-42.0754493507
  0
LINE
  5
2B5
100
AcDbEntity
  8
0
100
AcDbLine
 62
250
  6
CONTINUOUS
 10
20.9948025645
 20
-31.9929103484
 11
21.0008878934
 21
-41.1789648989
  0
LINE
  5
2B6
100
AcDbEntity
  8
RACCORDO
100
AcDbLine
 62
250
  6
CONTINUOUS
 10
22.2
 20
26.1022231451
 11
22.2
 21
24.5
  0
LINE
  5
2B7
100
AcDbEntity
  8
RACCORDO
100
AcDbLine
 62
250
  6
CONTINUOUS
 10
22.2
 20
-26.0995707387
 11
22.2
 21
-24.5
  0
LINE
  5
2B8
100
AcDbEntity
  8
RACCORDO
100
AcDbLine
 62
250
  6
CONTINUOUS
 10
22.2
 20
-22.9806471005
 11
22.2
 21
-24.0
  0
LINE
  5
2B9
100
AcDbEntity
  8
RACCORDO
100
AcDbLine
 62
250
  6
CONTINUOUS
 10
22.2
 20
22.9806471005
 11
22.2
 21
24.0
  0
LINE
  5
2BA
100
AcDbEntity
  8
RACCORDO
100
AcDbLine
 62
250
  6
CONTINUOUS
 10
22.9806471005
 20
-22.2
 11
22.9806471005
 21
22.2
  0
LINE
  5
2BB
100
AcDbEntity
  8
0
100
AcDbLine
 62
7
  6
CONTINUOUS
 10
23.241497
 20
-31.999985
 11
23.241497
 21
-29.099855
  0
LINE
  5
2BC
100
AcDbEntity
  8
0
100
AcDbLine
 62
7
  6
CONTINUOUS
 10
23.813522
 20
-29.636377
 11
23.813529
 21
-30.342106
  0
LINE
  5
2BD
100
AcDbEntity
  8
RACCORDO
100
AcDbLine
 62
250
  6
CONTINUOUS
 10
23.9804947957
 20
-22.2
 11
23.9804947957
 21
22.2
  0
LINE
  5
2BE
100
AcDbEntity
  8
RACCORDO
100
AcDbLine
 62
250
  6
CONTINUOUS
 10
20.9674737752
 20
-27.8999938077
 11
20.9677117849
 21
-26.0999956903
  0
LINE
  5
2BF
100
AcDbEntity
  8
0
100
AcDbLine
 62
7
  6
CONTINUOUS
 10
23.821591
 20
-30.878628
 11
23.821526
 21
-31.999985
  0
LINE
  5
2C0
100
AcDbEntity
  8
0
100
AcDbLine
 62
7
  6
CONTINUOUS
 10
14.421161
 20
-31.096759
 11
15.062286
 21
-29.099862
  0
LINE
  5
2C1
100
AcDbEntity
  8
0
100
AcDbLine
 62
7
  6
CONTINUOUS
 10
15.642315
 20
-29.099862
 11
14.711176
 21
-31.999993
  0
LINE
  5
2C2
100
AcDbEntity
  8
RACCORDO
100
AcDbLine
 62
250
  6
CONTINUOUS
 10
-26.1018653341
 20
22.2
 11
-24.5
 21
22.2
  0
LINE
  5
2C3
100
AcDbEntity
  8
RACCORDO
100
AcDbLine
 62
250
  6
CONTINUOUS
 10
26.1018653341
 20
22.2
 11
24.5
 21
22.2
  0
LINE
  5
2C4
100
AcDbEntity
  8
RACCORDO
100
AcDbLine
 62
250
  6
CONTINUOUS
 10
22.9806471005
 20
22.2
 11
24.0
 21
22.2
  0
LINE
  5
2C5
100
AcDbEntity
  8
RACCORDO
100
AcDbLine
 62
250
  6
CONTINUOUS
 10
-22.9806471005
 20
22.2
 11
-24.0
 21
22.2
  0
LINE
  5
2C6
100
AcDbEntity
  8
RACCORDO
100
AcDbLine
 62
250
  6
CONTINUOUS
 10
22.2
 20
22.9806471005
 11
-22.2
 21
22.9806471005
  0
LINE
  5
2C7
100
AcDbEntity
  8
RACCORDO
100
AcDbLine
 62
250
  6
CONTINUOUS
 10
22.2
 20
23.9804947957
 11
-22.2
 21
23.9804947957
  0
LINE
  5
2C8
100
AcDbEntity
  8
RACCORDO
100
AcDbLine
 62
250
  6
CONTINUOUS
 10
26.1086438825
 20
-22.2
 11
26.1000126856
 21
-0.000831956
  0
LINE
  5
2C9
100
AcDbEntity
  8
RACCORDO
100
AcDbLine
 62
250
  6
CONTINUOUS
 10
26.1000126856
 20
-0.000831956
 11
26.1018653341
 21
22.2
  0
LINE
  5
2CA
100
AcDbEntity
  8
0
100
AcDbLine
 62
7
  6
CONTINUOUS
 10
18.60742
 20
-30.988531
 11
19.148988
 21
-29.099862
  0
LINE
  5
2CB
100
AcDbEntity
  8
0
100
AcDbLine
 62
7
  6
CONTINUOUS
 10
19.445795
 20
-30.087551
 11
18.89742
 21
-31.999985
  0
LINE
  5
2CC
100
AcDbEntity
  8
RACCORDO
100
AcDbLine
 62
250
  6
CONTINUOUS
 10
22.2
 20
26.1022231451
 11
-0.004091023
 21
26.100028637
  0
LINE
  5
2CD
100
AcDbEntity
  8
RACCORDO
100
AcDbLine
 62
250
  6
CONTINUOUS
 10
-0.004091023
 20
26.100028637
 11
-22.2
 21
26.1022231451
  0
LINE
  5
2CE
100
AcDbEntity
  8
0
100
AcDbLine
 62
7
  6
CONTINUOUS
 10
20.412503
 20
-31.999993
 11
21.343628
 21
-29.099855
  0
LINE
  5
2CF
100
AcDbEntity
  8
0
100
AcDbLine
 62
7
  6
CONTINUOUS
 10
21.63365
 20
-30.003096
 11
21.35256
 21
-30.878635
  0
LINE
  5
2D0
100
AcDbEntity
  8
0
100
AcDbLine
 62
7
  6
CONTINUOUS
 10
21.175638
 20
-31.429657
 11
20.992525
 21
-31.999985
  0
LINE
  5
2D1
100
AcDbEntity
  8
SKEL_COPERCHIO
100
AcDbLine
 62
250
  6
CONTINUOUS
 10
39.99
 20
-42.080588424
 11
39.99
 21
-42.25
  0
LINE
  5
2D2
100
AcDbEntity
  8
RACCORDO
100
AcDbLine
 62
250
  6
CONTINUOUS
 10
39.99
 20
-42.0968686041
 11
39.99
 21
-42.25
  0
LINE
  5
2D3
100
AcDbEntity
  8
SKEL_COPERCHIO
100
AcDbLine
 62
250
  6
CONTINUOUS
 10
39.99
 20
42.0997757343
 11
39.99
 21
42.1993909428
  0
LINE
  5
2D4
100
AcDbEntity
  8
0
100
AcDbLine
 62
250
  6
CONTINUOUS
 10
39.99
 20
42.1130421103
 11
39.99
 21
42.1993909428
  0
LINE
  5
2D5
100
AcDbEntity
  8
DRAFT
100
AcDbLine
 62
250
  6
CONTINUOUS
 10
40.0
 20
42.3219583377
 11
40.0
 21
42.5
  0
LINE
  5
2D6
100
AcDbEntity
  8
0
100
AcDbLine
 62
7
  6
CONTINUOUS
 10
40.5
 20
42.1647740418
 11
40.5
 21
42.1723447486
  0
LINE
  5
2D7
100
AcDbEntity
  8
RACCORDO
100
AcDbLine
 62
250
  6
CONTINUOUS
 10
40.0
 20
-42.5
 11
40.000029202
 21
-42.2495403252
  0
LWPOLYLINE
  5
2D8
100
AcDbEntity
  8
0
100
AcDbPolyline
 62
7
  6
CONTINUOUS
 90
13
 70
0
 43
0.3500000087
 10
49.535715155
 20
-1.8214289383
 10
49.3214286224
 20
-2.107142894
 10
48.678573288
 20
-2.107142894
 10
48.2500002228
 20
-1.8214289383
 10
48.2500002228
 20
-1.1785714722
 10
48.678573288
 20
-0.8928575165
 10
49.3214286224
 20
-0.8928575165
 10
49.535715155
 20
-1.1785714722
 10
49.9642839569
 20
-0.7500005386
 10
50.8214300873
 20
-0.7500005386
 10
51.2499988892
 20
-1.1785714722
 10
51.2499988892
 20
-1.8214289383
 10
50.8214300873
 20
-2.2499998718
  0
LINE
  5
2D9
100
AcDbEntity
  8
ASSI
100
AcDbLine
 62
250
  6
CONTINUOUS
 10
43.6148052695
 20
38.49
 11
43.7484878319
 21
38.4900001097
  0
LINE
  5
2DA
100
AcDbEntity
  8
SKEL_COPERCHIO
100
AcDbLine
 62
250
  6
CONTINUOUS
 10
-43.6018259212
 20
38.49
 11
-43.75
 21
38.49
  0
LINE
  5
2DB
100
AcDbEntity
  8
SKEL_COPERCHIO
100
AcDbLine
 62
250
  6
CONTINUOUS
 10
43.6018259215
 20
38.4900002043
 11
43.75
 21
38.49
  0
LINE
  5
2DC
100
AcDbEntity
  8
ASSI
100
AcDbLine
 62
250
  6
CONTINUOUS
 10
-43.6148052695
 20
38.49
 11
-43.748487833
 21
38.4899997944
  0
LINE
  5
2DD
100
AcDbEntity
  8
RACCORDO
100
AcDbLine
 62
250
  6
CONTINUOUS
 10
43.863347019
 20
38.5
 11
44.0
 21
38.5
  0
LINE
  5
2DE
100
AcDbEntity
  8
RACCORDO
100
AcDbLine
 62
250
  6
CONTINUOUS
 10
-43.8641154491
 20
38.5
 11
-44.0
 21
38.5
  0
LWPOLYLINE
  5
2DF
100
AcDbEntity
  8
0
100
AcDbPolyline
 62
7
  6
CONTINUOUS
 90
13
 70
0
 43
0.3500000087
 10
-1.9285714658
 20
52.9642849487
 10
-2.2142856879
 20
53.178567218
 10
-2.2142856879
 20
53.8214310791
 10
-1.9285714658
 20
54.2500041443
 10
-1.2857142661
 20
54.2500041443
 10
-0.9999999774
 20
53.8214310791
 10
-0.9999999774
 20
53.178567218
 10
-1.2857142661
 20
52.9642849487
 10
-0.8571428663
 20
52.5357118835
 10
-0.8571428663
 20
51.6785700165
 10
-1.2857142661
 20
51.2500012146
 10
-1.9285714658
 20
51.2500012146
 10
-2.357142799
 20
51.6785700165
  0
LINE
  5
2E0
100
AcDbEntity
  8
ASSI
100
AcDbLine
 62
7
  6
CONTINUOUS
 10
43.75
 20
-38.49
 11
43.75
 21
37.5
  0
LINE
  5
2E1
100
AcDbEntity
  8
SKEL_COPERCHIO
100
AcDbLine
 62
7
  6
CONTINUOUS
 10
43.75
 20
-38.49
 11
43.75
 21
38.49
  0
LINE
  5
2E2
100
AcDbEntity
  8
DRAFT
100
AcDbLine
 62
7
  6
CONTINUOUS
 10
44.0
 20
-38.5
 11
44.0
 21
38.5
  0
LINE
  5
2E3
100
AcDbEntity
  8
RACCORDO
100
AcDbLine
 62
7
  6
CONTINUOUS
 10
-41.3067066756
 20
42.0916407392
 11
-40.9149573841
 21
42.0916407392
  0
LINE
  5
2E4
100
AcDbEntity
  8
RACCORDO
100
AcDbLine
 62
7
  6
CONTINUOUS
 10
40.9138046316
 20
42.0916407392
 11
41.3067066756
 21
42.0916407392
  0
LINE
  5
2E5
100
AcDbEntity
  8
0
100
AcDbLine
 62
7
  6
CONTINUOUS
 10
39.99
 20
42.1993909428
 11
-39.99
 21
42.1993909428
  0
LINE
  5
2E6
100
AcDbEntity
  8
DRAFT
100
AcDbLine
 62
7
  6
CONTINUOUS
 10
-40.0
 20
42.3219583377
 11
40.0
 21
42.3219583377
  0
LINE
  5
2E7
100
AcDbEntity
  8
DRAFT
100
AcDbLine
 62
7
  6
CONTINUOUS
 10
40.0
 20
42.5
 11
-40.0
 21
42.5
  0
LWPOLYLINE
  5
2E8
100
AcDbEntity
  8
0
100
AcDbPolyline
 62
7
  6
CONTINUOUS
 90
13
 70
0
 43
0.3500000087
 10
0.4285714331
 20
52.9642849487
 10
0.1428571444
 20
53.178567218
 10
0.1428571444
 20
53.8214310791
 10
0.4285714331
 20
54.2500041443
 10
1.0714285995
 20
54.2500041443
 10
1.3571428883
 20
53.8214310791
 10
1.3571428883
 20
53.178567218
 10
1.0714285995
 20
52.9642849487
 10
1.4999999993
 20
52.5357118835
 10
1.4999999993
 20
51.6785700165
 10
1.0714285995
 20
51.2500012146
 10
0.4285714331
 20
51.2500012146
 10
0.0
 20
51.6785700165
  0
LINE
  5
2E9
100
AcDbEntity
  8
0
100
AcDbLine
 62
7
  6
CONTINUOUS
 10
31.9694559627
 20
-42.5
 11
32.0
 21
-42.4389072728
  0
LINE
  5
2EA
100
AcDbEntity
  8
DRAFT
100
AcDbLine
 62
7
  6
CONTINUOUS
 10
31.9694559627
 20
-42.5
 11
32.0
 21
-42.4389072728
  0
LWPOLYLINE
  5
2EB
100
AcDbEntity
  8
0
100
AcDbPolyline
 62
7
  6
CONTINUOUS
 90
8
 70
0
 43
0.3500000087
 10
51.2499988892
 20
0.1071434601
 10
51.2499988892
 20
0.9642853271
 10
50.8214300873
 20
1.3928562607
 10
49.9642839569
 20
1.3928562607
 10
49.535715155
 20
0.9642853271
 10
49.535715155
 20
0.1071434601
 10
48.2500002228
 20
0.1071434601
 10
48.2500002228
 20
1.3928562607
  0
LINE
  5
2EC
100
AcDbEntity
  8
RACCORDO
100
AcDbLine
 62
7
  6
CONTINUOUS
 10
-91.7220269518
 20
-42.1243235325
 11
-90.886605295
 21
-42.1243235325
  0
LINE
  5
2ED
100
AcDbEntity
  8
RACCORDO
100
AcDbLine
 62
7
  6
CONTINUOUS
 10
-75.4949769592
 20
-42.5
 11
-83.0037031485
 21
-42.3689346968
  0
LINE
  5
2EE
100
AcDbEntity
  8
SKEL_COPERCHIO
100
AcDbLine
 62
7
  6
CONTINUOUS
 10
-94.6004145587
 20
-42.0594987507
 11
-83.686605295
 21
-42.25
  0
LINE
  5
2EF
100
AcDbEntity
  8
RACCORDO
100
AcDbLine
 62
7
  6
CONTINUOUS
 10
-92.459497088
 20
-42.0968686041
 11
-83.686605295
 21
-42.25
  0
LWPOLYLINE
  5
2F0
100
AcDbEntity
  8
0
100
AcDbPolyline
 62
7
  6
CONTINUOUS
 90
3
 70
0
 43
0.3500000087
 10
-88.1050741028
 20
53.3928580139
 10
-87.247936499
 20
54.2500041443
 10
-87.247936499
 20
51.2500012146
  0
LINE
  5
2F1
100
AcDbEntity
  8
SUPERFICI
100
AcDbLine
 62
7
  6
CONTINUOUS
 10
-73.929173526
 20
-39.5804442346
 11
-75.4949769592
 21
-40.0
  0
LINE
  5
2F2
100
AcDbEntity
  8
RACCORDO
100
AcDbLine
 62
250
  6
CONTINUOUS
 10
-75.4949769592
 20
-38.5
 11
-82.9894641756
 21
-38.5
  0
LINE
  5
2F3
100
AcDbEntity
  8
RACCORDO
100
AcDbLine
 62
250
  6
CONTINUOUS
 10
-83.686605295
 20
-38.49
 11
-91.9303491952
 21
-38.49
  0
LINE
  5
2F4
100
AcDbEntity
  8
SKEL_COPERCHIO
100
AcDbLine
 62
250
  6
CONTINUOUS
 10
-83.686605295
 20
-38.49
 11
-92.6689289187
 21
-38.4899998727
  0
LINE
  5
2F5
100
AcDbEntity
  8
RACCORDO
100
AcDbLine
 62
250
  6
CONTINUOUS
 10
-92.8759523912
 20
-38.5050511515
 11
-91.9303491952
 21
-38.49
  0
LINE
  5
2F6
100
AcDbEntity
  8
SUPERFICI
100
AcDbLine
 62
250
  6
CONTINUOUS
 10
-73.4949769592
 20
-36.7
 11
-75.4949769592
 21
-36.7
  0
LINE
  5
2F7
100
AcDbEntity
  8
RACCORDO
100
AcDbLine
 62
7
  6
CONTINUOUS
 10
-83.686605295
 20
-34.8521815275
 11
-83.4949769592
 21
-34.8008348696
  0
LINE
  5
2F8
100
AcDbEntity
  8
0
100
AcDbLine
 62
7
  6
CONTINUOUS
 10
-95.5311934224
 20
-31.999978
 11
-95.3310889311
 21
-31.999978
  0
LINE
  5
2F9
100
AcDbEntity
  8
0
100
AcDbLine
 62
7
  6
CONTINUOUS
 10
-95.5665548027
 20
-30.8088806669
 11
-95.3665103961
 21
-30.8088806669
  0
LINE
  5
2FA
100
AcDbEntity
  8
RACCORDO
100
AcDbLine
 62
7
  6
CONTINUOUS
 10
-83.4949769592
 20
-32.2871956195
 11
-83.6873515887
 21
-32.2855167915
  0
LINE
  5
2FB
100
AcDbEntity
  8
RACCORDO
100
AcDbLine
 62
7
  6
CONTINUOUS
 10
-83.4949769592
 20
-31.8834912292
 11
-83.686605295
 21
-31.8767994202
  0
LINE
  5
2FC
100
AcDbEntity
  8
RACCORDO
100
AcDbLine
 62
250
  6
CONTINUOUS
 10
-83.4949769592
 20
-31.1224327591
 11
-83.686605295
 21
-31.1157409501
  0
LINE
  5
2FD
100
AcDbEntity
  8
0
100
AcDbLine
 62
7
  6
CONTINUOUS
 10
-95.5895700902
 20
-29.099855
 11
-95.3895661902
 21
-29.099855
  0
LINE
  5
2FE
100
AcDbEntity
  8
RACCORDO
100
AcDbLine
 62
250
  6
CONTINUOUS
 10
-83.4949769592
 20
-27.8713776008
 11
-83.686605295
 21
-27.8686057628
  0
LWPOLYLINE
  5
2FF
100
AcDbEntity
  8
SKEL_COPERCHIO
100
AcDbPolyline
 62
7
  6
CONTINUOUS
 90
7
 70
0
 10
-92.9525009844
 20
41.4076131453
 10
-93.0396243341
 20
41.167728505
 10
-93.1226126455
 20
40.93475291
 10
-93.2008828767
 20
40.710809802
 10
-93.2745281816
 20
40.4961717744
 10
-93.3437786299
 20
40.2906930574
 10
-93.4083068651
 20
40.0958869204
  0
LWPOLYLINE
  5
300
100
AcDbEntity
  8
0
100
AcDbPolyline
 62
7
  6
CONTINUOUS
 90
3
 70
0
 10
-92.9368811279
 20
41.4501305883
 10
-93.0114402072
 20
41.245845329
 10
-93.0912203021
 20
41.0234098438
  0
LINE
  5
301
100
AcDbEntity
  8
SKEL_COPERCHIO
100
AcDbLine
 62
7
  6
CONTINUOUS
 10
-92.8610265946
 20
41.6545615367
 11
-92.9525009844
 21
41.4076131453
  0
LINE
  5
302
100
AcDbEntity
  8
SKEL_COPERCHIO
100
AcDbLine
 62
7
  6
CONTINUOUS
 10
-92.7651416751
 20
41.9082897237
 11
-92.8610265946
 21
41.6545615367
  0
LINE
  5
303
100
AcDbEntity
  8
SKEL_COPERCHIO
100
AcDbLine
 62
7
  6
CONTINUOUS
 10
-92.6942093686
 20
42.092771686
 11
-92.7651416751
 21
41.9082897237
  0
LINE
  5
304
100
AcDbEntity
  8
RACCORDO
100
AcDbLine
 62
7
  6
CONTINUOUS
 10
-68.4949769592
 20
-25.5586247418
 11
-73.4949769592
 21
-25.6022590807
  0
LINE
  5
305
100
AcDbEntity
  8
RACCORDO
100
AcDbLine
 62
7
  6
CONTINUOUS
 10
-68.4949769592
 20
-25.3586247418
 11
-73.4949769592
 21
-25.4022590807
  0
LINE
  5
306
100
AcDbEntity
  8
RACCORDO
100
AcDbLine
 62
250
  6
CONTINUOUS
 10
-68.7923589985
 20
-25.3199284669
 11
-73.4949769592
 21
-25.3610236693
  0
LINE
  5
307
100
AcDbEntity
  8
RACCORDO
100
AcDbLine
 62
250
  6
CONTINUOUS
 10
-83.4949769592
 20
-26.0340199206
 11
-83.686605295
 21
-26.0312480826
  0
LINE
  5
308
100
AcDbEntity
  8
RACCORDO
100
AcDbLine
 62
7
  6
CONTINUOUS
 10
-96.3040577014
 20
-23.9804947957
 11
-96.186605295
 21
-23.9825449351
  0
LINE
  5
309
100
AcDbEntity
  8
RACCORDO
100
AcDbLine
 62
7
  6
CONTINUOUS
 10
-95.962653711
 20
-26.1324018413
 11
-95.9869107992
 21
-26.0995585562
  0
LWPOLYLINE
  5
30A
100
AcDbEntity
  8
RACCORDO
100
AcDbPolyline
 62
7
  6
CONTINUOUS
 90
3
 70
0
 10
-95.962653711
 20
-26.1324018413
 10
-95.954739053
 20
-26.1433235603
 10
-95.916444955
 20
-26.1976773621
  0
LWPOLYLINE
  5
30B
100
AcDbEntity
  8
RACCORDO
100
AcDbPolyline
 62
7
  6
CONTINUOUS
 90
19
 70
0
 10
-95.916444955
 20
-26.1976773621
 10
-95.8796185984
 20
-26.2524797874
 10
-95.8442786498
 20
-26.3076454147
 10
-95.8104137738
 20
-26.3631297851
 10
-95.7780114674
 20
-26.4188895299
 10
-95.7470815313
 20
-26.4748389562
 10
-95.717606648
 20
-26.5309352644
 10
-95.6895685238
 20
-26.5871368427
 10
-95.6629685332
 20
-26.643358564
 10
-95.6377840323
 20
-26.6995595004
 10
-95.6139911547
 20
-26.7557009608
 10
-95.5915828048
 20
-26.8117006058
 10
-95.5705305418
 20
-26.8675228151
 10
-95.5508067788
 20
-26.9231296203
 10
-95.5323991421
 20
-26.9784349906
 10
-95.5152727355
 20
-27.0334130907
 10
-95.4993976664
 20
-27.0880227839
 10
-95.4847611603
 20
-27.1421546712
 10
-95.4713261644
 20
-27.1957750125
  0
LINE
  5
30C
100
AcDbEntity
  8
SKEL_COPERCHIO
100
AcDbLine
 62
7
  6
CONTINUOUS
 10
-93.7937076834
 20
38.8728247854
 11
-93.8002203598
 21
38.8496468094
  0
LINE
  5
30D
100
AcDbEntity
  8
RACCORDO
100
AcDbLine
 62
7
  6
CONTINUOUS
 10
-93.7966901991
 20
38.8627495025
 11
-93.8005219935
 21
38.8498057287
  0
LINE
  5
30E
100
AcDbEntity
  8
SKEL_COPERCHIO
100
AcDbLine
 62
7
  6
CONTINUOUS
 10
-93.7937076834
 20
38.8728247854
 11
-93.8005441366
 21
38.8497426056
  0
LINE
  5
30F
100
AcDbEntity
  8
0
100
AcDbLine
 62
7
  6
CONTINUOUS
 10
-93.7490523163
 20
39.0071666013
 11
-93.79596859
 21
38.8484521235
  0
LINE
  5
310
100
AcDbEntity
  8
SKEL_COPERCHIO
100
AcDbLine
 62
7
  6
CONTINUOUS
 10
-93.7275050139
 20
39.0792979341
 11
-93.7921647041
 21
38.8614033011
  0
LINE
  5
311
100
AcDbEntity
  8
RACCORDO
100
AcDbLine
 62
7
  6
CONTINUOUS
 10
-93.7936544541
 20
38.861850157
 11
-93.7975325311
 21
38.8489212332
  0
LINE
  5
312
100
AcDbEntity
  8
0
100
AcDbLine
 62
7
  6
CONTINUOUS
 10
-93.6951905922
 20
39.186583944
 11
-93.7490523163
 21
39.0071666013
  0
LINE
  5
313
100
AcDbEntity
  8
SKEL_COPERCHIO
100
AcDbLine
 62
7
  6
CONTINUOUS
 10
-93.6616951508
 20
39.2966861938
 11
-93.7275050139
 21
39.0792979341
  0
LINE
  5
314
100
AcDbEntity
  8
0
100
AcDbLine
 62
7
  6
CONTINUOUS
 10
-93.6225998693
 20
39.4238085671
 11
-93.6951905922
 21
39.186583944
  0
LINE
  5
315
100
AcDbEntity
  8
SKEL_COPERCHIO
100
AcDbLine
 62
7
  6
CONTINUOUS
 10
-93.5746955223
 20
39.5775979907
 11
-93.6616951508
 21
39.2966861938
  0
LINE
  5
316
100
AcDbEntity
  8
0
100
AcDbLine
 62
7
  6
CONTINUOUS
 10
-93.5330061852
 20
39.7097202581
 11
-93.6225998693
 21
39.4238085671
  0
LINE
  5
317
100
AcDbEntity
  8
0
100
AcDbLine
 62
7
  6
CONTINUOUS
 10
-93.4268391577
 20
40.0393221559
 11
-93.5330061852
 21
39.7097202581
  0
LWPOLYLINE
  5
318
100
AcDbEntity
  8
SKEL_COPERCHIO
100
AcDbPolyline
 62
7
  6
CONTINUOUS
 90
3
 70
0
 10
-93.4083056691
 20
40.0958905618
 10
-93.4683797162
 20
39.9115002114
 10
-93.5746955223
 20
39.5775979907
  0
LINE
  5
319
100
AcDbEntity
  8
0
100
AcDbLine
 62
7
  6
CONTINUOUS
 10
-93.3678424228
 20
40.2184310913
 11
-93.4272700893
 21
40.0380035131
  0
LINE
  5
31A
100
AcDbEntity
  8
0
100
AcDbLine
 62
7
  6
CONTINUOUS
 10
-93.3048468167
 20
40.406656508
 11
-93.3682800327
 21
40.2171127797
  0
LINE
  5
31B
100
AcDbEntity
  8
0
100
AcDbLine
 62
7
  6
CONTINUOUS
 10
-93.237702104
 20
40.603988917
 11
-93.3052871263
 21
40.4053514328
  0
LINE
  5
31C
100
AcDbEntity
  8
0
100
AcDbLine
 62
7
  6
CONTINUOUS
 10
-93.1662805614
 20
40.810330277
 11
-93.2381411132
 21
40.6027094114
  0
LINE
  5
31D
100
AcDbEntity
  8
0
100
AcDbLine
 62
7
  6
CONTINUOUS
 10
-93.0907980936
 20
41.0245977999
 11
-93.1667138882
 21
40.8090891
  0
LINE
  5
31E
100
AcDbEntity
  8
RACCORDO
100
AcDbLine
 62
250
  6
CONTINUOUS
 10
-95.9800488181
 20
-22.2
 11
-97.286605295
 21
-22.2
  0
LINE
  5
31F
100
AcDbEntity
  8
RACCORDO
100
AcDbLine
 62
7
  6
CONTINUOUS
 10
-73.4949769592
 20
-22.706467787
 11
-69.4862504237
 21
-22.7414514135
  0
LWPOLYLINE
  5
320
100
AcDbEntity
  8
0
100
AcDbPolyline
 62
7
  6
CONTINUOUS
 90
3
 70
0
 43
0.3500000087
 10
-85.6765076111
 20
51.5357151703
 10
-85.7479350342
 20
51.3214286377
 10
-85.8907898804
 20
51.035714682
  0
LWPOLYLINE
  5
321
100
AcDbEntity
  8
0
100
AcDbPolyline
 62
7
  6
CONTINUOUS
 90
3
 70
0
 43
0.3500000087
 10
-81.8550765259
 20
61.535712146
 10
-81.926503949
 20
61.3214298767
 10
-82.0693587952
 20
61.0357116577
  0
LINE
  5
322
100
AcDbEntity
  8
RACCORDO
100
AcDbLine
 62
7
  6
CONTINUOUS
 10
-73.4949769592
 20
-18.1226292198
 11
-68.4949769592
 21
-17.9945974467
  0
LINE
  5
323
100
AcDbEntity
  8
RACCORDO
100
AcDbLine
 62
7
  6
CONTINUOUS
 10
-95.4713261644
 20
-27.1957750125
 11
-95.4590541658
 21
-27.2488566382
  0
LINE
  5
324
100
AcDbEntity
  8
RACCORDO
100
AcDbLine
 62
250
  6
CONTINUOUS
 10
-94.69612937
 20
-41.1803115501
 11
-94.696112249
 21
-41.1803905813
  0
LINE
  5
325
100
AcDbEntity
  8
RACCORDO
100
AcDbLine
 62
7
  6
CONTINUOUS
 10
-95.4590541658
 20
-27.2488566382
 11
-95.4479219319
 21
-27.3012991013
  0
LINE
  5
326
100
AcDbEntity
  8
RACCORDO
100
AcDbLine
 62
250
  6
CONTINUOUS
 10
-94.6961301786
 20
-41.1803104716
 11
-94.6961150222
 21
-41.1803903743
  0
LINE
  5
327
100
AcDbEntity
  8
SKEL_COPERCHIO
100
AcDbLine
 62
7
  6
CONTINUOUS
 10
-94.7109064397
 20
-41.0400162427
 11
-94.6328420856
 21
-41.766250536
  0
LINE
  5
328
100
AcDbEntity
  8
0
100
AcDbLine
 62
7
  6
CONTINUOUS
 10
-94.7589123208
 20
-40.5743470281
 11
-94.696128403
 21
-41.180301466
  0
LINE
  5
329
100
AcDbEntity
  8
SKEL_COPERCHIO
100
AcDbLine
 62
7
  6
CONTINUOUS
 10
-94.7746555902
 20
-40.4180929222
 11
-94.7109064397
 21
-41.0400162427
  0
LINE
  5
32A
100
AcDbEntity
  8
0
100
AcDbLine
 62
7
  6
CONTINUOUS
 10
-94.819522394
 20
-39.9622158719
 11
-94.7589123208
 21
-40.5743470281
  0
LINE
  5
32B
100
AcDbEntity
  8
SKEL_COPERCHIO
100
AcDbLine
 62
7
  6
CONTINUOUS
 10
-94.8358484695
 20
-39.7921546711
 11
-94.7746555902
 21
-40.4180929222
  0
LWPOLYLINE
  5
32C
100
AcDbEntity
  8
RACCORDO
100
AcDbPolyline
 62
7
  6
CONTINUOUS
 90
4
 70
0
 10
-95.4032842879
 20
-27.595663602
 10
-95.3994058257
 20
-27.6369300511
 10
-95.3963426852
 20
-27.6749976382
 10
-95.3940549143
 20
-27.7085296146
  0
LINE
  5
32D
100
AcDbEntity
  8
0
100
AcDbLine
 62
7
  6
CONTINUOUS
 10
-94.8762192961
 20
-39.3610969676
 11
-94.819522394
 21
-39.9622158719
  0
LINE
  5
32E
100
AcDbEntity
  8
SKEL_COPERCHIO
100
AcDbLine
 62
7
  6
CONTINUOUS
 10
-94.8935752823
 20
-39.1708523201
 11
-94.8358484695
 21
-39.7921546711
  0
LINE
  5
32F
100
AcDbEntity
  8
0
100
AcDbLine
 62
7
  6
CONTINUOUS
 10
-94.9292727792
 20
-38.7694262192
 11
-94.8762192961
 21
-39.3610969676
  0
LINE
  5
330
100
AcDbEntity
  8
SKEL_COPERCHIO
100
AcDbLine
 62
7
  6
CONTINUOUS
 10
-94.9472400714
 20
-38.5618703683
 11
-94.8935752823
 21
-39.1708523201
  0
LINE
  5
331
100
AcDbEntity
  8
0
100
AcDbLine
 62
7
  6
CONTINUOUS
 10
-94.978743673
 20
-38.1882725084
 11
-94.9292727792
 21
-38.7694262192
  0
LINE
  5
332
100
AcDbEntity
  8
SKEL_COPERCHIO
100
AcDbLine
 62
7
  6
CONTINUOUS
 10
-94.9970486178
 20
-37.9651316862
 11
-94.9472400714
 21
-38.5618703683
  0
LINE
  5
333
100
AcDbEntity
  8
0
100
AcDbLine
 62
7
  6
CONTINUOUS
 10
-95.0336466848
 20
-37.5043029598
 11
-94.978743673
 21
-38.1882725084
  0
LINE
  5
334
100
AcDbEntity
  8
SKEL_COPERCHIO
100
AcDbLine
 62
7
  6
CONTINUOUS
 10
-95.0433533057
 20
-37.3785191216
 11
-94.9970486178
 21
-37.9651316862
  0
LINE
  5
335
100
AcDbEntity
  8
0
100
AcDbLine
 62
7
  6
CONTINUOUS
 10
-95.0839485332
 20
-36.8341035083
 11
-95.0336466848
 21
-37.5043029598
  0
LINE
  5
336
100
AcDbEntity
  8
SKEL_COPERCHIO
100
AcDbLine
 62
7
  6
CONTINUOUS
 10
-95.0863372273
 20
-36.8010669355
 11
-95.0433533057
 21
-37.3785191216
  0
LINE
  5
337
100
AcDbEntity
  8
SKEL_COPERCHIO
100
AcDbLine
 62
7
  6
CONTINUOUS
 10
-95.1260455992
 20
-36.2331129735
 11
-95.0863372273
 21
-36.8010669355
  0
LINE
  5
338
100
AcDbEntity
  8
0
100
AcDbLine
 62
7
  6
CONTINUOUS
 10
-95.1298567347
 20
-36.1765758963
 11
-95.0839485332
 21
-36.8341035083
  0
LINE
  5
339
100
AcDbEntity
  8
SKEL_COPERCHIO
100
AcDbLine
 62
7
  6
CONTINUOUS
 10
-95.1483198323
 20
-35.8970202958
 11
-95.1260456045
 21
-36.2331128947
  0
LINE
  5
33A
100
AcDbEntity
  8
0
100
AcDbLine
 62
7
  6
CONTINUOUS
 10
-95.1512915925
 20
-35.8510999665
 11
-95.1225775162
 21
-36.2842311573
  0
LINE
  5
33B
100
AcDbEntity
  8
RACCORDO
100
AcDbLine
 62
250
  6
CONTINUOUS
 10
-73.4949769592
 20
-17.201216356
 11
-68.4949769592
 21
-17.1872347387
  0
LINE
  5
33C
100
AcDbEntity
  8
RACCORDO
100
AcDbLine
 62
7
  6
CONTINUOUS
 10
-95.4479219319
 20
-27.3012991013
 11
-95.4378576521
 21
-27.3532377081
  0
LWPOLYLINE
  5
33D
100
AcDbEntity
  8
RACCORDO
100
AcDbPolyline
 62
7
  6
CONTINUOUS
 90
6
 70
0
 10
-95.4378576521
 20
-27.3532377081
 10
-95.4288557658
 20
-27.4044827043
 10
-95.4209599585
 20
-27.4544382067
 10
-95.4140514014
 20
-27.5034467638
 10
-95.4081242246
 20
-27.5511030215
 10
-95.4032842879
 20
-27.595663602
  0
LINE
  5
33E
100
AcDbEntity
  8
SKEL_COPERCHIO
100
AcDbLine
 62
7
  6
CONTINUOUS
 10
-94.6328420856
 20
-41.766250536
 11
-94.6002317922
 21
-42.0595019409
  0
LINE
  5
33F
100
AcDbEntity
  8
SKEL_COPERCHIO
100
AcDbLine
 62
7
  6
CONTINUOUS
 10
-95.1828998322
 20
-35.3448589188
 11
-95.1483198323
 21
-35.8970202958
  0
LINE
  5
340
100
AcDbEntity
  8
0
100
AcDbLine
 62
7
  6
CONTINUOUS
 10
-95.1846060666
 20
-35.3165253664
 11
-95.1512195567
 21
-35.8522162504
  0
LWPOLYLINE
  5
341
100
AcDbEntity
  8
RACCORDO
100
AcDbPolyline
 62
7
  6
CONTINUOUS
 90
7
 70
0
 10
-95.3940549143
 20
-27.7085296146
 10
-95.3924332626
 20
-27.7366826742
 10
-95.3912932165
 20
-27.7601479239
 10
-95.3904867508
 20
-27.7798848852
 10
-95.3899464823
 20
-27.7956441356
 10
-95.389603218
 20
-27.8075301344
 10
-95.389570209
 20
-27.8088849916
  0
LINE
  5
342
100
AcDbEntity
  8
SKEL_COPERCHIO
100
AcDbLine
 62
7
  6
CONTINUOUS
 10
-95.2143720849
 20
-34.8029125716
 11
-95.1828998322
 21
-35.3448589188
  0
LINE
  5
343
100
AcDbEntity
  8
0
100
AcDbLine
 62
7
  6
CONTINUOUS
 10
-95.2151410921
 20
-34.7891164514
 11
-95.1845379689
 21
-35.3176583215
  0
LINE
  5
344
100
AcDbEntity
  8
SKEL_COPERCHIO
100
AcDbLine
 62
7
  6
CONTINUOUS
 10
-95.2428359273
 20
-34.2713942098
 11
-95.2143720849
 21
-34.8029125716
  0
LINE
  5
345
100
AcDbEntity
  8
0
100
AcDbLine
 62
7
  6
CONTINUOUS
 10
-95.2429117973
 20
-34.2699149796
 11
-95.2150775243
 21
-34.7902579603
  0
LINE
  5
346
100
AcDbEntity
  8
SKEL_COPERCHIO
100
AcDbLine
 62
7
  6
CONTINUOUS
 10
-95.2683983621
 20
-33.7504538861
 11
-95.2428359273
 21
-34.2713942098
  0
LINE
  5
347
100
AcDbEntity
  8
0
100
AcDbLine
 62
7
  6
CONTINUOUS
 10
-95.2726048185
 20
-33.6598852131
 11
-95.2428534181
 21
-34.2710532243
  0
LINE
  5
348
100
AcDbEntity
  8
SKEL_COPERCHIO
100
AcDbLine
 62
7
  6
CONTINUOUS
 10
-95.2911726077
 20
-33.2401889553
 11
-95.2683983621
 21
-33.7504538861
  0
LINE
  5
349
100
AcDbEntity
  8
0
100
AcDbLine
 62
7
  6
CONTINUOUS
 10
-95.2984093726
 20
-33.0665286417
 11
-95.2725531679
 21
-33.6610066053
  0
LINE
  5
34A
100
AcDbEntity
  8
SKEL_COPERCHIO
100
AcDbLine
 62
7
  6
CONTINUOUS
 10
-95.3149967037
 20
-32.6420146988
 11
-95.2911726077
 21
-33.2401889553
  0
LINE
  5
34B
100
AcDbEntity
  8
0
100
AcDbLine
 62
7
  6
CONTINUOUS
 10
-95.3204695465
 20
-32.492377437
 11
-95.2983646149
 21
-33.0676223363
  0
LINE
  5
34C
100
AcDbEntity
  8
SKEL_COPERCHIO
100
AcDbLine
 62
7
  6
CONTINUOUS
 10
-95.3352036992
 20
-32.0594066717
 11
-95.3149967037
 21
-32.6420146988
  0
LINE
  5
34D
100
AcDbEntity
  8
SKEL_COPERCHIO
100
AcDbLine
 62
7
  6
CONTINUOUS
 10
-95.3370882952
 20
-31.999993
 11
-95.3352036992
 21
-32.0594066717
  0
LINE
  5
34E
100
AcDbEntity
  8
0
100
AcDbLine
 62
7
  6
CONTINUOUS
 10
-95.3370899974
 20
-31.999978
 11
-95.3204315146
 21
-32.4934360511
  0
LINE
  5
34F
100
AcDbEntity
  8
0
100
AcDbLine
 62
7
  6
CONTINUOUS
 10
-95.5665548027
 20
-30.8088806669
 11
-95.5600926659
 21
-31.0701091818
  0
LINE
  5
350
100
AcDbEntity
  8
RACCORDO
100
AcDbLine
 62
250
  6
CONTINUOUS
 10
-95.9869270611
 20
-26.0995707387
 11
-95.9871069046
 21
-26.0916532432
  0
LWPOLYLINE
  5
351
100
AcDbEntity
  8
RACCORDO
100
AcDbPolyline
 62
250
  6
CONTINUOUS
 90
3
 70
0
 10
-95.3795748682
 20
27.8463266665
 10
-95.3798327119
 20
27.8641727987
 10
-95.3801711159
 20
27.8705612029
  0
LINE
  5
352
100
AcDbEntity
  8
RACCORDO
100
AcDbLine
 62
250
  6
CONTINUOUS
 10
-95.9869270611
 20
-26.0995707387
 11
-95.9871996453
 21
-26.0689128638
  0
LINE
  5
353
100
AcDbEntity
  8
SKEL_COPERCHIO
100
AcDbLine
 62
7
  6
CONTINUOUS
 10
-95.3867103925
 20
-26.0605685289
 11
-95.3851690337
 21
-26.5652174757
  0
LINE
  5
354
100
AcDbEntity
  8
RACCORDO
100
AcDbLine
 62
250
  6
CONTINUOUS
 10
-95.3807564182
 20
24.287468337
 11
-95.381390232
 21
24.8863464306
  0
LINE
  5
355
100
AcDbEntity
  8
0
100
AcDbLine
 62
7
  6
CONTINUOUS
 10
-95.3921217447
 20
-28.6081771767
 11
-95.3908275471
 21
-29.099855
  0
LINE
  5
356
100
AcDbEntity
  8
RACCORDO
100
AcDbLine
 62
250
  6
CONTINUOUS
 10
-95.3793986026
 20
27.7706600107
 11
-95.3795748682
 21
27.8463266665
  0
LINE
  5
357
100
AcDbEntity
  8
SKEL_COPERCHIO
100
AcDbLine
 62
7
  6
CONTINUOUS
 10
-95.3921287901
 20
-28.5696911734
 11
-95.3908271111
 21
-29.099862
  0
LINE
  5
358
100
AcDbEntity
  8
RACCORDO
100
AcDbLine
 62
250
  6
CONTINUOUS
 10
-95.9800488181
 20
-22.2
 11
-95.9865957806
 21
-0.000831956
  0
LINE
  5
359
100
AcDbEntity
  8
RACCORDO
100
AcDbLine
 62
250
  6
CONTINUOUS
 10
-95.3861156251
 20
-3.8731957615
 11
-95.3864679523
 21
-2.8480478044
  0
LINE
  5
35A
100
AcDbEntity
  8
RACCORDO
100
AcDbLine
 62
7
  6
CONTINUOUS
 10
-97.286605295
 20
-22.9806471005
 11
-97.286605295
 21
22.9806471005
  0
LINE
  5
35B
100
AcDbEntity
  8
RACCORDO
100
AcDbLine
 62
250
  6
CONTINUOUS
 10
-96.3040577014
 20
-23.9804947957
 11
-96.3040577014
 21
23.9804947957
  0
LINE
  5
35C
100
AcDbEntity
  8
0
100
AcDbLine
 62
7
  6
CONTINUOUS
 10
-96.186605295
 20
25.5
 11
-96.186605295
 21
-25.5
  0
LINE
  5
35D
100
AcDbEntity
  8
RACCORDO
100
AcDbLine
 62
7
  6
CONTINUOUS
 10
-95.3866776072
 20
-1.5682708956
 11
-95.3866827452
 21
-1.4701462409
  0
LINE
  5
35E
100
AcDbEntity
  8
SKEL_COPERCHIO
100
AcDbLine
 62
7
  6
CONTINUOUS
 10
-95.386605295
 20
-26.3209842108
 11
-95.386605295
 21
-27.0594518156
  0
LINE
  5
35F
100
AcDbEntity
  8
RACCORDO
100
AcDbLine
 62
7
  6
CONTINUOUS
 10
-95.3866870936
 20
-1.0733790786
 11
-95.3870042078
 21
0.6058968974
  0
LINE
  5
360
100
AcDbEntity
  8
SKEL_COPERCHIO
100
AcDbLine
 62
7
  6
CONTINUOUS
 10
-95.3865627217
 20
0.0000000002
 11
-95.3866221886
 21
-1.5682708887
  0
LINE
  5
361
100
AcDbEntity
  8
RACCORDO
100
AcDbLine
 62
250
  6
CONTINUOUS
 10
-95.3887395629
 20
10.6878947002
 11
-95.38864093
 21
11.0534937212
  0
LINE
  5
362
100
AcDbEntity
  8
SKEL_COPERCHIO
100
AcDbLine
 62
7
  6
CONTINUOUS
 10
-95.3887200597
 20
10.7655737961
 11
-95.3865634764
 21
0.0000000002
  0
LINE
  5
363
100
AcDbEntity
  8
RACCORDO
100
AcDbLine
 62
7
  6
CONTINUOUS
 10
-95.3889428242
 20
9.7832254037
 11
-95.3887395629
 21
10.6878947002
  0
LINE
  5
364
100
AcDbEntity
  8
0
100
AcDbLine
 62
7
  6
CONTINUOUS
 10
-95.3887541183
 20
10.6320361365
 11
-95.3867709328
 21
0.2772434335
  0
LINE
  5
365
100
AcDbEntity
  8
RACCORDO
100
AcDbLine
 62
250
  6
CONTINUOUS
 10
-95.9865957806
 20
-0.000831956
 11
-95.9849330996
 21
26.1022231451
  0
LINE
  5
366
100
AcDbEntity
  8
RACCORDO
100
AcDbLine
 62
250
  6
CONTINUOUS
 10
-95.3807324474
 20
27.2775464076
 11
-95.3801711159
 21
27.8705612029
  0
LINE
  5
367
100
AcDbEntity
  8
RACCORDO
100
AcDbLine
 62
250
  6
CONTINUOUS
 10
-95.3815129772
 20
22.0546896805
 11
-95.3812632606
 21
22.1943185376
  0
LINE
  5
368
100
AcDbEntity
  8
RACCORDO
100
AcDbLine
 62
250
  6
CONTINUOUS
 10
-95.3814916972
 20
22.0546895934
 11
-95.3812632606
 21
22.1943185376
  0
LINE
  5
369
100
AcDbEntity
  8
SKEL_COPERCHIO
100
AcDbLine
 62
7
  6
CONTINUOUS
 10
-95.3851690337
 20
-26.5652174757
 11
-95.3855060824
 21
-27.149874602
  0
LINE
  5
36A
100
AcDbEntity
  8
RACCORDO
100
AcDbLine
 62
7
  6
CONTINUOUS
 10
-95.3856327912
 20
-27.1860663635
 11
-95.3855799484
 21
-27.171633454
  0
LINE
  5
36B
100
AcDbEntity
  8
0
100
AcDbLine
 62
7
  6
CONTINUOUS
 10
-95.3911288856
 20
-28.0971029815
 11
-95.3921217447
 21
-28.6081771767
  0
LINE
  5
36C
100
AcDbEntity
  8
SKEL_COPERCHIO
100
AcDbLine
 62
7
  6
CONTINUOUS
 10
-95.390388339
 20
-27.9444737557
 11
-95.3921287901
 21
-28.5696911734
  0
LINE
  5
36D
100
AcDbEntity
  8
RACCORDO
100
AcDbLine
 62
7
  6
CONTINUOUS
 10
-95.3880924912
 20
-27.6003168982
 11
-95.3873709643
 21
-27.4922639489
  0
LINE
  5
36E
100
AcDbEntity
  8
0
100
AcDbLine
 62
7
  6
CONTINUOUS
 10
-95.3886957216
 20
-27.683030816
 11
-95.3911258698
 21
-28.0963858996
  0
LINE
  5
36F
100
AcDbEntity
  8
SKEL_COPERCHIO
100
AcDbLine
 62
7
  6
CONTINUOUS
 10
-95.3855060828
 20
-27.1498747334
 11
-95.3907221059
 21
-28.0083364155
  0
LINE
  5
370
100
AcDbEntity
  8
0
100
AcDbLine
 62
7
  6
CONTINUOUS
 10
-95.385629236
 20
-27.1852483248
 11
-95.3886957216
 21
-27.683030816
  0
LINE
  5
371
100
AcDbEntity
  8
RACCORDO
100
AcDbLine
 62
7
  6
CONTINUOUS
 10
-95.3852999988
 20
27.8948469957
 11
-95.3853892501
 21
27.8952158624
  0
LINE
  5
372
100
AcDbEntity
  8
RACCORDO
100
AcDbLine
 62
7
  6
CONTINUOUS
 10
-95.3851108007
 20
27.8940475627
 11
-95.3852071378
 21
27.8944578493
  0
LINE
  5
373
100
AcDbEntity
  8
RACCORDO
100
AcDbLine
 62
7
  6
CONTINUOUS
 10
-95.3849088561
 20
27.8931623912
 11
-95.3850115188
 21
27.8936169256
  0
LINE
  5
374
100
AcDbEntity
  8
RACCORDO
100
AcDbLine
 62
7
  6
CONTINUOUS
 10
-95.3801655181
 20
27.8705611314
 11
-95.3866167144
 21
27.9000796822
  0
LWPOLYLINE
  5
375
100
AcDbEntity
  8
RACCORDO
100
AcDbPolyline
 62
7
  6
CONTINUOUS
 90
8
 70
0
 10
-95.3839296201
 20
27.8881425953
 10
-95.3840406711
 20
27.8887842799
 10
-95.3841508916
 20
27.8894039717
 10
-95.3842604843
 20
27.8900014989
 10
-95.3843694095
 20
27.8905756787
 10
-95.3844788129
 20
27.8911325554
 10
-95.3845884951
 20
27.8916724075
 10
-95.3846965557
 20
27.8921882966
  0
LINE
  5
376
100
AcDbEntity
  8
RACCORDO
100
AcDbLine
 62
7
  6
CONTINUOUS
 10
-95.3830179555
 20
27.8826241387
 11
-95.3838165296
 21
27.8874737963
  0
LINE
  5
377
100
AcDbEntity
  8
RACCORDO
100
AcDbLine
 62
7
  6
CONTINUOUS
 10
-85.6949769592
 20
42.3219583377
 11
-85.6949769592
 21
42.0916407392
  0
LWPOLYLINE
  5
378
100
AcDbEntity
  8
RACCORDO
100
AcDbPolyline
 62
7
  6
CONTINUOUS
 90
11
 70
0
 10
-95.3801655181
 20
27.8705611314
 10
-95.3806199305
 20
27.8719417116
 10
-95.3810226053
 20
27.8733073341
 10
-95.3813805859
 20
27.8746432764
 10
-95.3816987799
 20
27.8759390007
 10
-95.3819814487
 20
27.8771882539
 10
-95.3822341513
 20
27.8783857588
 10
-95.3824607613
 20
27.8795279705
 10
-95.3826644063
 20
27.880614256
 10
-95.3828491775
 20
27.8816460975
 10
-95.3830179555
 20
27.8826241387
  0
LINE
  5
379
100
AcDbEntity
  8
RACCORDO
100
AcDbLine
 62
7
  6
CONTINUOUS
 10
-95.3864993977
 20
27.8995624313
 11
-95.386519539
 21
27.8996376643
  0
LINE
  5
37A
100
AcDbEntity
  8
RACCORDO
100
AcDbLine
 62
7
  6
CONTINUOUS
 10
-95.3860797507
 20
27.8979616545
 11
-95.3861294398
 21
27.898153453
  0
LINE
  5
37B
100
AcDbEntity
  8
RACCORDO
100
AcDbLine
 62
7
  6
CONTINUOUS
 10
-95.3857807377
 20
27.8967923893
 11
-95.385847733
 21
27.8970567765
  0
LINE
  5
37C
100
AcDbEntity
  8
RACCORDO
100
AcDbLine
 62
7
  6
CONTINUOUS
 10
-95.3855570633
 20
27.8958985829
 11
-95.3856353663
 21
27.8962134443
  0
LWPOLYLINE
  5
37D
100
AcDbEntity
  8
0
100
AcDbPolyline
 62
7
  6
CONTINUOUS
 90
4
 70
0
 43
0.3500000087
 10
-84.9265068787
 20
61.6785755188
 10
-84.9265068787
 20
62.5357131226
 10
-84.4979338135
 20
62.9642861877
 10
-83.855078479
 20
62.9642861877
  0
LWPOLYLINE
  5
37E
100
AcDbEntity
  8
0
100
AcDbPolyline
 62
7
  6
CONTINUOUS
 90
4
 70
0
 43
0.3500000087
 10
-84.6765066345
 20
51.6785700165
 10
-84.6765066345
 20
52.5357118835
 10
-84.2479335693
 20
52.9642849487
 10
-83.6050782349
 20
52.9642849487
  0
LINE
  5
37F
100
AcDbEntity
  8
0
100
AcDbLine
 62
7
  6
CONTINUOUS
 10
-83.686605295
 20
-42.25
 11
-83.686605295
 21
-38.49
  0
LINE
  5
380
100
AcDbEntity
  8
ASSI
100
AcDbLine
 62
7
  6
CONTINUOUS
 10
-83.686605295
 20
-38.49
 11
-83.686605295
 21
37.5
  0
LINE
  5
381
100
AcDbEntity
  8
SKEL_COPERCHIO
100
AcDbLine
 62
7
  6
CONTINUOUS
 10
-83.686605295
 20
-42.25
 11
-83.686605295
 21
38.9903883603
  0
LINE
  5
382
100
AcDbEntity
  8
RACCORDO
100
AcDbLine
 62
7
  6
CONTINUOUS
 10
-83.4949769592
 20
37.5
 11
-83.4949769592
 21
-41.8690108351
  0
LINE
  5
383
100
AcDbEntity
  8
RACCORDO
100
AcDbLine
 62
250
  6
CONTINUOUS
 10
-82.9894641756
 20
-38.5
 11
-83.0037031483
 21
-42.3689346969
  0
LINE
  5
384
100
AcDbEntity
  8
SKEL_COPERCHIO
100
AcDbLine
 62
250
  6
CONTINUOUS
 10
-95.3865634764
 20
0.0000000002
 11
-92.7140300121
 21
-0.0
  0
LINE
  5
385
100
AcDbEntity
  8
RACCORDO
100
AcDbLine
 62
250
  6
CONTINUOUS
 10
-95.9865957804
 20
-0.0008319559
 11
-93.5865632748
 21
-0.0
  0
LINE
  5
386
100
AcDbEntity
  8
RACCORDO
100
AcDbLine
 62
250
  6
CONTINUOUS
 10
-93.5865632748
 20
-0.0
 11
-92.0126862115
 21
0.0006019772
  0
LWPOLYLINE
  5
387
100
AcDbEntity
  8
0
100
AcDbPolyline
 62
7
  6
CONTINUOUS
 90
4
 70
0
 43
0.3500000087
 10
-80.8550755493
 20
61.6785755188
 10
-80.8550755493
 20
62.5357131226
 10
-80.4265024841
 20
62.9642861877
 10
-79.7836471497
 20
62.9642861877
  0
LINE
  5
388
100
AcDbEntity
  8
DRAFT
100
AcDbLine
 62
7
  6
CONTINUOUS
 10
-75.4949769592
 20
-42.5
 11
-75.4949769592
 21
42.5
  0
LINE
  5
389
100
AcDbEntity
  8
SUPERFICI
100
AcDbLine
 62
250
  6
CONTINUOUS
 10
-73.929173526
 20
39.5804442346
 11
-73.929173526
 21
-39.5804442346
  0
LINE
  5
38A
100
AcDbEntity
  8
SUPERFICI
100
AcDbLine
 62
7
  6
CONTINUOUS
 10
-73.4949769592
 20
-39.0145882543
 11
-73.4949769592
 21
39.0145882543
  0
LINE
  5
38B
100
AcDbEntity
  8
RACCORDO
100
AcDbLine
 62
250
  6
CONTINUOUS
 10
-68.7923589985
 20
25.3199284669
 11
-68.7923589985
 21
23.9864873566
  0
LINE
  5
38C
100
AcDbEntity
  8
RACCORDO
100
AcDbLine
 62
250
  6
CONTINUOUS
 10
-68.7923589985
 20
17.8849392887
 11
-68.7923589985
 21
17.1880678433
  0
LINE
  5
38D
100
AcDbEntity
  8
RACCORDO
100
AcDbLine
 62
250
  6
CONTINUOUS
 10
-68.7923589985
 20
-23.9864873566
 11
-68.7923589985
 21
-25.3199284669
  0
LINE
  5
38E
100
AcDbEntity
  8
RACCORDO
100
AcDbLine
 62
7
  6
CONTINUOUS
 10
-68.4949769592
 20
25.5586247418
 11
-68.4949769592
 21
23.7414133366
  0
LINE
  5
38F
100
AcDbEntity
  8
RACCORDO
100
AcDbLine
 62
7
  6
CONTINUOUS
 10
-68.4949769592
 20
-17.9944833763
 11
-68.4949769592
 21
17.9331989383
  0
LINE
  5
390
100
AcDbEntity
  8
RACCORDO
100
AcDbLine
 62
7
  6
CONTINUOUS
 10
-68.4949769592
 20
-23.7414133366
 11
-68.4949769592
 21
-25.5586247418
  0
LINE
  5
391
100
AcDbEntity
  8
RACCORDO
100
AcDbLine
 62
250
  6
CONTINUOUS
 10
-68.7923589985
 20
17.1880678433
 11
-73.4949769592
 21
17.201216812
  0
LINE
  5
392
100
AcDbEntity
  8
RACCORDO
100
AcDbLine
 62
7
  6
CONTINUOUS
 10
-68.5561718768
 20
17.9961700595
 11
-73.4949769592
 21
18.1226292198
  0
LWPOLYLINE
  5
393
100
AcDbEntity
  8
0
100
AcDbPolyline
 62
7
  6
CONTINUOUS
 90
10
 70
0
 43
0.3500000087
 10
-85.7479350342
 20
51.7500017029
 10
-85.6765076111
 20
51.6071425934
 10
-85.6765076111
 20
51.5357151703
 10
-85.8193624573
 20
51.3928560608
 10
-85.8907898804
 20
51.3928560608
 10
-85.9622173035
 20
51.4642877472
 10
-85.9622173035
 20
51.5357151703
 10
-85.8907898804
 20
51.6785700165
 10
-85.8193624573
 20
51.7500017029
 10
-85.7479350342
 20
51.7500017029
  0
LINE
  5
394
100
AcDbEntity
  8
RACCORDO
100
AcDbLine
 62
7
  6
CONTINUOUS
 10
-96.186605295
 20
23.9825449351
 11
-96.3040577014
 21
23.9804947957
  0
LINE
  5
395
100
AcDbEntity
  8
RACCORDO
100
AcDbLine
 62
7
  6
CONTINUOUS
 10
-69.4862504237
 20
22.7414514135
 11
-73.4949769592
 21
22.706467787
  0
LINE
  5
396
100
AcDbEntity
  8
DRAFT
100
AcDbLine
 62
250
  6
CONTINUOUS
 10
-83.686605295
 20
22.2
 11
-83.4949769592
 21
22.2
  0
LINE
  5
397
100
AcDbEntity
  8
RACCORDO
100
AcDbLine
 62
250
  6
CONTINUOUS
 10
-95.9852028905
 20
22.2
 11
-97.286605295
 21
22.2
  0
LINE
  5
398
100
AcDbEntity
  8
RACCORDO
100
AcDbLine
 62
250
  6
CONTINUOUS
 10
-73.4949769592
 20
25.3610236693
 11
-68.7923589985
 21
25.3199284669
  0
LINE
  5
399
100
AcDbEntity
  8
RACCORDO
100
AcDbLine
 62
7
  6
CONTINUOUS
 10
-73.4949769592
 20
25.4022590807
 11
-68.4949769592
 21
25.3586247418
  0
LINE
  5
39A
100
AcDbEntity
  8
RACCORDO
100
AcDbLine
 62
7
  6
CONTINUOUS
 10
-73.4949769592
 20
25.6022590807
 11
-68.4949769592
 21
25.5586247418
  0
LINE
  5
39B
100
AcDbEntity
  8
0
100
AcDbLine
 62
7
  6
CONTINUOUS
 10
-86.5513793368
 20
42.1647740418
 11
-86.5859962378
 21
42.1993909428
  0
LWPOLYLINE
  5
39C
100
AcDbEntity
  8
0
100
AcDbPolyline
 62
7
  6
CONTINUOUS
 90
10
 70
0
 43
0.3500000087
 10
-81.926503949
 20
61.7500029419
 10
-81.8550765259
 20
61.6071395691
 10
-81.8550765259
 20
61.535712146
 10
-81.9979313721
 20
61.3928572998
 10
-82.0693587952
 20
61.3928572998
 10
-82.1407947449
 20
61.4642847229
 10
-82.1407947449
 20
61.535712146
 10
-82.0693587952
 20
61.6785755188
 10
-81.9979313721
 20
61.7500029419
 10
-81.926503949
 20
61.7500029419
  0
LINE
  5
39D
100
AcDbEntity
  8
DRAFT
100
AcDbLine
 62
7
  6
CONTINUOUS
 10
-83.686605295
 20
31.1767994202
 11
-83.4949769592
 21
31.1834912292
  0
LINE
  5
39E
100
AcDbEntity
  8
ASSI
100
AcDbLine
 62
7
  6
CONTINUOUS
 10
-83.686605295
 20
32.8
 11
-83.4949769592
 21
32.8
  0
LINE
  5
39F
100
AcDbEntity
  8
RACCORDO
100
AcDbLine
 62
250
  6
CONTINUOUS
 10
-85.6949769592
 20
42.0916407392
 11
-85.6915464687
 21
42.0897151002
  0
LINE
  5
3A0
100
AcDbEntity
  8
RACCORDO
100
AcDbLine
 62
7
  6
CONTINUOUS
 10
-85.6915464687
 20
42.0897151002
 11
-85.6792887314
 21
42.0827859775
  0
LINE
  5
3A1
100
AcDbEntity
  8
SUPERFICI
100
AcDbLine
 62
250
  6
CONTINUOUS
 10
-73.4949769592
 20
36.7
 11
-75.4949769592
 21
36.7
  0
LINE
  5
3A2
100
AcDbEntity
  8
ASSI
100
AcDbLine
 62
250
  6
CONTINUOUS
 10
-91.4319062174
 20
38.49
 11
-83.7732373463
 21
38.4900001097
  0
LINE
  5
3A3
100
AcDbEntity
  8
SKEL_COPERCHIO
100
AcDbLine
 62
250
  6
CONTINUOUS
 10
-92.1754925677
 20
38.4900002043
 11
-83.686605295
 21
38.49
  0
LINE
  5
3A4
100
AcDbEntity
  8
RACCORDO
100
AcDbLine
 62
250
  6
CONTINUOUS
 10
-83.3238209987
 20
38.5
 11
-75.4949769592
 21
38.5
  0
LINE
  5
3A5
100
AcDbEntity
  8
0
100
AcDbLine
 62
7
  6
CONTINUOUS
 10
-86.5513793368
 20
42.1647740418
 11
-86.1217631012
 21
42.1723447486
  0
LINE
  5
3A6
100
AcDbEntity
  8
0
100
AcDbLine
 62
7
  6
CONTINUOUS
 10
-91.5329175418
 20
42.1130421103
 11
-86.5859962378
 21
42.1993909428
  0
LINE
  5
3A7
100
AcDbEntity
  8
SKEL_COPERCHIO
100
AcDbLine
 62
7
  6
CONTINUOUS
 10
-85.6937327219
 20
42.2149654604
 11
-92.6942271957
 21
42.0927713749
  0
LINE
  5
3A8
100
AcDbEntity
  8
DRAFT
100
AcDbLine
 62
7
  6
CONTINUOUS
 10
-85.6949769592
 20
42.3219583377
 11
-75.4949769592
 21
42.5
  0
LWPOLYLINE
  5
3A9
100
AcDbEntity
  8
0
100
AcDbPolyline
 62
7
  6
CONTINUOUS
 90
7
 70
0
 43
0.3500000087
 10
-88.9622202332
 20
51.2500012146
 10
-90.462221698
 20
51.2500012146
 10
-88.9622202332
 20
53.3928580139
 10
-88.9622202332
 20
53.8214310791
 10
-89.3907932983
 20
54.2500041443
 10
-90.0336486328
 20
54.2500041443
 10
-90.462221698
 20
53.6071402832
  0
LWPOLYLINE
  5
3AA
100
AcDbEntity
  8
0
100
AcDbPolyline
 62
7
  6
CONTINUOUS
 90
7
 70
0
 43
0.3500000087
 10
-85.7836444824
 20
61.2500024536
 10
-87.2836459473
 20
61.2500024536
 10
-85.7836444824
 20
63.3928592529
 10
-85.7836444824
 20
63.8214323181
 10
-86.2122175476
 20
64.2499968567
 10
-86.8550728821
 20
64.2499968567
 10
-87.2836459473
 20
63.6071415222
  0
LINE
  5
3AB
100
AcDbEntity
  8
SUPERFICI
100
AcDbLine
 62
7
  6
CONTINUOUS
 10
-73.929173526
 20
39.5804442346
 11
-75.4949769592
 21
40.0
  0
LWPOLYLINE
  5
3AC
100
AcDbEntity
  8
0
100
AcDbPolyline
 62
7
  6
CONTINUOUS
 90
13
 70
0
 43
0.3500000087
 10
-84.2479335693
 20
52.9642849487
 10
-84.5336517883
 20
53.178567218
 10
-84.5336517883
 20
53.8214310791
 10
-84.2479335693
 20
54.2500041443
 10
-83.6050782349
 20
54.2500041443
 10
-83.3193600159
 20
53.8214310791
 10
-83.3193600159
 20
53.178567218
 10
-83.6050782349
 20
52.9642849487
 10
-83.1765051697
 20
52.5357118835
 10
-83.1765051697
 20
51.6785700165
 10
-83.6050782349
 20
51.2500012146
 10
-84.2479335693
 20
51.2500012146
 10
-84.6765066345
 20
51.6785700165
  0
LWPOLYLINE
  5
3AD
100
AcDbEntity
  8
0
100
AcDbPolyline
 62
7
  6
CONTINUOUS
 90
13
 70
0
 43
0.3500000087
 10
-84.4979338135
 20
62.9642861877
 10
-84.7836520325
 20
63.178568457
 10
-84.7836520325
 20
63.8214323181
 10
-84.4979338135
 20
64.2499968567
 10
-83.855078479
 20
64.2499968567
 10
-83.56936026
 20
63.8214323181
 10
-83.56936026
 20
63.178568457
 10
-83.855078479
 20
62.9642861877
 10
-83.4265054138
 20
62.5357131226
 10
-83.4265054138
 20
61.6785755188
 10
-83.855078479
 20
61.2500024536
 10
-84.4979338135
 20
61.2500024536
 10
-84.9265068787
 20
61.6785755188
  0
LWPOLYLINE
  5
3AE
100
AcDbEntity
  8
0
100
AcDbPolyline
 62
7
  6
CONTINUOUS
 90
13
 70
0
 43
0.3500000087
 10
-80.4265024841
 20
62.9642861877
 10
-80.7122207031
 20
63.178568457
 10
-80.7122207031
 20
63.8214323181
 10
-80.4265024841
 20
64.2499968567
 10
-79.7836471497
 20
64.2499968567
 10
-79.4979374573
 20
63.8214323181
 10
-79.4979374573
 20
63.178568457
 10
-79.7836471497
 20
62.9642861877
 10
-79.3550740845
 20
62.5357131226
 10
-79.3550740845
 20
61.6785755188
 10
-79.7836471497
 20
61.2500024536
 10
-80.4265024841
 20
61.2500024536
 10
-80.8550755493
 20
61.6785755188
  0
ARC
  5
3AF
100
AcDbEntity
  8
RACCORDO
100
AcDbCircle
 62
250
  6
CONTINUOUS
 10
-31.223652117
 20
-795.1092655452
 40
772.9261905999
100
AcDbArc
 50
89.6208295793
 51
89.7480967935
  0
ARC
  5
3B0
100
AcDbEntity
  8
RACCORDO
100
AcDbCircle
 62
250
  6
CONTINUOUS
 10
-297.9997983649
 20
37.2677270762
 40
341.8653706708
100
AcDbArc
 50
0.038928363
 51
0.1699274168
  0
ARC
  5
3B1
100
AcDbEntity
  8
RACCORDO
100
AcDbCircle
 62
250
  6
CONTINUOUS
 10
-20.8933585861
 20
-189.2161919136
 40
161.3162034793
100
AcDbArc
 50
90.0263240003
 51
90.4660836178
  0
ARC
  5
3B2
100
AcDbEntity
  8
RACCORDO
100
AcDbCircle
 62
250
  6
CONTINUOUS
 10
-39.3834190253
 20
38.2889653295
 40
4.2613818953
100
AcDbArc
 50
116.8290197055
 51
130.3249363107
  0
ARC
  5
3B3
100
AcDbEntity
  8
DRAFT
100
AcDbCircle
 62
7
  6
CONTINUOUS
 10
-40.0
 20
38.5
 40
4.0
100
AcDbArc
 50
90.0
 51
180.0
  0
ARC
  5
3B4
100
AcDbEntity
  8
DRAFT
100
AcDbCircle
 62
7
  6
CONTINUOUS
 10
-40.0
 20
-38.5
 40
4.0
100
AcDbArc
 50
180.0
 51
270.0
  0
ARC
  5
3B5
100
AcDbEntity
  8
RACCORDO
100
AcDbCircle
 62
250
  6
CONTINUOUS
 10
-22.2
 20
22.2
 40
3.9019934976
100
AcDbArc
 50
90.0
 51
180.0
  0
ARC
  5
3B6
100
AcDbEntity
  8
RACCORDO
100
AcDbCircle
 62
250
  6
CONTINUOUS
 10
-39.9985322491
 20
-38.499573778
 40
3.8707142736
100
AcDbArc
 50
180.0063091003
 51
184.096382883
  0
ARC
  5
3B7
100
AcDbEntity
  8
RACCORDO
100
AcDbCircle
 62
250
  6
CONTINUOUS
 10
-39.9999487991
 20
-38.4984999608
 40
3.870435294
100
AcDbArc
 50
265.9107673173
 51
268.6368587963
  0
ARC
  5
3B8
100
AcDbEntity
  8
RACCORDO
100
AcDbCircle
 62
250
  6
CONTINUOUS
 10
-39.9999748407
 20
-38.4996677139
 40
3.8692686571
100
AcDbArc
 50
184.0965214074
 51
265.9099188662
  0
ARC
  5
3B9
100
AcDbEntity
  8
RACCORDO
100
AcDbCircle
 62
250
  6
CONTINUOUS
 10
-39.9999998082
 20
-38.5008163851
 40
3.8681183118
100
AcDbArc
 50
268.636797905
 51
269.9999971591
  0
ARC
  5
3BA
100
AcDbEntity
  8
RACCORDO
100
AcDbCircle
 62
7
  6
CONTINUOUS
 10
-40.0397350086
 20
38.4867740498
 40
3.8244031714
100
AcDbArc
 50
176.0366860101
 51
178.5478562186
  0
ARC
  5
3BB
100
AcDbEntity
  8
RACCORDO
100
AcDbCircle
 62
7
  6
CONTINUOUS
 10
-40.0411892671
 20
38.4867886541
 40
3.8229490099
100
AcDbArc
 50
178.5475226881
 51
179.8019968698
  0
ARC
  5
3BC
100
AcDbEntity
  8
RACCORDO
100
AcDbCircle
 62
7
  6
CONTINUOUS
 10
-40.0
 20
38.5
 40
3.8219583377
100
AcDbArc
 50
90.0
 51
109.9923415942
  0
ARC
  5
3BD
100
AcDbEntity
  8
RACCORDO
100
AcDbCircle
 62
7
  6
CONTINUOUS
 10
-40.0444946138
 20
38.4863095176
 40
3.8197710065
100
AcDbArc
 50
109.2949465206
 51
176.024799997
  0
ARC
  5
3BE
100
AcDbEntity
  8
0
100
AcDbCircle
 62
7
  6
CONTINUOUS
 10
-39.9917394254
 20
38.4108010055
 40
3.7957265632
100
AcDbArc
 50
97.6952118211
 51
113.2731447355
  0
ARC
  5
3BF
100
AcDbEntity
  8
SKEL_COPERCHIO
100
AcDbCircle
 62
7
  6
CONTINUOUS
 10
-39.99
 20
-38.49
 40
3.76
100
AcDbArc
 50
180.0
 51
270.0
  0
ARC
  5
3C0
100
AcDbEntity
  8
0
100
AcDbCircle
 62
7
  6
CONTINUOUS
 10
-39.99
 20
-38.49
 40
3.76
100
AcDbArc
 50
180.0
 51
270.0
  0
ARC
  5
3C1
100
AcDbEntity
  8
0
100
AcDbCircle
 62
7
  6
CONTINUOUS
 10
-40.0220801615
 20
38.4774428862
 40
3.7264510284
100
AcDbArc
 50
174.3074449631
 51
175.2819660902
  0
ARC
  5
3C2
100
AcDbEntity
  8
0
100
AcDbCircle
 62
7
  6
CONTINUOUS
 10
-40.0276574832
 20
38.4780262722
 40
3.7208433453
100
AcDbArc
 50
172.4321181678
 51
174.3078652223
  0
ARC
  5
3C3
100
AcDbEntity
  8
0
100
AcDbCircle
 62
7
  6
CONTINUOUS
 10
-40.030628801
 20
38.4780301884
 40
3.7178830505
100
AcDbArc
 50
175.2801501945
 51
179.0123364321
  0
ARC
  5
3C4
100
AcDbEntity
  8
0
100
AcDbCircle
 62
7
  6
CONTINUOUS
 10
-40.0549098111
 20
38.4786152488
 40
3.6935955669
100
AcDbArc
 50
179.014918261
 51
179.8234001895
  0
ARC
  5
3C5
100
AcDbEntity
  8
SKEL_COPERCHIO
100
AcDbCircle
 62
7
  6
CONTINUOUS
 10
-39.9955188517
 20
38.4934468806
 40
3.6063386758
100
AcDbArc
 50
89.9123189596
 51
180.0547628499
  0
ARC
  5
3C6
100
AcDbEntity
  8
SKEL_COPERCHIO
100
AcDbCircle
 62
7
  6
CONTINUOUS
 10
-40.0018748028
 20
-38.4891185317
 40
3.5914199787
100
AcDbArc
 50
180.0140639348
 51
270.189441544
  0
ARC
  5
3C7
100
AcDbEntity
  8
RACCORDO
100
AcDbCircle
 62
250
  6
CONTINUOUS
 10
-22.2
 20
-22.2
 40
1.7804947929
100
AcDbArc
 50
180.0
 51
270.0
  0
ARC
  5
3C8
100
AcDbEntity
  8
RACCORDO
100
AcDbCircle
 62
250
  6
CONTINUOUS
 10
-22.2
 20
22.2
 40
1.7804947929
100
AcDbArc
 50
90.0
 51
180.0
  0
ARC
  5
3C9
100
AcDbEntity
  8
RACCORDO
100
AcDbCircle
 62
250
  6
CONTINUOUS
 10
-22.2
 20
-22.2
 40
0.7806448049
100
AcDbArc
 50
180.0
 51
270.0
  0
ARC
  5
3CA
100
AcDbEntity
  8
RACCORDO
100
AcDbCircle
 62
250
  6
CONTINUOUS
 10
-22.2
 20
22.2
 40
0.7806448049
100
AcDbArc
 50
90.0
 51
180.0
  0
ARC
  5
3CB
100
AcDbEntity
  8
RACCORDO
100
AcDbCircle
 62
7
  6
CONTINUOUS
 10
-19.2043200355
 20
-42.1916609329
 40
0.2044982349
100
AcDbArc
 50
321.8655279131
 51
329.2535080155
  0
ARC
  5
3CC
100
AcDbEntity
  8
RACCORDO
100
AcDbCircle
 62
250
  6
CONTINUOUS
 10
31.2230158297
 20
-794.9886106731
 40
772.8055341328
100
AcDbArc
 50
90.2518953908
 51
90.3791821522
  0
ARC
  5
3CD
100
AcDbEntity
  8
RACCORDO
100
AcDbCircle
 62
250
  6
CONTINUOUS
 10
303.1895213635
 20
37.222621724
 40
347.0559964047
100
AcDbArc
 50
179.8250508692
 51
179.9542073717
  0
ARC
  5
3CE
100
AcDbEntity
  8
RACCORDO
100
AcDbCircle
 62
250
  6
CONTINUOUS
 10
205.4651707641
 20
29.2588035531
 40
205.4711687145
100
AcDbArc
 50
179.8211764965
 51
180.3790073711
  0
ARC
  5
3CF
100
AcDbEntity
  8
RACCORDO
100
AcDbCircle
 62
250
  6
CONTINUOUS
 10
20.8926963697
 20
-189.3561644652
 40
161.4561767891
100
AcDbArc
 50
89.5340854523
 51
89.9736320421
  0
ARC
  5
3D0
100
AcDbEntity
  8
RACCORDO
100
AcDbCircle
 62
250
  6
CONTINUOUS
 10
39.5019692767
 20
38.3353644103
 40
4.1673359521
100
AcDbArc
 50
47.6127523162
 51
64.3376160355
  0
ARC
  5
3D1
100
AcDbEntity
  8
DRAFT
100
AcDbCircle
 62
7
  6
CONTINUOUS
 10
40.0
 20
-38.5
 40
4.0
100
AcDbArc
 50
270.0
 51
360.0
  0
ARC
  5
3D2
100
AcDbEntity
  8
DRAFT
100
AcDbCircle
 62
7
  6
CONTINUOUS
 10
40.0
 20
38.5
 40
4.0
100
AcDbArc
 50
0.0
 51
90.0
  0
ARC
  5
3D3
100
AcDbEntity
  8
RACCORDO
100
AcDbCircle
 62
250
  6
CONTINUOUS
 10
22.2
 20
22.2
 40
3.9019922454
100
AcDbArc
 50
0.0
 51
90.0
  0
ARC
  5
3D4
100
AcDbEntity
  8
RACCORDO
100
AcDbCircle
 62
250
  6
CONTINUOUS
 10
39.9986054082
 20
-38.499644959
 40
3.8705783913
100
AcDbArc
 50
355.904604124
 51
358.6317215656
  0
ARC
  5
3D5
100
AcDbEntity
  8
RACCORDO
100
AcDbCircle
 62
250
  6
CONTINUOUS
 10
39.9999557597
 20
-38.4985325779
 40
3.8704021192
100
AcDbArc
 50
270.000654915
 51
274.0892482604
  0
ARC
  5
3D6
100
AcDbEntity
  8
RACCORDO
100
AcDbCircle
 62
250
  6
CONTINUOUS
 10
39.9999801339
 20
-38.4997352972
 40
3.8692007242
100
AcDbArc
 50
274.0901582829
 51
355.9044845973
  0
ARC
  5
3D7
100
AcDbEntity
  8
RACCORDO
100
AcDbCircle
 62
250
  6
CONTINUOUS
 10
40.0008856043
 20
-38.4996951521
 40
3.8682976467
100
AcDbArc
 50
358.6316583306
 51
359.9954847071
  0
ARC
  5
3D8
100
AcDbEntity
  8
RACCORDO
100
AcDbCircle
 62
7
  6
CONTINUOUS
 10
40.0401834818
 20
38.486971018
 40
3.8231857379
100
AcDbArc
 50
0.1952578756
 51
3.9539240387
  0
ARC
  5
3D9
100
AcDbEntity
  8
RACCORDO
100
AcDbCircle
 62
7
  6
CONTINUOUS
 10
40.0
 20
38.5
 40
3.8219583377
100
AcDbArc
 50
70.0076584058
 51
90.0
  0
ARC
  5
3DA
100
AcDbEntity
  8
0
100
AcDbCircle
 62
7
  6
CONTINUOUS
 10
39.9948125016
 20
38.4218775226
 40
3.7843386241
100
AcDbArc
 50
67.7444033306
 51
82.3284405331
  0
ARC
  5
3DB
100
AcDbEntity
  8
SKEL_COPERCHIO
100
AcDbCircle
 62
7
  6
CONTINUOUS
 10
39.99
 20
-38.49
 40
3.76
100
AcDbArc
 50
270.0
 51
360.0
  0
ARC
  5
3DC
100
AcDbEntity
  8
0
100
AcDbCircle
 62
7
  6
CONTINUOUS
 10
39.99
 20
-38.49
 40
3.76
100
AcDbArc
 50
270.0
 51
360.0
  0
ARC
  5
3DD
100
AcDbEntity
  8
0
100
AcDbCircle
 62
7
  6
CONTINUOUS
 10
40.0160069835
 20
38.476585077
 40
3.7325509373
100
AcDbArc
 50
4.0514331901
 51
6.9661194968
  0
ARC
  5
3DE
100
AcDbEntity
  8
0
100
AcDbCircle
 62
7
  6
CONTINUOUS
 10
40.0176942613
 20
38.4767994459
 40
3.7308501157
100
AcDbArc
 50
6.9659943451
 51
7.4319591899
  0
ARC
  5
3DF
100
AcDbEntity
  8
0
100
AcDbCircle
 62
7
  6
CONTINUOUS
 10
40.0302704663
 20
38.4775835897
 40
3.7182525516
100
AcDbArc
 50
2.1701268256
 51
4.0516138673
  0
ARC
  5
3E0
100
AcDbEntity
  8
0
100
AcDbCircle
 62
7
  6
CONTINUOUS
 10
40.0562183045
 20
38.4785341015
 40
3.6922873307
100
AcDbArc
 50
0.1779246023
 51
2.1706347451
  0
ARC
  5
3E1
100
AcDbEntity
  8
SKEL_COPERCHIO
100
AcDbCircle
 62
7
  6
CONTINUOUS
 10
39.9955216131
 20
38.4934484093
 40
3.6063364066
100
AcDbArc
 50
359.9452160669
 51
90.0877249491
  0
ARC
  5
3E2
100
AcDbEntity
  8
SKEL_COPERCHIO
100
AcDbCircle
 62
7
  6
CONTINUOUS
 10
40.0018734956
 20
-38.4891178778
 40
3.5914207376
100
AcDbArc
 50
269.8105793433
 51
359.9859287629
  0
ARC
  5
3E3
100
AcDbEntity
  8
RACCORDO
100
AcDbCircle
 62
250
  6
CONTINUOUS
 10
22.2
 20
22.2
 40
1.7804947929
100
AcDbArc
 50
0.0
 51
90.0
  0
ARC
  5
3E4
100
AcDbEntity
  8
RACCORDO
100
AcDbCircle
 62
250
  6
CONTINUOUS
 10
22.2
 20
-22.2
 40
1.7804947929
100
AcDbArc
 50
270.0
 51
360.0
  0
ARC
  5
3E5
100
AcDbEntity
  8
0
100
AcDbCircle
 62
7
  6
CONTINUOUS
 10
24.599711
 20
-29.989243
 40
0.8893898871
100
AcDbArc
 50
292.842868527
 51
90.0
  0
ARC
  5
3E6
100
AcDbEntity
  8
RACCORDO
100
AcDbCircle
 62
250
  6
CONTINUOUS
 10
22.2
 20
22.2
 40
0.7806448049
100
AcDbArc
 50
0.0
 51
90.0
  0
ARC
  5
3E7
100
AcDbEntity
  8
RACCORDO
100
AcDbCircle
 62
250
  6
CONTINUOUS
 10
22.2
 20
-22.2
 40
0.7806448049
100
AcDbArc
 50
270.0
 51
360.0
  0
ARC
  5
3E8
100
AcDbEntity
  8
0
100
AcDbCircle
 62
7
  6
CONTINUOUS
 10
24.519205
 20
-29.989243
 40
0.352865
100
AcDbArc
 50
270.0
 51
90.0
  0
ARC
  5
3E9
100
AcDbEntity
  8
RACCORDO
100
AcDbCircle
 62
7
  6
CONTINUOUS
 10
19.2043200352
 20
-42.1916609331
 40
0.2044982345
100
AcDbArc
 50
210.7464919857
 51
218.1344721008
  0
ARC
  5
3EA
100
AcDbEntity
  8
RACCORDO
100
AcDbCircle
 62
250
  6
CONTINUOUS
 10
-768.1667956898
 20
23.4093121782
 40
672.7866035037
100
AcDbArc
 50
359.8965287918
 51
0.0715783628
  0
ARC
  5
3EB
100
AcDbEntity
  8
0
100
AcDbCircle
 62
7
  6
CONTINUOUS
 10
-283.8419039192
 20
-32.3124228362
 40
188.481440388
100
AcDbArc
 50
0.605828276
 51
0.8339086904
  0
ARC
  5
3EC
100
AcDbEntity
  8
RACCORDO
100
AcDbCircle
 62
250
  6
CONTINUOUS
 10
-282.6565192774
 20
-22.7308533578
 40
187.2949165122
100
AcDbArc
 50
359.6029110967
 51
0.1583026297
  0
ARC
  5
3ED
100
AcDbEntity
  8
RACCORDO
100
AcDbCircle
 62
7
  6
CONTINUOUS
 10
-248.9556834267
 20
-26.482313854
 40
153.5716350979
100
AcDbArc
 50
359.6024304716
 51
359.7373762649
  0
ARC
  5
3EE
100
AcDbEntity
  8
0
100
AcDbCircle
 62
7
  6
CONTINUOUS
 10
-234.2262777181
 20
-31.8402079939
 40
138.6635582805
100
AcDbArc
 50
0.4261483599
 51
0.5922734035
  0
ARC
  5
3EF
100
AcDbEntity
  8
0
100
AcDbCircle
 62
7
  6
CONTINUOUS
 10
-203.180605463
 20
-31.5532615878
 40
107.8166647511
100
AcDbArc
 50
0.395580999
 51
0.6556506435
  0
ARC
  5
3F0
100
AcDbEntity
  8
0
100
AcDbCircle
 62
7
  6
CONTINUOUS
 10
-1.5755252795
 20
-28.6145614102
 40
94.0166401318
100
AcDbArc
 50
181.4966342581
 51
182.0635924074
  0
ARC
  5
3F1
100
AcDbEntity
  8
0
100
AcDbCircle
 62
7
  6
CONTINUOUS
 10
-1.5867434127
 20
-28.6160850891
 40
93.8053998867
100
AcDbArc
 50
181.3394684861
 51
182.067310165
  0
ARC
  5
3F2
100
AcDbEntity
  8
RACCORDO
100
AcDbCircle
 62
250
  6
CONTINUOUS
 10
-96.3514994501
 20
-64.5245259806
 40
86.7252995877
100
AcDbArc
 50
89.4440758799
 51
89.7579943801
  0
ARC
  5
3F3
100
AcDbEntity
  8
RACCORDO
100
AcDbCircle
 62
7
  6
CONTINUOUS
 10
-98.4085598426
 20
-27.9084352274
 40
3.0227038848
100
AcDbArc
 50
16.3730821428
 51
35.9843361794
  0
ARC
  5
3F4
100
AcDbEntity
  8
RACCORDO
100
AcDbCircle
 62
7
  6
CONTINUOUS
 10
-98.4032988519
 20
-27.9054847391
 40
3.0168235706
100
AcDbArc
 50
16.3474133733
 51
32.6878301031
  0
ARC
  5
3F5
100
AcDbEntity
  8
RACCORDO
100
AcDbCircle
 62
7
  6
CONTINUOUS
 10
-98.4003136784
 20
-27.8996228848
 40
3.0124366537
100
AcDbArc
 50
3.9827659791
 51
8.073944047
  0
ARC
  5
3F6
100
AcDbEntity
  8
RACCORDO
100
AcDbCircle
 62
7
  6
CONTINUOUS
 10
-98.3910207558
 20
-27.8982073758
 40
3.0030370378
100
AcDbArc
 50
8.0721071371
 51
12.1761147758
  0
ARC
  5
3F7
100
AcDbEntity
  8
RACCORDO
100
AcDbCircle
 62
7
  6
CONTINUOUS
 10
-98.3866223423
 20
-27.8999772707
 40
3.0000000003
100
AcDbArc
 50
36.0999634564
 51
36.8694579073
  0
ARC
  5
3F8
100
AcDbEntity
  8
RACCORDO
100
AcDbCircle
 62
7
  6
CONTINUOUS
 10
-98.3860402231
 20
-27.8986472108
 40
2.9981299022
100
AcDbArc
 50
0.957190849
 51
3.9831112143
  0
ARC
  5
3F9
100
AcDbEntity
  8
RACCORDO
100
AcDbCircle
 62
7
  6
CONTINUOUS
 10
-98.3852106763
 20
-27.8974441047
 40
2.9972046761
100
AcDbArc
 50
15.2349843883
 51
16.2972431325
  0
ARC
  5
3FA
100
AcDbEntity
  8
RACCORDO
100
AcDbCircle
 62
7
  6
CONTINUOUS
 10
-98.3829088647
 20
-27.896727428
 40
2.9947954977
100
AcDbArc
 50
12.181170991
 51
16.2965122394
  0
ARC
  5
3FB
100
AcDbEntity
  8
RACCORDO
100
AcDbCircle
 62
7
  6
CONTINUOUS
 10
-96.286605295
 20
-22.9806471005
 40
1.0
100
AcDbArc
 50
180.0
 51
268.9999999971
  0
ARC
  5
3FC
100
AcDbEntity
  8
RACCORDO
100
AcDbCircle
 62
7
  6
CONTINUOUS
 10
-95.186605295
 20
-25.5
 40
1.0
100
AcDbArc
 50
180.0
 51
216.8391602508
  0
ARC
  5
3FD
100
AcDbEntity
  8
0
100
AcDbCircle
 62
7
  6
CONTINUOUS
 10
-95.186605295
 20
-25.5
 40
1.0
100
AcDbArc
 50
180.0
 51
216.8391602508
  0
ARC
  5
3FE
100
AcDbEntity
  8
RACCORDO
100
AcDbCircle
 62
7
  6
CONTINUOUS
 10
-69.4949769592
 20
-23.7414133366
 40
1.0
100
AcDbArc
 50
0.0
 51
89.5
  0
ARC
  5
3FF
100
AcDbEntity
  8
SUPERFICI
100
AcDbCircle
 62
7
  6
CONTINUOUS
 10
-74.0807941796
 20
-39.0145882543
 40
0.5858172204
100
AcDbArc
 50
285.0000001439
 51
360.0
  0
ARC
  5
400
100
AcDbEntity
  8
RACCORDO
100
AcDbCircle
 62
7
  6
CONTINUOUS
 10
-82.9949591284
 20
-41.8689933267
 40
0.5000038358
100
AcDbArc
 50
180.0020062416
 51
268.9979937584
  0
ARC
  5
401
100
AcDbEntity
  8
RACCORDO
100
AcDbCircle
 62
7
  6
CONTINUOUS
 10
-91.7220094511
 20
-41.6243235325
 40
0.5
100
AcDbArc
 50
255.1062267792
 51
269.9979945704
  0
ARC
  5
402
100
AcDbEntity
  8
RACCORDO
100
AcDbCircle
 62
7
  6
CONTINUOUS
 10
-98.3958085548
 20
27.9174488399
 40
3.0178410907
100
AcDbArc
 50
323.0227328764
 51
340.6582622134
  0
ARC
  5
403
100
AcDbEntity
  8
RACCORDO
100
AcDbCircle
 62
7
  6
CONTINUOUS
 10
-98.3858192594
 20
27.9096351689
 40
3.0059077153
100
AcDbArc
 50
351.2050720349
 51
359.2551865513
  0
ARC
  5
404
100
AcDbEntity
  8
RACCORDO
100
AcDbCircle
 62
7
  6
CONTINUOUS
 10
-98.3829578959
 20
27.9089358701
 40
3.002973085
100
AcDbArc
 50
347.1809094131
 51
351.2099102348
  0
ARC
  5
405
100
AcDbEntity
  8
RACCORDO
100
AcDbCircle
 62
7
  6
CONTINUOUS
 10
-98.3865188186
 20
27.9001152975
 40
3.0
100
AcDbArc
 50
323.128033459
 51
359.9908436824
  0
ARC
  5
406
100
AcDbEntity
  8
RACCORDO
100
AcDbCircle
 62
7
  6
CONTINUOUS
 10
-98.3790779303
 20
27.9085953105
 40
2.9991237576
100
AcDbArc
 50
340.7119950417
 51
343.1365936286
  0
ARC
  5
407
100
AcDbEntity
  8
RACCORDO
100
AcDbCircle
 62
7
  6
CONTINUOUS
 10
-98.3751528588
 20
27.9074162342
 40
2.9950254284
100
AcDbArc
 50
343.1363974821
 51
347.1761274007
  0
ARC
  5
408
100
AcDbEntity
  8
RACCORDO
100
AcDbCircle
 62
7
  6
CONTINUOUS
 10
-96.286605295
 20
22.9806471005
 40
1.0
100
AcDbArc
 50
91.0
 51
180.0
  0
ARC
  5
409
100
AcDbEntity
  8
RACCORDO
100
AcDbCircle
 62
7
  6
CONTINUOUS
 10
-95.186605295
 20
25.5
 40
1.0
100
AcDbArc
 50
142.9707148414
 51
180.0
  0
ARC
  5
40A
100
AcDbEntity
  8
0
100
AcDbCircle
 62
7
  6
CONTINUOUS
 10
-95.186605295
 20
25.5
 40
1.0
100
AcDbArc
 50
142.9707148414
 51
180.0
  0
ARC
  5
40B
100
AcDbEntity
  8
RACCORDO
100
AcDbCircle
 62
250
  6
CONTINUOUS
 10
-89.2920041636
 20
37.2585557088
 40
6.0959325962
100
AcDbArc
 50
2.2699329683
 51
11.7505558748
  0
ARC
  5
40C
100
AcDbEntity
  8
RACCORDO
100
AcDbCircle
 62
7
  6
CONTINUOUS
 10
-89.386605295
 20
37.5
 40
5.8916283358
100
AcDbArc
 50
49.8694639884
 51
51.2011035197
  0
ARC
  5
40D
100
AcDbEntity
  8
RACCORDO
100
AcDbCircle
 62
7
  6
CONTINUOUS
 10
-89.386605295
 20
37.5
 40
5.8916283358
100
AcDbArc
 50
0.0
 51
14.6531582864
  0
ARC
  5
40E
100
AcDbEntity
  8
ASSI
100
AcDbCircle
 62
7
  6
CONTINUOUS
 10
-89.386605295
 20
37.5
 40
5.8916283358
100
AcDbArc
 50
0.0
 51
14.6471236868
  0
ARC
  5
40F
100
AcDbEntity
  8
ASSI
100
AcDbCircle
 62
7
  6
CONTINUOUS
 10
-89.386605295
 20
37.5
 40
5.7
100
AcDbArc
 50
0.0
 51
10.0020975147
  0
ARC
  5
410
100
AcDbEntity
  8
0
100
AcDbCircle
 62
7
  6
CONTINUOUS
 10
-89.386605295
 20
37.5
 40
5.7
100
AcDbArc
 50
10.002096405
 51
55.0557346587
  0
ARC
  5
411
100
AcDbEntity
  8
RACCORDO
100
AcDbCircle
 62
250
  6
CONTINUOUS
 10
-87.6655702301
 20
38.6411997423
 40
3.9739768213
100
AcDbArc
 50
55.1963859908
 51
58.3726050162
  0
ARC
  5
412
100
AcDbEntity
  8
RACCORDO
100
AcDbCircle
 62
250
  6
CONTINUOUS
 10
-87.3037243232
 20
39.2289978125
 40
3.2837312056
100
AcDbArc
 50
58.3702664388
 51
60.3505855045
  0
ARC
  5
413
100
AcDbEntity
  8
SKEL_COPERCHIO
100
AcDbCircle
 62
7
  6
CONTINUOUS
 10
-56.6753055804
 20
27.8932017302
 40
38.7112119291
100
AcDbArc
 50
179.7350357867
 51
179.9904736317
  0
ARC
  5
414
100
AcDbEntity
  8
RACCORDO
100
AcDbCircle
 62
7
  6
CONTINUOUS
 10
-56.7006606814
 20
27.8934408731
 40
38.6858588871
100
AcDbArc
 50
179.7352178085
 51
179.9908235328
  0
ARC
  5
415
100
AcDbEntity
  8
SKEL_COPERCHIO
100
AcDbCircle
 62
7
  6
CONTINUOUS
 10
-56.7679534394
 20
27.8933754028
 40
38.6193627278
100
AcDbArc
 50
161.7196272833
 51
162.031627766
  0
ARC
  5
416
100
AcDbEntity
  8
SKEL_COPERCHIO
100
AcDbCircle
 62
7
  6
CONTINUOUS
 10
-56.7723473189
 20
27.8968634107
 40
38.6141544286
100
AcDbArc
 50
163.5218702959
 51
179.7398030567
  0
ARC
  5
417
100
AcDbEntity
  8
RACCORDO
100
AcDbCircle
 62
7
  6
CONTINUOUS
 10
-56.7725553019
 20
27.8968717151
 40
38.6139493036
100
AcDbArc
 50
163.5216954403
 51
179.7398154816
  0
ARC
  5
418
100
AcDbEntity
  8
RACCORDO
100
AcDbCircle
 62
7
  6
CONTINUOUS
 10
-56.7764191136
 20
27.8963932084
 40
38.6103799724
100
AcDbArc
 50
162.2315344772
 51
163.4993562917
  0
ARC
  5
419
100
AcDbEntity
  8
SKEL_COPERCHIO
100
AcDbCircle
 62
7
  6
CONTINUOUS
 10
-56.7803358218
 20
27.8973658266
 40
38.6063532583
100
AcDbArc
 50
162.0315920486
 51
162.8973901426
  0
ARC
  5
41A
100
AcDbEntity
  8
SKEL_COPERCHIO
100
AcDbCircle
 62
7
  6
CONTINUOUS
 10
-56.8050561056
 20
27.9049871201
 40
38.5804848154
100
AcDbArc
 50
162.8974115882
 51
163.4839096011
  0
ARC
  5
41B
100
AcDbEntity
  8
RACCORDO
100
AcDbCircle
 62
7
  6
CONTINUOUS
 10
-69.4949769592
 20
23.7414133366
 40
1.0
100
AcDbArc
 50
270.5
 51
360.0
  0
ARC
  5
41C
100
AcDbEntity
  8
SUPERFICI
100
AcDbCircle
 62
7
  6
CONTINUOUS
 10
-74.0807941796
 20
39.0145882543
 40
0.5858172204
100
AcDbArc
 50
0.0
 51
74.999999876
  0
SPLINE
  5
41D
100
AcDbEntity
  8
RACCORDO
100
AcDbSpline
 62
7
  6
CONTINUOUS
 70
0
 71
3
 72
11
 73
7
 74
0
 42
0.0000001
 43
0.0000001
 44
0.0000000001
 40
0.0
 40
0.0
 40
0.0
 40
0.0
 40
0.238951936
 40
0.4790241223
 40
0.7314505616
 40
1.0
 40
1.0
 40
1.0
 40
1.0
 10
41.3067066756
 20
42.0916407392
 30
0.0
 10
41.6397295864
 20
41.9743673068
 30
0.0
 10
42.2783484684
 20
41.6451906438
 30
0.0
 10
43.0755123177
 20
40.8953391467
 30
0.0
 10
43.6517770519
 20
39.9115094167
 30
0.0
 10
43.8269044757
 20
39.14645198
 30
0.0
 10
43.8542693657
 20
38.7505958581
 30
0.0
  0
SPLINE
  5
41E
100
AcDbEntity
  8
RACCORDO
100
AcDbSpline
 62
250
  6
CONTINUOUS
 70
0
 71
3
 72
9
 73
5
 74
0
 42
0.0000001
 43
0.0000001
 44
0.0000000001
 40
0.0
 40
0.0
 40
0.0
 40
0.0
 40
0.4999827389
 40
1.0
 40
1.0
 40
1.0
 40
1.0
 10
-19.2000000281
 20
-42.3689349983
 30
0.0
 10
-19.1621348281
 20
-42.3689350037
 30
0.0
 10
-19.0847545492
 20
-42.3464660414
 30
0.0
 10
-19.0326490574
 20
-42.2849079874
 30
0.0
 10
-19.0173404655
 20
-42.2502724798
 30
0.0
  0
SPLINE
  5
41F
100
AcDbEntity
  8
RACCORDO
100
AcDbSpline
 62
7
  6
CONTINUOUS
 70
0
 71
3
 72
9
 73
5
 74
0
 42
0.0000001
 43
0.0000001
 44
0.0000000001
 40
0.0
 40
0.0
 40
0.0
 40
0.0
 40
0.5246447283
 40
1.0
 40
1.0
 40
1.0
 40
1.0
 10
19.0434691597
 20
-42.3179404793
 30
0.0
 10
19.0628423445
 20
-42.3426158533
 30
0.0
 10
19.1113704742
 20
-42.3816924767
 30
0.0
 10
19.1715797881
 20
-42.395682245
 30
0.0
 10
19.2
 20
-42.396178245
 30
0.0
  0
SPLINE
  5
420
100
AcDbEntity
  8
RACCORDO
100
AcDbSpline
 62
7
  6
CONTINUOUS
 70
0
 71
3
 72
9
 73
5
 74
0
 42
0.0000001
 43
0.0000001
 44
0.0000000001
 40
0.0
 40
0.0
 40
0.0
 40
0.0
 40
0.5246447281
 40
1.0
 40
1.0
 40
1.0
 40
1.0
 10
-19.0434691597
 20
-42.3179404793
 30
0.0
 10
-19.0628423445
 20
-42.3426158533
 30
0.0
 10
-19.1113704743
 20
-42.3816924764
 30
0.0
 10
-19.1715797881
 20
-42.3956822455
 30
0.0
 10
-19.2
 20
-42.396178245
 30
0.0
  0
SPLINE
  5
421
100
AcDbEntity
  8
RACCORDO
100
AcDbSpline
 62
250
  6
CONTINUOUS
 70
0
 71
3
 72
9
 73
5
 74
0
 42
0.0000001
 43
0.0000001
 44
0.0000000001
 40
0.0
 40
0.0
 40
0.0
 40
0.0
 40
0.4999825162
 40
1.0
 40
1.0
 40
1.0
 40
1.0
 10
19.200000019
 20
-42.3689349006
 30
0.0
 10
19.1621348476
 20
-42.3689349042
 30
0.0
 10
19.0847545839
 20
-42.3464659807
 30
0.0
 10
19.0326491184
 20
-42.2849079326
 30
0.0
 10
19.017340513
 20
-42.2502724253
 30
0.0
  0
SPLINE
  5
422
100
AcDbEntity
  8
RACCORDO
100
AcDbSpline
 62
250
  6
CONTINUOUS
 70
0
 71
3
 72
11
 73
7
 74
0
 42
0.0000001
 43
0.0000001
 44
0.0000000001
 40
0.0
 40
0.0
 40
0.0
 40
0.0
 40
0.0747100781
 40
0.270218442
 40
0.5817652964
 40
1.0
 40
1.0
 40
1.0
 40
1.0
 10
-43.8692464992
 20
-38.5
 30
0.0
 10
-43.86642433
 20
-38.4990860769
 30
0.0
 10
-43.8553957318
 20
-38.500176977
 30
0.0
 10
-43.8325654046
 20
-38.4986637217
 30
0.0
 10
-43.7956795228
 20
-38.4991239614
 30
0.0
 10
-43.7667490399
 20
-38.4988447885
 30
0.0
 10
-43.7501424964
 20
-38.4988232807
 30
0.0
  0
SPLINE
  5
423
100
AcDbEntity
  8
RACCORDO
100
AcDbSpline
 62
250
  6
CONTINUOUS
 70
0
 71
3
 72
9
 73
5
 74
0
 42
0.0000001
 43
0.0000001
 44
0.0000000001
 40
0.0
 40
0.0
 40
0.0
 40
0.0
 40
0.2500219634
 40
1.0
 40
1.0
 40
1.0
 40
1.0
 10
-43.8692464992
 20
-38.5
 30
0.0
 10
-43.8698714416
 20
-32.1661102359
 30
0.0
 10
-43.8754952908
 20
-6.8327783614
 30
0.0
 10
-43.8816593216
 20
18.5005623944
 30
0.0
 10
-43.8663641965
 20
37.5
 30
0.0
  0
SPLINE
  5
424
100
AcDbEntity
  8
RACCORDO
100
AcDbSpline
 62
250
  6
CONTINUOUS
 70
0
 71
3
 72
11
 73
7
 74
0
 42
0.0000001
 43
0.0000001
 44
0.0000000001
 40
0.0
 40
0.0
 40
0.0
 40
0.0
 40
0.0780405672
 40
0.2754635133
 40
0.5872730123
 40
1.0
 40
1.0
 40
1.0
 40
1.0
 10
-43.8663641936
 20
37.5000000622
 30
0.0
 10
-43.8652914449
 20
37.4971647439
 30
0.0
 10
-43.8513341915
 20
37.4972189172
 30
0.0
 10
-43.8315082134
 20
37.4938297093
 30
0.0
 10
-43.7941215502
 20
37.4937469192
 30
0.0
 10
-43.7664702933
 20
37.4933566885
 30
0.0
 10
-43.7504381117
 20
37.4934193568
 30
0.0
  0
LINE
  5
425
100
AcDbEntity
  8
RACCORDO
100
AcDbLine
 62
250
  6
CONTINUOUS
 10
-43.8648571567
 20
38.2823341682
 11
-43.8641154491
 21
38.5
  0
SPLINE
  5
426
100
AcDbEntity
  8
RACCORDO
100
AcDbSpline
 62
250
  6
CONTINUOUS
 70
0
 71
3
 72
9
 73
5
 74
0
 42
0.0000001
 43
0.0000001
 44
0.0000000001
 40
0.0
 40
0.0
 40
0.0
 40
0.0
 40
0.3217337015
 40
1.0
 40
1.0
 40
1.0
 40
1.0
 10
-43.8641154234
 20
38.5
 30
0.0
 10
-43.8630157694
 20
38.4864862494
 30
0.0
 10
-43.8137677615
 20
38.4647743534
 30
0.0
 10
-43.7771491445
 20
38.4597626415
 30
0.0
 10
-43.7487687881
 20
38.4563623995
 30
0.0
  0
SPLINE
  5
427
100
AcDbEntity
  8
RACCORDO
100
AcDbSpline
 62
250
  6
CONTINUOUS
 70
0
 71
3
 72
11
 73
7
 74
0
 42
0.0000001
 43
0.0000001
 44
0.0000000001
 40
0.0
 40
0.0
 40
0.0
 40
0.0
 40
0.0746832156
 40
0.2702176951
 40
0.5818006633
 40
1.0
 40
1.0
 40
1.0
 40
1.0
 10
43.869182819
 20
-38.5
 30
0.0
 10
43.8663422719
 20
-38.4991564335
 30
0.0
 10
43.8553663078
 20
-38.5001729777
 30
0.0
 10
43.8325118854
 20
-38.4987736071
 30
0.0
 10
43.7956743459
 20
-38.4992054118
 30
0.0
 10
43.7667587634
 20
-38.4989485034
 30
0.0
 10
43.7501661414
 20
-38.4989294418
 30
0.0
  0
SPLINE
  5
428
100
AcDbEntity
  8
RACCORDO
100
AcDbSpline
 62
250
  6
CONTINUOUS
 70
0
 71
3
 72
11
 73
7
 74
0
 42
0.0000001
 43
0.0000001
 44
0.0000000001
 40
0.0
 40
0.0
 40
0.0
 40
0.0
 40
0.076783705
 40
0.2755093038
 40
0.5884938062
 40
1.0
 40
1.0
 40
1.0
 40
1.0
 10
43.8654933995
 20
37.5
 30
0.0
 10
43.8643066671
 20
37.4972862976
 30
0.0
 10
43.850404387
 20
37.4983422097
 30
0.0
 10
43.830670119
 20
37.494859619
 30
0.0
 10
43.7934793255
 20
37.4954143814
 30
0.0
 10
43.7660236831
 20
37.4950959544
 30
0.0
 10
43.750150848
 20
37.4952272512
 30
0.0
  0
SPLINE
  5
429
100
AcDbEntity
  8
RACCORDO
100
AcDbSpline
 62
250
  6
CONTINUOUS
 70
0
 71
3
 72
9
 73
5
 74
0
 42
0.0000001
 43
0.0000001
 44
0.0000000001
 40
0.0
 40
0.0
 40
0.0
 40
0.0
 40
0.2499412946
 40
1.0
 40
1.0
 40
1.0
 40
1.0
 10
43.8654933995
 20
37.5
 30
0.0
 10
43.869903527
 20
31.1681552398
 30
0.0
 10
43.8801416185
 20
5.8348219098
 30
0.0
 10
43.8706758158
 20
-19.4985123552
 30
0.0
 10
43.869183239
 20
-38.5
 30
0.0
  0
SPLINE
  5
42A
100
AcDbEntity
  8
RACCORDO
100
AcDbSpline
 62
250
  6
CONTINUOUS
 70
0
 71
3
 72
10
 73
6
 74
0
 42
0.0000001
 43
0.0000001
 44
0.0000000001
 40
0.0
 40
0.0
 40
0.0
 40
0.0
 40
0.119504682
 40
0.3231512576
 40
1.0
 40
1.0
 40
1.0
 40
1.0
 10
43.8633470207
 20
38.4999999623
 30
0.0
 10
43.8629327019
 20
38.4950474799
 30
0.0
 10
43.8523016702
 20
38.4840232382
 30
0.0
 10
43.8138799633
 20
38.4696410798
 30
0.0
 10
43.7768738577
 20
38.4642000748
 30
0.0
 10
43.748860494
 20
38.461452554
 30
0.0
  0
LINE
  5
42B
100
AcDbEntity
  8
RACCORDO
100
AcDbLine
 62
250
  6
CONTINUOUS
 10
43.863347019
 20
38.5
 11
43.8637251832
 21
38.3911045798
  0
LINE
  5
42C
100
AcDbEntity
  8
RACCORDO
100
AcDbLine
 62
250
  6
CONTINUOUS
 10
43.8637251832
 20
38.3911045798
 11
43.8640687955
 21
38.2816274831
  0
SPLINE
  5
42D
100
AcDbEntity
  8
SKEL_COPERCHIO
100
AcDbSpline
 62
7
  6
CONTINUOUS
 70
0
 71
3
 72
9
 73
5
 74
0
 42
0.0000001
 43
0.0000001
 44
0.0000000001
 40
0.0
 40
0.0
 40
0.0
 40
0.0
 40
0.2509218781
 40
1.0
 40
1.0
 40
1.0
 40
1.0
 10
22.7319621568
 20
-42.0595026066
 30
0.0
 10
24.1754365906
 20
-42.0595122209
 30
0.0
 10
29.9281201419
 20
-42.0602026586
 30
0.0
 10
35.6808113744
 20
-42.0669505623
 30
0.0
 10
39.99
 20
-42.080588424
 30
0.0
  0
SPLINE
  5
42E
100
AcDbEntity
  8
SKEL_COPERCHIO
100
AcDbSpline
 62
250
  6
CONTINUOUS
 70
0
 71
3
 72
9
 73
5
 74
0
 42
0.0000001
 43
0.0000001
 44
0.0000000001
 40
0.0
 40
0.0
 40
0.0
 40
0.0
 40
0.5007076003
 40
1.0
 40
1.0
 40
1.0
 40
1.0
 10
20.9948921566
 20
-32.0000185099
 30
0.0
 10
21.0031954392
 20
-33.6789533261
 30
0.0
 10
21.0005207265
 20
-37.0321415527
 30
0.0
 10
21.002646586
 20
-40.3853016166
 30
0.0
 10
21.0000000001
 20
-42.0595094714
 30
0.0
  0
SPLINE
  5
42F
100
AcDbEntity
  8
SKEL_COPERCHIO
100
AcDbSpline
 62
7
  6
CONTINUOUS
 70
0
 71
3
 72
10
 73
6
 74
0
 42
0.0000001
 43
0.0000001
 44
0.0000000001
 40
0.0
 40
0.0
 40
0.0
 40
0.0
 40
0.2498883524
 40
0.4999297462
 40
1.0
 40
1.0
 40
1.0
 40
1.0
 10
-43.6018259212
 20
38.49
 30
0.0
 10
-43.5973181283
 20
35.2839354696
 30
0.0
 10
-43.5968085962
 20
28.8698338529
 30
0.0
 10
-43.5955444434
 20
16.0398347186
 30
0.0
 10
-43.5925337947
 20
6.4159016319
 30
0.0
 10
-43.5924257154
 20
-0.0
 30
0.0
  0
SPLINE
  5
430
100
AcDbEntity
  8
SKEL_COPERCHIO
100
AcDbSpline
 62
250
  6
CONTINUOUS
 70
0
 71
3
 72
11
 73
7
 74
0
 42
0.0000001
 43
0.0000001
 44
0.0000000001
 40
0.0
 40
0.0
 40
0.0
 40
0.0
 40
0.250473193
 40
0.5007698951
 40
0.7506828429
 40
1.0
 40
1.0
 40
1.0
 40
1.0
 10
-20.9642836458
 20
-27.4001916463
 30
0.0
 10
-20.9711978206
 20
-28.6241031481
 30
0.0
 10
-20.9933181824
 20
-31.0710117146
 30
0.0
 10
-21.0040087253
 20
-34.7392092121
 30
0.0
 10
-21.0009493235
 20
-38.4017514973
 30
0.0
 10
-21.0019258567
 20
-40.8412289025
 30
0.0
 10
-21.0000000001
 20
-42.0595094714
 30
0.0
  0
SPLINE
  5
431
100
AcDbEntity
  8
SKEL_COPERCHIO
100
AcDbSpline
 62
7
  6
CONTINUOUS
 70
0
 71
3
 72
9
 73
5
 74
0
 42
0.0000001
 43
0.0000001
 44
0.0000000001
 40
0.0
 40
0.0
 40
0.0
 40
0.0
 40
0.2483836111
 40
1.0
 40
1.0
 40
1.0
 40
1.0
 10
-39.99
 20
-42.080588424
 30
0.0
 10
-38.5592875629
 20
-42.0760604583
 30
0.0
 10
-32.7991814367
 20
-42.0623288674
 30
0.0
 10
-27.0390562637
 20
-42.0595279973
 30
0.0
 10
-22.7096550753
 20
-42.059502477
 30
0.0
  0
SPLINE
  5
432
100
AcDbEntity
  8
SKEL_COPERCHIO
100
AcDbSpline
 62
7
  6
CONTINUOUS
 70
0
 71
3
 72
9
 73
5
 74
0
 42
0.0000001
 43
0.0000001
 44
0.0000000001
 40
0.0
 40
0.0
 40
0.0
 40
0.0
 40
0.5000006075
 40
1.0
 40
1.0
 40
1.0
 40
1.0
 10
-43.5924257154
 20
-0.0
 30
0.0
 10
-43.5924391756
 20
-6.4150078072
 30
0.0
 10
-43.5940223927
 20
-19.2450077436
 30
0.0
 10
-43.5918356527
 20
-32.0750079969
 30
0.0
 10
-43.593212958
 20
-38.4900000687
 30
0.0
  0
SPLINE
  5
433
100
AcDbEntity
  8
0
100
AcDbSpline
 62
7
  6
CONTINUOUS
 70
0
 71
3
 72
11
 73
7
 74
0
 42
0.0000001
 43
0.0000001
 44
0.0000000001
 40
0.0
 40
0.0
 40
0.0
 40
0.0
 40
0.2629725786
 40
0.5123477386
 40
0.7541969814
 40
1.0
 40
1.0
 40
1.0
 40
1.0
 10
43.7172021275
 20
38.9593801471
 30
0.0
 10
43.6728308177
 20
39.2995335681
 30
0.0
 10
43.4927102373
 20
39.9538372432
 30
0.0
 10
42.981152909
 20
40.8069801399
 30
0.0
 10
42.2853598801
 20
41.4849089482
 30
0.0
 10
41.724837
 20
41.8028478687
 30
0.0
 10
41.4280892134
 20
41.9242962139
 30
0.0
  0
SPLINE
  5
434
100
AcDbEntity
  8
0
100
AcDbSpline
 62
7
  6
CONTINUOUS
 70
0
 71
3
 72
11
 73
7
 74
0
 42
0.0000001
 43
0.0000001
 44
0.0000000001
 40
0.0
 40
0.0
 40
0.0
 40
0.0
 40
0.2452616995
 40
0.4873256841
 40
0.7370263263
 40
1.0
 40
1.0
 40
1.0
 40
1.0
 10
-41.4914878185
 20
41.8976756663
 30
0.0
 10
-41.7795553558
 20
41.7736077111
 30
0.0
 10
-42.3235088102
 20
41.4538249768
 30
0.0
 10
-42.9984391368
 20
40.7824103414
 30
0.0
 10
-43.4954119914
 20
39.9429678276
 30
0.0
 10
-43.6717962246
 20
39.3014340561
 30
0.0
 10
-43.7160905087
 20
38.9680640422
 30
0.0
  0
SPLINE
  5
435
100
AcDbEntity
  8
RACCORDO
100
AcDbSpline
 62
250
  6
CONTINUOUS
 70
0
 71
3
 72
9
 73
5
 74
0
 42
0.0000001
 43
0.0000001
 44
0.0000000001
 40
0.0
 40
0.0
 40
0.0
 40
0.0
 40
0.5000001212
 40
1.0
 40
1.0
 40
1.0
 40
1.0
 10
27.9000589376
 20
0.0007290656
 30
0.0
 10
27.9034873177
 20
3.6996662346
 30
0.0
 10
27.8989285135
 20
11.0975426509
 30
0.0
 10
27.8847687621
 20
18.4954204002
 30
0.0
 10
27.8678207163
 20
22.1943185376
 30
0.0
  0
SPLINE
  5
436
100
AcDbEntity
  8
RACCORDO
100
AcDbSpline
 62
250
  6
CONTINUOUS
 70
0
 71
3
 72
11
 73
7
 74
0
 42
0.0000001
 43
0.0000001
 44
0.0000000001
 40
0.0
 40
0.0
 40
0.0
 40
0.0
 40
0.2499995284
 40
0.499999643
 40
0.7499998084
 40
1.0
 40
1.0
 40
1.0
 40
1.0
 10
27.8254614798
 20
-22.190545063
 30
0.0
 10
27.8237069867
 20
-20.3412641476
 30
0.0
 10
27.8408116099
 20
-16.6427045914
 30
0.0
 10
27.8726331192
 20
-11.0949531127
 30
0.0
 10
27.8952604071
 20
-5.5471332781
 30
0.0
 10
27.9007703365
 20
-1.8485574514
 30
0.0
 10
27.9000583398
 20
0.000729065
 30
0.0
  0
SPLINE
  5
437
100
AcDbEntity
  8
RACCORDO
100
AcDbSpline
 62
250
  6
CONTINUOUS
 70
0
 71
3
 72
12
 73
8
 74
0
 42
0.0000001
 43
0.0000001
 44
0.0000000001
 40
0.0
 40
0.0
 40
0.0
 40
0.0
 40
0.2497266205
 40
0.4993776161
 40
0.7491295467
 40
0.8745810897
 40
1.0
 40
1.0
 40
1.0
 40
1.0
 10
22.2
 20
-26.0995707387
 30
0.0
 10
22.7076838321
 20
-26.0990853884
 30
0.0
 10
23.7341662768
 20
-25.8962719543
 30
0.0
 10
25.0307757183
 20
-25.0288782764
 30
0.0
 10
25.7594720279
 20
-23.9449936988
 30
0.0
 10
26.0586183335
 20
-22.9666643887
 30
0.0
 10
26.1090412433
 20
-22.4549712347
 30
0.0
 10
26.1086438825
 20
-22.2
 30
0.0
  0
SPLINE
  5
438
100
AcDbEntity
  8
RACCORDO
100
AcDbSpline
 62
250
  6
CONTINUOUS
 70
0
 71
3
 72
9
 73
5
 74
0
 42
0.0000001
 43
0.0000001
 44
0.0000000001
 40
0.0
 40
0.0
 40
0.0
 40
0.0
 40
0.2668578552
 40
1.0
 40
1.0
 40
1.0
 40
1.0
 10
22.2056019853
 20
-27.9053257701
 30
0.0
 10
22.2052028755
 20
-27.7446977647
 30
0.0
 10
22.2036146715
 20
-27.1427745433
 30
0.0
 10
22.201710128
 20
-26.5408520665
 30
0.0
 10
22.1999999991
 20
-26.0995585562
 30
0.0
  0
SPLINE
  5
439
100
AcDbEntity
  8
RACCORDO
100
AcDbSpline
 62
250
  6
CONTINUOUS
 70
0
 71
3
 72
15
 73
11
 74
0
 42
0.0000001
 43
0.0000001
 44
0.0000000001
 40
0.0
 40
0.0
 40
0.0
 40
0.0
 40
0.1250238998
 40
0.2500185722
 40
0.3749960959
 40
0.4999776832
 40
0.6249883382
 40
0.7500186731
 40
0.8750236913
 40
1.0
 40
1.0
 40
1.0
 40
1.0
 10
22.2056019853
 20
-27.9053257701
 30
0.0
 10
22.5765582787
 20
-27.907909962
 30
0.0
 10
23.3210753496
 20
-27.8438480268
 30
0.0
 10
24.395492053
 20
-27.5247876044
 30
0.0
 10
25.3762262315
 20
-26.9812253623
 30
0.0
 10
26.2232052759
 20
-26.2488052156
 30
0.0
 10
26.9172586834
 20
-25.3707778643
 30
0.0
 10
27.4345070983
 20
-24.3778205615
 30
0.0
 10
27.7541427487
 20
-23.3051702445
 30
0.0
 10
27.825776136
 20
-22.5613690417
 30
0.0
 10
27.8254618047
 20
-22.1905450908
 30
0.0
  0
SPLINE
  5
43A
100
AcDbEntity
  8
RACCORDO
100
AcDbSpline
 62
250
  6
CONTINUOUS
 70
0
 71
3
 72
9
 73
5
 74
0
 42
0.0000001
 43
0.0000001
 44
0.0000000001
 40
0.0
 40
0.0
 40
0.0
 40
0.0
 40
0.2668589467
 40
1.0
 40
1.0
 40
1.0
 40
1.0
 10
-22.2056020209
 20
-27.9053258129
 30
0.0
 10
-22.2052036686
 20
-27.7446982283
 30
0.0
 10
-22.2036174496
 20
-27.1427790477
 30
0.0
 10
-22.201712054
 20
-26.5408606178
 30
0.0
 10
-22.2
 20
-26.0995707383
 30
0.0
  0
SPLINE
  5
43B
100
AcDbEntity
  8
RACCORDO
100
AcDbSpline
 62
250
  6
CONTINUOUS
 70
0
 71
3
 72
12
 73
8
 74
0
 42
0.0000001
 43
0.0000001
 44
0.0000000001
 40
0.0
 40
0.0
 40
0.0
 40
0.0
 40
0.12541678
 40
0.2508656245
 40
0.5006168405
 40
0.7502700225
 40
1.0
 40
1.0
 40
1.0
 40
1.0
 10
-26.1086438825
 20
-22.2
 30
0.0
 10
-26.10904524
 20
-22.4549668837
 30
0.0
 10
-26.0586153716
 20
-22.9666497972
 30
0.0
 10
-25.7594818623
 20
-23.9449699027
 30
0.0
 10
-25.0307951179
 20
-25.0288564733
 30
0.0
 10
-23.7341863001
 20
-25.8962767088
 30
0.0
 10
-22.7076906198
 20
-26.099075917
 30
0.0
 10
-22.2
 20
-26.0995707387
 30
0.0
  0
SPLINE
  5
43C
100
AcDbEntity
  8
RACCORDO
100
AcDbSpline
 62
250
  6
CONTINUOUS
 70
0
 71
3
 72
15
 73
11
 74
0
 42
0.0000001
 43
0.0000001
 44
0.0000000001
 40
0.0
 40
0.0
 40
0.0
 40
0.0
 40
0.1249742424
 40
0.2499764173
 40
0.375004646
 40
0.5000163915
 40
0.6249998448
 40
0.7499784097
 40
0.8749736619
 40
1.0
 40
1.0
 40
1.0
 40
1.0
 10
-27.8254618808
 20
-22.1905450976
 30
0.0
 10
-27.8258007488
 20
-22.5613626206
 30
0.0
 10
-27.7541197812
 20
-23.3051503586
 30
0.0
 10
-27.43447404
 20
-24.3777637348
 30
0.0
 10
-26.9173195308
 20
-25.3707566764
 30
0.0
 10
-26.2232311766
 20
-26.2487723438
 30
0.0
 10
-25.3762353502
 20
-26.9811614425
 30
0.0
 10
-24.3955715277
 20
-27.5249080168
 30
0.0
 10
-23.3210667963
 20
-27.843706765
 30
0.0
 10
-22.576565173
 20
-27.9079232955
 30
0.0
 10
-22.2056020131
 20
-27.9053258034
 30
0.0
  0
SPLINE
  5
43D
100
AcDbEntity
  8
RACCORDO
100
AcDbSpline
 62
250
  6
CONTINUOUS
 70
0
 71
3
 72
11
 73
7
 74
0
 42
0.0000001
 43
0.0000001
 44
0.0000000001
 40
0.0
 40
0.0
 40
0.0
 40
0.0
 40
0.2500001967
 40
0.5000003667
 40
0.7500004888
 40
1.0
 40
1.0
 40
1.0
 40
1.0
 10
-27.900058909
 20
-0.0007292036
 30
0.0
 10
-27.900771461
 20
-1.8498942342
 30
0.0
 10
-27.8952583283
 20
-5.5482270895
 30
0.0
 10
-27.872626364
 20
-11.0956824512
 30
0.0
 10
-27.8408149707
 20
-16.6430693781
 30
0.0
 10
-27.8237092736
 20
-20.3413857947
 30
0.0
 10
-27.8254614739
 20
-22.1905450623
 30
0.0
  0
SPLINE
  5
43E
100
AcDbEntity
  8
RACCORDO
100
AcDbSpline
 62
250
  6
CONTINUOUS
 70
0
 71
3
 72
9
 73
5
 74
0
 42
0.0000001
 43
0.0000001
 44
0.0000000001
 40
0.0
 40
0.0
 40
0.0
 40
0.0
 40
0.2672002149
 40
1.0
 40
1.0
 40
1.0
 40
1.0
 10
-27.8678207246
 20
22.1943185407
 30
0.0
 10
-27.7105325411
 20
22.1947248973
 30
0.0
 10
-27.1218798881
 20
22.196338266
 30
0.0
 10
-26.5332280152
 20
22.1982699172
 30
0.0
 10
-26.1018653205
 20
22.2
 30
0.0
  0
SPLINE
  5
43F
100
AcDbEntity
  8
RACCORDO
100
AcDbSpline
 62
250
  6
CONTINUOUS
 70
0
 71
3
 72
9
 73
5
 74
0
 42
0.0000001
 43
0.0000001
 44
0.0000000001
 40
0.0
 40
0.0
 40
0.0
 40
0.0
 40
0.4999998778
 40
1.0
 40
1.0
 40
1.0
 40
1.0
 10
-27.8678207246
 20
22.1943185407
 30
0.0
 10
-27.8847581869
 20
18.4951773139
 30
0.0
 10
-27.8989417012
 20
11.0968135592
 30
0.0
 10
-27.9034854298
 20
3.6984510205
 30
0.0
 10
-27.9000575755
 20
-0.0007292031
 30
0.0
  0
SPLINE
  5
440
100
AcDbEntity
  8
RACCORDO
100
AcDbSpline
 62
250
  6
CONTINUOUS
 70
0
 71
3
 72
9
 73
5
 74
0
 42
0.0000001
 43
0.0000001
 44
0.0000000001
 40
0.0
 40
0.0
 40
0.0
 40
0.0
 40
0.2672202329
 40
1.0
 40
1.0
 40
1.0
 40
1.0
 10
-22.1952128161
 20
27.8705612145
 30
0.0
 10
-22.1955550366
 20
27.7130488671
 30
0.0
 10
-22.1969139136
 20
27.1236013643
 30
0.0
 10
-22.1985415132
 20
26.534154415
 30
0.0
 10
-22.2
 20
26.1022205212
 30
0.0
  0
SPLINE
  5
441
100
AcDbEntity
  8
RACCORDO
100
AcDbSpline
 62
250
  6
CONTINUOUS
 70
0
 71
3
 72
15
 73
11
 74
0
 42
0.0000001
 43
0.0000001
 44
0.0000000001
 40
0.0
 40
0.0
 40
0.0
 40
0.0
 40
0.1249475654
 40
0.249919838
 40
0.3749220929
 40
0.4999331589
 40
0.6249499171
 40
0.7499670363
 40
0.8749831574
 40
1.0
 40
1.0
 40
1.0
 40
1.0
 10
-22.1952128161
 20
27.8705612145
 30
0.0
 10
-22.5662647718
 20
27.8689184549
 30
0.0
 10
-23.3100800848
 20
27.7954988455
 30
0.0
 10
-24.3834815977
 20
27.4757952319
 30
0.0
 10
-25.3755558375
 20
26.9540307616
 30
0.0
 10
-26.2446434651
 20
26.2455143435
 30
0.0
 10
-26.9534003085
 20
25.376501821
 30
0.0
 10
-27.4746037825
 20
24.3838579841
 30
0.0
 10
-27.7932812316
 20
23.3097226126
 30
0.0
 10
-27.8660310954
 20
22.5655755805
 30
0.0
 10
-27.8678209454
 20
22.1943185709
 30
0.0
  0
SPLINE
  5
442
100
AcDbEntity
  8
RACCORDO
100
AcDbSpline
 62
250
  6
CONTINUOUS
 70
0
 71
3
 72
9
 73
5
 74
0
 42
0.0000001
 43
0.0000001
 44
0.0000000001
 40
0.0
 40
0.0
 40
0.0
 40
0.0
 40
0.5000001624
 40
1.0
 40
1.0
 40
1.0
 40
1.0
 10
-0.003962475
 20
27.8996358738
 30
0.0
 10
-3.7025091949
 20
27.8984514928
 30
0.0
 10
-11.0995901267
 20
27.8922214464
 30
0.0
 10
-18.4967044569
 20
27.8869156609
 30
0.0
 10
-22.1952128055
 20
27.8705611293
 30
0.0
  0
SPLINE
  5
443
100
AcDbEntity
  8
RACCORDO
100
AcDbSpline
 62
250
  6
CONTINUOUS
 70
0
 71
3
 72
9
 73
5
 74
0
 42
0.0000001
 43
0.0000001
 44
0.0000000001
 40
0.0
 40
0.0
 40
0.0
 40
0.0
 40
0.2672205249
 40
1.0
 40
1.0
 40
1.0
 40
1.0
 10
22.1952128057
 20
27.8705611314
 30
0.0
 10
22.195555042
 20
27.7130488525
 30
0.0
 10
22.1969139616
 20
27.1236022499
 30
0.0
 10
22.1985415543
 20
26.5341562008
 30
0.0
 10
22.2
 20
26.1022231386
 30
0.0
  0
SPLINE
  5
444
100
AcDbEntity
  8
RACCORDO
100
AcDbSpline
 62
250
  6
CONTINUOUS
 70
0
 71
3
 72
9
 73
5
 74
0
 42
0.0000001
 43
0.0000001
 44
0.0000000001
 40
0.0
 40
0.0
 40
0.0
 40
0.0
 40
0.4999998373
 40
1.0
 40
1.0
 40
1.0
 40
1.0
 10
22.1952128057
 20
27.8705611314
 30
0.0
 10
18.4953836457
 20
27.8869207968
 30
0.0
 10
11.0956276511
 20
27.8922246729
 30
0.0
 10
3.6959050729
 20
27.8984534842
 30
0.0
 10
-0.0039624748
 20
27.8996376643
 30
0.0
  0
SPLINE
  5
445
100
AcDbEntity
  8
RACCORDO
100
AcDbSpline
 62
250
  6
CONTINUOUS
 70
0
 71
3
 72
9
 73
5
 74
0
 42
0.0000001
 43
0.0000001
 44
0.0000000001
 40
0.0
 40
0.0
 40
0.0
 40
0.0
 40
0.2671991207
 40
1.0
 40
1.0
 40
1.0
 40
1.0
 10
27.8678210593
 20
22.194318587
 30
0.0
 10
27.71053267
 20
22.1947247165
 30
0.0
 10
27.1218768367
 20
22.1963374775
 30
0.0
 10
26.533221785
 20
22.19826931
 30
0.0
 10
26.1018561193
 20
22.1999999993
 30
0.0
  0
SPLINE
  5
446
100
AcDbEntity
  8
RACCORDO
100
AcDbSpline
 62
250
  6
CONTINUOUS
 70
0
 71
3
 72
15
 73
11
 74
0
 42
0.0000001
 43
0.0000001
 44
0.0000000001
 40
0.0
 40
0.0
 40
0.0
 40
0.0
 40
0.1250165757
 40
0.2500312046
 40
0.3750461181
 40
0.5000613927
 40
0.6250721427
 40
0.7500759845
 40
0.8750504454
 40
1.0
 40
1.0
 40
1.0
 40
1.0
 10
27.8678210593
 20
22.194318587
 30
0.0
 10
27.866056256
 20
22.5655749543
 30
0.0
 10
27.7932453225
 20
23.3097134699
 30
0.0
 10
27.4746113939
 20
24.3838434413
 30
0.0
 10
26.9534077886
 20
25.376473313
 30
0.0
 10
26.2446738206
 20
26.2454858332
 30
0.0
 10
25.3755970861
 20
26.9540181133
 30
0.0
 10
24.3835144177
 20
27.475784448
 30
0.0
 10
23.3101007976
 20
27.795523486
 30
0.0
 10
22.5662706221
 20
27.8688991202
 30
0.0
 10
22.1952128146
 20
27.8705612029
 30
0.0
  0
SPLINE
  5
447
100
AcDbEntity
  8
RACCORDO
100
AcDbSpline
 62
250
  6
CONTINUOUS
 70
0
 71
3
 72
11
 73
7
 74
0
 42
0.0000001
 43
0.0000001
 44
0.0000000001
 40
0.0
 40
0.0
 40
0.0
 40
0.0
 40
0.2432666658
 40
0.4920058774
 40
0.7447457174
 40
1.0
 40
1.0
 40
1.0
 40
1.0
 10
0.0030341435
 20
41.4560938589
 30
0.0
 10
0.0061746983
 20
40.5190352289
 30
0.0
 10
0.0028949598
 20
38.6238189688
 30
0.0
 10
0.000266176
 20
35.7550616866
 30
0.0
 10
0.0004198252
 20
32.8401207174
 30
0.0
 10
-0.0031651177
 20
30.8833286549
 30
0.0
 10
-0.004997203
 20
29.9000901351
 30
0.0
  0
SPLINE
  5
448
100
AcDbEntity
  8
RACCORDO
100
AcDbSpline
 62
250
  6
CONTINUOUS
 70
0
 71
3
 72
11
 73
7
 74
0
 42
0.0000001
 43
0.0000001
 44
0.0000000001
 40
0.0
 40
0.0
 40
0.0
 40
0.0
 40
0.2504227336
 40
0.500677557
 40
0.7505946583
 40
1.0
 40
1.0
 40
1.0
 40
1.0
 10
-20.9680114623
 20
-27.9000059907
 30
0.0
 10
-20.9747154272
 20
-29.0084446815
 30
0.0
 10
-20.993781261
 20
-31.2245435401
 30
0.0
 10
-21.0033134281
 20
-34.5469414116
 30
0.0
 10
-21.0015131073
 20
-37.8648324053
 30
0.0
 10
-21.0024631274
 20
-40.0750103933
 30
0.0
 10
-21.0008878963
 20
-41.1789648995
 30
0.0
  0
SPLINE
  5
449
100
AcDbEntity
  8
SKEL_COPERCHIO
100
AcDbSpline
 62
7
  6
CONTINUOUS
 70
0
 71
3
 72
16
 73
12
 74
0
 42
0.0000001
 43
0.0000001
 44
0.0000000001
 40
0.0
 40
0.0
 40
0.0
 40
0.0
 40
0.1250000636
 40
0.2500004027
 40
0.375000743
 40
0.5000010666
 40
0.6250014044
 40
0.7500017384
 40
0.8750012307
 40
0.9375009289
 40
1.0
 40
1.0
 40
1.0
 40
1.0
 10
-92.7140300121
 20
-0.0
 30
0.0
 10
-92.7124819762
 20
1.6040488613
 30
0.0
 10
-92.6881451857
 20
4.8121138216
 30
0.0
 10
-92.6291586018
 20
9.623896885
 30
0.0
 10
-92.5726651275
 20
14.4357303442
 30
0.0
 10
-92.5282264343
 20
19.2476865355
 30
0.0
 10
-92.4967043698
 20
24.059760431
 30
0.0
 10
-92.4685434862
 20
28.871769342
 30
0.0
 10
-92.4257534421
 20
32.8818698662
 30
0.0
 10
-92.3298012194
 20
36.0886048694
 30
0.0
 10
-92.2398868016
 20
37.6905770402
 30
0.0
 10
-92.1754925677
 20
38.4900002043
 30
0.0
  0
SPLINE
  5
44A
100
AcDbEntity
  8
SKEL_COPERCHIO
100
AcDbSpline
 62
7
  6
CONTINUOUS
 70
0
 71
3
 72
17
 73
13
 74
0
 42
0.0000001
 43
0.0000001
 44
0.0000000001
 40
0.0
 40
0.0
 40
0.0
 40
0.0
 40
0.0381556891
 40
0.0661097736
 40
0.1013813368
 40
0.1442207084
 40
0.194534242
 40
0.3163104773
 40
0.4631512298
 40
0.6301618435
 40
0.8113934253
 40
1.0
 40
1.0
 40
1.0
 40
1.0
 10
-93.3921879861
 20
-42.080588424
 30
0.0
 10
-93.3444171083
 20
-42.0814222677
 30
0.0
 10
-93.2666784269
 20
-42.026838472
 30
0.0
 10
-93.1953545764
 20
-41.9243440757
 30
0.0
 10
-93.1330502551
 20
-41.8058630928
 30
0.0
 10
-93.0727100003
 20
-41.6569050399
 30
0.0
 10
-92.9877798333
 20
-41.4012693628
 30
0.0
 10
-92.8915200857
 20
-41.0132096029
 30
0.0
 10
-92.7948142415
 20
-40.4760792745
 30
0.0
 10
-92.7194245997
 20
-39.8604184106
 30
0.0
 10
-92.6731482703
 20
-39.1894824664
 30
0.0
 10
-92.6660241833
 20
-38.7261531878
 30
0.0
 10
-92.6689289214
 20
-38.4899998727
 30
0.0
  0
SPLINE
  5
44B
100
AcDbEntity
  8
SKEL_COPERCHIO
100
AcDbSpline
 62
7
  6
CONTINUOUS
 70
0
 71
3
 72
13
 73
9
 74
0
 42
0.0000001
 43
0.0000001
 44
0.0000000001
 40
0.0
 40
0.0
 40
0.0
 40
0.0
 40
0.1249995139
 40
0.2499995915
 40
0.3749996811
 40
0.4999997639
 40
0.7499998839
 40
1.0
 40
1.0
 40
1.0
 40
1.0
 10
-92.6689289187
 20
-38.4899998727
 30
0.0
 10
-92.6886538654
 20
-36.8863731394
 30
0.0
 10
-92.6951701403
 20
-33.6787731179
 30
0.0
 10
-92.6864047221
 20
-28.8675559565
 30
0.0
 10
-92.6776373019
 20
-24.0562887802
 30
0.0
 10
-92.6744164375
 20
-17.6412679833
 30
0.0
 10
-92.6903575336
 20
-9.6225020577
 30
0.0
 10
-92.7136444455
 20
-3.2075100175
 30
0.0
 10
-92.7140300121
 20
-0.0
 30
0.0
  0
SPLINE
  5
44C
100
AcDbEntity
  8
SKEL_COPERCHIO
100
AcDbSpline
 62
7
  6
CONTINUOUS
 70
0
 71
3
 72
17
 73
13
 74
0
 42
0.0000001
 43
0.0000001
 44
0.0000000001
 40
0.0
 40
0.0
 40
0.0
 40
0.0
 40
0.3798200285
 40
0.5513627098
 40
0.7016546413
 40
0.7670084163
 40
0.8249820476
 40
0.8750439018
 40
0.9167508266
 40
0.9498136385
 40
0.9741825133
 40
1.0
 40
1.0
 40
1.0
 40
1.0
 10
-92.1754925674
 20
38.4900002043
 30
0.0
 10
-92.138446168
 20
38.9499133722
 30
0.0
 10
-92.1131270754
 20
39.6199749945
 30
0.0
 10
-92.116239655
 20
40.4723359558
 30
0.0
 10
-92.1274705452
 20
40.9425774435
 30
0.0
 10
-92.1408737499
 20
41.2747474766
 30
0.0
 10
-92.1520649746
 20
41.4849818041
 30
0.0
 10
-92.1655272606
 20
41.6667384335
 30
0.0
 10
-92.1805672083
 20
41.816709595
 30
0.0
 10
-92.2008346693
 20
41.9381552081
 30
0.0
 10
-92.2217239401
 20
42.0299523495
 30
0.0
 10
-92.2615895825
 20
42.1003230925
 30
0.0
 10
-92.2929477149
 20
42.0997757343
 30
0.0
  0
LINE
  5
44D
100
AcDbEntity
  8
RACCORDO
100
AcDbLine
 62
7
  6
CONTINUOUS
 10
-95.3889605396
 20
9.697226819
 11
-95.3889440105
 21
9.7832254068
  0
LINE
  5
44E
100
AcDbEntity
  8
RACCORDO
100
AcDbLine
 62
7
  6
CONTINUOUS
 10
-95.3866827499
 20
-1.4701462411
 11
-95.3866870936
 21
-1.0733790786
  0
SPLINE
  5
44F
100
AcDbEntity
  8
RACCORDO
100
AcDbSpline
 62
250
  6
CONTINUOUS
 70
0
 71
3
 72
9
 73
5
 74
0
 42
0.0000001
 43
0.0000001
 44
0.0000000001
 40
0.0
 40
0.0
 40
0.0
 40
0.0
 40
0.5000010972
 40
1.0
 40
1.0
 40
1.0
 40
1.0
 10
-95.3886424894
 20
11.0534937267
 30
0.0
 10
-95.3881352713
 20
12.8870307757
 30
0.0
 10
-95.3863494173
 20
16.5540960662
 30
0.0
 10
-95.3847061828
 20
20.2211633886
 30
0.0
 10
-95.3815129772
 20
22.0546896805
 30
0.0
  0
SPLINE
  5
450
100
AcDbEntity
  8
RACCORDO
100
AcDbSpline
 62
250
  6
CONTINUOUS
 70
0
 71
3
 72
10
 73
6
 74
0
 42
0.0000001
 43
0.0000001
 44
0.0000000001
 40
0.0
 40
0.0
 40
0.0
 40
0.0
 40
0.10819289
 40
0.3276782376
 40
1.0
 40
1.0
 40
1.0
 40
1.0
 10
-95.9871996453
 20
-26.0689128638
 30
0.0
 10
-95.9875187344
 20
-25.9509690867
 30
0.0
 10
-95.9857259046
 20
-25.5937578267
 30
0.0
 10
-95.9865294128
 20
-24.5036284124
 30
0.0
 10
-95.9804650771
 20
-23.5314518607
 30
0.0
 10
-95.9799121148
 20
-22.7985346076
 30
0.0
  0
LINE
  5
451
100
AcDbEntity
  8
RACCORDO
100
AcDbLine
 62
250
  6
CONTINUOUS
 10
-95.9799121148
 20
-22.7985346076
 11
-95.9798265162
 21
-22.5913043344
  0
LINE
  5
452
100
AcDbEntity
  8
RACCORDO
100
AcDbLine
 62
250
  6
CONTINUOUS
 10
-95.9798265162
 20
-22.5913043344
 11
-95.9800488181
 21
-22.2
  0
SPLINE
  5
453
100
AcDbEntity
  8
RACCORDO
100
AcDbSpline
 62
250
  6
CONTINUOUS
 70
0
 71
3
 72
9
 73
5
 74
0
 42
0.0000001
 43
0.0000001
 44
0.0000000001
 40
0.0
 40
0.0
 40
0.0
 40
0.0
 40
0.5000018864
 40
1.0
 40
1.0
 40
1.0
 40
1.0
 10
-95.3623795023
 20
-22.190545063
 30
0.0
 10
-95.3687229849
 20
-20.2015040384
 30
0.0
 10
-95.3744160125
 20
-16.2234175553
 30
0.0
 10
-95.3791808632
 20
-12.2453341618
 30
0.0
 10
-95.3812372404
 20
-10.2562990933
 30
0.0
  0
SPLINE
  5
454
100
AcDbEntity
  8
RACCORDO
100
AcDbSpline
 62
250
  6
CONTINUOUS
 70
0
 71
3
 72
8
 73
4
 74
0
 42
0.0000001
 43
0.0000001
 44
0.0000000001
 40
0.0
 40
0.0
 40
0.0
 40
0.0
 40
1.0
 40
1.0
 40
1.0
 40
1.0
 10
-95.3812372404
 20
-10.2562990933
 30
0.0
 10
-95.3834369778
 20
-8.1285985074
 30
0.0
 10
-95.3852400895
 20
-6.0008973326
 30
0.0
 10
-95.3861193844
 20
-3.8731957913
 30
0.0
  0
LINE
  5
455
100
AcDbEntity
  8
RACCORDO
100
AcDbLine
 62
250
  6
CONTINUOUS
 10
-95.3864679523
 20
-2.8480478044
 11
-95.3866776104
 21
-1.5682708959
  0
SPLINE
  5
456
100
AcDbEntity
  8
RACCORDO
100
AcDbSpline
 62
250
  6
CONTINUOUS
 70
0
 71
3
 72
9
 73
5
 74
0
 42
0.0000001
 43
0.0000001
 44
0.0000000001
 40
0.0
 40
0.0
 40
0.0
 40
0.0
 40
0.1457395738
 40
1.0
 40
1.0
 40
1.0
 40
1.0
 10
-95.3623795023
 20
-22.190545063
 30
0.0
 10
-95.363475499
 20
-22.1906787145
 30
0.0
 10
-95.3710286572
 20
-22.1913021772
 30
0.0
 10
-95.3786021696
 20
-22.1915677655
 30
0.0
 10
-95.3850696359
 20
-22.1918055004
 30
0.0
  0
SPLINE
  5
457
100
AcDbEntity
  8
RACCORDO
100
AcDbSpline
 62
250
  6
CONTINUOUS
 70
0
 71
3
 72
9
 73
5
 74
0
 42
0.0000001
 43
0.0000001
 44
0.0000000001
 40
0.0
 40
0.0
 40
0.0
 40
0.0
 40
0.1730591322
 40
1.0
 40
1.0
 40
1.0
 40
1.0
 10
-95.3850696359
 20
-22.1918055004
 30
0.0
 10
-95.3919459008
 20
-22.1920582621
 30
0.0
 10
-95.4316887981
 20
-22.1932587064
 30
0.0
 10
-95.4714444466
 20
-22.1939565359
 30
0.0
 10
-95.5043193826
 20
-22.1945067998
 30
0.0
  0
SPLINE
  5
458
100
AcDbEntity
  8
RACCORDO
100
AcDbSpline
 62
250
  6
CONTINUOUS
 70
0
 71
3
 72
9
 73
5
 74
0
 42
0.0000001
 43
0.0000001
 44
0.0000000001
 40
0.0
 40
0.0
 40
0.0
 40
0.0
 40
0.187522711
 40
1.0
 40
1.0
 40
1.0
 40
1.0
 10
-95.5043193826
 20
-22.1945067998
 30
0.0
 10
-95.534053933
 20
-22.1950044996
 30
0.0
 10
-95.6926246385
 20
-22.1973164357
 30
0.0
 10
-95.851205425
 20
-22.1988484768
 30
0.0
 10
-95.980048837
 20
-22.2
 30
0.0
  0
SPLINE
  5
459
100
AcDbEntity
  8
0
100
AcDbSpline
 62
7
  6
CONTINUOUS
 70
0
 71
3
 72
18
 73
14
 74
0
 42
0.0000001
 43
0.0000001
 44
0.0000000001
 40
0.0
 40
0.0
 40
0.0
 40
0.0
 40
0.2164718157
 40
0.4127164433
 40
0.5851980435
 40
0.7308055293
 40
0.8468905734
 40
0.8931963355
 40
0.9313884462
 40
0.9612633403
 40
0.982704935
 40
0.995637261
 40
1.0
 40
1.0
 40
1.0
 40
1.0
 10
-95.3804263868
 20
-29.5692755511
 30
0.0
 10
-95.3809277453
 20
-29.5353990017
 30
0.0
 10
-95.381906884
 20
-29.4708111391
 30
0.0
 10
-95.3833755585
 20
-29.3792350143
 30
0.0
 10
-95.384740016
 20
-29.2987411266
 30
0.0
 10
-95.3859993375
 20
-29.2308182827
 30
0.0
 10
-95.3869373101
 20
-29.1825782846
 30
0.0
 10
-95.3877057477
 20
-29.1512622949
 30
0.0
 10
-95.3880457924
 20
-29.1332196448
 30
0.0
 10
-95.388742762
 20
-29.1196008138
 30
0.0
 10
-95.3884337304
 20
-29.108675838
 30
0.0
 10
-95.3898924639
 20
-29.1041653756
 30
0.0
 10
-95.3888833641
 20
-29.0998531129
 30
0.0
 10
-95.3895661815
 20
-29.0998531129
 30
0.0
  0
LINE
  5
45A
100
AcDbEntity
  8
RACCORDO
100
AcDbLine
 62
250
  6
CONTINUOUS
 10
-95.3856037805
 20
-27.1717695356
 11
-95.3855678219
 21
-27.162446
  0
LINE
  5
45B
100
AcDbEntity
  8
RACCORDO
100
AcDbLine
 62
250
  6
CONTINUOUS
 10
-95.3855678219
 20
-27.162446
 11
-95.3854100096
 21
-27.11775366
  0
LINE
  5
45C
100
AcDbEntity
  8
RACCORDO
100
AcDbLine
 62
250
  6
CONTINUOUS
 10
-95.3854100096
 20
-27.11775366
 11
-95.3850165329
 21
-26.9615406187
  0
LINE
  5
45D
100
AcDbEntity
  8
RACCORDO
100
AcDbLine
 62
250
  6
CONTINUOUS
 10
-95.3850165329
 20
-26.9615406187
 11
-95.3849935798
 21
-26.9497946612
  0
SPLINE
  5
45E
100
AcDbEntity
  8
RACCORDO
100
AcDbSpline
 62
250
  6
CONTINUOUS
 70
0
 71
3
 72
9
 73
5
 74
0
 42
0.0000001
 43
0.0000001
 44
0.0000000001
 40
0.0
 40
0.0
 40
0.0
 40
0.0
 40
0.2312746663
 40
1.0
 40
1.0
 40
1.0
 40
1.0
 10
-95.3849935798
 20
-26.9497946612
 30
0.0
 10
-95.384906687
 20
-26.9047431974
 30
0.0
 10
-95.3845896305
 20
-26.7099467474
 30
0.0
 10
-95.3842144766
 20
-26.5151502267
 30
0.0
 10
-95.3836966432
 20
-26.3654059446
 30
0.0
  0
LINE
  5
45F
100
AcDbEntity
  8
RACCORDO
100
AcDbLine
 62
250
  6
CONTINUOUS
 10
-95.3836966432
 20
-26.3654059446
 11
-95.3827501887
 21
-26.1363394305
  0
LINE
  5
460
100
AcDbEntity
  8
RACCORDO
100
AcDbLine
 62
250
  6
CONTINUOUS
 10
-95.3827501887
 20
-26.1363394305
 11
-95.3813529006
 21
-25.8877988122
  0
LINE
  5
461
100
AcDbEntity
  8
RACCORDO
100
AcDbLine
 62
250
  6
CONTINUOUS
 10
-95.3813529006
 20
-25.8877988122
 11
-95.3793912055
 21
-25.6160465144
  0
LINE
  5
462
100
AcDbEntity
  8
RACCORDO
100
AcDbLine
 62
250
  6
CONTINUOUS
 10
-95.3793912055
 20
-25.6160465144
 11
-95.3769477198
 21
-25.3235336139
  0
SPLINE
  5
463
100
AcDbEntity
  8
RACCORDO
100
AcDbSpline
 62
250
  6
CONTINUOUS
 70
0
 71
3
 72
9
 73
5
 74
0
 42
0.0000001
 43
0.0000001
 44
0.0000000001
 40
0.0
 40
0.0
 40
0.0
 40
0.0
 40
0.2407834147
 40
1.0
 40
1.0
 40
1.0
 40
1.0
 10
-95.3769477198
 20
-25.3235336139
 30
0.0
 10
-95.3762745911
 20
-25.2463474898
 30
0.0
 10
-95.3734108169
 20
-24.9257856415
 30
0.0
 10
-95.3704959653
 20
-24.6052241345
 30
0.0
 10
-95.3685595781
 20
-24.3618462457
 30
0.0
  0
LINE
  5
464
100
AcDbEntity
  8
RACCORDO
100
AcDbLine
 62
250
  6
CONTINUOUS
 10
-95.3685595781
 20
-24.3618462457
 11
-95.3661008174
 21
-24.028892031
  0
LINE
  5
465
100
AcDbEntity
  8
RACCORDO
100
AcDbLine
 62
250
  6
CONTINUOUS
 10
-95.3623176346
 20
-22.2133764976
 11
-95.3623884313
 21
-22.1905450908
  0
SPLINE
  5
466
100
AcDbEntity
  8
RACCORDO
100
AcDbSpline
 62
250
  6
CONTINUOUS
 70
0
 71
3
 72
16
 73
12
 74
0
 42
0.0000001
 43
0.0000001
 44
0.0000000001
 40
0.0
 40
0.0
 40
0.0
 40
0.0
 40
0.0408397378
 40
0.0697176614
 40
0.1055161537
 40
0.1985375481
 40
0.3191998713
 40
0.4646253076
 40
0.6305541791
 40
0.8113269554
 40
1.0
 40
1.0
 40
1.0
 40
1.0
 10
-93.4217403893
 20
-41.1588259864
 30
0.0
 10
-93.3838723386
 20
-41.1574778164
 30
0.0
 10
-93.3240596552
 20
-41.1160347386
 30
0.0
 10
-93.2669263903
 20
-41.0380431211
 30
0.0
 10
-93.1962363399
 20
-40.908850946
 30
0.0
 10
-93.117563358
 20
-40.6905229473
 30
0.0
 10
-93.0349992259
 20
-40.3673881698
 30
0.0
 10
-92.9642877546
 20
-39.9725417799
 30
0.0
 10
-92.9100631108
 20
-39.5189379561
 30
0.0
 10
-92.8777121861
 20
-39.0230349285
 30
0.0
 10
-92.873424043
 20
-38.6800880539
 30
0.0
 10
-92.8759531131
 20
-38.5050511627
 30
0.0
  0
SPLINE
  5
467
100
AcDbEntity
  8
RACCORDO
100
AcDbSpline
 62
250
  6
CONTINUOUS
 70
0
 71
3
 72
15
 73
11
 74
0
 42
0.0000001
 43
0.0000001
 44
0.0000000001
 40
0.0
 40
0.0
 40
0.0
 40
0.0
 40
0.032249325
 40
0.0585868819
 40
0.0928624473
 40
0.1351693996
 40
0.1853342179
 40
0.3077564659
 40
0.625367163
 40
1.0
 40
1.0
 40
1.0
 40
1.0
 10
-92.459497088
 20
-42.0968686041
 30
0.0
 10
-92.4196320306
 20
-42.0975629636
 30
0.0
 10
-92.3578795032
 20
-42.0361022018
 30
0.0
 10
-92.3062081529
 20
-41.9379607091
 30
0.0
 10
-92.2583517493
 20
-41.8183440073
 30
0.0
 10
-92.2130301271
 20
-41.6687335661
 30
0.0
 10
-92.1494785807
 20
-41.4104476957
 30
0.0
 10
-92.0431949971
 20
-40.8134556984
 30
0.0
 10
-91.9466470893
 20
-39.8094544956
 30
0.0
 10
-91.9250942406
 20
-38.9531434425
 30
0.0
 10
-91.9303491952
 20
-38.49
 30
0.0
  0
SPLINE
  5
468
100
AcDbEntity
  8
RACCORDO
100
AcDbSpline
 62
250
  6
CONTINUOUS
 70
0
 71
3
 72
13
 73
9
 74
0
 42
0.0000001
 43
0.0000001
 44
0.0000000001
 40
0.0
 40
0.0
 40
0.0
 40
0.0
 40
0.1249988837
 40
0.249998943
 40
0.3749990885
 40
0.4999992549
 40
0.7499996228
 40
1.0
 40
1.0
 40
1.0
 40
1.0
 10
-92.8759523912
 20
-38.5050511515
 30
0.0
 10
-92.8991534473
 20
-36.9008694571
 30
0.0
 10
-92.9095153796
 20
-33.6920485217
 30
0.0
 10
-92.9047781704
 20
-28.8790112364
 30
0.0
 10
-92.8995374974
 20
-24.0659072399
 30
0.0
 10
-92.9006163237
 20
-17.6484430754
 30
0.0
 10
-92.9206556692
 20
-9.6266360571
 30
0.0
 10
-92.9449668272
 20
-3.209195177
 30
0.0
 10
-92.943703223
 20
-0.0004630044
 30
0.0
  0
SPLINE
  5
469
100
AcDbEntity
  8
RACCORDO
100
AcDbSpline
 62
250
  6
CONTINUOUS
 70
0
 71
3
 72
13
 73
9
 74
0
 42
0.0000001
 43
0.0000001
 44
0.0000000001
 40
0.0
 40
0.0
 40
0.0
 40
0.0
 40
0.1249991918
 40
0.2499993081
 40
0.3749994525
 40
0.4999995897
 40
0.7499998363
 40
1.0
 40
1.0
 40
1.0
 40
1.0
 10
-91.9303491952
 20
-38.49
 30
0.0
 10
-91.9555338849
 20
-36.8864255869
 30
0.0
 10
-91.9679951162
 20
-33.678757062
 30
0.0
 10
-91.9655428179
 20
-28.8674614027
 30
0.0
 10
-91.9622586266
 20
-24.056098008
 30
0.0
 10
-91.9657245446
 20
-17.6409620196
 30
0.0
 10
-91.9882654988
 20
-9.6220738903
 30
0.0
 10
-92.0138060727
 20
-3.2069650031
 30
0.0
 10
-92.0126862115
 20
0.0006019772
 30
0.0
  0
SPLINE
  5
46A
100
AcDbEntity
  8
RACCORDO
100
AcDbSpline
 62
250
  6
CONTINUOUS
 70
0
 71
3
 72
17
 73
13
 74
0
 42
0.0000001
 43
0.0000001
 44
0.0000000001
 40
0.0
 40
0.0
 40
0.0
 40
0.0
 40
0.1250004703
 40
0.2500009161
 40
0.3750013998
 40
0.5000019047
 40
0.6250024174
 40
0.7500028217
 40
0.8125032149
 40
0.8750031139
 40
0.9375028739
 40
1.0
 40
1.0
 40
1.0
 40
1.0
 10
-92.9437045992
 20
-0.0004630037
 30
0.0
 10
-92.9462690071
 20
1.6073913146
 30
0.0
 10
-92.9265479445
 20
4.8231187488
 30
0.0
 10
-92.8697227267
 20
9.6463395724
 30
0.0
 10
-92.8129353749
 20
14.4695790934
 30
0.0
 10
-92.766836462
 20
19.2929346792
 30
0.0
 10
-92.7325217538
 20
24.1163811762
 30
0.0
 10
-92.706815388
 20
28.1359512251
 30
0.0
 10
-92.6712488492
 20
31.3514692558
 30
0.0
 10
-92.6266394485
 20
33.7628927045
 30
0.0
 10
-92.5463365449
 20
36.1733662635
 30
0.0
 10
-92.4466482608
 20
37.7786532297
 30
0.0
 10
-92.3750834619
 20
38.5793496156
 30
0.0
  0
SPLINE
  5
46B
100
AcDbEntity
  8
RACCORDO
100
AcDbSpline
 62
250
  6
CONTINUOUS
 70
0
 71
3
 72
17
 73
13
 74
0
 42
0.0000001
 43
0.0000001
 44
0.0000000001
 40
0.0
 40
0.0
 40
0.0
 40
0.0
 40
0.1249999104
 40
0.2499998253
 40
0.3749997588
 40
0.4999996921
 40
0.6249996296
 40
0.7499994994
 40
0.8124997147
 40
0.8749996467
 40
0.9375000293
 40
1.0
 40
1.0
 40
1.0
 40
1.0
 10
-92.0126862115
 20
0.0006019772
 30
0.0
 10
-92.015302703
 20
1.6047086663
 30
0.0
 10
-91.9962048835
 20
4.8129422086
 30
0.0
 10
-91.9407608037
 20
9.6249370134
 30
0.0
 10
-91.8849222317
 20
14.4369441698
 30
0.0
 10
-91.8391090148
 20
19.2490586844
 30
0.0
 10
-91.8043717053
 20
24.0612583415
 30
0.0
 10
-91.7776407375
 20
28.0714555628
 30
0.0
 10
-91.7404528762
 20
31.2794657001
 30
0.0
 10
-91.6939396267
 20
33.6852530746
 30
0.0
 10
-91.610399321
 20
36.0900515044
 30
0.0
 10
-91.506604397
 20
37.6914314185
 30
0.0
 10
-91.4319062174
 20
38.49
 30
0.0
  0
SPLINE
  5
46C
100
AcDbEntity
  8
RACCORDO
100
AcDbSpline
 62
250
  6
CONTINUOUS
 70
0
 71
3
 72
16
 73
12
 74
0
 42
0.0000001
 43
0.0000001
 44
0.0000000001
 40
0.0
 40
0.0
 40
0.0
 40
0.0
 40
0.3739940046
 40
0.5422512952
 40
0.6902534385
 40
0.8133171779
 40
0.8641880512
 40
0.9073285815
 40
0.9423658339
 40
0.9691374359
 40
1.0
 40
1.0
 40
1.0
 40
1.0
 10
-92.3750714341
 20
38.5793484958
 30
0.0
 10
-92.3439704377
 20
38.927735149
 30
0.0
 10
-92.3193975923
 20
39.434852386
 30
0.0
 10
-92.3171334363
 20
40.0804028269
 30
0.0
 10
-92.3267289783
 20
40.4912626775
 30
0.0
 10
-92.3424110928
 20
40.7918837876
 30
0.0
 10
-92.3609993264
 20
40.9943165857
 30
0.0
 10
-92.3762238963
 20
41.1135370547
 30
0.0
 10
-92.395029192
 20
41.2115014543
 30
0.0
 10
-92.4174856892
 20
41.2908204991
 30
0.0
 10
-92.4495318704
 20
41.3493315578
 30
0.0
 10
-92.4780275262
 20
41.3539264326
 30
0.0
  0
SPLINE
  5
46D
100
AcDbEntity
  8
RACCORDO
100
AcDbSpline
 62
250
  6
CONTINUOUS
 70
0
 71
3
 72
20
 73
16
 74
0
 42
0.0000001
 43
0.0000001
 44
0.0000000001
 40
0.0
 40
0.0
 40
0.0
 40
0.0
 40
0.1936392687
 40
0.3798539346
 40
0.5514360138
 40
0.7017762493
 40
0.7671449984
 40
0.8251417879
 40
0.8752171039
 40
0.9169481098
 40
0.9500152611
 40
0.9743285787
 40
0.983294564
 40
0.9903028042
 40
1.0
 40
1.0
 40
1.0
 40
1.0
 10
-91.4319062174
 20
38.49
 30
0.0
 10
-91.4159856206
 20
38.7254828315
 30
0.0
 10
-91.3915121373
 20
39.187896897
 30
0.0
 10
-91.3729919091
 20
39.8598271863
 30
0.0
 10
-91.3695855271
 20
40.4792116223
 30
0.0
 10
-91.3768376779
 20
40.9512595558
 30
0.0
 10
-91.3886086744
 20
41.2846721485
 30
0.0
 10
-91.3995162039
 20
41.4958066422
 30
0.0
 10
-91.4129363563
 20
41.6779150042
 30
0.0
 10
-91.4288499436
 20
41.8293418211
 30
0.0
 10
-91.4477890336
 20
41.9486923853
 30
0.0
 10
-91.4667799505
 20
42.027516239
 30
0.0
 10
-91.4860358537
 20
42.0730486463
 30
0.0
 10
-91.5017436364
 20
42.0996591418
 30
0.0
 10
-91.5210996537
 20
42.1132424573
 30
0.0
 10
-91.5329175418
 20
42.1130421103
 30
0.0
  0
SPLINE
  5
46E
100
AcDbEntity
  8
RACCORDO
100
AcDbSpline
 62
250
  6
CONTINUOUS
 70
0
 71
3
 72
13
 73
9
 74
0
 42
0.0000001
 43
0.0000001
 44
0.0000000001
 40
0.0
 40
0.0
 40
0.0
 40
0.0
 40
0.4208937556
 40
0.6797001842
 40
0.831616956
 40
0.9173804707
 40
0.986699986
 40
1.0
 40
1.0
 40
1.0
 40
1.0
 10
-92.4780266956
 20
41.3539262249
 30
0.0
 10
-92.5431345786
 20
41.3643741159
 30
0.0
 10
-92.6477094166
 20
41.3826779215
 30
0.0
 10
-92.7763599834
 20
41.4085848346
 30
0.0
 10
-92.850942034
 20
41.4240135693
 30
0.0
 10
-92.9004658931
 20
41.4364311468
 30
0.0
 10
-92.9207039202
 20
41.4405026512
 30
0.0
 10
-92.9375873586
 20
41.4481412986
 30
0.0
 10
-92.9368907222
 20
41.4501050913
 30
0.0
  0
SPLINE
  5
46F
100
AcDbEntity
  8
0
100
AcDbSpline
 62
7
  6
CONTINUOUS
 70
0
 71
3
 72
18
 73
14
 74
0
 42
0.0000001
 43
0.0000001
 44
0.0000000001
 40
0.0
 40
0.0
 40
0.0
 40
0.0
 40
0.0044548002
 40
0.0176796684
 40
0.0396098485
 40
0.0701510432
 40
0.1091108859
 40
0.1562621066
 40
0.2740936364
 40
0.420964221
 40
0.5935881566
 40
0.7880733493
 40
1.0
 40
1.0
 40
1.0
 40
1.0
 10
-95.5895700815
 20
-29.0998531129
 30
0.0
 10
-95.5887227485
 20
-29.0998531129
 30
0.0
 10
-95.5900510117
 20
-29.1052199878
 30
0.0
 10
-95.5882166903
 20
-29.1108175101
 30
0.0
 10
-95.5886606294
 20
-29.1243998631
 30
0.0
 10
-95.5878157908
 20
-29.1413048439
 30
0.0
 10
-95.5874315908
 20
-29.1636704343
 30
0.0
 10
-95.5865271476
 20
-29.2023667197
 30
0.0
 10
-95.5854302841
 20
-29.2617274188
 30
0.0
 10
-95.5839534927
 20
-29.3448738943
 30
0.0
 10
-95.5823651791
 20
-29.442631234
 30
0.0
 10
-95.5806747602
 20
-29.5527522149
 30
0.0
 10
-95.579556639
 20
-29.6300470419
 30
0.0
 10
-95.5789891671
 20
-29.670352923
 30
0.0
  0
LINE
  5
470
100
AcDbEntity
  8
0
100
AcDbLine
 62
7
  6
CONTINUOUS
 10
-95.5789891671
 20
-29.670352923
 11
-95.5769845617
 21
-29.8175143395
  0
LINE
  5
471
100
AcDbEntity
  8
0
100
AcDbLine
 62
7
  6
CONTINUOUS
 10
-95.5769845617
 20
-29.8175143395
 11
-95.5723957661
 21
-30.1947790795
  0
LINE
  5
472
100
AcDbEntity
  8
0
100
AcDbLine
 62
7
  6
CONTINUOUS
 10
-95.5723957661
 20
-30.1947790795
 11
-95.570127893
 21
-30.4068515463
  0
LINE
  5
473
100
AcDbEntity
  8
RACCORDO
100
AcDbLine
 62
250
  6
CONTINUOUS
 10
-95.3807171936
 20
24.2498095315
 11
-95.3807540063
 21
24.2878710185
  0
LINE
  5
474
100
AcDbEntity
  8
RACCORDO
100
AcDbLine
 62
250
  6
CONTINUOUS
 10
-95.3813877622
 20
24.8863194756
 11
-95.3816975528
 21
25.1906949348
  0
LINE
  5
475
100
AcDbEntity
  8
RACCORDO
100
AcDbLine
 62
250
  6
CONTINUOUS
 10
-95.3816975528
 20
25.1906949348
 11
-95.3821070334
 21
25.7694902253
  0
LINE
  5
476
100
AcDbEntity
  8
RACCORDO
100
AcDbLine
 62
250
  6
CONTINUOUS
 10
-95.3821070334
 20
25.7694902253
 11
-95.3821784071
 21
26.037753751
  0
LINE
  5
477
100
AcDbEntity
  8
RACCORDO
100
AcDbLine
 62
250
  6
CONTINUOUS
 10
-95.3821784071
 20
26.037753751
 11
-95.3820254318
 21
26.5239676941
  0
LINE
  5
478
100
AcDbEntity
  8
RACCORDO
100
AcDbLine
 62
250
  6
CONTINUOUS
 10
-95.3820254318
 20
26.5239676941
 11
-95.3818063999
 21
26.7405628319
  0
LINE
  5
479
100
AcDbEntity
  8
RACCORDO
100
AcDbLine
 62
250
  6
CONTINUOUS
 10
-95.3818063999
 20
26.7405628319
 11
-95.3815002589
 21
26.939211691
  0
LINE
  5
47A
100
AcDbEntity
  8
RACCORDO
100
AcDbLine
 62
250
  6
CONTINUOUS
 10
-95.3815002589
 20
26.939211691
 11
-95.3807324474
 21
27.2775464076
  0
LINE
  5
47B
100
AcDbEntity
  8
RACCORDO
100
AcDbLine
 62
250
  6
CONTINUOUS
 10
-95.3812892729
 20
22.194318587
 11
-95.3847701125
 21
22.1946065484
  0
SPLINE
  5
47C
100
AcDbEntity
  8
RACCORDO
100
AcDbSpline
 62
250
  6
CONTINUOUS
 70
0
 71
3
 72
9
 73
5
 74
0
 42
0.0000001
 43
0.0000001
 44
0.0000000001
 40
0.0
 40
0.0
 40
0.0
 40
0.0
 40
0.1177732904
 40
1.0
 40
1.0
 40
1.0
 40
1.0
 10
-95.3847701125
 20
22.1946065484
 30
0.0
 10
-95.3896819152
 20
22.1948667655
 30
0.0
 10
-95.4314398069
 20
22.1959025533
 30
0.0
 10
-95.4731991539
 20
22.1963094704
 30
0.0
 10
-95.5100425434
 20
22.1966913704
 30
0.0
  0
SPLINE
  5
47D
100
AcDbEntity
  8
RACCORDO
100
AcDbSpline
 62
250
  6
CONTINUOUS
 70
0
 71
3
 72
18
 73
14
 74
0
 42
0.0000001
 43
0.0000001
 44
0.0000000001
 40
0.0
 40
0.0
 40
0.0
 40
0.0
 40
0.0019591519
 40
0.0078131406
 40
0.019049332
 40
0.0369238496
 40
0.0624053721
 40
0.0960754089
 40
0.1898917091
 40
0.3212404448
 40
0.4938428099
 40
0.715579441
 40
1.0
 40
1.0
 40
1.0
 40
1.0
 10
-94.6961150222
 20
-41.1803903743
 30
0.0
 10
-94.6959019265
 20
-41.1811955631
 30
0.0
 10
-94.6919255644
 20
-41.1822143203
 30
0.0
 10
-94.6847260271
 20
-41.1834985478
 30
0.0
 10
-94.6693704589
 20
-41.1847248315
 30
0.0
 10
-94.6464603739
 20
-41.185761428
 30
0.0
 10
-94.6136002165
 20
-41.1866303713
 30
0.0
 10
-94.5486402244
 20
-41.1874870832
 30
0.0
 10
-94.4385462854
 20
-41.1873797542
 30
0.0
 10
-94.2694717993
 20
-41.1856560123
 30
0.0
 10
-94.0460116673
 20
-41.1811735317
 30
0.0
 10
-93.7575980407
 20
-41.17172599
 30
0.0
 10
-93.5425821672
 20
-41.1631216523
 30
0.0
 10
-93.4217405208
 20
-41.1588259947
 30
0.0
  0
SPLINE
  5
47E
100
AcDbEntity
  8
RACCORDO
100
AcDbSpline
 62
7
  6
CONTINUOUS
 70
0
 71
3
 72
9
 73
5
 74
0
 42
0.0000001
 43
0.0000001
 44
0.0000000001
 40
0.0
 40
0.0
 40
0.0
 40
0.0
 40
0.5186230259
 40
1.0
 40
1.0
 40
1.0
 40
1.0
 10
-68.4949769592
 20
17.9331947916
 30
0.0
 10
-68.4949769592
 20
17.9499781479
 30
0.0
 10
-68.5047519376
 20
17.9864715841
 30
0.0
 10
-68.5405816885
 20
17.9958405316
 30
0.0
 10
-68.5561556385
 20
17.9961967234
 30
0.0
  0
SPLINE
  5
47F
100
AcDbEntity
  8
RACCORDO
100
AcDbSpline
 62
250
  6
CONTINUOUS
 70
0
 71
3
 72
9
 73
5
 74
0
 42
0.0000001
 43
0.0000001
 44
0.0000000001
 40
0.0
 40
0.0
 40
0.0
 40
0.0
 40
0.4551608063
 40
1.0
 40
1.0
 40
1.0
 40
1.0
 10
-85.3973619126
 20
41.9042846023
 30
0.0
 10
-85.0471749066
 20
41.6611024347
 30
0.0
 10
-84.3588130308
 20
41.0050935164
 30
0.0
 10
-83.882508185
 20
40.1818417328
 30
0.0
 10
-83.6864806885
 20
39.7106475416
 30
0.0
  0
SPLINE
  5
480
100
AcDbEntity
  8
RACCORDO
100
AcDbSpline
 62
250
  6
CONTINUOUS
 70
0
 71
3
 72
9
 73
5
 74
0
 42
0.0000001
 43
0.0000001
 44
0.0000000001
 40
0.0
 40
0.0
 40
0.0
 40
0.0
 40
0.245099572
 40
1.0
 40
1.0
 40
1.0
 40
1.0
 10
-83.6864806885
 20
39.7106475416
 30
0.0
 10
-83.64678236
 20
39.6152240824
 30
0.0
 10
-83.4951041214
 20
39.2216691255
 30
0.0
 10
-83.3846510722
 20
38.8124546289
 30
0.0
 10
-83.3238209987
 20
38.5
 30
0.0
  0
SPLINE
  5
481
100
AcDbEntity
  8
RACCORDO
100
AcDbSpline
 62
7
  6
CONTINUOUS
 70
0
 71
3
 72
9
 73
5
 74
0
 42
0.0000001
 43
0.0000001
 44
0.0000000001
 40
0.0
 40
0.0
 40
0.0
 40
0.0
 40
0.2323251024
 40
1.0
 40
1.0
 40
1.0
 40
1.0
 10
-68.641507019
 20
25.3599034902
 30
0.0
 10
-68.6536587245
 20
25.3600095366
 30
0.0
 10
-68.70600644
 20
25.3561084724
 30
0.0
 10
-68.756446308
 20
25.3378923681
 30
0.0
 10
-68.7923589985
 20
25.3199294028
 30
0.0
  0
SPLINE
  5
482
100
AcDbEntity
  8
RACCORDO
100
AcDbSpline
 62
250
  6
CONTINUOUS
 70
0
 71
3
 72
10
 73
6
 74
0
 42
0.0000001
 43
0.0000001
 44
0.0000000001
 40
0.0
 40
0.0
 40
0.0
 40
0.0
 40
0.227950497
 40
0.4707928467
 40
1.0
 40
1.0
 40
1.0
 40
1.0
 10
-68.4949769592
 20
23.7414133366
 30
0.0
 10
-68.4949769592
 20
23.7733750156
 30
0.0
 10
-68.5119915285
 20
23.8401963792
 30
0.0
 10
-68.6039548416
 20
23.9504645652
 30
0.0
 10
-68.7181590349
 20
23.9859579052
 30
0.0
 10
-68.7923589985
 20
23.9864873566
 30
0.0
  0
SPLINE
  5
483
100
AcDbEntity
  8
RACCORDO
100
AcDbSpline
 62
250
  6
CONTINUOUS
 70
0
 71
3
 72
11
 73
7
 74
0
 42
0.0000001
 43
0.0000001
 44
0.0000000001
 40
0.0
 40
0.0
 40
0.0
 40
0.0
 40
0.2024803532
 40
0.4220381497
 40
0.6797438822
 40
1.0
 40
1.0
 40
1.0
 40
1.0
 10
-68.7923589985
 20
23.9864873566
 30
0.0
 10
-68.7923754136
 20
23.9128228225
 30
0.0
 10
-68.8163833085
 20
23.7582515673
 30
0.0
 10
-68.9327644328
 20
23.5347905841
 30
0.0
 10
-69.1559210459
 20
23.3379848258
 30
0.0
 10
-69.3697413709
 20
23.2801517798
 30
0.0
 10
-69.4862504237
 20
23.2792388886
 30
0.0
  0
SPLINE
  5
484
100
AcDbEntity
  8
RACCORDO
100
AcDbSpline
 62
250
  6
CONTINUOUS
 70
0
 71
3
 72
17
 73
13
 74
0
 42
0.0000001
 43
0.0000001
 44
0.0000000001
 40
0.0
 40
0.0
 40
0.0
 40
0.0
 40
0.0071299341
 40
0.027244328
 40
0.0600020762
 40
0.1048316383
 40
0.1605721898
 40
0.2258011781
 40
0.3786191519
 40
0.5485099813
 40
0.7193521858
 40
1.0
 40
1.0
 40
1.0
 40
1.0
 10
-69.4862503178
 20
22.7414514145
 30
0.0
 10
-69.4849714247
 20
22.7414625752
 30
0.0
 10
-69.4853876962
 20
22.7489154971
 30
0.0
 10
-69.4833625602
 20
22.7572122581
 30
0.0
 10
-69.4831117595
 20
22.7760612288
 30
0.0
 10
-69.4820824677
 20
22.7993909656
 30
0.0
 10
-69.4815591213
 20
22.8293378994
 30
0.0
 10
-69.4808704795
 20
22.878352146
 30
0.0
 10
-69.4806322999
 20
22.9479942921
 30
0.0
 10
-69.4810006889
 20
23.0365065794
 30
0.0
 10
-69.4824050659
 20
23.1479634295
 30
0.0
 10
-69.4841338994
 20
23.2289418117
 30
0.0
 10
-69.4862504237
 20
23.2792388887
 30
0.0
  0
LINE
  5
485
100
AcDbEntity
  8
RACCORDO
100
AcDbLine
 62
250
  6
CONTINUOUS
 10
-69.4862504237
 20
23.2792388886
 11
-73.4949769637
 21
23.2436087016
  0
SPLINE
  5
486
100
AcDbEntity
  8
RACCORDO
100
AcDbSpline
 62
250
  6
CONTINUOUS
 70
0
 71
3
 72
10
 73
6
 74
0
 42
0.0000001
 43
0.0000001
 44
0.0000000001
 40
0.0
 40
0.0
 40
0.0
 40
0.0
 40
0.2279515352
 40
0.4707938232
 40
1.0
 40
1.0
 40
1.0
 40
1.0
 10
-68.4949769592
 20
-23.7414133366
 30
0.0
 10
-68.4949769592
 20
-23.7733751977
 30
0.0
 10
-68.5119913136
 20
-23.840196827
 30
0.0
 10
-68.6039546422
 20
-23.9504653028
 30
0.0
 10
-68.7181590838
 20
-23.9859583558
 30
0.0
 10
-68.7923589985
 20
-23.9864873566
 30
0.0
  0
SPLINE
  5
487
100
AcDbEntity
  8
RACCORDO
100
AcDbSpline
 62
7
  6
CONTINUOUS
 70
0
 71
3
 72
9
 73
5
 74
0
 42
0.0000001
 43
0.0000001
 44
0.0000000001
 40
0.0
 40
0.0
 40
0.0
 40
0.0
 40
0.2323251024
 40
1.0
 40
1.0
 40
1.0
 40
1.0
 10
-68.641507019
 20
-25.3599034902
 30
0.0
 10
-68.6536587245
 20
-25.3600095366
 30
0.0
 10
-68.70600644
 20
-25.3561084724
 30
0.0
 10
-68.756446308
 20
-25.3378923681
 30
0.0
 10
-68.7923589985
 20
-25.3199294028
 30
0.0
  0
SPLINE
  5
488
100
AcDbEntity
  8
RACCORDO
100
AcDbSpline
 62
250
  6
CONTINUOUS
 70
0
 71
3
 72
17
 73
13
 74
0
 42
0.0000001
 43
0.0000001
 44
0.0000000001
 40
0.0
 40
0.0
 40
0.0
 40
0.0
 40
0.0071720312
 40
0.0273193066
 40
0.060100824
 40
0.1049432647
 40
0.1606862247
 40
0.2259085828
 40
0.3786933351
 40
0.5485445462
 40
0.7193603644
 40
1.0
 40
1.0
 40
1.0
 40
1.0
 10
-69.4862508779
 20
-22.7415155739
 30
0.0
 10
-69.4849649399
 20
-22.741548443
 30
0.0
 10
-69.485366511
 20
-22.7489668634
 30
0.0
 10
-69.483337005
 20
-22.757328295
 30
0.0
 10
-69.4830707577
 20
-22.7761586264
 30
0.0
 10
-69.4820342122
 20
-22.7995052337
 30
0.0
 10
-69.4815022701
 20
-22.8294456862
 30
0.0
 10
-69.4808057857
 20
-22.8784500653
 30
0.0
 10
-69.4805633859
 20
-22.9480694272
 30
0.0
 10
-69.4809356564
 20
-23.0365550993
 30
0.0
 10
-69.4823566676
 20
-23.1479865443
 30
0.0
 10
-69.4841072362
 20
-23.2289501224
 30
0.0
 10
-69.486250419
 20
-23.2792393144
 30
0.0
  0
SPLINE
  5
489
100
AcDbEntity
  8
RACCORDO
100
AcDbSpline
 62
250
  6
CONTINUOUS
 70
0
 71
3
 72
11
 73
7
 74
0
 42
0.0000001
 43
0.0000001
 44
0.0000000001
 40
0.0
 40
0.0
 40
0.0
 40
0.0
 40
0.3202559589
 40
0.5779617779
 40
0.7975196455
 40
1.0
 40
1.0
 40
1.0
 40
1.0
 10
-69.4862504237
 20
-23.2792388886
 30
0.0
 10
-69.3697414347
 20
-23.2801521362
 30
0.0
 10
-69.1559212547
 20
-23.3379849571
 30
0.0
 10
-68.9327644089
 20
-23.5347904915
 30
0.0
 10
-68.8163831177
 20
-23.7582515309
 30
0.0
 10
-68.7923755534
 20
-23.9128228241
 30
0.0
 10
-68.7923589985
 20
-23.9864873566
 30
0.0
  0
LINE
  5
48A
100
AcDbEntity
  8
RACCORDO
100
AcDbLine
 62
250
  6
CONTINUOUS
 10
-73.4949769637
 20
-23.2436087016
 11
-69.4862504237
 21
-23.2792388886
  0
LINE
  5
48B
100
AcDbEntity
  8
RACCORDO
100
AcDbLine
 62
250
  6
CONTINUOUS
 10
-73.4949769575
 20
-17.0257129123
 11
-68.4949769592
 21
-17.0116133084
  0
SPLINE
  5
48C
100
AcDbEntity
  8
RACCORDO
100
AcDbSpline
 62
250
  6
CONTINUOUS
 70
0
 71
3
 72
8
 73
4
 74
0
 42
0.0000001
 43
0.0000001
 44
0.0000000001
 40
0.0
 40
0.0
 40
0.0
 40
0.0
 40
1.0
 40
1.0
 40
1.0
 40
1.0
 10
-68.4949769592
 20
-17.877236189
 30
0.0
 10
-70.1616395454
 20
-17.920419762
 30
0.0
 10
-71.8283062107
 20
-17.9634461753
 30
0.0
 10
-73.4949768362
 20
-18.0063183498
 30
0.0
  0
LINE
  5
48D
100
AcDbEntity
  8
RACCORDO
100
AcDbLine
 62
250
  6
CONTINUOUS
 10
-73.4949768686
 20
18.0063183745
 11
-68.7923589985
 21
17.8849392887
  0
SPLINE
  5
48E
100
AcDbEntity
  8
RACCORDO
100
AcDbSpline
 62
7
  6
CONTINUOUS
 70
0
 71
3
 72
9
 73
5
 74
0
 42
0.0000001
 43
0.0000001
 44
0.0000000001
 40
0.0
 40
0.0
 40
0.0
 40
0.0
 40
0.4993205395
 40
1.0
 40
1.0
 40
1.0
 40
1.0
 10
-68.6179691302
 20
17.0119601223
 30
0.0
 10
-68.5718873704
 20
16.9545167633
 30
0.0
 10
-68.5120594283
 20
16.8141888093
 30
0.0
 10
-68.4949769592
 20
16.6666487727
 30
0.0
 10
-68.4949769592
 20
16.5928055094
 30
0.0
  0
LINE
  5
48F
100
AcDbEntity
  8
RACCORDO
100
AcDbLine
 62
250
  6
CONTINUOUS
 10
-68.6179691302
 20
17.0119601223
 11
-73.4949769576
 21
17.0257128916
  0
SPLINE
  5
490
100
AcDbEntity
  8
RACCORDO
100
AcDbSpline
 62
7
  6
CONTINUOUS
 70
0
 71
3
 72
9
 73
5
 74
0
 42
0.0000001
 43
0.0000001
 44
0.0000000001
 40
0.0
 40
0.0
 40
0.0
 40
0.0
 40
0.2576516422
 40
1.0
 40
1.0
 40
1.0
 40
1.0
 10
-68.6179694242
 20
17.0119606319
 30
0.0
 10
-68.6313021993
 20
17.0285806436
 30
0.0
 10
-68.6849329752
 20
17.0915487397
 30
0.0
 10
-68.7448357922
 20
17.1492039319
 30
0.0
 10
-68.7923589985
 20
17.1880660433
 30
0.0
  0
SPLINE
  5
491
100
AcDbEntity
  8
RACCORDO
100
AcDbSpline
 62
250
  6
CONTINUOUS
 70
0
 71
3
 72
18
 73
14
 74
0
 42
0.0000001
 43
0.0000001
 44
0.0000000001
 40
0.0
 40
0.0
 40
0.0
 40
0.0
 40
0.1956085565
 40
0.3839787883
 40
0.5569201636
 40
0.7081306781
 40
0.8320486486
 40
0.8823533417
 40
0.924185095
 40
0.9570750254
 40
0.9807885931
 40
0.9951510998
 40
1.0
 40
1.0
 40
1.0
 40
1.0
 10
-82.9894641683
 20
-38.5
 30
0.0
 10
-83.0224259221
 20
-38.4998291363
 30
0.0
 10
-83.0871303841
 20
-38.4995259399
 30
0.0
 10
-83.1809748258
 20
-38.4991840033
 30
0.0
 10
-83.2673470512
 20
-38.4989643794
 30
0.0
 10
-83.3428309957
 20
-38.4989014724
 30
0.0
 10
-83.3977208198
 20
-38.498906215
 30
0.0
 10
-83.4340475297
 20
-38.4990916268
 30
0.0
 10
-83.4552903671
 20
-38.4990669412
 30
0.0
 10
-83.4714187059
 20
-38.4995836643
 30
0.0
 10
-83.4844266022
 20
-38.4989072916
 30
0.0
 10
-83.4897945613
 20
-38.500589577
 30
0.0
 10
-83.4949767866
 20
-38.4991829069
 30
0.0
 10
-83.4949769592
 20
-38.5
 30
0.0
  0
SPLINE
  5
492
100
AcDbEntity
  8
RACCORDO
100
AcDbSpline
 62
250
  6
CONTINUOUS
 70
0
 71
3
 72
14
 73
10
 74
0
 42
0.0000001
 43
0.0000001
 44
0.0000000001
 40
0.0
 40
0.0
 40
0.0
 40
0.0
 40
0.3833847271
 40
0.5560550618
 40
0.7070287384
 40
0.8307679666
 40
0.9228309143
 40
0.9795967341
 40
1.0
 40
1.0
 40
1.0
 40
1.0
 10
-83.2008549394
 20
37.5
 30
0.0
 10
-83.2384793961
 20
37.4984982379
 30
0.0
 10
-83.2931187291
 20
37.4966906669
 30
0.0
 10
-83.3624225584
 20
37.4954027597
 30
0.0
 10
-83.4066591981
 20
37.4949370518
 30
0.0
 10
-83.4418601192
 20
37.4954665051
 30
0.0
 10
-83.4705891971
 20
37.495563846
 30
0.0
 10
-83.4835798928
 20
37.4980224432
 30
0.0
 10
-83.4949769592
 20
37.4979960781
 30
0.0
 10
-83.4949769592
 20
37.5
 30
0.0
  0
SPLINE
  5
493
100
AcDbEntity
  8
RACCORDO
100
AcDbSpline
 62
250
  6
CONTINUOUS
 70
0
 71
3
 72
9
 73
5
 74
0
 42
0.0000001
 43
0.0000001
 44
0.0000000001
 40
0.0
 40
0.0
 40
0.0
 40
0.0
 40
0.2499979492
 40
1.0
 40
1.0
 40
1.0
 40
1.0
 10
-83.2008549394
 20
37.5
 30
0.0
 10
-82.9483207366
 20
31.1712085292
 30
0.0
 10
-82.3615682579
 20
5.837894749
 30
0.0
 10
-82.9039544587
 20
-19.4985010702
 30
0.0
 10
-82.9894641756
 20
-38.5
 30
0.0
  0
SPLINE
  5
494
100
AcDbEntity
  8
RACCORDO
100
AcDbSpline
 62
250
  6
CONTINUOUS
 70
0
 71
3
 72
14
 73
10
 74
0
 42
0.0000001
 43
0.0000001
 44
0.0000000001
 40
0.0
 40
0.0
 40
0.0
 40
0.0
 40
0.3833974468
 40
0.5560828989
 40
0.7070713653
 40
0.8308207984
 40
0.9228853962
 40
0.9796391562
 40
1.0
 40
1.0
 40
1.0
 40
1.0
 10
-83.3238209909
 20
38.4999999623
 30
0.0
 10
-83.3555371816
 20
38.4933825083
 30
0.0
 10
-83.4016496516
 20
38.4840852337
 30
0.0
 10
-83.460278907
 20
38.4731379106
 30
0.0
 10
-83.4977549136
 20
38.4664452823
 30
0.0
 10
-83.5276972781
 20
38.461886004
 30
0.0
 10
-83.552098363
 20
38.4578573009
 30
0.0
 10
-83.5634481233
 20
38.4581075672
 30
0.0
 10
-83.5731263028
 20
38.4564253316
 30
0.0
 10
-83.573406115
 20
38.4581230301
 30
0.0
  0
SPLINE
  5
495
100
AcDbEntity
  8
RACCORDO
100
AcDbSpline
 62
7
  6
CONTINUOUS
 70
0
 71
3
 72
9
 73
5
 74
0
 42
0.0000001
 43
0.0000001
 44
0.0000000001
 40
0.0
 40
0.0
 40
0.0
 40
0.0
 40
0.2288820134
 40
1.0
 40
1.0
 40
1.0
 40
1.0
 10
-68.5561556385
 20
17.9961967234
 30
0.0
 10
-68.5605417938
 20
17.9962970391
 30
0.0
 10
-68.5797325048
 20
17.9955925741
 30
0.0
 10
-68.5986256684
 20
17.9912204837
 30
0.0
 10
-68.6127443126
 20
17.9868450091
 30
0.0
  0
SPLINE
  5
496
100
AcDbEntity
  8
RACCORDO
100
AcDbSpline
 62
7
  6
CONTINUOUS
 70
0
 71
3
 72
9
 73
5
 74
0
 42
0.0000001
 43
0.0000001
 44
0.0000000001
 40
0.0
 40
0.0
 40
0.0
 40
0.0
 40
0.2195164314
 40
1.0
 40
1.0
 40
1.0
 40
1.0
 10
-68.6127443126
 20
17.9868450091
 30
0.0
 10
-68.6272218823
 20
17.9823583007
 30
0.0
 10
-68.6915293742
 20
17.9566954119
 30
0.0
 10
-68.7496924891
 20
17.9178593418
 30
0.0
 10
-68.7923589985
 20
17.8849401429
 30
0.0
  0
ELLIPSE
  5
497
100
AcDbEntity
  8
RACCORDO
100
AcDbEllipse
 62
7
  6
CONTINUOUS
 10
-19.2
 20
-42.192136594
 30
0.0
 11
-0.0
 21
0.2020668318
 31
0.0
 40
0.9897715436
 41
-2.1118483949
 42
-1.8613020533
  0
ELLIPSE
  5
498
100
AcDbEntity
  8
RACCORDO
100
AcDbEllipse
 62
7
  6
CONTINUOUS
 10
19.2
 20
-42.192136594
 30
0.0
 11
-0.0
 21
0.2020668318
 31
0.0
 40
0.9897715436
 41
-4.4218832539
 42
-4.1713369123
  0
ELLIPSE
  5
499
100
AcDbEntity
  8
ASSI
100
AcDbEllipse
 62
7
  6
CONTINUOUS
 10
43.6505061299
 20
37.5
 30
0.0
 11
0.0
 21
5.7
 31
0.0
 40
0.0174550649
 41
-1.5707963268
 42
-1.3962267931
  0
ELLIPSE
  5
49A
100
AcDbEntity
  8
ASSI
100
AcDbEllipse
 62
7
  6
CONTINUOUS
 10
-43.6505061299
 20
37.5
 30
0.0
 11
0.0
 21
5.7
 31
0.0
 40
0.0174550649
 41
1.3962268494
 42
1.5707963268
  0
ELLIPSE
  5
49B
100
AcDbEntity
  8
0
100
AcDbEllipse
 62
7
  6
CONTINUOUS
 10
-39.99
 20
38.4241020879
 30
0.0
 11
-0.0
 21
3.7752888549
 31
0.0
 40
0.9998476487
 41
0.0
 42
0.1355240609
  0
ELLIPSE
  5
49C
100
AcDbEntity
  8
0
100
AcDbEllipse
 62
7
  6
CONTINUOUS
 10
39.99
 20
38.4241020879
 30
0.0
 11
0.0
 21
3.7752888549
 31
0.0
 40
0.9998476487
 41
-0.1355240609
 42
0.0
  0
ENDSEC
  0
SECTION
  2
OBJECTS
  0
DICTIONARY
  5
C
100
AcDbDictionary
280
0
281
1
  3
ACAD_GROUP
350
D
  3
ACAD_MLINESTYLE
350
17
  3
ACAD_LAYOUT
350
1A
  3
ACAD_PLOTSETTINGS
350
19
  3
ACAD_PLOTSTYLENAME
350
E
  0
DICTIONARY
  5
D
102
{ACAD_REACTORS
330
C
102
}
100
AcDbDictionary
280
0
281
1
  0
ACDBDICTIONARYWDFLT
  5
E
102
{ACAD_REACTORS
330
C
102
}
100
AcDbDictionary
281
1
  3
Normal
350
F
100
AcDbDictionaryWithDefault
340
F
  0
DICTIONARY
  5
17
102
{ACAD_REACTORS
330
C
102
}
100
AcDbDictionary
280
0
281
1
  3
Standard
350
18
  0
DICTIONARY
  5
19
102
{ACAD_REACTORS
330
C
102
}
100
AcDbDictionary
281
1
  0
DICTIONARY
  5
1A
102
{ACAD_REACTORS
330
C
102
}
100
AcDbDictionary
281
1
  3
Model
350
49D
  3
Layout1
350
49E
  0
ACDBPLACEHOLDER
  5
F
102
{ACAD_REACTORS
330
E
102
}
  0
MLINESTYLE
  5
18
102
{ACAD_REACTORS
330
17
102
}
100
AcDbMlineStyle
  2
STANDARD
 70
0
  3

 62
256
 51
90.0
 52
90.0
 71
2
 49
0.5
 62
256
  6
BYLAYER
 49
-0.5
 62
256
  6
BYLAYER
  0
LAYOUT
  5
49D
102
{ACAD_REACTORS
330
1A
102
}
100
AcDbPlotSettings
  1

  2
none_device
  4
ANSI_C_(22.00_x_17.00_Inches)
  6

 40
0.0
 41
0.0
 42
0.0
 43
0.0
 44
558.8
 45
431.8
 46
0.0
 47
0.0
 48
0.0
 49
0.0
140
0.0
141
0.0
142
1.0
143
1.0
 70
1024
 72
1
 73
0
 74
0
  7

 75
0
147
1.0
148
0.0
149
0.0
100
AcDbLayout
  1
Model
 70
0
 71
0
 10
0.0
 20
0.0
 11
558.8
 21
431.8
 12
0.0
 22
0.0
 32
0.0
 14
0.0
 24
0.0
 34
0.0
 15
0.0
 25
0.0
 35
0.0
146
0.0
 13
0.0
 23
0.0
 33
0.0
 16
1.0
 26
0.0
 36
0.0
 17
0.0
 27
1.0
 37
0.0
 76
0
330
216
345
0
346
0
  0
LAYOUT
  5
49E
102
{ACAD_REACTORS
330
1A
102
}
100
AcDbPlotSettings
  1

  2
none_device
  4
ANSI_C_(22.00_x_17.00_Inches)
  6

 40
0.0
 41
0.0
 42
0.0
 43
0.0
 44
558.8
 45
431.8
 46
0.0
 47
0.0
 48
0.0
 49
0.0
140
0.0
141
0.0
142
1.0
143
1.0
 70
0
 72
1
 73
0
 74
0
  7

 75
0
147
1.0
148
0.0
149
0.0
100
AcDbLayout
  1
Layout1
 70
0
 71
1
 10
0.0
 20
0.0
 11
558.8
 21
431.8
 12
0.0
 22
0.0
 32
0.0
 14
0.0
 24
0.0
 34
0.0
 15
0.0
 25
0.0
 35
0.0
146
0.0
 13
0.0
 23
0.0
 33
0.0
 16
1.0
 26
0.0
 36
0.0
 17
0.0
 27
1.0
 37
0.0
 76
0
330
217
345
0
346
0
  0
ENDSEC
  0
EOF
