0
SECTION
2
HEADER
9
$ACADVER
1
AC1015
9
$DWGCODEPAGE
3
ANSI_1252
9
$EXTMAX
10
431.8000000000
20
558.8000000000
30
0.0000000000
9
$EXTMIN
10
0.0000000000
20
0.0000000000
30
0.0000000000
9
$LIMMIN
10
0.0000000000
20
0.0000000000
9
$LIMMAX
10
431.8000000000
20
558.8000000000
9
$VIEWCTR
10
215.9000000000
20
279.4000000000
9
$VIEWSIZE
40
558.8000000000
9
$CLAYER
8
0
9
$LTSCALE
40
36.4254814815
9
$CELTYPE
6
BYLAYER
9
$DIMSCALE
40
1
9
$DIMASZ
40
3.0000000000
9
$DIMEXO
40
4.1392592593
9
$DIMDLI
40
25.1666962963
9
$DIMEXE
40
11.9210666667
9
$DIMCEN
40
5.9605333333
9
$DIMLFAC
40
1.0000000000
9
$DIMBLK
1
_FILLED
9
$DIMTXT
40
3.0000000000
9
$DIMTOL
70
1
9
$DIMLIM
70
0
9
$DIMTFAC
40
1.0000000000
9
$DIMTP
40
0.0100000000
9
$DIMTM
40
0.0100000000
9
$PDMODE
70
3
9
$PDSIZE
40
3.0000000000
9
$HANDSEED
5
3E9
9
$MEASUREMENT
70
1
9
$INSUNITS
70
4
0
ENDSEC
0
SECTION
2
CLASSES
0
CLASS
1
ACDBDICTIONARYWDFLT
2
AcDbDictionaryWithDefault
3
AutoCAD 2000
90
0
280
0
281
0
0
CLASS
1
ACDBPLACEHOLDER
2
AcDbPlaceHolder
3
AutoCAD 2000
90
0
280
0
281
0
0
CLASS
1
LAYOUT
2
AcDbLayout
3
AutoCAD 2000
90
0
280
0
281
0
0
ENDSEC
0
SECTION
2
TABLES
0
TABLE
2
VPORT
5
8
100
AcDbSymbolTable
70
2
0
VPORT
5
1F4
100
AcDbSymbolTableRecord
100
AcDbViewportTableRecord
2
*ACTIVE
70
0
10
0.0
20
0.0
11
1.0
21
1.0
12
215.9000000000
22
279.4000000000
13
0.0
23
0.0
14
1.0
24
1.0
15
0.0
25
0.0
16
0.0
26
0.0
36
1.0
17
0.0
27
0.0
37
0.0
40
558.8000000000
41
0.7727272727
42
50.0
43
0.0
44
0.0
50
0.0
51
0.0
71
0
72
100
73
1
74
1
75
0
76
0
77
0
78
0
0
ENDTAB
0
TABLE
2
LTYPE
5
5
100
AcDbSymbolTable
70
6
0
LTYPE
5
14
100
AcDbSymbolTableRecord
100
AcDbLinetypeTableRecord
2
BYBLOCK
70
0
3

72
65
73
0
40
0.0
0
LTYPE
5
15
100
AcDbSymbolTableRecord
100
AcDbLinetypeTableRecord
2
BYLAYER
70
0
3

72
65
73
0
40
0.0
0
LTYPE
5
16
100
AcDbSymbolTableRecord
100
AcDbLinetypeTableRecord
2
CONTINUOUS
70
64
3
Solid line
72
65
73
0
40
0
0
LTYPE
5
1F5
100
AcDbSymbolTableRecord
100
AcDbLinetypeTableRecord
2
CENTER
70
64
3
____ _ ____ _ ____ _ ____ _ ____ _ ____ _ ____
72
65
73
4
40
0.6
49
0.375
74
0
49
-0.075
74
0
49
0.075
74
0
49
-0.075
74
0
0
LTYPE
5
1F6
100
AcDbSymbolTableRecord
100
AcDbLinetypeTableRecord
2
HIDDEN
70
64
3
- - - - - - - - - - - - - - - - - - - -
72
65
73
2
40
0.2
49
0.1
74
0
49
-0.1
74
0
0
LTYPE
5
1F7
100
AcDbSymbolTableRecord
100
AcDbLinetypeTableRecord
2
PHANTOM
70
64
3
_____ _ _ _____ _ _ _____ _ _ _____
72
65
73
6
40
0.8
49
0.45
74
0
49
-0.05
74
0
49
0.1
74
0
49
-0.05
74
0
49
0.1
74
0
49
-0.05
74
0
0
LTYPE
5
1F8
100
AcDbSymbolTableRecord
100
AcDbLinetypeTableRecord
2
DOT
70
64
3
. . . . . . . . . . . . . . . . . . . .
72
65
73
2
40
0.2
49
0.1
74
0
49
-0.1
74
0
0
LTYPE
5
1F9
100
AcDbSymbolTableRecord
100
AcDbLinetypeTableRecord
2
DASHED
70
64
3
- - - - - - - - - - - - - - - - - - - -
72
65
73
2
40
0.2
49
0.1
74
0
49
-0.1
74
0
0
ENDTAB
0
TABLE
2
LAYER
5
2
100
AcDbSymbolTable
70
36
0
LAYER
5
10
100
AcDbSymbolTableRecord
100
AcDbLayerTableRecord
2
0
70
0
62
7
6
CONTINUOUS
370
-3
390
F
0
LAYER
5
1FA
100
AcDbSymbolTableRecord
100
AcDbLayerTableRecord
2
DEFAULT_1
70
0
62
7
6
CENTER
370
-3
390
F
0
LAYER
5
1FB
100
AcDbSymbolTableRecord
100
AcDbLayerTableRecord
2
DEFAULT_2
70
0
62
8
6
HIDDEN
370
-3
390
F
0
LAYER
5
1FC
100
AcDbSymbolTableRecord
100
AcDbLayerTableRecord
2
DEFAULT_3
70
0
62
7
6
PHANTOM
370
-3
390
F
0
LAYER
5
1FD
100
AcDbSymbolTableRecord
100
AcDbLayerTableRecord
2
_BLACK_HOLE
70
0
62
7
6
CONTINUOUS
370
-3
390
F
0
LAYER
5
1FE
100
AcDbSymbolTableRecord
100
AcDbLayerTableRecord
2
ASSI
70
0
62
7
6
CONTINUOUS
370
-3
390
F
0
LAYER
5
1FF
100
AcDbSymbolTableRecord
100
AcDbLayerTableRecord
2
COLOR5
70
0
62
7
6
CONTINUOUS
370
-3
390
F
0
LAYER
5
200
100
AcDbSymbolTableRecord
100
AcDbLayerTableRecord
2
COORDINATE
70
0
62
7
6
CONTINUOUS
370
-3
390
F
0
LAYER
5
201
100
AcDbSymbolTableRecord
100
AcDbLayerTableRecord
2
COORD_ORIGINE
70
0
62
7
6
CONTINUOUS
370
-3
390
F
0
LAYER
5
202
100
AcDbSymbolTableRecord
100
AcDbLayerTableRecord
2
COPY_GEOM
70
0
62
7
6
CONTINUOUS
370
-3
390
F
0
LAYER
5
203
100
AcDbSymbolTableRecord
100
AcDbLayerTableRecord
2
CURVE
70
0
62
7
6
CONTINUOUS
370
-3
390
F
0
LAYER
5
204
100
AcDbSymbolTableRecord
100
AcDbLayerTableRecord
2
DRAFT
70
0
62
7
6
CONTINUOUS
370
-3
390
F
0
LAYER
5
205
100
AcDbSymbolTableRecord
100
AcDbLayerTableRecord
2
IGS
70
0
62
7
6
CONTINUOUS
370
-3
390
F
0
LAYER
5
206
100
AcDbSymbolTableRecord
100
AcDbLayerTableRecord
2
IMPORT_COPY_GEOM
70
0
62
7
6
CONTINUOUS
370
-3
390
F
0
LAYER
5
207
100
AcDbSymbolTableRecord
100
AcDbLayerTableRecord
2
NOTE
70
0
62
7
6
CONTINUOUS
370
-3
390
F
0
LAYER
5
208
100
AcDbSymbolTableRecord
100
AcDbLayerTableRecord
2
PIANI
70
0
62
7
6
CONTINUOUS
370
-3
390
F
0
LAYER
5
209
100
AcDbSymbolTableRecord
100
AcDbLayerTableRecord
2
PIANI_ORIGINE
70
0
62
7
6
CONTINUOUS
370
-3
390
F
0
LAYER
5
20A
100
AcDbSymbolTableRecord
100
AcDbLayerTableRecord
2
PUNTI
70
0
62
7
6
CONTINUOUS
370
-3
390
F
0
LAYER
5
20B
100
AcDbSymbolTableRecord
100
AcDbLayerTableRecord
2
RACCORDO
70
0
62
7
6
CONTINUOUS
370
-3
390
F
0
LAYER
5
20C
100
AcDbSymbolTableRecord
100
AcDbLayerTableRecord
2
SMUSSO
70
0
62
7
6
CONTINUOUS
370
-3
390
F
0
LAYER
5
20D
100
AcDbSymbolTableRecord
100
AcDbLayerTableRecord
2
SUPERFICI
70
0
62
7
6
CONTINUOUS
370
-3
390
F
0
LAYER
5
20E
100
AcDbSymbolTableRecord
100
AcDbLayerTableRecord
2
TESTO
70
0
62
7
6
CONTINUOUS
370
-3
390
F
0
LAYER
5
20F
100
AcDbSymbolTableRecord
100
AcDbLayerTableRecord
2
TRASH
70
0
62
7
6
CONTINUOUS
370
-3
390
F
0
LAYER
5
210
100
AcDbSymbolTableRecord
100
AcDbLayerTableRecord
2
XSEC_DATUMS
70
0
62
7
6
CONTINUOUS
370
-3
390
F
0
ENDTAB
0
TABLE
2
STYLE
5
3
100
AcDbSymbolTable
70
1
0
STYLE
5
11
100
AcDbSymbolTableRecord
100
AcDbTextStyleTableRecord
2
STANDARD
70
0
40
0.0
41
0.8000000000
50
0.0
71
0
42
0.2
3
txt
4

0
ENDTAB
0
TABLE
2
VIEW
5
6
100
AcDbSymbolTable
70
0
0
ENDTAB
0
TABLE
2
UCS
5
7
100
AcDbSymbolTable
70
0
0
ENDTAB
0
TABLE
2
APPID
5
9
100
AcDbSymbolTable
70
1
0
APPID
5
211
100
AcDbSymbolTableRecord
100
AcDbRegAppTableRecord
2
ACAD
70
0
0
ENDTAB
0
TABLE
2
BLOCK_RECORD
5
1
100
AcDbSymbolTable
70
0
0
BLOCK_RECORD
5
1F
100
AcDbSymbolTableRecord
100
AcDbBlockTableRecord
2
*MODEL_SPACE
0
BLOCK_RECORD
5
1B
100
AcDbSymbolTableRecord
100
AcDbBlockTableRecord
2
*PAPER_SPACE
0
BLOCK_RECORD
5
212
100
AcDbSymbolTableRecord
100
AcDbBlockTableRecord
2
_FILLED
0
BLOCK_RECORD
5
213
100
AcDbSymbolTableRecord
100
AcDbBlockTableRecord
2
*D0
0
BLOCK_RECORD
5
214
100
AcDbSymbolTableRecord
100
AcDbBlockTableRecord
2
*D1
0
BLOCK_RECORD
5
215
100
AcDbSymbolTableRecord
100
AcDbBlockTableRecord
2
*D2
0
ENDTAB
0
TABLE
2
DIMSTYLE
5
A
100
AcDbSymbolTable
70
1
100
AcDbDimStyleTable
71
0
0
DIMSTYLE
105
216
100
AcDbSymbolTableRecord
100
AcDbDimStyleTableRecord
2
STANDARD
70
0
3

4

40
1.0
41
3.0000000000
42
0.0625
43
0.38
44
0.18
45
0.0
46
0.0
47
0.0100000000
48
0.0100000000
140
3.0000000000
141
0.09
142
0.0
143
25.4
144
1.0000000000
145
0.0
146
1.0000000000
147
0.09
71
1
72
0
73
0
74
0
75
0
76
0
77
1
78
8
170
0
171
2
172
0
173
0
174
0
175
0
176
0
177
0
178
0
270
2
271
2
272
2
273
2
274
2
275
0
280
0
281
0
282
0
283
1
284
8
285
0
286
0
287
3
288
0
340
11
341
212
342
212
343
212
344
212
0
DIMSTYLE
105
217
100
AcDbSymbolTableRecord
100
AcDbDimStyleTableRecord
2
DIMSTYLE_1
70
0
3

4

40
1.0
41
3.0000000000
42
0.0625
43
0.38
44
0.18
45
0.0
46
0.0
47
0.0000000000
48
0.0000000000
140
3.0000000000
141
0.09
142
0.0
143
25.4
144
1.0000000000
145
0.0
146
1.0000000000
147
0.09
71
0
72
0
73
0
74
0
75
0
76
0
77
1
78
8
170
0
171
2
172
0
173
0
174
0
175
0
176
0
177
0
178
0
270
2
271
2
272
2
273
2
274
2
275
0
280
0
281
0
282
0
283
1
284
8
285
0
286
0
287
3
288
0
340
11
341
212
342
212
343
212
344
212
0
DIMSTYLE
105
218
100
AcDbSymbolTableRecord
100
AcDbDimStyleTableRecord
2
DIMSTYLE_2
70
0
3

4

40
1.0
41
3.0000000000
42
0.0625
43
0.38
44
0.18
45
0.0
46
0.0
47
0.0000000000
48
0.0000000000
140
3.0000000000
141
0.09
142
0.0
143
25.4
144
1.0000000000
145
0.0
146
1.0000000000
147
0.09
71
0
72
0
73
0
74
0
75
0
76
0
77
1
78
8
170
0
171
2
172
0
173
0
174
0
175
0
176
0
177
0
178
0
270
2
271
0
272
0
273
2
274
2
275
0
280
0
281
0
282
0
283
1
284
8
285
0
286
0
287
3
288
0
340
11
341
212
342
212
343
212
344
212
0
ENDTAB
0
ENDSEC
0
SECTION
2
BLOCKS
0
BLOCK
5
20
100
AcDbEntity
8
0
100
AcDbBlockBegin
2
*MODEL_SPACE
70
0
10
0.0
20
0.0
30
0.0
3
*MODEL_SPACE
1

0
ENDBLK
5
21
100
AcDbEntity
8
0
100
AcDbBlockEnd
0
BLOCK
5
1C
100
AcDbEntity
8
0
100
AcDbBlockBegin
2
*PAPER_SPACE
70
0
10
0.0
20
0.0
30
0.0
3
*PAPER_SPACE
1

0
ENDBLK
5
1D
100
AcDbEntity
8
0
100
AcDbBlockEnd
0
BLOCK
5
219
100
AcDbEntity
8
0
100
AcDbBlockBegin
62
2
6
CONTINUOUS
2
*D0
70
65
10
0.0000000000
20
0.0000000000
3
*D0
1

0
TEXT
5
21A
100
AcDbEntity
8
0
100
AcDbText
62
2
6
CONTINUOUS
10
69.2143178342
20
-2.2909938189
7
STANDARD
40
3.0000000000
1
85
50
90.0000000000
41
0.7500000000
72
0
100
AcDbText
0
LINE
5
21B
100
AcDbEntity
8
0
100
AcDbLine
62
2
6
CONTINUOUS
10
57.5000000000
20
42.5000000000
11
71.4643178342
21
42.5000000000
0
LINE
5
21C
100
AcDbEntity
8
0
100
AcDbLine
62
2
6
CONTINUOUS
10
57.5000000000
20
-42.5000000000
11
71.4643178342
21
-42.5000000000
0
LINE
5
21D
100
AcDbEntity
8
0
100
AcDbLine
62
2
6
CONTINUOUS
10
69.9643178342
20
42.5000000000
11
69.9643178342
21
0.0000000000
0
LINE
5
21E
100
AcDbEntity
8
0
100
AcDbLine
62
2
6
CONTINUOUS
10
69.9643178342
20
-42.5000000000
11
69.9643178342
21
0.0000000000
0
INSERT
5
21F
100
AcDbEntity
8
0
100
AcDbBlockReference
62
2
6
CONTINUOUS
2
_FILLED
10
69.9643178342
20
42.5000000000
41
  3.000000
42
  3.000000
43
  3.000000
50
 90.000000
0
INSERT
5
220
100
AcDbEntity
8
0
100
AcDbBlockReference
62
2
6
CONTINUOUS
2
_FILLED
10
69.9643178342
20
-42.5000000000
41
  3.000000
42
  3.000000
43
  3.000000
50
270.000000
0
ENDBLK
5
221
100
AcDbEntity
8
0
6
BYBLOCK
62
0
100
AcDbBlockEnd
0
BLOCK
5
222
100
AcDbEntity
8
0
100
AcDbBlockBegin
62
2
6
CONTINUOUS
2
*D1
70
65
10
0.0000000000
20
0.0000000000
3
*D1
1

0
TEXT
5
223
100
AcDbEntity
8
0
100
AcDbText
62
2
6
CONTINUOUS
10
-3.7666210725
20
50.0196562365
7
STANDARD
40
3.0000000000
1
122
41
0.7142857143
72
0
100
AcDbText
0
LINE
5
224
100
AcDbEntity
8
0
100
AcDbLine
62
2
6
CONTINUOUS
10
61.0000000000
20
39.0000000000
11
61.0000000000
21
50.7696562365
0
LINE
5
225
100
AcDbEntity
8
0
100
AcDbLine
62
2
6
CONTINUOUS
10
-61.0000000000
20
39.0000000000
11
-61.0000000000
21
50.7696562365
0
LINE
5
226
100
AcDbEntity
8
0
100
AcDbLine
62
2
6
CONTINUOUS
10
61.0000000000
20
49.2696562365
11
0.0000000000
21
49.2696562365
0
LINE
5
227
100
AcDbEntity
8
0
100
AcDbLine
62
2
6
CONTINUOUS
10
-61.0000000000
20
49.2696562365
11
0.0000000000
21
49.2696562365
0
INSERT
5
228
100
AcDbEntity
8
0
100
AcDbBlockReference
62
2
6
CONTINUOUS
2
_FILLED
10
61.0000000000
20
49.2696562365
41
  3.000000
42
  3.000000
43
  3.000000
0
INSERT
5
229
100
AcDbEntity
8
0
100
AcDbBlockReference
62
2
6
CONTINUOUS
2
_FILLED
10
-61.0000000000
20
49.2696562365
41
  3.000000
42
  3.000000
43
  3.000000
50
180.000000
0
ENDBLK
5
22A
100
AcDbEntity
8
0
6
BYBLOCK
62
0
100
AcDbBlockEnd
0
BLOCK
5
22B
100
AcDbEntity
8
0
100
AcDbBlockBegin
62
2
6
CONTINUOUS
2
*D2
70
65
10
0.0000000000
20
0.0000000000
3
*D2
1

0
TEXT
5
22C
100
AcDbEntity
8
0
100
AcDbText
62
2
6
CONTINUOUS
10
-88.9185631142
20
50.5268565078
7
STANDARD
40
3.0000000000
1
22
41
0.7857142857
72
0
100
AcDbText
0
LINE
5
22D
100
AcDbEntity
8
0
100
AcDbLine
62
2
6
CONTINUOUS
10
-76.6270697426
20
43.0000000000
11
-76.6270697426
21
51.2768565078
0
LINE
5
22E
100
AcDbEntity
8
0
100
AcDbLine
62
2
6
CONTINUOUS
10
-98.4270697426
20
22.7000000000
11
-98.4270697426
21
51.2768565078
0
LINE
5
22F
100
AcDbEntity
8
0
100
AcDbLine
62
2
6
CONTINUOUS
10
-76.6270697426
20
49.7768565078
11
-87.5270697426
21
49.7768565078
0
LINE
5
230
100
AcDbEntity
8
0
100
AcDbLine
62
2
6
CONTINUOUS
10
-98.4270697426
20
49.7768565078
11
-87.5270697426
21
49.7768565078
0
INSERT
5
231
100
AcDbEntity
8
0
100
AcDbBlockReference
62
2
6
CONTINUOUS
2
_FILLED
10
-76.6270697426
20
49.7768565078
41
  3.000000
42
  3.000000
43
  3.000000
0
INSERT
5
232
100
AcDbEntity
8
0
100
AcDbBlockReference
62
2
6
CONTINUOUS
2
_FILLED
10
-98.4270697426
20
49.7768565078
41
  3.000000
42
  3.000000
43
  3.000000
50
180.000000
0
ENDBLK
5
233
100
AcDbEntity
8
0
6
BYBLOCK
62
0
100
AcDbBlockEnd
0
BLOCK
5
234
100
AcDbEntity
8
0
100
AcDbBlockBegin
2
_FILLED
70
64
10
0.0000000000
20
0.0000000000
3
_FILLED
1

0
SOLID
5
235
100
AcDbEntity
8
0
6
BYBLOCK
62
0
100
AcDbTrace
10
0.0000000000
20
0.0000000000
11
-1.0000000000
21
0.3166666667
12
-1.0000000000
22
-0.3166666667
13
-1.0000000000
23
-0.3166666667
0
ENDBLK
5
236
100
AcDbEntity
8
0
6
BYBLOCK
62
0
100
AcDbBlockEnd
0
ENDSEC
0
SECTION
2
ENTITIES
0
DIMENSION
5
237
100
AcDbEntity
8
0
100
AcDbDimension
62
2
6
CONTINUOUS
2
*D0
10
69.9643178342
20
-42.5000000000
11
67.7143178342
21
-0.0409938189
70
160
3
DIMSTYLE_1
100
AcDbAlignedDimension
13
57.5000000000
23
42.5000000000
14
57.5000000000
24
-42.5000000000
50
270.000000
100
AcDbRotatedDimension
0
DIMENSION
5
238
100
AcDbEntity
8
0
100
AcDbDimension
62
2
6
CONTINUOUS
2
*D1
10
-61.0000000000
20
49.2696562365
11
-0.5523353582
21
51.5196562365
70
160
3
DIMSTYLE_1
100
AcDbAlignedDimension
13
61.0000000000
23
39.0000000000
14
-61.0000000000
24
39.0000000000
50
180.000000
100
AcDbRotatedDimension
0
DIMENSION
5
239
100
AcDbEntity
8
0
100
AcDbDimension
62
2
6
CONTINUOUS
2
*D2
10
-98.4270697426
20
49.7768565078
11
-86.5614202571
21
52.0268565078
70
160
3
DIMSTYLE_2
100
AcDbAlignedDimension
13
-76.6270697426
23
43.0000000000
14
-98.4270697426
24
22.7000000000
50
180.000000
100
AcDbRotatedDimension
0
LINE
5
23A
100
AcDbEntity
8
0
100
AcDbLine
62
7
6
CONTINUOUS
10
-61.0000000000
20
-38.5000000000
11
-61.0000000000
21
38.5000000000
0
LINE
5
23B
100
AcDbEntity
8
0
100
AcDbLine
62
7
6
CONTINUOUS
10
-60.7500000000
20
-38.4900000000
11
-60.7500000000
21
37.5000000000
0
LINE
5
23C
100
AcDbEntity
8
0
100
AcDbLine
62
7
6
CONTINUOUS
10
-48.9694559627
20
-42.5000000000
11
-49.0000000000
21
-42.4389072728
0
LINE
5
23D
100
AcDbEntity
8
0
100
AcDbLine
62
9
6
CONTINUOUS
10
-57.0000000000
20
-42.2496120746
11
-57.0000000000
21
-42.5000000000
0
LINE
5
23E
100
AcDbEntity
8
0
100
AcDbLine
62
9
6
CONTINUOUS
10
-57.0000000000
20
42.3219583377
11
-57.0000000000
21
42.5000000000
0
LINE
5
23F
100
AcDbEntity
8
0
100
AcDbLine
62
9
6
CONTINUOUS
10
-56.9900000000
20
-42.1067205393
11
-56.9900000000
21
-42.2500000000
0
LINE
5
240
100
AcDbEntity
8
0
100
AcDbLine
62
9
6
CONTINUOUS
10
-56.9900000000
20
42.1172542221
11
-56.9900000000
21
42.1993909428
0
LINE
5
241
100
AcDbEntity
8
0
100
AcDbLine
62
7
6
CONTINUOUS
10
-57.0000000000
20
-42.5000000000
11
57.0000000000
21
-42.5000000000
0
LINE
5
242
100
AcDbEntity
8
0
100
AcDbLine
62
7
6
CONTINUOUS
10
-53.0000000000
20
-42.4389072728
11
-49.0000000000
21
-42.4389072728
0
LINE
5
243
100
AcDbEntity
8
0
100
AcDbLine
62
7
6
CONTINUOUS
10
49.0000000000
20
-42.4389072728
11
53.0000000000
21
-42.4389072728
0
LINE
5
244
100
AcDbEntity
8
0
100
AcDbLine
62
9
6
CONTINUOUS
10
26.8000000000
20
-42.3971656547
11
-26.8000000000
21
-42.3971656547
0
LINE
5
245
100
AcDbEntity
8
0
100
AcDbLine
62
9
6
CONTINUOUS
10
57.0000000000
20
-42.3689346966
11
26.8000000000
21
-42.3689346966
0
LINE
5
246
100
AcDbEntity
8
0
100
AcDbLine
62
9
6
CONTINUOUS
10
-57.0000000000
20
-42.3689346966
11
-26.8000000000
21
-42.3689346966
0
LINE
5
247
100
AcDbEntity
8
0
100
AcDbLine
62
7
6
CONTINUOUS
10
-56.9900000000
20
-42.2500000000
11
-30.0785418101
21
-42.2500000000
0
LINE
5
248
100
AcDbEntity
8
0
100
AcDbLine
62
7
6
CONTINUOUS
10
30.0785418101
20
-42.2500000000
11
56.9900000000
21
-42.2500000000
0
LINE
5
249
100
AcDbEntity
8
0
100
AcDbLine
62
9
6
CONTINUOUS
10
26.5428498098
20
-42.2472113461
11
-26.5428498098
21
-42.2472113461
0
LINE
5
24A
100
AcDbEntity
8
0
100
AcDbLine
62
7
6
CONTINUOUS
10
-27.2499999886
20
-42.2000000000
11
27.2499999901
21
-42.2000000000
0
LINE
5
24B
100
AcDbEntity
8
0
100
AcDbLine
62
9
6
CONTINUOUS
10
-30.0644104684
20
-42.0823346101
11
-29.9947154997
21
-42.0823346101
0
LINE
5
24C
100
AcDbEntity
8
0
100
AcDbLine
62
9
6
CONTINUOUS
10
29.9947154997
20
-42.0823346101
11
30.0644104684
21
-42.0823346101
0
LINE
5
24D
100
AcDbEntity
8
0
100
AcDbLine
62
7
6
CONTINUOUS
10
-29.9912731322
20
-42.0216303177
11
29.9912731322
21
-42.0216303177
0
LINE
5
24E
100
AcDbEntity
8
0
100
AcDbLine
62
9
6
CONTINUOUS
10
-30.0644554589
20
-40.7513739496
11
30.0644554589
21
-40.7513739496
0
LINE
5
24F
100
AcDbEntity
8
0
100
AcDbLine
62
9
6
CONTINUOUS
10
-37.3473509763
20
0.0001760453
11
-37.3476191687
21
22.2000000000
0
LINE
5
250
100
AcDbEntity
8
0
100
AcDbLine
62
7
6
CONTINUOUS
10
-35.7500000000
20
-22.2000000000
11
-35.7500000000
21
22.2000000000
0
LINE
5
251
100
AcDbEntity
8
0
100
AcDbLine
62
7
6
CONTINUOUS
10
-35.2500000000
20
-22.2000000000
11
-35.2500000000
21
22.2000000000
0
LINE
5
252
100
AcDbEntity
8
0
100
AcDbLine
62
9
6
CONTINUOUS
10
-35.2304947957
20
22.2000000000
11
-35.2304947957
21
-22.2000000000
0
LINE
5
253
100
AcDbEntity
8
0
100
AcDbLine
62
9
6
CONTINUOUS
10
-34.2306471005
20
22.2000000000
11
-34.2306471005
21
-22.2000000000
0
LINE
5
254
100
AcDbEntity
8
0
100
AcDbLine
62
9
6
CONTINUOUS
10
-37.3541477061
20
-22.2000000000
11
-37.3473509763
21
0.0001760453
0
LINE
5
255
100
AcDbEntity
8
0
100
AcDbLine
62
9
6
CONTINUOUS
10
61.0000000000
20
-38.5000000000
11
60.7496120746
21
-38.5000000000
0
LINE
5
256
100
AcDbEntity
8
0
100
AcDbLine
62
9
6
CONTINUOUS
10
-61.0000000000
20
-38.5000000000
11
-60.7496120746
21
-38.5000000000
0
LINE
5
257
100
AcDbEntity
8
0
100
AcDbLine
62
9
6
CONTINUOUS
10
-60.6112537135
20
-38.4900000000
11
-60.7500000000
21
-38.4900000000
0
LINE
5
258
100
AcDbEntity
8
0
100
AcDbLine
62
9
6
CONTINUOUS
10
60.6112537135
20
-38.4900000000
11
60.7500000000
21
-38.4900000000
0
LINE
5
259
100
AcDbEntity
8
0
100
AcDbLine
62
9
6
CONTINUOUS
10
-33.4499999990
20
-26.0969959970
11
-33.4469062613
21
-27.9105692187
0
LINE
5
25A
100
AcDbEntity
8
0
100
AcDbLine
62
9
6
CONTINUOUS
10
-33.4500000000
20
26.0978407616
11
-33.4500000000
21
24.5000000000
0
LINE
5
25B
100
AcDbEntity
8
0
100
AcDbLine
62
9
6
CONTINUOUS
10
-33.4500000000
20
-26.0970087231
11
-33.4500000000
21
-24.5000000000
0
LINE
5
25C
100
AcDbEntity
8
0
100
AcDbLine
62
9
6
CONTINUOUS
10
-33.4500000000
20
-22.9806471005
11
-33.4500000000
21
-24.0000000000
0
LINE
5
25D
100
AcDbEntity
8
0
100
AcDbLine
62
9
6
CONTINUOUS
10
-33.4500000000
20
22.9806471005
11
-33.4500000000
21
24.0000000000
0
LINE
5
25E
100
AcDbEntity
8
0
100
AcDbLine
62
9
6
CONTINUOUS
10
-30.0644554589
20
-40.7513739496
11
-30.0644104684
21
-42.0823346101
0
LINE
5
25F
100
AcDbEntity
8
0
100
AcDbLine
62
9
6
CONTINUOUS
10
-33.4500000000
20
26.0978407628
11
-33.4466818047
21
27.8965327251
0
LINE
5
260
100
AcDbEntity
8
0
100
AcDbLine
62
7
6
CONTINUOUS
10
32.6113340000
20
-32.4500650000
11
32.0313130000
21
-32.4500730000
0
LINE
5
261
100
AcDbEntity
8
0
100
AcDbLine
62
7
6
CONTINUOUS
10
29.9362220000
20
-32.4500730000
11
30.5162290000
21
-32.4500650000
0
LINE
5
262
100
AcDbEntity
8
0
100
AcDbLine
62
7
6
CONTINUOUS
10
37.1811910000
20
-32.4500580000
11
36.5278860000
21
-32.4500650000
0
LINE
5
263
100
AcDbEntity
8
0
100
AcDbLine
62
7
6
CONTINUOUS
10
27.6477960000
20
-32.4500800000
11
28.2278170000
21
-32.4500730000
0
LINE
5
264
100
AcDbEntity
8
0
100
AcDbLine
62
7
6
CONTINUOUS
10
25.7499410000
20
-32.4500800000
11
26.3299850000
21
-32.4500730000
0
LINE
5
265
100
AcDbEntity
8
0
100
AcDbLine
62
7
6
CONTINUOUS
10
31.6446340000
20
-32.4500730000
11
31.0646120000
21
-32.4500730000
0
LINE
5
266
100
AcDbEntity
8
0
100
AcDbLine
62
7
6
CONTINUOUS
10
28.8078250000
20
-32.4500730000
11
29.3878460000
21
-32.4500730000
0
LINE
5
267
100
AcDbEntity
8
0
100
AcDbLine
62
7
6
CONTINUOUS
10
35.4403350000
20
-32.4500650000
11
34.8603060000
21
-32.4500650000
0
LINE
5
268
100
AcDbEntity
8
0
100
AcDbLine
62
7
6
CONTINUOUS
10
34.4736270000
20
-32.4500730000
11
33.8935980000
21
-32.4500650000
0
LINE
5
269
100
AcDbEntity
8
0
100
AcDbLine
62
7
6
CONTINUOUS
10
33.7104920000
20
-31.8797370000
11
32.7944480000
21
-31.8797370000
0
LINE
5
26A
100
AcDbEntity
8
0
100
AcDbLine
62
7
6
CONTINUOUS
10
32.9713690000
20
-31.3287150000
11
33.5335630000
21
-31.3287150000
0
LINE
5
26B
100
AcDbEntity
8
0
100
AcDbLine
62
7
6
CONTINUOUS
10
35.9466320000
20
-31.3287150000
11
35.4404000000
21
-31.3287080000
0
LINE
5
26C
100
AcDbEntity
8
0
100
AcDbLine
62
7
6
CONTINUOUS
10
35.4323380000
20
-30.7921860000
11
36.1374209775
21
-30.7921860000
0
LINE
5
26D
100
AcDbEntity
8
0
100
AcDbLine
62
7
6
CONTINUOUS
10
36.1380150000
20
-30.0864560000
11
35.4323310000
21
-30.0864560000
0
LINE
5
26E
100
AcDbEntity
8
0
100
AcDbLine
62
7
6
CONTINUOUS
10
24.8188090000
20
-29.5499420000
11
25.3988380000
21
-29.5499420000
0
LINE
5
26F
100
AcDbEntity
8
0
100
AcDbLine
62
7
6
CONTINUOUS
10
26.6810950000
20
-29.5499420000
11
27.2611240000
21
-29.5499420000
0
LINE
5
270
100
AcDbEntity
8
0
100
AcDbLine
62
7
6
CONTINUOUS
10
27.6478030000
20
-29.5499420000
11
28.2278250000
21
-29.5499420000
0
LINE
5
271
100
AcDbEntity
8
0
100
AcDbLine
62
7
6
CONTINUOUS
10
28.8078250000
20
-29.5499420000
11
29.6846610000
21
-29.5499420000
0
LINE
5
272
100
AcDbEntity
8
0
100
AcDbLine
62
7
6
CONTINUOUS
10
30.7677970000
20
-29.5499420000
11
31.6446340000
21
-29.5499420000
0
LINE
5
273
100
AcDbEntity
8
0
100
AcDbLine
62
7
6
CONTINUOUS
10
32.9624370000
20
-29.5499350000
11
33.5424880000
21
-29.5499350000
0
LINE
5
274
100
AcDbEntity
8
0
100
AcDbLine
62
7
6
CONTINUOUS
10
34.8603060000
20
-29.5499350000
11
36.2185210000
21
-29.5499350000
0
LINE
5
275
100
AcDbEntity
8
0
100
AcDbLine
62
9
6
CONTINUOUS
10
-26.8000000000
20
-42.3971656547
11
-26.8000000000
21
-42.2000000000
0
LINE
5
276
100
AcDbEntity
8
0
100
AcDbLine
62
9
6
CONTINUOUS
10
-26.0000000000
20
-42.2000000000
11
-26.0000000000
21
-42.0216303177
0
LINE
5
277
100
AcDbEntity
8
0
100
AcDbLine
62
7
6
CONTINUOUS
10
-53.0305440373
20
-42.5000000000
11
-53.0000000000
21
-42.4389072728
0
LINE
5
278
100
AcDbEntity
8
0
100
AcDbLine
62
9
6
CONTINUOUS
10
29.9967053931
20
-27.9129877751
11
-29.9967053931
21
-27.9129877751
0
LINE
5
279
100
AcDbEntity
8
0
100
AcDbLine
62
9
6
CONTINUOUS
10
33.4500000000
20
-26.0970087231
11
29.9956002679
21
-26.0973483423
0
LINE
5
27A
100
AcDbEntity
8
0
100
AcDbLine
62
9
6
CONTINUOUS
10
29.9956002681
20
-26.0973483423
11
-29.9956002681
21
-26.0973483423
0
LINE
5
27B
100
AcDbEntity
8
0
100
AcDbLine
62
7
6
CONTINUOUS
10
33.4500000000
20
-24.5000000000
11
-33.4500000000
21
-24.5000000000
0
LINE
5
27C
100
AcDbEntity
8
0
100
AcDbLine
62
9
6
CONTINUOUS
10
-29.9956002680
20
-26.0973483423
11
-33.4500000000
21
-26.0970087231
0
LINE
5
27D
100
AcDbEntity
8
0
100
AcDbLine
62
7
6
CONTINUOUS
10
33.4500000000
20
-24.0000000000
11
-33.4500000000
21
-24.0000000000
0
LINE
5
27E
100
AcDbEntity
8
0
100
AcDbLine
62
9
6
CONTINUOUS
10
-33.4500000000
20
-23.9804947957
11
33.4500000000
21
-23.9804947957
0
LINE
5
27F
100
AcDbEntity
8
0
100
AcDbLine
62
9
6
CONTINUOUS
10
-33.4500000000
20
-22.9806471005
11
33.4500000000
21
-22.9806471005
0
LINE
5
280
100
AcDbEntity
8
0
100
AcDbLine
62
9
6
CONTINUOUS
10
37.3541477061
20
-22.2000000000
11
35.7500000000
21
-22.2000000000
0
LINE
5
281
100
AcDbEntity
8
0
100
AcDbLine
62
9
6
CONTINUOUS
10
-37.3541477061
20
-22.2000000000
11
-35.7500000000
21
-22.2000000000
0
LINE
5
282
100
AcDbEntity
8
0
100
AcDbLine
62
9
6
CONTINUOUS
10
-35.2500000000
20
-22.2000000000
11
-34.2306471005
21
-22.2000000000
0
LINE
5
283
100
AcDbEntity
8
0
100
AcDbLine
62
9
6
CONTINUOUS
10
34.2306471005
20
-22.2000000000
11
35.2500000000
21
-22.2000000000
0
LINE
5
284
100
AcDbEntity
8
0
100
AcDbLine
62
7
6
CONTINUOUS
10
-30.0785418101
20
-42.2500000000
11
-29.9947154997
21
-42.0823346101
0
LINE
5
285
100
AcDbEntity
8
0
100
AcDbLine
62
9
6
CONTINUOUS
10
0.0035973713
20
41.1387302073
11
0.0034237419
21
42.1104571092
0
LINE
5
286
100
AcDbEntity
8
0
100
AcDbLine
62
9
6
CONTINUOUS
10
-0.0028800049
20
26.0974286779
11
-0.0030240817
21
27.9106135053
0
LINE
5
287
100
AcDbEntity
8
0
100
AcDbLine
62
9
6
CONTINUOUS
10
39.1628663956
20
0.0001100000
11
60.6108215333
21
0.0003114602
0
LINE
5
288
100
AcDbEntity
8
0
100
AcDbLine
62
9
6
CONTINUOUS
10
37.3473509741
20
0.0001760453
11
39.1628681249
21
0.0001431276
0
LINE
5
289
100
AcDbEntity
8
0
100
AcDbLine
62
9
6
CONTINUOUS
10
-37.3473509734
20
0.0001760453
11
-60.6108215333
21
0.0003114602
0
LINE
5
28A
100
AcDbEntity
8
0
100
AcDbLine
62
7
6
CONTINUOUS
10
30.0785418101
20
-42.2500000000
11
29.9947154997
21
-42.0823346101
0
LINE
5
28B
100
AcDbEntity
8
0
100
AcDbLine
62
7
6
CONTINUOUS
10
25.7499410000
20
-32.4500800000
11
24.8188090000
21
-29.5499420000
0
LINE
5
28C
100
AcDbEntity
8
0
100
AcDbLine
62
7
6
CONTINUOUS
10
25.3988380000
20
-29.5499420000
11
26.0399700000
21
-31.5468390000
0
LINE
5
28D
100
AcDbEntity
8
0
100
AcDbLine
62
7
6
CONTINUOUS
10
36.5278860000
20
-32.4500650000
11
35.9466320000
21
-31.3287150000
0
LINE
5
28E
100
AcDbEntity
8
0
100
AcDbLine
62
7
6
CONTINUOUS
10
36.5637867907
20
-31.2589606669
11
37.1811910000
21
-32.4500580000
0
LINE
5
28F
100
AcDbEntity
8
0
100
AcDbLine
62
7
6
CONTINUOUS
10
29.9362220000
20
-32.4500730000
11
29.3878460000
21
-30.5376310000
0
LINE
5
290
100
AcDbEntity
8
0
100
AcDbLine
62
7
6
CONTINUOUS
10
29.6846610000
20
-29.5499420000
11
30.2262290000
21
-31.4386110000
0
LINE
5
291
100
AcDbEntity
8
0
100
AcDbLine
62
9
6
CONTINUOUS
10
-37.3476185863
20
22.2000000000
11
-39.1553059084
21
22.1984654348
0
LINE
5
292
100
AcDbEntity
8
0
100
AcDbLine
62
9
6
CONTINUOUS
10
37.3476191687
20
22.2000000000
11
35.7500000000
21
22.2000000000
0
LINE
5
293
100
AcDbEntity
8
0
100
AcDbLine
62
9
6
CONTINUOUS
10
-37.3476191687
20
22.2000000000
11
-35.7500000000
21
22.2000000000
0
LINE
5
294
100
AcDbEntity
8
0
100
AcDbLine
62
9
6
CONTINUOUS
10
-35.2500000000
20
22.2000000000
11
-34.2306471005
21
22.2000000000
0
LINE
5
295
100
AcDbEntity
8
0
100
AcDbLine
62
9
6
CONTINUOUS
10
34.2306471005
20
22.2000000000
11
35.2500000000
21
22.2000000000
0
LINE
5
296
100
AcDbEntity
8
0
100
AcDbLine
62
9
6
CONTINUOUS
10
33.4500000000
20
22.9806471005
11
-33.4500000000
21
22.9806471005
0
LINE
5
297
100
AcDbEntity
8
0
100
AcDbLine
62
9
6
CONTINUOUS
10
33.4500000000
20
23.9804947957
11
-33.4500000000
21
23.9804947957
0
LINE
5
298
100
AcDbEntity
8
0
100
AcDbLine
62
7
6
CONTINUOUS
10
-33.4500000000
20
24.0000000000
11
33.4500000000
21
24.0000000000
0
LINE
5
299
100
AcDbEntity
8
0
100
AcDbLine
62
7
6
CONTINUOUS
10
-33.4500000000
20
24.5000000000
11
33.4500000000
21
24.5000000000
0
LINE
5
29A
100
AcDbEntity
8
0
100
AcDbLine
62
9
6
CONTINUOUS
10
37.3476191537
20
22.2000000000
11
39.1553059081
21
22.1984654348
0
LINE
5
29B
100
AcDbEntity
8
0
100
AcDbLine
62
7
6
CONTINUOUS
10
33.5335630000
20
-31.3287150000
11
33.2524590000
21
-30.4531760000
0
LINE
5
29C
100
AcDbEntity
8
0
100
AcDbLine
62
7
6
CONTINUOUS
10
33.8935980000
20
-32.4500650000
11
33.7104920000
21
-31.8797370000
0
LINE
5
29D
100
AcDbEntity
8
0
100
AcDbLine
62
7
6
CONTINUOUS
10
33.5424880000
20
-29.5499350000
11
34.4736270000
21
-32.4500730000
0
LINE
5
29E
100
AcDbEntity
8
0
100
AcDbLine
62
9
6
CONTINUOUS
10
30.0083050702
20
-32.4500719570
11
29.9925801710
21
-30.6236923897
0
LINE
5
29F
100
AcDbEntity
8
0
100
AcDbLine
62
9
6
CONTINUOUS
10
29.9956002681
20
-26.0973483423
11
29.9967053931
21
-27.9129877751
0
LINE
5
2A0
100
AcDbEntity
8
0
100
AcDbLine
62
9
6
CONTINUOUS
10
26.0000619010
20
-42.2000000000
11
26.0000471468
21
-42.0216303177
0
LINE
5
2A1
100
AcDbEntity
8
0
100
AcDbLine
62
9
6
CONTINUOUS
10
26.8000000000
20
-42.2000000000
11
26.8000000000
21
-42.3971656547
0
LINE
5
2A2
100
AcDbEntity
8
0
100
AcDbLine
62
7
6
CONTINUOUS
10
27.6477960000
20
-32.4500800000
11
27.6478030000
21
-29.5499420000
0
LINE
5
2A3
100
AcDbEntity
8
0
100
AcDbLine
62
7
6
CONTINUOUS
10
28.2278170000
20
-32.4500730000
11
28.2278250000
21
-29.5499420000
0
LINE
5
2A4
100
AcDbEntity
8
0
100
AcDbLine
62
7
6
CONTINUOUS
10
28.8078250000
20
-32.4500730000
11
28.8078250000
21
-29.5499420000
0
LINE
5
2A5
100
AcDbEntity
8
0
100
AcDbLine
62
7
6
CONTINUOUS
10
29.3878460000
20
-32.4500730000
11
29.3878460000
21
-30.5376310000
0
LINE
5
2A6
100
AcDbEntity
8
0
100
AcDbLine
62
9
6
CONTINUOUS
10
30.0644554589
20
-40.7513739496
11
30.0644104684
21
-42.0823346101
0
LINE
5
2A7
100
AcDbEntity
8
0
100
AcDbLine
62
9
6
CONTINUOUS
10
29.9937310895
20
-30.6278008948
11
29.9978105186
21
-27.9129888598
0
LINE
5
2A8
100
AcDbEntity
8
0
100
AcDbLine
62
9
6
CONTINUOUS
10
-33.4500000000
20
26.0978407616
11
-0.0028800049
21
26.0974286778
0
LINE
5
2A9
100
AcDbEntity
8
0
100
AcDbLine
62
9
6
CONTINUOUS
10
-0.0028800049
20
26.0974286778
11
33.4500000000
21
26.0978407616
0
LINE
5
2AA
100
AcDbEntity
8
0
100
AcDbLine
62
7
6
CONTINUOUS
10
53.0305440373
20
-42.5000000000
11
53.0000000000
21
-42.4389072728
0
LINE
5
2AB
100
AcDbEntity
8
0
100
AcDbLine
62
9
6
CONTINUOUS
10
33.4500000000
20
26.0978395833
11
33.4466818062
21
27.8965327337
0
LINE
5
2AC
100
AcDbEntity
8
0
100
AcDbLine
62
7
6
CONTINUOUS
10
31.0646120000
20
-32.4500730000
11
31.0646050000
21
-30.5376310000
0
LINE
5
2AD
100
AcDbEntity
8
0
100
AcDbLine
62
7
6
CONTINUOUS
10
31.6446340000
20
-29.5499420000
11
31.6446340000
21
-32.4500730000
0
LINE
5
2AE
100
AcDbEntity
8
0
100
AcDbLine
62
9
6
CONTINUOUS
10
33.4500000000
20
26.0978407616
11
33.4500000000
21
24.5000000000
0
LINE
5
2AF
100
AcDbEntity
8
0
100
AcDbLine
62
9
6
CONTINUOUS
10
33.4500000000
20
-26.0970087231
11
33.4500000000
21
-24.5000000000
0
LINE
5
2B0
100
AcDbEntity
8
0
100
AcDbLine
62
9
6
CONTINUOUS
10
33.4500000000
20
-22.9806471005
11
33.4500000000
21
-24.0000000000
0
LINE
5
2B1
100
AcDbEntity
8
0
100
AcDbLine
62
9
6
CONTINUOUS
10
33.4500000000
20
22.9806471005
11
33.4500000000
21
24.0000000000
0
LINE
5
2B2
100
AcDbEntity
8
0
100
AcDbLine
62
9
6
CONTINUOUS
10
34.2306471005
20
-22.2000000000
11
34.2306471005
21
22.2000000000
0
LINE
5
2B3
100
AcDbEntity
8
0
100
AcDbLine
62
7
6
CONTINUOUS
10
34.8603060000
20
-32.4500650000
11
34.8603060000
21
-29.5499350000
0
LINE
5
2B4
100
AcDbEntity
8
0
100
AcDbLine
62
9
6
CONTINUOUS
10
35.2304947957
20
-22.2000000000
11
35.2304947957
21
22.2000000000
0
LINE
5
2B5
100
AcDbEntity
8
0
100
AcDbLine
62
7
6
CONTINUOUS
10
35.2500000000
20
22.2000000000
11
35.2500000000
21
-22.2000000000
0
LINE
5
2B6
100
AcDbEntity
8
0
100
AcDbLine
62
9
6
CONTINUOUS
10
33.4500000000
20
-26.0970087037
11
33.4469062444
21
-27.9105692114
0
LINE
5
2B7
100
AcDbEntity
8
0
100
AcDbLine
62
7
6
CONTINUOUS
10
26.0399700000
20
-31.5468390000
11
26.6810950000
21
-29.5499420000
0
LINE
5
2B8
100
AcDbEntity
8
0
100
AcDbLine
62
7
6
CONTINUOUS
10
27.2611240000
20
-29.5499420000
11
26.3299850000
21
-32.4500730000
0
LINE
5
2B9
100
AcDbEntity
8
0
100
AcDbLine
62
9
6
CONTINUOUS
10
37.3473509763
20
0.0001760453
11
37.3541477061
21
-22.2000000000
0
LINE
5
2BA
100
AcDbEntity
8
0
100
AcDbLine
62
7
6
CONTINUOUS
10
35.4323310000
20
-30.0864560000
11
35.4323380000
21
-30.7921860000
0
LINE
5
2BB
100
AcDbEntity
8
0
100
AcDbLine
62
7
6
CONTINUOUS
10
35.7500000000
20
22.2000000000
11
35.7500000000
21
-22.2000000000
0
LINE
5
2BC
100
AcDbEntity
8
0
100
AcDbLine
62
9
6
CONTINUOUS
10
37.3476191687
20
22.2000000000
11
37.3473509763
21
0.0001760453
0
LINE
5
2BD
100
AcDbEntity
8
0
100
AcDbLine
62
7
6
CONTINUOUS
10
35.4404000000
20
-31.3287080000
11
35.4403350000
21
-32.4500650000
0
LINE
5
2BE
100
AcDbEntity
8
0
100
AcDbLine
62
7
6
CONTINUOUS
10
30.2262290000
20
-31.4386110000
11
30.7677970000
21
-29.5499420000
0
LINE
5
2BF
100
AcDbEntity
8
0
100
AcDbLine
62
7
6
CONTINUOUS
10
31.0646050000
20
-30.5376310000
11
30.5162290000
21
-32.4500650000
0
LINE
5
2C0
100
AcDbEntity
8
0
100
AcDbLine
62
9
6
CONTINUOUS
10
-60.6167891821
20
38.4900000000
11
-60.7484878323
21
38.4900000000
0
LINE
5
2C1
100
AcDbEntity
8
0
100
AcDbLine
62
9
6
CONTINUOUS
10
60.6167891821
20
38.4900000000
11
60.7484878323
21
38.4900000000
0
LINE
5
2C2
100
AcDbEntity
8
0
100
AcDbLine
62
9
6
CONTINUOUS
10
61.0000000000
20
38.5000000000
11
60.8674049423
21
38.5000000000
0
LINE
5
2C3
100
AcDbEntity
8
0
100
AcDbLine
62
9
6
CONTINUOUS
10
-61.0000000000
20
38.5000000000
11
-60.8674049423
21
38.5000000000
0
LINE
5
2C4
100
AcDbEntity
8
0
100
AcDbLine
62
7
6
CONTINUOUS
10
32.0313130000
20
-32.4500730000
11
32.9624370000
21
-29.5499350000
0
LINE
5
2C5
100
AcDbEntity
8
0
100
AcDbLine
62
7
6
CONTINUOUS
10
33.2524590000
20
-30.4531760000
11
32.9713690000
21
-31.3287150000
0
LINE
5
2C6
100
AcDbEntity
8
0
100
AcDbLine
62
7
6
CONTINUOUS
10
32.7944480000
20
-31.8797370000
11
32.6113340000
21
-32.4500650000
0
LINE
5
2C7
100
AcDbEntity
8
0
100
AcDbLine
62
7
6
CONTINUOUS
10
-57.9524652054
20
42.0956501172
11
-57.8638650149
21
42.0956501172
0
LINE
5
2C8
100
AcDbEntity
8
0
100
AcDbLine
62
7
6
CONTINUOUS
10
57.8638650149
20
42.0956501172
11
57.9525799753
21
42.0956501172
0
LINE
5
2C9
100
AcDbEntity
8
0
100
AcDbLine
62
7
6
CONTINUOUS
10
56.9900000000
20
42.1993909428
11
-56.9900000000
21
42.1993909428
0
LINE
5
2CA
100
AcDbEntity
8
0
100
AcDbLine
62
7
6
CONTINUOUS
10
57.0000000000
20
42.3219583377
11
-57.0000000000
21
42.3219583377
0
LINE
5
2CB
100
AcDbEntity
8
0
100
AcDbLine
62
7
6
CONTINUOUS
10
-57.0000000000
20
42.5000000000
11
57.0000000000
21
42.5000000000
0
LINE
5
2CC
100
AcDbEntity
8
0
100
AcDbLine
62
9
6
CONTINUOUS
10
56.9900000000
20
-42.1067205393
11
56.9900000000
21
-42.2500000000
0
LINE
5
2CD
100
AcDbEntity
8
0
100
AcDbLine
62
9
6
CONTINUOUS
10
56.9900000000
20
42.1172542221
11
56.9900000000
21
42.1993909428
0
LINE
5
2CE
100
AcDbEntity
8
0
100
AcDbLine
62
9
6
CONTINUOUS
10
57.0000000000
20
42.5000000000
11
57.0000000000
21
42.3219583377
0
LINE
5
2CF
100
AcDbEntity
8
0
100
AcDbLine
62
9
6
CONTINUOUS
10
57.0000000000
20
-42.5000000000
11
57.0000000000
21
-42.2496120746
0
LINE
5
2D0
100
AcDbEntity
8
0
100
AcDbLine
62
7
6
CONTINUOUS
10
60.7500000000
20
-38.4900000000
11
60.7500000000
21
37.5000000000
0
LINE
5
2D1
100
AcDbEntity
8
0
100
AcDbLine
62
7
6
CONTINUOUS
10
61.0000000000
20
38.5000000000
11
61.0000000000
21
-38.5000000000
0
LINE
5
2D2
100
AcDbEntity
8
0
100
AcDbLine
62
7
6
CONTINUOUS
10
48.9694559627
20
-42.5000000000
11
49.0000000000
21
-42.4389072728
0
LINE
5
2D3
100
AcDbEntity
8
0
100
AcDbLine
62
7
6
CONTINUOUS
10
-92.7770697312
20
-42.2000000000
11
-87.6915678242
21
-42.2000000000
0
LINE
5
2D4
100
AcDbEntity
8
0
100
AcDbLine
62
7
6
CONTINUOUS
10
-76.6270697426
20
-42.5000000000
11
-84.1357959459
21
-42.3689346966
0
LINE
5
2D5
100
AcDbEntity
8
0
100
AcDbLine
62
7
6
CONTINUOUS
10
-94.4326134989
20
-42.0823346101
11
-84.8270697426
21
-42.2500000000
0
LINE
5
2D6
100
AcDbEntity
8
0
100
AcDbLine
62
7
6
CONTINUOUS
10
-75.0234614781
20
-39.5703144605
11
-76.6270697426
21
-40.0000000000
0
LINE
5
2D7
100
AcDbEntity
8
0
100
AcDbLine
62
9
6
CONTINUOUS
10
-76.6270697426
20
-38.5000000000
11
-84.6270697426
21
-38.5000000000
0
LINE
5
2D8
100
AcDbEntity
8
0
100
AcDbLine
62
9
6
CONTINUOUS
10
-92.7758391741
20
-38.4900000000
11
-84.8270697426
21
-38.4900000000
0
LINE
5
2D9
100
AcDbEntity
8
0
100
AcDbLine
62
9
6
CONTINUOUS
10
-94.2052064881
20
-38.5219539255
11
-92.7758391741
21
-38.4900000000
0
LINE
5
2DA
100
AcDbEntity
8
0
100
AcDbLine
62
9
6
CONTINUOUS
10
-76.6270697426
20
-36.7000000000
11
-74.6270697426
21
-36.7000000000
0
LINE
5
2DB
100
AcDbEntity
8
0
100
AcDbLine
62
7
6
CONTINUOUS
10
-84.8270697426
20
-33.7000000000
11
-84.6270697426
21
-33.7000000000
0
LINE
5
2DC
100
AcDbEntity
8
0
100
AcDbLine
62
7
6
CONTINUOUS
10
-96.6040645255
20
-32.4500580000
11
-96.4038766230
21
-32.4500580000
0
LINE
5
2DD
100
AcDbEntity
8
0
100
AcDbLine
62
7
6
CONTINUOUS
10
-84.6270697426
20
-32.2000000000
11
-84.8270697426
21
-32.2000000000
0
LINE
5
2DE
100
AcDbEntity
8
0
100
AcDbLine
62
7
6
CONTINUOUS
10
-96.6549478474
20
-31.2589606669
11
-96.4548417214
21
-31.2589606669
0
LINE
5
2DF
100
AcDbEntity
8
0
100
AcDbLine
62
7
6
CONTINUOUS
10
-96.6988259960
20
-29.5499350000
11
-96.4987862697
21
-29.5499350000
0
LINE
5
2E0
100
AcDbEntity
8
0
100
AcDbLine
62
7
6
CONTINUOUS
10
-84.8270697426
20
-31.8930158461
11
-84.6270697426
21
-31.9000000000
0
LINE
5
2E1
100
AcDbEntity
8
0
100
AcDbLine
62
9
6
CONTINUOUS
10
-84.8270697426
20
-31.1319573760
11
-84.6270697426
21
-31.1389415299
0
LINE
5
2E2
100
AcDbEntity
8
0
100
AcDbLine
62
9
6
CONTINUOUS
10
-84.8270697426
20
-27.7581655388
11
-84.6270697426
21
-27.7610584701
0
LINE
5
2E3
100
AcDbEntity
8
0
100
AcDbLine
62
7
6
CONTINUOUS
10
-97.0883747859
20
26.1532608064
11
-97.1035744783
21
26.1320539878
0
LINE
5
2E4
100
AcDbEntity
8
0
100
AcDbLine
62
7
6
CONTINUOUS
10
-97.1035744783
20
26.1320539878
11
-97.1150674666
21
26.1162702679
0
LINE
5
2E5
100
AcDbEntity
8
0
100
AcDbLine
62
7
6
CONTINUOUS
10
-97.1150674666
20
26.1162702679
11
-97.1248388018
21
26.1030165492
0
LINE
5
2E6
100
AcDbEntity
8
0
100
AcDbLine
62
7
6
CONTINUOUS
10
-97.1235919808
20
26.1046993570
11
-97.1297403306
21
26.0964246912
0
LINE
5
2E7
100
AcDbEntity
8
0
100
AcDbLine
62
7
6
CONTINUOUS
10
-69.6270697426
20
-25.5525159343
11
-74.6270697426
21
-25.5961502733
0
LINE
5
2E8
100
AcDbEntity
8
0
100
AcDbLine
62
7
6
CONTINUOUS
10
-74.6270697426
20
-23.7599633743
11
-69.6270030941
21
-23.7163284537
0
LINE
5
2E9
100
AcDbEntity
8
0
100
AcDbLine
62
9
6
CONTINUOUS
10
-84.8270697426
20
-25.9208078586
11
-84.6270697426
21
-25.9237007899
0
LINE
5
2EA
100
AcDbEntity
8
0
100
AcDbLine
62
7
6
CONTINUOUS
10
-97.3270697426
20
-23.9825449351
11
-97.4445221491
21
-23.9804947957
0
LINE
5
2EB
100
AcDbEntity
8
0
100
AcDbLine
62
7
6
CONTINUOUS
10
-97.1293775928
20
-26.0969104510
11
-97.1295416131
21
-26.0966900235
0
LWPOLYLINE
5
2EC
100
AcDbEntity
8
0
100
AcDbPolyline
62
7
6
CONTINUOUS
90
20
70
0
10
-97.1293775928
20
-26.0969104510
10
-97.1010401688
20
-26.1356471663
10
-97.0638156198
20
-26.1885637889
10
-97.0185918359
20
-26.2562513030
10
-96.9627709655
20
-26.3456259213
10
-96.9020169179
20
-26.4515193409
10
-96.8478216483
20
-26.5552258939
10
-96.8036657406
20
-26.6477083223
10
-96.7646069780
20
-26.7369472161
10
-96.7278820645
20
-26.8288221416
10
-96.6929544568
20
-26.9253723718
10
-96.6608603845
20
-27.0245112209
10
-96.6317869828
20
-27.1261717508
10
-96.6059122312
20
-27.2303220426
10
-96.5834398946
20
-27.3368250758
10
-96.5645818000
20
-27.4454358984
10
-96.5495170597
20
-27.5559897991
10
-96.5384082631
20
-27.6684055910
10
-96.5314246606
20
-27.7825432250
10
-96.5308482410
20
-27.8073164757
0
LINE
5
2ED
100
AcDbEntity
8
0
100
AcDbLine
62
7
6
CONTINUOUS
10
-97.1292877307
20
-26.0970313427
11
-97.0095582439
21
-26.2702558854
0
LWPOLYLINE
5
2EE
100
AcDbEntity
8
0
100
AcDbPolyline
62
7
6
CONTINUOUS
90
8
70
0
10
-97.0095582439
20
-26.2702558854
10
-96.8984908549
20
-26.4579800796
10
-96.7980544427
20
-26.6600619614
10
-96.7102974100
20
-26.8761573044
10
-96.6373562674
20
-27.1056221564
10
-96.5814096141
20
-27.3474814823
10
-96.5446132725
20
-27.6005064036
10
-96.5290825951
20
-27.8632002087
0
LWPOLYLINE
5
2EF
100
AcDbEntity
8
0
100
AcDbPolyline
62
7
6
CONTINUOUS
90
7
70
0
10
-94.5805345693
20
40.4256864975
10
-94.8443822685
20
39.5703166140
10
-95.0908132956
20
38.7056574361
10
-95.3251206026
20
37.8088735072
10
-95.5464966825
20
36.8741849933
10
-95.7512836982
20
35.9068327808
10
-95.9383785915
20
34.9000307645
0
LINE
5
2F0
100
AcDbEntity
8
0
100
AcDbLine
62
7
6
CONTINUOUS
10
-94.3568894924
20
41.1037135834
11
-94.5805354513
21
40.4256838236
0
LINE
5
2F1
100
AcDbEntity
8
0
100
AcDbLine
62
7
6
CONTINUOUS
10
-94.3569267013
20
41.1036119547
11
-94.3569048841
21
41.1036752875
0
LINE
5
2F2
100
AcDbEntity
8
0
100
AcDbLine
62
9
6
CONTINUOUS
10
-98.4270697426
20
-22.2000000000
11
-97.1239420970
21
-22.2000000000
0
LINE
5
2F3
100
AcDbEntity
8
0
100
AcDbLine
62
7
6
CONTINUOUS
10
-74.6270697426
20
-22.7676628277
11
-69.6270697426
21
-22.8112971667
0
LINE
5
2F4
100
AcDbEntity
8
0
100
AcDbLine
62
7
6
CONTINUOUS
10
-96.2253138500
20
-36.6776498837
11
-96.1995645932
21
-37.0440016050
0
LINE
5
2F5
100
AcDbEntity
8
0
100
AcDbLine
62
7
6
CONTINUOUS
10
-96.2561447019
20
-36.2176409507
11
-96.2253138500
21
-36.6776498837
0
LWPOLYLINE
5
2F6
100
AcDbEntity
8
0
100
AcDbPolyline
62
7
6
CONTINUOUS
90
79
70
0
10
-96.5430443402
20
27.6000968227
10
-96.5454977071
20
27.5772748476
10
-96.5481156047
20
27.5545369013
10
-96.5508964191
20
27.5318841038
10
-96.5538384351
20
27.5093182870
10
-96.5569400168
20
27.4868405236
10
-96.5601995263
20
27.4644518639
10
-96.5636152089
20
27.4421540674
10
-96.5671854068
20
27.4199481367
10
-96.5709084608
20
27.3978350519
10
-96.5747825799
20
27.3758165002
10
-96.5788060870
20
27.3538934141
10
-96.5829773048
20
27.3320667041
10
-96.5872944088
20
27.3103379848
10
-96.5917557056
20
27.2887081190
10
-96.5963595026
20
27.2671779480
10
-96.6011039449
20
27.2457490136
10
-96.6059873256
20
27.2244221096
10
-96.6110079394
20
27.2031980083
10
-96.6161639040
20
27.1820781794
10
-96.6214535019
20
27.1610633479
10
-96.6268750177
20
27.1401542177
10
-96.6324265446
20
27.1193521866
10
-96.6381063571
20
27.0986579118
10
-96.6439127324
20
27.0780720293
10
-96.6498437422
20
27.0575958656
10
-96.6558976552
20
27.0372300108
10
-96.6620727442
20
27.0169750339
10
-96.6683670622
20
26.9968321898
10
-96.6747788738
20
26.9768020059
10
-96.6813064505
20
26.9568849817
10
-96.6879478333
20
26.9370822902
10
-96.6947012896
20
26.9173943843
10
-96.7015650884
20
26.8978217079
10
-96.7085372518
20
26.8783653813
10
-96.7156160479
20
26.8590257963
10
-96.7227997492
20
26.8398033293
10
-96.7300863642
20
26.8206990385
10
-96.7374741641
20
26.8017132547
10
-96.7449614270
20
26.7828462893
10
-96.7525461529
20
26.7640991315
10
-96.7602266194
20
26.7454720502
10
-96.7680011111
20
26.7269652951
10
-96.7758676225
20
26.7085797878
10
-96.7838244392
20
26.6903157365
10
-96.7918698551
20
26.6721733308
10
-96.8000018611
20
26.6541534253
10
-96.8082187535
20
26.6362561689
10
-96.8165188370
20
26.6184816925
10
-96.8249001016
20
26.6008307854
10
-96.8333608560
20
26.5833035381
10
-96.8418994180
20
26.5659000246
10
-96.8505137780
20
26.5486209713
10
-96.8592022600
20
26.5314664109
10
-96.8679631958
20
26.5144363629
10
-96.8767945761
20
26.4975314966
10
-96.8856947343
20
26.4807518028
10
-96.8946620253
20
26.4640972339
10
-96.9036944634
20
26.4475683645
10
-96.9127874263
20
26.4311704564
10
-96.9219421965
20
26.4148980492
10
-96.9311659322
20
26.3987357647
10
-96.9404672796
20
26.3826665289
10
-96.9498351440
20
26.3667076117
10
-96.9592467061
20
26.3508949055
10
-96.9687070090
20
26.3352164967
10
-96.9782072407
20
26.3196836010
10
-96.9877019067
20
26.3043656238
10
-96.9971877168
20
26.2892615922
10
-97.0066617163
20
26.2743700534
10
-97.0160765259
20
26.2597581358
10
-97.0254229448
20
26.2454315068
10
-97.0347018460
20
26.2313804234
10
-97.0438791438
20
26.2176476343
10
-97.0529443554
20
26.2042392483
10
-97.0618987356
20
26.1911440950
10
-97.0707249347
20
26.1783783242
10
-97.0796170600
20
26.1656565424
10
-97.0883747859
20
26.1532608064
0
LWPOLYLINE
5
2F7
100
AcDbEntity
8
0
100
AcDbPolyline
62
7
6
CONTINUOUS
90
6
70
0
10
-95.9383785915
20
34.9000307645
10
-96.1052313263
20
33.8522227770
10
-96.2486816415
20
32.7649786559
10
-96.3659388242
20
31.6363144797
10
-96.4537460791
20
30.4657853184
10
-96.5085694476
20
29.2545293543
0
LINE
5
2F8
100
AcDbEntity
8
0
100
AcDbLine
62
7
6
CONTINUOUS
10
-96.2838224666
20
-35.7817855687
11
-96.2557008843
21
-36.2244439269
0
LINE
5
2F9
100
AcDbEntity
8
0
100
AcDbLine
62
7
6
CONTINUOUS
10
-96.3035571173
20
-35.4556776041
11
-96.2773625569
21
-35.8856414333
0
LINE
5
2FA
100
AcDbEntity
8
0
100
AcDbLine
62
7
6
CONTINUOUS
10
-96.3222297270
20
-35.1335711821
11
-96.2974012490
21
-35.5588916770
0
LINE
5
2FB
100
AcDbEntity
8
0
100
AcDbLine
62
7
6
CONTINUOUS
10
-96.3400694644
20
-34.8117451494
11
-96.3163540765
21
-35.2364586718
0
LINE
5
2FC
100
AcDbEntity
8
0
100
AcDbLine
62
7
6
CONTINUOUS
10
-96.3671746671
20
-34.2916244639
11
-96.3399048382
21
-34.8147839176
0
LINE
5
2FD
100
AcDbEntity
8
0
100
AcDbLine
62
7
6
CONTINUOUS
10
-96.3914296992
20
-33.7872443919
11
-96.3670808757
21
-34.2934975431
0
LINE
5
2FE
100
AcDbEntity
8
0
100
AcDbLine
62
7
6
CONTINUOUS
10
-96.4131839397
20
-33.2950669583
11
-96.3914296992
21
-33.7872443919
0
LINE
5
2FF
100
AcDbEntity
8
0
100
AcDbLine
62
7
6
CONTINUOUS
10
-96.4325344563
20
-32.8164321334
11
-96.4131839397
21
-33.2950669583
0
LINE
5
300
100
AcDbEntity
8
0
100
AcDbLine
62
7
6
CONTINUOUS
10
-96.4461411326
20
-32.4500669667
11
-96.4325344563
21
-32.8164321334
0
LWPOLYLINE
5
301
100
AcDbEntity
8
0
100
AcDbPolyline
62
7
6
CONTINUOUS
90
3
70
0
10
-96.5215295130
20
-29.0908669217
10
-96.5213439595
20
-29.1081778130
10
-96.5209684587
20
-29.1430135397
0
LINE
5
302
100
AcDbEntity
8
0
100
AcDbLine
62
7
6
CONTINUOUS
10
-96.5219945345
20
-29.0470016288
11
-96.5215295130
21
-29.0908669217
0
LINE
5
303
100
AcDbEntity
8
0
100
AcDbLine
62
7
6
CONTINUOUS
10
-96.5290825951
20
-27.8632002087
11
-96.5287053890
21
-27.9121221680
0
LINE
5
304
100
AcDbEntity
8
0
100
AcDbLine
62
7
6
CONTINUOUS
10
-96.5270865361
20
-28.4492802821
11
-96.5219945345
21
-29.0470016288
0
LINE
5
305
100
AcDbEntity
8
0
100
AcDbLine
62
7
6
CONTINUOUS
10
-96.5286180945
20
-28.0540268517
11
-96.5270865361
21
-28.4492802821
0
LINE
5
306
100
AcDbEntity
8
0
100
AcDbLine
62
9
6
CONTINUOUS
10
-97.1290496745
20
0.0001760453
11
-97.1239420970
21
-22.2000000000
0
LINE
5
307
100
AcDbEntity
8
0
100
AcDbLine
62
7
6
CONTINUOUS
10
-98.4270697426
20
-22.9806471005
11
-98.4270697426
21
22.9806471005
0
LINE
5
308
100
AcDbEntity
8
0
100
AcDbLine
62
9
6
CONTINUOUS
10
-97.4445221491
20
-23.9804947957
11
-97.4445221491
21
23.9804947957
0
LINE
5
309
100
AcDbEntity
8
0
100
AcDbLine
62
7
6
CONTINUOUS
10
-97.3270697426
20
25.5000000000
11
-97.3270697426
21
-25.5000000000
0
LINE
5
30A
100
AcDbEntity
8
0
100
AcDbLine
62
9
6
CONTINUOUS
10
-97.1286846276
20
26.0978407616
11
-97.1290496745
21
0.0001760453
0
LINE
5
30B
100
AcDbEntity
8
0
100
AcDbLine
62
7
6
CONTINUOUS
10
-96.5287050946
20
-27.9121193220
11
-96.5286180945
21
-28.0540268517
0
LINE
5
30C
100
AcDbEntity
8
0
100
AcDbLine
62
7
6
CONTINUOUS
10
-96.5268379234
20
28.0449884286
11
-96.5268385051
21
27.9452381206
0
LINE
5
30D
100
AcDbEntity
8
0
100
AcDbLine
62
7
6
CONTINUOUS
10
-96.5268189894
20
18.6680513080
11
-96.5270687280
21
0.0001431276
0
LWPOLYLINE
5
30E
100
AcDbEntity
8
0
100
AcDbPolyline
62
7
6
CONTINUOUS
90
4
70
0
10
-96.5268347845
20
27.9129416514
10
-96.5268506543
20
27.9037663761
10
-96.5270206808
20
27.8799867030
10
-96.5273755395
20
27.8562714243
0
LINE
5
30F
100
AcDbEntity
8
0
100
AcDbLine
62
7
6
CONTINUOUS
10
-96.5268385048
20
27.9452342339
11
-96.5268347792
21
27.9129660474
0
LINE
5
310
100
AcDbEntity
8
0
100
AcDbLine
62
7
6
CONTINUOUS
10
-96.5085694476
20
29.2545293543
11
-96.5261975194
21
28.0449790954
0
LWPOLYLINE
5
311
100
AcDbEntity
8
0
100
AcDbPolyline
62
7
6
CONTINUOUS
90
4
70
0
10
-96.5273755395
20
27.8562714243
10
-96.5279137499
20
27.8326219616
10
-96.5286338241
20
27.8090397140
10
-96.5295342368
20
27.7855267977
0
LWPOLYLINE
5
312
100
AcDbEntity
8
0
100
AcDbPolyline
62
7
6
CONTINUOUS
90
9
70
0
10
-96.5295342368
20
27.7855267977
10
-96.5306134700
20
27.7620845654
10
-96.5318700001
20
27.7387143468
10
-96.5333022493
20
27.7154181882
10
-96.5349086658
20
27.6921973725
10
-96.5366876927
20
27.6690531599
10
-96.5386377032
20
27.6459875258
10
-96.5407571147
20
27.6230016833
10
-96.5430443402
20
27.6000968227
0
LINE
5
313
100
AcDbEntity
8
0
100
AcDbLine
62
9
6
CONTINUOUS
10
-91.5270697426
20
-42.2000000000
11
-91.5270697426
21
-42.1330510650
0
LINE
5
314
100
AcDbEntity
8
0
100
AcDbLine
62
7
6
CONTINUOUS
10
-86.8270697426
20
42.0956501172
11
-86.8270697426
21
42.3219583377
0
LINE
5
315
100
AcDbEntity
8
0
100
AcDbLine
62
7
6
CONTINUOUS
10
-84.8270697426
20
-42.2500000000
11
-84.8270697426
21
37.5000000000
0
LINE
5
316
100
AcDbEntity
8
0
100
AcDbLine
62
7
6
CONTINUOUS
10
-84.6270697426
20
37.5000000000
11
-84.6270697426
21
-41.8690108490
0
LINE
5
317
100
AcDbEntity
8
0
100
AcDbLine
62
9
6
CONTINUOUS
10
-84.1357959459
20
-38.5000000000
11
-84.1357959459
21
-42.3689346966
0
LINE
5
318
100
AcDbEntity
8
0
100
AcDbLine
62
7
6
CONTINUOUS
10
-96.5281000577
20
-27.9105692114
11
-96.5287053828
21
-27.9121207785
0
LINE
5
319
100
AcDbEntity
8
0
100
AcDbLine
62
9
6
CONTINUOUS
10
-97.1290496715
20
0.0001760453
11
-92.8005987611
21
0.0003114602
0
LINE
5
31A
100
AcDbEntity
8
0
100
AcDbLine
62
7
6
CONTINUOUS
10
-76.6270697426
20
-42.5000000000
11
-76.6270697426
21
42.5000000000
0
LINE
5
31B
100
AcDbEntity
8
0
100
AcDbLine
62
9
6
CONTINUOUS
10
-75.0234614781
20
39.5703144605
11
-75.0234614781
21
-39.5703144605
0
LINE
5
31C
100
AcDbEntity
8
0
100
AcDbLine
62
7
6
CONTINUOUS
10
-74.6270697426
20
-39.0537266933
11
-74.6270697426
21
39.0537266933
0
LINE
5
31D
100
AcDbEntity
8
0
100
AcDbLine
62
7
6
CONTINUOUS
10
-69.6270697426
20
-25.5525159343
11
-69.6270697426
21
25.5525159343
0
LINE
5
31E
100
AcDbEntity
8
0
100
AcDbLine
62
7
6
CONTINUOUS
10
-97.3270697426
20
23.9825449351
11
-97.4445221491
21
23.9804947957
0
LINE
5
31F
100
AcDbEntity
8
0
100
AcDbLine
62
7
6
CONTINUOUS
10
-74.6270697426
20
22.7676628277
11
-69.6270697426
21
22.8112971667
0
LINE
5
320
100
AcDbEntity
8
0
100
AcDbLine
62
9
6
CONTINUOUS
10
-84.6270697426
20
22.2000000000
11
-84.8270697426
21
22.2000000000
0
LINE
5
321
100
AcDbEntity
8
0
100
AcDbLine
62
9
6
CONTINUOUS
10
-98.4270697426
20
22.2000000000
11
-97.1288498429
21
22.2000000000
0
LINE
5
322
100
AcDbEntity
8
0
100
AcDbLine
62
9
6
CONTINUOUS
10
-97.1288498228
20
22.2000000000
11
-96.5262762365
21
22.1984654348
0
LINE
5
323
100
AcDbEntity
8
0
100
AcDbLine
62
7
6
CONTINUOUS
10
-74.6270697426
20
23.7599633743
11
-69.6270030941
21
23.7163284537
0
LINE
5
324
100
AcDbEntity
8
0
100
AcDbLine
62
7
6
CONTINUOUS
10
-74.6270697426
20
25.5961502733
11
-69.6270697426
21
25.5525159343
0
LINE
5
325
100
AcDbEntity
8
0
100
AcDbLine
62
7
6
CONTINUOUS
10
-87.3136486159
20
41.7865788733
11
-87.7264606855
21
42.1993909428
0
LINE
5
326
100
AcDbEntity
8
0
100
AcDbLine
62
7
6
CONTINUOUS
10
-84.6270697426
20
31.4000000000
11
-84.8270697426
21
31.3930158461
0
LINE
5
327
100
AcDbEntity
8
0
100
AcDbLine
62
7
6
CONTINUOUS
10
-84.8270697426
20
32.8000000000
11
-84.6270697426
21
32.8000000000
0
LINE
5
328
100
AcDbEntity
8
0
100
AcDbLine
62
9
6
CONTINUOUS
10
-76.6270697426
20
36.7000000000
11
-74.6270697426
21
36.7000000000
0
LINE
5
329
100
AcDbEntity
8
0
100
AcDbLine
62
9
6
CONTINUOUS
10
-92.4587123916
20
38.4900000000
11
-84.9137017697
21
38.4900000000
0
LINE
5
32A
100
AcDbEntity
8
0
100
AcDbLine
62
9
6
CONTINUOUS
10
-76.6270697426
20
38.5000000000
11
-84.2234355101
21
38.5000000000
0
LINE
5
32B
100
AcDbEntity
8
0
100
AcDbLine
62
7
6
CONTINUOUS
10
-92.9812088248
20
42.1076689729
11
-87.7264606855
21
42.1993909428
0
LINE
5
32C
100
AcDbEntity
8
0
100
AcDbLine
62
7
6
CONTINUOUS
10
-76.6270697426
20
42.5000000000
11
-86.8270697426
21
42.3219583377
0
LINE
5
32D
100
AcDbEntity
8
0
100
AcDbLine
62
7
6
CONTINUOUS
10
-75.0234614781
20
39.5703144605
11
-76.6270697426
21
40.0000000000
0
ARC
5
32E
100
AcDbEntity
8
0
100
AcDbCircle
62
9
6
CONTINUOUS
10
33.4500000000
20
-22.2000000000
40
1.7804947868
100
AcDbArc
50
270.0000000000
51
360.0000000000
0
ARC
5
32F
100
AcDbEntity
8
0
100
AcDbCircle
62
9
6
CONTINUOUS
10
33.4500000000
20
-22.2000000000
40
0.7806392312
100
AcDbArc
50
270.0000000000
51
360.0000000000
0
ARC
5
330
100
AcDbEntity
8
0
100
AcDbCircle
62
9
6
CONTINUOUS
10
-33.4500000000
20
-22.2000000000
40
1.7804947868
100
AcDbArc
50
180.0000000000
51
270.0000000000
0
ARC
5
331
100
AcDbEntity
8
0
100
AcDbCircle
62
9
6
CONTINUOUS
10
-33.4500000000
20
-22.2000000000
40
0.7806392312
100
AcDbArc
50
180.0000000000
51
270.0000000000
0
ARC
5
332
100
AcDbEntity
8
0
100
AcDbCircle
62
9
6
CONTINUOUS
10
-33.4500000000
20
22.2000000000
40
1.7804947868
100
AcDbArc
50
90.0000000000
51
180.0000000000
0
ARC
5
333
100
AcDbEntity
8
0
100
AcDbCircle
62
9
6
CONTINUOUS
10
-33.4500000000
20
22.2000000000
40
0.7806392312
100
AcDbArc
50
90.0000000000
51
180.0000000000
0
ARC
5
334
100
AcDbEntity
8
0
100
AcDbCircle
62
9
6
CONTINUOUS
10
33.4500000000
20
22.2000000000
40
1.7804947868
100
AcDbArc
50
0.0000000000
51
90.0000000000
0
ARC
5
335
100
AcDbEntity
8
0
100
AcDbCircle
62
9
6
CONTINUOUS
10
33.4500000000
20
22.2000000000
40
0.7806392312
100
AcDbArc
50
0.0000000000
51
90.0000000000
0
ARC
5
336
100
AcDbEntity
8
0
100
AcDbCircle
62
7
6
CONTINUOUS
10
57.0000000000
20
-38.5000000000
40
4.0000000000
100
AcDbArc
50
270.0000000000
51
360.0000000000
0
ARC
5
337
100
AcDbEntity
8
0
100
AcDbCircle
62
7
6
CONTINUOUS
10
57.0000000000
20
38.5000000000
40
4.0000000000
100
AcDbArc
50
0.0000000000
51
90.0000000000
0
ARC
5
338
100
AcDbEntity
8
0
100
AcDbCircle
62
7
6
CONTINUOUS
10
-57.0000000000
20
38.5000000000
40
4.0000000000
100
AcDbArc
50
90.0000000000
51
180.0000000000
0
ARC
5
339
100
AcDbEntity
8
0
100
AcDbCircle
62
7
6
CONTINUOUS
10
-57.0000000000
20
-38.5000000000
40
4.0000000000
100
AcDbArc
50
180.0000000000
51
270.0000000000
0
ARC
5
33A
100
AcDbEntity
8
0
100
AcDbCircle
62
9
6
CONTINUOUS
10
-57.0000000000
20
-38.5000000000
40
3.8689346966
100
AcDbArc
50
180.0000000000
51
270.0000000000
0
ARC
5
33B
100
AcDbEntity
8
0
100
AcDbCircle
62
9
6
CONTINUOUS
10
57.0000000000
20
-38.5000000000
40
3.8689346966
100
AcDbArc
50
270.0000000000
51
360.0000000000
0
ARC
5
33C
100
AcDbEntity
8
0
100
AcDbCircle
62
7
6
CONTINUOUS
10
57.0000000000
20
38.5000000000
40
3.8219583377
100
AcDbArc
50
76.0328463687
51
90.0000000000
0
ARC
5
33D
100
AcDbEntity
8
0
100
AcDbCircle
62
7
6
CONTINUOUS
10
-57.0000000000
20
38.5000000000
40
3.8219583377
100
AcDbArc
50
90.0000000000
51
103.9651742306
0
ARC
5
33E
100
AcDbEntity
8
0
100
AcDbCircle
62
7
6
CONTINUOUS
10
-56.9900000000
20
-38.4900000000
40
3.7600000000
100
AcDbArc
50
180.0000000000
51
270.0000000000
0
ARC
5
33F
100
AcDbEntity
8
0
100
AcDbCircle
62
7
6
CONTINUOUS
10
-27.2499999891
20
-41.4500000000
40
0.7500000000
100
AcDbArc
50
229.7886714079
51
270.0000000462
0
ARC
5
340
100
AcDbEntity
8
0
100
AcDbCircle
62
7
6
CONTINUOUS
10
27.2500000000
20
-41.4500000000
40
0.7500000000
100
AcDbArc
50
269.9999992452
51
310.2113762881
0
ARC
5
341
100
AcDbEntity
8
0
100
AcDbCircle
62
7
6
CONTINUOUS
10
56.9900000000
20
-38.4900000000
40
3.7600000000
100
AcDbArc
50
270.0000000000
51
360.0000000000
0
ARC
5
342
100
AcDbEntity
8
0
100
AcDbCircle
62
7
6
CONTINUOUS
10
36.1380150000
20
-30.4393230000
40
0.3528650000
100
AcDbArc
50
269.9035448880
51
90.0000000000
0
ARC
5
343
100
AcDbEntity
8
0
100
AcDbCircle
62
7
6
CONTINUOUS
10
36.2185210000
20
-30.4393230000
40
0.8893898871
100
AcDbArc
50
292.8428685270
51
90.0000000000
0
ARC
5
344
100
AcDbEntity
8
0
100
AcDbCircle
62
7
6
CONTINUOUS
10
-33.4500000000
20
-22.2000000000
40
2.3000000000
100
AcDbArc
50
180.0000000000
51
270.0000000000
0
ARC
5
345
100
AcDbEntity
8
0
100
AcDbCircle
62
7
6
CONTINUOUS
10
33.4500000000
20
-22.2000000000
40
2.3000000000
100
AcDbArc
50
270.0000000000
51
360.0000000000
0
ARC
5
346
100
AcDbEntity
8
0
100
AcDbCircle
62
7
6
CONTINUOUS
10
33.4500000000
20
22.2000000000
40
2.3000000000
100
AcDbArc
50
0.0000000000
51
90.0000000000
0
ARC
5
347
100
AcDbEntity
8
0
100
AcDbCircle
62
7
6
CONTINUOUS
10
-33.4500000000
20
22.2000000000
40
2.3000000000
100
AcDbArc
50
90.0000000000
51
180.0000000000
0
ARC
5
348
100
AcDbEntity
8
0
100
AcDbCircle
62
7
6
CONTINUOUS
10
33.4500000000
20
22.2000000000
40
1.8000000000
100
AcDbArc
50
0.0000000000
51
90.0000000000
0
ARC
5
349
100
AcDbEntity
8
0
100
AcDbCircle
62
7
6
CONTINUOUS
10
33.4500000000
20
-22.2000000000
40
1.8000000000
100
AcDbArc
50
270.0000000000
51
360.0000000000
0
ARC
5
34A
100
AcDbEntity
8
0
100
AcDbCircle
62
7
6
CONTINUOUS
10
-33.4500000000
20
-22.2000000000
40
1.8000000000
100
AcDbArc
50
180.0000000000
51
270.0000000000
0
ARC
5
34B
100
AcDbEntity
8
0
100
AcDbCircle
62
7
6
CONTINUOUS
10
-33.4500000000
20
22.2000000000
40
1.8000000000
100
AcDbArc
50
90.0000000000
51
180.0000000000
0
ARC
5
34C
100
AcDbEntity
8
0
100
AcDbCircle
62
9
6
CONTINUOUS
10
33.4500000000
20
22.2000000000
40
3.8979217963
100
AcDbArc
50
0.0000000000
51
90.0000000000
0
ARC
5
34D
100
AcDbEntity
8
0
100
AcDbCircle
62
9
6
CONTINUOUS
10
-33.4500000000
20
22.2000000000
40
3.8979188961
100
AcDbArc
50
90.0000000000
51
180.0000000000
0
ARC
5
34E
100
AcDbEntity
8
0
100
AcDbCircle
62
7
6
CONTINUOUS
10
-75.1618807532
20
-39.0537266933
40
0.5348110105
100
AcDbArc
50
285.0000000000
51
359.9999999998
0
ARC
5
34F
100
AcDbEntity
8
0
100
AcDbCircle
62
7
6
CONTINUOUS
10
-75.1618807532
20
39.0537266933
40
0.5348110105
100
AcDbArc
50
0.0000000000
51
75.0000000000
0
ARC
5
350
100
AcDbEntity
8
0
100
AcDbCircle
62
7
6
CONTINUOUS
10
-97.4270697426
20
-22.9806471005
40
1.0000000000
100
AcDbArc
50
180.0000000000
51
268.9999999979
0
ARC
5
351
100
AcDbEntity
8
0
100
AcDbCircle
62
7
6
CONTINUOUS
10
-97.4270697426
20
22.9806471005
40
1.0000000000
100
AcDbArc
50
91.0000000000
51
180.0000000000
0
ARC
5
352
100
AcDbEntity
8
0
100
AcDbCircle
62
7
6
CONTINUOUS
10
-92.9554752709
20
40.6278927082
40
1.4800000000
100
AcDbArc
50
91.0000000000
51
161.2499366584
0
ARC
5
353
100
AcDbEntity
8
0
100
AcDbCircle
62
7
6
CONTINUOUS
10
-92.7770697317
20
-41.4500000000
40
0.7500000000
100
AcDbArc
50
240.0018885533
51
270.0000000444
0
ARC
5
354
100
AcDbEntity
8
0
100
AcDbCircle
62
7
6
CONTINUOUS
10
-90.5270697426
20
37.5000000000
40
5.7000000000
100
AcDbArc
50
0.0000000000
51
48.8534055721
0
ARC
5
355
100
AcDbEntity
8
0
100
AcDbCircle
62
7
6
CONTINUOUS
10
-99.5667028360
20
27.9137890206
40
3.0400000014
100
AcDbArc
50
346.8999392910
51
348.5038789684
0
ARC
5
356
100
AcDbEntity
8
0
100
AcDbCircle
62
7
6
CONTINUOUS
10
-96.3270697426
20
25.5000000000
40
1.0000000000
100
AcDbArc
50
143.2845903915
51
180.0000000000
0
ARC
5
357
100
AcDbEntity
8
0
100
AcDbCircle
62
7
6
CONTINUOUS
10
-96.3270697426
20
-25.5000000000
40
1.0000000000
100
AcDbArc
50
180.0000000000
51
216.6559622718
0
ARC
5
358
100
AcDbEntity
8
0
100
AcDbCircle
62
7
6
CONTINUOUS
10
-94.4067817824
20
-40.6025600588
40
1.4800000000
100
AcDbArc
50
185.7708269052
51
268.9999165998
0
ARC
5
359
100
AcDbEntity
8
0
100
AcDbCircle
62
7
6
CONTINUOUS
10
-84.1270697426
20
-41.8690108490
40
0.5000000000
100
AcDbArc
50
180.0000000000
51
269.0000000000
0
ARC
5
35A
100
AcDbEntity
8
0
100
AcDbCircle
62
7
6
CONTINUOUS
10
-90.5270697426
20
37.5000000000
40
5.9000000000
100
AcDbArc
50
0.0000000000
51
51.1621401980
0
SPLINE
5
35B
100
AcDbEntity
8
0
100
AcDbSpline
62
7
6
CONTINUOUS
70
0
71
3
72
9
73
5
74
3
42
0.0000001000
43
0.0000001000
44
0.0000000001
12
0.0268105786
22
0.0450814091
32
0.0000000000
13
0.0186920998
23
0.0490516719
33
0.0000000000
40
0.0000000000
40
0.0000000000
40
0.0000000000
40
0.0000000000
40
0.7675247933
40
1.0000000000
40
1.0000000000
40
1.0000000000
40
1.0000000000
10
-26.5428498098
20
-42.2472113461
30
0.0000000000
10
-26.5359905485
20
-42.2356776464
30
0.0000000000
10
-26.5280411485
20
-42.2200380368
30
0.0000000000
10
-26.5214829858
20
-42.2038111089
30
0.0000000000
10
-26.5200345026
20
-42.2000100097
30
0.0000000000
11
-26.5428498098
21
-42.2472113461
31
0.0000000000
11
-26.5246073953
21
-42.2113240843
31
0.0000000000
11
-26.5200345026
21
-42.2000100097
31
0.0000000000
0
SPLINE
5
35C
100
AcDbEntity
8
0
100
AcDbSpline
62
9
6
CONTINUOUS
70
0
71
3
72
16
73
12
74
10
42
0.0000001000
43
0.0000001000
44
0.0000000001
12
0.3353398246
22
0.0000000000
32
0.0000000000
13
0.1466322310
23
0.3018481936
33
0.0000000000
40
0.0000000000
40
0.0000000000
40
0.0000000000
40
0.0000000000
40
0.1170212060
40
0.2340418064
40
0.3510612370
40
0.4680790130
40
0.5850947624
40
0.7021082510
40
0.8191193987
40
0.9361282845
40
1.0000000000
40
1.0000000000
40
1.0000000000
40
1.0000000000
10
-26.8000000000
20
-42.3689346966
30
0.0000000000
10
-26.7869193764
20
-42.3689346966
30
0.0000000000
10
-26.7607259137
20
-42.3672190457
30
0.0000000000
10
-26.7221335446
20
-42.3595426411
30
0.0000000000
10
-26.6848665429
20
-42.3468946515
30
0.0000000000
10
-26.6495713440
20
-42.3294914792
30
0.0000000000
10
-26.6168495013
20
-42.3076308922
30
0.0000000000
10
-26.5872615276
20
-42.2816869107
30
0.0000000000
10
-26.5613135171
20
-42.2521034818
30
0.0000000000
10
-26.5427590688
20
-42.2243389835
30
0.0000000000
10
-26.5332682534
20
-42.2064552695
30
0.0000000000
10
-26.5301463694
20
-42.2000287488
30
0.0000000000
11
-26.8000000000
21
-42.3689346966
31
0.0000000000
11
-26.7608421237
21
-42.3663685435
31
0.0000000000
11
-26.7223542514
21
-42.3587139920
31
0.0000000000
11
-26.6851949226
21
-42.3461020146
31
0.0000000000
11
-26.6499999448
21
-42.3287484074
31
0.0000000000
11
-26.6173715144
21
-42.3069500970
31
0.0000000000
11
-26.5878679125
21
-42.2810800605
31
0.0000000000
11
-26.5619939531
21
-42.2515809431
31
0.0000000000
11
-26.5401923452
21
-42.2189574841
31
0.0000000000
11
-26.5301463694
21
-42.2000287488
31
0.0000000000
0
SPLINE
5
35D
100
AcDbEntity
8
0
100
AcDbSpline
62
7
6
CONTINUOUS
70
0
71
3
72
16
73
12
74
10
42
0.0000001000
43
0.0000001000
44
0.0000000001
12
0.1588105700
22
-0.2670365449
32
0.0000000000
13
0.3106443640
23
-0.0054214917
33
0.0000000000
40
0.0000000000
40
0.0000000000
40
0.0000000000
40
0.0000000000
40
0.1273066268
40
0.2483964020
40
0.3644226533
40
0.4763958063
40
0.5851457083
40
0.6913585658
40
0.7956041356
40
0.8983513285
40
1.0000000000
40
1.0000000000
40
1.0000000000
40
1.0000000000
10
26.5428498098
20
-42.2472113461
30
0.0000000000
10
26.5495890224
20
-42.2585431867
30
0.0000000000
10
26.5641828604
20
-42.2798309234
30
0.0000000000
10
26.5893114862
20
-42.3081090057
30
0.0000000000
10
26.6164429164
20
-42.3321299683
30
0.0000000000
10
26.6450991526
20
-42.3521367575
30
0.0000000000
10
26.6749092585
20
-42.3683365255
30
0.0000000000
10
26.7055616783
20
-42.3808878776
30
0.0000000000
10
26.7367828461
20
-42.3899111981
30
0.0000000000
10
26.7683125256
20
-42.3954969238
30
0.0000000000
10
26.7894744710
20
-42.3969819589
30
0.0000000000
10
26.8000000000
20
-42.3971656547
30
0.0000000000
11
26.5428498098
21
-42.2472113461
31
0.0000000000
11
26.5652137849
21
-42.2798349726
31
0.0000000000
11
26.5902027102
21
-42.3079585788
31
0.0000000000
11
26.6171934383
21
-42.3318539130
31
0.0000000000
11
26.6457190158
21
-42.3517680965
31
0.0000000000
11
26.6754072036
21
-42.3678994141
31
0.0000000000
11
26.7059465767
21
-42.3804018295
31
0.0000000000
11
26.7370620770
21
-42.3893919957
31
0.0000000000
11
26.7684959083
21
-42.3949573196
31
0.0000000000
11
26.8000000000
21
-42.3971656547
31
0.0000000000
0
SPLINE
5
35E
100
AcDbEntity
8
0
100
AcDbSpline
62
7
6
CONTINUOUS
70
0
71
3
72
16
73
12
74
10
42
0.0000001000
43
0.0000001000
44
0.0000000001
12
-0.1588105700
22
-0.2670365449
32
0.0000000000
13
-0.3106443640
23
-0.0054214917
33
0.0000000000
40
0.0000000000
40
0.0000000000
40
0.0000000000
40
0.0000000000
40
0.1273066268
40
0.2483964020
40
0.3644226533
40
0.4763958063
40
0.5851457083
40
0.6913585658
40
0.7956041356
40
0.8983513285
40
1.0000000000
40
1.0000000000
40
1.0000000000
40
1.0000000000
10
-26.5428498098
20
-42.2472113461
30
0.0000000000
10
-26.5495890224
20
-42.2585431867
30
0.0000000000
10
-26.5641828604
20
-42.2798309234
30
0.0000000000
10
-26.5893114862
20
-42.3081090057
30
0.0000000000
10
-26.6164429164
20
-42.3321299683
30
0.0000000000
10
-26.6450991526
20
-42.3521367575
30
0.0000000000
10
-26.6749092585
20
-42.3683365255
30
0.0000000000
10
-26.7055616783
20
-42.3808878776
30
0.0000000000
10
-26.7367828461
20
-42.3899111981
30
0.0000000000
10
-26.7683125256
20
-42.3954969238
30
0.0000000000
10
-26.7894744710
20
-42.3969819589
30
0.0000000000
10
-26.8000000000
20
-42.3971656547
30
0.0000000000
11
-26.5428498098
21
-42.2472113461
31
0.0000000000
11
-26.5652137849
21
-42.2798349726
31
0.0000000000
11
-26.5902027102
21
-42.3079585788
31
0.0000000000
11
-26.6171934383
21
-42.3318539130
31
0.0000000000
11
-26.6457190158
21
-42.3517680965
31
0.0000000000
11
-26.6754072036
21
-42.3678994141
31
0.0000000000
11
-26.7059465767
21
-42.3804018295
31
0.0000000000
11
-26.7370620770
21
-42.3893919957
31
0.0000000000
11
-26.7684959083
21
-42.3949573196
31
0.0000000000
11
-26.8000000000
21
-42.3971656547
31
0.0000000000
0
SPLINE
5
35F
100
AcDbEntity
8
0
100
AcDbSpline
62
7
6
CONTINUOUS
70
0
71
3
72
9
73
5
74
3
42
0.0000001000
43
0.0000001000
44
0.0000000001
12
-0.0268105786
22
0.0450814091
32
0.0000000000
13
-0.0186920998
23
0.0490516719
33
0.0000000000
40
0.0000000000
40
0.0000000000
40
0.0000000000
40
0.0000000000
40
0.7675247933
40
1.0000000000
40
1.0000000000
40
1.0000000000
40
1.0000000000
10
26.5428498098
20
-42.2472113461
30
0.0000000000
10
26.5359905485
20
-42.2356776464
30
0.0000000000
10
26.5280411485
20
-42.2200380368
30
0.0000000000
10
26.5214829858
20
-42.2038111089
30
0.0000000000
10
26.5200345026
20
-42.2000100097
30
0.0000000000
11
26.5428498098
21
-42.2472113461
31
0.0000000000
11
26.5246073953
21
-42.2113240843
31
0.0000000000
11
26.5200345026
21
-42.2000100097
31
0.0000000000
0
SPLINE
5
360
100
AcDbEntity
8
0
100
AcDbSpline
62
9
6
CONTINUOUS
70
0
71
3
72
16
73
12
74
10
42
0.0000001000
43
0.0000001000
44
0.0000000001
12
-0.3353398249
22
-0.0000000000
32
0.0000000000
13
-0.1466322311
23
0.3018481940
33
0.0000000000
40
0.0000000000
40
0.0000000000
40
0.0000000000
40
0.0000000000
40
0.1170211501
40
0.2340416981
40
0.3510610830
40
0.4680788230
40
0.5850945484
40
0.7021080268
40
0.8191191788
40
0.9361280837
40
1.0000000000
40
1.0000000000
40
1.0000000000
40
1.0000000000
10
26.8000000000
20
-42.3689346966
30
0.0000000000
10
26.7869193827
20
-42.3689346966
30
0.0000000000
10
26.7607259321
20
-42.3672190473
30
0.0000000000
10
26.7221335793
20
-42.3595426497
30
0.0000000000
10
26.6848665900
20
-42.3468946703
30
0.0000000000
10
26.6495713984
20
-42.3294915101
30
0.0000000000
10
26.6168495574
20
-42.3076309349
30
0.0000000000
10
26.5872615798
20
-42.2816869628
30
0.0000000000
10
26.5613135609
20
-42.2521035392
30
0.0000000000
10
26.5427590921
20
-42.2243390244
30
0.0000000000
10
26.5332682632
20
-42.2064552895
30
0.0000000000
10
26.5301463693
20
-42.2000287487
30
0.0000000000
11
26.8000000000
21
-42.3689346966
31
0.0000000000
11
26.7608421423
21
-42.3663685459
31
0.0000000000
11
26.7223542865
21
-42.3587140014
31
0.0000000000
11
26.6851949703
21
-42.3461020344
31
0.0000000000
11
26.6500000000
21
-42.3287484392
31
0.0000000000
11
26.6173715713
21
-42.3069501407
31
0.0000000000
11
26.5878679656
21
-42.2810801137
31
0.0000000000
11
26.5619939979
21
-42.2515810016
31
0.0000000000
11
26.5401923789
21
-42.2189575423
31
0.0000000000
11
26.5301463693
21
-42.2000287487
31
0.0000000000
0
SPLINE
5
361
100
AcDbEntity
8
0
100
AcDbSpline
62
7
6
CONTINUOUS
70
0
71
3
72
23
73
19
74
17
42
0.0000001000
43
0.0000001000
44
0.0000000001
12
-0.1843480506
22
-0.0458441628
32
0.0000000000
13
0.1899628675
23
-0.0000000054
33
0.0000000000
40
0.0000000000
40
0.0000000000
40
0.0000000000
40
0.0000000000
40
0.1043577441
40
0.2027877551
40
0.2914442439
40
0.3704266616
40
0.4410505973
40
0.5035218415
40
0.5577482038
40
0.6063171233
40
0.6502055107
40
0.6906541365
40
0.7307332049
40
0.7735807111
40
0.8205736248
40
0.8726062283
40
0.9322754025
40
1.0000000000
40
1.0000000000
40
1.0000000000
40
1.0000000000
10
-57.9223610203
20
42.2089905926
30
0.0000000000
10
-57.9287737359
20
42.2073958615
30
0.0000000000
10
-57.9410190514
20
42.2033564956
30
0.0000000000
10
-57.9576369723
20
42.1952133178
30
0.0000000000
10
-57.9717127152
20
42.1858681278
30
0.0000000000
10
-57.9831249896
20
42.1759332413
30
0.0000000000
10
-57.9919838208
20
42.1657798186
30
0.0000000000
10
-57.9983755689
20
42.1557275698
30
0.0000000000
10
-58.0024413491
20
42.1460243748
30
0.0000000000
10
-58.0043376777
20
42.1368645199
30
0.0000000000
10
-58.0042064879
20
42.1283747776
30
0.0000000000
10
-58.0022052168
20
42.1206754710
30
0.0000000000
10
-57.9984185763
20
42.1137530698
30
0.0000000000
10
-57.9927877137
20
42.1076484305
30
0.0000000000
10
-57.9853002054
20
42.1025591561
30
0.0000000000
10
-57.9759734750
20
42.0986647069
30
0.0000000000
10
-57.9648367600
20
42.0961764693
30
0.0000000000
10
-57.9567535917
20
42.0956501174
30
0.0000000000
10
-57.9524652054
20
42.0956501172
30
0.0000000000
11
-57.9223610203
21
42.2089905926
31
0.0000000000
11
-57.9411962463
21
42.2028076274
31
0.0000000000
11
-57.9579810689
21
42.1945682891
31
0.0000000000
11
-57.9719898429
21
42.1852201138
31
0.0000000000
11
-57.9832698957
21
42.1753270749
31
0.0000000000
11
-57.9920376941
21
42.1651726294
31
0.0000000000
11
-57.9983385119
21
42.1551162619
31
0.0000000000
11
-58.0022466095
21
42.1455854027
31
0.0000000000
11
-58.0040431602
21
42.1365357146
31
0.0000000000
11
-58.0038582611
21
42.1282006012
31
0.0000000000
11
-58.0019025049
21
42.1207699329
31
0.0000000000
11
-57.9982585257
21
42.1140850749
31
0.0000000000
11
-57.9927745751
21
42.1080703687
31
0.0000000000
11
-57.9854324791
21
42.1029926404
31
0.0000000000
11
-57.9763423786
21
42.0991107956
31
0.0000000000
11
-57.9652981282
21
42.0965602834
31
0.0000000000
11
-57.9524652054
21
42.0956501172
31
0.0000000000
0
SPLINE
5
362
100
AcDbEntity
8
0
100
AcDbSpline
62
9
6
CONTINUOUS
70
0
71
3
72
17
73
13
74
11
42
0.0000001000
43
0.0000001000
44
0.0000000001
12
-0.7981666558
22
-0.1870765253
32
0.0000000000
13
-0.7399222055
23
-0.3530004564
33
0.0000000000
40
0.0000000000
40
0.0000000000
40
0.0000000000
40
0.0000000000
40
0.1051334257
40
0.2100530008
40
0.3146294983
40
0.4187902082
40
0.5224787287
40
0.6256822701
40
0.7284046665
40
0.8306467699
40
0.9324152399
40
1.0000000000
40
1.0000000000
40
1.0000000000
40
1.0000000000
10
-57.9223427885
20
42.2089957288
30
0.0000000000
10
-57.9503141201
20
42.2024397301
30
0.0000000000
10
-58.0060542738
20
42.1887105596
30
0.0000000000
10
-58.0890588336
20
42.1662704690
30
0.0000000000
10
-58.1712830423
20
42.1420440189
30
0.0000000000
10
-58.2526227260
20
42.1160824412
30
0.0000000000
10
-58.3330074370
20
42.0884326869
30
0.0000000000
10
-58.4123885259
20
42.0591381864
30
0.0000000000
10
-58.4907338017
20
42.0282384273
30
0.0000000000
10
-58.5680173762
20
41.9957713554
30
0.0000000000
10
-58.6358005252
20
41.9655291175
30
0.0000000000
10
-58.6777147931
20
41.9459055010
30
0.0000000000
10
-58.6943839481
20
41.9379530173
30
0.0000000000
11
-57.9223427885
21
42.2089957288
31
0.0000000000
11
-58.0060296976
21
42.1883828727
31
0.0000000000
11
-58.0890616044
21
42.1659351158
31
0.0000000000
11
-58.1712978271
21
42.1417049855
31
0.0000000000
11
-58.2526453875
21
42.1157407605
31
0.0000000000
11
-58.3330267072
21
42.0880920631
31
0.0000000000
11
-58.4124002777
21
42.0588002694
31
0.0000000000
11
-58.4907389455
21
42.0279030627
31
0.0000000000
11
-58.5680146009
21
41.9954392829
31
0.0000000000
11
-58.6442048160
21
41.9614461123
31
0.0000000000
11
-58.6943839481
21
41.9379530173
31
0.0000000000
0
SPLINE
5
363
100
AcDbEntity
8
0
100
AcDbSpline
62
9
6
CONTINUOUS
70
0
71
3
72
10
73
6
74
4
42
0.0000001000
43
0.0000001000
44
0.0000000001
12
-0.1491072213
22
-0.0711357448
32
0.0000000000
13
-0.1458841538
23
-0.0775309735
33
0.0000000000
40
0.0000000000
40
0.0000000000
40
0.0000000000
40
0.0000000000
40
0.1673040256
40
0.6676801730
40
1.0000000000
40
1.0000000000
40
1.0000000000
40
1.0000000000
10
-58.6943839481
20
41.9379530173
30
0.0000000000
10
-58.7026993609
20
41.9339859185
30
0.0000000000
10
-58.7358272590
20
41.9180336014
30
0.0000000000
10
-58.7850952766
20
41.8934246093
30
0.0000000000
10
-58.8257426764
20
41.8721963779
30
0.0000000000
10
-58.8419027420
20
41.8636080180
30
0.0000000000
11
-58.6943839481
21
41.9379530173
31
0.0000000000
11
-58.7192868079
21
41.9259613601
31
0.0000000000
11
-58.7932386281
21
41.8890229948
31
0.0000000000
11
-58.8419027420
21
41.8636080180
31
0.0000000000
0
SPLINE
5
364
100
AcDbEntity
8
0
100
AcDbSpline
62
9
6
CONTINUOUS
70
0
71
3
72
8
73
4
74
2
42
0.0000001000
43
0.0000001000
44
0.0000000001
12
-0.0241856875
22
-0.0128536229
32
0.0000000000
13
-0.0240926794
23
-0.0130271184
33
0.0000000000
40
0.0000000000
40
0.0000000000
40
0.0000000000
40
0.0000000000
40
1.0000000000
40
1.0000000000
40
1.0000000000
40
1.0000000000
10
-58.8419027420
20
41.8636080180
30
0.0000000000
10
-58.8499646378
20
41.8593234770
30
0.0000000000
10
-58.8580111366
20
41.8550099651
30
0.0000000000
10
-58.8660420297
20
41.8506675923
30
0.0000000000
11
-58.8419027420
21
41.8636080180
31
0.0000000000
11
-58.8660420297
21
41.8506675923
31
0.0000000000
0
SPLINE
5
365
100
AcDbEntity
8
0
100
AcDbSpline
62
9
6
CONTINUOUS
70
0
71
3
72
60
73
56
74
54
42
0.0000001000
43
0.0000001000
44
0.0000000001
12
-3.4802759434
22
-1.8818150537
32
0.0000000000
13
-0.1552295876
23
-3.9533848104
33
0.0000000000
40
0.0000000000
40
0.0000000000
40
0.0000000000
40
0.0000000000
40
0.0207062445
40
0.0413213546
40
0.0618467844
40
0.0822837923
40
0.1026335588
40
0.1228971891
40
0.1430757225
40
0.1631701671
40
0.1831815142
40
0.2031107434
40
0.2229588298
40
0.2427267497
40
0.2624154875
40
0.2820260371
40
0.3015594041
40
0.3210166131
40
0.3403987120
40
0.3597067741
40
0.3789419005
40
0.3981052226
40
0.4171979063
40
0.4362211545
40
0.4551762011
40
0.4740643153
40
0.4928868089
40
0.5116450368
40
0.5303403976
40
0.5489743345
40
0.5675483365
40
0.5860639393
40
0.6045227234
40
0.6229263143
40
0.6412763847
40
0.6595746538
40
0.6778228875
40
0.6960228975
40
0.7141765405
40
0.7322857178
40
0.7503523737
40
0.7683784943
40
0.7863661064
40
0.8043172764
40
0.8222341086
40
0.8401187435
40
0.8579733558
40
0.8758001526
40
0.8936013710
40
0.9113792765
40
0.9291361583
40
0.9468743360
40
0.9645961284
40
0.9823039358
40
1.0000000000
40
1.0000000000
40
1.0000000000
40
1.0000000000
10
-58.8660420297
20
41.8506675923
30
0.0000000000
10
-58.8900631779
20
41.8376791515
30
0.0000000000
10
-58.9377211284
20
41.8112441559
30
0.0000000000
10
-59.0081869931
20
41.7701573995
30
0.0000000000
10
-59.0774565338
20
41.7277607258
30
0.0000000000
10
-59.1455144903
20
41.6840900012
30
0.0000000000
10
-59.2123461720
20
41.6391810676
30
0.0000000000
10
-59.2779375938
20
41.5930696626
30
0.0000000000
10
-59.3422755139
20
41.5457913887
30
0.0000000000
10
-59.4053474821
20
41.4973816667
30
0.0000000000
10
-59.4671418775
20
41.4478756861
30
0.0000000000
10
-59.5276479143
20
41.3973083727
30
0.0000000000
10
-59.5868556374
20
41.3457143612
30
0.0000000000
10
-59.6447559168
20
41.2931279656
30
0.0000000000
10
-59.7013404361
20
41.2395831529
30
0.0000000000
10
-59.7566016754
20
41.1851135205
30
0.0000000000
10
-59.8105328946
20
41.1297522724
30
0.0000000000
10
-59.8631281168
20
41.0735321927
30
0.0000000000
10
-59.9143821114
20
41.0164856198
30
0.0000000000
10
-59.9642903707
20
40.9586444245
30
0.0000000000
10
-60.0128490849
20
40.9000399903
30
0.0000000000
10
-60.0600551173
20
40.8407031926
30
0.0000000000
10
-60.1059059791
20
40.7806643788
30
0.0000000000
10
-60.1503997965
20
40.7199533564
30
0.0000000000
10
-60.1935352772
20
40.6585993847
30
0.0000000000
10
-60.2353116826
20
40.5966311602
30
0.0000000000
10
-60.2757288014
20
40.5340767976
30
0.0000000000
10
-60.3147869218
20
40.4709638136
30
0.0000000000
10
-60.3524867966
20
40.4073191204
30
0.0000000000
10
-60.3888296101
20
40.3431690187
30
0.0000000000
10
-60.4238169446
20
40.2785391920
30
0.0000000000
10
-60.4574507456
20
40.2134547051
30
0.0000000000
10
-60.4897332860
20
40.1479400054
30
0.0000000000
10
-60.5206671324
20
40.0820189238
30
0.0000000000
10
-60.5502551119
20
40.0157146764
30
0.0000000000
10
-60.5785002794
20
39.9490498657
30
0.0000000000
10
-60.6054058831
20
39.8820464886
30
0.0000000000
10
-60.6309753318
20
39.8147259445
30
0.0000000000
10
-60.6552121615
20
39.7471090464
30
0.0000000000
10
-60.6781200033
20
39.6792160335
30
0.0000000000
10
-60.6997025519
20
39.6110665859
30
0.0000000000
10
-60.7199635350
20
39.5426798414
30
0.0000000000
10
-60.7389066841
20
39.4740744130
30
0.0000000000
10
-60.7565357060
20
39.4052684078
30
0.0000000000
10
-60.7728542559
20
39.3362794481
30
0.0000000000
10
-60.7878659111
20
39.2671246941
30
0.0000000000
10
-60.8015741464
20
39.1978208693
30
0.0000000000
10
-60.8139823106
20
39.1283842858
30
0.0000000000
10
-60.8250936052
20
39.0588308710
30
0.0000000000
10
-60.8349110639
20
38.9891761991
30
0.0000000000
10
-60.8434375351
20
38.9194355104
30
0.0000000000
10
-60.8506756621
20
38.8496237732
30
0.0000000000
10
-60.8566278770
20
38.7797556205
30
0.0000000000
10
-60.8612963659
20
38.7098456557
30
0.0000000000
10
-60.8635548253
20
38.6632072802
30
0.0000000000
10
-60.8644704762
20
38.6398874964
30
0.0000000000
11
-58.8660420297
21
41.8506675923
31
0.0000000000
11
-58.9376811058
21
41.8109307131
31
0.0000000000
11
-59.0081399411
21
41.7698480698
31
0.0000000000
11
-59.0774028331
21
41.7274554841
31
0.0000000000
11
-59.1454543843
21
41.6837888915
31
0.0000000000
11
-59.2122798982
21
41.6388841275
31
0.0000000000
11
-59.2778653762
21
41.5927769284
31
0.0000000000
11
-59.3421975367
21
41.5455029163
31
0.0000000000
11
-59.4052639119
21
41.4970975183
31
0.0000000000
11
-59.4670528746
21
41.4475959228
31
0.0000000000
11
-59.5275536301
21
41.3970330573
31
0.0000000000
11
-59.5867562160
21
41.3454435577
31
0.0000000000
11
-59.6446514949
21
41.2928617400
31
0.0000000000
11
-59.7012311477
21
41.2393215696
31
0.0000000000
11
-59.7564876518
21
41.1848566427
31
0.0000000000
11
-59.8104142594
21
41.1295001673
31
0.0000000000
11
-59.8630049892
21
41.0732849291
31
0.0000000000
11
-59.9142546082
21
41.0162432665
31
0.0000000000
11
-59.9641586064
21
40.9584070504
31
0.0000000000
11
-60.0127131716
21
40.8998076648
31
0.0000000000
11
-60.0599151632
21
40.8404759883
31
0.0000000000
11
-60.1057620909
21
40.7804423685
31
0.0000000000
11
-60.1502520851
21
40.7197366057
31
0.0000000000
11
-60.1933838507
21
40.6583879621
31
0.0000000000
11
-60.2351566431
21
40.5964251410
31
0.0000000000
11
-60.2755702516
21
40.5338762564
31
0.0000000000
11
-60.3146249641
21
40.4707688248
31
0.0000000000
11
-60.3523215333
21
40.4071297584
31
0.0000000000
11
-60.3886611435
21
40.3429853582
31
0.0000000000
11
-60.4236453769
21
40.2783613083
31
0.0000000000
11
-60.4572761805
21
40.2132826707
31
0.0000000000
11
-60.4895558283
21
40.1477738916
31
0.0000000000
11
-60.5204868862
21
40.0818588041
31
0.0000000000
11
-60.5500721821
21
40.0155606234
31
0.0000000000
11
-60.5783147721
21
39.9489019507
31
0.0000000000
11
-60.6052179056
21
39.8819047816
31
0.0000000000
11
-60.6307849926
21
39.8145905141
31
0.0000000000
11
-60.6550195702
21
39.7469799597
31
0.0000000000
11
-60.6779252710
21
39.6790933554
31
0.0000000000
11
-60.6995057913
21
39.6109503789
31
0.0000000000
11
-60.7197648598
21
39.5425701663
31
0.0000000000
11
-60.7387062096
21
39.4739713282
31
0.0000000000
11
-60.7563335487
21
39.4051719695
31
0.0000000000
11
-60.7726505338
21
39.3361897091
31
0.0000000000
11
-60.7876607437
21
39.2670417043
31
0.0000000000
11
-60.8013676541
21
39.1977446755
31
0.0000000000
11
-60.8137746155
21
39.1283149310
31
0.0000000000
11
-60.8248848303
21
39.0587683958
31
0.0000000000
11
-60.8347013336
21
38.9891206368
31
0.0000000000
11
-60.8432269736
21
38.9193869029
31
0.0000000000
11
-60.8504643984
21
38.8495821192
31
0.0000000000
11
-60.8564160306
21
38.7797210318
31
0.0000000000
11
-60.8610840806
21
38.7098179063
31
0.0000000000
11
-60.8644704762
21
38.6398874964
31
0.0000000000
0
SPLINE
5
366
100
AcDbEntity
8
0
100
AcDbSpline
62
9
6
CONTINUOUS
70
0
71
3
72
9
73
5
74
3
42
0.0000001000
43
0.0000001000
44
0.0000000001
12
-0.0054899584
22
-0.1398181783
32
0.0000000000
13
-0.0003784759
23
-0.1399235979
33
0.0000000000
40
0.0000000000
40
0.0000000000
40
0.0000000000
40
0.0000000000
40
0.5001034106
40
1.0000000000
40
1.0000000000
40
1.0000000000
40
1.0000000000
10
-60.8644704762
20
38.6398874964
30
0.0000000000
10
-60.8653856585
20
38.6165796471
30
0.0000000000
10
-60.8667897606
20
38.5699569465
30
0.0000000000
10
-60.8673418760
20
38.5233157765
30
0.0000000000
10
-60.8674049423
20
38.5000000000
30
0.0000000000
11
-60.8644704762
21
38.6398874964
31
0.0000000000
11
-60.8665769662
21
38.5699426847
31
0.0000000000
11
-60.8674049423
21
38.5000000000
31
0.0000000000
0
SPLINE
5
367
100
AcDbEntity
8
0
100
AcDbSpline
62
9
6
CONTINUOUS
70
0
71
3
72
8
73
4
74
2
42
0.0000001000
43
0.0000001000
44
0.0000000001
12
-0.0698076391
22
-0.0407752560
32
0.0000000000
13
-0.0692451001
23
-0.0417255177
33
0.0000000000
40
0.0000000000
40
0.0000000000
40
0.0000000000
40
0.0000000000
40
1.0000000000
40
1.0000000000
40
1.0000000000
40
1.0000000000
10
-57.9524656484
20
42.0956501172
30
0.0000000000
10
-57.9757348614
20
42.0820583652
30
0.0000000000
10
-57.9989108477
20
42.0683062164
30
0.0000000000
10
-58.0219925477
20
42.0543977105
30
0.0000000000
11
-57.9524656484
21
42.0956501172
31
0.0000000000
11
-58.0219925477
21
42.0543977105
31
0.0000000000
0
SPLINE
5
368
100
AcDbEntity
8
0
100
AcDbSpline
62
9
6
CONTINUOUS
70
0
71
3
72
14
73
10
74
8
42
0.0000001000
43
0.0000001000
44
0.0000000001
12
-0.1323964053
22
0.0248720151
32
0.0000000000
13
-0.0131800051
23
0.1340563853
33
0.0000000000
40
0.0000000000
40
0.0000000000
40
0.0000000000
40
0.0000000000
40
0.0660158825
40
0.3093451906
40
0.5173757194
40
0.6887026784
40
0.8233175174
40
0.9239783179
40
1.0000000000
40
1.0000000000
40
1.0000000000
40
1.0000000000
10
-60.7486116210
20
38.4472559564
30
0.0000000000
10
-60.7515250428
20
38.4478032724
30
0.0000000000
10
-60.7651633609
20
38.4504418745
30
0.0000000000
10
-60.7878532299
20
38.4554758227
30
0.0000000000
10
-60.8147526710
20
38.4631747668
30
0.0000000000
10
-60.8363760152
20
38.4713604684
30
0.0000000000
10
-60.8525264429
20
38.4800174177
30
0.0000000000
10
-60.8634038547
20
38.4890521551
30
0.0000000000
10
-60.8670709537
20
38.4966029288
30
0.0000000000
10
-60.8674049424
20
38.4999999928
30
0.0000000000
11
-60.7486116210
21
38.4472559564
31
0.0000000000
11
-60.7573427511
21
38.4489463631
31
0.0000000000
11
-60.7893151368
21
38.4561648377
31
0.0000000000
11
-60.8162095514
21
38.4640349530
31
0.0000000000
11
-60.8376950082
21
38.4724598521
31
0.0000000000
11
-60.8535070879
21
38.4813358509
31
0.0000000000
11
-60.8634511930
21
38.4905537134
31
0.0000000000
11
-60.8674049424
21
38.4999999928
31
0.0000000000
0
SPLINE
5
369
100
AcDbEntity
8
0
100
AcDbSpline
62
9
6
CONTINUOUS
70
0
71
3
72
17
73
13
74
11
42
0.0000001000
43
0.0000001000
44
0.0000000001
12
-0.0030980167
22
-0.9999967658
32
0.0000000000
13
0.0000000044
23
-1.0000015646
33
0.0000000000
40
0.0000000000
40
0.0000000000
40
0.0000000000
40
0.0000000000
40
0.0981691991
40
0.1968284034
40
0.2959466679
40
0.3954926199
40
0.4954354080
40
0.5957436306
40
0.6963862362
40
0.7973308370
40
0.8985483411
40
1.0000000000
40
1.0000000000
40
1.0000000000
40
1.0000000000
10
-60.8674049423
20
38.5000000000
30
0.0000000000
10
-60.8675063189
20
38.4672770395
30
0.0000000000
10
-60.8676991383
20
38.4016677510
30
0.0000000000
10
-60.8679579610
20
38.3030190454
30
0.0000000000
10
-60.8681869322
20
38.2039113463
30
0.0000000000
10
-60.8683858697
20
38.1043757195
30
0.0000000000
10
-60.8685546011
20
38.0044433831
30
0.0000000000
10
-60.8686929650
20
37.9041454480
30
0.0000000000
10
-60.8688008094
20
37.8035135370
30
0.0000000000
10
-60.8688779936
20
37.7025785035
30
0.0000000000
10
-60.8689243849
20
37.6013737664
30
0.0000000000
10
-60.8689346936
20
37.5338172725
30
0.0000000000
10
-60.8689346934
20
37.5000000000
30
0.0000000000
11
-60.8674049423
21
38.5000000000
31
0.0000000000
11
-60.8676935136
21
38.4018310714
31
0.0000000000
11
-60.8679524190
21
38.3031720525
31
0.0000000000
11
-60.8681814652
21
38.2040538975
31
0.0000000000
11
-60.8683804690
21
38.1045079888
31
0.0000000000
11
-60.8685492590
21
38.0045651868
31
0.0000000000
11
-60.8686876731
21
37.9042569027
31
0.0000000000
11
-60.8687955600
21
37.8036141975
31
0.0000000000
11
-60.8688727777
21
37.7026694683
31
0.0000000000
11
-60.8689191964
21
37.6014518164
31
0.0000000000
11
-60.8689346934
21
37.5000000000
31
0.0000000000
0
SPLINE
5
36A
100
AcDbEntity
8
0
100
AcDbSpline
62
9
6
CONTINUOUS
70
0
71
3
72
14
73
10
74
8
42
0.0000001000
43
0.0000001000
44
0.0000000001
12
-0.1189357867
22
0.0000375436
32
0.0000000000
13
-0.1184539766
23
0.0106966969
33
0.0000000000
40
0.0000000000
40
0.0000000000
40
0.0000000000
40
0.0000000000
40
0.0569821672
40
0.3307704567
40
0.5611074429
40
0.7451613802
40
0.8806690988
40
0.9659641466
40
1.0000000000
40
1.0000000000
40
1.0000000000
40
1.0000000000
10
-60.7500000001
20
37.4996890800
30
0.0000000000
10
-60.7522590731
20
37.4996897931
30
0.0000000000
10
-60.7653725441
20
37.4996945762
30
0.0000000000
10
-60.7876176444
20
37.4997097471
30
0.0000000000
10
-60.8149014796
20
37.4997293298
30
0.0000000000
10
-60.8367003148
20
37.4998009689
30
0.0000000000
10
-60.8527557172
20
37.4997841791
30
0.0000000000
10
-60.8628497040
20
37.4999729386
30
0.0000000000
10
-60.8675907948
20
37.4998786429
30
0.0000000000
10
-60.8689346889
20
37.5000000000
30
0.0000000000
11
-60.7500000001
21
37.4996890800
31
0.0000000000
11
-60.7567772131
21
37.4996915645
31
0.0000000000
11
-60.7893404817
21
37.4997111328
31
0.0000000000
11
-60.8167358143
21
37.4997436832
31
0.0000000000
11
-60.8386263999
21
37.4997890868
31
0.0000000000
11
-60.8547430367
21
37.4998471436
31
0.0000000000
11
-60.8648874411
21
37.4999175717
31
0.0000000000
11
-60.8689346889
21
37.5000000000
31
0.0000000000
0
SPLINE
5
36B
100
AcDbEntity
8
0
100
AcDbSpline
62
9
6
CONTINUOUS
70
0
71
3
72
40
73
36
74
34
42
0.0000001000
43
0.0000001000
44
0.0000000001
12
-0.0019442001
22
-75.9999999751
32
0.0000000000
13
0.0000000000
23
-76.0000000000
33
0.0000000000
40
0.0000000000
40
0.0000000000
40
0.0000000000
40
0.0000000000
40
0.0069537112
40
0.0145485696
40
0.0229093944
40
0.0320280093
40
0.0419187383
40
0.0526251904
40
0.0641858067
40
0.0766501837
40
0.0900758784
40
0.1045282251
40
0.1200802193
40
0.1368122220
40
0.1548118829
40
0.1741743370
40
0.1950026214
40
0.2174076944
40
0.2415089407
40
0.2674347941
40
0.2953234353
40
0.3253235331
40
0.3575950391
40
0.3923100551
40
0.4296537492
40
0.4698253593
40
0.5130392640
40
0.5595261403
40
0.6095342065
40
0.6633305671
40
0.7212026560
40
0.7834597959
40
0.8504348759
40
0.9224861615
40
1.0000000000
40
1.0000000000
40
1.0000000000
40
1.0000000000
10
-60.8689346934
20
37.5000000000
30
0.0000000000
10
-60.8689391999
20
37.3238393169
30
0.0000000000
10
-60.8689314151
20
36.9552755540
30
0.0000000000
10
-60.8689359684
20
36.3749042295
30
0.0000000000
10
-60.8689342298
20
35.7396886771
30
0.0000000000
10
-60.8689348609
20
35.0463110708
30
0.0000000000
10
-60.8689346403
20
34.2935109046
30
0.0000000000
10
-60.8689347155
20
33.4788467027
30
0.0000000000
10
-60.8689346904
20
32.5989834188
30
0.0000000000
10
-60.8689346986
20
31.6502326562
30
0.0000000000
10
-60.8689346959
20
30.6282247247
30
0.0000000000
10
-60.8689346968
20
29.5279971542
30
0.0000000000
10
-60.8689346965
20
28.3440097846
30
0.0000000000
10
-60.8689346966
20
27.0701571200
30
0.0000000000
10
-60.8689346966
20
25.6997728060
30
0.0000000000
10
-60.8689346966
20
24.2256160208
30
0.0000000000
10
-60.8689346966
20
22.6398554629
30
0.0000000000
10
-60.8689346966
20
20.9340455017
30
0.0000000000
10
-60.8689346966
20
19.0990971269
30
0.0000000000
10
-60.8689346966
20
17.1252316898
30
0.0000000000
10
-60.8689346966
20
15.0019286820
30
0.0000000000
10
-60.8689346966
20
12.7178691417
30
0.0000000000
10
-60.8689346966
20
10.2608747734
30
0.0000000000
10
-60.8689346966
20
7.6178426328
30
0.0000000000
10
-60.8689346966
20
4.7746745208
30
0.0000000000
10
-60.8689346966
20
1.7162012304
30
0.0000000000
10
-60.8689346966
20
-1.5738993436
30
0.0000000000
10
-60.8689346966
20
-5.1131901404
30
0.0000000000
10
-60.8689346966
20
-8.9205698187
30
0.0000000000
10
-60.8689346966
20
-13.0163748820
30
0.0000000000
10
-60.8689346966
20
-17.4224898136
30
0.0000000000
10
-60.8689346966
20
-22.1624656380
30
0.0000000000
10
-60.8689346966
20
-27.2616477780
30
0.0000000000
10
-60.8689346966
20
-32.7473329476
30
0.0000000000
10
-60.8689346966
20
-36.5363160908
30
0.0000000000
10
-60.8689346966
20
-38.5000000000
30
0.0000000000
11
-60.8689346934
21
37.5000000000
31
0.0000000000
11
-60.8689341972
21
36.9715179504
31
0.0000000000
11
-60.8689348470
21
36.3943087115
31
0.0000000000
11
-60.8689346519
21
35.7588860267
31
0.0000000000
11
-60.8689347098
21
35.0658712932
31
0.0000000000
11
-60.8689346927
21
34.3141758926
31
0.0000000000
11
-60.8689346977
21
33.5004855280
31
0.0000000000
11
-60.8689346963
21
32.6218786876
31
0.0000000000
11
-60.8689346967
21
31.6745860409
31
0.0000000000
11
-60.8689346966
21
30.6542332400
31
0.0000000000
11
-60.8689346966
21
29.5558548930
31
0.0000000000
11
-60.8689346966
21
28.3739033295
31
0.0000000000
11
-60.8689346966
21
27.1022711314
31
0.0000000000
11
-60.8689346966
21
25.7342968991
31
0.0000000000
11
-60.8689346966
21
24.2627503877
31
0.0000000000
11
-60.8689346966
21
22.6798007755
31
0.0000000000
11
-60.8689346966
21
20.9770152255
31
0.0000000000
11
-60.8689346966
21
19.1453205042
31
0.0000000000
11
-60.8689346966
21
17.1749556511
31
0.0000000000
11
-60.8689346966
21
15.0554189140
31
0.0000000000
11
-60.8689346966
21
12.7754114809
31
0.0000000000
11
-60.8689346966
21
10.3227770303
31
0.0000000000
11
-60.8689346966
21
7.6844358090
31
0.0000000000
11
-60.8689346966
21
4.8463150592
31
0.0000000000
11
-60.8689346966
21
1.7932726942
31
0.0000000000
11
-60.8689346966
21
-1.4909840622
31
0.0000000000
11
-60.8689346966
21
-5.0239866626
31
0.0000000000
11
-60.8689346966
21
-8.8245996962
31
0.0000000000
11
-60.8689346966
21
-12.9131230974
31
0.0000000000
11
-60.8689346966
21
-17.3114018524
31
0.0000000000
11
-60.8689346966
21
-22.0429444910
31
0.0000000000
11
-60.8689346966
21
-27.1330505705
31
0.0000000000
11
-60.8689346966
21
-32.6089482723
31
0.0000000000
11
-60.8689346966
21
-38.5000000000
31
0.0000000000
0
SPLINE
5
36C
100
AcDbEntity
8
0
100
AcDbSpline
62
7
6
CONTINUOUS
70
0
71
3
72
23
73
19
74
17
42
0.0000001000
43
0.0000001000
44
0.0000000001
12
0.1899026958
22
0.0000000165
32
0.0000000000
13
-0.1842880743
23
0.0458360070
33
0.0000000000
40
0.0000000000
40
0.0000000000
40
0.0000000000
40
0.0000000000
40
0.0676920996
40
0.1273493356
40
0.1793822888
40
0.2264421175
40
0.2694157011
40
0.3095911619
40
0.3500544462
40
0.3939169892
40
0.4424521023
40
0.4966157792
40
0.5590003974
40
0.6295456376
40
0.7084410176
40
0.7970484930
40
0.8955450000
40
1.0000000000
40
1.0000000000
40
1.0000000000
40
1.0000000000
10
57.9525799753
20
42.0956501172
30
0.0000000000
10
57.9568649460
20
42.0956501176
30
0.0000000000
10
57.9649427132
20
42.0961758966
30
0.0000000000
10
57.9760733705
20
42.0986616870
30
0.0000000000
10
57.9854009175
20
42.1025549010
30
0.0000000000
10
57.9928966690
20
42.1076491873
30
0.0000000000
10
57.9985358296
20
42.1137684697
30
0.0000000000
10
58.0023203977
20
42.1207069111
30
0.0000000000
10
58.0043108290
20
42.1284120012
30
0.0000000000
10
58.0044312984
20
42.1368960754
30
0.0000000000
10
58.0025293346
20
42.1460435288
30
0.0000000000
10
57.9984647098
20
42.1557307157
30
0.0000000000
10
57.9920811346
20
42.1657663019
30
0.0000000000
10
57.9832360893
20
42.1759046884
30
0.0000000000
10
57.9718395007
20
42.1858294048
30
0.0000000000
10
57.9577742562
20
42.1951726879
30
0.0000000000
10
57.9411567522
20
42.2033201367
30
0.0000000000
10
57.9289057617
20
42.2073628065
30
0.0000000000
10
57.9224891581
20
42.2089587399
30
0.0000000000
11
57.9525799753
21
42.0956501172
31
0.0000000000
11
57.9654027077
21
42.0965591288
31
0.0000000000
11
57.9764415027
21
42.0991072321
31
0.0000000000
11
57.9855293539
21
42.1029865408
31
0.0000000000
11
57.9928797270
21
42.1080696698
31
0.0000000000
11
57.9983751215
21
42.1141028518
31
0.0000000000
11
58.0020187672
21
42.1208059872
31
0.0000000000
11
58.0039636800
21
42.1282398626
31
0.0000000000
11
58.0041379664
21
42.1365676542
31
0.0000000000
11
58.0023352843
21
42.1456065967
31
0.0000000000
11
57.9984280418
21
42.1551214125
31
0.0000000000
11
57.9921359918
21
42.1651594245
31
0.0000000000
11
57.9833809933
21
42.1752995631
31
0.0000000000
11
57.9721185984
21
42.1851804603
31
0.0000000000
11
57.9581243433
21
42.1945240126
31
0.0000000000
11
57.9413353227
21
42.2027700142
31
0.0000000000
11
57.9224891581
21
42.2089587399
31
0.0000000000
0
SPLINE
5
36D
100
AcDbEntity
8
0
100
AcDbSpline
62
9
6
CONTINUOUS
70
0
71
3
72
8
73
4
74
2
42
0.0000001000
43
0.0000001000
44
0.0000000001
12
0.0699119984
22
-0.0408394073
32
0.0000000000
13
0.0693478247
23
-0.0417922583
33
0.0000000000
40
0.0000000000
40
0.0000000000
40
0.0000000000
40
0.0000000000
40
1.0000000000
40
1.0000000000
40
1.0000000000
40
1.0000000000
10
57.9525798417
20
42.0956501172
30
0.0000000000
10
57.9758838412
20
42.0820369815
30
0.0000000000
10
57.9990944506
20
42.0682631869
30
0.0000000000
10
58.0222103922
20
42.0543324342
30
0.0000000000
11
57.9525798417
21
42.0956501172
31
0.0000000000
11
58.0222103922
21
42.0543324342
31
0.0000000000
0
SPLINE
5
36E
100
AcDbEntity
8
0
100
AcDbSpline
62
9
6
CONTINUOUS
70
0
71
3
72
17
73
13
74
11
42
0.0000001000
43
0.0000001000
44
0.0000000001
12
0.7983905658
22
-0.1871572878
32
0.0000000000
13
0.7401034384
23
-0.3531696916
33
0.0000000000
40
0.0000000000
40
0.0000000000
40
0.0000000000
40
0.0000000000
40
0.1051156231
40
0.2100221454
40
0.3145949454
40
0.4187617692
40
0.5224594174
40
0.6256710430
40
0.7284000649
40
0.8306462694
40
0.9324160574
40
1.0000000000
40
1.0000000000
40
1.0000000000
40
1.0000000000
10
57.9224712289
20
42.2089637862
30
0.0000000000
10
57.9504456695
20
42.2024060679
30
0.0000000000
10
58.0061932264
20
42.1886729912
30
0.0000000000
10
58.0892117462
20
42.1662257031
30
0.0000000000
10
58.1714558491
20
42.1419895793
30
0.0000000000
10
58.2528207418
20
42.1160156053
30
0.0000000000
10
58.3332331312
20
42.0883513265
30
0.0000000000
10
58.4126413796
20
42.0590411018
30
0.0000000000
10
58.4910118579
20
42.0281250150
30
0.0000000000
10
58.5683182416
20
41.9956413066
30
0.0000000000
10
58.6361195472
20
41.9653841313
30
0.0000000000
10
58.6780442779
20
41.9457510585
30
0.0000000000
10
58.6947173140
20
41.9377948584
30
0.0000000000
11
57.9224712289
21
42.2089637862
31
0.0000000000
11
58.0061673744
21
42.1883455369
31
0.0000000000
11
58.0892120340
21
42.1658909149
31
0.0000000000
11
58.1714680334
21
42.1416511507
31
0.0000000000
11
58.2528425710
21
42.1156739660
31
0.0000000000
11
58.3332526107
21
42.0880103823
31
0.0000000000
11
58.4126534400
21
42.0587028271
31
0.0000000000
11
58.4910175742
21
42.0277891869
31
0.0000000000
11
58.5683160971
21
41.9953087452
31
0.0000000000
11
58.6445264127
21
41.9612989205
31
0.0000000000
11
58.6947173140
21
41.9377948584
31
0.0000000000
0
SPLINE
5
36F
100
AcDbEntity
8
0
100
AcDbSpline
62
9
6
CONTINUOUS
70
0
71
3
72
10
73
6
74
4
42
0.0000001000
43
0.0000001000
44
0.0000000001
12
0.1491356402
22
-0.0711659821
32
0.0000000000
13
0.1459104702
23
-0.0775638531
33
0.0000000000
40
0.0000000000
40
0.0000000000
40
0.0000000000
40
0.0000000000
40
0.1673084837
40
0.6676873137
40
1.0000000000
40
1.0000000000
40
1.0000000000
40
1.0000000000
10
58.6947173140
20
41.9377948584
30
0.0000000000
10
58.7030345332
20
41.9338259676
30
0.0000000000
10
58.7361690719
20
41.9178666971
30
0.0000000000
10
58.7854462739
20
41.8932472419
30
0.0000000000
10
58.8261008588
20
41.8720101116
30
0.0000000000
10
58.8422634923
20
41.8634182941
30
0.0000000000
11
58.6947173140
21
41.9377948584
31
0.0000000000
11
58.7196255628
21
41.9257977829
31
0.0000000000
11
58.7935915623
21
41.8888435146
31
0.0000000000
11
58.8422634923
21
41.8634182941
31
0.0000000000
0
SPLINE
5
370
100
AcDbEntity
8
0
100
AcDbSpline
62
9
6
CONTINUOUS
70
0
71
3
72
8
73
4
74
2
42
0.0000001000
43
0.0000001000
44
0.0000000001
12
0.0241891518
22
-0.0128585962
32
0.0000000000
13
0.0240960897
23
-0.0130321501
33
0.0000000000
40
0.0000000000
40
0.0000000000
40
0.0000000000
40
0.0000000000
40
1.0000000000
40
1.0000000000
40
1.0000000000
40
1.0000000000
10
58.8422634923
20
41.8634182941
30
0.0000000000
10
58.8503265429
20
41.8591320954
30
0.0000000000
10
58.8583741875
20
41.8548169160
30
0.0000000000
10
58.8664062174
20
41.8504728660
30
0.0000000000
11
58.8422634923
21
41.8634182941
31
0.0000000000
11
58.8664062174
21
41.8504728660
31
0.0000000000
0
SPLINE
5
371
100
AcDbEntity
8
0
100
AcDbSpline
62
9
6
CONTINUOUS
70
0
71
3
72
60
73
56
74
54
42
0.0000001000
43
0.0000001000
44
0.0000000001
12
3.4797511493
22
-1.8819916386
32
0.0000000000
13
0.1551577660
23
-3.9530096709
33
0.0000000000
40
0.0000000000
40
0.0000000000
40
0.0000000000
40
0.0000000000
40
0.0207118732
40
0.0413319587
40
0.0618617484
40
0.0823025354
40
0.1026555395
40
0.1229219071
40
0.1431027178
40
0.1631990186
40
0.1832118404
40
0.2031421995
40
0.2229911068
40
0.2427595724
40
0.2624486123
40
0.2820592501
40
0.3015925195
40
0.3210494706
40
0.3404311753
40
0.3597387284
40
0.3789732513
40
0.3981358932
40
0.4172278363
40
0.4362502983
40
0.4552045258
40
0.4740917990
40
0.4929134397
40
0.5116708110
40
0.5303653183
40
0.5489984102
40
0.5675715798
40
0.5860863655
40
0.6045443498
40
0.6229471586
40
0.6412964639
40
0.6595939835
40
0.6778414807
40
0.6960407637
40
0.7141936849
40
0.7323021404
40
0.7503680683
40
0.7683934481
40
0.7863802991
40
0.8043306798
40
0.8222466856
40
0.8401304477
40
0.8579841308
40
0.8758099318
40
0.8936100769
40
0.9113868204
40
0.9291424400
40
0.9468792418
40
0.9645995372
40
0.9823056978
40
1.0000000000
40
1.0000000000
40
1.0000000000
40
1.0000000000
10
58.8664062174
20
41.8504728660
30
0.0000000000
10
58.8904302723
20
41.8374796752
30
0.0000000000
10
58.9380931480
20
41.8110354508
30
0.0000000000
10
59.0085649099
20
41.7699350854
30
0.0000000000
10
59.0778379025
20
41.7275257697
30
0.0000000000
10
59.1458970610
20
41.6838434287
30
0.0000000000
10
59.2127278924
20
41.6389239459
30
0.0000000000
10
59.2783166122
20
41.5928030820
30
0.0000000000
10
59.3426501758
20
41.5455164481
30
0.0000000000
10
59.4057163237
20
41.4970994613
30
0.0000000000
10
59.4675036176
20
41.4475872967
30
0.0000000000
10
59.5280014461
20
41.3970148557
30
0.0000000000
10
59.5872000167
20
41.3454167415
30
0.0000000000
10
59.6450903521
20
41.2928272303
30
0.0000000000
10
59.7016642768
20
41.2392802463
30
0.0000000000
10
59.7569144012
20
41.1848093400
30
0.0000000000
10
59.8108341038
20
41.1294476657
30
0.0000000000
10
59.8634175157
20
41.0732279561
30
0.0000000000
10
59.9146595037
20
41.0161824970
30
0.0000000000
10
59.9645556475
20
40.9583431059
30
0.0000000000
10
60.0131022148
20
40.8997411136
30
0.0000000000
10
60.0602961375
20
40.8404073439
30
0.0000000000
10
60.1061349868
20
40.7803720934
30
0.0000000000
10
60.1506169404
20
40.7196651214
30
0.0000000000
10
60.1937407504
20
40.6583156411
30
0.0000000000
10
60.2355057153
20
40.5963523058
30
0.0000000000
10
60.2759116547
20
40.5338031896
30
0.0000000000
10
60.3149588819
20
40.4706957722
30
0.0000000000
10
60.3526481694
20
40.4070569323
30
0.0000000000
10
60.3889807165
20
40.3429129407
30
0.0000000000
10
60.4239581163
20
40.2782894552
30
0.0000000000
10
60.4575823214
20
40.2132115182
30
0.0000000000
10
60.4898556088
20
40.1477035593
30
0.0000000000
10
60.5207805463
20
40.0817893955
30
0.0000000000
10
60.5503599602
20
40.0154922329
30
0.0000000000
10
60.5785969026
20
39.9488346683
30
0.0000000000
10
60.6054946180
20
39.8818386966
30
0.0000000000
10
60.6310565105
20
39.8145257193
30
0.0000000000
10
60.6552861109
20
39.7469165555
30
0.0000000000
10
60.6781870449
20
39.6790314538
30
0.0000000000
10
60.6997630024
20
39.6108901078
30
0.0000000000
10
60.7200177068
20
39.5425116719
30
0.0000000000
10
60.7389548863
20
39.4739147787
30
0.0000000000
10
60.7565782460
20
39.4051175583
30
0.0000000000
10
60.7728914404
20
39.3361376587
30
0.0000000000
10
60.7878980483
20
39.2669922693
30
0.0000000000
10
60.8016015481
20
39.1976981441
30
0.0000000000
10
60.8140052946
20
39.1282716283
30
0.0000000000
10
60.8251124977
20
39.0587286847
30
0.0000000000
10
60.8349262025
20
38.9890849235
30
0.0000000000
10
60.8434492713
20
38.9193556252
30
0.0000000000
10
60.8506843653
20
38.8495557924
30
0.0000000000
10
60.8566339354
20
38.7797001151
30
0.0000000000
10
60.8613001955
20
38.7098031896
30
0.0000000000
10
60.8635574722
20
38.6631737205
30
0.0000000000
10
60.8644726083
20
38.6398584713
30
0.0000000000
11
58.8664062174
21
41.8504728660
31
0.0000000000
11
58.9380537845
21
41.8107215098
31
0.0000000000
11
59.0085184716
21
41.7696252842
31
0.0000000000
11
59.0777847748
21
41.7272200817
31
0.0000000000
11
59.1458374834
21
41.6835419019
31
0.0000000000
11
59.2126621012
21
41.6386266199
31
0.0000000000
11
59.2782448336
21
41.5925099931
31
0.0000000000
11
59.3425725960
21
41.5452276523
31
0.0000000000
11
59.4056331102
21
41.4968150215
31
0.0000000000
11
59.4674149342
21
41.4473072727
31
0.0000000000
11
59.5279074461
21
41.3967393099
31
0.0000000000
11
59.5871008471
21
41.3451457368
31
0.0000000000
11
59.6449861524
21
41.2925608313
31
0.0000000000
11
59.7015551834
21
41.2390185163
31
0.0000000000
11
59.7568005480
21
41.1845523408
31
0.0000000000
11
59.8107156170
21
41.1291954628
31
0.0000000000
11
59.8632945167
21
41.0729806170
31
0.0000000000
11
59.9145321117
21
41.0159400886
31
0.0000000000
11
59.9644239789
21
40.9581056957
31
0.0000000000
11
60.0129663838
21
40.8995087694
31
0.0000000000
11
60.0601562543
21
40.8401801364
31
0.0000000000
11
60.1059911594
21
40.7801500941
31
0.0000000000
11
60.1504692816
21
40.7194483942
31
0.0000000000
11
60.1935893698
21
40.6581042526
31
0.0000000000
11
60.2353507161
21
40.5961463302
31
0.0000000000
11
60.2757531410
21
40.5336026996
31
0.0000000000
11
60.3147969572
21
40.4705008408
31
0.0000000000
11
60.3524829370
21
40.4068676323
31
0.0000000000
11
60.3888122796
21
40.3427293457
31
0.0000000000
11
60.4237865779
21
40.2781116387
31
0.0000000000
11
60.4574077861
21
40.2130395515
31
0.0000000000
11
60.4896781819
21
40.1475375123
31
0.0000000000
11
60.5206003325
21
40.0816293403
31
0.0000000000
11
60.5501770648
21
40.0153382410
31
0.0000000000
11
60.5784114322
21
39.9486868097
31
0.0000000000
11
60.6053066803
21
39.8816970401
31
0.0000000000
11
60.6308662141
21
39.8143903325
31
0.0000000000
11
60.6550935657
21
39.7467875042
31
0.0000000000
11
60.6779923623
21
39.6789088020
31
0.0000000000
11
60.6995662950
21
39.6107739170
31
0.0000000000
11
60.7198190885
21
39.5424020019
31
0.0000000000
11
60.7387544723
21
39.4738116871
31
0.0000000000
11
60.7563761528
21
39.4050211000
31
0.0000000000
11
60.7726877860
21
39.3360478860
31
0.0000000000
11
60.7876929519
21
39.2669092311
31
0.0000000000
11
60.8013951301
21
39.1976218867
31
0.0000000000
11
60.8137976768
21
39.1282021941
31
0.0000000000
11
60.8249038029
21
39.0586661132
31
0.0000000000
11
60.8347165549
21
38.9890292481
31
0.0000000000
11
60.8432387950
21
38.9193068845
31
0.0000000000
11
60.8504731881
21
38.8495139936
31
0.0000000000
11
60.8564221789
21
38.7796653415
31
0.0000000000
11
60.8610879973
21
38.7097752981
31
0.0000000000
11
60.8644726083
21
38.6398584713
31
0.0000000000
0
SPLINE
5
372
100
AcDbEntity
8
0
100
AcDbSpline
62
9
6
CONTINUOUS
70
0
71
3
72
9
73
5
74
3
42
0.0000001000
43
0.0000001000
44
0.0000000001
12
0.0054868021
22
-0.1397892118
32
0.0000000000
13
0.0003773671
23
-0.1398945339
33
0.0000000000
40
0.0000000000
40
0.0000000000
40
0.0000000000
40
0.0000000000
40
0.5001024944
40
1.0000000000
40
1.0000000000
40
1.0000000000
40
1.0000000000
10
60.8644726083
20
38.6398584713
30
0.0000000000
10
60.8653872628
20
38.6165554934
30
0.0000000000
10
60.8667904844
20
38.5699424611
30
0.0000000000
10
60.8673420607
20
38.5233109762
30
0.0000000000
10
60.8674049423
20
38.5000000000
30
0.0000000000
11
60.8644726083
21
38.6398584713
31
0.0000000000
11
60.8665777734
21
38.5699282909
31
0.0000000000
11
60.8674049423
21
38.5000000000
31
0.0000000000
0
SPLINE
5
373
100
AcDbEntity
8
0
100
AcDbSpline
62
9
6
CONTINUOUS
70
0
71
3
72
14
73
10
74
8
42
0.0000001000
43
0.0000001000
44
0.0000000001
12
-0.0132104087
22
-0.1339999609
32
0.0000000000
13
-0.1323461288
23
-0.0248513494
33
0.0000000000
40
0.0000000000
40
0.0000000000
40
0.0000000000
40
0.0000000000
40
0.0758896511
40
0.1764865452
40
0.3110919957
40
0.4824494402
40
0.6905410984
40
0.9339561258
40
1.0000000000
40
1.0000000000
40
1.0000000000
40
1.0000000000
10
60.8674049425
20
38.4999999928
30
0.0000000000
10
60.8670707647
20
38.4966102560
30
0.0000000000
10
60.8633991364
20
38.4890741977
30
0.0000000000
10
60.8525227788
20
38.4800630505
30
0.0000000000
10
60.8363737784
20
38.4714232315
30
0.0000000000
10
60.8147513184
20
38.4632511419
30
0.0000000000
10
60.7878524680
20
38.4555617211
30
0.0000000000
10
60.7651630950
20
38.4505319044
30
0.0000000000
10
60.7515249024
20
38.4478946865
30
0.0000000000
10
60.7486113520
20
38.4473475934
30
0.0000000000
11
60.8674049425
21
38.4999999928
31
0.0000000000
11
60.8634511366
21
38.4905773960
31
0.0000000000
11
60.8535070126
21
38.4813800975
31
0.0000000000
11
60.8376949490
21
38.4725212884
31
0.0000000000
11
60.8162095389
21
38.4641099907
31
0.0000000000
11
60.7893151950
21
38.4562497189
31
0.0000000000
11
60.7573428956
21
38.4490372064
31
0.0000000000
11
60.7486113520
21
38.4473475934
31
0.0000000000
0
SPLINE
5
374
100
AcDbEntity
8
0
100
AcDbSpline
62
9
6
CONTINUOUS
70
0
71
3
72
17
73
13
74
11
42
0.0000001000
43
0.0000001000
44
0.0000000001
12
0.0030895852
22
-0.9999967897
32
0.0000000000
13
-0.0000000045
23
-1.0000015625
33
0.0000000000
40
0.0000000000
40
0.0000000000
40
0.0000000000
40
0.0000000000
40
0.0986993477
40
0.1977791383
40
0.2971993652
40
0.3969301522
40
0.4969383788
40
0.5971916904
40
0.6976577025
40
0.7983028995
40
0.8990970907
40
1.0000000000
40
1.0000000000
40
1.0000000000
40
1.0000000000
10
60.8674049423
20
38.5000000000
30
0.0000000000
10
60.8675065890
20
38.4671003230
30
0.0000000000
10
60.8676998407
20
38.4011741226
30
0.0000000000
10
60.8679591457
20
38.3021078505
30
0.0000000000
10
60.8681883228
20
38.2026976896
30
0.0000000000
10
60.8683872434
20
38.1029779837
30
0.0000000000
10
60.8685557953
20
38.0029805262
30
0.0000000000
10
60.8686938762
20
37.9027379463
30
0.0000000000
10
60.8688013945
20
37.8022830051
30
0.0000000000
10
60.8688782709
20
37.7016477422
30
0.0000000000
10
60.8689244347
20
37.6008668280
30
0.0000000000
10
60.8689346936
20
37.5336343557
30
0.0000000000
10
60.8689346934
20
37.5000000000
30
0.0000000000
11
60.8674049423
21
38.5000000000
31
0.0000000000
11
60.8676943163
21
38.4013009223
31
0.0000000000
11
60.8679537034
21
38.3022213164
31
0.0000000000
11
60.8681829460
21
38.2028011984
31
0.0000000000
11
60.8683819260
21
38.1030704541
31
0.0000000000
11
60.8685505286
21
38.0030622134
31
0.0000000000
11
60.8686886518
21
37.9028088403
31
0.0000000000
11
60.8687962047
21
37.8023427288
31
0.0000000000
11
60.8688731064
21
37.7016974039
31
0.0000000000
11
60.8689192892
21
37.6009030658
31
0.0000000000
11
60.8689346934
21
37.5000000000
31
0.0000000000
0
SPLINE
5
375
100
AcDbEntity
8
0
100
AcDbSpline
62
9
6
CONTINUOUS
70
0
71
3
72
14
73
10
74
8
42
0.0000001000
43
0.0000001000
44
0.0000000001
12
-0.1184561201
22
-0.0106810665
32
0.0000000000
13
-0.1189365173
23
-0.0000374904
33
0.0000000000
40
0.0000000000
40
0.0000000000
40
0.0000000000
40
0.0000000000
40
0.0340371597
40
0.1193333324
40
0.2548418904
40
0.4388962828
40
0.6692332455
40
0.9430209537
40
1.0000000000
40
1.0000000000
40
1.0000000000
40
1.0000000000
10
60.8689354224
20
37.5000000000
30
0.0000000000
10
60.8675914525
20
37.4998788156
30
0.0000000000
10
60.8628502662
20
37.4999729581
30
0.0000000000
10
60.8527560607
20
37.4997844783
30
0.0000000000
10
60.8367004778
20
37.4998012350
30
0.0000000000
10
60.8149014523
20
37.4997297019
30
0.0000000000
10
60.7876174577
20
37.4997101464
30
0.0000000000
10
60.7653723681
20
37.4996949979
30
0.0000000000
10
60.7522589632
20
37.4996902216
30
0.0000000000
10
60.7500000001
20
37.4996895096
30
0.0000000000
11
60.8689354224
21
37.5000000000
31
0.0000000000
11
60.8648879922
21
37.4999176805
31
0.0000000000
11
60.8547433911
21
37.4998473483
31
0.0000000000
11
60.8386265552
21
37.4997893727
31
0.0000000000
11
60.8167357809
21
37.4997440337
31
0.0000000000
11
60.7893402830
21
37.4997115304
31
0.0000000000
11
60.7567768835
21
37.4996919905
31
0.0000000000
11
60.7500000001
21
37.4996895096
31
0.0000000000
0
SPLINE
5
376
100
AcDbEntity
8
0
100
AcDbSpline
62
9
6
CONTINUOUS
70
0
71
3
72
40
73
36
74
34
42
0.0000001000
43
0.0000001000
44
0.0000000001
12
0.0023618652
22
-75.9999999633
32
0.0000000000
13
0.0000000000
23
-76.0000000000
33
0.0000000000
40
0.0000000000
40
0.0000000000
40
0.0000000000
40
0.0000000000
40
0.0069480801
40
0.0145345803
40
0.0228841779
40
0.0319926797
40
0.0418731424
40
0.0525695717
40
0.0641208338
40
0.0765763161
40
0.0899935933
40
0.1044379012
40
0.1199821833
40
0.1367067586
40
0.1546992788
40
0.1740548937
40
0.1948766759
40
0.2172756849
40
0.2413714020
40
0.2672923745
40
0.2951769121
40
0.3251738286
40
0.3574432393
40
0.3921574237
40
0.4295017549
40
0.4696756970
40
0.5128938810
40
0.5593872632
40
0.6094043761
40
0.6632126706
40
0.7210999664
40
0.7833760132
40
0.8503741741
40
0.9224532391
40
1.0000000000
40
1.0000000000
40
1.0000000000
40
1.0000000000
10
60.8689346934
20
37.5000000000
30
0.0000000000
10
60.8689401636
20
37.3239819707
30
0.0000000000
10
60.8689308952
20
36.9557726029
30
0.0000000000
10
60.8689361367
20
36.3760400951
30
0.0000000000
10
60.8689341757
20
35.7415769057
30
0.0000000000
10
60.8689348781
20
35.0489999999
30
0.0000000000
10
60.8689346349
20
34.2969700235
30
0.0000000000
10
60.8689347172
20
33.4830567866
30
0.0000000000
10
60.8689346898
20
32.6039097177
30
0.0000000000
10
60.8689346988
20
31.6558345042
30
0.0000000000
10
60.8689346959
20
30.6344687972
30
0.0000000000
10
60.8689346968
20
29.5348534963
30
0.0000000000
10
60.8689346965
20
28.3514533092
30
0.0000000000
10
60.8689346966
20
27.0781650761
30
0.0000000000
10
60.8689346966
20
25.7083230782
30
0.0000000000
10
60.8689346966
20
24.2346851744
30
0.0000000000
10
60.8689346966
20
22.6494162193
30
0.0000000000
10
60.8689346966
20
20.9440646759
30
0.0000000000
10
60.8689346966
20
19.1095336446
30
0.0000000000
10
60.8689346966
20
17.1360358894
30
0.0000000000
10
60.8689346966
20
15.0130410840
30
0.0000000000
10
60.8689346966
20
12.7292191741
30
0.0000000000
10
60.8689346966
20
10.2723795473
30
0.0000000000
10
60.8689346966
20
7.6294054137
30
0.0000000000
10
60.8689346966
20
4.7861831518
30
0.0000000000
10
60.8689346966
20
1.7275262327
30
0.0000000000
10
60.8689346966
20
-1.5629066439
30
0.0000000000
10
60.8689346966
20
-5.1026998472
30
0.0000000000
10
60.8689346966
20
-8.9107758498
30
0.0000000000
10
60.8689346966
20
-13.0074976663
30
0.0000000000
10
60.8689346966
20
-17.4147791389
30
0.0000000000
10
60.8689346966
20
-22.1562038938
30
0.0000000000
10
60.8689346966
20
-27.2571534666
30
0.0000000000
10
60.8689346966
20
-32.7449611322
30
0.0000000000
10
60.8689346966
20
-36.5354820561
30
0.0000000000
10
60.8689346966
20
-38.5000000000
30
0.0000000000
11
60.8689346934
21
37.5000000000
31
0.0000000000
11
60.8689341811
21
36.9719459119
31
0.0000000000
11
60.8689348519
21
36.3953718969
31
0.0000000000
11
60.8689346504
21
35.7608024765
31
0.0000000000
11
60.8689347102
21
35.0685563439
31
0.0000000000
11
60.8689346926
21
34.3176411793
31
0.0000000000
11
60.8689346978
21
33.5047125473
31
0.0000000000
11
60.8689346963
21
32.6268166332
31
0.0000000000
11
60.8689346967
21
31.6801999727
31
0.0000000000
11
60.8689346966
21
30.6604869067
31
0.0000000000
11
60.8689346966
21
29.5627195121
31
0.0000000000
11
60.8689346966
21
28.3813540701
31
0.0000000000
11
60.8689346966
21
27.1102863455
31
0.0000000000
11
60.8689346966
21
25.7428548129
31
0.0000000000
11
60.8689346966
21
24.2718280762
31
0.0000000000
11
60.8689346966
21
22.6893726341
31
0.0000000000
11
60.8689346966
21
20.9870479476
31
0.0000000000
11
60.8689346966
21
19.1557734460
31
0.0000000000
11
60.8689346966
21
17.1857795402
31
0.0000000000
11
60.8689346966
21
15.0665546820
31
0.0000000000
11
60.8689346966
21
12.7867890299
31
0.0000000000
11
60.8689346966
21
10.3343138105
31
0.0000000000
11
60.8689346966
21
7.6960358014
31
0.0000000000
11
60.8689346966
21
4.8578666292
31
0.0000000000
11
60.8689346966
21
1.8046470246
31
0.0000000000
11
60.8689346966
21
-1.4799349559
31
0.0000000000
11
60.8689346966
21
-5.0134320005
31
0.0000000000
11
60.8689346966
21
-8.8147325853
31
0.0000000000
11
60.8689346966
21
-12.9041629636
31
0.0000000000
11
60.8689346966
21
-17.3035974498
31
0.0000000000
11
60.8689346966
21
-22.0365770032
31
0.0000000000
11
60.8689346966
21
-27.1284372285
31
0.0000000000
11
60.8689346966
21
-32.6064461683
31
0.0000000000
11
60.8689346966
21
-38.5000000000
31
0.0000000000
0
SPLINE
5
377
100
AcDbEntity
8
0
100
AcDbSpline
62
7
6
CONTINUOUS
70
0
71
3
72
13
73
9
74
7
42
0.0000001000
43
0.0000001000
44
0.0000000001
12
-0.0125388981
22
4.0731107834
32
0.0000000000
13
-3.6269426982
23
1.8535574827
33
0.0000000000
40
0.0000000000
40
0.0000000000
40
0.0000000000
40
0.0000000000
40
0.1499822474
40
0.3289252540
40
0.5144048441
40
0.6904463645
40
0.8517027337
40
1.0000000000
40
1.0000000000
40
1.0000000000
40
1.0000000000
10
60.7484878323
20
38.4900000000
30
0.0000000000
10
60.7478609616
20
38.6936314364
30
0.0000000000
10
60.7096167807
20
39.1408836314
30
0.0000000000
10
60.5247672287
20
39.8190118546
30
0.0000000000
10
60.1925242788
20
40.4790565976
30
0.0000000000
10
59.7519164590
20
41.0411948162
30
0.0000000000
10
59.2544551254
20
41.4788562766
30
0.0000000000
10
58.8949557935
20
41.7006368901
30
0.0000000000
10
58.7156672311
20
41.7922627260
30
0.0000000000
11
60.7484878323
21
38.4900000000
31
0.0000000000
11
60.6963604494
21
39.0986691463
31
0.0000000000
11
60.5046758647
21
39.8018698383
31
0.0000000000
11
60.1650176162
21
40.4766928371
31
0.0000000000
11
59.7227685698
21
41.0411059486
31
0.0000000000
11
59.2296783244
21
41.4750092976
31
0.0000000000
11
58.7156672311
21
41.7922627260
31
0.0000000000
0
SPLINE
5
378
100
AcDbEntity
8
0
100
AcDbSpline
62
7
6
CONTINUOUS
70
0
71
3
72
9
73
5
74
3
42
0.0000001000
43
0.0000001000
44
0.0000000001
12
0.0000000000
22
0.9900014469
32
0.0000000000
13
-0.0030476629
23
0.9899967559
33
0.0000000000
40
0.0000000000
40
0.0000000000
40
0.0000000000
40
0.0000000000
40
0.5037168796
40
1.0000000000
40
1.0000000000
40
1.0000000000
40
1.0000000000
10
60.7500000000
20
37.5000000000
30
0.0000000000
10
60.7500000000
20
37.6662268132
30
0.0000000000
10
60.7497485072
20
37.9962273441
30
0.0000000000
10
60.7489920002
20
38.3262271069
30
0.0000000000
10
60.7484878323
20
38.4900000000
30
0.0000000000
11
60.7500000000
21
37.5000000000
31
0.0000000000
11
60.7496185001
21
37.9986802937
31
0.0000000000
11
60.7484878323
21
38.4900000000
31
0.0000000000
0
SPLINE
5
379
100
AcDbEntity
8
0
100
AcDbSpline
62
7
6
CONTINUOUS
70
0
71
3
72
13
73
9
74
7
42
0.0000001000
43
0.0000001000
44
0.0000000001
12
-3.6269426982
22
-1.8535574827
32
0.0000000000
13
-0.0125388981
23
-4.0731107834
33
0.0000000000
40
0.0000000000
40
0.0000000000
40
0.0000000000
40
0.0000000000
40
0.1482972663
40
0.3095536355
40
0.4855951559
40
0.6710747460
40
0.8500177526
40
1.0000000000
40
1.0000000000
40
1.0000000000
40
1.0000000000
10
-58.7156672311
20
41.7922627260
30
0.0000000000
10
-58.8949557935
20
41.7006368901
30
0.0000000000
10
-59.2544551254
20
41.4788562766
30
0.0000000000
10
-59.7519164590
20
41.0411948162
30
0.0000000000
10
-60.1925242788
20
40.4790565976
30
0.0000000000
10
-60.5247672287
20
39.8190118546
30
0.0000000000
10
-60.7096167807
20
39.1408836314
30
0.0000000000
10
-60.7478609616
20
38.6936314364
30
0.0000000000
10
-60.7484878323
20
38.4900000000
30
0.0000000000
11
-58.7156672311
21
41.7922627260
31
0.0000000000
11
-59.2296783244
21
41.4750092976
31
0.0000000000
11
-59.7227685698
21
41.0411059486
31
0.0000000000
11
-60.1650176162
21
40.4766928371
31
0.0000000000
11
-60.5046758647
21
39.8018698383
31
0.0000000000
11
-60.6963604494
21
39.0986691463
31
0.0000000000
11
-60.7484878323
21
38.4900000000
31
0.0000000000
0
SPLINE
5
37A
100
AcDbEntity
8
0
100
AcDbSpline
62
7
6
CONTINUOUS
70
0
71
3
72
9
73
5
74
3
42
0.0000001000
43
0.0000001000
44
0.0000000001
12
0.0000000000
22
0.9900014469
32
0.0000000000
13
0.0030476629
23
0.9899967559
33
0.0000000000
40
0.0000000000
40
0.0000000000
40
0.0000000000
40
0.0000000000
40
0.5037168796
40
1.0000000000
40
1.0000000000
40
1.0000000000
40
1.0000000000
10
-60.7500000000
20
37.5000000000
30
0.0000000000
10
-60.7500000000
20
37.6662268132
30
0.0000000000
10
-60.7497485072
20
37.9962273441
30
0.0000000000
10
-60.7489920002
20
38.3262271069
30
0.0000000000
10
-60.7484878323
20
38.4900000000
30
0.0000000000
11
-60.7500000000
21
37.5000000000
31
0.0000000000
11
-60.7496185001
21
37.9986802937
31
0.0000000000
11
-60.7484878323
21
38.4900000000
31
0.0000000000
0
SPLINE
5
37B
100
AcDbEntity
8
0
100
AcDbSpline
62
7
6
CONTINUOUS
70
0
71
3
72
9
73
5
74
3
42
0.0000001000
43
0.0000001000
44
0.0000000001
12
0.0192614782
22
0.0385246373
32
0.0000000000
13
0.0027947668
23
0.0425856124
33
0.0000000000
40
0.0000000000
40
0.0000000000
40
0.0000000000
40
0.0000000000
40
0.3928527512
40
1.0000000000
40
1.0000000000
40
1.0000000000
40
1.0000000000
10
-29.9947154924
20
-42.0823345954
30
0.0000000000
10
-29.9921931841
20
-42.0772897588
30
0.0000000000
10
-29.9936571857
20
-42.0621045189
30
0.0000000000
10
-29.9928026600
20
-42.0478514902
30
0.0000000000
10
-29.9922370483
20
-42.0392329111
30
0.0000000000
11
-29.9947154924
21
-42.0823345954
31
0.0000000000
11
-29.9929856323
21
-42.0655025035
31
0.0000000000
11
-29.9922370483
21
-42.0392329111
31
0.0000000000
0
SPLINE
5
37C
100
AcDbEntity
8
0
100
AcDbSpline
62
7
6
CONTINUOUS
70
0
71
3
72
8
73
4
74
2
42
0.0000001000
43
0.0000001000
44
0.0000000001
12
0.0011520550
22
0.0175545835
32
0.0000000000
13
0.0005229346
23
0.0177471637
33
0.0000000000
40
0.0000000000
40
0.0000000000
40
0.0000000000
40
0.0000000000
40
1.0000000000
40
1.0000000000
40
1.0000000000
40
1.0000000000
10
-29.9922370483
20
-42.0392329111
30
0.0000000000
10
-29.9918530300
20
-42.0333813832
30
0.0000000000
10
-29.9914474438
20
-42.0275460389
30
0.0000000000
10
-29.9912731322
20
-42.0216303177
30
0.0000000000
11
-29.9922370483
21
-42.0392329111
31
0.0000000000
11
-29.9912731322
21
-42.0216303177
31
0.0000000000
0
SPLINE
5
37D
100
AcDbEntity
8
0
100
AcDbSpline
62
7
6
CONTINUOUS
70
0
71
3
72
9
73
5
74
3
42
0.0000001000
43
0.0000001000
44
0.0000000001
12
0.0017915202
22
-0.0607999559
32
0.0000000000
13
0.0272014187
23
-0.0544052111
33
0.0000000000
40
0.0000000000
40
0.0000000000
40
0.0000000000
40
0.0000000000
40
0.7218187481
40
1.0000000000
40
1.0000000000
40
1.0000000000
40
1.0000000000
10
29.9912731322
20
-42.0216303177
30
0.0000000000
10
29.9917041832
20
-42.0362591670
30
0.0000000000
10
29.9942606744
20
-42.0558448798
30
0.0000000000
10
29.9921931841
20
-42.0772897588
30
0.0000000000
10
29.9947154924
20
-42.0823345954
30
0.0000000000
11
29.9912731322
21
-42.0216303177
31
0.0000000000
11
29.9929856323
21
-42.0655025035
31
0.0000000000
11
29.9947154924
21
-42.0823345954
31
0.0000000000
0
SPLINE
5
37E
100
AcDbEntity
8
0
100
AcDbSpline
62
7
6
CONTINUOUS
70
0
71
3
72
8
73
4
74
2
42
0.0000001000
43
0.0000001000
44
0.0000000001
12
-0.0093774512
22
-0.0056802746
32
0.0000000000
13
-0.0093731104
23
-0.0056874345
33
0.0000000000
40
0.0000000000
40
0.0000000000
40
0.0000000000
40
0.0000000000
40
1.0000000000
40
1.0000000000
40
1.0000000000
40
1.0000000000
10
58.7156672311
20
41.7922627260
30
0.0000000000
10
58.7125414140
20
41.7903693011
30
0.0000000000
10
58.7094163184
20
41.7884746848
30
0.0000000000
10
58.7062919482
20
41.7865788733
30
0.0000000000
11
58.7156672311
21
41.7922627260
31
0.0000000000
11
58.7062919482
21
41.7865788733
31
0.0000000000
0
SPLINE
5
37F
100
AcDbEntity
8
0
100
AcDbSpline
62
7
6
CONTINUOUS
70
0
71
3
72
8
73
4
74
2
42
0.0000001000
43
0.0000001000
44
0.0000000001
12
0.0093774512
22
-0.0056802746
32
0.0000000000
13
0.0093731104
23
-0.0056874345
33
0.0000000000
40
0.0000000000
40
0.0000000000
40
0.0000000000
40
0.0000000000
40
1.0000000000
40
1.0000000000
40
1.0000000000
40
1.0000000000
10
-58.7156672311
20
41.7922627260
30
0.0000000000
10
-58.7125414140
20
41.7903693011
30
0.0000000000
10
-58.7094163184
20
41.7884746848
30
0.0000000000
10
-58.7062919482
20
41.7865788733
30
0.0000000000
11
-58.7156672311
21
41.7922627260
31
0.0000000000
11
-58.7062919482
21
41.7865788733
31
0.0000000000
0
SPLINE
5
380
100
AcDbEntity
8
0
100
AcDbSpline
62
7
6
CONTINUOUS
70
0
71
3
72
10
73
6
74
4
42
0.0000001000
43
0.0000001000
44
0.0000000001
12
1.5852219919
22
0.8093834127
32
0.0000000000
13
1.7798961409
23
0.0000000000
33
0.0000000000
40
0.0000000000
40
0.0000000000
40
0.0000000000
40
0.0000000000
40
0.3460568818
40
0.6775422017
40
1.0000000000
40
1.0000000000
40
1.0000000000
40
1.0000000000
10
-58.7062919482
20
41.7865788733
30
0.0000000000
10
-58.5234329550
20
41.8799431066
30
0.0000000000
10
-58.1497013516
20
42.0337530336
30
0.0000000000
10
-57.5699630965
20
42.1697645129
30
0.0000000000
10
-57.1813137969
20
42.1993909428
30
0.0000000000
10
-56.9900000000
20
42.1993909428
30
0.0000000000
11
-58.7062919482
21
41.7865788733
31
0.0000000000
11
-58.1366900889
21
42.0209767082
31
0.0000000000
11
-57.5622798749
21
42.1557507676
31
0.0000000000
11
-56.9900000000
21
42.1993909428
31
0.0000000000
0
SPLINE
5
381
100
AcDbEntity
8
0
100
AcDbSpline
62
7
6
CONTINUOUS
70
0
71
3
72
10
73
6
74
4
42
0.0000001000
43
0.0000001000
44
0.0000000001
12
-1.5852219919
22
0.8093834127
32
0.0000000000
13
-1.7798961409
23
0.0000000000
33
0.0000000000
40
0.0000000000
40
0.0000000000
40
0.0000000000
40
0.0000000000
40
0.3460568818
40
0.6775422017
40
1.0000000000
40
1.0000000000
40
1.0000000000
40
1.0000000000
10
58.7062919482
20
41.7865788733
30
0.0000000000
10
58.5234329550
20
41.8799431066
30
0.0000000000
10
58.1497013516
20
42.0337530336
30
0.0000000000
10
57.5699630965
20
42.1697645129
30
0.0000000000
10
57.1813137969
20
42.1993909428
30
0.0000000000
10
56.9900000000
20
42.1993909428
30
0.0000000000
11
58.7062919482
21
41.7865788733
31
0.0000000000
11
58.1366900889
21
42.0209767082
31
0.0000000000
11
57.5622798749
21
42.1557507676
31
0.0000000000
11
56.9900000000
21
42.1993909428
31
0.0000000000
0
SPLINE
5
382
100
AcDbEntity
8
0
100
AcDbSpline
62
9
6
CONTINUOUS
70
0
71
3
72
16
73
12
74
10
42
0.0000001000
43
0.0000001000
44
0.0000000001
12
26.9256058579
22
-0.0000589124
32
0.0000000000
13
26.9255259609
23
-0.0655937872
33
0.0000000000
40
0.0000000000
40
0.0000000000
40
0.0000000000
40
0.0000000000
40
0.1596716212
40
0.3023031508
40
0.4305668898
40
0.5466861815
40
0.6518749975
40
0.7476328313
40
0.8376758647
40
0.9221552304
40
1.0000000000
40
1.0000000000
40
1.0000000000
40
1.0000000000
10
30.0644104684
20
-42.0823346101
30
0.0000000000
10
31.4974955151
20
-42.0823377456
30
0.0000000000
10
34.2107273573
20
-42.0826492878
30
0.0000000000
10
38.0751519387
20
-42.0840143459
30
0.0000000000
10
41.5486852281
20
-42.0860120632
30
0.0000000000
10
44.6861622138
20
-42.0884609768
30
0.0000000000
10
47.5318917423
20
-42.0912295092
30
0.0000000000
10
50.1435811193
20
-42.0943094952
30
0.0000000000
10
52.5693983373
20
-42.0977870155
30
0.0000000000
10
54.8344411164
20
-42.1018141544
30
0.0000000000
10
56.2913295454
20
-42.1050184949
30
0.0000000000
10
56.9900000000
20
-42.1067205393
30
0.0000000000
11
30.0644104684
21
-42.0823346101
31
0.0000000000
11
34.3636655781
21
-42.0828473117
31
0.0000000000
11
38.2041056833
21
-42.0842094547
31
0.0000000000
11
41.6576839927
21
-42.0861988602
31
0.0000000000
11
44.7842653200
21
-42.0886427260
31
0.0000000000
11
47.6165365636
21
-42.0914138781
31
0.0000000000
11
50.1948724271
21
-42.0944825956
31
0.0000000000
11
52.6193331006
21
-42.0980022026
31
0.0000000000
11
54.8939875397
21
-42.1020863462
31
0.0000000000
11
56.9900000000
21
-42.1067205393
31
0.0000000000
0
SPLINE
5
383
100
AcDbEntity
8
0
100
AcDbSpline
62
9
6
CONTINUOUS
70
0
71
3
72
16
73
12
74
10
42
0.0000001000
43
0.0000001000
44
0.0000000001
12
27.1296160505
22
0.0277014753
32
0.0000000000
13
27.1281591413
23
0.2825173041
33
0.0000000000
40
0.0000000000
40
0.0000000000
40
0.0000000000
40
0.0000000000
40
0.1592114901
40
0.3014828345
40
0.4294396007
40
0.5453005567
40
0.6503123720
40
0.7460593487
40
0.8363515235
40
0.9213913803
40
1.0000000000
40
1.0000000000
40
1.0000000000
40
1.0000000000
10
30.0645452255
20
-40.7513411083
30
0.0000000000
10
31.5043274243
20
-40.7498709773
30
0.0000000000
10
34.2307022465
20
-40.7501251385
30
0.0000000000
10
38.1142097885
20
-40.7566225575
30
0.0000000000
10
41.6056859149
20
-40.7642893723
30
0.0000000000
10
44.7602175278
20
-40.7709882124
30
0.0000000000
10
47.6234747445
20
-40.7748536139
30
0.0000000000
10
50.2555117420
20
-40.7729928703
30
0.0000000000
10
52.7069239242
20
-40.7631437729
30
0.0000000000
10
55.0032849020
20
-40.7437053211
30
0.0000000000
10
56.4831140952
20
-40.7285005768
30
0.0000000000
10
57.1939498102
20
-40.7210978117
30
0.0000000000
11
30.0645452255
21
-40.7513411083
31
0.0000000000
11
34.3838940736
21
-40.7513406491
31
0.0000000000
11
38.2436585970
21
-40.7571932554
31
0.0000000000
11
41.7150706865
21
-40.7644856576
31
0.0000000000
11
44.8583292901
21
-40.7707714029
31
0.0000000000
11
47.7072592390
21
-40.7739449587
31
0.0000000000
11
50.3048381424
21
-40.7714826504
31
0.0000000000
11
52.7544093766
21
-40.7610830369
31
0.0000000000
11
55.0614343213
21
-40.7424898972
31
0.0000000000
11
57.1939498102
21
-40.7210978117
31
0.0000000000
0
SPLINE
5
384
100
AcDbEntity
8
0
100
AcDbSpline
62
9
6
CONTINUOUS
70
0
71
3
72
11
73
7
74
5
42
0.0000001000
43
0.0000001000
44
0.0000000001
12
-0.0158841818
22
-1.4176994730
32
0.0000000000
13
-1.4068398945
23
-0.1758568003
33
0.0000000000
40
0.0000000000
40
0.0000000000
40
0.0000000000
40
0.0000000000
40
0.3748112020
40
0.6905025034
40
0.9058609521
40
1.0000000000
40
1.0000000000
40
1.0000000000
40
1.0000000000
10
57.1939503069
20
-40.7210980410
30
0.0000000000
10
57.1919657838
20
-40.8982212555
30
0.0000000000
10
57.1805359533
20
-41.2197878704
30
0.0000000000
10
57.1405501576
20
-41.6630380344
30
0.0000000000
10
57.0882788051
20
-41.9199283543
30
0.0000000000
10
57.0341461804
20
-42.1011611888
30
0.0000000000
10
56.9899999910
20
-42.1066795194
30
0.0000000000
11
57.1939503069
21
-40.7210980410
31
0.0000000000
11
57.1739444808
21
-41.2521243209
31
0.0000000000
11
57.1287145234
21
-41.6974166123
31
0.0000000000
11
57.0644627677
21
-41.9959124802
31
0.0000000000
11
56.9899999910
21
-42.1066795194
31
0.0000000000
0
SPLINE
5
385
100
AcDbEntity
8
0
100
AcDbSpline
62
9
6
CONTINUOUS
70
0
71
3
72
14
73
10
74
8
42
0.0000001000
43
0.0000001000
44
0.0000000001
12
5.6739751562
22
-0.0075356659
32
0.0000000000
13
-0.0008252380
23
5.6739801003
33
0.0000000000
40
0.0000000000
40
0.0000000000
40
0.0000000000
40
0.0000000000
40
0.1433798363
40
0.2872772452
40
0.4305436046
40
0.5736681939
40
0.7168254123
40
0.8594432617
40
1.0000000000
40
1.0000000000
40
1.0000000000
40
1.0000000000
10
56.9900000000
20
-42.1067205393
30
0.0000000000
10
57.2611778763
20
-42.1070806935
30
0.0000000000
10
57.8065787928
20
-42.0462611717
30
0.0000000000
10
58.5812809073
20
-41.7745361334
30
0.0000000000
10
59.2754431784
20
-41.3365303250
30
0.0000000000
10
59.8531956349
20
-40.7556650132
30
0.0000000000
10
60.2861170122
20
-40.0614468561
30
0.0000000000
10
60.5518919992
20
-39.2932918079
30
0.0000000000
10
60.6112923777
20
-38.7558387120
30
0.0000000000
10
60.6112537135
20
-38.4900000000
30
0.0000000000
11
56.9900000000
21
-42.1067205393
31
0.0000000000
11
57.7985002392
21
-42.0163574040
31
0.0000000000
11
58.5689966600
21
-41.7462458894
31
0.0000000000
11
59.2564485435
21
-41.3124246804
31
0.0000000000
11
59.8291348271
21
-40.7366519626
31
0.0000000000
11
60.2589815659
21
-40.0474376918
31
0.0000000000
11
60.5234664495
21
-39.2826697906
31
0.0000000000
11
60.6112537135
21
-38.4900000000
31
0.0000000000
0
SPLINE
5
386
100
AcDbEntity
8
0
100
AcDbSpline
62
9
6
CONTINUOUS
70
0
71
3
72
14
73
10
74
8
42
0.0000001000
43
0.0000001000
44
0.0000000001
12
3.4382463579
22
0.0366437686
32
0.0000000000
13
0.0275428639
23
3.4383313066
33
0.0000000000
40
0.0000000000
40
0.0000000000
40
0.0000000000
40
0.0000000000
40
0.1429128546
40
0.2871233944
40
0.4312172636
40
0.5751708053
40
0.7186607497
40
0.8607567973
40
1.0000000000
40
1.0000000000
40
1.0000000000
40
1.0000000000
10
57.1939503069
20
-40.7210980410
30
0.0000000000
10
57.3577401742
20
-40.7193524191
30
0.0000000000
10
57.6875724554
20
-40.6782968283
30
0.0000000000
10
58.1558367457
20
-40.5083586038
30
0.0000000000
10
58.5767740272
20
-40.2395351041
30
0.0000000000
10
58.9287115142
20
-39.8864215304
30
0.0000000000
10
59.1941709096
20
-39.4670040003
30
0.0000000000
10
59.3592411067
20
-39.0048130667
30
0.0000000000
10
59.3981417067
20
-38.6815419415
30
0.0000000000
10
59.3994200922
20
-38.5219538538
30
0.0000000000
11
57.1939503069
21
-40.7210980410
31
0.0000000000
11
57.6816120832
21
-40.6606207540
31
0.0000000000
11
58.1478770031
21
-40.4918792645
31
0.0000000000
11
58.5655024810
21
-40.2252935481
31
0.0000000000
11
58.9148487876
21
-39.8746395172
31
0.0000000000
11
59.1784899314
21
-39.4576036135
31
0.0000000000
11
59.3423868658
21
-38.9973243822
31
0.0000000000
11
59.3994200922
21
-38.5219538538
31
0.0000000000
0
SPLINE
5
387
100
AcDbEntity
8
0
100
AcDbSpline
62
9
6
CONTINUOUS
70
0
71
3
72
11
73
7
74
5
42
0.0000001000
43
0.0000001000
44
0.0000000001
12
1.2127210522
22
0.0053840375
32
0.0000000000
13
0.7529532159
23
0.9506749144
33
0.0000000000
40
0.0000000000
40
0.0000000000
40
0.0000000000
40
0.0000000000
40
0.3906105136
40
0.7100907470
40
0.9213174356
40
1.0000000000
40
1.0000000000
40
1.0000000000
40
1.0000000000
10
59.3994206934
20
-38.5219539255
30
0.0000000000
10
59.5573212244
20
-38.5212529049
30
0.0000000000
10
59.8408972346
20
-38.5136026988
30
0.0000000000
10
60.2251487976
20
-38.5254847601
30
0.0000000000
10
60.4482147257
20
-38.4818883403
30
0.0000000000
10
60.5915056168
20
-38.5149338467
30
0.0000000000
10
60.6112537135
20
-38.4900000000
30
0.0000000000
11
59.3994206934
21
-38.5219539255
31
0.0000000000
11
59.8731097992
21
-38.5179224054
31
0.0000000000
11
60.2604856035
21
-38.5106414496
31
0.0000000000
11
60.5164641006
21
-38.5009583570
31
0.0000000000
11
60.6112537135
21
-38.4900000000
31
0.0000000000
0
SPLINE
5
388
100
AcDbEntity
8
0
100
AcDbSpline
62
9
6
CONTINUOUS
70
0
71
3
72
17
73
13
74
11
42
0.0000001000
43
0.0000001000
44
0.0000000001
12
-0.0148210185
22
38.4903086941
32
0.0000000000
13
-0.0000006465
23
38.4903115476
33
0.0000000000
40
0.0000000000
40
0.0000000000
40
0.0000000000
40
0.0000000000
40
0.0604566566
40
0.1281802570
40
0.2041500958
40
0.2892544520
40
0.3834996812
40
0.4866226819
40
0.5985233120
40
0.7202794925
40
0.8531430234
40
1.0000000000
40
1.0000000000
40
1.0000000000
40
1.0000000000
10
60.6112537135
20
-38.4900000000
30
0.0000000000
10
60.6109550371
20
-37.7143348748
30
0.0000000000
10
60.6105889148
20
-36.0697688868
30
0.0000000000
10
60.6104488749
20
-33.4505019575
30
0.0000000000
10
60.6105212677
20
-30.5150024810
30
0.0000000000
10
60.6106778800
20
-27.2392277586
30
0.0000000000
10
60.6108316337
20
-23.6150751475
30
0.0000000000
10
60.6109253342
20
-19.6471235581
30
0.0000000000
10
60.6109462933
20
-15.3262036043
30
0.0000000000
10
60.6109063714
20
-10.6237095608
30
0.0000000000
10
60.6108451455
20
-5.4727219608
30
0.0000000000
10
60.6108215649
20
-1.8838788007
30
0.0000000000
10
60.6108215333
20
0.0003114602
30
0.0000000000
11
60.6112537135
21
-38.4900000000
31
0.0000000000
11
60.6106715578
21
-36.1630045246
31
0.0000000000
11
60.6104865257
21
-33.5563020524
31
0.0000000000
11
60.6105290190
21
-30.6321992883
31
0.0000000000
11
60.6106694832
21
-27.3565061072
31
0.0000000000
11
60.6108159404
21
-23.7289778793
31
0.0000000000
11
60.6109107686
21
-19.7597414528
31
0.0000000000
11
60.6109365077
21
-15.4526513405
31
0.0000000000
11
60.6109050439
21
-10.7662180197
31
0.0000000000
11
60.6108515836
21
-5.6522593224
31
0.0000000000
11
60.6108215333
21
0.0003114602
31
0.0000000000
0
SPLINE
5
389
100
AcDbEntity
8
0
100
AcDbSpline
62
9
6
CONTINUOUS
70
0
71
3
72
17
73
13
74
11
42
0.0000001000
43
0.0000001000
44
0.0000000001
12
0.3023534958
22
38.5208798661
32
0.0000000000
13
-0.0000008289
23
38.5220664463
33
0.0000000000
40
0.0000000000
40
0.0000000000
40
0.0000000000
40
0.0000000000
40
0.0609312013
40
0.1288703387
40
0.2048906476
40
0.2899447922
40
0.3840864260
40
0.4870852091
40
0.5988572009
40
0.7204952452
40
0.8532499711
40
1.0000000000
40
1.0000000000
40
1.0000000000
40
1.0000000000
10
59.3994206934
20
-38.5219539255
30
0.0000000000
10
59.4055616140
20
-37.7395794309
30
0.0000000000
10
59.4158645855
20
-36.0848251435
30
0.0000000000
10
59.4263990933
20
-33.4539082244
30
0.0000000000
10
59.4346515804
20
-30.5132271242
30
0.0000000000
10
59.4412987807
20
-27.2360833119
30
0.0000000000
10
59.4469691294
20
-23.6125151278
30
0.0000000000
10
59.4519499202
20
-19.6458700878
30
0.0000000000
10
59.4562020742
20
-15.3261511824
30
0.0000000000
10
59.4599075275
20
-10.6243448418
30
0.0000000000
10
59.4626417777
20
-5.4733956504
30
0.0000000000
10
59.4633831470
20
-1.8843620452
30
0.0000000000
10
59.4633831065
20
0.0000094098
30
0.0000000000
11
59.3994206934
21
-38.5219539255
31
0.0000000000
11
59.4144823060
21
-36.1748064665
31
0.0000000000
11
59.4254904625
21
-33.5576736511
31
0.0000000000
11
59.4339676385
21
-30.6292265284
31
0.0000000000
11
59.4408218240
21
-27.3527722906
31
0.0000000000
11
59.4466126752
21
-23.7262466383
31
0.0000000000
11
59.4516363798
21
-19.7585238556
31
0.0000000000
11
59.4559424779
21
-15.4528379129
31
0.0000000000
11
59.4596028960
21
-10.7670905172
31
0.0000000000
11
59.4622838460
21
-5.6531048485
31
0.0000000000
11
59.4633831065
21
0.0000094098
31
0.0000000000
0
SPLINE
5
38A
100
AcDbEntity
8
0
100
AcDbSpline
62
9
6
CONTINUOUS
70
0
71
3
72
24
73
20
74
18
42
0.0000001000
43
0.0000001000
44
0.0000000001
12
-0.0001883555
22
38.4896909982
32
0.0000000000
13
0.0689641851
23
38.4896292151
33
0.0000000000
40
0.0000000000
40
0.0000000000
40
0.0000000000
40
0.0000000000
40
0.0362000653
40
0.0754351293
40
0.1180337384
40
0.1643008294
40
0.2145412369
40
0.2690584670
40
0.3281531409
40
0.3921202359
40
0.4612186519
40
0.5355388084
40
0.6147536412
40
0.6947317978
40
0.7695881166
40
0.8367649376
40
0.8963486046
40
0.9504455279
40
1.0000000000
40
1.0000000000
40
1.0000000000
40
1.0000000000
10
60.6108215333
20
0.0003114602
30
0.0000000000
10
60.6108192604
20
0.4647545699
30
0.0000000000
10
60.6108186863
20
1.4325795095
30
0.0000000000
10
60.6108309402
20
2.9469402157
30
0.0000000000
10
60.6108591371
20
4.5904598235
30
0.0000000000
10
60.6109062164
20
6.3751768551
30
0.0000000000
10
60.6109748304
20
8.3128085665
30
0.0000000000
10
60.6110665101
20
10.4150168447
30
0.0000000000
10
60.6111802970
20
12.6933371087
30
0.0000000000
10
60.6113098031
20
15.1587324850
30
0.0000000000
10
60.6114390172
20
17.8194692348
30
0.0000000000
10
60.6115517044
20
20.6758328912
30
0.0000000000
10
60.6116145156
20
23.6717824998
30
0.0000000000
10
60.6116275227
20
26.6746110169
30
0.0000000000
10
60.6116558601
20
29.5229930820
30
0.0000000000
10
60.6118731883
20
32.1097159429
30
0.0000000000
10
60.6125238678
20
34.4300978406
30
0.0000000000
10
60.6139069981
20
36.5243864915
30
0.0000000000
10
60.6156500208
20
37.8542222472
30
0.0000000000
10
60.6167891821
20
38.4900000000
30
0.0000000000
11
60.6108215333
21
0.0003114602
31
0.0000000000
11
60.6108206451
21
1.3936407891
31
0.0000000000
11
60.6108327787
21
2.9037862790
31
0.0000000000
11
60.6108607459
21
4.5433935787
31
0.0000000000
11
60.6109074420
21
6.3241996124
31
0.0000000000
11
60.6109754222
21
8.2579373734
31
0.0000000000
11
60.6110660742
21
10.3562887128
31
0.0000000000
11
60.6111781165
21
12.6308244469
31
0.0000000000
11
60.6113047801
21
15.0928981662
31
0.0000000000
11
60.6114318718
21
17.7524748426
31
0.0000000000
11
60.6115406946
21
20.6130346974
31
0.0000000000
11
60.6116058982
21
23.6619891360
31
0.0000000000
11
60.6116307845
21
26.7403236666
31
0.0000000000
11
60.6116943309
21
29.6215202478
31
0.0000000000
11
60.6119710799
21
32.2071353147
31
0.0000000000
11
60.6126958680
21
34.5004921327
31
0.0000000000
11
60.6141810412
21
36.5826654631
31
0.0000000000
11
60.6167891821
21
38.4900000000
31
0.0000000000
0
SPLINE
5
38B
100
AcDbEntity
8
0
100
AcDbSpline
62
9
6
CONTINUOUS
70
0
71
3
72
24
73
20
74
18
42
0.0000001000
43
0.0000001000
44
0.0000000001
12
-0.0096177703
22
38.6386889886
32
0.0000000000
13
-0.6719705266
23
38.6328465800
33
0.0000000000
40
0.0000000000
40
0.0000000000
40
0.0000000000
40
0.0000000000
40
0.0360783600
40
0.0751808500
40
0.1176344416
40
0.1637423024
40
0.2138070333
40
0.2681291927
40
0.3270051196
40
0.3907239443
40
0.4595412405
40
0.5335454393
40
0.6124167666
40
0.6920711185
40
0.7667311626
40
0.8339448824
40
0.8939186641
40
0.9489257613
40
1.0000000000
40
1.0000000000
40
1.0000000000
40
1.0000000000
10
59.4633828231
20
0.0000094098
30
0.0000000000
10
59.4632671587
20
0.4646829202
30
0.0000000000
10
59.4630441695
20
1.4329794187
30
0.0000000000
10
59.4627559630
20
2.9480596400
30
0.0000000000
10
59.4625179935
20
4.5923154631
30
0.0000000000
10
59.4623508554
20
6.3777601720
30
0.0000000000
10
59.4622801016
20
8.3160668586
30
0.0000000000
10
59.4623390909
20
10.4188206628
30
0.0000000000
10
59.4625623080
20
12.6974332256
30
0.0000000000
10
59.4630251867
20
15.1627367896
30
0.0000000000
10
59.4636942262
20
17.8228858472
30
0.0000000000
10
59.4645506223
20
20.6781924807
30
0.0000000000
10
59.4652327142
20
23.6730757034
30
0.0000000000
10
59.4652965179
20
26.6764060915
30
0.0000000000
10
59.4630853481
20
29.5295912258
30
0.0000000000
10
59.4573465075
20
32.1292943996
30
0.0000000000
10
59.4462660436
20
34.4758597007
30
0.0000000000
10
59.4268133228
20
36.6144974164
30
0.0000000000
10
59.4068871849
20
37.9806416883
30
0.0000000000
10
59.3954470573
20
38.6383560971
30
0.0000000000
11
59.4633828231
21
0.0000094098
31
0.0000000000
11
59.4630620733
21
1.3940299472
31
0.0000000000
11
59.4627751593
21
2.9048989174
31
0.0000000000
11
59.4625382033
21
4.5452500734
31
0.0000000000
11
59.4623718854
21
6.3267974143
31
0.0000000000
11
59.4623020676
21
8.2612330386
31
0.0000000000
11
59.4623609174
21
10.3601701236
31
0.0000000000
11
59.4625888985
21
12.6350588117
31
0.0000000000
11
59.4630380089
21
15.0970706985
31
0.0000000000
11
59.4636981063
21
17.7560808033
31
0.0000000000
11
59.4644985174
21
20.6155059998
31
0.0000000000
11
59.4651260470
21
23.6629907177
31
0.0000000000
11
59.4648762358
21
26.7407305307
31
0.0000000000
11
59.4622861307
21
29.6254956815
31
0.0000000000
11
59.4559903507
21
32.2225381460
31
0.0000000000
11
59.4442018752
21
34.5398165316
31
0.0000000000
11
59.4243362366
21
36.6651258783
31
0.0000000000
11
59.3954470573
21
38.6383560971
31
0.0000000000
0
SPLINE
5
38C
100
AcDbEntity
8
0
100
AcDbSpline
62
9
6
CONTINUOUS
70
0
71
3
72
11
73
7
74
5
42
0.0000001000
43
0.0000001000
44
0.0000000001
12
1.2395857536
22
-0.0246468723
32
0.0000000000
13
0.2077696209
23
-1.2222978743
33
0.0000000000
40
0.0000000000
40
0.0000000000
40
0.0000000000
40
0.0000000000
40
0.3849739187
40
0.7011424430
40
0.9125801916
40
1.0000000000
40
1.0000000000
40
1.0000000000
40
1.0000000000
10
59.3954469617
20
38.6383560423
30
0.0000000000
10
59.5545163568
20
38.6351932413
30
0.0000000000
10
59.8390844520
20
38.6235330435
30
0.0000000000
10
60.2326977659
20
38.5974187035
30
0.0000000000
10
60.4494722829
20
38.5527957410
30
0.0000000000
10
60.6107345893
20
38.5256176820
30
0.0000000000
10
60.6167889828
20
38.4900000000
30
0.0000000000
11
59.3954469617
21
38.6383560423
31
0.0000000000
11
59.8723907787
21
38.6198553062
31
0.0000000000
11
60.2629299107
21
38.5860969306
31
0.0000000000
11
60.5211770887
21
38.5410474313
31
0.0000000000
11
60.6167889828
21
38.4900000000
31
0.0000000000
0
SPLINE
5
38D
100
AcDbEntity
8
0
100
AcDbSpline
62
9
6
CONTINUOUS
70
0
71
3
72
19
73
15
74
13
42
0.0000001000
43
0.0000001000
44
0.0000000001
12
0.0060573145
22
5.6935412716
32
0.0000000000
13
-5.6935409896
23
-0.0063168645
33
0.0000000000
40
0.0000000000
40
0.0000000000
40
0.0000000000
40
0.0000000000
40
0.0480222900
40
0.0997913829
40
0.1561558836
40
0.2179541858
40
0.2860205351
40
0.3611838425
40
0.4442725138
40
0.5361212504
40
0.6385631550
40
0.7540651260
40
0.8784788856
40
1.0000000000
40
1.0000000000
40
1.0000000000
40
1.0000000000
10
60.6167891821
20
38.4900000000
30
0.0000000000
10
60.6168861441
20
38.5811389633
30
0.0000000000
10
60.6099328464
20
38.7706103332
30
0.0000000000
10
60.5758535234
20
39.0653203639
30
0.0000000000
10
60.5116632697
20
39.3818069421
30
0.0000000000
10
60.4094297343
20
39.7207119314
30
0.0000000000
10
60.2593965493
20
40.0805405780
30
0.0000000000
10
60.0501271857
20
40.4567738404
30
0.0000000000
10
59.7689272440
20
40.8408390905
30
0.0000000000
10
59.4013744451
20
41.2202590785
30
0.0000000000
10
58.9307866490
20
41.5769154035
30
0.0000000000
10
58.3503549090
20
41.8769259928
30
0.0000000000
10
57.6886296636
20
42.0731751345
30
0.0000000000
10
57.2206284819
20
42.1175100995
30
0.0000000000
10
56.9900000000
20
42.1172542221
30
0.0000000000
11
60.6167891821
21
38.4900000000
31
0.0000000000
11
60.6067607350
21
38.7632330701
31
0.0000000000
11
60.5729032427
21
39.0560316648
31
0.0000000000
11
60.5091122306
21
39.3705413927
31
0.0000000000
11
60.4074948504
21
39.7073993804
31
0.0000000000
11
60.2583502173
21
40.0650894568
31
0.0000000000
11
60.0503270838
21
40.4390732029
31
0.0000000000
11
59.7708544341
21
40.8207659612
31
0.0000000000
11
59.4069899345
21
41.1963640991
31
0.0000000000
11
58.9421336788
21
41.5486395896
31
0.0000000000
11
58.3579336416
21
41.8505809894
31
0.0000000000
11
57.6787940506
21
42.0519180531
31
0.0000000000
11
56.9900000000
21
42.1172542221
31
0.0000000000
0
SPLINE
5
38E
100
AcDbEntity
8
0
100
AcDbSpline
62
9
6
CONTINUOUS
70
0
71
3
72
19
73
15
74
13
42
0.0000001000
43
0.0000001000
44
0.0000000001
12
-0.0616959899
22
3.5480312459
32
0.0000000000
13
-3.5477700295
23
0.0752325361
33
0.0000000000
40
0.0000000000
40
0.0000000000
40
0.0000000000
40
0.0000000000
40
0.0476299379
40
0.0991949871
40
0.1555844487
40
0.2176778445
40
0.2863389181
40
0.3623934136
40
0.4465869011
40
0.5395541915
40
0.6427954311
40
0.7582654944
40
0.8812536501
40
1.0000000000
40
1.0000000000
40
1.0000000000
40
1.0000000000
10
59.3954469617
20
38.6383560423
30
0.0000000000
10
59.3944674363
20
38.6946868783
30
0.0000000000
10
59.3880249696
20
38.8119704145
30
0.0000000000
10
59.3637769893
20
38.9945882351
30
0.0000000000
10
59.3208389374
20
39.1913500754
30
0.0000000000
10
59.2543561128
20
39.4028318451
30
0.0000000000
10
59.1584061155
20
39.6283159825
30
0.0000000000
10
59.0261207903
20
39.8652155590
30
0.0000000000
10
58.8499949599
20
40.1084143344
30
0.0000000000
10
58.6215907931
20
40.3503372736
30
0.0000000000
10
58.3312601303
20
40.5798947361
30
0.0000000000
10
57.9754060015
20
40.7760336401
30
0.0000000000
10
57.5715445043
20
40.9088366126
30
0.0000000000
10
57.2855411107
20
40.9436122552
30
0.0000000000
10
57.1451128636
20
40.9465901182
30
0.0000000000
11
59.3954469617
21
38.6383560423
31
0.0000000000
11
59.3862015642
21
38.8071210435
31
0.0000000000
11
59.3621482423
21
38.9885152916
31
0.0000000000
11
59.3195218294
21
39.1840241821
31
0.0000000000
11
59.2534838658
21
39.3942380128
31
0.0000000000
11
59.1581245510
21
39.6184503546
31
0.0000000000
11
59.0265771246
21
39.8541046111
31
0.0000000000
11
58.8513361490
21
40.0960795942
31
0.0000000000
11
58.6248080656
21
40.3359118472
31
0.0000000000
11
58.3372945903
21
40.5629681538
31
0.0000000000
11
57.9782483479
21
40.7604107654
31
0.0000000000
11
57.5634627212
21
40.8961516502
31
0.0000000000
11
57.1451128636
21
40.9465901182
31
0.0000000000
0
SPLINE
5
38F
100
AcDbEntity
8
0
100
AcDbSpline
62
9
6
CONTINUOUS
70
0
71
3
72
11
73
7
74
5
42
0.0000001000
43
0.0000001000
44
0.0000000001
12
-0.0295805947
22
1.1908397920
32
0.0000000000
13
-1.1760106682
23
0.1896663652
33
0.0000000000
40
0.0000000000
40
0.0000000000
40
0.0000000000
40
0.0000000000
40
0.3862306343
40
0.7014216461
40
0.9117547649
40
1.0000000000
40
1.0000000000
40
1.0000000000
40
1.0000000000
10
57.1451127412
20
40.9465898744
30
0.0000000000
10
57.1413044306
20
41.0999028105
30
0.0000000000
10
57.1289213620
20
41.3736148173
30
0.0000000000
10
57.0996991051
20
41.7503124707
30
0.0000000000
10
57.0564147600
20
41.9595772220
30
0.0000000000
10
57.0245924460
20
42.1116751711
30
0.0000000000
10
56.9900000000
20
42.1172542221
30
0.0000000000
11
57.1451127412
21
40.9465898744
31
0.0000000000
11
57.1246054885
21
41.4062132952
31
0.0000000000
11
57.0890656577
21
41.7799852377
31
0.0000000000
11
57.0424622919
21
42.0261631902
31
0.0000000000
11
56.9900000000
21
42.1172542221
31
0.0000000000
0
SPLINE
5
390
100
AcDbEntity
8
0
100
AcDbSpline
62
9
6
CONTINUOUS
70
0
71
3
72
21
73
17
74
15
42
0.0000001000
43
0.0000001000
44
0.0000000001
12
-56.9864799193
22
-0.1076163295
32
0.0000000000
13
-56.9865815328
23
0.0002513344
33
0.0000000000
40
0.0000000000
40
0.0000000000
40
0.0000000000
40
0.0000000000
40
0.0344161072
40
0.0730684955
40
0.1162495443
40
0.1642005141
40
0.2165293977
40
0.2736588629
40
0.3362688511
40
0.4051121206
40
0.4810091010
40
0.5647309731
40
0.6570074073
40
0.7592025493
40
0.8731423887
40
1.0000000000
40
1.0000000000
40
1.0000000000
40
1.0000000000
10
56.9900000000
20
42.1172542221
30
0.0000000000
10
56.3362490651
20
42.1160196437
30
0.0000000000
10
54.9482762314
20
42.1137690938
30
0.0000000000
10
52.7400562382
20
42.1112362814
30
0.0000000000
10
50.2747336273
20
42.1094139589
30
0.0000000000
10
47.5496183614
20
42.1082836220
30
0.0000000000
10
44.5595454051
20
42.1077281508
30
0.0000000000
10
41.2910166280
20
42.1076186352
30
0.0000000000
10
37.7087883921
20
42.1078243940
30
0.0000000000
10
33.7700613300
20
42.1082309793
30
0.0000000000
10
29.4303029131
20
42.1087490273
30
0.0000000000
10
24.6454191778
20
42.1092795558
30
0.0000000000
10
19.3609879914
20
42.1097666868
30
0.0000000000
10
13.5025505761
20
42.1101373689
30
0.0000000000
10
6.9872254642
20
42.1103823355
30
0.0000000000
10
2.4131509459
20
42.1104464813
30
0.0000000000
10
0.0034237419
20
42.1104571092
30
0.0000000000
11
56.9900000000
21
42.1172542221
31
0.0000000000
11
55.0287463228
21
42.1140456751
31
0.0000000000
11
52.8260803489
21
42.1114763773
31
0.0000000000
11
50.3653407007
21
42.1096070133
31
0.0000000000
11
47.6327791072
21
42.1084178612
31
0.0000000000
11
44.6507349785
21
42.1078174494
31
0.0000000000
11
41.3951220502
21
42.1076692116
31
0.0000000000
11
37.8271928608
21
42.1078435304
31
0.0000000000
11
33.9040502866
21
42.1082271900
31
0.0000000000
11
29.5789408539
21
42.1087254595
31
0.0000000000
11
24.8079175934
21
42.1092473965
31
0.0000000000
11
19.5493990719
21
42.1097252744
31
0.0000000000
11
13.7256472911
21
42.1100996865
31
0.0000000000
11
7.2326053534
21
42.1103489662
31
0.0000000000
11
0.0034237419
21
42.1104571092
31
0.0000000000
0
SPLINE
5
391
100
AcDbEntity
8
0
100
AcDbSpline
62
9
6
CONTINUOUS
70
0
71
3
72
21
73
17
74
15
42
0.0000001000
43
0.0000001000
44
0.0000000001
12
-57.1297521760
22
1.2104446303
32
0.0000000000
13
-57.1425733432
23
-0.0084623329
33
0.0000000000
40
0.0000000000
40
0.0000000000
40
0.0000000000
40
0.0000000000
40
0.0350445061
40
0.0742380836
40
0.1178346064
40
0.1660538570
40
0.2185120328
40
0.2756575953
40
0.3381932746
40
0.4068924692
40
0.4825878296
40
0.5660625110
40
0.6580535506
40
0.7599318672
40
0.8735257512
40
1.0000000000
40
1.0000000000
40
1.0000000000
40
1.0000000000
10
57.1451127412
20
40.9465898744
30
0.0000000000
10
56.4777514259
20
40.9607296858
30
0.0000000000
10
55.0639848397
20
40.9892648779
30
0.0000000000
10
52.8198068528
20
41.0251326358
30
0.0000000000
10
50.3245743690
20
41.0549158157
30
0.0000000000
10
47.5765995773
20
41.0773906979
30
0.0000000000
10
44.5705047303
20
41.0937880746
30
0.0000000000
10
41.2916955380
20
41.1057412605
30
0.0000000000
10
37.7035246553
20
41.1144687280
30
0.0000000000
10
33.7620216745
20
41.1213180389
30
0.0000000000
10
29.4216799781
20
41.1266917741
30
0.0000000000
10
24.6376850490
20
41.1310803397
30
0.0000000000
10
19.3549688006
20
41.1346355856
30
0.0000000000
10
13.4985557099
20
41.1372760484
30
0.0000000000
10
6.9853224790
20
41.1390239857
30
0.0000000000
10
2.4126187176
20
41.1390879721
30
0.0000000000
10
0.0035973709
20
41.1387312164
30
0.0000000000
11
57.1451127412
21
40.9465898744
31
0.0000000000
11
55.1429741564
21
40.9863469216
31
0.0000000000
11
52.9036418583
21
41.0223627072
31
0.0000000000
11
50.4126052242
21
41.0523836156
31
0.0000000000
11
47.6573303716
21
41.0755321731
31
0.0000000000
11
44.6597828411
21
41.0924359116
31
0.0000000000
11
41.3943614738
21
41.1047363973
31
0.0000000000
11
37.8209232612
21
41.1137889535
31
0.0000000000
11
33.8952806709
21
41.1207754001
31
0.0000000000
11
29.5698564533
21
41.1262883914
31
0.0000000000
11
24.7999003783
21
41.1307467064
31
0.0000000000
11
19.5432968120
21
41.1343241593
31
0.0000000000
11
13.7217081859
21
41.1370079909
31
0.0000000000
11
7.2306614901
21
41.1386977175
31
0.0000000000
11
0.0035973709
21
41.1387312164
31
0.0000000000
0
SPLINE
5
392
100
AcDbEntity
8
0
100
AcDbSpline
62
9
6
CONTINUOUS
70
0
71
3
72
22
73
18
74
16
42
0.0000001000
43
0.0000001000
44
0.0000000001
12
-56.9934290296
22
-0.0002505596
32
0.0000000000
13
-56.9933274031
23
0.1076296207
33
0.0000000000
40
0.0000000000
40
0.0000000000
40
0.0000000000
40
0.0000000000
40
0.1242360097
40
0.2350493928
40
0.3341097042
40
0.4233691885
40
0.5043317775
40
0.5777697311
40
0.6443820485
40
0.7048785795
40
0.7599101276
40
0.8100968777
40
0.8560608566
40
0.8979312224
40
0.9356868601
40
0.9696180876
40
1.0000000000
40
1.0000000000
40
1.0000000000
40
1.0000000000
10
0.0034237419
20
42.1104571092
30
0.0000000000
10
-2.3567883258
20
42.1104467330
30
0.0000000000
10
-6.8222119547
20
42.1103851741
30
0.0000000000
10
-13.1695645233
20
42.1101519893
30
0.0000000000
10
-18.8524397124
20
42.1098036763
30
0.0000000000
10
-23.9682151872
20
42.1093472204
30
0.0000000000
10
-28.5972219765
20
42.1088454984
30
0.0000000000
10
-32.7959821968
20
42.1083460334
30
0.0000000000
10
-36.6059321495
20
42.1079283272
30
0.0000000000
10
-40.0662007270
20
42.1076668005
30
0.0000000000
10
-43.2144195161
20
42.1076448107
30
0.0000000000
10
-46.0865516355
20
42.1079561715
30
0.0000000000
10
-48.7086500412
20
42.1086949862
30
0.0000000000
10
-51.0945843269
20
42.1099475357
30
0.0000000000
10
-53.2519222639
20
42.1117693813
30
0.0000000000
10
-55.1910040703
20
42.1141445459
30
0.0000000000
10
-56.4128112393
20
42.1161642242
30
0.0000000000
10
-56.9900000000
20
42.1172542221
30
0.0000000000
11
0.0034237419
21
42.1104571092
31
0.0000000000
11
-7.0772124604
21
42.1103530266
31
0.0000000000
11
-13.3928471398
21
42.1101164931
31
0.0000000000
11
-19.0386339588
21
42.1097646118
31
0.0000000000
11
-24.1258380225
21
42.1093161183
31
0.0000000000
11
-28.7401735665
21
42.1088214803
31
0.0000000000
11
-32.9256543334
21
42.1083374263
31
0.0000000000
11
-36.7221186973
21
42.1079381743
31
0.0000000000
11
-40.1700234353
21
42.1077002364
31
0.0000000000
11
-43.3064600627
21
42.1077072654
31
0.0000000000
11
-46.1667750237
21
42.1080511405
31
0.0000000000
11
-48.7864196800
21
42.1088280341
31
0.0000000000
11
-51.1727550504
21
42.1101222185
31
0.0000000000
11
-53.3245775102
21
42.1119744427
31
0.0000000000
11
-55.2584330277
21
42.1143727460
31
0.0000000000
11
-56.9900000000
21
42.1172542221
31
0.0000000000
0
SPLINE
5
393
100
AcDbEntity
8
0
100
AcDbSpline
62
9
6
CONTINUOUS
70
0
71
3
72
22
73
18
74
16
42
0.0000001000
43
0.0000001000
44
0.0000000001
12
-57.1497690138
22
0.0084793998
32
0.0000000000
13
-57.1369480989
23
-1.2105090556
33
0.0000000000
40
0.0000000000
40
0.0000000000
40
0.0000000000
40
0.0000000000
40
0.1238659084
40
0.2343424618
40
0.3330955687
40
0.4220774607
40
0.5027985437
40
0.5760344021
40
0.6424955977
40
0.7028987490
40
0.7579098018
40
0.8081643141
40
0.8543003846
40
0.8964636150
40
0.9346252374
40
0.9690568318
40
1.0000000000
40
1.0000000000
40
1.0000000000
40
1.0000000000
10
0.0035973713
20
41.1387302073
30
0.0000000000
10
-2.3560386468
20
41.1390803101
30
0.0000000000
10
-6.8202446260
20
41.1390305503
30
0.0000000000
10
-13.1656894635
20
41.1373943551
30
0.0000000000
10
-18.8465961020
20
41.1348702185
30
0.0000000000
10
-23.9606628712
20
41.1316252811
30
0.0000000000
10
-28.5886271624
20
41.1274736680
30
0.0000000000
10
-32.7875731334
20
41.1227003048
30
0.0000000000
10
-36.5994618342
20
41.1165298871
30
0.0000000000
10
-40.0641664543
20
41.1090617531
30
0.0000000000
10
-43.2201281453
20
41.0991960528
30
0.0000000000
10
-46.1042888438
20
41.0860360961
30
0.0000000000
10
-48.7436745744
20
41.0687527557
30
0.0000000000
10
-51.1526395836
20
41.0457190911
30
0.0000000000
10
-53.3385624484
20
41.0174050551
30
0.0000000000
10
-55.3106511958
20
40.9843857730
30
0.0000000000
10
-56.5557798904
20
40.9590752985
30
0.0000000000
10
-57.1451126220
20
40.9465896368
30
0.0000000000
11
0.0035973713
21
41.1387302073
31
0.0000000000
11
-7.0753107609
21
41.1387200073
31
0.0000000000
11
-13.3890201371
21
41.1371295591
31
0.0000000000
11
-19.0327368835
21
41.1345993022
31
0.0000000000
11
-24.1180304364
21
41.1312920655
31
0.0000000000
11
-28.7312198771
21
41.1271524714
31
0.0000000000
11
-32.9166293838
21
41.1222011120
31
0.0000000000
11
-36.7148663206
21
41.1159870630
31
0.0000000000
11
-40.1668838454
21
41.1082558601
31
0.0000000000
11
-43.3107365205
21
41.0981259518
31
0.0000000000
11
-46.1827388820
21
41.0846871971
31
0.0000000000
11
-48.8193445045
21
41.0668735094
31
0.0000000000
11
-51.2288506351
21
41.0435607177
31
0.0000000000
11
-53.4095920238
21
41.0150366552
31
0.0000000000
11
-55.3770729672
21
40.9820356785
31
0.0000000000
11
-57.1451126220
21
40.9465896368
31
0.0000000000
0
SPLINE
5
394
100
AcDbEntity
8
0
100
AcDbSpline
62
9
6
CONTINUOUS
70
0
71
3
72
11
73
7
74
5
42
0.0000001000
43
0.0000001000
44
0.0000000001
12
0.0295807052
22
1.1908131306
32
0.0000000000
13
1.1759960295
23
0.1895897379
33
0.0000000000
40
0.0000000000
40
0.0000000000
40
0.0000000000
40
0.0000000000
40
0.3862327031
40
0.7014240713
40
0.9117562187
40
1.0000000000
40
1.0000000000
40
1.0000000000
40
1.0000000000
10
-57.1451128656
20
40.9465901222
30
0.0000000000
10
-57.1413045203
20
41.0999004470
30
0.0000000000
10
-57.1289217198
20
41.3736069501
30
0.0000000000
10
-57.0996984849
20
41.7502977784
30
0.0000000000
10
-57.0564162071
20
41.9595549961
30
0.0000000000
10
-57.0245914449
20
42.1116503176
30
0.0000000000
10
-56.9899999995
20
42.1172270227
30
0.0000000000
11
-57.1451128656
21
40.9465901222
31
0.0000000000
11
-57.1246055138
21
41.4062057019
31
0.0000000000
11
-57.0890656478
21
41.7799696297
31
0.0000000000
11
-57.0424622861
21
42.0261407003
31
0.0000000000
11
-56.9899999995
21
42.1172270227
31
0.0000000000
0
SPLINE
5
395
100
AcDbEntity
8
0
100
AcDbSpline
62
9
6
CONTINUOUS
70
0
71
3
72
19
73
15
74
13
42
0.0000001000
43
0.0000001000
44
0.0000000001
12
-5.6935389061
22
0.0063133970
32
0.0000000000
13
0.0060571236
23
-5.6935391845
33
0.0000000000
40
0.0000000000
40
0.0000000000
40
0.0000000000
40
0.0000000000
40
0.1215859526
40
0.2460794750
40
0.3615959745
40
0.4639921271
40
0.5557933305
40
0.6388548634
40
0.7140053809
40
0.7820681379
40
0.8438670689
40
0.9002314080
40
0.9519945555
40
1.0000000000
40
1.0000000000
40
1.0000000000
40
1.0000000000
10
-56.9900000000
20
42.1172542221
30
0.0000000000
10
-57.2207514505
20
42.1175100955
30
0.0000000000
10
-57.6890288059
20
42.0731251432
30
0.0000000000
10
-58.3510183139
20
41.8766783161
30
0.0000000000
10
-58.9314609022
20
41.5764856603
30
0.0000000000
10
-59.4018502832
20
41.2198204928
30
0.0000000000
10
-59.7691884600
20
40.8405148647
30
0.0000000000
10
-60.0502578019
20
40.4565615973
30
0.0000000000
10
-60.2594675058
20
40.0803904514
30
0.0000000000
10
-60.4094753850
20
39.7205839432
30
0.0000000000
10
-60.5116950722
20
39.3816811005
30
0.0000000000
10
-60.5758718256
20
39.0652025310
30
0.0000000000
10
-60.6099369219
20
38.7705349223
30
0.0000000000
10
-60.6168861070
20
38.5811069599
30
0.0000000000
10
-60.6167891821
20
38.4900000000
30
0.0000000000
11
-56.9900000000
21
42.1172542221
31
0.0000000000
11
-57.6791579615
21
42.0518479510
31
0.0000000000
11
-58.3586993982
21
41.8502695639
31
0.0000000000
11
-58.9429003311
21
41.5481503074
31
0.0000000000
11
-59.4074731246
21
41.1959324315
31
0.0000000000
11
-59.7710961274
21
40.8204774164
31
0.0000000000
11
-60.0504459239
21
40.4388864271
31
0.0000000000
11
-60.2584145138
21
40.0649558488
31
0.0000000000
11
-60.4075376042
21
39.7072791036
31
0.0000000000
11
-60.5091439537
21
39.3704141840
31
0.0000000000
11
-60.5729234242
21
39.0559031741
31
0.0000000000
11
-60.6067678786
21
38.7631372571
31
0.0000000000
11
-60.6167891821
21
38.4900000000
31
0.0000000000
0
SPLINE
5
396
100
AcDbEntity
8
0
100
AcDbSpline
62
9
6
CONTINUOUS
70
0
71
3
72
19
73
15
74
13
42
0.0000001000
43
0.0000001000
44
0.0000000001
12
-3.5477685502
22
-0.0752383013
32
0.0000000000
13
-0.0616961156
23
-3.5480298867
33
0.0000000000
40
0.0000000000
40
0.0000000000
40
0.0000000000
40
0.0000000000
40
0.1188110413
40
0.2418789662
40
0.3573649372
40
0.4605608036
40
0.5534801523
40
0.6376460565
40
0.7136874686
40
0.7823447789
40
0.8444386677
40
0.9008278290
40
0.9523868446
40
1.0000000000
40
1.0000000000
40
1.0000000000
40
1.0000000000
10
-57.1451128656
20
40.9465901222
30
0.0000000000
10
-57.2856175575
20
40.9436104086
30
0.0000000000
10
-57.5717921485
20
40.9087986168
30
0.0000000000
10
-57.9758156129
20
40.7758665076
30
0.0000000000
10
-58.3316763182
20
40.5796153066
30
0.0000000000
10
-58.6218863413
20
40.3500560541
30
0.0000000000
10
-58.8501587990
20
40.1082077459
30
0.0000000000
10
-59.0262036131
20
39.8650807782
30
0.0000000000
10
-59.1584515951
20
39.6282210049
30
0.0000000000
10
-59.2543857073
20
39.4027513133
30
0.0000000000
10
-59.3208599398
20
39.1912713543
30
0.0000000000
10
-59.3637895971
20
38.9945148415
30
0.0000000000
10
-59.3880283543
20
38.8119235132
30
0.0000000000
10
-59.3944677795
20
38.6946670084
30
0.0000000000
10
-59.3954469617
20
38.6383560423
30
0.0000000000
11
-57.1451128656
21
40.9465901222
31
0.0000000000
11
-57.5636877867
21
40.8961019087
31
0.0000000000
11
-57.9787196090
21
40.7602037734
31
0.0000000000
11
-58.3377688765
21
40.5626498617
31
0.0000000000
11
-58.6251089882
21
40.3356340610
31
0.0000000000
11
-58.8514879268
21
40.0958951279
31
0.0000000000
11
-59.0266524611
21
39.8539857813
31
0.0000000000
11
-59.1581657387
21
39.6183657517
31
0.0000000000
11
-59.2535115895
21
39.3941622973
31
0.0000000000
11
-59.3195427919
21
39.1839445969
31
0.0000000000
11
-59.3621620989
21
38.9884353265
31
0.0000000000
11
-59.3862070382
21
38.8070616355
31
0.0000000000
11
-59.3954469617
21
38.6383560423
31
0.0000000000
0
SPLINE
5
397
100
AcDbEntity
8
0
100
AcDbSpline
62
9
6
CONTINUOUS
70
0
71
3
72
11
73
7
74
5
42
0.0000001000
43
0.0000001000
44
0.0000000001
12
-1.2395864917
22
-0.0246422036
32
0.0000000000
13
-0.2077788944
23
-1.2222969523
33
0.0000000000
40
0.0000000000
40
0.0000000000
40
0.0000000000
40
0.0000000000
40
0.3849734321
40
0.7011416782
40
0.9125795160
40
1.0000000000
40
1.0000000000
40
1.0000000000
40
1.0000000000
10
-59.3954469745
20
38.6383560496
30
0.0000000000
10
-59.5545162632
20
38.6351938517
30
0.0000000000
10
-59.8390843839
20
38.6235345583
30
0.0000000000
10
-60.2326971378
20
38.5974202117
30
0.0000000000
10
-60.4494729025
20
38.5527974419
30
0.0000000000
10
-60.6107344715
20
38.5256179304
30
0.0000000000
10
-60.6167891821
20
38.4900000000
30
0.0000000000
11
-59.3954469745
21
38.6383560496
31
0.0000000000
11
-59.8723904877
21
38.6198566408
31
0.0000000000
11
-60.2629295016
21
38.5860985336
31
0.0000000000
11
-60.5211768331
21
38.5410484778
31
0.0000000000
11
-60.6167891821
21
38.4900000000
31
0.0000000000
0
SPLINE
5
398
100
AcDbEntity
8
0
100
AcDbSpline
62
9
6
CONTINUOUS
70
0
71
3
72
24
73
20
74
18
42
0.0000001000
43
0.0000001000
44
0.0000000001
12
0.0689639003
22
-38.4896292194
32
0.0000000000
13
-0.0001883553
23
-38.4896910020
33
0.0000000000
40
0.0000000000
40
0.0000000000
40
0.0000000000
40
0.0000000000
40
0.0484423822
40
0.1012396803
40
0.1587868342
40
0.2213057073
40
0.2892558307
40
0.3631584649
40
0.4414311079
40
0.5211801898
40
0.5979142147
40
0.6677812177
40
0.7305641219
40
0.7869735839
40
0.8377683318
40
0.8837049916
40
0.9255409095
40
0.9640332187
40
1.0000000000
40
1.0000000000
40
1.0000000000
40
1.0000000000
10
-60.6167891821
20
38.4900000000
30
0.0000000000
10
-60.6156755902
20
37.8684902234
30
0.0000000000
10
-60.6139592149
20
36.5695965250
30
0.0000000000
10
-60.6125762864
20
34.5323781976
30
0.0000000000
10
-60.6119154439
20
32.3145596097
30
0.0000000000
10
-60.6116756930
20
29.9023317729
30
0.0000000000
10
-60.6116273010
20
27.2802648013
30
0.0000000000
10
-60.6116218907
20
24.4560785849
30
0.0000000000
10
-60.6115746661
20
21.4805129456
30
0.0000000000
10
-60.6114686476
20
18.4686208576
30
0.0000000000
10
-60.6113309134
20
15.5645722660
30
0.0000000000
10
-60.6111897968
20
12.8781979877
30
0.0000000000
10
-60.6110680453
20
10.4525857557
30
0.0000000000
10
-60.6109730518
20
8.2716685927
30
0.0000000000
10
-60.6109040853
20
6.3068870095
30
0.0000000000
10
-60.6108578629
20
4.5290824950
30
0.0000000000
10
-60.6108305487
20
2.9091170011
30
0.0000000000
10
-60.6108186820
20
1.4170640212
30
0.0000000000
10
-60.6108192751
20
0.4617615598
30
0.0000000000
10
-60.6108215333
20
0.0003114602
30
0.0000000000
11
-60.6167891821
21
38.4900000000
31
0.0000000000
11
-60.6142241421
21
36.6254694417
31
0.0000000000
11
-60.6127410967
21
34.5933182919
31
0.0000000000
11
-60.6120047229
21
32.3783462432
31
0.0000000000
11
-60.6117137265
21
29.9720141535
31
0.0000000000
11
-60.6116356176
21
27.3566349016
31
0.0000000000
11
-60.6116155722
21
24.5121453480
31
0.0000000000
11
-60.6115653519
21
21.4994555054
31
0.0000000000
11
-60.6114609096
21
18.4299379855
31
0.0000000000
11
-60.6113241056
21
15.4764690841
31
0.0000000000
11
-60.6111861254
21
12.7873097296
31
0.0000000000
11
-60.6110667570
21
10.3708151490
31
0.0000000000
11
-60.6109731341
21
8.1996323875
31
0.0000000000
11
-60.6109050121
21
6.2445582407
31
0.0000000000
11
-60.6108593138
21
4.4764703997
31
0.0000000000
11
-60.6108323155
21
2.8662188442
31
0.0000000000
11
-60.6108206133
21
1.3846617590
31
0.0000000000
11
-60.6108215333
21
0.0003114602
31
0.0000000000
0
SPLINE
5
399
100
AcDbEntity
8
0
100
AcDbSpline
62
9
6
CONTINUOUS
70
0
71
3
72
24
73
20
74
18
42
0.0000001000
43
0.0000001000
44
0.0000000001
12
-0.6719702556
22
-38.6326456354
32
0.0000000000
13
-0.0096174037
23
-38.6384880698
33
0.0000000000
40
0.0000000000
40
0.0000000000
40
0.0000000000
40
0.0000000000
40
0.0499359344
40
0.1036426858
40
0.1615926096
40
0.2241751120
40
0.2919720527
40
0.3655896789
40
0.4435276260
40
0.5229335293
40
0.5993533742
40
0.6689480131
40
0.7314984774
40
0.7877064940
40
0.8383240491
40
0.8841029748
40
0.9257967491
40
0.9641592004
40
1.0000000000
40
1.0000000000
40
1.0000000000
40
1.0000000000
10
-59.3954469745
20
38.6383560496
30
0.0000000000
10
-59.4066321287
20
37.9953036301
30
0.0000000000
10
-59.4261823586
20
36.6605734896
30
0.0000000000
10
-59.4454961526
20
34.5794233196
30
0.0000000000
10
-59.4565311146
20
32.3353331972
30
0.0000000000
10
-59.4624615238
20
29.9097519207
30
0.0000000000
10
-59.4650192146
20
27.2823730280
30
0.0000000000
10
-59.4653028704
20
24.4572230166
30
0.0000000000
10
-59.4648123424
20
21.4825555417
30
0.0000000000
10
-59.4638637893
20
18.4717970071
30
0.0000000000
10
-59.4631190823
20
15.5684960334
30
0.0000000000
10
-59.4625820712
20
12.8822845807
30
0.0000000000
10
-59.4623391931
20
10.4563912580
30
0.0000000000
10
-59.4622792142
20
8.2749132067
30
0.0000000000
10
-59.4623552936
20
6.3094441285
30
0.0000000000
10
-59.4625257151
20
4.5309111888
30
0.0000000000
10
-59.4627627562
20
2.9102178257
30
0.0000000000
10
-59.4630476725
20
1.4175225315
30
0.0000000000
10
-59.4632678776
20
0.4618220522
30
0.0000000000
10
-59.4633827761
20
0.0002106157
30
0.0000000000
11
-59.3954469745
21
38.6383560496
31
0.0000000000
11
-59.4238083201
21
36.7091154395
31
0.0000000000
11
-59.4435374712
21
34.6340614890
31
0.0000000000
11
-59.4553505428
21
32.3949951424
31
0.0000000000
11
-59.4617280191
21
29.9769102053
31
0.0000000000
11
-59.4645807459
21
27.3573403938
31
0.0000000000
11
-59.4651750932
21
24.5128665967
31
0.0000000000
11
-59.4647408015
21
21.5014620965
31
0.0000000000
11
-59.4638821867
21
18.4333380725
31
0.0000000000
11
-59.4631256852
21
15.4805908117
31
0.0000000000
11
-59.4626110434
21
12.7915591552
31
0.0000000000
11
-59.4623618308
21
10.3747037225
31
0.0000000000
11
-59.4623024517
21
8.2029108800
31
0.0000000000
11
-59.4623772573
21
6.2471250186
31
0.0000000000
11
-59.4625463204
21
4.4782964979
31
0.0000000000
11
-59.4627815090
21
2.8673120654
31
0.0000000000
11
-59.4630639714
21
1.3850449314
31
0.0000000000
11
-59.4633827761
21
0.0002106157
31
0.0000000000
0
SPLINE
5
39A
100
AcDbEntity
8
0
100
AcDbSpline
62
9
6
CONTINUOUS
70
0
71
3
72
17
73
13
74
11
42
0.0000001000
43
0.0000001000
44
0.0000000001
12
-0.0000006579
22
-38.4903115477
32
0.0000000000
13
-0.0148207142
23
-38.4903086944
33
0.0000000000
40
0.0000000000
40
0.0000000000
40
0.0000000000
40
0.0000000000
40
0.1514997143
40
0.2867564654
40
0.4084429186
40
0.5187946052
40
0.6204724500
40
0.7136297895
40
0.7980188251
40
0.8734467336
40
0.9404226941
40
1.0000000000
40
1.0000000000
40
1.0000000000
40
1.0000000000
10
-60.6108215333
20
0.0003114602
30
0.0000000000
10
-60.6108215665
20
-1.9434456072
30
0.0000000000
10
-60.6108465642
20
-5.6225608372
30
0.0000000000
10
-60.6109091867
20
-10.8629258990
30
0.0000000000
10
-60.6109471775
20
-15.5753574923
30
0.0000000000
10
-60.6109218810
20
-19.8569682321
30
0.0000000000
10
-60.6108260748
20
-23.7725474777
30
0.0000000000
10
-60.6106722297
20
-27.3550232137
30
0.0000000000
10
-60.6105177180
20
-30.6007095388
30
0.0000000000
10
-60.6104495574
20
-33.5104860585
30
0.0000000000
10
-60.6105942595
20
-36.1019255065
30
0.0000000000
10
-60.6109593874
20
-37.7256170349
30
0.0000000000
10
-60.6112537135
20
-38.4900000000
30
0.0000000000
11
-60.6108215333
21
0.0003114602
31
0.0000000000
11
-60.6108532746
21
-5.8309597419
31
0.0000000000
11
-60.6109077154
21
-11.0370342296
31
0.0000000000
11
-60.6109369119
21
-15.7207837259
31
0.0000000000
11
-60.6109075474
21
-19.9682545216
31
0.0000000000
11
-60.6108108218
21
-23.8818664471
31
0.0000000000
11
-60.6106644753
21
-27.4675214611
31
0.0000000000
11
-60.6105260691
21
-30.7156817319
31
0.0000000000
11
-60.6104876470
21
-33.6189254284
31
0.0000000000
11
-60.6106764333
21
-36.1968510075
31
0.0000000000
11
-60.6112537135
21
-38.4900000000
31
0.0000000000
0
SPLINE
5
39B
100
AcDbEntity
8
0
100
AcDbSpline
62
9
6
CONTINUOUS
70
0
71
3
72
17
73
13
74
11
42
0.0000001000
43
0.0000001000
44
0.0000000001
12
-0.0000007907
22
-38.5222676766
32
0.0000000000
13
0.3023592324
23
-38.5210810575
33
0.0000000000
40
0.0000000000
40
0.0000000000
40
0.0000000000
40
0.0000000000
40
0.1513937194
40
0.2865381371
40
0.4081046991
40
0.5183281738
40
0.6198828297
40
0.7129384154
40
0.7972791727
40
0.8727601463
40
0.9399530976
40
1.0000000000
40
1.0000000000
40
1.0000000000
40
1.0000000000
10
-59.4633831638
20
0.0002106155
30
0.0000000000
10
-59.4633832037
20
-1.9437991784
30
0.0000000000
10
-59.4625991048
20
-5.6231654796
30
0.0000000000
10
-59.4597507822
20
-10.8635375888
30
0.0000000000
10
-59.4559804458
20
-15.5752518758
30
0.0000000000
10
-59.4517059248
20
-19.8556476016
30
0.0000000000
10
-59.4467533684
20
-23.7699398643
30
0.0000000000
10
-59.4410840785
20
-27.3518771322
30
0.0000000000
10
-59.4344458262
20
-30.5990064364
30
0.0000000000
10
-59.4261921759
20
-33.5140352969
30
0.0000000000
10
-59.4156854872
20
-36.1171037188
30
0.0000000000
10
-59.4054726079
20
-37.7509300609
30
0.0000000000
10
-59.3994206962
20
-38.5219539258
30
0.0000000000
11
-59.4633831638
21
0.0002106155
31
0.0000000000
11
-59.4622152487
21
-5.8318186492
31
0.0000000000
11
-59.4594215305
21
-11.0378873359
31
0.0000000000
11
-59.4557014448
21
-15.7209054979
31
0.0000000000
11
-59.4513983583
21
-19.9669615163
31
0.0000000000
11
-59.4463992335
21
-23.8790739599
31
0.0000000000
11
-59.4406176305
21
-27.4637814796
31
0.0000000000
11
-59.4337634296
21
-30.7127714777
31
0.0000000000
11
-59.4252730434
21
-33.6204573513
31
0.0000000000
11
-59.4143061006
21
-36.2088589737
31
0.0000000000
11
-59.3994206962
21
-38.5219539258
31
0.0000000000
0
SPLINE
5
39C
100
AcDbEntity
8
0
100
AcDbSpline
62
9
6
CONTINUOUS
70
0
71
3
72
11
73
7
74
5
42
0.0000001000
43
0.0000001000
44
0.0000000001
12
-1.2126582510
22
0.0053835366
32
0.0000000000
13
-0.7526496385
23
0.9508351791
33
0.0000000000
40
0.0000000000
40
0.0000000000
40
0.0000000000
40
0.0000000000
40
0.3906147224
40
0.7100956819
40
0.9213206410
40
1.0000000000
40
1.0000000000
40
1.0000000000
40
1.0000000000
10
-59.3994200931
20
-38.5219538537
30
0.0000000000
10
-59.5573141484
20
-38.5212528909
30
0.0000000000
10
-59.8408753329
20
-38.5136014934
30
0.0000000000
10
-60.2251154877
20
-38.5254877407
30
0.0000000000
10
-60.4481544355
20
-38.4818837075
30
0.0000000000
10
-60.5914509044
20
-38.5149370238
30
0.0000000000
10
-60.6111902348
20
-38.4899999896
30
0.0000000000
11
-59.3994200931
21
-38.5219538537
31
0.0000000000
11
-59.8730897715
21
-38.5179224338
31
0.0000000000
11
-60.2604463886
21
-38.5106414813
31
0.0000000000
11
-60.5164095107
21
-38.5009583590
31
0.0000000000
11
-60.6111902348
21
-38.4899999896
31
0.0000000000
0
SPLINE
5
39D
100
AcDbEntity
8
0
100
AcDbSpline
62
9
6
CONTINUOUS
70
0
71
3
72
14
73
10
74
8
42
0.0000001000
43
0.0000001000
44
0.0000000001
12
-0.0008236526
22
-5.6739801006
32
0.0000000000
13
5.6739751560
23
0.0075358888
33
0.0000000000
40
0.0000000000
40
0.0000000000
40
0.0000000000
40
0.0000000000
40
0.1405567383
40
0.2831745876
40
0.4263318060
40
0.5694563954
40
0.7127227548
40
0.8566201635
40
1.0000000000
40
1.0000000000
40
1.0000000000
40
1.0000000000
10
-60.6112537135
20
-38.4900000000
30
0.0000000000
10
-60.6112923034
20
-38.7558387121
30
0.0000000000
10
-60.5518920353
20
-39.2932918082
30
0.0000000000
10
-60.2861170023
20
-40.0614468557
30
0.0000000000
10
-59.8531956377
20
-40.7556650132
30
0.0000000000
10
-59.2754431776
20
-41.3365303247
30
0.0000000000
10
-58.5812809077
20
-41.7745361348
30
0.0000000000
10
-57.8065787929
20
-42.0462611662
30
0.0000000000
10
-57.2611778766
20
-42.1070807042
30
0.0000000000
10
-56.9900000000
20
-42.1067205393
30
0.0000000000
11
-60.6112537135
21
-38.4900000000
31
0.0000000000
11
-60.5234664500
21
-39.2826697909
31
0.0000000000
11
-60.2589815659
21
-40.0474376914
31
0.0000000000
11
-59.8291348272
21
-40.7366519625
31
0.0000000000
11
-59.2564485436
21
-41.3124246804
31
0.0000000000
11
-58.5689966597
21
-41.7462458897
31
0.0000000000
11
-57.7985002400
21
-42.0163574035
31
0.0000000000
11
-56.9900000000
21
-42.1067205393
31
0.0000000000
0
SPLINE
5
39E
100
AcDbEntity
8
0
100
AcDbSpline
62
9
6
CONTINUOUS
70
0
71
3
72
14
73
10
74
8
42
0.0000001000
43
0.0000001000
44
0.0000000001
12
0.0275447240
22
-3.4383312980
32
0.0000000000
13
3.4382463628
23
-0.0366438937
33
0.0000000000
40
0.0000000000
40
0.0000000000
40
0.0000000000
40
0.0000000000
40
0.1392436196
40
0.2813395239
40
0.4248294545
40
0.5687829555
40
0.7128767841
40
0.8570873113
40
1.0000000000
40
1.0000000000
40
1.0000000000
40
1.0000000000
10
-59.3994200931
20
-38.5219538537
30
0.0000000000
10
-59.3981416174
20
-38.6815424188
30
0.0000000000
10
-59.3592410874
20
-39.0048138866
30
0.0000000000
10
-59.1941703357
20
-39.4670049485
30
0.0000000000
10
-58.9287109913
20
-39.8864222221
30
0.0000000000
10
-58.5767734194
20
-40.2395355684
30
0.0000000000
10
-58.1558361619
20
-40.5083588922
30
0.0000000000
10
-57.6875720560
20
-40.6782968963
30
0.0000000000
10
-57.3577399838
20
-40.7193524150
30
0.0000000000
10
-57.1939503065
20
-40.7210980408
30
0.0000000000
11
-59.3994200931
21
-38.5219538537
31
0.0000000000
11
-59.3423865814
21
-38.9973257922
31
0.0000000000
11
-59.1784894968
21
-39.4576044482
31
0.0000000000
11
-58.9148482331
21
-39.8746402210
31
0.0000000000
11
-58.5655018924
21
-40.2252940219
31
0.0000000000
11
-58.1478764521
21
-40.4918795388
31
0.0000000000
11
-57.6816115251
21
-40.6606208847
31
0.0000000000
11
-57.1939503065
21
-40.7210980408
31
0.0000000000
0
SPLINE
5
39F
100
AcDbEntity
8
0
100
AcDbSpline
62
9
6
CONTINUOUS
70
0
71
3
72
11
73
7
74
5
42
0.0000001000
43
0.0000001000
44
0.0000000001
12
0.0158801255
22
-1.4177399194
32
0.0000000000
13
1.4068749354
23
-0.1759021711
33
0.0000000000
40
0.0000000000
40
0.0000000000
40
0.0000000000
40
0.0000000000
40
0.3748093469
40
0.6905007384
40
0.9058602061
40
1.0000000000
40
1.0000000000
40
1.0000000000
40
1.0000000000
10
-57.1939500662
20
-40.7210979299
30
0.0000000000
10
-57.1919660597
20
-40.8982253210
30
0.0000000000
10
-57.1805366711
20
-41.2198003880
30
0.0000000000
10
-57.1405519690
20
-41.6630627255
30
0.0000000000
10
-57.0882787671
20
-41.9199617458
30
0.0000000000
10
-57.0341476388
20
-42.1012007413
30
0.0000000000
10
-56.9900000000
20
-42.1067205393
30
0.0000000000
11
-57.1939500662
21
-40.7210979299
31
0.0000000000
11
-57.1739454240
21
-41.2521367749
31
0.0000000000
11
-57.1287157762
21
-41.6974420452
31
0.0000000000
11
-57.0644636071
21
-41.9959482014
31
0.0000000000
11
-56.9900000000
21
-42.1067205393
31
0.0000000000
0
SPLINE
5
3A0
100
AcDbEntity
8
0
100
AcDbSpline
62
9
6
CONTINUOUS
70
0
71
3
72
16
73
12
74
10
42
0.0000001000
43
0.0000001000
44
0.0000000001
12
26.9255259608
22
0.0655935685
32
0.0000000000
13
26.9256058572
23
0.0000586677
33
0.0000000000
40
0.0000000000
40
0.0000000000
40
0.0000000000
40
0.0000000000
40
0.0799348619
40
0.1670194151
40
0.2596957509
40
0.3580328040
40
0.4652790040
40
0.5820450712
40
0.7086663270
40
0.8469110006
40
1.0000000000
40
1.0000000000
40
1.0000000000
40
1.0000000000
10
-56.9900000000
20
-42.1067205393
30
0.0000000000
10
-56.2725706004
20
-42.1049728017
30
0.0000000000
10
-54.7735411637
20
-42.1016851551
30
0.0000000000
10
-52.4427229113
20
-42.0975799016
30
0.0000000000
10
-49.9467401749
20
-42.0940513483
30
0.0000000000
10
-47.2698019070
20
-42.0909485740
30
0.0000000000
10
-44.3766529540
20
-42.0881913530
30
0.0000000000
10
-41.2296471619
20
-42.0858008771
30
0.0000000000
10
-37.8044234248
20
-42.0838974730
30
0.0000000000
10
-34.0531937174
20
-42.0826256591
30
0.0000000000
10
-31.4384151550
20
-42.0823376039
30
0.0000000000
10
-30.0644104684
20
-42.0823346101
30
0.0000000000
11
-56.9900000000
21
-42.1067205393
31
0.0000000000
11
-54.8377106482
21
-42.1019741843
31
0.0000000000
11
-52.4929100073
21
-42.0977999123
31
0.0000000000
11
-49.9975460763
21
-42.0942259279
31
0.0000000000
11
-47.3497631555
21
-42.0911282475
31
0.0000000000
11
-44.4620955694
21
-42.0883619113
31
0.0000000000
11
-41.3180993778
21
-42.0859705835
31
0.0000000000
11
-37.9087458783
21
-42.0840731559
31
0.0000000000
11
-34.1864245013
21
-42.0828055857
31
0.0000000000
11
-30.0644104684
21
-42.0823346101
31
0.0000000000
0
SPLINE
5
3A1
100
AcDbEntity
8
0
100
AcDbSpline
62
9
6
CONTINUOUS
70
0
71
3
72
16
73
12
74
10
42
0.0000001000
43
0.0000001000
44
0.0000000001
12
27.1282490516
22
-0.2825236791
32
0.0000000000
13
27.1297060217
23
-0.0277022749
33
0.0000000000
40
0.0000000000
40
0.0000000000
40
0.0000000000
40
0.0000000000
40
0.0807155337
40
0.1683651413
40
0.2612754821
40
0.3595827252
40
0.4666375358
40
0.5831409000
40
0.7094571960
40
0.8473507351
40
1.0000000000
40
1.0000000000
40
1.0000000000
40
1.0000000000
10
-57.1939500662
20
-40.7210979299
30
0.0000000000
10
-56.4640596994
20
-40.7286992797
30
0.0000000000
10
-54.9415740388
20
-40.7443536127
30
0.0000000000
10
-52.5788739470
20
-40.7640444596
30
0.0000000000
10
-50.0570205486
20
-40.7734593834
30
0.0000000000
10
-47.3596695596
20
-40.7747237216
30
0.0000000000
10
-44.4489657431
20
-40.7703729781
30
0.0000000000
10
-41.2849743078
20
-40.7635766203
30
0.0000000000
10
-37.8421016076
20
-40.7560678781
30
0.0000000000
10
-34.0723490024
20
-40.7500527820
30
0.0000000000
10
-31.4448986853
20
-40.7499315609
30
0.0000000000
10
-30.0644554585
20
-40.7513411382
30
0.0000000000
11
-57.1939500662
21
-40.7210979299
31
0.0000000000
11
-55.0042700314
21
-40.7430273020
31
0.0000000000
11
-52.6264354223
21
-40.7618778664
31
0.0000000000
11
-50.1058239783
21
-40.7719444148
31
0.0000000000
11
-47.4387766645
21
-40.7738510396
31
0.0000000000
11
-44.5344119069
21
-40.7701978299
31
0.0000000000
11
-41.3737148147
21
-40.7637505971
31
0.0000000000
11
-37.9467964790
21
-40.7566158779
31
0.0000000000
11
-34.2057872948
21
-40.7511827412
31
0.0000000000
11
-30.0644554585
21
-40.7513411382
31
0.0000000000
0
SPLINE
5
3A2
100
AcDbEntity
8
0
100
AcDbSpline
62
9
6
CONTINUOUS
70
0
71
3
72
17
73
13
74
11
42
0.0000001000
43
0.0000001000
44
0.0000000001
12
8.9476244621
22
-0.0536130369
32
0.0000000000
13
0.0331152302
23
-8.9477238030
33
0.0000000000
40
0.0000000000
40
0.0000000000
40
0.0000000000
40
0.0000000000
40
0.0774710622
40
0.1632703273
40
0.2592379692
40
0.3672938588
40
0.4890892347
40
0.6138515255
40
0.7277009983
40
0.8286064318
40
0.9190125753
40
1.0000000000
40
1.0000000000
40
1.0000000000
40
1.0000000000
10
33.4466818062
20
27.8965327337
30
0.0000000000
10
33.6777424632
20
27.8951482474
30
0.0000000000
10
34.1649965192
20
27.8637192402
30
0.0000000000
10
34.9265695084
20
27.7182211945
30
0.0000000000
10
35.7476976200
20
27.4379357988
30
0.0000000000
10
36.6100121029
20
26.9798315998
30
0.0000000000
10
37.4442479273
20
26.3188958907
30
0.0000000000
10
38.1456105208
20
25.4949100687
30
0.0000000000
10
38.6483716452
20
24.6096265269
30
0.0000000000
10
38.9598391210
20
23.7503541952
30
0.0000000000
10
39.1206163694
20
22.9516398678
30
0.0000000000
10
39.1544119412
20
22.4400164717
30
0.0000000000
10
39.1553059136
20
22.1984654357
30
0.0000000000
11
33.4466818062
21
27.8965327337
31
0.0000000000
11
34.1384292516
21
27.8517670353
31
0.0000000000
11
34.8924640691
21
27.7074918288
31
0.0000000000
11
35.7050257931
21
27.4298132093
31
0.0000000000
11
36.5587100069
21
26.9758933728
31
0.0000000000
11
37.4128116307
21
26.2990093760
31
0.0000000000
11
38.1364991777
21
25.4490063809
31
0.0000000000
11
38.6397668535
21
24.5633018086
31
0.0000000000
11
38.9476582821
21
23.7145407105
31
0.0000000000
11
39.1074240173
21
22.9215398740
31
0.0000000000
11
39.1553059136
21
22.1984654357
31
0.0000000000
0
SPLINE
5
3A3
100
AcDbEntity
8
0
100
AcDbSpline
62
9
6
CONTINUOUS
70
0
71
3
72
19
73
15
74
13
42
0.0000001000
43
0.0000001000
44
0.0000000001
12
33.4497601861
22
-0.0224011662
32
0.0000000000
13
33.4491657711
23
-0.2006677260
33
0.0000000000
40
0.0000000000
40
0.0000000000
40
0.0000000000
40
0.0000000000
40
0.0551779154
40
0.1150967104
40
0.1799984487
40
0.2501353262
40
0.3257567809
40
0.4072180617
40
0.4951715106
40
0.5903738452
40
0.6928365835
40
0.8005222416
40
0.9052799925
40
1.0000000000
40
1.0000000000
40
1.0000000000
40
1.0000000000
10
-0.0030240817
20
27.9106135053
30
0.0000000000
10
0.6122052641
20
27.9102014888
30
0.0000000000
10
1.8955245153
20
27.9095297297
30
0.0000000000
10
3.9024932285
20
27.9089977139
30
0.0000000000
10
6.0762532823
20
27.9089439932
30
0.0000000000
10
8.4250967232
20
27.9094594890
30
0.0000000000
10
10.9585775459
20
27.9106905959
30
0.0000000000
10
13.6907112571
20
27.9127842497
30
0.0000000000
10
16.6411695509
20
27.9157692145
30
0.0000000000
10
19.8257917000
20
27.9195445219
30
0.0000000000
10
23.2304269756
20
27.9230661717
30
0.0000000000
10
26.7416070810
20
27.9234876738
30
0.0000000000
10
30.1664533717
20
27.9157582176
30
0.0000000000
10
32.3905800606
20
27.9028684750
30
0.0000000000
10
33.4466818047
20
27.8965327255
30
0.0000000000
11
-0.0030240817
21
27.9106135053
31
0.0000000000
11
1.8426641097
21
27.9096336044
31
0.0000000000
11
3.8469338092
21
27.9090895311
31
0.0000000000
11
6.0178818777
21
27.9090303614
31
0.0000000000
11
8.3639440788
21
27.9095463389
31
0.0000000000
11
10.8934638716
21
27.9107727617
31
0.0000000000
11
13.6183240088
21
27.9128359496
31
0.0000000000
11
16.5603449818
21
27.9157692854
31
0.0000000000
11
19.7448389198
21
27.9193712977
31
0.0000000000
11
23.1721922882
21
27.9224966309
31
0.0000000000
11
26.7742525041
21
27.9220449573
31
0.0000000000
11
30.2783641124
21
27.9133351124
31
0.0000000000
11
33.4466818047
21
27.8965327255
31
0.0000000000
0
SPLINE
5
3A4
100
AcDbEntity
8
0
100
AcDbSpline
62
9
6
CONTINUOUS
70
0
71
3
72
19
73
15
74
13
42
0.0000001000
43
0.0000001000
44
0.0000000001
12
33.4431175363
22
0.2006934792
32
0.0000000000
13
33.4437122087
23
0.0224080109
33
0.0000000000
40
0.0000000000
40
0.0000000000
40
0.0000000000
40
0.0000000000
40
0.0893445176
40
0.1880790178
40
0.2946498842
40
0.4032443292
40
0.5058744311
40
0.5989612873
40
0.6828248286
40
0.7586169192
40
0.8273041864
40
0.8898146582
40
0.9470722884
40
1.0000000000
40
1.0000000000
40
1.0000000000
40
1.0000000000
10
-33.4466818047
20
27.8965327251
30
0.0000000000
10
-32.4506954031
20
27.9025096791
30
0.0000000000
10
-30.3540419246
20
27.9147583106
30
0.0000000000
10
-27.0693172540
20
27.9231146990
30
0.0000000000
10
-23.5699900243
20
27.9233530745
30
0.0000000000
10
-20.0272381349
20
27.9197922741
30
0.0000000000
10
-16.6348054681
20
27.9157482652
30
0.0000000000
10
-13.5180697189
20
27.9126192425
30
0.0000000000
10
-10.7005208162
20
27.9105256870
30
0.0000000000
10
-8.1549757393
20
27.9093705065
30
0.0000000000
10
-5.8474724767
20
27.9089290293
30
0.0000000000
10
-3.7465896103
20
27.9090272791
30
0.0000000000
10
-1.8213928732
20
27.9095654427
30
0.0000000000
10
-0.5930571325
20
27.9102155773
30
0.0000000000
10
-0.0030240815
20
27.9106109122
30
0.0000000000
11
-33.4466818047
21
27.8965327251
31
0.0000000000
11
-30.4587119248
21
27.9125864301
31
0.0000000000
11
-27.1566752291
21
27.9215818800
31
0.0000000000
11
-23.5925492224
21
27.9227200215
31
0.0000000000
11
-19.9607483766
21
27.9196090751
31
0.0000000000
11
-16.5284182001
21
27.9157343100
31
0.0000000000
11
-13.4152489903
21
27.9126584439
31
0.0000000000
11
-10.6105409764
21
27.9106008676
31
0.0000000000
11
-8.0757718036
21
27.9094509051
31
0.0000000000
11
-5.7786141320
21
27.9090113011
31
0.0000000000
11
-3.6880314372
21
27.9091146793
31
0.0000000000
11
-1.7731233775
21
27.9096617741
31
0.0000000000
11
-0.0030240815
21
27.9106109122
31
0.0000000000
0
SPLINE
5
3A5
100
AcDbEntity
8
0
100
AcDbSpline
62
9
6
CONTINUOUS
70
0
71
3
72
18
73
14
74
12
42
0.0000001000
43
0.0000001000
44
0.0000000001
12
0.0330351020
22
8.9493996596
32
0.0000000000
13
8.9492996193
23
0.0536834238
33
0.0000000000
40
0.0000000000
40
0.0000000000
40
0.0000000000
40
0.0000000000
40
0.0712060489
40
0.1508398718
40
0.2383407064
40
0.3349309872
40
0.4445464491
40
0.5599681482
40
0.6685970465
40
0.7654701898
40
0.8516215538
40
0.9291106039
40
1.0000000000
40
1.0000000000
40
1.0000000000
40
1.0000000000
10
-39.1553059084
20
22.1984654348
30
0.0000000000
10
-39.1545218087
20
22.4108825647
30
0.0000000000
10
-39.1281704074
20
22.8611372675
30
0.0000000000
10
-39.0039954230
20
23.5629934587
30
0.0000000000
10
-38.7668533444
20
24.3157256335
30
0.0000000000
10
-38.3847298272
20
25.1078957526
30
0.0000000000
10
-37.8306462917
20
25.8971307122
30
0.0000000000
10
-37.1193120602
20
26.6014351444
30
0.0000000000
10
-36.3267285734
20
27.1468341819
30
0.0000000000
10
-35.5368636104
20
27.5195369948
30
0.0000000000
10
-34.7918131686
20
27.7486194174
30
0.0000000000
10
-34.1009933034
20
27.8689027214
30
0.0000000000
10
-33.6581519540
20
27.8952642019
30
0.0000000000
10
-33.4466818056
20
27.8965327304
30
0.0000000000
11
-39.1553059084
21
22.1984654348
31
0.0000000000
11
-39.1180022637
21
22.8346283897
31
0.0000000000
11
-38.9937440054
21
23.5363921174
31
0.0000000000
11
-38.7583141342
21
24.2832490805
31
0.0000000000
11
-38.3825959599
21
25.0617583361
31
0.0000000000
11
-37.8188043108
21
25.8645649910
31
0.0000000000
11
-37.0847437343
21
26.5913149241
31
0.0000000000
11
-36.2839982749
21
27.1426055127
31
0.0000000000
11
-35.5000483772
21
27.5128032030
31
0.0000000000
11
-34.7631560591
21
27.7396146192
31
0.0000000000
11
-34.0799759520
21
27.8587224209
31
0.0000000000
11
-33.4466818056
21
27.8965327304
31
0.0000000000
0
SPLINE
5
3A6
100
AcDbEntity
8
0
100
AcDbSpline
62
9
6
CONTINUOUS
70
0
71
3
72
15
73
11
74
9
42
0.0000001000
43
0.0000001000
44
0.0000000001
12
-0.0429117509
22
22.1983605127
32
0.0000000000
13
0.0821816237
23
22.1982498646
33
0.0000000000
40
0.0000000000
40
0.0000000000
40
0.0000000000
40
0.0000000000
40
0.1319209753
40
0.2771495699
40
0.4247399747
40
0.5647826566
40
0.6913792784
40
0.8043223260
40
0.9067897001
40
1.0000000000
40
1.0000000000
40
1.0000000000
40
1.0000000000
10
-39.1628665003
20
0.0000769420
30
0.0000000000
10
-39.1647534870
20
0.9762200649
30
0.0000000000
10
-39.1670048368
20
3.0269787316
30
0.0000000000
10
-39.1673849940
20
6.1698284197
30
0.0000000000
10
-39.1664499911
20
9.3727741704
30
0.0000000000
10
-39.1659652606
20
12.4378533300
30
0.0000000000
10
-39.1657146950
20
15.2465605307
30
0.0000000000
10
-39.1648250681
20
17.7772303713
30
0.0000000000
10
-39.1620546355
20
20.0608582953
30
0.0000000000
10
-39.1578592994
20
21.5087635924
30
0.0000000000
10
-39.1553059081
20
22.1984654348
30
0.0000000000
11
-39.1628665003
21
0.0000769420
31
0.0000000000
11
-39.1664428535
21
2.9285095983
31
0.0000000000
11
-39.1671628266
21
6.1523522409
31
0.0000000000
11
-39.1665086508
21
9.4286233117
31
0.0000000000
11
-39.1659870443
21
12.5373470166
31
0.0000000000
11
-39.1655758113
21
15.3475896868
31
0.0000000000
11
-39.1644202683
21
17.8547445943
31
0.0000000000
11
-39.1613027922
21
20.1293544185
31
0.0000000000
11
-39.1553059081
21
22.1984654348
31
0.0000000000
0
SPLINE
5
3A7
100
AcDbEntity
8
0
100
AcDbSpline
62
9
6
CONTINUOUS
70
0
71
3
72
32
73
28
74
26
42
0.0000001000
43
0.0000001000
44
0.0000000001
12
0.0225237307
22
22.1939150060
32
0.0000000000
13
-0.0000106648
23
22.1939264352
33
0.0000000000
40
0.0000000000
40
0.0000000000
40
0.0000000000
40
0.0000000000
40
0.0230509489
40
0.0484974435
40
0.0765491260
40
0.1073971987
40
0.1412254021
40
0.1782144353
40
0.2185531843
40
0.2624452404
40
0.3101084661
40
0.3617779788
40
0.4176854691
40
0.4780392128
40
0.5421570765
40
0.6051232146
40
0.6629741254
40
0.7143554318
40
0.7600884139
40
0.8012385091
40
0.8383729164
40
0.8721308729
40
0.9028023959
40
0.9305752312
40
0.9558210196
40
0.9788810090
40
1.0000000000
40
1.0000000000
40
1.0000000000
40
1.0000000000
10
-39.1165773213
20
-22.1937909114
30
0.0000000000
10
-39.1164042568
20
-22.0232606446
30
0.0000000000
10
-39.1161373483
20
-21.6644778278
30
0.0000000000
10
-39.1159993934
20
-21.0981692661
30
0.0000000000
10
-39.1161475926
20
-20.4741777722
30
0.0000000000
10
-39.1166205664
20
-19.7881787502
30
0.0000000000
10
-39.1174450142
20
-19.0360617175
30
0.0000000000
10
-39.1186541554
20
-18.2137333333
30
0.0000000000
10
-39.1202771061
20
-17.3169533962
30
0.0000000000
10
-39.1223282057
20
-16.3412067351
30
0.0000000000
10
-39.1248141254
20
-15.2816361251
30
0.0000000000
10
-39.1277499556
20
-14.1331764651
30
0.0000000000
10
-39.1311390471
20
-12.8908335372
30
0.0000000000
10
-39.1349374784
20
-11.5563987993
30
0.0000000000
10
-39.1389980521
20
-10.1697448991
30
0.0000000000
10
-39.1430488101
20
-8.8016069477
30
0.0000000000
10
-39.1467871937
20
-7.5276932226
30
0.0000000000
10
-39.1500801322
20
-6.3812692060
30
0.0000000000
10
-39.1529214120
20
-5.3583966297
30
0.0000000000
10
-39.1553433895
20
-4.4409215129
30
0.0000000000
10
-39.1573899788
20
-3.6120366706
30
0.0000000000
10
-39.1590921767
20
-2.8606714491
30
0.0000000000
10
-39.1604732442
20
-2.1785623747
30
0.0000000000
10
-39.1615370932
20
-1.5594256242
30
0.0000000000
10
-39.1622951282
20
-0.9965984041
30
0.0000000000
10
-39.1627556484
20
-0.4829958542
30
0.0000000000
10
-39.1628680499
20
-0.1561608353
30
0.0000000000
10
-39.1628681250
20
0.0000769420
30
0.0000000000
11
-39.1165773213
21
-22.1937909114
31
0.0000000000
11
-39.1161910853
21
-21.6821999936
31
0.0000000000
11
-39.1160471679
21
-21.1174423820
31
0.0000000000
11
-39.1161873499
21
-20.4948654204
31
0.0000000000
11
-39.1166496348
21
-19.8102257193
31
0.0000000000
11
-39.1174641174
21
-19.0594455033
31
0.0000000000
11
-39.1186621388
21
-18.2385144955
31
0.0000000000
11
-39.1202713115
21
-17.3432407149
31
0.0000000000
11
-39.1223075545
21
-16.3691057798
31
0.0000000000
11
-39.1247801472
21
-15.3112745432
31
0.0000000000
11
-39.1277013254
21
-14.1645289017
31
0.0000000000
11
-39.1310728812
21
-12.9237267548
31
0.0000000000
11
-39.1348759341
21
-11.5842456046
31
0.0000000000
11
-39.1390307700
21
-10.1612245209
31
0.0000000000
11
-39.1431544880
21
-8.7637647692
31
0.0000000000
11
-39.1469135468
21
-7.4798314125
31
0.0000000000
11
-39.1501811292
21
-6.3394831599
31
0.0000000000
11
-39.1529910274
21
-5.3244926086
31
0.0000000000
11
-39.1553944911
21
-4.4112135853
31
0.0000000000
11
-39.1574223535
21
-3.5870577769
31
0.0000000000
11
-39.1591123997
21
-2.8378380799
31
0.0000000000
11
-39.1604801737
21
-2.1571179292
31
0.0000000000
11
-39.1615292388
21
-1.5407305574
31
0.0000000000
11
-39.1622729647
21
-0.9804278816
31
0.0000000000
11
-39.1627193046
21
-0.4686363663
31
0.0000000000
11
-39.1628681250
21
0.0000769420
31
0.0000000000
0
SPLINE
5
3A8
100
AcDbEntity
8
0
100
AcDbSpline
62
9
6
CONTINUOUS
70
0
71
3
72
10
73
6
74
4
42
0.0000001000
43
0.0000001000
44
0.0000000001
12
-1.7624237556
22
0.0077281395
32
0.0000000000
13
-1.7624336118
23
0.0049982327
33
0.0000000000
40
0.0000000000
40
0.0000000000
40
0.0000000000
40
0.0000000000
40
0.3064564532
40
0.6446540424
40
1.0000000000
40
1.0000000000
40
1.0000000000
40
1.0000000000
10
-37.3541477061
20
-22.2000000000
30
0.0000000000
10
-37.5341830839
20
-22.1992105539
30
0.0000000000
10
-37.9129015494
20
-22.1976858326
30
0.0000000000
10
-38.5003781904
20
-22.1956261179
30
0.0000000000
10
-38.9078194348
20
-22.1943829453
30
0.0000000000
10
-39.1165773213
20
-22.1937909114
30
0.0000000000
11
-37.3541477061
21
-22.2000000000
31
0.0000000000
11
-37.8942545733
21
-22.1978054070
31
0.0000000000
11
-38.4903040698
21
-22.1957055081
31
0.0000000000
11
-39.1165773213
21
-22.1937909114
31
0.0000000000
0
SPLINE
5
3A9
100
AcDbEntity
8
0
100
AcDbSpline
62
9
6
CONTINUOUS
70
0
71
3
72
16
73
12
74
10
42
0.0000001000
43
0.0000001000
44
0.0000000001
12
-8.9302420122
22
0.0230219927
32
0.0000000000
13
0.0084757527
23
8.9302676651
33
0.0000000000
40
0.0000000000
40
0.0000000000
40
0.0000000000
40
0.0000000000
40
0.1199928776
40
0.2381186691
40
0.3441823528
40
0.4401920929
40
0.5393452572
40
0.6508383630
40
0.7739468971
40
0.8924902626
40
1.0000000000
40
1.0000000000
40
1.0000000000
40
1.0000000000
10
-33.4469062613
20
-27.9105692187
30
0.0000000000
10
-33.8040947402
20
-27.9096483936
30
0.0000000000
10
-34.5145795152
20
-27.8426254625
30
0.0000000000
10
-35.5043913481
20
-27.5558412359
30
0.0000000000
10
-36.3610591503
20
-27.1271918527
30
0.0000000000
10
-37.0905421700
20
-26.6000264131
30
0.0000000000
10
-37.7438794741
20
-25.9574380977
30
0.0000000000
10
-38.3327349049
20
-25.1511326311
30
0.0000000000
10
-38.7915538630
20
-24.1979878820
30
0.0000000000
10
-39.0606347502
20
-23.1880875898
30
0.0000000000
10
-39.1168813821
20
-22.5138211818
30
0.0000000000
10
-39.1165776401
20
-22.1937909378
30
0.0000000000
11
-33.4469062613
21
-27.9105692187
31
0.0000000000
11
-34.5136256260
21
-27.8087364474
31
0.0000000000
11
-35.5266060719
21
-27.5143303593
31
0.0000000000
11
-36.3738334016
21
-27.0908317288
31
0.0000000000
11
-37.0691764716
21
-26.5892134660
31
0.0000000000
11
-37.7004981955
21
-25.9683426187
31
0.0000000000
11
-38.2875974534
21
-25.1641904471
31
0.0000000000
11
-38.7643335661
21
-24.1735407146
31
0.0000000000
11
-39.0366985006
21
-23.1505533779
31
0.0000000000
11
-39.1165776401
21
-22.1937909378
31
0.0000000000
0
SPLINE
5
3AA
100
AcDbEntity
8
0
100
AcDbSpline
62
9
6
CONTINUOUS
70
0
71
3
72
16
73
12
74
10
42
0.0000001000
43
0.0000001000
44
0.0000000001
12
-6.1183864913
22
-0.0028236355
32
0.0000000000
13
0.0060886035
23
6.1183841134
33
0.0000000000
40
0.0000000000
40
0.0000000000
40
0.0000000000
40
0.0000000000
40
0.1197087622
40
0.2373766490
40
0.3429669508
40
0.4392088478
40
0.5393167896
40
0.6516795910
40
0.7749779210
40
0.8931105311
40
1.0000000000
40
1.0000000000
40
1.0000000000
40
1.0000000000
10
-33.4500000000
20
-26.0970087231
30
0.0000000000
10
-33.6941414913
20
-26.0971213944
30
0.0000000000
10
-34.1795150655
20
-26.0517246567
30
0.0000000000
10
-34.8554642526
20
-25.8573912604
30
0.0000000000
10
-35.4433051433
20
-25.5692608530
30
0.0000000000
10
-35.9483092527
20
-25.2128819267
30
0.0000000000
10
-36.4031881654
20
-24.7739133333
30
0.0000000000
10
-36.8129659222
20
-24.2208873314
30
0.0000000000
10
-37.1306611460
20
-23.5678557454
30
0.0000000000
10
-37.3158044398
20
-22.8778605524
30
0.0000000000
10
-37.3543646420
20
-22.4179969428
30
0.0000000000
10
-37.3541477061
20
-22.2000000000
30
0.0000000000
11
-33.4500000000
21
-26.0970087231
31
0.0000000000
11
-34.1792296979
21
-26.0286729953
31
0.0000000000
11
-34.8711429966
21
-25.8297603063
31
0.0000000000
11
-35.4512607521
21
-25.5454469201
31
0.0000000000
11
-35.9324528132
21
-25.2060461952
31
0.0000000000
11
-36.3731951623
21
-24.7807211625
31
0.0000000000
11
-36.7823450777
21
-24.2282504515
31
0.0000000000
11
-37.1122259833
21
-23.5498123860
31
0.0000000000
11
-37.2994436885
21
-22.8516992387
31
0.0000000000
11
-37.3541477061
21
-22.2000000000
31
0.0000000000
0
SPLINE
5
3AB
100
AcDbEntity
8
0
100
AcDbSpline
62
9
6
CONTINUOUS
70
0
71
3
72
10
73
6
74
4
42
0.0000001000
43
0.0000001000
44
0.0000000001
12
-3.4479844404
22
0.0059748172
32
0.0000000000
13
-3.4479794065
23
0.0083911716
33
0.0000000000
40
0.0000000000
40
0.0000000000
40
0.0000000000
40
0.0000000000
40
0.3085857611
40
0.6412198935
40
1.0000000000
40
1.0000000000
40
1.0000000000
40
1.0000000000
10
-29.9989178823
20
-27.9129875726
30
0.0000000000
10
-30.3535841832
20
-27.9123729914
30
0.0000000000
10
-31.0905577699
20
-27.9121110865
30
0.0000000000
10
-32.2398873320
20
-27.9123397540
30
0.0000000000
10
-33.0345507708
20
-27.9115727399
30
0.0000000000
10
-33.4469062436
20
-27.9105692114
30
0.0000000000
11
-29.9989178823
21
-27.9129875726
31
0.0000000000
11
-31.0629181024
21
-27.9122155246
31
0.0000000000
11
-32.2098371332
21
-27.9121196568
31
0.0000000000
11
-33.4469062436
21
-27.9105692114
31
0.0000000000
0
SPLINE
5
3AC
100
AcDbEntity
8
0
100
AcDbSpline
62
9
6
CONTINUOUS
70
0
71
3
72
10
73
6
74
4
42
0.0000001000
43
0.0000001000
44
0.0000000001
12
-0.0043331195
22
-1.8156377392
32
0.0000000000
13
0.0066925387
23
-1.8156305753
33
0.0000000000
40
0.0000000000
40
0.0000000000
40
0.0000000000
40
0.0000000000
40
0.3070143045
40
0.6454639157
40
1.0000000000
40
1.0000000000
40
1.0000000000
40
1.0000000000
10
-29.9956002681
20
-26.0973483423
30
0.0000000000
10
-29.9960437113
20
-26.2831572616
30
0.0000000000
10
-29.9967413535
20
-26.6738004965
30
0.0000000000
10
-29.9984714358
20
-27.2790133190
30
0.0000000000
10
-29.9974963086
20
-27.6984189235
30
0.0000000000
10
-29.9967053931
20
-27.9129877751
30
0.0000000000
11
-29.9956002681
21
-26.0973483423
31
0.0000000000
11
-29.9968021868
21
-26.6547753918
31
0.0000000000
11
-29.9979250330
21
-27.2692780027
31
0.0000000000
11
-29.9967053931
21
-27.9129877751
31
0.0000000000
0
SPLINE
5
3AD
100
AcDbEntity
8
0
100
AcDbSpline
62
9
6
CONTINUOUS
70
0
71
3
72
10
73
6
74
4
42
0.0000001000
43
0.0000001000
44
0.0000000001
12
-3.4501918835
22
-0.0083964478
32
0.0000000000
13
-3.4501969063
23
-0.0059867395
33
0.0000000000
40
0.0000000000
40
0.0000000000
40
0.0000000000
40
0.0000000000
40
0.3591899871
40
0.6913789193
40
1.0000000000
40
1.0000000000
40
1.0000000000
40
1.0000000000
10
33.4469062444
20
-27.9105692114
30
0.0000000000
10
33.0338147850
20
-27.9115745181
30
0.0000000000
10
32.2386820483
20
-27.9123401390
30
0.0000000000
10
31.0886149923
20
-27.9121101656
30
0.0000000000
10
30.3516399008
20
-27.9123755379
30
0.0000000000
10
29.9967054015
20
-27.9129914159
30
0.0000000000
11
33.4469062444
21
-27.9105692114
31
0.0000000000
11
32.2076291674
21
-27.9121204770
31
0.0000000000
11
31.0615102197
21
-27.9122156605
31
0.0000000000
11
29.9967054015
21
-27.9129914159
31
0.0000000000
0
SPLINE
5
3AE
100
AcDbEntity
8
0
100
AcDbSpline
62
9
6
CONTINUOUS
70
0
71
3
72
16
73
12
74
10
42
0.0000001000
43
0.0000001000
44
0.0000000001
12
0.0086789127
22
-8.9302642003
32
0.0000000000
13
-8.9302382407
23
-0.0232158542
33
0.0000000000
40
0.0000000000
40
0.0000000000
40
0.0000000000
40
0.0000000000
40
0.1073871620
40
0.2261159186
40
0.3492138250
40
0.4606815055
40
0.5599458739
40
0.6558515317
40
0.7617437768
40
0.8798921728
40
1.0000000000
40
1.0000000000
40
1.0000000000
40
1.0000000000
10
39.1165776467
20
-22.1937909385
30
0.0000000000
10
39.1168883147
20
-22.5134561814
30
0.0000000000
10
39.0606821553
20
-23.1879048511
30
0.0000000000
10
38.7915905288
20
-24.1979864274
30
0.0000000000
10
38.3325035926
20
-25.1514927990
30
0.0000000000
10
37.7434794744
20
-25.9579512064
30
0.0000000000
10
37.0900771509
20
-26.6004094332
30
0.0000000000
10
36.3609344123
20
-27.1271908047
30
0.0000000000
10
35.5049986626
20
-27.5555771398
30
0.0000000000
10
34.5153344351
20
-27.8425214066
30
0.0000000000
10
33.8044367635
20
-27.9096397494
30
0.0000000000
10
33.4469062597
20
-27.9105692180
30
0.0000000000
11
39.1165776467
21
-22.1937909385
31
0.0000000000
11
39.0368795733
21
-23.1494696991
31
0.0000000000
11
38.7641277431
21
-24.1740668917
31
0.0000000000
11
38.2873515889
21
-25.1645915771
31
0.0000000000
11
37.7003429577
21
-25.9685283339
31
0.0000000000
11
37.0682267148
21
-26.5900071131
31
0.0000000000
11
36.3735733896
21
-27.0909922287
31
0.0000000000
11
35.5277548655
21
-27.5138843029
31
0.0000000000
11
34.5146379147
21
-27.8085425626
31
0.0000000000
11
33.4469062597
21
-27.9105692180
31
0.0000000000
0
SPLINE
5
3AF
100
AcDbEntity
8
0
100
AcDbSpline
62
9
6
CONTINUOUS
70
0
71
3
72
10
73
6
74
4
42
0.0000001000
43
0.0000001000
44
0.0000000001
12
1.7624304245
22
0.0077274079
32
0.0000000000
13
1.7624402755
23
0.0049989325
33
0.0000000000
40
0.0000000000
40
0.0000000000
40
0.0000000000
40
0.0000000000
40
0.3064568736
40
0.6446545282
40
1.0000000000
40
1.0000000000
40
1.0000000000
40
1.0000000000
10
37.3541413657
20
-22.1999999998
30
0.0000000000
10
37.5341776717
20
-22.1992106274
30
0.0000000000
10
37.9128978554
20
-22.1976860155
30
0.0000000000
10
38.5003767183
20
-22.1956263240
30
0.0000000000
10
38.9078192563
20
-22.1943830545
30
0.0000000000
10
39.1165776467
20
-22.1937909385
30
0.0000000000
11
37.3541413657
21
-22.1999999998
31
0.0000000000
11
37.8942510172
21
-22.1978055621
31
0.0000000000
11
38.4903028834
21
-22.1957056857
31
0.0000000000
11
39.1165776467
21
-22.1937909385
31
0.0000000000
0
SPLINE
5
3B0
100
AcDbEntity
8
0
100
AcDbSpline
62
9
6
CONTINUOUS
70
0
71
3
72
16
73
12
74
10
42
0.0000001000
43
0.0000001000
44
0.0000000001
12
0.0061250576
22
-6.1183822165
32
0.0000000000
13
-6.1183846530
23
0.0027751482
33
0.0000000000
40
0.0000000000
40
0.0000000000
40
0.0000000000
40
0.0000000000
40
0.1067658305
40
0.2250858114
40
0.3483735743
40
0.4607092585
40
0.5609268195
40
0.6570706092
40
0.7624843893
40
0.8801762094
40
1.0000000000
40
1.0000000000
40
1.0000000000
40
1.0000000000
10
37.3541477061
20
-22.2000000000
30
0.0000000000
10
37.3543656884
20
-22.4177447195
30
0.0000000000
10
37.3158390575
20
-22.8777346056
30
0.0000000000
10
37.1306951245
20
-23.5678592936
30
0.0000000000
10
36.8128069389
20
-24.2211357170
30
0.0000000000
10
36.4029091637
20
-24.7742532340
30
0.0000000000
10
35.9479925924
20
-25.2131464978
30
0.0000000000
10
35.4432203444
20
-25.5692587880
30
0.0000000000
10
34.8558742381
20
-25.8572057334
30
0.0000000000
10
34.1800362572
20
-26.0516548873
30
0.0000000000
10
33.6943760139
20
-26.0971195660
30
0.0000000000
10
33.4500000000
20
-26.0970087231
30
0.0000000000
11
37.3541477061
21
-22.2000000000
31
0.0000000000
11
37.2995707694
21
-22.8509505752
31
0.0000000000
11
37.1120884842
21
-23.5501794558
31
0.0000000000
11
36.7821741407
21
-24.2285291127
31
0.0000000000
11
36.3730889961
21
-24.7808410713
31
0.0000000000
11
35.9318101793
21
-25.2065757609
31
0.0000000000
11
35.4510628874
21
-25.5455653250
31
0.0000000000
11
34.8719380702
21
-25.8294501317
31
0.0000000000
11
34.1799240218
21
-26.0285415167
31
0.0000000000
11
33.4500000000
21
-26.0970087231
31
0.0000000000
0
SPLINE
5
3B1
100
AcDbEntity
8
0
100
AcDbSpline
62
9
6
CONTINUOUS
70
0
71
3
72
33
73
29
74
27
42
0.0000001000
43
0.0000001000
44
0.0000000001
12
-0.0000107700
22
-22.1939926224
32
0.0000000000
13
0.0225237224
23
-22.1939811933
33
0.0000000000
40
0.0000000000
40
0.0000000000
40
0.0000000000
40
0.0000000000
40
0.0208707770
40
0.0436484576
40
0.0685440526
40
0.0958650738
40
0.1259001112
40
0.1585568272
40
0.1936353705
40
0.2313969958
40
0.2720639501
40
0.3157297203
40
0.3623911819
40
0.4127722833
40
0.4675711181
40
0.5250167523
40
0.5826530137
40
0.6388593321
40
0.6921454683
40
0.7411199304
40
0.7855359681
40
0.8257414993
40
0.8621332810
40
0.8950868111
40
0.9249713413
40
0.9521602106
40
0.9770331784
40
1.0000000000
40
1.0000000000
40
1.0000000000
40
1.0000000000
10
39.1628681249
20
0.0001431276
30
0.0000000000
10
39.1628680500
20
-0.1542588295
30
0.0000000000
10
39.1627583578
20
-0.4771700162
30
0.0000000000
10
39.1623081520
20
-0.9842585676
30
0.0000000000
10
39.1615674837
20
-1.5390657121
30
0.0000000000
10
39.1605303293
20
-2.1475623706
30
0.0000000000
10
39.1591922166
20
-2.8134753193
30
0.0000000000
10
39.1575656965
20
-3.5367779106
30
0.0000000000
10
39.1556555534
20
-4.3172412701
30
0.0000000000
10
39.1534614547
20
-5.1569638233
30
0.0000000000
10
39.1509810115
20
-6.0602141187
30
0.0000000000
10
39.1482256119
20
-7.0293048694
30
0.0000000000
10
39.1451994921
20
-8.0702603743
30
0.0000000000
10
39.1418885547
20
-9.1935777827
30
0.0000000000
10
39.1383301725
20
-10.3966760899
30
0.0000000000
10
39.1346599594
20
-11.6534479570
30
0.0000000000
10
39.1310569732
20
-12.9206326223
30
0.0000000000
10
39.1276855380
20
-14.1570458605
30
0.0000000000
10
39.1246944357
20
-15.3293799124
30
0.0000000000
10
39.1221634399
20
-16.4144903630
30
0.0000000000
10
39.1201081036
20
-17.4028313471
30
0.0000000000
10
39.1185171178
20
-18.2980864196
30
0.0000000000
10
39.1173541667
20
-19.1085424695
30
0.0000000000
10
39.1165747556
20
-19.8426442006
30
0.0000000000
10
39.1161343817
20
-20.5086630785
30
0.0000000000
10
39.1160018875
20
-21.1149021096
30
0.0000000000
10
39.1161412426
20
-21.6699639451
30
0.0000000000
10
39.1164048885
20
-22.0238825090
30
0.0000000000
10
39.1165773213
20
-22.1937909112
30
0.0000000000
11
39.1628681249
21
0.0001431276
31
0.0000000000
11
39.1627226828
21
-0.4630627209
31
0.0000000000
11
39.1622860599
21
-0.9685902066
31
0.0000000000
11
39.1615589960
21
-1.5211223801
31
0.0000000000
11
39.1605351882
21
-2.1274840597
31
0.0000000000
11
39.1592057158
21
-2.7940801316
31
0.0000000000
11
39.1575828416
21
-3.5188612280
31
0.0000000000
11
39.1556834582
21
-4.2973918438
31
0.0000000000
11
39.1534996928
21
-5.1354702307
31
0.0000000000
11
39.1510278402
21
-6.0380289307
31
0.0000000000
11
39.1482786655
21
-7.0071428123
31
0.0000000000
11
39.1452727815
21
-8.0427425848
31
0.0000000000
11
39.1419830602
21
-9.1608955386
31
0.0000000000
11
39.1383954755
21
-10.3770951823
31
0.0000000000
11
39.1346804228
21
-11.6520377498
31
0.0000000000
11
39.1310520468
21
-12.9312113653
31
0.0000000000
11
39.1276640647
21
-14.1786493802
31
0.0000000000
11
39.1246580232
21
-15.3612776740
31
0.0000000000
11
39.1221328309
21
-16.4482135902
31
0.0000000000
11
39.1200954895
21
-17.4339806985
31
0.0000000000
11
39.1185204030
21
-18.3263005712
31
0.0000000000
11
39.1173703978
21
-19.1339786874
31
0.0000000000
11
39.1166018553
21
-19.8653486867
31
0.0000000000
11
39.1161724388
21
-20.5286055900
31
0.0000000000
11
39.1160474738
21
-21.1320351435
31
0.0000000000
11
39.1161920321
21
-21.6840655878
31
0.0000000000
11
39.1165773213
21
-22.1937909112
31
0.0000000000
0
SPLINE
5
3B2
100
AcDbEntity
8
0
100
AcDbSpline
62
9
6
CONTINUOUS
70
0
71
3
72
15
73
11
74
9
42
0.0000001000
43
0.0000001000
44
0.0000000001
12
0.0821708523
22
-22.1981836693
32
0.0000000000
13
-0.0429140105
23
-22.1982942735
33
0.0000000000
40
0.0000000000
40
0.0000000000
40
0.0000000000
40
0.0000000000
40
0.0965267841
40
0.2016232667
40
0.3150684611
40
0.4364572144
40
0.5681196870
40
0.7125030859
40
0.8605258341
40
1.0000000000
40
1.0000000000
40
1.0000000000
40
1.0000000000
10
39.1553059081
20
22.1984654348
30
0.0000000000
10
39.1579498041
20
21.4842256737
30
0.0000000000
10
39.1622220052
20
19.9923305661
30
0.0000000000
10
39.1649010646
20
17.6609996156
30
0.0000000000
10
39.1657214017
20
15.1457031111
30
0.0000000000
10
39.1659706530
20
12.4338329196
30
0.0000000000
10
39.1664251404
20
9.4930372055
30
0.0000000000
10
39.1673422315
20
6.3551647870
30
0.0000000000
10
39.1671002671
20
3.1594899605
30
0.0000000000
10
39.1648617603
20
1.0321726534
30
0.0000000000
10
39.1628666283
20
0.0001431276
30
0.0000000000
11
39.1553059081
21
22.1984654348
31
0.0000000000
11
39.1614541792
21
20.0557402920
31
0.0000000000
11
39.1645222886
21
17.7227753030
31
0.0000000000
11
39.1656072481
21
15.2044810220
31
0.0000000000
11
39.1659906534
21
12.5098527469
31
0.0000000000
11
39.1664745871
21
9.5871650144
31
0.0000000000
11
39.1671402398
21
6.3820939172
31
0.0000000000
11
39.1665447742
21
3.0962353057
31
0.0000000000
11
39.1628666283
21
0.0001431276
31
0.0000000000
0
SPLINE
5
3B3
100
AcDbEntity
8
0
100
AcDbSpline
62
9
6
CONTINUOUS
70
0
71
3
72
10
73
6
74
4
42
0.0000001000
43
0.0000001000
44
0.0000000001
12
2.7685248916
22
12.5374434098
32
0.0000000000
13
-0.0421616924
23
12.8394096329
33
0.0000000000
40
0.0000000000
40
0.0000000000
40
0.0000000000
40
0.0000000000
40
0.3326401144
40
0.6661781353
40
1.0000000000
40
1.0000000000
40
1.0000000000
40
1.0000000000
10
-30.0234542725
20
-40.7513327527
30
0.0000000000
10
-29.7164801269
20
-39.3611805492
30
0.0000000000
10
-30.2819080317
20
-36.4611492231
30
0.0000000000
10
-29.9224225540
20
-32.2026133911
30
0.0000000000
10
-29.9931190203
20
-29.3416807470
30
0.0000000000
10
-29.9978105186
20
-27.9129888584
30
0.0000000000
11
-30.0234542725
21
-40.7513327527
31
0.0000000000
11
-30.0804606855
21
-36.4807875015
31
0.0000000000
11
-30.0001092159
21
-32.1990870163
31
0.0000000000
11
-29.9978105186
21
-27.9129888584
31
0.0000000000
0
SPLINE
5
3B4
100
AcDbEntity
8
0
100
AcDbSpline
62
9
6
CONTINUOUS
70
0
71
3
72
10
73
6
74
4
42
0.0000001000
43
0.0000001000
44
0.0000000001
12
0.0350312622
22
-13.2280736800
32
0.0000000000
13
0.1209310882
23
-13.2275672799
33
0.0000000000
40
0.0000000000
40
0.0000000000
40
0.0000000000
40
0.0000000000
40
0.3318409094
40
0.6623406101
40
1.0000000000
40
1.0000000000
40
1.0000000000
40
1.0000000000
10
0.0034230324
20
41.1387299689
30
0.0000000000
10
0.0072979677
20
39.6755246359
30
0.0000000000
10
-0.0078816340
20
36.7550047157
30
0.0000000000
10
0.0115235630
20
32.3456713497
30
0.0000000000
10
-0.0131987445
20
29.3994175070
30
0.0000000000
10
0.0004124280
20
27.9106134079
30
0.0000000000
11
0.0034230324
21
41.1387299689
31
0.0000000000
11
-0.0008758481
21
36.7491006821
31
0.0000000000
11
0.0021634535
21
32.3772120152
31
0.0000000000
11
0.0004124280
21
27.9106134079
31
0.0000000000
0
SPLINE
5
3B5
100
AcDbEntity
8
0
100
AcDbSpline
62
9
6
CONTINUOUS
70
0
71
3
72
9
73
5
74
3
42
0.0000001000
43
0.0000001000
44
0.0000000001
12
0.3800002036
22
8.2940204532
32
0.0000000000
13
1.4364382240
23
8.1775192242
33
0.0000000000
40
0.0000000000
40
0.0000000000
40
0.0000000000
40
0.0000000000
40
0.4993240964
40
1.0000000000
40
1.0000000000
40
1.0000000000
40
1.0000000000
10
30.0234542971
20
-40.7513313383
30
0.0000000000
10
30.0867020499
20
-39.3708632487
30
0.0000000000
10
30.2550278000
20
-36.6118754530
30
0.0000000000
10
29.7625272074
20
-33.8148343647
30
0.0000000000
10
30.0022572093
20
-32.4500720892
30
0.0000000000
11
30.0234542971
21
-40.7513313383
31
0.0000000000
11
30.0900400233
21
-36.6061174521
31
0.0000000000
11
30.0022572093
21
-32.4500720892
31
0.0000000000
0
SPLINE
5
3B6
100
AcDbEntity
8
0
100
AcDbSpline
62
7
6
CONTINUOUS
70
0
71
3
72
8
73
4
74
2
42
0.0000001000
43
0.0000001000
44
0.0000000001
12
-0.0036572220
22
0.2833925103
32
0.0000000000
13
-0.0030280248
23
0.2833230979
33
0.0000000000
40
0.0000000000
40
0.0000000000
40
0.0000000000
40
0.0000000000
40
1.0000000000
40
1.0000000000
40
1.0000000000
40
1.0000000000
10
-96.5164368280
20
-29.5499491560
30
0.0000000000
10
-96.5176559020
20
-29.4554849859
30
0.0000000000
10
-96.5187700663
20
-29.3610322783
30
0.0000000000
10
-96.5197794079
20
-29.2665912457
30
0.0000000000
11
-96.5164368280
21
-29.5499491560
31
0.0000000000
11
-96.5197794079
21
-29.2665912457
31
0.0000000000
0
SPLINE
5
3B7
100
AcDbEntity
8
0
100
AcDbSpline
62
7
6
CONTINUOUS
70
0
71
3
72
10
73
6
74
4
42
0.0000001000
43
0.0000001000
44
0.0000000001
12
-0.3749057866
22
3.7092577959
32
0.0000000000
13
-0.2657737627
23
3.7048282265
33
0.0000000000
40
0.0000000000
40
0.0000000000
40
0.0000000000
40
0.0000000000
40
0.4147846596
40
0.9519831680
40
1.0000000000
40
1.0000000000
40
1.0000000000
40
1.0000000000
10
-95.8792884679
20
-40.7513312556
30
0.0000000000
10
-95.9311235243
20
-40.2384835115
30
0.0000000000
10
-96.0428785450
20
-39.0616284816
30
0.0000000000
10
-96.1429417072
20
-37.8260780735
30
0.0000000000
10
-96.1952955437
20
-37.1033430715
30
0.0000000000
10
-96.1995494150
20
-37.0440450333
30
0.0000000000
11
-95.8792884679
21
-40.7513312556
31
0.0000000000
11
-96.0253764593
21
-39.2130781573
31
0.0000000000
11
-96.1866625237
21
-37.2219458796
31
0.0000000000
11
-96.1995494150
21
-37.0440450333
31
0.0000000000
0
SPLINE
5
3B8
100
AcDbEntity
8
0
100
AcDbSpline
62
7
6
CONTINUOUS
70
0
71
3
72
9
73
5
74
3
42
0.0000001000
43
0.0000001000
44
0.0000000001
12
0.0016082301
22
0.0620866171
32
0.0000000000
13
0.0028371482
23
-0.0395100814
33
0.0000000000
40
0.0000000000
40
0.0000000000
40
0.0000000000
40
0.0000000000
40
0.3463585426
40
1.0000000000
40
1.0000000000
40
1.0000000000
40
1.0000000000
10
-96.5267726492
20
27.9129644380
30
0.0000000000
10
-96.5265869745
20
27.9201325147
30
0.0000000000
10
-96.5266182214
20
27.9276078334
30
0.0000000000
10
-96.5270109053
20
27.9116247880
30
0.0000000000
10
-96.5263927461
20
27.9030163123
30
0.0000000000
11
-96.5267726492
21
27.9129644380
31
0.0000000000
11
-96.5266519793
21
27.9224966309
31
0.0000000000
11
-96.5263927461
21
27.9030163123
31
0.0000000000
0
SPLINE
5
3B9
100
AcDbEntity
8
0
100
AcDbSpline
62
7
6
CONTINUOUS
70
0
71
3
72
8
73
4
74
2
42
0.0000001000
43
0.0000001000
44
0.0000000001
12
0.0005141797
22
-0.0071604586
32
0.0000000000
13
0.0009835132
23
-0.0055538961
33
0.0000000000
40
0.0000000000
40
0.0000000000
40
0.0000000000
40
0.0000000000
40
1.0000000000
40
1.0000000000
40
1.0000000000
40
1.0000000000
10
-96.5263927461
20
27.9030163123
30
0.0000000000
10
-96.5262213529
20
27.9006294927
30
0.0000000000
10
-96.5259827066
20
27.8983840242
30
0.0000000000
10
-96.5256548688
20
27.8965327255
30
0.0000000000
11
-96.5263927461
21
27.9030163123
31
0.0000000000
11
-96.5256548688
21
27.8965327255
31
0.0000000000
0
SPLINE
5
3BA
100
AcDbEntity
8
0
100
AcDbSpline
62
7
6
CONTINUOUS
70
0
71
3
72
9
73
5
74
3
42
0.0000001000
43
0.0000001000
44
0.0000000001
12
-0.5371096463
22
-0.0056789618
32
0.0000000000
13
-0.5371095426
23
-0.0056887521
33
0.0000000000
40
0.0000000000
40
0.0000000000
40
0.0000000000
40
0.0000000000
40
0.5000841306
40
1.0000000000
40
1.0000000000
40
1.0000000000
40
1.0000000000
10
-86.7765390214
20
41.7922627260
30
0.0000000000
10
-86.8660723582
20
41.7913160731
30
0.0000000000
10
-87.0451088984
20
41.7894222720
30
0.0000000000
10
-87.2241454213
20
41.7875268391
30
0.0000000000
10
-87.3136486159
20
41.7865788733
30
0.0000000000
11
-86.7765390214
21
41.7922627260
31
0.0000000000
11
-87.0451390190
21
41.7894215452
31
0.0000000000
11
-87.3136486159
21
41.7865788733
31
0.0000000000
0
SPLINE
5
3BB
100
AcDbEntity
8
0
100
AcDbSpline
62
7
6
CONTINUOUS
70
0
71
3
72
14
73
10
74
8
42
0.0000001000
43
0.0000001000
44
0.0000000001
12
-0.0006344849
22
-18.3730269273
32
0.0000000000
13
-0.0005439181
23
-18.3730270062
33
0.0000000000
40
0.0000000000
40
0.0000000000
40
0.0000000000
40
0.0000000000
40
0.0514491188
40
0.1885138649
40
0.3351760494
40
0.4942509656
40
0.6686953342
40
0.8475367744
40
1.0000000000
40
1.0000000000
40
1.0000000000
40
1.0000000000
10
-96.5268178094
20
18.6680513483
30
0.0000000000
10
-96.5268286907
20
18.3529593329
30
0.0000000000
10
-96.5268621464
20
17.1984358971
30
0.0000000000
10
-96.5269320224
20
15.1457030217
30
0.0000000000
10
-96.5270547898
20
12.4338329286
30
0.0000000000
10
-96.5271671723
20
9.4930372271
30
0.0000000000
10
-96.5272123248
20
6.3551647448
30
0.0000000000
10
-96.5271033316
20
3.2577845230
30
0.0000000000
10
-96.5270302468
20
1.2287613296
30
0.0000000000
10
-96.5270578893
20
0.2950243425
30
0.0000000000
11
-96.5268178094
21
18.6680513483
31
0.0000000000
11
-96.5268473874
21
17.7227753030
31
0.0000000000
11
-96.5269345755
21
15.2044810220
31
0.0000000000
11
-96.5270483084
21
12.5098527469
31
0.0000000000
11
-96.5271525043
21
9.5871650144
31
0.0000000000
11
-96.5271857833
21
6.3820939172
31
0.0000000000
11
-96.5270971556
21
3.0962353057
31
0.0000000000
11
-96.5270578893
21
0.2950243425
31
0.0000000000
0
SPLINE
5
3BC
100
AcDbEntity
8
0
100
AcDbSpline
62
7
6
CONTINUOUS
70
0
71
3
72
8
73
4
74
2
42
0.0000001000
43
0.0000001000
44
0.0000000001
12
-0.0000170355
22
-0.0029865078
32
0.0000000000
13
0.0000288204
23
-0.0034765931
33
0.0000000000
40
0.0000000000
40
0.0000000000
40
0.0000000000
40
0.0000000000
40
1.0000000000
40
1.0000000000
40
1.0000000000
40
1.0000000000
10
-96.5267888277
20
27.9171495116
30
0.0000000000
10
-96.5267945062
20
27.9161540090
30
0.0000000000
10
-96.5267940629
20
27.9150592984
30
0.0000000000
10
-96.5267844561
20
27.9139004340
30
0.0000000000
11
-96.5267888277
21
27.9171495116
31
0.0000000000
11
-96.5267844561
21
27.9139004340
31
0.0000000000
0
SPLINE
5
3BD
100
AcDbEntity
8
0
100
AcDbSpline
62
7
6
CONTINUOUS
70
0
71
3
72
9
73
5
74
3
42
0.0000001000
43
0.0000001000
44
0.0000000001
12
-0.3299495292
22
4.5994243991
32
0.0000000000
13
-0.1634274648
23
4.5876124509
33
0.0000000000
40
0.0000000000
40
0.0000000000
40
0.0000000000
40
0.0000000000
40
0.3940349760
40
1.0000000000
40
1.0000000000
40
1.0000000000
40
1.0000000000
10
-96.1995494150
20
-37.0440450333
30
0.0000000000
10
-96.2428866333
20
-36.4399336724
30
0.0000000000
10
-96.3418719566
20
-34.9073879372
30
0.0000000000
10
-96.4130671374
20
-33.3767162922
30
0.0000000000
10
-96.4460775800
20
-32.4500720626
30
0.0000000000
11
-96.1995494150
21
-37.0440450333
31
0.0000000000
11
-96.3165791958
21
-35.2324714062
31
0.0000000000
11
-96.4460775800
21
-32.4500720626
31
0.0000000000
0
SPLINE
5
3BE
100
AcDbEntity
8
0
100
AcDbSpline
62
7
6
CONTINUOUS
70
0
71
3
72
8
73
4
74
2
42
0.0000001000
43
0.0000001000
44
0.0000000001
12
-0.0188310818
22
0.6312295025
32
0.0000000000
13
-0.0154531200
23
0.6313208803
33
0.0000000000
40
0.0000000000
40
0.0000000000
40
0.0000000000
40
0.0000000000
40
1.0000000000
40
1.0000000000
40
1.0000000000
40
1.0000000000
10
-96.6665671001
20
-31.4237383184
30
0.0000000000
10
-96.6728441274
20
-31.2133284842
30
0.0000000000
10
-96.6785221559
20
-31.0029011269
30
0.0000000000
10
-96.6836731959
20
-30.7924608335
30
0.0000000000
11
-96.6665671001
21
-31.4237383184
31
0.0000000000
11
-96.6836731959
21
-30.7924608335
31
0.0000000000
0
SPLINE
5
3BF
100
AcDbEntity
8
0
100
AcDbSpline
62
7
6
CONTINUOUS
70
0
71
3
72
8
73
4
74
2
42
0.0000001000
43
0.0000001000
44
0.0000000001
12
-0.0117949899
22
0.5979791649
32
0.0000000000
13
-0.0095637509
23
0.5980179495
33
0.0000000000
40
0.0000000000
40
0.0000000000
40
0.0000000000
40
0.0000000000
40
1.0000000000
40
1.0000000000
40
1.0000000000
40
1.0000000000
10
-96.6978782487
20
-30.1479350092
30
0.0000000000
10
-96.7018099120
20
-29.9486086209
30
0.0000000000
10
-96.7053370017
20
-29.7492743165
30
0.0000000000
10
-96.7085249187
20
-29.5499350000
30
0.0000000000
11
-96.6978782487
21
-30.1479350092
31
0.0000000000
11
-96.7085249187
21
-29.5499350000
31
0.0000000000
0
SPLINE
5
3C0
100
AcDbEntity
8
0
100
AcDbSpline
62
7
6
CONTINUOUS
70
0
71
3
72
9
73
5
74
3
42
0.0000001000
43
0.0000001000
44
0.0000000001
12
-0.0017594092
22
-3.5304136974
32
0.0000000000
13
-0.0001219175
23
-3.5304141184
33
0.0000000000
40
0.0000000000
40
0.0000000000
40
0.0000000000
40
0.0000000000
40
0.6069330999
40
1.0000000000
40
1.0000000000
40
1.0000000000
40
1.0000000000
10
-96.5262762365
20
22.1984654348
30
0.0000000000
10
-96.5266321844
20
21.4842237916
30
0.0000000000
10
-96.5267515987
20
20.3074190365
30
0.0000000000
10
-96.5268018355
20
19.1306143261
30
0.0000000000
10
-96.5268178094
20
18.6680513483
30
0.0000000000
11
-96.5262762365
21
22.1984654348
31
0.0000000000
11
-96.5267516546
21
20.0557402920
31
0.0000000000
11
-96.5268178094
21
18.6680513483
31
0.0000000000
0
SPLINE
5
3C1
100
AcDbEntity
8
0
100
AcDbSpline
62
7
6
CONTINUOUS
70
0
71
3
72
33
73
29
74
27
42
0.0000001000
43
0.0000001000
44
0.0000000001
12
-0.0000017401
22
-22.1939438952
32
0.0000000000
13
0.0458936901
23
-22.1938964446
33
0.0000000000
40
0.0000000000
40
0.0000000000
40
0.0000000000
40
0.0000000000
40
0.0208708220
40
0.0436485452
40
0.0685441761
40
0.0958652229
40
0.1259002730
40
0.1585569873
40
0.1936355137
40
0.2313971058
40
0.2720640108
40
0.3157297164
40
0.3623911004
40
0.4127721121
40
0.4675708476
40
0.5250163832
40
0.5826525582
40
0.6388588110
40
0.6921449100
40
0.7411193652
40
0.7855354238
40
0.8257410000
40
0.8621328461
40
0.8950864545
40
0.9249710717
40
0.9521600322
40
0.9770330909
40
1.0000000000
40
1.0000000000
40
1.0000000000
40
1.0000000000
10
-96.5270689510
20
0.0001431276
30
0.0000000000
10
-96.5270689631
20
-0.1542588231
30
0.0000000000
10
-96.5270233428
20
-0.4771699447
30
0.0000000000
10
-96.5268549593
20
-0.9842584512
30
0.0000000000
10
-96.5265914050
20
-1.5390655656
30
0.0000000000
10
-96.5262364676
20
-2.1475622068
30
0.0000000000
10
-96.5257936073
20
-2.8134751545
30
0.0000000000
10
-96.5252691349
20
-3.5367777474
30
0.0000000000
10
-96.5246673976
20
-4.3172411116
30
0.0000000000
10
-96.5239915074
20
-5.1569636764
30
0.0000000000
10
-96.5232442576
20
-6.0602139957
30
0.0000000000
10
-96.5224316871
20
-7.0293047773
30
0.0000000000
10
-96.5215556452
20
-8.0702603107
30
0.0000000000
10
-96.5206132709
20
-9.1935777643
30
0.0000000000
10
-96.5196146239
20
-10.3966761506
30
0.0000000000
10
-96.5185881060
20
-11.6534480946
30
0.0000000000
10
-96.5175646179
20
-12.9206328310
30
0.0000000000
10
-96.5165686039
20
-14.1570461455
30
0.0000000000
10
-96.5156119770
20
-15.3293802299
30
0.0000000000
10
-96.5146917770
20
-16.4144906785
30
0.0000000000
10
-96.5138009695
20
-17.4028316534
30
0.0000000000
10
-96.5129267150
20
-18.2980866967
30
0.0000000000
10
-96.5120529735
20
-19.1085427040
30
0.0000000000
10
-96.5111683839
20
-19.8426443881
30
0.0000000000
10
-96.5102662492
20
-20.5086632187
30
0.0000000000
10
-96.5093405791
20
-21.1149021990
30
0.0000000000
10
-96.5083842714
20
-21.6699639872
30
0.0000000000
10
-96.5076969176
20
-22.0238825106
30
0.0000000000
10
-96.5073455722
20
-22.1937909112
30
0.0000000000
11
-96.5270689510
21
0.0001431276
31
0.0000000000
11
-96.5270112508
21
-0.4630627209
31
0.0000000000
11
-96.5268486507
21
-0.9685902066
31
0.0000000000
11
-96.5265904218
21
-1.5211223801
31
0.0000000000
11
-96.5262403094
21
-2.1274840597
31
0.0000000000
11
-96.5258001117
21
-2.7940801316
31
0.0000000000
11
-96.5252767809
21
-3.5188612280
31
0.0000000000
11
-96.5246784651
21
-4.2973918438
31
0.0000000000
11
-96.5240057955
21
-5.1354702307
31
0.0000000000
11
-96.5232609865
21
-6.0380289307
31
0.0000000000
11
-96.5224497875
21
-7.0071428123
31
0.0000000000
11
-96.5215792440
21
-8.0427425848
31
0.0000000000
11
-96.5206422701
21
-9.1608955386
31
0.0000000000
11
-96.5196335044
21
-10.3770951823
31
0.0000000000
11
-96.5185911890
21
-11.6520377498
31
0.0000000000
11
-96.5175565313
21
-12.9312113653
31
0.0000000000
11
-96.5165489737
21
-14.1786493802
31
0.0000000000
11
-96.5155793707
21
-15.3612776740
31
0.0000000000
11
-96.5146530538
21
-16.4482135902
31
0.0000000000
11
-96.5137599201
21
-17.4339806985
31
0.0000000000
11
-96.5128833095
21
-18.3263005712
31
0.0000000000
11
-96.5120076206
21
-19.1339786874
31
0.0000000000
11
-96.5111219091
21
-19.8653486867
31
0.0000000000
11
-96.5102192806
21
-20.5286055900
31
0.0000000000
11
-96.5092938320
21
-21.1320351435
31
0.0000000000
11
-96.5083390012
21
-21.6840655878
31
0.0000000000
11
-96.5073455722
21
-22.1937909112
31
0.0000000000
0
SPLINE
5
3C2
100
AcDbEntity
8
0
100
AcDbSpline
62
7
6
CONTINUOUS
70
0
71
3
72
10
73
6
74
4
42
0.0000001000
43
0.0000001000
44
0.0000000001
12
1.1581193910
22
-1.5562314194
32
0.0000000000
13
0.0008561287
23
-1.9398701043
33
0.0000000000
40
0.0000000000
40
0.0000000000
40
0.0000000000
40
0.0000000000
40
0.3333332794
40
0.6666666011
40
1.0000000000
40
1.0000000000
40
1.0000000000
40
1.0000000000
10
-97.1293044606
20
-26.0970087037
30
0.0000000000
10
-97.0006245491
20
-26.2699232778
30
0.0000000000
10
-96.7794839388
20
-26.6445143837
30
0.0000000000
10
-96.5746134717
20
-27.2625155362
30
0.0000000000
10
-96.5281951831
20
-27.6950280463
30
0.0000000000
10
-96.5281000577
20
-27.9105692114
30
0.0000000000
11
-97.1293044606
21
-26.0970087037
31
0.0000000000
11
-96.8006240283
21
-26.6538667642
31
0.0000000000
11
-96.5971539908
21
-27.2676434144
31
0.0000000000
11
-96.5281000577
21
-27.9105692114
31
0.0000000000
0
SPLINE
5
3C3
100
AcDbEntity
8
0
100
AcDbSpline
62
7
6
CONTINUOUS
70
0
71
3
72
10
73
6
74
4
42
0.0000001000
43
0.0000001000
44
0.0000000001
12
1.1512633579
22
1.5436767712
32
0.0000000000
13
0.0118646298
23
1.9256698896
33
0.0000000000
40
0.0000000000
40
0.0000000000
40
0.0000000000
40
0.0000000000
40
0.3333332275
40
0.6666665381
40
1.0000000000
40
1.0000000000
40
1.0000000000
40
1.0000000000
10
-97.1286830475
20
26.0978395833
30
0.0000000000
10
-97.0007649373
20
26.2693591701
30
0.0000000000
10
-96.7805934203
20
26.6407674021
30
0.0000000000
10
-96.5751683965
20
27.2535040197
30
0.0000000000
10
-96.5269744907
20
27.6825693300
30
0.0000000000
10
-96.5256561979
20
27.8965327337
30
0.0000000000
11
-97.1286830475
21
26.0978395833
31
0.0000000000
11
-96.8013988244
21
26.6500380454
31
0.0000000000
11
-96.5973574505
21
27.2586474664
31
0.0000000000
11
-96.5256561979
21
27.8965327337
31
0.0000000000
0
SPLINE
5
3C4
100
AcDbEntity
8
0
100
AcDbSpline
62
9
6
CONTINUOUS
70
0
71
3
72
16
73
12
74
10
42
0.0000001000
43
0.0000001000
44
0.0000000001
12
1.4111557161
22
0.0510542740
32
0.0000000000
13
1.4052557844
23
0.1054792968
33
0.0000000000
40
0.0000000000
40
0.0000000000
40
0.0000000000
40
0.0000000000
40
0.0209037195
40
0.0770383415
40
0.1588939336
40
0.2591720404
40
0.3725473963
40
0.4978221883
40
0.6415765332
40
0.8090608471
40
1.0000000000
40
1.0000000000
40
1.0000000000
40
1.0000000000
10
-95.8792844506
20
-40.7513411083
30
0.0000000000
10
-95.8694516495
20
-40.7509853669
30
0.0000000000
10
-95.8332702074
20
-40.7511432266
30
0.0000000000
10
-95.7589296722
20
-40.7590216549
30
0.0000000000
10
-95.6471876024
20
-40.7650648525
30
0.0000000000
10
-95.5085201245
20
-40.7716606217
30
0.0000000000
10
-95.3493220212
20
-40.7749271938
30
0.0000000000
10
-95.1696669390
20
-40.7724533453
30
0.0000000000
10
-94.9648635954
20
-40.7614712854
30
0.0000000000
10
-94.7298197658
20
-40.7413854174
30
0.0000000000
10
-94.5620034378
20
-40.7278111875
30
0.0000000000
10
-94.4725639881
20
-40.7210978117
30
0.0000000000
11
-95.8792844506
21
-40.7513411083
31
0.0000000000
11
-95.8498267431
21
-40.7513406491
31
0.0000000000
11
-95.7709381341
21
-40.7571932554
31
0.0000000000
11
-95.6558172453
21
-40.7644856576
31
0.0000000000
11
-95.5146443131
21
-40.7707714029
31
0.0000000000
11
-95.3549062753
21
-40.7739449587
31
0.0000000000
11
-95.1783850971
21
-40.7714826504
31
0.0000000000
11
-94.9760723086
21
-40.7610830369
31
0.0000000000
11
-94.7407854262
21
-40.7424898972
31
0.0000000000
11
-94.4725639881
21
-40.7210978117
31
0.0000000000
0
SPLINE
5
3C5
100
AcDbEntity
8
0
100
AcDbSpline
62
9
6
CONTINUOUS
70
0
71
3
72
11
73
7
74
5
42
0.0000001000
43
0.0000001000
44
0.0000000001
12
0.1367481874
22
-2.1768335591
32
0.0000000000
13
2.1807924736
23
-0.0380604534
33
0.0000000000
40
0.0000000000
40
0.0000000000
40
0.0000000000
40
0.0000000000
40
0.2511034817
40
0.5015177801
40
0.7510572348
40
1.0000000000
40
1.0000000000
40
1.0000000000
40
1.0000000000
10
-94.4725675512
20
-40.7210980410
30
0.0000000000
10
-94.4611215692
20
-40.9033015362
30
0.0000000000
10
-94.3698895688
20
-41.2664788049
30
0.0000000000
10
-94.0465160111
20
-41.7216287887
30
0.0000000000
10
-93.5812791770
20
-42.0277374752
30
0.0000000000
10
-93.2165080008
20
-42.1035212279
30
0.0000000000
10
-93.0355438312
20
-42.1066795194
30
0.0000000000
11
-94.4725675512
21
-40.7210980410
31
0.0000000000
11
-94.3385033589
21
-41.2521243209
31
0.0000000000
11
-94.0222240689
21
-41.6974166123
31
0.0000000000
11
-93.5671007072
21
-41.9959124802
31
0.0000000000
11
-93.0355438312
21
-42.1066795194
31
0.0000000000
0
SPLINE
5
3C6
100
AcDbEntity
8
0
100
AcDbSpline
62
9
6
CONTINUOUS
70
0
71
3
72
14
73
10
74
8
42
0.0000001000
43
0.0000001000
44
0.0000000001
12
2.2411749433
22
0.1721676928
32
0.0000000000
13
-0.0460281805
23
2.2473068877
33
0.0000000000
40
0.0000000000
40
0.0000000000
40
0.0000000000
40
0.0000000000
40
0.0397893511
40
0.1195312471
40
0.2404240550
40
0.3975892915
40
0.5836238478
40
0.7885148480
40
1.0000000000
40
1.0000000000
40
1.0000000000
40
1.0000000000
10
-94.4725675512
20
-40.7210980410
30
0.0000000000
10
-94.4428425856
20
-40.7188145607
30
0.0000000000
10
-94.3821258571
20
-40.6302799785
30
0.0000000000
10
-94.3372702360
20
-40.4657921351
30
0.0000000000
10
-94.2849716952
20
-40.1976703616
30
0.0000000000
10
-94.2460822721
20
-39.8537995223
30
0.0000000000
10
-94.2162754988
20
-39.4434953368
30
0.0000000000
10
-94.2013198909
20
-38.9924740197
30
0.0000000000
10
-94.2019584640
20
-38.6803778667
30
0.0000000000
10
-94.2052032229
20
-38.5219538538
30
0.0000000000
11
-94.4725675512
21
-40.7210980410
31
0.0000000000
11
-94.4066768197
21
-40.6606207540
31
0.0000000000
11
-94.3462281758
21
-40.4918792645
31
0.0000000000
11
-94.2935517864
21
-40.2252935481
31
0.0000000000
11
-94.2506184055
21
-39.8746395172
31
0.0000000000
11
-94.2199176334
21
-39.4576036135
31
0.0000000000
11
-94.2041412861
21
-38.9973243822
31
0.0000000000
11
-94.2052032229
21
-38.5219538538
31
0.0000000000
0
SPLINE
5
3C7
100
AcDbEntity
8
0
100
AcDbSpline
62
9
6
CONTINUOUS
70
0
71
3
72
17
73
13
74
11
42
0.0000001000
43
0.0000001000
44
0.0000000001
12
-0.8488954363
22
38.4812359355
32
0.0000000000
13
-0.0000370356
23
38.4905981063
33
0.0000000000
40
0.0000000000
40
0.0000000000
40
0.0000000000
40
0.0000000000
40
0.0604624138
40
0.1281860698
40
0.2041553694
40
0.2892593487
40
0.3835041282
40
0.4866264578
40
0.5985262613
40
0.7202815444
40
0.8531441099
40
1.0000000000
40
1.0000000000
40
1.0000000000
40
1.0000000000
10
-92.7758391741
20
-38.4900000000
30
0.0000000000
10
-92.7929479298
20
-37.7144438633
30
0.0000000000
10
-92.8139255168
20
-36.0698600484
30
0.0000000000
10
-92.8219482457
20
-33.4505099310
30
0.0000000000
10
-92.8178009901
20
-30.5149971521
30
0.0000000000
10
-92.8088286432
20
-27.2392289877
30
0.0000000000
10
-92.8000201181
20
-23.6150786468
30
0.0000000000
10
-92.7946520115
20
-19.6471253172
30
0.0000000000
10
-92.7934512661
20
-15.3262034212
30
0.0000000000
10
-92.7957383865
20
-10.6237092609
30
0.0000000000
10
-92.7992460177
20
-5.4727224160
30
0.0000000000
10
-92.8005969481
20
-1.8838788880
30
0.0000000000
10
-92.8005987611
20
0.0003114602
30
0.0000000000
11
-92.7758391741
21
-38.4900000000
31
0.0000000000
11
-92.8091908479
21
-36.1630045246
31
0.0000000000
11
-92.8197913302
21
-33.5563020524
31
0.0000000000
11
-92.8173568955
21
-30.6321992883
31
0.0000000000
11
-92.8093097060
21
-27.3565061072
31
0.0000000000
11
-92.8009191762
21
-23.7289778793
31
0.0000000000
11
-92.7954864750
21
-19.7597414528
31
0.0000000000
11
-92.7940118830
21
-15.4526513405
31
0.0000000000
11
-92.7958144413
21
-10.7662180197
31
0.0000000000
11
-92.7988771791
21
-5.6522593224
31
0.0000000000
11
-92.8005987611
21
0.0003114602
31
0.0000000000
0
SPLINE
5
3C8
100
AcDbEntity
8
0
100
AcDbSpline
62
9
6
CONTINUOUS
70
0
71
3
72
17
73
13
74
11
42
0.0000001000
43
0.0000001000
44
0.0000000001
12
-0.7906721250
22
38.5140985557
32
0.0000000000
13
-0.0000224426
23
38.5222137210
33
0.0000000000
40
0.0000000000
40
0.0000000000
40
0.0000000000
40
0.0000000000
40
0.0609349199
40
0.1288735480
40
0.2048933252
40
0.2899473137
40
0.3840887981
40
0.4870872436
40
0.5988587700
40
0.7204963148
40
0.8532505300
40
1.0000000000
40
1.0000000000
40
1.0000000000
40
1.0000000000
10
-94.2052064881
20
-38.5219539255
30
0.0000000000
10
-94.2212663356
20
-37.7396694219
30
0.0000000000
10
-94.2403650630
20
-36.0848875402
30
0.0000000000
10
-94.2462863435
20
-33.4539054918
30
0.0000000000
10
-94.2404404522
20
-30.5132183179
30
0.0000000000
10
-94.2300847378
20
-27.2360836531
30
0.0000000000
10
-94.2200823502
20
-23.6125185854
30
0.0000000000
10
-94.2136387836
20
-19.6458718678
30
0.0000000000
10
-94.2114919054
20
-15.3261509170
30
0.0000000000
10
-94.2129301552
20
-10.6243441446
30
0.0000000000
10
-94.2157964228
20
-5.4733956075
30
0.0000000000
10
-94.2169726933
20
-1.8843620727
30
0.0000000000
10
-94.2169737911
20
0.0000094098
30
0.0000000000
11
-94.2052064881
21
-38.5219539255
31
0.0000000000
11
-94.2358899523
21
-36.1748064665
31
0.0000000000
11
-94.2443077779
21
-33.5576736511
31
0.0000000000
11
-94.2401311050
21
-30.6292265284
31
0.0000000000
11
-94.2306606282
21
-27.3527722906
31
0.0000000000
11
-94.2210520203
21
-23.7262466383
31
0.0000000000
11
-94.2145368883
21
-19.7585238556
31
0.0000000000
11
-94.2121066780
21
-15.4528379129
31
0.0000000000
11
-94.2130736170
21
-10.7670905172
31
0.0000000000
11
-94.2155112437
21
-5.6531048485
31
0.0000000000
11
-94.2169737911
21
0.0000094098
31
0.0000000000
0
SPLINE
5
3C9
100
AcDbEntity
8
0
100
AcDbSpline
62
9
6
CONTINUOUS
70
0
71
3
72
24
73
20
74
18
42
0.0000001000
43
0.0000001000
44
0.0000000001
12
-0.0107931400
22
38.4977478055
32
0.0000000000
13
3.9311321554
23
38.2965129296
33
0.0000000000
40
0.0000000000
40
0.0000000000
40
0.0000000000
40
0.0000000000
40
0.0361924880
40
0.0754193435
40
0.1180090562
40
0.1642665147
40
0.2144965078
40
0.2690024933
40
0.3280850327
40
0.3920390159
40
0.4611232271
40
0.5354280033
40
0.6146263144
40
0.6945877385
40
0.7694284483
40
0.8365924701
40
0.8961734257
40
0.9503041503
40
1.0000000000
40
1.0000000000
40
1.0000000000
40
1.0000000000
10
-92.8005987611
20
0.0003114602
30
0.0000000000
10
-92.8007289713
20
0.4647545519
30
0.0000000000
10
-92.8007618633
20
1.4325795891
30
0.0000000000
10
-92.8000598361
20
2.9469405097
30
0.0000000000
10
-92.7984444375
20
4.5904603844
30
0.0000000000
10
-92.7957472693
20
6.3751776984
30
0.0000000000
10
-92.7918163714
20
8.3128096227
30
0.0000000000
10
-92.7865640473
20
10.4150178727
30
0.0000000000
10
-92.7800451982
20
12.6933375610
30
0.0000000000
10
-92.7726258014
20
15.1587316798
30
0.0000000000
10
-92.7652231344
20
17.8194673200
30
0.0000000000
10
-92.7587672927
20
20.6758303189
30
0.0000000000
10
-92.7551688234
20
23.6717816680
30
0.0000000000
10
-92.7544237064
20
26.6746114622
30
0.0000000000
10
-92.7528000409
20
29.5230114362
30
0.0000000000
10
-92.7403492187
20
32.1098621912
30
0.0000000000
10
-92.7030580488
20
34.4307654743
30
0.0000000000
10
-92.6237448160
20
36.5264380982
30
0.0000000000
10
-92.5238327093
20
37.8556074159
30
0.0000000000
10
-92.4587123916
20
38.4900000000
30
0.0000000000
11
-92.8005987611
21
0.0003114602
31
0.0000000000
11
-92.8006496433
21
1.3936407891
31
0.0000000000
11
-92.7999545084
21
2.9037862790
31
0.0000000000
11
-92.7983522735
21
4.5433935787
31
0.0000000000
11
-92.7956770527
21
6.3241996124
31
0.0000000000
11
-92.7917824717
21
8.2579373734
31
0.0000000000
11
-92.7865890217
21
10.3562887128
31
0.0000000000
11
-92.7801701209
21
12.6308244469
31
0.0000000000
11
-92.7729135683
21
15.0928981662
31
0.0000000000
11
-92.7656324906
21
17.7524748426
31
0.0000000000
11
-92.7593980387
21
20.6130346974
31
0.0000000000
11
-92.7556625253
21
23.6619891360
31
0.0000000000
11
-92.7542367907
21
26.7403236666
31
0.0000000000
11
-92.7505962202
21
29.6215202478
31
0.0000000000
11
-92.7347412818
21
32.2071353147
31
0.0000000000
11
-92.6932181940
21
34.5004921327
31
0.0000000000
11
-92.6081326833
21
36.5826654631
31
0.0000000000
11
-92.4587123916
21
38.4900000000
31
0.0000000000
0
SPLINE
5
3CA
100
AcDbEntity
8
0
100
AcDbSpline
62
9
6
CONTINUOUS
70
0
71
3
72
24
73
20
74
18
42
0.0000001000
43
0.0000001000
44
0.0000000001
12
-0.0130062003
22
38.6459666109
32
0.0000000000
13
3.8163368939
23
38.4570731747
33
0.0000000000
40
0.0000000000
40
0.0000000000
40
0.0000000000
40
0.0000000000
40
0.0360715642
40
0.0751666922
40
0.1176123064
40
0.1637115332
40
0.2137669346
40
0.2680790288
40
0.3269441030
40
0.3906512082
40
0.4594558078
40
0.5334462505
40
0.6123027848
40
0.6919421421
40
0.7665881359
40
0.8337900383
40
0.8937603388
40
0.9487960547
40
1.0000000000
40
1.0000000000
40
1.0000000000
40
1.0000000000
10
-94.2169728643
20
0.0000094098
30
0.0000000000
10
-94.2171292490
20
0.4646828978
30
0.0000000000
10
-94.2172140685
20
1.4329794876
30
0.0000000000
10
-94.2165804806
20
2.9480599279
30
0.0000000000
10
-94.2150256005
20
4.5923160252
30
0.0000000000
10
-94.2123764810
20
6.3777610268
30
0.0000000000
10
-94.2084762048
20
8.3160679403
30
0.0000000000
10
-94.2032300223
20
10.4188217319
30
0.0000000000
10
-94.1966852486
20
12.6974337332
30
0.0000000000
10
-94.1891895632
20
15.1627360152
30
0.0000000000
10
-94.1816643548
20
17.8228839161
30
0.0000000000
10
-94.1750393218
20
20.6781898248
30
0.0000000000
10
-94.1712990787
20
23.6730748067
30
0.0000000000
10
-94.1705422026
20
26.6764059033
30
0.0000000000
10
-94.1694325546
20
29.5296031195
30
0.0000000000
10
-94.1582613470
20
32.1294125372
30
0.0000000000
10
-94.1231055091
20
34.4764422859
30
0.0000000000
10
-94.0463666024
20
36.6164001742
30
0.0000000000
10
-93.9477112537
20
37.9819714737
30
0.0000000000
10
-93.8825740852
20
38.6383560971
30
0.0000000000
11
-94.2169728643
21
0.0000094098
31
0.0000000000
11
-94.2170978713
21
1.3940299472
31
0.0000000000
11
-94.2164711681
21
2.9048989174
31
0.0000000000
11
-94.2149290697
21
4.5452500734
31
0.0000000000
11
-94.2123016358
21
6.3267974143
31
0.0000000000
11
-94.2084372653
21
8.2612330386
31
0.0000000000
11
-94.2032496568
21
10.3601701236
31
0.0000000000
11
-94.1968031488
21
12.6350588117
31
0.0000000000
11
-94.1894727056
21
15.0970706985
31
0.0000000000
11
-94.1820705486
21
17.7560808033
31
0.0000000000
11
-94.1756790966
21
20.6155059998
31
0.0000000000
11
-94.1718154938
21
23.6629907177
31
0.0000000000
11
-94.1704534946
21
26.7407305307
31
0.0000000000
11
-94.1674177082
21
29.6254956815
31
0.0000000000
11
-94.1529749837
21
32.2225381460
31
0.0000000000
11
-94.1137489771
21
34.5398165316
31
0.0000000000
11
-94.0312856346
21
36.6651258783
31
0.0000000000
11
-93.8825740852
21
38.6383560971
31
0.0000000000
0
SPLINE
5
3CB
100
AcDbEntity
8
0
100
AcDbSpline
62
9
6
CONTINUOUS
70
0
71
3
72
11
73
7
74
5
42
0.0000001000
43
0.0000001000
44
0.0000000001
12
1.4225453263
22
-0.1604963611
32
0.0000000000
13
1.4240820468
23
-0.1462347815
33
0.0000000000
40
0.0000000000
40
0.0000000000
40
0.0000000000
40
0.0000000000
40
0.1207685808
40
0.3469522991
40
0.6519758385
40
1.0000000000
40
1.0000000000
40
1.0000000000
40
1.0000000000
10
-93.8825735492
20
38.6383560423
30
0.0000000000
10
-93.8253072892
20
38.6318950697
30
0.0000000000
10
-93.6606485603
20
38.6146015845
30
0.0000000000
10
-93.3512363367
20
38.5820953783
30
0.0000000000
10
-92.9339039743
20
38.5389046385
30
0.0000000000
10
-92.6239173749
20
38.5069644124
30
0.0000000000
10
-92.4587123881
20
38.4900000000
30
0.0000000000
11
-93.8825735492
21
38.6383560423
31
0.0000000000
11
-93.7106775309
21
38.6198553062
31
0.0000000000
11
-93.3886441678
21
38.5860969306
31
0.0000000000
11
-92.9543114904
21
38.5410474313
31
0.0000000000
11
-92.4587123881
21
38.4900000000
31
0.0000000000
0
SPLINE
5
3CC
100
AcDbEntity
8
0
100
AcDbSpline
62
9
6
CONTINUOUS
70
0
71
3
72
19
73
15
74
13
42
0.0000001000
43
0.0000001000
44
0.0000000001
12
0.2208538806
22
3.6341907709
32
0.0000000000
13
-3.6403501329
23
-0.0630071877
33
0.0000000000
40
0.0000000000
40
0.0000000000
40
0.0000000000
40
0.0000000000
40
0.0751727230
40
0.1557058994
40
0.2421883774
40
0.3347939451
40
0.4331044289
40
0.5358712827
40
0.6407349328
40
0.7439047779
40
0.8406604697
40
0.9236430339
40
0.9793358211
40
1.0000000000
40
1.0000000000
40
1.0000000000
40
1.0000000000
10
-92.4587123916
20
38.4900000000
30
0.0000000000
10
-92.4531783291
20
38.5810640054
30
0.0000000000
10
-92.4422024433
20
38.7697154437
30
0.0000000000
10
-92.4265973060
20
39.0632300419
30
0.0000000000
10
-92.4114631649
20
39.3779504720
30
0.0000000000
10
-92.3970506881
20
39.7143108032
30
0.0000000000
10
-92.3837630311
20
40.0704566041
30
0.0000000000
10
-92.3722057842
20
40.4417033999
30
0.0000000000
10
-92.3631932138
20
40.8183224337
30
0.0000000000
10
-92.3580542735
20
41.1899119919
30
0.0000000000
10
-92.3580694319
20
41.5275563809
30
0.0000000000
10
-92.3667638405
20
41.8295353267
30
0.0000000000
10
-92.3820067073
20
41.9891254712
30
0.0000000000
10
-92.4069953182
20
42.1176882193
30
0.0000000000
10
-92.4320702670
20
42.1172542221
30
0.0000000000
11
-92.4587123916
21
38.4900000000
31
0.0000000000
11
-92.4428001400
21
38.7632330701
31
0.0000000000
11
-92.4272191006
21
39.0560316648
31
0.0000000000
11
-92.4120847628
21
39.3705413927
31
0.0000000000
11
-92.3976485417
21
39.7073993804
31
0.0000000000
11
-92.3843236555
21
40.0650894568
31
0.0000000000
11
-92.3727314880
21
40.4390732029
31
0.0000000000
11
-92.3637856593
21
40.8207659612
31
0.0000000000
11
-92.3588466382
21
41.1963640991
31
0.0000000000
11
-92.3599908643
21
41.5486395896
31
0.0000000000
11
-92.3706881120
21
41.8505809894
31
0.0000000000
11
-92.3947653383
21
42.0519180531
31
0.0000000000
11
-92.4320702670
21
42.1172542221
31
0.0000000000
0
SPLINE
5
3CD
100
AcDbEntity
8
0
100
AcDbSpline
62
9
6
CONTINUOUS
70
0
71
3
72
19
73
15
74
13
42
0.0000001000
43
0.0000001000
44
0.0000000001
12
0.2296290373
22
2.3139612817
32
0.0000000000
13
-2.2777687171
23
0.4678845789
33
0.0000000000
40
0.0000000000
40
0.0000000000
40
0.0000000000
40
0.0000000000
40
0.0729039548
40
0.1512053466
40
0.2355424172
40
0.3261666409
40
0.4227704504
40
0.5242495595
40
0.6283964643
40
0.7315696024
40
0.8292146488
40
0.9142095223
40
0.9733626105
40
1.0000000000
40
1.0000000000
40
1.0000000000
40
1.0000000000
10
-93.8825735492
20
38.6383560423
30
0.0000000000
10
-93.8769932609
20
38.6945883518
30
0.0000000000
10
-93.8659165673
20
38.8112659100
30
0.0000000000
10
-93.8501458825
20
38.9931565900
30
0.0000000000
10
-93.8347865759
20
39.1888627439
30
0.0000000000
10
-93.8200587101
20
39.3988439790
30
0.0000000000
10
-93.8063189052
20
39.6221957631
30
0.0000000000
10
-93.7941324190
20
39.8561775058
30
0.0000000000
10
-93.7842052569
20
40.0951987070
30
0.0000000000
10
-93.7780120021
20
40.3319934238
30
0.0000000000
10
-93.7761741068
20
40.5519009319
30
0.0000000000
10
-93.7844971267
20
40.7441178536
30
0.0000000000
10
-93.7961333103
20
40.8654017020
30
0.0000000000
10
-93.8250415152
20
40.9424357103
30
0.0000000000
10
-93.8452661193
20
40.9465901182
30
0.0000000000
11
-93.8825735492
21
38.6383560423
31
0.0000000000
11
-93.8665334542
21
38.8071210435
31
0.0000000000
11
-93.8507878351
21
38.9885152916
31
0.0000000000
11
-93.8354285529
21
39.1840241821
31
0.0000000000
11
-93.8206743745
21
39.3942380128
31
0.0000000000
11
-93.8068933842
21
39.6184503546
31
0.0000000000
11
-93.7946493681
21
39.8541046111
31
0.0000000000
11
-93.7847933750
21
40.0960795942
31
0.0000000000
11
-93.7786353457
21
40.3359118472
31
0.0000000000
11
-93.7782254294
21
40.5629681538
31
0.0000000000
11
-93.7870761323
21
40.7604107654
31
0.0000000000
11
-93.8093133113
21
40.8961516502
31
0.0000000000
11
-93.8452661193
21
40.9465901182
31
0.0000000000
0
SPLINE
5
3CE
100
AcDbEntity
8
0
100
AcDbSpline
62
9
6
CONTINUOUS
70
0
71
3
72
11
73
7
74
5
42
0.0000001000
43
0.0000001000
44
0.0000000001
12
0.4091434346
22
1.9287580794
32
0.0000000000
13
1.9713756607
23
0.0344105109
33
0.0000000000
40
0.0000000000
40
0.0000000000
40
0.0000000000
40
0.0000000000
40
0.2506331313
40
0.5008335280
40
0.7505663167
40
1.0000000000
40
1.0000000000
40
1.0000000000
40
1.0000000000
10
-93.8452649843
20
40.9465898744
30
0.0000000000
10
-93.8110833509
20
41.1077267667
30
0.0000000000
10
-93.6877770454
20
41.4207470748
30
0.0000000000
10
-93.3598417402
20
41.8012586528
30
0.0000000000
10
-92.9256680640
20
42.0524319359
30
0.0000000000
10
-92.5959794311
20
42.1143931752
30
0.0000000000
10
-92.4320702670
20
42.1172542221
30
0.0000000000
11
-93.8452649843
21
40.9465898744
31
0.0000000000
11
-93.6637501083
21
41.4062132952
31
0.0000000000
11
-93.3417977162
21
41.7799852377
31
0.0000000000
11
-92.9153631604
21
42.0261631902
31
0.0000000000
11
-92.4320702670
21
42.1172542221
31
0.0000000000
0
SPLINE
5
3CF
100
AcDbEntity
8
0
100
AcDbSpline
62
9
6
CONTINUOUS
70
0
71
3
72
13
73
9
74
7
42
0.0000001000
43
0.0000001000
44
0.0000000001
12
-0.5297091048
22
0.1087152534
32
0.0000000000
13
0.0394221128
23
0.4777996662
33
0.0000000000
40
0.0000000000
40
0.0000000000
40
0.0000000000
40
0.0000000000
40
0.3368513419
40
0.6035155296
40
0.7953656802
40
0.9164042881
40
0.9783479450
40
1.0000000000
40
1.0000000000
40
1.0000000000
40
1.0000000000
10
-93.8452649843
20
40.9465898744
30
0.0000000000
10
-93.9047427252
20
40.9587968341
30
0.0000000000
10
-94.0110150502
20
40.9824069094
30
0.0000000000
10
-94.1495957660
20
41.0185743632
30
0.0000000000
10
-94.2506612211
20
41.0463719714
30
0.0000000000
10
-94.3126772540
20
41.0726836626
30
0.0000000000
10
-94.3483883678
20
41.0837262484
30
0.0000000000
10
-94.3569270533
20
41.1001400602
30
0.0000000000
10
-94.3566425300
20
41.1035885084
30
0.0000000000
11
-93.8452649843
21
40.9465898744
31
0.0000000000
11
-94.0230257251
21
40.9863469216
31
0.0000000000
11
-94.1626542657
21
41.0223627072
31
0.0000000000
11
-94.2619586224
21
41.0523836156
31
0.0000000000
11
-94.3231800437
21
41.0755321731
31
0.0000000000
11
-94.3520980053
21
41.0924359116
31
0.0000000000
11
-94.3566425300
21
41.1035885084
31
0.0000000000
0
SPLINE
5
3D0
100
AcDbEntity
8
0
100
AcDbSpline
62
9
6
CONTINUOUS
70
0
71
3
72
16
73
12
74
10
42
0.0000001000
43
0.0000001000
44
0.0000000001
12
0.0029965461
22
-3.8970131992
32
0.0000000000
13
-0.0259777058
23
-3.8969379892
33
0.0000000000
40
0.0000000000
40
0.0000000000
40
0.0000000000
40
0.0000000000
40
0.1670382808
40
0.3464652392
40
0.5205347351
40
0.6622620556
40
0.7715085406
40
0.8584955461
40
0.9313423109
40
0.9824306035
40
1.0000000000
40
1.0000000000
40
1.0000000000
40
1.0000000000
10
-97.1239420970
20
-22.2000000000
30
0.0000000000
10
-97.1237752511
20
-22.4169834617
30
0.0000000000
10
-97.1237398622
20
-22.8670436333
30
0.0000000000
10
-97.1246326713
20
-23.5432203471
30
0.0000000000
10
-97.1261551561
20
-24.1865166251
30
0.0000000000
10
-97.1275267729
20
-24.7386482200
30
0.0000000000
10
-97.1281964896
20
-25.1776605160
30
0.0000000000
10
-97.1282723624
20
-25.5271971758
30
0.0000000000
10
-97.1284886722
20
-25.8011856051
30
0.0000000000
10
-97.1286847249
20
-25.9850010076
30
0.0000000000
10
-97.1291523492
20
-26.0741864402
30
0.0000000000
10
-97.1293044867
20
-26.0970087231
30
0.0000000000
11
-97.1239420970
21
-22.2000000000
31
0.0000000000
11
-97.1238874813
21
-22.8509505752
31
0.0000000000
11
-97.1247656433
21
-23.5501794558
31
0.0000000000
11
-97.1262692351
21
-24.2285291127
31
0.0000000000
11
-97.1275319162
21
-24.7808410713
31
0.0000000000
11
-97.1281372271
21
-25.2065757609
31
0.0000000000
11
-97.1283115512
21
-25.5455653250
31
0.0000000000
11
-97.1285263986
21
-25.8294501317
31
0.0000000000
11
-97.1289374133
21
-26.0285415167
31
0.0000000000
11
-97.1293044867
21
-26.0970087231
31
0.0000000000
0
SPLINE
5
3D1
100
AcDbEntity
8
0
100
AcDbSpline
62
9
6
CONTINUOUS
70
0
71
3
72
10
73
6
74
4
42
0.0000001000
43
0.0000001000
44
0.0000000001
12
0.6166051016
22
0.0035660074
32
0.0000000000
13
0.6124868379
23
0.0712351108
33
0.0000000000
40
0.0000000000
40
0.0000000000
40
0.0000000000
40
0.0000000000
40
0.5306038158
40
0.8687963804
40
1.0000000000
40
1.0000000000
40
1.0000000000
40
1.0000000000
10
-97.1239337339
20
-22.1999999998
30
0.0000000000
10
-97.0148760607
20
-22.1993692875
30
0.0000000000
10
-96.8361846023
20
-22.1997232909
30
0.0000000000
10
-96.6309783974
20
-22.1939709640
30
0.0000000000
10
-96.5341457447
20
-22.1969063733
30
0.0000000000
10
-96.5073589147
20
-22.1937909385
30
0.0000000000
11
-97.1239337339
21
-22.1999999998
31
0.0000000000
11
-96.7967626021
21
-22.1978055621
31
0.0000000000
11
-96.5882384270
21
-22.1957056857
31
0.0000000000
11
-96.5073589147
21
-22.1937909385
31
0.0000000000
0
SPLINE
5
3D2
100
AcDbEntity
8
0
100
AcDbSpline
62
9
6
CONTINUOUS
70
0
71
3
72
16
73
12
74
10
42
0.0000001000
43
0.0000001000
44
0.0000000001
12
0.0117781229
22
-5.7168247365
32
0.0000000000
13
-2.0370335007
23
-5.3416025975
33
0.0000000000
40
0.0000000000
40
0.0000000000
40
0.0000000000
40
0.0000000000
40
0.1671691551
40
0.3463946442
40
0.5196621161
40
0.6602908295
40
0.7690018250
40
0.8566351626
40
0.9306083984
40
0.9821513616
40
1.0000000000
40
1.0000000000
40
1.0000000000
40
1.0000000000
10
-96.5073589147
20
-22.1937909385
30
0.0000000000
10
-96.5067026017
20
-22.5123498588
30
0.0000000000
10
-96.5065302306
20
-23.1724481060
30
0.0000000000
10
-96.5100648712
20
-24.1627062435
30
0.0000000000
10
-96.5157718147
20
-25.1024281988
30
0.0000000000
10
-96.5216596294
20
-25.9076189885
30
0.0000000000
10
-96.5226387750
20
-26.5500625183
30
0.0000000000
10
-96.5271412131
20
-27.0643475981
30
0.0000000000
10
-96.5162290643
20
-27.4728116422
30
0.0000000000
10
-96.5414788384
20
-27.7412609898
30
0.0000000000
10
-96.5159964003
20
-27.8787891070
30
0.0000000000
10
-96.5281158251
20
-27.9105692180
30
0.0000000000
11
-96.5073589147
21
-22.1937909385
31
0.0000000000
11
-96.5071251137
21
-23.1494696991
31
0.0000000000
11
-96.5105401917
21
-24.1740668917
31
0.0000000000
11
-96.5163751680
21
-25.1645915771
31
0.0000000000
11
-96.5212297485
21
-25.9685283339
31
0.0000000000
11
-96.5235276650
21
-26.5900071131
31
0.0000000000
11
-96.5241444378
21
-27.0909922287
31
0.0000000000
11
-96.5249909404
21
-27.5138843029
31
0.0000000000
11
-96.5266108955
21
-27.8085425626
31
0.0000000000
11
-96.5281158251
21
-27.9105692180
31
0.0000000000
0
SPLINE
5
3D3
100
AcDbEntity
8
0
100
AcDbSpline
62
7
6
CONTINUOUS
70
0
71
3
72
10
73
6
74
4
42
0.0000001000
43
0.0000001000
44
0.0000000001
12
0.0331663435
22
-1.1215354684
32
0.0000000000
13
0.0439823405
23
-1.1211633988
33
0.0000000000
40
0.0000000000
40
0.0000000000
40
0.0000000000
40
0.0000000000
40
0.3258399667
40
0.6591748363
40
1.0000000000
40
1.0000000000
40
1.0000000000
40
1.0000000000
10
-96.6647473807
20
-31.3287080000
30
0.0000000000
10
-96.6611450740
20
-31.4505216932
30
0.0000000000
10
-96.6534612288
20
-31.6969394753
30
0.0000000000
10
-96.6406039832
20
-32.0707275854
30
0.0000000000
10
-96.6311228269
20
-32.3226914337
30
0.0000000000
10
-96.6261260641
20
-32.4500650000
30
0.0000000000
11
-96.6647473807
21
-31.3287080000
31
0.0000000000
11
-96.6533552364
21
-31.6941313042
31
0.0000000000
11
-96.6405014521
21
-32.0679206745
31
0.0000000000
11
-96.6261260641
21
-32.4500650000
31
0.0000000000
0
SPLINE
5
3D4
100
AcDbEntity
8
0
100
AcDbSpline
62
7
6
CONTINUOUS
70
0
71
3
72
10
73
6
74
4
42
0.0000001000
43
0.0000001000
44
0.0000000001
12
-0.0582224076
22
1.1907713140
32
0.0000000000
13
-0.0435993490
23
1.1913963521
33
0.0000000000
40
0.0000000000
40
0.0000000000
40
0.0000000000
40
0.0000000000
40
0.3358176456
40
0.6691511444
40
1.0000000000
40
1.0000000000
40
1.0000000000
40
1.0000000000
10
-96.4038766230
20
-32.4500580000
30
0.0000000000
10
-96.4103939937
20
-32.3167639936
30
0.0000000000
10
-96.4228452947
20
-32.0511354901
30
0.0000000000
10
-96.4398335990
20
-31.6540998216
30
0.0000000000
10
-96.4500334565
20
-31.3903513735
30
0.0000000000
10
-96.4548417214
20
-31.2589606669
30
0.0000000000
11
-96.4038766230
21
-32.4500580000
31
0.0000000000
11
-96.4226186143
21
-32.0501371928
31
0.0000000000
11
-96.4396029099
21
-31.6531021557
31
0.0000000000
11
-96.4548417214
21
-31.2589606669
31
0.0000000000
0
SPLINE
5
3D5
100
AcDbEntity
8
0
100
AcDbSpline
62
7
6
CONTINUOUS
70
0
71
3
72
10
73
6
74
4
42
0.0000001000
43
0.0000001000
44
0.0000000001
12
-0.0003263548
22
0.6017428254
32
0.0000000000
13
-0.0135293398
23
0.6015586997
33
0.0000000000
40
0.0000000000
40
0.0000000000
40
0.0000000000
40
0.0000000000
40
0.2646195144
40
0.6745469494
40
1.0000000000
40
1.0000000000
40
1.0000000000
40
1.0000000000
10
-96.4548417214
20
-31.2589606669
30
0.0000000000
10
-96.4548705081
20
-31.2058830355
30
0.0000000000
10
-96.4565873951
20
-31.0705812440
30
0.0000000000
10
-96.4602673715
20
-30.8700707748
30
0.0000000000
10
-96.4633593715
20
-30.7225215637
30
0.0000000000
10
-96.4648270932
20
-30.6572618590
30
0.0000000000
11
-96.4548417214
21
-31.2589606669
31
0.0000000000
11
-96.4563353453
21
-31.0997347546
31
0.0000000000
11
-96.4606981221
21
-30.8531024098
31
0.0000000000
11
-96.4648270932
21
-30.6572618590
31
0.0000000000
0
SPLINE
5
3D6
100
AcDbEntity
8
0
100
AcDbSpline
62
7
6
CONTINUOUS
70
0
71
3
72
10
73
6
74
4
42
0.0000001000
43
0.0000001000
44
0.0000000001
12
-0.0149715344
22
0.6656833882
32
0.0000000000
13
-0.0259588642
23
0.6574439531
33
0.0000000000
40
0.0000000000
40
0.0000000000
40
0.0000000000
40
0.0000000000
40
0.1534297866
40
0.6078672903
40
1.0000000000
40
1.0000000000
40
1.0000000000
40
1.0000000000
10
-96.4648270932
20
-30.6572618590
30
0.0000000000
10
-96.4655927863
20
-30.6232166389
30
0.0000000000
10
-96.4687334399
20
-30.4883776947
30
0.0000000000
10
-96.4746851157
20
-30.2670557174
30
0.0000000000
10
-96.4783845682
20
-30.0775710790
30
0.0000000000
10
-96.4817776748
20
-29.9916359860
30
0.0000000000
11
-96.4648270932
21
-30.6572618590
31
0.0000000000
11
-96.4672086308
21
-30.5551675315
31
0.0000000000
11
-96.4746700805
21
-30.2526554010
31
0.0000000000
11
-96.4817776748
21
-29.9916359860
31
0.0000000000
0
SPLINE
5
3D7
100
AcDbEntity
8
0
100
AcDbSpline
62
7
6
CONTINUOUS
70
0
71
3
72
11
73
7
74
5
42
0.0000001000
43
0.0000001000
44
0.0000000001
12
-0.0172341027
22
0.4364773624
32
0.0000000000
13
-0.4420828641
23
0.0000000000
33
0.0000000000
40
0.0000000000
40
0.0000000000
40
0.0000000000
40
0.0000000000
40
0.4474190321
40
0.7546048141
40
0.9369590045
40
1.0000000000
40
1.0000000000
40
1.0000000000
40
1.0000000000
10
-96.4817776748
20
-29.9916359860
30
0.0000000000
10
-96.4843479633
20
-29.9265398930
30
0.0000000000
10
-96.4903083320
20
-29.8185259697
30
0.0000000000
10
-96.4848240182
20
-29.6684364513
30
0.0000000000
10
-96.5057524253
20
-29.6079334910
30
0.0000000000
10
-96.4894964550
20
-29.5499331129
30
0.0000000000
10
-96.4987862363
20
-29.5499331129
30
0.0000000000
11
-96.4817776748
21
-29.9916359860
31
0.0000000000
11
-96.4877678227
21
-29.7939304238
31
0.0000000000
11
-96.4925221457
21
-29.6582121019
31
0.0000000000
11
-96.4961624493
21
-29.5776786723
31
0.0000000000
11
-96.4987862363
21
-29.5499331129
31
0.0000000000
0
SPLINE
5
3D8
100
AcDbEntity
8
0
100
AcDbSpline
62
7
6
CONTINUOUS
70
0
71
3
72
8
73
4
74
2
42
0.0000001000
43
0.0000001000
44
0.0000000001
12
0.0095884398
22
-0.2624454351
32
0.0000000000
13
0.0103092221
23
-0.2624183585
33
0.0000000000
40
0.0000000000
40
0.0000000000
40
0.0000000000
40
0.0000000000
40
1.0000000000
40
1.0000000000
40
1.0000000000
40
1.0000000000
10
-96.6549478474
20
-31.2589606669
30
0.0000000000
10
-96.6517517008
20
-31.3464424786
30
0.0000000000
10
-96.6484348687
20
-31.4339199535
30
0.0000000000
10
-96.6449984613
20
-31.5213927397
30
0.0000000000
11
-96.6549478474
21
-31.2589606669
31
0.0000000000
11
-96.6449984613
21
-31.5213927397
31
0.0000000000
0
SPLINE
5
3D9
100
AcDbEntity
8
0
100
AcDbSpline
62
7
6
CONTINUOUS
70
0
71
3
72
10
73
6
74
4
42
0.0000001000
43
0.0000001000
44
0.0000000001
12
0.0364904506
22
-0.9288541858
32
0.0000000000
13
0.0453250945
23
-0.9284641372
33
0.0000000000
40
0.0000000000
40
0.0000000000
40
0.0000000000
40
0.0000000000
40
0.1417913532
40
0.5692975943
40
1.0000000000
40
1.0000000000
40
1.0000000000
40
1.0000000000
10
-96.6449984613
20
-31.5213927397
30
0.0000000000
10
-96.6432737845
20
-31.5652939037
30
0.0000000000
10
-96.6362282117
20
-31.7415539796
30
0.0000000000
10
-96.6230034027
20
-32.0511290095
30
0.0000000000
10
-96.6105717345
20
-32.3167607542
30
0.0000000000
10
-96.6040645255
20
-32.4500580000
30
0.0000000000
11
-96.6449984613
21
-31.5213927397
31
0.0000000000
11
-96.6397342128
21
-31.6530926440
31
0.0000000000
11
-96.6227771768
21
-32.0501275906
31
0.0000000000
11
-96.6040645255
21
-32.4500580000
31
0.0000000000
0
SPLINE
5
3DA
100
AcDbEntity
8
0
100
AcDbSpline
62
9
6
CONTINUOUS
70
0
71
3
72
8
73
4
74
2
42
0.0000001000
43
0.0000001000
44
0.0000000001
12
0.0035237264
22
-0.0199350904
32
0.0000000000
13
0.0000322229
23
-0.0202665398
33
0.0000000000
40
0.0000000000
40
0.0000000000
40
0.0000000000
40
0.0000000000
40
1.0000000000
40
1.0000000000
40
1.0000000000
40
1.0000000000
10
-96.5256561979
20
27.8965327337
30
0.0000000000
10
-96.5244816225
20
27.8898877035
30
0.0000000000
10
-96.5240840520
20
27.8831685683
30
0.0000000000
10
-96.5240733110
20
27.8764130550
30
0.0000000000
11
-96.5256561979
21
27.8965327337
31
0.0000000000
11
-96.5240733110
21
27.8764130550
31
0.0000000000
0
SPLINE
5
3DB
100
AcDbEntity
8
0
100
AcDbSpline
62
9
6
CONTINUOUS
70
0
71
3
72
17
73
13
74
11
42
0.0000001000
43
0.0000001000
44
0.0000000001
12
0.0090374853
22
-5.6841155114
32
0.0000000000
13
-0.0028140110
23
-5.6778273337
33
0.0000000000
40
0.0000000000
40
0.0000000000
40
0.0000000000
40
0.0000000000
40
0.0043195682
40
0.0297299030
40
0.0786356880
40
0.1585817482
40
0.2777970692
40
0.4275027315
40
0.5834962853
40
0.7329832186
40
0.8726494529
40
1.0000000000
40
1.0000000000
40
1.0000000000
40
1.0000000000
10
-96.5240733110
20
27.8764130550
30
0.0000000000
10
-96.5240602983
20
27.8682287468
30
0.0000000000
10
-96.5278784268
20
27.8115318607
30
0.0000000000
10
-96.5221863140
20
27.6632838842
30
0.0000000000
10
-96.5262930267
20
27.3709186994
30
0.0000000000
10
-96.5246011005
20
26.9016447038
30
0.0000000000
10
-96.5259141434
20
26.2412740884
30
0.0000000000
10
-96.5256371738
20
25.4371147686
30
0.0000000000
10
-96.5257261788
20
24.5756139765
30
0.0000000000
10
-96.5257378303
20
23.7331280255
30
0.0000000000
10
-96.5259296864
20
22.9448485035
30
0.0000000000
10
-96.5261586468
20
22.4394902416
30
0.0000000000
10
-96.5262781021
20
22.1984654357
30
0.0000000000
11
-96.5240733110
21
27.8764130550
31
0.0000000000
11
-96.5250437670
21
27.8517670353
31
0.0000000000
11
-96.5247472654
21
27.7074918288
31
0.0000000000
11
-96.5248459245
21
27.4298132093
31
0.0000000000
11
-96.5252085951
21
26.9758933728
31
0.0000000000
11
-96.5255660265
21
26.2990093760
31
0.0000000000
11
-96.5257033950
21
25.4490063809
31
0.0000000000
11
-96.5257139601
21
24.5633018086
31
0.0000000000
11
-96.5257716633
21
23.7145407105
31
0.0000000000
11
-96.5259643503
21
22.9215398740
31
0.0000000000
11
-96.5262781021
21
22.1984654357
31
0.0000000000
0
SPLINE
5
3DC
100
AcDbEntity
8
0
100
AcDbSpline
62
7
6
CONTINUOUS
70
0
71
3
72
12
73
8
74
6
42
0.0000001000
43
0.0000001000
44
0.0000000001
12
0.6120821978
22
0.0000000000
32
0.0000000000
13
0.0143719957
23
-0.6142310179
33
0.0000000000
40
0.0000000000
40
0.0000000000
40
0.0000000000
40
0.0000000000
40
0.0468455473
40
0.1819064092
40
0.4060033634
40
0.7285435876
40
1.0000000000
40
1.0000000000
40
1.0000000000
40
1.0000000000
10
-96.6988259626
20
-29.5499331129
30
0.0000000000
10
-96.6892681874
20
-29.5499331129
30
0.0000000000
10
-96.7060386150
20
-29.6094819180
30
0.0000000000
10
-96.6846964865
20
-29.6709896906
30
0.0000000000
10
-96.6902300004
20
-29.8221345086
30
0.0000000000
10
-96.6813250285
20
-29.9843080985
30
0.0000000000
10
-96.6781157311
20
-30.1056090094
30
0.0000000000
10
-96.6768152743
20
-30.1611879922
30
0.0000000000
11
-96.6988259626
21
-29.5499331129
31
0.0000000000
11
-96.6961594527
21
-29.5784821816
31
0.0000000000
11
-96.6924588817
21
-29.6610676630
31
0.0000000000
11
-96.6876851762
21
-29.7981503257
31
0.0000000000
11
-96.6817291183
21
-29.9954815895
31
0.0000000000
11
-96.6768152743
21
-30.1611879922
31
0.0000000000
0
SPLINE
5
3DD
100
AcDbEntity
8
0
100
AcDbSpline
62
7
6
CONTINUOUS
70
0
71
3
72
9
73
5
74
3
42
0.0000001000
43
0.0000001000
44
0.0000000001
12
0.0044105967
22
-0.1885002872
32
0.0000000000
13
0.0046503547
23
-0.1878530036
33
0.0000000000
40
0.0000000000
40
0.0000000000
40
0.0000000000
40
0.0000000000
40
0.4859515260
40
1.0000000000
40
1.0000000000
40
1.0000000000
40
1.0000000000
10
-96.6768152743
20
-30.1611879922
30
0.0000000000
10
-96.6761008289
20
-30.1917219929
30
0.0000000000
10
-96.6747338498
20
-30.2546451549
30
0.0000000000
10
-96.6732184417
20
-30.3173337030
30
0.0000000000
10
-96.6724216058
20
-30.3495222197
30
0.0000000000
11
-96.6768152743
21
-30.1611879922
31
0.0000000000
11
-96.6747372064
21
-30.2528218023
31
0.0000000000
11
-96.6724216058
21
-30.3495222197
31
0.0000000000
0
SPLINE
5
3DE
100
AcDbEntity
8
0
100
AcDbSpline
62
7
6
CONTINUOUS
70
0
71
3
72
8
73
4
74
2
42
0.0000001000
43
0.0000001000
44
0.0000000001
12
0.0050131553
22
-0.2025084826
32
0.0000000000
13
0.0048924495
23
-0.2022542412
33
0.0000000000
40
0.0000000000
40
0.0000000000
40
0.0000000000
40
0.0000000000
40
1.0000000000
40
1.0000000000
40
1.0000000000
40
1.0000000000
10
-96.6724216058
20
-30.3495222197
30
0.0000000000
10
-96.6707505540
20
-30.4170250472
30
0.0000000000
10
-96.6690010325
20
-30.4843676345
30
0.0000000000
10
-96.6673702160
20
-30.5517857149
30
0.0000000000
11
-96.6724216058
21
-30.3495222197
31
0.0000000000
11
-96.6673702160
21
-30.5517857149
31
0.0000000000
0
SPLINE
5
3DF
100
AcDbEntity
8
0
100
AcDbSpline
62
7
6
CONTINUOUS
70
0
71
3
72
9
73
5
74
3
42
0.0000001000
43
0.0000001000
44
0.0000000001
12
0.0093912472
22
-0.3882348887
32
0.0000000000
13
0.0071862721
23
-0.3886301703
33
0.0000000000
40
0.0000000000
40
0.0000000000
40
0.0000000000
40
0.0000000000
40
0.7684083456
40
1.0000000000
40
1.0000000000
40
1.0000000000
40
1.0000000000
10
-96.6673702160
20
-30.5517857149
30
0.0000000000
10
-96.6649647784
20
-30.6512266911
30
0.0000000000
10
-96.6621704523
20
-30.7808520642
30
0.0000000000
10
-96.6596733612
20
-30.9104027669
30
0.0000000000
10
-96.6591186010
20
-30.9404039349
30
0.0000000000
11
-96.6673702160
21
-30.5517857149
31
0.0000000000
11
-96.6608459142
21
-30.8503930389
31
0.0000000000
11
-96.6591186010
21
-30.9404039349
31
0.0000000000
0
SPLINE
5
3E0
100
AcDbEntity
8
0
100
AcDbSpline
62
7
6
CONTINUOUS
70
0
71
3
72
9
73
5
74
3
42
0.0000001000
43
0.0000001000
44
0.0000000001
12
0.0058901963
22
-0.3185390091
32
0.0000000000
13
0.0001673764
23
-0.3185943517
33
0.0000000000
40
0.0000000000
40
0.0000000000
40
0.0000000000
40
0.0000000000
40
0.4925925552
40
1.0000000000
40
1.0000000000
40
1.0000000000
40
1.0000000000
10
-96.6591186010
20
-30.9404039349
30
0.0000000000
10
-96.6581514454
20
-30.9927072497
30
0.0000000000
10
-96.6563333237
20
-31.0988764701
30
0.0000000000
10
-96.6549761567
20
-31.2050749516
30
0.0000000000
10
-96.6549478474
20
-31.2589606669
30
0.0000000000
11
-96.6591186010
21
-30.9404039349
31
0.0000000000
11
-96.6564721085
21
-31.0973106850
31
0.0000000000
11
-96.6549478474
21
-31.2589606669
31
0.0000000000
0
SPLINE
5
3E1
100
AcDbEntity
8
0
100
AcDbSpline
62
7
6
CONTINUOUS
70
0
71
3
72
8
73
4
74
2
42
0.0000001000
43
0.0000001000
44
0.0000000001
12
0.0097920679
22
-0.6295362547
32
0.0000000000
13
0.0125651029
23
-0.6294885502
33
0.0000000000
40
0.0000000000
40
0.0000000000
40
0.0000000000
40
0.0000000000
40
1.0000000000
40
1.0000000000
40
1.0000000000
40
1.0000000000
10
-96.7135486655
20
-29.5499350000
30
0.0000000000
10
-96.7102846429
20
-29.7597804182
30
0.0000000000
10
-96.7066021263
20
-29.9696199783
30
0.0000000000
10
-96.7024137587
20
-30.1794494950
30
0.0000000000
11
-96.7135486655
21
-29.5499350000
31
0.0000000000
11
-96.7024137587
21
-30.1794494950
31
0.0000000000
0
SPLINE
5
3E2
100
AcDbEntity
8
0
100
AcDbSpline
62
7
6
CONTINUOUS
70
0
71
3
72
8
73
4
74
2
42
0.0000001000
43
0.0000001000
44
0.0000000001
12
0.0081382519
22
-0.3222679484
32
0.0000000000
13
0.0090827750
23
-0.3222426391
33
0.0000000000
40
0.0000000000
40
0.0000000000
40
0.0000000000
40
0.0000000000
40
1.0000000000
40
1.0000000000
40
1.0000000000
40
1.0000000000
10
-96.6880286133
20
-30.8175379386
30
0.0000000000
10
-96.6853158627
20
-30.9249605881
30
0.0000000000
10
-96.6824501246
20
-31.0323793645
30
0.0000000000
10
-96.6794225329
20
-31.1397935776
30
0.0000000000
11
-96.6880286133
21
-30.8175379386
31
0.0000000000
11
-96.6794225329
21
-31.1397935776
31
0.0000000000
0
SPLINE
5
3E3
100
AcDbEntity
8
0
100
AcDbSpline
62
9
6
CONTINUOUS
70
0
71
3
72
14
73
10
74
8
42
0.0000001000
43
0.0000001000
44
0.0000000001
12
3.6489298289
22
-0.0587576453
32
0.0000000000
13
-0.0474335123
23
3.6490946026
33
0.0000000000
40
0.0000000000
40
0.0000000000
40
0.0000000000
40
0.0000000000
40
0.0304933846
40
0.1062750140
40
0.2259830655
40
0.3841667324
40
0.5731956501
40
0.7827940780
40
1.0000000000
40
1.0000000000
40
1.0000000000
40
1.0000000000
10
-93.0355445459
20
-42.1067205393
30
0.0000000000
10
-92.9984551390
20
-42.1073177792
30
0.0000000000
10
-92.9452622942
20
-41.9405810897
30
0.0000000000
10
-92.9010079340
20
-41.7080145699
30
0.0000000000
10
-92.8512889091
20
-41.2600668157
30
0.0000000000
10
-92.8134764737
20
-40.7015194652
30
0.0000000000
10
-92.7851040793
20
-40.0217993480
30
0.0000000000
10
-92.7712293698
20
-39.2736585912
30
0.0000000000
10
-92.7724048942
20
-38.7542016525
30
0.0000000000
10
-92.7758391741
20
-38.4900000000
30
0.0000000000
11
-93.0355445459
21
-42.1067205393
31
0.0000000000
11
-92.9705958667
21
-42.0163574040
31
0.0000000000
11
-92.9112331742
21
-41.7462458894
31
0.0000000000
11
-92.8597709710
21
-41.3124246804
31
0.0000000000
11
-92.8181383442
21
-40.7366519626
31
0.0000000000
11
-92.7887001624
21
-40.0474376918
31
0.0000000000
11
-92.7740033030
21
-39.2826697906
31
0.0000000000
11
-92.7758391741
21
-38.4900000000
31
0.0000000000
0
SPLINE
5
3E4
100
AcDbEntity
8
0
100
AcDbSpline
62
9
6
CONTINUOUS
70
0
71
3
72
74
73
70
74
68
42
0.0000001000
43
0.0000001000
44
0.0000000001
12
4.5805251138
22
-1.3508526622
32
0.0000000000
13
0.7293431086
23
-4.7195414886
33
0.0000000000
40
0.0000000000
40
0.0000000000
40
0.0000000000
40
0.0000000000
40
0.0146178819
40
0.0293103856
40
0.0440461116
40
0.0588064222
40
0.0735755558
40
0.0883456721
40
0.1031140246
40
0.1178785353
40
0.1326390702
40
0.1473958722
40
0.1621495747
40
0.1769016581
40
0.1916541783
40
0.2064091557
40
0.2211685519
40
0.2359341917
40
0.2507078015
40
0.2654909717
40
0.2802851316
40
0.2950915528
40
0.3099113464
40
0.3247454540
40
0.3395946479
40
0.3544595311
40
0.3693405411
40
0.3842379528
40
0.3991518821
40
0.4140822954
40
0.4290290186
40
0.4439917443
40
0.4589700409
40
0.4739633613
40
0.4889710540
40
0.5039923728
40
0.5190264800
40
0.5340724567
40
0.5491293176
40
0.5641960178
40
0.5792714618
40
0.5943545104
40
0.6094439892
40
0.6245386956
40
0.6396374037
40
0.6547388694
40
0.6698418383
40
0.6849450496
40
0.7000472411
40
0.7151471523
40
0.7302435274
40
0.7453351183
40
0.7604206862
40
0.7754990030
40
0.7905688522
40
0.8056290297
40
0.8206783439
40
0.8357156147
40
0.8507396730
40
0.8657493589
40
0.8807435201
40
0.8957210097
40
0.9106806823
40
0.9256213967
40
0.9405419956
40
0.9554413505
40
0.9703182290
40
0.9851715997
40
1.0000000000
40
1.0000000000
40
1.0000000000
40
1.0000000000
10
-86.8270697426
20
42.2089637862
30
0.0000000000
10
-86.8047505510
20
42.2023815846
30
0.0000000000
10
-86.7601692331
20
42.1885959719
30
0.0000000000
10
-86.6937347329
20
42.1661545725
30
0.0000000000
10
-86.6276911877
20
42.1419196849
30
0.0000000000
10
-86.5621805433
20
42.1159470322
30
0.0000000000
10
-86.4973062931
20
42.0882835402
30
0.0000000000
10
-86.4331457238
20
42.0589723351
30
0.0000000000
10
-86.3697520631
20
42.0280545046
30
0.0000000000
10
-86.3071650507
20
41.9955681610
30
0.0000000000
10
-86.2454173746
20
41.9615519030
30
0.0000000000
10
-86.1845354626
20
41.9260438059
30
0.0000000000
10
-86.1245411920
20
41.8890816773
30
0.0000000000
10
-86.0654517787
20
41.8507024280
30
0.0000000000
10
-86.0072803251
20
41.8109423047
30
0.0000000000
10
-85.9500372453
20
41.7698372044
30
0.0000000000
10
-85.8937312581
20
41.7274231451
30
0.0000000000
10
-85.8383695659
20
41.6837361306
30
0.0000000000
10
-85.7839580125
20
41.6388121128
30
0.0000000000
10
-85.7305011824
20
41.5926869140
30
0.0000000000
10
-85.6780025485
20
41.5453961971
30
0.0000000000
10
-85.6264645751
20
41.4969754212
30
0.0000000000
10
-85.5758887971
20
41.4474597974
30
0.0000000000
10
-85.5262759074
20
41.3968842568
30
0.0000000000
10
-85.4776258385
20
41.3452834263
30
0.0000000000
10
-85.4299378304
20
41.2926916001
30
0.0000000000
10
-85.3832104925
20
41.2391427159
30
0.0000000000
10
-85.3374418623
20
41.1846703332
30
0.0000000000
10
-85.2926294559
20
41.1293076112
30
0.0000000000
10
-85.2487703115
20
41.0730872835
30
0.0000000000
10
-85.2058610271
20
41.0160416340
30
0.0000000000
10
-85.1638977980
20
40.9582024751
30
0.0000000000
10
-85.1228764517
20
40.8996011305
30
0.0000000000
10
-85.0827924784
20
40.8402684144
30
0.0000000000
10
-85.0436410597
20
40.7802346122
30
0.0000000000
10
-85.0054170983
20
40.7195294710
30
0.0000000000
10
-84.9681152476
20
40.6581821908
30
0.0000000000
10
-84.9317299370
20
40.5962214102
30
0.0000000000
10
-84.8962553891
20
40.5336751883
30
0.0000000000
10
-84.8616856381
20
40.4705709892
30
0.0000000000
10
-84.8280145515
20
40.4069356758
30
0.0000000000
10
-84.7952358501
20
40.3427955032
30
0.0000000000
10
-84.7633431264
20
40.2781761135
30
0.0000000000
10
-84.7323298634
20
40.2131025338
30
0.0000000000
10
-84.7021894533
20
40.1475991787
30
0.0000000000
10
-84.6729152153
20
40.0816898509
30
0.0000000000
10
-84.6445004102
20
40.0153977422
30
0.0000000000
10
-84.6169382557
20
39.9487454362
30
0.0000000000
10
-84.5902219413
20
39.8817549149
30
0.0000000000
10
-84.5643446429
20
39.8144475678
30
0.0000000000
10
-84.5392995372
20
39.7468442025
30
0.0000000000
10
-84.5150798151
20
39.6789650571
30
0.0000000000
10
-84.4916786948
20
39.6108298153
30
0.0000000000
10
-84.4690894340
20
39.5424576223
30
0.0000000000
10
-84.4473053417
20
39.4738671025
30
0.0000000000
10
-84.4263197887
20
39.4050763783
30
0.0000000000
10
-84.4061262180
20
39.3361030907
30
0.0000000000
10
-84.3867181547
20
39.2669644229
30
0.0000000000
10
-84.3680892143
20
39.1976771235
30
0.0000000000
10
-84.3502331111
20
39.1282575328
30
0.0000000000
10
-84.3331436654
20
39.0587216093
30
0.0000000000
10
-84.3168148107
20
38.9890849597
30
0.0000000000
10
-84.3012405971
20
38.9193628615
30
0.0000000000
10
-84.2864152013
20
38.8495703139
30
0.0000000000
10
-84.2723329170
20
38.7797220089
30
0.0000000000
10
-84.2589881914
20
38.7098325258
30
0.0000000000
10
-84.2463755481
20
38.6399159685
30
0.0000000000
10
-84.2344897532
20
38.5699868459
30
0.0000000000
10
-84.2270405073
20
38.5233277501
30
0.0000000000
10
-84.2234355101
20
38.5000000000
30
0.0000000000
11
-86.8270697426
21
42.2089637862
31
0.0000000000
11
-86.7603754172
21
42.1883455369
31
0.0000000000
11
-86.6939004864
21
42.1658909149
31
0.0000000000
11
-86.6278356054
21
42.1416511507
31
0.0000000000
11
-86.5623080671
21
42.1156739660
31
0.0000000000
11
-86.4974286372
21
42.0880103823
31
0.0000000000
11
-86.4332699008
21
42.0587028271
31
0.0000000000
11
-86.3698787740
21
42.0277891869
31
0.0000000000
11
-86.3072966569
21
41.9953087452
31
0.0000000000
11
-86.2455540032
21
41.9612989205
31
0.0000000000
11
-86.1846772443
21
41.9257977829
31
0.0000000000
11
-86.1246888575
21
41.8888435146
31
0.0000000000
11
-86.0656056249
21
41.8504728660
31
0.0000000000
11
-86.0074398396
21
41.8107215098
31
0.0000000000
11
-85.9502018911
21
41.7696252842
31
0.0000000000
11
-85.8939004200
21
41.7272200817
31
0.0000000000
11
-85.8385426966
21
41.6835419019
31
0.0000000000
11
-85.7841345399
21
41.6386266199
31
0.0000000000
11
-85.7306805291
21
41.5925099931
31
0.0000000000
11
-85.6781841695
21
41.5452276523
31
0.0000000000
11
-85.6266479497
21
41.4968150215
31
0.0000000000
11
-85.5760734239
21
41.4473072727
31
0.0000000000
11
-85.5264613142
21
41.3967393099
31
0.0000000000
11
-85.4778115838
21
41.3451457368
31
0.0000000000
11
-85.4301235059
21
41.2925608313
31
0.0000000000
11
-85.3833957220
21
41.2390185163
31
0.0000000000
11
-85.3376263019
21
41.1845523408
31
0.0000000000
11
-85.2928127985
21
41.1291954628
31
0.0000000000
11
-85.2489522846
21
41.0729806170
31
0.0000000000
11
-85.2060413899
21
41.0159400886
31
0.0000000000
11
-85.1640763410
21
40.9581056957
31
0.0000000000
11
-85.1230529952
21
40.8995087694
31
0.0000000000
11
-85.0829668725
21
40.8401801364
31
0.0000000000
11
-85.0438131813
21
40.7801500941
31
0.0000000000
11
-85.0055868434
21
40.7194483942
31
0.0000000000
11
-84.9682825373
21
40.6581042526
31
0.0000000000
11
-84.9318947178
21
40.5961463302
31
0.0000000000
11
-84.8964176254
21
40.5336026996
31
0.0000000000
11
-84.8618453118
21
40.4705008408
31
0.0000000000
11
-84.8281716600
21
40.4068676323
31
0.0000000000
11
-84.7953904051
21
40.3427293457
31
0.0000000000
11
-84.7634951520
21
40.2781116387
31
0.0000000000
11
-84.7324793935
21
40.2130395515
31
0.0000000000
11
-84.7023365310
21
40.1475375123
31
0.0000000000
11
-84.6730598929
21
40.0816293403
31
0.0000000000
11
-84.6446427471
21
40.0153382410
31
0.0000000000
11
-84.6170783168
21
39.9486868097
31
0.0000000000
11
-84.5903597960
21
39.8816970401
31
0.0000000000
11
-84.5644803645
21
39.8143903325
31
0.0000000000
11
-84.5394332019
21
39.7467875042
31
0.0000000000
11
-84.5152115010
21
39.6789088020
31
0.0000000000
11
-84.4918084813
21
39.6107739170
31
0.0000000000
11
-84.4692174017
21
39.5424020019
31
0.0000000000
11
-84.4474315714
21
39.4738116871
31
0.0000000000
11
-84.4264443613
21
39.4050211000
31
0.0000000000
11
-84.4062492139
21
39.3360478860
31
0.0000000000
11
-84.3868396534
21
39.2669092311
31
0.0000000000
11
-84.3682092944
21
39.1976218867
31
0.0000000000
11
-84.3503518499
21
39.1282021941
31
0.0000000000
11
-84.3332611394
21
39.0586661132
31
0.0000000000
11
-84.3169310940
21
38.9890292481
31
0.0000000000
11
-84.3013557648
21
38.9193068845
31
0.0000000000
11
-84.2865293213
21
38.8495139936
31
0.0000000000
11
-84.2724460716
21
38.7796653415
31
0.0000000000
11
-84.2591004210
21
38.7097752981
31
0.0000000000
11
-84.2464869876
21
38.6398584713
31
0.0000000000
11
-84.2346003437
21
38.5699282909
31
0.0000000000
11
-84.2234355101
21
38.5000000000
31
0.0000000000
0
SPLINE
5
3E5
100
AcDbEntity
8
0
100
AcDbSpline
62
9
6
CONTINUOUS
70
0
71
3
72
21
73
17
74
15
42
0.0000001000
43
0.0000001000
44
0.0000000001
12
-0.4752330775
22
-0.0841427216
32
0.0000000000
13
-0.0755171960
23
0.4766797968
33
0.0000000000
40
0.0000000000
40
0.0000000000
40
0.0000000000
40
0.0000000000
40
0.1125257282
40
0.2234519092
40
0.3314137618
40
0.4350830150
40
0.5331842739
40
0.6245107444
40
0.7079391282
40
0.7824435227
40
0.8471081871
40
0.9011391037
40
0.9438744476
40
0.9747948020
40
0.9935384186
40
1.0000000000
40
1.0000000000
40
1.0000000000
40
1.0000000000
10
-84.2234355088
20
38.4999999928
30
0.0000000000
10
-84.2412608249
20
38.4968439191
30
0.0000000000
10
-84.2766633791
20
38.4906065913
30
0.0000000000
10
-84.3291867067
20
38.4814460509
30
0.0000000000
10
-84.3803222776
20
38.4726220206
30
0.0000000000
10
-84.4294410661
20
38.4642427410
30
0.0000000000
10
-84.4759375402
20
38.4564119021
30
0.0000000000
10
-84.5192429119
20
38.4492229403
30
0.0000000000
10
-84.5588127750
20
38.4427724521
30
0.0000000000
10
-84.5941965278
20
38.4371114536
30
0.0000000000
10
-84.6248464982
20
38.4323929327
30
0.0000000000
10
-84.6507134740
20
38.4284242546
30
0.0000000000
10
-84.6705812306
20
38.4259272062
30
0.0000000000
10
-84.6864224951
20
38.4232429242
30
0.0000000000
10
-84.6934647567
20
38.4238301907
30
0.0000000000
10
-84.6995808900
20
38.4221576614
30
0.0000000000
10
-84.6997435435
20
38.4231843632
30
0.0000000000
11
-84.2234355088
21
38.4999999928
31
0.0000000000
11
-84.2769195149
21
38.4905773960
31
0.0000000000
11
-84.3296592620
21
38.4813800975
31
0.0000000000
11
-84.3810057027
21
38.4725212884
31
0.0000000000
11
-84.4303269360
21
38.4641099907
31
0.0000000000
11
-84.4770159842
21
38.4562497189
31
0.0000000000
11
-84.5204982630
21
38.4490372064
31
0.0000000000
11
-84.5602386526
21
38.4425612148
31
0.0000000000
11
-84.5957480832
21
38.4369014416
31
0.0000000000
11
-84.6265895536
21
38.4321275394
31
0.0000000000
11
-84.6523835098
21
38.4282982588
31
0.0000000000
11
-84.6728125153
21
38.4254607253
31
0.0000000000
11
-84.6876251581
21
38.4236498593
31
0.0000000000
11
-84.6966391448
21
38.4228879464
31
0.0000000000
11
-84.6997435435
21
38.4231843632
31
0.0000000000
0
SPLINE
5
3E6
100
AcDbEntity
8
0
100
AcDbSpline
62
9
6
CONTINUOUS
70
0
71
3
72
17
73
13
74
11
42
0.0000001000
43
0.0000001000
44
0.0000000001
12
0.1751823752
22
-0.9897205912
32
0.0000000000
13
0.0000000301
23
-1.0051048270
33
0.0000000000
40
0.0000000000
40
0.0000000000
40
0.0000000000
40
0.0000000000
40
0.0995733890
40
0.1992523495
40
0.2990268326
40
0.3988971457
40
0.4988604737
40
0.5989148937
40
0.6990585638
40
0.7992886140
40
0.8996055712
40
1.0000000000
40
1.0000000000
40
1.0000000000
40
1.0000000000
10
-84.2234355101
20
38.5000000000
30
0.0000000000
10
-84.2176210092
20
38.4671500555
30
0.0000000000
10
-84.2065625847
20
38.4013117512
30
0.0000000000
10
-84.1917024709
20
38.3022305867
30
0.0000000000
10
-84.1785688457
20
38.2028051574
30
0.0000000000
10
-84.1671691817
20
38.1030702199
30
0.0000000000
10
-84.1575098741
20
38.0030574653
30
0.0000000000
10
-84.1495967971
20
37.9027995498
30
0.0000000000
10
-84.1434351848
20
37.8023292605
30
0.0000000000
10
-84.1390295916
20
37.7016785369
30
0.0000000000
10
-84.1363840533
20
37.6008824573
30
0.0000000000
10
-84.1357961272
20
37.5336356417
30
0.0000000000
10
-84.1357961262
20
37.5000000000
30
0.0000000000
11
-84.2234355101
21
38.5000000000
31
0.0000000000
11
-84.2068572864
21
38.4013009223
31
0.0000000000
11
-84.1919970083
21
38.3022213164
31
0.0000000000
11
-84.1788637075
21
38.2028011984
31
0.0000000000
11
-84.1674641500
21
38.1030704541
31
0.0000000000
11
-84.1578049165
21
38.0030622134
31
0.0000000000
11
-84.1498918437
21
37.9028088403
31
0.0000000000
11
-84.1437301437
21
37.8023427288
31
0.0000000000
11
-84.1393244470
21
37.7016974039
31
0.0000000000
11
-84.1366786329
21
37.6009030658
31
0.0000000000
11
-84.1357961262
21
37.5000000000
31
0.0000000000
0
SPLINE
5
3E7
100
AcDbEntity
8
0
100
AcDbSpline
62
9
6
CONTINUOUS
70
0
71
3
72
21
73
17
74
15
42
0.0000001000
43
0.0000001000
44
0.0000000001
12
-0.4912747153
22
-0.0007793532
32
0.0000000000
13
-0.0425101535
23
0.4894326717
33
0.0000000000
40
0.0000000000
40
0.0000000000
40
0.0000000000
40
0.0000000000
40
0.1125640021
40
0.2235223920
40
0.3315113648
40
0.4352036869
40
0.5333249804
40
0.6246693608
40
0.7081142305
40
0.7826340443
40
0.8473128916
40
0.9013557363
40
0.9440981800
40
0.9750146476
40
0.9937249462
40
1.0000000000
40
1.0000000000
40
1.0000000000
40
1.0000000000
10
-84.1357961391
20
37.5000000000
30
0.0000000000
10
-84.1542294218
20
37.4999707576
30
0.0000000000
10
-84.1908330569
20
37.4999162204
30
0.0000000000
10
-84.2451208139
20
37.4998461650
30
0.0000000000
10
-84.2979556977
20
37.4997883742
30
0.0000000000
10
-84.3486886702
20
37.4997428254
30
0.0000000000
10
-84.3966950626
20
37.4997108795
30
0.0000000000
10
-84.4413887884
20
37.4996886019
30
0.0000000000
10
-84.4822076931
20
37.4996893156
30
0.0000000000
10
-84.5186912271
20
37.4996704563
30
0.0000000000
10
-84.5502644965
20
37.4997625370
30
0.0000000000
10
-84.5769096490
20
37.4995825803
30
0.0000000000
10
-84.5972863338
20
37.5001766130
30
0.0000000000
10
-84.6136440932
20
37.4989587215
30
0.0000000000
10
-84.6206144639
20
37.5012672386
30
0.0000000000
10
-84.6269808200
20
37.4989762612
30
0.0000000000
10
-84.6270697379
20
37.5000000000
30
0.0000000000
11
-84.1357961391
21
37.5000000000
31
0.0000000000
11
-84.1910959955
21
37.4999176805
31
0.0000000000
11
-84.2456070701
21
37.4998473483
31
0.0000000000
11
-84.2986593570
21
37.4997893727
31
0.0000000000
11
-84.3496008170
21
37.4997440337
31
0.0000000000
11
-84.3978053772
21
37.4997115304
31
0.0000000000
11
-84.4426806139
21
37.4996919905
31
0.0000000000
11
-84.4836750196
21
37.4996854811
31
0.0000000000
11
-84.5202847653
21
37.4996920118
31
0.0000000000
11
-84.5520598816
21
37.4997115424
31
0.0000000000
11
-84.5786097784
21
37.4997439901
31
0.0000000000
11
-84.5996080379
21
37.4997892301
31
0.0000000000
11
-84.6147964256
21
37.4998471040
31
0.0000000000
11
-84.6239880647
21
37.4999174290
31
0.0000000000
11
-84.6270697379
21
37.5000000000
31
0.0000000000
0
SPLINE
5
3E8
100
AcDbEntity
8
0
100
AcDbSpline
62
9
6
CONTINUOUS
70
0
71
3
72
40
73
36
74
34
42
0.0000001000
43
0.0000001000
44
0.0000000001
12
0.1107689510
22
-75.9999192801
32
0.0000000000
13
0.0000000000
23
-76.0000000022
33
0.0000000000
40
0.0000000000
40
0.0000000000
40
0.0000000000
40
0.0000000000
40
0.0069480801
40
0.0145345803
40
0.0228841780
40
0.0319926797
40
0.0418731424
40
0.0525695718
40
0.0641208338
40
0.0765763162
40
0.0899935934
40
0.1044379012
40
0.1199821833
40
0.1367067586
40
0.1546992788
40
0.1740548938
40
0.1948766759
40
0.2172756849
40
0.2413714020
40
0.2672923745
40
0.2951769121
40
0.3251738286
40
0.3574432394
40
0.3921574237
40
0.4295017549
40
0.4696756971
40
0.5128938810
40
0.5593872632
40
0.6094043761
40
0.6632126706
40
0.7210999665
40
0.7833760132
40
0.8503741741
40
0.9224532391
40
1.0000000000
40
1.0000000000
40
1.0000000000
40
1.0000000000
10
-84.1357961262
20
37.5000000000
30
0.0000000000
10
-84.1355395824
20
37.3239821573
30
0.0000000000
10
-84.1359849271
20
36.9557725080
30
0.0000000000
10
-84.1357223169
20
36.3760401251
30
0.0000000000
10
-84.1358230717
20
35.7415768968
30
0.0000000000
10
-84.1357863695
20
35.0490000026
30
0.0000000000
10
-84.1357992327
20
34.2969700227
30
0.0000000000
10
-84.1357948416
20
33.4830567868
30
0.0000000000
10
-84.1357963107
20
32.6039097177
30
0.0000000000
10
-84.1357958269
20
31.6558345042
30
0.0000000000
10
-84.1357959843
20
30.6344687972
30
0.0000000000
10
-84.1357959336
20
29.5348534963
30
0.0000000000
10
-84.1357959498
20
28.3514533092
30
0.0000000000
10
-84.1357959446
20
27.0781650761
30
0.0000000000
10
-84.1357959462
20
25.7083230782
30
0.0000000000
10
-84.1357959457
20
24.2346851744
30
0.0000000000
10
-84.1357959459
20
22.6494162193
30
0.0000000000
10
-84.1357959458
20
20.9440646759
30
0.0000000000
10
-84.1357959459
20
19.1095336446
30
0.0000000000
10
-84.1357959459
20
17.1360358894
30
0.0000000000
10
-84.1357959459
20
15.0130410840
30
0.0000000000
10
-84.1357959459
20
12.7292191741
30
0.0000000000
10
-84.1357959459
20
10.2723795473
30
0.0000000000
10
-84.1357959459
20
7.6294054137
30
0.0000000000
10
-84.1357959459
20
4.7861831518
30
0.0000000000
10
-84.1357959459
20
1.7275262327
30
0.0000000000
10
-84.1357959459
20
-1.5629066439
30
0.0000000000
10
-84.1357959459
20
-5.1026998472
30
0.0000000000
10
-84.1357959459
20
-8.9107758498
30
0.0000000000
10
-84.1357959459
20
-13.0074976663
30
0.0000000000
10
-84.1357959459
20
-17.4147791389
30
0.0000000000
10
-84.1357959459
20
-22.1562038938
30
0.0000000000
10
-84.1357959459
20
-27.2571534666
30
0.0000000000
10
-84.1357959459
20
-32.7449611322
30
0.0000000000
10
-84.1357959459
20
-36.5354820561
30
0.0000000000
10
-84.1357959459
20
-38.5000000000
30
0.0000000000
11
-84.1357961262
21
37.5000000000
31
0.0000000000
11
-84.1358254798
21
36.9719459119
31
0.0000000000
11
-84.1357870490
21
36.3953718969
31
0.0000000000
11
-84.1357985924
21
35.7608024765
31
0.0000000000
11
-84.1357951646
21
35.0685563439
31
0.0000000000
11
-84.1357961749
21
34.3176411793
31
0.0000000000
11
-84.1357958790
21
33.5047125473
31
0.0000000000
11
-84.1357959653
21
32.6268166332
31
0.0000000000
11
-84.1357959402
21
31.6801999727
31
0.0000000000
11
-84.1357959475
21
30.6604869067
31
0.0000000000
11
-84.1357959454
21
29.5627195121
31
0.0000000000
11
-84.1357959460
21
28.3813540701
31
0.0000000000
11
-84.1357959458
21
27.1102863455
31
0.0000000000
11
-84.1357959459
21
25.7428548129
31
0.0000000000
11
-84.1357959459
21
24.2718280762
31
0.0000000000
11
-84.1357959459
21
22.6893726341
31
0.0000000000
11
-84.1357959459
21
20.9870479476
31
0.0000000000
11
-84.1357959459
21
19.1557734460
31
0.0000000000
11
-84.1357959459
21
17.1857795402
31
0.0000000000
11
-84.1357959459
21
15.0665546820
31
0.0000000000
11
-84.1357959459
21
12.7867890299
31
0.0000000000
11
-84.1357959459
21
10.3343138105
31
0.0000000000
11
-84.1357959459
21
7.6960358014
31
0.0000000000
11
-84.1357959459
21
4.8578666292
31
0.0000000000
11
-84.1357959459
21
1.8046470246
31
0.0000000000
11
-84.1357959459
21
-1.4799349559
31
0.0000000000
11
-84.1357959459
21
-5.0134320005
31
0.0000000000
11
-84.1357959459
21
-8.8147325853
31
0.0000000000
11
-84.1357959459
21
-12.9041629636
31
0.0000000000
11
-84.1357959459
21
-17.3035974498
31
0.0000000000
11
-84.1357959459
21
-22.0365770032
31
0.0000000000
11
-84.1357959459
21
-27.1284372285
31
0.0000000000
11
-84.1357959459
21
-32.6064461683
31
0.0000000000
11
-84.1357959459
21
-38.5000000000
31
0.0000000000
0
ENDSEC
0
SECTION
2
OBJECTS
0
DICTIONARY
5
C
100
AcDbDictionary
280
0
281
1
3
ACAD_GROUP
350
D
3
ACAD_MLINESTYLE
350
17
3
ACAD_LAYOUT
350
1A
3
ACAD_PLOTSETTINGS
350
19
3
ACAD_PLOTSTYLENAME
350
E
0
DICTIONARY
5
D
102
{ACAD_REACTORS
330
C
102
}
100
AcDbDictionary
280
0
281
1
0
ACDBDICTIONARYWDFLT
5
E
102
{ACAD_REACTORS
330
C
102
}
100
AcDbDictionary
281
1
3
Normal
350
F
100
AcDbDictionaryWithDefault
340
F
0
DICTIONARY
5
17
102
{ACAD_REACTORS
330
C
102
}
100
AcDbDictionary
280
0
281
1
3
Standard
350
18
0
DICTIONARY
5
19
102
{ACAD_REACTORS
330
C
102
}
100
AcDbDictionary
281
1
0
DICTIONARY
5
1A
102
{ACAD_REACTORS
330
C
102
}
100
AcDbDictionary
281
1
3
Layout1
350
1E
3
Model
350
22
0
ACDBPLACEHOLDER
5
F
102
{ACAD_REACTORS
330
E
102
}
0
MLINESTYLE
5
18
102
{ACAD_REACTORS
330
17
102
}
100
AcDbMlineStyle
2
STANDARD
70
0
3

62
256
51
90.0
52
90.0
71
2
49
0.5
62
256
6
BYLAYER
49
-0.5
62
256
6
BYLAYER
0
LAYOUT
5
1E
102
{ACAD_REACTORS
330
1A
102
}
100
AcDbPlotSettings
1

2

4

6

40
0.0
41
0.0
42
0.0
43
0.0
44
0.0
45
0.0
46
0.0
47
0.0
48
0.0
49
0.0
140
0.0
141
0.0
142
1.0
143
1.0
70
0
72
0
73
0
74
0
7

75
0
147
1.0
148
0.0
149
0.0
100
AcDbLayout
1
Layout1
70
0
71
0
10
0.0
20
0.0
11
0.0
21
0.0
12
0.0
22
0.0
32
0.0
14
0.0
24
0.0
34
0.0
15
0.0
25
0.0
35
0.0
146
0.0
13
0.0
23
0.0
33
0.0
16
0.0
26
0.0
36
0.0
17
0.0
27
0.0
37
0.0
76
0
330
1B
331
0
345
0
346
0
0
LAYOUT
5
22
102
{ACAD_REACTORS
330
1A
102
}
100
AcDbPlotSettings
1

2

4

6

40
0.0
41
0.0
42
0.0
43
0.0
44
0.0
45
0.0
46
0.0
47
0.0
48
0.0
49
0.0
140
0.0
141
0.0
142
1.0
143
1.0
70
0
72
0
73
0
74
0
7

75
0
147
1.0
148
0.0
149
0.0
100
AcDbLayout
1
Model
70
0
71
0
10
0.0
20
0.0
11
0.0
21
0.0
12
0.0
22
0.0
32
0.0
14
0.0
24
0.0
34
0.0
15
0.0
25
0.0
35
0.0
146
0.0
13
0.0
23
0.0
33
0.0
16
0.0
26
0.0
36
0.0
17
0.0
27
0.0
37
0.0
76
0
330
1F
331
0
345
0
346
0
0
ENDSEC
0
EOF
