  0
SECTION
  2
HEADER
  9
$ACADVER
  1
AC1024
  9
$DWGCODEPAGE
  3
ANSI_1252
  9
$EXTMAX
 10
558.8
 20
431.8
 30
0.0
  9
$EXTMIN
 10
0.0
 20
0.0
 30
0.0
  9
$LIMMIN
 10
0.0
 20
0.0
  9
$LIMMAX
 10
558.8
 20
431.8
  9
$VIEWCTR
 10
279.4
 20
215.9
  9
$VIEWSIZE
 40
431.8
  9
$CLAYER
  8
0
  9
$LTSCALE
 40
30.734
  9
$CELTYPE
  6
BYLAYER
  9
$DIMSCALE
 40
1.0
  9
$DIMASZ
 40
3.0
  9
$DIMEXO
 40
0.5
  9
$DIMDLI
 40
21.2344
  9
$DIMEXE
 40
1.5
  9
$DIMCEN
 40
5.0292
  9
$DIMLFAC
 40
1.0
  9
$DIMBLK
  1
_FILLED
  9
$DIMALT
 70
0
  9
$DIMALTF
 40
0.0393700787
  9
$DIMTXT
 40
3.0
  9
$DIMTOL
 70
1
  9
$DIMLIM
 70
0
  9
$DIMTFAC
 40
1.0
  9
$DIMTP
 40
0.01
  9
$DIMTM
 40
0.01
  9
$DIMGAP
 40
0.625
  9
$DIMDSEP
 70
44
  9
$AUNITS
 70
0
  9
$PDMODE
 70
3
  9
$PDSIZE
 40
3.0
  9
$HANDSEED
  5
4B7
  9
$TILEMODE
 70
1
  9
$MEASUREMENT
 70
1
  9
$INSUNITS
 70
4
  0
ENDSEC
  0
SECTION
  2
CLASSES
  0
CLASS
  1
ACDBDICTIONARYWDFLT
  2
AcDbDictionaryWithDefault
  3
AutoCAD 2000
 90
0
 91
1
280
0
281
0
  0
CLASS
  1
ACDBPLACEHOLDER
  2
AcDbPlaceHolder
  3
AutoCAD 2000
 90
0
 91
1
280
0
281
0
  0
CLASS
  1
LAYOUT
  2
AcDbLayout
  3
AutoCAD 2000
 90
0
 91
0
280
0
281
0
  0
ENDSEC
  0
SECTION
  2
TABLES
  0
TABLE
  2
VPORT
  5
8
100
AcDbSymbolTable
 70
2
  0
VPORT
  5
1F4
100
AcDbSymbolTableRecord
100
AcDbViewportTableRecord
  2
*ACTIVE
 70
0
 10
0.0
 20
0.0
 11
1.0
 21
1.0
 12
279.4
 22
215.9
 13
0.0
 23
0.0
 14
1.0
 24
1.0
 15
0.0
 25
0.0
 16
0.0
 26
0.0
 36
1.0
 17
0.0
 27
0.0
 37
0.0
 40
431.8
 41
1.2941176471
 42
50.0
 43
0.0
 44
0.0
 50
0.0
 51
0.0
 71
0
 72
100
 73
1
 74
1
 75
0
 76
0
 77
0
 78
0
  0
ENDTAB
  0
TABLE
  2
LTYPE
  5
5
100
AcDbSymbolTable
 70
6
  0
LTYPE
  5
14
100
AcDbSymbolTableRecord
100
AcDbLinetypeTableRecord
  2
BYBLOCK
 70
0
  3

 72
65
 73
0
 40
0.0
  0
LTYPE
  5
15
100
AcDbSymbolTableRecord
100
AcDbLinetypeTableRecord
  2
BYLAYER
 70
0
  3

 72
65
 73
0
 40
0.0
  0
LTYPE
  5
16
100
AcDbSymbolTableRecord
100
AcDbLinetypeTableRecord
  2
CONTINUOUS
 70
64
  3
Solid line
 72
65
 73
0
 40
0.0
  0
LTYPE
  5
1F5
100
AcDbSymbolTableRecord
100
AcDbLinetypeTableRecord
  2
CENTER
 70
64
  3
____ _ ____ _ ____ _ ____ _ ____ _ ____ _ ____
 72
65
 73
4
 40
0.6
 49
0.375
 74
0
 49
-0.075
 74
0
 49
0.075
 74
0
 49
-0.075
 74
0
  0
LTYPE
  5
1F6
100
AcDbSymbolTableRecord
100
AcDbLinetypeTableRecord
  2
HIDDEN
 70
64
  3
- - - - - - - - - - - - - - - - - - - -
 72
65
 73
2
 40
0.2
 49
0.1
 74
0
 49
-0.1
 74
0
  0
LTYPE
  5
1F7
100
AcDbSymbolTableRecord
100
AcDbLinetypeTableRecord
  2
PHANTOM
 70
64
  3
_____ _ _ _____ _ _ _____ _ _ _____
 72
65
 73
6
 40
0.8
 49
0.45
 74
0
 49
-0.05
 74
0
 49
0.1
 74
0
 49
-0.05
 74
0
 49
0.1
 74
0
 49
-0.05
 74
0
  0
LTYPE
  5
1F8
100
AcDbSymbolTableRecord
100
AcDbLinetypeTableRecord
  2
DOT
 70
64
  3
. . . . . . . . . . . . . . . . . . . .
 72
65
 73
2
 40
0.2
 49
0.1
 74
0
 49
-0.1
 74
0
  0
LTYPE
  5
1F9
100
AcDbSymbolTableRecord
100
AcDbLinetypeTableRecord
  2
DASHED
 70
64
  3
- - - - - - - - - - - - - - - - - - - -
 72
65
 73
2
 40
0.2
 49
0.1
 74
0
 49
-0.1
 74
0
  0
ENDTAB
  0
TABLE
  2
LAYER
  5
2
100
AcDbSymbolTable
 70
36
  0
LAYER
  5
10
100
AcDbSymbolTableRecord
100
AcDbLayerTableRecord
  2
0
 70
0
 62
7
  6
CONTINUOUS
370
-3
390
F
  0
LAYER
  5
1FA
100
AcDbSymbolTableRecord
100
AcDbLayerTableRecord
  2
DEFAULT_1
 70
0
 62
7
  6
CENTER
370
-3
390
F
  0
LAYER
  5
1FB
100
AcDbSymbolTableRecord
100
AcDbLayerTableRecord
  2
DEFAULT_2
 70
0
 62
7
  6
HIDDEN
370
-3
390
F
  0
LAYER
  5
1FC
100
AcDbSymbolTableRecord
100
AcDbLayerTableRecord
  2
DEFAULT_3
 70
0
 62
7
  6
PHANTOM
370
-3
390
F
  0
LAYER
  5
1FD
100
AcDbSymbolTableRecord
100
AcDbLayerTableRecord
  2
ASSI
 70
0
 62
7
  6
CONTINUOUS
370
-3
390
F
  0
LAYER
  5
1FE
100
AcDbSymbolTableRecord
100
AcDbLayerTableRecord
  2
COLOR5
 70
0
 62
7
  6
CONTINUOUS
370
-3
390
F
  0
LAYER
  5
1FF
100
AcDbSymbolTableRecord
100
AcDbLayerTableRecord
  2
COORDINATE
 70
0
 62
7
  6
CONTINUOUS
370
-3
390
F
  0
LAYER
  5
200
100
AcDbSymbolTableRecord
100
AcDbLayerTableRecord
  2
COORD_ORIGINE
 70
0
 62
7
  6
CONTINUOUS
370
-3
390
F
  0
LAYER
  5
201
100
AcDbSymbolTableRecord
100
AcDbLayerTableRecord
  2
COPY
 70
0
 62
7
  6
CONTINUOUS
370
-3
390
F
  0
LAYER
  5
202
100
AcDbSymbolTableRecord
100
AcDbLayerTableRecord
  2
CURVE
 70
0
 62
7
  6
CONTINUOUS
370
-3
390
F
  0
LAYER
  5
203
100
AcDbSymbolTableRecord
100
AcDbLayerTableRecord
  2
DRAFT
 70
0
 62
7
  6
CONTINUOUS
370
-3
390
F
  0
LAYER
  5
204
100
AcDbSymbolTableRecord
100
AcDbLayerTableRecord
  2
IGES
 70
0
 62
7
  6
CONTINUOUS
370
-3
390
F
  0
LAYER
  5
205
100
AcDbSymbolTableRecord
100
AcDbLayerTableRecord
  2
IGS
 70
0
 62
7
  6
CONTINUOUS
370
-3
390
F
  0
LAYER
  5
206
100
AcDbSymbolTableRecord
100
AcDbLayerTableRecord
  2
NOTE
 70
0
 62
7
  6
CONTINUOUS
370
-3
390
F
  0
LAYER
  5
207
100
AcDbSymbolTableRecord
100
AcDbLayerTableRecord
  2
PIANI
 70
0
 62
7
  6
CONTINUOUS
370
-3
390
F
  0
LAYER
  5
208
100
AcDbSymbolTableRecord
100
AcDbLayerTableRecord
  2
PIANI_ORIGINE
 70
0
 62
7
  6
CONTINUOUS
370
-3
390
F
  0
LAYER
  5
209
100
AcDbSymbolTableRecord
100
AcDbLayerTableRecord
  2
PIANI_RIFERIMENTO
 70
0
 62
7
  6
CONTINUOUS
370
-3
390
F
  0
LAYER
  5
20A
100
AcDbSymbolTableRecord
100
AcDbLayerTableRecord
  2
PUNTI
 70
0
 62
7
  6
CONTINUOUS
370
-3
390
F
  0
LAYER
  5
20B
100
AcDbSymbolTableRecord
100
AcDbLayerTableRecord
  2
RACCORDO
 70
0
 62
7
  6
CONTINUOUS
370
-3
390
F
  0
LAYER
  5
20C
100
AcDbSymbolTableRecord
100
AcDbLayerTableRecord
  2
SMUSSO
 70
0
 62
7
  6
CONTINUOUS
370
-3
390
F
  0
LAYER
  5
20D
100
AcDbSymbolTableRecord
100
AcDbLayerTableRecord
  2
SNAPLINE
 70
0
 62
7
  6
CONTINUOUS
370
-3
390
F
  0
LAYER
  5
20E
100
AcDbSymbolTableRecord
100
AcDbLayerTableRecord
  2
SOLIDO
 70
0
 62
7
  6
CONTINUOUS
370
-3
390
F
  0
LAYER
  5
20F
100
AcDbSymbolTableRecord
100
AcDbLayerTableRecord
  2
SUPERFICI
 70
0
 62
7
  6
CONTINUOUS
370
-3
390
F
  0
LAYER
  5
210
100
AcDbSymbolTableRecord
100
AcDbLayerTableRecord
  2
TESTO
 70
0
 62
7
  6
CONTINUOUS
370
-3
390
F
  0
LAYER
  5
211
100
AcDbSymbolTableRecord
100
AcDbLayerTableRecord
  2
TRASH
 70
0
 62
7
  6
CONTINUOUS
370
-3
390
F
  0
LAYER
  5
212
100
AcDbSymbolTableRecord
100
AcDbLayerTableRecord
  2
XSEC_DATUMS
 70
0
 62
7
  6
CONTINUOUS
370
-3
390
F
  0
ENDTAB
  0
TABLE
  2
STYLE
  5
3
100
AcDbSymbolTable
 70
1
  0
STYLE
  5
11
100
AcDbSymbolTableRecord
100
AcDbTextStyleTableRecord
  2
STANDARD
 70
0
 40
0.0
 41
0.8
 50
0.0
 71
0
 42
0.2
  3
txt
  4

  0
STYLE
  5
213
100
AcDbSymbolTableRecord
100
AcDbTextStyleTableRecord
  2
TEXTSTYLE_1
 70
0
 40
0.0
 41
0.8
 50
0.0
 71
0
 42
0.2
  3
gdt
  4

  0
ENDTAB
  0
TABLE
  2
VIEW
  5
6
100
AcDbSymbolTable
 70
0
  0
ENDTAB
  0
TABLE
  2
UCS
  5
7
100
AcDbSymbolTable
 70
0
  0
ENDTAB
  0
TABLE
  2
APPID
  5
9
100
AcDbSymbolTable
 70
1
  0
APPID
  5
214
100
AcDbSymbolTableRecord
100
AcDbRegAppTableRecord
  2
ACAD
 70
0
  0
ENDTAB
  0
TABLE
  2
BLOCK_RECORD
  5
1
100
AcDbSymbolTable
 70
0
  0
BLOCK_RECORD
  5
215
100
AcDbSymbolTableRecord
100
AcDbBlockTableRecord
  2
*Model_Space
  0
BLOCK_RECORD
  5
216
100
AcDbSymbolTableRecord
100
AcDbBlockTableRecord
  2
*Paper_Space
  0
BLOCK_RECORD
  5
217
100
AcDbSymbolTableRecord
100
AcDbBlockTableRecord
  2
_FILLED
  0
BLOCK_RECORD
  5
218
100
AcDbSymbolTableRecord
100
AcDbBlockTableRecord
  2
*D0
  0
BLOCK_RECORD
  5
219
100
AcDbSymbolTableRecord
100
AcDbBlockTableRecord
  2
*D1
  0
BLOCK_RECORD
  5
21A
100
AcDbSymbolTableRecord
100
AcDbBlockTableRecord
  2
*D2
  0
BLOCK_RECORD
  5
21B
100
AcDbSymbolTableRecord
100
AcDbBlockTableRecord
  2
*D3
  0
ENDTAB
  0
TABLE
  2
DIMSTYLE
  5
A
100
AcDbSymbolTable
 70
1
100
AcDbDimStyleTable
 71
0
  0
DIMSTYLE
105
21C
100
AcDbSymbolTableRecord
100
AcDbDimStyleTableRecord
  2
STANDARD
 70
0
  3

  4

 40
1.0
 41
3.0
 42
0.5
 43
0.38
 44
1.5
 45
0.0
 46
0.0
 47
0.01
 48
0.01
140
3.0
141
0.09
142
0.0
143
25.4
144
1.0
145
0.0
146
1.0
147
0.625
 71
1
 72
0
 73
0
 74
0
 75
0
 76
0
 77
1
 78
8
 79
2
170
0
171
1
172
0
173
0
174
0
175
0
176
0
177
0
178
0
270
2
179
2
271
2
272
2
273
2
274
2
275
0
280
0
281
0
282
0
283
1
284
8
285
0
286
0
287
3
288
0
340
11
278
44
341
217
342
217
343
217
344
217
  0
DIMSTYLE
105
21D
100
AcDbSymbolTableRecord
100
AcDbDimStyleTableRecord
  2
DIMSTYLE_1
 70
0
  3

  4

 40
1.0
 41
3.0
 42
0.5
 43
0.38
 44
1.5
 45
0.0
 46
0.0
 47
0.0
 48
0.0
140
3.0
141
0.09
142
0.0
143
25.4
144
1.0
145
0.0
146
1.0
147
0.75
 71
0
 72
0
 73
0
 74
0
 75
0
 76
0
 77
1
 78
8
 79
2
170
0
171
1
172
0
173
0
174
0
175
0
176
0
177
0
178
0
270
2
179
2
271
2
272
2
273
2
274
2
275
0
280
0
281
0
282
0
283
1
284
8
285
0
286
0
287
3
288
0
340
11
278
44
341
217
342
217
343
217
344
217
  0
ENDTAB
  0
ENDSEC
  0
SECTION
  2
BLOCKS
  0
BLOCK
  5
20
100
AcDbEntity
  8
0
100
AcDbBlockBegin
  2
*Model_Space
 70
0
 10
0.0
 20
0.0
 30
0.0
  3
*Model_Space
  1

  0
ENDBLK
  5
21
100
AcDbEntity
  8
0
100
AcDbBlockEnd
  0
BLOCK
  5
1C
100
AcDbEntity
  8
0
100
AcDbBlockBegin
  2
*Paper_Space
 70
0
 10
0.0
 20
0.0
 30
0.0
  3
*Paper_Space
  1

  0
ENDBLK
  5
1D
100
AcDbEntity
  8
0
100
AcDbBlockEnd
  0
BLOCK
  5
21E
100
AcDbEntity
  8
0
100
AcDbBlockBegin
  2
_FILLED
 70
64
 10
0.0
 20
0.0
  3
_FILLED
  1

  0
SOLID
  5
21F
100
AcDbEntity
  8
0
  6
BYBLOCK
 62
0
100
AcDbTrace
 10
0.0
 20
0.0
 11
-1.0
 21
0.3166666667
 12
-1.0
 22
-0.3166666667
 13
-1.0
 23
-0.3166666667
  0
ENDBLK
  5
220
100
AcDbEntity
  8
0
  6
BYBLOCK
 62
0
100
AcDbBlockEnd
  0
BLOCK
  5
221
100
AcDbEntity
  8
0
100
AcDbBlockBegin
 62
7
  6
CONTINUOUS
  2
*D0
 70
65
 10
0.0
 20
0.0
  3
*D0
  1

  0
LINE
  5
222
100
AcDbEntity
  8
0
100
AcDbLine
 62
7
  6
CONTINUOUS
 10
-92.1793272325
 20
23.3112971667
 11
-92.1793272325
 21
62.1624240971
  0
LINE
  5
223
100
AcDbEntity
  8
0
100
AcDbLine
 62
7
  6
CONTINUOUS
 10
-120.9793272325
 20
22.7
 11
-120.9793272325
 21
62.1624240971
  0
LINE
  5
224
100
AcDbEntity
  8
0
100
AcDbLine
 62
7
  6
CONTINUOUS
 10
-92.1793272325
 20
60.6624240971
 11
-106.5793272325
 21
60.6624240971
  0
LINE
  5
225
100
AcDbEntity
  8
0
100
AcDbLine
 62
7
  6
CONTINUOUS
 10
-120.9793272325
 20
60.6624240971
 11
-106.5793272325
 21
60.6624240971
  0
INSERT
  5
226
100
AcDbEntity
  8
0
100
AcDbBlockReference
 62
7
  6
CONTINUOUS
  2
_FILLED
 10
-92.1793272325
 20
60.6624240971
 41
3.0
 42
3.0
 43
3.0
  0
INSERT
  5
227
100
AcDbEntity
  8
0
100
AcDbBlockReference
 62
7
  6
CONTINUOUS
  2
_FILLED
 10
-120.9793272325
 20
60.6624240971
 41
3.0
 42
3.0
 43
3.0
 50
180.0
  0
ENDBLK
  5
228
100
AcDbEntity
  8
0
  6
BYBLOCK
 62
0
100
AcDbBlockEnd
  0
BLOCK
  5
229
100
AcDbEntity
  8
0
100
AcDbBlockBegin
 62
7
  6
CONTINUOUS
  2
*D1
 70
65
 10
0.0
 20
0.0
  3
*D1
  1

  0
LINE
  5
22A
100
AcDbEntity
  8
0
100
AcDbLine
 62
7
  6
CONTINUOUS
 10
-99.1793272325
 20
43.0
 11
-99.1793272325
 21
52.0
  0
LINE
  5
22B
100
AcDbEntity
  8
0
100
AcDbLine
 62
7
  6
CONTINUOUS
 10
-120.9793272325
 20
22.7
 11
-120.9793272325
 21
52.0
  0
LINE
  5
22C
100
AcDbEntity
  8
0
100
AcDbLine
 62
7
  6
CONTINUOUS
 10
-99.1793272325
 20
50.5
 11
-110.0793272325
 21
50.5
  0
LINE
  5
22D
100
AcDbEntity
  8
0
100
AcDbLine
 62
7
  6
CONTINUOUS
 10
-120.9793272325
 20
50.5
 11
-110.0793272325
 21
50.5
  0
INSERT
  5
22E
100
AcDbEntity
  8
0
100
AcDbBlockReference
 62
7
  6
CONTINUOUS
  2
_FILLED
 10
-99.1793272325
 20
50.5
 41
3.0
 42
3.0
 43
3.0
  0
INSERT
  5
22F
100
AcDbEntity
  8
0
100
AcDbBlockReference
 62
7
  6
CONTINUOUS
  2
_FILLED
 10
-120.9793272325
 20
50.5
 41
3.0
 42
3.0
 43
3.0
 50
180.0
  0
ENDBLK
  5
230
100
AcDbEntity
  8
0
  6
BYBLOCK
 62
0
100
AcDbBlockEnd
  0
BLOCK
  5
231
100
AcDbEntity
  8
0
100
AcDbBlockBegin
 62
7
  6
CONTINUOUS
  2
*D2
 70
65
 10
0.0
 20
0.0
  3
*D2
  1

  0
LINE
  5
232
100
AcDbEntity
  8
0
100
AcDbLine
 62
7
  6
CONTINUOUS
 10
-73.5
 20
39.0
 11
-73.5
 21
52.0
  0
LINE
  5
233
100
AcDbEntity
  8
0
100
AcDbLine
 62
7
  6
CONTINUOUS
 10
73.5
 20
39.0
 11
73.5
 21
52.0
  0
LINE
  5
234
100
AcDbEntity
  8
0
100
AcDbLine
 62
7
  6
CONTINUOUS
 10
-73.5
 20
50.5
 11
0.0
 21
50.5
  0
LINE
  5
235
100
AcDbEntity
  8
0
100
AcDbLine
 62
7
  6
CONTINUOUS
 10
73.5
 20
50.5
 11
0.0
 21
50.5
  0
INSERT
  5
236
100
AcDbEntity
  8
0
100
AcDbBlockReference
 62
7
  6
CONTINUOUS
  2
_FILLED
 10
-73.5
 20
50.5
 41
3.0
 42
3.0
 43
3.0
 50
180.0
  0
INSERT
  5
237
100
AcDbEntity
  8
0
100
AcDbBlockReference
 62
7
  6
CONTINUOUS
  2
_FILLED
 10
73.5
 20
50.5
 41
3.0
 42
3.0
 43
3.0
  0
ENDBLK
  5
238
100
AcDbEntity
  8
0
  6
BYBLOCK
 62
0
100
AcDbBlockEnd
  0
BLOCK
  5
239
100
AcDbEntity
  8
0
100
AcDbBlockBegin
 62
7
  6
CONTINUOUS
  2
*D3
 70
65
 10
0.0
 20
0.0
  3
*D3
  1

  0
LINE
  5
23A
100
AcDbEntity
  8
0
100
AcDbLine
 62
7
  6
CONTINUOUS
 10
70.0
 20
42.5
 11
83.0
 21
42.5
  0
LINE
  5
23B
100
AcDbEntity
  8
0
100
AcDbLine
 62
7
  6
CONTINUOUS
 10
70.0
 20
-42.5
 11
83.0
 21
-42.5
  0
LINE
  5
23C
100
AcDbEntity
  8
0
100
AcDbLine
 62
7
  6
CONTINUOUS
 10
81.5
 20
42.5
 11
81.5
 21
0.0
  0
LINE
  5
23D
100
AcDbEntity
  8
0
100
AcDbLine
 62
7
  6
CONTINUOUS
 10
81.5
 20
-42.5
 11
81.5
 21
0.0
  0
INSERT
  5
23E
100
AcDbEntity
  8
0
100
AcDbBlockReference
 62
7
  6
CONTINUOUS
  2
_FILLED
 10
81.5
 20
42.5
 41
3.0
 42
3.0
 43
3.0
 50
90.0
  0
INSERT
  5
23F
100
AcDbEntity
  8
0
100
AcDbBlockReference
 62
7
  6
CONTINUOUS
  2
_FILLED
 10
81.5
 20
-42.5
 41
3.0
 42
3.0
 43
3.0
 50
270.0
  0
ENDBLK
  5
240
100
AcDbEntity
  8
0
  6
BYBLOCK
 62
0
100
AcDbBlockEnd
  0
ENDSEC
  0
SECTION
  2
ENTITIES
  0
DIMENSION
  5
241
100
AcDbEntity
  8
0
100
AcDbDimension
 62
7
  6
CONTINUOUS
  2
*D0
 10
-120.9793272325
 20
60.6624240971
 11
-110.9721843754
 21
60.6624240971
 70
160
 71
2
 72
2
 41
0.9
 42
28.8
  3
DIMSTYLE_1
100
AcDbAlignedDimension
 13
-92.1793272325
 23
22.8112971667
 14
-120.9793272325
 24
22.2
 50
180.0
100
AcDbRotatedDimension
  0
DIMENSION
  5
242
100
AcDbEntity
  8
0
100
AcDbDimension
 62
7
  6
CONTINUOUS
  2
*D1
 10
-120.9793272325
 20
50.5
 11
-114.1507558039
 21
50.5
 70
160
 71
2
 72
2
 41
0.9
 42
21.8
  3
DIMSTYLE_1
100
AcDbAlignedDimension
 13
-99.1793272325
 23
42.5
 14
-120.9793272325
 24
22.2
 50
180.0
100
AcDbRotatedDimension
  0
DIMENSION
  5
243
100
AcDbEntity
  8
0
100
AcDbDimension
 62
7
  6
CONTINUOUS
  2
*D2
 10
73.5
 20
50.5
 11
-3.2142857143
 21
50.5
 70
160
 71
2
 72
2
 41
0.9
 42
147.0
  3
DIMSTYLE_1
100
AcDbAlignedDimension
 13
-73.5
 23
38.5
 14
73.5
 24
38.5
100
AcDbRotatedDimension
  0
DIMENSION
  5
244
100
AcDbEntity
  8
0
100
AcDbDimension
 62
7
  6
CONTINUOUS
  2
*D3
 10
81.5
 20
-42.5
 11
81.5
 21
-2.25
 70
160
 71
2
 72
2
 41
0.9
 42
85.0
  3
DIMSTYLE_1
100
AcDbAlignedDimension
 13
69.5
 23
42.5
 14
69.5
 24
-42.5
 50
270.0
100
AcDbRotatedDimension
  0
LINE
  5
245
100
AcDbEntity
  8
DRAFT
100
AcDbLine
 62
7
  6
CONTINUOUS
 10
-73.5
 20
-38.5
 11
-73.5
 21
38.5
  0
LINE
  5
246
100
AcDbEntity
  8
ASSI
100
AcDbLine
 62
7
  6
CONTINUOUS
 10
-73.25
 20
-38.49
 11
-73.25
 21
37.5
  0
LINE
  5
247
100
AcDbEntity
  8
0
100
AcDbLine
 62
7
  6
CONTINUOUS
 10
-60.7694559627
 20
-42.5
 11
-60.8
 21
-42.4389072728
  0
LINE
  5
248
100
AcDbEntity
  8
DRAFT
100
AcDbLine
 62
7
  6
CONTINUOUS
 10
-60.7694559627
 20
-42.5
 11
-60.8
 21
-42.4389072728
  0
LINE
  5
249
100
AcDbEntity
  8
RACCORDO
100
AcDbLine
 62
250
  6
CONTINUOUS
 10
-69.5
 20
-42.2495416636
 11
-69.5
 21
-42.5
  0
LINE
  5
24A
100
AcDbEntity
  8
DRAFT
100
AcDbLine
 62
250
  6
CONTINUOUS
 10
-69.5
 20
42.3219583377
 11
-69.5
 21
42.5
  0
LINE
  5
24B
100
AcDbEntity
  8
RACCORDO
100
AcDbLine
 62
250
  6
CONTINUOUS
 10
-69.49
 20
-42.25
 11
-69.49
 21
-42.106676344
  0
LINE
  5
24C
100
AcDbEntity
  8
RACCORDO
100
AcDbLine
 62
250
  6
CONTINUOUS
 10
-69.4900001976
 20
42.1993909428
 11
-69.49
 21
42.1158322715
  0
LINE
  5
24D
100
AcDbEntity
  8
0
100
AcDbLine
 62
250
  6
CONTINUOUS
 10
-50.4000015335
 20
22.1186595763
 11
-50.4000533324
 21
-22.2
  0
LINE
  5
24E
100
AcDbEntity
  8
0
100
AcDbLine
 62
7
  6
CONTINUOUS
 10
-47.0
 20
22.2
 11
-47.0
 21
-22.2
  0
LINE
  5
24F
100
AcDbEntity
  8
RACCORDO
100
AcDbLine
 62
7
  6
CONTINUOUS
 10
-46.5
 20
-22.2
 11
-46.5
 21
22.2
  0
LINE
  5
250
100
AcDbEntity
  8
RACCORDO
100
AcDbLine
 62
250
  6
CONTINUOUS
 10
-45.5
 20
-22.2
 11
-45.5
 21
22.2
  0
LINE
  5
251
100
AcDbEntity
  8
RACCORDO
100
AcDbLine
 62
250
  6
CONTINUOUS
 10
-44.7
 20
24.0
 11
-44.7
 21
23.0
  0
LINE
  5
252
100
AcDbEntity
  8
RACCORDO
100
AcDbLine
 62
250
  6
CONTINUOUS
 10
-44.7
 20
-24.0
 11
-44.7
 21
-23.0
  0
LINE
  5
253
100
AcDbEntity
  8
0
100
AcDbLine
 62
250
  6
CONTINUOUS
 10
-44.7
 20
-24.5
 11
-44.7
 21
-27.9000533324
  0
LINE
  5
254
100
AcDbEntity
  8
0
100
AcDbLine
 62
250
  6
CONTINUOUS
 10
-44.7
 20
24.5
 11
-44.7
 21
26.0999691893
  0
LINE
  5
255
100
AcDbEntity
  8
0
100
AcDbLine
 62
250
  6
CONTINUOUS
 10
-48.5999630279
 20
22.2
 11
-48.6000133331
 21
-22.2
  0
LINE
  5
256
100
AcDbEntity
  8
0
100
AcDbLine
 62
250
  6
CONTINUOUS
 10
-44.6985183226
 20
27.8902914824
 11
-44.7
 21
26.0999691834
  0
LINE
  5
257
100
AcDbEntity
  8
0
100
AcDbLine
 62
250
  6
CONTINUOUS
 10
-42.7945160197
 20
27.900056359
 11
-42.7944811131
 21
26.0999326727
  0
LINE
  5
258
100
AcDbEntity
  8
0
100
AcDbLine
 62
7
  6
CONTINUOUS
 10
-64.8305440373
 20
-42.5
 11
-64.8
 21
-42.4389072728
  0
LINE
  5
259
100
AcDbEntity
  8
DRAFT
100
AcDbLine
 62
7
  6
CONTINUOUS
 10
-64.8305440373
 20
-42.5
 11
-64.8
 21
-42.4389072728
  0
LWPOLYLINE
  5
25A
100
AcDbEntity
  8
0
100
AcDbPolyline
 62
7
  6
CONTINUOUS
 90
3
 70
0
 43
0.3500000087
 10
-3.2142857319
 20
53.3928580139
 10
-2.357142799
 20
54.2500041443
 10
-2.357142799
 20
51.2500012146
  0
LINE
  5
25B
100
AcDbEntity
  8
DRAFT
100
AcDbLine
 62
7
  6
CONTINUOUS
 10
69.5
 20
-42.5
 11
64.8305440373
 21
-42.5
  0
LINE
  5
25C
100
AcDbEntity
  8
0
100
AcDbLine
 62
7
  6
CONTINUOUS
 10
-64.8305440373
 20
-42.5
 11
-60.7694559627
 21
-42.5
  0
LINE
  5
25D
100
AcDbEntity
  8
DRAFT
100
AcDbLine
 62
7
  6
CONTINUOUS
 10
60.7694559627
 20
-42.5
 11
-60.7694559627
 21
-42.5
  0
LINE
  5
25E
100
AcDbEntity
  8
0
100
AcDbLine
 62
7
  6
CONTINUOUS
 10
60.7694559627
 20
-42.5
 11
64.8305440373
 21
-42.5
  0
LINE
  5
25F
100
AcDbEntity
  8
DRAFT
100
AcDbLine
 62
7
  6
CONTINUOUS
 10
-64.8305440373
 20
-42.5
 11
-69.5
 21
-42.5
  0
LINE
  5
260
100
AcDbEntity
  8
0
100
AcDbLine
 62
7
  6
CONTINUOUS
 10
-64.8
 20
-42.4389072728
 11
-60.8
 21
-42.4389072728
  0
LINE
  5
261
100
AcDbEntity
  8
DRAFT
100
AcDbLine
 62
7
  6
CONTINUOUS
 10
-64.8
 20
-42.4389072728
 11
-60.8
 21
-42.4389072728
  0
LINE
  5
262
100
AcDbEntity
  8
0
100
AcDbLine
 62
7
  6
CONTINUOUS
 10
60.8
 20
-42.4389072728
 11
64.8
 21
-42.4389072728
  0
LINE
  5
263
100
AcDbEntity
  8
DRAFT
100
AcDbLine
 62
7
  6
CONTINUOUS
 10
60.8
 20
-42.4389072728
 11
64.8
 21
-42.4389072728
  0
LINE
  5
264
100
AcDbEntity
  8
RACCORDO
100
AcDbLine
 62
250
  6
CONTINUOUS
 10
31.8
 20
-42.3971656547
 11
-31.8
 21
-42.3971656547
  0
LINE
  5
265
100
AcDbEntity
  8
RACCORDO
100
AcDbLine
 62
250
  6
CONTINUOUS
 10
-69.5
 20
-42.3689346966
 11
-31.8
 21
-42.3689346966
  0
LINE
  5
266
100
AcDbEntity
  8
RACCORDO
100
AcDbLine
 62
250
  6
CONTINUOUS
 10
69.5
 20
-42.3689346966
 11
31.8
 21
-42.3689346966
  0
LINE
  5
267
100
AcDbEntity
  8
0
100
AcDbLine
 62
7
  6
CONTINUOUS
 10
-69.49
 20
-42.25
 11
-35.0
 21
-42.25
  0
LINE
  5
268
100
AcDbEntity
  8
0
100
AcDbLine
 62
7
  6
CONTINUOUS
 10
35.0
 20
-42.25
 11
69.49
 21
-42.25
  0
LINE
  5
269
100
AcDbEntity
  8
RACCORDO
100
AcDbLine
 62
250
  6
CONTINUOUS
 10
31.5428498098
 20
-42.2472113461
 11
-31.5428498098
 21
-42.2472113461
  0
LINE
  5
26A
100
AcDbEntity
  8
RACCORDO
100
AcDbLine
 62
7
  6
CONTINUOUS
 10
32.25
 20
-42.2
 11
-32.25
 21
-42.2
  0
LINE
  5
26B
100
AcDbEntity
  8
RACCORDO
100
AcDbLine
 62
7
  6
CONTINUOUS
 10
-34.5
 20
-42.0754493507
 11
34.5
 21
-42.0754493507
  0
LINE
  5
26C
100
AcDbEntity
  8
RACCORDO
100
AcDbLine
 62
250
  6
CONTINUOUS
 10
-39.9779914883
 20
-42.0749016835
 11
39.9779888113
 21
-42.0749060065
  0
LINE
  5
26D
100
AcDbEntity
  8
RACCORDO
100
AcDbLine
 62
250
  6
CONTINUOUS
 10
-39.9778663121
 20
-41.1789650482
 11
39.9778663121
 21
-41.1789650482
  0
LINE
  5
26E
100
AcDbEntity
  8
RACCORDO
100
AcDbLine
 62
7
  6
CONTINUOUS
 10
-35.0
 20
-42.25
 11
-35.0
 21
-42.0841768832
  0
LINE
  5
26F
100
AcDbEntity
  8
RACCORDO
100
AcDbLine
 62
250
  6
CONTINUOUS
 10
73.5
 20
-38.5
 11
73.2495416636
 21
-38.5
  0
LINE
  5
270
100
AcDbEntity
  8
RACCORDO
100
AcDbLine
 62
250
  6
CONTINUOUS
 10
-73.2495416636
 20
-38.5
 11
-73.5
 21
-38.5
  0
LINE
  5
271
100
AcDbEntity
  8
RACCORDO
100
AcDbLine
 62
250
  6
CONTINUOUS
 10
-73.25
 20
-38.49
 11
-73.1112594113
 21
-38.49
  0
LINE
  5
272
100
AcDbEntity
  8
RACCORDO
100
AcDbLine
 62
250
  6
CONTINUOUS
 10
73.25
 20
-38.49
 11
73.1112594113
 21
-38.49
  0
LINE
  5
273
100
AcDbEntity
  8
RACCORDO
100
AcDbLine
 62
250
  6
CONTINUOUS
 10
-31.8
 20
-42.3971656547
 11
-31.8
 21
-42.2
  0
LINE
  5
274
100
AcDbEntity
  8
RACCORDO
100
AcDbLine
 62
250
  6
CONTINUOUS
 10
-31.0
 20
-42.2
 11
-31.0
 21
-42.0754493507
  0
LINE
  5
275
100
AcDbEntity
  8
0
100
AcDbLine
 62
7
  6
CONTINUOUS
 10
45.010144
 20
-31.050007
 11
44.430122
 21
-31.050015
  0
LINE
  5
276
100
AcDbEntity
  8
0
100
AcDbLine
 62
7
  6
CONTINUOUS
 10
42.915039
 20
-31.050007
 11
42.335031
 21
-31.050015
  0
LINE
  5
277
100
AcDbEntity
  8
0
100
AcDbLine
 62
7
  6
CONTINUOUS
 10
49.58
 20
-31.05
 11
48.926695
 21
-31.050007
  0
LINE
  5
278
100
AcDbEntity
  8
0
100
AcDbLine
 62
7
  6
CONTINUOUS
 10
40.626627
 20
-31.050015
 11
40.046605
 21
-31.050022
  0
LINE
  5
279
100
AcDbEntity
  8
0
100
AcDbLine
 62
7
  6
CONTINUOUS
 10
38.148751
 20
-31.050022
 11
38.728794
 21
-31.050015
  0
LINE
  5
27A
100
AcDbEntity
  8
0
100
AcDbLine
 62
7
  6
CONTINUOUS
 10
44.043443
 20
-31.050015
 11
43.463421
 21
-31.050015
  0
LINE
  5
27B
100
AcDbEntity
  8
0
100
AcDbLine
 62
7
  6
CONTINUOUS
 10
41.786656
 20
-31.050015
 11
41.206634
 21
-31.050015
  0
LINE
  5
27C
100
AcDbEntity
  8
0
100
AcDbLine
 62
7
  6
CONTINUOUS
 10
47.839144
 20
-31.050007
 11
47.259115
 21
-31.050007
  0
LINE
  5
27D
100
AcDbEntity
  8
0
100
AcDbLine
 62
7
  6
CONTINUOUS
 10
46.872437
 20
-31.050015
 11
46.292408
 21
-31.050007
  0
LINE
  5
27E
100
AcDbEntity
  8
0
100
AcDbLine
 62
7
  6
CONTINUOUS
 10
46.109302
 20
-30.479679
 11
45.193257
 21
-30.479679
  0
LINE
  5
27F
100
AcDbEntity
  8
0
100
AcDbLine
 62
7
  6
CONTINUOUS
 10
45.370179
 20
-29.928657
 11
45.932373
 21
-29.928657
  0
LINE
  5
280
100
AcDbEntity
  8
0
100
AcDbLine
 62
7
  6
CONTINUOUS
 10
48.345441
 20
-29.928657
 11
47.83921
 21
-29.92865
  0
LINE
  5
281
100
AcDbEntity
  8
0
100
AcDbLine
 62
7
  6
CONTINUOUS
 10
47.831148
 20
-29.392128
 11
48.536824
 21
-29.392128
  0
LINE
  5
282
100
AcDbEntity
  8
0
100
AcDbLine
 62
7
  6
CONTINUOUS
 10
48.536824
 20
-28.686398
 11
47.83114
 21
-28.686398
  0
LINE
  5
283
100
AcDbEntity
  8
0
100
AcDbLine
 62
7
  6
CONTINUOUS
 10
37.217619
 20
-28.149884
 11
37.797648
 21
-28.149884
  0
LINE
  5
284
100
AcDbEntity
  8
0
100
AcDbLine
 62
7
  6
CONTINUOUS
 10
39.079905
 20
-28.149884
 11
39.659934
 21
-28.149884
  0
LINE
  5
285
100
AcDbEntity
  8
0
100
AcDbLine
 62
7
  6
CONTINUOUS
 10
40.046612
 20
-28.149884
 11
40.626634
 21
-28.149884
  0
LINE
  5
286
100
AcDbEntity
  8
0
100
AcDbLine
 62
7
  6
CONTINUOUS
 10
41.206634
 20
-28.149884
 11
42.083471
 21
-28.149884
  0
LINE
  5
287
100
AcDbEntity
  8
0
100
AcDbLine
 62
7
  6
CONTINUOUS
 10
43.166606
 20
-28.149884
 11
44.043443
 21
-28.149884
  0
LINE
  5
288
100
AcDbEntity
  8
0
100
AcDbLine
 62
7
  6
CONTINUOUS
 10
45.361247
 20
-28.149877
 11
45.941297
 21
-28.149877
  0
LINE
  5
289
100
AcDbEntity
  8
0
100
AcDbLine
 62
7
  6
CONTINUOUS
 10
47.259115
 20
-28.149877
 11
48.61733
 21
-28.149877
  0
LINE
  5
28A
100
AcDbEntity
  8
0
100
AcDbLine
 62
250
  6
CONTINUOUS
 10
-44.7
 20
-27.9000533324
 11
44.7
 21
-27.9000533324
  0
LINE
  5
28B
100
AcDbEntity
  8
0
100
AcDbLine
 62
250
  6
CONTINUOUS
 10
-44.7
 20
-26.1000133331
 11
44.7
 21
-26.1000133331
  0
LINE
  5
28C
100
AcDbEntity
  8
0
100
AcDbLine
 62
7
  6
CONTINUOUS
 10
-44.7
 20
-24.5
 11
44.7
 21
-24.5
  0
LINE
  5
28D
100
AcDbEntity
  8
RACCORDO
100
AcDbLine
 62
7
  6
CONTINUOUS
 10
44.7
 20
-24.0
 11
-44.7
 21
-24.0
  0
LINE
  5
28E
100
AcDbEntity
  8
RACCORDO
100
AcDbLine
 62
250
  6
CONTINUOUS
 10
44.7
 20
-23.0
 11
-44.7
 21
-23.0
  0
LINE
  5
28F
100
AcDbEntity
  8
RACCORDO
100
AcDbLine
 62
250
  6
CONTINUOUS
 10
-46.5
 20
-22.2
 11
-45.5
 21
-22.2
  0
LINE
  5
290
100
AcDbEntity
  8
RACCORDO
100
AcDbLine
 62
250
  6
CONTINUOUS
 10
46.5
 20
-22.2
 11
45.5
 21
-22.2
  0
LINE
  5
291
100
AcDbEntity
  8
0
100
AcDbLine
 62
250
  6
CONTINUOUS
 10
47.0
 20
-22.2
 11
50.4000533324
 21
-22.2
  0
LINE
  5
292
100
AcDbEntity
  8
0
100
AcDbLine
 62
250
  6
CONTINUOUS
 10
-47.0
 20
-22.2
 11
-50.4000533324
 21
-22.2
  0
LINE
  5
293
100
AcDbEntity
  8
RACCORDO
100
AcDbLine
 62
250
  6
CONTINUOUS
 10
-0.0001867503
 20
27.8999543014
 11
-0.0029253775
 21
41.1263553606
  0
LWPOLYLINE
  5
294
100
AcDbEntity
  8
0
100
AcDbPolyline
 62
7
  6
CONTINUOUS
 90
2
 70
0
 43
0.3500000087
 10
-0.4999999887
 20
51.2500012146
 10
-0.4999999887
 20
52.7500026794
  0
LWPOLYLINE
  5
295
100
AcDbEntity
  8
RACCORDO
100
AcDbPolyline
 62
250
  6
CONTINUOUS
 90
6
 70
0
 10
72.7705993757
 20
0.0000217125
 10
72.7967206484
 20
0.0000271143
 10
72.82191804
 20
0.0000327976
 10
72.8461719123
 20
0.0000387039
 10
72.869463361
 20
0.0000448274
 10
72.9130871383
 20
0.0000576517
  0
LWPOLYLINE
  5
296
100
AcDbEntity
  8
0
100
AcDbPolyline
 62
7
  6
CONTINUOUS
 90
4
 70
0
 43
0.3500000087
 10
80.3214290527
 20
-2.2499998718
 10
79.4642829224
 20
-2.2499998718
 10
79.0357183838
 20
-1.8214289383
 10
79.0357183838
 20
-1.1785714722
  0
LINE
  5
297
100
AcDbEntity
  8
RACCORDO
100
AcDbLine
 62
250
  6
CONTINUOUS
 10
73.1111271271
 20
0.0001770396
 11
50.40002
 21
0.00003
  0
LWPOLYLINE
  5
298
100
AcDbEntity
  8
RACCORDO
100
AcDbPolyline
 62
250
  6
CONTINUOUS
 90
3
 70
0
 10
72.2833275103
 20
-0.0000122307
 10
72.3205014995
 20
-0.0000135161
 10
72.3571228078
 20
-0.0000141799
  0
LINE
  5
299
100
AcDbEntity
  8
RACCORDO
100
AcDbLine
 62
250
  6
CONTINUOUS
 10
-50.40002
 20
0.00003
 11
-73.1111271271
 21
0.0001770396
  0
LWPOLYLINE
  5
29A
100
AcDbEntity
  8
0
100
AcDbPolyline
 62
7
  6
CONTINUOUS
 90
4
 70
0
 43
0.3500000087
 10
0.8571428663
 20
53.6071402832
 10
0.8571428663
 20
54.2500041443
 10
2.357142799
 20
54.2500041443
 10
1.4999999993
 20
51.2500012146
  0
LINE
  5
29B
100
AcDbEntity
  8
0
100
AcDbLine
 62
250
  6
CONTINUOUS
 10
50.3999848859
 20
22.1186844239
 11
48.5999885545
 21
22.118634572
  0
LINE
  5
29C
100
AcDbEntity
  8
0
100
AcDbLine
 62
250
  6
CONTINUOUS
 10
-50.3999848859
 20
22.1186594694
 11
-48.5999885545
 21
22.118634572
  0
LINE
  5
29D
100
AcDbEntity
  8
0
100
AcDbLine
 62
250
  6
CONTINUOUS
 10
-50.3997214579
 20
22.200071065
 11
-48.5999630279
 21
22.2
  0
LINE
  5
29E
100
AcDbEntity
  8
0
100
AcDbLine
 62
250
  6
CONTINUOUS
 10
50.3997214579
 20
22.200071065
 11
48.5999630128
 21
22.2
  0
LINE
  5
29F
100
AcDbEntity
  8
RACCORDO
100
AcDbLine
 62
250
  6
CONTINUOUS
 10
-46.5
 20
22.2
 11
-45.5
 21
22.2
  0
LINE
  5
2A0
100
AcDbEntity
  8
RACCORDO
100
AcDbLine
 62
250
  6
CONTINUOUS
 10
46.5
 20
22.2
 11
45.5
 21
22.2
  0
LINE
  5
2A1
100
AcDbEntity
  8
0
100
AcDbLine
 62
250
  6
CONTINUOUS
 10
47.0
 20
22.2
 11
48.5999630279
 21
22.2
  0
LINE
  5
2A2
100
AcDbEntity
  8
0
100
AcDbLine
 62
250
  6
CONTINUOUS
 10
-47.0
 20
22.2
 11
-48.5999630279
 21
22.2
  0
LINE
  5
2A3
100
AcDbEntity
  8
RACCORDO
100
AcDbLine
 62
250
  6
CONTINUOUS
 10
-44.7
 20
23.0
 11
44.7
 21
23.0
  0
LINE
  5
2A4
100
AcDbEntity
  8
RACCORDO
100
AcDbLine
 62
7
  6
CONTINUOUS
 10
-44.7
 20
24.0
 11
44.7
 21
24.0
  0
LINE
  5
2A5
100
AcDbEntity
  8
0
100
AcDbLine
 62
7
  6
CONTINUOUS
 10
44.7
 20
24.5
 11
-44.7
 21
24.5
  0
LINE
  5
2A6
100
AcDbEntity
  8
0
100
AcDbLine
 62
250
  6
CONTINUOUS
 10
-42.794481101
 20
26.0999326686
 11
-44.7
 21
26.0999691893
  0
LINE
  5
2A7
100
AcDbEntity
  8
0
100
AcDbLine
 62
250
  6
CONTINUOUS
 10
44.7
 20
26.0999691893
 11
-42.7944811131
 21
26.0999326727
  0
LINE
  5
2A8
100
AcDbEntity
  8
0
100
AcDbLine
 62
250
  6
CONTINUOUS
 10
42.7944977906
 20
27.9002200924
 11
-0.0
 21
27.9000053236
  0
LINE
  5
2A9
100
AcDbEntity
  8
0
100
AcDbLine
 62
250
  6
CONTINUOUS
 10
-0.0
 20
27.9000053236
 11
-42.7945066575
 21
27.900219328
  0
LINE
  5
2AA
100
AcDbEntity
  8
0
100
AcDbLine
 62
7
  6
CONTINUOUS
 10
38.148751
 20
-31.050022
 11
37.217619
 21
-28.149884
  0
LINE
  5
2AB
100
AcDbEntity
  8
0
100
AcDbLine
 62
7
  6
CONTINUOUS
 10
37.797648
 20
-28.149884
 11
38.43878
 21
-30.14678
  0
LINE
  5
2AC
100
AcDbEntity
  8
RACCORDO
100
AcDbLine
 62
250
  6
CONTINUOUS
 10
31.0000008393
 20
-42.2
 11
31.0000006999
 21
-42.0754493507
  0
LINE
  5
2AD
100
AcDbEntity
  8
RACCORDO
100
AcDbLine
 62
250
  6
CONTINUOUS
 10
31.8
 20
-42.2
 11
31.8
 21
-42.3971656547
  0
LINE
  5
2AE
100
AcDbEntity
  8
0
100
AcDbLine
 62
7
  6
CONTINUOUS
 10
48.926695
 20
-31.050007
 11
48.345441
 21
-29.928657
  0
LINE
  5
2AF
100
AcDbEntity
  8
0
100
AcDbLine
 62
7
  6
CONTINUOUS
 10
48.9625957907
 20
-29.8589026669
 11
49.58
 21
-31.05
  0
LINE
  5
2B0
100
AcDbEntity
  8
0
100
AcDbLine
 62
7
  6
CONTINUOUS
 10
45.932373
 20
-29.928657
 11
45.651268
 21
-29.053118
  0
LINE
  5
2B1
100
AcDbEntity
  8
0
100
AcDbLine
 62
7
  6
CONTINUOUS
 10
46.292408
 20
-31.050007
 11
46.109302
 21
-30.479679
  0
LINE
  5
2B2
100
AcDbEntity
  8
0
100
AcDbLine
 62
7
  6
CONTINUOUS
 10
42.335031
 20
-31.050015
 11
41.786656
 21
-29.137573
  0
LINE
  5
2B3
100
AcDbEntity
  8
0
100
AcDbLine
 62
7
  6
CONTINUOUS
 10
42.083471
 20
-28.149884
 11
42.625039
 21
-30.038552
  0
LINE
  5
2B4
100
AcDbEntity
  8
RACCORDO
100
AcDbLine
 62
7
  6
CONTINUOUS
 10
35.0
 20
-42.25
 11
35.0
 21
-42.0841768832
  0
LINE
  5
2B5
100
AcDbEntity
  8
0
100
AcDbLine
 62
7
  6
CONTINUOUS
 10
40.046605
 20
-31.050022
 11
40.046612
 21
-28.149884
  0
LINE
  5
2B6
100
AcDbEntity
  8
RACCORDO
100
AcDbLine
 62
250
  6
CONTINUOUS
 10
-73.2484878323
 20
38.49
 11
-73.1157451982
 21
38.49
  0
LINE
  5
2B7
100
AcDbEntity
  8
RACCORDO
100
AcDbLine
 62
250
  6
CONTINUOUS
 10
73.2484878323
 20
38.49
 11
73.1157451982
 21
38.49
  0
LINE
  5
2B8
100
AcDbEntity
  8
RACCORDO
100
AcDbLine
 62
250
  6
CONTINUOUS
 10
73.5
 20
38.5
 11
73.3674049389
 21
38.5
  0
LINE
  5
2B9
100
AcDbEntity
  8
RACCORDO
100
AcDbLine
 62
250
  6
CONTINUOUS
 10
-73.5
 20
38.5
 11
-73.3674049389
 21
38.5
  0
LINE
  5
2BA
100
AcDbEntity
  8
0
100
AcDbLine
 62
7
  6
CONTINUOUS
 10
64.8305440373
 20
-42.5
 11
64.8
 21
-42.4389072728
  0
LINE
  5
2BB
100
AcDbEntity
  8
DRAFT
100
AcDbLine
 62
7
  6
CONTINUOUS
 10
64.8305440373
 20
-42.5
 11
64.8
 21
-42.4389072728
  0
LINE
  5
2BC
100
AcDbEntity
  8
0
100
AcDbLine
 62
7
  6
CONTINUOUS
 10
45.941297
 20
-28.149877
 11
46.872437
 21
-31.050015
  0
LINE
  5
2BD
100
AcDbEntity
  8
0
100
AcDbLine
 62
250
  6
CONTINUOUS
 10
44.6985183226
 20
27.8902914824
 11
44.7
 21
26.0999691893
  0
LINE
  5
2BE
100
AcDbEntity
  8
0
100
AcDbLine
 62
7
  6
CONTINUOUS
 10
40.626634
 20
-28.149884
 11
40.626627
 21
-31.050015
  0
LINE
  5
2BF
100
AcDbEntity
  8
0
100
AcDbLine
 62
7
  6
CONTINUOUS
 10
41.206634
 20
-31.050015
 11
41.206634
 21
-28.149884
  0
LINE
  5
2C0
100
AcDbEntity
  8
0
100
AcDbLine
 62
7
  6
CONTINUOUS
 10
41.786656
 20
-29.137573
 11
41.786656
 21
-31.050015
  0
LINE
  5
2C1
100
AcDbEntity
  8
0
100
AcDbLine
 62
250
  6
CONTINUOUS
 10
42.7944981386
 20
27.900056359
 11
42.7944811131
 21
26.0999326727
  0
LINE
  5
2C2
100
AcDbEntity
  8
0
100
AcDbLine
 62
7
  6
CONTINUOUS
 10
43.463421
 20
-31.050015
 11
43.463414
 21
-29.137573
  0
LINE
  5
2C3
100
AcDbEntity
  8
0
100
AcDbLine
 62
7
  6
CONTINUOUS
 10
44.043443
 20
-28.149884
 11
44.043443
 21
-31.050015
  0
LINE
  5
2C4
100
AcDbEntity
  8
RACCORDO
100
AcDbLine
 62
250
  6
CONTINUOUS
 10
44.7
 20
24.0
 11
44.7
 21
23.0
  0
LINE
  5
2C5
100
AcDbEntity
  8
RACCORDO
100
AcDbLine
 62
250
  6
CONTINUOUS
 10
44.7
 20
-24.0
 11
44.7
 21
-23.0
  0
LINE
  5
2C6
100
AcDbEntity
  8
0
100
AcDbLine
 62
250
  6
CONTINUOUS
 10
44.7
 20
-24.5
 11
44.7
 21
-27.9000533324
  0
LINE
  5
2C7
100
AcDbEntity
  8
0
100
AcDbLine
 62
250
  6
CONTINUOUS
 10
44.7
 20
24.5
 11
44.7
 21
26.0999691893
  0
LINE
  5
2C8
100
AcDbEntity
  8
RACCORDO
100
AcDbLine
 62
250
  6
CONTINUOUS
 10
45.5
 20
22.2
 11
45.5
 21
-22.2
  0
LINE
  5
2C9
100
AcDbEntity
  8
0
100
AcDbLine
 62
7
  6
CONTINUOUS
 10
38.43878
 20
-30.14678
 11
39.079905
 21
-28.149884
  0
LINE
  5
2CA
100
AcDbEntity
  8
RACCORDO
100
AcDbLine
 62
7
  6
CONTINUOUS
 10
-70.4524649237
 20
42.0956501172
 11
-70.3683389648
 21
42.0956501172
  0
LINE
  5
2CB
100
AcDbEntity
  8
RACCORDO
100
AcDbLine
 62
7
  6
CONTINUOUS
 10
70.3683389637
 20
42.0956501172
 11
70.4525796229
 21
42.0956501172
  0
LINE
  5
2CC
100
AcDbEntity
  8
0
100
AcDbLine
 62
7
  6
CONTINUOUS
 10
69.489999638
 20
42.1993909428
 11
-69.4900001976
 21
42.1993909428
  0
LINE
  5
2CD
100
AcDbEntity
  8
DRAFT
100
AcDbLine
 62
7
  6
CONTINUOUS
 10
69.5
 20
42.3219583377
 11
-69.5
 21
42.3219583377
  0
LINE
  5
2CE
100
AcDbEntity
  8
DRAFT
100
AcDbLine
 62
7
  6
CONTINUOUS
 10
-69.5
 20
42.5
 11
69.5
 21
42.5
  0
LINE
  5
2CF
100
AcDbEntity
  8
RACCORDO
100
AcDbLine
 62
7
  6
CONTINUOUS
 10
46.5
 20
22.2
 11
46.5
 21
-22.2
  0
LINE
  5
2D0
100
AcDbEntity
  8
0
100
AcDbLine
 62
7
  6
CONTINUOUS
 10
47.0
 20
-22.2
 11
47.0
 21
22.2
  0
LINE
  5
2D1
100
AcDbEntity
  8
0
100
AcDbLine
 62
7
  6
CONTINUOUS
 10
47.259115
 20
-31.050007
 11
47.259115
 21
-28.149877
  0
LINE
  5
2D2
100
AcDbEntity
  8
0
100
AcDbLine
 62
7
  6
CONTINUOUS
 10
47.83114
 20
-28.686398
 11
47.831148
 21
-29.392128
  0
LINE
  5
2D3
100
AcDbEntity
  8
0
100
AcDbLine
 62
250
  6
CONTINUOUS
 10
48.6000133331
 20
-22.2
 11
48.5999630279
 21
22.2
  0
LINE
  5
2D4
100
AcDbEntity
  8
0
100
AcDbLine
 62
250
  6
CONTINUOUS
 10
50.4000533324
 20
-22.2
 11
50.3999848859
 21
22.118659472
  0
LINE
  5
2D5
100
AcDbEntity
  8
0
100
AcDbLine
 62
7
  6
CONTINUOUS
 10
47.83921
 20
-29.92865
 11
47.839144
 21
-31.050007
  0
LINE
  5
2D6
100
AcDbEntity
  8
0
100
AcDbLine
 62
7
  6
CONTINUOUS
 10
42.625039
 20
-30.038552
 11
43.166606
 21
-28.149884
  0
LINE
  5
2D7
100
AcDbEntity
  8
0
100
AcDbLine
 62
7
  6
CONTINUOUS
 10
43.463414
 20
-29.137573
 11
42.915039
 21
-31.050007
  0
LINE
  5
2D8
100
AcDbEntity
  8
0
100
AcDbLine
 62
7
  6
CONTINUOUS
 10
39.659934
 20
-28.149884
 11
38.728794
 21
-31.050015
  0
LINE
  5
2D9
100
AcDbEntity
  8
0
100
AcDbLine
 62
7
  6
CONTINUOUS
 10
44.430122
 20
-31.050015
 11
45.361247
 21
-28.149877
  0
LINE
  5
2DA
100
AcDbEntity
  8
0
100
AcDbLine
 62
7
  6
CONTINUOUS
 10
45.651268
 20
-29.053118
 11
45.370179
 21
-29.928657
  0
LINE
  5
2DB
100
AcDbEntity
  8
0
100
AcDbLine
 62
7
  6
CONTINUOUS
 10
45.193257
 20
-30.479679
 11
45.010144
 21
-31.050007
  0
LWPOLYLINE
  5
2DC
100
AcDbEntity
  8
0
100
AcDbPolyline
 62
7
  6
CONTINUOUS
 90
3
 70
0
 43
0.3500000087
 10
-0.0
 20
51.8928565491
 10
-1.4999999993
 20
51.8928565491
 10
-0.8571428663
 20
54.2500041443
  0
LWPOLYLINE
  5
2DD
100
AcDbEntity
  8
0
100
AcDbPolyline
 62
7
  6
CONTINUOUS
 90
13
 70
0
 43
0.3500000087
 10
79.0357183838
 20
-1.8214289383
 10
78.8214275879
 20
-2.107142894
 10
78.1785722534
 20
-2.107142894
 10
77.7499991882
 20
-1.8214289383
 10
77.7499991882
 20
-1.1785714722
 10
78.1785722534
 20
-0.8928575165
 10
78.8214275879
 20
-0.8928575165
 10
79.0357183838
 20
-1.1785714722
 10
79.4642829224
 20
-0.7500005386
 10
80.3214290527
 20
-0.7500005386
 10
80.7500021179
 20
-1.1785714722
 10
80.7500021179
 20
-1.8214289383
 10
80.3214290527
 20
-2.2499998718
  0
LINE
  5
2DE
100
AcDbEntity
  8
RACCORDO
100
AcDbLine
 62
250
  6
CONTINUOUS
 10
69.49
 20
-42.25
 11
69.49
 21
-42.106676344
  0
LINE
  5
2DF
100
AcDbEntity
  8
RACCORDO
100
AcDbLine
 62
250
  6
CONTINUOUS
 10
69.489999638
 20
42.1993909428
 11
69.49
 21
42.1158322715
  0
LINE
  5
2E0
100
AcDbEntity
  8
DRAFT
100
AcDbLine
 62
250
  6
CONTINUOUS
 10
69.5
 20
42.5
 11
69.5
 21
42.3219583377
  0
LINE
  5
2E1
100
AcDbEntity
  8
RACCORDO
100
AcDbLine
 62
250
  6
CONTINUOUS
 10
69.5
 20
-42.5
 11
69.5
 21
-42.2495416636
  0
LINE
  5
2E2
100
AcDbEntity
  8
ASSI
100
AcDbLine
 62
7
  6
CONTINUOUS
 10
73.25
 20
-38.49
 11
73.25
 21
37.5
  0
LINE
  5
2E3
100
AcDbEntity
  8
DRAFT
100
AcDbLine
 62
7
  6
CONTINUOUS
 10
73.5
 20
38.5
 11
73.5
 21
-38.5
  0
LINE
  5
2E4
100
AcDbEntity
  8
0
100
AcDbLine
 62
7
  6
CONTINUOUS
 10
60.7694559627
 20
-42.5
 11
60.8
 21
-42.4389072728
  0
LINE
  5
2E5
100
AcDbEntity
  8
DRAFT
100
AcDbLine
 62
7
  6
CONTINUOUS
 10
60.7694559627
 20
-42.5
 11
60.8
 21
-42.4389072728
  0
LWPOLYLINE
  5
2E6
100
AcDbEntity
  8
0
100
AcDbPolyline
 62
7
  6
CONTINUOUS
 90
8
 70
0
 43
0.3500000087
 10
80.7500021179
 20
0.1071434601
 10
80.7500021179
 20
0.9642853271
 10
80.3214290527
 20
1.3928562607
 10
79.4642829224
 20
1.3928562607
 10
79.0357183838
 20
0.9642853271
 10
79.0357183838
 20
0.1071434601
 10
77.7499991882
 20
0.1071434601
 10
77.7499991882
 20
1.3928562607
  0
LINE
  5
2E7
100
AcDbEntity
  8
RACCORDO
100
AcDbLine
 62
7
  6
CONTINUOUS
 10
-115.3293272325
 20
-42.2
 11
-110.243825314
 21
-42.2
  0
LINE
  5
2E8
100
AcDbEntity
  8
RACCORDO
100
AcDbLine
 62
7
  6
CONTINUOUS
 10
-99.1793272325
 20
-42.5
 11
-106.6880534357
 21
-42.3689346966
  0
LINE
  5
2E9
100
AcDbEntity
  8
RACCORDO
100
AcDbLine
 62
7
  6
CONTINUOUS
 10
-107.3793272325
 20
-42.25
 11
-117.4104803684
 21
-42.0749055707
  0
LINE
  5
2EA
100
AcDbEntity
  8
RACCORDO
100
AcDbLine
 62
7
  6
CONTINUOUS
 10
-117.4399140854
 20
-42.0739468554
 11
-117.4104629991
 21
-42.0749058739
  0
LWPOLYLINE
  5
2EB
100
AcDbEntity
  8
0
100
AcDbPolyline
 62
7
  6
CONTINUOUS
 90
3
 70
0
 43
0.3500000087
 10
-111.7936119019
 20
53.3928580139
 10
-110.9364742981
 20
54.2500041443
 10
-110.9364742981
 20
51.2500012146
  0
LINE
  5
2EC
100
AcDbEntity
  8
RACCORDO
100
AcDbLine
 62
7
  6
CONTINUOUS
 10
-99.1793272325
 20
-40.0
 11
-97.578242928
 21
-39.5709907536
  0
LINE
  5
2ED
100
AcDbEntity
  8
RACCORDO
100
AcDbLine
 62
250
  6
CONTINUOUS
 10
-116.7768851394
 20
-38.5079097612
 11
-115.3277702338
 21
-38.49
  0
LINE
  5
2EE
100
AcDbEntity
  8
RACCORDO
100
AcDbLine
 62
250
  6
CONTINUOUS
 10
-99.1793272325
 20
-38.5
 11
-107.1793272325
 21
-38.5
  0
LINE
  5
2EF
100
AcDbEntity
  8
RACCORDO
100
AcDbLine
 62
250
  6
CONTINUOUS
 10
-107.3793272325
 20
-38.49
 11
-115.3277702338
 21
-38.49
  0
LINE
  5
2F0
100
AcDbEntity
  8
RACCORDO
100
AcDbLine
 62
250
  6
CONTINUOUS
 10
-99.1793272325
 20
-36.7
 11
-97.1793272325
 21
-36.7
  0
LINE
  5
2F1
100
AcDbEntity
  8
0
100
AcDbLine
 62
7
  6
CONTINUOUS
 10
-107.1793272325
 20
-33.7
 11
-107.3793272325
 21
-33.7
  0
LINE
  5
2F2
100
AcDbEntity
  8
0
100
AcDbLine
 62
7
  6
CONTINUOUS
 10
-119.0671852364
 20
-31.0500104864
 11
-119.0679160676
 21
-31.0500140835
  0
LINE
  5
2F3
100
AcDbEntity
  8
0
100
AcDbLine
 62
7
  6
CONTINUOUS
 10
-107.1793272325
 20
-32.2
 11
-107.3793272325
 21
-32.2
  0
LINE
  5
2F4
100
AcDbEntity
  8
0
100
AcDbLine
 62
7
  6
CONTINUOUS
 10
-119.0572520057
 20
-31.050015
 11
-119.0005477082
 21
-31.05
  0
LINE
  5
2F5
100
AcDbEntity
  8
0
100
AcDbLine
 62
7
  6
CONTINUOUS
 10
-119.0768464167
 20
-30.479679
 11
-119.0802835952
 21
-30.479679
  0
LINE
  5
2F6
100
AcDbEntity
  8
0
100
AcDbLine
 62
7
  6
CONTINUOUS
 10
-119.0912060108
 20
-29.928657
 11
-119.0894505598
 21
-29.928657
  0
LINE
  5
2F7
100
AcDbEntity
  8
0
100
AcDbLine
 62
7
  6
CONTINUOUS
 10
-119.0717436918
 20
-29.8589026669
 11
-119.0417340078
 21
-29.8589026669
  0
LINE
  5
2F8
100
AcDbEntity
  8
0
100
AcDbLine
 62
7
  6
CONTINUOUS
 10
-119.075753654
 20
-29.928657
 11
-119.079627706
 21
-29.92865
  0
LINE
  5
2F9
100
AcDbEntity
  8
0
100
AcDbLine
 62
7
  6
CONTINUOUS
 10
-119.0596299378
 20
-31.0500097315
 11
-119.0663847349
 21
-31.050007
  0
LINE
  5
2FA
100
AcDbEntity
  8
RACCORDO
100
AcDbLine
 62
7
  6
CONTINUOUS
 10
-107.3793272325
 20
-31.8930158461
 11
-107.1793272325
 21
-31.9
  0
LINE
  5
2FB
100
AcDbEntity
  8
RACCORDO
100
AcDbLine
 62
250
  6
CONTINUOUS
 10
-107.3793272325
 20
-31.131957376
 11
-107.1793272325
 21
-31.1389415299
  0
LINE
  5
2FC
100
AcDbEntity
  8
0
100
AcDbLine
 62
7
  6
CONTINUOUS
 10
-119.0903300895
 20
-29.392128
 11
-119.0855215125
 21
-29.392128
  0
LINE
  5
2FD
100
AcDbEntity
  8
0
100
AcDbLine
 62
7
  6
CONTINUOUS
 10
-119.0976614444
 20
-28.686398
 11
-119.1011025613
 21
-28.686398
  0
LINE
  5
2FE
100
AcDbEntity
  8
0
100
AcDbLine
 62
7
  6
CONTINUOUS
 10
-119.1092411565
 20
-28.149877
 11
-119.074988432
 21
-28.149877
  0
LINE
  5
2FF
100
AcDbEntity
  8
RACCORDO
100
AcDbLine
 62
250
  6
CONTINUOUS
 10
-107.3793272325
 20
-27.7581655388
 11
-107.1793272325
 21
-27.7610584701
  0
LINE
  5
300
100
AcDbEntity
  8
0
100
AcDbLine
 62
7
  6
CONTINUOUS
 10
-119.4709398553
 20
26.4181927829
 11
-119.4785978215
 21
26.4047854426
  0
LINE
  5
301
100
AcDbEntity
  8
0
100
AcDbLine
 62
7
  6
CONTINUOUS
 10
-119.477862844
 20
26.4060652936
 11
-119.4854538468
 21
26.3929163696
  0
LINE
  5
302
100
AcDbEntity
  8
0
100
AcDbLine
 62
7
  6
CONTINUOUS
 10
-119.4847370914
 20
26.3941513659
 11
-119.4922568655
 21
26.3812613809
  0
LINE
  5
303
100
AcDbEntity
  8
0
100
AcDbLine
 62
7
  6
CONTINUOUS
 10
-119.4915585179
 20
26.3824522663
 11
-119.4990041442
 21
26.3698194872
  0
LINE
  5
304
100
AcDbEntity
  8
0
100
AcDbLine
 62
7
  6
CONTINUOUS
 10
-119.4983242384
 20
26.370967227
 11
-119.5056933061
 21
26.3585891798
  0
LINE
  5
305
100
AcDbEntity
  8
0
100
AcDbLine
 62
7
  6
CONTINUOUS
 10
-119.5050318662
 20
26.3596947146
 11
-119.5133311342
 21
26.3459006589
  0
LINE
  5
306
100
AcDbEntity
  8
0
100
AcDbLine
 62
7
  6
CONTINUOUS
 10
-119.5123220267
 20
26.3475689593
 11
-119.520519465
 21
26.3340868656
  0
LINE
  5
307
100
AcDbEntity
  8
0
100
AcDbLine
 62
7
  6
CONTINUOUS
 10
-119.519899552
 20
26.3351008559
 11
-119.5280176734
 21
26.3218929715
  0
LINE
  5
308
100
AcDbEntity
  8
0
100
AcDbLine
 62
7
  6
CONTINUOUS
 10
-119.5270039498
 20
26.3235339289
 11
-119.5350141843
 21
26.3106312747
  0
LINE
  5
309
100
AcDbEntity
  8
0
100
AcDbLine
 62
7
  6
CONTINUOUS
 10
-119.5344356145
 20
26.3115583512
 11
-119.542914642
 21
26.2980465212
  0
LINE
  5
30A
100
AcDbEntity
  8
0
100
AcDbLine
 62
7
  6
CONTINUOUS
 10
-119.5423588876
 20
26.2989272796
 11
-119.5507013326
 21
26.2857768723
  0
LINE
  5
30B
100
AcDbEntity
  8
0
100
AcDbLine
 62
7
  6
CONTINUOUS
 10
-119.5501682985
 20
26.2866126102
 11
-119.5583683123
 21
26.2738227773
  0
LINE
  5
30C
100
AcDbEntity
  8
0
100
AcDbLine
 62
7
  6
CONTINUOUS
 10
-119.557858026
 20
26.2746145424
 11
-119.5659054452
 21
26.2621912053
  0
LINE
  5
30D
100
AcDbEntity
  8
0
100
AcDbLine
 62
7
  6
CONTINUOUS
 10
-119.565418252
 20
26.2629395104
 11
-119.5733022302
 21
26.2508895147
  0
LINE
  5
30E
100
AcDbEntity
  8
0
100
AcDbLine
 62
7
  6
CONTINUOUS
 10
-119.5728382437
 20
26.2515951939
 11
-119.5805479438
 21
26.2399252389
  0
LINE
  5
30F
100
AcDbEntity
  8
0
100
AcDbLine
 62
7
  6
CONTINUOUS
 10
-119.5801072168
 20
26.2405891766
 11
-119.5886165624
 21
26.2278373256
  0
LINE
  5
310
100
AcDbEntity
  8
0
100
AcDbLine
 62
7
  6
CONTINUOUS
 10
-119.587632437
 20
26.2293049103
 11
-119.5959131901
 21
26.2170140628
  0
LINE
  5
311
100
AcDbEntity
  8
0
100
AcDbLine
 62
7
  6
CONTINUOUS
 10
-119.5955230779
 20
26.2175901619
 11
-119.603947786
 21
26.2052124905
  0
LINE
  5
312
100
AcDbEntity
  8
0
100
AcDbLine
 62
7
  6
CONTINUOUS
 10
-119.6035843769
 20
26.2057436832
 11
-119.6117307683
 21
26.1938944537
  0
LINE
  5
313
100
AcDbEntity
  8
0
100
AcDbLine
 62
7
  6
CONTINUOUS
 10
-119.6113933957
 20
26.1943827675
 11
-119.6192568207
 21
26.1830545852
  0
LINE
  5
314
100
AcDbEntity
  8
0
100
AcDbLine
 62
7
  6
CONTINUOUS
 10
-119.618944867
 20
26.1835018798
 11
-119.627411802
 21
26.171422622
  0
LINE
  5
315
100
AcDbEntity
  8
0
100
AcDbLine
 62
7
  6
CONTINUOUS
 10
-119.6197206076
 20
26.1823902199
 11
-119.6380431203
 21
26.1564324416
  0
LINE
  5
316
100
AcDbEntity
  8
0
100
AcDbLine
 62
7
  6
CONTINUOUS
 10
-119.636586201
 20
26.1584751535
 11
-119.6451817279
 21
26.1464749588
  0
LINE
  5
317
100
AcDbEntity
  8
0
100
AcDbLine
 62
7
  6
CONTINUOUS
 10
-119.6443609231
 20
26.1476155109
 11
-119.6522188913
 21
26.1367424171
  0
LINE
  5
318
100
AcDbEntity
  8
0
100
AcDbLine
 62
7
  6
CONTINUOUS
 10
-119.6522188913
 20
26.1367424171
 11
-119.6605709405
 21
26.1252968702
  0
LINE
  5
319
100
AcDbEntity
  8
0
100
AcDbLine
 62
7
  6
CONTINUOUS
 10
-119.6605709405
 20
26.1252968702
 11
-119.6689132288
 21
26.1139769408
  0
LINE
  5
31A
100
AcDbEntity
  8
0
100
AcDbLine
 62
7
  6
CONTINUOUS
 10
-119.6687898383
 20
26.1141435665
 11
-119.6768940778
 21
26.1032504939
  0
LINE
  5
31B
100
AcDbEntity
  8
0
100
AcDbLine
 62
7
  6
CONTINUOUS
 10
-119.6785731144
 20
26.1010064848
 11
-119.6786004004
 21
26.1009700535
  0
LINE
  5
31C
100
AcDbEntity
  8
0
100
AcDbLine
 62
7
  6
CONTINUOUS
 10
-119.6770935225
 20
26.10298371
 11
-119.678363994
 21
26.1012857332
  0
LINE
  5
31D
100
AcDbEntity
  8
DRAFT
100
AcDbLine
 62
7
  6
CONTINUOUS
 10
-97.1793272325
 20
-25.5961502733
 11
-92.1793272325
 21
-25.5525159343
  0
LINE
  5
31E
100
AcDbEntity
  8
DRAFT
100
AcDbLine
 62
7
  6
CONTINUOUS
 10
-97.1793272325
 20
-23.7599633743
 11
-92.1792605839
 21
-23.7163284537
  0
LINE
  5
31F
100
AcDbEntity
  8
RACCORDO
100
AcDbLine
 62
7
  6
CONTINUOUS
 10
-119.8793272325
 20
-24.0
 11
-119.9793272325
 21
-24.0
  0
LINE
  5
320
100
AcDbEntity
  8
RACCORDO
100
AcDbLine
 62
250
  6
CONTINUOUS
 10
-107.3793272325
 20
-25.9208078586
 11
-107.1793272325
 21
-25.9237007899
  0
LWPOLYLINE
  5
321
100
AcDbEntity
  8
SUPERFICI
100
AcDbPolyline
 62
7
  6
CONTINUOUS
 90
54
 70
0
 10
-117.0514184775
 20
40.8842059069
 10
-117.1065749937
 20
40.7130851225
 10
-117.1617883991
 20
40.5392223795
 10
-117.2169506261
 20
40.3628519098
 10
-117.2720173395
 20
40.1840131942
 10
-117.3269712636
 20
40.0026574007
 10
-117.3817488882
 20
39.818887983
 10
-117.4363187115
 20
39.6327044675
 10
-117.4906506777
 20
39.4440999896
 10
-117.5446851454
 20
39.2531674541
 10
-117.5983841751
 20
39.0599243774
 10
-117.6517227588
 20
38.8643405851
 10
-117.704661469
 20
38.6664368047
 10
-117.7571671919
 20
38.4662099216
 10
-117.80920801
 20
38.2636506413
 10
-117.8607462806
 20
38.0587706212
 10
-117.9117481967
 20
37.8515655084
 10
-117.9621803565
 20
37.6420275315
 10
-118.0120055083
 20
37.4301633823
 10
-118.0611886517
 20
37.2159690754
 10
-118.1096952284
 20
36.999436773
 10
-118.1574882608
 20
36.7805675319
 10
-118.2045314447
 20
36.5593577487
 10
-118.2507889389
 20
36.3357995191
 10
-118.2962238603
 20
36.1098875755
 10
-118.340795641
 20
35.8816333952
 10
-118.3844700751
 20
35.6510146041
 10
-118.4272188605
 20
35.4179768727
 10
-118.4689983381
 20
35.1825473293
 10
-118.5097750473
 20
34.9446944095
 10
-118.5495323095
 20
34.7042762845
 10
-118.5882275222
 20
34.4612924799
 10
-118.6258180853
 20
34.2157396656
 10
-118.6622815072
 20
33.967471098
 10
-118.6975715256
 20
33.716482919
 10
-118.7316406455
 20
33.4627761547
 10
-118.7644584712
 20
33.2062108534
 10
-118.795976865
 20
32.9467621086
 10
-118.8261410548
 20
32.6844533395
 10
-118.8549058506
 20
32.4192168975
 10
-118.8822400795
 20
32.1508183375
 10
-118.9080625354
 20
31.8794924374
 10
-118.9322632514
 20
31.6058776089
 10
-118.9547731143
 20
31.3303031969
 10
-118.9755779888
 20
31.0524477951
 10
-118.994655414
 20
30.7719749751
 10
-119.011945309
 20
30.4890293016
 10
-119.027405164
 20
30.2034745763
 10
-119.0410151665
 20
29.914550181
 10
-119.0527053718
 20
29.6222551931
 10
-119.0624044683
 20
29.32659725
 10
-119.0700568779
 20
29.02682323
 10
-119.0755762798
 20
28.7226815538
 10
-119.0788636706
 20
28.414426515
  0
LINE
  5
322
100
AcDbEntity
  8
SUPERFICI
100
AcDbLine
 62
7
  6
CONTINUOUS
 10
-116.9882911259
 20
41.0770389716
 11
-117.0514184775
 21
40.8842059069
  0
LINE
  5
323
100
AcDbEntity
  8
0
100
AcDbLine
 62
7
  6
CONTINUOUS
 10
-119.2702254843
 20
26.8475280419
 11
-119.2759262783
 21
26.8324252154
  0
LINE
  5
324
100
AcDbEntity
  8
0
100
AcDbLine
 62
7
  6
CONTINUOUS
 10
-119.2753144571
 20
26.8340343661
 11
-119.2810581044
 21
26.8190360068
  0
LINE
  5
325
100
AcDbEntity
  8
0
100
AcDbLine
 62
7
  6
CONTINUOUS
 10
-119.2804332119
 20
26.8206561941
 11
-119.2862178999
 21
26.8057633493
  0
LINE
  5
326
100
AcDbEntity
  8
0
100
AcDbLine
 62
7
  6
CONTINUOUS
 10
-119.2855800398
 20
26.8073940725
 11
-119.2914039442
 21
26.7926077756
  0
LINE
  5
327
100
AcDbEntity
  8
0
100
AcDbLine
 62
7
  6
CONTINUOUS
 10
-119.29075323
 20
26.7942485327
 11
-119.2966145155
 21
26.7795698035
  0
LINE
  5
328
100
AcDbEntity
  8
0
100
AcDbLine
 62
7
  6
CONTINUOUS
 10
-119.2959510704
 20
26.7812200916
 11
-119.3018478907
 21
26.766649936
  0
LINE
  5
329
100
AcDbEntity
  8
0
100
AcDbLine
 62
7
  6
CONTINUOUS
 10
-119.3011718479
 20
26.7683092511
 11
-119.3071023461
 21
26.7538486616
  0
LINE
  5
32A
100
AcDbEntity
  8
0
100
AcDbLine
 62
7
  6
CONTINUOUS
 10
-119.3064138483
 20
26.755516499
 11
-119.3123761576
 21
26.7411664548
  0
LINE
  5
32B
100
AcDbEntity
  8
0
100
AcDbLine
 62
7
  6
CONTINUOUS
 10
-119.3116753572
 20
26.7428423088
 11
-119.3176676009
 21
26.7286037756
  0
LINE
  5
32C
100
AcDbEntity
  8
0
100
AcDbLine
 62
7
  6
CONTINUOUS
 10
-119.31695466
 20
26.7302871397
 11
-119.3229749586
 21
26.7161610545
  0
LINE
  5
32D
100
AcDbEntity
  8
0
100
AcDbLine
 62
7
  6
CONTINUOUS
 10
-119.3222500448
 20
26.7178514315
 11
-119.3282966781
 21
26.7038383315
  0
LINE
  5
32E
100
AcDbEntity
  8
0
100
AcDbLine
 62
7
  6
CONTINUOUS
 10
-119.3275599324
 20
26.7055353056
 11
-119.3336313844
 21
26.69163525
  0
LINE
  5
32F
100
AcDbEntity
  8
0
100
AcDbLine
 62
7
  6
CONTINUOUS
 10
-119.3328829458
 20
26.6933384263
 11
-119.3389777248
 21
26.6795514287
  0
LINE
  5
330
100
AcDbEntity
  8
0
100
AcDbLine
 62
7
  6
CONTINUOUS
 10
-119.3382177378
 20
26.6812604155
 11
-119.3453468164
 21
26.6653406403
  0
LINE
  5
331
100
AcDbEntity
  8
0
100
AcDbLine
 62
7
  6
CONTINUOUS
 10
-119.3443343619
 20
26.6675864793
 11
-119.3514902785
 21
26.6518174416
  0
LINE
  5
332
100
AcDbEntity
  8
0
100
AcDbLine
 62
7
  6
CONTINUOUS
 10
-119.3507039374
 20
26.6535384806
 11
-119.3578580476
 21
26.6379850704
  0
LINE
  5
333
100
AcDbEntity
  8
0
100
AcDbLine
 62
7
  6
CONTINUOUS
 10
-119.356865824
 20
26.6401283145
 11
-119.3640422466
 21
26.6247255699
  0
LINE
  5
334
100
AcDbEntity
  8
0
100
AcDbLine
 62
7
  6
CONTINUOUS
 10
-119.3632304333
 20
26.6264565852
 11
-119.3704002832
 21
26.6112665831
  0
LINE
  5
335
100
AcDbEntity
  8
0
100
AcDbLine
 62
7
  6
CONTINUOUS
 10
-119.3694296891
 20
26.6133100389
 11
-119.376617397
 21
26.5982705664
  0
LINE
  5
336
100
AcDbEntity
  8
0
100
AcDbLine
 62
7
  6
CONTINUOUS
 10
-119.3757810566
 20
26.6000095225
 11
-119.3829575998
 21
26.5851798855
  0
LINE
  5
337
100
AcDbEntity
  8
0
100
AcDbLine
 62
7
  6
CONTINUOUS
 10
-119.3820099133
 20
26.5871263351
 11
-119.389199932
 21
26.5724470315
  0
LINE
  5
338
100
AcDbEntity
  8
0
100
AcDbLine
 62
7
  6
CONTINUOUS
 10
-119.3883400694
 20
26.5741919329
 11
-119.3955145057
 21
26.5597195338
  0
LINE
  5
339
100
AcDbEntity
  8
0
100
AcDbLine
 62
7
  6
CONTINUOUS
 10
-119.3945908849
 20
26.5615717397
 11
-119.401774487
 21
26.5472494218
  0
LINE
  5
33A
100
AcDbEntity
  8
0
100
AcDbLine
 62
7
  6
CONTINUOUS
 10
-119.4008921642
 20
26.5489983132
 11
-119.4080559413
 21
26.534879943
  0
LINE
  5
33B
100
AcDbEntity
  8
0
100
AcDbLine
 62
7
  6
CONTINUOUS
 10
-119.4071574239
 20
26.5366406528
 11
-119.4143261305
 21
26.5226720591
  0
LINE
  5
33C
100
AcDbEntity
  8
0
100
AcDbLine
 62
7
  6
CONTINUOUS
 10
-119.4134224635
 20
26.5244230254
 11
-119.420567269
 21
26.5106554127
  0
LINE
  5
33D
100
AcDbEntity
  8
0
100
AcDbLine
 62
7
  6
CONTINUOUS
 10
-119.4196947816
 20
26.5123273459
 11
-119.4268403551
 21
26.4987091547
  0
LINE
  5
33E
100
AcDbEntity
  8
0
100
AcDbLine
 62
7
  6
CONTINUOUS
 10
-119.4259165168
 20
26.5004603101
 11
-119.4330339642
 21
26.4870407132
  0
LINE
  5
33F
100
AcDbEntity
  8
0
100
AcDbLine
 62
7
  6
CONTINUOUS
 10
-119.4321884062
 20
26.4886264096
 11
-119.4401306323
 21
26.473821436
  0
LINE
  5
340
100
AcDbEntity
  8
0
100
AcDbLine
 62
7
  6
CONTINUOUS
 10
-119.4393010669
 20
26.4753585447
 11
-119.4472022232
 21
26.460804514
  0
LINE
  5
341
100
AcDbEntity
  8
0
100
AcDbLine
 62
7
  6
CONTINUOUS
 10
-119.4463890374
 20
26.4622936028
 11
-119.4542444389
 21
26.4479919112
  0
LINE
  5
342
100
AcDbEntity
  8
0
100
AcDbLine
 62
7
  6
CONTINUOUS
 10
-119.453447997
 20
26.4494335633
 11
-119.4612528879
 21
26.4353856936
  0
LINE
  5
343
100
AcDbEntity
  8
0
100
AcDbLine
 62
7
  6
CONTINUOUS
 10
-119.4604736101
 20
26.4367803653
 11
-119.4682232441
 21
26.4229877458
  0
LINE
  5
344
100
AcDbEntity
  8
0
100
AcDbLine
 62
7
  6
CONTINUOUS
 10
-119.4674614486
 20
26.4243360515
 11
-119.4716927878
 21
26.4168674432
  0
LINE
  5
345
100
AcDbEntity
  8
0
100
AcDbLine
 62
250
  6
CONTINUOUS
 10
-119.0792872325
 20
-22.2
 11
-119.8793272325
 21
-22.2
  0
LINE
  5
346
100
AcDbEntity
  8
RACCORDO
100
AcDbLine
 62
250
  6
CONTINUOUS
 10
-119.8793272325
 20
-22.2
 11
-120.9793272325
 21
-22.2
  0
LINE
  5
347
100
AcDbEntity
  8
DRAFT
100
AcDbLine
 62
7
  6
CONTINUOUS
 10
-97.1793272325
 20
-22.7676628277
 11
-92.1793272325
 21
-22.8112971667
  0
LINE
  5
348
100
AcDbEntity
  8
0
100
AcDbLine
 62
7
  6
CONTINUOUS
 10
-119.1549436217
 20
27.2320389471
 11
-119.1589925638
 21
27.2145357424
  0
LINE
  5
349
100
AcDbEntity
  8
0
100
AcDbLine
 62
7
  6
CONTINUOUS
 10
-119.1587188961
 20
27.2157039088
 11
-119.162850386
 21
27.1982868644
  0
LINE
  5
34A
100
AcDbEntity
  8
0
100
AcDbLine
 62
7
  6
CONTINUOUS
 10
-119.1625644604
 20
27.1994774921
 11
-119.1667770504
 21
27.1821472405
  0
LINE
  5
34B
100
AcDbEntity
  8
0
100
AcDbLine
 62
7
  6
CONTINUOUS
 10
-119.1664787265
 20
27.1833599066
 11
-119.1707709683
 21
27.1661170652
  0
LINE
  5
34C
100
AcDbEntity
  8
0
100
AcDbLine
 62
7
  6
CONTINUOUS
 10
-119.1704601139
 20
27.1673513469
 11
-119.1748305588
 21
27.1501965178
  0
LINE
  5
34D
100
AcDbEntity
  8
0
100
AcDbLine
 62
7
  6
CONTINUOUS
 10
-119.1745070502
 20
27.1514519925
 11
-119.1789542493
 21
27.1343857631
  0
LINE
  5
34E
100
AcDbEntity
  8
0
100
AcDbLine
 62
7
  6
CONTINUOUS
 10
-119.1786179707
 20
27.1356620083
 11
-119.1831404752
 21
27.1186849511
  0
LINE
  5
34F
100
AcDbEntity
  8
0
100
AcDbLine
 62
7
  6
CONTINUOUS
 10
-119.182791319
 20
27.1199815447
 11
-119.1873876804
 21
27.1030942174
  0
LINE
  5
350
100
AcDbEntity
  8
0
100
AcDbLine
 62
7
  6
CONTINUOUS
 10
-119.1870255469
 20
27.1044107378
 11
-119.1916943168
 21
27.0876136838
  0
LINE
  5
351
100
AcDbEntity
  8
0
100
AcDbLine
 62
7
  6
CONTINUOUS
 10
-119.1913191145
 20
27.0889497096
 11
-119.1960588452
 21
27.0722434577
  0
LINE
  5
352
100
AcDbEntity
  8
0
100
AcDbLine
 62
7
  6
CONTINUOUS
 10
-119.1956704904
 20
27.0735985683
 11
-119.2004797348
 21
27.0569836333
  0
LINE
  5
353
100
AcDbEntity
  8
0
100
AcDbLine
 62
7
  6
CONTINUOUS
 10
-119.2000781515
 20
27.0583574087
 11
-119.2049554635
 21
27.0418342911
  0
LINE
  5
354
100
AcDbEntity
  8
0
100
AcDbLine
 62
7
  6
CONTINUOUS
 10
-119.2045405836
 20
27.043226312
 11
-119.2094845181
 21
27.0267954982
  0
LINE
  5
355
100
AcDbEntity
  8
0
100
AcDbLine
 62
7
  6
CONTINUOUS
 10
-119.209056281
 20
27.0282053462
 11
-119.214065394
 21
27.0118673091
  0
LINE
  5
356
100
AcDbEntity
  8
0
100
AcDbLine
 62
7
  6
CONTINUOUS
 10
-119.2136237469
 20
27.0132945667
 11
-119.2186965959
 21
26.9970497653
  0
LINE
  5
357
100
AcDbEntity
  8
0
100
AcDbLine
 62
7
  6
CONTINUOUS
 10
-119.2182414933
 20
26.9984940158
 11
-119.2233766374
 21
26.9823428957
  0
LINE
  5
358
100
AcDbEntity
  8
0
100
AcDbLine
 62
7
  6
CONTINUOUS
 10
-119.2229080413
 20
26.9838037235
 11
-119.2281040412
 21
26.9677467161
  0
LINE
  5
359
100
AcDbEntity
  8
0
100
AcDbLine
 62
7
  6
CONTINUOUS
 10
-119.2276219211
 20
26.9692237072
 11
-119.232877342
 21
26.9532612235
  0
LWPOLYLINE
  5
35A
100
AcDbEntity
  8
0
100
AcDbPolyline
 62
7
  6
CONTINUOUS
 90
3
 70
0
 43
0.3500000087
 10
-109.3650454102
 20
51.5357151703
 10
-109.4364728333
 20
51.3214286377
 10
-109.5793276794
 20
51.035714682
  0
LWPOLYLINE
  5
35B
100
AcDbEntity
  8
0
100
AcDbPolyline
 62
7
  6
CONTINUOUS
 90
3
 70
0
 43
0.3500000087
 10
-105.543614325
 20
61.6981355652
 10
-105.615041748
 20
61.4838532959
 10
-105.7578965942
 20
61.1981350769
  0
LINE
  5
35C
100
AcDbEntity
  8
0
100
AcDbLine
 62
7
  6
CONTINUOUS
 10
-119.2323816746
 20
26.954753964
 11
-119.2376950422
 21
26.9388865251
  0
LINE
  5
35D
100
AcDbEntity
  8
0
100
AcDbLine
 62
7
  6
CONTINUOUS
 10
-119.2371858204
 20
26.9403945771
 11
-119.2425555206
 21
26.9246230969
  0
LINE
  5
35E
100
AcDbEntity
  8
0
100
AcDbLine
 62
7
  6
CONTINUOUS
 10
-119.2420327611
 20
26.9261459763
 11
-119.2474570773
 21
26.9104716228
  0
LINE
  5
35F
100
AcDbEntity
  8
0
100
AcDbLine
 62
7
  6
CONTINUOUS
 10
-119.2469208081
 20
26.9120088404
 11
-119.2523980135
 21
26.8964327559
  0
LINE
  5
360
100
AcDbEntity
  8
0
100
AcDbLine
 62
7
  6
CONTINUOUS
 10
-119.2518482722
 20
26.8979838211
 11
-119.2573766262
 21
26.8825071324
  0
LINE
  5
361
100
AcDbEntity
  8
0
100
AcDbLine
 62
7
  6
CONTINUOUS
 10
-119.2568134605
 20
26.8840715528
 11
-119.2623912093
 21
26.8686953723
  0
LINE
  5
362
100
AcDbEntity
  8
0
100
AcDbLine
 62
7
  6
CONTINUOUS
 10
-119.2618146766
 20
26.8702726539
 11
-119.2674400531
 21
26.8549980801
  0
LINE
  5
363
100
AcDbEntity
  8
0
100
AcDbLine
 62
7
  6
CONTINUOUS
 10
-119.2668502209
 20
26.8565877272
 11
-119.2708241405
 21
26.8459304273
  0
LINE
  5
364
100
AcDbEntity
  8
RACCORDO
100
AcDbLine
 62
7
  6
CONTINUOUS
 10
-118.3878097287
 20
-41.1770966506
 11
-118.3865544636
 21
-41.1886222569
  0
LINE
  5
365
100
AcDbEntity
  8
SUPERFICI
100
AcDbLine
 62
7
  6
CONTINUOUS
 10
-118.4453072449
 20
-40.6144299285
 11
-118.3876157042
 21
-41.178919919
  0
LINE
  5
366
100
AcDbEntity
  8
SUPERFICI
100
AcDbLine
 62
7
  6
CONTINUOUS
 10
-118.4995513752
 20
-40.0596745444
 11
-118.4453072449
 21
-40.6144299285
  0
LINE
  5
367
100
AcDbEntity
  8
SUPERFICI
100
AcDbLine
 62
7
  6
CONTINUOUS
 10
-118.5516115806
 20
-39.5021318447
 11
-118.4995513752
 21
-40.0596745444
  0
LINE
  5
368
100
AcDbEntity
  8
SUPERFICI
100
AcDbLine
 62
7
  6
CONTINUOUS
 10
-118.6063273449
 20
-38.8854194315
 11
-118.5516115806
 21
-39.5021318447
  0
LINE
  5
369
100
AcDbEntity
  8
0
100
AcDbLine
 62
7
  6
CONTINUOUS
 10
-119.0960561198
 20
27.5872518092
 11
-119.098115342
 21
27.5681595313
  0
LINE
  5
36A
100
AcDbEntity
  8
0
100
AcDbLine
 62
7
  6
CONTINUOUS
 10
-119.0980464524
 20
27.5687802193
 11
-119.1002172163
 21
27.5497577541
  0
LINE
  5
36B
100
AcDbEntity
  8
0
100
AcDbLine
 62
7
  6
CONTINUOUS
 10
-119.1001408263
 20
27.5504093346
 11
-119.10242174
 21
27.5314576484
  0
LINE
  5
36C
100
AcDbEntity
  8
0
100
AcDbLine
 62
7
  6
CONTINUOUS
 10
-119.1023375271
 20
27.5321397218
 11
-119.1047271936
 21
27.5132597634
  0
LINE
  5
36D
100
AcDbEntity
  8
0
100
AcDbLine
 62
7
  6
CONTINUOUS
 10
-119.1046348449
 20
27.513971928
 11
-119.1071318626
 21
27.4951646292
  0
LINE
  5
36E
100
AcDbEntity
  8
0
100
AcDbLine
 62
7
  6
CONTINUOUS
 10
-119.1070310746
 20
27.4959064809
 11
-119.1096340375
 21
27.4771727562
  0
LINE
  5
36F
100
AcDbEntity
  8
0
100
AcDbLine
 62
7
  6
CONTINUOUS
 10
-119.1095245159
 20
27.4779438887
 11
-119.1122320138
 21
27.4592846354
  0
LINE
  5
370
100
AcDbEntity
  8
0
100
AcDbLine
 62
7
  6
CONTINUOUS
 10
-119.1121134738
 20
27.4600846409
 11
-119.1149240926
 21
27.4415007393
  0
LINE
  5
371
100
AcDbEntity
  8
0
100
AcDbLine
 62
7
  6
CONTINUOUS
 10
-119.1147962585
 20
27.4423292077
 11
-119.1177085803
 21
27.4238215213
  0
LINE
  5
372
100
AcDbEntity
  8
0
100
AcDbLine
 62
7
  6
CONTINUOUS
 10
-119.1175711858
 20
27.4246780411
 11
-119.1205837891
 21
27.4062474164
  0
LINE
  5
373
100
AcDbEntity
  8
0
100
AcDbLine
 62
7
  6
CONTINUOUS
 10
-119.120436577
 20
27.4071315744
 11
-119.1235480372
 21
27.3887788413
  0
LINE
  5
374
100
AcDbEntity
  8
0
100
AcDbLine
 62
7
  6
CONTINUOUS
 10
-119.1233907594
 20
27.389690223
 11
-119.1265996488
 21
27.3714161946
  0
LINE
  5
375
100
AcDbEntity
  8
0
100
AcDbLine
 62
7
  6
CONTINUOUS
 10
-119.1264320661
 20
27.3723543841
 11
-119.1297369541
 21
27.3541598572
  0
LINE
  5
376
100
AcDbEntity
  8
0
100
AcDbLine
 62
7
  6
CONTINUOUS
 10
-119.1295588367
 20
27.3551244373
 11
-119.13295829
 21
27.3370101922
  0
LINE
  5
377
100
AcDbEntity
  8
0
100
AcDbLine
 62
7
  6
CONTINUOUS
 10
-119.1327694167
 20
27.3380007448
 11
-119.1362619997
 21
27.3199675454
  0
LINE
  5
378
100
AcDbEntity
  8
0
100
AcDbLine
 62
7
  6
CONTINUOUS
 10
-119.1360621584
 20
27.3209836514
 11
-119.1396464333
 21
27.3030322454
  0
LINE
  5
379
100
AcDbEntity
  8
0
100
AcDbLine
 62
7
  6
CONTINUOUS
 10
-119.1394354207
 20
27.3040734848
 11
-119.1431099477
 21
27.2862046039
  0
LINE
  5
37A
100
AcDbEntity
  8
0
100
AcDbLine
 62
7
  6
CONTINUOUS
 10
-119.1428875691
 20
27.2872705561
 11
-119.1466509067
 21
27.269484916
  0
LINE
  5
37B
100
AcDbEntity
  8
0
100
AcDbLine
 62
7
  6
CONTINUOUS
 10
-119.1464169763
 20
27.2705751595
 11
-119.1502676812
 21
27.25287346
  0
LINE
  5
37C
100
AcDbEntity
  8
0
100
AcDbLine
 62
7
  6
CONTINUOUS
 10
-119.1500220219
 20
27.2539875732
 11
-119.1539586495
 21
27.2363704984
  0
LINE
  5
37D
100
AcDbEntity
  8
0
100
AcDbLine
 62
7
  6
CONTINUOUS
 10
-119.1537010926
 20
27.2375080589
 11
-119.1552051804
 21
27.2308936647
  0
LWPOLYLINE
  5
37E
100
AcDbEntity
  8
RACCORDO
100
AcDbPolyline
 62
7
  6
CONTINUOUS
 90
49
 70
0
 10
-118.3865544636
 20
-41.1886222569
 10
-118.3828022494
 20
-41.2176677649
 10
-118.3781974697
 20
-41.2466118796
 10
-118.3727426374
 20
-41.2754274705
 10
-118.3664421686
 20
-41.3040835386
 10
-118.3593004391
 20
-41.3325548457
 10
-118.3513224075
 20
-41.3608169114
 10
-118.3425154226
 20
-41.3888402465
 10
-118.3328864612
 20
-41.4166002879
 10
-118.3224431058
 20
-41.4440730125
 10
-118.3111954941
 20
-41.4712302931
 10
-118.299153406
 20
-41.4980477787
 10
-118.2863266433
 20
-41.5245029522
 10
-118.2727269437
 20
-41.5505710709
 10
-118.2583661726
 20
-41.576229122
 10
-118.2432564038
 20
-41.6014552783
 10
-118.2274108777
 20
-41.6262271977
 10
-118.2108433004
 20
-41.6505232846
 10
-118.1935678379
 20
-41.6743226034
 10
-118.1755994091
 20
-41.6976044423
 10
-118.1569535522
 20
-41.7203485297
 10
-118.1376462609
 20
-41.7425352229
 10
-118.1176940115
 20
-41.7641454371
 10
-118.0971138469
 20
-41.785160539
 10
-118.0759236213
 20
-41.8055621286
 10
-118.054141854
 20
-41.8253322449
 10
-118.0317871616
 20
-41.8444538705
 10
-118.0088790052
 20
-41.8629102417
 10
-117.9854379967
 20
-41.8806847095
 10
-117.9614844203
 20
-41.8977619086
 10
-117.9370390203
 20
-41.9141270647
 10
-117.912123874
 20
-41.9297654704
 10
-117.8867605996
 20
-41.9446636831
 10
-117.8609711939
 20
-41.9588089068
 10
-117.8347789741
 20
-41.9721885278
 10
-117.8082067262
 20
-41.9847911343
 10
-117.7812774813
 20
-41.9966060276
 10
-117.7540154828
 20
-42.0076228358
 10
-117.7264444109
 20
-42.0178322957
 10
-117.6985881914
 20
-42.0272258504
 10
-117.6704718764
 20
-42.0357953943
 10
-117.6421199023
 20
-42.0435338629
 10
-117.613556814
 20
-42.0504349371
 10
-117.5848081491
 20
-42.0564928588
 10
-117.5558986499
 20
-42.0617028521
 10
-117.5268534996
 20
-42.066060814
 10
-117.4976991059
 20
-42.0695632805
 10
-117.4684611008
 20
-42.0722077448
 10
-117.4399140854
 20
-42.0739468554
  0
LINE
  5
37F
100
AcDbEntity
  8
RACCORDO
100
AcDbLine
 62
7
  6
CONTINUOUS
 10
-118.3878080721
 20
-41.1771125104
 11
-118.3877685973
 21
-41.1774543854
  0
LINE
  5
380
100
AcDbEntity
  8
SUPERFICI
100
AcDbLine
 62
7
  6
CONTINUOUS
 10
-118.6207872148
 20
-38.7165197517
 11
-118.6063273449
 21
-38.8854194315
  0
LWPOLYLINE
  5
381
100
AcDbEntity
  8
SUPERFICI
100
AcDbPolyline
 62
7
  6
CONTINUOUS
 90
4
 70
0
 10
-119.0094966764
 20
-32.1250247489
 10
-119.0093239688
 20
-32.130228221
 10
-119.0091626474
 20
-32.1350834931
 10
-119.0084057328
 20
-32.1577998133
  0
LWPOLYLINE
  5
382
100
AcDbEntity
  8
SUPERFICI
100
AcDbPolyline
 62
7
  6
CONTINUOUS
 90
4
 70
0
 10
-119.0102960379
 20
-32.1008654815
 10
-119.0100808852
 20
-32.1073804068
 10
-119.0098756512
 20
-32.1135864963
 10
-119.0094966764
 20
-32.1250247489
  0
LWPOLYLINE
  5
383
100
AcDbEntity
  8
SUPERFICI
100
AcDbPolyline
 62
7
  6
CONTINUOUS
 90
3
 70
0
 10
-119.0109991126
 20
-32.0795117725
 10
-119.0107555547
 20
-32.0869202975
 10
-119.0102960379
 20
-32.1008654815
  0
LWPOLYLINE
  5
384
100
AcDbEntity
  8
SUPERFICI
100
AcDbPolyline
 62
7
  6
CONTINUOUS
 90
3
 70
0
 10
-119.0117815481
 20
-32.0556302579
 10
-119.0115125849
 20
-32.0638536568
 10
-119.0109991126
 20
-32.0795117725
  0
LWPOLYLINE
  5
385
100
AcDbEntity
  8
SUPERFICI
100
AcDbPolyline
 62
7
  6
CONTINUOUS
 90
3
 70
0
 10
-119.0126332583
 20
-32.0294910072
 10
-119.0123425335
 20
-32.0384304113
 10
-119.0117815481
 20
-32.0556302579
  0
LINE
  5
386
100
AcDbEntity
  8
SUPERFICI
100
AcDbLine
 62
7
  6
CONTINUOUS
 10
-119.013234641
 20
-32.0109428536
 11
-119.0126332583
 21
-32.0294910072
  0
LWPOLYLINE
  5
387
100
AcDbEntity
  8
SUPERFICI
100
AcDbPolyline
 62
7
  6
CONTINUOUS
 90
3
 70
0
 10
-119.0141822501
 20
-31.9815597398
 10
-119.0138604143
 20
-31.9915607671
 10
-119.013234641
 20
-32.0109428536
  0
LINE
  5
388
100
AcDbEntity
  8
SUPERFICI
100
AcDbLine
 62
7
  6
CONTINUOUS
 10
-119.0148434065
 20
-31.9609436444
 11
-119.0141822501
 21
-31.9815597398
  0
LINE
  5
389
100
AcDbEntity
  8
SUPERFICI
100
AcDbLine
 62
7
  6
CONTINUOUS
 10
-119.0155270043
 20
-31.93952657
 11
-119.0148434065
 21
-31.9609436444
  0
LWPOLYLINE
  5
38A
100
AcDbEntity
  8
SUPERFICI
100
AcDbPolyline
 62
7
  6
CONTINUOUS
 90
3
 70
0
 10
-119.0165926617
 20
-31.9059307834
 10
-119.0162322629
 20
-31.9173214275
 10
-119.0155270043
 20
-31.93952657
  0
LINE
  5
38B
100
AcDbEntity
  8
SUPERFICI
100
AcDbLine
 62
7
  6
CONTINUOUS
 10
-119.0173284814
 20
-31.8825822668
 11
-119.0165926617
 21
-31.9059307834
  0
LINE
  5
38C
100
AcDbEntity
  8
SUPERFICI
100
AcDbLine
 62
7
  6
CONTINUOUS
 10
-119.0180833662
 20
-31.8584980831
 11
-119.0173284814
 21
-31.8825822668
  0
LINE
  5
38D
100
AcDbEntity
  8
SUPERFICI
100
AcDbLine
 62
7
  6
CONTINUOUS
 10
-119.0188560341
 20
-31.8337071685
 11
-119.0180833662
 21
-31.8584980831
  0
LINE
  5
38E
100
AcDbEntity
  8
SUPERFICI
100
AcDbLine
 62
7
  6
CONTINUOUS
 10
-119.0200459044
 20
-31.7952490717
 11
-119.0188560341
 21
-31.8337071685
  0
LINE
  5
38F
100
AcDbEntity
  8
SUPERFICI
100
AcDbLine
 62
7
  6
CONTINUOUS
 10
-119.0208579775
 20
-31.7688019203
 11
-119.0200459044
 21
-31.7952490717
  0
LINE
  5
390
100
AcDbEntity
  8
SUPERFICI
100
AcDbLine
 62
7
  6
CONTINUOUS
 10
-119.021684167
 20
-31.7417249892
 11
-119.0208579775
 21
-31.7688019203
  0
LINE
  5
391
100
AcDbEntity
  8
SUPERFICI
100
AcDbLine
 62
7
  6
CONTINUOUS
 10
-119.0225246739
 20
-31.7139994719
 11
-119.021684167
 21
-31.7417249892
  0
LINE
  5
392
100
AcDbEntity
  8
SUPERFICI
100
AcDbLine
 62
7
  6
CONTINUOUS
 10
-119.0238118621
 20
-31.6711806317
 11
-119.0225246739
 21
-31.7139994719
  0
LINE
  5
393
100
AcDbEntity
  8
SUPERFICI
100
AcDbLine
 62
7
  6
CONTINUOUS
 10
-119.0246872715
 20
-31.6418058191
 11
-119.0238118621
 21
-31.6711806317
  0
LINE
  5
394
100
AcDbEntity
  8
SUPERFICI
100
AcDbLine
 62
7
  6
CONTINUOUS
 10
-119.0260257285
 20
-31.5964843557
 11
-119.0246872715
 21
-31.6418058191
  0
LINE
  5
395
100
AcDbEntity
  8
SUPERFICI
100
AcDbLine
 62
7
  6
CONTINUOUS
 10
-119.0273937798
 20
-31.5496345553
 11
-119.0260257285
 21
-31.5964843557
  0
LINE
  5
396
100
AcDbEntity
  8
SUPERFICI
100
AcDbLine
 62
7
  6
CONTINUOUS
 10
-119.0287904584
 20
-31.5012353855
 11
-119.0273937798
 21
-31.5496345553
  0
LINE
  5
397
100
AcDbEntity
  8
SUPERFICI
100
AcDbLine
 62
7
  6
CONTINUOUS
 10
-119.0302147528
 20
-31.4512638165
 11
-119.0287904584
 21
-31.5012353855
  0
LINE
  5
398
100
AcDbEntity
  8
SUPERFICI
100
AcDbLine
 62
7
  6
CONTINUOUS
 10
-119.0321561518
 20
-31.3821018578
 11
-119.0302147528
 21
-31.4512638165
  0
LINE
  5
399
100
AcDbEntity
  8
SUPERFICI
100
AcDbLine
 62
7
  6
CONTINUOUS
 10
-119.0341438744
 20
-31.3099683709
 11
-119.0321561518
 21
-31.3821018578
  0
LINE
  5
39A
100
AcDbEntity
  8
SUPERFICI
100
AcDbLine
 62
7
  6
CONTINUOUS
 10
-119.0361751021
 20
-31.2347861229
 11
-119.0341438744
 21
-31.3099683709
  0
LINE
  5
39B
100
AcDbEntity
  8
SUPERFICI
100
AcDbLine
 62
7
  6
CONTINUOUS
 10
-119.0398241068
 20
-31.0956583262
 11
-119.0361751021
 21
-31.2347861229
  0
LINE
  5
39C
100
AcDbEntity
  8
SUPERFICI
100
AcDbLine
 62
7
  6
CONTINUOUS
 10
-119.0409898683
 20
-31.050007
 11
-119.0398241068
 21
-31.0956583262
  0
LINE
  5
39D
100
AcDbEntity
  8
0
100
AcDbLine
 62
7
  6
CONTINUOUS
 10
-119.0816377633
 20
-30.4881893564
 11
-119.0818212317
 21
-30.4797845239
  0
LINE
  5
39E
100
AcDbEntity
  8
0
100
AcDbLine
 62
7
  6
CONTINUOUS
 10
-119.0839738978
 20
-30.4798287271
 11
-119.0836834311
 21
-30.4934839793
  0
LINE
  5
39F
100
AcDbEntity
  8
0
100
AcDbLine
 62
7
  6
CONTINUOUS
 10
-119.0832125815
 20
-29.934939149
 11
-119.0833412954
 21
-29.9288131597
  0
LINE
  5
3A0
100
AcDbEntity
  8
0
100
AcDbLine
 62
250
  6
CONTINUOUS
 10
-119.6793347399
 20
26.0990622674
 11
-119.6793503396
 21
26.0999691893
  0
LINE
  5
3A1
100
AcDbEntity
  8
0
100
AcDbLine
 62
7
  6
CONTINUOUS
 10
-119.0934023051
 20
-29.3922631477
 11
-119.0935226257
 21
-29.3851416066
  0
LINE
  5
3A2
100
AcDbEntity
  8
0
100
AcDbLine
 62
7
  6
CONTINUOUS
 10
-119.1004792285
 20
-29.4000261311
 11
-119.1005767002
 21
-29.3923107355
  0
LINE
  5
3A3
100
AcDbEntity
  8
0
100
AcDbLine
 62
7
  6
CONTINUOUS
 10
-119.1031172578
 20
-28.688343458
 11
-119.1031382563
 21
-28.6864593891
  0
LINE
  5
3A4
100
AcDbEntity
  8
SUPERFICI
100
AcDbLine
 62
7
  6
CONTINUOUS
 10
-119.0797449252
 20
-27.9396102018
 11
-119.0797336322
 21
-27.9433094529
  0
LINE
  5
3A5
100
AcDbEntity
  8
0
100
AcDbLine
 62
7
  6
CONTINUOUS
 10
-119.0791169256
 20
27.8120524544
 11
-119.0792801268
 21
27.8778342274
  0
LINE
  5
3A6
100
AcDbEntity
  8
0
100
AcDbLine
 62
250
  6
CONTINUOUS
 10
-119.679276892
 20
26.0667343606
 11
-119.6793347399
 21
26.0990622674
  0
LINE
  5
3A7
100
AcDbEntity
  8
SUPERFICI
100
AcDbLine
 62
7
  6
CONTINUOUS
 10
-119.0797717793
 20
27.8999489356
 11
-119.0797717495
 21
27.8997741642
  0
LINE
  5
3A8
100
AcDbEntity
  8
RACCORDO
100
AcDbLine
 62
7
  6
CONTINUOUS
 10
-120.9793272325
 20
23.0
 11
-120.9793272325
 21
-23.0
  0
LINE
  5
3A9
100
AcDbEntity
  8
RACCORDO
100
AcDbLine
 62
250
  6
CONTINUOUS
 10
-119.9793272325
 20
24.0
 11
-119.9793272325
 21
-24.0
  0
LINE
  5
3AA
100
AcDbEntity
  8
0
100
AcDbLine
 62
7
  6
CONTINUOUS
 10
-119.8793272325
 20
-25.5
 11
-119.8793272325
 21
25.5
  0
LINE
  5
3AB
100
AcDbEntity
  8
0
100
AcDbLine
 62
250
  6
CONTINUOUS
 10
-119.6793172325
 20
-26.1000133331
 11
-119.6793501693
 21
26.0999693026
  0
LINE
  5
3AC
100
AcDbEntity
  8
0
100
AcDbLine
 62
250
  6
CONTINUOUS
 10
-119.6793571296
 20
22.877298061
 11
-119.6793914775
 21
24.8349104651
  0
LINE
  5
3AD
100
AcDbEntity
  8
0
100
AcDbLine
 62
250
  6
CONTINUOUS
 10
-119.679261042
 20
26.0077528743
 11
-119.679276892
 21
26.0667343606
  0
LINE
  5
3AE
100
AcDbEntity
  8
0
100
AcDbLine
 62
7
  6
CONTINUOUS
 10
-119.0794381647
 20
22.200071065
 11
-119.0794353576
 21
27.8902914825
  0
LINE
  5
3AF
100
AcDbEntity
  8
0
100
AcDbLine
 62
7
  6
CONTINUOUS
 10
-119.0792872325
 20
-27.8923061014
 11
-119.0792872326
 21
0.0013955758
  0
LINE
  5
3B0
100
AcDbEntity
  8
SUPERFICI
100
AcDbLine
 62
7
  6
CONTINUOUS
 10
-119.0794370653
 20
22.1589171124
 11
-119.0792872325
 21
0.0000318757
  0
LINE
  5
3B1
100
AcDbEntity
  8
0
100
AcDbLine
 62
7
  6
CONTINUOUS
 10
-119.0794623254
 20
23.6520699902
 11
-119.0795745443
 21
25.7360622113
  0
LINE
  5
3B2
100
AcDbEntity
  8
0
100
AcDbLine
 62
250
  6
CONTINUOUS
 10
-119.6793848655
 20
25.2417557765
 11
-119.6792615861
 21
25.9884569939
  0
LINE
  5
3B3
100
AcDbEntity
  8
0
100
AcDbLine
 62
7
  6
CONTINUOUS
 10
-119.0791052392
 20
27.6761119934
 11
-119.0791169256
 21
27.8120524544
  0
LINE
  5
3B4
100
AcDbEntity
  8
SUPERFICI
100
AcDbLine
 62
7
  6
CONTINUOUS
 10
-119.0797587856
 20
-27.9492670313
 11
-119.0798918024
 21
-28.149884
  0
LINE
  5
3B5
100
AcDbEntity
  8
0
100
AcDbLine
 62
7
  6
CONTINUOUS
 10
-119.0797700333
 20
27.9007277361
 11
-119.0798191048
 21
27.8825528767
  0
LINE
  5
3B6
100
AcDbEntity
  8
SUPERFICI
100
AcDbLine
 62
7
  6
CONTINUOUS
 10
-119.0788636706
 20
28.414426515
 11
-119.0798315651
 21
28.1112700026
  0
LINE
  5
3B7
100
AcDbEntity
  8
SUPERFICI
100
AcDbLine
 62
7
  6
CONTINUOUS
 10
-119.0795880366
 20
28.2750286447
 11
-119.0797717793
 21
27.8999489356
  0
LINE
  5
3B8
100
AcDbEntity
  8
0
100
AcDbLine
 62
7
  6
CONTINUOUS
 10
-119.0798191048
 20
27.8825528767
 11
-119.0799226503
 21
27.8693186955
  0
LINE
  5
3B9
100
AcDbEntity
  8
0
100
AcDbLine
 62
7
  6
CONTINUOUS
 10
-119.0799235226
 20
27.8692318022
 11
-119.080086524
 21
27.8559504697
  0
LINE
  5
3BA
100
AcDbEntity
  8
0
100
AcDbLine
 62
7
  6
CONTINUOUS
 10
-119.0800849125
 20
27.8560618869
 11
-119.0803075855
 21
27.8427091516
  0
LINE
  5
3BB
100
AcDbEntity
  8
0
100
AcDbLine
 62
7
  6
CONTINUOUS
 10
-119.0801877689
 20
27.8494484155
 11
-119.0804397252
 21
27.8361035823
  0
LINE
  5
3BC
100
AcDbEntity
  8
0
100
AcDbLine
 62
7
  6
CONTINUOUS
 10
-119.0803050223
 20
27.8428449411
 11
-119.0805861837
 21
27.8295081158
  0
LINE
  5
3BD
100
AcDbEntity
  8
0
100
AcDbLine
 62
7
  6
CONTINUOUS
 10
-119.0804366074
 20
27.8362515005
 11
-119.0807468956
 21
27.8229227827
  0
LINE
  5
3BE
100
AcDbEntity
  8
0
100
AcDbLine
 62
7
  6
CONTINUOUS
 10
-119.0805824593
 20
27.8296681243
 11
-119.0809167033
 21
27.8165316923
  0
LINE
  5
3BF
100
AcDbEntity
  8
0
100
AcDbLine
 62
7
  6
CONTINUOUS
 10
-119.0809167033
 20
27.8165316923
 11
-119.0813072344
 21
27.8034359025
  0
LINE
  5
3C0
100
AcDbEntity
  8
0
100
AcDbLine
 62
7
  6
CONTINUOUS
 10
-119.0813072344
 20
27.8034359025
 11
-119.0819974323
 21
27.78386897
  0
LINE
  5
3C1
100
AcDbEntity
  8
0
100
AcDbLine
 62
7
  6
CONTINUOUS
 10
-119.0817619684
 20
27.7901492743
 11
-119.0825378718
 21
27.7706088123
  0
LINE
  5
3C2
100
AcDbEntity
  8
0
100
AcDbLine
 62
7
  6
CONTINUOUS
 10
-119.082255079
 20
27.7773672498
 11
-119.0831098528
 21
27.7579242783
  0
LINE
  5
3C3
100
AcDbEntity
  8
0
100
AcDbLine
 62
7
  6
CONTINUOUS
 10
-119.0828239246
 20
27.7641161141
 11
-119.0837472487
 21
27.7450144175
  0
LINE
  5
3C4
100
AcDbEntity
  8
0
100
AcDbLine
 62
7
  6
CONTINUOUS
 10
-119.0837472487
 20
27.7450144175
 11
-119.0848033672
 21
27.725728386
  0
LINE
  5
3C5
100
AcDbEntity
  8
0
100
AcDbLine
 62
7
  6
CONTINUOUS
 10
-119.0844568936
 20
27.7318098912
 11
-119.0855964954
 21
27.7125529994
  0
LINE
  5
3C6
100
AcDbEntity
  8
0
100
AcDbLine
 62
7
  6
CONTINUOUS
 10
-119.0855733745
 20
27.7129238678
 11
-119.0868259859
 21
27.6937968911
  0
LINE
  5
3C7
100
AcDbEntity
  8
0
100
AcDbLine
 62
7
  6
CONTINUOUS
 10
-119.0864217382
 20
27.6997683886
 11
-119.0877565665
 21
27.6806719929
  0
LINE
  5
3C8
100
AcDbEntity
  8
0
100
AcDbLine
 62
7
  6
CONTINUOUS
 10
-119.0877253743
 20
27.6810990878
 11
-119.0891696389
 21
27.6621331804
  0
LINE
  5
3C9
100
AcDbEntity
  8
0
100
AcDbLine
 62
7
  6
CONTINUOUS
 10
-119.0887103387
 20
27.66799505
 11
-119.0902355321
 21
27.6490611352
  0
LINE
  5
3CA
100
AcDbEntity
  8
0
100
AcDbLine
 62
7
  6
CONTINUOUS
 10
-119.0901951862
 20
27.649543404
 11
-119.0918262781
 21
27.6307404819
  0
LINE
  5
3CB
100
AcDbEntity
  8
0
100
AcDbLine
 62
7
  6
CONTINUOUS
 10
-119.0913145972
 20
27.6364931523
 11
-119.0930253089
 21
27.6177236044
  0
LINE
  5
3CC
100
AcDbEntity
  8
0
100
AcDbLine
 62
7
  6
CONTINUOUS
 10
-119.0929747718
 20
27.6182599792
 11
-119.0948450119
 21
27.5990535416
  0
LINE
  5
3CD
100
AcDbEntity
  8
0
100
AcDbLine
 62
7
  6
CONTINUOUS
 10
-119.0947878806
 20
27.5996218614
 11
-119.0961178409
 21
27.5866624105
  0
LWPOLYLINE
  5
3CE
100
AcDbEntity
  8
0
100
AcDbPolyline
 62
7
  6
CONTINUOUS
 90
3
 70
0
 10
-119.0793720144
 20
27.8879194064
 10
-119.0794037193
 20
27.8895063499
 10
-119.0794353576
 20
27.8902914825
  0
LWPOLYLINE
  5
3CF
100
AcDbEntity
  8
0
100
AcDbPolyline
 62
7
  6
CONTINUOUS
 90
3
 70
0
 10
-119.0792801268
 20
27.8778342274
 10
-119.0793098971
 20
27.8821353024
 10
-119.0793720144
 20
27.8879194064
  0
LINE
  5
3D0
100
AcDbEntity
  8
RACCORDO
100
AcDbLine
 62
250
  6
CONTINUOUS
 10
-114.0793272325
 20
-42.2
 11
-114.0793272325
 21
-42.133051065
  0
LINE
  5
3D1
100
AcDbEntity
  8
RACCORDO
100
AcDbLine
 62
7
  6
CONTINUOUS
 10
-109.3793272325
 20
42.0956501172
 11
-109.3793272325
 21
42.3219583377
  0
LWPOLYLINE
  5
3D2
100
AcDbEntity
  8
0
100
AcDbPolyline
 62
7
  6
CONTINUOUS
 90
4
 70
0
 43
0.3500000087
 10
-108.6150446777
 20
61.840998938
 10
-108.6150446777
 20
62.6981365417
 10
-108.1864716125
 20
63.1267096069
 10
-107.5436162781
 20
63.1267096069
  0
LWPOLYLINE
  5
3D3
100
AcDbEntity
  8
0
100
AcDbPolyline
 62
7
  6
CONTINUOUS
 90
4
 70
0
 43
0.3500000087
 10
-108.3650444336
 20
51.6785700165
 10
-108.3650444336
 20
52.5357118835
 10
-107.9364713684
 20
52.9642849487
 10
-107.2936160339
 20
52.9642849487
  0
LINE
  5
3D4
100
AcDbEntity
  8
SUPERFICI
100
AcDbLine
 62
7
  6
CONTINUOUS
 10
-107.3793272325
 20
-42.25
 11
-107.3793272325
 21
-38.49
  0
LINE
  5
3D5
100
AcDbEntity
  8
ASSI
100
AcDbLine
 62
7
  6
CONTINUOUS
 10
-107.3793272325
 20
-38.49
 11
-107.3793272325
 21
37.5
  0
LINE
  5
3D6
100
AcDbEntity
  8
RACCORDO
100
AcDbLine
 62
7
  6
CONTINUOUS
 10
-107.1793272325
 20
37.5
 11
-107.1793272325
 21
-41.869010849
  0
LINE
  5
3D7
100
AcDbEntity
  8
RACCORDO
100
AcDbLine
 62
250
  6
CONTINUOUS
 10
-115.3353487914
 20
0.0001770396
 11
-119.0792872325
 21
0.00003
  0
LINE
  5
3D8
100
AcDbEntity
  8
RACCORDO
100
AcDbLine
 62
250
  6
CONTINUOUS
 10
-106.6880534357
 20
-38.5
 11
-106.6880534357
 21
-42.3689346966
  0
LWPOLYLINE
  5
3D9
100
AcDbEntity
  8
0
100
AcDbPolyline
 62
7
  6
CONTINUOUS
 90
4
 70
0
 43
0.3500000087
 10
-104.5436133484
 20
61.840998938
 10
-104.5436133484
 20
62.6981365417
 10
-104.1150402832
 20
63.1267096069
 10
-103.4721849487
 20
63.1267096069
  0
LINE
  5
3DA
100
AcDbEntity
  8
DRAFT
100
AcDbLine
 62
7
  6
CONTINUOUS
 10
-99.1793272325
 20
-42.5
 11
-99.1793272325
 21
42.5
  0
LINE
  5
3DB
100
AcDbEntity
  8
RACCORDO
100
AcDbLine
 62
250
  6
CONTINUOUS
 10
-97.578242928
 20
39.5709907536
 11
-97.578242928
 21
-39.5709907536
  0
LINE
  5
3DC
100
AcDbEntity
  8
RACCORDO
100
AcDbLine
 62
7
  6
CONTINUOUS
 10
-97.1793272325
 20
-39.0511137006
 11
-97.1793272325
 21
39.0511137006
  0
LINE
  5
3DD
100
AcDbEntity
  8
DRAFT
100
AcDbLine
 62
7
  6
CONTINUOUS
 10
-92.1793272325
 20
-25.5525159343
 11
-92.1793272325
 21
25.5525159343
  0
LWPOLYLINE
  5
3DE
100
AcDbEntity
  8
0
100
AcDbPolyline
 62
7
  6
CONTINUOUS
 90
10
 70
0
 43
0.3500000087
 10
-109.4364728333
 20
51.7500017029
 10
-109.3650454102
 20
51.6071425934
 10
-109.3650454102
 20
51.5357151703
 10
-109.5079002563
 20
51.3928560608
 10
-109.5793276794
 20
51.3928560608
 10
-109.6507551025
 20
51.4642877472
 10
-109.6507551025
 20
51.5357151703
 10
-109.5793276794
 20
51.6785700165
 10
-109.5079002563
 20
51.7500017029
 10
-109.4364728333
 20
51.7500017029
  0
LINE
  5
3DF
100
AcDbEntity
  8
DRAFT
100
AcDbLine
 62
7
  6
CONTINUOUS
 10
-97.1793272325
 20
22.7676628277
 11
-92.1793272325
 21
22.8112971667
  0
LINE
  5
3E0
100
AcDbEntity
  8
0
100
AcDbLine
 62
250
  6
CONTINUOUS
 10
-119.0794359204
 20
22.1186860165
 11
-119.6793358173
 21
22.118634572
  0
LINE
  5
3E1
100
AcDbEntity
  8
0
100
AcDbLine
 62
250
  6
CONTINUOUS
 10
-119.8793272325
 20
22.2
 11
-119.6793549602
 21
22.2
  0
LINE
  5
3E2
100
AcDbEntity
  8
RACCORDO
100
AcDbLine
 62
250
  6
CONTINUOUS
 10
-107.1793272325
 20
22.2
 11
-107.3793272325
 21
22.2
  0
LINE
  5
3E3
100
AcDbEntity
  8
RACCORDO
100
AcDbLine
 62
250
  6
CONTINUOUS
 10
-119.8793272325
 20
22.2
 11
-120.9793272325
 21
22.2
  0
LINE
  5
3E4
100
AcDbEntity
  8
0
100
AcDbLine
 62
250
  6
CONTINUOUS
 10
-119.0794381647
 20
22.200071065
 11
-119.6793549401
 21
22.2
  0
LINE
  5
3E5
100
AcDbEntity
  8
RACCORDO
100
AcDbLine
 62
7
  6
CONTINUOUS
 10
-119.8793272325
 20
24.0
 11
-119.9793272325
 21
24.0
  0
LINE
  5
3E6
100
AcDbEntity
  8
DRAFT
100
AcDbLine
 62
7
  6
CONTINUOUS
 10
-97.1793272325
 20
23.7599633743
 11
-92.1792605839
 21
23.7163284537
  0
LINE
  5
3E7
100
AcDbEntity
  8
DRAFT
100
AcDbLine
 62
7
  6
CONTINUOUS
 10
-97.1793272325
 20
25.5961502733
 11
-92.1793272325
 21
25.5525159343
  0
LINE
  5
3E8
100
AcDbEntity
  8
0
100
AcDbLine
 62
7
  6
CONTINUOUS
 10
-109.8659061058
 20
41.7865788733
 11
-110.2787181753
 21
42.1993909428
  0
LWPOLYLINE
  5
3E9
100
AcDbEntity
  8
0
100
AcDbPolyline
 62
7
  6
CONTINUOUS
 90
10
 70
0
 43
0.3500000087
 10
-105.615041748
 20
61.9124263611
 10
-105.543614325
 20
61.7695629883
 10
-105.543614325
 20
61.6981355652
 10
-105.6864691711
 20
61.555280719
 10
-105.7578965942
 20
61.555280719
 10
-105.8293240173
 20
61.6267081421
 10
-105.8293240173
 20
61.6981355652
 10
-105.7578965942
 20
61.840998938
 10
-105.6864691711
 20
61.9124263611
 10
-105.615041748
 20
61.9124263611
  0
LINE
  5
3EA
100
AcDbEntity
  8
RACCORDO
100
AcDbLine
 62
7
  6
CONTINUOUS
 10
-107.1793272325
 20
31.4
 11
-107.3793272325
 21
31.3930158461
  0
LINE
  5
3EB
100
AcDbEntity
  8
RACCORDO
100
AcDbLine
 62
7
  6
CONTINUOUS
 10
-107.3793272325
 20
32.8
 11
-107.1793272325
 21
32.8
  0
LINE
  5
3EC
100
AcDbEntity
  8
RACCORDO
100
AcDbLine
 62
250
  6
CONTINUOUS
 10
-99.1793272325
 20
36.7
 11
-97.1793272325
 21
36.7
  0
LINE
  5
3ED
100
AcDbEntity
  8
RACCORDO
100
AcDbLine
 62
250
  6
CONTINUOUS
 10
-107.4659592595
 20
38.49
 11
-115.0707796755
 21
38.49
  0
LINE
  5
3EE
100
AcDbEntity
  8
RACCORDO
100
AcDbLine
 62
250
  6
CONTINUOUS
 10
-99.1793272325
 20
38.5
 11
-106.7756931948
 21
38.5
  0
LINE
  5
3EF
100
AcDbEntity
  8
RACCORDO
100
AcDbLine
 62
7
  6
CONTINUOUS
 10
-110.2787181753
 20
42.1993909428
 11
-115.5900475916
 21
42.106681343
  0
LINE
  5
3F0
100
AcDbEntity
  8
DRAFT
100
AcDbLine
 62
7
  6
CONTINUOUS
 10
-99.1793272325
 20
42.5
 11
-109.3793272325
 21
42.3219583377
  0
LWPOLYLINE
  5
3F1
100
AcDbEntity
  8
0
100
AcDbPolyline
 62
7
  6
CONTINUOUS
 90
7
 70
0
 43
0.3500000087
 10
-112.6507580322
 20
51.2500012146
 10
-114.1507594971
 20
51.2500012146
 10
-112.6507580322
 20
53.3928580139
 10
-112.6507580322
 20
53.8214310791
 10
-113.0793310974
 20
54.2500041443
 10
-113.7221864319
 20
54.2500041443
 10
-114.1507594971
 20
53.6071402832
  0
LWPOLYLINE
  5
3F2
100
AcDbEntity
  8
0
100
AcDbPolyline
 62
7
  6
CONTINUOUS
 90
7
 70
0
 43
0.3500000087
 10
-109.4721822815
 20
61.4124258728
 10
-110.9721837463
 20
61.4124258728
 10
-109.4721822815
 20
63.5552826721
 10
-109.4721822815
 20
63.9838557373
 10
-109.9007553467
 20
64.4124202759
 10
-110.5436106812
 20
64.4124202759
 10
-110.9721837463
 20
63.7695649414
  0
LINE
  5
3F3
100
AcDbEntity
  8
RACCORDO
100
AcDbLine
 62
7
  6
CONTINUOUS
 10
-99.1793272325
 20
40.0
 11
-97.578242928
 21
39.5709907536
  0
LWPOLYLINE
  5
3F4
100
AcDbEntity
  8
0
100
AcDbPolyline
 62
7
  6
CONTINUOUS
 90
13
 70
0
 43
0.3500000087
 10
-107.9364713684
 20
52.9642849487
 10
-108.2221810608
 20
53.178567218
 10
-108.2221810608
 20
53.8214310791
 10
-107.9364713684
 20
54.2500041443
 10
-107.2936160339
 20
54.2500041443
 10
-107.0078978149
 20
53.8214310791
 10
-107.0078978149
 20
53.178567218
 10
-107.2936160339
 20
52.9642849487
 10
-106.8650429687
 20
52.5357118835
 10
-106.8650429687
 20
51.6785700165
 10
-107.2936160339
 20
51.2500012146
 10
-107.9364713684
 20
51.2500012146
 10
-108.3650444336
 20
51.6785700165
  0
LWPOLYLINE
  5
3F5
100
AcDbEntity
  8
0
100
AcDbPolyline
 62
7
  6
CONTINUOUS
 90
13
 70
0
 43
0.3500000087
 10
-108.1864716125
 20
63.1267096069
 10
-108.4721813049
 20
63.3409918762
 10
-108.4721813049
 20
63.9838557373
 10
-108.1864716125
 20
64.4124202759
 10
-107.5436162781
 20
64.4124202759
 10
-107.2578980591
 20
63.9838557373
 10
-107.2578980591
 20
63.3409918762
 10
-107.5436162781
 20
63.1267096069
 10
-107.1150432129
 20
62.6981365417
 10
-107.1150432129
 20
61.840998938
 10
-107.5436162781
 20
61.4124258728
 10
-108.1864716125
 20
61.4124258728
 10
-108.6150446777
 20
61.840998938
  0
LWPOLYLINE
  5
3F6
100
AcDbEntity
  8
0
100
AcDbPolyline
 62
7
  6
CONTINUOUS
 90
13
 70
0
 43
0.3500000087
 10
-104.1150402832
 20
63.1267096069
 10
-104.4007585022
 20
63.3409918762
 10
-104.4007585022
 20
63.9838557373
 10
-104.1150402832
 20
64.4124202759
 10
-103.4721849487
 20
64.4124202759
 10
-103.1864667297
 20
63.9838557373
 10
-103.1864667297
 20
63.3409918762
 10
-103.4721849487
 20
63.1267096069
 10
-103.0436118835
 20
62.6981365417
 10
-103.0436118835
 20
61.840998938
 10
-103.4721849487
 20
61.4124258728
 10
-104.1150402832
 20
61.4124258728
 10
-104.5436133484
 20
61.840998938
  0
ARC
  5
3F7
100
AcDbEntity
  8
0
100
AcDbCircle
 62
250
  6
CONTINUOUS
 10
-44.7
 20
-22.2
 40
5.7000533238
100
AcDbArc
 50
180.0
 51
270.0
  0
ARC
  5
3F8
100
AcDbEntity
  8
DRAFT
100
AcDbCircle
 62
7
  6
CONTINUOUS
 10
-69.5
 20
-38.5
 40
4.0
100
AcDbArc
 50
180.0
 51
270.0
  0
ARC
  5
3F9
100
AcDbEntity
  8
0
100
AcDbCircle
 62
250
  6
CONTINUOUS
 10
-44.7
 20
-22.2
 40
3.9000133322
100
AcDbArc
 50
180.0
 51
270.0
  0
ARC
  5
3FA
100
AcDbEntity
  8
RACCORDO
100
AcDbCircle
 62
250
  6
CONTINUOUS
 10
-69.5
 20
-38.5
 40
3.8689346966
100
AcDbArc
 50
180.0
 51
270.0
  0
ARC
  5
3FB
100
AcDbEntity
  8
SUPERFICI
100
AcDbCircle
 62
7
  6
CONTINUOUS
 10
-69.49
 20
-38.49
 40
3.76
100
AcDbArc
 50
180.0
 51
270.0
  0
ARC
  5
3FC
100
AcDbEntity
  8
RACCORDO
100
AcDbCircle
 62
250
  6
CONTINUOUS
 10
-69.4947314854
 20
-38.4901313745
 40
3.6165480878
100
AcDbArc
 50
179.9979186659
 51
270.0749593852
  0
ARC
  5
3FD
100
AcDbEntity
  8
0
100
AcDbCircle
 62
7
  6
CONTINUOUS
 10
-44.7
 20
-22.2
 40
2.3
100
AcDbArc
 50
180.0
 51
270.0
  0
ARC
  5
3FE
100
AcDbEntity
  8
RACCORDO
100
AcDbCircle
 62
7
  6
CONTINUOUS
 10
-44.7
 20
-22.2
 40
1.8
100
AcDbArc
 50
180.0
 51
270.0
  0
ARC
  5
3FF
100
AcDbEntity
  8
RACCORDO
100
AcDbCircle
 62
250
  6
CONTINUOUS
 10
-44.7
 20
-22.2
 40
0.7999844315
100
AcDbArc
 50
180.0
 51
270.0
  0
ARC
  5
400
100
AcDbEntity
  8
RACCORDO
100
AcDbCircle
 62
7
  6
CONTINUOUS
 10
-32.25
 20
-41.45
 40
0.75
100
AcDbArc
 50
236.5104164765
 51
270.0
  0
ARC
  5
401
100
AcDbEntity
  8
RACCORDO
100
AcDbCircle
 62
250
  6
CONTINUOUS
 10
-31.7999895822
 20
-42.0689295195
 40
0.3000046408
100
AcDbArc
 50
269.9980103846
 51
334.0900912441
  0
ARC
  5
402
100
AcDbEntity
  8
RACCORDO
100
AcDbCircle
 62
250
  6
CONTINUOUS
 10
-249.1606879562
 20
37.5066100283
 40
322.5296227173
100
AcDbArc
 50
359.9988257614
 51
0.176471055
  0
ARC
  5
403
100
AcDbEntity
  8
0
100
AcDbCircle
 62
250
  6
CONTINUOUS
 10
-76.0288486483
 20
22.2619880385
 40
25.6292019824
100
AcDbArc
 50
359.6795778114
 51
359.8615803679
  0
ARC
  5
404
100
AcDbEntity
  8
RACCORDO
100
AcDbCircle
 62
250
  6
CONTINUOUS
 10
-67.4690514756
 20
36.9882119394
 40
5.9149543895
100
AcDbArc
 50
120.2905357723
 51
121.0318379653
  0
ARC
  5
405
100
AcDbEntity
  8
DRAFT
100
AcDbCircle
 62
7
  6
CONTINUOUS
 10
-69.5
 20
38.5
 40
4.0
100
AcDbArc
 50
90.0
 51
180.0
  0
ARC
  5
406
100
AcDbEntity
  8
0
100
AcDbCircle
 62
250
  6
CONTINUOUS
 10
-44.6998614322
 20
22.1999435627
 40
3.9000918768
100
AcDbArc
 50
90.0020357168
 51
179.9991708881
  0
ARC
  5
407
100
AcDbEntity
  8
RACCORDO
100
AcDbCircle
 62
7
  6
CONTINUOUS
 10
-69.5
 20
38.5
 40
3.8219583377
100
AcDbArc
 50
90.0
 51
103.9651668264
  0
ARC
  5
408
100
AcDbEntity
  8
RACCORDO
100
AcDbCircle
 62
250
  6
CONTINUOUS
 10
-69.4933065918
 20
38.4934629978
 40
3.6224185191
100
AcDbArc
 50
89.9476989537
 51
180.0547739029
  0
ARC
  5
409
100
AcDbEntity
  8
0
100
AcDbCircle
 62
7
  6
CONTINUOUS
 10
-44.7
 20
22.2
 40
2.3
100
AcDbArc
 50
90.0
 51
180.0
  0
ARC
  5
40A
100
AcDbEntity
  8
RACCORDO
100
AcDbCircle
 62
7
  6
CONTINUOUS
 10
-44.7
 20
22.2
 40
1.8
100
AcDbArc
 50
90.0
 51
180.0
  0
ARC
  5
40B
100
AcDbEntity
  8
RACCORDO
100
AcDbCircle
 62
250
  6
CONTINUOUS
 10
-44.7
 20
22.2
 40
0.7999844315
100
AcDbArc
 50
90.0
 51
180.0
  0
ARC
  5
40C
100
AcDbEntity
  8
0
100
AcDbCircle
 62
250
  6
CONTINUOUS
 10
44.7
 20
-22.2
 40
5.7000533238
100
AcDbArc
 50
270.0
 51
360.0
  0
ARC
  5
40D
100
AcDbEntity
  8
DRAFT
100
AcDbCircle
 62
7
  6
CONTINUOUS
 10
69.5
 20
-38.5
 40
4.0
100
AcDbArc
 50
270.0
 51
360.0
  0
ARC
  5
40E
100
AcDbEntity
  8
0
100
AcDbCircle
 62
250
  6
CONTINUOUS
 10
44.7
 20
-22.2
 40
3.9000133322
100
AcDbArc
 50
270.0
 51
360.0
  0
ARC
  5
40F
100
AcDbEntity
  8
RACCORDO
100
AcDbCircle
 62
250
  6
CONTINUOUS
 10
69.5
 20
-38.5
 40
3.8689346966
100
AcDbArc
 50
270.0
 51
360.0
  0
ARC
  5
410
100
AcDbEntity
  8
SUPERFICI
100
AcDbCircle
 62
7
  6
CONTINUOUS
 10
69.49
 20
-38.49
 40
3.76
100
AcDbArc
 50
270.0
 51
360.0
  0
ARC
  5
411
100
AcDbEntity
  8
RACCORDO
100
AcDbCircle
 62
250
  6
CONTINUOUS
 10
69.4947305854
 20
-38.4901313497
 40
3.6165480878
100
AcDbArc
 50
269.9250548729
 51
0.0020809418
  0
ARC
  5
412
100
AcDbEntity
  8
0
100
AcDbCircle
 62
7
  6
CONTINUOUS
 10
44.7
 20
-22.2
 40
2.3
100
AcDbArc
 50
270.0
 51
360.0
  0
ARC
  5
413
100
AcDbEntity
  8
RACCORDO
100
AcDbCircle
 62
7
  6
CONTINUOUS
 10
44.7
 20
-22.2
 40
1.8
100
AcDbArc
 50
270.0
 51
360.0
  0
ARC
  5
414
100
AcDbEntity
  8
0
100
AcDbCircle
 62
7
  6
CONTINUOUS
 10
48.61733
 20
-29.039265
 40
0.8893898871
100
AcDbArc
 50
292.842868527
 51
90.0
  0
ARC
  5
415
100
AcDbEntity
  8
RACCORDO
100
AcDbCircle
 62
250
  6
CONTINUOUS
 10
44.7
 20
-22.2
 40
0.7999844315
100
AcDbArc
 50
270.0
 51
360.0
  0
ARC
  5
416
100
AcDbEntity
  8
RACCORDO
100
AcDbCircle
 62
7
  6
CONTINUOUS
 10
32.25
 20
-41.45
 40
0.75
100
AcDbArc
 50
269.9999999998
 51
303.4895834936
  0
ARC
  5
417
100
AcDbEntity
  8
0
100
AcDbCircle
 62
7
  6
CONTINUOUS
 10
48.536824
 20
-29.039265
 40
0.352865
100
AcDbArc
 50
270.0
 51
90.0
  0
ARC
  5
418
100
AcDbEntity
  8
RACCORDO
100
AcDbCircle
 62
250
  6
CONTINUOUS
 10
31.7999895822
 20
-42.0689295195
 40
0.3000046408
100
AcDbArc
 50
205.9099086925
 51
270.0019896173
  0
ARC
  5
419
100
AcDbEntity
  8
RACCORDO
100
AcDbCircle
 62
250
  6
CONTINUOUS
 10
247.9407236606
 20
37.5084762677
 40
321.3096584658
100
AcDbArc
 50
179.8231916974
 51
180.0015114839
  0
ARC
  5
41A
100
AcDbEntity
  8
0
100
AcDbCircle
 62
250
  6
CONTINUOUS
 10
76.0268269653
 20
22.2619884928
 40
25.6271803064
100
AcDbArc
 50
180.1384315675
 51
180.3203927026
  0
ARC
  5
41B
100
AcDbEntity
  8
RACCORDO
100
AcDbCircle
 62
250
  6
CONTINUOUS
 10
67.4682567279
 20
36.9870370187
 40
5.9164273867
100
AcDbArc
 50
58.9654784041
 51
59.7076022409
  0
ARC
  5
41C
100
AcDbEntity
  8
DRAFT
100
AcDbCircle
 62
7
  6
CONTINUOUS
 10
69.5
 20
38.5
 40
4.0
100
AcDbArc
 50
0.0
 51
90.0
  0
ARC
  5
41D
100
AcDbEntity
  8
0
100
AcDbCircle
 62
250
  6
CONTINUOUS
 10
44.6998609578
 20
22.1999430886
 40
3.900091868
100
AcDbArc
 50
0.0008360761
 51
89.9979573139
  0
ARC
  5
41E
100
AcDbEntity
  8
RACCORDO
100
AcDbCircle
 62
7
  6
CONTINUOUS
 10
69.5
 20
38.5
 40
3.8219583377
100
AcDbArc
 50
76.0328536083
 51
90.0
  0
ARC
  5
41F
100
AcDbEntity
  8
RACCORDO
100
AcDbCircle
 62
250
  6
CONTINUOUS
 10
69.493306979
 20
38.4934633849
 40
3.622418519
100
AcDbArc
 50
359.9452199685
 51
90.0523071753
  0
ARC
  5
420
100
AcDbEntity
  8
0
100
AcDbCircle
 62
7
  6
CONTINUOUS
 10
44.7
 20
22.2
 40
2.3
100
AcDbArc
 50
0.0
 51
90.0
  0
ARC
  5
421
100
AcDbEntity
  8
RACCORDO
100
AcDbCircle
 62
7
  6
CONTINUOUS
 10
44.7
 20
22.2
 40
1.8
100
AcDbArc
 50
0.0
 51
90.0
  0
ARC
  5
422
100
AcDbEntity
  8
RACCORDO
100
AcDbCircle
 62
250
  6
CONTINUOUS
 10
44.7
 20
22.2
 40
0.7999844315
100
AcDbArc
 50
0.0
 51
90.0
  0
ARC
  5
423
100
AcDbEntity
  8
0
100
AcDbCircle
 62
7
  6
CONTINUOUS
 10
-258.6916988375
 20
-31.7276773816
 40
139.634018988
100
AcDbArc
 50
0.9619128091
 51
1.2480844742
  0
ARC
  5
424
100
AcDbEntity
  8
0
100
AcDbCircle
 62
7
  6
CONTINUOUS
 10
-122.0792872325
 20
-27.9000533324
 40
3.0
100
AcDbArc
 50
0.0
 51
36.8708525649
  0
ARC
  5
425
100
AcDbEntity
  8
RACCORDO
100
AcDbCircle
 62
7
  6
CONTINUOUS
 10
-117.3930029967
 20
-41.0750582777
 40
1.0000000908
100
AcDbArc
 50
267.3111834157
 51
269.0000002474
  0
ARC
  5
426
100
AcDbEntity
  8
RACCORDO
100
AcDbCircle
 62
7
  6
CONTINUOUS
 10
-119.9793272325
 20
-23.0
 40
1.0
100
AcDbArc
 50
180.0
 51
270.0
  0
ARC
  5
427
100
AcDbEntity
  8
0
100
AcDbCircle
 62
7
  6
CONTINUOUS
 10
-118.8793272325
 20
-25.5
 40
1.0
100
AcDbArc
 50
180.0
 51
216.8708525649
  0
ARC
  5
428
100
AcDbEntity
  8
RACCORDO
100
AcDbCircle
 62
7
  6
CONTINUOUS
 10
-115.3293272325
 20
-41.45
 40
0.75
100
AcDbArc
 50
240.8390708624
 51
270.0000013113
  0
ARC
  5
429
100
AcDbEntity
  8
RACCORDO
100
AcDbCircle
 62
7
  6
CONTINUOUS
 10
-113.0793272325
 20
37.5
 40
5.9
100
AcDbArc
 50
0.0
 51
51.162140198
  0
ARC
  5
42A
100
AcDbEntity
  8
RACCORDO
100
AcDbCircle
 62
250
  6
CONTINUOUS
 10
-112.4186275523
 20
37.5016152743
 40
5.7305741617
100
AcDbArc
 50
359.9838500651
 51
10.0333117151
  0
ARC
  5
42B
100
AcDbEntity
  8
ASSI
100
AcDbCircle
 62
7
  6
CONTINUOUS
 10
-113.0793272325
 20
37.5
 40
5.7
100
AcDbArc
 50
0.0
 51
10.0020963862
  0
ARC
  5
42C
100
AcDbEntity
  8
0
100
AcDbCircle
 62
7
  6
CONTINUOUS
 10
-113.0793272325
 20
37.5
 40
5.7
100
AcDbArc
 50
10.0020963862
 51
48.8534055721
  0
ARC
  5
42D
100
AcDbEntity
  8
0
100
AcDbCircle
 62
7
  6
CONTINUOUS
 10
-122.0792872325
 20
27.9000533324
 40
3.0
100
AcDbArc
 50
323.1323089827
 51
359.8135851725
  0
ARC
  5
42E
100
AcDbEntity
  8
RACCORDO
100
AcDbCircle
 62
7
  6
CONTINUOUS
 10
-115.5638689819
 20
40.6069098003
 40
1.5
100
AcDbArc
 50
91.0
 51
161.7346116185
  0
ARC
  5
42F
100
AcDbEntity
  8
RACCORDO
100
AcDbCircle
 62
7
  6
CONTINUOUS
 10
-119.9793272325
 20
23.0
 40
1.0
100
AcDbArc
 50
90.0
 51
180.0
  0
ARC
  5
430
100
AcDbEntity
  8
0
100
AcDbCircle
 62
7
  6
CONTINUOUS
 10
-118.8793272325
 20
25.5
 40
1.0
100
AcDbArc
 50
143.1323089741
 51
180.0
  0
ARC
  5
431
100
AcDbEntity
  8
0
100
AcDbCircle
 62
7
  6
CONTINUOUS
 10
39.8727844419
 20
-26.9282154666
 40
158.9856453251
100
AcDbArc
 50
180.4402708091
 51
180.6336547524
  0
ARC
  5
432
100
AcDbEntity
  8
0
100
AcDbCircle
 62
7
  6
CONTINUOUS
 10
27.156754985
 20
-26.80682195
 40
146.2699343685
100
AcDbArc
 50
180.7362739265
 51
181.0127497471
  0
ARC
  5
433
100
AcDbEntity
  8
0
100
AcDbCircle
 62
7
  6
CONTINUOUS
 10
11.2505497871
 20
-27.2421913942
 40
130.3616886506
100
AcDbArc
 50
180.6356170299
 51
180.9418989284
  0
ARC
  5
434
100
AcDbEntity
  8
RACCORDO
100
AcDbCircle
 62
7
  6
CONTINUOUS
 10
8.7332614751
 20
-27.8985377287
 40
127.8126827072
100
AcDbArc
 50
184.8552839089
 51
185.9641071191
  0
ARC
  5
435
100
AcDbEntity
  8
RACCORDO
100
AcDbCircle
 62
7
  6
CONTINUOUS
 10
8.7058157439
 20
-27.9006434324
 40
127.7851572265
100
AcDbArc
 50
181.9091594526
 51
184.8553847217
  0
ARC
  5
436
100
AcDbEntity
  8
0
100
AcDbCircle
 62
7
  6
CONTINUOUS
 10
7.3378275185
 20
-27.7953001566
 40
126.4503010147
100
AcDbArc
 50
181.2226643816
 51
181.4749001057
  0
ARC
  5
437
100
AcDbEntity
  8
0
100
AcDbCircle
 62
7
  6
CONTINUOUS
 10
6.5292074317
 20
-27.7397800594
 40
125.6409096762
100
AcDbArc
 50
181.2534517233
 51
181.5097346964
  0
ARC
  5
438
100
AcDbEntity
  8
0
100
AcDbCircle
 62
7
  6
CONTINUOUS
 10
6.4877044901
 20
-27.7049277576
 40
125.5986420159
100
AcDbArc
 50
181.2658932287
 51
181.5261437929
  0
ARC
  5
439
100
AcDbEntity
  8
0
100
AcDbCircle
 62
7
  6
CONTINUOUS
 10
3.4855220477
 20
-27.2371310464
 40
122.5946989409
100
AcDbArc
 50
181.2580076389
 51
181.7822706602
  0
ARC
  5
43A
100
AcDbEntity
  8
0
100
AcDbCircle
 62
7
  6
CONTINUOUS
 10
2.0938849301
 20
-27.3872586667
 40
121.2038764023
100
AcDbArc
 50
180.9478536674
 51
181.201537641
  0
ARC
  5
43B
100
AcDbEntity
  8
0
100
AcDbCircle
 62
7
  6
CONTINUOUS
 10
1.1394826997
 20
-27.8577509275
 40
120.2498938842
100
AcDbArc
 50
180.9868042441
 51
181.2494261838
  0
ARC
  5
43C
100
AcDbEntity
  8
0
100
AcDbCircle
 62
7
  6
CONTINUOUS
 10
0.7265832708
 20
-27.8357497036
 40
119.8386701869
100
AcDbArc
 50
181.2642499825
 51
181.536948998
  0
ARC
  5
43D
100
AcDbEntity
  8
0
100
AcDbCircle
 62
7
  6
CONTINUOUS
 10
0.6498200147
 20
-27.4146945865
 40
119.759553804
100
AcDbArc
 50
181.2058331247
 51
181.7394859313
  0
ARC
  5
43E
100
AcDbEntity
  8
0
100
AcDbCircle
 62
7
  6
CONTINUOUS
 10
-0.1107103119
 20
-27.8419352434
 40
118.9987964343
100
AcDbArc
 50
180.5831727754
 51
180.7464979805
  0
ARC
  5
43F
100
AcDbEntity
  8
0
100
AcDbCircle
 62
7
  6
CONTINUOUS
 10
-0.1146732703
 20
-27.8412608824
 40
118.9948426004
100
AcDbArc
 50
180.7468475168
 51
181.0051286236
  0
ARC
  5
440
100
AcDbEntity
  8
0
100
AcDbCircle
 62
7
  6
CONTINUOUS
 10
-2.6815237083
 20
-27.9242491409
 40
116.4283089379
100
AcDbArc
 50
180.7262671612
 51
180.9864683897
  0
ARC
  5
441
100
AcDbEntity
  8
0
100
AcDbCircle
 62
7
  6
CONTINUOUS
 10
-3.9397130774
 20
-27.9387758103
 40
115.1712366323
100
AcDbArc
 50
180.9900187179
 51
181.2642270795
  0
ARC
  5
442
100
AcDbEntity
  8
0
100
AcDbCircle
 62
7
  6
CONTINUOUS
 10
-4.4668737024
 20
-27.9477204982
 40
114.6428048502
100
AcDbArc
 50
180.5524652195
 51
180.7219913568
  0
ARC
  5
443
100
AcDbEntity
  8
0
100
AcDbCircle
 62
7
  6
CONTINUOUS
 10
-4.5095500412
 20
-27.9485151273
 40
114.6001228341
100
AcDbArc
 50
180.3689500884
 51
180.5522736844
  0
ARC
  5
444
100
AcDbEntity
  8
0
100
AcDbCircle
 62
7
  6
CONTINUOUS
 10
-8.2903475097
 20
-28.0139965362
 40
110.8199519808
100
AcDbArc
 50
180.7126431806
 51
180.989998942
  0
ARC
  5
445
100
AcDbEntity
  8
0
100
AcDbCircle
 62
7
  6
CONTINUOUS
 10
-11.632393181
 20
-28.0565432767
 40
107.4776356416
100
AcDbArc
 50
180.5312868006
 51
180.7121227425
  0
ARC
  5
446
100
AcDbEntity
  8
0
100
AcDbCircle
 62
7
  6
CONTINUOUS
 10
-12.648817045
 20
-27.7620119001
 40
106.4627218814
100
AcDbArc
 50
181.4627445926
 51
181.7698044907
  0
ARC
  5
447
100
AcDbEntity
  8
0
100
AcDbCircle
 62
7
  6
CONTINUOUS
 10
-12.9668606363
 20
-27.6569677777
 40
106.1446367481
100
AcDbArc
 50
181.523808148
 51
181.8318439408
  0
ARC
  5
448
100
AcDbEntity
  8
0
100
AcDbCircle
 62
7
  6
CONTINUOUS
 10
-14.1979110205
 20
-28.0802267622
 40
104.91200849
100
AcDbArc
 50
180.3310848532
 51
180.5313449523
  0
ARC
  5
449
100
AcDbEntity
  8
0
100
AcDbCircle
 62
7
  6
CONTINUOUS
 10
-15.4759477921
 20
-27.7238659828
 40
103.6346579231
100
AcDbArc
 50
181.2191722439
 51
181.5237240779
  0
ARC
  5
44A
100
AcDbEntity
  8
0
100
AcDbCircle
 62
7
  6
CONTINUOUS
 10
-17.2552603143
 20
-28.0971084276
 40
101.854612693
100
AcDbArc
 50
180.0296875872
 51
180.3315267024
  0
ARC
  5
44B
100
AcDbEntity
  8
0
100
AcDbCircle
 62
7
  6
CONTINUOUS
 10
-17.6000260827
 20
-27.7692298016
 40
101.5100952776
100
AcDbArc
 50
180.9161665618
 51
181.2190821535
  0
ARC
  5
44C
100
AcDbEntity
  8
0
100
AcDbCircle
 62
7
  6
CONTINUOUS
 10
-17.9894727589
 20
-27.8851081794
 40
101.1206289692
100
AcDbArc
 50
180.8540346155
 51
181.1579703874
  0
ARC
  5
44D
100
AcDbEntity
  8
0
100
AcDbCircle
 62
7
  6
CONTINUOUS
 10
-18.5676135477
 20
-26.9807128635
 40
100.545333818
100
AcDbArc
 50
181.6403611422
 51
182.319517647
  0
ARC
  5
44E
100
AcDbEntity
  8
0
100
AcDbCircle
 62
7
  6
CONTINUOUS
 10
-18.563784311
 20
-26.9807916532
 40
100.5191618462
100
AcDbArc
 50
181.6407434281
 51
182.3200769586
  0
ARC
  5
44F
100
AcDbEntity
  8
0
100
AcDbCircle
 62
7
  6
CONTINUOUS
 10
-19.0483948857
 20
-27.7929479483
 40
100.0615323947
100
AcDbArc
 50
180.7215895105
 51
180.9158479033
  0
ARC
  5
450
100
AcDbEntity
  8
0
100
AcDbCircle
 62
7
  6
CONTINUOUS
 10
-19.8830382637
 20
-27.9139756987
 40
99.2268435441
100
AcDbArc
 50
180.657780471
 51
180.8536648297
  0
ARC
  5
451
100
AcDbEntity
  8
0
100
AcDbCircle
 62
7
  6
CONTINUOUS
 10
-19.9755903919
 20
-27.8046477826
 40
99.1342630745
100
AcDbArc
 50
180.5096684297
 51
180.7215767894
  0
ARC
  5
452
100
AcDbEntity
  8
0
100
AcDbCircle
 62
7
  6
CONTINUOUS
 10
-20.7385296665
 20
-27.8114205953
 40
98.3712937385
100
AcDbArc
 50
180.1971323245
 51
180.5096765896
  0
ARC
  5
453
100
AcDbEntity
  8
0
100
AcDbCircle
 62
7
  6
CONTINUOUS
 10
-21.0495136018
 20
-27.2630168749
 40
98.0624769015
100
AcDbArc
 50
181.557667613
 51
182.2132065854
  0
ARC
  5
454
100
AcDbEntity
  8
RACCORDO
100
AcDbCircle
 62
7
  6
CONTINUOUS
 10
-97.7175435653
 20
-39.0511137006
 40
0.5382163328
100
AcDbArc
 50
285.0000003568
 51
360.0
  0
ARC
  5
455
100
AcDbEntity
  8
RACCORDO
100
AcDbCircle
 62
7
  6
CONTINUOUS
 10
-106.6793272325
 20
-41.869010849
 40
0.5
100
AcDbArc
 50
180.0
 51
269.0
  0
ARC
  5
456
100
AcDbEntity
  8
RACCORDO
100
AcDbCircle
 62
7
  6
CONTINUOUS
 10
-97.7175435653
 20
39.0511137006
 40
0.5382163328
100
AcDbArc
 50
0.0
 51
74.9999996894
  0
SPLINE
  5
457
100
AcDbEntity
  8
RACCORDO
100
AcDbSpline
 62
7
  6
CONTINUOUS
 70
0
 71
3
 72
11
 73
7
 74
0
 42
0.0000001
 43
0.0000001
 44
0.0000000001
 40
0.0
 40
0.0
 40
0.0
 40
0.0
 40
0.2766009833
 40
0.5301892704
 40
0.7688812059
 40
1.0
 40
1.0
 40
1.0
 40
1.0
 10
31.5428498098
 20
-42.2472113461
 30
0.0
 10
31.5574601856
 20
-42.2717783777
 30
0.0
 10
31.5922893249
 20
-42.315177319
 30
0.0
 10
31.6573374652
 20
-42.3622336355
 30
0.0
 10
31.7274912936
 20
-42.3900542812
 30
0.0
 10
31.7761204023
 20
-42.3967488982
 30
0.0
 10
31.8
 20
-42.3971656547
 30
0.0
  0
SPLINE
  5
458
100
AcDbEntity
  8
RACCORDO
100
AcDbSpline
 62
7
  6
CONTINUOUS
 70
0
 71
3
 72
11
 73
7
 74
0
 42
0.0000001
 43
0.0000001
 44
0.0000000001
 40
0.0
 40
0.0
 40
0.0
 40
0.0
 40
0.2766009833
 40
0.5301892704
 40
0.7688812059
 40
1.0
 40
1.0
 40
1.0
 40
1.0
 10
-31.5428498098
 20
-42.2472113461
 30
0.0
 10
-31.5574601856
 20
-42.2717783777
 30
0.0
 10
-31.5922893249
 20
-42.315177319
 30
0.0
 10
-31.6573374652
 20
-42.3622336355
 30
0.0
 10
-31.7274912936
 20
-42.3900542812
 30
0.0
 10
-31.7761204023
 20
-42.3967488982
 30
0.0
 10
-31.8
 20
-42.3971656547
 30
0.0
  0
SPLINE
  5
459
100
AcDbEntity
  8
RACCORDO
100
AcDbSpline
 62
7
  6
CONTINUOUS
 70
0
 71
3
 72
17
 73
13
 74
0
 42
0.0000001
 43
0.0000001
 44
0.0000000001
 40
0.0
 40
0.0
 40
0.0
 40
0.0
 40
0.1252984066
 40
0.2505729679
 40
0.3757931764
 40
0.5008284556
 40
0.5634685147
 40
0.6260409486
 40
0.6885137828
 40
0.7509609323
 40
0.8750170795
 40
1.0
 40
1.0
 40
1.0
 40
1.0
 10
-70.4223605508
 20
42.2089907512
 30
0.0
 10
-70.4300394336
 20
42.2070811484
 30
0.0
 10
-70.4450803958
 20
42.201878166
 30
0.0
 10
-70.4659918776
 20
42.1904165698
 30
0.0
 10
-70.4844965811
 20
42.1753751427
 30
0.0
 10
-70.496806927
 20
42.1595300058
 30
0.0
 10
-70.5029565243
 20
42.144859181
 30
0.0
 10
-70.5048444137
 20
42.1330013744
 30
0.0
 10
-70.5028450272
 20
42.1210621954
 30
0.0
 10
-70.4943901903
 20
42.1073379531
 30
0.0
 10
-70.4761589832
 20
42.0974094341
 30
0.0
 10
-70.4603577637
 20
42.0956501171
 30
0.0
 10
-70.4524649237
 20
42.0956501172
 30
0.0
  0
SPLINE
  5
45A
100
AcDbEntity
  8
RACCORDO
100
AcDbSpline
 62
250
  6
CONTINUOUS
 70
0
 71
3
 72
17
 73
13
 74
0
 42
0.0000001
 43
0.0000001
 44
0.0000000001
 40
0.0
 40
0.0
 40
0.0
 40
0.0
 40
0.1126788744
 40
0.2275075298
 40
0.3456466548
 40
0.4062361505
 40
0.4678960274
 40
0.5944781137
 40
0.7256157952
 40
0.792887504
 40
0.8611507827
 40
1.0
 40
1.0
 40
1.0
 40
1.0
 10
-70.4223433669
 20
42.2089955849
 30
0.0
 10
-70.6089882495
 20
42.1652492249
 30
0.0
 10
-70.9797922559
 20
42.0483041652
 30
0.0
 10
-71.5091704576
 20
41.7873090429
 30
0.0
 10
-71.9191949455
 20
41.4981363205
 30
0.0
 10
-72.223152022
 20
41.2239316613
 30
0.0
 10
-72.5135909935
 20
40.91535376
 30
0.0
 10
-72.8349835381
 20
40.4738130804
 30
0.0
 10
-73.0800860577
 20
39.9748215455
 30
0.0
 10
-73.2247133552
 20
39.5442033162
 30
0.0
 10
-73.3329556718
 20
39.0896421068
 30
0.0
 10
-73.3667659769
 20
38.7362263562
 30
0.0
 10
-73.3674049389
 20
38.5
 30
0.0
  0
SPLINE
  5
45B
100
AcDbEntity
  8
RACCORDO
100
AcDbSpline
 62
250
  6
CONTINUOUS
 70
0
 71
3
 72
13
 73
9
 74
0
 42
0.0000001
 43
0.0000001
 44
0.0000000001
 40
0.0
 40
0.0
 40
0.0
 40
0.0
 40
0.3788329404
 40
0.5358688991
 40
0.6704056803
 40
0.7824083206
 40
0.8727409478
 40
1.0
 40
1.0
 40
1.0
 40
1.0
 10
-73.2486620736
 20
38.4472656729
 30
0.0
 10
-73.2653455674
 20
38.4503996942
 30
0.0
 10
-73.2888473388
 20
38.4555033309
 30
0.0
 10
-73.31760631
 20
38.4642737593
 30
0.0
 10
-73.3344998293
 20
38.4707154325
 30
0.0
 10
-73.3480889408
 20
38.4775248473
 30
0.0
 10
-73.3601702309
 20
38.4856943246
 30
0.0
 10
-73.3668469859
 20
38.494324943
 30
0.0
 10
-73.367404939
 20
38.4999999928
 30
0.0
  0
LINE
  5
45C
100
AcDbEntity
  8
RACCORDO
100
AcDbLine
 62
250
  6
CONTINUOUS
 10
-73.2500207668
 20
37.499678751
 11
-73.2598665288
 21
37.4996823272
  0
SPLINE
  5
45D
100
AcDbEntity
  8
RACCORDO
100
AcDbSpline
 62
250
  6
CONTINUOUS
 70
0
 71
3
 72
13
 73
9
 74
0
 42
0.0000001
 43
0.0000001
 44
0.0000000001
 40
0.0
 40
0.0
 40
0.0
 40
0.0
 40
0.4185583796
 40
0.729789309
 40
0.8424294272
 40
0.9253473654
 40
0.977988115
 40
1.0
 40
1.0
 40
1.0
 40
1.0
 10
-73.2598665288
 20
37.4996823272
 30
0.0
 10
-73.275083859
 20
37.4996887899
 30
0.0
 10
-73.3016160817
 20
37.4997126035
 30
0.0
 10
-73.3322449578
 20
37.499749333
 30
0.0
 10
-73.3506684618
 20
37.4998297825
 30
0.0
 10
-73.3596945814
 20
37.4998437149
 30
0.0
 10
-73.3654181652
 20
37.4999550211
 30
0.0
 10
-73.3681378674
 20
37.4999257003
 30
0.0
 10
-73.3689346867
 20
37.5
 30
0.0
  0
LINE
  5
45E
100
AcDbEntity
  8
RACCORDO
100
AcDbLine
 62
250
  6
CONTINUOUS
 10
-73.3689346934
 20
37.5
 11
-73.3689346966
 21
-38.5
  0
SPLINE
  5
45F
100
AcDbEntity
  8
RACCORDO
100
AcDbSpline
 62
7
  6
CONTINUOUS
 70
0
 71
3
 72
17
 73
13
 74
0
 42
0.0000001
 43
0.0000001
 44
0.0000000001
 40
0.0
 40
0.0
 40
0.0
 40
0.0
 40
0.1249824019
 40
0.2490381999
 40
0.3114857024
 40
0.3739581551
 40
0.4365305486
 40
0.4991707848
 40
0.6242062826
 40
0.7494266772
 40
0.874701504
 40
1.0
 40
1.0
 40
1.0
 40
1.0
 10
70.4525796229
 20
42.0956501172
 30
0.0
 10
70.4604699302
 20
42.0956501175
 30
0.0
 10
70.4762661161
 20
42.097408971
 30
0.0
 10
70.4944913283
 20
42.1073345996
 30
0.0
 10
70.5029435061
 20
42.1210543948
 30
0.0
 10
70.5049426876
 20
42.1329896719
 30
0.0
 10
70.503056035
 20
42.1448438
 30
0.0
 10
70.4969092273
 20
42.1595103541
 30
0.0
 10
70.4846036466
 20
42.1753512033
 30
0.0
 10
70.4661055181
 20
42.1903888295
 30
0.0
 10
70.445201119
 20
42.2018477219
 30
0.0
 10
70.4301650886
 20
42.2070496283
 30
0.0
 10
70.4224886985
 20
42.2089588929
 30
0.0
  0
SPLINE
  5
460
100
AcDbEntity
  8
RACCORDO
100
AcDbSpline
 62
250
  6
CONTINUOUS
 70
0
 71
3
 72
17
 73
13
 74
0
 42
0.0000001
 43
0.0000001
 44
0.0000000001
 40
0.0
 40
0.0
 40
0.0
 40
0.0
 40
0.112675666
 40
0.2274913318
 40
0.3456182237
 40
0.4062038094
 40
0.4678616682
 40
0.5944453828
 40
0.7255909644
 40
0.7928682628
 40
0.8611377783
 40
1.0
 40
1.0
 40
1.0
 40
1.0
 10
70.4224717229
 20
42.2089636633
 30
0.0
 10
70.6091052058
 20
42.1652133688
 30
0.0
 10
70.9798700084
 20
42.0482688144
 30
0.0
 10
71.5091883847
 20
41.7872967864
 30
0.0
 10
71.9191645295
 20
41.4981643458
 30
0.0
 10
72.2230972338
 20
41.2239940436
 30
0.0
 10
72.5135323957
 20
40.9154370643
 30
0.0
 10
72.8349373425
 20
40.4739062572
 30
0.0
 10
73.0800577734
 20
39.9749097002
 30
0.0
 10
73.2246999541
 20
39.5442727973
 30
0.0
 10
73.3329546509
 20
39.0896828829
 30
0.0
 10
73.3667675726
 20
38.7362426406
 30
0.0
 10
73.3674049389
 20
38.5
 30
0.0
  0
SPLINE
  5
461
100
AcDbEntity
  8
RACCORDO
100
AcDbSpline
 62
250
  6
CONTINUOUS
 70
0
 71
3
 72
13
 73
9
 74
0
 42
0.0000001
 43
0.0000001
 44
0.0000000001
 40
0.0
 40
0.0
 40
0.0
 40
0.0
 40
0.127092829
 40
0.2173984789
 40
0.3294023248
 40
0.4639625502
 40
0.6210400966
 40
1.0
 40
1.0
 40
1.0
 40
1.0
 10
73.3674049391
 20
38.4999999928
 30
0.0
 10
73.3668465035
 20
38.4943346101
 30
0.0
 10
73.3601633572
 20
38.4857227729
 30
0.0
 10
73.3480873816
 20
38.4775732752
 30
0.0
 10
73.3344983398
 20
38.4707758711
 30
0.0
 10
73.3176053454
 20
38.4643441519
 30
0.0
 10
73.2888458445
 20
38.455584417
 30
0.0
 10
73.2653449139
 20
38.450484676
 30
0.0
 10
73.2486618146
 20
38.4473520611
 30
0.0
  0
SPLINE
  5
462
100
AcDbEntity
  8
RACCORDO
100
AcDbSpline
 62
250
  6
CONTINUOUS
 70
0
 71
3
 72
13
 73
9
 74
0
 42
0.0000001
 43
0.0000001
 44
0.0000000001
 40
0.0
 40
0.0
 40
0.0
 40
0.0
 40
0.0220088557
 40
0.0746478608
 40
0.1575649178
 40
0.2702049138
 40
0.581437614
 40
1.0
 40
1.0
 40
1.0
 40
1.0
 10
73.368935695
 20
37.5
 30
0.0
 10
73.3681386246
 20
37.499929726
 30
0.0
 10
73.3654196952
 20
37.4999575453
 30
0.0
 10
73.3596958011
 20
37.4998522539
 30
0.0
 10
73.3506700793
 20
37.4998391369
 30
0.0
 10
73.3322464588
 20
37.4997630741
 30
0.0
 10
73.3016176189
 20
37.499728383
 30
0.0
 10
73.2750852584
 20
37.4997058679
 30
0.0
 10
73.2598678471
 20
37.4996997592
 30
0.0
  0
LINE
  5
463
100
AcDbEntity
  8
RACCORDO
100
AcDbLine
 62
250
  6
CONTINUOUS
 10
73.2598678471
 20
37.4996997592
 11
73.2500207464
 21
37.4996963784
  0
LINE
  5
464
100
AcDbEntity
  8
RACCORDO
100
AcDbLine
 62
250
  6
CONTINUOUS
 10
73.3689346934
 20
37.5
 11
73.3689346966
 21
-38.5
  0
SPLINE
  5
465
100
AcDbEntity
  8
0
100
AcDbSpline
 62
7
  6
CONTINUOUS
 70
0
 71
3
 72
15
 73
11
 74
0
 42
0.0000001
 43
0.0000001
 44
0.0000000001
 40
0.0
 40
0.0
 40
0.0
 40
0.0
 40
0.1346872506
 40
0.2660710238
 40
0.3937701828
 40
0.5180044761
 40
0.6394839919
 40
0.7593014928
 40
0.8788841978
 40
1.0
 40
1.0
 40
1.0
 40
1.0
 10
73.2484878323
 20
38.49
 30
0.0
 10
73.2479245314
 20
38.6729815455
 30
0.0
 10
73.2199940298
 20
39.0349511309
 30
0.0
 10
73.101139555
 20
39.5583595544
 30
0.0
 10
72.9143545803
 20
40.0463302523
 30
0.0
 10
72.6686321125
 20
40.4919506261
 30
0.0
 10
72.3717131498
 20
40.8918371189
 30
0.0
 10
72.0291251196
 20
41.2445490608
 30
0.0
 10
71.6439456541
 20
41.5492194259
 30
0.0
 10
71.3621869528
 20
41.7173834822
 30
0.0
 10
71.2156672311
 20
41.792262726
 30
0.0
  0
SPLINE
  5
466
100
AcDbEntity
  8
0
100
AcDbSpline
 62
7
  6
CONTINUOUS
 70
0
 71
3
 72
15
 73
11
 74
0
 42
0.0000001
 43
0.0000001
 44
0.0000000001
 40
0.0
 40
0.0
 40
0.0
 40
0.0
 40
0.1211158022
 40
0.2406985072
 40
0.3605160081
 40
0.4819955239
 40
0.6062298172
 40
0.7339289762
 40
0.8653127494
 40
1.0
 40
1.0
 40
1.0
 40
1.0
 10
-71.2156672311
 20
41.792262726
 30
0.0
 10
-71.3621869528
 20
41.7173834822
 30
0.0
 10
-71.6439456541
 20
41.5492194259
 30
0.0
 10
-72.0291251196
 20
41.2445490608
 30
0.0
 10
-72.3717131498
 20
40.8918371189
 30
0.0
 10
-72.6686321125
 20
40.4919506261
 30
0.0
 10
-72.9143545803
 20
40.0463302523
 30
0.0
 10
-73.101139555
 20
39.5583595544
 30
0.0
 10
-73.2199940298
 20
39.0349511309
 30
0.0
 10
-73.2479245314
 20
38.6729815455
 30
0.0
 10
-73.2484878323
 20
38.49
 30
0.0
  0
LINE
  5
467
100
AcDbEntity
  8
0
100
AcDbLine
 62
7
  6
CONTINUOUS
 10
-71.2156672311
 20
41.792262726
 11
-71.2062919482
 21
41.7865788733
  0
LINE
  5
468
100
AcDbEntity
  8
0
100
AcDbLine
 62
7
  6
CONTINUOUS
 10
71.2156672311
 20
41.792262726
 11
71.2062919482
 21
41.7865788733
  0
SPLINE
  5
469
100
AcDbEntity
  8
RACCORDO
100
AcDbSpline
 62
250
  6
CONTINUOUS
 70
0
 71
3
 72
17
 73
13
 74
0
 42
0.0000001
 43
0.0000001
 44
0.0000000001
 40
0.0
 40
0.0
 40
0.0
 40
0.0
 40
0.1246559622
 40
0.24960791
 40
0.3747092825
 40
0.4373508597
 40
0.4999934361
 40
0.6251230534
 40
0.7501820819
 40
0.8127375809
 40
0.875256062
 40
1.0
 40
1.0
 40
1.0
 40
1.0
 10
-69.646343637
 20
40.9121911286
 30
0.0
 10
-69.7922204842
 20
40.908988418
 30
0.0
 10
-70.0844973776
 20
40.8717420682
 30
0.0
 10
-70.5021006748
 20
40.7291517117
 30
0.0
 10
-70.821258037
 20
40.5450394903
 30
0.0
 10
-71.0523154568
 20
40.3641609488
 30
0.0
 10
-71.2656630646
 20
40.1626262228
 30
0.0
 10
-71.4960725489
 20
39.8752146493
 30
0.0
 10
-71.66995421
 20
39.5505555367
 30
0.0
 10
-71.7709808861
 20
39.275326462
 30
0.0
 10
-71.8455552112
 20
38.9922664272
 30
0.0
 10
-71.87069071
 20
38.7726941585
 30
0.0
 10
-71.8729419378
 20
38.6266965362
 30
0.0
  0
SPLINE
  5
46A
100
AcDbEntity
  8
RACCORDO
100
AcDbSpline
 62
250
  6
CONTINUOUS
 70
0
 71
3
 72
13
 73
9
 74
0
 42
0.0000001
 43
0.0000001
 44
0.0000000001
 40
0.0
 40
0.0
 40
0.0
 40
0.0
 40
0.2084056925
 40
0.4003013914
 40
0.7177214374
 40
0.8360859644
 40
0.9237832499
 40
1.0
 40
1.0
 40
1.0
 40
1.0
 10
-0.0026074578
 20
41.1263563809
 30
0.0
 10
-0.0028249281
 20
41.1947410211
 30
0.0
 10
-0.0027650988
 20
41.3260939209
 30
0.0
 10
-0.0026238542
 20
41.561602499
 30
0.0
 10
-0.0026609738
 20
41.7675657005
 30
0.0
 10
-0.0027070884
 20
41.9393380305
 30
0.0
 10
-0.0028636205
 20
42.0319628399
 30
0.0
 10
-0.0027649375
 20
42.0857492812
 30
0.0
 10
-0.0029260253
 20
42.1107580668
 30
0.0
  0
SPLINE
  5
46B
100
AcDbEntity
  8
RACCORDO
100
AcDbSpline
 62
250
  6
CONTINUOUS
 70
0
 71
3
 72
13
 73
9
 74
0
 42
0.0000001
 43
0.0000001
 44
0.0000000001
 40
0.0
 40
0.0
 40
0.0
 40
0.0
 40
0.250060065
 40
0.5001174757
 40
0.625144565
 40
0.750172449
 40
0.8751986508
 40
1.0
 40
1.0
 40
1.0
 40
1.0
 10
-0.0029260253
 20
42.1107580668
 30
0.0
 10
-5.7949071203
 20
42.1107121076
 30
0.0
 10
-17.3788078244
 20
42.1104067382
 30
0.0
 10
-31.8586309018
 20
42.109183727
 30
0.0
 10
-43.4424135157
 20
42.1076758241
 30
0.0
 10
-52.1301786231
 20
42.1065990156
 30
0.0
 10
-60.8127142524
 20
42.106527139
 30
0.0
 10
-66.5993113686
 20
42.1104178623
 30
0.0
 10
-69.49
 20
42.1158322715
 30
0.0
  0
SPLINE
  5
46C
100
AcDbEntity
  8
RACCORDO
100
AcDbSpline
 62
250
  6
CONTINUOUS
 70
0
 71
3
 72
21
 73
17
 74
0
 42
0.0000001
 43
0.0000001
 44
0.0000000001
 40
0.0
 40
0.0
 40
0.0
 40
0.0
 40
0.1250269597
 40
0.2500536166
 40
0.3750795664
 40
0.5001043334
 40
0.562616207
 40
0.6251278862
 40
0.6876396719
 40
0.7501521306
 40
0.8126654797
 40
0.875176021
 40
0.9064243867
 40
0.9376582909
 40
0.968860409
 40
1.0
 40
1.0
 40
1.0
 40
1.0
 10
-0.0026074578
 20
41.1263563809
 30
0.0
 10
-2.9051057734
 20
41.1264924001
 30
0.0
 10
-8.7100954094
 20
41.1256549501
 30
0.0
 10
-17.4175594652
 20
41.122823364
 30
0.0
 10
-26.1249718676
 20
41.1181888135
 30
0.0
 10
-33.3811040415
 20
41.1126505585
 30
0.0
 10
-39.1859675772
 20
41.1066280412
 30
0.0
 10
-43.5395935228
 20
41.1013642337
 30
0.0
 10
-47.8932308018
 20
41.0945022382
 30
0.0
 10
-52.2469032328
 20
41.0853566963
 30
0.0
 10
-56.6005339019
 20
41.071378094
 30
0.0
 10
-60.2283445971
 20
41.051280047
 30
0.0
 10
-63.1299297164
 20
41.0243459097
 30
0.0
 10
-65.304634904
 20
40.9962168511
 30
0.0
 10
-67.4766764009
 20
40.9588417737
 30
0.0
 10
-68.9236128378
 20
40.9280588973
 30
0.0
 10
-69.6463436372
 20
40.9121911289
 30
0.0
  0
SPLINE
  5
46D
100
AcDbEntity
  8
RACCORDO
100
AcDbSpline
 62
250
  6
CONTINUOUS
 70
0
 71
3
 72
20
 73
16
 74
0
 42
0.0000001
 43
0.0000001
 44
0.0000000001
 40
0.0
 40
0.0
 40
0.0
 40
0.0
 40
0.1985078861
 40
0.3846010417
 40
0.5530487785
 40
0.6991593375
 40
0.7625652669
 40
0.8189610889
 40
0.867995699
 40
0.909398921
 40
0.9430104281
 40
0.9688490748
 40
0.978968947
 40
0.9873659269
 40
1.0
 40
1.0
 40
1.0
 40
1.0
 10
69.6463436372
 20
40.9121911289
 30
0.0
 10
69.6444481666
 20
40.9934081297
 30
0.0
 10
69.6393413314
 20
41.1507340259
 30
0.0
 10
69.6273941005
 20
41.3767715729
 30
0.0
 10
69.6116966148
 20
41.5810804595
 30
0.0
 10
69.5952728892
 20
41.7349265393
 30
0.0
 10
69.5801690796
 20
41.8427071355
 30
0.0
 10
69.5687718517
 20
41.9108676127
 30
0.0
 10
69.5568577155
 20
41.9697795206
 30
0.0
 10
69.5445485975
 20
42.0190609429
 30
0.0
 10
69.5319156231
 20
42.0583872092
 30
0.0
 10
69.5205669411
 20
42.0845986754
 30
0.0
 10
69.5108786686
 20
42.1000494991
 30
0.0
 10
69.5027920022
 20
42.1098077476
 30
0.0
 10
69.4951034428
 20
42.1150023745
 30
0.0
 10
69.49
 20
42.1158322715
 30
0.0
  0
SPLINE
  5
46E
100
AcDbEntity
  8
RACCORDO
100
AcDbSpline
 62
250
  6
CONTINUOUS
 70
0
 71
3
 72
13
 73
9
 74
0
 42
0.0000001
 43
0.0000001
 44
0.0000000001
 40
0.0
 40
0.0
 40
0.0
 40
0.0
 40
0.1248013641
 40
0.2498275658
 40
0.3748554471
 40
0.4998825343
 40
0.7499399407
 40
1.0
 40
1.0
 40
1.0
 40
1.0
 10
69.49
 20
42.1158322715
 30
0.0
 10
66.5990675742
 20
42.1104174053
 30
0.0
 10
60.8119827803
 20
42.1065268872
 30
0.0
 10
52.1287156482
 20
42.1065991301
 30
0.0
 10
43.4402189902
 20
42.1076761413
 30
0.0
 10
31.8554610257
 20
42.1091840722
 30
0.0
 10
17.3744187678
 20
42.1104070094
 30
0.0
 10
5.7895427256
 20
42.1107121933
 30
0.0
 10
-0.0029260253
 20
42.1107580668
 30
0.0
  0
SPLINE
  5
46F
100
AcDbEntity
  8
RACCORDO
100
AcDbSpline
 62
250
  6
CONTINUOUS
 70
0
 71
3
 72
21
 73
17
 74
0
 42
0.0000001
 43
0.0000001
 44
0.0000000001
 40
0.0
 40
0.0
 40
0.0
 40
0.0
 40
0.0311395936
 40
0.0623417166
 40
0.0935756246
 40
0.1248239925
 40
0.1873345344
 40
0.2498478825
 40
0.3123603399
 40
0.3748721245
 40
0.4373838029
 40
0.4998956755
 40
0.6249204413
 40
0.7499463887
 40
0.8749730426
 40
1.0
 40
1.0
 40
1.0
 40
1.0
 10
69.6463436372
 20
40.9121911289
 30
0.0
 10
68.9235520616
 20
40.9280602327
 30
0.0
 10
67.4764938926
 20
40.9588455648
 30
0.0
 10
65.3042696418
 20
40.9962226132
 30
0.0
 10
63.1293814842
 20
41.0243521064
 30
0.0
 10
60.2275524281
 20
41.0512858388
 30
0.0
 10
56.5994369124
 20
41.0713830614
 30
0.0
 10
52.2454405312
 20
41.0853596717
 30
0.0
 10
47.8914024373
 20
41.0945063784
 30
0.0
 10
43.537399485
 20
41.101365021
 30
0.0
 10
39.1834078669
 20
41.1066301893
 30
0.0
 10
33.3780567486
 20
41.1126562491
 30
0.0
 10
26.1213151013
 20
41.1181910935
 30
0.0
 10
17.4131713555
 20
41.1228231569
 30
0.0
 10
8.7049759782
 20
41.1256570342
 30
0.0
 10
2.8994987976
 20
41.1264922156
 30
0.0
 10
-0.0032432973
 20
41.1263553574
 30
0.0
  0
SPLINE
  5
470
100
AcDbEntity
  8
RACCORDO
100
AcDbSpline
 62
250
  6
CONTINUOUS
 70
0
 71
3
 72
20
 73
16
 74
0
 42
0.0000001
 43
0.0000001
 44
0.0000000001
 40
0.0
 40
0.0
 40
0.0
 40
0.0
 40
0.1982877765
 40
0.3847394325
 40
0.5538808187
 40
0.700777931
 40
0.7645365232
 40
0.8212186804
 40
0.8704419873
 40
0.9119009908
 40
0.9453905186
 40
0.9708619883
 40
0.9806693636
 40
0.9886404407
 40
1.0
 40
1.0
 40
1.0
 40
1.0
 10
71.8729419378
 20
38.6266965362
 30
0.0
 10
71.9563139269
 20
38.6252170873
 30
0.0
 10
72.1180619367
 20
38.6210493369
 30
0.0
 10
72.3507770013
 20
38.6109174655
 30
0.0
 10
72.5616669312
 20
38.5973553094
 30
0.0
 10
72.7207666912
 20
38.5830197659
 30
0.0
 10
72.8324115753
 20
38.5697578286
 30
0.0
 10
72.9030589585
 20
38.5597256542
 30
0.0
 10
72.964143047
 20
38.5492174867
 30
0.0
 10
73.0152383841
 20
38.5383548108
 30
0.0
 10
73.055997718
 20
38.5271917156
 30
0.0
 10
73.0831890016
 20
38.5171827907
 30
0.0
 10
73.0993152939
 20
38.5085592888
 30
0.0
 10
73.1092228901
 20
38.5015680947
 30
0.0
 10
73.1148659061
 20
38.4946953652
 30
0.0
 10
73.1157451965
 20
38.49
 30
0.0
  0
SPLINE
  5
471
100
AcDbEntity
  8
RACCORDO
100
AcDbSpline
 62
250
  6
CONTINUOUS
 70
0
 71
3
 72
17
 73
13
 74
0
 42
0.0000001
 43
0.0000001
 44
0.0000000001
 40
0.0
 40
0.0
 40
0.0
 40
0.0
 40
0.1247439379
 40
0.187262419
 40
0.2498179178
 40
0.3748769463
 40
0.5000065636
 40
0.5626491399
 40
0.625290717
 40
0.7503920894
 40
0.875344037
 40
1.0
 40
1.0
 40
1.0
 40
1.0
 10
71.8729419378
 20
38.6266965362
 30
0.0
 10
71.87069071
 20
38.7726941584
 30
0.0
 10
71.8455552112
 20
38.9922664268
 30
0.0
 10
71.7709808863
 20
39.2753264614
 30
0.0
 10
71.6699542104
 20
39.550555536
 30
0.0
 10
71.4960725494
 20
39.8752146484
 30
0.0
 10
71.2656630654
 20
40.1626262219
 30
0.0
 10
71.0523154579
 20
40.3641609479
 30
0.0
 10
70.8212580384
 20
40.5450394894
 30
0.0
 10
70.5021006767
 20
40.7291517108
 30
0.0
 10
70.0844973792
 20
40.871742068
 30
0.0
 10
69.7922204852
 20
40.908988418
 30
0.0
 10
69.646343637
 20
40.9121911286
 30
0.0
  0
SPLINE
  5
472
100
AcDbEntity
  8
RACCORDO
100
AcDbSpline
 62
250
  6
CONTINUOUS
 70
0
 71
3
 72
13
 73
9
 74
0
 42
0.0000001
 43
0.0000001
 44
0.0000000001
 40
0.0
 40
0.0
 40
0.0
 40
0.0
 40
0.2500430795
 40
0.5000861536
 40
0.6251076699
 40
0.7501291695
 40
0.8751463818
 40
1.0
 40
1.0
 40
1.0
 40
1.0
 10
73.1111271271
 20
0.0001770396
 30
0.0
 10
73.1111158697
 20
3.2082151328
 30
0.0
 10
73.1112591109
 20
9.6242912453
 30
0.0
 10
73.1114449066
 20
17.644386123
 30
0.0
 10
73.1113149859
 20
24.0604613924
 30
0.0
 10
73.1111448065
 20
28.8724622861
 30
0.0
 10
73.1113884428
 20
33.6823086187
 30
0.0
 10
73.1131398073
 20
36.8881374957
 30
0.0
 10
73.1157451982
 20
38.49
 30
0.0
  0
SPLINE
  5
473
100
AcDbEntity
  8
RACCORDO
100
AcDbSpline
 62
250
  6
CONTINUOUS
 70
0
 71
3
 72
17
 73
13
 74
0
 42
0.0000001
 43
0.0000001
 44
0.0000000001
 40
0.0
 40
0.0
 40
0.0
 40
0.0
 40
0.2500409771
 40
0.3750614272
 40
0.500081959
 40
0.6251024193
 40
0.6876126083
 40
0.750122859
 40
0.8126328554
 40
0.8751391657
 40
0.937622641
 40
1.0
 40
1.0
 40
1.0
 40
1.0
 10
71.9287975499
 20
-0.0000434783
 30
0.0
 10
71.9301655085
 20
3.2193978172
 30
0.0
 10
71.9316293209
 20
8.0485595403
 30
0.0
 10
71.9323620768
 20
14.48744276
 30
0.0
 10
71.9320359657
 20
19.3166048339
 30
0.0
 10
71.9310905989
 20
23.3409062655
 30
0.0
 10
71.9293339195
 20
26.5603463776
 30
0.0
 10
71.9274958133
 20
28.9749231555
 30
0.0
 10
71.923856708
 20
31.3894480837
 30
0.0
 10
71.9172078004
 20
33.80362303
 30
0.0
 10
71.9035662009
 20
36.2160648844
 30
0.0
 10
71.8853246672
 20
37.8236425869
 30
0.0
 10
71.872941938
 20
38.6266965363
 30
0.0
  0
SPLINE
  5
474
100
AcDbEntity
  8
RACCORDO
100
AcDbSpline
 62
250
  6
CONTINUOUS
 70
0
 71
3
 72
23
 73
19
 74
0
 42
0.0000001
 43
0.0000001
 44
0.0000000001
 40
0.0
 40
0.0
 40
0.0
 40
0.0
 40
0.2015431815
 40
0.390720357
 40
0.5619818097
 40
0.6392997826
 40
0.710304632
 40
0.77447495
 40
0.83133968
 40
0.8804816732
 40
0.9215409375
 40
0.9542177089
 40
0.9673363075
 40
0.9782761766
 40
0.9870184927
 40
0.9935508986
 40
0.9978692381
 40
1.0
 40
1.0
 40
1.0
 40
1.0
 10
71.8820212028
 20
-38.5079097612
 30
0.0
 10
71.9646292396
 20
-38.5077077421
 30
0.0
 10
72.1247764269
 20
-38.5071484732
 30
0.0
 10
72.355117171
 20
-38.5058061436
 30
0.0
 10
72.5345381228
 20
-38.5042742979
 30
0.0
 10
72.6655207782
 20
-38.5028039869
 30
0.0
 10
72.7526095994
 20
-38.5016474923
 30
0.0
 10
72.8313130866
 20
-38.500409229
 30
0.0
 10
72.9010527483
 20
-38.4990989019
 30
0.0
 10
72.9613170415
 20
-38.4977302823
 30
0.0
 10
73.0116614127
 20
-38.4963123611
 30
0.0
 10
73.0472415967
 20
-38.4950391441
 30
0.0
 10
73.0704675442
 20
-38.4939537518
 30
0.0
 10
73.0838991266
 20
-38.4932094548
 30
0.0
 10
73.0945965004
 20
-38.4924348268
 30
0.0
 10
73.102646684
 20
-38.4917537974
 30
0.0
 10
73.1078172338
 20
-38.4909324124
 30
0.0
 10
73.1105432373
 20
-38.4904998424
 30
0.0
 10
73.1112594113
 20
-38.49
 30
0.0
  0
SPLINE
  5
475
100
AcDbEntity
  8
RACCORDO
100
AcDbSpline
 62
250
  6
CONTINUOUS
 70
0
 71
3
 72
12
 73
8
 74
0
 42
0.0000001
 43
0.0000001
 44
0.0000000001
 40
0.0
 40
0.0
 40
0.0
 40
0.0
 40
0.1249989301
 40
0.2499989366
 40
0.499999279
 40
0.7499996279
 40
1.0
 40
1.0
 40
1.0
 40
1.0
 10
73.1112594113
 20
-38.49
 30
0.0
 10
73.1109184847
 20
-36.8862563864
 30
0.0
 10
73.1110803991
 20
-33.6787552289
 30
0.0
 10
73.1112702873
 20
-27.2637349989
 30
0.0
 10
73.1112696679
 20
-19.2449391471
 30
0.0
 10
73.111152982
 20
-9.6223812466
 30
0.0
 10
73.1111271286
 20
-3.2073424877
 30
0.0
 10
73.1111271271
 20
0.0001770396
 30
0.0
  0
SPLINE
  5
476
100
AcDbEntity
  8
RACCORDO
100
AcDbSpline
 62
250
  6
CONTINUOUS
 70
0
 71
3
 72
16
 73
12
 74
0
 42
0.0000001
 43
0.0000001
 44
0.0000000001
 40
0.0
 40
0.0
 40
0.0
 40
0.0
 40
0.0624991808
 40
0.1249991905
 40
0.1874991159
 40
0.2499990875
 40
0.3749991936
 40
0.4999993583
 40
0.6249995167
 40
0.7499996731
 40
1.0
 40
1.0
 40
1.0
 40
1.0
 10
71.8820212028
 20
-38.5079097612
 30
0.0
 10
71.888739612
 20
-37.7056967356
 30
0.0
 10
71.8969805174
 20
-36.1012185406
 30
0.0
 10
71.9038352766
 20
-33.6944854213
 30
0.0
 10
71.9084769559
 20
-31.2877355779
 30
0.0
 10
71.9134396939
 20
-28.0787327673
 30
0.0
 10
71.91806633
 20
-24.0674737705
 30
0.0
 10
71.9222577753
 20
-19.2539600369
 30
0.0
 10
71.9253472718
 20
-14.4404447836
 30
0.0
 10
71.9280936316
 20
-8.0224237157
 30
0.0
 10
71.9287969951
 20
-3.208907403
 30
0.0
 10
71.9287968694
 20
0.0001034853
 30
0.0
  0
SPLINE
  5
477
100
AcDbEntity
  8
RACCORDO
100
AcDbSpline
 62
250
  6
CONTINUOUS
 70
0
 71
3
 72
19
 73
15
 74
0
 42
0.0000001
 43
0.0000001
 44
0.0000000001
 40
0.0
 40
0.0
 40
0.0
 40
0.0
 40
0.3745268798
 40
0.5423542921
 40
0.6895805541
 40
0.7539402803
 40
0.811434228
 40
0.8616384146
 40
0.9042279847
 40
0.9390139998
 40
0.9660287749
 40
0.9767642841
 40
0.9858203317
 40
1.0
 40
1.0
 40
1.0
 40
1.0
 10
69.6863834903
 20
-40.7093450938
 30
0.0
 10
69.6843693203
 20
-40.8881086216
 30
0.0
 10
69.6756421867
 20
-41.147011134
 30
0.0
 10
69.6500641449
 20
-41.4752144214
 30
0.0
 10
69.6295984364
 20
-41.6552262973
 30
0.0
 10
69.6102296337
 20
-41.782213681
 30
0.0
 10
69.5953722371
 20
-41.8630050632
 30
0.0
 10
69.5796727245
 20
-41.9330242815
 30
0.0
 10
69.5633038365
 20
-41.9917275111
 30
0.0
 10
69.546393941
 20
-42.0386464135
 30
0.0
 10
69.5311077788
 20
-42.0698771158
 30
0.0
 10
69.5181071569
 20
-42.0881663724
 30
0.0
 10
69.5070056328
 20
-42.0999139277
 30
0.0
 10
69.4967105408
 20
-42.105792811
 30
0.0
 10
69.49
 20
-42.1066763427
 30
0.0
  0
SPLINE
  5
478
100
AcDbEntity
  8
RACCORDO
100
AcDbSpline
 62
250
  6
CONTINUOUS
 70
0
 71
3
 72
17
 73
13
 74
0
 42
0.0000001
 43
0.0000001
 44
0.0000000001
 40
0.0
 40
0.0
 40
0.0
 40
0.0
 40
0.1244419031
 40
0.2490338585
 40
0.3737739017
 40
0.4362676914
 40
0.4988001461
 40
0.6238505718
 40
0.7490658797
 40
0.8118051135
 40
0.874575099
 40
1.0
 40
1.0
 40
1.0
 40
1.0
 10
69.6863834903
 20
-40.7093450938
 30
0.0
 10
69.828606232
 20
-40.7069599546
 30
0.0
 10
70.1135222622
 20
-40.6733619605
 30
0.0
 10
70.5223408339
 20
-40.5410564678
 30
0.0
 10
70.8366800842
 20
-40.3681864663
 30
0.0
 10
71.0654827367
 20
-40.1968502865
 30
0.0
 10
71.2776509658
 20
-40.0047514584
 30
0.0
 10
71.5080422872
 20
-39.7284178369
 30
0.0
 10
71.6822209612
 20
-39.4132098641
 30
0.0
 10
71.7830051893
 20
-39.1444696076
 30
0.0
 10
71.8569323012
 20
-38.8669917035
 30
0.0
 10
71.880820583
 20
-38.6512710852
 30
0.0
 10
71.8820212024
 20
-38.5079097612
 30
0.0
  0
SPLINE
  5
479
100
AcDbEntity
  8
RACCORDO
100
AcDbSpline
 62
250
  6
CONTINUOUS
 70
0
 71
3
 72
17
 73
13
 74
0
 42
0.0000001
 43
0.0000001
 44
0.0000000001
 40
0.0
 40
0.0
 40
0.0
 40
0.0
 40
0.1981059178
 40
0.3859326929
 40
0.5573331031
 40
0.7066975804
 40
0.8291377481
 40
0.9206464036
 40
0.9538230474
 40
0.9782286639
 40
0.9936631569
 40
1.0
 40
1.0
 40
1.0
 40
1.0
 10
39.9778663121
 20
-41.1789650482
 30
0.0
 10
39.9777192663
 20
-41.2381286189
 30
0.0
 10
39.9776801142
 20
-41.3533864225
 30
0.0
 10
39.9776692436
 20
-41.5198322777
 30
0.0
 10
39.9776896081
 20
-41.671721691
 30
0.0
 10
39.9777352786
 20
-41.8040836135
 30
0.0
 10
39.9777888994
 20
-41.9125859526
 30
0.0
 10
39.9778511222
 20
-41.9863894566
 30
0.0
 10
39.9778822727
 20
-42.030914688
 30
0.0
 10
39.9779271922
 20
-42.0527214605
 30
0.0
 10
39.9779089449
 20
-42.0665110181
 30
0.0
 10
39.9779668959
 20
-42.0730141798
 30
0.0
 10
39.9779194145
 20
-42.0749060637
 30
0.0
  0
SPLINE
  5
47A
100
AcDbEntity
  8
RACCORDO
100
AcDbSpline
 62
250
  6
CONTINUOUS
 70
0
 71
3
 72
11
 73
7
 74
0
 42
0.0000001
 43
0.0000001
 44
0.0000000001
 40
0.0
 40
0.0
 40
0.0
 40
0.0
 40
0.2505216684
 40
0.5007756673
 40
0.750719486
 40
1.0
 40
1.0
 40
1.0
 40
1.0
 10
39.9779888113
 20
-42.0749060065
 30
0.0
 10
42.4424566555
 20
-42.0748875627
 30
0.0
 10
47.3687591755
 20
-42.0770557391
 30
0.0
 10
54.75384202
 20
-42.0839333515
 30
0.0
 10
62.1267122821
 20
-42.0931801726
 30
0.0
 10
67.0377483807
 20
-42.1010033245
 30
0.0
 10
69.49
 20
-42.106676344
 30
0.0
  0
SPLINE
  5
47B
100
AcDbEntity
  8
RACCORDO
100
AcDbSpline
 62
250
  6
CONTINUOUS
 70
0
 71
3
 72
21
 73
17
 74
0
 42
0.0000001
 43
0.0000001
 44
0.0000000001
 40
0.0
 40
0.0
 40
0.0
 40
0.0
 40
0.0625942593
 40
0.1251863361
 40
0.2503588598
 40
0.37550939
 40
0.5006280027
 40
0.6256997294
 40
0.7506955687
 40
0.8131453467
 40
0.8755399523
 40
0.9067059701
 40
0.9378430217
 40
0.968943711
 40
0.9844779169
 40
1.0
 40
1.0
 40
1.0
 40
1.0
 10
39.9776218904
 20
-41.1789680011
 30
0.0
 10
40.5975726742
 20
-41.1787223385
 30
0.0
 10
41.8374535747
 20
-41.1757585225
 30
0.0
 10
44.3170278212
 20
-41.1591855756
 30
0.0
 10
47.4160149744
 20
-41.1210713765
 30
0.0
 10
51.1339411674
 20
-41.0566274354
 30
0.0
 10
54.8506977398
 20
-40.9832861227
 30
0.0
 10
58.5659214894
 20
-40.9099293123
 30
0.0
 10
61.6606679141
 20
-40.8535709282
 30
0.0
 10
64.1347857016
 20
-40.8108574819
 30
0.0
 10
65.679709707
 20
-40.7832611613
 30
0.0
 10
66.9145290671
 20
-40.7599019051
 30
0.0
 10
67.8394564365
 20
-40.7422078646
 30
0.0
 10
68.6095973409
 20
-40.727838019
 30
0.0
 10
69.2251217347
 20
-40.716989135
 30
0.0
 10
69.5326701083
 20
-40.7119230555
 30
0.0
 10
69.6863834902
 20
-40.7093450938
 30
0.0
  0
SPLINE
  5
47C
100
AcDbEntity
  8
RACCORDO
100
AcDbSpline
 62
250
  6
CONTINUOUS
 70
0
 71
3
 72
11
 73
7
 74
0
 42
0.0000001
 43
0.0000001
 44
0.0000000001
 40
0.0
 40
0.0
 40
0.0
 40
0.0
 40
0.3859327558
 40
0.7066976319
 40
0.9206464349
 40
1.0
 40
1.0
 40
1.0
 40
1.0
 10
-39.9778663121
 20
-41.1789650482
 30
0.0
 10
-39.9775937632
 20
-41.294222391
 30
0.0
 10
-39.9779169279
 20
-41.5052758259
 30
0.0
 10
-39.9778511191
 20
-41.780224505
 30
0.0
 10
-39.9780258283
 20
-41.9636128243
 30
0.0
 10
-39.9777611019
 20
-42.0512078916
 30
0.0
 10
-39.977920066
 20
-42.0749060637
 30
0.0
  0
SPLINE
  5
47D
100
AcDbEntity
  8
0
100
AcDbSpline
 62
250
  6
CONTINUOUS
 70
0
 71
3
 72
52
 73
48
 74
0
 42
0.0000001
 43
0.0000001
 44
0.0000000001
 40
0.0
 40
0.0
 40
0.0
 40
0.0
 40
0.0312448699
 40
0.062489744
 40
0.0937346177
 40
0.1249794784
 40
0.1562243543
 40
0.1718468314
 40
0.1874693275
 40
0.1952808057
 40
0.2030931377
 40
0.2109052279
 40
0.2187184174
 40
0.2265324018
 40
0.2343525288
 40
0.2421766227
 40
0.2460885207
 40
0.2500076008
 40
0.2539293328
 40
0.2578467379
 40
0.2617601122
 40
0.2656765982
 40
0.2695985902
 40
0.2735199178
 40
0.2813408534
 40
0.2891659722
 40
0.2969822375
 40
0.3047969939
 40
0.3126101571
 40
0.3282340666
 40
0.3438569808
 40
0.3594797166
 40
0.3751024368
 40
0.3907249548
 40
0.4063474642
 40
0.4375923348
 40
0.4688372113
 40
0.5000820813
 40
0.5313269511
 40
0.5625718212
 40
0.5938166916
 40
0.6250615628
 40
0.6875513009
 40
0.7500410409
 40
0.8125307807
 40
0.8750205206
 40
1.0
 40
1.0
 40
1.0
 40
1.0
 10
40.0
 20
-27.9000266662
 30
0.0
 10
40.3875703739
 20
-27.8997229527
 30
0.0
 10
41.1627117429
 20
-27.8997533153
 30
0.0
 10
42.3254225524
 20
-27.9013834723
 30
0.0
 10
43.4881265388
 20
-27.9066664264
 30
0.0
 10
44.6507830908
 20
-27.9184679164
 30
0.0
 10
45.6196159531
 20
-27.9321095641
 30
0.0
 10
46.3947170166
 20
-27.9400147278
 30
0.0
 10
46.8792095219
 20
-27.9402722575
 30
0.0
 10
47.2667563142
 20
-27.9339234903
 30
0.0
 10
47.5573347038
 20
-27.9247855538
 30
0.0
 10
47.8476643252
 20
-27.9089046186
 30
0.0
 10
48.1373799839
 20
-27.8836805421
 30
0.0
 10
48.4258281573
 20
-27.8451856611
 30
0.0
 10
48.7112736496
 20
-27.7874152142
 30
0.0
 10
48.9441806212
 20
-27.7175113199
 30
0.0
 10
49.1237053282
 20
-27.6430397918
 30
0.0
 10
49.2537261072
 20
-27.5767405171
 30
0.0
 10
49.3777725232
 20
-27.4996795664
 30
0.0
 10
49.494362157
 20
-27.411797702
 30
0.0
 10
49.6016424158
 20
-27.3128190408
 30
0.0
 10
49.6986656422
 20
-27.2037383509
 30
0.0
 10
49.7857557995
 20
-27.0865024684
 30
0.0
 10
49.8888140655
 20
-26.9215692199
 30
0.0
 10
49.9942833176
 20
-26.7021041312
 30
0.0
 10
50.0906493674
 20
-26.4270995498
 30
0.0
 10
50.16574256
 20
-26.1457741176
 30
0.0
 10
50.2237673903
 20
-25.8606871336
 30
0.0
 10
50.2850478924
 20
-25.4778210943
 30
0.0
 10
50.3379153518
 20
-24.9959484378
 30
0.0
 10
50.3790583229
 20
-24.4159577602
 30
0.0
 10
50.4055641324
 20
-23.835147721
 30
0.0
 10
50.4223986824
 20
-23.2540124167
 30
0.0
 10
50.4328563864
 20
-22.6727370616
 30
0.0
 10
50.4408757759
 20
-21.8976307533
 30
0.0
 10
50.4434037861
 20
-20.9286959225
 30
0.0
 10
50.4406176291
 20
-19.76598702
 30
0.0
 10
50.4354010183
 20
-18.6032866088
 30
0.0
 10
50.4291972922
 20
-17.4405917416
 30
0.0
 10
50.4232014521
 20
-16.2778956704
 30
0.0
 10
50.4178247695
 20
-15.1151965336
 30
0.0
 10
50.4116068548
 20
-13.5649269158
 30
0.0
 10
50.4060473431
 20
-11.6270816978
 30
0.0
 10
50.4022971025
 20
-9.3016613739
 30
0.0
 10
50.4005748866
 20
-6.9762388592
 30
0.0
 10
50.3999310119
 20
-3.8756749369
 30
0.0
 10
50.3999375842
 20
-1.5502519683
 30
0.0
 10
50.4000195232
 20
0.00003
 30
0.0
  0
SPLINE
  5
47E
100
AcDbEntity
  8
0
100
AcDbSpline
 62
250
  6
CONTINUOUS
 70
0
 71
3
 72
23
 73
19
 74
0
 42
0.0000001
 43
0.0000001
 44
0.0000000001
 40
0.0
 40
0.0
 40
0.0
 40
0.0
 40
0.1249992053
 40
0.1874988295
 40
0.2499984518
 40
0.3749976867
 40
0.4374973375
 40
0.4999970013
 40
0.56249666
 40
0.6249962137
 40
0.687495914
 40
0.7499956186
 40
0.8124949024
 40
0.8437449942
 40
0.8749966226
 40
0.9062479851
 40
0.9374993704
 40
1.0
 40
1.0
 40
1.0
 40
1.0
 10
50.4000190442
 20
0.0013955757
 30
0.0
 10
50.3993951158
 20
0.9231428021
 30
0.0
 10
50.3993650266
 20
2.3057644874
 30
0.0
 10
50.4007257598
 20
4.1492592948
 30
0.0
 10
50.4032180792
 20
5.9927528161
 30
0.0
 10
50.4091379887
 20
7.8362435758
 30
0.0
 10
50.4214065103
 20
9.6797007708
 30
0.0
 10
50.4346012045
 20
11.0622621568
 30
0.0
 10
50.4517099428
 20
12.4447797931
 30
0.0
 10
50.472473143
 20
13.8272468753
 30
0.0
 10
50.4954826976
 20
15.2096781134
 30
0.0
 10
50.5183144395
 20
16.5921084994
 30
0.0
 10
50.5324723804
 20
17.744219211
 30
0.0
 10
50.5362700604
 20
18.6659788417
 30
0.0
 10
50.534123593
 20
19.3573193601
 30
0.0
 10
50.5239890451
 20
20.0486257912
 30
0.0
 10
50.4934948823
 20
20.969927189
 30
0.0
 10
50.4455566059
 20
21.6600367696
 30
0.0
 10
50.3999848859
 20
22.118659472
 30
0.0
  0
SPLINE
  5
47F
100
AcDbEntity
  8
0
100
AcDbSpline
 62
250
  6
CONTINUOUS
 70
0
 71
3
 72
25
 73
21
 74
0
 42
0.0000001
 43
0.0000001
 44
0.0000000001
 40
0.0
 40
0.0
 40
0.0
 40
0.0
 40
0.0312504523
 40
0.0625015129
 40
0.0937519702
 40
0.1250021565
 40
0.1562522588
 40
0.1875022347
 40
0.2187522403
 40
0.2500021767
 40
0.3125019987
 40
0.3750018095
 40
0.4375016296
 40
0.5000014431
 40
0.6250010625
 40
0.6875008978
 40
0.7500007146
 40
0.8125005415
 40
0.8750003761
 40
1.0
 40
1.0
 40
1.0
 40
1.0
 10
42.7944977906
 20
27.9002200924
 30
0.0
 10
42.3501743781
 20
27.9370162823
 30
0.0
 10
41.4603691732
 20
27.9971348625
 30
0.0
 10
40.1239712156
 20
28.0546102779
 30
0.0
 10
38.7867953438
 20
28.0877547336
 30
0.0
 10
37.4493720657
 20
28.1056583923
 30
0.0
 10
36.1118585571
 20
28.1121903148
 30
0.0
 10
34.7743388247
 20
28.1108288791
 30
0.0
 10
33.4368426587
 20
28.1036179064
 30
0.0
 10
31.6535526863
 20
28.0889820017
 30
0.0
 10
29.4245016259
 20
28.0644335558
 30
0.0
 10
26.7496722552
 20
28.0325491311
 30
0.0
 10
24.0748314754
 20
28.001548013
 30
0.0
 10
20.5083264866
 20
27.9648063979
 30
0.0
 10
16.9417282751
 20
27.937563827
 30
0.0
 10
13.375079248
 20
27.9195283936
 30
0.0
 10
10.7000733464
 20
27.9103800124
 30
0.0
 10
8.0250583244
 20
27.9047720284
 30
0.0
 10
4.4583673846
 20
27.9002687811
 30
0.0
 10
1.7833464329
 20
27.8993984952
 30
0.0
 10
-0.0
 20
27.9000053236
 30
0.0
  0
SPLINE
  5
480
100
AcDbEntity
  8
RACCORDO
100
AcDbSpline
 62
250
  6
CONTINUOUS
 70
0
 71
3
 72
21
 73
17
 74
0
 42
0.0000001
 43
0.0000001
 44
0.0000000001
 40
0.0
 40
0.0
 40
0.0
 40
0.0
 40
0.1245496542
 40
0.1869358813
 40
0.2493953119
 40
0.3118970473
 40
0.3431515321
 40
0.3744043067
 40
0.4369081682
 40
0.4994161083
 40
0.5619344013
 40
0.624468323
 40
0.6870224659
 40
0.749597482
 40
0.8747893161
 40
1.0
 40
1.0
 40
1.0
 40
1.0
 10
39.9777438229
 20
-41.1789679177
 30
0.0
 10
39.939165578
 20
-40.6289536661
 30
0.0
 10
39.9158276704
 20
-39.8009668888
 30
0.0
 10
39.923189351
 20
-38.6969923365
 30
0.0
 10
39.9402626266
 20
-37.8677742777
 30
0.0
 10
39.9577996381
 20
-37.1764553266
 30
0.0
 10
39.9698889919
 20
-36.6231864896
 30
0.0
 10
39.9798315586
 20
-36.0698664426
 30
0.0
 10
39.9888849228
 20
-35.3781577115
 30
0.0
 10
39.9954338649
 20
-34.5480090222
 30
0.0
 10
39.9988760006
 20
-33.7177098229
 30
0.0
 10
40.0003544994
 20
-32.8872012712
 30
0.0
 10
40.0011503718
 20
-32.0564409862
 30
0.0
 10
40.0022908234
 20
-30.9483022481
 30
0.0
 10
40.002951604
 20
-29.5627903093
 30
0.0
 10
40.0015183795
 20
-28.4542897546
 30
0.0
 10
40.0
 20
-27.9
 30
0.0
  0
SPLINE
  5
481
100
AcDbEntity
  8
0
100
AcDbSpline
 62
250
  6
CONTINUOUS
 70
0
 71
3
 72
25
 73
21
 74
0
 42
0.0000001
 43
0.0000001
 44
0.0000000001
 40
0.0
 40
0.0
 40
0.0
 40
0.0
 40
0.0312504523
 40
0.062501513
 40
0.0937519702
 40
0.1250021565
 40
0.1562522588
 40
0.1875022347
 40
0.2187522403
 40
0.2500021767
 40
0.3125019987
 40
0.3750018095
 40
0.4375016296
 40
0.5000014432
 40
0.6250010625
 40
0.6875008978
 40
0.7500007147
 40
0.8125005415
 40
0.8750003761
 40
1.0
 40
1.0
 40
1.0
 40
1.0
 10
-42.7945066575
 20
27.900219328
 30
0.0
 10
-42.3501831696
 20
27.9370157277
 30
0.0
 10
-41.4603777844
 20
27.997134448
 30
0.0
 10
-40.1239795529
 20
28.0546099439
 30
0.0
 10
-38.7868034071
 20
28.0877545743
 30
0.0
 10
-37.4493798521
 20
28.105658325
 30
0.0
 10
-36.1118660655
 20
28.1121902912
 30
0.0
 10
-34.7743460548
 20
28.1108288924
 30
0.0
 10
-33.4368496106
 20
28.1036179455
 30
0.0
 10
-31.6535592673
 20
28.0889820605
 30
0.0
 10
-29.4245077433
 20
28.0644336202
 30
0.0
 10
-26.7496778164
 20
28.0325491907
 30
0.0
 10
-24.0748364806
 20
28.0015480613
 30
0.0
 10
-20.5083307504
 20
27.9648064324
 30
0.0
 10
-16.9417317973
 20
27.9375638467
 30
0.0
 10
-13.3750820288
 20
27.9195284045
 30
0.0
 10
-10.7000755711
 20
27.9103800195
 30
0.0
 10
-8.0250599929
 20
27.9047720322
 30
0.0
 10
-4.4583683115
 20
27.9002687808
 30
0.0
 10
-1.7833468037
 20
27.8993984947
 30
0.0
 10
-0.0
 20
27.9000053236
 30
0.0
  0
SPLINE
  5
482
100
AcDbEntity
  8
0
100
AcDbSpline
 62
250
  6
CONTINUOUS
 70
0
 71
3
 72
23
 73
19
 74
0
 42
0.0000001
 43
0.0000001
 44
0.0000000001
 40
0.0
 40
0.0
 40
0.0
 40
0.0
 40
0.1249992055
 40
0.1874988298
 40
0.2499984522
 40
0.3749976873
 40
0.4374973382
 40
0.4999970021
 40
0.5624966609
 40
0.6249962148
 40
0.6874959151
 40
0.7499956196
 40
0.8124949043
 40
0.8437449961
 40
0.8749966234
 40
0.9062479854
 40
0.9374993708
 40
1.0
 40
1.0
 40
1.0
 40
1.0
 10
-50.4000190442
 20
0.0013955758
 30
0.0
 10
-50.3993951163
 20
0.9231427583
 30
0.0
 10
-50.3993650279
 20
2.3057643778
 30
0.0
 10
-50.4007257582
 20
4.1492590973
 30
0.0
 10
-50.4032180745
 20
5.9927525309
 30
0.0
 10
-50.4091379896
 20
7.8362432028
 30
0.0
 10
-50.421406514
 20
9.6797003098
 30
0.0
 10
-50.4346011909
 20
11.06226163
 30
0.0
 10
-50.4517099204
 20
12.4447792011
 30
0.0
 10
-50.4724731869
 20
13.8272462162
 30
0.0
 10
-50.4954827205
 20
15.2096773872
 30
0.0
 10
-50.5183141341
 20
16.5921077164
 30
0.0
 10
-50.5324727266
 20
17.744218369
 30
0.0
 10
-50.5362705148
 20
18.6659779546
 30
0.0
 10
-50.5341230596
 20
19.3573184279
 30
0.0
 10
-50.523987436
 20
20.0486247891
 30
0.0
 10
-50.4934950899
 20
20.9699261816
 30
0.0
 10
-50.4455647433
 20
21.660036054
 30
0.0
 10
-50.4000015335
 20
22.1186595763
 30
0.0
  0
SPLINE
  5
483
100
AcDbEntity
  8
0
100
AcDbSpline
 62
250
  6
CONTINUOUS
 70
0
 71
3
 72
52
 73
48
 74
0
 42
0.0000001
 43
0.0000001
 44
0.0000000001
 40
0.0
 40
0.0
 40
0.0
 40
0.0
 40
0.0312448699
 40
0.062489744
 40
0.0937346177
 40
0.1249794784
 40
0.1562243543
 40
0.1718468314
 40
0.1874693275
 40
0.1952808057
 40
0.2030931377
 40
0.2109052279
 40
0.2187184174
 40
0.2265324018
 40
0.2343525288
 40
0.2421766227
 40
0.2460885207
 40
0.2500076008
 40
0.2539293328
 40
0.2578467379
 40
0.2617601122
 40
0.2656765982
 40
0.2695985902
 40
0.2735199178
 40
0.2813408534
 40
0.2891659722
 40
0.2969822375
 40
0.3047969939
 40
0.3126101571
 40
0.3282340666
 40
0.3438569808
 40
0.3594797166
 40
0.3751024368
 40
0.3907249548
 40
0.4063474642
 40
0.4375923348
 40
0.4688372113
 40
0.5000820813
 40
0.5313269511
 40
0.5625718212
 40
0.5938166916
 40
0.6250615628
 40
0.6875513009
 40
0.7500410409
 40
0.8125307807
 40
0.8750205206
 40
1.0
 40
1.0
 40
1.0
 40
1.0
 10
-40.0
 20
-27.9000266662
 30
0.0
 10
-40.3875703739
 20
-27.8997229527
 30
0.0
 10
-41.1627117429
 20
-27.8997533153
 30
0.0
 10
-42.3254225524
 20
-27.9013834723
 30
0.0
 10
-43.4881265388
 20
-27.9066664264
 30
0.0
 10
-44.6507830908
 20
-27.9184679164
 30
0.0
 10
-45.6196159531
 20
-27.9321095641
 30
0.0
 10
-46.3947170166
 20
-27.9400147278
 30
0.0
 10
-46.8792095219
 20
-27.9402722575
 30
0.0
 10
-47.2667563142
 20
-27.9339234903
 30
0.0
 10
-47.5573347038
 20
-27.9247855538
 30
0.0
 10
-47.8476643252
 20
-27.9089046186
 30
0.0
 10
-48.1373799839
 20
-27.8836805421
 30
0.0
 10
-48.4258281573
 20
-27.8451856611
 30
0.0
 10
-48.7112736496
 20
-27.7874152142
 30
0.0
 10
-48.9441806212
 20
-27.7175113199
 30
0.0
 10
-49.1237053282
 20
-27.6430397918
 30
0.0
 10
-49.2537261072
 20
-27.5767405171
 30
0.0
 10
-49.3777725232
 20
-27.4996795664
 30
0.0
 10
-49.494362157
 20
-27.411797702
 30
0.0
 10
-49.6016424158
 20
-27.3128190408
 30
0.0
 10
-49.6986656422
 20
-27.2037383509
 30
0.0
 10
-49.7857557995
 20
-27.0865024684
 30
0.0
 10
-49.8888140655
 20
-26.9215692199
 30
0.0
 10
-49.9942833176
 20
-26.7021041312
 30
0.0
 10
-50.0906493674
 20
-26.4270995498
 30
0.0
 10
-50.16574256
 20
-26.1457741176
 30
0.0
 10
-50.2237673903
 20
-25.8606871336
 30
0.0
 10
-50.2850478924
 20
-25.4778210943
 30
0.0
 10
-50.3379153518
 20
-24.9959484378
 30
0.0
 10
-50.3790583229
 20
-24.4159577602
 30
0.0
 10
-50.4055641324
 20
-23.835147721
 30
0.0
 10
-50.4223986824
 20
-23.2540124167
 30
0.0
 10
-50.4328563864
 20
-22.6727370616
 30
0.0
 10
-50.4408757759
 20
-21.8976307533
 30
0.0
 10
-50.4434037861
 20
-20.9286959225
 30
0.0
 10
-50.4406176291
 20
-19.76598702
 30
0.0
 10
-50.4354010183
 20
-18.6032866088
 30
0.0
 10
-50.4291972922
 20
-17.4405917416
 30
0.0
 10
-50.4232014521
 20
-16.2778956704
 30
0.0
 10
-50.4178247695
 20
-15.1151965336
 30
0.0
 10
-50.4116068548
 20
-13.5649269158
 30
0.0
 10
-50.4060473431
 20
-11.6270816978
 30
0.0
 10
-50.4022971025
 20
-9.3016613739
 30
0.0
 10
-50.4005748866
 20
-6.9762388592
 30
0.0
 10
-50.3999310119
 20
-3.8756749369
 30
0.0
 10
-50.3999375842
 20
-1.5502519683
 30
0.0
 10
-50.4000195232
 20
0.00003
 30
0.0
  0
SPLINE
  5
484
100
AcDbEntity
  8
RACCORDO
100
AcDbSpline
 62
250
  6
CONTINUOUS
 70
0
 71
3
 72
21
 73
17
 74
0
 42
0.0000001
 43
0.0000001
 44
0.0000000001
 40
0.0
 40
0.0
 40
0.0
 40
0.0
 40
0.1245500895
 40
0.1869362202
 40
0.2493953378
 40
0.3118967141
 40
0.3431510668
 40
0.3744037585
 40
0.4369075692
 40
0.4994155618
 40
0.5619339624
 40
0.6244680073
 40
0.6870222547
 40
0.7495973403
 40
0.8747892493
 40
1.0
 40
1.0
 40
1.0
 40
1.0
 10
-39.9777472747
 20
-41.179461858
 30
0.0
 10
-39.939272161
 20
-40.6294182263
 30
0.0
 10
-39.9159867091
 20
-39.8014026988
 30
0.0
 10
-39.9233116853
 20
-38.6973870958
 30
0.0
 10
-39.9403291818
 20
-37.8681410981
 30
0.0
 10
-39.9578164318
 20
-37.1767991041
 30
0.0
 10
-39.9698768343
 20
-36.623511939
 30
0.0
 10
-39.9797997151
 20
-36.0701724709
 30
0.0
 10
-39.9888426598
 20
-35.378438685
 30
0.0
 10
-39.9953954984
 20
-34.5482591821
 30
0.0
 10
-39.9988511282
 20
-33.7179284091
 30
0.0
 10
-40.0003462567
 20
-32.8873880126
 30
0.0
 10
-40.001154543
 20
-32.0565960243
 30
0.0
 10
-40.0023009173
 20
-30.9484156428
 30
0.0
 10
-40.0029569403
 20
-29.5628520637
 30
0.0
 10
-40.001518397
 20
-28.4543103325
 30
0.0
 10
-40.0
 20
-27.9
 30
0.0
  0
SPLINE
  5
485
100
AcDbEntity
  8
0
100
AcDbSpline
 62
250
  6
CONTINUOUS
 70
0
 71
3
 72
15
 73
11
 74
0
 42
0.0000001
 43
0.0000001
 44
0.0000000001
 40
0.0
 40
0.0
 40
0.0
 40
0.0
 40
0.1250027001
 40
0.2500070036
 40
0.3750057346
 40
0.5000010302
 40
0.6249963936
 40
0.7499939476
 40
0.8749950259
 40
1.0
 40
1.0
 40
1.0
 40
1.0
 10
-44.6985183226
 20
27.8902914824
 30
0.0
 10
-45.0707153043
 20
27.888045651
 30
0.0
 10
-45.8166652891
 20
27.8132164396
 30
0.0
 10
-46.8924733322
 20
27.4901324648
 30
0.0
 10
-47.8858520889
 20
26.9644833496
 30
0.0
 10
-48.7565294913
 20
26.2538062002
 30
0.0
 10
-49.4700016329
 20
25.3854398473
 30
0.0
 10
-49.9988795281
 20
24.3937469557
 30
0.0
 10
-50.3241636346
 20
23.3184776541
 30
0.0
 10
-50.3985358193
 20
22.572279705
 30
0.0
 10
-50.3997214579
 20
22.200071065
 30
0.0
  0
SPLINE
  5
486
100
AcDbEntity
  8
0
100
AcDbSpline
 62
250
  6
CONTINUOUS
 70
0
 71
3
 72
8
 73
4
 74
0
 42
0.0000001
 43
0.0000001
 44
0.0000000001
 40
0.0
 40
0.0
 40
0.0
 40
0.0
 40
1.0
 40
1.0
 40
1.0
 40
1.0
 10
-42.7945159741
 20
27.9007276501
 30
0.0
 10
-43.429185598
 20
27.8976712604
 30
0.0
 10
-44.0638526746
 20
27.894084666
 30
0.0
 10
-44.6985183226
 20
27.8902914824
 30
0.0
  0
SPLINE
  5
487
100
AcDbEntity
  8
0
100
AcDbSpline
 62
250
  6
CONTINUOUS
 70
0
 71
3
 72
8
 73
4
 74
0
 42
0.0000001
 43
0.0000001
 44
0.0000000001
 40
0.0
 40
0.0
 40
0.0
 40
0.0
 40
1.0
 40
1.0
 40
1.0
 40
1.0
 10
44.6985183226
 20
27.8902914824
 30
0.0
 10
44.0638467297
 20
27.8940847417
 30
0.0
 10
43.4291737077
 20
27.8976713305
 30
0.0
 10
42.7944981386
 20
27.9007277361
 30
0.0
  0
SPLINE
  5
488
100
AcDbEntity
  8
RACCORDO
100
AcDbSpline
 62
250
  6
CONTINUOUS
 70
0
 71
3
 72
19
 73
15
 74
0
 42
0.0000001
 43
0.0000001
 44
0.0000000001
 40
0.0
 40
0.0
 40
0.0
 40
0.0
 40
0.3745270321
 40
0.5423545164
 40
0.6895808368
 40
0.7539405837
 40
0.8114345444
 40
0.861638734
 40
0.9042282944
 40
0.9390142825
 40
0.966029006
 40
0.9767644761
 40
0.9858204732
 40
1.0
 40
1.0
 40
1.0
 40
1.0
 10
-69.68638347
 20
-40.7093450938
 30
0.0
 10
-69.6843690082
 20
-40.8881086275
 30
0.0
 10
-69.6756414502
 20
-41.1470111374
 30
0.0
 10
-69.6500630945
 20
-41.4752144167
 30
0.0
 10
-69.6295973117
 20
-41.6552262899
 30
0.0
 10
-69.6102285351
 20
-41.7822136754
 30
0.0
 10
-69.5953711958
 20
-41.8630050558
 30
0.0
 10
-69.5796717771
 20
-41.9330242715
 30
0.0
 10
-69.5633030181
 20
-41.9917274965
 30
0.0
 10
-69.5463932829
 20
-42.0386463918
 30
0.0
 10
-69.5311072881
 20
-42.0698770951
 30
0.0
 10
-69.5181068112
 20
-42.0881663628
 30
0.0
 10
-69.5070054433
 20
-42.0999139006
 30
0.0
 10
-69.4967104699
 20
-42.1057928097
 30
0.0
 10
-69.49
 20
-42.106676344
 30
0.0
  0
SPLINE
  5
489
100
AcDbEntity
  8
0
100
AcDbSpline
 62
250
  6
CONTINUOUS
 70
0
 71
3
 72
15
 73
11
 74
0
 42
0.0000001
 43
0.0000001
 44
0.0000000001
 40
0.0
 40
0.0
 40
0.0
 40
0.0
 40
0.1250049289
 40
0.2500059605
 40
0.3750034673
 40
0.4999987853
 40
0.6249940386
 40
0.7499927256
 40
0.8749970715
 40
1.0
 40
1.0
 40
1.0
 40
1.0
 10
50.3997214579
 20
22.200071065
 30
0.0
 10
50.3985359717
 20
22.572279571
 30
0.0
 10
50.3241636339
 20
23.3184772472
 30
0.0
 10
49.9988798479
 20
24.3937461751
 30
0.0
 10
49.4700023213
 20
25.3854388139
 30
0.0
 10
48.7565305972
 20
26.2538049319
 30
0.0
 10
47.8858539329
 20
26.9644824363
 30
0.0
 10
46.8924753415
 20
27.4901313752
 30
0.0
 10
45.816666777
 20
27.8132168236
 30
0.0
 10
45.0707159747
 20
27.8880440006
 30
0.0
 10
44.6985183226
 20
27.8902914825
 30
0.0
  0
SPLINE
  5
48A
100
AcDbEntity
  8
RACCORDO
100
AcDbSpline
 62
250
  6
CONTINUOUS
 70
0
 71
3
 72
11
 73
7
 74
0
 42
0.0000001
 43
0.0000001
 44
0.0000000001
 40
0.0
 40
0.0
 40
0.0
 40
0.0
 40
0.2493291807
 40
0.4993508631
 40
0.7495897457
 40
1.0
 40
1.0
 40
1.0
 40
1.0
 10
-69.49
 20
-42.106676344
 30
0.0
 10
-67.0372699637
 20
-42.1010023351
 30
0.0
 10
-62.124988917
 20
-42.0936044884
 30
0.0
 10
-54.7510224753
 20
-42.0854133203
 30
0.0
 10
-47.3664190924
 20
-42.0789232541
 30
0.0
 10
-42.4413628055
 20
-42.0758258072
 30
0.0
 10
-39.9779914883
 20
-42.0749016835
 30
0.0
  0
SPLINE
  5
48B
100
AcDbEntity
  8
RACCORDO
100
AcDbSpline
 62
250
  6
CONTINUOUS
 70
0
 71
3
 72
16
 73
12
 74
0
 42
0.0000001
 43
0.0000001
 44
0.0000000001
 40
0.0
 40
0.0
 40
0.0
 40
0.0
 40
0.0621574831
 40
0.1244594507
 40
0.249299392
 40
0.3742911951
 40
0.4993609883
 40
0.6244802244
 40
0.7496336197
 40
0.8748103069
 40
1.0
 40
1.0
 40
1.0
 40
1.0
 10
-69.68638347
 20
-40.7093450938
 30
0.0
 10
-69.0708475513
 20
-40.7196667576
 30
0.0
 10
-67.8383576568
 20
-40.7410616046
 30
0.0
 10
-65.3695499727
 20
-40.7805897758
 30
0.0
 10
-62.2782869127
 20
-40.8150997339
 30
0.0
 10
-58.5653952046
 20
-40.8554808875
 30
0.0
 10
-54.8498189168
 20
-40.9033312326
 30
0.0
 10
-51.1327738172
 20
-40.9604450858
 30
0.0
 10
-47.4148119958
 20
-41.0261318778
 30
0.0
 10
-43.6962899801
 20
-41.0991384542
 30
0.0
 10
-41.2171610978
 20
-41.1518659117
 30
0.0
 10
-39.9775599238
 20
-41.1794664369
 30
0.0
  0
SPLINE
  5
48C
100
AcDbEntity
  8
RACCORDO
100
AcDbSpline
 62
250
  6
CONTINUOUS
 70
0
 71
3
 72
23
 73
19
 74
0
 42
0.0000001
 43
0.0000001
 44
0.0000000001
 40
0.0
 40
0.0
 40
0.0
 40
0.0
 40
0.2015431815
 40
0.390720357
 40
0.5619818097
 40
0.6392997826
 40
0.7103046319
 40
0.7744749499
 40
0.83133968
 40
0.8804816732
 40
0.9215409375
 40
0.9542177089
 40
0.9673363075
 40
0.9782761766
 40
0.9870184928
 40
0.9935508986
 40
0.9978692381
 40
1.0
 40
1.0
 40
1.0
 40
1.0
 10
-71.8820212024
 20
-38.5079097612
 30
0.0
 10
-71.9646292391
 20
-38.5077077421
 30
0.0
 10
-72.1247764261
 20
-38.5071484732
 30
0.0
 10
-72.3551171698
 20
-38.5058061435
 30
0.0
 10
-72.5345381213
 20
-38.5042742979
 30
0.0
 10
-72.6655207764
 20
-38.5028039868
 30
0.0
 10
-72.7526095974
 20
-38.5016474922
 30
0.0
 10
-72.8313130845
 20
-38.500409229
 30
0.0
 10
-72.9010527461
 20
-38.4990989019
 30
0.0
 10
-72.9613170392
 20
-38.4977302823
 30
0.0
 10
-73.0116614103
 20
-38.4963123611
 30
0.0
 10
-73.0472415943
 20
-38.4950391441
 30
0.0
 10
-73.0704675417
 20
-38.4939537518
 30
0.0
 10
-73.0838991241
 20
-38.4932094548
 30
0.0
 10
-73.0945964979
 20
-38.4924348268
 30
0.0
 10
-73.1026466815
 20
-38.4917537974
 30
0.0
 10
-73.1078172313
 20
-38.4909324124
 30
0.0
 10
-73.1105432348
 20
-38.4904998424
 30
0.0
 10
-73.1112594088
 20
-38.49
 30
0.0
  0
SPLINE
  5
48D
100
AcDbEntity
  8
RACCORDO
100
AcDbSpline
 62
250
  6
CONTINUOUS
 70
0
 71
3
 72
17
 73
13
 74
0
 42
0.0000001
 43
0.0000001
 44
0.0000000001
 40
0.0
 40
0.0
 40
0.0
 40
0.0
 40
0.1254249007
 40
0.1881948862
 40
0.2509341199
 40
0.3761494276
 40
0.501199853
 40
0.5637323076
 40
0.6262260972
 40
0.7509661403
 40
0.8755580954
 40
1.0
 40
1.0
 40
1.0
 40
1.0
 10
-71.8820212024
 20
-38.5079097612
 30
0.0
 10
-71.880820583
 20
-38.651271085
 30
0.0
 10
-71.8569323013
 20
-38.8669917029
 30
0.0
 10
-71.7830051896
 20
-39.1444696066
 30
0.0
 10
-71.6822209618
 20
-39.4132098627
 30
0.0
 10
-71.5080422884
 20
-39.728417835
 30
0.0
 10
-71.2776509677
 20
-40.0047514563
 30
0.0
 10
-71.0654827392
 20
-40.1968502844
 30
0.0
 10
-70.8366800874
 20
-40.3681864643
 30
0.0
 10
-70.5223408379
 20
-40.541056466
 30
0.0
 10
-70.1135222654
 20
-40.6733619602
 30
0.0
 10
-69.8286062337
 20
-40.7069599541
 30
0.0
 10
-69.6863834903
 20
-40.7093450938
 30
0.0
  0
SPLINE
  5
48E
100
AcDbEntity
  8
RACCORDO
100
AcDbSpline
 62
250
  6
CONTINUOUS
 70
0
 71
3
 72
12
 73
8
 74
0
 42
0.0000001
 43
0.0000001
 44
0.0000000001
 40
0.0
 40
0.0
 40
0.0
 40
0.0
 40
0.2500003721
 40
0.500000721
 40
0.7500010635
 40
0.87500107
 40
1.0
 40
1.0
 40
1.0
 40
1.0
 10
-73.1111271271
 20
0.0001770395
 30
0.0
 10
-73.1111271299
 20
-3.2073424879
 30
0.0
 10
-73.1111529832
 20
-9.622381247
 30
0.0
 10
-73.1112696653
 20
-19.244939148
 30
0.0
 10
-73.111270291
 20
-27.2637350001
 30
0.0
 10
-73.1110803988
 20
-33.6787552298
 30
0.0
 10
-73.1109184847
 20
-36.8862563868
 30
0.0
 10
-73.1112594113
 20
-38.49
 30
0.0
  0
SPLINE
  5
48F
100
AcDbEntity
  8
RACCORDO
100
AcDbSpline
 62
250
  6
CONTINUOUS
 70
0
 71
3
 72
16
 73
12
 74
0
 42
0.0000001
 43
0.0000001
 44
0.0000000001
 40
0.0
 40
0.0
 40
0.0
 40
0.0
 40
0.2500003269
 40
0.3750004833
 40
0.5000006417
 40
0.6250008064
 40
0.7500009125
 40
0.8125008842
 40
0.8750008095
 40
0.9375008192
 40
1.0
 40
1.0
 40
1.0
 40
1.0
 10
-71.9287968693
 20
0.0001034853
 30
0.0
 10
-71.9287970024
 20
-3.2089074031
 30
0.0
 10
-71.9280936309
 20
-8.022423716
 30
0.0
 10
-71.9253472349
 20
-14.4404447841
 30
0.0
 10
-71.9222580807
 20
-19.253960038
 30
0.0
 10
-71.9180660219
 20
-24.0674737712
 30
0.0
 10
-71.9134403982
 20
-28.0787327696
 30
0.0
 10
-71.90847691
 20
-31.2877355792
 30
0.0
 10
-71.903835168
 20
-33.6944854223
 30
0.0
 10
-71.896980662
 20
-36.101218542
 30
0.0
 10
-71.8887396133
 20
-37.705696736
 30
0.0
 10
-71.8820212028
 20
-38.5079097612
 30
0.0
  0
SPLINE
  5
490
100
AcDbEntity
  8
RACCORDO
100
AcDbSpline
 62
250
  6
CONTINUOUS
 70
0
 71
3
 72
20
 73
16
 74
0
 42
0.0000001
 43
0.0000001
 44
0.0000000001
 40
0.0
 40
0.0
 40
0.0
 40
0.0
 40
0.1982877765
 40
0.3847394325
 40
0.5538808187
 40
0.700777931
 40
0.7645365231
 40
0.8212186803
 40
0.8704419872
 40
0.9119009908
 40
0.9453905186
 40
0.9708619882
 40
0.9806693636
 40
0.9886404407
 40
1.0
 40
1.0
 40
1.0
 40
1.0
 10
-71.8729419381
 20
38.6266965363
 30
0.0
 10
-71.9563139272
 20
38.6252170874
 30
0.0
 10
-72.1180619372
 20
38.621049337
 30
0.0
 10
-72.3507770021
 20
38.6109174657
 30
0.0
 10
-72.5616669322
 20
38.5973553096
 30
0.0
 10
-72.7207666924
 20
38.5830197661
 30
0.0
 10
-72.8324115766
 20
38.5697578287
 30
0.0
 10
-72.9030589599
 20
38.5597256543
 30
0.0
 10
-72.9641430485
 20
38.5492174868
 30
0.0
 10
-73.0152383856
 20
38.5383548109
 30
0.0
 10
-73.0559977196
 20
38.5271917157
 30
0.0
 10
-73.0831890033
 20
38.5171827908
 30
0.0
 10
-73.0993152956
 20
38.5085592889
 30
0.0
 10
-73.1092228918
 20
38.5015680947
 30
0.0
 10
-73.1148659078
 20
38.4946953652
 30
0.0
 10
-73.1157451982
 20
38.49
 30
0.0
  0
SPLINE
  5
491
100
AcDbEntity
  8
RACCORDO
100
AcDbSpline
 62
250
  6
CONTINUOUS
 70
0
 71
3
 72
13
 73
9
 74
0
 42
0.0000001
 43
0.0000001
 44
0.0000000001
 40
0.0
 40
0.0
 40
0.0
 40
0.0
 40
0.1248536197
 40
0.2498708327
 40
0.3748923327
 40
0.4999138493
 40
0.7499569241
 40
1.0
 40
1.0
 40
1.0
 40
1.0
 10
-73.1157451982
 20
38.49
 30
0.0
 10
-73.1131398073
 20
36.888137476
 30
0.0
 10
-73.1113884414
 20
33.6823085711
 30
0.0
 10
-73.1111448121
 20
28.8724622054
 30
0.0
 10
-73.1113149803
 20
24.0604612935
 30
0.0
 10
-73.1114448818
 20
17.6443860061
 30
0.0
 10
-73.1112591534
 20
9.6242911614
 30
0.0
 10
-73.111115853
 20
3.2082150869
 30
0.0
 10
-73.1111271271
 20
0.0001770395
 30
0.0
  0
SPLINE
  5
492
100
AcDbEntity
  8
RACCORDO
100
AcDbSpline
 62
250
  6
CONTINUOUS
 70
0
 71
3
 72
17
 73
13
 74
0
 42
0.0000001
 43
0.0000001
 44
0.0000000001
 40
0.0
 40
0.0
 40
0.0
 40
0.0
 40
0.0623773599
 40
0.1248608358
 40
0.1873671465
 40
0.2498771431
 40
0.3123873941
 40
0.3748975833
 40
0.4999180439
 40
0.624938576
 40
0.7499590264
 40
1.0
 40
1.0
 40
1.0
 40
1.0
 10
-71.8729419381
 20
38.6266965363
 30
0.0
 10
-71.8853246673
 20
37.8236425761
 30
0.0
 10
-71.9035661813
 20
36.2160648543
 30
0.0
 10
-71.9172078331
 20
33.8036229754
 30
0.0
 10
-71.9238565768
 20
31.3894480128
 30
0.0
 10
-71.9274968696
 20
28.9749230749
 30
0.0
 10
-71.9293351443
 20
26.5603462888
 30
0.0
 10
-71.9310921963
 20
23.3409061658
 30
0.0
 10
-71.932034707
 20
19.3166047226
 30
0.0
 10
-71.9323629307
 20
14.4874426367
 30
0.0
 10
-71.9316289248
 20
8.0485594544
 30
0.0
 10
-71.9301654012
 20
3.2193977727
 30
0.0
 10
-71.9287975516
 20
-0.0000434783
 30
0.0
  0
SPLINE
  5
493
100
AcDbEntity
  8
RACCORDO
100
AcDbSpline
 62
250
  6
CONTINUOUS
 70
0
 71
3
 72
20
 73
16
 74
0
 42
0.0000001
 43
0.0000001
 44
0.0000000001
 40
0.0
 40
0.0
 40
0.0
 40
0.0
 40
0.198507886
 40
0.3846010415
 40
0.5530487783
 40
0.6991593372
 40
0.7625652666
 40
0.8189610887
 40
0.8679956987
 40
0.9093989207
 40
0.9430104278
 40
0.9688490747
 40
0.9789689468
 40
0.9873659268
 40
1.0
 40
1.0
 40
1.0
 40
1.0
 10
-69.646343637
 20
40.9121911286
 30
0.0
 10
-69.6444481666
 20
40.9934081293
 30
0.0
 10
-69.6393413318
 20
41.1507340254
 30
0.0
 10
-69.6273941012
 20
41.3767715721
 30
0.0
 10
-69.6116966157
 20
41.5810804586
 30
0.0
 10
-69.5952728901
 20
41.7349265382
 30
0.0
 10
-69.5801690804
 20
41.8427071342
 30
0.0
 10
-69.5687718525
 20
41.9108676114
 30
0.0
 10
-69.5568577161
 20
41.9697795192
 30
0.0
 10
-69.5445485981
 20
42.0190609415
 30
0.0
 10
-69.5319156235
 20
42.0583872078
 30
0.0
 10
-69.5205669414
 20
42.0845986739
 30
0.0
 10
-69.5108786688
 20
42.1000494976
 30
0.0
 10
-69.5027920023
 20
42.1098077461
 30
0.0
 10
-69.4951034428
 20
42.1150023731
 30
0.0
 10
-69.49
 20
42.11583227
 30
0.0
  0
LINE
  5
494
100
AcDbEntity
  8
0
100
AcDbLine
 62
7
  6
CONTINUOUS
 10
-119.0794370641
 20
22.1588759758
 11
-119.0794381471
 21
22.200071065
  0
SPLINE
  5
495
100
AcDbEntity
  8
0
100
AcDbSpline
 62
7
  6
CONTINUOUS
 70
0
 71
3
 72
40
 73
36
 74
0
 42
0.0000001
 43
0.0000001
 44
0.0000000001
 40
0.0
 40
0.0
 40
0.0
 40
0.0
 40
0.000628169
 40
0.0024396869
 40
0.0054462554
 40
0.0096424653
 40
0.0150197054
 40
0.0215648037
 40
0.0380950221
 40
0.0590746629
 40
0.0843016637
 40
0.1135329713
 40
0.1464869362
 40
0.1828460247
 40
0.2222598823
 40
0.3087062033
 40
0.4025022096
 40
0.5000429244
 40
0.5975801588
 40
0.6913682028
 40
0.7777988848
 40
0.8172011504
 40
0.8535475246
 40
0.8864888128
 40
0.9157089665
 40
0.940927621
 40
0.9619026453
 40
0.9707341322
 40
0.9784323896
 40
0.984978972
 40
0.9903580629
 40
0.9945569416
 40
0.9975658782
 40
0.999378688
 40
1.0
 40
1.0
 40
1.0
 40
1.0
 10
-119.0855215512
 20
-29.39213
 30
0.0
 10
-119.0853737413
 20
-29.39213
 30
0.0
 10
-119.0854368764
 20
-29.3912476552
 30
0.0
 10
-119.0852054868
 20
-29.3902654023
 30
0.0
 10
-119.0851999093
 20
-29.3879783021
 30
0.0
 10
-119.0850924899
 20
-29.3850927692
 30
0.0
 10
-119.0850485248
 20
-29.3812719921
 30
0.0
 10
-119.0849823709
 20
-29.3745907201
 30
0.0
 10
-119.0849647549
 20
-29.3642156716
 30
0.0
 10
-119.0850025347
 20
-29.3494573014
 30
0.0
 10
-119.0851100277
 20
-29.3317055154
 30
0.0
 10
-119.0852829552
 20
-29.311138331
 30
0.0
 10
-119.0855211768
 20
-29.2879516464
 30
0.0
 10
-119.0858217713
 20
-29.2623697134
 30
0.0
 10
-119.0863172022
 20
-29.2242022727
 30
0.0
 10
-119.0870700878
 20
-29.1725220398
 30
0.0
 10
-119.0881248306
 20
-29.1071674273
 30
0.0
 10
-119.0893115675
 20
-29.039204949
 30
0.0
 10
-119.0905788885
 20
-28.9712458007
 30
0.0
 10
-119.0918728227
 20
-28.9059018702
 30
0.0
 10
-119.0929588286
 20
-28.8542358504
 30
0.0
 10
-119.0938039769
 20
-28.8160839789
 30
0.0
 10
-119.0943922109
 20
-28.790515695
 30
0.0
 10
-119.0949489301
 20
-28.7673432617
 30
0.0
 10
-119.0954686767
 20
-28.7467889279
 30
0.0
 10
-119.0959471295
 20
-28.7290506616
 30
0.0
 10
-119.0963251545
 20
-28.7161076744
 30
0.0
 10
-119.0966091109
 20
-28.7072887754
 30
0.0
 10
-119.096794183
 20
-28.7018584435
 30
0.0
 10
-119.0969742304
 20
-28.6972548388
 30
0.0
 10
-119.0971172889
 20
-28.6934342969
 30
0.0
 10
-119.0973066618
 20
-28.690552777
 30
0.0
 10
-119.0973356832
 20
-28.6882598758
 30
0.0
 10
-119.0976192956
 20
-28.6872910341
 30
0.0
 10
-119.0975152786
 20
-28.6864
 30
0.0
 10
-119.097661475
 20
-28.6864
 30
0.0
  0
LINE
  5
496
100
AcDbEntity
  8
0
100
AcDbLine
 62
7
  6
CONTINUOUS
 10
-109.3287965113
 20
41.792262726
 11
-109.8659061058
 21
41.7865788733
  0
LINE
  5
497
100
AcDbEntity
  8
0
100
AcDbLine
 62
7
  6
CONTINUOUS
 10
-119.0794358233
 20
22.1186844163
 11
-119.0794370641
 21
22.1588759758
  0
LINE
  5
498
100
AcDbEntity
  8
0
100
AcDbLine
 62
7
  6
CONTINUOUS
 10
-119.0794353399
 20
27.8902914824
 11
-119.0797717994
 21
27.8998991751
  0
SPLINE
  5
499
100
AcDbEntity
  8
RACCORDO
100
AcDbSpline
 62
250
  6
CONTINUOUS
 70
0
 71
3
 72
15
 73
11
 74
0
 42
0.0000001
 43
0.0000001
 44
0.0000000001
 40
0.0
 40
0.0
 40
0.0
 40
0.0
 40
0.1255408935
 40
0.2509787134
 40
0.376257652
 40
0.5013439772
 40
0.6262299832
 40
0.7509352922
 40
0.8755044128
 40
1.0
 40
1.0
 40
1.0
 40
1.0
 10
-117.0477117461
 20
-40.7093450938
 30
0.0
 10
-117.0414657551
 20
-40.8017974742
 30
0.0
 10
-117.0118729789
 20
-40.9859242265
 30
0.0
 10
-116.9177694627
 20
-41.2488138367
 30
0.0
 10
-116.7771503131
 20
-41.4897707047
 30
0.0
 10
-116.594837165
 20
-41.7003914439
 30
0.0
 10
-116.3770877131
 20
-41.8734609651
 30
0.0
 10
-116.1313449852
 20
-42.0030084793
 30
0.0
 10
-115.8661821704
 20
-42.0845651743
 30
0.0
 10
-115.6822115628
 20
-42.1050726136
 30
0.0
 10
-115.5903339838
 20
-42.1066763427
 30
0.0
  0
SPLINE
  5
49A
100
AcDbEntity
  8
RACCORDO
100
AcDbSpline
 62
250
  6
CONTINUOUS
 70
0
 71
3
 72
24
 73
20
 74
0
 42
0.0000001
 43
0.0000001
 44
0.0000000001
 40
0.0
 40
0.0
 40
0.0
 40
0.0
 40
0.003906638
 40
0.0062605373
 40
0.0090123214
 40
0.0159198437
 40
0.0248965483
 40
0.0360394388
 40
0.0493828791
 40
0.0826619589
 40
0.1245774904
 40
0.1748013671
 40
0.2328938615
 40
0.2983242276
 40
0.3704826472
 40
0.4486891682
 40
0.6202210119
 40
0.8063766341
 40
1.0
 40
1.0
 40
1.0
 40
1.0
 10
-115.5903339838
 20
-42.106676344
 30
0.0
 10
-115.5855791661
 20
-42.1067593367
 30
0.0
 10
-115.5778779493
 20
-42.1040709263
 30
0.0
 10
-115.5693967667
 20
-42.0970991896
 30
0.0
 10
-115.5597176179
 20
-42.0860465597
 30
0.0
 10
-115.5482718442
 20
-42.0662868954
 30
0.0
 10
-115.53555144
 20
-42.0359117755
 30
0.0
 10
-115.5230028102
 20
-41.9971165649
 30
0.0
 10
-115.5051772669
 20
-41.9290738609
 30
0.0
 10
-115.4844566924
 20
-41.8232195964
 30
0.0
 10
-115.4617692737
 20
-41.6722253003
 30
0.0
 10
-115.4401016783
 20
-41.4906117046
 30
0.0
 10
-115.4196006227
 20
-41.2800955627
 30
0.0
 10
-115.4004935367
 20
-41.0426512257
 30
0.0
 10
-115.3830000399
 20
-40.7805403372
 30
0.0
 10
-115.3615033307
 20
-40.3892789553
 30
0.0
 10
-115.3408996354
 20
-39.8590279134
 30
0.0
 10
-115.3271622223
 20
-39.1880264401
 30
0.0
 10
-115.3260886057
 20
-38.7256913071
 30
0.0
 10
-115.3277702338
 20
-38.49
 30
0.0
  0
SPLINE
  5
49B
100
AcDbEntity
  8
RACCORDO
100
AcDbSpline
 62
250
  6
CONTINUOUS
 70
0
 71
3
 72
22
 73
18
 74
0
 42
0.0000001
 43
0.0000001
 44
0.0000000001
 40
0.0
 40
0.0
 40
0.0
 40
0.0
 40
0.0064942432
 40
0.013975608
 40
0.0229543153
 40
0.0337082202
 40
0.0610041159
 40
0.0962772987
 40
0.1394205975
 40
0.190136055
 40
0.2480302172
 40
0.3126507471
 40
0.3834980099
 40
0.4600241529
 40
0.6276325296
 40
0.8098648014
 40
1.0
 40
1.0
 40
1.0
 40
1.0
 10
-117.0477117461
 20
-40.7093450938
 30
0.0
 10
-117.0428835246
 20
-40.7087280064
 30
0.0
 10
-117.0327224832
 20
-40.7052580347
 30
0.0
 10
-117.0188476239
 20
-40.6947838315
 30
0.0
 10
-117.0054521389
 20
-40.6792664756
 30
0.0
 10
-116.9865102629
 20
-40.6494421052
 30
0.0
 10
-116.9645583049
 20
-40.5987865737
 30
0.0
 10
-116.9406077414
 20
-40.5232215797
 30
0.0
 10
-116.9175364366
 20
-40.429161305
 30
0.0
 10
-116.8954363254
 20
-40.3175671862
 30
0.0
 10
-116.8744753753
 20
-40.1894120357
 30
0.0
 10
-116.8548296934
 20
-40.0458103593
 30
0.0
 10
-116.8367155273
 20
-39.887943556
 30
0.0
 10
-116.8142641502
 20
-39.6529204666
 30
0.0
 10
-116.7922864272
 20
-39.3340466555
 30
0.0
 10
-116.7770692668
 20
-38.9295574329
 30
0.0
 10
-116.7753740453
 20
-38.6504098645
 30
0.0
 10
-116.7768851373
 20
-38.5079097612
 30
0.0
  0
SPLINE
  5
49C
100
AcDbEntity
  8
0
100
AcDbSpline
 62
7
  6
CONTINUOUS
 70
0
 71
3
 72
26
 73
22
 74
0
 42
0.0000001
 43
0.0000001
 44
0.0000000001
 40
0.0
 40
0.0
 40
0.0
 40
0.0
 40
0.0003042518
 40
0.0011371046
 40
0.0025126994
 40
0.0044329313
 40
0.0099071105
 40
0.0175547366
 40
0.0273664917
 40
0.0393297778
 40
0.0534288089
 40
0.0696452204
 40
0.1083415307
 40
0.1552146418
 40
0.2100172211
 40
0.2724600394
 40
0.3422138406
 40
0.4189112412
 40
0.5914870656
 40
0.786554665
 40
1.0
 40
1.0
 40
1.0
 40
1.0
 10
-119.1049915591
 20
-28.1498751129
 30
0.0
 10
-119.1049371398
 20
-28.1498751129
 30
0.0
 10
-119.1049065898
 20
-28.1501667865
 30
0.0
 10
-119.1048183752
 20
-28.1505246797
 30
0.0
 10
-119.1047525571
 20
-28.1513074125
 30
0.0
 10
-119.1046167969
 20
-28.1528416367
 30
0.0
 10
-119.1044573602
 20
-28.1555489088
 30
0.0
 10
-119.1042470293
 20
-28.1596351693
 30
0.0
 10
-119.1040176109
 20
-28.1648968458
 30
0.0
 10
-119.1037636523
 20
-28.1713069144
 30
0.0
 10
-119.1034878773
 20
-28.1788644821
 30
0.0
 10
-119.1030649737
 20
-28.1912006696
 30
0.0
 10
-119.1024891384
 20
-28.2093974191
 30
0.0
 10
-119.1017468667
 20
-28.234493736
 30
0.0
 10
-119.1009228232
 20
-28.2638368972
 30
0.0
 10
-119.100021421
 20
-28.297271956
 30
0.0
 10
-119.0990481435
 20
-28.3346226617
 30
0.0
 10
-119.0976050083
 20
-28.391666494
 30
0.0
 10
-119.095675722
 20
-28.4711191582
 30
0.0
 10
-119.0932641256
 20
-28.5750263786
 30
0.0
 10
-119.0916394155
 20
-28.6480761105
 30
0.0
 10
-119.0908072048
 20
-28.6862444781
 30
0.0
  0
SPLINE
  5
49D
100
AcDbEntity
  8
0
100
AcDbSpline
 62
7
  6
CONTINUOUS
 70
0
 71
3
 72
9
 73
5
 74
0
 42
0.0000001
 43
0.0000001
 44
0.0000000001
 40
0.0
 40
0.0
 40
0.0
 40
0.0
 40
0.5979435147
 40
1.0
 40
1.0
 40
1.0
 40
1.0
 10
-119.077357679
 20
-29.3835354032
 30
0.0
 10
-119.0757931925
 20
-29.4782772292
 30
0.0
 10
-119.0734472767
 20
-29.6367259648
 30
0.0
 10
-119.0717247904
 20
-29.7951896973
 30
0.0
 10
-119.0717436918
 20
-29.8589026669
 30
0.0
  0
SPLINE
  5
49E
100
AcDbEntity
  8
0
100
AcDbSpline
 62
7
  6
CONTINUOUS
 70
0
 71
3
 72
34
 73
30
 74
0
 42
0.0000001
 43
0.0000001
 44
0.0000000001
 40
0.0
 40
0.0
 40
0.0
 40
0.0
 40
0.0958323994
 40
0.2363429351
 40
0.318391525
 40
0.4051637565
 40
0.494115851
 40
0.5826407873
 40
0.6681444794
 40
0.7481216821
 40
0.7852959647
 40
0.8202248183
 40
0.8526519763
 40
0.8823397088
 40
0.909070545
 40
0.9326486485
 40
0.9529011734
 40
0.9696794151
 40
0.9767262053
 40
0.9828602923
 40
0.9880704177
 40
0.9923470812
 40
0.995682516
 40
0.9969953245
 40
0.9980707884
 40
0.9989085107
 40
0.9995082928
 40
0.9998706245
 40
1.0
 40
1.0
 40
1.0
 40
1.0
 10
-119.0417340078
 20
-29.8589026669
 30
0.0
 10
-119.0417178165
 20
-29.8042969718
 30
0.0
 10
-119.0430397775
 20
-29.6696304145
 30
0.0
 10
-119.0456033213
 20
-29.4882288372
 30
0.0
 10
-119.048525785
 20
-29.3119944653
 30
0.0
 10
-119.0511457916
 20
-29.1651377867
 30
0.0
 10
-119.0540018982
 20
-29.0145945088
 30
0.0
 10
-119.0569995976
 20
-28.8647769709
 30
0.0
 10
-119.0600429064
 20
-28.7200753713
 30
0.0
 10
-119.0625920535
 20
-28.604629728
 30
0.0
 10
-119.0645805714
 20
-28.517996536
 30
0.0
 10
-119.0659834265
 20
-28.458451261
 30
0.0
 10
-119.0673219317
 20
-28.4031715322
 30
0.0
 10
-119.0685840599
 20
-28.3525626008
 30
0.0
 10
-119.0697585132
 20
-28.3069952907
 30
0.0
 10
-119.0708348321
 20
-28.2668034831
 30
0.0
 10
-119.0718041078
 20
-28.232281872
 30
0.0
 10
-119.0725533166
 20
-28.2071775021
 30
0.0
 10
-119.0731002052
 20
-28.1901153398
 30
0.0
 10
-119.0734557252
 20
-28.1796423005
 30
0.0
 10
-119.0737799025
 20
-28.170746749
 30
0.0
 10
-119.0740736575
 20
-28.163448153
 30
0.0
 10
-119.0743041866
 20
-28.1583640525
 30
0.0
 10
-119.0744813611
 20
-28.1551132755
 30
0.0
 10
-119.0745896587
 20
-28.1532660559
 30
0.0
 10
-119.0747045685
 20
-28.1518701143
 30
0.0
 10
-119.0747738597
 20
-28.1507756129
 30
0.0
 10
-119.074898887
 20
-28.1502887736
 30
0.0
 10
-119.0749147393
 20
-28.1498751129
 30
0.0
 10
-119.074988458
 20
-28.1498751129
 30
0.0
  0
SPLINE
  5
49F
100
AcDbEntity
  8
RACCORDO
100
AcDbSpline
 62
250
  6
CONTINUOUS
 70
0
 71
3
 72
32
 73
28
 74
0
 42
0.0000001
 43
0.0000001
 44
0.0000000001
 40
0.0
 40
0.0
 40
0.0
 40
0.0
 40
0.0004507034
 40
0.001568421
 40
0.0033152498
 40
0.0056582781
 40
0.008568309
 40
0.0120213454
 40
0.0204784978
 40
0.0309006927
 40
0.0431654908
 40
0.0571614796
 40
0.0727998356
 40
0.0900168717
 40
0.1087562507
 40
0.1505728361
 40
0.1979082971
 40
0.250678529
 40
0.3089720072
 40
0.3732299892
 40
0.4443641568
 40
0.5239291926
 40
0.614447376
 40
0.7199553445
 40
0.8464270356
 40
0.9194876241
 40
1.0
 40
1.0
 40
1.0
 40
1.0
 10
-118.3876158689
 20
-41.1789184736
 30
0.0
 10
-118.3876383401
 20
-41.1787034899
 30
0.0
 10
-118.3868133655
 20
-41.178221744
 30
0.0
 10
-118.3857764126
 20
-41.1772354868
 30
0.0
 10
-118.3836398856
 20
-41.1757747007
 30
0.0
 10
-118.3809688559
 20
-41.1738030992
 30
0.0
 10
-118.3775691709
 20
-41.1713553386
 30
0.0
 10
-118.3718340587
 20
-41.1671672697
 30
0.0
 10
-118.3632068733
 20
-41.1608135059
 30
0.0
 10
-118.3512141681
 20
-41.1519124985
 30
0.0
 10
-118.3370812826
 20
-41.1414342778
 30
0.0
 10
-118.3209046393
 20
-41.1295135137
 30
0.0
 10
-118.3027330974
 20
-41.116296381
 30
0.0
 10
-118.282589531
 20
-41.1019243435
 30
0.0
 10
-118.2519551297
 20
-41.0806438408
 30
0.0
 10
-118.2087472132
 20
-41.0521545601
 30
0.0
 10
-118.1505422345
 20
-41.0168322075
 30
0.0
 10
-118.0838411326
 20
-40.9804091751
 30
0.0
 10
-118.0080493527
 20
-40.9439116469
 30
0.0
 10
-117.9222898317
 20
-40.9081006373
 30
0.0
 10
-117.8251017906
 20
-40.8735714776
 30
0.0
 10
-117.714246712
 20
-40.8403319292
 30
0.0
 10
-117.5860522178
 20
-40.8080318153
 30
0.0
 10
-117.4350941449
 20
-40.7743141791
 30
0.0
 10
-117.2915495366
 20
-40.7459283209
 30
0.0
 10
-117.1590218216
 20
-40.724030009
 30
0.0
 10
-117.0860134476
 20
-40.714240606
 30
0.0
 10
-117.0477117453
 20
-40.7093450938
 30
0.0
  0
SPLINE
  5
4A0
100
AcDbEntity
  8
RACCORDO
100
AcDbSpline
 62
250
  6
CONTINUOUS
 70
0
 71
3
 72
15
 73
11
 74
0
 42
0.0000001
 43
0.0000001
 44
0.0000000001
 40
0.0
 40
0.0
 40
0.0
 40
0.0
 40
0.1253505845
 40
0.2506174578
 40
0.3757763069
 40
0.5008154076
 40
0.6257365595
 40
0.7505549855
 40
0.875297696
 40
1.0
 40
1.0
 40
1.0
 40
1.0
 10
-116.5017560876
 20
40.9121911289
 30
0.0
 10
-116.4851762289
 20
40.9950754259
 30
0.0
 10
-116.4379564132
 20
41.1583269394
 30
0.0
 10
-116.3271664491
 20
41.3874933356
 30
0.0
 10
-116.1795276786
 20
41.5946774702
 30
0.0
 10
-115.9992737566
 20
41.7738582236
 30
0.0
 10
-115.7915583779
 20
41.9199290588
 30
0.0
 10
-115.5622977323
 20
42.0286982924
 30
0.0
 10
-115.3181474399
 20
42.0970473851
 30
0.0
 10
-115.1498676149
 20
42.1143647131
 30
0.0
 10
-115.0657912522
 20
42.1158322715
 30
0.0
  0
SPLINE
  5
4A1
100
AcDbEntity
  8
RACCORDO
100
AcDbSpline
 62
250
  6
CONTINUOUS
 70
0
 71
3
 72
20
 73
16
 74
0
 42
0.0000001
 43
0.0000001
 44
0.0000000001
 40
0.0
 40
0.0
 40
0.0
 40
0.0
 40
0.3247478294
 40
0.5625791378
 40
0.7301748223
 40
0.792713431
 40
0.8435788173
 40
0.8844365872
 40
0.9167689983
 40
0.9418954221
 40
0.961003711
 40
0.9751962656
 40
0.9855767136
 40
0.9933712273
 40
1.0
 40
1.0
 40
1.0
 40
1.0
 10
-116.5017560876
 20
40.9121911289
 30
0.0
 10
-116.5569298727
 20
40.9240114282
 30
0.0
 10
-116.6520745267
 20
40.9466000498
 30
0.0
 10
-116.7742768757
 20
40.980793559
 30
0.0
 10
-116.8516973241
 20
41.0057240179
 30
0.0
 10
-116.8976383077
 20
41.022265524
 30
0.0
 10
-116.9226252477
 20
41.0319743623
 30
0.0
 10
-116.9424606295
 20
41.0404229198
 30
0.0
 10
-116.9578854407
 20
41.0477799287
 30
0.0
 10
-116.9695497693
 20
41.0541989239
 30
0.0
 10
-116.9780216133
 20
41.0598221516
 30
0.0
 10
-116.9838056705
 20
41.0647782518
 30
0.0
 10
-116.9873409165
 20
41.0692178163
 30
0.0
 10
-116.9889025514
 20
41.0733501363
 30
0.0
 10
-116.9886524404
 20
41.0759443991
 30
0.0
 10
-116.9882914559
 20
41.0770381336
 30
0.0
  0
SPLINE
  5
4A2
100
AcDbEntity
  8
RACCORDO
100
AcDbSpline
 62
250
  6
CONTINUOUS
 70
0
 71
3
 72
11
 73
7
 74
0
 42
0.0000001
 43
0.0000001
 44
0.0000000001
 40
0.0
 40
0.0
 40
0.0
 40
0.0
 40
0.1200065944
 40
0.3460255641
 40
0.6513732454
 40
1.0
 40
1.0
 40
1.0
 40
1.0
 10
-116.5160905681
 20
38.6266965362
 30
0.0
 10
-116.4583200675
 20
38.6207702495
 30
0.0
 10
-116.2916243351
 20
38.6048859412
 30
0.0
 10
-115.9778369029
 20
38.5749546729
 30
0.0
 10
-115.5538556394
 20
38.5351282415
 30
0.0
 10
-115.2387592547
 20
38.5056572314
 30
0.0
 10
-115.0707796754
 20
38.49
 30
0.0
  0
SPLINE
  5
4A3
100
AcDbEntity
  8
RACCORDO
100
AcDbSpline
 62
250
  6
CONTINUOUS
 70
0
 71
3
 72
25
 73
21
 74
0
 42
0.0000001
 43
0.0000001
 44
0.0000000001
 40
0.0
 40
0.0
 40
0.0
 40
0.0
 40
0.1943319459
 40
0.3812274329
 40
0.5534801516
 40
0.7044408179
 40
0.8282902553
 40
0.8785240931
 40
0.9004999753
 40
0.9203143248
 40
0.9379255388
 40
0.953300557
 40
0.9664171033
 40
0.9772681421
 40
0.9858719881
 40
0.9922993792
 40
0.9947585691
 40
0.996780777
 40
0.9984698765
 40
1.0
 40
1.0
 40
1.0
 40
1.0
 10
-115.0707796755
 20
38.49
 30
0.0
 10
-115.0579047417
 20
38.7256447559
 30
0.0
 10
-115.0356777406
 20
39.1880866145
 30
0.0
 10
-115.0109937295
 20
39.8597893431
 30
0.0
 10
-114.9947949938
 20
40.4790669479
 30
0.0
 10
-114.9870472174
 20
41.0219333801
 30
0.0
 10
-114.9877039378
 20
41.4167044225
 30
0.0
 10
-114.9937185544
 20
41.6547389103
 30
0.0
 10
-114.9985689771
 20
41.7663904791
 30
0.0
 10
-115.0027549643
 20
41.8384092569
 30
0.0
 10
-115.007668852
 20
41.9023458688
 30
0.0
 10
-115.0133235258
 20
41.9580554703
 30
0.0
 10
-115.0197292366
 20
42.0054095727
 30
0.0
 10
-115.026872898
 20
42.0443463616
 30
0.0
 10
-115.03476478
 20
42.074783105
 30
0.0
 10
-115.0424493986
 20
42.0947278786
 30
0.0
 10
-115.0494594614
 20
42.1060222189
 30
0.0
 10
-115.0545201111
 20
42.1116258467
 30
0.0
 10
-115.0599719041
 20
42.1151169872
 30
0.0
 10
-115.0639333571
 20
42.1158647004
 30
0.0
 10
-115.0657912522
 20
42.1158322715
 30
0.0
  0
SPLINE
  5
4A4
100
AcDbEntity
  8
RACCORDO
100
AcDbSpline
 62
250
  6
CONTINUOUS
 70
0
 71
3
 72
23
 73
19
 74
0
 42
0.0000001
 43
0.0000001
 44
0.0000000001
 40
0.0
 40
0.0
 40
0.0
 40
0.0
 40
0.1894711262
 40
0.3714249544
 40
0.5396049263
 40
0.6884297399
 40
0.7539759615
 40
0.8127975219
 40
0.8643151688
 40
0.9079905808
 40
0.9267404782
 40
0.9433670025
 40
0.9578382895
 40
0.9701446231
 40
0.9803147329
 40
0.9884513502
 40
0.9948146959
 40
1.0
 40
1.0
 40
1.0
 40
1.0
 10
-116.5160905681
 20
38.6266965362
 30
0.0
 10
-116.5030150815
 20
38.7716510727
 30
0.0
 10
-116.4805265021
 20
39.0560987367
 30
0.0
 10
-116.4554544235
 20
39.4698590434
 30
0.0
 10
-116.4386137724
 20
39.8527813371
 30
0.0
 10
-116.4307989939
 20
40.1465601753
 30
0.0
 10
-116.4292086675
 20
40.3564142981
 30
0.0
 10
-116.4303699832
 20
40.4915254003
 30
0.0
 10
-116.434005596
 20
40.6097863221
 30
0.0
 10
-116.4394652521
 20
40.6971712072
 30
0.0
 10
-116.4456686344
 20
40.7575861767
 30
0.0
 10
-116.4508655847
 20
40.7955319017
 30
0.0
 10
-116.4568649138
 20
40.8283443619
 30
0.0
 10
-116.4636942658
 20
40.8559162819
 30
0.0
 10
-116.4713688943
 20
40.8781949902
 30
0.0
 10
-116.4799782001
 20
40.8951689784
 30
0.0
 10
-116.4896972742
 20
40.9070142327
 30
0.0
 10
-116.4978613461
 20
40.9113567451
 30
0.0
 10
-116.5017560863
 20
40.9121911286
 30
0.0
  0
SPLINE
  5
4A5
100
AcDbEntity
  8
RACCORDO
100
AcDbSpline
 62
250
  6
CONTINUOUS
 70
0
 71
3
 72
22
 73
18
 74
0
 42
0.0000001
 43
0.0000001
 44
0.0000000001
 40
0.0
 40
0.0
 40
0.0
 40
0.0
 40
0.1250002797
 40
0.2500005611
 40
0.3750008426
 40
0.5000011172
 40
0.5625012578
 40
0.6250013983
 40
0.6875015392
 40
0.7500016739
 40
0.8125017495
 40
0.8437517954
 40
0.8750018061
 40
0.9062517406
 40
0.9375015244
 40
0.9687510177
 40
1.0
 40
1.0
 40
1.0
 40
1.0
 10
-115.3353487914
 20
0.0001770396
 30
0.0
 10
-115.3356712607
 20
1.6041966715
 30
0.0
 10
-115.3340554935
 20
4.8122364557
 30
0.0
 10
-115.3277839171
 20
9.624291397
 30
0.0
 10
-115.3210698674
 20
14.4363458133
 30
0.0
 10
-115.3194880844
 20
18.4463958324
 30
0.0
 10
-115.3217091219
 20
21.6544346897
 30
0.0
 10
-115.3251741775
 20
24.0604617355
 30
0.0
 10
-115.3292796968
 20
26.4664880794
 30
0.0
 10
-115.3315150849
 20
28.8725146611
 30
0.0
 10
-115.3277207303
 20
30.8775453442
 30
0.0
 10
-115.3154046405
 20
32.4815216061
 30
0.0
 10
-115.2992952373
 20
33.6844352731
 30
0.0
 10
-115.2729186272
 20
34.8871746301
 30
0.0
 10
-115.2316376799
 20
36.0895133727
 30
0.0
 10
-115.1692582867
 20
37.2909588487
 30
0.0
 10
-115.1079831488
 20
38.0907386182
 30
0.0
 10
-115.0707796755
 20
38.49
 30
0.0
  0
SPLINE
  5
4A6
100
AcDbEntity
  8
RACCORDO
100
AcDbSpline
 62
250
  6
CONTINUOUS
 70
0
 71
3
 72
22
 73
18
 74
0
 42
0.0000001
 43
0.0000001
 44
0.0000000001
 40
0.0
 40
0.0
 40
0.0
 40
0.0
 40
0.1250010043
 40
0.2500020148
 40
0.3750030281
 40
0.5000040344
 40
0.5625045398
 40
0.6250050431
 40
0.6875055409
 40
0.750006019
 40
0.8125063801
 40
0.8437565105
 40
0.8750065077
 40
0.9062562249
 40
0.9375054056
 40
0.968753567
 40
1.0
 40
1.0
 40
1.0
 40
1.0
 10
-116.775190168
 20
-0.0000434783
 30
0.0
 10
-116.7753646452
 20
1.6096778986
 30
0.0
 10
-116.7734980155
 20
4.8291210154
 30
0.0
 10
-116.7669539879
 20
9.658280909
 30
0.0
 10
-116.7601357939
 20
14.4874406367
 30
0.0
 10
-116.7586749434
 20
18.5117453284
 30
0.0
 10
-116.7611190391
 20
21.7311876188
 30
0.0
 10
-116.7648049256
 20
24.1457669098
 30
0.0
 10
-116.7691745099
 20
26.560345078
 30
0.0
 10
-116.7716696213
 20
28.9749226883
 30
0.0
 10
-116.7681025624
 20
30.9870784174
 30
0.0
 10
-116.7559762825
 20
32.5967532166
 30
0.0
 10
-116.7400564002
 20
33.8039369586
 30
0.0
 10
-116.7139890566
 20
35.0109420432
 30
0.0
 10
-116.6732756379
 20
36.2175419261
 30
0.0
 10
-116.6120274436
 20
37.4232581101
 30
0.0
 10
-116.5522401792
 20
38.2259424742
 30
0.0
 10
-116.5160905693
 20
38.6266965363
 30
0.0
  0
SPLINE
  5
4A7
100
AcDbEntity
  8
RACCORDO
100
AcDbSpline
 62
250
  6
CONTINUOUS
 70
0
 71
3
 72
19
 73
15
 74
0
 42
0.0000001
 43
0.0000001
 44
0.0000000001
 40
0.0
 40
0.0
 40
0.0
 40
0.0
 40
0.0312499338
 40
0.062499919
 40
0.124999908
 40
0.1874999148
 40
0.249999921
 40
0.3124999271
 40
0.3749999336
 40
0.4999999456
 40
0.6249999592
 40
0.7499999729
 40
0.8749999864
 40
1.0
 40
1.0
 40
1.0
 40
1.0
 10
-115.3277702338
 20
-38.49
 30
0.0
 10
-115.3326528293
 20
-38.0890906691
 30
0.0
 10
-115.3385574292
 20
-37.2872246137
 30
0.0
 10
-115.3420999002
 20
-35.6834683289
 30
0.0
 10
-115.339211098
 20
-33.6787675462
 30
0.0
 10
-115.3343882731
 20
-31.2731339685
 30
0.0
 10
-115.3305028312
 20
-28.8674969716
 30
0.0
 10
-115.3282549446
 20
-26.4618582214
 30
0.0
 10
-115.3270291243
 20
-23.2543387052
 30
0.0
 10
-115.3280428257
 20
-19.2449390549
 30
0.0
 10
-115.3307404685
 20
-14.4336604151
 30
0.0
 10
-115.3332580389
 20
-9.6223816048
 30
0.0
 10
-115.3349695567
 20
-4.8111024263
 30
0.0
 10
-115.3353487503
 20
-1.6035827772
 30
0.0
 10
-115.3353487914
 20
0.0001770396
 30
0.0
  0
SPLINE
  5
4A8
100
AcDbEntity
  8
RACCORDO
100
AcDbSpline
 62
250
  6
CONTINUOUS
 70
0
 71
3
 72
19
 73
15
 74
0
 42
0.0000001
 43
0.0000001
 44
0.0000000001
 40
0.0
 40
0.0
 40
0.0
 40
0.0
 40
0.0312492407
 40
0.0624989295
 40
0.1249987317
 40
0.1874987219
 40
0.2499987626
 40
0.3124988291
 40
0.3749989086
 40
0.4999990949
 40
0.6249993055
 40
0.7499995306
 40
0.8749997636
 40
1.0
 40
1.0
 40
1.0
 40
1.0
 10
-116.7768851394
 20
-38.5079097612
 30
0.0
 10
-116.7811383585
 20
-38.1068164461
 30
0.0
 10
-116.7860504037
 20
-37.3045862396
 30
0.0
 10
-116.7882423722
 20
-35.700100136
 30
0.0
 10
-116.7842668518
 20
-33.6944797361
 30
0.0
 10
-116.778523688
 20
-31.2877359678
 30
0.0
 10
-116.7738790295
 20
-28.8809851072
 30
0.0
 10
-116.7710095201
 20
-26.4742306195
 30
0.0
 10
-116.7690361946
 20
-23.2652219034
 30
0.0
 10
-116.7693171528
 20
-19.2539593596
 30
0.0
 10
-116.7713436311
 20
-14.4404444912
 30
0.0
 10
-116.7734129588
 20
-9.6269289934
 30
0.0
 10
-116.7748646249
 20
-4.8134129319
 30
0.0
 10
-116.7752011444
 20
-1.6044019981
 30
0.0
 10
-116.7752012135
 20
0.0001034853
 30
0.0
  0
SPLINE
  5
4A9
100
AcDbEntity
  8
RACCORDO
100
AcDbSpline
 62
250
  6
CONTINUOUS
 70
0
 71
3
 72
16
 73
12
 74
0
 42
0.0000001
 43
0.0000001
 44
0.0000000001
 40
0.0
 40
0.0
 40
0.0
 40
0.0
 40
0.0992544274
 40
0.203773765
 40
0.3150786285
 40
0.4348068854
 40
0.4982262514
 40
0.5640577753
 40
0.7026099923
 40
0.8489893797
 40
1.0
 40
1.0
 40
1.0
 40
1.0
 10
-109.3793272325
 20
42.2089636633
 30
0.0
 10
-109.2278922997
 20
42.1643036327
 30
0.0
 10
-108.9245189128
 20
42.0447901154
 30
0.0
 10
-108.4949548713
 20
41.7820478204
 30
0.0
 10
-108.0907751248
 20
41.4298291688
 30
0.0
 10
-107.7886626802
 20
41.0694929484
 30
0.0
 10
-107.5671300351
 20
40.7409071604
 30
0.0
 10
-107.3532611421
 20
40.3721519219
 30
0.0
 10
-107.121200761
 20
39.8630316316
 30
0.0
 10
-106.9083860003
 20
39.2016513825
 30
0.0
 10
-106.8123847868
 20
38.7373923112
 30
0.0
 10
-106.7756931948
 20
38.5
 30
0.0
  0
SPLINE
  5
4AA
100
AcDbEntity
  8
RACCORDO
100
AcDbSpline
 62
250
  6
CONTINUOUS
 70
0
 71
3
 72
23
 73
19
 74
0
 42
0.0000001
 43
0.0000001
 44
0.0000000001
 40
0.0
 40
0.0
 40
0.0
 40
0.0
 40
0.1959301492
 40
0.3838336281
 40
0.5566491692
 40
0.635339406
 40
0.7078792306
 40
0.7735854443
 40
0.8318395894
 40
0.8820938143
 40
0.923876272
 40
0.9567962508
 40
0.9698345813
 40
0.9805504064
 40
0.988921587
 40
0.9949347877
 40
0.9985930208
 40
1.0
 40
1.0
 40
1.0
 40
1.0
 10
-106.7756931935
 20
38.4999999928
 30
0.0
 10
-106.8067331528
 20
38.4945033335
 30
0.0
 10
-106.867557287
 20
38.483824327
 30
0.0
 10
-106.9558137306
 20
38.4686082278
 30
0.0
 10
-107.0255228169
 20
38.4568365077
 30
0.0
 10
-107.0769586869
 20
38.4483256949
 30
0.0
 10
-107.1114072356
 20
38.4427146337
 30
0.0
 10
-107.142625846
 20
38.4377253022
 30
0.0
 10
-107.1703195495
 20
38.4334044236
 30
0.0
 10
-107.1942294082
 20
38.4297904393
 30
0.0
 10
-107.2141238084
 20
38.4269181189
 30
0.0
 10
-107.2281224276
 20
38.4250318176
 30
0.0
 10
-107.2371624323
 20
38.4239392468
 30
0.0
 10
-107.2423273407
 20
38.4233775228
 30
0.0
 10
-107.2462817565
 20
38.4230292045
 30
0.0
 10
-107.2493359195
 20
38.4228319577
 30
0.0
 10
-107.2508395634
 20
38.4228877849
 30
0.0
 10
-107.2519656178
 20
38.4229608131
 30
0.0
 10
-107.2520010378
 20
38.4231843915
 30
0.0
  0
SPLINE
  5
4AB
100
AcDbEntity
  8
RACCORDO
100
AcDbSpline
 62
250
  6
CONTINUOUS
 70
0
 71
3
 72
27
 73
23
 74
0
 42
0.0000001
 43
0.0000001
 44
0.0000000001
 40
0.0
 40
0.0
 40
0.0
 40
0.0
 40
0.1960021008
 40
0.3839664438
 40
0.5568328819
 40
0.635545843
 40
0.7081069842
 40
0.7738332032
 40
0.8321057666
 40
0.8823761048
 40
0.9241709874
 40
0.9417639146
 40
0.9570969837
 40
0.9701337992
 40
0.9808441864
 40
0.9892022423
 40
0.992493242
 40
0.9951892416
 40
0.99728851
 40
0.9987902557
 40
0.9996939095
 40
1.0
 40
1.0
 40
1.0
 40
1.0
 10
-106.6880536358
 20
37.5
 30
0.0
 10
-106.7201506498
 20
37.499950159
 30
0.0
 10
-106.7830284432
 20
37.4998630505
 30
0.0
 10
-106.8742146329
 20
37.4997671916
 30
0.0
 10
-106.9461937362
 20
37.4997164057
 30
0.0
 10
-106.999274572
 20
37.4996958689
 30
0.0
 10
-107.0348102657
 20
37.4996906078
 30
0.0
 10
-107.0669986687
 20
37.4996949384
 30
0.0
 10
-107.0955367482
 20
37.4997087604
 30
0.0
 10
-107.1201558777
 20
37.4997319496
 30
0.0
 10
-107.1381132938
 20
37.4997601363
 30
0.0
 10
-107.1503495254
 20
37.4997887019
 30
0.0
 10
-107.1578761406
 20
37.4998113429
 30
0.0
 10
-107.1642763092
 20
37.4998355962
 30
0.0
 10
-107.1695324243
 20
37.4998635127
 30
0.0
 10
-107.1731969612
 20
37.4998862343
 30
0.0
 10
-107.1755412908
 20
37.4999127636
 30
0.0
 10
-107.1768752528
 20
37.4999203798
 30
0.0
 10
-107.1778808257
 20
37.4999583268
 30
0.0
 10
-107.1786761234
 20
37.4999255718
 30
0.0
 10
-107.1790181097
 20
37.5000273266
 30
0.0
 10
-107.1793221921
 20
37.4999501285
 30
0.0
 10
-107.1793272263
 20
37.5
 30
0.0
  0
LINE
  5
4AC
100
AcDbEntity
  8
RACCORDO
100
AcDbLine
 62
250
  6
CONTINUOUS
 10
-106.6880536182
 20
37.5
 11
-106.6880534357
 21
-38.5
  0
ELLIPSE
  5
4AD
100
AcDbEntity
  8
RACCORDO
100
AcDbEllipse
 62
7
  6
CONTINUOUS
 10
-31.8
 20
-42.0911031781
 30
0.0
 11
0.0
 21
0.3031002477
 31
0.0
 40
0.9897715436
 41
-2.1118483949
 42
-1.9383094226
  0
ELLIPSE
  5
4AE
100
AcDbEntity
  8
RACCORDO
100
AcDbEllipse
 62
7
  6
CONTINUOUS
 10
31.8
 20
-42.0911031781
 30
0.0
 11
0.0
 21
0.3031002477
 31
0.0
 40
0.9897715436
 41
-4.3448758845
 42
-4.1713369123
  0
ELLIPSE
  5
4AF
100
AcDbEntity
  8
ASSI
100
AcDbEllipse
 62
7
  6
CONTINUOUS
 10
73.1505061299
 20
37.5
 30
0.0
 11
0.0
 21
5.7
 31
0.0
 40
0.0174550649
 41
-1.5707963268
 42
-1.3962268128
  0
ELLIPSE
  5
4B0
100
AcDbEntity
  8
ASSI
100
AcDbEllipse
 62
7
  6
CONTINUOUS
 10
-73.1505061299
 20
37.5
 30
0.0
 11
0.0
 21
5.7
 31
0.0
 40
0.0174550649
 41
1.3962268128
 42
1.5707963268
  0
ELLIPSE
  5
4B1
100
AcDbEntity
  8
RACCORDO
100
AcDbEllipse
 62
7
  6
CONTINUOUS
 10
34.5
 20
-42.0841768832
 30
0.0
 11
0.5
 21
-0.0
 31
0.0
 40
0.0174550649
 41
0.0
 42
1.5707963268
  0
ELLIPSE
  5
4B2
100
AcDbEntity
  8
RACCORDO
100
AcDbEllipse
 62
7
  6
CONTINUOUS
 10
-34.5
 20
-42.0841768832
 30
0.0
 11
0.5
 21
-0.0
 31
0.0
 40
0.0174550649
 41
1.5707963268
 42
3.1415926536
  0
ELLIPSE
  5
4B3
100
AcDbEntity
  8
0
100
AcDbEllipse
 62
7
  6
CONTINUOUS
 10
-69.49
 20
38.4241020879
 30
0.0
 11
0.0
 21
3.7752888549
 31
0.0
 40
0.9998476487
 41
0.0
 42
0.4720144209
  0
ELLIPSE
  5
4B4
100
AcDbEntity
  8
0
100
AcDbEllipse
 62
7
  6
CONTINUOUS
 10
69.49
 20
38.4241020879
 30
0.0
 11
-0.0
 21
3.7752888549
 31
0.0
 40
0.9998476487
 41
-0.4720144209
 42
-0.0000000417
  0
ENDSEC
  0
SECTION
  2
OBJECTS
  0
DICTIONARY
  5
C
100
AcDbDictionary
280
0
281
1
  3
ACAD_GROUP
350
D
  3
ACAD_MLINESTYLE
350
17
  3
ACAD_LAYOUT
350
1A
  3
ACAD_PLOTSETTINGS
350
19
  3
ACAD_PLOTSTYLENAME
350
E
  0
DICTIONARY
  5
D
102
{ACAD_REACTORS
330
C
102
}
100
AcDbDictionary
280
0
281
1
  0
ACDBDICTIONARYWDFLT
  5
E
102
{ACAD_REACTORS
330
C
102
}
100
AcDbDictionary
281
1
  3
Normal
350
F
100
AcDbDictionaryWithDefault
340
F
  0
DICTIONARY
  5
17
102
{ACAD_REACTORS
330
C
102
}
100
AcDbDictionary
280
0
281
1
  3
Standard
350
18
  0
DICTIONARY
  5
19
102
{ACAD_REACTORS
330
C
102
}
100
AcDbDictionary
281
1
  0
DICTIONARY
  5
1A
102
{ACAD_REACTORS
330
C
102
}
100
AcDbDictionary
281
1
  3
Model
350
4B5
  3
Layout1
350
4B6
  0
ACDBPLACEHOLDER
  5
F
102
{ACAD_REACTORS
330
E
102
}
  0
MLINESTYLE
  5
18
102
{ACAD_REACTORS
330
17
102
}
100
AcDbMlineStyle
  2
STANDARD
 70
0
  3

 62
256
 51
90.0
 52
90.0
 71
2
 49
0.5
 62
256
  6
BYLAYER
 49
-0.5
 62
256
  6
BYLAYER
  0
LAYOUT
  5
4B5
102
{ACAD_REACTORS
330
1A
102
}
100
AcDbPlotSettings
  1

  2
none_device
  4
ANSI_C_(22.00_x_17.00_Inches)
  6

 40
0.0
 41
0.0
 42
0.0
 43
0.0
 44
558.8
 45
431.8
 46
0.0
 47
0.0
 48
0.0
 49
0.0
140
0.0
141
0.0
142
1.0
143
1.0
 70
1024
 72
1
 73
0
 74
0
  7

 75
0
147
1.0
148
0.0
149
0.0
100
AcDbLayout
  1
Model
 70
0
 71
0
 10
0.0
 20
0.0
 11
558.8
 21
431.8
 12
0.0
 22
0.0
 32
0.0
 14
0.0
 24
0.0
 34
0.0
 15
0.0
 25
0.0
 35
0.0
146
0.0
 13
0.0
 23
0.0
 33
0.0
 16
1.0
 26
0.0
 36
0.0
 17
0.0
 27
1.0
 37
0.0
 76
0
330
215
345
0
346
0
  0
LAYOUT
  5
4B6
102
{ACAD_REACTORS
330
1A
102
}
100
AcDbPlotSettings
  1

  2
none_device
  4
ANSI_C_(22.00_x_17.00_Inches)
  6

 40
0.0
 41
0.0
 42
0.0
 43
0.0
 44
558.8
 45
431.8
 46
0.0
 47
0.0
 48
0.0
 49
0.0
140
0.0
141
0.0
142
1.0
143
1.0
 70
0
 72
1
 73
0
 74
0
  7

 75
0
147
1.0
148
0.0
149
0.0
100
AcDbLayout
  1
Layout1
 70
0
 71
1
 10
0.0
 20
0.0
 11
558.8
 21
431.8
 12
0.0
 22
0.0
 32
0.0
 14
0.0
 24
0.0
 34
0.0
 15
0.0
 25
0.0
 35
0.0
146
0.0
 13
0.0
 23
0.0
 33
0.0
 16
1.0
 26
0.0
 36
0.0
 17
0.0
 27
1.0
 37
0.0
 76
0
330
216
345
0
346
0
  0
ENDSEC
  0
EOF
