  0
SECTION
  2
HEADER
  9
$ACADVER
  1
AC1024
  9
$DWGCODEPAGE
  3
ANSI_1252
  9
$EXTMAX
 10
297.0
 20
210.0
 30
0.0
  9
$EXTMIN
 10
0.0
 20
0.0
 30
0.0
  9
$LIMMIN
 10
0.0
 20
0.0
  9
$LIMMAX
 10
297.0
 20
210.0
  9
$VIEWCTR
 10
148.5
 20
105.0
  9
$VIEWSIZE
 40
210.0
  9
$CLAYER
  8
0
  9
$LTSCALE
 40
16.335
  9
$CELTYPE
  6
BYLAYER
  9
$DIMSCALE
 40
1.0
  9
$DIMASZ
 40
3.0
  9
$DIMEXO
 40
0.5
  9
$DIMDLI
 40
11.286
  9
$DIMEXE
 40
1.5
  9
$DIMCEN
 40
2.673
  9
$DIMLFAC
 40
1.0
  9
$DIMBLK
  1
_FILLED
  9
$DIMALT
 70
0
  9
$DIMALTF
 40
0.0393700787
  9
$DIMTXT
 40
3.0
  9
$DIMTOL
 70
1
  9
$DIMLIM
 70
0
  9
$DIMTFAC
 40
1.0
  9
$DIMTP
 40
0.01
  9
$DIMTM
 40
0.01
  9
$DIMGAP
 40
0.625
  9
$DIMDSEP
 70
44
  9
$AUNITS
 70
0
  9
$PDMODE
 70
3
  9
$PDSIZE
 40
3.0
  9
$HANDSEED
  5
720
  9
$TILEMODE
 70
1
  9
$MEASUREMENT
 70
1
  9
$INSUNITS
 70
4
  0
ENDSEC
  0
SECTION
  2
CLASSES
  0
CLASS
  1
ACDBDICTIONARYWDFLT
  2
AcDbDictionaryWithDefault
  3
AutoCAD 2000
 90
0
 91
1
280
0
281
0
  0
CLASS
  1
ACDBPLACEHOLDER
  2
AcDbPlaceHolder
  3
AutoCAD 2000
 90
0
 91
1
280
0
281
0
  0
CLASS
  1
LAYOUT
  2
AcDbLayout
  3
AutoCAD 2000
 90
0
 91
0
280
0
281
0
  0
ENDSEC
  0
SECTION
  2
TABLES
  0
TABLE
  2
VPORT
  5
8
100
AcDbSymbolTable
 70
2
  0
VPORT
  5
1F4
100
AcDbSymbolTableRecord
100
AcDbViewportTableRecord
  2
*ACTIVE
 70
0
 10
0.0
 20
0.0
 11
1.0
 21
1.0
 12
148.5
 22
105.0
 13
0.0
 23
0.0
 14
1.0
 24
1.0
 15
0.0
 25
0.0
 16
0.0
 26
0.0
 36
1.0
 17
0.0
 27
0.0
 37
0.0
 40
210.0
 41
1.4142857143
 42
50.0
 43
0.0
 44
0.0
 50
0.0
 51
0.0
 71
0
 72
100
 73
1
 74
1
 75
0
 76
0
 77
0
 78
0
  0
ENDTAB
  0
TABLE
  2
LTYPE
  5
5
100
AcDbSymbolTable
 70
6
  0
LTYPE
  5
14
100
AcDbSymbolTableRecord
100
AcDbLinetypeTableRecord
  2
BYBLOCK
 70
0
  3

 72
65
 73
0
 40
0.0
  0
LTYPE
  5
15
100
AcDbSymbolTableRecord
100
AcDbLinetypeTableRecord
  2
BYLAYER
 70
0
  3

 72
65
 73
0
 40
0.0
  0
LTYPE
  5
16
100
AcDbSymbolTableRecord
100
AcDbLinetypeTableRecord
  2
CONTINUOUS
 70
64
  3
Solid line
 72
65
 73
0
 40
0.0
  0
LTYPE
  5
1F5
100
AcDbSymbolTableRecord
100
AcDbLinetypeTableRecord
  2
CENTER
 70
64
  3
____ _ ____ _ ____ _ ____ _ ____ _ ____ _ ____
 72
65
 73
4
 40
0.6
 49
0.375
 74
0
 49
-0.075
 74
0
 49
0.075
 74
0
 49
-0.075
 74
0
  0
LTYPE
  5
1F6
100
AcDbSymbolTableRecord
100
AcDbLinetypeTableRecord
  2
HIDDEN
 70
64
  3
- - - - - - - - - - - - - - - - - - - -
 72
65
 73
2
 40
0.2
 49
0.1
 74
0
 49
-0.1
 74
0
  0
LTYPE
  5
1F7
100
AcDbSymbolTableRecord
100
AcDbLinetypeTableRecord
  2
PHANTOM
 70
64
  3
_____ _ _ _____ _ _ _____ _ _ _____
 72
65
 73
6
 40
0.8
 49
0.45
 74
0
 49
-0.05
 74
0
 49
0.1
 74
0
 49
-0.05
 74
0
 49
0.1
 74
0
 49
-0.05
 74
0
  0
LTYPE
  5
1F8
100
AcDbSymbolTableRecord
100
AcDbLinetypeTableRecord
  2
DOT
 70
64
  3
. . . . . . . . . . . . . . . . . . . .
 72
65
 73
2
 40
0.2
 49
0.1
 74
0
 49
-0.1
 74
0
  0
LTYPE
  5
1F9
100
AcDbSymbolTableRecord
100
AcDbLinetypeTableRecord
  2
DASHED
 70
64
  3
- - - - - - - - - - - - - - - - - - - -
 72
65
 73
2
 40
0.2
 49
0.1
 74
0
 49
-0.1
 74
0
  0
ENDTAB
  0
TABLE
  2
LAYER
  5
2
100
AcDbSymbolTable
 70
36
  0
LAYER
  5
10
100
AcDbSymbolTableRecord
100
AcDbLayerTableRecord
  2
0
 70
0
 62
7
  6
CONTINUOUS
370
-3
390
F
  0
LAYER
  5
1FA
100
AcDbSymbolTableRecord
100
AcDbLayerTableRecord
  2
DEFAULT_1
 70
0
 62
7
  6
CENTER
370
-3
390
F
  0
LAYER
  5
1FB
100
AcDbSymbolTableRecord
100
AcDbLayerTableRecord
  2
DEFAULT_2
 70
0
 62
7
  6
HIDDEN
370
-3
390
F
  0
LAYER
  5
1FC
100
AcDbSymbolTableRecord
100
AcDbLayerTableRecord
  2
DEFAULT_3
 70
0
 62
7
  6
PHANTOM
370
-3
390
F
  0
LAYER
  5
1FD
100
AcDbSymbolTableRecord
100
AcDbLayerTableRecord
  2
ASSI
 70
0
 62
7
  6
CONTINUOUS
370
-3
390
F
  0
LAYER
  5
1FE
100
AcDbSymbolTableRecord
100
AcDbLayerTableRecord
  2
COLOR5
 70
0
 62
7
  6
CONTINUOUS
370
-3
390
F
  0
LAYER
  5
1FF
100
AcDbSymbolTableRecord
100
AcDbLayerTableRecord
  2
COORDINATE
 70
0
 62
7
  6
CONTINUOUS
370
-3
390
F
  0
LAYER
  5
200
100
AcDbSymbolTableRecord
100
AcDbLayerTableRecord
  2
COORD_ORIGINE
 70
0
 62
7
  6
CONTINUOUS
370
-3
390
F
  0
LAYER
  5
201
100
AcDbSymbolTableRecord
100
AcDbLayerTableRecord
  2
COPY_PUBLISH
 70
0
 62
7
  6
CONTINUOUS
370
-3
390
F
  0
LAYER
  5
202
100
AcDbSymbolTableRecord
100
AcDbLayerTableRecord
  2
COSMETICI
 70
0
 62
7
  6
CONTINUOUS
370
-3
390
F
  0
LAYER
  5
203
100
AcDbSymbolTableRecord
100
AcDbLayerTableRecord
  2
CURVE
 70
0
 62
7
  6
CONTINUOUS
370
-3
390
F
  0
LAYER
  5
204
100
AcDbSymbolTableRecord
100
AcDbLayerTableRecord
  2
DRAFT
 70
0
 62
7
  6
CONTINUOUS
370
-3
390
F
  0
LAYER
  5
205
100
AcDbSymbolTableRecord
100
AcDbLayerTableRecord
  2
IMPORT_IGES
 70
0
 62
7
  6
CONTINUOUS
370
-3
390
F
  0
LAYER
  5
206
100
AcDbSymbolTableRecord
100
AcDbLayerTableRecord
  2
INTFCLR_1
 70
0
 62
7
  6
CONTINUOUS
370
-3
390
F
  0
LAYER
  5
207
100
AcDbSymbolTableRecord
100
AcDbLayerTableRecord
  2
INTF_1
 70
0
 62
7
  6
CONTINUOUS
370
-3
390
F
  0
LAYER
  5
208
100
AcDbSymbolTableRecord
100
AcDbLayerTableRecord
  2
INTF_11
 70
0
 62
7
  6
CONTINUOUS
370
-3
390
F
  0
LAYER
  5
209
100
AcDbSymbolTableRecord
100
AcDbLayerTableRecord
  2
INTF_2
 70
0
 62
7
  6
CONTINUOUS
370
-3
390
F
  0
LAYER
  5
20A
100
AcDbSymbolTableRecord
100
AcDbLayerTableRecord
  2
INTF_7
 70
0
 62
7
  6
CONTINUOUS
370
-3
390
F
  0
LAYER
  5
20B
100
AcDbSymbolTableRecord
100
AcDbLayerTableRecord
  2
NONE
 70
0
 62
7
  6
CONTINUOUS
370
-3
390
F
  0
LAYER
  5
20C
100
AcDbSymbolTableRecord
100
AcDbLayerTableRecord
  2
NOTE
 70
0
 62
7
  6
CONTINUOUS
370
-3
390
F
  0
LAYER
  5
20D
100
AcDbSymbolTableRecord
100
AcDbLayerTableRecord
  2
PIANI
 70
0
 62
7
  6
CONTINUOUS
370
-3
390
F
  0
LAYER
  5
20E
100
AcDbSymbolTableRecord
100
AcDbLayerTableRecord
  2
PIANI_ORIGINE
 70
0
 62
7
  6
CONTINUOUS
370
-3
390
F
  0
LAYER
  5
20F
100
AcDbSymbolTableRecord
100
AcDbLayerTableRecord
  2
PUNTI
 70
0
 62
7
  6
CONTINUOUS
370
-3
390
F
  0
LAYER
  5
210
100
AcDbSymbolTableRecord
100
AcDbLayerTableRecord
  2
RACCORDO
 70
0
 62
7
  6
CONTINUOUS
370
-3
390
F
  0
LAYER
  5
211
100
AcDbSymbolTableRecord
100
AcDbLayerTableRecord
  2
RGB__255__255__255__
 70
0
 62
7
  6
CONTINUOUS
370
-3
390
F
  0
LAYER
  5
212
100
AcDbSymbolTableRecord
100
AcDbLayerTableRecord
  2
RGB____0____0____0__
 70
0
 62
7
  6
CONTINUOUS
370
-3
390
F
  0
LAYER
  5
213
100
AcDbSymbolTableRecord
100
AcDbLayerTableRecord
  2
SIMBOLI
 70
0
 62
7
  6
CONTINUOUS
370
-3
390
F
  0
LAYER
  5
214
100
AcDbSymbolTableRecord
100
AcDbLayerTableRecord
  2
SMUSSO
 70
0
 62
7
  6
CONTINUOUS
370
-3
390
F
  0
LAYER
  5
215
100
AcDbSymbolTableRecord
100
AcDbLayerTableRecord
  2
SNAPLINE
 70
0
 62
7
  6
CONTINUOUS
370
-3
390
F
  0
LAYER
  5
216
100
AcDbSymbolTableRecord
100
AcDbLayerTableRecord
  2
SUPERFICI
 70
0
 62
7
  6
CONTINUOUS
370
-3
390
F
  0
LAYER
  5
217
100
AcDbSymbolTableRecord
100
AcDbLayerTableRecord
  2
TESTO
 70
0
 62
7
  6
CONTINUOUS
370
-3
390
F
  0
LAYER
  5
218
100
AcDbSymbolTableRecord
100
AcDbLayerTableRecord
  2
TRASH
 70
0
 62
7
  6
CONTINUOUS
370
-3
390
F
  0
LAYER
  5
219
100
AcDbSymbolTableRecord
100
AcDbLayerTableRecord
  2
XSEC_DATUMS
 70
0
 62
7
  6
CONTINUOUS
370
-3
390
F
  0
ENDTAB
  0
TABLE
  2
STYLE
  5
3
100
AcDbSymbolTable
 70
1
  0
STYLE
  5
11
100
AcDbSymbolTableRecord
100
AcDbTextStyleTableRecord
  2
STANDARD
 70
0
 40
0.0
 41
0.8
 50
0.0
 71
0
 42
0.2
  3
txt
  4

  0
STYLE
  5
21A
100
AcDbSymbolTableRecord
100
AcDbTextStyleTableRecord
  2
TEXTSTYLE_1
 70
0
 40
0.0
 41
0.8
 50
0.0
 71
0
 42
0.2
  3
gdt
  4

  0
ENDTAB
  0
TABLE
  2
VIEW
  5
6
100
AcDbSymbolTable
 70
0
  0
ENDTAB
  0
TABLE
  2
UCS
  5
7
100
AcDbSymbolTable
 70
0
  0
ENDTAB
  0
TABLE
  2
APPID
  5
9
100
AcDbSymbolTable
 70
1
  0
APPID
  5
21B
100
AcDbSymbolTableRecord
100
AcDbRegAppTableRecord
  2
ACAD
 70
0
  0
ENDTAB
  0
TABLE
  2
BLOCK_RECORD
  5
1
100
AcDbSymbolTable
 70
0
  0
BLOCK_RECORD
  5
21C
100
AcDbSymbolTableRecord
100
AcDbBlockTableRecord
  2
*Model_Space
  0
BLOCK_RECORD
  5
21D
100
AcDbSymbolTableRecord
100
AcDbBlockTableRecord
  2
*Paper_Space
  0
BLOCK_RECORD
  5
21E
100
AcDbSymbolTableRecord
100
AcDbBlockTableRecord
  2
_FILLED
  0
BLOCK_RECORD
  5
21F
100
AcDbSymbolTableRecord
100
AcDbBlockTableRecord
  2
*D0
  0
BLOCK_RECORD
  5
220
100
AcDbSymbolTableRecord
100
AcDbBlockTableRecord
  2
*D1
  0
BLOCK_RECORD
  5
221
100
AcDbSymbolTableRecord
100
AcDbBlockTableRecord
  2
*D2
  0
BLOCK_RECORD
  5
222
100
AcDbSymbolTableRecord
100
AcDbBlockTableRecord
  2
*D3
  0
BLOCK_RECORD
  5
223
100
AcDbSymbolTableRecord
100
AcDbBlockTableRecord
  2
*D4
  0
ENDTAB
  0
TABLE
  2
DIMSTYLE
  5
A
100
AcDbSymbolTable
 70
1
100
AcDbDimStyleTable
 71
0
  0
DIMSTYLE
105
224
100
AcDbSymbolTableRecord
100
AcDbDimStyleTableRecord
  2
STANDARD
 70
0
  3

  4

 40
1.0
 41
3.0
 42
0.5
 43
0.38
 44
1.5
 45
0.0
 46
0.0
 47
0.01
 48
0.01
140
3.0
141
0.09
142
0.0
143
25.4
144
1.0
145
0.0
146
1.0
147
0.625
 71
1.0
 72
0.0
 73
0
 74
0
 75
0
 76
0
 77
1
 78
8
 79
2
170
0
171
1
172
0
173
0
174
0
175
0
176
0
177
0
178
0
270
2
179
2
271
2
272
2
273
2
274
2
275
0
280
0
281
0
282
0
283
1
284
8
285
0
286
0
287
3
288
0
340
11
278
44
341
21E
342
21E
343
21E
344
21E
  0
DIMSTYLE
105
225
100
AcDbSymbolTableRecord
100
AcDbDimStyleTableRecord
  2
DIMSTYLE_1
 70
0
  3

  4

 40
1.0
 41
3.0
 42
0.5
 43
0.38
 44
1.5
 45
0.0
 46
0.0
 47
0.0
 48
0.0
140
3.0
141
0.09
142
0.0
143
25.4
144
1.0
145
0.0
146
1.0
147
0.75
 71
0.0
 72
0.0
 73
0
 74
0
 75
0
 76
0
 77
1
 78
8
 79
2
170
0
171
1
172
0
173
0
174
0
175
0
176
0
177
0
178
0
270
2
179
2
271
1
272
1
273
2
274
2
275
0
280
0
281
0
282
0
283
1
284
8
285
0
286
0
287
3
288
0
340
11
278
44
341
21E
342
21E
343
21E
344
21E
  0
DIMSTYLE
105
226
100
AcDbSymbolTableRecord
100
AcDbDimStyleTableRecord
  2
DIMSTYLE_2
 70
0
  3

  4

 40
1.0
 41
3.0
 42
0.5
 43
0.38
 44
1.5
 45
0.0
 46
0.0
 47
0.0
 48
0.0
140
3.0
141
0.09
142
0.0
143
25.4
144
1.0
145
0.0
146
1.0
147
0.75
 71
0.0
 72
0.0
 73
0
 74
0
 75
0
 76
0
 77
1
 78
8
 79
2
170
0
171
1
172
0
173
0
174
0
175
0
176
0
177
0
178
0
270
2
179
2
271
2
272
2
273
2
274
2
275
0
280
0
281
0
282
0
283
1
284
8
285
0
286
0
287
3
288
0
340
11
278
44
341
21E
342
21E
343
21E
344
21E
  0
ENDTAB
  0
ENDSEC
  0
SECTION
  2
BLOCKS
  0
BLOCK
  5
20
100
AcDbEntity
  8
0
100
AcDbBlockBegin
  2
*Model_Space
 70
0
 10
0.0
 20
0.0
 30
0.0
  3
*Model_Space
  1

  0
ENDBLK
  5
21
100
AcDbEntity
  8
0
100
AcDbBlockEnd
  0
BLOCK
  5
1C
100
AcDbEntity
  8
0
100
AcDbBlockBegin
  2
*Paper_Space
 70
0
 10
0.0
 20
0.0
 30
0.0
  3
*Paper_Space
  1

  0
ENDBLK
  5
1D
100
AcDbEntity
  8
0
100
AcDbBlockEnd
  0
BLOCK
  5
227
100
AcDbEntity
  8
0
100
AcDbBlockBegin
  2
_FILLED
 70
64
 10
0.0
 20
0.0
  3
_FILLED
  1

  0
SOLID
  5
228
100
AcDbEntity
  8
0
  6
BYBLOCK
 62
0
100
AcDbTrace
 10
0.0
 20
0.0
 11
-1.0
 21
0.3166666667
 12
-1.0
 22
-0.3166666667
 13
-1.0
 23
-0.3166666667
  0
ENDBLK
  5
229
100
AcDbEntity
  8
0
  6
BYBLOCK
 62
0
100
AcDbBlockEnd
  0
BLOCK
  5
22A
100
AcDbEntity
  8
0
100
AcDbBlockBegin
 62
7
  6
CONTINUOUS
  2
*D0
 70
65
 10
0.0
 20
0.0
  3
*D0
  1

  0
LINE
  5
22B
100
AcDbEntity
  8
0
100
AcDbLine
 62
7
  6
CONTINUOUS
 10
96.1262978831
 20
149.95335941
 11
96.1262978831
 21
176.7533425803
  0
LINE
  5
22C
100
AcDbEntity
  8
0
100
AcDbLine
 62
7
  6
CONTINUOUS
 10
12.9489186171
 20
41.8533610487
 11
12.9489186171
 21
176.7533425803
  0
LINE
  5
22D
100
AcDbEntity
  8
0
100
AcDbLine
 62
7
  6
CONTINUOUS
 10
96.1262978831
 20
175.2533425803
 11
54.5376082501
 21
175.2533425803
  0
LINE
  5
22E
100
AcDbEntity
  8
0
100
AcDbLine
 62
7
  6
CONTINUOUS
 10
12.9489186171
 20
175.2533425803
 11
54.5376082501
 21
175.2533425803
  0
INSERT
  5
22F
100
AcDbEntity
  8
0
100
AcDbBlockReference
 62
7
  6
CONTINUOUS
  2
_FILLED
 10
96.1262978831
 20
175.2533425803
 41
3.0
 42
3.0
 43
3.0
  0
INSERT
  5
230
100
AcDbEntity
  8
0
100
AcDbBlockReference
 62
7
  6
CONTINUOUS
  2
_FILLED
 10
12.9489186171
 20
175.2533425803
 41
3.0
 42
3.0
 43
3.0
 50
180.0
  0
ENDBLK
  5
231
100
AcDbEntity
  8
0
  6
BYBLOCK
 62
0
100
AcDbBlockEnd
  0
BLOCK
  5
232
100
AcDbEntity
  8
0
100
AcDbBlockBegin
 62
7
  6
CONTINUOUS
  2
*D1
 70
65
 10
0.0
 20
0.0
  3
*D1
  1

  0
LINE
  5
233
100
AcDbEntity
  8
0
100
AcDbLine
 62
7
  6
CONTINUOUS
 10
138.7620841735
 20
151.4533610487
 11
138.7620841735
 21
176.7533425803
  0
LINE
  5
234
100
AcDbEntity
  8
0
100
AcDbLine
 62
7
  6
CONTINUOUS
 10
221.7620841735
 20
151.4533610487
 11
221.7620841735
 21
176.7533425803
  0
LINE
  5
235
100
AcDbEntity
  8
0
100
AcDbLine
 62
7
  6
CONTINUOUS
 10
138.7620841735
 20
175.2533425803
 11
180.2620841735
 21
175.2533425803
  0
LINE
  5
236
100
AcDbEntity
  8
0
100
AcDbLine
 62
7
  6
CONTINUOUS
 10
221.7620841735
 20
175.2533425803
 11
180.2620841735
 21
175.2533425803
  0
INSERT
  5
237
100
AcDbEntity
  8
0
100
AcDbBlockReference
 62
7
  6
CONTINUOUS
  2
_FILLED
 10
138.7620841735
 20
175.2533425803
 41
3.0
 42
3.0
 43
3.0
 50
180.0
  0
INSERT
  5
238
100
AcDbEntity
  8
0
100
AcDbBlockReference
 62
7
  6
CONTINUOUS
  2
_FILLED
 10
221.7620841735
 20
175.2533425803
 41
3.0
 42
3.0
 43
3.0
  0
ENDBLK
  5
239
100
AcDbEntity
  8
0
  6
BYBLOCK
 62
0
100
AcDbBlockEnd
  0
BLOCK
  5
23A
100
AcDbEntity
  8
0
100
AcDbBlockBegin
 62
7
  6
CONTINUOUS
  2
*D2
 70
65
 10
0.0
 20
0.0
  3
*D2
  1

  0
LINE
  5
23B
100
AcDbEntity
  8
0
100
AcDbLine
 62
7
  6
CONTINUOUS
 10
216.2620841735
 20
156.9533610487
 11
234.1300279095
 21
156.9533610487
  0
LINE
  5
23C
100
AcDbEntity
  8
0
100
AcDbLine
 62
7
  6
CONTINUOUS
 10
216.2620841735
 20
40.089815188
 11
234.1300279095
 21
40.089815188
  0
LINE
  5
23D
100
AcDbEntity
  8
0
100
AcDbLine
 62
7
  6
CONTINUOUS
 10
232.6300279095
 20
156.9533610487
 11
232.6300279095
 21
98.5215881184
  0
LINE
  5
23E
100
AcDbEntity
  8
0
100
AcDbLine
 62
7
  6
CONTINUOUS
 10
232.6300279095
 20
40.089815188
 11
232.6300279095
 21
98.5215881184
  0
INSERT
  5
23F
100
AcDbEntity
  8
0
100
AcDbBlockReference
 62
7
  6
CONTINUOUS
  2
_FILLED
 10
232.6300279095
 20
156.9533610487
 41
3.0
 42
3.0
 43
3.0
 50
90.0
  0
INSERT
  5
240
100
AcDbEntity
  8
0
100
AcDbBlockReference
 62
7
  6
CONTINUOUS
  2
_FILLED
 10
232.6300279095
 20
40.089815188
 41
3.0
 42
3.0
 43
3.0
 50
270.0
  0
ENDBLK
  5
241
100
AcDbEntity
  8
0
  6
BYBLOCK
 62
0
100
AcDbBlockEnd
  0
BLOCK
  5
242
100
AcDbEntity
  8
0
100
AcDbBlockBegin
 62
7
  6
CONTINUOUS
  2
*D3
 70
65
 10
0.0
 20
0.0
  3
*D3
  1

  0
LINE
  5
243
100
AcDbEntity
  8
0
100
AcDbLine
 62
7
  6
CONTINUOUS
 10
201.2620841735
 20
165.2533610487
 11
242.1300279095
 21
165.2533610487
  0
LINE
  5
244
100
AcDbEntity
  8
0
100
AcDbLine
 62
7
  6
CONTINUOUS
 10
216.2620841735
 20
40.089815188
 11
242.1300279095
 21
40.089815188
  0
LINE
  5
245
100
AcDbEntity
  8
0
100
AcDbLine
 62
7
  6
CONTINUOUS
 10
240.6300279095
 20
165.2533610487
 11
240.6300279095
 21
102.6715881184
  0
LINE
  5
246
100
AcDbEntity
  8
0
100
AcDbLine
 62
7
  6
CONTINUOUS
 10
240.6300279095
 20
40.089815188
 11
240.6300279095
 21
102.6715881184
  0
INSERT
  5
247
100
AcDbEntity
  8
0
100
AcDbBlockReference
 62
7
  6
CONTINUOUS
  2
_FILLED
 10
240.6300279095
 20
165.2533610487
 41
3.0
 42
3.0
 43
3.0
 50
90.0
  0
INSERT
  5
248
100
AcDbEntity
  8
0
100
AcDbBlockReference
 62
7
  6
CONTINUOUS
  2
_FILLED
 10
240.6300279095
 20
40.089815188
 41
3.0
 42
3.0
 43
3.0
 50
270.0
  0
ENDBLK
  5
249
100
AcDbEntity
  8
0
  6
BYBLOCK
 62
0
100
AcDbBlockEnd
  0
BLOCK
  5
24A
100
AcDbEntity
  8
0
100
AcDbBlockBegin
 62
7
  6
CONTINUOUS
  2
*D4
 70
65
 10
0.0
 20
0.0
  3
*D4
  1

  0
LINE
  5
24B
100
AcDbEntity
  8
0
100
AcDbLine
 62
7
  6
CONTINUOUS
 10
58.6262978831
 20
156.9533610487
 11
107.6262978831
 21
156.9533610487
  0
LINE
  5
24C
100
AcDbEntity
  8
0
100
AcDbLine
 62
7
  6
CONTINUOUS
 10
58.6262978831
 20
54.9533610487
 11
107.6262978831
 21
54.9533610487
  0
LINE
  5
24D
100
AcDbEntity
  8
0
100
AcDbLine
 62
7
  6
CONTINUOUS
 10
106.1262978831
 20
156.9533610487
 11
106.1262978831
 21
105.9533610487
  0
LINE
  5
24E
100
AcDbEntity
  8
0
100
AcDbLine
 62
7
  6
CONTINUOUS
 10
106.1262978831
 20
54.9533610487
 11
106.1262978831
 21
105.9533610487
  0
INSERT
  5
24F
100
AcDbEntity
  8
0
100
AcDbBlockReference
 62
7
  6
CONTINUOUS
  2
_FILLED
 10
106.1262978831
 20
156.9533610487
 41
3.0
 42
3.0
 43
3.0
 50
90.0
  0
INSERT
  5
250
100
AcDbEntity
  8
0
100
AcDbBlockReference
 62
7
  6
CONTINUOUS
  2
_FILLED
 10
106.1262978831
 20
54.9533610487
 41
3.0
 42
3.0
 43
3.0
 50
270.0
  0
ENDBLK
  5
251
100
AcDbEntity
  8
0
  6
BYBLOCK
 62
0
100
AcDbBlockEnd
  0
ENDSEC
  0
SECTION
  2
ENTITIES
  0
DIMENSION
  5
252
100
AcDbEntity
  8
0
100
AcDbDimension
 62
7
  6
CONTINUOUS
  2
*D0
 10
12.9489186171
 20
175.2533425803
 11
50.2518939644
 21
175.2533425803
 70
160
 71
2
 72
2
 41
0.9
 42
83.1773792659
  3
DIMSTYLE_1
100
AcDbAlignedDimension
 13
96.1262978831
 23
149.45335941
 14
12.9489186171
 24
41.3533610487
 50
180.0
100
AcDbRotatedDimension
  0
DIMENSION
  5
253
100
AcDbEntity
  8
0
100
AcDbDimension
 62
7
  6
CONTINUOUS
  2
*D1
 10
221.7620841735
 20
175.2533425803
 11
178.0120841735
 21
175.2533425803
 70
160
 71
2
 72
2
 41
0.9
 42
83.0
  3
DIMSTYLE_2
100
AcDbAlignedDimension
 13
138.7620841735
 23
150.9533610487
 14
221.7620841735
 24
150.9533610487
100
AcDbRotatedDimension
  0
DIMENSION
  5
254
100
AcDbEntity
  8
0
100
AcDbDimension
 62
7
  6
CONTINUOUS
  2
*D2
 10
232.6300279095
 20
40.089815188
 11
232.6300279095
 21
93.5930166898
 70
160
 71
2
 72
2
 41
0.9
 42
116.8635458607
  3
DIMSTYLE_1
100
AcDbAlignedDimension
 13
215.7620841735
 23
156.9533610487
 14
215.7620841735
 24
40.089815188
 50
270.0
100
AcDbRotatedDimension
  0
DIMENSION
  5
255
100
AcDbEntity
  8
0
100
AcDbDimension
 62
7
  6
CONTINUOUS
  2
*D3
 10
240.6300279095
 20
40.089815188
 11
240.6300279095
 21
97.5287309755
 70
160
 71
2
 72
2
 41
0.9
 42
125.1635458607
  3
DIMSTYLE_1
100
AcDbAlignedDimension
 13
200.7620841735
 23
165.2533610487
 14
215.7620841735
 24
40.089815188
 50
270.0
100
AcDbRotatedDimension
  0
DIMENSION
  5
256
100
AcDbEntity
  8
0
100
AcDbDimension
 62
7
  6
CONTINUOUS
  2
*D4
 10
106.1262978831
 20
54.9533610487
 11
106.1262978831
 21
102.7390753344
 70
160
 71
2
 72
2
 41
0.9
 42
102.0
  3
DIMSTYLE_2
100
AcDbAlignedDimension
 13
58.1262978831
 23
156.9533610487
 14
58.1262978831
 24
54.9533610487
 50
270.0
100
AcDbRotatedDimension
  0
LWPOLYLINE
  5
257
100
AcDbEntity
  8
RACCORDO
100
AcDbPolyline
 62
250
  6
CONTINUOUS
 90
19
 70
0
 10
144.7620841735
 20
40.6249637422
 10
144.7530823177
 20
40.630350383
 10
144.7441234923
 20
40.6428804683
 10
144.7352505223
 20
40.6624941012
 10
144.726505822
 20
40.6890975244
 10
144.7179311929
 20
40.722563568
 10
144.7095676233
 20
40.7627322568
 10
144.7014550927
 20
40.8094115762
 10
144.6936323806
 20
40.8623783893
 10
144.6861368808
 20
40.9213795036
 10
144.6790044234
 20
40.9861328816
 10
144.6722691028
 20
41.0563289893
 10
144.665963115
 20
41.1316322747
 10
144.660116604
 20
41.2116827695
 10
144.6547575168
 20
41.29609782
 10
144.6499114703
 20
41.3844739174
 10
144.6456016292
 20
41.4763886125
 10
144.6418485959
 20
41.5714025327
 10
144.6386703106
 20
41.6690614943
  0
LINE
  5
258
100
AcDbEntity
  8
IMPORT_IGES
100
AcDbLine
 62
250
  6
CONTINUOUS
 10
206.8508410353
 20
40.3841789099
 11
206.784147671
 21
40.3670040513
  0
LWPOLYLINE
  5
259
100
AcDbEntity
  8
IMPORT_IGES
100
AcDbPolyline
 62
250
  6
CONTINUOUS
 90
3
 70
0
 10
206.8802256381
 20
40.3806835646
 10
206.8111049107
 20
40.3647637424
 10
206.7416035842
 20
40.3557856252
  0
LWPOLYLINE
  5
25A
100
AcDbEntity
  8
IMPORT_IGES
100
AcDbPolyline
 62
250
  6
CONTINUOUS
 90
3
 70
0
 10
153.6442825126
 20
40.3800415483
 10
153.7133364426
 20
40.3643251662
 10
153.7827334834
 20
40.3555571808
  0
LINE
  5
25B
100
AcDbEntity
  8
IMPORT_IGES
100
AcDbLine
 62
250
  6
CONTINUOUS
 10
153.6733169589
 20
40.3841929882
 11
153.7400181861
 21
40.3670142243
  0
LWPOLYLINE
  5
25C
100
AcDbEntity
  8
RACCORDO
100
AcDbPolyline
 62
250
  6
CONTINUOUS
 90
19
 70
0
 10
139.4365263404
 20
150.9533610487
 10
139.4414118156
 20
150.9587765136
 10
139.4526432469
 20
150.9641689898
 10
139.4701729554
 20
150.9695155855
 10
139.4939265252
 20
150.9747936039
 10
139.5238031196
 20
150.9799806392
 10
139.5596759085
 20
150.9850546719
 10
139.6013926078
 20
150.9899941621
 10
139.6487761251
 20
150.9947781411
 10
139.7016253117
 20
150.9993863005
 10
139.7597158167
 20
151.0037990782
 10
139.8228010393
 20
151.0079977413
 10
139.8906131753
 20
151.0119644662
 10
139.9628643545
 20
151.0156824137
 10
140.0392478625
 20
151.0191358007
 10
140.1194394428
 20
151.0223099673
 10
140.2030986732
 20
151.0251914388
 10
140.2898704109
 20
151.027767983
 10
140.3793863005
 20
151.0300286622
  0
LWPOLYLINE
  5
25D
100
AcDbEntity
  8
0
100
AcDbPolyline
 62
7
  6
CONTINUOUS
 90
5
 70
0
 43
0.3500000006
 10
181.2263763428
 20
177.7176329956
 10
181.5835050659
 20
177.9319174805
 10
181.5835050659
 20
178.5747709351
 10
181.2263763428
 20
179.0033399048
 10
180.3692202759
 20
179.0033399048
  0
LWPOLYLINE
  5
25E
100
AcDbEntity
  8
RACCORDO
100
AcDbPolyline
 62
250
  6
CONTINUOUS
 90
22
 70
0
 10
144.7620841735
 20
156.2764545539
 10
144.7523174113
 20
156.2721034695
 10
144.7425867254
 20
156.262228594
 10
144.732928059
 20
156.2468664034
 10
144.7233770894
 20
156.2260736426
 10
144.713969096
 20
156.1999271161
 10
144.70473883
 20
156.1685234039
 10
144.6957203863
 20
156.1319785054
 10
144.6869470772
 20
156.0904274102
 10
144.6784513096
 20
156.0440236
 10
144.6702644653
 20
155.9929384813
 10
144.6624167848
 20
155.9373607527
 10
144.6549372559
 20
155.8774957073
 10
144.6478535065
 20
155.8135644751
 10
144.6411917027
 20
155.7458032054
 10
144.6349764518
 20
155.6744621952
 10
144.6292307117
 20
155.5998049643
 10
144.6239757061
 20
155.5221072817
 10
144.619230846
 20
155.4416561477
 10
144.6150136579
 20
155.3587487329
 10
144.6113397193
 20
155.2736912811
 10
144.608222601
 20
155.186797978
  0
LINE
  5
25F
100
AcDbEntity
  8
IMPORT_IGES
100
AcDbLine
 62
250
  6
CONTINUOUS
 10
206.784147671
 20
40.3670040513
 11
206.7167449869
 21
40.3567468926
  0
LINE
  5
260
100
AcDbEntity
  8
IMPORT_IGES
100
AcDbLine
 62
250
  6
CONTINUOUS
 10
206.7167449869
 20
40.3567468926
 11
206.6494891117
 21
40.3533610498
  0
LINE
  5
261
100
AcDbEntity
  8
IMPORT_IGES
100
AcDbLine
 62
250
  6
CONTINUOUS
 10
206.7696510329
 20
40.3567215693
 11
206.6919226274
 21
40.3535592518
  0
LWPOLYLINE
  5
262
100
AcDbEntity
  8
RACCORDO
100
AcDbPolyline
 62
250
  6
CONTINUOUS
 90
19
 70
0
 10
151.7354832667
 20
40.6267522024
 10
151.7780050415
 20
40.6285762977
 10
151.8202186287
 20
40.6340104097
 10
151.8618180821
 20
40.6430151523
 10
151.9025019105
 20
40.6555252623
 10
151.9419752519
 20
40.6714500693
 10
151.9799520111
 20
40.6906741499
 10
152.0161569499
 20
40.7130581709
 10
152.0503276751
 20
40.7384398996
 10
152.0822165313
 20
40.7666353729
 10
152.1115924066
 20
40.7974402377
 10
152.1382424031
 20
40.830631231
 10
152.161973377
 20
40.8659677926
 10
152.1826133435
 20
40.9031938158
 10
152.2000127208
 20
40.9420395016
 10
152.2140454132
 20
40.9822233111
 10
152.2246097259
 20
41.0234540094
 10
152.2316291022
 20
41.0654327766
 10
152.235052677
 20
41.1078553718
  0
LWPOLYLINE
  5
263
100
AcDbEntity
  8
RACCORDO
100
AcDbPolyline
 62
250
  6
CONTINUOUS
 90
19
 70
0
 10
208.7708808721
 20
41.5826317091
 10
208.7285050884
 20
41.5810015903
 10
208.6864343612
 20
41.5806921474
 10
208.6449724266
 20
41.5817056141
 10
208.6044186186
 20
41.5840346734
 10
208.5650657291
 20
41.5876625099
 10
208.5271978918
 20
41.5925629284
 10
208.4910885008
 20
41.5987005461
 10
208.4569982441
 20
41.6060310499
 10
208.4251732408
 20
41.6145015127
 10
208.3958432501
 20
41.6240507783
 10
208.3692200164
 20
41.6346099022
 10
208.345495744
 20
41.6461026486
 10
208.3248417048
 20
41.6584460421
 10
208.3074070034
 20
41.6715509667
 10
208.2933175025
 20
41.6853228085
 10
208.2826749128
 20
41.6996621392
 10
208.2755560593
 20
41.7144654341
 10
208.2720123272
 20
41.7296258195
  0
LINE
  5
264
100
AcDbEntity
  8
RACCORDO
100
AcDbLine
 62
250
  6
CONTINUOUS
 10
215.8854892926
 20
41.6690609444
 11
213.5340983315
 21
41.5948031226
  0
LINE
  5
265
100
AcDbEntity
  8
RACCORDO
100
AcDbLine
 62
250
  6
CONTINUOUS
 10
213.5340983315
 20
41.5948031226
 11
213.3079395643
 21
41.5882276703
  0
LINE
  5
266
100
AcDbEntity
  8
RACCORDO
100
AcDbLine
 62
250
  6
CONTINUOUS
 10
213.3079395643
 20
41.5882276703
 11
213.0829640039
 21
41.5830120887
  0
LINE
  5
267
100
AcDbEntity
  8
RACCORDO
100
AcDbLine
 62
250
  6
CONTINUOUS
 10
213.0829640039
 20
41.5830120887
 11
212.858972516
 21
41.5793346562
  0
LINE
  5
268
100
AcDbEntity
  8
RACCORDO
100
AcDbLine
 62
250
  6
CONTINUOUS
 10
212.858972516
 20
41.5793346562
 11
212.7099266665
 21
41.5778183398
  0
LINE
  5
269
100
AcDbEntity
  8
IMPORT_IGES
100
AcDbLine
 62
7
  6
CONTINUOUS
 10
206.6782900856
 20
40.3534486561
 11
206.6919226274
 21
40.3535592518
  0
LWPOLYLINE
  5
26A
100
AcDbEntity
  8
IMPORT_IGES
100
AcDbPolyline
 62
250
  6
CONTINUOUS
 90
7
 70
0
 10
162.7620841735
 20
41.5141239321
 10
162.0730141086
 20
41.5089575027
 10
161.3945573195
 20
41.5024001068
 10
160.7269746282
 20
41.4937057037
 10
160.0705150919
 20
41.4804939375
 10
159.4253028635
 20
41.4633245194
 10
158.1703636178
 20
41.4281958936
  0
LINE
  5
26B
100
AcDbEntity
  8
RACCORDO
100
AcDbLine
 62
250
  6
CONTINUOUS
 10
212.7099266665
 20
41.5778183398
 11
212.56102389
 21
41.5770239535
  0
LINE
  5
26C
100
AcDbEntity
  8
RACCORDO
100
AcDbLine
 62
250
  6
CONTINUOUS
 10
149.1450384375
 20
41.5829347587
 11
148.129364802
 21
41.5770753303
  0
LINE
  5
26D
100
AcDbEntity
  8
RACCORDO
100
AcDbLine
 62
7
  6
CONTINUOUS
 10
215.7620841735
 20
40.0896628832
 11
144.7620841735
 21
40.0896628832
  0
LINE
  5
26E
100
AcDbEntity
  8
DRAFT
100
AcDbLine
 62
7
  6
CONTINUOUS
 10
144.7620841735
 20
40.3338814641
 11
174.4526091542
 21
40.3338814641
  0
LINE
  5
26F
100
AcDbEntity
  8
DRAFT
100
AcDbLine
 62
7
  6
CONTINUOUS
 10
186.0715591928
 20
40.3338814641
 11
215.7620841735
 21
40.3338814641
  0
LINE
  5
270
100
AcDbEntity
  8
DRAFT
100
AcDbLine
 62
7
  6
CONTINUOUS
 10
215.7620841735
 20
40.3533610487
 11
206.944963805
 21
40.3533610487
  0
LINE
  5
271
100
AcDbEntity
  8
DRAFT
100
AcDbLine
 62
7
  6
CONTINUOUS
 10
206.701171575
 20
40.3533610487
 11
206.6494560079
 21
40.3533610487
  0
LINE
  5
272
100
AcDbEntity
  8
DRAFT
100
AcDbLine
 62
7
  6
CONTINUOUS
 10
153.8747102629
 20
40.3533610487
 11
153.8229952589
 21
40.3533610487
  0
LINE
  5
273
100
AcDbEntity
  8
DRAFT
100
AcDbLine
 62
7
  6
CONTINUOUS
 10
153.5792043485
 20
40.3533610487
 11
144.7620841735
 21
40.3533610487
  0
LINE
  5
274
100
AcDbEntity
  8
IMPORT_IGES
100
AcDbLine
 62
7
  6
CONTINUOUS
 10
153.5792045763
 20
40.3533610487
 11
153.8229966068
 21
40.3533610487
  0
LINE
  5
275
100
AcDbEntity
  8
IMPORT_IGES
100
AcDbLine
 62
7
  6
CONTINUOUS
 10
206.701171575
 20
40.3533610487
 11
206.944963805
 21
40.3533610487
  0
LINE
  5
276
100
AcDbEntity
  8
RACCORDO
100
AcDbLine
 62
7
  6
CONTINUOUS
 10
208.7489322028
 20
40.5855134122
 11
207.5075372427
 21
40.5855134122
  0
LINE
  5
277
100
AcDbEntity
  8
RACCORDO
100
AcDbLine
 62
7
  6
CONTINUOUS
 10
153.0166307686
 20
40.5855134122
 11
151.7752361441
 21
40.5855134122
  0
LINE
  5
278
100
AcDbEntity
  8
IMPORT_IGES
100
AcDbLine
 62
250
  6
CONTINUOUS
 10
162.7620841735
 20
41.5141242268
 11
197.7620841735
 21
41.5141242268
  0
LINE
  5
279
100
AcDbEntity
  8
RACCORDO
100
AcDbLine
 62
250
  6
CONTINUOUS
 10
151.7354832269
 20
40.6267522024
 11
144.7620841735
 21
40.6249637422
  0
LWPOLYLINE
  5
27A
100
AcDbEntity
  8
RACCORDO
100
AcDbPolyline
 62
250
  6
CONTINUOUS
 90
3
 70
0
 10
151.7532873339
 20
41.5826317149
 10
149.7522395942
 20
41.5834351672
 10
149.1450384375
 20
41.5829347587
  0
LINE
  5
27B
100
AcDbEntity
  8
IMPORT_IGES
100
AcDbLine
 62
7
  6
CONTINUOUS
 10
153.8627394014
 20
40.3533754965
 11
206.6782900856
 21
40.3534486561
  0
LINE
  5
27C
100
AcDbEntity
  8
RACCORDO
100
AcDbLine
 62
250
  6
CONTINUOUS
 10
148.129364802
 20
41.5770753303
 11
147.9750473835
 21
41.5770154293
  0
LINE
  5
27D
100
AcDbEntity
  8
RACCORDO
100
AcDbLine
 62
250
  6
CONTINUOUS
 10
212.56102389
 20
41.5770239535
 11
212.4122987248
 21
41.5770448075
  0
LINE
  5
27E
100
AcDbEntity
  8
RACCORDO
100
AcDbLine
 62
250
  6
CONTINUOUS
 10
215.7620841735
 20
40.6249637422
 11
208.7886851202
 21
40.6267522026
  0
LINE
  5
27F
100
AcDbEntity
  8
RACCORDO
100
AcDbLine
 62
250
  6
CONTINUOUS
 10
211.4801205916
 20
41.5826186077
 11
208.7708810129
 21
41.5826317187
  0
LINE
  5
280
100
AcDbEntity
  8
RACCORDO
100
AcDbLine
 62
250
  6
CONTINUOUS
 10
147.9750473835
 20
41.5770154293
 11
147.82065784
 21
41.5777431678
  0
LWPOLYLINE
  5
281
100
AcDbEntity
  8
RACCORDO
100
AcDbPolyline
 62
250
  6
CONTINUOUS
 90
4
 70
0
 10
212.4122987248
 20
41.5770448075
 10
212.2635127957
 20
41.5778114839
 10
212.1890839619
 20
41.5784288871
 10
211.4801205916
 20
41.5826186077
  0
LINE
  5
282
100
AcDbEntity
  8
IMPORT_IGES
100
AcDbLine
 62
7
  6
CONTINUOUS
 10
153.8322374237
 20
40.3535593196
 11
153.8627394014
 21
40.3533754965
  0
LINE
  5
283
100
AcDbEntity
  8
RACCORDO
100
AcDbLine
 62
250
  6
CONTINUOUS
 10
147.82065784
 20
41.5777431678
 11
147.6660041703
 21
41.5793360138
  0
LWPOLYLINE
  5
284
100
AcDbEntity
  8
IMPORT_IGES
100
AcDbPolyline
 62
250
  6
CONTINUOUS
 90
5
 70
0
 10
206.7263255326
 20
41.3187496644
 10
206.2461249772
 20
41.3251271511
 10
205.7459735889
 20
41.333757042
 10
205.2263023781
 20
41.3445936241
 10
204.6875325226
 20
41.3582335548
  0
LINE
  5
285
100
AcDbEntity
  8
RACCORDO
100
AcDbLine
 62
250
  6
CONTINUOUS
 10
147.6660041703
 20
41.5793360138
 11
147.5107221276
 21
41.581730968
  0
LWPOLYLINE
  5
286
100
AcDbEntity
  8
IMPORT_IGES
100
AcDbPolyline
 62
250
  6
CONTINUOUS
 90
5
 70
0
 10
200.4547263478
 20
41.4803875966
 10
199.7980752662
 20
41.4936158998
 10
199.1302494332
 20
41.5023322026
 10
198.4514984183
 20
41.5089190175
 10
197.7620841735
 20
41.5141244172
  0
LWPOLYLINE
  5
287
100
AcDbEntity
  8
RACCORDO
100
AcDbPolyline
 62
250
  6
CONTINUOUS
 90
40
 70
0
 10
144.7620841735
 20
40.6249637422
 10
144.5289298253
 20
40.6298248209
 10
144.2971699857
 20
40.6448185916
 10
144.0672393493
 20
40.6697906268
 10
143.8399236599
 20
40.7045059477
 10
143.6152621915
 20
40.7488071253
 10
143.3925774183
 20
40.8027709318
 10
143.1718722867
 20
40.8664437229
 10
142.95398838
 20
40.9396310492
 10
142.7395201833
 20
41.0221371874
 10
142.5289273409
 20
41.1137723602
 10
142.3225355663
 20
41.2143819696
 10
142.1207190502
 20
41.3237746068
 10
141.9238812775
 20
41.4417211003
 10
141.7323529403
 20
41.5680129523
 10
141.5463931578
 20
41.7024797316
 10
141.366306292
 20
41.8449161821
 10
141.1924827739
 20
41.9950291664
 10
141.0252978148
 20
42.1525000559
 10
140.8650917027
 20
42.3170041691
 10
140.7121316213
 20
42.4882631516
 10
140.5666643075
 20
42.6660071479
 10
140.4288949801
 20
42.8500101275
 10
140.2991676537
 20
43.0398390128
 10
140.1778891376
 20
43.2348781716
 10
140.0645799803
 20
43.4360156027
 10
139.9602107116
 20
43.6416505887
 10
139.8667705354
 20
43.8471308892
 10
139.7841037535
 20
44.0512045563
 10
139.7115011505
 20
44.2538982908
 10
139.6492557077
 20
44.4521696142
 10
139.5968285774
 20
44.6446535934
 10
139.5532198205
 20
44.8316406634
 10
139.5177187703
 20
45.0125649455
 10
139.4895967946
 20
45.1870153956
 10
139.4681274443
 20
45.3547197319
 10
139.4526106235
 20
45.5154017148
 10
139.4423686419
 20
45.6688419484
 10
139.4367503554
 20
45.8148731596
 10
139.435131771
 20
45.9533610487
  0
LINE
  5
288
100
AcDbEntity
  8
RACCORDO
100
AcDbLine
 62
250
  6
CONTINUOUS
 10
147.5107221276
 20
41.581730968
 11
147.3549266794
 21
41.5848380948
  0
LINE
  5
289
100
AcDbEntity
  8
RACCORDO
100
AcDbLine
 62
250
  6
CONTINUOUS
 10
147.3549266794
 20
41.5848380948
 11
147.1202580607
 21
41.5908867445
  0
LINE
  5
28A
100
AcDbEntity
  8
RACCORDO
100
AcDbLine
 62
250
  6
CONTINUOUS
 10
147.1202580607
 20
41.5908867445
 11
144.6386816913
 21
41.6690607672
  0
LWPOLYLINE
  5
28B
100
AcDbEntity
  8
RACCORDO
100
AcDbPolyline
 62
7
  6
CONTINUOUS
 90
22
 70
0
 10
208.7489322028
 20
40.5855134122
 10
208.7122035504
 20
40.5869045134
 10
208.6760625572
 20
40.5908699326
 10
208.6405092232
 20
40.5974096697
 10
208.6053917394
 20
40.6065665526
 10
208.5708619148
 20
40.6182977536
 10
208.5373751766
 20
40.6324747889
 10
208.5049026677
 20
40.6491432024
 10
208.4734732453
 20
40.6682574503
 10
208.4436289084
 20
40.689552418
 10
208.4153676144
 20
40.7131194317
 10
208.3886914059
 20
40.7388671653
 10
208.3641484107
 20
40.7662565252
 10
208.3418367452
 20
40.7952655054
 10
208.321658293
 20
40.825916112
 10
208.3038668318
 20
40.8577352704
 10
208.2884886286
 20
40.8907378541
 10
208.2754974165
 20
40.9249089895
 10
208.2650681728
 20
40.959730981
 10
208.2572592235
 20
40.9950312632
 10
208.2520122426
 20
41.0309824014
 10
208.2493272302
 20
41.0675843956
  0
LWPOLYLINE
  5
28C
100
AcDbEntity
  8
RACCORDO
100
AcDbPolyline
 62
250
  6
CONTINUOUS
 90
19
 70
0
 10
151.7532873339
 20
41.5826317149
 10
151.7956629596
 20
41.5810015963
 10
151.8377335369
 20
41.5806921436
 10
151.8791953326
 20
41.581705591
 10
151.9197490086
 20
41.5840346213
 10
151.9591017834
 20
41.5876624198
 10
151.9969695456
 20
41.5925627952
 10
152.033078905
 20
41.5987003683
 10
152.0671691662
 20
41.6060308284
 10
152.0989942112
 20
41.614501252
 10
152.1283242758
 20
41.6240504861
 10
152.1549476087
 20
41.6346095887
 10
152.1786720003
 20
41.6461023273
 10
152.1993261701
 20
41.6584457286
 10
152.2167610035
 20
41.6715506781
 10
152.2308506281
 20
41.6853225632
 10
152.2414933229
 20
41.6996619563
 10
152.2486122519
 20
41.7144653326
 10
152.2521560197
 20
41.7296258175
  0
LINE
  5
28D
100
AcDbEntity
  8
IMPORT_IGES
100
AcDbLine
 62
250
  6
CONTINUOUS
 10
153.7827334834
 20
40.3555571808
 11
153.832235276
 21
40.3534936636
  0
LWPOLYLINE
  5
28E
100
AcDbEntity
  8
RACCORDO
100
AcDbPolyline
 62
250
  6
CONTINUOUS
 90
19
 70
0
 10
208.7886851202
 20
40.6267522026
 10
208.7461634867
 20
40.6285762824
 10
208.7039500301
 20
40.6340103562
 10
208.6623506937
 20
40.6430150403
 10
208.6216669702
 20
40.6555250731
 10
208.5821937161
 20
40.6714497877
 10
208.544217015
 20
40.6906737692
 10
208.5080121043
 20
40.7130576911
 10
208.4738413803
 20
40.7384393253
 10
208.4419524963
 20
40.7666347176
 10
208.4125765681
 20
40.797439521
 10
208.3859264987
 20
40.8306304766
 10
208.3621954353
 20
40.865967032
 10
208.3415553695
 20
40.9031930843
 10
208.3241558908
 20
40.9420388366
 10
208.3101231026
 20
40.982222753
 10
208.2995587079
 20
41.0234535992
 10
208.2925392726
 20
41.0654325535
 10
208.2891156701
 20
41.107855372
  0
LINE
  5
28F
100
AcDbEntity
  8
IMPORT_IGES
100
AcDbLine
 62
250
  6
CONTINUOUS
 10
153.8074300615
 20
40.3567523944
 11
153.8747102629
 21
40.353361051
  0
LWPOLYLINE
  5
290
100
AcDbEntity
  8
RACCORDO
100
AcDbPolyline
 62
250
  6
CONTINUOUS
 90
40
 70
0
 10
144.6386816913
 20
41.6690607672
 10
144.4614690522
 20
41.6784820296
 10
144.2854483463
 20
41.6947536051
 10
144.1107638206
 20
41.7180415908
 10
143.9376886708
 20
41.7486998504
 10
143.7662625248
 20
41.7866918784
 10
143.5962843704
 20
41.8315822105
 10
143.427608837
 20
41.883513788
 10
143.2607339442
 20
41.9426180476
 10
143.0963932683
 20
42.0083673718
 10
142.9347858836
 20
42.080752469
 10
142.7760266317
 20
42.1598848491
 10
142.6206654697
 20
42.2453089785
 10
142.4688602989
 20
42.3369643988
 10
142.3207360471
 20
42.434892851
 10
142.1767444244
 20
42.538712153
 10
142.0369621398
 20
42.6483817328
 10
141.9015653503
 20
42.7638355531
 10
141.7710994943
 20
42.8845862237
 10
141.645653379
 20
43.0105244328
 10
141.5253196852
 20
43.1415997838
 10
141.4105786878
 20
43.2773563595
 10
141.3014009586
 20
43.4177449869
 10
141.1979099816
 20
43.5626112202
 10
141.1007226762
 20
43.7112696367
 10
141.0094863222
 20
43.8644875623
 10
140.9245609428
 20
44.0212469618
 10
140.8474047645
 20
44.1779764655
 10
140.7782619215
 20
44.333975163
 10
140.7165834855
 20
44.4893555761
 10
140.6623193447
 20
44.6415558064
 10
140.6153594475
 20
44.7896294915
 10
140.5751462697
 20
44.9339278668
 10
140.5408134521
 20
45.0738114801
 10
140.5119189538
 20
45.2090193127
 10
140.4882197469
 20
45.3393762362
 10
140.469141125
 20
45.464408111
 10
140.4542502557
 20
45.5838462402
 10
140.4432060786
 20
45.6976199768
 10
140.4355840819
 20
45.80557768
  0
LINE
  5
291
100
AcDbEntity
  8
IMPORT_IGES
100
AcDbLine
 62
250
  6
CONTINUOUS
 10
153.7400181861
 20
40.3670142243
 11
153.8074300615
 21
40.3567523944
  0
LWPOLYLINE
  5
292
100
AcDbEntity
  8
RACCORDO
100
AcDbPolyline
 62
250
  6
CONTINUOUS
 90
19
 70
0
 10
152.761084523
 20
46.8270894092
 10
152.8000529519
 20
46.815257662
 10
152.8387596998
 20
46.8043195388
 10
152.8769445809
 20
46.7943485571
 10
152.9143509054
 20
46.7854117297
 10
152.9507272386
 20
46.7775691285
 10
152.9858290887
 20
46.7708734826
 10
153.0194204973
 20
46.7653698033
 10
153.0512756531
 20
46.7610950842
 10
153.0811804376
 20
46.7580780708
 10
153.108933819
 20
46.7563390541
 10
153.13434922
 20
46.7558897284
 10
153.1572557902
 20
46.7567331218
 10
153.1774995311
 20
46.7588635823
 10
153.1949443375
 20
46.7622667986
 10
153.2094729195
 20
46.766919896
 10
153.220987587
 20
46.772791609
 10
153.2294109098
 20
46.7798424895
 10
153.2346862378
 20
46.7880251591
  0
LINE
  5
293
100
AcDbEntity
  8
RACCORDO
100
AcDbLine
 62
250
  6
CONTINUOUS
 10
152.2748411167
 20
41.0675843956
 11
152.235052677
 21
41.1078553718
  0
LINE
  5
294
100
AcDbEntity
  8
RACCORDO
100
AcDbLine
 62
250
  6
CONTINUOUS
 10
151.7752361441
 20
40.5855134122
 11
151.7354832269
 21
40.6267522024
  0
LWPOLYLINE
  5
295
100
AcDbEntity
  8
RACCORDO
100
AcDbPolyline
 62
250
  6
CONTINUOUS
 90
19
 70
0
 10
139.435131771
 20
45.9533610487
 10
139.4402967223
 20
45.942698241
 10
139.4522589227
 20
45.9320839259
 10
139.4709639699
 20
45.921566376
 10
139.4963267963
 20
45.9111934234
 10
139.5282320556
 20
45.9010122428
 10
139.5665346474
 20
45.8910691367
 10
139.6110603774
 20
45.8814093249
 10
139.6616067491
 20
45.8720767387
 10
139.7179438852
 20
45.8631138214
 10
139.7798155728
 20
45.854561335
 10
139.8469404288
 20
45.846458175
 10
139.9190131791
 20
45.8388411934
 10
139.995706048
 20
45.8317450309
 10
140.0766702475
 20
45.8252019601
 10
140.1615375634
 20
45.8192417377
 10
140.2499220313
 20
45.8138914702
 10
140.341421692
 20
45.8091754895
 10
140.4356204186
 20
45.8051152434
  0
LINE
  5
296
100
AcDbEntity
  8
IMPORT_IGES
100
AcDbLine
 62
250
  6
CONTINUOUS
 10
158.1703636178
 20
41.4281958936
 11
156.9696998065
 21
41.3907378705
  0
LWPOLYLINE
  5
297
100
AcDbEntity
  8
IMPORT_IGES
100
AcDbPolyline
 62
250
  6
CONTINUOUS
 90
6
 70
0
 10
156.9696998065
 20
41.3907378705
 10
155.8376150924
 20
41.3583280361
 10
155.2986490472
 20
41.3446711554
 10
154.7787482122
 20
41.3338140452
 10
154.278335871
 20
41.3251589994
 10
153.7978466703
 20
41.3187511077
  0
LWPOLYLINE
  5
298
100
AcDbEntity
  8
IMPORT_IGES
100
AcDbPolyline
 62
250
  6
CONTINUOUS
 90
10
 70
0
 10
153.7978505212
 20
41.3187514217
 10
153.7082008596
 20
41.3163837912
 10
153.6210283564
 20
41.3127654778
 10
153.5366737688
 20
41.3078632298
 10
153.4556427597
 20
41.3014592198
 10
153.3780866288
 20
41.2937103148
 10
153.303869558
 20
41.2851519934
 10
153.2331914418
 20
41.2759507317
 10
153.1665492014
 20
41.265899876
 10
153.0969633521
 20
41.2536817222
  0
LINE
  5
299
100
AcDbEntity
  8
DRAFT
100
AcDbLine
 62
7
  6
CONTINUOUS
 10
208.1410209299
 20
42.5506032824
 11
207.6378276791
 21
42.5506032824
  0
LINE
  5
29A
100
AcDbEntity
  8
DRAFT
100
AcDbLine
 62
7
  6
CONTINUOUS
 10
152.8863425046
 20
42.5506032824
 11
152.383147417
 21
42.5506032824
  0
LINE
  5
29B
100
AcDbEntity
  8
RACCORDO
100
AcDbLine
 62
250
  6
CONTINUOUS
 10
152.929265455
 20
42.8981910046
 11
152.4250336445
 21
42.8981910046
  0
LINE
  5
29C
100
AcDbEntity
  8
RACCORDO
100
AcDbLine
 62
250
  6
CONTINUOUS
 10
207.5949035512
 20
42.8981910046
 11
208.0991347024
 21
42.8981910046
  0
LINE
  5
29D
100
AcDbEntity
  8
RACCORDO
100
AcDbLine
 62
250
  6
CONTINUOUS
 10
221.625782339
 20
45.9533610487
 11
221.381563758
 21
45.9533610487
  0
LINE
  5
29E
100
AcDbEntity
  8
RACCORDO
100
AcDbLine
 62
250
  6
CONTINUOUS
 10
139.435131771
 20
45.9533610487
 11
139.1620841735
 21
45.9533610487
  0
LINE
  5
29F
100
AcDbEntity
  8
RACCORDO
100
AcDbLine
 62
250
  6
CONTINUOUS
 10
138.8985383128
 20
45.9533610487
 11
139.1426045889
 21
45.9533610487
  0
LINE
  5
2A0
100
AcDbEntity
  8
RACCORDO
100
AcDbLine
 62
250
  6
CONTINUOUS
 10
221.0890365759
 20
45.9533610487
 11
221.3620841735
 21
45.9533610487
  0
LINE
  5
2A1
100
AcDbEntity
  8
0
100
AcDbLine
 62
7
  6
CONTINUOUS
 10
207.4364790504
 20
46.1033610487
 11
206.8936724019
 21
46.1033610487
  0
LINE
  5
2A2
100
AcDbEntity
  8
0
100
AcDbLine
 62
7
  6
CONTINUOUS
 10
153.0876892966
 20
46.1033610487
 11
153.6304959817
 21
46.1033610487
  0
LINE
  5
2A3
100
AcDbEntity
  8
IMPORT_IGES
100
AcDbLine
 62
250
  6
CONTINUOUS
 10
204.6875325226
 20
41.3582335548
 11
203.5557200795
 21
41.3906203481
  0
LWPOLYLINE
  5
2A4
100
AcDbEntity
  8
IMPORT_IGES
100
AcDbPolyline
 62
250
  6
CONTINUOUS
 90
4
 70
0
 10
203.5557200795
 20
41.3906203481
 10
202.355138853
 20
41.4280689448
 10
201.7335843774
 20
41.4458497123
 10
200.4547263478
 20
41.4803875966
  0
LWPOLYLINE
  5
2A5
100
AcDbEntity
  8
IMPORT_IGES
100
AcDbPolyline
 62
250
  6
CONTINUOUS
 90
10
 70
0
 10
207.4199016645
 20
41.2549710812
 10
207.4270823964
 20
41.2537649603
 10
207.4342185654
 20
41.2525318682
 10
207.4413080684
 20
41.2512729871
 10
207.4483473501
 20
41.2499909281
 10
207.4553357181
 20
41.2486854737
 10
207.4622752173
 20
41.2473535969
 10
207.4691649268
 20
41.2459951341
 10
207.4760010846
 20
41.2446127658
 10
207.4827813141
 20
41.2432077724
  0
LWPOLYLINE
  5
2A6
100
AcDbEntity
  8
IMPORT_IGES
100
AcDbPolyline
 62
250
  6
CONTINUOUS
 90
10
 70
0
 10
207.4198790769
 20
41.2549758651
 10
207.3581801868
 20
41.2657540741
 10
207.2920276671
 20
41.2757082264
 10
207.221732931
 20
41.2848545944
 10
207.147762926
 20
41.2934036831
 10
207.0702890734
 20
41.3011813123
 10
206.9891487956
 20
41.307632972
 10
206.904473557
 20
41.3125947996
 10
206.8167560664
 20
41.3162895016
 10
206.7263280699
 20
41.3187497349
  0
LWPOLYLINE
  5
2A7
100
AcDbEntity
  8
RACCORDO
100
AcDbPolyline
 62
250
  6
CONTINUOUS
 90
19
 70
0
 10
153.967302263
 20
49.7270823103
 10
154.0037695263
 20
49.7092224111
 10
154.0399927696
 20
49.6920697865
 10
154.0757296292
 20
49.6757392007
 10
154.1107409959
 20
49.6603399175
 10
154.1447926164
 20
49.6459749691
 10
154.17765666
 20
49.6327404665
 10
154.2091132414
 20
49.6207249574
 10
154.2389518934
 20
49.6100088328
 10
154.2669729765
 20
49.6006637893
 10
154.29298901
 20
49.5927523505
 10
154.3168259297
 20
49.5863274478
 10
154.3383242536
 20
49.5814320659
 10
154.3573401442
 20
49.5780989567
 10
154.373746374
 20
49.5763504193
 10
154.3874331779
 20
49.5761981506
 10
154.3983089836
 20
49.577643168
 10
154.4063010259
 20
49.5806758019
 10
154.4113558347
 20
49.5852757602
  0
LINE
  5
2A8
100
AcDbEntity
  8
RACCORDO
100
AcDbLine
 62
250
  6
CONTINUOUS
 10
154.4972356306
 20
49.5408610487
 11
154.4113558347
 21
49.5852757603
  0
LWPOLYLINE
  5
2A9
100
AcDbEntity
  8
IMPORT_IGES
100
AcDbPolyline
 62
250
  6
CONTINUOUS
 90
13
 70
0
 10
154.8588494861
 20
48.4629102281
 10
154.8209347612
 20
48.4837910145
 10
154.7849796316
 20
48.5042691904
 10
154.7515107332
 20
48.5240658139
 10
154.7210978457
 20
48.5428584672
 10
154.6939840543
 20
48.5604815207
 10
154.6702600899
 20
48.5768814729
 10
154.6502935277
 20
48.5918269182
 10
154.6342563055
 20
48.6051621909
 10
154.6221689474
 20
48.6168609406
 10
154.6142214299
 20
48.6267780846
 10
154.610460463
 20
48.63479376
 10
154.6108137979
 20
48.6408609207
  0
LWPOLYLINE
  5
2AA
100
AcDbEntity
  8
IMPORT_IGES
100
AcDbPolyline
 62
250
  6
CONTINUOUS
 90
19
 70
0
 10
154.7597888445
 20
48.2571899643
 10
155.1687389426
 20
48.0058368053
 10
155.5915848124
 20
47.7580017525
 10
156.0275050861
 20
47.5154005878
 10
156.477483656
 20
47.2788153164
 10
156.9390095537
 20
47.0509178176
 10
157.4056087104
 20
46.8359089637
 10
157.8755305731
 20
46.6352575114
 10
158.3482379379
 20
46.4497916305
 10
158.8185218247
 20
46.2818988685
 10
159.2840242131
 20
46.132395766
 10
159.7448386482
 20
46.0011269985
 10
160.1993219937
 20
45.8883671383
 10
160.6457965778
 20
45.7941670762
 10
161.0841999672
 20
45.718083974
 10
161.5154586095
 20
45.6595530018
 10
161.9395025457
 20
45.6182303241
 10
162.3552141452
 20
45.5938035263
 10
162.7620841735
 20
45.5857839846
  0
LWPOLYLINE
  5
2AB
100
AcDbEntity
  8
IMPORT_IGES
100
AcDbPolyline
 62
250
  6
CONTINUOUS
 90
8
 70
0
 10
152.9370832459
 20
41.2206473719
 10
152.8948341421
 20
41.2111477806
 10
152.8593123974
 20
41.2025586718
 10
152.8304888307
 20
41.1951808164
 10
152.8082042839
 20
41.1899004296
 10
152.7923806243
 20
41.1870181469
 10
152.7829838148
 20
41.1862466477
 10
152.7799369264
 20
41.1875856441
  0
LINE
  5
2AC
100
AcDbEntity
  8
IMPORT_IGES
100
AcDbLine
 62
250
  6
CONTINUOUS
 10
153.0413451421
 20
41.2432090053
 11
152.9370832459
 21
41.2206473719
  0
LINE
  5
2AD
100
AcDbEntity
  8
IMPORT_IGES
100
AcDbLine
 62
250
  6
CONTINUOUS
 10
153.0547490979
 20
41.2458399215
 11
153.0413451421
 21
41.2432090053
  0
LINE
  5
2AE
100
AcDbEntity
  8
IMPORT_IGES
100
AcDbLine
 62
250
  6
CONTINUOUS
 10
153.0684878041
 20
41.2484624402
 11
153.0547490979
 21
41.2458399215
  0
LINE
  5
2AF
100
AcDbEntity
  8
IMPORT_IGES
100
AcDbLine
 62
250
  6
CONTINUOUS
 10
153.0825592095
 20
41.2510764875
 11
153.0684878041
 21
41.2484624402
  0
LINE
  5
2B0
100
AcDbEntity
  8
IMPORT_IGES
100
AcDbLine
 62
250
  6
CONTINUOUS
 10
153.0969633521
 20
41.2536817222
 11
153.0825592095
 21
41.2510764875
  0
LWPOLYLINE
  5
2B1
100
AcDbEntity
  8
RACCORDO
100
AcDbPolyline
 62
250
  6
CONTINUOUS
 90
18
 70
0
 10
198.5069141293
 20
50.9733224522
 10
198.4695935062
 20
50.9718923505
 10
198.4324813526
 20
50.9676782416
 10
198.3957849734
 20
50.9607036649
 10
198.3597093512
 20
50.9510075799
 10
198.3244560009
 20
50.938644148
 10
198.2902218446
 20
50.9236824301
 10
198.2571981109
 20
50.906206001
 10
198.2255692673
 20
50.8863124823
 10
198.1955119896
 20
50.8641129974
 10
198.1671941748
 20
50.8397315505
 10
198.1407740035
 20
50.813304334
 10
198.1163990564
 20
50.784978968
 10
198.0942054897
 20
50.7549136751
 10
198.0743172745
 20
50.7232763974
 10
198.0568455044
 20
50.6902438576
 10
198.0418877751
 20
50.6560005723
 10
198.0409625815
 20
50.6533610487
  0
LINE
  5
2B2
100
AcDbEntity
  8
IMPORT_IGES
100
AcDbLine
 62
250
  6
CONTINUOUS
 10
157.7424250902
 20
50.321098444
 11
158.4115283499
 21
50.3410681763
  0
LINE
  5
2B3
100
AcDbEntity
  8
IMPORT_IGES
100
AcDbLine
 62
250
  6
CONTINUOUS
 10
158.4115283499
 20
50.3410681763
 11
158.6138710495
 21
50.3465567453
  0
LINE
  5
2B4
100
AcDbEntity
  8
IMPORT_IGES
100
AcDbLine
 62
250
  6
CONTINUOUS
 10
162.7035030706
 20
50.3307123354
 11
162.7620841735
 21
50.3317159304
  0
LINE
  5
2B5
100
AcDbEntity
  8
IMPORT_IGES
100
AcDbLine
 62
250
  6
CONTINUOUS
 10
199.0804436146
 20
50.3352475868
 11
199.6791932051
 21
50.3380486797
  0
LINE
  5
2B6
100
AcDbEntity
  8
IMPORT_IGES
100
AcDbLine
 62
250
  6
CONTINUOUS
 10
199.6791932051
 20
50.3380486797
 11
201.5319534627
 21
50.345652944
  0
LWPOLYLINE
  5
2B7
100
AcDbEntity
  8
IMPORT_IGES
100
AcDbPolyline
 62
250
  6
CONTINUOUS
 90
3
 70
0
 10
162.2106086694
 20
50.331937799
 10
162.3756435216
 20
50.33247478
 10
162.5201507823
 20
50.3302021801
  0
LINE
  5
2B8
100
AcDbEntity
  8
IMPORT_IGES
100
AcDbLine
 62
250
  6
CONTINUOUS
 10
201.5319534627
 20
50.345652944
 11
201.9101544112
 21
50.3464262094
  0
LINE
  5
2B9
100
AcDbEntity
  8
IMPORT_IGES
100
AcDbLine
 62
250
  6
CONTINUOUS
 10
198.971016833
 20
50.3351471307
 11
199.0804436146
 21
50.3352475868
  0
LINE
  5
2BA
100
AcDbEntity
  8
0
100
AcDbLine
 62
7
  6
CONTINUOUS
 10
206.5046334598
 20
48.6033610487
 11
205.9309126576
 21
48.6033610487
  0
LINE
  5
2BB
100
AcDbEntity
  8
0
100
AcDbLine
 62
7
  6
CONTINUOUS
 10
154.0195348872
 20
48.6033610487
 11
154.5932556894
 21
48.6033610487
  0
LINE
  5
2BC
100
AcDbEntity
  8
IMPORT_IGES
100
AcDbLine
 62
250
  6
CONTINUOUS
 10
197.7620841735
 20
50.3317158791
 11
162.7620841735
 21
50.3317159071
  0
LINE
  5
2BD
100
AcDbEntity
  8
IMPORT_IGES
100
AcDbLine
 62
7
  6
CONTINUOUS
 10
157.7789904835
 20
50.6533610487
 11
202.7451777657
 21
50.6533610487
  0
LINE
  5
2BE
100
AcDbEntity
  8
RACCORDO
100
AcDbLine
 62
7
  6
CONTINUOUS
 10
158.7006605846
 20
50.8508205857
 11
160.4586034222
 21
50.8508205857
  0
LINE
  5
2BF
100
AcDbEntity
  8
RACCORDO
100
AcDbLine
 62
7
  6
CONTINUOUS
 10
200.0655649248
 20
50.8508205857
 11
201.8235077624
 21
50.8508205857
  0
LINE
  5
2C0
100
AcDbEntity
  8
RACCORDO
100
AcDbLine
 62
250
  6
CONTINUOUS
 10
200.0765470356
 20
50.9733224522
 11
198.5069141293
 21
50.9733224522
  0
LINE
  5
2C1
100
AcDbEntity
  8
RACCORDO
100
AcDbLine
 62
250
  6
CONTINUOUS
 10
160.4476213114
 20
50.9733224522
 11
162.0172542176
 21
50.9733224522
  0
LINE
  5
2C2
100
AcDbEntity
  8
DRAFT
100
AcDbLine
 62
7
  6
CONTINUOUS
 10
160.281023653
 20
51.0982484856
 11
158.5030870374
 21
51.0982484856
  0
LINE
  5
2C3
100
AcDbEntity
  8
DRAFT
100
AcDbLine
 62
7
  6
CONTINUOUS
 10
200.2431446939
 20
51.0982484856
 11
202.0210813095
 21
51.0982484856
  0
LINE
  5
2C4
100
AcDbEntity
  8
DRAFT
100
AcDbLine
 62
7
  6
CONTINUOUS
 10
204.3620841735
 20
51.1272294223
 11
203.1620841735
 21
51.1272294223
  0
LINE
  5
2C5
100
AcDbEntity
  8
DRAFT
100
AcDbLine
 62
7
  6
CONTINUOUS
 10
156.1620841735
 20
51.1272294223
 11
157.3620841735
 21
51.1272294223
  0
LINE
  5
2C6
100
AcDbEntity
  8
DRAFT
100
AcDbLine
 62
7
  6
CONTINUOUS
 10
203.0703962579
 20
51.2530374686
 11
202.2275033132
 21
51.2530374686
  0
LINE
  5
2C7
100
AcDbEntity
  8
DRAFT
100
AcDbLine
 62
7
  6
CONTINUOUS
 10
157.453772089
 20
51.2530374686
 11
158.2966650338
 21
51.2530374686
  0
LINE
  5
2C8
100
AcDbEntity
  8
RACCORDO
100
AcDbLine
 62
7
  6
CONTINUOUS
 10
156.4160836892
 20
51.3533610487
 11
162.5240624348
 21
51.3533610487
  0
LINE
  5
2C9
100
AcDbEntity
  8
RACCORDO
100
AcDbLine
 62
7
  6
CONTINUOUS
 10
198.0001059121
 20
51.3533610487
 11
204.1080846578
 21
51.3533610487
  0
LINE
  5
2CA
100
AcDbEntity
  8
DRAFT
100
AcDbLine
 62
7
  6
CONTINUOUS
 10
156.8012057395
 20
51.5033610487
 11
162.7870841735
 21
51.5033610487
  0
LINE
  5
2CB
100
AcDbEntity
  8
DRAFT
100
AcDbLine
 62
7
  6
CONTINUOUS
 10
197.7370841735
 20
51.5033610487
 11
203.7229626074
 21
51.5033610487
  0
LINE
  5
2CC
100
AcDbEntity
  8
DRAFT
100
AcDbLine
 62
7
  6
CONTINUOUS
 10
202.4739630077
 20
51.7033610487
 11
158.0502053392
 21
51.7033610487
  0
LINE
  5
2CD
100
AcDbEntity
  8
RACCORDO
100
AcDbLine
 62
250
  6
CONTINUOUS
 10
158.0502053392
 20
51.8065010791
 11
202.4739630077
 21
51.8065010791
  0
LWPOLYLINE
  5
2CE
100
AcDbEntity
  8
IMPORT_IGES
100
AcDbPolyline
 62
250
  6
CONTINUOUS
 90
4
 70
0
 10
161.3526907185
 20
50.3353154416
 10
161.7749414774
 20
50.3345945237
 10
161.8663422871
 20
50.3338896241
 10
162.0386384573
 20
50.3338625576
  0
LWPOLYLINE
  5
2CF
100
AcDbEntity
  8
IMPORT_IGES
100
AcDbPolyline
 62
250
  6
CONTINUOUS
 90
3
 70
0
 10
162.5201507823
 20
50.3302021801
 10
162.5848981739
 20
50.3299119809
 10
162.7035030706
 20
50.3307123354
  0
LWPOLYLINE
  5
2D0
100
AcDbEntity
  8
IMPORT_IGES
100
AcDbPolyline
 62
250
  6
CONTINUOUS
 90
6
 70
0
 10
198.3689212886
 20
50.3340058583
 10
198.4626469511
 20
50.3335378293
 10
198.5594137073
 20
50.3337575127
 10
198.658781252
 20
50.334498416
 10
198.7596964467
 20
50.3342869134
 10
198.971016833
 20
50.3351471307
  0
LINE
  5
2D1
100
AcDbEntity
  8
IMPORT_IGES
100
AcDbLine
 62
250
  6
CONTINUOUS
 10
158.6138711038
 20
50.3465566943
 11
161.1349296914
 21
50.3374013499
  0
LINE
  5
2D2
100
AcDbEntity
  8
IMPORT_IGES
100
AcDbLine
 62
250
  6
CONTINUOUS
 10
161.1349296914
 20
50.3374013499
 11
161.3526907185
 21
50.3353154416
  0
LINE
  5
2D3
100
AcDbEntity
  8
IMPORT_IGES
100
AcDbLine
 62
250
  6
CONTINUOUS
 10
162.0386384573
 20
50.3338625576
 11
162.2106086694
 21
50.331937799
  0
LINE
  5
2D4
100
AcDbEntity
  8
IMPORT_IGES
100
AcDbLine
 62
250
  6
CONTINUOUS
 10
201.9102777665
 20
50.3465421515
 11
202.4086934227
 21
50.3324805502
  0
LWPOLYLINE
  5
2D5
100
AcDbEntity
  8
IMPORT_IGES
100
AcDbPolyline
 62
250
  6
CONTINUOUS
 90
7
 70
0
 10
197.7620841735
 20
50.3315862805
 10
197.8477287875
 20
50.3290200808
 10
197.9297417614
 20
50.3299095437
 10
198.0115367484
 20
50.3320065006
 10
198.0960567405
 20
50.332642604
 10
198.1847650303
 20
50.3320939639
 10
198.3689212886
 20
50.3340058583
  0
LINE
  5
2D6
100
AcDbEntity
  8
IMPORT_IGES
100
AcDbLine
 62
250
  6
CONTINUOUS
 10
202.4086934227
 20
50.3324805502
 11
202.7817431007
 21
50.3211041054
  0
LWPOLYLINE
  5
2D7
100
AcDbEntity
  8
RACCORDO
100
AcDbPolyline
 62
250
  6
CONTINUOUS
 90
18
 70
0
 10
162.0172542176
 20
50.9733224522
 10
162.0545748407
 20
50.9718923505
 10
162.0916869943
 20
50.9676782416
 10
162.1283833735
 20
50.9607036649
 10
162.1644589957
 20
50.95100758
 10
162.199712346
 20
50.938644148
 10
162.2339465023
 20
50.9236824301
 10
162.266970236
 20
50.906206001
 10
162.2985990796
 20
50.8863124823
 10
162.3286563574
 20
50.8641129974
 10
162.3569741722
 20
50.8397315505
 10
162.3833943435
 20
50.813304334
 10
162.4077692905
 20
50.7849789679
 10
162.4299628573
 20
50.7549136751
 10
162.4498510725
 20
50.7232763973
 10
162.4673228426
 20
50.6902438575
 10
162.4822805719
 20
50.6560005723
 10
162.4832057654
 20
50.6533610487
  0
LWPOLYLINE
  5
2D8
100
AcDbEntity
  8
IMPORT_IGES
100
AcDbPolyline
 62
250
  6
CONTINUOUS
 90
10
 70
0
 10
202.7817431007
 20
50.3211041054
 10
203.0021923447
 20
50.3059749787
 10
203.2204442147
 20
50.2783793752
 10
203.4353131604
 20
50.2375545991
 10
203.64514068
 20
50.1827391383
 10
203.8487008163
 20
50.1146219603
 10
204.0458208184
 20
50.0351808356
 10
204.2362452095
 20
49.9449451539
 10
204.4191044609
 20
49.8430949761
 10
204.5936720079
 20
49.7299778084
  0
LINE
  5
2D9
100
AcDbEntity
  8
DRAFT
100
AcDbLine
 62
7
  6
CONTINUOUS
 10
158.2966650338
 20
51.2530374686
 11
158.5030870374
 21
51.0982484856
  0
LINE
  5
2DA
100
AcDbEntity
  8
RACCORDO
100
AcDbLine
 62
7
  6
CONTINUOUS
 10
160.4476213114
 20
50.9733224522
 11
160.281023653
 21
51.0982484856
  0
LWPOLYLINE
  5
2DB
100
AcDbEntity
  8
IMPORT_IGES
100
AcDbPolyline
 62
250
  6
CONTINUOUS
 90
19
 70
0
 10
158.6138710495
 20
50.3465567453
 10
158.8663308716
 20
50.1136744923
 10
159.1175377204
 20
49.8914575491
 10
159.3670420111
 20
49.6811550947
 10
159.6140089324
 20
49.4840851509
 10
159.8584143077
 20
49.3006846923
 10
160.1011136684
 20
49.1306723023
 10
160.3423027706
 20
48.9742568541
 10
160.5811715621
 20
48.8321837267
 10
160.8171350729
 20
48.7048379358
 10
161.0499171869
 20
48.5922701478
 10
161.2792102889
 20
48.4944250054
 10
161.5043739334
 20
48.4112416425
 10
161.7246964959
 20
48.3424905521
 10
161.9403401162
 20
48.2875468468
 10
162.1520099932
 20
48.2457032384
 10
162.3598161923
 20
48.2164575581
 10
162.5632393087
 20
48.1993493359
 10
162.7620841735
 20
48.193787044
  0
LWPOLYLINE
  5
2DC
100
AcDbEntity
  8
IMPORT_IGES
100
AcDbPolyline
 62
250
  6
CONTINUOUS
 90
13
 70
0
 10
155.8010054758
 20
49.5946462219
 10
155.77165343
 20
49.6361810064
 10
155.7439765147
 20
49.6765215214
 10
155.7184561088
 20
49.7149938815
 10
155.695633262
 20
49.7507781973
 10
155.6756905606
 20
49.7835575926
 10
155.6585887514
 20
49.8133923707
 10
155.6446122871
 20
49.8398017381
 10
155.6339503574
 20
49.8624093099
 10
155.6265937895
 20
49.8812424219
 10
155.6226871686
 20
49.8960258492
 10
155.6223252286
 20
49.9064288669
 10
155.6254365142
 20
49.9123834988
  0
LINE
  5
2DD
100
AcDbEntity
  8
RACCORDO
100
AcDbLine
 62
7
  6
CONTINUOUS
 10
138.8662715208
 20
61.1021583268
 11
138.7670050532
 21
62.1149888207
  0
LINE
  5
2DE
100
AcDbEntity
  8
RACCORDO
100
AcDbLine
 62
250
  6
CONTINUOUS
 10
138.8639328274
 20
61.1764617137
 11
138.7620841735
 21
62.2156386386
  0
LINE
  5
2DF
100
AcDbEntity
  8
RACCORDO
100
AcDbLine
 62
250
  6
CONTINUOUS
 10
158.0502053392
 20
52.2475159002
 11
202.4739630077
 21
52.2475159002
  0
LINE
  5
2E0
100
AcDbEntity
  8
RACCORDO
100
AcDbLine
 62
250
  6
CONTINUOUS
 10
221.6257823385
 20
56.063493106
 11
221.6256300341
 21
56.063493106
  0
LINE
  5
2E1
100
AcDbEntity
  8
RACCORDO
100
AcDbLine
 62
250
  6
CONTINUOUS
 10
138.8983860085
 20
56.0634931492
 11
138.8985383128
 21
56.063493106
  0
LWPOLYLINE
  5
2E2
100
AcDbEntity
  8
RACCORDO
100
AcDbPolyline
 62
250
  6
CONTINUOUS
 90
28
 70
0
 10
202.4739630077
 20
51.8065010791
 10
202.6418254948
 20
51.8030570636
 10
202.8071636398
 20
51.7929173185
 10
202.9697228043
 20
51.776370266
 10
203.1283529337
 20
51.7538582854
 10
203.2837739488
 20
51.7256008806
 10
203.4385108284
 20
51.6912402268
 10
203.5933308629
 20
51.6504798353
 10
203.7469477694
 20
51.6035292531
 10
203.89875715
 20
51.5505289651
 10
204.0484149745
 20
51.4915854549
 10
204.1957879675
 20
51.426737445
 10
204.3406051759
 20
51.3560842524
 10
204.4827525396
 20
51.279656103
 10
204.6218786174
 20
51.1976162137
 10
204.7573898467
 20
51.110326717
 10
204.8881961653
 20
51.0186131061
 10
205.015066968
 20
50.9220606385
 10
205.1400301547
 20
50.8189565944
 10
205.2633002157
 20
50.7086646972
 10
205.3838169574
 20
50.5916476365
 10
205.5014317889
 20
50.4675666427
 10
205.616057977
 20
50.3359128024
 10
205.7267670316
 20
50.1971129258
 10
205.8322312304
 20
50.0523528221
 10
205.9318269075
 20
49.9021908956
 10
206.0254755153
 20
49.7464309492
 10
206.1128125122
 20
49.5852757603
  0
LWPOLYLINE
  5
2E3
100
AcDbEntity
  8
RACCORDO
100
AcDbPolyline
 62
250
  6
CONTINUOUS
 90
28
 70
0
 10
202.4739630077
 20
52.2475159002
 10
202.6627123322
 20
52.2430558675
 10
202.8481002902
 20
52.2316603418
 10
203.0301268818
 20
52.2133299759
 10
203.2080261342
 20
52.1880922385
 10
203.3825640202
 20
52.1559221769
 10
203.5560384579
 20
52.1167424507
 10
203.7296247521
 20
52.0704546587
 10
203.9021475982
 20
52.0171623806
 10
204.0723790004
 20
51.9570918558
 10
204.2401863598
 20
51.8902239785
 10
204.4057022755
 20
51.816585652
 10
204.5680965494
 20
51.7364725734
 10
204.7274696132
 20
51.6497529901
 10
204.8837210354
 20
51.5565691896
 10
205.0357193227
 20
51.4576279258
 10
205.1825507042
 20
51.3537826187
 10
205.3251289508
 20
51.2441916259
 10
205.4650638831
 20
51.1270212547
 10
205.6032808433
 20
51.0018406344
 10
205.7388544891
 20
50.8691015835
 10
205.8706186144
 20
50.7282985736
 10
205.9989994814
 20
50.578785572
 10
206.1235708278
 20
50.4212380507
 10
206.2418876606
 20
50.2571327899
 10
206.353134982
 20
50.0869711432
 10
206.4581277898
 20
49.9102819468
 10
206.556866084
 20
49.7270823103
  0
LINE
  5
2E4
100
AcDbEntity
  8
DRAFT
100
AcDbLine
 62
7
  6
CONTINUOUS
 10
156.1620841735
 20
51.1272294223
 11
156.1091847716
 21
51.1998144557
  0
LWPOLYLINE
  5
2E5
100
AcDbEntity
  8
IMPORT_IGES
100
AcDbPolyline
 62
250
  6
CONTINUOUS
 90
13
 70
0
 10
155.9304775958
 20
49.7299923261
 10
155.9058828612
 20
49.7690906089
 10
155.8826156779
 20
49.8071851513
 10
155.8611034913
 20
49.8436194924
 10
155.8417997325
 20
49.8776541001
 10
155.8248908741
 20
49.908927037
 10
155.8104486158
 20
49.937317791
 10
155.7987602693
 20
49.9623114566
 10
155.7899349979
 20
49.9836128714
 10
155.7839803401
 20
50.0011806509
 10
155.7810356797
 20
50.0147109648
 10
155.7810927053
 20
50.0240339172
 10
155.784043133
 20
50.029153927
  0
LWPOLYLINE
  5
2E6
100
AcDbEntity
  8
RACCORDO
100
AcDbPolyline
 62
250
  6
CONTINUOUS
 90
12
 70
0
 10
152.235052677
 20
41.1078553718
 10
152.2341615601
 20
41.1106241197
 10
152.2333980127
 20
41.1161748974
 10
152.2327643478
 20
41.1245080046
 10
152.2322666803
 20
41.1356429747
 10
152.231907027
 20
41.1495606776
 10
152.2316831732
 20
41.1662033267
 10
152.2315993641
 20
41.1856401726
 10
152.2316662024
 20
41.2078019854
 10
152.2318916775
 20
41.2324231262
 10
152.232284602
 20
41.2594426974
 10
152.2328550258
 20
41.2889210736
  0
LINE
  5
2E7
100
AcDbEntity
  8
RACCORDO
100
AcDbLine
 62
250
  6
CONTINUOUS
 10
138.8643225153
 20
61.1715020142
 11
138.8639328274
 21
61.1764617137
  0
LWPOLYLINE
  5
2E8
100
AcDbEntity
  8
RACCORDO
100
AcDbPolyline
 62
250
  6
CONTINUOUS
 90
5
 70
0
 10
138.8660163043
 20
61.1100225969
 10
138.8659162829
 20
61.1114004864
 10
138.8650107576
 20
61.1276502259
 10
138.864378237
 20
61.1439133076
 10
138.8640188943
 20
61.1601852862
  0
LINE
  5
2E9
100
AcDbEntity
  8
RACCORDO
100
AcDbLine
 62
250
  6
CONTINUOUS
 10
140.4355840819
 20
45.80557768
 11
140.4024323578
 21
46.4157547665
  0
LINE
  5
2EA
100
AcDbEntity
  8
RACCORDO
100
AcDbLine
 62
250
  6
CONTINUOUS
 10
140.4024323578
 20
46.4157547665
 11
140.3825774111
 21
46.8078390801
  0
LINE
  5
2EB
100
AcDbEntity
  8
RACCORDO
100
AcDbLine
 62
250
  6
CONTINUOUS
 10
140.3825774111
 20
46.8078390801
 11
140.3645122487
 21
47.2020448561
  0
LWPOLYLINE
  5
2EC
100
AcDbEntity
  8
RACCORDO
100
AcDbPolyline
 62
250
  6
CONTINUOUS
 90
4
 70
0
 10
138.8654562741
 20
61.1478419753
 10
138.865083133
 20
61.1572814106
 10
138.8647059505
 20
61.1651085798
 10
138.8643225153
 20
61.1715020142
  0
LINE
  5
2ED
100
AcDbEntity
  8
RACCORDO
100
AcDbLine
 62
250
  6
CONTINUOUS
 10
140.3645122487
 20
47.2020448561
 11
140.3494383481
 21
47.575469066
  0
LINE
  5
2EE
100
AcDbEntity
  8
RACCORDO
100
AcDbLine
 62
7
  6
CONTINUOUS
 10
138.8658532203
 20
61.1143398619
 11
138.8662715208
 21
61.1021583268
  0
LINE
  5
2EF
100
AcDbEntity
  8
RACCORDO
100
AcDbLine
 62
250
  6
CONTINUOUS
 10
140.3494383481
 20
47.575469066
 11
140.3378615437
 21
47.9113920838
  0
LINE
  5
2F0
100
AcDbEntity
  8
RACCORDO
100
AcDbLine
 62
250
  6
CONTINUOUS
 10
138.8661771643
 20
61.1251974938
 11
138.8654562741
 21
61.1478419753
  0
LINE
  5
2F1
100
AcDbEntity
  8
RACCORDO
100
AcDbLine
 62
250
  6
CONTINUOUS
 10
140.3378615437
 20
47.9113920838
 11
140.3294379013
 21
48.205042729
  0
LINE
  5
2F2
100
AcDbEntity
  8
RACCORDO
100
AcDbLine
 62
7
  6
CONTINUOUS
 10
138.8662715208
 20
61.1021583268
 11
138.8666622844
 21
61.0880437578
  0
LINE
  5
2F3
100
AcDbEntity
  8
RACCORDO
100
AcDbLine
 62
250
  6
CONTINUOUS
 10
138.8666622844
 20
61.0880437578
 11
138.8661771643
 21
61.1251974938
  0
LINE
  5
2F4
100
AcDbEntity
  8
RACCORDO
100
AcDbLine
 62
250
  6
CONTINUOUS
 10
140.3294379013
 20
48.205042729
 11
140.3234085657
 21
48.4653410128
  0
LINE
  5
2F5
100
AcDbEntity
  8
RACCORDO
100
AcDbLine
 62
7
  6
CONTINUOUS
 10
138.8666622844
 20
61.0880437578
 11
138.8673966336
 21
61.0557655231
  0
LINE
  5
2F6
100
AcDbEntity
  8
RACCORDO
100
AcDbLine
 62
250
  6
CONTINUOUS
 10
138.8673966336
 20
61.0557655231
 11
138.867155217
 21
61.0850303067
  0
LINE
  5
2F7
100
AcDbEntity
  8
RACCORDO
100
AcDbLine
 62
250
  6
CONTINUOUS
 10
140.3234085657
 20
48.4653410128
 11
140.3190984891
 21
48.7070495549
  0
LINE
  5
2F8
100
AcDbEntity
  8
RACCORDO
100
AcDbLine
 62
7
  6
CONTINUOUS
 10
138.8673966336
 20
61.0557655231
 11
138.868590219
 21
60.9887184107
  0
LINE
  5
2F9
100
AcDbEntity
  8
RACCORDO
100
AcDbLine
 62
250
  6
CONTINUOUS
 10
138.868590219
 20
60.9887184107
 11
138.8686849887
 21
61.000246622
  0
LINE
  5
2FA
100
AcDbEntity
  8
RACCORDO
100
AcDbLine
 62
7
  6
CONTINUOUS
 10
138.868590219
 20
60.9887184107
 11
138.8707981755
 21
60.819097216
  0
LINE
  5
2FB
100
AcDbEntity
  8
RACCORDO
100
AcDbLine
 62
250
  6
CONTINUOUS
 10
140.3190984891
 20
48.7070495549
 11
140.3161495188
 21
48.9433296223
  0
LINE
  5
2FC
100
AcDbEntity
  8
RACCORDO
100
AcDbLine
 62
250
  6
CONTINUOUS
 10
138.8707981755
 20
60.819097216
 11
138.8707576512
 21
60.8419387877
  0
LINE
  5
2FD
100
AcDbEntity
  8
RACCORDO
100
AcDbLine
 62
7
  6
CONTINUOUS
 10
138.8707981755
 20
60.819097216
 11
138.8729029987
 21
60.6017871604
  0
LINE
  5
2FE
100
AcDbEntity
  8
RACCORDO
100
AcDbLine
 62
7
  6
CONTINUOUS
 10
138.8729029987
 20
60.6017871604
 11
138.8734673228
 21
60.5340835938
  0
LINE
  5
2FF
100
AcDbEntity
  8
RACCORDO
100
AcDbLine
 62
7
  6
CONTINUOUS
 10
138.8734673228
 20
60.5340835938
 11
138.8737445705
 21
60.4993118493
  0
LINE
  5
300
100
AcDbEntity
  8
RACCORDO
100
AcDbLine
 62
7
  6
CONTINUOUS
 10
138.8737445705
 20
60.4993118493
 11
138.8741557918
 21
60.4459363076
  0
LWPOLYLINE
  5
301
100
AcDbEntity
  8
RACCORDO
100
AcDbPolyline
 62
250
  6
CONTINUOUS
 90
3
 70
0
 10
138.8869646643
 20
58.7146737393
 10
138.8864278868
 20
58.7857593916
 10
138.8861148441
 20
58.8030793899
  0
LINE
  5
302
100
AcDbEntity
  8
RACCORDO
100
AcDbLine
 62
250
  6
CONTINUOUS
 10
138.8741557918
 20
60.4459363076
 11
138.8741809628
 21
60.4664969267
  0
LINE
  5
303
100
AcDbEntity
  8
RACCORDO
100
AcDbLine
 62
7
  6
CONTINUOUS
 10
138.8741557918
 20
60.4459363076
 11
138.8744269558
 21
60.4094960967
  0
LINE
  5
304
100
AcDbEntity
  8
RACCORDO
100
AcDbLine
 62
250
  6
CONTINUOUS
 10
138.8744269558
 20
60.4094960967
 11
138.8744659456
 21
60.4285623506
  0
LINE
  5
305
100
AcDbEntity
  8
RACCORDO
100
AcDbLine
 62
7
  6
CONTINUOUS
 10
138.8744269558
 20
60.4094960967
 11
138.8746964659
 21
60.3723429519
  0
LINE
  5
306
100
AcDbEntity
  8
RACCORDO
100
AcDbLine
 62
250
  6
CONTINUOUS
 10
138.8746964659
 20
60.3723429519
 11
138.8747512494
 21
60.3895318048
  0
LINE
  5
307
100
AcDbEntity
  8
RACCORDO
100
AcDbLine
 62
7
  6
CONTINUOUS
 10
138.8746964659
 20
60.3723429519
 11
138.8749644855
 21
60.334447141
  0
LINE
  5
308
100
AcDbEntity
  8
RACCORDO
100
AcDbLine
 62
250
  6
CONTINUOUS
 10
138.8900423785
 20
58.2870371045
 11
138.8897286582
 21
58.3071363397
  0
LINE
  5
309
100
AcDbEntity
  8
RACCORDO
100
AcDbLine
 62
7
  6
CONTINUOUS
 10
138.8749644855
 20
60.334447141
 11
138.8752310309
 21
60.2957704195
  0
LINE
  5
30A
100
AcDbEntity
  8
RACCORDO
100
AcDbLine
 62
7
  6
CONTINUOUS
 10
138.8752310309
 20
60.2957704195
 11
138.8754966543
 21
60.2562904781
  0
LINE
  5
30B
100
AcDbEntity
  8
RACCORDO
100
AcDbLine
 62
7
  6
CONTINUOUS
 10
138.8754966543
 20
60.2562904781
 11
138.8757616
 21
60.2159735486
  0
LINE
  5
30C
100
AcDbEntity
  8
RACCORDO
100
AcDbLine
 62
7
  6
CONTINUOUS
 10
138.8757616
 20
60.2159735486
 11
138.8760257729
 21
60.1747800478
  0
LINE
  5
30D
100
AcDbEntity
  8
RACCORDO
100
AcDbLine
 62
250
  6
CONTINUOUS
 10
138.8760257729
 20
60.1747800478
 11
138.8761864172
 21
60.1766130975
  0
LINE
  5
30E
100
AcDbEntity
  8
RACCORDO
100
AcDbLine
 62
250
  6
CONTINUOUS
 10
138.8640188943
 20
61.1601852862
 11
138.8639328274
 21
61.1764617137
  0
LINE
  5
30F
100
AcDbEntity
  8
RACCORDO
100
AcDbLine
 62
7
  6
CONTINUOUS
 10
138.8760257729
 20
60.1747800478
 11
138.8954753635
 21
57.3057353627
  0
LINE
  5
310
100
AcDbEntity
  8
RACCORDO
100
AcDbLine
 62
250
  6
CONTINUOUS
 10
140.3161495188
 20
48.9433296223
 11
140.3137257427
 21
49.3372569338
  0
LINE
  5
311
100
AcDbEntity
  8
RACCORDO
100
AcDbLine
 62
250
  6
CONTINUOUS
 10
140.3000860198
 20
53.0133831704
 11
140.2993804572
 21
53.1790980774
  0
LINE
  5
312
100
AcDbEntity
  8
RACCORDO
100
AcDbLine
 62
250
  6
CONTINUOUS
 10
140.3044245584
 20
51.9569047025
 11
140.3000860198
 21
53.0133831704
  0
LINE
  5
313
100
AcDbEntity
  8
RACCORDO
100
AcDbLine
 62
250
  6
CONTINUOUS
 10
140.3137257427
 20
49.3372569338
 11
140.3124431201
 21
49.6518355175
  0
LINE
  5
314
100
AcDbEntity
  8
RACCORDO
100
AcDbLine
 62
250
  6
CONTINUOUS
 10
140.3059785501
 20
51.5514861188
 11
140.3044245584
 21
51.9569047025
  0
LINE
  5
315
100
AcDbEntity
  8
RACCORDO
100
AcDbLine
 62
250
  6
CONTINUOUS
 10
140.3069107449
 20
51.2951961421
 11
140.3059785501
 21
51.5514861188
  0
LINE
  5
316
100
AcDbEntity
  8
RACCORDO
100
AcDbLine
 62
250
  6
CONTINUOUS
 10
140.3124431201
 20
49.6518355175
 11
140.311560604
 21
49.8902741295
  0
LWPOLYLINE
  5
317
100
AcDbEntity
  8
RACCORDO
100
AcDbPolyline
 62
250
  6
CONTINUOUS
 90
3
 70
0
 10
140.311560604
 20
49.8902741295
 10
140.3109911453
 20
50.0545615311
 10
140.3107081823
 20
50.1389335011
  0
LINE
  5
318
100
AcDbEntity
  8
RACCORDO
100
AcDbLine
 62
250
  6
CONTINUOUS
 10
140.3077516547
 20
51.0513750845
 11
140.3069107449
 21
51.2951961421
  0
LINE
  5
319
100
AcDbEntity
  8
RACCORDO
100
AcDbLine
 62
250
  6
CONTINUOUS
 10
140.2993804572
 20
53.1790980774
 11
140.2910308193
 21
55.3359326018
  0
LWPOLYLINE
  5
31A
100
AcDbEntity
  8
RACCORDO
100
AcDbPolyline
 62
250
  6
CONTINUOUS
 90
3
 70
0
 10
140.3107081823
 20
50.1389335011
 10
140.3088714558
 20
50.7121855825
 10
140.3077516547
 20
51.0513750845
  0
LINE
  5
31B
100
AcDbEntity
  8
RACCORDO
100
AcDbLine
 62
7
  6
CONTINUOUS
 10
138.8954753635
 20
57.3057353627
 11
138.8977923111
 21
56.6058792748
  0
LINE
  5
31C
100
AcDbEntity
  8
RACCORDO
100
AcDbLine
 62
250
  6
CONTINUOUS
 10
140.2910308193
 20
55.3359326018
 11
140.2880364972
 21
56.5596761173
  0
LINE
  5
31D
100
AcDbEntity
  8
0
100
AcDbLine
 62
7
  6
CONTINUOUS
 10
138.7620841735
 20
150.9533610487
 11
138.7620841735
 21
60.9533610487
  0
LINE
  5
31E
100
AcDbEntity
  8
RACCORDO
100
AcDbLine
 62
7
  6
CONTINUOUS
 10
138.7620841735
 20
62.2156386386
 11
138.7620841735
 21
150.9533610487
  0
LINE
  5
31F
100
AcDbEntity
  8
RACCORDO
100
AcDbLine
 62
7
  6
CONTINUOUS
 10
138.898386008
 20
45.9533610487
 11
138.8977923111
 21
56.6058792748
  0
LINE
  5
320
100
AcDbEntity
  8
DRAFT
100
AcDbLine
 62
7
  6
CONTINUOUS
 10
139.1426045889
 20
150.9533610487
 11
139.1426045889
 21
45.9533610487
  0
LINE
  5
321
100
AcDbEntity
  8
DRAFT
100
AcDbLine
 62
7
  6
CONTINUOUS
 10
139.1620841735
 20
45.9533610487
 11
139.1620841735
 21
150.9533610487
  0
LINE
  5
322
100
AcDbEntity
  8
RACCORDO
100
AcDbLine
 62
250
  6
CONTINUOUS
 10
139.4374656735
 20
147.8446174875
 11
139.4365263404
 21
150.9533610487
  0
LINE
  5
323
100
AcDbEntity
  8
RACCORDO
100
AcDbLine
 62
250
  6
CONTINUOUS
 10
140.2880364972
 20
56.5596761173
 11
140.2874354112
 21
140.5282364198
  0
LWPOLYLINE
  5
324
100
AcDbEntity
  8
RACCORDO
100
AcDbPolyline
 62
250
  6
CONTINUOUS
 90
3
 70
0
 10
139.4370116017
 20
47.6162342731
 10
139.4370666988
 20
47.7282161258
 10
139.4374656735
 20
147.8446174875
  0
LINE
  5
325
100
AcDbEntity
  8
RACCORDO
100
AcDbLine
 62
250
  6
CONTINUOUS
 10
139.4368738935
 20
47.3817394709
 11
139.4370116017
 21
47.6162342731
  0
LINE
  5
326
100
AcDbEntity
  8
RACCORDO
100
AcDbLine
 62
250
  6
CONTINUOUS
 10
139.4366915875
 20
47.1371940109
 11
139.4368738935
 21
47.3817394709
  0
LINE
  5
327
100
AcDbEntity
  8
RACCORDO
100
AcDbLine
 62
250
  6
CONTINUOUS
 10
139.4364612607
 20
46.888635797
 11
139.4366915875
 21
47.1371940109
  0
LINE
  5
328
100
AcDbEntity
  8
RACCORDO
100
AcDbLine
 62
250
  6
CONTINUOUS
 10
139.4360320262
 20
46.5213169245
 11
139.4364612607
 21
46.888635797
  0
LINE
  5
329
100
AcDbEntity
  8
RACCORDO
100
AcDbLine
 62
250
  6
CONTINUOUS
 10
139.4356992824
 20
46.2887745702
 11
139.4360320262
 21
46.5213169245
  0
LINE
  5
32A
100
AcDbEntity
  8
RACCORDO
100
AcDbLine
 62
250
  6
CONTINUOUS
 10
139.435131771
 20
45.9533610487
 11
139.4356992824
 21
46.2887745702
  0
LINE
  5
32B
100
AcDbEntity
  8
RACCORDO
100
AcDbLine
 62
250
  6
CONTINUOUS
 10
140.2873904429
 20
140.5282364124
 11
140.2889665761
 21
141.8238342105
  0
LINE
  5
32C
100
AcDbEntity
  8
RACCORDO
100
AcDbLine
 62
250
  6
CONTINUOUS
 10
140.2889665761
 20
141.8238342105
 11
140.293849179
 21
143.371162967
  0
LINE
  5
32D
100
AcDbEntity
  8
RACCORDO
100
AcDbLine
 62
250
  6
CONTINUOUS
 10
140.2997954783
 20
144.8244741606
 11
140.3135230775
 21
148.5196673961
  0
LINE
  5
32E
100
AcDbEntity
  8
RACCORDO
100
AcDbLine
 62
250
  6
CONTINUOUS
 10
140.293849179
 20
143.371162967
 11
140.2997954783
 21
144.8244741606
  0
LINE
  5
32F
100
AcDbEntity
  8
RACCORDO
100
AcDbLine
 62
250
  6
CONTINUOUS
 10
140.3135230775
 20
148.5196673961
 11
140.3158466672
 21
148.927283178
  0
LINE
  5
330
100
AcDbEntity
  8
RACCORDO
100
AcDbLine
 62
250
  6
CONTINUOUS
 10
140.3158466672
 20
148.927283178
 11
140.3175797759
 21
149.0908630027
  0
LWPOLYLINE
  5
331
100
AcDbEntity
  8
RACCORDO
100
AcDbPolyline
 62
250
  6
CONTINUOUS
 90
55
 70
0
 10
139.4365263404
 20
150.9533610487
 10
139.438144413
 20
151.0881020999
 10
139.4429669252
 20
151.2185220231
 10
139.4506793072
 20
151.3445532451
 10
139.4609194669
 20
151.465544787
 10
139.4734215526
 20
151.5820572931
 10
139.4881481035
 20
151.6958479966
 10
139.5049295869
 20
151.8068491325
 10
139.5236104613
 20
151.9150691826
 10
139.5444141356
 20
152.0223568435
 10
139.5673653167
 20
152.1289653534
 10
139.5923684552
 20
152.2345619996
 10
139.6196425629
 20
152.3400846654
 10
139.6493093227
 20
152.4458426047
 10
139.6812942589
 20
152.5514180239
 10
139.7155735448
 20
152.6566448293
 10
139.752295205
 20
152.7618643571
 10
139.7913389403
 20
152.8666238745
 10
139.8321887222
 20
152.9695975922
 10
139.8745174848
 20
153.0701861997
 10
139.9184759202
 20
153.1689595903
 10
139.9642133934
 20
153.2663669382
 10
140.0113326723
 20
153.3616892071
 10
140.0601108044
 20
153.4556073122
 10
140.1118881949
 20
153.5505811933
 10
140.166893122
 20
153.6467161396
 10
140.2251128499
 20
153.7436801326
 10
140.2877909546
 20
153.8431199765
 10
140.3553584175
 20
153.9451438275
 10
140.4278364192
 20
154.0492054013
 10
140.5060268138
 20
154.1558358626
 10
140.590197189
 20
154.2647197401
 10
140.6806311974
 20
154.3755388313
 10
140.7782724626
 20
154.4886910525
 10
140.8834051002
 20
154.6036833305
 10
140.9963989788
 20
154.7200893768
 10
141.1184590001
 20
154.838222913
 10
141.250265136
 20
154.9576986021
 10
141.3919036833
 20
155.0775358031
 10
141.5437438738
 20
155.1969956813
 10
141.7065898306
 20
155.3156070648
 10
141.8802561
 20
155.4321179349
 10
142.0634586669
 20
155.5447033466
 10
142.2564667007
 20
155.6526733965
 10
142.4591181963
 20
155.7550797051
 10
142.6691537514
 20
155.8501073897
 10
142.8862545179
 20
155.9371248132
 10
143.1102752689
 20
156.0155888641
 10
143.3389238057
 20
156.0843491774
 10
143.5717477853
 20
156.1430757704
 10
143.8083613311
 20
156.191479407
 10
144.0463947812
 20
156.2290130936
 10
144.2847040473
 20
156.2556134459
 10
144.5234302808
 20
156.2714139002
 10
144.7620841735
 20
156.2764545539
  0
LINE
  5
332
100
AcDbEntity
  8
RACCORDO
100
AcDbLine
 62
250
  6
CONTINUOUS
 10
140.3175797759
 20
149.0908630027
 11
140.3213555833
 21
149.3352795645
  0
LINE
  5
333
100
AcDbEntity
  8
RACCORDO
100
AcDbLine
 62
250
  6
CONTINUOUS
 10
140.3213555833
 20
149.3352795645
 11
140.3264622179
 21
149.5809431447
  0
LINE
  5
334
100
AcDbEntity
  8
RACCORDO
100
AcDbLine
 62
250
  6
CONTINUOUS
 10
138.8766309793
 20
60.0768721553
 11
138.8767666607
 21
60.0825580035
  0
LINE
  5
335
100
AcDbEntity
  8
RACCORDO
100
AcDbLine
 62
250
  6
CONTINUOUS
 10
140.3264622179
 20
149.5809431447
 11
140.333166816
 21
149.8389819067
  0
LINE
  5
336
100
AcDbEntity
  8
RACCORDO
100
AcDbLine
 62
250
  6
CONTINUOUS
 10
140.333166816
 20
149.8389819067
 11
140.3420133174
 21
150.1223513708
  0
LINE
  5
337
100
AcDbEntity
  8
RACCORDO
100
AcDbLine
 62
250
  6
CONTINUOUS
 10
140.3420133174
 20
150.1223513708
 11
140.3534894515
 21
150.4362613503
  0
LWPOLYLINE
  5
338
100
AcDbEntity
  8
RACCORDO
100
AcDbPolyline
 62
250
  6
CONTINUOUS
 90
3
 70
0
 10
140.3534894515
 20
150.4362613503
 10
140.3732208555
 20
150.9041980986
 10
140.3793863985
 20
151.0300300401
  0
LWPOLYLINE
  5
339
100
AcDbEntity
  8
RACCORDO
100
AcDbPolyline
 62
250
  6
CONTINUOUS
 90
55
 70
0
 10
140.3793863985
 20
151.0300300401
 10
140.3861103692
 20
151.1331643742
 10
140.3948245728
 20
151.233193656
 10
140.4055272333
 20
151.3301102324
 10
140.4183337571
 20
151.4234975237
 10
140.4331038378
 20
151.5137648827
 10
140.4494729093
 20
151.6021389943
 10
140.4673467676
 20
151.6885589296
 10
140.4868314858
 20
151.7730721974
 10
140.5079328685
 20
151.8570462482
 10
140.5307250436
 20
151.9406848575
 10
140.5552403312
 20
152.0237377934
 10
140.5814920057
 20
152.1068673431
 10
140.609660829
 20
152.1904116389
 10
140.639735688
 20
152.2739633035
 10
140.671420647
 20
152.3570711967
 10
140.7047130733
 20
152.4399560871
 10
140.7395902276
 20
152.5223655352
 10
140.7755964357
 20
152.6031794003
 10
140.8124225577
 20
152.681928414
 10
140.8502159989
 20
152.7591104221
 10
140.889172167
 20
152.8350711565
 10
140.9289494168
 20
152.9092895114
 10
140.9697792892
 20
152.9822996029
 10
141.0128306597
 20
153.0559719643
 10
141.0582374592
 20
153.1304606522
 10
141.1059633054
 20
153.2055113184
 10
141.1570781131
 20
153.2822910256
 10
141.2118386587
 20
153.3609783774
 10
141.2702148487
 20
153.4411926473
 10
141.3329409239
 20
153.5231939257
 10
141.4001353154
 20
153.6068641803
 10
141.4719570021
 20
153.6920432139
 10
141.5492775503
 20
153.7788699512
 10
141.6322832495
 20
153.8672113283
 10
141.7211857213
 20
153.9568088906
 10
141.8169627053
 20
154.0475437458
 10
141.9200804364
 20
154.1394510424
 10
142.0305491459
 20
154.2319471578
 10
142.1486659551
 20
154.3239511106
 10
142.2750315057
 20
154.4154932644
 10
142.4094518791
 20
154.5059061815
 10
142.5508863625
 20
154.5931593561
 10
142.6996041077
 20
154.6770989481
 10
142.8554700518
 20
154.757367432
 10
143.0165803359
 20
154.8318860701
 10
143.182811265
 20
154.9004978316
 10
143.3541414296
 20
154.9631826937
 10
143.5285654494
 20
155.0183938038
 10
143.7058631122
 20
155.0661435895
 10
143.8858964736
 20
155.1065938177
 10
144.0665858397
 20
155.1387344898
 10
144.2470402403
 20
155.1624574558
 10
144.4276591732
 20
155.1783953827
 10
144.6082285776
 20
155.1867982317
  0
LINE
  5
33A
100
AcDbEntity
  8
0
100
AcDbLine
 62
7
  6
CONTINUOUS
 10
205.6268179708
 20
63.1155029976
 11
205.9809110694
 21
63.1431974077
  0
LINE
  5
33B
100
AcDbEntity
  8
0
100
AcDbLine
 62
7
  6
CONTINUOUS
 10
203.3736802512
 20
63.1155029976
 11
203.7277730041
 21
63.1431974077
  0
LWPOLYLINE
  5
33C
100
AcDbEntity
  8
0
100
AcDbPolyline
 62
7
  6
CONTINUOUS
 90
10
 70
0
 10
205.1243626647
 20
60.9039067527
 10
205.1845601338
 20
60.9058929495
 10
205.2423976148
 20
60.9108584745
 10
205.2978751078
 20
60.9188033276
 10
205.3506309335
 20
60.9297300837
 10
205.4010267712
 20
60.9436361679
 10
205.4501476588
 20
60.9605138563
 10
205.4983552757
 20
60.9803605741
 10
205.5452879426
 20
61.0031788962
 10
205.5909456594
 20
61.0289688224
  0
LWPOLYLINE
  5
33D
100
AcDbEntity
  8
0
100
AcDbPolyline
 62
7
  6
CONTINUOUS
 90
10
 70
0
 10
202.8712245994
 20
60.9039067527
 10
202.9314221607
 20
60.9058929484
 10
202.9892596821
 20
60.9108584626
 10
203.0447371637
 20
60.9188032954
 10
203.0974928765
 20
60.9297300051
 10
203.1478885495
 20
60.9436360334
 10
203.1970093691
 20
60.9605137045
 10
203.245217064
 20
60.9803604597
 10
203.2921499056
 20
61.0031788577
 10
203.3378078938
 20
61.0289688985
  0
LWPOLYLINE
  5
33E
100
AcDbEntity
  8
0
100
AcDbPolyline
 62
7
  6
CONTINUOUS
 90
10
 70
0
 10
205.175794869
 20
62.8346024537
 10
205.130389733
 20
62.8333879601
 10
205.0855830811
 20
62.8298777719
 10
205.0413749133
 20
62.8240718891
 10
204.9978690662
 20
62.8160064254
 10
204.9549617033
 20
62.8056452672
 10
204.9123413149
 20
62.7928800732
 10
204.8699040645
 20
62.7776747297
 10
204.8277537886
 20
62.7600653506
 10
204.7858904874
 20
62.7400519356
  0
LWPOLYLINE
  5
33F
100
AcDbEntity
  8
0
100
AcDbPolyline
 62
7
  6
CONTINUOUS
 90
16
 70
0
 10
200.4499422841
 20
62.132351526
 10
200.5506204237
 20
62.1347660512
 10
200.6437292846
 20
62.1399197756
 10
200.7292688667
 20
62.1478126991
 10
200.8067034787
 20
62.1587396186
 10
200.8765688121
 20
62.1724057372
 10
200.940471941
 20
62.1879266651
 10
200.9985006951
 20
62.2052314922
 10
201.0505672447
 20
62.2243911286
 10
201.0980151766
 20
62.2447339141
 10
201.1408618663
 20
62.2661198686
 10
201.1790899381
 20
62.2886889724
 10
201.213990851
 20
62.3121895059
 10
201.2459950914
 20
62.3365375629
 10
201.2746721729
 20
62.3618170498
 10
201.3000220955
 20
62.3880279665
  0
LINE
  5
340
100
AcDbEntity
  8
SUPERFICI
100
AcDbLine
 62
250
  6
CONTINUOUS
 10
207.7620841735
 20
57.3785451027
 11
152.7620841735
 21
57.3785451027
  0
LINE
  5
341
100
AcDbEntity
  8
0
100
AcDbLine
 62
7
  6
CONTINUOUS
 10
198.2620841899
 20
60.9533610487
 11
198.6458495312
 21
60.9533610487
  0
LINE
  5
342
100
AcDbEntity
  8
0
100
AcDbLine
 62
7
  6
CONTINUOUS
 10
199.3223842703
 20
60.9533610487
 11
199.7061496549
 21
60.9533610487
  0
LINE
  5
343
100
AcDbEntity
  8
0
100
AcDbLine
 62
7
  6
CONTINUOUS
 10
199.7061496549
 20
62.132351526
 11
200.4499422841
 21
62.132351526
  0
LINE
  5
344
100
AcDbEntity
  8
RACCORDO
100
AcDbLine
 62
250
  6
CONTINUOUS
 10
152.7620841735
 20
57.3785451022
 11
139.438364024
 21
57.3786781345
  0
LWPOLYLINE
  5
345
100
AcDbEntity
  8
RACCORDO
100
AcDbPolyline
 62
250
  6
CONTINUOUS
 90
3
 70
0
 10
221.085804323
 20
57.3786873563
 10
211.9501371444
 20
57.3787438749
 10
207.7620841735
 20
57.3785451018
  0
LWPOLYLINE
  5
346
100
AcDbEntity
  8
0
100
AcDbPolyline
 62
7
  6
CONTINUOUS
 90
10
 70
0
 10
202.8652901941
 20
61.1966761829
 10
202.8305302873
 20
61.1977797268
 10
202.7963673947
 20
61.2009636906
 10
202.7628015163
 20
61.2062280745
 10
202.7299690219
 20
61.2135074952
 10
202.6977335418
 20
61.2228673359
 10
202.6656859664
 20
61.234503746
 10
202.6336899257
 20
61.2484821084
 10
202.6018817896
 20
61.2647370403
 10
202.5702615582
 20
61.2832685414
  0
LWPOLYLINE
  5
347
100
AcDbEntity
  8
0
100
AcDbPolyline
 62
7
  6
CONTINUOUS
 90
10
 70
0
 10
205.1184282594
 20
61.1966761829
 10
205.0836682779
 20
61.1977797321
 10
205.0495053111
 20
61.2009637029
 10
205.015939359
 20
61.2062280954
 10
204.9831067708
 20
61.213507536
 10
204.9508711973
 20
61.2228673983
 10
204.9188235909
 20
61.2345038023
 10
204.8868276022
 20
61.2484821214
 10
204.8550195804
 20
61.2647369823
 10
204.8233995257
 20
61.2832683849
  0
LWPOLYLINE
  5
348
100
AcDbEntity
  8
RACCORDO
100
AcDbPolyline
 62
250
  6
CONTINUOUS
 90
8
 70
0
 10
151.7354832667
 20
40.6267522024
 10
151.7345811094
 20
40.6306587145
 10
151.7338159238
 20
40.6392579423
 10
151.7331877875
 20
40.6523500422
 10
151.7326936861
 20
40.6696308827
 10
151.7323367689
 20
40.6909360266
 10
151.7321263641
 20
40.7164487827
 10
151.7320572927
 20
40.746311742
  0
LINE
  5
349
100
AcDbEntity
  8
RACCORDO
100
AcDbLine
 62
250
  6
CONTINUOUS
 10
144.7620841735
 20
40.0896628832
 11
144.7620841735
 21
40.3338814641
  0
LINE
  5
34A
100
AcDbEntity
  8
RACCORDO
100
AcDbLine
 62
250
  6
CONTINUOUS
 10
144.7620841735
 20
40.3533610487
 11
144.7620841735
 21
40.6249637422
  0
LINE
  5
34B
100
AcDbEntity
  8
RACCORDO
100
AcDbLine
 62
250
  6
CONTINUOUS
 10
144.7620841735
 20
156.2764545539
 11
144.7620841735
 21
156.5533610487
  0
LINE
  5
34C
100
AcDbEntity
  8
DRAFT
100
AcDbLine
 62
250
  6
CONTINUOUS
 10
144.7620841735
 20
156.5728406333
 11
144.7620841735
 21
156.9533610487
  0
LWPOLYLINE
  5
34D
100
AcDbEntity
  8
0
100
AcDbPolyline
 62
7
  6
CONTINUOUS
 90
6
 70
0
 10
188.0579406547
 20
147.9791814568
 10
188.0738171126
 20
147.9888718362
 10
188.0896173501
 20
147.9995035412
 10
188.1051923942
 20
148.0109909009
 10
188.120691218
 20
148.0234193392
 10
188.1527375315
 20
148.0497876484
  0
LWPOLYLINE
  5
34E
100
AcDbEntity
  8
0
100
AcDbPolyline
 62
7
  6
CONTINUOUS
 90
16
 70
0
 10
205.157991653
 20
63.8652302051
 10
205.0915262756
 20
63.8630102187
 10
205.0283831399
 20
63.8578648305
 10
204.9685622461
 20
63.8497940404
 10
204.9124220793
 20
63.8386887877
 10
204.8596041542
 20
63.8246581332
 10
204.8090330151
 20
63.8080292591
 10
204.760592175
 20
63.7889605165
 10
204.7143981208
 20
63.7672935542
 10
204.6697248571
 20
63.7428805016
 10
204.6264869645
 20
63.7158741749
 10
204.5847698624
 20
63.6861217578
 10
204.5441038138
 20
63.6530169308
 10
204.5043322396
 20
63.6163575873
 10
204.465611719
 20
63.5763458339
 10
204.4279422518
 20
63.5329816705
  0
LWPOLYLINE
  5
34F
100
AcDbEntity
  8
0
100
AcDbPolyline
 62
7
  6
CONTINUOUS
 90
16
 70
0
 10
202.9048535877
 20
63.8652302051
 10
202.8383883143
 20
63.8630102222
 10
202.775245243
 20
63.8578648292
 10
202.7154243737
 20
63.8497940259
 10
202.6592841788
 20
63.8386887506
 10
202.6064661858
 20
63.8246580651
 10
202.5558949782
 20
63.8080291551
 10
202.5074540741
 20
63.7889603682
 10
202.4612599554
 20
63.7672933568
 10
202.4165866504
 20
63.7428802646
 10
202.3733487411
 20
63.7158739031
 10
202.3316316456
 20
63.6861214607
 10
202.2909656472
 20
63.6530166466
 10
202.2511941735
 20
63.6163573637
 10
202.2124737969
 20
63.5763457089
 10
202.1748045173
 20
63.5329816824
  0
LWPOLYLINE
  5
350
100
AcDbEntity
  8
0
100
AcDbPolyline
 62
7
  6
CONTINUOUS
 90
10
 70
0
 10
202.9226571493
 20
62.8346024537
 10
202.8772521002
 20
62.8333879649
 10
202.8324454931
 20
62.8298777744
 10
202.788237328
 20
62.8240718824
 10
202.7447314245
 20
62.8160064
 10
202.7018239631
 20
62.805645216
 10
202.6592034851
 20
62.7928799968
 10
202.616766171
 20
62.7776746314
 10
202.5746158405
 20
62.7600652308
 10
202.5327524934
 20
62.7400517952
  0
LINE
  5
351
100
AcDbEntity
  8
0
100
AcDbLine
 62
7
  6
CONTINUOUS
 10
200.4558768623
 20
62.4745752955
 11
199.7061496549
 21
62.4745752955
  0
LINE
  5
352
100
AcDbEntity
  8
0
100
AcDbLine
 62
7
  6
CONTINUOUS
 10
199.7061496549
 20
63.5111372793
 11
200.447964149
 21
63.5111372793
  0
LINE
  5
353
100
AcDbEntity
  8
0
100
AcDbLine
 62
7
  6
CONTINUOUS
 10
200.4163132959
 20
63.8533610487
 11
199.3223842703
 21
63.8533610487
  0
LINE
  5
354
100
AcDbEntity
  8
0
100
AcDbLine
 62
7
  6
CONTINUOUS
 10
198.6458495312
 20
63.8533610487
 11
198.2620841899
 21
63.8533610487
  0
LWPOLYLINE
  5
355
100
AcDbEntity
  8
0
100
AcDbPolyline
 62
7
  6
CONTINUOUS
 90
10
 70
0
 10
200.447964149
 20
63.5111372793
 10
200.5092030026
 20
63.5105496206
 10
200.5647884648
 20
63.5093043017
 10
200.6147205356
 20
63.5074013226
 10
200.6586271454
 20
63.5047714124
 10
200.6968803638
 20
63.5014838419
 10
200.7305963991
 20
63.4977464239
 10
200.7601473209
 20
63.4936284293
 10
200.7851610597
 20
63.4890605872
 10
200.8056376155
 20
63.4840428976
  0
LWPOLYLINE
  5
356
100
AcDbEntity
  8
0
100
AcDbPolyline
 62
7
  6
CONTINUOUS
 90
13
 70
0
 10
202.8830937558
 20
63.5724606776
 10
202.9190972831
 20
63.5711152144
 10
202.9536460329
 20
63.5677444576
 10
202.9867400052
 20
63.5623484072
 10
203.018188902
 20
63.5549250909
 10
203.0481830213
 20
63.545476481
 10
203.077293257
 20
63.5340084944
 10
203.1055805065
 20
63.520660602
 10
203.1329838723
 20
63.5052933329
 10
203.1598915567
 20
63.4874941912
 10
203.1864329603
 20
63.467125678
 10
203.2124786824
 20
63.4443252923
 10
203.2380287231
 20
63.4190930338
  0
LWPOLYLINE
  5
357
100
AcDbEntity
  8
0
100
AcDbPolyline
 62
7
  6
CONTINUOUS
 90
13
 70
0
 10
205.1362314754
 20
63.5724606776
 10
205.1722350771
 20
63.5711152099
 10
205.2067838719
 20
63.5677444532
 10
205.2398778597
 20
63.5623484074
 10
205.2713267308
 20
63.5549251025
 10
205.3013207949
 20
63.5454765086
 10
205.3304309814
 20
63.5340085358
 10
205.3587181901
 20
63.5206606615
 10
205.3861215212
 20
63.5052934083
 10
205.4130292049
 20
63.4874942542
 10
205.4395706512
 20
63.4671256919
 10
205.4656164502
 20
63.4443252287
 10
205.4911666017
 20
63.4190928646
  0
LWPOLYLINE
  5
358
100
AcDbEntity
  8
0
100
AcDbPolyline
 62
7
  6
CONTINUOUS
 90
13
 70
0
 10
202.8514429026
 20
62.5200732672
 10
202.8929815111
 20
62.5185025782
 10
202.9327423805
 20
62.5146252608
 10
202.9707255108
 20
62.508441315
 10
203.0067044993
 20
62.4999386146
 10
203.0409057487
 20
62.4891292858
 10
203.0740084673
 20
62.4760497071
 10
203.1060880947
 20
62.4608592516
 10
203.1370691913
 20
62.4433985461
 10
203.1674046461
 20
62.4232258497
 10
203.1972454221
 20
62.4001939153
 10
203.2264405564
 20
62.3744499898
 10
203.2549900488
 20
62.3459940734
  0
LWPOLYLINE
  5
359
100
AcDbEntity
  8
0
100
AcDbPolyline
 62
7
  6
CONTINUOUS
 90
13
 70
0
 10
205.1045806222
 20
62.5200732672
 10
205.1461193079
 20
62.5185025735
 10
205.1858802251
 20
62.5146252563
 10
205.2238633738
 20
62.5084413157
 10
205.2598423415
 20
62.4999386269
 10
205.2940435406
 20
62.4891293146
 10
205.3271462094
 20
62.4760497536
 10
205.3592257898
 20
62.4608593221
 10
205.3902068398
 20
62.4433986418
 10
205.4205422714
 20
62.4232259529
 10
205.4503830554
 20
62.4001940018
 10
205.4795782211
 20
62.3744500419
 10
205.5081277685
 20
62.3459940734
  0
LWPOLYLINE
  5
35A
100
AcDbEntity
  8
0
100
AcDbPolyline
 62
7
  6
CONTINUOUS
 90
54
 70
0
 10
188.1527375315
 20
148.0497876484
 10
188.1692850212
 20
148.0637273543
 10
188.1861956137
 20
148.0782777044
 10
188.2035082014
 20
148.0933957254
 10
188.2211838917
 20
148.1091241696
 10
188.2391570302
 20
148.125649072
 10
188.2574536507
 20
148.142955987
 10
188.2760477193
 20
148.1610590234
 10
188.2947954804
 20
148.180186948
 10
188.3137146888
 20
148.2003287214
 10
188.3327875896
 20
148.2214948744
 10
188.3518171624
 20
148.2439463864
 10
188.3707800128
 20
148.2677108706
 10
188.389699535
 20
148.2927599472
 10
188.4084488912
 20
148.3192704453
 10
188.4270383355
 20
148.3472610242
 10
188.4454576137
 20
148.3767119846
 10
188.4635491247
 20
148.4077424715
 10
188.4813558301
 20
148.440324079
 10
188.4988347683
 20
148.4744838907
 10
188.5156994531
 20
148.5104240948
 10
188.5319994624
 20
148.5481865817
 10
188.5476852182
 20
148.5877276772
 10
188.5623215007
 20
148.6291210202
 10
188.5758916993
 20
148.6723140722
 10
188.5884124245
 20
148.7173572257
 10
188.599498288
 20
148.7644782539
 10
188.6091807288
 20
148.8136346076
 10
188.6174283078
 20
148.864866023
 10
188.6237613198
 20
148.9185232061
 10
188.6282579403
 20
148.9746716154
 10
188.6308399937
 20
149.0332418957
 10
188.6307932487
 20
149.0943820052
 10
188.6282453728
 20
149.1585211536
 10
188.6230686983
 20
149.2252250515
 10
188.6141659908
 20
149.2933471788
 10
188.6014000102
 20
149.3631554391
 10
188.5849079965
 20
149.4343785277
 10
188.5640044356
 20
149.5050641378
 10
188.5383824572
 20
149.5751275576
 10
188.5083489317
 20
149.6446542423
 10
188.4741389554
 20
149.7119509202
 10
188.4352961525
 20
149.7770347458
 10
188.3922768989
 20
149.8398926624
 10
188.3466854191
 20
149.898789445
 10
188.2984131739
 20
149.9533069452
 10
188.2475687025
 20
150.0038702829
 10
188.1960818473
 20
150.050010878
 10
188.1438569746
 20
150.0917099075
 10
188.0909897181
 20
150.1289922189
 10
188.0396968211
 20
150.1614549332
 10
187.9907171981
 20
150.1889653892
 10
187.9433119346
 20
150.2116608712
 10
187.8974810307
 20
150.2295431251
  0
LWPOLYLINE
  5
35B
100
AcDbEntity
  8
0
100
AcDbPolyline
 62
7
  6
CONTINUOUS
 90
10
 70
0
 10
200.8575094261
 20
63.8260387076
 10
200.8246775106
 20
63.8312623737
 10
200.7879129654
 20
63.8359814286
 10
200.7472157903
 20
63.8401958724
 10
200.7027391047
 20
63.8439621735
 10
200.6543297892
 20
63.8472238635
 10
200.6015284864
 20
63.8498115366
 10
200.544182077
 20
63.8516687242
 10
200.4824436801
 20
63.8528518949
 10
200.4163132959
 20
63.8533610487
  0
LWPOLYLINE
  5
35C
100
AcDbEntity
  8
0
100
AcDbPolyline
 62
7
  6
CONTINUOUS
 90
10
 70
0
 10
200.8056376155
 20
63.4840428976
 10
200.8379754662
 20
63.4740820162
 10
200.8688394687
 20
63.4619795717
 10
200.8982296228
 20
63.4477355641
 10
200.926007765
 20
63.4314973474
 10
200.9523120589
 20
63.4131175676
 10
200.9775569953
 20
63.3921541629
 10
201.0018807377
 20
63.3684597796
 10
201.0251451224
 20
63.3421817714
 10
201.0473501497
 20
63.3133201385
  0
LWPOLYLINE
  5
35D
100
AcDbEntity
  8
IMPORT_IGES
100
AcDbPolyline
 62
250
  6
CONTINUOUS
 90
13
 70
0
 10
202.7451966859
 20
50.6533610487
 10
202.7490706861
 20
50.6508109202
 10
202.7529624241
 20
50.6431072709
 10
202.7568083895
 20
50.6301835331
 10
202.7605325182
 20
50.6121774043
 10
202.7640917566
 20
50.5894249756
 10
202.7674732381
 20
50.5619651848
 10
202.7706194049
 20
50.5301080602
 10
202.7734881195
 20
50.4944508766
 10
202.7760716985
 20
50.4551353483
 10
202.7783308498
 20
50.4125729667
 10
202.780230009
 20
50.3676451625
 10
202.7817527506
 20
50.3211484336
  0
LINE
  5
35E
100
AcDbEntity
  8
RACCORDO
100
AcDbLine
 62
250
  6
CONTINUOUS
 10
197.7370841735
 20
50.6760586828
 11
197.7639805432
 21
50.6558899912
  0
LINE
  5
35F
100
AcDbEntity
  8
RACCORDO
100
AcDbLine
 62
250
  6
CONTINUOUS
 10
198.0001059121
 20
51.3533610487
 11
198.5069141293
 21
50.9733224522
  0
LINE
  5
360
100
AcDbEntity
  8
DRAFT
100
AcDbLine
 62
7
  6
CONTINUOUS
 10
158.2966650338
 20
51.2530374686
 11
158.3329361904
 21
50.6533610487
  0
LWPOLYLINE
  5
361
100
AcDbEntity
  8
IMPORT_IGES
100
AcDbPolyline
 62
250
  6
CONTINUOUS
 90
16
 70
0
 10
153.0413474761
 20
41.2432095883
 10
153.0442051607
 20
41.1646827971
 10
153.0534824417
 20
41.0859485938
 10
153.069179902
 20
41.0080690215
 10
153.0910177099
 20
40.9323743203
 10
153.1186746936
 20
40.8595807006
 10
153.1520469592
 20
40.7897912884
 10
153.1906620054
 20
40.7238739052
 10
153.2339421951
 20
40.6625458758
 10
153.2818530514
 20
40.6057068507
 10
153.3336027194
 20
40.5541656623
 10
153.388683669
 20
40.5082004138
 10
153.4478014881
 20
40.4672662644
 10
153.5107859534
 20
40.4317937525
 10
153.5764973725
 20
40.4026123061
 10
153.6442825126
 20
40.3800415483
  0
LINE
  5
362
100
AcDbEntity
  8
DRAFT
100
AcDbLine
 62
7
  6
CONTINUOUS
 10
156.0727145499
 20
51.179340403
 11
156.1027245275
 21
50.225341794
  0
LWPOLYLINE
  5
363
100
AcDbEntity
  8
IMPORT_IGES
100
AcDbPolyline
 62
250
  6
CONTINUOUS
 90
16
 70
0
 10
153.1042483149
 20
41.2549781839
 10
153.1060793919
 20
41.1774711721
 10
153.1138776212
 20
41.0997211965
 10
153.1276967851
 20
41.0226749495
 10
153.1472814258
 20
40.9476560592
 10
153.1724218806
 20
40.875258801
 10
153.20311858
 20
40.8053974804
 10
153.2390687722
 20
40.7388909699
 10
153.2798147384
 20
40.6765402857
 10
153.3253315236
 20
40.6183260993
 10
153.3751491656
 20
40.5649810741
 10
153.4286389314
 20
40.5170579002
 10
153.4858182224
 20
40.4745851788
 10
153.5459982633
 20
40.4381030624
 10
153.6084727448
 20
40.4079729489
 10
153.6733169589
 20
40.3841929882
  0
LWPOLYLINE
  5
364
100
AcDbEntity
  8
IMPORT_IGES
100
AcDbPolyline
 62
250
  6
CONTINUOUS
 90
19
 70
0
 10
153.0413497091
 20
41.2432098733
 10
153.0431280951
 20
41.1667579213
 10
153.0509696399
 20
41.0900543588
 10
153.0649302704
 20
41.0140348148
 10
153.0847515463
 20
40.94000809
 10
153.11022069
 20
40.8685619106
 10
153.1413378802
 20
40.7996116699
 10
153.1777962586
 20
40.7339669027
 10
153.2191306209
 20
40.6724201151
 10
153.2653148633
 20
40.6149530129
 10
153.3158715222
 20
40.5622901684
 10
153.3701612211
 20
40.5149781978
 10
153.4282007721
 20
40.4730458081
 10
153.4892899727
 20
40.4370270593
 10
153.5527104757
 20
40.4072793972
 10
153.6185377773
 20
40.3838010142
 10
153.6862502265
 20
40.366840127
 10
153.7546825043
 20
40.356708809
 10
153.8229972828
 20
40.3533610487
  0
LWPOLYLINE
  5
365
100
AcDbEntity
  8
IMPORT_IGES
100
AcDbPolyline
 62
250
  6
CONTINUOUS
 90
19
 70
0
 10
153.7978422989
 20
41.3187511649
 10
153.7991746312
 20
41.2357644986
 10
153.8047923996
 20
41.1525170299
 10
153.8147341412
 20
41.0700223383
 10
153.8288163214
 20
40.9896974589
 10
153.8468883132
 20
40.9121787884
 10
153.868950295
 20
40.8373750111
 10
153.8947849219
 20
40.7661627796
 10
153.9240633264
 20
40.6993999303
 10
153.9567671107
 20
40.6370665834
 10
153.9925587427
 20
40.5799471408
 10
154.0309865758
 20
40.5286332935
 10
154.072062442
 20
40.4831561218
 10
154.1152918459
 20
40.4440936166
 10
154.1601674589
 20
40.4118327106
 10
154.2067423807
 20
40.3863715749
 10
154.2546482542
 20
40.367978731
 10
154.3030624664
 20
40.3569918297
 10
154.3513939028
 20
40.3533610487
  0
LINE
  5
366
100
AcDbEntity
  8
IMPORT_IGES
100
AcDbLine
 62
250
  6
CONTINUOUS
 10
153.7978466703
 20
41.3187511077
 11
153.7968517077
 21
41.8805672568
  0
LINE
  5
367
100
AcDbEntity
  8
SUPERFICI
100
AcDbLine
 62
250
  6
CONTINUOUS
 10
152.7620841735
 20
57.3785451027
 11
152.7620841735
 21
140.5281769947
  0
LINE
  5
368
100
AcDbEntity
  8
RACCORDO
100
AcDbLine
 62
250
  6
CONTINUOUS
 10
152.7620637748
 20
156.2733870243
 11
152.7620739729
 21
155.2817643953
  0
LINE
  5
369
100
AcDbEntity
  8
RACCORDO
100
AcDbLine
 62
250
  6
CONTINUOUS
 10
152.762084171
 20
140.5281769947
 11
152.7618941849
 21
155.2817643952
  0
LINE
  5
36A
100
AcDbEntity
  8
0
100
AcDbLine
 62
7
  6
CONTINUOUS
 10
153.2620841735
 20
165.253351089
 11
153.2620841735
 21
163.008676356
  0
LINE
  5
36B
100
AcDbEntity
  8
DRAFT
100
AcDbLine
 62
7
  6
CONTINUOUS
 10
153.2620841735
 20
163.008676356
 11
153.2620841735
 21
156.3398060557
  0
LINE
  5
36C
100
AcDbEntity
  8
DRAFT
100
AcDbLine
 62
7
  6
CONTINUOUS
 10
154.8235077624
 20
50.0658039766
 11
154.8235077624
 21
49.0260812112
  0
LINE
  5
36D
100
AcDbEntity
  8
RACCORDO
100
AcDbLine
 62
250
  6
CONTINUOUS
 10
152.7610593139
 20
46.8270126805
 11
152.7620841711
 21
57.3785451027
  0
LINE
  5
36E
100
AcDbEntity
  8
DRAFT
100
AcDbLine
 62
7
  6
CONTINUOUS
 10
155.0155868887
 20
49.2998483338
 11
155.0186777621
 21
50.3115340757
  0
LWPOLYLINE
  5
36F
100
AcDbEntity
  8
IMPORT_IGES
100
AcDbPolyline
 62
250
  6
CONTINUOUS
 90
27
 70
0
 10
153.7968517077
 20
41.8805672568
 10
153.7990784512
 20
42.7295650332
 10
153.8028080275
 20
43.0064719801
 10
153.8083476518
 20
43.2704252785
 10
153.8152481014
 20
43.5265124143
 10
153.8252284411
 20
43.7830601795
 10
153.8386957296
 20
44.0458180042
 10
153.8552436024
 20
44.3090765289
 10
153.8752505567
 20
44.5638480447
 10
153.897684421
 20
44.8036023083
 10
153.922409522
 20
45.0340875303
 10
153.9510646366
 20
45.2646450238
 10
153.9844846551
 20
45.5011117534
 10
154.0217277546
 20
45.7375396002
 10
154.0618019386
 20
45.9655959712
 10
154.1032654642
 20
46.1794694765
 10
154.1466908267
 20
46.3843456967
 10
154.194062036
 20
46.5883364062
 10
154.2466178751
 20
46.7965785244
 10
154.3029745275
 20
47.0037435176
 10
154.361216598
 20
47.2022629104
 10
154.4194722887
 20
47.3868019195
 10
154.4790020394
 20
47.5622465175
 10
154.5425735938
 20
47.7363317811
 10
154.6111137248
 20
47.911581123
 10
154.6835474272
 20
48.0852407047
 10
154.7597888445
 20
48.2571899643
  0
LINE
  5
370
100
AcDbEntity
  8
RACCORDO
100
AcDbLine
 62
250
  6
CONTINUOUS
 10
151.7320572927
 20
40.746311742
 11
151.7323842316
 21
40.8182512928
  0
LINE
  5
371
100
AcDbEntity
  8
RACCORDO
100
AcDbLine
 62
250
  6
CONTINUOUS
 10
151.7323842316
 20
40.8182512928
 11
151.7333939835
 21
40.9050898176
  0
LINE
  5
372
100
AcDbEntity
  8
RACCORDO
100
AcDbLine
 62
250
  6
CONTINUOUS
 10
151.7333939835
 20
40.9050898176
 11
151.7351717806
 21
41.0064471595
  0
LINE
  5
373
100
AcDbEntity
  8
RACCORDO
100
AcDbLine
 62
250
  6
CONTINUOUS
 10
151.7351717806
 20
41.0064471595
 11
151.7378265656
 21
41.1227580246
  0
LINE
  5
374
100
AcDbEntity
  8
RACCORDO
100
AcDbLine
 62
250
  6
CONTINUOUS
 10
152.2328550258
 20
41.2889210736
 11
152.2345594312
 21
41.3547602516
  0
LINE
  5
375
100
AcDbEntity
  8
RACCORDO
100
AcDbLine
 62
250
  6
CONTINUOUS
 10
151.7378265656
 20
41.1227580246
 11
151.7416106524
 21
41.2584796189
  0
LINE
  5
376
100
AcDbEntity
  8
RACCORDO
100
AcDbLine
 62
250
  6
CONTINUOUS
 10
151.7416106524
 20
41.2584796189
 11
151.7467416704
 21
41.412122042
  0
LINE
  5
377
100
AcDbEntity
  8
RACCORDO
100
AcDbLine
 62
250
  6
CONTINUOUS
 10
152.2345594312
 20
41.3547602516
 11
152.2371274463
 21
41.4304947369
  0
LINE
  5
378
100
AcDbEntity
  8
RACCORDO
100
AcDbLine
 62
250
  6
CONTINUOUS
 10
151.7467416704
 20
41.412122042
 11
151.7532875471
 21
41.5826317145
  0
LINE
  5
379
100
AcDbEntity
  8
RACCORDO
100
AcDbLine
 62
250
  6
CONTINUOUS
 10
152.2371274463
 20
41.4304947369
 11
152.2408063611
 21
41.5188352275
  0
LINE
  5
37A
100
AcDbEntity
  8
RACCORDO
100
AcDbLine
 62
250
  6
CONTINUOUS
 10
152.2408063611
 20
41.5188352275
 11
152.2457575458
 21
41.6186111522
  0
LWPOLYLINE
  5
37B
100
AcDbEntity
  8
IMPORT_IGES
100
AcDbPolyline
 62
250
  6
CONTINUOUS
 90
10
 70
0
 10
204.7231612737
 20
49.5946449874
 10
204.852876097
 20
49.4892851042
 10
204.9772492196
 20
49.3783163487
 10
205.0957819314
 20
49.2616768193
 10
205.2087108927
 20
49.1391329754
 10
205.3152731045
 20
49.0110647211
 10
205.4138344369
 20
48.8786352372
 10
205.5042808136
 20
48.7427314714
 10
205.5878890882
 20
48.6038515358
 10
205.6653325634
 20
48.4629158001
  0
LWPOLYLINE
  5
37C
100
AcDbEntity
  8
IMPORT_IGES
100
AcDbPolyline
 62
250
  6
CONTINUOUS
 90
10
 70
0
 10
204.5936720079
 20
49.7299778084
 10
204.6059181376
 20
49.7199636171
 10
204.6192607612
 20
49.707662209
 10
204.6336723291
 20
49.6930492008
 10
204.6498053562
 20
49.6746693997
 10
204.6669202299
 20
49.653906933
 10
204.6829742019
 20
49.6350575535
 10
204.6973426056
 20
49.6195994012
 10
204.7107296496
 20
49.6061212754
 10
204.7231612737
 20
49.5946449874
  0
LINE
  5
37D
100
AcDbEntity
  8
DRAFT
100
AcDbLine
 62
7
  6
CONTINUOUS
 10
158.5044462448
 20
50.6533610487
 11
158.5030870374
 21
51.0982484856
  0
LINE
  5
37E
100
AcDbEntity
  8
DRAFT
100
AcDbLine
 62
7
  6
CONTINUOUS
 10
156.1620841735
 20
50.2562236176
 11
156.1620841735
 21
51.1272294223
  0
LINE
  5
37F
100
AcDbEntity
  8
DRAFT
100
AcDbLine
 62
7
  6
CONTINUOUS
 10
157.3620841735
 20
50.6273992446
 11
157.3620841735
 21
51.1272294223
  0
LINE
  5
380
100
AcDbEntity
  8
RACCORDO
100
AcDbLine
 62
250
  6
CONTINUOUS
 10
158.0502053392
 20
52.2475159002
 11
158.0502053392
 21
51.7033610487
  0
LINE
  5
381
100
AcDbEntity
  8
DRAFT
100
AcDbLine
 62
7
  6
CONTINUOUS
 10
158.7006605846
 20
50.6533610487
 11
158.7006605846
 21
50.8508205857
  0
LINE
  5
382
100
AcDbEntity
  8
RACCORDO
100
AcDbLine
 62
7
  6
CONTINUOUS
 10
159.3620841735
 20
163.0610833732
 11
159.3620841735
 21
163.9393438463
  0
LINE
  5
383
100
AcDbEntity
  8
ASSI
100
AcDbLine
 62
7
  6
CONTINUOUS
 10
159.7620841735
 20
165.2533356319
 11
159.7620841735
 21
164.9061297132
  0
LINE
  5
384
100
AcDbEntity
  8
DRAFT
100
AcDbLine
 62
7
  6
CONTINUOUS
 10
159.7620841735
 20
164.9061297132
 11
159.7620841735
 21
163.0645198989
  0
LINE
  5
385
100
AcDbEntity
  8
DRAFT
100
AcDbLine
 62
7
  6
CONTINUOUS
 10
157.453772089
 20
51.2530374686
 11
157.4343671244
 21
50.6361656575
  0
LINE
  5
386
100
AcDbEntity
  8
RACCORDO
100
AcDbLine
 62
250
  6
CONTINUOUS
 10
152.2457575458
 20
41.6186111522
 11
152.2521560197
 21
41.7296258175
  0
LINE
  5
387
100
AcDbEntity
  8
DRAFT
100
AcDbLine
 62
7
  6
CONTINUOUS
 10
155.1813469564
 20
50.4899275666
 11
155.1169234455
 21
49.4248040914
  0
LWPOLYLINE
  5
388
100
AcDbEntity
  8
RACCORDO
100
AcDbPolyline
 62
250
  6
CONTINUOUS
 90
34
 70
0
 10
151.7532873339
 20
41.5826317149
 10
151.7672695888
 20
41.7912358416
 10
151.7828501489
 20
41.9960198658
 10
151.8000172782
 20
42.1969483431
 10
151.8188979762
 20
42.394272212
 10
151.8393378897
 20
42.5876650196
 10
151.8609034113
 20
42.7762232862
 10
151.8835872235
 20
42.959769911
 10
151.9073728117
 20
43.1384099304
 10
151.9318167772
 20
43.3116666322
 10
151.9568686422
 20
43.4792476108
 10
151.9825654452
 20
43.6413934614
 10
152.0085990439
 20
43.7984338179
 10
152.0348803144
 20
43.9499923187
 10
152.0615009606
 20
44.096413195
 10
152.0884254001
 20
44.2391146614
 10
152.1155326458
 20
44.3777203841
 10
152.1429597734
 20
44.5126027237
 10
152.1710547518
 20
44.646304048
 10
152.1997673043
 20
44.7788984714
 10
152.2291594751
 20
44.9103163555
 10
152.2597433854
 20
45.0428785488
 10
152.2915861517
 20
45.1770564225
 10
152.3246307252
 20
45.3123833928
 10
152.359201119
 20
45.4497697263
 10
152.3952438089
 20
45.5892268136
 10
152.4328113642
 20
45.7307840908
 10
152.4723814377
 20
45.8753734857
 10
152.5137500493
 20
46.0225883584
 10
152.5570887135
 20
46.1728417943
 10
152.6034251767
 20
46.3282754689
 10
152.6530732306
 20
46.4895765402
 10
152.7056365229
 20
46.6559782038
 10
152.7610602067
 20
46.8274132985
  0
LWPOLYLINE
  5
389
100
AcDbEntity
  8
RACCORDO
100
AcDbPolyline
 62
250
  6
CONTINUOUS
 90
31
 70
0
 10
152.2521560197
 20
41.7296258175
 10
152.2670736725
 20
41.9508736005
 10
152.2840869722
 20
42.1675120325
 10
152.3030495885
 20
42.3795252674
 10
152.3238615285
 20
42.5872958652
 10
152.3463469358
 20
42.7904172137
 10
152.370213874
 20
42.9876977392
 10
152.3952621658
 20
43.1789065453
 10
152.4213543458
 20
43.3642760602
 10
152.4482499226
 20
43.5433196723
 10
152.4757120431
 20
43.7156205741
 10
152.5036423641
 20
43.8816161985
 10
152.5320230118
 20
44.0421033505
 10
152.5606200642
 20
44.1965500499
 10
152.5894026927
 20
44.3455132606
 10
152.6187390654
 20
44.4914118974
 10
152.6484731514
 20
44.6338269232
 10
152.6786263069
 20
44.7731875691
 10
152.7099682821
 20
44.9131594538
 10
152.7426789985
 20
45.0544310141
 10
152.7766210028
 20
45.1962886594
 10
152.8122005369
 20
45.3402700398
 10
152.8495000068
 20
45.4864784694
 10
152.8885409973
 20
45.6347674275
 10
152.9297003399
 20
45.7862833288
 10
152.9729070291
 20
45.9404643863
 10
153.0183857421
 20
46.0978096167
 10
153.0670536758
 20
46.2610275436
 10
153.1193528384
 20
46.4309713787
 10
153.1751747489
 20
46.6066602273
 10
153.2346862379
 20
46.7880251591
  0
LWPOLYLINE
  5
38A
100
AcDbEntity
  8
RACCORDO
100
AcDbPolyline
 62
7
  6
CONTINUOUS
 90
22
 70
0
 10
152.2748411167
 20
41.0675843956
 10
152.2721561043
 20
41.0309824014
 10
152.2669091235
 20
40.9950312632
 10
152.2591001741
 20
40.959730981
 10
152.2486709305
 20
40.9249089895
 10
152.2356797183
 20
40.8907378541
 10
152.2203015151
 20
40.8577352704
 10
152.202510054
 20
40.825916112
 10
152.1823316017
 20
40.7952655054
 10
152.1600199363
 20
40.7662565252
 10
152.135476941
 20
40.7388671653
 10
152.1088007326
 20
40.7131194317
 10
152.0805394385
 20
40.689552418
 10
152.0506951017
 20
40.6682574503
 10
152.0192656792
 20
40.6491432024
 10
151.9867931703
 20
40.6324747889
 10
151.9533064322
 20
40.6182977536
 10
151.9187766076
 20
40.6065665526
 10
151.8836591237
 20
40.5974096697
 10
151.8481057897
 20
40.5908699326
 10
151.8119647965
 20
40.5869045134
 10
151.7752361441
 20
40.5855134122
  0
LINE
  5
38B
100
AcDbEntity
  8
0
100
AcDbLine
 62
7
  6
CONTINUOUS
 10
173.6530481735
 20
145.8300320487
 11
175.0993521735
 21
150.3294840487
  0
LWPOLYLINE
  5
38C
100
AcDbEntity
  8
0
100
AcDbPolyline
 62
7
  6
CONTINUOUS
 90
10
 70
0
 10
201.215169997
 20
63.6887071008
 10
201.1856090856
 20
63.7085823709
 10
201.1537112517
 20
63.7273570501
 10
201.1194764955
 20
63.7450311384
 10
201.0831819712
 20
63.7616759154
 10
201.0445505245
 20
63.7772201016
 10
201.0027506928
 20
63.7914498577
 10
200.9575053222
 20
63.8042939043
 10
200.9090915666
 20
63.8158235209
 10
200.8575094261
 20
63.8260387076
  0
LWPOLYLINE
  5
38D
100
AcDbEntity
  8
0
100
AcDbPolyline
 62
7
  6
CONTINUOUS
 90
10
 70
0
 10
202.5702615582
 20
61.2832685414
 10
202.5402226996
 20
61.3035589947
 10
202.5116626036
 20
61.3257427723
 10
202.4845812705
 20
61.3498198742
 10
202.4590734068
 20
61.3755435451
 10
202.4350443059
 20
61.4031605403
 10
202.4122098474
 20
61.4334111259
 10
202.3904753247
 20
61.4665420572
 10
202.3699354444
 20
61.5023065787
 10
202.3505902066
 20
61.5407046906
  0
LWPOLYLINE
  5
38E
100
AcDbEntity
  8
0
100
AcDbPolyline
 62
7
  6
CONTINUOUS
 90
10
 70
0
 10
204.8233995257
 20
61.2832683849
 10
204.7933606101
 20
61.3035588755
 10
204.7648004651
 20
61.3257426782
 10
204.7377190909
 20
61.3498197931
 10
204.7122111979
 20
61.3755434625
 10
204.6881820757
 20
61.4031604441
 10
204.6653475924
 20
61.4334110104
 10
204.6436130373
 20
61.4665419192
 10
204.6230731211
 20
61.5023064128
 10
204.6037278439
 20
61.5407044913
  0
LINE
  5
38F
100
AcDbEntity
  8
RACCORDO
100
AcDbLine
 62
250
  6
CONTINUOUS
 10
162.0172542176
 20
50.6533610487
 11
162.0172542176
 21
50.9733224522
  0
LINE
  5
390
100
AcDbEntity
  8
IMPORT_IGES
100
AcDbLine
 62
250
  6
CONTINUOUS
 10
162.7620841735
 20
50.6533610487
 11
162.7620841735
 21
40.3533610487
  0
LINE
  5
391
100
AcDbEntity
  8
DRAFT
100
AcDbLine
 62
7
  6
CONTINUOUS
 10
162.7870841735
 20
50.6533610487
 11
162.7870841735
 21
51.5033610487
  0
LWPOLYLINE
  5
392
100
AcDbEntity
  8
DRAFT
100
AcDbPolyline
 62
7
  6
CONTINUOUS
 90
17
 70
0
 10
153.0876892966
 20
46.1081176761
 10
153.0891014003
 20
46.1176908373
 10
153.0920897731
 20
46.1324001404
 10
153.0966544147
 20
46.15221066
 10
153.102801699
 20
46.1770773325
 10
153.1105252523
 20
46.2069142141
 10
153.1198059533
 20
46.2415738882
 10
153.1306316735
 20
46.2808490273
 10
153.1430145415
 20
46.324633737
 10
153.1569718218
 20
46.3729322718
 10
153.1725465182
 20
46.4257029563
 10
153.1896956269
 20
46.4826751661
 10
153.2083074012
 20
46.5434949768
 10
153.2283575315
 20
46.6077706694
 10
153.2498703273
 20
46.6753699721
 10
153.2728069705
 20
46.7463113337
 10
153.2972599063
 20
46.8205360256
  0
LINE
  5
393
100
AcDbEntity
  8
0
100
AcDbLine
 62
7
  6
CONTINUOUS
 10
174.1607821735
 20
150.3294840487
 11
173.2769051735
 21
147.2323720487
  0
LINE
  5
394
100
AcDbEntity
  8
0
100
AcDbLine
 62
7
  6
CONTINUOUS
 10
180.1059291735
 20
150.3294840487
 11
179.1667181735
 21
147.8313740487
  0
LINE
  5
395
100
AcDbEntity
  8
0
100
AcDbLine
 62
7
  6
CONTINUOUS
 10
179.2274511735
 20
145.8300320487
 11
180.3441741735
 21
148.7558420487
  0
LWPOLYLINE
  5
396
100
AcDbEntity
  8
0
100
AcDbPolyline
 62
7
  6
CONTINUOUS
 90
13
 70
0
 10
203.4641873326
 20
63.6727844181
 10
203.4284733854
 20
63.7020853982
 10
203.391206431
 20
63.7289884712
 10
203.3523864695
 20
63.7534936371
 10
203.3122458576
 20
63.7755726139
 10
203.2705522386
 20
63.7952536835
 10
203.2266085424
 20
63.8126216924
 10
203.1805323018
 20
63.8278232545
 10
203.1322059839
 20
63.8407117558
 10
203.0805799204
 20
63.850932201
 10
203.0253042218
 20
63.8583662584
 10
202.9667287775
 20
63.8631322598
 10
202.9048535877
 20
63.8652302051
  0
LINE
  5
397
100
AcDbEntity
  8
0
100
AcDbLine
 62
7
  6
CONTINUOUS
 10
182.9837251735
 20
147.4233460487
 11
183.4513741735
 21
149.0931490487
  0
LINE
  5
398
100
AcDbEntity
  8
0
100
AcDbLine
 62
7
  6
CONTINUOUS
 10
182.5324411735
 20
145.8300320487
 11
182.7916041735
 21
146.7282830487
  0
LINE
  5
399
100
AcDbEntity
  8
0
100
AcDbLine
 62
7
  6
CONTINUOUS
 10
183.0147331735
 20
150.3294840487
 11
181.6034181735
 21
145.8300320487
  0
LWPOLYLINE
  5
39A
100
AcDbEntity
  8
0
100
AcDbPolyline
 62
7
  6
CONTINUOUS
 90
13
 70
0
 10
205.717325398
 20
63.6727844181
 10
205.6816114507
 20
63.7020853982
 10
205.6443444963
 20
63.7289884712
 10
205.6055245348
 20
63.7534936371
 10
205.565383923
 20
63.7755726139
 10
205.523690304
 20
63.7952536835
 10
205.4797466078
 20
63.8126216924
 10
205.4336703671
 20
63.8278232545
 10
205.3853440492
 20
63.8407117558
 10
205.3337179857
 20
63.850932201
 10
205.2784422871
 20
63.8583662584
 10
205.2198668429
 20
63.8631322598
 10
205.157991653
 20
63.8652302051
  0
LWPOLYLINE
  5
39B
100
AcDbEntity
  8
0
100
AcDbPolyline
 62
7
  6
CONTINUOUS
 90
13
 70
0
 10
203.5279778322
 20
62.5715055786
 10
203.4828154314
 20
62.6154161835
 10
203.4370886969
 20
62.6549850895
 10
203.3907976287
 20
62.6902122967
 10
203.3441619422
 20
62.7208266834
 10
203.296961922
 20
62.7470993713
 10
203.2485384218
 20
62.7698437249
 10
203.1989802036
 20
62.7893026846
 10
203.1481985053
 20
62.8052333101
 10
203.095267894
 20
62.8177201453
 10
203.0398798921
 20
62.8267913717
 10
202.9823429772
 20
62.8324188078
 10
202.9226571493
 20
62.8346024537
  0
LWPOLYLINE
  5
39C
100
AcDbEntity
  8
0
100
AcDbPolyline
 62
7
  6
CONTINUOUS
 90
13
 70
0
 10
205.7811154774
 20
62.5715058376
 10
205.7359530366
 20
62.6154164366
 10
205.6902262818
 20
62.6549853279
 10
205.6439352132
 20
62.6902125115
 10
205.5972995527
 20
62.7208268613
 10
205.5500995783
 20
62.7470995034
 10
205.5016761235
 20
62.7698438165
 10
205.4521179514
 20
62.7893027445
 10
205.4013362989
 20
62.8052333435
 10
205.34840571
 20
62.8177201593
 10
205.2930176994
 20
62.826791374
 10
205.2354807524
 20
62.8324188054
 10
205.175794869
 20
62.8346024537
  0
LWPOLYLINE
  5
39D
100
AcDbEntity
  8
0
100
AcDbPolyline
 62
7
  6
CONTINUOUS
 90
13
 70
0
 10
202.1446658248
 20
61.2298169725
 10
202.1937880472
 20
61.1769742577
 10
202.2444118554
 20
61.1291185681
 10
202.2965372494
 20
61.0862499039
 10
202.3498577757
 20
61.0486449499
 10
202.4046798879
 20
61.0160270213
 10
202.4619229466
 20
60.9875660627
 10
202.5214058237
 20
60.9629309381
 10
202.5833096474
 20
60.9424527836
 10
202.6490971623
 20
60.9262949525
 10
202.7192559501
 20
60.9145118958
 10
202.7932984291
 20
60.9070491626
 10
202.8712245994
 20
60.9039067527
  0
LWPOLYLINE
  5
39E
100
AcDbEntity
  8
0
100
AcDbPolyline
 62
7
  6
CONTINUOUS
 90
13
 70
0
 10
204.3978035445
 20
61.2298169725
 10
204.4469257121
 20
61.1769743132
 10
204.4975494881
 20
61.1291186618
 10
204.5496748724
 20
61.0862500183
 10
204.6029954156
 20
61.0486450626
 10
204.6578175672
 20
61.0160271149
 10
204.7150606756
 20
60.9875661356
 10
204.7745436143
 20
60.9629309919
 10
204.8364475099
 20
60.9424528167
 10
204.90223509
 20
60.9262949692
 10
204.9723939304
 20
60.9145119026
 10
205.0464364553
 20
60.9070491638
 10
205.1243626647
 20
60.9039067527
  0
LINE
  5
39F
100
AcDbEntity
  8
DRAFT
100
AcDbLine
 62
7
  6
CONTINUOUS
 10
203.1620841735
 20
51.1272294223
 11
203.0703962579
 21
51.2530374686
  0
LINE
  5
3A0
100
AcDbEntity
  8
DRAFT
100
AcDbLine
 62
7
  6
CONTINUOUS
 10
174.4526091542
 20
40.3533610487
 11
174.4526091542
 21
40.3338814641
  0
LINE
  5
3A1
100
AcDbEntity
  8
0
100
AcDbLine
 62
7
  6
CONTINUOUS
 10
175.4478961735
 20
150.3297540487
 11
175.4478961735
 21
145.8300320487
  0
LINE
  5
3A2
100
AcDbEntity
  8
0
100
AcDbLine
 62
7
  6
CONTINUOUS
 10
177.7912361735
 20
145.8300320487
 11
177.9939171735
 21
148.7680890487
  0
LINE
  5
3A3
100
AcDbEntity
  8
0
100
AcDbLine
 62
7
  6
CONTINUOUS
 10
177.2989901735
 20
150.3294840487
 11
176.8927151735
 21
145.8300320487
  0
LWPOLYLINE
  5
3A4
100
AcDbEntity
  8
RACCORDO
100
AcDbPolyline
 62
250
  6
CONTINUOUS
 90
16
 70
0
 10
152.7610593139
 20
46.8270126805
 10
152.8456424247
 20
47.0766008248
 10
152.9302503995
 20
47.3180777611
 10
153.0148832382
 20
47.5514008041
 10
153.0997939009
 20
47.7764383661
 10
153.1847294275
 20
47.9932446944
 10
153.2689309384
 20
48.2020607852
 10
153.3523752071
 20
48.4028631759
 10
153.4350854602
 20
48.5956145754
 10
153.5163724974
 20
48.7805401491
 10
153.5962112715
 20
48.9576224113
 10
153.6746268298
 20
49.1268312948
 10
153.751005114
 20
49.2883769977
 10
153.8251414378
 20
49.4423175435
 10
153.8972404875
 20
49.5885581067
 10
153.967302263
 20
49.7270823103
  0
LWPOLYLINE
  5
3A5
100
AcDbEntity
  8
RACCORDO
100
AcDbPolyline
 62
250
  6
CONTINUOUS
 90
16
 70
0
 10
153.2346862379
 20
46.7880251591
 10
153.3167345189
 20
47.0289140428
 10
153.3993387027
 20
47.2617906681
 10
153.4822285638
 20
47.486708996
 10
153.5651495377
 20
47.703735404
 10
153.6478442566
 20
47.9129216099
 10
153.7300515118
 20
48.1143048882
 10
153.8115397532
 20
48.3079568067
 10
153.8920828799
 20
48.4939395913
 10
153.9714396254
 20
48.6722804615
 10
154.0494041153
 20
48.8430533746
 10
154.1257772657
 20
49.006326022
 10
154.2003390271
 20
49.1621184619
 10
154.2728976381
 20
49.3104853105
 10
154.3432910547
 20
49.451514486
 10
154.4113558347
 20
49.5852757603
  0
LWPOLYLINE
  5
3A6
100
AcDbEntity
  8
DRAFT
100
AcDbPolyline
 62
7
  6
CONTINUOUS
 90
3
 70
0
 10
153.2972599063
 20
46.8205360256
 10
153.3501211664
 20
46.976768379
 10
153.3781838632
 20
47.0576011764
  0
LWPOLYLINE
  5
3A7
100
AcDbEntity
  8
DRAFT
100
AcDbPolyline
 62
7
  6
CONTINUOUS
 90
3
 70
0
 10
153.3781838632
 20
47.0576011764
 10
153.4374046062
 20
47.2235290081
 10
153.4684530962
 20
47.3083756055
  0
LWPOLYLINE
  5
3A8
100
AcDbEntity
  8
DRAFT
100
AcDbPolyline
 62
7
  6
CONTINUOUS
 90
3
 70
0
 10
153.4684530962
 20
47.3083756055
 10
153.5326077028
 20
47.4790035332
 10
153.5650895956
 20
47.5633653793
  0
LWPOLYLINE
  5
3A9
100
AcDbEntity
  8
DRAFT
100
AcDbPolyline
 62
7
  6
CONTINUOUS
 90
3
 70
0
 10
153.5650895956
 20
47.5633653793
 10
153.6304901252
 20
47.7287150031
 10
153.6630382485
 20
47.8092376188
  0
LWPOLYLINE
  5
3AA
100
AcDbEntity
  8
0
100
AcDbPolyline
 62
7
  6
CONTINUOUS
 90
10
 70
0
 10
203.2380287231
 20
63.4190930338
 10
203.2544972189
 20
63.4007160433
 10
203.2706954311
 20
63.3787266281
 10
203.2866233595
 20
63.3531247882
 10
203.302385994
 20
63.3242123693
 10
203.3178783448
 20
63.2916875257
 10
203.3327854429
 20
63.2546447204
 10
203.3470022984
 20
63.2127821078
 10
203.3606339012
 20
63.1664015336
 10
203.3736802512
 20
63.1155029976
  0
LWPOLYLINE
  5
3AB
100
AcDbEntity
  8
0
100
AcDbPolyline
 62
7
  6
CONTINUOUS
 90
10
 70
0
 10
205.4911666017
 20
63.4190928646
 10
205.5076350356
 20
63.4007159218
 10
205.5238331907
 20
63.3787265454
 10
205.5397610667
 20
63.3531247355
 10
205.5555236451
 20
63.3242123353
 10
205.5710159446
 20
63.2916875016
 10
205.5859230213
 20
63.254644704
 10
205.6001398939
 20
63.2127820991
 10
205.6137715437
 20
63.1664015303
 10
205.6268179708
 20
63.1155029976
  0
LWPOLYLINE
  5
3AC
100
AcDbEntity
  8
0
100
AcDbPolyline
 62
7
  6
CONTINUOUS
 90
13
 70
0
 10
203.2549900488
 20
62.3459940734
 10
203.2782054899
 20
62.3195474887
 10
203.299727967
 20
62.2912253693
 10
203.31955748
 20
62.2610277153
 10
203.3377174042
 20
62.2292294285
 10
203.3541843642
 20
62.195555607
 10
203.3688882348
 20
62.1591815452
 10
203.3819806113
 20
62.1201794423
 10
203.3933098983
 20
62.0784770991
 10
203.4023511843
 20
62.0330332123
 10
203.408929499
 20
61.9835006808
 10
203.4132198127
 20
61.9302266056
 10
203.4152221256
 20
61.8732109869
  0
LWPOLYLINE
  5
3AD
100
AcDbEntity
  8
0
100
AcDbPolyline
 62
7
  6
CONTINUOUS
 90
13
 70
0
 10
205.5081277685
 20
62.3459940734
 10
205.5313431459
 20
62.3195475627
 10
205.5528655654
 20
62.2912255124
 10
205.5726950269
 20
62.2610279226
 10
205.5908549048
 20
62.2292297013
 10
205.6073218246
 20
62.1955559404
 10
205.6220256634
 20
62.1591819157
 10
205.635118019
 20
62.1201798226
 10
205.6464472935
 20
62.0784774655
 10
205.6554885704
 20
62.0330335345
 10
205.6620668777
 20
61.983500926
 10
205.6663571873
 20
61.9302267434
 10
205.6683594995
 20
61.8732109869
  0
LWPOLYLINE
  5
3AE
100
AcDbEntity
  8
DRAFT
100
AcDbPolyline
 62
7
  6
CONTINUOUS
 90
10
 70
0
 10
206.5046334598
 20
48.5986044213
 10
206.5102450463
 20
48.5894682394
 10
206.518036248
 20
48.5754548422
 10
206.528007065
 20
48.5565025721
 10
206.5402212947
 20
48.532540629
 10
206.5546151396
 20
48.5035702324
 10
206.5709972069
 20
48.469720264
 10
206.5893791509
 20
48.4311494275
 10
206.6097493174
 20
48.3878945336
 10
206.6318813509
 20
48.3399507517
  0
LINE
  5
3AF
100
AcDbEntity
  8
0
100
AcDbLine
 62
7
  6
CONTINUOUS
 10
176.3871081735
 20
145.8300320487
 11
176.3871081735
 21
150.3297540487
  0
LWPOLYLINE
  5
3B0
100
AcDbEntity
  8
0
100
AcDbPolyline
 62
7
  6
CONTINUOUS
 90
4
 70
0
 43
0.3500000006
 10
178.0120909424
 20
176.431907959
 10
178.0120909424
 20
177.2890640259
 10
178.4406599121
 20
177.7176329956
 10
179.0835133667
 20
177.7176329956
  0
LWPOLYLINE
  5
3B1
100
AcDbEntity
  8
DRAFT
100
AcDbPolyline
 62
7
  6
CONTINUOUS
 90
3
 70
0
 10
153.6630382485
 20
47.8092376188
 10
153.7269445903
 20
47.9632209255
 10
153.7574993276
 20
48.0353865103
  0
LWPOLYLINE
  5
3B2
100
AcDbEntity
  8
DRAFT
100
AcDbPolyline
 62
7
  6
CONTINUOUS
 90
3
 70
0
 10
153.7574993276
 20
48.0353865103
 10
153.815545827
 20
48.1691061275
 10
153.8425919616
 20
48.2302924809
  0
LWPOLYLINE
  5
3B3
100
AcDbEntity
  8
DRAFT
100
AcDbPolyline
 62
7
  6
CONTINUOUS
 90
11
 70
0
 10
153.8425919616
 20
48.2302924809
 10
153.8922867454
 20
48.3399502058
 10
153.9144187854
 20
48.3878940085
 10
153.9347889663
 20
48.4311489384
 10
153.9531709318
 20
48.4697198312
 10
153.9695530297
 20
48.5035698695
 10
153.9839469121
 20
48.5325403442
 10
153.9961611791
 20
48.556502373
 10
154.0061320306
 20
48.5754547276
 10
154.0139232666
 20
48.5894681947
 10
154.0195348872
 20
48.5986044213
  0
LINE
  5
3B4
100
AcDbEntity
  8
IMPORT_IGES
100
AcDbLine
 62
250
  6
CONTINUOUS
 10
154.7597887308
 20
48.2571900358
 11
154.7814605208
 21
48.3037282138
  0
LINE
  5
3B5
100
AcDbEntity
  8
IMPORT_IGES
100
AcDbLine
 62
250
  6
CONTINUOUS
 10
154.7814605208
 20
48.3037282138
 11
154.8033219806
 21
48.3498043938
  0
LINE
  5
3B6
100
AcDbEntity
  8
IMPORT_IGES
100
AcDbLine
 62
250
  6
CONTINUOUS
 10
154.8033219806
 20
48.3498043938
 11
154.8253818308
 21
48.3954017407
  0
LWPOLYLINE
  5
3B7
100
AcDbEntity
  8
0
100
AcDbPolyline
 62
7
  6
CONTINUOUS
 90
10
 70
0
 10
201.0473501497
 20
63.3133201385
 10
201.0662560267
 20
63.2845452353
 10
201.0830377398
 20
63.2545434836
 10
201.097695289
 20
63.2233148833
 10
201.1102549302
 20
63.191134709
 10
201.1206904075
 20
63.1577276862
 10
201.1289229527
 20
63.1222679912
 10
201.1349263099
 20
63.0844803494
 10
201.1387267351
 20
63.0446400355
 10
201.1403242283
 20
63.0027470493
  0
LWPOLYLINE
  5
3B8
100
AcDbEntity
  8
0
100
AcDbPolyline
 62
7
  6
CONTINUOUS
 90
10
 70
0
 10
201.4465475782
 20
63.4100545658
 10
201.4242287632
 20
63.4517334117
 10
201.4010872478
 20
63.4905584285
 10
201.3771230321
 20
63.5265296163
 10
201.3523691173
 20
63.559414354
 10
201.3267925022
 20
63.5894452627
 10
201.300294183
 20
63.6173202054
 10
201.2728411584
 20
63.6432718031
 10
201.2444664298
 20
63.6670674349
 10
201.215169997
 20
63.6887071008
  0
LWPOLYLINE
  5
3B9
100
AcDbEntity
  8
RACCORDO
100
AcDbPolyline
 62
250
  6
CONTINUOUS
 90
16
 70
0
 10
206.1128125122
 20
49.5852757603
 10
206.2288928002
 20
49.3556078411
 10
206.3385478262
 20
49.1316317354
 10
206.44202665
 20
48.913512198
 10
206.5395543201
 20
48.7014403964
 10
206.6313893461
 20
48.4955244994
 10
206.7178192152
 20
48.2957880238
 10
206.7990717629
 20
48.1023449193
 10
206.8753596215
 20
47.9153213938
 10
206.94693217
 20
47.7347436723
 10
207.0139946541
 20
47.5607031461
 10
207.0767391159
 20
47.3932998587
 10
207.1353811353
 20
47.2325604464
 10
207.1901095945
 20
47.0785436846
 10
207.2410882439
 20
46.9313416419
 10
207.2884827575
 20
46.7910212224
  0
LWPOLYLINE
  5
3BA
100
AcDbEntity
  8
RACCORDO
100
AcDbPolyline
 62
250
  6
CONTINUOUS
 90
16
 70
0
 10
206.556866084
 20
49.7270823103
 10
206.6754340333
 20
49.4886887345
 10
206.7879187632
 20
49.2565437595
 10
206.8943202735
 20
49.030635941
 10
206.9943827104
 20
48.8108384551
 10
207.0883619279
 20
48.5972538603
 10
207.1770254875
 20
48.3902129974
 10
207.2604009618
 20
48.1897170367
 10
207.3384607782
 20
47.9957358587
 10
207.4118897818
 20
47.8085510138
 10
207.4807126337
 20
47.6281617186
 10
207.5449046727
 20
47.4545370452
 10
207.6050767602
 20
47.2879116489
 10
207.6614325169
 20
47.128352502
 10
207.7137683222
 20
46.9757597532
 10
207.7620841761
 20
46.8301173717
  0
LINE
  5
3BB
100
AcDbEntity
  8
IMPORT_IGES
100
AcDbLine
 62
250
  6
CONTINUOUS
 10
205.6653325634
 20
48.4629158001
 11
205.6876710869
 21
48.4180187498
  0
LINE
  5
3BC
100
AcDbEntity
  8
IMPORT_IGES
100
AcDbLine
 62
250
  6
CONTINUOUS
 10
205.6876710869
 20
48.4180187498
 11
205.7098098751
 21
48.3726412163
  0
LINE
  5
3BD
100
AcDbEntity
  8
IMPORT_IGES
100
AcDbLine
 62
250
  6
CONTINUOUS
 10
205.7098098751
 20
48.3726412163
 11
205.7317569439
 21
48.3267981177
  0
LWPOLYLINE
  5
3BE
100
AcDbEntity
  8
IMPORT_IGES
100
AcDbPolyline
 62
250
  6
CONTINUOUS
 90
3
 70
0
 10
205.7317569439
 20
48.3267981177
 10
205.7535054479
 20
48.2804763639
 10
205.7643109299
 20
48.2571468841
  0
LINE
  5
3BF
100
AcDbEntity
  8
0
100
AcDbLine
 62
7
  6
CONTINUOUS
 10
181.4559371735
 20
145.8300320487
 11
181.0351881735
 21
150.3294840487
  0
LINE
  5
3C0
100
AcDbEntity
  8
0
100
AcDbLine
 62
7
  6
CONTINUOUS
 10
180.3441741735
 20
148.7558420487
 11
180.5371381735
 21
145.8300320487
  0
LINE
  5
3C1
100
AcDbEntity
  8
0
100
AcDbLine
 62
7
  6
CONTINUOUS
 10
185.5796494387
 20
150.2769153583
 11
185.5796494387
 21
145.8300325478
  0
LWPOLYLINE
  5
3C2
100
AcDbEntity
  8
IMPORT_IGES
100
AcDbPolyline
 62
250
  6
CONTINUOUS
 90
3
 70
0
 10
154.8253818308
 20
48.3954017407
 10
154.8476330925
 20
48.4405340609
 10
154.8588357749
 20
48.4629158048
  0
LWPOLYLINE
  5
3C3
100
AcDbEntity
  8
RACCORDO
100
AcDbPolyline
 62
250
  6
CONTINUOUS
 90
28
 70
0
 10
153.967302263
 20
49.7270823103
 10
154.0579912939
 20
49.8957715455
 10
154.153318521
 20
50.0582414092
 10
154.2532839444
 20
50.2144771634
 10
154.3575480706
 20
50.3638072098
 10
154.466450393
 20
50.5068759141
 10
154.5810093919
 20
50.6456471021
 10
154.701837427
 20
50.7810920614
 10
154.8283221385
 20
50.9122246026
 10
154.9596449271
 20
51.038074907
 10
155.0957640421
 20
51.1584991275
 10
155.2367212342
 20
51.2736254906
 10
155.3818231567
 20
51.3828911511
 10
155.5312332078
 20
51.4863123152
 10
155.6847879892
 20
51.5838593458
 10
155.8413039593
 20
51.6749002524
 10
155.9995922298
 20
51.7589873308
 10
156.160841689
 20
51.8365568058
 10
156.3274354594
 20
51.9083033257
 10
156.5001915204
 20
51.9748604069
 10
156.6782918926
 20
52.0355873268
 10
156.8616657616
 20
52.0892678159
 10
157.0511156498
 20
52.1359858063
 10
157.2458390347
 20
52.175651229
 10
157.4433575342
 20
52.2067864135
 10
157.6428450212
 20
52.2288973381
 10
157.8451276228
 20
52.242474153
 10
158.0502053392
 20
52.2475159002
  0
LWPOLYLINE
  5
3C4
100
AcDbEntity
  8
RACCORDO
100
AcDbPolyline
 62
250
  6
CONTINUOUS
 90
28
 70
0
 10
154.4113558347
 20
49.5852757603
 10
154.4915132547
 20
49.733812028
 10
154.5765552165
 20
49.8770079275
 10
154.6661039496
 20
50.0147637814
 10
154.7592551745
 20
50.1462817181
 10
154.8561192472
 20
50.2722696356
 10
154.9580989029
 20
50.3947286179
 10
155.065777872
 20
50.514187154
 10
155.1783873451
 20
50.6296253106
 10
155.2955029902
 20
50.7405679407
 10
155.4168598126
 20
50.846764869
 10
155.5423522417
 20
50.9481250933
 10
155.6717485321
 20
51.0444589964
 10
155.8049586998
 20
51.1356895072
 10
155.9416686386
 20
51.2215920923
 10
156.0812701501
 20
51.3018175119
 10
156.2225032825
 20
51.3757803005
 10
156.3661023136
 20
51.4439987784
 10
156.5145690917
 20
51.5075285116
 10
156.6685752735
 20
51.5662814688
 10
156.8272162048
 20
51.6195351879
 10
156.9907584191
 20
51.667024801
 10
157.1596438988
 20
51.7084535185
 10
157.3330473091
 20
51.7431910288
 10
157.5092665066
 20
51.7706029025
 10
157.687509391
 20
51.7904014334
 10
157.8679355829
 20
51.8024407248
 10
158.0502053392
 20
51.8065010791
  0
LWPOLYLINE
  5
3C5
100
AcDbEntity
  8
IMPORT_IGES
100
AcDbPolyline
 62
250
  6
CONTINUOUS
 90
10
 70
0
 10
154.8588357749
 20
48.4629158048
 10
154.9362850075
 20
48.6038608494
 10
155.0198980693
 20
48.7427474344
 10
155.1103481603
 20
48.8786552046
 10
155.2089119862
 20
49.0110861223
 10
155.3154752139
 20
49.1391534553
 10
155.4284033335
 20
49.2616944035
 10
155.5469329383
 20
49.3783294188
 10
155.6713004798
 20
49.4892922368
 10
155.8010070732
 20
49.5946449874
  0
LWPOLYLINE
  5
3C6
100
AcDbEntity
  8
DRAFT
100
AcDbPolyline
 62
7
  6
CONTINUOUS
 90
3
 70
0
 10
206.6318813509
 20
48.3399507517
 10
206.6815761488
 20
48.2302930127
 10
206.708622297
 20
48.1691066342
  0
LWPOLYLINE
  5
3C7
100
AcDbEntity
  8
IMPORT_IGES
100
AcDbPolyline
 62
250
  6
CONTINUOUS
 90
26
 70
0
 10
205.7643108202
 20
48.2571468152
 10
205.8404583562
 20
48.0854726232
 10
205.9128057996
 20
47.9120910612
 10
205.9812676007
 20
47.7371222887
 10
206.0447646194
 20
47.5633350746
 10
206.1042285611
 20
47.3881901874
 10
206.1624404559
 20
47.2039063322
 10
206.2206705809
 20
47.0055674945
 10
206.2770360792
 20
46.7985386886
 10
206.3296035037
 20
46.5904327159
 10
206.3769806025
 20
46.3866084407
 10
206.420415418
 20
46.1818980889
 10
206.4619001348
 20
45.9681428338
 10
206.5020120346
 20
45.7401276164
 10
206.5393017169
 20
45.503695146
 10
206.5727666908
 20
45.2672222103
 10
206.6014600106
 20
45.0366886745
 10
206.6262222527
 20
44.8062255885
 10
206.6486974143
 20
44.5664406278
 10
206.6687504826
 20
44.3115538238
 10
206.6853430632
 20
44.048131017
 10
206.6988487867
 20
43.7852097469
 10
206.708858787
 20
43.5285323629
 10
206.7157831852
 20
43.2723161205
 10
206.7213445191
 20
43.0081844995
 10
206.725089342
 20
42.7310202585
  0
LWPOLYLINE
  5
3C8
100
AcDbEntity
  8
DRAFT
100
AcDbPolyline
 62
7
  6
CONTINUOUS
 90
3
 70
0
 10
206.708622297
 20
48.1691066342
 10
206.7666688291
 20
48.0353869558
 10
206.7972235851
 20
47.9632213329
  0
LWPOLYLINE
  5
3C9
100
AcDbEntity
  8
0
100
AcDbPolyline
 62
7
  6
CONTINUOUS
 90
10
 70
0
 10
202.3505902066
 20
61.5407046906
 10
202.3345636537
 20
61.5778774271
 10
202.3204091028
 20
61.61552463
 10
202.3081265541
 20
61.6536462991
 10
202.2977132879
 20
61.6922182652
 10
202.2891720238
 20
61.7312646975
 10
202.2825109205
 20
61.7708581047
 10
202.2777326975
 20
61.8110226562
 10
202.2748346353
 20
61.8517341825
 10
202.2738167339
 20
61.8929926837
  0
LWPOLYLINE
  5
3CA
100
AcDbEntity
  8
DRAFT
100
AcDbPolyline
 62
7
  6
CONTINUOUS
 90
3
 70
0
 10
206.7972235851
 20
47.9632213329
 10
206.8611299664
 20
47.8092379423
 10
206.8936781112
 20
47.7287152783
  0
LWPOLYLINE
  5
3CB
100
AcDbEntity
  8
DRAFT
100
AcDbPolyline
 62
7
  6
CONTINUOUS
 90
6
 70
0
 10
206.8936781112
 20
47.7287152783
 10
206.9590786876
 20
47.5633655433
 10
206.9915606046
 20
47.4790036367
 10
207.0237867838
 20
47.3938139386
 10
207.0557152602
 20
47.3083755799
 10
207.086763773
 20
47.2235289193
  0
LINE
  5
3CC
100
AcDbEntity
  8
0
100
AcDbLine
 62
7
  6
CONTINUOUS
 10
173.2769051735
 20
147.2323720487
 11
172.4192281735
 21
150.3294840487
  0
LWPOLYLINE
  5
3CD
100
AcDbEntity
  8
0
100
AcDbPolyline
 62
7
  6
CONTINUOUS
 90
37
 70
0
 10
187.7502694544
 20
149.0269834662
 10
187.7503313324
 20
148.9916019744
 10
187.7492637664
 20
148.957008637
 10
187.7470667564
 20
148.9232038569
 10
187.7437796709
 20
148.8902220018
 10
187.7393631415
 20
148.8580294848
 10
187.7336990622
 20
148.8265247152
 10
187.7267917732
 20
148.7956565627
 10
187.7186369344
 20
148.765476763
 10
187.7091034198
 20
148.7360379873
 10
187.6981551491
 20
148.7073401179
 10
187.6858282025
 20
148.6793838808
 10
187.6720996949
 20
148.6522232405
 10
187.6569345142
 20
148.6258175765
 10
187.6403677724
 20
148.600208089
 10
187.6224819203
 20
148.5755715376
 10
187.6032740459
 20
148.5518807335
 10
187.5827470613
 20
148.5291634952
 10
187.5609921534
 20
148.5076792084
 10
187.5379164319
 20
148.4874560063
 10
187.5136127873
 20
148.468466442
 10
187.4884510778
 20
148.4508866184
 10
187.4624710655
 20
148.4348303485
 10
187.4356329883
 20
148.4201844548
 10
187.4081874182
 20
148.406784526
 10
187.3802431067
 20
148.3946495548
 10
187.3516913023
 20
148.3837609621
 10
187.3224563224
 20
148.3738978862
 10
187.2925758624
 20
148.3650228302
 10
187.2620122268
 20
148.3571735349
 10
187.2305766473
 20
148.3502419331
 10
187.1983019413
 20
148.3441898511
 10
187.1651552914
 20
148.3390556128
 10
187.130849477
 20
148.3348458707
 10
187.095288758
 20
148.3315628717
 10
187.0585688746
 20
148.3292044572
 10
187.0206898268
 20
148.3277706548
  0
LINE
  5
3CE
100
AcDbEntity
  8
DRAFT
100
AcDbLine
 62
7
  6
CONTINUOUS
 10
186.0715591928
 20
40.3533610487
 11
186.0715591928
 21
40.3338814641
  0
LINE
  5
3CF
100
AcDbEntity
  8
0
100
AcDbLine
 62
7
  6
CONTINUOUS
 10
186.4839394816
 20
148.3277706548
 11
186.4839394816
 21
149.5629577706
  0
LINE
  5
3D0
100
AcDbEntity
  8
0
100
AcDbLine
 62
7
  6
CONTINUOUS
 10
186.5150823386
 20
145.8300325478
 11
186.5150823386
 21
147.5908692505
  0
LINE
  5
3D1
100
AcDbEntity
  8
0
100
AcDbLine
 62
7
  6
CONTINUOUS
 10
187.9943174332
 20
147.9303365137
 11
187.9943174332
 21
147.9569243482
  0
LWPOLYLINE
  5
3D2
100
AcDbEntity
  8
0
100
AcDbPolyline
 62
7
  6
CONTINUOUS
 90
10
 70
0
 10
204.6037278439
 20
61.5407044913
 10
204.5877014849
 20
61.5778766157
 10
204.5735470838
 20
61.6155233506
 10
204.5612646408
 20
61.6536446961
 10
204.5508514261
 20
61.6922164634
 10
204.5423101694
 20
61.7312628413
 10
204.5356490595
 20
61.7708563956
 10
204.5308708259
 20
61.8110213151
 10
204.5279727392
 20
61.8517334111
 10
204.5269547992
 20
61.8929926837
  0
LWPOLYLINE
  5
3D3
100
AcDbEntity
  8
DRAFT
100
AcDbPolyline
 62
7
  6
CONTINUOUS
 90
3
 70
0
 10
207.086763773
 20
47.2235289193
 10
207.1459845549
 20
47.0576009733
 10
207.1740472684
 20
46.9767681239
  0
LWPOLYLINE
  5
3D4
100
AcDbEntity
  8
DRAFT
100
AcDbPolyline
 62
7
  6
CONTINUOUS
 90
18
 70
0
 10
207.1740472684
 20
46.9767681239
 10
207.2269085554
 20
46.8205356807
 10
207.2513615025
 20
46.7463109476
 10
207.2742981565
 20
46.6753695447
 10
207.2958109619
 20
46.6077702043
 10
207.3158610993
 20
46.54349448
 10
207.3344728788
 20
46.482674641
 10
207.3516219902
 20
46.4257024112
 10
207.3671966841
 20
46.3729317274
 10
207.3811539553
 20
46.3246332123
 10
207.3935368089
 20
46.280848538
 10
207.4043625116
 20
46.2415734547
 10
207.4136431905
 20
46.2069138504
 10
207.4213667184
 20
46.1770770471
 10
207.4275139799
 20
46.1522104607
 10
207.4320786031
 20
46.1324000259
 10
207.43506696
 20
46.1176907928
 10
207.4364790504
 20
46.1081176761
  0
LWPOLYLINE
  5
3D5
100
AcDbEntity
  8
RACCORDO
100
AcDbPolyline
 62
250
  6
CONTINUOUS
 90
31
 70
0
 10
207.2884827575
 20
46.7910212224
 10
207.3369404289
 20
46.6438780855
 10
207.3840377412
 20
46.497034461
 10
207.4297872899
 20
46.3505041464
 10
207.4742254126
 20
46.2042214247
 10
207.5173399745
 20
46.0582785453
 10
207.5590763842
 20
45.9129274687
 10
207.5995133973
 20
45.7679613072
 10
207.638605489
 20
45.6236144187
 10
207.676137299
 20
45.4808070478
 10
207.7118016771
 20
45.3409341757
 10
207.7460016178
 20
45.202641567
 10
207.7795377266
 20
45.0627132302
 10
207.8123895369
 20
44.9211046344
 10
207.8445129247
 20
44.7778613053
 10
207.8765350493
 20
44.629871299
 10
207.9085169666
 20
44.4763172824
 10
207.9401731673
 20
44.3179893748
 10
207.9715203963
 20
44.1541701793
 10
208.0024582521
 20
43.984666437
 10
208.0328136032
 20
43.8096473049
 10
208.0624659312
 20
43.6289375061
 10
208.0912579653
 20
43.4425710408
 10
208.1190406798
 20
43.2505003467
 10
208.1456859346
 20
43.0524294438
 10
208.1709967474
 20
42.8485509675
 10
208.1948204209
 20
42.638672365
 10
208.2170512785
 20
42.4219205775
 10
208.2374933557
 20
42.1980085531
 10
208.2558912507
 20
41.9672386774
 10
208.2720123272
 20
41.7296258195
  0
LWPOLYLINE
  5
3D6
100
AcDbEntity
  8
RACCORDO
100
AcDbPolyline
 62
250
  6
CONTINUOUS
 90
34
 70
0
 10
207.7620832858
 20
46.8305160334
 10
207.8072848937
 20
46.6918033217
 10
207.8513846126
 20
46.5532912928
 10
207.894357952
 20
46.4150163781
 10
207.9361591809
 20
46.2769728306
 10
207.9767902371
 20
46.1392221954
 10
208.01630123
 20
46.00189192
 10
208.0547489513
 20
45.8646823241
 10
208.0920472189
 20
45.7279041464
 10
208.1280360109
 20
45.5925867803
 10
208.1625007227
 20
45.4596230104
 10
208.1956450272
 20
45.3280802916
 10
208.2279442378
 20
45.1962513
 10
208.2593935882
 20
45.0644619975
 10
208.2900095806
 20
44.9323747032
 10
208.3203046683
 20
44.7972905937
 10
208.350440741
 20
44.6588082036
 10
208.3802731667
 20
44.5173126261
 10
208.4098579743
 20
44.3712797651
 10
208.4393190062
 20
44.2202996531
 10
208.4685543113
 20
44.0647767049
 10
208.4972817874
 20
43.9044132297
 10
208.5255159189
 20
43.739184681
 10
208.5532507148
 20
43.5691528736
 10
208.5801683157
 20
43.3941581889
 10
208.6062657447
 20
43.2143001311
 10
208.6315289026
 20
43.0295359165
 10
208.6556196742
 20
42.839499842
 10
208.6785354681
 20
42.6443760115
 10
208.7002524817
 20
42.4440595875
 10
208.7203973739
 20
42.237760739
 10
208.7388342744
 20
42.0252511935
 10
208.7556669602
 20
41.8068587102
 10
208.7708810129
 20
41.5826317187
  0
LINE
  5
3D7
100
AcDbEntity
  8
0
100
AcDbLine
 62
7
  6
CONTINUOUS
 10
171.3989531735
 20
150.3294840487
 11
172.8253671735
 21
145.8300320487
  0
LINE
  5
3D8
100
AcDbEntity
  8
DRAFT
100
AcDbLine
 62
7
  6
CONTINUOUS
 10
157.3620841735
 20
51.1272294223
 11
157.453772089
 21
51.2530374686
  0
LWPOLYLINE
  5
3D9
100
AcDbEntity
  8
0
100
AcDbPolyline
 62
7
  6
CONTINUOUS
 90
3
 70
0
 43
0.3500000006
 10
231.5943061523
 20
100.0930194397
 10
231.8085906372
 20
100.0215882568
 10
232.0943153687
 20
99.8787349548
  0
LINE
  5
3DA
100
AcDbEntity
  8
0
100
AcDbLine
 62
7
  6
CONTINUOUS
 10
177.9939171735
 20
148.7680890487
 11
179.0957271735
 21
145.8300320487
  0
LINE
  5
3DB
100
AcDbEntity
  8
0
100
AcDbLine
 62
7
  6
CONTINUOUS
 10
179.1667181735
 20
147.8313740487
 11
178.2374251735
 21
150.3294840487
  0
LINE
  5
3DC
100
AcDbEntity
  8
0
100
AcDbLine
 62
7
  6
CONTINUOUS
 10
184.0706551735
 20
146.7282830487
 11
184.3139601735
 21
145.8300320487
  0
LINE
  5
3DD
100
AcDbEntity
  8
0
100
AcDbLine
 62
7
  6
CONTINUOUS
 10
183.4513741735
 20
149.0931490487
 11
183.8829541735
 21
147.4233460487
  0
LWPOLYLINE
  5
3DE
100
AcDbEntity
  8
0
100
AcDbPolyline
 62
7
  6
CONTINUOUS
 90
10
 70
0
 10
201.53595851
 20
63.0146162057
 10
201.5345931286
 20
63.0639903891
 10
201.5310575593
 20
63.1119107518
 10
201.5253518022
 20
63.1583772939
 10
201.5174386622
 20
63.2032637839
 10
201.5073553343
 20
63.2466964532
 10
201.4952134034
 20
63.2890539966
 10
201.4810500646
 20
63.3304626456
 10
201.4648281229
 20
63.3707961687
 10
201.4465475782
 20
63.4100545658
  0
LWPOLYLINE
  5
3DF
100
AcDbEntity
  8
0
100
AcDbPolyline
 62
7
  6
CONTINUOUS
 90
13
 70
0
 10
201.8643351608
 20
62.31038697
 10
201.868499081
 20
62.1589871642
 10
201.8769694425
 20
62.0203953415
 10
201.8897462452
 20
61.8946115021
 10
201.9073792459
 20
61.7826830291
 10
201.9293186879
 20
61.6835625394
 10
201.9539153006
 20
61.5941078833
 10
201.9809649271
 20
61.5141702399
 10
202.0106717245
 20
61.44389843
 10
202.0419988929
 20
61.3805967671
 10
202.0746008325
 20
61.3233666887
 10
202.1088231431
 20
61.2731067572
 10
202.1446658248
 20
61.2298169725
  0
LINE
  5
3E0
100
AcDbEntity
  8
DRAFT
100
AcDbLine
 62
7
  6
CONTINUOUS
 10
197.7370841735
 20
51.5033610487
 11
197.7370841735
 21
50.6533610487
  0
LINE
  5
3E1
100
AcDbEntity
  8
IMPORT_IGES
100
AcDbLine
 62
250
  6
CONTINUOUS
 10
197.7620841735
 20
40.3533610487
 11
197.7620841735
 21
50.6533610487
  0
LINE
  5
3E2
100
AcDbEntity
  8
0
100
AcDbLine
 62
7
  6
CONTINUOUS
 10
198.2620841899
 20
63.8533610487
 11
198.2620841899
 21
60.9533610487
  0
LINE
  5
3E3
100
AcDbEntity
  8
RACCORDO
100
AcDbLine
 62
250
  6
CONTINUOUS
 10
198.5069141293
 20
50.9733224522
 11
198.5069141293
 21
50.6533610487
  0
LINE
  5
3E4
100
AcDbEntity
  8
0
100
AcDbLine
 62
7
  6
CONTINUOUS
 10
198.6458495312
 20
60.9533610487
 11
198.6458495312
 21
63.8533610487
  0
LINE
  5
3E5
100
AcDbEntity
  8
0
100
AcDbLine
 62
7
  6
CONTINUOUS
 10
199.3223842703
 20
63.8533610487
 11
199.3223842703
 21
60.9533610487
  0
LINE
  5
3E6
100
AcDbEntity
  8
0
100
AcDbLine
 62
7
  6
CONTINUOUS
 10
199.7061496549
 20
60.9533610487
 11
199.7061496549
 21
62.132351526
  0
LINE
  5
3E7
100
AcDbEntity
  8
0
100
AcDbLine
 62
7
  6
CONTINUOUS
 10
199.7061496549
 20
62.4745752955
 11
199.7061496549
 21
63.5111372793
  0
LINE
  5
3E8
100
AcDbEntity
  8
ASSI
100
AcDbLine
 62
7
  6
CONTINUOUS
 10
200.7620841735
 20
165.2533356319
 11
200.7620841735
 21
164.9061297132
  0
LINE
  5
3E9
100
AcDbEntity
  8
DRAFT
100
AcDbLine
 62
7
  6
CONTINUOUS
 10
200.7620841735
 20
164.9061297132
 11
200.7620841735
 21
163.0645198989
  0
LINE
  5
3EA
100
AcDbEntity
  8
RACCORDO
100
AcDbLine
 62
7
  6
CONTINUOUS
 10
201.1620841735
 20
163.9393438463
 11
201.1620841735
 21
163.0610833732
  0
LINE
  5
3EB
100
AcDbEntity
  8
0
100
AcDbLine
 62
7
  6
CONTINUOUS
 10
185.3038511735
 20
145.8300320487
 11
183.9233081735
 21
150.3294840487
  0
LINE
  5
3EC
100
AcDbEntity
  8
0
100
AcDbLine
 62
7
  6
CONTINUOUS
 10
187.6734849274
 20
146.7831271988
 11
187.843758127
 21
146.2086597613
  0
LWPOLYLINE
  5
3ED
100
AcDbEntity
  8
0
100
AcDbPolyline
 62
7
  6
CONTINUOUS
 90
23
 70
0
 10
188.4863293253
 20
147.2282252026
 10
188.4759267382
 20
147.2636428721
 10
188.4651004687
 20
147.2989684019
 10
188.4538476771
 20
147.3341824715
 10
188.4418168967
 20
147.3693831689
 10
188.4290181915
 20
147.4045936149
 10
188.4154414975
 20
147.4397906426
 10
188.4007051553
 20
147.47500286
 10
188.3847719432
 20
147.5103255851
 10
188.367679083
 20
147.5456634116
 10
188.3491565804
 20
147.5807589533
 10
188.3291723522
 20
147.6156929224
 10
188.3077584817
 20
147.6503847289
 10
188.2847412248
 20
147.6843353354
 10
188.2601924351
 20
147.7175565533
 10
188.234040259
 20
147.7500371013
 10
188.2058953915
 20
147.7812436987
 10
188.1756311615
 20
147.8113825446
 10
188.1433742402
 20
147.8402482759
 10
188.1091153359
 20
147.8666908382
 10
188.0728513514
 20
147.8903275262
 10
188.0345853838
 20
147.9115425482
 10
187.9943174332
 20
147.9303365137
  0
LINE
  5
3EE
100
AcDbEntity
  8
0
100
AcDbLine
 62
7
  6
CONTINUOUS
 10
187.843758127
 20
146.2086597613
 11
187.9533559723
 21
145.8300325478
  0
LINE
  5
3EF
100
AcDbEntity
  8
0
100
AcDbLine
 62
7
  6
CONTINUOUS
 10
188.5061978805
 20
147.1568992013
 11
188.4863293253
 21
147.2282252026
  0
LINE
  5
3F0
100
AcDbEntity
  8
0
100
AcDbLine
 62
7
  6
CONTINUOUS
 10
188.5259607677
 20
147.0843980217
 11
188.5061978805
 21
147.1568992013
  0
LINE
  5
3F1
100
AcDbEntity
  8
0
100
AcDbLine
 62
7
  6
CONTINUOUS
 10
188.6469999667
 20
146.6305605968
 11
188.5259607677
 21
147.0843980217
  0
LINE
  5
3F2
100
AcDbEntity
  8
0
100
AcDbLine
 62
7
  6
CONTINUOUS
 10
188.8567687517
 20
145.8300325478
 11
188.6469999667
 21
146.6305605968
  0
LWPOLYLINE
  5
3F3
100
AcDbEntity
  8
0
100
AcDbPolyline
 62
7
  6
CONTINUOUS
 90
13
 70
0
 10
203.7277730041
 20
63.1431974077
 10
203.7174140309
 20
63.2054391446
 10
203.7048814442
 20
63.263779991
 10
203.690175244
 20
63.3182199469
 10
203.6732202782
 20
63.3683509275
 10
203.6540916989
 20
63.4145810176
 10
203.6330149622
 20
63.4581344717
 10
203.6101358431
 20
63.4991567794
 10
203.5853085665
 20
63.537502451
 10
203.5583212641
 20
63.5739592722
 10
203.5291033128
 20
63.608789838
 10
203.4977253357
 20
63.6417315533
 10
203.4641873326
 20
63.6727844181
  0
LWPOLYLINE
  5
3F4
100
AcDbEntity
  8
0
100
AcDbPolyline
 62
7
  6
CONTINUOUS
 90
13
 70
0
 10
205.9809110694
 20
63.1431974077
 10
205.9705520962
 20
63.2054391446
 10
205.9580195095
 20
63.263779991
 10
205.9433133093
 20
63.3182199469
 10
205.9263583435
 20
63.3683509275
 10
205.9072297643
 20
63.4145810176
 10
205.8861530276
 20
63.4581344717
 10
205.8632739084
 20
63.4991567794
 10
205.8384466319
 20
63.537502451
 10
205.8114593294
 20
63.5739592722
 10
205.7822413782
 20
63.608789838
 10
205.750863401
 20
63.6417315533
 10
205.717325398
 20
63.6727844181
  0
LINE
  5
3F5
100
AcDbEntity
  8
DRAFT
100
AcDbLine
 62
7
  6
CONTINUOUS
 10
205.3428213905
 20
50.4899275666
 11
205.4072449082
 21
49.424803979
  0
LINE
  5
3F6
100
AcDbEntity
  8
RACCORDO
100
AcDbLine
 62
250
  6
CONTINUOUS
 10
208.2720123272
 20
41.7296258195
 11
208.2776789298
 21
41.6322474171
  0
LINE
  5
3F7
100
AcDbEntity
  8
RACCORDO
100
AcDbLine
 62
250
  6
CONTINUOUS
 10
208.2776789298
 20
41.6322474171
 11
208.282314558
 21
41.5413817129
  0
LINE
  5
3F8
100
AcDbEntity
  8
RACCORDO
100
AcDbLine
 62
250
  6
CONTINUOUS
 10
208.282314558
 20
41.5413817129
 11
208.2860035827
 21
41.4571606892
  0
LWPOLYLINE
  5
3F9
100
AcDbEntity
  8
0
100
AcDbPolyline
 62
7
  6
CONTINUOUS
 90
13
 70
0
 10
203.7792058997
 20
61.8949709052
 10
203.7765035641
 20
61.9699337424
 10
203.7703461419
 20
62.0408629237
 10
203.7607336333
 20
62.1077584493
 10
203.7475291266
 20
62.1701819183
 10
203.7308695335
 20
62.2285717315
 10
203.7111655884
 20
62.2842430908
 10
203.6886228754
 20
62.3373495281
 10
203.6630358103
 20
62.3877375114
 10
203.6341983753
 20
62.4362616475
 10
203.6020418976
 20
62.4832068051
 10
203.5666350499
 20
62.5282881155
 10
203.5279778322
 20
62.5715055786
  0
LWPOLYLINE
  5
3FA
100
AcDbEntity
  8
0
100
AcDbPolyline
 62
7
  6
CONTINUOUS
 90
13
 70
0
 10
206.0323432737
 20
61.8949709052
 10
206.0296409186
 20
61.9699341158
 10
206.0234834837
 20
62.0408635787
 10
206.0138709691
 20
62.1077592939
 10
206.0006664614
 20
62.1701828417
 10
205.9840068739
 20
62.2285726418
 10
205.9643029466
 20
62.2842439534
 10
205.9417602688
 20
62.337350316
 10
205.9161732512
 20
62.3877381901
 10
205.887335866
 20
62.4362622153
 10
205.8551794374
 20
62.4832072716
 10
205.8197726412
 20
62.528288479
 10
205.7811154774
 20
62.5715058376
  0
LINE
  5
3FB
100
AcDbEntity
  8
RACCORDO
100
AcDbLine
 62
250
  6
CONTINUOUS
 10
208.2860035827
 20
41.4571606892
 11
208.2888241332
 21
41.3797675178
  0
LINE
  5
3FC
100
AcDbEntity
  8
DRAFT
100
AcDbLine
 62
7
  6
CONTINUOUS
 10
203.0703962579
 20
51.2530374686
 11
203.0898012198
 21
50.6361657442
  0
LWPOLYLINE
  5
3FD
100
AcDbEntity
  8
0
100
AcDbPolyline
 62
7
  6
CONTINUOUS
 90
13
 70
0
 10
204.1174732261
 20
62.31038697
 10
204.1216371275
 20
62.1589871598
 10
204.1301074645
 20
62.0203953328
 10
204.1428842369
 20
61.8946114889
 10
204.1605171988
 20
61.7826830108
 10
204.1824565962
 20
61.6835625159
 10
204.2070531674
 20
61.5941078564
 10
204.2341027579
 20
61.5141702118
 10
204.2638095222
 20
61.4438984027
 10
204.2951366628
 20
61.3805967428
 10
204.3277385804
 20
61.3233666701
 10
204.3619608743
 20
61.2731067467
 10
204.3978035445
 20
61.2298169725
  0
LINE
  5
3FE
100
AcDbEntity
  8
DRAFT
100
AcDbLine
 62
7
  6
CONTINUOUS
 10
205.5085814585
 20
49.2998482583
 11
205.5054905849
 21
50.3115340758
  0
LINE
  5
3FF
100
AcDbEntity
  8
DRAFT
100
AcDbLine
 62
7
  6
CONTINUOUS
 10
201.8235077624
 20
50.6533610487
 11
201.8235077624
 21
50.8508205857
  0
LINE
  5
400
100
AcDbEntity
  8
RACCORDO
100
AcDbLine
 62
250
  6
CONTINUOUS
 10
202.4739630077
 20
52.2475159002
 11
202.4739630077
 21
51.7033610487
  0
LINE
  5
401
100
AcDbEntity
  8
DRAFT
100
AcDbLine
 62
7
  6
CONTINUOUS
 10
203.1620841735
 20
50.6273992321
 11
203.1620841735
 21
51.1272294223
  0
LINE
  5
402
100
AcDbEntity
  8
DRAFT
100
AcDbLine
 62
7
  6
CONTINUOUS
 10
204.3620841735
 20
50.2562236025
 11
204.3620841735
 21
51.1272294223
  0
LINE
  5
403
100
AcDbEntity
  8
DRAFT
100
AcDbLine
 62
7
  6
CONTINUOUS
 10
205.7006605846
 20
50.0658039767
 11
205.7006605846
 21
49.0269863328
  0
LINE
  5
404
100
AcDbEntity
  8
DRAFT
100
AcDbLine
 62
7
  6
CONTINUOUS
 10
202.0197221021
 20
50.6533610487
 11
202.0210813095
 21
51.0982484856
  0
LWPOLYLINE
  5
405
100
AcDbEntity
  8
0
100
AcDbPolyline
 62
7
  6
CONTINUOUS
 90
10
 70
0
 10
202.2184279137
 20
62.4488590205
 10
202.2211523717
 20
62.5545297433
 10
202.2261610162
 20
62.6520020499
 10
202.233453847
 20
62.7412759403
 10
202.2432666179
 20
62.8217991629
 10
202.2553635753
 20
62.8941239694
 10
202.269037458
 20
62.9599071145
 10
202.2840525126
 20
63.0197008499
 10
202.3006444927
 20
63.0729529238
 10
202.3188133982
 20
63.1196633365
  0
LWPOLYLINE
  5
406
100
AcDbEntity
  8
0
100
AcDbPolyline
 62
7
  6
CONTINUOUS
 90
10
 70
0
 10
204.4715656333
 20
62.4488590205
 10
204.4742900916
 20
62.5545297667
 10
204.4792987402
 20
62.6520020887
 10
204.4865915793
 20
62.7412759865
 10
204.4964043621
 20
62.8217992076
 10
204.5085013354
 20
62.8941240045
 10
204.5221752385
 20
62.9599071341
 10
204.5371903182
 20
63.0197008488
 10
204.5537823279
 20
63.0729528962
 10
204.5719512675
 20
63.1196632764
  0
LINE
  5
407
100
AcDbEntity
  8
DRAFT
100
AcDbLine
 62
7
  6
CONTINUOUS
 10
204.4514537971
 20
51.1793404029
 11
204.4214438218
 21
50.2253418707
  0
LWPOLYLINE
  5
408
100
AcDbEntity
  8
0
100
AcDbPolyline
 62
7
  6
CONTINUOUS
 90
13
 70
0
 10
203.4152221256
 20
61.8732109869
 10
203.4131983962
 20
61.8141021879
 10
203.4088623714
 20
61.7588109751
 10
203.4022140512
 20
61.7073373483
 10
203.3930818855
 20
61.6600486369
 10
203.3816374244
 20
61.6165775116
 10
203.3683953184
 20
61.5758219847
 10
203.3535001743
 20
61.5376883758
 10
203.3368073853
 20
61.5022703652
 10
203.3183977808
 20
61.4687470062
 10
203.2982983039
 20
61.4368446498
 10
203.2764820115
 20
61.4068369449
 10
203.2529489035
 20
61.3787238915
  0
LWPOLYLINE
  5
409
100
AcDbEntity
  8
0
100
AcDbPolyline
 62
7
  6
CONTINUOUS
 90
13
 70
0
 10
202.2738167339
 20
61.8929926837
 10
202.2757052463
 20
61.9446295878
 10
202.2799202938
 20
61.9932859756
 10
202.2864618764
 20
62.038961847
 10
202.2954451028
 20
62.0813488746
 10
202.3067548643
 20
62.1207553859
 10
202.320045835
 20
62.1581063627
 10
202.335175263
 20
62.1935030458
 10
202.3522859001
 20
62.2268441944
 10
202.3714606759
 20
62.2587510691
 10
202.3927272334
 20
62.2894307565
 10
202.4160579296
 20
62.3186761699
 10
202.4414527644
 20
62.3464873093
  0
LWPOLYLINE
  5
40A
100
AcDbEntity
  8
0
100
AcDbPolyline
 62
7
  6
CONTINUOUS
 90
13
 70
0
 10
204.5269547992
 20
61.8929926837
 10
204.5288433107
 20
61.9446297092
 10
204.5330583544
 20
61.9932861931
 10
204.5395999303
 20
62.0389621354
 10
204.5485831489
 20
62.0813492079
 10
204.5598928998
 20
62.1207557389
 10
204.5731838512
 20
62.1581067128
 10
204.5883132494
 20
62.1935033659
 10
204.6054238483
 20
62.226844462
 10
204.6245985781
 20
62.2587512768
 10
204.6458650824
 20
62.2894309023
 10
204.6691957177
 20
62.3186762464
 10
204.694590484
 20
62.3464873093
  0
LWPOLYLINE
  5
40B
100
AcDbEntity
  8
0
100
AcDbPolyline
 62
7
  6
CONTINUOUS
 90
13
 70
0
 10
201.1403242283
 20
63.0027470493
 10
201.138442991
 20
62.9560927867
 10
201.1343876287
 20
62.9124864171
 10
201.1281581417
 20
62.8719279406
 10
201.1196248171
 20
62.8347321288
 10
201.1089173677
 20
62.8005842102
 10
201.0964249312
 20
62.7685398698
 10
201.0823016271
 20
62.7384908651
 10
201.066393336
 20
62.7105454387
 10
201.0486268377
 20
62.6840840034
 10
201.0289777255
 20
62.65890003
 10
201.0074704062
 20
62.6352000475
 10
200.9841048797
 20
62.6129840562
  0
LINE
  5
40C
100
AcDbEntity
  8
DRAFT
100
AcDbLine
 62
7
  6
CONTINUOUS
 10
202.2275033132
 20
51.2530374686
 11
202.1912321566
 21
50.6533610487
  0
LWPOLYLINE
  5
40D
100
AcDbEntity
  8
IMPORT_IGES
100
AcDbPolyline
 62
250
  6
CONTINUOUS
 90
10
 70
0
 10
155.8010070732
 20
49.5946449874
 10
155.8160196903
 20
49.6086842771
 10
155.8306233321
 20
49.6233147389
 10
155.844824183
 20
49.6385339583
 10
155.8583036207
 20
49.6547890979
 10
155.8713966766
 20
49.6716269772
 10
155.8850752483
 20
49.6876980783
 10
155.8996514216
 20
49.7025548496
 10
155.9147942548
 20
49.7166476839
 10
155.930496339
 20
49.7299778084
  0
LWPOLYLINE
  5
40E
100
AcDbEntity
  8
0
100
AcDbPolyline
 62
7
  6
CONTINUOUS
 90
10
 70
0
 43
0.3500000006
 10
239.3800241089
 20
104.3858694763
 10
239.5228864746
 20
104.4573006592
 10
239.5943085938
 20
104.4573006592
 10
239.7371709595
 20
104.3144473572
 10
239.7371709595
 20
104.2430161743
 10
239.6657488403
 20
104.1715849915
 10
239.5943085938
 20
104.1715849915
 10
239.4514643555
 20
104.2430161743
 10
239.3800241089
 20
104.3144473572
 10
239.3800241089
 20
104.3858694763
  0
LWPOLYLINE
  5
40F
100
AcDbEntity
  8
0
100
AcDbPolyline
 62
7
  6
CONTINUOUS
 90
10
 70
0
 43
0.3500000006
 10
231.3800216675
 20
100.0215882568
 10
231.5228840332
 20
100.0930194397
 10
231.5943061523
 20
100.0930194397
 10
231.7371685181
 20
99.950157074
 10
231.7371685181
 20
99.8787349548
 10
231.6657463989
 20
99.807303772
 10
231.5943061523
 20
99.807303772
 10
231.4514619141
 20
99.8787349548
 10
231.3800216675
 20
99.950157074
 10
231.3800216675
 20
100.0215882568
  0
LWPOLYLINE
  5
410
100
AcDbEntity
  8
0
100
AcDbPolyline
 62
7
  6
CONTINUOUS
 90
3
 70
0
 43
0.3500000006
 10
239.5943085938
 20
104.4573006592
 10
239.8085930786
 20
104.3858694763
 10
240.0943178101
 20
104.2430161743
  0
LWPOLYLINE
  5
411
100
AcDbEntity
  8
0
100
AcDbPolyline
 62
7
  6
CONTINUOUS
 90
5
 70
0
 10
187.5424024066
 20
147.1951033109
 10
187.575202779
 20
147.0960605921
 10
187.6080180009
 20
146.9943846456
 10
187.6408480724
 20
146.8900732587
 10
187.6734849274
 20
146.7831271988
  0
LINE
  5
412
100
AcDbEntity
  8
RACCORDO
100
AcDbLine
 62
250
  6
CONTINUOUS
 10
208.7708808718
 20
41.5826317149
 11
208.7766878648
 21
41.4331669607
  0
LINE
  5
413
100
AcDbEntity
  8
RACCORDO
100
AcDbLine
 62
250
  6
CONTINUOUS
 10
208.7766878648
 20
41.4331669607
 11
208.7814750646
 21
41.2931851003
  0
LINE
  5
414
100
AcDbEntity
  8
RACCORDO
100
AcDbLine
 62
250
  6
CONTINUOUS
 10
208.7814750646
 20
41.2931851003
 11
208.7852714302
 21
41.1637532309
  0
LWPOLYLINE
  5
415
100
AcDbEntity
  8
RACCORDO
100
AcDbPolyline
 62
250
  6
CONTINUOUS
 90
13
 70
0
 10
208.2888241332
 20
41.3797675178
 10
208.2908026688
 20
41.3110505189
 10
208.2914991078
 20
41.2801480455
 10
208.2920139375
 20
41.2514249652
 10
208.292362924
 20
41.2247407518
 10
208.2925480009
 20
41.200236615
 10
208.2925567013
 20
41.1782703753
 10
208.2923970101
 20
41.1586884539
 10
208.2920764149
 20
41.1416446939
 10
208.2915836398
 20
41.1279578726
 10
208.2909197806
 20
41.1179007219
 10
208.2900960012
 20
41.1112000167
 10
208.2891156701
 20
41.107855372
  0
LINE
  5
416
100
AcDbEntity
  8
RACCORDO
100
AcDbLine
 62
250
  6
CONTINUOUS
 10
208.7852714302
 20
41.1637532309
 11
208.788179996
 21
41.0447815657
  0
LINE
  5
417
100
AcDbEntity
  8
RACCORDO
100
AcDbLine
 62
250
  6
CONTINUOUS
 10
208.788179996
 20
41.0447815657
 11
208.7902419786
 21
40.9391615535
  0
LINE
  5
418
100
AcDbEntity
  8
RACCORDO
100
AcDbLine
 62
250
  6
CONTINUOUS
 10
208.7902419786
 20
40.9391615535
 11
208.7915049242
 21
40.8474637811
  0
LWPOLYLINE
  5
419
100
AcDbEntity
  8
RACCORDO
100
AcDbPolyline
 62
250
  6
CONTINUOUS
 90
9
 70
0
 10
208.7915049242
 20
40.8474637811
 10
208.7920788504
 20
40.768993746
 10
208.7921056673
 20
40.7349998637
 10
208.7919614151
 20
40.7047007701
 10
208.7916453152
 20
40.6787392211
 10
208.7911593469
 20
40.6576534551
 10
208.7905042339
 20
40.6417856479
 10
208.789679436
 20
40.6313887078
 10
208.7886850579
 20
40.6267522026
  0
LINE
  5
41A
100
AcDbEntity
  8
IMPORT_IGES
100
AcDbLine
 62
250
  6
CONTINUOUS
 10
206.725089342
 20
42.7310202585
 11
206.7273256244
 21
41.8811350387
  0
LINE
  5
41B
100
AcDbEntity
  8
ASSI
100
AcDbLine
 62
7
  6
CONTINUOUS
 10
207.2620841735
 20
165.253351089
 11
207.2620841735
 21
163.008676356
  0
LINE
  5
41C
100
AcDbEntity
  8
DRAFT
100
AcDbLine
 62
7
  6
CONTINUOUS
 10
207.2620841735
 20
163.008676356
 11
207.2620841735
 21
156.3398060557
  0
LINE
  5
41D
100
AcDbEntity
  8
SUPERFICI
100
AcDbLine
 62
250
  6
CONTINUOUS
 10
207.7620841735
 20
140.5281769947
 11
207.7620841735
 21
57.3785451027
  0
LINE
  5
41E
100
AcDbEntity
  8
RACCORDO
100
AcDbLine
 62
250
  6
CONTINUOUS
 10
207.7620841761
 20
57.3785451027
 11
207.7620841761
 21
46.8301173717
  0
LINE
  5
41F
100
AcDbEntity
  8
RACCORDO
100
AcDbLine
 62
250
  6
CONTINUOUS
 10
207.7621045719
 20
156.2733870243
 11
207.7620841757
 21
140.5281769947
  0
LINE
  5
420
100
AcDbEntity
  8
IMPORT_IGES
100
AcDbLine
 62
250
  6
CONTINUOUS
 10
206.7273256244
 20
41.8811350387
 11
206.7263255326
 21
41.3187496644
  0
LWPOLYLINE
  5
421
100
AcDbEntity
  8
IMPORT_IGES
100
AcDbPolyline
 62
250
  6
CONTINUOUS
 90
19
 70
0
 10
206.7263230025
 20
41.3186937161
 10
206.7249936567
 20
41.2364161005
 10
206.7195106894
 20
41.1543784033
 10
206.7099735065
 20
41.0737210388
 10
206.6966693754
 20
40.9961738604
 10
206.6797105655
 20
40.9217633895
 10
206.6588043907
 20
40.8490208032
 10
206.63397749
 20
40.7783662916
 10
206.6055775073
 20
40.7112153242
 10
206.5734889563
 20
40.6478687833
 10
206.5377915594
 20
40.5892183488
 10
206.4989383435
 20
40.5360556346
 10
206.4572810615
 20
40.4887389209
 10
206.4135147793
 20
40.4480352075
 10
206.3680379477
 20
40.4143936061
 10
206.3207120248
 20
40.3879068768
 10
206.2718424073
 20
40.3687530657
 10
206.2222882468
 20
40.3572135677
 10
206.1727715694
 20
40.3533610487
  0
LWPOLYLINE
  5
422
100
AcDbEntity
  8
IMPORT_IGES
100
AcDbPolyline
 62
250
  6
CONTINUOUS
 90
18
 70
0
 10
207.4828214955
 20
41.2432181647
 10
207.4810355573
 20
41.1665789135
 10
207.4731550961
 20
41.0897216031
 10
207.4591574281
 20
41.0136204166
 10
207.4392891937
 20
40.939578687
 10
207.4138086606
 20
40.8681810659
 10
207.3826917386
 20
40.7993100949
 10
207.3462539738
 20
40.7337559048
 10
207.3049827151
 20
40.6723157443
 10
207.2588593317
 20
40.6149523919
 10
207.2083942352
 20
40.5623595551
 10
207.1541985644
 20
40.5151200603
 10
207.096239271
 20
40.4732121752
 10
207.0352199977
 20
40.4371946485
 10
206.9718419725
 20
40.4074345988
 10
206.9060018698
 20
40.3839032997
 10
206.8382181518
 20
40.3668995157
 10
206.7696510329
 20
40.3567215693
  0
LWPOLYLINE
  5
423
100
AcDbEntity
  8
IMPORT_IGES
100
AcDbPolyline
 62
250
  6
CONTINUOUS
 90
16
 70
0
 10
207.419938091
 20
41.254982089
 10
207.4180996476
 20
41.1774712074
 10
207.4102943132
 20
41.0997175295
 10
207.3964684978
 20
41.0226679326
 10
207.3768780209
 20
40.9476464282
 10
207.3517327469
 20
40.8752471831
 10
207.3210319372
 20
40.8053837611
 10
207.2850782541
 20
40.7388747024
 10
207.2443293395
 20
40.6765216482
 10
207.1988107756
 20
40.6183057357
 10
207.148992565
 20
40.5649598806
 10
207.0955032815
 20
40.5170366033
 10
207.0383260159
 20
40.4745644352
 10
206.9781491585
 20
40.4380838454
 10
206.9156790166
 20
40.407955727
 10
206.8508410353
 20
40.3841789099
  0
LWPOLYLINE
  5
424
100
AcDbEntity
  8
0
100
AcDbPolyline
 62
7
  6
CONTINUOUS
 90
13
 70
0
 10
205.6683594995
 20
61.8732109869
 10
205.6663357706
 20
61.814102047
 10
205.6619997495
 20
61.7588107237
 10
205.6553514362
 20
61.7073370169
 10
205.6462192788
 20
61.6600482578
 10
205.6347748292
 20
61.6165771153
 10
205.6215327431
 20
61.5758215958
 10
205.6066376299
 20
61.5376880232
 10
205.5899448803
 20
61.5022700737
 10
205.571535322
 20
61.4687467822
 10
205.5514358977
 20
61.4368444939
 10
205.5296196647
 20
61.4068368637
 10
205.5060866231
 20
61.3787238915
  0
LWPOLYLINE
  5
425
100
AcDbEntity
  8
IMPORT_IGES
100
AcDbPolyline
 62
250
  6
CONTINUOUS
 90
16
 70
0
 10
207.4827813141
 20
41.2432077724
 10
207.4800156612
 20
41.1651743916
 10
207.4708770205
 20
41.0868332643
 10
207.4553085258
 20
41.0091941885
 10
207.4335528409
 20
40.9335288114
 10
207.4058707782
 20
40.8606156084
 10
207.3724851952
 20
40.7907757243
 10
207.3339583067
 20
40.7250096883
 10
207.2908100164
 20
40.6638719318
 10
207.242994729
 20
40.6070846768
 10
207.1911541483
 20
40.5554241894
 10
207.1358820144
 20
40.5092509202
 10
207.0766130979
 20
40.4681705913
 10
207.0136192208
 20
40.4326353001
 10
206.9479794255
 20
40.4033786504
 10
206.8802256381
 20
40.3806835646
  0
LINE
  5
426
100
AcDbEntity
  8
RACCORDO
100
AcDbLine
 62
250
  6
CONTINUOUS
 10
162.5240624348
 20
51.3533610487
 11
162.0172542176
 21
50.9733224522
  0
LINE
  5
427
100
AcDbEntity
  8
RACCORDO
100
AcDbLine
 62
250
  6
CONTINUOUS
 10
162.7870841735
 20
50.6760586828
 11
162.760187805
 21
50.6558899922
  0
LWPOLYLINE
  5
428
100
AcDbEntity
  8
IMPORT_IGES
100
AcDbPolyline
 62
250
  6
CONTINUOUS
 90
13
 70
0
 10
157.7789715686
 20
50.6533610487
 10
157.7750973174
 20
50.6508102649
 10
157.7712051584
 20
50.6431048338
 10
157.7673586732
 20
50.630178059
 10
157.7636341876
 20
50.6121681327
 10
157.760074789
 20
50.5894113727
 10
157.7566931168
 20
50.5619467642
 10
157.7535469071
 20
50.5300853393
 10
157.7506784514
 20
50.4944255664
 10
157.7480951515
 20
50.4551099761
 10
157.7458361991
 20
50.4125506508
 10
157.7439374014
 20
50.3676293459
 10
157.7424154398
 20
50.3211427726
  0
LWPOLYLINE
  5
429
100
AcDbEntity
  8
IMPORT_IGES
100
AcDbPolyline
 62
250
  6
CONTINUOUS
 90
10
 70
0
 10
155.930496339
 20
49.7299778084
 10
156.1050196309
 20
49.8430692579
 10
156.2878434039
 20
49.9449045046
 10
156.478242315
 20
50.0351344498
 10
156.6753475828
 20
50.1145783298
 10
156.8789049578
 20
50.1827039351
 10
157.0887432004
 20
50.2375290627
 10
157.3036365587
 20
50.2783624341
 10
157.5219259315
 20
50.3059651118
 10
157.7424250902
 20
50.321098444
  0
LWPOLYLINE
  5
42A
100
AcDbEntity
  8
0
100
AcDbPolyline
 62
7
  6
CONTINUOUS
 90
3
 70
0
 43
0.3500000006
 10
229.7371679077
 20
93.5930174561
 10
228.8800299683
 20
94.4501553955
 10
231.8800308838
 20
94.4501553955
  0
LWPOLYLINE
  5
42B
100
AcDbEntity
  8
0
100
AcDbPolyline
 62
7
  6
CONTINUOUS
 90
3
 70
0
 43
0.3500000006
 10
229.7371679077
 20
95.3073023987
 10
228.8800299683
 20
96.1644494019
 10
231.8800308838
 20
96.1644494019
  0
LINE
  5
42C
100
AcDbEntity
  8
DRAFT
100
AcDbLine
 62
250
  6
CONTINUOUS
 10
215.7620841735
 20
156.9533610487
 11
215.7620841735
 21
156.5728406333
  0
LINE
  5
42D
100
AcDbEntity
  8
RACCORDO
100
AcDbLine
 62
250
  6
CONTINUOUS
 10
215.7620841735
 20
40.6249637422
 11
215.7620841735
 21
40.3533610487
  0
LINE
  5
42E
100
AcDbEntity
  8
RACCORDO
100
AcDbLine
 62
250
  6
CONTINUOUS
 10
215.7620841735
 20
40.0896628832
 11
215.7620841735
 21
40.3338814641
  0
LINE
  5
42F
100
AcDbEntity
  8
RACCORDO
100
AcDbLine
 62
250
  6
CONTINUOUS
 10
215.7620841735
 20
156.2764545539
 11
215.7620841735
 21
156.5533610487
  0
LWPOLYLINE
  5
430
100
AcDbEntity
  8
0
100
AcDbPolyline
 62
7
  6
CONTINUOUS
 90
10
 70
0
 10
202.3188133982
 20
63.1196633365
 10
202.3435687123
 20
63.1746616761
 10
202.3694884403
 20
63.2255714791
 10
202.3965725824
 20
63.2723927455
 10
202.4247956152
 20
63.314744837
 10
202.4541830621
 20
63.3530083919
 10
202.4848114927
 20
63.388325325
 10
202.5167064304
 20
63.4210762746
 10
202.549842352
 20
63.4508806025
 10
202.5842192573
 20
63.4777383085
  0
LWPOLYLINE
  5
431
100
AcDbEntity
  8
0
100
AcDbPolyline
 62
7
  6
CONTINUOUS
 90
10
 70
0
 43
0.3500000006
 10
228.8800299683
 20
98.0930188293
 10
229.5228834229
 20
97.450156311
 10
230.3800213623
 20
97.0215873413
 10
231.4514619141
 20
97.0215873413
 10
231.8800308838
 20
97.450156311
 10
231.8800308838
 20
98.0930188293
 10
231.4514619141
 20
98.5215877991
 10
230.5943058472
 20
98.5215877991
 10
230.1657368774
 20
98.0930188293
 10
230.1657368774
 20
97.164449707
  0
LWPOLYLINE
  5
432
100
AcDbEntity
  8
0
100
AcDbPolyline
 62
7
  6
CONTINUOUS
 90
10
 70
0
 43
0.3500000006
 10
231.8800308838
 20
101.5215887146
 10
231.0228929443
 20
102.3787266541
 10
230.1657368774
 20
102.5930202026
 10
229.308598938
 20
102.5930202026
 10
228.8800299683
 20
102.1644421692
 10
228.8800299683
 20
101.5215887146
 10
229.308598938
 20
101.0930197449
 10
230.1657368774
 20
101.0930197449
 10
230.5943058472
 20
101.5215887146
 10
230.5943058472
 20
102.4501578369
  0
LINE
  5
433
100
AcDbEntity
  8
RACCORDO
100
AcDbLine
 62
250
  6
CONTINUOUS
 10
221.647537432
 20
60.0768951787
 11
221.6474016862
 21
60.0825580035
  0
LINE
  5
434
100
AcDbEntity
  8
RACCORDO
100
AcDbLine
 62
250
  6
CONTINUOUS
 10
220.1917777869
 20
149.8114069755
 11
220.1981505797
 21
149.5615436959
  0
LINE
  5
435
100
AcDbEntity
  8
RACCORDO
100
AcDbLine
 62
250
  6
CONTINUOUS
 10
220.1981505797
 20
149.5615436959
 11
220.2032050888
 21
149.3127699307
  0
LINE
  5
436
100
AcDbEntity
  8
RACCORDO
100
AcDbLine
 62
250
  6
CONTINUOUS
 10
220.2032050888
 20
149.3127699307
 11
220.2069177104
 21
149.0635437743
  0
LINE
  5
437
100
AcDbEntity
  8
RACCORDO
100
AcDbLine
 62
250
  6
CONTINUOUS
 10
220.2069177104
 20
149.0635437743
 11
220.2092187573
 21
148.8159187678
  0
LINE
  5
438
100
AcDbEntity
  8
RACCORDO
100
AcDbLine
 62
250
  6
CONTINUOUS
 10
220.2145655142
 20
147.4260399737
 11
220.2311740524
 21
143.1478777531
  0
LINE
  5
439
100
AcDbEntity
  8
RACCORDO
100
AcDbLine
 62
250
  6
CONTINUOUS
 10
220.2092187573
 20
148.8159187678
 11
220.2145655142
 21
147.4260399737
  0
LINE
  5
43A
100
AcDbEntity
  8
RACCORDO
100
AcDbLine
 62
250
  6
CONTINUOUS
 10
220.2311740524
 20
143.1478777531
 11
220.2360608433
 21
141.3916768239
  0
LINE
  5
43B
100
AcDbEntity
  8
RACCORDO
100
AcDbLine
 62
250
  6
CONTINUOUS
 10
221.0885686796
 20
46.2268179863
 11
221.0890365759
 21
45.9533610487
  0
LINE
  5
43C
100
AcDbEntity
  8
RACCORDO
100
AcDbLine
 62
250
  6
CONTINUOUS
 10
221.0880358976
 20
46.5988646263
 11
221.0885686796
 21
46.2268179863
  0
LINE
  5
43D
100
AcDbEntity
  8
RACCORDO
100
AcDbLine
 62
250
  6
CONTINUOUS
 10
221.0877658016
 20
46.8310253918
 11
221.0880358976
 21
46.5988646263
  0
LINE
  5
43E
100
AcDbEntity
  8
RACCORDO
100
AcDbLine
 62
250
  6
CONTINUOUS
 10
221.0875448382
 20
47.0579601065
 11
221.0877658016
 21
46.8310253918
  0
LINE
  5
43F
100
AcDbEntity
  8
RACCORDO
100
AcDbLine
 62
250
  6
CONTINUOUS
 10
221.0873595395
 20
47.2883575416
 11
221.0875448382
 21
47.0579601065
  0
LWPOLYLINE
  5
440
100
AcDbEntity
  8
RACCORDO
100
AcDbPolyline
 62
250
  6
CONTINUOUS
 90
3
 70
0
 10
221.0871485968
 20
47.6320506427
 10
221.0872101151
 20
47.5178897082
 10
221.0873595395
 20
47.2883575416
  0
LINE
  5
441
100
AcDbEntity
  8
RACCORDO
100
AcDbLine
 62
250
  6
CONTINUOUS
 10
221.0870482041
 20
47.8533596664
 11
221.0871485968
 21
47.6320506427
  0
LINE
  5
442
100
AcDbEntity
  8
RACCORDO
100
AcDbLine
 62
250
  6
CONTINUOUS
 10
220.2360608433
 20
141.3916768239
 11
220.2367329346
 21
57.3785513757
  0
LINE
  5
443
100
AcDbEntity
  8
RACCORDO
100
AcDbLine
 62
250
  6
CONTINUOUS
 10
221.085804323
 20
57.3786873563
 11
221.0870482041
 21
47.8533596664
  0
LINE
  5
444
100
AcDbEntity
  8
DRAFT
100
AcDbLine
 62
7
  6
CONTINUOUS
 10
221.3620841735
 20
150.9533610487
 11
221.3620841735
 21
45.9533610487
  0
LINE
  5
445
100
AcDbEntity
  8
DRAFT
100
AcDbLine
 62
7
  6
CONTINUOUS
 10
221.381563758
 20
45.9533610487
 11
221.381563758
 21
150.9533610487
  0
LINE
  5
446
100
AcDbEntity
  8
RACCORDO
100
AcDbLine
 62
250
  6
CONTINUOUS
 10
220.2367779301
 20
57.3785513808
 11
220.2366206884
 21
57.1194362527
  0
LWPOLYLINE
  5
447
100
AcDbEntity
  8
RACCORDO
100
AcDbPolyline
 62
250
  6
CONTINUOUS
 90
4
 70
0
 10
221.0876420065
 20
150.9533610487
 10
221.0875383549
 20
150.83935757
 10
221.0874447585
 20
150.7286171877
 10
221.085804323
 20
57.3786873563
  0
LINE
  5
448
100
AcDbEntity
  8
RACCORDO
100
AcDbLine
 62
250
  6
CONTINUOUS
 10
220.2366206884
 20
57.1194362527
 11
220.2353450614
 21
56.1464368835
  0
LINE
  5
449
100
AcDbEntity
  8
RACCORDO
100
AcDbLine
 62
250
  6
CONTINUOUS
 10
220.2353450614
 20
56.1464368835
 11
220.233590373
 21
55.48131977
  0
LINE
  5
44A
100
AcDbEntity
  8
RACCORDO
100
AcDbLine
 62
250
  6
CONTINUOUS
 10
220.2177626298
 20
51.4355663199
 11
220.212450248
 21
49.8457985768
  0
LINE
  5
44B
100
AcDbEntity
  8
RACCORDO
100
AcDbLine
 62
250
  6
CONTINUOUS
 10
220.2197500971
 20
51.9588843259
 11
220.2177626298
 21
51.4355663199
  0
LINE
  5
44C
100
AcDbEntity
  8
RACCORDO
100
AcDbLine
 62
250
  6
CONTINUOUS
 10
220.2214563789
 20
52.3831106652
 11
220.2197500971
 21
51.9588843259
  0
LINE
  5
44D
100
AcDbEntity
  8
RACCORDO
100
AcDbLine
 62
250
  6
CONTINUOUS
 10
220.212450248
 20
49.8457985768
 11
220.210937633
 21
49.4555941854
  0
LINE
  5
44E
100
AcDbEntity
  8
RACCORDO
100
AcDbLine
 62
250
  6
CONTINUOUS
 10
220.233590373
 20
55.48131977
 11
220.2214563789
 21
52.3831106652
  0
LINE
  5
44F
100
AcDbEntity
  8
RACCORDO
100
AcDbLine
 62
250
  6
CONTINUOUS
 10
220.210937633
 20
49.4555941854
 11
220.2084398161
 21
48.9892712692
  0
LINE
  5
450
100
AcDbEntity
  8
RACCORDO
100
AcDbLine
 62
250
  6
CONTINUOUS
 10
220.2084398161
 20
48.9892712692
 11
220.2057881935
 21
48.7563348411
  0
LINE
  5
451
100
AcDbEntity
  8
RACCORDO
100
AcDbLine
 62
250
  6
CONTINUOUS
 10
220.2057881935
 20
48.7563348411
 11
220.2016856861
 21
48.5119593654
  0
LINE
  5
452
100
AcDbEntity
  8
RACCORDO
100
AcDbLine
 62
250
  6
CONTINUOUS
 10
220.2016856861
 20
48.5119593654
 11
220.1956553591
 21
48.2412813815
  0
LWPOLYLINE
  5
453
100
AcDbEntity
  8
0
100
AcDbPolyline
 62
7
  6
CONTINUOUS
 90
10
 70
0
 10
204.5719512675
 20
63.1196632764
 10
204.5967067874
 20
63.1746619309
 10
204.622626659
 20
63.2255719537
 10
204.6497108822
 20
63.272393345
 10
204.6779339248
 20
63.3147454423
 10
204.7073213191
 20
63.3530089081
 10
204.7379496617
 20
63.3883257289
 10
204.7698444851
 20
63.421076567
 10
204.8029802568
 20
63.4508807602
 10
204.837356977
 20
63.4777383085
  0
LWPOLYLINE
  5
454
100
AcDbEntity
  8
0
100
AcDbPolyline
 62
7
  6
CONTINUOUS
 90
10
 70
0
 10
203.6605150894
 20
61.386580819
 10
203.685075104
 20
61.4383470561
 10
203.706803881
 20
61.4911698762
 10
203.7257014205
 20
61.5450492794
 10
203.7417834547
 20
61.599820193
 10
203.7550342514
 20
61.6556476896
 10
203.7654066139
 20
61.7130269873
 10
203.7728848101
 20
61.7721231588
 10
203.777484572
 20
61.8327711315
 10
203.7792058997
 20
61.8949709052
  0
LWPOLYLINE
  5
455
100
AcDbEntity
  8
0
100
AcDbPolyline
 62
7
  6
CONTINUOUS
 90
10
 70
0
 10
205.9136530842
 20
61.3865806797
 10
205.9382128789
 20
61.4383464204
 10
205.9599414801
 20
61.4911688566
 10
205.9788388878
 20
61.5450479882
 10
205.9949208426
 20
61.5998187217
 10
206.0081716039
 20
61.6556461507
 10
206.0185439498
 20
61.7130255555
 10
206.0260221398
 20
61.7721220295
 10
206.0306219144
 20
61.8327704795
 10
206.0323432737
 20
61.8949709052
  0
LWPOLYLINE
  5
456
100
AcDbEntity
  8
0
100
AcDbPolyline
 62
7
  6
CONTINUOUS
 90
13
 70
0
 10
202.1748045173
 20
63.5329816824
 10
202.1348709083
 20
63.4820252016
 10
202.0968013352
 20
63.4234764822
 10
202.0605957981
 20
63.3573355241
 10
202.0258899776
 20
63.2845858351
 10
201.9930481929
 20
63.2042439076
 10
201.9631634025
 20
63.113359218
 10
201.9360000106
 20
63.0120728906
 10
201.9117936129
 20
62.9002438013
 10
201.8923439545
 20
62.7744980541
 10
201.8782509506
 20
62.6337110172
 10
201.868914686
 20
62.4790073225
 10
201.8643351608
 20
62.31038697
  0
LINE
  5
457
100
AcDbEntity
  8
SUPERFICI
100
AcDbLine
 62
250
  6
CONTINUOUS
 10
152.7620841735
 20
140.5281769947
 11
207.7620841735
 21
140.5281769947
  0
LWPOLYLINE
  5
458
100
AcDbEntity
  8
RACCORDO
100
AcDbPolyline
 62
250
  6
CONTINUOUS
 90
3
 70
0
 10
139.438364024
 20
140.5280962796
 10
148.5808124734
 20
140.5281489803
 10
152.7620841735
 20
140.5281769946
  0
LINE
  5
459
100
AcDbEntity
  8
RACCORDO
100
AcDbLine
 62
250
  6
CONTINUOUS
 10
207.7620841735
 20
140.5281769953
 11
221.085804323
 21
140.528043963
  0
LWPOLYLINE
  5
45A
100
AcDbEntity
  8
0
100
AcDbPolyline
 62
7
  6
CONTINUOUS
 90
3
 70
0
 43
0.3500000006
 10
237.7371703491
 20
97.5287297058
 10
236.8800324097
 20
98.385876709
 10
239.8800333252
 20
98.385876709
  0
LINE
  5
45B
100
AcDbEntity
  8
RACCORDO
100
AcDbLine
 62
250
  6
CONTINUOUS
 10
220.1447825145
 20
151.0300208198
 11
220.1559505978
 21
150.7919332558
  0
LINE
  5
45C
100
AcDbEntity
  8
RACCORDO
100
AcDbLine
 62
250
  6
CONTINUOUS
 10
220.1559505978
 20
150.7919332558
 11
220.1735895571
 21
150.3602813182
  0
LINE
  5
45D
100
AcDbEntity
  8
RACCORDO
100
AcDbLine
 62
250
  6
CONTINUOUS
 10
220.1735895571
 20
150.3602813182
 11
220.1837825163
 21
150.0733168398
  0
LINE
  5
45E
100
AcDbEntity
  8
RACCORDO
100
AcDbLine
 62
250
  6
CONTINUOUS
 10
220.1837825163
 20
150.0733168398
 11
220.1917777869
 21
149.8114069755
  0
LINE
  5
45F
100
AcDbEntity
  8
RACCORDO
100
AcDbLine
 62
7
  6
CONTINUOUS
 10
221.7620841735
 20
150.9533610487
 11
221.7620841735
 21
62.2156386386
  0
LINE
  5
460
100
AcDbEntity
  8
0
100
AcDbLine
 62
7
  6
CONTINUOUS
 10
221.7620841735
 20
60.9533610487
 11
221.7620841735
 21
150.9533610487
  0
LINE
  5
461
100
AcDbEntity
  8
RACCORDO
100
AcDbLine
 62
7
  6
CONTINUOUS
 10
221.625782339
 20
45.9533610487
 11
221.6263841488
 21
56.6097769502
  0
LINE
  5
462
100
AcDbEntity
  8
RACCORDO
100
AcDbLine
 62
7
  6
CONTINUOUS
 10
221.6263841488
 20
56.6097769502
 11
221.6287116772
 21
57.3097357639
  0
LINE
  5
463
100
AcDbEntity
  8
RACCORDO
100
AcDbLine
 62
7
  6
CONTINUOUS
 10
221.6476781269
 20
60.1000310857
 11
221.6479551789
 21
60.1449651912
  0
LINE
  5
464
100
AcDbEntity
  8
RACCORDO
100
AcDbLine
 62
7
  6
CONTINUOUS
 10
221.6479551789
 20
60.1449651912
 11
221.6482322915
 21
60.1888728706
  0
LINE
  5
465
100
AcDbEntity
  8
RACCORDO
100
AcDbLine
 62
250
  6
CONTINUOUS
 10
221.6482322915
 20
60.1888728706
 11
221.6480304614
 21
60.1842688951
  0
LINE
  5
466
100
AcDbEntity
  8
RACCORDO
100
AcDbLine
 62
7
  6
CONTINUOUS
 10
221.6482322915
 20
60.1888728706
 11
221.6485099417
 21
60.2317970982
  0
LINE
  5
467
100
AcDbEntity
  8
RACCORDO
100
AcDbLine
 62
7
  6
CONTINUOUS
 10
221.6287116772
 20
57.3097357639
 11
221.6344685291
 21
58.3111342314
  0
LWPOLYLINE
  5
468
100
AcDbEntity
  8
RACCORDO
100
AcDbPolyline
 62
7
  6
CONTINUOUS
 90
3
 70
0
 10
221.6485099417
 20
60.2317970982
 10
221.6487885394
 20
60.273765358
 10
221.6489281399
 20
60.2944081398
  0
LINE
  5
469
100
AcDbEntity
  8
RACCORDO
100
AcDbLine
 62
7
  6
CONTINUOUS
 10
221.6489281399
 20
60.2944081398
 11
221.6492079568
 21
60.3350225854
  0
LINE
  5
46A
100
AcDbEntity
  8
RACCORDO
100
AcDbLine
 62
250
  6
CONTINUOUS
 10
221.6344685291
 20
58.3111342314
 11
221.6339315766
 21
58.2584440649
  0
LINE
  5
46B
100
AcDbEntity
  8
RACCORDO
100
AcDbLine
 62
250
  6
CONTINUOUS
 10
221.6492079568
 20
60.3350225854
 11
221.6489686467
 21
60.3259777754
  0
LINE
  5
46C
100
AcDbEntity
  8
RACCORDO
100
AcDbLine
 62
7
  6
CONTINUOUS
 10
221.6492079568
 20
60.3350225854
 11
221.6496306531
 21
60.394344532
  0
LINE
  5
46D
100
AcDbEntity
  8
RACCORDO
100
AcDbLine
 62
7
  6
CONTINUOUS
 10
221.6496306531
 20
60.394344532
 11
221.6499147288
 21
60.4328791722
  0
LINE
  5
46E
100
AcDbEntity
  8
RACCORDO
100
AcDbLine
 62
250
  6
CONTINUOUS
 10
221.6500574557
 20
60.4518565426
 11
221.6499147288
 21
60.4328791722
  0
LINE
  5
46F
100
AcDbEntity
  8
RACCORDO
100
AcDbLine
 62
7
  6
CONTINUOUS
 10
221.6499147288
 20
60.4328791722
 11
221.6503447101
 21
60.4892387601
  0
LINE
  5
470
100
AcDbEntity
  8
RACCORDO
100
AcDbLine
 62
250
  6
CONTINUOUS
 10
221.6506351795
 20
60.5259017416
 11
221.6504895589
 21
60.5076582246
  0
LINE
  5
471
100
AcDbEntity
  8
RACCORDO
100
AcDbLine
 62
7
  6
CONTINUOUS
 10
221.6344685291
 20
58.3111342314
 11
221.6476781269
 21
60.1000310857
  0
LINE
  5
472
100
AcDbEntity
  8
RACCORDO
100
AcDbLine
 62
7
  6
CONTINUOUS
 10
221.6503447101
 20
60.4892387601
 11
221.6507814814
 21
60.5439672265
  0
LINE
  5
473
100
AcDbEntity
  8
RACCORDO
100
AcDbLine
 62
7
  6
CONTINUOUS
 10
221.6507814814
 20
60.5439672265
 11
221.6515270705
 21
60.631810461
  0
LINE
  5
474
100
AcDbEntity
  8
RACCORDO
100
AcDbLine
 62
250
  6
CONTINUOUS
 10
221.652460395
 20
60.7318914574
 11
221.6523016022
 21
60.7156508372
  0
LINE
  5
475
100
AcDbEntity
  8
RACCORDO
100
AcDbLine
 62
250
  6
CONTINUOUS
 10
221.6527808629
 20
60.7637675553
 11
221.6526202512
 21
60.7479410639
  0
LINE
  5
476
100
AcDbEntity
  8
RACCORDO
100
AcDbLine
 62
250
  6
CONTINUOUS
 10
221.6537637765
 20
60.8536486485
 11
221.653598358
 21
60.839329053
  0
LINE
  5
477
100
AcDbEntity
  8
RACCORDO
100
AcDbLine
 62
7
  6
CONTINUOUS
 10
221.6515270705
 20
60.631810461
 11
221.6545977522
 21
60.9206650251
  0
LINE
  5
478
100
AcDbEntity
  8
RACCORDO
100
AcDbLine
 62
250
  6
CONTINUOUS
 10
221.656325135
 20
61.0502297804
 11
221.6562260833
 21
61.0272774936
  0
LINE
  5
479
100
AcDbEntity
  8
RACCORDO
100
AcDbLine
 62
7
  6
CONTINUOUS
 10
221.6545977522
 20
60.9206650251
 11
221.6562260833
 21
61.0272774936
  0
LWPOLYLINE
  5
47A
100
AcDbEntity
  8
RACCORDO
100
AcDbPolyline
 62
250
  6
CONTINUOUS
 90
37
 70
0
 10
221.0890365759
 20
45.9533610487
 10
221.0842954137
 20
45.7217008809
 10
221.0695471845
 20
45.4913478523
 10
221.044934903
 20
45.2627289423
 10
221.0107394103
 20
45.0369522188
 10
220.9670764107
 20
44.8137168293
 10
220.913600618
 20
44.5913699044
 10
220.8499227607
 20
44.3692759221
 10
220.7762518487
 20
44.1490058971
 10
220.6930658081
 20
43.9322280652
 10
220.6007197256
 20
43.7197596839
 10
220.4992469512
 20
43.511578071
 10
220.3888232636
 20
43.3080291061
 10
220.2696546605
 20
43.1094878359
 10
220.1419755664
 20
42.9163389991
 10
220.0060211277
 20
42.7289324887
 10
219.8620327378
 20
42.5476017742
 10
219.7102997171
 20
42.3727121694
 10
219.5511561492
 20
42.2046394747
 10
219.3849544832
 20
42.0437358455
 10
219.2119755943
 20
41.890254366
 10
219.0324619316
 20
41.7444069081
 10
218.846708319
 20
41.6064436471
 10
218.6551019068
 20
41.4766627702
 10
218.4580344693
 20
41.355333253
 10
218.256194995
 20
41.2428517559
 10
218.0496640951
 20
41.1392370227
 10
217.837878013
 20
41.0442829598
 10
217.6208412903
 20
40.9581655475
 10
217.399253591
 20
40.8813347218
 10
217.1735641965
 20
40.8140882903
 10
216.9440276487
 20
40.7566463722
 10
216.7112156852
 20
40.7092954875
 10
216.4760954389
 20
40.6723305278
 10
216.2393064772
 20
40.6458995449
 10
216.0011438013
 20
40.6300807291
 10
215.7620841735
 20
40.6249637422
  0
LWPOLYLINE
  5
47B
100
AcDbEntity
  8
RACCORDO
100
AcDbPolyline
 62
250
  6
CONTINUOUS
 90
3
 70
0
 10
221.6597901278
 20
61.1439134724
 10
221.6601494632
 20
61.1601853802
 10
221.6602355195
 20
61.1764617137
  0
LINE
  5
47C
100
AcDbEntity
  8
RACCORDO
100
AcDbLine
 62
7
  6
CONTINUOUS
 10
221.6562260833
 20
61.0272774936
 11
221.6571608874
 21
61.0737406818
  0
LINE
  5
47D
100
AcDbEntity
  8
RACCORDO
100
AcDbLine
 62
250
  6
CONTINUOUS
 10
221.6577242883
 20
61.1153132887
 11
221.6576123169
 21
61.0921033246
  0
LINE
  5
47E
100
AcDbEntity
  8
RACCORDO
100
AcDbLine
 62
7
  6
CONTINUOUS
 10
221.6571608874
 20
61.0737406818
 11
221.6577520591
 21
61.0972181107
  0
LINE
  5
47F
100
AcDbEntity
  8
RACCORDO
100
AcDbLine
 62
250
  6
CONTINUOUS
 10
220.1956553591
 20
48.2412813815
 11
220.187017363
 21
47.9336254884
  0
LINE
  5
480
100
AcDbEntity
  8
RACCORDO
100
AcDbLine
 62
7
  6
CONTINUOUS
 10
221.6577520591
 20
61.0972181107
 11
221.6580645779
 21
61.1074837194
  0
LINE
  5
481
100
AcDbEntity
  8
RACCORDO
100
AcDbLine
 62
250
  6
CONTINUOUS
 10
220.187017363
 20
47.9336254884
 11
220.1753531132
 21
47.5920037516
  0
LINE
  5
482
100
AcDbEntity
  8
RACCORDO
100
AcDbLine
 62
250
  6
CONTINUOUS
 10
220.1753531132
 20
47.5920037516
 11
220.1608833226
 21
47.2312520232
  0
LINE
  5
483
100
AcDbEntity
  8
RACCORDO
100
AcDbLine
 62
250
  6
CONTINUOUS
 10
220.1608833226
 20
47.2312520232
 11
220.1443110232
 21
46.8671089833
  0
LINE
  5
484
100
AcDbEntity
  8
RACCORDO
100
AcDbLine
 62
250
  6
CONTINUOUS
 10
220.1443110232
 20
46.8671089833
 11
220.1260063992
 21
46.4987693074
  0
LWPOLYLINE
  5
485
100
AcDbEntity
  8
RACCORDO
100
AcDbPolyline
 62
250
  6
CONTINUOUS
 90
3
 70
0
 10
220.1260063992
 20
46.4987693074
 10
220.0974691135
 20
45.9549325034
 10
220.0885503226
 20
45.8051151703
  0
LWPOLYLINE
  5
486
100
AcDbEntity
  8
RACCORDO
100
AcDbPolyline
 62
250
  6
CONTINUOUS
 90
7
 70
0
 10
221.6602355195
 20
61.1764617137
 10
221.6598772106
 20
61.1720932273
 10
221.6595185746
 20
61.1662635612
 10
221.6591596113
 20
61.1589727153
 10
221.6587996153
 20
61.1501942137
 10
221.6584392921
 20
61.1399545323
 10
221.6577242883
 20
61.1153132887
  0
LWPOLYLINE
  5
487
100
AcDbEntity
  8
RACCORDO
100
AcDbPolyline
 62
250
  6
CONTINUOUS
 90
37
 70
0
 10
220.0885503226
 20
45.8051151703
 10
220.0735901175
 20
45.624210623
 10
220.0519150106
 20
45.4450512686
 10
220.0233038609
 20
45.2677862324
 10
219.9878468526
 20
45.092871998
 10
219.9455636375
 20
44.9201035863
 10
219.8962993892
 20
44.7486510549
 10
219.8399049683
 20
44.5779250454
 10
219.776517704
 20
44.4088809482
 10
219.7064448398
 20
44.2430010895
 10
219.6299145566
 20
44.0808174058
 10
219.5469700882
 20
43.9220718462
 10
219.4577046003
 20
43.7670129721
 10
219.3619750189
 20
43.6156940724
 10
219.2599166715
 20
43.4683355447
 10
219.1519986921
 20
43.3254001986
 10
219.03825482
 20
43.1869519712
 10
218.9187250793
 20
43.0531506282
 10
218.793972154
 20
42.9245383985
 10
218.6641508607
 20
42.8012189223
 10
218.5292921389
 20
42.6832470438
 10
218.3898463905
 20
42.5710340484
 10
218.2459173953
 20
42.4646073784
 10
218.0976433281
 20
42.3640711667
 10
217.9455829415
 20
42.2698878102
 10
217.7901340566
 20
42.182143621
 10
217.631198185
 20
42.1007639821
 10
217.4686118026
 20
42.0259303961
 10
217.3022421442
 20
41.9574551043
 10
217.1324749715
 20
41.8955404309
 10
216.9599546151
 20
41.8408905143
 10
216.7847188638
 20
41.7933363431
 10
216.6070395619
 20
41.7528885953
 10
216.4279945938
 20
41.7203545673
 10
216.2480891178
 20
41.6958291343
 10
216.0671976544
 20
41.6788000853
 10
215.8854892926
 20
41.6690609444
  0
LWPOLYLINE
  5
488
100
AcDbEntity
  8
RACCORDO
100
AcDbPolyline
 62
250
  6
CONTINUOUS
 90
5
 70
0
 10
221.6556192966
 20
61.0789203551
 10
221.6570738053
 20
61.0951687696
 10
221.6582520884
 20
61.1114007236
 10
221.6591576118
 20
61.1276504383
 10
221.6597901278
 20
61.1439134724
  0
LINE
  5
489
100
AcDbEntity
  8
RACCORDO
100
AcDbLine
 62
250
  6
CONTINUOUS
 10
221.7620841735
 20
62.2156386386
 11
221.6602355195
 21
61.1764617137
  0
LINE
  5
48A
100
AcDbEntity
  8
RACCORDO
100
AcDbLine
 62
7
  6
CONTINUOUS
 10
221.7571632937
 20
62.1149888207
 11
221.6578962684
 21
61.1021526358
  0
LWPOLYLINE
  5
48B
100
AcDbEntity
  8
0
100
AcDbPolyline
 62
7
  6
CONTINUOUS
 90
13
 70
0
 10
204.4279422518
 20
63.5329816705
 10
204.388008606
 20
63.4820252234
 10
204.349939012
 20
63.4234765326
 10
204.31373347
 20
63.3573355981
 10
204.279027662
 20
63.2845859285
 10
204.2461859058
 20
63.2042440153
 10
204.2163011553
 20
63.1133593324
 10
204.189137819
 20
63.0120730029
 10
204.1649314884
 20
62.9002439038
 10
204.145481891
 20
62.7744981404
 10
204.1313889361
 20
62.6337110813
 10
204.1220527145
 20
62.4790073578
 10
204.1174732261
 20
62.31038697
  0
LWPOLYLINE
  5
48C
100
AcDbEntity
  8
0
100
AcDbPolyline
 62
7
  6
CONTINUOUS
 90
13
 70
0
 10
201.3000220955
 20
62.3880279665
 10
201.337382685
 20
62.4311875459
 10
201.371421824
 20
62.4756036572
 10
201.4021395123
 20
62.5212763005
 10
201.429428709
 20
62.5679916741
 10
201.4533964551
 20
62.6159635796
 10
201.4743638738
 20
62.6658334219
 10
201.4925063489
 20
62.7175029931
 10
201.5076484968
 20
62.7710705011
 10
201.5195852895
 20
62.8274719735
 10
201.5282483847
 20
62.8870194198
 10
201.5337061248
 20
62.9494008305
 10
201.53595851
 20
63.0146162057
  0
LWPOLYLINE
  5
48D
100
AcDbEntity
  8
0
100
AcDbPolyline
 62
7
  6
CONTINUOUS
 90
13
 70
0
 10
203.2529489035
 20
61.3787238915
 10
203.22279875
 20
61.3473239516
 10
203.1925816331
 20
61.3192347988
 10
203.1622975528
 20
61.2944564331
 10
203.13213011
 20
61.2732627997
 10
203.1018957038
 20
61.2553799534
 10
203.0710435311
 20
61.2399860588
 10
203.0396331613
 20
61.2268653492
 10
203.0076050251
 20
61.2162335913
 10
202.9742296114
 20
61.2079162493
 10
202.9392637498
 20
61.2018551446
 10
202.9029506107
 20
61.1981084558
 10
202.8652901941
 20
61.1966761829
  0
LWPOLYLINE
  5
48E
100
AcDbEntity
  8
0
100
AcDbPolyline
 62
7
  6
CONTINUOUS
 90
13
 70
0
 10
202.4414527644
 20
62.3464873093
 10
202.471467025
 20
62.375130015
 10
202.5019711628
 20
62.4010012862
 10
202.5329651779
 20
62.4241011231
 10
202.5643028262
 20
62.4442728052
 10
202.5961303519
 20
62.4616730529
 10
202.6288864862
 20
62.476772027
 10
202.6625085337
 20
62.4897229731
 10
202.69705919
 20
62.5003726457
 10
202.7331652732
 20
62.508731469
 10
202.7710357228
 20
62.5148029177
 10
202.8104615992
 20
62.5185835171
 10
202.8514429026
 20
62.5200732672
  0
LWPOLYLINE
  5
48F
100
AcDbEntity
  8
0
100
AcDbPolyline
 62
7
  6
CONTINUOUS
 90
13
 70
0
 10
204.694590484
 20
62.3464873093
 10
204.7246046873
 20
62.3751299627
 10
204.7551087923
 20
62.4010011995
 10
204.7861027989
 20
62.4241010198
 10
204.8174404715
 20
62.4442727098
 10
204.8492680458
 20
62.4616729831
 10
204.8820242288
 20
62.4767719815
 10
204.9156463266
 20
62.4897229453
 10
204.950197033
 20
62.500372634
 10
204.9863031369
 20
62.5087314685
 10
205.0241735678
 20
62.5148029223
 10
205.0635993963
 20
62.5185835219
 10
205.1045806222
 20
62.5200732672
  0
LWPOLYLINE
  5
490
100
AcDbEntity
  8
0
100
AcDbPolyline
 62
7
  6
CONTINUOUS
 90
13
 70
0
 10
200.9841048797
 20
62.6129840562
 10
200.9626247103
 20
62.5947550087
 10
200.9376606001
 20
62.5774389914
 10
200.909212549
 20
62.5610360044
 10
200.8776402464
 20
62.5453738554
 10
200.842584003
 20
62.5306247366
 10
200.8029647512
 20
62.5173052245
 10
200.7588446929
 20
62.5053603907
 10
200.7101616262
 20
62.4948451635
 10
200.6556498771
 20
62.4864409043
 10
200.5948875545
 20
62.4803747334
 10
200.5282965496
 20
62.4764195305
 10
200.4558768623
 20
62.4745752955
  0
LWPOLYLINE
  5
491
100
AcDbEntity
  8
0
100
AcDbPolyline
 62
7
  6
CONTINUOUS
 90
10
 70
0
 10
202.5842192573
 20
63.4777383085
 10
202.612719484
 20
63.4973233934
 10
202.6421851076
 20
63.5146335814
 10
202.672616128
 20
63.5296688727
 10
202.7037303907
 20
63.5424161971
 10
202.7358100502
 20
63.5528886247
 10
202.7697015701
 20
63.5611253656
 10
202.8056871049
 20
63.5671394897
 10
202.8434845001
 20
63.570917927
 10
202.8830937558
 20
63.5724606776
  0
LWPOLYLINE
  5
492
100
AcDbEntity
  8
0
100
AcDbPolyline
 62
7
  6
CONTINUOUS
 90
10
 70
0
 10
204.837356977
 20
63.4777383085
 10
204.8658572037
 20
63.4973233934
 10
204.8953228272
 20
63.5146335814
 10
204.9257538476
 20
63.5296688727
 10
204.9568681103
 20
63.5424161971
 10
204.9889477698
 20
63.5528886247
 10
205.0228392897
 20
63.5611253656
 10
205.0588248245
 20
63.5671394897
 10
205.0966222198
 20
63.570917927
 10
205.1362314754
 20
63.5724606776
  0
LWPOLYLINE
  5
493
100
AcDbEntity
  8
0
100
AcDbPolyline
 62
7
  6
CONTINUOUS
 90
10
 70
0
 10
202.5327524934
 20
62.7400517952
 10
202.4936721404
 20
62.7186977268
 10
202.4556993057
 20
62.6947801419
 10
202.4188339892
 20
62.6682990404
 10
202.3831677487
 20
62.6395032951
 10
202.3486090263
 20
62.6081440333
 10
202.314883149
 20
62.5734746368
 10
202.2818985589
 20
62.5352462328
 10
202.2497468138
 20
62.493707694
 10
202.2184279137
 20
62.4488590205
  0
LWPOLYLINE
  5
494
100
AcDbEntity
  8
0
100
AcDbPolyline
 62
7
  6
CONTINUOUS
 90
10
 70
0
 10
204.7858904874
 20
62.7400519356
 10
204.7468097834
 20
62.7186976572
 10
204.7088366722
 20
62.694779896
 10
204.6719711538
 20
62.6682986519
 10
204.6363047782
 20
62.6395027779
 10
204.6017459954
 20
62.608143421
 10
204.5680201546
 20
62.5734740227
 10
204.5350357055
 20
62.5352457301
 10
204.5028841984
 20
62.493707396
 10
204.4715656333
 20
62.4488590205
  0
LWPOLYLINE
  5
495
100
AcDbEntity
  8
0
100
AcDbPolyline
 62
7
  6
CONTINUOUS
 90
5
 70
0
 10
187.9943174332
 20
147.9569243482
 10
188.010244755
 20
147.9600556716
 10
188.0261544759
 20
147.9647732298
 10
188.0420465959
 20
147.9710769323
 10
188.0579406547
 20
147.9791814568
  0
LWPOLYLINE
  5
496
100
AcDbEntity
  8
0
100
AcDbPolyline
 62
7
  6
CONTINUOUS
 90
10
 70
0
 10
186.4839394816
 20
149.5629577706
 10
186.567804522
 20
149.5768413686
 10
186.6510217514
 20
149.5879853526
 10
186.7335911697
 20
149.5963901776
 10
186.81535352
 20
149.6020510415
 10
186.8964680591
 20
149.6049733223
 10
186.9774125584
 20
149.6051725771
 10
187.0583462748
 20
149.6026539599
 10
187.1391099514
 20
149.5974122222
 10
187.219703588
 20
149.5894471506
  0
LINE
  5
497
100
AcDbEntity
  8
0
100
AcDbLine
 62
7
  6
CONTINUOUS
 10
172.8253671735
 20
145.8300320487
 11
173.6530481735
 21
145.8300320487
  0
LINE
  5
498
100
AcDbEntity
  8
0
100
AcDbLine
 62
7
  6
CONTINUOUS
 10
175.4478961735
 20
145.8300320487
 11
176.3871081735
 21
145.8300320487
  0
LINE
  5
499
100
AcDbEntity
  8
0
100
AcDbLine
 62
7
  6
CONTINUOUS
 10
176.8927151735
 20
145.8300320487
 11
177.7912361735
 21
145.8300320487
  0
LINE
  5
49A
100
AcDbEntity
  8
0
100
AcDbLine
 62
7
  6
CONTINUOUS
 10
179.0957271735
 20
145.8300320487
 11
179.2274511735
 21
145.8300320487
  0
LINE
  5
49B
100
AcDbEntity
  8
0
100
AcDbLine
 62
7
  6
CONTINUOUS
 10
180.5371381735
 20
145.8300320487
 11
181.4559371735
 21
145.8300320487
  0
LINE
  5
49C
100
AcDbEntity
  8
0
100
AcDbLine
 62
7
  6
CONTINUOUS
 10
181.6034181735
 20
145.8300320487
 11
182.5324411735
 21
145.8300320487
  0
LINE
  5
49D
100
AcDbEntity
  8
0
100
AcDbLine
 62
7
  6
CONTINUOUS
 10
184.3139601735
 20
145.8300320487
 11
185.3038511735
 21
145.8300320487
  0
LINE
  5
49E
100
AcDbEntity
  8
0
100
AcDbLine
 62
7
  6
CONTINUOUS
 10
185.5796494387
 20
145.8300325478
 11
186.5150823386
 21
145.8300325478
  0
LINE
  5
49F
100
AcDbEntity
  8
0
100
AcDbLine
 62
7
  6
CONTINUOUS
 10
187.9533559723
 20
145.8300325478
 11
188.8567687517
 21
145.8300325478
  0
LINE
  5
4A0
100
AcDbEntity
  8
0
100
AcDbLine
 62
7
  6
CONTINUOUS
 10
182.7916041735
 20
146.7282830487
 11
184.0706551735
 21
146.7282830487
  0
LINE
  5
4A1
100
AcDbEntity
  8
0
100
AcDbLine
 62
7
  6
CONTINUOUS
 10
183.8829541735
 20
147.4233460487
 11
182.9837251735
 21
147.4233460487
  0
LINE
  5
4A2
100
AcDbEntity
  8
0
100
AcDbLine
 62
7
  6
CONTINUOUS
 10
186.5150823386
 20
147.5908692505
 11
187.0186653724
 21
147.5908692505
  0
LINE
  5
4A3
100
AcDbEntity
  8
0
100
AcDbLine
 62
7
  6
CONTINUOUS
 10
187.0206898268
 20
148.3277706548
 11
186.4839394816
 21
148.3277706548
  0
LWPOLYLINE
  5
4A4
100
AcDbEntity
  8
0
100
AcDbPolyline
 62
7
  6
CONTINUOUS
 90
25
 70
0
 10
187.0186653724
 20
147.5908692505
 10
187.0472744815
 20
147.5901893849
 10
187.0756745879
 20
147.5880413083
 10
187.1038656916
 20
147.5844249849
 10
187.1319447183
 20
147.5793652164
 10
187.1598147422
 20
147.5728370563
 10
187.1871849862
 20
147.5647658028
 10
187.2140839195
 20
147.5550990402
 10
187.2404830729
 20
147.5438888696
 10
187.2660062611
 20
147.5312173298
 10
187.2905459259
 20
147.5170221111
 10
187.3142096256
 20
147.5013650744
 10
187.3369438492
 20
147.4845145375
 10
187.3587008044
 20
147.4665182452
 10
187.3795282835
 20
147.4473279967
 10
187.3995161521
 20
147.4270682434
 10
187.4186799499
 20
147.4057874289
 10
187.4370041372
 20
147.3834366314
 10
187.4545319613
 20
147.3599942586
 10
187.4713022588
 20
147.335499371
 10
187.4872761932
 20
147.3099123526
 10
187.5023805014
 20
147.283093536
 10
187.5165907626
 20
147.2549961093
 10
187.5299313977
 20
147.2256661601
 10
187.5424024066
 20
147.1951033109
  0
LWPOLYLINE
  5
4A5
100
AcDbEntity
  8
IMPORT_IGES
100
AcDbPolyline
 62
250
  6
CONTINUOUS
 90
13
 70
0
 10
204.593690751
 20
49.7299923264
 10
204.6185215537
 20
49.7694673096
 10
204.6419103826
 20
49.8077778356
 10
204.6634448007
 20
49.8442753124
 10
204.6826627973
 20
49.8781725639
 10
204.6994096191
 20
49.9091667853
 10
204.7137188902
 20
49.9373160734
 10
204.7253493276
 20
49.9621609227
 10
204.7341422562
 20
49.9833437282
 10
204.740105109
 20
50.0008902725
 10
204.7431161265
 20
50.014538449
 10
204.7431005106
 20
50.0239787423
 10
204.7401252136
 20
50.0291539272
  0
LWPOLYLINE
  5
4A6
100
AcDbEntity
  8
IMPORT_IGES
100
AcDbPolyline
 62
250
  6
CONTINUOUS
 90
13
 70
0
 10
204.7231625338
 20
49.5946464806
 10
204.7520404394
 20
49.6355047345
 10
204.7793548478
 20
49.6752856192
 10
204.8046273809
 20
49.7133291104
 10
204.8272889474
 20
49.7487948083
 10
204.8472182223
 20
49.7814457818
 10
204.8644979613
 20
49.8114401628
 10
204.878780496
 20
49.8382800128
 10
204.889781549
 20
49.8614404211
 10
204.8974027593
 20
49.8807356664
 10
204.9014324645
 20
49.8957741419
 10
204.901843785
 20
49.9063378722
 10
204.8987319341
 20
49.9123834197
  0
LINE
  5
4A7
100
AcDbEntity
  8
DRAFT
100
AcDbLine
 62
7
  6
CONTINUOUS
 10
204.3620841735
 20
51.1272294223
 11
204.4149835753
 21
51.1998144556
  0
LWPOLYLINE
  5
4A8
100
AcDbEntity
  8
0
100
AcDbPolyline
 62
7
  6
CONTINUOUS
 90
13
 70
0
 10
205.5060866231
 20
61.3787238915
 10
205.4759364092
 20
61.347323891
 10
205.4457192572
 20
61.3192346969
 10
205.4154351669
 20
61.2944563092
 10
205.385267745
 20
61.2732626793
 10
205.3550333849
 20
61.2553798559
 10
205.324181267
 20
61.2399859849
 10
205.2927709605
 20
61.2268652955
 10
205.2607428962
 20
61.2162335586
 10
205.2273675467
 20
61.207916233
 10
205.1924017362
 20
61.2018551383
 10
205.1560886404
 20
61.1981084549
 10
205.1184282594
 20
61.1966761829
  0
LWPOLYLINE
  5
4A9
100
AcDbEntity
  8
0
100
AcDbPolyline
 62
7
  6
CONTINUOUS
 90
10
 70
0
 10
203.3378078938
 20
61.0289688985
 10
203.3806823467
 20
61.0566360061
 10
203.4216965736
 20
61.0870536016
 10
203.4608505747
 20
61.1202216849
 10
203.4980034145
 20
61.1557850565
 10
203.5332960285
 20
61.194098916
 10
203.5671512224
 20
61.2362288621
 10
203.5997099315
 20
61.2825300944
 10
203.6308312205
 20
61.3326474134
 10
203.6605150894
 20
61.386580819
  0
LWPOLYLINE
  5
4AA
100
AcDbEntity
  8
0
100
AcDbPolyline
 62
7
  6
CONTINUOUS
 90
10
 70
0
 10
205.5909456594
 20
61.0289688224
 10
205.6338202715
 20
61.0566360723
 10
205.6748346309
 20
61.0870537879
 10
205.7139887376
 20
61.120221969
 10
205.7511416651
 20
61.1557854362
 10
205.7864343399
 20
61.194099369
 10
205.8202895413
 20
61.2362293059
 10
205.8528481957
 20
61.2825304264
 10
205.8839693766
 20
61.332647551
 10
205.9136530842
 20
61.3865806797
  0
LINE
  5
4AB
100
AcDbEntity
  8
0
100
AcDbLine
 62
7
  6
CONTINUOUS
 10
183.9233081735
 20
150.3294840487
 11
183.0147331735
 21
150.3294840487
  0
LINE
  5
4AC
100
AcDbEntity
  8
0
100
AcDbLine
 62
7
  6
CONTINUOUS
 10
181.0351881735
 20
150.3294840487
 11
180.1059291735
 21
150.3294840487
  0
LINE
  5
4AD
100
AcDbEntity
  8
0
100
AcDbLine
 62
7
  6
CONTINUOUS
 10
178.2374251735
 20
150.3294840487
 11
177.2989901735
 21
150.3294840487
  0
LINE
  5
4AE
100
AcDbEntity
  8
0
100
AcDbLine
 62
7
  6
CONTINUOUS
 10
175.0993521735
 20
150.3294840487
 11
174.1607821735
 21
150.3294840487
  0
LINE
  5
4AF
100
AcDbEntity
  8
0
100
AcDbLine
 62
7
  6
CONTINUOUS
 10
172.4192281735
 20
150.3294840487
 11
171.3989531735
 21
150.3294840487
  0
LINE
  5
4B0
100
AcDbEntity
  8
0
100
AcDbLine
 62
7
  6
CONTINUOUS
 10
176.3871081735
 20
150.3297540487
 11
175.4478961735
 21
150.3297540487
  0
LINE
  5
4B1
100
AcDbEntity
  8
RACCORDO
100
AcDbLine
 62
250
  6
CONTINUOUS
 10
139.4365263404
 20
150.9533610487
 11
139.1620841735
 21
150.9533610487
  0
LINE
  5
4B2
100
AcDbEntity
  8
DRAFT
100
AcDbLine
 62
250
  6
CONTINUOUS
 10
139.1426045889
 20
150.9533610487
 11
138.7620841735
 21
150.9533610487
  0
LINE
  5
4B3
100
AcDbEntity
  8
RACCORDO
100
AcDbLine
 62
250
  6
CONTINUOUS
 10
221.0876420065
 20
150.9533610487
 11
221.3620841735
 21
150.9533610487
  0
LINE
  5
4B4
100
AcDbEntity
  8
DRAFT
100
AcDbLine
 62
250
  6
CONTINUOUS
 10
221.381563758
 20
150.9533610487
 11
221.7620841735
 21
150.9533610487
  0
LWPOLYLINE
  5
4B5
100
AcDbEntity
  8
0
100
AcDbPolyline
 62
7
  6
CONTINUOUS
 90
19
 70
0
 10
187.219703588
 20
149.5894471506
 10
187.2686965181
 20
149.5818003239
 10
187.3162610243
 20
149.5708440782
 10
187.3623971065
 20
149.5565778733
 10
187.4074031594
 20
149.5389298733
 10
187.4509807884
 20
149.5179703357
 10
187.4922348092
 20
149.493911687
 10
187.5311482415
 20
149.4666605015
 10
187.5677380657
 20
149.4363078534
 10
187.6011600386
 20
149.4033430012
 10
187.6312028605
 20
149.3675695936
 10
187.6580778312
 20
149.3291813432
 10
187.6815746063
 20
149.2892532847
 10
187.7016572565
 20
149.2478649347
 10
187.7183617112
 20
149.2049350865
 10
187.7315854139
 20
149.1612987598
 10
187.7412941793
 20
149.1172342637
 10
187.7475221928
 20
149.0724626293
 10
187.7502694544
 20
149.0269834662
  0
LWPOLYLINE
  5
4B6
100
AcDbEntity
  8
0
100
AcDbPolyline
 62
7
  6
CONTINUOUS
 90
28
 70
0
 10
187.8974810307
 20
150.2295431251
 10
187.819459773
 20
150.2554136554
 10
187.7405262246
 20
150.2785362919
 10
187.6606803856
 20
150.2989120541
 10
187.579710801
 20
150.316329727
 10
187.4978289258
 20
150.3310022445
 10
187.4156691251
 20
150.3435665184
 10
187.3333276081
 20
150.3540500073
 10
187.2507081656
 20
150.3624260396
 10
187.1681565353
 20
150.3692499952
 10
187.0857489178
 20
150.3746281559
 10
187.0034091126
 20
150.3784545424
 10
186.9212542544
 20
150.3809659912
 10
186.8395368076
 20
150.382189609
 10
186.7580043079
 20
150.382098369
 10
186.6760164981
 20
150.3808478507
 10
186.5936303395
 20
150.3784748791
 10
186.5107888708
 20
150.374942561
 10
186.4266809508
 20
150.3702958678
 10
186.3413193981
 20
150.3645616502
 10
186.2546913942
 20
150.35771287
 10
186.1659473423
 20
150.3497136338
 10
186.0750891319
 20
150.3405726698
 10
185.9821148735
 20
150.3302809296
 10
185.8861693015
 20
150.3187758089
 10
185.7869673275
 20
150.306036276
 10
185.6847940399
 20
150.2920828836
 10
185.5796494387
 20
150.2769153583
  0
LWPOLYLINE
  5
4B7
100
AcDbEntity
  8
IMPORT_IGES
100
AcDbPolyline
 62
250
  6
CONTINUOUS
 90
19
 70
0
 10
201.9101544112
 20
50.3464262094
 10
201.6577490839
 20
50.1135982185
 10
201.4065848357
 20
49.8914214984
 10
201.1571102916
 20
49.6811453222
 10
200.9101544195
 20
49.4840845496
 10
200.6657453399
 20
49.3006815175
 10
200.4230421032
 20
49.1306668305
 10
200.1818541488
 20
48.9742526426
 10
199.9429864949
 20
48.8321806713
 10
199.7070241168
 20
48.7048359297
 10
199.4742431336
 20
48.5922690809
 10
199.2449511505
 20
48.4944247601
 10
199.0197886
 20
48.4112420953
 10
198.799467101
 20
48.3424915801
 10
198.5838245124
 20
48.2875483315
 10
198.3721556293
 20
48.2457050664
 10
198.1643503826
 20
48.2164596218
 10
197.9609281752
 20
48.1993515351
 10
197.7620841735
 20
48.1937892864
  0
LINE
  5
4B8
100
AcDbEntity
  8
RACCORDO
100
AcDbLine
 62
7
  6
CONTINUOUS
 10
200.0765470356
 20
50.9733224522
 11
200.2431446939
 21
51.0982484856
  0
LINE
  5
4B9
100
AcDbEntity
  8
DRAFT
100
AcDbLine
 62
7
  6
CONTINUOUS
 10
202.2275033132
 20
51.2530374686
 11
202.0210813095
 21
51.0982484856
  0
LINE
  5
4BA
100
AcDbEntity
  8
RACCORDO
100
AcDbLine
 62
250
  6
CONTINUOUS
 10
144.6082285776
 20
155.1867982317
 11
147.4082511569
 21
155.2565722707
  0
LINE
  5
4BB
100
AcDbEntity
  8
RACCORDO
100
AcDbLine
 62
250
  6
CONTINUOUS
 10
147.4082511569
 20
155.2565722707
 11
148.2656559442
 21
155.2765481008
  0
LINE
  5
4BC
100
AcDbEntity
  8
RACCORDO
100
AcDbLine
 62
250
  6
CONTINUOUS
 10
148.2656559442
 20
155.2765481008
 11
148.51548504
 21
155.2809280221
  0
LINE
  5
4BD
100
AcDbEntity
  8
RACCORDO
100
AcDbLine
 62
250
  6
CONTINUOUS
 10
148.51548504
 20
155.2809280221
 11
148.7646043779
 21
155.2840096032
  0
LINE
  5
4BE
100
AcDbEntity
  8
RACCORDO
100
AcDbLine
 62
250
  6
CONTINUOUS
 10
148.7646043779
 20
155.2840096032
 11
149.0126895917
 21
155.2856505697
  0
LINE
  5
4BF
100
AcDbEntity
  8
RACCORDO
100
AcDbLine
 62
250
  6
CONTINUOUS
 10
210.2057103041
 20
155.2815065137
 11
211.262408505
 21
155.2857084547
  0
LINE
  5
4C0
100
AcDbEntity
  8
RACCORDO
100
AcDbLine
 62
250
  6
CONTINUOUS
 10
215.3150617734
 20
156.2756752224
 11
215.7620841735
 21
156.2764545539
  0
LINE
  5
4C1
100
AcDbEntity
  8
DRAFT
100
AcDbLine
 62
7
  6
CONTINUOUS
 10
207.2620841735
 20
156.3398060557
 11
153.2620841735
 21
156.3398060557
  0
LINE
  5
4C2
100
AcDbEntity
  8
DRAFT
100
AcDbLine
 62
7
  6
CONTINUOUS
 10
144.7620841735
 20
156.5533610487
 11
153.2620841735
 21
156.5533610487
  0
LINE
  5
4C3
100
AcDbEntity
  8
DRAFT
100
AcDbLine
 62
7
  6
CONTINUOUS
 10
207.2620841735
 20
156.5533610487
 11
215.7620841735
 21
156.5533610487
  0
LINE
  5
4C4
100
AcDbEntity
  8
DRAFT
100
AcDbLine
 62
7
  6
CONTINUOUS
 10
215.7620841735
 20
156.5728406333
 11
207.2620841735
 21
156.5728406333
  0
LINE
  5
4C5
100
AcDbEntity
  8
DRAFT
100
AcDbLine
 62
7
  6
CONTINUOUS
 10
153.2620841735
 20
156.5728406333
 11
144.7620841735
 21
156.5728406333
  0
LINE
  5
4C6
100
AcDbEntity
  8
0
100
AcDbLine
 62
7
  6
CONTINUOUS
 10
215.7620841735
 20
156.9533610487
 11
207.2620841735
 21
156.9533610487
  0
LINE
  5
4C7
100
AcDbEntity
  8
0
100
AcDbLine
 62
7
  6
CONTINUOUS
 10
153.2620841735
 20
156.9533610487
 11
144.7620841735
 21
156.9533610487
  0
LWPOLYLINE
  5
4C8
100
AcDbEntity
  8
RACCORDO
100
AcDbPolyline
 62
250
  6
CONTINUOUS
 90
3
 70
0
 10
207.7621045719
 20
156.2733870243
 10
211.5103575233
 20
156.2733836163
 10
215.3150617734
 20
156.2756752224
  0
LINE
  5
4C9
100
AcDbEntity
  8
RACCORDO
100
AcDbLine
 62
250
  6
CONTINUOUS
 10
208.6604208602
 20
155.2816895621
 11
210.2057103041
 21
155.2815065137
  0
LINE
  5
4CA
100
AcDbEntity
  8
RACCORDO
100
AcDbLine
 62
250
  6
CONTINUOUS
 10
149.0126895917
 20
155.2856505697
 11
149.2596777702
 21
155.2857562615
  0
LINE
  5
4CB
100
AcDbEntity
  8
RACCORDO
100
AcDbLine
 62
250
  6
CONTINUOUS
 10
144.7620841735
 20
156.2764545539
 11
207.7621045719
 21
156.2733870243
  0
LINE
  5
4CC
100
AcDbEntity
  8
RACCORDO
100
AcDbLine
 62
250
  6
CONTINUOUS
 10
211.262408505
 20
155.2857084547
 11
211.5059198743
 21
155.2856804765
  0
LINE
  5
4CD
100
AcDbEntity
  8
RACCORDO
100
AcDbLine
 62
250
  6
CONTINUOUS
 10
149.7530238493
 20
155.2832500093
 11
208.6604208602
 21
155.2816895621
  0
LINE
  5
4CE
100
AcDbEntity
  8
RACCORDO
100
AcDbLine
 62
250
  6
CONTINUOUS
 10
149.2596777702
 20
155.2857562615
 11
149.7530238493
 21
155.2832500093
  0
LINE
  5
4CF
100
AcDbEntity
  8
RACCORDO
100
AcDbLine
 62
250
  6
CONTINUOUS
 10
211.5059198743
 20
155.2856804765
 11
211.7503773297
 21
155.2841089775
  0
LINE
  5
4D0
100
AcDbEntity
  8
RACCORDO
100
AcDbLine
 62
250
  6
CONTINUOUS
 10
211.7503773297
 20
155.2841089775
 11
211.9958116264
 21
155.281133582
  0
LINE
  5
4D1
100
AcDbEntity
  8
RACCORDO
100
AcDbLine
 62
250
  6
CONTINUOUS
 10
211.9958116264
 20
155.281133582
 11
212.242677152
 21
155.2768678352
  0
LWPOLYLINE
  5
4D2
100
AcDbEntity
  8
RACCORDO
100
AcDbPolyline
 62
250
  6
CONTINUOUS
 90
55
 70
0
 10
215.7620841735
 20
156.2764545539
 10
216.0099002035
 20
156.2710056543
 10
216.2558965979
 20
156.2541273252
 10
216.4995552058
 20
156.22603699
 10
216.7411074386
 20
156.1868368843
 10
216.9793289654
 20
156.1368575598
 10
217.2116102221
 20
156.0769885865
 10
217.4375777185
 20
156.0078210674
 10
217.6569409713
 20
155.9299382876
 10
217.8674399274
 20
155.8447883856
 10
218.0687556098
 20
155.7533039667
 10
218.2610484947
 20
155.656209723
 10
218.4430367366
 20
155.5550322561
 10
218.6144459298
 20
155.4509209417
 10
218.7758757762
 20
155.3444945906
 10
218.9275092527
 20
155.2365778262
 10
219.0693371966
 20
155.1281300516
 10
219.2019176472
 20
155.0196626363
 10
219.3262711267
 20
154.9111882185
 10
219.4426620954
 20
154.8032509984
 10
219.551367308
 20
154.6963597371
 10
219.6533311732
 20
154.5902884925
 10
219.7488456157
 20
154.4853657798
 10
219.8381016983
 20
154.3820086428
 10
219.9218029777
 20
154.2799894617
 10
220.0000815059
 20
154.1796941596
 10
220.0732379648
 20
154.0812811713
 10
220.1421283188
 20
153.9840701782
 10
220.2066167322
 20
153.8886870616
 10
220.267170647
 20
153.7948741882
 10
220.3253467905
 20
153.7004693856
 10
220.3812769096
 20
153.6053368421
 10
220.434853571
 20
153.5097387202
 10
220.4870246861
 20
153.4119539404
 10
220.5381465212
 20
153.3110820808
 10
220.5876401518
 20
153.2080196458
 10
220.6349991147
 20
153.1037129234
 10
220.6801805157
 20
152.998222803
 10
220.7231585868
 20
152.8915744924
 10
220.7635704146
 20
152.7847138162
 10
220.8012688654
 20
152.6782123345
 10
220.8364752673
 20
152.5716359054
 10
220.8694005001
 20
152.4644297951
 10
220.8998959196
 20
152.3571564798
 10
220.9281147598
 20
152.2493578193
 10
220.9545472824
 20
152.1388999104
 10
220.9790594228
 20
152.0257474257
 10
221.0014890049
 20
151.9099777197
 10
221.0220080229
 20
151.7895726274
 10
221.0403428562
 20
151.6643788233
 10
221.056154444
 20
151.5345911035
 10
221.0692508156
 20
151.3986925686
 10
221.0792087739
 20
151.2562106624
 10
221.0855019453
 20
151.1077347192
 10
221.0876420065
 20
150.9533610487
  0
LINE
  5
4D3
100
AcDbEntity
  8
RACCORDO
100
AcDbLine
 62
250
  6
CONTINUOUS
 10
212.242677152
 20
155.2768678352
 11
212.7442429289
 21
155.2655176041
  0
LINE
  5
4D4
100
AcDbEntity
  8
RACCORDO
100
AcDbLine
 62
250
  6
CONTINUOUS
 10
212.7442429289
 20
155.2655176041
 11
215.9159391715
 21
155.1867982663
  0
LWPOLYLINE
  5
4D5
100
AcDbEntity
  8
RACCORDO
100
AcDbPolyline
 62
250
  6
CONTINUOUS
 90
55
 70
0
 10
215.9159391715
 20
155.1867982663
 10
216.1035057627
 20
155.1777186771
 10
216.2896247005
 20
155.1608920488
 10
216.4741078302
 20
155.1361303992
 10
216.657480515
 20
155.1027361918
 10
216.8387848122
 20
155.0610087751
 10
217.0157062371
 20
155.0124411163
 10
217.1881066875
 20
154.9570207534
 10
217.3559057704
 20
154.8947942105
 10
217.5171134525
 20
154.8276982572
 10
217.671546936
 20
154.7560288258
 10
217.8194383081
 20
154.679884832
 10
217.9596513649
 20
154.6011893897
 10
218.0919514699
 20
154.5205137295
 10
218.2168365095
 20
154.4378796274
 10
218.3344119659
 20
154.3545120591
 10
218.4446342463
 20
154.2709448337
 10
218.5479057507
 20
154.1871921927
 10
218.6450284301
 20
154.1036892652
 10
218.7361767039
 20
154.0207307365
 10
218.8215163142
 20
153.9384369091
 10
218.9018028104
 20
153.8569278875
 10
218.9772169808
 20
153.7763866545
 10
219.0478754022
 20
153.6969403019
 10
219.1143967852
 20
153.6185778507
 10
219.1768313234
 20
153.5415410141
 10
219.2353704035
 20
153.465823923
 10
219.2907900148
 20
153.3909952823
 10
219.3429530216
 20
153.31749468
 10
219.3921555721
 20
153.2450441995
 10
219.4397090414
 20
153.1720556048
 10
219.485716757
 20
153.0984275697
 10
219.5300597268
 20
153.02430049
 10
219.5735690287
 20
152.9483606759
 10
219.6165455788
 20
152.8698947693
 10
219.658515173
 20
152.7895737899
 10
219.6991121953
 20
152.7081423055
 10
219.7382777715
 20
152.6256065013
 10
219.7759788526
 20
152.5419677007
 10
219.8119595952
 20
152.4579970702
 10
219.8461530166
 20
152.3740251523
 10
219.8786153978
 20
152.2897645753
 10
219.9093111397
 20
152.2050737491
 10
219.9382033006
 20
152.1204186033
 10
219.9654325402
 20
152.0353848035
 10
219.9911880565
 20
151.9484877868
 10
220.0155397253
 20
151.8597038472
 10
220.0384118797
 20
151.7690605053
 10
220.0596653694
 20
151.6751117327
 10
220.0794230415
 20
151.5776822947
 10
220.0974765994
 20
151.4769262133
 10
220.1131363286
 20
151.3718780367
 10
220.1261466149
 20
151.2622157537
 10
220.1367007097
 20
151.1482613935
 10
220.1447825145
 20
151.0300208198
  0
LWPOLYLINE
  5
4D6
100
AcDbEntity
  8
0
100
AcDbPolyline
 62
7
  6
CONTINUOUS
 90
7
 70
0
 43
0.3500000006
 10
239.8800333252
 20
106.9573014221
 10
239.8800333252
 20
105.4573009644
 10
237.7371703491
 20
106.9573014221
 10
237.3086013794
 20
106.9573014221
 10
236.8800324097
 20
106.5287324524
 10
236.8800324097
 20
105.8858699341
 10
237.5228858643
 20
105.4573009644
  0
LWPOLYLINE
  5
4D7
100
AcDbEntity
  8
0
100
AcDbPolyline
 62
7
  6
CONTINUOUS
 90
7
 70
0
 43
0.3500000006
 10
239.8800333252
 20
100.7430151062
 10
239.8800333252
 20
99.2430146484
 10
237.7371703491
 20
100.7430151062
 10
237.3086013794
 20
100.7430151062
 10
236.8800324097
 20
100.3144461365
 10
236.8800324097
 20
99.6715836182
 10
237.5228858643
 20
99.2430146484
  0
LWPOLYLINE
  5
4D8
100
AcDbEntity
  8
0
100
AcDbPolyline
 62
7
  6
CONTINUOUS
 90
8
 70
0
 43
0.3500000006
 10
239.8800333252
 20
101.6001621094
 10
239.8800333252
 20
102.4573000488
 10
239.4514643555
 20
102.8858780823
 10
238.5943082886
 20
102.8858780823
 10
238.1657393188
 20
102.4573000488
 10
238.1657393188
 20
101.6001621094
 10
236.8800324097
 20
101.6001621094
 10
236.8800324097
 20
102.8858780823
  0
LWPOLYLINE
  5
4D9
100
AcDbEntity
  8
RACCORDO
100
AcDbPolyline
 62
250
  6
CONTINUOUS
 90
19
 70
0
 10
221.0890365759
 20
45.9533610487
 10
221.0838716242
 20
45.9426982211
 10
221.0719094224
 20
45.9320838883
 10
221.0532043729
 20
45.9215663228
 10
221.0278415433
 20
45.9111933567
 10
220.9959362799
 20
45.9010121648
 10
220.9576336833
 20
45.89106905
 10
220.9131079482
 20
45.8814092318
 10
220.862561571
 20
45.8720766417
 10
220.8062244298
 20
45.8631137231
 10
220.7443527377
 20
45.854561238
 10
220.6772278781
 20
45.8464580817
 10
220.6051551257
 20
45.8388411063
 10
220.5284621087
 20
45.8317449399
 10
220.4474977479
 20
45.8252018695
 10
220.3626307485
 20
45.8192416842
 10
220.2742473026
 20
45.8138914893
 10
220.1827492559
 20
45.8091755936
 10
220.0885527632
 20
45.8051154323
  0
LWPOLYLINE
  5
4DA
100
AcDbEntity
  8
IMPORT_IGES
100
AcDbPolyline
 62
250
  6
CONTINUOUS
 90
19
 70
0
 10
205.7643109299
 20
48.2571468841
 10
205.3553613203
 20
48.0057959376
 10
204.9325166157
 20
47.7579635273
 10
204.4965981975
 20
47.5153653828
 10
204.0466222583
 20
47.2787834945
 10
203.5850997048
 20
47.0508896255
 10
203.1185043674
 20
46.835884441
 10
202.6485867708
 20
46.6352366273
 10
202.1758840982
 20
46.4497742929
 10
201.705605058
 20
46.2818848235
 10
201.240107582
 20
46.1323847042
 10
200.7792981375
 20
46.0011186023
 10
200.3248197225
 20
45.88836104
 10
199.8783499363
 20
45.7941628926
 10
199.4399512223
 20
45.7180813342
 10
199.0086971198
 20
45.6595515439
 10
198.5846575704
 20
45.6182296944
 10
198.1689501823
 20
45.5938033816
 10
197.7620841735
 20
45.5857839976
  0
LWPOLYLINE
  5
4DB
100
AcDbEntity
  8
IMPORT_IGES
100
AcDbPolyline
 62
250
  6
CONTINUOUS
 90
13
 70
0
 10
205.6652856596
 20
48.4628922278
 10
205.7032165451
 20
48.4837814338
 10
205.7391831649
 20
48.5042659312
 10
205.7726589398
 20
48.524066617
 10
205.8030735685
 20
48.5428604286
 10
205.8301859858
 20
48.5604826488
 10
205.8539087962
 20
48.5768818582
 10
205.8738751385
 20
48.5918271887
 10
205.8899121922
 20
48.6051623399
 10
205.9019994165
 20
48.6168609643
 10
205.9099468307
 20
48.6267779683
 10
205.9137077839
 20
48.6347934974
 10
205.9133547026
 20
48.6408605933
  0
LINE
  5
4DC
100
AcDbEntity
  8
RACCORDO
100
AcDbLine
 62
250
  6
CONTINUOUS
 10
206.0269327163
 20
49.5408610487
 11
206.1128125122
 21
49.5852757603
  0
LWPOLYLINE
  5
4DD
100
AcDbEntity
  8
RACCORDO
100
AcDbPolyline
 62
250
  6
CONTINUOUS
 90
19
 70
0
 10
206.556866084
 20
49.7270823103
 10
206.5203989781
 20
49.7092224921
 10
206.4841758683
 20
49.6920699315
 10
206.4484391163
 20
49.6757393929
 10
206.4134278296
 20
49.6603401405
 10
206.3793762616
 20
49.6459752075
 10
206.3465122445
 20
49.6327407067
 10
206.3150556647
 20
49.6207251874
 10
206.2852169918
 20
49.6100090427
 10
206.2571958699
 20
49.6006639721
 10
206.2311797825
 20
49.5927525013
 10
206.2073427976
 20
49.5863275642
 10
206.1858444032
 20
49.5814321484
 10
206.1668284405
 20
49.5780990079
 10
206.1504221409
 20
49.576350444
 10
206.1367352753
 20
49.5761981557
 10
206.1258594192
 20
49.5776431616
 10
206.1178673405
 20
49.5806757935
 10
206.1128125122
 20
49.5852757603
  0
LWPOLYLINE
  5
4DE
100
AcDbEntity
  8
RACCORDO
100
AcDbPolyline
 62
250
  6
CONTINUOUS
 90
19
 70
0
 10
207.7621474621
 20
46.8303086902
 10
207.7231579853
 20
46.8184637077
 10
207.6844344079
 20
46.8075132957
 10
207.6462371288
 20
46.7975308313
 10
207.6088241916
 20
46.7885834496
 10
207.5724454968
 20
46.7807305911
 10
207.5373415317
 20
46.7740240081
 10
207.5037471055
 20
46.7685086067
 10
207.4718893733
 20
46.764221734
 10
207.4419825396
 20
46.7611922005
 10
207.4142276663
 20
46.7594403631
 10
207.3888113387
 20
46.758977994
 10
207.3659044309
 20
46.7598081922
 10
207.3456609315
 20
46.7619253575
 10
207.328216915
 20
46.765315244
 10
207.313689635
 20
46.7699550565
 10
207.3021767313
 20
46.7758135859
 10
207.2937555767
 20
46.7828514201
 10
207.2884827575
 20
46.7910212224
  0
LINE
  5
4DF
100
AcDbEntity
  8
DRAFT
100
AcDbLine
 62
7
  6
CONTINUOUS
 10
159.7620841735
 20
163.0645198989
 11
153.2620841735
 21
163.008676356
  0
LINE
  5
4E0
100
AcDbEntity
  8
DRAFT
100
AcDbLine
 62
7
  6
CONTINUOUS
 10
200.7620841735
 20
163.0645198989
 11
207.2620841735
 21
163.008676356
  0
LWPOLYLINE
  5
4E1
100
AcDbEntity
  8
0
100
AcDbPolyline
 62
7
  6
CONTINUOUS
 90
13
 70
0
 43
0.3500000006
 10
178.4406599121
 20
177.7176329956
 10
178.1549351807
 20
177.9319174805
 10
178.1549351807
 20
178.5747709351
 10
178.4406599121
 20
179.0033399048
 10
179.0835133667
 20
179.0033399048
 10
179.3692199707
 20
178.5747709351
 10
179.3692199707
 20
177.9319174805
 10
179.0835133667
 20
177.7176329956
 10
179.5120823364
 20
177.2890640259
 10
179.5120823364
 20
176.431907959
 10
179.0835133667
 20
176.0033389893
 10
178.4406599121
 20
176.0033389893
 10
178.0120909424
 20
176.431907959
  0
LINE
  5
4E2
100
AcDbEntity
  8
RACCORDO
100
AcDbLine
 62
250
  6
CONTINUOUS
 10
208.7886851202
 20
40.6267522026
 11
208.7489322028
 21
40.5855134122
  0
LINE
  5
4E3
100
AcDbEntity
  8
RACCORDO
100
AcDbLine
 62
250
  6
CONTINUOUS
 10
208.2891156701
 20
41.107855372
 11
208.2493272302
 21
41.0675843956
  0
LINE
  5
4E4
100
AcDbEntity
  8
DRAFT
100
AcDbLine
 62
7
  6
CONTINUOUS
 10
159.3620841735
 20
163.9393438463
 11
159.7620841735
 21
163.9393438463
  0
LINE
  5
4E5
100
AcDbEntity
  8
DRAFT
100
AcDbLine
 62
7
  6
CONTINUOUS
 10
200.7620841735
 20
163.9393438463
 11
201.1620841735
 21
163.9393438463
  0
LINE
  5
4E6
100
AcDbEntity
  8
ASSI
100
AcDbLine
 62
250
  6
CONTINUOUS
 10
159.7620841735
 20
164.9061297132
 11
200.7620841735
 21
164.9061297132
  0
LINE
  5
4E7
100
AcDbEntity
  8
ASSI
100
AcDbLine
 62
7
  6
CONTINUOUS
 10
153.2620841735
 20
165.2533610487
 11
159.282663628
 21
165.2533610487
  0
LINE
  5
4E8
100
AcDbEntity
  8
ASSI
100
AcDbLine
 62
7
  6
CONTINUOUS
 10
159.7620841735
 20
165.2533610487
 11
200.7620841735
 21
165.2533610487
  0
LINE
  5
4E9
100
AcDbEntity
  8
ASSI
100
AcDbLine
 62
7
  6
CONTINUOUS
 10
201.2415047189
 20
165.2533610487
 11
207.2620841735
 21
165.2533610487
  0
LWPOLYLINE
  5
4EA
100
AcDbEntity
  8
RACCORDO
100
AcDbPolyline
 62
250
  6
CONTINUOUS
 90
22
 70
0
 10
215.7620841734
 20
156.2764545539
 10
215.7718509401
 20
156.2721034667
 10
215.7815816302
 20
156.2622285846
 10
215.7912403004
 20
156.2468663839
 10
215.8007912734
 20
156.22607361
 10
215.8101992697
 20
156.1999270678
 10
215.8194295381
 20
156.1685233384
 10
215.8284479836
 20
156.1319784216
 10
215.8372212939
 20
156.0904273078
 10
215.8457170621
 20
156.0440234798
 10
215.8539039065
 20
155.9929383449
 10
215.8617515865
 20
155.9373606023
 10
215.8692311143
 20
155.8774955463
 10
215.876314862
 20
155.8135643075
 10
215.8829766638
 20
155.745803036
 10
215.8891919123
 20
155.6744620296
 10
215.8949376493
 20
155.5998048127
 10
215.9001926517
 20
155.5221071511
 10
215.9049375094
 20
155.4416560322
 10
215.9091546958
 20
155.3587486213
 10
215.912828633
 20
155.2736911657
 10
215.91594575
 20
155.1867978504
  0
LWPOLYLINE
  5
4EB
100
AcDbEntity
  8
RACCORDO
100
AcDbPolyline
 62
250
  6
CONTINUOUS
 90
19
 70
0
 10
221.0876420065
 20
150.9533610487
 10
221.0827565333
 20
150.9587765191
 10
221.0715251064
 20
150.9641690001
 10
221.0539954045
 20
150.9695156001
 10
221.0302418428
 20
150.9747936221
 10
221.0003652577
 20
150.9799806605
 10
220.9644924783
 20
150.9850546955
 10
220.9227757885
 20
150.9899941876
 10
220.8753922799
 20
150.9947781678
 10
220.8225431006
 20
150.9993863277
 10
220.7644526011
 20
151.0037991052
 10
220.7013673816
 20
151.0079977676
 10
220.6335552459
 20
151.011964491
 10
220.5613040641
 20
151.0156824362
 10
220.48492055
 20
151.0191358203
 10
220.4047289587
 20
151.0223099831
 10
220.3210697116
 20
151.0251914502
 10
220.2342979516
 20
151.0277679892
 10
220.1447820341
 20
151.0300286624
  0
LWPOLYLINE
  5
4EC
100
AcDbEntity
  8
RACCORDO
100
AcDbPolyline
 62
250
  6
CONTINUOUS
 90
19
 70
0
 10
215.7620841734
 20
40.6249637422
 10
215.7710860532
 20
40.6303503799
 10
215.7800448999
 20
40.6428804576
 10
215.7889178886
 20
40.6624940792
 10
215.7976626048
 20
40.6890974879
 10
215.8062372471
 20
40.7225635145
 10
215.814600827
 20
40.7627321852
 10
215.8227133651
 20
40.8094114861
 10
215.830536082
 20
40.8623782816
 10
215.8380315836
 20
40.9213793804
 10
215.84516404
 20
40.9861327463
 10
215.8518993566
 20
41.056328846
 10
215.8582053375
 20
41.1316321291
 10
215.8640518394
 20
41.2116826388
 10
215.8694109141
 20
41.2960977123
 10
215.8742569434
 20
41.3844738066
 10
215.8785667623
 20
41.4763884566
 10
215.8823197698
 20
41.5714022983
 10
215.8854980261
 20
41.6690611462
  0
LWPOLYLINE
  5
4ED
100
AcDbEntity
  8
IMPORT_IGES
100
AcDbPolyline
 62
250
  6
CONTINUOUS
 90
10
 70
0
 10
207.7442314183
 20
41.1875856895
 10
207.7411836245
 20
41.1862613929
 10
207.7317855661
 20
41.1870487407
 10
207.715960635
 20
41.1899480184
 10
207.6936754945
 20
41.1952528763
 10
207.6648523612
 20
41.2026563358
 10
207.6293306127
 20
41.2112531861
 10
207.5870791835
 20
41.2207363672
 10
207.5382136936
 20
41.2313936942
 10
207.4828029517
 20
41.2432120733
  0
LWPOLYLINE
  5
4EE
100
AcDbEntity
  8
0
100
AcDbPolyline
 62
7
  6
CONTINUOUS
 90
6
 70
0
 43
0.3500000006
 10
180.3692202759
 20
176.0033389893
 10
181.4406608276
 20
176.0033389893
 10
181.6549453125
 20
176.2176234741
 10
181.6549453125
 20
177.2890640259
 10
181.2263763428
 20
177.7176329956
 10
180.797807373
 20
177.7176329956
  0
LWPOLYLINE
  5
4EF
100
AcDbEntity
  8
IMPORT_IGES
100
AcDbPolyline
 62
250
  6
CONTINUOUS
 90
3
 70
0
 10
16.8747097478
 20
40.3839032997
 10
16.9086489485
 20
40.3668995157
 10
16.9429803585
 20
40.3567215693
  0
LWPOLYLINE
  5
4F0
100
AcDbEntity
  8
0
100
AcDbPolyline
 62
7
  6
CONTINUOUS
 90
5
 70
0
 43
0.3500000006
 10
53.4661814575
 20
177.7176329956
 10
53.8233237762
 20
177.9319174805
 10
53.8233237762
 20
178.5747709351
 10
53.4661814575
 20
179.0033399048
 10
52.6090389862
 20
179.0033399048
  0
LINE
  5
4F1
100
AcDbEntity
  8
IMPORT_IGES
100
AcDbLine
 62
250
  6
CONTINUOUS
 10
16.9429803585
 20
40.3567215693
 11
16.9772678426
 21
40.3533610487
  0
LWPOLYLINE
  5
4F2
100
AcDbEntity
  8
IMPORT_IGES
100
AcDbPolyline
 62
250
  6
CONTINUOUS
 90
4
 70
0
 10
13.079725232
 20
41.4936158998
 10
13.0143247009
 20
41.5023322026
 10
12.9747966616
 20
41.5089190175
 10
12.9619257922
 20
41.5141244172
  0
LINE
  5
4F3
100
AcDbEntity
  8
DRAFT
100
AcDbLine
 62
7
  6
CONTINUOUS
 10
31.7762978831
 20
163.0645198989
 11
31.6771823764
 21
163.008676356
  0
LINE
  5
4F4
100
AcDbEntity
  8
DRAFT
100
AcDbLine
 62
250
  6
CONTINUOUS
 10
33.563002248
 20
159.5667204079
 11
33.4637034198
 21
159.511834683
  0
LINE
  5
4F5
100
AcDbEntity
  8
DRAFT
100
AcDbLine
 62
250
  6
CONTINUOUS
 10
32.6303883568
 20
159.0512340693
 11
32.5127574372
 21
158.9862155953
  0
LINE
  5
4F6
100
AcDbEntity
  8
0
100
AcDbLine
 62
7
  6
CONTINUOUS
 10
35.6138179752
 20
161.7729746035
 11
35.7260115274
 21
161.8094284984
  0
LINE
  5
4F7
100
AcDbEntity
  8
0
100
AcDbLine
 62
7
  6
CONTINUOUS
 10
37.7785095969
 20
162.4763255477
 11
37.8905399535
 21
162.5127264171
  0
LWPOLYLINE
  5
4F8
100
AcDbEntity
  8
IMPORT_IGES
100
AcDbPolyline
 62
250
  6
CONTINUOUS
 90
10
 70
0
 10
17.6861381238
 20
41.1875856895
 10
17.5632753695
 20
41.1862613929
 10
17.4395037367
 20
41.1870487407
 10
17.3153534546
 20
41.1899480184
 10
17.1915827868
 20
41.1952528763
 10
17.0684752159
 20
41.2026563358
 10
16.9458544029
 20
41.2112531861
 10
16.824044162
 20
41.2207363672
 10
16.7038507935
 20
41.2313936942
 10
16.5858591284
 20
41.2432120733
  0
LINE
  5
4F9
100
AcDbEntity
  8
IMPORT_IGES
100
AcDbLine
 62
7
  6
CONTINUOUS
 10
16.9189227192
 20
40.3533682267
 11
16.9581185342
 21
40.3535283705
  0
LINE
  5
4FA
100
AcDbEntity
  8
IMPORT_IGES
100
AcDbLine
 62
7
  6
CONTINUOUS
 10
13.9489176703
 20
40.3533610487
 11
16.9189227192
 21
40.3533682267
  0
LINE
  5
4FB
100
AcDbEntity
  8
IMPORT_IGES
100
AcDbLine
 62
250
  6
CONTINUOUS
 10
17.6859594999
 20
41.1875856476
 11
17.9186070454
 21
41.1875856476
  0
LINE
  5
4FC
100
AcDbEntity
  8
IMPORT_IGES
100
AcDbLine
 62
7
  6
CONTINUOUS
 10
16.9673230747
 20
40.3533836709
 11
21.3262978831
 21
40.3533610487
  0
LWPOLYLINE
  5
4FD
100
AcDbEntity
  8
IMPORT_IGES
100
AcDbPolyline
 62
7
  6
CONTINUOUS
 90
3
 70
0
 10
16.9538543702
 20
40.3534882723
 10
16.9565103748
 20
40.3534607653
 10
16.9673230747
 20
40.3533836709
  0
LINE
  5
4FE
100
AcDbEntity
  8
RACCORDO
100
AcDbLine
 62
7
  6
CONTINUOUS
 10
48.7088454766
 20
40.089815188
 11
34.7262978831
 21
40.3338814641
  0
LINE
  5
4FF
100
AcDbEntity
  8
RACCORDO
100
AcDbLine
 62
7
  6
CONTINUOUS
 10
19.0615424937
 20
40.6267903711
 11
34.7262978831
 21
40.3533610487
  0
LWPOLYLINE
  5
500
100
AcDbEntity
  8
IMPORT_IGES
100
AcDbPolyline
 62
250
  6
CONTINUOUS
 90
12
 70
0
 10
15.6996611494
 20
41.3187496644
 10
15.3703758473
 20
41.3251271511
 10
15.0574206104
 20
41.333757042
 10
14.7620845651
 20
41.3445936241
 10
14.4856181205
 20
41.3582335548
 10
14.2292927896
 20
41.3741049708
 10
13.9942211271
 20
41.3906203481
 10
13.7812111044
 20
41.4086941638
 10
13.5914819492
 20
41.4280689448
 10
13.426058547
 20
41.4458497123
 10
13.2855529184
 20
41.4632060877
 10
13.079725232
 20
41.4936158998
  0
LWPOLYLINE
  5
501
100
AcDbEntity
  8
RACCORDO
100
AcDbPolyline
 62
250
  6
CONTINUOUS
 90
19
 70
0
 10
19.1661899918
 20
40.6249637422
 10
19.0630135795
 20
40.6303503799
 10
18.9604555081
 20
40.6428804576
 10
18.8590060244
 20
40.6624940792
 10
18.7591500759
 20
40.6890974879
 10
18.661364993
 20
40.7225635145
 10
18.5661182064
 20
40.7627321852
 10
18.4738650139
 20
40.8094114861
 10
18.3850464029
 20
40.8623782816
 10
18.3000869431
 20
40.9213793804
 10
18.2193927566
 20
40.9861327463
 10
18.1433495768
 20
41.056328846
 10
18.0723209045
 20
41.1316321291
 10
18.0066462645
 20
41.2116826388
 10
17.9466396005
 20
41.2960977123
 10
17.8925877687
 20
41.3844738066
 10
17.8447491461
 20
41.4763884566
 10
17.8033524003
 20
41.5714022983
 10
17.7685954102
 20
41.6690611462
  0
LWPOLYLINE
  5
502
100
AcDbEntity
  8
IMPORT_IGES
100
AcDbPolyline
 62
250
  6
CONTINUOUS
 90
5
 70
0
 10
15.9991027793
 20
41.3011813123
 10
15.9177658017
 20
41.307632972
 10
15.8405276452
 20
41.3125947996
 10
15.7677599428
 20
41.3162895016
 10
15.6996576114
 20
41.3187497349
  0
LINE
  5
503
100
AcDbEntity
  8
IMPORT_IGES
100
AcDbLine
 62
250
  6
CONTINUOUS
 10
16.9289318647
 20
40.3557856252
 11
16.9538644161
 21
40.3535508655
  0
LINE
  5
504
100
AcDbEntity
  8
IMPORT_IGES
100
AcDbLine
 62
250
  6
CONTINUOUS
 10
16.1743866029
 20
41.2848545944
 11
15.9991027793
 21
41.3011813123
  0
LINE
  5
505
100
AcDbEntity
  8
IMPORT_IGES
100
AcDbLine
 62
250
  6
CONTINUOUS
 10
16.4687353377
 20
41.2549710812
 11
16.5198669479
 21
41.2499909281
  0
LWPOLYLINE
  5
506
100
AcDbEntity
  8
IMPORT_IGES
100
AcDbPolyline
 62
250
  6
CONTINUOUS
 90
3
 70
0
 10
16.5198669479
 20
41.2499909281
 10
16.5725193895
 20
41.2446127658
 10
16.5859126556
 20
41.2432077724
  0
LWPOLYLINE
  5
507
100
AcDbEntity
  8
IMPORT_IGES
100
AcDbPolyline
 62
250
  6
CONTINUOUS
 90
3
 70
0
 10
16.4687477035
 20
41.2549758651
 10
16.3668818742
 20
41.2657540741
 10
16.1743866029
 20
41.2848545944
  0
LINE
  5
508
100
AcDbEntity
  8
0
100
AcDbLine
 62
7
  6
CONTINUOUS
 10
35.6017834922
 20
161.1913264612
 11
35.6892787829
 21
161.2701075748
  0
LINE
  5
509
100
AcDbEntity
  8
0
100
AcDbLine
 62
7
  6
CONTINUOUS
 10
37.293077604
 20
162.7141745196
 11
37.3807438978
 21
162.793109605
  0
LINE
  5
50A
100
AcDbEntity
  8
DRAFT
100
AcDbLine
 62
7
  6
CONTINUOUS
 10
34.0030841336
 20
161.8533610487
 11
33.9555620514
 21
161.8114720833
  0
LINE
  5
50B
100
AcDbEntity
  8
DRAFT
100
AcDbLine
 62
7
  6
CONTINUOUS
 10
37.3762978831
 20
163.616691814
 11
37.3344089177
 21
163.5815527047
  0
LINE
  5
50C
100
AcDbEntity
  8
DRAFT
100
AcDbLine
 62
7
  6
CONTINUOUS
 10
36.5762978831
 20
159.2900302834
 11
36.6181868485
 21
159.3251693927
  0
LINE
  5
50D
100
AcDbEntity
  8
DRAFT
100
AcDbLine
 62
7
  6
CONTINUOUS
 10
35.5262978831
 20
158.8270518514
 11
35.4844089177
 21
158.8024450197
  0
LINE
  5
50E
100
AcDbEntity
  8
0
100
AcDbLine
 62
7
  6
CONTINUOUS
 10
38.3756446948
 20
161.4241164168
 11
38.2732930676
 21
161.3650236773
  0
LINE
  5
50F
100
AcDbEntity
  8
0
100
AcDbLine
 62
7
  6
CONTINUOUS
 10
36.4043026985
 20
160.2859615846
 11
36.3019679534
 21
160.2268785919
  0
LINE
  5
510
100
AcDbEntity
  8
DRAFT
100
AcDbLine
 62
7
  6
CONTINUOUS
 10
33.860701883
 20
157.5868115275
 11
33.7262978831
 21
157.5230302738
  0
LINE
  5
511
100
AcDbEntity
  8
RACCORDO
100
AcDbLine
 62
250
  6
CONTINUOUS
 10
19.0834114968
 20
45.9533610487
 11
49.7262978831
 21
45.9533610487
  0
LINE
  5
512
100
AcDbEntity
  8
SUPERFICI
100
AcDbLine
 62
7
  6
CONTINUOUS
 10
17.6155634253
 20
41.7751884608
 11
17.6894327217
 21
41.583612718
  0
LINE
  5
513
100
AcDbEntity
  8
SUPERFICI
100
AcDbLine
 62
7
  6
CONTINUOUS
 10
17.541498065
 20
41.9700191016
 11
17.6155634253
 21
41.7751884608
  0
LINE
  5
514
100
AcDbEntity
  8
SUPERFICI
100
AcDbLine
 62
7
  6
CONTINUOUS
 10
17.4694534771
 20
42.1622689552
 11
17.541498065
 21
41.9700191016
  0
LINE
  5
515
100
AcDbEntity
  8
SUPERFICI
100
AcDbLine
 62
7
  6
CONTINUOUS
 10
17.39939593
 20
42.3518984802
 11
17.4694534771
 21
42.1622689552
  0
LINE
  5
516
100
AcDbEntity
  8
SUPERFICI
100
AcDbLine
 62
7
  6
CONTINUOUS
 10
17.3312914414
 20
42.5388702521
 11
17.39939593
 21
42.3518984802
  0
LINE
  5
517
100
AcDbEntity
  8
SUPERFICI
100
AcDbLine
 62
7
  6
CONTINUOUS
 10
17.2651058798
 20
42.7231488049
 11
17.3312914414
 21
42.5388702521
  0
LINE
  5
518
100
AcDbEntity
  8
SUPERFICI
100
AcDbLine
 62
7
  6
CONTINUOUS
 10
17.2239712621
 20
42.8389992496
 11
17.2651058798
 21
42.7231488049
  0
LINE
  5
519
100
AcDbEntity
  8
SUPERFICI
100
AcDbLine
 62
7
  6
CONTINUOUS
 10
16.2599554357
 20
151.984509042
 11
16.2090449342
 21
151.7961095267
  0
LINE
  5
51A
100
AcDbEntity
  8
SUPERFICI
100
AcDbLine
 62
7
  6
CONTINUOUS
 10
16.3108227922
 20
152.1694646794
 11
16.2599554357
 21
151.984509042
  0
LINE
  5
51B
100
AcDbEntity
  8
SUPERFICI
100
AcDbLine
 62
7
  6
CONTINUOUS
 10
16.3630489853
 20
152.3561268621
 11
16.3108227922
 21
152.1694646794
  0
LINE
  5
51C
100
AcDbEntity
  8
SUPERFICI
100
AcDbLine
 62
7
  6
CONTINUOUS
 10
16.4173861744
 20
152.5470284843
 11
16.3630489853
 21
152.3561268621
  0
LINE
  5
51D
100
AcDbEntity
  8
SUPERFICI
100
AcDbLine
 62
7
  6
CONTINUOUS
 10
16.4731545536
 20
152.7396215529
 11
16.4173861744
 21
152.5470284843
  0
LINE
  5
51E
100
AcDbEntity
  8
SUPERFICI
100
AcDbLine
 62
7
  6
CONTINUOUS
 10
16.529601514
 20
152.9312788461
 11
16.4731545536
 21
152.7396215529
  0
LINE
  5
51F
100
AcDbEntity
  8
SUPERFICI
100
AcDbLine
 62
7
  6
CONTINUOUS
 10
16.5860345638
 20
153.1197433797
 11
16.529601514
 21
152.9312788461
  0
LINE
  5
520
100
AcDbEntity
  8
SUPERFICI
100
AcDbLine
 62
7
  6
CONTINUOUS
 10
16.6456927766
 20
153.3157146788
 11
16.5860345638
 21
153.1197433797
  0
LINE
  5
521
100
AcDbEntity
  8
SUPERFICI
100
AcDbLine
 62
7
  6
CONTINUOUS
 10
16.704203549
 20
153.504803326
 11
16.6456927766
 21
153.3157146788
  0
LINE
  5
522
100
AcDbEntity
  8
SUPERFICI
100
AcDbLine
 62
7
  6
CONTINUOUS
 10
16.7654301055
 20
153.6995132044
 11
16.704203549
 21
153.504803326
  0
LINE
  5
523
100
AcDbEntity
  8
SUPERFICI
100
AcDbLine
 62
7
  6
CONTINUOUS
 10
16.8247084389
 20
153.8850839131
 11
16.7654301055
 21
153.6995132044
  0
LINE
  5
524
100
AcDbEntity
  8
SUPERFICI
100
AcDbLine
 62
7
  6
CONTINUOUS
 10
16.8862684216
 20
154.0748604678
 11
16.8247084389
 21
153.8850839131
  0
LINE
  5
525
100
AcDbEntity
  8
SUPERFICI
100
AcDbLine
 62
7
  6
CONTINUOUS
 10
16.9501046019
 20
154.2686236025
 11
16.8862684216
 21
154.0748604678
  0
LINE
  5
526
100
AcDbEntity
  8
SUPERFICI
100
AcDbLine
 62
7
  6
CONTINUOUS
 10
17.0110854487
 20
154.4509540707
 11
16.9501046019
 21
154.2686236025
  0
LWPOLYLINE
  5
527
100
AcDbEntity
  8
RACCORDO
100
AcDbPolyline
 62
250
  6
CONTINUOUS
 90
39
 70
0
 10
17.2999111731
 20
155.2808028109
 10
17.2995801318
 20
155.2798218214
 10
17.2991782768
 20
155.2784155116
 10
17.2988219633
 20
155.2768678352
 10
17.2985122866
 20
155.2751486002
 10
17.2983025132
 20
155.2733726465
 10
17.2981929758
 20
155.2715066177
 10
17.298180636
 20
155.269513198
 10
17.2983151006
 20
155.2675120858
 10
17.2986083247
 20
155.2655176041
 10
17.299050409
 20
155.2634837921
 10
17.2996586666
 20
155.261443346
 10
17.3004358466
 20
155.2593846108
 10
17.3013817362
 20
155.2572895781
 10
17.3025095819
 20
155.2551858586
 10
17.3038170257
 20
155.2530636715
 10
17.305309674
 20
155.2509120389
 10
17.3070127016
 20
155.2487511288
 10
17.3089146054
 20
155.2465440842
 10
17.3110299059
 20
155.244289393
 10
17.3134221146
 20
155.2420258932
 10
17.3160747921
 20
155.2396636718
 10
17.3190068634
 20
155.2371950752
 10
17.3223343215
 20
155.2347213693
 10
17.3260392534
 20
155.2320829059
 10
17.3301428616
 20
155.2292509088
 10
17.3348206339
 20
155.2264543596
 10
17.3400764138
 20
155.2235113201
 10
17.3459141001
 20
155.2203293238
 10
17.3525124019
 20
155.2172345296
 10
17.359888036
 20
155.2141009712
 10
17.3680412135
 20
155.2107783741
 10
17.3771305744
 20
155.2075512369
 10
17.3871674259
 20
155.2042715991
 10
17.3981681011
 20
155.2007956377
 10
17.4103045741
 20
155.1974174735
 10
17.4236488895
 20
155.1941355974
 10
17.4381709342
 20
155.1906480239
 10
17.4538941812
 20
155.1867982663
  0
LINE
  5
528
100
AcDbEntity
  8
SUPERFICI
100
AcDbLine
 62
7
  6
CONTINUOUS
 10
17.0740794034
 20
154.6365770561
 11
17.0110854487
 21
154.4509540707
  0
LINE
  5
529
100
AcDbEntity
  8
SUPERFICI
100
AcDbLine
 62
7
  6
CONTINUOUS
 10
17.139126767
 20
154.8254541119
 11
17.0740794034
 21
154.6365770561
  0
LINE
  5
52A
100
AcDbEntity
  8
SUPERFICI
100
AcDbLine
 62
7
  6
CONTINUOUS
 10
17.2062687472
 20
155.0175470618
 11
17.139126767
 21
154.8254541119
  0
LINE
  5
52B
100
AcDbEntity
  8
SUPERFICI
100
AcDbLine
 62
7
  6
CONTINUOUS
 10
17.2755471467
 20
155.2128170535
 11
17.2062687472
 21
155.0175470618
  0
LINE
  5
52C
100
AcDbEntity
  8
SUPERFICI
100
AcDbLine
 62
7
  6
CONTINUOUS
 10
17.2999099373
 20
155.2807993714
 11
17.2755471467
 21
155.2128170535
  0
LINE
  5
52D
100
AcDbEntity
  8
RACCORDO
100
AcDbLine
 62
250
  6
CONTINUOUS
 10
17.2999110501
 20
155.2808024684
 11
17.2999593672
 21
155.2809350162
  0
LINE
  5
52E
100
AcDbEntity
  8
DRAFT
100
AcDbLine
 62
7
  6
CONTINUOUS
 10
34.8129671178
 20
161.0533610487
 11
34.8481062271
 21
161.0952500141
  0
LINE
  5
52F
100
AcDbEntity
  8
DRAFT
100
AcDbLine
 62
7
  6
CONTINUOUS
 10
39.1396286483
 20
161.8533610487
 11
39.104489539
 21
161.8114720833
  0
LINE
  5
530
100
AcDbEntity
  8
DRAFT
100
AcDbLine
 62
7
  6
CONTINUOUS
 10
36.5762978831
 20
164.4265747982
 11
36.6181868485
 21
164.4740968804
  0
LWPOLYLINE
  5
531
100
AcDbEntity
  8
RACCORDO
100
AcDbPolyline
 62
250
  6
CONTINUOUS
 90
4
 70
0
 10
19.0834114968
 20
45.9533610487
 10
18.9829510826
 20
45.9426982211
 10
18.8830666032
 20
45.9320838883
 10
17.7029149486
 20
45.8051154323
  0
LINE
  5
532
100
AcDbEntity
  8
SUPERFICI
100
AcDbLine
 62
7
  6
CONTINUOUS
 10
17.1552052227
 20
43.0350066623
 11
17.2239712621
 21
42.8389992496
  0
LINE
  5
533
100
AcDbEntity
  8
SUPERFICI
100
AcDbLine
 62
7
  6
CONTINUOUS
 10
17.0886124354
 20
43.2277030516
 11
17.1552052227
 21
43.0350066623
  0
LINE
  5
534
100
AcDbEntity
  8
SUPERFICI
100
AcDbLine
 62
7
  6
CONTINUOUS
 10
17.0241494942
 20
43.4170482602
 11
17.0886124354
 21
43.2277030516
  0
LINE
  5
535
100
AcDbEntity
  8
SUPERFICI
100
AcDbLine
 62
7
  6
CONTINUOUS
 10
16.9617738772
 20
43.6030020995
 11
17.0241494942
 21
43.4170482602
  0
LINE
  5
536
100
AcDbEntity
  8
SUPERFICI
100
AcDbLine
 62
7
  6
CONTINUOUS
 10
16.9014443853
 20
43.7855229529
 11
16.9617738772
 21
43.6030020995
  0
LINE
  5
537
100
AcDbEntity
  8
SUPERFICI
100
AcDbLine
 62
7
  6
CONTINUOUS
 10
16.8383520739
 20
43.9793239393
 11
16.9014443853
 21
43.7855229529
  0
LINE
  5
538
100
AcDbEntity
  8
SUPERFICI
100
AcDbLine
 62
7
  6
CONTINUOUS
 10
16.7776217767
 20
44.1688104719
 11
16.8383520739
 21
43.9793239393
  0
LINE
  5
539
100
AcDbEntity
  8
SUPERFICI
100
AcDbLine
 62
7
  6
CONTINUOUS
 10
16.7192840167
 20
44.3536664693
 11
16.7776217767
 21
44.1688104719
  0
LINE
  5
53A
100
AcDbEntity
  8
SUPERFICI
100
AcDbLine
 62
7
  6
CONTINUOUS
 10
16.659158459
 20
44.5472224767
 11
16.7192840167
 21
44.3536664693
  0
LINE
  5
53B
100
AcDbEntity
  8
SUPERFICI
100
AcDbLine
 62
7
  6
CONTINUOUS
 10
16.6018499375
 20
44.7347062394
 11
16.659158459
 21
44.5472224767
  0
LINE
  5
53C
100
AcDbEntity
  8
SUPERFICI
100
AcDbLine
 62
7
  6
CONTINUOUS
 10
16.5436118808
 20
44.9283662264
 11
16.6018499375
 21
44.7347062394
  0
LINE
  5
53D
100
AcDbEntity
  8
SUPERFICI
100
AcDbLine
 62
7
  6
CONTINUOUS
 10
16.4888712476
 20
45.1134121578
 11
16.5436118808
 21
44.9283662264
  0
LINE
  5
53E
100
AcDbEntity
  8
RACCORDO
100
AcDbLine
 62
7
  6
CONTINUOUS
 10
16.426645285
 20
45.3280802916
 11
16.4954380312
 21
45.0919953495
  0
LINE
  5
53F
100
AcDbEntity
  8
SUPERFICI
100
AcDbLine
 62
7
  6
CONTINUOUS
 10
16.434336318
 20
45.3008071779
 11
16.4888712476
 21
45.1134121578
  0
LINE
  5
540
100
AcDbEntity
  8
SUPERFICI
100
AcDbLine
 62
7
  6
CONTINUOUS
 10
16.3807220427
 20
45.4881429662
 11
16.434336318
 21
45.3008071779
  0
LINE
  5
541
100
AcDbEntity
  8
RACCORDO
100
AcDbLine
 62
7
  6
CONTINUOUS
 10
16.3512875165
 20
45.5925867803
 11
16.426645285
 21
45.3280802916
  0
LINE
  5
542
100
AcDbEntity
  8
SUPERFICI
100
AcDbLine
 62
7
  6
CONTINUOUS
 10
16.3287916774
 20
45.6726733521
 11
16.3807220427
 21
45.4881429662
  0
LINE
  5
543
100
AcDbEntity
  8
RACCORDO
100
AcDbLine
 62
7
  6
CONTINUOUS
 10
16.2756898364
 20
45.8646823241
 11
16.3512875165
 21
45.5925867803
  0
LINE
  5
544
100
AcDbEntity
  8
SUPERFICI
100
AcDbLine
 62
7
  6
CONTINUOUS
 10
16.2760871311
 20
45.8632108594
 11
16.3287916774
 21
45.6726733521
  0
LINE
  5
545
100
AcDbEntity
  8
SUPERFICI
100
AcDbLine
 62
7
  6
CONTINUOUS
 10
16.2413704248
 20
45.9905977979
 11
16.2760871311
 21
45.8632108594
  0
LINE
  5
546
100
AcDbEntity
  8
RACCORDO
100
AcDbLine
 62
7
  6
CONTINUOUS
 10
16.2014009474
 20
46.1392221954
 11
16.2756898364
 21
45.8646823241
  0
LINE
  5
547
100
AcDbEntity
  8
RACCORDO
100
AcDbLine
 62
7
  6
CONTINUOUS
 10
16.1287657231
 20
46.4150163781
 11
16.2014009474
 21
46.1392221954
  0
LWPOLYLINE
  5
548
100
AcDbEntity
  8
RACCORDO
100
AcDbPolyline
 62
7
  6
CONTINUOUS
 90
3
 70
0
 10
16.0230247401
 20
46.8305160334
 10
16.0578405421
 20
46.6918033217
 10
16.1287657231
 20
46.4150163781
  0
LINE
  5
549
100
AcDbEntity
  8
SUPERFICI
100
AcDbLine
 62
7
  6
CONTINUOUS
 10
15.9768033302
 20
47.017706845
 11
15.9798344735
 21
47.0053373772
  0
LINE
  5
54A
100
AcDbEntity
  8
SUPERFICI
100
AcDbLine
 62
7
  6
CONTINUOUS
 10
15.9313257036
 20
47.2051134532
 11
15.9768033302
 21
47.017706845
  0
LINE
  5
54B
100
AcDbEntity
  8
SUPERFICI
100
AcDbLine
 62
7
  6
CONTINUOUS
 10
15.8804921762
 20
47.4189130904
 11
15.9313257036
 21
47.2051134532
  0
LINE
  5
54C
100
AcDbEntity
  8
SUPERFICI
100
AcDbLine
 62
7
  6
CONTINUOUS
 10
15.8307643842
 20
47.6328116729
 11
15.8804921762
 21
47.4189130904
  0
LINE
  5
54D
100
AcDbEntity
  8
SUPERFICI
100
AcDbLine
 62
7
  6
CONTINUOUS
 10
15.8203353417
 20
47.6782990391
 11
15.8307643842
 21
47.6328116729
  0
LINE
  5
54E
100
AcDbEntity
  8
SUPERFICI
100
AcDbLine
 62
7
  6
CONTINUOUS
 10
15.1276842608
 20
146.4274714669
 11
15.0986393758
 21
146.2107067255
  0
LINE
  5
54F
100
AcDbEntity
  8
SUPERFICI
100
AcDbLine
 62
7
  6
CONTINUOUS
 10
15.1568931124
 20
146.6374746851
 11
15.1276842608
 21
146.4274714669
  0
LINE
  5
550
100
AcDbEntity
  8
SUPERFICI
100
AcDbLine
 62
7
  6
CONTINUOUS
 10
15.1862580841
 20
146.8413298647
 11
15.1568931124
 21
146.6374746851
  0
LINE
  5
551
100
AcDbEntity
  8
SUPERFICI
100
AcDbLine
 62
7
  6
CONTINUOUS
 10
15.2157800389
 20
147.0396233584
 11
15.1862580841
 21
146.8413298647
  0
LINE
  5
552
100
AcDbEntity
  8
SUPERFICI
100
AcDbLine
 62
7
  6
CONTINUOUS
 10
15.2454684626
 20
147.2329199658
 11
15.2157800389
 21
147.0396233584
  0
LINE
  5
553
100
AcDbEntity
  8
SUPERFICI
100
AcDbLine
 62
7
  6
CONTINUOUS
 10
15.2753403143
 20
147.4217606181
 11
15.2454684626
 21
147.2329199658
  0
LINE
  5
554
100
AcDbEntity
  8
SUPERFICI
100
AcDbLine
 62
7
  6
CONTINUOUS
 10
15.3104550491
 20
147.6371346399
 11
15.2753403143
 21
147.4217606181
  0
LINE
  5
555
100
AcDbEntity
  8
SUPERFICI
100
AcDbLine
 62
7
  6
CONTINUOUS
 10
15.34590264
 20
147.8479448698
 11
15.3104550491
 21
147.6371346399
  0
LINE
  5
556
100
AcDbEntity
  8
0
100
AcDbLine
 62
7
  6
CONTINUOUS
 10
15.3092337078
 20
147.9303365137
 11
15.3138225555
 21
147.9569243482
  0
LINE
  5
557
100
AcDbEntity
  8
SUPERFICI
100
AcDbLine
 62
7
  6
CONTINUOUS
 10
15.381758354
 20
148.0550295959
 11
15.34590264
 21
147.8479448698
  0
LINE
  5
558
100
AcDbEntity
  8
SUPERFICI
100
AcDbLine
 62
7
  6
CONTINUOUS
 10
15.4179658423
 20
148.2583985351
 11
15.381758354
 21
148.0550295959
  0
LINE
  5
559
100
AcDbEntity
  8
SUPERFICI
100
AcDbLine
 62
7
  6
CONTINUOUS
 10
15.4442685906
 20
148.4027803507
 11
15.4179658423
 21
148.2583985351
  0
LINE
  5
55A
100
AcDbEntity
  8
SUPERFICI
100
AcDbLine
 62
7
  6
CONTINUOUS
 10
15.7641822859
 20
149.9794996646
 11
15.7237459069
 21
149.7958274126
  0
LINE
  5
55B
100
AcDbEntity
  8
SUPERFICI
100
AcDbLine
 62
7
  6
CONTINUOUS
 10
15.8070464061
 20
150.170129894
 11
15.7641822859
 21
149.9794996646
  0
LINE
  5
55C
100
AcDbEntity
  8
RACCORDO
100
AcDbLine
 62
7
  6
CONTINUOUS
 10
15.9680485368
 20
150.8536626641
 11
15.7237315429
 21
149.7954578872
  0
LINE
  5
55D
100
AcDbEntity
  8
SUPERFICI
100
AcDbLine
 62
7
  6
CONTINUOUS
 10
15.851644101
 20
150.3643203161
 11
15.8070464061
 21
150.170129894
  0
LINE
  5
55E
100
AcDbEntity
  8
SUPERFICI
100
AcDbLine
 62
7
  6
CONTINUOUS
 10
15.897329027
 20
150.5591504799
 11
15.851644101
 21
150.3643203161
  0
LINE
  5
55F
100
AcDbEntity
  8
SUPERFICI
100
AcDbLine
 62
7
  6
CONTINUOUS
 10
15.9456318858
 20
150.7609419994
 11
15.897329027
 21
150.5591504799
  0
LINE
  5
560
100
AcDbEntity
  8
SUPERFICI
100
AcDbLine
 62
7
  6
CONTINUOUS
 10
15.9799106082
 20
150.901695251
 11
15.9456318858
 21
150.7609419994
  0
LINE
  5
561
100
AcDbEntity
  8
SUPERFICI
100
AcDbLine
 62
7
  6
CONTINUOUS
 10
16.2090449342
 20
151.7961095267
 11
16.187397537
 21
151.71495781
  0
LINE
  5
562
100
AcDbEntity
  8
0
100
AcDbLine
 62
7
  6
CONTINUOUS
 10
38.2667393404
 20
161.9960576679
 11
38.1970919884
 21
161.9001963118
  0
LINE
  5
563
100
AcDbEntity
  8
0
100
AcDbLine
 62
7
  6
CONTINUOUS
 10
36.9285784196
 20
160.1542371698
 11
36.8593090453
 21
160.0588960554
  0
LINE
  5
564
100
AcDbEntity
  8
RACCORDO
100
AcDbLine
 62
7
  6
CONTINUOUS
 10
94.0454955301
 20
55.5803329758
 11
58.1262978831
 21
54.9533610487
  0
LINE
  5
565
100
AcDbEntity
  8
RACCORDO
100
AcDbLine
 62
7
  6
CONTINUOUS
 10
50.7175713476
 20
55.0120117612
 11
56.5262978831
 21
55.0627037497
  0
LINE
  5
566
100
AcDbEntity
  8
0
100
AcDbLine
 62
7
  6
CONTINUOUS
 10
58.1262978831
 20
54.9533610487
 11
56.5262978831
 21
54.9533610487
  0
LINE
  5
567
100
AcDbEntity
  8
RACCORDO
100
AcDbLine
 62
250
  6
CONTINUOUS
 10
49.7262978831
 20
56.063493106
 11
48.7088454766
 21
56.063493106
  0
LINE
  5
568
100
AcDbEntity
  8
RACCORDO
100
AcDbLine
 62
250
  6
CONTINUOUS
 10
17.5729142565
 20
57.3785513757
 11
16.5400018502
 21
57.3788098257
  0
LINE
  5
569
100
AcDbEntity
  8
RACCORDO
100
AcDbLine
 62
250
  6
CONTINUOUS
 10
15.172532357
 20
57.3785206401
 11
14.8331954274
 21
57.3792258806
  0
LINE
  5
56A
100
AcDbEntity
  8
SUPERFICI
100
AcDbLine
 62
7
  6
CONTINUOUS
 10
15.7784500631
 20
47.8633179494
 11
15.8203353417
 21
47.6782990391
  0
LINE
  5
56B
100
AcDbEntity
  8
SUPERFICI
100
AcDbLine
 62
7
  6
CONTINUOUS
 10
15.7355594193
 20
48.0568340201
 11
15.7784500631
 21
47.8633179494
  0
LINE
  5
56C
100
AcDbEntity
  8
SUPERFICI
100
AcDbLine
 62
7
  6
CONTINUOUS
 10
15.7253533831
 20
48.1035187337
 11
15.7355594193
 21
48.0568340201
  0
LINE
  5
56D
100
AcDbEntity
  8
SUPERFICI
100
AcDbLine
 62
7
  6
CONTINUOUS
 10
15.3931328312
 20
49.7872057353
 11
15.4370256874
 21
49.5434295326
  0
LINE
  5
56E
100
AcDbEntity
  8
SUPERFICI
100
AcDbLine
 62
7
  6
CONTINUOUS
 10
15.3585043888
 20
49.985318934
 11
15.3931328312
 21
49.7872057353
  0
LINE
  5
56F
100
AcDbEntity
  8
SUPERFICI
100
AcDbLine
 62
7
  6
CONTINUOUS
 10
15.3239940653
 20
50.1883200352
 11
15.3585043888
 21
49.985318934
  0
LINE
  5
570
100
AcDbEntity
  8
SUPERFICI
100
AcDbLine
 62
7
  6
CONTINUOUS
 10
15.2897190281
 20
50.3959425425
 11
15.3239940653
 21
50.1883200352
  0
LINE
  5
571
100
AcDbEntity
  8
SUPERFICI
100
AcDbLine
 62
7
  6
CONTINUOUS
 10
15.2558206261
 20
50.6077425366
 11
15.2897190281
 21
50.3959425425
  0
LINE
  5
572
100
AcDbEntity
  8
SUPERFICI
100
AcDbLine
 62
7
  6
CONTINUOUS
 10
15.2265707202
 20
50.7961625275
 11
15.2558206261
 21
50.6077425366
  0
LINE
  5
573
100
AcDbEntity
  8
SUPERFICI
100
AcDbLine
 62
7
  6
CONTINUOUS
 10
15.1977868761
 20
50.9871970263
 11
15.2265707202
 21
50.7961625275
  0
LINE
  5
574
100
AcDbEntity
  8
SUPERFICI
100
AcDbLine
 62
7
  6
CONTINUOUS
 10
15.1695399435
 20
51.1806005498
 11
15.1977868761
 21
50.9871970263
  0
LINE
  5
575
100
AcDbEntity
  8
SUPERFICI
100
AcDbLine
 62
7
  6
CONTINUOUS
 10
15.1430623534
 20
51.367741641
 11
15.1695399435
 21
51.1806005498
  0
LINE
  5
576
100
AcDbEntity
  8
SUPERFICI
100
AcDbLine
 62
7
  6
CONTINUOUS
 10
15.0010705186
 20
52.4953258794
 11
15.0018230674
 21
52.4886636297
  0
LWPOLYLINE
  5
577
100
AcDbEntity
  8
IMPORT_IGES
100
AcDbPolyline
 62
250
  6
CONTINUOUS
 90
18
 70
0
 10
15.8067039867
 20
47.7385793209
 10
15.8068630416
 20
47.7371222887
 10
15.8237782417
 20
47.5633350746
 10
15.8386463638
 20
47.3881901874
 10
15.8521481079
 20
47.2039063322
 10
15.8644676815
 20
47.0055674945
 10
15.8750834013
 20
46.7985386886
 10
15.8836582088
 20
46.5904327159
 10
15.8898854832
 20
46.3866084407
 10
15.8938982626
 20
46.1818980889
 10
15.8960233773
 20
45.9681428338
 10
15.8960889598
 20
45.7401276164
 10
15.8938918816
 20
45.503695146
 10
15.8897667811
 20
45.2672222103
 10
15.8837524467
 20
45.0366886745
 10
15.8757748705
 20
44.8062255885
 10
15.8660284493
 20
44.5664406278
 10
15.8540079066
 20
44.3115538238
  0
LINE
  5
578
100
AcDbEntity
  8
SUPERFICI
100
AcDbLine
 62
7
  6
CONTINUOUS
 10
14.9657822354
 20
52.8184828666
 11
14.9880066248
 21
52.6124395521
  0
LINE
  5
579
100
AcDbEntity
  8
IMPORT_IGES
100
AcDbLine
 62
250
  6
CONTINUOUS
 10
17.6625216425
 20
41.4582585411
 11
17.6354621602
 21
41.7233181125
  0
LINE
  5
57A
100
AcDbEntity
  8
SUPERFICI
100
AcDbLine
 62
7
  6
CONTINUOUS
 10
14.9443932734
 20
53.0259229192
 11
14.9657822354
 21
52.8184828666
  0
LINE
  5
57B
100
AcDbEntity
  8
SUPERFICI
100
AcDbLine
 62
7
  6
CONTINUOUS
 10
14.9238738655
 20
53.2347586312
 11
14.9443932734
 21
53.0259229192
  0
LINE
  5
57C
100
AcDbEntity
  8
SUPERFICI
100
AcDbLine
 62
7
  6
CONTINUOUS
 10
14.9042587883
 20
53.445027812
 11
14.9238738655
 21
53.2347586312
  0
LINE
  5
57D
100
AcDbEntity
  8
IMPORT_IGES
100
AcDbLine
 62
250
  6
CONTINUOUS
 10
17.6860371726
 20
41.1875863804
 11
17.6625216425
 21
41.4582585411
  0
LINE
  5
57E
100
AcDbEntity
  8
SUPERFICI
100
AcDbLine
 62
7
  6
CONTINUOUS
 10
14.8855609941
 20
53.6570089128
 11
14.9042587883
 21
53.445027812
  0
LINE
  5
57F
100
AcDbEntity
  8
SUPERFICI
100
AcDbLine
 62
7
  6
CONTINUOUS
 10
14.8677363234
 20
53.8714632359
 11
14.8855609941
 21
53.6570089128
  0
LINE
  5
580
100
AcDbEntity
  8
RACCORDO
100
AcDbLine
 62
250
  6
CONTINUOUS
 10
17.6908900817
 20
45.9549325034
 11
17.7316187537
 21
45.4450512686
  0
LINE
  5
581
100
AcDbEntity
  8
SUPERFICI
100
AcDbLine
 62
7
  6
CONTINUOUS
 10
14.8507861838
 20
54.0886174572
 11
14.8677363234
 21
53.8714632359
  0
LINE
  5
582
100
AcDbEntity
  8
RACCORDO
100
AcDbLine
 62
250
  6
CONTINUOUS
 10
17.7316187537
 20
45.4450512686
 11
17.7576942835
 21
45.092871998
  0
LINE
  5
583
100
AcDbEntity
  8
SUPERFICI
100
AcDbLine
 62
7
  6
CONTINUOUS
 10
14.8347254018
 20
54.3085832694
 11
14.8507861838
 21
54.0886174572
  0
LINE
  5
584
100
AcDbEntity
  8
RACCORDO
100
AcDbLine
 62
250
  6
CONTINUOUS
 10
17.7576942835
 20
45.092871998
 11
17.7811378856
 21
44.7486510549
  0
LINE
  5
585
100
AcDbEntity
  8
SUPERFICI
100
AcDbLine
 62
7
  6
CONTINUOUS
 10
14.8195838731
 20
54.5313367645
 11
14.8347254018
 21
54.3085832694
  0
LWPOLYLINE
  5
586
100
AcDbEntity
  8
RACCORDO
100
AcDbPolyline
 62
250
  6
CONTINUOUS
 90
3
 70
0
 10
17.7811378856
 20
44.7486510549
 10
17.8023186597
 20
44.4088809482
 10
17.8118196698
 20
44.2430010895
  0
LINE
  5
587
100
AcDbEntity
  8
SUPERFICI
100
AcDbLine
 62
7
  6
CONTINUOUS
 10
14.8054105555
 20
54.7566576372
 11
14.8195838731
 21
54.5313367645
  0
LINE
  5
588
100
AcDbEntity
  8
SUPERFICI
100
AcDbLine
 62
7
  6
CONTINUOUS
 10
14.7940853765
 20
54.9514819286
 11
14.8054105555
 21
54.7566576372
  0
LINE
  5
589
100
AcDbEntity
  8
SUPERFICI
100
AcDbLine
 62
7
  6
CONTINUOUS
 10
14.78357532
 20
55.1474544441
 11
14.7940853765
 21
54.9514819286
  0
LINE
  5
58A
100
AcDbEntity
  8
SUPERFICI
100
AcDbLine
 62
7
  6
CONTINUOUS
 10
14.7738745674
 20
55.3451626098
 11
14.78357532
 21
55.1474544441
  0
LINE
  5
58B
100
AcDbEntity
  8
SUPERFICI
100
AcDbLine
 62
7
  6
CONTINUOUS
 10
14.7635922836
 20
55.5783513366
 11
14.7738745674
 21
55.3451626098
  0
LINE
  5
58C
100
AcDbEntity
  8
SUPERFICI
100
AcDbLine
 62
7
  6
CONTINUOUS
 10
14.7623264458
 20
55.6091830125
 11
14.7635922836
 21
55.5783513366
  0
LWPOLYLINE
  5
58D
100
AcDbEntity
  8
IMPORT_IGES
100
AcDbPolyline
 62
250
  6
CONTINUOUS
 90
19
 70
0
 10
15.6996582218
 20
41.3186937161
 10
15.7015119455
 20
41.2364161005
 10
15.7091577414
 20
41.1543784033
 10
15.7224569916
 20
41.0737210388
 10
15.7410091124
 20
40.9961738604
 10
15.764657548
 20
40.9217633895
 10
15.7938104385
 20
40.8490208032
 10
15.8284306368
 20
40.7783662916
 10
15.8680333664
 20
40.7112153242
 10
15.9127796685
 20
40.6478687833
 10
15.9625583734
 20
40.5892183488
 10
16.0167377515
 20
40.5360556346
 10
16.0748272964
 20
40.4887389209
 10
16.1358577646
 20
40.4480352075
 10
16.1992735307
 20
40.4143936061
 10
16.2652677867
 20
40.3879068768
 10
16.3334146677
 20
40.3687530657
 10
16.4025161189
 20
40.3572135677
 10
16.4715653012
 20
40.3533610487
  0
LINE
  5
58E
100
AcDbEntity
  8
0
100
AcDbLine
 62
7
  6
CONTINUOUS
 10
14.6762978831
 20
60.9039067527
 11
14.6762978831
 21
63.8652302051
  0
LINE
  5
58F
100
AcDbEntity
  8
SUPERFICI
100
AcDbLine
 62
7
  6
CONTINUOUS
 10
14.7262978831
 20
140.5281769947
 11
14.7262978831
 21
57.3785451027
  0
LINE
  5
590
100
AcDbEntity
  8
SUPERFICI
100
AcDbLine
 62
7
  6
CONTINUOUS
 10
14.7803933535
 20
142.696415674
 11
14.7709046369
 21
142.4970477012
  0
LINE
  5
591
100
AcDbEntity
  8
SUPERFICI
100
AcDbLine
 62
7
  6
CONTINUOUS
 10
14.7912598814
 20
142.9041560678
 11
14.7803933535
 21
142.696415674
  0
LINE
  5
592
100
AcDbEntity
  8
SUPERFICI
100
AcDbLine
 62
7
  6
CONTINUOUS
 10
14.8029715717
 20
143.109338557
 11
14.7912598814
 21
142.9041560678
  0
LINE
  5
593
100
AcDbEntity
  8
SUPERFICI
100
AcDbLine
 62
7
  6
CONTINUOUS
 10
14.8154733856
 20
143.3118870379
 11
14.8029715717
 21
143.109338557
  0
LINE
  5
594
100
AcDbEntity
  8
SUPERFICI
100
AcDbLine
 62
7
  6
CONTINUOUS
 10
14.8287012854
 20
143.5114824087
 11
14.8154733856
 21
143.3118870379
  0
LINE
  5
595
100
AcDbEntity
  8
SUPERFICI
100
AcDbLine
 62
7
  6
CONTINUOUS
 10
14.8426065314
 20
143.707973902
 11
14.8287012854
 21
143.5114824087
  0
LINE
  5
596
100
AcDbEntity
  8
SUPERFICI
100
AcDbLine
 62
7
  6
CONTINUOUS
 10
14.8684727079
 20
144.0443844941
 11
14.8426065314
 21
143.707973902
  0
LINE
  5
597
100
AcDbEntity
  8
SUPERFICI
100
AcDbLine
 62
7
  6
CONTINUOUS
 10
14.8840966963
 20
144.2325781585
 11
14.8684727079
 21
144.0443844941
  0
LINE
  5
598
100
AcDbEntity
  8
SUPERFICI
100
AcDbLine
 62
7
  6
CONTINUOUS
 10
14.9003246612
 20
144.4180953676
 11
14.8840966963
 21
144.2325781585
  0
LINE
  5
599
100
AcDbEntity
  8
SUPERFICI
100
AcDbLine
 62
7
  6
CONTINUOUS
 10
14.9214275226
 20
144.6463447131
 11
14.9003246612
 21
144.4180953676
  0
LINE
  5
59A
100
AcDbEntity
  8
SUPERFICI
100
AcDbLine
 62
7
  6
CONTINUOUS
 10
14.9567870661
 20
145.0021713138
 11
14.9214275226
 21
144.6463447131
  0
LINE
  5
59B
100
AcDbEntity
  8
SUPERFICI
100
AcDbLine
 62
7
  6
CONTINUOUS
 10
14.9796831328
 20
145.2181630559
 11
14.9567870661
 21
145.0021713138
  0
LINE
  5
59C
100
AcDbEntity
  8
SUPERFICI
100
AcDbLine
 62
7
  6
CONTINUOUS
 10
15.0219461211
 20
145.5930054983
 11
14.9796831328
 21
145.2181630559
  0
LINE
  5
59D
100
AcDbEntity
  8
SUPERFICI
100
AcDbLine
 62
7
  6
CONTINUOUS
 10
15.0457840357
 20
145.7928157974
 11
15.0219461211
 21
145.5930054983
  0
LINE
  5
59E
100
AcDbEntity
  8
SUPERFICI
100
AcDbLine
 62
7
  6
CONTINUOUS
 10
15.0697406741
 20
145.9862593038
 11
15.0457744828
 21
145.7927372351
  0
LINE
  5
59F
100
AcDbEntity
  8
SUPERFICI
100
AcDbLine
 62
7
  6
CONTINUOUS
 10
15.0986393758
 20
146.2107067255
 11
15.0697406741
 21
145.9862593038
  0
LINE
  5
5A0
100
AcDbEntity
  8
0
100
AcDbLine
 62
7
  6
CONTINUOUS
 10
35.8271573198
 20
160.6548292535
 11
35.875083333
 21
160.7624728416
  0
LINE
  5
5A1
100
AcDbEntity
  8
0
100
AcDbLine
 62
7
  6
CONTINUOUS
 10
36.7528715195
 20
162.7340173883
 11
36.8010612555
 21
162.8422533074
  0
LINE
  5
5A2
100
AcDbEntity
  8
RACCORDO
100
AcDbLine
 62
250
  6
CONTINUOUS
 10
56.5262978831
 20
62.0650217302
 11
50.7175713476
 21
61.0305071863
  0
LWPOLYLINE
  5
5A3
100
AcDbEntity
  8
RACCORDO
100
AcDbPolyline
 62
250
  6
CONTINUOUS
 90
7
 70
0
 10
50.3499464399
 20
59.9473293448
 10
50.408885451
 20
59.9505128232
 10
50.4690777996
 20
59.9531496303
 10
50.5302857415
 20
59.9552293601
 10
50.5922675274
 20
59.9567438066
 10
50.6547783573
 20
59.9576869967
 10
50.7175713476
 20
59.9580552136
  0
LWPOLYLINE
  5
5A4
100
AcDbEntity
  8
RACCORDO
100
AcDbPolyline
 62
250
  6
CONTINUOUS
 90
4
 70
0
 10
14.8331954274
 20
57.3792258806
 10
14.7731118007
 20
57.3791529565
 10
14.7378269005
 20
57.3789260302
 10
14.7262978833
 20
57.3785451018
  0
LINE
  5
5A5
100
AcDbEntity
  8
RACCORDO
100
AcDbLine
 62
250
  6
CONTINUOUS
 10
50.7175713476
 20
59.9580552136
 11
56.5262978831
 21
59.9654542206
  0
LINE
  5
5A6
100
AcDbEntity
  8
RACCORDO
100
AcDbLine
 62
250
  6
CONTINUOUS
 10
18.8982358521
 20
57.3786873563
 11
17.5729142565
 21
57.3786853439
  0
LINE
  5
5A7
100
AcDbEntity
  8
0
100
AcDbLine
 62
7
  6
CONTINUOUS
 10
14.7262978831
 20
60.9039067527
 11
14.6762978831
 21
60.9039067527
  0
LINE
  5
5A8
100
AcDbEntity
  8
RACCORDO
100
AcDbLine
 62
250
  6
CONTINUOUS
 10
95.1262948236
 20
60.9533610487
 11
58.1262978831
 21
60.9533610487
  0
LINE
  5
5A9
100
AcDbEntity
  8
0
100
AcDbLine
 62
250
  6
CONTINUOUS
 10
58.1262978831
 20
60.9533610487
 11
56.5262978831
 21
60.9533610487
  0
LINE
  5
5AA
100
AcDbEntity
  8
0
100
AcDbLine
 62
250
  6
CONTINUOUS
 10
14.7262978831
 20
61.0289688224
 11
14.6762978831
 21
61.0289688224
  0
LINE
  5
5AB
100
AcDbEntity
  8
0
100
AcDbLine
 62
250
  6
CONTINUOUS
 10
14.7262978831
 20
61.3865806797
 11
14.6762978831
 21
61.3865806797
  0
LINE
  5
5AC
100
AcDbEntity
  8
0
100
AcDbLine
 62
250
  6
CONTINUOUS
 10
14.7262978831
 20
61.8949709052
 11
14.6762978831
 21
61.8949709052
  0
LINE
  5
5AD
100
AcDbEntity
  8
RACCORDO
100
AcDbLine
 62
7
  6
CONTINUOUS
 10
95.1262978831
 20
61.9533610487
 11
95.6262978831
 21
61.9533610487
  0
LINE
  5
5AE
100
AcDbEntity
  8
RACCORDO
100
AcDbLine
 62
250
  6
CONTINUOUS
 10
16.5400018502
 20
57.3788098257
 11
15.172532357
 21
57.3785206401
  0
LINE
  5
5AF
100
AcDbEntity
  8
RACCORDO
100
AcDbLine
 62
250
  6
CONTINUOUS
 10
50.3499464401
 20
59.9473293464
 11
49.9561425904
 21
60.0825580035
  0
LINE
  5
5B0
100
AcDbEntity
  8
SUPERFICI
100
AcDbLine
 62
7
  6
CONTINUOUS
 10
14.9880066248
 20
52.6124395521
 11
15.0010705186
 21
52.4953258794
  0
LINE
  5
5B1
100
AcDbEntity
  8
RACCORDO
100
AcDbLine
 62
250
  6
CONTINUOUS
 10
19.0834114968
 20
45.9533610487
 11
19.1167381091
 21
45.4913478523
  0
LINE
  5
5B2
100
AcDbEntity
  8
RACCORDO
100
AcDbLine
 62
250
  6
CONTINUOUS
 10
19.1167381091
 20
45.4913478523
 11
19.146669889
 21
45.0369522188
  0
LINE
  5
5B3
100
AcDbEntity
  8
RACCORDO
100
AcDbLine
 62
250
  6
CONTINUOUS
 10
19.146669889
 20
45.0369522188
 11
19.1733059998
 21
44.5913699044
  0
LINE
  5
5B4
100
AcDbEntity
  8
RACCORDO
100
AcDbLine
 62
250
  6
CONTINUOUS
 10
19.1733059998
 20
44.5913699044
 11
19.1971382492
 21
44.1490058971
  0
LWPOLYLINE
  5
5B5
100
AcDbEntity
  8
RACCORDO
100
AcDbPolyline
 62
250
  6
CONTINUOUS
 90
4
 70
0
 10
17.8118196698
 20
44.2430010895
 10
17.8283494659
 20
43.9220718462
 10
17.8353878475
 20
43.7670129721
 10
17.8415815997
 20
43.6156940724
  0
LWPOLYLINE
  5
5B6
100
AcDbEntity
  8
RACCORDO
100
AcDbPolyline
 62
250
  6
CONTINUOUS
 90
11
 70
0
 10
18.9923702778
 20
47.1729863095
 10
18.9979498965
 20
47.0579601065
 10
19.0040076489
 20
46.9443202346
 10
19.0106088833
 20
46.8310253918
 10
19.0179926006
 20
46.71580368
 10
19.0260826731
 20
46.5988646263
 10
19.0349552285
 20
46.4799987036
 10
19.0450776502
 20
46.3563054324
 10
19.0566057327
 20
46.2268179863
 10
19.0693836816
 20
46.0925031917
 10
19.0834114968
 20
45.9533610487
  0
LINE
  5
5B7
100
AcDbEntity
  8
RACCORDO
100
AcDbLine
 62
250
  6
CONTINUOUS
 10
19.1971382492
 20
44.1490058971
 11
19.2175320999
 21
43.7197596839
  0
LINE
  5
5B8
100
AcDbEntity
  8
RACCORDO
100
AcDbLine
 62
250
  6
CONTINUOUS
 10
18.9827985309
 20
47.4032217954
 11
18.9923702778
 21
47.1729863095
  0
LINE
  5
5B9
100
AcDbEntity
  8
RACCORDO
100
AcDbLine
 62
250
  6
CONTINUOUS
 10
19.2175320999
 20
43.7197596839
 11
19.2343373
 21
43.3080291061
  0
LWPOLYLINE
  5
5BA
100
AcDbEntity
  8
RACCORDO
100
AcDbPolyline
 62
250
  6
CONTINUOUS
 90
23
 70
0
 10
17.8415815997
 20
43.6156940724
 10
17.8515638849
 20
43.3254001986
 10
17.8554169637
 20
43.1869519712
 10
17.858514042
 20
43.0531506282
 10
17.8608750712
 20
42.9245383985
 10
17.8625158512
 20
42.8012189223
 10
17.8634368494
 20
42.6832470438
 10
17.8636327617
 20
42.5710340484
 10
17.8631135758
 20
42.4646073784
 10
17.8618760404
 20
42.3640711667
 10
17.8598920358
 20
42.2698878102
 10
17.8571866821
 20
42.182143621
 10
17.8537413205
 20
42.1007639821
 10
17.8494632902
 20
42.0259303961
 10
17.8443733228
 20
41.9574551043
 10
17.8384595681
 20
41.8955404309
 10
17.8315831006
 20
41.8408905143
 10
17.8237619432
 20
41.7933363431
 10
17.8149899815
 20
41.7528885953
 10
17.805095908
 20
41.7203545673
 10
17.7940295159
 20
41.6958291343
 10
17.7818592899
 20
41.6788000853
 10
17.7685947178
 20
41.6690609444
  0
LINE
  5
5BB
100
AcDbEntity
  8
RACCORDO
100
AcDbLine
 62
250
  6
CONTINUOUS
 10
19.2343373
 20
43.3080291061
 11
19.2475364882
 21
42.9163389991
  0
LINE
  5
5BC
100
AcDbEntity
  8
RACCORDO
100
AcDbLine
 62
250
  6
CONTINUOUS
 10
18.9752492433
 20
47.6320506427
 11
18.9827985309
 21
47.4032217954
  0
LWPOLYLINE
  5
5BD
100
AcDbEntity
  8
RACCORDO
100
AcDbPolyline
 62
250
  6
CONTINUOUS
 90
10
 70
0
 10
17.6316286087
 20
47.1094535183
 10
17.6352501706
 20
46.9876960663
 10
17.6393639831
 20
46.8671089833
 10
17.6440142944
 20
46.7465929736
 10
17.6494367443
 20
46.6237034901
 10
17.6555606731
 20
46.4987693074
 10
17.6624592009
 20
46.371549586
 10
17.670591845
 20
46.2388047501
 10
17.6801177112
 20
46.0995324473
 10
17.6908900817
 20
45.9549325034
  0
LINE
  5
5BE
100
AcDbEntity
  8
RACCORDO
100
AcDbLine
 62
250
  6
CONTINUOUS
 10
17.6340663555
 20
154.0207307365
 11
17.6391739621
 21
153.8569278875
  0
LINE
  5
5BF
100
AcDbEntity
  8
RACCORDO
100
AcDbLine
 62
250
  6
CONTINUOUS
 10
19.2475364882
 20
42.9163389991
 11
19.2573335854
 21
42.5476017742
  0
LINE
  5
5C0
100
AcDbEntity
  8
RACCORDO
100
AcDbLine
 62
250
  6
CONTINUOUS
 10
18.9694977506
 20
47.8533596664
 11
18.9752492433
 21
47.6320506427
  0
LINE
  5
5C1
100
AcDbEntity
  8
RACCORDO
100
AcDbLine
 62
250
  6
CONTINUOUS
 10
17.6391739621
 20
153.8569278875
 11
17.6430601578
 21
153.6969403019
  0
LINE
  5
5C2
100
AcDbEntity
  8
RACCORDO
100
AcDbLine
 62
250
  6
CONTINUOUS
 10
17.6259189608
 20
47.3522016846
 11
17.6316286087
 21
47.1094535183
  0
LINE
  5
5C3
100
AcDbEntity
  8
RACCORDO
100
AcDbLine
 62
250
  6
CONTINUOUS
 10
18.9653486503
 20
48.0640014926
 11
18.9694977506
 21
47.8533596664
  0
LINE
  5
5C4
100
AcDbEntity
  8
RACCORDO
100
AcDbLine
 62
250
  6
CONTINUOUS
 10
17.6430601578
 20
153.6969403019
 11
17.6459407428
 21
153.5415410141
  0
LWPOLYLINE
  5
5C5
100
AcDbEntity
  8
RACCORDO
100
AcDbPolyline
 62
250
  6
CONTINUOUS
 90
20
 70
0
 10
19.2573335854
 20
42.5476017742
 10
19.2638117599
 20
42.2046394747
 10
19.2658466071
 20
42.0437358455
 10
19.2670730895
 20
41.890254366
 10
19.2674971543
 20
41.7444069081
 10
19.2671283643
 20
41.6064436471
 10
19.2659571568
 20
41.4766627702
 10
19.2639607906
 20
41.355333253
 10
19.2611607218
 20
41.2428517559
 10
19.2575354944
 20
41.1392370227
 10
19.2529979991
 20
41.0442829598
 10
19.2475610516
 20
40.9581655475
 10
19.2412118361
 20
40.8813347218
 10
19.2338247961
 20
40.8140882903
 10
19.2254050102
 20
40.7566463722
 10
19.2159473998
 20
40.7092954875
 10
19.205311172
 20
40.6723305278
 10
19.1934493959
 20
40.6458995449
 10
19.1804090025
 20
40.6300807291
 10
19.1661899918
 20
40.6249637422
  0
LINE
  5
5C6
100
AcDbEntity
  8
RACCORDO
100
AcDbLine
 62
250
  6
CONTINUOUS
 10
17.6220247015
 20
47.5920037516
 11
17.6259189608
 21
47.3522016846
  0
LWPOLYLINE
  5
5C7
100
AcDbEntity
  8
IMPORT_IGES
100
AcDbPolyline
 62
250
  6
CONTINUOUS
 90
19
 70
0
 10
16.4687145611
 20
41.254982089
 10
16.469790912
 20
41.1774712074
 10
16.4742698841
 20
41.0997175295
 10
16.482181863
 20
41.0226679326
 10
16.4933808195
 20
40.9476464282
 10
16.5077467976
 20
40.8752471831
 10
16.5252798629
 20
40.8053837611
 10
16.5458073724
 20
40.7388747024
 10
16.5690681493
 20
40.6765216482
 10
16.5950471682
 20
40.6183057357
 10
16.6234764967
 20
40.5649598806
 10
16.6539975585
 20
40.5170366033
 10
16.6866194598
 20
40.4745644352
 10
16.7209498642
 20
40.4380838454
 10
16.756586002
 20
40.407955727
 10
16.793569784
 20
40.3841789099
 10
16.831609019
 20
40.3670040513
 10
16.8700506676
 20
40.3567468926
 10
16.9084256372
 20
40.3533610515
  0
LINE
  5
5C8
100
AcDbEntity
  8
RACCORDO
100
AcDbLine
 62
250
  6
CONTINUOUS
 10
18.9612915147
 20
48.351193136
 11
18.9653486503
 21
48.0640014926
  0
LWPOLYLINE
  5
5C9
100
AcDbEntity
  8
IMPORT_IGES
100
AcDbPolyline
 62
250
  6
CONTINUOUS
 90
16
 70
0
 10
16.5858928007
 20
41.2432181647
 10
16.5867873744
 20
41.1665789135
 10
16.5907334831
 20
41.0897216031
 10
16.5977424807
 20
41.0136204166
 10
16.6076908749
 20
40.939578687
 10
16.6204493418
 20
40.8681810659
 10
16.6360299241
 20
40.7993100949
 10
16.6542746229
 20
40.7337559048
 10
16.6749394206
 20
40.6723157443
 10
16.6980336334
 20
40.6149523919
 10
16.7233016958
 20
40.5623595551
 10
16.7504376107
 20
40.5151200603
 10
16.7794579183
 20
40.4732121752
 10
16.8100103051
 20
40.4371946485
 10
16.8417436698
 20
40.4074345988
 10
16.8747097478
 20
40.3839032997
  0
LINE
  5
5CA
100
AcDbEntity
  8
RACCORDO
100
AcDbLine
 62
250
  6
CONTINUOUS
 10
17.6459407428
 20
153.5415410141
 11
17.648759081
 21
153.31749468
  0
LINE
  5
5CB
100
AcDbEntity
  8
RACCORDO
100
AcDbLine
 62
250
  6
CONTINUOUS
 10
17.6195678684
 20
47.8225807978
 11
17.6220247015
 21
47.5920037516
  0
LINE
  5
5CC
100
AcDbEntity
  8
RACCORDO
100
AcDbLine
 62
250
  6
CONTINUOUS
 10
19.0452422723
 20
154.4853657798
 11
19.0473553544
 21
154.2799894617
  0
LINE
  5
5CD
100
AcDbEntity
  8
RACCORDO
100
AcDbLine
 62
250
  6
CONTINUOUS
 10
18.9192788486
 20
53.4641356897
 11
18.9402698545
 21
51.2082870397
  0
LINE
  5
5CE
100
AcDbEntity
  8
RACCORDO
100
AcDbLine
 62
250
  6
CONTINUOUS
 10
18.9402698545
 20
51.2082870397
 11
18.943147939
 21
50.8809138564
  0
LINE
  5
5CF
100
AcDbEntity
  8
RACCORDO
100
AcDbLine
 62
250
  6
CONTINUOUS
 10
18.943147939
 20
50.8809138564
 11
18.9463149352
 21
50.5015653977
  0
LINE
  5
5D0
100
AcDbEntity
  8
RACCORDO
100
AcDbLine
 62
250
  6
CONTINUOUS
 10
18.9463149352
 20
50.5015653977
 11
18.9494989801
 21
50.0897326504
  0
LINE
  5
5D1
100
AcDbEntity
  8
RACCORDO
100
AcDbLine
 62
250
  6
CONTINUOUS
 10
17.5897901447
 20
53.29248818
 11
17.6076256164
 21
50.8692896031
  0
LINE
  5
5D2
100
AcDbEntity
  8
RACCORDO
100
AcDbLine
 62
250
  6
CONTINUOUS
 10
17.6076256164
 20
50.8692896031
 11
17.6096094675
 21
50.5800690601
  0
LINE
  5
5D3
100
AcDbEntity
  8
RACCORDO
100
AcDbLine
 62
250
  6
CONTINUOUS
 10
18.9577304013
 20
48.765101123
 11
18.9612915147
 21
48.351193136
  0
LINE
  5
5D4
100
AcDbEntity
  8
RACCORDO
100
AcDbLine
 62
250
  6
CONTINUOUS
 10
18.9494989801
 20
50.0897326504
 11
18.9559586187
 21
49.073607699
  0
LINE
  5
5D5
100
AcDbEntity
  8
RACCORDO
100
AcDbLine
 62
250
  6
CONTINUOUS
 10
18.9559586187
 20
49.073607699
 11
18.9577304013
 21
48.765101123
  0
LINE
  5
5D6
100
AcDbEntity
  8
RACCORDO
100
AcDbLine
 62
250
  6
CONTINUOUS
 10
17.648759081
 20
153.31749468
 11
17.6507534119
 21
153.02430049
  0
LINE
  5
5D7
100
AcDbEntity
  8
RACCORDO
100
AcDbLine
 62
250
  6
CONTINUOUS
 10
17.6096094675
 20
50.5800690601
 11
17.6151728884
 21
49.6120062835
  0
LINE
  5
5D8
100
AcDbEntity
  8
RACCORDO
100
AcDbLine
 62
250
  6
CONTINUOUS
 10
18.9017455079
 20
55.9249241606
 11
18.9192788486
 21
53.4641356897
  0
LINE
  5
5D9
100
AcDbEntity
  8
RACCORDO
100
AcDbLine
 62
250
  6
CONTINUOUS
 10
17.6178882038
 20
48.1430142123
 11
17.6195678684
 21
47.8225807978
  0
LINE
  5
5DA
100
AcDbEntity
  8
RACCORDO
100
AcDbLine
 62
250
  6
CONTINUOUS
 10
17.574760951
 20
56.1464368835
 11
17.5897901447
 21
53.29248818
  0
LINE
  5
5DB
100
AcDbEntity
  8
RACCORDO
100
AcDbLine
 62
250
  6
CONTINUOUS
 10
19.0473553544
 20
154.2799894617
 11
19.0487935065
 21
153.9840701782
  0
LINE
  5
5DC
100
AcDbEntity
  8
RACCORDO
100
AcDbLine
 62
250
  6
CONTINUOUS
 10
17.6520558639
 20
152.3740251523
 11
17.6523061074
 21
152.2050737491
  0
LINE
  5
5DD
100
AcDbEntity
  8
RACCORDO
100
AcDbLine
 62
250
  6
CONTINUOUS
 10
17.6151728884
 20
49.6120062835
 11
17.6174164448
 21
48.9123546715
  0
LWPOLYLINE
  5
5DE
100
AcDbEntity
  8
RACCORDO
100
AcDbPolyline
 62
250
  6
CONTINUOUS
 90
3
 70
0
 10
17.6507534119
 20
153.02430049
 10
17.6518344754
 20
152.5419677007
 10
17.6520558639
 20
152.3740251523
  0
LINE
  5
5DF
100
AcDbEntity
  8
RACCORDO
100
AcDbLine
 62
250
  6
CONTINUOUS
 10
18.8982358521
 20
57.3786873563
 11
18.9017455079
 21
55.9249241606
  0
LINE
  5
5E0
100
AcDbEntity
  8
RACCORDO
100
AcDbLine
 62
250
  6
CONTINUOUS
 10
17.5729089101
 20
57.3785513808
 11
17.574760951
 21
56.1464368835
  0
LINE
  5
5E1
100
AcDbEntity
  8
RACCORDO
100
AcDbLine
 62
250
  6
CONTINUOUS
 10
17.6174659945
 20
48.5119593654
 11
17.6178882038
 21
48.1430142123
  0
LINE
  5
5E2
100
AcDbEntity
  8
IMPORT_IGES
100
AcDbLine
 62
250
  6
CONTINUOUS
 10
17.6859594999
 20
41.1875856476
 11
17.6859594999
 21
40.3533610487
  0
LWPOLYLINE
  5
5E3
100
AcDbEntity
  8
RACCORDO
100
AcDbPolyline
 62
250
  6
CONTINUOUS
 90
3
 70
0
 10
17.6174164448
 20
48.9123546715
 10
17.6174742243
 20
48.6772508152
 10
17.6174659945
 20
48.5119593654
  0
LINE
  5
5E4
100
AcDbEntity
  8
RACCORDO
100
AcDbLine
 62
250
  6
CONTINUOUS
 10
17.6523061074
 20
152.2050737491
 11
17.6521449533
 21
151.7690605053
  0
LINE
  5
5E5
100
AcDbEntity
  8
RACCORDO
100
AcDbLine
 62
250
  6
CONTINUOUS
 10
19.0487935065
 20
153.9840701782
 11
19.0484310311
 21
153.6053368421
  0
LINE
  5
5E6
100
AcDbEntity
  8
RACCORDO
100
AcDbLine
 62
250
  6
CONTINUOUS
 10
18.9003905611
 20
141.6591737124
 11
18.8982358521
 21
57.3786873563
  0
LINE
  5
5E7
100
AcDbEntity
  8
RACCORDO
100
AcDbLine
 62
250
  6
CONTINUOUS
 10
17.576175602
 20
142.1867036651
 11
17.5729142565
 21
57.3785513757
  0
LINE
  5
5E8
100
AcDbEntity
  8
RACCORDO
100
AcDbLine
 62
250
  6
CONTINUOUS
 10
17.6184113356
 20
149.8968905559
 11
17.6171472152
 21
148.8159187678
  0
LINE
  5
5E9
100
AcDbEntity
  8
RACCORDO
100
AcDbLine
 62
250
  6
CONTINUOUS
 10
17.6171472152
 20
148.8159187678
 11
17.6134617505
 21
147.9560662332
  0
LINE
  5
5EA
100
AcDbEntity
  8
RACCORDO
100
AcDbLine
 62
250
  6
CONTINUOUS
 10
17.6134617505
 20
147.9560662332
 11
17.6049210746
 21
146.6609998979
  0
LINE
  5
5EB
100
AcDbEntity
  8
RACCORDO
100
AcDbLine
 62
250
  6
CONTINUOUS
 10
17.6049210746
 20
146.6609998979
 11
17.576175602
 21
142.1867036651
  0
LWPOLYLINE
  5
5EC
100
AcDbEntity
  8
RACCORDO
100
AcDbPolyline
 62
250
  6
CONTINUOUS
 90
5
 70
0
 10
17.6521449533
 20
151.7690605053
 10
17.6508110559
 20
151.5776822947
 10
17.649728711
 20
151.4769262133
 10
17.6480359276
 20
151.3718780367
 10
17.6456298313
 20
151.2622157537
  0
LINE
  5
5ED
100
AcDbEntity
  8
RACCORDO
100
AcDbLine
 62
250
  6
CONTINUOUS
 10
18.9153670303
 20
143.994030652
 11
18.9003905611
 21
141.6591737124
  0
LINE
  5
5EE
100
AcDbEntity
  8
RACCORDO
100
AcDbLine
 62
250
  6
CONTINUOUS
 10
19.0484310311
 20
153.6053368421
 11
19.0451830701
 21
153.1037129234
  0
LINE
  5
5EF
100
AcDbEntity
  8
RACCORDO
100
AcDbLine
 62
250
  6
CONTINUOUS
 10
17.6203140397
 20
150.1659663975
 11
17.6184113356
 21
149.8968905559
  0
LWPOLYLINE
  5
5F0
100
AcDbEntity
  8
IMPORT_IGES
100
AcDbPolyline
 62
250
  6
CONTINUOUS
 90
18
 70
0
 10
16.5859126556
 20
41.2432077724
 10
16.585216017
 20
41.1651743916
 10
16.5876977477
 20
41.0868332643
 10
16.5934011893
 20
41.0091941885
 10
16.6022155468
 20
40.9335288114
 10
16.6140283158
 20
40.8606156084
 10
16.628752228
 20
40.7907757243
 10
16.6461276697
 20
40.7250096883
 10
16.6658959886
 20
40.6638719318
 10
16.6880746641
 20
40.6070846768
 10
16.7123513956
 20
40.5554241894
 10
16.7384380229
 20
40.5092509202
 10
16.7666176316
 20
40.4681705913
 10
16.7967258123
 20
40.4326353001
 10
16.8282682239
 20
40.4033786504
 10
16.8610830814
 20
40.3806835646
 10
16.8948192227
 20
40.3647637424
 10
16.9289318647
 20
40.3557856252
  0
LINE
  5
5F1
100
AcDbEntity
  8
RACCORDO
100
AcDbLine
 62
250
  6
CONTINUOUS
 10
18.9497311758
 20
147.8485512828
 11
18.9385668987
 21
146.5101295677
  0
LINE
  5
5F2
100
AcDbEntity
  8
RACCORDO
100
AcDbLine
 62
250
  6
CONTINUOUS
 10
18.9603203109
 20
149.4649896322
 11
18.9497311758
 21
147.8485512828
  0
LINE
  5
5F3
100
AcDbEntity
  8
RACCORDO
100
AcDbLine
 62
250
  6
CONTINUOUS
 10
18.9385668987
 20
146.5101295677
 11
18.9153670303
 21
143.994030652
  0
LINE
  5
5F4
100
AcDbEntity
  8
RACCORDO
100
AcDbLine
 62
250
  6
CONTINUOUS
 10
19.0451830701
 20
153.1037129234
 11
19.0395106676
 21
152.5716359054
  0
LINE
  5
5F5
100
AcDbEntity
  8
RACCORDO
100
AcDbLine
 62
250
  6
CONTINUOUS
 10
17.6226281851
 20
150.3602813182
 11
17.6203140397
 21
150.1659663975
  0
LINE
  5
5F6
100
AcDbEntity
  8
RACCORDO
100
AcDbLine
 62
250
  6
CONTINUOUS
 10
18.9632269535
 20
149.707834051
 11
18.9603203109
 21
149.4649896322
  0
LINE
  5
5F7
100
AcDbEntity
  8
RACCORDO
100
AcDbLine
 62
250
  6
CONTINUOUS
 10
19.0395106676
 20
152.5716359054
 11
19.0318994758
 21
152.0257474257
  0
LINE
  5
5F8
100
AcDbEntity
  8
RACCORDO
100
AcDbLine
 62
250
  6
CONTINUOUS
 10
17.6261732004
 20
150.5686840519
 11
17.6226281851
 21
150.3602813182
  0
LINE
  5
5F9
100
AcDbEntity
  8
RACCORDO
100
AcDbLine
 62
250
  6
CONTINUOUS
 10
18.9674392848
 20
149.9565076661
 11
18.9632269535
 21
149.707834051
  0
LINE
  5
5FA
100
AcDbEntity
  8
RACCORDO
100
AcDbLine
 62
250
  6
CONTINUOUS
 10
19.0318994758
 20
152.0257474257
 11
19.0250028535
 21
151.6643788233
  0
LINE
  5
5FB
100
AcDbEntity
  8
RACCORDO
100
AcDbLine
 62
250
  6
CONTINUOUS
 10
18.9713796907
 20
150.1320571095
 11
18.9674392848
 21
149.9565076661
  0
LINE
  5
5FC
100
AcDbEntity
  8
RACCORDO
100
AcDbLine
 62
250
  6
CONTINUOUS
 10
17.6315707607
 20
150.7919332558
 11
17.6261732004
 21
150.5686840519
  0
LINE
  5
5FD
100
AcDbEntity
  8
RACCORDO
100
AcDbLine
 62
250
  6
CONTINUOUS
 10
19.0250028535
 20
151.6643788233
 11
19.0184246395
 21
151.3986925686
  0
LINE
  5
5FE
100
AcDbEntity
  8
RACCORDO
100
AcDbLine
 62
250
  6
CONTINUOUS
 10
18.9765283861
 20
150.318286623
 11
18.9713796907
 21
150.1320571095
  0
LINE
  5
5FF
100
AcDbEntity
  8
RACCORDO
100
AcDbLine
 62
250
  6
CONTINUOUS
 10
17.6456298313
 20
151.2622157537
 11
17.6315707607
 21
150.7919332558
  0
LWPOLYLINE
  5
600
100
AcDbEntity
  8
RACCORDO
100
AcDbPolyline
 62
250
  6
CONTINUOUS
 90
3
 70
0
 10
19.0184246395
 20
151.3986925686
 10
19.0091200672
 20
151.1077347192
 10
19.0035166683
 20
150.9533610487
  0
LWPOLYLINE
  5
601
100
AcDbEntity
  8
RACCORDO
100
AcDbPolyline
 62
250
  6
CONTINUOUS
 90
3
 70
0
 10
18.9874302594
 20
150.6211399019
 10
18.9832769691
 20
150.5169951534
 10
18.9765283861
 20
150.318286623
  0
LWPOLYLINE
  5
602
100
AcDbEntity
  8
IMPORT_IGES
100
AcDbPolyline
 62
250
  6
CONTINUOUS
 90
5
 70
0
 10
15.7441647866
 20
42.4465356521
 10
15.7294151055
 20
42.1624562188
 10
15.7172645321
 20
41.8811350387
 10
15.7072881883
 20
41.5999352351
 10
15.6996611494
 20
41.3187496644
  0
LWPOLYLINE
  5
603
100
AcDbEntity
  8
RACCORDO
100
AcDbPolyline
 62
250
  6
CONTINUOUS
 90
3
 70
0
 10
19.0035166683
 20
150.9533610487
 10
18.9975784725
 20
150.83935757
 10
18.9874302594
 20
150.6211399019
  0
LINE
  5
604
100
AcDbEntity
  8
IMPORT_IGES
100
AcDbLine
 62
250
  6
CONTINUOUS
 10
15.8540079066
 20
44.3115538238
 11
15.824943594
 21
43.7852097469
  0
LINE
  5
605
100
AcDbEntity
  8
IMPORT_IGES
100
AcDbLine
 62
250
  6
CONTINUOUS
 10
15.824943594
 20
43.7852097469
 11
15.7441647866
 21
42.4465356521
  0
LINE
  5
606
100
AcDbEntity
  8
DRAFT
100
AcDbLine
 62
7
  6
CONTINUOUS
 10
31.3147480805
 20
161.5677419406
 11
31.2587030717
 21
161.3780147696
  0
LWPOLYLINE
  5
607
100
AcDbEntity
  8
RACCORDO
100
AcDbPolyline
 62
250
  6
CONTINUOUS
 90
40
 70
0
 10
50.6913924056
 20
61.1764617137
 10
50.6708649037
 20
61.1720932273
 10
50.6503186564
 20
61.1662635612
 10
50.6297536639
 20
61.1589727153
 10
50.6091295073
 20
61.1501942137
 10
50.5884866053
 20
61.1399545323
 10
50.5679462147
 20
61.1283330989
 10
50.5475240635
 20
61.1153132887
 10
50.5272044237
 20
61.1009117265
 10
50.507061367
 20
61.0852577151
 10
50.4871257041
 20
61.0683699724
 10
50.4673666243
 20
61.0502297804
 10
50.4477657682
 20
61.0309102875
 10
50.428329579
 20
61.0104270564
 10
50.4090516136
 20
60.9887645243
 10
50.3898941827
 20
60.9659491519
 10
50.3708412279
 20
60.9419660281
 10
50.3519088077
 20
60.916830064
 10
50.3331074089
 20
60.8906124536
 10
50.3144350414
 20
60.8633076205
 10
50.2958936953
 20
60.8349211412
 10
50.2774998274
 20
60.8055409386
 10
50.2592710129
 20
60.7751991558
 10
50.2411896767
 20
60.7438636499
 10
50.2232195499
 20
60.7115259152
 10
50.2053742062
 20
60.6782268474
 10
50.1876400721
 20
60.643925551
 10
50.1699401576
 20
60.6084908336
 10
50.152269483
 20
60.5719324972
 10
50.134633028
 20
60.5342407399
 10
50.1169687421
 20
60.4952549632
 10
50.0992617208
 20
60.4549544149
 10
50.0815268685
 20
60.4133598471
 10
50.0637468481
 20
60.370372918
 10
50.0459136928
 20
60.3259777754
 10
50.0280353694
 20
60.2801902715
 10
50.0101184411
 20
60.2329596209
 10
49.9921650957
 20
60.1842688951
 10
49.9741731454
 20
60.1341350226
 10
49.9561425903
 20
60.0825580035
  0
LINE
  5
608
100
AcDbEntity
  8
RACCORDO
100
AcDbLine
 62
250
  6
CONTINUOUS
 10
56.5262978831
 20
62.2156386386
 11
50.6913924056
 21
61.1764617137
  0
LINE
  5
609
100
AcDbEntity
  8
0
100
AcDbLine
 62
250
  6
CONTINUOUS
 10
94.0454955301
 20
67.8767589116
 11
93.0748929419
 21
67.8663600112
  0
LINE
  5
60A
100
AcDbEntity
  8
0
100
AcDbLine
 62
250
  6
CONTINUOUS
 10
14.7262978831
 20
62.5715058376
 11
14.6762978831
 21
62.5715058376
  0
LINE
  5
60B
100
AcDbEntity
  8
0
100
AcDbLine
 62
7
  6
CONTINUOUS
 10
14.7262978831
 20
62.8346024537
 11
14.6762978831
 21
62.8346024537
  0
LINE
  5
60C
100
AcDbEntity
  8
0
100
AcDbLine
 62
7
  6
CONTINUOUS
 10
14.7262978831
 20
63.1155029976
 11
14.6762978831
 21
63.1155029976
  0
LINE
  5
60D
100
AcDbEntity
  8
0
100
AcDbLine
 62
7
  6
CONTINUOUS
 10
14.7262978831
 20
63.1431974077
 11
14.6762978831
 21
63.1431974077
  0
LINE
  5
60E
100
AcDbEntity
  8
0
100
AcDbLine
 62
250
  6
CONTINUOUS
 10
14.7262978831
 20
63.6727844181
 11
14.6762978831
 21
63.6727844181
  0
LINE
  5
60F
100
AcDbEntity
  8
0
100
AcDbLine
 62
7
  6
CONTINUOUS
 10
14.7262978831
 20
63.8652302051
 11
14.6762978831
 21
63.8652302051
  0
LINE
  5
610
100
AcDbEntity
  8
RACCORDO
100
AcDbLine
 62
250
  6
CONTINUOUS
 10
19.0306920086
 20
155.1281300516
 11
19.03717686
 21
154.9111882185
  0
LINE
  5
611
100
AcDbEntity
  8
RACCORDO
100
AcDbLine
 62
250
  6
CONTINUOUS
 10
19.03717686
 20
154.9111882185
 11
19.041916675
 21
154.6963597371
  0
LINE
  5
612
100
AcDbEntity
  8
RACCORDO
100
AcDbLine
 62
250
  6
CONTINUOUS
 10
19.041916675
 20
154.6963597371
 11
19.0452422723
 21
154.4853657798
  0
LINE
  5
613
100
AcDbEntity
  8
IMPORT_IGES
100
AcDbLine
 62
7
  6
CONTINUOUS
 10
21.3262978831
 20
40.3533610487
 11
21.3262978831
 21
40.5872589187
  0
LINE
  5
614
100
AcDbEntity
  8
DRAFT
100
AcDbLine
 62
250
  6
CONTINUOUS
 10
37.8389157383
 20
164.3266675823
 11
37.8509604614
 21
164.3667875283
  0
LINE
  5
615
100
AcDbEntity
  8
0
100
AcDbLine
 62
250
  6
CONTINUOUS
 10
93.0748929419
 20
67.8663600112
 11
91.1193643167
 21
67.8471081328
  0
LINE
  5
616
100
AcDbEntity
  8
0
100
AcDbLine
 62
250
  6
CONTINUOUS
 10
91.1193643167
 20
67.8471081328
 11
89.6402598082
 21
67.8339651127
  0
LINE
  5
617
100
AcDbEntity
  8
0
100
AcDbLine
 62
7
  6
CONTINUOUS
 10
94.8519826753
 20
68.5533610487
 11
89.6262978898
 21
68.5533610487
  0
LINE
  5
618
100
AcDbEntity
  8
0
100
AcDbLine
 62
250
  6
CONTINUOUS
 10
88.6124096201
 20
68.8533610487
 11
89.3262978831
 21
68.8533610487
  0
LWPOLYLINE
  5
619
100
AcDbEntity
  8
0
100
AcDbPolyline
 62
250
  6
CONTINUOUS
 90
22
 70
0
 10
89.6402598082
 20
67.8339651127
 10
89.5651790785
 20
67.8359687754
 10
89.4907447465
 20
67.8435797793
 10
89.4169568122
 20
67.8567981244
 10
89.3433078908
 20
67.8756892761
 10
89.270305367
 20
67.9001877691
 10
89.1994713956
 20
67.930097207
 10
89.1308395758
 20
67.9655885678
 10
89.0643763084
 20
68.0064908735
 10
89.0015029503
 20
68.0520947939
 10
88.9423330841
 20
68.1025212607
 10
88.8867531272
 20
68.1576493422
 10
88.8358436888
 20
68.2164069129
 10
88.7897245354
 20
68.2789095316
 10
88.7482759005
 20
68.3450416396
 10
88.7122190946
 20
68.4133844356
 10
88.6817256533
 20
68.4839711713
 10
88.656624041
 20
68.556768595
 10
88.6371209611
 20
68.6302581502
 10
88.6232853149
 20
68.7039336515
 10
88.6150482012
 20
68.7783012843
 10
88.6124096201
 20
68.8533610487
  0
LWPOLYLINE
  5
61A
100
AcDbEntity
  8
0
100
AcDbPolyline
 62
7
  6
CONTINUOUS
 90
13
 70
0
 10
89.6262978898
 20
68.5533610487
 10
89.5861640069
 20
68.5562551195
 10
89.5479418965
 20
68.5638493458
 10
89.5116315585
 20
68.5761437277
 10
89.4766712967
 20
68.5935058361
 10
89.4436228074
 20
68.6155681001
 10
89.4141711799
 20
68.6412278062
 10
89.3885102516
 20
68.6706790814
 10
89.3664461852
 20
68.7037277987
 10
89.3490825574
 20
68.7386888641
 10
89.3367872273
 20
68.7750005797
 10
89.3291923358
 20
68.8132246434
 10
89.3262978831
 20
68.8533610552
  0
LINE
  5
61B
100
AcDbEntity
  8
0
100
AcDbLine
 62
7
  6
CONTINUOUS
 10
37.934345103
 20
162.473561446
 11
37.9098045178
 21
162.3581070699
  0
LINE
  5
61C
100
AcDbEntity
  8
0
100
AcDbLine
 62
7
  6
CONTINUOUS
 10
37.4611052694
 20
160.2471430758
 11
37.4366132868
 21
160.1319173571
  0
LINE
  5
61D
100
AcDbEntity
  8
0
100
AcDbLine
 62
250
  6
CONTINUOUS
 10
88.6124096201
 20
74.0533610487
 11
89.326297883
 21
74.0533610421
  0
LINE
  5
61E
100
AcDbEntity
  8
0
100
AcDbLine
 62
7
  6
CONTINUOUS
 10
89.6262978897
 20
74.3533610487
 11
94.8519826753
 21
74.3533610487
  0
LINE
  5
61F
100
AcDbEntity
  8
0
100
AcDbLine
 62
250
  6
CONTINUOUS
 10
89.6402598082
 20
75.0727569847
 11
91.6100309839
 21
75.0549900335
  0
LWPOLYLINE
  5
620
100
AcDbEntity
  8
0
100
AcDbPolyline
 62
250
  6
CONTINUOUS
 90
3
 70
0
 10
91.6100309839
 20
75.0549900335
 10
93.5607909407
 20
75.0352270519
 10
94.0454955301
 20
75.0299631902
  0
LINE
  5
621
100
AcDbEntity
  8
DRAFT
100
AcDbLine
 62
7
  6
CONTINUOUS
 10
33.7262978831
 20
157.5230302738
 11
33.7262978831
 21
156.5359059838
  0
LINE
  5
622
100
AcDbEntity
  8
DRAFT
100
AcDbLine
 62
7
  6
CONTINUOUS
 10
33.860701883
 20
157.5868115275
 11
33.860701883
 21
156.5382520143
  0
LINE
  5
623
100
AcDbEntity
  8
DRAFT
100
AcDbLine
 62
7
  6
CONTINUOUS
 10
34.7262978831
 20
40.3338814641
 11
34.7262978831
 21
158.3910906491
  0
LINE
  5
624
100
AcDbEntity
  8
DRAFT
100
AcDbLine
 62
7
  6
CONTINUOUS
 10
46.3163438669
 20
161.0533610487
 11
46.3258261709
 21
161.0952500141
  0
LINE
  5
625
100
AcDbEntity
  8
IMPORT_IGES
100
AcDbLine
 62
7
  6
CONTINUOUS
 10
14.2604905573
 20
47.1668322103
 11
14.1651748665
 21
46.8405004393
  0
LINE
  5
626
100
AcDbEntity
  8
IMPORT_IGES
100
AcDbLine
 62
7
  6
CONTINUOUS
 10
14.4491599144
 20
47.808640181
 11
14.2604905573
 21
47.1668322103
  0
LINE
  5
627
100
AcDbEntity
  8
IMPORT_IGES
100
AcDbLine
 62
7
  6
CONTINUOUS
 10
14.5490899349
 20
48.1417481315
 11
14.4491599144
 21
47.808640181
  0
LINE
  5
628
100
AcDbEntity
  8
IMPORT_IGES
100
AcDbLine
 62
7
  6
CONTINUOUS
 10
14.6037227546
 20
48.3202170007
 11
14.549089979
 21
48.1417482764
  0
LWPOLYLINE
  5
629
100
AcDbEntity
  8
0
100
AcDbPolyline
 62
7
  6
CONTINUOUS
 90
3
 70
0
 43
0.3500000006
 10
55.466177536
 20
176.2890637207
 10
55.394750885
 20
176.0747792358
 10
55.2518930511
 20
175.7890545044
  0
LINE
  5
62A
100
AcDbEntity
  8
RACCORDO
100
AcDbLine
 62
7
  6
CONTINUOUS
 10
95.1262978831
 20
80.9533610487
 11
95.6262978831
 21
80.9533610487
  0
LINE
  5
62B
100
AcDbEntity
  8
RACCORDO
100
AcDbLine
 62
7
  6
CONTINUOUS
 10
95.6262978831
 20
82.4533610487
 11
95.1262978831
 21
82.4533610487
  0
LINE
  5
62C
100
AcDbEntity
  8
DRAFT
100
AcDbLine
 62
7
  6
CONTINUOUS
 10
35.4844089177
 20
156.5860735106
 11
35.4844089177
 21
158.8024450197
  0
LINE
  5
62D
100
AcDbEntity
  8
DRAFT
100
AcDbLine
 62
7
  6
CONTINUOUS
 10
35.5262978831
 20
156.5868046852
 11
35.5262978831
 21
158.8270518514
  0
LINE
  5
62E
100
AcDbEntity
  8
0
100
AcDbLine
 62
7
  6
CONTINUOUS
 10
36.2512978831
 20
160.2561243643
 11
36.2512978831
 21
160.374298956
  0
LINE
  5
62F
100
AcDbEntity
  8
0
100
AcDbLine
 62
7
  6
CONTINUOUS
 10
36.2512978831
 20
162.5324231414
 11
36.2512978831
 21
162.6505977331
  0
LINE
  5
630
100
AcDbEntity
  8
DRAFT
100
AcDbLine
 62
7
  6
CONTINUOUS
 10
36.5762978831
 20
164.4265747982
 11
36.5762978831
 21
163.616691814
  0
LINE
  5
631
100
AcDbEntity
  8
DRAFT
100
AcDbLine
 62
7
  6
CONTINUOUS
 10
36.5762978831
 20
156.6051325034
 11
36.5762978831
 21
159.2900302834
  0
LINE
  5
632
100
AcDbEntity
  8
DRAFT
100
AcDbLine
 62
7
  6
CONTINUOUS
 10
36.6181868485
 20
164.4740968804
 11
36.6181868485
 21
163.5815527047
  0
LINE
  5
633
100
AcDbEntity
  8
DRAFT
100
AcDbLine
 62
7
  6
CONTINUOUS
 10
36.6181868485
 20
159.3251693927
 11
36.6181868485
 21
156.605863678
  0
LINE
  5
634
100
AcDbEntity
  8
DRAFT
100
AcDbLine
 62
7
  6
CONTINUOUS
 10
37.3344089177
 20
156.6183653807
 11
37.3344089177
 21
159.3251693927
  0
LINE
  5
635
100
AcDbEntity
  8
DRAFT
100
AcDbLine
 62
7
  6
CONTINUOUS
 10
37.3344089177
 20
163.5815527047
 11
37.3344089177
 21
164.4740968804
  0
LINE
  5
636
100
AcDbEntity
  8
DRAFT
100
AcDbLine
 62
7
  6
CONTINUOUS
 10
37.3762978831
 20
156.6190965553
 11
37.3762978831
 21
159.2900302834
  0
LINE
  5
637
100
AcDbEntity
  8
DRAFT
100
AcDbLine
 62
7
  6
CONTINUOUS
 10
37.3762978831
 20
163.616691814
 11
37.3762978831
 21
164.4265747982
  0
LWPOLYLINE
  5
638
100
AcDbEntity
  8
IMPORT_IGES
100
AcDbPolyline
 62
7
  6
CONTINUOUS
 90
9
 70
0
 10
15.1622136718
 20
49.9448389002
 10
15.078786378
 20
49.7258498715
 10
14.999760491
 20
49.5109409686
 10
14.925014742
 20
49.3008183471
 10
14.8540362652
 20
49.0949959347
 10
14.7866032721
 20
48.8937122914
 10
14.7227692321
 20
48.6980225443
 10
14.6618644816
 20
48.5067476296
 10
14.6037227546
 20
48.3202170007
  0
LINE
  5
639
100
AcDbEntity
  8
IMPORT_IGES
100
AcDbLine
 62
7
  6
CONTINUOUS
 10
15.2508297567
 20
50.1687750341
 11
15.1622136993
 21
49.9448389712
  0
LINE
  5
63A
100
AcDbEntity
  8
IMPORT_IGES
100
AcDbLine
 62
7
  6
CONTINUOUS
 10
15.3052359925
 20
50.3014404367
 11
15.2502391425
 21
50.1673348684
  0
LINE
  5
63B
100
AcDbEntity
  8
RACCORDO
100
AcDbLine
 62
250
  6
CONTINUOUS
 10
50.7175713476
 20
61.0305071863
 11
50.6913924057
 21
61.1764617137
  0
LINE
  5
63C
100
AcDbEntity
  8
RACCORDO
100
AcDbLine
 62
250
  6
CONTINUOUS
 10
48.7088454766
 20
56.063493106
 11
48.7088454766
 21
40.089815188
  0
LINE
  5
63D
100
AcDbEntity
  8
RACCORDO
100
AcDbLine
 62
7
  6
CONTINUOUS
 10
49.7262978831
 20
56.0634929955
 11
49.7262978831
 21
41.0896628832
  0
LWPOLYLINE
  5
63E
100
AcDbEntity
  8
0
100
AcDbPolyline
 62
7
  6
CONTINUOUS
 90
25
 70
0
 10
80.1262978831
 20
94.4533610487
 10
79.3753727788
 20
94.4782276988
 10
78.6244476745
 20
94.5521986322
 10
77.8831008817
 20
94.6743303241
 10
77.1514550966
 20
94.8452397046
 10
76.429387623
 20
95.0643098435
 10
75.7261086831
 20
95.3287464248
 10
75.0418589545
 20
95.6391305842
 10
74.3763977595
 20
95.994881186
 10
73.7382132878
 20
96.3914605072
 10
73.1276549489
 20
96.8293915562
 10
72.5443733332
 20
97.3081513248
 10
71.995808401
 20
97.8216330651
 10
71.4824048664
 20
98.3702815591
 10
71.0037180154
 20
98.953652025
 10
70.5658536654
 20
99.564303369
 10
70.169334745
 20
100.2025850541
 10
69.8136383258
 20
100.8681476175
 10
69.5033014395
 20
101.5525015765
 10
69.2389051331
 20
102.2558876455
 10
69.0198683596
 20
102.9780651103
 10
68.8489850094
 20
103.7098223455
 10
68.7271863793
 20
104.4480888094
 10
68.6535411724
 20
105.1959350438
 10
68.6280493888
 20
105.9533610487
  0
LWPOLYLINE
  5
63F
100
AcDbEntity
  8
0
100
AcDbPolyline
 62
7
  6
CONTINUOUS
 90
4
 70
0
 43
0.3500000006
 10
50.2518960571
 20
176.431907959
 10
50.2518960571
 20
177.2890640259
 10
50.6804650269
 20
177.7176329956
 10
51.3233230133
 20
177.7176329956
  0
LINE
  5
640
100
AcDbEntity
  8
RACCORDO
100
AcDbLine
 62
250
  6
CONTINUOUS
 10
50.7175713476
 20
61.0305071863
 11
50.7175713476
 21
55.0120117612
  0
LINE
  5
641
100
AcDbEntity
  8
0
100
AcDbLine
 62
7
  6
CONTINUOUS
 10
37.4366132868
 20
162.7748047403
 11
37.4611052694
 21
162.6595790216
  0
LINE
  5
642
100
AcDbEntity
  8
0
100
AcDbLine
 62
7
  6
CONTINUOUS
 10
37.9098045178
 20
160.5486150275
 11
37.934345103
 21
160.4331606514
  0
LINE
  5
643
100
AcDbEntity
  8
DRAFT
100
AcDbLine
 62
7
  6
CONTINUOUS
 10
56.5262978831
 20
156.9533610487
 11
56.5262978831
 21
150.9533610487
  0
LINE
  5
644
100
AcDbEntity
  8
RACCORDO
100
AcDbLine
 62
7
  6
CONTINUOUS
 10
56.5262978831
 20
62.0650217302
 11
56.5262978831
 21
150.9533610487
  0
LINE
  5
645
100
AcDbEntity
  8
0
100
AcDbLine
 62
7
  6
CONTINUOUS
 10
56.5262978831
 20
54.9533610487
 11
56.5262978831
 21
156.9533610487
  0
LINE
  5
646
100
AcDbEntity
  8
DRAFT
100
AcDbLine
 62
7
  6
CONTINUOUS
 10
58.1262978831
 20
156.9533610487
 11
58.1262978831
 21
54.9533610487
  0
LINE
  5
647
100
AcDbEntity
  8
ASSI
100
AcDbLine
 62
7
  6
CONTINUOUS
 10
58.1262978831
 20
54.9533610487
 11
58.1262978831
 21
156.9533610487
  0
LWPOLYLINE
  5
648
100
AcDbEntity
  8
RACCORDO
100
AcDbPolyline
 62
250
  6
CONTINUOUS
 90
5
 70
0
 10
50.3499464399
 20
59.9473293448
 10
50.30522274
 20
59.681876686
 10
50.2601672542
 20
59.4286902593
 10
50.2149947668
 20
59.1876518595
 10
50.1695605267
 20
58.9595015376
  0
LWPOLYLINE
  5
649
100
AcDbEntity
  8
RACCORDO
100
AcDbPolyline
 62
250
  6
CONTINUOUS
 90
14
 70
0
 10
50.0007399571
 20
58.1425977368
 10
49.9640972541
 20
57.9587293917
 10
49.9304691442
 20
57.7844484501
 10
49.8994565069
 20
57.6182370194
 10
49.8704825557
 20
57.4556033284
 10
49.843723166
 20
57.2959909345
 10
49.8193170299
 20
57.1398477528
 10
49.7969604579
 20
56.9841344807
 10
49.7768578673
 20
56.8272945484
 10
49.7595770229
 20
56.6707637985
 10
49.7455298606
 20
56.5159553639
 10
49.735075241
 20
56.3633433524
 10
49.7285490474
 20
56.212493994
 10
49.7262978831
 20
56.063493106
  0
LINE
  5
64A
100
AcDbEntity
  8
RACCORDO
100
AcDbLine
 62
250
  6
CONTINUOUS
 10
50.1695605267
 20
58.9595015376
 11
50.0007399571
 21
58.1425977368
  0
LWPOLYLINE
  5
64B
100
AcDbEntity
  8
0
100
AcDbPolyline
 62
7
  6
CONTINUOUS
 90
13
 70
0
 43
0.3500000006
 10
104.5191563416
 20
104.4533579407
 10
103.2334403687
 20
104.4533579407
 10
102.8048713989
 20
104.6676424255
 10
102.3762933655
 20
105.096220459
 10
102.3762933655
 20
105.3105049438
 10
102.8048713989
 20
105.7390739136
 10
103.2334403687
 20
105.9533583984
 10
104.5191563416
 20
105.9533583984
 10
104.9477253113
 20
105.7390739136
 10
105.376294281
 20
105.3105049438
 10
105.376294281
 20
105.096220459
 10
104.9477253113
 20
104.6676424255
 10
104.5191563416
 20
104.4533579407
  0
LWPOLYLINE
  5
64C
100
AcDbEntity
  8
0
100
AcDbPolyline
 62
7
  6
CONTINUOUS
 90
4
 70
0
 10
94.6578560833
 20
74.5070743991
 10
94.7086798209
 20
74.4657531056
 10
94.7582373529
 20
74.4264685846
 10
94.8519826753
 20
74.3533610487
  0
LWPOLYLINE
  5
64D
100
AcDbEntity
  8
0
100
AcDbPolyline
 62
7
  6
CONTINUOUS
 90
3
 70
0
 10
94.4989782482
 20
74.6399264992
 10
94.5529226066
 20
74.5945296806
 10
94.6578560833
 20
74.5070743991
  0
LINE
  5
64E
100
AcDbEntity
  8
0
100
AcDbLine
 62
7
  6
CONTINUOUS
 10
94.3326470954
 20
74.7820087205
 11
94.4989782482
 21
74.6399264992
  0
LWPOLYLINE
  5
64F
100
AcDbEntity
  8
0
100
AcDbPolyline
 62
7
  6
CONTINUOUS
 90
3
 70
0
 10
94.0454955301
 20
75.0299695075
 10
94.1033025417
 20
74.9797022457
 10
94.3326470954
 20
74.7820087205
  0
LWPOLYLINE
  5
650
100
AcDbEntity
  8
IMPORT_IGES
100
AcDbPolyline
 62
250
  6
CONTINUOUS
 90
19
 70
0
 10
15.7020478504
 20
48.2116196559
 10
15.5105401726
 20
48.0057959376
 10
15.2926634599
 20
47.7579635273
 10
15.09059576
 20
47.5153653828
 10
14.9034483069
 20
47.2787834945
 10
14.7318680082
 20
47.0508896255
 10
14.5774386359
 20
46.835884441
 10
14.4396176142
 20
46.6352366273
 10
14.3175219919
 20
46.4497742929
 10
14.2113583566
 20
46.2818848235
 10
14.1203532074
 20
46.1323847042
 10
14.0432732716
 20
46.0011186023
 10
13.9792825555
 20
45.88836104
 10
13.9275240611
 20
45.7941628926
 10
13.886980134
 20
45.7180813342
 10
13.8566831522
 20
45.6595515439
 10
13.8358765575
 20
45.6182296944
 10
13.8238938415
 20
45.5938033816
 10
13.820048224
 20
45.5857839976
  0
LINE
  5
651
100
AcDbEntity
  8
0
100
AcDbLine
 62
7
  6
CONTINUOUS
 10
36.8010612555
 20
160.0644687901
 11
36.7528715195
 21
160.1727047091
  0
LINE
  5
652
100
AcDbEntity
  8
0
100
AcDbLine
 62
7
  6
CONTINUOUS
 10
35.875083333
 20
162.1442492558
 11
35.8271573198
 21
162.2518928439
  0
LWPOLYLINE
  5
653
100
AcDbEntity
  8
0
100
AcDbPolyline
 62
7
  6
CONTINUOUS
 90
25
 70
0
 10
68.6280493888
 20
105.9533610487
 10
68.6535411724
 20
106.7107870536
 10
68.7271863793
 20
107.458633288
 10
68.8489850094
 20
108.1968997519
 10
69.0198683596
 20
108.9286569871
 10
69.2389051331
 20
109.6508344519
 10
69.5033014395
 20
110.3542205209
 10
69.8136383258
 20
111.0385744799
 10
70.169334745
 20
111.7041370433
 10
70.5658536654
 20
112.3424187284
 10
71.0037180154
 20
112.9530700724
 10
71.4824048664
 20
113.5364405383
 10
71.995808401
 20
114.0850890323
 10
72.5443733332
 20
114.5985707726
 10
73.1276549489
 20
115.0773305412
 10
73.7382132878
 20
115.5152615902
 10
74.3763977595
 20
115.9118409114
 10
75.0418589545
 20
116.2675915132
 10
75.7261086831
 20
116.5779756726
 10
76.429387623
 20
116.8424122539
 10
77.1514550966
 20
117.0614823928
 10
77.8831008817
 20
117.2323917733
 10
78.6244476745
 20
117.3545234652
 10
79.3753727788
 20
117.4284943986
 10
80.1262978831
 20
117.4533610487
  0
LWPOLYLINE
  5
654
100
AcDbEntity
  8
RACCORDO
100
AcDbPolyline
 62
250
  6
CONTINUOUS
 90
22
 70
0
 10
49.9561425903
 20
60.0825580035
 10
49.8658794163
 20
59.8554266264
 10
49.7758934282
 20
59.6351499043
 10
49.6861846262
 20
59.4217278373
 10
49.595616425
 20
59.2161492819
 10
49.5053254099
 20
59.0174253815
 10
49.4187213367
 20
58.8225895666
 10
49.3364269765
 20
58.6305667469
 10
49.2578195582
 20
58.4424320126
 10
49.1844405245
 20
58.2584440649
 10
49.1170583519
 20
58.0801113667
 10
49.0549045638
 20
57.905925455
 10
48.9972151737
 20
57.7316196426
 10
48.9435871056
 20
57.5569536655
 10
48.8944234355
 20
57.3821677878
 10
48.8501694046
 20
57.2037161139
 10
48.8102250062
 20
57.0198773994
 10
48.775190247
 20
56.8323728889
 10
48.7473103883
 20
56.6428204204
 10
48.7273338506
 20
56.4517592735
 10
48.7145122134
 20
56.2586501687
 10
48.7088454766
 20
56.063493106
  0
LWPOLYLINE
  5
655
100
AcDbEntity
  8
0
100
AcDbPolyline
 62
7
  6
CONTINUOUS
 90
25
 70
0
 10
80.1262978831
 20
117.4533610487
 10
80.8772229873
 20
117.4284943986
 10
81.6281480916
 20
117.3545234652
 10
82.3694948844
 20
117.2323917733
 10
83.1011406695
 20
117.0614823928
 10
83.8232081431
 20
116.8424122539
 10
84.526487083
 20
116.5779756726
 10
85.2107368117
 20
116.2675915132
 10
85.8761980066
 20
115.9118409114
 10
86.5143824784
 20
115.5152615902
 10
87.1249408172
 20
115.0773305412
 10
87.7082224329
 20
114.5985707726
 10
88.2567873652
 20
114.0850890323
 10
88.7701908997
 20
113.5364405383
 10
89.2488777508
 20
112.9530700724
 10
89.6867421008
 20
112.3424187284
 10
90.0832610211
 20
111.7041370433
 10
90.4389574403
 20
111.0385744799
 10
90.7492943267
 20
110.3542205209
 10
91.013690633
 20
109.6508344519
 10
91.2327274065
 20
108.9286569871
 10
91.4036107567
 20
108.1968997519
 10
91.5254093868
 20
107.458633288
 10
91.5990545937
 20
106.7107870536
 10
91.6245463774
 20
105.9533610487
  0
LINE
  5
656
100
AcDbEntity
  8
DRAFT
100
AcDbLine
 62
7
  6
CONTINUOUS
 10
34.8129671178
 20
161.8533610487
 11
34.8481062271
 21
161.8114720833
  0
LINE
  5
657
100
AcDbEntity
  8
0
100
AcDbLine
 62
7
  6
CONTINUOUS
 10
36.8593090453
 20
162.847826042
 11
36.9285784196
 21
162.7524849276
  0
LINE
  5
658
100
AcDbEntity
  8
0
100
AcDbLine
 62
7
  6
CONTINUOUS
 10
38.1970919884
 20
161.0065257856
 11
38.2667393404
 21
160.9106644295
  0
LINE
  5
659
100
AcDbEntity
  8
RACCORDO
100
AcDbLine
 62
7
  6
CONTINUOUS
 10
95.6262978831
 20
129.4533610487
 11
95.1262978831
 21
129.4533610487
  0
LINE
  5
65A
100
AcDbEntity
  8
RACCORDO
100
AcDbLine
 62
7
  6
CONTINUOUS
 10
95.1262978831
 20
130.9533610487
 11
95.6262978831
 21
130.9533610487
  0
LWPOLYLINE
  5
65B
100
AcDbEntity
  8
RACCORDO
100
AcDbPolyline
 62
250
  6
CONTINUOUS
 90
20
 70
0
 10
17.4538941812
 20
155.1867982663
 10
17.472033782
 20
155.1777186771
 10
17.489081661
 20
155.1608920488
 10
17.5050247402
 20
155.1361303992
 10
17.5198075079
 20
155.1027361918
 10
17.533461198
 20
155.0610087751
 10
17.5461032965
 20
155.0124411163
 10
17.5577108769
 20
154.9570207534
 10
17.5682837851
 20
154.8947942105
 10
17.5779729352
 20
154.8276982572
 10
17.5867560437
 20
154.7560288258
 10
17.5946313624
 20
154.679884832
 10
17.6017801367
 20
154.6011893897
 10
17.6081834814
 20
154.5205137295
 10
17.6138314322
 20
154.4378796274
 10
17.618920822
 20
154.3545120591
 10
17.6234501161
 20
154.2709448337
 10
17.6273970894
 20
154.1871921927
 10
17.630932346
 20
154.1036892652
 10
17.6340663555
 20
154.0207307365
  0
LINE
  5
65C
100
AcDbEntity
  8
DRAFT
100
AcDbLine
 62
7
  6
CONTINUOUS
 10
34.0030841336
 20
161.0533610487
 11
33.9555620514
 21
161.0952500141
  0
LINE
  5
65D
100
AcDbEntity
  8
DRAFT
100
AcDbLine
 62
7
  6
CONTINUOUS
 10
37.3762978831
 20
164.4265747982
 11
37.3344089177
 21
164.4740968804
  0
LINE
  5
65E
100
AcDbEntity
  8
DRAFT
100
AcDbLine
 62
7
  6
CONTINUOUS
 10
39.1396286483
 20
161.0533610487
 11
39.104489539
 21
161.0952500141
  0
LWPOLYLINE
  5
65F
100
AcDbEntity
  8
0
100
AcDbPolyline
 62
250
  6
CONTINUOUS
 90
3
 70
0
 10
89.6301160834
 20
68.4452202195
 10
89.6282218125
 20
68.5044562247
 10
89.6262978898
 20
68.5533569151
  0
LINE
  5
660
100
AcDbEntity
  8
0
100
AcDbLine
 62
250
  6
CONTINUOUS
 10
89.6336997666
 20
68.2995397864
 11
89.6301160834
 21
68.4452202195
  0
LINE
  5
661
100
AcDbEntity
  8
0
100
AcDbLine
 62
250
  6
CONTINUOUS
 10
89.6368288021
 20
68.1252631525
 11
89.6336997666
 21
68.2995397864
  0
LWPOLYLINE
  5
662
100
AcDbEntity
  8
0
100
AcDbPolyline
 62
250
  6
CONTINUOUS
 90
3
 70
0
 10
89.6402600199
 20
67.8339651131
 10
89.6393109792
 20
67.9330942022
 10
89.6368288021
 20
68.1252631525
  0
LINE
  5
663
100
AcDbEntity
  8
0
100
AcDbLine
 62
250
  6
CONTINUOUS
 10
88.6124096201
 20
68.8533610487
 11
88.6124096201
 21
74.0533610487
  0
LINE
  5
664
100
AcDbEntity
  8
0
100
AcDbLine
 62
7
  6
CONTINUOUS
 10
89.3262978831
 20
68.8533610552
 11
89.3262978831
 21
74.0533610421
  0
LINE
  5
665
100
AcDbEntity
  8
0
100
AcDbLine
 62
250
  6
CONTINUOUS
 10
89.6402598196
 20
75.0727569846
 11
89.6381610848
 21
74.8760271925
  0
LINE
  5
666
100
AcDbEntity
  8
0
100
AcDbLine
 62
250
  6
CONTINUOUS
 10
89.6381610848
 20
74.8760271925
 11
89.6353337098
 21
74.6913806009
  0
LWPOLYLINE
  5
667
100
AcDbEntity
  8
0
100
AcDbPolyline
 62
250
  6
CONTINUOUS
 90
5
 70
0
 10
89.6353337098
 20
74.6913806009
 10
89.6319513535
 20
74.5301582607
 10
89.6301159856
 20
74.4614992704
 10
89.6282217648
 20
74.4022624983
 10
89.6262978897
 20
74.3533610487
  0
LWPOLYLINE
  5
668
100
AcDbEntity
  8
0
100
AcDbPolyline
 62
250
  6
CONTINUOUS
 90
22
 70
0
 10
88.6124096201
 20
74.0533610487
 10
88.6150481501
 20
74.1284198755
 10
88.6232851342
 20
74.2027867427
 10
88.6371205722
 20
74.2764616503
 10
88.6566233716
 20
74.3499508613
 10
88.6817246249
 20
74.4227481126
 10
88.7122176103
 20
74.4933346159
 10
88.7482737829
 20
74.5616769378
 10
88.7897216877
 20
74.6278085115
 10
88.8358402369
 20
74.6903108483
 10
88.8867492272
 20
74.7490685393
 10
88.942328862
 20
74.8041969934
 10
89.0014986637
 20
74.8546239478
 10
89.0643723699
 20
74.9002285
 10
89.1308362431
 20
74.9411315526
 10
89.1994685933
 20
74.9766235511
 10
89.2703028396
 20
75.0065334335
 10
89.343305563
 20
75.0310322617
 10
89.4169548163
 20
75.0499236678
 10
89.4907432837
 20
75.0631421956
 10
89.565178281
 20
75.0707533013
 10
89.6402598082
 20
75.0727569847
  0
LINE
  5
669
100
AcDbEntity
  8
DRAFT
100
AcDbLine
 62
7
  6
CONTINUOUS
 10
37.3762978831
 20
159.2900302834
 11
37.3344089177
 21
159.3251693927
  0
LINE
  5
66A
100
AcDbEntity
  8
DRAFT
100
AcDbLine
 62
7
  6
CONTINUOUS
 10
36.5762978831
 20
163.616691814
 11
36.6181868485
 21
163.5815527047
  0
LINE
  5
66B
100
AcDbEntity
  8
0
100
AcDbLine
 62
7
  6
CONTINUOUS
 10
37.3807438978
 20
160.1136124924
 11
37.293077604
 21
160.1925475778
  0
LINE
  5
66C
100
AcDbEntity
  8
0
100
AcDbLine
 62
7
  6
CONTINUOUS
 10
35.6892787829
 20
161.6366145226
 11
35.6017834922
 21
161.7153956362
  0
LWPOLYLINE
  5
66D
100
AcDbEntity
  8
0
100
AcDbPolyline
 62
7
  6
CONTINUOUS
 90
3
 70
0
 43
0.3500000006
 10
103.2334403687
 20
102.739072998
 10
102.3762933655
 20
103.5962200012
 10
105.376294281
 20
103.5962200012
  0
LWPOLYLINE
  5
66E
100
AcDbEntity
  8
0
100
AcDbPolyline
 62
7
  6
CONTINUOUS
 90
10
 70
0
 43
0.3500000006
 10
55.394750885
 20
176.5033482056
 10
55.466177536
 20
176.3604858398
 10
55.466177536
 20
176.2890637207
 10
55.323324234
 20
176.146201355
 10
55.2518930511
 20
176.146201355
 10
55.1804664001
 20
176.2176234741
 10
55.1804664001
 20
176.2890637207
 10
55.2518930511
 20
176.431907959
 10
55.323324234
 20
176.5033482056
 10
55.394750885
 20
176.5033482056
  0
LWPOLYLINE
  5
66F
100
AcDbEntity
  8
0
100
AcDbPolyline
 62
7
  6
CONTINUOUS
 90
46
 70
0
 10
90.6659696483
 20
105.9533610487
 10
90.6392383159
 20
106.6951688383
 10
90.562402416
 20
107.426324951
 10
90.4354619488
 20
108.1468293868
 10
90.2573138556
 20
108.8600775283
 10
90.0290611951
 20
109.5626739929
 10
89.754013143
 20
110.2444326332
 10
89.4314879717
 20
110.9050498781
 10
89.0621674088
 20
111.5448292987
 10
88.6514058135
 20
112.1544954604
 10
88.1985994617
 20
112.7336096652
 10
87.7043520774
 20
113.2826106111
 10
87.1758291917
 20
113.7935389575
 10
86.6125314698
 20
114.2658400525
 10
86.0149582464
 20
114.700068548
 10
85.3917730564
 20
115.0899290586
 10
84.7426027778
 20
115.4347752197
 10
84.0678205326
 20
115.7352533959
 10
83.3772092216
 20
115.9870072956
 10
82.6705382426
 20
116.1893270907
 10
81.9480381977
 20
116.3429226094
 10
81.2201837939
 20
116.4455670448
 10
80.4868970272
 20
116.4965181281
 10
79.7482559016
 20
116.4965181281
 10
79.0149691349
 20
116.4455670448
 10
78.2871147311
 20
116.3429226094
 10
77.5646146862
 20
116.1893270907
 10
76.8579437072
 20
115.9870072956
 10
76.1673323962
 20
115.7352533959
 10
75.492550151
 20
115.4347752197
 10
74.8433798725
 20
115.0899290586
 10
74.2201946824
 20
114.700068548
 10
73.622621459
 20
114.2658400525
 10
73.0593237371
 20
113.7935389575
 10
72.5308008514
 20
113.2826106111
 10
72.0365534671
 20
112.7336096652
 10
71.5837471153
 20
112.1544954604
 10
71.17298552
 20
111.5448292987
 10
70.8036649571
 20
110.9050498781
 10
70.4811397858
 20
110.2444326332
 10
70.2060917337
 20
109.5626739929
 10
69.9778390732
 20
108.8600775283
 10
69.79969098
 20
108.1468293868
 10
69.6727505128
 20
107.426324951
 10
69.5959146129
 20
106.6951688383
 10
69.5691832805
 20
105.9533610487
  0
LWPOLYLINE
  5
670
100
AcDbEntity
  8
0
100
AcDbPolyline
 62
7
  6
CONTINUOUS
 90
46
 70
0
 10
91.3536463504
 20
105.9533610487
 10
91.325141375
 20
106.7443883125
 10
91.2432073586
 20
107.524057153
 10
91.1078443012
 20
108.2923675704
 10
90.9178759554
 20
109.0529402331
 10
90.6744785685
 20
109.8021544726
 10
90.3811808826
 20
110.5291482833
 10
90.0372559369
 20
111.2335979521
 10
89.6434306922
 20
111.9158271921
 10
89.205414773
 20
112.565945137
 10
88.7225643979
 20
113.183483981
 10
88.1955233483
 20
113.76891153
 10
87.6319325933
 20
114.3137403353
 10
87.0312596671
 20
114.8173789438
 10
86.3940370355
 20
115.2804188087
 10
85.7295030651
 20
115.6961468413
 10
85.0372598771
 20
116.0638737903
 10
84.3177053503
 20
116.3842889071
 10
83.5812714878
 20
116.652746857
 10
82.827712387
 20
116.8684907144
 10
82.0572739505
 20
117.0322774049
 10
81.2811258895
 20
117.1417323716
 10
80.4991850246
 20
117.1960640954
 10
79.7115345352
 20
117.1960640954
 10
78.9295936703
 20
117.1417323716
 10
78.1534456093
 20
117.0322774049
 10
77.3830071728
 20
116.8684907144
 10
76.629448072
 20
116.652746857
 10
75.8930142095
 20
116.3842889071
 10
75.1734596827
 20
116.0638737903
 10
74.4812164946
 20
115.6961468413
 10
73.8166825243
 20
115.2804188087
 10
73.1794598927
 20
114.8173789438
 10
72.5787869665
 20
114.3137403353
 10
72.0151962115
 20
113.76891153
 10
71.4881551619
 20
113.183483981
 10
71.0053047868
 20
112.565945137
 10
70.5672888676
 20
111.9158271921
 10
70.1734636229
 20
111.2335979521
 10
69.8295386771
 20
110.5291482833
 10
69.5362409913
 20
109.8021544726
 10
69.2928436044
 20
109.0529402331
 10
69.1028752586
 20
108.2923675704
 10
68.9675122011
 20
107.524057153
 10
68.8855781847
 20
106.7443883125
 10
68.8570732094
 20
105.9533610487
  0
LWPOLYLINE
  5
671
100
AcDbEntity
  8
0
100
AcDbPolyline
 62
7
  6
CONTINUOUS
 90
24
 70
0
 10
91.6036082742
 20
105.9533610487
 10
91.5744698549
 20
106.7619666961
 10
91.4907150826
 20
107.5589615109
 10
91.3523439572
 20
108.3443454931
 10
91.1581540926
 20
109.1218197705
 10
90.9093478749
 20
109.8876832154
 10
90.6095324627
 20
110.6308324441
 10
90.2579647404
 20
111.3509365499
 10
89.8553878236
 20
112.0483264397
 10
89.4076382173
 20
112.7128914501
 10
88.9140578339
 20
113.3441533795
 10
88.3753047609
 20
113.9425904295
 10
87.7991897669
 20
114.4995265417
 10
87.1851685535
 20
115.0143571192
 10
86.533785419
 20
115.4876867589
 10
85.854484027
 20
115.9126531922
 10
85.1468576571
 20
116.2885518512
 10
84.4113130296
 20
116.6160873039
 10
83.6585139702
 20
116.8905109861
 10
82.8882091116
 20
117.1110491514
 10
82.100649821
 20
117.2784755461
 10
81.3072540253
 20
117.3903628454
 10
80.5079366967
 20
117.4459019409
 10
80.1262827501
 20
117.4524835139
  0
LINE
  5
672
100
AcDbEntity
  8
RACCORDO
100
AcDbLine
 62
250
  6
CONTINUOUS
 10
94.0454955301
 20
156.3263891216
 11
94.0454955301
 21
150.9533610487
  0
LINE
  5
673
100
AcDbEntity
  8
0
100
AcDbLine
 62
250
  6
CONTINUOUS
 10
94.0454955301
 20
150.9533610487
 11
94.0454955301
 21
75.0299631902
  0
LINE
  5
674
100
AcDbEntity
  8
0
100
AcDbLine
 62
250
  6
CONTINUOUS
 10
94.0454955301
 20
67.8767589116
 11
94.0454955301
 21
60.9533610487
  0
LINE
  5
675
100
AcDbEntity
  8
RACCORDO
100
AcDbLine
 62
250
  6
CONTINUOUS
 10
94.0454955301
 20
60.9533610487
 11
94.0454955301
 21
55.5803329758
  0
LINE
  5
676
100
AcDbEntity
  8
0
100
AcDbLine
 62
7
  6
CONTINUOUS
 10
94.8519826753
 20
74.3533610487
 11
94.8519826753
 21
68.5533610487
  0
LINE
  5
677
100
AcDbEntity
  8
0
100
AcDbLine
 62
7
  6
CONTINUOUS
 10
95.3262978831
 20
129.4533610487
 11
95.3262978831
 21
82.4533610487
  0
LINE
  5
678
100
AcDbEntity
  8
RACCORDO
100
AcDbLine
 62
7
  6
CONTINUOUS
 10
95.1262526111
 20
155.2291502843
 11
95.1262948236
 21
56.7847738024
  0
LINE
  5
679
100
AcDbEntity
  8
RACCORDO
100
AcDbLine
 62
7
  6
CONTINUOUS
 10
95.1262948236
 20
56.7847738024
 11
95.1262526111
 21
56.6775718131
  0
LWPOLYLINE
  5
67A
100
AcDbEntity
  8
0
100
AcDbPolyline
 62
7
  6
CONTINUOUS
 90
25
 70
0
 10
91.6245463774
 20
105.9533610487
 10
91.5990545937
 20
105.1959350438
 10
91.5254093868
 20
104.4480888094
 10
91.4036107567
 20
103.7098223455
 10
91.2327274065
 20
102.9780651103
 10
91.013690633
 20
102.2558876455
 10
90.7492943267
 20
101.5525015765
 10
90.4389574403
 20
100.8681476175
 10
90.0832610211
 20
100.2025850541
 10
89.6867421008
 20
99.564303369
 10
89.2488777508
 20
98.953652025
 10
88.7701908997
 20
98.3702815591
 10
88.2567873652
 20
97.8216330651
 10
87.7082224329
 20
97.3081513248
 10
87.1249408172
 20
96.8293915562
 10
86.5143824784
 20
96.3914605072
 10
85.8761980066
 20
95.994881186
 10
85.2107368117
 20
95.6391305842
 10
84.526487083
 20
95.3287464248
 10
83.8232081431
 20
95.0643098435
 10
83.1011406695
 20
94.8452397046
 10
82.3694948844
 20
94.6743303241
 10
81.6281480916
 20
94.5521986322
 10
80.8772229873
 20
94.4782276988
 10
80.1262978831
 20
94.4533610487
  0
LWPOLYLINE
  5
67B
100
AcDbEntity
  8
0
100
AcDbPolyline
 62
7
  6
CONTINUOUS
 90
46
 70
0
 10
90.6659696483
 20
105.9533610487
 10
90.6392383159
 20
105.2115532591
 10
90.562402416
 20
104.4803971464
 10
90.4354619488
 20
103.7598927106
 10
90.2573138556
 20
103.0466445691
 10
90.0290611951
 20
102.3440481045
 10
89.754013143
 20
101.6622894643
 10
89.4314879717
 20
101.0016722193
 10
89.0621674088
 20
100.3618927987
 10
88.6514058135
 20
99.752226637
 10
88.1985994617
 20
99.1731124322
 10
87.7043520774
 20
98.6241114863
 10
87.1758291917
 20
98.1131831399
 10
86.6125314698
 20
97.6408820449
 10
86.0149582464
 20
97.2066535494
 10
85.3917730564
 20
96.8167930388
 10
84.7426027778
 20
96.4719468777
 10
84.0678205326
 20
96.1714687015
 10
83.3772092216
 20
95.9197148018
 10
82.6705382426
 20
95.7173950067
 10
81.9480381977
 20
95.563799488
 10
81.2201837939
 20
95.4611550526
 10
80.4868970272
 20
95.4102039693
 10
79.7482559016
 20
95.4102039693
 10
79.0149691349
 20
95.4611550526
 10
78.2871147311
 20
95.563799488
 10
77.5646146862
 20
95.7173950067
 10
76.8579437072
 20
95.9197148018
 10
76.1673323962
 20
96.1714687015
 10
75.492550151
 20
96.4719468777
 10
74.8433798725
 20
96.8167930388
 10
74.2201946824
 20
97.2066535494
 10
73.622621459
 20
97.6408820449
 10
73.0593237371
 20
98.1131831399
 10
72.5308008514
 20
98.6241114863
 10
72.0365534671
 20
99.1731124322
 10
71.5837471153
 20
99.752226637
 10
71.17298552
 20
100.3618927987
 10
70.8036649571
 20
101.0016722193
 10
70.4811397858
 20
101.6622894643
 10
70.2060917337
 20
102.3440481045
 10
69.9778390732
 20
103.0466445691
 10
69.79969098
 20
103.7598927106
 10
69.6727505128
 20
104.4803971464
 10
69.5959146129
 20
105.2115532591
 10
69.5691832805
 20
105.9533610487
  0
LWPOLYLINE
  5
67C
100
AcDbEntity
  8
0
100
AcDbPolyline
 62
7
  6
CONTINUOUS
 90
46
 70
0
 10
91.3536463504
 20
105.9533610487
 10
91.325141375
 20
105.1623337849
 10
91.2432073586
 20
104.3826649444
 10
91.1078443012
 20
103.614354527
 10
90.9178759554
 20
102.8537818643
 10
90.6744785685
 20
102.1045676248
 10
90.3811808826
 20
101.3775738141
 10
90.0372559369
 20
100.6731241453
 10
89.6434306922
 20
99.9908949053
 10
89.205414773
 20
99.3407769604
 10
88.7225643979
 20
98.7232381164
 10
88.1955233483
 20
98.1378105674
 10
87.6319325933
 20
97.5929817621
 10
87.0312596671
 20
97.0893431536
 10
86.3940370355
 20
96.6263032887
 10
85.7295030651
 20
96.2105752561
 10
85.0372598771
 20
95.8428483071
 10
84.3177053503
 20
95.5224331904
 10
83.5812714878
 20
95.2539752404
 10
82.827712387
 20
95.038231383
 10
82.0572739505
 20
94.8744446925
 10
81.2811258895
 20
94.7649897258
 10
80.4991850246
 20
94.710658002
 10
79.7115345352
 20
94.710658002
 10
78.9295936703
 20
94.7649897258
 10
78.1534456093
 20
94.8744446925
 10
77.3830071728
 20
95.038231383
 10
76.629448072
 20
95.2539752404
 10
75.8930142095
 20
95.5224331904
 10
75.1734596827
 20
95.8428483071
 10
74.4812164946
 20
96.2105752561
 10
73.8166825243
 20
96.6263032887
 10
73.1794598927
 20
97.0893431536
 10
72.5787869665
 20
97.5929817621
 10
72.0151962115
 20
98.1378105674
 10
71.4881551619
 20
98.7232381164
 10
71.0053047868
 20
99.3407769604
 10
70.5672888676
 20
99.9908949053
 10
70.1734636229
 20
100.6731241453
 10
69.8295386771
 20
101.3775738141
 10
69.5362409913
 20
102.1045676248
 10
69.2928436044
 20
102.8537818643
 10
69.1028752586
 20
103.614354527
 10
68.9675122011
 20
104.3826649444
 10
68.8855781847
 20
105.1623337849
 10
68.8570732094
 20
105.9533610487
  0
LWPOLYLINE
  5
67D
100
AcDbEntity
  8
0
100
AcDbPolyline
 62
7
  6
CONTINUOUS
 90
24
 70
0
 10
91.6036082742
 20
105.9533610487
 10
91.5744698549
 20
105.1447554013
 10
91.4907150826
 20
104.3477605865
 10
91.3523439572
 20
103.5623766043
 10
91.1581540926
 20
102.7849023269
 10
90.9093478749
 20
102.019038882
 10
90.6095324627
 20
101.2758896533
 10
90.2579647404
 20
100.5557855475
 10
89.8553878236
 20
99.8583956577
 10
89.4076382173
 20
99.1938306473
 10
88.9140578339
 20
98.5625687179
 10
88.3753047609
 20
97.9641316679
 10
87.7991897669
 20
97.4071955557
 10
87.1851685535
 20
96.8923649782
 10
86.533785419
 20
96.4190353385
 10
85.854484027
 20
95.9940689052
 10
85.1468576571
 20
95.6181702462
 10
84.4113130296
 20
95.2906347935
 10
83.6585139702
 20
95.0162111113
 10
82.8882091116
 20
94.795672946
 10
82.100649821
 20
94.6282465513
 10
81.3072540253
 20
94.516359252
 10
80.5079366967
 20
94.4608201565
 10
80.1262827501
 20
94.4542385835
  0
LWPOLYLINE
  5
67E
100
AcDbEntity
  8
0
100
AcDbPolyline
 62
7
  6
CONTINUOUS
 90
13
 70
0
 10
89.3262978831
 20
74.0533610421
 10
89.3291925009
 20
74.093498347
 10
89.3367876885
 20
74.1317231436
 10
89.3490834457
 20
74.1680354318
 10
89.3664477798
 20
74.2029969611
 10
89.3885126836
 20
74.2360459821
 10
89.4141741353
 20
74.2654972469
 10
89.4436257726
 20
74.2911564289
 10
89.4766739577
 20
74.3132178547
 10
89.5116337556
 20
74.3305792564
 10
89.547943521
 20
74.3428732113
 10
89.586164899
 20
74.3504671421
 10
89.6262978897
 20
74.3533610487
  0
LWPOLYLINE
  5
67F
100
AcDbEntity
  8
RACCORDO
100
AcDbPolyline
 62
250
  6
CONTINUOUS
 90
40
 70
0
 10
50.7175713476
 20
61.0305071863
 10
50.707313432
 20
61.0261541016
 10
50.6970423563
 20
61.0203575544
 10
50.6867592158
 20
61.0131174805
 10
50.6764451624
 20
61.0044086836
 10
50.6661212857
 20
60.9942561757
 10
50.6558484999
 20
60.9827354782
 10
50.6456365507
 20
60.9698292892
 10
50.6354776454
 20
60.9555553606
 10
50.6254061571
 20
60.9400422148
 10
50.6154377242
 20
60.9233092584
 10
50.6055582334
 20
60.9053378461
 10
50.5957573116
 20
60.8861995205
 10
50.5860390045
 20
60.8659098237
 10
50.5764006315
 20
60.8444538338
 10
50.5668218009
 20
60.8218572571
 10
50.5572950855
 20
60.7981055074
 10
50.5478293022
 20
60.7732135742
 10
50.5384284599
 20
60.7472514512
 10
50.5290920647
 20
60.7202138632
 10
50.5198217891
 20
60.6921065345
 10
50.5106247966
 20
60.6630159996
 10
50.5015103115
 20
60.6329743087
 10
50.4924700027
 20
60.6019499372
 10
50.483484747
 20
60.5699340031
 10
50.4745620787
 20
60.5369669996
 10
50.4656954734
 20
60.50300879
 10
50.4568451161
 20
60.4679293053
 10
50.448009693
 20
60.4317380446
 10
50.4391921075
 20
60.3944255185
 10
50.4303594419
 20
60.3558328777
 10
50.421505663
 20
60.315939316
 10
50.412639038
 20
60.27476537
 10
50.4037485167
 20
60.2322140204
 10
50.3948315486
 20
60.1882693654
 10
50.3858932685
 20
60.1429469532
 10
50.3769343139
 20
60.0961968883
 10
50.3679558146
 20
60.048002424
 10
50.3589593852
 20
59.9983799655
 10
50.3499464399
 20
59.9473293448
  0
LINE
  5
680
100
AcDbEntity
  8
RACCORDO
100
AcDbLine
 62
250
  6
CONTINUOUS
 10
18.8982358521
 20
140.528043963
 11
17.5729142566
 21
140.5280459868
  0
LWPOLYLINE
  5
681
100
AcDbEntity
  8
RACCORDO
100
AcDbPolyline
 62
250
  6
CONTINUOUS
 90
4
 70
0
 10
14.7262978833
 20
140.5281769953
 10
14.7383073618
 20
140.527879544
 10
14.7745610001
 20
140.5277118049
 10
17.5729142566
 20
140.5281839971
  0
LINE
  5
682
100
AcDbEntity
  8
RACCORDO
100
AcDbLine
 62
250
  6
CONTINUOUS
 10
95.6262978831
 20
149.9533610487
 11
95.6262978831
 21
129.4533610487
  0
LINE
  5
683
100
AcDbEntity
  8
RACCORDO
100
AcDbLine
 62
250
  6
CONTINUOUS
 10
95.6262978831
 20
82.4533610487
 11
95.6262978831
 21
61.9533610487
  0
LINE
  5
684
100
AcDbEntity
  8
RACCORDO
100
AcDbLine
 62
7
  6
CONTINUOUS
 10
96.1262978831
 20
149.4533610487
 11
96.1262978831
 21
129.9533610487
  0
LINE
  5
685
100
AcDbEntity
  8
RACCORDO
100
AcDbLine
 62
7
  6
CONTINUOUS
 10
96.1262978831
 20
81.9533610487
 11
96.1262978831
 21
62.4533610487
  0
LWPOLYLINE
  5
686
100
AcDbEntity
  8
RACCORDO
100
AcDbPolyline
 62
250
  6
CONTINUOUS
 90
33
 70
0
 10
17.7685947178
 20
41.6690609444
 10
17.7594103737
 20
41.6652318174
 10
17.7509813146
 20
41.6616506763
 10
17.7432985895
 20
41.6582163
 10
17.7364071248
 20
41.6547024676
 10
17.7302463517
 20
41.6511316773
 10
17.724651669
 20
41.6477728938
 10
17.7196047247
 20
41.6445541867
 10
17.7151156186
 20
41.6413368622
 10
17.7110651154
 20
41.6383030867
 10
17.7074458888
 20
41.6353905121
 10
17.7042608246
 20
41.6324860847
 10
17.7014074839
 20
41.629718208
 10
17.6988766483
 20
41.6270520311
 10
17.6966752617
 20
41.6243945158
 10
17.69472563
 20
41.6218203958
 10
17.6930169384
 20
41.6193175471
 10
17.6915584649
 20
41.6168194214
 10
17.6903023934
 20
41.6143556646
 10
17.6892386967
 20
41.611926291
 10
17.6883756652
 20
41.6094943167
 10
17.6876923571
 20
41.6070636051
 10
17.6871850761
 20
41.6046279872
 10
17.6868552933
 20
41.602182671
 10
17.6866894202
 20
41.5997483676
 10
17.6867036852
 20
41.597273322
 10
17.6868796116
 20
41.5948031226
 10
17.6871526591
 20
41.5924911303
 10
17.6875202963
 20
41.590313808
 10
17.6879872823
 20
41.5882276703
 10
17.6885014312
 20
41.5863373431
 10
17.6890620471
 20
41.584612498
 10
17.6894330794
 20
41.5836117968
  0
LINE
  5
687
100
AcDbEntity
  8
0
100
AcDbLine
 62
7
  6
CONTINUOUS
 10
14.9998537273
 20
145.8300325478
 11
15.0502279819
 21
145.8300325478
  0
LINE
  5
688
100
AcDbEntity
  8
0
100
AcDbLine
 62
250
  6
CONTINUOUS
 10
15.1664884844
 20
147.0477455837
 11
15.2170576794
 21
147.0477455837
  0
LINE
  5
689
100
AcDbEntity
  8
0
100
AcDbLine
 62
7
  6
CONTINUOUS
 10
15.3092337078
 20
147.9303365137
 11
15.3599711006
 21
147.9303365137
  0
LINE
  5
68A
100
AcDbEntity
  8
0
100
AcDbLine
 62
7
  6
CONTINUOUS
 10
15.3138225555
 20
147.9569243482
 11
15.3645653739
 21
147.9569243482
  0
LWPOLYLINE
  5
68B
100
AcDbEntity
  8
RACCORDO
100
AcDbPolyline
 62
250
  6
CONTINUOUS
 90
17
 70
0
 10
18.8623354227
 20
156.2764545539
 10
18.8808059026
 20
156.2710056543
 10
18.8981153152
 20
156.2541273252
 10
18.9142636604
 20
156.22603699
 10
18.9292248094
 20
156.1868368843
 10
18.943024891
 20
156.1368575598
 10
18.9557422915
 20
156.0769885865
 10
18.9673609049
 20
156.0078210674
 10
18.9778968371
 20
155.9299382876
 10
18.9874767924
 20
155.8447883856
 10
18.9960879398
 20
155.7533039667
 10
19.0037431104
 20
155.656209723
 10
19.0106075016
 20
155.5550322561
 10
19.0166747355
 20
155.4509209417
 10
19.0219511901
 20
155.3444945906
 10
19.0266211968
 20
155.2365778262
 10
19.0306920086
 20
155.1281300516
  0
LINE
  5
68C
100
AcDbEntity
  8
0
100
AcDbLine
 62
7
  6
CONTINUOUS
 10
36.3019679534
 20
162.6798435055
 11
36.4043026985
 21
162.6207605128
  0
LINE
  5
68D
100
AcDbEntity
  8
0
100
AcDbLine
 62
7
  6
CONTINUOUS
 10
38.2732930676
 20
161.5416984201
 11
38.3756446948
 21
161.4826056806
  0
LWPOLYLINE
  5
68E
100
AcDbEntity
  8
0
100
AcDbPolyline
 62
7
  6
CONTINUOUS
 90
7
 70
0
 43
0.3500000006
 10
105.376294281
 20
108.3105058594
 10
105.376294281
 20
106.8105054016
 10
103.2334403687
 20
108.3105058594
 10
102.8048713989
 20
108.3105058594
 10
102.3762933655
 20
107.8819368896
 10
102.3762933655
 20
107.2390743713
 10
103.0191558838
 20
106.8105054016
  0
LINE
  5
68F
100
AcDbEntity
  8
RACCORDO
100
AcDbLine
 62
7
  6
CONTINUOUS
 10
95.1262978831
 20
149.9533610487
 11
95.6262978831
 21
149.9533610487
  0
LINE
  5
690
100
AcDbEntity
  8
0
100
AcDbLine
 62
7
  6
CONTINUOUS
 10
15.8557810699
 20
150.3822761097
 11
15.8044513786
 21
150.3822761097
  0
LINE
  5
691
100
AcDbEntity
  8
RACCORDO
100
AcDbLine
 62
250
  6
CONTINUOUS
 10
95.1262948236
 20
150.9533610487
 11
58.1262978831
 21
150.9533610487
  0
LINE
  5
692
100
AcDbEntity
  8
0
100
AcDbLine
 62
250
  6
CONTINUOUS
 10
58.1262978831
 20
150.9533610487
 11
56.5262978831
 21
150.9533610487
  0
LINE
  5
693
100
AcDbEntity
  8
RACCORDO
100
AcDbLine
 62
250
  6
CONTINUOUS
 10
19.0035166683
 20
150.9533610487
 11
34.7262978831
 21
150.9533610487
  0
LINE
  5
694
100
AcDbEntity
  8
DRAFT
100
AcDbLine
 62
250
  6
CONTINUOUS
 10
34.7262978831
 20
150.9533610487
 11
56.5262978831
 21
150.9533610487
  0
LINE
  5
695
100
AcDbEntity
  8
0
100
AcDbLine
 62
250
  6
CONTINUOUS
 10
15.7693045943
 20
150.2295431251
 11
15.8205095898
 21
150.2291833919
  0
LINE
  5
696
100
AcDbEntity
  8
RACCORDO
100
AcDbLine
 62
250
  6
CONTINUOUS
 10
19.0035166683
 20
150.9533610487
 11
17.6390222108
 21
151.0300286624
  0
LINE
  5
697
100
AcDbEntity
  8
0
100
AcDbLine
 62
7
  6
CONTINUOUS
 10
37.8905399535
 20
160.3939956803
 11
37.7785095969
 21
160.4303965497
  0
LINE
  5
698
100
AcDbEntity
  8
0
100
AcDbLine
 62
7
  6
CONTINUOUS
 10
35.7260115274
 20
161.097293599
 11
35.6138179752
 21
161.1337474939
  0
LINE
  5
699
100
AcDbEntity
  8
0
100
AcDbLine
 62
7
  6
CONTINUOUS
 10
94.1609949726
 20
67.9768313036
 11
94.0454955301
 21
67.87675259
  0
LINE
  5
69A
100
AcDbEntity
  8
0
100
AcDbLine
 62
7
  6
CONTINUOUS
 10
94.388693926
 20
68.1727232821
 11
94.1609949726
 21
67.9768313036
  0
LINE
  5
69B
100
AcDbEntity
  8
0
100
AcDbLine
 62
7
  6
CONTINUOUS
 10
94.4988247164
 20
68.2666658115
 11
94.388693926
 21
68.1727232821
  0
LWPOLYLINE
  5
69C
100
AcDbEntity
  8
0
100
AcDbPolyline
 62
7
  6
CONTINUOUS
 90
5
 70
0
 10
94.75819431
 20
68.4802186574
 10
94.7086137232
 20
68.4409154642
 10
94.6577655771
 20
68.3995733487
 10
94.6058454593
 20
68.3564099016
 10
94.4988247164
 20
68.2666658115
  0
LINE
  5
69D
100
AcDbEntity
  8
0
100
AcDbLine
 62
7
  6
CONTINUOUS
 10
94.8519826753
 20
68.5533610487
 11
94.75819431
 21
68.4802186574
  0
LWPOLYLINE
  5
69E
100
AcDbEntity
  8
RACCORDO
100
AcDbPolyline
 62
250
  6
CONTINUOUS
 90
22
 70
0
 10
18.8623354227
 20
156.2764545539
 10
18.7717995453
 20
156.2721034667
 10
18.6816947911
 20
156.2622285846
 10
18.5923539896
 20
156.2468663839
 10
18.5041071482
 20
156.22607361
 10
18.4172802338
 20
156.1999270678
 10
18.332193969
 20
156.1685233384
 10
18.2491626459
 20
156.1319784216
 10
18.1684929658
 20
156.0904273078
 10
18.0904829072
 20
156.0440234798
 10
18.0154206238
 20
155.9929383449
 10
17.9435833807
 20
155.9373606023
 10
17.8752365305
 20
155.8774955463
 10
17.8106325327
 20
155.8135643075
 10
17.7500100212
 20
155.745803036
 10
17.6935929233
 20
155.6744620296
 10
17.6415896345
 20
155.5998048127
 10
17.5941922408
 20
155.5221071511
 10
17.5515758117
 20
155.4416560322
 10
17.5138977633
 20
155.3587486213
 10
17.4812972749
 20
155.2736911657
 10
17.4538947679
 20
155.1867978504
  0
LINE
  5
69F
100
AcDbEntity
  8
RACCORDO
100
AcDbLine
 62
7
  6
CONTINUOUS
 10
18.6853783289
 20
156.2733657564
 11
34.7262978831
 21
156.5533610487
  0
LINE
  5
6A0
100
AcDbEntity
  8
DRAFT
100
AcDbLine
 62
7
  6
CONTINUOUS
 10
56.5262978831
 20
156.9533610487
 11
34.7262978831
 21
156.5728406333
  0
LINE
  5
6A1
100
AcDbEntity
  8
0
100
AcDbLine
 62
7
  6
CONTINUOUS
 10
58.1262978831
 20
156.9533610487
 11
56.5262978831
 21
156.9533610487
  0
LINE
  5
6A2
100
AcDbEntity
  8
RACCORDO
100
AcDbLine
 62
7
  6
CONTINUOUS
 10
94.0454955301
 20
156.3263891216
 11
58.1262978831
 21
156.9533610487
  0
LINE
  5
6A3
100
AcDbEntity
  8
0
100
AcDbLine
 62
7
  6
CONTINUOUS
 10
38.2424737388
 20
160.857447991
 11
38.1252318966
 21
160.8451253769
  0
LINE
  5
6A4
100
AcDbEntity
  8
0
100
AcDbLine
 62
7
  6
CONTINUOUS
 10
35.9789301412
 20
160.6195399722
 11
35.8610926881
 21
160.6071547568
  0
LINE
  5
6A5
100
AcDbEntity
  8
DRAFT
100
AcDbLine
 62
7
  6
CONTINUOUS
 10
34.0030841336
 20
161.0533610487
 11
34.8129671178
 21
161.0533610487
  0
LINE
  5
6A6
100
AcDbEntity
  8
DRAFT
100
AcDbLine
 62
7
  6
CONTINUOUS
 10
39.1396286483
 20
161.0533610487
 11
46.3163438669
 21
161.0533610487
  0
LINE
  5
6A7
100
AcDbEntity
  8
DRAFT
100
AcDbLine
 62
7
  6
CONTINUOUS
 10
33.9555620514
 20
161.0952500141
 11
34.8481062271
 21
161.0952500141
  0
LINE
  5
6A8
100
AcDbEntity
  8
DRAFT
100
AcDbLine
 62
7
  6
CONTINUOUS
 10
39.104489539
 20
161.0952500141
 11
46.3258261709
 21
161.0952500141
  0
LINE
  5
6A9
100
AcDbEntity
  8
DRAFT
100
AcDbLine
 62
7
  6
CONTINUOUS
 10
44.7669035509
 20
161.8114720833
 11
39.104489539
 21
161.8114720833
  0
LINE
  5
6AA
100
AcDbEntity
  8
DRAFT
100
AcDbLine
 62
7
  6
CONTINUOUS
 10
34.8481062271
 20
161.8114720833
 11
33.9555620514
 21
161.8114720833
  0
LINE
  5
6AB
100
AcDbEntity
  8
DRAFT
100
AcDbLine
 62
7
  6
CONTINUOUS
 10
44.5676925546
 20
161.8533610487
 11
39.1396286483
 21
161.8533610487
  0
LINE
  5
6AC
100
AcDbEntity
  8
DRAFT
100
AcDbLine
 62
7
  6
CONTINUOUS
 10
34.8129671178
 20
161.8533610487
 11
34.0030841336
 21
161.8533610487
  0
LINE
  5
6AD
100
AcDbEntity
  8
0
100
AcDbLine
 62
7
  6
CONTINUOUS
 10
35.8610926881
 20
162.2995673406
 11
35.9789301412
 21
162.2871821252
  0
LINE
  5
6AE
100
AcDbEntity
  8
0
100
AcDbLine
 62
7
  6
CONTINUOUS
 10
38.1252318966
 20
162.0615967205
 11
38.2424737388
 21
162.0492741064
  0
LINE
  5
6AF
100
AcDbEntity
  8
DRAFT
100
AcDbLine
 62
7
  6
CONTINUOUS
 10
44.5676925546
 20
161.8533610487
 11
44.7669035509
 21
161.8114720833
  0
LWPOLYLINE
  5
6B0
100
AcDbEntity
  8
0
100
AcDbPolyline
 62
7
  6
CONTINUOUS
 90
13
 70
0
 43
0.3500000006
 10
50.6804650269
 20
177.7176329956
 10
50.3947493591
 20
177.9319174805
 10
50.3947493591
 20
178.5747709351
 10
50.6804650269
 20
179.0033399048
 10
51.3233230133
 20
179.0033399048
 10
51.609038681
 20
178.5747709351
 10
51.609038681
 20
177.9319174805
 10
51.3233230133
 20
177.7176329956
 10
51.751891983
 20
177.2890640259
 10
51.751891983
 20
176.431907959
 10
51.3233230133
 20
176.0033389893
 10
50.6804650269
 20
176.0033389893
 10
50.2518960571
 20
176.431907959
  0
LWPOLYLINE
  5
6B1
100
AcDbEntity
  8
0
100
AcDbPolyline
 62
7
  6
CONTINUOUS
 90
7
 70
0
 43
0.3500000006
 10
57.966178299
 20
176.0033389893
 10
56.4661778412
 20
176.0033389893
 10
57.966178299
 20
178.1462019653
 10
57.966178299
 20
178.5747709351
 10
57.5376093292
 20
179.0033399048
 10
56.8947513428
 20
179.0033399048
 10
56.4661778412
 20
178.3604864502
  0
LWPOLYLINE
  5
6B2
100
AcDbEntity
  8
0
100
AcDbPolyline
 62
7
  6
CONTINUOUS
 90
6
 70
0
 43
0.3500000006
 10
52.6090389862
 20
176.0033389893
 10
53.6804659424
 20
176.0033389893
 10
53.8947504272
 20
176.2176234741
 10
53.8947504272
 20
177.2890640259
 10
53.4661814575
 20
177.7176329956
 10
53.0376079559
 20
177.7176329956
  0
ARC
  5
6B3
100
AcDbEntity
  8
DRAFT
100
AcDbCircle
 62
7
  6
CONTINUOUS
 10
172.2620841735
 20
40.3533610487
 40
20.0
100
AcDbArc
 50
163.5674246138
 51
173.6926330239
  0
ARC
  5
6B4
100
AcDbEntity
  8
DRAFT
100
AcDbCircle
 62
7
  6
CONTINUOUS
 10
172.2620841735
 20
40.3533610487
 40
20.0
100
AcDbArc
 50
152.6532152539
 51
155.3475362783
  0
ARC
  5
6B5
100
AcDbEntity
  8
RACCORDO
100
AcDbCircle
 62
7
  6
CONTINUOUS
 10
172.2620841735
 20
40.3533610487
 40
20.0
100
AcDbArc
 50
173.6926330239
 51
177.9534656857
  0
ARC
  5
6B6
100
AcDbEntity
  8
RACCORDO
100
AcDbCircle
 62
7
  6
CONTINUOUS
 10
172.2620841735
 20
40.3533610487
 40
19.5
100
AcDbArc
 50
154.8493365875
 51
154.9708018357
  0
ARC
  5
6B7
100
AcDbEntity
  8
IMPORT_IGES
100
AcDbCircle
 62
7
  6
CONTINUOUS
 10
172.2620841735
 20
40.3533610487
 40
19.5
100
AcDbArc
 50
154.8493368402
 51
177.5480939819
  0
ARC
  5
6B8
100
AcDbEntity
  8
0
100
AcDbCircle
 62
7
  6
CONTINUOUS
 10
144.7620841735
 20
60.9533610487
 40
6.0
100
AcDbArc
 50
180.0
 51
191.1089817799
  0
ARC
  5
6B9
100
AcDbEntity
  8
RACCORDO
100
AcDbCircle
 62
7
  6
CONTINUOUS
 10
144.7620841735
 20
45.9533610487
 40
5.8636981655
100
AcDbArc
 50
180.0
 51
270.0
  0
ARC
  5
6BA
100
AcDbEntity
  8
DRAFT
100
AcDbCircle
 62
7
  6
CONTINUOUS
 10
144.7620841735
 20
45.9533610487
 40
5.6194795846
100
AcDbArc
 50
180.0
 51
270.0
  0
ARC
  5
6BB
100
AcDbEntity
  8
DRAFT
100
AcDbCircle
 62
7
  6
CONTINUOUS
 10
144.7620841735
 20
45.9533610487
 40
5.6
100
AcDbArc
 50
180.0
 51
270.0
  0
ARC
  5
6BC
100
AcDbEntity
  8
DRAFT
100
AcDbCircle
 62
7
  6
CONTINUOUS
 10
158.0502053392
 20
47.7033610487
 40
4.0
100
AcDbArc
 50
90.0
 51
152.6532152539
  0
ARC
  5
6BD
100
AcDbEntity
  8
IMPORT_IGES
100
AcDbCircle
 62
7
  6
CONTINUOUS
 10
157.7789905813
 20
47.1533610487
 40
3.5
100
AcDbArc
 50
90.0000008005
 51
154.8493379958
  0
ARC
  5
6BE
100
AcDbEntity
  8
RACCORDO
100
AcDbCircle
 62
7
  6
CONTINUOUS
 10
157.7789905813
 20
47.1533610487
 40
3.5
100
AcDbArc
 50
93.0123557396
 51
124.7403801762
  0
ARC
  5
6BF
100
AcDbEntity
  8
RACCORDO
100
AcDbCircle
 62
7
  6
CONTINUOUS
 10
157.7789905813
 20
47.1533610487
 40
3.5
100
AcDbArc
 50
142.1542579901
 51
154.8493365875
  0
ARC
  5
6C0
100
AcDbEntity
  8
IMPORT_IGES
100
AcDbCircle
 62
7
  6
CONTINUOUS
 10
153.8229952589
 20
41.8533610487
 40
1.5
100
AcDbArc
 50
270.0000257442
 51
270.7233854836
  0
ARC
  5
6C1
100
AcDbEntity
  8
IMPORT_IGES
100
AcDbCircle
 62
7
  6
CONTINUOUS
 10
153.5792043098
 20
41.1533610487
 40
0.8
100
AcDbArc
 50
177.5480953594
 51
270.000010929
  0
ARC
  5
6C2
100
AcDbEntity
  8
0
100
AcDbCircle
 62
7
  6
CONTINUOUS
 10
144.7620841735
 20
150.9533610487
 40
6.0
100
AcDbArc
 50
90.0
 51
180.0
  0
ARC
  5
6C3
100
AcDbEntity
  8
DRAFT
100
AcDbCircle
 62
7
  6
CONTINUOUS
 10
144.7620841735
 20
150.9533610487
 40
6.0
100
AcDbArc
 50
90.0
 51
180.0
  0
ARC
  5
6C4
100
AcDbEntity
  8
DRAFT
100
AcDbCircle
 62
7
  6
CONTINUOUS
 10
144.7620841735
 20
150.9533610487
 40
5.6194795846
100
AcDbArc
 50
90.0
 51
180.0
  0
ARC
  5
6C5
100
AcDbEntity
  8
DRAFT
100
AcDbCircle
 62
7
  6
CONTINUOUS
 10
144.7620841735
 20
150.9533610487
 40
5.6
100
AcDbArc
 50
90.0
 51
180.0
  0
ARC
  5
6C6
100
AcDbEntity
  8
DRAFT
100
AcDbCircle
 62
7
  6
CONTINUOUS
 10
188.2620841735
 20
40.3533610487
 40
20.0
100
AcDbArc
 50
6.3073669761
 51
16.4325753862
  0
ARC
  5
6C7
100
AcDbEntity
  8
DRAFT
100
AcDbCircle
 62
7
  6
CONTINUOUS
 10
188.2620841735
 20
40.3533610487
 40
20.0
100
AcDbArc
 50
24.6524637217
 51
27.3467847461
  0
ARC
  5
6C8
100
AcDbEntity
  8
RACCORDO
100
AcDbCircle
 62
7
  6
CONTINUOUS
 10
188.2620841735
 20
40.3533610487
 40
20.0
100
AcDbArc
 50
2.0465343143
 51
6.3073669761
  0
ARC
  5
6C9
100
AcDbEntity
  8
IMPORT_IGES
100
AcDbCircle
 62
7
  6
CONTINUOUS
 10
188.2620841751
 20
40.3533610493
 40
19.4999999982
100
AcDbArc
 50
2.4519067942
 51
25.1506634125
  0
ARC
  5
6CA
100
AcDbEntity
  8
RACCORDO
100
AcDbCircle
 62
7
  6
CONTINUOUS
 10
188.2620841751
 20
40.3533610493
 40
19.4999999982
100
AcDbArc
 50
25.027818291
 51
25.1506634131
  0
ARC
  5
6CB
100
AcDbEntity
  8
0
100
AcDbCircle
 62
7
  6
CONTINUOUS
 10
215.7620841735
 20
60.9533610487
 40
6.0
100
AcDbArc
 50
348.8920780412
 51
360.0
  0
ARC
  5
6CC
100
AcDbEntity
  8
RACCORDO
100
AcDbCircle
 62
7
  6
CONTINUOUS
 10
215.7620841735
 20
45.9533610487
 40
5.8636981655
100
AcDbArc
 50
270.0
 51
360.0
  0
ARC
  5
6CD
100
AcDbEntity
  8
DRAFT
100
AcDbCircle
 62
7
  6
CONTINUOUS
 10
215.7620841735
 20
45.9533610487
 40
5.6194795846
100
AcDbArc
 50
270.0
 51
360.0
  0
ARC
  5
6CE
100
AcDbEntity
  8
DRAFT
100
AcDbCircle
 62
7
  6
CONTINUOUS
 10
215.7620841735
 20
45.9533610487
 40
5.6
100
AcDbArc
 50
270.0
 51
360.0
  0
ARC
  5
6CF
100
AcDbEntity
  8
DRAFT
100
AcDbCircle
 62
7
  6
CONTINUOUS
 10
202.4739630077
 20
47.7033610487
 40
4.0
100
AcDbArc
 50
27.3467847461
 51
90.0
  0
ARC
  5
6D0
100
AcDbEntity
  8
IMPORT_IGES
100
AcDbCircle
 62
7
  6
CONTINUOUS
 10
202.7451777657
 20
47.1533610487
 40
3.5
100
AcDbArc
 50
25.1506634125
 51
90.0
  0
ARC
  5
6D1
100
AcDbEntity
  8
RACCORDO
100
AcDbCircle
 62
7
  6
CONTINUOUS
 10
202.7451777657
 20
47.1533610487
 40
3.5
100
AcDbArc
 50
25.1506634131
 51
51.9847628966
  0
ARC
  5
6D2
100
AcDbEntity
  8
RACCORDO
100
AcDbCircle
 62
7
  6
CONTINUOUS
 10
202.7451777657
 20
47.1533610487
 40
3.5
100
AcDbArc
 50
55.2498625027
 51
90.0
  0
ARC
  5
6D3
100
AcDbEntity
  8
IMPORT_IGES
100
AcDbCircle
 62
7
  6
CONTINUOUS
 10
206.7011730881
 20
41.8533610487
 40
1.5
100
AcDbArc
 50
269.2765581216
 51
269.9999711021
  0
ARC
  5
6D4
100
AcDbEntity
  8
IMPORT_IGES
100
AcDbCircle
 62
7
  6
CONTINUOUS
 10
206.9449640371
 20
41.1533610487
 40
0.8
100
AcDbArc
 50
269.9999916871
 51
2.4519046406
  0
ARC
  5
6D5
100
AcDbEntity
  8
0
100
AcDbCircle
 62
7
  6
CONTINUOUS
 10
215.7620841735
 20
150.9533610487
 40
6.0
100
AcDbArc
 50
0.0
 51
90.0
  0
ARC
  5
6D6
100
AcDbEntity
  8
DRAFT
100
AcDbCircle
 62
7
  6
CONTINUOUS
 10
215.7620841735
 20
150.9533610487
 40
6.0
100
AcDbArc
 50
0.0
 51
90.0
  0
ARC
  5
6D7
100
AcDbEntity
  8
DRAFT
100
AcDbCircle
 62
7
  6
CONTINUOUS
 10
215.7620841735
 20
150.9533610487
 40
5.6194795846
100
AcDbArc
 50
0.0
 51
90.0
  0
ARC
  5
6D8
100
AcDbEntity
  8
DRAFT
100
AcDbCircle
 62
7
  6
CONTINUOUS
 10
215.7620841735
 20
150.9533610487
 40
5.6
100
AcDbArc
 50
0.0
 51
90.0
  0
ARC
  5
6D9
100
AcDbEntity
  8
0
100
AcDbCircle
 62
7
  6
CONTINUOUS
 10
20.816590062
 20
107.6267519865
 40
60.0
100
AcDbArc
 50
55.2523489879
 51
73.2893061818
  0
ARC
  5
6DA
100
AcDbEntity
  8
DRAFT
100
AcDbCircle
 62
7
  6
CONTINUOUS
 10
20.816590062
 20
107.6267519865
 40
59.2418889654
100
AcDbArc
 50
66.1539811272
 51
73.2893061818
  0
ARC
  5
6DB
100
AcDbEntity
  8
DRAFT
100
AcDbCircle
 62
7
  6
CONTINUOUS
 10
20.816590062
 20
107.6267519865
 40
59.2418889654
100
AcDbArc
 50
56.2838807916
 51
64.4947006031
  0
ARC
  5
6DC
100
AcDbEntity
  8
DRAFT
100
AcDbCircle
 62
7
  6
CONTINUOUS
 10
20.816590062
 20
107.6267519865
 40
59.2
100
AcDbArc
 50
66.3467162401
 51
73.2893061818
  0
ARC
  5
6DD
100
AcDbEntity
  8
DRAFT
100
AcDbCircle
 62
7
  6
CONTINUOUS
 10
20.816590062
 20
107.6267519865
 40
59.2
100
AcDbArc
 50
56.3424382731
 51
64.4855265509
  0
ARC
  5
6DE
100
AcDbEntity
  8
RACCORDO
100
AcDbCircle
 62
7
  6
CONTINUOUS
 10
19.0877195813
 20
42.1265619404
 40
1.5
100
AcDbArc
 50
201.2209159354
 51
268.9999999986
  0
ARC
  5
6DF
100
AcDbEntity
  8
IMPORT_IGES
100
AcDbCircle
 62
7
  6
CONTINUOUS
 10
13.9489186171
 20
41.3533610487
 40
1.0
100
AcDbArc
 50
170.7488034303
 51
269.9997730118
  0
ARC
  5
6E0
100
AcDbEntity
  8
RACCORDO
100
AcDbCircle
 62
7
  6
CONTINUOUS
 10
48.7262978831
 20
41.0896628832
 40
1.0
100
AcDbArc
 50
269.0
 51
360.0
  0
ARC
  5
6E1
100
AcDbEntity
  8
RACCORDO
100
AcDbCircle
 62
7
  6
CONTINUOUS
 10
50.7262978831
 20
54.0120498381
 40
1.0
100
AcDbArc
 50
90.5
 51
180.0
  0
ARC
  5
6E2
100
AcDbEntity
  8
DRAFT
100
AcDbCircle
 62
7
  6
CONTINUOUS
 10
36.9762978831
 20
161.4533610487
 40
5.1
100
AcDbArc
 50
208.9308707765
 51
230.4125723179
  0
ARC
  5
6E3
100
AcDbEntity
  8
DRAFT
100
AcDbCircle
 62
7
  6
CONTINUOUS
 10
36.9762978831
 20
161.4533610487
 40
4.9655960001
100
AcDbArc
 50
208.9308707765
 51
231.1387582162
  0
ARC
  5
6E4
100
AcDbEntity
  8
DRAFT
100
AcDbCircle
 62
7
  6
CONTINUOUS
 10
36.9762978831
 20
161.4533610487
 40
4.013457922
100
AcDbArc
 50
208.9308707765
 51
235.9017414844
  0
ARC
  5
6E5
100
AcDbEntity
  8
DRAFT
100
AcDbCircle
 62
7
  6
CONTINUOUS
 10
36.9762978831
 20
161.4533610487
 40
3.9
100
AcDbArc
 50
208.9308707765
 51
234.7655820154
  0
ARC
  5
6E6
100
AcDbEntity
  8
ASSI
100
AcDbCircle
 62
7
  6
CONTINUOUS
 10
36.9762978831
 20
161.4533610487
 40
3.8
100
AcDbArc
 50
73.2893061818
 51
233.693453181
  0
ARC
  5
6E7
100
AcDbEntity
  8
DRAFT
100
AcDbCircle
 62
7
  6
CONTINUOUS
 10
36.9762978831
 20
161.4533610487
 40
3.0418889654
100
AcDbArc
 50
73.2893061818
 51
83.2390877034
  0
ARC
  5
6E8
100
AcDbEntity
  8
DRAFT
100
AcDbCircle
 62
7
  6
CONTINUOUS
 10
36.9762978831
 20
161.4533610487
 40
3.0418889654
100
AcDbArc
 50
96.7609122966
 51
173.2390877034
  0
ARC
  5
6E9
100
AcDbEntity
  8
DRAFT
100
AcDbCircle
 62
7
  6
CONTINUOUS
 10
36.9762978831
 20
161.4533610487
 40
3.0418889654
100
AcDbArc
 50
186.7609122966
 51
240.6299553327
  0
ARC
  5
6EA
100
AcDbEntity
  8
DRAFT
100
AcDbCircle
 62
7
  6
CONTINUOUS
 10
36.9762978831
 20
161.4533610487
 40
3.0
100
AcDbArc
 50
73.2893061818
 51
82.3377443392
  0
ARC
  5
6EB
100
AcDbEntity
  8
DRAFT
100
AcDbCircle
 62
7
  6
CONTINUOUS
 10
36.9762978831
 20
161.4533610487
 40
3.0
100
AcDbArc
 50
97.6622556608
 51
172.3377443392
  0
ARC
  5
6EC
100
AcDbEntity
  8
DRAFT
100
AcDbCircle
 62
7
  6
CONTINUOUS
 10
36.9762978831
 20
161.4533610487
 40
3.0
100
AcDbArc
 50
187.6622556608
 51
241.0966654602
  0
ARC
  5
6ED
100
AcDbEntity
  8
DRAFT
100
AcDbCircle
 62
7
  6
CONTINUOUS
 10
36.9762978831
 20
161.4533610487
 40
2.2
100
AcDbArc
 50
10.4756816964
 51
79.5243183036
  0
ARC
  5
6EE
100
AcDbEntity
  8
DRAFT
100
AcDbCircle
 62
7
  6
CONTINUOUS
 10
36.9762978831
 20
161.4533610487
 40
2.2
100
AcDbArc
 50
280.4756816964
 51
349.5243183036
  0
ARC
  5
6EF
100
AcDbEntity
  8
DRAFT
100
AcDbCircle
 62
7
  6
CONTINUOUS
 10
36.9762978831
 20
161.4533610487
 40
2.2
100
AcDbArc
 50
100.4756816964
 51
169.5243183036
  0
ARC
  5
6F0
100
AcDbEntity
  8
DRAFT
100
AcDbCircle
 62
7
  6
CONTINUOUS
 10
36.9762978831
 20
161.4533610487
 40
2.2
100
AcDbArc
 50
190.4756816964
 51
259.5243183036
  0
ARC
  5
6F1
100
AcDbEntity
  8
DRAFT
100
AcDbCircle
 62
7
  6
CONTINUOUS
 10
36.9762978831
 20
161.4533610487
 40
2.1581110346
100
AcDbArc
 50
9.5516862001
 51
80.4483137999
  0
ARC
  5
6F2
100
AcDbEntity
  8
DRAFT
100
AcDbCircle
 62
7
  6
CONTINUOUS
 10
36.9762978831
 20
161.4533610487
 40
2.1581110346
100
AcDbArc
 50
99.5516862001
 51
170.4483137999
  0
ARC
  5
6F3
100
AcDbEntity
  8
DRAFT
100
AcDbCircle
 62
7
  6
CONTINUOUS
 10
36.9762978831
 20
161.4533610487
 40
2.1581110346
100
AcDbArc
 50
279.5516862001
 51
350.4483137999
  0
ARC
  5
6F4
100
AcDbEntity
  8
DRAFT
100
AcDbCircle
 62
7
  6
CONTINUOUS
 10
36.9762978831
 20
161.4533610487
 40
2.1581110346
100
AcDbArc
 50
189.5516862001
 51
260.4483137999
  0
ARC
  5
6F5
100
AcDbEntity
  8
RACCORDO
100
AcDbCircle
 62
7
  6
CONTINUOUS
 10
18.7115555171
 20
154.7735941888
 40
1.5
100
AcDbArc
 50
91.0000000005
 51
160.2366756367
  0
CIRCLE
  5
6F6
100
AcDbEntity
  8
ASSI
100
AcDbCircle
 62
7
  6
CONTINUOUS
 10
36.9762978831
 20
161.4533610487
 40
1.4
  0
CIRCLE
  5
6F7
100
AcDbEntity
  8
SMUSSO
100
AcDbCircle
 62
7
  6
CONTINUOUS
 10
36.9762978831
 20
161.4533610487
 40
1.3
  0
CIRCLE
  5
6F8
100
AcDbEntity
  8
SMUSSO
100
AcDbCircle
 62
7
  6
CONTINUOUS
 10
36.9762978831
 20
161.4533610487
 40
0.8
  0
ARC
  5
6F9
100
AcDbEntity
  8
IMPORT_IGES
100
AcDbCircle
 62
7
  6
CONTINUOUS
 10
57.37661103
 20
34.2797812131
 40
45.0
100
AcDbArc
 50
163.791885655
 51
170.7488035739
  0
ARC
  5
6FA
100
AcDbEntity
  8
RACCORDO
100
AcDbCircle
 62
7
  6
CONTINUOUS
 10
58.2767476713
 20
57.3785451027
 40
43.5504497884
100
AcDbArc
 50
180.0
 51
194.0171125183
  0
ARC
  5
6FB
100
AcDbEntity
  8
RACCORDO
100
AcDbCircle
 62
7
  6
CONTINUOUS
 10
94.0262978831
 20
56.6801654405
 40
1.1
100
AcDbArc
 50
271.0
 51
359.8648670373
  0
ARC
  5
6FC
100
AcDbEntity
  8
RACCORDO
100
AcDbCircle
 62
7
  6
CONTINUOUS
 10
95.6262978831
 20
80.4533610487
 40
0.5
100
AcDbArc
 50
0.0
 51
90.0
  0
ARC
  5
6FD
100
AcDbEntity
  8
RACCORDO
100
AcDbCircle
 62
7
  6
CONTINUOUS
 10
95.6262978831
 20
62.4533610487
 40
0.5
100
AcDbArc
 50
270.0
 51
360.0
  0
ARC
  5
6FE
100
AcDbEntity
  8
RACCORDO
100
AcDbCircle
 62
7
  6
CONTINUOUS
 10
95.6262978831
 20
81.9533610487
 40
0.5
100
AcDbArc
 50
0.0
 51
90.0
  0
ARC
  5
6FF
100
AcDbEntity
  8
DRAFT
100
AcDbCircle
 62
7
  6
CONTINUOUS
 10
86.1627631882
 20
188.6403364374
 40
61.3
100
AcDbArc
 50
206.4064544409
 51
208.9308707765
  0
ARC
  5
700
100
AcDbEntity
  8
DRAFT
100
AcDbCircle
 62
7
  6
CONTINUOUS
 10
86.1627631882
 20
188.6403364374
 40
61.1655960001
100
AcDbArc
 50
206.2706224241
 51
208.9308707765
  0
ARC
  5
701
100
AcDbEntity
  8
DRAFT
100
AcDbCircle
 62
7
  6
CONTINUOUS
 10
86.1627631882
 20
188.6403364374
 40
60.213457922
100
AcDbArc
 50
205.1937078579
 51
208.9308707765
  0
ARC
  5
702
100
AcDbEntity
  8
DRAFT
100
AcDbCircle
 62
7
  6
CONTINUOUS
 10
86.1627631882
 20
188.6403364374
 40
60.1
100
AcDbArc
 50
205.1857571123
 51
208.9308707765
  0
ARC
  5
703
100
AcDbEntity
  8
DRAFT
100
AcDbCircle
 62
7
  6
CONTINUOUS
 10
56.2701856075
 20
119.4749630745
 40
50.0
100
AcDbArc
 50
119.4629117104
 51
132.4983442738
  0
ARC
  5
704
100
AcDbEntity
  8
DRAFT
100
AcDbCircle
 62
7
  6
CONTINUOUS
 10
56.2701856075
 20
119.4749630745
 40
50.0
100
AcDbArc
 50
114.6842057728
 51
119.3325470498
  0
ARC
  5
705
100
AcDbEntity
  8
DRAFT
100
AcDbCircle
 62
7
  6
CONTINUOUS
 10
56.2701856075
 20
119.4749630745
 40
48.9344039999
100
AcDbArc
 50
120.6623208467
 51
131.0676863403
  0
ARC
  5
706
100
AcDbEntity
  8
DRAFT
100
AcDbCircle
 62
7
  6
CONTINUOUS
 10
56.2701856075
 20
119.4749630745
 40
48.8
100
AcDbArc
 50
120.8325245431
 51
130.8797077609
  0
ARC
  5
707
100
AcDbEntity
  8
0
100
AcDbCircle
 62
7
  6
CONTINUOUS
 10
58.2767476713
 20
140.5281769947
 40
43.6004497884
100
AcDbArc
 50
170.2254051293
 51
173.0154937806
  0
ARC
  5
708
100
AcDbEntity
  8
0
100
AcDbCircle
 62
7
  6
CONTINUOUS
 10
58.2767476713
 20
140.5281769947
 40
43.6004497884
100
AcDbArc
 50
166.9377403242
 51
170.1899492263
  0
ARC
  5
709
100
AcDbEntity
  8
RACCORDO
100
AcDbCircle
 62
7
  6
CONTINUOUS
 10
58.2767476713
 20
140.5281769947
 40
43.5504497884
100
AcDbArc
 50
167.7138530424
 51
180.0
  0
ARC
  5
70A
100
AcDbEntity
  8
RACCORDO
100
AcDbCircle
 62
7
  6
CONTINUOUS
 10
58.2767476713
 20
140.5281769947
 40
43.5504497884
100
AcDbArc
 50
162.1012431386
 51
166.2849984618
  0
ARC
  5
70B
100
AcDbEntity
  8
RACCORDO
100
AcDbCircle
 62
7
  6
CONTINUOUS
 10
94.0262978831
 20
155.2265566569
 40
1.1
100
AcDbArc
 50
0.1351329627
 51
89.0
  0
ARC
  5
70C
100
AcDbEntity
  8
RACCORDO
100
AcDbCircle
 62
7
  6
CONTINUOUS
 10
95.6262978831
 20
149.4533610487
 40
0.5
100
AcDbArc
 50
0.0
 51
90.0
  0
ARC
  5
70D
100
AcDbEntity
  8
RACCORDO
100
AcDbCircle
 62
7
  6
CONTINUOUS
 10
95.6262978831
 20
131.4533610487
 40
0.5
100
AcDbArc
 50
270.0
 51
360.0
  0
ARC
  5
70E
100
AcDbEntity
  8
RACCORDO
100
AcDbCircle
 62
7
  6
CONTINUOUS
 10
95.6262978831
 20
129.9533610487
 40
0.5
100
AcDbArc
 50
270.0
 51
360.0
  0
ELLIPSE
  5
70F
100
AcDbEntity
  8
RACCORDO
100
AcDbEllipse
 62
7
  6
CONTINUOUS
 10
220.7619318454
 20
62.212530424
 30
0.0
 11
0.0990910877
 21
1.0110410677
 31
0.0
 40
0.9843630294
 41
-1.5707963298
 42
-1.4715575217
  0
ELLIPSE
  5
710
100
AcDbEntity
  8
RACCORDO
100
AcDbEllipse
 62
7
  6
CONTINUOUS
 10
200.0770040952
 20
50.4734937897
 30
0.0
 11
0.0
 21
0.5
 31
0.0
 40
0.0349207695
 41
6.309365246
 42
7.485978448
  0
ELLIPSE
  5
711
100
AcDbEntity
  8
RACCORDO
100
AcDbEllipse
 62
7
  6
CONTINUOUS
 10
160.4471642518
 20
50.4734937897
 30
0.0
 11
-0.0
 21
0.5
 31
0.0
 40
0.0349207695
 41
5.0803921647
 42
6.2570053684
  0
ELLIPSE
  5
712
100
AcDbEntity
  8
DRAFT
100
AcDbEllipse
 62
7
  6
CONTINUOUS
 10
159.0005948788
 20
107.6267519865
 30
0.0
 11
-0.0
 21
60.0
 31
0.0
 40
0.0174550649
 41
-0.3524111713
 42
-0.2916566274
  0
ELLIPSE
  5
713
100
AcDbEntity
  8
DRAFT
100
AcDbEllipse
 62
7
  6
CONTINUOUS
 10
201.5235734681
 20
107.6267519865
 30
0.0
 11
-0.0
 21
60.0
 31
0.0
 40
0.0174550649
 41
0.2916566274
 42
0.3524111713
  0
ELLIPSE
  5
714
100
AcDbEntity
  8
RACCORDO
100
AcDbEllipse
 62
7
  6
CONTINUOUS
 10
139.7622365015
 20
62.212530424
 30
0.0
 11
0.0990910877
 21
-1.0110410677
 31
0.0
 40
0.9843630294
 41
-1.6700351319
 42
-1.5707963238
  0
ELLIPSE
  5
715
100
AcDbEntity
  8
DRAFT
100
AcDbEllipse
 62
7
  6
CONTINUOUS
 10
180.2620841735
 20
40.3600640615
 30
0.0
 11
6.0
 21
-0.0
 31
0.0
 40
0.0174550649
 41
-2.8889123984
 42
-0.2526802551
  0
ELLIPSE
  5
716
100
AcDbEntity
  8
DRAFT
100
AcDbEllipse
 62
7
  6
CONTINUOUS
 10
159.282663628
 20
161.4533610487
 30
0.0
 11
0.0
 21
3.8
 31
0.0
 40
0.0174550649
 41
5.9915286798
 42
7.4174578181
  0
ELLIPSE
  5
717
100
AcDbEntity
  8
DRAFT
100
AcDbEllipse
 62
7
  6
CONTINUOUS
 10
201.2415047189
 20
161.4533610487
 30
0.0
 11
0.0
 21
3.8
 31
0.0
 40
0.0174550649
 41
-1.134272511
 42
0.2916566274
  0
ELLIPSE
  5
718
100
AcDbEntity
  8
RACCORDO
100
AcDbEllipse
 62
7
  6
CONTINUOUS
 10
198.0005629717
 20
50.8531896525
 30
0.0
 11
0.4004064727
 21
-0.3002514734
 31
0.0
 40
0.9990487776
 41
2.214668949
 42
2.7688454577
  0
ELLIPSE
  5
719
100
AcDbEntity
  8
RACCORDO
100
AcDbEllipse
 62
7
  6
CONTINUOUS
 10
162.5236053752
 20
50.8531896525
 30
0.0
 11
0.4004064727
 21
0.3002514734
 31
0.0
 40
0.9990487776
 41
0.3727471952
 42
0.9269237045
  0
ELLIPSE
  5
71A
100
AcDbEntity
  8
DRAFT
100
AcDbEllipse
 62
7
  6
CONTINUOUS
 10
188.2620841735
 20
35.8518671313
 30
0.0
 11
-0.0
 21
22.5624876403
 31
0.0
 40
0.979895321
 41
5.3127648532
 42
5.3179856249
  0
ELLIPSE
  5
71B
100
AcDbEntity
  8
DRAFT
100
AcDbEllipse
 62
7
  6
CONTINUOUS
 10
188.2620841735
 20
44.2744808431
 30
0.0
 11
-0.0
 21
19.6535235901
 31
0.0
 40
0.979895321
 41
4.8008659685
 42
4.8058229878
  0
ELLIPSE
  5
71C
100
AcDbEntity
  8
DRAFT
100
AcDbEllipse
 62
7
  6
CONTINUOUS
 10
172.2620841735
 20
44.2744808431
 30
0.0
 11
-0.0
 21
19.6535235901
 31
0.0
 40
0.979895321
 41
7.7605476266
 42
7.7655046458
  0
ELLIPSE
  5
71D
100
AcDbEntity
  8
DRAFT
100
AcDbEllipse
 62
7
  6
CONTINUOUS
 10
172.2620841735
 20
35.8518671313
 30
0.0
 11
-0.0
 21
22.5624876403
 31
0.0
 40
0.979895321
 41
7.2483849894
 42
7.2536057611
  0
ENDSEC
  0
SECTION
  2
OBJECTS
  0
DICTIONARY
  5
C
100
AcDbDictionary
280
0
281
1
  3
ACAD_GROUP
350
D
  3
ACAD_MLINESTYLE
350
17
  3
ACAD_LAYOUT
350
1A
  3
ACAD_PLOTSETTINGS
350
19
  3
ACAD_PLOTSTYLENAME
350
E
  0
DICTIONARY
  5
D
102
{ACAD_REACTORS
330
C
102
}
100
AcDbDictionary
280
0
281
1
  0
ACDBDICTIONARYWDFLT
  5
E
102
{ACAD_REACTORS
330
C
102
}
100
AcDbDictionary
281
1
  3
Normal
350
F
100
AcDbDictionaryWithDefault
340
F
  0
DICTIONARY
  5
17
102
{ACAD_REACTORS
330
C
102
}
100
AcDbDictionary
280
0
281
1
  3
Standard
350
18
  0
DICTIONARY
  5
19
102
{ACAD_REACTORS
330
C
102
}
100
AcDbDictionary
281
1
  0
DICTIONARY
  5
1A
102
{ACAD_REACTORS
330
C
102
}
100
AcDbDictionary
281
1
  3
Model
350
71E
  3
Layout1
350
71F
  0
ACDBPLACEHOLDER
  5
F
102
{ACAD_REACTORS
330
E
102
}
  0
MLINESTYLE
  5
18
102
{ACAD_REACTORS
330
17
102
}
100
AcDbMlineStyle
  2
STANDARD
 70
0
  3

 62
256
 51
90.0
 52
90.0
 71
2
 49
0.5
 62
256
  6
BYLAYER
 49
-0.5
 62
256
  6
BYLAYER
  0
LAYOUT
  5
71E
102
{ACAD_REACTORS
330
1A
102
}
100
AcDbPlotSettings
  1

  2
none_device
  4
ISO_A4_(297.00_x_210.00_MM)
  6

 40
0.0
 41
0.0
 42
0.0
 43
0.0
 44
297.0
 45
210.0
 46
0.0
 47
0.0
 48
0.0
 49
0.0
140
0.0
141
0.0
142
1.0
143
1.0
 70
1024
 72
1
 73
0
 74
0
  7

 75
0
147
1.0
148
0.0
149
0.0
100
AcDbLayout
  1
Model
 70
0
 71
0
 10
0.0
 20
0.0
 11
297.0
 21
210.0
 12
0.0
 22
0.0
 32
0.0
 14
0.0
 24
0.0
 34
0.0
 15
0.0
 25
0.0
 35
0.0
146
0.0
 13
0.0
 23
0.0
 33
0.0
 16
1.0
 26
0.0
 36
0.0
 17
0.0
 27
1.0
 37
0.0
 76
0
330
21C
345
0
346
0
  0
LAYOUT
  5
71F
102
{ACAD_REACTORS
330
1A
102
}
100
AcDbPlotSettings
  1

  2
none_device
  4
ISO_A4_(297.00_x_210.00_MM)
  6

 40
0.0
 41
0.0
 42
0.0
 43
0.0
 44
297.0
 45
210.0
 46
0.0
 47
0.0
 48
0.0
 49
0.0
140
0.0
141
0.0
142
1.0
143
1.0
 70
0
 72
1
 73
0
 74
0
  7

 75
0
147
1.0
148
0.0
149
0.0
100
AcDbLayout
  1
Layout1
 70
0
 71
1
 10
0.0
 20
0.0
 11
297.0
 21
210.0
 12
0.0
 22
0.0
 32
0.0
 14
0.0
 24
0.0
 34
0.0
 15
0.0
 25
0.0
 35
0.0
146
0.0
 13
0.0
 23
0.0
 33
0.0
 16
1.0
 26
0.0
 36
0.0
 17
0.0
 27
1.0
 37
0.0
 76
0
330
21D
345
0
346
0
  0
ENDSEC
  0
EOF
