  0
SECTION
  2
HEADER
  9
$ACADVER
  1
AC1024
  9
$DWGCODEPAGE
  3
ANSI_1252
  9
$EXTMAX
 10
297.0
 20
210.0
 30
0.0
  9
$EXTMIN
 10
0.0
 20
0.0
 30
0.0
  9
$LIMMIN
 10
0.0
 20
0.0
  9
$LIMMAX
 10
297.0
 20
210.0
  9
$VIEWCTR
 10
148.5
 20
105.0
  9
$VIEWSIZE
 40
210.0
  9
$CLAYER
  8
0
  9
$LTSCALE
 40
16.335
  9
$CELTYPE
  6
BYLAYER
  9
$DIMSCALE
 40
1.0
  9
$DIMASZ
 40
3.0
  9
$DIMEXO
 40
0.5
  9
$DIMDLI
 40
11.286
  9
$DIMEXE
 40
1.5
  9
$DIMCEN
 40
2.673
  9
$DIMLFAC
 40
1.0
  9
$DIMBLK
  1
_FILLED
  9
$DIMALT
 70
0
  9
$DIMALTF
 40
0.0393700787
  9
$DIMTXT
 40
3.0
  9
$DIMTOL
 70
1
  9
$DIMLIM
 70
0
  9
$DIMTFAC
 40
1.0
  9
$DIMTP
 40
0.01
  9
$DIMTM
 40
0.01
  9
$DIMGAP
 40
0.625
  9
$DIMDSEP
 70
44
  9
$AUNITS
 70
0
  9
$PDMODE
 70
3
  9
$PDSIZE
 40
3.0
  9
$HANDSEED
  5
774
  9
$TILEMODE
 70
1
  9
$MEASUREMENT
 70
1
  9
$INSUNITS
 70
4
  0
ENDSEC
  0
SECTION
  2
CLASSES
  0
CLASS
  1
ACDBDICTIONARYWDFLT
  2
AcDbDictionaryWithDefault
  3
AutoCAD 2000
 90
0
 91
1
280
0
281
0
  0
CLASS
  1
ACDBPLACEHOLDER
  2
AcDbPlaceHolder
  3
AutoCAD 2000
 90
0
 91
1
280
0
281
0
  0
CLASS
  1
LAYOUT
  2
AcDbLayout
  3
AutoCAD 2000
 90
0
 91
0
280
0
281
0
  0
ENDSEC
  0
SECTION
  2
TABLES
  0
TABLE
  2
VPORT
  5
8
100
AcDbSymbolTable
 70
2
  0
VPORT
  5
1F4
100
AcDbSymbolTableRecord
100
AcDbViewportTableRecord
  2
*ACTIVE
 70
0
 10
0.0
 20
0.0
 11
1.0
 21
1.0
 12
148.5
 22
105.0
 13
0.0
 23
0.0
 14
1.0
 24
1.0
 15
0.0
 25
0.0
 16
0.0
 26
0.0
 36
1.0
 17
0.0
 27
0.0
 37
0.0
 40
210.0
 41
1.4142857143
 42
50.0
 43
0.0
 44
0.0
 50
0.0
 51
0.0
 71
0
 72
100
 73
1
 74
1
 75
0
 76
0
 77
0
 78
0
  0
ENDTAB
  0
TABLE
  2
LTYPE
  5
5
100
AcDbSymbolTable
 70
6
  0
LTYPE
  5
14
100
AcDbSymbolTableRecord
100
AcDbLinetypeTableRecord
  2
BYBLOCK
 70
0
  3

 72
65
 73
0
 40
0.0
  0
LTYPE
  5
15
100
AcDbSymbolTableRecord
100
AcDbLinetypeTableRecord
  2
BYLAYER
 70
0
  3

 72
65
 73
0
 40
0.0
  0
LTYPE
  5
16
100
AcDbSymbolTableRecord
100
AcDbLinetypeTableRecord
  2
CONTINUOUS
 70
64
  3
Solid line
 72
65
 73
0
 40
0.0
  0
LTYPE
  5
1F5
100
AcDbSymbolTableRecord
100
AcDbLinetypeTableRecord
  2
CENTER
 70
64
  3
____ _ ____ _ ____ _ ____ _ ____ _ ____ _ ____
 72
65
 73
4
 40
0.6
 49
0.375
 74
0
 49
-0.075
 74
0
 49
0.075
 74
0
 49
-0.075
 74
0
  0
LTYPE
  5
1F6
100
AcDbSymbolTableRecord
100
AcDbLinetypeTableRecord
  2
HIDDEN
 70
64
  3
- - - - - - - - - - - - - - - - - - - -
 72
65
 73
2
 40
0.2
 49
0.1
 74
0
 49
-0.1
 74
0
  0
LTYPE
  5
1F7
100
AcDbSymbolTableRecord
100
AcDbLinetypeTableRecord
  2
PHANTOM
 70
64
  3
_____ _ _ _____ _ _ _____ _ _ _____
 72
65
 73
6
 40
0.8
 49
0.45
 74
0
 49
-0.05
 74
0
 49
0.1
 74
0
 49
-0.05
 74
0
 49
0.1
 74
0
 49
-0.05
 74
0
  0
LTYPE
  5
1F8
100
AcDbSymbolTableRecord
100
AcDbLinetypeTableRecord
  2
DOT
 70
64
  3
. . . . . . . . . . . . . . . . . . . .
 72
65
 73
2
 40
0.2
 49
0.1
 74
0
 49
-0.1
 74
0
  0
LTYPE
  5
1F9
100
AcDbSymbolTableRecord
100
AcDbLinetypeTableRecord
  2
DASHED
 70
64
  3
- - - - - - - - - - - - - - - - - - - -
 72
65
 73
2
 40
0.2
 49
0.1
 74
0
 49
-0.1
 74
0
  0
ENDTAB
  0
TABLE
  2
LAYER
  5
2
100
AcDbSymbolTable
 70
36
  0
LAYER
  5
10
100
AcDbSymbolTableRecord
100
AcDbLayerTableRecord
  2
0
 70
0
 62
7
  6
CONTINUOUS
370
-3
390
F
  0
LAYER
  5
1FA
100
AcDbSymbolTableRecord
100
AcDbLayerTableRecord
  2
DEFAULT_1
 70
0
 62
7
  6
CENTER
370
-3
390
F
  0
LAYER
  5
1FB
100
AcDbSymbolTableRecord
100
AcDbLayerTableRecord
  2
DEFAULT_2
 70
0
 62
7
  6
HIDDEN
370
-3
390
F
  0
LAYER
  5
1FC
100
AcDbSymbolTableRecord
100
AcDbLayerTableRecord
  2
DEFAULT_3
 70
0
 62
7
  6
PHANTOM
370
-3
390
F
  0
LAYER
  5
1FD
100
AcDbSymbolTableRecord
100
AcDbLayerTableRecord
  2
ASSI
 70
0
 62
7
  6
CONTINUOUS
370
-3
390
F
  0
LAYER
  5
1FE
100
AcDbSymbolTableRecord
100
AcDbLayerTableRecord
  2
COORDINATE
 70
0
 62
7
  6
CONTINUOUS
370
-3
390
F
  0
LAYER
  5
1FF
100
AcDbSymbolTableRecord
100
AcDbLayerTableRecord
  2
COORD_ORIGINE
 70
0
 62
7
  6
CONTINUOUS
370
-3
390
F
  0
LAYER
  5
200
100
AcDbSymbolTableRecord
100
AcDbLayerTableRecord
  2
COSMETICHE
 70
0
 62
7
  6
CONTINUOUS
370
-3
390
F
  0
LAYER
  5
201
100
AcDbSymbolTableRecord
100
AcDbLayerTableRecord
  2
COSMETICI
 70
0
 62
7
  6
CONTINUOUS
370
-3
390
F
  0
LAYER
  5
202
100
AcDbSymbolTableRecord
100
AcDbLayerTableRecord
  2
CURVE
 70
0
 62
7
  6
CONTINUOUS
370
-3
390
F
  0
LAYER
  5
203
100
AcDbSymbolTableRecord
100
AcDbLayerTableRecord
  2
DRAFT
 70
0
 62
7
  6
CONTINUOUS
370
-3
390
F
  0
LAYER
  5
204
100
AcDbSymbolTableRecord
100
AcDbLayerTableRecord
  2
IMPORT
 70
0
 62
7
  6
CONTINUOUS
370
-3
390
F
  0
LAYER
  5
205
100
AcDbSymbolTableRecord
100
AcDbLayerTableRecord
  2
INCISIONI
 70
0
 62
7
  6
CONTINUOUS
370
-3
390
F
  0
LAYER
  5
206
100
AcDbSymbolTableRecord
100
AcDbLayerTableRecord
  2
INTF_1
 70
0
 62
7
  6
CONTINUOUS
370
-3
390
F
  0
LAYER
  5
207
100
AcDbSymbolTableRecord
100
AcDbLayerTableRecord
  2
INTF_11
 70
0
 62
7
  6
CONTINUOUS
370
-3
390
F
  0
LAYER
  5
208
100
AcDbSymbolTableRecord
100
AcDbLayerTableRecord
  2
INTF_13
 70
0
 62
7
  6
CONTINUOUS
370
-3
390
F
  0
LAYER
  5
209
100
AcDbSymbolTableRecord
100
AcDbLayerTableRecord
  2
INTF_2
 70
0
 62
7
  6
CONTINUOUS
370
-3
390
F
  0
LAYER
  5
20A
100
AcDbSymbolTableRecord
100
AcDbLayerTableRecord
  2
LAY0001
 70
0
 62
7
  6
CONTINUOUS
370
-3
390
F
  0
LAYER
  5
20B
100
AcDbSymbolTableRecord
100
AcDbLayerTableRecord
  2
NOTE
 70
0
 62
7
  6
CONTINUOUS
370
-3
390
F
  0
LAYER
  5
20C
100
AcDbSymbolTableRecord
100
AcDbLayerTableRecord
  2
PIANI
 70
0
 62
7
  6
CONTINUOUS
370
-3
390
F
  0
LAYER
  5
20D
100
AcDbSymbolTableRecord
100
AcDbLayerTableRecord
  2
PIANI_DI_RIFERIMENTO
 70
0
 62
7
  6
CONTINUOUS
370
-3
390
F
  0
LAYER
  5
20E
100
AcDbSymbolTableRecord
100
AcDbLayerTableRecord
  2
PIANI_ORIGINE
 70
0
 62
7
  6
CONTINUOUS
370
-3
390
F
  0
LAYER
  5
20F
100
AcDbSymbolTableRecord
100
AcDbLayerTableRecord
  2
PUNTI
 70
0
 62
7
  6
CONTINUOUS
370
-3
390
F
  0
LAYER
  5
210
100
AcDbSymbolTableRecord
100
AcDbLayerTableRecord
  2
RACCORDO
 70
0
 62
7
  6
CONTINUOUS
370
-3
390
F
  0
LAYER
  5
211
100
AcDbSymbolTableRecord
100
AcDbLayerTableRecord
  2
RGB__255__255__255__
 70
0
 62
7
  6
CONTINUOUS
370
-3
390
F
  0
LAYER
  5
212
100
AcDbSymbolTableRecord
100
AcDbLayerTableRecord
  2
RIFERIMENTI
 70
0
 62
7
  6
CONTINUOUS
370
-3
390
F
  0
LAYER
  5
213
100
AcDbSymbolTableRecord
100
AcDbLayerTableRecord
  2
SMUSSO
 70
0
 62
7
  6
CONTINUOUS
370
-3
390
F
  0
LAYER
  5
214
100
AcDbSymbolTableRecord
100
AcDbLayerTableRecord
  2
SNAPLINE
 70
0
 62
7
  6
CONTINUOUS
370
-3
390
F
  0
LAYER
  5
215
100
AcDbSymbolTableRecord
100
AcDbLayerTableRecord
  2
SUPERFICI
 70
0
 62
7
  6
CONTINUOUS
370
-3
390
F
  0
LAYER
  5
216
100
AcDbSymbolTableRecord
100
AcDbLayerTableRecord
  2
TRACCIABILITA
 70
0
 62
7
  6
CONTINUOUS
370
-3
390
F
  0
LAYER
  5
217
100
AcDbSymbolTableRecord
100
AcDbLayerTableRecord
  2
TRASH
 70
0
 62
7
  6
CONTINUOUS
370
-3
390
F
  0
LAYER
  5
218
100
AcDbSymbolTableRecord
100
AcDbLayerTableRecord
  2
XSEC_DATUMS
 70
0
 62
7
  6
CONTINUOUS
370
-3
390
F
  0
ENDTAB
  0
TABLE
  2
STYLE
  5
3
100
AcDbSymbolTable
 70
1
  0
STYLE
  5
11
100
AcDbSymbolTableRecord
100
AcDbTextStyleTableRecord
  2
STANDARD
 70
0
 40
0.0
 41
0.8
 50
0.0
 71
0
 42
0.2
  3
txt
  4

  0
STYLE
  5
219
100
AcDbSymbolTableRecord
100
AcDbTextStyleTableRecord
  2
TEXTSTYLE_1
 70
0
 40
0.0
 41
0.8
 50
0.0
 71
0
 42
0.2
  3
gdt
  4

  0
ENDTAB
  0
TABLE
  2
VIEW
  5
6
100
AcDbSymbolTable
 70
0
  0
ENDTAB
  0
TABLE
  2
UCS
  5
7
100
AcDbSymbolTable
 70
0
  0
ENDTAB
  0
TABLE
  2
APPID
  5
9
100
AcDbSymbolTable
 70
1
  0
APPID
  5
21A
100
AcDbSymbolTableRecord
100
AcDbRegAppTableRecord
  2
ACAD
 70
0
  0
ENDTAB
  0
TABLE
  2
BLOCK_RECORD
  5
1
100
AcDbSymbolTable
 70
0
  0
BLOCK_RECORD
  5
21B
100
AcDbSymbolTableRecord
100
AcDbBlockTableRecord
  2
*Model_Space
  0
BLOCK_RECORD
  5
21C
100
AcDbSymbolTableRecord
100
AcDbBlockTableRecord
  2
*Paper_Space
  0
BLOCK_RECORD
  5
21D
100
AcDbSymbolTableRecord
100
AcDbBlockTableRecord
  2
_FILLED
  0
BLOCK_RECORD
  5
21E
100
AcDbSymbolTableRecord
100
AcDbBlockTableRecord
  2
*D0
  0
BLOCK_RECORD
  5
21F
100
AcDbSymbolTableRecord
100
AcDbBlockTableRecord
  2
*D1
  0
BLOCK_RECORD
  5
220
100
AcDbSymbolTableRecord
100
AcDbBlockTableRecord
  2
*D2
  0
BLOCK_RECORD
  5
221
100
AcDbSymbolTableRecord
100
AcDbBlockTableRecord
  2
*D3
  0
ENDTAB
  0
TABLE
  2
DIMSTYLE
  5
A
100
AcDbSymbolTable
 70
1
100
AcDbDimStyleTable
 71
0
  0
DIMSTYLE
105
222
100
AcDbSymbolTableRecord
100
AcDbDimStyleTableRecord
  2
STANDARD
 70
0
  3

  4

 40
1.0
 41
3.0
 42
0.5
 43
0.38
 44
1.5
 45
0.0
 46
0.0
 47
0.01
 48
0.01
140
3.0
141
0.09
142
0.0
143
25.4
144
1.0
145
0.0
146
1.0
147
0.625
 71
1.0
 72
0.0
 73
0
 74
0
 75
0
 76
0
 77
1
 78
8
 79
2
170
0
171
1
172
0
173
0
174
0
175
0
176
0
177
0
178
0
270
2
179
2
271
2
272
2
273
2
274
2
275
0
280
0
281
0
282
0
283
1
284
8
285
0
286
0
287
3
288
0
340
11
278
44
341
21D
342
21D
343
21D
344
21D
  0
DIMSTYLE
105
223
100
AcDbSymbolTableRecord
100
AcDbDimStyleTableRecord
  2
DIMSTYLE_1
 70
0
  3

  4

 40
1.0
 41
3.0
 42
0.5
 43
0.38
 44
1.5
 45
0.0
 46
0.0
 47
0.0
 48
0.0
140
3.0
141
0.09
142
0.0
143
25.4
144
1.0
145
0.0
146
1.0
147
0.75
 71
0.0
 72
0.0
 73
0
 74
0
 75
0
 76
0
 77
1
 78
8
 79
2
170
0
171
1
172
0
173
0
174
0
175
0
176
0
177
0
178
0
270
2
179
2
271
2
272
2
273
2
274
2
275
0
280
0
281
0
282
0
283
1
284
8
285
0
286
0
287
3
288
0
340
11
278
44
341
21D
342
21D
343
21D
344
21D
  0
ENDTAB
  0
ENDSEC
  0
SECTION
  2
BLOCKS
  0
BLOCK
  5
20
100
AcDbEntity
  8
0
100
AcDbBlockBegin
  2
*Model_Space
 70
0
 10
0.0
 20
0.0
 30
0.0
  3
*Model_Space
  1

  0
ENDBLK
  5
21
100
AcDbEntity
  8
0
100
AcDbBlockEnd
  0
BLOCK
  5
1C
100
AcDbEntity
  8
0
100
AcDbBlockBegin
  2
*Paper_Space
 70
0
 10
0.0
 20
0.0
 30
0.0
  3
*Paper_Space
  1

  0
ENDBLK
  5
1D
100
AcDbEntity
  8
0
100
AcDbBlockEnd
  0
BLOCK
  5
224
100
AcDbEntity
  8
0
100
AcDbBlockBegin
  2
_FILLED
 70
64
 10
0.0
 20
0.0
  3
_FILLED
  1

  0
SOLID
  5
225
100
AcDbEntity
  8
0
  6
BYBLOCK
 62
0
100
AcDbTrace
 10
0.0
 20
0.0
 11
-1.0
 21
0.3166666667
 12
-1.0
 22
-0.3166666667
 13
-1.0
 23
-0.3166666667
  0
ENDBLK
  5
226
100
AcDbEntity
  8
0
  6
BYBLOCK
 62
0
100
AcDbBlockEnd
  0
BLOCK
  5
227
100
AcDbEntity
  8
0
100
AcDbBlockBegin
 62
7
  6
CONTINUOUS
  2
*D0
 70
65
 10
0.0
 20
0.0
  3
*D0
  1

  0
LINE
  5
228
100
AcDbEntity
  8
0
100
AcDbLine
 62
7
  6
CONTINUOUS
 10
106.6928759624
 20
99.3832270117
 11
106.6928759624
 21
128.4069679756
  0
LINE
  5
229
100
AcDbEntity
  8
0
100
AcDbLine
 62
7
  6
CONTINUOUS
 10
64.1928759624
 20
84.3973684211
 11
64.1928759624
 21
128.4069679756
  0
LINE
  5
22A
100
AcDbEntity
  8
0
100
AcDbLine
 62
7
  6
CONTINUOUS
 10
106.6928759624
 20
126.9069679756
 11
85.4428759624
 21
126.9069679756
  0
LINE
  5
22B
100
AcDbEntity
  8
0
100
AcDbLine
 62
7
  6
CONTINUOUS
 10
64.1928759624
 20
126.9069679756
 11
85.4428759624
 21
126.9069679756
  0
INSERT
  5
22C
100
AcDbEntity
  8
0
100
AcDbBlockReference
 62
7
  6
CONTINUOUS
  2
_FILLED
 10
106.6928759624
 20
126.9069679756
 41
3.0
 42
3.0
 43
3.0
  0
INSERT
  5
22D
100
AcDbEntity
  8
0
100
AcDbBlockReference
 62
7
  6
CONTINUOUS
  2
_FILLED
 10
64.1928759624
 20
126.9069679756
 41
3.0
 42
3.0
 43
3.0
 50
180.0
  0
ENDBLK
  5
22E
100
AcDbEntity
  8
0
  6
BYBLOCK
 62
0
100
AcDbBlockEnd
  0
BLOCK
  5
22F
100
AcDbEntity
  8
0
100
AcDbBlockBegin
 62
7
  6
CONTINUOUS
  2
*D1
 70
65
 10
0.0
 20
0.0
  3
*D1
  1

  0
LINE
  5
230
100
AcDbEntity
  8
0
100
AcDbLine
 62
7
  6
CONTINUOUS
 10
154.998572342
 20
107.8973684211
 11
164.2485723434
 21
107.8973684211
  0
LINE
  5
231
100
AcDbEntity
  8
0
100
AcDbLine
 62
7
  6
CONTINUOUS
 10
154.998572342
 20
59.8973684211
 11
164.2485723434
 21
59.8973684211
  0
LINE
  5
232
100
AcDbEntity
  8
0
100
AcDbLine
 62
7
  6
CONTINUOUS
 10
162.7485723434
 20
107.8973684211
 11
162.7485723434
 21
83.8973684211
  0
LINE
  5
233
100
AcDbEntity
  8
0
100
AcDbLine
 62
7
  6
CONTINUOUS
 10
162.7485723434
 20
59.8973684211
 11
162.7485723434
 21
83.8973684211
  0
INSERT
  5
234
100
AcDbEntity
  8
0
100
AcDbBlockReference
 62
7
  6
CONTINUOUS
  2
_FILLED
 10
162.7485723434
 20
107.8973684211
 41
3.0
 42
3.0
 43
3.0
 50
90.0
  0
INSERT
  5
235
100
AcDbEntity
  8
0
100
AcDbBlockReference
 62
7
  6
CONTINUOUS
  2
_FILLED
 10
162.7485723434
 20
59.8973684211
 41
3.0
 42
3.0
 43
3.0
 50
270.0
  0
ENDBLK
  5
236
100
AcDbEntity
  8
0
  6
BYBLOCK
 62
0
100
AcDbBlockEnd
  0
BLOCK
  5
237
100
AcDbEntity
  8
0
100
AcDbBlockBegin
 62
7
  6
CONTINUOUS
  2
*D2
 70
65
 10
0.0
 20
0.0
  3
*D2
  1

  0
LINE
  5
238
100
AcDbEntity
  8
0
100
AcDbLine
 62
7
  6
CONTINUOUS
 10
129.9485723434
 20
108.1473969777
 11
129.9485723434
 21
118.4069679756
  0
LINE
  5
239
100
AcDbEntity
  8
0
100
AcDbLine
 62
7
  6
CONTINUOUS
 10
154.7485723434
 20
108.1473969777
 11
154.7485723434
 21
118.4069679756
  0
LINE
  5
23A
100
AcDbEntity
  8
0
100
AcDbLine
 62
7
  6
CONTINUOUS
 10
129.9485723434
 20
116.9069679756
 11
142.3485723434
 21
116.9069679756
  0
LINE
  5
23B
100
AcDbEntity
  8
0
100
AcDbLine
 62
7
  6
CONTINUOUS
 10
154.7485723434
 20
116.9069679756
 11
142.3485723434
 21
116.9069679756
  0
INSERT
  5
23C
100
AcDbEntity
  8
0
100
AcDbBlockReference
 62
7
  6
CONTINUOUS
  2
_FILLED
 10
129.9485723434
 20
116.9069679756
 41
3.0
 42
3.0
 43
3.0
 50
180.0
  0
INSERT
  5
23D
100
AcDbEntity
  8
0
100
AcDbBlockReference
 62
7
  6
CONTINUOUS
  2
_FILLED
 10
154.7485723434
 20
116.9069679756
 41
3.0
 42
3.0
 43
3.0
  0
ENDBLK
  5
23E
100
AcDbEntity
  8
0
  6
BYBLOCK
 62
0
100
AcDbBlockEnd
  0
BLOCK
  5
23F
100
AcDbEntity
  8
0
100
AcDbBlockBegin
 62
7
  6
CONTINUOUS
  2
*D3
 70
65
 10
0.0
 20
0.0
  3
*D3
  1

  0
LINE
  5
240
100
AcDbEntity
  8
0
100
AcDbLine
 62
7
  6
CONTINUOUS
 10
106.6928759624
 20
99.3832270117
 11
106.6928759624
 21
118.4069679756
  0
LINE
  5
241
100
AcDbEntity
  8
0
100
AcDbLine
 62
7
  6
CONTINUOUS
 10
74.1928759624
 20
108.7069679756
 11
74.1928759624
 21
118.4069679756
  0
LINE
  5
242
100
AcDbEntity
  8
0
100
AcDbLine
 62
7
  6
CONTINUOUS
 10
106.6928759624
 20
116.9069679756
 11
90.4428759624
 21
116.9069679756
  0
LINE
  5
243
100
AcDbEntity
  8
0
100
AcDbLine
 62
7
  6
CONTINUOUS
 10
74.1928759624
 20
116.9069679756
 11
90.4428759624
 21
116.9069679756
  0
INSERT
  5
244
100
AcDbEntity
  8
0
100
AcDbBlockReference
 62
7
  6
CONTINUOUS
  2
_FILLED
 10
106.6928759624
 20
116.9069679756
 41
3.0
 42
3.0
 43
3.0
  0
INSERT
  5
245
100
AcDbEntity
  8
0
100
AcDbBlockReference
 62
7
  6
CONTINUOUS
  2
_FILLED
 10
74.1928759624
 20
116.9069679756
 41
3.0
 42
3.0
 43
3.0
 50
180.0
  0
ENDBLK
  5
246
100
AcDbEntity
  8
0
  6
BYBLOCK
 62
0
100
AcDbBlockEnd
  0
ENDSEC
  0
SECTION
  2
ENTITIES
  0
DIMENSION
  5
247
100
AcDbEntity
  8
0
100
AcDbDimension
 62
7
  6
CONTINUOUS
  2
*D0
 10
64.1928759624
 20
126.9069679756
 11
81.1571616766
 21
126.9069679756
 70
160
 71
2
 72
2
 41
0.9
 42
42.5
  3
DIMSTYLE_1
100
AcDbAlignedDimension
 13
106.6928759624
 23
98.8832270117
 14
64.1928759624
 24
83.8973684211
 50
180.0
100
AcDbRotatedDimension
  0
DIMENSION
  5
248
100
AcDbEntity
  8
0
100
AcDbDimension
 62
7
  6
CONTINUOUS
  2
*D1
 10
162.7485723434
 20
59.8973684211
 11
162.7485723434
 21
81.5402255639
 70
160
 71
2
 72
2
 41
0.9
 42
48.0
  3
DIMSTYLE_1
100
AcDbAlignedDimension
 13
154.498572342
 23
107.8973684211
 14
154.498572342
 24
59.8973684211
 50
270.0
100
AcDbRotatedDimension
  0
DIMENSION
  5
249
100
AcDbEntity
  8
0
100
AcDbDimension
 62
7
  6
CONTINUOUS
  2
*D2
 10
154.7485723434
 20
116.9069679756
 11
137.9557152006
 21
116.9069679756
 70
160
 71
2
 72
2
 41
0.9
 42
24.8
  3
DIMSTYLE_1
100
AcDbAlignedDimension
 13
129.9485723434
 23
107.6473969777
 14
154.7485723434
 24
107.6473969777
100
AcDbRotatedDimension
  0
DIMENSION
  5
24A
100
AcDbEntity
  8
0
100
AcDbDimension
 62
7
  6
CONTINUOUS
  2
*D3
 10
74.1928759624
 20
116.9069679756
 11
86.2643045338
 21
116.9069679756
 70
160
 71
2
 72
2
 41
0.9
 42
32.5
  3
DIMSTYLE_1
100
AcDbAlignedDimension
 13
106.6928759624
 23
98.8832270117
 14
74.1928759624
 24
108.2069679756
 50
180.0
100
AcDbRotatedDimension
  0
LWPOLYLINE
  5
24B
100
AcDbEntity
  8
0
100
AcDbPolyline
 62
7
  6
CONTINUOUS
 90
5
 70
0
 43
0.3500000006
 10
87.1214441528
 20
119.3712542725
 10
87.4785910034
 20
119.5855387573
 10
87.4785910034
 20
120.2283922119
 10
87.1214441528
 20
120.6569702454
 10
86.2643062134
 20
120.6569702454
  0
LINE
  5
24C
100
AcDbEntity
  8
0
100
AcDbLine
 62
7
  6
CONTINUOUS
 10
74.4928759624
 20
58.8877688665
 11
75.0070389463
 21
58.8877688665
  0
LINE
  5
24D
100
AcDbEntity
  8
0
100
AcDbLine
 62
7
  6
CONTINUOUS
 10
74.4928759624
 20
59.2877688665
 11
75.0070389463
 21
59.2877688665
  0
LINE
  5
24E
100
AcDbEntity
  8
0
100
AcDbLine
 62
250
  6
CONTINUOUS
 10
74.1928759624
 20
59.5877688665
 11
73.7928759624
 21
59.5877688665
  0
LINE
  5
24F
100
AcDbEntity
  8
RACCORDO
100
AcDbLine
 62
7
  6
CONTINUOUS
 10
83.7103283688
 20
60.0373135734
 11
75.6928759624
 21
59.8973684211
  0
LINE
  5
250
100
AcDbEntity
  8
RACCORDO
100
AcDbLine
 62
250
  6
CONTINUOUS
 10
83.7103283688
 20
60.2872754972
 11
75.6928759624
 21
60.1473303448
  0
LINE
  5
251
100
AcDbEntity
  8
0
100
AcDbLine
 62
7
  6
CONTINUOUS
 10
74.1928759624
 20
59.8877688665
 11
73.7928759624
 21
59.8877688665
  0
LINE
  5
252
100
AcDbEntity
  8
RACCORDO
100
AcDbLine
 62
7
  6
CONTINUOUS
 10
71.6928854744
 20
60.6473684211
 11
72.6928759624
 21
60.6473684211
  0
LINE
  5
253
100
AcDbEntity
  8
RACCORDO
100
AcDbLine
 62
250
  6
CONTINUOUS
 10
84.6928759624
 20
61.0371612685
 11
84.447239064
 21
61.0371612685
  0
LINE
  5
254
100
AcDbEntity
  8
RACCORDO
100
AcDbLine
 62
250
  6
CONTINUOUS
 10
68.4385128607
 20
61.7638816257
 11
68.1928759624
 21
61.7638816257
  0
LINE
  5
255
100
AcDbEntity
  8
RACCORDO
100
AcDbLine
 62
250
  6
CONTINUOUS
 10
73.6492650697
 20
60.1651741865
 11
72.6928759624
 21
60.1713768264
  0
LINE
  5
256
100
AcDbEntity
  8
RACCORDO
100
AcDbLine
 62
7
  6
CONTINUOUS
 10
75.6928759624
 20
59.8973684211
 11
72.9406944026
 21
59.9213863457
  0
LINE
  5
257
100
AcDbEntity
  8
RACCORDO
100
AcDbLine
 62
250
  6
CONTINUOUS
 10
75.6928759624
 20
60.1473398644
 11
73.6492650697
 21
60.1651741865
  0
LINE
  5
258
100
AcDbEntity
  8
RACCORDO
100
AcDbLine
 62
7
  6
CONTINUOUS
 10
73.0024714836
 20
61.4740811188
 11
68.4406943285
 21
61.5138911449
  0
LINE
  5
259
100
AcDbEntity
  8
RACCORDO
100
AcDbLine
 62
250
  6
CONTINUOUS
 10
68.4385128607
 20
61.7638816257
 11
73.6492650697
 21
61.71840808
  0
LWPOLYLINE
  5
25A
100
AcDbEntity
  8
RACCORDO
100
AcDbPolyline
 62
250
  6
CONTINUOUS
 90
19
 70
0
 10
64.8182030974
 20
67.1441353332
 10
64.8222870207
 20
67.0914852768
 10
64.8302015321
 20
67.0397562051
 10
64.8419466314
 20
66.9889481181
 10
64.8576116327
 20
66.9387713631
 10
64.8771072221
 20
66.8895155929
 10
64.9001654577
 20
66.8420497654
 10
64.9268802496
 20
66.7963793281
 10
64.9571576878
 20
66.7524988336
 10
64.9904481004
 20
66.7112608977
 10
65.0268200234
 20
66.6727363283
 10
65.0662049208
 20
66.6368543175
 10
65.1078475127
 20
66.6042550574
 10
65.1517738001
 20
66.5750221191
 10
65.1979577819
 20
66.5490719316
 10
65.2455661744
 20
66.5267939738
 10
65.2943212163
 20
66.5083180721
 10
65.3445006688
 20
66.4935144002
 10
65.3961045319
 20
66.482382958
  0
LWPOLYLINE
  5
25B
100
AcDbEntity
  8
ASSI
100
AcDbPolyline
 62
250
  6
CONTINUOUS
 90
19
 70
0
 10
64.8182030974
 20
67.1441353332
 10
64.8222870207
 20
67.0914852768
 10
64.8302015321
 20
67.0397562051
 10
64.8419466314
 20
66.9889481181
 10
64.8576116327
 20
66.9387713631
 10
64.8771072221
 20
66.8895155929
 10
64.9001654577
 20
66.8420497654
 10
64.9268802496
 20
66.7963793281
 10
64.9571576878
 20
66.7524988336
 10
64.9904481004
 20
66.7112608977
 10
65.0268200234
 20
66.6727363283
 10
65.0662049208
 20
66.6368543175
 10
65.1078475127
 20
66.6042550574
 10
65.1517738001
 20
66.5750221191
 10
65.1979577819
 20
66.5490719316
 10
65.2455661744
 20
66.5267939738
 10
65.2943212163
 20
66.5083180721
 10
65.3445006688
 20
66.4935144002
 10
65.3961045319
 20
66.482382958
  0
LWPOLYLINE
  5
25C
100
AcDbEntity
  8
RACCORDO
100
AcDbPolyline
 62
250
  6
CONTINUOUS
 90
10
 70
0
 10
64.8182030974
 20
100.650601509
 10
64.6876123518
 20
96.9285292707
 10
64.589669281
 20
93.2060234292
 10
64.5243738851
 20
89.4830839844
 10
64.4917261485
 20
85.7594222814
 10
64.4917260867
 20
82.0353269751
 10
64.5243737461
 20
78.3116640307
 10
64.5896691421
 20
74.588722103
 10
64.6876122591
 20
70.8662125372
 10
64.8182030974
 20
67.1441353332
  0
LWPOLYLINE
  5
25D
100
AcDbEntity
  8
ASSI
100
AcDbPolyline
 62
250
  6
CONTINUOUS
 90
10
 70
0
 10
64.8182030974
 20
100.650601509
 10
64.6876123518
 20
96.9285292707
 10
64.589669281
 20
93.2060234292
 10
64.5243738851
 20
89.4830839844
 10
64.4917261485
 20
85.7594222814
 10
64.4917260867
 20
82.0353269751
 10
64.5243737461
 20
78.3116640307
 10
64.5896691421
 20
74.588722103
 10
64.6876122591
 20
70.8662125372
 10
64.8182030974
 20
67.1441353332
  0
LWPOLYLINE
  5
25E
100
AcDbEntity
  8
RACCORDO
100
AcDbPolyline
 62
250
  6
CONTINUOUS
 90
10
 70
0
 10
73.6514465375
 20
107.8795531364
 10
73.6511965798
 20
107.8791280605
 10
73.6509548483
 20
107.8778586979
 10
73.6507221607
 20
107.8757493431
 10
73.6504993043
 20
107.8728071318
 10
73.6502870328
 20
107.8690420179
 10
73.6500860646
 20
107.8644667386
 10
73.6498970794
 20
107.8590967724
 10
73.6497207165
 20
107.8529502859
 10
73.6494081999
 20
107.8384134838
  0
LWPOLYLINE
  5
25F
100
AcDbEntity
  8
RACCORDO
100
AcDbPolyline
 62
7
  6
CONTINUOUS
 90
22
 70
0
 10
73.0024714836
 20
61.4740811188
 10
73.0237078389
 20
61.4748108622
 10
73.0453369494
 20
61.4766060067
 10
73.0673282725
 20
61.4794665524
 10
73.089650934
 20
61.4834883053
 10
73.1122761469
 20
61.4885754593
 10
73.1351774075
 20
61.4944405963
 10
73.1583189758
 20
61.5010547489
 10
73.181680278
 20
61.5084468845
 10
73.2052598138
 20
61.5164164875
 10
73.2290317523
 20
61.5249462658
 10
73.2529716234
 20
61.5340535114
 10
73.2770830634
 20
61.543589585
 10
73.3013440828
 20
61.5535439593
 10
73.3257313849
 20
61.5639271617
 10
73.3502491838
 20
61.5746221345
 10
73.3748782104
 20
61.5856225547
 10
73.3995963883
 20
61.5969347453
 10
73.4244055706
 20
61.6084606172
 10
73.4492887366
 20
61.6201967336
 10
73.4742245151
 20
61.6321465314
 10
73.5242272459
 20
61.6564218646
  0
LINE
  5
260
100
AcDbEntity
  8
INCISIONI
100
AcDbLine
 62
250
  6
CONTINUOUS
 10
79.2931653416
 20
63.5053684482
 11
81.1928759624
 21
63.5053684482
  0
LINE
  5
261
100
AcDbEntity
  8
RACCORDO
100
AcDbLine
 62
7
  6
CONTINUOUS
 10
65.3492458006
 20
66.1869406321
 11
68.6928759624
 21
65.5973684211
  0
LINE
  5
262
100
AcDbEntity
  8
ASSI
100
AcDbLine
 62
7
  6
CONTINUOUS
 10
65.3492458006
 20
66.1869406321
 11
68.6928759624
 21
65.5973684211
  0
LINE
  5
263
100
AcDbEntity
  8
RACCORDO
100
AcDbLine
 62
250
  6
CONTINUOUS
 10
65.3961045319
 20
66.482382958
 11
68.6928759624
 21
65.9010732056
  0
LINE
  5
264
100
AcDbEntity
  8
ASSI
100
AcDbLine
 62
250
  6
CONTINUOUS
 10
65.3961045319
 20
66.482382958
 11
68.6928759624
 21
65.9010732056
  0
LWPOLYLINE
  5
265
100
AcDbEntity
  8
0
100
AcDbPolyline
 62
7
  6
CONTINUOUS
 90
24
 70
0
 10
72.4582615559
 20
67.470562898
 10
72.4611586059
 20
67.4684598511
 10
72.4641367716
 20
67.4660386217
 10
72.4624513116
 20
67.4677838285
 10
72.4574937066
 20
67.4735827555
 10
72.4497364664
 20
67.4838910681
 10
72.4394197284
 20
67.4993108999
 10
72.4272914912
 20
67.5194786315
 10
72.4135896576
 20
67.5445688921
 10
72.3984622838
 20
67.5748347334
 10
72.3823289263
 20
67.6098561887
 10
72.3653149345
 20
67.649670981
 10
72.3474782439
 20
67.6944277218
 10
72.3290313331
 20
67.7438230337
 10
72.3100375017
 20
67.7978567971
 10
72.2905204083
 20
67.8566144922
 10
72.2705823827
 20
67.91991144
 10
72.250255027
 20
67.9877373161
 10
72.2295506119
 20
68.0601281341
 10
72.2085188221
 20
68.1369682299
 10
72.1871744659
 20
68.2182410328
 10
72.1655263845
 20
68.3039385457
 10
72.143603739
 20
68.3939550512
 10
72.1385819335
 20
68.4152959734
  0
LWPOLYLINE
  5
266
100
AcDbEntity
  8
RACCORDO
100
AcDbPolyline
 62
250
  6
CONTINUOUS
 90
9
 70
0
 10
73.6514465375
 20
59.9151837057
 10
73.65119658
 20
59.9156087811
 10
73.6509548485
 20
59.916878142
 10
73.650722161
 20
59.9189874943
 10
73.6504993046
 20
59.9219297023
 10
73.6502870332
 20
59.9256948126
 10
73.650086065
 20
59.9302700878
 10
73.6498970797
 20
59.9356400497
 10
73.6497207169
 20
59.9417865319
  0
LINE
  5
267
100
AcDbEntity
  8
RACCORDO
100
AcDbLine
 62
7
  6
CONTINUOUS
 10
103.2016021656
 20
65.127535023
 11
84.6928759624
 21
64.8044640054
  0
LINE
  5
268
100
AcDbEntity
  8
RACCORDO
100
AcDbLine
 62
250
  6
CONTINUOUS
 10
103.2016021656
 20
65.6274588706
 11
84.447239064
 21
65.300100245
  0
LINE
  5
269
100
AcDbEntity
  8
RACCORDO
100
AcDbLine
 62
7
  6
CONTINUOUS
 10
68.1928759624
 20
65.0973684211
 11
74.1928759624
 21
65.0973684211
  0
LINE
  5
26A
100
AcDbEntity
  8
RACCORDO
100
AcDbLine
 62
7
  6
CONTINUOUS
 10
68.6928759624
 20
65.2973684211
 11
70.6928759624
 21
65.2973684211
  0
LINE
  5
26B
100
AcDbEntity
  8
ASSI
100
AcDbLine
 62
7
  6
CONTINUOUS
 10
68.6928759624
 20
65.2973684211
 11
70.6928759624
 21
65.2973684211
  0
LINE
  5
26C
100
AcDbEntity
  8
RACCORDO
100
AcDbLine
 62
250
  6
CONTINUOUS
 10
68.6928759624
 20
65.5973684211
 11
70.6928759624
 21
65.5973684211
  0
LINE
  5
26D
100
AcDbEntity
  8
ASSI
100
AcDbLine
 62
250
  6
CONTINUOUS
 10
68.6928759624
 20
65.5973684211
 11
70.6928759624
 21
65.5973684211
  0
LINE
  5
26E
100
AcDbEntity
  8
RACCORDO
100
AcDbLine
 62
250
  6
CONTINUOUS
 10
103.6928759624
 20
65.6274588706
 11
103.2016021656
 21
65.6274588706
  0
LINE
  5
26F
100
AcDbEntity
  8
ASSI
100
AcDbLine
 62
7
  6
CONTINUOUS
 10
70.6928759624
 20
66.1973684211
 11
71.5857691812
 21
66.1973684211
  0
LWPOLYLINE
  5
270
100
AcDbEntity
  8
RACCORDO
100
AcDbPolyline
 62
250
  6
CONTINUOUS
 90
10
 70
0
 10
68.4389522842
 20
61.5411233376
 10
68.4391093344
 20
61.5354901742
 10
68.4392767045
 20
61.5304832047
 10
68.4394539403
 20
61.5261159773
 10
68.439640598
 20
61.522399719
 10
68.4398361278
 20
61.5193456531
 10
68.4400398627
 20
61.5169634442
 10
68.4402511843
 20
61.515258633
 10
68.4404695427
 20
61.5142340294
 10
68.4406943285
 20
61.5138911449
  0
LINE
  5
271
100
AcDbEntity
  8
RACCORDO
100
AcDbLine
 62
250
  6
CONTINUOUS
 10
68.4386708344
 20
61.5542053124
 11
68.4389522842
 21
61.5411233376
  0
LINE
  5
272
100
AcDbEntity
  8
RACCORDO
100
AcDbLine
 62
250
  6
CONTINUOUS
 10
68.4384354657
 20
61.569585098
 11
68.4386708344
 21
61.5542053124
  0
LINE
  5
273
100
AcDbEntity
  8
RACCORDO
100
AcDbLine
 62
250
  6
CONTINUOUS
 10
68.4381743148
 20
61.5965878688
 11
68.4384354657
 21
61.569585098
  0
LINE
  5
274
100
AcDbEntity
  8
RACCORDO
100
AcDbLine
 62
250
  6
CONTINUOUS
 10
68.4385128607
 20
106.0308552164
 11
68.4381547229
 21
106.0828377489
  0
LINE
  5
275
100
AcDbEntity
  8
RACCORDO
100
AcDbLine
 62
250
  6
CONTINUOUS
 10
68.4380069408
 20
61.6388716288
 11
68.4381743148
 21
61.5965878688
  0
LINE
  5
276
100
AcDbEntity
  8
RACCORDO
100
AcDbLine
 62
250
  6
CONTINUOUS
 10
68.4381547229
 20
106.0828377489
 11
68.4380029786
 21
106.1325479969
  0
LINE
  5
277
100
AcDbEntity
  8
RACCORDO
100
AcDbLine
 62
7
  6
CONTINUOUS
 10
68.1928759624
 20
106.0308552164
 11
68.1928759624
 21
102.6973684211
  0
LINE
  5
278
100
AcDbEntity
  8
RACCORDO
100
AcDbLine
 62
7
  6
CONTINUOUS
 10
68.1928759624
 20
65.0973684211
 11
68.1928759624
 21
61.7638816257
  0
LINE
  5
279
100
AcDbEntity
  8
RACCORDO
100
AcDbLine
 62
250
  6
CONTINUOUS
 10
68.4385128607
 20
106.0308552164
 11
68.4385128607
 21
102.6973684211
  0
LINE
  5
27A
100
AcDbEntity
  8
RACCORDO
100
AcDbLine
 62
250
  6
CONTINUOUS
 10
68.4385128607
 20
65.0973684211
 11
68.4385128607
 21
61.7638816257
  0
LINE
  5
27B
100
AcDbEntity
  8
RACCORDO
100
AcDbLine
 62
7
  6
CONTINUOUS
 10
68.6928759624
 20
65.2973684211
 11
68.6928759624
 21
65.9010732056
  0
LINE
  5
27C
100
AcDbEntity
  8
ASSI
100
AcDbLine
 62
7
  6
CONTINUOUS
 10
68.6928759624
 20
65.2973684211
 11
68.6928759624
 21
65.9010732056
  0
LINE
  5
27D
100
AcDbEntity
  8
RACCORDO
100
AcDbLine
 62
7
  6
CONTINUOUS
 10
68.6928759624
 20
101.8936636365
 11
68.6928759624
 21
102.4973684211
  0
LINE
  5
27E
100
AcDbEntity
  8
ASSI
100
AcDbLine
 62
7
  6
CONTINUOUS
 10
68.6928759624
 20
101.8936636365
 11
68.6928759624
 21
102.4973684211
  0
LINE
  5
27F
100
AcDbEntity
  8
RACCORDO
100
AcDbLine
 62
250
  6
CONTINUOUS
 10
68.4380029786
 20
106.1325479969
 11
68.4380642624
 21
106.1778123668
  0
LINE
  5
280
100
AcDbEntity
  8
RACCORDO
100
AcDbLine
 62
250
  6
CONTINUOUS
 10
68.4380970202
 20
61.6991711291
 11
68.4380069408
 21
61.6388716288
  0
LINE
  5
281
100
AcDbEntity
  8
RACCORDO
100
AcDbLine
 62
250
  6
CONTINUOUS
 10
68.4380642624
 20
106.1778123668
 11
68.4382487598
 21
106.2076428764
  0
LINE
  5
282
100
AcDbEntity
  8
RACCORDO
100
AcDbLine
 62
250
  6
CONTINUOUS
 10
68.4385128607
 20
61.7638816257
 11
68.4380970202
 21
61.6991711291
  0
LINE
  5
283
100
AcDbEntity
  8
RACCORDO
100
AcDbLine
 62
250
  6
CONTINUOUS
 10
68.4382487598
 20
106.2076428764
 11
68.4385472154
 21
106.2331188319
  0
LWPOLYLINE
  5
284
100
AcDbEntity
  8
RACCORDO
100
AcDbPolyline
 62
250
  6
CONTINUOUS
 90
12
 70
0
 10
68.4385472154
 20
106.2331188319
 10
68.4388059824
 20
106.2473694004
 10
68.4389522842
 20
106.2536135045
 10
68.4391093344
 20
106.2592466679
 10
68.4392767045
 20
106.2642536374
 10
68.4394539403
 20
106.2686208648
 10
68.439640598
 20
106.2723371231
 10
68.4398361278
 20
106.275391189
 10
68.4400398627
 20
106.2777733979
 10
68.4402511843
 20
106.2794782091
 10
68.4404695427
 20
106.2805028127
 10
68.4406943285
 20
106.2808456972
  0
LWPOLYLINE
  5
285
100
AcDbEntity
  8
RACCORDO
100
AcDbPolyline
 62
250
  6
CONTINUOUS
 90
7
 70
0
 10
65.3608629885
 20
66.2737895268
 10
65.3568848141
 20
66.2483100464
 10
65.3536643566
 20
66.2268202011
 10
65.3512565062
 20
66.2096862728
 10
65.3497023033
 20
66.1972002993
 10
65.3490282384
 20
66.1895750967
 10
65.3492458006
 20
66.1869406321
  0
LWPOLYLINE
  5
286
100
AcDbEntity
  8
ASSI
100
AcDbPolyline
 62
250
  6
CONTINUOUS
 90
7
 70
0
 10
65.3608629885
 20
66.2737895268
 10
65.3568848141
 20
66.2483100464
 10
65.3536643566
 20
66.2268202011
 10
65.3512565062
 20
66.2096862728
 10
65.3497023033
 20
66.1972002993
 10
65.3490282384
 20
66.1895750967
 10
65.3492458006
 20
66.1869406321
  0
LINE
  5
287
100
AcDbEntity
  8
RACCORDO
100
AcDbLine
 62
250
  6
CONTINUOUS
 10
65.3708095065
 20
66.3349196628
 11
65.3608629885
 21
66.2737895268
  0
LINE
  5
288
100
AcDbEntity
  8
ASSI
100
AcDbLine
 62
250
  6
CONTINUOUS
 10
65.3708095065
 20
66.3349196628
 11
65.3608629885
 21
66.2737895268
  0
LINE
  5
289
100
AcDbEntity
  8
RACCORDO
100
AcDbLine
 62
250
  6
CONTINUOUS
 10
65.3828286698
 20
66.4060606593
 11
65.3708095065
 21
66.3349196628
  0
LINE
  5
28A
100
AcDbEntity
  8
ASSI
100
AcDbLine
 62
250
  6
CONTINUOUS
 10
65.3828286698
 20
66.4060606593
 11
65.3708095065
 21
66.3349196628
  0
LINE
  5
28B
100
AcDbEntity
  8
RACCORDO
100
AcDbLine
 62
250
  6
CONTINUOUS
 10
65.3961045319
 20
66.482382958
 11
65.3828286698
 21
66.4060606593
  0
LINE
  5
28C
100
AcDbEntity
  8
ASSI
100
AcDbLine
 62
250
  6
CONTINUOUS
 10
65.3961045319
 20
66.482382958
 11
65.3828286698
 21
66.4060606593
  0
LINE
  5
28D
100
AcDbEntity
  8
0
100
AcDbLine
 62
250
  6
CONTINUOUS
 10
75.0997440446
 20
108.4922849305
 11
75.2233508424
 21
108.872707537
  0
LINE
  5
28E
100
AcDbEntity
  8
RACCORDO
100
AcDbLine
 62
250
  6
CONTINUOUS
 10
64.5261966809
 20
67.132427513
 11
64.5236899647
 21
67.1323018687
  0
LINE
  5
28F
100
AcDbEntity
  8
ASSI
100
AcDbLine
 62
250
  6
CONTINUOUS
 10
64.5261966809
 20
67.132427513
 11
64.5236899647
 21
67.1323018687
  0
LINE
  5
290
100
AcDbEntity
  8
RACCORDO
100
AcDbLine
 62
250
  6
CONTINUOUS
 10
64.7051088398
 20
67.139653845
 11
64.5261966809
 21
67.132427513
  0
LINE
  5
291
100
AcDbEntity
  8
ASSI
100
AcDbLine
 62
250
  6
CONTINUOUS
 10
64.7051088398
 20
67.139653845
 11
64.5261966809
 21
67.132427513
  0
LINE
  5
292
100
AcDbEntity
  8
RACCORDO
100
AcDbLine
 62
250
  6
CONTINUOUS
 10
64.8182030974
 20
67.1441353332
 11
64.7051088398
 21
67.139653845
  0
LINE
  5
293
100
AcDbEntity
  8
ASSI
100
AcDbLine
 62
250
  6
CONTINUOUS
 10
64.8182030974
 20
67.1441353332
 11
64.7051088398
 21
67.139653845
  0
LWPOLYLINE
  5
294
100
AcDbEntity
  8
0
100
AcDbPolyline
 62
7
  6
CONTINUOUS
 90
29
 70
0
 10
72.36613379
 20
66.8973705396
 10
72.3826536375
 20
66.897696919
 10
72.4313293397
 20
66.9027299309
 10
72.4795945832
 20
66.9137508402
 10
72.5278299709
 20
66.9310067878
 10
72.5746935085
 20
66.9542401955
 10
72.6176045699
 20
66.9817839837
 10
72.6559925881
 20
67.0122357519
 10
72.6911349385
 20
67.0456374584
 10
72.7237423601
 20
67.0819587312
 10
72.754175333
 20
67.1209354699
 10
72.782813133
 20
67.1624621411
 10
72.8101992612
 20
67.2068789436
 10
72.8365313807
 20
67.2541687477
 10
72.8620249035
 20
67.304420091
 10
72.8870542636
 20
67.3581716219
 10
72.9117483933
 20
67.4155878198
 10
72.9361784005
 20
67.4767368316
 10
72.9605198326
 20
67.5419952173
 10
72.9848422797
 20
67.6115251986
 10
73.0091727956
 20
67.6853821766
 10
73.0335684859
 20
67.7637192772
 10
73.0580646935
 20
67.8466352756
 10
73.0826754335
 20
67.9341582788
 10
73.1073999261
 20
68.0262532216
 10
73.1322430917
 20
68.12289168
 10
73.1572267876
 20
68.2241036763
 10
73.1823626077
 20
68.3298746722
 10
73.1998301623
 20
68.4060346005
  0
LWPOLYLINE
  5
295
100
AcDbEntity
  8
0
100
AcDbPolyline
 62
7
  6
CONTINUOUS
 90
39
 70
0
 10
73.7428701808
 20
66.8973684284
 10
73.7483555021
 20
66.8974208019
 10
73.7773667811
 20
66.8994268992
 10
73.8052853589
 20
66.9040928604
 10
73.8318905829
 20
66.9110900678
 10
73.8570430716
 20
66.9201219078
 10
73.8806773342
 20
66.9309413332
 10
73.9027446996
 20
66.9433377305
 10
73.9231173327
 20
66.9570635718
 10
73.9416678719
 20
66.971840929
 10
73.958460562
 20
66.98752924
 10
73.9734574502
 20
67.0038746349
 10
73.9865266705
 20
67.0203547718
 10
73.9978399466
 20
67.0367395584
 10
74.007565221
 20
67.0528384362
 10
74.0156969131
 20
67.0681542147
 10
74.0223699585
 20
67.082369724
 10
74.0278794574
 20
67.0955636683
 10
74.0324703879
 20
67.1078579266
 10
74.0362568709
 20
67.11913104
 10
74.0393948792
 20
67.1294437358
 10
74.0421053029
 20
67.1392169155
 10
74.04445926
 20
67.1484835474
 10
74.0465027065
 20
67.1572147288
 10
74.0483503894
 20
67.165739204
 10
74.0500344722
 20
67.1740942931
 10
74.0515709352
 20
67.1822549209
 10
74.0530182114
 20
67.1904526329
 10
74.0543926861
 20
67.198730657
 10
74.0556981987
 20
67.2070654563
 10
74.0569610631
 20
67.2155885797
 10
74.0581888489
 20
67.2243283135
 10
74.0593836387
 20
67.2332781649
 10
74.0605581212
 20
67.2425170256
 10
74.0617160897
 20
67.2520653402
 10
74.0628587936
 20
67.2619248396
 10
74.0639926861
 20
67.2721453644
 10
74.0651197261
 20
67.2827421889
 10
74.0673594952
 20
67.3051189495
  0
LINE
  5
296
100
AcDbEntity
  8
RACCORDO
100
AcDbLine
 62
7
  6
CONTINUOUS
 10
103.8928759624
 20
68.5984156282
 11
106.3944467515
 21
68.6115139419
  0
LINE
  5
297
100
AcDbEntity
  8
INCISIONI
100
AcDbLine
 62
250
  6
CONTINUOUS
 10
82.1931044196
 20
66.3773684425
 11
83.6928759624
 21
66.3773684425
  0
LINE
  5
298
100
AcDbEntity
  8
INCISIONI
100
AcDbLine
 62
250
  6
CONTINUOUS
 10
82.942990191
 20
66.857368464
 11
83.4786228752
 21
66.857368464
  0
LINE
  5
299
100
AcDbEntity
  8
ASSI
100
AcDbLine
 62
7
  6
CONTINUOUS
 10
103.6928759624
 20
66.8973684211
 11
103.8928759624
 21
66.8973684211
  0
LINE
  5
29A
100
AcDbEntity
  8
ASSI
100
AcDbLine
 62
7
  6
CONTINUOUS
 10
103.6928759624
 20
67.4573964211
 11
103.8928759624
 21
67.4573964211
  0
LINE
  5
29B
100
AcDbEntity
  8
INCISIONI
100
AcDbLine
 62
250
  6
CONTINUOUS
 10
83.4786228752
 20
67.6973683638
 11
83.0501167234
 21
67.6973683638
  0
LINE
  5
29C
100
AcDbEntity
  8
INCISIONI
100
AcDbLine
 62
250
  6
CONTINUOUS
 10
78.1089177713
 20
67.9973684211
 11
77.3090396151
 21
67.9973684211
  0
LINE
  5
29D
100
AcDbEntity
  8
ASSI
100
AcDbLine
 62
7
  6
CONTINUOUS
 10
103.6928759624
 20
68.0764204211
 11
103.8928759624
 21
68.0764204211
  0
LINE
  5
29E
100
AcDbEntity
  8
RACCORDO
100
AcDbLine
 62
7
  6
CONTINUOUS
 10
70.6928759624
 20
68.4279124583
 11
74.1928759624
 21
68.3973684211
  0
LINE
  5
29F
100
AcDbEntity
  8
INCISIONI
100
AcDbLine
 62
250
  6
CONTINUOUS
 10
82.5144840615
 20
67.0973684497
 11
82.942990191
 21
66.857368464
  0
LINE
  5
2A0
100
AcDbEntity
  8
INCISIONI
100
AcDbLine
 62
250
  6
CONTINUOUS
 10
79.8359397723
 20
62.8973684211
 11
79.2931653416
 21
63.5053684482
  0
LINE
  5
2A1
100
AcDbEntity
  8
0
100
AcDbLine
 62
250
  6
CONTINUOUS
 10
75.0997440446
 20
59.3024519116
 11
75.2233508424
 21
58.9220293051
  0
LWPOLYLINE
  5
2A2
100
AcDbEntity
  8
0
100
AcDbPolyline
 62
7
  6
CONTINUOUS
 90
30
 70
0
 10
71.5304233779
 20
68.4206032928
 10
71.5480608282
 20
68.3434212951
 10
71.5722797233
 20
68.2409716977
 10
71.5963410791
 20
68.1428034446
 10
71.6202472403
 20
68.0489545084
 10
71.6439997724
 20
67.9594541313
 10
71.6676071206
 20
67.8742949991
 10
71.6910875552
 20
67.793428629
 10
71.7144701053
 20
67.7167701915
 10
71.7377686975
 20
67.6442854454
 10
71.7610183541
 20
67.5758737999
 10
71.7843052627
 20
67.511304104
 10
71.8076586544
 20
67.4505289031
 10
71.8311446003
 20
67.3934133625
 10
71.8549580062
 20
67.3395630918
 10
71.8791903822
 20
67.2888954555
 10
71.9039470925
 20
67.241329926
 10
71.9295479036
 20
67.1964577316
 10
71.956182798
 20
67.154229235
 10
71.9840504795
 20
67.1146488389
 10
72.0136601102
 20
67.077416377
 10
72.045317987
 20
67.0426890895
 10
72.0793926868
 20
67.010667145
 10
72.116679876
 20
66.9812775033
 10
72.15837527
 20
66.954530319
 10
72.2039661054
 20
66.9317694531
 10
72.2512578683
 20
66.9145560773
 10
72.2990956162
 20
66.903265245
 10
72.3477766607
 20
66.8978386082
 10
72.3673886938
 20
66.8973701957
  0
LINE
  5
2A3
100
AcDbEntity
  8
RACCORDO
100
AcDbLine
 62
250
  6
CONTINUOUS
 10
65.3961045319
 20
101.3123538841
 11
65.3828291275
 21
101.3886735045
  0
LINE
  5
2A4
100
AcDbEntity
  8
ASSI
100
AcDbLine
 62
250
  6
CONTINUOUS
 10
65.3961045319
 20
101.3123538841
 11
65.3828291275
 21
101.3886735045
  0
LINE
  5
2A5
100
AcDbEntity
  8
RACCORDO
100
AcDbLine
 62
250
  6
CONTINUOUS
 10
65.3828291275
 20
101.3886735045
 11
65.370810129
 21
101.4598134144
  0
LINE
  5
2A6
100
AcDbEntity
  8
ASSI
100
AcDbLine
 62
250
  6
CONTINUOUS
 10
65.3828291275
 20
101.3886735045
 11
65.370810129
 21
101.4598134144
  0
LWPOLYLINE
  5
2A7
100
AcDbEntity
  8
RACCORDO
100
AcDbPolyline
 62
250
  6
CONTINUOUS
 90
8
 70
0
 10
65.370810129
 20
101.4598134144
 10
65.3608635167
 20
101.5209439662
 10
65.3568852281
 20
101.5464240758
 10
65.3536646392
 20
101.5679146848
 10
65.3512566675
 20
101.5850493524
 10
65.3497023694
 20
101.5975359458
 10
65.3490282475
 20
101.6051615817
 10
65.3492458047
 20
101.6077962107
  0
LWPOLYLINE
  5
2A8
100
AcDbEntity
  8
ASSI
100
AcDbPolyline
 62
250
  6
CONTINUOUS
 90
8
 70
0
 10
65.370810129
 20
101.4598134144
 10
65.3608635167
 20
101.5209439662
 10
65.3568852281
 20
101.5464240758
 10
65.3536646392
 20
101.5679146848
 10
65.3512566675
 20
101.5850493524
 10
65.3497023694
 20
101.5975359458
 10
65.3490282475
 20
101.6051615817
 10
65.3492458047
 20
101.6077962107
  0
LINE
  5
2A9
100
AcDbEntity
  8
RACCORDO
100
AcDbLine
 62
7
  6
CONTINUOUS
 10
70.6928759624
 20
102.4973684211
 11
70.6928759624
 21
65.2973684211
  0
LINE
  5
2AA
100
AcDbEntity
  8
ASSI
100
AcDbLine
 62
7
  6
CONTINUOUS
 10
70.6928759624
 20
65.0973684211
 11
70.6928759624
 21
102.6973684211
  0
LINE
  5
2AB
100
AcDbEntity
  8
INCISIONI
100
AcDbLine
 62
250
  6
CONTINUOUS
 10
82.5645525569
 20
99.913368566
 11
82.8359397723
 21
100.0653684935
  0
LINE
  5
2AC
100
AcDbEntity
  8
INCISIONI
100
AcDbLine
 62
250
  6
CONTINUOUS
 10
83.9214887187
 20
99.1533684211
 11
83.650101475
 21
99.0013684935
  0
LINE
  5
2AD
100
AcDbEntity
  8
ASSI
100
AcDbLine
 62
7
  6
CONTINUOUS
 10
103.6928759624
 20
68.6954374211
 11
103.8928759624
 21
68.6954374211
  0
LINE
  5
2AE
100
AcDbEntity
  8
INCISIONI
100
AcDbLine
 62
250
  6
CONTINUOUS
 10
77.3090396151
 20
68.9973684211
 11
77.7089786932
 21
68.9973684211
  0
LINE
  5
2AF
100
AcDbEntity
  8
INCISIONI
100
AcDbLine
 62
250
  6
CONTINUOUS
 10
78.2933176464
 20
68.9973684211
 11
79.4852381265
 21
68.9973684211
  0
LINE
  5
2B0
100
AcDbEntity
  8
ASSI
100
AcDbLine
 62
7
  6
CONTINUOUS
 10
103.6928759624
 20
69.2554654211
 11
103.8928759624
 21
69.2554654211
  0
LINE
  5
2B1
100
AcDbEntity
  8
ASSI
100
AcDbLine
 62
7
  6
CONTINUOUS
 10
103.6928759624
 20
69.6288104211
 11
103.8928759624
 21
69.6288104211
  0
LINE
  5
2B2
100
AcDbEntity
  8
INCISIONI
100
AcDbLine
 62
250
  6
CONTINUOUS
 10
77.3090396151
 20
69.9973684211
 11
78.1089177713
 21
69.9973684211
  0
LINE
  5
2B3
100
AcDbEntity
  8
ASSI
100
AcDbLine
 62
7
  6
CONTINUOUS
 10
103.6928759624
 20
70.1888314211
 11
103.8928759624
 21
70.1888314211
  0
LINE
  5
2B4
100
AcDbEntity
  8
0
100
AcDbLine
 62
250
  6
CONTINUOUS
 10
103.6928759624
 20
70.5366914211
 11
103.8928759624
 21
70.5366914211
  0
LINE
  5
2B5
100
AcDbEntity
  8
ASSI
100
AcDbLine
 62
7
  6
CONTINUOUS
 10
103.6928759624
 20
70.7488314211
 11
103.8928759624
 21
70.7488314211
  0
LINE
  5
2B6
100
AcDbEntity
  8
RACCORDO
100
AcDbLine
 62
250
  6
CONTINUOUS
 10
70.6928759624
 20
69.4278743814
 11
74.1928759624
 21
69.3973303441
  0
LINE
  5
2B7
100
AcDbEntity
  8
INCISIONI
100
AcDbLine
 62
250
  6
CONTINUOUS
 10
83.6928759624
 20
68.1773683352
 11
82.1931044196
 21
68.6573685069
  0
LINE
  5
2B8
100
AcDbEntity
  8
INCISIONI
100
AcDbLine
 62
250
  6
CONTINUOUS
 10
82.6216105491
 20
65.8973684211
 11
82.1931044196
 21
66.3773684425
  0
LWPOLYLINE
  5
2B9
100
AcDbEntity
  8
0
100
AcDbPolyline
 62
7
  6
CONTINUOUS
 90
16
 70
0
 10
74.0245058902
 20
67.286533541
 10
74.024574269
 20
67.2862300784
 10
74.0246942544
 20
67.2856759331
 10
74.0246331203
 20
67.2859818493
 10
74.0244550129
 20
67.286926795
 10
74.0241780244
 20
67.2884828659
 10
74.0238063422
 20
67.2906911342
 10
74.0233699066
 20
67.2934275619
 10
74.0228770464
 20
67.2966795387
 10
74.0223298011
 20
67.3004717117
 10
74.0217427655
 20
67.3047357075
 10
74.0211200621
 20
67.3094673316
 10
74.020462966
 20
67.3146818448
 10
74.019779178
 20
67.3203401176
 10
74.0190708939
 20
67.3264422313
 10
74.0183389349
 20
67.3329988918
  0
LINE
  5
2BA
100
AcDbEntity
  8
0
100
AcDbLine
 62
7
  6
CONTINUOUS
 10
74.0183389349
 20
67.3329988918
 11
74.0168183136
 21
67.3474091014
  0
LINE
  5
2BB
100
AcDbEntity
  8
0
100
AcDbLine
 62
7
  6
CONTINUOUS
 10
73.4195534106
 20
67.2932997599
 11
73.4217175194
 21
67.2725299344
  0
LINE
  5
2BC
100
AcDbEntity
  8
0
100
AcDbLine
 62
7
  6
CONTINUOUS
 10
74.0168183136
 20
67.3474091014
 11
74.0152296519
 21
67.3635660622
  0
LINE
  5
2BD
100
AcDbEntity
  8
0
100
AcDbLine
 62
7
  6
CONTINUOUS
 10
73.4174065481
 20
67.3155313992
 11
73.4195534106
 21
67.2932997599
  0
LINE
  5
2BE
100
AcDbEntity
  8
0
100
AcDbLine
 62
7
  6
CONTINUOUS
 10
74.0152296519
 20
67.3635660622
 11
74.0135839479
 21
67.3814545954
  0
LINE
  5
2BF
100
AcDbEntity
  8
0
100
AcDbLine
 62
7
  6
CONTINUOUS
 10
73.4152665656
 20
67.339330032
 11
73.4174065481
 21
67.3155313992
  0
LINE
  5
2C0
100
AcDbEntity
  8
0
100
AcDbLine
 62
7
  6
CONTINUOUS
 10
74.0135839479
 20
67.3814545954
 11
74.0118884902
 21
67.4010792188
  0
LINE
  5
2C1
100
AcDbEntity
  8
0
100
AcDbLine
 62
7
  6
CONTINUOUS
 10
73.413124587
 20
67.3648054035
 11
73.4152665656
 21
67.339330032
  0
LINE
  5
2C2
100
AcDbEntity
  8
0
100
AcDbLine
 62
7
  6
CONTINUOUS
 10
74.0118884902
 20
67.4010792188
 11
74.0101480389
 21
67.4224603425
  0
LINE
  5
2C3
100
AcDbEntity
  8
0
100
AcDbLine
 62
7
  6
CONTINUOUS
 10
73.4109737354
 20
67.3920618437
 11
73.413124587
 21
67.3648054035
  0
LINE
  5
2C4
100
AcDbEntity
  8
0
100
AcDbLine
 62
7
  6
CONTINUOUS
 10
74.0101480389
 20
67.4224603425
 11
74.0074616907
 21
67.4578681691
  0
LINE
  5
2C5
100
AcDbEntity
  8
0
100
AcDbLine
 62
7
  6
CONTINUOUS
 10
73.4077193373
 20
67.4365036306
 11
73.4109737354
 21
67.3920618437
  0
LINE
  5
2C6
100
AcDbEntity
  8
0
100
AcDbLine
 62
7
  6
CONTINUOUS
 10
74.0074616907
 20
67.4578681691
 11
74.00468891
 21
67.4974147919
  0
LINE
  5
2C7
100
AcDbEntity
  8
0
100
AcDbLine
 62
7
  6
CONTINUOUS
 10
73.404415949
 20
67.4855514663
 11
73.4077193373
 21
67.4365036306
  0
LINE
  5
2C8
100
AcDbEntity
  8
0
100
AcDbLine
 62
7
  6
CONTINUOUS
 10
74.00468891
 20
67.4974147919
 11
74.0018318593
 21
67.5412828881
  0
LINE
  5
2C9
100
AcDbEntity
  8
0
100
AcDbLine
 62
7
  6
CONTINUOUS
 10
73.40105094
 20
67.5395696172
 11
73.404415949
 21
67.4855514663
  0
LINE
  5
2CA
100
AcDbEntity
  8
0
100
AcDbLine
 62
7
  6
CONTINUOUS
 10
74.0018318593
 20
67.5412828881
 11
73.9988905962
 21
67.5896848705
  0
LINE
  5
2CB
100
AcDbEntity
  8
0
100
AcDbLine
 62
7
  6
CONTINUOUS
 10
73.9988905962
 20
67.5896848705
 11
73.9958637772
 21
67.6428590275
  0
LINE
  5
2CC
100
AcDbEntity
  8
0
100
AcDbLine
 62
7
  6
CONTINUOUS
 10
73.396450912
 20
67.6199633644
 11
73.40105094
 21
67.5395696172
  0
LINE
  5
2CD
100
AcDbEntity
  8
0
100
AcDbLine
 62
7
  6
CONTINUOUS
 10
73.9958637772
 20
67.6428590275
 11
73.9927490979
 21
67.7010666475
  0
LINE
  5
2CE
100
AcDbEntity
  8
0
100
AcDbLine
 62
7
  6
CONTINUOUS
 10
73.3917024411
 20
67.7107544765
 11
73.396450912
 21
67.6199633644
  0
LINE
  5
2CF
100
AcDbEntity
  8
0
100
AcDbLine
 62
7
  6
CONTINUOUS
 10
73.9927490979
 20
67.7010666475
 11
73.9895445007
 21
67.764570833
  0
LINE
  5
2D0
100
AcDbEntity
  8
0
100
AcDbLine
 62
7
  6
CONTINUOUS
 10
73.9895445007
 20
67.764570833
 11
73.9862511238
 21
67.8335696859
  0
LINE
  5
2D1
100
AcDbEntity
  8
0
100
AcDbLine
 62
7
  6
CONTINUOUS
 10
73.385536839
 20
67.84016496
 11
73.3917024411
 21
67.7107544765
  0
LINE
  5
2D2
100
AcDbEntity
  8
0
100
AcDbLine
 62
7
  6
CONTINUOUS
 10
73.9862511238
 20
67.8335696859
 11
73.9817248093
 21
67.9344106753
  0
LINE
  5
2D3
100
AcDbEntity
  8
0
100
AcDbLine
 62
7
  6
CONTINUOUS
 10
73.379100576
 20
67.9886596567
 11
73.385536839
 21
67.84016496
  0
LINE
  5
2D4
100
AcDbEntity
  8
0
100
AcDbLine
 62
7
  6
CONTINUOUS
 10
73.9817248093
 20
67.9344106753
 11
73.9770471248
 21
68.045698281
  0
LINE
  5
2D5
100
AcDbEntity
  8
0
100
AcDbLine
 62
7
  6
CONTINUOUS
 10
73.9770471248
 20
68.045698281
 11
73.9722208389
 21
68.1677624581
  0
LINE
  5
2D6
100
AcDbEntity
  8
0
100
AcDbLine
 62
7
  6
CONTINUOUS
 10
73.3723810912
 20
68.1576218612
 11
73.379100576
 21
67.9886596567
  0
LINE
  5
2D7
100
AcDbEntity
  8
0
100
AcDbLine
 62
7
  6
CONTINUOUS
 10
73.9722208389
 20
68.1677624581
 11
73.9672451383
 21
68.3009654933
  0
LINE
  5
2D8
100
AcDbEntity
  8
0
100
AcDbLine
 62
7
  6
CONTINUOUS
 10
73.9672451383
 20
68.3009654933
 11
73.9637316669
 21
68.399368133
  0
LINE
  5
2D9
100
AcDbEntity
  8
0
100
AcDbLine
 62
7
  6
CONTINUOUS
 10
73.3633912173
 20
68.4046072248
 11
73.3723810912
 21
68.1576218612
  0
LINE
  5
2DA
100
AcDbEntity
  8
RACCORDO
100
AcDbLine
 62
250
  6
CONTINUOUS
 10
73.6497207169
 20
59.9417865319
 11
73.6494082001
 21
59.9563233259
  0
LINE
  5
2DB
100
AcDbEntity
  8
RACCORDO
100
AcDbLine
 62
250
  6
CONTINUOUS
 10
73.6494082001
 20
59.9563233259
 11
73.6491527402
 21
59.9736839235
  0
LINE
  5
2DC
100
AcDbEntity
  8
RACCORDO
100
AcDbLine
 62
250
  6
CONTINUOUS
 10
73.6491527402
 20
59.9736839235
 11
73.6488838647
 21
60.0044963199
  0
LINE
  5
2DD
100
AcDbEntity
  8
RACCORDO
100
AcDbLine
 62
7
  6
CONTINUOUS
 10
71.6928759624
 20
61.4855097857
 11
71.6928759624
 21
60.6473684211
  0
LINE
  5
2DE
100
AcDbEntity
  8
RACCORDO
100
AcDbLine
 62
7
  6
CONTINUOUS
 10
71.6928759624
 20
106.3092270564
 11
71.6928759624
 21
107.0592270564
  0
LINE
  5
2DF
100
AcDbEntity
  8
RACCORDO
100
AcDbLine
 62
250
  6
CONTINUOUS
 10
72.5047036846
 20
61.4784250725
 11
72.5047036846
 21
60.6473684211
  0
LINE
  5
2E0
100
AcDbEntity
  8
RACCORDO
100
AcDbLine
 62
250
  6
CONTINUOUS
 10
72.5047036846
 20
106.3163117696
 11
72.5047036846
 21
107.0663117696
  0
LINE
  5
2E1
100
AcDbEntity
  8
RACCORDO
100
AcDbLine
 62
7
  6
CONTINUOUS
 10
72.6928759624
 20
61.4767829179
 11
72.6928759624
 21
60.1713768267
  0
LINE
  5
2E2
100
AcDbEntity
  8
RACCORDO
100
AcDbLine
 62
7
  6
CONTINUOUS
 10
72.6928759624
 20
106.3179539242
 11
72.6928759624
 21
107.623360015
  0
LINE
  5
2E3
100
AcDbEntity
  8
RACCORDO
100
AcDbLine
 62
250
  6
CONTINUOUS
 10
73.64915274
 20
107.8210528796
 11
73.6488838648
 21
107.7902404781
  0
LINE
  5
2E4
100
AcDbEntity
  8
RACCORDO
100
AcDbLine
 62
250
  6
CONTINUOUS
 10
73.6494081999
 20
107.8384134838
 11
73.64915274
 21
107.8210528796
  0
LINE
  5
2E5
100
AcDbEntity
  8
0
100
AcDbLine
 62
7
  6
CONTINUOUS
 10
73.0722055768
 20
99.6325181629
 11
73.0632984658
 21
99.3875107476
  0
LINE
  5
2E6
100
AcDbEntity
  8
0
100
AcDbLine
 62
7
  6
CONTINUOUS
 10
73.0810067779
 20
99.8514485244
 11
73.0722055768
 21
99.6325181629
  0
LINE
  5
2E7
100
AcDbEntity
  8
0
100
AcDbLine
 62
7
  6
CONTINUOUS
 10
73.0883662752
 20
100.0155511917
 11
73.0810067779
 21
99.8514485244
  0
LINE
  5
2E8
100
AcDbEntity
  8
0
100
AcDbLine
 62
7
  6
CONTINUOUS
 10
73.0943729284
 20
100.1360080488
 11
73.0883662752
 21
100.0155511917
  0
LINE
  5
2E9
100
AcDbEntity
  8
0
100
AcDbLine
 62
7
  6
CONTINUOUS
 10
73.0991005913
 20
100.2219996929
 11
73.0943729284
 21
100.1360080488
  0
LINE
  5
2EA
100
AcDbEntity
  8
0
100
AcDbLine
 62
7
  6
CONTINUOUS
 10
73.1026052955
 20
100.2806258804
 11
73.0991005913
 21
100.2219996929
  0
LINE
  5
2EB
100
AcDbEntity
  8
0
100
AcDbLine
 62
7
  6
CONTINUOUS
 10
73.106076978
 20
100.3343429092
 11
73.1026052955
 21
100.2806258804
  0
LINE
  5
2EC
100
AcDbEntity
  8
0
100
AcDbLine
 62
7
  6
CONTINUOUS
 10
73.1095137249
 20
100.3832142253
 11
73.106076978
 21
100.3343429092
  0
LINE
  5
2ED
100
AcDbEntity
  8
0
100
AcDbLine
 62
7
  6
CONTINUOUS
 10
73.1117852528
 20
100.4131566737
 11
73.1095137249
 21
100.3832142253
  0
LINE
  5
2EE
100
AcDbEntity
  8
0
100
AcDbLine
 62
7
  6
CONTINUOUS
 10
73.1140420689
 20
100.4410470054
 11
73.1117852528
 21
100.4131566737
  0
LINE
  5
2EF
100
AcDbEntity
  8
0
100
AcDbLine
 62
7
  6
CONTINUOUS
 10
73.1162867285
 20
100.4669573835
 11
73.1140420689
 21
100.4410470054
  0
LINE
  5
2F0
100
AcDbEntity
  8
0
100
AcDbLine
 62
7
  6
CONTINUOUS
 10
73.1185244604
 20
100.4909860719
 11
73.1162867285
 21
100.4669573835
  0
LWPOLYLINE
  5
2F1
100
AcDbEntity
  8
0
100
AcDbPolyline
 62
7
  6
CONTINUOUS
 90
3
 70
0
 43
0.3500000006
 10
86.5857329407
 20
127.9426789856
 10
86.5143017578
 20
127.7283945007
 10
86.3714484558
 20
127.442678833
  0
LINE
  5
2F2
100
AcDbEntity
  8
INCISIONI
100
AcDbLine
 62
250
  6
CONTINUOUS
 10
82.2931653416
 20
99.6093682036
 11
82.5645525569
 21
99.913368566
  0
LINE
  5
2F3
100
AcDbEntity
  8
CURVE
100
AcDbLine
 62
250
  6
CONTINUOUS
 10
95.8930739586
 20
74.4402255196
 11
97.1928759624
 21
74.7187969703
  0
LINE
  5
2F4
100
AcDbEntity
  8
ASSI
100
AcDbLine
 62
7
  6
CONTINUOUS
 10
103.6928759624
 20
71.5954324211
 11
103.8928759624
 21
71.5954324211
  0
LINE
  5
2F5
100
AcDbEntity
  8
ASSI
100
AcDbLine
 62
7
  6
CONTINUOUS
 10
103.6928759624
 20
72.1183254211
 11
103.8928759624
 21
72.1183254211
  0
LINE
  5
2F6
100
AcDbEntity
  8
CURVE
100
AcDbLine
 62
250
  6
CONTINUOUS
 10
97.1928759624
 20
72.3973684211
 11
95.8930739586
 21
72.3973684211
  0
LINE
  5
2F7
100
AcDbEntity
  8
ASSI
100
AcDbLine
 62
7
  6
CONTINUOUS
 10
103.6928759624
 20
72.6412184211
 11
103.8928759624
 21
72.6412184211
  0
LINE
  5
2F8
100
AcDbEntity
  8
INCISIONI
100
AcDbLine
 62
250
  6
CONTINUOUS
 10
82.6216105491
 20
72.7373684211
 11
82.4073574844
 21
72.7373684211
  0
LINE
  5
2F9
100
AcDbEntity
  8
INCISIONI
100
AcDbLine
 62
250
  6
CONTINUOUS
 10
82.1931044196
 20
67.4573683781
 11
82.5144840615
 21
67.0973684497
  0
LINE
  5
2FA
100
AcDbEntity
  8
INCISIONI
100
AcDbLine
 62
250
  6
CONTINUOUS
 10
83.6928759624
 20
67.4573683781
 11
83.4786228752
 21
67.6973683638
  0
LWPOLYLINE
  5
2FB
100
AcDbEntity
  8
0
100
AcDbPolyline
 62
7
  6
CONTINUOUS
 90
37
 70
0
 10
73.4217175194
 20
67.2725299344
 10
73.4228112444
 20
67.2626483955
 10
73.4239148595
 20
67.2530885672
 10
73.42503486
 20
67.2438016891
 10
73.4261723633
 20
67.2347887447
 10
73.4273308509
 20
67.2260331326
 10
73.4285225932
 20
67.2174595173
 10
73.429748984
 20
67.2090800025
 10
73.4310174421
 20
67.2008673922
 10
73.4323543638
 20
67.1926881136
 10
73.4337642889
 20
67.1845627913
 10
73.4352615956
 20
67.1764598523
 10
73.4368998883
 20
67.1681668681
 10
73.4386965044
 20
67.1596985889
 10
73.4406793207
 20
67.1510327874
 10
73.4429462946
 20
67.1418924291
 10
73.4455306219
 20
67.1323312372
 10
73.4485037568
 20
67.1222843744
 10
73.452085666
 20
67.1112953631
 10
73.4564087111
 20
67.0993399448
 10
73.4615916057
 20
67.0864945902
 10
73.4679364482
 20
67.0724859333
 10
73.4757814533
 20
67.057170725
 10
73.4852513668
 20
67.0409371583
 10
73.4963325552
 20
67.0243368931
 10
73.5092062208
 20
67.0075625501
 10
73.5240592431
 20
66.9908481942
 10
73.5407442099
 20
66.9747694819
 10
73.559225468
 20
66.95960316
 10
73.5795819196
 20
66.9454820762
 10
73.6016850263
 20
66.9326937378
 10
73.6254024936
 20
66.9214940692
 10
73.6506905519
 20
66.9120957046
 10
73.677494557
 20
66.9047491702
 10
73.7056773666
 20
66.899761711
 10
73.7350104084
 20
66.8974762496
 10
73.742882039
 20
66.8973684291
  0
LINE
  5
2FC
100
AcDbEntity
  8
0
100
AcDbLine
 62
7
  6
CONTINUOUS
 10
73.7658469211
 20
100.5049226952
 11
73.7636963384
 21
100.5253049421
  0
LINE
  5
2FD
100
AcDbEntity
  8
0
100
AcDbLine
 62
7
  6
CONTINUOUS
 10
73.1675311488
 20
100.4606560681
 11
73.1690637551
 21
100.446045986
  0
LINE
  5
2FE
100
AcDbEntity
  8
0
100
AcDbLine
 62
7
  6
CONTINUOUS
 10
73.1690637551
 20
100.446045986
 11
73.1706640101
 21
100.4296757834
  0
LINE
  5
2FF
100
AcDbEntity
  8
0
100
AcDbLine
 62
7
  6
CONTINUOUS
 10
73.7679783743
 20
100.4831219721
 11
73.7658469211
 21
100.5049226952
  0
LINE
  5
300
100
AcDbEntity
  8
0
100
AcDbLine
 62
7
  6
CONTINUOUS
 10
73.1706640101
 20
100.4296757834
 11
73.172321162
 21
100.4115586011
  0
LINE
  5
301
100
AcDbEntity
  8
0
100
AcDbLine
 62
7
  6
CONTINUOUS
 10
73.7701014521
 20
100.4597974519
 11
73.7679783743
 21
100.4831219721
  0
LINE
  5
302
100
AcDbEntity
  8
0
100
AcDbLine
 62
7
  6
CONTINUOUS
 10
73.172321162
 20
100.4115586011
 11
73.1740281157
 21
100.3916877958
  0
LINE
  5
303
100
AcDbEntity
  8
0
100
AcDbLine
 62
7
  6
CONTINUOUS
 10
73.7722254731
 20
100.4348376508
 11
73.7701014521
 21
100.4597974519
  0
LINE
  5
304
100
AcDbEntity
  8
0
100
AcDbLine
 62
7
  6
CONTINUOUS
 10
73.1740281157
 20
100.3916877958
 11
73.1757802373
 21
100.3700411049
  0
LINE
  5
305
100
AcDbEntity
  8
0
100
AcDbLine
 62
7
  6
CONTINUOUS
 10
73.7743571522
 20
100.4081429917
 11
73.7722254731
 21
100.4348376508
  0
LINE
  5
306
100
AcDbEntity
  8
0
100
AcDbLine
 62
7
  6
CONTINUOUS
 10
73.1757802373
 20
100.3700411049
 11
73.1784847324
 21
100.3341932429
  0
LINE
  5
307
100
AcDbEntity
  8
0
100
AcDbLine
 62
7
  6
CONTINUOUS
 10
73.7775805204
 20
100.3646371258
 11
73.7743571522
 21
100.4081429917
  0
LINE
  5
308
100
AcDbEntity
  8
0
100
AcDbLine
 62
7
  6
CONTINUOUS
 10
73.1784847324
 20
100.3341932429
 11
73.1812763328
 21
100.2941552711
  0
LINE
  5
309
100
AcDbEntity
  8
0
100
AcDbLine
 62
7
  6
CONTINUOUS
 10
73.7808501436
 20
100.3166469895
 11
73.7775805204
 21
100.3646371258
  0
LINE
  5
30A
100
AcDbEntity
  8
0
100
AcDbLine
 62
7
  6
CONTINUOUS
 10
73.1812763328
 20
100.2941552711
 11
73.1841526474
 21
100.2497454028
  0
LINE
  5
30B
100
AcDbEntity
  8
0
100
AcDbLine
 62
7
  6
CONTINUOUS
 10
73.784178498
 20
100.2638216774
 11
73.7808501436
 21
100.3166469895
  0
LINE
  5
30C
100
AcDbEntity
  8
0
100
AcDbLine
 62
7
  6
CONTINUOUS
 10
73.1841526474
 20
100.2497454028
 11
73.1871133526
 21
100.2007537925
  0
LINE
  5
30D
100
AcDbEntity
  8
0
100
AcDbLine
 62
7
  6
CONTINUOUS
 10
73.7887247665
 20
100.1852552014
 11
73.784178498
 21
100.2638216774
  0
LINE
  5
30E
100
AcDbEntity
  8
0
100
AcDbLine
 62
7
  6
CONTINUOUS
 10
73.1871133526
 20
100.2007537925
 11
73.1901595037
 21
100.146946378
  0
LINE
  5
30F
100
AcDbEntity
  8
0
100
AcDbLine
 62
7
  6
CONTINUOUS
 10
73.1901595037
 20
100.146946378
 11
73.1932931029
 21
100.0880677775
  0
LINE
  5
310
100
AcDbEntity
  8
0
100
AcDbLine
 62
7
  6
CONTINUOUS
 10
73.7934133208
 20
100.0965994641
 11
73.7887247665
 21
100.1852552014
  0
LINE
  5
311
100
AcDbEntity
  8
0
100
AcDbLine
 62
7
  6
CONTINUOUS
 10
73.1932931029
 20
100.0880677775
 11
73.1965160581
 21
100.0238593061
  0
LINE
  5
312
100
AcDbEntity
  8
0
100
AcDbLine
 62
7
  6
CONTINUOUS
 10
73.1965160581
 20
100.0238593061
 11
73.1998283912
 21
99.9541002681
  0
LINE
  5
313
100
AcDbEntity
  8
0
100
AcDbLine
 62
7
  6
CONTINUOUS
 10
73.7994971497
 20
99.9702973296
 11
73.7934133208
 21
100.0965994641
  0
LINE
  5
314
100
AcDbEntity
  8
0
100
AcDbLine
 62
7
  6
CONTINUOUS
 10
73.1998283912
 20
99.9541002681
 11
73.2043837366
 21
99.8520915523
  0
LINE
  5
315
100
AcDbEntity
  8
0
100
AcDbLine
 62
7
  6
CONTINUOUS
 10
73.8058489774
 20
99.8253158368
 11
73.7994971497
 21
99.9702973296
  0
LINE
  5
316
100
AcDbEntity
  8
0
100
AcDbLine
 62
7
  6
CONTINUOUS
 10
73.2043837366
 20
99.8520915523
 11
73.2090982269
 21
99.7393593542
  0
LINE
  5
317
100
AcDbEntity
  8
0
100
AcDbLine
 62
7
  6
CONTINUOUS
 10
73.8124865831
 20
99.6601356626
 11
73.8058489774
 21
99.8253158368
  0
LINE
  5
318
100
AcDbEntity
  8
0
100
AcDbLine
 62
7
  6
CONTINUOUS
 10
73.2090982269
 20
99.7393593542
 11
73.2139725658
 21
99.6154525394
  0
LINE
  5
319
100
AcDbEntity
  8
0
100
AcDbLine
 62
7
  6
CONTINUOUS
 10
73.2139725658
 20
99.6154525394
 11
73.2190038483
 21
99.4800680934
  0
LWPOLYLINE
  5
31A
100
AcDbEntity
  8
0
100
AcDbPolyline
 62
7
  6
CONTINUOUS
 90
3
 70
0
 10
73.8222233182
 20
99.3941337844
 10
73.8208308518
 20
99.4338248592
 10
73.8124865831
 20
99.6601356626
  0
LINE
  5
31B
100
AcDbEntity
  8
0
100
AcDbLine
 62
7
  6
CONTINUOUS
 10
73.2190038483
 20
99.4800680934
 11
73.2222466236
 21
99.3888978671
  0
LINE
  5
31C
100
AcDbEntity
  8
RACCORDO
100
AcDbLine
 62
250
  6
CONTINUOUS
 10
73.6488228803
 20
107.70125398
 11
73.6492650697
 21
107.6295626556
  0
LINE
  5
31D
100
AcDbEntity
  8
RACCORDO
100
AcDbLine
 62
250
  6
CONTINUOUS
 10
73.6488838647
 20
60.0044963199
 11
73.6487591147
 21
60.0401898934
  0
LINE
  5
31E
100
AcDbEntity
  8
RACCORDO
100
AcDbLine
 62
250
  6
CONTINUOUS
 10
73.6492650697
 20
61.71840808
 11
73.6492650697
 21
60.1651741865
  0
LINE
  5
31F
100
AcDbEntity
  8
RACCORDO
100
AcDbLine
 62
250
  6
CONTINUOUS
 10
73.6492650697
 20
106.0763287621
 11
73.6492650697
 21
107.6295626556
  0
LINE
  5
320
100
AcDbEntity
  8
0
100
AcDbLine
 62
7
  6
CONTINUOUS
 10
73.7928759624
 20
59.8877688665
 11
73.7928759624
 21
59.5877688665
  0
LINE
  5
321
100
AcDbEntity
  8
RACCORDO
100
AcDbLine
 62
7
  6
CONTINUOUS
 10
73.7928759624
 20
59.8877688665
 11
73.7928759624
 21
59.9139494699
  0
LINE
  5
322
100
AcDbEntity
  8
RACCORDO
100
AcDbLine
 62
7
  6
CONTINUOUS
 10
73.7928759624
 20
107.8807873723
 11
73.7928759624
 21
107.9069679756
  0
LINE
  5
323
100
AcDbEntity
  8
0
100
AcDbLine
 62
7
  6
CONTINUOUS
 10
73.7928759624
 20
107.9069679756
 11
73.7928759624
 21
108.2069679756
  0
LINE
  5
324
100
AcDbEntity
  8
RACCORDO
100
AcDbLine
 62
7
  6
CONTINUOUS
 10
74.1928759624
 20
107.9069679756
 11
74.1928759624
 21
107.8842781194
  0
LINE
  5
325
100
AcDbEntity
  8
DRAFT
100
AcDbLine
 62
7
  6
CONTINUOUS
 10
74.1928759624
 20
102.6973684211
 11
74.1928759624
 21
65.0973684211
  0
LINE
  5
326
100
AcDbEntity
  8
RACCORDO
100
AcDbLine
 62
7
  6
CONTINUOUS
 10
74.1928759624
 20
59.9104587227
 11
74.1928759624
 21
59.8877688665
  0
LINE
  5
327
100
AcDbEntity
  8
0
100
AcDbLine
 62
7
  6
CONTINUOUS
 10
74.1928759624
 20
59.8877688665
 11
74.1928759624
 21
59.5877688665
  0
LINE
  5
328
100
AcDbEntity
  8
0
100
AcDbLine
 62
7
  6
CONTINUOUS
 10
74.1928759624
 20
107.9069679756
 11
74.1928759624
 21
108.2069679756
  0
LINE
  5
329
100
AcDbEntity
  8
0
100
AcDbLine
 62
250
  6
CONTINUOUS
 10
74.4928759624
 20
59.2877688665
 11
74.4928759624
 21
58.8877688665
  0
LINE
  5
32A
100
AcDbEntity
  8
0
100
AcDbLine
 62
250
  6
CONTINUOUS
 10
74.4928759624
 20
108.5069679756
 11
74.4928759624
 21
108.9069679756
  0
LINE
  5
32B
100
AcDbEntity
  8
0
100
AcDbLine
 62
250
  6
CONTINUOUS
 10
75.0070389463
 20
59.2877688665
 11
75.0070389463
 21
58.8877688665
  0
LINE
  5
32C
100
AcDbEntity
  8
0
100
AcDbLine
 62
250
  6
CONTINUOUS
 10
75.0070389463
 20
108.5069679756
 11
75.0070389463
 21
108.9069679756
  0
LINE
  5
32D
100
AcDbEntity
  8
RACCORDO
100
AcDbLine
 62
7
  6
CONTINUOUS
 10
75.6928759624
 20
107.8973684211
 11
75.6928759624
 21
59.8973684211
  0
LINE
  5
32E
100
AcDbEntity
  8
RACCORDO
100
AcDbLine
 62
250
  6
CONTINUOUS
 10
73.648759115
 20
107.7545469064
 11
73.6488228803
 21
107.70125398
  0
LINE
  5
32F
100
AcDbEntity
  8
RACCORDO
100
AcDbLine
 62
250
  6
CONTINUOUS
 10
73.6487591147
 20
60.0401898934
 11
73.64882288
 21
60.0934828332
  0
LINE
  5
330
100
AcDbEntity
  8
RACCORDO
100
AcDbLine
 62
250
  6
CONTINUOUS
 10
73.6488838648
 20
107.7902404781
 11
73.648759115
 21
107.7545469064
  0
LWPOLYLINE
  5
331
100
AcDbEntity
  8
RACCORDO
100
AcDbPolyline
 62
250
  6
CONTINUOUS
 90
3
 70
0
 10
73.64882288
 20
60.0934828332
 10
73.6491456501
 20
60.1506399339
 10
73.6492650698
 20
60.1651741865
  0
LINE
  5
332
100
AcDbEntity
  8
0
100
AcDbLine
 62
7
  6
CONTINUOUS
 10
74.1138614253
 20
68.1704942446
 11
74.1221312629
 21
68.3979858007
  0
LINE
  5
333
100
AcDbEntity
  8
0
100
AcDbLine
 62
7
  6
CONTINUOUS
 10
74.1057488561
 20
67.9670344046
 11
74.1138614253
 21
68.1704942446
  0
LINE
  5
334
100
AcDbEntity
  8
0
100
AcDbLine
 62
7
  6
CONTINUOUS
 10
74.0992395102
 20
67.8188377179
 11
74.1057488561
 21
67.9670344046
  0
LINE
  5
335
100
AcDbEntity
  8
0
100
AcDbLine
 62
7
  6
CONTINUOUS
 10
74.0929480536
 20
67.6889977203
 11
74.0992395102
 21
67.8188377179
  0
LINE
  5
336
100
AcDbEntity
  8
0
100
AcDbLine
 62
7
  6
CONTINUOUS
 10
74.0880628574
 20
67.5975860263
 11
74.0929480536
 21
67.6889977203
  0
LINE
  5
337
100
AcDbEntity
  8
0
100
AcDbLine
 62
7
  6
CONTINUOUS
 10
74.0844793154
 20
67.5358857162
 11
74.0880628574
 21
67.5975860263
  0
LINE
  5
338
100
AcDbEntity
  8
0
100
AcDbLine
 62
7
  6
CONTINUOUS
 10
74.0809589255
 20
67.4797529385
 11
74.0844793154
 21
67.5358857162
  0
LINE
  5
339
100
AcDbEntity
  8
0
100
AcDbLine
 62
7
  6
CONTINUOUS
 10
74.0774964396
 20
67.4289166428
 11
74.0809589255
 21
67.4797529385
  0
LINE
  5
33A
100
AcDbEntity
  8
0
100
AcDbLine
 62
7
  6
CONTINUOUS
 10
74.0752170081
 20
67.3978292487
 11
74.0774964396
 21
67.4289166428
  0
LINE
  5
33B
100
AcDbEntity
  8
0
100
AcDbLine
 62
7
  6
CONTINUOUS
 10
74.0729568825
 20
67.3688722638
 11
74.0752170081
 21
67.3978292487
  0
LINE
  5
33C
100
AcDbEntity
  8
0
100
AcDbLine
 62
7
  6
CONTINUOUS
 10
74.0707120765
 20
67.3419477503
 11
74.0729568825
 21
67.3688722638
  0
LWPOLYLINE
  5
33D
100
AcDbEntity
  8
0
100
AcDbPolyline
 62
7
  6
CONTINUOUS
 90
3
 70
0
 10
74.0673594952
 20
67.3051189495
 10
74.068476887
 20
67.316946389
 10
74.0707120765
 20
67.3419477503
  0
LWPOLYLINE
  5
33E
100
AcDbEntity
  8
RACCORDO
100
AcDbPolyline
 62
7
  6
CONTINUOUS
 90
26
 70
0
 10
84.5902006108
 20
102.7005098336
 10
84.5966794516
 20
102.7105182403
 10
84.6030461531
 20
102.720468884
 10
84.6092996645
 20
102.7303553394
 10
84.6154154704
 20
102.7401784711
 10
84.6213947159
 20
102.7499306707
 10
84.6272359684
 20
102.7596048573
 10
84.632910818
 20
102.7692018937
 10
84.6384208773
 20
102.7787135043
 10
84.6437642232
 20
102.7881318096
 10
84.6489071118
 20
102.7974572899
 10
84.6538517775
 20
102.8066809342
 10
84.65859565
 20
102.8157938653
 10
84.6630977442
 20
102.8247956126
 10
84.6673612148
 20
102.8336767792
 10
84.6713825455
 20
102.8424268762
 10
84.6751107131
 20
102.8510426026
 10
84.6785496656
 20
102.8595139561
 10
84.6816950781
 20
102.8678290948
 10
84.6844834991
 20
102.875980985
 10
84.6869197484
 20
102.8839597961
 10
84.6889986326
 20
102.8917518826
 10
84.6906416854
 20
102.8993442423
 10
84.6918226473
 20
102.90672477
 10
84.692567457
 20
102.913881979
 10
84.6928759624
 20
102.9208038945
  0
LWPOLYLINE
  5
33F
100
AcDbEntity
  8
RACCORDO
100
AcDbPolyline
 62
7
  6
CONTINUOUS
 90
3
 70
0
 10
84.570152525
 20
102.6701845313
 10
84.5769259047
 20
102.6803403174
 10
84.5902006108
 20
102.7005098336
  0
LINE
  5
340
100
AcDbEntity
  8
RACCORDO
100
AcDbLine
 62
7
  6
CONTINUOUS
 10
84.5563528525
 20
102.6497566179
 11
84.570152525
 21
102.6701845313
  0
LINE
  5
341
100
AcDbEntity
  8
RACCORDO
100
AcDbLine
 62
7
  6
CONTINUOUS
 10
84.5422701782
 20
102.629196212
 11
84.5563528525
 21
102.6497566179
  0
LINE
  5
342
100
AcDbEntity
  8
RACCORDO
100
AcDbLine
 62
7
  6
CONTINUOUS
 10
84.527960878
 20
102.6085354812
 11
84.5422701782
 21
102.629196212
  0
LINE
  5
343
100
AcDbEntity
  8
RACCORDO
100
AcDbLine
 62
7
  6
CONTINUOUS
 10
84.5061618551
 20
102.577431297
 11
84.527960878
 21
102.6085354812
  0
LINE
  5
344
100
AcDbEntity
  8
RACCORDO
100
AcDbLine
 62
7
  6
CONTINUOUS
 10
84.4693485629
 20
102.5255670695
 11
84.5061618551
 21
102.577431297
  0
LINE
  5
345
100
AcDbEntity
  8
RACCORDO
100
AcDbLine
 62
7
  6
CONTINUOUS
 10
84.447239064
 20
102.4946365971
 11
84.4693485629
 21
102.5255670695
  0
LINE
  5
346
100
AcDbEntity
  8
INCISIONI
100
AcDbLine
 62
250
  6
CONTINUOUS
 10
84.1928759624
 20
99.4573682761
 11
83.9214887187
 21
99.1533684211
  0
LINE
  5
347
100
AcDbEntity
  8
INCISIONI
100
AcDbLine
 62
250
  6
CONTINUOUS
 10
83.3787142596
 20
97.1773683486
 11
83.1073269877
 21
96.8733683667
  0
LINE
  5
348
100
AcDbEntity
  8
CURVE
100
AcDbLine
 62
250
  6
CONTINUOUS
 10
97.1928759624
 20
73.0473684211
 11
95.8930739586
 21
73.0473684211
  0
LINE
  5
349
100
AcDbEntity
  8
INCISIONI
100
AcDbLine
 62
250
  6
CONTINUOUS
 10
82.8358636139
 20
73.2173683924
 11
82.1931044196
 21
73.2173683924
  0
LINE
  5
34A
100
AcDbEntity
  8
CURVE
100
AcDbLine
 62
250
  6
CONTINUOUS
 10
96.2644459376
 20
73.4187969703
 11
96.0787599481
 21
73.4187969703
  0
LINE
  5
34B
100
AcDbEntity
  8
ASSI
100
AcDbLine
 62
7
  6
CONTINUOUS
 10
103.6928759624
 20
73.4878194211
 11
103.8928759624
 21
73.4878194211
  0
LINE
  5
34C
100
AcDbEntity
  8
0
100
AcDbLine
 62
7
  6
CONTINUOUS
 10
103.6928759624
 20
73.5255824211
 11
103.8928759624
 21
73.5255824211
  0
LINE
  5
34D
100
AcDbEntity
  8
0
100
AcDbLine
 62
7
  6
CONTINUOUS
 10
103.6928759624
 20
73.8607774211
 11
103.8928759624
 21
73.8607774211
  0
LINE
  5
34E
100
AcDbEntity
  8
ASSI
100
AcDbLine
 62
7
  6
CONTINUOUS
 10
103.6928759624
 20
73.8611644211
 11
103.8928759624
 21
73.8611644211
  0
LINE
  5
34F
100
AcDbEntity
  8
INCISIONI
100
AcDbLine
 62
250
  6
CONTINUOUS
 10
83.4786228752
 20
73.9373684497
 11
83.0501167234
 21
73.9373684497
  0
LINE
  5
350
100
AcDbEntity
  8
CURVE
100
AcDbLine
 62
250
  6
CONTINUOUS
 10
97.0071899535
 20
74.0687969703
 11
96.8215039447
 21
74.0687969703
  0
LINE
  5
351
100
AcDbEntity
  8
INCISIONI
100
AcDbLine
 62
250
  6
CONTINUOUS
 10
83.2643697881
 20
74.4173684211
 11
82.6216105491
 21
74.4173684211
  0
LINE
  5
352
100
AcDbEntity
  8
INCISIONI
100
AcDbLine
 62
250
  6
CONTINUOUS
 10
79.9707957599
 20
74.7587017665
 11
79.5637148803
 21
74.7587017665
  0
LINE
  5
353
100
AcDbEntity
  8
ASSI
100
AcDbLine
 62
7
  6
CONTINUOUS
 10
103.6928759624
 20
74.7601814211
 11
103.8928759624
 21
74.7601814211
  0
LINE
  5
354
100
AcDbEntity
  8
INCISIONI
100
AcDbLine
 62
250
  6
CONTINUOUS
 10
81.0563446639
 20
74.8093684301
 11
80.377876583
 21
74.8093684301
  0
LINE
  5
355
100
AcDbEntity
  8
INCISIONI
100
AcDbLine
 62
250
  6
CONTINUOUS
 10
82.6216105491
 20
75.2573684211
 11
83.2643697881
 21
75.2573684211
  0
LINE
  5
356
100
AcDbEntity
  8
INCISIONI
100
AcDbLine
 62
250
  6
CONTINUOUS
 10
82.6216105491
 20
74.4173684211
 11
82.4073574844
 21
74.5373683638
  0
LINE
  5
357
100
AcDbEntity
  8
INCISIONI
100
AcDbLine
 62
250
  6
CONTINUOUS
 10
82.1931044196
 20
72.1373684318
 11
82.5144840615
 21
71.8973684211
  0
LINE
  5
358
100
AcDbEntity
  8
INCISIONI
100
AcDbLine
 62
250
  6
CONTINUOUS
 10
83.6928759624
 20
71.8973684211
 11
82.6216105491
 21
72.7373684211
  0
LINE
  5
359
100
AcDbEntity
  8
RACCORDO
100
AcDbLine
 62
7
  6
CONTINUOUS
 10
84.4841110597
 20
65.2484473584
 11
84.447239064
 21
65.300100245
  0
LINE
  5
35A
100
AcDbEntity
  8
RACCORDO
100
AcDbLine
 62
7
  6
CONTINUOUS
 10
84.5134621694
 20
65.2069269603
 11
84.4841110597
 21
65.2484473584
  0
LINE
  5
35B
100
AcDbEntity
  8
RACCORDO
100
AcDbLine
 62
7
  6
CONTINUOUS
 10
84.5351413527
 20
65.1758605317
 11
84.5134621694
 21
65.2069269603
  0
LINE
  5
35C
100
AcDbEntity
  8
RACCORDO
100
AcDbLine
 62
7
  6
CONTINUOUS
 10
84.5493469239
 20
65.1552468854
 11
84.5351413527
 21
65.1758605317
  0
LWPOLYLINE
  5
35D
100
AcDbEntity
  8
RACCORDO
100
AcDbPolyline
 62
7
  6
CONTINUOUS
 90
3
 70
0
 10
84.570152525
 20
65.1245523108
 10
84.5632882172
 20
65.1347468916
 10
84.5493469239
 20
65.1552468854
  0
LINE
  5
35E
100
AcDbEntity
  8
INCISIONI
100
AcDbLine
 62
250
  6
CONTINUOUS
 10
80.2930130367
 20
67.0973684211
 11
78.5924342783
 21
71.0973684211
  0
LWPOLYLINE
  5
35F
100
AcDbEntity
  8
0
100
AcDbPolyline
 62
7
  6
CONTINUOUS
 90
24
 70
0
 10
71.2038774581
 20
99.3712838263
 10
71.2037070645
 20
99.3720471051
 10
71.1801362666
 20
99.4743867415
 10
71.1566953053
 20
99.5728275921
 10
71.1333793035
 20
99.6673290985
 10
71.1101783259
 20
99.7578780854
 10
71.0870870677
 20
99.8444493776
 10
71.0640973239
 20
99.9270359696
 10
71.0411915908
 20
100.0056685361
 10
71.0183383539
 20
100.0804233818
 10
70.9955242362
 20
100.1513141591
 10
70.97271545
 20
100.2184178593
 10
70.949825082
 20
100.281947242
 10
70.9268074865
 20
100.3419695667
 10
70.9036155109
 20
100.3985443402
 10
70.8801097811
 20
100.4519237834
 10
70.8562189363
 20
100.5021558748
 10
70.8318278345
 20
100.5493542687
 10
70.8066345954
 20
100.5939095115
 10
70.7804969468
 20
100.6358163225
 10
70.7531934684
 20
100.6751397947
 10
70.7241263023
 20
100.7123178862
 10
70.6930177696
 20
100.7471469226
 10
70.6928759624
 20
100.7472834461
  0
LWPOLYLINE
  5
360
100
AcDbEntity
  8
0
100
AcDbPolyline
 62
7
  6
CONTINUOUS
 90
37
 70
0
 10
73.7636963384
 20
100.5253049421
 10
73.7626084689
 20
100.5350092949
 10
73.7615100332
 20
100.5444028232
 10
73.760394281
 20
100.553535214
 10
73.7592600602
 20
100.5624050298
 10
73.7581037621
 20
100.5710288672
 10
73.7569126339
 20
100.5794836142
 10
73.7556853569
 20
100.5877555965
 10
73.7544141093
 20
100.5958731046
 10
73.7530710461
 20
100.6039749934
 10
73.7516507316
 20
100.6120431212
 10
73.7501387808
 20
100.6201052468
 10
73.7484810282
 20
100.6283702203
 10
73.7466598447
 20
100.6368214439
 10
73.744645938
 20
100.6454835977
 10
73.7423383452
 20
100.654636883
 10
73.7397022172
 20
100.6642282258
 10
73.7366643991
 20
100.6743204428
 10
73.7330007495
 20
100.6853675472
 10
73.7285722566
 20
100.6974014777
 10
73.7232610203
 20
100.7103323853
 10
73.7167746833
 20
100.7243985529
 10
73.7087778465
 20
100.7397335088
 10
73.6991473738
 20
100.7559526164
 10
73.6879120557
 20
100.7724914709
 10
73.6749066632
 20
100.7891464505
 10
73.659944038
 20
100.8056973219
 10
73.6431631691
 20
100.8215957033
 10
73.6246042611
 20
100.8365747559
 10
73.6041944754
 20
100.850499145
 10
73.5820539137
 20
100.8630901646
 10
73.5583146789
 20
100.8740924637
 10
73.5330211748
 20
100.8832924869
 10
73.5062177439
 20
100.8904414229
 10
73.4780376865
 20
100.8952293309
 10
73.4487132226
 20
100.8973089859
 10
73.4428699657
 20
100.8973684132
  0
LINE
  5
361
100
AcDbEntity
  8
0
100
AcDbLine
 62
7
  6
CONTINUOUS
 10
73.16607829
 20
100.47350281
 11
73.1675311488
 21
100.4606560681
  0
LINE
  5
362
100
AcDbEntity
  8
INCISIONI
100
AcDbLine
 62
250
  6
CONTINUOUS
 10
77.3090396151
 20
67.9973684211
 11
77.3090396151
 21
69.9973684211
  0
LWPOLYLINE
  5
363
100
AcDbEntity
  8
0
100
AcDbPolyline
 62
7
  6
CONTINUOUS
 90
13
 70
0
 10
72.5940200297
 20
68.4113214254
 10
72.5847346656
 20
68.3721515367
 10
72.5620415263
 20
68.279823375
 10
72.5396516834
 20
68.1921805028
 10
72.5175801807
 20
68.109268919
 10
72.4958353598
 20
68.0310935404
 10
72.4744765046
 20
67.9578177965
 10
72.4535176686
 20
67.8894164925
 10
72.4329884759
 20
67.8258980859
 10
72.412995612
 20
67.7674680046
 10
72.3935627161
 20
67.7140379028
 10
72.3747538152
 20
67.665607932
 10
72.3667308284
 20
67.6463576184
  0
LINE
  5
364
100
AcDbEntity
  8
INCISIONI
100
AcDbLine
 62
250
  6
CONTINUOUS
 10
83.9214887187
 20
96.1133684754
 11
84.1928759624
 21
96.4173684573
  0
LINE
  5
365
100
AcDbEntity
  8
ASSI
100
AcDbLine
 62
7
  6
CONTINUOUS
 10
103.6928759624
 20
75.3202304211
 11
103.8928759624
 21
75.3202304211
  0
LINE
  5
366
100
AcDbEntity
  8
ASSI
100
AcDbLine
 62
7
  6
CONTINUOUS
 10
103.6928759624
 20
76.2192614211
 11
103.8928759624
 21
76.2192614211
  0
LINE
  5
367
100
AcDbEntity
  8
0
100
AcDbLine
 62
7
  6
CONTINUOUS
 10
103.6928759624
 20
76.3166304211
 11
103.8928759624
 21
76.3166304211
  0
LINE
  5
368
100
AcDbEntity
  8
ASSI
100
AcDbLine
 62
7
  6
CONTINUOUS
 10
103.6928759624
 20
76.5926064211
 11
103.8928759624
 21
76.5926064211
  0
LINE
  5
369
100
AcDbEntity
  8
CURVE
100
AcDbLine
 62
250
  6
CONTINUOUS
 10
96.2644459376
 20
76.8545113225
 11
96.0787599481
 21
76.8545113225
  0
LINE
  5
36A
100
AcDbEntity
  8
RACCORDO
100
AcDbLine
 62
7
  6
CONTINUOUS
 10
103.8928759624
 20
75.5963212139
 11
106.3944467515
 21
75.5832229002
  0
LINE
  5
36B
100
AcDbEntity
  8
INCISIONI
100
AcDbLine
 62
250
  6
CONTINUOUS
 10
83.6928759624
 20
76.2173683638
 11
82.1931044196
 21
76.6973685355
  0
LINE
  5
36C
100
AcDbEntity
  8
INCISIONI
100
AcDbLine
 62
250
  6
CONTINUOUS
 10
83.2643697881
 20
75.2573684211
 11
83.4786228752
 21
75.1373684783
  0
LINE
  5
36D
100
AcDbEntity
  8
INCISIONI
100
AcDbLine
 62
250
  6
CONTINUOUS
 10
81.1920382857
 20
74.6573684392
 11
81.0563446639
 21
74.8093684301
  0
LINE
  5
36E
100
AcDbEntity
  8
INCISIONI
100
AcDbLine
 62
250
  6
CONTINUOUS
 10
82.4073574844
 20
74.5373683638
 11
82.1931044196
 21
74.7773684497
  0
LINE
  5
36F
100
AcDbEntity
  8
INCISIONI
100
AcDbLine
 62
250
  6
CONTINUOUS
 10
83.6928759624
 20
73.6973683638
 11
83.4786228752
 21
73.9373684497
  0
LINE
  5
370
100
AcDbEntity
  8
INCISIONI
100
AcDbLine
 62
250
  6
CONTINUOUS
 10
83.4786228752
 20
75.1373684783
 11
83.6928759624
 21
74.8973683924
  0
LINE
  5
371
100
AcDbEntity
  8
INCISIONI
100
AcDbLine
 62
250
  6
CONTINUOUS
 10
80.106489311
 20
74.5053684482
 11
79.9707957599
 21
74.7587017665
  0
LWPOLYLINE
  5
372
100
AcDbEntity
  8
0
100
AcDbPolyline
 62
7
  6
CONTINUOUS
 90
14
 70
0
 10
73.1612230532
 20
100.5083045898
 10
73.1611589027
 20
100.5085911728
 10
73.1610560385
 20
100.5090690934
 10
73.1611322701
 20
100.5086857071
 10
73.1613238681
 20
100.5076626579
 10
73.1616128565
 20
100.5060284701
 10
73.161995226
 20
100.5037418084
 10
73.1624414601
 20
100.5009257916
 10
73.1629433498
 20
100.4975929395
 10
73.1634988933
 20
100.4937187524
 10
73.1640937287
 20
100.4893708772
 10
73.1647237931
 20
100.4845534405
 10
73.1653878341
 20
100.4792512426
 10
73.16607829
 20
100.47350281
  0
LWPOLYLINE
  5
373
100
AcDbEntity
  8
INCISIONI
100
AcDbPolyline
 62
250
  6
CONTINUOUS
 90
43
 70
0
 10
78.6981457756
 20
96.228637349
 10
78.699337326
 20
96.1981708952
 10
78.7007685047
 20
96.1677185888
 10
78.702551952
 20
96.1372875621
 10
78.7048003082
 20
96.1068849475
 10
78.7067113409
 20
96.0856243385
 10
78.7089448579
 20
96.064393247
 10
78.7115403151
 20
96.0432037719
 10
78.714537168
 20
96.0220680122
 10
78.7179748724
 20
96.0009980668
 10
78.7212021921
 20
95.9835097978
 10
78.7247812292
 20
95.9660884844
 10
78.7287305372
 20
95.9487470381
 10
78.7330686696
 20
95.9314983703
 10
78.73781418
 20
95.9143553922
 10
78.7429856219
 20
95.8973310153
 10
78.7485982492
 20
95.8804473645
 10
78.7546688244
 20
95.863719782
 10
78.7612111937
 20
95.8471729369
 10
78.768239203
 20
95.8308314981
 10
78.7757666983
 20
95.8147201348
 10
78.7838075257
 20
95.798863516
 10
78.7901898168
 20
95.7871426062
 10
78.7968759396
 20
95.7755944436
 10
78.8038726134
 20
95.7642343003
 10
78.8111865573
 20
95.7530774484
 10
78.8188218098
 20
95.7421378749
 10
78.8267723758
 20
95.7314234482
 10
78.8350295893
 20
95.7209407579
 10
78.8435847845
 20
95.7106963936
 10
78.8537002286
 20
95.6993050687
 10
78.8641777311
 20
95.688239335
 10
78.8750025948
 20
95.6775058465
 10
78.8861601224
 20
95.6671112575
 10
78.8976356164
 20
95.6570622224
 10
78.9094143796
 20
95.6473653954
 10
78.9214817147
 20
95.6380274307
 10
78.935926698
 20
95.6275810741
 10
78.9507241541
 20
95.6176449346
 10
78.9658527112
 20
95.6082302907
 10
78.981290997
 20
95.5993484212
 10
78.9970176397
 20
95.5910106047
 10
79.0130112672
 20
95.5832281199
  0
LINE
  5
374
100
AcDbEntity
  8
INCISIONI
100
AcDbLine
 62
250
  6
CONTINUOUS
 10
78.6948824922
 20
96.3200502709
 11
78.6981457756
 21
96.228637349
  0
LINE
  5
375
100
AcDbEntity
  8
INCISIONI
100
AcDbLine
 62
250
  6
CONTINUOUS
 10
78.6948813892
 20
96.3200514211
 11
78.6948813892
 21
97.0789464211
  0
LINE
  5
376
100
AcDbEntity
  8
INCISIONI
100
AcDbLine
 62
250
  6
CONTINUOUS
 10
78.6948813892
 20
98.9453634211
 11
78.6948813892
 21
100.1241234211
  0
LINE
  5
377
100
AcDbEntity
  8
INCISIONI
100
AcDbLine
 62
250
  6
CONTINUOUS
 10
78.6948813892
 20
101.6942084211
 11
78.6948813892
 21
103.0791114211
  0
LINE
  5
378
100
AcDbEntity
  8
INCISIONI
100
AcDbLine
 62
250
  6
CONTINUOUS
 10
78.8757579624
 20
79.6220474211
 11
78.8757579624
 21
80.1726894211
  0
LINE
  5
379
100
AcDbEntity
  8
INCISIONI
100
AcDbLine
 62
250
  6
CONTINUOUS
 10
79.2923276649
 20
74.5053684482
 11
79.2923276649
 21
73.8973684211
  0
LINE
  5
37A
100
AcDbEntity
  8
INCISIONI
100
AcDbLine
 62
250
  6
CONTINUOUS
 10
80.106489311
 20
74.5053684482
 11
80.106489311
 21
74.2013684346
  0
LWPOLYLINE
  5
37B
100
AcDbEntity
  8
INCISIONI
100
AcDbPolyline
 62
250
  6
CONTINUOUS
 90
49
 70
0
 10
81.4045081104
 20
101.932018007
 10
81.4021341922
 20
101.9199374492
 10
81.3993960957
 20
101.9079296989
 10
81.3962968447
 20
101.8960076731
 10
81.3928394631
 20
101.8841842889
 10
81.3890271132
 20
101.8724719707
 10
81.3848635112
 20
101.860881173
 10
81.3803525116
 20
101.8494218578
 10
81.3754979691
 20
101.8381039871
 10
81.3703039647
 20
101.8269375451
 10
81.3647754857
 20
101.8159326039
 10
81.3589177458
 20
101.8050992578
 10
81.3527359589
 20
101.7944476012
 10
81.3462355265
 20
101.7839875815
 10
81.3394226014
 20
101.7737285591
 10
81.3323035241
 20
101.7636797477
 10
81.3248846351
 20
101.7538503609
 10
81.3171724545
 20
101.7442494819
 10
81.3091742195
 20
101.734885672
 10
81.3008973468
 20
101.7257673622
 10
81.2923492532
 20
101.7169029836
 10
81.2835375152
 20
101.7083008057
 10
81.2744703478
 20
101.6999684533
 10
81.2651561261
 20
101.6919133897
 10
81.255603225
 20
101.6841430784
 10
81.2458201586
 20
101.6766648061
 10
81.2358159974
 20
101.6694851535
 10
81.2255999513
 20
101.6626105248
 10
81.21518123
 20
101.656047324
 10
81.2045691627
 20
101.6498017624
 10
81.1937735567
 20
101.6438792791
 10
81.1828043387
 20
101.6382851205
 10
81.1716714353
 20
101.6330245327
 10
81.1603848582
 20
101.6281025572
 10
81.1489549587
 20
101.6235234156
 10
81.1373921732
 20
101.6192911248
 10
81.125706938
 20
101.6154097016
 10
81.1139097882
 20
101.6118829459
 10
81.1020116543
 20
101.6087137899
 10
81.0900235659
 20
101.6059049489
 10
81.0779565523
 20
101.6034591383
 10
81.0658215686
 20
101.601378858
 10
81.0536292727
 20
101.5996657473
 10
81.0413902482
 20
101.5983212305
 10
81.0291150787
 20
101.5973467315
 10
81.0168147941
 20
101.5967434249
 10
81.0045022103
 20
101.5965114867
 10
80.9921905893
 20
101.5966508433
 10
80.9798931934
 20
101.5971614211
  0
LINE
  5
37C
100
AcDbEntity
  8
CURVE
100
AcDbLine
 62
250
  6
CONTINUOUS
 10
96.2644459376
 20
77.8759400267
 11
96.0787599481
 21
77.8759400267
  0
LINE
  5
37D
100
AcDbEntity
  8
ASSI
100
AcDbLine
 62
7
  6
CONTINUOUS
 10
103.6928759624
 20
77.9039864211
 11
103.8928759624
 21
77.9039864211
  0
LINE
  5
37E
100
AcDbEntity
  8
0
100
AcDbLine
 62
250
  6
CONTINUOUS
 10
88.989454005
 20
78.6988104211
 11
83.9909369496
 21
78.6988104211
  0
LINE
  5
37F
100
AcDbEntity
  8
ASSI
100
AcDbLine
 62
7
  6
CONTINUOUS
 10
103.6928759624
 20
78.7627079204
 11
103.8928759624
 21
78.7627079204
  0
LINE
  5
380
100
AcDbEntity
  8
ASSI
100
AcDbLine
 62
7
  6
CONTINUOUS
 10
103.6928759624
 20
78.8334604211
 11
103.8928759624
 21
78.8334604211
  0
LINE
  5
381
100
AcDbEntity
  8
0
100
AcDbLine
 62
7
  6
CONTINUOUS
 10
103.6928759624
 20
78.8431484211
 11
103.8928759624
 21
78.8431484211
  0
LINE
  5
382
100
AcDbEntity
  8
CURVE
100
AcDbLine
 62
250
  6
CONTINUOUS
 10
96.2644459376
 20
78.8973684211
 11
96.0787599481
 21
78.8973684211
  0
LINE
  5
383
100
AcDbEntity
  8
0
100
AcDbLine
 62
7
  6
CONTINUOUS
 10
103.6928759624
 20
79.0228004211
 11
103.8928759624
 21
79.0228004211
  0
LINE
  5
384
100
AcDbEntity
  8
0
100
AcDbLine
 62
7
  6
CONTINUOUS
 10
103.6928759624
 20
79.2187524211
 11
103.8928759624
 21
79.2187524211
  0
LINE
  5
385
100
AcDbEntity
  8
0
100
AcDbLine
 62
250
  6
CONTINUOUS
 10
84.5462897451
 20
79.2541594211
 11
86.2123471319
 21
79.2541594211
  0
LINE
  5
386
100
AcDbEntity
  8
0
100
AcDbLine
 62
250
  6
CONTINUOUS
 10
86.767871875
 20
79.2541594211
 11
88.4339292618
 21
79.2541594211
  0
LINE
  5
387
100
AcDbEntity
  8
CURVE
100
AcDbLine
 62
250
  6
CONTINUOUS
 10
96.5429749605
 20
79.2687968154
 11
97.0071899535
 21
79.2687968154
  0
LINE
  5
388
100
AcDbEntity
  8
CURVE
100
AcDbLine
 62
250
  6
CONTINUOUS
 10
97.1928759624
 20
75.2759397168
 11
95.8930739586
 21
75.5545113225
  0
LINE
  5
389
100
AcDbEntity
  8
CURVE
100
AcDbLine
 62
250
  6
CONTINUOUS
 10
97.1928759624
 20
74.7187969703
 11
96.2644459376
 21
74.9973684211
  0
LINE
  5
38A
100
AcDbEntity
  8
INCISIONI
100
AcDbLine
 62
250
  6
CONTINUOUS
 10
80.6928759624
 20
79.8973684211
 11
79.5448859624
 21
81.3762814211
  0
LWPOLYLINE
  5
38B
100
AcDbEntity
  8
INCISIONI
100
AcDbPolyline
 62
250
  6
CONTINUOUS
 90
53
 70
0
 10
81.3766064005
 20
96.3651286199
 10
81.3774886036
 20
96.3541731337
 10
81.3780409058
 20
96.3431921162
 10
81.3782627823
 20
96.3321973525
 10
81.3781537085
 20
96.3212006273
 10
81.3777133963
 20
96.3102133375
 10
81.3769425047
 20
96.2992453274
 10
81.3758419295
 20
96.2883060533
 10
81.3744125663
 20
96.2774049713
 10
81.3726554993
 20
96.2665516114
 10
81.3705725652
 20
96.2557557978
 10
81.3681657891
 20
96.2450274286
 10
81.365437196
 20
96.2343764019
 10
81.3623890066
 20
96.2238125354
 10
81.3590242247
 20
96.2133453266
 10
81.3553460498
 20
96.2029841927
 10
81.3513576814
 20
96.1927385511
 10
81.3470625037
 20
96.1826177509
 10
81.3424646397
 20
96.1726308689
 10
81.337568397
 20
96.162786914
 10
81.3323780834
 20
96.1530948949
 10
81.3268981816
 20
96.1435637213
 10
81.3211338751
 20
96.1342019062
 10
81.3150905222
 20
96.1250178633
 10
81.3087734816
 20
96.1160200064
 10
81.3021882739
 20
96.1072166323
 10
81.2953410682
 20
96.09861557
 10
81.2882381958
 20
96.0902245313
 10
81.280885988
 20
96.0820512283
 10
81.2732909225
 20
96.0741032365
 10
81.2654600616
 20
96.0663875861
 10
81.257400614
 20
96.0589111711
 10
81.2491197885
 20
96.0516808853
 10
81.2406249251
 20
96.0447034701
 10
81.231923889
 20
96.0379850565
 10
81.2230246767
 20
96.031531623
 10
81.2139352846
 20
96.0253491483
 10
81.2046638121
 20
96.0194434427
 10
81.195218769
 20
96.0138196448
 10
81.1856087678
 20
96.0084827253
 10
81.1758424211
 20
96.0034376547
 10
81.1659284581
 20
95.9986892271
 10
81.1558760744
 20
95.9942415306
 10
81.1456945825
 20
95.9900984769
 10
81.1353932946
 20
95.9862639776
 10
81.1249814876
 20
95.9827417455
 10
81.1144682958
 20
95.9795346971
 10
81.1038628178
 20
95.9766455503
 10
81.0931741524
 20
95.9740770227
 10
81.082411825
 20
95.9718316752
 10
81.0715870673
 20
95.9699114413
 10
81.0607115379
 20
95.9683180977
 10
81.0497968952
 20
95.9670534211
  0
LINE
  5
38C
100
AcDbEntity
  8
INCISIONI
100
AcDbLine
 62
250
  6
CONTINUOUS
 10
80.2676255912
 20
88.9719774211
 11
80.2676255912
 21
90.4324774211
  0
LINE
  5
38D
100
AcDbEntity
  8
INCISIONI
100
AcDbLine
 62
250
  6
CONTINUOUS
 10
80.2921753601
 20
70.6973684211
 11
80.2921753601
 21
73.3973684211
  0
LINE
  5
38E
100
AcDbEntity
  8
INCISIONI
100
AcDbLine
 62
250
  6
CONTINUOUS
 10
80.2930130367
 20
64.3973684211
 11
80.2930130367
 21
67.0973684211
  0
LINE
  5
38F
100
AcDbEntity
  8
INCISIONI
100
AcDbLine
 62
250
  6
CONTINUOUS
 10
81.0173971513
 20
90.4324774211
 11
81.0173971513
 21
88.9719774211
  0
LINE
  5
390
100
AcDbEntity
  8
INCISIONI
100
AcDbLine
 62
250
  6
CONTINUOUS
 10
81.1920382857
 20
73.8973684211
 11
81.1920382857
 21
74.6573684392
  0
LINE
  5
391
100
AcDbEntity
  8
INCISIONI
100
AcDbLine
 62
250
  6
CONTINUOUS
 10
81.6928759624
 20
102.8425334211
 11
81.6928759624
 21
101.0936134211
  0
LINE
  5
392
100
AcDbEntity
  8
INCISIONI
100
AcDbLine
 62
250
  6
CONTINUOUS
 10
81.6928759624
 20
99.7354784211
 11
81.6928759624
 21
98.2446914211
  0
LINE
  5
393
100
AcDbEntity
  8
INCISIONI
100
AcDbLine
 62
250
  6
CONTINUOUS
 10
81.6928759624
 20
93.3973684211
 11
81.6928759624
 21
94.3544664211
  0
LINE
  5
394
100
AcDbEntity
  8
INCISIONI
100
AcDbLine
 62
250
  6
CONTINUOUS
 10
81.6928759624
 20
95.4672114211
 11
81.6928759624
 21
97.2195114211
  0
LWPOLYLINE
  5
395
100
AcDbEntity
  8
0
100
AcDbPolyline
 62
7
  6
CONTINUOUS
 90
2
 70
0
 43
0.3500000006
 10
82.1571627502
 20
127.6569723816
 10
82.1571627502
 20
129.1569637756
  0
LINE
  5
396
100
AcDbEntity
  8
INCISIONI
100
AcDbLine
 62
250
  6
CONTINUOUS
 10
82.1931044196
 20
72.4973684354
 11
82.1931044196
 21
72.1373684318
  0
LINE
  5
397
100
AcDbEntity
  8
INCISIONI
100
AcDbLine
 62
250
  6
CONTINUOUS
 10
82.1931044196
 20
73.2173683924
 11
82.1931044196
 21
73.9373684497
  0
LINE
  5
398
100
AcDbEntity
  8
INCISIONI
100
AcDbLine
 62
250
  6
CONTINUOUS
 10
82.1931044196
 20
74.7773684497
 11
82.1931044196
 21
74.8973683924
  0
LINE
  5
399
100
AcDbEntity
  8
INCISIONI
100
AcDbLine
 62
250
  6
CONTINUOUS
 10
82.2931653416
 20
99.4573682761
 11
82.2931653416
 21
99.6093682036
  0
LWPOLYLINE
  5
39A
100
AcDbEntity
  8
0
100
AcDbPolyline
 62
7
  6
CONTINUOUS
 90
3
 70
0
 43
0.3500000006
 10
91.4785922241
 20
117.9426849976
 10
91.4071610413
 20
117.7284005127
 10
91.2643077393
 20
117.442684845
  0
LINE
  5
39B
100
AcDbEntity
  8
0
100
AcDbLine
 62
250
  6
CONTINUOUS
 10
83.9909369496
 20
79.8098534211
 11
84.5462897451
 21
79.8098534211
  0
LINE
  5
39C
100
AcDbEntity
  8
0
100
AcDbLine
 62
250
  6
CONTINUOUS
 10
86.2123471319
 20
79.8098534211
 11
86.767871875
 21
79.8098534211
  0
LINE
  5
39D
100
AcDbEntity
  8
0
100
AcDbLine
 62
250
  6
CONTINUOUS
 10
88.4339292618
 20
79.8098534211
 11
88.989454005
 21
79.8098534211
  0
LINE
  5
39E
100
AcDbEntity
  8
INCISIONI
100
AcDbLine
 62
250
  6
CONTINUOUS
 10
78.8757579624
 20
79.8973684211
 11
82.5099939624
 21
79.8973684211
  0
LINE
  5
39F
100
AcDbEntity
  8
CURVE
100
AcDbLine
 62
250
  6
CONTINUOUS
 10
97.0071899535
 20
79.9187968154
 11
96.6358179552
 21
79.9187968154
  0
LINE
  5
3A0
100
AcDbEntity
  8
0
100
AcDbLine
 62
7
  6
CONTINUOUS
 10
103.6928759624
 20
79.9538964211
 11
103.8928759624
 21
79.9538964211
  0
LINE
  5
3A1
100
AcDbEntity
  8
0
100
AcDbLine
 62
7
  6
CONTINUOUS
 10
103.6928759624
 20
80.0205034211
 11
103.8928759624
 21
80.0205034211
  0
LINE
  5
3A2
100
AcDbEntity
  8
0
100
AcDbLine
 62
7
  6
CONTINUOUS
 10
103.6928759624
 20
80.2487044211
 11
103.8928759624
 21
80.2487044211
  0
LINE
  5
3A3
100
AcDbEntity
  8
0
100
AcDbLine
 62
250
  6
CONTINUOUS
 10
83.9909369496
 20
80.3652024211
 11
88.989454005
 21
80.3652024211
  0
LINE
  5
3A4
100
AcDbEntity
  8
CURVE
100
AcDbLine
 62
250
  6
CONTINUOUS
 10
95.8930739586
 20
80.6616542239
 11
97.1928759624
 21
80.6616542239
  0
LINE
  5
3A5
100
AcDbEntity
  8
0
100
AcDbLine
 62
7
  6
CONTINUOUS
 10
103.6928759624
 20
80.6647654211
 11
103.8928759624
 21
80.6647654211
  0
LINE
  5
3A6
100
AcDbEntity
  8
0
100
AcDbLine
 62
250
  6
CONTINUOUS
 10
88.989454005
 20
80.9208964211
 11
86.767871875
 21
80.9208964211
  0
LINE
  5
3A7
100
AcDbEntity
  8
0
100
AcDbLine
 62
250
  6
CONTINUOUS
 10
84.5462897451
 20
80.9208964211
 11
86.2123471319
 21
80.9208964211
  0
LINE
  5
3A8
100
AcDbEntity
  8
0
100
AcDbLine
 62
7
  6
CONTINUOUS
 10
103.6928759624
 20
81.0807094211
 11
103.8928759624
 21
81.0807094211
  0
LINE
  5
3A9
100
AcDbEntity
  8
0
100
AcDbLine
 62
7
  6
CONTINUOUS
 10
103.6928759624
 20
81.3110214211
 11
103.8928759624
 21
81.3110214211
  0
LINE
  5
3AA
100
AcDbEntity
  8
0
100
AcDbLine
 62
250
  6
CONTINUOUS
 10
86.2123471319
 20
81.4765904211
 11
84.5462897451
 21
81.4765904211
  0
LINE
  5
3AB
100
AcDbEntity
  8
0
100
AcDbLine
 62
250
  6
CONTINUOUS
 10
86.767871875
 20
81.4765904211
 11
88.989454005
 21
81.4765904211
  0
LINE
  5
3AC
100
AcDbEntity
  8
INCISIONI
100
AcDbLine
 62
250
  6
CONTINUOUS
 10
77.6512143729
 20
94.4740584211
 11
77.196221
 21
95.5223634211
  0
LINE
  5
3AD
100
AcDbEntity
  8
INCISIONI
100
AcDbLine
 62
250
  6
CONTINUOUS
 10
83.228660944
 20
77.1773683066
 11
83.1215344116
 21
77.4573684401
  0
LINE
  5
3AE
100
AcDbEntity
  8
INCISIONI
100
AcDbLine
 62
250
  6
CONTINUOUS
 10
83.3357874987
 20
77.7773684211
 11
83.228660944
 21
78.097368402
  0
LWPOLYLINE
  5
3AF
100
AcDbEntity
  8
INCISIONI
100
AcDbPolyline
 62
250
  6
CONTINUOUS
 90
43
 70
0
 10
78.6948824922
 20
98.9453636327
 10
78.7014165131
 20
98.9071049681
 10
78.7048235975
 20
98.8880004667
 10
78.7084062179
 20
98.8689276708
 10
78.7121327773
 20
98.8498821766
 10
78.7160281368
 20
98.8308709274
 10
78.7201287266
 20
98.8119028973
 10
78.724460469
 20
98.7929856064
 10
78.7290474891
 20
98.7741271949
 10
78.7339173524
 20
98.7553392183
 10
78.7390984628
 20
98.7366341817
 10
78.7446192243
 20
98.7180245898
 10
78.7492980517
 20
98.7032191641
 10
78.7542266129
 20
98.6884944244
 10
78.7594192221
 20
98.6738620086
 10
78.7648901935
 20
98.6593335547
 10
78.770653841
 20
98.6449207006
 10
78.7756909072
 20
98.6330030624
 10
78.7809418943
 20
98.6211782623
 10
78.786407419
 20
98.609450731
 10
78.7920920487
 20
98.5978273981
 10
78.7980163897
 20
98.5863247127
 10
78.8042050024
 20
98.5749616249
 10
78.8106801282
 20
98.5637574482
 10
78.8174551287
 20
98.552732273
 10
78.8245410527
 20
98.5419065566
 10
78.8319467142
 20
98.5312989053
 10
78.8396725322
 20
98.5209197483
 10
78.8477166987
 20
98.5107776694
 10
78.8548533653
 20
98.502293758
 10
78.8622228363
 20
98.4940055641
 10
78.8698260393
 20
98.4859288499
 10
78.8776639024
 20
98.4780793776
 10
78.8857373531
 20
98.4704729094
 10
78.8940473195
 20
98.4631252076
 10
78.9025947292
 20
98.4560520342
 10
78.9113762167
 20
98.4492687554
 10
78.92038197
 20
98.4427809642
 10
78.9295979802
 20
98.4365939752
 10
78.9390102384
 20
98.4307131028
 10
78.9486047358
 20
98.4251436616
 10
78.9583674634
 20
98.419890966
 10
78.9682844124
 20
98.4149603306
  0
LWPOLYLINE
  5
3B0
100
AcDbEntity
  8
RACCORDO
100
AcDbPolyline
 62
7
  6
CONTINUOUS
 90
28
 70
0
 10
84.6928759624
 20
64.8739329476
 10
84.692567457
 20
64.8808548631
 10
84.6918226473
 20
64.8880120721
 10
84.6906416854
 20
64.8953925998
 10
84.6889986326
 20
64.9029849595
 10
84.6869197484
 20
64.910777046
 10
84.6844834991
 20
64.9187558571
 10
84.6816950781
 20
64.9269077473
 10
84.6785496656
 20
64.935222886
 10
84.6751107131
 20
64.9436942395
 10
84.6713825455
 20
64.9523099659
 10
84.6673612148
 20
64.9610600629
 10
84.6630977442
 20
64.9699412295
 10
84.65859565
 20
64.9789429768
 10
84.6538517775
 20
64.9880559079
 10
84.6489071118
 20
64.9972795522
 10
84.6437642232
 20
65.0066050325
 10
84.6384208773
 20
65.0160233378
 10
84.632910818
 20
65.0255349484
 10
84.6272359684
 20
65.0351319848
 10
84.6213947159
 20
65.0448061714
 10
84.6154154704
 20
65.054558371
 10
84.6092996645
 20
65.0643815027
 10
84.6030461531
 20
65.0742679581
 10
84.5966794516
 20
65.0842186019
 10
84.5902006108
 20
65.0942270085
 10
84.5836088477
 20
65.1042861306
 10
84.570152525
 20
65.1245523108
  0
LWPOLYLINE
  5
3B1
100
AcDbEntity
  8
INCISIONI
100
AcDbPolyline
 62
250
  6
CONTINUOUS
 90
55
 70
0
 10
82.439180761
 20
90.8324801872
 10
82.4411843096
 20
90.7853132836
 10
82.4419508525
 20
90.7381019239
 10
82.441479532
 20
90.6908845339
 10
82.4397699864
 20
90.6436982759
 10
82.4368238362
 20
90.5965752589
 10
82.4326431976
 20
90.5495463288
 10
82.427230592
 20
90.5026426237
 10
82.4205901612
 20
90.4558964523
 10
82.4127264521
 20
90.4093404155
 10
82.4036444357
 20
90.3630069481
 10
82.3933507793
 20
90.3169278187
 10
82.3818525745
 20
90.2711346292
 10
82.3691573231
 20
90.2256588969
 10
82.3552741688
 20
90.1805317982
 10
82.3402126655
 20
90.1357844247
 10
82.3239827697
 20
90.0914477201
 10
82.3065960467
 20
90.0475520373
 10
82.2880644644
 20
90.0041275814
 10
82.2684003798
 20
89.961204387
 10
82.247617708
 20
89.9188118056
 10
82.2257307537
 20
89.8769790183
 10
82.2027541962
 20
89.8357350029
 10
82.1787042143
 20
89.7951079255
 10
82.1535973617
 20
89.7551257489
 10
82.1274505495
 20
89.7158162051
 10
82.1002821202
 20
89.6772061005
 10
82.0721107735
 20
89.6393220108
 10
82.042955548
 20
89.6021902524
 10
82.012836836
 20
89.5658361067
 10
81.9817753683
 20
89.5302845963
 10
81.9497921927
 20
89.4955604589
 10
81.9169096247
 20
89.461687294
 10
81.8831502968
 20
89.4286884162
 10
81.8485371355
 20
89.3965868319
 10
81.8130942441
 20
89.3654043128
 10
81.7768460202
 20
89.3351623224
 10
81.7398171279
 20
89.3058819928
 10
81.702033299
 20
89.2775831315
 10
81.6635205321
 20
89.2502852149
 10
81.6243050736
 20
89.2240073698
 10
81.5844141624
 20
89.1987673248
 10
81.5438752853
 20
89.1745824591
 10
81.5027161187
 20
89.1514697777
 10
81.4609650985
 20
89.1294447906
 10
81.4186508501
 20
89.1085226337
 10
81.3758022707
 20
89.0887180772
 10
81.3324493452
 20
89.0700444288
 10
81.2886223304
 20
89.0525146303
 10
81.2443513069
 20
89.0361411558
 10
81.1996656518
 20
89.0209346083
 10
81.1545945661
 20
89.0069051228
 10
81.1091685996
 20
88.9940626874
 10
81.0634236968
 20
88.9824167024
 10
81.0173971513
 20
88.9719764211
  0
LINE
  5
3B2
100
AcDbEntity
  8
RACCORDO
100
AcDbLine
 62
250
  6
CONTINUOUS
 10
83.7116887205
 20
107.7373989886
 11
83.7118554468
 21
107.7287671439
  0
LINE
  5
3B3
100
AcDbEntity
  8
RACCORDO
100
AcDbLine
 62
250
  6
CONTINUOUS
 10
83.711369464
 20
60.2177448473
 11
83.7103283688
 21
60.2872754972
  0
LINE
  5
3B4
100
AcDbEntity
  8
RACCORDO
100
AcDbLine
 62
250
  6
CONTINUOUS
 10
83.7118554468
 20
107.7287671439
 11
83.7119839879
 21
107.7187006023
  0
LINE
  5
3B5
100
AcDbEntity
  8
RACCORDO
100
AcDbLine
 62
250
  6
CONTINUOUS
 10
83.7119245484
 20
60.1623165084
 11
83.711369464
 21
60.2177448473
  0
LINE
  5
3B6
100
AcDbEntity
  8
RACCORDO
100
AcDbLine
 62
250
  6
CONTINUOUS
 10
83.7119839879
 20
107.7187006023
 11
83.7121034482
 21
107.7010559302
  0
LINE
  5
3B7
100
AcDbEntity
  8
RACCORDO
100
AcDbLine
 62
250
  6
CONTINUOUS
 10
83.7121234338
 20
60.1215463778
 11
83.7119245484
 21
60.1623165084
  0
LINE
  5
3B8
100
AcDbEntity
  8
INCISIONI
100
AcDbLine
 62
250
  6
CONTINUOUS
 10
82.5099939624
 20
79.6220474211
 11
82.5099939624
 21
80.1726894211
  0
LINE
  5
3B9
100
AcDbEntity
  8
INCISIONI
100
AcDbLine
 62
250
  6
CONTINUOUS
 10
82.8358636139
 20
73.6973683638
 11
82.8358636139
 21
73.2173683924
  0
LINE
  5
3BA
100
AcDbEntity
  8
INCISIONI
100
AcDbLine
 62
250
  6
CONTINUOUS
 10
82.8358636139
 20
67.4573683781
 11
82.8358636139
 21
66.9373684592
  0
LINE
  5
3BB
100
AcDbEntity
  8
INCISIONI
100
AcDbLine
 62
250
  6
CONTINUOUS
 10
83.1073269877
 20
96.8733683667
 11
83.1073269877
 21
96.2147018027
  0
LINE
  5
3BC
100
AcDbEntity
  8
INCISIONI
100
AcDbLine
 62
250
  6
CONTINUOUS
 10
83.1927889624
 20
80.4920614211
 11
83.1927889624
 21
79.8973684211
  0
LINE
  5
3BD
100
AcDbEntity
  8
INCISIONI
100
AcDbLine
 62
250
  6
CONTINUOUS
 10
83.2643697881
 20
68.3373683257
 11
83.2643697881
 21
68.9773684878
  0
LINE
  5
3BE
100
AcDbEntity
  8
INCISIONI
100
AcDbLine
 62
250
  6
CONTINUOUS
 10
83.6928759624
 20
74.8973683924
 11
83.6928759624
 21
74.7773684497
  0
LINE
  5
3BF
100
AcDbEntity
  8
INCISIONI
100
AcDbLine
 62
250
  6
CONTINUOUS
 10
83.6928759624
 20
72.7373684211
 11
83.6928759624
 21
71.8973684211
  0
LINE
  5
3C0
100
AcDbEntity
  8
INCISIONI
100
AcDbLine
 62
250
  6
CONTINUOUS
 10
83.6928759624
 20
67.0973684497
 11
83.6928759624
 21
67.4573683781
  0
LINE
  5
3C1
100
AcDbEntity
  8
INCISIONI
100
AcDbLine
 62
250
  6
CONTINUOUS
 10
83.6928759624
 20
73.2173683924
 11
83.6928759624
 21
73.6973683638
  0
LINE
  5
3C2
100
AcDbEntity
  8
RACCORDO
100
AcDbLine
 62
250
  6
CONTINUOUS
 10
83.7121034482
 20
107.7010559302
 11
83.7121334347
 21
107.6805893066
  0
LINE
  5
3C3
100
AcDbEntity
  8
0
100
AcDbLine
 62
250
  6
CONTINUOUS
 10
83.9909369496
 20
82.0319394211
 11
83.9909369496
 21
80.3652024211
  0
LINE
  5
3C4
100
AcDbEntity
  8
0
100
AcDbLine
 62
250
  6
CONTINUOUS
 10
83.9909369496
 20
78.6988104211
 11
83.9909369496
 21
79.8098534211
  0
LINE
  5
3C5
100
AcDbEntity
  8
0
100
AcDbLine
 62
250
  6
CONTINUOUS
 10
83.9909369496
 20
82.5876334211
 11
83.9909369496
 21
83.6986774211
  0
LINE
  5
3C6
100
AcDbEntity
  8
INCISIONI
100
AcDbLine
 62
250
  6
CONTINUOUS
 10
84.1928759624
 20
99.6093682036
 11
84.1928759624
 21
99.4573682761
  0
LINE
  5
3C7
100
AcDbEntity
  8
INCISIONI
100
AcDbLine
 62
250
  6
CONTINUOUS
 10
84.1928759624
 20
96.4173684573
 11
84.1928759624
 21
96.8733683667
  0
LINE
  5
3C8
100
AcDbEntity
  8
RACCORDO
100
AcDbLine
 62
250
  6
CONTINUOUS
 10
84.447239064
 20
61.0371612685
 11
84.447239064
 21
65.300100245
  0
LINE
  5
3C9
100
AcDbEntity
  8
RACCORDO
100
AcDbLine
 62
250
  6
CONTINUOUS
 10
84.447239064
 20
102.4946365971
 11
84.447239064
 21
106.7575755736
  0
LINE
  5
3CA
100
AcDbEntity
  8
0
100
AcDbLine
 62
250
  6
CONTINUOUS
 10
84.5462897451
 20
83.6986774211
 11
84.5462897451
 21
83.1429834211
  0
LINE
  5
3CB
100
AcDbEntity
  8
0
100
AcDbLine
 62
250
  6
CONTINUOUS
 10
84.5462897451
 20
81.4765904211
 11
84.5462897451
 21
80.9208964211
  0
LINE
  5
3CC
100
AcDbEntity
  8
0
100
AcDbLine
 62
250
  6
CONTINUOUS
 10
84.5462897451
 20
79.8098534211
 11
84.5462897451
 21
79.2541594211
  0
LINE
  5
3CD
100
AcDbEntity
  8
RACCORDO
100
AcDbLine
 62
250
  6
CONTINUOUS
 10
83.7121234338
 20
60.1002034896
 11
83.7121234338
 21
60.1215463778
  0
LINE
  5
3CE
100
AcDbEntity
  8
RACCORDO
100
AcDbLine
 62
250
  6
CONTINUOUS
 10
83.7121334347
 20
107.6805893066
 11
83.7120336686
 21
107.6494318014
  0
LINE
  5
3CF
100
AcDbEntity
  8
RACCORDO
100
AcDbLine
 62
250
  6
CONTINUOUS
 10
83.7120336686
 20
60.081587476
 11
83.7121234338
 21
60.1002034896
  0
LINE
  5
3D0
100
AcDbEntity
  8
RACCORDO
100
AcDbLine
 62
250
  6
CONTINUOUS
 10
83.7120336686
 20
107.6494318014
 11
83.7116887204
 21
107.6054201109
  0
LINE
  5
3D1
100
AcDbEntity
  8
RACCORDO
100
AcDbLine
 62
250
  6
CONTINUOUS
 10
83.7119245484
 20
60.0708274939
 11
83.7120336686
 21
60.081587476
  0
LINE
  5
3D2
100
AcDbEntity
  8
RACCORDO
100
AcDbLine
 62
250
  6
CONTINUOUS
 10
83.7116887204
 20
107.6054201109
 11
83.7109714327
 21
107.547550348
  0
LINE
  5
3D3
100
AcDbEntity
  8
RACCORDO
100
AcDbLine
 62
250
  6
CONTINUOUS
 10
83.7109714327
 20
107.547550348
 11
83.7103283688
 21
107.507461345
  0
LINE
  5
3D4
100
AcDbEntity
  8
INCISIONI
100
AcDbLine
 62
250
  6
CONTINUOUS
 10
79.5448859624
 20
78.4184554211
 11
80.6928759624
 21
79.8973684211
  0
LINE
  5
3D5
100
AcDbEntity
  8
INCISIONI
100
AcDbLine
 62
250
  6
CONTINUOUS
 10
92.8802748658
 20
93.4165734211
 11
92.5054770589
 21
92.9781634211
  0
LINE
  5
3D6
100
AcDbEntity
  8
0
100
AcDbLine
 62
250
  6
CONTINUOUS
 10
88.989454005
 20
82.0319394211
 11
83.9909369496
 21
82.0319394211
  0
LINE
  5
3D7
100
AcDbEntity
  8
0
100
AcDbLine
 62
250
  6
CONTINUOUS
 10
88.989454005
 20
82.5876334211
 11
83.9909369496
 21
82.5876334211
  0
LINE
  5
3D8
100
AcDbEntity
  8
0
100
AcDbLine
 62
250
  6
CONTINUOUS
 10
84.5462897451
 20
83.1429834211
 11
88.4339292618
 21
83.1429834211
  0
LINE
  5
3D9
100
AcDbEntity
  8
0
100
AcDbLine
 62
250
  6
CONTINUOUS
 10
83.9909369496
 20
83.6986774211
 11
84.5462897451
 21
83.6986774211
  0
LINE
  5
3DA
100
AcDbEntity
  8
0
100
AcDbLine
 62
250
  6
CONTINUOUS
 10
88.4339292618
 20
83.6986774211
 11
88.989454005
 21
83.6986774211
  0
LINE
  5
3DB
100
AcDbEntity
  8
CURVE
100
AcDbLine
 62
250
  6
CONTINUOUS
 10
95.8930739586
 20
76.3902255196
 11
96.1716029816
 21
76.2045113225
  0
LINE
  5
3DC
100
AcDbEntity
  8
INCISIONI
100
AcDbLine
 62
250
  6
CONTINUOUS
 10
78.5458248037
 20
94.2384964211
 11
78.0892609092
 21
95.2904184211
  0
LINE
  5
3DD
100
AcDbEntity
  8
INCISIONI
100
AcDbLine
 62
250
  6
CONTINUOUS
 10
77.196221
 20
98.3874034211
 11
77.6398258428
 21
97.3653414211
  0
LINE
  5
3DE
100
AcDbEntity
  8
INCISIONI
100
AcDbLine
 62
250
  6
CONTINUOUS
 10
78.6948813892
 20
95.1331234211
 11
79.1586200976
 21
94.0646684211
  0
LINE
  5
3DF
100
AcDbEntity
  8
RACCORDO
100
AcDbLine
 62
7
  6
CONTINUOUS
 10
84.6928759624
 20
64.8739329476
 11
84.6928759624
 21
61.0371612685
  0
LINE
  5
3E0
100
AcDbEntity
  8
RACCORDO
100
AcDbLine
 62
7
  6
CONTINUOUS
 10
84.6928759624
 20
102.9208038945
 11
84.6928759624
 21
106.7575755736
  0
LINE
  5
3E1
100
AcDbEntity
  8
0
100
AcDbLine
 62
250
  6
CONTINUOUS
 10
86.2123471319
 20
79.2541594211
 11
86.2123471319
 21
79.8098534211
  0
LINE
  5
3E2
100
AcDbEntity
  8
0
100
AcDbLine
 62
250
  6
CONTINUOUS
 10
86.2123471319
 20
80.9208964211
 11
86.2123471319
 21
81.4765904211
  0
LINE
  5
3E3
100
AcDbEntity
  8
0
100
AcDbLine
 62
250
  6
CONTINUOUS
 10
86.767871875
 20
79.8098534211
 11
86.767871875
 21
79.2541594211
  0
LINE
  5
3E4
100
AcDbEntity
  8
0
100
AcDbLine
 62
250
  6
CONTINUOUS
 10
86.767871875
 20
80.9208964211
 11
86.767871875
 21
81.4765904211
  0
LWPOLYLINE
  5
3E5
100
AcDbEntity
  8
RACCORDO
100
AcDbPolyline
 62
250
  6
CONTINUOUS
 90
58
 70
0
 10
84.447239064
 20
61.0371612685
 10
84.4469593209
 20
61.0167075537
 10
84.4461248003
 20
60.9962975797
 10
84.4447355019
 20
60.9759313466
 10
84.4427895828
 20
60.9555932996
 10
84.4402888861
 20
60.9352989935
 10
84.437238941
 20
60.9150950926
 10
84.4336385098
 20
60.8949822344
 10
84.4294888303
 20
60.8749597814
 10
84.4247991452
 20
60.8550724857
 10
84.4195682552
 20
60.8353207193
 10
84.4137973596
 20
60.8157041103
 10
84.4074992996
 20
60.7962662943
 10
84.4006729212
 20
60.7770077016
 10
84.3933193784
 20
60.757927902
 10
84.3854549737
 20
60.7390692407
 10
84.3770785422
 20
60.7204321439
 10
84.3681912489
 20
60.7020161855
 10
84.3588128915
 20
60.6838624329
 10
84.3489423917
 20
60.6659715057
 10
84.3385808278
 20
60.6483427844
 10
84.3277512324
 20
60.6310154774
 10
84.3164525535
 20
60.6139902409
 10
84.304685843
 20
60.5972664188
 10
84.2924772894
 20
60.5808812512
 10
84.2798259295
 20
60.5648355157
 10
84.2667327263
 20
60.5491284347
 10
84.2532267574
 20
60.5337949163
 10
84.2393070683
 20
60.5188357545
 10
84.2249746133
 20
60.5042501552
 10
84.2102613333
 20
60.4900706442
 10
84.1951664143
 20
60.4762981595
 10
84.1796906702
 20
60.4629317631
 10
84.1638684827
 20
60.4500011666
 10
84.1476990564
 20
60.4375073192
 10
84.1311831868
 20
60.4254492716
 10
84.1143576424
 20
60.413853888
 10
84.097221746
 20
60.402722208
 10
84.0797761748
 20
60.3920531919
 10
84.062059729
 20
60.3818705848
 10
84.0440717671
 20
60.3721754541
 10
84.0258129305
 20
60.3629667324
 10
84.0073239433
 20
60.3542649627
 10
83.9886043572
 20
60.3460713034
 10
83.9696546206
 20
60.338384596
 10
83.9505168024
 20
60.3312219084
 10
83.9311904509
 20
60.3245843884
 10
83.9116760178
 20
60.318470888
 10
83.8920169283
 20
60.3128950319
 10
83.8722127886
 20
60.307858014
 10
83.8522639924
 20
60.3033586403
 10
83.8322151458
 20
60.2994069527
 10
83.8120656305
 20
60.2960041807
 10
83.7918160647
 20
60.2931490948
 10
83.7715129096
 20
60.2908480482
 10
83.751171652
 20
60.2891031586
 10
83.7307768051
 20
60.2879123082
 10
83.7103283688
 20
60.2872754972
  0
LINE
  5
3E6
100
AcDbEntity
  8
INCISIONI
100
AcDbLine
 62
250
  6
CONTINUOUS
 10
92.6928759624
 20
95.7269554211
 11
91.1933318424
 21
93.1973684211
  0
LWPOLYLINE
  5
3E7
100
AcDbEntity
  8
0
100
AcDbPolyline
 62
250
  6
CONTINUOUS
 90
34
 70
0
 10
96.3489547294
 20
94.500911312
 10
96.3354260192
 20
94.48716201
 10
96.3222196493
 20
94.4730785079
 10
96.3093514404
 20
94.4586683167
 10
96.2968372134
 20
94.4439389474
 10
96.284692789
 20
94.4288979111
 10
96.2729339879
 20
94.4135527186
 10
96.261576631
 20
94.3979108811
 10
96.2506365388
 20
94.3819799095
 10
96.2401295323
 20
94.3657673149
 10
96.230171359
 20
94.349458171
 10
96.2206428787
 20
94.3328973354
 10
96.2115343356
 20
94.3161014536
 10
96.2028359735
 20
94.299087171
 10
96.1945380367
 20
94.2818711331
 10
96.186630769
 20
94.2644699854
 10
96.1791044147
 20
94.2469003733
 10
96.1719492175
 20
94.2291789424
 10
96.1651554217
 20
94.2113223381
 10
96.157242778
 20
94.1890934096
 10
96.1498334293
 20
94.1666999558
 10
96.1428937671
 20
94.1441584237
 10
96.1363901829
 20
94.1214852604
 10
96.130289068
 20
94.0986969128
 10
96.124556814
 20
94.0758098281
 10
96.1191598123
 20
94.0528404532
 10
96.1140644542
 20
94.0298052351
 10
96.107700419
 20
93.9990785563
 10
96.1017645832
 20
93.9682744835
 10
96.0962106694
 20
93.9374030637
 10
96.0909924002
 20
93.9064743443
 10
96.0860634982
 20
93.8754983722
 10
96.0813776861
 20
93.8444851948
 10
96.0768886865
 20
93.8134448591
  0
LINE
  5
3E8
100
AcDbEntity
  8
CURVE
100
AcDbLine
 62
250
  6
CONTINUOUS
 10
96.1716029816
 20
79.4545110125
 11
96.5429749605
 21
79.2687968154
  0
LINE
  5
3E9
100
AcDbEntity
  8
CURVE
100
AcDbLine
 62
250
  6
CONTINUOUS
 10
95.8930739586
 20
77.4116542239
 11
96.1716029816
 21
77.2259397168
  0
LINE
  5
3EA
100
AcDbEntity
  8
CURVE
100
AcDbLine
 62
250
  6
CONTINUOUS
 10
95.8930739586
 20
78.4330826182
 11
96.1716029816
 21
78.2473684211
  0
LINE
  5
3EB
100
AcDbEntity
  8
CURVE
100
AcDbLine
 62
250
  6
CONTINUOUS
 10
97.1928759624
 20
76.2045113225
 11
96.2644459376
 21
76.8545113225
  0
LINE
  5
3EC
100
AcDbEntity
  8
CURVE
100
AcDbLine
 62
250
  6
CONTINUOUS
 10
97.1928759624
 20
77.2259397168
 11
96.2644459376
 21
77.8759400267
  0
LINE
  5
3ED
100
AcDbEntity
  8
CURVE
100
AcDbLine
 62
250
  6
CONTINUOUS
 10
96.0787599481
 20
73.4187969703
 11
95.8930739586
 21
73.604511245
  0
LINE
  5
3EE
100
AcDbEntity
  8
CURVE
100
AcDbLine
 62
250
  6
CONTINUOUS
 10
97.1928759624
 20
73.8830827732
 11
97.0071899535
 21
74.0687969703
  0
LINE
  5
3EF
100
AcDbEntity
  8
INCISIONI
100
AcDbLine
 62
250
  6
CONTINUOUS
 10
80.1644066553
 20
99.4752714211
 11
80.3866159527
 21
98.9633014211
  0
LWPOLYLINE
  5
3F0
100
AcDbEntity
  8
INCISIONI
100
AcDbPolyline
 62
250
  6
CONTINUOUS
 90
37
 70
0
 10
81.6928759624
 20
99.7354784211
 10
81.6886683333
 20
99.7499691886
 10
81.6840706716
 20
99.7643454346
 10
81.6790869903
 20
99.7785948301
 10
81.6737213026
 20
99.7927050457
 10
81.6679776921
 20
99.8066642325
 10
81.6618605242
 20
99.8204624638
 10
81.6553742348
 20
99.8340902928
 10
81.64852326
 20
99.8475382732
 10
81.64131224
 20
99.8607969407
 10
81.6337466332
 20
99.8738567609
 10
81.6258321023
 20
99.8867081815
 10
81.61757431
 20
99.8993416505
 10
81.6089790736
 20
99.9117477551
 10
81.6000528293
 20
99.9239176406
 10
81.5908021676
 20
99.9358425913
 10
81.5812336792
 20
99.947513892
 10
81.5713541096
 20
99.9589229455
 10
81.5611708232
 20
99.970061628
 10
81.5506913389
 20
99.9809219344
 10
81.5399231761
 20
99.991495859
 10
81.5288739814
 20
100.0017755439
 10
81.5175519126
 20
100.011753719
 10
81.5059652552
 20
100.0214232619
 10
81.4941222945
 20
100.0307770498
 10
81.4820314647
 20
100.0398081058
 10
81.4697017951
 20
100.0485100358
 10
81.4571424637
 20
100.0568765916
 10
81.4443626486
 20
100.0649015247
 10
81.4313715229
 20
100.072578792
 10
81.4181782405
 20
100.0799031714
 10
81.4047919506
 20
100.0868696459
 10
81.3912218021
 20
100.0934731984
 10
81.3774774279
 20
100.0997088525
 10
81.3635703959
 20
100.1055717933
 10
81.3495127576
 20
100.1110572465
 10
81.3353165648
 20
100.1161604376
  0
LINE
  5
3F1
100
AcDbEntity
  8
0
100
AcDbLine
 62
250
  6
CONTINUOUS
 10
88.4339292618
 20
79.2541594211
 11
88.4339292618
 21
79.8098534211
  0
LINE
  5
3F2
100
AcDbEntity
  8
0
100
AcDbLine
 62
250
  6
CONTINUOUS
 10
88.4339292618
 20
83.1429834211
 11
88.4339292618
 21
83.6986774211
  0
LINE
  5
3F3
100
AcDbEntity
  8
0
100
AcDbLine
 62
250
  6
CONTINUOUS
 10
88.989454005
 20
83.6986774211
 11
88.989454005
 21
82.5876334211
  0
LINE
  5
3F4
100
AcDbEntity
  8
0
100
AcDbLine
 62
250
  6
CONTINUOUS
 10
88.989454005
 20
79.8098534211
 11
88.989454005
 21
78.6988104211
  0
LINE
  5
3F5
100
AcDbEntity
  8
0
100
AcDbLine
 62
250
  6
CONTINUOUS
 10
88.989454005
 20
80.3652024211
 11
88.989454005
 21
80.9208964211
  0
LINE
  5
3F6
100
AcDbEntity
  8
0
100
AcDbLine
 62
250
  6
CONTINUOUS
 10
88.989454005
 20
81.4765904211
 11
88.989454005
 21
82.0319394211
  0
LINE
  5
3F7
100
AcDbEntity
  8
INCISIONI
100
AcDbLine
 62
250
  6
CONTINUOUS
 10
92.6928759624
 20
90.6677814211
 11
94.1924200823
 21
93.1973684211
  0
LINE
  5
3F8
100
AcDbEntity
  8
INCISIONI
100
AcDbLine
 62
250
  6
CONTINUOUS
 10
83.1215344116
 20
77.4573684401
 11
83.3357874987
 21
77.7773684211
  0
LINE
  5
3F9
100
AcDbEntity
  8
INCISIONI
100
AcDbLine
 62
250
  6
CONTINUOUS
 10
80.377876583
 20
74.8093684301
 11
80.106489311
 21
74.5053684482
  0
LINE
  5
3FA
100
AcDbEntity
  8
INCISIONI
100
AcDbLine
 62
250
  6
CONTINUOUS
 10
82.1931044196
 20
74.8973683924
 11
82.4073574844
 21
75.1373684783
  0
LINE
  5
3FB
100
AcDbEntity
  8
ASSI
100
AcDbLine
 62
7
  6
CONTINUOUS
 10
71.9393225718
 20
65.3438150305
 11
71.6928759624
 21
65.0973684211
  0
LINE
  5
3FC
100
AcDbEntity
  8
0
100
AcDbLine
 62
250
  6
CONTINUOUS
 10
95.6176287209
 20
90.8972384211
 11
100.5941566562
 21
95.6289244211
  0
LINE
  5
3FD
100
AcDbEntity
  8
INCISIONI
100
AcDbLine
 62
250
  6
CONTINUOUS
 10
79.5637148803
 20
74.7587017665
 11
79.2923276649
 21
74.5053684482
  0
LINE
  5
3FE
100
AcDbEntity
  8
INCISIONI
100
AcDbLine
 62
250
  6
CONTINUOUS
 10
78.0952474698
 20
86.4473674211
 11
78.8458387802
 21
86.4473674211
  0
LINE
  5
3FF
100
AcDbEntity
  8
INCISIONI
100
AcDbLine
 62
250
  6
CONTINUOUS
 10
82.4391839623
 20
86.4473674211
 11
83.1897752727
 21
86.4473674211
  0
LINE
  5
400
100
AcDbEntity
  8
CURVE
100
AcDbLine
 62
250
  6
CONTINUOUS
 10
97.1928759624
 20
78.2473684211
 11
96.2644459376
 21
78.8973684211
  0
LINE
  5
401
100
AcDbEntity
  8
ASSI
100
AcDbLine
 62
7
  6
CONTINUOUS
 10
71.6928759624
 20
102.6973684211
 11
71.9393225718
 21
102.4509218116
  0
LINE
  5
402
100
AcDbEntity
  8
INCISIONI
100
AcDbLine
 62
250
  6
CONTINUOUS
 10
80.8398008767
 20
98.8357514211
 11
80.1505058906
 21
100.4238834211
  0
LINE
  5
403
100
AcDbEntity
  8
INCISIONI
100
AcDbLine
 62
250
  6
CONTINUOUS
 10
79.9304479377
 20
100.9308984211
 11
79.512847172
 21
101.8930484211
  0
LINE
  5
404
100
AcDbEntity
  8
INCISIONI
100
AcDbLine
 62
250
  6
CONTINUOUS
 10
79.8277962135
 20
102.3415334211
 11
80.504794946
 21
100.7817264211
  0
LINE
  5
405
100
AcDbEntity
  8
INCISIONI
100
AcDbLine
 62
250
  6
CONTINUOUS
 10
80.7248528989
 20
100.2747114211
 11
81.1784347019
 21
99.2296634211
  0
LINE
  5
406
100
AcDbEntity
  8
INCISIONI
100
AcDbLine
 62
250
  6
CONTINUOUS
 10
80.2285321176
 20
102.2374514211
 11
80.4462827735
 21
101.7357564211
  0
LINE
  5
407
100
AcDbEntity
  8
INCISIONI
100
AcDbLine
 62
250
  6
CONTINUOUS
 10
83.6928759624
 20
74.7773684497
 11
83.4786228752
 21
74.5373683638
  0
LINE
  5
408
100
AcDbEntity
  8
INCISIONI
100
AcDbLine
 62
250
  6
CONTINUOUS
 10
83.0501167234
 20
73.9373684497
 11
82.8358636139
 21
73.6973683638
  0
LINE
  5
409
100
AcDbEntity
  8
INCISIONI
100
AcDbLine
 62
250
  6
CONTINUOUS
 10
82.4073574844
 20
72.7373684211
 11
82.1931044196
 21
72.4973684354
  0
LINE
  5
40A
100
AcDbEntity
  8
INCISIONI
100
AcDbLine
 62
250
  6
CONTINUOUS
 10
82.4073574844
 20
75.1373684783
 11
82.6216105491
 21
75.2573684211
  0
LWPOLYLINE
  5
40B
100
AcDbEntity
  8
CURVE
100
AcDbPolyline
 62
250
  6
CONTINUOUS
 90
85
 70
0
 10
87.1928759624
 20
89.8008547355
 10
87.2682901252
 20
89.80278118
 10
87.3436503022
 20
89.808494662
 10
87.4187383526
 20
89.8178964038
 10
87.4933361358
 20
89.830887628
 10
87.567225511
 20
89.847369557
 10
87.6401883378
 20
89.8672434134
 10
87.7122867166
 20
89.8905000581
 10
87.783170452
 20
89.9169810552
 10
87.8527777683
 20
89.9465940788
 10
87.9209526745
 20
89.979196332
 10
87.9876893615
 20
90.0147000329
 10
88.0528843529
 20
90.0529747699
 10
88.116408745
 20
90.0938710955
 10
88.1782271894
 20
90.137291071
 10
88.2382772193
 20
90.1831204366
 10
88.2964764417
 20
90.2312171932
 10
88.3528299444
 20
90.2814684401
 10
88.4073211284
 20
90.3337357448
 10
88.4599763043
 20
90.3879261423
 10
88.5107529673
 20
90.4438780603
 10
88.559654403
 20
90.5014725157
 10
88.6066685107
 20
90.56057674
 10
88.6518157315
 20
90.6211224373
 10
88.6950998639
 20
90.6830285494
 10
88.7445115469
 20
90.7588798802
 10
88.7912560592
 20
90.8364367118
 10
88.8353353205
 20
90.9155679737
 10
88.8767512508
 20
90.9961425957
 10
88.9155057699
 20
91.0780295075
 10
88.951599102
 20
91.1610879694
 10
88.9850620668
 20
91.2452258842
 10
89.0159228593
 20
91.3303418984
 10
89.0442096741
 20
91.4163346582
 10
89.0699507062
 20
91.50310281
 10
89.0986202349
 20
91.6126203231
 10
89.1234234722
 20
91.7230573839
 10
89.1444184497
 20
91.8342619105
 10
89.1616152651
 20
91.9461339634
 10
89.1749955907
 20
92.0584607741
 10
89.1845654088
 20
92.1712005594
 10
89.1903146695
 20
92.2842156612
 10
89.1922333231
 20
92.3973684211
 10
89.1903146695
 20
92.510521181
 10
89.1845654088
 20
92.6235362827
 10
89.1749955907
 20
92.736276068
 10
89.1616152651
 20
92.8486028788
 10
89.1444184497
 20
92.9604749316
 10
89.1234234722
 20
93.0716794582
 10
89.0986202349
 20
93.182116519
 10
89.0699507062
 20
93.2916340321
 10
89.0442096741
 20
93.3784021839
 10
89.0159228593
 20
93.4643949437
 10
88.9850620668
 20
93.5495109579
 10
88.951599102
 20
93.6336488727
 10
88.9155057699
 20
93.7167073346
 10
88.8767512508
 20
93.7985942464
 10
88.8353353205
 20
93.8791688684
 10
88.7912560592
 20
93.9583001303
 10
88.7445115469
 20
94.0358569619
 10
88.6950998639
 20
94.1117082927
 10
88.6518157315
 20
94.1736144048
 10
88.6066685107
 20
94.2341601021
 10
88.559654403
 20
94.2932643264
 10
88.5107529673
 20
94.3508587818
 10
88.4599763043
 20
94.4068106998
 10
88.4073211284
 20
94.4610010973
 10
88.3528299444
 20
94.513268402
 10
88.2964764417
 20
94.5635196489
 10
88.2382772193
 20
94.6116164055
 10
88.1782271894
 20
94.6574457711
 10
88.116408745
 20
94.7008657466
 10
88.0528843529
 20
94.7417620722
 10
87.9876893615
 20
94.7800368092
 10
87.9209526745
 20
94.8155405101
 10
87.8527777683
 20
94.8481427634
 10
87.783170452
 20
94.8777557869
 10
87.7122867166
 20
94.904236784
 10
87.6401883378
 20
94.9274934288
 10
87.567225511
 20
94.9473672851
 10
87.4933361358
 20
94.9638492141
 10
87.4187383526
 20
94.9768404383
 10
87.3436503022
 20
94.9862421801
 10
87.2682901252
 20
94.9919556621
 10
87.1928759624
 20
94.9938821066
  0
LINE
  5
40C
100
AcDbEntity
  8
0
100
AcDbLine
 62
7
  6
CONTINUOUS
 10
103.6928759624
 20
90.0247154211
 11
103.8928759624
 21
90.0247154211
  0
LINE
  5
40D
100
AcDbEntity
  8
INCISIONI
100
AcDbLine
 62
250
  6
CONTINUOUS
 10
80.2676255912
 20
90.4324774211
 11
81.0173971513
 21
90.4324774211
  0
LINE
  5
40E
100
AcDbEntity
  8
0
100
AcDbLine
 62
250
  6
CONTINUOUS
 10
103.6928759624
 20
90.6769574211
 11
103.8928759624
 21
90.6769574211
  0
LINE
  5
40F
100
AcDbEntity
  8
INCISIONI
100
AcDbLine
 62
250
  6
CONTINUOUS
 10
78.0952474698
 20
90.8324774211
 11
78.8458387802
 21
90.8324774211
  0
LINE
  5
410
100
AcDbEntity
  8
INCISIONI
100
AcDbLine
 62
250
  6
CONTINUOUS
 10
82.4391839623
 20
90.8324774211
 11
83.1897752727
 21
90.8324774211
  0
LWPOLYLINE
  5
411
100
AcDbEntity
  8
INCISIONI
100
AcDbPolyline
 62
250
  6
CONTINUOUS
 90
45
 70
0
 10
79.1586221372
 20
96.4582410997
 10
79.1482293637
 20
96.466401269
 10
79.1380752229
 20
96.4748636355
 10
79.1281698674
 20
96.4836196419
 10
79.1185234498
 20
96.4926607308
 10
79.1091456267
 20
96.5019784504
 10
79.1000440707
 20
96.5115647715
 10
79.0912259585
 20
96.5214117704
 10
79.0826984666
 20
96.5315115232
 10
79.0744686956
 20
96.5418558977
 10
79.0665434407
 20
96.5524359268
 10
79.058929421
 20
96.5632424351
 10
79.0516333556
 20
96.574266247
 10
79.0446617553
 20
96.585498088
 10
79.0380202979
 20
96.5969282885
 10
79.031714453
 20
96.6085470798
 10
79.02574969
 20
96.6203446933
 10
79.0201312892
 20
96.6323112598
 10
79.0148637731
 20
96.6444365066
 10
79.0099514749
 20
96.6567100606
 10
79.0053987276
 20
96.6691215484
 10
79.0012096573
 20
96.6816605267
 10
78.9973875604
 20
96.694316271
 10
78.9939355262
 20
96.7070779867
 10
78.990856644
 20
96.7199348793
 10
78.9881537899
 20
96.7328761041
 10
78.985828988
 20
96.7458906156
 10
78.9838840492
 20
96.7589673183
 10
78.9823207844
 20
96.7720951168
 10
78.9811407904
 20
96.7852629006
 10
78.9803448081
 20
96.7984595006
 10
78.9799333644
 20
96.8116737328
 10
78.9799069859
 20
96.8248944132
 10
78.9802659705
 20
96.8381103313
 10
78.9810097
 20
96.8513101714
 10
78.9821373273
 20
96.8644825912
 10
78.9836480052
 20
96.8776162485
 10
78.9855407115
 20
96.8906999376
 10
78.9878137236
 20
96.9037229997
 10
78.9904651438
 20
96.9166749126
 10
78.9934930745
 20
96.9295451539
 10
78.996895253
 20
96.9423228492
 10
79.0006679568
 20
96.9549957157
 10
79.0048070982
 20
96.967551118
 10
79.0093085898
 20
96.9799764211
  0
LINE
  5
412
100
AcDbEntity
  8
CURVE
100
AcDbLine
 62
250
  6
CONTINUOUS
 10
95.8930739586
 20
79.7330826182
 11
96.1716029816
 21
79.4545110125
  0
LINE
  5
413
100
AcDbEntity
  8
CURVE
100
AcDbLine
 62
250
  6
CONTINUOUS
 10
96.2644459376
 20
80.2902258296
 11
95.8930739586
 21
80.6616542239
  0
LINE
  5
414
100
AcDbEntity
  8
CURVE
100
AcDbLine
 62
250
  6
CONTINUOUS
 10
97.1928759624
 20
79.7330826182
 11
97.0071899535
 21
79.9187968154
  0
LINE
  5
415
100
AcDbEntity
  8
INCISIONI
100
AcDbLine
 62
250
  6
CONTINUOUS
 10
82.8359397723
 20
94.8973684211
 11
82.2931653416
 21
95.5053684482
  0
LWPOLYLINE
  5
416
100
AcDbEntity
  8
INCISIONI
100
AcDbPolyline
 62
250
  6
CONTINUOUS
 90
20
 70
0
 10
79.5128472347
 20
101.8930493107
 10
79.5043667664
 20
101.9048932579
 10
79.4954414321
 20
101.9164152166
 10
79.4860572551
 20
101.9275727434
 10
79.4762002587
 20
101.9383233948
 10
79.4679666145
 20
101.9466006969
 10
79.4594237995
 20
101.9545593341
 10
79.4505741782
 20
101.9621681926
 10
79.4414201154
 20
101.9693961588
 10
79.4319639757
 20
101.9762121189
 10
79.4222244303
 20
101.982589021
 10
79.4122231987
 20
101.9885560338
 10
79.4019976737
 20
101.9941454518
 10
79.3915852484
 20
101.9993895693
 10
79.3810233156
 20
102.0043206808
 10
79.3676504802
 20
102.0100988385
 10
79.3541328402
 20
102.0155073087
 10
79.3405010324
 20
102.0206156728
 10
79.3267856937
 20
102.0254935121
 10
79.3084131237
 20
102.0317576186
  0
LINE
  5
417
100
AcDbEntity
  8
INCISIONI
100
AcDbLine
 62
250
  6
CONTINUOUS
 10
92.2492241339
 20
91.9236994211
 11
92.2492241339
 21
92.5450014211
  0
LINE
  5
418
100
AcDbEntity
  8
INCISIONI
100
AcDbLine
 62
250
  6
CONTINUOUS
 10
92.2492241339
 20
93.9961854211
 11
92.2492241339
 21
94.5287304211
  0
LINE
  5
419
100
AcDbEntity
  8
INCISIONI
100
AcDbLine
 62
250
  6
CONTINUOUS
 10
92.6928759624
 20
93.9961854211
 11
92.6928759624
 21
94.3245884211
  0
LINE
  5
41A
100
AcDbEntity
  8
INCISIONI
100
AcDbLine
 62
250
  6
CONTINUOUS
 10
93.1365277908
 20
94.5287304211
 11
93.1365277908
 21
93.9961854211
  0
LINE
  5
41B
100
AcDbEntity
  8
INCISIONI
100
AcDbLine
 62
250
  6
CONTINUOUS
 10
83.4786228752
 20
74.5373683638
 11
83.2643697881
 21
74.4173684211
  0
LINE
  5
41C
100
AcDbEntity
  8
INCISIONI
100
AcDbLine
 62
250
  6
CONTINUOUS
 10
82.1931044196
 20
75.7373685927
 11
83.6928759624
 21
76.2173683638
  0
LWPOLYLINE
  5
41D
100
AcDbEntity
  8
0
100
AcDbPolyline
 62
250
  6
CONTINUOUS
 90
17
 70
0
 10
99.7426973573
 20
93.9444764211
 10
99.8043752381
 20
93.9505249114
 10
99.8637038276
 20
93.9684399971
 10
99.9184233182
 20
93.9975392984
 10
99.9672346108
 20
94.0374969642
 10
100.0065711815
 20
94.0853933839
 10
100.0358568801
 20
94.1400193009
 10
100.0539762237
 20
94.199294031
 10
100.0602409865
 20
94.2620684211
 10
100.0541934174
 20
94.3237556971
 10
100.0362810602
 20
94.383093324
 10
100.0071861909
 20
94.43782115
 10
99.9672346108
 20
94.4866398779
 10
99.9193454859
 20
94.5259824406
 10
99.8647278887
 20
94.5552726003
 10
99.8054621865
 20
94.5733947039
 10
99.7426973295
 20
94.5796604211
  0
LWPOLYLINE
  5
41E
100
AcDbEntity
  8
0
100
AcDbPolyline
 62
250
  6
CONTINUOUS
 90
17
 70
0
 10
99.7426973573
 20
94.1215584211
 10
99.7699850693
 20
94.1242344122
 10
99.7962334008
 20
94.1321604579
 10
99.8204425611
 20
94.1450346575
 10
99.8420377988
 20
94.1627128472
 10
99.8594412017
 20
94.1839033241
 10
99.8723978679
 20
94.2080710853
 10
99.8804142819
 20
94.2342955882
 10
99.8831859569
 20
94.2620684211
 10
99.8805103734
 20
94.2893602897
 10
99.8725855349
 20
94.3156126196
 10
99.859713296
 20
94.3398254676
 10
99.8420377988
 20
94.3614239949
 10
99.8208505493
 20
94.3788300488
 10
99.796686469
 20
94.3917886887
 10
99.7704659602
 20
94.3998063238
 10
99.742697345
 20
94.4025784211
  0
LWPOLYLINE
  5
41F
100
AcDbEntity
  8
0
100
AcDbPolyline
 62
250
  6
CONTINUOUS
 90
17
 70
0
 10
99.7426973573
 20
94.4025784211
 10
99.7154096453
 20
94.3999024299
 10
99.6891613137
 20
94.3919763842
 10
99.6649521535
 20
94.3791021846
 10
99.6433569158
 20
94.3614239949
 10
99.6259535129
 20
94.340233518
 10
99.6129968467
 20
94.3160657568
 10
99.6049804327
 20
94.2898412539
 10
99.6022087576
 20
94.2620684211
 10
99.6048843412
 20
94.2347765524
 10
99.6128091797
 20
94.2085242225
 10
99.6256814186
 20
94.1843113745
 10
99.6433569158
 20
94.1627128472
 10
99.6645441653
 20
94.1453067933
 10
99.6887082456
 20
94.1323481534
 10
99.7149287543
 20
94.1243305183
 10
99.7426973696
 20
94.1215584211
  0
LWPOLYLINE
  5
420
100
AcDbEntity
  8
0
100
AcDbPolyline
 62
250
  6
CONTINUOUS
 90
17
 70
0
 10
99.7426973573
 20
94.5796604211
 10
99.6810194765
 20
94.5736119308
 10
99.621690887
 20
94.555696845
 10
99.5669713964
 20
94.5265975437
 10
99.5181601038
 20
94.4866398779
 10
99.4788235331
 20
94.4387434582
 10
99.4495378344
 20
94.3841175412
 10
99.4314184909
 20
94.3248428111
 10
99.4251537281
 20
94.2620684211
 10
99.4312012972
 20
94.200381145
 10
99.4491136544
 20
94.1410435181
 10
99.4782085237
 20
94.0863156921
 10
99.5181601038
 20
94.0374969642
 10
99.5660492286
 20
93.9981544015
 10
99.6206668258
 20
93.9688642418
 10
99.6799325281
 20
93.9507421382
 10
99.742697385
 20
93.9444764211
  0
LINE
  5
421
100
AcDbEntity
  8
0
100
AcDbLine
 62
250
  6
CONTINUOUS
 10
96.502113989
 20
92.3284924211
 11
99.8638229065
 21
92.6225424211
  0
LINE
  5
422
100
AcDbEntity
  8
RACCORDO
100
AcDbLine
 62
7
  6
CONTINUOUS
 10
103.8928759624
 20
92.1984156282
 11
106.3944467515
 21
92.2115139419
  0
LINE
  5
423
100
AcDbEntity
  8
0
100
AcDbLine
 62
7
  6
CONTINUOUS
 10
103.8928759624
 20
91.1066974466
 11
103.6928759624
 21
91.1066974466
  0
LINE
  5
424
100
AcDbEntity
  8
0
100
AcDbLine
 62
7
  6
CONTINUOUS
 10
103.6928759624
 20
91.2262744211
 11
103.8928759624
 21
91.2262744211
  0
LINE
  5
425
100
AcDbEntity
  8
0
100
AcDbLine
 62
250
  6
CONTINUOUS
 10
102.6928759624
 20
91.3050064211
 11
101.6740191628
 21
91.3050064211
  0
LINE
  5
426
100
AcDbEntity
  8
0
100
AcDbLine
 62
7
  6
CONTINUOUS
 10
103.6928759624
 20
91.7715844211
 11
103.8928759624
 21
91.7715844211
  0
LINE
  5
427
100
AcDbEntity
  8
0
100
AcDbLine
 62
7
  6
CONTINUOUS
 10
103.6928759624
 20
91.9936934211
 11
103.8928759624
 21
91.9936934211
  0
LINE
  5
428
100
AcDbEntity
  8
INCISIONI
100
AcDbLine
 62
250
  6
CONTINUOUS
 10
93.1365277908
 20
92.2343504211
 11
92.2492241339
 21
92.2343504211
  0
LINE
  5
429
100
AcDbEntity
  8
0
100
AcDbLine
 62
7
  6
CONTINUOUS
 10
103.6928759624
 20
92.5187384211
 11
103.8928759624
 21
92.5187384211
  0
LINE
  5
42A
100
AcDbEntity
  8
0
100
AcDbLine
 62
7
  6
CONTINUOUS
 10
103.6928759624
 20
92.5732354211
 11
103.8928759624
 21
92.5732354211
  0
LINE
  5
42B
100
AcDbEntity
  8
0
100
AcDbLine
 62
250
  6
CONTINUOUS
 10
96.502113989
 20
92.6155844211
 11
96.1075560912
 21
92.6155844211
  0
LINE
  5
42C
100
AcDbEntity
  8
0
100
AcDbLine
 62
250
  6
CONTINUOUS
 10
100.0602409865
 20
92.6792514211
 11
99.8638229065
 21
92.6792514211
  0
LINE
  5
42D
100
AcDbEntity
  8
0
100
AcDbLine
 62
250
  6
CONTINUOUS
 10
96.1075560912
 20
92.7149584211
 11
96.502113989
 21
92.7149584211
  0
LINE
  5
42E
100
AcDbEntity
  8
0
100
AcDbLine
 62
250
  6
CONTINUOUS
 10
99.8638229065
 20
92.7968714211
 11
100.0602409865
 21
92.7968714211
  0
LINE
  5
42F
100
AcDbEntity
  8
INCISIONI
100
AcDbLine
 62
250
  6
CONTINUOUS
 10
81.6928759624
 20
93.3973684211
 11
79.1586200976
 21
94.0646684211
  0
LINE
  5
430
100
AcDbEntity
  8
INCISIONI
100
AcDbLine
 62
250
  6
CONTINUOUS
 10
78.5458248037
 20
94.2384964211
 11
77.6512143729
 21
94.4740584211
  0
LINE
  5
431
100
AcDbEntity
  8
INCISIONI
100
AcDbLine
 62
250
  6
CONTINUOUS
 10
82.2931653416
 20
96.8733683667
 11
82.7002462212
 21
96.4173684573
  0
LINE
  5
432
100
AcDbEntity
  8
INCISIONI
100
AcDbLine
 62
250
  6
CONTINUOUS
 10
82.8359397723
 20
97.7853683123
 11
82.2931653416
 21
98.3933685298
  0
LINE
  5
433
100
AcDbEntity
  8
INCISIONI
100
AcDbLine
 62
250
  6
CONTINUOUS
 10
84.1928759624
 20
96.8733683667
 11
83.9214887187
 21
97.1773683486
  0
LINE
  5
434
100
AcDbEntity
  8
INCISIONI
100
AcDbLine
 62
250
  6
CONTINUOUS
 10
82.5645525569
 20
99.1533684211
 11
82.2931653416
 21
99.4573682761
  0
LINE
  5
435
100
AcDbEntity
  8
INCISIONI
100
AcDbLine
 62
250
  6
CONTINUOUS
 10
83.0501167234
 20
67.6973683638
 11
82.8358636139
 21
67.4573683781
  0
LINE
  5
436
100
AcDbEntity
  8
INCISIONI
100
AcDbLine
 62
250
  6
CONTINUOUS
 10
83.4786228752
 20
66.857368464
 11
83.6928759624
 21
67.0973684497
  0
LWPOLYLINE
  5
437
100
AcDbEntity
  8
0
100
AcDbPolyline
 62
250
  6
CONTINUOUS
 90
17
 70
0
 10
96.3976529014
 20
94.4946994211
 10
96.4350532441
 20
94.4983671153
 10
96.4710290193
 20
94.5092304968
 10
96.5042099211
 20
94.5268757827
 10
96.5338081992
 20
94.5511053829
 10
96.5576611787
 20
94.5801488988
 10
96.5754194926
 20
94.6132730592
 10
96.5864067322
 20
94.6492161751
 10
96.5902055702
 20
94.6872814211
 10
96.5865384345
 20
94.7246874609
 10
96.5756767076
 20
94.7606687163
 10
96.5580341092
 20
94.7938546724
 10
96.5338081992
 20
94.8234574592
 10
96.5047691068
 20
94.8473140721
 10
96.4716499914
 20
94.8650750911
 10
96.4357123498
 20
94.8760640044
 10
96.3976528845
 20
94.8798634211
  0
LWPOLYLINE
  5
438
100
AcDbEntity
  8
0
100
AcDbPolyline
 62
250
  6
CONTINUOUS
 90
17
 70
0
 10
96.3976529014
 20
94.8798634211
 10
96.3602525587
 20
94.8761957268
 10
96.3242767834
 20
94.8653323453
 10
96.2910958817
 20
94.8476870594
 10
96.2614976035
 20
94.8234574592
 10
96.2376446241
 20
94.7944139433
 10
96.2198863102
 20
94.7612897829
 10
96.2088990705
 20
94.725346667
 10
96.2051002325
 20
94.6872814211
 10
96.2087673682
 20
94.6498753812
 10
96.2196290951
 20
94.6138941258
 10
96.2372716935
 20
94.5807081697
 10
96.2614976035
 20
94.5511053829
 10
96.2905366959
 20
94.52724877
 10
96.3236558114
 20
94.509487751
 10
96.359593453
 20
94.4984988377
 10
96.3976529182
 20
94.4946994211
  0
LWPOLYLINE
  5
439
100
AcDbEntity
  8
CURVE
100
AcDbPolyline
 62
250
  6
CONTINUOUS
 90
85
 70
0
 10
87.1928759624
 20
94.9938821066
 10
87.1174617995
 20
94.9919556621
 10
87.0421016225
 20
94.9862421801
 10
86.9670135721
 20
94.9768404383
 10
86.8924157889
 20
94.9638492141
 10
86.8185264137
 20
94.9473672851
 10
86.7455635869
 20
94.9274934288
 10
86.6734652081
 20
94.904236784
 10
86.6025814727
 20
94.8777557869
 10
86.5329741564
 20
94.8481427634
 10
86.4647992502
 20
94.8155405101
 10
86.3980625632
 20
94.7800368092
 10
86.3328675718
 20
94.7417620722
 10
86.2693431797
 20
94.7008657466
 10
86.2075247353
 20
94.6574457711
 10
86.1474747054
 20
94.6116164055
 10
86.089275483
 20
94.5635196489
 10
86.0329219803
 20
94.513268402
 10
85.9784307963
 20
94.4610010973
 10
85.9257756204
 20
94.4068106998
 10
85.8749989574
 20
94.3508587818
 10
85.8260975217
 20
94.2932643264
 10
85.779083414
 20
94.2341601021
 10
85.7339361932
 20
94.1736144048
 10
85.6906520608
 20
94.1117082927
 10
85.6412403778
 20
94.0358569619
 10
85.5944958655
 20
93.9583001303
 10
85.5504166042
 20
93.8791688684
 10
85.5090006739
 20
93.7985942464
 10
85.4702461548
 20
93.7167073346
 10
85.4341528227
 20
93.6336488727
 10
85.4006898579
 20
93.5495109579
 10
85.3698290654
 20
93.4643949437
 10
85.3415422506
 20
93.3784021839
 10
85.3158012185
 20
93.2916340321
 10
85.2871316898
 20
93.182116519
 10
85.2623284525
 20
93.0716794582
 10
85.241333475
 20
92.9604749316
 10
85.2241366596
 20
92.8486028788
 10
85.210756334
 20
92.736276068
 10
85.2011865159
 20
92.6235362827
 10
85.1954372552
 20
92.510521181
 10
85.1935186016
 20
92.3973684211
 10
85.1954372552
 20
92.2842156612
 10
85.2011865159
 20
92.1712005594
 10
85.210756334
 20
92.0584607741
 10
85.2241366596
 20
91.9461339634
 10
85.241333475
 20
91.8342619105
 10
85.2623284525
 20
91.7230573839
 10
85.2871316898
 20
91.6126203231
 10
85.3158012185
 20
91.50310281
 10
85.3415422506
 20
91.4163346582
 10
85.3698290654
 20
91.3303418984
 10
85.4006898579
 20
91.2452258842
 10
85.4341528227
 20
91.1610879694
 10
85.4702461548
 20
91.0780295075
 10
85.5090006739
 20
90.9961425957
 10
85.5504166042
 20
90.9155679737
 10
85.5944958655
 20
90.8364367118
 10
85.6412403778
 20
90.7588798802
 10
85.6906520608
 20
90.6830285494
 10
85.7339361932
 20
90.6211224373
 10
85.779083414
 20
90.56057674
 10
85.8260975217
 20
90.5014725157
 10
85.8749989574
 20
90.4438780603
 10
85.9257756204
 20
90.3879261423
 10
85.9784307963
 20
90.3337357448
 10
86.0329219803
 20
90.2814684401
 10
86.089275483
 20
90.2312171932
 10
86.1474747054
 20
90.1831204366
 10
86.2075247353
 20
90.137291071
 10
86.2693431797
 20
90.0938710955
 10
86.3328675718
 20
90.0529747699
 10
86.3980625632
 20
90.0147000329
 10
86.4647992502
 20
89.979196332
 10
86.5329741564
 20
89.9465940788
 10
86.6025814727
 20
89.9169810552
 10
86.6734652081
 20
89.8905000581
 10
86.7455635869
 20
89.8672434134
 10
86.8185264137
 20
89.847369557
 10
86.8924157889
 20
89.830887628
 10
86.9670135721
 20
89.8178964038
 10
87.0421016225
 20
89.808494662
 10
87.1174617995
 20
89.80278118
 10
87.1928759624
 20
89.8008547355
  0
LINE
  5
43A
100
AcDbEntity
  8
0
100
AcDbLine
 62
250
  6
CONTINUOUS
 10
97.5453810702
 20
93.1854384211
 11
97.3297779126
 21
93.1854384211
  0
LINE
  5
43B
100
AcDbEntity
  8
0
100
AcDbLine
 62
250
  6
CONTINUOUS
 10
96.2320571262
 20
93.2404414211
 11
96.0145962516
 21
93.2404414211
  0
LINE
  5
43C
100
AcDbEntity
  8
0
100
AcDbLine
 62
7
  6
CONTINUOUS
 10
103.6928759624
 20
93.7505224211
 11
103.8928759624
 21
93.7505224211
  0
LINE
  5
43D
100
AcDbEntity
  8
0
100
AcDbLine
 62
250
  6
CONTINUOUS
 10
96.0151541666
 20
93.8134444211
 11
96.2326150413
 21
93.8134444211
  0
LINE
  5
43E
100
AcDbEntity
  8
0
100
AcDbLine
 62
7
  6
CONTINUOUS
 10
103.6928759624
 20
93.9545414211
 11
103.8928759624
 21
93.9545414211
  0
LINE
  5
43F
100
AcDbEntity
  8
INCISIONI
100
AcDbLine
 62
250
  6
CONTINUOUS
 10
93.1365277908
 20
93.9961854211
 11
92.2492241339
 21
93.9961854211
  0
LINE
  5
440
100
AcDbEntity
  8
0
100
AcDbLine
 62
250
  6
CONTINUOUS
 10
97.3297779126
 20
94.0087784211
 11
97.5453810702
 21
94.0087784211
  0
LINE
  5
441
100
AcDbEntity
  8
0
100
AcDbLine
 62
7
  6
CONTINUOUS
 10
103.6928759624
 20
94.1645144211
 11
103.8928759624
 21
94.1645144211
  0
LINE
  5
442
100
AcDbEntity
  8
0
100
AcDbLine
 62
250
  6
CONTINUOUS
 10
97.237375988
 20
94.4652554211
 11
96.8649687161
 21
94.4652554211
  0
LINE
  5
443
100
AcDbEntity
  8
0
100
AcDbLine
 62
250
  6
CONTINUOUS
 10
96.8649687161
 20
94.8153154211
 11
97.237375988
 21
94.8153154211
  0
LINE
  5
444
100
AcDbEntity
  8
0
100
AcDbLine
 62
7
  6
CONTINUOUS
 10
103.6928759624
 20
95.0752724211
 11
103.8928759624
 21
95.0752724211
  0
LWPOLYLINE
  5
445
100
AcDbEntity
  8
INCISIONI
100
AcDbPolyline
 62
250
  6
CONTINUOUS
 90
57
 70
0
 10
81.0757459891
 20
95.0474834211
 10
81.090254266
 20
95.0455058574
 10
81.1048141222
 20
95.0439150306
 10
81.1194133283
 20
95.0427122137
 10
81.1340396547
 20
95.04189868
 10
81.1486812612
 20
95.0414754588
 10
81.1633278636
 20
95.0414426035
 10
81.1779695672
 20
95.0417999234
 10
81.192596477
 20
95.042547228
 10
81.2071986036
 20
95.0436841584
 10
81.2217655799
 20
95.0452096823
 10
81.236286944
 20
95.0471225992
 10
81.2507522342
 20
95.0494217087
 10
81.2651510486
 20
95.0521056239
 10
81.279473225
 20
95.0551722133
 10
81.2937086609
 20
95.058619159
 10
81.3078472539
 20
95.0624441432
 10
81.3218789446
 20
95.0666446715
 10
81.335793845
 20
95.071217544
 10
81.3495821105
 20
95.0761593842
 10
81.3632338961
 20
95.0814668156
 10
81.3767394281
 20
95.0871362903
 10
81.3900892177
 20
95.0931635743
 10
81.4032738472
 20
95.099544262
 10
81.4162838989
 20
95.1062739479
 10
81.4291100416
 20
95.1133480639
 10
81.4417432897
 20
95.1207613905
 10
81.4541747441
 20
95.1285085458
 10
81.4663955057
 20
95.1365841479
 10
81.4783967792
 20
95.1449826619
 10
81.490170185
 20
95.1536979415
 10
81.5017074473
 20
95.1627236876
 10
81.5130002905
 20
95.172053601
 10
81.5240405583
 20
95.1816812423
 10
81.5348205725
 20
95.1915996113
 10
81.5453327746
 20
95.2018015674
 10
81.555569606
 20
95.21227997
 10
81.5655236411
 20
95.2230275492
 10
81.5751879879
 20
95.234036518
 10
81.5845558871
 20
95.2452989602
 10
81.5936205799
 20
95.2568069592
 10
81.6023754553
 20
95.268552494
 10
81.6108144956
 20
95.2805271243
 10
81.6189318312
 20
95.2927223047
 10
81.6267215924
 20
95.3051294902
 10
81.6341780608
 20
95.3177400113
 10
81.6412961222
 20
95.330544702
 10
81.6480708137
 20
95.343534272
 10
81.6544971723
 20
95.3566994309
 10
81.6605704262
 20
95.3700309144
 10
81.6662865685
 20
95.3835195621
 10
81.6716417835
 20
95.3971562398
 10
81.6766322555
 20
95.4109318131
 10
81.6812542526
 20
95.4248366958
 10
81.6855043778
 20
95.4388594955
 10
81.6893793178
 20
95.4529883677
 10
81.6928757594
 20
95.4672114681
  0
LINE
  5
446
100
AcDbEntity
  8
INCISIONI
100
AcDbLine
 62
250
  6
CONTINUOUS
 10
78.6948813892
 20
95.1331234211
 11
81.6928759624
 21
94.3544664211
  0
LINE
  5
447
100
AcDbEntity
  8
INCISIONI
100
AcDbLine
 62
250
  6
CONTINUOUS
 10
77.196221
 20
95.5223634211
 11
78.0892609092
 21
95.2904184211
  0
LINE
  5
448
100
AcDbEntity
  8
INCISIONI
100
AcDbLine
 62
250
  6
CONTINUOUS
 10
81.0757459891
 20
95.0474834211
 11
79.0130124613
 21
95.5832284211
  0
LINE
  5
449
100
AcDbEntity
  8
INCISIONI
100
AcDbLine
 62
250
  6
CONTINUOUS
 10
79.1586200976
 20
96.4582384211
 11
81.0497968952
 21
95.9670534211
  0
LINE
  5
44A
100
AcDbEntity
  8
INCISIONI
100
AcDbLine
 62
250
  6
CONTINUOUS
 10
79.0093085898
 20
96.9799764211
 11
81.3766043238
 21
96.3651284211
  0
LINE
  5
44B
100
AcDbEntity
  8
INCISIONI
100
AcDbLine
 62
250
  6
CONTINUOUS
 10
78.6948813892
 20
97.0789464211
 11
77.6398258428
 21
97.3653414211
  0
LINE
  5
44C
100
AcDbEntity
  8
INCISIONI
100
AcDbLine
 62
250
  6
CONTINUOUS
 10
82.7002462212
 20
96.4173684573
 11
83.243020652
 21
96.1133684754
  0
LWPOLYLINE
  5
44D
100
AcDbEntity
  8
INCISIONI
100
AcDbPolyline
 62
250
  6
CONTINUOUS
 90
49
 70
0
 10
79.2194050094
 20
99.2664537375
 10
79.2089339469
 20
99.2727712671
 10
79.1986382441
 20
99.2793777241
 10
79.1885271704
 20
99.2862670914
 10
79.1786099949
 20
99.2934333518
 10
79.1688955729
 20
99.3008705321
 10
79.1593911036
 20
99.3085728346
 10
79.1501033718
 20
99.3165345054
 10
79.1410391628
 20
99.3247497908
 10
79.1322052276
 20
99.3332127623
 10
79.1236081819
 20
99.3419167923
 10
79.1152546077
 20
99.3508550787
 10
79.1071510866
 20
99.3600208195
 10
79.0993040477
 20
99.3694071131
 10
79.0917193087
 20
99.3790066617
 10
79.0844025344
 20
99.3888120679
 10
79.0773593898
 20
99.3988159345
 10
79.0705954036
 20
99.4090107635
 10
79.0641155604
 20
99.4193886547
 10
79.0579247087
 20
99.4299416069
 10
79.0520276972
 20
99.4406616192
 10
79.0464292208
 20
99.4515406104
 10
79.0411333604
 20
99.4625701792
 10
79.0361440433
 20
99.4737418439
 10
79.0314651967
 20
99.485047123
 10
79.0271005887
 20
99.4964774717
 10
79.0230533499
 20
99.5080240913
 10
79.0193264517
 20
99.5196781198
 10
79.0159228654
 20
99.5314306953
 10
79.0128453959
 20
99.5432729084
 10
79.0100961816
 20
99.5551956605
 10
79.0076771945
 20
99.5671898056
 10
79.0055904064
 20
99.5792461979
 10
79.0038376214
 20
99.5913556709
 10
79.0024199715
 20
99.603508977
 10
79.0013384208
 20
99.6156968477
 10
79.0005939333
 20
99.6279100151
 10
79.0001872941
 20
99.6401391778
 10
79.0001185712
 20
99.652374903
 10
79.0003876538
 20
99.6646077247
 10
79.000994431
 20
99.676828177
 10
79.0019386471
 20
99.6890268976
 10
79.0032194683
 20
99.7011949391
 10
79.0048359158
 20
99.7133234576
 10
79.0067870111
 20
99.7254036094
 10
79.0090715048
 20
99.7374262341
 10
79.0116870648
 20
99.7493809059
 10
79.0146310881
 20
99.7612568823
 10
79.0179009718
 20
99.7730434211
  0
LINE
  5
44E
100
AcDbEntity
  8
INCISIONI
100
AcDbLine
 62
250
  6
CONTINUOUS
 10
82.8359397723
 20
100.6733682036
 11
82.2931653416
 21
101.2813684211
  0
LINE
  5
44F
100
AcDbEntity
  8
INCISIONI
100
AcDbLine
 62
250
  6
CONTINUOUS
 10
83.9214887187
 20
99.913368566
 11
84.1928759624
 21
99.6093682036
  0
LINE
  5
450
100
AcDbEntity
  8
INCISIONI
100
AcDbLine
 62
250
  6
CONTINUOUS
 10
91.1933318424
 20
93.1973684211
 11
92.6928759624
 21
90.6677814211
  0
LWPOLYLINE
  5
451
100
AcDbEntity
  8
0
100
AcDbPolyline
 62
250
  6
CONTINUOUS
 90
50
 70
0
 10
96.0667689722
 20
93.2404410915
 10
96.0683993789
 20
93.203024991
 10
96.0706191675
 20
93.1656163416
 10
96.0734451259
 20
93.1282329967
 10
96.0768940424
 20
93.0908928101
 10
96.080982705
 20
93.0536136354
 10
96.0857279019
 20
93.0164133262
 10
96.091146421
 20
92.979309736
 10
96.0972550507
 20
92.9423207186
 10
96.1040705788
 20
92.9054641275
 10
96.1116097936
 20
92.8687578164
 10
96.1188773307
 20
92.8365197435
 10
96.1267515669
 20
92.8044317664
 10
96.135263052
 20
92.7725131595
 10
96.1444423361
 20
92.7407831969
 10
96.1543199692
 20
92.7092611531
 10
96.1621661156
 20
92.6858863948
 10
96.1704405438
 20
92.6626576364
 10
96.179165609
 20
92.6395943531
 10
96.188363666
 20
92.6167160202
 10
96.1980570702
 20
92.5940421127
 10
96.2082681764
 20
92.571592106
 10
96.2176414212
 20
92.5521630308
 10
96.2274572203
 20
92.5329526169
 10
96.2377451786
 20
92.5139934307
 10
96.2485349009
 20
92.4953180382
 10
96.2598559919
 20
92.4769590059
 10
96.2717380564
 20
92.4589488999
 10
96.2808155575
 20
92.4460009209
 10
96.2902291722
 20
92.4332918749
 10
96.2999981662
 20
92.4208560224
 10
96.3101418053
 20
92.4087276242
 10
96.3206793552
 20
92.3969409406
 10
96.3316300817
 20
92.3855302324
 10
96.3430132504
 20
92.3745297599
 10
96.3530283023
 20
92.3655458496
 10
96.3633763766
 20
92.3569387096
 10
96.3740650536
 20
92.3487648641
 10
96.3851019139
 20
92.3410808372
 10
96.3964945381
 20
92.3339431533
 10
96.4082505065
 20
92.3274083365
 10
96.4203773997
 20
92.321532911
 10
96.4301148151
 20
92.3174353648
 10
96.4400521202
 20
92.3138009652
 10
96.4501578957
 20
92.3106553538
 10
96.460400722
 20
92.3080241722
 10
96.4707491796
 20
92.3059330622
 10
96.4811718491
 20
92.3044076654
 10
96.4916373109
 20
92.3034736235
 10
96.5021141455
 20
92.303156578
  0
LINE
  5
452
100
AcDbEntity
  8
CURVE
100
AcDbLine
 62
250
  6
CONTINUOUS
 10
95.8930739586
 20
78.7116542239
 11
95.8930739586
 21
78.4330826182
  0
LINE
  5
453
100
AcDbEntity
  8
CURVE
100
AcDbLine
 62
250
  6
CONTINUOUS
 10
95.8930739586
 20
77.6902258296
 11
95.8930739586
 21
77.4116542239
  0
LINE
  5
454
100
AcDbEntity
  8
CURVE
100
AcDbLine
 62
250
  6
CONTINUOUS
 10
95.8930739586
 20
76.6687971253
 11
95.8930739586
 21
76.3902255196
  0
LINE
  5
455
100
AcDbEntity
  8
CURVE
100
AcDbLine
 62
250
  6
CONTINUOUS
 10
95.8930739586
 20
73.604511245
 11
95.8930739586
 21
73.9759398718
  0
LINE
  5
456
100
AcDbEntity
  8
0
100
AcDbLine
 62
250
  6
CONTINUOUS
 10
96.1075560912
 20
92.6155844211
 11
96.1075560912
 21
92.7149584211
  0
LINE
  5
457
100
AcDbEntity
  8
CURVE
100
AcDbLine
 62
250
  6
CONTINUOUS
 10
96.450131927
 20
79.7330826182
 11
96.450131927
 21
79.330701961
  0
LINE
  5
458
100
AcDbEntity
  8
0
100
AcDbLine
 62
250
  6
CONTINUOUS
 10
96.502113989
 20
92.0873954211
 11
96.502113989
 21
94.5253024211
  0
LINE
  5
459
100
AcDbEntity
  8
0
100
AcDbLine
 62
250
  6
CONTINUOUS
 10
96.8649687161
 20
94.4652554211
 11
96.8649687161
 21
94.8153154211
  0
LINE
  5
45A
100
AcDbEntity
  8
CURVE
100
AcDbLine
 62
250
  6
CONTINUOUS
 10
97.1928759624
 20
78.8973684211
 11
97.1928759624
 21
78.2473684211
  0
LINE
  5
45B
100
AcDbEntity
  8
CURVE
100
AcDbLine
 62
250
  6
CONTINUOUS
 10
97.1928759624
 20
77.8759400267
 11
97.1928759624
 21
77.2259397168
  0
LINE
  5
45C
100
AcDbEntity
  8
CURVE
100
AcDbLine
 62
250
  6
CONTINUOUS
 10
97.1928759624
 20
76.8545113225
 11
97.1928759624
 21
76.2045113225
  0
LINE
  5
45D
100
AcDbEntity
  8
CURVE
100
AcDbLine
 62
250
  6
CONTINUOUS
 10
97.1928759624
 20
73.5116541464
 11
97.1928759624
 21
73.8830827732
  0
LINE
  5
45E
100
AcDbEntity
  8
CURVE
100
AcDbLine
 62
250
  6
CONTINUOUS
 10
97.1928759624
 20
79.4545110125
 11
97.1928759624
 21
79.7330826182
  0
LINE
  5
45F
100
AcDbEntity
  8
0
100
AcDbLine
 62
250
  6
CONTINUOUS
 10
97.237375988
 20
94.8153154211
 11
97.237375988
 21
94.4652554211
  0
LINE
  5
460
100
AcDbEntity
  8
0
100
AcDbLine
 62
250
  6
CONTINUOUS
 10
97.3297779126
 20
93.1854384211
 11
97.3297779126
 21
94.0087784211
  0
LINE
  5
461
100
AcDbEntity
  8
0
100
AcDbLine
 62
250
  6
CONTINUOUS
 10
97.5453810702
 20
94.0087784211
 11
97.5453810702
 21
93.1854384211
  0
LINE
  5
462
100
AcDbEntity
  8
0
100
AcDbLine
 62
250
  6
CONTINUOUS
 10
96.0145962516
 20
93.2404414211
 11
96.0151541666
 21
93.8134444211
  0
LINE
  5
463
100
AcDbEntity
  8
0
100
AcDbLine
 62
250
  6
CONTINUOUS
 10
96.2326150413
 20
93.8134444211
 11
96.2320571262
 21
93.2404414211
  0
LINE
  5
464
100
AcDbEntity
  8
CURVE
100
AcDbLine
 62
250
  6
CONTINUOUS
 10
96.6358179552
 20
79.9187968154
 11
96.450131927
 21
79.7330826182
  0
LINE
  5
465
100
AcDbEntity
  8
CURVE
100
AcDbLine
 62
250
  6
CONTINUOUS
 10
96.0787599481
 20
78.8973684211
 11
95.8930739586
 21
78.7116542239
  0
LINE
  5
466
100
AcDbEntity
  8
CURVE
100
AcDbLine
 62
250
  6
CONTINUOUS
 10
97.0071899535
 20
79.2687968154
 11
97.1928759624
 21
79.4545110125
  0
LINE
  5
467
100
AcDbEntity
  8
CURVE
100
AcDbLine
 62
250
  6
CONTINUOUS
 10
96.0787599481
 20
77.8759400267
 11
95.8930739586
 21
77.6902258296
  0
LINE
  5
468
100
AcDbEntity
  8
CURVE
100
AcDbLine
 62
250
  6
CONTINUOUS
 10
96.0787599481
 20
76.8545113225
 11
95.8930739586
 21
76.6687971253
  0
LINE
  5
469
100
AcDbEntity
  8
CURVE
100
AcDbLine
 62
250
  6
CONTINUOUS
 10
96.2644459376
 20
74.9973684211
 11
97.1928759624
 21
75.2759397168
  0
LINE
  5
46A
100
AcDbEntity
  8
0
100
AcDbLine
 62
250
  6
CONTINUOUS
 10
101.6740191628
 20
95.4897304211
 11
102.6928759624
 21
95.4897304211
  0
LINE
  5
46B
100
AcDbEntity
  8
INCISIONI
100
AcDbLine
 62
250
  6
CONTINUOUS
 10
82.2931653416
 20
95.5053684482
 11
84.1928759624
 21
95.5053684482
  0
LINE
  5
46C
100
AcDbEntity
  8
0
100
AcDbLine
 62
250
  6
CONTINUOUS
 10
103.6928759624
 20
95.7275144211
 11
103.8928759624
 21
95.7275144211
  0
LINE
  5
46D
100
AcDbEntity
  8
INCISIONI
100
AcDbLine
 62
250
  6
CONTINUOUS
 10
83.243020652
 20
96.1133684754
 11
83.9214887187
 21
96.1133684754
  0
LINE
  5
46E
100
AcDbEntity
  8
0
100
AcDbLine
 62
7
  6
CONTINUOUS
 10
103.8928759624
 20
96.1572540988
 11
103.6928759624
 21
96.1572540988
  0
LINE
  5
46F
100
AcDbEntity
  8
0
100
AcDbLine
 62
7
  6
CONTINUOUS
 10
103.6928759624
 20
96.4222324211
 11
103.8928759624
 21
96.4222324211
  0
LINE
  5
470
100
AcDbEntity
  8
INCISIONI
100
AcDbLine
 62
250
  6
CONTINUOUS
 10
83.9214887187
 20
97.1773683486
 11
83.3787142596
 21
97.1773683486
  0
LINE
  5
471
100
AcDbEntity
  8
0
100
AcDbLine
 62
7
  6
CONTINUOUS
 10
103.6928759624
 20
97.4785054211
 11
103.8928759624
 21
97.4785054211
  0
LINE
  5
472
100
AcDbEntity
  8
0
100
AcDbLine
 62
7
  6
CONTINUOUS
 10
103.6928759624
 20
97.4925874211
 11
103.8928759624
 21
97.4925874211
  0
LINE
  5
473
100
AcDbEntity
  8
0
100
AcDbLine
 62
250
  6
CONTINUOUS
 10
99.4257456379
 20
94.2779614211
 11
96.5296617927
 21
94.5472074211
  0
LINE
  5
474
100
AcDbEntity
  8
INCISIONI
100
AcDbLine
 62
250
  6
CONTINUOUS
 10
77.196221
 20
98.3874034211
 11
81.6928759624
 21
97.2195114211
  0
LINE
  5
475
100
AcDbEntity
  8
INCISIONI
100
AcDbLine
 62
250
  6
CONTINUOUS
 10
78.9682830894
 20
98.4149614211
 11
81.195222587
 21
97.8365664211
  0
LINE
  5
476
100
AcDbEntity
  8
INCISIONI
100
AcDbLine
 62
250
  6
CONTINUOUS
 10
79.2194065773
 20
99.2664564211
 11
80.3866159527
 21
98.9633014211
  0
LWPOLYLINE
  5
477
100
AcDbEntity
  8
INCISIONI
100
AcDbPolyline
 62
250
  6
CONTINUOUS
 90
95
 70
0
 10
81.1784335382
 20
99.2296650354
 10
81.1852976302
 20
99.2266054141
 10
81.1923101671
 20
99.2239076339
 10
81.199447578
 20
99.2215252715
 10
81.2066862922
 20
99.2194119037
 10
81.2140027388
 20
99.217521107
 10
81.221373347
 20
99.2158064583
 10
81.2287745461
 20
99.2142215341
 10
81.2361827652
 20
99.2127199111
 10
81.250957341
 20
99.2098067225
 10
81.2656841935
 20
99.2068210916
 10
81.2754814905
 20
99.2046787318
 10
81.2852362424
 20
99.2023261256
 10
81.2949189206
 20
99.1996830225
 10
81.3021139105
 20
99.1974605905
 10
81.3092265903
 20
99.1949889154
 10
81.3162318035
 20
99.1922273088
 10
81.3231043937
 20
99.1891350822
 10
81.3284751435
 20
99.1864039538
 10
81.3337154806
 20
99.183424879
 10
81.3387955143
 20
99.180186473
 10
81.3436853536
 20
99.176677351
 10
81.3483551076
 20
99.1728861282
 10
81.352777501
 20
99.1688092021
 10
81.3569455547
 20
99.1644648298
 10
81.3608547184
 20
99.1598788312
 10
81.3645004416
 20
99.155077026
 10
81.367878174
 20
99.1500852343
 10
81.3717208894
 20
99.1436085792
 10
81.3751369686
 20
99.1369024331
 10
81.3781262982
 20
99.1299942231
 10
81.3806887647
 20
99.1229113767
 10
81.3824279079
 20
99.1171391336
 10
81.3838754329
 20
99.1112873291
 10
81.3850128693
 20
99.1053705756
 10
81.3858217469
 20
99.0994034852
 10
81.3862835954
 20
99.0934006704
 10
81.3863846319
 20
99.0873819619
 10
81.3861299778
 20
99.0813638759
 10
81.3855289533
 20
99.075368119
 10
81.3845908785
 20
99.0694163977
 10
81.3833250738
 20
99.0635304185
 10
81.3817419118
 20
99.0577203053
 10
81.3798697279
 20
99.0519984144
 10
81.3777388011
 20
99.0463652746
 10
81.3753794105
 20
99.0408214148
 10
81.3728218352
 20
99.0353673638
 10
81.3693832825
 20
99.028665429
 10
81.3657157332
 20
99.0220910317
 10
81.3618532544
 20
99.0156301744
 10
81.3578299132
 20
99.0092688594
 10
81.3522713298
 20
99.0009156474
 10
81.346553007
 20
98.9926710556
 10
81.3407406408
 20
98.9844916101
 10
81.3319410248
 20
98.9722827319
 10
81.323006898
 20
98.9601728585
 10
81.3138647088
 20
98.9482174804
 10
81.3044294001
 20
98.9364927648
 10
81.2979353146
 20
98.9288438446
 10
81.2912595553
 20
98.9213524396
 10
81.2843897759
 20
98.9140373673
 10
81.2758856799
 20
98.9055222061
 10
81.2670956209
 20
98.8972968299
 10
81.2580302686
 20
98.8893705127
 10
81.2487002927
 20
98.8817525285
 10
81.2391163628
 20
98.8744521513
 10
81.2292902419
 20
98.867481445
 10
81.2192288442
 20
98.8608571676
 10
81.2089401014
 20
98.8545989689
 10
81.1984319452
 20
98.8487264988
 10
81.1877123071
 20
98.8432594069
 10
81.17861531
 20
98.8390215814
 10
81.1693870929
 20
98.8350807199
 10
81.1600380714
 20
98.8314380409
 10
81.1505798603
 20
98.8280906715
 10
81.1410278887
 20
98.8250190336
 10
81.1313987812
 20
98.8221994686
 10
81.1197662635
 20
98.8191152748
 10
81.1080616387
 20
98.8163134399
 10
81.0962998897
 20
98.8137475818
 10
81.0844959993
 20
98.8113713187
 10
81.0726649503
 20
98.8091382684
 10
81.0578508353
 20
98.8064948617
 10
81.0430112234
 20
98.8040194271
 10
81.0281375373
 20
98.8017521148
 10
81.0132124942
 20
98.7998272679
 10
81.0032269825
 20
98.7988117928
 10
80.9932199309
 20
98.7980626059
 10
80.9832012459
 20
98.7976236105
 10
80.9731789552
 20
98.7975334889
 10
80.9631529675
 20
98.7978100369
 10
80.9531213123
 20
98.7984658361
 10
80.9422718607
 20
98.7996130596
 10
80.931443092
 20
98.8012159292
 10
80.920664618
 20
98.8032720478
  0
LINE
  5
478
100
AcDbEntity
  8
INCISIONI
100
AcDbLine
 62
250
  6
CONTINUOUS
 10
82.8359397723
 20
99.0013684935
 11
82.5645525569
 21
99.1533684211
  0
LINE
  5
479
100
AcDbEntity
  8
INCISIONI
100
AcDbLine
 62
250
  6
CONTINUOUS
 10
94.1924200823
 20
93.1973684211
 11
92.6928759624
 21
95.7269554211
  0
LINE
  5
47A
100
AcDbEntity
  8
0
100
AcDbLine
 62
250
  6
CONTINUOUS
 10
99.8638229065
 20
92.6225424211
 11
99.8638229065
 21
93.9684094211
  0
LINE
  5
47B
100
AcDbEntity
  8
0
100
AcDbLine
 62
250
  6
CONTINUOUS
 10
100.0602409865
 20
92.7968714211
 11
100.0602409865
 21
92.6792514211
  0
LWPOLYLINE
  5
47C
100
AcDbEntity
  8
RACCORDO
100
AcDbPolyline
 62
250
  6
CONTINUOUS
 90
13
 70
0
 10
83.7103283688
 20
60.0373135734
 10
83.7105004285
 20
60.0375192794
 10
83.7106651351
 20
60.0381299339
 10
83.7108222214
 20
60.0391445467
 10
83.7109714327
 20
60.0405614727
 10
83.7111125272
 20
60.0423784147
 10
83.711245276
 20
60.0445924266
 10
83.711369464
 20
60.0471999187
 10
83.7114848897
 20
60.0501966633
 10
83.7115913661
 20
60.0535778015
 10
83.7116887205
 20
60.0573378513
 10
83.7117767949
 20
60.0614707162
 10
83.7119245484
 20
60.0708274939
  0
LINE
  5
47D
100
AcDbEntity
  8
CURVE
100
AcDbLine
 62
250
  6
CONTINUOUS
 10
96.8215039447
 20
74.0687969703
 11
96.2644459376
 21
73.4187969703
  0
LINE
  5
47E
100
AcDbEntity
  8
CURVE
100
AcDbLine
 62
250
  6
CONTINUOUS
 10
95.8930739586
 20
73.9759398718
 11
95.9859169921
 21
74.0687969703
  0
LINE
  5
47F
100
AcDbEntity
  8
CURVE
100
AcDbLine
 62
250
  6
CONTINUOUS
 10
95.8930739586
 20
72.3973684211
 11
97.1928759624
 21
73.0473684211
  0
LINE
  5
480
100
AcDbEntity
  8
RACCORDO
100
AcDbLine
 62
7
  6
CONTINUOUS
 10
73.574293399
 20
61.6811169756
 11
73.6492650697
 21
61.71840808
  0
LINE
  5
481
100
AcDbEntity
  8
RACCORDO
100
AcDbLine
 62
7
  6
CONTINUOUS
 10
73.5242272459
 20
61.6564218646
 11
73.574293399
 21
61.6811169756
  0
LINE
  5
482
100
AcDbEntity
  8
INCISIONI
100
AcDbLine
 62
250
  6
CONTINUOUS
 10
82.1931044196
 20
68.6573685069
 11
83.6928759624
 21
69.1373684783
  0
LWPOLYLINE
  5
483
100
AcDbEntity
  8
INCISIONI
100
AcDbPolyline
 62
250
  6
CONTINUOUS
 90
45
 70
0
 10
81.195222587
 20
97.8365664211
 10
81.2105877532
 20
97.8384114912
 10
81.2259031293
 20
97.8406619388
 10
81.2411561121
 20
97.843315847
 10
81.2563340984
 20
97.8463712989
 10
81.2714249386
 20
97.8498262364
 10
81.2864182974
 20
97.8536780365
 10
81.3013042933
 20
97.857923935
 10
81.3160730447
 20
97.8625611677
 10
81.3307146181
 20
97.8675867784
 10
81.3452188735
 20
97.872997043
 10
81.359575619
 20
97.8787880455
 10
81.3737746624
 20
97.8849558696
 10
81.3878059196
 20
97.8914964297
 10
81.4016597361
 20
97.8984049612
 10
81.415326565
 20
97.9056765296
 10
81.4287968594
 20
97.9133062009
 10
81.4420611602
 20
97.9212888759
 10
81.4551103581
 20
97.9296187967
 10
81.4679354316
 20
97.9382900405
 10
81.4805273594
 20
97.9472966845
 10
81.4928772344
 20
97.9566326541
 10
81.5049766081
 20
97.9662912665
 10
81.5168171464
 20
97.9762656871
 10
81.5283905154
 20
97.9865490811
 10
81.5396885076
 20
97.9971344717
 10
81.5507034216
 20
98.0080143132
 10
81.5614276826
 20
98.0191809178
 10
81.5718537157
 20
98.0306265976
 10
81.5819740905
 20
98.0423435466
 10
81.5917819538
 20
98.054323486
 10
81.6012705966
 20
98.0665580188
 10
81.6104333103
 20
98.0790387481
 10
81.6192635311
 20
98.091757138
 10
81.6277552766
 20
98.1047040982
 10
81.6359027096
 20
98.1178703991
 10
81.6436999929
 20
98.1312468115
 10
81.6511414876
 20
98.1448241191
 10
81.6582223482
 20
98.1585931581
 10
81.6649379275
 20
98.1725447776
 10
81.6712835784
 20
98.1866698268
 10
81.6772547032
 20
98.2009586824
 10
81.6828469022
 20
98.2153998304
 10
81.6880558252
 20
98.2299812843
 10
81.6928771221
 20
98.2446910576
  0
LINE
  5
484
100
AcDbEntity
  8
RACCORDO
100
AcDbLine
 62
250
  6
CONTINUOUS
 10
70.6928759624
 20
98.3668624607
 11
74.1928759624
 21
98.397406498
  0
LINE
  5
485
100
AcDbEntity
  8
RACCORDO
100
AcDbLine
 62
7
  6
CONTINUOUS
 10
70.6928759624
 20
99.3668243838
 11
74.1928759624
 21
99.3973684211
  0
LINE
  5
486
100
AcDbEntity
  8
0
100
AcDbLine
 62
7
  6
CONTINUOUS
 10
103.6928759624
 20
97.7490424211
 11
103.8928759624
 21
97.7490424211
  0
LINE
  5
487
100
AcDbEntity
  8
0
100
AcDbLine
 62
7
  6
CONTINUOUS
 10
103.6928759624
 20
97.9813404211
 11
103.8928759624
 21
97.9813404211
  0
LINE
  5
488
100
AcDbEntity
  8
INCISIONI
100
AcDbLine
 62
250
  6
CONTINUOUS
 10
82.2931653416
 20
98.3933685298
 11
84.1928759624
 21
98.3933685298
  0
LINE
  5
489
100
AcDbEntity
  8
0
100
AcDbLine
 62
7
  6
CONTINUOUS
 10
103.6928759624
 20
98.7102894211
 11
103.8928759624
 21
98.7102894211
  0
LINE
  5
48A
100
AcDbEntity
  8
0
100
AcDbLine
 62
7
  6
CONTINUOUS
 10
103.6928759624
 20
98.9001124211
 11
103.8928759624
 21
98.9001124211
  0
LINE
  5
48B
100
AcDbEntity
  8
INCISIONI
100
AcDbLine
 62
250
  6
CONTINUOUS
 10
83.650101475
 20
99.0013684935
 11
82.8359397723
 21
99.0013684935
  0
LINE
  5
48C
100
AcDbEntity
  8
0
100
AcDbLine
 62
7
  6
CONTINUOUS
 10
103.6928759624
 20
99.2171314211
 11
103.8928759624
 21
99.2171314211
  0
LINE
  5
48D
100
AcDbEntity
  8
0
100
AcDbLine
 62
250
  6
CONTINUOUS
 10
103.6928759624
 20
99.8048024211
 11
103.8928759624
 21
99.8048024211
  0
LINE
  5
48E
100
AcDbEntity
  8
RACCORDO
100
AcDbLine
 62
7
  6
CONTINUOUS
 10
103.6928759624
 20
99.1973684211
 11
106.3944467515
 21
99.1832229002
  0
LWPOLYLINE
  5
48F
100
AcDbEntity
  8
RACCORDO
100
AcDbPolyline
 62
250
  6
CONTINUOUS
 90
3
 70
0
 10
64.5629624743
 20
100.6607822576
 10
64.5261792698
 20
100.662310019
 10
64.5236723281
 20
100.6624356739
  0
LWPOLYLINE
  5
490
100
AcDbEntity
  8
ASSI
100
AcDbPolyline
 62
250
  6
CONTINUOUS
 90
3
 70
0
 10
64.5629624743
 20
100.6607822576
 10
64.5261792698
 20
100.662310019
 10
64.5236723281
 20
100.6624356739
  0
LWPOLYLINE
  5
491
100
AcDbEntity
  8
INCISIONI
100
AcDbPolyline
 62
250
  6
CONTINUOUS
 90
24
 70
0
 10
80.920664618
 20
98.8032720478
 10
80.9169328049
 20
98.8040930233
 10
80.9132119053
 20
98.8049684433
 10
80.9095031651
 20
98.8058982069
 10
80.9058078305
 20
98.8068822133
 10
80.9021271474
 20
98.8079203615
 10
80.8984623621
 20
98.8090125507
 10
80.8948147206
 20
98.81015868
 10
80.891185469
 20
98.8113586485
 10
80.8875758533
 20
98.8126123553
 10
80.8839871197
 20
98.8139196996
 10
80.8804205143
 20
98.8152805805
 10
80.876877283
 20
98.816694897
 10
80.8733586721
 20
98.8181625484
 10
80.8698659276
 20
98.8196834337
 10
80.8664002956
 20
98.821257452
 10
80.8629630221
 20
98.8228845025
 10
80.8595553533
 20
98.8245644843
 10
80.8561785352
 20
98.8262972965
 10
80.8528338139
 20
98.8280828382
 10
80.8495224356
 20
98.8299210086
 10
80.8462456462
 20
98.8318117067
 10
80.843004692
 20
98.8337548318
 10
80.8398008189
 20
98.8357502828
  0
LWPOLYLINE
  5
492
100
AcDbEntity
  8
INCISIONI
100
AcDbPolyline
 62
250
  6
CONTINUOUS
 90
69
 70
0
 10
81.0925108812
 20
100.6290814211
 10
81.1050114231
 20
100.6260133703
 10
81.1175933242
 20
100.6232811063
 10
81.1302458536
 20
100.6208869019
 10
81.1429582802
 20
100.6188330298
 10
81.1557201954
 20
100.6171215086
 10
81.1685224794
 20
100.6157533404
 10
81.1813563351
 20
100.6147292729
 10
81.1942129649
 20
100.614050054
 10
81.2070834721
 20
100.6137162898
 10
81.2199585626
 20
100.6137280198
 10
81.2328288428
 20
100.6140851415
 10
81.2456849189
 20
100.6147875526
 10
81.2585174336
 20
100.6158349789
 10
81.271317174
 20
100.6172264579
 10
81.2840749633
 20
100.6189608551
 10
81.2967816249
 20
100.6210370361
 10
81.3094280044
 20
100.6234537049
 10
81.3220050363
 20
100.6262089187
 10
81.3345036777
 20
100.6293005731
 10
81.3469148853
 20
100.6327265637
 10
81.3592296642
 20
100.6364846263
 10
81.3714392117
 20
100.6405718574
 10
81.3835347728
 20
100.6449851937
 10
81.395507593
 20
100.6497215719
 10
81.4073489801
 20
100.6547777754
 10
81.4190504922
 20
100.660149974
 10
81.4306037502
 20
100.6658341845
 10
81.442000375
 20
100.6718264233
 10
81.4532320666
 20
100.6781225612
 10
81.4642908423
 20
100.6847178855
 10
81.4751687984
 20
100.6916075376
 10
81.4858580315
 20
100.6987866589
 10
81.4963507324
 20
100.7062502542
 10
81.5066394688
 20
100.7139927824
 10
81.5167169029
 20
100.7220085658
 10
81.5265756969
 20
100.7302919269
 10
81.5362086213
 20
100.7388370622
 10
81.5456088801
 20
100.7476376662
 10
81.554769786
 20
100.7566873078
 10
81.5636846514
 20
100.7659795557
 10
81.5723469101
 20
100.7755078653
 10
81.5807504806
 20
100.7852652385
 10
81.5888894029
 20
100.7952445634
 10
81.5967577167
 20
100.8054387286
 10
81.6043495945
 20
100.8158405232
 10
81.6116597394
 20
100.8264423398
 10
81.6186829872
 20
100.8372364719
 10
81.6254141736
 20
100.848215213
 10
81.6318482769
 20
100.8593707699
 10
81.6379808457
 20
100.8706950026
 10
81.6438075712
 20
100.8821796846
 10
81.6493241444
 20
100.893816589
 10
81.6545264073
 20
100.9055974271
 10
81.6594108052
 20
100.9175136612
 10
81.6639739342
 20
100.9295566915
 10
81.6682123904
 20
100.9417179182
 10
81.6721229273
 20
100.9539886633
 10
81.6757029277
 20
100.9663599359
 10
81.678949932
 20
100.9788226666
 10
81.6818614804
 20
100.9913677864
 10
81.6844352753
 20
101.0039862867
 10
81.6866696672
 20
101.0166694013
 10
81.688563169
 20
101.0294084246
 10
81.6901142934
 20
101.0421946512
 10
81.6913217181
 20
101.0550189995
 10
81.6921847805
 20
101.0678708845
 10
81.6927029828
 20
101.0807393453
 10
81.6928758275
 20
101.0936134211
  0
LWPOLYLINE
  5
493
100
AcDbEntity
  8
INCISIONI
100
AcDbPolyline
 62
250
  6
CONTINUOUS
 90
69
 70
0
 10
79.353413748
 20
100.6309114211
 10
79.3397358483
 20
100.6343439017
 10
79.3259666438
 20
100.6374079093
 10
79.3121179461
 20
100.6401008792
 10
79.2982015665
 20
100.6424202466
 10
79.284228963
 20
100.6443637295
 10
79.2702101789
 20
100.6459301751
 10
79.256154904
 20
100.6471187135
 10
79.2420728281
 20
100.6479284746
 10
79.2279737512
 20
100.6483587443
 10
79.2138679143
 20
100.648409433
 10
79.1997656684
 20
100.6480806072
 10
79.1856773648
 20
100.6473723332
 10
79.1716133156
 20
100.6462848677
 10
79.1575836766
 20
100.6448192286
 10
79.1435985648
 20
100.6429766237
 10
79.1296680971
 20
100.6407582611
 10
79.1158023664
 20
100.6381655276
 10
79.10201137
 20
100.6352005248
 10
79.0883050814
 20
100.6318655332
 10
79.0746934739
 20
100.6281628332
 10
79.0611864683
 20
100.624094882
 10
79.047793776
 20
100.6196648441
 10
79.0345250555
 20
100.6148760607
 10
79.0213899656
 20
100.6097318732
 10
79.0083980963
 20
100.6042357923
 10
78.9955587634
 20
100.5983920079
 10
78.982881214
 20
100.5922048794
 10
78.9703746953
 20
100.5856787662
 10
78.9580483671
 20
100.5788181891
 10
78.9459110411
 20
100.5716283149
 10
78.9339714419
 20
100.5641144717
 10
78.9222382938
 20
100.5562819878
 10
78.9107202176
 20
100.5481363423
 10
78.8994254189
 20
100.5396836192
 10
78.8883619997
 20
100.5309300534
 10
78.8775380618
 20
100.5218818801
 10
78.8669615878
 20
100.5125454732
 10
78.8566400823
 20
100.5029277632
 10
78.8465809305
 20
100.4930358194
 10
78.8367915178
 20
100.4828767114
 10
78.8272790956
 20
100.4724576343
 10
78.8180503808
 20
100.4617862854
 10
78.8091119565
 20
100.4508704881
 10
78.800470406
 20
100.4397180654
 10
78.7921321659
 20
100.4283369502
 10
78.7841030875
 20
100.416735515
 10
78.7763888757
 20
100.4049222417
 10
78.7689952352
 20
100.3929056125
 10
78.7619277135
 20
100.3806942056
 10
78.7551912285
 20
100.3682969832
 10
78.7487905406
 20
100.3557230037
 10
78.7427304103
 20
100.3429813254
 10
78.7370154315
 20
100.3300810756
 10
78.7316495316
 20
100.3170316575
 10
78.7266364718
 20
100.3038425429
 10
78.721980013
 20
100.2905232041
 10
78.7176837424
 20
100.2770831995
 10
78.7137505516
 20
100.2635324338
 10
78.7101831588
 20
100.2498808983
 10
78.7069842818
 20
100.2361385841
 10
78.7041564595
 20
100.2223154159
 10
78.7017015145
 20
100.2084210521
 10
78.6996210902
 20
100.1944650845
 10
78.6979168302
 20
100.1804571051
 10
78.6965901955
 20
100.1664071199
 10
78.6956419184
 20
100.1523267924
 10
78.6950725488
 20
100.1382282002
 10
78.6948826368
 20
100.1241234211
  0
LINE
  5
494
100
AcDbEntity
  8
INCISIONI
100
AcDbLine
 62
250
  6
CONTINUOUS
 10
79.0179009718
 20
99.7730434211
 11
80.1644066553
 21
99.4752714211
  0
LINE
  5
495
100
AcDbEntity
  8
INCISIONI
100
AcDbLine
 62
250
  6
CONTINUOUS
 10
79.353413748
 20
100.6309114211
 11
80.1505058906
 21
100.4238834211
  0
LINE
  5
496
100
AcDbEntity
  8
INCISIONI
100
AcDbLine
 62
250
  6
CONTINUOUS
 10
80.7248528989
 20
100.2747114211
 11
81.3353169032
 21
100.1161614211
  0
LINE
  5
497
100
AcDbEntity
  8
INCISIONI
100
AcDbLine
 62
250
  6
CONTINUOUS
 10
81.0925108812
 20
100.6290814211
 11
80.504794946
 21
100.7817264211
  0
LINE
  5
498
100
AcDbEntity
  8
INCISIONI
100
AcDbLine
 62
250
  6
CONTINUOUS
 10
79.9304479377
 20
100.9308984211
 11
79.1232288806
 21
101.1405534211
  0
LWPOLYLINE
  5
499
100
AcDbEntity
  8
INCISIONI
100
AcDbPolyline
 62
250
  6
CONTINUOUS
 90
49
 70
0
 10
79.3084131237
 20
102.0317576186
 10
79.27157454
 20
102.044020835
 10
79.2532076553
 20
102.0503160608
 10
79.234951663
 20
102.0569183975
 10
79.216869952
 20
102.0639759229
 10
79.2034638361
 20
102.0696606112
 10
79.190244153
 20
102.0757653131
 10
79.1772606038
 20
102.0823597741
 10
79.1645512671
 20
102.0894701425
 10
79.1562485896
 20
102.094504858
 10
79.1480978106
 20
102.0997815641
 10
79.1401133667
 20
102.1053061539
 10
79.1323101715
 20
102.1110845758
 10
79.1247054344
 20
102.1171227088
 10
79.1173168387
 20
102.1234264826
 10
79.1101656776
 20
102.1300031915
 10
79.1032890689
 20
102.1368642985
 10
79.0967277252
 20
102.144022613
 10
79.0905095916
 20
102.1514804464
 10
79.0846114204
 20
102.1591982654
 10
79.0789971983
 20
102.1671260409
 10
79.0710161489
 20
102.1793081666
 10
79.0633925984
 20
102.1917167436
 10
79.0559742277
 20
102.2042487451
 10
79.0488012319
 20
102.2169222363
 10
79.0419634008
 20
102.2297824556
 10
79.0355569137
 20
102.242861313
 10
79.0296523964
 20
102.2561746107
 10
79.0242123379
 20
102.2696861343
 10
79.0191737027
 20
102.2833506128
 10
79.0144799438
 20
102.2971374696
 10
79.0100968612
 20
102.3110265634
 10
79.0060735567
 20
102.3250237233
 10
79.0024771561
 20
102.3391382133
 10
78.9993637982
 20
102.3533663459
 10
78.9967694631
 20
102.36769809
 10
78.9946606368
 20
102.3821103582
 10
78.9929895702
 20
102.3965789975
 10
78.9917211662
 20
102.4110880612
 10
78.9908332804
 20
102.4256249564
 10
78.9903429752
 20
102.4401819137
 10
78.9902763598
 20
102.4547432701
 10
78.9906565338
 20
102.4693023594
 10
78.9915062858
 20
102.4838434062
 10
78.9928484043
 20
102.4983506352
 10
78.9947054761
 20
102.5128135954
 10
78.9970932477
 20
102.5271981692
 10
79.0000267294
 20
102.5414756146
 10
79.0035209315
 20
102.5556171899
  0
LWPOLYLINE
  5
49A
100
AcDbEntity
  8
RACCORDO
100
AcDbPolyline
 62
7
  6
CONTINUOUS
 90
20
 70
0
 10
73.4492887366
 20
106.1745401085
 10
73.4244055706
 20
106.1862762249
 10
73.3995963883
 20
106.1978020968
 10
73.3748782104
 20
106.2091142874
 10
73.3502491838
 20
106.2201147076
 10
73.3257313849
 20
106.2308096804
 10
73.3013440828
 20
106.2411928828
 10
73.2770830634
 20
106.2511472571
 10
73.2529716234
 20
106.2606833307
 10
73.2290317523
 20
106.2697905764
 10
73.2052598138
 20
106.2783203546
 10
73.181680278
 20
106.2862899576
 10
73.1583189758
 20
106.2936820932
 10
73.1351774075
 20
106.3002962458
 10
73.1122761469
 20
106.3061613828
 10
73.089650934
 20
106.3112485369
 10
73.0673282725
 20
106.3152702897
 10
73.0453369494
 20
106.3181308354
 10
73.0237078389
 20
106.3199259799
 10
73.0024714836
 20
106.3206557233
  0
LINE
  5
49B
100
AcDbEntity
  8
RACCORDO
100
AcDbLine
 62
7
  6
CONTINUOUS
 10
73.4992094458
 20
106.1505146098
 11
73.4492887366
 21
106.1745401085
  0
LINE
  5
49C
100
AcDbEntity
  8
RACCORDO
100
AcDbLine
 62
7
  6
CONTINUOUS
 10
73.5492579666
 20
106.1259894421
 11
73.4992094458
 21
106.1505146098
  0
LWPOLYLINE
  5
49D
100
AcDbEntity
  8
RACCORDO
100
AcDbPolyline
 62
7
  6
CONTINUOUS
 90
3
 70
0
 10
73.6492650697
 20
106.0763287621
 10
73.6243155216
 20
106.0888031704
 10
73.5492579666
 20
106.1259894421
  0
LINE
  5
49E
100
AcDbEntity
  8
INCISIONI
100
AcDbLine
 62
250
  6
CONTINUOUS
 10
83.650101475
 20
100.0653684935
 11
83.9214887187
 21
99.913368566
  0
LWPOLYLINE
  5
49F
100
AcDbEntity
  8
RACCORDO
100
AcDbPolyline
 62
250
  6
CONTINUOUS
 90
11
 70
0
 10
83.7103283688
 20
107.7574232687
 10
83.7105004285
 20
107.7572175627
 10
83.7106651351
 20
107.7566069081
 10
83.7108222214
 20
107.7555922952
 10
83.7109714328
 20
107.754175369
 10
83.7111125272
 20
107.7523584268
 10
83.7112452761
 20
107.7501444147
 10
83.7113694641
 20
107.7475369223
 10
83.7114848898
 20
107.7445401774
 10
83.7115913662
 20
107.7411590388
 10
83.7116887205
 20
107.7373989886
  0
LINE
  5
4A0
100
AcDbEntity
  8
0
100
AcDbLine
 62
250
  6
CONTINUOUS
 10
101.6740191628
 20
91.3050064211
 11
101.6740191628
 21
95.4897304211
  0
LINE
  5
4A1
100
AcDbEntity
  8
CURVE
100
AcDbLine
 62
250
  6
CONTINUOUS
 10
97.1000329579
 20
73.4187969703
 11
97.1928759624
 21
73.5116541464
  0
LWPOLYLINE
  5
4A2
100
AcDbEntity
  8
0
100
AcDbPolyline
 62
7
  6
CONTINUOUS
 90
39
 70
0
 10
73.4428815992
 20
100.8973684141
 10
73.4358085981
 20
100.8972813418
 10
73.4071748903
 20
100.8951634102
 10
73.3795768509
 20
100.8904507626
 10
73.3532210907
 20
100.8834467275
 10
73.3282542283
 20
100.8744288948
 10
73.304767277
 20
100.8636387951
 10
73.2828123134
 20
100.8512787661
 10
73.2625162168
 20
100.8375863314
 10
73.2440228904
 20
100.8228430744
 10
73.2272702319
 20
100.8071862431
 10
73.212297567
 20
100.7908658411
 10
73.1992483883
 20
100.7744133874
 10
73.1879536174
 20
100.7580618415
 10
73.1782430275
 20
100.74199803
 10
73.1701241402
 20
100.7267213645
 10
73.1634640194
 20
100.7125527164
 10
73.157966162
 20
100.6994106738
 10
73.1533831422
 20
100.68716612
 10
73.1496016761
 20
100.6759395962
 10
73.1464672137
 20
100.6656722686
 10
73.1437578557
 20
100.6559388653
 10
73.1414017854
 20
100.6467006967
 10
73.1393550295
 20
100.6379914266
 10
73.1375052216
 20
100.6294931554
 10
73.1358207981
 20
100.6211724772
 10
73.1342849451
 20
100.6130512054
 10
73.1328390487
 20
100.6048983975
 10
73.1314667969
 20
100.5966720036
 10
73.1301641824
 20
100.5883950069
 10
73.1289043928
 20
100.5799335595
 10
73.1276798273
 20
100.5712593019
 10
73.1264884084
 20
100.562378737
 10
73.1253170387
 20
100.5532101152
 10
73.1241619117
 20
100.5437325673
 10
73.123021778
 20
100.5339439467
 10
73.1218898077
 20
100.5237907886
 10
73.1207639696
 20
100.5132563469
 10
73.1185244604
 20
100.4909860719
  0
LINE
  5
4A3
100
AcDbEntity
  8
INCISIONI
100
AcDbLine
 62
250
  6
CONTINUOUS
 10
82.8359397723
 20
100.0653684935
 11
83.650101475
 21
100.0653684935
  0
LINE
  5
4A4
100
AcDbEntity
  8
0
100
AcDbLine
 62
7
  6
CONTINUOUS
 10
103.6928759624
 20
100.4139581821
 11
103.8928759624
 21
100.4139581821
  0
LINE
  5
4A5
100
AcDbEntity
  8
0
100
AcDbLine
 62
7
  6
CONTINUOUS
 10
103.6928759624
 20
100.6872814211
 11
103.8928759624
 21
100.6872814211
  0
LINE
  5
4A6
100
AcDbEntity
  8
0
100
AcDbLine
 62
7
  6
CONTINUOUS
 10
103.6928759624
 20
100.8973684211
 11
103.8928759624
 21
100.8973684211
  0
LINE
  5
4A7
100
AcDbEntity
  8
INCISIONI
100
AcDbLine
 62
250
  6
CONTINUOUS
 10
82.2931653416
 20
101.2813684211
 11
84.1928759624
 21
101.2813684211
  0
LINE
  5
4A8
100
AcDbEntity
  8
ASSI
100
AcDbLine
 62
7
  6
CONTINUOUS
 10
71.5857691812
 20
101.5973684211
 11
70.6928759624
 21
101.5973684211
  0
LINE
  5
4A9
100
AcDbEntity
  8
RACCORDO
100
AcDbLine
 62
250
  6
CONTINUOUS
 10
64.8182030974
 20
100.650601509
 11
64.5629624743
 21
100.6607822576
  0
LINE
  5
4AA
100
AcDbEntity
  8
ASSI
100
AcDbLine
 62
250
  6
CONTINUOUS
 10
64.8182030974
 20
100.650601509
 11
64.5629624743
 21
100.6607822576
  0
LINE
  5
4AB
100
AcDbEntity
  8
INCISIONI
100
AcDbLine
 62
250
  6
CONTINUOUS
 10
80.4462827735
 20
101.7357564211
 11
80.9798931934
 21
101.5971614211
  0
LINE
  5
4AC
100
AcDbEntity
  8
INCISIONI
100
AcDbLine
 62
250
  6
CONTINUOUS
 10
80.2285321176
 20
102.2374514211
 11
81.4045058228
 21
101.9320184211
  0
LINE
  5
4AD
100
AcDbEntity
  8
INCISIONI
100
AcDbLine
 62
250
  6
CONTINUOUS
 10
79.0035223527
 20
102.5556164211
 11
79.8277962135
 21
102.3415334211
  0
LINE
  5
4AE
100
AcDbEntity
  8
INCISIONI
100
AcDbLine
 62
250
  6
CONTINUOUS
 10
81.6928759624
 20
102.8425334211
 11
79.2274841162
 21
103.4828584211
  0
LINE
  5
4AF
100
AcDbEntity
  8
0
100
AcDbLine
 62
250
  6
CONTINUOUS
 10
100.6034722371
 20
91.0217464211
 11
95.5939573267
 21
95.9583784211
  0
LINE
  5
4B0
100
AcDbEntity
  8
RACCORDO
100
AcDbLine
 62
250
  6
CONTINUOUS
 10
103.2041152314
 20
102.6351235269
 11
103.2044241335
 21
102.6226004949
  0
LINE
  5
4B1
100
AcDbEntity
  8
RACCORDO
100
AcDbLine
 62
250
  6
CONTINUOUS
 10
103.2044241335
 20
102.6226004949
 11
103.204683601
 21
102.6081284037
  0
LINE
  5
4B2
100
AcDbEntity
  8
RACCORDO
100
AcDbLine
 62
250
  6
CONTINUOUS
 10
103.2035623766
 20
65.4980902329
 11
103.2016021656
 21
65.6274588706
  0
LINE
  5
4B3
100
AcDbEntity
  8
RACCORDO
100
AcDbLine
 62
250
  6
CONTINUOUS
 10
103.204683601
 20
102.6081284037
 11
103.2049777434
 21
102.5829034384
  0
LINE
  5
4B4
100
AcDbEntity
  8
RACCORDO
100
AcDbLine
 62
250
  6
CONTINUOUS
 10
103.2046837429
 20
65.3918326658
 11
103.2035623766
 21
65.4980902329
  0
LINE
  5
4B5
100
AcDbEntity
  8
RACCORDO
100
AcDbLine
 62
250
  6
CONTINUOUS
 10
103.2049777434
 20
102.5829034384
 11
103.2051553793
 21
102.5536771364
  0
LINE
  5
4B6
100
AcDbEntity
  8
RACCORDO
100
AcDbLine
 62
250
  6
CONTINUOUS
 10
103.2051554281
 20
65.3103551226
 11
103.2046837429
 21
65.3918326658
  0
LINE
  5
4B7
100
AcDbEntity
  8
0
100
AcDbLine
 62
250
  6
CONTINUOUS
 10
102.6928759624
 20
95.4897304211
 11
102.6928759624
 21
91.3050064211
  0
LINE
  5
4B8
100
AcDbEntity
  8
RACCORDO
100
AcDbLine
 62
250
  6
CONTINUOUS
 10
103.2016021656
 20
102.1672779715
 11
103.2016021656
 21
65.6274588706
  0
LINE
  5
4B9
100
AcDbEntity
  8
RACCORDO
100
AcDbLine
 62
7
  6
CONTINUOUS
 10
103.6928759624
 20
102.1672779715
 11
103.6928759624
 21
65.6274588706
  0
LINE
  5
4BA
100
AcDbEntity
  8
0
100
AcDbLine
 62
7
  6
CONTINUOUS
 10
103.8928759624
 20
100.8973684211
 11
103.8928759624
 21
99.2171314211
  0
LINE
  5
4BB
100
AcDbEntity
  8
0
100
AcDbLine
 62
7
  6
CONTINUOUS
 10
103.8928759624
 20
98.9001124211
 11
103.8928759624
 21
97.7490424211
  0
LINE
  5
4BC
100
AcDbEntity
  8
0
100
AcDbLine
 62
7
  6
CONTINUOUS
 10
103.8928759624
 20
97.4925874211
 11
103.8928759624
 21
96.4222324211
  0
LINE
  5
4BD
100
AcDbEntity
  8
0
100
AcDbLine
 62
7
  6
CONTINUOUS
 10
103.8928759624
 20
96.1572208215
 11
103.8928759624
 21
95.0752724211
  0
LINE
  5
4BE
100
AcDbEntity
  8
0
100
AcDbLine
 62
7
  6
CONTINUOUS
 10
103.8928759624
 20
94.1645144211
 11
103.8928759624
 21
93.9545414211
  0
LINE
  5
4BF
100
AcDbEntity
  8
0
100
AcDbLine
 62
7
  6
CONTINUOUS
 10
103.8928759624
 20
93.7505224211
 11
103.8928759624
 21
92.5732354211
  0
LINE
  5
4C0
100
AcDbEntity
  8
0
100
AcDbLine
 62
7
  6
CONTINUOUS
 10
103.8928759624
 20
92.5187384211
 11
103.8928759624
 21
91.2262744211
  0
LINE
  5
4C1
100
AcDbEntity
  8
0
100
AcDbLine
 62
7
  6
CONTINUOUS
 10
103.8928759624
 20
91.1066641693
 11
103.8928759624
 21
90.0247154211
  0
LINE
  5
4C2
100
AcDbEntity
  8
0
100
AcDbLine
 62
7
  6
CONTINUOUS
 10
103.8928759624
 20
81.3110214211
 11
103.8928759624
 21
80.0205034211
  0
LINE
  5
4C3
100
AcDbEntity
  8
0
100
AcDbLine
 62
7
  6
CONTINUOUS
 10
103.8928759624
 20
79.9538964211
 11
103.8928759624
 21
79.0228004211
  0
LINE
  5
4C4
100
AcDbEntity
  8
0
100
AcDbLine
 62
7
  6
CONTINUOUS
 10
103.8928759624
 20
78.8431484211
 11
103.8928759624
 21
78.8334604211
  0
LINE
  5
4C5
100
AcDbEntity
  8
ASSI
100
AcDbLine
 62
7
  6
CONTINUOUS
 10
103.8928759624
 20
78.8334604211
 11
103.8928759624
 21
76.5926064211
  0
LINE
  5
4C6
100
AcDbEntity
  8
0
100
AcDbLine
 62
7
  6
CONTINUOUS
 10
103.8928759624
 20
76.5926064211
 11
103.8928759624
 21
76.3166304211
  0
LINE
  5
4C7
100
AcDbEntity
  8
ASSI
100
AcDbLine
 62
7
  6
CONTINUOUS
 10
103.8928759624
 20
76.2192614211
 11
103.8928759624
 21
73.8611644211
  0
LINE
  5
4C8
100
AcDbEntity
  8
0
100
AcDbLine
 62
7
  6
CONTINUOUS
 10
103.8928759624
 20
73.5255824211
 11
103.8928759624
 21
73.4878194211
  0
LINE
  5
4C9
100
AcDbEntity
  8
ASSI
100
AcDbLine
 62
7
  6
CONTINUOUS
 10
103.8928759624
 20
73.4878194211
 11
103.8928759624
 21
70.7488314211
  0
LINE
  5
4CA
100
AcDbEntity
  8
0
100
AcDbLine
 62
7
  6
CONTINUOUS
 10
103.8928759624
 20
70.7488314211
 11
103.8928759624
 21
70.1888314211
  0
LINE
  5
4CB
100
AcDbEntity
  8
ASSI
100
AcDbLine
 62
7
  6
CONTINUOUS
 10
103.8928759624
 20
70.1888314211
 11
103.8928759624
 21
69.6288104211
  0
LINE
  5
4CC
100
AcDbEntity
  8
0
100
AcDbLine
 62
7
  6
CONTINUOUS
 10
103.8928759624
 20
69.6288104211
 11
103.8928759624
 21
69.2554654211
  0
LINE
  5
4CD
100
AcDbEntity
  8
ASSI
100
AcDbLine
 62
7
  6
CONTINUOUS
 10
103.8928759624
 20
69.2554654211
 11
103.8928759624
 21
66.8973684211
  0
LINE
  5
4CE
100
AcDbEntity
  8
RACCORDO
100
AcDbLine
 62
250
  6
CONTINUOUS
 10
103.2051553793
 20
102.5536771364
 11
103.2052082024
 21
102.5089759185
  0
LINE
  5
4CF
100
AcDbEntity
  8
RACCORDO
100
AcDbLine
 62
250
  6
CONTINUOUS
 10
103.205208186
 20
65.2626294456
 11
103.2051554281
 21
65.3103551226
  0
LINE
  5
4D0
100
AcDbEntity
  8
RACCORDO
100
AcDbLine
 62
250
  6
CONTINUOUS
 10
103.2052082024
 20
102.5089759185
 11
103.2049778398
 21
102.4449797201
  0
LINE
  5
4D1
100
AcDbEntity
  8
RACCORDO
100
AcDbLine
 62
250
  6
CONTINUOUS
 10
103.2050500083
 20
65.221144037
 11
103.205208186
 21
65.2626294456
  0
LINE
  5
4D2
100
AcDbEntity
  8
RACCORDO
100
AcDbLine
 62
250
  6
CONTINUOUS
 10
103.2049778398
 20
102.4449797201
 11
103.2044243041
 21
102.3735676067
  0
LINE
  5
4D3
100
AcDbEntity
  8
RACCORDO
100
AcDbLine
 62
250
  6
CONTINUOUS
 10
103.2047944417
 20
65.1945563566
 11
103.2050500083
 21
65.221144037
  0
LINE
  5
4D4
100
AcDbEntity
  8
RACCORDO
100
AcDbLine
 62
250
  6
CONTINUOUS
 10
103.2044243041
 20
102.3735676067
 11
103.2035623766
 21
102.2966466092
  0
LINE
  5
4D5
100
AcDbEntity
  8
RACCORDO
100
AcDbLine
 62
250
  6
CONTINUOUS
 10
103.2035623766
 20
102.2966466092
 11
103.2024150745
 21
102.2162708787
  0
LINE
  5
4D6
100
AcDbEntity
  8
RACCORDO
100
AcDbLine
 62
250
  6
CONTINUOUS
 10
103.2045601209
 20
65.1791324356
 11
103.2047944417
 21
65.1945563566
  0
LINE
  5
4D7
100
AcDbEntity
  8
RACCORDO
100
AcDbLine
 62
250
  6
CONTINUOUS
 10
103.2024150745
 20
102.2162708787
 11
103.2016021656
 21
102.1672779715
  0
LWPOLYLINE
  5
4D8
100
AcDbEntity
  8
INCISIONI
100
AcDbPolyline
 62
250
  6
CONTINUOUS
 90
45
 70
0
 10
79.2274841162
 20
103.4828584211
 10
79.2115401338
 20
103.4813032871
 10
79.1956371182
 20
103.4793393093
 10
79.179787432
 20
103.4769680759
 10
79.1640034378
 20
103.474191175
 10
79.1482970591
 20
103.4710103379
 10
79.132678464
 20
103.4674278663
 10
79.1171573816
 20
103.4634462048
 10
79.1017435412
 20
103.4590677983
 10
79.0864467292
 20
103.4542952731
 10
79.0712769606
 20
103.4491319833
 10
79.0562443081
 20
103.4435814648
 10
79.041358844
 20
103.4376472535
 10
79.0266305429
 20
103.4313330491
 10
79.0120689875
 20
103.4246432077
 10
78.9976836627
 20
103.4175822491
 10
78.9834840531
 20
103.4101546931
 10
78.9694795659
 20
103.402365219
 10
78.9556792977
 20
103.3942191436
 10
78.9420922673
 20
103.385721943
 10
78.9287274937
 20
103.3768790932
 10
78.9155938921
 20
103.3676962187
 10
78.9026999635
 20
103.358179537
 10
78.8900541054
 20
103.348335414
 10
78.8776647152
 20
103.3381702154
 10
78.8655400757
 20
103.3276904468
 10
78.8536880108
 20
103.3169031734
 10
78.8421162297
 20
103.3058155998
 10
78.8308324415
 20
103.294434931
 10
78.8198442231
 20
103.2827684896
 10
78.8091586217
 20
103.2708240699
 10
78.7987825521
 20
103.2586095841
 10
78.7887229292
 20
103.246132944
 10
78.7789865364
 20
103.2334022007
 10
78.7695796318
 20
103.2204259594
 10
78.7605083421
 20
103.2072129643
 10
78.7517787939
 20
103.1937719596
 10
78.7433969234
 20
103.1801116833
 10
78.7353679048
 20
103.1662408501
 10
78.7276967216
 20
103.1521681684
 10
78.7203883575
 20
103.1379023468
 10
78.7134477773
 20
103.1234525553
 10
78.7068798711
 20
103.1088298086
 10
78.7006895104
 20
103.094045583
 10
78.6948815666
 20
103.0791113546
  0
LINE
  5
4D9
100
AcDbEntity
  8
RACCORDO
100
AcDbLine
 62
250
  6
CONTINUOUS
 10
103.6928759624
 20
102.1672779715
 11
103.2016021656
 21
102.1672779715
  0
LINE
  5
4DA
100
AcDbEntity
  8
RACCORDO
100
AcDbLine
 62
250
  6
CONTINUOUS
 10
70.6928759624
 20
102.1973684211
 11
68.6928759624
 21
102.1973684211
  0
LINE
  5
4DB
100
AcDbEntity
  8
ASSI
100
AcDbLine
 62
250
  6
CONTINUOUS
 10
70.6928759624
 20
102.1973684211
 11
68.6928759624
 21
102.1973684211
  0
LINE
  5
4DC
100
AcDbEntity
  8
RACCORDO
100
AcDbLine
 62
7
  6
CONTINUOUS
 10
70.6928759624
 20
102.4973684211
 11
68.6928759624
 21
102.4973684211
  0
LINE
  5
4DD
100
AcDbEntity
  8
ASSI
100
AcDbLine
 62
7
  6
CONTINUOUS
 10
70.6928759624
 20
102.4973684211
 11
68.6928759624
 21
102.4973684211
  0
LINE
  5
4DE
100
AcDbEntity
  8
RACCORDO
100
AcDbLine
 62
7
  6
CONTINUOUS
 10
68.1928759624
 20
102.6973684211
 11
74.1928759624
 21
102.6973684211
  0
LINE
  5
4DF
100
AcDbEntity
  8
RACCORDO
100
AcDbLine
 62
250
  6
CONTINUOUS
 10
84.447239064
 20
102.4946365971
 11
103.2016021656
 21
102.1672779715
  0
LINE
  5
4E0
100
AcDbEntity
  8
RACCORDO
100
AcDbLine
 62
7
  6
CONTINUOUS
 10
84.6928759624
 20
102.9902728367
 11
103.2016021656
 21
102.6672018191
  0
LINE
  5
4E1
100
AcDbEntity
  8
RACCORDO
100
AcDbLine
 62
250
  6
CONTINUOUS
 10
106.3944467515
 20
99.1832229002
 11
106.3944467515
 21
92.2115139419
  0
LINE
  5
4E2
100
AcDbEntity
  8
RACCORDO
100
AcDbLine
 62
250
  6
CONTINUOUS
 10
106.3944467515
 20
75.5832229002
 11
106.3944467515
 21
68.6115139419
  0
LINE
  5
4E3
100
AcDbEntity
  8
RACCORDO
100
AcDbLine
 62
7
  6
CONTINUOUS
 10
106.6928759624
 20
98.8832270125
 11
106.6928759624
 21
92.5115098296
  0
LINE
  5
4E4
100
AcDbEntity
  8
RACCORDO
100
AcDbLine
 62
7
  6
CONTINUOUS
 10
106.6928759624
 20
75.2832270125
 11
106.6928759624
 21
68.9115098296
  0
LINE
  5
4E5
100
AcDbEntity
  8
0
100
AcDbLine
 62
7
  6
CONTINUOUS
 10
75.0997440446
 20
59.3024519116
 11
77.0009817605
 21
59.9202014927
  0
LINE
  5
4E6
100
AcDbEntity
  8
0
100
AcDbLine
 62
7
  6
CONTINUOUS
 10
75.2233508424
 20
58.9220293051
 11
78.3688948369
 21
59.9440785043
  0
LWPOLYLINE
  5
4E7
100
AcDbEntity
  8
RACCORDO
100
AcDbPolyline
 62
250
  6
CONTINUOUS
 90
19
 70
0
 10
65.3961045319
 20
101.3123538841
 10
65.3444797692
 20
101.3012158044
 10
65.2942840277
 20
101.2864057366
 10
65.2455173074
 20
101.2679236809
 10
65.1979045633
 20
101.2456419688
 10
65.1517208404
 20
101.2196882688
 10
65.1077912743
 20
101.1904455858
 10
65.066134031
 20
101.1578216022
 10
65.0267309445
 20
101.1219086356
 10
64.9903526514
 20
101.0833666447
 10
64.957078646
 20
101.0421373694
 10
64.9268294339
 20
100.9982790697
 10
64.9001371691
 20
100.9526264837
 10
64.8770881504
 20
100.9051652248
 10
64.857596079
 20
100.8559096797
 10
64.8419342122
 20
100.8057377458
 10
64.8301936359
 20
100.7549420556
 10
64.8222832643
 20
100.7032299767
 10
64.8182030974
 20
100.650601509
  0
LWPOLYLINE
  5
4E8
100
AcDbEntity
  8
ASSI
100
AcDbPolyline
 62
250
  6
CONTINUOUS
 90
19
 70
0
 10
65.3961045319
 20
101.3123538841
 10
65.3444797692
 20
101.3012158044
 10
65.2942840277
 20
101.2864057366
 10
65.2455173074
 20
101.2679236809
 10
65.1979045633
 20
101.2456419688
 10
65.1517208404
 20
101.2196882688
 10
65.1077912743
 20
101.1904455858
 10
65.066134031
 20
101.1578216022
 10
65.0267309445
 20
101.1219086356
 10
64.9903526514
 20
101.0833666447
 10
64.957078646
 20
101.0421373694
 10
64.9268294339
 20
100.9982790697
 10
64.9001371691
 20
100.9526264837
 10
64.8770881504
 20
100.9051652248
 10
64.857596079
 20
100.8559096797
 10
64.8419342122
 20
100.8057377458
 10
64.8301936359
 20
100.7549420556
 10
64.8222832643
 20
100.7032299767
 10
64.8182030974
 20
100.650601509
  0
LINE
  5
4E9
100
AcDbEntity
  8
RACCORDO
100
AcDbLine
 62
250
  6
CONTINUOUS
 10
68.6928759624
 20
101.8936636365
 11
65.3961045319
 21
101.3123538841
  0
LINE
  5
4EA
100
AcDbEntity
  8
ASSI
100
AcDbLine
 62
250
  6
CONTINUOUS
 10
68.6928759624
 20
101.8936636365
 11
65.3961045319
 21
101.3123538841
  0
LINE
  5
4EB
100
AcDbEntity
  8
RACCORDO
100
AcDbLine
 62
7
  6
CONTINUOUS
 10
68.6928759624
 20
102.1973684211
 11
65.3492458006
 21
101.60779621
  0
LINE
  5
4EC
100
AcDbEntity
  8
ASSI
100
AcDbLine
 62
7
  6
CONTINUOUS
 10
68.6928759624
 20
102.1973684211
 11
65.3492458006
 21
101.60779621
  0
LINE
  5
4ED
100
AcDbEntity
  8
RACCORDO
100
AcDbLine
 62
250
  6
CONTINUOUS
 10
73.6492650697
 20
106.0763287621
 11
68.4385128607
 21
106.0308552164
  0
LINE
  5
4EE
100
AcDbEntity
  8
RACCORDO
100
AcDbLine
 62
7
  6
CONTINUOUS
 10
73.0024714836
 20
106.3206557233
 11
68.4406943285
 21
106.2808456972
  0
LINE
  5
4EF
100
AcDbEntity
  8
RACCORDO
100
AcDbLine
 62
250
  6
CONTINUOUS
 10
68.4385128607
 20
106.0308552164
 11
68.1928759624
 21
106.0308552164
  0
LINE
  5
4F0
100
AcDbEntity
  8
0
100
AcDbLine
 62
7
  6
CONTINUOUS
 10
75.0997440446
 20
108.4922849305
 11
77.0009817605
 21
107.8745353494
  0
LINE
  5
4F1
100
AcDbEntity
  8
0
100
AcDbLine
 62
7
  6
CONTINUOUS
 10
75.2233508424
 20
108.872707537
 11
78.3688948369
 21
107.8506583378
  0
LWPOLYLINE
  5
4F2
100
AcDbEntity
  8
0
100
AcDbPolyline
 62
7
  6
CONTINUOUS
 90
10
 70
0
 43
0.3500000006
 10
91.4071610413
 20
118.1569694824
 10
91.4785922241
 20
118.0141071167
 10
91.4785922241
 20
117.9426849976
 10
91.3357298584
 20
117.7998226318
 10
91.2643077393
 20
117.7998226318
 10
91.1928765564
 20
117.8712538147
 10
91.1928765564
 20
117.9426849976
 10
91.2643077393
 20
118.0855382996
 10
91.3357298584
 20
118.1569694824
 10
91.4071610413
 20
118.1569694824
  0
LWPOLYLINE
  5
4F3
100
AcDbEntity
  8
0
100
AcDbPolyline
 62
7
  6
CONTINUOUS
 90
10
 70
0
 43
0.3500000006
 10
86.5143017578
 20
128.1569634705
 10
86.5857329407
 20
128.0141101685
 10
86.5857329407
 20
127.9426789856
 10
86.4428796387
 20
127.7998256836
 10
86.3714484558
 20
127.7998256836
 10
86.3000172729
 20
127.8712568665
 10
86.3000172729
 20
127.9426789856
 10
86.3714484558
 20
128.0855413513
 10
86.4428796387
 20
128.1569634705
 10
86.5143017578
 20
128.1569634705
  0
LINE
  5
4F4
100
AcDbEntity
  8
RACCORDO
100
AcDbLine
 62
7
  6
CONTINUOUS
 10
71.6928854731
 20
107.0592271394
 11
72.6928759624
 21
107.0679539242
  0
LINE
  5
4F5
100
AcDbEntity
  8
RACCORDO
100
AcDbLine
 62
250
  6
CONTINUOUS
 10
73.6492650697
 20
107.6295626556
 11
75.6928759624
 21
107.6473969777
  0
LINE
  5
4F6
100
AcDbEntity
  8
RACCORDO
100
AcDbLine
 62
7
  6
CONTINUOUS
 10
72.9406944013
 20
107.8733504964
 11
75.6928759624
 21
107.8973684211
  0
LINE
  5
4F7
100
AcDbEntity
  8
RACCORDO
100
AcDbLine
 62
250
  6
CONTINUOUS
 10
72.6928759624
 20
107.6233600157
 11
73.6492650697
 21
107.6295626556
  0
LINE
  5
4F8
100
AcDbEntity
  8
RACCORDO
100
AcDbLine
 62
250
  6
CONTINUOUS
 10
84.6928759624
 20
106.7575755736
 11
84.447239064
 21
106.7575755736
  0
LINE
  5
4F9
100
AcDbEntity
  8
0
100
AcDbLine
 62
7
  6
CONTINUOUS
 10
74.1928759624
 20
107.9069679756
 11
73.7928759624
 21
107.9069679756
  0
LINE
  5
4FA
100
AcDbEntity
  8
0
100
AcDbLine
 62
250
  6
CONTINUOUS
 10
74.1928759624
 20
108.2069679756
 11
73.7928759624
 21
108.2069679756
  0
LINE
  5
4FB
100
AcDbEntity
  8
0
100
AcDbLine
 62
7
  6
CONTINUOUS
 10
74.4928759624
 20
108.5069679756
 11
75.0070389463
 21
108.5069679756
  0
LINE
  5
4FC
100
AcDbEntity
  8
RACCORDO
100
AcDbLine
 62
250
  6
CONTINUOUS
 10
75.6928759624
 20
107.6474064973
 11
83.7103283688
 21
107.507461345
  0
LINE
  5
4FD
100
AcDbEntity
  8
RACCORDO
100
AcDbLine
 62
7
  6
CONTINUOUS
 10
75.6928759624
 20
107.8973684211
 11
83.7103283688
 21
107.7574232687
  0
LWPOLYLINE
  5
4FE
100
AcDbEntity
  8
RACCORDO
100
AcDbPolyline
 62
250
  6
CONTINUOUS
 90
58
 70
0
 10
83.7103283688
 20
107.507461345
 10
83.7307768051
 20
107.5068245339
 10
83.751171652
 20
107.5056336835
 10
83.7715129096
 20
107.5038887939
 10
83.7918160647
 20
107.5015877473
 10
83.8120656305
 20
107.4987326614
 10
83.8322151458
 20
107.4953298894
 10
83.8522639924
 20
107.4913782018
 10
83.8722127886
 20
107.4868788281
 10
83.8920169283
 20
107.4818418102
 10
83.9116760178
 20
107.4762659541
 10
83.9311904509
 20
107.4701524538
 10
83.9505168024
 20
107.4635149337
 10
83.9696546206
 20
107.4563522461
 10
83.9886043572
 20
107.4486655387
 10
84.0073239433
 20
107.4404718794
 10
84.0258129305
 20
107.4317701097
 10
84.0440717671
 20
107.422561388
 10
84.062059729
 20
107.4128662573
 10
84.0797761748
 20
107.4026836502
 10
84.097221746
 20
107.3920146341
 10
84.1143576424
 20
107.3808829541
 10
84.1311831868
 20
107.3692875705
 10
84.1476990564
 20
107.3572295229
 10
84.1638684827
 20
107.3447356755
 10
84.1796906702
 20
107.331805079
 10
84.1951664143
 20
107.3184386826
 10
84.2102613333
 20
107.3046661979
 10
84.2249746133
 20
107.2904866869
 10
84.2393070683
 20
107.2759010876
 10
84.2532267574
 20
107.2609419258
 10
84.2667327263
 20
107.2456084074
 10
84.2798259295
 20
107.2299013264
 10
84.2924772894
 20
107.2138555909
 10
84.304685843
 20
107.1974704233
 10
84.3164525535
 20
107.1807466012
 10
84.3277512324
 20
107.1637213647
 10
84.3385808278
 20
107.1463940577
 10
84.3489423917
 20
107.1287653364
 10
84.3588128915
 20
107.1108744092
 10
84.3681912489
 20
107.0927206566
 10
84.3770785422
 20
107.0743046982
 10
84.3854549737
 20
107.0556676014
 10
84.3933193784
 20
107.0368089401
 10
84.4006729212
 20
107.0177291405
 10
84.4074992996
 20
106.9984705478
 10
84.4137973596
 20
106.9790327318
 10
84.4195682552
 20
106.9594161228
 10
84.4247991452
 20
106.9396643564
 10
84.4294888303
 20
106.9197770607
 10
84.4336385098
 20
106.8997546077
 10
84.437238941
 20
106.8796417495
 10
84.4402888861
 20
106.8594378486
 10
84.4427895828
 20
106.8391435425
 10
84.4447355019
 20
106.8188054955
 10
84.4461248003
 20
106.7984392624
 10
84.4469593209
 20
106.7780292885
 10
84.447239064
 20
106.7575755736
  0
LWPOLYLINE
  5
4FF
100
AcDbEntity
  8
RACCORDO
100
AcDbPolyline
 62
250
  6
CONTINUOUS
 90
14
 70
0
 10
103.2016021656
 20
65.127535023
 10
103.201882741
 20
65.1278073207
 10
103.2021537153
 20
65.1286140896
 10
103.202414795
 20
65.1299546531
 10
103.2026657069
 20
65.1318278458
 10
103.2029061685
 20
65.1342318065
 10
103.2031358926
 20
65.1371637749
 10
103.2033546247
 20
65.140620463
 10
103.2035621401
 20
65.1445982777
 10
103.2037582175
 20
65.1490929803
 10
103.2039426473
 20
65.1540997814
 10
103.2041152314
 20
65.1596133152
 10
103.2042757842
 20
65.1656276548
 10
103.2045601209
 20
65.1791324356
  0
LINE
  5
500
100
AcDbEntity
  8
0
100
AcDbLine
 62
7
  6
CONTINUOUS
 10
74.4928759624
 20
108.9069679756
 11
75.0070389463
 21
108.9069679756
  0
LWPOLYLINE
  5
501
100
AcDbEntity
  8
RACCORDO
100
AcDbPolyline
 62
250
  6
CONTINUOUS
 90
12
 70
0
 10
103.2016021656
 20
102.6672018191
 10
103.201882741
 20
102.6669295214
 10
103.2021537153
 20
102.6661227525
 10
103.202414795
 20
102.664782189
 10
103.2026657069
 20
102.6629089963
 10
103.2029061685
 20
102.6605050356
 10
103.2031358926
 20
102.6575730672
 10
103.2033546247
 20
102.6541163791
 10
103.2035621401
 20
102.6501385644
 10
103.2037582175
 20
102.6456438618
 10
103.2039426473
 20
102.6406370607
 10
103.2041152314
 20
102.6351235269
  0
LWPOLYLINE
  5
502
100
AcDbEntity
  8
0
100
AcDbPolyline
 62
7
  6
CONTINUOUS
 90
7
 70
0
 43
0.3500000006
 10
89.9071605835
 20
117.6569693298
 10
88.4071601257
 20
117.6569693298
 10
89.9071605835
 20
119.7998232422
 10
89.9071605835
 20
120.2283922119
 10
89.4785916138
 20
120.6569702454
 10
88.8357290955
 20
120.6569702454
 10
88.4071601257
 20
120.0141077271
  0
LWPOLYLINE
  5
503
100
AcDbEntity
  8
0
100
AcDbPolyline
 62
7
  6
CONTINUOUS
 90
6
 70
0
 43
0.3500000006
 10
86.2643062134
 20
117.6569693298
 10
87.3357286377
 20
117.6569693298
 10
87.5500221863
 20
117.8712538147
 10
87.5500221863
 20
118.9426853027
 10
87.1214441528
 20
119.3712542725
 10
86.6928751831
 20
119.3712542725
  0
LWPOLYLINE
  5
504
100
AcDbEntity
  8
0
100
AcDbPolyline
 62
7
  6
CONTINUOUS
 90
8
 70
0
 43
0.3500000006
 10
92.4785925293
 20
117.6569693298
 10
93.3357304688
 20
117.6569693298
 10
93.7643085022
 20
118.0855382996
 10
93.7643085022
 20
118.9426853027
 10
93.3357304688
 20
119.3712542725
 10
92.4785925293
 20
119.3712542725
 10
92.4785925293
 20
120.6569702454
 10
93.7643085022
 20
120.6569702454
  0
LWPOLYLINE
  5
505
100
AcDbEntity
  8
0
100
AcDbPolyline
 62
7
  6
CONTINUOUS
 90
7
 70
0
 43
0.3500000006
 10
85.0143013
 20
127.6569723816
 10
83.5143008423
 20
127.6569723816
 10
85.0143013
 20
129.7998262939
 10
85.0143013
 20
130.2283952637
 10
84.5857323303
 20
130.6569642334
 10
83.9428788757
 20
130.6569642334
 10
83.5143008423
 20
130.0141107788
  0
LWPOLYLINE
  5
506
100
AcDbEntity
  8
0
100
AcDbPolyline
 62
7
  6
CONTINUOUS
 90
8
 70
0
 43
0.3500000006
 10
87.5857332458
 20
127.6569723816
 10
88.442880249
 20
127.6569723816
 10
88.8714492188
 20
128.0855413513
 10
88.8714492188
 20
128.9426792908
 10
88.442880249
 20
129.3712573242
 10
87.5857332458
 20
129.3712573242
 10
87.5857332458
 20
130.6569642334
 10
88.8714492188
 20
130.6569642334
  0
LWPOLYLINE
  5
507
100
AcDbEntity
  8
0
100
AcDbPolyline
 62
7
  6
CONTINUOUS
 90
3
 70
0
 43
0.3500000006
 10
82.6571629028
 20
128.2998258362
 10
81.1571624451
 20
128.2998258362
 10
81.8000158997
 20
130.6569642334
  0
LWPOLYLINE
  5
508
100
AcDbEntity
  8
RACCORDO
100
AcDbPolyline
 62
250
  6
CONTINUOUS
 90
8
 70
0
 10
131.6808216628
 20
59.9151286209
 10
131.679986767
 20
59.9153811032
 10
131.6780086559
 20
59.9156323481
 10
131.6748873292
 20
59.9158823556
 10
131.6706142321
 20
59.916131535
 10
131.6651979195
 20
59.9163794772
 10
131.6586640567
 20
59.9166249542
 10
131.642232709
 20
59.9171084667
  0
LINE
  5
509
100
AcDbEntity
  8
RACCORDO
100
AcDbLine
 62
250
  6
CONTINUOUS
 10
131.6808216628
 20
107.8796082212
 11
131.6985818627
 21
107.8973684211
  0
LINE
  5
50A
100
AcDbEntity
  8
RACCORDO
100
AcDbLine
 62
250
  6
CONTINUOUS
 10
131.9308121435
 20
107.6296177404
 11
131.9485723434
 21
107.6473779403
  0
LWPOLYLINE
  5
50B
100
AcDbEntity
  8
RACCORDO
100
AcDbPolyline
 62
250
  6
CONTINUOUS
 90
7
 70
0
 10
153.0384764185
 20
59.9166248061
 10
153.0319432442
 20
59.9163793237
 10
153.0265275921
 20
59.9161313762
 10
153.022255173
 20
59.9158822078
 10
153.0191345571
 20
59.9156322331
 10
153.0171571741
 20
59.9153810375
 10
153.0163230241
 20
59.9151286209
  0
LWPOLYLINE
  5
50C
100
AcDbEntity
  8
RACCORDO
100
AcDbPolyline
 62
250
  6
CONTINUOUS
 90
6
 70
0
 10
152.7873632413
 20
60.1663704338
 10
152.7800804229
 20
60.1661225328
 10
152.774327835
 20
60.1658733326
 10
152.7701147442
 20
60.1656232216
 10
152.7674481738
 20
60.1653718113
 10
152.7663325433
 20
60.1651191017
  0
LWPOLYLINE
  5
50D
100
AcDbEntity
  8
RACCORDO
100
AcDbPolyline
 62
250
  6
CONTINUOUS
 90
28
 70
0
 10
154.4629390588
 20
59.9151837057
 10
154.4774716348
 20
59.9156087811
 10
154.4919550476
 20
59.916878142
 10
154.5063402996
 20
59.9189874943
 10
154.520578725
 20
59.9219297023
 10
154.5346221549
 20
59.9256948126
 10
154.54842308
 20
59.9302700878
 10
154.5619348112
 20
59.9356400497
 10
154.5751116382
 20
59.9417865319
 10
154.5879089831
 20
59.9486887407
 10
154.6002835521
 20
59.9563233259
 10
154.6121934818
 20
59.9646644595
 10
154.6235984803
 20
59.9736839235
 10
154.6344599641
 20
59.9833512048
 10
154.6447411884
 20
59.9936335988
 10
154.6544073715
 20
60.0044963199
 10
154.6634258122
 20
60.0159026193
 10
154.6717660008
 20
60.0278139093
 10
154.6793997221
 20
60.0401898934
 10
154.6863011509
 20
60.0529887035
 10
154.6924469394
 20
60.0661670409
 10
154.6978162961
 20
60.0796803227
 10
154.7023910562
 20
60.0934828332
 10
154.706155743
 20
60.107527878
 10
154.7090976206
 20
60.1217679423
 10
154.7112067363
 20
60.1361548513
 10
154.7124759549
 20
60.1506399339
 10
154.7129009826
 20
60.1651741865
  0
LINE
  5
50E
100
AcDbEntity
  8
RACCORDO
100
AcDbLine
 62
250
  6
CONTINUOUS
 10
153.0549062582
 20
59.9171083185
 11
153.0384764185
 21
59.9166248061
  0
LINE
  5
50F
100
AcDbEntity
  8
RACCORDO
100
AcDbLine
 62
250
  6
CONTINUOUS
 10
152.8064725257
 20
60.1668588407
 11
152.7873632413
 21
60.1663704338
  0
LINE
  5
510
100
AcDbEntity
  8
RACCORDO
100
AcDbLine
 62
250
  6
CONTINUOUS
 10
153.0756849276
 20
59.917578474
 11
153.0549062582
 21
59.9171083185
  0
LINE
  5
511
100
AcDbEntity
  8
RACCORDO
100
AcDbLine
 62
250
  6
CONTINUOUS
 10
153.114759459
 20
59.9182532014
 11
153.0756849276
 21
59.917578474
  0
LINE
  5
512
100
AcDbEntity
  8
RACCORDO
100
AcDbLine
 62
250
  6
CONTINUOUS
 10
153.1994752536
 20
59.9192720633
 11
153.114759459
 21
59.9182532014
  0
LINE
  5
513
100
AcDbEntity
  8
RACCORDO
100
AcDbLine
 62
250
  6
CONTINUOUS
 10
153.3779689811
 20
59.9205404862
 11
153.1994752536
 21
59.9192720633
  0
LINE
  5
514
100
AcDbEntity
  8
RACCORDO
100
AcDbLine
 62
250
  6
CONTINUOUS
 10
153.6787723041
 20
59.9213639106
 11
153.3779689811
 21
59.9205404862
  0
LINE
  5
515
100
AcDbEntity
  8
0
100
AcDbLine
 62
7
  6
CONTINUOUS
 10
136.3485723434
 20
58.8877688665
 11
148.3485723434
 21
58.8877688665
  0
LINE
  5
516
100
AcDbEntity
  8
0
100
AcDbLine
 62
250
  6
CONTINUOUS
 10
136.3485723434
 20
59.5877688665
 11
148.3485723434
 21
59.5877688665
  0
LINE
  5
517
100
AcDbEntity
  8
RACCORDO
100
AcDbLine
 62
7
  6
CONTINUOUS
 10
136.3485723434
 20
59.8877688665
 11
138.4153061086
 21
59.8877688665
  0
LINE
  5
518
100
AcDbEntity
  8
RACCORDO
100
AcDbLine
 62
7
  6
CONTINUOUS
 10
146.2818385782
 20
59.8877688665
 11
148.3485723434
 21
59.8877688665
  0
LINE
  5
519
100
AcDbEntity
  8
RACCORDO
100
AcDbLine
 62
7
  6
CONTINUOUS
 10
130.1985342672
 20
59.8973684211
 11
131.6985818627
 21
59.8973684211
  0
LINE
  5
51A
100
AcDbEntity
  8
RACCORDO
100
AcDbLine
 62
7
  6
CONTINUOUS
 10
152.9985628242
 20
59.8973684211
 11
154.4986104196
 21
59.8973684211
  0
LINE
  5
51B
100
AcDbEntity
  8
RACCORDO
100
AcDbLine
 62
250
  6
CONTINUOUS
 10
131.0756456411
 20
59.9213015153
 11
130.7332056289
 21
59.9210752733
  0
LINE
  5
51C
100
AcDbEntity
  8
RACCORDO
100
AcDbLine
 62
250
  6
CONTINUOUS
 10
153.9639168209
 20
59.9210753367
 11
153.6787723041
 21
59.9213639106
  0
LINE
  5
51D
100
AcDbEntity
  8
RACCORDO
100
AcDbLine
 62
250
  6
CONTINUOUS
 10
131.3680105652
 20
59.9202712038
 11
131.0756456411
 21
59.9213015153
  0
LINE
  5
51E
100
AcDbEntity
  8
RACCORDO
100
AcDbLine
 62
250
  6
CONTINUOUS
 10
131.5164262885
 20
59.9190806804
 11
131.3680105652
 21
59.9202712038
  0
LINE
  5
51F
100
AcDbEntity
  8
RACCORDO
100
AcDbLine
 62
250
  6
CONTINUOUS
 10
131.582375683
 20
59.9182533453
 11
131.5164262885
 21
59.9190806804
  0
LINE
  5
520
100
AcDbEntity
  8
RACCORDO
100
AcDbLine
 62
250
  6
CONTINUOUS
 10
131.6214525028
 20
59.9175786215
 11
131.582375683
 21
59.9182533453
  0
LINE
  5
521
100
AcDbEntity
  8
RACCORDO
100
AcDbLine
 62
250
  6
CONTINUOUS
 10
131.642232709
 20
59.9171084667
 11
131.6214525028
 21
59.9175786215
  0
LWPOLYLINE
  5
522
100
AcDbEntity
  8
RACCORDO
100
AcDbPolyline
 62
250
  6
CONTINUOUS
 90
28
 70
0
 10
130.234205628
 20
59.9151837057
 10
130.2196730421
 20
59.9156087816
 10
130.2051896204
 20
59.9168781442
 10
130.1908043606
 20
59.918987499
 10
130.1765659285
 20
59.9219297103
 10
130.1625224931
 20
59.9256948242
 10
130.1487215637
 20
59.9302701035
 10
130.1352098292
 20
59.9356400697
 10
130.1220330003
 20
59.9417865562
 10
130.1092356544
 20
59.9486887692
 10
130.0968610854
 20
59.9563233583
 10
130.0849511568
 20
59.9646644955
 10
130.0735461601
 20
59.9736839625
 10
130.0626846789
 20
59.9833512462
 10
130.0524034578
 20
59.9936336419
 10
130.0427372784
 20
60.004496364
 10
130.0337188417
 20
60.0159026636
 10
130.0253786573
 20
60.0278139529
 10
130.0177449403
 20
60.0401899357
 10
130.0108435158
 20
60.0529887436
 10
130.0046977314
 20
60.0661670779
 10
129.9993283786
 20
60.079680356
 10
129.994753622
 20
60.0934828621
 10
129.9909889381
 20
60.1075279019
 10
129.988047063
 20
60.1217679607
 10
129.9859379491
 20
60.1361548639
 10
129.9846687316
 20
60.1506399403
 10
129.9842437042
 20
60.1651741865
  0
LWPOLYLINE
  5
523
100
AcDbEntity
  8
RACCORDO
100
AcDbPolyline
 62
250
  6
CONTINUOUS
 90
7
 70
0
 10
131.9308121435
 20
60.1651191017
 10
131.9296964892
 20
60.1653718156
 10
131.9270298688
 20
60.1656232289
 10
131.9228167195
 20
60.1658733416
 10
131.9170640926
 20
60.1661225415
 10
131.9097812668
 20
60.1663704407
 10
131.8906719518
 20
60.1668588465
  0
LINE
  5
524
100
AcDbEntity
  8
RACCORDO
100
AcDbLine
 62
250
  6
CONTINUOUS
 10
131.6985818627
 20
59.8973684211
 11
131.6808216628
 21
59.9151286209
  0
LINE
  5
525
100
AcDbEntity
  8
RACCORDO
100
AcDbLine
 62
250
  6
CONTINUOUS
 10
131.9485723434
 20
60.1473589018
 11
131.9308121435
 21
60.1651191017
  0
LINE
  5
526
100
AcDbEntity
  8
DRAFT
100
AcDbLine
 62
7
  6
CONTINUOUS
 10
132.0018062369
 20
106.3973684211
 11
131.9485723434
 21
106.3441345275
  0
LINE
  5
527
100
AcDbEntity
  8
RACCORDO
100
AcDbLine
 62
7
  6
CONTINUOUS
 10
131.9485723434
 20
106.3441345275
 11
131.9308121435
 21
106.3263743276
  0
LWPOLYLINE
  5
528
100
AcDbEntity
  8
RACCORDO
100
AcDbPolyline
 62
7
  6
CONTINUOUS
 90
28
 70
0
 10
154.4516111571
 20
61.4740811188
 10
154.4708347642
 20
61.4748108622
 10
154.4892895932
 20
61.4766060067
 10
154.5069740619
 20
61.4794665524
 10
154.5238871144
 20
61.4834883053
 10
154.5400300066
 20
61.4885754593
 10
154.5554060321
 20
61.4944405963
 10
154.5700130902
 20
61.5010547489
 10
154.5838595256
 20
61.5084468845
 10
154.5969634238
 20
61.5164164875
 10
154.6093276127
 20
61.5249462658
 10
154.6209561815
 20
61.5340535114
 10
154.6318659616
 20
61.543589585
 10
154.6420603789
 20
61.5535439593
 10
154.6515427873
 20
61.5639271617
 10
154.6603265984
 20
61.5746221345
 10
154.6684152537
 20
61.5856225547
 10
154.6758117054
 20
61.5969347453
 10
154.6825257077
 20
61.6084606172
 10
154.6885607174
 20
61.6201967336
 10
154.6939195288
 20
61.6321465314
 10
154.6986087714
 20
61.6442222323
 10
154.7026319995
 20
61.6564218646
 10
154.7059925637
 20
61.6687474
 10
154.7086955783
 20
61.6811169756
 10
154.7107451913
 20
61.6935033036
 10
154.7121453918
 20
61.7059336717
 10
154.7129009826
 20
61.71840808
  0
LWPOLYLINE
  5
529
100
AcDbEntity
  8
RACCORDO
100
AcDbPolyline
 62
250
  6
CONTINUOUS
 90
7
 70
0
 10
130.2578543047
 20
59.9166781468
 10
130.251075907
 20
59.9164331712
 10
130.2454125238
 20
59.9161856457
 10
130.2408911088
 20
59.9159368121
 10
130.2375206469
 20
59.9156870846
 10
130.2352921533
 20
59.9154360492
 10
130.234205628
 20
59.9151837057
  0
LWPOLYLINE
  5
52A
100
AcDbEntity
  8
RACCORDO
100
AcDbPolyline
 62
250
  6
CONTINUOUS
 90
6
 70
0
 10
130.0069571705
 20
60.1664242802
 10
129.9993414156
 20
60.1661768013
 10
129.9932535488
 20
60.1659279362
 10
129.988703364
 20
60.1656780726
 10
129.9856984294
 20
60.1654268227
 10
129.9842437042
 20
60.1651741865
  0
LWPOLYLINE
  5
52B
100
AcDbEntity
  8
RACCORDO
100
AcDbPolyline
 62
250
  6
CONTINUOUS
 90
28
 70
0
 10
131.6808216628
 20
59.9151286209
 10
131.6953566027
 20
59.9155526306
 10
131.7098423668
 20
59.9168210112
 10
131.7242299445
 20
59.9189294717
 10
131.7384706576
 20
59.9218708785
 10
131.7525163248
 20
59.92563528
 10
131.7663194244
 20
59.9302099399
 10
131.7798332558
 20
59.9355793808
 10
131.7930120968
 20
59.9417254361
 10
131.8058113585
 20
59.9486273116
 10
131.8181877365
 20
59.956261656
 10
131.830099357
 20
59.9646026396
 10
131.8415059187
 20
59.9736220421
 10
131.852368829
 20
59.9832893476
 10
131.8626513348
 20
59.9935718485
 10
131.8723186464
 20
60.0044347552
 10
131.8813380559
 20
60.0158413149
 10
131.8896790474
 20
60.027752935
 10
131.8973134
 20
60.0401293144
 10
131.9042152839
 20
60.0529285793
 10
131.9103613477
 20
60.0661074253
 10
131.9157307967
 20
60.0796212635
 10
131.9203054642
 20
60.0934243719
 10
131.9240698724
 20
60.1074700496
 10
131.9270112848
 20
60.1217107749
 10
131.9291197496
 20
60.1360983662
 10
131.930388133
 20
60.1505841454
 10
131.9308121435
 20
60.1651191017
  0
LINE
  5
52C
100
AcDbEntity
  8
RACCORDO
100
AcDbLine
 62
250
  6
CONTINUOUS
 10
130.2747670097
 20
59.9171603895
 11
130.2578543047
 21
59.9166781468
  0
LINE
  5
52D
100
AcDbEntity
  8
RACCORDO
100
AcDbLine
 62
250
  6
CONTINUOUS
 10
130.0267232553
 20
60.1669115875
 11
130.0069571705
 21
60.1664242802
  0
LINE
  5
52E
100
AcDbEntity
  8
RACCORDO
100
AcDbLine
 62
250
  6
CONTINUOUS
 10
130.2960150208
 20
59.9176289446
 11
130.2747670097
 21
59.9171603895
  0
LINE
  5
52F
100
AcDbEntity
  8
RACCORDO
100
AcDbLine
 62
250
  6
CONTINUOUS
 10
152.8315348656
 20
60.167336228
 11
152.8064725257
 21
60.1668588407
  0
LINE
  5
530
100
AcDbEntity
  8
RACCORDO
100
AcDbLine
 62
250
  6
CONTINUOUS
 10
130.3357627554
 20
59.9183006705
 11
130.2960150208
 21
59.9176289446
  0
LINE
  5
531
100
AcDbEntity
  8
RACCORDO
100
AcDbLine
 62
250
  6
CONTINUOUS
 10
130.0674543801
 20
60.1676199308
 11
130.0267232553
 21
60.1669115875
  0
LINE
  5
532
100
AcDbEntity
  8
RACCORDO
100
AcDbLine
 62
250
  6
CONTINUOUS
 10
152.898836092
 20
60.168244123
 11
152.8315348656
 21
60.167336228
  0
LWPOLYLINE
  5
533
100
AcDbEntity
  8
RACCORDO
100
AcDbPolyline
 62
7
  6
CONTINUOUS
 90
25
 70
0
 10
138.0485723434
 20
60.0293594066
 10
138.0353997172
 20
60.0292223876
 10
138.0223936958
 20
60.0288265426
 10
138.009554279
 20
60.0281718716
 10
137.9968280662
 20
60.027253369
 10
137.9842684581
 20
60.0260760404
 10
137.9720356569
 20
60.024654903
 10
137.960133849
 20
60.0229868338
 10
137.9485588479
 20
60.0210749558
 10
137.9374582968
 20
60.0189436558
 10
137.9268382734
 20
60.016590123
 10
137.9166927001
 20
60.0140171682
 10
137.9071509872
 20
60.0112576102
 10
137.89822087
 20
60.0083090587
 10
137.8898946131
 20
60.0051739042
 10
137.882278421
 20
60.0018921365
 10
137.8753813893
 20
59.9984618775
 10
137.8691944223
 20
59.9948850055
 10
137.8637964369
 20
59.9912071446
 10
137.8591975399
 20
59.9874270011
 10
137.8553876244
 20
59.9835458688
 10
137.8524152873
 20
59.9796132527
 10
137.8502967276
 20
59.9756456548
 10
137.8490157463
 20
59.9716265731
 10
137.8485723434
 20
59.9675560077
  0
LINE
  5
534
100
AcDbEntity
  8
RACCORDO
100
AcDbLine
 62
250
  6
CONTINUOUS
 10
130.4214941206
 20
59.9193130419
 11
130.3357627554
 21
59.9183006705
  0
LINE
  5
535
100
AcDbEntity
  8
RACCORDO
100
AcDbLine
 62
250
  6
CONTINUOUS
 10
130.1633285485
 20
60.1687143468
 11
130.0674543801
 21
60.1676199308
  0
LINE
  5
536
100
AcDbEntity
  8
RACCORDO
100
AcDbLine
 62
250
  6
CONTINUOUS
 10
153.0392602092
 20
60.1694476426
 11
152.898836092
 21
60.168244123
  0
LINE
  5
537
100
AcDbEntity
  8
RACCORDO
100
AcDbLine
 62
250
  6
CONTINUOUS
 10
130.3494916464
 20
60.1699938165
 11
130.1633285485
 21
60.1687143468
  0
LINE
  5
538
100
AcDbEntity
  8
RACCORDO
100
AcDbLine
 62
250
  6
CONTINUOUS
 10
130.6012493693
 20
59.9205678231
 11
130.4214941206
 21
59.9193130419
  0
LINE
  5
539
100
AcDbEntity
  8
RACCORDO
100
AcDbLine
 62
250
  6
CONTINUOUS
 10
153.3218059221
 20
60.1707654377
 11
153.0392602092
 21
60.1694476426
  0
LINE
  5
53A
100
AcDbEntity
  8
RACCORDO
100
AcDbLine
 62
250
  6
CONTINUOUS
 10
130.7332056289
 20
59.9210752733
 11
130.6012493693
 21
59.9205678231
  0
LINE
  5
53B
100
AcDbEntity
  8
RACCORDO
100
AcDbLine
 62
250
  6
CONTINUOUS
 10
130.6929463788
 20
60.1711392547
 11
130.3494916464
 21
60.1699938165
  0
LINE
  5
53C
100
AcDbEntity
  8
RACCORDO
100
AcDbLine
 62
250
  6
CONTINUOUS
 10
153.7354249488
 20
60.1713767669
 11
153.3218059221
 21
60.1707654377
  0
LINE
  5
53D
100
AcDbEntity
  8
RACCORDO
100
AcDbLine
 62
7
  6
CONTINUOUS
 10
146.6485723434
 20
60.0293594066
 11
146.0906539583
 21
60.0293594066
  0
LINE
  5
53E
100
AcDbEntity
  8
RACCORDO
100
AcDbLine
 62
7
  6
CONTINUOUS
 10
138.6064907285
 20
60.0293594066
 11
138.0485723434
 21
60.0293594066
  0
LINE
  5
53F
100
AcDbEntity
  8
RACCORDO
100
AcDbLine
 62
7
  6
CONTINUOUS
 10
146.6485723434
 20
60.4097820131
 11
146.0529021109
 21
60.4097820131
  0
LINE
  5
540
100
AcDbEntity
  8
RACCORDO
100
AcDbLine
 62
7
  6
CONTINUOUS
 10
138.644242576
 20
60.4097820131
 11
138.0485723434
 21
60.4097820131
  0
LINE
  5
541
100
AcDbEntity
  8
RACCORDO
100
AcDbLine
 62
7
  6
CONTINUOUS
 10
134.3485723434
 20
60.6473684211
 11
136.1485723434
 21
60.6473684211
  0
LINE
  5
542
100
AcDbEntity
  8
DRAFT
100
AcDbLine
 62
7
  6
CONTINUOUS
 10
136.1485723434
 20
60.6473684211
 11
136.3485723434
 21
60.6473684211
  0
LINE
  5
543
100
AcDbEntity
  8
DRAFT
100
AcDbLine
 62
7
  6
CONTINUOUS
 10
148.3485723434
 20
60.6473684211
 11
148.5485723434
 21
60.6473684211
  0
LINE
  5
544
100
AcDbEntity
  8
RACCORDO
100
AcDbLine
 62
7
  6
CONTINUOUS
 10
148.5485723434
 20
60.6473684211
 11
150.3485723434
 21
60.6473684211
  0
LINE
  5
545
100
AcDbEntity
  8
RACCORDO
100
AcDbLine
 62
250
  6
CONTINUOUS
 10
148.5485723434
 20
61.1991061789
 11
148.3485723434
 21
61.1991061789
  0
LINE
  5
546
100
AcDbEntity
  8
RACCORDO
100
AcDbLine
 62
250
  6
CONTINUOUS
 10
136.3485723434
 20
61.1991061789
 11
136.1485723434
 21
61.1991061789
  0
LINE
  5
547
100
AcDbEntity
  8
DRAFT
100
AcDbLine
 62
7
  6
CONTINUOUS
 10
132.0018062369
 20
61.3973684211
 11
134.3485723434
 21
61.3973684211
  0
LINE
  5
548
100
AcDbEntity
  8
DRAFT
100
AcDbLine
 62
7
  6
CONTINUOUS
 10
150.3485723434
 20
61.3973684211
 11
152.6953384499
 21
61.3973684211
  0
LINE
  5
549
100
AcDbEntity
  8
RACCORDO
100
AcDbLine
 62
250
  6
CONTINUOUS
 10
148.5503024859
 20
61.3990985635
 11
148.3485723434
 21
61.3990985635
  0
LINE
  5
54A
100
AcDbEntity
  8
RACCORDO
100
AcDbLine
 62
250
  6
CONTINUOUS
 10
136.3485723434
 20
61.3990985635
 11
136.1468422009
 21
61.3990985635
  0
LINE
  5
54B
100
AcDbEntity
  8
DRAFT
100
AcDbLine
 62
7
  6
CONTINUOUS
 10
138.4477714526
 20
61.4698014237
 11
146.2493732343
 21
61.4698014237
  0
LINE
  5
54C
100
AcDbEntity
  8
RACCORDO
100
AcDbLine
 62
250
  6
CONTINUOUS
 10
154.3719850407
 20
61.5138911449
 11
130.3251596462
 21
61.5138911449
  0
LINE
  5
54D
100
AcDbEntity
  8
RACCORDO
100
AcDbLine
 62
250
  6
CONTINUOUS
 10
130.0751977224
 20
61.7638816257
 11
154.6219469645
 21
61.7638816257
  0
LINE
  5
54E
100
AcDbEntity
  8
RACCORDO
100
AcDbLine
 62
250
  6
CONTINUOUS
 10
131.1547302718
 20
60.1712457891
 11
130.6929463788
 21
60.1711392547
  0
LINE
  5
54F
100
AcDbEntity
  8
RACCORDO
100
AcDbLine
 62
250
  6
CONTINUOUS
 10
154.1847714152
 20
60.1706781639
 11
153.7354249488
 21
60.1713767669
  0
LINE
  5
550
100
AcDbEntity
  8
RACCORDO
100
AcDbLine
 62
250
  6
CONTINUOUS
 10
131.5720626123
 20
60.1699592248
 11
131.1547302718
 21
60.1712457891
  0
LINE
  5
551
100
AcDbEntity
  8
RACCORDO
100
AcDbLine
 62
250
  6
CONTINUOUS
 10
154.2137163981
 20
59.9198419195
 11
153.9639168209
 21
59.9210753367
  0
LINE
  5
552
100
AcDbEntity
  8
RACCORDO
100
AcDbLine
 62
250
  6
CONTINUOUS
 10
154.4863684222
 20
60.1691137962
 11
154.1847714152
 21
60.1706781639
  0
LINE
  5
553
100
AcDbEntity
  8
RACCORDO
100
AcDbLine
 62
250
  6
CONTINUOUS
 10
131.7780571989
 20
60.1684595708
 11
131.5720626123
 21
60.1699592248
  0
LWPOLYLINE
  5
554
100
AcDbEntity
  8
RACCORDO
100
AcDbPolyline
 62
7
  6
CONTINUOUS
 90
25
 70
0
 10
146.6485723434
 20
60.4097820131
 10
146.6617449696
 20
60.4096449941
 10
146.6747509911
 20
60.4092491491
 10
146.6875904078
 20
60.4085944782
 10
146.7003166206
 20
60.4076759755
 10
146.7128762287
 20
60.4064986469
 10
146.7251090299
 20
60.4050775095
 10
146.7370108379
 20
60.4034094403
 10
146.748585839
 20
60.4014975624
 10
146.75968639
 20
60.3993662624
 10
146.7703064134
 20
60.3970127296
 10
146.7804519867
 20
60.3944397747
 10
146.7899936997
 20
60.3916802167
 10
146.7989238169
 20
60.3887316653
 10
146.8072500737
 20
60.3855965107
 10
146.8148662659
 20
60.382314743
 10
146.8217632976
 20
60.3788844841
 10
146.8279502645
 20
60.375307612
 10
146.8333482499
 20
60.3716297511
 10
146.837947147
 20
60.3678496076
 10
146.8417570624
 20
60.3639684753
 10
146.8447293995
 20
60.3600358593
 10
146.8468479592
 20
60.3560682613
 10
146.8481289405
 20
60.3520491796
 10
146.8485723434
 20
60.3479786143
  0
LINE
  5
555
100
AcDbEntity
  8
RACCORDO
100
AcDbLine
 62
250
  6
CONTINUOUS
 10
154.5954024866
 20
60.1680725177
 11
154.4863684222
 21
60.1691137962
  0
LINE
  5
556
100
AcDbEntity
  8
RACCORDO
100
AcDbLine
 62
250
  6
CONTINUOUS
 10
154.3298711809
 20
59.9187236107
 11
154.2137163981
 21
59.9198419195
  0
LINE
  5
557
100
AcDbEntity
  8
RACCORDO
100
AcDbLine
 62
250
  6
CONTINUOUS
 10
131.8508953531
 20
60.1675694691
 11
131.7780571989
 21
60.1684595708
  0
LINE
  5
558
100
AcDbEntity
  8
RACCORDO
100
AcDbLine
 62
250
  6
CONTINUOUS
 10
154.6447175971
 20
60.1673875449
 11
154.5954024866
 21
60.1680725177
  0
LINE
  5
559
100
AcDbEntity
  8
RACCORDO
100
AcDbLine
 62
250
  6
CONTINUOUS
 10
154.388887343
 20
59.9178577995
 11
154.3298711809
 21
59.9187236107
  0
LINE
  5
55A
100
AcDbEntity
  8
RACCORDO
100
AcDbLine
 62
250
  6
CONTINUOUS
 10
154.670421216
 20
60.1669115933
 11
154.6447175971
 21
60.1673875449
  0
LWPOLYLINE
  5
55B
100
AcDbEntity
  8
RACCORDO
100
AcDbPolyline
 62
250
  6
CONTINUOUS
 90
3
 70
0
 10
131.8906719518
 20
60.1668588465
 10
131.8788755732
 20
60.167099353
 10
131.8508953531
 20
60.1675694691
  0
LINE
  5
55C
100
AcDbEntity
  8
RACCORDO
100
AcDbLine
 62
250
  6
CONTINUOUS
 10
154.4122854187
 20
59.9173966782
 11
154.388887343
 21
59.9178577995
  0
LWPOLYLINE
  5
55D
100
AcDbEntity
  8
RACCORDO
100
AcDbPolyline
 62
250
  6
CONTINUOUS
 90
28
 70
0
 10
153.0163230241
 20
59.9151286209
 10
153.0017880742
 20
59.9155526311
 10
152.9873023012
 20
59.9168210134
 10
152.9729147157
 20
59.9189294764
 10
152.9586739958
 20
59.9218708864
 10
152.9446283232
 20
59.9256352916
 10
152.9308252192
 20
59.9302099556
 10
152.9173113846
 20
59.9355794008
 10
152.9041325417
 20
59.9417254604
 10
152.891333279
 20
59.9486273401
 10
152.878956901
 20
59.9562616884
 10
152.8670452815
 20
59.9646026755
 10
152.8556387217
 20
59.973622081
 10
152.8447758139
 20
59.983289389
 10
152.8344933114
 20
59.9935718916
 10
152.8248260034
 20
60.0044347993
 10
152.8158065979
 20
60.0158413592
 10
152.8074656108
 20
60.0277529787
 10
152.7998312625
 20
60.0401293566
 10
152.7929293828
 20
60.0529286193
 10
152.7867833232
 20
60.0661074623
 10
152.781413878
 20
60.0796212968
 10
152.776839214
 20
60.0934244008
 10
152.7730748088
 20
60.1074700735
 10
152.7701333988
 20
60.1217107933
 10
152.7680249358
 20
60.1360983789
 10
152.7667565535
 20
60.1505841518
 10
152.7663325433
 20
60.1651191017
  0
LWPOLYLINE
  5
55E
100
AcDbEntity
  8
RACCORDO
100
AcDbPolyline
 62
7
  6
CONTINUOUS
 90
4
 70
0
 10
146.2819114539
 20
61.4372632041
 10
146.2723936958
 20
61.437552882
 10
146.259554279
 20
61.4382075529
 10
146.2468280662
 20
61.4391260556
  0
LINE
  5
55F
100
AcDbEntity
  8
DRAFT
100
AcDbLine
 62
7
  6
CONTINUOUS
 10
132.0018062369
 20
61.3973684211
 11
131.9485723434
 21
61.4506023146
  0
LINE
  5
560
100
AcDbEntity
  8
RACCORDO
100
AcDbLine
 62
7
  6
CONTINUOUS
 10
131.9485723434
 20
61.4506023146
 11
131.9308121435
 21
61.4683625145
  0
LINE
  5
561
100
AcDbEntity
  8
RACCORDO
100
AcDbLine
 62
7
  6
CONTINUOUS
 10
136.0675156919
 20
107.0663117696
 11
136.1485723434
 21
107.1473684211
  0
LINE
  5
562
100
AcDbEntity
  8
RACCORDO
100
AcDbLine
 62
7
  6
CONTINUOUS
 10
136.0675156919
 20
106.3163117696
 11
136.1468422009
 21
106.3956382786
  0
LWPOLYLINE
  5
563
100
AcDbEntity
  8
RACCORDO
100
AcDbPolyline
 62
250
  6
CONTINUOUS
 90
13
 70
0
 10
130.1511151402
 20
100.650601509
 10
130.1543021043
 20
100.6521292613
 10
130.1624544952
 20
100.6536314402
 10
130.1754359095
 20
100.6550829117
 10
130.1930291456
 20
100.6564593902
 10
130.2149398381
 20
100.6577378448
 10
130.2408013831
 20
100.6588968849
 10
130.2701810723
 20
100.6599171176
 10
130.3025873324
 20
100.6607814728
 10
130.3374779506
 20
100.6614754885
 10
130.3742691463
 20
100.6619875526
 10
130.4123453391
 20
100.6623090974
 10
130.4510694482
 20
100.6624347429
  0
LWPOLYLINE
  5
564
100
AcDbEntity
  8
ASSI
100
AcDbPolyline
 62
250
  6
CONTINUOUS
 90
13
 70
0
 10
130.1511151402
 20
100.650601509
 10
130.1543021043
 20
100.6521292613
 10
130.1624544952
 20
100.6536314402
 10
130.1754359095
 20
100.6550829117
 10
130.1930291456
 20
100.6564593902
 10
130.2149398381
 20
100.6577378448
 10
130.2408013831
 20
100.6588968849
 10
130.2701810723
 20
100.6599171176
 10
130.3025873324
 20
100.6607814728
 10
130.3374779506
 20
100.6614754885
 10
130.3742691463
 20
100.6619875526
 10
130.4123453391
 20
100.6623090974
 10
130.4510694482
 20
100.6624347429
  0
LWPOLYLINE
  5
565
100
AcDbEntity
  8
RACCORDO
100
AcDbPolyline
 62
7
  6
CONTINUOUS
 90
5
 70
0
 10
138.4628762287
 20
61.4403033842
 10
138.4503166206
 20
61.4391260556
 10
138.4375904078
 20
61.4382075529
 10
138.4247509911
 20
61.437552882
 10
138.4152332329
 20
61.4372632041
  0
LWPOLYLINE
  5
566
100
AcDbEntity
  8
RACCORDO
100
AcDbPolyline
 62
7
  6
CONTINUOUS
 90
14
 70
0
 10
146.2468280662
 20
61.4391260556
 10
146.2342684581
 20
61.4403033842
 10
146.2220356569
 20
61.4417245216
 10
146.210133849
 20
61.4433925908
 10
146.1985588479
 20
61.4453044687
 10
146.1874582968
 20
61.4474357687
 10
146.1768382734
 20
61.4497893015
 10
146.1666927001
 20
61.4523622564
 10
146.1571509872
 20
61.4551218144
 10
146.14822087
 20
61.4580703659
 10
146.1398946131
 20
61.4612055204
 10
146.132278421
 20
61.4644872881
 10
146.1253813893
 20
61.467917547
 10
146.1221228207
 20
61.4698014237
  0
LWPOLYLINE
  5
567
100
AcDbEntity
  8
RACCORDO
100
AcDbPolyline
 62
250
  6
CONTINUOUS
 90
7
 70
0
 10
154.7129009826
 20
60.1651741865
 10
154.7114462292
 20
60.165426827
 10
154.7084412417
 20
60.1656780799
 10
154.7038909968
 20
60.1659279451
 10
154.6978030911
 20
60.1661768099
 10
154.6901873301
 20
60.1664242871
 10
154.670421216
 20
60.1669115933
  0
LWPOLYLINE
  5
568
100
AcDbEntity
  8
RACCORDO
100
AcDbPolyline
 62
250
  6
CONTINUOUS
 90
9
 70
0
 10
154.4629390588
 20
59.9151837057
 10
154.4618517222
 20
59.9154361148
 10
154.4596224511
 20
59.9156871994
 10
154.4562512456
 20
59.9159369597
 10
154.4517291417
 20
59.9161858043
 10
154.4460651034
 20
59.9164333244
 10
154.4392860227
 20
59.9166782945
 10
154.4313864373
 20
59.9169206909
 10
154.4122854187
 20
59.9173966782
  0
LWPOLYLINE
  5
569
100
AcDbEntity
  8
RACCORDO
100
AcDbPolyline
 62
250
  6
CONTINUOUS
 90
13
 70
0
 10
130.1511151397
 20
67.1441353332
 10
130.154300033
 20
67.1426074855
 10
130.1624507634
 20
67.1411052034
 10
130.1754309448
 20
67.1396536245
 10
130.1930233802
 20
67.1382770379
 10
130.2149336957
 20
67.1369984782
 10
130.2407952663
 20
67.1358393394
 10
130.2701753509
 20
67.1348190173
 10
130.3025823331
 20
67.1339545851
 10
130.3374739475
 20
67.1332605068
 10
130.3742663533
 20
67.1327483965
 10
130.4123439039
 20
67.1324268233
 10
130.4510694483
 20
67.1323011682
  0
LWPOLYLINE
  5
56A
100
AcDbEntity
  8
ASSI
100
AcDbPolyline
 62
250
  6
CONTINUOUS
 90
13
 70
0
 10
130.1511151397
 20
67.1441353332
 10
130.154300033
 20
67.1426074855
 10
130.1624507634
 20
67.1411052034
 10
130.1754309448
 20
67.1396536245
 10
130.1930233802
 20
67.1382770379
 10
130.2149336957
 20
67.1369984782
 10
130.2407952663
 20
67.1358393394
 10
130.2701753509
 20
67.1348190173
 10
130.3025823331
 20
67.1339545851
 10
130.3374739475
 20
67.1332605068
 10
130.3742663533
 20
67.1327483965
 10
130.4123439039
 20
67.1324268233
 10
130.4510694483
 20
67.1323011682
  0
LINE
  5
56B
100
AcDbEntity
  8
RACCORDO
100
AcDbLine
 62
7
  6
CONTINUOUS
 10
136.0675156919
 20
61.4784250725
 11
136.1468422009
 21
61.3990985635
  0
LINE
  5
56C
100
AcDbEntity
  8
RACCORDO
100
AcDbLine
 62
7
  6
CONTINUOUS
 10
129.9747549408
 20
65.0973684211
 11
154.722389746
 21
65.0973684211
  0
LINE
  5
56D
100
AcDbEntity
  8
RACCORDO
100
AcDbLine
 62
7
  6
CONTINUOUS
 10
154.3136165152
 20
65.2973684211
 11
130.3835281717
 21
65.2973684211
  0
LINE
  5
56E
100
AcDbEntity
  8
ASSI
100
AcDbLine
 62
7
  6
CONTINUOUS
 10
154.3136165152
 20
65.2973684211
 11
130.3835281717
 21
65.2973684211
  0
LWPOLYLINE
  5
56F
100
AcDbEntity
  8
RACCORDO
100
AcDbPolyline
 62
7
  6
CONTINUOUS
 90
13
 70
0
 10
146.1221228207
 20
106.3249354184
 10
146.1253813893
 20
106.3268192951
 10
146.132278421
 20
106.330249554
 10
146.1398946131
 20
106.3335313217
 10
146.14822087
 20
106.3366664763
 10
146.1571509872
 20
106.3396150277
 10
146.1666927001
 20
106.3423745857
 10
146.1768382734
 20
106.3449475406
 10
146.1874582968
 20
106.3473010734
 10
146.1985588479
 20
106.3494323734
 10
146.210133849
 20
106.3513442513
 10
146.2220356569
 20
106.3530123205
 10
146.2342684581
 20
106.3544334579
  0
LINE
  5
570
100
AcDbEntity
  8
RACCORDO
100
AcDbLine
 62
7
  6
CONTINUOUS
 10
154.3145258272
 20
65.5973684211
 11
130.3826188596
 21
65.5973684211
  0
LINE
  5
571
100
AcDbEntity
  8
ASSI
100
AcDbLine
 62
7
  6
CONTINUOUS
 10
154.3145258272
 20
65.5973684211
 11
130.3826188596
 21
65.5973684211
  0
LINE
  5
572
100
AcDbEntity
  8
RACCORDO
100
AcDbLine
 62
250
  6
CONTINUOUS
 10
130.0485723434
 20
65.5973684211
 11
130.0834824733
 21
65.5973684211
  0
LINE
  5
573
100
AcDbEntity
  8
ASSI
100
AcDbLine
 62
250
  6
CONTINUOUS
 10
130.0485723434
 20
65.5973684211
 11
130.0834824733
 21
65.5973684211
  0
LINE
  5
574
100
AcDbEntity
  8
RACCORDO
100
AcDbLine
 62
250
  6
CONTINUOUS
 10
154.6136622136
 20
65.5973684211
 11
154.6485723434
 21
65.5973684211
  0
LINE
  5
575
100
AcDbEntity
  8
ASSI
100
AcDbLine
 62
250
  6
CONTINUOUS
 10
154.6136622136
 20
65.5973684211
 11
154.6485723434
 21
65.5973684211
  0
LINE
  5
576
100
AcDbEntity
  8
RACCORDO
100
AcDbLine
 62
250
  6
CONTINUOUS
 10
130.4409821412
 20
66.1869406321
 11
154.2561625456
 21
66.1869406321
  0
LINE
  5
577
100
AcDbEntity
  8
ASSI
100
AcDbLine
 62
250
  6
CONTINUOUS
 10
130.4409821412
 20
66.1869406321
 11
154.2561625456
 21
66.1869406321
  0
LINE
  5
578
100
AcDbEntity
  8
RACCORDO
100
AcDbLine
 62
250
  6
CONTINUOUS
 10
130.4510694483
 20
67.132301168
 11
154.2460752386
 21
67.132301168
  0
LINE
  5
579
100
AcDbEntity
  8
ASSI
100
AcDbLine
 62
250
  6
CONTINUOUS
 10
130.4510694483
 20
67.132301168
 11
154.2460752386
 21
67.132301168
  0
LINE
  5
57A
100
AcDbEntity
  8
RACCORDO
100
AcDbLine
 62
250
  6
CONTINUOUS
 10
154.4629390588
 20
107.8795531364
 11
154.498572342
 21
107.8973684211
  0
LINE
  5
57B
100
AcDbEntity
  8
RACCORDO
100
AcDbLine
 62
250
  6
CONTINUOUS
 10
154.7129009826
 20
107.6295626556
 11
154.7485723434
 21
107.6473969777
  0
LINE
  5
57C
100
AcDbEntity
  8
RACCORDO
100
AcDbLine
 62
250
  6
CONTINUOUS
 10
154.4516111571
 20
106.3206557233
 11
154.3719850407
 21
106.2808456972
  0
LINE
  5
57D
100
AcDbEntity
  8
RACCORDO
100
AcDbLine
 62
250
  6
CONTINUOUS
 10
154.498572342
 20
59.8973684211
 11
154.4629390588
 21
59.9151837057
  0
LINE
  5
57E
100
AcDbEntity
  8
RACCORDO
100
AcDbLine
 62
250
  6
CONTINUOUS
 10
154.7485723434
 20
60.1473398644
 11
154.7129009826
 21
60.1651741865
  0
LINE
  5
57F
100
AcDbEntity
  8
RACCORDO
100
AcDbLine
 62
250
  6
CONTINUOUS
 10
154.4516111571
 20
61.4740811188
 11
154.3719850407
 21
61.5138911449
  0
LWPOLYLINE
  5
580
100
AcDbEntity
  8
RACCORDO
100
AcDbPolyline
 62
250
  6
CONTINUOUS
 90
13
 70
0
 10
130.1410278326
 20
66.482382958
 10
130.1437022501
 20
66.4438958519
 10
130.1514431913
 20
66.4060642777
 10
130.1641188834
 20
66.3695330269
 10
130.1815134428
 20
66.3349247594
 10
130.2033305441
 20
66.3028293988
 10
130.2291984612
 20
66.2737940724
 10
130.2586764454
 20
66.2483137406
 10
130.2912621259
 20
66.2268228598
 10
130.3264000239
 20
66.2096879275
 10
130.3634911975
 20
66.1972011112
 10
130.4019034848
 20
66.1895753194
 10
130.4409821412
 20
66.1869406316
  0
LWPOLYLINE
  5
581
100
AcDbEntity
  8
ASSI
100
AcDbPolyline
 62
250
  6
CONTINUOUS
 90
13
 70
0
 10
130.1410278326
 20
66.482382958
 10
130.1437022501
 20
66.4438958519
 10
130.1514431913
 20
66.4060642777
 10
130.1641188834
 20
66.3695330269
 10
130.1815134428
 20
66.3349247594
 10
130.2033305441
 20
66.3028293988
 10
130.2291984612
 20
66.2737940724
 10
130.2586764454
 20
66.2483137406
 10
130.2912621259
 20
66.2268228598
 10
130.3264000239
 20
66.2096879275
 10
130.3634911975
 20
66.1972011112
 10
130.4019034848
 20
66.1895753194
 10
130.4409821412
 20
66.1869406316
  0
LWPOLYLINE
  5
582
100
AcDbEntity
  8
RACCORDO
100
AcDbPolyline
 62
7
  6
CONTINUOUS
 90
28
 70
0
 10
129.9842437042
 20
61.71840808
 10
129.984999295
 20
61.7059336717
 10
129.9863994955
 20
61.6935033036
 10
129.9884491085
 20
61.6811169756
 10
129.9911521231
 20
61.6687474
 10
129.9945126874
 20
61.6564218646
 10
129.9985359154
 20
61.6442222323
 10
130.003225158
 20
61.6321465314
 10
130.0085839695
 20
61.6201967336
 10
130.0146189791
 20
61.6084606172
 10
130.0213329815
 20
61.5969347453
 10
130.0287294332
 20
61.5856225547
 10
130.0368180885
 20
61.5746221345
 10
130.0456018996
 20
61.5639271617
 10
130.055084308
 20
61.5535439593
 10
130.0652787252
 20
61.543589585
 10
130.0761885054
 20
61.5340535114
 10
130.0878170741
 20
61.5249462658
 10
130.100181263
 20
61.5164164875
 10
130.1132851612
 20
61.5084468845
 10
130.1271315967
 20
61.5010547489
 10
130.1417386547
 20
61.4944405963
 10
130.1571146803
 20
61.4885754593
 10
130.1732575724
 20
61.4834883053
 10
130.190170625
 20
61.4794665524
 10
130.2078550937
 20
61.4766060067
 10
130.2263099227
 20
61.4748108622
 10
130.2455335297
 20
61.4740811188
  0
LWPOLYLINE
  5
583
100
AcDbEntity
  8
RACCORDO
100
AcDbPolyline
 62
250
  6
CONTINUOUS
 90
31
 70
0
 10
130.0751977224
 20
61.7638816257
 10
130.0755423652
 20
61.7507964916
 10
130.0765713662
 20
61.7377472083
 10
130.0782819078
 20
61.7247695522
 10
130.0806693064
 20
61.7118990932
 10
130.0837270192
 20
61.6991711291
 10
130.0874466562
 20
61.6866205886
 10
130.0918180156
 20
61.6742818869
 10
130.0968291129
 20
61.6621888452
 10
130.1024662026
 20
61.6503746288
 10
130.1087138254
 20
61.6388716288
 10
130.1155548508
 20
61.6277113782
 10
130.1229705181
 20
61.6169244753
 10
130.1309405034
 20
61.6065404789
 10
130.1394429441
 20
61.5965878688
 10
130.1484544898
 20
61.5870939657
 10
130.1579503855
 20
61.5780848256
 10
130.1679046261
 20
61.569585098
 10
130.178290004
 20
61.5616180102
 10
130.189078198
 20
61.5542053124
 10
130.2002394981
 20
61.5473674417
 10
130.2117429373
 20
61.5411233376
 10
130.2235567061
 20
61.5354901742
 10
130.2356486277
 20
61.5304832047
 10
130.2479859057
 20
61.5261159773
 10
130.2605375045
 20
61.522399719
 10
130.2732663179
 20
61.5193456531
 10
130.2861292966
 20
61.5169634442
 10
130.2990882434
 20
61.515258633
 10
130.3121102467
 20
61.5142340294
 10
130.3251596462
 20
61.5138911449
  0
LWPOLYLINE
  5
584
100
AcDbEntity
  8
RACCORDO
100
AcDbPolyline
 62
250
  6
CONTINUOUS
 90
31
 70
0
 10
130.0751977224
 20
106.0308552164
 10
130.0755423652
 20
106.0439403505
 10
130.0765713662
 20
106.0569896338
 10
130.0782819078
 20
106.0699672899
 10
130.0806693064
 20
106.0828377489
 10
130.0837270192
 20
106.095565713
 10
130.0874466562
 20
106.1081162536
 10
130.0918180156
 20
106.1204549552
 10
130.0968291129
 20
106.1325479969
 10
130.1024662026
 20
106.1443622133
 10
130.1087138254
 20
106.1558652133
 10
130.1155548508
 20
106.1670254639
 10
130.1229705181
 20
106.1778123668
 10
130.1309405034
 20
106.1881963633
 10
130.1394429441
 20
106.1981489733
 10
130.1484544898
 20
106.2076428764
 10
130.1579503855
 20
106.2166520165
 10
130.1679046261
 20
106.2251517441
 10
130.178290004
 20
106.2331188319
 10
130.189078198
 20
106.2405315297
 10
130.2002394981
 20
106.2473694004
 10
130.2117429373
 20
106.2536135045
 10
130.2235567061
 20
106.2592466679
 10
130.2356486277
 20
106.2642536374
 10
130.2479859057
 20
106.2686208648
 10
130.2605375045
 20
106.2723371231
 10
130.2732663179
 20
106.275391189
 10
130.2861292966
 20
106.2777733979
 10
130.2990882434
 20
106.2794782091
 10
130.3121102467
 20
106.2805028127
 10
130.3251596462
 20
106.2808456972
  0
LWPOLYLINE
  5
585
100
AcDbEntity
  8
RACCORDO
100
AcDbPolyline
 62
250
  6
CONTINUOUS
 90
13
 70
0
 10
130.1410278326
 20
101.3123538841
 10
130.1437025309
 20
101.3508430461
 10
130.1514441852
 20
101.388676183
 10
130.1641208438
 20
101.4252084512
 10
130.1815164403
 20
101.4598171798
 10
130.2033344772
 20
101.4919124832
 10
130.2292030787
 20
101.5209473159
 10
130.25868133
 20
101.5464267963
 10
130.2912667914
 20
101.5679166416
 10
130.326404063
 20
101.5850505698
 10
130.3634942506
 20
101.5975365432
 10
130.4019051739
 20
101.6051617456
 10
130.4409821412
 20
101.60779621
  0
LWPOLYLINE
  5
586
100
AcDbEntity
  8
ASSI
100
AcDbPolyline
 62
250
  6
CONTINUOUS
 90
13
 70
0
 10
130.1410278326
 20
101.3123538841
 10
130.1437025309
 20
101.3508430461
 10
130.1514441852
 20
101.388676183
 10
130.1641208438
 20
101.4252084512
 10
130.1815164403
 20
101.4598171798
 10
130.2033344772
 20
101.4919124832
 10
130.2292030787
 20
101.5209473159
 10
130.25868133
 20
101.5464267963
 10
130.2912667914
 20
101.5679166416
 10
130.326404063
 20
101.5850505698
 10
130.3634942506
 20
101.5975365432
 10
130.4019051739
 20
101.6051617456
 10
130.4409821412
 20
101.60779621
  0
LINE
  5
587
100
AcDbEntity
  8
RACCORDO
100
AcDbLine
 62
7
  6
CONTINUOUS
 10
146.3200760945
 20
106.3956382786
 11
146.2493732343
 21
106.3249354184
  0
LINE
  5
588
100
AcDbEntity
  8
RACCORDO
100
AcDbLine
 62
250
  6
CONTINUOUS
 10
154.7129009826
 20
106.0763287621
 11
154.6219469645
 21
106.0308552164
  0
LINE
  5
589
100
AcDbEntity
  8
RACCORDO
100
AcDbLine
 62
250
  6
CONTINUOUS
 10
154.6219469645
 20
61.7638816257
 11
154.7129009826
 21
61.71840808
  0
LINE
  5
58A
100
AcDbEntity
  8
RACCORDO
100
AcDbLine
 62
7
  6
CONTINUOUS
 10
146.3200760945
 20
61.3990985635
 11
146.2493732343
 21
61.4698014237
  0
LWPOLYLINE
  5
58B
100
AcDbEntity
  8
RACCORDO
100
AcDbPolyline
 62
250
  6
CONTINUOUS
 90
7
 70
0
 10
130.1460603593
 20
101.1904455858
 10
130.1452935658
 20
101.2196882684
 10
130.144487426
 20
101.2456419681
 10
130.1436563424
 20
101.26792368
 10
130.1428051162
 20
101.2864057358
 10
130.1419289462
 20
101.3012158038
 10
130.1410278326
 20
101.3123538841
  0
LWPOLYLINE
  5
58C
100
AcDbEntity
  8
ASSI
100
AcDbPolyline
 62
250
  6
CONTINUOUS
 90
7
 70
0
 10
130.1460603593
 20
101.1904455858
 10
130.1452935658
 20
101.2196882684
 10
130.144487426
 20
101.2456419681
 10
130.1436563424
 20
101.26792368
 10
130.1428051162
 20
101.2864057358
 10
130.1419289462
 20
101.3012158038
 10
130.1410278326
 20
101.3123538841
  0
LWPOLYLINE
  5
58D
100
AcDbEntity
  8
RACCORDO
100
AcDbPolyline
 62
250
  6
CONTINUOUS
 90
6
 70
0
 10
130.4452546612
 20
101.4751836612
 10
130.4444511547
 20
101.512090207
 10
130.4436208946
 20
101.5439663246
 10
130.4427680638
 20
101.5706461274
 10
130.4418884793
 20
101.5919623474
 10
130.4409821412
 20
101.60779621
  0
LWPOLYLINE
  5
58E
100
AcDbEntity
  8
ASSI
100
AcDbPolyline
 62
250
  6
CONTINUOUS
 90
6
 70
0
 10
130.4452546612
 20
101.4751836612
 10
130.4444511547
 20
101.512090207
 10
130.4436208946
 20
101.5439663246
 10
130.4427680638
 20
101.5706461274
 10
130.4418884793
 20
101.5919623474
 10
130.4409821412
 20
101.60779621
  0
LINE
  5
58F
100
AcDbEntity
  8
RACCORDO
100
AcDbLine
 62
250
  6
CONTINUOUS
 10
130.1474752726
 20
101.1219086356
 11
130.1460603593
 21
101.1904455858
  0
LINE
  5
590
100
AcDbEntity
  8
ASSI
100
AcDbLine
 62
250
  6
CONTINUOUS
 10
130.1474752726
 20
101.1219086356
 11
130.1460603593
 21
101.1904455858
  0
LINE
  5
591
100
AcDbEntity
  8
RACCORDO
100
AcDbLine
 62
250
  6
CONTINUOUS
 10
130.4467439571
 20
101.3868539292
 11
130.4452546612
 21
101.4751836612
  0
LINE
  5
592
100
AcDbEntity
  8
ASSI
100
AcDbLine
 62
250
  6
CONTINUOUS
 10
130.4467439571
 20
101.3868539292
 11
130.4452546612
 21
101.4751836612
  0
LINE
  5
593
100
AcDbEntity
  8
RACCORDO
100
AcDbLine
 62
250
  6
CONTINUOUS
 10
130.148691058
 20
101.0421373694
 11
130.1474752726
 21
101.1219086356
  0
LINE
  5
594
100
AcDbEntity
  8
ASSI
100
AcDbLine
 62
250
  6
CONTINUOUS
 10
130.148691058
 20
101.0421373694
 11
130.1474752726
 21
101.1219086356
  0
LINE
  5
595
100
AcDbEntity
  8
RACCORDO
100
AcDbLine
 62
250
  6
CONTINUOUS
 10
130.448063113
 20
101.2808160685
 11
130.4467439571
 21
101.3868539292
  0
LINE
  5
596
100
AcDbEntity
  8
ASSI
100
AcDbLine
 62
250
  6
CONTINUOUS
 10
130.448063113
 20
101.2808160685
 11
130.4467439571
 21
101.3868539292
  0
LINE
  5
597
100
AcDbEntity
  8
RACCORDO
100
AcDbLine
 62
250
  6
CONTINUOUS
 10
130.1496849752
 20
100.9526264837
 11
130.148691058
 21
101.0421373694
  0
LINE
  5
598
100
AcDbEntity
  8
ASSI
100
AcDbLine
 62
250
  6
CONTINUOUS
 10
130.1496849752
 20
100.9526264837
 11
130.148691058
 21
101.0421373694
  0
LINE
  5
599
100
AcDbEntity
  8
RACCORDO
100
AcDbLine
 62
250
  6
CONTINUOUS
 10
130.4491700552
 20
101.1597195002
 11
130.448063113
 21
101.2808160685
  0
LINE
  5
59A
100
AcDbEntity
  8
ASSI
100
AcDbLine
 62
250
  6
CONTINUOUS
 10
130.4491700552
 20
101.1597195002
 11
130.448063113
 21
101.2808160685
  0
LINE
  5
59B
100
AcDbEntity
  8
RACCORDO
100
AcDbLine
 62
250
  6
CONTINUOUS
 10
130.1504275327
 20
100.85590968
 11
130.1496849752
 21
100.9526264837
  0
LINE
  5
59C
100
AcDbEntity
  8
ASSI
100
AcDbLine
 62
250
  6
CONTINUOUS
 10
130.1504275327
 20
100.85590968
 11
130.1496849752
 21
100.9526264837
  0
LINE
  5
59D
100
AcDbEntity
  8
RACCORDO
100
AcDbLine
 62
250
  6
CONTINUOUS
 10
130.4500377912
 20
101.0267286647
 11
130.4491700552
 21
101.1597195002
  0
LINE
  5
59E
100
AcDbEntity
  8
ASSI
100
AcDbLine
 62
250
  6
CONTINUOUS
 10
130.4500377912
 20
101.0267286647
 11
130.4491700552
 21
101.1597195002
  0
LINE
  5
59F
100
AcDbEntity
  8
RACCORDO
100
AcDbLine
 62
250
  6
CONTINUOUS
 10
130.1509058441
 20
100.7549420559
 11
130.1504275327
 21
100.85590968
  0
LINE
  5
5A0
100
AcDbEntity
  8
ASSI
100
AcDbLine
 62
250
  6
CONTINUOUS
 10
130.1509058441
 20
100.7549420559
 11
130.1504275327
 21
100.85590968
  0
LINE
  5
5A1
100
AcDbEntity
  8
RACCORDO
100
AcDbLine
 62
250
  6
CONTINUOUS
 10
130.4506521545
 20
100.8849889768
 11
130.4500377912
 21
101.0267286647
  0
LINE
  5
5A2
100
AcDbEntity
  8
ASSI
100
AcDbLine
 62
250
  6
CONTINUOUS
 10
130.4506521545
 20
100.8849889768
 11
130.4500377912
 21
101.0267286647
  0
LINE
  5
5A3
100
AcDbEntity
  8
RACCORDO
100
AcDbLine
 62
250
  6
CONTINUOUS
 10
130.4509969399
 20
100.7373790667
 11
130.4506521545
 21
100.8849889768
  0
LINE
  5
5A4
100
AcDbEntity
  8
ASSI
100
AcDbLine
 62
250
  6
CONTINUOUS
 10
130.4509969399
 20
100.7373790667
 11
130.4506521545
 21
100.8849889768
  0
LINE
  5
5A5
100
AcDbEntity
  8
RACCORDO
100
AcDbLine
 62
250
  6
CONTINUOUS
 10
130.1511151397
 20
100.650601509
 11
130.1509058441
 21
100.7549420559
  0
LINE
  5
5A6
100
AcDbEntity
  8
ASSI
100
AcDbLine
 62
250
  6
CONTINUOUS
 10
130.1511151397
 20
100.650601509
 11
130.1509058441
 21
100.7549420559
  0
LINE
  5
5A7
100
AcDbEntity
  8
RACCORDO
100
AcDbLine
 62
7
  6
CONTINUOUS
 10
129.9485723434
 20
107.6474064973
 11
129.9485723434
 21
60.1473303448
  0
LINE
  5
5A8
100
AcDbEntity
  8
DRAFT
100
AcDbLine
 62
7
  6
CONTINUOUS
 10
129.9747549408
 20
102.6973684211
 11
129.9747549408
 21
65.0973684211
  0
LINE
  5
5A9
100
AcDbEntity
  8
RACCORDO
100
AcDbLine
 62
250
  6
CONTINUOUS
 10
129.9842437042
 20
61.71840808
 11
129.9842437042
 21
60.1651741865
  0
LINE
  5
5AA
100
AcDbEntity
  8
RACCORDO
100
AcDbLine
 62
250
  6
CONTINUOUS
 10
129.9842437042
 20
106.0763287621
 11
129.9842437042
 21
107.6295626556
  0
LINE
  5
5AB
100
AcDbEntity
  8
RACCORDO
100
AcDbLine
 62
7
  6
CONTINUOUS
 10
130.0485723434
 20
102.1973684211
 11
130.0485723434
 21
65.5973684211
  0
LINE
  5
5AC
100
AcDbEntity
  8
ASSI
100
AcDbLine
 62
7
  6
CONTINUOUS
 10
130.0485723434
 20
102.1973684211
 11
130.0485723434
 21
65.5973684211
  0
LINE
  5
5AD
100
AcDbEntity
  8
RACCORDO
100
AcDbLine
 62
250
  6
CONTINUOUS
 10
130.0751977224
 20
61.7638816257
 11
130.0751977224
 21
65.0973684211
  0
LINE
  5
5AE
100
AcDbEntity
  8
RACCORDO
100
AcDbLine
 62
250
  6
CONTINUOUS
 10
130.0751977224
 20
102.6973684211
 11
130.0751977224
 21
106.0308552164
  0
LINE
  5
5AF
100
AcDbEntity
  8
RACCORDO
100
AcDbLine
 62
7
  6
CONTINUOUS
 10
130.0834824733
 20
65.5973684211
 11
130.0834824733
 21
65.9010732056
  0
LINE
  5
5B0
100
AcDbEntity
  8
ASSI
100
AcDbLine
 62
7
  6
CONTINUOUS
 10
130.0834824733
 20
65.5973684211
 11
130.0834824733
 21
65.9010732056
  0
LINE
  5
5B1
100
AcDbEntity
  8
RACCORDO
100
AcDbLine
 62
7
  6
CONTINUOUS
 10
130.0834824733
 20
101.8936636365
 11
130.0834824733
 21
102.1973684211
  0
LINE
  5
5B2
100
AcDbEntity
  8
ASSI
100
AcDbLine
 62
7
  6
CONTINUOUS
 10
130.0834824733
 20
101.8936636365
 11
130.0834824733
 21
102.1973684211
  0
LINE
  5
5B3
100
AcDbEntity
  8
RACCORDO
100
AcDbLine
 62
250
  6
CONTINUOUS
 10
130.3251596462
 20
61.5138911449
 11
130.3251596462
 21
65.0973684211
  0
LINE
  5
5B4
100
AcDbEntity
  8
RACCORDO
100
AcDbLine
 62
250
  6
CONTINUOUS
 10
130.3251596462
 20
102.6973684211
 11
130.3251596462
 21
106.2808456972
  0
LWPOLYLINE
  5
5B5
100
AcDbEntity
  8
RACCORDO
100
AcDbPolyline
 62
250
  6
CONTINUOUS
 90
9
 70
0
 10
130.1533946113
 20
70.8662125372
 10
130.1551042147
 20
74.588722103
 10
130.1562439501
 20
78.3116640307
 10
130.1568138171
 20
82.0353269751
 10
130.1568138161
 20
85.7594222814
 10
130.1562439477
 20
89.4830839844
 10
130.1551042123
 20
93.2060234292
 10
130.1533946097
 20
96.9285292707
 10
130.1511151397
 20
100.650601509
  0
LWPOLYLINE
  5
5B6
100
AcDbEntity
  8
ASSI
100
AcDbPolyline
 62
250
  6
CONTINUOUS
 90
9
 70
0
 10
130.1533946113
 20
70.8662125372
 10
130.1551042147
 20
74.588722103
 10
130.1562439501
 20
78.3116640307
 10
130.1568138171
 20
82.0353269751
 10
130.1568138161
 20
85.7594222814
 10
130.1562439477
 20
89.4830839844
 10
130.1551042123
 20
93.2060234292
 10
130.1533946097
 20
96.9285292707
 10
130.1511151397
 20
100.650601509
  0
LWPOLYLINE
  5
5B7
100
AcDbEntity
  8
RACCORDO
100
AcDbPolyline
 62
250
  6
CONTINUOUS
 90
9
 70
0
 10
130.4533489201
 20
70.8565348942
 10
130.4550585239
 20
74.5817711881
 10
130.4561982599
 20
78.3077236421
 10
130.4567681279
 20
82.0341057598
 10
130.4567681279
 20
85.7606310799
 10
130.45619826
 20
89.487013198
 10
130.4550585241
 20
93.2129656524
 10
130.4533489202
 20
96.9382019469
 10
130.4509969399
 20
100.7373790667
  0
LWPOLYLINE
  5
5B8
100
AcDbEntity
  8
ASSI
100
AcDbPolyline
 62
250
  6
CONTINUOUS
 90
9
 70
0
 10
130.4533489201
 20
70.8565348942
 10
130.4550585239
 20
74.5817711881
 10
130.4561982599
 20
78.3077236421
 10
130.4567681279
 20
82.0341057598
 10
130.4567681279
 20
85.7606310799
 10
130.45619826
 20
89.487013198
 10
130.4550585241
 20
93.2129656524
 10
130.4533489202
 20
96.9382019469
 10
130.4509969399
 20
100.7373790667
  0
LINE
  5
5B9
100
AcDbEntity
  8
RACCORDO
100
AcDbLine
 62
250
  6
CONTINUOUS
 10
130.4508577109
 20
66.982996646
 11
130.4533489201
 21
70.8565348942
  0
LINE
  5
5BA
100
AcDbEntity
  8
ASSI
100
AcDbLine
 62
250
  6
CONTINUOUS
 10
130.4508577109
 20
66.982996646
 11
130.4533489201
 21
70.8565348942
  0
LINE
  5
5BB
100
AcDbEntity
  8
RACCORDO
100
AcDbLine
 62
250
  6
CONTINUOUS
 10
130.1509057062
 20
67.0397562053
 11
130.1533946113
 21
70.8662125372
  0
LINE
  5
5BC
100
AcDbEntity
  8
ASSI
100
AcDbLine
 62
250
  6
CONTINUOUS
 10
130.1509057062
 20
67.0397562053
 11
130.1533946113
 21
70.8662125372
  0
LINE
  5
5BD
100
AcDbEntity
  8
RACCORDO
100
AcDbLine
 62
250
  6
CONTINUOUS
 10
130.4503784413
 20
66.8379595521
 11
130.4508577109
 21
66.982996646
  0
LINE
  5
5BE
100
AcDbEntity
  8
ASSI
100
AcDbLine
 62
250
  6
CONTINUOUS
 10
130.4503784413
 20
66.8379595521
 11
130.4508577109
 21
66.982996646
  0
LINE
  5
5BF
100
AcDbEntity
  8
RACCORDO
100
AcDbLine
 62
250
  6
CONTINUOUS
 10
130.1504272612
 20
66.9387713634
 11
130.1509057062
 21
67.0397562053
  0
LINE
  5
5C0
100
AcDbEntity
  8
ASSI
100
AcDbLine
 62
250
  6
CONTINUOUS
 10
130.1504272612
 20
66.9387713634
 11
130.1509057062
 21
67.0397562053
  0
LINE
  5
5C1
100
AcDbEntity
  8
RACCORDO
100
AcDbLine
 62
250
  6
CONTINUOUS
 10
130.4496363299
 20
66.7003604504
 11
130.4503784413
 21
66.8379595521
  0
LINE
  5
5C2
100
AcDbEntity
  8
ASSI
100
AcDbLine
 62
250
  6
CONTINUOUS
 10
130.4496363299
 20
66.7003604504
 11
130.4503784413
 21
66.8379595521
  0
LINE
  5
5C3
100
AcDbEntity
  8
RACCORDO
100
AcDbLine
 62
250
  6
CONTINUOUS
 10
130.1496844814
 20
66.8420497654
 11
130.1504272612
 21
66.9387713634
  0
LINE
  5
5C4
100
AcDbEntity
  8
ASSI
100
AcDbLine
 62
250
  6
CONTINUOUS
 10
130.1496844814
 20
66.8420497654
 11
130.1504272612
 21
66.9387713634
  0
LINE
  5
5C5
100
AcDbEntity
  8
RACCORDO
100
AcDbLine
 62
250
  6
CONTINUOUS
 10
130.44864393
 20
66.572887176
 11
130.4496363299
 21
66.7003604504
  0
LINE
  5
5C6
100
AcDbEntity
  8
ASSI
100
AcDbLine
 62
250
  6
CONTINUOUS
 10
130.44864393
 20
66.572887176
 11
130.4496363299
 21
66.7003604504
  0
LINE
  5
5C7
100
AcDbEntity
  8
RACCORDO
100
AcDbLine
 62
250
  6
CONTINUOUS
 10
130.4474310208
 20
66.45897801
 11
130.44864393
 21
66.572887176
  0
LINE
  5
5C8
100
AcDbEntity
  8
ASSI
100
AcDbLine
 62
250
  6
CONTINUOUS
 10
130.4474310208
 20
66.45897801
 11
130.44864393
 21
66.572887176
  0
LINE
  5
5C9
100
AcDbEntity
  8
RACCORDO
100
AcDbLine
 62
250
  6
CONTINUOUS
 10
130.1486896783
 20
66.7524988336
 11
130.1496844814
 21
66.8420497654
  0
LINE
  5
5CA
100
AcDbEntity
  8
ASSI
100
AcDbLine
 62
250
  6
CONTINUOUS
 10
130.1486896783
 20
66.7524988336
 11
130.1496844814
 21
66.8420497654
  0
LINE
  5
5CB
100
AcDbEntity
  8
RACCORDO
100
AcDbLine
 62
250
  6
CONTINUOUS
 10
130.1474737177
 20
66.6727363283
 11
130.1486896783
 21
66.7524988336
  0
LINE
  5
5CC
100
AcDbEntity
  8
ASSI
100
AcDbLine
 62
250
  6
CONTINUOUS
 10
130.1474737177
 20
66.6727363283
 11
130.1486896783
 21
66.7524988336
  0
LINE
  5
5CD
100
AcDbEntity
  8
RACCORDO
100
AcDbLine
 62
250
  6
CONTINUOUS
 10
130.1410278326
 20
101.3123538841
 11
130.0834824733
 21
101.8936636365
  0
LINE
  5
5CE
100
AcDbEntity
  8
ASSI
100
AcDbLine
 62
250
  6
CONTINUOUS
 10
130.1410278326
 20
101.3123538841
 11
130.0834824733
 21
101.8936636365
  0
LINE
  5
5CF
100
AcDbEntity
  8
RACCORDO
100
AcDbLine
 62
250
  6
CONTINUOUS
 10
130.4409821412
 20
101.60779621
 11
130.3826188596
 21
102.1973684211
  0
LINE
  5
5D0
100
AcDbEntity
  8
ASSI
100
AcDbLine
 62
250
  6
CONTINUOUS
 10
130.4409821412
 20
101.60779621
 11
130.3826188596
 21
102.1973684211
  0
LINE
  5
5D1
100
AcDbEntity
  8
RACCORDO
100
AcDbLine
 62
250
  6
CONTINUOUS
 10
131.9308121435
 20
61.4683625145
 11
131.9308121435
 21
60.1651191017
  0
LINE
  5
5D2
100
AcDbEntity
  8
RACCORDO
100
AcDbLine
 62
250
  6
CONTINUOUS
 10
131.9308121435
 20
106.3263743276
 11
131.9308121435
 21
107.6296177404
  0
LINE
  5
5D3
100
AcDbEntity
  8
RACCORDO
100
AcDbLine
 62
7
  6
CONTINUOUS
 10
131.9485723434
 20
60.1473589018
 11
131.9485723434
 21
61.4506023146
  0
LINE
  5
5D4
100
AcDbEntity
  8
RACCORDO
100
AcDbLine
 62
7
  6
CONTINUOUS
 10
131.9485723434
 20
106.3441345275
 11
131.9485723434
 21
107.6473779403
  0
LWPOLYLINE
  5
5D5
100
AcDbEntity
  8
RACCORDO
100
AcDbPolyline
 62
250
  6
CONTINUOUS
 90
8
 70
0
 10
130.4409821412
 20
66.1869406321
 10
130.4418881602
 20
66.2027675338
 10
130.442767626
 20
66.2240789284
 10
130.4436205384
 20
66.2507602889
 10
130.4444511958
 20
66.2826529698
 10
130.4452552999
 20
66.3195915603
 10
130.4460199559
 20
66.3614241289
 10
130.4474310208
 20
66.45897801
  0
LWPOLYLINE
  5
5D6
100
AcDbEntity
  8
ASSI
100
AcDbPolyline
 62
250
  6
CONTINUOUS
 90
8
 70
0
 10
130.4409821412
 20
66.1869406321
 10
130.4418881602
 20
66.2027675338
 10
130.442767626
 20
66.2240789284
 10
130.4436205384
 20
66.2507602889
 10
130.4444511958
 20
66.2826529698
 10
130.4452552999
 20
66.3195915603
 10
130.4460199559
 20
66.3614241289
 10
130.4474310208
 20
66.45897801
  0
LWPOLYLINE
  5
5D7
100
AcDbEntity
  8
RACCORDO
100
AcDbPolyline
 62
250
  6
CONTINUOUS
 90
8
 70
0
 10
130.1410278326
 20
66.482382958
 10
130.1419285814
 20
66.4935143996
 10
130.142804467
 20
66.5083180712
 10
130.1436554895
 20
66.5267939728
 10
130.144486497
 20
66.5490719308
 10
130.1452926414
 20
66.5750221187
 10
130.1460593776
 20
66.6042550573
 10
130.1474737177
 20
66.6727363283
  0
LWPOLYLINE
  5
5D8
100
AcDbEntity
  8
ASSI
100
AcDbPolyline
 62
250
  6
CONTINUOUS
 90
8
 70
0
 10
130.1410278326
 20
66.482382958
 10
130.1419285814
 20
66.4935143996
 10
130.142804467
 20
66.5083180712
 10
130.1436554895
 20
66.5267939728
 10
130.144486497
 20
66.5490719308
 10
130.1452926414
 20
66.5750221187
 10
130.1460593776
 20
66.6042550573
 10
130.1474737177
 20
66.6727363283
  0
LINE
  5
5D9
100
AcDbEntity
  8
RACCORDO
100
AcDbLine
 62
250
  6
CONTINUOUS
 10
130.0834824733
 20
65.9010732056
 11
130.1410278326
 21
66.482382958
  0
LINE
  5
5DA
100
AcDbEntity
  8
ASSI
100
AcDbLine
 62
250
  6
CONTINUOUS
 10
130.0834824733
 20
65.9010732056
 11
130.1410278326
 21
66.482382958
  0
LINE
  5
5DB
100
AcDbEntity
  8
RACCORDO
100
AcDbLine
 62
250
  6
CONTINUOUS
 10
130.3826188596
 20
65.5973684211
 11
130.4409821412
 21
66.1869406321
  0
LINE
  5
5DC
100
AcDbEntity
  8
ASSI
100
AcDbLine
 62
250
  6
CONTINUOUS
 10
130.3826188596
 20
65.5973684211
 11
130.4409821412
 21
66.1869406321
  0
LWPOLYLINE
  5
5DD
100
AcDbEntity
  8
0
100
AcDbPolyline
 62
7
  6
CONTINUOUS
 90
3
 70
0
 43
0.3500000006
 10
143.3842910156
 20
117.9426849976
 10
143.3128598328
 20
117.7284005127
 10
143.169997467
 20
117.442684845
  0
LINE
  5
5DE
100
AcDbEntity
  8
RACCORDO
100
AcDbLine
 62
7
  6
CONTINUOUS
 10
150.2675156919
 20
107.0663117696
 11
150.3485723434
 21
107.1473684211
  0
LINE
  5
5DF
100
AcDbEntity
  8
RACCORDO
100
AcDbLine
 62
7
  6
CONTINUOUS
 10
150.3485723434
 20
106.3973684211
 11
150.2675156919
 21
106.3163117696
  0
LINE
  5
5E0
100
AcDbEntity
  8
RACCORDO
100
AcDbLine
 62
7
  6
CONTINUOUS
 10
150.3485723434
 20
61.3973684211
 11
150.2675156919
 21
61.4784250725
  0
LINE
  5
5E1
100
AcDbEntity
  8
ASSI
100
AcDbLine
 62
7
  6
CONTINUOUS
 10
133.8485723434
 20
102.6973684211
 11
133.8485723434
 21
102.4973684211
  0
LINE
  5
5E2
100
AcDbEntity
  8
ASSI
100
AcDbLine
 62
7
  6
CONTINUOUS
 10
133.8485723434
 20
65.0973684211
 11
133.8485723434
 21
65.2973684211
  0
LINE
  5
5E3
100
AcDbEntity
  8
SMUSSO
100
AcDbLine
 62
7
  6
CONTINUOUS
 10
134.0485723434
 20
102.6973684211
 11
134.0485723434
 21
102.4973684211
  0
LINE
  5
5E4
100
AcDbEntity
  8
SMUSSO
100
AcDbLine
 62
7
  6
CONTINUOUS
 10
134.0485723434
 20
65.2973684211
 11
134.0485723434
 21
65.0973684211
  0
LINE
  5
5E5
100
AcDbEntity
  8
ASSI
100
AcDbLine
 62
7
  6
CONTINUOUS
 10
134.0985723434
 20
65.0973684211
 11
134.0985723434
 21
65.2973684211
  0
LINE
  5
5E6
100
AcDbEntity
  8
ASSI
100
AcDbLine
 62
7
  6
CONTINUOUS
 10
134.0985723434
 20
102.4973684211
 11
134.0985723434
 21
102.6973684211
  0
LINE
  5
5E7
100
AcDbEntity
  8
DRAFT
100
AcDbLine
 62
7
  6
CONTINUOUS
 10
134.3485723434
 20
60.6473684211
 11
134.3485723434
 21
61.3973684211
  0
LINE
  5
5E8
100
AcDbEntity
  8
DRAFT
100
AcDbLine
 62
7
  6
CONTINUOUS
 10
134.3485723434
 20
106.3973684211
 11
134.3485723434
 21
107.1473684211
  0
LINE
  5
5E9
100
AcDbEntity
  8
RACCORDO
100
AcDbLine
 62
250
  6
CONTINUOUS
 10
134.4296289949
 20
61.4784250725
 11
134.4296289949
 21
60.6473684211
  0
LINE
  5
5EA
100
AcDbEntity
  8
RACCORDO
100
AcDbLine
 62
250
  6
CONTINUOUS
 10
134.4296289949
 20
106.3163117696
 11
134.4296289949
 21
107.0663117696
  0
LINE
  5
5EB
100
AcDbEntity
  8
RACCORDO
100
AcDbLine
 62
250
  6
CONTINUOUS
 10
136.0675156919
 20
61.4784250725
 11
136.0675156919
 21
60.6473684211
  0
LINE
  5
5EC
100
AcDbEntity
  8
RACCORDO
100
AcDbLine
 62
250
  6
CONTINUOUS
 10
136.0675156919
 20
106.3163117696
 11
136.0675156919
 21
107.0663117696
  0
LINE
  5
5ED
100
AcDbEntity
  8
RACCORDO
100
AcDbLine
 62
7
  6
CONTINUOUS
 10
136.1485723434
 20
60.6473684211
 11
136.1485723434
 21
61.1991061789
  0
LINE
  5
5EE
100
AcDbEntity
  8
RACCORDO
100
AcDbLine
 62
7
  6
CONTINUOUS
 10
136.1485723434
 20
106.5956306632
 11
136.1485723434
 21
107.1473684211
  0
LINE
  5
5EF
100
AcDbEntity
  8
0
100
AcDbLine
 62
7
  6
CONTINUOUS
 10
136.3485723434
 20
107.9069679756
 11
136.3485723434
 21
106.3577168241
  0
LINE
  5
5F0
100
AcDbEntity
  8
0
100
AcDbLine
 62
7
  6
CONTINUOUS
 10
136.3485723434
 20
59.8877688665
 11
136.3485723434
 21
58.8877688665
  0
LINE
  5
5F1
100
AcDbEntity
  8
0
100
AcDbLine
 62
7
  6
CONTINUOUS
 10
136.3485723434
 20
59.8877688665
 11
136.3485723434
 21
61.437020018
  0
LINE
  5
5F2
100
AcDbEntity
  8
0
100
AcDbLine
 62
7
  6
CONTINUOUS
 10
136.3485723434
 20
107.9069679756
 11
136.3485723434
 21
108.9069679756
  0
LINE
  5
5F3
100
AcDbEntity
  8
DRAFT
100
AcDbLine
 62
7
  6
CONTINUOUS
 10
140.1342129895
 20
102.6973684211
 11
140.080623151
 21
102.4973684211
  0
LINE
  5
5F4
100
AcDbEntity
  8
DRAFT
100
AcDbLine
 62
7
  6
CONTINUOUS
 10
140.080623151
 20
65.2973684211
 11
140.1342129895
 21
65.0973684211
  0
LINE
  5
5F5
100
AcDbEntity
  8
0
100
AcDbLine
 62
7
  6
CONTINUOUS
 10
137.0985723434
 20
65.0973684211
 11
137.0985723434
 21
65.2973684211
  0
LINE
  5
5F6
100
AcDbEntity
  8
ASSI
100
AcDbLine
 62
7
  6
CONTINUOUS
 10
137.0985723434
 20
65.0973684211
 11
137.0985723434
 21
65.2973684211
  0
LINE
  5
5F7
100
AcDbEntity
  8
0
100
AcDbLine
 62
7
  6
CONTINUOUS
 10
137.0985723434
 20
102.4973684211
 11
137.0985723434
 21
102.6973684211
  0
LINE
  5
5F8
100
AcDbEntity
  8
ASSI
100
AcDbLine
 62
7
  6
CONTINUOUS
 10
137.0985723434
 20
102.4973684211
 11
137.0985723434
 21
102.6973684211
  0
LINE
  5
5F9
100
AcDbEntity
  8
ASSI
100
AcDbLine
 62
7
  6
CONTINUOUS
 10
137.3485723434
 20
102.6973684211
 11
137.3485723434
 21
102.4973684211
  0
LINE
  5
5FA
100
AcDbEntity
  8
ASSI
100
AcDbLine
 62
7
  6
CONTINUOUS
 10
137.3485723434
 20
65.0973684211
 11
137.3485723434
 21
65.2973684211
  0
LINE
  5
5FB
100
AcDbEntity
  8
RACCORDO
100
AcDbLine
 62
7
  6
CONTINUOUS
 10
137.8485723434
 20
107.9069679756
 11
137.8485723434
 21
107.4467582278
  0
LINE
  5
5FC
100
AcDbEntity
  8
RACCORDO
100
AcDbLine
 62
7
  6
CONTINUOUS
 10
137.8485723434
 20
60.3479786143
 11
137.8485723434
 21
59.8877688665
  0
LINE
  5
5FD
100
AcDbEntity
  8
RACCORDO
100
AcDbLine
 62
250
  6
CONTINUOUS
 10
138.0485723434
 20
107.7653774355
 11
138.0485723434
 21
107.384954829
  0
LINE
  5
5FE
100
AcDbEntity
  8
RACCORDO
100
AcDbLine
 62
250
  6
CONTINUOUS
 10
138.0485723434
 20
60.0293594066
 11
138.0485723434
 21
60.4097820131
  0
LINE
  5
5FF
100
AcDbEntity
  8
0
100
AcDbLine
 62
7
  6
CONTINUOUS
 10
138.4285723434
 20
102.6973684211
 11
138.4285723434
 21
102.4973684211
  0
LINE
  5
600
100
AcDbEntity
  8
0
100
AcDbLine
 62
7
  6
CONTINUOUS
 10
138.4285723434
 20
65.0973684211
 11
138.4285723434
 21
65.2973684211
  0
LWPOLYLINE
  5
601
100
AcDbEntity
  8
RACCORDO
100
AcDbPolyline
 62
7
  6
CONTINUOUS
 90
25
 70
0
 10
137.8485723434
 20
107.8271808344
 10
137.8490157463
 20
107.823110269
 10
137.8502967276
 20
107.8190911874
 10
137.8524152873
 20
107.8151235894
 10
137.8553876244
 20
107.8111909733
 10
137.8591975399
 20
107.807309841
 10
137.8637964369
 20
107.8035296975
 10
137.8691944223
 20
107.7998518366
 10
137.8753813893
 20
107.7962749646
 10
137.882278421
 20
107.7928447056
 10
137.8898946131
 20
107.7895629379
 10
137.89822087
 20
107.7864277834
 10
137.9071509872
 20
107.7834792319
 10
137.9166927001
 20
107.7807196739
 10
137.9268382734
 20
107.7781467191
 10
137.9374582968
 20
107.7757931863
 10
137.9485588479
 20
107.7736618863
 10
137.960133849
 20
107.7717500083
 10
137.9720356569
 20
107.7700819391
 10
137.9842684581
 20
107.7686608018
 10
137.9968280662
 20
107.7674834731
 10
138.009554279
 20
107.7665649705
 10
138.0223936958
 20
107.7659102995
 10
138.0353997172
 20
107.7655144545
 10
138.0485723434
 20
107.7653774355
  0
LINE
  5
602
100
AcDbEntity
  8
RACCORDO
100
AcDbLine
 62
7
  6
CONTINUOUS
 10
138.6145450482
 20
107.7243991242
 11
138.7369822575
 21
106.3249354184
  0
LINE
  5
603
100
AcDbEntity
  8
RACCORDO
100
AcDbLine
 62
7
  6
CONTINUOUS
 10
139.8485723434
 20
102.6973684211
 11
139.8485723434
 21
102.4973684211
  0
LINE
  5
604
100
AcDbEntity
  8
RACCORDO
100
AcDbLine
 62
7
  6
CONTINUOUS
 10
139.8485723434
 20
65.2973684211
 11
139.8485723434
 21
65.0973684211
  0
LINE
  5
605
100
AcDbEntity
  8
RACCORDO
100
AcDbLine
 62
7
  6
CONTINUOUS
 10
138.7369822575
 20
61.4698014237
 11
138.6145450482
 21
60.0703377179
  0
LWPOLYLINE
  5
606
100
AcDbEntity
  8
RACCORDO
100
AcDbPolyline
 62
7
  6
CONTINUOUS
 90
25
 70
0
 10
137.8485723434
 20
60.3479786143
 10
137.8490157463
 20
60.3520491796
 10
137.8502967276
 20
60.3560682613
 10
137.8524152873
 20
60.3600358593
 10
137.8553876244
 20
60.3639684753
 10
137.8591975399
 20
60.3678496076
 10
137.8637964369
 20
60.3716297511
 10
137.8691944223
 20
60.375307612
 10
137.8753813893
 20
60.3788844841
 10
137.882278421
 20
60.382314743
 10
137.8898946131
 20
60.3855965107
 10
137.89822087
 20
60.3887316653
 10
137.9071509872
 20
60.3916802167
 10
137.9166927001
 20
60.3944397747
 10
137.9268382734
 20
60.3970127296
 10
137.9374582968
 20
60.3993662624
 10
137.9485588479
 20
60.4014975624
 10
137.960133849
 20
60.4034094403
 10
137.9720356569
 20
60.4050775095
 10
137.9842684581
 20
60.4064986469
 10
137.9968280662
 20
60.4076759755
 10
138.009554279
 20
60.4085944782
 10
138.0223936958
 20
60.4092491491
 10
138.0353997172
 20
60.4096449941
 10
138.0485723434
 20
60.4097820131
  0
LWPOLYLINE
  5
607
100
AcDbEntity
  8
0
100
AcDbPolyline
 62
7
  6
CONTINUOUS
 90
2
 70
0
 43
0.3500000006
 10
141.3128592224
 20
117.6569693298
 10
141.3128592224
 20
119.1569697876
  0
LINE
  5
608
100
AcDbEntity
  8
CURVE
100
AcDbLine
 62
7
  6
CONTINUOUS
 10
142.3485723434
 20
87.6473684211
 11
142.3485723434
 21
80.1473680285
  0
LWPOLYLINE
  5
609
100
AcDbEntity
  8
0
100
AcDbPolyline
 62
7
  6
CONTINUOUS
 90
2
 70
0
 43
0.3500000006
 10
161.9985811157
 20
82.5402269897
 10
160.4985715942
 20
82.5402269897
  0
LWPOLYLINE
  5
60A
100
AcDbEntity
  8
0
100
AcDbPolyline
 62
7
  6
CONTINUOUS
 90
4
 70
0
 43
0.3500000006
 10
161.5699940186
 20
83.8973650818
 10
160.7128560791
 20
83.8973650818
 10
160.2842871094
 20
84.3259431152
 10
160.2842871094
 20
84.9687965698
  0
LWPOLYLINE
  5
60B
100
AcDbEntity
  8
RACCORDO
100
AcDbPolyline
 62
7
  6
CONTINUOUS
 90
25
 70
0
 10
146.8485723434
 20
59.9675560077
 10
146.8481289405
 20
59.9716265731
 10
146.8468479592
 20
59.9756456548
 10
146.8447293995
 20
59.9796132527
 10
146.8417570624
 20
59.9835458688
 10
146.837947147
 20
59.9874270011
 10
146.8333482499
 20
59.9912071446
 10
146.8279502645
 20
59.9948850055
 10
146.8217632976
 20
59.9984618775
 10
146.8148662659
 20
60.0018921365
 10
146.8072500737
 20
60.0051739042
 10
146.7989238169
 20
60.0083090587
 10
146.7899936997
 20
60.0112576102
 10
146.7804519867
 20
60.0140171682
 10
146.7703064134
 20
60.016590123
 10
146.75968639
 20
60.0189436558
 10
146.748585839
 20
60.0210749558
 10
146.7370108379
 20
60.0229868338
 10
146.7251090299
 20
60.024654903
 10
146.7128762287
 20
60.0260760404
 10
146.7003166206
 20
60.027253369
 10
146.6875904078
 20
60.0281718716
 10
146.6747509911
 20
60.0288265426
 10
146.6617449696
 20
60.0292223876
 10
146.6485723434
 20
60.0293594066
  0
LINE
  5
60C
100
AcDbEntity
  8
RACCORDO
100
AcDbLine
 62
7
  6
CONTINUOUS
 10
146.0825996386
 20
60.0703377179
 11
145.9601624293
 21
61.4698014237
  0
LWPOLYLINE
  5
60D
100
AcDbEntity
  8
0
100
AcDbPolyline
 62
7
  6
CONTINUOUS
 90
4
 70
0
 43
0.3500000006
 10
144.3842822571
 20
118.0855382996
 10
144.3842822571
 20
118.9426853027
 10
144.8128602905
 20
119.3712542725
 10
145.4557137451
 20
119.3712542725
  0
LINE
  5
60E
100
AcDbEntity
  8
RACCORDO
100
AcDbLine
 62
7
  6
CONTINUOUS
 10
145.9601624293
 20
106.3249354184
 11
146.0825996386
 21
107.7243991242
  0
LWPOLYLINE
  5
60F
100
AcDbEntity
  8
RACCORDO
100
AcDbPolyline
 62
7
  6
CONTINUOUS
 90
25
 70
0
 10
146.8485723434
 20
107.4467582278
 10
146.8481289405
 20
107.4426876625
 10
146.8468479592
 20
107.4386685808
 10
146.8447293995
 20
107.4347009829
 10
146.8417570624
 20
107.4307683668
 10
146.837947147
 20
107.4268872345
 10
146.8333482499
 20
107.423107091
 10
146.8279502645
 20
107.4194292301
 10
146.8217632976
 20
107.415852358
 10
146.8148662659
 20
107.4124220991
 10
146.8072500737
 20
107.4091403314
 10
146.7989238169
 20
107.4060051769
 10
146.7899936997
 20
107.4030566254
 10
146.7804519867
 20
107.4002970674
 10
146.7703064134
 20
107.3977241126
 10
146.75968639
 20
107.3953705797
 10
146.748585839
 20
107.3932392797
 10
146.7370108379
 20
107.3913274018
 10
146.7251090299
 20
107.3896593326
 10
146.7128762287
 20
107.3882381952
 10
146.7003166206
 20
107.3870608666
 10
146.6875904078
 20
107.3861423639
 10
146.6747509911
 20
107.385487693
 10
146.6617449696
 20
107.385091848
 10
146.6485723434
 20
107.384954829
  0
LINE
  5
610
100
AcDbEntity
  8
RACCORDO
100
AcDbLine
 62
7
  6
CONTINUOUS
 10
144.8485723434
 20
65.0973684211
 11
144.8485723434
 21
65.2973684211
  0
LINE
  5
611
100
AcDbEntity
  8
RACCORDO
100
AcDbLine
 62
7
  6
CONTINUOUS
 10
144.8485723434
 20
102.4973684211
 11
144.8485723434
 21
102.6973684211
  0
LINE
  5
612
100
AcDbEntity
  8
0
100
AcDbLine
 62
7
  6
CONTINUOUS
 10
146.2685723434
 20
102.6973684211
 11
146.2685723434
 21
102.4973684211
  0
LINE
  5
613
100
AcDbEntity
  8
0
100
AcDbLine
 62
7
  6
CONTINUOUS
 10
146.2685723434
 20
65.0973684211
 11
146.2685723434
 21
65.2973684211
  0
LINE
  5
614
100
AcDbEntity
  8
RACCORDO
100
AcDbLine
 62
250
  6
CONTINUOUS
 10
146.6485723434
 20
107.7653774355
 11
146.6485723434
 21
107.384954829
  0
LINE
  5
615
100
AcDbEntity
  8
RACCORDO
100
AcDbLine
 62
250
  6
CONTINUOUS
 10
146.6485723434
 20
60.0293594066
 11
146.6485723434
 21
60.4097820131
  0
LINE
  5
616
100
AcDbEntity
  8
RACCORDO
100
AcDbLine
 62
7
  6
CONTINUOUS
 10
146.8485723434
 20
59.8877688665
 11
146.8485723434
 21
60.3479786143
  0
LINE
  5
617
100
AcDbEntity
  8
RACCORDO
100
AcDbLine
 62
7
  6
CONTINUOUS
 10
146.8485723434
 20
107.4467582278
 11
146.8485723434
 21
107.9069679756
  0
LINE
  5
618
100
AcDbEntity
  8
ASSI
100
AcDbLine
 62
7
  6
CONTINUOUS
 10
147.3485723434
 20
102.6973684211
 11
147.3485723434
 21
102.4973684211
  0
LINE
  5
619
100
AcDbEntity
  8
ASSI
100
AcDbLine
 62
7
  6
CONTINUOUS
 10
147.3485723434
 20
65.0973684211
 11
147.3485723434
 21
65.2973684211
  0
LINE
  5
61A
100
AcDbEntity
  8
0
100
AcDbLine
 62
7
  6
CONTINUOUS
 10
147.5985723434
 20
65.0973684211
 11
147.5985723434
 21
65.2973684211
  0
LINE
  5
61B
100
AcDbEntity
  8
ASSI
100
AcDbLine
 62
7
  6
CONTINUOUS
 10
147.5985723434
 20
65.0973684211
 11
147.5985723434
 21
65.2973684211
  0
LINE
  5
61C
100
AcDbEntity
  8
0
100
AcDbLine
 62
7
  6
CONTINUOUS
 10
147.5985723434
 20
102.4973684211
 11
147.5985723434
 21
102.6973684211
  0
LINE
  5
61D
100
AcDbEntity
  8
ASSI
100
AcDbLine
 62
7
  6
CONTINUOUS
 10
147.5985723434
 20
102.4973684211
 11
147.5985723434
 21
102.6973684211
  0
LINE
  5
61E
100
AcDbEntity
  8
0
100
AcDbLine
 62
7
  6
CONTINUOUS
 10
148.3485723434
 20
107.9069679756
 11
148.3485723434
 21
106.3577168241
  0
LINE
  5
61F
100
AcDbEntity
  8
0
100
AcDbLine
 62
7
  6
CONTINUOUS
 10
148.3485723434
 20
59.8877688665
 11
148.3485723434
 21
58.8877688665
  0
LINE
  5
620
100
AcDbEntity
  8
0
100
AcDbLine
 62
7
  6
CONTINUOUS
 10
148.3485723434
 20
59.8877688665
 11
148.3485723434
 21
61.437020018
  0
LINE
  5
621
100
AcDbEntity
  8
0
100
AcDbLine
 62
7
  6
CONTINUOUS
 10
148.3485723434
 20
107.9069679756
 11
148.3485723434
 21
108.9069679756
  0
LINE
  5
622
100
AcDbEntity
  8
RACCORDO
100
AcDbLine
 62
7
  6
CONTINUOUS
 10
148.5485723434
 20
60.6473684211
 11
148.5485723434
 21
61.1991061789
  0
LINE
  5
623
100
AcDbEntity
  8
RACCORDO
100
AcDbLine
 62
7
  6
CONTINUOUS
 10
148.5485723434
 20
106.5956306632
 11
148.5485723434
 21
107.1473684211
  0
LINE
  5
624
100
AcDbEntity
  8
RACCORDO
100
AcDbLine
 62
250
  6
CONTINUOUS
 10
148.6296289949
 20
61.4784250725
 11
148.6296289949
 21
60.6473684211
  0
LINE
  5
625
100
AcDbEntity
  8
RACCORDO
100
AcDbLine
 62
250
  6
CONTINUOUS
 10
148.6296289949
 20
106.3163117696
 11
148.6296289949
 21
107.0663117696
  0
LINE
  5
626
100
AcDbEntity
  8
DRAFT
100
AcDbLine
 62
7
  6
CONTINUOUS
 10
144.5629316974
 20
65.0973684211
 11
144.6165215359
 21
65.2973684211
  0
LINE
  5
627
100
AcDbEntity
  8
DRAFT
100
AcDbLine
 62
7
  6
CONTINUOUS
 10
144.6165215359
 20
102.4973684211
 11
144.5629316974
 21
102.6973684211
  0
LINE
  5
628
100
AcDbEntity
  8
RACCORDO
100
AcDbLine
 62
250
  6
CONTINUOUS
 10
150.2675156919
 20
61.4784250725
 11
150.2675156919
 21
60.6473684211
  0
LINE
  5
629
100
AcDbEntity
  8
RACCORDO
100
AcDbLine
 62
250
  6
CONTINUOUS
 10
150.2675156919
 20
106.3163117696
 11
150.2675156919
 21
107.0663117696
  0
LINE
  5
62A
100
AcDbEntity
  8
DRAFT
100
AcDbLine
 62
7
  6
CONTINUOUS
 10
150.3485723434
 20
60.6473684211
 11
150.3485723434
 21
61.3973684211
  0
LINE
  5
62B
100
AcDbEntity
  8
DRAFT
100
AcDbLine
 62
7
  6
CONTINUOUS
 10
150.3485723434
 20
106.3973684211
 11
150.3485723434
 21
107.1473684211
  0
LINE
  5
62C
100
AcDbEntity
  8
ASSI
100
AcDbLine
 62
7
  6
CONTINUOUS
 10
150.5985723434
 20
65.0973684211
 11
150.5985723434
 21
65.2973684211
  0
LINE
  5
62D
100
AcDbEntity
  8
ASSI
100
AcDbLine
 62
7
  6
CONTINUOUS
 10
150.5985723434
 20
102.4973684211
 11
150.5985723434
 21
102.6973684211
  0
LINE
  5
62E
100
AcDbEntity
  8
SMUSSO
100
AcDbLine
 62
7
  6
CONTINUOUS
 10
150.6485723434
 20
65.0973684211
 11
150.6485723434
 21
65.2973684211
  0
LINE
  5
62F
100
AcDbEntity
  8
SMUSSO
100
AcDbLine
 62
7
  6
CONTINUOUS
 10
150.6485723434
 20
102.4973684211
 11
150.6485723434
 21
102.6973684211
  0
LINE
  5
630
100
AcDbEntity
  8
ASSI
100
AcDbLine
 62
7
  6
CONTINUOUS
 10
150.8485723434
 20
102.6973684211
 11
150.8485723434
 21
102.4973684211
  0
LINE
  5
631
100
AcDbEntity
  8
ASSI
100
AcDbLine
 62
7
  6
CONTINUOUS
 10
150.8485723434
 20
65.0973684211
 11
150.8485723434
 21
65.2973684211
  0
LINE
  5
632
100
AcDbEntity
  8
RACCORDO
100
AcDbLine
 62
250
  6
CONTINUOUS
 10
154.2561625456
 20
66.1869406321
 11
154.3145258272
 21
65.5973684211
  0
LINE
  5
633
100
AcDbEntity
  8
ASSI
100
AcDbLine
 62
250
  6
CONTINUOUS
 10
154.2561625456
 20
66.1869406321
 11
154.3145258272
 21
65.5973684211
  0
LINE
  5
634
100
AcDbEntity
  8
RACCORDO
100
AcDbLine
 62
250
  6
CONTINUOUS
 10
154.5561168542
 20
66.482382958
 11
154.6136622136
 21
65.9010732056
  0
LINE
  5
635
100
AcDbEntity
  8
ASSI
100
AcDbLine
 62
250
  6
CONTINUOUS
 10
154.5561168542
 20
66.482382958
 11
154.6136622136
 21
65.9010732056
  0
LINE
  5
636
100
AcDbEntity
  8
RACCORDO
100
AcDbLine
 62
7
  6
CONTINUOUS
 10
152.7485723434
 20
107.6473779403
 11
152.7485723434
 21
106.3441345275
  0
LINE
  5
637
100
AcDbEntity
  8
RACCORDO
100
AcDbLine
 62
7
  6
CONTINUOUS
 10
152.7485723434
 20
61.4506023146
 11
152.7485723434
 21
60.1473589018
  0
LINE
  5
638
100
AcDbEntity
  8
RACCORDO
100
AcDbLine
 62
250
  6
CONTINUOUS
 10
152.7663325433
 20
61.4683625145
 11
152.7663325433
 21
60.1651191017
  0
LINE
  5
639
100
AcDbEntity
  8
RACCORDO
100
AcDbLine
 62
250
  6
CONTINUOUS
 10
152.7663325433
 20
106.3263743276
 11
152.7663325433
 21
107.6296177404
  0
LWPOLYLINE
  5
63A
100
AcDbEntity
  8
RACCORDO
100
AcDbPolyline
 62
250
  6
CONTINUOUS
 90
8
 70
0
 10
154.2561625456
 20
101.60779621
 10
154.2552562075
 20
101.5919623474
 10
154.2543766231
 20
101.5706461274
 10
154.2535237923
 20
101.5439663246
 10
154.2526935321
 20
101.512090207
 10
154.2518900256
 20
101.4751836612
 10
154.2511258217
 20
101.4333843234
 10
154.2497149404
 20
101.3358771664
  0
LWPOLYLINE
  5
63B
100
AcDbEntity
  8
ASSI
100
AcDbPolyline
 62
250
  6
CONTINUOUS
 90
8
 70
0
 10
154.2561625456
 20
101.60779621
 10
154.2552562075
 20
101.5919623474
 10
154.2543766231
 20
101.5706461274
 10
154.2535237923
 20
101.5439663246
 10
154.2526935321
 20
101.512090207
 10
154.2518900256
 20
101.4751836612
 10
154.2511258217
 20
101.4333843234
 10
154.2497149404
 20
101.3358771664
  0
LWPOLYLINE
  5
63C
100
AcDbEntity
  8
RACCORDO
100
AcDbPolyline
 62
250
  6
CONTINUOUS
 90
8
 70
0
 10
154.5561168542
 20
101.3123538841
 10
154.5552157406
 20
101.3012158044
 10
154.5543395707
 20
101.2864057366
 10
154.5534883444
 20
101.2679236809
 10
154.5526572609
 20
101.2456419688
 10
154.551851121
 20
101.2196882688
 10
154.5510843276
 20
101.1904455858
 10
154.5496694142
 20
101.1219086356
  0
LWPOLYLINE
  5
63D
100
AcDbEntity
  8
ASSI
100
AcDbPolyline
 62
250
  6
CONTINUOUS
 90
8
 70
0
 10
154.5561168542
 20
101.3123538841
 10
154.5552157406
 20
101.3012158044
 10
154.5543395707
 20
101.2864057366
 10
154.5534883444
 20
101.2679236809
 10
154.5526572609
 20
101.2456419688
 10
154.551851121
 20
101.2196882688
 10
154.5510843276
 20
101.1904455858
 10
154.5496694142
 20
101.1219086356
  0
LINE
  5
63E
100
AcDbEntity
  8
RACCORDO
100
AcDbLine
 62
250
  6
CONTINUOUS
 10
154.3145258272
 20
102.1973684211
 11
154.2561625456
 21
101.60779621
  0
LINE
  5
63F
100
AcDbEntity
  8
ASSI
100
AcDbLine
 62
250
  6
CONTINUOUS
 10
154.3145258272
 20
102.1973684211
 11
154.2561625456
 21
101.60779621
  0
LINE
  5
640
100
AcDbEntity
  8
RACCORDO
100
AcDbLine
 62
250
  6
CONTINUOUS
 10
154.6136622136
 20
101.8936636365
 11
154.5561168542
 21
101.3123538841
  0
LINE
  5
641
100
AcDbEntity
  8
ASSI
100
AcDbLine
 62
250
  6
CONTINUOUS
 10
154.6136622136
 20
101.8936636365
 11
154.5561168542
 21
101.3123538841
  0
LINE
  5
642
100
AcDbEntity
  8
RACCORDO
100
AcDbLine
 62
7
  6
CONTINUOUS
 10
134.3485723434
 20
61.3973684211
 11
134.4296289949
 21
61.4784250725
  0
LINE
  5
643
100
AcDbEntity
  8
RACCORDO
100
AcDbLine
 62
7
  6
CONTINUOUS
 10
134.3485723434
 20
106.3973684211
 11
134.4296289949
 21
106.3163117696
  0
LINE
  5
644
100
AcDbEntity
  8
RACCORDO
100
AcDbLine
 62
7
  6
CONTINUOUS
 10
134.3485723434
 20
107.1473684211
 11
134.4296289949
 21
107.0663117696
  0
LWPOLYLINE
  5
645
100
AcDbEntity
  8
RACCORDO
100
AcDbPolyline
 62
250
  6
CONTINUOUS
 90
31
 70
0
 10
154.6219469645
 20
106.0308552164
 10
154.6216023216
 20
106.0439403505
 10
154.6205733207
 20
106.0569896338
 10
154.618862779
 20
106.0699672899
 10
154.6164753804
 20
106.0828377489
 10
154.6134176676
 20
106.095565713
 10
154.6096980306
 20
106.1081162536
 10
154.6053266713
 20
106.1204549552
 10
154.600315574
 20
106.1325479969
 10
154.5946784842
 20
106.1443622133
 10
154.5884308614
 20
106.1558652133
 10
154.5815898361
 20
106.1670254639
 10
154.5741741687
 20
106.1778123668
 10
154.5662041834
 20
106.1881963633
 10
154.5577017427
 20
106.1981489733
 10
154.548690197
 20
106.2076428764
 10
154.5391943013
 20
106.2166520165
 10
154.5292400608
 20
106.2251517441
 10
154.5188546829
 20
106.2331188319
 10
154.5080664889
 20
106.2405315297
 10
154.4969051888
 20
106.2473694004
 10
154.4854017495
 20
106.2536135045
 10
154.4735879807
 20
106.2592466679
 10
154.4614960591
 20
106.2642536374
 10
154.4491587812
 20
106.2686208648
 10
154.4366071823
 20
106.2723371231
 10
154.423878369
 20
106.275391189
 10
154.4110153903
 20
106.2777733979
 10
154.3980564435
 20
106.2794782091
 10
154.3850344401
 20
106.2805028127
 10
154.3719850407
 20
106.2808456972
  0
LWPOLYLINE
  5
646
100
AcDbEntity
  8
RACCORDO
100
AcDbPolyline
 62
250
  6
CONTINUOUS
 90
7
 70
0
 10
154.5510853092
 20
66.6042550574
 10
154.5518520454
 20
66.5750221191
 10
154.5526581898
 20
66.5490719316
 10
154.5534891974
 20
66.5267939738
 10
154.5543402198
 20
66.5083180721
 10
154.5552161054
 20
66.4935144002
 10
154.5561168542
 20
66.482382958
  0
LWPOLYLINE
  5
647
100
AcDbEntity
  8
ASSI
100
AcDbPolyline
 62
250
  6
CONTINUOUS
 90
7
 70
0
 10
154.5510853092
 20
66.6042550574
 10
154.5518520454
 20
66.5750221191
 10
154.5526581898
 20
66.5490719316
 10
154.5534891974
 20
66.5267939738
 10
154.5543402198
 20
66.5083180721
 10
154.5552161054
 20
66.4935144002
 10
154.5561168542
 20
66.482382958
  0
LWPOLYLINE
  5
648
100
AcDbEntity
  8
RACCORDO
100
AcDbPolyline
 62
250
  6
CONTINUOUS
 90
6
 70
0
 10
154.251889387
 20
66.3195915603
 10
154.2526934911
 20
66.2826529698
 10
154.2535241484
 20
66.2507602889
 10
154.2543770609
 20
66.2240789284
 10
154.2552565266
 20
66.2027675338
 10
154.2561625456
 20
66.1869406321
  0
LWPOLYLINE
  5
649
100
AcDbEntity
  8
ASSI
100
AcDbPolyline
 62
250
  6
CONTINUOUS
 90
6
 70
0
 10
154.251889387
 20
66.3195915603
 10
154.2526934911
 20
66.2826529698
 10
154.2535241484
 20
66.2507602889
 10
154.2543770609
 20
66.2240789284
 10
154.2552565266
 20
66.2027675338
 10
154.2561625456
 20
66.1869406321
  0
LINE
  5
64A
100
AcDbEntity
  8
RACCORDO
100
AcDbLine
 62
250
  6
CONTINUOUS
 10
154.5496709691
 20
66.6727363283
 11
154.5510853092
 21
66.6042550574
  0
LINE
  5
64B
100
AcDbEntity
  8
ASSI
100
AcDbLine
 62
250
  6
CONTINUOUS
 10
154.5496709691
 20
66.6727363283
 11
154.5510853092
 21
66.6042550574
  0
LINE
  5
64C
100
AcDbEntity
  8
RACCORDO
100
AcDbLine
 62
250
  6
CONTINUOUS
 10
154.2503994745
 20
66.4079802382
 11
154.251889387
 21
66.3195915603
  0
LINE
  5
64D
100
AcDbEntity
  8
ASSI
100
AcDbLine
 62
250
  6
CONTINUOUS
 10
154.2503994745
 20
66.4079802382
 11
154.251889387
 21
66.3195915603
  0
LINE
  5
64E
100
AcDbEntity
  8
RACCORDO
100
AcDbLine
 62
250
  6
CONTINUOUS
 10
154.5484550085
 20
66.7524988336
 11
154.5496709691
 21
66.6727363283
  0
LINE
  5
64F
100
AcDbEntity
  8
ASSI
100
AcDbLine
 62
250
  6
CONTINUOUS
 10
154.5484550085
 20
66.7524988336
 11
154.5496709691
 21
66.6727363283
  0
LINE
  5
650
100
AcDbEntity
  8
RACCORDO
100
AcDbLine
 62
250
  6
CONTINUOUS
 10
154.249080346
 20
66.5140525401
 11
154.2503994745
 21
66.4079802382
  0
LINE
  5
651
100
AcDbEntity
  8
ASSI
100
AcDbLine
 62
250
  6
CONTINUOUS
 10
154.249080346
 20
66.5140525401
 11
154.2503994745
 21
66.4079802382
  0
LINE
  5
652
100
AcDbEntity
  8
RACCORDO
100
AcDbLine
 62
250
  6
CONTINUOUS
 10
154.5474602055
 20
66.8420497654
 11
154.5484550085
 21
66.7524988336
  0
LINE
  5
653
100
AcDbEntity
  8
ASSI
100
AcDbLine
 62
250
  6
CONTINUOUS
 10
154.5474602055
 20
66.8420497654
 11
154.5484550085
 21
66.7524988336
  0
LINE
  5
654
100
AcDbEntity
  8
RACCORDO
100
AcDbLine
 62
250
  6
CONTINUOUS
 10
154.2479736561
 20
66.6351445154
 11
154.249080346
 21
66.5140525401
  0
LINE
  5
655
100
AcDbEntity
  8
ASSI
100
AcDbLine
 62
250
  6
CONTINUOUS
 10
154.2479736561
 20
66.6351445154
 11
154.249080346
 21
66.5140525401
  0
LINE
  5
656
100
AcDbEntity
  8
RACCORDO
100
AcDbLine
 62
250
  6
CONTINUOUS
 10
154.5467174257
 20
66.9387713631
 11
154.5474602055
 21
66.8420497654
  0
LINE
  5
657
100
AcDbEntity
  8
ASSI
100
AcDbLine
 62
250
  6
CONTINUOUS
 10
154.5467174257
 20
66.9387713631
 11
154.5474602055
 21
66.8420497654
  0
LINE
  5
658
100
AcDbEntity
  8
RACCORDO
100
AcDbLine
 62
250
  6
CONTINUOUS
 10
154.2471064004
 20
66.7680751969
 11
154.2479736561
 21
66.6351445154
  0
LINE
  5
659
100
AcDbEntity
  8
ASSI
100
AcDbLine
 62
250
  6
CONTINUOUS
 10
154.2471064004
 20
66.7680751969
 11
154.2479736561
 21
66.6351445154
  0
LINE
  5
65A
100
AcDbEntity
  8
RACCORDO
100
AcDbLine
 62
250
  6
CONTINUOUS
 10
154.5462389806
 20
67.0397562051
 11
154.5467174257
 21
66.9387713631
  0
LINE
  5
65B
100
AcDbEntity
  8
ASSI
100
AcDbLine
 62
250
  6
CONTINUOUS
 10
154.5462389806
 20
67.0397562051
 11
154.5467174257
 21
66.9387713631
  0
LINE
  5
65C
100
AcDbEntity
  8
RACCORDO
100
AcDbLine
 62
250
  6
CONTINUOUS
 10
154.2464925829
 20
66.9097224758
 11
154.2471064004
 21
66.7680751969
  0
LINE
  5
65D
100
AcDbEntity
  8
ASSI
100
AcDbLine
 62
250
  6
CONTINUOUS
 10
154.2464925829
 20
66.9097224758
 11
154.2471064004
 21
66.7680751969
  0
LINE
  5
65E
100
AcDbEntity
  8
RACCORDO
100
AcDbLine
 62
250
  6
CONTINUOUS
 10
154.2461478611
 20
67.0573297757
 11
154.2464925829
 21
66.9097224758
  0
LINE
  5
65F
100
AcDbEntity
  8
ASSI
100
AcDbLine
 62
250
  6
CONTINUOUS
 10
154.2461478611
 20
67.0573297757
 11
154.2464925829
 21
66.9097224758
  0
LINE
  5
660
100
AcDbEntity
  8
RACCORDO
100
AcDbLine
 62
250
  6
CONTINUOUS
 10
154.5460295471
 20
67.1441353332
 11
154.5462389806
 21
67.0397562051
  0
LINE
  5
661
100
AcDbEntity
  8
ASSI
100
AcDbLine
 62
250
  6
CONTINUOUS
 10
154.5460295471
 20
67.1441353332
 11
154.5462389806
 21
67.0397562051
  0
LINE
  5
662
100
AcDbEntity
  8
RACCORDO
100
AcDbLine
 62
250
  6
CONTINUOUS
 10
154.3719850407
 20
61.5138911449
 11
154.3719850407
 21
65.0973684211
  0
LINE
  5
663
100
AcDbEntity
  8
RACCORDO
100
AcDbLine
 62
250
  6
CONTINUOUS
 10
154.3719850407
 20
102.6973684211
 11
154.3719850407
 21
106.2808456972
  0
LINE
  5
664
100
AcDbEntity
  8
RACCORDO
100
AcDbLine
 62
7
  6
CONTINUOUS
 10
154.6136622136
 20
65.5973684211
 11
154.6136622136
 21
65.9010732056
  0
LINE
  5
665
100
AcDbEntity
  8
ASSI
100
AcDbLine
 62
7
  6
CONTINUOUS
 10
154.6136622136
 20
65.5973684211
 11
154.6136622136
 21
65.9010732056
  0
LINE
  5
666
100
AcDbEntity
  8
RACCORDO
100
AcDbLine
 62
7
  6
CONTINUOUS
 10
154.6136622136
 20
101.8936636365
 11
154.6136622136
 21
102.1973684211
  0
LINE
  5
667
100
AcDbEntity
  8
ASSI
100
AcDbLine
 62
7
  6
CONTINUOUS
 10
154.6136622136
 20
101.8936636365
 11
154.6136622136
 21
102.1973684211
  0
LINE
  5
668
100
AcDbEntity
  8
RACCORDO
100
AcDbLine
 62
250
  6
CONTINUOUS
 10
154.6219469645
 20
106.0308552164
 11
154.6219469645
 21
102.6973684211
  0
LINE
  5
669
100
AcDbEntity
  8
RACCORDO
100
AcDbLine
 62
250
  6
CONTINUOUS
 10
154.6219469645
 20
65.0973684211
 11
154.6219469645
 21
61.7638816257
  0
LINE
  5
66A
100
AcDbEntity
  8
RACCORDO
100
AcDbLine
 62
7
  6
CONTINUOUS
 10
154.6485723434
 20
102.1973684211
 11
154.6485723434
 21
65.5973684211
  0
LINE
  5
66B
100
AcDbEntity
  8
ASSI
100
AcDbLine
 62
7
  6
CONTINUOUS
 10
154.6485723434
 20
102.1973684211
 11
154.6485723434
 21
65.5973684211
  0
LINE
  5
66C
100
AcDbEntity
  8
RACCORDO
100
AcDbLine
 62
250
  6
CONTINUOUS
 10
154.7129009826
 20
61.71840808
 11
154.7129009826
 21
60.1651741865
  0
LINE
  5
66D
100
AcDbEntity
  8
RACCORDO
100
AcDbLine
 62
250
  6
CONTINUOUS
 10
154.7129009826
 20
106.0763287621
 11
154.7129009826
 21
107.6295626556
  0
LINE
  5
66E
100
AcDbEntity
  8
DRAFT
100
AcDbLine
 62
7
  6
CONTINUOUS
 10
154.722389746
 20
102.6973684211
 11
154.722389746
 21
65.0973684211
  0
LINE
  5
66F
100
AcDbEntity
  8
RACCORDO
100
AcDbLine
 62
7
  6
CONTINUOUS
 10
154.7485723434
 20
107.6473969777
 11
154.7485723434
 21
60.1473398644
  0
LWPOLYLINE
  5
670
100
AcDbEntity
  8
RACCORDO
100
AcDbPolyline
 62
250
  6
CONTINUOUS
 90
9
 70
0
 10
154.2437957667
 20
96.9382019469
 10
154.2420861628
 20
93.2129656524
 10
154.2409464268
 20
89.487013198
 10
154.2403765589
 20
85.7606310799
 10
154.240376559
 20
82.0341057598
 10
154.240946427
 20
78.3077236421
 10
154.2420861629
 20
74.5817711881
 10
154.2437957668
 20
70.8565348942
 10
154.2461478611
 20
67.0573297757
  0
LWPOLYLINE
  5
671
100
AcDbEntity
  8
ASSI
100
AcDbPolyline
 62
250
  6
CONTINUOUS
 90
9
 70
0
 10
154.2437957667
 20
96.9382019469
 10
154.2420861628
 20
93.2129656524
 10
154.2409464268
 20
89.487013198
 10
154.2403765589
 20
85.7606310799
 10
154.240376559
 20
82.0341057598
 10
154.240946427
 20
78.3077236421
 10
154.2420861629
 20
74.5817711881
 10
154.2437957668
 20
70.8565348942
 10
154.2461478611
 20
67.0573297757
  0
LWPOLYLINE
  5
672
100
AcDbEntity
  8
RACCORDO
100
AcDbPolyline
 62
250
  6
CONTINUOUS
 90
9
 70
0
 10
154.5437500772
 20
96.9285292707
 10
154.5420404745
 20
93.2060234292
 10
154.5409007392
 20
89.4830839844
 10
154.5403308708
 20
85.7594222814
 10
154.5403308697
 20
82.0353269751
 10
154.5409007367
 20
78.3116640307
 10
154.5420404721
 20
74.588722103
 10
154.5437500756
 20
70.8662125372
 10
154.5460295471
 20
67.1441353332
  0
LWPOLYLINE
  5
673
100
AcDbEntity
  8
ASSI
100
AcDbPolyline
 62
250
  6
CONTINUOUS
 90
9
 70
0
 10
154.5437500772
 20
96.9285292707
 10
154.5420404745
 20
93.2060234292
 10
154.5409007392
 20
89.4830839844
 10
154.5403308708
 20
85.7594222814
 10
154.5403308697
 20
82.0353269751
 10
154.5409007367
 20
78.3116640307
 10
154.5420404721
 20
74.588722103
 10
154.5437500756
 20
70.8662125372
 10
154.5460295471
 20
67.1441353332
  0
LINE
  5
674
100
AcDbEntity
  8
RACCORDO
100
AcDbLine
 62
250
  6
CONTINUOUS
 10
154.2462868448
 20
100.811703906
 11
154.2437957667
 21
96.9382019469
  0
LINE
  5
675
100
AcDbEntity
  8
ASSI
100
AcDbLine
 62
250
  6
CONTINUOUS
 10
154.2462868448
 20
100.811703906
 11
154.2437957667
 21
96.9382019469
  0
LINE
  5
676
100
AcDbEntity
  8
RACCORDO
100
AcDbLine
 62
250
  6
CONTINUOUS
 10
154.5462388428
 20
100.7549420556
 11
154.5437500772
 21
96.9285292707
  0
LINE
  5
677
100
AcDbEntity
  8
ASSI
100
AcDbLine
 62
250
  6
CONTINUOUS
 10
154.5462388428
 20
100.7549420556
 11
154.5437500772
 21
96.9285292707
  0
LINE
  5
678
100
AcDbEntity
  8
RACCORDO
100
AcDbLine
 62
250
  6
CONTINUOUS
 10
154.2467664192
 20
100.9567902658
 11
154.2462868448
 21
100.811703906
  0
LINE
  5
679
100
AcDbEntity
  8
ASSI
100
AcDbLine
 62
250
  6
CONTINUOUS
 10
154.2467664192
 20
100.9567902658
 11
154.2462868448
 21
100.811703906
  0
LINE
  5
67A
100
AcDbEntity
  8
RACCORDO
100
AcDbLine
 62
250
  6
CONTINUOUS
 10
154.5467171542
 20
100.8559096797
 11
154.5462388428
 21
100.7549420556
  0
LINE
  5
67B
100
AcDbEntity
  8
ASSI
100
AcDbLine
 62
250
  6
CONTINUOUS
 10
154.5467171542
 20
100.8559096797
 11
154.5462388428
 21
100.7549420556
  0
LINE
  5
67C
100
AcDbEntity
  8
RACCORDO
100
AcDbLine
 62
250
  6
CONTINUOUS
 10
154.2475091322
 20
101.0944840888
 11
154.2467664192
 21
100.9567902658
  0
LINE
  5
67D
100
AcDbEntity
  8
ASSI
100
AcDbLine
 62
250
  6
CONTINUOUS
 10
154.2475091322
 20
101.0944840888
 11
154.2467664192
 21
100.9567902658
  0
LINE
  5
67E
100
AcDbEntity
  8
RACCORDO
100
AcDbLine
 62
250
  6
CONTINUOUS
 10
154.2485018913
 20
101.221984753
 11
154.2475091322
 21
101.0944840888
  0
LINE
  5
67F
100
AcDbEntity
  8
ASSI
100
AcDbLine
 62
250
  6
CONTINUOUS
 10
154.2485018913
 20
101.221984753
 11
154.2475091322
 21
101.0944840888
  0
LINE
  5
680
100
AcDbEntity
  8
RACCORDO
100
AcDbLine
 62
250
  6
CONTINUOUS
 10
154.5474597117
 20
100.9526264837
 11
154.5467171542
 21
100.8559096797
  0
LINE
  5
681
100
AcDbEntity
  8
ASSI
100
AcDbLine
 62
250
  6
CONTINUOUS
 10
154.5474597117
 20
100.9526264837
 11
154.5467171542
 21
100.8559096797
  0
LINE
  5
682
100
AcDbEntity
  8
RACCORDO
100
AcDbLine
 62
250
  6
CONTINUOUS
 10
154.2497149404
 20
101.3358771664
 11
154.2485018913
 21
101.221984753
  0
LINE
  5
683
100
AcDbEntity
  8
ASSI
100
AcDbLine
 62
250
  6
CONTINUOUS
 10
154.2497149404
 20
101.3358771664
 11
154.2485018913
 21
101.221984753
  0
LINE
  5
684
100
AcDbEntity
  8
RACCORDO
100
AcDbLine
 62
250
  6
CONTINUOUS
 10
154.5484536288
 20
101.0421373694
 11
154.5474597117
 21
100.9526264837
  0
LINE
  5
685
100
AcDbEntity
  8
ASSI
100
AcDbLine
 62
250
  6
CONTINUOUS
 10
154.5484536288
 20
101.0421373694
 11
154.5474597117
 21
100.9526264837
  0
LINE
  5
686
100
AcDbEntity
  8
RACCORDO
100
AcDbLine
 62
250
  6
CONTINUOUS
 10
154.5496694142
 20
101.1219086356
 11
154.5484536288
 21
101.0421373694
  0
LINE
  5
687
100
AcDbEntity
  8
ASSI
100
AcDbLine
 62
250
  6
CONTINUOUS
 10
154.5496694142
 20
101.1219086356
 11
154.5484536288
 21
101.0421373694
  0
LWPOLYLINE
  5
688
100
AcDbEntity
  8
RACCORDO
100
AcDbPolyline
 62
250
  6
CONTINUOUS
 90
31
 70
0
 10
154.6219469645
 20
61.7638816257
 10
154.6216023216
 20
61.7507964916
 10
154.6205733207
 20
61.7377472083
 10
154.618862779
 20
61.7247695522
 10
154.6164753804
 20
61.7118990932
 10
154.6134176676
 20
61.6991711291
 10
154.6096980306
 20
61.6866205886
 10
154.6053266713
 20
61.6742818869
 10
154.600315574
 20
61.6621888452
 10
154.5946784842
 20
61.6503746288
 10
154.5884308614
 20
61.6388716288
 10
154.5815898361
 20
61.6277113782
 10
154.5741741687
 20
61.6169244753
 10
154.5662041834
 20
61.6065404789
 10
154.5577017427
 20
61.5965878688
 10
154.548690197
 20
61.5870939657
 10
154.5391943013
 20
61.5780848256
 10
154.5292400608
 20
61.569585098
 10
154.5188546829
 20
61.5616180102
 10
154.5080664889
 20
61.5542053124
 10
154.4969051888
 20
61.5473674417
 10
154.4854017495
 20
61.5411233376
 10
154.4735879807
 20
61.5354901742
 10
154.4614960591
 20
61.5304832047
 10
154.4491587812
 20
61.5261159773
 10
154.4366071823
 20
61.522399719
 10
154.423878369
 20
61.5193456531
 10
154.4110153903
 20
61.5169634442
 10
154.3980564435
 20
61.515258633
 10
154.3850344401
 20
61.5142340294
 10
154.3719850407
 20
61.5138911449
  0
LINE
  5
689
100
AcDbEntity
  8
RACCORDO
100
AcDbLine
 62
7
  6
CONTINUOUS
 10
138.3770685924
 20
61.3990985635
 11
138.4477714526
 21
61.4698014237
  0
LINE
  5
68A
100
AcDbEntity
  8
RACCORDO
100
AcDbLine
 62
7
  6
CONTINUOUS
 10
138.3770685924
 20
106.3956382786
 11
138.4477714526
 21
106.3249354184
  0
LWPOLYLINE
  5
68B
100
AcDbEntity
  8
RACCORDO
100
AcDbPolyline
 62
250
  6
CONTINUOUS
 90
13
 70
0
 10
154.5561168542
 20
101.3123538841
 10
154.5534423638
 20
101.3508415234
 10
154.5457012369
 20
101.3886735045
 10
154.5330252923
 20
101.4252050222
 10
154.5156304597
 20
101.4598134144
 10
154.4938131091
 20
101.4919087656
 10
154.4679450081
 20
101.5209439662
 10
154.4384669506
 20
101.5464240758
 10
154.4058813251
 20
101.5679146848
 10
154.3707435909
 20
101.5850493524
 10
154.3336526778
 20
101.5975359458
 10
154.2952407525
 20
101.6051615817
 10
154.2561625457
 20
101.6077962107
  0
LWPOLYLINE
  5
68C
100
AcDbEntity
  8
ASSI
100
AcDbPolyline
 62
250
  6
CONTINUOUS
 90
13
 70
0
 10
154.5561168542
 20
101.3123538841
 10
154.5534423638
 20
101.3508415234
 10
154.5457012369
 20
101.3886735045
 10
154.5330252923
 20
101.4252050222
 10
154.5156304597
 20
101.4598134144
 10
154.4938131091
 20
101.4919087656
 10
154.4679450081
 20
101.5209439662
 10
154.4384669506
 20
101.5464240758
 10
154.4058813251
 20
101.5679146848
 10
154.3707435909
 20
101.5850493524
 10
154.3336526778
 20
101.5975359458
 10
154.2952407525
 20
101.6051615817
 10
154.2561625457
 20
101.6077962107
  0
LWPOLYLINE
  5
68D
100
AcDbEntity
  8
RACCORDO
100
AcDbPolyline
 62
7
  6
CONTINUOUS
 90
28
 70
0
 10
154.7129009826
 20
106.0763287621
 10
154.7121453918
 20
106.0888031704
 10
154.7107451913
 20
106.1012335385
 10
154.7086955783
 20
106.1136198665
 10
154.7059925637
 20
106.1259894421
 10
154.7026319995
 20
106.1383149775
 10
154.6986087714
 20
106.1505146098
 10
154.6939195288
 20
106.1625903107
 10
154.6885607174
 20
106.1745401085
 10
154.6825257077
 20
106.1862762249
 10
154.6758117054
 20
106.1978020968
 10
154.6684152537
 20
106.2091142874
 10
154.6603265984
 20
106.2201147076
 10
154.6515427873
 20
106.2308096804
 10
154.6420603789
 20
106.2411928828
 10
154.6318659616
 20
106.2511472571
 10
154.6209561815
 20
106.2606833307
 10
154.6093276127
 20
106.2697905764
 10
154.5969634238
 20
106.2783203546
 10
154.5838595256
 20
106.2862899576
 10
154.5700130902
 20
106.2936820932
 10
154.5554060321
 20
106.3002962458
 10
154.5400300066
 20
106.3061613828
 10
154.5238871144
 20
106.3112485369
 10
154.5069740619
 20
106.3152702897
 10
154.4892895932
 20
106.3181308354
 10
154.4708347642
 20
106.3199259799
 10
154.4516111571
 20
106.3206557233
  0
LWPOLYLINE
  5
68E
100
AcDbEntity
  8
RACCORDO
100
AcDbPolyline
 62
250
  6
CONTINUOUS
 90
13
 70
0
 10
154.5561168542
 20
66.482382958
 10
154.553442156
 20
66.4438937961
 10
154.5457005017
 20
66.4060606593
 10
154.5330238432
 20
66.3695283912
 10
154.5156282467
 20
66.3349196628
 10
154.49381021
 20
66.3028243595
 10
154.4679416085
 20
66.2737895268
 10
154.4384633574
 20
66.2483100464
 10
154.4058778959
 20
66.2268202011
 10
154.3707406243
 20
66.2096862728
 10
154.3336504366
 20
66.1972002993
 10
154.2952395131
 20
66.1895750967
 10
154.2561625456
 20
66.1869406321
  0
LWPOLYLINE
  5
68F
100
AcDbEntity
  8
ASSI
100
AcDbPolyline
 62
250
  6
CONTINUOUS
 90
13
 70
0
 10
154.5561168542
 20
66.482382958
 10
154.553442156
 20
66.4438937961
 10
154.5457005017
 20
66.4060606593
 10
154.5330238432
 20
66.3695283912
 10
154.5156282467
 20
66.3349196628
 10
154.49381021
 20
66.3028243595
 10
154.4679416085
 20
66.2737895268
 10
154.4384633574
 20
66.2483100464
 10
154.4058778959
 20
66.2268202011
 10
154.3707406243
 20
66.2096862728
 10
154.3336504366
 20
66.1972002993
 10
154.2952395131
 20
66.1895750967
 10
154.2561625456
 20
66.1869406321
  0
LWPOLYLINE
  5
690
100
AcDbEntity
  8
0
100
AcDbPolyline
 62
7
  6
CONTINUOUS
 90
13
 70
0
 43
0.3500000006
 10
160.2842871094
 20
84.3259431152
 10
160.0700026245
 20
84.0402274475
 10
159.4271491699
 20
84.0402274475
 10
158.9985802002
 20
84.3259431152
 10
158.9985802002
 20
84.9687965698
 10
159.4271491699
 20
85.2545122375
 10
160.0700026245
 20
85.2545122375
 10
160.2842871094
 20
84.9687965698
 10
160.7128560791
 20
85.3973655396
 10
161.5699940186
 20
85.3973655396
 10
161.9985811157
 20
84.9687965698
 10
161.9985811157
 20
84.3259431152
 10
161.5699940186
 20
83.8973650818
  0
LINE
  5
691
100
AcDbEntity
  8
RACCORDO
100
AcDbLine
 62
250
  6
CONTINUOUS
 10
129.9842437042
 20
61.71840808
 11
130.0751977224
 21
61.7638816257
  0
LINE
  5
692
100
AcDbEntity
  8
RACCORDO
100
AcDbLine
 62
250
  6
CONTINUOUS
 10
130.2455335297
 20
61.4740811188
 11
130.3251596462
 21
61.5138911449
  0
LINE
  5
693
100
AcDbEntity
  8
RACCORDO
100
AcDbLine
 62
250
  6
CONTINUOUS
 10
130.0751977224
 20
106.0308552164
 11
129.9842437042
 21
106.0763287621
  0
LINE
  5
694
100
AcDbEntity
  8
RACCORDO
100
AcDbLine
 62
250
  6
CONTINUOUS
 10
130.2455335297
 20
106.3206557233
 11
130.3251596462
 21
106.2808456972
  0
LINE
  5
695
100
AcDbEntity
  8
RACCORDO
100
AcDbLine
 62
250
  6
CONTINUOUS
 10
129.9842437042
 20
60.1651741865
 11
129.9485723434
 21
60.1473398644
  0
LINE
  5
696
100
AcDbEntity
  8
RACCORDO
100
AcDbLine
 62
250
  6
CONTINUOUS
 10
130.234205628
 20
59.9151837057
 11
130.1985723449
 21
59.8973684211
  0
LINE
  5
697
100
AcDbEntity
  8
RACCORDO
100
AcDbLine
 62
250
  6
CONTINUOUS
 10
130.4510694483
 20
100.6624356741
 11
154.2460752386
 21
100.6624356741
  0
LINE
  5
698
100
AcDbEntity
  8
ASSI
100
AcDbLine
 62
250
  6
CONTINUOUS
 10
130.4510694483
 20
100.6624356741
 11
154.2460752386
 21
100.6624356741
  0
LINE
  5
699
100
AcDbEntity
  8
RACCORDO
100
AcDbLine
 62
250
  6
CONTINUOUS
 10
129.9485723434
 20
107.6473969777
 11
129.9842437042
 21
107.6295626556
  0
LINE
  5
69A
100
AcDbEntity
  8
RACCORDO
100
AcDbLine
 62
250
  6
CONTINUOUS
 10
130.1985723449
 20
107.8973684211
 11
130.234205628
 21
107.8795531364
  0
LWPOLYLINE
  5
69B
100
AcDbEntity
  8
0
100
AcDbPolyline
 62
7
  6
CONTINUOUS
 90
10
 70
0
 43
0.3500000006
 10
143.3128598328
 20
118.1569694824
 10
143.3842910156
 20
118.0141071167
 10
143.3842910156
 20
117.9426849976
 10
143.2414286499
 20
117.7998226318
 10
143.169997467
 20
117.7998226318
 10
143.0985753479
 20
117.8712538147
 10
143.0985753479
 20
117.9426849976
 10
143.169997467
 20
118.0855382996
 10
143.2414286499
 20
118.1569694824
 10
143.3128598328
 20
118.1569694824
  0
LWPOLYLINE
  5
69C
100
AcDbEntity
  8
RACCORDO
100
AcDbPolyline
 62
7
  6
CONTINUOUS
 90
13
 70
0
 10
138.5750218661
 20
61.4698014237
 10
138.5717632976
 20
61.467917547
 10
138.5648662659
 20
61.4644872881
 10
138.5572500737
 20
61.4612055204
 10
138.5489238169
 20
61.4580703659
 10
138.5399936997
 20
61.4551218144
 10
138.5304519867
 20
61.4523622564
 10
138.5203064134
 20
61.4497893015
 10
138.50968639
 20
61.4474357687
 10
138.498585839
 20
61.4453044687
 10
138.4870108379
 20
61.4433925908
 10
138.4751090299
 20
61.4417245216
 10
138.4628762287
 20
61.4403033842
  0
LINE
  5
69D
100
AcDbEntity
  8
RACCORDO
100
AcDbLine
 62
250
  6
CONTINUOUS
 10
130.4409821412
 20
101.60779621
 11
154.2561625456
 21
101.60779621
  0
LINE
  5
69E
100
AcDbEntity
  8
ASSI
100
AcDbLine
 62
250
  6
CONTINUOUS
 10
130.4409821412
 20
101.60779621
 11
154.2561625456
 21
101.60779621
  0
LINE
  5
69F
100
AcDbEntity
  8
RACCORDO
100
AcDbLine
 62
250
  6
CONTINUOUS
 10
154.6485723434
 20
102.1973684211
 11
154.6136622136
 21
102.1973684211
  0
LINE
  5
6A0
100
AcDbEntity
  8
ASSI
100
AcDbLine
 62
250
  6
CONTINUOUS
 10
154.6485723434
 20
102.1973684211
 11
154.6136622136
 21
102.1973684211
  0
LINE
  5
6A1
100
AcDbEntity
  8
RACCORDO
100
AcDbLine
 62
7
  6
CONTINUOUS
 10
154.3145258272
 20
102.1973684211
 11
130.3826188596
 21
102.1973684211
  0
LINE
  5
6A2
100
AcDbEntity
  8
ASSI
100
AcDbLine
 62
7
  6
CONTINUOUS
 10
154.3145258272
 20
102.1973684211
 11
130.3826188596
 21
102.1973684211
  0
LINE
  5
6A3
100
AcDbEntity
  8
RACCORDO
100
AcDbLine
 62
250
  6
CONTINUOUS
 10
130.0834824733
 20
102.1973684211
 11
130.0485723434
 21
102.1973684211
  0
LINE
  5
6A4
100
AcDbEntity
  8
ASSI
100
AcDbLine
 62
250
  6
CONTINUOUS
 10
130.0834824733
 20
102.1973684211
 11
130.0485723434
 21
102.1973684211
  0
LINE
  5
6A5
100
AcDbEntity
  8
RACCORDO
100
AcDbLine
 62
7
  6
CONTINUOUS
 10
154.3136165152
 20
102.4973684211
 11
130.3835281717
 21
102.4973684211
  0
LINE
  5
6A6
100
AcDbEntity
  8
ASSI
100
AcDbLine
 62
7
  6
CONTINUOUS
 10
154.3136165152
 20
102.4973684211
 11
130.3835281717
 21
102.4973684211
  0
LINE
  5
6A7
100
AcDbEntity
  8
RACCORDO
100
AcDbLine
 62
7
  6
CONTINUOUS
 10
129.9747549408
 20
102.6973684211
 11
154.722389746
 21
102.6973684211
  0
LWPOLYLINE
  5
6A8
100
AcDbEntity
  8
0
100
AcDbPolyline
 62
7
  6
CONTINUOUS
 90
3
 70
0
 43
0.3500000006
 10
161.3557095337
 20
83.0402271423
 10
161.3557095337
 20
81.5402266846
 10
158.9985802002
 20
82.1830801392
  0
LINE
  5
6A9
100
AcDbEntity
  8
RACCORDO
100
AcDbLine
 62
7
  6
CONTINUOUS
 10
148.5503024859
 20
61.3990985635
 11
148.6296289949
 21
61.4784250725
  0
LWPOLYLINE
  5
6AA
100
AcDbEntity
  8
RACCORDO
100
AcDbPolyline
 62
250
  6
CONTINUOUS
 90
13
 70
0
 10
154.5460295468
 20
67.1441353332
 10
154.542843064
 20
67.1426075534
 10
154.534691059
 20
67.1411053457
 10
154.5217099312
 20
67.139653845
 10
154.5041168812
 20
67.1382773378
 10
154.4822062763
 20
67.1369988561
 10
154.4563447252
 20
67.1358397912
 10
154.4269649441
 20
67.1348195369
 10
154.3945585162
 20
67.1339551639
 10
154.3596676665
 20
67.1332611347
 10
154.3228761895
 20
67.1327490617
 10
154.2847996812
 20
67.132427513
 10
154.2460752386
 20
67.1323018687
  0
LWPOLYLINE
  5
6AB
100
AcDbEntity
  8
ASSI
100
AcDbPolyline
 62
250
  6
CONTINUOUS
 90
13
 70
0
 10
154.5460295468
 20
67.1441353332
 10
154.542843064
 20
67.1426075534
 10
154.534691059
 20
67.1411053457
 10
154.5217099312
 20
67.139653845
 10
154.5041168812
 20
67.1382773378
 10
154.4822062763
 20
67.1369988561
 10
154.4563447252
 20
67.1358397912
 10
154.4269649441
 20
67.1348195369
 10
154.3945585162
 20
67.1339551639
 10
154.3596676665
 20
67.1332611347
 10
154.3228761895
 20
67.1327490617
 10
154.2847996812
 20
67.132427513
 10
154.2460752386
 20
67.1323018687
  0
LWPOLYLINE
  5
6AC
100
AcDbEntity
  8
RACCORDO
100
AcDbPolyline
 62
250
  6
CONTINUOUS
 90
9
 70
0
 10
130.234205628
 20
107.8795531364
 10
130.2352929647
 20
107.8793007273
 10
130.2375222357
 20
107.8790496427
 10
130.2408934412
 20
107.8787998824
 10
130.2454155451
 20
107.8785510378
 10
130.2510795835
 20
107.8783035177
 10
130.2578586642
 20
107.8780585476
 10
130.2657582496
 20
107.8778161512
 10
130.2848592681
 20
107.8773401639
  0
LWPOLYLINE
  5
6AD
100
AcDbEntity
  8
RACCORDO
100
AcDbPolyline
 62
250
  6
CONTINUOUS
 90
13
 70
0
 10
154.5460295471
 20
100.650601509
 10
154.5428446536
 20
100.6521293566
 10
154.5346939231
 20
100.6536316387
 10
154.5217137415
 20
100.6550832177
 10
154.5041213061
 20
100.6564598043
 10
154.4822109906
 20
100.6577383641
 10
154.45634942
 20
100.6588975031
 10
154.4269693355
 20
100.6599178252
 10
154.3945623533
 20
100.6607822576
 10
154.3596707391
 20
100.6614763359
 10
154.3228783334
 20
100.6619884461
 10
154.2848007829
 20
100.662310019
 10
154.2460752386
 20
100.6624356739
  0
LWPOLYLINE
  5
6AE
100
AcDbEntity
  8
ASSI
100
AcDbPolyline
 62
250
  6
CONTINUOUS
 90
13
 70
0
 10
154.5460295471
 20
100.650601509
 10
154.5428446536
 20
100.6521293566
 10
154.5346939231
 20
100.6536316387
 10
154.5217137415
 20
100.6550832177
 10
154.5041213061
 20
100.6564598043
 10
154.4822109906
 20
100.6577383641
 10
154.45634942
 20
100.6588975031
 10
154.4269693355
 20
100.6599178252
 10
154.3945623533
 20
100.6607822576
 10
154.3596707391
 20
100.6614763359
 10
154.3228783334
 20
100.6619884461
 10
154.2848007829
 20
100.662310019
 10
154.2460752386
 20
100.6624356739
  0
LINE
  5
6AF
100
AcDbEntity
  8
RACCORDO
100
AcDbLine
 62
7
  6
CONTINUOUS
 10
148.5503024859
 20
106.3956382786
 11
148.6296289949
 21
106.3163117696
  0
LWPOLYLINE
  5
6B0
100
AcDbEntity
  8
RACCORDO
100
AcDbPolyline
 62
7
  6
CONTINUOUS
 90
5
 70
0
 10
146.2342684581
 20
106.3544334579
 10
146.2468280662
 20
106.3556107865
 10
146.259554279
 20
106.3565292892
 10
146.2723936958
 20
106.3571839601
 10
146.2819114539
 20
106.357473638
  0
LINE
  5
6B1
100
AcDbEntity
  8
RACCORDO
100
AcDbLine
 62
250
  6
CONTINUOUS
 10
130.0751977224
 20
106.0308552164
 11
154.6219469645
 21
106.0308552164
  0
LINE
  5
6B2
100
AcDbEntity
  8
RACCORDO
100
AcDbLine
 62
250
  6
CONTINUOUS
 10
154.3719850407
 20
106.2808456972
 11
130.3251596462
 21
106.2808456972
  0
LINE
  5
6B3
100
AcDbEntity
  8
DRAFT
100
AcDbLine
 62
7
  6
CONTINUOUS
 10
138.4477714526
 20
106.3249354184
 11
146.2493732343
 21
106.3249354184
  0
LINE
  5
6B4
100
AcDbEntity
  8
RACCORDO
100
AcDbLine
 62
250
  6
CONTINUOUS
 10
136.1468422009
 20
106.3956382786
 11
136.3485723434
 21
106.3956382786
  0
LINE
  5
6B5
100
AcDbEntity
  8
RACCORDO
100
AcDbLine
 62
250
  6
CONTINUOUS
 10
148.3485723434
 20
106.3956382786
 11
148.5503024859
 21
106.3956382786
  0
LINE
  5
6B6
100
AcDbEntity
  8
DRAFT
100
AcDbLine
 62
7
  6
CONTINUOUS
 10
132.0018062369
 20
106.3973684211
 11
134.3485723434
 21
106.3973684211
  0
LINE
  5
6B7
100
AcDbEntity
  8
DRAFT
100
AcDbLine
 62
7
  6
CONTINUOUS
 10
150.3485723434
 20
106.3973684211
 11
152.6953384499
 21
106.3973684211
  0
LWPOLYLINE
  5
6B8
100
AcDbEntity
  8
RACCORDO
100
AcDbPolyline
 62
7
  6
CONTINUOUS
 90
4
 70
0
 10
138.4152332329
 20
106.357473638
 10
138.4247509911
 20
106.3571839601
 10
138.4375904078
 20
106.3565292892
 10
138.4503166206
 20
106.3556107865
  0
LWPOLYLINE
  5
6B9
100
AcDbEntity
  8
RACCORDO
100
AcDbPolyline
 62
7
  6
CONTINUOUS
 90
14
 70
0
 10
138.4503166206
 20
106.3556107865
 10
138.4628762287
 20
106.3544334579
 10
138.4751090299
 20
106.3530123205
 10
138.4870108379
 20
106.3513442513
 10
138.498585839
 20
106.3494323734
 10
138.50968639
 20
106.3473010734
 10
138.5203064134
 20
106.3449475406
 10
138.5304519867
 20
106.3423745857
 10
138.5399936997
 20
106.3396150277
 10
138.5489238169
 20
106.3366664763
 10
138.5572500737
 20
106.3335313217
 10
138.5648662659
 20
106.330249554
 10
138.5717632976
 20
106.3268192951
 10
138.5750218661
 20
106.3249354184
  0
LWPOLYLINE
  5
6BA
100
AcDbEntity
  8
RACCORDO
100
AcDbPolyline
 62
250
  6
CONTINUOUS
 90
7
 70
0
 10
129.9842437042
 20
107.6295626556
 10
129.9856984576
 20
107.6293100151
 10
129.9887034452
 20
107.6290587622
 10
129.99325369
 20
107.628808897
 10
129.9993415957
 20
107.6285600322
 10
130.0069573567
 20
107.628312555
 10
130.0267234708
 20
107.6278252488
  0
LINE
  5
6BB
100
AcDbEntity
  8
RACCORDO
100
AcDbLine
 62
7
  6
CONTINUOUS
 10
148.5485723434
 20
107.1473684211
 11
148.6296289949
 21
107.0663117696
  0
LINE
  5
6BC
100
AcDbEntity
  8
DRAFT
100
AcDbLine
 62
7
  6
CONTINUOUS
 10
152.6953384499
 20
61.3973684211
 11
152.7485723434
 21
61.4506023146
  0
LINE
  5
6BD
100
AcDbEntity
  8
RACCORDO
100
AcDbLine
 62
7
  6
CONTINUOUS
 10
152.7485723434
 20
61.4506023146
 11
152.7663325433
 21
61.4683625145
  0
LINE
  5
6BE
100
AcDbEntity
  8
RACCORDO
100
AcDbLine
 62
250
  6
CONTINUOUS
 10
152.7663325433
 20
60.1651191017
 11
152.7485723434
 21
60.1473589018
  0
LWPOLYLINE
  5
6BF
100
AcDbEntity
  8
RACCORDO
100
AcDbPolyline
 62
7
  6
CONTINUOUS
 90
28
 70
0
 10
130.2455335297
 20
106.3206557233
 10
130.2263099227
 20
106.3199259799
 10
130.2078550937
 20
106.3181308354
 10
130.190170625
 20
106.3152702897
 10
130.1732575724
 20
106.3112485369
 10
130.1571146803
 20
106.3061613828
 10
130.1417386547
 20
106.3002962458
 10
130.1271315967
 20
106.2936820932
 10
130.1132851612
 20
106.2862899576
 10
130.100181263
 20
106.2783203546
 10
130.0878170741
 20
106.2697905764
 10
130.0761885054
 20
106.2606833307
 10
130.0652787252
 20
106.2511472571
 10
130.055084308
 20
106.2411928828
 10
130.0456018996
 20
106.2308096804
 10
130.0368180885
 20
106.2201147076
 10
130.0287294332
 20
106.2091142874
 10
130.0213329815
 20
106.1978020968
 10
130.0146189791
 20
106.1862762249
 10
130.0085839695
 20
106.1745401085
 10
130.003225158
 20
106.1625903107
 10
129.9985359154
 20
106.1505146098
 10
129.9945126874
 20
106.1383149775
 10
129.9911521231
 20
106.1259894421
 10
129.9884491085
 20
106.1136198665
 10
129.9863994955
 20
106.1012335385
 10
129.984999295
 20
106.0888031704
 10
129.9842437042
 20
106.0763287621
  0
LWPOLYLINE
  5
6C0
100
AcDbEntity
  8
RACCORDO
100
AcDbPolyline
 62
250
  6
CONTINUOUS
 90
7
 70
0
 10
131.6586682683
 20
107.878112036
 10
131.6652014427
 20
107.8783575184
 10
131.6706170947
 20
107.8786054659
 10
131.6748895139
 20
107.8788546343
 10
131.6780101298
 20
107.879104609
 10
131.6799875128
 20
107.8793558046
 10
131.6808216628
 20
107.8796082212
  0
LWPOLYLINE
  5
6C1
100
AcDbEntity
  8
RACCORDO
100
AcDbPolyline
 62
250
  6
CONTINUOUS
 90
7
 70
0
 10
154.4392903822
 20
107.8780586953
 10
154.4460687798
 20
107.8783036709
 10
154.4517321631
 20
107.8785511965
 10
154.456253578
 20
107.87880003
 10
154.4596240399
 20
107.8790497575
 10
154.4618525335
 20
107.8793007929
 10
154.4629390588
 20
107.8795531364
  0
LWPOLYLINE
  5
6C2
100
AcDbEntity
  8
RACCORDO
100
AcDbPolyline
 62
250
  6
CONTINUOUS
 90
6
 70
0
 10
131.9097814456
 20
107.6283664083
 10
131.9170642639
 20
107.6286143093
 10
131.9228168518
 20
107.6288635095
 10
131.9270299426
 20
107.6291136205
 10
131.929696513
 20
107.6293650308
 10
131.9308121435
 20
107.6296177404
  0
LWPOLYLINE
  5
6C3
100
AcDbEntity
  8
RACCORDO
100
AcDbPolyline
 62
250
  6
CONTINUOUS
 90
6
 70
0
 10
154.6901875163
 20
107.6283125619
 10
154.6978032712
 20
107.6285600408
 10
154.7038911381
 20
107.6288089059
 10
154.7084413228
 20
107.6290587695
 10
154.7114462574
 20
107.6293100194
 10
154.7129009826
 20
107.6295626556
  0
LWPOLYLINE
  5
6C4
100
AcDbEntity
  8
RACCORDO
100
AcDbPolyline
 62
250
  6
CONTINUOUS
 90
28
 70
0
 10
153.0163230241
 20
107.8796082212
 10
153.0017880841
 20
107.8791842115
 10
152.9873023201
 20
107.8779158309
 10
152.9729147423
 20
107.8758073704
 10
152.9586740292
 20
107.8728659636
 10
152.9446283621
 20
107.8691015621
 10
152.9308252624
 20
107.8645269022
 10
152.917311431
 20
107.8591574613
 10
152.9041325901
 20
107.853011406
 10
152.8913333284
 20
107.8461095305
 10
152.8789569503
 20
107.8384751861
 10
152.8670453298
 20
107.8301342025
 10
152.8556387681
 20
107.8211148
 10
152.8447758578
 20
107.8114474945
 10
152.8344933521
 20
107.8011649936
 10
152.8248260404
 20
107.7903020869
 10
152.8158066309
 20
107.7788955273
 10
152.8074656395
 20
107.7669839071
 10
152.7998312869
 20
107.7546075277
 10
152.7929294029
 20
107.7418082628
 10
152.7867833392
 20
107.7286294168
 10
152.7814138901
 20
107.7151155786
 10
152.7768392226
 20
107.7013124702
 10
152.7730748145
 20
107.6872667925
 10
152.770133402
 20
107.6730260672
 10
152.7680249373
 20
107.6586384759
 10
152.7667565539
 20
107.6441526967
 10
152.7663325433
 20
107.6296177404
  0
LWPOLYLINE
  5
6C5
100
AcDbEntity
  8
RACCORDO
100
AcDbPolyline
 62
250
  6
CONTINUOUS
 90
28
 70
0
 10
130.234205628
 20
107.8795531364
 10
130.2196730521
 20
107.879128061
 10
130.2051896392
 20
107.8778587001
 10
130.1908043873
 20
107.8757493478
 10
130.1765659619
 20
107.8728071398
 10
130.1625225319
 20
107.8690420295
 10
130.1487216069
 20
107.8644667543
 10
130.1352098756
 20
107.8590967924
 10
130.1220330487
 20
107.8529503102
 10
130.1092357038
 20
107.8460481014
 10
130.0968611347
 20
107.8384135162
 10
130.0849512051
 20
107.8300723826
 10
130.0735462066
 20
107.8210529186
 10
130.0626847228
 20
107.8113856373
 10
130.0524034984
 20
107.8011032433
 10
130.0427373154
 20
107.7902405222
 10
130.0337188747
 20
107.7788342228
 10
130.025378686
 20
107.7669229329
 10
130.0177449647
 20
107.7545469487
 10
130.0108435359
 20
107.7417481386
 10
130.0046977474
 20
107.7285698012
 10
129.9993283908
 20
107.7150565194
 10
129.9947536307
 20
107.7012540089
 10
129.9909889438
 20
107.6872089641
 10
129.9880470663
 20
107.6729688998
 10
129.9859379506
 20
107.6585819908
 10
129.984668732
 20
107.6440969082
 10
129.9842437042
 20
107.6295626556
  0
LINE
  5
6C6
100
AcDbEntity
  8
RACCORDO
100
AcDbLine
 62
250
  6
CONTINUOUS
 10
131.6422384286
 20
107.8776285236
 11
131.6586682683
 21
107.878112036
  0
LINE
  5
6C7
100
AcDbEntity
  8
RACCORDO
100
AcDbLine
 62
250
  6
CONTINUOUS
 10
154.4223776772
 20
107.8775764526
 11
154.4392903822
 21
107.8780586953
  0
LINE
  5
6C8
100
AcDbEntity
  8
RACCORDO
100
AcDbLine
 62
250
  6
CONTINUOUS
 10
131.8906721612
 20
107.6278780014
 11
131.9097814456
 21
107.6283664083
  0
LINE
  5
6C9
100
AcDbEntity
  8
RACCORDO
100
AcDbLine
 62
250
  6
CONTINUOUS
 10
154.6704214316
 20
107.6278252546
 11
154.6901875163
 21
107.6283125619
  0
LINE
  5
6CA
100
AcDbEntity
  8
RACCORDO
100
AcDbLine
 62
250
  6
CONTINUOUS
 10
131.6214597592
 20
107.8771583681
 11
131.6422384286
 21
107.8776285236
  0
LINE
  5
6CB
100
AcDbEntity
  8
RACCORDO
100
AcDbLine
 62
250
  6
CONTINUOUS
 10
154.4011296661
 20
107.8771078975
 11
154.4223776772
 21
107.8775764526
  0
LINE
  5
6CC
100
AcDbEntity
  8
RACCORDO
100
AcDbLine
 62
250
  6
CONTINUOUS
 10
131.8656098212
 20
107.6274006141
 11
131.8906721612
 21
107.6278780014
  0
LINE
  5
6CD
100
AcDbEntity
  8
RACCORDO
100
AcDbLine
 62
250
  6
CONTINUOUS
 10
131.5823852278
 20
107.8764836407
 11
131.6214597592
 21
107.8771583681
  0
LINE
  5
6CE
100
AcDbEntity
  8
RACCORDO
100
AcDbLine
 62
250
  6
CONTINUOUS
 10
154.6296903067
 20
107.6271169113
 11
154.6704214316
 21
107.6278252546
  0
LINE
  5
6CF
100
AcDbEntity
  8
RACCORDO
100
AcDbLine
 62
250
  6
CONTINUOUS
 10
154.3613819315
 20
107.8764361716
 11
154.4011296661
 21
107.8771078975
  0
LINE
  5
6D0
100
AcDbEntity
  8
RACCORDO
100
AcDbLine
 62
250
  6
CONTINUOUS
 10
131.7983085949
 20
107.6264927191
 11
131.8656098212
 21
107.6274006141
  0
LWPOLYLINE
  5
6D1
100
AcDbEntity
  8
RACCORDO
100
AcDbPolyline
 62
7
  6
CONTINUOUS
 90
25
 70
0
 10
146.6485723434
 20
107.7653774355
 10
146.6617449696
 20
107.7655144545
 10
146.6747509911
 20
107.7659102995
 10
146.6875904078
 20
107.7665649705
 10
146.7003166206
 20
107.7674834731
 10
146.7128762287
 20
107.7686608018
 10
146.7251090299
 20
107.7700819391
 10
146.7370108379
 20
107.7717500083
 10
146.748585839
 20
107.7736618863
 10
146.75968639
 20
107.7757931863
 10
146.7703064134
 20
107.7781467191
 10
146.7804519867
 20
107.7807196739
 10
146.7899936997
 20
107.7834792319
 10
146.7989238169
 20
107.7864277834
 10
146.8072500737
 20
107.7895629379
 10
146.8148662659
 20
107.7928447056
 10
146.8217632976
 20
107.7962749646
 10
146.8279502645
 20
107.7998518366
 10
146.8333482499
 20
107.8035296975
 10
146.837947147
 20
107.807309841
 10
146.8417570624
 20
107.8111909733
 10
146.8447293995
 20
107.8151235894
 10
146.8468479592
 20
107.8190911874
 10
146.8481289405
 20
107.823110269
 10
146.8485723434
 20
107.8271808344
  0
LINE
  5
6D2
100
AcDbEntity
  8
RACCORDO
100
AcDbLine
 62
250
  6
CONTINUOUS
 10
131.4976694332
 20
107.8754647788
 11
131.5823852278
 21
107.8764836407
  0
LINE
  5
6D3
100
AcDbEntity
  8
RACCORDO
100
AcDbLine
 62
250
  6
CONTINUOUS
 10
154.2756505663
 20
107.8754238002
 11
154.3613819315
 21
107.8764361716
  0
LINE
  5
6D4
100
AcDbEntity
  8
RACCORDO
100
AcDbLine
 62
250
  6
CONTINUOUS
 10
154.5338161384
 20
107.6260224953
 11
154.6296903067
 21
107.6271169113
  0
LINE
  5
6D5
100
AcDbEntity
  8
RACCORDO
100
AcDbLine
 62
250
  6
CONTINUOUS
 10
131.6578844777
 20
107.6252891995
 11
131.7983085949
 21
107.6264927191
  0
LINE
  5
6D6
100
AcDbEntity
  8
RACCORDO
100
AcDbLine
 62
250
  6
CONTINUOUS
 10
154.3476530404
 20
107.6247430256
 11
154.5338161384
 21
107.6260224953
  0
LINE
  5
6D7
100
AcDbEntity
  8
RACCORDO
100
AcDbLine
 62
250
  6
CONTINUOUS
 10
131.3191757057
 20
107.874196356
 11
131.4976694332
 21
107.8754647788
  0
LINE
  5
6D8
100
AcDbEntity
  8
RACCORDO
100
AcDbLine
 62
250
  6
CONTINUOUS
 10
154.0958953176
 20
107.874169019
 11
154.2756505663
 21
107.8754238002
  0
LINE
  5
6D9
100
AcDbEntity
  8
RACCORDO
100
AcDbLine
 62
250
  6
CONTINUOUS
 10
131.3753387648
 20
107.6239714044
 11
131.6578844777
 21
107.6252891995
  0
LINE
  5
6DA
100
AcDbEntity
  8
RACCORDO
100
AcDbLine
 62
250
  6
CONTINUOUS
 10
154.004198308
 20
107.6235975874
 11
154.3476530404
 21
107.6247430256
  0
LINE
  5
6DB
100
AcDbEntity
  8
RACCORDO
100
AcDbLine
 62
250
  6
CONTINUOUS
 10
153.7942801085
 20
107.8733685333
 11
154.0958953176
 21
107.874169019
  0
LINE
  5
6DC
100
AcDbEntity
  8
RACCORDO
100
AcDbLine
 62
250
  6
CONTINUOUS
 10
131.0183723827
 20
107.8733729315
 11
131.3191757057
 21
107.874196356
  0
LINE
  5
6DD
100
AcDbEntity
  8
RACCORDO
100
AcDbLine
 62
250
  6
CONTINUOUS
 10
130.9617197381
 20
107.6233600752
 11
131.3753387648
 21
107.6239714044
  0
LINE
  5
6DE
100
AcDbEntity
  8
RACCORDO
100
AcDbLine
 62
250
  6
CONTINUOUS
 10
136.1485723434
 20
106.5956306632
 11
136.3485723434
 21
106.5956306632
  0
LINE
  5
6DF
100
AcDbEntity
  8
RACCORDO
100
AcDbLine
 62
250
  6
CONTINUOUS
 10
148.3485723434
 20
106.5956306632
 11
148.5485723434
 21
106.5956306632
  0
LINE
  5
6E0
100
AcDbEntity
  8
DRAFT
100
AcDbLine
 62
7
  6
CONTINUOUS
 10
134.3485723434
 20
107.1473684211
 11
136.3485723434
 21
107.1473684211
  0
LINE
  5
6E1
100
AcDbEntity
  8
DRAFT
100
AcDbLine
 62
7
  6
CONTINUOUS
 10
148.3485723434
 20
107.1473684211
 11
150.3485723434
 21
107.1473684211
  0
LINE
  5
6E2
100
AcDbEntity
  8
RACCORDO
100
AcDbLine
 62
7
  6
CONTINUOUS
 10
138.0485723434
 20
107.384954829
 11
138.644242576
 21
107.384954829
  0
LINE
  5
6E3
100
AcDbEntity
  8
RACCORDO
100
AcDbLine
 62
7
  6
CONTINUOUS
 10
146.0529021109
 20
107.384954829
 11
146.6485723434
 21
107.384954829
  0
LINE
  5
6E4
100
AcDbEntity
  8
RACCORDO
100
AcDbLine
 62
7
  6
CONTINUOUS
 10
138.0485723434
 20
107.7653774355
 11
138.6064907285
 21
107.7653774355
  0
LINE
  5
6E5
100
AcDbEntity
  8
RACCORDO
100
AcDbLine
 62
7
  6
CONTINUOUS
 10
146.0906539583
 20
107.7653774355
 11
146.6485723434
 21
107.7653774355
  0
LINE
  5
6E6
100
AcDbEntity
  8
RACCORDO
100
AcDbLine
 62
7
  6
CONTINUOUS
 10
154.498572342
 20
107.8973684211
 11
152.9985628242
 21
107.8973684211
  0
LINE
  5
6E7
100
AcDbEntity
  8
RACCORDO
100
AcDbLine
 62
7
  6
CONTINUOUS
 10
131.6985818627
 20
107.8973684211
 11
130.1985723449
 21
107.8973684211
  0
LINE
  5
6E8
100
AcDbEntity
  8
RACCORDO
100
AcDbLine
 62
7
  6
CONTINUOUS
 10
148.3485723434
 20
107.9069679756
 11
146.2818385782
 21
107.9069679756
  0
LINE
  5
6E9
100
AcDbEntity
  8
RACCORDO
100
AcDbLine
 62
7
  6
CONTINUOUS
 10
138.4153061086
 20
107.9069679756
 11
136.3485723434
 21
107.9069679756
  0
LINE
  5
6EA
100
AcDbEntity
  8
0
100
AcDbLine
 62
250
  6
CONTINUOUS
 10
148.3485723434
 20
108.2069679756
 11
136.3485723434
 21
108.2069679756
  0
LINE
  5
6EB
100
AcDbEntity
  8
RACCORDO
100
AcDbLine
 62
250
  6
CONTINUOUS
 10
153.5424144151
 20
107.623491053
 11
154.004198308
 21
107.6235975874
  0
LINE
  5
6EC
100
AcDbEntity
  8
RACCORDO
100
AcDbLine
 62
250
  6
CONTINUOUS
 10
130.5123732716
 20
107.6240586782
 11
130.9617197381
 21
107.6233600752
  0
LINE
  5
6ED
100
AcDbEntity
  8
RACCORDO
100
AcDbLine
 62
250
  6
CONTINUOUS
 10
130.6790879269
 20
107.8738367142
 11
131.0183723827
 21
107.8733729315
  0
LINE
  5
6EE
100
AcDbEntity
  8
RACCORDO
100
AcDbLine
 62
250
  6
CONTINUOUS
 10
153.4554723032
 20
107.8738581361
 11
153.7942801085
 21
107.8733685333
  0
LINE
  5
6EF
100
AcDbEntity
  8
RACCORDO
100
AcDbLine
 62
250
  6
CONTINUOUS
 10
153.1250820746
 20
107.6247776173
 11
153.5424144151
 21
107.623491053
  0
LINE
  5
6F0
100
AcDbEntity
  8
RACCORDO
100
AcDbLine
 62
250
  6
CONTINUOUS
 10
130.2107762646
 20
107.6256230459
 11
130.5123732716
 21
107.6240586782
  0
LINE
  5
6F1
100
AcDbEntity
  8
RACCORDO
100
AcDbLine
 62
250
  6
CONTINUOUS
 10
130.4619997991
 20
107.875063853
 11
130.6790879269
 21
107.8738367142
  0
LINE
  5
6F2
100
AcDbEntity
  8
RACCORDO
100
AcDbLine
 62
250
  6
CONTINUOUS
 10
153.2396194696
 20
107.8751017605
 11
153.4554723032
 21
107.8738581361
  0
LINE
  5
6F3
100
AcDbEntity
  8
RACCORDO
100
AcDbLine
 62
250
  6
CONTINUOUS
 10
152.919087488
 20
107.6262772713
 11
153.1250820746
 21
107.6247776173
  0
LWPOLYLINE
  5
6F4
100
AcDbEntity
  8
RACCORDO
100
AcDbPolyline
 62
7
  6
CONTINUOUS
 90
25
 70
0
 10
138.0485723434
 20
107.384954829
 10
138.0353997172
 20
107.385091848
 10
138.0223936958
 20
107.385487693
 10
138.009554279
 20
107.3861423639
 10
137.9968280662
 20
107.3870608666
 10
137.9842684581
 20
107.3882381952
 10
137.9720356569
 20
107.3896593326
 10
137.960133849
 20
107.3913274018
 10
137.9485588479
 20
107.3932392797
 10
137.9374582968
 20
107.3953705797
 10
137.9268382734
 20
107.3977241126
 10
137.9166927001
 20
107.4002970674
 10
137.9071509872
 20
107.4030566254
 10
137.89822087
 20
107.4060051769
 10
137.8898946131
 20
107.4091403314
 10
137.882278421
 20
107.4124220991
 10
137.8753813893
 20
107.415852358
 10
137.8691944223
 20
107.4194292301
 10
137.8637964369
 20
107.423107091
 10
137.8591975399
 20
107.4268872345
 10
137.8553876244
 20
107.4307683668
 10
137.8524152873
 20
107.4347009829
 10
137.8502967276
 20
107.4386685808
 10
137.8490157463
 20
107.4426876625
 10
137.8485723434
 20
107.4467582278
  0
LINE
  5
6F5
100
AcDbEntity
  8
RACCORDO
100
AcDbLine
 62
250
  6
CONTINUOUS
 10
130.1017422002
 20
107.6266643244
 11
130.2107762646
 21
107.6256230459
  0
LINE
  5
6F6
100
AcDbEntity
  8
RACCORDO
100
AcDbLine
 62
250
  6
CONTINUOUS
 10
153.145846095
 20
107.8760583168
 11
153.2396194696
 21
107.8751017605
  0
LINE
  5
6F7
100
AcDbEntity
  8
RACCORDO
100
AcDbLine
 62
250
  6
CONTINUOUS
 10
130.3510526243
 20
107.8762217225
 11
130.4619997991
 21
107.875063853
  0
LINE
  5
6F8
100
AcDbEntity
  8
RACCORDO
100
AcDbLine
 62
250
  6
CONTINUOUS
 10
152.8462493337
 20
107.627167373
 11
152.919087488
 21
107.6262772713
  0
LINE
  5
6F9
100
AcDbEntity
  8
RACCORDO
100
AcDbLine
 62
250
  6
CONTINUOUS
 10
130.0524270897
 20
107.6273492972
 11
130.1017422002
 21
107.6266643244
  0
LINE
  5
6FA
100
AcDbEntity
  8
RACCORDO
100
AcDbLine
 62
250
  6
CONTINUOUS
 10
130.3082573438
 20
107.8768790426
 11
130.3510526243
 21
107.8762217225
  0
LINE
  5
6FB
100
AcDbEntity
  8
RACCORDO
100
AcDbLine
 62
250
  6
CONTINUOUS
 10
153.0876979414
 20
107.8769285895
 11
153.145846095
 21
107.8760583168
  0
LINE
  5
6FC
100
AcDbEntity
  8
RACCORDO
100
AcDbLine
 62
250
  6
CONTINUOUS
 10
152.8182691136
 20
107.6276374891
 11
152.8462493337
 21
107.627167373
  0
LINE
  5
6FD
100
AcDbEntity
  8
RACCORDO
100
AcDbLine
 62
250
  6
CONTINUOUS
 10
130.0267234708
 20
107.6278252488
 11
130.0524270897
 21
107.6273492972
  0
LINE
  5
6FE
100
AcDbEntity
  8
RACCORDO
100
AcDbLine
 62
250
  6
CONTINUOUS
 10
130.2848592681
 20
107.8773401639
 11
130.3082573438
 21
107.8768790426
  0
LINE
  5
6FF
100
AcDbEntity
  8
RACCORDO
100
AcDbLine
 62
250
  6
CONTINUOUS
 10
153.0647618547
 20
107.8773914752
 11
153.0876979414
 21
107.8769285895
  0
LWPOLYLINE
  5
700
100
AcDbEntity
  8
RACCORDO
100
AcDbPolyline
 62
250
  6
CONTINUOUS
 90
28
 70
0
 10
131.6808216628
 20
107.8796082212
 10
131.6953566126
 20
107.879184211
 10
131.7098423856
 20
107.8779158287
 10
131.7242299712
 20
107.8758073657
 10
131.738470691
 20
107.8728659557
 10
131.7525163637
 20
107.8691015505
 10
131.7663194677
 20
107.8645268865
 10
131.7798333022
 20
107.8591574413
 10
131.7930121452
 20
107.8530113817
 10
131.8058114079
 20
107.846109502
 10
131.8181877858
 20
107.8384751537
 10
131.8300994053
 20
107.8301341666
 10
131.8415059652
 20
107.8211147611
 10
131.8523688729
 20
107.8114474531
 10
131.8626513755
 20
107.8011649505
 10
131.8723186834
 20
107.7903020428
 10
131.8813380889
 20
107.7788954829
 10
131.8896790761
 20
107.7669838634
 10
131.8973134244
 20
107.7546074855
 10
131.9042153041
 20
107.7418082228
 10
131.9103613636
 20
107.7286293798
 10
131.9157308088
 20
107.7151155453
 10
131.9203054729
 20
107.7013124413
 10
131.9240698781
 20
107.6872667686
 10
131.9270112881
 20
107.6730260488
 10
131.929119751
 20
107.6586384633
 10
131.9303881333
 20
107.6441526903
 10
131.9308121435
 20
107.6296177404
  0
LWPOLYLINE
  5
701
100
AcDbEntity
  8
RACCORDO
100
AcDbPolyline
 62
250
  6
CONTINUOUS
 90
28
 70
0
 10
154.4629390588
 20
107.8795531364
 10
154.4774716447
 20
107.8791280605
 10
154.4919550664
 20
107.8778586979
 10
154.5063403262
 20
107.8757493431
 10
154.5205787584
 20
107.8728071318
 10
154.5346221938
 20
107.8690420179
 10
154.5484231232
 20
107.8644667386
 10
154.5619348576
 20
107.8590967724
 10
154.5751116866
 20
107.8529502859
 10
154.5879090324
 20
107.8460480729
 10
154.6002836014
 20
107.8384134838
 10
154.6121935301
 20
107.8300723466
 10
154.6235985267
 20
107.8210528796
 10
154.6344600079
 20
107.8113855959
 10
154.6447412291
 20
107.8011032002
 10
154.6544074085
 20
107.7902404781
 10
154.6634258452
 20
107.7788341785
 10
154.6717660295
 20
107.7669228892
 10
154.6793997465
 20
107.7545469064
 10
154.6863011711
 20
107.7417480986
 10
154.6924469554
 20
107.7285697642
 10
154.6978163082
 20
107.7150564861
 10
154.7023910648
 20
107.70125398
 10
154.7061557487
 20
107.6872089402
 10
154.7090976238
 20
107.6729688814
 10
154.7112067377
 20
107.6585819782
 10
154.7124759553
 20
107.6440969018
 10
154.7129009826
 20
107.6295626556
  0
LINE
  5
702
100
AcDbEntity
  8
DRAFT
100
AcDbLine
 62
7
  6
CONTINUOUS
 10
152.6953384499
 20
106.3973684211
 11
152.7485723434
 21
106.3441345275
  0
LINE
  5
703
100
AcDbEntity
  8
RACCORDO
100
AcDbLine
 62
7
  6
CONTINUOUS
 10
152.7485723434
 20
106.3441345275
 11
152.7663325433
 21
106.3263743276
  0
LINE
  5
704
100
AcDbEntity
  8
RACCORDO
100
AcDbLine
 62
250
  6
CONTINUOUS
 10
152.7485723434
 20
107.6473779403
 11
152.7663325433
 21
107.6296177404
  0
LINE
  5
705
100
AcDbEntity
  8
RACCORDO
100
AcDbLine
 62
250
  6
CONTINUOUS
 10
153.0163230241
 20
59.9151286209
 11
152.9985628242
 21
59.8973684211
  0
LINE
  5
706
100
AcDbEntity
  8
0
100
AcDbLine
 62
7
  6
CONTINUOUS
 10
148.3485723434
 20
108.9069679756
 11
136.3485723434
 21
108.9069679756
  0
LWPOLYLINE
  5
707
100
AcDbEntity
  8
0
100
AcDbPolyline
 62
7
  6
CONTINUOUS
 90
7
 70
0
 43
0.3500000006
 10
139.4557119141
 20
117.6569693298
 10
137.9557114563
 20
117.6569693298
 10
139.4557119141
 20
119.7998232422
 10
139.4557119141
 20
120.2283922119
 10
139.0271429443
 20
120.6569702454
 10
138.3842894897
 20
120.6569702454
 10
137.9557114563
 20
120.0141077271
  0
LWPOLYLINE
  5
708
100
AcDbEntity
  8
0
100
AcDbPolyline
 62
7
  6
CONTINUOUS
 90
3
 70
0
 43
0.3500000006
 10
141.812859375
 20
118.2998227844
 10
140.3128589172
 20
118.2998227844
 10
140.9557123718
 20
120.6569702454
  0
LWPOLYLINE
  5
709
100
AcDbEntity
  8
RACCORDO
100
AcDbPolyline
 62
250
  6
CONTINUOUS
 90
8
 70
0
 10
152.7663325433
 20
107.6296177404
 10
152.7674481977
 20
107.6293650265
 10
152.7701148181
 20
107.6291136132
 10
152.7743279673
 20
107.6288635005
 10
152.7800805942
 20
107.6286143007
 10
152.7873634201
 20
107.6283664014
 10
152.7961653007
 20
107.6281209661
 10
152.8182691136
 20
107.6276374891
  0
LWPOLYLINE
  5
70A
100
AcDbEntity
  8
RACCORDO
100
AcDbPolyline
 62
250
  6
CONTINUOUS
 90
9
 70
0
 10
153.0163230241
 20
107.8796082212
 10
153.0171579198
 20
107.8793557389
 10
153.019136031
 20
107.8791044941
 10
153.0222573576
 20
107.8788544865
 10
153.0265304547
 20
107.8786053071
 10
153.0319467673
 20
107.8783573649
 10
153.0384806301
 20
107.8781118879
 10
153.0461375289
 20
107.8778688991
 10
153.0647618547
 20
107.8773914752
  0
LWPOLYLINE
  5
70B
100
AcDbEntity
  8
0
100
AcDbPolyline
 62
7
  6
CONTINUOUS
 90
13
 70
0
 43
0.3500000006
 10
144.8128602905
 20
119.3712542725
 10
144.5271446228
 20
119.5855387573
 10
144.5271446228
 20
120.2283922119
 10
144.8128602905
 20
120.6569702454
 10
145.4557137451
 20
120.6569702454
 10
145.7414294128
 20
120.2283922119
 10
145.7414294128
 20
119.5855387573
 10
145.4557137451
 20
119.3712542725
 10
145.8842827148
 20
118.9426853027
 10
145.8842827148
 20
118.0855382996
 10
145.4557137451
 20
117.6569693298
 10
144.8128602905
 20
117.6569693298
 10
144.3842822571
 20
118.0855382996
  0
LINE
  5
70C
100
AcDbEntity
  8
RACCORDO
100
AcDbLine
 62
250
  6
CONTINUOUS
 10
152.9985628242
 20
107.8973684211
 11
153.0163230241
 21
107.8796082212
  0
ARC
  5
70D
100
AcDbEntity
  8
RACCORDO
100
AcDbCircle
 62
7
  6
CONTINUOUS
 10
65.5228939782
 20
67.1717483851
 40
1.0
100
AcDbArc
 50
182.2607456281
 51
260.0
  0
ARC
  5
70E
100
AcDbEntity
  8
ASSI
100
AcDbCircle
 62
7
  6
CONTINUOUS
 10
65.5228939782
 20
67.1717483851
 40
1.0
100
AcDbArc
 50
182.2607456281
 51
260.0
  0
ARC
  5
70F
100
AcDbEntity
  8
RACCORDO
100
AcDbCircle
 62
7
  6
CONTINUOUS
 10
83.6928759624
 20
61.0371612685
 40
1.0
100
AcDbArc
 50
271.0
 51
360.0
  0
ARC
  5
710
100
AcDbEntity
  8
0
100
AcDbCircle
 62
7
  6
CONTINUOUS
 10
75.0070389463
 20
59.5877688665
 40
0.7
100
AcDbArc
 50
270.0
 51
288.0
  0
ARC
  5
711
100
AcDbEntity
  8
0
100
AcDbCircle
 62
7
  6
CONTINUOUS
 10
74.4928759624
 20
59.5877688665
 40
0.7
100
AcDbArc
 50
180.0
 51
270.0
  0
ARC
  5
712
100
AcDbEntity
  8
ASSI
100
AcDbCircle
 62
7
  6
CONTINUOUS
 10
71.5857691812
 20
65.6973684211
 40
0.5
100
AcDbArc
 50
315.0
 51
90.0
  0
ARC
  5
713
100
AcDbEntity
  8
0
100
AcDbCircle
 62
7
  6
CONTINUOUS
 10
75.0070389463
 20
59.5877688665
 40
0.3
100
AcDbArc
 50
270.0
 51
288.0
  0
ARC
  5
714
100
AcDbEntity
  8
0
100
AcDbCircle
 62
7
  6
CONTINUOUS
 10
74.4928759624
 20
59.5877688665
 40
0.3
100
AcDbArc
 50
180.0
 51
270.0
  0
ARC
  5
715
100
AcDbEntity
  8
RACCORDO
100
AcDbCircle
 62
7
  6
CONTINUOUS
 10
72.9428759854
 20
60.1713768269
 40
0.25
100
AcDbArc
 50
180.0000000318
 51
269.5
  0
ARC
  5
716
100
AcDbEntity
  8
RACCORDO
100
AcDbCircle
 62
7
  6
CONTINUOUS
 10
68.4428759624
 20
61.7638816257
 40
0.25
100
AcDbArc
 50
180.0
 51
269.5
  0
CIRCLE
  5
717
100
AcDbEntity
  8
INCISIONI
100
AcDbCircle
 62
250
  6
CONTINUOUS
 10
80.6928759624
 20
79.8973684211
 40
2.499913
  0
ARC
  5
718
100
AcDbEntity
  8
INCISIONI
100
AcDbCircle
 62
250
  6
CONTINUOUS
 10
80.6928759624
 20
79.8973684211
 40
1.8721818025
100
AcDbArc
 50
232.1799899467
 51
319.6797703449
  0
ARC
  5
719
100
AcDbEntity
  8
INCISIONI
100
AcDbCircle
 62
250
  6
CONTINUOUS
 10
80.6928759624
 20
79.8973684211
 40
1.8721816203
100
AcDbArc
 50
40.3202296551
 51
127.8200100533
  0
ARC
  5
71A
100
AcDbEntity
  8
INCISIONI
100
AcDbCircle
 62
250
  6
CONTINUOUS
 10
84.2940729624
 20
80.4920614211
 40
1.1012835389
100
AcDbArc
 50
133.6301346094
 51
180.0
  0
ARC
  5
71B
100
AcDbEntity
  8
RACCORDO
100
AcDbCircle
 62
7
  6
CONTINUOUS
 10
103.1928759624
 20
65.6274588706
 40
0.5
100
AcDbArc
 50
271.0
 51
360.0
  0
ARC
  5
71C
100
AcDbEntity
  8
RACCORDO
100
AcDbCircle
 62
7
  6
CONTINUOUS
 10
106.3928759624
 20
68.9115098296
 40
0.3
100
AcDbArc
 50
270.3
 51
360.0
  0
ARC
  5
71D
100
AcDbEntity
  8
RACCORDO
100
AcDbCircle
 62
7
  6
CONTINUOUS
 10
106.3928759624
 20
75.2832270125
 40
0.3
100
AcDbArc
 50
0.0
 51
89.7
  0
ARC
  5
71E
100
AcDbEntity
  8
RACCORDO
100
AcDbCircle
 62
7
  6
CONTINUOUS
 10
65.5228939782
 20
100.622988457
 40
1.0
100
AcDbArc
 50
100.0
 51
177.7392543719
  0
ARC
  5
71F
100
AcDbEntity
  8
ASSI
100
AcDbCircle
 62
7
  6
CONTINUOUS
 10
65.5228939782
 20
100.622988457
 40
1.0
100
AcDbArc
 50
100.0
 51
177.7392543719
  0
ARC
  5
720
100
AcDbEntity
  8
RACCORDO
100
AcDbCircle
 62
7
  6
CONTINUOUS
 10
83.6928759624
 20
106.7575755736
 40
1.0
100
AcDbArc
 50
0.0
 51
89.0
  0
ARC
  5
721
100
AcDbEntity
  8
0
100
AcDbCircle
 62
7
  6
CONTINUOUS
 10
75.0070389463
 20
108.2069679756
 40
0.7
100
AcDbArc
 50
72.0
 51
90.0
  0
ARC
  5
722
100
AcDbEntity
  8
0
100
AcDbCircle
 62
7
  6
CONTINUOUS
 10
74.4928759624
 20
108.2069679756
 40
0.7
100
AcDbArc
 50
90.0
 51
180.0
  0
ARC
  5
723
100
AcDbEntity
  8
ASSI
100
AcDbCircle
 62
7
  6
CONTINUOUS
 10
71.5857691812
 20
102.0973684211
 40
0.5
100
AcDbArc
 50
270.0
 51
45.0
  0
ARC
  5
724
100
AcDbEntity
  8
RACCORDO
100
AcDbCircle
 62
7
  6
CONTINUOUS
 10
103.1928759624
 20
102.1672779715
 40
0.5
100
AcDbArc
 50
0.0
 51
89.0
  0
ARC
  5
725
100
AcDbEntity
  8
RACCORDO
100
AcDbCircle
 62
7
  6
CONTINUOUS
 10
106.3928759624
 20
98.8832270125
 40
0.3
100
AcDbArc
 50
0.0
 51
89.7
  0
ARC
  5
726
100
AcDbEntity
  8
RACCORDO
100
AcDbCircle
 62
7
  6
CONTINUOUS
 10
106.3928759624
 20
92.5115098296
 40
0.3
100
AcDbArc
 50
270.3
 51
360.0
  0
ARC
  5
727
100
AcDbEntity
  8
0
100
AcDbCircle
 62
7
  6
CONTINUOUS
 10
75.0070389463
 20
108.2069679756
 40
0.3
100
AcDbArc
 50
72.0
 51
90.0
  0
ARC
  5
728
100
AcDbEntity
  8
0
100
AcDbCircle
 62
7
  6
CONTINUOUS
 10
74.4928759624
 20
108.2069679756
 40
0.3
100
AcDbArc
 50
90.0
 51
180.0
  0
ARC
  5
729
100
AcDbEntity
  8
RACCORDO
100
AcDbCircle
 62
7
  6
CONTINUOUS
 10
72.9428759628
 20
107.623360015
 40
0.25
100
AcDbArc
 50
90.5
 51
179.9999999993
  0
ARC
  5
72A
100
AcDbEntity
  8
RACCORDO
100
AcDbCircle
 62
7
  6
CONTINUOUS
 10
68.4428759624
 20
106.0308552164
 40
0.25
100
AcDbArc
 50
90.5
 51
180.0
  0
ARC
  5
72B
100
AcDbEntity
  8
RACCORDO
100
AcDbCircle
 62
7
  6
CONTINUOUS
 10
489.1928759624
 20
83.8973684211
 40
425.0
100
AcDbArc
 50
177.7392543719
 51
182.2607456281
  0
ARC
  5
72C
100
AcDbEntity
  8
ASSI
100
AcDbCircle
 62
7
  6
CONTINUOUS
 10
489.1928759624
 20
83.8973684211
 40
425.0
100
AcDbArc
 50
177.7392543719
 51
182.2607456281
  0
ARC
  5
72D
100
AcDbEntity
  8
CURVE
100
AcDbCircle
 62
7
  6
CONTINUOUS
 10
489.1928759624
 20
83.8973684211
 40
425.0
100
AcDbArc
 50
179.4944424441
 51
180.2318456404
  0
ARC
  5
72E
100
AcDbEntity
  8
ASSI
100
AcDbCircle
 62
7
  6
CONTINUOUS
 10
142.3485723434
 20
102.6473684211
 40
0.75
100
AcDbArc
 50
348.4621747951
 51
3.823098803
  0
ARC
  5
72F
100
AcDbEntity
  8
ASSI
100
AcDbCircle
 62
7
  6
CONTINUOUS
 10
142.3485723434
 20
102.6473684211
 40
0.75
100
AcDbArc
 50
176.176901197
 51
191.5378252049
  0
ARC
  5
730
100
AcDbEntity
  8
ASSI
100
AcDbCircle
 62
7
  6
CONTINUOUS
 10
142.3485723434
 20
65.1473684211
 40
0.75
100
AcDbArc
 50
168.4621747951
 51
183.823098803
  0
ARC
  5
731
100
AcDbEntity
  8
ASSI
100
AcDbCircle
 62
7
  6
CONTINUOUS
 10
142.3485723434
 20
65.1473684211
 40
0.75
100
AcDbArc
 50
356.176901197
 51
11.5378252049
  0
ARC
  5
732
100
AcDbEntity
  8
RACCORDO
100
AcDbCircle
 62
7
  6
CONTINUOUS
 10
146.2818385782
 20
107.7069679756
 40
0.2
100
AcDbArc
 50
90.0
 51
175.0
  0
ARC
  5
733
100
AcDbEntity
  8
RACCORDO
100
AcDbCircle
 62
7
  6
CONTINUOUS
 10
138.4153061086
 20
107.7069679756
 40
0.2
100
AcDbArc
 50
5.0
 51
90.0
  0
ARC
  5
734
100
AcDbEntity
  8
RACCORDO
100
AcDbCircle
 62
7
  6
CONTINUOUS
 10
138.4153061086
 20
60.0877688665
 40
0.2
100
AcDbArc
 50
270.0
 51
355.0
  0
ARC
  5
735
100
AcDbEntity
  8
RACCORDO
100
AcDbCircle
 62
7
  6
CONTINUOUS
 10
146.2818385782
 20
60.0877688665
 40
0.2
100
AcDbArc
 50
185.0
 51
270.0
  0
ELLIPSE
  5
736
100
AcDbEntity
  8
INCISIONI
100
AcDbEllipse
 62
250
  6
CONTINUOUS
 10
79.2669400948
 20
101.6942084211
 30
0.0
 11
-0.0014991081
 21
0.5727030368
 31
0.0
 40
0.9996954177
 41
1.568179529
 42
2.8849383732
  0
ELLIPSE
  5
737
100
AcDbEntity
  8
CURVE
100
AcDbEllipse
 62
250
  6
CONTINUOUS
 10
87.1928759624
 20
91.8692854211
 30
0.0
 11
-0.0
 21
0.983755
 31
0.0
 40
0.9996954135
 41
1.5707963268
 42
4.7123889804
  0
ELLIPSE
  5
738
100
AcDbEntity
  8
CURVE
100
AcDbEllipse
 62
250
  6
CONTINUOUS
 10
87.1928759624
 20
92.7103064211
 30
0.0
 11
-0.0
 21
0.983755
 31
0.0
 40
0.9996954135
 41
1.5707963268
 42
4.7123889804
  0
ELLIPSE
  5
739
100
AcDbEntity
  8
CURVE
100
AcDbEllipse
 62
250
  6
CONTINUOUS
 10
87.1928759624
 20
93.5513264211
 30
0.0
 11
-0.0
 21
0.983755
 31
0.0
 40
0.9996954135
 41
1.5707963268
 42
4.7123889804
  0
ELLIPSE
  5
73A
100
AcDbEntity
  8
INCISIONI
100
AcDbEllipse
 62
250
  6
CONTINUOUS
 10
80.6425113713
 20
90.7324774211
 30
0.0
 11
0.0046970761
 21
1.7999929462
 31
0.0
 40
0.9996963576
 41
1.5178208021
 42
2.9343327594
  0
ELLIPSE
  5
73B
100
AcDbEntity
  8
INCISIONI
100
AcDbEllipse
 62
250
  6
CONTINUOUS
 10
92.2492241339
 20
93.1973684211
 30
0.0
 11
-0.0
 21
0.337278
 31
0.0
 40
0.9996954135
 41
0.0
 42
4.0049046747
  0
ELLIPSE
  5
73C
100
AcDbEntity
  8
INCISIONI
100
AcDbEllipse
 62
250
  6
CONTINUOUS
 10
93.1365277908
 20
93.1973684211
 30
0.0
 11
0.0
 21
0.337278
 31
0.0
 40
0.9996954135
 41
3.1415926536
 42
7.1464973283
  0
ELLIPSE
  5
73D
100
AcDbEntity
  8
INCISIONI
100
AcDbEllipse
 62
250
  6
CONTINUOUS
 10
80.6425113713
 20
90.7324774211
 30
0.0
 11
0.0066645733
 21
2.5499893458
 31
0.0
 40
0.999695886
 41
1.5341821361
 42
4.7542274908
  0
ELLIPSE
  5
73E
100
AcDbEntity
  8
INCISIONI
100
AcDbEllipse
 62
250
  6
CONTINUOUS
 10
80.6425113713
 20
86.3473674211
 30
0.0
 11
0.0046970762
 21
1.7999929462
 31
0.0
 40
0.9996963576
 41
1.5178208022
 42
4.7705818505
  0
ELLIPSE
  5
73F
100
AcDbEntity
  8
INCISIONI
100
AcDbEllipse
 62
250
  6
CONTINUOUS
 10
80.6425113713
 20
86.3473674211
 30
0.0
 11
0.0066645737
 21
2.549989189
 31
0.0
 40
0.999695886
 41
1.5341837039
 42
4.7542274911
  0
ELLIPSE
  5
740
100
AcDbEntity
  8
RACCORDO
100
AcDbEllipse
 62
7
  6
CONTINUOUS
 10
154.348526645
 20
65.5973684211
 30
0.0
 11
0.3000456984
 21
-0.0
 31
0.0
 40
0.9998476952
 41
-1.5707963268
 42
0.0
  0
ELLIPSE
  5
741
100
AcDbEntity
  8
RACCORDO
100
AcDbEllipse
 62
7
  6
CONTINUOUS
 10
130.3486180418
 20
65.5973684211
 30
0.0
 11
0.3000456984
 21
-0.0
 31
0.0
 40
0.9998476952
 41
-3.1415926536
 42
-1.6770353423
  0
ELLIPSE
  5
742
100
AcDbEntity
  8
RACCORDO
100
AcDbEllipse
 62
7
  6
CONTINUOUS
 10
130.3486180418
 20
102.1973684211
 30
0.0
 11
0.3000456984
 21
0.0
 31
0.0
 40
0.9998476952
 41
1.5707963268
 42
3.1415926536
  0
ELLIPSE
  5
743
100
AcDbEntity
  8
RACCORDO
100
AcDbEllipse
 62
7
  6
CONTINUOUS
 10
154.348526645
 20
102.1973684211
 30
0.0
 11
0.3000456984
 21
0.0
 31
0.0
 40
0.9998476952
 41
0.0
 42
1.4645573113
  0
ELLIPSE
  5
744
100
AcDbEntity
  8
RACCORDO
100
AcDbEllipse
 62
7
  6
CONTINUOUS
 10
130.3835281717
 20
101.8927404375
 30
0.0
 11
-0.0300136675
 21
0.3031910442
 31
0.0
 40
0.9846622838
 41
-0.0971673115
 42
1.4705984321
  0
ELLIPSE
  5
745
100
AcDbEntity
  8
RACCORDO
100
AcDbEllipse
 62
7
  6
CONTINUOUS
 10
154.3136165152
 20
101.8927404375
 30
0.0
 11
0.0300136675
 21
0.3031910442
 31
0.0
 40
0.9846622838
 41
-1.4705984321
 42
0.0971673115
  0
ELLIPSE
  5
746
100
AcDbEntity
  8
RACCORDO
100
AcDbEllipse
 62
7
  6
CONTINUOUS
 10
154.3136165152
 20
65.9019964046
 30
0.0
 11
-0.0300136675
 21
0.3031910442
 31
0.0
 40
0.9846622838
 41
-3.2387599651
 42
-1.6709942215
  0
ELLIPSE
  5
747
100
AcDbEntity
  8
RACCORDO
100
AcDbEllipse
 62
7
  6
CONTINUOUS
 10
154.3136165152
 20
65.5973684211
 30
0.0
 11
0.3000456984
 21
0.0
 31
0.0
 40
0.9998476952
 41
4.7123889804
 42
6.2831853072
  0
ELLIPSE
  5
748
100
AcDbEntity
  8
RACCORDO
100
AcDbEllipse
 62
7
  6
CONTINUOUS
 10
130.3835281717
 20
102.1973684211
 30
0.0
 11
-0.3000456984
 21
0.0
 31
0.0
 40
0.9998476952
 41
4.7123889804
 42
6.2831853072
  0
ELLIPSE
  5
749
100
AcDbEntity
  8
RACCORDO
100
AcDbEllipse
 62
7
  6
CONTINUOUS
 10
154.3136165152
 20
102.1973684211
 30
0.0
 11
-0.3000456984
 21
0.0
 31
0.0
 40
0.9998476952
 41
9.4247779608
 42
10.9955742876
  0
ELLIPSE
  5
74A
100
AcDbEntity
  8
RACCORDO
100
AcDbEllipse
 62
7
  6
CONTINUOUS
 10
130.3835281717
 20
65.5973684211
 30
0.0
 11
0.3000456984
 21
0.0
 31
0.0
 40
0.9998476952
 41
9.4247779608
 42
10.9955742876
  0
ELLIPSE
  5
74B
100
AcDbEntity
  8
RACCORDO
100
AcDbEllipse
 62
7
  6
CONTINUOUS
 10
130.3835281717
 20
65.9019964046
 30
0.0
 11
0.0300136675
 21
0.3031910442
 31
0.0
 40
0.9846622838
 41
-4.6121910857
 42
-3.0444253421
  0
ELLIPSE
  5
74C
100
AcDbEntity
  8
ASSI
100
AcDbEllipse
 62
7
  6
CONTINUOUS
 10
154.348526645
 20
65.5973684211
 30
0.0
 11
0.3000456984
 21
-0.0
 31
0.0
 40
0.9998476952
 41
-1.5707963268
 42
0.0
  0
ELLIPSE
  5
74D
100
AcDbEntity
  8
ASSI
100
AcDbEllipse
 62
7
  6
CONTINUOUS
 10
130.3486180418
 20
65.5973684211
 30
0.0
 11
0.3000456984
 21
-0.0
 31
0.0
 40
0.9998476952
 41
-3.1415926536
 42
-1.6770353423
  0
ELLIPSE
  5
74E
100
AcDbEntity
  8
ASSI
100
AcDbEllipse
 62
7
  6
CONTINUOUS
 10
130.3486180418
 20
102.1973684211
 30
0.0
 11
0.3000456984
 21
0.0
 31
0.0
 40
0.9998476952
 41
1.5707963268
 42
3.1415926536
  0
ELLIPSE
  5
74F
100
AcDbEntity
  8
ASSI
100
AcDbEllipse
 62
7
  6
CONTINUOUS
 10
154.348526645
 20
102.1973684211
 30
0.0
 11
0.3000456984
 21
0.0
 31
0.0
 40
0.9998476952
 41
0.0
 42
1.4645573113
  0
ELLIPSE
  5
750
100
AcDbEntity
  8
ASSI
100
AcDbEllipse
 62
7
  6
CONTINUOUS
 10
130.3835281717
 20
101.8927404375
 30
0.0
 11
-0.0300136675
 21
0.3031910442
 31
0.0
 40
0.9846622838
 41
-0.0971673115
 42
1.4705984321
  0
ELLIPSE
  5
751
100
AcDbEntity
  8
ASSI
100
AcDbEllipse
 62
7
  6
CONTINUOUS
 10
154.3136165152
 20
101.8927404375
 30
0.0
 11
0.0300136675
 21
0.3031910442
 31
0.0
 40
0.9846622838
 41
-1.4705984321
 42
0.0971673115
  0
ELLIPSE
  5
752
100
AcDbEntity
  8
ASSI
100
AcDbEllipse
 62
7
  6
CONTINUOUS
 10
154.3136165152
 20
65.9019964046
 30
0.0
 11
-0.0300136675
 21
0.3031910442
 31
0.0
 40
0.9846622838
 41
-3.2387599651
 42
-1.6709942215
  0
ELLIPSE
  5
753
100
AcDbEntity
  8
ASSI
100
AcDbEllipse
 62
7
  6
CONTINUOUS
 10
130.3835281717
 20
65.5973684211
 30
0.0
 11
0.3000456984
 21
0.0
 31
0.0
 40
0.9998476952
 41
9.4247779608
 42
10.9955742876
  0
ELLIPSE
  5
754
100
AcDbEntity
  8
ASSI
100
AcDbEllipse
 62
7
  6
CONTINUOUS
 10
130.3835281717
 20
102.1973684211
 30
0.0
 11
-0.3000456984
 21
0.0
 31
0.0
 40
0.9998476952
 41
4.7123889804
 42
6.2831853072
  0
ELLIPSE
  5
755
100
AcDbEntity
  8
ASSI
100
AcDbEllipse
 62
7
  6
CONTINUOUS
 10
154.3136165152
 20
65.5973684211
 30
0.0
 11
0.3000456984
 21
0.0
 31
0.0
 40
0.9998476952
 41
4.7123889804
 42
6.2831853072
  0
ELLIPSE
  5
756
100
AcDbEntity
  8
ASSI
100
AcDbEllipse
 62
7
  6
CONTINUOUS
 10
154.3136165152
 20
102.1973684211
 30
0.0
 11
-0.3000456984
 21
0.0
 31
0.0
 40
0.9998476952
 41
9.4247779608
 42
10.9955742876
  0
ELLIPSE
  5
757
100
AcDbEntity
  8
ASSI
100
AcDbEllipse
 62
7
  6
CONTINUOUS
 10
130.3835281717
 20
65.9019964046
 30
0.0
 11
0.0300136675
 21
0.3031910442
 31
0.0
 40
0.9846622838
 41
-4.6121910857
 42
-3.0444253421
  0
ELLIPSE
  5
758
100
AcDbEntity
  8
RACCORDO
100
AcDbEllipse
 62
7
  6
CONTINUOUS
 10
130.1986104254
 20
107.647330339
 30
0.0
 11
-0.1768305473
 21
0.1768305473
 31
0.0
 40
0.9996954599
 41
5.497939437
 42
7.0684311773
  0
ELLIPSE
  5
759
100
AcDbEntity
  8
RACCORDO
100
AcDbEllipse
 62
7
  6
CONTINUOUS
 10
130.1986104254
 20
60.1474065031
 30
0.0
 11
0.1768305473
 21
0.1768305473
 31
0.0
 40
0.9996954599
 41
8.6395320906
 42
10.2100238309
  0
ELLIPSE
  5
75A
100
AcDbEntity
  8
RACCORDO
100
AcDbEllipse
 62
7
  6
CONTINUOUS
 10
154.4985342614
 20
60.1474065031
 30
0.0
 11
-0.1768305473
 21
0.1768305473
 31
0.0
 40
0.9996954599
 41
8.6395320906
 42
10.2100238309
  0
ELLIPSE
  5
75B
100
AcDbEntity
  8
RACCORDO
100
AcDbEllipse
 62
7
  6
CONTINUOUS
 10
154.4985342614
 20
107.647330339
 30
0.0
 11
0.1768305473
 21
0.1768305473
 31
0.0
 40
0.9996954599
 41
5.497939437
 42
7.0684311773
  0
ELLIPSE
  5
75C
100
AcDbEntity
  8
RACCORDO
100
AcDbEllipse
 62
7
  6
CONTINUOUS
 10
130.1986104254
 20
107.6473589015
 30
0.0
 11
0.2236527791
 21
-0.1118178731
 31
0.0
 40
0.9998096356
 41
2.0344896259
 42
3.6051336537
  0
ELLIPSE
  5
75D
100
AcDbEntity
  8
RACCORDO
100
AcDbEllipse
 62
7
  6
CONTINUOUS
 10
131.6985628238
 20
107.6473589015
 30
0.0
 11
0.1767901578
 21
0.1767901578
 31
0.0
 40
0.9999238505
 41
-0.7853600872
 42
0.7853600872
  0
ELLIPSE
  5
75E
100
AcDbEntity
  8
RACCORDO
100
AcDbEllipse
 62
7
  6
CONTINUOUS
 10
152.998581863
 20
107.6473589015
 30
0.0
 11
-0.1767901578
 21
0.1767901578
 31
0.0
 40
0.9999238505
 41
-0.7853600872
 42
0.7853600872
  0
ELLIPSE
  5
75F
100
AcDbEntity
  8
RACCORDO
100
AcDbEllipse
 62
7
  6
CONTINUOUS
 10
154.4985342614
 20
107.6473589015
 30
0.0
 11
0.2236527791
 21
0.1118178731
 31
0.0
 40
0.9998096356
 41
-0.4635410001
 42
1.1071030277
  0
ELLIPSE
  5
760
100
AcDbEntity
  8
RACCORDO
100
AcDbEllipse
 62
7
  6
CONTINUOUS
 10
131.6985628238
 20
60.1473779406
 30
0.0
 11
0.1767901578
 21
-0.1767901578
 31
0.0
 40
0.9999238505
 41
-0.7853600872
 42
0.7853600872
  0
ELLIPSE
  5
761
100
AcDbEntity
  8
RACCORDO
100
AcDbEllipse
 62
7
  6
CONTINUOUS
 10
130.1986104254
 20
60.1473779406
 30
0.0
 11
0.2236527791
 21
0.1118178731
 31
0.0
 40
0.9998096356
 41
2.6780516535
 42
4.2486956813
  0
ELLIPSE
  5
762
100
AcDbEntity
  8
RACCORDO
100
AcDbEllipse
 62
7
  6
CONTINUOUS
 10
154.4985342614
 20
60.1473779406
 30
0.0
 11
0.2236527791
 21
-0.1118178731
 31
0.0
 40
0.9998096356
 41
-1.1071030277
 42
0.4635410001
  0
ELLIPSE
  5
763
100
AcDbEntity
  8
RACCORDO
100
AcDbEllipse
 62
7
  6
CONTINUOUS
 10
152.998581863
 20
60.1473779406
 30
0.0
 11
0.1767901578
 21
0.1767901578
 31
0.0
 40
0.9999238505
 41
2.3562325664
 42
3.9269527408
  0
ELLIPSE
  5
764
100
AcDbEntity
  8
RACCORDO
100
AcDbEllipse
 62
7
  6
CONTINUOUS
 10
148.550317717
 20
61.1991061789
 30
0.0
 11
0.0
 21
0.2
 31
0.0
 40
0.0087268678
 41
0.0087266463
 42
1.5707963268
  0
ELLIPSE
  5
765
100
AcDbEntity
  8
RACCORDO
100
AcDbEllipse
 62
7
  6
CONTINUOUS
 10
136.1468269699
 20
106.5956306632
 30
0.0
 11
-0.0
 21
0.2
 31
0.0
 40
0.0087268678
 41
-3.1328660073
 42
-1.5707963268
  0
ELLIPSE
  5
766
100
AcDbEntity
  8
RACCORDO
100
AcDbEllipse
 62
7
  6
CONTINUOUS
 10
130.9574723305
 20
106.3264484555
 30
0.0
 11
0.9733768763
 21
0.0
 31
0.0
 40
0.0087268678
 41
-2.3911854655
 42
-0.0087266463
  0
ELLIPSE
  5
767
100
AcDbEntity
  8
RACCORDO
100
AcDbEllipse
 62
7
  6
CONTINUOUS
 10
148.550317717
 20
106.5956306632
 30
0.0
 11
0.0
 21
0.2
 31
0.0
 40
0.0087268678
 41
-4.7123889804
 42
-3.1503192998
  0
ELLIPSE
  5
768
100
AcDbEntity
  8
RACCORDO
100
AcDbEllipse
 62
7
  6
CONTINUOUS
 10
153.7396723564
 20
106.3264484555
 30
0.0
 11
0.9733768763
 21
0.0
 31
0.0
 40
0.0087268678
 41
-3.1328660073
 42
-0.7504071881
  0
ELLIPSE
  5
769
100
AcDbEntity
  8
RACCORDO
100
AcDbEllipse
 62
7
  6
CONTINUOUS
 10
153.7396723564
 20
61.4682883866
 30
0.0
 11
0.9733768763
 21
0.0
 31
0.0
 40
0.0087268678
 41
0.7504071881
 42
3.1328660073
  0
ELLIPSE
  5
76A
100
AcDbEntity
  8
RACCORDO
100
AcDbEllipse
 62
7
  6
CONTINUOUS
 10
130.9574723305
 20
61.4682883866
 30
0.0
 11
0.9733768763
 21
0.0
 31
0.0
 40
0.0087268678
 41
0.0087266463
 42
2.3911854655
  0
ELLIPSE
  5
76B
100
AcDbEntity
  8
RACCORDO
100
AcDbEllipse
 62
7
  6
CONTINUOUS
 10
149.4485723434
 20
61.4783627033
 30
0.0
 11
0.8189745326
 21
0.0
 31
0.0
 40
0.0087268678
 41
0.0087266463
 42
3.1328660073
  0
ELLIPSE
  5
76C
100
AcDbEntity
  8
RACCORDO
100
AcDbEllipse
 62
7
  6
CONTINUOUS
 10
135.2485723434
 20
61.4783627033
 30
0.0
 11
0.8189745326
 21
-0.0
 31
0.0
 40
0.0087268678
 41
0.0087266463
 42
3.1328660073
  0
ELLIPSE
  5
76D
100
AcDbEntity
  8
RACCORDO
100
AcDbEllipse
 62
7
  6
CONTINUOUS
 10
135.2485723434
 20
107.0663741388
 30
0.0
 11
0.8189745326
 21
0.0
 31
0.0
 40
0.0087268678
 41
-3.1328660073
 42
-0.0087266463
  0
ELLIPSE
  5
76E
100
AcDbEntity
  8
RACCORDO
100
AcDbEllipse
 62
7
  6
CONTINUOUS
 10
135.2485723434
 20
106.3163741388
 30
0.0
 11
0.8189745326
 21
-0.0
 31
0.0
 40
0.0087268678
 41
-3.1328660073
 42
-0.0087266463
  0
ELLIPSE
  5
76F
100
AcDbEntity
  8
RACCORDO
100
AcDbEllipse
 62
7
  6
CONTINUOUS
 10
149.4485723434
 20
107.0663741388
 30
0.0
 11
0.8189745326
 21
0.0
 31
0.0
 40
0.0087268678
 41
-3.1328660073
 42
-0.0087266463
  0
ELLIPSE
  5
770
100
AcDbEntity
  8
RACCORDO
100
AcDbEllipse
 62
7
  6
CONTINUOUS
 10
149.4485723434
 20
106.3163741388
 30
0.0
 11
0.8189745326
 21
0.0
 31
0.0
 40
0.0087268678
 41
-3.1328660073
 42
-0.0087266463
  0
ELLIPSE
  5
771
100
AcDbEntity
  8
RACCORDO
100
AcDbEllipse
 62
7
  6
CONTINUOUS
 10
136.1468269699
 20
61.1991061789
 30
0.0
 11
-0.0
 21
0.2
 31
0.0
 40
0.0087268678
 41
-1.5707963268
 42
-0.0087266463
  0
ENDSEC
  0
SECTION
  2
OBJECTS
  0
DICTIONARY
  5
C
100
AcDbDictionary
280
0
281
1
  3
ACAD_GROUP
350
D
  3
ACAD_MLINESTYLE
350
17
  3
ACAD_LAYOUT
350
1A
  3
ACAD_PLOTSETTINGS
350
19
  3
ACAD_PLOTSTYLENAME
350
E
  0
DICTIONARY
  5
D
102
{ACAD_REACTORS
330
C
102
}
100
AcDbDictionary
280
0
281
1
  0
ACDBDICTIONARYWDFLT
  5
E
102
{ACAD_REACTORS
330
C
102
}
100
AcDbDictionary
281
1
  3
Normal
350
F
100
AcDbDictionaryWithDefault
340
F
  0
DICTIONARY
  5
17
102
{ACAD_REACTORS
330
C
102
}
100
AcDbDictionary
280
0
281
1
  3
Standard
350
18
  0
DICTIONARY
  5
19
102
{ACAD_REACTORS
330
C
102
}
100
AcDbDictionary
281
1
  0
DICTIONARY
  5
1A
102
{ACAD_REACTORS
330
C
102
}
100
AcDbDictionary
281
1
  3
Model
350
772
  3
Layout1
350
773
  0
ACDBPLACEHOLDER
  5
F
102
{ACAD_REACTORS
330
E
102
}
  0
MLINESTYLE
  5
18
102
{ACAD_REACTORS
330
17
102
}
100
AcDbMlineStyle
  2
STANDARD
 70
0
  3

 62
256
 51
90.0
 52
90.0
 71
2
 49
0.5
 62
256
  6
BYLAYER
 49
-0.5
 62
256
  6
BYLAYER
  0
LAYOUT
  5
772
102
{ACAD_REACTORS
330
1A
102
}
100
AcDbPlotSettings
  1

  2
none_device
  4
ISO_A4_(297.00_x_210.00_MM)
  6

 40
0.0
 41
0.0
 42
0.0
 43
0.0
 44
297.0
 45
210.0
 46
0.0
 47
0.0
 48
0.0
 49
0.0
140
0.0
141
0.0
142
1.0
143
1.0
 70
1024
 72
1
 73
0
 74
0
  7

 75
0
147
1.0
148
0.0
149
0.0
100
AcDbLayout
  1
Model
 70
0
 71
0
 10
0.0
 20
0.0
 11
297.0
 21
210.0
 12
0.0
 22
0.0
 32
0.0
 14
0.0
 24
0.0
 34
0.0
 15
0.0
 25
0.0
 35
0.0
146
0.0
 13
0.0
 23
0.0
 33
0.0
 16
1.0
 26
0.0
 36
0.0
 17
0.0
 27
1.0
 37
0.0
 76
0
330
21B
345
0
346
0
  0
LAYOUT
  5
773
102
{ACAD_REACTORS
330
1A
102
}
100
AcDbPlotSettings
  1

  2
none_device
  4
ISO_A4_(297.00_x_210.00_MM)
  6

 40
0.0
 41
0.0
 42
0.0
 43
0.0
 44
297.0
 45
210.0
 46
0.0
 47
0.0
 48
0.0
 49
0.0
140
0.0
141
0.0
142
1.0
143
1.0
 70
0
 72
1
 73
0
 74
0
  7

 75
0
147
1.0
148
0.0
149
0.0
100
AcDbLayout
  1
Layout1
 70
0
 71
1
 10
0.0
 20
0.0
 11
297.0
 21
210.0
 12
0.0
 22
0.0
 32
0.0
 14
0.0
 24
0.0
 34
0.0
 15
0.0
 25
0.0
 35
0.0
146
0.0
 13
0.0
 23
0.0
 33
0.0
 16
1.0
 26
0.0
 36
0.0
 17
0.0
 27
1.0
 37
0.0
 76
0
330
21C
345
0
346
0
  0
ENDSEC
  0
EOF
