  0
SECTION
  2
HEADER
  9
$ACADVER
  1
AC1024
  9
$DWGCODEPAGE
  3
ANSI_1252
  9
$EXTMAX
 10
297.0
 20
210.0
 30
0.0
  9
$EXTMIN
 10
0.0
 20
0.0
 30
0.0
  9
$LIMMIN
 10
0.0
 20
0.0
  9
$LIMMAX
 10
297.0
 20
210.0
  9
$VIEWCTR
 10
148.5
 20
105.0
  9
$VIEWSIZE
 40
210.0
  9
$CLAYER
  8
0
  9
$LTSCALE
 40
16.335
  9
$CELTYPE
  6
BYLAYER
  9
$DIMSCALE
 40
1.0
  9
$DIMASZ
 40
3.0
  9
$DIMEXO
 40
0.5
  9
$DIMDLI
 40
11.286
  9
$DIMEXE
 40
1.5
  9
$DIMCEN
 40
2.673
  9
$DIMLFAC
 40
1.0
  9
$DIMBLK
  1
_FILLED
  9
$DIMALT
 70
0
  9
$DIMALTF
 40
0.0393700787
  9
$DIMTXT
 40
3.0
  9
$DIMTOL
 70
1
  9
$DIMLIM
 70
0
  9
$DIMTFAC
 40
1.0
  9
$DIMTP
 40
0.01
  9
$DIMTM
 40
0.01
  9
$DIMGAP
 40
0.625
  9
$DIMDSEP
 70
44
  9
$AUNITS
 70
0
  9
$PDMODE
 70
3
  9
$PDSIZE
 40
3.0
  9
$HANDSEED
  5
736
  9
$TILEMODE
 70
1
  9
$MEASUREMENT
 70
1
  9
$INSUNITS
 70
4
  0
ENDSEC
  0
SECTION
  2
CLASSES
  0
CLASS
  1
ACDBDICTIONARYWDFLT
  2
AcDbDictionaryWithDefault
  3
AutoCAD 2000
 90
0
 91
1
280
0
281
0
  0
CLASS
  1
ACDBPLACEHOLDER
  2
AcDbPlaceHolder
  3
AutoCAD 2000
 90
0
 91
1
280
0
281
0
  0
CLASS
  1
LAYOUT
  2
AcDbLayout
  3
AutoCAD 2000
 90
0
 91
0
280
0
281
0
  0
ENDSEC
  0
SECTION
  2
TABLES
  0
TABLE
  2
VPORT
  5
8
100
AcDbSymbolTable
 70
2
  0
VPORT
  5
1F4
100
AcDbSymbolTableRecord
100
AcDbViewportTableRecord
  2
*ACTIVE
 70
0
 10
0.0
 20
0.0
 11
1.0
 21
1.0
 12
148.5
 22
105.0
 13
0.0
 23
0.0
 14
1.0
 24
1.0
 15
0.0
 25
0.0
 16
0.0
 26
0.0
 36
1.0
 17
0.0
 27
0.0
 37
0.0
 40
210.0
 41
1.4142857143
 42
50.0
 43
0.0
 44
0.0
 50
0.0
 51
0.0
 71
0
 72
100
 73
1
 74
1
 75
0
 76
0
 77
0
 78
0
  0
ENDTAB
  0
TABLE
  2
LTYPE
  5
5
100
AcDbSymbolTable
 70
6
  0
LTYPE
  5
14
100
AcDbSymbolTableRecord
100
AcDbLinetypeTableRecord
  2
BYBLOCK
 70
0
  3

 72
65
 73
0
 40
0.0
  0
LTYPE
  5
15
100
AcDbSymbolTableRecord
100
AcDbLinetypeTableRecord
  2
BYLAYER
 70
0
  3

 72
65
 73
0
 40
0.0
  0
LTYPE
  5
16
100
AcDbSymbolTableRecord
100
AcDbLinetypeTableRecord
  2
CONTINUOUS
 70
64
  3
Solid line
 72
65
 73
0
 40
0.0
  0
LTYPE
  5
1F5
100
AcDbSymbolTableRecord
100
AcDbLinetypeTableRecord
  2
CENTER
 70
64
  3
____ _ ____ _ ____ _ ____ _ ____ _ ____ _ ____
 72
65
 73
4
 40
0.6
 49
0.375
 74
0
 49
-0.075
 74
0
 49
0.075
 74
0
 49
-0.075
 74
0
  0
LTYPE
  5
1F6
100
AcDbSymbolTableRecord
100
AcDbLinetypeTableRecord
  2
HIDDEN
 70
64
  3
- - - - - - - - - - - - - - - - - - - -
 72
65
 73
2
 40
0.2
 49
0.1
 74
0
 49
-0.1
 74
0
  0
LTYPE
  5
1F7
100
AcDbSymbolTableRecord
100
AcDbLinetypeTableRecord
  2
PHANTOM
 70
64
  3
_____ _ _ _____ _ _ _____ _ _ _____
 72
65
 73
6
 40
0.8
 49
0.45
 74
0
 49
-0.05
 74
0
 49
0.1
 74
0
 49
-0.05
 74
0
 49
0.1
 74
0
 49
-0.05
 74
0
  0
LTYPE
  5
1F8
100
AcDbSymbolTableRecord
100
AcDbLinetypeTableRecord
  2
DOT
 70
64
  3
. . . . . . . . . . . . . . . . . . . .
 72
65
 73
2
 40
0.2
 49
0.1
 74
0
 49
-0.1
 74
0
  0
LTYPE
  5
1F9
100
AcDbSymbolTableRecord
100
AcDbLinetypeTableRecord
  2
DASHED
 70
64
  3
- - - - - - - - - - - - - - - - - - - -
 72
65
 73
2
 40
0.2
 49
0.1
 74
0
 49
-0.1
 74
0
  0
ENDTAB
  0
TABLE
  2
LAYER
  5
2
100
AcDbSymbolTable
 70
36
  0
LAYER
  5
10
100
AcDbSymbolTableRecord
100
AcDbLayerTableRecord
  2
0
 70
0
 62
7
  6
CONTINUOUS
370
-3
390
F
  0
LAYER
  5
1FA
100
AcDbSymbolTableRecord
100
AcDbLayerTableRecord
  2
DEFAULT_1
 70
0
 62
7
  6
CENTER
370
-3
390
F
  0
LAYER
  5
1FB
100
AcDbSymbolTableRecord
100
AcDbLayerTableRecord
  2
DEFAULT_2
 70
0
 62
7
  6
HIDDEN
370
-3
390
F
  0
LAYER
  5
1FC
100
AcDbSymbolTableRecord
100
AcDbLayerTableRecord
  2
DEFAULT_3
 70
0
 62
7
  6
PHANTOM
370
-3
390
F
  0
LAYER
  5
1FD
100
AcDbSymbolTableRecord
100
AcDbLayerTableRecord
  2
ASSI
 70
0
 62
7
  6
CONTINUOUS
370
-3
390
F
  0
LAYER
  5
1FE
100
AcDbSymbolTableRecord
100
AcDbLayerTableRecord
  2
COORDINATE
 70
0
 62
7
  6
CONTINUOUS
370
-3
390
F
  0
LAYER
  5
1FF
100
AcDbSymbolTableRecord
100
AcDbLayerTableRecord
  2
COORD_ORIGINE
 70
0
 62
7
  6
CONTINUOUS
370
-3
390
F
  0
LAYER
  5
200
100
AcDbSymbolTableRecord
100
AcDbLayerTableRecord
  2
COSMETICHE
 70
0
 62
7
  6
CONTINUOUS
370
-3
390
F
  0
LAYER
  5
201
100
AcDbSymbolTableRecord
100
AcDbLayerTableRecord
  2
COSMETICI
 70
0
 62
7
  6
CONTINUOUS
370
-3
390
F
  0
LAYER
  5
202
100
AcDbSymbolTableRecord
100
AcDbLayerTableRecord
  2
CURVE
 70
0
 62
7
  6
CONTINUOUS
370
-3
390
F
  0
LAYER
  5
203
100
AcDbSymbolTableRecord
100
AcDbLayerTableRecord
  2
DRAFT
 70
0
 62
7
  6
CONTINUOUS
370
-3
390
F
  0
LAYER
  5
204
100
AcDbSymbolTableRecord
100
AcDbLayerTableRecord
  2
IMPORT
 70
0
 62
7
  6
CONTINUOUS
370
-3
390
F
  0
LAYER
  5
205
100
AcDbSymbolTableRecord
100
AcDbLayerTableRecord
  2
INCISIONI
 70
0
 62
7
  6
CONTINUOUS
370
-3
390
F
  0
LAYER
  5
206
100
AcDbSymbolTableRecord
100
AcDbLayerTableRecord
  2
INTF_1
 70
0
 62
7
  6
CONTINUOUS
370
-3
390
F
  0
LAYER
  5
207
100
AcDbSymbolTableRecord
100
AcDbLayerTableRecord
  2
INTF_11
 70
0
 62
7
  6
CONTINUOUS
370
-3
390
F
  0
LAYER
  5
208
100
AcDbSymbolTableRecord
100
AcDbLayerTableRecord
  2
INTF_13
 70
0
 62
7
  6
CONTINUOUS
370
-3
390
F
  0
LAYER
  5
209
100
AcDbSymbolTableRecord
100
AcDbLayerTableRecord
  2
INTF_2
 70
0
 62
7
  6
CONTINUOUS
370
-3
390
F
  0
LAYER
  5
20A
100
AcDbSymbolTableRecord
100
AcDbLayerTableRecord
  2
LAY0001
 70
0
 62
7
  6
CONTINUOUS
370
-3
390
F
  0
LAYER
  5
20B
100
AcDbSymbolTableRecord
100
AcDbLayerTableRecord
  2
NOTE
 70
0
 62
7
  6
CONTINUOUS
370
-3
390
F
  0
LAYER
  5
20C
100
AcDbSymbolTableRecord
100
AcDbLayerTableRecord
  2
PIANI
 70
0
 62
7
  6
CONTINUOUS
370
-3
390
F
  0
LAYER
  5
20D
100
AcDbSymbolTableRecord
100
AcDbLayerTableRecord
  2
PIANI_DI_RIFERIMENTO
 70
0
 62
7
  6
CONTINUOUS
370
-3
390
F
  0
LAYER
  5
20E
100
AcDbSymbolTableRecord
100
AcDbLayerTableRecord
  2
PIANI_ORIGINE
 70
0
 62
7
  6
CONTINUOUS
370
-3
390
F
  0
LAYER
  5
20F
100
AcDbSymbolTableRecord
100
AcDbLayerTableRecord
  2
PUNTI
 70
0
 62
7
  6
CONTINUOUS
370
-3
390
F
  0
LAYER
  5
210
100
AcDbSymbolTableRecord
100
AcDbLayerTableRecord
  2
RACCORDO
 70
0
 62
7
  6
CONTINUOUS
370
-3
390
F
  0
LAYER
  5
211
100
AcDbSymbolTableRecord
100
AcDbLayerTableRecord
  2
RGB__255__255__255__
 70
0
 62
7
  6
CONTINUOUS
370
-3
390
F
  0
LAYER
  5
212
100
AcDbSymbolTableRecord
100
AcDbLayerTableRecord
  2
RIFERIMENTI
 70
0
 62
7
  6
CONTINUOUS
370
-3
390
F
  0
LAYER
  5
213
100
AcDbSymbolTableRecord
100
AcDbLayerTableRecord
  2
SMUSSO
 70
0
 62
7
  6
CONTINUOUS
370
-3
390
F
  0
LAYER
  5
214
100
AcDbSymbolTableRecord
100
AcDbLayerTableRecord
  2
SNAPLINE
 70
0
 62
7
  6
CONTINUOUS
370
-3
390
F
  0
LAYER
  5
215
100
AcDbSymbolTableRecord
100
AcDbLayerTableRecord
  2
SUPERFICI
 70
0
 62
7
  6
CONTINUOUS
370
-3
390
F
  0
LAYER
  5
216
100
AcDbSymbolTableRecord
100
AcDbLayerTableRecord
  2
TRACCIABILITA
 70
0
 62
7
  6
CONTINUOUS
370
-3
390
F
  0
LAYER
  5
217
100
AcDbSymbolTableRecord
100
AcDbLayerTableRecord
  2
TRASH
 70
0
 62
7
  6
CONTINUOUS
370
-3
390
F
  0
LAYER
  5
218
100
AcDbSymbolTableRecord
100
AcDbLayerTableRecord
  2
XSEC_DATUMS
 70
0
 62
7
  6
CONTINUOUS
370
-3
390
F
  0
ENDTAB
  0
TABLE
  2
STYLE
  5
3
100
AcDbSymbolTable
 70
1
  0
STYLE
  5
11
100
AcDbSymbolTableRecord
100
AcDbTextStyleTableRecord
  2
STANDARD
 70
0
 40
0.0
 41
0.8
 50
0.0
 71
0
 42
0.2
  3
txt
  4

  0
STYLE
  5
219
100
AcDbSymbolTableRecord
100
AcDbTextStyleTableRecord
  2
TEXTSTYLE_1
 70
0
 40
0.0
 41
0.8
 50
0.0
 71
0
 42
0.2
  3
gdt
  4

  0
ENDTAB
  0
TABLE
  2
VIEW
  5
6
100
AcDbSymbolTable
 70
0
  0
ENDTAB
  0
TABLE
  2
UCS
  5
7
100
AcDbSymbolTable
 70
0
  0
ENDTAB
  0
TABLE
  2
APPID
  5
9
100
AcDbSymbolTable
 70
1
  0
APPID
  5
21A
100
AcDbSymbolTableRecord
100
AcDbRegAppTableRecord
  2
ACAD
 70
0
  0
ENDTAB
  0
TABLE
  2
BLOCK_RECORD
  5
1
100
AcDbSymbolTable
 70
0
  0
BLOCK_RECORD
  5
21B
100
AcDbSymbolTableRecord
100
AcDbBlockTableRecord
  2
*Model_Space
  0
BLOCK_RECORD
  5
21C
100
AcDbSymbolTableRecord
100
AcDbBlockTableRecord
  2
*Paper_Space
  0
BLOCK_RECORD
  5
21D
100
AcDbSymbolTableRecord
100
AcDbBlockTableRecord
  2
_FILLED
  0
BLOCK_RECORD
  5
21E
100
AcDbSymbolTableRecord
100
AcDbBlockTableRecord
  2
*D0
  0
BLOCK_RECORD
  5
21F
100
AcDbSymbolTableRecord
100
AcDbBlockTableRecord
  2
*D1
  0
BLOCK_RECORD
  5
220
100
AcDbSymbolTableRecord
100
AcDbBlockTableRecord
  2
*D2
  0
BLOCK_RECORD
  5
221
100
AcDbSymbolTableRecord
100
AcDbBlockTableRecord
  2
*D3
  0
ENDTAB
  0
TABLE
  2
DIMSTYLE
  5
A
100
AcDbSymbolTable
 70
1
100
AcDbDimStyleTable
 71
0
  0
DIMSTYLE
105
222
100
AcDbSymbolTableRecord
100
AcDbDimStyleTableRecord
  2
STANDARD
 70
0
  3

  4

 40
1.0
 41
3.0
 42
0.5
 43
0.38
 44
1.5
 45
0.0
 46
0.0
 47
0.01
 48
0.01
140
3.0
141
0.09
142
0.0
143
25.4
144
1.0
145
0.0
146
1.0
147
0.625
 71
1.0
 72
0.0
 73
0
 74
0
 75
0
 76
0
 77
1
 78
8
 79
2
170
0
171
1
172
0
173
0
174
0
175
0
176
0
177
0
178
0
270
2
179
2
271
2
272
2
273
2
274
2
275
0
280
0
281
0
282
0
283
1
284
8
285
0
286
0
287
3
288
0
340
11
278
44
341
21D
342
21D
343
21D
344
21D
  0
DIMSTYLE
105
223
100
AcDbSymbolTableRecord
100
AcDbDimStyleTableRecord
  2
DIMSTYLE_1
 70
0
  3

  4

 40
1.0
 41
3.0
 42
0.5
 43
0.38
 44
1.5
 45
0.0
 46
0.0
 47
0.0
 48
0.0
140
3.0
141
0.09
142
0.0
143
25.4
144
1.0
145
0.0
146
1.0
147
0.75
 71
0.0
 72
0.0
 73
0
 74
0
 75
0
 76
0
 77
1
 78
8
 79
2
170
0
171
1
172
0
173
0
174
0
175
0
176
0
177
0
178
0
270
2
179
2
271
2
272
2
273
2
274
2
275
0
280
0
281
0
282
0
283
1
284
8
285
0
286
0
287
3
288
0
340
11
278
44
341
21D
342
21D
343
21D
344
21D
  0
ENDTAB
  0
ENDSEC
  0
SECTION
  2
BLOCKS
  0
BLOCK
  5
20
100
AcDbEntity
  8
0
100
AcDbBlockBegin
  2
*Model_Space
 70
0
 10
0.0
 20
0.0
 30
0.0
  3
*Model_Space
  1

  0
ENDBLK
  5
21
100
AcDbEntity
  8
0
100
AcDbBlockEnd
  0
BLOCK
  5
1C
100
AcDbEntity
  8
0
100
AcDbBlockBegin
  2
*Paper_Space
 70
0
 10
0.0
 20
0.0
 30
0.0
  3
*Paper_Space
  1

  0
ENDBLK
  5
1D
100
AcDbEntity
  8
0
100
AcDbBlockEnd
  0
BLOCK
  5
224
100
AcDbEntity
  8
0
100
AcDbBlockBegin
  2
_FILLED
 70
64
 10
0.0
 20
0.0
  3
_FILLED
  1

  0
SOLID
  5
225
100
AcDbEntity
  8
0
  6
BYBLOCK
 62
0
100
AcDbTrace
 10
0.0
 20
0.0
 11
-1.0
 21
0.3166666667
 12
-1.0
 22
-0.3166666667
 13
-1.0
 23
-0.3166666667
  0
ENDBLK
  5
226
100
AcDbEntity
  8
0
  6
BYBLOCK
 62
0
100
AcDbBlockEnd
  0
BLOCK
  5
227
100
AcDbEntity
  8
0
100
AcDbBlockBegin
 62
7
  6
CONTINUOUS
  2
*D0
 70
65
 10
0.0
 20
0.0
  3
*D0
  1

  0
LINE
  5
228
100
AcDbEntity
  8
0
100
AcDbLine
 62
7
  6
CONTINUOUS
 10
114.5968742893
 20
69.1465887236
 11
114.5968742893
 21
98.2130913396
  0
LINE
  5
229
100
AcDbEntity
  8
0
100
AcDbLine
 62
7
  6
CONTINUOUS
 10
71.0968742893
 20
54.1607301329
 11
71.0968742893
 21
98.2130913396
  0
LINE
  5
22A
100
AcDbEntity
  8
0
100
AcDbLine
 62
7
  6
CONTINUOUS
 10
114.5968742893
 20
96.7130913396
 11
92.8468742893
 21
96.7130913396
  0
LINE
  5
22B
100
AcDbEntity
  8
0
100
AcDbLine
 62
7
  6
CONTINUOUS
 10
71.0968742893
 20
96.7130913396
 11
92.8468742893
 21
96.7130913396
  0
INSERT
  5
22C
100
AcDbEntity
  8
0
100
AcDbBlockReference
 62
7
  6
CONTINUOUS
  2
_FILLED
 10
114.5968742893
 20
96.7130913396
 41
3.0
 42
3.0
 43
3.0
  0
INSERT
  5
22D
100
AcDbEntity
  8
0
100
AcDbBlockReference
 62
7
  6
CONTINUOUS
  2
_FILLED
 10
71.0968742893
 20
96.7130913396
 41
3.0
 42
3.0
 43
3.0
 50
180.0
  0
ENDBLK
  5
22E
100
AcDbEntity
  8
0
  6
BYBLOCK
 62
0
100
AcDbBlockEnd
  0
BLOCK
  5
22F
100
AcDbEntity
  8
0
100
AcDbBlockBegin
 62
7
  6
CONTINUOUS
  2
*D1
 70
65
 10
0.0
 20
0.0
  3
*D1
  1

  0
LINE
  5
230
100
AcDbEntity
  8
0
100
AcDbLine
 62
7
  6
CONTINUOUS
 10
114.5968742893
 20
69.1465887236
 11
114.5968742893
 21
88.2130913396
  0
LINE
  5
231
100
AcDbEntity
  8
0
100
AcDbLine
 62
7
  6
CONTINUOUS
 10
82.0968742893
 20
78.5130913396
 11
82.0968742893
 21
88.2130913396
  0
LINE
  5
232
100
AcDbEntity
  8
0
100
AcDbLine
 62
7
  6
CONTINUOUS
 10
114.5968742893
 20
86.7130913396
 11
98.3468742893
 21
86.7130913396
  0
LINE
  5
233
100
AcDbEntity
  8
0
100
AcDbLine
 62
7
  6
CONTINUOUS
 10
82.0968742893
 20
86.7130913396
 11
98.3468742893
 21
86.7130913396
  0
INSERT
  5
234
100
AcDbEntity
  8
0
100
AcDbBlockReference
 62
7
  6
CONTINUOUS
  2
_FILLED
 10
114.5968742893
 20
86.7130913396
 41
3.0
 42
3.0
 43
3.0
  0
INSERT
  5
235
100
AcDbEntity
  8
0
100
AcDbBlockReference
 62
7
  6
CONTINUOUS
  2
_FILLED
 10
82.0968742893
 20
86.7130913396
 41
3.0
 42
3.0
 43
3.0
 50
180.0
  0
ENDBLK
  5
236
100
AcDbEntity
  8
0
  6
BYBLOCK
 62
0
100
AcDbBlockEnd
  0
BLOCK
  5
237
100
AcDbEntity
  8
0
100
AcDbBlockBegin
 62
7
  6
CONTINUOUS
  2
*D2
 70
65
 10
0.0
 20
0.0
  3
*D2
  1

  0
LINE
  5
238
100
AcDbEntity
  8
0
100
AcDbLine
 62
7
  6
CONTINUOUS
 10
155.6602935219
 20
77.6607301329
 11
164.9102935234
 21
77.6607301329
  0
LINE
  5
239
100
AcDbEntity
  8
0
100
AcDbLine
 62
7
  6
CONTINUOUS
 10
155.6602935219
 20
29.6607301329
 11
164.9102935234
 21
29.6607301329
  0
LINE
  5
23A
100
AcDbEntity
  8
0
100
AcDbLine
 62
7
  6
CONTINUOUS
 10
163.4102935234
 20
77.6607301329
 11
163.4102935234
 21
53.6607301329
  0
LINE
  5
23B
100
AcDbEntity
  8
0
100
AcDbLine
 62
7
  6
CONTINUOUS
 10
163.4102935234
 20
29.6607301329
 11
163.4102935234
 21
53.6607301329
  0
INSERT
  5
23C
100
AcDbEntity
  8
0
100
AcDbBlockReference
 62
7
  6
CONTINUOUS
  2
_FILLED
 10
163.4102935234
 20
77.6607301329
 41
3.0
 42
3.0
 43
3.0
 50
90.0
  0
INSERT
  5
23D
100
AcDbEntity
  8
0
100
AcDbBlockReference
 62
7
  6
CONTINUOUS
  2
_FILLED
 10
163.4102935234
 20
29.6607301329
 41
3.0
 42
3.0
 43
3.0
 50
270.0
  0
ENDBLK
  5
23E
100
AcDbEntity
  8
0
  6
BYBLOCK
 62
0
100
AcDbBlockEnd
  0
BLOCK
  5
23F
100
AcDbEntity
  8
0
100
AcDbBlockBegin
 62
7
  6
CONTINUOUS
  2
*D3
 70
65
 10
0.0
 20
0.0
  3
*D3
  1

  0
LINE
  5
240
100
AcDbEntity
  8
0
100
AcDbLine
 62
7
  6
CONTINUOUS
 10
130.6102935234
 20
77.9107586895
 11
130.6102935234
 21
88.2130913396
  0
LINE
  5
241
100
AcDbEntity
  8
0
100
AcDbLine
 62
7
  6
CONTINUOUS
 10
155.4102935234
 20
77.9107586895
 11
155.4102935234
 21
88.2130913396
  0
LINE
  5
242
100
AcDbEntity
  8
0
100
AcDbLine
 62
7
  6
CONTINUOUS
 10
130.6102935234
 20
86.7130913396
 11
143.0102935234
 21
86.7130913396
  0
LINE
  5
243
100
AcDbEntity
  8
0
100
AcDbLine
 62
7
  6
CONTINUOUS
 10
155.4102935234
 20
86.7130913396
 11
143.0102935234
 21
86.7130913396
  0
INSERT
  5
244
100
AcDbEntity
  8
0
100
AcDbBlockReference
 62
7
  6
CONTINUOUS
  2
_FILLED
 10
130.6102935234
 20
86.7130913396
 41
3.0
 42
3.0
 43
3.0
 50
180.0
  0
INSERT
  5
245
100
AcDbEntity
  8
0
100
AcDbBlockReference
 62
7
  6
CONTINUOUS
  2
_FILLED
 10
155.4102935234
 20
86.7130913396
 41
3.0
 42
3.0
 43
3.0
  0
ENDBLK
  5
246
100
AcDbEntity
  8
0
  6
BYBLOCK
 62
0
100
AcDbBlockEnd
  0
ENDSEC
  0
SECTION
  2
ENTITIES
  0
DIMENSION
  5
247
100
AcDbEntity
  8
0
100
AcDbDimension
 62
7
  6
CONTINUOUS
  2
*D0
 10
71.0968742893
 20
96.7130913396
 11
88.6683028607
 21
96.7130913396
 70
160
 71
2
 72
2
 41
0.9
 42
43.5
  3
DIMSTYLE_1
100
AcDbAlignedDimension
 13
114.5968742893
 23
68.6465887236
 14
71.0968742893
 24
53.6607301329
 50
180.0
100
AcDbRotatedDimension
  0
DIMENSION
  5
248
100
AcDbEntity
  8
0
100
AcDbDimension
 62
7
  6
CONTINUOUS
  2
*D1
 10
82.0968742893
 20
86.7130913396
 11
94.1683028607
 21
86.7130913396
 70
160
 71
2
 72
2
 41
0.9
 42
32.5
  3
DIMSTYLE_1
100
AcDbAlignedDimension
 13
114.5968742893
 23
68.6465887236
 14
82.0968742893
 24
78.0130913396
 50
180.0
100
AcDbRotatedDimension
  0
DIMENSION
  5
249
100
AcDbEntity
  8
0
100
AcDbDimension
 62
7
  6
CONTINUOUS
  2
*D2
 10
163.4102935234
 20
29.6607301329
 11
163.4102935234
 21
51.3035872757
 70
160
 71
2
 72
2
 41
0.9
 42
48.0
  3
DIMSTYLE_1
100
AcDbAlignedDimension
 13
155.1602935219
 23
77.6607301329
 14
155.1602935219
 24
29.6607301329
 50
270.0
100
AcDbRotatedDimension
  0
DIMENSION
  5
24A
100
AcDbEntity
  8
0
100
AcDbDimension
 62
7
  6
CONTINUOUS
  2
*D3
 10
155.4102935234
 20
86.7130913396
 11
138.6174363805
 21
86.7130913396
 70
160
 71
2
 72
2
 41
0.9
 42
24.8
  3
DIMSTYLE_1
100
AcDbAlignedDimension
 13
130.6102935234
 23
77.4107586895
 14
155.4102935234
 24
77.4107586895
100
AcDbRotatedDimension
  0
LWPOLYLINE
  5
24B
100
AcDbEntity
  8
0
100
AcDbPolyline
 62
7
  6
CONTINUOUS
 90
5
 70
0
 43
0.3500000006
 10
91.882589447
 20
99.1773751831
 10
92.2397272339
 20
99.391659668
 10
92.2397272339
 20
100.0345221863
 10
91.882589447
 20
100.463091156
 10
91.0254424438
 20
100.463091156
  0
LWPOLYLINE
  5
24C
100
AcDbEntity
  8
0
100
AcDbPolyline
 62
7
  6
CONTINUOUS
 90
5
 70
0
 43
0.3500000006
 10
95.0254436646
 20
89.1773811951
 10
95.3825905151
 20
89.3916656799
 10
95.3825905151
 20
90.0345191345
 10
95.0254436646
 20
90.4630881042
 10
94.1683057251
 20
90.4630881042
  0
LINE
  5
24D
100
AcDbEntity
  8
0
100
AcDbLine
 62
7
  6
CONTINUOUS
 10
82.3968742893
 20
28.6083689261
 11
82.9110372732
 21
28.6083689261
  0
LINE
  5
24E
100
AcDbEntity
  8
0
100
AcDbLine
 62
7
  6
CONTINUOUS
 10
82.3968742893
 20
29.0083689261
 11
82.9110372732
 21
29.0083689261
  0
LINE
  5
24F
100
AcDbEntity
  8
RACCORDO
100
AcDbLine
 62
7
  6
CONTINUOUS
 10
91.6143266957
 20
29.8006752852
 11
83.5968742893
 21
29.6607301329
  0
LINE
  5
250
100
AcDbEntity
  8
RACCORDO
100
AcDbLine
 62
250
  6
CONTINUOUS
 10
91.6143266957
 20
30.050637209
 11
83.5968742893
 21
29.9106920567
  0
LINE
  5
251
100
AcDbEntity
  8
0
100
AcDbLine
 62
250
  6
CONTINUOUS
 10
82.0968742893
 20
29.3083689261
 11
81.6968742893
 21
29.3083689261
  0
LINE
  5
252
100
AcDbEntity
  8
0
100
AcDbLine
 62
7
  6
CONTINUOUS
 10
82.0968742893
 20
29.6083689261
 11
81.6968742893
 21
29.6083689261
  0
LINE
  5
253
100
AcDbEntity
  8
RACCORDO
100
AcDbLine
 62
7
  6
CONTINUOUS
 10
79.5968838013
 20
30.4107301329
 11
80.5968742893
 21
30.4107301329
  0
LINE
  5
254
100
AcDbEntity
  8
RACCORDO
100
AcDbLine
 62
250
  6
CONTINUOUS
 10
92.5968742893
 20
30.8005229803
 11
92.3512373909
 21
30.8005229803
  0
LINE
  5
255
100
AcDbEntity
  8
RACCORDO
100
AcDbLine
 62
250
  6
CONTINUOUS
 10
81.5532633966
 20
29.9285358983
 11
80.5968742893
 21
29.9347385382
  0
LINE
  5
256
100
AcDbEntity
  8
RACCORDO
100
AcDbLine
 62
7
  6
CONTINUOUS
 10
83.5968742893
 20
29.6607301329
 11
80.8446927282
 21
29.6847480575
  0
LINE
  5
257
100
AcDbEntity
  8
RACCORDO
100
AcDbLine
 62
250
  6
CONTINUOUS
 10
83.5968742893
 20
29.9107015763
 11
81.5532633966
 21
29.9285358983
  0
LINE
  5
258
100
AcDbEntity
  8
RACCORDO
100
AcDbLine
 62
7
  6
CONTINUOUS
 10
80.9064698105
 20
31.2374428306
 11
76.3446926554
 21
31.2772528567
  0
LWPOLYLINE
  5
259
100
AcDbEntity
  8
ASSI
100
AcDbPolyline
 62
250
  6
CONTINUOUS
 90
19
 70
0
 10
71.7222014243
 20
36.907497045
 10
71.7262815906
 20
36.8548685771
 10
71.7341919618
 20
36.8031564981
 10
71.745932538
 20
36.7523608079
 10
71.761594405
 20
36.702188874
 10
71.7810864769
 20
36.6529333289
 10
71.8041354959
 20
36.6054720702
 10
71.8308277608
 20
36.5598194842
 10
71.8610769729
 20
36.5159611846
 10
71.8943509784
 20
36.4747319093
 10
71.9307292715
 20
36.4361899183
 10
71.970132358
 20
36.4002769517
 10
72.0117896012
 20
36.3676529682
 10
72.0557191675
 20
36.3384102855
 10
72.1019028905
 20
36.3124565859
 10
72.1495156347
 20
36.290174874
 10
72.1982823549
 20
36.2716928181
 10
72.2484780963
 20
36.2568827501
 10
72.3001028589
 20
36.2457446698
  0
LINE
  5
25A
100
AcDbEntity
  8
CURVE
100
AcDbLine
 62
7
  6
CONTINUOUS
 10
71.0988559967
 20
52.3628820924
 11
71.1009550883
 21
51.7983512223
  0
LINE
  5
25B
100
AcDbEntity
  8
CURVE
100
AcDbLine
 62
7
  6
CONTINUOUS
 10
71.0973603722
 20
53.0180528052
 11
71.0988559967
 21
52.3628820924
  0
LINE
  5
25C
100
AcDbEntity
  8
CURVE
100
AcDbLine
 62
7
  6
CONTINUOUS
 10
71.0968743124
 20
53.6562914956
 11
71.0973603722
 21
53.0180528052
  0
LINE
  5
25D
100
AcDbEntity
  8
CURVE
100
AcDbLine
 62
7
  6
CONTINUOUS
 10
71.0973477049
 20
54.2949725633
 11
71.0968743124
 21
53.6562914956
  0
LINE
  5
25E
100
AcDbEntity
  8
CURVE
100
AcDbLine
 62
7
  6
CONTINUOUS
 10
71.0985400723
 20
54.8506359911
 11
71.0973477049
 21
54.2949725633
  0
LINE
  5
25F
100
AcDbEntity
  8
CURVE
100
AcDbLine
 62
7
  6
CONTINUOUS
 10
71.1009651711
 20
55.5254049379
 11
71.0985400723
 21
54.8506359911
  0
LINE
  5
260
100
AcDbEntity
  8
CURVE
100
AcDbLine
 62
7
  6
CONTINUOUS
 10
71.1009653974
 20
55.5254605301
 11
71.1027642958
 21
55.8981028228
  0
LINE
  5
261
100
AcDbEntity
  8
CURVE
100
AcDbLine
 62
7
  6
CONTINUOUS
 10
71.1027488748
 20
55.8951736271
 11
71.1046925543
 21
56.238703047
  0
LINE
  5
262
100
AcDbEntity
  8
CURVE
100
AcDbLine
 62
7
  6
CONTINUOUS
 10
71.1046712606
 20
56.2351885362
 11
71.1066604738
 21
56.5448910459
  0
LINE
  5
263
100
AcDbEntity
  8
CURVE
100
AcDbLine
 62
7
  6
CONTINUOUS
 10
71.1066450336
 20
56.5426140775
 11
71.1090973734
 21
56.883937078
  0
LINE
  5
264
100
AcDbEntity
  8
CURVE
100
AcDbLine
 62
7
  6
CONTINUOUS
 10
71.1156982355
 20
57.6607301329
 11
71.1090896061
 21
56.8829139777
  0
LWPOLYLINE
  5
265
100
AcDbEntity
  8
ASSI
100
AcDbPolyline
 62
250
  6
CONTINUOUS
 90
10
 70
0
 10
71.7222014243
 20
70.4139632208
 10
71.5916105861
 20
66.6918860167
 10
71.493667469
 20
62.9693764509
 10
71.428372073
 20
59.2464345233
 10
71.3957244136
 20
55.5227715788
 10
71.3957244754
 20
51.7986762725
 10
71.428372212
 20
48.0750145695
 10
71.4936676079
 20
44.3520751248
 10
71.5916106787
 20
40.6295692832
 10
71.7222014243
 20
36.907497045
  0
LWPOLYLINE
  5
266
100
AcDbEntity
  8
RACCORDO
100
AcDbPolyline
 62
250
  6
CONTINUOUS
 90
10
 70
0
 10
81.5554448644
 20
77.6429148482
 10
81.5551949067
 20
77.6424897723
 10
81.5549531752
 20
77.6412204098
 10
81.5547204876
 20
77.6391110549
 10
81.5544976312
 20
77.6361688437
 10
81.5542853598
 20
77.6324037297
 10
81.5540843915
 20
77.6278284504
 10
81.5538954063
 20
77.6224584842
 10
81.5537190434
 20
77.6163119977
 10
81.5534065268
 20
77.6017751957
  0
LWPOLYLINE
  5
267
100
AcDbEntity
  8
RACCORDO
100
AcDbPolyline
 62
7
  6
CONTINUOUS
 90
22
 70
0
 10
80.9064698105
 20
31.2374428306
 10
80.9277061658
 20
31.238172574
 10
80.9493352763
 20
31.2399677185
 10
80.9713265994
 20
31.2428282642
 10
80.9936492609
 20
31.2468500171
 10
81.0162744738
 20
31.2519371711
 10
81.0391757344
 20
31.2578023081
 10
81.0623173027
 20
31.2644164607
 10
81.0856786049
 20
31.2718085964
 10
81.1092581407
 20
31.2797781993
 10
81.1330300792
 20
31.2883079776
 10
81.1569699503
 20
31.2974152232
 10
81.1810813903
 20
31.3069512968
 10
81.2053424097
 20
31.3169056712
 10
81.2297297118
 20
31.3272888735
 10
81.2542475107
 20
31.3379838463
 10
81.2788765373
 20
31.3489842665
 10
81.3035947152
 20
31.3602964571
 10
81.3284038975
 20
31.3718223291
 10
81.3532870635
 20
31.3835584455
 10
81.378222842
 20
31.3955082432
 10
81.4282255728
 20
31.4197835764
  0
LWPOLYLINE
  5
268
100
AcDbEntity
  8
RACCORDO
100
AcDbPolyline
 62
7
  6
CONTINUOUS
 90
10
 70
0
 10
107.788385291
 20
32.1207301329
 10
107.8441688057
 20
32.1212707705
 10
107.8987116219
 20
32.1229833395
 10
107.9520137395
 20
32.1258678399
 10
108.0041005937
 20
32.1299140239
 10
108.0549467493
 20
32.1351321392
 10
108.1044759007
 20
32.1415529295
 10
108.1526626124
 20
32.1491866426
 10
108.1995323199
 20
32.1580230307
 10
108.245085023
 20
32.1680620937
  0
LINE
  5
269
100
AcDbEntity
  8
RACCORDO
100
AcDbLine
 62
250
  6
CONTINUOUS
 10
76.3425111876
 20
31.5272433375
 11
76.0968742893
 21
31.5272433375
  0
LINE
  5
26A
100
AcDbEntity
  8
RACCORDO
100
AcDbLine
 62
7
  6
CONTINUOUS
 10
107.1468742893
 20
32.0707301329
 11
105.0468742893
 21
32.0707301329
  0
LINE
  5
26B
100
AcDbEntity
  8
RACCORDO
100
AcDbLine
 62
7
  6
CONTINUOUS
 10
104.3291073363
 20
32.1207301329
 11
102.4468742893
 21
32.1207301329
  0
LINE
  5
26C
100
AcDbEntity
  8
RACCORDO
100
AcDbLine
 62
7
  6
CONTINUOUS
 10
104.4053632875
 20
32.1207301329
 11
109.7468742893
 21
32.1207301329
  0
LINE
  5
26D
100
AcDbEntity
  8
RACCORDO
100
AcDbLine
 62
250
  6
CONTINUOUS
 10
103.9486635555
 20
32.1680620937
 11
102.4468742893
 21
32.1680620937
  0
LINE
  5
26E
100
AcDbEntity
  8
RACCORDO
100
AcDbLine
 62
250
  6
CONTINUOUS
 10
108.245085023
 20
32.1680620937
 11
109.7468742893
 21
32.1680620937
  0
LINE
  5
26F
100
AcDbEntity
  8
INCISIONI
100
AcDbLine
 62
250
  6
CONTINUOUS
 10
90.0971027465
 20
33.1407301543
 11
91.5968742893
 21
33.1407301543
  0
LINE
  5
270
100
AcDbEntity
  8
INCISIONI
100
AcDbLine
 62
250
  6
CONTINUOUS
 10
85.8971636685
 20
33.2687301601
 11
87.7968742893
 21
33.2687301601
  0
LINE
  5
271
100
AcDbEntity
  8
0
100
AcDbLine
 62
7
  6
CONTINUOUS
 10
107.1539930148
 20
33.6207301329
 11
105.0397555637
 21
33.6207301329
  0
LINE
  5
272
100
AcDbEntity
  8
INCISIONI
100
AcDbLine
 62
250
  6
CONTINUOUS
 10
90.8469885179
 20
33.6207301758
 11
91.3826212021
 21
33.6207301758
  0
LINE
  5
273
100
AcDbEntity
  8
RACCORDO
100
AcDbLine
 62
250
  6
CONTINUOUS
 10
76.3425111876
 20
31.5272433375
 11
81.5532633966
 21
31.4817697919
  0
LINE
  5
274
100
AcDbEntity
  8
ASSI
100
AcDbLine
 62
7
  6
CONTINUOUS
 10
72.2532441275
 20
35.9503023439
 11
75.5968742893
 21
35.3607301329
  0
LINE
  5
275
100
AcDbEntity
  8
ASSI
100
AcDbLine
 62
250
  6
CONTINUOUS
 10
72.3001028589
 20
36.2457446698
 11
75.5968742893
 21
35.6644349174
  0
LWPOLYLINE
  5
276
100
AcDbEntity
  8
RACCORDO
100
AcDbPolyline
 62
250
  6
CONTINUOUS
 90
9
 70
0
 10
81.5554448644
 20
29.6785454176
 10
81.5551949069
 20
29.6789704929
 10
81.5549531754
 20
29.6802398538
 10
81.5547204879
 20
29.6823492062
 10
81.5544976315
 20
29.6852914142
 10
81.5542853601
 20
29.6890565244
 10
81.5540843919
 20
29.6936317996
 10
81.5538954067
 20
29.6990017615
 10
81.5537190438
 20
29.7051482437
  0
LINE
  5
277
100
AcDbEntity
  8
RACCORDO
100
AcDbLine
 62
7
  6
CONTINUOUS
 10
111.1056004925
 20
34.8908967348
 11
92.5968742893
 21
34.5678257172
  0
LINE
  5
278
100
AcDbEntity
  8
RACCORDO
100
AcDbLine
 62
250
  6
CONTINUOUS
 10
111.1056004925
 20
35.3908205824
 11
92.3512373909
 21
35.0634619568
  0
LINE
  5
279
100
AcDbEntity
  8
INCISIONI
100
AcDbLine
 62
250
  6
CONTINUOUS
 10
91.3826212021
 20
34.4607300757
 11
90.9541150503
 21
34.4607300757
  0
LINE
  5
27A
100
AcDbEntity
  8
RACCORDO
100
AcDbLine
 62
7
  6
CONTINUOUS
 10
76.0968742893
 20
34.8607301329
 11
82.0968742893
 21
34.8607301329
  0
LINE
  5
27B
100
AcDbEntity
  8
ASSI
100
AcDbLine
 62
7
  6
CONTINUOUS
 10
75.5968742893
 20
35.0607301329
 11
77.5968742893
 21
35.0607301329
  0
LINE
  5
27C
100
AcDbEntity
  8
ASSI
100
AcDbLine
 62
250
  6
CONTINUOUS
 10
75.5968742893
 20
35.3607301329
 11
77.5968742893
 21
35.3607301329
  0
LINE
  5
27D
100
AcDbEntity
  8
RACCORDO
100
AcDbLine
 62
250
  6
CONTINUOUS
 10
111.5968742893
 20
35.3908205824
 11
111.1056004925
 21
35.3908205824
  0
LWPOLYLINE
  5
27E
100
AcDbEntity
  8
0
100
AcDbPolyline
 62
7
  6
CONTINUOUS
 90
16
 70
0
 10
105.0397555637
 20
33.6207301329
 10
104.889269387
 20
33.6417912099
 10
104.7385630173
 20
33.6652027902
 10
104.5876364547
 20
33.6909648737
 10
104.4368292048
 20
33.7190831531
 10
104.285801762
 20
33.7495519358
 10
104.1335356084
 20
33.782354144
 10
103.9801673452
 20
33.8174066797
 10
103.8255603713
 20
33.854792641
 10
103.668286366
 20
33.8947442446
 10
103.5085693611
 20
33.937139336
 10
103.3461853248
 20
33.9821000697
 10
103.1790338411
 20
34.0302251261
 10
103.0064147712
 20
34.0817140655
 10
102.829028254
 20
34.1363673277
 10
102.6468742893
 20
34.1941849127
  0
LWPOLYLINE
  5
27F
100
AcDbEntity
  8
RACCORDO
100
AcDbPolyline
 62
7
  6
CONTINUOUS
 90
10
 70
0
 10
103.9486635555
 20
32.1680620937
 10
103.9942162586
 20
32.1580230307
 10
104.0410859661
 20
32.1491866426
 10
104.0892726779
 20
32.1415529295
 10
104.1388018292
 20
32.1351321392
 10
104.1896479848
 20
32.1299140239
 10
104.241734839
 20
32.1258678399
 10
104.2950369566
 20
32.1229833395
 10
104.3495797728
 20
32.1212707705
 10
104.4053632875
 20
32.1207301329
  0
LWPOLYLINE
  5
280
100
AcDbEntity
  8
RACCORDO
100
AcDbPolyline
 62
7
  6
CONTINUOUS
 90
10
 70
0
 10
103.9486635555
 20
32.1680620937
 10
103.8133749683
 20
32.2010169218
 10
103.6760871372
 20
32.2358960649
 10
103.5368000622
 20
32.2726995229
 10
103.3959663063
 20
32.311300972
 10
103.2531333064
 20
32.3518267359
 10
103.1069433736
 20
32.3946557866
 10
102.956943945
 20
32.4399144478
 10
102.8035875836
 20
32.4874763956
 10
102.6468742893
 20
32.5373416302
  0
LINE
  5
281
100
AcDbEntity
  8
INCISIONI
100
AcDbLine
 62
250
  6
CONTINUOUS
 10
91.5968742893
 20
34.940730047
 11
90.0971027465
 21
35.4207302187
  0
LINE
  5
282
100
AcDbEntity
  8
INCISIONI
100
AcDbLine
 62
250
  6
CONTINUOUS
 10
90.4184823884
 20
33.8607301615
 11
90.8469885179
 21
33.6207301758
  0
LWPOLYLINE
  5
283
100
AcDbEntity
  8
0
100
AcDbPolyline
 62
7
  6
CONTINUOUS
 90
24
 70
0
 10
80.3622598828
 20
37.2339246099
 10
80.3651569328
 20
37.231821563
 10
80.3681350985
 20
37.2294003335
 10
80.3664496385
 20
37.2311455403
 10
80.3614920335
 20
37.2369444674
 10
80.3537347933
 20
37.2472527799
 10
80.3434180553
 20
37.2626726117
 10
80.3312898181
 20
37.2828403433
 10
80.3175879845
 20
37.3079306039
 10
80.3024606107
 20
37.3381964452
 10
80.2863272532
 20
37.3732179006
 10
80.2693132614
 20
37.4130326929
 10
80.2514765708
 20
37.4577894336
 10
80.23302966
 20
37.5071847455
 10
80.2140358286
 20
37.5612185089
 10
80.1945187352
 20
37.619976204
 10
80.1745807096
 20
37.6832731519
 10
80.1542533539
 20
37.7510990279
 10
80.1335489388
 20
37.823489846
 10
80.112517149
 20
37.9003299418
 10
80.0911727928
 20
37.9816027447
 10
80.0695247114
 20
38.0673002576
 10
80.0476020659
 20
38.157316763
 10
80.0425802604
 20
38.1786576853
  0
LINE
  5
284
100
AcDbEntity
  8
INCISIONI
100
AcDbLine
 62
250
  6
CONTINUOUS
 10
86.4399380992
 20
32.6607301329
 11
85.8971636685
 21
33.2687301601
  0
LWPOLYLINE
  5
285
100
AcDbEntity
  8
RACCORDO
100
AcDbPolyline
 62
250
  6
CONTINUOUS
 90
10
 70
0
 10
76.3429506111
 20
31.3044850494
 10
76.3431076613
 20
31.298851886
 10
76.3432750315
 20
31.2938449165
 10
76.3434522672
 20
31.2894776891
 10
76.3436389249
 20
31.2857614309
 10
76.3438344547
 20
31.2827073649
 10
76.3440381896
 20
31.280325156
 10
76.3442495112
 20
31.2786203448
 10
76.3444678696
 20
31.2775957412
 10
76.3446926554
 20
31.2772528567
  0
LINE
  5
286
100
AcDbEntity
  8
RACCORDO
100
AcDbLine
 62
250
  6
CONTINUOUS
 10
76.3426691613
 20
31.3175670242
 11
76.3429506111
 21
31.3044850494
  0
LINE
  5
287
100
AcDbEntity
  8
RACCORDO
100
AcDbLine
 62
250
  6
CONTINUOUS
 10
76.3424337926
 20
31.3329468098
 11
76.3426691613
 21
31.3175670242
  0
LINE
  5
288
100
AcDbEntity
  8
RACCORDO
100
AcDbLine
 62
250
  6
CONTINUOUS
 10
76.3421726417
 20
31.3599495806
 11
76.3424337926
 21
31.3329468098
  0
LINE
  5
289
100
AcDbEntity
  8
RACCORDO
100
AcDbLine
 62
250
  6
CONTINUOUS
 10
76.3420625893
 20
31.3802861871
 11
76.3421726417
 21
31.3599495806
  0
LINE
  5
28A
100
AcDbEntity
  8
ASSI
100
AcDbLine
 62
7
  6
CONTINUOUS
 10
75.5968742893
 20
35.0607301329
 11
75.5968742893
 21
35.6644349174
  0
LINE
  5
28B
100
AcDbEntity
  8
ASSI
100
AcDbLine
 62
7
  6
CONTINUOUS
 10
75.5968742893
 20
71.6570253484
 11
75.5968742893
 21
72.2607301329
  0
LINE
  5
28C
100
AcDbEntity
  8
RACCORDO
100
AcDbLine
 62
7
  6
CONTINUOUS
 10
76.0968742893
 20
75.7942169283
 11
76.0968742893
 21
72.4607301329
  0
LINE
  5
28D
100
AcDbEntity
  8
RACCORDO
100
AcDbLine
 62
7
  6
CONTINUOUS
 10
76.0968742893
 20
34.8607301329
 11
76.0968742893
 21
31.5272433375
  0
LINE
  5
28E
100
AcDbEntity
  8
RACCORDO
100
AcDbLine
 62
250
  6
CONTINUOUS
 10
76.3420625893
 20
75.9411740786
 11
76.3422470867
 21
75.9710045883
  0
LINE
  5
28F
100
AcDbEntity
  8
RACCORDO
100
AcDbLine
 62
250
  6
CONTINUOUS
 10
76.3422470867
 20
75.9710045883
 11
76.3425455423
 21
75.9964805438
  0
LWPOLYLINE
  5
290
100
AcDbEntity
  8
RACCORDO
100
AcDbPolyline
 62
250
  6
CONTINUOUS
 90
12
 70
0
 10
76.3425455423
 20
75.9964805438
 10
76.3428043093
 20
76.0107311122
 10
76.3429506111
 20
76.0169752163
 10
76.3431076613
 20
76.0226083797
 10
76.3432750315
 20
76.0276153493
 10
76.3434522672
 20
76.0319825766
 10
76.3436389249
 20
76.0356988349
 10
76.3438344547
 20
76.0387529009
 10
76.3440381896
 20
76.0411351098
 10
76.3442495112
 20
76.042839921
 10
76.3444678696
 20
76.0438645245
 10
76.3446926554
 20
76.044207409
  0
LWPOLYLINE
  5
291
100
AcDbEntity
  8
ASSI
100
AcDbPolyline
 62
250
  6
CONTINUOUS
 90
7
 70
0
 10
72.2648613165
 20
36.037151238
 10
72.2608831425
 20
36.0116717576
 10
72.2576626853
 20
35.9901819123
 10
72.2552548351
 20
35.9730479841
 10
72.2537006318
 20
35.9605620107
 10
72.2530265663
 20
35.9529368083
 10
72.2532441275
 20
35.9503023439
  0
LINE
  5
292
100
AcDbEntity
  8
ASSI
100
AcDbLine
 62
250
  6
CONTINUOUS
 10
72.2748078339
 20
36.0982813742
 11
72.2648613165
 21
36.037151238
  0
LINE
  5
293
100
AcDbEntity
  8
ASSI
100
AcDbLine
 62
250
  6
CONTINUOUS
 10
72.2868269968
 20
36.1694223709
 11
72.2748078339
 21
36.0982813742
  0
LINE
  5
294
100
AcDbEntity
  8
ASSI
100
AcDbLine
 62
250
  6
CONTINUOUS
 10
72.3001028589
 20
36.2457446698
 11
72.2868269968
 21
36.1694223709
  0
LWPOLYLINE
  5
295
100
AcDbEntity
  8
0
100
AcDbPolyline
 62
7
  6
CONTINUOUS
 90
14
 70
0
 10
78.0384504977
 20
69.125312805
 10
78.0482872735
 20
69.1670049083
 10
78.068145838
 20
69.2485926533
 10
78.0878374896
 20
69.3268655454
 10
78.107350752
 20
69.4017578655
 10
78.1266691403
 20
69.4731959118
 10
78.1457966633
 20
69.541190119
 10
78.1647072595
 20
69.6056509809
 10
78.1833291828
 20
69.6663607763
 10
78.2016515211
 20
69.7233308486
 10
78.219645561
 20
69.7765283936
 10
78.237193284
 20
69.8256939183
 10
78.2542716302
 20
69.8708826002
 10
78.270732622
 20
69.9118506619
  0
LINE
  5
296
100
AcDbEntity
  8
0
100
AcDbLine
 62
250
  6
CONTINUOUS
 10
83.0037423715
 20
78.2984082945
 11
83.1273491693
 21
78.678830901
  0
LWPOLYLINE
  5
297
100
AcDbEntity
  8
RACCORDO
100
AcDbPolyline
 62
7
  6
CONTINUOUS
 90
10
 70
0
 10
102.6468742893
 20
74.7841186356
 10
102.8035954856
 20
74.8339862872
 10
102.9569580527
 20
74.8815500798
 10
103.1069619904
 20
74.9268100133
 10
103.2531551081
 20
74.9696398065
 10
103.3959895964
 20
75.0101657406
 10
103.536822028
 20
75.0487666598
 10
103.6761045939
 20
75.0855688455
 10
103.813385103
 20
75.1204460162
 10
103.9486635555
 20
75.1533981721
  0
LWPOLYLINE
  5
298
100
AcDbEntity
  8
0
100
AcDbPolyline
 62
7
  6
CONTINUOUS
 90
19
 70
0
 10
102.6468742893
 20
74.7841186356
 10
102.6289320885
 20
74.778577772
 10
102.6112765731
 20
74.773681383
 10
102.5940427067
 20
74.7694294685
 10
102.5773766793
 20
74.7658175298
 10
102.5613735681
 20
74.7628500658
 10
102.5460839905
 20
74.7605405726
 10
102.5316166971
 20
74.7588930943
 10
102.5180628232
 20
74.7579035868
 10
102.5054527132
 20
74.7575734154
 10
102.4938789328
 20
74.7579034763
 10
102.4834258673
 20
74.7588928732
 10
102.4741291715
 20
74.7605402826
 10
102.4660725512
 20
74.7628497716
 10
102.4593379555
 20
74.7658172732
 10
102.4539786427
 20
74.7694292629
 10
102.4500678738
 20
74.7736812324
 10
102.447680742
 20
74.77857769
 10
102.4468742893
 20
74.7841186356
  0
LINE
  5
299
100
AcDbEntity
  8
ASSI
100
AcDbLine
 62
250
  6
CONTINUOUS
 10
71.4302008121
 20
36.8957894566
 11
71.4276941712
 21
36.8956638111
  0
LINE
  5
29A
100
AcDbEntity
  8
ASSI
100
AcDbLine
 62
250
  6
CONTINUOUS
 10
71.6456492089
 20
36.9044671138
 11
71.4302008121
 21
36.8957894566
  0
LINE
  5
29B
100
AcDbEntity
  8
ASSI
100
AcDbLine
 62
250
  6
CONTINUOUS
 10
71.7222014243
 20
36.907497045
 11
71.6456492089
 21
36.9044671138
  0
LWPOLYLINE
  5
29C
100
AcDbEntity
  8
0
100
AcDbPolyline
 62
7
  6
CONTINUOUS
 90
29
 70
0
 10
80.2701321169
 20
36.6607322514
 10
80.2866519644
 20
36.6610586308
 10
80.3353276666
 20
36.6660916427
 10
80.3835929101
 20
36.677112552
 10
80.4318282978
 20
36.6943684996
 10
80.4786918354
 20
36.7176019073
 10
80.5216028968
 20
36.7451456955
 10
80.559990915
 20
36.7755974637
 10
80.5951332654
 20
36.8089991702
 10
80.627740687
 20
36.845320443
 10
80.6581736599
 20
36.8842971817
 10
80.6868114599
 20
36.9258238529
 10
80.7141975881
 20
36.9702406554
 10
80.7405297076
 20
37.0175304595
 10
80.7660232304
 20
37.0677818028
 10
80.7910525905
 20
37.1215333337
 10
80.8157467202
 20
37.1789495317
 10
80.8401767274
 20
37.2400985434
 10
80.8645181595
 20
37.3053569292
 10
80.8888406066
 20
37.3748869105
 10
80.9131711225
 20
37.4487438884
 10
80.9375668128
 20
37.527080989
 10
80.9620630204
 20
37.6099969874
 10
80.9866737604
 20
37.6975199906
 10
81.011398253
 20
37.7896149335
 10
81.0362414186
 20
37.8862533918
 10
81.0612251145
 20
37.9874653881
 10
81.0863609346
 20
38.0932363841
 10
81.1038284892
 20
38.1693963123
  0
LWPOLYLINE
  5
29D
100
AcDbEntity
  8
0
100
AcDbPolyline
 62
7
  6
CONTINUOUS
 90
38
 70
0
 10
81.6468685077
 20
36.6607301402
 10
81.652353829
 20
36.6607825137
 10
81.681365108
 20
36.662788611
 10
81.7092836858
 20
36.6674545722
 10
81.7358889098
 20
36.6744517796
 10
81.7610413985
 20
36.6834836196
 10
81.7846756611
 20
36.694303045
 10
81.8067430265
 20
36.7066994423
 10
81.8271156597
 20
36.7204252837
 10
81.8456661988
 20
36.7352026408
 10
81.8624588889
 20
36.7508909518
 10
81.8774557771
 20
36.7672363467
 10
81.8905249974
 20
36.7837164836
 10
81.9018382735
 20
36.8001012702
 10
81.9115635479
 20
36.8162001481
 10
81.91969524
 20
36.8315159265
 10
81.9263682854
 20
36.8457314358
 10
81.9318777843
 20
36.8589253801
 10
81.9364687148
 20
36.8712196384
 10
81.9402551978
 20
36.8824927518
 10
81.9433932061
 20
36.8928054477
 10
81.9461036298
 20
36.9025786273
 10
81.9484575869
 20
36.9118452592
 10
81.9505010334
 20
36.9205764406
 10
81.9523487163
 20
36.9291009159
 10
81.9540327991
 20
36.9374560049
 10
81.9555692621
 20
36.9456166328
 10
81.9570165383
 20
36.9538143447
 10
81.958391013
 20
36.9620923689
 10
81.9596965256
 20
36.9704271681
 10
81.9609593901
 20
36.9789502915
 10
81.9621871758
 20
36.9876900253
 10
81.9633819656
 20
36.9966398768
 10
81.9645564481
 20
37.0058787374
 10
81.9657144166
 20
37.015427052
 10
81.9668571205
 20
37.0252865514
 10
81.967991013
 20
37.0355070763
 10
81.9702391121
 20
37.0570833204
  0
LINE
  5
29E
100
AcDbEntity
  8
ASSI
100
AcDbLine
 62
7
  6
CONTINUOUS
 10
78.4897675081
 20
35.9607301329
 11
77.5968742893
 21
35.9607301329
  0
LINE
  5
29F
100
AcDbEntity
  8
ASSI
100
AcDbLine
 62
7
  6
CONTINUOUS
 10
111.5968742893
 20
36.6607301329
 11
111.7968742893
 21
36.6607301329
  0
LINE
  5
2A0
100
AcDbEntity
  8
ASSI
100
AcDbLine
 62
7
  6
CONTINUOUS
 10
111.5968742893
 20
37.2207581329
 11
111.7968742893
 21
37.2207581329
  0
LINE
  5
2A1
100
AcDbEntity
  8
INCISIONI
100
AcDbLine
 62
250
  6
CONTINUOUS
 10
86.0129160982
 20
37.7607301329
 11
85.213037942
 21
37.7607301329
  0
LINE
  5
2A2
100
AcDbEntity
  8
ASSI
100
AcDbLine
 62
7
  6
CONTINUOUS
 10
111.5968742893
 20
37.8397821329
 11
111.7968742893
 21
37.8397821329
  0
LINE
  5
2A3
100
AcDbEntity
  8
RACCORDO
100
AcDbLine
 62
7
  6
CONTINUOUS
 10
77.5968742893
 20
38.2000010379
 11
82.0968742893
 21
38.1607301329
  0
LWPOLYLINE
  5
2A4
100
AcDbEntity
  8
0
100
AcDbPolyline
 62
7
  6
CONTINUOUS
 90
19
 70
0
 10
102.6468742893
 20
32.5373416302
 10
102.6289318608
 20
32.5428825758
 10
102.6112760475
 20
32.5477790333
 10
102.5940418225
 20
32.5520310029
 10
102.5773751993
 20
32.5556429925
 10
102.5613714734
 20
32.5586104941
 10
102.5460818079
 20
32.5609199832
 10
102.5316153922
 20
32.5625673926
 10
102.5180627179
 20
32.5635567895
 10
102.5054531528
 20
32.5638868503
 10
102.4938788442
 20
32.5635566789
 10
102.4834249471
 20
32.5625671715
 10
102.4741278981
 20
32.5609196931
 10
102.4660715606
 20
32.5586102
 10
102.459337407
 20
32.5556427359
 10
102.4539784005
 20
32.5520307973
 10
102.4500677787
 20
32.5477788828
 10
102.4476807215
 20
32.5428824938
 10
102.4468742893
 20
32.5373416302
  0
LINE
  5
2A5
100
AcDbEntity
  8
0
100
AcDbLine
 62
250
  6
CONTINUOUS
 10
83.0037423715
 20
29.0230519712
 11
83.1273491693
 21
28.6426293647
  0
LINE
  5
2A6
100
AcDbEntity
  8
ASSI
100
AcDbLine
 62
250
  6
CONTINUOUS
 10
72.3001028589
 20
71.0757155959
 11
72.2868276238
 21
71.1520342763
  0
LINE
  5
2A7
100
AcDbEntity
  8
ASSI
100
AcDbLine
 62
250
  6
CONTINUOUS
 10
72.2868276238
 20
71.1520342763
 11
72.2748086901
 21
71.2231737945
  0
LWPOLYLINE
  5
2A8
100
AcDbEntity
  8
ASSI
100
AcDbPolyline
 62
250
  6
CONTINUOUS
 90
8
 70
0
 10
72.2748086901
 20
71.2231737945
 10
72.2648620482
 20
71.2843044815
 10
72.2608837186
 20
71.3097848133
 10
72.2576630811
 20
71.3312756941
 10
72.2552550632
 20
71.3484106264
 10
72.2537007272
 20
71.3608974427
 10
72.2530265801
 20
71.3685232345
 10
72.25324413
 20
71.3711579223
  0
LINE
  5
2A9
100
AcDbEntity
  8
RACCORDO
100
AcDbLine
 62
250
  6
CONTINUOUS
 10
76.3425111876
 20
75.7942169283
 11
76.3420953471
 21
75.8589274248
  0
LINE
  5
2AA
100
AcDbEntity
  8
RACCORDO
100
AcDbLine
 62
250
  6
CONTINUOUS
 10
76.3425111876
 20
75.7942169283
 11
76.3425111876
 21
72.4607301329
  0
LINE
  5
2AB
100
AcDbEntity
  8
RACCORDO
100
AcDbLine
 62
250
  6
CONTINUOUS
 10
76.3425111876
 20
34.8607301329
 11
76.3425111876
 21
31.5272433375
  0
LINE
  5
2AC
100
AcDbEntity
  8
ASSI
100
AcDbLine
 62
7
  6
CONTINUOUS
 10
77.5968742893
 20
34.8607301329
 11
77.5968742893
 21
72.4607301329
  0
LINE
  5
2AD
100
AcDbEntity
  8
RACCORDO
100
AcDbLine
 62
250
  6
CONTINUOUS
 10
76.3420013055
 20
31.425550557
 11
76.3420625893
 21
31.3802861871
  0
LINE
  5
2AE
100
AcDbEntity
  8
RACCORDO
100
AcDbLine
 62
250
  6
CONTINUOUS
 10
76.3420953471
 20
75.8589274248
 11
76.3420052677
 21
75.9192269251
  0
LINE
  5
2AF
100
AcDbEntity
  8
RACCORDO
100
AcDbLine
 62
250
  6
CONTINUOUS
 10
76.3420052677
 20
75.9192269251
 11
76.3420625893
 21
75.9411740786
  0
LINE
  5
2B0
100
AcDbEntity
  8
RACCORDO
100
AcDbLine
 62
250
  6
CONTINUOUS
 10
76.3422236964
 20
31.488131264
 11
76.3420013055
 21
31.425550557
  0
LINE
  5
2B1
100
AcDbEntity
  8
RACCORDO
100
AcDbLine
 62
250
  6
CONTINUOUS
 10
76.3425111876
 20
31.5272433375
 11
76.3422236964
 21
31.488131264
  0
LINE
  5
2B2
100
AcDbEntity
  8
INCISIONI
100
AcDbLine
 62
250
  6
CONTINUOUS
 10
90.4685508838
 20
69.6767302778
 11
90.7399380992
 21
69.8287302054
  0
LINE
  5
2B3
100
AcDbEntity
  8
INCISIONI
100
AcDbLine
 62
250
  6
CONTINUOUS
 10
91.8254870456
 20
68.9167301329
 11
91.5540998019
 21
68.7647302054
  0
LWPOLYLINE
  5
2B4
100
AcDbEntity
  8
0
100
AcDbPolyline
 62
7
  6
CONTINUOUS
 90
16
 70
0
 10
102.6468742893
 20
73.127275353
 10
102.8291305111
 20
73.1851242546
 10
103.006603153
 20
73.2398027433
 10
103.1792922148
 20
73.2913108189
 10
103.346496831
 20
73.3394482841
 10
103.5089178671
 20
73.3844153364
 10
103.66865792
 20
73.426812568
 10
103.8259413428
 20
73.4667621728
 10
103.9805437823
 20
73.5041419569
 10
104.1338947756
 20
73.539185931
 10
104.2861309786
 20
73.5719771229
 10
104.4371157355
 20
73.6024325049
 10
104.5878686154
 20
73.6305370041
 10
104.738729475
 20
73.6562855964
 10
104.8893584578
 20
73.679683306
 10
105.0397555637
 20
73.7007301329
  0
LINE
  5
2B5
100
AcDbEntity
  8
RACCORDO
100
AcDbLine
 62
7
  6
CONTINUOUS
 10
111.7968742893
 20
38.36177734
 11
114.2984450784
 21
38.3748756537
  0
LINE
  5
2B6
100
AcDbEntity
  8
ASSI
100
AcDbLine
 62
7
  6
CONTINUOUS
 10
111.5968742893
 20
38.4587991329
 11
111.7968742893
 21
38.4587991329
  0
LINE
  5
2B7
100
AcDbEntity
  8
INCISIONI
100
AcDbLine
 62
250
  6
CONTINUOUS
 10
86.8970113636
 20
38.7607301329
 11
85.8971636685
 21
38.7607301329
  0
LINE
  5
2B8
100
AcDbEntity
  8
INCISIONI
100
AcDbLine
 62
250
  6
CONTINUOUS
 10
85.7129617896
 20
38.7607301329
 11
85.213037942
 21
38.7607301329
  0
LINE
  5
2B9
100
AcDbEntity
  8
ASSI
100
AcDbLine
 62
7
  6
CONTINUOUS
 10
111.5968742893
 20
39.0188271329
 11
111.7968742893
 21
39.0188271329
  0
LINE
  5
2BA
100
AcDbEntity
  8
ASSI
100
AcDbLine
 62
7
  6
CONTINUOUS
 10
111.5968742893
 20
39.3921721329
 11
111.7968742893
 21
39.3921721329
  0
LINE
  5
2BB
100
AcDbEntity
  8
INCISIONI
100
AcDbLine
 62
250
  6
CONTINUOUS
 10
90.525608876
 20
39.5007301329
 11
90.3113558113
 21
39.5007301329
  0
LINE
  5
2BC
100
AcDbEntity
  8
INCISIONI
100
AcDbLine
 62
250
  6
CONTINUOUS
 10
85.213037942
 20
39.7607301329
 11
86.0129160982
 21
39.7607301329
  0
LINE
  5
2BD
100
AcDbEntity
  8
ASSI
100
AcDbLine
 62
7
  6
CONTINUOUS
 10
111.5968742893
 20
39.9521931329
 11
111.7968742893
 21
39.9521931329
  0
LINE
  5
2BE
100
AcDbEntity
  8
INCISIONI
100
AcDbLine
 62
250
  6
CONTINUOUS
 10
90.7398619408
 20
39.9807301043
 11
90.0971027465
 21
39.9807301043
  0
LINE
  5
2BF
100
AcDbEntity
  8
0
100
AcDbLine
 62
250
  6
CONTINUOUS
 10
111.5968742893
 20
40.3000531329
 11
111.7968742893
 21
40.3000531329
  0
LINE
  5
2C0
100
AcDbEntity
  8
RACCORDO
100
AcDbLine
 62
250
  6
CONTINUOUS
 10
77.5968742893
 20
39.199962961
 11
82.0968742893
 21
39.1606920559
  0
LWPOLYLINE
  5
2C1
100
AcDbEntity
  8
0
100
AcDbPolyline
 62
7
  6
CONTINUOUS
 90
19
 70
0
 10
102.6468742893
 20
34.1941849127
 10
102.6289318608
 20
34.1997258583
 10
102.6112760475
 20
34.2046223159
 10
102.5940418226
 20
34.2088742854
 10
102.5773751984
 20
34.2124862751
 10
102.5613714716
 20
34.2154537767
 10
102.5460818079
 20
34.2177632657
 10
102.5316153995
 20
34.2194106752
 10
102.5180627339
 20
34.220400072
 10
102.5054531718
 20
34.2207301329
 10
102.4938788576
 20
34.2203999615
 10
102.4834249522
 20
34.219410454
 10
102.4741278979
 20
34.2177629756
 10
102.4660715597
 20
34.2154534825
 10
102.4593374066
 20
34.2124860185
 10
102.4539784005
 20
34.2088740798
 10
102.4500677787
 20
34.2046221653
 10
102.4476807215
 20
34.1997257763
 10
102.4468742893
 20
34.1941849127
  0
LINE
  5
2C2
100
AcDbEntity
  8
INCISIONI
100
AcDbLine
 62
250
  6
CONTINUOUS
 10
90.525608876
 20
32.6607301329
 11
90.0971027465
 21
33.1407301543
  0
LINE
  5
2C3
100
AcDbEntity
  8
INCISIONI
100
AcDbLine
 62
250
  6
CONTINUOUS
 10
90.0971027465
 20
34.22073009
 11
90.4184823884
 21
33.8607301615
  0
LWPOLYLINE
  5
2C4
100
AcDbEntity
  8
0
100
AcDbPolyline
 62
7
  6
CONTINUOUS
 90
30
 70
0
 10
79.4344217048
 20
38.1839650046
 10
79.4520591551
 20
38.1067830069
 10
79.4762780502
 20
38.0043334096
 10
79.5003394061
 20
37.9061651564
 10
79.5242455672
 20
37.8123162202
 10
79.5479980993
 20
37.7228158431
 10
79.5716054475
 20
37.6376567109
 10
79.5950858821
 20
37.5567903408
 10
79.6184684322
 20
37.4801319033
 10
79.6417670244
 20
37.4076471573
 10
79.665016681
 20
37.3392355117
 10
79.6883035896
 20
37.2746658158
 10
79.7116569813
 20
37.2138906149
 10
79.7351429272
 20
37.1567750743
 10
79.7589563331
 20
37.1029248037
 10
79.7831887091
 20
37.0522571674
 10
79.8079454194
 20
37.0046916379
 10
79.8335462305
 20
36.9598194434
 10
79.8601811249
 20
36.9175909468
 10
79.8880488064
 20
36.8780105508
 10
79.9176584371
 20
36.8407780888
 10
79.9493163139
 20
36.8060508013
 10
79.9833910137
 20
36.7740288568
 10
80.0206782029
 20
36.7446392151
 10
80.0623735969
 20
36.7178920308
 10
80.1079644323
 20
36.6951311649
 10
80.1552561952
 20
36.6779177891
 10
80.2030939431
 20
36.6666269569
 10
80.2517749876
 20
36.66120032
 10
80.2713870207
 20
36.6607319076
  0
LWPOLYLINE
  5
2C5
100
AcDbEntity
  8
0
100
AcDbPolyline
 62
7
  6
CONTINUOUS
 90
16
 70
0
 10
81.9285042171
 20
37.0498952528
 10
81.9285725959
 20
37.0495917902
 10
81.9286925813
 20
37.0490376449
 10
81.9286314472
 20
37.0493435611
 10
81.9284533398
 20
37.0502885068
 10
81.9281763513
 20
37.0518445777
 10
81.9278046691
 20
37.054052846
 10
81.9273682335
 20
37.0567892737
 10
81.9268753733
 20
37.0600412505
 10
81.926328128
 20
37.0638334235
 10
81.9257410924
 20
37.0680974193
 10
81.9251183891
 20
37.0728290435
 10
81.9244612929
 20
37.0780435566
 10
81.9237775049
 20
37.0837018294
 10
81.9230692208
 20
37.0898039432
 10
81.9223372618
 20
37.0963606036
  0
LINE
  5
2C6
100
AcDbEntity
  8
0
100
AcDbLine
 62
7
  6
CONTINUOUS
 10
81.9223372618
 20
37.0963606036
 11
81.9208166405
 21
37.1107708132
  0
LINE
  5
2C7
100
AcDbEntity
  8
0
100
AcDbLine
 62
7
  6
CONTINUOUS
 10
81.3235517375
 20
37.0566614717
 11
81.3257158463
 21
37.0358916462
  0
LINE
  5
2C8
100
AcDbEntity
  8
0
100
AcDbLine
 62
7
  6
CONTINUOUS
 10
81.9208166405
 20
37.1107708132
 11
81.9192279788
 21
37.126927774
  0
LINE
  5
2C9
100
AcDbEntity
  8
0
100
AcDbLine
 62
7
  6
CONTINUOUS
 10
81.321404875
 20
37.078893111
 11
81.3235517375
 21
37.0566614717
  0
LINE
  5
2CA
100
AcDbEntity
  8
0
100
AcDbLine
 62
7
  6
CONTINUOUS
 10
81.9192279788
 20
37.126927774
 11
81.9175822748
 21
37.1448163072
  0
LINE
  5
2CB
100
AcDbEntity
  8
0
100
AcDbLine
 62
7
  6
CONTINUOUS
 10
81.3192648925
 20
37.1026917438
 11
81.321404875
 21
37.078893111
  0
LINE
  5
2CC
100
AcDbEntity
  8
0
100
AcDbLine
 62
7
  6
CONTINUOUS
 10
81.9175822748
 20
37.1448163072
 11
81.9158868171
 21
37.1644409306
  0
LINE
  5
2CD
100
AcDbEntity
  8
0
100
AcDbLine
 62
7
  6
CONTINUOUS
 10
81.3171229139
 20
37.1281671153
 11
81.3192648925
 21
37.1026917438
  0
LINE
  5
2CE
100
AcDbEntity
  8
0
100
AcDbLine
 62
7
  6
CONTINUOUS
 10
81.9158868171
 20
37.1644409306
 11
81.9141463658
 21
37.1858220543
  0
LINE
  5
2CF
100
AcDbEntity
  8
0
100
AcDbLine
 62
7
  6
CONTINUOUS
 10
81.3149720623
 20
37.1554235555
 11
81.3171229139
 21
37.1281671153
  0
LWPOLYLINE
  5
2D0
100
AcDbEntity
  8
0
100
AcDbPolyline
 62
7
  6
CONTINUOUS
 90
3
 70
0
 10
81.9141463658
 20
37.1858220543
 10
81.9114600176
 20
37.221229881
 10
81.9105452003
 20
37.2339438695
  0
LINE
  5
2D1
100
AcDbEntity
  8
0
100
AcDbLine
 62
7
  6
CONTINUOUS
 10
81.3117176642
 20
37.1998653424
 11
81.3149720623
 21
37.1554235555
  0
LINE
  5
2D2
100
AcDbEntity
  8
0
100
AcDbLine
 62
7
  6
CONTINUOUS
 10
81.3084142759
 20
37.2489131781
 11
81.3117176642
 21
37.1998653424
  0
LINE
  5
2D3
100
AcDbEntity
  8
0
100
AcDbLine
 62
7
  6
CONTINUOUS
 10
81.3050492669
 20
37.302931329
 11
81.3084142759
 21
37.2489131781
  0
LINE
  5
2D4
100
AcDbEntity
  8
0
100
AcDbLine
 62
7
  6
CONTINUOUS
 10
81.3004492389
 20
37.3833250762
 11
81.3050492669
 21
37.302931329
  0
LINE
  5
2D5
100
AcDbEntity
  8
0
100
AcDbLine
 62
7
  6
CONTINUOUS
 10
81.295700768
 20
37.4741161884
 11
81.3004492389
 21
37.3833250762
  0
LINE
  5
2D6
100
AcDbEntity
  8
0
100
AcDbLine
 62
7
  6
CONTINUOUS
 10
81.2895351659
 20
37.6035266719
 11
81.295700768
 21
37.4741161884
  0
LINE
  5
2D7
100
AcDbEntity
  8
0
100
AcDbLine
 62
7
  6
CONTINUOUS
 10
81.281778062
 20
37.7841334448
 11
81.2895351659
 21
37.6035266719
  0
LINE
  5
2D8
100
AcDbEntity
  8
0
100
AcDbLine
 62
7
  6
CONTINUOUS
 10
81.2736112234
 20
37.9945477583
 11
81.281778062
 21
37.7841334448
  0
LINE
  5
2D9
100
AcDbEntity
  8
0
100
AcDbLine
 62
7
  6
CONTINUOUS
 10
81.2673895442
 20
38.1679689366
 11
81.2736112234
 21
37.9945477583
  0
LINE
  5
2DA
100
AcDbEntity
  8
RACCORDO
100
AcDbLine
 62
7
  6
CONTINUOUS
 10
79.5968742893
 20
31.2488714976
 11
79.5968742893
 21
30.4107301329
  0
LINE
  5
2DB
100
AcDbEntity
  8
RACCORDO
100
AcDbLine
 62
7
  6
CONTINUOUS
 10
79.5968742893
 20
76.0725887682
 11
79.5968742893
 21
76.8225887682
  0
LINE
  5
2DC
100
AcDbEntity
  8
RACCORDO
100
AcDbLine
 62
250
  6
CONTINUOUS
 10
80.4087020115
 20
31.2417867844
 11
80.4087020115
 21
30.4107301329
  0
LINE
  5
2DD
100
AcDbEntity
  8
RACCORDO
100
AcDbLine
 62
250
  6
CONTINUOUS
 10
80.4087020115
 20
76.0796734814
 11
80.4087020115
 21
76.8296734814
  0
LINE
  5
2DE
100
AcDbEntity
  8
RACCORDO
100
AcDbLine
 62
7
  6
CONTINUOUS
 10
80.5968742893
 20
31.2401446298
 11
80.5968742893
 21
29.9347385386
  0
LINE
  5
2DF
100
AcDbEntity
  8
RACCORDO
100
AcDbLine
 62
7
  6
CONTINUOUS
 10
80.5968742893
 20
76.081315636
 11
80.5968742893
 21
77.3867217269
  0
LINE
  5
2E0
100
AcDbEntity
  8
0
100
AcDbLine
 62
7
  6
CONTINUOUS
 10
80.977475485
 20
69.4289773466
 11
80.9672967927
 21
69.1508724594
  0
LINE
  5
2E1
100
AcDbEntity
  8
0
100
AcDbLine
 62
7
  6
CONTINUOUS
 10
80.9862434304
 20
69.6436620222
 11
80.977475485
 21
69.4289773466
  0
LINE
  5
2E2
100
AcDbEntity
  8
0
100
AcDbLine
 62
7
  6
CONTINUOUS
 10
80.9935749278
 20
69.8041765111
 11
80.9862434304
 21
69.6436620222
  0
LINE
  5
2E3
100
AcDbEntity
  8
0
100
AcDbLine
 62
7
  6
CONTINUOUS
 10
80.9995593942
 20
69.9217201138
 11
80.9935749278
 21
69.8041765111
  0
LINE
  5
2E4
100
AcDbEntity
  8
0
100
AcDbLine
 62
7
  6
CONTINUOUS
 10
81.0042708153
 20
70.0054536173
 11
80.9995593942
 21
69.9217201138
  0
LINE
  5
2E5
100
AcDbEntity
  8
0
100
AcDbLine
 62
7
  6
CONTINUOUS
 10
81.0077647594
 20
70.0624384521
 11
81.0042708153
 21
70.0054536173
  0
LINE
  5
2E6
100
AcDbEntity
  8
0
100
AcDbLine
 62
7
  6
CONTINUOUS
 10
81.0112250365
 20
70.1145320238
 11
81.0077647594
 21
70.0624384521
  0
LINE
  5
2E7
100
AcDbEntity
  8
0
100
AcDbLine
 62
7
  6
CONTINUOUS
 10
81.014649803
 20
70.161808135
 11
81.0112250365
 21
70.1145320238
  0
LINE
  5
2E8
100
AcDbEntity
  8
0
100
AcDbLine
 62
7
  6
CONTINUOUS
 10
81.016913628
 20
70.1907150201
 11
81.014649803
 21
70.161808135
  0
LINE
  5
2E9
100
AcDbEntity
  8
0
100
AcDbLine
 62
7
  6
CONTINUOUS
 10
81.0191641571
 20
70.2176077953
 11
81.016913628
 21
70.1907150201
  0
LINE
  5
2EA
100
AcDbEntity
  8
0
100
AcDbLine
 62
7
  6
CONTINUOUS
 10
81.0214040054
 20
70.2425579708
 11
81.0191641571
 21
70.2176077953
  0
LINE
  5
2EB
100
AcDbEntity
  8
0
100
AcDbLine
 62
7
  6
CONTINUOUS
 10
81.0236417816
 20
70.2656957516
 11
81.0214040054
 21
70.2425579708
  0
LWPOLYLINE
  5
2EC
100
AcDbEntity
  8
0
100
AcDbPolyline
 62
7
  6
CONTINUOUS
 90
3
 70
0
 43
0.3500000006
 10
93.8825900574
 20
97.7488059082
 10
93.8111588745
 20
97.5345214233
 10
93.6683055725
 20
97.2488057556
  0
LINE
  5
2ED
100
AcDbEntity
  8
INCISIONI
100
AcDbLine
 62
250
  6
CONTINUOUS
 10
90.1971636685
 20
69.3727299154
 11
90.4685508838
 21
69.6767302778
  0
LINE
  5
2EE
100
AcDbEntity
  8
CURVE
100
AcDbLine
 62
250
  6
CONTINUOUS
 10
103.7970722856
 20
44.2035872315
 11
105.0968742893
 21
44.4821586822
  0
LINE
  5
2EF
100
AcDbEntity
  8
INCISIONI
100
AcDbLine
 62
250
  6
CONTINUOUS
 10
86.8963716833
 20
40.4607301329
 11
88.7960823041
 21
40.4607301329
  0
LINE
  5
2F0
100
AcDbEntity
  8
ASSI
100
AcDbLine
 62
7
  6
CONTINUOUS
 10
111.5968742893
 20
40.5121931329
 11
111.7968742893
 21
40.5121931329
  0
LINE
  5
2F1
100
AcDbEntity
  8
INCISIONI
100
AcDbLine
 62
250
  6
CONTINUOUS
 10
91.3826212021
 20
40.7007301615
 11
90.9541150503
 21
40.7007301615
  0
LINE
  5
2F2
100
AcDbEntity
  8
INCISIONI
100
AcDbLine
 62
250
  6
CONTINUOUS
 10
91.168368115
 20
41.1807301329
 11
90.525608876
 21
41.1807301329
  0
LINE
  5
2F3
100
AcDbEntity
  8
ASSI
100
AcDbLine
 62
7
  6
CONTINUOUS
 10
111.5968742893
 20
41.3587941329
 11
111.7968742893
 21
41.3587941329
  0
LINE
  5
2F4
100
AcDbEntity
  8
ASSI
100
AcDbLine
 62
7
  6
CONTINUOUS
 10
111.5968742893
 20
41.8816871329
 11
111.7968742893
 21
41.8816871329
  0
LINE
  5
2F5
100
AcDbEntity
  8
INCISIONI
100
AcDbLine
 62
250
  6
CONTINUOUS
 10
90.525608876
 20
42.0207301329
 11
91.168368115
 21
42.0207301329
  0
LINE
  5
2F6
100
AcDbEntity
  8
CURVE
100
AcDbLine
 62
250
  6
CONTINUOUS
 10
105.0968742893
 20
42.1607301329
 11
103.7970722856
 21
42.1607301329
  0
LINE
  5
2F7
100
AcDbEntity
  8
ASSI
100
AcDbLine
 62
7
  6
CONTINUOUS
 10
111.5968742893
 20
42.4045801329
 11
111.7968742893
 21
42.4045801329
  0
LINE
  5
2F8
100
AcDbEntity
  8
INCISIONI
100
AcDbLine
 62
250
  6
CONTINUOUS
 10
90.525608876
 20
41.1807301329
 11
90.3113558113
 21
41.3007300757
  0
LINE
  5
2F9
100
AcDbEntity
  8
INCISIONI
100
AcDbLine
 62
250
  6
CONTINUOUS
 10
90.0971027465
 20
38.9007301436
 11
90.4184823884
 21
38.6607301329
  0
LINE
  5
2FA
100
AcDbEntity
  8
INCISIONI
100
AcDbLine
 62
250
  6
CONTINUOUS
 10
91.5968742893
 20
38.6607301329
 11
90.525608876
 21
39.5007301329
  0
LINE
  5
2FB
100
AcDbEntity
  8
INCISIONI
100
AcDbLine
 62
250
  6
CONTINUOUS
 10
91.5968742893
 20
34.22073009
 11
91.3826212021
 21
34.4607300757
  0
LWPOLYLINE
  5
2FC
100
AcDbEntity
  8
0
100
AcDbPolyline
 62
7
  6
CONTINUOUS
 90
37
 70
0
 10
81.3257158463
 20
37.0358916462
 10
81.3268095713
 20
37.0260101073
 10
81.3279131864
 20
37.016450279
 10
81.3290331869
 20
37.007163401
 10
81.3301706902
 20
36.9981504565
 10
81.3313291778
 20
36.9893948445
 10
81.3325209201
 20
36.9808212292
 10
81.3337473109
 20
36.9724417143
 10
81.335015769
 20
36.964229104
 10
81.3363526907
 20
36.9560498254
 10
81.3377626158
 20
36.9479245031
 10
81.3392599225
 20
36.9398215641
 10
81.3408982152
 20
36.93152858
 10
81.3426948313
 20
36.9230603007
 10
81.3446776477
 20
36.9143944992
 10
81.3469446215
 20
36.905254141
 10
81.3495289488
 20
36.895692949
 10
81.3525020837
 20
36.8856460863
 10
81.3560839929
 20
36.8746570749
 10
81.360407038
 20
36.8627016566
 10
81.3655899326
 20
36.849856302
 10
81.3719347751
 20
36.8358476451
 10
81.3797797802
 20
36.8205324368
 10
81.3892496937
 20
36.8042988701
 10
81.4003308821
 20
36.787698605
 10
81.4132045477
 20
36.7709242619
 10
81.42805757
 20
36.754209906
 10
81.4447425368
 20
36.7381311937
 10
81.4632237949
 20
36.7229648719
 10
81.4835802465
 20
36.708843788
 10
81.5056833532
 20
36.6960554496
 10
81.5294008205
 20
36.684855781
 10
81.5546888788
 20
36.6754574164
 10
81.5814928839
 20
36.668110882
 10
81.6096756935
 20
36.6631234228
 10
81.6390087353
 20
36.6608379615
 10
81.6468803659
 20
36.660730141
  0
LINE
  5
2FD
100
AcDbEntity
  8
0
100
AcDbLine
 62
7
  6
CONTINUOUS
 10
81.0715294757
 20
70.22401778
 11
81.073062082
 21
70.2094076978
  0
LINE
  5
2FE
100
AcDbEntity
  8
0
100
AcDbLine
 62
7
  6
CONTINUOUS
 10
81.073062082
 20
70.2094076978
 11
81.074662337
 21
70.1930374953
  0
LINE
  5
2FF
100
AcDbEntity
  8
0
100
AcDbLine
 62
7
  6
CONTINUOUS
 10
81.074662337
 20
70.1930374953
 11
81.0763194889
 21
70.1749203129
  0
LINE
  5
300
100
AcDbEntity
  8
0
100
AcDbLine
 62
7
  6
CONTINUOUS
 10
81.0763194889
 20
70.1749203129
 11
81.0780264426
 21
70.1550495077
  0
LINE
  5
301
100
AcDbEntity
  8
0
100
AcDbLine
 62
7
  6
CONTINUOUS
 10
81.0780264426
 20
70.1550495077
 11
81.0797785642
 21
70.1334028167
  0
LINE
  5
302
100
AcDbEntity
  8
0
100
AcDbLine
 62
7
  6
CONTINUOUS
 10
81.6794254489
 20
70.1574826793
 11
81.6772883858
 21
70.1850741565
  0
LINE
  5
303
100
AcDbEntity
  8
0
100
AcDbLine
 62
7
  6
CONTINUOUS
 10
81.0797785642
 20
70.1334028167
 11
81.0824830593
 21
70.0975549548
  0
LINE
  5
304
100
AcDbEntity
  8
0
100
AcDbLine
 62
7
  6
CONTINUOUS
 10
81.6826627009
 20
70.1125206395
 11
81.6794254489
 21
70.1574826793
  0
LINE
  5
305
100
AcDbEntity
  8
0
100
AcDbLine
 62
7
  6
CONTINUOUS
 10
81.0824830593
 20
70.0975549548
 11
81.0852746597
 21
70.057516983
  0
LINE
  5
306
100
AcDbEntity
  8
0
100
AcDbLine
 62
7
  6
CONTINUOUS
 10
81.9105452003
 20
37.2339438695
 11
81.9077441922
 21
37.2749094196
  0
LINE
  5
307
100
AcDbEntity
  8
0
100
AcDbLine
 62
7
  6
CONTINUOUS
 10
81.6859506794
 20
70.0629577009
 11
81.6826627009
 21
70.1125206395
  0
LINE
  5
308
100
AcDbEntity
  8
0
100
AcDbLine
 62
7
  6
CONTINUOUS
 10
81.0852746597
 20
70.057516983
 11
81.0881509743
 21
70.0131071146
  0
LINE
  5
309
100
AcDbEntity
  8
0
100
AcDbLine
 62
7
  6
CONTINUOUS
 10
81.9077441922
 20
37.2749094196
 11
81.9048591324
 21
37.3202640897
  0
LINE
  5
30A
100
AcDbEntity
  8
0
100
AcDbLine
 62
7
  6
CONTINUOUS
 10
81.6893009691
 20
70.008441994
 11
81.6859506794
 21
70.0629577009
  0
LINE
  5
30B
100
AcDbEntity
  8
0
100
AcDbLine
 62
7
  6
CONTINUOUS
 10
81.0881509743
 20
70.0131071146
 11
81.0911116796
 21
69.9641155043
  0
LINE
  5
30C
100
AcDbEntity
  8
0
100
AcDbLine
 62
7
  6
CONTINUOUS
 10
81.9048591324
 20
37.3202640897
 11
81.9008807288
 21
37.3879491605
  0
LINE
  5
30D
100
AcDbEntity
  8
0
100
AcDbLine
 62
7
  6
CONTINUOUS
 10
81.6938812671
 20
69.9274315844
 11
81.6893009691
 21
70.008441994
  0
LINE
  5
30E
100
AcDbEntity
  8
0
100
AcDbLine
 62
7
  6
CONTINUOUS
 10
81.0911116796
 20
69.9641155043
 11
81.0951925976
 21
69.8912572193
  0
LINE
  5
30F
100
AcDbEntity
  8
0
100
AcDbLine
 62
7
  6
CONTINUOUS
 10
81.9008807288
 20
37.3879491605
 11
81.8967474248
 21
37.4644283593
  0
LINE
  5
310
100
AcDbEntity
  8
0
100
AcDbLine
 62
7
  6
CONTINUOUS
 10
81.0951925976
 20
69.8912572193
 11
81.099430131
 21
69.8092299319
  0
LINE
  5
311
100
AcDbEntity
  8
0
100
AcDbLine
 62
7
  6
CONTINUOUS
 10
81.6998142702
 20
69.8115821652
 11
81.6938812671
 21
69.9274315844
  0
LINE
  5
312
100
AcDbEntity
  8
0
100
AcDbLine
 62
7
  6
CONTINUOUS
 10
81.8967474248
 20
37.4644283593
 11
81.8924548234
 21
37.5503126269
  0
LINE
  5
313
100
AcDbEntity
  8
0
100
AcDbLine
 62
7
  6
CONTINUOUS
 10
81.099430131
 20
69.8092299319
 11
81.1038267181
 21
69.71746198
  0
LINE
  5
314
100
AcDbEntity
  8
0
100
AcDbLine
 62
7
  6
CONTINUOUS
 10
81.8924548234
 20
37.5503126269
 11
81.8880053963
 21
37.6460688361
  0
LINE
  5
315
100
AcDbEntity
  8
0
100
AcDbLine
 62
7
  6
CONTINUOUS
 10
81.7060030489
 20
69.6779933569
 11
81.6998142702
 21
69.8115821652
  0
LINE
  5
316
100
AcDbEntity
  8
0
100
AcDbLine
 62
7
  6
CONTINUOUS
 10
81.1038267181
 20
69.71746198
 11
81.1083820635
 21
69.6154532641
  0
LINE
  5
317
100
AcDbEntity
  8
0
100
AcDbLine
 62
7
  6
CONTINUOUS
 10
81.8880053963
 20
37.6460688361
 11
81.8834030142
 21
37.7520889601
  0
LINE
  5
318
100
AcDbEntity
  8
0
100
AcDbLine
 62
7
  6
CONTINUOUS
 10
81.1083820635
 20
69.6154532641
 11
81.1130965538
 21
69.502721066
  0
LINE
  5
319
100
AcDbEntity
  8
0
100
AcDbLine
 62
7
  6
CONTINUOUS
 10
81.7137946758
 20
69.4920836771
 11
81.7060030489
 21
69.6779933569
  0
LINE
  5
31A
100
AcDbEntity
  8
0
100
AcDbLine
 62
7
  6
CONTINUOUS
 10
81.8834030142
 20
37.7520889601
 11
81.8786508164
 21
37.8687241993
  0
LINE
  5
31B
100
AcDbEntity
  8
0
100
AcDbLine
 62
7
  6
CONTINUOUS
 10
81.1130965538
 20
69.502721066
 11
81.1179708927
 21
69.3788142512
  0
LINE
  5
31C
100
AcDbEntity
  8
0
100
AcDbLine
 62
7
  6
CONTINUOUS
 10
81.8786508164
 20
37.8687241993
 11
81.8737502679
 21
37.9963066856
  0
LINE
  5
31D
100
AcDbEntity
  8
0
100
AcDbLine
 62
7
  6
CONTINUOUS
 10
81.7220039128
 20
69.2760511243
 11
81.7137946758
 21
69.4920836771
  0
LINE
  5
31E
100
AcDbEntity
  8
0
100
AcDbLine
 62
7
  6
CONTINUOUS
 10
81.1179708927
 20
69.3788142512
 11
81.1230021752
 21
69.2434298052
  0
LWPOLYLINE
  5
31F
100
AcDbEntity
  8
0
100
AcDbPolyline
 62
7
  6
CONTINUOUS
 90
3
 70
0
 10
81.8737502679
 20
37.9963066856
 10
81.8686983773
 20
38.1352312561
 10
81.8677299938
 20
38.1627298448
  0
LINE
  5
320
100
AcDbEntity
  8
0
100
AcDbLine
 62
7
  6
CONTINUOUS
 10
81.7262216452
 20
69.1574954963
 11
81.7220039128
 21
69.2760511243
  0
LINE
  5
321
100
AcDbEntity
  8
0
100
AcDbLine
 62
7
  6
CONTINUOUS
 10
81.1230021752
 20
69.2434298052
 11
81.1262449505
 21
69.152259579
  0
LINE
  5
322
100
AcDbEntity
  8
RACCORDO
100
AcDbLine
 62
250
  6
CONTINUOUS
 10
81.5537190438
 20
29.7051482437
 11
81.5534065271
 21
29.7196850377
  0
LINE
  5
323
100
AcDbEntity
  8
RACCORDO
100
AcDbLine
 62
250
  6
CONTINUOUS
 10
81.5534065271
 20
29.7196850377
 11
81.5531510671
 21
29.7370456354
  0
LINE
  5
324
100
AcDbEntity
  8
RACCORDO
100
AcDbLine
 62
250
  6
CONTINUOUS
 10
81.5531510671
 20
29.7370456354
 11
81.5528821916
 21
29.7678580318
  0
LINE
  5
325
100
AcDbEntity
  8
RACCORDO
100
AcDbLine
 62
250
  6
CONTINUOUS
 10
81.5528212072
 20
77.4646156918
 11
81.5532633966
 21
77.3929243674
  0
LINE
  5
326
100
AcDbEntity
  8
RACCORDO
100
AcDbLine
 62
250
  6
CONTINUOUS
 10
81.5528821916
 20
29.7678580318
 11
81.5527574416
 21
29.8035516052
  0
LINE
  5
327
100
AcDbEntity
  8
RACCORDO
100
AcDbLine
 62
250
  6
CONTINUOUS
 10
81.5532633966
 20
31.4817697919
 11
81.5532633966
 21
29.9285358983
  0
LINE
  5
328
100
AcDbEntity
  8
RACCORDO
100
AcDbLine
 62
250
  6
CONTINUOUS
 10
81.5532633966
 20
75.8396904739
 11
81.5532633966
 21
77.3929243674
  0
LINE
  5
329
100
AcDbEntity
  8
0
100
AcDbLine
 62
7
  6
CONTINUOUS
 10
81.6968742893
 20
29.6083689261
 11
81.6968742893
 21
29.3083689261
  0
LINE
  5
32A
100
AcDbEntity
  8
RACCORDO
100
AcDbLine
 62
7
  6
CONTINUOUS
 10
81.6968742893
 20
29.6083689261
 11
81.6968742893
 21
29.6773111817
  0
LINE
  5
32B
100
AcDbEntity
  8
RACCORDO
100
AcDbLine
 62
7
  6
CONTINUOUS
 10
81.6968742893
 20
77.6441490841
 11
81.6968742893
 21
77.7130913396
  0
LINE
  5
32C
100
AcDbEntity
  8
0
100
AcDbLine
 62
7
  6
CONTINUOUS
 10
81.6968742893
 20
77.7130913396
 11
81.6968742893
 21
78.0130913396
  0
LINE
  5
32D
100
AcDbEntity
  8
RACCORDO
100
AcDbLine
 62
7
  6
CONTINUOUS
 10
82.0968742893
 20
77.7130913396
 11
82.0968742893
 21
77.6476398312
  0
LINE
  5
32E
100
AcDbEntity
  8
DRAFT
100
AcDbLine
 62
7
  6
CONTINUOUS
 10
82.0968742893
 20
72.4607301329
 11
82.0968742893
 21
34.8607301329
  0
LINE
  5
32F
100
AcDbEntity
  8
RACCORDO
100
AcDbLine
 62
7
  6
CONTINUOUS
 10
82.0968742893
 20
29.6738204346
 11
82.0968742893
 21
29.6083689261
  0
LINE
  5
330
100
AcDbEntity
  8
0
100
AcDbLine
 62
7
  6
CONTINUOUS
 10
82.0968742893
 20
29.6083689261
 11
82.0968742893
 21
29.3083689261
  0
LINE
  5
331
100
AcDbEntity
  8
0
100
AcDbLine
 62
7
  6
CONTINUOUS
 10
82.0968742893
 20
77.7130913396
 11
82.0968742893
 21
78.0130913396
  0
LINE
  5
332
100
AcDbEntity
  8
0
100
AcDbLine
 62
250
  6
CONTINUOUS
 10
82.3968742893
 20
29.0083689261
 11
82.3968742893
 21
28.6083689261
  0
LINE
  5
333
100
AcDbEntity
  8
0
100
AcDbLine
 62
250
  6
CONTINUOUS
 10
82.3968742893
 20
78.3130913396
 11
82.3968742893
 21
78.7130913396
  0
LINE
  5
334
100
AcDbEntity
  8
0
100
AcDbLine
 62
250
  6
CONTINUOUS
 10
82.9110372732
 20
29.0083689261
 11
82.9110372732
 21
28.6083689261
  0
LINE
  5
335
100
AcDbEntity
  8
0
100
AcDbLine
 62
250
  6
CONTINUOUS
 10
82.9110372732
 20
78.3130913396
 11
82.9110372732
 21
78.7130913396
  0
LINE
  5
336
100
AcDbEntity
  8
RACCORDO
100
AcDbLine
 62
250
  6
CONTINUOUS
 10
81.5527574419
 20
77.5179086183
 11
81.5528212072
 21
77.4646156918
  0
LINE
  5
337
100
AcDbEntity
  8
RACCORDO
100
AcDbLine
 62
250
  6
CONTINUOUS
 10
81.5527574416
 20
29.8035516052
 11
81.5528212069
 21
29.856844545
  0
LINE
  5
338
100
AcDbEntity
  8
RACCORDO
100
AcDbLine
 62
250
  6
CONTINUOUS
 10
81.5528821917
 20
77.5536021899
 11
81.5527574419
 21
77.5179086183
  0
LWPOLYLINE
  5
339
100
AcDbEntity
  8
RACCORDO
100
AcDbPolyline
 62
250
  6
CONTINUOUS
 90
3
 70
0
 10
81.5528212069
 20
29.856844545
 10
81.553143977
 20
29.9140016457
 10
81.5532633967
 20
29.9285358983
  0
LINE
  5
33A
100
AcDbEntity
  8
RACCORDO
100
AcDbLine
 62
250
  6
CONTINUOUS
 10
81.5531510669
 20
77.5844145914
 11
81.5528821917
 21
77.5536021899
  0
LINE
  5
33B
100
AcDbEntity
  8
RACCORDO
100
AcDbLine
 62
250
  6
CONTINUOUS
 10
81.5534065268
 20
77.6017751957
 11
81.5531510669
 21
77.5844145914
  0
LINE
  5
33C
100
AcDbEntity
  8
0
100
AcDbLine
 62
7
  6
CONTINUOUS
 10
82.0164843542
 20
37.8979481948
 11
82.0261295898
 21
38.1613475125
  0
LINE
  5
33D
100
AcDbEntity
  8
0
100
AcDbLine
 62
7
  6
CONTINUOUS
 10
82.0084274008
 20
37.6992389661
 11
82.0164843542
 21
37.8979481948
  0
LINE
  5
33E
100
AcDbEntity
  8
0
100
AcDbLine
 62
7
  6
CONTINUOUS
 10
82.0006957744
 20
37.5281214796
 11
82.0084274008
 21
37.6992389661
  0
LINE
  5
33F
100
AcDbEntity
  8
0
100
AcDbLine
 62
7
  6
CONTINUOUS
 10
81.9957131035
 20
37.4284961964
 11
82.0006957744
 21
37.5281214796
  0
LINE
  5
340
100
AcDbEntity
  8
0
100
AcDbLine
 62
7
  6
CONTINUOUS
 10
81.9908592775
 20
37.3397443141
 11
81.9957131035
 21
37.4284961964
  0
LWPOLYLINE
  5
341
100
AcDbEntity
  8
0
100
AcDbPolyline
 62
7
  6
CONTINUOUS
 90
3
 70
0
 10
81.9861240125
 20
37.2612237262
 10
81.9872973706
 20
37.279930651
 10
81.9908592775
 20
37.3397443141
  0
LWPOLYLINE
  5
342
100
AcDbEntity
  8
RACCORDO
100
AcDbPolyline
 62
7
  6
CONTINUOUS
 90
26
 70
0
 10
92.4941989377
 20
72.4638715454
 10
92.5006777786
 20
72.4738799521
 10
92.50704448
 20
72.4838305959
 10
92.5132979914
 20
72.4937170512
 10
92.5194137973
 20
72.503540183
 10
92.5253930428
 20
72.5132923825
 10
92.5312342953
 20
72.5229665691
 10
92.5369091449
 20
72.5325636055
 10
92.5424192042
 20
72.5420752161
 10
92.5477625501
 20
72.5514935214
 10
92.5529054387
 20
72.5608190018
 10
92.5578501044
 20
72.570042646
 10
92.5625939769
 20
72.5791555771
 10
92.5670960711
 20
72.5881573244
 10
92.5713595417
 20
72.597038491
 10
92.5753808725
 20
72.605788588
 10
92.57910904
 20
72.6144043144
 10
92.5825479925
 20
72.6228756679
 10
92.585693405
 20
72.6311908067
 10
92.588481826
 20
72.6393426969
 10
92.5909180753
 20
72.6473215079
 10
92.5929969595
 20
72.6551135944
 10
92.5946400123
 20
72.6627059541
 10
92.5958209742
 20
72.6700864818
 10
92.5965657839
 20
72.6772436909
 10
92.5968742893
 20
72.6841656063
  0
LWPOLYLINE
  5
343
100
AcDbEntity
  8
RACCORDO
100
AcDbPolyline
 62
7
  6
CONTINUOUS
 90
3
 70
0
 10
92.4741508519
 20
72.4335462432
 10
92.4809242316
 20
72.4437020292
 10
92.4941989377
 20
72.4638715454
  0
LINE
  5
344
100
AcDbEntity
  8
RACCORDO
100
AcDbLine
 62
7
  6
CONTINUOUS
 10
92.4603511794
 20
72.4131183297
 11
92.4741508519
 21
72.4335462432
  0
LINE
  5
345
100
AcDbEntity
  8
RACCORDO
100
AcDbLine
 62
7
  6
CONTINUOUS
 10
92.4462685051
 20
72.3925579238
 11
92.4603511794
 21
72.4131183297
  0
LINE
  5
346
100
AcDbEntity
  8
RACCORDO
100
AcDbLine
 62
7
  6
CONTINUOUS
 10
92.4319592049
 20
72.371897193
 11
92.4462685051
 21
72.3925579238
  0
LINE
  5
347
100
AcDbEntity
  8
RACCORDO
100
AcDbLine
 62
7
  6
CONTINUOUS
 10
92.410160182
 20
72.3407930088
 11
92.4319592049
 21
72.371897193
  0
LINE
  5
348
100
AcDbEntity
  8
RACCORDO
100
AcDbLine
 62
7
  6
CONTINUOUS
 10
92.3733468898
 20
72.2889287813
 11
92.410160182
 21
72.3407930088
  0
LINE
  5
349
100
AcDbEntity
  8
RACCORDO
100
AcDbLine
 62
7
  6
CONTINUOUS
 10
92.3512373909
 20
72.257998309
 11
92.3733468898
 21
72.2889287813
  0
LINE
  5
34A
100
AcDbEntity
  8
INCISIONI
100
AcDbLine
 62
250
  6
CONTINUOUS
 10
92.0968742893
 20
69.2207299879
 11
91.8254870456
 21
68.9167301329
  0
LINE
  5
34B
100
AcDbEntity
  8
INCISIONI
100
AcDbLine
 62
250
  6
CONTINUOUS
 10
91.2827125865
 20
66.9407300604
 11
91.0113253146
 21
66.6367300785
  0
LINE
  5
34C
100
AcDbEntity
  8
CURVE
100
AcDbLine
 62
250
  6
CONTINUOUS
 10
105.0968742893
 20
42.8107301329
 11
103.7970722856
 21
42.8107301329
  0
LINE
  5
34D
100
AcDbEntity
  8
CURVE
100
AcDbLine
 62
250
  6
CONTINUOUS
 10
104.1684442645
 20
43.1821586822
 11
103.982758275
 21
43.1821586822
  0
LINE
  5
34E
100
AcDbEntity
  8
ASSI
100
AcDbLine
 62
7
  6
CONTINUOUS
 10
111.5968742893
 20
43.2511811329
 11
111.7968742893
 21
43.2511811329
  0
LINE
  5
34F
100
AcDbEntity
  8
0
100
AcDbLine
 62
7
  6
CONTINUOUS
 10
111.5968742893
 20
43.2889441329
 11
111.7968742893
 21
43.2889441329
  0
LINE
  5
350
100
AcDbEntity
  8
0
100
AcDbLine
 62
7
  6
CONTINUOUS
 10
111.5968742893
 20
43.6241391329
 11
111.7968742893
 21
43.6241391329
  0
LINE
  5
351
100
AcDbEntity
  8
ASSI
100
AcDbLine
 62
7
  6
CONTINUOUS
 10
111.5968742893
 20
43.6245261329
 11
111.7968742893
 21
43.6245261329
  0
LINE
  5
352
100
AcDbEntity
  8
CURVE
100
AcDbLine
 62
250
  6
CONTINUOUS
 10
104.9111882804
 20
43.8321586822
 11
104.7255022716
 21
43.8321586822
  0
LINE
  5
353
100
AcDbEntity
  8
INCISIONI
100
AcDbLine
 62
250
  6
CONTINUOUS
 10
86.5749920831
 20
44.5220634783
 11
86.1679112035
 21
44.5220634783
  0
LINE
  5
354
100
AcDbEntity
  8
ASSI
100
AcDbLine
 62
7
  6
CONTINUOUS
 10
111.5968742893
 20
44.5235431329
 11
111.7968742893
 21
44.5235431329
  0
LINE
  5
355
100
AcDbEntity
  8
INCISIONI
100
AcDbLine
 62
250
  6
CONTINUOUS
 10
87.6605409871
 20
44.5727301419
 11
86.9820729062
 21
44.5727301419
  0
LINE
  5
356
100
AcDbEntity
  8
INCISIONI
100
AcDbLine
 62
250
  6
CONTINUOUS
 10
91.5968742893
 20
42.9807300757
 11
90.0971027465
 21
43.4607302473
  0
LINE
  5
357
100
AcDbEntity
  8
INCISIONI
100
AcDbLine
 62
250
  6
CONTINUOUS
 10
91.168368115
 20
42.0207301329
 11
91.3826212021
 21
41.9007301901
  0
LINE
  5
358
100
AcDbEntity
  8
INCISIONI
100
AcDbLine
 62
250
  6
CONTINUOUS
 10
90.3113558113
 20
41.3007300757
 11
90.0971027465
 21
41.5407301615
  0
LINE
  5
359
100
AcDbEntity
  8
INCISIONI
100
AcDbLine
 62
250
  6
CONTINUOUS
 10
87.7962346089
 20
44.420730151
 11
87.6605409871
 21
44.5727301419
  0
LINE
  5
35A
100
AcDbEntity
  8
INCISIONI
100
AcDbLine
 62
250
  6
CONTINUOUS
 10
91.5968742893
 20
40.4607300757
 11
91.3826212021
 21
40.7007301615
  0
LINE
  5
35B
100
AcDbEntity
  8
RACCORDO
100
AcDbLine
 62
7
  6
CONTINUOUS
 10
92.3881093866
 20
35.0118090702
 11
92.3512373909
 21
35.0634619568
  0
LINE
  5
35C
100
AcDbEntity
  8
RACCORDO
100
AcDbLine
 62
7
  6
CONTINUOUS
 10
92.4174604963
 20
34.9702886721
 11
92.3881093866
 21
35.0118090702
  0
LINE
  5
35D
100
AcDbEntity
  8
RACCORDO
100
AcDbLine
 62
7
  6
CONTINUOUS
 10
92.4391396796
 20
34.9392222435
 11
92.4174604963
 21
34.9702886721
  0
LINE
  5
35E
100
AcDbEntity
  8
RACCORDO
100
AcDbLine
 62
7
  6
CONTINUOUS
 10
92.4533452508
 20
34.9186085972
 11
92.4391396796
 21
34.9392222435
  0
LWPOLYLINE
  5
35F
100
AcDbEntity
  8
RACCORDO
100
AcDbPolyline
 62
7
  6
CONTINUOUS
 90
3
 70
0
 10
92.4741508519
 20
34.8879140226
 10
92.4672865441
 20
34.8981086034
 10
92.4533452508
 20
34.9186085972
  0
LINE
  5
360
100
AcDbEntity
  8
INCISIONI
100
AcDbLine
 62
250
  6
CONTINUOUS
 10
86.7106856342
 20
44.2687301601
 11
86.5749920831
 21
44.5220634783
  0
LWPOLYLINE
  5
361
100
AcDbEntity
  8
0
100
AcDbPolyline
 62
7
  6
CONTINUOUS
 90
31
 70
0
 10
79.107875785
 20
69.1346455381
 10
79.1077053914
 20
69.1354088169
 10
79.0841345936
 20
69.2377484533
 10
79.0606936322
 20
69.3361893039
 10
79.0373776304
 20
69.4306908104
 10
79.0141766528
 20
69.5212397973
 10
78.9910853946
 20
69.6078110894
 10
78.9680956508
 20
69.6903976814
 10
78.9451899178
 20
69.769030248
 10
78.9223366808
 20
69.8437850936
 10
78.8995225631
 20
69.9146758709
 10
78.8767137769
 20
69.9817795711
 10
78.8538234089
 20
70.0453089538
 10
78.8308058134
 20
70.1053312786
 10
78.8076138378
 20
70.161906052
 10
78.784108108
 20
70.2152854952
 10
78.7602172632
 20
70.2655175866
 10
78.7358261614
 20
70.3127159805
 10
78.7106329223
 20
70.3572712234
 10
78.6844952737
 20
70.3991780344
 10
78.6571917953
 20
70.4385015066
 10
78.6281246292
 20
70.4756795981
 10
78.5970160965
 20
70.5105086344
 10
78.5634822533
 20
70.5427930134
 10
78.52651416
 20
70.5727417245
 10
78.4848733474
 20
70.6002789899
 10
78.4390017724
 20
70.6239648736
 10
78.3907759518
 20
70.6421826457
 10
78.3412216459
 20
70.6543467934
 10
78.290136812
 20
70.6602428675
 10
78.270133651
 20
70.6607280239
  0
LINE
  5
362
100
AcDbEntity
  8
0
100
AcDbLine
 62
7
  6
CONTINUOUS
 10
81.669845248
 20
70.268284407
 11
81.6676946653
 21
70.2886666539
  0
LINE
  5
363
100
AcDbEntity
  8
0
100
AcDbLine
 62
7
  6
CONTINUOUS
 10
81.6719767012
 20
70.2464836839
 11
81.669845248
 21
70.268284407
  0
LINE
  5
364
100
AcDbEntity
  8
0
100
AcDbLine
 62
7
  6
CONTINUOUS
 10
81.674099779
 20
70.2231591637
 11
81.6719767012
 21
70.2464836839
  0
LWPOLYLINE
  5
365
100
AcDbEntity
  8
0
100
AcDbPolyline
 62
7
  6
CONTINUOUS
 90
3
 70
0
 10
81.6772883858
 20
70.1850741565
 10
81.6762238
 20
70.1981993626
 10
81.674099779
 20
70.2231591637
  0
LINE
  5
366
100
AcDbEntity
  8
RACCORDO
100
AcDbLine
 62
7
  6
CONTINUOUS
 10
83.5968742893
 20
77.6607301329
 11
83.5968742893
 21
29.6607301329
  0
LINE
  5
367
100
AcDbEntity
  8
INCISIONI
100
AcDbLine
 62
250
  6
CONTINUOUS
 10
85.213037942
 20
37.7607301329
 11
85.213037942
 21
39.7607301329
  0
LINE
  5
368
100
AcDbEntity
  8
0
100
AcDbLine
 62
7
  6
CONTINUOUS
 10
81.9826429133
 20
37.2086530172
 11
81.9861240125
 21
37.2612237262
  0
LINE
  5
369
100
AcDbEntity
  8
0
100
AcDbLine
 62
7
  6
CONTINUOUS
 10
81.979215335
 20
37.1611909605
 11
81.9826429133
 21
37.2086530172
  0
LINE
  5
36A
100
AcDbEntity
  8
0
100
AcDbLine
 62
7
  6
CONTINUOUS
 10
81.9769552094
 20
37.1322339757
 11
81.979215335
 21
37.1611909605
  0
LINE
  5
36B
100
AcDbEntity
  8
0
100
AcDbLine
 62
7
  6
CONTINUOUS
 10
81.9747104034
 20
37.1053094621
 11
81.9769552094
 21
37.1322339757
  0
LINE
  5
36C
100
AcDbEntity
  8
0
100
AcDbLine
 62
7
  6
CONTINUOUS
 10
81.9724752139
 20
37.0803081008
 11
81.9747104034
 21
37.1053094621
  0
LINE
  5
36D
100
AcDbEntity
  8
0
100
AcDbLine
 62
7
  6
CONTINUOUS
 10
81.9702391121
 20
37.0570833204
 11
81.9724752139
 21
37.0803081008
  0
LWPOLYLINE
  5
36E
100
AcDbEntity
  8
0
100
AcDbPolyline
 62
7
  6
CONTINUOUS
 90
13
 70
0
 10
80.4980183566
 20
38.1746831372
 10
80.4887329925
 20
38.1355132485
 10
80.4660398532
 20
38.0431850868
 10
80.4436500103
 20
37.9555422146
 10
80.4215785076
 20
37.8726306308
 10
80.3998336867
 20
37.7944552522
 10
80.3784748315
 20
37.7211795083
 10
80.3575159955
 20
37.6527782043
 10
80.3369868028
 20
37.5892597977
 10
80.3169939389
 20
37.5308297164
 10
80.297561043
 20
37.4773996146
 10
80.2787521421
 20
37.4289696439
 10
80.2707291554
 20
37.4097193302
  0
LINE
  5
36F
100
AcDbEntity
  8
INCISIONI
100
AcDbLine
 62
250
  6
CONTINUOUS
 10
91.8254870456
 20
65.8767301872
 11
92.0968742893
 21
66.1807301691
  0
LINE
  5
370
100
AcDbEntity
  8
ASSI
100
AcDbLine
 62
7
  6
CONTINUOUS
 10
111.5968742893
 20
45.0835921329
 11
111.7968742893
 21
45.0835921329
  0
LINE
  5
371
100
AcDbEntity
  8
ASSI
100
AcDbLine
 62
7
  6
CONTINUOUS
 10
111.5968742893
 20
45.9826231329
 11
111.7968742893
 21
45.9826231329
  0
LINE
  5
372
100
AcDbEntity
  8
0
100
AcDbLine
 62
7
  6
CONTINUOUS
 10
111.5968742893
 20
46.0799921329
 11
111.7968742893
 21
46.0799921329
  0
LINE
  5
373
100
AcDbEntity
  8
ASSI
100
AcDbLine
 62
7
  6
CONTINUOUS
 10
111.5968742893
 20
46.3559681329
 11
111.7968742893
 21
46.3559681329
  0
LINE
  5
374
100
AcDbEntity
  8
CURVE
100
AcDbLine
 62
250
  6
CONTINUOUS
 10
104.1684442645
 20
46.6178730343
 11
103.982758275
 21
46.6178730343
  0
LINE
  5
375
100
AcDbEntity
  8
RACCORDO
100
AcDbLine
 62
7
  6
CONTINUOUS
 10
111.7968742893
 20
45.3596829258
 11
114.2984450784
 21
45.346584612
  0
LINE
  5
376
100
AcDbEntity
  8
INCISIONI
100
AcDbLine
 62
250
  6
CONTINUOUS
 10
91.3826212021
 20
41.9007301901
 11
91.5968742893
 21
41.6607301043
  0
LWPOLYLINE
  5
377
100
AcDbEntity
  8
0
100
AcDbPolyline
 62
7
  6
CONTINUOUS
 90
16
 70
0
 10
81.0652213801
 20
70.2716663016
 10
81.0651572296
 20
70.2719528846
 10
81.0650543654
 20
70.2724308052
 10
81.065130597
 20
70.2720474189
 10
81.065322195
 20
70.2710243697
 10
81.0656111834
 20
70.269390182
 10
81.0659935529
 20
70.2671035202
 10
81.066439787
 20
70.2642875034
 10
81.0669416767
 20
70.2609546513
 10
81.0674972202
 20
70.2570804642
 10
81.0680920556
 20
70.252732589
 10
81.06872212
 20
70.2479151523
 10
81.0693861611
 20
70.2426129544
 10
81.0700766169
 20
70.2368645218
 10
81.0707913245
 20
70.2306696971
 10
81.0715294757
 20
70.22401778
  0
LWPOLYLINE
  5
378
100
AcDbEntity
  8
0
100
AcDbPolyline
 62
7
  6
CONTINUOUS
 90
37
 70
0
 10
81.6676946653
 20
70.2886666539
 10
81.6666067958
 20
70.2983710067
 10
81.6655083601
 20
70.3077645351
 10
81.6643926079
 20
70.3168969258
 10
81.6632583871
 20
70.3257667416
 10
81.662102089
 20
70.334390579
 10
81.6609109608
 20
70.342845326
 10
81.6596836838
 20
70.3511173083
 10
81.6584124362
 20
70.3592348164
 10
81.657069373
 20
70.3673367052
 10
81.6556490585
 20
70.3754048331
 10
81.6541371077
 20
70.3834669586
 10
81.6524793551
 20
70.3917319322
 10
81.6506581716
 20
70.4001831558
 10
81.6486442649
 20
70.4088453095
 10
81.6463366721
 20
70.4179985948
 10
81.6437005441
 20
70.4275899376
 10
81.640662726
 20
70.4376821547
 10
81.6369990764
 20
70.448729259
 10
81.6325705835
 20
70.4607631895
 10
81.6272593472
 20
70.4736940971
 10
81.6207730102
 20
70.4877602647
 10
81.6127761734
 20
70.5030952206
 10
81.6031457007
 20
70.5193143282
 10
81.5919103826
 20
70.5358531827
 10
81.5789049901
 20
70.5525081624
 10
81.5639423649
 20
70.5690590337
 10
81.547161496
 20
70.5849574151
 10
81.528602588
 20
70.5999364677
 10
81.5081928023
 20
70.6138608568
 10
81.4860522406
 20
70.6264518764
 10
81.4623130058
 20
70.6374541755
 10
81.4370195017
 20
70.6466541987
 10
81.4102160708
 20
70.6538031347
 10
81.3820360134
 20
70.6585910428
 10
81.3527115495
 20
70.6606706977
 10
81.3468682926
 20
70.660730125
  0
LWPOLYLINE
  5
379
100
AcDbEntity
  8
INCISIONI
100
AcDbPolyline
 62
250
  6
CONTINUOUS
 90
43
 70
0
 10
86.6021441025
 20
65.9919990608
 10
86.6033356529
 20
65.961532607
 10
86.6047668316
 20
65.9310803006
 10
86.6065502789
 20
65.9006492739
 10
86.6087986351
 20
65.8702466594
 10
86.6107096678
 20
65.8489860503
 10
86.6129431848
 20
65.8277549588
 10
86.615538642
 20
65.8065654837
 10
86.6185354949
 20
65.785429724
 10
86.6219731993
 20
65.7643597786
 10
86.625200519
 20
65.7468715096
 10
86.6287795561
 20
65.7294501963
 10
86.6327288641
 20
65.71210875
 10
86.6370669965
 20
65.6948600821
 10
86.6418125069
 20
65.677717104
 10
86.6469839488
 20
65.6606927271
 10
86.6525965761
 20
65.6438090763
 10
86.6586671513
 20
65.6270814938
 10
86.6652095206
 20
65.6105346487
 10
86.6722375299
 20
65.5941932099
 10
86.6797650252
 20
65.5780818466
 10
86.6878058526
 20
65.5622252278
 10
86.6941881437
 20
65.5505043181
 10
86.7008742665
 20
65.5389561554
 10
86.7078709403
 20
65.5275960121
 10
86.7151848842
 20
65.5164391602
 10
86.7228201367
 20
65.5054995867
 10
86.7307707027
 20
65.49478516
 10
86.7390279163
 20
65.4843024697
 10
86.7475831114
 20
65.4740581054
 10
86.7576985555
 20
65.4626667806
 10
86.768176058
 20
65.4516010468
 10
86.7790009217
 20
65.4408675583
 10
86.7901584493
 20
65.4304729694
 10
86.8016339433
 20
65.4204239342
 10
86.8134127065
 20
65.4107271072
 10
86.8254800416
 20
65.4013891425
 10
86.8399250249
 20
65.390942786
 10
86.8547224811
 20
65.3810066464
 10
86.8698510381
 20
65.3715920026
 10
86.8852893239
 20
65.3627101331
 10
86.9010159666
 20
65.3543723166
 10
86.9170095941
 20
65.3465898318
  0
LINE
  5
37A
100
AcDbEntity
  8
INCISIONI
100
AcDbLine
 62
250
  6
CONTINUOUS
 10
86.5988808191
 20
66.0834119827
 11
86.6021441025
 21
65.9919990608
  0
LINE
  5
37B
100
AcDbEntity
  8
INCISIONI
100
AcDbLine
 62
250
  6
CONTINUOUS
 10
85.8965239881
 20
44.2687301601
 11
85.8965239881
 21
43.6607301329
  0
LINE
  5
37C
100
AcDbEntity
  8
INCISIONI
100
AcDbLine
 62
250
  6
CONTINUOUS
 10
86.5988797161
 20
66.0834131329
 11
86.5988797161
 21
66.8423081329
  0
LINE
  5
37D
100
AcDbEntity
  8
INCISIONI
100
AcDbLine
 62
250
  6
CONTINUOUS
 10
86.5988797161
 20
68.7087251329
 11
86.5988797161
 21
69.8874851329
  0
LINE
  5
37E
100
AcDbEntity
  8
INCISIONI
100
AcDbLine
 62
250
  6
CONTINUOUS
 10
86.5988797161
 20
71.4575701329
 11
86.5988797161
 21
72.8424731329
  0
LINE
  5
37F
100
AcDbEntity
  8
INCISIONI
100
AcDbLine
 62
250
  6
CONTINUOUS
 10
86.7106856342
 20
44.2687301601
 11
86.7106856342
 21
43.9647301465
  0
LINE
  5
380
100
AcDbEntity
  8
INCISIONI
100
AcDbLine
 62
250
  6
CONTINUOUS
 10
86.7797562893
 20
49.3854091329
 11
86.7797562893
 21
49.9360511329
  0
LINE
  5
381
100
AcDbEntity
  8
INCISIONI
100
AcDbLine
 62
250
  6
CONTINUOUS
 10
86.8963716833
 20
40.4607301329
 11
86.8963716833
 21
43.1607301329
  0
LINE
  5
382
100
AcDbEntity
  8
INCISIONI
100
AcDbLine
 62
250
  6
CONTINUOUS
 10
86.8970113636
 20
34.1607301329
 11
86.8970113636
 21
36.8607301329
  0
LWPOLYLINE
  5
383
100
AcDbEntity
  8
INCISIONI
100
AcDbPolyline
 62
250
  6
CONTINUOUS
 90
49
 70
0
 10
89.3085064373
 20
71.6953797189
 10
89.3061325191
 20
71.683299161
 10
89.3033944226
 20
71.6712914107
 10
89.3002951716
 20
71.659369385
 10
89.29683779
 20
71.6475460007
 10
89.2930254401
 20
71.6358336825
 10
89.2888618381
 20
71.6242428848
 10
89.2843508385
 20
71.6127835696
 10
89.279496296
 20
71.6014656989
 10
89.2743022916
 20
71.5902992569
 10
89.2687738126
 20
71.5792943157
 10
89.2629160727
 20
71.5684609696
 10
89.2567342858
 20
71.557809313
 10
89.2502338534
 20
71.5473492933
 10
89.2434209283
 20
71.537090271
 10
89.236301851
 20
71.5270414596
 10
89.228882962
 20
71.5172120728
 10
89.2211707814
 20
71.5076111937
 10
89.2131725464
 20
71.4982473838
 10
89.2048956737
 20
71.4891290741
 10
89.1963475802
 20
71.4802646954
 10
89.1875358421
 20
71.4716625175
 10
89.1784686747
 20
71.4633301651
 10
89.169154453
 20
71.4552751016
 10
89.1596015519
 20
71.4475047902
 10
89.1498184855
 20
71.4400265179
 10
89.1398143243
 20
71.4328468653
 10
89.1295982782
 20
71.4259722366
 10
89.1191795569
 20
71.4194090358
 10
89.1085674896
 20
71.4131634742
 10
89.0977718836
 20
71.407240991
 10
89.0868026656
 20
71.4016468323
 10
89.0756697622
 20
71.3963862445
 10
89.0643831851
 20
71.391464269
 10
89.0529532856
 20
71.3868851274
 10
89.0413905001
 20
71.3826528366
 10
89.0297052649
 20
71.3787714134
 10
89.0179081151
 20
71.3752446577
 10
89.0060099812
 20
71.3720755017
 10
88.9940218928
 20
71.3692666608
 10
88.9819548792
 20
71.3668208501
 10
88.9698198955
 20
71.3647405698
 10
88.9576275996
 20
71.3630274592
 10
88.9453885751
 20
71.3616829423
 10
88.9331134056
 20
71.3607084434
 10
88.920813121
 20
71.3601051368
 10
88.9085005372
 20
71.3598731986
 10
88.8961889162
 20
71.3600125551
 10
88.8838915203
 20
71.3605231329
  0
LINE
  5
384
100
AcDbEntity
  8
CURVE
100
AcDbLine
 62
250
  6
CONTINUOUS
 10
104.1684442645
 20
47.6393017386
 11
103.982758275
 21
47.6393017386
  0
LINE
  5
385
100
AcDbEntity
  8
ASSI
100
AcDbLine
 62
7
  6
CONTINUOUS
 10
111.5968742893
 20
47.6673481329
 11
111.7968742893
 21
47.6673481329
  0
LINE
  5
386
100
AcDbEntity
  8
0
100
AcDbLine
 62
250
  6
CONTINUOUS
 10
96.8934523319
 20
48.4621721329
 11
91.8949352765
 21
48.4621721329
  0
LINE
  5
387
100
AcDbEntity
  8
ASSI
100
AcDbLine
 62
7
  6
CONTINUOUS
 10
111.5968742893
 20
48.5260696323
 11
111.7968742893
 21
48.5260696323
  0
LINE
  5
388
100
AcDbEntity
  8
ASSI
100
AcDbLine
 62
7
  6
CONTINUOUS
 10
111.5968742893
 20
48.5968221329
 11
111.7968742893
 21
48.5968221329
  0
LINE
  5
389
100
AcDbEntity
  8
0
100
AcDbLine
 62
7
  6
CONTINUOUS
 10
111.5968742893
 20
48.6065101329
 11
111.7968742893
 21
48.6065101329
  0
LINE
  5
38A
100
AcDbEntity
  8
CURVE
100
AcDbLine
 62
250
  6
CONTINUOUS
 10
104.1684442645
 20
48.6607301329
 11
103.982758275
 21
48.6607301329
  0
LINE
  5
38B
100
AcDbEntity
  8
0
100
AcDbLine
 62
7
  6
CONTINUOUS
 10
111.5968742893
 20
48.7861621329
 11
111.7968742893
 21
48.7861621329
  0
LINE
  5
38C
100
AcDbEntity
  8
0
100
AcDbLine
 62
7
  6
CONTINUOUS
 10
111.5968742893
 20
48.9821141329
 11
111.7968742893
 21
48.9821141329
  0
LINE
  5
38D
100
AcDbEntity
  8
0
100
AcDbLine
 62
250
  6
CONTINUOUS
 10
92.450288072
 20
49.0175211329
 11
94.1163454588
 21
49.0175211329
  0
LINE
  5
38E
100
AcDbEntity
  8
0
100
AcDbLine
 62
250
  6
CONTINUOUS
 10
94.6718702019
 20
49.0175211329
 11
96.3379275887
 21
49.0175211329
  0
LINE
  5
38F
100
AcDbEntity
  8
CURVE
100
AcDbLine
 62
250
  6
CONTINUOUS
 10
104.4469732874
 20
49.0321585272
 11
104.9111882804
 21
49.0321585272
  0
LINE
  5
390
100
AcDbEntity
  8
CURVE
100
AcDbLine
 62
250
  6
CONTINUOUS
 10
105.0968742893
 20
45.0393014286
 11
103.7970722856
 21
45.3178730343
  0
LINE
  5
391
100
AcDbEntity
  8
CURVE
100
AcDbLine
 62
250
  6
CONTINUOUS
 10
105.0968742893
 20
44.4821586822
 11
104.1684442645
 21
44.7607301329
  0
LINE
  5
392
100
AcDbEntity
  8
INCISIONI
100
AcDbLine
 62
250
  6
CONTINUOUS
 10
88.5968742893
 20
49.6607301329
 11
87.4488842893
 21
51.1396431329
  0
LINE
  5
393
100
AcDbEntity
  8
INCISIONI
100
AcDbLine
 62
250
  6
CONTINUOUS
 10
87.7962346089
 20
43.6607301329
 11
87.7962346089
 21
44.420730151
  0
LINE
  5
394
100
AcDbEntity
  8
INCISIONI
100
AcDbLine
 62
250
  6
CONTINUOUS
 10
88.1716239181
 20
58.7353391329
 11
88.1716239181
 21
60.1958391329
  0
LINE
  5
395
100
AcDbEntity
  8
INCISIONI
100
AcDbLine
 62
250
  6
CONTINUOUS
 10
88.9213954782
 20
60.1958391329
 11
88.9213954782
 21
58.7353391329
  0
LINE
  5
396
100
AcDbEntity
  8
INCISIONI
100
AcDbLine
 62
250
  6
CONTINUOUS
 10
89.5968742893
 20
72.6058951329
 11
89.5968742893
 21
70.8569751329
  0
LINE
  5
397
100
AcDbEntity
  8
INCISIONI
100
AcDbLine
 62
250
  6
CONTINUOUS
 10
89.5968742893
 20
69.4988401329
 11
89.5968742893
 21
68.0080531329
  0
LINE
  5
398
100
AcDbEntity
  8
INCISIONI
100
AcDbLine
 62
250
  6
CONTINUOUS
 10
89.5968742893
 20
63.1607301329
 11
89.5968742893
 21
64.1178281329
  0
LINE
  5
399
100
AcDbEntity
  8
INCISIONI
100
AcDbLine
 62
250
  6
CONTINUOUS
 10
89.5968742893
 20
65.2305731329
 11
89.5968742893
 21
66.9828731329
  0
LWPOLYLINE
  5
39A
100
AcDbEntity
  8
0
100
AcDbPolyline
 62
7
  6
CONTINUOUS
 90
2
 70
0
 43
0.3500000006
 10
89.6683043518
 20
97.4630902405
 10
89.6683043518
 20
98.9630906982
  0
LWPOLYLINE
  5
39B
100
AcDbEntity
  8
0
100
AcDbPolyline
 62
7
  6
CONTINUOUS
 90
3
 70
0
 43
0.3500000006
 10
99.3825917358
 20
87.7488028564
 10
99.311160553
 20
87.5345183716
 10
99.168307251
 20
87.2488027039
  0
LINE
  5
39C
100
AcDbEntity
  8
0
100
AcDbLine
 62
250
  6
CONTINUOUS
 10
91.8949352765
 20
49.5732151329
 11
92.450288072
 21
49.5732151329
  0
LINE
  5
39D
100
AcDbEntity
  8
0
100
AcDbLine
 62
250
  6
CONTINUOUS
 10
94.1163454588
 20
49.5732151329
 11
94.6718702019
 21
49.5732151329
  0
LINE
  5
39E
100
AcDbEntity
  8
0
100
AcDbLine
 62
250
  6
CONTINUOUS
 10
96.3379275887
 20
49.5732151329
 11
96.8934523319
 21
49.5732151329
  0
LINE
  5
39F
100
AcDbEntity
  8
INCISIONI
100
AcDbLine
 62
250
  6
CONTINUOUS
 10
86.7797562893
 20
49.6607301329
 11
90.4139922893
 21
49.6607301329
  0
LINE
  5
3A0
100
AcDbEntity
  8
CURVE
100
AcDbLine
 62
250
  6
CONTINUOUS
 10
104.9111882804
 20
49.6821585272
 11
104.5398162821
 21
49.6821585272
  0
LINE
  5
3A1
100
AcDbEntity
  8
0
100
AcDbLine
 62
7
  6
CONTINUOUS
 10
111.5968742893
 20
49.7172581329
 11
111.7968742893
 21
49.7172581329
  0
LINE
  5
3A2
100
AcDbEntity
  8
0
100
AcDbLine
 62
7
  6
CONTINUOUS
 10
111.5968742893
 20
49.7838651329
 11
111.7968742893
 21
49.7838651329
  0
LINE
  5
3A3
100
AcDbEntity
  8
0
100
AcDbLine
 62
7
  6
CONTINUOUS
 10
111.5968742893
 20
50.0120661329
 11
111.7968742893
 21
50.0120661329
  0
LINE
  5
3A4
100
AcDbEntity
  8
0
100
AcDbLine
 62
250
  6
CONTINUOUS
 10
91.8949352765
 20
50.1285641329
 11
96.8934523319
 21
50.1285641329
  0
LINE
  5
3A5
100
AcDbEntity
  8
CURVE
100
AcDbLine
 62
250
  6
CONTINUOUS
 10
103.7970722856
 20
50.4250159357
 11
105.0968742893
 21
50.4250159357
  0
LINE
  5
3A6
100
AcDbEntity
  8
0
100
AcDbLine
 62
7
  6
CONTINUOUS
 10
111.5968742893
 20
50.4281271329
 11
111.7968742893
 21
50.4281271329
  0
LINE
  5
3A7
100
AcDbEntity
  8
0
100
AcDbLine
 62
250
  6
CONTINUOUS
 10
96.8934523319
 20
50.6842581329
 11
94.6718702019
 21
50.6842581329
  0
LINE
  5
3A8
100
AcDbEntity
  8
0
100
AcDbLine
 62
250
  6
CONTINUOUS
 10
92.450288072
 20
50.6842581329
 11
94.1163454588
 21
50.6842581329
  0
LINE
  5
3A9
100
AcDbEntity
  8
0
100
AcDbLine
 62
7
  6
CONTINUOUS
 10
111.5968742893
 20
50.8440711329
 11
111.7968742893
 21
50.8440711329
  0
LINE
  5
3AA
100
AcDbEntity
  8
0
100
AcDbLine
 62
7
  6
CONTINUOUS
 10
111.5968742893
 20
51.0743831329
 11
111.7968742893
 21
51.0743831329
  0
LINE
  5
3AB
100
AcDbEntity
  8
0
100
AcDbLine
 62
250
  6
CONTINUOUS
 10
94.1163454588
 20
51.2399521329
 11
92.450288072
 21
51.2399521329
  0
LINE
  5
3AC
100
AcDbEntity
  8
0
100
AcDbLine
 62
250
  6
CONTINUOUS
 10
94.6718702019
 20
51.2399521329
 11
96.8934523319
 21
51.2399521329
  0
LINE
  5
3AD
100
AcDbEntity
  8
INCISIONI
100
AcDbLine
 62
250
  6
CONTINUOUS
 10
91.1326592709
 20
43.9407300184
 11
91.0255327385
 21
44.220730152
  0
LINE
  5
3AE
100
AcDbEntity
  8
INCISIONI
100
AcDbLine
 62
250
  6
CONTINUOUS
 10
91.2397858256
 20
44.5407301329
 11
91.1326592709
 21
44.8607301138
  0
LWPOLYLINE
  5
3AF
100
AcDbEntity
  8
INCISIONI
100
AcDbPolyline
 62
250
  6
CONTINUOUS
 90
43
 70
0
 10
86.5988808191
 20
68.7087253445
 10
86.60541484
 20
68.6704666799
 10
86.6088219244
 20
68.6513621785
 10
86.6124045448
 20
68.6322893826
 10
86.6161311042
 20
68.6132438885
 10
86.6200264637
 20
68.5942326393
 10
86.6241270535
 20
68.5752646091
 10
86.6284587959
 20
68.5563473183
 10
86.633045816
 20
68.5374889067
 10
86.6379156793
 20
68.5187009302
 10
86.6430967897
 20
68.4999958935
 10
86.6486175512
 20
68.4813863016
 10
86.6532963786
 20
68.4665808759
 10
86.6582249399
 20
68.4518561362
 10
86.663417549
 20
68.4372237204
 10
86.6688885204
 20
68.4226952665
 10
86.674652168
 20
68.4082824125
 10
86.6796892341
 20
68.3963647742
 10
86.6849402212
 20
68.3845399742
 10
86.6904057459
 20
68.3728124429
 10
86.6960903756
 20
68.3611891099
 10
86.7020147166
 20
68.3496864245
 10
86.7082033293
 20
68.3383233367
 10
86.7146784551
 20
68.32711916
 10
86.7214534556
 20
68.3160939848
 10
86.7285393796
 20
68.3052682685
 10
86.7359450411
 20
68.2946606171
 10
86.7436708591
 20
68.2842814602
 10
86.7517150256
 20
68.2741393812
 10
86.7588516922
 20
68.2656554698
 10
86.7662211632
 20
68.2573672759
 10
86.7738243663
 20
68.2492905617
 10
86.7816622293
 20
68.2414410894
 10
86.78973568
 20
68.2338346212
 10
86.7980456464
 20
68.2264869194
 10
86.8065930561
 20
68.219413746
 10
86.8153745436
 20
68.2126304672
 10
86.8243802969
 20
68.2061426761
 10
86.8335963071
 20
68.199955687
 10
86.8430085653
 20
68.1940748146
 10
86.8526030627
 20
68.1885053734
 10
86.8623657903
 20
68.1832526778
 10
86.8722827393
 20
68.1783220425
  0
LWPOLYLINE
  5
3B0
100
AcDbEntity
  8
INCISIONI
100
AcDbPolyline
 62
250
  6
CONTINUOUS
 90
53
 70
0
 10
89.2806047274
 20
66.1284903318
 10
89.2814869305
 20
66.1175348455
 10
89.2820392327
 20
66.1065538281
 10
89.2822611092
 20
66.0955590643
 10
89.2821520354
 20
66.0845623391
 10
89.2817117232
 20
66.0735750493
 10
89.2809408316
 20
66.0626070393
 10
89.2798402564
 20
66.0516677651
 10
89.2784108932
 20
66.0407666831
 10
89.2766538262
 20
66.0299133232
 10
89.2745708921
 20
66.0191175096
 10
89.272164116
 20
66.0083891404
 10
89.2694355229
 20
65.9977381137
 10
89.2663873335
 20
65.9871742472
 10
89.2630225516
 20
65.9767070384
 10
89.2593443767
 20
65.9663459046
 10
89.2553560083
 20
65.9561002629
 10
89.2510608306
 20
65.9459794627
 10
89.2464629666
 20
65.9359925807
 10
89.2415667239
 20
65.9261486258
 10
89.2363764103
 20
65.9164566067
 10
89.2308965085
 20
65.9069254331
 10
89.225132202
 20
65.897563618
 10
89.2190888491
 20
65.8883795751
 10
89.2127718085
 20
65.8793817182
 10
89.2061866008
 20
65.8705783441
 10
89.1993393951
 20
65.8619772818
 10
89.1922365227
 20
65.8535862431
 10
89.1848843149
 20
65.8454129401
 10
89.1772892494
 20
65.8374649483
 10
89.1694583885
 20
65.829749298
 10
89.1613989409
 20
65.8222728829
 10
89.1531181154
 20
65.8150425971
 10
89.144623252
 20
65.8080651819
 10
89.1359222159
 20
65.8013467683
 10
89.1270230036
 20
65.7948933349
 10
89.1179336116
 20
65.7887108601
 10
89.108662139
 20
65.7828051545
 10
89.0992170959
 20
65.7771813566
 10
89.0896070947
 20
65.7718444371
 10
89.079840748
 20
65.7667993665
 10
89.069926785
 20
65.7620509389
 10
89.0598744013
 20
65.7576032424
 10
89.0496929094
 20
65.7534601887
 10
89.0393916215
 20
65.7496256894
 10
89.0289798145
 20
65.7461034573
 10
89.0184666227
 20
65.742896409
 10
89.0078611447
 20
65.7400072622
 10
88.9971724793
 20
65.7374387346
 10
88.9864101519
 20
65.7351933871
 10
88.9755853942
 20
65.7332731532
 10
88.9647098648
 20
65.7316798095
 10
88.9537952221
 20
65.7304151329
  0
LWPOLYLINE
  5
3B1
100
AcDbEntity
  8
RACCORDO
100
AcDbPolyline
 62
7
  6
CONTINUOUS
 90
28
 70
0
 10
92.5968742893
 20
34.6372946594
 10
92.5965657839
 20
34.6442165749
 10
92.5958209742
 20
34.651373784
 10
92.5946400123
 20
34.6587543117
 10
92.5929969595
 20
34.6663466714
 10
92.5909180753
 20
34.6741387579
 10
92.588481826
 20
34.6821175689
 10
92.585693405
 20
34.6902694591
 10
92.5825479925
 20
34.6985845978
 10
92.57910904
 20
34.7070559513
 10
92.5753808725
 20
34.7156716777
 10
92.5713595417
 20
34.7244217748
 10
92.5670960711
 20
34.7333029413
 10
92.5625939769
 20
34.7423046886
 10
92.5578501044
 20
34.7514176197
 10
92.5529054387
 20
34.760641264
 10
92.5477625501
 20
34.7699667443
 10
92.5424192042
 20
34.7793850496
 10
92.5369091449
 20
34.7888966603
 10
92.5312342953
 20
34.7984936967
 10
92.5253930428
 20
34.8081678833
 10
92.5194137973
 20
34.8179200828
 10
92.5132979914
 20
34.8277432145
 10
92.50704448
 20
34.8376296699
 10
92.5006777786
 20
34.8475803137
 10
92.4941989377
 20
34.8575887204
 10
92.4876071746
 20
34.8676478424
 10
92.4741508519
 20
34.8879140226
  0
LWPOLYLINE
  5
3B2
100
AcDbEntity
  8
INCISIONI
100
AcDbPolyline
 62
250
  6
CONTINUOUS
 90
55
 70
0
 10
90.3431790879
 20
60.595841899
 10
90.3451826365
 20
60.5486749954
 10
90.3459491794
 20
60.5014636357
 10
90.3454778589
 20
60.4542462457
 10
90.3437683133
 20
60.4070599877
 10
90.3408221631
 20
60.3599369708
 10
90.3366415245
 20
60.3129080406
 10
90.3312289189
 20
60.2660043355
 10
90.3245884881
 20
60.2192581641
 10
90.316724779
 20
60.1727021274
 10
90.3076427626
 20
60.12636866
 10
90.2973491062
 20
60.0802895305
 10
90.2858509014
 20
60.0344963411
 10
90.27315565
 20
59.9890206087
 10
90.2592724957
 20
59.94389351
 10
90.2442109924
 20
59.8991461365
 10
90.2279810966
 20
59.8548094319
 10
90.2105943736
 20
59.8109137491
 10
90.1920627913
 20
59.7674892933
 10
90.1723987067
 20
59.7245660988
 10
90.1516160349
 20
59.6821735175
 10
90.1297290806
 20
59.6403407301
 10
90.1067525231
 20
59.5990967147
 10
90.0827025412
 20
59.5584696373
 10
90.0575956886
 20
59.5184874608
 10
90.0314488764
 20
59.4791779169
 10
90.0042804471
 20
59.4405678124
 10
89.9761091004
 20
59.4026837226
 10
89.9469538749
 20
59.3655519642
 10
89.9168351629
 20
59.3291978185
 10
89.8857736952
 20
59.2936463081
 10
89.8537905196
 20
59.2589221707
 10
89.8209079516
 20
59.2250490058
 10
89.7871486237
 20
59.1920501281
 10
89.7525354624
 20
59.1599485437
 10
89.717092571
 20
59.1287660247
 10
89.6808443471
 20
59.0985240342
 10
89.6438154548
 20
59.0692437046
 10
89.606031626
 20
59.0409448433
 10
89.567518859
 20
59.0136469267
 10
89.5283034005
 20
58.9873690816
 10
89.4884124893
 20
58.9621290367
 10
89.4478736122
 20
58.9379441709
 10
89.4067144456
 20
58.9148314895
 10
89.3649634254
 20
58.8928065024
 10
89.322649177
 20
58.8718843455
 10
89.2798005976
 20
58.852079789
 10
89.2364476721
 20
58.8334061406
 10
89.1926206573
 20
58.8158763421
 10
89.1483496338
 20
58.7995028677
 10
89.1036639787
 20
58.7842963201
 10
89.058592893
 20
58.7702668346
 10
89.0131669265
 20
58.7574243992
 10
88.9674220237
 20
58.7457784142
 10
88.9213954782
 20
58.7353381329
  0
LINE
  5
3B3
100
AcDbEntity
  8
RACCORDO
100
AcDbLine
 62
250
  6
CONTINUOUS
 10
91.6157751219
 20
77.4966278352
 11
91.6159228754
 21
77.4872710566
  0
LINE
  5
3B4
100
AcDbEntity
  8
RACCORDO
100
AcDbLine
 62
250
  6
CONTINUOUS
 10
91.6153677909
 20
29.9811065591
 11
91.6143266957
 21
30.050637209
  0
LINE
  5
3B5
100
AcDbEntity
  8
RACCORDO
100
AcDbLine
 62
250
  6
CONTINUOUS
 10
91.6159228754
 20
77.4872710566
 11
91.6160319956
 21
77.4765110737
  0
LINE
  5
3B6
100
AcDbEntity
  8
RACCORDO
100
AcDbLine
 62
250
  6
CONTINUOUS
 10
91.6159228753
 20
29.9256782202
 11
91.6153677909
 21
29.9811065591
  0
LINE
  5
3B7
100
AcDbEntity
  8
RACCORDO
100
AcDbLine
 62
250
  6
CONTINUOUS
 10
91.6160319956
 20
77.4765110737
 11
91.6161217607
 21
77.4578950589
  0
LINE
  5
3B8
100
AcDbEntity
  8
RACCORDO
100
AcDbLine
 62
250
  6
CONTINUOUS
 10
91.6161217607
 20
29.8849080897
 11
91.6159228753
 21
29.9256782202
  0
LINE
  5
3B9
100
AcDbEntity
  8
INCISIONI
100
AcDbLine
 62
250
  6
CONTINUOUS
 10
90.0971027465
 20
39.2607301472
 11
90.0971027465
 21
38.9007301436
  0
LINE
  5
3BA
100
AcDbEntity
  8
INCISIONI
100
AcDbLine
 62
250
  6
CONTINUOUS
 10
90.0971027465
 20
39.9807301043
 11
90.0971027465
 21
40.7007301615
  0
LINE
  5
3BB
100
AcDbEntity
  8
INCISIONI
100
AcDbLine
 62
250
  6
CONTINUOUS
 10
90.0971027465
 20
41.5407301615
 11
90.0971027465
 21
41.6607301043
  0
LINE
  5
3BC
100
AcDbEntity
  8
INCISIONI
100
AcDbLine
 62
250
  6
CONTINUOUS
 10
90.1971636685
 20
69.2207299879
 11
90.1971636685
 21
69.3727299154
  0
LINE
  5
3BD
100
AcDbEntity
  8
INCISIONI
100
AcDbLine
 62
250
  6
CONTINUOUS
 10
90.4139922893
 20
49.3854091329
 11
90.4139922893
 21
49.9360511329
  0
LINE
  5
3BE
100
AcDbEntity
  8
INCISIONI
100
AcDbLine
 62
250
  6
CONTINUOUS
 10
90.7398619408
 20
40.4607300757
 11
90.7398619408
 21
39.9807301043
  0
LINE
  5
3BF
100
AcDbEntity
  8
INCISIONI
100
AcDbLine
 62
250
  6
CONTINUOUS
 10
90.7398619408
 20
34.22073009
 11
90.7398619408
 21
33.700730171
  0
LINE
  5
3C0
100
AcDbEntity
  8
INCISIONI
100
AcDbLine
 62
250
  6
CONTINUOUS
 10
91.0113253146
 20
66.6367300785
 11
91.0113253146
 21
65.9780635145
  0
LINE
  5
3C1
100
AcDbEntity
  8
INCISIONI
100
AcDbLine
 62
250
  6
CONTINUOUS
 10
91.0967872893
 20
50.2554231329
 11
91.0967872893
 21
49.6607301329
  0
LINE
  5
3C2
100
AcDbEntity
  8
INCISIONI
100
AcDbLine
 62
250
  6
CONTINUOUS
 10
91.168368115
 20
35.1007300375
 11
91.168368115
 21
35.7407301996
  0
LINE
  5
3C3
100
AcDbEntity
  8
INCISIONI
100
AcDbLine
 62
250
  6
CONTINUOUS
 10
91.5968742893
 20
41.6607301043
 11
91.5968742893
 21
41.5407301615
  0
LINE
  5
3C4
100
AcDbEntity
  8
INCISIONI
100
AcDbLine
 62
250
  6
CONTINUOUS
 10
91.5968742893
 20
39.5007301329
 11
91.5968742893
 21
38.6607301329
  0
LINE
  5
3C5
100
AcDbEntity
  8
INCISIONI
100
AcDbLine
 62
250
  6
CONTINUOUS
 10
91.5968742893
 20
33.8607301615
 11
91.5968742893
 21
34.22073009
  0
LINE
  5
3C6
100
AcDbEntity
  8
INCISIONI
100
AcDbLine
 62
250
  6
CONTINUOUS
 10
91.5968742893
 20
39.9807301043
 11
91.5968742893
 21
40.4607300757
  0
LINE
  5
3C7
100
AcDbEntity
  8
INCISIONI
100
AcDbLine
 62
250
  6
CONTINUOUS
 10
91.6897934379
 20
71.5007299154
 11
91.6897934379
 21
70.4367299154
  0
LINE
  5
3C8
100
AcDbEntity
  8
0
100
AcDbLine
 62
250
  6
CONTINUOUS
 10
91.8949352765
 20
51.7953011329
 11
91.8949352765
 21
50.1285641329
  0
LINE
  5
3C9
100
AcDbEntity
  8
0
100
AcDbLine
 62
250
  6
CONTINUOUS
 10
91.8949352765
 20
48.4621721329
 11
91.8949352765
 21
49.5732151329
  0
LINE
  5
3CA
100
AcDbEntity
  8
0
100
AcDbLine
 62
250
  6
CONTINUOUS
 10
91.8949352765
 20
52.3509951329
 11
91.8949352765
 21
53.4620391329
  0
LINE
  5
3CB
100
AcDbEntity
  8
RACCORDO
100
AcDbLine
 62
250
  6
CONTINUOUS
 10
91.6161217607
 20
29.8635652015
 11
91.6161217607
 21
29.8849080897
  0
LINE
  5
3CC
100
AcDbEntity
  8
RACCORDO
100
AcDbLine
 62
250
  6
CONTINUOUS
 10
91.6161217607
 20
77.4578950589
 11
91.6161017751
 21
77.4288846121
  0
LINE
  5
3CD
100
AcDbEntity
  8
RACCORDO
100
AcDbLine
 62
250
  6
CONTINUOUS
 10
91.6160319955
 20
29.8449491878
 11
91.6161217607
 21
29.8635652015
  0
LINE
  5
3CE
100
AcDbEntity
  8
RACCORDO
100
AcDbLine
 62
250
  6
CONTINUOUS
 10
91.6161017751
 20
77.4288846121
 11
91.6158537736
 21
77.3869654101
  0
LINE
  5
3CF
100
AcDbEntity
  8
RACCORDO
100
AcDbLine
 62
250
  6
CONTINUOUS
 10
91.6159228753
 20
29.8341892058
 11
91.6160319955
 21
29.8449491878
  0
LINE
  5
3D0
100
AcDbEntity
  8
RACCORDO
100
AcDbLine
 62
250
  6
CONTINUOUS
 10
91.6158537736
 20
77.3869654101
 11
91.6152436029
 21
77.3306314858
  0
LINE
  5
3D1
100
AcDbEntity
  8
RACCORDO
100
AcDbLine
 62
250
  6
CONTINUOUS
 10
91.6152436029
 20
77.3306314858
 11
91.6143266957
 21
77.2708230568
  0
LINE
  5
3D2
100
AcDbEntity
  8
INCISIONI
100
AcDbLine
 62
250
  6
CONTINUOUS
 10
87.4488842893
 20
48.1818171329
 11
88.5968742893
 21
49.6607301329
  0
LINE
  5
3D3
100
AcDbEntity
  8
0
100
AcDbLine
 62
250
  6
CONTINUOUS
 10
96.8934523319
 20
51.7953011329
 11
91.8949352765
 21
51.7953011329
  0
LINE
  5
3D4
100
AcDbEntity
  8
0
100
AcDbLine
 62
250
  6
CONTINUOUS
 10
96.8934523319
 20
52.3509951329
 11
91.8949352765
 21
52.3509951329
  0
LINE
  5
3D5
100
AcDbEntity
  8
0
100
AcDbLine
 62
250
  6
CONTINUOUS
 10
92.450288072
 20
52.9063451329
 11
96.3379275887
 21
52.9063451329
  0
LINE
  5
3D6
100
AcDbEntity
  8
0
100
AcDbLine
 62
250
  6
CONTINUOUS
 10
91.8949352765
 20
53.4620391329
 11
92.450288072
 21
53.4620391329
  0
LINE
  5
3D7
100
AcDbEntity
  8
0
100
AcDbLine
 62
250
  6
CONTINUOUS
 10
96.3379275887
 20
53.4620391329
 11
96.8934523319
 21
53.4620391329
  0
LINE
  5
3D8
100
AcDbEntity
  8
INCISIONI
100
AcDbLine
 62
250
  6
CONTINUOUS
 10
85.5552126998
 20
64.2374201329
 11
85.1002193269
 21
65.2857251329
  0
LINE
  5
3D9
100
AcDbEntity
  8
INCISIONI
100
AcDbLine
 62
250
  6
CONTINUOUS
 10
86.4498231306
 20
64.0018581329
 11
85.9932592361
 21
65.0537801329
  0
LINE
  5
3DA
100
AcDbEntity
  8
INCISIONI
100
AcDbLine
 62
250
  6
CONTINUOUS
 10
85.1002193269
 20
68.1507651329
 11
85.5438241697
 21
67.1287031329
  0
LINE
  5
3DB
100
AcDbEntity
  8
INCISIONI
100
AcDbLine
 62
250
  6
CONTINUOUS
 10
86.5988797161
 20
64.8964851329
 11
87.0626184245
 21
63.8280301329
  0
LINE
  5
3DC
100
AcDbEntity
  8
INCISIONI
100
AcDbLine
 62
250
  6
CONTINUOUS
 10
92.0968742893
 20
69.3727299154
 11
92.0968742893
 21
69.2207299879
  0
LINE
  5
3DD
100
AcDbEntity
  8
INCISIONI
100
AcDbLine
 62
250
  6
CONTINUOUS
 10
92.0968742893
 20
66.1807301691
 11
92.0968742893
 21
66.6367300785
  0
LINE
  5
3DE
100
AcDbEntity
  8
RACCORDO
100
AcDbLine
 62
250
  6
CONTINUOUS
 10
92.3512373909
 20
30.8005229803
 11
92.3512373909
 21
35.0634619568
  0
LINE
  5
3DF
100
AcDbEntity
  8
RACCORDO
100
AcDbLine
 62
250
  6
CONTINUOUS
 10
92.3512373909
 20
72.257998309
 11
92.3512373909
 21
76.5209372854
  0
LINE
  5
3E0
100
AcDbEntity
  8
0
100
AcDbLine
 62
250
  6
CONTINUOUS
 10
92.450288072
 20
53.4620391329
 11
92.450288072
 21
52.9063451329
  0
LINE
  5
3E1
100
AcDbEntity
  8
0
100
AcDbLine
 62
250
  6
CONTINUOUS
 10
92.450288072
 20
51.2399521329
 11
92.450288072
 21
50.6842581329
  0
LINE
  5
3E2
100
AcDbEntity
  8
0
100
AcDbLine
 62
250
  6
CONTINUOUS
 10
92.450288072
 20
49.5732151329
 11
92.450288072
 21
49.0175211329
  0
LINE
  5
3E3
100
AcDbEntity
  8
RACCORDO
100
AcDbLine
 62
7
  6
CONTINUOUS
 10
92.5968742893
 20
34.6372946594
 11
92.5968742893
 21
30.8005229803
  0
LINE
  5
3E4
100
AcDbEntity
  8
RACCORDO
100
AcDbLine
 62
7
  6
CONTINUOUS
 10
92.5968742893
 20
72.6841656063
 11
92.5968742893
 21
76.5209372854
  0
LINE
  5
3E5
100
AcDbEntity
  8
0
100
AcDbLine
 62
250
  6
CONTINUOUS
 10
94.1163454588
 20
49.0175211329
 11
94.1163454588
 21
49.5732151329
  0
LINE
  5
3E6
100
AcDbEntity
  8
0
100
AcDbLine
 62
250
  6
CONTINUOUS
 10
94.1163454588
 20
50.6842581329
 11
94.1163454588
 21
51.2399521329
  0
LWPOLYLINE
  5
3E7
100
AcDbEntity
  8
RACCORDO
100
AcDbPolyline
 62
250
  6
CONTINUOUS
 90
58
 70
0
 10
92.3512373909
 20
30.8005229803
 10
92.3509576478
 20
30.7800692655
 10
92.3501231272
 20
30.7596592915
 10
92.3487338288
 20
30.7392930584
 10
92.3467879097
 20
30.7189550114
 10
92.344287213
 20
30.6986607053
 10
92.3412372679
 20
30.6784568045
 10
92.3376368367
 20
30.6583439462
 10
92.3334871572
 20
30.6383214932
 10
92.3287974721
 20
30.6184341975
 10
92.3235665821
 20
30.5986824312
 10
92.3177956866
 20
30.5790658221
 10
92.3114976265
 20
30.5596280062
 10
92.3046712481
 20
30.5403694134
 10
92.2973177053
 20
30.5212896138
 10
92.2894533006
 20
30.5024309526
 10
92.2810768691
 20
30.4837938557
 10
92.2721895758
 20
30.4653778973
 10
92.2628112184
 20
30.4472241447
 10
92.2529407186
 20
30.4293332176
 10
92.2425791547
 20
30.4117044962
 10
92.2317495593
 20
30.3943771892
 10
92.2204508804
 20
30.3773519527
 10
92.2086841699
 20
30.3606281306
 10
92.1964756163
 20
30.3442429631
 10
92.1838242564
 20
30.3281972275
 10
92.1707310532
 20
30.3124901465
 10
92.1572250843
 20
30.2971566281
 10
92.1433053952
 20
30.2821974663
 10
92.1289729402
 20
30.267611867
 10
92.1142596602
 20
30.253432356
 10
92.0991647412
 20
30.2396598714
 10
92.0836889971
 20
30.226293475
 10
92.0678668096
 20
30.2133628785
 10
92.0516973833
 20
30.200869031
 10
92.0351815137
 20
30.1888109835
 10
92.0183559693
 20
30.1772155999
 10
92.0012200729
 20
30.1660839198
 10
91.9837745017
 20
30.1554149037
 10
91.9660580559
 20
30.1452322966
 10
91.948070094
 20
30.1355371659
 10
91.9298112574
 20
30.1263284443
 10
91.9113222702
 20
30.1176266746
 10
91.8926026841
 20
30.1094330152
 10
91.8736529475
 20
30.1017463079
 10
91.8545151293
 20
30.0945836202
 10
91.8351887778
 20
30.0879461002
 10
91.8156743447
 20
30.0818325999
 10
91.7960152552
 20
30.0762567437
 10
91.7762111155
 20
30.0712197258
 10
91.7562623193
 20
30.0667203521
 10
91.7362134727
 20
30.0627686645
 10
91.7160639574
 20
30.0593658925
 10
91.6958143916
 20
30.0565108067
 10
91.6755112365
 20
30.05420976
 10
91.6551699789
 20
30.0524648704
 10
91.634775132
 20
30.0512740201
 10
91.6143266957
 20
30.050637209
  0
LINE
  5
3E8
100
AcDbEntity
  8
INCISIONI
100
AcDbLine
 62
250
  6
CONTINUOUS
 10
86.8970113636
 20
36.8607301329
 11
88.596112765
 21
40.8607301329
  0
LINE
  5
3E9
100
AcDbEntity
  8
INCISIONI
100
AcDbLine
 62
250
  6
CONTINUOUS
 10
100.5968742893
 20
65.4903171329
 11
99.0973301693
 21
62.9607301329
  0
LINE
  5
3EA
100
AcDbEntity
  8
INCISIONI
100
AcDbLine
 62
250
  6
CONTINUOUS
 10
100.7842731927
 20
63.1799351329
 11
100.4094753858
 21
62.7415251329
  0
LINE
  5
3EB
100
AcDbEntity
  8
INCISIONI
100
AcDbLine
 62
250
  6
CONTINUOUS
 10
86.9820729062
 20
44.5727301419
 11
86.7106856342
 21
44.2687301601
  0
LWPOLYLINE
  5
3EC
100
AcDbEntity
  8
0
100
AcDbPolyline
 62
250
  6
CONTINUOUS
 90
34
 70
0
 10
104.2529530563
 20
64.2642730238
 10
104.2394243461
 20
64.2505237218
 10
104.2262179762
 20
64.2364402197
 10
104.2133497673
 20
64.2220300285
 10
104.2008355403
 20
64.2073006593
 10
104.1886911159
 20
64.1922596229
 10
104.1769323148
 20
64.1769144304
 10
104.1655749579
 20
64.1612725929
 10
104.1546348657
 20
64.1453416213
 10
104.1441278592
 20
64.1291290267
 10
104.1341696859
 20
64.1128198828
 10
104.1246412056
 20
64.0962590473
 10
104.1155326625
 20
64.0794631654
 10
104.1068343004
 20
64.0624488828
 10
104.0985363636
 20
64.0452328449
 10
104.090629096
 20
64.0278316972
 10
104.0831027416
 20
64.0102620852
 10
104.0759475444
 20
63.9925406542
 10
104.0691537486
 20
63.9746840499
 10
104.0612411049
 20
63.9524551214
 10
104.0538317562
 20
63.9300616676
 10
104.046892094
 20
63.9075201355
 10
104.0403885098
 20
63.8848469722
 10
104.0342873949
 20
63.8620586247
 10
104.0285551409
 20
63.8391715399
 10
104.0231581392
 20
63.816202165
 10
104.0180627811
 20
63.7931669469
 10
104.0116987459
 20
63.7624402681
 10
104.0057629101
 20
63.7316361953
 10
104.0002089963
 20
63.7007647756
 10
103.9949907271
 20
63.6698360561
 10
103.9900618251
 20
63.6388600841
 10
103.985376013
 20
63.6078469066
 10
103.9808870134
 20
63.576806571
  0
LINE
  5
3ED
100
AcDbEntity
  8
INCISIONI
100
AcDbLine
 62
250
  6
CONTINUOUS
 10
85.9992457967
 20
56.2107291329
 11
86.7498371071
 21
56.2107291329
  0
LINE
  5
3EE
100
AcDbEntity
  8
INCISIONI
100
AcDbLine
 62
250
  6
CONTINUOUS
 10
90.3431822892
 20
56.2107291329
 11
91.0937735996
 21
56.2107291329
  0
LINE
  5
3EF
100
AcDbEntity
  8
CURVE
100
AcDbLine
 62
250
  6
CONTINUOUS
 10
104.0756013085
 20
49.2178727244
 11
104.4469732874
 21
49.0321585272
  0
LINE
  5
3F0
100
AcDbEntity
  8
CURVE
100
AcDbLine
 62
250
  6
CONTINUOUS
 10
103.7970722856
 20
46.1535872315
 11
104.0756013085
 21
45.9678730343
  0
LINE
  5
3F1
100
AcDbEntity
  8
CURVE
100
AcDbLine
 62
250
  6
CONTINUOUS
 10
103.7970722856
 20
47.1750159357
 11
104.0756013085
 21
46.9893014286
  0
LINE
  5
3F2
100
AcDbEntity
  8
CURVE
100
AcDbLine
 62
250
  6
CONTINUOUS
 10
103.7970722856
 20
48.19644433
 11
104.0756013085
 21
48.0107301329
  0
LINE
  5
3F3
100
AcDbEntity
  8
CURVE
100
AcDbLine
 62
250
  6
CONTINUOUS
 10
105.0968742893
 20
45.9678730343
 11
104.1684442645
 21
46.6178730343
  0
LINE
  5
3F4
100
AcDbEntity
  8
CURVE
100
AcDbLine
 62
250
  6
CONTINUOUS
 10
105.0968742893
 20
46.9893014286
 11
104.1684442645
 21
47.6393017386
  0
LINE
  5
3F5
100
AcDbEntity
  8
CURVE
100
AcDbLine
 62
250
  6
CONTINUOUS
 10
103.982758275
 20
43.1821586822
 11
103.7970722856
 21
43.3678729568
  0
LINE
  5
3F6
100
AcDbEntity
  8
CURVE
100
AcDbLine
 62
250
  6
CONTINUOUS
 10
105.0968742893
 20
43.646444485
 11
104.9111882804
 21
43.8321586822
  0
LWPOLYLINE
  5
3F7
100
AcDbEntity
  8
INCISIONI
100
AcDbPolyline
 62
250
  6
CONTINUOUS
 90
37
 70
0
 10
89.5968742893
 20
69.4988401329
 10
89.5926666602
 20
69.5133309004
 10
89.5880689985
 20
69.5277071465
 10
89.5830853172
 20
69.5419565419
 10
89.5777196295
 20
69.5560667575
 10
89.571976019
 20
69.5700259444
 10
89.5658588511
 20
69.5838241756
 10
89.5593725617
 20
69.5974520047
 10
89.5525215869
 20
69.610899985
 10
89.5453105669
 20
69.6241586525
 10
89.5377449601
 20
69.6372184727
 10
89.5298304292
 20
69.6500698933
 10
89.5215726369
 20
69.6627033623
 10
89.5129774005
 20
69.675109467
 10
89.5040511562
 20
69.6872793524
 10
89.4948004945
 20
69.6992043031
 10
89.4852320061
 20
69.7108756038
 10
89.4753524365
 20
69.7222846573
 10
89.4651691501
 20
69.7334233399
 10
89.4546896658
 20
69.7442836462
 10
89.443921503
 20
69.7548575709
 10
89.4328723083
 20
69.7651372557
 10
89.4215502395
 20
69.7751154309
 10
89.4099635821
 20
69.7847849737
 10
89.3981206214
 20
69.7941387616
 10
89.3860297916
 20
69.8031698176
 10
89.373700122
 20
69.8118717477
 10
89.3611407906
 20
69.8202383034
 10
89.3483609755
 20
69.8282632365
 10
89.3353698498
 20
69.8359405038
 10
89.3221765674
 20
69.8432648832
 10
89.3087902775
 20
69.8502313577
 10
89.295220129
 20
69.8568349102
 10
89.2814757548
 20
69.8630705643
 10
89.2675687228
 20
69.8689335051
 10
89.2535110845
 20
69.8744189583
 10
89.2393148917
 20
69.8795221494
  0
LINE
  5
3F8
100
AcDbEntity
  8
0
100
AcDbLine
 62
250
  6
CONTINUOUS
 10
94.6718702019
 20
49.5732151329
 11
94.6718702019
 21
49.0175211329
  0
LINE
  5
3F9
100
AcDbEntity
  8
0
100
AcDbLine
 62
250
  6
CONTINUOUS
 10
94.6718702019
 20
50.6842581329
 11
94.6718702019
 21
51.2399521329
  0
LINE
  5
3FA
100
AcDbEntity
  8
0
100
AcDbLine
 62
250
  6
CONTINUOUS
 10
96.3379275887
 20
49.0175211329
 11
96.3379275887
 21
49.5732151329
  0
LINE
  5
3FB
100
AcDbEntity
  8
0
100
AcDbLine
 62
250
  6
CONTINUOUS
 10
96.3379275887
 20
52.9063451329
 11
96.3379275887
 21
53.4620391329
  0
LINE
  5
3FC
100
AcDbEntity
  8
INCISIONI
100
AcDbLine
 62
250
  6
CONTINUOUS
 10
100.5968742893
 20
60.4311431329
 11
102.0964184092
 21
62.9607301329
  0
LINE
  5
3FD
100
AcDbEntity
  8
INCISIONI
100
AcDbLine
 62
250
  6
CONTINUOUS
 10
91.0255327385
 20
44.220730152
 11
91.2397858256
 21
44.5407301329
  0
LINE
  5
3FE
100
AcDbEntity
  8
ASSI
100
AcDbLine
 62
7
  6
CONTINUOUS
 10
78.5968742893
 20
34.8607301329
 11
78.8433208987
 21
35.1071767423
  0
LINE
  5
3FF
100
AcDbEntity
  8
0
100
AcDbLine
 62
250
  6
CONTINUOUS
 10
103.5216270478
 20
60.6606001329
 11
108.4981549831
 21
65.3922861329
  0
LINE
  5
400
100
AcDbEntity
  8
INCISIONI
100
AcDbLine
 62
250
  6
CONTINUOUS
 10
86.1679112035
 20
44.5220634783
 11
85.8965239881
 21
44.2687301601
  0
LINE
  5
401
100
AcDbEntity
  8
CURVE
100
AcDbLine
 62
250
  6
CONTINUOUS
 10
105.0968742893
 20
48.0107301329
 11
104.1684442645
 21
48.6607301329
  0
LINE
  5
402
100
AcDbEntity
  8
ASSI
100
AcDbLine
 62
7
  6
CONTINUOUS
 10
78.8433208987
 20
72.2142835235
 11
78.5968742893
 21
72.4607301329
  0
LINE
  5
403
100
AcDbEntity
  8
INCISIONI
100
AcDbLine
 62
250
  6
CONTINUOUS
 10
88.0684049822
 20
69.2386331329
 11
88.2906142796
 21
68.7266631329
  0
LINE
  5
404
100
AcDbEntity
  8
INCISIONI
100
AcDbLine
 62
250
  6
CONTINUOUS
 10
88.7437992036
 20
68.5991131329
 11
88.0545042175
 21
70.1872451329
  0
LINE
  5
405
100
AcDbEntity
  8
INCISIONI
100
AcDbLine
 62
250
  6
CONTINUOUS
 10
87.8344462646
 20
70.6942601329
 11
87.4168454989
 21
71.6564101329
  0
LINE
  5
406
100
AcDbEntity
  8
INCISIONI
100
AcDbLine
 62
250
  6
CONTINUOUS
 10
87.7317945404
 20
72.1048951329
 11
88.4087932729
 21
70.5450881329
  0
LINE
  5
407
100
AcDbEntity
  8
INCISIONI
100
AcDbLine
 62
250
  6
CONTINUOUS
 10
88.6288512258
 20
70.0380731329
 11
89.0824330289
 21
68.9930251329
  0
LINE
  5
408
100
AcDbEntity
  8
INCISIONI
100
AcDbLine
 62
250
  6
CONTINUOUS
 10
88.1325304445
 20
72.0008131329
 11
88.3502811004
 21
71.4991181329
  0
LINE
  5
409
100
AcDbEntity
  8
0
100
AcDbLine
 62
250
  6
CONTINUOUS
 10
96.8934523319
 20
53.4620391329
 11
96.8934523319
 21
52.3509951329
  0
LINE
  5
40A
100
AcDbEntity
  8
0
100
AcDbLine
 62
250
  6
CONTINUOUS
 10
96.8934523319
 20
49.5732151329
 11
96.8934523319
 21
48.4621721329
  0
LINE
  5
40B
100
AcDbEntity
  8
0
100
AcDbLine
 62
250
  6
CONTINUOUS
 10
96.8934523319
 20
50.1285641329
 11
96.8934523319
 21
50.6842581329
  0
LINE
  5
40C
100
AcDbEntity
  8
0
100
AcDbLine
 62
250
  6
CONTINUOUS
 10
96.8934523319
 20
51.2399521329
 11
96.8934523319
 21
51.7953011329
  0
LINE
  5
40D
100
AcDbEntity
  8
INCISIONI
100
AcDbLine
 62
250
  6
CONTINUOUS
 10
90.0971027465
 20
41.6607301043
 11
90.3113558113
 21
41.9007301901
  0
LWPOLYLINE
  5
40E
100
AcDbEntity
  8
CURVE
100
AcDbPolyline
 62
250
  6
CONTINUOUS
 90
85
 70
0
 10
95.0968742893
 20
59.5642164473
 10
95.1722884521
 20
59.5661428919
 10
95.2476486291
 20
59.5718563738
 10
95.3227366795
 20
59.5812581156
 10
95.3973344627
 20
59.5942493398
 10
95.4712238379
 20
59.6107312688
 10
95.5441866647
 20
59.6306051252
 10
95.6162850435
 20
59.6538617699
 10
95.6871687789
 20
59.680342767
 10
95.7567760952
 20
59.7099557906
 10
95.8249510014
 20
59.7425580438
 10
95.8916876884
 20
59.7780617447
 10
95.9568826799
 20
59.8163364817
 10
96.0204070719
 20
59.8572328073
 10
96.0822255164
 20
59.9006527828
 10
96.1422755462
 20
59.9464821485
 10
96.2004747686
 20
59.994578905
 10
96.2568282713
 20
60.0448301519
 10
96.3113194553
 20
60.0970974566
 10
96.3639746312
 20
60.1512878541
 10
96.4147512942
 20
60.2072397722
 10
96.4636527299
 20
60.2648342275
 10
96.5106668376
 20
60.3239384518
 10
96.5558140584
 20
60.3844841492
 10
96.5990981908
 20
60.4463902613
 10
96.6485098738
 20
60.5222415921
 10
96.6952543861
 20
60.5997984236
 10
96.7393336474
 20
60.6789296855
 10
96.7807495777
 20
60.7595043076
 10
96.8195040968
 20
60.8413912193
 10
96.8555974289
 20
60.9244496812
 10
96.8890603937
 20
61.008587596
 10
96.9199211862
 20
61.0937036102
 10
96.948208001
 20
61.17969637
 10
96.9739490331
 20
61.2664645218
 10
97.0026185619
 20
61.3759820349
 10
97.0274217991
 20
61.4864190958
 10
97.0484167766
 20
61.5976236224
 10
97.065613592
 20
61.7094956752
 10
97.0789939176
 20
61.8218224859
 10
97.0885637357
 20
61.9345622713
 10
97.0943129964
 20
62.047577373
 10
97.09623165
 20
62.1607301329
 10
97.0943129964
 20
62.2738828928
 10
97.0885637357
 20
62.3868979945
 10
97.0789939176
 20
62.4996377798
 10
97.065613592
 20
62.6119645906
 10
97.0484167766
 20
62.7238366434
 10
97.0274217991
 20
62.83504117
 10
97.0026185619
 20
62.9454782308
 10
96.9739490331
 20
63.0549957439
 10
96.948208001
 20
63.1417638958
 10
96.9199211862
 20
63.2277566556
 10
96.8890603937
 20
63.3128726697
 10
96.8555974289
 20
63.3970105846
 10
96.8195040968
 20
63.4800690464
 10
96.7807495777
 20
63.5619559582
 10
96.7393336474
 20
63.6425305802
 10
96.6952543861
 20
63.7216618422
 10
96.6485098738
 20
63.7992186737
 10
96.5990981908
 20
63.8750700045
 10
96.5558140584
 20
63.9369761166
 10
96.5106668376
 20
63.9975218139
 10
96.4636527299
 20
64.0566260382
 10
96.4147512942
 20
64.1142204936
 10
96.3639746312
 20
64.1701724117
 10
96.3113194553
 20
64.2243628092
 10
96.2568282713
 20
64.2766301138
 10
96.2004747686
 20
64.3268813607
 10
96.1422755462
 20
64.3749781173
 10
96.0822255164
 20
64.4208074829
 10
96.0204070719
 20
64.4642274584
 10
95.9568826799
 20
64.5051237841
 10
95.8916876884
 20
64.543398521
 10
95.8249510014
 20
64.5789022219
 10
95.7567760952
 20
64.6115044752
 10
95.6871687789
 20
64.6411174988
 10
95.6162850435
 20
64.6675984958
 10
95.5441866647
 20
64.6908551406
 10
95.4712238379
 20
64.7107289969
 10
95.3973344627
 20
64.7272109259
 10
95.3227366795
 20
64.7402021501
 10
95.2476486291
 20
64.749603892
 10
95.1722884521
 20
64.7553173739
 10
95.0968742893
 20
64.7572438184
  0
LINE
  5
40F
100
AcDbEntity
  8
0
100
AcDbLine
 62
7
  6
CONTINUOUS
 10
111.5968742893
 20
59.7880771329
 11
111.7968742893
 21
59.7880771329
  0
LINE
  5
410
100
AcDbEntity
  8
INCISIONI
100
AcDbLine
 62
250
  6
CONTINUOUS
 10
88.1716239181
 20
60.1958391329
 11
88.9213954782
 21
60.1958391329
  0
LINE
  5
411
100
AcDbEntity
  8
0
100
AcDbLine
 62
250
  6
CONTINUOUS
 10
111.5968742893
 20
60.4403191329
 11
111.7968742893
 21
60.4403191329
  0
LINE
  5
412
100
AcDbEntity
  8
INCISIONI
100
AcDbLine
 62
250
  6
CONTINUOUS
 10
85.9992457967
 20
60.5958391329
 11
86.7498371071
 21
60.5958391329
  0
LINE
  5
413
100
AcDbEntity
  8
INCISIONI
100
AcDbLine
 62
250
  6
CONTINUOUS
 10
90.3431822892
 20
60.5958391329
 11
91.0937735996
 21
60.5958391329
  0
LWPOLYLINE
  5
414
100
AcDbEntity
  8
0
100
AcDbPolyline
 62
7
  6
CONTINUOUS
 90
24
 70
0
 10
78.1775958668
 20
70.0887606819
 10
78.1753854378
 20
70.0904385702
 10
78.1732752196
 20
70.0922133312
 10
78.1758350815
 20
70.0895355257
 10
78.1814991752
 20
70.0827314204
 10
78.1897612136
 20
70.0714711141
 10
78.2004420517
 20
70.0551457387
 10
78.2128322194
 20
70.0341323972
 10
78.2267085649
 20
70.0082760375
 10
78.2419301565
 20
69.977349508
 10
78.258102169
 20
69.9417641581
 10
78.2751088023
 20
69.9014862787
 10
78.2928941898
 20
69.8563838391
 10
78.3112538317
 20
69.8067636798
 10
78.3301315273
 20
69.7526228141
 10
78.3495013837
 20
69.6938963697
 10
78.3692516228
 20
69.6308162855
 10
78.3893525031
 20
69.5634054033
 10
78.4097918416
 20
69.4916445844
 10
78.4305062769
 20
69.415717624
 10
78.4514800206
 20
69.3356665526
 10
78.4727060643
 20
69.251512721
 10
78.4941451353
 20
69.1634226485
 10
78.5021618518
 20
69.1293595527
  0
LWPOLYLINE
  5
415
100
AcDbEntity
  8
INCISIONI
100
AcDbPolyline
 62
250
  6
CONTINUOUS
 90
45
 70
0
 10
87.0626204641
 20
66.2216028115
 10
87.0522276906
 20
66.2297629809
 10
87.0420735498
 20
66.2382253474
 10
87.0321681943
 20
66.2469813537
 10
87.0225217767
 20
66.2560224426
 10
87.0131439536
 20
66.2653401623
 10
87.0040423976
 20
66.2749264834
 10
86.9952242854
 20
66.2847734822
 10
86.9866967935
 20
66.294873235
 10
86.9784670225
 20
66.3052176095
 10
86.9705417676
 20
66.3157976386
 10
86.9629277479
 20
66.3266041469
 10
86.9556316825
 20
66.3376279588
 10
86.9486600822
 20
66.3488597999
 10
86.9420186248
 20
66.3602900003
 10
86.9357127799
 20
66.3719087916
 10
86.9297480169
 20
66.3837064052
 10
86.9241296161
 20
66.3956729716
 10
86.9188621
 20
66.4077982184
 10
86.9139498018
 20
66.4200717724
 10
86.9093970545
 20
66.4324832603
 10
86.9052079842
 20
66.4450222385
 10
86.9013858873
 20
66.4576779828
 10
86.8979338531
 20
66.4704396985
 10
86.8948549709
 20
66.4832965911
 10
86.8921521168
 20
66.4962378159
 10
86.8898273149
 20
66.5092523274
 10
86.8878823761
 20
66.5223290302
 10
86.8863191113
 20
66.5354568286
 10
86.8851391173
 20
66.5486246124
 10
86.884343135
 20
66.5618212125
 10
86.8839316913
 20
66.5750354446
 10
86.8839053128
 20
66.588256125
 10
86.8842642974
 20
66.6014720432
 10
86.8850080269
 20
66.6146718833
 10
86.8861356542
 20
66.6278443031
 10
86.8876463322
 20
66.6409779603
 10
86.8895390384
 20
66.6540616495
 10
86.8918120505
 20
66.6670847116
 10
86.8944634707
 20
66.6800366244
 10
86.8974914014
 20
66.6929068657
 10
86.9008935799
 20
66.7056845611
 10
86.9046662837
 20
66.7183574275
 10
86.9088054251
 20
66.7309128298
 10
86.9133069167
 20
66.7433381329
  0
LINE
  5
416
100
AcDbEntity
  8
CURVE
100
AcDbLine
 62
250
  6
CONTINUOUS
 10
103.7970722856
 20
49.49644433
 11
104.0756013085
 21
49.2178727244
  0
LINE
  5
417
100
AcDbEntity
  8
CURVE
100
AcDbLine
 62
250
  6
CONTINUOUS
 10
104.1684442645
 20
50.0535875414
 11
103.7970722856
 21
50.4250159357
  0
LINE
  5
418
100
AcDbEntity
  8
CURVE
100
AcDbLine
 62
250
  6
CONTINUOUS
 10
105.0968742893
 20
49.49644433
 11
104.9111882804
 21
49.6821585272
  0
LINE
  5
419
100
AcDbEntity
  8
INCISIONI
100
AcDbLine
 62
250
  6
CONTINUOUS
 10
90.7399380992
 20
64.6607301329
 11
90.1971636685
 21
65.2687301601
  0
LWPOLYLINE
  5
41A
100
AcDbEntity
  8
INCISIONI
100
AcDbPolyline
 62
250
  6
CONTINUOUS
 90
20
 70
0
 10
87.4168455616
 20
71.6564110225
 10
87.4083650933
 20
71.6682549697
 10
87.399439759
 20
71.6797769285
 10
87.390055582
 20
71.6909344553
 10
87.3801985856
 20
71.7016851066
 10
87.3719649414
 20
71.7099624087
 10
87.3634221264
 20
71.7179210459
 10
87.3545725051
 20
71.7255299044
 10
87.3454184423
 20
71.7327578706
 10
87.3359623026
 20
71.7395738308
 10
87.3262227572
 20
71.7459507328
 10
87.3162215256
 20
71.7519177456
 10
87.3059960006
 20
71.7575071636
 10
87.2955835753
 20
71.7627512811
 10
87.2850216425
 20
71.7676823927
 10
87.2716488071
 20
71.7734605504
 10
87.2581311671
 20
71.7788690205
 10
87.2444993593
 20
71.7839773846
 10
87.2307840206
 20
71.788855224
 10
87.2124114506
 20
71.7951193304
  0
LINE
  5
41B
100
AcDbEntity
  8
INCISIONI
100
AcDbLine
 62
250
  6
CONTINUOUS
 10
100.1532224608
 20
61.6870611329
 11
100.1532224608
 21
62.3083631329
  0
LINE
  5
41C
100
AcDbEntity
  8
INCISIONI
100
AcDbLine
 62
250
  6
CONTINUOUS
 10
100.1532224608
 20
63.7595471329
 11
100.1532224608
 21
64.2920921329
  0
LINE
  5
41D
100
AcDbEntity
  8
INCISIONI
100
AcDbLine
 62
250
  6
CONTINUOUS
 10
100.5968742893
 20
63.7595471329
 11
100.5968742893
 21
64.0879501329
  0
LINE
  5
41E
100
AcDbEntity
  8
INCISIONI
100
AcDbLine
 62
250
  6
CONTINUOUS
 10
101.0405261177
 20
64.2920921329
 11
101.0405261177
 21
63.7595471329
  0
LINE
  5
41F
100
AcDbEntity
  8
INCISIONI
100
AcDbLine
 62
250
  6
CONTINUOUS
 10
91.5968742893
 20
41.5407301615
 11
91.3826212021
 21
41.3007300757
  0
LINE
  5
420
100
AcDbEntity
  8
INCISIONI
100
AcDbLine
 62
250
  6
CONTINUOUS
 10
90.9541150503
 20
40.7007301615
 11
90.7398619408
 21
40.4607300757
  0
LINE
  5
421
100
AcDbEntity
  8
INCISIONI
100
AcDbLine
 62
250
  6
CONTINUOUS
 10
90.3113558113
 20
39.5007301329
 11
90.0971027465
 21
39.2607301472
  0
LWPOLYLINE
  5
422
100
AcDbEntity
  8
0
100
AcDbPolyline
 62
250
  6
CONTINUOUS
 90
17
 70
0
 10
107.6466956842
 20
63.7078381329
 10
107.708373565
 20
63.7138866232
 10
107.7677021545
 20
63.731801709
 10
107.8224216451
 20
63.7609010102
 10
107.8712329377
 20
63.800858676
 10
107.9105695084
 20
63.8487550958
 10
107.939855207
 20
63.9033810128
 10
107.9579745506
 20
63.9626557428
 10
107.9642393134
 20
64.0254301329
 10
107.9581917443
 20
64.087117409
 10
107.9402793871
 20
64.1464550358
 10
107.9111845178
 20
64.2011828618
 10
107.8712329377
 20
64.2500015897
 10
107.8233438128
 20
64.2893441524
 10
107.7687262156
 20
64.3186343122
 10
107.7094605134
 20
64.3367564158
 10
107.6466956564
 20
64.3430221329
  0
LWPOLYLINE
  5
423
100
AcDbEntity
  8
0
100
AcDbPolyline
 62
250
  6
CONTINUOUS
 90
17
 70
0
 10
107.6466956842
 20
63.8849201329
 10
107.6739833962
 20
63.887596124
 10
107.7002317277
 20
63.8955221697
 10
107.724440888
 20
63.9083963693
 10
107.7460361257
 20
63.9260745591
 10
107.7634395286
 20
63.9472650359
 10
107.7763961948
 20
63.9714327971
 10
107.7844126088
 20
63.9976573
 10
107.7871842838
 20
64.0254301329
 10
107.7845087003
 20
64.0527220016
 10
107.7765838618
 20
64.0789743315
 10
107.7637116229
 20
64.1031871795
 10
107.7460361257
 20
64.1247857067
 10
107.7248488762
 20
64.1421917607
 10
107.7006847959
 20
64.1551504005
 10
107.6744642872
 20
64.1631680356
 10
107.6466956719
 20
64.1659401329
  0
LWPOLYLINE
  5
424
100
AcDbEntity
  8
0
100
AcDbPolyline
 62
250
  6
CONTINUOUS
 90
17
 70
0
 10
107.6466956842
 20
64.1659401329
 10
107.6194079722
 20
64.1632641418
 10
107.5931596407
 20
64.1553380961
 10
107.5689504804
 20
64.1424638964
 10
107.5473552427
 20
64.1247857067
 10
107.5299518398
 20
64.1035952298
 10
107.5169951736
 20
64.0794274687
 10
107.5089787596
 20
64.0532029658
 10
107.5062070845
 20
64.0254301329
 10
107.5088826681
 20
63.9981382642
 10
107.5168075066
 20
63.9718859343
 10
107.5296797455
 20
63.9476730863
 10
107.5473552427
 20
63.9260745591
 10
107.5685424922
 20
63.9086685051
 10
107.5927065725
 20
63.8957098653
 10
107.6189270812
 20
63.8876922301
 10
107.6466956965
 20
63.8849201329
  0
LWPOLYLINE
  5
425
100
AcDbEntity
  8
0
100
AcDbPolyline
 62
250
  6
CONTINUOUS
 90
17
 70
0
 10
107.6466956842
 20
64.3430221329
 10
107.5850178034
 20
64.3369736426
 10
107.5256892139
 20
64.3190585568
 10
107.4709697233
 20
64.2899592556
 10
107.4221584307
 20
64.2500015897
 10
107.38282186
 20
64.20210517
 10
107.3535361613
 20
64.147479253
 10
107.3354168178
 20
64.0882045229
 10
107.329152055
 20
64.0254301329
 10
107.3351996241
 20
63.9637428568
 10
107.3531119813
 20
63.9044052299
 10
107.3822068506
 20
63.849677404
 10
107.4221584307
 20
63.800858676
 10
107.4700475555
 20
63.7615161133
 10
107.5246651527
 20
63.7322259536
 10
107.583930855
 20
63.71410385
 10
107.646695712
 20
63.7078381329
  0
LWPOLYLINE
  5
426
100
AcDbEntity
  8
0
100
AcDbPolyline
 62
250
  6
CONTINUOUS
 90
17
 70
0
 10
104.3016512283
 20
64.2580611329
 10
104.339051571
 20
64.2617288272
 10
104.3750273462
 20
64.2725922086
 10
104.408208248
 20
64.2902374945
 10
104.4378065261
 20
64.3144670947
 10
104.4616595056
 20
64.3435106107
 10
104.4794178195
 20
64.376634771
 10
104.4904050591
 20
64.412577887
 10
104.4942038971
 20
64.4506431329
 10
104.4905367614
 20
64.4880491727
 10
104.4796750345
 20
64.5240304281
 10
104.4620324361
 20
64.5572163842
 10
104.4378065261
 20
64.586819171
 10
104.4087674337
 20
64.6106757839
 10
104.3756483183
 20
64.6284368029
 10
104.3397106767
 20
64.6394257162
 10
104.3016512114
 20
64.6432251329
  0
LINE
  5
427
100
AcDbEntity
  8
0
100
AcDbLine
 62
250
  6
CONTINUOUS
 10
104.4061123159
 20
62.0918541329
 11
107.7678212334
 21
62.3859041329
  0
LINE
  5
428
100
AcDbEntity
  8
RACCORDO
100
AcDbLine
 62
7
  6
CONTINUOUS
 10
111.7968742893
 20
61.96177734
 11
114.2984450784
 21
61.9748756537
  0
LINE
  5
429
100
AcDbEntity
  8
0
100
AcDbLine
 62
7
  6
CONTINUOUS
 10
111.7968742893
 20
60.8700591585
 11
111.5968742893
 21
60.8700591585
  0
LINE
  5
42A
100
AcDbEntity
  8
0
100
AcDbLine
 62
7
  6
CONTINUOUS
 10
111.5968742893
 20
60.9896361329
 11
111.7968742893
 21
60.9896361329
  0
LINE
  5
42B
100
AcDbEntity
  8
0
100
AcDbLine
 62
250
  6
CONTINUOUS
 10
110.5968742893
 20
61.0683681329
 11
109.5780174897
 21
61.0683681329
  0
LINE
  5
42C
100
AcDbEntity
  8
0
100
AcDbLine
 62
7
  6
CONTINUOUS
 10
111.5968742893
 20
61.5349461329
 11
111.7968742893
 21
61.5349461329
  0
LINE
  5
42D
100
AcDbEntity
  8
0
100
AcDbLine
 62
7
  6
CONTINUOUS
 10
111.5968742893
 20
61.7570551329
 11
111.7968742893
 21
61.7570551329
  0
LINE
  5
42E
100
AcDbEntity
  8
INCISIONI
100
AcDbLine
 62
250
  6
CONTINUOUS
 10
101.0405261177
 20
61.9977121329
 11
100.1532224608
 21
61.9977121329
  0
LINE
  5
42F
100
AcDbEntity
  8
0
100
AcDbLine
 62
7
  6
CONTINUOUS
 10
111.5968742893
 20
62.2821001329
 11
111.7968742893
 21
62.2821001329
  0
LINE
  5
430
100
AcDbEntity
  8
0
100
AcDbLine
 62
7
  6
CONTINUOUS
 10
111.5968742893
 20
62.3365971329
 11
111.7968742893
 21
62.3365971329
  0
LINE
  5
431
100
AcDbEntity
  8
0
100
AcDbLine
 62
250
  6
CONTINUOUS
 10
104.4061123159
 20
62.3789461329
 11
104.0115544181
 21
62.3789461329
  0
LINE
  5
432
100
AcDbEntity
  8
0
100
AcDbLine
 62
250
  6
CONTINUOUS
 10
107.9642393134
 20
62.4426131329
 11
107.7678212334
 21
62.4426131329
  0
LINE
  5
433
100
AcDbEntity
  8
0
100
AcDbLine
 62
250
  6
CONTINUOUS
 10
104.0115544181
 20
62.4783201329
 11
104.4061123159
 21
62.4783201329
  0
LINE
  5
434
100
AcDbEntity
  8
0
100
AcDbLine
 62
250
  6
CONTINUOUS
 10
107.7678212334
 20
62.5602331329
 11
107.9642393134
 21
62.5602331329
  0
LINE
  5
435
100
AcDbEntity
  8
0
100
AcDbLine
 62
250
  6
CONTINUOUS
 10
105.4493793971
 20
62.9488001329
 11
105.2337762395
 21
62.9488001329
  0
LINE
  5
436
100
AcDbEntity
  8
INCISIONI
100
AcDbLine
 62
250
  6
CONTINUOUS
 10
89.5968742893
 20
63.1607301329
 11
87.0626184245
 21
63.8280301329
  0
LINE
  5
437
100
AcDbEntity
  8
INCISIONI
100
AcDbLine
 62
250
  6
CONTINUOUS
 10
86.4498231306
 20
64.0018581329
 11
85.5552126998
 21
64.2374201329
  0
LINE
  5
438
100
AcDbEntity
  8
INCISIONI
100
AcDbLine
 62
250
  6
CONTINUOUS
 10
90.1971636685
 20
66.6367300785
 11
90.6042445481
 21
66.1807301691
  0
LINE
  5
439
100
AcDbEntity
  8
INCISIONI
100
AcDbLine
 62
250
  6
CONTINUOUS
 10
90.7399380992
 20
67.5487300242
 11
90.1971636685
 21
68.1567302416
  0
LINE
  5
43A
100
AcDbEntity
  8
INCISIONI
100
AcDbLine
 62
250
  6
CONTINUOUS
 10
92.0968742893
 20
66.6367300785
 11
91.8254870456
 21
66.9407300604
  0
LINE
  5
43B
100
AcDbEntity
  8
INCISIONI
100
AcDbLine
 62
250
  6
CONTINUOUS
 10
90.4685508838
 20
68.9167301329
 11
90.1971636685
 21
69.2207299879
  0
LINE
  5
43C
100
AcDbEntity
  8
0
100
AcDbLine
 62
7
  6
CONTINUOUS
 10
102.4468742893
 20
34.1941849127
 11
102.4468742893
 21
32.5373416302
  0
LINE
  5
43D
100
AcDbEntity
  8
RACCORDO
100
AcDbLine
 62
7
  6
CONTINUOUS
 10
102.4468742893
 20
32.1207301329
 11
102.4468742893
 21
32.5373416302
  0
LINE
  5
43E
100
AcDbEntity
  8
0
100
AcDbLine
 62
7
  6
CONTINUOUS
 10
102.4468742893
 20
73.127275353
 11
102.4468742893
 21
74.7841186356
  0
LINE
  5
43F
100
AcDbEntity
  8
RACCORDO
100
AcDbLine
 62
7
  6
CONTINUOUS
 10
102.4468742893
 20
74.7841186356
 11
102.4468742893
 21
75.2007301329
  0
LINE
  5
440
100
AcDbEntity
  8
0
100
AcDbLine
 62
250
  6
CONTINUOUS
 10
102.6468742893
 20
34.1941849127
 11
102.6468742893
 21
32.5373416302
  0
LINE
  5
441
100
AcDbEntity
  8
0
100
AcDbLine
 62
250
  6
CONTINUOUS
 10
102.6468742893
 20
73.127275353
 11
102.6468742893
 21
74.7841186356
  0
LINE
  5
442
100
AcDbEntity
  8
INCISIONI
100
AcDbLine
 62
250
  6
CONTINUOUS
 10
90.3113558113
 20
41.9007301901
 11
90.525608876
 21
42.0207301329
  0
LINE
  5
443
100
AcDbEntity
  8
INCISIONI
100
AcDbLine
 62
250
  6
CONTINUOUS
 10
91.3826212021
 20
41.3007300757
 11
91.168368115
 21
41.1807301329
  0
LINE
  5
444
100
AcDbEntity
  8
INCISIONI
100
AcDbLine
 62
250
  6
CONTINUOUS
 10
90.0971027465
 20
42.5007303045
 11
91.5968742893
 21
42.9807300757
  0
LWPOLYLINE
  5
445
100
AcDbEntity
  8
0
100
AcDbPolyline
 62
250
  6
CONTINUOUS
 90
17
 70
0
 10
104.3016512283
 20
64.6432251329
 10
104.2642508856
 20
64.6395574386
 10
104.2282751103
 20
64.6286940571
 10
104.1950942086
 20
64.6110487713
 10
104.1654959304
 20
64.586819171
 10
104.141642951
 20
64.5577756551
 10
104.1238846371
 20
64.5246514947
 10
104.1128973974
 20
64.4887083788
 10
104.1090985594
 20
64.4506431329
 10
104.1127656951
 20
64.4132370931
 10
104.123627422
 20
64.3772558377
 10
104.1412700204
 20
64.3440698815
 10
104.1654959304
 20
64.3144670947
 10
104.1945350228
 20
64.2906104818
 10
104.2276541383
 20
64.2728494628
 10
104.2635917799
 20
64.2618605495
 10
104.3016512451
 20
64.2580611329
  0
LWPOLYLINE
  5
446
100
AcDbEntity
  8
CURVE
100
AcDbPolyline
 62
250
  6
CONTINUOUS
 90
85
 70
0
 10
95.0968742893
 20
64.7572438184
 10
95.0214601264
 20
64.7553173739
 10
94.9460999494
 20
64.749603892
 10
94.871011899
 20
64.7402021501
 10
94.7964141158
 20
64.7272109259
 10
94.7225247406
 20
64.7107289969
 10
94.6495619138
 20
64.6908551406
 10
94.5774635351
 20
64.6675984958
 10
94.5065797996
 20
64.6411174988
 10
94.4369724833
 20
64.6115044752
 10
94.3687975771
 20
64.5789022219
 10
94.3020608901
 20
64.543398521
 10
94.2368658987
 20
64.5051237841
 10
94.1733415066
 20
64.4642274584
 10
94.1115230622
 20
64.4208074829
 10
94.0514730323
 20
64.3749781173
 10
93.9932738099
 20
64.3268813607
 10
93.9369203072
 20
64.2766301138
 10
93.8824291232
 20
64.2243628092
 10
93.8297739473
 20
64.1701724117
 10
93.7789972843
 20
64.1142204936
 10
93.7300958486
 20
64.0566260382
 10
93.6830817409
 20
63.9975218139
 10
93.6379345201
 20
63.9369761166
 10
93.5946503877
 20
63.8750700045
 10
93.5452387047
 20
63.7992186737
 10
93.4984941924
 20
63.7216618422
 10
93.4544149311
 20
63.6425305802
 10
93.4129990008
 20
63.5619559582
 10
93.3742444817
 20
63.4800690464
 10
93.3381511496
 20
63.3970105846
 10
93.3046881848
 20
63.3128726697
 10
93.2738273923
 20
63.2277566556
 10
93.2455405775
 20
63.1417638958
 10
93.2197995454
 20
63.0549957439
 10
93.1911300167
 20
62.9454782308
 10
93.1663267794
 20
62.83504117
 10
93.1453318019
 20
62.7238366434
 10
93.1281349865
 20
62.6119645906
 10
93.1147546609
 20
62.4996377798
 10
93.1051848428
 20
62.3868979945
 10
93.0994355821
 20
62.2738828928
 10
93.0975169285
 20
62.1607301329
 10
93.0994355821
 20
62.047577373
 10
93.1051848428
 20
61.9345622713
 10
93.1147546609
 20
61.8218224859
 10
93.1281349865
 20
61.7094956752
 10
93.1453318019
 20
61.5976236224
 10
93.1663267794
 20
61.4864190958
 10
93.1911300167
 20
61.3759820349
 10
93.2197995454
 20
61.2664645218
 10
93.2455405775
 20
61.17969637
 10
93.2738273923
 20
61.0937036102
 10
93.3046881848
 20
61.008587596
 10
93.3381511496
 20
60.9244496812
 10
93.3742444817
 20
60.8413912193
 10
93.4129990008
 20
60.7595043076
 10
93.4544149311
 20
60.6789296855
 10
93.4984941924
 20
60.5997984236
 10
93.5452387047
 20
60.5222415921
 10
93.5946503877
 20
60.4463902613
 10
93.6379345201
 20
60.3844841492
 10
93.6830817409
 20
60.3239384518
 10
93.7300958486
 20
60.2648342275
 10
93.7789972843
 20
60.2072397722
 10
93.8297739473
 20
60.1512878541
 10
93.8824291232
 20
60.0970974566
 10
93.9369203072
 20
60.0448301519
 10
93.9932738099
 20
59.994578905
 10
94.0514730323
 20
59.9464821485
 10
94.1115230622
 20
59.9006527828
 10
94.1733415066
 20
59.8572328073
 10
94.2368658987
 20
59.8163364817
 10
94.3020608901
 20
59.7780617447
 10
94.3687975771
 20
59.7425580438
 10
94.4369724833
 20
59.7099557906
 10
94.5065797996
 20
59.680342767
 10
94.5774635351
 20
59.6538617699
 10
94.6495619138
 20
59.6306051252
 10
94.7225247406
 20
59.6107312688
 10
94.7964141158
 20
59.5942493398
 10
94.871011899
 20
59.5812581156
 10
94.9460999494
 20
59.5718563738
 10
95.0214601264
 20
59.5661428919
 10
95.0968742893
 20
59.5642164473
  0
LINE
  5
447
100
AcDbEntity
  8
0
100
AcDbLine
 62
250
  6
CONTINUOUS
 10
104.1360554531
 20
63.0038031329
 11
103.9185945785
 21
63.0038031329
  0
LINE
  5
448
100
AcDbEntity
  8
0
100
AcDbLine
 62
7
  6
CONTINUOUS
 10
111.5968742893
 20
63.5138841329
 11
111.7968742893
 21
63.5138841329
  0
LINE
  5
449
100
AcDbEntity
  8
0
100
AcDbLine
 62
250
  6
CONTINUOUS
 10
103.9191524936
 20
63.5768061329
 11
104.1366133682
 21
63.5768061329
  0
LINE
  5
44A
100
AcDbEntity
  8
0
100
AcDbLine
 62
7
  6
CONTINUOUS
 10
111.5968742893
 20
63.7179031329
 11
111.7968742893
 21
63.7179031329
  0
LINE
  5
44B
100
AcDbEntity
  8
INCISIONI
100
AcDbLine
 62
250
  6
CONTINUOUS
 10
101.0405261177
 20
63.7595471329
 11
100.1532224608
 21
63.7595471329
  0
LINE
  5
44C
100
AcDbEntity
  8
0
100
AcDbLine
 62
250
  6
CONTINUOUS
 10
105.2337762395
 20
63.7721401329
 11
105.4493793971
 21
63.7721401329
  0
LINE
  5
44D
100
AcDbEntity
  8
0
100
AcDbLine
 62
7
  6
CONTINUOUS
 10
111.5968742893
 20
63.9278761329
 11
111.7968742893
 21
63.9278761329
  0
LINE
  5
44E
100
AcDbEntity
  8
0
100
AcDbLine
 62
250
  6
CONTINUOUS
 10
105.1413743149
 20
64.2286171329
 11
104.768967043
 21
64.2286171329
  0
LINE
  5
44F
100
AcDbEntity
  8
0
100
AcDbLine
 62
250
  6
CONTINUOUS
 10
104.768967043
 20
64.5786771329
 11
105.1413743149
 21
64.5786771329
  0
LINE
  5
450
100
AcDbEntity
  8
0
100
AcDbLine
 62
7
  6
CONTINUOUS
 10
111.5968742893
 20
64.8386341329
 11
111.7968742893
 21
64.8386341329
  0
LINE
  5
451
100
AcDbEntity
  8
0
100
AcDbLine
 62
250
  6
CONTINUOUS
 10
109.5780174897
 20
65.2530921329
 11
110.5968742893
 21
65.2530921329
  0
LWPOLYLINE
  5
452
100
AcDbEntity
  8
INCISIONI
100
AcDbPolyline
 62
250
  6
CONTINUOUS
 90
57
 70
0
 10
88.979744316
 20
64.8108451329
 10
88.9942525929
 20
64.8088675693
 10
89.0088124491
 20
64.8072767424
 10
89.0234116552
 20
64.8060739255
 10
89.0380379816
 20
64.8052603918
 10
89.0526795881
 20
64.8048371706
 10
89.0673261905
 20
64.8048043153
 10
89.0819678941
 20
64.8051616353
 10
89.0965948039
 20
64.8059089399
 10
89.1111969305
 20
64.8070458702
 10
89.1257639068
 20
64.8085713941
 10
89.1402852709
 20
64.810484311
 10
89.1547505611
 20
64.8127834205
 10
89.1691493755
 20
64.8154673357
 10
89.1834715519
 20
64.8185339251
 10
89.1977069878
 20
64.8219808709
 10
89.2118455808
 20
64.825805855
 10
89.2258772715
 20
64.8300063834
 10
89.2397921719
 20
64.8345792558
 10
89.2535804374
 20
64.839521096
 10
89.267232223
 20
64.8448285274
 10
89.280737755
 20
64.8504980021
 10
89.2940875446
 20
64.8565252861
 10
89.3072721741
 20
64.8629059738
 10
89.3202822258
 20
64.8696356598
 10
89.3331083685
 20
64.8767097757
 10
89.3457416166
 20
64.8841231023
 10
89.358173071
 20
64.8918702577
 10
89.3703938326
 20
64.8999458598
 10
89.3823951061
 20
64.9083443737
 10
89.3941685119
 20
64.9170596533
 10
89.4057057742
 20
64.9260853994
 10
89.4169986174
 20
64.9354153128
 10
89.4280388852
 20
64.9450429541
 10
89.4388188995
 20
64.9549613231
 10
89.4493311016
 20
64.9651632792
 10
89.4595679329
 20
64.9756416818
 10
89.469521968
 20
64.986389261
 10
89.4791863148
 20
64.9973982299
 10
89.488554214
 20
65.008660672
 10
89.4976189068
 20
65.020168671
 10
89.5063737822
 20
65.0319142059
 10
89.5148128225
 20
65.0438888361
 10
89.5229301581
 20
65.0560840165
 10
89.5307199193
 20
65.068491202
 10
89.5381763877
 20
65.0811017232
 10
89.5452944491
 20
65.0939064139
 10
89.5520691406
 20
65.1068959838
 10
89.5584954992
 20
65.1200611427
 10
89.5645687531
 20
65.1333926262
 10
89.5702848954
 20
65.146881274
 10
89.5756401104
 20
65.1605179516
 10
89.5806305824
 20
65.1742935249
 10
89.5852525795
 20
65.1881984077
 10
89.5895027047
 20
65.2022212073
 10
89.5933776448
 20
65.2163500795
 10
89.5968740863
 20
65.2305731799
  0
LINE
  5
453
100
AcDbEntity
  8
INCISIONI
100
AcDbLine
 62
250
  6
CONTINUOUS
 10
86.5988797161
 20
64.8964851329
 11
89.5968742893
 21
64.1178281329
  0
LINE
  5
454
100
AcDbEntity
  8
INCISIONI
100
AcDbLine
 62
250
  6
CONTINUOUS
 10
85.1002193269
 20
65.2857251329
 11
85.9932592361
 21
65.0537801329
  0
LINE
  5
455
100
AcDbEntity
  8
INCISIONI
100
AcDbLine
 62
250
  6
CONTINUOUS
 10
88.979744316
 20
64.8108451329
 11
86.9170107882
 21
65.3465901329
  0
LINE
  5
456
100
AcDbEntity
  8
INCISIONI
100
AcDbLine
 62
250
  6
CONTINUOUS
 10
87.0626184245
 20
66.2216001329
 11
88.9537952221
 21
65.7304151329
  0
LINE
  5
457
100
AcDbEntity
  8
INCISIONI
100
AcDbLine
 62
250
  6
CONTINUOUS
 10
86.9133069167
 20
66.7433381329
 11
89.2806026507
 21
66.1284901329
  0
LINE
  5
458
100
AcDbEntity
  8
INCISIONI
100
AcDbLine
 62
250
  6
CONTINUOUS
 10
86.5988797161
 20
66.8423081329
 11
85.5438241697
 21
67.1287031329
  0
LINE
  5
459
100
AcDbEntity
  8
INCISIONI
100
AcDbLine
 62
250
  6
CONTINUOUS
 10
90.6042445481
 20
66.1807301691
 11
91.1470189789
 21
65.8767301872
  0
LWPOLYLINE
  5
45A
100
AcDbEntity
  8
INCISIONI
100
AcDbPolyline
 62
250
  6
CONTINUOUS
 90
49
 70
0
 10
87.1234033363
 20
69.0298154494
 10
87.1129322738
 20
69.0361329789
 10
87.102636571
 20
69.0427394359
 10
87.0925254973
 20
69.0496288032
 10
87.0826083218
 20
69.0567950637
 10
87.0728938998
 20
69.064232244
 10
87.0633894305
 20
69.0719345464
 10
87.0541016987
 20
69.0798962173
 10
87.0450374897
 20
69.0881115027
 10
87.0362035545
 20
69.0965744741
 10
87.0276065088
 20
69.1052785041
 10
87.0192529346
 20
69.1142167905
 10
87.0111494135
 20
69.1233825313
 10
87.0033023746
 20
69.132768825
 10
86.9957176356
 20
69.1423683735
 10
86.9884008613
 20
69.1521737797
 10
86.9813577167
 20
69.1621776463
 10
86.9745937305
 20
69.1723724754
 10
86.9681138873
 20
69.1827503665
 10
86.9619230356
 20
69.1933033187
 10
86.9560260241
 20
69.204023331
 10
86.9504275477
 20
69.2149023223
 10
86.9451316873
 20
69.225931891
 10
86.9401423702
 20
69.2371035557
 10
86.9354635236
 20
69.2484088348
 10
86.9310989156
 20
69.2598391835
 10
86.9270516768
 20
69.2713858031
 10
86.9233247786
 20
69.2830398316
 10
86.9199211923
 20
69.2947924071
 10
86.9168437228
 20
69.3066346202
 10
86.9140945085
 20
69.3185573723
 10
86.9116755214
 20
69.3305515175
 10
86.9095887333
 20
69.3426079097
 10
86.9078359483
 20
69.3547173828
 10
86.9064182984
 20
69.3668706888
 10
86.9053367477
 20
69.3790585596
 10
86.9045922602
 20
69.3912717269
 10
86.904185621
 20
69.4035008897
 10
86.9041168981
 20
69.4157366148
 10
86.9043859807
 20
69.4279694365
 10
86.9049927579
 20
69.4401898888
 10
86.9059369741
 20
69.4523886095
 10
86.9072177952
 20
69.4645566509
 10
86.9088342427
 20
69.4766851694
 10
86.910785338
 20
69.4887653212
 10
86.9130698317
 20
69.5007879459
 10
86.9156853917
 20
69.5127426177
 10
86.918629415
 20
69.5246185941
 10
86.9218992987
 20
69.5364051329
  0
LINE
  5
45B
100
AcDbEntity
  8
INCISIONI
100
AcDbLine
 62
250
  6
CONTINUOUS
 10
91.8254870456
 20
69.6767302778
 11
92.0968742893
 21
69.3727299154
  0
LINE
  5
45C
100
AcDbEntity
  8
INCISIONI
100
AcDbLine
 62
250
  6
CONTINUOUS
 10
99.0973301693
 20
62.9607301329
 11
100.5968742893
 21
60.4311431329
  0
LWPOLYLINE
  5
45D
100
AcDbEntity
  8
0
100
AcDbPolyline
 62
250
  6
CONTINUOUS
 90
50
 70
0
 10
103.9707672991
 20
63.0038028033
 10
103.9723977058
 20
62.9663867028
 10
103.9746174944
 20
62.9289780534
 10
103.9774434528
 20
62.8915947086
 10
103.9808923693
 20
62.854254522
 10
103.9849810319
 20
62.8169753472
 10
103.9897262288
 20
62.779775038
 10
103.995144748
 20
62.7426714478
 10
104.0012533776
 20
62.7056824304
 10
104.0080689057
 20
62.6688258393
 10
104.0156081205
 20
62.6321195282
 10
104.0228756576
 20
62.5998814553
 10
104.0307498938
 20
62.5677934783
 10
104.0392613789
 20
62.5358748713
 10
104.048440663
 20
62.5041449088
 10
104.0583182961
 20
62.4726228649
 10
104.0661644425
 20
62.4492481066
 10
104.0744388707
 20
62.4260193482
 10
104.0831639359
 20
62.4029560649
 10
104.0923619929
 20
62.380077732
 10
104.1020553971
 20
62.3574038245
 10
104.1122665033
 20
62.3349538178
 10
104.1216397481
 20
62.3155247426
 10
104.1314555473
 20
62.2963143288
 10
104.1417435055
 20
62.2773551425
 10
104.1525332278
 20
62.2586797501
 10
104.1638543188
 20
62.2403207177
 10
104.1757363833
 20
62.2223106117
 10
104.1848138844
 20
62.2093626327
 10
104.1942274991
 20
62.1966535867
 10
104.2039964931
 20
62.1842177343
 10
104.2141401322
 20
62.172089336
 10
104.2246776821
 20
62.1603026524
 10
104.2356284086
 20
62.1488919442
 10
104.2470115773
 20
62.1378914718
 10
104.2570266292
 20
62.1289075615
 10
104.2673747035
 20
62.1203004214
 10
104.2780633805
 20
62.1121265759
 10
104.2891002408
 20
62.104442549
 10
104.300492865
 20
62.0973048651
 10
104.3122488334
 20
62.0907700483
 10
104.3243757266
 20
62.0848946228
 10
104.334113142
 20
62.0807970766
 10
104.3440504471
 20
62.077162677
 10
104.3541562226
 20
62.0740170656
 10
104.3643990489
 20
62.0713858841
 10
104.3747475065
 20
62.0692947741
 10
104.385170176
 20
62.0677693773
 10
104.3956356378
 20
62.0668353353
 10
104.4061124724
 20
62.0665182898
  0
LINE
  5
45E
100
AcDbEntity
  8
CURVE
100
AcDbLine
 62
250
  6
CONTINUOUS
 10
103.7970722856
 20
48.4750159357
 11
103.7970722856
 21
48.19644433
  0
LINE
  5
45F
100
AcDbEntity
  8
CURVE
100
AcDbLine
 62
250
  6
CONTINUOUS
 10
103.7970722856
 20
47.4535875414
 11
103.7970722856
 21
47.1750159357
  0
LINE
  5
460
100
AcDbEntity
  8
CURVE
100
AcDbLine
 62
250
  6
CONTINUOUS
 10
103.7970722856
 20
46.4321588371
 11
103.7970722856
 21
46.1535872315
  0
LINE
  5
461
100
AcDbEntity
  8
CURVE
100
AcDbLine
 62
250
  6
CONTINUOUS
 10
103.7970722856
 20
43.3678729568
 11
103.7970722856
 21
43.7393015836
  0
LINE
  5
462
100
AcDbEntity
  8
0
100
AcDbLine
 62
250
  6
CONTINUOUS
 10
104.0115544181
 20
62.3789461329
 11
104.0115544181
 21
62.4783201329
  0
LINE
  5
463
100
AcDbEntity
  8
0
100
AcDbLine
 62
7
  6
CONTINUOUS
 10
104.3468742893
 20
73.5842297553
 11
104.3468742893
 21
72.5485375356
  0
LINE
  5
464
100
AcDbEntity
  8
0
100
AcDbLine
 62
7
  6
CONTINUOUS
 10
104.3468742893
 20
33.7372309594
 11
104.3468742893
 21
34.7729227301
  0
LINE
  5
465
100
AcDbEntity
  8
CURVE
100
AcDbLine
 62
250
  6
CONTINUOUS
 10
104.3541302539
 20
49.49644433
 11
104.3541302539
 21
49.0940636728
  0
LINE
  5
466
100
AcDbEntity
  8
0
100
AcDbLine
 62
250
  6
CONTINUOUS
 10
104.4061123159
 20
61.8507571329
 11
104.4061123159
 21
64.2886641329
  0
LINE
  5
467
100
AcDbEntity
  8
0
100
AcDbLine
 62
7
  6
CONTINUOUS
 10
104.7149352893
 20
34.7793472588
 11
104.7149352893
 21
33.6692358742
  0
LINE
  5
468
100
AcDbEntity
  8
0
100
AcDbLine
 62
7
  6
CONTINUOUS
 10
104.7149352893
 20
72.542113007
 11
104.7149352893
 21
73.6522244583
  0
LINE
  5
469
100
AcDbEntity
  8
0
100
AcDbLine
 62
250
  6
CONTINUOUS
 10
104.768967043
 20
64.2286171329
 11
104.768967043
 21
64.5786771329
  0
LINE
  5
46A
100
AcDbEntity
  8
CURVE
100
AcDbLine
 62
250
  6
CONTINUOUS
 10
105.0968742893
 20
48.6607301329
 11
105.0968742893
 21
48.0107301329
  0
LINE
  5
46B
100
AcDbEntity
  8
CURVE
100
AcDbLine
 62
250
  6
CONTINUOUS
 10
105.0968742893
 20
47.6393017386
 11
105.0968742893
 21
46.9893014286
  0
LINE
  5
46C
100
AcDbEntity
  8
CURVE
100
AcDbLine
 62
250
  6
CONTINUOUS
 10
105.0968742893
 20
46.6178730343
 11
105.0968742893
 21
45.9678730343
  0
LINE
  5
46D
100
AcDbEntity
  8
CURVE
100
AcDbLine
 62
250
  6
CONTINUOUS
 10
105.0968742893
 20
43.2750158582
 11
105.0968742893
 21
43.646444485
  0
LINE
  5
46E
100
AcDbEntity
  8
CURVE
100
AcDbLine
 62
250
  6
CONTINUOUS
 10
105.0968742893
 20
49.2178727244
 11
105.0968742893
 21
49.49644433
  0
LINE
  5
46F
100
AcDbEntity
  8
0
100
AcDbLine
 62
250
  6
CONTINUOUS
 10
105.1413743149
 20
64.5786771329
 11
105.1413743149
 21
64.2286171329
  0
LINE
  5
470
100
AcDbEntity
  8
0
100
AcDbLine
 62
250
  6
CONTINUOUS
 10
105.2337762395
 20
62.9488001329
 11
105.2337762395
 21
63.7721401329
  0
LINE
  5
471
100
AcDbEntity
  8
0
100
AcDbLine
 62
250
  6
CONTINUOUS
 10
105.4493793971
 20
63.7721401329
 11
105.4493793971
 21
62.9488001329
  0
LINE
  5
472
100
AcDbEntity
  8
0
100
AcDbLine
 62
250
  6
CONTINUOUS
 10
103.9185945785
 20
63.0038031329
 11
103.9191524936
 21
63.5768061329
  0
LINE
  5
473
100
AcDbEntity
  8
0
100
AcDbLine
 62
250
  6
CONTINUOUS
 10
104.1366133682
 20
63.5768061329
 11
104.1360554531
 21
63.0038031329
  0
LINE
  5
474
100
AcDbEntity
  8
INCISIONI
100
AcDbLine
 62
250
  6
CONTINUOUS
 10
90.9541150503
 20
34.4607300757
 11
90.7398619408
 21
34.22073009
  0
LINE
  5
475
100
AcDbEntity
  8
INCISIONI
100
AcDbLine
 62
250
  6
CONTINUOUS
 10
91.3826212021
 20
33.6207301758
 11
91.5968742893
 21
33.8607301615
  0
LINE
  5
476
100
AcDbEntity
  8
CURVE
100
AcDbLine
 62
250
  6
CONTINUOUS
 10
104.5398162821
 20
49.6821585272
 11
104.3541302539
 21
49.49644433
  0
LINE
  5
477
100
AcDbEntity
  8
CURVE
100
AcDbLine
 62
250
  6
CONTINUOUS
 10
103.982758275
 20
48.6607301329
 11
103.7970722856
 21
48.4750159357
  0
LINE
  5
478
100
AcDbEntity
  8
CURVE
100
AcDbLine
 62
250
  6
CONTINUOUS
 10
104.9111882804
 20
49.0321585272
 11
105.0968742893
 21
49.2178727244
  0
LINE
  5
479
100
AcDbEntity
  8
CURVE
100
AcDbLine
 62
250
  6
CONTINUOUS
 10
103.982758275
 20
47.6393017386
 11
103.7970722856
 21
47.4535875414
  0
LINE
  5
47A
100
AcDbEntity
  8
CURVE
100
AcDbLine
 62
250
  6
CONTINUOUS
 10
103.982758275
 20
46.6178730343
 11
103.7970722856
 21
46.4321588371
  0
LINE
  5
47B
100
AcDbEntity
  8
CURVE
100
AcDbLine
 62
250
  6
CONTINUOUS
 10
104.1684442645
 20
44.7607301329
 11
105.0968742893
 21
45.0393014286
  0
LINE
  5
47C
100
AcDbEntity
  8
INCISIONI
100
AcDbLine
 62
250
  6
CONTINUOUS
 10
90.1971636685
 20
65.2687301601
 11
92.0968742893
 21
65.2687301601
  0
LINE
  5
47D
100
AcDbEntity
  8
0
100
AcDbLine
 62
250
  6
CONTINUOUS
 10
111.5968742893
 20
65.4908761329
 11
111.7968742893
 21
65.4908761329
  0
LINE
  5
47E
100
AcDbEntity
  8
INCISIONI
100
AcDbLine
 62
250
  6
CONTINUOUS
 10
91.1470189789
 20
65.8767301872
 11
91.8254870456
 21
65.8767301872
  0
LINE
  5
47F
100
AcDbEntity
  8
0
100
AcDbLine
 62
7
  6
CONTINUOUS
 10
111.7968742893
 20
65.9206158106
 11
111.5968742893
 21
65.9206158106
  0
LINE
  5
480
100
AcDbEntity
  8
0
100
AcDbLine
 62
7
  6
CONTINUOUS
 10
111.5968742893
 20
66.1855941329
 11
111.7968742893
 21
66.1855941329
  0
LINE
  5
481
100
AcDbEntity
  8
INCISIONI
100
AcDbLine
 62
250
  6
CONTINUOUS
 10
91.8254870456
 20
66.9407300604
 11
91.2827125865
 21
66.9407300604
  0
LINE
  5
482
100
AcDbEntity
  8
0
100
AcDbLine
 62
7
  6
CONTINUOUS
 10
111.5968742893
 20
67.2418671329
 11
111.7968742893
 21
67.2418671329
  0
LINE
  5
483
100
AcDbEntity
  8
0
100
AcDbLine
 62
7
  6
CONTINUOUS
 10
111.5968742893
 20
67.2559491329
 11
111.7968742893
 21
67.2559491329
  0
LINE
  5
484
100
AcDbEntity
  8
0
100
AcDbLine
 62
7
  6
CONTINUOUS
 10
111.5968742893
 20
67.5124041329
 11
111.7968742893
 21
67.5124041329
  0
LINE
  5
485
100
AcDbEntity
  8
0
100
AcDbLine
 62
250
  6
CONTINUOUS
 10
107.3297439648
 20
64.0413231329
 11
104.4336601196
 21
64.3105691329
  0
LINE
  5
486
100
AcDbEntity
  8
INCISIONI
100
AcDbLine
 62
250
  6
CONTINUOUS
 10
85.1002193269
 20
68.1507651329
 11
89.5968742893
 21
66.9828731329
  0
LINE
  5
487
100
AcDbEntity
  8
INCISIONI
100
AcDbLine
 62
250
  6
CONTINUOUS
 10
86.8722814163
 20
68.1783231329
 11
89.0992209139
 21
67.5999281329
  0
LINE
  5
488
100
AcDbEntity
  8
INCISIONI
100
AcDbLine
 62
250
  6
CONTINUOUS
 10
87.1234049042
 20
69.0298181329
 11
88.2906142796
 21
68.7266631329
  0
LWPOLYLINE
  5
489
100
AcDbEntity
  8
INCISIONI
100
AcDbPolyline
 62
250
  6
CONTINUOUS
 90
95
 70
0
 10
89.0824318651
 20
68.9930267472
 10
89.0892959571
 20
68.9899671259
 10
89.096308494
 20
68.9872693457
 10
89.1034459049
 20
68.9848869834
 10
89.1106846191
 20
68.9827736155
 10
89.1180010657
 20
68.9808828189
 10
89.1253716739
 20
68.9791681701
 10
89.132772873
 20
68.9775832459
 10
89.1401810921
 20
68.9760816229
 10
89.1549556679
 20
68.9731684344
 10
89.1696825204
 20
68.9701828034
 10
89.1794798174
 20
68.9680404436
 10
89.1892345693
 20
68.9656878374
 10
89.1989172475
 20
68.9630447343
 10
89.2061122374
 20
68.9608223023
 10
89.2132249172
 20
68.9583506272
 10
89.2202301304
 20
68.9555890206
 10
89.2271027206
 20
68.952496794
 10
89.2324734704
 20
68.9497656657
 10
89.2377138075
 20
68.9467865909
 10
89.2427938412
 20
68.9435481849
 10
89.2476836805
 20
68.9400390628
 10
89.2523534345
 20
68.93624784
 10
89.2567758279
 20
68.9321709139
 10
89.2609438817
 20
68.9278265416
 10
89.2648530453
 20
68.923240543
 10
89.2684987685
 20
68.9184387379
 10
89.2718765009
 20
68.9134469462
 10
89.2757192163
 20
68.9069702911
 10
89.2791352955
 20
68.9002641449
 10
89.2821246251
 20
68.893355935
 10
89.2846870916
 20
68.8862730885
 10
89.2864262349
 20
68.8805008454
 10
89.2878737598
 20
68.8746490409
 10
89.2890111962
 20
68.8687322874
 10
89.2898200738
 20
68.8627651971
 10
89.2902819223
 20
68.8567623822
 10
89.2903829588
 20
68.8507436737
 10
89.2901283047
 20
68.8447255877
 10
89.2895272802
 20
68.8387298308
 10
89.2885892054
 20
68.8327781095
 10
89.2873234007
 20
68.8268921303
 10
89.2857402387
 20
68.8210820171
 10
89.2838680548
 20
68.8153601262
 10
89.281737128
 20
68.8097269865
 10
89.2793777374
 20
68.8041831266
 10
89.2768201621
 20
68.7987290756
 10
89.2733816094
 20
68.7920271408
 10
89.2697140601
 20
68.7854527435
 10
89.2658515813
 20
68.7789918862
 10
89.2618282401
 20
68.7726305712
 10
89.2562696567
 20
68.7642773592
 10
89.2505513339
 20
68.7560327674
 10
89.2447389677
 20
68.7478533219
 10
89.2359393517
 20
68.7356444438
 10
89.2270052249
 20
68.7235345704
 10
89.2178630357
 20
68.7115791922
 10
89.208427727
 20
68.6998544766
 10
89.2019336415
 20
68.6922055564
 10
89.1952578822
 20
68.6847141514
 10
89.1883881028
 20
68.6773990791
 10
89.1798840068
 20
68.6688839179
 10
89.1710939478
 20
68.6606585417
 10
89.1620285955
 20
68.6527322245
 10
89.1526986196
 20
68.6451142403
 10
89.1431146897
 20
68.6378138631
 10
89.1332885688
 20
68.6308431568
 10
89.1232271711
 20
68.6242188794
 10
89.1129384283
 20
68.6179606808
 10
89.1024302721
 20
68.6120882106
 10
89.091710634
 20
68.6066211187
 10
89.0826136369
 20
68.6023832932
 10
89.0733854198
 20
68.5984424318
 10
89.0640363983
 20
68.5947997527
 10
89.0545781872
 20
68.5914523833
 10
89.0450262156
 20
68.5883807454
 10
89.0353971081
 20
68.5855611804
 10
89.0237645904
 20
68.5824769866
 10
89.0120599656
 20
68.5796751517
 10
89.0002982166
 20
68.5771092936
 10
88.9884943262
 20
68.5747330305
 10
88.9766632772
 20
68.5724999802
 10
88.9618491622
 20
68.5698565735
 10
88.9470095503
 20
68.567381139
 10
88.9321358642
 20
68.5651138266
 10
88.9172108211
 20
68.5631889797
 10
88.9072253094
 20
68.5621735047
 10
88.8972182578
 20
68.5614243177
 10
88.8871995728
 20
68.5609853223
 10
88.8771772821
 20
68.5608952008
 10
88.8671512944
 20
68.5611717488
 10
88.8571196392
 20
68.561827548
 10
88.8462701876
 20
68.5629747714
 10
88.8354414189
 20
68.564577641
 10
88.8246629449
 20
68.5666337596
  0
LINE
  5
48A
100
AcDbEntity
  8
INCISIONI
100
AcDbLine
 62
250
  6
CONTINUOUS
 10
90.7399380992
 20
68.7647302054
 11
90.4685508838
 21
68.9167301329
  0
LINE
  5
48B
100
AcDbEntity
  8
INCISIONI
100
AcDbLine
 62
250
  6
CONTINUOUS
 10
102.0964184092
 20
62.9607301329
 11
100.5968742893
 21
65.4903171329
  0
LWPOLYLINE
  5
48C
100
AcDbEntity
  8
0
100
AcDbPolyline
 62
7
  6
CONTINUOUS
 90
19
 70
0
 10
102.4468742893
 20
73.127275353
 10
102.447680742
 20
73.1217344074
 10
102.4500678738
 20
73.1168379499
 10
102.4539786427
 20
73.1125859803
 10
102.4593379557
 20
73.1089739907
 10
102.4660725519
 20
73.1060064891
 10
102.4741291715
 20
73.103697
 10
102.4834258631
 20
73.1020495906
 10
102.4938789219
 20
73.1010601937
 10
102.5054526978
 20
73.1007301329
 10
102.5180628103
 20
73.1010603043
 10
102.5316166913
 20
73.1020498117
 10
102.5460839907
 20
73.1036972901
 10
102.5613735697
 20
73.1060067832
 10
102.5773766802
 20
73.1089742473
 10
102.5940427068
 20
73.112586186
 10
102.6112765731
 20
73.1168381004
 10
102.6289320885
 20
73.1217344894
 10
102.6468742893
 20
73.127275353
  0
LINE
  5
48D
100
AcDbEntity
  8
0
100
AcDbLine
 62
7
  6
CONTINUOUS
 10
107.4788132893
 20
34.8275909287
 11
107.4788132893
 21
33.6692358074
  0
LINE
  5
48E
100
AcDbEntity
  8
0
100
AcDbLine
 62
7
  6
CONTINUOUS
 10
107.4788132893
 20
72.493869337
 11
107.4788132893
 21
73.6522243916
  0
LINE
  5
48F
100
AcDbEntity
  8
0
100
AcDbLine
 62
250
  6
CONTINUOUS
 10
107.7678212334
 20
62.3859041329
 11
107.7678212334
 21
63.7317711329
  0
LINE
  5
490
100
AcDbEntity
  8
0
100
AcDbLine
 62
7
  6
CONTINUOUS
 10
107.8468742893
 20
73.5842293064
 11
107.8468742893
 21
72.4874448084
  0
LINE
  5
491
100
AcDbEntity
  8
0
100
AcDbLine
 62
7
  6
CONTINUOUS
 10
107.8468742893
 20
33.7372305104
 11
107.8468742893
 21
34.8340154574
  0
LWPOLYLINE
  5
492
100
AcDbEntity
  8
RACCORDO
100
AcDbPolyline
 62
250
  6
CONTINUOUS
 90
13
 70
0
 10
91.6143266957
 20
29.8006752852
 10
91.6144987554
 20
29.8008809912
 10
91.614663462
 20
29.8014916457
 10
91.6148205483
 20
29.8025062585
 10
91.6149697596
 20
29.8039231845
 10
91.6151108541
 20
29.8057401265
 10
91.6152436029
 20
29.8079541384
 10
91.6153677909
 20
29.8105616305
 10
91.6154832166
 20
29.8135583751
 10
91.615589693
 20
29.8169395133
 10
91.6156870474
 20
29.8206995631
 10
91.6157751218
 20
29.824832428
 10
91.6159228753
 20
29.8341892058
  0
LINE
  5
493
100
AcDbEntity
  8
CURVE
100
AcDbLine
 62
250
  6
CONTINUOUS
 10
103.7970722856
 20
43.7393015836
 11
103.889915319
 21
43.8321586822
  0
LINE
  5
494
100
AcDbEntity
  8
CURVE
100
AcDbLine
 62
250
  6
CONTINUOUS
 10
103.7970722856
 20
42.1607301329
 11
105.0968742893
 21
42.8107301329
  0
LINE
  5
495
100
AcDbEntity
  8
RACCORDO
100
AcDbLine
 62
7
  6
CONTINUOUS
 10
81.4782917259
 20
31.4444786874
 11
81.5532633966
 21
31.4817697919
  0
LINE
  5
496
100
AcDbEntity
  8
RACCORDO
100
AcDbLine
 62
7
  6
CONTINUOUS
 10
81.4282255728
 20
31.4197835764
 11
81.4782917259
 21
31.4444786874
  0
LWPOLYLINE
  5
497
100
AcDbEntity
  8
INCISIONI
100
AcDbPolyline
 62
250
  6
CONTINUOUS
 90
45
 70
0
 10
89.0992209139
 20
67.5999281329
 10
89.1145860801
 20
67.601773203
 10
89.1299014562
 20
67.6040236507
 10
89.145154439
 20
67.6066775589
 10
89.1603324253
 20
67.6097330108
 10
89.1754232655
 20
67.6131879482
 10
89.1904166243
 20
67.6170397483
 10
89.2053026202
 20
67.6212856468
 10
89.2200713716
 20
67.6259228795
 10
89.234712945
 20
67.6309484902
 10
89.2492172004
 20
67.6363587549
 10
89.2635739459
 20
67.6421497573
 10
89.2777729894
 20
67.6483175815
 10
89.2918042465
 20
67.6548581416
 10
89.305658063
 20
67.661766673
 10
89.3193248919
 20
67.6690382415
 10
89.3327951863
 20
67.6766679127
 10
89.3460594871
 20
67.6846505878
 10
89.359108685
 20
67.6929805085
 10
89.3719337585
 20
67.7016517523
 10
89.3845256863
 20
67.7106583964
 10
89.3968755613
 20
67.719994366
 10
89.408974935
 20
67.7296529784
 10
89.4208154733
 20
67.7396273989
 10
89.4323888423
 20
67.7499107929
 10
89.4436868345
 20
67.7604961835
 10
89.4547017485
 20
67.771376025
 10
89.4654260095
 20
67.7825426296
 10
89.4758520426
 20
67.7939883094
 10
89.4859724174
 20
67.8057052584
 10
89.4957802807
 20
67.8176851978
 10
89.5052689235
 20
67.8299197306
 10
89.5144316372
 20
67.8424004599
 10
89.523261858
 20
67.8551188499
 10
89.5317536035
 20
67.86806581
 10
89.5399010365
 20
67.8812321109
 10
89.5476983198
 20
67.8946085233
 10
89.5551398145
 20
67.9081858309
 10
89.5622206751
 20
67.9219548699
 10
89.5689362544
 20
67.9359064894
 10
89.5752819053
 20
67.9500315387
 10
89.5812530301
 20
67.9643203942
 10
89.5868452291
 20
67.9787615423
 10
89.5920541521
 20
67.9933429962
 10
89.596875449
 20
68.0080527694
  0
LINE
  5
498
100
AcDbEntity
  8
RACCORDO
100
AcDbLine
 62
250
  6
CONTINUOUS
 10
77.5968742893
 20
68.1214973048
 11
82.0968742893
 21
68.1607682098
  0
LINE
  5
499
100
AcDbEntity
  8
RACCORDO
100
AcDbLine
 62
7
  6
CONTINUOUS
 10
77.5968742893
 20
69.1214592278
 11
82.0968742893
 21
69.1607301329
  0
LINE
  5
49A
100
AcDbEntity
  8
0
100
AcDbLine
 62
7
  6
CONTINUOUS
 10
111.5968742893
 20
67.7447021329
 11
111.7968742893
 21
67.7447021329
  0
LINE
  5
49B
100
AcDbEntity
  8
INCISIONI
100
AcDbLine
 62
250
  6
CONTINUOUS
 10
90.1971636685
 20
68.1567302416
 11
92.0968742893
 21
68.1567302416
  0
LINE
  5
49C
100
AcDbEntity
  8
0
100
AcDbLine
 62
7
  6
CONTINUOUS
 10
111.5968742893
 20
68.4736511329
 11
111.7968742893
 21
68.4736511329
  0
LINE
  5
49D
100
AcDbEntity
  8
0
100
AcDbLine
 62
7
  6
CONTINUOUS
 10
111.5968742893
 20
68.6634741329
 11
111.7968742893
 21
68.6634741329
  0
LINE
  5
49E
100
AcDbEntity
  8
INCISIONI
100
AcDbLine
 62
250
  6
CONTINUOUS
 10
91.5540998019
 20
68.7647302054
 11
90.7399380992
 21
68.7647302054
  0
LINE
  5
49F
100
AcDbEntity
  8
0
100
AcDbLine
 62
7
  6
CONTINUOUS
 10
111.5968742893
 20
68.9804931329
 11
111.7968742893
 21
68.9804931329
  0
LINE
  5
4A0
100
AcDbEntity
  8
0
100
AcDbLine
 62
250
  6
CONTINUOUS
 10
111.5968742893
 20
69.5681641329
 11
111.7968742893
 21
69.5681641329
  0
LINE
  5
4A1
100
AcDbEntity
  8
RACCORDO
100
AcDbLine
 62
7
  6
CONTINUOUS
 10
111.5968742893
 20
68.9607301329
 11
114.2984450784
 21
68.946584612
  0
LINE
  5
4A2
100
AcDbEntity
  8
ASSI
100
AcDbLine
 62
250
  6
CONTINUOUS
 10
71.7222014243
 20
70.4139632208
 11
71.4499884151
 21
70.4248380471
  0
LWPOLYLINE
  5
4A3
100
AcDbEntity
  8
ASSI
100
AcDbPolyline
 62
250
  6
CONTINUOUS
 90
3
 70
0
 10
71.4499884151
 20
70.4248380471
 10
71.4301775948
 20
70.4256717306
 10
71.427670653
 20
70.4257973858
  0
LWPOLYLINE
  5
4A4
100
AcDbEntity
  8
INCISIONI
100
AcDbPolyline
 62
250
  6
CONTINUOUS
 90
24
 70
0
 10
88.8246629449
 20
68.5666337596
 10
88.8209311319
 20
68.5674547351
 10
88.8172102322
 20
68.5683301551
 10
88.813501492
 20
68.5692599188
 10
88.8098061574
 20
68.5702439251
 10
88.8061254743
 20
68.5712820733
 10
88.802460689
 20
68.5723742625
 10
88.7988130475
 20
68.5735203918
 10
88.7951837959
 20
68.5747203603
 10
88.7915741802
 20
68.5759740672
 10
88.7879854466
 20
68.5772814114
 10
88.7844188412
 20
68.5786422923
 10
88.7808756099
 20
68.5800566089
 10
88.777356999
 20
68.5815242602
 10
88.7738642545
 20
68.5830451455
 10
88.7703986225
 20
68.5846191638
 10
88.766961349
 20
68.5862462143
 10
88.7635536802
 20
68.5879261961
 10
88.7601768621
 20
68.5896590083
 10
88.7568321408
 20
68.5914445501
 10
88.7535207625
 20
68.5932827204
 10
88.7502439731
 20
68.5951734186
 10
88.7470030189
 20
68.5971165436
 10
88.7437991458
 20
68.5991119946
  0
LWPOLYLINE
  5
4A5
100
AcDbEntity
  8
INCISIONI
100
AcDbPolyline
 62
250
  6
CONTINUOUS
 90
69
 70
0
 10
88.9965092081
 20
70.3924431329
 10
89.00900975
 20
70.3893750821
 10
89.0215916511
 20
70.3866428181
 10
89.0342441805
 20
70.3842486137
 10
89.0469566071
 20
70.3821947416
 10
89.0597185223
 20
70.3804832204
 10
89.0725208063
 20
70.3791150522
 10
89.085354662
 20
70.3780909847
 10
89.0982112918
 20
70.3774117658
 10
89.1110817991
 20
70.3770780016
 10
89.1239568896
 20
70.3770897316
 10
89.1368271697
 20
70.3774468533
 10
89.1496832458
 20
70.3781492645
 10
89.1625157605
 20
70.3791966907
 10
89.1753155009
 20
70.3805881697
 10
89.1880732902
 20
70.3823225669
 10
89.2007799518
 20
70.3843987479
 10
89.2134263313
 20
70.3868154167
 10
89.2260033632
 20
70.3895706305
 10
89.2385020046
 20
70.3926622849
 10
89.2509132122
 20
70.3960882755
 10
89.2632279911
 20
70.3998463381
 10
89.2754375386
 20
70.4039335692
 10
89.2875330997
 20
70.4083469055
 10
89.2995059199
 20
70.4130832837
 10
89.311347307
 20
70.4181394872
 10
89.3230488191
 20
70.4235116859
 10
89.3346020771
 20
70.4291958963
 10
89.3459987019
 20
70.4351881351
 10
89.3572303935
 20
70.4414842731
 10
89.3682891692
 20
70.4480795974
 10
89.3791671253
 20
70.4549692494
 10
89.3898563584
 20
70.4621483707
 10
89.4003490593
 20
70.469611966
 10
89.4106377957
 20
70.4773544942
 10
89.4207152298
 20
70.4853702777
 10
89.4305740238
 20
70.4936536387
 10
89.4402069482
 20
70.502198774
 10
89.449607207
 20
70.510999378
 10
89.4587681129
 20
70.5200490196
 10
89.4676829783
 20
70.5293412675
 10
89.476345237
 20
70.5388695771
 10
89.4847488075
 20
70.5486269503
 10
89.4928877298
 20
70.5586062753
 10
89.5007560436
 20
70.5688004404
 10
89.5083479214
 20
70.579202235
 10
89.5156580663
 20
70.5898040516
 10
89.5226813141
 20
70.6005981837
 10
89.5294125005
 20
70.6115769248
 10
89.5358466038
 20
70.6227324817
 10
89.5419791726
 20
70.6340567145
 10
89.5478058981
 20
70.6455413964
 10
89.5533224713
 20
70.6571783008
 10
89.5585247342
 20
70.6689591389
 10
89.5634091321
 20
70.680875373
 10
89.5679722611
 20
70.6929184033
 10
89.5722107173
 20
70.70507963
 10
89.5761212542
 20
70.7173503752
 10
89.5797012546
 20
70.7297216477
 10
89.5829482589
 20
70.7421843785
 10
89.5858598073
 20
70.7547294983
 10
89.5884336022
 20
70.7673479985
 10
89.5906679941
 20
70.7800311131
 10
89.5925614959
 20
70.7927701365
 10
89.5941126203
 20
70.805556363
 10
89.595320045
 20
70.8183807113
 10
89.5961831074
 20
70.8312325963
 10
89.5967013097
 20
70.8441010572
 10
89.5968741545
 20
70.8569751329
  0
LWPOLYLINE
  5
4A6
100
AcDbEntity
  8
INCISIONI
100
AcDbPolyline
 62
250
  6
CONTINUOUS
 90
69
 70
0
 10
87.2574120749
 20
70.3942731329
 10
87.2437341752
 20
70.3977056135
 10
87.2299649707
 20
70.4007696211
 10
87.216116273
 20
70.403462591
 10
87.2021998934
 20
70.4057819585
 10
87.1882272899
 20
70.4077254413
 10
87.1742085058
 20
70.4092918869
 10
87.1601532309
 20
70.4104804253
 10
87.146071155
 20
70.4112901864
 10
87.1319720781
 20
70.4117204561
 10
87.1178662412
 20
70.4117711448
 10
87.1037639953
 20
70.411442319
 10
87.0896756917
 20
70.410734045
 10
87.0756116425
 20
70.4096465795
 10
87.0615820035
 20
70.4081809404
 10
87.0475968917
 20
70.4063383355
 10
87.033666424
 20
70.404119973
 10
87.0198006933
 20
70.4015272394
 10
87.0060096969
 20
70.3985622366
 10
86.9923034083
 20
70.395227245
 10
86.9786918008
 20
70.391524545
 10
86.9651847952
 20
70.3874565938
 10
86.9517921029
 20
70.3830265559
 10
86.9385233824
 20
70.3782377726
 10
86.9253882925
 20
70.373093585
 10
86.9123964232
 20
70.3675975041
 10
86.8995570903
 20
70.3617537198
 10
86.8868795409
 20
70.3555665912
 10
86.8743730222
 20
70.349040478
 10
86.862046694
 20
70.3421799009
 10
86.849909368
 20
70.3349900267
 10
86.8379697688
 20
70.3274761836
 10
86.8262366207
 20
70.3196436996
 10
86.8147185445
 20
70.3114980541
 10
86.8034237458
 20
70.303045331
 10
86.7923603266
 20
70.2942917653
 10
86.7815363887
 20
70.2852435919
 10
86.7709599147
 20
70.275907185
 10
86.7606384092
 20
70.266289475
 10
86.7505792575
 20
70.2563975312
 10
86.7407898447
 20
70.2462384233
 10
86.7312774225
 20
70.2358193461
 10
86.7220487077
 20
70.2251479973
 10
86.7131102834
 20
70.2142321999
 10
86.7044687329
 20
70.2030797772
 10
86.6961304928
 20
70.1916986621
 10
86.6881014144
 20
70.1800972268
 10
86.6803872026
 20
70.1682839535
 10
86.6729935621
 20
70.1562673243
 10
86.6659260404
 20
70.1440559174
 10
86.6591895554
 20
70.131658695
 10
86.6527888675
 20
70.1190847155
 10
86.6467287372
 20
70.1063430372
 10
86.6410137584
 20
70.0934427874
 10
86.6356478585
 20
70.0803933693
 10
86.6306347987
 20
70.0672042548
 10
86.6259783399
 20
70.0538849159
 10
86.6216820693
 20
70.0404449113
 10
86.6177488785
 20
70.0268941457
 10
86.6141814857
 20
70.0132426101
 10
86.6109826087
 20
69.9995002959
 10
86.6081547864
 20
69.9856771277
 10
86.6056998414
 20
69.9717827639
 10
86.6036194171
 20
69.9578267963
 10
86.6019151571
 20
69.9438188169
 10
86.6005885224
 20
69.9297688317
 10
86.5996402453
 20
69.9156885042
 10
86.5990708757
 20
69.901589912
 10
86.5988809637
 20
69.8874851329
  0
LINE
  5
4A7
100
AcDbEntity
  8
INCISIONI
100
AcDbLine
 62
250
  6
CONTINUOUS
 10
86.9218992987
 20
69.5364051329
 11
88.0684049822
 21
69.2386331329
  0
LINE
  5
4A8
100
AcDbEntity
  8
INCISIONI
100
AcDbLine
 62
250
  6
CONTINUOUS
 10
87.2574120749
 20
70.3942731329
 11
88.0545042175
 21
70.1872451329
  0
LINE
  5
4A9
100
AcDbEntity
  8
INCISIONI
100
AcDbLine
 62
250
  6
CONTINUOUS
 10
88.6288512258
 20
70.0380731329
 11
89.2393152301
 21
69.8795231329
  0
LINE
  5
4AA
100
AcDbEntity
  8
INCISIONI
100
AcDbLine
 62
250
  6
CONTINUOUS
 10
88.9965092081
 20
70.3924431329
 11
88.4087932729
 21
70.5450881329
  0
LINE
  5
4AB
100
AcDbEntity
  8
INCISIONI
100
AcDbLine
 62
250
  6
CONTINUOUS
 10
87.8344462646
 20
70.6942601329
 11
87.0272272075
 21
70.9039151329
  0
LINE
  5
4AC
100
AcDbEntity
  8
INCISIONI
100
AcDbLine
 62
250
  6
CONTINUOUS
 10
91.6897934379
 20
70.4367299154
 11
90.1971636685
 21
70.8927302054
  0
LWPOLYLINE
  5
4AD
100
AcDbEntity
  8
INCISIONI
100
AcDbPolyline
 62
250
  6
CONTINUOUS
 90
49
 70
0
 10
87.2124114506
 20
71.7951193304
 10
87.1755728669
 20
71.8073825468
 10
87.1572059822
 20
71.8136777726
 10
87.1389499899
 20
71.8202801094
 10
87.1208682789
 20
71.8273376347
 10
87.107462163
 20
71.833022323
 10
87.0942424799
 20
71.8391270249
 10
87.0812589307
 20
71.8457214859
 10
87.068549594
 20
71.8528318544
 10
87.0602469165
 20
71.8578665699
 10
87.0520961375
 20
71.8631432759
 10
87.0441116936
 20
71.8686678657
 10
87.0363084984
 20
71.8744462877
 10
87.0287037613
 20
71.8804844206
 10
87.0213151656
 20
71.8867881945
 10
87.0141640045
 20
71.8933649034
 10
87.0072873958
 20
71.9002260103
 10
87.0007260521
 20
71.9073843248
 10
86.9945079185
 20
71.9148421582
 10
86.9886097473
 20
71.9225599773
 10
86.9829955252
 20
71.9304877527
 10
86.9750144758
 20
71.9426698784
 10
86.9673909253
 20
71.9550784555
 10
86.9599725546
 20
71.9676104569
 10
86.9527995588
 20
71.9802839481
 10
86.9459617277
 20
71.9931441674
 10
86.9395552406
 20
72.0062230249
 10
86.9336507233
 20
72.0195363226
 10
86.9282106648
 20
72.0330478461
 10
86.9231720296
 20
72.0467123247
 10
86.9184782707
 20
72.0604991814
 10
86.9140951881
 20
72.0743882752
 10
86.9100718836
 20
72.0883854351
 10
86.906475483
 20
72.1024999252
 10
86.9033621251
 20
72.1167280578
 10
86.90076779
 20
72.1310598018
 10
86.8986589637
 20
72.14547207
 10
86.8969878971
 20
72.1599407093
 10
86.8957194931
 20
72.1744497731
 10
86.8948316073
 20
72.1889866682
 10
86.8943413021
 20
72.2035436255
 10
86.8942746867
 20
72.2181049819
 10
86.8946548607
 20
72.2326640712
 10
86.8955046127
 20
72.247205118
 10
86.8968467312
 20
72.261712347
 10
86.898703803
 20
72.2761753073
 10
86.9010915746
 20
72.2905598811
 10
86.9040250563
 20
72.3048373265
 10
86.9075192584
 20
72.3189789017
  0
LWPOLYLINE
  5
4AE
100
AcDbEntity
  8
RACCORDO
100
AcDbPolyline
 62
7
  6
CONTINUOUS
 90
20
 70
0
 10
81.3532870635
 20
75.9379018203
 10
81.3284038975
 20
75.9496379367
 10
81.3035947152
 20
75.9611638086
 10
81.2788765373
 20
75.9724759992
 10
81.2542475107
 20
75.9834764195
 10
81.2297297118
 20
75.9941713922
 10
81.2053424097
 20
76.0045545946
 10
81.1810813903
 20
76.014508969
 10
81.1569699503
 20
76.0240450426
 10
81.1330300792
 20
76.0331522882
 10
81.1092581407
 20
76.0416820664
 10
81.0856786049
 20
76.0496516694
 10
81.0623173027
 20
76.057043805
 10
81.0391757344
 20
76.0636579576
 10
81.0162744738
 20
76.0695230947
 10
80.9936492609
 20
76.0746102487
 10
80.9713265994
 20
76.0786320015
 10
80.9493352763
 20
76.0814925472
 10
80.9277061658
 20
76.0832876918
 10
80.9064698105
 20
76.0840174352
  0
LINE
  5
4AF
100
AcDbEntity
  8
RACCORDO
100
AcDbLine
 62
7
  6
CONTINUOUS
 10
81.4032077727
 20
75.9138763216
 11
81.3532870635
 21
75.9379018203
  0
LINE
  5
4B0
100
AcDbEntity
  8
RACCORDO
100
AcDbLine
 62
7
  6
CONTINUOUS
 10
81.4532562935
 20
75.8893511539
 11
81.4032077727
 21
75.9138763216
  0
LWPOLYLINE
  5
4B1
100
AcDbEntity
  8
RACCORDO
100
AcDbPolyline
 62
7
  6
CONTINUOUS
 90
3
 70
0
 10
81.5532633966
 20
75.8396904739
 10
81.5283138485
 20
75.8521648822
 10
81.4532562935
 20
75.8893511539
  0
LINE
  5
4B2
100
AcDbEntity
  8
INCISIONI
100
AcDbLine
 62
250
  6
CONTINUOUS
 10
91.5540998019
 20
69.8287302054
 11
91.8254870456
 21
69.6767302778
  0
LWPOLYLINE
  5
4B3
100
AcDbEntity
  8
RACCORDO
100
AcDbPolyline
 62
250
  6
CONTINUOUS
 90
12
 70
0
 10
91.6143266957
 20
77.5207849806
 10
91.6144987554
 20
77.5205792745
 10
91.614663462
 20
77.51996862
 10
91.6148205483
 20
77.5189540071
 10
91.6149697597
 20
77.5175370808
 10
91.6151108541
 20
77.5157201387
 10
91.615243603
 20
77.5135061265
 10
91.615367791
 20
77.5108986341
 10
91.6154832167
 20
77.5079018892
 10
91.6155896931
 20
77.5045207506
 10
91.6156870474
 20
77.5007607005
 10
91.6157751219
 20
77.4966278352
  0
LWPOLYLINE
  5
4B4
100
AcDbEntity
  8
0
100
AcDbPolyline
 62
7
  6
CONTINUOUS
 90
19
 70
0
 10
109.7468742893
 20
34.1941849127
 10
109.7460678365
 20
34.1997258583
 10
109.7436807048
 20
34.2046223159
 10
109.7397699358
 20
34.2088742854
 10
109.7344106228
 20
34.2124862751
 10
109.7276760266
 20
34.2154537767
 10
109.719619407
 20
34.2177632657
 10
109.7103227155
 20
34.2194106752
 10
109.6998696569
 20
34.220400072
 10
109.6882958812
 20
34.2207301329
 10
109.6756857686
 20
34.2203999615
 10
109.6621318874
 20
34.219410454
 10
109.6476645878
 20
34.2177629756
 10
109.6323750088
 20
34.2154534825
 10
109.6163718983
 20
34.2124860185
 10
109.5997058717
 20
34.2088740798
 10
109.5824720054
 20
34.2046221653
 10
109.56481649
 20
34.1997257763
 10
109.5468742893
 20
34.1941849127
  0
LINE
  5
4B5
100
AcDbEntity
  8
0
100
AcDbLine
 62
250
  6
CONTINUOUS
 10
107.9642393134
 20
62.5602331329
 11
107.9642393134
 21
62.4426131329
  0
LINE
  5
4B6
100
AcDbEntity
  8
0
100
AcDbLine
 62
250
  6
CONTINUOUS
 10
109.5468742893
 20
34.1941849127
 11
109.5468742893
 21
32.5373416302
  0
LINE
  5
4B7
100
AcDbEntity
  8
0
100
AcDbLine
 62
250
  6
CONTINUOUS
 10
109.5468742893
 20
73.127275353
 11
109.5468742893
 21
74.7841186356
  0
LINE
  5
4B8
100
AcDbEntity
  8
0
100
AcDbLine
 62
250
  6
CONTINUOUS
 10
109.5780174897
 20
61.0683681329
 11
109.5780174897
 21
65.2530921329
  0
LINE
  5
4B9
100
AcDbEntity
  8
0
100
AcDbLine
 62
7
  6
CONTINUOUS
 10
109.7468742893
 20
34.1941849127
 11
109.7468742893
 21
32.5373416302
  0
LINE
  5
4BA
100
AcDbEntity
  8
RACCORDO
100
AcDbLine
 62
7
  6
CONTINUOUS
 10
109.7468742893
 20
32.1207301329
 11
109.7468742893
 21
32.5373416302
  0
LINE
  5
4BB
100
AcDbEntity
  8
0
100
AcDbLine
 62
7
  6
CONTINUOUS
 10
109.7468742893
 20
73.127275353
 11
109.7468742893
 21
74.7841186356
  0
LINE
  5
4BC
100
AcDbEntity
  8
RACCORDO
100
AcDbLine
 62
7
  6
CONTINUOUS
 10
109.7468742893
 20
74.7841186356
 11
109.7468742893
 21
75.2007301329
  0
LINE
  5
4BD
100
AcDbEntity
  8
CURVE
100
AcDbLine
 62
250
  6
CONTINUOUS
 10
104.7255022716
 20
43.8321586822
 11
104.1684442645
 21
43.1821586822
  0
LINE
  5
4BE
100
AcDbEntity
  8
CURVE
100
AcDbLine
 62
250
  6
CONTINUOUS
 10
105.0040312848
 20
43.1821586822
 11
105.0968742893
 21
43.2750158582
  0
LINE
  5
4BF
100
AcDbEntity
  8
INCISIONI
100
AcDbLine
 62
250
  6
CONTINUOUS
 10
90.0971027465
 20
35.4207302187
 11
91.5968742893
 21
35.9007301901
  0
LWPOLYLINE
  5
4C0
100
AcDbEntity
  8
0
100
AcDbPolyline
 62
7
  6
CONTINUOUS
 90
23
 70
0
 10
78.2714252049
 20
70.6607281253
 10
78.2541940453
 20
70.6603710587
 10
78.2069093561
 20
70.655477829
 10
78.1594298628
 20
70.6447674525
 10
78.1112000196
 20
70.6277071123
 10
78.0638030744
 20
70.6043804768
 10
78.0203974632
 20
70.5766199617
 10
77.9816762563
 20
70.5459433576
 10
77.9462245488
 20
70.5122370029
 10
77.9134318674
 20
70.4756576817
 10
77.8829914536
 20
70.4366031143
 10
77.8544369145
 20
70.3951347876
 10
77.8271175504
 20
70.350775734
 10
77.8007914944
 20
70.3034520172
 10
77.7752934908
 20
70.2531469361
 10
77.7502934931
 20
70.1994154503
 10
77.7256568889
 20
70.1420975535
 10
77.7013168898
 20
70.0811515056
 10
77.6771551209
 20
70.016376338
 10
77.6531007438
 20
69.9476534782
 10
77.6291266868
 20
69.8749731464
 10
77.6052343797
 20
69.798419195
 10
77.5968742893
 20
69.7702139023
  0
LWPOLYLINE
  5
4C1
100
AcDbEntity
  8
0
100
AcDbPolyline
 62
7
  6
CONTINUOUS
 90
38
 70
0
 10
81.3468799261
 20
70.6607301259
 10
81.3398069251
 20
70.6606430536
 10
81.3111732172
 20
70.658525122
 10
81.2835751778
 20
70.6538124744
 10
81.2572194176
 20
70.6468084393
 10
81.2322525552
 20
70.6377906066
 10
81.2087656039
 20
70.627000507
 10
81.1868106403
 20
70.614640478
 10
81.1665145437
 20
70.6009480432
 10
81.1480212173
 20
70.5862047863
 10
81.1312685588
 20
70.5705479549
 10
81.1162958939
 20
70.5542275529
 10
81.1032467152
 20
70.5377750992
 10
81.0919519443
 20
70.5214235534
 10
81.0822413544
 20
70.5053597418
 10
81.0741224671
 20
70.4900830763
 10
81.0674623463
 20
70.4759144283
 10
81.0619644889
 20
70.4627723856
 10
81.0573814691
 20
70.4505278319
 10
81.053600003
 20
70.439301308
 10
81.0504655406
 20
70.4290339804
 10
81.0477561826
 20
70.4193005771
 10
81.0454001123
 20
70.4100624086
 10
81.0433533564
 20
70.4013531385
 10
81.0415035485
 20
70.3928548672
 10
81.039819125
 20
70.384534189
 10
81.038283272
 20
70.3764129172
 10
81.0368373756
 20
70.3682601093
 10
81.0354651238
 20
70.3600337155
 10
81.0341625093
 20
70.3517567187
 10
81.0329027197
 20
70.3432952713
 10
81.0316781542
 20
70.3346210138
 10
81.0304867353
 20
70.3257404489
 10
81.0293153656
 20
70.3165718271
 10
81.0281602386
 20
70.3070942791
 10
81.0270201049
 20
70.2973056586
 10
81.0258881346
 20
70.2871525004
 10
81.0236417816
 20
70.2656957516
  0
LINE
  5
4C2
100
AcDbEntity
  8
INCISIONI
100
AcDbLine
 62
250
  6
CONTINUOUS
 10
90.7399380992
 20
69.8287302054
 11
91.5540998019
 21
69.8287302054
  0
LINE
  5
4C3
100
AcDbEntity
  8
0
100
AcDbLine
 62
7
  6
CONTINUOUS
 10
111.5968742893
 20
70.1773198939
 11
111.7968742893
 21
70.1773198939
  0
LINE
  5
4C4
100
AcDbEntity
  8
0
100
AcDbLine
 62
7
  6
CONTINUOUS
 10
111.5968742893
 20
70.4506431329
 11
111.7968742893
 21
70.4506431329
  0
LINE
  5
4C5
100
AcDbEntity
  8
0
100
AcDbLine
 62
7
  6
CONTINUOUS
 10
111.5968742893
 20
70.6607301329
 11
111.7968742893
 21
70.6607301329
  0
LINE
  5
4C6
100
AcDbEntity
  8
INCISIONI
100
AcDbLine
 62
250
  6
CONTINUOUS
 10
92.0968742893
 20
71.146063587
 11
91.1470189789
 21
71.146063587
  0
LINE
  5
4C7
100
AcDbEntity
  8
ASSI
100
AcDbLine
 62
7
  6
CONTINUOUS
 10
77.5968742893
 20
71.3607301329
 11
78.4897675081
 21
71.3607301329
  0
LINE
  5
4C8
100
AcDbEntity
  8
RACCORDO
100
AcDbLine
 62
250
  6
CONTINUOUS
 10
111.5968742893
 20
71.9306396833
 11
111.1056004925
 21
71.9306396833
  0
LINE
  5
4C9
100
AcDbEntity
  8
ASSI
100
AcDbLine
 62
250
  6
CONTINUOUS
 10
77.5968742893
 20
71.9607301329
 11
75.5968742893
 21
71.9607301329
  0
LINE
  5
4CA
100
AcDbEntity
  8
INCISIONI
100
AcDbLine
 62
250
  6
CONTINUOUS
 10
88.3502811004
 20
71.4991181329
 11
88.8838915203
 21
71.3605231329
  0
LINE
  5
4CB
100
AcDbEntity
  8
INCISIONI
100
AcDbLine
 62
250
  6
CONTINUOUS
 10
88.1325304445
 20
72.0008131329
 11
89.3085041497
 21
71.6953801329
  0
LINE
  5
4CC
100
AcDbEntity
  8
INCISIONI
100
AcDbLine
 62
250
  6
CONTINUOUS
 10
86.9075206796
 20
72.3189781329
 11
87.7317945404
 21
72.1048951329
  0
LINE
  5
4CD
100
AcDbEntity
  8
INCISIONI
100
AcDbLine
 62
250
  6
CONTINUOUS
 10
89.5968742893
 20
72.6058951329
 11
87.1314824431
 21
73.2462201329
  0
LINE
  5
4CE
100
AcDbEntity
  8
0
100
AcDbLine
 62
250
  6
CONTINUOUS
 10
108.507470564
 20
60.7851081329
 11
103.4979556536
 21
65.7217401329
  0
LINE
  5
4CF
100
AcDbEntity
  8
RACCORDO
100
AcDbLine
 62
250
  6
CONTINUOUS
 10
111.1081135584
 20
72.3984852387
 11
111.1084224604
 21
72.3859622067
  0
LINE
  5
4D0
100
AcDbEntity
  8
RACCORDO
100
AcDbLine
 62
250
  6
CONTINUOUS
 10
111.1084224604
 20
72.3859622067
 11
111.1086819279
 21
72.3714901156
  0
LINE
  5
4D1
100
AcDbEntity
  8
RACCORDO
100
AcDbLine
 62
250
  6
CONTINUOUS
 10
111.1075607035
 20
35.2614519448
 11
111.1056004925
 21
35.3908205824
  0
LINE
  5
4D2
100
AcDbEntity
  8
RACCORDO
100
AcDbLine
 62
250
  6
CONTINUOUS
 10
111.1086819279
 20
72.3714901156
 11
111.1089760703
 21
72.3462651502
  0
LINE
  5
4D3
100
AcDbEntity
  8
RACCORDO
100
AcDbLine
 62
250
  6
CONTINUOUS
 10
111.1086820698
 20
35.1551943776
 11
111.1075607035
 21
35.2614519448
  0
LINE
  5
4D4
100
AcDbEntity
  8
RACCORDO
100
AcDbLine
 62
250
  6
CONTINUOUS
 10
111.1089760703
 20
72.3462651502
 11
111.1091537062
 21
72.3170388483
  0
LINE
  5
4D5
100
AcDbEntity
  8
RACCORDO
100
AcDbLine
 62
250
  6
CONTINUOUS
 10
111.109153755
 20
35.0737168345
 11
111.1086820698
 21
35.1551943776
  0
LINE
  5
4D6
100
AcDbEntity
  8
0
100
AcDbLine
 62
250
  6
CONTINUOUS
 10
110.5968742893
 20
65.2530921329
 11
110.5968742893
 21
61.0683681329
  0
LINE
  5
4D7
100
AcDbEntity
  8
RACCORDO
100
AcDbLine
 62
250
  6
CONTINUOUS
 10
111.1056004925
 20
71.9306396833
 11
111.1056004925
 21
35.3908205824
  0
LINE
  5
4D8
100
AcDbEntity
  8
RACCORDO
100
AcDbLine
 62
7
  6
CONTINUOUS
 10
111.5968742893
 20
71.9306396833
 11
111.5968742893
 21
35.3908205824
  0
LINE
  5
4D9
100
AcDbEntity
  8
0
100
AcDbLine
 62
7
  6
CONTINUOUS
 10
111.7968742893
 20
70.6607301329
 11
111.7968742893
 21
68.9804931329
  0
LINE
  5
4DA
100
AcDbEntity
  8
0
100
AcDbLine
 62
7
  6
CONTINUOUS
 10
111.7968742893
 20
68.6634741329
 11
111.7968742893
 21
67.5124041329
  0
LINE
  5
4DB
100
AcDbEntity
  8
0
100
AcDbLine
 62
7
  6
CONTINUOUS
 10
111.7968742893
 20
67.2559491329
 11
111.7968742893
 21
66.1855941329
  0
LINE
  5
4DC
100
AcDbEntity
  8
0
100
AcDbLine
 62
7
  6
CONTINUOUS
 10
111.7968742893
 20
65.9205825334
 11
111.7968742893
 21
64.8386341329
  0
LINE
  5
4DD
100
AcDbEntity
  8
0
100
AcDbLine
 62
7
  6
CONTINUOUS
 10
111.7968742893
 20
63.9278761329
 11
111.7968742893
 21
63.7179031329
  0
LINE
  5
4DE
100
AcDbEntity
  8
0
100
AcDbLine
 62
7
  6
CONTINUOUS
 10
111.7968742893
 20
63.5138841329
 11
111.7968742893
 21
62.3365971329
  0
LINE
  5
4DF
100
AcDbEntity
  8
0
100
AcDbLine
 62
7
  6
CONTINUOUS
 10
111.7968742893
 20
62.2821001329
 11
111.7968742893
 21
60.9896361329
  0
LINE
  5
4E0
100
AcDbEntity
  8
0
100
AcDbLine
 62
7
  6
CONTINUOUS
 10
111.7968742893
 20
60.8700258812
 11
111.7968742893
 21
59.7880771329
  0
LINE
  5
4E1
100
AcDbEntity
  8
0
100
AcDbLine
 62
7
  6
CONTINUOUS
 10
111.7968742893
 20
51.0743831329
 11
111.7968742893
 21
49.7838651329
  0
LINE
  5
4E2
100
AcDbEntity
  8
0
100
AcDbLine
 62
7
  6
CONTINUOUS
 10
111.7968742893
 20
49.7172581329
 11
111.7968742893
 21
48.7861621329
  0
LINE
  5
4E3
100
AcDbEntity
  8
0
100
AcDbLine
 62
7
  6
CONTINUOUS
 10
111.7968742893
 20
48.6065101329
 11
111.7968742893
 21
48.5968221329
  0
LINE
  5
4E4
100
AcDbEntity
  8
ASSI
100
AcDbLine
 62
7
  6
CONTINUOUS
 10
111.7968742893
 20
48.5968221329
 11
111.7968742893
 21
46.3559681329
  0
LINE
  5
4E5
100
AcDbEntity
  8
0
100
AcDbLine
 62
7
  6
CONTINUOUS
 10
111.7968742893
 20
46.3559681329
 11
111.7968742893
 21
46.0799921329
  0
LINE
  5
4E6
100
AcDbEntity
  8
ASSI
100
AcDbLine
 62
7
  6
CONTINUOUS
 10
111.7968742893
 20
45.9826231329
 11
111.7968742893
 21
43.6245261329
  0
LINE
  5
4E7
100
AcDbEntity
  8
0
100
AcDbLine
 62
7
  6
CONTINUOUS
 10
111.7968742893
 20
43.2889441329
 11
111.7968742893
 21
43.2511811329
  0
LINE
  5
4E8
100
AcDbEntity
  8
ASSI
100
AcDbLine
 62
7
  6
CONTINUOUS
 10
111.7968742893
 20
43.2511811329
 11
111.7968742893
 21
40.5121931329
  0
LINE
  5
4E9
100
AcDbEntity
  8
0
100
AcDbLine
 62
7
  6
CONTINUOUS
 10
111.7968742893
 20
40.5121931329
 11
111.7968742893
 21
39.9521931329
  0
LINE
  5
4EA
100
AcDbEntity
  8
ASSI
100
AcDbLine
 62
7
  6
CONTINUOUS
 10
111.7968742893
 20
39.9521931329
 11
111.7968742893
 21
39.3921721329
  0
LINE
  5
4EB
100
AcDbEntity
  8
0
100
AcDbLine
 62
7
  6
CONTINUOUS
 10
111.7968742893
 20
39.3921721329
 11
111.7968742893
 21
39.0188271329
  0
LINE
  5
4EC
100
AcDbEntity
  8
ASSI
100
AcDbLine
 62
7
  6
CONTINUOUS
 10
111.7968742893
 20
39.0188271329
 11
111.7968742893
 21
36.6607301329
  0
LINE
  5
4ED
100
AcDbEntity
  8
RACCORDO
100
AcDbLine
 62
250
  6
CONTINUOUS
 10
111.1091537062
 20
72.3170388483
 11
111.1092065293
 21
72.2723376304
  0
LINE
  5
4EE
100
AcDbEntity
  8
RACCORDO
100
AcDbLine
 62
250
  6
CONTINUOUS
 10
111.1092065129
 20
35.0259911574
 11
111.109153755
 21
35.0737168345
  0
LINE
  5
4EF
100
AcDbEntity
  8
RACCORDO
100
AcDbLine
 62
250
  6
CONTINUOUS
 10
111.1092065293
 20
72.2723376304
 11
111.1089761667
 21
72.2083414319
  0
LINE
  5
4F0
100
AcDbEntity
  8
RACCORDO
100
AcDbLine
 62
250
  6
CONTINUOUS
 10
111.1090483352
 20
34.9845057488
 11
111.1092065129
 21
35.0259911574
  0
LINE
  5
4F1
100
AcDbEntity
  8
RACCORDO
100
AcDbLine
 62
250
  6
CONTINUOUS
 10
111.1089761667
 20
72.2083414319
 11
111.108422631
 21
72.1369293185
  0
LINE
  5
4F2
100
AcDbEntity
  8
RACCORDO
100
AcDbLine
 62
250
  6
CONTINUOUS
 10
111.1087927686
 20
34.9579180685
 11
111.1090483352
 21
34.9845057488
  0
LINE
  5
4F3
100
AcDbEntity
  8
RACCORDO
100
AcDbLine
 62
250
  6
CONTINUOUS
 10
111.108422631
 20
72.1369293185
 11
111.1075607035
 21
72.060008321
  0
LINE
  5
4F4
100
AcDbEntity
  8
RACCORDO
100
AcDbLine
 62
250
  6
CONTINUOUS
 10
111.1075607035
 20
72.060008321
 11
111.1064134014
 21
71.9796325906
  0
LINE
  5
4F5
100
AcDbEntity
  8
RACCORDO
100
AcDbLine
 62
250
  6
CONTINUOUS
 10
111.1085584478
 20
34.9424941474
 11
111.1087927686
 21
34.9579180685
  0
LINE
  5
4F6
100
AcDbEntity
  8
RACCORDO
100
AcDbLine
 62
250
  6
CONTINUOUS
 10
111.1064134014
 20
71.9796325906
 11
111.1056004925
 21
71.9306396833
  0
LINE
  5
4F7
100
AcDbEntity
  8
ASSI
100
AcDbLine
 62
250
  6
CONTINUOUS
 10
75.5968742893
 20
71.6570253484
 11
72.3001028589
 21
71.0757155959
  0
LWPOLYLINE
  5
4F8
100
AcDbEntity
  8
INCISIONI
100
AcDbPolyline
 62
250
  6
CONTINUOUS
 90
45
 70
0
 10
87.1314824431
 20
73.2462201329
 10
87.1155384607
 20
73.2446649989
 10
87.0996354451
 20
73.2427010211
 10
87.0837857589
 20
73.2403297877
 10
87.0680017647
 20
73.2375528869
 10
87.052295386
 20
73.2343720497
 10
87.0366767909
 20
73.2307895781
 10
87.0211557085
 20
73.2268079167
 10
87.0057418682
 20
73.2224295101
 10
86.9904450561
 20
73.2176569849
 10
86.9752752875
 20
73.2124936951
 10
86.960242635
 20
73.2069431766
 10
86.9453571709
 20
73.2010089653
 10
86.9306288698
 20
73.194694761
 10
86.9160673144
 20
73.1880049195
 10
86.9016819896
 20
73.1809439609
 10
86.88748238
 20
73.1735164049
 10
86.8734778928
 20
73.1657269309
 10
86.8596776246
 20
73.1575808554
 10
86.8460905942
 20
73.1490836548
 10
86.8327258206
 20
73.140240805
 10
86.819592219
 20
73.1310579305
 10
86.8066982904
 20
73.1215412489
 10
86.7940524323
 20
73.1116971258
 10
86.7816630421
 20
73.1015319272
 10
86.7695384026
 20
73.0910521587
 10
86.7576863377
 20
73.0802648852
 10
86.7461145566
 20
73.0691773116
 10
86.7348307684
 20
73.0577966428
 10
86.72384255
 20
73.0461302014
 10
86.7131569486
 20
73.0341857818
 10
86.702780879
 20
73.0219712959
 10
86.6927212561
 20
73.0094946559
 10
86.6829848633
 20
72.9967639125
 10
86.6735779587
 20
72.9837876712
 10
86.664506669
 20
72.9705746761
 10
86.6557771208
 20
72.9571336714
 10
86.6473952503
 20
72.9434733951
 10
86.6393662317
 20
72.9296025619
 10
86.6316950485
 20
72.9155298802
 10
86.6243866844
 20
72.9012640587
 10
86.6174461042
 20
72.8868142671
 10
86.610878198
 20
72.8721915204
 10
86.6046878373
 20
72.8574072948
 10
86.5988798935
 20
72.8424730664
  0
LINE
  5
4F9
100
AcDbEntity
  8
ASSI
100
AcDbLine
 62
7
  6
CONTINUOUS
 10
77.5968742893
 20
72.2607301329
 11
75.5968742893
 21
72.2607301329
  0
LINE
  5
4FA
100
AcDbEntity
  8
RACCORDO
100
AcDbLine
 62
7
  6
CONTINUOUS
 10
76.0968742893
 20
72.4607301329
 11
82.0968742893
 21
72.4607301329
  0
LINE
  5
4FB
100
AcDbEntity
  8
0
100
AcDbLine
 62
7
  6
CONTINUOUS
 10
105.0397555637
 20
73.7007301329
 11
107.1539930148
 21
73.7007301329
  0
LINE
  5
4FC
100
AcDbEntity
  8
RACCORDO
100
AcDbLine
 62
250
  6
CONTINUOUS
 10
92.3512373909
 20
72.257998309
 11
111.1056004925
 21
71.9306396833
  0
LINE
  5
4FD
100
AcDbEntity
  8
RACCORDO
100
AcDbLine
 62
7
  6
CONTINUOUS
 10
92.5968742893
 20
72.7536345485
 11
111.1056004925
 21
72.4305635309
  0
LINE
  5
4FE
100
AcDbEntity
  8
RACCORDO
100
AcDbLine
 62
250
  6
CONTINUOUS
 10
114.2984450784
 20
68.946584612
 11
114.2984450784
 21
61.9748756537
  0
LINE
  5
4FF
100
AcDbEntity
  8
RACCORDO
100
AcDbLine
 62
250
  6
CONTINUOUS
 10
114.2984450784
 20
45.346584612
 11
114.2984450784
 21
38.3748756537
  0
LINE
  5
500
100
AcDbEntity
  8
RACCORDO
100
AcDbLine
 62
7
  6
CONTINUOUS
 10
114.5968742893
 20
68.6465887244
 11
114.5968742893
 21
62.2748715414
  0
LINE
  5
501
100
AcDbEntity
  8
RACCORDO
100
AcDbLine
 62
7
  6
CONTINUOUS
 10
114.5968742893
 20
45.0465887244
 11
114.5968742893
 21
38.6748715414
  0
LINE
  5
502
100
AcDbEntity
  8
0
100
AcDbLine
 62
7
  6
CONTINUOUS
 10
83.0037423715
 20
29.0230519712
 11
85.0440583677
 21
29.6859908249
  0
LINE
  5
503
100
AcDbEntity
  8
0
100
AcDbLine
 62
7
  6
CONTINUOUS
 10
83.1273491693
 20
28.6426293647
 11
86.4119714441
 21
29.7098678365
  0
LWPOLYLINE
  5
504
100
AcDbEntity
  8
ASSI
100
AcDbPolyline
 62
250
  6
CONTINUOUS
 90
19
 70
0
 10
72.3001028589
 20
71.0757155959
 10
72.2484989955
 20
71.0645841543
 10
72.1983195428
 20
71.0497804827
 10
72.1495645009
 20
71.0313045811
 10
72.1019561085
 20
71.0090266232
 10
72.0557721268
 20
70.9830764352
 10
72.0118458395
 20
70.9538434966
 10
71.9702032477
 20
70.9212442365
 10
71.9308183503
 20
70.8853622256
 10
71.8944464274
 20
70.8468376562
 10
71.8611560147
 20
70.8055997203
 10
71.8308785765
 20
70.7617192258
 10
71.8041637846
 20
70.7160487885
 10
71.7811055493
 20
70.6685829609
 10
71.7616099604
 20
70.6193271906
 10
71.7459449593
 20
70.5691504356
 10
71.7341998598
 20
70.5183423486
 10
71.7262853482
 20
70.466613277
 10
71.7222014243
 20
70.4139632208
  0
LINE
  5
505
100
AcDbEntity
  8
ASSI
100
AcDbLine
 62
7
  6
CONTINUOUS
 10
75.5968742893
 20
71.9607301329
 11
72.2532441275
 21
71.3711579218
  0
LWPOLYLINE
  5
506
100
AcDbEntity
  8
RACCORDO
100
AcDbPolyline
 62
7
  6
CONTINUOUS
 90
10
 70
0
 10
104.4053632875
 20
75.2007301329
 10
104.3495797728
 20
75.2001894953
 10
104.2950369566
 20
75.1984769263
 10
104.241734839
 20
75.1955924258
 10
104.1896479848
 20
75.1915462419
 10
104.1388018292
 20
75.1863281265
 10
104.0892726779
 20
75.1799073362
 10
104.0410859661
 20
75.1722736231
 10
103.9942162586
 20
75.1634372351
 10
103.9486635555
 20
75.1533981721
  0
LINE
  5
507
100
AcDbEntity
  8
RACCORDO
100
AcDbLine
 62
250
  6
CONTINUOUS
 10
81.5532633966
 20
75.8396904739
 11
76.3425111876
 21
75.7942169283
  0
LINE
  5
508
100
AcDbEntity
  8
RACCORDO
100
AcDbLine
 62
7
  6
CONTINUOUS
 10
80.9064698105
 20
76.0840174352
 11
76.3446926554
 21
76.044207409
  0
LINE
  5
509
100
AcDbEntity
  8
RACCORDO
100
AcDbLine
 62
250
  6
CONTINUOUS
 10
103.9486635555
 20
75.1533981721
 11
102.4468742893
 21
75.1533981721
  0
LINE
  5
50A
100
AcDbEntity
  8
RACCORDO
100
AcDbLine
 62
250
  6
CONTINUOUS
 10
108.245085023
 20
75.1533981721
 11
109.7468742893
 21
75.1533981721
  0
LINE
  5
50B
100
AcDbEntity
  8
RACCORDO
100
AcDbLine
 62
7
  6
CONTINUOUS
 10
107.788385291
 20
75.2007301329
 11
102.4468742893
 21
75.2007301329
  0
LINE
  5
50C
100
AcDbEntity
  8
RACCORDO
100
AcDbLine
 62
7
  6
CONTINUOUS
 10
107.8646412422
 20
75.2007301329
 11
109.7468742893
 21
75.2007301329
  0
LINE
  5
50D
100
AcDbEntity
  8
RACCORDO
100
AcDbLine
 62
7
  6
CONTINUOUS
 10
105.0468742893
 20
75.2507301329
 11
107.1468742893
 21
75.2507301329
  0
LINE
  5
50E
100
AcDbEntity
  8
RACCORDO
100
AcDbLine
 62
250
  6
CONTINUOUS
 10
76.3425111876
 20
75.7942169283
 11
76.0968742893
 21
75.7942169283
  0
LINE
  5
50F
100
AcDbEntity
  8
RACCORDO
100
AcDbLine
 62
250
  6
CONTINUOUS
 10
92.5968742893
 20
76.5209372854
 11
92.3512373909
 21
76.5209372854
  0
LWPOLYLINE
  5
510
100
AcDbEntity
  8
0
100
AcDbPolyline
 62
7
  6
CONTINUOUS
 90
16
 70
0
 10
107.1539930148
 20
73.7007301329
 10
107.3044791915
 20
73.6796690559
 10
107.4551855612
 20
73.6562574756
 10
107.6061121239
 20
73.630495392
 10
107.7569193737
 20
73.6023771126
 10
107.9079468165
 20
73.57190833
 10
108.0602129701
 20
73.5391061218
 10
108.2135812333
 20
73.5040535861
 10
108.3681882072
 20
73.4666676248
 10
108.5254622125
 20
73.4267160211
 10
108.6851792174
 20
73.3843209298
 10
108.8475632537
 20
73.3393601961
 10
109.0147147374
 20
73.2912351396
 10
109.1873338073
 20
73.2397462002
 10
109.3647203246
 20
73.185092938
 10
109.5468742893
 20
73.127275353
  0
LINE
  5
511
100
AcDbEntity
  8
0
100
AcDbLine
 62
7
  6
CONTINUOUS
 10
83.0037423715
 20
78.2984082945
 11
85.0440583677
 21
77.6354694408
  0
LINE
  5
512
100
AcDbEntity
  8
0
100
AcDbLine
 62
7
  6
CONTINUOUS
 10
83.1273491693
 20
78.678830901
 11
86.4119714441
 21
77.6115924293
  0
LWPOLYLINE
  5
513
100
AcDbEntity
  8
0
100
AcDbPolyline
 62
7
  6
CONTINUOUS
 90
10
 70
0
 43
0.3500000006
 10
93.8111588745
 20
97.9630903931
 10
93.8825900574
 20
97.8202370911
 10
93.8825900574
 20
97.7488059082
 10
93.7397276917
 20
97.6059526062
 10
93.6683055725
 20
97.6059526062
 10
93.5968743896
 20
97.6773747253
 10
93.5968743896
 20
97.7488059082
 10
93.6683055725
 20
97.8916592102
 10
93.7397276917
 20
97.9630903931
 10
93.8111588745
 20
97.9630903931
  0
LWPOLYLINE
  5
514
100
AcDbEntity
  8
0
100
AcDbPolyline
 62
7
  6
CONTINUOUS
 90
10
 70
0
 43
0.3500000006
 10
99.311160553
 20
87.9630873413
 10
99.3825917358
 20
87.8202340393
 10
99.3825917358
 20
87.7488028564
 10
99.2397293701
 20
87.6059495544
 10
99.168307251
 20
87.6059495544
 10
99.0968760681
 20
87.6773807373
 10
99.0968760681
 20
87.7488028564
 10
99.168307251
 20
87.8916652222
 10
99.2397293701
 20
87.9630873413
 10
99.311160553
 20
87.9630873413
  0
LWPOLYLINE
  5
515
100
AcDbEntity
  8
0
100
AcDbPolyline
 62
7
  6
CONTINUOUS
 90
16
 70
0
 10
109.5468742893
 20
34.1941849127
 10
109.3646180674
 20
34.1363360111
 10
109.1871454255
 20
34.0816575225
 10
109.0144563637
 20
34.0301494469
 10
108.8472517475
 20
33.9820119816
 10
108.6848307114
 20
33.9370449294
 10
108.5250906585
 20
33.8946476978
 10
108.3678072358
 20
33.854698093
 10
108.2132047962
 20
33.8173183089
 10
108.0598538029
 20
33.7822743348
 10
107.9076175999
 20
33.7494831428
 10
107.7566328431
 20
33.7190277609
 10
107.6058799631
 20
33.6909232616
 10
107.4550191035
 20
33.6651746693
 10
107.3043901207
 20
33.6417769597
 10
107.1539930148
 20
33.6207301329
  0
LINE
  5
516
100
AcDbEntity
  8
RACCORDO
100
AcDbLine
 62
7
  6
CONTINUOUS
 10
79.5968838
 20
76.8225888512
 11
80.5968742893
 21
76.831315636
  0
LINE
  5
517
100
AcDbEntity
  8
RACCORDO
100
AcDbLine
 62
250
  6
CONTINUOUS
 10
81.5532633966
 20
77.3929243674
 11
83.5968742893
 21
77.4107586895
  0
LINE
  5
518
100
AcDbEntity
  8
RACCORDO
100
AcDbLine
 62
7
  6
CONTINUOUS
 10
80.8446927282
 20
77.6367122083
 11
83.5968742893
 21
77.6607301329
  0
LINE
  5
519
100
AcDbEntity
  8
RACCORDO
100
AcDbLine
 62
250
  6
CONTINUOUS
 10
80.5968742893
 20
77.3867217275
 11
81.5532633966
 21
77.3929243674
  0
LINE
  5
51A
100
AcDbEntity
  8
0
100
AcDbLine
 62
7
  6
CONTINUOUS
 10
82.0968742893
 20
77.7130913396
 11
81.6968742893
 21
77.7130913396
  0
LINE
  5
51B
100
AcDbEntity
  8
0
100
AcDbLine
 62
250
  6
CONTINUOUS
 10
82.0968742893
 20
78.0130913396
 11
81.6968742893
 21
78.0130913396
  0
LINE
  5
51C
100
AcDbEntity
  8
0
100
AcDbLine
 62
7
  6
CONTINUOUS
 10
82.3968742893
 20
78.3130913396
 11
82.9110372732
 21
78.3130913396
  0
LINE
  5
51D
100
AcDbEntity
  8
0
100
AcDbLine
 62
7
  6
CONTINUOUS
 10
82.3968742893
 20
78.7130913396
 11
82.9110372732
 21
78.7130913396
  0
LINE
  5
51E
100
AcDbEntity
  8
RACCORDO
100
AcDbLine
 62
250
  6
CONTINUOUS
 10
83.5968742893
 20
77.4107682091
 11
91.6143266957
 21
77.2708230568
  0
LINE
  5
51F
100
AcDbEntity
  8
RACCORDO
100
AcDbLine
 62
7
  6
CONTINUOUS
 10
83.5968742893
 20
77.6607301329
 11
91.6143266957
 21
77.5207849806
  0
LWPOLYLINE
  5
520
100
AcDbEntity
  8
RACCORDO
100
AcDbPolyline
 62
250
  6
CONTINUOUS
 90
58
 70
0
 10
91.6143266957
 20
77.2708230568
 10
91.634775132
 20
77.2701862457
 10
91.6551699789
 20
77.2689953953
 10
91.6755112365
 20
77.2672505057
 10
91.6958143916
 20
77.2649494591
 10
91.7160639574
 20
77.2620943732
 10
91.7362134727
 20
77.2586916013
 10
91.7562623193
 20
77.2547399136
 10
91.7762111155
 20
77.2502405399
 10
91.7960152552
 20
77.2452035221
 10
91.8156743447
 20
77.2396276659
 10
91.8351887778
 20
77.2335141656
 10
91.8545151293
 20
77.2268766455
 10
91.8736529475
 20
77.2197139579
 10
91.8926026841
 20
77.2120272505
 10
91.9113222702
 20
77.2038335912
 10
91.9298112574
 20
77.1951318215
 10
91.948070094
 20
77.1859230998
 10
91.9660580559
 20
77.1762279691
 10
91.9837745017
 20
77.1660453621
 10
92.0012200729
 20
77.1553763459
 10
92.0183559693
 20
77.1442446659
 10
92.0351815137
 20
77.1326492823
 10
92.0516973833
 20
77.1205912347
 10
92.0678668096
 20
77.1080973873
 10
92.0836889971
 20
77.0951667908
 10
92.0991647412
 20
77.0818003944
 10
92.1142596602
 20
77.0680279097
 10
92.1289729402
 20
77.0538483987
 10
92.1433053952
 20
77.0392627995
 10
92.1572250843
 20
77.0243036377
 10
92.1707310532
 20
77.0089701192
 10
92.1838242564
 20
76.9932630383
 10
92.1964756163
 20
76.9772173027
 10
92.2086841699
 20
76.9608321352
 10
92.2204508804
 20
76.944108313
 10
92.2317495593
 20
76.9270830765
 10
92.2425791547
 20
76.9097557695
 10
92.2529407186
 20
76.8921270482
 10
92.2628112184
 20
76.874236121
 10
92.2721895758
 20
76.8560823684
 10
92.2810768691
 20
76.83766641
 10
92.2894533006
 20
76.8190293132
 10
92.2973177053
 20
76.800170652
 10
92.3046712481
 20
76.7810908523
 10
92.3114976265
 20
76.7618322596
 10
92.3177956866
 20
76.7423944436
 10
92.3235665821
 20
76.7227778346
 10
92.3287974721
 20
76.7030260683
 10
92.3334871572
 20
76.6831387725
 10
92.3376368367
 20
76.6631163195
 10
92.3412372679
 20
76.6430034613
 10
92.344287213
 20
76.6227995604
 10
92.3467879097
 20
76.6025052543
 10
92.3487338288
 20
76.5821672073
 10
92.3501231272
 20
76.5618009743
 10
92.3509576478
 20
76.5413910003
 10
92.3512373909
 20
76.5209372854
  0
LWPOLYLINE
  5
521
100
AcDbEntity
  8
RACCORDO
100
AcDbPolyline
 62
7
  6
CONTINUOUS
 90
10
 70
0
 10
108.245085023
 20
75.1533981721
 10
108.1995323199
 20
75.1634372351
 10
108.1526626124
 20
75.1722736231
 10
108.1044759007
 20
75.1799073362
 10
108.0549467493
 20
75.1863281265
 10
108.0041005937
 20
75.1915462419
 10
107.9520137395
 20
75.1955924258
 10
107.8987116219
 20
75.1984769263
 10
107.8441688057
 20
75.2001894953
 10
107.788385291
 20
75.2007301329
  0
LWPOLYLINE
  5
522
100
AcDbEntity
  8
RACCORDO
100
AcDbPolyline
 62
7
  6
CONTINUOUS
 90
10
 70
0
 10
108.245085023
 20
75.1533981721
 10
108.3803736102
 20
75.1204433439
 10
108.5176614413
 20
75.0855642009
 10
108.6569485163
 20
75.0487607429
 10
108.7977822723
 20
75.0101592938
 10
108.9406152721
 20
74.9696335298
 10
109.0868052049
 20
74.9268044792
 10
109.2368046335
 20
74.881545818
 10
109.3901609949
 20
74.8339838701
 10
109.5468742893
 20
74.7841186356
  0
LWPOLYLINE
  5
523
100
AcDbEntity
  8
0
100
AcDbPolyline
 62
7
  6
CONTINUOUS
 90
19
 70
0
 10
109.5468742893
 20
73.127275353
 10
109.5648167177
 20
73.1217344074
 10
109.582472531
 20
73.1168379499
 10
109.599706756
 20
73.1125859803
 10
109.6163733801
 20
73.1089739907
 10
109.6323771069
 20
73.1060064891
 10
109.6476667706
 20
73.103697
 10
109.6621331791
 20
73.1020495906
 10
109.6756858447
 20
73.1010601937
 10
109.6882954069
 20
73.1007301329
 10
109.699869721
 20
73.1010603043
 10
109.7103236264
 20
73.1020498117
 10
109.7196206806
 20
73.1036972901
 10
109.7276770188
 20
73.1060067832
 10
109.7344111719
 20
73.1089742473
 10
109.739770178
 20
73.112586186
 10
109.7436807998
 20
73.1168381004
 10
109.746067857
 20
73.1217344894
 10
109.7468742893
 20
73.127275353
  0
LWPOLYLINE
  5
524
100
AcDbEntity
  8
RACCORDO
100
AcDbPolyline
 62
250
  6
CONTINUOUS
 90
14
 70
0
 10
111.1056004925
 20
34.8908967348
 10
111.1058810679
 20
34.8911690325
 10
111.1061520422
 20
34.8919758014
 10
111.1064131219
 20
34.8933163649
 10
111.1066640338
 20
34.8951895576
 10
111.1069044954
 20
34.8975935184
 10
111.1071342195
 20
34.9005254868
 10
111.1073529516
 20
34.9039821748
 10
111.107560467
 20
34.9079599895
 10
111.1077565444
 20
34.9124546921
 10
111.1079409742
 20
34.9174614933
 10
111.1081135584
 20
34.922975027
 10
111.1082741111
 20
34.9289893666
 10
111.1085584478
 20
34.9424941474
  0
LWPOLYLINE
  5
525
100
AcDbEntity
  8
RACCORDO
100
AcDbPolyline
 62
7
  6
CONTINUOUS
 90
10
 70
0
 10
109.5468742893
 20
32.5373416302
 10
109.3901530929
 20
32.4874739786
 10
109.2367905259
 20
32.439910186
 10
109.0867865881
 20
32.3946502524
 10
108.9405934705
 20
32.3518204593
 10
108.7977589821
 20
32.3112945252
 10
108.6569265505
 20
32.272693606
 10
108.5176439846
 20
32.2358914203
 10
108.3803634755
 20
32.2010142495
 10
108.245085023
 20
32.1680620937
  0
LWPOLYLINE
  5
526
100
AcDbEntity
  8
0
100
AcDbPolyline
 62
7
  6
CONTINUOUS
 90
19
 70
0
 10
109.5468742893
 20
32.5373416302
 10
109.5648164901
 20
32.5428824938
 10
109.5824720054
 20
32.5477788828
 10
109.5997058718
 20
32.5520307973
 10
109.6163718992
 20
32.5556427359
 10
109.6323750105
 20
32.5586102
 10
109.647664588
 20
32.5609196931
 10
109.6621318814
 20
32.5625671715
 10
109.6756857553
 20
32.5635566789
 10
109.6882958653
 20
32.5638868503
 10
109.6998696457
 20
32.5635567895
 10
109.7103227112
 20
32.5625673926
 10
109.719619407
 20
32.5609199832
 10
109.7276760273
 20
32.5586104941
 10
109.7344106231
 20
32.5556429925
 10
109.7397699358
 20
32.5520310029
 10
109.7436807048
 20
32.5477790333
 10
109.7460678365
 20
32.5428825758
 10
109.7468742893
 20
32.5373416302
  0
LWPOLYLINE
  5
527
100
AcDbEntity
  8
0
100
AcDbPolyline
 62
7
  6
CONTINUOUS
 90
19
 70
0
 10
109.5468742893
 20
74.7841186356
 10
109.5648167177
 20
74.77857769
 10
109.582472531
 20
74.7736812324
 10
109.599706756
 20
74.7694292629
 10
109.6163733792
 20
74.7658172732
 10
109.6323771051
 20
74.7628497716
 10
109.6476667707
 20
74.7605402826
 10
109.6621331863
 20
74.7588928732
 10
109.6756858606
 20
74.7579034763
 10
109.6882954257
 20
74.7575734154
 10
109.6998697343
 20
74.7579035868
 10
109.7103236314
 20
74.7588930943
 10
109.7196206804
 20
74.7605405726
 10
109.7276770179
 20
74.7628500658
 10
109.7344111715
 20
74.7658175298
 10
109.739770178
 20
74.7694294685
 10
109.7436807998
 20
74.773681383
 10
109.746067857
 20
74.778577772
 10
109.7468742893
 20
74.7841186356
  0
LWPOLYLINE
  5
528
100
AcDbEntity
  8
RACCORDO
100
AcDbPolyline
 62
250
  6
CONTINUOUS
 90
12
 70
0
 10
111.1056004925
 20
72.4305635309
 10
111.1058810679
 20
72.4302912332
 10
111.1061520422
 20
72.4294844643
 10
111.1064131219
 20
72.4281439008
 10
111.1066640338
 20
72.4262707082
 10
111.1069044954
 20
72.4238667474
 10
111.1071342195
 20
72.420934779
 10
111.1073529516
 20
72.4174780909
 10
111.107560467
 20
72.4135002762
 10
111.1077565444
 20
72.4090055737
 10
111.1079409742
 20
72.4039987725
 10
111.1081135584
 20
72.3984852387
  0
LWPOLYLINE
  5
529
100
AcDbEntity
  8
0
100
AcDbPolyline
 62
7
  6
CONTINUOUS
 90
7
 70
0
 43
0.3500000006
 10
97.8111600952
 20
87.4630871887
 10
96.3111596375
 20
87.4630871887
 10
97.8111600952
 20
89.6059501648
 10
97.8111600952
 20
90.0345191345
 10
97.3825911255
 20
90.4630881042
 10
96.7397286072
 20
90.4630881042
 10
96.3111596375
 20
89.8202346497
  0
LWPOLYLINE
  5
52A
100
AcDbEntity
  8
0
100
AcDbPolyline
 62
7
  6
CONTINUOUS
 90
6
 70
0
 43
0.3500000006
 10
94.1683057251
 20
87.4630871887
 10
95.2397281494
 20
87.4630871887
 10
95.4540126343
 20
87.6773807373
 10
95.4540126343
 20
88.7488031616
 10
95.0254436646
 20
89.1773811951
 10
94.5968746948
 20
89.1773811951
  0
LWPOLYLINE
  5
52B
100
AcDbEntity
  8
0
100
AcDbPolyline
 62
7
  6
CONTINUOUS
 90
8
 70
0
 43
0.3500000006
 10
100.382592041
 20
87.4630871887
 10
101.2397299805
 20
87.4630871887
 10
101.6682989502
 20
87.8916652222
 10
101.6682989502
 20
88.7488031616
 10
101.2397299805
 20
89.1773811951
 10
100.382592041
 20
89.1773811951
 10
100.382592041
 20
90.4630881042
 10
101.6682989502
 20
90.4630881042
  0
LWPOLYLINE
  5
52C
100
AcDbEntity
  8
0
100
AcDbPolyline
 62
7
  6
CONTINUOUS
 90
6
 70
0
 43
0.3500000006
 10
91.0254424438
 20
97.4630902405
 10
92.0968739319
 20
97.4630902405
 10
92.3111584167
 20
97.6773747253
 10
92.3111584167
 20
98.7488062134
 10
91.882589447
 20
99.1773751831
 10
91.4540204773
 20
99.1773751831
  0
LWPOLYLINE
  5
52D
100
AcDbEntity
  8
0
100
AcDbPolyline
 62
7
  6
CONTINUOUS
 90
8
 70
0
 43
0.3500000006
 10
94.8825903625
 20
97.4630902405
 10
95.739728302
 20
97.4630902405
 10
96.1683063354
 20
97.8916592102
 10
96.1683063354
 20
98.7488062134
 10
95.739728302
 20
99.1773751831
 10
94.8825903625
 20
99.1773751831
 10
94.8825903625
 20
100.463091156
 10
96.1683063354
 20
100.463091156
  0
LWPOLYLINE
  5
52E
100
AcDbEntity
  8
0
100
AcDbPolyline
 62
7
  6
CONTINUOUS
 90
3
 70
0
 43
0.3500000006
 10
90.1683045044
 20
98.1059527588
 10
88.6683040466
 20
98.1059527588
 10
89.3111575012
 20
100.463091156
  0
LWPOLYLINE
  5
52F
100
AcDbEntity
  8
RACCORDO
100
AcDbPolyline
 62
250
  6
CONTINUOUS
 90
9
 70
0
 10
132.3425428427
 20
29.6784903328
 10
132.341707947
 20
29.678742815
 10
132.3397298358
 20
29.6789940599
 10
132.3366085092
 20
29.6792440674
 10
132.3323354121
 20
29.6794932469
 10
132.3269190995
 20
29.679741189
 10
132.3203852367
 20
29.679986666
 10
132.3127283379
 20
29.6802296548
 10
132.2941040121
 20
29.6807070787
  0
LINE
  5
530
100
AcDbEntity
  8
RACCORDO
100
AcDbLine
 62
250
  6
CONTINUOUS
 10
132.3425428427
 20
77.642969933
 11
132.3603030426
 21
77.6607301329
  0
LINE
  5
531
100
AcDbEntity
  8
RACCORDO
100
AcDbLine
 62
250
  6
CONTINUOUS
 10
132.5925333235
 20
77.3929794522
 11
132.6102935234
 21
77.4107396521
  0
LWPOLYLINE
  5
532
100
AcDbEntity
  8
RACCORDO
100
AcDbPolyline
 62
250
  6
CONTINUOUS
 90
7
 70
0
 10
153.7001975985
 20
29.6799865179
 10
153.6936644241
 20
29.6797410355
 10
153.6882487721
 20
29.679493088
 10
153.6839763529
 20
29.6792439196
 10
153.680855737
 20
29.6789939449
 10
153.678878354
 20
29.6787427493
 10
153.678044204
 20
29.6784903328
  0
LWPOLYLINE
  5
533
100
AcDbEntity
  8
RACCORDO
100
AcDbPolyline
 62
250
  6
CONTINUOUS
 90
28
 70
0
 10
155.1246602388
 20
29.6785454176
 10
155.1391928147
 20
29.6789704929
 10
155.1536762276
 20
29.6802398538
 10
155.1680614795
 20
29.6823492062
 10
155.1822999049
 20
29.6852914142
 10
155.1963433348
 20
29.6890565244
 10
155.2101442599
 20
29.6936317996
 10
155.2236559912
 20
29.6990017615
 10
155.2368328181
 20
29.7051482437
 10
155.249630163
 20
29.7120504525
 10
155.2620047321
 20
29.7196850377
 10
155.2739146617
 20
29.7280261714
 10
155.2853196602
 20
29.7370456354
 10
155.296181144
 20
29.7467129167
 10
155.3064623684
 20
29.7569953107
 10
155.3161285514
 20
29.7678580318
 10
155.3251469921
 20
29.7792643312
 10
155.3334871808
 20
29.7911756211
 10
155.3411209021
 20
29.8035516052
 10
155.3480223309
 20
29.8163504153
 10
155.3541681194
 20
29.8295287527
 10
155.359537476
 20
29.8430420345
 10
155.3641122361
 20
29.856844545
 10
155.367876923
 20
29.8708895898
 10
155.3708188005
 20
29.8851296541
 10
155.3729279162
 20
29.8995165632
 10
155.3741971348
 20
29.9140016457
 10
155.3746221626
 20
29.9285358983
  0
LWPOLYLINE
  5
534
100
AcDbEntity
  8
RACCORDO
100
AcDbPolyline
 62
250
  6
CONTINUOUS
 90
7
 70
0
 10
153.4578862976
 20
29.9299775821
 10
153.4490844212
 20
29.9297321456
 10
153.4418016029
 20
29.9294842447
 10
153.4360490149
 20
29.9292350445
 10
153.4318359242
 20
29.9289849334
 10
153.4291693538
 20
29.9287335231
 10
153.4280537233
 20
29.9284808135
  0
LINE
  5
535
100
AcDbEntity
  8
RACCORDO
100
AcDbLine
 62
250
  6
CONTINUOUS
 10
153.7166274382
 20
29.6804700303
 11
153.7001975985
 21
29.6799865179
  0
LINE
  5
536
100
AcDbEntity
  8
RACCORDO
100
AcDbLine
 62
250
  6
CONTINUOUS
 10
153.7374061076
 20
29.6809401858
 11
153.7166274382
 21
29.6804700303
  0
LINE
  5
537
100
AcDbEntity
  8
RACCORDO
100
AcDbLine
 62
250
  6
CONTINUOUS
 10
153.776480639
 20
29.6816149132
 11
153.7374061076
 21
29.6809401858
  0
LINE
  5
538
100
AcDbEntity
  8
RACCORDO
100
AcDbLine
 62
250
  6
CONTINUOUS
 10
153.8611964336
 20
29.6826337752
 11
153.776480639
 21
29.6816149132
  0
LINE
  5
539
100
AcDbEntity
  8
RACCORDO
100
AcDbLine
 62
250
  6
CONTINUOUS
 10
154.039690161
 20
29.683902198
 11
153.8611964336
 21
29.6826337752
  0
LWPOLYLINE
  5
53A
100
AcDbEntity
  8
RACCORDO
100
AcDbPolyline
 62
250
  6
CONTINUOUS
 90
3
 70
0
 10
154.3982249867
 20
29.6847479975
 10
154.3693567011
 20
29.6847418399
 10
154.039690161
 20
29.683902198
  0
LINE
  5
53B
100
AcDbEntity
  8
0
100
AcDbLine
 62
7
  6
CONTINUOUS
 10
137.0102935234
 20
28.6083689261
 11
149.0102935234
 21
28.6083689261
  0
LINE
  5
53C
100
AcDbEntity
  8
0
100
AcDbLine
 62
250
  6
CONTINUOUS
 10
137.0102935234
 20
29.3083689261
 11
149.0102935234
 21
29.3083689261
  0
LINE
  5
53D
100
AcDbEntity
  8
RACCORDO
100
AcDbLine
 62
7
  6
CONTINUOUS
 10
137.0102935234
 20
29.6083689261
 11
139.0770272886
 21
29.6083689261
  0
LINE
  5
53E
100
AcDbEntity
  8
RACCORDO
100
AcDbLine
 62
7
  6
CONTINUOUS
 10
146.9435597582
 20
29.6083689261
 11
149.0102935234
 21
29.6083689261
  0
LINE
  5
53F
100
AcDbEntity
  8
RACCORDO
100
AcDbLine
 62
7
  6
CONTINUOUS
 10
130.8602554472
 20
29.6607301329
 11
132.3603030426
 21
29.6607301329
  0
LINE
  5
540
100
AcDbEntity
  8
RACCORDO
100
AcDbLine
 62
7
  6
CONTINUOUS
 10
153.6602840041
 20
29.6607301329
 11
155.1603315996
 21
29.6607301329
  0
LINE
  5
541
100
AcDbEntity
  8
RACCORDO
100
AcDbLine
 62
250
  6
CONTINUOUS
 10
131.9555875266
 20
29.6840239368
 11
131.6223374354
 21
29.6847479985
  0
LINE
  5
542
100
AcDbEntity
  8
RACCORDO
100
AcDbLine
 62
250
  6
CONTINUOUS
 10
132.1397422368
 20
29.6828186958
 11
131.9555875266
 21
29.6840239368
  0
LINE
  5
543
100
AcDbEntity
  8
RACCORDO
100
AcDbLine
 62
250
  6
CONTINUOUS
 10
132.2290315576
 20
29.6818305187
 11
132.1397422368
 21
29.6828186958
  0
LINE
  5
544
100
AcDbEntity
  8
RACCORDO
100
AcDbLine
 62
250
  6
CONTINUOUS
 10
132.2711679254
 20
29.6811699644
 11
132.2290315576
 21
29.6818305187
  0
LINE
  5
545
100
AcDbEntity
  8
RACCORDO
100
AcDbLine
 62
250
  6
CONTINUOUS
 10
132.2941040121
 20
29.6807070787
 11
132.2711679254
 21
29.6811699644
  0
LWPOLYLINE
  5
546
100
AcDbEntity
  8
RACCORDO
100
AcDbPolyline
 62
250
  6
CONTINUOUS
 90
28
 70
0
 10
130.895926808
 20
29.6785454176
 10
130.8813942221
 20
29.6789704935
 10
130.8669108003
 20
29.680239856
 10
130.8525255406
 20
29.6823492109
 10
130.8382871084
 20
29.6852914221
 10
130.824243673
 20
29.6890565361
 10
130.8104427436
 20
29.6936318153
 10
130.7969310092
 20
29.6990017816
 10
130.7837541802
 20
29.705148268
 10
130.7709568344
 20
29.712050481
 10
130.7585822654
 20
29.7196850701
 10
130.7466723367
 20
29.7280262073
 10
130.7352673401
 20
29.7370456743
 10
130.7244058589
 20
29.746712958
 10
130.7141246377
 20
29.7569953538
 10
130.7044584583
 20
29.7678580759
 10
130.6954400216
 20
29.7792643755
 10
130.6870998372
 20
29.7911756648
 10
130.6794661203
 20
29.8035516475
 10
130.6725646957
 20
29.8163504554
 10
130.6664189114
 20
29.8295287897
 10
130.6610495586
 20
29.8430420678
 10
130.656474802
 20
29.8568445739
 10
130.6527101181
 20
29.8708896137
 10
130.649768243
 20
29.8851296725
 10
130.6476591291
 20
29.8995165758
 10
130.6463899115
 20
29.9140016522
 10
130.6459648842
 20
29.9285358983
  0
LWPOLYLINE
  5
547
100
AcDbEntity
  8
RACCORDO
100
AcDbPolyline
 62
250
  6
CONTINUOUS
 90
9
 70
0
 10
132.5925333235
 20
29.9284808135
 10
132.5914176691
 20
29.9287335274
 10
132.5887510487
 20
29.9289849407
 10
132.5845378995
 20
29.9292350534
 10
132.5787852726
 20
29.9294842533
 10
132.5715024467
 20
29.9297321526
 10
132.5627005661
 20
29.9299775879
 10
132.5523931318
 20
29.9302205583
 10
132.5273307144
 20
29.9306979467
  0
LINE
  5
548
100
AcDbEntity
  8
RACCORDO
100
AcDbLine
 62
250
  6
CONTINUOUS
 10
132.3603030426
 20
29.6607301329
 11
132.3425428427
 21
29.6784903328
  0
LINE
  5
549
100
AcDbEntity
  8
RACCORDO
100
AcDbLine
 62
250
  6
CONTINUOUS
 10
132.6102935234
 20
29.9107206136
 11
132.5925333235
 21
29.9284808135
  0
LINE
  5
54A
100
AcDbEntity
  8
DRAFT
100
AcDbLine
 62
7
  6
CONTINUOUS
 10
132.6635274169
 20
76.1607301329
 11
132.6102935234
 21
76.1074962394
  0
LINE
  5
54B
100
AcDbEntity
  8
RACCORDO
100
AcDbLine
 62
7
  6
CONTINUOUS
 10
132.6102935234
 20
76.1074962394
 11
132.5925333235
 21
76.0897360395
  0
LWPOLYLINE
  5
54C
100
AcDbEntity
  8
RACCORDO
100
AcDbPolyline
 62
7
  6
CONTINUOUS
 90
28
 70
0
 10
155.1133323371
 20
31.2374428306
 10
155.1325559441
 20
31.238172574
 10
155.1510107731
 20
31.2399677185
 10
155.1686952418
 20
31.2428282642
 10
155.1856082944
 20
31.2468500171
 10
155.2017511865
 20
31.2519371711
 10
155.2171272121
 20
31.2578023081
 10
155.2317342701
 20
31.2644164607
 10
155.2455807056
 20
31.2718085964
 10
155.2586846038
 20
31.2797781993
 10
155.2710487927
 20
31.2883079776
 10
155.2826773614
 20
31.2974152232
 10
155.2935871416
 20
31.3069512968
 10
155.3037815588
 20
31.3169056712
 10
155.3132639672
 20
31.3272888735
 10
155.3220477783
 20
31.3379838463
 10
155.3301364336
 20
31.3489842665
 10
155.3375328853
 20
31.3602964571
 10
155.3442468877
 20
31.3718223291
 10
155.3502818973
 20
31.3835584455
 10
155.3556407088
 20
31.3955082432
 10
155.3603299514
 20
31.4075839442
 10
155.3643531794
 20
31.4197835764
 10
155.3677137437
 20
31.4321091118
 10
155.3704167583
 20
31.4444786874
 10
155.3724663713
 20
31.4568650154
 10
155.3738665718
 20
31.4692953836
 10
155.3746221626
 20
31.4817697919
  0
LWPOLYLINE
  5
54D
100
AcDbEntity
  8
RACCORDO
100
AcDbPolyline
 62
250
  6
CONTINUOUS
 90
7
 70
0
 10
130.9195754846
 20
29.6800398586
 10
130.912797087
 20
29.6797948831
 10
130.9071337037
 20
29.6795473575
 10
130.9026122888
 20
29.6792985239
 10
130.8992418269
 20
29.6790487964
 10
130.8970133332
 20
29.678797761
 10
130.895926808
 20
29.6785454176
  0
LWPOLYLINE
  5
54E
100
AcDbEntity
  8
RACCORDO
100
AcDbPolyline
 62
250
  6
CONTINUOUS
 90
6
 70
0
 10
130.6686783505
 20
29.929785992
 10
130.6610625956
 20
29.9295385132
 10
130.6549747287
 20
29.929289648
 10
130.650424544
 20
29.9290397844
 10
130.6474196094
 20
29.9287885345
 10
130.6459648842
 20
29.9285358983
  0
LWPOLYLINE
  5
54F
100
AcDbEntity
  8
RACCORDO
100
AcDbPolyline
 62
250
  6
CONTINUOUS
 90
28
 70
0
 10
132.3425428427
 20
29.6784903328
 10
132.3570777827
 20
29.6789143424
 10
132.3715635467
 20
29.6801827231
 10
132.3859511244
 20
29.6822911835
 10
132.4001918376
 20
29.6852325903
 10
132.4142375047
 20
29.6889969918
 10
132.4280406044
 20
29.6935716517
 10
132.4415544358
 20
29.6989410926
 10
132.4547332767
 20
29.7050871479
 10
132.4675325384
 20
29.7119890234
 10
132.4799089164
 20
29.7196233678
 10
132.491820537
 20
29.7279643514
 10
132.5032270987
 20
29.7369837539
 10
132.514090009
 20
29.7466510595
 10
132.5243725147
 20
29.7569335603
 10
132.5340398264
 20
29.767796467
 10
132.5430592359
 20
29.7792030267
 10
132.5514002273
 20
29.7911146468
 10
132.5590345799
 20
29.8034910262
 10
132.5659364639
 20
29.8162902911
 10
132.5720825276
 20
29.8294691371
 10
132.5774519767
 20
29.8429829753
 10
132.5820266442
 20
29.8567860837
 10
132.5857910523
 20
29.8708317614
 10
132.5887324648
 20
29.8850724867
 10
132.5908409295
 20
29.8994600781
 10
132.5921093129
 20
29.9139458572
 10
132.5925333235
 20
29.9284808135
  0
LINE
  5
550
100
AcDbEntity
  8
RACCORDO
100
AcDbLine
 62
250
  6
CONTINUOUS
 10
130.9364881896
 20
29.6805221013
 11
130.9195754846
 21
29.6800398586
  0
LINE
  5
551
100
AcDbEntity
  8
RACCORDO
100
AcDbLine
 62
250
  6
CONTINUOUS
 10
130.6884444352
 20
29.9302732993
 11
130.6686783505
 21
29.929785992
  0
LINE
  5
552
100
AcDbEntity
  8
RACCORDO
100
AcDbLine
 62
250
  6
CONTINUOUS
 10
130.9577362007
 20
29.6809906564
 11
130.9364881896
 21
29.6805221013
  0
LINE
  5
553
100
AcDbEntity
  8
RACCORDO
100
AcDbLine
 62
250
  6
CONTINUOUS
 10
153.4799900466
 20
29.9304610584
 11
153.4578862976
 21
29.9299775821
  0
LINE
  5
554
100
AcDbEntity
  8
RACCORDO
100
AcDbLine
 62
250
  6
CONTINUOUS
 10
130.9974839353
 20
29.6816623823
 11
130.9577362007
 21
29.6809906564
  0
LINE
  5
555
100
AcDbEntity
  8
RACCORDO
100
AcDbLine
 62
250
  6
CONTINUOUS
 10
130.7291755601
 20
29.9309816426
 11
130.6884444352
 21
29.9302732993
  0
LINE
  5
556
100
AcDbEntity
  8
RACCORDO
100
AcDbLine
 62
250
  6
CONTINUOUS
 10
153.5241091783
 20
29.9311607836
 11
153.4799900466
 21
29.9304610584
  0
LWPOLYLINE
  5
557
100
AcDbEntity
  8
RACCORDO
100
AcDbPolyline
 62
7
  6
CONTINUOUS
 90
25
 70
0
 10
138.7102935234
 20
29.7499594663
 10
138.6971208972
 20
29.7498224472
 10
138.6841148757
 20
29.7494266022
 10
138.671275459
 20
29.7487719313
 10
138.6585492462
 20
29.7478534286
 10
138.6459896381
 20
29.7466761
 10
138.6337568369
 20
29.7452549627
 10
138.6218550289
 20
29.7435868934
 10
138.6102800278
 20
29.7416750155
 10
138.5991794768
 20
29.7395437155
 10
138.5885594534
 20
29.7371901827
 10
138.5784138801
 20
29.7346172278
 10
138.5688721671
 20
29.7318576698
 10
138.5599420499
 20
29.7289091184
 10
138.5516157931
 20
29.7257739638
 10
138.5439996009
 20
29.7224921961
 10
138.5371025692
 20
29.7190619372
 10
138.5309156023
 20
29.7154850651
 10
138.5255176169
 20
29.7118072042
 10
138.5209187198
 20
29.7080270607
 10
138.5171088043
 20
29.7041459284
 10
138.5141364673
 20
29.7002133124
 10
138.5120179076
 20
29.6962457144
 10
138.5107369263
 20
29.6922266327
 10
138.5102935234
 20
29.6881560674
  0
LINE
  5
558
100
AcDbEntity
  8
RACCORDO
100
AcDbLine
 62
250
  6
CONTINUOUS
 10
131.0832153005
 20
29.6826747537
 11
130.9974839353
 21
29.6816623823
  0
LINE
  5
559
100
AcDbEntity
  8
RACCORDO
100
AcDbLine
 62
250
  6
CONTINUOUS
 10
130.8250497284
 20
29.9320760586
 11
130.7291755601
 21
29.9309816426
  0
LINE
  5
55A
100
AcDbEntity
  8
RACCORDO
100
AcDbLine
 62
250
  6
CONTINUOUS
 10
153.6252032232
 20
29.9322349038
 11
153.5241091783
 21
29.9311607836
  0
LINE
  5
55B
100
AcDbEntity
  8
RACCORDO
100
AcDbLine
 62
250
  6
CONTINUOUS
 10
131.2629705492
 20
29.6839295349
 11
131.0832153005
 21
29.6826747537
  0
LINE
  5
55C
100
AcDbEntity
  8
RACCORDO
100
AcDbLine
 62
250
  6
CONTINUOUS
 10
131.0420504735
 20
29.9335092062
 11
130.8250497284
 21
29.9320760586
  0
LINE
  5
55D
100
AcDbEntity
  8
RACCORDO
100
AcDbLine
 62
250
  6
CONTINUOUS
 10
153.8489939731
 20
29.9336234877
 11
153.6252032232
 21
29.9322349038
  0
LINE
  5
55E
100
AcDbEntity
  8
RACCORDO
100
AcDbLine
 62
250
  6
CONTINUOUS
 10
131.4302601071
 20
29.9346184285
 11
131.0420504735
 21
29.9335092062
  0
LINE
  5
55F
100
AcDbEntity
  8
RACCORDO
100
AcDbLine
 62
250
  6
CONTINUOUS
 10
154.2423527744
 20
29.9346537013
 11
153.8489939731
 21
29.9336234877
  0
LWPOLYLINE
  5
560
100
AcDbEntity
  8
RACCORDO
100
AcDbPolyline
 62
250
  6
CONTINUOUS
 90
3
 70
0
 10
131.6223374354
 20
29.6847479985
 10
131.593464092
 20
29.6847440395
 10
131.2629705492
 20
29.6839295349
  0
LINE
  5
561
100
AcDbEntity
  8
RACCORDO
100
AcDbLine
 62
7
  6
CONTINUOUS
 10
147.3102935234
 20
29.7499594663
 11
146.7523751383
 21
29.7499594663
  0
LINE
  5
562
100
AcDbEntity
  8
RACCORDO
100
AcDbLine
 62
7
  6
CONTINUOUS
 10
139.2682119085
 20
29.7499594663
 11
138.7102935234
 21
29.7499594663
  0
LINE
  5
563
100
AcDbEntity
  8
RACCORDO
100
AcDbLine
 62
7
  6
CONTINUOUS
 10
147.3102935234
 20
30.1303820728
 11
146.7146232908
 21
30.1303820728
  0
LINE
  5
564
100
AcDbEntity
  8
RACCORDO
100
AcDbLine
 62
7
  6
CONTINUOUS
 10
139.3059637559
 20
30.1303820728
 11
138.7102935234
 21
30.1303820728
  0
LINE
  5
565
100
AcDbEntity
  8
RACCORDO
100
AcDbLine
 62
7
  6
CONTINUOUS
 10
135.0102935234
 20
30.4107301329
 11
136.8102935234
 21
30.4107301329
  0
LINE
  5
566
100
AcDbEntity
  8
DRAFT
100
AcDbLine
 62
7
  6
CONTINUOUS
 10
136.8102935234
 20
30.4107301329
 11
137.0102935234
 21
30.4107301329
  0
LINE
  5
567
100
AcDbEntity
  8
DRAFT
100
AcDbLine
 62
7
  6
CONTINUOUS
 10
149.0102935234
 20
30.4107301329
 11
149.2102935234
 21
30.4107301329
  0
LINE
  5
568
100
AcDbEntity
  8
RACCORDO
100
AcDbLine
 62
7
  6
CONTINUOUS
 10
149.2102935234
 20
30.4107301329
 11
151.0102935234
 21
30.4107301329
  0
LINE
  5
569
100
AcDbEntity
  8
RACCORDO
100
AcDbLine
 62
250
  6
CONTINUOUS
 10
149.2102935234
 20
30.9624678908
 11
149.0102935234
 21
30.9624678908
  0
LINE
  5
56A
100
AcDbEntity
  8
RACCORDO
100
AcDbLine
 62
250
  6
CONTINUOUS
 10
137.0102935234
 20
30.9624678908
 11
136.8102935234
 21
30.9624678908
  0
LINE
  5
56B
100
AcDbEntity
  8
RACCORDO
100
AcDbLine
 62
7
  6
CONTINUOUS
 10
146.9817972744
 20
31.1576200776
 11
146.9602935234
 21
31.1576200776
  0
LINE
  5
56C
100
AcDbEntity
  8
RACCORDO
100
AcDbLine
 62
7
  6
CONTINUOUS
 10
139.0387897723
 20
31.1576200776
 11
139.0602935234
 21
31.1576200776
  0
LINE
  5
56D
100
AcDbEntity
  8
DRAFT
100
AcDbLine
 62
7
  6
CONTINUOUS
 10
132.6635274169
 20
31.1607301329
 11
135.0102935234
 21
31.1607301329
  0
LINE
  5
56E
100
AcDbEntity
  8
DRAFT
100
AcDbLine
 62
7
  6
CONTINUOUS
 10
151.0102935234
 20
31.1607301329
 11
153.3570596298
 21
31.1607301329
  0
LINE
  5
56F
100
AcDbEntity
  8
RACCORDO
100
AcDbLine
 62
250
  6
CONTINUOUS
 10
149.2120236659
 20
31.1624602754
 11
146.9817972744
 21
31.1624602754
  0
LINE
  5
570
100
AcDbEntity
  8
RACCORDO
100
AcDbLine
 62
250
  6
CONTINUOUS
 10
139.0387897723
 20
31.1624602754
 11
136.8085633809
 21
31.1624602754
  0
LINE
  5
571
100
AcDbEntity
  8
DRAFT
100
AcDbLine
 62
7
  6
CONTINUOUS
 10
139.1094926325
 20
31.2331631355
 11
146.9110944142
 21
31.2331631355
  0
LINE
  5
572
100
AcDbEntity
  8
RACCORDO
100
AcDbLine
 62
250
  6
CONTINUOUS
 10
155.0337062206
 20
31.2772528567
 11
130.9868808261
 21
31.2772528567
  0
LINE
  5
573
100
AcDbEntity
  8
RACCORDO
100
AcDbLine
 62
250
  6
CONTINUOUS
 10
130.7369189023
 20
31.5272433375
 11
155.2836681444
 21
31.5272433375
  0
LINE
  5
574
100
AcDbEntity
  8
RACCORDO
100
AcDbLine
 62
250
  6
CONTINUOUS
 10
131.9289763491
 20
29.9344102377
 11
131.4302601071
 21
29.9346184285
  0
LINE
  5
575
100
AcDbEntity
  8
RACCORDO
100
AcDbLine
 62
250
  6
CONTINUOUS
 10
154.739824432
 20
29.9343446853
 11
154.2423527744
 21
29.9346537013
  0
LINE
  5
576
100
AcDbEntity
  8
RACCORDO
100
AcDbLine
 62
250
  6
CONTINUOUS
 10
154.732186375
 20
29.6840493417
 11
154.3982249867
 21
29.6847479975
  0
LINE
  5
577
100
AcDbEntity
  8
RACCORDO
100
AcDbLine
 62
250
  6
CONTINUOUS
 10
132.3196051725
 20
29.9328093599
 11
131.9289763491
 21
29.9344102377
  0
LINE
  5
578
100
AcDbEntity
  8
RACCORDO
100
AcDbLine
 62
250
  6
CONTINUOUS
 10
155.1225598983
 20
29.9326655657
 11
154.739824432
 21
29.9343446853
  0
LINE
  5
579
100
AcDbEntity
  8
RACCORDO
100
AcDbLine
 62
250
  6
CONTINUOUS
 10
154.9175392109
 20
29.682858171
 11
154.732186375
 21
29.6840493417
  0
LWPOLYLINE
  5
57A
100
AcDbEntity
  8
RACCORDO
100
AcDbPolyline
 62
7
  6
CONTINUOUS
 90
25
 70
0
 10
147.3102935234
 20
30.1303820728
 10
147.3234661495
 20
30.1302450538
 10
147.336472171
 20
30.1298492088
 10
147.3493115878
 20
30.1291945378
 10
147.3620378006
 20
30.1282760351
 10
147.3745974086
 20
30.1270987065
 10
147.3868302098
 20
30.1256775692
 10
147.3987320178
 20
30.1240095
 10
147.4103070189
 20
30.122097622
 10
147.42140757
 20
30.119966322
 10
147.4320275934
 20
30.1176127892
 10
147.4421731667
 20
30.1150398343
 10
147.4517148796
 20
30.1122802764
 10
147.4606449968
 20
30.1093317249
 10
147.4689712537
 20
30.1061965703
 10
147.4765874458
 20
30.1029148026
 10
147.4834844775
 20
30.0994845437
 10
147.4896714445
 20
30.0959076717
 10
147.4950694299
 20
30.0922298107
 10
147.4996683269
 20
30.0884496673
 10
147.5034782424
 20
30.0845685349
 10
147.5064505795
 20
30.0806359189
 10
147.5085691392
 20
30.0766683209
 10
147.5098501205
 20
30.0726492393
 10
147.5102935234
 20
30.0685786739
  0
LWPOLYLINE
  5
57B
100
AcDbEntity
  8
RACCORDO
100
AcDbPolyline
 62
7
  6
CONTINUOUS
 90
25
 70
0
 10
146.9602935234
 20
31.1576200776
 10
146.9471208972
 20
31.1577570966
 10
146.9341148757
 20
31.1581529416
 10
146.921275459
 20
31.1588076126
 10
146.9085492462
 20
31.1597261153
 10
146.8959896381
 20
31.1609034439
 10
146.8837568369
 20
31.1623245812
 10
146.8718550289
 20
31.1639926505
 10
146.8602800278
 20
31.1659045284
 10
146.8491794768
 20
31.1680358284
 10
146.8385594534
 20
31.1703893612
 10
146.8284138801
 20
31.1729623161
 10
146.8188721671
 20
31.175721874
 10
146.8099420499
 20
31.1786704255
 10
146.8016157931
 20
31.1818055801
 10
146.7939996009
 20
31.1850873478
 10
146.7871025692
 20
31.1885176067
 10
146.7809156023
 20
31.1920944787
 10
146.7755176169
 20
31.1957723397
 10
146.7709187198
 20
31.1995524831
 10
146.7671088043
 20
31.2034336155
 10
146.7641364673
 20
31.2073662315
 10
146.7620179076
 20
31.2113338295
 10
146.7607369263
 20
31.2153529111
 10
146.7602935234
 20
31.2194234765
  0
LINE
  5
57C
100
AcDbEntity
  8
RACCORDO
100
AcDbLine
 62
250
  6
CONTINUOUS
 10
132.4600293622
 20
29.9316058415
 11
132.3196051725
 21
29.9328093599
  0
LINE
  5
57D
100
AcDbEntity
  8
RACCORDO
100
AcDbLine
 62
250
  6
CONTINUOUS
 10
155.2571236665
 20
29.9314342295
 11
155.1225598983
 21
29.9326655657
  0
LINE
  5
57E
100
AcDbEntity
  8
RACCORDO
100
AcDbLine
 62
250
  6
CONTINUOUS
 10
155.0078132425
 20
29.6818768315
 11
154.9175392109
 21
29.682858171
  0
LINE
  5
57F
100
AcDbEntity
  8
RACCORDO
100
AcDbLine
 62
250
  6
CONTINUOUS
 10
155.3064387771
 20
29.9307492568
 11
155.2571236665
 21
29.9314342295
  0
LINE
  5
580
100
AcDbEntity
  8
RACCORDO
100
AcDbLine
 62
250
  6
CONTINUOUS
 10
132.5273307144
 20
29.9306979467
 11
132.4600293622
 21
29.9316058415
  0
LINE
  5
581
100
AcDbEntity
  8
RACCORDO
100
AcDbLine
 62
250
  6
CONTINUOUS
 10
155.050608523
 20
29.6812195114
 11
155.0078132425
 21
29.6818768315
  0
LINE
  5
582
100
AcDbEntity
  8
RACCORDO
100
AcDbLine
 62
250
  6
CONTINUOUS
 10
155.332142396
 20
29.9302733051
 11
155.3064387771
 21
29.9307492568
  0
LINE
  5
583
100
AcDbEntity
  8
RACCORDO
100
AcDbLine
 62
250
  6
CONTINUOUS
 10
155.0740065987
 20
29.6807583901
 11
155.050608523
 21
29.6812195114
  0
LWPOLYLINE
  5
584
100
AcDbEntity
  8
RACCORDO
100
AcDbPolyline
 62
250
  6
CONTINUOUS
 90
28
 70
0
 10
153.678044204
 20
29.6784903328
 10
153.6635092541
 20
29.678914343
 10
153.6490234812
 20
29.6801827253
 10
153.6346358956
 20
29.6822911882
 10
153.6203951758
 20
29.6852325982
 10
153.6063495031
 20
29.6889970034
 10
153.5925463991
 20
29.6935716675
 10
153.5790325646
 20
29.6989411127
 10
153.5658537216
 20
29.7050871722
 10
153.5530544589
 20
29.7119890519
 10
153.540678081
 20
29.7196234002
 10
153.5287664615
 20
29.7279643874
 10
153.5173599016
 20
29.7369837929
 10
153.5064969939
 20
29.7466511008
 10
153.4962144913
 20
29.7569336034
 10
153.4865471834
 20
29.7677965111
 10
153.4775277779
 20
29.779203071
 10
153.4691867907
 20
29.7911146905
 10
153.4615524424
 20
29.8034910684
 10
153.4546505627
 20
29.8162903311
 10
153.4485045031
 20
29.8294691741
 10
153.443135058
 20
29.8429830086
 10
153.4385603939
 20
29.8567861126
 10
153.4347959887
 20
29.8708317853
 10
153.4318545787
 20
29.8850725051
 10
153.4297461158
 20
29.8994600907
 10
153.4284777335
 20
29.9139458637
 10
153.4280537233
 20
29.9284808135
  0
LINE
  5
585
100
AcDbEntity
  8
DRAFT
100
AcDbLine
 62
7
  6
CONTINUOUS
 10
132.6635274169
 20
31.1607301329
 11
132.6102935234
 21
31.2139640264
  0
LINE
  5
586
100
AcDbEntity
  8
RACCORDO
100
AcDbLine
 62
7
  6
CONTINUOUS
 10
132.6102935234
 20
31.2139640264
 11
132.5925333235
 21
31.2317242263
  0
LINE
  5
587
100
AcDbEntity
  8
RACCORDO
100
AcDbLine
 62
7
  6
CONTINUOUS
 10
136.7292368719
 20
76.8296734814
 11
136.8102935234
 21
76.9107301329
  0
LINE
  5
588
100
AcDbEntity
  8
RACCORDO
100
AcDbLine
 62
7
  6
CONTINUOUS
 10
136.7292368719
 20
76.0796734814
 11
136.8085633809
 21
76.1589999904
  0
LWPOLYLINE
  5
589
100
AcDbEntity
  8
ASSI
100
AcDbPolyline
 62
250
  6
CONTINUOUS
 90
13
 70
0
 10
130.81283632
 20
70.4139632208
 10
130.8160228028
 20
70.4154910005
 10
130.8241748078
 20
70.4169932083
 10
130.8371559356
 20
70.418444709
 10
130.8547489856
 20
70.4198212161
 10
130.8766595905
 20
70.4210996978
 10
130.9025211416
 20
70.4222587627
 10
130.9319009227
 20
70.423279017
 10
130.9643073506
 20
70.42414339
 10
130.9991982003
 20
70.4248374193
 10
131.0359896773
 20
70.4253494923
 10
131.0740661856
 20
70.425671041
 10
131.1127906282
 20
70.4257966852
  0
LWPOLYLINE
  5
58A
100
AcDbEntity
  8
RACCORDO
100
AcDbPolyline
 62
250
  6
CONTINUOUS
 90
7
 70
0
 10
155.3746221626
 20
29.9285358983
 10
155.3731674092
 20
29.9287885388
 10
155.3701624216
 20
29.9290397917
 10
155.3656121768
 20
29.929289657
 10
155.3595242711
 20
29.9295385218
 10
155.3519085101
 20
29.929785999
 10
155.332142396
 20
29.9302733051
  0
LWPOLYLINE
  5
58B
100
AcDbEntity
  8
RACCORDO
100
AcDbPolyline
 62
250
  6
CONTINUOUS
 90
9
 70
0
 10
155.1246602388
 20
29.6785454176
 10
155.1235729021
 20
29.6787978266
 10
155.1213436311
 20
29.6790489113
 10
155.1179724256
 20
29.6792986716
 10
155.1134503217
 20
29.6795475161
 10
155.1077862833
 20
29.6797950363
 10
155.1010072026
 20
29.6800400063
 10
155.0931076172
 20
29.6802824027
 10
155.0740065987
 20
29.6807583901
  0
LWPOLYLINE
  5
58C
100
AcDbEntity
  8
ASSI
100
AcDbPolyline
 62
250
  6
CONTINUOUS
 90
13
 70
0
 10
130.8128363197
 20
36.907497045
 10
130.8160212132
 20
36.9059691974
 10
130.8241719437
 20
36.9044669152
 10
130.8371521253
 20
36.9030153362
 10
130.8547445607
 20
36.9016387496
 10
130.8766548762
 20
36.9003601898
 10
130.9025164468
 20
36.8992010509
 10
130.9318965313
 20
36.8981807287
 10
130.9643035135
 20
36.8973162963
 10
130.9991951277
 20
36.896622218
 10
131.0359875334
 20
36.8961101078
 10
131.0740650839
 20
36.8957885349
 10
131.1127906282
 20
36.8956628801
  0
LINE
  5
58D
100
AcDbEntity
  8
RACCORDO
100
AcDbLine
 62
7
  6
CONTINUOUS
 10
136.7292368719
 20
31.2417867844
 11
136.8085633809
 21
31.1624602754
  0
LINE
  5
58E
100
AcDbEntity
  8
RACCORDO
100
AcDbLine
 62
7
  6
CONTINUOUS
 10
130.6364761208
 20
34.8607301329
 11
155.384110926
 21
34.8607301329
  0
LINE
  5
58F
100
AcDbEntity
  8
ASSI
100
AcDbLine
 62
7
  6
CONTINUOUS
 10
131.0452493516
 20
35.0607301329
 11
154.9753376951
 21
35.0607301329
  0
LINE
  5
590
100
AcDbEntity
  8
ASSI
100
AcDbLine
 62
250
  6
CONTINUOUS
 10
130.7102935234
 20
35.3607301329
 11
130.7452036532
 21
35.3607301329
  0
LINE
  5
591
100
AcDbEntity
  8
ASSI
100
AcDbLine
 62
7
  6
CONTINUOUS
 10
131.0443400396
 20
35.3607301329
 11
154.9762470072
 21
35.3607301329
  0
LINE
  5
592
100
AcDbEntity
  8
ASSI
100
AcDbLine
 62
250
  6
CONTINUOUS
 10
155.2753833935
 20
35.3607301329
 11
155.3102935234
 21
35.3607301329
  0
LINE
  5
593
100
AcDbEntity
  8
ASSI
100
AcDbLine
 62
250
  6
CONTINUOUS
 10
154.9178837256
 20
35.9503023439
 11
131.1027033211
 21
35.9503023439
  0
LINE
  5
594
100
AcDbEntity
  8
ASSI
100
AcDbLine
 62
250
  6
CONTINUOUS
 10
154.9077964185
 20
36.8956628799
 11
131.1127906282
 21
36.8956628799
  0
LINE
  5
595
100
AcDbEntity
  8
RACCORDO
100
AcDbLine
 62
250
  6
CONTINUOUS
 10
155.1246602388
 20
77.6429148482
 11
155.1602935219
 21
77.6607301329
  0
LINE
  5
596
100
AcDbEntity
  8
RACCORDO
100
AcDbLine
 62
250
  6
CONTINUOUS
 10
155.3746221626
 20
77.3929243674
 11
155.4102935234
 21
77.4107586895
  0
LINE
  5
597
100
AcDbEntity
  8
RACCORDO
100
AcDbLine
 62
250
  6
CONTINUOUS
 10
155.1602935219
 20
29.6607301329
 11
155.1246602388
 21
29.6785454176
  0
LINE
  5
598
100
AcDbEntity
  8
RACCORDO
100
AcDbLine
 62
250
  6
CONTINUOUS
 10
155.4102935234
 20
29.9107015763
 11
155.3746221626
 21
29.9285358983
  0
LWPOLYLINE
  5
599
100
AcDbEntity
  8
ASSI
100
AcDbPolyline
 62
250
  6
CONTINUOUS
 90
13
 70
0
 10
130.8027490126
 20
36.2457446698
 10
130.805423503
 20
36.2072570305
 10
130.8131646299
 20
36.1694250494
 10
130.8258405745
 20
36.1328935317
 10
130.8432354071
 20
36.0982851396
 10
130.8650527577
 20
36.0661897883
 10
130.8909208587
 20
36.0371545878
 10
130.9203989162
 20
36.0116744781
 10
130.9529845416
 20
35.9901838692
 10
130.9881222759
 20
35.9730492015
 10
131.025213189
 20
35.9605626081
 10
131.0636251143
 20
35.9529369723
 10
131.1027033211
 20
35.9503023432
  0
LWPOLYLINE
  5
59A
100
AcDbEntity
  8
RACCORDO
100
AcDbPolyline
 62
7
  6
CONTINUOUS
 90
28
 70
0
 10
130.6459648842
 20
31.4817697919
 10
130.646720475
 20
31.4692953836
 10
130.6481206755
 20
31.4568650154
 10
130.6501702885
 20
31.4444786874
 10
130.6528733031
 20
31.4321091118
 10
130.6562338673
 20
31.4197835764
 10
130.6602570954
 20
31.4075839442
 10
130.6649463379
 20
31.3955082432
 10
130.6703051494
 20
31.3835584455
 10
130.6763401591
 20
31.3718223291
 10
130.6830541614
 20
31.3602964571
 10
130.6904506131
 20
31.3489842665
 10
130.6985392684
 20
31.3379838463
 10
130.7073230795
 20
31.3272888735
 10
130.7168054879
 20
31.3169056712
 10
130.7269999052
 20
31.3069512968
 10
130.7379096853
 20
31.2974152232
 10
130.7495382541
 20
31.2883079776
 10
130.761902443
 20
31.2797781993
 10
130.7750063412
 20
31.2718085964
 10
130.7888527766
 20
31.2644164607
 10
130.8034598347
 20
31.2578023081
 10
130.8188358602
 20
31.2519371711
 10
130.8349787524
 20
31.2468500171
 10
130.8518918049
 20
31.2428282642
 10
130.8695762736
 20
31.2399677185
 10
130.8880311026
 20
31.238172574
 10
130.9072547097
 20
31.2374428306
  0
LWPOLYLINE
  5
59B
100
AcDbEntity
  8
RACCORDO
100
AcDbPolyline
 62
250
  6
CONTINUOUS
 90
31
 70
0
 10
130.7369189023
 20
31.5272433375
 10
130.7372635452
 20
31.5141582034
 10
130.7382925461
 20
31.5011089201
 10
130.7400030878
 20
31.488131264
 10
130.7423904864
 20
31.475260805
 10
130.7454481992
 20
31.462532841
 10
130.7491678362
 20
31.4499823004
 10
130.7535391955
 20
31.4376435987
 10
130.7585502928
 20
31.425550557
 10
130.7641873826
 20
31.4137363406
 10
130.7704350054
 20
31.4022333406
 10
130.7772760307
 20
31.39107309
 10
130.784691698
 20
31.3802861871
 10
130.7926616833
 20
31.3699021907
 10
130.8011641241
 20
31.3599495806
 10
130.8101756698
 20
31.3504556775
 10
130.8196715655
 20
31.3414465375
 10
130.829625806
 20
31.3329468098
 10
130.8400111839
 20
31.324979722
 10
130.8507993779
 20
31.3175670242
 10
130.861960678
 20
31.3107291535
 10
130.8734641173
 20
31.3044850494
 10
130.8852778861
 20
31.298851886
 10
130.8973698077
 20
31.2938449165
 10
130.9097070856
 20
31.2894776891
 10
130.9222586844
 20
31.2857614309
 10
130.9349874978
 20
31.2827073649
 10
130.9478504765
 20
31.280325156
 10
130.9608094233
 20
31.2786203448
 10
130.9738314267
 20
31.2775957412
 10
130.9868808261
 20
31.2772528567
  0
LWPOLYLINE
  5
59C
100
AcDbEntity
  8
RACCORDO
100
AcDbPolyline
 62
250
  6
CONTINUOUS
 90
31
 70
0
 10
130.7369189023
 20
75.7942169283
 10
130.7372635452
 20
75.8073020623
 10
130.7382925461
 20
75.8203513457
 10
130.7400030878
 20
75.8333290017
 10
130.7423904864
 20
75.8461994608
 10
130.7454481992
 20
75.8589274248
 10
130.7491678362
 20
75.8714779654
 10
130.7535391955
 20
75.8838166671
 10
130.7585502928
 20
75.8959097087
 10
130.7641873826
 20
75.9077239252
 10
130.7704350054
 20
75.9192269251
 10
130.7772760307
 20
75.9303871758
 10
130.784691698
 20
75.9411740786
 10
130.7926616833
 20
75.9515580751
 10
130.8011641241
 20
75.9615106851
 10
130.8101756698
 20
75.9710045883
 10
130.8196715655
 20
75.9800137283
 10
130.829625806
 20
75.9885134559
 10
130.8400111839
 20
75.9964805438
 10
130.8507993779
 20
76.0038932416
 10
130.861960678
 20
76.0107311122
 10
130.8734641173
 20
76.0169752163
 10
130.8852778861
 20
76.0226083797
 10
130.8973698077
 20
76.0276153493
 10
130.9097070856
 20
76.0319825766
 10
130.9222586844
 20
76.0356988349
 10
130.9349874978
 20
76.0387529009
 10
130.9478504765
 20
76.0411351098
 10
130.9608094233
 20
76.042839921
 10
130.9738314267
 20
76.0438645245
 10
130.9868808261
 20
76.044207409
  0
LWPOLYLINE
  5
59D
100
AcDbEntity
  8
ASSI
100
AcDbPolyline
 62
250
  6
CONTINUOUS
 90
13
 70
0
 10
130.8027490126
 20
71.0757155959
 10
130.8054237108
 20
71.1142047578
 10
130.8131653651
 20
71.1520378946
 10
130.8258420236
 20
71.1885701627
 10
130.8432376201
 20
71.2231788911
 10
130.8650556568
 20
71.2552741944
 10
130.8909242583
 20
71.2843090271
 10
130.9204025094
 20
71.3097885075
 10
130.9529879708
 20
71.3312783528
 10
130.9881252425
 20
71.3484122811
 10
131.0252154302
 20
71.3608982546
 10
131.0636263537
 20
71.3685234573
 10
131.1027033211
 20
71.3711579218
  0
LINE
  5
59E
100
AcDbEntity
  8
RACCORDO
100
AcDbLine
 62
7
  6
CONTINUOUS
 10
146.9817972744
 20
76.1589999904
 11
146.9110944142
 21
76.0882971302
  0
LINE
  5
59F
100
AcDbEntity
  8
RACCORDO
100
AcDbLine
 62
250
  6
CONTINUOUS
 10
155.1133323371
 20
76.0840174352
 11
155.0337062206
 21
76.044207409
  0
LINE
  5
5A0
100
AcDbEntity
  8
RACCORDO
100
AcDbLine
 62
250
  6
CONTINUOUS
 10
155.3746221626
 20
75.8396904739
 11
155.2836681444
 21
75.7942169283
  0
LINE
  5
5A1
100
AcDbEntity
  8
RACCORDO
100
AcDbLine
 62
250
  6
CONTINUOUS
 10
155.1133323371
 20
31.2374428306
 11
155.0337062206
 21
31.2772528567
  0
LINE
  5
5A2
100
AcDbEntity
  8
RACCORDO
100
AcDbLine
 62
250
  6
CONTINUOUS
 10
155.2836681444
 20
31.5272433375
 11
155.3746221626
 21
31.4817697919
  0
LINE
  5
5A3
100
AcDbEntity
  8
RACCORDO
100
AcDbLine
 62
7
  6
CONTINUOUS
 10
146.9817972744
 20
31.1624602754
 11
146.9110944142
 21
31.2331631355
  0
LWPOLYLINE
  5
5A4
100
AcDbEntity
  8
ASSI
100
AcDbPolyline
 62
250
  6
CONTINUOUS
 90
6
 70
0
 10
130.8070138214
 20
70.9830764348
 10
130.806207677
 20
71.0090266224
 10
130.8053766694
 20
71.0313045802
 10
130.804525647
 20
71.0497804818
 10
130.8036497614
 20
71.0645841538
 10
130.8027490126
 20
71.0757155959
  0
LINE
  5
5A5
100
AcDbEntity
  8
ASSI
100
AcDbLine
 62
250
  6
CONTINUOUS
 10
130.8085074317
 20
70.9212442365
 11
130.8070138214
 21
70.9830764348
  0
LWPOLYLINE
  5
5A6
100
AcDbEntity
  8
ASSI
100
AcDbPolyline
 62
250
  6
CONTINUOUS
 90
6
 70
0
 10
131.1069764798
 20
71.2385069937
 10
131.1061723757
 20
71.2754455841
 10
131.1053417184
 20
71.307338265
 10
131.1044888059
 20
71.3340196255
 10
131.1036093402
 20
71.3553310202
 10
131.1027033211
 20
71.3711579218
  0
LINE
  5
5A7
100
AcDbEntity
  8
ASSI
100
AcDbLine
 62
250
  6
CONTINUOUS
 10
130.809829772
 20
70.8468376563
 11
130.8085074317
 21
70.9212442365
  0
LINE
  5
5A8
100
AcDbEntity
  8
ASSI
100
AcDbLine
 62
250
  6
CONTINUOUS
 10
131.1084663923
 20
71.1501183158
 11
131.1069764798
 21
71.2385069937
  0
LINE
  5
5A9
100
AcDbEntity
  8
ASSI
100
AcDbLine
 62
250
  6
CONTINUOUS
 10
130.8109393529
 20
70.7617192258
 11
130.809829772
 21
70.8468376563
  0
LINE
  5
5AA
100
AcDbEntity
  8
ASSI
100
AcDbLine
 62
250
  6
CONTINUOUS
 10
131.1097855208
 20
71.0440460139
 11
131.1084663923
 21
71.1501183158
  0
LINE
  5
5AB
100
AcDbEntity
  8
ASSI
100
AcDbLine
 62
250
  6
CONTINUOUS
 10
130.8118081443
 20
70.668582961
 11
130.8109393529
 21
70.7617192258
  0
LINE
  5
5AC
100
AcDbEntity
  8
ASSI
100
AcDbLine
 62
250
  6
CONTINUOUS
 10
131.1108922107
 20
70.9229540385
 11
131.1097855208
 21
71.0440460139
  0
LINE
  5
5AD
100
AcDbEntity
  8
ASSI
100
AcDbLine
 62
250
  6
CONTINUOUS
 10
131.1117594664
 20
70.790023357
 11
131.1108922107
 21
70.9229540385
  0
LINE
  5
5AE
100
AcDbEntity
  8
ASSI
100
AcDbLine
 62
250
  6
CONTINUOUS
 10
130.8124218747
 20
70.5691504358
 11
130.8118081443
 21
70.668582961
  0
LINE
  5
5AF
100
AcDbEntity
  8
ASSI
100
AcDbLine
 62
250
  6
CONTINUOUS
 10
131.1123732839
 20
70.6483760781
 11
131.1117594664
 21
70.790023357
  0
LINE
  5
5B0
100
AcDbEntity
  8
ASSI
100
AcDbLine
 62
250
  6
CONTINUOUS
 10
130.8127650345
 20
70.4666132772
 11
130.8124218747
 21
70.5691504358
  0
LINE
  5
5B1
100
AcDbEntity
  8
ASSI
100
AcDbLine
 62
250
  6
CONTINUOUS
 10
131.1127180056
 20
70.5007687782
 11
131.1123732839
 21
70.6483760781
  0
LINE
  5
5B2
100
AcDbEntity
  8
RACCORDO
100
AcDbLine
 62
7
  6
CONTINUOUS
 10
130.6102935234
 20
77.4107682091
 11
130.6102935234
 21
29.9106920567
  0
LINE
  5
5B3
100
AcDbEntity
  8
DRAFT
100
AcDbLine
 62
7
  6
CONTINUOUS
 10
130.6364761208
 20
72.4607301329
 11
130.6364761208
 21
34.8607301329
  0
LINE
  5
5B4
100
AcDbEntity
  8
RACCORDO
100
AcDbLine
 62
250
  6
CONTINUOUS
 10
130.6459648842
 20
31.4817697919
 11
130.6459648842
 21
29.9285358983
  0
LINE
  5
5B5
100
AcDbEntity
  8
RACCORDO
100
AcDbLine
 62
250
  6
CONTINUOUS
 10
130.6459648842
 20
75.8396904739
 11
130.6459648842
 21
77.3929243674
  0
LINE
  5
5B6
100
AcDbEntity
  8
ASSI
100
AcDbLine
 62
7
  6
CONTINUOUS
 10
130.7102935234
 20
35.3607301329
 11
130.7102935234
 21
71.9607301329
  0
LINE
  5
5B7
100
AcDbEntity
  8
RACCORDO
100
AcDbLine
 62
250
  6
CONTINUOUS
 10
130.7369189023
 20
31.5272433375
 11
130.7369189023
 21
34.8607301329
  0
LINE
  5
5B8
100
AcDbEntity
  8
RACCORDO
100
AcDbLine
 62
250
  6
CONTINUOUS
 10
130.7369189023
 20
72.4607301329
 11
130.7369189023
 21
75.7942169283
  0
LINE
  5
5B9
100
AcDbEntity
  8
ASSI
100
AcDbLine
 62
7
  6
CONTINUOUS
 10
130.7452036532
 20
71.9607301329
 11
130.7452036532
 21
71.6570253484
  0
LINE
  5
5BA
100
AcDbEntity
  8
ASSI
100
AcDbLine
 62
7
  6
CONTINUOUS
 10
130.7452036532
 20
35.6644349174
 11
130.7452036532
 21
35.3607301329
  0
LINE
  5
5BB
100
AcDbEntity
  8
RACCORDO
100
AcDbLine
 62
250
  6
CONTINUOUS
 10
130.9868808261
 20
31.2772528567
 11
130.9868808261
 21
34.8607301329
  0
LINE
  5
5BC
100
AcDbEntity
  8
RACCORDO
100
AcDbLine
 62
250
  6
CONTINUOUS
 10
130.9868808261
 20
72.4607301329
 11
130.9868808261
 21
76.044207409
  0
LWPOLYLINE
  5
5BD
100
AcDbEntity
  8
ASSI
100
AcDbPolyline
 62
250
  6
CONTINUOUS
 90
9
 70
0
 10
130.8151157896
 20
40.6295692832
 10
130.8168253923
 20
44.3520751248
 10
130.8179651276
 20
48.0750145695
 10
130.818534996
 20
51.7986762725
 10
130.8185349971
 20
55.5227715788
 10
130.8179651301
 20
59.2464345233
 10
130.8168253947
 20
62.9693764509
 10
130.8151157912
 20
66.6918860167
 10
130.8127650345
 20
70.4666132772
  0
LWPOLYLINE
  5
5BE
100
AcDbEntity
  8
ASSI
100
AcDbPolyline
 62
250
  6
CONTINUOUS
 90
9
 70
0
 10
131.1150701001
 20
40.619896607
 10
131.116779704
 20
44.3451329015
 10
131.11791944
 20
48.071085356
 10
131.1184893079
 20
51.797467474
 10
131.1184893078
 20
55.5239927941
 10
131.1179194398
 20
59.2503749119
 10
131.1167797039
 20
62.9763273659
 10
131.1150701
 20
66.7015636597
 10
131.1127180056
 20
70.5007687782
  0
LINE
  5
5BF
100
AcDbEntity
  8
ASSI
100
AcDbLine
 62
250
  6
CONTINUOUS
 10
131.112579022
 20
36.7463946479
 11
131.1150701001
 21
40.619896607
  0
LINE
  5
5C0
100
AcDbEntity
  8
ASSI
100
AcDbLine
 62
250
  6
CONTINUOUS
 10
130.812627024
 20
36.8031564983
 11
130.8151157896
 21
40.6295692832
  0
LINE
  5
5C1
100
AcDbEntity
  8
ASSI
100
AcDbLine
 62
250
  6
CONTINUOUS
 10
131.1120994476
 20
36.6013082881
 11
131.112579022
 21
36.7463946479
  0
LINE
  5
5C2
100
AcDbEntity
  8
ASSI
100
AcDbLine
 62
250
  6
CONTINUOUS
 10
130.8121487126
 20
36.7021888742
 11
130.812627024
 21
36.8031564983
  0
LINE
  5
5C3
100
AcDbEntity
  8
ASSI
100
AcDbLine
 62
250
  6
CONTINUOUS
 10
131.1113567346
 20
36.4636144652
 11
131.1120994476
 21
36.6013082881
  0
LINE
  5
5C4
100
AcDbEntity
  8
ASSI
100
AcDbLine
 62
250
  6
CONTINUOUS
 10
130.8114061551
 20
36.6054720703
 11
130.8121487126
 21
36.7021888742
  0
LINE
  5
5C5
100
AcDbEntity
  8
ASSI
100
AcDbLine
 62
250
  6
CONTINUOUS
 10
131.1103639755
 20
36.3361138009
 11
131.1113567346
 21
36.4636144652
  0
LINE
  5
5C6
100
AcDbEntity
  8
ASSI
100
AcDbLine
 62
250
  6
CONTINUOUS
 10
131.1091509264
 20
36.2222213876
 11
131.1103639755
 21
36.3361138009
  0
LINE
  5
5C7
100
AcDbEntity
  8
ASSI
100
AcDbLine
 62
250
  6
CONTINUOUS
 10
130.8104122379
 20
36.5159611845
 11
130.8114061551
 21
36.6054720703
  0
LINE
  5
5C8
100
AcDbEntity
  8
ASSI
100
AcDbLine
 62
250
  6
CONTINUOUS
 10
130.8091964526
 20
36.4361899183
 11
130.8104122379
 21
36.5159611845
  0
LINE
  5
5C9
100
AcDbEntity
  8
ASSI
100
AcDbLine
 62
250
  6
CONTINUOUS
 10
130.8027490126
 20
71.0757155959
 11
130.7452036532
 21
71.6570253484
  0
LINE
  5
5CA
100
AcDbEntity
  8
ASSI
100
AcDbLine
 62
250
  6
CONTINUOUS
 10
131.1027033211
 20
71.3711579218
 11
131.0443400396
 21
71.9607301329
  0
LINE
  5
5CB
100
AcDbEntity
  8
RACCORDO
100
AcDbLine
 62
250
  6
CONTINUOUS
 10
132.5925333235
 20
31.2317242263
 11
132.5925333235
 21
29.9284808135
  0
LINE
  5
5CC
100
AcDbEntity
  8
RACCORDO
100
AcDbLine
 62
250
  6
CONTINUOUS
 10
132.5925333235
 20
76.0897360395
 11
132.5925333235
 21
77.3929794522
  0
LINE
  5
5CD
100
AcDbEntity
  8
RACCORDO
100
AcDbLine
 62
7
  6
CONTINUOUS
 10
132.6102935234
 20
29.9107206136
 11
132.6102935234
 21
31.2139640264
  0
LINE
  5
5CE
100
AcDbEntity
  8
RACCORDO
100
AcDbLine
 62
7
  6
CONTINUOUS
 10
132.6102935234
 20
76.1074962394
 11
132.6102935234
 21
77.4107396521
  0
LWPOLYLINE
  5
5CF
100
AcDbEntity
  8
ASSI
100
AcDbPolyline
 62
250
  6
CONTINUOUS
 90
8
 70
0
 10
131.1027033211
 20
35.9503023439
 10
131.1036096592
 20
35.9661362066
 10
131.1044892437
 20
35.9874524266
 10
131.1053420745
 20
36.0141322294
 10
131.1061723347
 20
36.0460083469
 10
131.1069758412
 20
36.0829148928
 10
131.1077400451
 20
36.1247142305
 10
131.1091509264
 20
36.2222213876
  0
LWPOLYLINE
  5
5D0
100
AcDbEntity
  8
ASSI
100
AcDbPolyline
 62
250
  6
CONTINUOUS
 90
8
 70
0
 10
130.8027490126
 20
36.2457446698
 10
130.8036501262
 20
36.2568827496
 10
130.8045262961
 20
36.2716928173
 10
130.8053775224
 20
36.2901748731
 10
130.8062086059
 20
36.3124565851
 10
130.8070147458
 20
36.3384102852
 10
130.8077815392
 20
36.3676529681
 10
130.8091964526
 20
36.4361899183
  0
LINE
  5
5D1
100
AcDbEntity
  8
ASSI
100
AcDbLine
 62
250
  6
CONTINUOUS
 10
130.7452036532
 20
35.6644349174
 11
130.8027490126
 21
36.2457446698
  0
LINE
  5
5D2
100
AcDbEntity
  8
ASSI
100
AcDbLine
 62
250
  6
CONTINUOUS
 10
131.0443400396
 20
35.3607301329
 11
131.1027033211
 21
35.9503023439
  0
LWPOLYLINE
  5
5D3
100
AcDbEntity
  8
0
100
AcDbPolyline
 62
7
  6
CONTINUOUS
 90
3
 70
0
 43
0.3500000006
 10
144.046006073
 20
87.7488028564
 10
143.9745748901
 20
87.5345183716
 10
143.8317215881
 20
87.2488027039
  0
LINE
  5
5D4
100
AcDbEntity
  8
RACCORDO
100
AcDbLine
 62
7
  6
CONTINUOUS
 10
150.9292368719
 20
76.8296734814
 11
151.0102935234
 21
76.9107301329
  0
LINE
  5
5D5
100
AcDbEntity
  8
RACCORDO
100
AcDbLine
 62
7
  6
CONTINUOUS
 10
151.0102935234
 20
76.1607301329
 11
150.9292368719
 21
76.0796734814
  0
LINE
  5
5D6
100
AcDbEntity
  8
RACCORDO
100
AcDbLine
 62
7
  6
CONTINUOUS
 10
151.0102935234
 20
31.1607301329
 11
150.9292368719
 21
31.2417867844
  0
LINE
  5
5D7
100
AcDbEntity
  8
ASSI
100
AcDbLine
 62
7
  6
CONTINUOUS
 10
134.5102935234
 20
72.4607301329
 11
134.5102935234
 21
72.2607301329
  0
LINE
  5
5D8
100
AcDbEntity
  8
ASSI
100
AcDbLine
 62
7
  6
CONTINUOUS
 10
134.5102935234
 20
34.8607301329
 11
134.5102935234
 21
35.0607301329
  0
LINE
  5
5D9
100
AcDbEntity
  8
SMUSSO
100
AcDbLine
 62
7
  6
CONTINUOUS
 10
134.7102935234
 20
72.4607301329
 11
134.7102935234
 21
72.2607301329
  0
LINE
  5
5DA
100
AcDbEntity
  8
SMUSSO
100
AcDbLine
 62
7
  6
CONTINUOUS
 10
134.7102935234
 20
35.0607301329
 11
134.7102935234
 21
34.8607301329
  0
LINE
  5
5DB
100
AcDbEntity
  8
ASSI
100
AcDbLine
 62
7
  6
CONTINUOUS
 10
134.7602935234
 20
72.4607301329
 11
134.7602935234
 21
72.2607301329
  0
LINE
  5
5DC
100
AcDbEntity
  8
ASSI
100
AcDbLine
 62
7
  6
CONTINUOUS
 10
134.7602935234
 20
35.0607301329
 11
134.7602935234
 21
34.8607301329
  0
LINE
  5
5DD
100
AcDbEntity
  8
DRAFT
100
AcDbLine
 62
7
  6
CONTINUOUS
 10
135.0102935234
 20
30.4107301329
 11
135.0102935234
 21
31.1607301329
  0
LINE
  5
5DE
100
AcDbEntity
  8
DRAFT
100
AcDbLine
 62
7
  6
CONTINUOUS
 10
135.0102935234
 20
76.1607301329
 11
135.0102935234
 21
76.9107301329
  0
LINE
  5
5DF
100
AcDbEntity
  8
RACCORDO
100
AcDbLine
 62
250
  6
CONTINUOUS
 10
135.0913501749
 20
31.2417867844
 11
135.0913501749
 21
30.4107301329
  0
LINE
  5
5E0
100
AcDbEntity
  8
RACCORDO
100
AcDbLine
 62
250
  6
CONTINUOUS
 10
135.0913501749
 20
76.0796734814
 11
135.0913501749
 21
76.8296734814
  0
LINE
  5
5E1
100
AcDbEntity
  8
RACCORDO
100
AcDbLine
 62
250
  6
CONTINUOUS
 10
136.7292368719
 20
31.2417867844
 11
136.7292368719
 21
30.4107301329
  0
LINE
  5
5E2
100
AcDbEntity
  8
RACCORDO
100
AcDbLine
 62
250
  6
CONTINUOUS
 10
136.7292368719
 20
76.0796734814
 11
136.7292368719
 21
76.8296734814
  0
LINE
  5
5E3
100
AcDbEntity
  8
RACCORDO
100
AcDbLine
 62
7
  6
CONTINUOUS
 10
136.8102935234
 20
30.4107301329
 11
136.8102935234
 21
30.9624678908
  0
LINE
  5
5E4
100
AcDbEntity
  8
RACCORDO
100
AcDbLine
 62
7
  6
CONTINUOUS
 10
136.8102935234
 20
76.358992375
 11
136.8102935234
 21
76.9107301329
  0
LINE
  5
5E5
100
AcDbEntity
  8
0
100
AcDbLine
 62
7
  6
CONTINUOUS
 10
137.0102935234
 20
77.7130913396
 11
137.0102935234
 21
76.1638401881
  0
LINE
  5
5E6
100
AcDbEntity
  8
0
100
AcDbLine
 62
7
  6
CONTINUOUS
 10
137.0102935234
 20
29.6083689261
 11
137.0102935234
 21
28.6083689261
  0
LINE
  5
5E7
100
AcDbEntity
  8
0
100
AcDbLine
 62
7
  6
CONTINUOUS
 10
137.0102935234
 20
29.6083689261
 11
137.0102935234
 21
31.1576200776
  0
LINE
  5
5E8
100
AcDbEntity
  8
0
100
AcDbLine
 62
7
  6
CONTINUOUS
 10
137.0102935234
 20
77.7130913396
 11
137.0102935234
 21
78.7130913396
  0
LINE
  5
5E9
100
AcDbEntity
  8
DRAFT
100
AcDbLine
 62
7
  6
CONTINUOUS
 10
140.7959341694
 20
72.4607301329
 11
140.7423443309
 21
72.2607301329
  0
LINE
  5
5EA
100
AcDbEntity
  8
DRAFT
100
AcDbLine
 62
7
  6
CONTINUOUS
 10
140.7423443309
 20
35.0607301329
 11
140.7959341694
 21
34.8607301329
  0
LINE
  5
5EB
100
AcDbEntity
  8
ASSI
100
AcDbLine
 62
7
  6
CONTINUOUS
 10
137.7602935234
 20
72.4607301329
 11
137.7602935234
 21
72.2607301329
  0
LINE
  5
5EC
100
AcDbEntity
  8
ASSI
100
AcDbLine
 62
7
  6
CONTINUOUS
 10
137.7602935234
 20
35.0607301329
 11
137.7602935234
 21
34.8607301329
  0
LINE
  5
5ED
100
AcDbEntity
  8
ASSI
100
AcDbLine
 62
7
  6
CONTINUOUS
 10
138.0102935234
 20
72.4607301329
 11
138.0102935234
 21
72.2607301329
  0
LINE
  5
5EE
100
AcDbEntity
  8
ASSI
100
AcDbLine
 62
7
  6
CONTINUOUS
 10
138.0102935234
 20
34.8607301329
 11
138.0102935234
 21
35.0607301329
  0
LINE
  5
5EF
100
AcDbEntity
  8
RACCORDO
100
AcDbLine
 62
7
  6
CONTINUOUS
 10
138.5102935234
 20
77.7130913396
 11
138.5102935234
 21
77.2528815918
  0
LINE
  5
5F0
100
AcDbEntity
  8
RACCORDO
100
AcDbLine
 62
7
  6
CONTINUOUS
 10
138.5102935234
 20
30.0685786739
 11
138.5102935234
 21
29.6083689261
  0
LINE
  5
5F1
100
AcDbEntity
  8
RACCORDO
100
AcDbLine
 62
250
  6
CONTINUOUS
 10
138.7102935234
 20
77.5715007995
 11
138.7102935234
 21
77.191078193
  0
LINE
  5
5F2
100
AcDbEntity
  8
RACCORDO
100
AcDbLine
 62
250
  6
CONTINUOUS
 10
138.7102935234
 20
29.7499594663
 11
138.7102935234
 21
30.1303820728
  0
LINE
  5
5F3
100
AcDbEntity
  8
0
100
AcDbLine
 62
7
  6
CONTINUOUS
 10
139.0902935234
 20
72.4607301329
 11
139.0902935234
 21
72.2607301329
  0
LINE
  5
5F4
100
AcDbEntity
  8
0
100
AcDbLine
 62
7
  6
CONTINUOUS
 10
139.0902935234
 20
34.8607301329
 11
139.0902935234
 21
35.0607301329
  0
LINE
  5
5F5
100
AcDbEntity
  8
RACCORDO
100
AcDbLine
 62
7
  6
CONTINUOUS
 10
139.2602935234
 20
31.2331631355
 11
139.2602935234
 21
31.2194234765
  0
LINE
  5
5F6
100
AcDbEntity
  8
RACCORDO
100
AcDbLine
 62
7
  6
CONTINUOUS
 10
139.2602935234
 20
76.0882971302
 11
139.2602935234
 21
76.1020367893
  0
LWPOLYLINE
  5
5F7
100
AcDbEntity
  8
CURVE
100
AcDbPolyline
 62
7
  6
CONTINUOUS
 90
89
 70
0
 10
143.0102935234
 20
49.6607301329
 10
142.8616807498
 20
49.6634467271
 10
142.7140435033
 20
49.671600178
 10
142.56726691
 20
49.6851959876
 10
142.4212360963
 20
49.7042396581
 10
142.2758361885
 20
49.7287366915
 10
142.1310288906
 20
49.7586781746
 10
141.9870822169
 20
49.7939975334
 10
141.8443407594
 20
49.8346137781
 10
141.7031491099
 20
49.8804459195
 10
141.5638518606
 20
49.931412968
 10
141.4267516464
 20
49.9874390797
 10
141.2919832751
 20
50.048468993
 10
141.1596395974
 20
50.1144525919
 10
141.0298134641
 20
50.1853397603
 10
140.9025977261
 20
50.2610803824
 10
140.778111736
 20
50.3415991477
 10
140.6565808541
 20
50.4267199689
 10
140.5382569422
 20
50.5162415641
 10
140.4233918625
 20
50.6099626517
 10
140.312237477
 20
50.70768195
 10
140.2050093703
 20
50.809225332
 10
140.101778018
 20
50.9145272899
 10
140.0025776182
 20
51.0235494711
 10
139.907442369
 20
51.1362535225
 10
139.8164064686
 20
51.2526010912
 10
139.7295284646
 20
51.372518023
 10
139.6469643029
 20
51.495786957
 10
139.5688942788
 20
51.6221547311
 10
139.4954986876
 20
51.7513681831
 10
139.4269578246
 20
51.8831741506
 10
139.3634288137
 20
52.0173409231
 10
139.3049760924
 20
52.1537225964
 10
139.2516409267
 20
52.2921947178
 10
139.2034645826
 20
52.4326328346
 10
139.1604883262
 20
52.5749124944
 10
139.128683615
 20
52.6947762986
 10
139.1005832646
 20
52.8156433461
 10
139.0762518069
 20
52.9373244562
 10
139.0557427621
 20
53.0595856628
 10
139.0390656046
 20
53.1820138577
 10
139.0262187968
 20
53.3041511468
 10
139.0171879855
 20
53.4256563148
 10
139.0119075531
 20
53.5466548597
 10
139.0102990659
 20
53.6673889581
 10
139.0123096939
 20
53.7880998538
 10
139.0179890217
 20
53.9090250588
 10
139.0274122375
 20
54.0304011524
 10
139.0406415982
 20
54.1523503677
 10
139.0576876352
 20
54.2745375525
 10
139.0785479485
 20
54.3965132084
 10
139.1032091648
 20
54.5178713541
 10
139.1316140174
 20
54.6383800768
 10
139.1636942663
 20
54.7578509811
 10
139.2069590456
 20
54.8996162068
 10
139.2553784469
 20
55.0395020676
 10
139.3089127875
 20
55.1773949468
 10
139.3675223844
 20
55.3131812278
 10
139.4311675546
 20
55.4467472939
 10
139.4997850567
 20
55.5779563627
 10
139.5732174152
 20
55.7065789892
 10
139.651283596
 20
55.8323625631
 10
139.7338025653
 20
55.9550544736
 10
139.8205932889
 20
56.0744021102
 10
139.9114999204
 20
56.1901893599
 10
140.0064673641
 20
56.3023460997
 10
140.1054657116
 20
56.4108387042
 10
140.2084650547
 20
56.5156335481
 10
140.3154354852
 20
56.6166970058
 10
140.4263102331
 20
56.7139674983
 10
140.5408750819
 20
56.807271631
 10
140.6588789534
 20
56.896408056
 10
140.7800707693
 20
56.981175425
 10
140.9041994514
 20
57.0613723899
 10
141.0310420964
 20
57.1368232606
 10
141.1604884998
 20
57.2074549794
 10
141.2924566322
 20
57.2732201465
 10
141.426864464
 20
57.3340713622
 10
141.5636299657
 20
57.3899612267
 10
141.7026292327
 20
57.440835805
 10
141.8435708601
 20
57.4866150207
 10
141.986121568
 20
57.5272122622
 10
142.1299480763
 20
57.5625409178
 10
142.274717105
 20
57.5925143758
 10
142.4201694405
 20
57.6170596873
 10
142.5663421332
 20
57.6361585541
 10
142.7133463001
 20
57.6498063409
 10
142.8612930579
 20
57.6579984123
 10
143.0102935234
 20
57.6607301329
  0
LWPOLYLINE
  5
5F8
100
AcDbEntity
  8
RACCORDO
100
AcDbPolyline
 62
7
  6
CONTINUOUS
 90
25
 70
0
 10
138.5102935234
 20
77.6333041984
 10
138.5107369263
 20
77.629233633
 10
138.5120179076
 20
77.6252145514
 10
138.5141364673
 20
77.6212469534
 10
138.5171088043
 20
77.6173143373
 10
138.5209187198
 20
77.613433205
 10
138.5255176169
 20
77.6096530615
 10
138.5309156023
 20
77.6059752006
 10
138.5371025692
 20
77.6023983286
 10
138.5439996009
 20
77.5989680696
 10
138.5516157931
 20
77.5956863019
 10
138.5599420499
 20
77.5925511474
 10
138.5688721671
 20
77.5896025959
 10
138.5784138801
 20
77.5868430379
 10
138.5885594534
 20
77.5842700831
 10
138.5991794768
 20
77.5819165503
 10
138.6102800278
 20
77.5797852503
 10
138.6218550289
 20
77.5778733723
 10
138.6337568369
 20
77.5762053031
 10
138.6459896381
 20
77.5747841658
 10
138.6585492462
 20
77.5736068371
 10
138.671275459
 20
77.5726883345
 10
138.6841148757
 20
77.5720336635
 10
138.6971208972
 20
77.5716378185
 10
138.7102935234
 20
77.5715007995
  0
LINE
  5
5F9
100
AcDbEntity
  8
RACCORDO
100
AcDbLine
 62
7
  6
CONTINUOUS
 10
139.2762662282
 20
77.5305224882
 11
139.4024445973
 21
76.0882971302
  0
LINE
  5
5FA
100
AcDbEntity
  8
RACCORDO
100
AcDbLine
 62
7
  6
CONTINUOUS
 10
140.5102935234
 20
72.4607301329
 11
140.5102935234
 21
72.2607301329
  0
LINE
  5
5FB
100
AcDbEntity
  8
RACCORDO
100
AcDbLine
 62
7
  6
CONTINUOUS
 10
140.5102935234
 20
35.0607301329
 11
140.5102935234
 21
34.8607301329
  0
LINE
  5
5FC
100
AcDbEntity
  8
RACCORDO
100
AcDbLine
 62
7
  6
CONTINUOUS
 10
139.4024445973
 20
31.2331631355
 11
139.2762662282
 21
29.7909377776
  0
LWPOLYLINE
  5
5FD
100
AcDbEntity
  8
RACCORDO
100
AcDbPolyline
 62
7
  6
CONTINUOUS
 90
25
 70
0
 10
138.5102935234
 20
30.0685786739
 10
138.5107369263
 20
30.0726492393
 10
138.5120179076
 20
30.0766683209
 10
138.5141364673
 20
30.0806359189
 10
138.5171088043
 20
30.0845685349
 10
138.5209187198
 20
30.0884496673
 10
138.5255176169
 20
30.0922298107
 10
138.5309156023
 20
30.0959076717
 10
138.5371025692
 20
30.0994845437
 10
138.5439996009
 20
30.1029148026
 10
138.5516157931
 20
30.1061965703
 10
138.5599420499
 20
30.1093317249
 10
138.5688721671
 20
30.1122802764
 10
138.5784138801
 20
30.1150398343
 10
138.5885594534
 20
30.1176127892
 10
138.5991794768
 20
30.119966322
 10
138.6102800278
 20
30.122097622
 10
138.6218550289
 20
30.1240095
 10
138.6337568369
 20
30.1256775692
 10
138.6459896381
 20
30.1270987065
 10
138.6585492462
 20
30.1282760351
 10
138.671275459
 20
30.1291945378
 10
138.6841148757
 20
30.1298492088
 10
138.6971208972
 20
30.1302450538
 10
138.7102935234
 20
30.1303820728
  0
LWPOLYLINE
  5
5FE
100
AcDbEntity
  8
0
100
AcDbPolyline
 62
7
  6
CONTINUOUS
 90
2
 70
0
 43
0.3500000006
 10
141.9745833435
 20
87.4630871887
 10
141.9745833435
 20
88.9630876465
  0
LWPOLYLINE
  5
5FF
100
AcDbEntity
  8
RACCORDO
100
AcDbPolyline
 62
7
  6
CONTINUOUS
 90
25
 70
0
 10
139.2602935234
 20
31.2194234765
 10
139.2598501205
 20
31.2153529111
 10
139.2585691392
 20
31.2113338295
 10
139.2564505795
 20
31.2073662315
 10
139.2534782424
 20
31.2034336155
 10
139.2496683269
 20
31.1995524831
 10
139.2450694299
 20
31.1957723397
 10
139.2396714445
 20
31.1920944787
 10
139.2334844775
 20
31.1885176067
 10
139.2265874458
 20
31.1850873478
 10
139.2189712537
 20
31.1818055801
 10
139.2106449968
 20
31.1786704255
 10
139.2017148796
 20
31.175721874
 10
139.1921731667
 20
31.1729623161
 10
139.1820275934
 20
31.1703893612
 10
139.17140757
 20
31.1680358284
 10
139.1603070189
 20
31.1659045284
 10
139.1487320178
 20
31.1639926505
 10
139.1368302098
 20
31.1623245812
 10
139.1245974086
 20
31.1609034439
 10
139.1120378006
 20
31.1597261153
 10
139.0993115878
 20
31.1588076126
 10
139.086472171
 20
31.1581529416
 10
139.0734661495
 20
31.1577570966
 10
139.0602935234
 20
31.1576200776
  0
LWPOLYLINE
  5
600
100
AcDbEntity
  8
0
100
AcDbPolyline
 62
7
  6
CONTINUOUS
 90
2
 70
0
 43
0.3500000006
 10
162.6602871094
 20
52.3035867462
 10
161.1602957153
 20
52.3035867462
  0
LWPOLYLINE
  5
601
100
AcDbEntity
  8
0
100
AcDbPolyline
 62
7
  6
CONTINUOUS
 90
4
 70
0
 43
0.3500000006
 10
162.2317181396
 20
53.6607293701
 10
161.3745802002
 20
53.6607293701
 10
160.9460112305
 20
54.0893028717
 10
160.9460112305
 20
54.7321608582
  0
LWPOLYLINE
  5
602
100
AcDbEntity
  8
RACCORDO
100
AcDbPolyline
 62
7
  6
CONTINUOUS
 90
25
 70
0
 10
147.5102935234
 20
29.6881560674
 10
147.5098501205
 20
29.6922266327
 10
147.5085691392
 20
29.6962457144
 10
147.5064505795
 20
29.7002133124
 10
147.5034782424
 20
29.7041459284
 10
147.4996683269
 20
29.7080270607
 10
147.4950694299
 20
29.7118072042
 10
147.4896714445
 20
29.7154850651
 10
147.4834844775
 20
29.7190619372
 10
147.4765874458
 20
29.7224921961
 10
147.4689712537
 20
29.7257739638
 10
147.4606449968
 20
29.7289091184
 10
147.4517148796
 20
29.7318576698
 10
147.4421731667
 20
29.7346172278
 10
147.4320275934
 20
29.7371901827
 10
147.42140757
 20
29.7395437155
 10
147.4103070189
 20
29.7416750155
 10
147.3987320178
 20
29.7435868934
 10
147.3868302098
 20
29.7452549627
 10
147.3745974086
 20
29.7466761
 10
147.3620378006
 20
29.7478534286
 10
147.3493115878
 20
29.7487719313
 10
147.336472171
 20
29.7494266022
 10
147.3234661495
 20
29.7498224472
 10
147.3102935234
 20
29.7499594663
  0
LINE
  5
603
100
AcDbEntity
  8
RACCORDO
100
AcDbLine
 62
7
  6
CONTINUOUS
 10
146.7443208186
 20
29.7909377776
 11
146.6181424495
 21
31.2331631355
  0
LWPOLYLINE
  5
604
100
AcDbEntity
  8
0
100
AcDbPolyline
 62
7
  6
CONTINUOUS
 90
4
 70
0
 43
0.3500000006
 10
145.0460063782
 20
87.8916652222
 10
145.0460063782
 20
88.7488031616
 10
145.4745753479
 20
89.1773811951
 10
146.1174378662
 20
89.1773811951
  0
LINE
  5
605
100
AcDbEntity
  8
RACCORDO
100
AcDbLine
 62
7
  6
CONTINUOUS
 10
146.6181424495
 20
76.0882971302
 11
146.7443208186
 21
77.5305224882
  0
LWPOLYLINE
  5
606
100
AcDbEntity
  8
RACCORDO
100
AcDbPolyline
 62
7
  6
CONTINUOUS
 90
25
 70
0
 10
146.7602935234
 20
76.1020367893
 10
146.7607369263
 20
76.1061073546
 10
146.7620179076
 20
76.1101264363
 10
146.7641364673
 20
76.1140940343
 10
146.7671088043
 20
76.1180266503
 10
146.7709187198
 20
76.1219077826
 10
146.7755176169
 20
76.1256879261
 10
146.7809156023
 20
76.129365787
 10
146.7871025692
 20
76.1329426591
 10
146.7939996009
 20
76.136372918
 10
146.8016157931
 20
76.1396546857
 10
146.8099420499
 20
76.1427898403
 10
146.8188721671
 20
76.1457383917
 10
146.8284138801
 20
76.1484979497
 10
146.8385594534
 20
76.1510709046
 10
146.8491794768
 20
76.1534244374
 10
146.8602800278
 20
76.1555557374
 10
146.8718550289
 20
76.1574676153
 10
146.8837568369
 20
76.1591356845
 10
146.8959896381
 20
76.1605568219
 10
146.9085492462
 20
76.1617341505
 10
146.921275459
 20
76.1626526532
 10
146.9341148757
 20
76.1633073241
 10
146.9471208972
 20
76.1637031691
 10
146.9602935234
 20
76.1638401881
  0
LWPOLYLINE
  5
607
100
AcDbEntity
  8
RACCORDO
100
AcDbPolyline
 62
7
  6
CONTINUOUS
 90
25
 70
0
 10
147.5102935234
 20
77.2528815918
 10
147.5098501205
 20
77.2488110265
 10
147.5085691392
 20
77.2447919448
 10
147.5064505795
 20
77.2408243469
 10
147.5034782424
 20
77.2368917308
 10
147.4996683269
 20
77.2330105985
 10
147.4950694299
 20
77.229230455
 10
147.4896714445
 20
77.2255525941
 10
147.4834844775
 20
77.221975722
 10
147.4765874458
 20
77.2185454631
 10
147.4689712537
 20
77.2152636954
 10
147.4606449968
 20
77.2121285409
 10
147.4517148796
 20
77.2091799894
 10
147.4421731667
 20
77.2064204314
 10
147.4320275934
 20
77.2038474766
 10
147.42140757
 20
77.2014939437
 10
147.4103070189
 20
77.1993626437
 10
147.3987320178
 20
77.1974507658
 10
147.3868302098
 20
77.1957826966
 10
147.3745974086
 20
77.1943615592
 10
147.3620378006
 20
77.1931842306
 10
147.3493115878
 20
77.1922657279
 10
147.336472171
 20
77.191611057
 10
147.3234661495
 20
77.191215212
 10
147.3102935234
 20
77.191078193
  0
LINE
  5
608
100
AcDbEntity
  8
RACCORDO
100
AcDbLine
 62
7
  6
CONTINUOUS
 10
145.5102935234
 20
34.8607301329
 11
145.5102935234
 21
35.0607301329
  0
LINE
  5
609
100
AcDbEntity
  8
RACCORDO
100
AcDbLine
 62
7
  6
CONTINUOUS
 10
145.5102935234
 20
72.2607301329
 11
145.5102935234
 21
72.4607301329
  0
LINE
  5
60A
100
AcDbEntity
  8
RACCORDO
100
AcDbLine
 62
7
  6
CONTINUOUS
 10
146.7602935234
 20
31.2331631355
 11
146.7602935234
 21
31.2194234765
  0
LINE
  5
60B
100
AcDbEntity
  8
RACCORDO
100
AcDbLine
 62
7
  6
CONTINUOUS
 10
146.7602935234
 20
76.0882971302
 11
146.7602935234
 21
76.1020367893
  0
LINE
  5
60C
100
AcDbEntity
  8
0
100
AcDbLine
 62
7
  6
CONTINUOUS
 10
146.9302935234
 20
72.4607301329
 11
146.9302935234
 21
72.2607301329
  0
LINE
  5
60D
100
AcDbEntity
  8
0
100
AcDbLine
 62
7
  6
CONTINUOUS
 10
146.9302935234
 20
34.8607301329
 11
146.9302935234
 21
35.0607301329
  0
LINE
  5
60E
100
AcDbEntity
  8
RACCORDO
100
AcDbLine
 62
250
  6
CONTINUOUS
 10
147.3102935234
 20
77.5715007995
 11
147.3102935234
 21
77.191078193
  0
LINE
  5
60F
100
AcDbEntity
  8
RACCORDO
100
AcDbLine
 62
250
  6
CONTINUOUS
 10
147.3102935234
 20
29.7499594663
 11
147.3102935234
 21
30.1303820728
  0
LINE
  5
610
100
AcDbEntity
  8
RACCORDO
100
AcDbLine
 62
7
  6
CONTINUOUS
 10
147.5102935234
 20
29.6083689261
 11
147.5102935234
 21
30.0685786739
  0
LINE
  5
611
100
AcDbEntity
  8
RACCORDO
100
AcDbLine
 62
7
  6
CONTINUOUS
 10
147.5102935234
 20
77.2528815918
 11
147.5102935234
 21
77.7130913396
  0
LINE
  5
612
100
AcDbEntity
  8
ASSI
100
AcDbLine
 62
7
  6
CONTINUOUS
 10
148.0102935234
 20
72.4607301329
 11
148.0102935234
 21
72.2607301329
  0
LINE
  5
613
100
AcDbEntity
  8
ASSI
100
AcDbLine
 62
7
  6
CONTINUOUS
 10
148.0102935234
 20
34.8607301329
 11
148.0102935234
 21
35.0607301329
  0
LINE
  5
614
100
AcDbEntity
  8
ASSI
100
AcDbLine
 62
7
  6
CONTINUOUS
 10
148.2602935234
 20
72.4607301329
 11
148.2602935234
 21
72.2607301329
  0
LINE
  5
615
100
AcDbEntity
  8
ASSI
100
AcDbLine
 62
7
  6
CONTINUOUS
 10
148.2602935234
 20
35.0607301329
 11
148.2602935234
 21
34.8607301329
  0
LWPOLYLINE
  5
616
100
AcDbEntity
  8
CURVE
100
AcDbPolyline
 62
7
  6
CONTINUOUS
 90
89
 70
0
 10
143.0102935234
 20
57.6607301329
 10
143.158837519
 20
57.658016045
 10
143.3064071999
 20
57.6498700909
 10
143.4531173617
 20
57.6362867351
 10
143.5990828002
 20
57.6172604421
 10
143.7444183109
 20
57.5927856763
 10
143.8891621639
 20
57.5628713256
 10
144.0330465269
 20
57.5275839719
 10
144.1757270418
 20
57.4870046208
 10
144.3168593508
 20
57.4412142775
 10
144.4560990957
 20
57.3902939475
 10
144.5931439437
 20
57.3343194139
 10
144.7278596622
 20
57.2733455709
 10
144.8601540437
 20
57.2074220903
 10
144.9899348806
 20
57.136598644
 10
145.1171099653
 20
57.0609249037
 10
145.2415604383
 20
56.9804758198
 10
145.3630608312
 20
56.8954274554
 10
145.4813590236
 20
56.8059811524
 10
145.5962028951
 20
56.7123382523
 10
145.7073403252
 20
56.6147000969
 10
145.8145555758
 20
56.5132407647
 10
145.9177784378
 20
56.4080252816
 10
146.0169750842
 20
56.2990914103
 10
146.1121116883
 20
56.1864769138
 10
146.2031544233
 20
56.0702195546
 10
146.2900449961
 20
55.9503931808
 10
146.3726272491
 20
55.8272159799
 10
146.4507205587
 20
55.700942225
 10
146.5241443009
 20
55.5718261887
 10
146.592717852
 20
55.440122144
 10
146.6562840128
 20
55.3060619869
 10
146.7147792817
 20
55.1697881063
 10
146.7681635813
 20
55.0314205147
 10
146.8163968345
 20
54.8910792241
 10
146.8594389641
 20
54.7488842469
 10
146.8913059553
 20
54.6290790223
 10
146.919474406
 20
54.5082594133
 10
146.9438785541
 20
54.3866149762
 10
146.9644636641
 20
54.2643783571
 10
146.9812191063
 20
54.1419545621
 10
146.9941452777
 20
54.0197916874
 10
147.0032551279
 20
53.8982245679
 10
147.0086118177
 20
53.7771349942
 10
147.0102910607
 20
53.6562914956
 10
147.0083436432
 20
53.5354629501
 10
147.0027206432
 20
53.4144196312
 10
146.9933482119
 20
53.2929321608
 10
146.9801651579
 20
53.1708834891
 10
146.9631609208
 20
53.0486058789
 10
146.9423375982
 20
52.9265439212
 10
146.9177085028
 20
52.8050999507
 10
146.8893318087
 20
52.6845072771
 10
146.8572769053
 20
52.5649569541
 10
146.8140399047
 20
52.4231048283
 10
146.7656446251
 20
52.2831390793
 10
146.7121294882
 20
52.1451699822
 10
146.6535329158
 20
52.0093078118
 10
146.5898933294
 20
51.8756628432
 10
146.5212729845
 20
51.7443693938
 10
146.4478294715
 20
51.6156579505
 10
146.3697442144
 20
51.4897830427
 10
146.2871986374
 20
51.3669991996
 10
146.2003741646
 20
51.2475609505
 10
146.1094269669
 20
51.1316860361
 10
146.0144122029
 20
51.0194450421
 10
145.915359778
 20
50.9108717654
 10
145.8122995975
 20
50.806000003
 10
145.7052615668
 20
50.7048635519
 10
145.594312789
 20
50.6075243365
 10
145.4796691573
 20
50.5141567919
 10
145.3615837625
 20
50.4249634805
 10
145.2403096956
 20
50.340146965
 10
145.1161000474
 20
50.2599098078
 10
144.9891796866
 20
50.1844286429
 10
144.8596605923
 20
50.1137763894
 10
144.7276265216
 20
50.0480000381
 10
144.5931612314
 20
49.9871465794
 10
144.4563484789
 20
49.931263004
 10
144.317314121
 20
49.8804026629
 10
144.1763524155
 20
49.8346443486
 10
144.0337997201
 20
49.7940732144
 10
143.8899923926
 20
49.758774413
 10
143.7452667908
 20
49.7288330976
 10
143.5998845231
 20
49.7043205089
 10
143.4538082007
 20
49.6852522386
 10
143.3069256854
 20
49.6716299662
 10
143.159124839
 20
49.6634553711
 10
143.0102935234
 20
49.6607301329
  0
LINE
  5
617
100
AcDbEntity
  8
0
100
AcDbLine
 62
7
  6
CONTINUOUS
 10
149.0102935234
 20
77.7130913396
 11
149.0102935234
 21
76.1638401881
  0
LINE
  5
618
100
AcDbEntity
  8
0
100
AcDbLine
 62
7
  6
CONTINUOUS
 10
149.0102935234
 20
29.6083689261
 11
149.0102935234
 21
28.6083689261
  0
LINE
  5
619
100
AcDbEntity
  8
0
100
AcDbLine
 62
7
  6
CONTINUOUS
 10
149.0102935234
 20
29.6083689261
 11
149.0102935234
 21
31.1576200776
  0
LINE
  5
61A
100
AcDbEntity
  8
0
100
AcDbLine
 62
7
  6
CONTINUOUS
 10
149.0102935234
 20
77.7130913396
 11
149.0102935234
 21
78.7130913396
  0
LINE
  5
61B
100
AcDbEntity
  8
RACCORDO
100
AcDbLine
 62
7
  6
CONTINUOUS
 10
149.2102935234
 20
30.4107301329
 11
149.2102935234
 21
30.9624678908
  0
LINE
  5
61C
100
AcDbEntity
  8
RACCORDO
100
AcDbLine
 62
7
  6
CONTINUOUS
 10
149.2102935234
 20
76.358992375
 11
149.2102935234
 21
76.9107301329
  0
LINE
  5
61D
100
AcDbEntity
  8
RACCORDO
100
AcDbLine
 62
250
  6
CONTINUOUS
 10
149.2913501749
 20
31.2417867844
 11
149.2913501749
 21
30.4107301329
  0
LINE
  5
61E
100
AcDbEntity
  8
RACCORDO
100
AcDbLine
 62
250
  6
CONTINUOUS
 10
149.2913501749
 20
76.0796734814
 11
149.2913501749
 21
76.8296734814
  0
LINE
  5
61F
100
AcDbEntity
  8
DRAFT
100
AcDbLine
 62
7
  6
CONTINUOUS
 10
145.2246528773
 20
34.8607301329
 11
145.2782427158
 21
35.0607301329
  0
LINE
  5
620
100
AcDbEntity
  8
DRAFT
100
AcDbLine
 62
7
  6
CONTINUOUS
 10
145.2782427158
 20
72.2607301329
 11
145.2246528773
 21
72.4607301329
  0
LINE
  5
621
100
AcDbEntity
  8
RACCORDO
100
AcDbLine
 62
250
  6
CONTINUOUS
 10
150.9292368719
 20
31.2417867844
 11
150.9292368719
 21
30.4107301329
  0
LINE
  5
622
100
AcDbEntity
  8
RACCORDO
100
AcDbLine
 62
250
  6
CONTINUOUS
 10
150.9292368719
 20
76.0796734814
 11
150.9292368719
 21
76.8296734814
  0
LINE
  5
623
100
AcDbEntity
  8
DRAFT
100
AcDbLine
 62
7
  6
CONTINUOUS
 10
151.0102935234
 20
30.4107301329
 11
151.0102935234
 21
31.1607301329
  0
LINE
  5
624
100
AcDbEntity
  8
DRAFT
100
AcDbLine
 62
7
  6
CONTINUOUS
 10
151.0102935234
 20
76.1607301329
 11
151.0102935234
 21
76.9107301329
  0
LINE
  5
625
100
AcDbEntity
  8
ASSI
100
AcDbLine
 62
7
  6
CONTINUOUS
 10
151.2602935234
 20
72.4607301329
 11
151.2602935234
 21
72.2607301329
  0
LINE
  5
626
100
AcDbEntity
  8
ASSI
100
AcDbLine
 62
7
  6
CONTINUOUS
 10
151.2602935234
 20
35.0607301329
 11
151.2602935234
 21
34.8607301329
  0
LINE
  5
627
100
AcDbEntity
  8
SMUSSO
100
AcDbLine
 62
7
  6
CONTINUOUS
 10
151.3102935234
 20
34.8607301329
 11
151.3102935234
 21
35.0607301329
  0
LINE
  5
628
100
AcDbEntity
  8
SMUSSO
100
AcDbLine
 62
7
  6
CONTINUOUS
 10
151.3102935234
 20
72.2607301329
 11
151.3102935234
 21
72.4607301329
  0
LINE
  5
629
100
AcDbEntity
  8
ASSI
100
AcDbLine
 62
7
  6
CONTINUOUS
 10
151.5102935234
 20
72.4607301329
 11
151.5102935234
 21
72.2607301329
  0
LINE
  5
62A
100
AcDbEntity
  8
ASSI
100
AcDbLine
 62
7
  6
CONTINUOUS
 10
151.5102935234
 20
34.8607301329
 11
151.5102935234
 21
35.0607301329
  0
LINE
  5
62B
100
AcDbEntity
  8
ASSI
100
AcDbLine
 62
250
  6
CONTINUOUS
 10
154.9178837256
 20
35.9503023439
 11
154.9762470072
 21
35.3607301329
  0
LINE
  5
62C
100
AcDbEntity
  8
ASSI
100
AcDbLine
 62
250
  6
CONTINUOUS
 10
155.2178380341
 20
36.2457446698
 11
155.2753833935
 21
35.6644349174
  0
LINE
  5
62D
100
AcDbEntity
  8
RACCORDO
100
AcDbLine
 62
7
  6
CONTINUOUS
 10
153.4102935234
 20
77.4107396521
 11
153.4102935234
 21
76.1074962394
  0
LINE
  5
62E
100
AcDbEntity
  8
RACCORDO
100
AcDbLine
 62
7
  6
CONTINUOUS
 10
153.4102935234
 20
31.2139640264
 11
153.4102935234
 21
29.9107206136
  0
LINE
  5
62F
100
AcDbEntity
  8
RACCORDO
100
AcDbLine
 62
250
  6
CONTINUOUS
 10
153.4280537233
 20
31.2317242263
 11
153.4280537233
 21
29.9284808135
  0
LINE
  5
630
100
AcDbEntity
  8
RACCORDO
100
AcDbLine
 62
250
  6
CONTINUOUS
 10
153.4280537233
 20
76.0897360395
 11
153.4280537233
 21
77.3929794522
  0
LWPOLYLINE
  5
631
100
AcDbEntity
  8
ASSI
100
AcDbPolyline
 62
250
  6
CONTINUOUS
 90
8
 70
0
 10
154.9178837256
 20
71.3711579218
 10
154.9169777066
 20
71.3553310202
 10
154.9160982408
 20
71.3340196255
 10
154.9152453284
 20
71.307338265
 10
154.914414671
 20
71.2754455841
 10
154.9136105669
 20
71.2385069937
 10
154.9128459109
 20
71.196674425
 10
154.911434846
 20
71.099120544
  0
LWPOLYLINE
  5
632
100
AcDbEntity
  8
ASSI
100
AcDbPolyline
 62
250
  6
CONTINUOUS
 90
8
 70
0
 10
155.2178380341
 20
71.0757155959
 10
155.2169372854
 20
71.0645841543
 10
155.2160613998
 20
71.0497804827
 10
155.2152103773
 20
71.0313045811
 10
155.2143793698
 20
71.0090266232
 10
155.2135732254
 20
70.9830764352
 10
155.2128064892
 20
70.9538434966
 10
155.2113921491
 20
70.8853622256
  0
LINE
  5
633
100
AcDbEntity
  8
ASSI
100
AcDbLine
 62
250
  6
CONTINUOUS
 10
154.9762470072
 20
71.9607301329
 11
154.9178837256
 21
71.3711579218
  0
LINE
  5
634
100
AcDbEntity
  8
ASSI
100
AcDbLine
 62
250
  6
CONTINUOUS
 10
155.2753833935
 20
71.6570253484
 11
155.2178380341
 21
71.0757155959
  0
LINE
  5
635
100
AcDbEntity
  8
RACCORDO
100
AcDbLine
 62
7
  6
CONTINUOUS
 10
135.0102935234
 20
31.1607301329
 11
135.0913501749
 21
31.2417867844
  0
LINE
  5
636
100
AcDbEntity
  8
RACCORDO
100
AcDbLine
 62
7
  6
CONTINUOUS
 10
135.0102935234
 20
76.1607301329
 11
135.0913501749
 21
76.0796734814
  0
LINE
  5
637
100
AcDbEntity
  8
RACCORDO
100
AcDbLine
 62
7
  6
CONTINUOUS
 10
135.0102935234
 20
76.9107301329
 11
135.0913501749
 21
76.8296734814
  0
LWPOLYLINE
  5
638
100
AcDbEntity
  8
ASSI
100
AcDbPolyline
 62
250
  6
CONTINUOUS
 90
6
 70
0
 10
155.2135723009
 20
36.3384102855
 10
155.2143784408
 20
36.3124565859
 10
155.2152095244
 20
36.290174874
 10
155.2160607506
 20
36.2716928181
 10
155.2169369206
 20
36.2568827501
 10
155.2178380341
 20
36.2457446698
  0
LWPOLYLINE
  5
639
100
AcDbEntity
  8
RACCORDO
100
AcDbPolyline
 62
250
  6
CONTINUOUS
 90
31
 70
0
 10
155.2836681444
 20
75.7942169283
 10
155.2833235016
 20
75.8073020623
 10
155.2822945006
 20
75.8203513457
 10
155.280583959
 20
75.8333290017
 10
155.2781965603
 20
75.8461994608
 10
155.2751388476
 20
75.8589274248
 10
155.2714192106
 20
75.8714779654
 10
155.2670478512
 20
75.8838166671
 10
155.2620367539
 20
75.8959097087
 10
155.2563996642
 20
75.9077239252
 10
155.2501520414
 20
75.9192269251
 10
155.243311016
 20
75.9303871758
 10
155.2358953487
 20
75.9411740786
 10
155.2279253634
 20
75.9515580751
 10
155.2194229227
 20
75.9615106851
 10
155.210411377
 20
75.9710045883
 10
155.2009154813
 20
75.9800137283
 10
155.1909612407
 20
75.9885134559
 10
155.1805758628
 20
75.9964805438
 10
155.1697876688
 20
76.0038932416
 10
155.1586263687
 20
76.0107311122
 10
155.1471229295
 20
76.0169752163
 10
155.1353091606
 20
76.0226083797
 10
155.1232172391
 20
76.0276153493
 10
155.1108799611
 20
76.0319825766
 10
155.0983283623
 20
76.0356988349
 10
155.0855995489
 20
76.0387529009
 10
155.0727365702
 20
76.0411351098
 10
155.0597776234
 20
76.042839921
 10
155.0467556201
 20
76.0438645245
 10
155.0337062206
 20
76.044207409
  0
LINE
  5
63A
100
AcDbEntity
  8
ASSI
100
AcDbLine
 62
250
  6
CONTINUOUS
 10
155.2120783776
 20
36.4002769517
 11
155.2135723009
 21
36.3384102855
  0
LWPOLYLINE
  5
63B
100
AcDbEntity
  8
ASSI
100
AcDbPolyline
 62
250
  6
CONTINUOUS
 90
6
 70
0
 10
154.9136112056
 20
36.0829148928
 10
154.9144147121
 20
36.0460083469
 10
154.9152449722
 20
36.0141322294
 10
154.916097803
 20
35.9874524266
 10
154.9169773875
 20
35.9661362066
 10
154.9178837256
 20
35.9503023439
  0
LINE
  5
63C
100
AcDbEntity
  8
ASSI
100
AcDbLine
 62
250
  6
CONTINUOUS
 10
155.2107556087
 20
36.4747319093
 11
155.2120783776
 21
36.4002769517
  0
LINE
  5
63D
100
AcDbEntity
  8
ASSI
100
AcDbLine
 62
250
  6
CONTINUOUS
 10
154.9121219097
 20
36.1712446247
 11
154.9136112056
 21
36.0829148928
  0
LINE
  5
63E
100
AcDbEntity
  8
ASSI
100
AcDbLine
 62
250
  6
CONTINUOUS
 10
155.2096468068
 20
36.5598194842
 11
155.2107556087
 21
36.4747319093
  0
LINE
  5
63F
100
AcDbEntity
  8
ASSI
100
AcDbLine
 62
250
  6
CONTINUOUS
 10
154.9108027538
 20
36.2772824854
 11
154.9121219097
 21
36.1712446247
  0
LINE
  5
640
100
AcDbEntity
  8
ASSI
100
AcDbLine
 62
250
  6
CONTINUOUS
 10
154.9096958116
 20
36.3983790537
 11
154.9108027538
 21
36.2772824854
  0
LINE
  5
641
100
AcDbEntity
  8
ASSI
100
AcDbLine
 62
250
  6
CONTINUOUS
 10
155.2087785695
 20
36.6529333289
 11
155.2096468068
 21
36.5598194842
  0
LINE
  5
642
100
AcDbEntity
  8
ASSI
100
AcDbLine
 62
250
  6
CONTINUOUS
 10
154.9088280756
 20
36.5313698892
 11
154.9096958116
 21
36.3983790537
  0
LINE
  5
643
100
AcDbEntity
  8
ASSI
100
AcDbLine
 62
250
  6
CONTINUOUS
 10
155.2081649552
 20
36.7523608079
 11
155.2087785695
 21
36.6529333289
  0
LINE
  5
644
100
AcDbEntity
  8
ASSI
100
AcDbLine
 62
250
  6
CONTINUOUS
 10
154.9082137123
 20
36.6731095771
 11
154.9088280756
 21
36.5313698892
  0
LINE
  5
645
100
AcDbEntity
  8
ASSI
100
AcDbLine
 62
250
  6
CONTINUOUS
 10
155.2078219467
 20
36.8548685771
 11
155.2081649552
 21
36.7523608079
  0
LINE
  5
646
100
AcDbEntity
  8
ASSI
100
AcDbLine
 62
250
  6
CONTINUOUS
 10
154.9078689269
 20
36.8207194872
 11
154.9082137123
 21
36.6731095771
  0
LINE
  5
647
100
AcDbEntity
  8
RACCORDO
100
AcDbLine
 62
250
  6
CONTINUOUS
 10
155.0337062206
 20
31.2772528567
 11
155.0337062206
 21
34.8607301329
  0
LINE
  5
648
100
AcDbEntity
  8
RACCORDO
100
AcDbLine
 62
250
  6
CONTINUOUS
 10
155.0337062206
 20
72.4607301329
 11
155.0337062206
 21
76.044207409
  0
LINE
  5
649
100
AcDbEntity
  8
ASSI
100
AcDbLine
 62
7
  6
CONTINUOUS
 10
155.2753833935
 20
71.9607301329
 11
155.2753833935
 21
71.6570253484
  0
LINE
  5
64A
100
AcDbEntity
  8
ASSI
100
AcDbLine
 62
7
  6
CONTINUOUS
 10
155.2753833935
 20
35.6644349174
 11
155.2753833935
 21
35.3607301329
  0
LINE
  5
64B
100
AcDbEntity
  8
RACCORDO
100
AcDbLine
 62
250
  6
CONTINUOUS
 10
155.2836681444
 20
75.7942169283
 11
155.2836681444
 21
72.4607301329
  0
LINE
  5
64C
100
AcDbEntity
  8
RACCORDO
100
AcDbLine
 62
250
  6
CONTINUOUS
 10
155.2836681444
 20
34.8607301329
 11
155.2836681444
 21
31.5272433375
  0
LINE
  5
64D
100
AcDbEntity
  8
ASSI
100
AcDbLine
 62
7
  6
CONTINUOUS
 10
155.3102935234
 20
35.3607301329
 11
155.3102935234
 21
71.9607301329
  0
LINE
  5
64E
100
AcDbEntity
  8
RACCORDO
100
AcDbLine
 62
250
  6
CONTINUOUS
 10
155.3746221626
 20
31.4817697919
 11
155.3746221626
 21
29.9285358983
  0
LINE
  5
64F
100
AcDbEntity
  8
RACCORDO
100
AcDbLine
 62
250
  6
CONTINUOUS
 10
155.3746221626
 20
75.8396904739
 11
155.3746221626
 21
77.3929243674
  0
LINE
  5
650
100
AcDbEntity
  8
DRAFT
100
AcDbLine
 62
7
  6
CONTINUOUS
 10
155.384110926
 20
72.4607301329
 11
155.384110926
 21
34.8607301329
  0
LINE
  5
651
100
AcDbEntity
  8
RACCORDO
100
AcDbLine
 62
7
  6
CONTINUOUS
 10
155.4102935234
 20
77.4107586895
 11
155.4102935234
 21
29.9107015763
  0
LWPOLYLINE
  5
652
100
AcDbEntity
  8
ASSI
100
AcDbPolyline
 62
250
  6
CONTINUOUS
 90
9
 70
0
 10
154.9055169467
 20
66.7015636597
 10
154.9038073429
 20
62.9763273659
 10
154.9026676069
 20
59.2503749119
 10
154.9020977389
 20
55.5239927941
 10
154.9020977389
 20
51.797467474
 10
154.9026676068
 20
48.071085356
 10
154.9038073427
 20
44.3451329015
 10
154.9055169466
 20
40.619896607
 10
154.9078689269
 20
36.8207194872
  0
LWPOLYLINE
  5
653
100
AcDbEntity
  8
ASSI
100
AcDbPolyline
 62
250
  6
CONTINUOUS
 90
9
 70
0
 10
155.2054712555
 20
66.6918860167
 10
155.2037616521
 20
62.9693764509
 10
155.2026219167
 20
59.2464345233
 10
155.2020520497
 20
55.5227715788
 10
155.2020520507
 20
51.7986762725
 10
155.2026219191
 20
48.0750145695
 10
155.2037616545
 20
44.3520751248
 10
155.2054712571
 20
40.6295692832
 10
155.2078219467
 20
36.8548685771
  0
LINE
  5
654
100
AcDbEntity
  8
ASSI
100
AcDbLine
 62
250
  6
CONTINUOUS
 10
154.9080081559
 20
70.5751019079
 11
154.9055169467
 21
66.7015636597
  0
LINE
  5
655
100
AcDbEntity
  8
ASSI
100
AcDbLine
 62
250
  6
CONTINUOUS
 10
155.2079601606
 20
70.5183423486
 11
155.2054712555
 21
66.6918860167
  0
LINE
  5
656
100
AcDbEntity
  8
ASSI
100
AcDbLine
 62
250
  6
CONTINUOUS
 10
154.9084874255
 20
70.7201390019
 11
154.9080081559
 21
70.5751019079
  0
LINE
  5
657
100
AcDbEntity
  8
ASSI
100
AcDbLine
 62
250
  6
CONTINUOUS
 10
155.2084386056
 20
70.6193271906
 11
155.2079601606
 21
70.5183423486
  0
LINE
  5
658
100
AcDbEntity
  8
ASSI
100
AcDbLine
 62
250
  6
CONTINUOUS
 10
154.9092295369
 20
70.8577381035
 11
154.9084874255
 21
70.7201390019
  0
LINE
  5
659
100
AcDbEntity
  8
ASSI
100
AcDbLine
 62
250
  6
CONTINUOUS
 10
154.9102219368
 20
70.9852113779
 11
154.9092295369
 21
70.8577381035
  0
LINE
  5
65A
100
AcDbEntity
  8
ASSI
100
AcDbLine
 62
250
  6
CONTINUOUS
 10
155.2091813854
 20
70.7160487885
 11
155.2084386056
 21
70.6193271906
  0
LINE
  5
65B
100
AcDbEntity
  8
ASSI
100
AcDbLine
 62
250
  6
CONTINUOUS
 10
154.911434846
 20
71.099120544
 11
154.9102219368
 21
70.9852113779
  0
LINE
  5
65C
100
AcDbEntity
  8
ASSI
100
AcDbLine
 62
250
  6
CONTINUOUS
 10
155.2101761885
 20
70.8055997203
 11
155.2091813854
 21
70.7160487885
  0
LINE
  5
65D
100
AcDbEntity
  8
ASSI
100
AcDbLine
 62
250
  6
CONTINUOUS
 10
155.2113921491
 20
70.8853622256
 11
155.2101761885
 21
70.8055997203
  0
LWPOLYLINE
  5
65E
100
AcDbEntity
  8
RACCORDO
100
AcDbPolyline
 62
250
  6
CONTINUOUS
 90
31
 70
0
 10
155.2836681444
 20
31.5272433375
 10
155.2833235016
 20
31.5141582034
 10
155.2822945006
 20
31.5011089201
 10
155.280583959
 20
31.488131264
 10
155.2781965603
 20
31.475260805
 10
155.2751388476
 20
31.462532841
 10
155.2714192106
 20
31.4499823004
 10
155.2670478512
 20
31.4376435987
 10
155.2620367539
 20
31.425550557
 10
155.2563996642
 20
31.4137363406
 10
155.2501520414
 20
31.4022333406
 10
155.243311016
 20
31.39107309
 10
155.2358953487
 20
31.3802861871
 10
155.2279253634
 20
31.3699021907
 10
155.2194229227
 20
31.3599495806
 10
155.210411377
 20
31.3504556775
 10
155.2009154813
 20
31.3414465375
 10
155.1909612407
 20
31.3329468098
 10
155.1805758628
 20
31.324979722
 10
155.1697876688
 20
31.3175670242
 10
155.1586263687
 20
31.3107291535
 10
155.1471229295
 20
31.3044850494
 10
155.1353091606
 20
31.298851886
 10
155.1232172391
 20
31.2938449165
 10
155.1108799611
 20
31.2894776891
 10
155.0983283623
 20
31.2857614309
 10
155.0855995489
 20
31.2827073649
 10
155.0727365702
 20
31.280325156
 10
155.0597776234
 20
31.2786203448
 10
155.0467556201
 20
31.2775957412
 10
155.0337062206
 20
31.2772528567
  0
LINE
  5
65F
100
AcDbEntity
  8
RACCORDO
100
AcDbLine
 62
7
  6
CONTINUOUS
 10
139.0387897723
 20
31.1624602754
 11
139.1094926325
 21
31.2331631355
  0
LINE
  5
660
100
AcDbEntity
  8
RACCORDO
100
AcDbLine
 62
7
  6
CONTINUOUS
 10
139.0387897723
 20
76.1589999904
 11
139.1094926325
 21
76.0882971302
  0
LWPOLYLINE
  5
661
100
AcDbEntity
  8
ASSI
100
AcDbPolyline
 62
250
  6
CONTINUOUS
 90
13
 70
0
 10
155.2178380341
 20
71.0757155959
 10
155.2151636166
 20
71.114202702
 10
155.2074226755
 20
71.1520342763
 10
155.1947469834
 20
71.1885655271
 10
155.177352424
 20
71.2231737945
 10
155.1555353227
 20
71.2552691551
 10
155.1296674056
 20
71.2843044815
 10
155.1001894214
 20
71.3097848133
 10
155.0676037409
 20
71.3312756941
 10
155.0324658429
 20
71.3484106264
 10
154.9953746693
 20
71.3608974427
 10
154.956962382
 20
71.3685232345
 10
154.9178837256
 20
71.3711579223
  0
LWPOLYLINE
  5
662
100
AcDbEntity
  8
RACCORDO
100
AcDbPolyline
 62
7
  6
CONTINUOUS
 90
28
 70
0
 10
155.3746221626
 20
75.8396904739
 10
155.3738665718
 20
75.8521648822
 10
155.3724663713
 20
75.8645952504
 10
155.3704167583
 20
75.8769815784
 10
155.3677137437
 20
75.8893511539
 10
155.3643531794
 20
75.9016766893
 10
155.3603299514
 20
75.9138763216
 10
155.3556407088
 20
75.9259520225
 10
155.3502818973
 20
75.9379018203
 10
155.3442468877
 20
75.9496379367
 10
155.3375328853
 20
75.9611638086
 10
155.3301364336
 20
75.9724759992
 10
155.3220477783
 20
75.9834764195
 10
155.3132639672
 20
75.9941713922
 10
155.3037815588
 20
76.0045545946
 10
155.2935871416
 20
76.014508969
 10
155.2826773614
 20
76.0240450426
 10
155.2710487927
 20
76.0331522882
 10
155.2586846038
 20
76.0416820664
 10
155.2455807056
 20
76.0496516694
 10
155.2317342701
 20
76.057043805
 10
155.2171272121
 20
76.0636579576
 10
155.2017511865
 20
76.0695230947
 10
155.1856082944
 20
76.0746102487
 10
155.1686952418
 20
76.0786320015
 10
155.1510107731
 20
76.0814925472
 10
155.1325559441
 20
76.0832876918
 10
155.1133323371
 20
76.0840174352
  0
LWPOLYLINE
  5
663
100
AcDbEntity
  8
ASSI
100
AcDbPolyline
 62
250
  6
CONTINUOUS
 90
13
 70
0
 10
155.2178380341
 20
36.2457446698
 10
155.2151633359
 20
36.2072555078
 10
155.2074216816
 20
36.1694223709
 10
155.194745023
 20
36.1328901027
 10
155.1773494265
 20
36.0982813742
 10
155.1555313896
 20
36.0661860708
 10
155.1296627881
 20
36.037151238
 10
155.1001845368
 20
36.0116717576
 10
155.0675990754
 20
35.9901819123
 10
155.0324618038
 20
35.9730479841
 10
154.9953716162
 20
35.9605620107
 10
154.9569606929
 20
35.9529368083
 10
154.9178837256
 20
35.9503023439
  0
LWPOLYLINE
  5
664
100
AcDbEntity
  8
0
100
AcDbPolyline
 62
7
  6
CONTINUOUS
 90
13
 70
0
 43
0.3500000006
 10
160.9460112305
 20
54.0893028717
 10
160.7317267456
 20
53.803587204
 10
160.088873291
 20
53.803587204
 10
159.6602861938
 20
54.0893028717
 10
159.6602861938
 20
54.7321608582
 10
160.088873291
 20
55.017871994
 10
160.7317267456
 20
55.017871994
 10
160.9460112305
 20
54.7321608582
 10
161.3745802002
 20
55.1607298279
 10
162.2317181396
 20
55.1607298279
 10
162.6602871094
 20
54.7321608582
 10
162.6602871094
 20
54.0893028717
 10
162.2317181396
 20
53.6607293701
  0
LINE
  5
665
100
AcDbEntity
  8
RACCORDO
100
AcDbLine
 62
250
  6
CONTINUOUS
 10
130.6459648842
 20
31.4817697919
 11
130.7369189023
 21
31.5272433375
  0
LINE
  5
666
100
AcDbEntity
  8
RACCORDO
100
AcDbLine
 62
250
  6
CONTINUOUS
 10
130.9072547097
 20
31.2374428306
 11
130.9868808261
 21
31.2772528567
  0
LINE
  5
667
100
AcDbEntity
  8
RACCORDO
100
AcDbLine
 62
250
  6
CONTINUOUS
 10
130.7369189023
 20
75.7942169283
 11
130.6459648842
 21
75.8396904739
  0
LINE
  5
668
100
AcDbEntity
  8
RACCORDO
100
AcDbLine
 62
250
  6
CONTINUOUS
 10
130.9072547097
 20
76.0840174352
 11
130.9868808261
 21
76.044207409
  0
LINE
  5
669
100
AcDbEntity
  8
RACCORDO
100
AcDbLine
 62
250
  6
CONTINUOUS
 10
130.6459648842
 20
29.9285358983
 11
130.6102935234
 21
29.9107015763
  0
LINE
  5
66A
100
AcDbEntity
  8
RACCORDO
100
AcDbLine
 62
250
  6
CONTINUOUS
 10
130.895926808
 20
29.6785454176
 11
130.8602935248
 21
29.6607301329
  0
LINE
  5
66B
100
AcDbEntity
  8
ASSI
100
AcDbLine
 62
250
  6
CONTINUOUS
 10
154.9077964185
 20
70.4257973859
 11
131.1127906282
 21
70.4257973859
  0
LINE
  5
66C
100
AcDbEntity
  8
RACCORDO
100
AcDbLine
 62
250
  6
CONTINUOUS
 10
130.6102935234
 20
77.4107586895
 11
130.6459648842
 21
77.3929243674
  0
LINE
  5
66D
100
AcDbEntity
  8
RACCORDO
100
AcDbLine
 62
250
  6
CONTINUOUS
 10
130.8602935248
 20
77.6607301329
 11
130.895926808
 21
77.6429148482
  0
LWPOLYLINE
  5
66E
100
AcDbEntity
  8
0
100
AcDbPolyline
 62
7
  6
CONTINUOUS
 90
10
 70
0
 43
0.3500000006
 10
143.9745748901
 20
87.9630873413
 10
144.046006073
 20
87.8202340393
 10
144.046006073
 20
87.7488028564
 10
143.903152771
 20
87.6059495544
 10
143.8317215881
 20
87.6059495544
 10
143.7602904053
 20
87.6773807373
 10
143.7602904053
 20
87.7488028564
 10
143.8317215881
 20
87.8916652222
 10
143.903152771
 20
87.9630873413
 10
143.9745748901
 20
87.9630873413
  0
LINE
  5
66F
100
AcDbEntity
  8
ASSI
100
AcDbLine
 62
250
  6
CONTINUOUS
 10
154.9178837256
 20
71.3711579218
 11
131.1027033211
 21
71.3711579218
  0
LINE
  5
670
100
AcDbEntity
  8
ASSI
100
AcDbLine
 62
250
  6
CONTINUOUS
 10
155.3102935234
 20
71.9607301329
 11
155.2753833935
 21
71.9607301329
  0
LINE
  5
671
100
AcDbEntity
  8
ASSI
100
AcDbLine
 62
250
  6
CONTINUOUS
 10
130.7452036532
 20
71.9607301329
 11
130.7102935234
 21
71.9607301329
  0
LINE
  5
672
100
AcDbEntity
  8
ASSI
100
AcDbLine
 62
7
  6
CONTINUOUS
 10
131.0443400396
 20
71.9607301329
 11
154.9762470072
 21
71.9607301329
  0
LINE
  5
673
100
AcDbEntity
  8
ASSI
100
AcDbLine
 62
7
  6
CONTINUOUS
 10
131.0452493516
 20
72.2607301329
 11
154.9753376951
 21
72.2607301329
  0
LINE
  5
674
100
AcDbEntity
  8
RACCORDO
100
AcDbLine
 62
7
  6
CONTINUOUS
 10
130.6364761208
 20
72.4607301329
 11
155.384110926
 21
72.4607301329
  0
LWPOLYLINE
  5
675
100
AcDbEntity
  8
0
100
AcDbPolyline
 62
7
  6
CONTINUOUS
 90
3
 70
0
 43
0.3500000006
 10
162.0174336548
 20
52.8035868988
 10
162.0174336548
 20
51.303586441
 10
159.6602861938
 20
51.9464444275
  0
LINE
  5
676
100
AcDbEntity
  8
RACCORDO
100
AcDbLine
 62
7
  6
CONTINUOUS
 10
149.2120236659
 20
31.1624602754
 11
149.2913501749
 21
31.2417867844
  0
LWPOLYLINE
  5
677
100
AcDbEntity
  8
ASSI
100
AcDbPolyline
 62
250
  6
CONTINUOUS
 90
13
 70
0
 10
155.2077507266
 20
36.907497045
 10
155.2045637625
 20
36.9059692927
 10
155.1964113716
 20
36.9044671138
 10
155.1834299573
 20
36.9030156422
 10
155.1658367212
 20
36.9016391637
 10
155.1439260287
 20
36.9003607091
 10
155.1180644836
 20
36.899201669
 10
155.0886847945
 20
36.8981814363
 10
155.0562785344
 20
36.8973170811
 10
155.0213879162
 20
36.8966230655
 10
154.9845967204
 20
36.8961110014
 10
154.9465205277
 20
36.8957894566
 10
154.9077964186
 20
36.8956638111
  0
LWPOLYLINE
  5
678
100
AcDbEntity
  8
RACCORDO
100
AcDbPolyline
 62
250
  6
CONTINUOUS
 90
9
 70
0
 10
130.895926808
 20
77.6429148482
 10
130.8970141446
 20
77.6426624392
 10
130.8992434157
 20
77.6424113545
 10
130.9026146211
 20
77.6421615942
 10
130.9071367251
 20
77.6419127497
 10
130.9128007634
 20
77.6416652295
 10
130.9195798441
 20
77.6414202594
 10
130.9274794295
 20
77.641177863
 10
130.9465804481
 20
77.6407018757
  0
LWPOLYLINE
  5
679
100
AcDbEntity
  8
ASSI
100
AcDbPolyline
 62
250
  6
CONTINUOUS
 90
13
 70
0
 10
155.2077507271
 20
70.4139632208
 10
155.2045658338
 20
70.4154910684
 10
155.1964151034
 20
70.4169933505
 10
155.183434922
 20
70.4184449295
 10
155.1658424866
 20
70.419821516
 10
155.1439321711
 20
70.4211000757
 10
155.1180706005
 20
70.4222592146
 10
155.0886905159
 20
70.4232795366
 10
155.0562835337
 20
70.4241439689
 10
155.0213919193
 20
70.4248380471
 10
154.9845995135
 20
70.4253501574
 10
154.9465219629
 20
70.4256717306
 10
154.9077964185
 20
70.4257973858
  0
LINE
  5
67A
100
AcDbEntity
  8
RACCORDO
100
AcDbLine
 62
7
  6
CONTINUOUS
 10
149.2120236659
 20
76.1589999904
 11
149.2913501749
 21
76.0796734814
  0
LINE
  5
67B
100
AcDbEntity
  8
RACCORDO
100
AcDbLine
 62
250
  6
CONTINUOUS
 10
130.7369189023
 20
75.7942169283
 11
155.2836681444
 21
75.7942169283
  0
LINE
  5
67C
100
AcDbEntity
  8
RACCORDO
100
AcDbLine
 62
250
  6
CONTINUOUS
 10
155.0337062206
 20
76.044207409
 11
130.9868808261
 21
76.044207409
  0
LINE
  5
67D
100
AcDbEntity
  8
DRAFT
100
AcDbLine
 62
7
  6
CONTINUOUS
 10
139.1094926325
 20
76.0882971302
 11
146.9110944142
 21
76.0882971302
  0
LINE
  5
67E
100
AcDbEntity
  8
RACCORDO
100
AcDbLine
 62
250
  6
CONTINUOUS
 10
136.8085633809
 20
76.1589999904
 11
139.0387897723
 21
76.1589999904
  0
LINE
  5
67F
100
AcDbEntity
  8
RACCORDO
100
AcDbLine
 62
250
  6
CONTINUOUS
 10
146.9817972744
 20
76.1589999904
 11
149.2120236659
 21
76.1589999904
  0
LINE
  5
680
100
AcDbEntity
  8
DRAFT
100
AcDbLine
 62
7
  6
CONTINUOUS
 10
132.6635274169
 20
76.1607301329
 11
135.0102935234
 21
76.1607301329
  0
LINE
  5
681
100
AcDbEntity
  8
DRAFT
100
AcDbLine
 62
7
  6
CONTINUOUS
 10
151.0102935234
 20
76.1607301329
 11
153.3570596298
 21
76.1607301329
  0
LINE
  5
682
100
AcDbEntity
  8
RACCORDO
100
AcDbLine
 62
7
  6
CONTINUOUS
 10
146.9817972744
 20
76.1638401881
 11
146.9602935234
 21
76.1638401881
  0
LINE
  5
683
100
AcDbEntity
  8
RACCORDO
100
AcDbLine
 62
7
  6
CONTINUOUS
 10
139.0387897723
 20
76.1638401881
 11
139.0602935234
 21
76.1638401881
  0
LWPOLYLINE
  5
684
100
AcDbEntity
  8
RACCORDO
100
AcDbPolyline
 62
7
  6
CONTINUOUS
 90
25
 70
0
 10
139.0602935234
 20
76.1638401881
 10
139.0734661495
 20
76.1637031691
 10
139.086472171
 20
76.1633073241
 10
139.0993115878
 20
76.1626526532
 10
139.1120378006
 20
76.1617341505
 10
139.1245974086
 20
76.1605568219
 10
139.1368302098
 20
76.1591356845
 10
139.1487320178
 20
76.1574676153
 10
139.1603070189
 20
76.1555557374
 10
139.17140757
 20
76.1534244374
 10
139.1820275934
 20
76.1510709046
 10
139.1921731667
 20
76.1484979497
 10
139.2017148796
 20
76.1457383917
 10
139.2106449968
 20
76.1427898403
 10
139.2189712537
 20
76.1396546857
 10
139.2265874458
 20
76.136372918
 10
139.2334844775
 20
76.1329426591
 10
139.2396714445
 20
76.129365787
 10
139.2450694299
 20
76.1256879261
 10
139.2496683269
 20
76.1219077826
 10
139.2534782424
 20
76.1180266503
 10
139.2564505795
 20
76.1140940343
 10
139.2585691392
 20
76.1101264363
 10
139.2598501205
 20
76.1061073546
 10
139.2602935234
 20
76.1020367893
  0
LWPOLYLINE
  5
685
100
AcDbEntity
  8
RACCORDO
100
AcDbPolyline
 62
250
  6
CONTINUOUS
 90
7
 70
0
 10
130.6459648842
 20
77.3929243674
 10
130.6474196375
 20
77.3926717269
 10
130.6504246251
 20
77.3924204741
 10
130.65497487
 20
77.3921706088
 10
130.6610627757
 20
77.391921744
 10
130.6686785366
 20
77.3916742668
 10
130.6884446508
 20
77.3911869606
  0
LINE
  5
686
100
AcDbEntity
  8
RACCORDO
100
AcDbLine
 62
7
  6
CONTINUOUS
 10
149.2102935234
 20
76.9107301329
 11
149.2913501749
 21
76.8296734814
  0
LINE
  5
687
100
AcDbEntity
  8
DRAFT
100
AcDbLine
 62
7
  6
CONTINUOUS
 10
153.3570596298
 20
31.1607301329
 11
153.4102935234
 21
31.2139640264
  0
LINE
  5
688
100
AcDbEntity
  8
RACCORDO
100
AcDbLine
 62
7
  6
CONTINUOUS
 10
153.4102935234
 20
31.2139640264
 11
153.4280537233
 21
31.2317242263
  0
LINE
  5
689
100
AcDbEntity
  8
RACCORDO
100
AcDbLine
 62
250
  6
CONTINUOUS
 10
153.4280537233
 20
29.9284808135
 11
153.4102935234
 21
29.9107206136
  0
LWPOLYLINE
  5
68A
100
AcDbEntity
  8
RACCORDO
100
AcDbPolyline
 62
7
  6
CONTINUOUS
 90
28
 70
0
 10
130.9072547097
 20
76.0840174352
 10
130.8880311026
 20
76.0832876918
 10
130.8695762736
 20
76.0814925472
 10
130.8518918049
 20
76.0786320015
 10
130.8349787524
 20
76.0746102487
 10
130.8188358602
 20
76.0695230947
 10
130.8034598347
 20
76.0636579576
 10
130.7888527766
 20
76.057043805
 10
130.7750063412
 20
76.0496516694
 10
130.761902443
 20
76.0416820664
 10
130.7495382541
 20
76.0331522882
 10
130.7379096853
 20
76.0240450426
 10
130.7269999052
 20
76.014508969
 10
130.7168054879
 20
76.0045545946
 10
130.7073230795
 20
75.9941713922
 10
130.6985392684
 20
75.9834764195
 10
130.6904506131
 20
75.9724759992
 10
130.6830541614
 20
75.9611638086
 10
130.6763401591
 20
75.9496379367
 10
130.6703051494
 20
75.9379018203
 10
130.6649463379
 20
75.9259520225
 10
130.6602570954
 20
75.9138763216
 10
130.6562338673
 20
75.9016766893
 10
130.6528733031
 20
75.8893511539
 10
130.6501702885
 20
75.8769815784
 10
130.6481206755
 20
75.8645952504
 10
130.646720475
 20
75.8521648822
 10
130.6459648842
 20
75.8396904739
  0
LWPOLYLINE
  5
68B
100
AcDbEntity
  8
RACCORDO
100
AcDbPolyline
 62
250
  6
CONTINUOUS
 90
7
 70
0
 10
132.3203894482
 20
77.6414737478
 10
132.3269226226
 20
77.6417192302
 10
132.3323382747
 20
77.6419671777
 10
132.3366106938
 20
77.6422163462
 10
132.3397313097
 20
77.6424663208
 10
132.3417086927
 20
77.6427175164
 10
132.3425428427
 20
77.642969933
  0
LWPOLYLINE
  5
68C
100
AcDbEntity
  8
RACCORDO
100
AcDbPolyline
 62
250
  6
CONTINUOUS
 90
7
 70
0
 10
155.1010115621
 20
77.6414204072
 10
155.1077899598
 20
77.6416653827
 10
155.113453343
 20
77.6419129083
 10
155.1179747579
 20
77.6421617418
 10
155.1213452199
 20
77.6424114693
 10
155.1235737135
 20
77.6426625048
 10
155.1246602388
 20
77.6429148482
  0
LWPOLYLINE
  5
68D
100
AcDbEntity
  8
RACCORDO
100
AcDbPolyline
 62
250
  6
CONTINUOUS
 90
6
 70
0
 10
132.5715026255
 20
77.3917281201
 10
132.5787854439
 20
77.3919760211
 10
132.5845380318
 20
77.3922252213
 10
132.5887511226
 20
77.3924753324
 10
132.591417693
 20
77.3927267427
 10
132.5925333235
 20
77.3929794522
  0
LWPOLYLINE
  5
68E
100
AcDbEntity
  8
RACCORDO
100
AcDbPolyline
 62
250
  6
CONTINUOUS
 90
6
 70
0
 10
155.3519086963
 20
77.3916742737
 10
155.3595244511
 20
77.3919217526
 10
155.365612318
 20
77.3921706177
 10
155.3701625027
 20
77.3924204814
 10
155.3731674373
 20
77.3926717313
 10
155.3746221626
 20
77.3929243674
  0
LWPOLYLINE
  5
68F
100
AcDbEntity
  8
RACCORDO
100
AcDbPolyline
 62
250
  6
CONTINUOUS
 90
28
 70
0
 10
153.678044204
 20
77.642969933
 10
153.6635092641
 20
77.6425459234
 10
153.6490235
 20
77.6412775427
 10
153.6346359223
 20
77.6391690822
 10
153.6203952092
 20
77.6362276754
 10
153.606349542
 20
77.632463274
 10
153.5925464424
 20
77.627888614
 10
153.579032611
 20
77.6225191731
 10
153.56585377
 20
77.6163731178
 10
153.5530545083
 20
77.6094712423
 10
153.5406781303
 20
77.601836898
 10
153.5287665098
 20
77.5934959143
 10
153.5173599481
 20
77.5844765119
 10
153.5064970378
 20
77.5748092063
 10
153.496214532
 20
77.5645267055
 10
153.4865472204
 20
77.5536637987
 10
153.4775278108
 20
77.5422572391
 10
153.4691868194
 20
77.5303456189
 10
153.4615524668
 20
77.5179692396
 10
153.4546505829
 20
77.5051699747
 10
153.4485045191
 20
77.4919911287
 10
153.4431350701
 20
77.4784772904
 10
153.4385604026
 20
77.464674182
 10
153.4347959944
 20
77.4506285043
 10
153.431854582
 20
77.4363877791
 10
153.4297461172
 20
77.4220001877
 10
153.4284777338
 20
77.4075144085
 10
153.4280537233
 20
77.3929794522
  0
LWPOLYLINE
  5
690
100
AcDbEntity
  8
RACCORDO
100
AcDbPolyline
 62
250
  6
CONTINUOUS
 90
28
 70
0
 10
130.895926808
 20
77.6429148482
 10
130.881394232
 20
77.6424897729
 10
130.8669108192
 20
77.641220412
 10
130.8525255672
 20
77.6391110596
 10
130.8382871418
 20
77.6361688516
 10
130.8242437119
 20
77.6324037413
 10
130.8104427868
 20
77.6278284662
 10
130.7969310556
 20
77.6224585042
 10
130.7837542286
 20
77.616312022
 10
130.7709568837
 20
77.6094098133
 10
130.7585823147
 20
77.6017752281
 10
130.746672385
 20
77.5934340944
 10
130.7352673865
 20
77.5844146304
 10
130.7244059027
 20
77.5747473491
 10
130.7141246784
 20
77.5644649551
 10
130.7044584953
 20
77.553602234
 10
130.6954400546
 20
77.5421959346
 10
130.687099866
 20
77.5302846447
 10
130.6794661447
 20
77.5179086605
 10
130.6725647159
 20
77.5051098504
 10
130.6664189274
 20
77.4919315131
 10
130.6610495707
 20
77.4784182312
 10
130.6564748106
 20
77.4646157208
 10
130.6527101238
 20
77.4505706759
 10
130.6497682462
 20
77.4363306117
 10
130.6476591305
 20
77.4219437026
 10
130.6463899119
 20
77.40745862
 10
130.6459648842
 20
77.3929243674
  0
LINE
  5
691
100
AcDbEntity
  8
RACCORDO
100
AcDbLine
 62
250
  6
CONTINUOUS
 10
132.3039596086
 20
77.6409902354
 11
132.3203894482
 21
77.6414737478
  0
LINE
  5
692
100
AcDbEntity
  8
RACCORDO
100
AcDbLine
 62
250
  6
CONTINUOUS
 10
155.0840988571
 20
77.6409381644
 11
155.1010115621
 21
77.6414204072
  0
LINE
  5
693
100
AcDbEntity
  8
RACCORDO
100
AcDbLine
 62
250
  6
CONTINUOUS
 10
132.5523933411
 20
77.3912397133
 11
132.5715026255
 21
77.3917281201
  0
LINE
  5
694
100
AcDbEntity
  8
RACCORDO
100
AcDbLine
 62
250
  6
CONTINUOUS
 10
155.3321426115
 20
77.3911869665
 11
155.3519086963
 21
77.3916742737
  0
LINE
  5
695
100
AcDbEntity
  8
RACCORDO
100
AcDbLine
 62
250
  6
CONTINUOUS
 10
132.2831809392
 20
77.6405200799
 11
132.3039596086
 21
77.6409902354
  0
LINE
  5
696
100
AcDbEntity
  8
RACCORDO
100
AcDbLine
 62
250
  6
CONTINUOUS
 10
155.062850846
 20
77.6404696093
 11
155.0840988571
 21
77.6409381644
  0
LINE
  5
697
100
AcDbEntity
  8
RACCORDO
100
AcDbLine
 62
250
  6
CONTINUOUS
 10
132.5273310012
 20
77.3907623259
 11
132.5523933411
 21
77.3912397133
  0
LINE
  5
698
100
AcDbEntity
  8
RACCORDO
100
AcDbLine
 62
250
  6
CONTINUOUS
 10
132.2441064078
 20
77.6398453525
 11
132.2831809392
 21
77.6405200799
  0
LINE
  5
699
100
AcDbEntity
  8
RACCORDO
100
AcDbLine
 62
250
  6
CONTINUOUS
 10
155.2914114867
 20
77.3904786232
 11
155.3321426115
 21
77.3911869665
  0
LINE
  5
69A
100
AcDbEntity
  8
RACCORDO
100
AcDbLine
 62
250
  6
CONTINUOUS
 10
155.0231031114
 20
77.6397978835
 11
155.062850846
 21
77.6404696093
  0
LINE
  5
69B
100
AcDbEntity
  8
RACCORDO
100
AcDbLine
 62
250
  6
CONTINUOUS
 10
132.4600297748
 20
77.389854431
 11
132.5273310012
 21
77.3907623259
  0
LWPOLYLINE
  5
69C
100
AcDbEntity
  8
RACCORDO
100
AcDbPolyline
 62
7
  6
CONTINUOUS
 90
25
 70
0
 10
147.3102935234
 20
77.5715007995
 10
147.3234661495
 20
77.5716378185
 10
147.336472171
 20
77.5720336635
 10
147.3493115878
 20
77.5726883345
 10
147.3620378006
 20
77.5736068371
 10
147.3745974086
 20
77.5747841658
 10
147.3868302098
 20
77.5762053031
 10
147.3987320178
 20
77.5778733723
 10
147.4103070189
 20
77.5797852503
 10
147.42140757
 20
77.5819165503
 10
147.4320275934
 20
77.5842700831
 10
147.4421731667
 20
77.5868430379
 10
147.4517148796
 20
77.5896025959
 10
147.4606449968
 20
77.5925511474
 10
147.4689712537
 20
77.5956863019
 10
147.4765874458
 20
77.5989680696
 10
147.4834844775
 20
77.6023983286
 10
147.4896714445
 20
77.6059752006
 10
147.4950694299
 20
77.6096530615
 10
147.4996683269
 20
77.613433205
 10
147.5034782424
 20
77.6173143373
 10
147.5064505795
 20
77.6212469534
 10
147.5085691392
 20
77.6252145514
 10
147.5098501205
 20
77.629233633
 10
147.5102935234
 20
77.6333041984
  0
LINE
  5
69D
100
AcDbEntity
  8
RACCORDO
100
AcDbLine
 62
250
  6
CONTINUOUS
 10
132.1593906132
 20
77.6388264906
 11
132.2441064078
 21
77.6398453525
  0
LINE
  5
69E
100
AcDbEntity
  8
RACCORDO
100
AcDbLine
 62
250
  6
CONTINUOUS
 10
154.9373717462
 20
77.638785512
 11
155.0231031114
 21
77.6397978835
  0
LINE
  5
69F
100
AcDbEntity
  8
RACCORDO
100
AcDbLine
 62
250
  6
CONTINUOUS
 10
155.1955373183
 20
77.3893842071
 11
155.2914114867
 21
77.3904786232
  0
LINE
  5
6A0
100
AcDbEntity
  8
RACCORDO
100
AcDbLine
 62
250
  6
CONTINUOUS
 10
132.2920564732
 20
77.3884728325
 11
132.4600297748
 21
77.389854431
  0
LINE
  5
6A1
100
AcDbEntity
  8
RACCORDO
100
AcDbLine
 62
250
  6
CONTINUOUS
 10
131.9808968857
 20
77.6375580678
 11
132.1593906132
 21
77.6388264906
  0
LINE
  5
6A2
100
AcDbEntity
  8
RACCORDO
100
AcDbLine
 62
250
  6
CONTINUOUS
 10
154.7576164975
 20
77.6375307308
 11
154.9373717462
 21
77.638785512
  0
LINE
  5
6A3
100
AcDbEntity
  8
RACCORDO
100
AcDbLine
 62
250
  6
CONTINUOUS
 10
154.9785365732
 20
77.3879510595
 11
155.1955373183
 21
77.3893842071
  0
LINE
  5
6A4
100
AcDbEntity
  8
RACCORDO
100
AcDbLine
 62
250
  6
CONTINUOUS
 10
131.9655762874
 20
77.3871349624
 11
132.2920564732
 21
77.3884728325
  0
LINE
  5
6A5
100
AcDbEntity
  8
RACCORDO
100
AcDbLine
 62
250
  6
CONTINUOUS
 10
154.5903269396
 20
77.3868418373
 11
154.9785365732
 21
77.3879510595
  0
LINE
  5
6A6
100
AcDbEntity
  8
RACCORDO
100
AcDbLine
 62
250
  6
CONTINUOUS
 10
154.4271229547
 20
77.6367162262
 11
154.7576164975
 21
77.6375307308
  0
LINE
  5
6A7
100
AcDbEntity
  8
RACCORDO
100
AcDbLine
 62
250
  6
CONTINUOUS
 10
131.6512303457
 20
77.6367184258
 11
131.9808968857
 21
77.6375580678
  0
LINE
  5
6A8
100
AcDbEntity
  8
RACCORDO
100
AcDbLine
 62
250
  6
CONTINUOUS
 10
136.8102935234
 20
76.358992375
 11
137.0102935234
 21
76.358992375
  0
LINE
  5
6A9
100
AcDbEntity
  8
RACCORDO
100
AcDbLine
 62
250
  6
CONTINUOUS
 10
149.0102935234
 20
76.358992375
 11
149.2102935234
 21
76.358992375
  0
LINE
  5
6AA
100
AcDbEntity
  8
DRAFT
100
AcDbLine
 62
7
  6
CONTINUOUS
 10
135.0102935234
 20
76.9107301329
 11
137.0102935234
 21
76.9107301329
  0
LINE
  5
6AB
100
AcDbEntity
  8
DRAFT
100
AcDbLine
 62
7
  6
CONTINUOUS
 10
149.0102935234
 20
76.9107301329
 11
151.0102935234
 21
76.9107301329
  0
LINE
  5
6AC
100
AcDbEntity
  8
RACCORDO
100
AcDbLine
 62
7
  6
CONTINUOUS
 10
138.7102935234
 20
77.191078193
 11
139.3059637559
 21
77.191078193
  0
LINE
  5
6AD
100
AcDbEntity
  8
RACCORDO
100
AcDbLine
 62
7
  6
CONTINUOUS
 10
146.7146232908
 20
77.191078193
 11
147.3102935234
 21
77.191078193
  0
LINE
  5
6AE
100
AcDbEntity
  8
RACCORDO
100
AcDbLine
 62
7
  6
CONTINUOUS
 10
138.7102935234
 20
77.5715007995
 11
139.2682119085
 21
77.5715007995
  0
LINE
  5
6AF
100
AcDbEntity
  8
RACCORDO
100
AcDbLine
 62
7
  6
CONTINUOUS
 10
146.7523751383
 20
77.5715007995
 11
147.3102935234
 21
77.5715007995
  0
LINE
  5
6B0
100
AcDbEntity
  8
RACCORDO
100
AcDbLine
 62
7
  6
CONTINUOUS
 10
155.1602935219
 20
77.6607301329
 11
153.6602840041
 21
77.6607301329
  0
LINE
  5
6B1
100
AcDbEntity
  8
RACCORDO
100
AcDbLine
 62
7
  6
CONTINUOUS
 10
132.3603030426
 20
77.6607301329
 11
130.8602935248
 21
77.6607301329
  0
LINE
  5
6B2
100
AcDbEntity
  8
RACCORDO
100
AcDbLine
 62
7
  6
CONTINUOUS
 10
149.0102935234
 20
77.7130913396
 11
146.9435597582
 21
77.7130913396
  0
LINE
  5
6B3
100
AcDbEntity
  8
RACCORDO
100
AcDbLine
 62
7
  6
CONTINUOUS
 10
139.0770272886
 20
77.7130913396
 11
137.0102935234
 21
77.7130913396
  0
LINE
  5
6B4
100
AcDbEntity
  8
0
100
AcDbLine
 62
250
  6
CONTINUOUS
 10
149.0102935234
 20
78.0130913396
 11
137.0102935234
 21
78.0130913396
  0
LINE
  5
6B5
100
AcDbEntity
  8
RACCORDO
100
AcDbLine
 62
250
  6
CONTINUOUS
 10
131.4685393899
 20
77.3867978004
 11
131.9655762874
 21
77.3871349624
  0
LINE
  5
6B6
100
AcDbEntity
  8
RACCORDO
100
AcDbLine
 62
250
  6
CONTINUOUS
 10
154.0916106976
 20
77.3870500281
 11
154.5903269396
 21
77.3868418373
  0
LINE
  5
6B7
100
AcDbEntity
  8
RACCORDO
100
AcDbLine
 62
250
  6
CONTINUOUS
 10
131.3143412966
 20
77.6373002018
 11
131.6512303457
 21
77.6367184258
  0
LINE
  5
6B8
100
AcDbEntity
  8
RACCORDO
100
AcDbLine
 62
250
  6
CONTINUOUS
 10
154.090828446
 20
77.6373236354
 11
154.4271229547
 21
77.6367162262
  0
LINE
  5
6B9
100
AcDbEntity
  8
RACCORDO
100
AcDbLine
 62
250
  6
CONTINUOUS
 10
131.0112134237
 20
77.3881047321
 11
131.4685393899
 21
77.3867978004
  0
LINE
  5
6BA
100
AcDbEntity
  8
RACCORDO
100
AcDbLine
 62
250
  6
CONTINUOUS
 10
153.7009818742
 20
77.3886509058
 11
154.0916106976
 21
77.3870500281
  0
LINE
  5
6BB
100
AcDbEntity
  8
RACCORDO
100
AcDbLine
 62
250
  6
CONTINUOUS
 10
131.1030478358
 20
77.6386020948
 11
131.3143412966
 21
77.6373002018
  0
LINE
  5
6BC
100
AcDbEntity
  8
RACCORDO
100
AcDbLine
 62
250
  6
CONTINUOUS
 10
153.8808448099
 20
77.6386415699
 11
154.090828446
 21
77.6373236354
  0
LINE
  5
6BD
100
AcDbEntity
  8
RACCORDO
100
AcDbLine
 62
250
  6
CONTINUOUS
 10
130.8032086177
 20
77.3895926719
 11
131.0112134237
 21
77.3881047321
  0
LWPOLYLINE
  5
6BE
100
AcDbEntity
  8
RACCORDO
100
AcDbPolyline
 62
7
  6
CONTINUOUS
 90
25
 70
0
 10
138.7102935234
 20
77.191078193
 10
138.6971208972
 20
77.191215212
 10
138.6841148757
 20
77.191611057
 10
138.671275459
 20
77.1922657279
 10
138.6585492462
 20
77.1931842306
 10
138.6459896381
 20
77.1943615592
 10
138.6337568369
 20
77.1957826966
 10
138.6218550289
 20
77.1974507658
 10
138.6102800278
 20
77.1993626437
 10
138.5991794768
 20
77.2014939437
 10
138.5885594534
 20
77.2038474766
 10
138.5784138801
 20
77.2064204314
 10
138.5688721671
 20
77.2091799894
 10
138.5599420499
 20
77.2121285409
 10
138.5516157931
 20
77.2152636954
 10
138.5439996009
 20
77.2185454631
 10
138.5371025692
 20
77.221975722
 10
138.5309156023
 20
77.2255525941
 10
138.5255176169
 20
77.229230455
 10
138.5209187198
 20
77.2330105985
 10
138.5171088043
 20
77.2368917308
 10
138.5141364673
 20
77.2408243469
 10
138.5120179076
 20
77.2447919448
 10
138.5107369263
 20
77.2488110265
 10
138.5102935234
 20
77.2528815918
  0
LINE
  5
6BF
100
AcDbEntity
  8
RACCORDO
100
AcDbLine
 62
250
  6
CONTINUOUS
 10
153.5605576845
 20
77.3898544243
 11
153.7009818742
 21
77.3886509058
  0
LINE
  5
6C0
100
AcDbEntity
  8
RACCORDO
100
AcDbLine
 62
250
  6
CONTINUOUS
 10
131.0127738042
 20
77.6395834343
 11
131.1030478358
 21
77.6386020948
  0
LINE
  5
6C1
100
AcDbEntity
  8
RACCORDO
100
AcDbLine
 62
250
  6
CONTINUOUS
 10
153.7915554891
 20
77.6396297471
 11
153.8808448099
 21
77.6386415699
  0
LINE
  5
6C2
100
AcDbEntity
  8
RACCORDO
100
AcDbLine
 62
250
  6
CONTINUOUS
 10
130.729175894
 20
77.3904786162
 11
130.8032086177
 21
77.3895926719
  0
LINE
  5
6C3
100
AcDbEntity
  8
RACCORDO
100
AcDbLine
 62
250
  6
CONTINUOUS
 10
153.4932563323
 20
77.390762319
 11
153.5605576845
 21
77.3898544243
  0
LINE
  5
6C4
100
AcDbEntity
  8
RACCORDO
100
AcDbLine
 62
250
  6
CONTINUOUS
 10
130.9699785238
 20
77.6402407544
 11
131.0127738042
 21
77.6395834343
  0
LINE
  5
6C5
100
AcDbEntity
  8
RACCORDO
100
AcDbLine
 62
250
  6
CONTINUOUS
 10
153.7494191213
 20
77.6402903013
 11
153.7915554891
 21
77.6396297471
  0
LINE
  5
6C6
100
AcDbEntity
  8
RACCORDO
100
AcDbLine
 62
250
  6
CONTINUOUS
 10
130.6884446508
 20
77.3911869606
 11
130.729175894
 21
77.3904786162
  0
LINE
  5
6C7
100
AcDbEntity
  8
RACCORDO
100
AcDbLine
 62
250
  6
CONTINUOUS
 10
153.468193915
 20
77.3912397074
 11
153.4932563323
 21
77.390762319
  0
LINE
  5
6C8
100
AcDbEntity
  8
RACCORDO
100
AcDbLine
 62
250
  6
CONTINUOUS
 10
130.9465804481
 20
77.6407018757
 11
130.9699785238
 21
77.6402407544
  0
LINE
  5
6C9
100
AcDbEntity
  8
RACCORDO
100
AcDbLine
 62
250
  6
CONTINUOUS
 10
153.7264830347
 20
77.640753187
 11
153.7494191213
 21
77.6402903013
  0
LWPOLYLINE
  5
6CA
100
AcDbEntity
  8
RACCORDO
100
AcDbPolyline
 62
250
  6
CONTINUOUS
 90
28
 70
0
 10
132.3425428427
 20
77.642969933
 10
132.3570777926
 20
77.6425459228
 10
132.3715635656
 20
77.6412775405
 10
132.3859511511
 20
77.6391690775
 10
132.4001918709
 20
77.6362276675
 10
132.4142375436
 20
77.6324632623
 10
132.4280406476
 20
77.6278885983
 10
132.4415544822
 20
77.6225191531
 10
132.4547333251
 20
77.6163730935
 10
132.4675325878
 20
77.6094712138
 10
132.4799089657
 20
77.6018368655
 10
132.4918205853
 20
77.5934958784
 10
132.5032271451
 20
77.5844764729
 10
132.5140900529
 20
77.5748091649
 10
132.5243725554
 20
77.5645266624
 10
132.5340398634
 20
77.5536637546
 10
132.5430592689
 20
77.5422571948
 10
132.551400256
 20
77.5303455753
 10
132.5590346043
 20
77.5179691973
 10
132.565936484
 20
77.5051699346
 10
132.5720825436
 20
77.4919910917
 10
132.5774519888
 20
77.4784772571
 10
132.5820266528
 20
77.4646741531
 10
132.585791058
 20
77.4506284805
 10
132.588732468
 20
77.4363877606
 10
132.590840931
 20
77.4220001751
 10
132.5921093133
 20
77.4075144021
 10
132.5925333235
 20
77.3929794522
  0
LWPOLYLINE
  5
6CB
100
AcDbEntity
  8
RACCORDO
100
AcDbPolyline
 62
250
  6
CONTINUOUS
 90
28
 70
0
 10
155.1246602388
 20
77.6429148482
 10
155.1391928246
 20
77.6424897723
 10
155.1536762464
 20
77.6412204098
 10
155.1680615062
 20
77.6391110549
 10
155.1822999383
 20
77.6361688437
 10
155.1963433737
 20
77.6324037297
 10
155.2101443031
 20
77.6278284504
 10
155.2236560376
 20
77.6224584842
 10
155.2368328665
 20
77.6163119977
 10
155.2496302124
 20
77.6094097848
 10
155.2620047814
 20
77.6017751957
 10
155.27391471
 20
77.5934340584
 10
155.2853197066
 20
77.5844145914
 10
155.2961811879
 20
77.5747473077
 10
155.306462409
 20
77.564464912
 10
155.3161285884
 20
77.5536021899
 10
155.3251470251
 20
77.5421958903
 10
155.3334872095
 20
77.530284601
 10
155.3411209265
 20
77.5179086183
 10
155.348022351
 20
77.5051098104
 10
155.3541681354
 20
77.491931476
 10
155.3595374882
 20
77.4784181979
 10
155.3641122448
 20
77.4646156918
 10
155.3678769287
 20
77.450570652
 10
155.3708188038
 20
77.4363305932
 10
155.3729279177
 20
77.42194369
 10
155.3741971352
 20
77.4074586136
 10
155.3746221626
 20
77.3929243674
  0
LINE
  5
6CC
100
AcDbEntity
  8
DRAFT
100
AcDbLine
 62
7
  6
CONTINUOUS
 10
153.3570596298
 20
76.1607301329
 11
153.4102935234
 21
76.1074962394
  0
LINE
  5
6CD
100
AcDbEntity
  8
RACCORDO
100
AcDbLine
 62
7
  6
CONTINUOUS
 10
153.4102935234
 20
76.1074962394
 11
153.4280537233
 21
76.0897360395
  0
LINE
  5
6CE
100
AcDbEntity
  8
RACCORDO
100
AcDbLine
 62
250
  6
CONTINUOUS
 10
153.4102935234
 20
77.4107396521
 11
153.4280537233
 21
77.3929794522
  0
LINE
  5
6CF
100
AcDbEntity
  8
RACCORDO
100
AcDbLine
 62
250
  6
CONTINUOUS
 10
153.678044204
 20
29.6784903328
 11
153.6602840041
 21
29.6607301329
  0
LINE
  5
6D0
100
AcDbEntity
  8
0
100
AcDbLine
 62
7
  6
CONTINUOUS
 10
149.0102935234
 20
78.7130913396
 11
137.0102935234
 21
78.7130913396
  0
LWPOLYLINE
  5
6D1
100
AcDbEntity
  8
0
100
AcDbPolyline
 62
7
  6
CONTINUOUS
 90
7
 70
0
 43
0.3500000006
 10
140.1174360352
 20
87.4630871887
 10
138.6174355774
 20
87.4630871887
 10
140.1174360352
 20
89.6059501648
 10
140.1174360352
 20
90.0345191345
 10
139.6888670654
 20
90.4630881042
 10
139.0460045471
 20
90.4630881042
 10
138.6174355774
 20
89.8202346497
  0
LWPOLYLINE
  5
6D2
100
AcDbEntity
  8
0
100
AcDbPolyline
 62
7
  6
CONTINUOUS
 90
3
 70
0
 43
0.3500000006
 10
142.4745834961
 20
88.105949707
 10
140.9745830383
 20
88.105949707
 10
141.6174364929
 20
90.4630881042
  0
LWPOLYLINE
  5
6D3
100
AcDbEntity
  8
RACCORDO
100
AcDbPolyline
 62
250
  6
CONTINUOUS
 90
7
 70
0
 10
153.4280537233
 20
77.3929794522
 10
153.4291693776
 20
77.3927267383
 10
153.431835998
 20
77.392475325
 10
153.4360491473
 20
77.3922252124
 10
153.4418017742
 20
77.3919760125
 10
153.4490846
 20
77.3917281132
 10
153.468193915
 20
77.3912397074
  0
LWPOLYLINE
  5
6D4
100
AcDbEntity
  8
RACCORDO
100
AcDbPolyline
 62
250
  6
CONTINUOUS
 90
9
 70
0
 10
153.678044204
 20
77.642969933
 10
153.6788790998
 20
77.6427174508
 10
153.6808572109
 20
77.6424662059
 10
153.6839785376
 20
77.6422161983
 10
153.6882516347
 20
77.6419670189
 10
153.6936679473
 20
77.6417190768
 10
153.7002018101
 20
77.6414735998
 10
153.7078587088
 20
77.6412306109
 10
153.7264830347
 20
77.640753187
  0
LWPOLYLINE
  5
6D5
100
AcDbEntity
  8
0
100
AcDbPolyline
 62
7
  6
CONTINUOUS
 90
13
 70
0
 43
0.3500000006
 10
145.4745753479
 20
89.1773811951
 10
145.1888687439
 20
89.3916656799
 10
145.1888687439
 20
90.0345191345
 10
145.4745753479
 20
90.4630881042
 10
146.1174378662
 20
90.4630881042
 10
146.4031535339
 20
90.0345191345
 10
146.4031535339
 20
89.3916656799
 10
146.1174378662
 20
89.1773811951
 10
146.5460068359
 20
88.7488031616
 10
146.5460068359
 20
87.8916652222
 10
146.1174378662
 20
87.4630871887
 10
145.4745753479
 20
87.4630871887
 10
145.0460063782
 20
87.8916652222
  0
LINE
  5
6D6
100
AcDbEntity
  8
RACCORDO
100
AcDbLine
 62
250
  6
CONTINUOUS
 10
153.6602840041
 20
77.6607301329
 11
153.678044204
 21
77.642969933
  0
CIRCLE
  5
6D7
100
AcDbEntity
  8
INCISIONI
100
AcDbCircle
 62
250
  6
CONTINUOUS
 10
88.5968742893
 20
49.6607301329
 40
2.499913
  0
ARC
  5
6D8
100
AcDbEntity
  8
INCISIONI
100
AcDbCircle
 62
250
  6
CONTINUOUS
 10
88.5968742893
 20
49.6607301329
 40
1.8721818025
100
AcDbArc
 50
232.1799899467
 51
319.6797703449
  0
ARC
  5
6D9
100
AcDbEntity
  8
INCISIONI
100
AcDbCircle
 62
250
  6
CONTINUOUS
 10
88.5968742893
 20
49.6607301329
 40
1.8721816203
100
AcDbArc
 50
40.3202296551
 51
127.8200100533
  0
ARC
  5
6DA
100
AcDbEntity
  8
INCISIONI
100
AcDbCircle
 62
250
  6
CONTINUOUS
 10
92.1980712893
 20
50.2554231329
 40
1.1012835389
100
AcDbArc
 50
133.6301346094
 51
180.0
  0
ARC
  5
6DB
100
AcDbEntity
  8
ASSI
100
AcDbCircle
 62
7
  6
CONTINUOUS
 10
72.4268923051
 20
36.9351100969
 40
1.0
100
AcDbArc
 50
182.2607456281
 51
260.0
  0
ARC
  5
6DC
100
AcDbEntity
  8
RACCORDO
100
AcDbCircle
 62
7
  6
CONTINUOUS
 10
91.5968742893
 20
30.8005229803
 40
1.0
100
AcDbArc
 50
271.0
 51
360.0
  0
ARC
  5
6DD
100
AcDbEntity
  8
0
100
AcDbCircle
 62
7
  6
CONTINUOUS
 10
82.9110372732
 20
29.3083689261
 40
0.7
100
AcDbArc
 50
270.0
 51
288.0
  0
ARC
  5
6DE
100
AcDbEntity
  8
0
100
AcDbCircle
 62
7
  6
CONTINUOUS
 10
82.3968742893
 20
29.3083689261
 40
0.7
100
AcDbArc
 50
180.0
 51
270.0
  0
ARC
  5
6DF
100
AcDbEntity
  8
ASSI
100
AcDbCircle
 62
7
  6
CONTINUOUS
 10
78.4897675081
 20
35.4607301329
 40
0.5
100
AcDbArc
 50
315.0
 51
90.0
  0
ARC
  5
6E0
100
AcDbEntity
  8
RACCORDO
100
AcDbCircle
 62
7
  6
CONTINUOUS
 10
111.0968742893
 20
35.3908205824
 40
0.5
100
AcDbArc
 50
271.0
 51
360.0
  0
ARC
  5
6E1
100
AcDbEntity
  8
RACCORDO
100
AcDbCircle
 62
7
  6
CONTINUOUS
 10
114.2968742893
 20
38.6748715414
 40
0.3
100
AcDbArc
 50
270.3
 51
360.0
  0
ARC
  5
6E2
100
AcDbEntity
  8
RACCORDO
100
AcDbCircle
 62
7
  6
CONTINUOUS
 10
114.2968742893
 20
45.0465887244
 40
0.3
100
AcDbArc
 50
0.0
 51
89.7
  0
ARC
  5
6E3
100
AcDbEntity
  8
0
100
AcDbCircle
 62
7
  6
CONTINUOUS
 10
82.9110372732
 20
29.3083689261
 40
0.3
100
AcDbArc
 50
270.0
 51
288.0
  0
ARC
  5
6E4
100
AcDbEntity
  8
0
100
AcDbCircle
 62
7
  6
CONTINUOUS
 10
82.3968742893
 20
29.3083689261
 40
0.3
100
AcDbArc
 50
180.0
 51
270.0
  0
ARC
  5
6E5
100
AcDbEntity
  8
RACCORDO
100
AcDbCircle
 62
7
  6
CONTINUOUS
 10
80.8468743123
 20
29.9347385387
 40
0.25
100
AcDbArc
 50
180.0000000318
 51
269.5
  0
ARC
  5
6E6
100
AcDbEntity
  8
RACCORDO
100
AcDbCircle
 62
7
  6
CONTINUOUS
 10
76.3468742893
 20
31.5272433375
 40
0.25
100
AcDbArc
 50
180.0
 51
269.5
  0
ARC
  5
6E7
100
AcDbEntity
  8
RACCORDO
100
AcDbCircle
 62
7
  6
CONTINUOUS
 10
107.1468742893
 20
32.2707301329
 40
0.2
100
AcDbArc
 50
270.0
 51
311.3755994072
  0
ARC
  5
6E8
100
AcDbEntity
  8
RACCORDO
100
AcDbCircle
 62
7
  6
CONTINUOUS
 10
105.0468742893
 20
32.2707301329
 40
0.2
100
AcDbArc
 50
228.6244005928
 51
270.0
  0
ARC
  5
6E9
100
AcDbEntity
  8
ASSI
100
AcDbCircle
 62
7
  6
CONTINUOUS
 10
72.4268923051
 20
70.3863501688
 40
1.0
100
AcDbArc
 50
100.0
 51
177.7392543719
  0
ARC
  5
6EA
100
AcDbEntity
  8
RACCORDO
100
AcDbCircle
 62
7
  6
CONTINUOUS
 10
91.5968742893
 20
76.5209372854
 40
1.0
100
AcDbArc
 50
0.0
 51
89.0
  0
ARC
  5
6EB
100
AcDbEntity
  8
0
100
AcDbCircle
 62
7
  6
CONTINUOUS
 10
82.9110372732
 20
78.0130913396
 40
0.7
100
AcDbArc
 50
72.0
 51
90.0
  0
ARC
  5
6EC
100
AcDbEntity
  8
0
100
AcDbCircle
 62
7
  6
CONTINUOUS
 10
82.3968742893
 20
78.0130913396
 40
0.7
100
AcDbArc
 50
90.0
 51
180.0
  0
ARC
  5
6ED
100
AcDbEntity
  8
ASSI
100
AcDbCircle
 62
7
  6
CONTINUOUS
 10
78.4897675081
 20
71.8607301329
 40
0.5
100
AcDbArc
 50
270.0
 51
45.0
  0
ARC
  5
6EE
100
AcDbEntity
  8
RACCORDO
100
AcDbCircle
 62
7
  6
CONTINUOUS
 10
111.0968742893
 20
71.9306396833
 40
0.5
100
AcDbArc
 50
0.0
 51
89.0
  0
ARC
  5
6EF
100
AcDbEntity
  8
RACCORDO
100
AcDbCircle
 62
7
  6
CONTINUOUS
 10
114.2968742893
 20
68.6465887244
 40
0.3
100
AcDbArc
 50
0.0
 51
89.7
  0
ARC
  5
6F0
100
AcDbEntity
  8
RACCORDO
100
AcDbCircle
 62
7
  6
CONTINUOUS
 10
114.2968742893
 20
62.2748715414
 40
0.3
100
AcDbArc
 50
270.3
 51
360.0
  0
ARC
  5
6F1
100
AcDbEntity
  8
0
100
AcDbCircle
 62
7
  6
CONTINUOUS
 10
82.9110372732
 20
78.0130913396
 40
0.3
100
AcDbArc
 50
72.0
 51
90.0
  0
ARC
  5
6F2
100
AcDbEntity
  8
0
100
AcDbCircle
 62
7
  6
CONTINUOUS
 10
82.3968742893
 20
78.0130913396
 40
0.3
100
AcDbArc
 50
90.0
 51
180.0
  0
ARC
  5
6F3
100
AcDbEntity
  8
RACCORDO
100
AcDbCircle
 62
7
  6
CONTINUOUS
 10
80.8468742897
 20
77.3867217269
 40
0.25
100
AcDbArc
 50
90.5
 51
179.9999999993
  0
ARC
  5
6F4
100
AcDbEntity
  8
RACCORDO
100
AcDbCircle
 62
7
  6
CONTINUOUS
 10
76.3468742893
 20
75.7942169283
 40
0.25
100
AcDbArc
 50
90.5
 51
180.0
  0
ARC
  5
6F5
100
AcDbEntity
  8
RACCORDO
100
AcDbCircle
 62
7
  6
CONTINUOUS
 10
107.1468742893
 20
75.0507301329
 40
0.2
100
AcDbArc
 50
48.6244005928
 51
90.0
  0
ARC
  5
6F6
100
AcDbEntity
  8
RACCORDO
100
AcDbCircle
 62
7
  6
CONTINUOUS
 10
105.0468742893
 20
75.0507301329
 40
0.2
100
AcDbArc
 50
90.0
 51
131.3755994072
  0
ARC
  5
6F7
100
AcDbEntity
  8
ASSI
100
AcDbCircle
 62
7
  6
CONTINUOUS
 10
496.0968742893
 20
53.6607301329
 40
425.0
100
AcDbArc
 50
177.7392543719
 51
182.2607456281
  0
ARC
  5
6F8
100
AcDbEntity
  8
ASSI
100
AcDbCircle
 62
7
  6
CONTINUOUS
 10
143.0102935234
 20
72.4107301329
 40
0.75
100
AcDbArc
 50
348.4621747951
 51
3.823098803
  0
ARC
  5
6F9
100
AcDbEntity
  8
ASSI
100
AcDbCircle
 62
7
  6
CONTINUOUS
 10
143.0102935234
 20
72.4107301329
 40
0.75
100
AcDbArc
 50
176.176901197
 51
191.5378252049
  0
ARC
  5
6FA
100
AcDbEntity
  8
ASSI
100
AcDbCircle
 62
7
  6
CONTINUOUS
 10
143.0102935234
 20
34.9107301329
 40
0.75
100
AcDbArc
 50
168.4621747951
 51
183.823098803
  0
ARC
  5
6FB
100
AcDbEntity
  8
ASSI
100
AcDbCircle
 62
7
  6
CONTINUOUS
 10
143.0102935234
 20
34.9107301329
 40
0.75
100
AcDbArc
 50
356.176901197
 51
11.5378252049
  0
ARC
  5
6FC
100
AcDbEntity
  8
RACCORDO
100
AcDbCircle
 62
7
  6
CONTINUOUS
 10
146.9435597582
 20
77.5130913396
 40
0.2
100
AcDbArc
 50
90.0
 51
175.0
  0
ARC
  5
6FD
100
AcDbEntity
  8
RACCORDO
100
AcDbCircle
 62
7
  6
CONTINUOUS
 10
139.0770272886
 20
77.5130913396
 40
0.2
100
AcDbArc
 50
5.0
 51
90.0
  0
ARC
  5
6FE
100
AcDbEntity
  8
RACCORDO
100
AcDbCircle
 62
7
  6
CONTINUOUS
 10
139.0770272886
 20
29.8083689261
 40
0.2
100
AcDbArc
 50
270.0
 51
355.0
  0
ARC
  5
6FF
100
AcDbEntity
  8
RACCORDO
100
AcDbCircle
 62
7
  6
CONTINUOUS
 10
146.9435597582
 20
29.8083689261
 40
0.2
100
AcDbArc
 50
185.0
 51
270.0
  0
ELLIPSE
  5
700
100
AcDbEntity
  8
INCISIONI
100
AcDbEllipse
 62
250
  6
CONTINUOUS
 10
87.1709384217
 20
71.4575701329
 30
0.0
 11
-0.0014991081
 21
0.5727030368
 31
0.0
 40
0.9996954177
 41
1.568179529
 42
2.8849383732
  0
ELLIPSE
  5
701
100
AcDbEntity
  8
CURVE
100
AcDbEllipse
 62
250
  6
CONTINUOUS
 10
95.0968742893
 20
61.6326471329
 30
0.0
 11
-0.0
 21
0.983755
 31
0.0
 40
0.9996954135
 41
1.5707963268
 42
4.7123889804
  0
ELLIPSE
  5
702
100
AcDbEntity
  8
CURVE
100
AcDbEllipse
 62
250
  6
CONTINUOUS
 10
95.0968742893
 20
62.4736681329
 30
0.0
 11
-0.0
 21
0.983755
 31
0.0
 40
0.9996954135
 41
1.5707963268
 42
4.7123889804
  0
ELLIPSE
  5
703
100
AcDbEntity
  8
CURVE
100
AcDbEllipse
 62
250
  6
CONTINUOUS
 10
95.0968742893
 20
63.3146881329
 30
0.0
 11
0.0
 21
0.983755
 31
0.0
 40
0.9996954135
 41
1.5707963268
 42
4.7123889804
  0
ELLIPSE
  5
704
100
AcDbEntity
  8
INCISIONI
100
AcDbEllipse
 62
250
  6
CONTINUOUS
 10
88.5465096982
 20
60.4958391329
 30
0.0
 11
0.0046970761
 21
1.7999929462
 31
0.0
 40
0.9996963576
 41
1.5178208021
 42
2.9343327594
  0
ELLIPSE
  5
705
100
AcDbEntity
  8
INCISIONI
100
AcDbEllipse
 62
250
  6
CONTINUOUS
 10
100.1532224608
 20
62.9607301329
 30
0.0
 11
-0.0
 21
0.337278
 31
0.0
 40
0.9996954135
 41
0.0
 42
4.0049046747
  0
ELLIPSE
  5
706
100
AcDbEntity
  8
INCISIONI
100
AcDbEllipse
 62
250
  6
CONTINUOUS
 10
101.0405261177
 20
62.9607301329
 30
0.0
 11
0.0
 21
0.337278
 31
0.0
 40
0.9996954135
 41
3.1415926536
 42
7.1464973283
  0
ELLIPSE
  5
707
100
AcDbEntity
  8
INCISIONI
100
AcDbEllipse
 62
250
  6
CONTINUOUS
 10
88.5465096982
 20
60.4958391329
 30
0.0
 11
0.0066645733
 21
2.5499893458
 31
0.0
 40
0.999695886
 41
1.5341821361
 42
4.7542274908
  0
ELLIPSE
  5
708
100
AcDbEntity
  8
INCISIONI
100
AcDbEllipse
 62
250
  6
CONTINUOUS
 10
88.5465096982
 20
56.1107291329
 30
0.0
 11
0.0046970761
 21
1.7999929462
 31
0.0
 40
0.9996963576
 41
1.5178208021
 42
4.7705818505
  0
ELLIPSE
  5
709
100
AcDbEntity
  8
INCISIONI
100
AcDbEllipse
 62
250
  6
CONTINUOUS
 10
88.5465096982
 20
56.1107291329
 30
0.0
 11
0.0066645737
 21
2.549989189
 31
0.0
 40
0.999695886
 41
1.5341837039
 42
4.7542274911
  0
ELLIPSE
  5
70A
100
AcDbEntity
  8
ASSI
100
AcDbEllipse
 62
7
  6
CONTINUOUS
 10
131.0103392218
 20
71.9607301329
 30
0.0
 11
0.3000456984
 21
0.0
 31
0.0
 40
0.9998476952
 41
1.5707963268
 42
3.1415926536
  0
ELLIPSE
  5
70B
100
AcDbEntity
  8
ASSI
100
AcDbEllipse
 62
7
  6
CONTINUOUS
 10
155.010247825
 20
71.9607301329
 30
0.0
 11
0.3000456984
 21
-0.0
 31
0.0
 40
0.9998476952
 41
0.0
 42
1.5707963268
  0
ELLIPSE
  5
70C
100
AcDbEntity
  8
ASSI
100
AcDbEllipse
 62
7
  6
CONTINUOUS
 10
155.010247825
 20
35.3607301329
 30
0.0
 11
0.3000456984
 21
0.0
 31
0.0
 40
0.9998476952
 41
-1.5707963268
 42
0.0
  0
ELLIPSE
  5
70D
100
AcDbEntity
  8
ASSI
100
AcDbEllipse
 62
7
  6
CONTINUOUS
 10
131.0103392218
 20
35.3607301329
 30
0.0
 11
0.3000456984
 21
0.0
 31
0.0
 40
0.9998476952
 41
-3.1415926536
 42
-1.5707963268
  0
ELLIPSE
  5
70E
100
AcDbEntity
  8
ASSI
100
AcDbEllipse
 62
7
  6
CONTINUOUS
 10
154.9753376951
 20
35.6653581164
 30
0.0
 11
-0.0300136675
 21
0.3031910442
 31
0.0
 40
0.9846622838
 41
-3.2387599651
 42
-1.6709942215
  0
ELLIPSE
  5
70F
100
AcDbEntity
  8
ASSI
100
AcDbEllipse
 62
7
  6
CONTINUOUS
 10
131.0452493516
 20
35.6653581164
 30
0.0
 11
0.0300136675
 21
0.3031910442
 31
0.0
 40
0.9846622838
 41
-4.6121910857
 42
-3.0444253421
  0
ELLIPSE
  5
710
100
AcDbEntity
  8
ASSI
100
AcDbEllipse
 62
7
  6
CONTINUOUS
 10
131.0452493516
 20
71.6561021493
 30
0.0
 11
-0.0300136675
 21
0.3031910442
 31
0.0
 40
0.9846622838
 41
-0.0971673115
 42
1.4705984321
  0
ELLIPSE
  5
711
100
AcDbEntity
  8
ASSI
100
AcDbEllipse
 62
7
  6
CONTINUOUS
 10
154.9753376951
 20
71.9607301329
 30
0.0
 11
-0.3000456984
 21
-0.0
 31
0.0
 40
0.9998476952
 41
3.1415926536
 42
4.7123889804
  0
ELLIPSE
  5
712
100
AcDbEntity
  8
ASSI
100
AcDbEllipse
 62
7
  6
CONTINUOUS
 10
154.9753376951
 20
71.6561021493
 30
0.0
 11
0.0300136675
 21
0.3031910442
 31
0.0
 40
0.9846622838
 41
-1.4705984321
 42
0.0971673115
  0
ELLIPSE
  5
713
100
AcDbEntity
  8
ASSI
100
AcDbEllipse
 62
7
  6
CONTINUOUS
 10
154.9753376951
 20
35.3607301329
 30
0.0
 11
0.3000456984
 21
0.0
 31
0.0
 40
0.9998476952
 41
-1.5707963268
 42
-0.0
  0
ELLIPSE
  5
714
100
AcDbEntity
  8
ASSI
100
AcDbEllipse
 62
7
  6
CONTINUOUS
 10
131.0452493516
 20
35.3607301329
 30
0.0
 11
0.3000456984
 21
0.0
 31
0.0
 40
0.9998476952
 41
3.1415926536
 42
4.7123889804
  0
ELLIPSE
  5
715
100
AcDbEntity
  8
ASSI
100
AcDbEllipse
 62
7
  6
CONTINUOUS
 10
131.0452493516
 20
71.9607301329
 30
0.0
 11
-0.3000456984
 21
-0.0
 31
0.0
 40
0.9998476952
 41
-1.5707963268
 42
-0.0
  0
ELLIPSE
  5
716
100
AcDbEntity
  8
RACCORDO
100
AcDbEllipse
 62
7
  6
CONTINUOUS
 10
130.8603316054
 20
77.4106920509
 30
0.0
 11
-0.1768305473
 21
0.1768305473
 31
0.0
 40
0.9996954599
 41
5.497939437
 42
7.0684311773
  0
ELLIPSE
  5
717
100
AcDbEntity
  8
RACCORDO
100
AcDbEllipse
 62
7
  6
CONTINUOUS
 10
130.8603316054
 20
29.9107682149
 30
0.0
 11
0.1768305473
 21
0.1768305473
 31
0.0
 40
0.9996954599
 41
8.6395320906
 42
10.2100238309
  0
ELLIPSE
  5
718
100
AcDbEntity
  8
RACCORDO
100
AcDbEllipse
 62
7
  6
CONTINUOUS
 10
155.1602554414
 20
29.9107682149
 30
0.0
 11
-0.1768305473
 21
0.1768305473
 31
0.0
 40
0.9996954599
 41
8.6395320906
 42
10.2100238309
  0
ELLIPSE
  5
719
100
AcDbEntity
  8
RACCORDO
100
AcDbEllipse
 62
7
  6
CONTINUOUS
 10
155.1602554414
 20
77.4106920509
 30
0.0
 11
0.1768305473
 21
0.1768305473
 31
0.0
 40
0.9996954599
 41
5.497939437
 42
7.0684311773
  0
ELLIPSE
  5
71A
100
AcDbEntity
  8
RACCORDO
100
AcDbEllipse
 62
7
  6
CONTINUOUS
 10
146.9817820433
 20
30.9624678908
 30
0.0
 11
0.0
 21
0.2
 31
0.0
 40
0.0087268678
 41
-0.2200439727
 42
-0.0087266463
  0
ELLIPSE
  5
71B
100
AcDbEntity
  8
RACCORDO
100
AcDbEllipse
 62
7
  6
CONTINUOUS
 10
139.0388050034
 20
30.9624678908
 30
0.0
 11
0.0
 21
0.2
 31
0.0
 40
0.0087268678
 41
0.0087266463
 42
0.2200439727
  0
ELLIPSE
  5
71C
100
AcDbEntity
  8
RACCORDO
100
AcDbEllipse
 62
7
  6
CONTINUOUS
 10
139.0388050034
 20
76.358992375
 30
0.0
 11
-0.0
 21
0.2
 31
0.0
 40
0.0087268678
 41
-3.3616366263
 42
-3.1503192998
  0
ELLIPSE
  5
71D
100
AcDbEntity
  8
RACCORDO
100
AcDbEllipse
 62
7
  6
CONTINUOUS
 10
146.9817820433
 20
76.358992375
 30
0.0
 11
-0.0
 21
0.2
 31
0.0
 40
0.0087268678
 41
-3.1328660073
 42
-2.9215486809
  0
ELLIPSE
  5
71E
100
AcDbEntity
  8
RACCORDO
100
AcDbEllipse
 62
7
  6
CONTINUOUS
 10
130.8603316054
 20
77.4107206133
 30
0.0
 11
0.2236527791
 21
-0.1118178731
 31
0.0
 40
0.9998096356
 41
2.0344896259
 42
3.6051336537
  0
ELLIPSE
  5
71F
100
AcDbEntity
  8
RACCORDO
100
AcDbEllipse
 62
7
  6
CONTINUOUS
 10
132.3602840038
 20
77.4107206133
 30
0.0
 11
0.1767901578
 21
0.1767901578
 31
0.0
 40
0.9999238505
 41
-0.7853600872
 42
0.7853600872
  0
ELLIPSE
  5
720
100
AcDbEntity
  8
RACCORDO
100
AcDbEllipse
 62
7
  6
CONTINUOUS
 10
153.660303043
 20
77.4107206133
 30
0.0
 11
0.1767901578
 21
-0.1767901578
 31
0.0
 40
0.9999238505
 41
2.3562325664
 42
3.9269527408
  0
ELLIPSE
  5
721
100
AcDbEntity
  8
RACCORDO
100
AcDbEllipse
 62
7
  6
CONTINUOUS
 10
155.1602554414
 20
77.4107206133
 30
0.0
 11
0.2236527791
 21
0.1118178731
 31
0.0
 40
0.9998096356
 41
-0.4635410001
 42
1.1071030277
  0
ELLIPSE
  5
722
100
AcDbEntity
  8
RACCORDO
100
AcDbEllipse
 62
7
  6
CONTINUOUS
 10
132.3602840038
 20
29.9107396525
 30
0.0
 11
0.1767901578
 21
-0.1767901578
 31
0.0
 40
0.9999238505
 41
-0.7853600872
 42
0.7853600872
  0
ELLIPSE
  5
723
100
AcDbEntity
  8
RACCORDO
100
AcDbEllipse
 62
7
  6
CONTINUOUS
 10
130.8603316054
 20
29.9107396525
 30
0.0
 11
0.2236527791
 21
0.1118178731
 31
0.0
 40
0.9998096356
 41
2.6780516535
 42
4.2486956813
  0
ELLIPSE
  5
724
100
AcDbEntity
  8
RACCORDO
100
AcDbEllipse
 62
7
  6
CONTINUOUS
 10
155.1602554414
 20
29.9107396525
 30
0.0
 11
0.2236527791
 21
-0.1118178731
 31
0.0
 40
0.9998096356
 41
-1.1071030277
 42
0.4635410001
  0
ELLIPSE
  5
725
100
AcDbEntity
  8
RACCORDO
100
AcDbEllipse
 62
7
  6
CONTINUOUS
 10
153.660303043
 20
29.9107396525
 30
0.0
 11
0.1767901578
 21
0.1767901578
 31
0.0
 40
0.9999238505
 41
2.3562325664
 42
3.9269527408
  0
ELLIPSE
  5
726
100
AcDbEntity
  8
RACCORDO
100
AcDbEllipse
 62
7
  6
CONTINUOUS
 10
149.2120388969
 20
30.9624678908
 30
0.0
 11
0.0
 21
0.2
 31
0.0
 40
0.0087268678
 41
0.0087266463
 42
1.5707963268
  0
ELLIPSE
  5
727
100
AcDbEntity
  8
RACCORDO
100
AcDbEllipse
 62
7
  6
CONTINUOUS
 10
136.8085481498
 20
76.358992375
 30
0.0
 11
-0.0
 21
0.2
 31
0.0
 40
0.0087268678
 41
-3.1328660073
 42
-1.5707963268
  0
ELLIPSE
  5
728
100
AcDbEntity
  8
RACCORDO
100
AcDbEllipse
 62
7
  6
CONTINUOUS
 10
131.6191935104
 20
76.0898101673
 30
0.0
 11
0.9733768763
 21
0.0
 31
0.0
 40
0.0087268678
 41
-2.3911854655
 42
-0.0087266463
  0
ELLIPSE
  5
729
100
AcDbEntity
  8
RACCORDO
100
AcDbEllipse
 62
7
  6
CONTINUOUS
 10
149.2120388969
 20
76.358992375
 30
0.0
 11
0.0
 21
0.2
 31
0.0
 40
0.0087268678
 41
-4.7123889804
 42
-3.1503192998
  0
ELLIPSE
  5
72A
100
AcDbEntity
  8
RACCORDO
100
AcDbEllipse
 62
7
  6
CONTINUOUS
 10
154.4013935363
 20
76.0898101673
 30
0.0
 11
0.9733768763
 21
-0.0
 31
0.0
 40
0.0087268678
 41
-3.1328660073
 42
-0.7504071881
  0
ELLIPSE
  5
72B
100
AcDbEntity
  8
RACCORDO
100
AcDbEllipse
 62
7
  6
CONTINUOUS
 10
154.4013935363
 20
31.2316500985
 30
0.0
 11
0.9733768763
 21
0.0
 31
0.0
 40
0.0087268678
 41
0.7504071881
 42
3.1328660073
  0
ELLIPSE
  5
72C
100
AcDbEntity
  8
RACCORDO
100
AcDbEllipse
 62
7
  6
CONTINUOUS
 10
131.6191935104
 20
31.2316500985
 30
0.0
 11
0.9733768763
 21
-0.0
 31
0.0
 40
0.0087268678
 41
0.0087266463
 42
2.3911854655
  0
ELLIPSE
  5
72D
100
AcDbEntity
  8
RACCORDO
100
AcDbEllipse
 62
7
  6
CONTINUOUS
 10
150.1102935234
 20
31.2417244151
 30
0.0
 11
0.8189745326
 21
0.0
 31
0.0
 40
0.0087268678
 41
0.0087266463
 42
3.1328660073
  0
ELLIPSE
  5
72E
100
AcDbEntity
  8
RACCORDO
100
AcDbEllipse
 62
7
  6
CONTINUOUS
 10
135.9102935234
 20
31.2417244151
 30
0.0
 11
0.8189745326
 21
-0.0
 31
0.0
 40
0.0087268678
 41
0.0087266463
 42
3.1328660073
  0
ELLIPSE
  5
72F
100
AcDbEntity
  8
RACCORDO
100
AcDbEllipse
 62
7
  6
CONTINUOUS
 10
135.9102935234
 20
76.8297358507
 30
0.0
 11
0.8189745326
 21
0.0
 31
0.0
 40
0.0087268678
 41
-3.1328660073
 42
-0.0087266463
  0
ELLIPSE
  5
730
100
AcDbEntity
  8
RACCORDO
100
AcDbEllipse
 62
7
  6
CONTINUOUS
 10
135.9102935234
 20
76.0797358507
 30
0.0
 11
0.8189745326
 21
-0.0
 31
0.0
 40
0.0087268678
 41
-3.1328660073
 42
-0.0087266463
  0
ELLIPSE
  5
731
100
AcDbEntity
  8
RACCORDO
100
AcDbEllipse
 62
7
  6
CONTINUOUS
 10
150.1102935234
 20
76.8297358507
 30
0.0
 11
0.8189745326
 21
0.0
 31
0.0
 40
0.0087268678
 41
-3.1328660073
 42
-0.0087266463
  0
ELLIPSE
  5
732
100
AcDbEntity
  8
RACCORDO
100
AcDbEllipse
 62
7
  6
CONTINUOUS
 10
150.1102935234
 20
76.0797358507
 30
0.0
 11
0.8189745326
 21
0.0
 31
0.0
 40
0.0087268678
 41
-3.1328660073
 42
-0.0087266463
  0
ELLIPSE
  5
733
100
AcDbEntity
  8
RACCORDO
100
AcDbEllipse
 62
7
  6
CONTINUOUS
 10
136.8085481498
 20
30.9624678908
 30
0.0
 11
-0.0
 21
0.2
 31
0.0
 40
0.0087268678
 41
-1.5707963268
 42
-0.0087266463
  0
ENDSEC
  0
SECTION
  2
OBJECTS
  0
DICTIONARY
  5
C
100
AcDbDictionary
280
0
281
1
  3
ACAD_GROUP
350
D
  3
ACAD_MLINESTYLE
350
17
  3
ACAD_LAYOUT
350
1A
  3
ACAD_PLOTSETTINGS
350
19
  3
ACAD_PLOTSTYLENAME
350
E
  0
DICTIONARY
  5
D
102
{ACAD_REACTORS
330
C
102
}
100
AcDbDictionary
280
0
281
1
  0
ACDBDICTIONARYWDFLT
  5
E
102
{ACAD_REACTORS
330
C
102
}
100
AcDbDictionary
281
1
  3
Normal
350
F
100
AcDbDictionaryWithDefault
340
F
  0
DICTIONARY
  5
17
102
{ACAD_REACTORS
330
C
102
}
100
AcDbDictionary
280
0
281
1
  3
Standard
350
18
  0
DICTIONARY
  5
19
102
{ACAD_REACTORS
330
C
102
}
100
AcDbDictionary
281
1
  0
DICTIONARY
  5
1A
102
{ACAD_REACTORS
330
C
102
}
100
AcDbDictionary
281
1
  3
Model
350
734
  3
Layout1
350
735
  0
ACDBPLACEHOLDER
  5
F
102
{ACAD_REACTORS
330
E
102
}
  0
MLINESTYLE
  5
18
102
{ACAD_REACTORS
330
17
102
}
100
AcDbMlineStyle
  2
STANDARD
 70
0
  3

 62
256
 51
90.0
 52
90.0
 71
2
 49
0.5
 62
256
  6
BYLAYER
 49
-0.5
 62
256
  6
BYLAYER
  0
LAYOUT
  5
734
102
{ACAD_REACTORS
330
1A
102
}
100
AcDbPlotSettings
  1

  2
none_device
  4
ISO_A4_(297.00_x_210.00_MM)
  6

 40
0.0
 41
0.0
 42
0.0
 43
0.0
 44
297.0
 45
210.0
 46
0.0
 47
0.0
 48
0.0
 49
0.0
140
0.0
141
0.0
142
1.0
143
1.0
 70
1024
 72
1
 73
0
 74
0
  7

 75
0
147
1.0
148
0.0
149
0.0
100
AcDbLayout
  1
Model
 70
0
 71
0
 10
0.0
 20
0.0
 11
297.0
 21
210.0
 12
0.0
 22
0.0
 32
0.0
 14
0.0
 24
0.0
 34
0.0
 15
0.0
 25
0.0
 35
0.0
146
0.0
 13
0.0
 23
0.0
 33
0.0
 16
1.0
 26
0.0
 36
0.0
 17
0.0
 27
1.0
 37
0.0
 76
0
330
21B
345
0
346
0
  0
LAYOUT
  5
735
102
{ACAD_REACTORS
330
1A
102
}
100
AcDbPlotSettings
  1

  2
none_device
  4
ISO_A4_(297.00_x_210.00_MM)
  6

 40
0.0
 41
0.0
 42
0.0
 43
0.0
 44
297.0
 45
210.0
 46
0.0
 47
0.0
 48
0.0
 49
0.0
140
0.0
141
0.0
142
1.0
143
1.0
 70
0
 72
1
 73
0
 74
0
  7

 75
0
147
1.0
148
0.0
149
0.0
100
AcDbLayout
  1
Layout1
 70
0
 71
1
 10
0.0
 20
0.0
 11
297.0
 21
210.0
 12
0.0
 22
0.0
 32
0.0
 14
0.0
 24
0.0
 34
0.0
 15
0.0
 25
0.0
 35
0.0
146
0.0
 13
0.0
 23
0.0
 33
0.0
 16
1.0
 26
0.0
 36
0.0
 17
0.0
 27
1.0
 37
0.0
 76
0
330
21C
345
0
346
0
  0
ENDSEC
  0
EOF
