  0
SECTION
  2
HEADER
  9
$ACADVER
  1
AC1024
  9
$DWGCODEPAGE
  3
ANSI_1252
  9
$EXTMAX
 10
558.8
 20
431.8
 30
0.0
  9
$EXTMIN
 10
0.0
 20
0.0
 30
0.0
  9
$LIMMIN
 10
0.0
 20
0.0
  9
$LIMMAX
 10
558.8
 20
431.8
  9
$VIEWCTR
 10
279.4
 20
215.9
  9
$VIEWSIZE
 40
431.8
  9
$CLAYER
  8
0
  9
$LTSCALE
 40
30.734
  9
$CELTYPE
  6
BYLAYER
  9
$DIMSCALE
 40
1.0
  9
$DIMASZ
 40
3.0
  9
$DIMEXO
 40
0.5
  9
$DIMDLI
 40
21.2344
  9
$DIMEXE
 40
1.5
  9
$DIMCEN
 40
5.0292
  9
$DIMLFAC
 40
1.0
  9
$DIMBLK
  1
_FILLED
  9
$DIMALT
 70
0
  9
$DIMALTF
 40
0.0393700787
  9
$DIMTXT
 40
3.0
  9
$DIMTOL
 70
1
  9
$DIMLIM
 70
0
  9
$DIMTFAC
 40
1.0
  9
$DIMTP
 40
0.01
  9
$DIMTM
 40
0.01
  9
$DIMGAP
 40
0.625
  9
$DIMDSEP
 70
44
  9
$AUNITS
 70
0
  9
$PDMODE
 70
3
  9
$PDSIZE
 40
3.0
  9
$HANDSEED
  5
621
  9
$TILEMODE
 70
1
  9
$MEASUREMENT
 70
1
  9
$INSUNITS
 70
4
  0
ENDSEC
  0
SECTION
  2
CLASSES
  0
CLASS
  1
ACDBDICTIONARYWDFLT
  2
AcDbDictionaryWithDefault
  3
AutoCAD 2000
 90
0
 91
1
280
0
281
0
  0
CLASS
  1
ACDBPLACEHOLDER
  2
AcDbPlaceHolder
  3
AutoCAD 2000
 90
0
 91
1
280
0
281
0
  0
CLASS
  1
LAYOUT
  2
AcDbLayout
  3
AutoCAD 2000
 90
0
 91
0
280
0
281
0
  0
ENDSEC
  0
SECTION
  2
TABLES
  0
TABLE
  2
VPORT
  5
8
100
AcDbSymbolTable
 70
2
  0
VPORT
  5
1F4
100
AcDbSymbolTableRecord
100
AcDbViewportTableRecord
  2
*ACTIVE
 70
0
 10
0.0
 20
0.0
 11
1.0
 21
1.0
 12
279.4
 22
215.9
 13
0.0
 23
0.0
 14
1.0
 24
1.0
 15
0.0
 25
0.0
 16
0.0
 26
0.0
 36
1.0
 17
0.0
 27
0.0
 37
0.0
 40
431.8
 41
1.2941176471
 42
50.0
 43
0.0
 44
0.0
 50
0.0
 51
0.0
 71
0
 72
100
 73
1
 74
1
 75
0
 76
0
 77
0
 78
0
  0
ENDTAB
  0
TABLE
  2
LTYPE
  5
5
100
AcDbSymbolTable
 70
6
  0
LTYPE
  5
14
100
AcDbSymbolTableRecord
100
AcDbLinetypeTableRecord
  2
BYBLOCK
 70
0
  3

 72
65
 73
0
 40
0.0
  0
LTYPE
  5
15
100
AcDbSymbolTableRecord
100
AcDbLinetypeTableRecord
  2
BYLAYER
 70
0
  3

 72
65
 73
0
 40
0.0
  0
LTYPE
  5
16
100
AcDbSymbolTableRecord
100
AcDbLinetypeTableRecord
  2
CONTINUOUS
 70
64
  3
Solid line
 72
65
 73
0
 40
0.0
  0
LTYPE
  5
1F5
100
AcDbSymbolTableRecord
100
AcDbLinetypeTableRecord
  2
CENTER
 70
64
  3
____ _ ____ _ ____ _ ____ _ ____ _ ____ _ ____
 72
65
 73
4
 40
0.6
 49
0.375
 74
0
 49
-0.075
 74
0
 49
0.075
 74
0
 49
-0.075
 74
0
  0
LTYPE
  5
1F6
100
AcDbSymbolTableRecord
100
AcDbLinetypeTableRecord
  2
HIDDEN
 70
64
  3
- - - - - - - - - - - - - - - - - - - -
 72
65
 73
2
 40
0.2
 49
0.1
 74
0
 49
-0.1
 74
0
  0
LTYPE
  5
1F7
100
AcDbSymbolTableRecord
100
AcDbLinetypeTableRecord
  2
PHANTOM
 70
64
  3
_____ _ _ _____ _ _ _____ _ _ _____
 72
65
 73
6
 40
0.8
 49
0.45
 74
0
 49
-0.05
 74
0
 49
0.1
 74
0
 49
-0.05
 74
0
 49
0.1
 74
0
 49
-0.05
 74
0
  0
LTYPE
  5
1F8
100
AcDbSymbolTableRecord
100
AcDbLinetypeTableRecord
  2
DOT
 70
64
  3
. . . . . . . . . . . . . . . . . . . .
 72
65
 73
2
 40
0.2
 49
0.1
 74
0
 49
-0.1
 74
0
  0
LTYPE
  5
1F9
100
AcDbSymbolTableRecord
100
AcDbLinetypeTableRecord
  2
DASHED
 70
64
  3
- - - - - - - - - - - - - - - - - - - -
 72
65
 73
2
 40
0.2
 49
0.1
 74
0
 49
-0.1
 74
0
  0
ENDTAB
  0
TABLE
  2
LAYER
  5
2
100
AcDbSymbolTable
 70
36
  0
LAYER
  5
10
100
AcDbSymbolTableRecord
100
AcDbLayerTableRecord
  2
0
 70
0
 62
7
  6
CONTINUOUS
370
-3
390
F
  0
LAYER
  5
1FA
100
AcDbSymbolTableRecord
100
AcDbLayerTableRecord
  2
DEFAULT_1
 70
0
 62
7
  6
CENTER
370
-3
390
F
  0
LAYER
  5
1FB
100
AcDbSymbolTableRecord
100
AcDbLayerTableRecord
  2
DEFAULT_2
 70
0
 62
7
  6
HIDDEN
370
-3
390
F
  0
LAYER
  5
1FC
100
AcDbSymbolTableRecord
100
AcDbLayerTableRecord
  2
DEFAULT_3
 70
0
 62
7
  6
PHANTOM
370
-3
390
F
  0
LAYER
  5
1FD
100
AcDbSymbolTableRecord
100
AcDbLayerTableRecord
  2
ASSI
 70
0
 62
7
  6
CONTINUOUS
370
-3
390
F
  0
LAYER
  5
1FE
100
AcDbSymbolTableRecord
100
AcDbLayerTableRecord
  2
COORDINATE
 70
0
 62
7
  6
CONTINUOUS
370
-3
390
F
  0
LAYER
  5
1FF
100
AcDbSymbolTableRecord
100
AcDbLayerTableRecord
  2
COORD_ORIGINE
 70
0
 62
7
  6
CONTINUOUS
370
-3
390
F
  0
LAYER
  5
200
100
AcDbSymbolTableRecord
100
AcDbLayerTableRecord
  2
COPY_PUBLISH
 70
0
 62
7
  6
CONTINUOUS
370
-3
390
F
  0
LAYER
  5
201
100
AcDbSymbolTableRecord
100
AcDbLayerTableRecord
  2
COSMETIC
 70
0
 62
7
  6
CONTINUOUS
370
-3
390
F
  0
LAYER
  5
202
100
AcDbSymbolTableRecord
100
AcDbLayerTableRecord
  2
COSMETICHE
 70
0
 62
7
  6
CONTINUOUS
370
-3
390
F
  0
LAYER
  5
203
100
AcDbSymbolTableRecord
100
AcDbLayerTableRecord
  2
COSMETICI
 70
0
 62
7
  6
CONTINUOUS
370
-3
390
F
  0
LAYER
  5
204
100
AcDbSymbolTableRecord
100
AcDbLayerTableRecord
  2
CURVE
 70
0
 62
7
  6
CONTINUOUS
370
-3
390
F
  0
LAYER
  5
205
100
AcDbSymbolTableRecord
100
AcDbLayerTableRecord
  2
DRAFT
 70
0
 62
7
  6
CONTINUOUS
370
-3
390
F
  0
LAYER
  5
206
100
AcDbSymbolTableRecord
100
AcDbLayerTableRecord
  2
IMPORT
 70
0
 62
7
  6
CONTINUOUS
370
-3
390
F
  0
LAYER
  5
207
100
AcDbSymbolTableRecord
100
AcDbLayerTableRecord
  2
IMPORT_IGES
 70
0
 62
7
  6
CONTINUOUS
370
-3
390
F
  0
LAYER
  5
208
100
AcDbSymbolTableRecord
100
AcDbLayerTableRecord
  2
NOTE
 70
0
 62
7
  6
CONTINUOUS
370
-3
390
F
  0
LAYER
  5
209
100
AcDbSymbolTableRecord
100
AcDbLayerTableRecord
  2
PIANI
 70
0
 62
7
  6
CONTINUOUS
370
-3
390
F
  0
LAYER
  5
20A
100
AcDbSymbolTableRecord
100
AcDbLayerTableRecord
  2
PIANI_DI_RIFERIMENTO
 70
0
 62
7
  6
CONTINUOUS
370
-3
390
F
  0
LAYER
  5
20B
100
AcDbSymbolTableRecord
100
AcDbLayerTableRecord
  2
PIANI_ORIGINE
 70
0
 62
7
  6
CONTINUOUS
370
-3
390
F
  0
LAYER
  5
20C
100
AcDbSymbolTableRecord
100
AcDbLayerTableRecord
  2
PUNTI
 70
0
 62
7
  6
CONTINUOUS
370
-3
390
F
  0
LAYER
  5
20D
100
AcDbSymbolTableRecord
100
AcDbLayerTableRecord
  2
RACCORDO
 70
0
 62
7
  6
CONTINUOUS
370
-3
390
F
  0
LAYER
  5
20E
100
AcDbSymbolTableRecord
100
AcDbLayerTableRecord
  2
SIMBOLI
 70
0
 62
7
  6
CONTINUOUS
370
-3
390
F
  0
LAYER
  5
20F
100
AcDbSymbolTableRecord
100
AcDbLayerTableRecord
  2
SMUSSO
 70
0
 62
7
  6
CONTINUOUS
370
-3
390
F
  0
LAYER
  5
210
100
AcDbSymbolTableRecord
100
AcDbLayerTableRecord
  2
SNAPLINE
 70
0
 62
7
  6
CONTINUOUS
370
-3
390
F
  0
LAYER
  5
211
100
AcDbSymbolTableRecord
100
AcDbLayerTableRecord
  2
SUPERFICI
 70
0
 62
7
  6
CONTINUOUS
370
-3
390
F
  0
LAYER
  5
212
100
AcDbSymbolTableRecord
100
AcDbLayerTableRecord
  2
TRASH
 70
0
 62
7
  6
CONTINUOUS
370
-3
390
F
  0
LAYER
  5
213
100
AcDbSymbolTableRecord
100
AcDbLayerTableRecord
  2
XSEC_DATUMS
 70
0
 62
7
  6
CONTINUOUS
370
-3
390
F
  0
ENDTAB
  0
TABLE
  2
STYLE
  5
3
100
AcDbSymbolTable
 70
1
  0
STYLE
  5
11
100
AcDbSymbolTableRecord
100
AcDbTextStyleTableRecord
  2
STANDARD
 70
0
 40
0.0
 41
0.8
 50
0.0
 71
0
 42
0.2
  3
txt
  4

  0
STYLE
  5
214
100
AcDbSymbolTableRecord
100
AcDbTextStyleTableRecord
  2
TEXTSTYLE_1
 70
0
 40
0.0
 41
0.8
 50
0.0
 71
0
 42
0.2
  3
gdt
  4

  0
ENDTAB
  0
TABLE
  2
VIEW
  5
6
100
AcDbSymbolTable
 70
0
  0
ENDTAB
  0
TABLE
  2
UCS
  5
7
100
AcDbSymbolTable
 70
0
  0
ENDTAB
  0
TABLE
  2
APPID
  5
9
100
AcDbSymbolTable
 70
1
  0
APPID
  5
215
100
AcDbSymbolTableRecord
100
AcDbRegAppTableRecord
  2
ACAD
 70
0
  0
ENDTAB
  0
TABLE
  2
BLOCK_RECORD
  5
1
100
AcDbSymbolTable
 70
0
  0
BLOCK_RECORD
  5
216
100
AcDbSymbolTableRecord
100
AcDbBlockTableRecord
  2
*Model_Space
  0
BLOCK_RECORD
  5
217
100
AcDbSymbolTableRecord
100
AcDbBlockTableRecord
  2
*Paper_Space
  0
BLOCK_RECORD
  5
218
100
AcDbSymbolTableRecord
100
AcDbBlockTableRecord
  2
_FILLED
  0
BLOCK_RECORD
  5
219
100
AcDbSymbolTableRecord
100
AcDbBlockTableRecord
  2
*D0
  0
BLOCK_RECORD
  5
21A
100
AcDbSymbolTableRecord
100
AcDbBlockTableRecord
  2
*D1
  0
BLOCK_RECORD
  5
21B
100
AcDbSymbolTableRecord
100
AcDbBlockTableRecord
  2
*D2
  0
BLOCK_RECORD
  5
21C
100
AcDbSymbolTableRecord
100
AcDbBlockTableRecord
  2
*D3
  0
ENDTAB
  0
TABLE
  2
DIMSTYLE
  5
A
100
AcDbSymbolTable
 70
1
100
AcDbDimStyleTable
 71
0
  0
DIMSTYLE
105
21D
100
AcDbSymbolTableRecord
100
AcDbDimStyleTableRecord
  2
STANDARD
 70
0
  3

  4

 40
1.0
 41
3.0
 42
0.5
 43
0.38
 44
1.5
 45
0.0
 46
0.0
 47
0.01
 48
0.01
140
3.0
141
0.09
142
0.0
143
25.4
144
1.0
145
0.0
146
1.0
147
0.625
 71
1
 72
0
 73
0
 74
0
 75
0
 76
0
 77
1
 78
8
 79
2
170
0
171
1
172
0
173
0
174
0
175
0
176
0
177
0
178
0
270
2
179
2
271
2
272
2
273
2
274
2
275
0
280
0
281
0
282
0
283
1
284
8
285
0
286
0
287
3
288
0
340
11
278
44
341
218
342
218
343
218
344
218
  0
DIMSTYLE
105
21E
100
AcDbSymbolTableRecord
100
AcDbDimStyleTableRecord
  2
DIMSTYLE_1
 70
0
  3

  4

 40
1.0
 41
3.0
 42
0.5
 43
0.38
 44
1.5
 45
0.0
 46
0.0
 47
0.0
 48
0.0
140
3.0
141
0.09
142
0.0
143
25.4
144
1.0
145
0.0
146
1.0
147
0.75
 71
0
 72
0
 73
0
 74
0
 75
0
 76
0
 77
1
 78
8
 79
2
170
0
171
1
172
0
173
0
174
0
175
0
176
0
177
0
178
0
270
2
179
2
271
2
272
2
273
2
274
2
275
0
280
0
281
0
282
0
283
1
284
8
285
0
286
0
287
3
288
0
340
11
278
44
341
218
342
218
343
218
344
218
  0
ENDTAB
  0
ENDSEC
  0
SECTION
  2
BLOCKS
  0
BLOCK
  5
20
100
AcDbEntity
  8
0
100
AcDbBlockBegin
  2
*Model_Space
 70
0
 10
0.0
 20
0.0
 30
0.0
  3
*Model_Space
  1

  0
ENDBLK
  5
21
100
AcDbEntity
  8
0
100
AcDbBlockEnd
  0
BLOCK
  5
1C
100
AcDbEntity
  8
0
100
AcDbBlockBegin
  2
*Paper_Space
 70
0
 10
0.0
 20
0.0
 30
0.0
  3
*Paper_Space
  1

  0
ENDBLK
  5
1D
100
AcDbEntity
  8
0
100
AcDbBlockEnd
  0
BLOCK
  5
21F
100
AcDbEntity
  8
0
100
AcDbBlockBegin
  2
_FILLED
 70
64
 10
0.0
 20
0.0
  3
_FILLED
  1

  0
SOLID
  5
220
100
AcDbEntity
  8
0
  6
BYBLOCK
 62
0
100
AcDbTrace
 10
0.0
 20
0.0
 11
-1.0
 21
0.3166666667
 12
-1.0
 22
-0.3166666667
 13
-1.0
 23
-0.3166666667
  0
ENDBLK
  5
221
100
AcDbEntity
  8
0
  6
BYBLOCK
 62
0
100
AcDbBlockEnd
  0
BLOCK
  5
222
100
AcDbEntity
  8
0
100
AcDbBlockBegin
 62
7
  6
CONTINUOUS
  2
*D0
 70
65
 10
0.0
 20
0.0
  3
*D0
  1

  0
LINE
  5
223
100
AcDbEntity
  8
0
100
AcDbLine
 62
7
  6
CONTINUOUS
 10
-12.4
 20
24.2500380762
 11
-12.4
 21
33.5744207414
  0
LINE
  5
224
100
AcDbEntity
  8
0
100
AcDbLine
 62
7
  6
CONTINUOUS
 10
12.4
 20
24.2500380762
 11
12.4
 21
33.5744207414
  0
LINE
  5
225
100
AcDbEntity
  8
0
100
AcDbLine
 62
7
  6
CONTINUOUS
 10
-12.4
 20
32.0744207414
 11
-0.0
 21
32.0744207414
  0
LINE
  5
226
100
AcDbEntity
  8
0
100
AcDbLine
 62
7
  6
CONTINUOUS
 10
12.4
 20
32.0744207414
 11
-0.0
 21
32.0744207414
  0
INSERT
  5
227
100
AcDbEntity
  8
0
100
AcDbBlockReference
 62
7
  6
CONTINUOUS
  2
_FILLED
 10
-12.4
 20
32.0744207414
 41
3.0
 42
3.0
 43
3.0
 50
180.0
  0
INSERT
  5
228
100
AcDbEntity
  8
0
100
AcDbBlockReference
 62
7
  6
CONTINUOUS
  2
_FILLED
 10
12.4
 20
32.0744207414
 41
3.0
 42
3.0
 43
3.0
  0
ENDBLK
  5
229
100
AcDbEntity
  8
0
  6
BYBLOCK
 62
0
100
AcDbBlockEnd
  0
BLOCK
  5
22A
100
AcDbEntity
  8
0
100
AcDbBlockBegin
 62
7
  6
CONTINUOUS
  2
*D1
 70
65
 10
0.0
 20
0.0
  3
*D1
  1

  0
LINE
  5
22B
100
AcDbEntity
  8
0
100
AcDbLine
 62
7
  6
CONTINUOUS
 10
12.6142113851
 20
24.0
 11
21.9218033026
 21
24.0
  0
LINE
  5
22C
100
AcDbEntity
  8
0
100
AcDbLine
 62
7
  6
CONTINUOUS
 10
12.6142113867
 20
-24.0
 11
21.9218033026
 21
-24.0
  0
LINE
  5
22D
100
AcDbEntity
  8
0
100
AcDbLine
 62
7
  6
CONTINUOUS
 10
20.4218033026
 20
24.0
 11
20.4218033026
 21
0.0
  0
LINE
  5
22E
100
AcDbEntity
  8
0
100
AcDbLine
 62
7
  6
CONTINUOUS
 10
20.4218033026
 20
-24.0
 11
20.4218033026
 21
0.0
  0
INSERT
  5
22F
100
AcDbEntity
  8
0
100
AcDbBlockReference
 62
7
  6
CONTINUOUS
  2
_FILLED
 10
20.4218033026
 20
24.0
 41
3.0
 42
3.0
 43
3.0
 50
90.0
  0
INSERT
  5
230
100
AcDbEntity
  8
0
100
AcDbBlockReference
 62
7
  6
CONTINUOUS
  2
_FILLED
 10
20.4218033026
 20
-24.0
 41
3.0
 42
3.0
 43
3.0
 50
270.0
  0
ENDBLK
  5
231
100
AcDbEntity
  8
0
  6
BYBLOCK
 62
0
100
AcDbBlockEnd
  0
BLOCK
  5
232
100
AcDbEntity
  8
0
100
AcDbBlockBegin
 62
7
  6
CONTINUOUS
  2
*D2
 70
65
 10
0.0
 20
0.0
  3
*D2
  1

  0
LINE
  5
233
100
AcDbEntity
  8
0
100
AcDbLine
 62
7
  6
CONTINUOUS
 10
-25.1270147905
 20
15.6885208992
 11
-25.1270147905
 21
43.5
  0
LINE
  5
234
100
AcDbEntity
  8
0
100
AcDbLine
 62
7
  6
CONTINUOUS
 10
-75.2270147905
 20
0.5
 11
-75.2270147905
 21
43.5
  0
LINE
  5
235
100
AcDbEntity
  8
0
100
AcDbLine
 62
7
  6
CONTINUOUS
 10
-25.1270147905
 20
42.0
 11
-50.1770147905
 21
42.0
  0
LINE
  5
236
100
AcDbEntity
  8
0
100
AcDbLine
 62
7
  6
CONTINUOUS
 10
-75.2270147905
 20
42.0
 11
-50.1770147905
 21
42.0
  0
INSERT
  5
237
100
AcDbEntity
  8
0
100
AcDbBlockReference
 62
7
  6
CONTINUOUS
  2
_FILLED
 10
-25.1270147905
 20
42.0
 41
3.0
 42
3.0
 43
3.0
  0
INSERT
  5
238
100
AcDbEntity
  8
0
100
AcDbBlockReference
 62
7
  6
CONTINUOUS
  2
_FILLED
 10
-75.2270147905
 20
42.0
 41
3.0
 42
3.0
 43
3.0
 50
180.0
  0
ENDBLK
  5
239
100
AcDbEntity
  8
0
  6
BYBLOCK
 62
0
100
AcDbBlockEnd
  0
BLOCK
  5
23A
100
AcDbEntity
  8
0
100
AcDbBlockBegin
 62
7
  6
CONTINUOUS
  2
*D3
 70
65
 10
0.0
 20
0.0
  3
*D3
  1

  0
LINE
  5
23B
100
AcDbEntity
  8
0
100
AcDbLine
 62
7
  6
CONTINUOUS
 10
-25.1270147905
 20
15.6885208992
 11
-25.1270147905
 21
33.5
  0
LINE
  5
23C
100
AcDbEntity
  8
0
100
AcDbLine
 62
7
  6
CONTINUOUS
 10
-63.7270147905
 20
24.2500380762
 11
-63.7270147905
 21
33.5
  0
LINE
  5
23D
100
AcDbEntity
  8
0
100
AcDbLine
 62
7
  6
CONTINUOUS
 10
-25.1270147905
 20
32.0
 11
-44.4270147905
 21
32.0
  0
LINE
  5
23E
100
AcDbEntity
  8
0
100
AcDbLine
 62
7
  6
CONTINUOUS
 10
-63.7270147905
 20
32.0
 11
-44.4270147905
 21
32.0
  0
INSERT
  5
23F
100
AcDbEntity
  8
0
100
AcDbBlockReference
 62
7
  6
CONTINUOUS
  2
_FILLED
 10
-25.1270147905
 20
32.0
 41
3.0
 42
3.0
 43
3.0
  0
INSERT
  5
240
100
AcDbEntity
  8
0
100
AcDbBlockReference
 62
7
  6
CONTINUOUS
  2
_FILLED
 10
-63.7270147905
 20
32.0
 41
3.0
 42
3.0
 43
3.0
 50
180.0
  0
ENDBLK
  5
241
100
AcDbEntity
  8
0
  6
BYBLOCK
 62
0
100
AcDbBlockEnd
  0
ENDSEC
  0
SECTION
  2
ENTITIES
  0
DIMENSION
  5
242
100
AcDbEntity
  8
0
100
AcDbDimension
 62
7
  6
CONTINUOUS
  2
*D0
 10
12.4
 20
32.0744207414
 11
-4.3928571429
 21
32.0744207414
 70
160
 71
2
 72
2
 41
0.9
 42
24.8
  3
DIMSTYLE_1
100
AcDbAlignedDimension
 13
-12.4
 23
23.7500380762
 14
12.4
 24
23.7500380762
100
AcDbRotatedDimension
  0
DIMENSION
  5
243
100
AcDbEntity
  8
0
100
AcDbDimension
 62
7
  6
CONTINUOUS
  2
*D1
 10
20.4218033026
 20
-24.0
 11
20.4218033026
 21
-2.3571428571
 70
160
 71
2
 72
2
 41
0.9
 42
48.0
  3
DIMSTYLE_1
100
AcDbAlignedDimension
 13
12.1142113851
 23
24.0
 14
12.1142113867
 24
-24.0
 50
270.0
100
AcDbRotatedDimension
  0
DIMENSION
  5
244
100
AcDbEntity
  8
0
100
AcDbDimension
 62
7
  6
CONTINUOUS
  2
*D2
 10
-75.2270147905
 20
42.0
 11
-54.1413005048
 21
42.0
 70
160
 71
2
 72
2
 41
0.9
 42
50.1
  3
DIMSTYLE_1
100
AcDbAlignedDimension
 13
-25.1270147905
 23
15.1885208992
 14
-75.2270147905
 24
0.0
 50
180.0
100
AcDbRotatedDimension
  0
DIMENSION
  5
245
100
AcDbEntity
  8
0
100
AcDbDimension
 62
7
  6
CONTINUOUS
  2
*D3
 10
-63.7270147905
 20
32.0
 11
-48.7127290762
 21
32.0
 70
160
 71
2
 72
2
 41
0.9
 42
38.6
  3
DIMSTYLE_1
100
AcDbAlignedDimension
 13
-25.1270147905
 23
15.1885208992
 14
-63.7270147905
 24
23.7500380762
 50
180.0
100
AcDbRotatedDimension
  0
LINE
  5
246
100
AcDbEntity
  8
DRAFT
100
AcDbLine
 62
7
  6
CONTINUOUS
 10
-10.2935241039
 20
22.5
 11
-10.4
 21
22.3935241039
  0
LINE
  5
247
100
AcDbEntity
  8
RACCORDO
100
AcDbLine
 62
7
  6
CONTINUOUS
 10
-10.4
 20
22.3935241039
 11
-10.435826687
 21
22.3576974169
  0
LINE
  5
248
100
AcDbEntity
  8
RACCORDO
100
AcDbLine
 62
7
  6
CONTINUOUS
 10
10.650038082
 20
-24.0
 11
12.149961918
 21
-24.0
  0
LINE
  5
249
100
AcDbEntity
  8
RACCORDO
100
AcDbLine
 62
7
  6
CONTINUOUS
 10
-10.650038082
 20
-24.0
 11
-12.149961918
 21
-24.0
  0
LINE
  5
24A
100
AcDbEntity
  8
RACCORDO
100
AcDbLine
 62
250
  6
CONTINUOUS
 10
10.4
 20
-23.75
 11
12.4
 21
-23.75
  0
LINE
  5
24B
100
AcDbEntity
  8
RACCORDO
100
AcDbLine
 62
250
  6
CONTINUOUS
 10
-10.4
 20
-23.75
 11
-12.4
 21
-23.75
  0
LINE
  5
24C
100
AcDbEntity
  8
0
100
AcDbLine
 62
7
  6
CONTINUOUS
 10
-6.0
 20
-23.4
 11
6.0
 21
-23.4
  0
LINE
  5
24D
100
AcDbEntity
  8
DRAFT
100
AcDbLine
 62
7
  6
CONTINUOUS
 10
6.0
 20
-23.25
 11
8.0
 21
-23.25
  0
LINE
  5
24E
100
AcDbEntity
  8
DRAFT
100
AcDbLine
 62
7
  6
CONTINUOUS
 10
-6.0
 20
-23.25
 11
-8.0
 21
-23.25
  0
LINE
  5
24F
100
AcDbEntity
  8
DRAFT
100
AcDbLine
 62
7
  6
CONTINUOUS
 10
-10.2935241039
 20
-22.5
 11
-10.4
 21
-22.3935241039
  0
LINE
  5
250
100
AcDbEntity
  8
RACCORDO
100
AcDbLine
 62
7
  6
CONTINUOUS
 10
-10.4
 20
-22.3935241039
 11
-10.435826687
 21
-22.3576974169
  0
LINE
  5
251
100
AcDbEntity
  8
0
100
AcDbLine
 62
250
  6
CONTINUOUS
 10
-6.0
 20
-22.8825502516
 11
6.0
 21
-22.8825502516
  0
LINE
  5
252
100
AcDbEntity
  8
RACCORDO
100
AcDbLine
 62
250
  6
CONTINUOUS
 10
6.2506196883
 20
-22.6965394526
 11
6.0
 21
-22.6965394526
  0
LINE
  5
253
100
AcDbEntity
  8
RACCORDO
100
AcDbLine
 62
250
  6
CONTINUOUS
 10
-6.0
 20
-22.6965394526
 11
-6.2506196883
 21
-22.6965394526
  0
LINE
  5
254
100
AcDbEntity
  8
DRAFT
100
AcDbLine
 62
7
  6
CONTINUOUS
 10
10.2935241039
 20
-22.5
 11
8.0
 21
-22.5
  0
LINE
  5
255
100
AcDbEntity
  8
DRAFT
100
AcDbLine
 62
7
  6
CONTINUOUS
 10
-8.0
 20
-22.5
 11
-10.2935241039
 21
-22.5
  0
LINE
  5
256
100
AcDbEntity
  8
RACCORDO
100
AcDbLine
 62
250
  6
CONTINUOUS
 10
6.2540497747
 20
-22.4965699136
 11
6.0
 21
-22.4965699136
  0
LINE
  5
257
100
AcDbEntity
  8
RACCORDO
100
AcDbLine
 62
250
  6
CONTINUOUS
 10
-6.0
 20
-22.4965699136
 11
-6.2540497747
 21
-22.4965699136
  0
LINE
  5
258
100
AcDbEntity
  8
RACCORDO
100
AcDbLine
 62
250
  6
CONTINUOUS
 10
-12.0234126973
 20
-22.266898725
 11
12.0234126973
 21
-22.266898725
  0
LINE
  5
259
100
AcDbEntity
  8
RACCORDO
100
AcDbLine
 62
250
  6
CONTINUOUS
 10
-12.273374621
 20
-22.0169368012
 11
12.273374621
 21
-22.0169368012
  0
LINE
  5
25A
100
AcDbEntity
  8
RACCORDO
100
AcDbLine
 62
7
  6
CONTINUOUS
 10
-6.4147271881
 20
23.0858925002
 11
-6.2506196883
 21
23.25
  0
LINE
  5
25B
100
AcDbEntity
  8
RACCORDO
100
AcDbLine
 62
7
  6
CONTINUOUS
 10
-6.2540497747
 20
22.4965699136
 11
-6.4147271881
 21
22.3358925002
  0
LINE
  5
25C
100
AcDbEntity
  8
RACCORDO
100
AcDbLine
 62
7
  6
CONTINUOUS
 10
-6.4147271881
 20
-23.0858925002
 11
-6.2506196883
 21
-23.25
  0
LINE
  5
25D
100
AcDbEntity
  8
RACCORDO
100
AcDbLine
 62
7
  6
CONTINUOUS
 10
-6.2540497747
 20
-22.4965699136
 11
-6.4147271881
 21
-22.3358925002
  0
LINE
  5
25E
100
AcDbEntity
  8
RACCORDO
100
AcDbLine
 62
250
  6
CONTINUOUS
 10
12.2821021535
 20
-19.05
 11
12.273374621
 21
-19.05
  0
LINE
  5
25F
100
AcDbEntity
  8
RACCORDO
100
AcDbLine
 62
250
  6
CONTINUOUS
 10
-12.273374621
 20
-19.05
 11
-12.2821021535
 21
-19.05
  0
LINE
  5
260
100
AcDbEntity
  8
RACCORDO
100
AcDbLine
 62
7
  6
CONTINUOUS
 10
12.019048931
 20
-18.8
 11
3.973470195
 21
-18.8
  0
LINE
  5
261
100
AcDbEntity
  8
RACCORDO
100
AcDbLine
 62
7
  6
CONTINUOUS
 10
-3.9858227163
 20
-18.8
 11
-12.019048931
 21
-18.8
  0
LINE
  5
262
100
AcDbEntity
  8
RACCORDO
100
AcDbLine
 62
7
  6
CONTINUOUS
 10
12.0285342235
 20
-18.3
 11
4.4796410224
 21
-18.3
  0
LINE
  5
263
100
AcDbEntity
  8
RACCORDO
100
AcDbLine
 62
7
  6
CONTINUOUS
 10
-4.4919935437
 20
-18.3
 11
-12.0285342235
 21
-18.3
  0
LINE
  5
264
100
AcDbEntity
  8
DRAFT
100
AcDbLine
 62
7
  6
CONTINUOUS
 10
-4.4919935437
 20
18.3
 11
-3.9919935437
 21
18.8
  0
LINE
  5
265
100
AcDbEntity
  8
DRAFT
100
AcDbLine
 62
7
  6
CONTINUOUS
 10
-3.9858227163
 20
18.8
 11
-3.4709994885
 21
19.3148232278
  0
LINE
  5
266
100
AcDbEntity
  8
RACCORDO
100
AcDbLine
 62
250
  6
CONTINUOUS
 10
-11.9701710012
 20
-17.7104283868
 11
-5.0180868004
 21
-17.710427789
  0
LINE
  5
267
100
AcDbEntity
  8
RACCORDO
100
AcDbLine
 62
250
  6
CONTINUOUS
 10
5.005734279
 20
-17.710427789
 11
11.9701710012
 21
-17.7104283868
  0
LINE
  5
268
100
AcDbEntity
  8
RACCORDO
100
AcDbLine
 62
250
  6
CONTINUOUS
 10
11.9593631106
 20
-16.7650632919
 11
4.6006307497
 21
-16.765067253
  0
LINE
  5
269
100
AcDbEntity
  8
RACCORDO
100
AcDbLine
 62
250
  6
CONTINUOUS
 10
-4.6129832711
 20
-16.765067253
 11
-11.9593631106
 21
-16.7650632919
  0
LINE
  5
26A
100
AcDbEntity
  8
DRAFT
100
AcDbLine
 62
7
  6
CONTINUOUS
 10
-4.4919935437
 20
-18.3
 11
-3.9919935437
 21
-18.8
  0
LINE
  5
26B
100
AcDbEntity
  8
DRAFT
100
AcDbLine
 62
7
  6
CONTINUOUS
 10
-3.9858227163
 20
-18.8
 11
-3.4709994885
 21
-19.3148232278
  0
LINE
  5
26C
100
AcDbEntity
  8
RACCORDO
100
AcDbLine
 62
7
  6
CONTINUOUS
 10
-4.4919935437
 20
18.3
 11
-5.0112363234
 21
17.7416786314
  0
LINE
  5
26D
100
AcDbEntity
  8
RACCORDO
100
AcDbLine
 62
7
  6
CONTINUOUS
 10
-5.0112363234
 20
-17.7416786313
 11
-4.4919935437
 21
-18.3
  0
LINE
  5
26E
100
AcDbEntity
  8
RACCORDO
100
AcDbLine
 62
7
  6
CONTINUOUS
 10
-12.4
 20
23.7500380762
 11
-12.4
 21
-23.7500380762
  0
LINE
  5
26F
100
AcDbEntity
  8
RACCORDO
100
AcDbLine
 62
250
  6
CONTINUOUS
 10
-8.3622351806
 20
11.0232524862
 11
-1.7519346807
 21
17.6335529861
  0
LINE
  5
270
100
AcDbEntity
  8
RACCORDO
100
AcDbLine
 62
250
  6
CONTINUOUS
 10
-8.185545714
 20
10.8465630195
 11
-1.575245214
 21
17.4568635194
  0
LINE
  5
271
100
AcDbEntity
  8
RACCORDO
100
AcDbLine
 62
250
  6
CONTINUOUS
 10
-1.7519346807
 20
-17.6335529861
 11
-8.3622351806
 21
-11.0232524862
  0
LINE
  5
272
100
AcDbEntity
  8
RACCORDO
100
AcDbLine
 62
250
  6
CONTINUOUS
 10
-1.575245214
 20
-17.4568635194
 11
-8.185545714
 21
-10.8465630195
  0
LINE
  5
273
100
AcDbEntity
  8
RACCORDO
100
AcDbLine
 62
250
  6
CONTINUOUS
 10
-12.364173313
 20
-23.75
 11
-12.364173313
 21
-22.1077354931
  0
LINE
  5
274
100
AcDbEntity
  8
RACCORDO
100
AcDbLine
 62
250
  6
CONTINUOUS
 10
-12.364173313
 20
22.1077354931
 11
-12.364173313
 21
23.75
  0
LINE
  5
275
100
AcDbEntity
  8
RACCORDO
100
AcDbLine
 62
250
  6
CONTINUOUS
 10
-12.2821021535
 20
-19.05
 11
-12.2821021535
 21
-18.0902250922
  0
LINE
  5
276
100
AcDbEntity
  8
RACCORDO
100
AcDbLine
 62
250
  6
CONTINUOUS
 10
-12.2821021535
 20
18.0902250922
 11
-12.2821021535
 21
19.05
  0
LINE
  5
277
100
AcDbEntity
  8
RACCORDO
100
AcDbLine
 62
250
  6
CONTINUOUS
 10
-12.273374621
 20
-22.0169368012
 11
-12.273374621
 21
-19.05
  0
LINE
  5
278
100
AcDbEntity
  8
RACCORDO
100
AcDbLine
 62
250
  6
CONTINUOUS
 10
-12.273374621
 20
19.05
 11
-12.273374621
 21
22.0169368012
  0
LINE
  5
279
100
AcDbEntity
  8
RACCORDO
100
AcDbLine
 62
250
  6
CONTINUOUS
 10
-12.0321402297
 20
-18.8000380762
 11
-12.0321402297
 21
-18.2999735975
  0
LINE
  5
27A
100
AcDbEntity
  8
RACCORDO
100
AcDbLine
 62
250
  6
CONTINUOUS
 10
-12.0321402297
 20
18.2999735975
 11
-12.0321402297
 21
18.8000380762
  0
LINE
  5
27B
100
AcDbEntity
  8
RACCORDO
100
AcDbLine
 62
250
  6
CONTINUOUS
 10
-12.0234126973
 20
-18.8000380762
 11
-12.0234126973
 21
-22.266898725
  0
LINE
  5
27C
100
AcDbEntity
  8
RACCORDO
100
AcDbLine
 62
250
  6
CONTINUOUS
 10
-12.0234126973
 20
18.8000380762
 11
-12.0234126973
 21
22.266898725
  0
LINE
  5
27D
100
AcDbEntity
  8
RACCORDO
100
AcDbLine
 62
250
  6
CONTINUOUS
 10
-10.7076097858
 20
-5.3610173055
 11
-10.7076097858
 21
5.3610173055
  0
LINE
  5
27E
100
AcDbEntity
  8
RACCORDO
100
AcDbLine
 62
250
  6
CONTINUOUS
 10
3.4425995215
 20
19.298770978
 11
3.4586469671
 21
19.3148232278
  0
LINE
  5
27F
100
AcDbEntity
  8
RACCORDO
100
AcDbLine
 62
250
  6
CONTINUOUS
 10
1.575245214
 20
17.4568635194
 11
2.0203935003
 21
17.9020068013
  0
LINE
  5
280
100
AcDbEntity
  8
RACCORDO
100
AcDbLine
 62
7
  6
CONTINUOUS
 10
7.8358925002
 20
23.0858925002
 11
8.0
 21
23.25
  0
LWPOLYLINE
  5
281
100
AcDbEntity
  8
0
100
AcDbPolyline
 62
7
  6
CONTINUOUS
 90
16
 70
0
 10
0.0
 20
-11.0970439392
 10
-0.0980331138
 20
-11.0952200317
 10
-0.2458677142
 20
-11.0854571
 10
-0.3913010768
 20
-11.0674628441
 10
-0.5353539391
 20
-11.0413412631
 10
-0.6777347922
 20
-11.0072277661
 10
-0.8169329715
 20
-10.9654465901
 10
-0.9532877239
 20
-10.9160237251
 10
-1.0872978059
 20
-10.8588718845
 10
-1.2176069029
 20
-10.7944374102
 10
-1.3440105725
 20
-10.7227816121
 10
-1.4669348407
 20
-10.643690704
 10
-1.5857382554
 20
-10.5574816186
 10
-1.699883044
 20
-10.4642590356
 10
-1.8092381482
 20
-10.3639359726
 10
-1.8673832552
 20
-10.3056389371
  0
LINE
  5
282
100
AcDbEntity
  8
RACCORDO
100
AcDbLine
 62
250
  6
CONTINUOUS
 10
1.575245214
 20
-17.4568635194
 11
2.0203938391
 21
-17.9020064632
  0
LINE
  5
283
100
AcDbEntity
  8
RACCORDO
100
AcDbLine
 62
7
  6
CONTINUOUS
 10
7.8358925002
 20
-23.0858925002
 11
8.0
 21
-23.25
  0
LINE
  5
284
100
AcDbEntity
  8
RACCORDO
100
AcDbLine
 62
250
  6
CONTINUOUS
 10
3.4425998798
 20
-19.2987706195
 11
3.4586469671
 21
-19.3148232278
  0
LINE
  5
285
100
AcDbEntity
  8
RACCORDO
100
AcDbLine
 62
250
  6
CONTINUOUS
 10
-12.2201328658
 20
17.4642258507
 11
-12.2821021535
 21
18.0902250922
  0
LINE
  5
286
100
AcDbEntity
  8
RACCORDO
100
AcDbLine
 62
250
  6
CONTINUOUS
 10
-11.9701710012
 20
17.7104283868
 11
-12.0285342235
 21
18.3
  0
LINE
  5
287
100
AcDbEntity
  8
RACCORDO
100
AcDbLine
 62
250
  6
CONTINUOUS
 10
-10.4577331457
 20
-5.3610173055
 11
-10.4577331457
 21
5.3610173055
  0
LINE
  5
288
100
AcDbEntity
  8
RACCORDO
100
AcDbLine
 62
250
  6
CONTINUOUS
 10
-10.435826687
 20
-23.75
 11
-10.435826687
 21
-22.3576974169
  0
LINE
  5
289
100
AcDbEntity
  8
RACCORDO
100
AcDbLine
 62
250
  6
CONTINUOUS
 10
-10.435826687
 20
22.3576974169
 11
-10.435826687
 21
23.75
  0
LINE
  5
28A
100
AcDbEntity
  8
RACCORDO
100
AcDbLine
 62
7
  6
CONTINUOUS
 10
-10.4
 20
-23.75
 11
-10.4
 21
-22.3935241039
  0
LINE
  5
28B
100
AcDbEntity
  8
RACCORDO
100
AcDbLine
 62
7
  6
CONTINUOUS
 10
-10.4
 20
22.3935241039
 11
-10.4
 21
23.75
  0
LINE
  5
28C
100
AcDbEntity
  8
RACCORDO
100
AcDbLine
 62
250
  6
CONTINUOUS
 10
-12.2821021535
 20
-18.0902250922
 11
-12.2201328658
 21
-17.4642258507
  0
LINE
  5
28D
100
AcDbEntity
  8
RACCORDO
100
AcDbLine
 62
250
  6
CONTINUOUS
 10
-12.0285342235
 20
-18.3
 11
-11.9701710012
 21
-17.7104283868
  0
LWPOLYLINE
  5
28E
100
AcDbEntity
  8
0
100
AcDbPolyline
 62
7
  6
CONTINUOUS
 90
3
 70
0
 43
0.3500000087
 10
1.0357142884
 20
33.1101344208
 10
0.9642857329
 20
32.8958478882
 10
0.8214285552
 20
32.6101339325
  0
LINE
  5
28F
100
AcDbEntity
  8
RACCORDO
100
AcDbLine
 62
7
  6
CONTINUOUS
 10
8.0
 20
22.5
 11
7.8358925002
 21
22.3358925002
  0
LWPOLYLINE
  5
290
100
AcDbEntity
  8
0
100
AcDbPolyline
 62
7
  6
CONTINUOUS
 90
5
 70
0
 10
-2.0183980369
 20
10.1726751594
 10
-1.9696123027
 20
10.2125514063
 10
-1.9243666664
 20
10.2521285718
 10
-1.8798565999
 20
10.2935824316
 10
-1.86739683
 20
10.305646551
  0
LINE
  5
291
100
AcDbEntity
  8
0
100
AcDbLine
 62
7
  6
CONTINUOUS
 10
-1.9914551112
 20
-10.1939939403
 11
-2.0451862185
 21
-10.1518241281
  0
LWPOLYLINE
  5
292
100
AcDbEntity
  8
0
100
AcDbPolyline
 62
7
  6
CONTINUOUS
 90
3
 70
0
 10
-1.881532099
 20
-10.2918370273
 10
-1.9361039792
 20
-10.2412215165
 10
-1.9914551112
 20
-10.1939939403
  0
LINE
  5
293
100
AcDbEntity
  8
RACCORDO
100
AcDbLine
 62
7
  6
CONTINUOUS
 10
8.0
 20
-22.5
 11
7.8358925002
 21
-22.3358925002
  0
LINE
  5
294
100
AcDbEntity
  8
DRAFT
100
AcDbLine
 62
7
  6
CONTINUOUS
 10
-8.0
 20
23.25
 11
-8.0
 21
22.5
  0
LINE
  5
295
100
AcDbEntity
  8
DRAFT
100
AcDbLine
 62
7
  6
CONTINUOUS
 10
-8.0
 20
-22.5
 11
-8.0
 21
-23.25
  0
LINE
  5
296
100
AcDbEntity
  8
RACCORDO
100
AcDbLine
 62
250
  6
CONTINUOUS
 10
-7.8358925002
 20
-23.0858925002
 11
-7.8358925002
 21
-22.3358925002
  0
LINE
  5
297
100
AcDbEntity
  8
RACCORDO
100
AcDbLine
 62
250
  6
CONTINUOUS
 10
-7.8358925002
 20
22.3358925002
 11
-7.8358925002
 21
23.0858925002
  0
LINE
  5
298
100
AcDbEntity
  8
0
100
AcDbLine
 62
7
  6
CONTINUOUS
 10
-1.8687718651
 20
9.2929527713
 11
-1.8673992956
 21
9.2943508577
  0
LWPOLYLINE
  5
299
100
AcDbEntity
  8
0
100
AcDbPolyline
 62
7
  6
CONTINUOUS
 90
16
 70
0
 10
-1.8673832552
 20
10.3056389371
 10
-1.8053496324
 20
10.3677061028
 10
-1.6959175034
 20
10.4676851118
 10
-1.5817068684
 20
10.5605794448
 10
-1.4628484185
 20
10.6464778482
 10
-1.3398783044
 20
10.7252747885
 10
-1.2134289923
 20
10.7966473627
 10
-1.0830731415
 20
10.860810003
 10
-0.9490151173
 20
10.9177034788
 10
-0.8126091662
 20
10.9668742538
 10
-0.6733545196
 20
11.0084047475
 10
-0.5309103141
 20
11.0422710434
 10
-0.3867873257
 20
11.0681477436
 10
-0.2412767847
 20
11.0858890581
 10
-0.0933586078
 20
11.0953904678
 10
-0.0
 20
11.0970439392
  0
LINE
  5
29A
100
AcDbEntity
  8
RACCORDO
100
AcDbLine
 62
250
  6
CONTINUOUS
 10
12.0234126973
 20
22.266898725
 11
12.1029831154
 21
22.3464691432
  0
LINE
  5
29B
100
AcDbEntity
  8
0
100
AcDbLine
 62
7
  6
CONTINUOUS
 10
-1.8673992956
 20
9.2943508577
 11
-2.231327785
 21
8.9425547867
  0
LWPOLYLINE
  5
29C
100
AcDbEntity
  8
0
100
AcDbPolyline
 62
7
  6
CONTINUOUS
 90
16
 70
0
 10
0.0
 20
-8.5029560608
 10
0.0983876113
 20
-8.5047951324
 10
0.2463423245
 20
-8.5145933088
 10
0.3918934836
 20
-8.5326362664
 10
0.5360665418
 20
-8.5588202508
 10
0.6785741122
 20
-8.5930150272
 10
0.8179033971
 20
-8.6348966365
 10
0.9543751672
 20
-8.6844317333
 10
1.0884882096
 20
-8.7417081062
 10
1.2189016274
 20
-8.806288267
 10
1.3453959927
 20
-8.8781020298
 10
1.4683854211
 20
-8.9573543338
 10
1.5872452656
 20
-9.0437404661
 10
1.7014368493
 20
-9.1371549759
 10
1.8108103829
 20
-9.2376677592
 10
1.8688913717
 20
-9.2960029441
  0
LINE
  5
29D
100
AcDbEntity
  8
0
100
AcDbLine
 62
7
  6
CONTINUOUS
 10
-1.86739683
 20
-9.294353449
 11
-2.231327902
 21
-8.9425546705
  0
LINE
  5
29E
100
AcDbEntity
  8
0
100
AcDbLine
 62
7
  6
CONTINUOUS
 10
-1.8673968381
 20
-10.3056465692
 11
-1.881532099
 21
-10.2918370273
  0
LINE
  5
29F
100
AcDbEntity
  8
RACCORDO
100
AcDbLine
 62
250
  6
CONTINUOUS
 10
12.1029831154
 20
-22.3464691432
 11
12.0234126973
 21
-22.266898725
  0
LINE
  5
2A0
100
AcDbEntity
  8
RACCORDO
100
AcDbLine
 62
250
  6
CONTINUOUS
 10
-6.4147271881
 20
-23.0858925002
 11
-6.4147271881
 21
-22.3358925002
  0
LINE
  5
2A1
100
AcDbEntity
  8
RACCORDO
100
AcDbLine
 62
250
  6
CONTINUOUS
 10
-6.4147271881
 20
22.3358925002
 11
-6.4147271881
 21
23.0858925002
  0
LINE
  5
2A2
100
AcDbEntity
  8
RACCORDO
100
AcDbLine
 62
7
  6
CONTINUOUS
 10
-6.2506196883
 20
-23.25
 11
-6.2506196883
 21
-22.6965394526
  0
LINE
  5
2A3
100
AcDbEntity
  8
RACCORDO
100
AcDbLine
 62
7
  6
CONTINUOUS
 10
-6.2506196883
 20
22.6965394526
 11
-6.2506196883
 21
23.25
  0
LINE
  5
2A4
100
AcDbEntity
  8
0
100
AcDbLine
 62
7
  6
CONTINUOUS
 10
-6.0
 20
-22.1860402013
 11
-6.0
 21
-23.4
  0
LINE
  5
2A5
100
AcDbEntity
  8
0
100
AcDbLine
 62
7
  6
CONTINUOUS
 10
-6.0
 20
22.4860402013
 11
-6.0
 21
23.7
  0
LINE
  5
2A6
100
AcDbEntity
  8
0
100
AcDbLine
 62
7
  6
CONTINUOUS
 10
-7.0396525964
 20
-0.8654929922
 11
-7.0744565967
 21
-0.9929775322
  0
LINE
  5
2A7
100
AcDbEntity
  8
RACCORDO
100
AcDbLine
 62
7
  6
CONTINUOUS
 10
3.9
 20
22.3551229611
 11
3.9669664613
 21
22.4860402013
  0
LWPOLYLINE
  5
2A8
100
AcDbEntity
  8
0
100
AcDbPolyline
 62
7
  6
CONTINUOUS
 90
16
 70
0
 10
1.8688913717
 20
9.2960029441
 10
1.8069178478
 20
9.23388708
 10
1.6974672756
 20
9.1337196515
 10
1.5832101108
 20
9.0406347627
 10
1.4642958511
 20
8.954560755
 10
1.3412616449
 20
8.8756038566
 10
1.2147229865
 20
8.8040746589
 10
1.0842643618
 20
8.7397675699
 10
0.9501052212
 20
8.6827506892
 10
0.8135844633
 20
8.6334685162
 10
0.6742010797
 20
8.5918382382
 10
0.531632683
 20
8.5578911158
 10
0.3873922314
 20
8.5319521004
 10
0.2417667257
 20
8.514161821
 10
0.0937312745
 20
8.5046246077
 10
-0.0
 20
8.5029560608
  0
LINE
  5
2A9
100
AcDbEntity
  8
RACCORDO
100
AcDbLine
 62
250
  6
CONTINUOUS
 10
12.273374621
 20
22.0169368012
 11
12.364173313
 21
22.1077354931
  0
LINE
  5
2AA
100
AcDbEntity
  8
0
100
AcDbLine
 62
7
  6
CONTINUOUS
 10
1.8800038689
 20
9.3068564742
 11
1.8689054999
 21
9.2959955411
  0
LINE
  5
2AB
100
AcDbEntity
  8
0
100
AcDbLine
 62
7
  6
CONTINUOUS
 10
1.9759811253
 20
10.4071303072
 11
2.0714368998
 21
10.4992715299
  0
LINE
  5
2AC
100
AcDbEntity
  8
0
100
AcDbLine
 62
7
  6
CONTINUOUS
 10
1.8689071668
 20
10.304006254
 11
1.9860744123
 21
10.4170529454
  0
LWPOLYLINE
  5
2AD
100
AcDbEntity
  8
0
100
AcDbPolyline
 62
7
  6
CONTINUOUS
 90
4
 70
0
 10
2.0248227383
 20
9.4331878385
 10
1.976289567
 20
9.3938730679
 10
1.9279315809
 20
9.3517374592
 10
1.8800038689
 20
9.3068564742
  0
LINE
  5
2AE
100
AcDbEntity
  8
0
100
AcDbLine
 62
7
  6
CONTINUOUS
 10
2.03820115
 20
9.4435248658
 11
2.0248227383
 21
9.4331878385
  0
LINE
  5
2AF
100
AcDbEntity
  8
RACCORDO
100
AcDbLine
 62
250
  6
CONTINUOUS
 10
10.4577331457
 20
-5.3610173055
 11
11.0988386354
 21
-5.3610133494
  0
LINE
  5
2B0
100
AcDbEntity
  8
RACCORDO
100
AcDbLine
 62
250
  6
CONTINUOUS
 10
-10.4577331457
 20
-5.3610173055
 11
-11.0988386353
 21
-5.3610136985
  0
LINE
  5
2B1
100
AcDbEntity
  8
0
100
AcDbLine
 62
7
  6
CONTINUOUS
 10
2.006236858
 20
-9.4183310021
 11
2.0029537196
 21
-9.4158180863
  0
LINE
  5
2B2
100
AcDbEntity
  8
0
100
AcDbLine
 62
7
  6
CONTINUOUS
 10
2.0061617698
 20
-9.4184237106
 11
2.0029537196
 21
-9.4158180863
  0
LINE
  5
2B3
100
AcDbEntity
  8
0
100
AcDbLine
 62
7
  6
CONTINUOUS
 10
1.9654430302
 20
-9.3844933375
 11
2.0125984318
 21
-9.4236078003
  0
LWPOLYLINE
  5
2B4
100
AcDbEntity
  8
0
100
AcDbPolyline
 62
7
  6
CONTINUOUS
 90
3
 70
0
 10
1.879943012
 20
-9.3066829261
 10
1.9223162149
 20
-9.3463533523
 10
1.9654430302
 20
-9.3844933375
  0
LINE
  5
2B5
100
AcDbEntity
  8
0
100
AcDbLine
 62
7
  6
CONTINUOUS
 10
1.8689054999
 20
-10.3040044589
 11
2.0713845738
 21
-10.4993804768
  0
LINE
  5
2B6
100
AcDbEntity
  8
0
100
AcDbLine
 62
7
  6
CONTINUOUS
 10
1.8689055003
 20
-9.2959955403
 11
1.879943012
 21
-9.3066829261
  0
LINE
  5
2B7
100
AcDbEntity
  8
RACCORDO
100
AcDbLine
 62
250
  6
CONTINUOUS
 10
12.364173313
 20
-22.1077354931
 11
12.273374621
 21
-22.0169368012
  0
LINE
  5
2B8
100
AcDbEntity
  8
0
100
AcDbLine
 62
7
  6
CONTINUOUS
 10
1.8689083052
 20
-10.3040074101
 11
1.8692384351
 21
-10.3043421015
  0
LINE
  5
2B9
100
AcDbEntity
  8
0
100
AcDbLine
 62
7
  6
CONTINUOUS
 10
-7.0396525948
 20
0.8654929938
 11
-7.074456604
 21
0.9929775654
  0
LINE
  5
2BA
100
AcDbEntity
  8
0
100
AcDbLine
 62
250
  6
CONTINUOUS
 10
-4.8
 20
-1.2970439392
 11
-4.7999302819
 21
-2.2912761001
  0
LINE
  5
2BB
100
AcDbEntity
  8
0
100
AcDbLine
 62
250
  6
CONTINUOUS
 10
-4.8
 20
1.2970439392
 11
-4.7999303139
 21
2.291276274
  0
LINE
  5
2BC
100
AcDbEntity
  8
0
100
AcDbLine
 62
7
  6
CONTINUOUS
 10
-6.6687718651
 20
-0.5070472287
 11
-6.6673992956
 21
-0.5056491423
  0
LWPOLYLINE
  5
2BD
100
AcDbEntity
  8
0
100
AcDbPolyline
 62
7
  6
CONTINUOUS
 90
16
 70
0
 10
-6.6673832552
 20
0.5056389371
 10
-6.6053496324
 20
0.5677061028
 10
-6.4959175034
 20
0.6676851118
 10
-6.3817068684
 20
0.7605794448
 10
-6.2628484185
 20
0.8464778482
 10
-6.1398783044
 20
0.9252747885
 10
-6.0134289923
 20
0.9966473627
 10
-5.8830731415
 20
1.060810003
 10
-5.7490151173
 20
1.1177034788
 10
-5.6126091662
 20
1.1668742538
 10
-5.4733545196
 20
1.2084047475
 10
-5.3309103141
 20
1.2422710434
 10
-5.1867873257
 20
1.2681477436
 10
-5.0412767847
 20
1.2858890581
 10
-4.8933586078
 20
1.2953904678
 10
-4.8
 20
1.2970439392
  0
LINE
  5
2BE
100
AcDbEntity
  8
0
100
AcDbLine
 62
7
  6
CONTINUOUS
 10
-6.6673992956
 20
-0.5056491423
 11
-7.0397057011
 21
-0.8654379991
  0
LINE
  5
2BF
100
AcDbEntity
  8
0
100
AcDbLine
 62
7
  6
CONTINUOUS
 10
-6.7101919453
 20
-0.5469989451
 11
-7.0396525964
 21
-0.8654929922
  0
LINE
  5
2C0
100
AcDbEntity
  8
0
100
AcDbLine
 62
7
  6
CONTINUOUS
 10
-7.0397057011
 20
-0.8654379991
 11
-7.1044805123
 21
-0.9279465294
  0
LWPOLYLINE
  5
2C1
100
AcDbEntity
  8
0
100
AcDbPolyline
 62
7
  6
CONTINUOUS
 90
5
 70
0
 10
-6.8183980369
 20
0.3726751594
 10
-6.7696123027
 20
0.4125514063
 10
-6.7243666664
 20
0.4521285718
 10
-6.6798565999
 20
0.4935824316
 10
-6.66739683
 20
0.505646551
  0
LINE
  5
2C2
100
AcDbEntity
  8
0
100
AcDbLine
 62
7
  6
CONTINUOUS
 10
-6.7914551112
 20
-0.3939939403
 11
-6.8451862185
 21
-0.3518241281
  0
LWPOLYLINE
  5
2C3
100
AcDbEntity
  8
0
100
AcDbPolyline
 62
7
  6
CONTINUOUS
 90
3
 70
0
 10
-6.681532099
 20
-0.4918370273
 10
-6.7361039792
 20
-0.4412215165
 10
-6.7914551112
 20
-0.3939939403
  0
LINE
  5
2C4
100
AcDbEntity
  8
0
100
AcDbLine
 62
7
  6
CONTINUOUS
 10
-7.039705698
 20
0.8654380023
 11
-7.1044806915
 21
0.9279467085
  0
LINE
  5
2C5
100
AcDbEntity
  8
0
100
AcDbLine
 62
7
  6
CONTINUOUS
 10
-6.66739683
 20
0.505646551
 11
-7.0396525948
 21
0.8654929938
  0
LINE
  5
2C6
100
AcDbEntity
  8
0
100
AcDbLine
 62
7
  6
CONTINUOUS
 10
-6.6673968381
 20
-0.5056465692
 11
-6.681532099
 21
-0.4918370273
  0
LWPOLYLINE
  5
2C7
100
AcDbEntity
  8
0
100
AcDbPolyline
 62
7
  6
CONTINUOUS
 90
16
 70
0
 10
-2.9311086283
 20
-0.5039970559
 10
-2.9930821522
 20
-0.56611292
 10
-3.1025327244
 20
-0.6662803485
 10
-3.2167898892
 20
-0.7593652373
 10
-3.3357041489
 20
-0.845439245
 10
-3.4587383551
 20
-0.9243961434
 10
-3.5852770135
 20
-0.9959253411
 10
-3.7157356382
 20
-1.0602324301
 10
-3.8498947788
 20
-1.1172493108
 10
-3.9864155367
 20
-1.1665314838
 10
-4.1257989203
 20
-1.2081617618
 10
-4.268367317
 20
-1.2421088842
 10
-4.4126077686
 20
-1.2680478996
 10
-4.5582332743
 20
-1.285838179
 10
-4.7062687255
 20
-1.2953753923
 10
-4.8
 20
-1.2970439392
  0
LINE
  5
2C8
100
AcDbEntity
  8
RACCORDO
100
AcDbLine
 62
250
  6
CONTINUOUS
 10
8.185545714
 20
10.8465630195
 11
8.6359393416
 21
11.2969622595
  0
LINE
  5
2C9
100
AcDbEntity
  8
0
100
AcDbLine
 62
7
  6
CONTINUOUS
 10
-2.9199961311
 20
-0.4931435258
 11
-2.9310945001
 21
-0.5040044589
  0
LINE
  5
2CA
100
AcDbEntity
  8
0
100
AcDbLine
 62
7
  6
CONTINUOUS
 10
-2.9310928332
 20
0.504006254
 11
-2.7906842079
 21
0.6393074801
  0
LINE
  5
2CB
100
AcDbEntity
  8
0
100
AcDbLine
 62
7
  6
CONTINUOUS
 10
-7.0396525948
 20
0.8654929938
 11
-7.1438435144
 21
0.8330024485
  0
LINE
  5
2CC
100
AcDbEntity
  8
0
100
AcDbLine
 62
7
  6
CONTINUOUS
 10
-7.0396525964
 20
-0.8654929922
 11
-7.1438438109
 21
-0.8330023551
  0
LWPOLYLINE
  5
2CD
100
AcDbEntity
  8
0
100
AcDbPolyline
 62
7
  6
CONTINUOUS
 90
3
 70
0
 10
-2.920056988
 20
0.4933170739
 10
-2.8776837851
 20
0.4536466477
 10
-2.8345569698
 20
0.4155066625
  0
LINE
  5
2CE
100
AcDbEntity
  8
0
100
AcDbLine
 62
7
  6
CONTINUOUS
 10
-2.9310945001
 20
-0.5040044589
 11
-2.7907227663
 21
-0.6394445466
  0
LINE
  5
2CF
100
AcDbEntity
  8
0
100
AcDbLine
 62
7
  6
CONTINUOUS
 10
-2.9310944997
 20
0.5040044597
 11
-2.920056988
 21
0.4933170739
  0
LINE
  5
2D0
100
AcDbEntity
  8
RACCORDO
100
AcDbLine
 62
250
  6
CONTINUOUS
 10
8.185545714
 20
-10.8465630195
 11
8.6359395914
 21
-11.2969620101
  0
LINE
  5
2D1
100
AcDbEntity
  8
0
100
AcDbLine
 62
7
  6
CONTINUOUS
 10
-2.9310916948
 20
-0.5040074101
 11
-2.9307615649
 21
-0.5043421015
  0
LINE
  5
2D2
100
AcDbEntity
  8
0
100
AcDbLine
 62
7
  6
CONTINUOUS
 10
-1.5
 20
22.4360402013
 11
-1.5
 21
22.4860402013
  0
LWPOLYLINE
  5
2D3
100
AcDbEntity
  8
0
100
AcDbPolyline
 62
7
  6
CONTINUOUS
 90
2
 70
0
 43
0.3500000087
 10
-1.0357142884
 20
32.8244204651
 10
-1.0357142884
 20
34.3244219299
  0
LINE
  5
2D4
100
AcDbEntity
  8
0
100
AcDbLine
 62
250
  6
CONTINUOUS
 10
-0.0
 20
8.5029560608
 11
0.0000706484
 21
7.5022580898
  0
LINE
  5
2D5
100
AcDbEntity
  8
0
100
AcDbLine
 62
250
  6
CONTINUOUS
 10
0.0
 20
-11.0970439392
 11
0.0000278118
 21
-11.799999996
  0
LINE
  5
2D6
100
AcDbEntity
  8
0
100
AcDbLine
 62
250
  6
CONTINUOUS
 10
-0.0
 20
11.0970439392
 11
0.000027799
 21
11.799999996
  0
LINE
  5
2D7
100
AcDbEntity
  8
0
100
AcDbLine
 62
250
  6
CONTINUOUS
 10
0.0
 20
-8.5029560608
 11
0.0000706159
 21
-7.5022580898
  0
LWPOLYLINE
  5
2D8
100
AcDbEntity
  8
0
100
AcDbPolyline
 62
7
  6
CONTINUOUS
 90
4
 70
0
 10
-2.7751772617
 20
-0.3668121615
 10
-2.823710433
 20
-0.4061269321
 10
-2.8720684191
 20
-0.4482625408
 10
-2.9199961311
 20
-0.4931435258
  0
LINE
  5
2D9
100
AcDbEntity
  8
0
100
AcDbLine
 62
7
  6
CONTINUOUS
 10
-2.76179885
 20
-0.3564751342
 11
-2.7751772617
 21
-0.3668121615
  0
LWPOLYLINE
  5
2DA
100
AcDbEntity
  8
0
100
AcDbPolyline
 62
7
  6
CONTINUOUS
 90
2
 70
0
 43
0.3500000087
 10
19.6718025497
 20
-1.3571421616
 10
18.1718032166
 20
-1.3571421616
  0
LWPOLYLINE
  5
2DB
100
AcDbEntity
  8
0
100
AcDbPolyline
 62
7
  6
CONTINUOUS
 90
4
 70
0
 43
0.3500000087
 10
19.2432316162
 20
0.0000001938
 10
18.3860897491
 20
0.0000001938
 10
17.957516684
 20
0.4285711273
 10
17.957516684
 20
1.0714285934
  0
LWPOLYLINE
  5
2DC
100
AcDbEntity
  8
0
100
AcDbPolyline
 62
7
  6
CONTINUOUS
 90
16
 70
0
 10
-4.8
 20
-1.2970439392
 10
-4.8980331138
 20
-1.2952200317
 10
-5.0458677142
 20
-1.2854571
 10
-5.1913010768
 20
-1.2674628441
 10
-5.3353539391
 20
-1.2413412631
 10
-5.4777347922
 20
-1.2072277661
 10
-5.6169329715
 20
-1.1654465901
 10
-5.7532877239
 20
-1.1160237251
 10
-5.8872978059
 20
-1.0588718845
 10
-6.0176069029
 20
-0.9944374102
 10
-6.1440105725
 20
-0.9227816121
 10
-6.2669348407
 20
-0.843690704
 10
-6.3857382554
 20
-0.7574816186
 10
-6.499883044
 20
-0.6642590356
 10
-6.6092381482
 20
-0.5639359726
 10
-6.6673832552
 20
-0.5056389371
  0
LINE
  5
2DD
100
AcDbEntity
  8
0
100
AcDbLine
 62
7
  6
CONTINUOUS
 10
-2.793763142
 20
0.3816689979
 11
-2.7970462804
 21
0.3841819137
  0
LINE
  5
2DE
100
AcDbEntity
  8
0
100
AcDbLine
 62
7
  6
CONTINUOUS
 10
-2.7938382302
 20
0.3815762894
 11
-2.7970462804
 21
0.3841819137
  0
LINE
  5
2DF
100
AcDbEntity
  8
0
100
AcDbLine
 62
7
  6
CONTINUOUS
 10
-2.8345569698
 20
0.4155066625
 11
-2.7874015682
 21
0.3763921997
  0
LINE
  5
2E0
100
AcDbEntity
  8
0
100
AcDbLine
 62
7
  6
CONTINUOUS
 10
1.5
 20
22.4860402013
 11
1.5
 21
22.4360402013
  0
LWPOLYLINE
  5
2E1
100
AcDbEntity
  8
0
100
AcDbPolyline
 62
7
  6
CONTINUOUS
 90
4
 70
0
 43
0.3500000087
 10
2.0357143324
 20
33.2529935303
 10
2.0357143324
 20
34.1101353973
 10
2.4642857988
 20
34.5387084625
 10
3.107142732
 20
34.5387084625
  0
LINE
  5
2E2
100
AcDbEntity
  8
RACCORDO
100
AcDbLine
 62
250
  6
CONTINUOUS
 10
-8.185545714
 20
-10.8465630195
 11
-8.6359393416
 21
-11.2969622595
  0
LWPOLYLINE
  5
2E3
100
AcDbEntity
  8
0
100
AcDbPolyline
 62
7
  6
CONTINUOUS
 90
16
 70
0
 10
-4.8
 20
1.2970439392
 10
-4.7016123887
 20
1.2952048676
 10
-4.5536576755
 20
1.2854066912
 10
-4.4081065164
 20
1.2673637336
 10
-4.2639334582
 20
1.2411797492
 10
-4.1214258878
 20
1.2069849728
 10
-3.9820966029
 20
1.1651033635
 10
-3.8456248328
 20
1.1155682667
 10
-3.7115117904
 20
1.0582918938
 10
-3.5810983726
 20
0.993711733
 10
-3.4546040073
 20
0.9218979702
 10
-3.3316145789
 20
0.8426456662
 10
-3.2127547344
 20
0.7562595339
 10
-3.0985631507
 20
0.6628450241
 10
-2.9891896171
 20
0.5623322408
 10
-2.9311086283
 20
0.5039970559
  0
LINE
  5
2E4
100
AcDbEntity
  8
RACCORDO
100
AcDbLine
 62
250
  6
CONTINUOUS
 10
-8.185545714
 20
10.8465630195
 11
-8.6359395914
 21
11.2969620101
  0
LWPOLYLINE
  5
2E5
100
AcDbEntity
  8
0
100
AcDbPolyline
 62
7
  6
CONTINUOUS
 90
16
 70
0
 10
-1.8673832552
 20
-9.2943610629
 10
-1.8053496324
 20
-9.2322938972
 10
-1.6959175034
 20
-9.1323148882
 10
-1.5817068684
 20
-9.0394205552
 10
-1.4628484185
 20
-8.9535221518
 10
-1.3398783044
 20
-8.8747252115
 10
-1.2134289923
 20
-8.8033526373
 10
-1.0830731415
 20
-8.739189997
 10
-0.9490151173
 20
-8.6822965212
 10
-0.8126091662
 20
-8.6331257462
 10
-0.6733545196
 20
-8.5915952525
 10
-0.5309103141
 20
-8.5577289566
 10
-0.3867873257
 20
-8.5318522564
 10
-0.2412767847
 20
-8.5141109419
 10
-0.0933586078
 20
-8.5046095322
 10
0.0
 20
-8.5029560608
  0
LINE
  5
2E6
100
AcDbEntity
  8
RACCORDO
100
AcDbLine
 62
250
  6
CONTINUOUS
 10
10.4577331457
 20
5.3610173055
 11
11.0988386353
 21
5.3610136985
  0
LINE
  5
2E7
100
AcDbEntity
  8
RACCORDO
100
AcDbLine
 62
250
  6
CONTINUOUS
 10
-10.4577331457
 20
5.3610173055
 11
-11.0988386354
 21
5.3610133494
  0
LWPOLYLINE
  5
2E8
100
AcDbEntity
  8
0
100
AcDbPolyline
 62
7
  6
CONTINUOUS
 90
3
 70
0
 10
-1.881532099
 20
9.3081629727
 10
-1.9361039792
 20
9.3587784835
 10
-1.9914551112
 20
9.4060060597
  0
LINE
  5
2E9
100
AcDbEntity
  8
0
100
AcDbLine
 62
7
  6
CONTINUOUS
 10
-1.8673968381
 20
9.2943534308
 11
-1.881532099
 21
9.3081629727
  0
LINE
  5
2EA
100
AcDbEntity
  8
0
100
AcDbLine
 62
7
  6
CONTINUOUS
 10
6.0
 20
-22.1860402013
 11
6.0
 21
-23.4
  0
LINE
  5
2EB
100
AcDbEntity
  8
0
100
AcDbLine
 62
7
  6
CONTINUOUS
 10
6.0
 20
22.4860402013
 11
6.0
 21
23.7
  0
LINE
  5
2EC
100
AcDbEntity
  8
RACCORDO
100
AcDbLine
 62
7
  6
CONTINUOUS
 10
6.2506196883
 20
23.25
 11
6.2506196883
 21
22.6965394526
  0
LINE
  5
2ED
100
AcDbEntity
  8
RACCORDO
100
AcDbLine
 62
7
  6
CONTINUOUS
 10
6.2506196883
 20
-22.6965394526
 11
6.2506196883
 21
-23.25
  0
LINE
  5
2EE
100
AcDbEntity
  8
RACCORDO
100
AcDbLine
 62
250
  6
CONTINUOUS
 10
6.4147271881
 20
-23.0858925002
 11
6.4147271881
 21
-22.3358925002
  0
LINE
  5
2EF
100
AcDbEntity
  8
RACCORDO
100
AcDbLine
 62
250
  6
CONTINUOUS
 10
6.4147271881
 20
22.3358925002
 11
6.4147271881
 21
23.0858925002
  0
LINE
  5
2F0
100
AcDbEntity
  8
0
100
AcDbLine
 62
7
  6
CONTINUOUS
 10
-1.8687718651
 20
-10.3070472287
 11
-1.8673992956
 21
-10.3056491423
  0
LINE
  5
2F1
100
AcDbEntity
  8
RACCORDO
100
AcDbLine
 62
250
  6
CONTINUOUS
 10
-12.273374621
 20
-22.0169368012
 11
-12.364173313
 21
-22.1077354931
  0
LINE
  5
2F2
100
AcDbEntity
  8
RACCORDO
100
AcDbLine
 62
250
  6
CONTINUOUS
 10
-12.0234126973
 20
-22.266898725
 11
-12.1029831154
 21
-22.3464691432
  0
LINE
  5
2F3
100
AcDbEntity
  8
0
100
AcDbLine
 62
7
  6
CONTINUOUS
 10
-1.8673992956
 20
-10.3056491423
 11
-2.0703024755
 21
-10.5016360269
  0
LINE
  5
2F4
100
AcDbEntity
  8
0
100
AcDbLine
 62
7
  6
CONTINUOUS
 10
-1.9101919453
 20
-10.3469989451
 11
-2.0702557808
 21
-10.5017333533
  0
LWPOLYLINE
  5
2F5
100
AcDbEntity
  8
0
100
AcDbPolyline
 62
7
  6
CONTINUOUS
 90
5
 70
0
 10
-2.0183980369
 20
-9.4273248406
 10
-1.9696123027
 20
-9.3874485937
 10
-1.9243666664
 20
-9.3478714282
 10
-1.8798565999
 20
-9.3064175684
 10
-1.86739683
 20
-9.294353449
  0
LINE
  5
2F6
100
AcDbEntity
  8
0
100
AcDbLine
 62
7
  6
CONTINUOUS
 10
-1.9914551112
 20
9.4060060597
 11
-2.0451862185
 21
9.4481758719
  0
LINE
  5
2F7
100
AcDbEntity
  8
0
100
AcDbLine
 62
7
  6
CONTINUOUS
 10
-1.86739683
 20
10.305646551
 11
-2.0702557219
 21
10.5017332983
  0
LINE
  5
2F8
100
AcDbEntity
  8
RACCORDO
100
AcDbLine
 62
250
  6
CONTINUOUS
 10
-12.364173313
 20
22.1077354931
 11
-12.273374621
 21
22.0169368012
  0
LINE
  5
2F9
100
AcDbEntity
  8
RACCORDO
100
AcDbLine
 62
250
  6
CONTINUOUS
 10
-12.1029831154
 20
22.3464691432
 11
-12.0234126973
 21
22.266898725
  0
LINE
  5
2FA
100
AcDbEntity
  8
RACCORDO
100
AcDbLine
 62
7
  6
CONTINUOUS
 10
-3.9669664613
 20
22.4860402013
 11
-3.9
 21
22.3551229611
  0
LINE
  5
2FB
100
AcDbEntity
  8
RACCORDO
100
AcDbLine
 62
250
  6
CONTINUOUS
 10
7.8358925002
 20
-23.0858925002
 11
7.8358925002
 21
-22.3358925002
  0
LINE
  5
2FC
100
AcDbEntity
  8
RACCORDO
100
AcDbLine
 62
250
  6
CONTINUOUS
 10
7.8358925002
 20
22.3358925002
 11
7.8358925002
 21
23.0858925002
  0
LINE
  5
2FD
100
AcDbEntity
  8
DRAFT
100
AcDbLine
 62
7
  6
CONTINUOUS
 10
8.0
 20
-23.25
 11
8.0
 21
-22.5
  0
LINE
  5
2FE
100
AcDbEntity
  8
DRAFT
100
AcDbLine
 62
7
  6
CONTINUOUS
 10
8.0
 20
22.5
 11
8.0
 21
23.25
  0
LWPOLYLINE
  5
2FF
100
AcDbEntity
  8
0
100
AcDbPolyline
 62
7
  6
CONTINUOUS
 90
16
 70
0
 10
1.8688913717
 20
-10.3039970559
 10
1.8069178478
 20
-10.36611292
 10
1.6974672756
 20
-10.4662803485
 10
1.5832101108
 20
-10.5593652373
 10
1.4642958511
 20
-10.645439245
 10
1.3412616449
 20
-10.7243961434
 10
1.2147229865
 20
-10.7959253411
 10
1.0842643618
 20
-10.8602324301
 10
0.9501052212
 20
-10.9172493108
 10
0.8135844633
 20
-10.9665314838
 10
0.6742010797
 20
-11.0081617618
 10
0.531632683
 20
-11.0421088842
 10
0.3873922314
 20
-11.0680478996
 10
0.2417667257
 20
-11.085838179
 10
0.0937312745
 20
-11.0953753923
 10
0.0
 20
-11.0970439392
  0
LINE
  5
300
100
AcDbEntity
  8
0
100
AcDbLine
 62
7
  6
CONTINUOUS
 10
1.8800038689
 20
-10.2931435258
 11
1.8689054999
 21
-10.3040044589
  0
LINE
  5
301
100
AcDbEntity
  8
0
100
AcDbLine
 62
7
  6
CONTINUOUS
 10
1.8689071668
 20
-9.295993746
 11
2.2321158163
 21
-8.9456288765
  0
LWPOLYLINE
  5
302
100
AcDbEntity
  8
0
100
AcDbPolyline
 62
7
  6
CONTINUOUS
 90
4
 70
0
 10
2.0248227383
 20
-10.1668121615
 10
1.976289567
 20
-10.2061269321
 10
1.9279315809
 20
-10.2482625408
 10
1.8800038689
 20
-10.2931435258
  0
LWPOLYLINE
  5
303
100
AcDbEntity
  8
0
100
AcDbPolyline
 62
7
  6
CONTINUOUS
 90
16
 70
0
 10
-0.0
 20
8.5029560608
 10
-0.0980331138
 20
8.5047799683
 10
-0.2458677142
 20
8.5145429
 10
-0.3913010768
 20
8.5325371559
 10
-0.5353539391
 20
8.5586587369
 10
-0.6777347922
 20
8.5927722339
 10
-0.8169329715
 20
8.6345534099
 10
-0.9532877239
 20
8.6839762749
 10
-1.0872978059
 20
8.7411281155
 10
-1.2176069029
 20
8.8055625898
 10
-1.3440105725
 20
8.8772183879
 10
-1.4669348407
 20
8.956309296
 10
-1.5857382554
 20
9.0425183814
 10
-1.699883044
 20
9.1357409644
 10
-1.8092381482
 20
9.2360640274
 10
-1.8673832552
 20
9.2943610629
  0
LINE
  5
304
100
AcDbEntity
  8
0
100
AcDbLine
 62
7
  6
CONTINUOUS
 10
2.0061617698
 20
10.1815762894
 11
2.0029537196
 21
10.1841819137
  0
LINE
  5
305
100
AcDbEntity
  8
0
100
AcDbLine
 62
7
  6
CONTINUOUS
 10
1.9654430302
 20
10.2155066625
 11
2.0125984318
 21
10.1763921997
  0
LWPOLYLINE
  5
306
100
AcDbEntity
  8
0
100
AcDbPolyline
 62
7
  6
CONTINUOUS
 90
3
 70
0
 10
1.879943012
 20
10.2933170739
 10
1.9223162149
 20
10.2536466477
 10
1.9654430302
 20
10.2155066625
  0
LINE
  5
307
100
AcDbEntity
  8
0
100
AcDbLine
 62
7
  6
CONTINUOUS
 10
1.8689054999
 20
9.2959955411
 11
2.2320910775
 21
8.945531674
  0
LINE
  5
308
100
AcDbEntity
  8
0
100
AcDbLine
 62
7
  6
CONTINUOUS
 10
1.8689055003
 20
10.3040044597
 11
1.879943012
 21
10.2933170739
  0
LINE
  5
309
100
AcDbEntity
  8
0
100
AcDbLine
 62
7
  6
CONTINUOUS
 10
1.8689083052
 20
9.2959925899
 11
1.8692384351
 21
9.2956578985
  0
LINE
  5
30A
100
AcDbEntity
  8
RACCORDO
100
AcDbLine
 62
250
  6
CONTINUOUS
 10
11.9701710012
 20
-17.7104283868
 11
12.0285342235
 21
-18.3
  0
LINE
  5
30B
100
AcDbEntity
  8
RACCORDO
100
AcDbLine
 62
250
  6
CONTINUOUS
 10
12.2201328658
 20
-17.4642258507
 11
12.2821021535
 21
-18.0902250922
  0
LINE
  5
30C
100
AcDbEntity
  8
RACCORDO
100
AcDbLine
 62
7
  6
CONTINUOUS
 10
10.4
 20
23.75
 11
10.4
 21
22.3935241039
  0
LINE
  5
30D
100
AcDbEntity
  8
RACCORDO
100
AcDbLine
 62
7
  6
CONTINUOUS
 10
10.4
 20
-22.3935241039
 11
10.4
 21
-23.75
  0
LINE
  5
30E
100
AcDbEntity
  8
RACCORDO
100
AcDbLine
 62
250
  6
CONTINUOUS
 10
10.435826687
 20
-23.75
 11
10.435826687
 21
-22.3576974169
  0
LINE
  5
30F
100
AcDbEntity
  8
RACCORDO
100
AcDbLine
 62
250
  6
CONTINUOUS
 10
10.435826687
 20
22.3576974169
 11
10.435826687
 21
23.75
  0
LINE
  5
310
100
AcDbEntity
  8
RACCORDO
100
AcDbLine
 62
250
  6
CONTINUOUS
 10
10.4577331457
 20
5.3610173055
 11
10.4577331457
 21
-5.3610173055
  0
LINE
  5
311
100
AcDbEntity
  8
RACCORDO
100
AcDbLine
 62
250
  6
CONTINUOUS
 10
10.7076097858
 20
5.3610173055
 11
10.7076097858
 21
-5.3610173055
  0
LINE
  5
312
100
AcDbEntity
  8
RACCORDO
100
AcDbLine
 62
250
  6
CONTINUOUS
 10
12.0285342235
 20
18.3
 11
11.9701710012
 21
17.7104283868
  0
LINE
  5
313
100
AcDbEntity
  8
RACCORDO
100
AcDbLine
 62
250
  6
CONTINUOUS
 10
12.2821021535
 20
18.0902250922
 11
12.2201328658
 21
17.4642258507
  0
LINE
  5
314
100
AcDbEntity
  8
RACCORDO
100
AcDbLine
 62
7
  6
CONTINUOUS
 10
-8.0
 20
-22.5
 11
-7.8358925002
 21
-22.3358925002
  0
LINE
  5
315
100
AcDbEntity
  8
RACCORDO
100
AcDbLine
 62
7
  6
CONTINUOUS
 10
-7.8358925002
 20
-23.0858925002
 11
-8.0
 21
-23.25
  0
LINE
  5
316
100
AcDbEntity
  8
0
100
AcDbLine
 62
7
  6
CONTINUOUS
 10
2.03820115
 20
-10.1564751342
 11
2.0248227383
 21
-10.1668121615
  0
LINE
  5
317
100
AcDbEntity
  8
0
100
AcDbLine
 62
7
  6
CONTINUOUS
 10
2.006236858
 20
10.1816689979
 11
2.0029537196
 21
10.1841819137
  0
LINE
  5
318
100
AcDbEntity
  8
RACCORDO
100
AcDbLine
 62
7
  6
CONTINUOUS
 10
-8.0
 20
22.5
 11
-7.8358925002
 21
22.3358925002
  0
LINE
  5
319
100
AcDbEntity
  8
RACCORDO
100
AcDbLine
 62
7
  6
CONTINUOUS
 10
-7.8358925002
 20
23.0858925002
 11
-8.0
 21
23.25
  0
LINE
  5
31A
100
AcDbEntity
  8
RACCORDO
100
AcDbLine
 62
250
  6
CONTINUOUS
 10
12.0234126973
 20
-18.8000380762
 11
12.0234126973
 21
-22.266898725
  0
LINE
  5
31B
100
AcDbEntity
  8
RACCORDO
100
AcDbLine
 62
250
  6
CONTINUOUS
 10
12.0234126973
 20
18.8000380762
 11
12.0234126973
 21
22.266898725
  0
LINE
  5
31C
100
AcDbEntity
  8
RACCORDO
100
AcDbLine
 62
250
  6
CONTINUOUS
 10
12.0321402297
 20
18.8000380762
 11
12.0321402297
 21
18.2999735975
  0
LINE
  5
31D
100
AcDbEntity
  8
RACCORDO
100
AcDbLine
 62
250
  6
CONTINUOUS
 10
12.0321402297
 20
-18.2999735975
 11
12.0321402297
 21
-18.8000380762
  0
LINE
  5
31E
100
AcDbEntity
  8
RACCORDO
100
AcDbLine
 62
250
  6
CONTINUOUS
 10
12.273374621
 20
22.0169368012
 11
12.273374621
 21
19.05
  0
LINE
  5
31F
100
AcDbEntity
  8
RACCORDO
100
AcDbLine
 62
250
  6
CONTINUOUS
 10
12.273374621
 20
-19.05
 11
12.273374621
 21
-22.0169368012
  0
LINE
  5
320
100
AcDbEntity
  8
RACCORDO
100
AcDbLine
 62
250
  6
CONTINUOUS
 10
12.2821021535
 20
19.05
 11
12.2821021535
 21
18.0902250922
  0
LINE
  5
321
100
AcDbEntity
  8
RACCORDO
100
AcDbLine
 62
250
  6
CONTINUOUS
 10
12.2821021535
 20
-18.0902250922
 11
12.2821021535
 21
-19.05
  0
LINE
  5
322
100
AcDbEntity
  8
RACCORDO
100
AcDbLine
 62
250
  6
CONTINUOUS
 10
12.364173313
 20
23.75
 11
12.364173313
 21
22.1077354931
  0
LINE
  5
323
100
AcDbEntity
  8
RACCORDO
100
AcDbLine
 62
250
  6
CONTINUOUS
 10
12.364173313
 20
-22.1077354931
 11
12.364173313
 21
-23.75
  0
LINE
  5
324
100
AcDbEntity
  8
RACCORDO
100
AcDbLine
 62
7
  6
CONTINUOUS
 10
12.4
 20
23.75
 11
12.4
 21
-23.75
  0
LINE
  5
325
100
AcDbEntity
  8
RACCORDO
100
AcDbLine
 62
250
  6
CONTINUOUS
 10
-3.4549520429
 20
-19.298770978
 11
-3.4709994885
 21
-19.3148232278
  0
LINE
  5
326
100
AcDbEntity
  8
RACCORDO
100
AcDbLine
 62
250
  6
CONTINUOUS
 10
-1.575245214
 20
-17.4568635194
 11
-2.0203935003
 21
-17.9020068013
  0
LWPOLYLINE
  5
327
100
AcDbEntity
  8
0
100
AcDbPolyline
 62
7
  6
CONTINUOUS
 90
16
 70
0
 10
0.0
 20
11.0970439392
 10
0.0983876113
 20
11.0952048676
 10
0.2463423245
 20
11.0854066912
 10
0.3918934836
 20
11.0673637336
 10
0.5360665418
 20
11.0411797492
 10
0.6785741122
 20
11.0069849728
 10
0.8179033971
 20
10.9651033635
 10
0.9543751672
 20
10.9155682667
 10
1.0884882096
 20
10.8582918938
 10
1.2189016274
 20
10.793711733
 10
1.3453959927
 20
10.7218979702
 10
1.4683854211
 20
10.6426456662
 10
1.5872452656
 20
10.5562595339
 10
1.7014368493
 20
10.4628450241
 10
1.8108103829
 20
10.3623322408
 10
1.8688913717
 20
10.3039970559
  0
LINE
  5
328
100
AcDbEntity
  8
RACCORDO
100
AcDbLine
 62
250
  6
CONTINUOUS
 10
-1.575245214
 20
17.4568635194
 11
-2.0203938391
 21
17.9020064632
  0
LINE
  5
329
100
AcDbEntity
  8
RACCORDO
100
AcDbLine
 62
250
  6
CONTINUOUS
 10
-3.4549524011
 20
19.2987706195
 11
-3.4709994885
 21
19.3148232278
  0
LWPOLYLINE
  5
32A
100
AcDbEntity
  8
0
100
AcDbPolyline
 62
7
  6
CONTINUOUS
 90
13
 70
0
 43
0.3500000087
 10
17.957516684
 20
0.4285711273
 10
17.743232283
 20
0.1428571716
 10
17.1003748169
 20
0.1428571716
 10
16.6718028175
 20
0.4285711273
 10
16.6718028175
 20
1.0714285934
 10
17.1003748169
 20
1.3571425491
 10
17.743232283
 20
1.3571425491
 10
17.957516684
 20
1.0714285934
 10
18.3860897491
 20
1.499999527
 10
19.2432316162
 20
1.499999527
 10
19.6718025497
 20
1.0714285934
 10
19.6718025497
 20
0.4285711273
 10
19.2432316162
 20
0.0000001938
  0
LINE
  5
32B
100
AcDbEntity
  8
RACCORDO
100
AcDbLine
 62
250
  6
CONTINUOUS
 10
8.185545714
 20
-10.8465630195
 11
1.575245214
 21
-17.4568635194
  0
LINE
  5
32C
100
AcDbEntity
  8
RACCORDO
100
AcDbLine
 62
250
  6
CONTINUOUS
 10
8.3622351806
 20
-11.0232524862
 11
1.7519346807
 21
-17.6335529861
  0
LINE
  5
32D
100
AcDbEntity
  8
RACCORDO
100
AcDbLine
 62
250
  6
CONTINUOUS
 10
1.575245214
 20
17.4568635194
 11
8.185545714
 21
10.8465630195
  0
LINE
  5
32E
100
AcDbEntity
  8
RACCORDO
100
AcDbLine
 62
250
  6
CONTINUOUS
 10
1.7519346807
 20
17.6335529861
 11
8.3622351806
 21
11.0232524862
  0
LINE
  5
32F
100
AcDbEntity
  8
RACCORDO
100
AcDbLine
 62
7
  6
CONTINUOUS
 10
4.4796410224
 20
-18.3
 11
4.9988838021
 21
-17.7416786313
  0
LINE
  5
330
100
AcDbEntity
  8
DRAFT
100
AcDbLine
 62
7
  6
CONTINUOUS
 10
3.973470195
 20
-18.8
 11
3.4586469671
 21
-19.3148232278
  0
LINE
  5
331
100
AcDbEntity
  8
DRAFT
100
AcDbLine
 62
7
  6
CONTINUOUS
 10
4.4796410224
 20
-18.3
 11
3.9796410224
 21
-18.8
  0
LINE
  5
332
100
AcDbEntity
  8
DRAFT
100
AcDbLine
 62
7
  6
CONTINUOUS
 10
3.973470195
 20
18.8
 11
3.4586469671
 21
19.3148232278
  0
LINE
  5
333
100
AcDbEntity
  8
DRAFT
100
AcDbLine
 62
7
  6
CONTINUOUS
 10
4.4796410224
 20
18.3
 11
3.9796410224
 21
18.8
  0
LINE
  5
334
100
AcDbEntity
  8
RACCORDO
100
AcDbLine
 62
7
  6
CONTINUOUS
 10
4.9988838021
 20
17.7416786314
 11
4.4796410224
 21
18.3
  0
LWPOLYLINE
  5
335
100
AcDbEntity
  8
0
100
AcDbPolyline
 62
7
  6
CONTINUOUS
 90
10
 70
0
 43
0.3500000087
 10
0.9642857329
 20
33.3244209534
 10
1.0357142884
 20
33.1815618439
 10
1.0357142884
 20
33.1101344208
 10
0.8928571107
 20
32.9672795746
 10
0.8214285552
 20
32.9672795746
 10
0.7499999997
 20
33.0387069977
 10
0.7499999997
 20
33.1101344208
 10
0.8214285552
 20
33.2529935303
 10
0.8928571107
 20
33.3244209534
 10
0.9642857329
 20
33.3244209534
  0
LINE
  5
336
100
AcDbEntity
  8
RACCORDO
100
AcDbLine
 62
250
  6
CONTINUOUS
 10
-11.9593631106
 20
16.7650632919
 11
-4.6129832711
 21
16.765067253
  0
LINE
  5
337
100
AcDbEntity
  8
RACCORDO
100
AcDbLine
 62
250
  6
CONTINUOUS
 10
4.6006307497
 20
16.765067253
 11
11.9593631106
 21
16.7650632919
  0
LINE
  5
338
100
AcDbEntity
  8
RACCORDO
100
AcDbLine
 62
250
  6
CONTINUOUS
 10
11.9701710012
 20
17.7104283868
 11
5.005734279
 21
17.710427789
  0
LINE
  5
339
100
AcDbEntity
  8
RACCORDO
100
AcDbLine
 62
250
  6
CONTINUOUS
 10
-5.0180868004
 20
17.710427789
 11
-11.9701710012
 21
17.7104283868
  0
LWPOLYLINE
  5
33A
100
AcDbEntity
  8
0
100
AcDbPolyline
 62
7
  6
CONTINUOUS
 90
3
 70
0
 43
0.3500000087
 10
19.0289472153
 20
-0.8571438049
 10
19.0289472153
 20
-2.3571431381
 10
16.6718028175
 20
-1.714285672
  0
LINE
  5
33B
100
AcDbEntity
  8
RACCORDO
100
AcDbLine
 62
7
  6
CONTINUOUS
 10
12.0285342235
 20
18.3
 11
4.4796410224
 21
18.3
  0
LINE
  5
33C
100
AcDbEntity
  8
RACCORDO
100
AcDbLine
 62
7
  6
CONTINUOUS
 10
-4.4919935437
 20
18.3
 11
-12.0285342235
 21
18.3
  0
LINE
  5
33D
100
AcDbEntity
  8
RACCORDO
100
AcDbLine
 62
7
  6
CONTINUOUS
 10
12.019048931
 20
18.8
 11
3.973470195
 21
18.8
  0
LINE
  5
33E
100
AcDbEntity
  8
RACCORDO
100
AcDbLine
 62
7
  6
CONTINUOUS
 10
-3.9858227163
 20
18.8
 11
-12.019048931
 21
18.8
  0
LINE
  5
33F
100
AcDbEntity
  8
RACCORDO
100
AcDbLine
 62
250
  6
CONTINUOUS
 10
-12.2821021535
 20
19.05
 11
-12.273374621
 21
19.05
  0
LINE
  5
340
100
AcDbEntity
  8
RACCORDO
100
AcDbLine
 62
250
  6
CONTINUOUS
 10
12.273374621
 20
19.05
 11
12.2821021535
 21
19.05
  0
LINE
  5
341
100
AcDbEntity
  8
RACCORDO
100
AcDbLine
 62
7
  6
CONTINUOUS
 10
6.2540497747
 20
-22.4965699136
 11
6.4147271881
 21
-22.3358925002
  0
LINE
  5
342
100
AcDbEntity
  8
RACCORDO
100
AcDbLine
 62
7
  6
CONTINUOUS
 10
6.4147271881
 20
-23.0858925002
 11
6.2506196883
 21
-23.25
  0
LINE
  5
343
100
AcDbEntity
  8
RACCORDO
100
AcDbLine
 62
7
  6
CONTINUOUS
 10
6.2540497747
 20
22.4965699136
 11
6.4147271881
 21
22.3358925002
  0
LINE
  5
344
100
AcDbEntity
  8
RACCORDO
100
AcDbLine
 62
7
  6
CONTINUOUS
 10
6.4147271881
 20
23.0858925002
 11
6.2506196883
 21
23.25
  0
LINE
  5
345
100
AcDbEntity
  8
DRAFT
100
AcDbLine
 62
7
  6
CONTINUOUS
 10
10.2935241039
 20
-22.5
 11
10.4
 21
-22.3935241039
  0
LINE
  5
346
100
AcDbEntity
  8
RACCORDO
100
AcDbLine
 62
7
  6
CONTINUOUS
 10
10.4
 20
-22.3935241039
 11
10.435826687
 21
-22.3576974169
  0
LINE
  5
347
100
AcDbEntity
  8
RACCORDO
100
AcDbLine
 62
250
  6
CONTINUOUS
 10
12.273374621
 20
22.0169368012
 11
-12.273374621
 21
22.0169368012
  0
LINE
  5
348
100
AcDbEntity
  8
RACCORDO
100
AcDbLine
 62
250
  6
CONTINUOUS
 10
-12.0234126973
 20
22.266898725
 11
12.0234126973
 21
22.266898725
  0
LINE
  5
349
100
AcDbEntity
  8
DRAFT
100
AcDbLine
 62
7
  6
CONTINUOUS
 10
-3.9
 20
22.3551229611
 11
3.9
 21
22.3551229611
  0
LINE
  5
34A
100
AcDbEntity
  8
0
100
AcDbLine
 62
7
  6
CONTINUOUS
 10
1.5
 20
22.4360402013
 11
-1.5
 21
22.4360402013
  0
LINE
  5
34B
100
AcDbEntity
  8
0
100
AcDbLine
 62
7
  6
CONTINUOUS
 10
-6.0
 20
22.4860402013
 11
-1.5
 21
22.4860402013
  0
LINE
  5
34C
100
AcDbEntity
  8
0
100
AcDbLine
 62
7
  6
CONTINUOUS
 10
6.0
 20
22.4860402013
 11
1.5
 21
22.4860402013
  0
LINE
  5
34D
100
AcDbEntity
  8
RACCORDO
100
AcDbLine
 62
250
  6
CONTINUOUS
 10
-6.2540497747
 20
22.4965699136
 11
-6.0
 21
22.4965699136
  0
LINE
  5
34E
100
AcDbEntity
  8
RACCORDO
100
AcDbLine
 62
250
  6
CONTINUOUS
 10
6.0
 20
22.4965699136
 11
6.2540497747
 21
22.4965699136
  0
LINE
  5
34F
100
AcDbEntity
  8
DRAFT
100
AcDbLine
 62
7
  6
CONTINUOUS
 10
10.2935241039
 20
22.5
 11
8.0
 21
22.5
  0
LINE
  5
350
100
AcDbEntity
  8
DRAFT
100
AcDbLine
 62
7
  6
CONTINUOUS
 10
-8.0
 20
22.5
 11
-10.2935241039
 21
22.5
  0
LINE
  5
351
100
AcDbEntity
  8
RACCORDO
100
AcDbLine
 62
250
  6
CONTINUOUS
 10
-6.2506196883
 20
22.6965394526
 11
-6.0
 21
22.6965394526
  0
LINE
  5
352
100
AcDbEntity
  8
RACCORDO
100
AcDbLine
 62
250
  6
CONTINUOUS
 10
6.0
 20
22.6965394526
 11
6.2506196883
 21
22.6965394526
  0
LINE
  5
353
100
AcDbEntity
  8
0
100
AcDbLine
 62
250
  6
CONTINUOUS
 10
6.0
 20
23.1825502516
 11
-6.0
 21
23.1825502516
  0
LINE
  5
354
100
AcDbEntity
  8
DRAFT
100
AcDbLine
 62
7
  6
CONTINUOUS
 10
8.0
 20
23.25
 11
6.0
 21
23.25
  0
LINE
  5
355
100
AcDbEntity
  8
DRAFT
100
AcDbLine
 62
7
  6
CONTINUOUS
 10
-6.0
 20
23.25
 11
-8.0
 21
23.25
  0
LINE
  5
356
100
AcDbEntity
  8
DRAFT
100
AcDbLine
 62
7
  6
CONTINUOUS
 10
10.2935241039
 20
22.5
 11
10.4
 21
22.3935241039
  0
LINE
  5
357
100
AcDbEntity
  8
RACCORDO
100
AcDbLine
 62
7
  6
CONTINUOUS
 10
10.4
 20
22.3935241039
 11
10.435826687
 21
22.3576974169
  0
LINE
  5
358
100
AcDbEntity
  8
0
100
AcDbLine
 62
7
  6
CONTINUOUS
 10
6.0
 20
23.7
 11
-6.0
 21
23.7
  0
LINE
  5
359
100
AcDbEntity
  8
RACCORDO
100
AcDbLine
 62
250
  6
CONTINUOUS
 10
10.4
 20
23.75
 11
12.4
 21
23.75
  0
LINE
  5
35A
100
AcDbEntity
  8
RACCORDO
100
AcDbLine
 62
250
  6
CONTINUOUS
 10
-10.4
 20
23.75
 11
-12.4
 21
23.75
  0
LINE
  5
35B
100
AcDbEntity
  8
RACCORDO
100
AcDbLine
 62
7
  6
CONTINUOUS
 10
10.650038082
 20
24.0
 11
12.149961918
 21
24.0
  0
LINE
  5
35C
100
AcDbEntity
  8
RACCORDO
100
AcDbLine
 62
7
  6
CONTINUOUS
 10
-10.650038082
 20
24.0
 11
-12.149961918
 21
24.0
  0
LWPOLYLINE
  5
35D
100
AcDbEntity
  8
0
100
AcDbPolyline
 62
7
  6
CONTINUOUS
 90
7
 70
0
 43
0.3500000087
 10
-2.8928572653
 20
32.8244204651
 10
-4.3928571314
 20
32.8244204651
 10
-2.8928572653
 20
34.9672772644
 10
-2.8928572653
 20
35.3958503296
 10
-3.3214284653
 20
35.8244191315
 10
-3.9642856649
 20
35.8244191315
 10
-4.3928571314
 20
35.181563797
  0
LWPOLYLINE
  5
35E
100
AcDbEntity
  8
0
100
AcDbPolyline
 62
7
  6
CONTINUOUS
 90
3
 70
0
 43
0.3500000087
 10
-0.5357142998
 20
33.4672757996
 10
-2.0357143324
 20
33.4672757996
 10
-1.3928571327
 20
35.8244191315
  0
LWPOLYLINE
  5
35F
100
AcDbEntity
  8
0
100
AcDbPolyline
 62
7
  6
CONTINUOUS
 90
13
 70
0
 43
0.3500000087
 10
2.4642857988
 20
34.5387084625
 10
2.1785714435
 20
34.7529907318
 10
2.1785714435
 20
35.3958503296
 10
2.4642857988
 20
35.8244191315
 10
3.107142732
 20
35.8244191315
 10
3.3928572206
 20
35.3958503296
 10
3.3928572206
 20
34.7529907318
 10
3.107142732
 20
34.5387084625
 10
3.5357141985
 20
34.1101353973
 10
3.5357141985
 20
33.2529935303
 10
3.107142732
 20
32.8244204651
 10
2.4642857988
 20
32.8244204651
 10
2.0357143324
 20
33.2529935303
  0
LWPOLYLINE
  5
360
100
AcDbEntity
  8
0
100
AcDbPolyline
 62
7
  6
CONTINUOUS
 90
3
 70
0
 43
0.3500000087
 10
-47.927016449
 20
44.8928582397
 10
-47.0698703186
 20
45.7500001068
 10
-47.0698703186
 20
42.7500014404
  0
LWPOLYLINE
  5
361
100
AcDbEntity
  8
0
100
AcDbPolyline
 62
7
  6
CONTINUOUS
 90
5
 70
0
 43
0.3500000087
 10
-47.8555847626
 20
34.4642839355
 10
-47.4984433838
 20
34.6785704681
 10
-47.4984433838
 20
35.3214300659
 10
-47.8555847626
 20
35.7499988678
 10
-48.7127308929
 20
35.7499988678
  0
LWPOLYLINE
  5
362
100
AcDbEntity
  8
RACCORDO
100
AcDbPolyline
 62
250
  6
CONTINUOUS
 90
3
 70
0
 10
-73.7914946807
 20
-20.3207705078
 10
-73.7928512291
 20
-20.2835114373
 10
-73.7942612486
 20
-20.2447011196
  0
LINE
  5
363
100
AcDbEntity
  8
RACCORDO
100
AcDbLine
 62
250
  6
CONTINUOUS
 10
-73.7942612486
 20
-20.2447011196
 11
-73.7972418624
 21
-20.1624812762
  0
LWPOLYLINE
  5
364
100
AcDbEntity
  8
RACCORDO
100
AcDbPolyline
 62
250
  6
CONTINUOUS
 90
3
 70
0
 10
-73.7972418624
 20
-20.1624812762
 10
-73.8004291266
 20
-20.0742254221
 10
-73.8020993483
 20
-20.0278720727
  0
LINE
  5
365
100
AcDbEntity
  8
RACCORDO
100
AcDbLine
 62
250
  6
CONTINUOUS
 10
-73.7765473356
 20
-20.7277505666
 11
-73.8279379155
 21
-19.2987706197
  0
LINE
  5
366
100
AcDbEntity
  8
RACCORDO
100
AcDbLine
 62
250
  6
CONTINUOUS
 10
-73.8020993483
 20
-20.0278720727
 11
-73.8055849866
 21
-19.9307951201
  0
LWPOLYLINE
  5
367
100
AcDbEntity
  8
RACCORDO
100
AcDbPolyline
 62
250
  6
CONTINUOUS
 90
3
 70
0
 10
-73.8055849866
 20
-19.9307951201
 10
-73.8092613338
 20
-19.8280047104
 10
-73.8111678425
 20
-19.7745113602
  0
LINE
  5
368
100
AcDbEntity
  8
RACCORDO
100
AcDbLine
 62
250
  6
CONTINUOUS
 10
-73.8111678425
 20
-19.7745113602
 11
-73.8171513429
 21
-19.6058644186
  0
LINE
  5
369
100
AcDbEntity
  8
RACCORDO
100
AcDbLine
 62
250
  6
CONTINUOUS
 10
-73.8171513429
 20
-19.6058644186
 11
-73.821349503
 21
-19.4868250807
  0
LWPOLYLINE
  5
36A
100
AcDbEntity
  8
RACCORDO
100
AcDbPolyline
 62
250
  6
CONTINUOUS
 90
3
 70
0
 10
-73.821349503
 20
-19.4868250807
 10
-73.8257025271
 20
-19.3626927703
 10
-73.8279379155
 20
-19.2987706197
  0
LINE
  5
36B
100
AcDbEntity
  8
RACCORDO
100
AcDbLine
 62
250
  6
CONTINUOUS
 10
-73.8279379033
 20
19.2987709781
 11
-73.81116782
 21
19.7745119684
  0
LINE
  5
36C
100
AcDbEntity
  8
RACCORDO
100
AcDbLine
 62
250
  6
CONTINUOUS
 10
-73.8279379033
 20
19.2987709781
 11
-73.7765473356
 21
20.7277505666
  0
LINE
  5
36D
100
AcDbEntity
  8
RACCORDO
100
AcDbLine
 62
250
  6
CONTINUOUS
 10
-73.81116782
 20
19.7745119684
 11
-73.7914946652
 21
20.3207709163
  0
LWPOLYLINE
  5
36E
100
AcDbEntity
  8
RACCORDO
100
AcDbPolyline
 62
250
  6
CONTINUOUS
 90
3
 70
0
 10
-73.7914946652
 20
20.3207709163
 10
-73.7835792592
 20
20.5371313029
 10
-73.7826813074
 20
20.5615606983
  0
LINE
  5
36F
100
AcDbEntity
  8
RACCORDO
100
AcDbLine
 62
7
  6
CONTINUOUS
 10
-66.4770139617
 20
-24.0
 11
-63.7270147905
 21
-24.0
  0
LINE
  5
370
100
AcDbEntity
  8
RACCORDO
100
AcDbLine
 62
250
  6
CONTINUOUS
 10
-66.7270147905
 20
-23.75
 11
-63.7270147905
 21
-23.75
  0
LINE
  5
371
100
AcDbEntity
  8
RACCORDO
100
AcDbLine
 62
7
  6
CONTINUOUS
 10
-71.2270147905
 20
22.0169368012
 11
-71.2270147905
 21
18.8000380762
  0
LINE
  5
372
100
AcDbEntity
  8
RACCORDO
100
AcDbLine
 62
7
  6
CONTINUOUS
 10
-71.2270147905
 20
-18.8000380762
 11
-71.2270147905
 21
-22.0169368012
  0
LINE
  5
373
100
AcDbEntity
  8
RACCORDO
100
AcDbLine
 62
250
  6
CONTINUOUS
 10
-70.9813778921
 20
22.0169368012
 11
-70.9813778921
 21
19.05
  0
LINE
  5
374
100
AcDbEntity
  8
RACCORDO
100
AcDbLine
 62
250
  6
CONTINUOUS
 10
-70.9813778921
 20
-19.05
 11
-70.9813778921
 21
-22.0169368012
  0
LINE
  5
375
100
AcDbEntity
  8
RACCORDO
100
AcDbLine
 62
7
  6
CONTINUOUS
 10
-70.7270147905
 20
18.8000380762
 11
-70.7270147905
 21
18.2999735975
  0
LINE
  5
376
100
AcDbEntity
  8
RACCORDO
100
AcDbLine
 62
7
  6
CONTINUOUS
 10
-70.7270147905
 20
-18.2999735975
 11
-70.7270147905
 21
-18.8000380762
  0
LINE
  5
377
100
AcDbEntity
  8
RACCORDO
100
AcDbLine
 62
250
  6
CONTINUOUS
 10
-70.4813778921
 20
19.05
 11
-70.4813778921
 21
18.0902250922
  0
LINE
  5
378
100
AcDbEntity
  8
RACCORDO
100
AcDbLine
 62
250
  6
CONTINUOUS
 10
-70.4813778921
 20
-18.0902250922
 11
-70.4813778921
 21
-19.05
  0
LINE
  5
379
100
AcDbEntity
  8
RACCORDO
100
AcDbLine
 62
7
  6
CONTINUOUS
 10
-55.709562384
 20
-23.8600548477
 11
-63.7270147905
 21
-24.0
  0
LINE
  5
37A
100
AcDbEntity
  8
RACCORDO
100
AcDbLine
 62
250
  6
CONTINUOUS
 10
-55.709562384
 20
-23.6100929239
 11
-63.7270147905
 21
-23.7500380762
  0
LINE
  5
37B
100
AcDbEntity
  8
RACCORDO
100
AcDbLine
 62
250
  6
CONTINUOUS
 10
-54.7270147905
 20
-22.8602071525
 11
-54.9726516889
 21
-22.8602071525
  0
LINE
  5
37C
100
AcDbEntity
  8
RACCORDO
100
AcDbLine
 62
250
  6
CONTINUOUS
 10
-71.2270147905
 20
-22.0169368012
 11
-70.9813778921
 21
-22.0169368012
  0
LINE
  5
37D
100
AcDbEntity
  8
RACCORDO
100
AcDbLine
 62
7
  6
CONTINUOUS
 10
-66.7270147905
 20
-23.0911589092
 11
-67.7270147905
 21
-23.0737038442
  0
LINE
  5
37E
100
AcDbEntity
  8
RACCORDO
100
AcDbLine
 62
7
  6
CONTINUOUS
 10
-66.4227916876
 20
-22.3464691432
 11
-70.9813778921
 21
-22.266898725
  0
LINE
  5
37F
100
AcDbEntity
  8
RACCORDO
100
AcDbLine
 62
250
  6
CONTINUOUS
 10
-65.7795243146
 20
-22.1077354931
 11
-70.9813778921
 21
-22.0169368012
  0
LINE
  5
380
100
AcDbEntity
  8
RACCORDO
100
AcDbLine
 62
7
  6
CONTINUOUS
 10
-74.0706415619
 20
-17.7104283868
 11
-70.7270147905
 21
-18.3
  0
LINE
  5
381
100
AcDbEntity
  8
RACCORDO
100
AcDbLine
 62
250
  6
CONTINUOUS
 10
-74.0315960094
 20
-17.4642258507
 11
-70.4813778921
 21
-18.0902250922
  0
LINE
  5
382
100
AcDbEntity
  8
RACCORDO
100
AcDbLine
 62
7
  6
CONTINUOUS
 10
-67.7270147905
 20
-23.0737038442
 11
-67.7270147905
 21
-22.3237038442
  0
LINE
  5
383
100
AcDbEntity
  8
RACCORDO
100
AcDbLine
 62
7
  6
CONTINUOUS
 10
-67.7270147905
 20
22.3237038442
 11
-67.7270147905
 21
23.0737038442
  0
LWPOLYLINE
  5
384
100
AcDbEntity
  8
0
100
AcDbPolyline
 62
7
  6
CONTINUOUS
 90
10
 70
0
 43
0.3500000087
 10
-41.4270143646
 20
35.7499988678
 10
-42.0698739624
 20
35.1071435333
 10
-42.4984427643
 20
34.2500016663
 10
-42.4984427643
 20
33.1785732666
 10
-42.0698739624
 20
32.7500002014
 10
-41.4270143646
 20
32.7500002014
 10
-40.9984412994
 20
33.1785732666
 10
-40.9984412994
 20
34.0357151337
 10
-41.4270143646
 20
34.4642839355
 10
-42.3555879181
 20
34.4642839355
  0
LINE
  5
385
100
AcDbEntity
  8
RACCORDO
100
AcDbLine
 62
250
  6
CONTINUOUS
 10
-70.4813778921
 20
-19.05
 11
-70.9813778921
 21
-19.05
  0
LINE
  5
386
100
AcDbEntity
  8
RACCORDO
100
AcDbLine
 62
250
  6
CONTINUOUS
 10
-73.8279379402
 20
-19.2987706195
 11
-71.2270147905
 21
-19.3148232278
  0
LINE
  5
387
100
AcDbEntity
  8
DRAFT
100
AcDbLine
 62
7
  6
CONTINUOUS
 10
-71.2270147905
 20
-20.75
 11
-73.7765473356
 21
-20.7277505666
  0
LINE
  5
388
100
AcDbEntity
  8
RACCORDO
100
AcDbLine
 62
250
  6
CONTINUOUS
 10
-67.0287271592
 20
-23.0858925002
 11
-67.0287271592
 21
-22.3358925002
  0
LINE
  5
389
100
AcDbEntity
  8
RACCORDO
100
AcDbLine
 62
250
  6
CONTINUOUS
 10
-67.0287271592
 20
22.3358925002
 11
-67.0287271592
 21
23.0858925002
  0
LINE
  5
38A
100
AcDbEntity
  8
RACCORDO
100
AcDbLine
 62
7
  6
CONTINUOUS
 10
-66.7270147905
 20
-23.75
 11
-66.7270147905
 21
-22.3411589092
  0
LINE
  5
38B
100
AcDbEntity
  8
RACCORDO
100
AcDbLine
 62
7
  6
CONTINUOUS
 10
-66.7270147905
 20
22.3411589092
 11
-66.7270147905
 21
23.75
  0
LINE
  5
38C
100
AcDbEntity
  8
RACCORDO
100
AcDbLine
 62
250
  6
CONTINUOUS
 10
-65.7795243146
 20
23.75
 11
-65.7795243146
 21
22.1077354931
  0
LINE
  5
38D
100
AcDbEntity
  8
RACCORDO
100
AcDbLine
 62
250
  6
CONTINUOUS
 10
-65.7795243146
 20
-22.1077354931
 11
-65.7795243146
 21
-23.75
  0
LINE
  5
38E
100
AcDbEntity
  8
RACCORDO
100
AcDbLine
 62
7
  6
CONTINUOUS
 10
-70.7270147905
 20
-18.8
 11
-71.2270147905
 21
-18.8
  0
LINE
  5
38F
100
AcDbEntity
  8
RACCORDO
100
AcDbLine
 62
7
  6
CONTINUOUS
 10
-63.7270147905
 20
-23.9999796888
 11
-63.7270147905
 21
23.9999796888
  0
LWPOLYLINE
  5
390
100
AcDbEntity
  8
0
100
AcDbPolyline
 62
7
  6
CONTINUOUS
 90
3
 70
0
 43
0.3500000087
 10
-48.9270131622
 20
43.0357153961
 10
-48.9984448486
 20
42.8214288635
 10
-49.1412996948
 20
42.5357149078
  0
LINE
  5
391
100
AcDbEntity
  8
RACCORDO
100
AcDbLine
 62
250
  6
CONTINUOUS
 10
-74.6507761179
 20
-16.7552054488
 11
-74.8962183707
 21
-16.7650672507
  0
LINE
  5
392
100
AcDbEntity
  8
RACCORDO
100
AcDbLine
 62
7
  6
CONTINUOUS
 10
-25.4217790685
 20
-15.4884752077
 11
-54.7270147905
 21
-16.0
  0
LINE
  5
393
100
AcDbEntity
  8
RACCORDO
100
AcDbLine
 62
250
  6
CONTINUOUS
 10
-26.1653748243
 20
-15.2015004114
 11
-25.4217790685
 21
-15.1885208992
  0
LINE
  5
394
100
AcDbEntity
  8
RACCORDO
100
AcDbLine
 62
250
  6
CONTINUOUS
 10
-36.2270147905
 20
-15.1771574512
 11
-26.6182885873
 21
-15.0094365115
  0
LINE
  5
395
100
AcDbEntity
  8
RACCORDO
100
AcDbLine
 62
250
  6
CONTINUOUS
 10
-36.7182885873
 20
-15.1857326673
 11
-54.9726516889
 21
-15.5043637604
  0
LINE
  5
396
100
AcDbEntity
  8
RACCORDO
100
AcDbLine
 62
250
  6
CONTINUOUS
 10
-25.4217790685
 20
-15.1885208992
 11
-25.1270147905
 21
-15.1885208992
  0
LINE
  5
397
100
AcDbEntity
  8
RACCORDO
100
AcDbLine
 62
250
  6
CONTINUOUS
 10
-36.7182885873
 20
-15.1857326673
 11
-36.2270147905
 21
-15.1857326673
  0
LINE
  5
398
100
AcDbEntity
  8
RACCORDO
100
AcDbLine
 62
250
  6
CONTINUOUS
 10
-26.6182885873
 20
-15.0094365115
 11
-26.1270147905
 21
-15.0094365115
  0
LINE
  5
399
100
AcDbEntity
  8
RACCORDO
100
AcDbLine
 62
250
  6
CONTINUOUS
 10
-61.209562384
 20
11.6056682577
 11
-61.209562384
 21
11.4868185296
  0
LINE
  5
39A
100
AcDbEntity
  8
RACCORDO
100
AcDbLine
 62
250
  6
CONTINUOUS
 10
-61.209562384
 20
-11.4868185296
 11
-61.209562384
 21
-11.6056682577
  0
LINE
  5
39B
100
AcDbEntity
  8
DRAFT
100
AcDbLine
 62
7
  6
CONTINUOUS
 10
-60.2270147905
 20
11.4816738754
 11
-60.2270147905
 21
-11.4816738754
  0
LINE
  5
39C
100
AcDbEntity
  8
RACCORDO
100
AcDbLine
 62
7
  6
CONTINUOUS
 10
-60.2270147905
 20
11.6005236036
 11
-60.2270147905
 21
11.4816738754
  0
LINE
  5
39D
100
AcDbEntity
  8
RACCORDO
100
AcDbLine
 62
7
  6
CONTINUOUS
 10
-60.2270147905
 20
-11.4816738754
 11
-60.2270147905
 21
-11.6005236036
  0
LINE
  5
39E
100
AcDbEntity
  8
DRAFT
100
AcDbLine
 62
7
  6
CONTINUOUS
 10
-60.1270147905
 20
11.6
 11
-60.1270147905
 21
-11.6
  0
LINE
  5
39F
100
AcDbEntity
  8
RACCORDO
100
AcDbLine
 62
7
  6
CONTINUOUS
 10
-26.6182885873
 20
-13.2228865509
 11
-31.686109036
 21
-13.1855070646
  0
LINE
  5
3A0
100
AcDbEntity
  8
SMUSSO
100
AcDbLine
 62
7
  6
CONTINUOUS
 10
-26.1270147905
 20
-12.6464217592
 11
-31.6750089082
 21
-12.5495811617
  0
LINE
  5
3A1
100
AcDbEntity
  8
DRAFT
100
AcDbLine
 62
7
  6
CONTINUOUS
 10
-63.7270147905
 20
-11.6188497282
 11
-60.1270147905
 21
-11.6
  0
LINE
  5
3A2
100
AcDbEntity
  8
DRAFT
100
AcDbLine
 62
7
  6
CONTINUOUS
 10
-63.7270147905
 20
-11.5
 11
-60.2270147905
 21
-11.4816738754
  0
LINE
  5
3A3
100
AcDbEntity
  8
0
100
AcDbLine
 62
7
  6
CONTINUOUS
 10
-31.2770147905
 20
-11.2418439095
 11
-31.9770147905
 21
-11.2418439095
  0
LINE
  5
3A4
100
AcDbEntity
  8
0
100
AcDbLine
 62
7
  6
CONTINUOUS
 10
-31.9770147905
 20
-10.9426949447
 11
-31.6996320292
 21
-10.9426949447
  0
LINE
  5
3A5
100
AcDbEntity
  8
0
100
AcDbLine
 62
7
  6
CONTINUOUS
 10
-31.5543975517
 20
-10.9426949447
 11
-31.2770147905
 21
-10.9426949447
  0
LINE
  5
3A6
100
AcDbEntity
  8
0
100
AcDbLine
 62
7
  6
CONTINUOUS
 10
-29.5370147905
 20
-10.15
 11
-30.5368198538
 21
-10.15
  0
LINE
  5
3A7
100
AcDbEntity
  8
0
100
AcDbLine
 62
7
  6
CONTINUOUS
 10
-32.7172097272
 20
-10.15
 11
-33.7170147905
 21
-10.15
  0
LINE
  5
3A8
100
AcDbEntity
  8
0
100
AcDbLine
 62
7
  6
CONTINUOUS
 10
-29.5370147905
 20
-9.45
 11
-30.5368198538
 21
-9.45
  0
LINE
  5
3A9
100
AcDbEntity
  8
0
100
AcDbLine
 62
7
  6
CONTINUOUS
 10
-32.7172097272
 20
-9.45
 11
-33.7170147905
 21
-9.45
  0
LINE
  5
3AA
100
AcDbEntity
  8
SMUSSO
100
AcDbLine
 62
7
  6
CONTINUOUS
 10
-31.6750089082
 20
-7.0504188383
 11
-26.1270147905
 21
-6.9535782408
  0
LINE
  5
3AB
100
AcDbEntity
  8
0
100
AcDbLine
 62
7
  6
CONTINUOUS
 10
-31.9770147905
 20
-8.6573050553
 11
-31.6996320292
 21
-8.6573050553
  0
LINE
  5
3AC
100
AcDbEntity
  8
0
100
AcDbLine
 62
7
  6
CONTINUOUS
 10
-31.5543975517
 20
-8.6573050553
 11
-31.2770147905
 21
-8.6573050553
  0
LINE
  5
3AD
100
AcDbEntity
  8
0
100
AcDbLine
 62
7
  6
CONTINUOUS
 10
-31.2770147905
 20
-8.3581560905
 11
-31.9770147905
 21
-8.3581560905
  0
LINE
  5
3AE
100
AcDbEntity
  8
RACCORDO
100
AcDbLine
 62
250
  6
CONTINUOUS
 10
-25.1270147905
 20
-7.55
 11
-26.1270147905
 21
-7.55
  0
LINE
  5
3AF
100
AcDbEntity
  8
RACCORDO
100
AcDbLine
 62
250
  6
CONTINUOUS
 10
-54.9726516889
 20
-22.8602071525
 11
-54.9726516889
 21
-15.5043637604
  0
LINE
  5
3B0
100
AcDbEntity
  8
RACCORDO
100
AcDbLine
 62
250
  6
CONTINUOUS
 10
-54.9726516889
 20
15.5043637604
 11
-54.9726516889
 21
22.8602071525
  0
LINE
  5
3B1
100
AcDbEntity
  8
RACCORDO
100
AcDbLine
 62
7
  6
CONTINUOUS
 10
-54.7270147905
 20
-15.9305310578
 11
-54.7270147905
 21
-22.8602071525
  0
LINE
  5
3B2
100
AcDbEntity
  8
RACCORDO
100
AcDbLine
 62
7
  6
CONTINUOUS
 10
-54.7270147905
 20
15.9305310578
 11
-54.7270147905
 21
22.8602071525
  0
LWPOLYLINE
  5
3B3
100
AcDbEntity
  8
0
100
AcDbPolyline
 62
7
  6
CONTINUOUS
 90
3
 70
0
 43
0.3500000087
 10
-43.4984437408
 20
33.0357141571
 10
-43.5698711639
 20
32.8214276245
 10
-43.7127302734
 20
32.5357136688
  0
LINE
  5
3B4
100
AcDbEntity
  8
0
100
AcDbLine
 62
7
  6
CONTINUOUS
 10
-32.1467382746
 20
10.3197234842
 11
-32.7172097272
 21
10.15
  0
LINE
  5
3B5
100
AcDbEntity
  8
RACCORDO
100
AcDbLine
 62
7
  6
CONTINUOUS
 10
-31.6861090367
 20
-6.414492899
 11
-26.6182885873
 21
-6.3771134491
  0
LINE
  5
3B6
100
AcDbEntity
  8
RACCORDO
100
AcDbLine
 62
250
  6
CONTINUOUS
 10
-26.1270147905
 20
-4.7058529361
 11
-26.6182885873
 21
-4.7058529361
  0
LINE
  5
3B7
100
AcDbEntity
  8
RACCORDO
100
AcDbLine
 62
250
  6
CONTINUOUS
 10
-36.2270147905
 20
-4.5471894573
 11
-36.7182885873
 21
-4.5471894573
  0
LINE
  5
3B8
100
AcDbEntity
  8
DRAFT
100
AcDbLine
 62
7
  6
CONTINUOUS
 10
-60.2270147905
 20
-6.0
 11
-60.1270147905
 21
-6.0008726868
  0
LINE
  5
3B9
100
AcDbEntity
  8
0
100
AcDbLine
 62
7
  6
CONTINUOUS
 10
-32.1467382746
 20
-10.3197234842
 11
-32.7172097272
 21
-10.15
  0
LWPOLYLINE
  5
3BA
100
AcDbEntity
  8
0
100
AcDbPolyline
 62
7
  6
CONTINUOUS
 90
13
 70
0
 43
0.3500000087
 10
-51.998443515
 20
43.6071433075
 10
-51.998443515
 20
44.8928582397
 10
-51.7841569824
 20
45.3214270416
 10
-51.3555881805
 20
45.7500001068
 10
-51.1413016479
 20
45.7500001068
 10
-50.7127285828
 20
45.3214270416
 10
-50.4984420502
 20
44.8928582397
 10
-50.4984420502
 20
43.6071433075
 10
-50.7127285828
 20
43.1785702423
 10
-51.1413016479
 20
42.7500014404
 10
-51.3555881805
 20
42.7500014404
 10
-51.7841569824
 20
43.1785702423
 10
-51.998443515
 20
43.6071433075
  0
LINE
  5
3BB
100
AcDbEntity
  8
0
100
AcDbLine
 62
7
  6
CONTINUOUS
 10
-31.1072913063
 20
9.2802765158
 11
-30.5368198538
 21
9.45
  0
LINE
  5
3BC
100
AcDbEntity
  8
DRAFT
100
AcDbLine
 62
7
  6
CONTINUOUS
 10
-60.2270147905
 20
-3.5
 11
-60.1270147905
 21
-3.4991273132
  0
LINE
  5
3BD
100
AcDbEntity
  8
RACCORDO
100
AcDbLine
 62
7
  6
CONTINUOUS
 10
-60.1270147905
 20
-2.9991273132
 11
-60.2270147905
 21
-3.0
  0
LINE
  5
3BE
100
AcDbEntity
  8
RACCORDO
100
AcDbLine
 62
250
  6
CONTINUOUS
 10
-60.1270147905
 20
-2.6991387363
 11
-60.2270147905
 21
-2.7000114231
  0
LINE
  5
3BF
100
AcDbEntity
  8
RACCORDO
100
AcDbLine
 62
250
  6
CONTINUOUS
 10
-29.1270147905
 20
-3.6743110427
 11
-29.5200338279
 21
-3.6743110427
  0
LINE
  5
3C0
100
AcDbEntity
  8
RACCORDO
100
AcDbLine
 62
250
  6
CONTINUOUS
 10
-40.2182885873
 20
-3.5077929363
 11
-39.7270147905
 21
-3.5077929363
  0
LINE
  5
3C1
100
AcDbEntity
  8
0
100
AcDbLine
 62
7
  6
CONTINUOUS
 10
-39.7270147905
 20
-2.446747
 11
-39.5270147905
 21
-2.446747
  0
LINE
  5
3C2
100
AcDbEntity
  8
RACCORDO
100
AcDbLine
 62
7
  6
CONTINUOUS
 10
-29.5200338279
 20
-3.3123205157
 11
-35.1841023336
 21
-3.2705431603
  0
LINE
  5
3C3
100
AcDbEntity
  8
RACCORDO
100
AcDbLine
 62
250
  6
CONTINUOUS
 10
-26.6182885873
 20
-4.7058529361
 11
-36.2270147905
 21
-4.5549070028
  0
LINE
  5
3C4
100
AcDbEntity
  8
RACCORDO
100
AcDbLine
 62
250
  6
CONTINUOUS
 10
-36.7182885873
 20
-4.5471894573
 11
-39.2339959046
 21
-4.5076695688
  0
LINE
  5
3C5
100
AcDbEntity
  8
RACCORDO
100
AcDbLine
 62
7
  6
CONTINUOUS
 10
-25.4223025953
 20
-4.2247163762
 11
-39.2348684491
 21
-4.0077312525
  0
LINE
  5
3C6
100
AcDbEntity
  8
RACCORDO
100
AcDbLine
 62
250
  6
CONTINUOUS
 10
-26.6182914051
 20
-3.8059885953
 11
-28.6357365981
 21
-3.7742960336
  0
LINE
  5
3C7
100
AcDbEntity
  8
SMUSSO
100
AcDbLine
 62
7
  6
CONTINUOUS
 10
-29.1270147905
 20
-2.8551492917
 11
-35.1750089082
 21
-2.7495811617
  0
LINE
  5
3C8
100
AcDbEntity
  8
RACCORDO
100
AcDbLine
 62
250
  6
CONTINUOUS
 10
-26.5644793412
 20
-3.8075101273
 11
-26.6182914051
 21
-3.8059885599
  0
LINE
  5
3C9
100
AcDbEntity
  8
0
100
AcDbLine
 62
7
  6
CONTINUOUS
 10
-30.5368198538
 20
-9.45
 11
-31.1072913063
 21
-9.2802765158
  0
LINE
  5
3CA
100
AcDbEntity
  8
0
100
AcDbLine
 62
7
  6
CONTINUOUS
 10
-34.7770147905
 20
-1.4418439095
 11
-35.4770147905
 21
-1.4418439095
  0
LINE
  5
3CB
100
AcDbEntity
  8
0
100
AcDbLine
 62
7
  6
CONTINUOUS
 10
-35.4770147905
 20
-1.1426949447
 11
-35.1996320292
 21
-1.1426949447
  0
LINE
  5
3CC
100
AcDbEntity
  8
0
100
AcDbLine
 62
7
  6
CONTINUOUS
 10
-35.0543975517
 20
-1.1426949447
 11
-34.7770147905
 21
-1.1426949447
  0
LINE
  5
3CD
100
AcDbEntity
  8
0
100
AcDbLine
 62
7
  6
CONTINUOUS
 10
-33.0370147905
 20
-0.35
 11
-34.0368198538
 21
-0.35
  0
LINE
  5
3CE
100
AcDbEntity
  8
0
100
AcDbLine
 62
7
  6
CONTINUOUS
 10
-36.2172097272
 20
-0.35
 11
-37.2170147905
 21
-0.35
  0
LWPOLYLINE
  5
3CF
100
AcDbEntity
  8
0
100
AcDbPolyline
 62
7
  6
CONTINUOUS
 90
4
 70
0
 43
0.3500000087
 10
-46.5698698303
 20
33.1785732666
 10
-46.5698698303
 20
34.0357151337
 10
-46.1413010284
 20
34.4642839355
 10
-45.4984414307
 20
34.4642839355
  0
LINE
  5
3D0
100
AcDbEntity
  8
SMUSSO
100
AcDbLine
 62
7
  6
CONTINUOUS
 10
-35.1750089082
 20
2.7495811617
 11
-29.1270147905
 21
2.8551492917
  0
LINE
  5
3D1
100
AcDbEntity
  8
0
100
AcDbLine
 62
7
  6
CONTINUOUS
 10
-33.0370147905
 20
0.35
 11
-34.0368198538
 21
0.35
  0
LINE
  5
3D2
100
AcDbEntity
  8
0
100
AcDbLine
 62
7
  6
CONTINUOUS
 10
-36.2172097272
 20
0.35
 11
-37.2170147905
 21
0.35
  0
LINE
  5
3D3
100
AcDbEntity
  8
0
100
AcDbLine
 62
7
  6
CONTINUOUS
 10
-35.4770147905
 20
1.1426949447
 11
-35.1996320292
 21
1.1426949447
  0
LINE
  5
3D4
100
AcDbEntity
  8
0
100
AcDbLine
 62
7
  6
CONTINUOUS
 10
-35.0543975517
 20
1.1426949447
 11
-34.7770147905
 21
1.1426949447
  0
LINE
  5
3D5
100
AcDbEntity
  8
0
100
AcDbLine
 62
7
  6
CONTINUOUS
 10
-34.7770147905
 20
1.4418439095
 11
-35.4770147905
 21
1.4418439095
  0
LINE
  5
3D6
100
AcDbEntity
  8
0
100
AcDbLine
 62
7
  6
CONTINUOUS
 10
-39.7270147905
 20
2.453253
 11
-39.5270147905
 21
2.453253
  0
LINE
  5
3D7
100
AcDbEntity
  8
RACCORDO
100
AcDbLine
 62
250
  6
CONTINUOUS
 10
-60.1270147905
 20
2.6991387363
 11
-60.2270147905
 21
2.7000114231
  0
LINE
  5
3D8
100
AcDbEntity
  8
0
100
AcDbLine
 62
7
  6
CONTINUOUS
 10
-35.6467382746
 20
0.5197234842
 11
-36.2172097272
 21
0.35
  0
LINE
  5
3D9
100
AcDbEntity
  8
0
100
AcDbLine
 62
7
  6
CONTINUOUS
 10
-34.6072913063
 20
-0.5197234842
 11
-34.0368198538
 21
-0.35
  0
LINE
  5
3DA
100
AcDbEntity
  8
RACCORDO
100
AcDbLine
 62
250
  6
CONTINUOUS
 10
-26.5644780146
 20
3.8075102325
 11
-26.6182911387
 21
3.8059885674
  0
LINE
  5
3DB
100
AcDbEntity
  8
RACCORDO
100
AcDbLine
 62
250
  6
CONTINUOUS
 10
-26.6182911387
 20
3.8059885994
 11
-28.6357409937
 21
3.7742959646
  0
LINE
  5
3DC
100
AcDbEntity
  8
RACCORDO
100
AcDbLine
 62
7
  6
CONTINUOUS
 10
-25.4223025953
 20
4.2247163762
 11
-39.2348684491
 21
4.0077312525
  0
LINE
  5
3DD
100
AcDbEntity
  8
RACCORDO
100
AcDbLine
 62
250
  6
CONTINUOUS
 10
-39.2339959046
 20
4.5076695688
 11
-36.7182885873
 21
4.5471894573
  0
LINE
  5
3DE
100
AcDbEntity
  8
RACCORDO
100
AcDbLine
 62
250
  6
CONTINUOUS
 10
-36.2270147905
 20
4.5549070028
 11
-26.6182885873
 21
4.7058529361
  0
LINE
  5
3DF
100
AcDbEntity
  8
RACCORDO
100
AcDbLine
 62
7
  6
CONTINUOUS
 10
-35.184102335
 20
3.2705432335
 11
-29.5200338279
 21
3.3123205157
  0
LINE
  5
3E0
100
AcDbEntity
  8
RACCORDO
100
AcDbLine
 62
250
  6
CONTINUOUS
 10
-39.7270147905
 20
3.5077929363
 11
-40.2182885873
 21
3.5077929363
  0
LINE
  5
3E1
100
AcDbEntity
  8
RACCORDO
100
AcDbLine
 62
250
  6
CONTINUOUS
 10
-29.1270147905
 20
3.6743110427
 11
-29.5200338279
 21
3.6743110427
  0
LINE
  5
3E2
100
AcDbEntity
  8
RACCORDO
100
AcDbLine
 62
250
  6
CONTINUOUS
 10
-36.7182885873
 20
4.5471894573
 11
-36.2270147905
 21
4.5471894573
  0
LINE
  5
3E3
100
AcDbEntity
  8
RACCORDO
100
AcDbLine
 62
250
  6
CONTINUOUS
 10
-26.6182885873
 20
4.7058529361
 11
-26.1270147905
 21
4.7058529361
  0
LINE
  5
3E4
100
AcDbEntity
  8
RACCORDO
100
AcDbLine
 62
7
  6
CONTINUOUS
 10
-60.1270147905
 20
2.9991273132
 11
-60.2270147905
 21
3.0
  0
LINE
  5
3E5
100
AcDbEntity
  8
DRAFT
100
AcDbLine
 62
7
  6
CONTINUOUS
 10
-60.2270147905
 20
3.5
 11
-60.1270147905
 21
3.4991273132
  0
LINE
  5
3E6
100
AcDbEntity
  8
0
100
AcDbLine
 62
7
  6
CONTINUOUS
 10
-35.6467382746
 20
-0.5197234842
 11
-36.2172097272
 21
-0.35
  0
LINE
  5
3E7
100
AcDbEntity
  8
0
100
AcDbLine
 62
7
  6
CONTINUOUS
 10
-34.0368198538
 20
0.35
 11
-34.6072913063
 21
0.5197234842
  0
LINE
  5
3E8
100
AcDbEntity
  8
DRAFT
100
AcDbLine
 62
7
  6
CONTINUOUS
 10
-60.2270147905
 20
6.0
 11
-60.1270147905
 21
6.0008726868
  0
LINE
  5
3E9
100
AcDbEntity
  8
RACCORDO
100
AcDbLine
 62
7
  6
CONTINUOUS
 10
-26.6182885873
 20
6.3771134491
 11
-31.686109036
 21
6.4144929354
  0
LINE
  5
3EA
100
AcDbEntity
  8
SMUSSO
100
AcDbLine
 62
7
  6
CONTINUOUS
 10
-26.1270147905
 20
6.9535782408
 11
-31.6750089082
 21
7.0504188383
  0
LINE
  5
3EB
100
AcDbEntity
  8
RACCORDO
100
AcDbLine
 62
250
  6
CONTINUOUS
 10
-40.2182885873
 20
-3.5077929363
 11
-40.2182885873
 21
3.5077929363
  0
LINE
  5
3EC
100
AcDbEntity
  8
RACCORDO
100
AcDbLine
 62
7
  6
CONTINUOUS
 10
-39.7270147905
 20
-3.5077929363
 11
-39.7270147905
 21
3.5077929363
  0
LINE
  5
3ED
100
AcDbEntity
  8
0
100
AcDbLine
 62
7
  6
CONTINUOUS
 10
-39.5270147905
 20
2.453253
 11
-39.5270147905
 21
-2.446747
  0
LINE
  5
3EE
100
AcDbEntity
  8
RACCORDO
100
AcDbLine
 62
250
  6
CONTINUOUS
 10
-25.1270147905
 20
7.55
 11
-26.1270147905
 21
7.55
  0
LINE
  5
3EF
100
AcDbEntity
  8
0
100
AcDbLine
 62
7
  6
CONTINUOUS
 10
-31.2770147905
 20
8.3581560905
 11
-31.9770147905
 21
8.3581560905
  0
LINE
  5
3F0
100
AcDbEntity
  8
0
100
AcDbLine
 62
7
  6
CONTINUOUS
 10
-31.9770147905
 20
8.6573050553
 11
-31.6996320292
 21
8.6573050553
  0
LINE
  5
3F1
100
AcDbEntity
  8
0
100
AcDbLine
 62
7
  6
CONTINUOUS
 10
-31.5543975517
 20
8.6573050553
 11
-31.2770147905
 21
8.6573050553
  0
LINE
  5
3F2
100
AcDbEntity
  8
0
100
AcDbLine
 62
7
  6
CONTINUOUS
 10
-29.5370147905
 20
9.45
 11
-30.5368198538
 21
9.45
  0
LINE
  5
3F3
100
AcDbEntity
  8
0
100
AcDbLine
 62
7
  6
CONTINUOUS
 10
-32.7172097272
 20
9.45
 11
-33.7170147905
 21
9.45
  0
LINE
  5
3F4
100
AcDbEntity
  8
0
100
AcDbLine
 62
7
  6
CONTINUOUS
 10
-37.2170147905
 20
-0.35
 11
-37.2170147905
 21
0.35
  0
LINE
  5
3F5
100
AcDbEntity
  8
RACCORDO
100
AcDbLine
 62
250
  6
CONTINUOUS
 10
-36.7182885873
 20
-15.1857326673
 11
-36.7182885873
 21
-4.5471894573
  0
LINE
  5
3F6
100
AcDbEntity
  8
RACCORDO
100
AcDbLine
 62
250
  6
CONTINUOUS
 10
-36.7182885873
 20
4.5471894573
 11
-36.7182885873
 21
15.1857326673
  0
LINE
  5
3F7
100
AcDbEntity
  8
0
100
AcDbLine
 62
7
  6
CONTINUOUS
 10
-36.2697097352
 20
0.35
 11
-36.2697097352
 21
0.0726172387
  0
LINE
  5
3F8
100
AcDbEntity
  8
0
100
AcDbLine
 62
7
  6
CONTINUOUS
 10
-36.2697097352
 20
-0.0726172387
 11
-36.2697097352
 21
-0.35
  0
LINE
  5
3F9
100
AcDbEntity
  8
RACCORDO
100
AcDbLine
 62
7
  6
CONTINUOUS
 10
-36.2270147905
 20
-15.1857326673
 11
-36.2270147905
 21
-4.5471894573
  0
LINE
  5
3FA
100
AcDbEntity
  8
RACCORDO
100
AcDbLine
 62
7
  6
CONTINUOUS
 10
-36.2270147905
 20
4.5471894573
 11
-36.2270147905
 21
15.1857326673
  0
LINE
  5
3FB
100
AcDbEntity
  8
0
100
AcDbLine
 62
7
  6
CONTINUOUS
 10
-35.4770147905
 20
1.0901949367
 11
-35.6467382746
 21
0.5197234842
  0
LINE
  5
3FC
100
AcDbEntity
  8
SMUSSO
100
AcDbLine
 62
7
  6
CONTINUOUS
 10
-31.6750089082
 20
12.5495811617
 11
-26.1270147905
 21
12.6464217592
  0
LINE
  5
3FD
100
AcDbEntity
  8
0
100
AcDbLine
 62
7
  6
CONTINUOUS
 10
-29.5370147905
 20
10.15
 11
-30.5368198538
 21
10.15
  0
LINE
  5
3FE
100
AcDbEntity
  8
0
100
AcDbLine
 62
7
  6
CONTINUOUS
 10
-32.7172097272
 20
10.15
 11
-33.7170147905
 21
10.15
  0
LINE
  5
3FF
100
AcDbEntity
  8
0
100
AcDbLine
 62
7
  6
CONTINUOUS
 10
-31.9770147905
 20
10.9426949447
 11
-31.6996320292
 21
10.9426949447
  0
LINE
  5
400
100
AcDbEntity
  8
0
100
AcDbLine
 62
7
  6
CONTINUOUS
 10
-31.5543975517
 20
10.9426949447
 11
-31.2770147905
 21
10.9426949447
  0
LINE
  5
401
100
AcDbEntity
  8
0
100
AcDbLine
 62
7
  6
CONTINUOUS
 10
-31.2770147905
 20
11.2418439095
 11
-31.9770147905
 21
11.2418439095
  0
LINE
  5
402
100
AcDbEntity
  8
DRAFT
100
AcDbLine
 62
7
  6
CONTINUOUS
 10
-63.7270147905
 20
11.5
 11
-60.2270147905
 21
11.4816738754
  0
LINE
  5
403
100
AcDbEntity
  8
DRAFT
100
AcDbLine
 62
7
  6
CONTINUOUS
 10
-63.7270147905
 20
11.6188497282
 11
-60.1270147905
 21
11.6
  0
LINE
  5
404
100
AcDbEntity
  8
0
100
AcDbLine
 62
7
  6
CONTINUOUS
 10
-35.6467382746
 20
-0.5197234842
 11
-35.4770147905
 21
-1.0901949367
  0
LINE
  5
405
100
AcDbEntity
  8
DRAFT
100
AcDbLine
 62
250
  6
CONTINUOUS
 10
-35.184102335
 20
3.2705432335
 11
-35.1750089082
 21
2.7495811617
  0
LINE
  5
406
100
AcDbEntity
  8
RACCORDO
100
AcDbLine
 62
7
  6
CONTINUOUS
 10
-35.7270147905
 20
2.6835891367
 11
-35.7270147905
 21
0.495840063
  0
LINE
  5
407
100
AcDbEntity
  8
RACCORDO
100
AcDbLine
 62
7
  6
CONTINUOUS
 10
-35.7270147905
 20
-0.495840063
 11
-35.7270147905
 21
-2.6835891983
  0
LINE
  5
408
100
AcDbEntity
  8
0
100
AcDbLine
 62
7
  6
CONTINUOUS
 10
-35.4770147905
 20
1.4418439095
 11
-35.4770147905
 21
1.0901949367
  0
LINE
  5
409
100
AcDbEntity
  8
0
100
AcDbLine
 62
7
  6
CONTINUOUS
 10
-35.4770147905
 20
-1.0901949367
 11
-35.4770147905
 21
-1.4418439095
  0
LINE
  5
40A
100
AcDbEntity
  8
0
100
AcDbLine
 62
7
  6
CONTINUOUS
 10
-34.7770147905
 20
1.4418439095
 11
-34.7770147905
 21
1.0901949367
  0
LINE
  5
40B
100
AcDbEntity
  8
0
100
AcDbLine
 62
7
  6
CONTINUOUS
 10
-34.7770147905
 20
-1.0901949367
 11
-34.7770147905
 21
-1.4418439095
  0
LINE
  5
40C
100
AcDbEntity
  8
RACCORDO
100
AcDbLine
 62
7
  6
CONTINUOUS
 10
-34.5270147905
 20
-2.7608919411
 11
-34.5270147905
 21
-0.495840063
  0
LINE
  5
40D
100
AcDbEntity
  8
RACCORDO
100
AcDbLine
 62
7
  6
CONTINUOUS
 10
-34.5270147905
 20
0.495840063
 11
-34.5270147905
 21
2.7608919411
  0
LINE
  5
40E
100
AcDbEntity
  8
0
100
AcDbLine
 62
7
  6
CONTINUOUS
 10
-33.9843198458
 20
0.35
 11
-33.9843198458
 21
0.0726172387
  0
LINE
  5
40F
100
AcDbEntity
  8
0
100
AcDbLine
 62
7
  6
CONTINUOUS
 10
-33.9843198458
 20
-0.0726172387
 11
-33.9843198458
 21
-0.35
  0
LINE
  5
410
100
AcDbEntity
  8
0
100
AcDbLine
 62
7
  6
CONTINUOUS
 10
-33.7170147905
 20
-10.15
 11
-33.7170147905
 21
-9.45
  0
LINE
  5
411
100
AcDbEntity
  8
0
100
AcDbLine
 62
7
  6
CONTINUOUS
 10
-33.7170147905
 20
9.45
 11
-33.7170147905
 21
10.15
  0
LINE
  5
412
100
AcDbEntity
  8
DRAFT
100
AcDbLine
 62
250
  6
CONTINUOUS
 10
-35.1841023345
 20
-3.2705432152
 11
-35.1750089082
 21
-2.7495811617
  0
LINE
  5
413
100
AcDbEntity
  8
0
100
AcDbLine
 62
7
  6
CONTINUOUS
 10
-31.9770147905
 20
10.8901949367
 11
-32.1467382746
 21
10.3197234842
  0
LINE
  5
414
100
AcDbEntity
  8
0
100
AcDbLine
 62
7
  6
CONTINUOUS
 10
-34.7770147905
 20
-1.0901949367
 11
-34.6072913063
 21
-0.5197234842
  0
LINE
  5
415
100
AcDbEntity
  8
0
100
AcDbLine
 62
7
  6
CONTINUOUS
 10
-31.2770147905
 20
8.7098050633
 11
-31.1072913063
 21
9.2802765158
  0
LINE
  5
416
100
AcDbEntity
  8
0
100
AcDbLine
 62
7
  6
CONTINUOUS
 10
-32.1467382746
 20
-9.2802765158
 11
-32.7172097272
 21
-9.45
  0
LINE
  5
417
100
AcDbEntity
  8
RACCORDO
100
AcDbLine
 62
7
  6
CONTINUOUS
 10
-31.6861090367
 20
13.185507101
 11
-26.6182885873
 21
13.2228865509
  0
LINE
  5
418
100
AcDbEntity
  8
0
100
AcDbLine
 62
7
  6
CONTINUOUS
 10
-32.1467382746
 20
9.2802765158
 11
-32.7172097272
 21
9.45
  0
LINE
  5
419
100
AcDbEntity
  8
0
100
AcDbLine
 62
7
  6
CONTINUOUS
 10
-32.1467382746
 20
-10.3197234842
 11
-31.9770147905
 21
-10.8901949367
  0
LINE
  5
41A
100
AcDbEntity
  8
0
100
AcDbLine
 62
7
  6
CONTINUOUS
 10
-34.6072913063
 20
0.5197234842
 11
-34.7770147905
 21
1.0901949367
  0
LINE
  5
41B
100
AcDbEntity
  8
0
100
AcDbLine
 62
7
  6
CONTINUOUS
 10
-31.1072913063
 20
-9.2802765158
 11
-31.2770147905
 21
-8.7098050633
  0
LINE
  5
41C
100
AcDbEntity
  8
DRAFT
100
AcDbLine
 62
250
  6
CONTINUOUS
 10
-31.6861090367
 20
-6.414492899
 11
-31.6750089082
 21
-7.0504188383
  0
LINE
  5
41D
100
AcDbEntity
  8
DRAFT
100
AcDbLine
 62
250
  6
CONTINUOUS
 10
-31.6861090367
 20
13.185507101
 11
-31.6750089082
 21
12.5495811617
  0
LINE
  5
41E
100
AcDbEntity
  8
0
100
AcDbLine
 62
7
  6
CONTINUOUS
 10
-33.0370147905
 20
-0.35
 11
-33.0370147905
 21
0.35
  0
LINE
  5
41F
100
AcDbEntity
  8
0
100
AcDbLine
 62
7
  6
CONTINUOUS
 10
-32.7697097352
 20
10.15
 11
-32.7697097352
 21
9.8726172387
  0
LINE
  5
420
100
AcDbEntity
  8
0
100
AcDbLine
 62
7
  6
CONTINUOUS
 10
-32.7697097352
 20
9.7273827613
 11
-32.7697097352
 21
9.45
  0
LINE
  5
421
100
AcDbEntity
  8
0
100
AcDbLine
 62
7
  6
CONTINUOUS
 10
-32.7697097352
 20
-9.45
 11
-32.7697097352
 21
-9.7273827613
  0
LINE
  5
422
100
AcDbEntity
  8
0
100
AcDbLine
 62
7
  6
CONTINUOUS
 10
-32.7697097352
 20
-9.8726172387
 11
-32.7697097352
 21
-10.15
  0
LINE
  5
423
100
AcDbEntity
  8
RACCORDO
100
AcDbLine
 62
7
  6
CONTINUOUS
 10
-32.2270147905
 20
12.4835958493
 11
-32.2270147905
 21
10.295840063
  0
LINE
  5
424
100
AcDbEntity
  8
RACCORDO
100
AcDbLine
 62
7
  6
CONTINUOUS
 10
-32.2270147905
 20
9.304159937
 11
-32.2270147905
 21
7.116404216
  0
LINE
  5
425
100
AcDbEntity
  8
RACCORDO
100
AcDbLine
 62
7
  6
CONTINUOUS
 10
-32.2270147905
 20
-7.1164041507
 11
-32.2270147905
 21
-9.304159937
  0
LINE
  5
426
100
AcDbEntity
  8
RACCORDO
100
AcDbLine
 62
7
  6
CONTINUOUS
 10
-32.2270147905
 20
-10.295840063
 11
-32.2270147905
 21
-12.483595784
  0
LINE
  5
427
100
AcDbEntity
  8
0
100
AcDbLine
 62
7
  6
CONTINUOUS
 10
-31.9770147905
 20
11.2418439095
 11
-31.9770147905
 21
10.8901949367
  0
LINE
  5
428
100
AcDbEntity
  8
0
100
AcDbLine
 62
7
  6
CONTINUOUS
 10
-31.9770147905
 20
8.7098050633
 11
-31.9770147905
 21
8.3581560905
  0
LINE
  5
429
100
AcDbEntity
  8
0
100
AcDbLine
 62
7
  6
CONTINUOUS
 10
-31.9770147905
 20
-8.3581560905
 11
-31.9770147905
 21
-8.7098050633
  0
LINE
  5
42A
100
AcDbEntity
  8
0
100
AcDbLine
 62
7
  6
CONTINUOUS
 10
-31.9770147905
 20
-10.8901949367
 11
-31.9770147905
 21
-11.2418439095
  0
LINE
  5
42B
100
AcDbEntity
  8
0
100
AcDbLine
 62
7
  6
CONTINUOUS
 10
-31.2770147905
 20
11.2418439095
 11
-31.2770147905
 21
10.8901949367
  0
LINE
  5
42C
100
AcDbEntity
  8
0
100
AcDbLine
 62
7
  6
CONTINUOUS
 10
-31.2770147905
 20
8.7098050633
 11
-31.2770147905
 21
8.3581560905
  0
LINE
  5
42D
100
AcDbEntity
  8
0
100
AcDbLine
 62
7
  6
CONTINUOUS
 10
-31.2770147905
 20
-8.3581560905
 11
-31.2770147905
 21
-8.7098050633
  0
LINE
  5
42E
100
AcDbEntity
  8
0
100
AcDbLine
 62
7
  6
CONTINUOUS
 10
-31.2770147905
 20
-10.8901949367
 11
-31.2770147905
 21
-11.2418439095
  0
LINE
  5
42F
100
AcDbEntity
  8
DRAFT
100
AcDbLine
 62
250
  6
CONTINUOUS
 10
-31.6861090365
 20
6.4144929081
 11
-31.6750089082
 21
7.0504188383
  0
LINE
  5
430
100
AcDbEntity
  8
DRAFT
100
AcDbLine
 62
250
  6
CONTINUOUS
 10
-31.6861090365
 20
-13.1855070919
 11
-31.6750089082
 21
-12.5495811617
  0
LINE
  5
431
100
AcDbEntity
  8
0
100
AcDbLine
 62
7
  6
CONTINUOUS
 10
-31.1072913063
 20
-10.3197234842
 11
-30.5368198538
 21
-10.15
  0
LINE
  5
432
100
AcDbEntity
  8
RACCORDO
100
AcDbLine
 62
250
  6
CONTINUOUS
 10
-26.1270147905
 20
15.0094365115
 11
-26.6182885873
 21
15.0094365115
  0
LINE
  5
433
100
AcDbEntity
  8
RACCORDO
100
AcDbLine
 62
250
  6
CONTINUOUS
 10
-36.2270147905
 20
15.1857326673
 11
-36.7182885873
 21
15.1857326673
  0
LINE
  5
434
100
AcDbEntity
  8
RACCORDO
100
AcDbLine
 62
250
  6
CONTINUOUS
 10
-25.1270147905
 20
15.1885208992
 11
-25.4217790685
 21
15.1885208992
  0
LINE
  5
435
100
AcDbEntity
  8
RACCORDO
100
AcDbLine
 62
250
  6
CONTINUOUS
 10
-54.9726516889
 20
15.5043637604
 11
-36.7182885873
 21
15.1857326673
  0
LINE
  5
436
100
AcDbEntity
  8
RACCORDO
100
AcDbLine
 62
250
  6
CONTINUOUS
 10
-26.6182885873
 20
15.0094365115
 11
-36.2270147905
 21
15.1771574512
  0
LINE
  5
437
100
AcDbEntity
  8
RACCORDO
100
AcDbLine
 62
250
  6
CONTINUOUS
 10
-25.4217790685
 20
15.1885208992
 11
-26.1653748243
 21
15.2015004114
  0
LINE
  5
438
100
AcDbEntity
  8
RACCORDO
100
AcDbLine
 62
7
  6
CONTINUOUS
 10
-25.4217790685
 20
15.4884752077
 11
-54.7270147905
 21
16.0
  0
LINE
  5
439
100
AcDbEntity
  8
RACCORDO
100
AcDbLine
 62
250
  6
CONTINUOUS
 10
-74.6507761179
 20
16.7552054488
 11
-74.8962184183
 21
16.7650672526
  0
LINE
  5
43A
100
AcDbEntity
  8
0
100
AcDbLine
 62
7
  6
CONTINUOUS
 10
-30.5368198538
 20
10.15
 11
-31.1072913063
 21
10.3197234842
  0
LINE
  5
43B
100
AcDbEntity
  8
RACCORDO
100
AcDbLine
 62
7
  6
CONTINUOUS
 10
-31.0270147905
 20
-12.5608919411
 11
-31.0270147905
 21
-10.295840063
  0
LINE
  5
43C
100
AcDbEntity
  8
RACCORDO
100
AcDbLine
 62
7
  6
CONTINUOUS
 10
-31.0270147905
 20
-9.304159937
 11
-31.0270147905
 21
-7.0391080589
  0
LINE
  5
43D
100
AcDbEntity
  8
RACCORDO
100
AcDbLine
 62
7
  6
CONTINUOUS
 10
-31.0270147905
 20
7.0391080589
 11
-31.0270147905
 21
9.304159937
  0
LINE
  5
43E
100
AcDbEntity
  8
RACCORDO
100
AcDbLine
 62
7
  6
CONTINUOUS
 10
-31.0270147905
 20
10.295840063
 11
-31.0270147905
 21
12.5608919411
  0
LINE
  5
43F
100
AcDbEntity
  8
0
100
AcDbLine
 62
7
  6
CONTINUOUS
 10
-30.4843198458
 20
10.15
 11
-30.4843198458
 21
9.8726172387
  0
LINE
  5
440
100
AcDbEntity
  8
0
100
AcDbLine
 62
7
  6
CONTINUOUS
 10
-30.4843198458
 20
9.7273827613
 11
-30.4843198458
 21
9.45
  0
LINE
  5
441
100
AcDbEntity
  8
0
100
AcDbLine
 62
7
  6
CONTINUOUS
 10
-30.4843198458
 20
-9.45
 11
-30.4843198458
 21
-9.7273827613
  0
LINE
  5
442
100
AcDbEntity
  8
0
100
AcDbLine
 62
7
  6
CONTINUOUS
 10
-30.4843198458
 20
-9.8726172387
 11
-30.4843198458
 21
-10.15
  0
LINE
  5
443
100
AcDbEntity
  8
0
100
AcDbLine
 62
7
  6
CONTINUOUS
 10
-29.5370147905
 20
-10.15
 11
-29.5370147905
 21
-9.45
  0
LINE
  5
444
100
AcDbEntity
  8
0
100
AcDbLine
 62
7
  6
CONTINUOUS
 10
-29.5370147905
 20
9.45
 11
-29.5370147905
 21
10.15
  0
LINE
  5
445
100
AcDbEntity
  8
RACCORDO
100
AcDbLine
 62
250
  6
CONTINUOUS
 10
-29.5200338279
 20
3.6743110427
 11
-29.5200338279
 21
3.3123205157
  0
LINE
  5
446
100
AcDbEntity
  8
RACCORDO
100
AcDbLine
 62
250
  6
CONTINUOUS
 10
-29.5200338279
 20
-3.3123205157
 11
-29.5200338279
 21
-3.6743110427
  0
LINE
  5
447
100
AcDbEntity
  8
RACCORDO
100
AcDbLine
 62
7
  6
CONTINUOUS
 10
-29.1270147905
 20
3.6743082181
 11
-29.1270147905
 21
2.8551492917
  0
LINE
  5
448
100
AcDbEntity
  8
ASSI
100
AcDbLine
 62
7
  6
CONTINUOUS
 10
-29.1270147905
 20
2.8551492917
 11
-29.1270147905
 21
-2.8551492917
  0
LINE
  5
449
100
AcDbEntity
  8
RACCORDO
100
AcDbLine
 62
7
  6
CONTINUOUS
 10
-29.1270147905
 20
-2.8551492917
 11
-29.1270147905
 21
-3.674308218
  0
LINE
  5
44A
100
AcDbEntity
  8
0
100
AcDbLine
 62
7
  6
CONTINUOUS
 10
-31.9770147905
 20
-8.7098050633
 11
-32.1467382746
 21
-9.2802765158
  0
LINE
  5
44B
100
AcDbEntity
  8
0
100
AcDbLine
 62
7
  6
CONTINUOUS
 10
-31.2770147905
 20
-10.8901949367
 11
-31.1072913063
 21
-10.3197234842
  0
LINE
  5
44C
100
AcDbEntity
  8
RACCORDO
100
AcDbLine
 62
250
  6
CONTINUOUS
 10
-73.8279379248
 20
19.298770978
 11
-71.2270147905
 21
19.3148232278
  0
LINE
  5
44D
100
AcDbEntity
  8
RACCORDO
100
AcDbLine
 62
7
  6
CONTINUOUS
 10
-71.2270147905
 20
18.8
 11
-70.7270147905
 21
18.8
  0
LINE
  5
44E
100
AcDbEntity
  8
RACCORDO
100
AcDbLine
 62
250
  6
CONTINUOUS
 10
-70.9813778921
 20
19.05
 11
-70.4813778921
 21
19.05
  0
LWPOLYLINE
  5
44F
100
AcDbEntity
  8
0
100
AcDbPolyline
 62
7
  6
CONTINUOUS
 90
10
 70
0
 43
0.3500000087
 10
-48.9984448486
 20
43.2500019287
 10
-48.9270131622
 20
43.1071428192
 10
-48.9270131622
 20
43.0357153961
 10
-49.0698722717
 20
42.8928562866
 10
-49.1412996948
 20
42.8928562866
 10
-49.2127271179
 20
42.9642837097
 10
-49.2127271179
 20
43.0357153961
 10
-49.1412996948
 20
43.1785702423
 10
-49.0698722717
 20
43.2500019287
 10
-48.9984448486
 20
43.2500019287
  0
LWPOLYLINE
  5
450
100
AcDbEntity
  8
0
100
AcDbPolyline
 62
7
  6
CONTINUOUS
 90
10
 70
0
 43
0.3500000087
 10
-43.5698711639
 20
33.2500006897
 10
-43.4984437408
 20
33.1071415802
 10
-43.4984437408
 20
33.0357141571
 10
-43.641298587
 20
32.8928550476
 10
-43.7127302734
 20
32.8928550476
 10
-43.7841576965
 20
32.964286734
 10
-43.7841576965
 20
33.0357141571
 10
-43.7127302734
 20
33.1785732666
 10
-43.641298587
 20
33.2500006897
 10
-43.5698711639
 20
33.2500006897
  0
LINE
  5
451
100
AcDbEntity
  8
0
100
AcDbLine
 62
7
  6
CONTINUOUS
 10
-32.1467382746
 20
9.2802765158
 11
-31.9770147905
 21
8.7098050633
  0
LINE
  5
452
100
AcDbEntity
  8
0
100
AcDbLine
 62
7
  6
CONTINUOUS
 10
-31.1072913063
 20
10.3197234842
 11
-31.2770147905
 21
10.8901949367
  0
LINE
  5
453
100
AcDbEntity
  8
RACCORDO
100
AcDbLine
 62
250
  6
CONTINUOUS
 10
-28.6357409937
 20
3.7742959646
 11
-28.6357365981
 21
-3.7742960336
  0
LINE
  5
454
100
AcDbEntity
  8
RACCORDO
100
AcDbLine
 62
250
  6
CONTINUOUS
 10
-26.6182911387
 20
3.8059885994
 11
-26.6182914051
 21
-3.8059885953
  0
LINE
  5
455
100
AcDbEntity
  8
RACCORDO
100
AcDbLine
 62
250
  6
CONTINUOUS
 10
-26.6182885873
 20
15.0094365115
 11
-26.6182885873
 21
13.2228865509
  0
LINE
  5
456
100
AcDbEntity
  8
RACCORDO
100
AcDbLine
 62
250
  6
CONTINUOUS
 10
-26.6182885873
 20
-4.7058529361
 11
-26.6182885873
 21
-6.3771134491
  0
LINE
  5
457
100
AcDbEntity
  8
RACCORDO
100
AcDbLine
 62
250
  6
CONTINUOUS
 10
-26.6182885873
 20
-13.2228865509
 11
-26.6182885873
 21
-15.0094365115
  0
LINE
  5
458
100
AcDbEntity
  8
RACCORDO
100
AcDbLine
 62
250
  6
CONTINUOUS
 10
-26.6182885873
 20
4.7058529361
 11
-26.6182885873
 21
6.3771134491
  0
LINE
  5
459
100
AcDbEntity
  8
RACCORDO
100
AcDbLine
 62
250
  6
CONTINUOUS
 10
-70.4813778921
 20
18.0902250922
 11
-74.0315960094
 21
17.4642258507
  0
LINE
  5
45A
100
AcDbEntity
  8
RACCORDO
100
AcDbLine
 62
7
  6
CONTINUOUS
 10
-70.7270147905
 20
18.3
 11
-74.0706415619
 21
17.7104283868
  0
LINE
  5
45B
100
AcDbEntity
  8
DRAFT
100
AcDbLine
 62
7
  6
CONTINUOUS
 10
-71.2270147905
 20
20.75
 11
-73.7765473356
 21
20.7277505666
  0
LINE
  5
45C
100
AcDbEntity
  8
RACCORDO
100
AcDbLine
 62
7
  6
CONTINUOUS
 10
-26.1270147905
 20
15.0094365115
 11
-26.1270147905
 21
12.6464217592
  0
LINE
  5
45D
100
AcDbEntity
  8
RACCORDO
100
AcDbLine
 62
7
  6
CONTINUOUS
 10
-26.1270147905
 20
4.2136458724
 11
-26.1270147905
 21
-4.2136458724
  0
LINE
  5
45E
100
AcDbEntity
  8
RACCORDO
100
AcDbLine
 62
7
  6
CONTINUOUS
 10
-26.1270147905
 20
-4.7058529361
 11
-26.1270147905
 21
-6.9535782408
  0
LINE
  5
45F
100
AcDbEntity
  8
RACCORDO
100
AcDbLine
 62
7
  6
CONTINUOUS
 10
-26.1270147905
 20
-12.6464217592
 11
-26.1270147905
 21
-15.0094365115
  0
LINE
  5
460
100
AcDbEntity
  8
ASSI
100
AcDbLine
 62
7
  6
CONTINUOUS
 10
-26.1270147905
 20
-12.6464217592
 11
-26.1270147905
 21
-6.9535782408
  0
LINE
  5
461
100
AcDbEntity
  8
RACCORDO
100
AcDbLine
 62
7
  6
CONTINUOUS
 10
-26.1270147905
 20
4.7058529361
 11
-26.1270147905
 21
6.9535782408
  0
LINE
  5
462
100
AcDbEntity
  8
ASSI
100
AcDbLine
 62
7
  6
CONTINUOUS
 10
-26.1270147905
 20
6.9535782408
 11
-26.1270147905
 21
12.6464217592
  0
LINE
  5
463
100
AcDbEntity
  8
RACCORDO
100
AcDbLine
 62
250
  6
CONTINUOUS
 10
-25.4217790685
 20
15.1885208992
 11
-25.4217790685
 21
4.224724601
  0
LINE
  5
464
100
AcDbEntity
  8
RACCORDO
100
AcDbLine
 62
250
  6
CONTINUOUS
 10
-25.4217790685
 20
-4.224724601
 11
-25.4217790685
 21
-15.1885208992
  0
LINE
  5
465
100
AcDbEntity
  8
RACCORDO
100
AcDbLine
 62
7
  6
CONTINUOUS
 10
-25.1270147905
 20
15.1885208992
 11
-25.1270147905
 21
4.524679366
  0
LINE
  5
466
100
AcDbEntity
  8
RACCORDO
100
AcDbLine
 62
7
  6
CONTINUOUS
 10
-25.1270147905
 20
-4.524679366
 11
-25.1270147905
 21
-15.1885208992
  0
LINE
  5
467
100
AcDbEntity
  8
RACCORDO
100
AcDbLine
 62
250
  6
CONTINUOUS
 10
-70.9813778921
 20
22.0169368012
 11
-65.7795243146
 21
22.1077354931
  0
LINE
  5
468
100
AcDbEntity
  8
RACCORDO
100
AcDbLine
 62
7
  6
CONTINUOUS
 10
-70.9813778921
 20
22.266898725
 11
-66.4227916876
 21
22.3464691432
  0
LINE
  5
469
100
AcDbEntity
  8
RACCORDO
100
AcDbLine
 62
7
  6
CONTINUOUS
 10
-67.7270147905
 20
23.0737038442
 11
-66.7270147905
 21
23.0911589092
  0
LINE
  5
46A
100
AcDbEntity
  8
RACCORDO
100
AcDbLine
 62
250
  6
CONTINUOUS
 10
-70.9813778921
 20
22.0169368012
 11
-71.2270147905
 21
22.0169368012
  0
LINE
  5
46B
100
AcDbEntity
  8
RACCORDO
100
AcDbLine
 62
250
  6
CONTINUOUS
 10
-54.7270147905
 20
22.8602071525
 11
-54.9726516889
 21
22.8602071525
  0
LINE
  5
46C
100
AcDbEntity
  8
RACCORDO
100
AcDbLine
 62
250
  6
CONTINUOUS
 10
-66.7270147905
 20
23.75
 11
-63.7270147905
 21
23.75
  0
LINE
  5
46D
100
AcDbEntity
  8
RACCORDO
100
AcDbLine
 62
7
  6
CONTINUOUS
 10
-66.4770139613
 20
24.0
 11
-63.7270147905
 21
24.0
  0
LINE
  5
46E
100
AcDbEntity
  8
RACCORDO
100
AcDbLine
 62
250
  6
CONTINUOUS
 10
-63.7270147905
 20
23.7500380762
 11
-55.709562384
 21
23.6100929239
  0
LINE
  5
46F
100
AcDbEntity
  8
RACCORDO
100
AcDbLine
 62
7
  6
CONTINUOUS
 10
-63.7270147905
 20
24.0
 11
-55.709562384
 21
23.8600548477
  0
LWPOLYLINE
  5
470
100
AcDbEntity
  8
0
100
AcDbPolyline
 62
7
  6
CONTINUOUS
 90
13
 70
0
 43
0.3500000087
 10
-46.1413010284
 20
34.4642839355
 10
-46.4270149841
 20
34.6785704681
 10
-46.4270149841
 20
35.3214300659
 10
-46.1413010284
 20
35.7499988678
 10
-45.4984414307
 20
35.7499988678
 10
-45.212727475
 20
35.3214300659
 10
-45.212727475
 20
34.6785704681
 10
-45.4984414307
 20
34.4642839355
 10
-45.0698726288
 20
34.0357151337
 10
-45.0698726288
 20
33.1785732666
 10
-45.4984414307
 20
32.7500002014
 10
-46.1413010284
 20
32.7500002014
 10
-46.5698698303
 20
33.1785732666
  0
LWPOLYLINE
  5
471
100
AcDbEntity
  8
0
100
AcDbPolyline
 62
7
  6
CONTINUOUS
 90
6
 70
0
 43
0.3500000087
 10
-48.7127308929
 20
32.7500002014
 10
-47.6413024933
 20
32.7500002014
 10
-47.4270159607
 20
32.964286734
 10
-47.4270159607
 20
34.0357151337
 10
-47.8555847626
 20
34.4642839355
 10
-48.2841578278
 20
34.4642839355
  0
LWPOLYLINE
  5
472
100
AcDbEntity
  8
0
100
AcDbPolyline
 62
7
  6
CONTINUOUS
 90
8
 70
0
 43
0.3500000087
 10
-54.1413003143
 20
42.7500014404
 10
-53.2841584473
 20
42.7500014404
 10
-52.8555853821
 20
43.1785702423
 10
-52.8555853821
 20
44.0357163727
 10
-53.2841584473
 20
44.4642851746
 10
-54.1413003143
 20
44.4642851746
 10
-54.1413003143
 20
45.7500001068
 10
-52.8555853821
 20
45.7500001068
  0
ARC
  5
473
100
AcDbEntity
  8
RACCORDO
100
AcDbCircle
 62
7
  6
CONTINUOUS
 10
-12.019024456
 20
-19.0506030286
 40
0.250603482
100
AcDbArc
 50
92.0004248749
 51
92.6224679498
  0
ARC
  5
474
100
AcDbEntity
  8
RACCORDO
100
AcDbCircle
 62
250
  6
CONTINUOUS
 10
-12.023321348
 20
-22.0168454519
 40
0.2500538636
100
AcDbArc
 50
180.0209312565
 51
269.9790687435
  0
ARC
  5
475
100
AcDbEntity
  8
RACCORDO
100
AcDbCircle
 62
250
  6
CONTINUOUS
 10
-10.6858098338
 20
-23.7500212204
 40
0.2499809641
100
AcDbArc
 50
270.0048643553
 51
0.0048636902
  0
ARC
  5
476
100
AcDbEntity
  8
RACCORDO
100
AcDbCircle
 62
250
  6
CONTINUOUS
 10
-12.1141901662
 20
-23.7500212204
 40
0.2499809641
100
AcDbArc
 50
179.9951363098
 51
269.9951356447
  0
ARC
  5
477
100
AcDbEntity
  8
RACCORDO
100
AcDbCircle
 62
7
  6
CONTINUOUS
 10
-12.0190526186
 20
-19.0497607461
 40
0.2497607298
100
AcDbArc
 50
91.000264516
 51
92.0007130213
  0
ARC
  5
478
100
AcDbEntity
  8
0
100
AcDbCircle
 62
7
  6
CONTINUOUS
 10
-7.7621736304
 20
-1.5685689916
 40
1.523415957
100
AcDbArc
 50
55.6477908303
 51
56.6934252442
  0
ARC
  5
479
100
AcDbEntity
  8
0
100
AcDbCircle
 62
7
  6
CONTINUOUS
 10
-7.753332089
 20
-1.5585575191
 40
1.5102763847
100
AcDbArc
 50
55.6673825133
 51
56.7652295823
  0
ARC
  5
47A
100
AcDbEntity
  8
0
100
AcDbCircle
 62
7
  6
CONTINUOUS
 10
-7.7532297451
 20
-1.5584103777
 40
1.5100971571
100
AcDbArc
 50
53.0358901498
 51
55.6674404156
  0
ARC
  5
47B
100
AcDbEntity
  8
0
100
AcDbCircle
 62
7
  6
CONTINUOUS
 10
-7.7525515964
 20
-1.5573533986
 40
1.5088414547
100
AcDbArc
 50
56.7649594209
 51
59.4021380112
  0
ARC
  5
47C
100
AcDbEntity
  8
0
100
AcDbCircle
 62
7
  6
CONTINUOUS
 10
-7.7529740667
 20
-1.5544108836
 40
1.506531748
100
AcDbArc
 50
56.6901545759
 51
59.3313412502
  0
ARC
  5
47D
100
AcDbEntity
  8
0
100
AcDbCircle
 62
7
  6
CONTINUOUS
 10
-7.749637189
 20
-1.5523943018
 40
1.503089397
100
AcDbArc
 50
59.401542669
 51
62.6987608614
  0
ARC
  5
47E
100
AcDbEntity
  8
0
100
AcDbCircle
 62
7
  6
CONTINUOUS
 10
-7.7438727035
 20
-1.5529412722
 40
1.5011818737
100
AcDbArc
 50
65.5295903559
 51
72.6601765367
  0
ARC
  5
47F
100
AcDbEntity
  8
0
100
AcDbCircle
 62
7
  6
CONTINUOUS
 10
-7.7469136928
 20
-1.54722577
 40
1.4972474201
100
AcDbArc
 50
62.7006541223
 51
63.1575616382
  0
ARC
  5
480
100
AcDbEntity
  8
0
100
AcDbCircle
 62
7
  6
CONTINUOUS
 10
-7.7447369009
 20
-1.5428711763
 40
1.4923791216
100
AcDbArc
 50
63.1566394242
 51
65.3391853042
  0
ARC
  5
481
100
AcDbEntity
  8
0
100
AcDbCircle
 62
7
  6
CONTINUOUS
 10
-7.7440155256
 20
-1.542119617
 40
1.4913951577
100
AcDbArc
 50
65.3523239818
 51
72.5375067401
  0
ARC
  5
482
100
AcDbEntity
  8
0
100
AcDbCircle
 62
7
  6
CONTINUOUS
 10
-7.733916233
 20
-1.5218955207
 40
1.4688433988
100
AcDbArc
 50
59.3238147342
 51
62.6980170075
  0
ARC
  5
483
100
AcDbEntity
  8
0
100
AcDbCircle
 62
7
  6
CONTINUOUS
 10
-7.7243183335
 20
-1.5035193557
 40
1.4481119496
100
AcDbArc
 50
62.7019704895
 51
63.1744023737
  0
ARC
  5
484
100
AcDbEntity
  8
0
100
AcDbCircle
 62
7
  6
CONTINUOUS
 10
-7.7165305876
 20
-1.487923822
 40
1.430680318
100
AcDbArc
 50
63.1708688588
 51
65.4476675007
  0
ARC
  5
485
100
AcDbEntity
  8
DRAFT
100
AcDbCircle
 62
7
  6
CONTINUOUS
 10
-0.0061762607
 20
-15.85
 40
4.9
100
AcDbArc
 50
225.0
 51
315.0
  0
ARC
  5
486
100
AcDbEntity
  8
RACCORDO
100
AcDbCircle
 62
250
  6
CONTINUOUS
 10
-0.0061762607
 20
-15.8515307893
 40
4.8762197773
100
AcDbArc
 50
224.98724147
 51
315.0127644842
  0
ARC
  5
487
100
AcDbEntity
  8
RACCORDO
100
AcDbCircle
 62
250
  6
CONTINUOUS
 10
-2.7047307775
 20
-5.3570628896
 40
8.3941246547
100
AcDbArc
 50
180.0269670895
 51
225.0419460769
  0
ARC
  5
488
100
AcDbEntity
  8
RACCORDO
100
AcDbCircle
 62
250
  6
CONTINUOUS
 10
-2.7
 20
-5.3610173055
 40
8.0076097858
100
AcDbArc
 50
180.0
 51
225.0
  0
ARC
  5
489
100
AcDbEntity
  8
RACCORDO
100
AcDbCircle
 62
250
  6
CONTINUOUS
 10
-2.7
 20
-5.3610173055
 40
7.7577331462
100
AcDbArc
 50
180.0
 51
225.0
  0
ARC
  5
48A
100
AcDbEntity
  8
0
100
AcDbCircle
 62
7
  6
CONTINUOUS
 10
-4.7988217327
 20
-1.3457845736
 40
3.6436016874
100
AcDbArc
 50
93.1571354915
 51
105.8638192381
  0
ARC
  5
48B
100
AcDbEntity
  8
0
100
AcDbCircle
 62
7
  6
CONTINUOUS
 10
-4.8006623361
 20
-1.3319477769
 40
3.6296858495
100
AcDbArc
 50
91.1017531596
 51
92.4865787872
  0
ARC
  5
48C
100
AcDbEntity
  8
0
100
AcDbCircle
 62
7
  6
CONTINUOUS
 10
-4.8011421198
 20
-1.3201036446
 40
3.6178320541
100
AcDbArc
 50
92.4871256404
 51
93.1428425512
  0
ARC
  5
48D
100
AcDbEntity
  8
0
100
AcDbCircle
 62
250
  6
CONTINUOUS
 10
-3.2406412304
 20
-12.2044219939
 40
2.1827866914
100
AcDbArc
 50
54.8760010309
 51
60.0471741507
  0
ARC
  5
48E
100
AcDbEntity
  8
0
100
AcDbCircle
 62
250
  6
CONTINUOUS
 10
-3.226827276
 20
-12.1581597834
 40
2.1509937303
100
AcDbArc
 50
54.3969382515
 51
60.2525142135
  0
ARC
  5
48F
100
AcDbEntity
  8
0
100
AcDbCircle
 62
250
  6
CONTINUOUS
 10
-1.5991572623
 20
-2.3748619844
 40
2.1367158681
100
AcDbArc
 50
123.4970066969
 51
124.6471706335
  0
ARC
  5
490
100
AcDbEntity
  8
0
100
AcDbCircle
 62
250
  6
CONTINUOUS
 10
-1.6109840115
 20
-2.330330126
 40
2.1073126482
100
AcDbArc
 50
123.4716694335
 51
125.1468719183
  0
ARC
  5
491
100
AcDbEntity
  8
0
100
AcDbCircle
 62
7
  6
CONTINUOUS
 10
-2.9702654829
 20
-8.2197831154
 40
1.5375983392
100
AcDbArc
 50
304.3562280478
 51
308.2475369575
  0
ARC
  5
492
100
AcDbEntity
  8
0
100
AcDbCircle
 62
7
  6
CONTINUOUS
 10
-2.9621736304
 20
-11.3685689916
 40
1.523415957
100
AcDbArc
 50
55.6477908303
 51
56.6934252442
  0
ARC
  5
493
100
AcDbEntity
  8
0
100
AcDbCircle
 62
7
  6
CONTINUOUS
 10
-1.8440537469
 20
-1.5565618704
 40
1.5107828989
100
AcDbArc
 50
125.6214534641
 51
126.0479937161
  0
ARC
  5
494
100
AcDbEntity
  8
0
100
AcDbCircle
 62
7
  6
CONTINUOUS
 10
-2.953332089
 20
-11.358557519
 40
1.5102763846
100
AcDbArc
 50
55.6673825133
 51
56.7652295823
  0
ARC
  5
495
100
AcDbEntity
  8
0
100
AcDbCircle
 62
7
  6
CONTINUOUS
 10
-2.9532297451
 20
-11.3584103777
 40
1.5100971571
100
AcDbArc
 50
53.0358901498
 51
55.6674404156
  0
ARC
  5
496
100
AcDbEntity
  8
0
100
AcDbCircle
 62
7
  6
CONTINUOUS
 10
-1.8447039154
 20
-1.5556736921
 40
1.5096821852
100
AcDbArc
 50
126.0478792038
 51
127.4071878982
  0
ARC
  5
497
100
AcDbEntity
  8
0
100
AcDbCircle
 62
7
  6
CONTINUOUS
 10
-2.9525515964
 20
-11.3573533986
 40
1.5088414547
100
AcDbArc
 50
56.7649594208
 51
59.4021380112
  0
ARC
  5
498
100
AcDbEntity
  8
0
100
AcDbCircle
 62
7
  6
CONTINUOUS
 10
-2.9529740667
 20
-11.3544108836
 40
1.506531748
100
AcDbArc
 50
56.6901545759
 51
59.3313412502
  0
ARC
  5
499
100
AcDbEntity
  8
0
100
AcDbCircle
 62
7
  6
CONTINUOUS
 10
-1.8466024487
 20
-1.5510924712
 40
1.5049995768
100
AcDbArc
 50
128.7919223283
 51
129.1626737198
  0
ARC
  5
49A
100
AcDbEntity
  8
0
100
AcDbCircle
 62
7
  6
CONTINUOUS
 10
-2.9502192111
 20
-11.3534116621
 40
1.5042613558
100
AcDbArc
 50
59.4021854624
 51
61.7307739646
  0
ARC
  5
49B
100
AcDbEntity
  8
0
100
AcDbCircle
 62
7
  6
CONTINUOUS
 10
-1.8536565298
 20
-1.5422421159
 40
1.493682039
100
AcDbArc
 50
126.0734120044
 51
128.7937082187
  0
ARC
  5
49C
100
AcDbEntity
  8
0
100
AcDbCircle
 62
7
  6
CONTINUOUS
 10
-2.9450607193
 20
-8.257393032
 40
1.4923257561
100
AcDbArc
 50
295.7185468956
 51
304.3722375925
  0
ARC
  5
49D
100
AcDbEntity
  8
0
100
AcDbCircle
 62
7
  6
CONTINUOUS
 10
-2.9386318717
 20
-11.3302461698
 40
1.4784313594
100
AcDbArc
 50
59.3317449362
 51
61.7030390323
  0
ARC
  5
49E
100
AcDbEntity
  8
0
100
AcDbCircle
 62
7
  6
CONTINUOUS
 10
-1.8653683293
 20
-1.5264391405
 40
1.4740129265
100
AcDbArc
 50
125.6130596683
 51
126.0671504374
  0
ARC
  5
49F
100
AcDbEntity
  8
0
100
AcDbCircle
 62
7
  6
CONTINUOUS
 10
-7.7702654829
 20
1.5802168846
 40
1.5375983392
100
AcDbArc
 50
304.3562280478
 51
308.2475369575
  0
ARC
  5
4A0
100
AcDbEntity
  8
RACCORDO
100
AcDbCircle
 62
7
  6
CONTINUOUS
 10
-12.0190244575
 20
19.0506029943
 40
0.2506034477
100
AcDbArc
 50
267.3775320213
 51
267.9996540034
  0
ARC
  5
4A1
100
AcDbEntity
  8
RACCORDO
100
AcDbCircle
 62
250
  6
CONTINUOUS
 10
-12.023321348
 20
22.0168454519
 40
0.2500538636
100
AcDbArc
 50
90.0209312484
 51
179.9790687516
  0
ARC
  5
4A2
100
AcDbEntity
  8
RACCORDO
100
AcDbCircle
 62
250
  6
CONTINUOUS
 10
-10.685809853
 20
23.7500212011
 40
0.2499809641
100
AcDbArc
 50
359.9951407303
 51
89.9951312235
  0
ARC
  5
4A3
100
AcDbEntity
  8
RACCORDO
100
AcDbCircle
 62
250
  6
CONTINUOUS
 10
-12.1141901343
 20
23.7500211885
 40
0.2499809641
100
AcDbArc
 50
90.0048716801
 51
180.0048563655
  0
ARC
  5
4A4
100
AcDbEntity
  8
RACCORDO
100
AcDbCircle
 62
7
  6
CONTINUOUS
 10
-12.0190526197
 20
19.0497607005
 40
0.2497606841
100
AcDbArc
 50
267.9993659438
 51
268.999735544
  0
ARC
  5
4A5
100
AcDbEntity
  8
RACCORDO
100
AcDbCircle
 62
250
  6
CONTINUOUS
 10
-2.704730828
 20
5.3570623659
 40
8.3941246544
100
AcDbArc
 50
134.9580535629
 51
179.9730317188
  0
ARC
  5
4A6
100
AcDbEntity
  8
RACCORDO
100
AcDbCircle
 62
250
  6
CONTINUOUS
 10
-2.7
 20
5.3610173055
 40
8.0076097858
100
AcDbArc
 50
135.0
 51
180.0
  0
ARC
  5
4A7
100
AcDbEntity
  8
RACCORDO
100
AcDbCircle
 62
250
  6
CONTINUOUS
 10
-2.7
 20
5.3610173055
 40
7.7577331462
100
AcDbArc
 50
135.0
 51
180.0
  0
ARC
  5
4A8
100
AcDbEntity
  8
0
100
AcDbCircle
 62
250
  6
CONTINUOUS
 10
-0.7783582538
 20
3.7486315644
 40
3.735012586
100
AcDbArc
 50
236.9756021287
 51
237.6209518402
  0
ARC
  5
4A9
100
AcDbEntity
  8
0
100
AcDbCircle
 62
7
  6
CONTINUOUS
 10
-4.7973181022
 20
1.3546863983
 40
3.652574202
100
AcDbArc
 50
254.1513989467
 51
266.8270040489
  0
ARC
  5
4AA
100
AcDbEntity
  8
0
100
AcDbCircle
 62
7
  6
CONTINUOUS
 10
-4.8006770953
 20
1.3323572379
 40
3.6300951783
100
AcDbArc
 50
267.5135673624
 51
268.8985771936
  0
ARC
  5
4AB
100
AcDbEntity
  8
0
100
AcDbCircle
 62
7
  6
CONTINUOUS
 10
-4.8011756925
 20
1.3200526641
 40
3.6177805587
100
AcDbArc
 50
266.8576439047
 51
267.5130023008
  0
ARC
  5
4AC
100
AcDbEntity
  8
0
100
AcDbCircle
 62
250
  6
CONTINUOUS
 10
-0.8649888313
 20
3.5618569889
 40
3.5451385168
100
AcDbArc
 50
236.4529298006
 51
237.4295758113
  0
CIRCLE
  5
4AD
100
AcDbEntity
  8
RACCORDO
100
AcDbCircle
 62
250
  6
CONTINUOUS
 10
-5.0
 20
0.0
 40
2.6999999983
  0
CIRCLE
  5
4AE
100
AcDbEntity
  8
RACCORDO
100
AcDbCircle
 62
7
  6
CONTINUOUS
 10
-5.0
 20
0.0
 40
2.3
  0
ARC
  5
4AF
100
AcDbEntity
  8
0
100
AcDbCircle
 62
250
  6
CONTINUOUS
 10
-3.2532677119
 20
7.3765540975
 40
2.2056112198
100
AcDbArc
 50
54.8920564279
 51
64.2677819505
  0
ARC
  5
4B0
100
AcDbEntity
  8
0
100
AcDbCircle
 62
250
  6
CONTINUOUS
 10
-3.2381618666
 20
7.4249782484
 40
2.1713023861
100
AcDbArc
 50
54.4127883164
 51
64.3002263908
  0
ARC
  5
4B1
100
AcDbEntity
  8
0
100
AcDbCircle
 62
7
  6
CONTINUOUS
 10
-2.9702654829
 20
11.3802168846
 40
1.5375983392
100
AcDbArc
 50
304.3562280478
 51
308.2475369575
  0
ARC
  5
4B2
100
AcDbEntity
  8
0
100
AcDbCircle
 62
7
  6
CONTINUOUS
 10
-2.9621736304
 20
8.2314310084
 40
1.5234159571
100
AcDbArc
 50
55.6477908303
 51
56.6934252441
  0
ARC
  5
4B3
100
AcDbEntity
  8
0
100
AcDbCircle
 62
7
  6
CONTINUOUS
 10
-2.9611572911
 20
11.3681320522
 40
1.522469111
100
AcDbArc
 50
298.3674974509
 51
308.2599606391
  0
ARC
  5
4B4
100
AcDbEntity
  8
0
100
AcDbCircle
 62
7
  6
CONTINUOUS
 10
-2.953332089
 20
8.241442481
 40
1.5102763846
100
AcDbArc
 50
55.6673825133
 51
56.7652295823
  0
ARC
  5
4B5
100
AcDbEntity
  8
0
100
AcDbCircle
 62
7
  6
CONTINUOUS
 10
-2.9532297451
 20
8.2415896223
 40
1.5100971571
100
AcDbArc
 50
53.0358901498
 51
55.6674404156
  0
ARC
  5
4B6
100
AcDbEntity
  8
0
100
AcDbCircle
 62
7
  6
CONTINUOUS
 10
-2.9525515964
 20
8.2426466014
 40
1.5088414547
100
AcDbArc
 50
56.7649594208
 51
59.4021380112
  0
ARC
  5
4B7
100
AcDbEntity
  8
0
100
AcDbCircle
 62
7
  6
CONTINUOUS
 10
-2.9529740667
 20
8.2455891164
 40
1.506531748
100
AcDbArc
 50
56.6901545759
 51
59.3313412502
  0
ARC
  5
4B8
100
AcDbEntity
  8
0
100
AcDbCircle
 62
7
  6
CONTINUOUS
 10
-2.9516637511
 20
11.3527802838
 40
1.5044505636
100
AcDbArc
 50
298.327146179
 51
304.361061328
  0
ARC
  5
4B9
100
AcDbEntity
  8
0
100
AcDbCircle
 62
7
  6
CONTINUOUS
 10
-2.949637189
 20
8.2476056982
 40
1.503089397
100
AcDbArc
 50
59.401542669
 51
62.6987608614
  0
ARC
  5
4BA
100
AcDbEntity
  8
0
100
AcDbCircle
 62
7
  6
CONTINUOUS
 10
-2.9469136929
 20
8.2527742298
 40
1.4972474203
100
AcDbArc
 50
62.7006541223
 51
63.1575616382
  0
ARC
  5
4BB
100
AcDbEntity
  8
0
100
AcDbCircle
 62
7
  6
CONTINUOUS
 10
-2.9456196111
 20
8.2553439723
 40
1.4943702356
100
AcDbArc
 50
63.1573434295
 51
64.2949987484
  0
ARC
  5
4BC
100
AcDbEntity
  8
0
100
AcDbCircle
 62
7
  6
CONTINUOUS
 10
-1.8543167149
 20
1.5413876212
 40
1.4926023167
100
AcDbArc
 50
231.3075636685
 51
234.0521202958
  0
ARC
  5
4BD
100
AcDbEntity
  8
0
100
AcDbCircle
 62
7
  6
CONTINUOUS
 10
-1.8563500385
 20
1.5387493559
 40
1.4892728479
100
AcDbArc
 50
230.9872058216
 51
234.0558632165
  0
ARC
  5
4BE
100
AcDbEntity
  8
0
100
AcDbCircle
 62
7
  6
CONTINUOUS
 10
-1.8658120898
 20
1.5258225715
 40
1.4732532702
100
AcDbArc
 50
234.0586791379
 51
234.3870092266
  0
ARC
  5
4BF
100
AcDbEntity
  8
0
100
AcDbCircle
 62
7
  6
CONTINUOUS
 10
-2.933916233
 20
8.2781044793
 40
1.4688433988
100
AcDbArc
 50
59.3238147342
 51
62.6980170075
  0
ARC
  5
4C0
100
AcDbEntity
  8
0
100
AcDbCircle
 62
7
  6
CONTINUOUS
 10
-2.9243183332
 20
8.2964806448
 40
1.4481119489
100
AcDbArc
 50
62.7019704894
 51
63.1744023739
  0
ARC
  5
4C1
100
AcDbEntity
  8
0
100
AcDbCircle
 62
7
  6
CONTINUOUS
 10
-2.919552416
 20
8.3059531055
 40
1.4375081287
100
AcDbArc
 50
63.1735387731
 51
64.3575393428
  0
ARC
  5
4C2
100
AcDbEntity
  8
DRAFT
100
AcDbCircle
 62
7
  6
CONTINUOUS
 10
-0.0061762607
 20
15.85
 40
4.9
100
AcDbArc
 50
45.0
 51
135.0
  0
ARC
  5
4C3
100
AcDbEntity
  8
RACCORDO
100
AcDbCircle
 62
250
  6
CONTINUOUS
 10
-0.0061762607
 20
15.8515307893
 40
4.8762197773
100
AcDbArc
 50
44.98724147
 51
135.0127644842
  0
ARC
  5
4C4
100
AcDbEntity
  8
RACCORDO
100
AcDbCircle
 62
250
  6
CONTINUOUS
 10
2.7047307472
 20
-5.3570628772
 40
8.3941246544
100
AcDbArc
 50
314.9580564193
 51
359.9730352092
  0
ARC
  5
4C5
100
AcDbEntity
  8
RACCORDO
100
AcDbCircle
 62
250
  6
CONTINUOUS
 10
2.7
 20
-5.3610173055
 40
8.0076097858
100
AcDbArc
 50
315.0
 51
360.0
  0
ARC
  5
4C6
100
AcDbEntity
  8
RACCORDO
100
AcDbCircle
 62
250
  6
CONTINUOUS
 10
2.7
 20
-5.3610173055
 40
7.7577331462
100
AcDbArc
 50
315.0
 51
360.0
  0
ARC
  5
4C7
100
AcDbEntity
  8
RACCORDO
100
AcDbCircle
 62
250
  6
CONTINUOUS
 10
-0.0
 20
-15.8764700791
 40
2.8609109642
100
AcDbArc
 50
225.0728348584
 51
314.9271747286
  0
CIRCLE
  5
4C8
100
AcDbEntity
  8
RACCORDO
100
AcDbCircle
 62
250
  6
CONTINUOUS
 10
0.0
 20
-9.5
 40
2.6999999983
  0
ARC
  5
4C9
100
AcDbEntity
  8
RACCORDO
100
AcDbCircle
 62
250
  6
CONTINUOUS
 10
0.0
 20
-15.8816183054
 40
2.4776097858
100
AcDbArc
 50
225.0
 51
315.0
  0
CIRCLE
  5
4CA
100
AcDbEntity
  8
RACCORDO
100
AcDbCircle
 62
7
  6
CONTINUOUS
 10
0.0
 20
-9.5
 40
2.3
  0
ARC
  5
4CB
100
AcDbEntity
  8
RACCORDO
100
AcDbCircle
 62
250
  6
CONTINUOUS
 10
0.0
 20
-15.8816183054
 40
2.2277331454
100
AcDbArc
 50
225.0
 51
315.0
  0
ARC
  5
4CC
100
AcDbEntity
  8
0
100
AcDbCircle
 62
250
  6
CONTINUOUS
 10
3.2257877445
 20
-12.2127259825
 40
2.1820473875
100
AcDbArc
 50
119.53150057
 51
124.6207811968
  0
ARC
  5
4CD
100
AcDbEntity
  8
0
100
AcDbCircle
 62
250
  6
CONTINUOUS
 10
3.213586274
 20
-12.1672620514
 40
2.1516559115
100
AcDbArc
 50
119.3563272726
 51
125.1157122245
  0
ARC
  5
4CE
100
AcDbEntity
  8
0
100
AcDbCircle
 62
7
  6
CONTINUOUS
 10
2.9567127197
 20
-8.2407561802
 40
1.513539064
100
AcDbArc
 50
234.3605075449
 51
244.1860527338
  0
ARC
  5
4CF
100
AcDbEntity
  8
0
100
AcDbCircle
 62
7
  6
CONTINUOUS
 10
2.9564725742
 20
-11.3573665672
 40
1.511743237
100
AcDbArc
 50
118.3662541959
 51
126.0461748507
  0
ARC
  5
4D0
100
AcDbEntity
  8
0
100
AcDbCircle
 62
7
  6
CONTINUOUS
 10
2.9552960846
 20
-11.3556736922
 40
1.5096821852
100
AcDbArc
 50
126.0478792038
 51
127.4071878982
  0
ARC
  5
4D1
100
AcDbEntity
  8
0
100
AcDbCircle
 62
7
  6
CONTINUOUS
 10
2.9529150478
 20
-8.2471752436
 40
1.5061069098
100
AcDbArc
 50
234.0848243684
 51
244.2019441089
  0
ARC
  5
4D2
100
AcDbEntity
  8
0
100
AcDbCircle
 62
7
  6
CONTINUOUS
 10
2.9533975512
 20
-11.351092471
 40
1.5049995766
100
AcDbArc
 50
128.7919223283
 51
129.1626737199
  0
ARC
  5
4D3
100
AcDbEntity
  8
0
100
AcDbCircle
 62
7
  6
CONTINUOUS
 10
2.9506890956
 20
-11.3495989186
 40
1.502190969
100
AcDbArc
 50
118.305989684
 51
125.6671270002
  0
ARC
  5
4D4
100
AcDbEntity
  8
0
100
AcDbCircle
 62
7
  6
CONTINUOUS
 10
2.9463434702
 20
-11.3422421159
 40
1.493682039
100
AcDbArc
 50
126.0734120044
 51
128.7937082187
  0
ARC
  5
4D5
100
AcDbEntity
  8
0
100
AcDbCircle
 62
7
  6
CONTINUOUS
 10
2.9456832851
 20
-8.2586123788
 40
1.4926023167
100
AcDbArc
 50
231.3075636685
 51
234.0521202958
  0
ARC
  5
4D6
100
AcDbEntity
  8
0
100
AcDbCircle
 62
7
  6
CONTINUOUS
 10
2.9436499615
 20
-8.2612506441
 40
1.4892728479
100
AcDbArc
 50
230.9872058216
 51
234.0558632165
  0
ARC
  5
4D7
100
AcDbEntity
  8
0
100
AcDbCircle
 62
7
  6
CONTINUOUS
 10
2.934886829
 20
-11.3267912668
 40
1.47444778
100
AcDbArc
 50
125.6850226864
 51
126.067109369
  0
ARC
  5
4D8
100
AcDbEntity
  8
0
100
AcDbCircle
 62
7
  6
CONTINUOUS
 10
2.9344437734
 20
-8.2738232382
 40
1.4736902097
100
AcDbArc
 50
234.0587080142
 51
234.3150320257
  0
ARC
  5
4D9
100
AcDbEntity
  8
RACCORDO
100
AcDbCircle
 62
7
  6
CONTINUOUS
 10
12.0190244575
 20
-19.0506029942
 40
0.2506034476
100
AcDbArc
 50
87.3775320214
 51
87.9996540037
  0
ARC
  5
4DA
100
AcDbEntity
  8
RACCORDO
100
AcDbCircle
 62
250
  6
CONTINUOUS
 10
12.0233213283
 20
-22.0168454322
 40
0.2500538636
100
AcDbArc
 50
270.0209357636
 51
359.9790642364
  0
ARC
  5
4DB
100
AcDbEntity
  8
RACCORDO
100
AcDbCircle
 62
250
  6
CONTINUOUS
 10
10.6858098338
 20
-23.7500212204
 40
0.2499809641
100
AcDbArc
 50
179.9951363098
 51
269.9951356448
  0
ARC
  5
4DC
100
AcDbEntity
  8
RACCORDO
100
AcDbCircle
 62
250
  6
CONTINUOUS
 10
12.1141901662
 20
-23.7500212204
 40
0.2499809641
100
AcDbArc
 50
270.0048643552
 51
0.0048636902
  0
ARC
  5
4DD
100
AcDbEntity
  8
RACCORDO
100
AcDbCircle
 62
7
  6
CONTINUOUS
 10
12.0190526197
 20
-19.0497607003
 40
0.249760684
100
AcDbArc
 50
87.9993659435
 51
88.9997355442
  0
ARC
  5
4DE
100
AcDbEntity
  8
RACCORDO
100
AcDbCircle
 62
250
  6
CONTINUOUS
 10
2.7047308436
 20
5.3570622689
 40
8.3941246547
100
AcDbArc
 50
0.0269713264
 51
45.0419493902
  0
ARC
  5
4DF
100
AcDbEntity
  8
RACCORDO
100
AcDbCircle
 62
250
  6
CONTINUOUS
 10
2.7
 20
5.3610173055
 40
8.0076097858
100
AcDbArc
 50
0.0
 51
45.0
  0
ARC
  5
4E0
100
AcDbEntity
  8
RACCORDO
100
AcDbCircle
 62
250
  6
CONTINUOUS
 10
2.7
 20
5.3610173055
 40
7.7577331462
100
AcDbArc
 50
0.0
 51
45.0
  0
ARC
  5
4E1
100
AcDbEntity
  8
RACCORDO
100
AcDbCircle
 62
250
  6
CONTINUOUS
 10
0.0
 20
15.8764697498
 40
2.8609109642
100
AcDbArc
 50
45.072839515
 51
134.9271700719
  0
CIRCLE
  5
4E2
100
AcDbEntity
  8
RACCORDO
100
AcDbCircle
 62
250
  6
CONTINUOUS
 10
-0.0
 20
9.5
 40
2.6999999983
  0
ARC
  5
4E3
100
AcDbEntity
  8
RACCORDO
100
AcDbCircle
 62
250
  6
CONTINUOUS
 10
-0.0
 20
15.8816183054
 40
2.4776097858
100
AcDbArc
 50
45.0
 51
135.0
  0
CIRCLE
  5
4E4
100
AcDbEntity
  8
RACCORDO
100
AcDbCircle
 62
7
  6
CONTINUOUS
 10
-0.0
 20
9.5
 40
2.3
  0
ARC
  5
4E5
100
AcDbEntity
  8
RACCORDO
100
AcDbCircle
 62
250
  6
CONTINUOUS
 10
-0.0
 20
15.8816183054
 40
2.2277331454
100
AcDbArc
 50
45.0
 51
135.0
  0
ARC
  5
4E6
100
AcDbEntity
  8
0
100
AcDbCircle
 62
250
  6
CONTINUOUS
 10
3.2411686177
 20
7.3622710717
 40
2.2113621364
100
AcDbArc
 50
115.3158049864
 51
124.5806770189
  0
ARC
  5
4E7
100
AcDbEntity
  8
0
100
AcDbCircle
 62
250
  6
CONTINUOUS
 10
3.2272091088
 20
7.4107937357
 40
2.1774428626
100
AcDbArc
 50
115.2995606781
 51
125.0767792576
  0
ARC
  5
4E8
100
AcDbEntity
  8
0
100
AcDbCircle
 62
7
  6
CONTINUOUS
 10
2.955871246
 20
11.3578964237
 40
1.5119537268
100
AcDbArc
 50
234.3566710332
 51
241.6702148836
  0
ARC
  5
4E9
100
AcDbEntity
  8
0
100
AcDbCircle
 62
7
  6
CONTINUOUS
 10
2.9558942815
 20
8.2434103577
 40
1.5107747709
100
AcDbArc
 50
115.8360282882
 51
126.0457803118
  0
ARC
  5
4EA
100
AcDbEntity
  8
0
100
AcDbCircle
 62
7
  6
CONTINUOUS
 10
2.9552960846
 20
8.2443263079
 40
1.5096821852
100
AcDbArc
 50
126.0478792038
 51
127.4071878982
  0
ARC
  5
4EB
100
AcDbEntity
  8
0
100
AcDbCircle
 62
7
  6
CONTINUOUS
 10
2.9535973898
 20
8.2459974236
 40
1.5074643488
100
AcDbArc
 50
115.7941101282
 51
125.6593386784
  0
ARC
  5
4EC
100
AcDbEntity
  8
0
100
AcDbCircle
 62
7
  6
CONTINUOUS
 10
2.9533975515
 20
8.2489075286
 40
1.5049995771
100
AcDbArc
 50
128.7919223284
 51
129.1626737198
  0
ARC
  5
4ED
100
AcDbEntity
  8
0
100
AcDbCircle
 62
7
  6
CONTINUOUS
 10
2.9497756993
 20
11.3481114203
 40
1.5004481593
100
AcDbArc
 50
234.0763369752
 51
241.6934605155
  0
ARC
  5
4EE
100
AcDbEntity
  8
0
100
AcDbCircle
 62
7
  6
CONTINUOUS
 10
2.9463434702
 20
8.2577578841
 40
1.4936820389
100
AcDbArc
 50
126.0734120044
 51
128.7937082187
  0
ARC
  5
4EF
100
AcDbEntity
  8
0
100
AcDbCircle
 62
7
  6
CONTINUOUS
 10
2.9456832851
 20
11.3413876212
 40
1.4926023167
100
AcDbArc
 50
231.3075636685
 51
234.0521202958
  0
ARC
  5
4F0
100
AcDbEntity
  8
0
100
AcDbCircle
 62
7
  6
CONTINUOUS
 10
2.9436499615
 20
11.3387493559
 40
1.4892728479
100
AcDbArc
 50
230.9872058216
 51
234.0558632165
  0
ARC
  5
4F1
100
AcDbEntity
  8
0
100
AcDbCircle
 62
7
  6
CONTINUOUS
 10
2.9348868293
 20
8.2732087327
 40
1.4744477805
100
AcDbArc
 50
125.6850226865
 51
126.0671093689
  0
ARC
  5
4F2
100
AcDbEntity
  8
0
100
AcDbCircle
 62
7
  6
CONTINUOUS
 10
2.9344437732
 20
11.3261767615
 40
1.4736902093
100
AcDbArc
 50
234.0587080142
 51
234.3150320257
  0
ARC
  5
4F3
100
AcDbEntity
  8
RACCORDO
100
AcDbCircle
 62
7
  6
CONTINUOUS
 10
12.019024456
 20
19.050603029
 40
0.2506034824
100
AcDbArc
 50
272.0004248756
 51
272.6224679495
  0
ARC
  5
4F4
100
AcDbEntity
  8
RACCORDO
100
AcDbCircle
 62
250
  6
CONTINUOUS
 10
12.0233213282
 20
22.0168454322
 40
0.2500538636
100
AcDbArc
 50
0.0209357718
 51
89.9790642282
  0
ARC
  5
4F5
100
AcDbEntity
  8
RACCORDO
100
AcDbCircle
 62
250
  6
CONTINUOUS
 10
10.6858098657
 20
23.7500211885
 40
0.2499809641
100
AcDbArc
 50
90.0048716804
 51
180.0048563652
  0
ARC
  5
4F6
100
AcDbEntity
  8
RACCORDO
100
AcDbCircle
 62
250
  6
CONTINUOUS
 10
12.114190147
 20
23.7500212011
 40
0.2499809641
100
AcDbArc
 50
359.9951407295
 51
89.9951312221
  0
ARC
  5
4F7
100
AcDbEntity
  8
RACCORDO
100
AcDbCircle
 62
7
  6
CONTINUOUS
 10
12.0190526186
 20
19.0497607462
 40
0.2497607298
100
AcDbArc
 50
271.0002645161
 51
272.0007130212
  0
ARC
  5
4F8
100
AcDbEntity
  8
RACCORDO
100
AcDbCircle
 62
250
  6
CONTINUOUS
 10
-31.6270147905
 20
-9.8
 40
3.6785575219
100
AcDbArc
 50
345.7797734286
 51
14.2202260239
  0
ARC
  5
4F9
100
AcDbEntity
  8
DRAFT
100
AcDbCircle
 62
7
  6
CONTINUOUS
 10
-31.661313423
 20
-9.7999999818
 40
3.3855729208
100
AcDbArc
 50
90.4196294908
 51
269.5803705215
  0
ARC
  5
4FA
100
AcDbEntity
  8
ASSI
100
AcDbCircle
 62
7
  6
CONTINUOUS
 10
-30.6770147905
 20
-9.8
 40
2.7665797861
100
AcDbArc
 50
269.9997595397
 51
90.0002404603
  0
ARC
  5
4FB
100
AcDbEntity
  8
SMUSSO
100
AcDbCircle
 62
7
  6
CONTINUOUS
 10
-31.6270147905
 20
-9.8
 40
2.75
100
AcDbArc
 50
91.0
 51
269.0
  0
ARC
  5
4FC
100
AcDbEntity
  8
RACCORDO
100
AcDbCircle
 62
250
  6
CONTINUOUS
 10
-31.6270147905
 20
-9.8
 40
2.5544222029
100
AcDbArc
 50
103.5849488006
 51
256.4150511994
  0
ARC
  5
4FD
100
AcDbEntity
  8
RACCORDO
100
AcDbCircle
 62
250
  6
CONTINUOUS
 10
-31.6270147905
 20
-9.8
 40
2.5544222029
100
AcDbArc
 50
283.5849488006
 51
76.4150511994
  0
ARC
  5
4FE
100
AcDbEntity
  8
RACCORDO
100
AcDbCircle
 62
250
  6
CONTINUOUS
 10
-31.6270147905
 20
-9.8
 40
2.4258646809
100
AcDbArc
 50
104.3196193395
 51
255.6799223494
  0
ARC
  5
4FF
100
AcDbEntity
  8
RACCORDO
100
AcDbCircle
 62
250
  6
CONTINUOUS
 10
-31.6270147905
 20
-9.8
 40
2.4258646809
100
AcDbArc
 50
284.3198593709
 51
75.6804018942
  0
ARC
  5
500
100
AcDbEntity
  8
0
100
AcDbCircle
 62
7
  6
CONTINUOUS
 10
-31.6270147905
 20
-9.8
 40
1.145
100
AcDbArc
 50
356.3637942714
 51
3.6362057286
  0
ARC
  5
501
100
AcDbEntity
  8
0
100
AcDbCircle
 62
7
  6
CONTINUOUS
 10
-31.6270147905
 20
-9.8
 40
1.145
100
AcDbArc
 50
176.3637942714
 51
183.6362057286
  0
ARC
  5
502
100
AcDbEntity
  8
0
100
AcDbCircle
 62
7
  6
CONTINUOUS
 10
-31.6270147905
 20
-9.8
 40
1.145
100
AcDbArc
 50
86.3637942714
 51
93.6362057286
  0
ARC
  5
503
100
AcDbEntity
  8
0
100
AcDbCircle
 62
7
  6
CONTINUOUS
 10
-31.6270147905
 20
-9.8
 40
1.145
100
AcDbArc
 50
266.3637942714
 51
273.6362057286
  0
ARC
  5
504
100
AcDbEntity
  8
RACCORDO
100
AcDbCircle
 62
250
  6
CONTINUOUS
 10
-39.2182882949
 20
-3.5077926485
 40
1.0000002923
100
AcDbArc
 50
180.0000164887
 51
269.0999835113
  0
ARC
  5
505
100
AcDbEntity
  8
RACCORDO
100
AcDbCircle
 62
7
  6
CONTINUOUS
 10
-73.7678208001
 20
-19.7277886434
 40
1.0
100
AcDbArc
 50
182.666809557
 51
269.4999999999
  0
ARC
  5
506
100
AcDbEntity
  8
RACCORDO
100
AcDbCircle
 62
7
  6
CONTINUOUS
 10
-73.8969967746
 20
-16.725620036
 40
1.0
100
AcDbArc
 50
182.2605184933
 51
260.000197248
  0
ARC
  5
507
100
AcDbEntity
  8
RACCORDO
100
AcDbCircle
 62
7
  6
CONTINUOUS
 10
-55.7270147905
 20
-22.8602071525
 40
1.0
100
AcDbArc
 50
271.0
 51
360.0
  0
ARC
  5
508
100
AcDbEntity
  8
RACCORDO
100
AcDbCircle
 62
250
  6
CONTINUOUS
 10
-28.6200322526
 20
-3.6743105782
 40
0.9000015753
100
AcDbArc
 50
180.0000295701
 51
212.8573549241
  0
ARC
  5
509
100
AcDbEntity
  8
RACCORDO
100
AcDbCircle
 62
250
  6
CONTINUOUS
 10
-73.9013596041
 20
-16.7256197983
 40
0.7500002813
100
AcDbArc
 50
182.2607629474
 51
259.9999826807
  0
ARC
  5
50A
100
AcDbEntity
  8
RACCORDO
100
AcDbCircle
 62
250
  6
CONTINUOUS
 10
-55.7226516889
 20
-22.8602071525
 40
0.7500000001
100
AcDbArc
 50
271.0000000061
 51
359.9999999939
  0
ARC
  5
50B
100
AcDbEntity
  8
RACCORDO
100
AcDbCircle
 62
7
  6
CONTINUOUS
 10
-39.2270147905
 20
-3.5077929363
 40
0.5
100
AcDbArc
 50
179.9994495784
 51
269.1005547355
  0
ARC
  5
50C
100
AcDbEntity
  8
RACCORDO
100
AcDbCircle
 62
7
  6
CONTINUOUS
 10
-28.6270147905
 20
-3.6743110427
 40
0.5
100
AcDbArc
 50
179.9996763155
 51
269.1006552444
  0
ARC
  5
50D
100
AcDbEntity
  8
RACCORDO
100
AcDbCircle
 62
7
  6
CONTINUOUS
 10
-26.6270147905
 20
-15.0094365115
 40
0.5
100
AcDbArc
 50
271.0
 51
360.0
  0
ARC
  5
50E
100
AcDbEntity
  8
RACCORDO
100
AcDbCircle
 62
7
  6
CONTINUOUS
 10
-36.7270147905
 20
-4.5471894573
 40
0.5
100
AcDbArc
 50
0.0
 51
89.1
  0
ARC
  5
50F
100
AcDbEntity
  8
RACCORDO
100
AcDbCircle
 62
7
  6
CONTINUOUS
 10
-36.7270147905
 20
-15.1857326673
 40
0.5
100
AcDbArc
 50
271.0
 51
360.0
  0
ARC
  5
510
100
AcDbEntity
  8
RACCORDO
100
AcDbCircle
 62
7
  6
CONTINUOUS
 10
-26.6270147905
 20
-4.7058529361
 40
0.5
100
AcDbArc
 50
0.0
 51
89.1
  0
ARC
  5
511
100
AcDbEntity
  8
RACCORDO
100
AcDbCircle
 62
7
  6
CONTINUOUS
 10
-25.4270147905
 20
-15.1885208992
 40
0.3
100
AcDbArc
 50
271.0
 51
360.0
  0
ARC
  5
512
100
AcDbEntity
  8
RACCORDO
100
AcDbCircle
 62
7
  6
CONTINUOUS
 10
-25.4270147905
 20
-4.524679366
 40
0.3
100
AcDbArc
 50
0.0
 51
89.1
  0
ARC
  5
513
100
AcDbEntity
  8
RACCORDO
100
AcDbCircle
 62
7
  6
CONTINUOUS
 10
-66.4770147905
 20
-23.75
 40
0.25
100
AcDbArc
 50
180.0
 51
270.0
  0
ARC
  5
514
100
AcDbEntity
  8
RACCORDO
100
AcDbCircle
 62
7
  6
CONTINUOUS
 10
-70.9770147905
 20
-22.0169368012
 40
0.25
100
AcDbArc
 50
180.0
 51
269.0
  0
ARC
  5
515
100
AcDbEntity
  8
RACCORDO
100
AcDbCircle
 62
7
  6
CONTINUOUS
 10
-73.7678208001
 20
19.7277886434
 40
1.0
100
AcDbArc
 50
90.5000000001
 51
177.333190443
  0
ARC
  5
516
100
AcDbEntity
  8
RACCORDO
100
AcDbCircle
 62
7
  6
CONTINUOUS
 10
-73.8969967746
 20
16.725620036
 40
1.0
100
AcDbArc
 50
99.9998027497
 51
177.7394815047
  0
ARC
  5
517
100
AcDbEntity
  8
RACCORDO
100
AcDbCircle
 62
7
  6
CONTINUOUS
 10
-55.7270147905
 20
22.8602071525
 40
1.0
100
AcDbArc
 50
0.0
 51
89.0
  0
ARC
  5
518
100
AcDbEntity
  8
RACCORDO
100
AcDbCircle
 62
250
  6
CONTINUOUS
 10
-73.9013596041
 20
16.7256197983
 40
0.7500002813
100
AcDbArc
 50
100.0000173193
 51
177.7392370526
  0
ARC
  5
519
100
AcDbEntity
  8
RACCORDO
100
AcDbCircle
 62
250
  6
CONTINUOUS
 10
-55.7226516889
 20
22.8602071525
 40
0.7500000001
100
AcDbArc
 50
0.0000000061
 51
88.9999999939
  0
ARC
  5
51A
100
AcDbEntity
  8
RACCORDO
100
AcDbCircle
 62
7
  6
CONTINUOUS
 10
-66.4770147905
 20
23.75
 40
0.25
100
AcDbArc
 50
90.0
 51
180.0
  0
ARC
  5
51B
100
AcDbEntity
  8
RACCORDO
100
AcDbCircle
 62
7
  6
CONTINUOUS
 10
-70.9770147905
 20
22.0169368012
 40
0.25
100
AcDbArc
 50
91.0
 51
180.0
  0
ARC
  5
51C
100
AcDbEntity
  8
RACCORDO
100
AcDbCircle
 62
250
  6
CONTINUOUS
 10
-35.1270147905
 20
0.0
 40
3.6785575219
100
AcDbArc
 50
345.7797734286
 51
14.2202260239
  0
ARC
  5
51D
100
AcDbEntity
  8
RACCORDO
100
AcDbCircle
 62
250
  6
CONTINUOUS
 10
-31.6270147905
 20
9.8
 40
3.6785575219
100
AcDbArc
 50
345.7797734286
 51
14.2202260239
  0
ARC
  5
51E
100
AcDbEntity
  8
DRAFT
100
AcDbCircle
 62
7
  6
CONTINUOUS
 10
-31.6613134229
 20
9.8000000182
 40
3.3855729209
100
AcDbArc
 50
90.4196294925
 51
269.5803705199
  0
ARC
  5
51F
100
AcDbEntity
  8
DRAFT
100
AcDbCircle
 62
7
  6
CONTINUOUS
 10
-35.1601487966
 20
0.0000000366
 40
3.2706067681
100
AcDbArc
 50
90.4196281882
 51
269.580371836
  0
ARC
  5
520
100
AcDbEntity
  8
ASSI
100
AcDbCircle
 62
7
  6
CONTINUOUS
 10
-30.6770147905
 20
9.8
 40
2.7665797861
100
AcDbArc
 50
269.9997595397
 51
90.0002404603
  0
ARC
  5
521
100
AcDbEntity
  8
ASSI
100
AcDbCircle
 62
7
  6
CONTINUOUS
 10
-34.1770147905
 20
0.0
 40
2.7665797861
100
AcDbArc
 50
270.0
 51
90.0
  0
ARC
  5
522
100
AcDbEntity
  8
SMUSSO
100
AcDbCircle
 62
7
  6
CONTINUOUS
 10
-31.6270147905
 20
9.8
 40
2.75
100
AcDbArc
 50
91.0
 51
269.0
  0
ARC
  5
523
100
AcDbEntity
  8
SMUSSO
100
AcDbCircle
 62
7
  6
CONTINUOUS
 10
-35.1270147905
 20
0.0
 40
2.75
100
AcDbArc
 50
91.0
 51
269.0
  0
ARC
  5
524
100
AcDbEntity
  8
RACCORDO
100
AcDbCircle
 62
250
  6
CONTINUOUS
 10
-35.1270147905
 20
0.0
 40
2.5544222029
100
AcDbArc
 50
103.5849488006
 51
256.4150511994
  0
ARC
  5
525
100
AcDbEntity
  8
RACCORDO
100
AcDbCircle
 62
250
  6
CONTINUOUS
 10
-35.1270147905
 20
0.0
 40
2.5544222029
100
AcDbArc
 50
283.5849488006
 51
76.4150511994
  0
ARC
  5
526
100
AcDbEntity
  8
RACCORDO
100
AcDbCircle
 62
250
  6
CONTINUOUS
 10
-31.6270147905
 20
9.8
 40
2.5544222029
100
AcDbArc
 50
103.5849488006
 51
256.4150511994
  0
ARC
  5
527
100
AcDbEntity
  8
RACCORDO
100
AcDbCircle
 62
250
  6
CONTINUOUS
 10
-31.6270147905
 20
9.8
 40
2.5544222029
100
AcDbArc
 50
283.5849488006
 51
76.4150511994
  0
ARC
  5
528
100
AcDbEntity
  8
RACCORDO
100
AcDbCircle
 62
250
  6
CONTINUOUS
 10
-35.1270147905
 20
0.0
 40
2.4258646809
100
AcDbArc
 50
104.3196193395
 51
255.6799223494
  0
ARC
  5
529
100
AcDbEntity
  8
RACCORDO
100
AcDbCircle
 62
250
  6
CONTINUOUS
 10
-35.1270147905
 20
0.0
 40
2.4258646809
100
AcDbArc
 50
284.3198593709
 51
75.6804018942
  0
ARC
  5
52A
100
AcDbEntity
  8
RACCORDO
100
AcDbCircle
 62
250
  6
CONTINUOUS
 10
-31.6270147905
 20
9.8
 40
2.4258646809
100
AcDbArc
 50
104.3196193395
 51
255.6799223494
  0
ARC
  5
52B
100
AcDbEntity
  8
RACCORDO
100
AcDbCircle
 62
250
  6
CONTINUOUS
 10
-31.6270147905
 20
9.8
 40
2.4258646809
100
AcDbArc
 50
284.3198593709
 51
75.6804018942
  0
ARC
  5
52C
100
AcDbEntity
  8
0
100
AcDbCircle
 62
7
  6
CONTINUOUS
 10
-35.1270147905
 20
-0.0
 40
1.145
100
AcDbArc
 50
356.3637942714
 51
3.6362057286
  0
ARC
  5
52D
100
AcDbEntity
  8
0
100
AcDbCircle
 62
7
  6
CONTINUOUS
 10
-35.1270147905
 20
-0.0
 40
1.145
100
AcDbArc
 50
176.3637942714
 51
183.6362057286
  0
ARC
  5
52E
100
AcDbEntity
  8
0
100
AcDbCircle
 62
7
  6
CONTINUOUS
 10
-35.1270147905
 20
-0.0
 40
1.145
100
AcDbArc
 50
86.3637942714
 51
93.6362057286
  0
ARC
  5
52F
100
AcDbEntity
  8
0
100
AcDbCircle
 62
7
  6
CONTINUOUS
 10
-35.1270147905
 20
-0.0
 40
1.145
100
AcDbArc
 50
266.3637942714
 51
273.6362057286
  0
ARC
  5
530
100
AcDbEntity
  8
0
100
AcDbCircle
 62
7
  6
CONTINUOUS
 10
-31.6270147905
 20
9.8
 40
1.145
100
AcDbArc
 50
356.3637942714
 51
3.6362057286
  0
ARC
  5
531
100
AcDbEntity
  8
0
100
AcDbCircle
 62
7
  6
CONTINUOUS
 10
-31.6270147905
 20
9.8
 40
1.145
100
AcDbArc
 50
176.3637942714
 51
183.6362057286
  0
ARC
  5
532
100
AcDbEntity
  8
0
100
AcDbCircle
 62
7
  6
CONTINUOUS
 10
-31.6270147905
 20
9.8
 40
1.145
100
AcDbArc
 50
86.3637942714
 51
93.6362057286
  0
ARC
  5
533
100
AcDbEntity
  8
0
100
AcDbCircle
 62
7
  6
CONTINUOUS
 10
-31.6270147905
 20
9.8
 40
1.145
100
AcDbArc
 50
266.3637942714
 51
273.6362057286
  0
ARC
  5
534
100
AcDbEntity
  8
RACCORDO
100
AcDbCircle
 62
250
  6
CONTINUOUS
 10
-39.2182882949
 20
3.5077926485
 40
1.0000002923
100
AcDbArc
 50
90.9000164887
 51
179.9999835113
  0
ARC
  5
535
100
AcDbEntity
  8
RACCORDO
100
AcDbCircle
 62
250
  6
CONTINUOUS
 10
-28.6200322524
 20
3.6743105782
 40
0.9000015755
100
AcDbArc
 50
147.1426450805
 51
179.9999704254
  0
ARC
  5
536
100
AcDbEntity
  8
RACCORDO
100
AcDbCircle
 62
7
  6
CONTINUOUS
 10
-39.2270147905
 20
3.5077929363
 40
0.5
100
AcDbArc
 50
90.8994453667
 51
180.0005504418
  0
ARC
  5
537
100
AcDbEntity
  8
RACCORDO
100
AcDbCircle
 62
7
  6
CONTINUOUS
 10
-28.6270147905
 20
3.6743110427
 40
0.5
100
AcDbArc
 50
90.8993448543
 51
180.0003236805
  0
ARC
  5
538
100
AcDbEntity
  8
RACCORDO
100
AcDbCircle
 62
7
  6
CONTINUOUS
 10
-36.7270147905
 20
4.5471894573
 40
0.5
100
AcDbArc
 50
270.9
 51
360.0
  0
ARC
  5
539
100
AcDbEntity
  8
RACCORDO
100
AcDbCircle
 62
7
  6
CONTINUOUS
 10
-26.6270147905
 20
4.7058529361
 40
0.5
100
AcDbArc
 50
270.9
 51
360.0
  0
ARC
  5
53A
100
AcDbEntity
  8
RACCORDO
100
AcDbCircle
 62
7
  6
CONTINUOUS
 10
-25.4270147905
 20
4.524679366
 40
0.3
100
AcDbArc
 50
270.9
 51
360.0
  0
ARC
  5
53B
100
AcDbEntity
  8
RACCORDO
100
AcDbCircle
 62
7
  6
CONTINUOUS
 10
-36.7270147905
 20
15.1857326673
 40
0.5
100
AcDbArc
 50
0.0
 51
89.0
  0
ARC
  5
53C
100
AcDbEntity
  8
RACCORDO
100
AcDbCircle
 62
7
  6
CONTINUOUS
 10
-26.6270147905
 20
15.0094365115
 40
0.5
100
AcDbArc
 50
0.0
 51
89.0
  0
ARC
  5
53D
100
AcDbEntity
  8
RACCORDO
100
AcDbCircle
 62
7
  6
CONTINUOUS
 10
-25.4270147905
 20
15.1885208992
 40
0.3
100
AcDbArc
 50
0.0
 51
89.0
  0
ARC
  5
53E
100
AcDbEntity
  8
RACCORDO
100
AcDbCircle
 62
250
  6
CONTINUOUS
 10
349.7643568128
 20
-0.7070750385
 40
424.0000982531
100
AcDbArc
 50
182.302531652
 51
182.5131299218
  0
ARC
  5
53F
100
AcDbEntity
  8
RACCORDO
100
AcDbCircle
 62
7
  6
CONTINUOUS
 10
349.7729852095
 20
-0.0
 40
425.0
100
AcDbArc
 50
177.333190443
 51
182.666809557
  0
ARC
  5
540
100
AcDbEntity
  8
RACCORDO
100
AcDbCircle
 62
250
  6
CONTINUOUS
 10
349.7686430926
 20
-0.0
 40
424.7500209684
100
AcDbArc
 50
177.7392544836
 51
182.2607455164
  0
ARC
  5
541
100
AcDbEntity
  8
RACCORDO
100
AcDbCircle
 62
250
  6
CONTINUOUS
 10
349.7644453568
 20
0.707071405
 40
424.0001868716
100
AcDbArc
 50
177.4868700639
 51
177.6974683381
  0
SPLINE
  5
542
100
AcDbEntity
  8
0
100
AcDbSpline
 62
7
  6
CONTINUOUS
 70
0
 71
3
 72
9
 73
5
 74
0
 42
0.0000001
 43
0.0000001
 44
0.0000000001
 40
0.0
 40
0.0
 40
0.0
 40
0.0
 40
0.5018824982
 40
1.0
 40
1.0
 40
1.0
 40
1.0
 10
0.0000706484
 20
-7.5022580898
 30
0.0
 10
-0.2862119801
 20
-7.5022347056
 30
0.0
 10
-0.8586188065
 20
-7.5702073915
 30
0.0
 10
-1.3992375452
 20
-7.7700781749
 30
0.0
 10
-1.6522277081
 20
-7.8994175767
 30
0.0
  0
SPLINE
  5
543
100
AcDbEntity
  8
0
100
AcDbSpline
 62
7
  6
CONTINUOUS
 70
0
 71
3
 72
9
 73
5
 74
0
 42
0.0000001
 43
0.0000001
 44
0.0000000001
 40
0.0
 40
0.0
 40
0.0
 40
0.0
 40
0.4987573182
 40
1.0
 40
1.0
 40
1.0
 40
1.0
 10
1.6530740759
 20
-7.9002571953
 30
0.0
 10
1.399702034
 20
-7.7705303842
 30
0.0
 10
0.8588358575
 20
-7.5703529874
 30
0.0
 10
0.2861404959
 20
-7.5022814473
 30
0.0
 10
0.0000706159
 20
-7.5022580898
 30
0.0
  0
LINE
  5
544
100
AcDbEntity
  8
0
100
AcDbLine
 62
250
  6
CONTINUOUS
 10
-0.0060337702
 20
-7.5023411926
 11
-0.0102951259
 21
-7.2001446018
  0
SPLINE
  5
545
100
AcDbEntity
  8
0
100
AcDbSpline
 62
7
  6
CONTINUOUS
 70
0
 71
3
 72
9
 73
5
 74
0
 42
0.0000001
 43
0.0000001
 44
0.0000000001
 40
0.0
 40
0.0
 40
0.0
 40
0.0
 40
0.5012483038
 40
1.0
 40
1.0
 40
1.0
 40
1.0
 10
0.0000706159
 20
7.5022580898
 30
0.0
 10
0.2861443059
 20
7.5022814467
 30
0.0
 10
0.8588414946
 20
7.5703514308
 30
0.0
 10
1.3997072088
 20
7.7705336376
 30
0.0
 10
1.6530766896
 20
7.9002597237
 30
0.0
  0
SPLINE
  5
546
100
AcDbEntity
  8
0
100
AcDbSpline
 62
7
  6
CONTINUOUS
 70
0
 71
3
 72
9
 73
5
 74
0
 42
0.0000001
 43
0.0000001
 44
0.0000000001
 40
0.0
 40
0.0
 40
0.0
 40
0.0
 40
0.498123506
 40
1.0
 40
1.0
 40
1.0
 40
1.0
 10
-1.6522251836
 20
7.8994151311
 30
0.0
 10
-1.3992322541
 20
7.7700748887
 30
0.0
 10
-0.8586130078
 20
7.5702088961
 30
0.0
 10
-0.2862079719
 20
7.502234705
 30
0.0
 10
0.0000706484
 20
7.5022580898
 30
0.0
  0
LINE
  5
547
100
AcDbEntity
  8
0
100
AcDbLine
 62
250
  6
CONTINUOUS
 10
-0.0102951259
 20
7.2001446018
 11
-0.0060337702
 21
7.5023411922
  0
SPLINE
  5
548
100
AcDbEntity
  8
RACCORDO
100
AcDbSpline
 62
250
  6
CONTINUOUS
 70
0
 71
3
 72
15
 73
11
 74
0
 42
0.0000001
 43
0.0000001
 44
0.0000000001
 40
0.0
 40
0.0
 40
0.0
 40
0.0
 40
0.1249957404
 40
0.2499906564
 40
0.3749859037
 40
0.4999826759
 40
0.624981949
 40
0.7499844109
 40
0.8749904677
 40
1.0
 40
1.0
 40
1.0
 40
1.0
 10
-9.201348443
 20
-11.8847370182
 30
0.0
 10
-9.4143229873
 20
-11.6716253838
 30
0.0
 10
-9.8196089221
 20
-11.2241630822
 30
0.0
 10
-10.3585967435
 20
-10.4968669275
 30
0.0
 10
-10.8237891673
 20
-9.7201905823
 30
0.0
 10
-11.2106634751
 20
-8.9016943287
 30
0.0
 10
-11.5155500389
 20
-8.0492378644
 30
0.0
 10
-11.7355343591
 20
-7.1709876997
 30
0.0
 10
-11.8685180171
 20
-6.2754899145
 30
0.0
 10
-11.8983241671
 20
-5.6724493256
 30
0.0
 10
-11.8984438826
 20
-5.3711276635
 30
0.0
  0
SPLINE
  5
549
100
AcDbEntity
  8
RACCORDO
100
AcDbSpline
 62
250
  6
CONTINUOUS
 70
0
 71
3
 72
9
 73
5
 74
0
 42
0.0000001
 43
0.0000001
 44
0.0000000001
 40
0.0
 40
0.0
 40
0.0
 40
0.0
 40
0.2499513428
 40
1.0
 40
1.0
 40
1.0
 40
1.0
 10
-11.9593631106
 20
-16.7650632919
 30
0.0
 10
-11.9574391776
 20
-13.9714304421
 30
0.0
 10
-11.9516692571
 20
-2.794722491
 30
0.0
 10
-11.9535898136
 20
8.3819894342
 30
0.0
 10
-11.9593631106
 20
16.7650632919
 30
0.0
  0
SPLINE
  5
54A
100
AcDbEntity
  8
RACCORDO
100
AcDbSpline
 62
250
  6
CONTINUOUS
 70
0
 71
3
 72
9
 73
5
 74
0
 42
0.0000001
 43
0.0000001
 44
0.0000000001
 40
0.0
 40
0.0
 40
0.0
 40
0.0
 40
0.2499729079
 40
1.0
 40
1.0
 40
1.0
 40
1.0
 10
-2.5857972891
 20
-18.5022433468
 30
0.0
 10
-3.1371289068
 20
-17.9509396634
 30
0.0
 10
-5.3425989423
 20
-15.7453904761
 30
0.0
 10
-7.5476872266
 20
-13.5394595514
 30
0.0
 10
-9.201348443
 20
-11.8847370182
 30
0.0
  0
LINE
  5
54B
100
AcDbEntity
  8
RACCORDO
100
AcDbLine
 62
250
  6
CONTINUOUS
 10
-2.7478697847
 20
18.6355418578
 11
-4.6129832711
 21
16.765067253
  0
SPLINE
  5
54C
100
AcDbEntity
  8
RACCORDO
100
AcDbSpline
 62
250
  6
CONTINUOUS
 70
0
 71
3
 72
15
 73
11
 74
0
 42
0.0000001
 43
0.0000001
 44
0.0000000001
 40
0.0
 40
0.0
 40
0.0
 40
0.0
 40
0.34925607
 40
0.5095154129
 40
0.6539585358
 40
0.7784444469
 40
0.8794075602
 40
0.9539623487
 40
0.9806445524
 40
1.0
 40
1.0
 40
1.0
 40
1.0
 10
12.2093250368
 20
-16.7552054488
 30
0.0
 10
12.209381942
 20
-16.8377676653
 30
0.0
 10
12.2097993581
 20
-16.9582146406
 30
0.0
 10
12.2111221618
 20
-17.1128015544
 30
0.0
 10
12.2123957904
 20
-17.21425154
 30
0.0
 10
12.2139265117
 20
-17.3016795637
 30
0.0
 10
12.2156784613
 20
-17.3725768797
 30
0.0
 10
12.2173474579
 20
-17.4203504272
 30
0.0
 10
12.2188852148
 20
-17.4488163248
 30
0.0
 10
12.2196821461
 20
-17.4596725817
 30
0.0
 10
12.2201328658
 20
-17.4642258507
 30
0.0
  0
SPLINE
  5
54D
100
AcDbEntity
  8
RACCORDO
100
AcDbSpline
 62
250
  6
CONTINUOUS
 70
0
 71
3
 72
9
 73
5
 74
0
 42
0.0000001
 43
0.0000001
 44
0.0000000001
 40
0.0
 40
0.0
 40
0.0
 40
0.0
 40
0.2499513428
 40
1.0
 40
1.0
 40
1.0
 40
1.0
 10
12.2093250368
 20
16.7552054488
 30
0.0
 10
12.2074011034
 20
13.9632152535
 30
0.0
 10
12.2016311796
 20
2.7930791984
 30
0.0
 10
12.2035517385
 20
-8.3770608333
 30
0.0
 10
12.2093250368
 20
-16.7552054488
 30
0.0
  0
SPLINE
  5
54E
100
AcDbEntity
  8
RACCORDO
100
AcDbSpline
 62
250
  6
CONTINUOUS
 70
0
 71
3
 72
15
 73
11
 74
0
 42
0.0000001
 43
0.0000001
 44
0.0000000001
 40
0.0
 40
0.0
 40
0.0
 40
0.0
 40
0.0193554476
 40
0.0460376513
 40
0.1205924398
 40
0.2215555531
 40
0.3460414642
 40
0.4904845871
 40
0.65074393
 40
1.0
 40
1.0
 40
1.0
 40
1.0
 10
12.2201328658
 20
17.4642258507
 30
0.0
 10
12.2196821461
 20
17.4596725817
 30
0.0
 10
12.2188852148
 20
17.4488163248
 30
0.0
 10
12.2173474579
 20
17.4203504272
 30
0.0
 10
12.2156784613
 20
17.3725768797
 30
0.0
 10
12.2139265117
 20
17.3016795637
 30
0.0
 10
12.2123957904
 20
17.21425154
 30
0.0
 10
12.2111221618
 20
17.1128015544
 30
0.0
 10
12.2097993581
 20
16.9582146406
 30
0.0
 10
12.209381942
 20
16.8377676653
 30
0.0
 10
12.2093250368
 20
16.7552054488
 30
0.0
  0
SPLINE
  5
54F
100
AcDbEntity
  8
RACCORDO
100
AcDbSpline
 62
250
  6
CONTINUOUS
 70
0
 71
3
 72
15
 73
11
 74
0
 42
0.0000001
 43
0.0000001
 44
0.0000000001
 40
0.0
 40
0.0
 40
0.0
 40
0.0
 40
0.34925607
 40
0.5095154129
 40
0.6539585358
 40
0.7784444469
 40
0.8794075602
 40
0.9539623487
 40
0.9806445524
 40
1.0
 40
1.0
 40
1.0
 40
1.0
 10
-12.2093250368
 20
16.7552054488
 30
0.0
 10
-12.209381942
 20
16.8377676653
 30
0.0
 10
-12.2097993581
 20
16.9582146406
 30
0.0
 10
-12.2111221618
 20
17.1128015544
 30
0.0
 10
-12.2123957904
 20
17.21425154
 30
0.0
 10
-12.2139265117
 20
17.3016795637
 30
0.0
 10
-12.2156784613
 20
17.3725768797
 30
0.0
 10
-12.2173474579
 20
17.4203504272
 30
0.0
 10
-12.2188852148
 20
17.4488163248
 30
0.0
 10
-12.2196821461
 20
17.4596725817
 30
0.0
 10
-12.2201328658
 20
17.4642258507
 30
0.0
  0
SPLINE
  5
550
100
AcDbEntity
  8
RACCORDO
100
AcDbSpline
 62
250
  6
CONTINUOUS
 70
0
 71
3
 72
9
 73
5
 74
0
 42
0.0000001
 43
0.0000001
 44
0.0000000001
 40
0.0
 40
0.0
 40
0.0
 40
0.0
 40
0.2499513428
 40
1.0
 40
1.0
 40
1.0
 40
1.0
 10
-12.2093250368
 20
-16.7552054488
 30
0.0
 10
-12.2074011034
 20
-13.9632152535
 30
0.0
 10
-12.2016311796
 20
-2.7930791984
 30
0.0
 10
-12.2035517385
 20
8.3770608333
 30
0.0
 10
-12.2093250368
 20
16.7552054488
 30
0.0
  0
SPLINE
  5
551
100
AcDbEntity
  8
RACCORDO
100
AcDbSpline
 62
250
  6
CONTINUOUS
 70
0
 71
3
 72
15
 73
11
 74
0
 42
0.0000001
 43
0.0000001
 44
0.0000000001
 40
0.0
 40
0.0
 40
0.0
 40
0.0
 40
0.0193554476
 40
0.0460376513
 40
0.1205924398
 40
0.2215555531
 40
0.3460414642
 40
0.4904845871
 40
0.65074393
 40
1.0
 40
1.0
 40
1.0
 40
1.0
 10
-12.2201328658
 20
-17.4642258507
 30
0.0
 10
-12.2196821461
 20
-17.4596725817
 30
0.0
 10
-12.2188852148
 20
-17.4488163248
 30
0.0
 10
-12.2173474579
 20
-17.4203504272
 30
0.0
 10
-12.2156784613
 20
-17.3725768797
 30
0.0
 10
-12.2139265117
 20
-17.3016795637
 30
0.0
 10
-12.2123957904
 20
-17.21425154
 30
0.0
 10
-12.2111221618
 20
-17.1128015544
 30
0.0
 10
-12.2097993581
 20
-16.9582146406
 30
0.0
 10
-12.209381942
 20
-16.8377676653
 30
0.0
 10
-12.2093250368
 20
-16.7552054488
 30
0.0
  0
SPLINE
  5
552
100
AcDbEntity
  8
RACCORDO
100
AcDbSpline
 62
250
  6
CONTINUOUS
 70
0
 71
3
 72
9
 73
5
 74
0
 42
0.0000001
 43
0.0000001
 44
0.0000000001
 40
0.0
 40
0.0
 40
0.0
 40
0.0
 40
0.2500251693
 40
1.0
 40
1.0
 40
1.0
 40
1.0
 10
-9.201348443
 20
11.8847370182
 30
0.0
 10
-8.6500924552
 20
12.4363468011
 30
0.0
 10
-6.4451950373
 20
14.6424684367
 30
0.0
 10
-4.2399158902
 20
16.848208555
 30
0.0
 10
-2.5857972891
 20
18.5022433468
 30
0.0
  0
LINE
  5
553
100
AcDbEntity
  8
RACCORDO
100
AcDbLine
 62
250
  6
CONTINUOUS
 10
2.7355172633
 20
-18.6355418578
 11
4.6006307497
 21
-16.765067253
  0
SPLINE
  5
554
100
AcDbEntity
  8
RACCORDO
100
AcDbSpline
 62
250
  6
CONTINUOUS
 70
0
 71
3
 72
21
 73
17
 74
0
 42
0.0000001
 43
0.0000001
 44
0.0000000001
 40
0.0
 40
0.0
 40
0.0
 40
0.0
 40
0.0625030755
 40
0.1250112139
 40
0.1875246979
 40
0.250043172
 40
0.3125660447
 40
0.3750924724
 40
0.5
 40
0.6249075277
 40
0.6874339554
 40
0.7499568281
 40
0.8124753022
 40
0.8749887862
 40
0.9374969246
 40
1.0
 40
1.0
 40
1.0
 40
1.0
 10
-2.7478697847
 20
-18.6355418578
 30
0.0
 10
-2.6582916396
 20
-18.7253796328
 30
0.0
 10
-2.4701794256
 20
-18.8963888588
 30
0.0
 10
-2.1643200658
 20
-19.123926359
 30
0.0
 10
-1.8375567833
 20
-19.3204046127
 30
0.0
 10
-1.4930739277
 20
-19.4838641129
 30
0.0
 10
-1.1341378107
 20
-19.6127061046
 30
0.0
 10
-0.6414310274
 20
-19.7365679731
 30
0.0
 10
-0.0061762605
 20
-19.79947234
 30
0.0
 10
0.6290785063
 20
-19.7365679728
 30
0.0
 10
1.1217852896
 20
-19.6127061041
 30
0.0
 10
1.4807214063
 20
-19.483864112
 30
0.0
 10
1.8252042626
 20
-19.3204046124
 30
0.0
 10
2.151967543
 20
-19.1239263569
 30
0.0
 10
2.457826912
 20
-18.8963888656
 30
0.0
 10
2.6459391008
 20
-18.7253796149
 30
0.0
 10
2.7355172633
 20
-18.6355418578
 30
0.0
  0
LINE
  5
555
100
AcDbEntity
  8
RACCORDO
100
AcDbLine
 62
250
  6
CONTINUOUS
 10
-4.6129832711
 20
-16.765067253
 11
-2.7478697847
 21
-18.6355418578
  0
SPLINE
  5
556
100
AcDbEntity
  8
RACCORDO
100
AcDbSpline
 62
250
  6
CONTINUOUS
 70
0
 71
3
 72
15
 73
11
 74
0
 42
0.0000001
 43
0.0000001
 44
0.0000000001
 40
0.0
 40
0.0
 40
0.0
 40
0.0
 40
0.1250095325
 40
0.2500155893
 40
0.3750180512
 40
0.5000173243
 40
0.6250140964
 40
0.7500093437
 40
0.8750042597
 40
1.0
 40
1.0
 40
1.0
 40
1.0
 10
-11.8984438826
 20
5.3711276635
 30
0.0
 10
-11.8983241421
 20
5.6724493261
 30
0.0
 10
-11.8685180242
 20
6.2754899153
 30
0.0
 10
-11.7355343558
 20
7.1709877013
 30
0.0
 10
-11.5155500389
 20
8.0492378658
 30
0.0
 10
-11.2106634746
 20
8.9016943302
 30
0.0
 10
-10.8237891664
 20
9.7201905831
 30
0.0
 10
-10.3585967449
 20
10.4968669307
 30
0.0
 10
-9.8196089166
 20
11.2241630773
 30
0.0
 10
-9.414323005
 20
11.6716254019
 30
0.0
 10
-9.201348443
 20
11.8847370182
 30
0.0
  0
SPLINE
  5
557
100
AcDbEntity
  8
RACCORDO
100
AcDbSpline
 62
250
  6
CONTINUOUS
 70
0
 71
3
 72
21
 73
17
 74
0
 42
0.0000001
 43
0.0000001
 44
0.0000000001
 40
0.0
 40
0.0
 40
0.0
 40
0.0
 40
0.0625030755
 40
0.1250112139
 40
0.1875246979
 40
0.250043172
 40
0.3125660447
 40
0.3750924724
 40
0.5
 40
0.6249075277
 40
0.6874339554
 40
0.7499568281
 40
0.8124753022
 40
0.8749887862
 40
0.9374969246
 40
1.0
 40
1.0
 40
1.0
 40
1.0
 10
2.7355172633
 20
18.6355418578
 30
0.0
 10
2.6459391183
 20
18.7253796328
 30
0.0
 10
2.4578269043
 20
18.8963888588
 30
0.0
 10
2.1519675444
 20
19.123926359
 30
0.0
 10
1.825204262
 20
19.3204046127
 30
0.0
 10
1.4807214063
 20
19.4838641129
 30
0.0
 10
1.1217852894
 20
19.6127061046
 30
0.0
 10
0.6290785061
 20
19.7365679731
 30
0.0
 10
-0.0061762608
 20
19.79947234
 30
0.0
 10
-0.6414310277
 20
19.7365679728
 30
0.0
 10
-1.134137811
 20
19.6127061041
 30
0.0
 10
-1.4930739277
 20
19.483864112
 30
0.0
 10
-1.8375567839
 20
19.3204046124
 30
0.0
 10
-2.1643200644
 20
19.1239263569
 30
0.0
 10
-2.4701794333
 20
18.8963888656
 30
0.0
 10
-2.6582916221
 20
18.7253796149
 30
0.0
 10
-2.7478697847
 20
18.6355418578
 30
0.0
  0
LINE
  5
558
100
AcDbEntity
  8
RACCORDO
100
AcDbLine
 62
250
  6
CONTINUOUS
 10
4.6006307497
 20
16.765067253
 11
2.7355172633
 21
18.6355418578
  0
SPLINE
  5
559
100
AcDbEntity
  8
RACCORDO
100
AcDbSpline
 62
250
  6
CONTINUOUS
 70
0
 71
3
 72
23
 73
19
 74
0
 42
0.0000001
 43
0.0000001
 44
0.0000000001
 40
0.0
 40
0.0
 40
0.0
 40
0.0
 40
0.190217732
 40
0.3739705972
 40
0.5443035801
 40
0.622396806
 40
0.6947715891
 40
0.7607420279
 40
0.8196832494
 40
0.8710375223
 40
0.9143199087
 40
0.9491236732
 40
0.9632419267
 40
0.9751269655
 40
0.9847530997
 40
0.9921038584
 40
0.9971747281
 40
1.0
 40
1.0
 40
1.0
 40
1.0
 10
9.201348443
 20
-11.8847370182
 30
0.0
 10
9.1647758024
 20
-11.8481475416
 30
0.0
 10
9.093010067
 20
-11.7760754718
 30
0.0
 10
8.9889680178
 20
-11.6707691425
 30
0.0
 10
8.9067199439
 20
-11.5867993792
 30
0.0
 10
8.8459232607
 20
-11.524221318
 30
0.0
 10
8.8050346923
 20
-11.4818752897
 30
0.0
 10
8.7679036633
 20
-11.4431421036
 30
0.0
 10
8.734881932
 20
-11.4083897984
 30
0.0
 10
8.7062800835
 20
-11.3779500176
 30
0.0
 10
8.6823694127
 20
-11.3521122641
 30
0.0
 10
8.6655320044
 20
-11.3335263214
 30
0.0
 10
8.6546072409
 20
-11.3211120234
 30
0.0
 10
8.6482932736
 20
-11.313757486
 30
0.0
 10
8.6432996727
 20
-11.3077093549
 30
0.0
 10
8.639581869
 20
-11.3029816464
 30
0.0
 10
8.6372465364
 20
-11.299592844
 30
0.0
 10
8.6361124124
 20
-11.297708742
 30
0.0
 10
8.6359421497
 20
-11.2969594552
 30
0.0
  0
SPLINE
  5
55A
100
AcDbEntity
  8
RACCORDO
100
AcDbSpline
 62
250
  6
CONTINUOUS
 70
0
 71
3
 72
23
 73
19
 74
0
 42
0.0000001
 43
0.0000001
 44
0.0000000001
 40
0.0
 40
0.0
 40
0.0
 40
0.0
 40
0.1912843167
 40
0.3755095923
 40
0.5458763463
 40
0.6238716689
 40
0.6960978331
 40
0.7618871286
 40
0.8206314876
 40
0.8717881896
 40
0.914885031
 40
0.949525024
 40
0.9635713404
 40
0.9753912625
 40
0.9849582367
 40
0.9922531474
 40
0.9972642601
 40
1.0
 40
1.0
 40
1.0
 40
1.0
 10
11.8984438826
 20
-5.3711276635
 30
0.0
 10
11.8474471916
 20
-5.3711074111
 30
0.0
 10
11.7473357599
 20
-5.3709478432
 30
0.0
 10
11.6018053475
 20
-5.3703543349
 30
0.0
 10
11.4864793766
 20
-5.3695658875
 30
0.0
 10
11.4010138301
 20
-5.3687578115
 30
0.0
 10
11.3434287402
 20
-5.3680997112
 30
0.0
 10
11.2909771602
 20
-5.3673785182
 30
0.0
 10
11.2441442367
 20
-5.366601361
 30
0.0
 10
11.2033628796
 20
-5.3657775732
 30
0.0
 10
11.1690105439
 20
-5.3649149119
 30
0.0
 10
11.1445526689
 20
-5.3641333592
 30
0.0
 10
11.1284358773
 20
-5.3634673311
 30
0.0
 10
11.118999202
 20
-5.3630035137
 30
0.0
 10
11.111370685
 20
-5.3625302284
 30
0.0
 10
11.1055468558
 20
-5.3620860301
 30
0.0
 10
11.1015821616
 20
-5.3616044544
 30
0.0
 10
11.09951521
 20
-5.3612896817
 30
0.0
 10
11.0988386257
 20
-5.3610173055
 30
0.0
  0
SPLINE
  5
55B
100
AcDbEntity
  8
RACCORDO
100
AcDbSpline
 62
250
  6
CONTINUOUS
 70
0
 71
3
 72
23
 73
19
 74
0
 42
0.0000001
 43
0.0000001
 44
0.0000000001
 40
0.0
 40
0.0
 40
0.0
 40
0.0
 40
0.1912843173
 40
0.3755095933
 40
0.5458763474
 40
0.6238716698
 40
0.696097834
 40
0.7618871293
 40
0.8206314882
 40
0.8717881901
 40
0.9148850314
 40
0.9495250242
 40
0.9635713406
 40
0.9753912627
 40
0.9849582368
 40
0.9922531474
 40
0.9972642601
 40
1.0
 40
1.0
 40
1.0
 40
1.0
 10
11.8984438826
 20
5.3711276635
 30
0.0
 10
11.8474471919
 20
5.3711074111
 30
0.0
 10
11.7473357611
 20
5.3709478432
 30
0.0
 10
11.60180535
 20
5.3703543348
 30
0.0
 10
11.4864793802
 20
5.3695658875
 30
0.0
 10
11.4010138347
 20
5.3687578114
 30
0.0
 10
11.3434287454
 20
5.3680997111
 30
0.0
 10
11.2909771661
 20
5.3673785182
 30
0.0
 10
11.2441442433
 20
5.366601361
 30
0.0
 10
11.2033628867
 20
5.3657775732
 30
0.0
 10
11.1690105515
 20
5.3649149119
 30
0.0
 10
11.1445526768
 20
5.3641333592
 30
0.0
 10
11.1284358854
 20
5.3634673311
 30
0.0
 10
11.1189992102
 20
5.3630035137
 30
0.0
 10
11.1113706934
 20
5.3625302284
 30
0.0
 10
11.1055468643
 20
5.3620860301
 30
0.0
 10
11.1015821701
 20
5.3616044544
 30
0.0
 10
11.0995152186
 20
5.3612896817
 30
0.0
 10
11.0988386343
 20
5.3610173055
 30
0.0
  0
SPLINE
  5
55C
100
AcDbEntity
  8
RACCORDO
100
AcDbSpline
 62
250
  6
CONTINUOUS
 70
0
 71
3
 72
23
 73
19
 74
0
 42
0.0000001
 43
0.0000001
 44
0.0000000001
 40
0.0
 40
0.0
 40
0.0
 40
0.0
 40
0.1902177313
 40
0.3739705963
 40
0.5443035792
 40
0.6223968051
 40
0.6947715884
 40
0.7607420273
 40
0.8196832489
 40
0.8710375219
 40
0.9143199084
 40
0.949123673
 40
0.9632419266
 40
0.9751269654
 40
0.9847530997
 40
0.9921038584
 40
0.9971747281
 40
1.0
 40
1.0
 40
1.0
 40
1.0
 10
9.201348443
 20
11.8847370182
 30
0.0
 10
9.1647758022
 20
11.8481475414
 30
0.0
 10
9.0930100661
 20
11.776075471
 30
0.0
 10
8.988968016
 20
11.6707691407
 30
0.0
 10
8.9067199413
 20
11.5867993766
 30
0.0
 10
8.8459232574
 20
11.5242213147
 30
0.0
 10
8.8050346885
 20
11.481875286
 30
0.0
 10
8.767903659
 20
11.4431420994
 30
0.0
 10
8.7348819272
 20
11.4083897937
 30
0.0
 10
8.7062800784
 20
11.3779500126
 30
0.0
 10
8.6823694073
 20
11.3521122587
 30
0.0
 10
8.6655319987
 20
11.3335263157
 30
0.0
 10
8.6546072351
 20
11.3211120176
 30
0.0
 10
8.6482932677
 20
11.3137574801
 30
0.0
 10
8.6432996667
 20
11.3077093489
 30
0.0
 10
8.639581863
 20
11.3029816403
 30
0.0
 10
8.6372465303
 20
11.2995928379
 30
0.0
 10
8.6361124063
 20
11.2977087358
 30
0.0
 10
8.6359421436
 20
11.2969594491
 30
0.0
  0
SPLINE
  5
55D
100
AcDbEntity
  8
RACCORDO
100
AcDbSpline
 62
250
  6
CONTINUOUS
 70
0
 71
3
 72
23
 73
19
 74
0
 42
0.0000001
 43
0.0000001
 44
0.0000000001
 40
0.0
 40
0.0
 40
0.0
 40
0.0
 40
0.1894999705
 40
0.3728765156
 40
0.5430950767
 40
0.6212039525
 40
0.6936297654
 40
0.7596775111
 40
0.8187142411
 40
0.8701755511
 40
0.9135718548
 40
0.9484950304
 40
0.9626766144
 40
0.9746290146
 40
0.9843305849
 40
0.9917716597
 40
0.9969653082
 40
1.0
 40
1.0
 40
1.0
 40
1.0
 10
2.5857972891
 20
18.5022433468
 30
0.0
 10
2.5489314473
 20
18.4653761141
 30
0.0
 10
2.4766071809
 20
18.3926164031
 30
0.0
 10
2.3719161674
 20
18.2860005509
 30
0.0
 10
2.2892693549
 20
18.2006937248
 30
0.0
 10
2.2282667591
 20
18.1369238434
 30
0.0
 10
2.1872815888
 20
18.0936685675
 30
0.0
 10
2.1501267178
 20
18.0540137568
 30
0.0
 10
2.1171586868
 20
18.0183418034
 30
0.0
 10
2.0886904564
 20
17.9869985402
 30
0.0
 10
2.0649950858
 20
17.9602868649
 30
0.0
 10
2.0484192126
 20
17.9409707454
 30
0.0
 10
2.0377644343
 20
17.927984481
 30
0.0
 10
2.0316556934
 20
17.9202400496
 30
0.0
 10
2.0268823228
 20
17.913823859
 30
0.0
 10
2.0234020783
 20
17.9087274598
 30
0.0
 10
2.0212949385
 20
17.9050144078
 30
0.0
 10
2.0203992158
 20
17.902844196
 30
0.0
 10
2.0203909958
 20
17.9020093012
 30
0.0
  0
SPLINE
  5
55E
100
AcDbEntity
  8
RACCORDO
100
AcDbSpline
 62
250
  6
CONTINUOUS
 70
0
 71
3
 72
23
 73
19
 74
0
 42
0.0000001
 43
0.0000001
 44
0.0000000001
 40
0.0
 40
0.0
 40
0.0
 40
0.0
 40
0.1894999683
 40
0.3728765124
 40
0.5430950735
 40
0.6212039496
 40
0.6936297628
 40
0.759677509
 40
0.8187142394
 40
0.8701755499
 40
0.913571854
 40
0.9484950299
 40
0.9626766141
 40
0.9746290144
 40
0.9843305849
 40
0.9917716596
 40
0.9969653082
 40
1.0
 40
1.0
 40
1.0
 40
1.0
 10
-2.5857972891
 20
18.5022433464
 30
0.0
 10
-2.5489314466
 20
18.4653761131
 30
0.0
 10
-2.4766071786
 20
18.3926164006
 30
0.0
 10
-2.3719161625
 20
18.286000546
 30
0.0
 10
-2.2892693476
 20
18.2006937176
 30
0.0
 10
-2.2282667498
 20
18.1369238343
 30
0.0
 10
-2.1872815781
 20
18.093668557
 30
0.0
 10
-2.1501267057
 20
18.0540137449
 30
0.0
 10
-2.1171586734
 20
18.0183417902
 30
0.0
 10
-2.0886904419
 20
17.9869985258
 30
0.0
 10
-2.0649950703
 20
17.9602868496
 30
0.0
 10
-2.0484191964
 20
17.9409707293
 30
0.0
 10
-2.0377644176
 20
17.9279844645
 30
0.0
 10
-2.0316556765
 20
17.9202400328
 30
0.0
 10
-2.0268823057
 20
17.9138238419
 30
0.0
 10
-2.023402061
 20
17.9087274425
 30
0.0
 10
-2.0212949211
 20
17.9050143904
 30
0.0
 10
-2.0203991984
 20
17.9028441786
 30
0.0
 10
-2.0203909784
 20
17.9020092838
 30
0.0
  0
SPLINE
  5
55F
100
AcDbEntity
  8
RACCORDO
100
AcDbSpline
 62
250
  6
CONTINUOUS
 70
0
 71
3
 72
23
 73
19
 74
0
 42
0.0000001
 43
0.0000001
 44
0.0000000001
 40
0.0
 40
0.0
 40
0.0
 40
0.0
 40
0.190217732
 40
0.3739705972
 40
0.5443035801
 40
0.622396806
 40
0.6947715891
 40
0.7607420279
 40
0.8196832494
 40
0.8710375223
 40
0.9143199087
 40
0.9491236732
 40
0.9632419267
 40
0.9751269655
 40
0.9847530997
 40
0.9921038584
 40
0.9971747281
 40
1.0
 40
1.0
 40
1.0
 40
1.0
 10
-9.201348443
 20
11.8847370182
 30
0.0
 10
-9.1647758024
 20
11.8481475416
 30
0.0
 10
-9.093010067
 20
11.7760754718
 30
0.0
 10
-8.9889680178
 20
11.6707691425
 30
0.0
 10
-8.9067199439
 20
11.5867993792
 30
0.0
 10
-8.8459232607
 20
11.524221318
 30
0.0
 10
-8.8050346923
 20
11.4818752897
 30
0.0
 10
-8.7679036633
 20
11.4431421036
 30
0.0
 10
-8.734881932
 20
11.4083897984
 30
0.0
 10
-8.7062800835
 20
11.3779500176
 30
0.0
 10
-8.6823694127
 20
11.3521122641
 30
0.0
 10
-8.6655320044
 20
11.3335263214
 30
0.0
 10
-8.6546072409
 20
11.3211120234
 30
0.0
 10
-8.6482932736
 20
11.313757486
 30
0.0
 10
-8.6432996727
 20
11.3077093549
 30
0.0
 10
-8.639581869
 20
11.3029816464
 30
0.0
 10
-8.6372465364
 20
11.299592844
 30
0.0
 10
-8.6361124124
 20
11.297708742
 30
0.0
 10
-8.6359421497
 20
11.2969594552
 30
0.0
  0
SPLINE
  5
560
100
AcDbEntity
  8
RACCORDO
100
AcDbSpline
 62
250
  6
CONTINUOUS
 70
0
 71
3
 72
23
 73
19
 74
0
 42
0.0000001
 43
0.0000001
 44
0.0000000001
 40
0.0
 40
0.0
 40
0.0
 40
0.0
 40
0.1912843167
 40
0.3755095923
 40
0.5458763463
 40
0.6238716689
 40
0.6960978331
 40
0.7618871286
 40
0.8206314876
 40
0.8717881896
 40
0.914885031
 40
0.949525024
 40
0.9635713404
 40
0.9753912625
 40
0.9849582367
 40
0.9922531474
 40
0.9972642601
 40
1.0
 40
1.0
 40
1.0
 40
1.0
 10
-11.8984438826
 20
5.3711276635
 30
0.0
 10
-11.8474471916
 20
5.3711074111
 30
0.0
 10
-11.7473357599
 20
5.3709478432
 30
0.0
 10
-11.6018053475
 20
5.3703543349
 30
0.0
 10
-11.4864793766
 20
5.3695658875
 30
0.0
 10
-11.4010138301
 20
5.3687578115
 30
0.0
 10
-11.3434287402
 20
5.3680997112
 30
0.0
 10
-11.2909771602
 20
5.3673785182
 30
0.0
 10
-11.2441442367
 20
5.366601361
 30
0.0
 10
-11.2033628796
 20
5.3657775732
 30
0.0
 10
-11.1690105439
 20
5.3649149119
 30
0.0
 10
-11.1445526689
 20
5.3641333592
 30
0.0
 10
-11.1284358773
 20
5.3634673311
 30
0.0
 10
-11.118999202
 20
5.3630035137
 30
0.0
 10
-11.111370685
 20
5.3625302284
 30
0.0
 10
-11.1055468558
 20
5.3620860301
 30
0.0
 10
-11.1015821616
 20
5.3616044544
 30
0.0
 10
-11.09951521
 20
5.3612896817
 30
0.0
 10
-11.0988386257
 20
5.3610173055
 30
0.0
  0
SPLINE
  5
561
100
AcDbEntity
  8
RACCORDO
100
AcDbSpline
 62
250
  6
CONTINUOUS
 70
0
 71
3
 72
23
 73
19
 74
0
 42
0.0000001
 43
0.0000001
 44
0.0000000001
 40
0.0
 40
0.0
 40
0.0
 40
0.0
 40
0.1912843173
 40
0.3755095933
 40
0.5458763474
 40
0.6238716698
 40
0.696097834
 40
0.7618871293
 40
0.8206314882
 40
0.8717881901
 40
0.9148850314
 40
0.9495250242
 40
0.9635713406
 40
0.9753912627
 40
0.9849582368
 40
0.9922531474
 40
0.9972642601
 40
1.0
 40
1.0
 40
1.0
 40
1.0
 10
-11.8984438826
 20
-5.3711276635
 30
0.0
 10
-11.8474471919
 20
-5.3711074111
 30
0.0
 10
-11.7473357611
 20
-5.3709478432
 30
0.0
 10
-11.60180535
 20
-5.3703543348
 30
0.0
 10
-11.4864793802
 20
-5.3695658875
 30
0.0
 10
-11.4010138347
 20
-5.3687578114
 30
0.0
 10
-11.3434287454
 20
-5.3680997111
 30
0.0
 10
-11.2909771661
 20
-5.3673785182
 30
0.0
 10
-11.2441442433
 20
-5.366601361
 30
0.0
 10
-11.2033628867
 20
-5.3657775732
 30
0.0
 10
-11.1690105515
 20
-5.3649149119
 30
0.0
 10
-11.1445526768
 20
-5.3641333592
 30
0.0
 10
-11.1284358854
 20
-5.3634673311
 30
0.0
 10
-11.1189992102
 20
-5.3630035137
 30
0.0
 10
-11.1113706934
 20
-5.3625302284
 30
0.0
 10
-11.1055468643
 20
-5.3620860301
 30
0.0
 10
-11.1015821701
 20
-5.3616044544
 30
0.0
 10
-11.0995152186
 20
-5.3612896817
 30
0.0
 10
-11.0988386343
 20
-5.3610173055
 30
0.0
  0
SPLINE
  5
562
100
AcDbEntity
  8
RACCORDO
100
AcDbSpline
 62
250
  6
CONTINUOUS
 70
0
 71
3
 72
23
 73
19
 74
0
 42
0.0000001
 43
0.0000001
 44
0.0000000001
 40
0.0
 40
0.0
 40
0.0
 40
0.0
 40
0.1902177313
 40
0.3739705963
 40
0.5443035792
 40
0.6223968051
 40
0.6947715884
 40
0.7607420273
 40
0.8196832489
 40
0.8710375219
 40
0.9143199084
 40
0.949123673
 40
0.9632419266
 40
0.9751269654
 40
0.9847530997
 40
0.9921038584
 40
0.9971747281
 40
1.0
 40
1.0
 40
1.0
 40
1.0
 10
-9.201348443
 20
-11.8847370182
 30
0.0
 10
-9.1647758022
 20
-11.8481475414
 30
0.0
 10
-9.0930100661
 20
-11.776075471
 30
0.0
 10
-8.988968016
 20
-11.6707691407
 30
0.0
 10
-8.9067199413
 20
-11.5867993766
 30
0.0
 10
-8.8459232574
 20
-11.5242213147
 30
0.0
 10
-8.8050346885
 20
-11.481875286
 30
0.0
 10
-8.767903659
 20
-11.4431420994
 30
0.0
 10
-8.7348819272
 20
-11.4083897937
 30
0.0
 10
-8.7062800784
 20
-11.3779500126
 30
0.0
 10
-8.6823694073
 20
-11.3521122587
 30
0.0
 10
-8.6655319987
 20
-11.3335263157
 30
0.0
 10
-8.6546072351
 20
-11.3211120176
 30
0.0
 10
-8.6482932677
 20
-11.3137574801
 30
0.0
 10
-8.6432996667
 20
-11.3077093489
 30
0.0
 10
-8.639581863
 20
-11.3029816403
 30
0.0
 10
-8.6372465303
 20
-11.2995928379
 30
0.0
 10
-8.6361124063
 20
-11.2977087358
 30
0.0
 10
-8.6359421436
 20
-11.2969594491
 30
0.0
  0
SPLINE
  5
563
100
AcDbEntity
  8
RACCORDO
100
AcDbSpline
 62
250
  6
CONTINUOUS
 70
0
 71
3
 72
23
 73
19
 74
0
 42
0.0000001
 43
0.0000001
 44
0.0000000001
 40
0.0
 40
0.0
 40
0.0
 40
0.0
 40
0.1894999705
 40
0.3728765156
 40
0.5430950767
 40
0.6212039525
 40
0.6936297654
 40
0.7596775111
 40
0.8187142411
 40
0.8701755511
 40
0.9135718548
 40
0.9484950304
 40
0.9626766144
 40
0.9746290146
 40
0.9843305849
 40
0.9917716597
 40
0.9969653082
 40
1.0
 40
1.0
 40
1.0
 40
1.0
 10
-2.5857972891
 20
-18.5022433468
 30
0.0
 10
-2.5489314473
 20
-18.4653761141
 30
0.0
 10
-2.4766071809
 20
-18.3926164031
 30
0.0
 10
-2.3719161674
 20
-18.2860005509
 30
0.0
 10
-2.2892693549
 20
-18.2006937248
 30
0.0
 10
-2.2282667591
 20
-18.1369238434
 30
0.0
 10
-2.1872815888
 20
-18.0936685675
 30
0.0
 10
-2.1501267178
 20
-18.0540137568
 30
0.0
 10
-2.1171586868
 20
-18.0183418034
 30
0.0
 10
-2.0886904564
 20
-17.9869985402
 30
0.0
 10
-2.0649950858
 20
-17.9602868649
 30
0.0
 10
-2.0484192126
 20
-17.9409707454
 30
0.0
 10
-2.0377644343
 20
-17.927984481
 30
0.0
 10
-2.0316556934
 20
-17.9202400496
 30
0.0
 10
-2.0268823228
 20
-17.913823859
 30
0.0
 10
-2.0234020783
 20
-17.9087274598
 30
0.0
 10
-2.0212949385
 20
-17.9050144078
 30
0.0
 10
-2.0203992158
 20
-17.902844196
 30
0.0
 10
-2.0203909958
 20
-17.9020093012
 30
0.0
  0
SPLINE
  5
564
100
AcDbEntity
  8
RACCORDO
100
AcDbSpline
 62
250
  6
CONTINUOUS
 70
0
 71
3
 72
23
 73
19
 74
0
 42
0.0000001
 43
0.0000001
 44
0.0000000001
 40
0.0
 40
0.0
 40
0.0
 40
0.0
 40
0.1894999683
 40
0.3728765124
 40
0.5430950735
 40
0.6212039496
 40
0.6936297628
 40
0.759677509
 40
0.8187142394
 40
0.8701755499
 40
0.913571854
 40
0.9484950299
 40
0.9626766141
 40
0.9746290144
 40
0.9843305849
 40
0.9917716596
 40
0.9969653082
 40
1.0
 40
1.0
 40
1.0
 40
1.0
 10
2.5857972891
 20
-18.5022433464
 30
0.0
 10
2.5489314466
 20
-18.4653761131
 30
0.0
 10
2.4766071786
 20
-18.3926164006
 30
0.0
 10
2.3719161625
 20
-18.286000546
 30
0.0
 10
2.2892693476
 20
-18.2006937176
 30
0.0
 10
2.2282667498
 20
-18.1369238343
 30
0.0
 10
2.1872815781
 20
-18.093668557
 30
0.0
 10
2.1501267057
 20
-18.0540137449
 30
0.0
 10
2.1171586734
 20
-18.0183417902
 30
0.0
 10
2.0886904419
 20
-17.9869985258
 30
0.0
 10
2.0649950703
 20
-17.9602868496
 30
0.0
 10
2.0484191964
 20
-17.9409707293
 30
0.0
 10
2.0377644176
 20
-17.9279844645
 30
0.0
 10
2.0316556765
 20
-17.9202400328
 30
0.0
 10
2.0268823057
 20
-17.9138238419
 30
0.0
 10
2.023402061
 20
-17.9087274425
 30
0.0
 10
2.0212949211
 20
-17.9050143904
 30
0.0
 10
2.0203991984
 20
-17.9028441786
 30
0.0
 10
2.0203909784
 20
-17.9020092838
 30
0.0
  0
SPLINE
  5
565
100
AcDbEntity
  8
RACCORDO
100
AcDbSpline
 62
7
  6
CONTINUOUS
 70
0
 71
3
 72
13
 73
9
 74
0
 42
0.0000001
 43
0.0000001
 44
0.0000000001
 40
0.0
 40
0.0
 40
0.0
 40
0.0
 40
0.2155826588
 40
0.4442876109
 40
0.5678851519
 40
0.6999316498
 40
0.8429415259
 40
1.0
 40
1.0
 40
1.0
 40
1.0
 10
12.364173313
 20
-22.1077354931
 30
0.0
 10
12.3631781453
 20
-22.1357783089
 30
0.0
 10
12.350505876
 20
-22.1936548012
 30
0.0
 10
12.3092195592
 20
-22.2570093112
 30
0.0
 10
12.2616240456
 20
-22.2988326568
 30
0.0
 10
12.2164669043
 20
-22.3251184765
 30
0.0
 10
12.1627177452
 20
-22.3429930716
 30
0.0
 10
12.1234224823
 20
-22.3468490928
 30
0.0
 10
12.1029831154
 20
-22.3464691432
 30
0.0
  0
SPLINE
  5
566
100
AcDbEntity
  8
RACCORDO
100
AcDbSpline
 62
7
  6
CONTINUOUS
 70
0
 71
3
 72
13
 73
9
 74
0
 42
0.0000001
 43
0.0000001
 44
0.0000000001
 40
0.0
 40
0.0
 40
0.0
 40
0.0
 40
0.1570586341
 40
0.3000685128
 40
0.4321149746
 40
0.5557124771
 40
0.7844173719
 40
1.0
 40
1.0
 40
1.0
 40
1.0
 10
-12.1029831154
 20
-22.3464691432
 30
0.0
 10
-12.1234225032
 20
-22.3468490932
 30
0.0
 10
-12.1627177876
 20
-22.3429930662
 30
0.0
 10
-12.2164669599
 20
-22.325118456
 30
0.0
 10
-12.2616240827
 20
-22.2988326236
 30
0.0
 10
-12.3092195789
 20
-22.2570092856
 30
0.0
 10
-12.3505058808
 20
-22.1936547857
 30
0.0
 10
-12.3631781454
 20
-22.1357783049
 30
0.0
 10
-12.364173313
 20
-22.1077354931
 30
0.0
  0
SPLINE
  5
567
100
AcDbEntity
  8
RACCORDO
100
AcDbSpline
 62
7
  6
CONTINUOUS
 70
0
 71
3
 72
13
 73
9
 74
0
 42
0.0000001
 43
0.0000001
 44
0.0000000001
 40
0.0
 40
0.0
 40
0.0
 40
0.0
 40
0.2171542299
 40
0.4476638436
 40
0.5727646927
 40
0.7065231823
 40
0.8496713624
 40
1.0
 40
1.0
 40
1.0
 40
1.0
 10
-12.273374621
 20
-19.05
 30
0.0
 10
-12.2728918398
 20
-19.0223372655
 30
0.0
 10
-12.2622914742
 20
-18.9650778929
 30
0.0
 10
-12.2250670716
 20
-18.9005255195
 30
0.0
 10
-12.1806415503
 20
-18.8563389755
 30
0.0
 10
-12.1377852548
 20
-18.8276441567
 30
0.0
 10
-12.0869186831
 20
-18.8071756907
 30
0.0
 10
-12.0496235968
 20
-18.8011383033
 30
0.0
 10
-12.0304907483
 20
-18.8002620025
 30
0.0
  0
SPLINE
  5
568
100
AcDbEntity
  8
RACCORDO
100
AcDbSpline
 62
7
  6
CONTINUOUS
 70
0
 71
3
 72
13
 73
9
 74
0
 42
0.0000001
 43
0.0000001
 44
0.0000000001
 40
0.0
 40
0.0
 40
0.0
 40
0.0
 40
0.2165188767
 40
0.4467531878
 40
0.5720008305
 40
0.7061180382
 40
0.8496815364
 40
1.0
 40
1.0
 40
1.0
 40
1.0
 10
-12.2821021535
 20
-19.05
 30
0.0
 10
-12.281611948
 20
-19.0219118692
 30
0.0
 10
-12.2706845804
 20
-18.9637104224
 30
0.0
 10
-12.2322684898
 20
-18.8983224215
 30
0.0
 10
-12.1864218904
 20
-18.8538804614
 30
0.0
 10
-12.1421796774
 20
-18.8253225297
 30
0.0
 10
-12.0898352726
 20
-18.8055471067
 30
0.0
 10
-12.0516404448
 20
-18.8003784019
 30
0.0
 10
-12.0321402297
 20
-18.8000380762
 30
0.0
  0
SPLINE
  5
569
100
AcDbEntity
  8
RACCORDO
100
AcDbSpline
 62
250
  6
CONTINUOUS
 70
0
 71
3
 72
15
 73
11
 74
0
 42
0.0000001
 43
0.0000001
 44
0.0000000001
 40
0.0
 40
0.0
 40
0.0
 40
0.0
 40
0.1239885373
 40
0.2481852343
 40
0.3726975778
 40
0.4975792847
 40
0.6228289614
 40
0.7483896756
 40
0.8741566982
 40
1.0
 40
1.0
 40
1.0
 40
1.0
 10
-12.2201328658
 20
17.4642258507
 30
0.0
 10
-12.2200834373
 20
17.4802904371
 30
0.0
 10
-12.2167668994
 20
17.5125276273
 30
0.0
 10
-12.20234643
 20
17.5589295702
 30
0.0
 10
-12.1790363363
 20
17.6017144375
 30
0.0
 10
-12.1477343517
 20
17.6392203331
 30
0.0
 10
-12.1096460722
 20
17.6700229295
 30
0.0
 10
-12.0662244565
 20
17.6929466982
 30
0.0
 10
-12.0191534995
 20
17.7071212939
 30
0.0
 10
-11.9864758456
 20
17.710379119
 30
0.0
 10
-11.970170942
 20
17.710427789
 30
0.0
  0
SPLINE
  5
56A
100
AcDbEntity
  8
RACCORDO
100
AcDbSpline
 62
250
  6
CONTINUOUS
 70
0
 71
3
 72
21
 73
17
 74
0
 42
0.0000001
 43
0.0000001
 44
0.0000000001
 40
0.0
 40
0.0
 40
0.0
 40
0.0
 40
0.0027789682
 40
0.0075406986
 40
0.0145028728
 40
0.0237151955
 40
0.0488913885
 40
0.0829347853
 40
0.1255598754
 40
0.1763829174
 40
0.2349351644
 40
0.3006714028
 40
0.4511740297
 40
0.622261343
 40
0.8075176402
 40
1.0
 40
1.0
 40
1.0
 40
1.0
 10
-12.2093250368
 20
16.7552054488
 30
0.0
 10
-12.2092311819
 20
16.7554177814
 30
0.0
 10
-12.208675952
 20
16.755809632
 30
0.0
 10
-12.2075660034
 20
16.7562422646
 30
0.0
 10
-12.20586537
 20
16.7567028614
 30
0.0
 10
-12.2024835097
 20
16.7573836695
 30
0.0
 10
-12.1968133969
 20
16.758171427
 30
0.0
 10
-12.1883519204
 20
16.7590428834
 30
0.0
 10
-12.1777333152
 20
16.7598871337
 30
0.0
 10
-12.1650612125
 20
16.7606955353
 30
0.0
 10
-12.1504521008
 20
16.7614565027
 30
0.0
 10
-12.1275174466
 20
16.7624416402
 30
0.0
 10
-12.0951759243
 20
16.7634624153
 30
0.0
 10
-12.0528436205
 20
16.764352774
 30
0.0
 10
-12.006998506
 20
16.7649154377
 30
0.0
 10
-11.9754427783
 20
16.7650561876
 30
0.0
 10
-11.959363113
 20
16.7650672507
 30
0.0
  0
SPLINE
  5
56B
100
AcDbEntity
  8
RACCORDO
100
AcDbSpline
 62
7
  6
CONTINUOUS
 70
0
 71
3
 72
11
 73
7
 74
0
 42
0.0000001
 43
0.0000001
 44
0.0000000001
 40
0.0
 40
0.0
 40
0.0
 40
0.0
 40
0.284475976
 40
0.5307202502
 40
0.7598815462
 40
1.0
 40
1.0
 40
1.0
 40
1.0
 10
-5.0112363234
 20
-17.7416786313
 30
0.0
 10
-5.0134470017
 20
-17.7393015758
 30
0.0
 10
-5.017224242
 20
-17.7345000172
 30
0.0
 10
-5.0206887582
 20
-17.7263992768
 30
0.0
 10
-5.0210969128
 20
-17.7180566866
 30
0.0
 10
-5.0193273319
 20
-17.7128708633
 30
0.0
 10
-5.0180868004
 20
-17.710427789
 30
0.0
  0
SPLINE
  5
56C
100
AcDbEntity
  8
RACCORDO
100
AcDbSpline
 62
250
  6
CONTINUOUS
 70
0
 71
3
 72
21
 73
17
 74
0
 42
0.0000001
 43
0.0000001
 44
0.0000000001
 40
0.0
 40
0.0
 40
0.0
 40
0.0
 40
0.002778963
 40
0.007540687
 40
0.0145028549
 40
0.0237151717
 40
0.048891354
 40
0.082934742
 40
0.1255598253
 40
0.1763828627
 40
0.2349351072
 40
0.3006713452
 40
0.4511739776
 40
0.6222613036
 40
0.807517619
 40
1.0
 40
1.0
 40
1.0
 40
1.0
 10
-12.2093250368
 20
-16.7552054488
 30
0.0
 10
-12.2092311828
 20
-16.7554177813
 30
0.0
 10
-12.208675954
 20
-16.7558096323
 30
0.0
 10
-12.2075660071
 20
-16.7562422647
 30
0.0
 10
-12.2058653753
 20
-16.7567028616
 30
0.0
 10
-12.2024835169
 20
-16.7573836699
 30
0.0
 10
-12.1968134063
 20
-16.7581714274
 30
0.0
 10
-12.1883519319
 20
-16.7590428839
 30
0.0
 10
-12.1777333284
 20
-16.7598871344
 30
0.0
 10
-12.1650612268
 20
-16.7606955361
 30
0.0
 10
-12.1504521156
 20
-16.7614565037
 30
0.0
 10
-12.1275174612
 20
-16.7624416414
 30
0.0
 10
-12.0951759373
 20
-16.7634624168
 30
0.0
 10
-12.0528436303
 20
-16.7643527757
 30
0.0
 10
-12.0069985113
 20
-16.7649154395
 30
0.0
 10
-11.9754427802
 20
-16.7650561895
 30
0.0
 10
-11.959363113
 20
-16.7650672526
 30
0.0
  0
SPLINE
  5
56D
100
AcDbEntity
  8
RACCORDO
100
AcDbSpline
 62
250
  6
CONTINUOUS
 70
0
 71
3
 72
21
 73
17
 74
0
 42
0.0000001
 43
0.0000001
 44
0.0000000001
 40
0.0
 40
0.0
 40
0.0
 40
0.0
 40
0.0625032729
 40
0.1250114521
 40
0.1875249884
 40
0.2500434119
 40
0.3125661505
 40
0.3750923704
 40
0.5000000006
 40
0.6249076308
 40
0.6874338508
 40
0.7499565893
 40
0.8124750129
 40
0.8749885493
 40
0.937496728
 40
1.0
 40
1.0
 40
1.0
 40
1.0
 10
2.5857972891
 20
-18.5022433468
 30
0.0
 10
2.5012239012
 20
-18.5868119919
 30
0.0
 10
2.3236573572
 20
-18.7477769282
 30
0.0
 10
2.0350419601
 20
-18.9619164878
 30
0.0
 10
1.7267872748
 20
-19.1467993993
 30
0.0
 10
1.401889839
 20
-19.300592742
 30
0.0
 10
1.0634216996
 20
-19.4218036788
 30
0.0
 10
0.59887055
 20
-19.5383198669
 30
0.0
 10
-0.000000004
 20
-19.5974868672
 30
0.0
 10
-0.5988705582
 20
-19.5383198666
 30
0.0
 10
-1.0634217075
 20
-19.4218036779
 30
0.0
 10
-1.4018898471
 20
-19.3005927411
 30
0.0
 10
-1.7267872823
 20
-19.1467993976
 30
0.0
 10
-2.0350419694
 20
-18.9619164871
 30
0.0
 10
-2.3236573485
 20
-18.7477769132
 30
0.0
 10
-2.50122393
 20
-18.5868120182
 30
0.0
 10
-2.5857972891
 20
-18.5022433468
 30
0.0
  0
SPLINE
  5
56E
100
AcDbEntity
  8
RACCORDO
100
AcDbSpline
 62
250
  6
CONTINUOUS
 70
0
 71
3
 72
9
 73
5
 74
0
 42
0.0000001
 43
0.0000001
 44
0.0000000001
 40
0.0
 40
0.0
 40
0.0
 40
0.0
 40
0.2499949369
 40
1.0
 40
1.0
 40
1.0
 40
1.0
 10
-11.8984438826
 20
-5.3711276635
 30
0.0
 10
-11.8987987705
 20
-4.4759579064
 30
0.0
 10
-11.8998633983
 20
-0.8952062274
 30
0.0
 10
-11.8995085749
 20
2.6855458736
 30
0.0
 10
-11.8984438826
 20
5.3711276635
 30
0.0
  0
SPLINE
  5
56F
100
AcDbEntity
  8
RACCORDO
100
AcDbSpline
 62
250
  6
CONTINUOUS
 70
0
 71
3
 72
9
 73
5
 74
0
 42
0.0000001
 43
0.0000001
 44
0.0000000001
 40
0.0
 40
0.0
 40
0.0
 40
0.0
 40
0.2500251693
 40
1.0
 40
1.0
 40
1.0
 40
1.0
 10
9.201348443
 20
-11.8847370182
 30
0.0
 10
8.6500924552
 20
-12.4363468011
 30
0.0
 10
6.4451950373
 20
-14.6424684367
 30
0.0
 10
4.2399158902
 20
-16.848208555
 30
0.0
 10
2.5857972891
 20
-18.5022433468
 30
0.0
  0
SPLINE
  5
570
100
AcDbEntity
  8
RACCORDO
100
AcDbSpline
 62
250
  6
CONTINUOUS
 70
0
 71
3
 72
9
 73
5
 74
0
 42
0.0000001
 43
0.0000001
 44
0.0000000001
 40
0.0
 40
0.0
 40
0.0
 40
0.0
 40
0.2499513428
 40
1.0
 40
1.0
 40
1.0
 40
1.0
 10
11.9593631106
 20
16.7650632919
 30
0.0
 10
11.9574391776
 20
13.9714304422
 30
0.0
 10
11.9516692571
 20
2.7947224911
 30
0.0
 10
11.9535898136
 20
-8.3819894342
 30
0.0
 10
11.9593631106
 20
-16.7650632919
 30
0.0
  0
SPLINE
  5
571
100
AcDbEntity
  8
RACCORDO
100
AcDbSpline
 62
250
  6
CONTINUOUS
 70
0
 71
3
 72
15
 73
11
 74
0
 42
0.0000001
 43
0.0000001
 44
0.0000000001
 40
0.0
 40
0.0
 40
0.0
 40
0.0
 40
0.1239885373
 40
0.2481852343
 40
0.3726975777
 40
0.4975792847
 40
0.6228289614
 40
0.7483896756
 40
0.8741566982
 40
1.0
 40
1.0
 40
1.0
 40
1.0
 10
-12.2201328658
 20
-17.4642258507
 30
0.0
 10
-12.2200834373
 20
-17.4802904371
 30
0.0
 10
-12.2167668994
 20
-17.5125276273
 30
0.0
 10
-12.20234643
 20
-17.5589295701
 30
0.0
 10
-12.1790363363
 20
-17.6017144375
 30
0.0
 10
-12.1477343517
 20
-17.6392203331
 30
0.0
 10
-12.1096460722
 20
-17.6700229294
 30
0.0
 10
-12.0662244565
 20
-17.6929466981
 30
0.0
 10
-12.0191534995
 20
-17.7071212938
 30
0.0
 10
-11.9864758456
 20
-17.710379119
 30
0.0
 10
-11.970170942
 20
-17.710427789
 30
0.0
  0
SPLINE
  5
572
100
AcDbEntity
  8
RACCORDO
100
AcDbSpline
 62
7
  6
CONTINUOUS
 70
0
 71
3
 72
14
 73
10
 74
0
 42
0.0000001
 43
0.0000001
 44
0.0000000001
 40
0.0
 40
0.0
 40
0.0
 40
0.0
 40
0.1013046776
 40
0.2055128922
 40
0.3150532931
 40
0.4322703123
 40
0.5592485002
 40
0.6973030567
 40
1.0
 40
1.0
 40
1.0
 40
1.0
 10
-12.2821021535
 20
-18.0902250922
 30
0.0
 10
-12.2818502252
 20
-18.1023379518
 30
0.0
 10
-12.2787771696
 20
-18.1269282905
 30
0.0
 10
-12.2665500584
 20
-18.1628235649
 30
0.0
 10
-12.2465170802
 20
-18.1972585459
 30
0.0
 10
-12.2184581278
 20
-18.2292536851
 30
0.0
 10
-12.1821865598
 20
-18.2575412505
 30
0.0
 10
-12.1216551894
 20
-18.2888980448
 30
0.0
 10
-12.0683372287
 20
-18.2994435035
 30
0.0
 10
-12.0321402297
 20
-18.2999735975
 30
0.0
  0
SPLINE
  5
573
100
AcDbEntity
  8
RACCORDO
100
AcDbSpline
 62
7
  6
CONTINUOUS
 70
0
 71
3
 72
14
 73
10
 74
0
 42
0.0000001
 43
0.0000001
 44
0.0000000001
 40
0.0
 40
0.0
 40
0.0
 40
0.0
 40
0.1013046776
 40
0.2055128922
 40
0.3150532931
 40
0.4322703123
 40
0.5592485002
 40
0.6973030567
 40
1.0
 40
1.0
 40
1.0
 40
1.0
 10
-12.2821021535
 20
18.0902250922
 30
0.0
 10
-12.2818502252
 20
18.1023379518
 30
0.0
 10
-12.2787771696
 20
18.1269282905
 30
0.0
 10
-12.2665500584
 20
18.1628235649
 30
0.0
 10
-12.2465170802
 20
18.1972585459
 30
0.0
 10
-12.2184581278
 20
18.2292536851
 30
0.0
 10
-12.1821865598
 20
18.2575412505
 30
0.0
 10
-12.1216551894
 20
18.2888980448
 30
0.0
 10
-12.0683372287
 20
18.2994435035
 30
0.0
 10
-12.0321402297
 20
18.2999735975
 30
0.0
  0
SPLINE
  5
574
100
AcDbEntity
  8
RACCORDO
100
AcDbSpline
 62
7
  6
CONTINUOUS
 70
0
 71
3
 72
13
 73
9
 74
0
 42
0.0000001
 43
0.0000001
 44
0.0000000001
 40
0.0
 40
0.0
 40
0.0
 40
0.0
 40
0.2165188767
 40
0.4467531878
 40
0.5720008305
 40
0.7061180382
 40
0.8496815364
 40
1.0
 40
1.0
 40
1.0
 40
1.0
 10
-12.2821021535
 20
19.05
 30
0.0
 10
-12.281611948
 20
19.0219118692
 30
0.0
 10
-12.2706845804
 20
18.9637104224
 30
0.0
 10
-12.2322684898
 20
18.8983224215
 30
0.0
 10
-12.1864218904
 20
18.8538804614
 30
0.0
 10
-12.1421796774
 20
18.8253225297
 30
0.0
 10
-12.0898352726
 20
18.8055471067
 30
0.0
 10
-12.0516404448
 20
18.8003784019
 30
0.0
 10
-12.0321402297
 20
18.8000380762
 30
0.0
  0
SPLINE
  5
575
100
AcDbEntity
  8
RACCORDO
100
AcDbSpline
 62
7
  6
CONTINUOUS
 70
0
 71
3
 72
13
 73
9
 74
0
 42
0.0000001
 43
0.0000001
 44
0.0000000001
 40
0.0
 40
0.0
 40
0.0
 40
0.0
 40
0.2171542299
 40
0.4476638436
 40
0.5727646927
 40
0.7065231823
 40
0.8496713624
 40
1.0
 40
1.0
 40
1.0
 40
1.0
 10
-12.273374621
 20
19.05
 30
0.0
 10
-12.2728918398
 20
19.0223372655
 30
0.0
 10
-12.2622914742
 20
18.9650778929
 30
0.0
 10
-12.2250670716
 20
18.9005255195
 30
0.0
 10
-12.1806415503
 20
18.8563389755
 30
0.0
 10
-12.1377852548
 20
18.8276441567
 30
0.0
 10
-12.0869186831
 20
18.8071756907
 30
0.0
 10
-12.0496235968
 20
18.8011383033
 30
0.0
 10
-12.0304907483
 20
18.8002620025
 30
0.0
  0
SPLINE
  5
576
100
AcDbEntity
  8
RACCORDO
100
AcDbSpline
 62
7
  6
CONTINUOUS
 70
0
 71
3
 72
13
 73
9
 74
0
 42
0.0000001
 43
0.0000001
 44
0.0000000001
 40
0.0
 40
0.0
 40
0.0
 40
0.0
 40
0.1570586321
 40
0.3000685103
 40
0.4321149713
 40
0.5557124728
 40
0.7844173745
 40
1.0
 40
1.0
 40
1.0
 40
1.0
 10
12.1029831154
 20
22.3464691432
 30
0.0
 10
12.1234225029
 20
22.3468490931
 30
0.0
 10
12.162717787
 20
22.3429930663
 30
0.0
 10
12.216466959
 20
22.3251184564
 30
0.0
 10
12.2616240817
 20
22.2988326244
 30
0.0
 10
12.3092195786
 20
22.2570092862
 30
0.0
 10
12.3505058809
 20
22.193654786
 30
0.0
 10
12.3631781455
 20
22.1357783046
 30
0.0
 10
12.364173313
 20
22.1077354931
 30
0.0
  0
SPLINE
  5
577
100
AcDbEntity
  8
RACCORDO
100
AcDbSpline
 62
7
  6
CONTINUOUS
 70
0
 71
3
 72
13
 73
9
 74
0
 42
0.0000001
 43
0.0000001
 44
0.0000000001
 40
0.0
 40
0.0
 40
0.0
 40
0.0
 40
0.2171542299
 40
0.4476638436
 40
0.5727646927
 40
0.7065231823
 40
0.8496713624
 40
1.0
 40
1.0
 40
1.0
 40
1.0
 10
12.273374621
 20
19.05
 30
0.0
 10
12.2728918398
 20
19.0223372655
 30
0.0
 10
12.2622914742
 20
18.9650778929
 30
0.0
 10
12.2250670716
 20
18.9005255195
 30
0.0
 10
12.1806415503
 20
18.8563389755
 30
0.0
 10
12.1377852548
 20
18.8276441567
 30
0.0
 10
12.0869186831
 20
18.8071756907
 30
0.0
 10
12.0496235968
 20
18.8011383033
 30
0.0
 10
12.0304907483
 20
18.8002620025
 30
0.0
  0
SPLINE
  5
578
100
AcDbEntity
  8
RACCORDO
100
AcDbSpline
 62
7
  6
CONTINUOUS
 70
0
 71
3
 72
13
 73
9
 74
0
 42
0.0000001
 43
0.0000001
 44
0.0000000001
 40
0.0
 40
0.0
 40
0.0
 40
0.0
 40
0.2165188767
 40
0.4467531878
 40
0.5720008305
 40
0.7061180382
 40
0.8496815364
 40
1.0
 40
1.0
 40
1.0
 40
1.0
 10
12.2821021535
 20
19.05
 30
0.0
 10
12.281611948
 20
19.0219118692
 30
0.0
 10
12.2706845804
 20
18.9637104224
 30
0.0
 10
12.2322684898
 20
18.8983224215
 30
0.0
 10
12.1864218904
 20
18.8538804614
 30
0.0
 10
12.1421796774
 20
18.8253225297
 30
0.0
 10
12.0898352726
 20
18.8055471067
 30
0.0
 10
12.0516404448
 20
18.8003784019
 30
0.0
 10
12.0321402297
 20
18.8000380762
 30
0.0
  0
SPLINE
  5
579
100
AcDbEntity
  8
RACCORDO
100
AcDbSpline
 62
7
  6
CONTINUOUS
 70
0
 71
3
 72
14
 73
10
 74
0
 42
0.0000001
 43
0.0000001
 44
0.0000000001
 40
0.0
 40
0.0
 40
0.0
 40
0.0
 40
0.1013046776
 40
0.2055128922
 40
0.3150532931
 40
0.4322703123
 40
0.5592485002
 40
0.6973030567
 40
1.0
 40
1.0
 40
1.0
 40
1.0
 10
12.2821021535
 20
18.0902250922
 30
0.0
 10
12.2818502252
 20
18.1023379518
 30
0.0
 10
12.2787771696
 20
18.1269282905
 30
0.0
 10
12.2665500584
 20
18.1628235649
 30
0.0
 10
12.2465170802
 20
18.1972585459
 30
0.0
 10
12.2184581278
 20
18.2292536851
 30
0.0
 10
12.1821865598
 20
18.2575412505
 30
0.0
 10
12.1216551894
 20
18.2888980448
 30
0.0
 10
12.0683372287
 20
18.2994435035
 30
0.0
 10
12.0321402297
 20
18.2999735975
 30
0.0
  0
SPLINE
  5
57A
100
AcDbEntity
  8
RACCORDO
100
AcDbSpline
 62
250
  6
CONTINUOUS
 70
0
 71
3
 72
15
 73
11
 74
0
 42
0.0000001
 43
0.0000001
 44
0.0000000001
 40
0.0
 40
0.0
 40
0.0
 40
0.0
 40
0.1239885373
 40
0.2481852343
 40
0.3726975777
 40
0.4975792847
 40
0.6228289614
 40
0.7483896756
 40
0.8741566982
 40
1.0
 40
1.0
 40
1.0
 40
1.0
 10
12.2201328658
 20
17.4642258507
 30
0.0
 10
12.2200834373
 20
17.4802904371
 30
0.0
 10
12.2167668994
 20
17.5125276273
 30
0.0
 10
12.20234643
 20
17.5589295701
 30
0.0
 10
12.1790363363
 20
17.6017144375
 30
0.0
 10
12.1477343517
 20
17.6392203331
 30
0.0
 10
12.1096460722
 20
17.6700229294
 30
0.0
 10
12.0662244565
 20
17.6929466981
 30
0.0
 10
12.0191534995
 20
17.7071212938
 30
0.0
 10
11.9864758456
 20
17.710379119
 30
0.0
 10
11.970170942
 20
17.710427789
 30
0.0
  0
SPLINE
  5
57B
100
AcDbEntity
  8
RACCORDO
100
AcDbSpline
 62
250
  6
CONTINUOUS
 70
0
 71
3
 72
21
 73
17
 74
0
 42
0.0000001
 43
0.0000001
 44
0.0000000001
 40
0.0
 40
0.0
 40
0.0
 40
0.0
 40
0.002778963
 40
0.007540687
 40
0.0145028549
 40
0.0237151717
 40
0.048891354
 40
0.0829347419
 40
0.1255598253
 40
0.1763828626
 40
0.2349351071
 40
0.3006713451
 40
0.4511739775
 40
0.6222613036
 40
0.807517619
 40
1.0
 40
1.0
 40
1.0
 40
1.0
 10
12.2093250368
 20
16.7552054488
 30
0.0
 10
12.2092311828
 20
16.7554177813
 30
0.0
 10
12.208675954
 20
16.7558096323
 30
0.0
 10
12.2075660071
 20
16.7562422647
 30
0.0
 10
12.2058653753
 20
16.7567028616
 30
0.0
 10
12.202483517
 20
16.7573836699
 30
0.0
 10
12.1968134063
 20
16.7581714274
 30
0.0
 10
12.1883519319
 20
16.7590428839
 30
0.0
 10
12.1777333284
 20
16.7598871344
 30
0.0
 10
12.1650612268
 20
16.7606955361
 30
0.0
 10
12.1504521156
 20
16.7614565037
 30
0.0
 10
12.1275174612
 20
16.7624416414
 30
0.0
 10
12.0951759373
 20
16.7634624168
 30
0.0
 10
12.0528436303
 20
16.7643527757
 30
0.0
 10
12.0069985113
 20
16.7649154396
 30
0.0
 10
11.9754427802
 20
16.7650561895
 30
0.0
 10
11.959363113
 20
16.7650672526
 30
0.0
  0
SPLINE
  5
57C
100
AcDbEntity
  8
RACCORDO
100
AcDbSpline
 62
250
  6
CONTINUOUS
 70
0
 71
3
 72
21
 73
17
 74
0
 42
0.0000001
 43
0.0000001
 44
0.0000000001
 40
0.0
 40
0.0
 40
0.0
 40
0.0
 40
0.0027789682
 40
0.0075406986
 40
0.0145028728
 40
0.0237151955
 40
0.0488913885
 40
0.0829347853
 40
0.1255598754
 40
0.1763829174
 40
0.2349351644
 40
0.3006714028
 40
0.4511740297
 40
0.622261343
 40
0.8075176402
 40
1.0
 40
1.0
 40
1.0
 40
1.0
 10
12.2093250368
 20
-16.7552054488
 30
0.0
 10
12.2092311819
 20
-16.7554177814
 30
0.0
 10
12.208675952
 20
-16.755809632
 30
0.0
 10
12.2075660034
 20
-16.7562422646
 30
0.0
 10
12.20586537
 20
-16.7567028614
 30
0.0
 10
12.2024835097
 20
-16.7573836695
 30
0.0
 10
12.1968133969
 20
-16.758171427
 30
0.0
 10
12.1883519204
 20
-16.7590428834
 30
0.0
 10
12.1777333152
 20
-16.7598871337
 30
0.0
 10
12.1650612125
 20
-16.7606955353
 30
0.0
 10
12.1504521008
 20
-16.7614565027
 30
0.0
 10
12.1275174466
 20
-16.7624416402
 30
0.0
 10
12.0951759243
 20
-16.7634624153
 30
0.0
 10
12.0528436205
 20
-16.764352774
 30
0.0
 10
12.006998506
 20
-16.7649154377
 30
0.0
 10
11.9754427783
 20
-16.7650561876
 30
0.0
 10
11.959363113
 20
-16.7650672507
 30
0.0
  0
SPLINE
  5
57D
100
AcDbEntity
  8
RACCORDO
100
AcDbSpline
 62
250
  6
CONTINUOUS
 70
0
 71
3
 72
15
 73
11
 74
0
 42
0.0000001
 43
0.0000001
 44
0.0000000001
 40
0.0
 40
0.0
 40
0.0
 40
0.0
 40
0.1239885373
 40
0.2481852343
 40
0.3726975778
 40
0.4975792847
 40
0.6228289614
 40
0.7483896756
 40
0.8741566982
 40
1.0
 40
1.0
 40
1.0
 40
1.0
 10
12.2201328658
 20
-17.4642258507
 30
0.0
 10
12.2200834373
 20
-17.4802904371
 30
0.0
 10
12.2167668994
 20
-17.5125276273
 30
0.0
 10
12.20234643
 20
-17.5589295702
 30
0.0
 10
12.1790363363
 20
-17.6017144375
 30
0.0
 10
12.1477343517
 20
-17.6392203331
 30
0.0
 10
12.1096460722
 20
-17.6700229294
 30
0.0
 10
12.0662244565
 20
-17.6929466982
 30
0.0
 10
12.0191534995
 20
-17.7071212939
 30
0.0
 10
11.9864758456
 20
-17.710379119
 30
0.0
 10
11.970170942
 20
-17.710427789
 30
0.0
  0
SPLINE
  5
57E
100
AcDbEntity
  8
RACCORDO
100
AcDbSpline
 62
7
  6
CONTINUOUS
 70
0
 71
3
 72
14
 73
10
 74
0
 42
0.0000001
 43
0.0000001
 44
0.0000000001
 40
0.0
 40
0.0
 40
0.0
 40
0.0
 40
0.1013046776
 40
0.2055128922
 40
0.3150532931
 40
0.4322703123
 40
0.5592485002
 40
0.6973030567
 40
1.0
 40
1.0
 40
1.0
 40
1.0
 10
12.2821021535
 20
-18.0902250922
 30
0.0
 10
12.2818502252
 20
-18.1023379518
 30
0.0
 10
12.2787771696
 20
-18.1269282905
 30
0.0
 10
12.2665500584
 20
-18.1628235649
 30
0.0
 10
12.2465170802
 20
-18.1972585459
 30
0.0
 10
12.2184581278
 20
-18.2292536851
 30
0.0
 10
12.1821865598
 20
-18.2575412505
 30
0.0
 10
12.1216551894
 20
-18.2888980448
 30
0.0
 10
12.0683372287
 20
-18.2994435035
 30
0.0
 10
12.0321402297
 20
-18.2999735975
 30
0.0
  0
SPLINE
  5
57F
100
AcDbEntity
  8
RACCORDO
100
AcDbSpline
 62
7
  6
CONTINUOUS
 70
0
 71
3
 72
13
 73
9
 74
0
 42
0.0000001
 43
0.0000001
 44
0.0000000001
 40
0.0
 40
0.0
 40
0.0
 40
0.0
 40
0.2165188767
 40
0.4467531878
 40
0.5720008305
 40
0.7061180382
 40
0.8496815364
 40
1.0
 40
1.0
 40
1.0
 40
1.0
 10
12.2821021535
 20
-19.05
 30
0.0
 10
12.281611948
 20
-19.0219118692
 30
0.0
 10
12.2706845804
 20
-18.9637104224
 30
0.0
 10
12.2322684898
 20
-18.8983224215
 30
0.0
 10
12.1864218904
 20
-18.8538804614
 30
0.0
 10
12.1421796774
 20
-18.8253225297
 30
0.0
 10
12.0898352726
 20
-18.8055471067
 30
0.0
 10
12.0516404448
 20
-18.8003784019
 30
0.0
 10
12.0321402297
 20
-18.8000380762
 30
0.0
  0
SPLINE
  5
580
100
AcDbEntity
  8
RACCORDO
100
AcDbSpline
 62
7
  6
CONTINUOUS
 70
0
 71
3
 72
13
 73
9
 74
0
 42
0.0000001
 43
0.0000001
 44
0.0000000001
 40
0.0
 40
0.0
 40
0.0
 40
0.0
 40
0.2171542299
 40
0.4476638436
 40
0.5727646927
 40
0.7065231823
 40
0.8496713624
 40
1.0
 40
1.0
 40
1.0
 40
1.0
 10
12.273374621
 20
-19.05
 30
0.0
 10
12.2728918398
 20
-19.0223372655
 30
0.0
 10
12.2622914742
 20
-18.9650778929
 30
0.0
 10
12.2250670716
 20
-18.9005255195
 30
0.0
 10
12.1806415503
 20
-18.8563389755
 30
0.0
 10
12.1377852548
 20
-18.8276441567
 30
0.0
 10
12.0869186831
 20
-18.8071756907
 30
0.0
 10
12.0496235968
 20
-18.8011383033
 30
0.0
 10
12.0304907483
 20
-18.8002620025
 30
0.0
  0
SPLINE
  5
581
100
AcDbEntity
  8
RACCORDO
100
AcDbSpline
 62
7
  6
CONTINUOUS
 70
0
 71
3
 72
13
 73
9
 74
0
 42
0.0000001
 43
0.0000001
 44
0.0000000001
 40
0.0
 40
0.0
 40
0.0
 40
0.0
 40
0.2155826615
 40
0.4442876069
 40
0.567885149
 40
0.6999316481
 40
0.8429415235
 40
1.0
 40
1.0
 40
1.0
 40
1.0
 10
-12.364173313
 20
22.1077354931
 30
0.0
 10
-12.3631781453
 20
22.1357783092
 30
0.0
 10
-12.3505058759
 20
22.1936548011
 30
0.0
 10
-12.3092195594
 20
22.2570093107
 30
0.0
 10
-12.2616240465
 20
22.2988326561
 30
0.0
 10
-12.2164669052
 20
22.3251184762
 30
0.0
 10
-12.1627177457
 20
22.3429930715
 30
0.0
 10
-12.1234224826
 20
22.3468490928
 30
0.0
 10
-12.1029831154
 20
22.3464691432
 30
0.0
  0
SPLINE
  5
582
100
AcDbEntity
  8
RACCORDO
100
AcDbSpline
 62
250
  6
CONTINUOUS
 70
0
 71
3
 72
15
 73
11
 74
0
 42
0.0000001
 43
0.0000001
 44
0.0000000001
 40
0.0
 40
0.0
 40
0.0
 40
0.0
 40
0.1250095325
 40
0.2500155894
 40
0.3750180512
 40
0.5000173243
 40
0.6250140964
 40
0.7500093438
 40
0.8750042598
 40
1.0
 40
1.0
 40
1.0
 40
1.0
 10
11.8984438826
 20
-5.3711276635
 30
0.0
 10
11.8983241421
 20
-5.6724493261
 30
0.0
 10
11.8685180242
 20
-6.2754899153
 30
0.0
 10
11.7355343558
 20
-7.1709877014
 30
0.0
 10
11.5155500388
 20
-8.049237866
 30
0.0
 10
11.2106634745
 20
-8.9016943304
 30
0.0
 10
10.8237891663
 20
-9.7201905833
 30
0.0
 10
10.3585967448
 20
-10.4968669309
 30
0.0
 10
9.8196089165
 20
-11.2241630774
 30
0.0
 10
9.4143230049
 20
-11.6716254019
 30
0.0
 10
9.201348443
 20
-11.8847370182
 30
0.0
  0
SPLINE
  5
583
100
AcDbEntity
  8
RACCORDO
100
AcDbSpline
 62
250
  6
CONTINUOUS
 70
0
 71
3
 72
15
 73
11
 74
0
 42
0.0000001
 43
0.0000001
 44
0.0000000001
 40
0.0
 40
0.0
 40
0.0
 40
0.0
 40
0.0193315122
 40
0.0459989998
 40
0.1205403794
 40
0.2215022669
 40
0.3459940488
 40
0.490447048
 40
0.6507182588
 40
1.0
 40
1.0
 40
1.0
 40
1.0
 10
-11.970170986
 20
-17.7104283868
 30
0.0
 10
-11.9697199087
 20
-17.7043525397
 30
0.0
 10
-11.9689230432
 20
-17.6898754701
 30
0.0
 10
-11.967385148
 20
-17.6519168015
 30
0.0
 10
-11.9657163672
 20
-17.5882192368
 30
0.0
 10
-11.9639644021
 20
-17.4936885086
 30
0.0
 10
-11.9624337437
 20
-17.3771171354
 30
0.0
 10
-11.9611601436
 20
-17.2418501967
 30
0.0
 10
-11.9598373957
 20
-17.0357360206
 30
0.0
 10
-11.9594200163
 20
-16.8751437954
 30
0.0
 10
-11.9593631089
 20
-16.7650632919
 30
0.0
  0
SPLINE
  5
584
100
AcDbEntity
  8
RACCORDO
100
AcDbSpline
 62
250
  6
CONTINUOUS
 70
0
 71
3
 72
9
 73
5
 74
0
 42
0.0000001
 43
0.0000001
 44
0.0000000001
 40
0.0
 40
0.0
 40
0.0
 40
0.0
 40
0.2499949369
 40
1.0
 40
1.0
 40
1.0
 40
1.0
 10
11.8984438826
 20
5.3711276635
 30
0.0
 10
11.8987987705
 20
4.4759579064
 30
0.0
 10
11.8998633983
 20
0.8952062274
 30
0.0
 10
11.8995085749
 20
-2.6855458736
 30
0.0
 10
11.8984438826
 20
-5.3711276635
 30
0.0
  0
SPLINE
  5
585
100
AcDbEntity
  8
RACCORDO
100
AcDbSpline
 62
7
  6
CONTINUOUS
 70
0
 71
3
 72
15
 73
11
 74
0
 42
0.0000001
 43
0.0000001
 44
0.0000000001
 40
0.0
 40
0.0
 40
0.0
 40
0.0
 40
0.0207422616
 40
0.0492535893
 40
0.1281131536
 40
0.2330367393
 40
0.3598718998
 40
0.5042537835
 40
0.661847667
 40
1.0
 40
1.0
 40
1.0
 40
1.0
 10
-5.0180868004
 20
-17.710427789
 30
0.0
 10
-5.0148669889
 20
-17.7040867662
 30
0.0
 10
-5.0075242195
 20
-17.6888770977
 30
0.0
 10
-4.9890267091
 20
-17.6490371788
 30
0.0
 10
-4.9593568855
 20
-17.5825680217
 30
0.0
 10
-4.9167233472
 20
-17.4849761173
 30
0.0
 10
-4.8657600639
 20
-17.3665091204
 30
0.0
 10
-4.8081827109
 20
-17.2312307955
 30
0.0
 10
-4.7228603556
 20
-17.0290209733
 30
0.0
 10
-4.657401296
 20
-16.8721595599
 30
0.0
 10
-4.6129832711
 20
-16.765067253
 30
0.0
  0
SPLINE
  5
586
100
AcDbEntity
  8
RACCORDO
100
AcDbSpline
 62
250
  6
CONTINUOUS
 70
0
 71
3
 72
25
 73
21
 74
0
 42
0.0000001
 43
0.0000001
 44
0.0000000001
 40
0.0
 40
0.0
 40
0.0
 40
0.0
 40
0.1952695648
 40
0.3822515625
 40
0.4704846332
 40
0.5541259784
 40
0.6324117491
 40
0.7046273557
 40
0.7701142373
 40
0.8282762109
 40
0.8785854317
 40
0.9205883077
 40
0.9383554329
 40
0.9539129457
 40
0.9672291738
 40
0.9782790407
 40
0.9870473934
 40
0.9935349803
 40
0.99778087
 40
1.0
 40
1.0
 40
1.0
 40
1.0
 10
-2.7478697847
 20
-18.6355418578
 30
0.0
 10
-2.7926047089
 20
-18.6801665857
 30
0.0
 10
-2.8804313332
 20
-18.7672664783
 30
0.0
 10
-2.9891849331
 20
-18.8738074599
 30
0.0
 10
-3.0725673767
 20
-18.9546260612
 30
0.0
 10
-3.1309113965
 20
-19.010739531
 30
0.0
 10
-3.1857475039
 20
-19.0630223216
 30
0.0
 10
-3.2365733714
 20
-19.1109968824
 30
0.0
 10
-3.282923022
 20
-19.1542254198
 30
0.0
 10
-3.3243704335
 20
-19.1923153592
 30
0.0
 10
-3.3605349286
 20
-19.2249199316
 30
0.0
 10
-3.3872959061
 20
-19.2484319299
 30
0.0
 10
-3.4058526308
 20
-19.2642365291
 30
0.0
 10
-3.4174685037
 20
-19.2738757153
 30
0.0
 10
-3.4275426626
 20
-19.2819572188
 30
0.0
 10
-3.4360749035
 20
-19.2884737454
 30
0.0
 10
-3.4429793367
 20
-19.2933976802
 30
0.0
 10
-3.4484046465
 20
-19.2967912085
 30
0.0
 10
-3.4520105716
 20
-19.298597046
 30
0.0
 10
-3.4543234147
 20
-19.2991247884
 30
0.0
 10
-3.4549496355
 20
-19.2987733748
 30
0.0
  0
SPLINE
  5
587
100
AcDbEntity
  8
RACCORDO
100
AcDbSpline
 62
7
  6
CONTINUOUS
 70
0
 71
3
 72
11
 73
7
 74
0
 42
0.0000001
 43
0.0000001
 44
0.0000000001
 40
0.0
 40
0.0
 40
0.0
 40
0.0
 40
0.2401184538
 40
0.4692797498
 40
0.715524024
 40
1.0
 40
1.0
 40
1.0
 40
1.0
 10
5.005734279
 20
-17.710427789
 30
0.0
 10
5.0069748106
 20
-17.7128708633
 30
0.0
 10
5.0087443915
 20
-17.7180566866
 30
0.0
 10
5.0083362369
 20
-17.7263992768
 30
0.0
 10
5.0048717207
 20
-17.7345000172
 30
0.0
 10
5.0010944804
 20
-17.7393015758
 30
0.0
 10
4.9988838021
 20
-17.7416786313
 30
0.0
  0
SPLINE
  5
588
100
AcDbEntity
  8
RACCORDO
100
AcDbSpline
 62
250
  6
CONTINUOUS
 70
0
 71
3
 72
25
 73
21
 74
0
 42
0.0000001
 43
0.0000001
 44
0.0000000001
 40
0.0
 40
0.0
 40
0.0
 40
0.0
 40
0.1952695646
 40
0.3822515624
 40
0.4704846332
 40
0.5541259785
 40
0.6324117493
 40
0.704627356
 40
0.7701142376
 40
0.8282762113
 40
0.8785854321
 40
0.9205883081
 40
0.9383554332
 40
0.9539129461
 40
0.9672291741
 40
0.978279041
 40
0.9870473936
 40
0.9935349805
 40
0.99778087
 40
1.0
 40
1.0
 40
1.0
 40
1.0
 10
2.7355172633
 20
-18.6355418579
 30
0.0
 10
2.7802521879
 20
-18.6801665862
 30
0.0
 10
2.8680788129
 20
-18.7672664795
 30
0.0
 10
2.9768324137
 20
-18.873807462
 30
0.0
 10
3.0602148581
 20
-18.954626064
 30
0.0
 10
3.1185588784
 20
-19.0107395344
 30
0.0
 10
3.1733949863
 20
-19.0630223255
 30
0.0
 10
3.2242208543
 20
-19.1109968868
 30
0.0
 10
3.2705705053
 20
-19.1542254247
 30
0.0
 10
3.3120179172
 20
-19.1923153644
 30
0.0
 10
3.3481824127
 20
-19.2249199371
 30
0.0
 10
3.3749433904
 20
-19.2484319357
 30
0.0
 10
3.3935001153
 20
-19.2642365349
 30
0.0
 10
3.4051159883
 20
-19.2738757212
 30
0.0
 10
3.4151901472
 20
-19.2819572248
 30
0.0
 10
3.4237223881
 20
-19.2884737514
 30
0.0
 10
3.4306268213
 20
-19.2933976862
 30
0.0
 10
3.4360521311
 20
-19.2967912145
 30
0.0
 10
3.4396580562
 20
-19.298597052
 30
0.0
 10
3.4419708993
 20
-19.2991247943
 30
0.0
 10
3.4425971201
 20
-19.2987733807
 30
0.0
  0
SPLINE
  5
589
100
AcDbEntity
  8
RACCORDO
100
AcDbSpline
 62
7
  6
CONTINUOUS
 70
0
 71
3
 72
11
 73
7
 74
0
 42
0.0000001
 43
0.0000001
 44
0.0000000001
 40
0.0
 40
0.0
 40
0.0
 40
0.0
 40
0.284475976
 40
0.5307202502
 40
0.7598815462
 40
1.0
 40
1.0
 40
1.0
 40
1.0
 10
4.9988838021
 20
17.7416786314
 30
0.0
 10
5.0010944804
 20
17.7393015758
 30
0.0
 10
5.0048717207
 20
17.7345000172
 30
0.0
 10
5.0083362369
 20
17.7263992768
 30
0.0
 10
5.0087443915
 20
17.7180566866
 30
0.0
 10
5.0069748106
 20
17.7128708633
 30
0.0
 10
5.005734279
 20
17.710427789
 30
0.0
  0
SPLINE
  5
58A
100
AcDbEntity
  8
RACCORDO
100
AcDbSpline
 62
7
  6
CONTINUOUS
 70
0
 71
3
 72
15
 73
11
 74
0
 42
0.0000001
 43
0.0000001
 44
0.0000000001
 40
0.0
 40
0.0
 40
0.0
 40
0.0
 40
0.0207422616
 40
0.0492535893
 40
0.1281131536
 40
0.2330367393
 40
0.3598718998
 40
0.5042537835
 40
0.661847667
 40
1.0
 40
1.0
 40
1.0
 40
1.0
 10
5.005734279
 20
-17.710427789
 30
0.0
 10
5.0025144676
 20
-17.7040867662
 30
0.0
 10
4.9951716982
 20
-17.6888770977
 30
0.0
 10
4.9766741878
 20
-17.6490371788
 30
0.0
 10
4.9470043642
 20
-17.5825680217
 30
0.0
 10
4.9043708259
 20
-17.4849761173
 30
0.0
 10
4.8534075426
 20
-17.3665091204
 30
0.0
 10
4.7958301895
 20
-17.2312307955
 30
0.0
 10
4.7105078343
 20
-17.0290209733
 30
0.0
 10
4.6450487746
 20
-16.8721595599
 30
0.0
 10
4.6006307497
 20
-16.765067253
 30
0.0
  0
SPLINE
  5
58B
100
AcDbEntity
  8
RACCORDO
100
AcDbSpline
 62
250
  6
CONTINUOUS
 70
0
 71
3
 72
15
 73
11
 74
0
 42
0.0000001
 43
0.0000001
 44
0.0000000001
 40
0.0
 40
0.0
 40
0.0
 40
0.0
 40
0.3492817412
 40
0.509552952
 40
0.6540059512
 40
0.7784977331
 40
0.8794596206
 40
0.9540010002
 40
0.9806684878
 40
1.0
 40
1.0
 40
1.0
 40
1.0
 10
11.9593631089
 20
-16.7650632919
 30
0.0
 10
11.9594200163
 20
-16.8751437954
 30
0.0
 10
11.9598373957
 20
-17.0357360206
 30
0.0
 10
11.9611601436
 20
-17.2418501967
 30
0.0
 10
11.9624337437
 20
-17.3771171353
 30
0.0
 10
11.9639644021
 20
-17.4936885085
 30
0.0
 10
11.9657163672
 20
-17.5882192368
 30
0.0
 10
11.967385148
 20
-17.6519168015
 30
0.0
 10
11.9689230432
 20
-17.6898754701
 30
0.0
 10
11.9697199087
 20
-17.7043525396
 30
0.0
 10
11.970170986
 20
-17.7104283868
 30
0.0
  0
SPLINE
  5
58C
100
AcDbEntity
  8
RACCORDO
100
AcDbSpline
 62
250
  6
CONTINUOUS
 70
0
 71
3
 72
15
 73
11
 74
0
 42
0.0000001
 43
0.0000001
 44
0.0000000001
 40
0.0
 40
0.0
 40
0.0
 40
0.0
 40
0.0193315122
 40
0.0459989998
 40
0.1205403794
 40
0.2215022669
 40
0.3459940488
 40
0.490447048
 40
0.6507182588
 40
1.0
 40
1.0
 40
1.0
 40
1.0
 10
11.970170986
 20
17.7104283868
 30
0.0
 10
11.9697199087
 20
17.7043525397
 30
0.0
 10
11.9689230432
 20
17.6898754701
 30
0.0
 10
11.967385148
 20
17.6519168015
 30
0.0
 10
11.9657163672
 20
17.5882192368
 30
0.0
 10
11.9639644021
 20
17.4936885086
 30
0.0
 10
11.9624337437
 20
17.3771171354
 30
0.0
 10
11.9611601436
 20
17.2418501967
 30
0.0
 10
11.9598373957
 20
17.0357360206
 30
0.0
 10
11.9594200163
 20
16.8751437954
 30
0.0
 10
11.9593631089
 20
16.7650632919
 30
0.0
  0
SPLINE
  5
58D
100
AcDbEntity
  8
RACCORDO
100
AcDbSpline
 62
7
  6
CONTINUOUS
 70
0
 71
3
 72
15
 73
11
 74
0
 42
0.0000001
 43
0.0000001
 44
0.0000000001
 40
0.0
 40
0.0
 40
0.0
 40
0.0
 40
0.0207422616
 40
0.0492535893
 40
0.1281131536
 40
0.2330367393
 40
0.3598718998
 40
0.5042537835
 40
0.661847667
 40
1.0
 40
1.0
 40
1.0
 40
1.0
 10
5.005734279
 20
17.710427789
 30
0.0
 10
5.0025144676
 20
17.7040867662
 30
0.0
 10
4.9951716982
 20
17.6888770977
 30
0.0
 10
4.9766741878
 20
17.6490371788
 30
0.0
 10
4.9470043642
 20
17.5825680217
 30
0.0
 10
4.9043708258
 20
17.4849761173
 30
0.0
 10
4.8534075426
 20
17.3665091204
 30
0.0
 10
4.7958301895
 20
17.2312307955
 30
0.0
 10
4.7105078341
 20
17.0290209734
 30
0.0
 10
4.6450487746
 20
16.8721595599
 30
0.0
 10
4.6006307497
 20
16.765067253
 30
0.0
  0
SPLINE
  5
58E
100
AcDbEntity
  8
RACCORDO
100
AcDbSpline
 62
250
  6
CONTINUOUS
 70
0
 71
3
 72
25
 73
21
 74
0
 42
0.0000001
 43
0.0000001
 44
0.0000000001
 40
0.0
 40
0.0
 40
0.0
 40
0.0
 40
0.1952695648
 40
0.3822515625
 40
0.4704846332
 40
0.5541259784
 40
0.6324117491
 40
0.7046273557
 40
0.7701142373
 40
0.8282762109
 40
0.8785854317
 40
0.9205883077
 40
0.9383554329
 40
0.9539129457
 40
0.9672291738
 40
0.9782790407
 40
0.9870473934
 40
0.9935349803
 40
0.99778087
 40
1.0
 40
1.0
 40
1.0
 40
1.0
 10
2.7355172633
 20
18.6355418578
 30
0.0
 10
2.7802521876
 20
18.6801665857
 30
0.0
 10
2.8680788119
 20
18.7672664783
 30
0.0
 10
2.9768324118
 20
18.8738074599
 30
0.0
 10
3.0602148554
 20
18.9546260612
 30
0.0
 10
3.1185588752
 20
19.010739531
 30
0.0
 10
3.1733949825
 20
19.0630223216
 30
0.0
 10
3.22422085
 20
19.1109968824
 30
0.0
 10
3.2705705007
 20
19.1542254198
 30
0.0
 10
3.3120179122
 20
19.1923153592
 30
0.0
 10
3.3481824073
 20
19.2249199316
 30
0.0
 10
3.3749433848
 20
19.2484319299
 30
0.0
 10
3.3935001095
 20
19.2642365291
 30
0.0
 10
3.4051159824
 20
19.2738757153
 30
0.0
 10
3.4151901413
 20
19.2819572188
 30
0.0
 10
3.4237223822
 20
19.2884737454
 30
0.0
 10
3.4306268153
 20
19.2933976802
 30
0.0
 10
3.4360521251
 20
19.2967912085
 30
0.0
 10
3.4396580503
 20
19.298597046
 30
0.0
 10
3.4419708933
 20
19.2991247884
 30
0.0
 10
3.4425971142
 20
19.2987733748
 30
0.0
  0
SPLINE
  5
58F
100
AcDbEntity
  8
RACCORDO
100
AcDbSpline
 62
7
  6
CONTINUOUS
 70
0
 71
3
 72
11
 73
7
 74
0
 42
0.0000001
 43
0.0000001
 44
0.0000000001
 40
0.0
 40
0.0
 40
0.0
 40
0.0
 40
0.2401184538
 40
0.4692797498
 40
0.715524024
 40
1.0
 40
1.0
 40
1.0
 40
1.0
 10
-5.0180868004
 20
17.710427789
 30
0.0
 10
-5.0193273319
 20
17.7128708633
 30
0.0
 10
-5.0210969128
 20
17.7180566866
 30
0.0
 10
-5.0206887582
 20
17.7263992768
 30
0.0
 10
-5.017224242
 20
17.7345000172
 30
0.0
 10
-5.0134470017
 20
17.7393015758
 30
0.0
 10
-5.0112363234
 20
17.7416786314
 30
0.0
  0
SPLINE
  5
590
100
AcDbEntity
  8
RACCORDO
100
AcDbSpline
 62
250
  6
CONTINUOUS
 70
0
 71
3
 72
25
 73
21
 74
0
 42
0.0000001
 43
0.0000001
 44
0.0000000001
 40
0.0
 40
0.0
 40
0.0
 40
0.0
 40
0.1952695646
 40
0.3822515624
 40
0.4704846332
 40
0.5541259785
 40
0.6324117493
 40
0.704627356
 40
0.7701142376
 40
0.8282762113
 40
0.8785854321
 40
0.9205883081
 40
0.9383554332
 40
0.9539129461
 40
0.9672291741
 40
0.978279041
 40
0.9870473936
 40
0.9935349805
 40
0.99778087
 40
1.0
 40
1.0
 40
1.0
 40
1.0
 10
-2.7478697847
 20
18.6355418579
 30
0.0
 10
-2.7926047092
 20
18.6801665862
 30
0.0
 10
-2.8804313343
 20
18.7672664795
 30
0.0
 10
-2.9891849351
 20
18.873807462
 30
0.0
 10
-3.0725673794
 20
18.954626064
 30
0.0
 10
-3.1309113997
 20
19.0107395344
 30
0.0
 10
-3.1857475076
 20
19.0630223255
 30
0.0
 10
-3.2365733756
 20
19.1109968868
 30
0.0
 10
-3.2829230267
 20
19.1542254247
 30
0.0
 10
-3.3243704386
 20
19.1923153644
 30
0.0
 10
-3.360534934
 20
19.2249199371
 30
0.0
 10
-3.3872959118
 20
19.2484319357
 30
0.0
 10
-3.4058526366
 20
19.2642365349
 30
0.0
 10
-3.4174685096
 20
19.2738757212
 30
0.0
 10
-3.4275426685
 20
19.2819572248
 30
0.0
 10
-3.4360749095
 20
19.2884737514
 30
0.0
 10
-3.4429793427
 20
19.2933976862
 30
0.0
 10
-3.4484046525
 20
19.2967912145
 30
0.0
 10
-3.4520105775
 20
19.298597052
 30
0.0
 10
-3.4543234206
 20
19.2991247943
 30
0.0
 10
-3.4549496414
 20
19.2987733807
 30
0.0
  0
SPLINE
  5
591
100
AcDbEntity
  8
RACCORDO
100
AcDbSpline
 62
7
  6
CONTINUOUS
 70
0
 71
3
 72
15
 73
11
 74
0
 42
0.0000001
 43
0.0000001
 44
0.0000000001
 40
0.0
 40
0.0
 40
0.0
 40
0.0
 40
0.0207422616
 40
0.0492535893
 40
0.1281131536
 40
0.2330367393
 40
0.3598718998
 40
0.5042537835
 40
0.661847667
 40
1.0
 40
1.0
 40
1.0
 40
1.0
 10
-5.0180868004
 20
17.710427789
 30
0.0
 10
-5.0148669889
 20
17.7040867662
 30
0.0
 10
-5.0075242195
 20
17.6888770977
 30
0.0
 10
-4.9890267091
 20
17.6490371788
 30
0.0
 10
-4.9593568855
 20
17.5825680217
 30
0.0
 10
-4.9167233472
 20
17.4849761173
 30
0.0
 10
-4.8657600639
 20
17.3665091204
 30
0.0
 10
-4.8081827109
 20
17.2312307955
 30
0.0
 10
-4.7228603555
 20
17.0290209734
 30
0.0
 10
-4.657401296
 20
16.8721595599
 30
0.0
 10
-4.6129832711
 20
16.765067253
 30
0.0
  0
SPLINE
  5
592
100
AcDbEntity
  8
RACCORDO
100
AcDbSpline
 62
250
  6
CONTINUOUS
 70
0
 71
3
 72
15
 73
11
 74
0
 42
0.0000001
 43
0.0000001
 44
0.0000000001
 40
0.0
 40
0.0
 40
0.0
 40
0.0
 40
0.3492817412
 40
0.509552952
 40
0.6540059512
 40
0.7784977331
 40
0.8794596206
 40
0.9540010002
 40
0.9806684878
 40
1.0
 40
1.0
 40
1.0
 40
1.0
 10
-11.9593631089
 20
16.7650632919
 30
0.0
 10
-11.9594200163
 20
16.8751437954
 30
0.0
 10
-11.9598373957
 20
17.0357360206
 30
0.0
 10
-11.9611601436
 20
17.2418501967
 30
0.0
 10
-11.9624337437
 20
17.3771171353
 30
0.0
 10
-11.9639644021
 20
17.4936885085
 30
0.0
 10
-11.9657163672
 20
17.5882192368
 30
0.0
 10
-11.967385148
 20
17.6519168015
 30
0.0
 10
-11.9689230432
 20
17.6898754701
 30
0.0
 10
-11.9697199087
 20
17.7043525396
 30
0.0
 10
-11.970170986
 20
17.7104283868
 30
0.0
  0
LINE
  5
593
100
AcDbEntity
  8
RACCORDO
100
AcDbLine
 62
250
  6
CONTINUOUS
 10
-3.4549524011
 20
19.2987706195
 11
-5.0112363234
 21
17.7416786314
  0
LINE
  5
594
100
AcDbEntity
  8
RACCORDO
100
AcDbLine
 62
250
  6
CONTINUOUS
 10
4.9988838021
 20
17.7416786314
 11
3.4425995215
 21
19.298770978
  0
LINE
  5
595
100
AcDbEntity
  8
RACCORDO
100
AcDbLine
 62
250
  6
CONTINUOUS
 10
3.4425998798
 20
-19.2987706195
 11
4.9988838021
 21
-17.7416786313
  0
LINE
  5
596
100
AcDbEntity
  8
RACCORDO
100
AcDbLine
 62
250
  6
CONTINUOUS
 10
-5.0112363234
 20
-17.7416786313
 11
-3.4549520429
 21
-19.298770978
  0
SPLINE
  5
597
100
AcDbEntity
  8
RACCORDO
100
AcDbSpline
 62
250
  6
CONTINUOUS
 70
0
 71
3
 72
9
 73
5
 74
0
 42
0.0000001
 43
0.0000001
 44
0.0000000001
 40
0.0
 40
0.0
 40
0.0
 40
0.0
 40
0.2500251218
 40
1.0
 40
1.0
 40
1.0
 40
1.0
 10
8.6359395914
 20
-11.2969620101
 30
0.0
 10
8.0846839785
 20
-11.8475330942
 30
0.0
 10
5.8797878215
 20
-14.0495007707
 30
0.0
 10
3.6745106547
 20
-16.2510869306
 30
0.0
 10
2.0203938391
 20
-17.9020064632
 30
0.0
  0
SPLINE
  5
598
100
AcDbEntity
  8
RACCORDO
100
AcDbSpline
 62
250
  6
CONTINUOUS
 70
0
 71
3
 72
9
 73
5
 74
0
 42
0.0000001
 43
0.0000001
 44
0.0000000001
 40
0.0
 40
0.0
 40
0.0
 40
0.0
 40
0.2499729589
 40
1.0
 40
1.0
 40
1.0
 40
1.0
 10
-2.0203935003
 20
-17.9020068013
 30
0.0
 10
-2.571724608
 20
-17.351741375
 30
0.0
 10
-4.7771923329
 20
-15.1503461159
 30
0.0
 10
-6.9822790264
 20
-12.9485691206
 30
0.0
 10
-8.6359393416
 20
-11.2969622595
 30
0.0
  0
SPLINE
  5
599
100
AcDbEntity
  8
RACCORDO
100
AcDbSpline
 62
250
  6
CONTINUOUS
 70
0
 71
3
 72
9
 73
5
 74
0
 42
0.0000001
 43
0.0000001
 44
0.0000000001
 40
0.0
 40
0.0
 40
0.0
 40
0.0
 40
0.2499949369
 40
1.0
 40
1.0
 40
1.0
 40
1.0
 10
11.0988386353
 20
5.3610136985
 30
0.0
 10
11.0991935229
 20
4.4675295972
 30
0.0
 10
11.1002581497
 20
0.8935206782
 30
0.0
 10
11.0999033269
 20
-2.6804886637
 30
0.0
 10
11.0988386354
 20
-5.3610133494
 30
0.0
  0
SPLINE
  5
59A
100
AcDbEntity
  8
RACCORDO
100
AcDbSpline
 62
250
  6
CONTINUOUS
 70
0
 71
3
 72
9
 73
5
 74
0
 42
0.0000001
 43
0.0000001
 44
0.0000000001
 40
0.0
 40
0.0
 40
0.0
 40
0.0
 40
0.2499949369
 40
1.0
 40
1.0
 40
1.0
 40
1.0
 10
-11.0988386353
 20
-5.3610136985
 30
0.0
 10
-11.0991935229
 20
-4.4675295972
 30
0.0
 10
-11.1002581497
 20
-0.8935206782
 30
0.0
 10
-11.0999033269
 20
2.6804886637
 30
0.0
 10
-11.0988386354
 20
5.3610133494
 30
0.0
  0
SPLINE
  5
59B
100
AcDbEntity
  8
RACCORDO
100
AcDbSpline
 62
250
  6
CONTINUOUS
 70
0
 71
3
 72
9
 73
5
 74
0
 42
0.0000001
 43
0.0000001
 44
0.0000000001
 40
0.0
 40
0.0
 40
0.0
 40
0.0
 40
0.2499729589
 40
1.0
 40
1.0
 40
1.0
 40
1.0
 10
2.0203935003
 20
17.9020068013
 30
0.0
 10
2.571724608
 20
17.351741375
 30
0.0
 10
4.7771923329
 20
15.1503461159
 30
0.0
 10
6.9822790264
 20
12.9485691207
 30
0.0
 10
8.6359393416
 20
11.2969622595
 30
0.0
  0
SPLINE
  5
59C
100
AcDbEntity
  8
RACCORDO
100
AcDbSpline
 62
250
  6
CONTINUOUS
 70
0
 71
3
 72
9
 73
5
 74
0
 42
0.0000001
 43
0.0000001
 44
0.0000000001
 40
0.0
 40
0.0
 40
0.0
 40
0.0
 40
0.2500251218
 40
1.0
 40
1.0
 40
1.0
 40
1.0
 10
-8.6359395914
 20
11.2969620101
 30
0.0
 10
-8.0846839784
 20
11.8475330942
 30
0.0
 10
-5.8797878215
 20
14.0495007707
 30
0.0
 10
-3.6745106547
 20
16.2510869306
 30
0.0
 10
-2.0203938391
 20
17.9020064632
 30
0.0
  0
SPLINE
  5
59D
100
AcDbEntity
  8
RACCORDO
100
AcDbSpline
 62
250
  6
CONTINUOUS
 70
0
 71
3
 72
15
 73
11
 74
0
 42
0.0000001
 43
0.0000001
 44
0.0000000001
 40
0.0
 40
0.0
 40
0.0
 40
0.0
 40
0.1249957404
 40
0.2499906564
 40
0.3749859038
 40
0.4999826759
 40
0.624981949
 40
0.7499844109
 40
0.8749904677
 40
1.0
 40
1.0
 40
1.0
 40
1.0
 10
9.201348443
 20
11.8847370182
 30
0.0
 10
9.4143229874
 20
11.6716253837
 30
0.0
 10
9.8196089222
 20
11.224163082
 30
0.0
 10
10.3585967436
 20
10.4968669273
 30
0.0
 10
10.8237891674
 20
9.720190582
 30
0.0
 10
11.2106634752
 20
8.9016943286
 30
0.0
 10
11.5155500389
 20
8.0492378643
 30
0.0
 10
11.7355343591
 20
7.1709876996
 30
0.0
 10
11.8685180171
 20
6.2754899145
 30
0.0
 10
11.8983241671
 20
5.6724493256
 30
0.0
 10
11.8984438826
 20
5.3711276635
 30
0.0
  0
SPLINE
  5
59E
100
AcDbEntity
  8
RACCORDO
100
AcDbSpline
 62
250
  6
CONTINUOUS
 70
0
 71
3
 72
9
 73
5
 74
0
 42
0.0000001
 43
0.0000001
 44
0.0000000001
 40
0.0
 40
0.0
 40
0.0
 40
0.0
 40
0.2499729079
 40
1.0
 40
1.0
 40
1.0
 40
1.0
 10
2.5857972891
 20
18.5022433468
 30
0.0
 10
3.1371289068
 20
17.9509396634
 30
0.0
 10
5.3425989423
 20
15.7453904761
 30
0.0
 10
7.5476872266
 20
13.5394595514
 30
0.0
 10
9.201348443
 20
11.8847370182
 30
0.0
  0
SPLINE
  5
59F
100
AcDbEntity
  8
RACCORDO
100
AcDbSpline
 62
250
  6
CONTINUOUS
 70
0
 71
3
 72
21
 73
17
 74
0
 42
0.0000001
 43
0.0000001
 44
0.0000000001
 40
0.0
 40
0.0
 40
0.0
 40
0.0
 40
0.0625032729
 40
0.1250114521
 40
0.1875249884
 40
0.2500434119
 40
0.3125661505
 40
0.3750923704
 40
0.5000000006
 40
0.6249076308
 40
0.6874338508
 40
0.7499565893
 40
0.8124750129
 40
0.8749885493
 40
0.937496728
 40
1.0
 40
1.0
 40
1.0
 40
1.0
 10
-2.5857972891
 20
18.5022433468
 30
0.0
 10
-2.5012239012
 20
18.5868119919
 30
0.0
 10
-2.3236573572
 20
18.7477769282
 30
0.0
 10
-2.0350419601
 20
18.9619164878
 30
0.0
 10
-1.7267872748
 20
19.1467993993
 30
0.0
 10
-1.401889839
 20
19.300592742
 30
0.0
 10
-1.0634216996
 20
19.4218036788
 30
0.0
 10
-0.59887055
 20
19.5383198669
 30
0.0
 10
0.000000004
 20
19.5974868672
 30
0.0
 10
0.5988705582
 20
19.5383198666
 30
0.0
 10
1.0634217075
 20
19.4218036779
 30
0.0
 10
1.4018898471
 20
19.3005927411
 30
0.0
 10
1.7267872823
 20
19.1467993976
 30
0.0
 10
2.0350419694
 20
18.9619164871
 30
0.0
 10
2.3236573485
 20
18.7477769132
 30
0.0
 10
2.50122393
 20
18.5868120182
 30
0.0
 10
2.5857972891
 20
18.5022433468
 30
0.0
  0
SPLINE
  5
5A0
100
AcDbEntity
  8
0
100
AcDbSpline
 62
7
  6
CONTINUOUS
 70
0
 71
3
 72
9
 73
5
 74
0
 42
0.0000001
 43
0.0000001
 44
0.0000000001
 40
0.0
 40
0.0
 40
0.0
 40
0.0
 40
0.2389958597
 40
1.0
 40
1.0
 40
1.0
 40
1.0
 10
-2.0183980369
 20
-9.4273248406
 30
0.0
 10
-2.039014472
 20
-9.4435758344
 30
0.0
 10
-2.1269917577
 20
-9.5093539701
 30
0.0
 10
-2.2221079024
 20
-9.565711932
 30
0.0
 10
-2.2974648465
 20
-9.6018839199
 30
0.0
  0
SPLINE
  5
5A1
100
AcDbEntity
  8
0
100
AcDbSpline
 62
250
  6
CONTINUOUS
 70
0
 71
3
 72
9
 73
5
 74
0
 42
0.0000001
 43
0.0000001
 44
0.0000000001
 40
0.0
 40
0.0
 40
0.0
 40
0.0
 40
0.2367298799
 40
1.0
 40
1.0
 40
1.0
 40
1.0
 10
-1.9847795066
 20
-9.1808984452
 30
0.0
 10
-2.0084048647
 20
-9.1966079008
 30
0.0
 10
-2.1090154048
 20
-9.2617192332
 30
0.0
 10
-2.2135263945
 20
-9.3209736681
 30
0.0
 10
-2.295594329
 20
-9.3613809831
 30
0.0
  0
SPLINE
  5
5A2
100
AcDbEntity
  8
0
100
AcDbSpline
 62
250
  6
CONTINUOUS
 70
0
 71
3
 72
9
 73
5
 74
0
 42
0.0000001
 43
0.0000001
 44
0.0000000001
 40
0.0
 40
0.0
 40
0.0
 40
0.0
 40
0.2361657132
 40
1.0
 40
1.0
 40
1.0
 40
1.0
 10
-1.9745909569
 20
-9.190747941
 30
0.0
 10
-1.9989358324
 20
-9.2072453355
 30
0.0
 10
-2.1029409296
 20
-9.2757082587
 30
0.0
 10
-2.211354709
 20
-9.3376706506
 30
0.0
 10
-2.296708275
 20
-9.3796426579
 30
0.0
  0
SPLINE
  5
5A3
100
AcDbEntity
  8
0
100
AcDbSpline
 62
7
  6
CONTINUOUS
 70
0
 71
3
 72
9
 73
5
 74
0
 42
0.0000001
 43
0.0000001
 44
0.0000000001
 40
0.0
 40
0.0
 40
0.0
 40
0.0
 40
0.4989906238
 40
1.0
 40
1.0
 40
1.0
 40
1.0
 10
0.0
 20
-11.6066895184
 30
0.0
 10
0.2688513097
 20
-11.6066606586
 30
0.0
 10
0.8097270443
 20
-11.5370037454
 30
0.0
 10
1.3156731555
 20
-11.3326055278
 30
0.0
 10
1.5504346818
 20
-11.1993610641
 30
0.0
  0
SPLINE
  5
5A4
100
AcDbEntity
  8
0
100
AcDbSpline
 62
7
  6
CONTINUOUS
 70
0
 71
3
 72
9
 73
5
 74
0
 42
0.0000001
 43
0.0000001
 44
0.0000000001
 40
0.0
 40
0.0
 40
0.0
 40
0.0
 40
0.5003065582
 40
1.0
 40
1.0
 40
1.0
 40
1.0
 10
-1.5481060119
 20
-11.2013815575
 30
0.0
 10
-1.3138947728
 20
-11.3338628542
 30
0.0
 10
-0.8086849744
 20
-11.5373532907
 30
0.0
 10
-0.26875424
 20
-11.6067183811
 30
0.0
 10
0.0
 20
-11.6066895184
 30
0.0
  0
SPLINE
  5
5A5
100
AcDbEntity
  8
0
100
AcDbSpline
 62
7
  6
CONTINUOUS
 70
0
 71
3
 72
12
 73
8
 74
0
 42
0.0000001
 43
0.0000001
 44
0.0000000001
 40
0.0
 40
0.0
 40
0.0
 40
0.0
 40
0.2421174709
 40
0.4786349772
 40
0.7257725116
 40
0.8585546375
 40
1.0
 40
1.0
 40
1.0
 40
1.0
 10
0.0
 20
-7.9933104816
 30
0.0
 10
-0.1996093342
 20
-7.9932890446
 30
0.0
 10
-0.5952337215
 20
-8.0311500527
 30
0.0
 10
-1.1730081529
 20
-8.1982572416
 30
0.0
 10
-1.6287665571
 20
-8.4313782281
 30
0.0
 10
-1.9773843853
 20
-8.6839731996
 30
0.0
 10
-2.1446459271
 20
-8.8370184677
 30
0.0
 10
-2.2260710247
 20
-8.9204949545
 30
0.0
  0
SPLINE
  5
5A6
100
AcDbEntity
  8
0
100
AcDbSpline
 62
7
  6
CONTINUOUS
 70
0
 71
3
 72
12
 73
8
 74
0
 42
0.0000001
 43
0.0000001
 44
0.0000000001
 40
0.0
 40
0.0
 40
0.0
 40
0.0
 40
0.1417098015
 40
0.2747303824
 40
0.5221163889
 40
0.7585076948
 40
1.0
 40
1.0
 40
1.0
 40
1.0
 10
2.2265592832
 20
-8.9223259448
 30
0.0
 10
2.1450040845
 20
-8.8385867198
 30
0.0
 10
1.9774499556
 20
-8.6850671365
 30
0.0
 10
1.6282799699
 20
-8.4317904572
 30
0.0
 10
1.1720730309
 20
-8.1982735697
 30
0.0
 10
0.5943960089
 20
-8.0311783383
 30
0.0
 10
0.1991977902
 20
-7.9933318644
 30
0.0
 10
0.0
 20
-7.9933104816
 30
0.0
  0
SPLINE
  5
5A7
100
AcDbEntity
  8
0
100
AcDbSpline
 62
250
  6
CONTINUOUS
 70
0
 71
3
 72
12
 73
8
 74
0
 42
0.0000001
 43
0.0000001
 44
0.0000000001
 40
0.0
 40
0.0
 40
0.0
 40
0.0
 40
0.2412858729
 40
0.4775012826
 40
0.7248868344
 40
0.8580434282
 40
1.0
 40
1.0
 40
1.0
 40
1.0
 10
0.0
 20
-11.2423074121
 30
0.0
 10
0.1770306631
 20
-11.242296575
 30
0.0
 10
0.5283081459
 20
-11.2082977703
 30
0.0
 10
1.0413336021
 20
-11.0575607583
 30
0.0
 10
1.445768183
 20
-10.8472368719
 30
0.0
 10
1.7551737306
 20
-10.6198845957
 30
0.0
 10
1.9036203764
 20
-10.4822800349
 30
0.0
 10
1.975862301
 20
-10.4072535878
 30
0.0
  0
SPLINE
  5
5A8
100
AcDbEntity
  8
0
100
AcDbSpline
 62
250
  6
CONTINUOUS
 70
0
 71
3
 72
12
 73
8
 74
0
 42
0.0000001
 43
0.0000001
 44
0.0000000001
 40
0.0
 40
0.0
 40
0.0
 40
0.0
 40
0.1416553408
 40
0.274572697
 40
0.5217023979
 40
0.7580595733
 40
1.0
 40
1.0
 40
1.0
 40
1.0
 10
-1.974566089
 20
-10.4092778112
 30
0.0
 10
-1.9024744144
 20
-10.4839999365
 30
0.0
 10
-1.7543535672
 20
-10.6210741735
 30
0.0
 10
-1.4455920045
 20
-10.8476724914
 30
0.0
 10
-1.0417482875
 20
-11.0575619193
 30
0.0
 10
-0.5288599559
 20
-11.2082899095
 30
0.0
 10
-0.1773360644
 20
-11.2423182728
 30
0.0
 10
0.0
 20
-11.2423074121
 30
0.0
  0
SPLINE
  5
5A9
100
AcDbEntity
  8
0
100
AcDbSpline
 62
250
  6
CONTINUOUS
 70
0
 71
3
 72
12
 73
8
 74
0
 42
0.0000001
 43
0.0000001
 44
0.0000000001
 40
0.0
 40
0.0
 40
0.0
 40
0.0
 40
0.2419404318
 40
0.4782976122
 40
0.7254273183
 40
0.8583415751
 40
1.0
 40
1.0
 40
1.0
 40
1.0
 10
0.0
 20
-8.3576925879
 30
0.0
 10
-0.1773360644
 20
-8.3576817272
 30
0.0
 10
-0.5288599775
 20
-8.3917100639
 30
0.0
 10
-1.0417482124
 20
-8.5424381734
 30
0.0
 10
-1.4455902077
 20
-8.7523261613
 30
0.0
 10
-1.7543513386
 20
-8.9789249211
 30
0.0
 10
-1.9024728463
 20
-9.1159984383
 30
0.0
 10
-1.974566089
 20
-9.1907221888
 30
0.0
  0
SPLINE
  5
5AA
100
AcDbEntity
  8
0
100
AcDbSpline
 62
250
  6
CONTINUOUS
 70
0
 71
3
 72
12
 73
8
 74
0
 42
0.0000001
 43
0.0000001
 44
0.0000000001
 40
0.0
 40
0.0
 40
0.0
 40
0.0
 40
0.1419535217
 40
0.2751131838
 40
0.5224987294
 40
0.7587141331
 40
1.0
 40
1.0
 40
1.0
 40
1.0
 10
1.975862301
 20
-9.1927464122
 30
0.0
 10
1.9036219268
 20
-9.1177215753
 30
0.0
 10
1.7551760293
 20
-8.9801161914
 30
0.0
 10
1.4457699178
 20
-8.7527645225
 30
0.0
 10
1.0413336909
 20
-8.5424391314
 30
0.0
 10
0.5283081204
 20
-8.3917022613
 30
0.0
 10
0.1770306631
 20
-8.357703425
 30
0.0
 10
0.0
 20
-8.3576925879
 30
0.0
  0
SPLINE
  5
5AB
100
AcDbEntity
  8
0
100
AcDbSpline
 62
250
  6
CONTINUOUS
 70
0
 71
3
 72
9
 73
5
 74
0
 42
0.0000001
 43
0.0000001
 44
0.0000000001
 40
0.0
 40
0.0
 40
0.0
 40
0.0
 40
0.2345943253
 40
1.0
 40
1.0
 40
1.0
 40
1.0
 10
1.9758901235
 20
-9.1927752781
 30
0.0
 10
2.0000025179
 20
-9.2087596659
 30
0.0
 10
2.1035377533
 20
-9.275727645
 30
0.0
 10
2.2113220342
 20
-9.3363592623
 30
0.0
 10
2.2963686379
 20
-9.3772984643
 30
0.0
  0
SPLINE
  5
5AC
100
AcDbEntity
  8
0
100
AcDbSpline
 62
250
  6
CONTINUOUS
 70
0
 71
3
 72
9
 73
5
 74
0
 42
0.0000001
 43
0.0000001
 44
0.0000000001
 40
0.0
 40
0.0
 40
0.0
 40
0.0
 40
0.235216025
 40
1.0
 40
1.0
 40
1.0
 40
1.0
 10
1.9860744123
 20
-9.1829470546
 30
0.0
 10
2.0094786315
 20
-9.198156471
 30
0.0
 10
2.1096376478
 20
-9.26177543
 30
0.0
 10
2.2135301168
 20
-9.3197227165
 30
0.0
 10
2.2952972906
 20
-9.3590971903
 30
0.0
  0
SPLINE
  5
5AD
100
AcDbEntity
  8
0
100
AcDbSpline
 62
250
  6
CONTINUOUS
 70
0
 71
3
 72
9
 73
5
 74
0
 42
0.0000001
 43
0.0000001
 44
0.0000000001
 40
0.0
 40
0.0
 40
0.0
 40
0.0
 40
0.2415898259
 40
1.0
 40
1.0
 40
1.0
 40
1.0
 10
-1.9847795066
 20
10.4191015548
 30
0.0
 10
-1.9977755083
 20
10.4104599879
 30
0.0
 10
-2.0518124156
 20
10.3750591961
 30
0.0
 10
-2.1069235789
 20
10.3412847223
 30
0.0
 10
-2.1493687733
 20
10.3168146633
 30
0.0
  0
SPLINE
  5
5AE
100
AcDbEntity
  8
0
100
AcDbSpline
 62
250
  6
CONTINUOUS
 70
0
 71
3
 72
9
 73
5
 74
0
 42
0.0000001
 43
0.0000001
 44
0.0000000001
 40
0.0
 40
0.0
 40
0.0
 40
0.0
 40
0.2406692584
 40
1.0
 40
1.0
 40
1.0
 40
1.0
 10
-1.9745909569
 20
10.409252059
 30
0.0
 10
-1.9889600851
 20
10.3995147664
 30
0.0
 10
-2.0489831303
 20
10.3595295382
 30
0.0
 10
-2.1104176899
 20
10.321642429
 30
0.0
 10
-2.1579083859
 20
10.2943697107
 30
0.0
  0
SPLINE
  5
5AF
100
AcDbEntity
  8
0
100
AcDbSpline
 62
7
  6
CONTINUOUS
 70
0
 71
3
 72
12
 73
8
 74
0
 42
0.0000001
 43
0.0000001
 44
0.0000000001
 40
0.0
 40
0.0
 40
0.0
 40
0.0
 40
0.2414920722
 40
0.4778836439
 40
0.725270464
 40
0.8582794233
 40
1.0
 40
1.0
 40
1.0
 40
1.0
 10
-0.0
 20
7.9933104816
 30
0.0
 10
0.1991976231
 20
7.9933318644
 30
0.0
 10
0.5943959373
 20
8.0311783585
 30
0.0
 10
1.1720736246
 20
8.1982736031
 30
0.0
 10
1.628273355
 20
8.4317862942
 30
0.0
 10
1.9774420376
 20
8.6850644013
 30
0.0
 10
2.1449976185
 20
8.8385813875
 30
0.0
 10
2.226559627
 20
8.9223264075
 30
0.0
  0
SPLINE
  5
5B0
100
AcDbEntity
  8
0
100
AcDbSpline
 62
7
  6
CONTINUOUS
 70
0
 71
3
 72
12
 73
8
 74
0
 42
0.0000001
 43
0.0000001
 44
0.0000000001
 40
0.0
 40
0.0
 40
0.0
 40
0.0
 40
0.1414345534
 40
0.2742283021
 40
0.5213650553
 40
0.7578823055
 40
1.0
 40
1.0
 40
1.0
 40
1.0
 10
-2.2260707259
 20
8.9204945482
 30
0.0
 10
-2.1446524338
 20
8.8370238887
 30
0.0
 10
-1.9773922494
 20
8.6839761693
 30
0.0
 10
-1.6287733148
 20
8.4313823507
 30
0.0
 10
-1.1730075885
 20
8.1982572348
 30
0.0
 10
-0.5952338027
 20
8.0311500333
 30
0.0
 10
-0.1996094979
 20
7.9932890446
 30
0.0
 10
-0.0
 20
7.9933104816
 30
0.0
  0
SPLINE
  5
5B1
100
AcDbEntity
  8
0
100
AcDbSpline
 62
7
  6
CONTINUOUS
 70
0
 71
3
 72
9
 73
5
 74
0
 42
0.0000001
 43
0.0000001
 44
0.0000000001
 40
0.0
 40
0.0
 40
0.0
 40
0.0
 40
0.4996969277
 40
1.0
 40
1.0
 40
1.0
 40
1.0
 10
-0.0
 20
11.6066895184
 30
0.0
 10
-0.2687597675
 20
11.6067183817
 30
0.0
 10
-0.8087005418
 20
11.5373586642
 30
0.0
 10
-1.3139092789
 20
11.3338469893
 30
0.0
 10
-1.5481230295
 20
11.2013665128
 30
0.0
  0
SPLINE
  5
5B2
100
AcDbEntity
  8
0
100
AcDbSpline
 62
7
  6
CONTINUOUS
 70
0
 71
3
 72
9
 73
5
 74
0
 42
0.0000001
 43
0.0000001
 44
0.0000000001
 40
0.0
 40
0.0
 40
0.0
 40
0.0
 40
0.5010128148
 40
1.0
 40
1.0
 40
1.0
 40
1.0
 10
1.5504181197
 20
11.1993756976
 30
0.0
 10
1.3156591007
 20
11.3326211001
 30
0.0
 10
0.8097117793
 20
11.5369982827
 30
0.0
 10
0.2688459017
 20
11.6066606592
 30
0.0
 10
-0.0
 20
11.6066895184
 30
0.0
  0
SPLINE
  5
5B3
100
AcDbEntity
  8
0
100
AcDbSpline
 62
250
  6
CONTINUOUS
 70
0
 71
3
 72
12
 73
8
 74
0
 42
0.0000001
 43
0.0000001
 44
0.0000000001
 40
0.0
 40
0.0
 40
0.0
 40
0.0
 40
0.2412858729
 40
0.4775012826
 40
0.7248868344
 40
0.8580434282
 40
1.0
 40
1.0
 40
1.0
 40
1.0
 10
-0.0
 20
8.3576925879
 30
0.0
 10
0.1770306631
 20
8.357703425
 30
0.0
 10
0.5283081459
 20
8.3917022297
 30
0.0
 10
1.0413336021
 20
8.5424392417
 30
0.0
 10
1.445768183
 20
8.7527631281
 30
0.0
 10
1.7551737306
 20
8.9801154043
 30
0.0
 10
1.9036203764
 20
9.1177199651
 30
0.0
 10
1.975862301
 20
9.1927464122
 30
0.0
  0
SPLINE
  5
5B4
100
AcDbEntity
  8
0
100
AcDbSpline
 62
250
  6
CONTINUOUS
 70
0
 71
3
 72
12
 73
8
 74
0
 42
0.0000001
 43
0.0000001
 44
0.0000000001
 40
0.0
 40
0.0
 40
0.0
 40
0.0
 40
0.1416553408
 40
0.274572697
 40
0.5217023979
 40
0.7580595733
 40
1.0
 40
1.0
 40
1.0
 40
1.0
 10
-1.974566089
 20
9.1907221888
 30
0.0
 10
-1.9024744144
 20
9.1160000635
 30
0.0
 10
-1.7543535672
 20
8.9789258265
 30
0.0
 10
-1.4455920045
 20
8.7523275086
 30
0.0
 10
-1.0417482875
 20
8.5424380807
 30
0.0
 10
-0.5288599559
 20
8.3917100905
 30
0.0
 10
-0.1773360644
 20
8.3576817272
 30
0.0
 10
-0.0
 20
8.3576925879
 30
0.0
  0
SPLINE
  5
5B5
100
AcDbEntity
  8
0
100
AcDbSpline
 62
250
  6
CONTINUOUS
 70
0
 71
3
 72
12
 73
8
 74
0
 42
0.0000001
 43
0.0000001
 44
0.0000000001
 40
0.0
 40
0.0
 40
0.0
 40
0.0
 40
0.2419404318
 40
0.4782976122
 40
0.7254273183
 40
0.8583415751
 40
1.0
 40
1.0
 40
1.0
 40
1.0
 10
-0.0
 20
11.2423074121
 30
0.0
 10
-0.1773360644
 20
11.2423182728
 30
0.0
 10
-0.5288599775
 20
11.2082899361
 30
0.0
 10
-1.0417482124
 20
11.0575618266
 30
0.0
 10
-1.4455902077
 20
10.8476738387
 30
0.0
 10
-1.7543513386
 20
10.6210750789
 30
0.0
 10
-1.9024728463
 20
10.4840015617
 30
0.0
 10
-1.974566089
 20
10.4092778112
 30
0.0
  0
SPLINE
  5
5B6
100
AcDbEntity
  8
0
100
AcDbSpline
 62
250
  6
CONTINUOUS
 70
0
 71
3
 72
12
 73
8
 74
0
 42
0.0000001
 43
0.0000001
 44
0.0000000001
 40
0.0
 40
0.0
 40
0.0
 40
0.0
 40
0.1419535217
 40
0.2751131838
 40
0.5224987294
 40
0.7587141331
 40
1.0
 40
1.0
 40
1.0
 40
1.0
 10
1.975862301
 20
10.4072535878
 30
0.0
 10
1.9036219268
 20
10.4822784247
 30
0.0
 10
1.7551760293
 20
10.6198838086
 30
0.0
 10
1.4457699178
 20
10.8472354775
 30
0.0
 10
1.0413336909
 20
11.0575608686
 30
0.0
 10
0.5283081204
 20
11.2082977387
 30
0.0
 10
0.1770306631
 20
11.242296575
 30
0.0
 10
-0.0
 20
11.2423074121
 30
0.0
  0
SPLINE
  5
5B7
100
AcDbEntity
  8
0
100
AcDbSpline
 62
250
  6
CONTINUOUS
 70
0
 71
3
 72
9
 73
5
 74
0
 42
0.0000001
 43
0.0000001
 44
0.0000000001
 40
0.0
 40
0.0
 40
0.0
 40
0.0
 40
0.2395993488
 40
1.0
 40
1.0
 40
1.0
 40
1.0
 10
1.9758901235
 20
10.4072247219
 30
0.0
 10
1.9900817797
 20
10.3978169073
 30
0.0
 10
2.04957441
 20
10.3589522145
 30
0.0
 10
2.1103320574
 20
10.3219934707
 30
0.0
 10
2.1573759028
 20
10.2954070577
 30
0.0
  0
SPLINE
  5
5B8
100
AcDbEntity
  8
0
100
AcDbSpline
 62
250
  6
CONTINUOUS
 70
0
 71
3
 72
9
 73
5
 74
0
 42
0.0000001
 43
0.0000001
 44
0.0000000001
 40
0.0
 40
0.0
 40
0.0
 40
0.0
 40
0.2406273986
 40
1.0
 40
1.0
 40
1.0
 40
1.0
 10
1.9860744123
 20
10.4170529454
 30
0.0
 10
1.9989120687
 20
10.4087102932
 30
0.0
 10
2.0524615985
 20
10.3743490464
 30
0.0
 10
2.1069626085
 20
10.3414510409
 30
0.0
 10
2.1489916975
 20
10.3176178911
 30
0.0
  0
SPLINE
  5
5B9
100
AcDbEntity
  8
0
100
AcDbSpline
 62
7
  6
CONTINUOUS
 70
0
 71
3
 72
9
 73
5
 74
0
 42
0.0000001
 43
0.0000001
 44
0.0000000001
 40
0.0
 40
0.0
 40
0.0
 40
0.0
 40
0.4799597431
 40
1.0
 40
1.0
 40
1.0
 40
1.0
 10
-6.8183980369
 20
0.3726751594
 30
0.0
 10
-6.8866282577
 20
0.3188923937
 30
0.0
 10
-7.0384194368
 20
0.2184266093
 30
0.0
 10
-7.2066164667
 20
0.148068469
 30
0.0
 10
-7.2964628939
 20
0.1199822775
 30
0.0
  0
SPLINE
  5
5BA
100
AcDbEntity
  8
0
100
AcDbSpline
 62
250
  6
CONTINUOUS
 70
0
 71
3
 72
9
 73
5
 74
0
 42
0.0000001
 43
0.0000001
 44
0.0000000001
 40
0.0
 40
0.0
 40
0.0
 40
0.0
 40
0.2328297941
 40
1.0
 40
1.0
 40
1.0
 40
1.0
 10
-6.7847795066
 20
0.6191015548
 30
0.0
 10
-6.8203720301
 20
0.5954346471
 30
0.0
 10
-6.9750694539
 20
0.4966744261
 30
0.0
 10
-7.1396314834
 20
0.412390883
 30
0.0
 10
-7.2709288054
 20
0.3614394089
 30
0.0
  0
SPLINE
  5
5BB
100
AcDbEntity
  8
0
100
AcDbSpline
 62
250
  6
CONTINUOUS
 70
0
 71
3
 72
9
 73
5
 74
0
 42
0.0000001
 43
0.0000001
 44
0.0000000001
 40
0.0
 40
0.0
 40
0.0
 40
0.0
 40
0.2322861708
 40
1.0
 40
1.0
 40
1.0
 40
1.0
 10
-6.7745909569
 20
0.609252059
 30
0.0
 10
-6.8109053196
 20
0.5846434974
 30
0.0
 10
-6.9692715179
 20
0.4818545311
 30
0.0
 10
-7.1385449889
 20
0.3948040515
 30
0.0
 10
-7.2738748623
 20
0.3427886897
 30
0.0
  0
SPLINE
  5
5BC
100
AcDbEntity
  8
0
100
AcDbSpline
 62
7
  6
CONTINUOUS
 70
0
 71
3
 72
9
 73
5
 74
0
 42
0.0000001
 43
0.0000001
 44
0.0000000001
 40
0.0
 40
0.0
 40
0.0
 40
0.0
 40
0.4958478911
 40
1.0
 40
1.0
 40
1.0
 40
1.0
 10
-4.8
 20
-1.8066895184
 30
0.0
 10
-4.5069887979
 20
-1.8066580652
 30
0.0
 10
-3.9133374297
 20
-1.7234613319
 30
0.0
 10
-3.365496112
 20
-1.4781174328
 30
0.0
 10
-3.1143192824
 20
-1.317912625
 30
0.0
  0
SPLINE
  5
5BD
100
AcDbEntity
  8
0
100
AcDbSpline
 62
7
  6
CONTINUOUS
 70
0
 71
3
 72
12
 73
8
 74
0
 42
0.0000001
 43
0.0000001
 44
0.0000000001
 40
0.0
 40
0.0
 40
0.0
 40
0.0
 40
0.1417380823
 40
0.2747267416
 40
0.5219062403
 40
0.7581931113
 40
1.0
 40
1.0
 40
1.0
 40
1.0
 10
-7.0395994917
 20
-0.8655479852
 30
0.0
 10
-6.9579000223
 20
-0.9503688937
 30
0.0
 10
-6.7899311275
 20
-1.1058976661
 30
0.0
 10
-6.4394282406
 20
-1.3624209734
 30
0.0
 10
-5.9808239502
 20
-1.5989481225
 30
0.0
 10
-5.3991986202
 20
-1.7683447522
 30
0.0
 10
-5.0009142736
 20
-1.8067110955
 30
0.0
 10
-4.8
 20
-1.8066895184
 30
0.0
  0
SPLINE
  5
5BE
100
AcDbEntity
  8
0
100
AcDbSpline
 62
7
  6
CONTINUOUS
 70
0
 71
3
 72
12
 73
8
 74
0
 42
0.0000001
 43
0.0000001
 44
0.0000000001
 40
0.0
 40
0.0
 40
0.0
 40
0.0
 40
0.2418069191
 40
0.4780938197
 40
0.7252733495
 40
0.8582525183
 40
1.0
 40
1.0
 40
1.0
 40
1.0
 10
-4.8
 20
1.8066895184
 30
0.0
 10
-5.0009142736
 20
1.8067110955
 30
0.0
 10
-5.3991987641
 20
1.7683449339
 30
0.0
 10
-5.9808234494
 20
1.5989474899
 30
0.0
 10
-6.439422741
 20
1.362426608
 30
0.0
 10
-6.7899218876
 20
1.1058989596
 30
0.0
 10
-6.9578946146
 20
0.950374508
 30
0.0
 10
-7.0395994917
 20
0.8655479852
 30
0.0
  0
SPLINE
  5
5BF
100
AcDbEntity
  8
0
100
AcDbSpline
 62
7
  6
CONTINUOUS
 70
0
 71
3
 72
9
 73
5
 74
0
 42
0.0000001
 43
0.0000001
 44
0.0000000001
 40
0.0
 40
0.0
 40
0.0
 40
0.0
 40
0.5041572472
 40
1.0
 40
1.0
 40
1.0
 40
1.0
 10
-3.1143197079
 20
1.3179140197
 30
0.0
 10
-3.3654943008
 20
1.4781274375
 30
0.0
 10
-3.9133450256
 20
1.7234531118
 30
0.0
 10
-4.5069921215
 20
1.8066580655
 30
0.0
 10
-4.8
 20
1.8066895184
 30
0.0
  0
SPLINE
  5
5C0
100
AcDbEntity
  8
0
100
AcDbSpline
 62
250
  6
CONTINUOUS
 70
0
 71
3
 72
12
 73
8
 74
0
 42
0.0000001
 43
0.0000001
 44
0.0000000001
 40
0.0
 40
0.0
 40
0.0
 40
0.0
 40
0.2412858729
 40
0.4775012826
 40
0.7248868344
 40
0.8580434282
 40
1.0
 40
1.0
 40
1.0
 40
1.0
 10
-4.8
 20
-1.4423074121
 30
0.0
 10
-4.6229693369
 20
-1.442296575
 30
0.0
 10
-4.2716918541
 20
-1.4082977703
 30
0.0
 10
-3.7586663979
 20
-1.2575607583
 30
0.0
 10
-3.354231817
 20
-1.0472368719
 30
0.0
 10
-3.0448262694
 20
-0.8198845957
 30
0.0
 10
-2.8963796236
 20
-0.6822800349
 30
0.0
 10
-2.824137699
 20
-0.6072535878
 30
0.0
  0
SPLINE
  5
5C1
100
AcDbEntity
  8
0
100
AcDbSpline
 62
250
  6
CONTINUOUS
 70
0
 71
3
 72
12
 73
8
 74
0
 42
0.0000001
 43
0.0000001
 44
0.0000000001
 40
0.0
 40
0.0
 40
0.0
 40
0.0
 40
0.1416553408
 40
0.274572697
 40
0.5217023979
 40
0.7580595733
 40
1.0
 40
1.0
 40
1.0
 40
1.0
 10
-6.774566089
 20
-0.6092778112
 30
0.0
 10
-6.7024744144
 20
-0.6839999365
 30
0.0
 10
-6.5543535672
 20
-0.8210741735
 30
0.0
 10
-6.2455920045
 20
-1.0476724914
 30
0.0
 10
-5.8417482875
 20
-1.2575619193
 30
0.0
 10
-5.3288599559
 20
-1.4082899095
 30
0.0
 10
-4.9773360644
 20
-1.4423182728
 30
0.0
 10
-4.8
 20
-1.4423074121
 30
0.0
  0
SPLINE
  5
5C2
100
AcDbEntity
  8
0
100
AcDbSpline
 62
250
  6
CONTINUOUS
 70
0
 71
3
 72
12
 73
8
 74
0
 42
0.0000001
 43
0.0000001
 44
0.0000000001
 40
0.0
 40
0.0
 40
0.0
 40
0.0
 40
0.2419404318
 40
0.4782976122
 40
0.7254273183
 40
0.8583415751
 40
1.0
 40
1.0
 40
1.0
 40
1.0
 10
-4.8
 20
1.4423074121
 30
0.0
 10
-4.9773360644
 20
1.4423182728
 30
0.0
 10
-5.3288599775
 20
1.4082899361
 30
0.0
 10
-5.8417482124
 20
1.2575618266
 30
0.0
 10
-6.2455902077
 20
1.0476738387
 30
0.0
 10
-6.5543513386
 20
0.8210750789
 30
0.0
 10
-6.7024728463
 20
0.6840015617
 30
0.0
 10
-6.774566089
 20
0.6092778112
 30
0.0
  0
SPLINE
  5
5C3
100
AcDbEntity
  8
0
100
AcDbSpline
 62
250
  6
CONTINUOUS
 70
0
 71
3
 72
12
 73
8
 74
0
 42
0.0000001
 43
0.0000001
 44
0.0000000001
 40
0.0
 40
0.0
 40
0.0
 40
0.0
 40
0.1419535217
 40
0.2751131838
 40
0.5224987294
 40
0.7587141331
 40
1.0
 40
1.0
 40
1.0
 40
1.0
 10
-2.824137699
 20
0.6072535878
 30
0.0
 10
-2.8963780732
 20
0.6822784247
 30
0.0
 10
-3.0448239707
 20
0.8198838086
 30
0.0
 10
-3.3542300822
 20
1.0472354775
 30
0.0
 10
-3.7586663091
 20
1.2575608686
 30
0.0
 10
-4.2716918796
 20
1.4082977387
 30
0.0
 10
-4.6229693369
 20
1.442296575
 30
0.0
 10
-4.8
 20
1.4423074121
 30
0.0
  0
SPLINE
  5
5C4
100
AcDbEntity
  8
0
100
AcDbSpline
 62
250
  6
CONTINUOUS
 70
0
 71
3
 72
9
 73
5
 74
0
 42
0.0000001
 43
0.0000001
 44
0.0000000001
 40
0.0
 40
0.0
 40
0.0
 40
0.0
 40
0.2475976936
 40
1.0
 40
1.0
 40
1.0
 40
1.0
 10
-6.7745909577
 20
-0.6092520582
 30
0.0
 10
-6.8126515604
 20
-0.581988531
 30
0.0
 10
-6.9699941791
 20
-0.477021156
 30
0.0
 10
-7.1410224491
 20
-0.3925938333
 30
0.0
 10
-7.2741107147
 20
-0.3423105813
 30
0.0
  0
SPLINE
  5
5C5
100
AcDbEntity
  8
0
100
AcDbSpline
 62
250
  6
CONTINUOUS
 70
0
 71
3
 72
9
 73
5
 74
0
 42
0.0000001
 43
0.0000001
 44
0.0000000001
 40
0.0
 40
0.0
 40
0.0
 40
0.0
 40
0.2475354491
 40
1.0
 40
1.0
 40
1.0
 40
1.0
 10
-6.7847795074
 20
-0.619101554
 30
0.0
 10
-6.8219902729
 20
-0.592916868
 30
0.0
 10
-6.9756450802
 20
-0.4919456751
 30
0.0
 10
-7.1418905035
 20
-0.4101558197
 30
0.0
 10
-7.2711344552
 20
-0.3608963783
 30
0.0
  0
SPLINE
  5
5C6
100
AcDbEntity
  8
RACCORDO
100
AcDbSpline
 62
250
  6
CONTINUOUS
 70
0
 71
3
 72
23
 73
19
 74
0
 42
0.0000001
 43
0.0000001
 44
0.0000000001
 40
0.0
 40
0.0
 40
0.0
 40
0.0
 40
0.1949598553
 40
0.3824273359
 40
0.5552044797
 40
0.6339808431
 40
0.7066542721
 40
0.7725254897
 40
0.8309611198
 40
0.8813998599
 40
0.9233581972
 40
0.9564359318
 40
0.969544182
 40
0.98032325
 40
0.988751038
 40
0.9948152287
 40
0.9985228498
 40
1.0
 40
1.0
 40
1.0
 40
1.0
 10
-65.7795243146
 20
-23.75
 30
0.0
 10
-65.7795243146
 20
-23.7662576592
 30
0.0
 10
-65.7794705718
 20
-23.7981482204
 30
0.0
 10
-65.7792303211
 20
-23.8444460675
 30
0.0
 10
-65.778897363
 20
-23.8810545467
 30
0.0
 10
-65.7785501758
 20
-23.908089566
 30
0.0
 10
-65.7782659942
 20
-23.9262096981
 30
0.0
 10
-65.7779530831
 20
-23.9426329591
 30
0.0
 10
-65.7776147361
 20
-23.9572008848
 30
0.0
 10
-65.7772552155
 20
-23.9697743121
 30
0.0
 10
-65.7768784938
 20
-23.9802293362
 30
0.0
 10
-65.7765352161
 20
-23.9875756748
 30
0.0
 10
-65.776241965
 20
-23.9923113141
 30
0.0
 10
-65.7760368984
 20
-23.9950104694
 30
0.0
 10
-65.7758365955
 20
-23.9970769786
 30
0.0
 10
-65.7756313061
 20
-23.9986535816
 30
0.0
 10
-65.7754570041
 20
-23.9994440345
 30
0.0
 10
-65.7752843923
 20
-24.0
 30
0.0
 10
-65.775161213
 20
-24.0
 30
0.0
  0
SPLINE
  5
5C7
100
AcDbEntity
  8
RACCORDO
100
AcDbSpline
 62
250
  6
CONTINUOUS
 70
0
 71
3
 72
23
 73
19
 74
0
 42
0.0000001
 43
0.0000001
 44
0.0000000001
 40
0.0
 40
0.0
 40
0.0
 40
0.0
 40
0.0014771502
 40
0.0051847713
 40
0.011248962
 40
0.01967675
 40
0.030455818
 40
0.0435640682
 40
0.0766418028
 40
0.1186001401
 40
0.1690388802
 40
0.2274745103
 40
0.2933457279
 40
0.3660191569
 40
0.4447955203
 40
0.6175726641
 40
0.8050401447
 40
1.0
 40
1.0
 40
1.0
 40
1.0
 10
-65.775161213
 20
24.0
 30
0.0
 10
-65.7752843923
 20
24.0
 30
0.0
 10
-65.7754570041
 20
23.9994440345
 30
0.0
 10
-65.7756313061
 20
23.9986535816
 30
0.0
 10
-65.7758365955
 20
23.9970769786
 30
0.0
 10
-65.7760368984
 20
23.9950104694
 30
0.0
 10
-65.776241965
 20
23.9923113141
 30
0.0
 10
-65.7765352161
 20
23.9875756748
 30
0.0
 10
-65.7768784938
 20
23.9802293362
 30
0.0
 10
-65.7772552155
 20
23.9697743121
 30
0.0
 10
-65.7776147361
 20
23.9572008848
 30
0.0
 10
-65.7779530831
 20
23.9426329591
 30
0.0
 10
-65.7782659942
 20
23.9262096981
 30
0.0
 10
-65.7785501758
 20
23.908089566
 30
0.0
 10
-65.778897363
 20
23.8810545467
 30
0.0
 10
-65.7792303211
 20
23.8444460675
 30
0.0
 10
-65.7794705718
 20
23.7981482204
 30
0.0
 10
-65.7795243146
 20
23.7662576592
 30
0.0
 10
-65.7795243146
 20
23.75
 30
0.0
  0
SPLINE
  5
5C8
100
AcDbEntity
  8
RACCORDO
100
AcDbSpline
 62
250
  6
CONTINUOUS
 70
0
 71
3
 72
23
 73
19
 74
0
 42
0.0000001
 43
0.0000001
 44
0.0000000001
 40
0.0
 40
0.0
 40
0.0
 40
0.0
 40
0.0014770448
 40
0.0051843619
 40
0.0112480562
 40
0.019675157
 40
0.0304533635
 40
0.0435605831
 40
0.076635823
 40
0.1185912105
 40
0.1690267303
 40
0.2274590883
 40
0.2933272318
 40
0.3659980602
 40
0.4447725926
 40
0.6175496379
 40
0.80502392
 40
1.0
 40
1.0
 40
1.0
 40
1.0
 10
-70.9813778921
 20
22.266898725
 30
0.0
 10
-70.9815010063
 20
22.266896576
 30
0.0
 10
-70.9816638395
 20
22.2663379063
 30
0.0
 10
-70.9818242599
 20
22.2655448317
 30
0.0
 10
-70.9820019454
 20
22.263965501
 30
0.0
 10
-70.9821660971
 20
22.2618966077
 30
0.0
 10
-70.9823239753
 20
22.2591953243
 30
0.0
 10
-70.9825344681
 20
22.2544570973
 30
0.0
 10
-70.9827494212
 20
22.2471086661
 30
0.0
 10
-70.982943574
 20
22.2366525678
 30
0.0
 10
-70.9830835828
 20
22.2240793992
 30
0.0
 10
-70.9831676389
 20
22.2095130229
 30
0.0
 10
-70.9831939101
 20
22.1930925508
 30
0.0
 10
-70.9831618688
 20
22.1749763638
 30
0.0
 10
-70.9830372954
 20
22.1479480144
 30
0.0
 10
-70.982731505
 20
22.1113500423
 30
0.0
 10
-70.9821640383
 20
22.0650672399
 30
0.0
 10
-70.9816614782
 20
22.0331883874
 30
0.0
 10
-70.9813778921
 20
22.0169368012
 30
0.0
  0
SPLINE
  5
5C9
100
AcDbEntity
  8
RACCORDO
100
AcDbSpline
 62
250
  6
CONTINUOUS
 70
0
 71
3
 72
23
 73
19
 74
0
 42
0.0000001
 43
0.0000001
 44
0.0000000001
 40
0.0
 40
0.0
 40
0.0
 40
0.0
 40
0.1949760658
 40
0.3824503369
 40
0.5552273735
 40
0.6340019031
 40
0.7066727304
 40
0.7725408742
 40
0.830973234
 40
0.8814087565
 40
0.9233641478
 40
0.9564393932
 40
0.9695466174
 40
0.9803248258
 40
0.9887519325
 40
0.9948156297
 40
0.998522952
 40
1.0
 40
1.0
 40
1.0
 40
1.0
 10
-70.9813778921
 20
-22.0169368012
 30
0.0
 10
-70.9816614782
 20
-22.0331883863
 30
0.0
 10
-70.9821640382
 20
-22.0650672366
 30
0.0
 10
-70.982731505
 20
-22.1113500362
 30
0.0
 10
-70.9830372954
 20
-22.1479480064
 30
0.0
 10
-70.9831618688
 20
-22.1749763546
 30
0.0
 10
-70.9831939101
 20
-22.1930925414
 30
0.0
 10
-70.9831676389
 20
-22.2095130135
 30
0.0
 10
-70.9830835829
 20
-22.2240793902
 30
0.0
 10
-70.9829435741
 20
-22.2366525595
 30
0.0
 10
-70.9827494214
 20
-22.2471086588
 30
0.0
 10
-70.9825344683
 20
-22.2544570911
 30
0.0
 10
-70.9823239756
 20
-22.2591953192
 30
0.0
 10
-70.9821660974
 20
-22.2618966036
 30
0.0
 10
-70.9820019457
 20
-22.2639654977
 30
0.0
 10
-70.9818242603
 20
-22.2655448299
 30
0.0
 10
-70.9816638392
 20
-22.2663379047
 30
0.0
 10
-70.9815010065
 20
-22.266896576
 30
0.0
 10
-70.9813778921
 20
-22.266898725
 30
0.0
  0
SPLINE
  5
5CA
100
AcDbEntity
  8
RACCORDO
100
AcDbSpline
 62
7
  6
CONTINUOUS
 70
0
 71
3
 72
14
 73
10
 74
0
 42
0.0000001
 43
0.0000001
 44
0.0000000001
 40
0.0
 40
0.0
 40
0.0
 40
0.0
 40
0.2719813931
 40
0.4054904501
 40
0.5359842161
 40
0.6622239449
 40
0.782731804
 40
0.8958243598
 40
1.0
 40
1.0
 40
1.0
 40
1.0
 10
-65.7795243146
 20
-22.1077354931
 30
0.0
 10
-65.8357251063
 20
-22.1353787529
 30
0.0
 10
-65.9194803442
 20
-22.1766702781
 30
0.0
 10
-66.0312930452
 20
-22.2289512496
 30
0.0
 10
-66.1135775266
 20
-22.2651066652
 30
0.0
 10
-66.1943423441
 20
-22.297163988
 30
0.0
 10
-66.2729990046
 20
-22.323464827
 30
0.0
 10
-66.3486880792
 20
-22.341802307
 30
0.0
 10
-66.398805998
 20
-22.3468878149
 30
0.0
 10
-66.4227916876
 20
-22.3464691432
 30
0.0
  0
SPLINE
  5
5CB
100
AcDbEntity
  8
RACCORDO
100
AcDbSpline
 62
7
  6
CONTINUOUS
 70
0
 71
3
 72
14
 73
10
 74
0
 42
0.0000001
 43
0.0000001
 44
0.0000000001
 40
0.0
 40
0.0
 40
0.0
 40
0.0
 40
0.1041757563
 40
0.2172683337
 40
0.337776173
 40
0.4640158725
 40
0.5945096144
 40
0.7280186485
 40
1.0
 40
1.0
 40
1.0
 40
1.0
 10
-66.4227916876
 20
22.3464691432
 30
0.0
 10
-66.3988059713
 20
22.3468878154
 30
0.0
 10
-66.3486880208
 20
22.3418022996
 30
0.0
 10
-66.2729989213
 20
22.3234648068
 30
0.0
 10
-66.1943422715
 20
22.2971639559
 30
0.0
 10
-66.1135774696
 20
22.2651066401
 30
0.0
 10
-66.0312930042
 20
22.2289512313
 30
0.0
 10
-65.9194803222
 20
22.1766702675
 30
0.0
 10
-65.8357250977
 20
22.1353787487
 30
0.0
 10
-65.7795243146
 20
22.1077354931
 30
0.0
  0
SPLINE
  5
5CC
100
AcDbEntity
  8
RACCORDO
100
AcDbSpline
 62
7
  6
CONTINUOUS
 70
0
 71
3
 72
26
 73
22
 74
0
 42
0.0000001
 43
0.0000001
 44
0.0000000001
 40
0.0
 40
0.0
 40
0.0
 40
0.0
 40
0.1681901187
 40
0.3336782314
 40
0.4936016174
 40
0.5703478463
 40
0.6441727511
 40
0.7143325531
 40
0.7799104675
 40
0.8397784332
 40
0.8925670081
 40
0.9158130119
 40
0.9366723688
 40
0.9549212436
 40
0.9703386245
 40
0.9827155761
 40
0.9918674882
 40
0.9951877977
 40
0.9976511678
 40
0.999251745
 40
1.0
 40
1.0
 40
1.0
 40
1.0
 10
-70.9813778921
 20
19.05
 30
0.0
 10
-70.995271511
 20
19.0361042647
 30
0.0
 10
-71.0228156368
 20
19.0085161169
 30
0.0
 10
-71.0634996172
 20
18.9676445399
 30
0.0
 10
-71.0965909822
 20
18.934289535
 30
0.0
 10
-71.1220999325
 20
18.9084975381
 30
0.0
 10
-71.1402126244
 20
18.8901405824
 30
0.0
 10
-71.1573845828
 20
18.8726885012
 30
0.0
 10
-71.1733850809
 20
18.8563714112
 30
0.0
 10
-71.187931872
 20
18.8414713689
 30
0.0
 10
-71.1989901486
 20
18.8300774524
 30
0.0
 10
-71.2068457182
 20
18.8219263987
 30
0.0
 10
-71.2118857536
 20
18.8166661166
 30
0.0
 10
-71.2162746103
 20
18.8120491627
 30
0.0
 10
-71.2199610595
 20
18.8081305062
 30
0.0
 10
-71.222889502
 20
18.8049619408
 30
0.0
 10
-71.2248395026
 20
18.8028051768
 30
0.0
 10
-71.2259699578
 20
18.8014832324
 30
0.0
 10
-71.2265302967
 20
18.8008142159
 30
0.0
 10
-71.2268390807
 20
18.8003657955
 30
0.0
 10
-71.2270147905
 20
18.8001254966
 30
0.0
 10
-71.2270147905
 20
18.8000380762
 30
0.0
  0
SPLINE
  5
5CD
100
AcDbEntity
  8
RACCORDO
100
AcDbSpline
 62
7
  6
CONTINUOUS
 70
0
 71
3
 72
26
 73
22
 74
0
 42
0.0000001
 43
0.0000001
 44
0.0000000001
 40
0.0
 40
0.0
 40
0.0
 40
0.0
 40
0.1681901187
 40
0.3336782314
 40
0.4936016174
 40
0.5703478463
 40
0.6441727511
 40
0.7143325531
 40
0.7799104675
 40
0.8397784332
 40
0.8925670081
 40
0.9158130119
 40
0.9366723688
 40
0.9549212436
 40
0.9703386245
 40
0.9827155761
 40
0.9918674882
 40
0.9951877977
 40
0.9976511678
 40
0.999251745
 40
1.0
 40
1.0
 40
1.0
 40
1.0
 10
-70.4813778921
 20
19.05
 30
0.0
 10
-70.495271511
 20
19.0361042647
 30
0.0
 10
-70.5228156368
 20
19.0085161169
 30
0.0
 10
-70.5634996172
 20
18.9676445399
 30
0.0
 10
-70.5965909822
 20
18.934289535
 30
0.0
 10
-70.6220999325
 20
18.9084975381
 30
0.0
 10
-70.6402126244
 20
18.8901405824
 30
0.0
 10
-70.6573845828
 20
18.8726885012
 30
0.0
 10
-70.6733850809
 20
18.8563714112
 30
0.0
 10
-70.687931872
 20
18.8414713689
 30
0.0
 10
-70.6989901486
 20
18.8300774524
 30
0.0
 10
-70.7068457182
 20
18.8219263987
 30
0.0
 10
-70.7118857536
 20
18.8166661166
 30
0.0
 10
-70.7162746103
 20
18.8120491627
 30
0.0
 10
-70.7199610595
 20
18.8081305062
 30
0.0
 10
-70.722889502
 20
18.8049619408
 30
0.0
 10
-70.7248395026
 20
18.8028051768
 30
0.0
 10
-70.7259699578
 20
18.8014832324
 30
0.0
 10
-70.7265302967
 20
18.8008142159
 30
0.0
 10
-70.7268390807
 20
18.8003657955
 30
0.0
 10
-70.7270147905
 20
18.8001254966
 30
0.0
 10
-70.7270147905
 20
18.8000380762
 30
0.0
  0
SPLINE
  5
5CE
100
AcDbEntity
  8
RACCORDO
100
AcDbSpline
 62
7
  6
CONTINUOUS
 70
0
 71
3
 72
26
 73
22
 74
0
 42
0.0000001
 43
0.0000001
 44
0.0000000001
 40
0.0
 40
0.0
 40
0.0
 40
0.0
 40
0.1735354346
 40
0.3436214067
 40
0.5066884088
 40
0.5842381424
 40
0.658244601
 40
0.7279018011
 40
0.79226666
 40
0.8502478084
 40
0.9006106599
 40
0.9225192286
 40
0.9420181316
 40
0.9589390823
 40
0.9731227676
 40
0.9844250498
 40
0.9927222999
 40
0.9957144598
 40
0.9979233752
 40
0.9993472629
 40
1.0
 40
1.0
 40
1.0
 40
1.0
 10
-70.4813778921
 20
18.0902250922
 30
0.0
 10
-70.4956915425
 20
18.1022378182
 30
0.0
 10
-70.5240169035
 20
18.1260452523
 30
0.0
 10
-70.5657305811
 20
18.1612142773
 30
0.0
 10
-70.5994936868
 20
18.1897783572
 30
0.0
 10
-70.625323412
 20
18.2117012912
 30
0.0
 10
-70.6434657368
 20
18.2271374487
 30
0.0
 10
-70.6605058897
 20
18.2416780362
 30
0.0
 10
-70.6762097058
 20
18.2551261975
 30
0.0
 10
-70.6903078417
 20
18.2672551091
 30
0.0
 10
-70.7009122756
 20
18.2764349752
 30
0.0
 10
-70.7083598869
 20
18.2829300089
 30
0.0
 10
-70.7130810363
 20
18.2870726616
 30
0.0
 10
-70.7171618359
 20
18.2906832521
 30
0.0
 10
-70.7205659916
 20
18.2937282192
 30
0.0
 10
-70.7232532644
 20
18.29617712
 30
0.0
 10
-70.7250360301
 20
18.2978392216
 30
0.0
 10
-70.7260654812
 20
18.2988569165
 30
0.0
 10
-70.7265749992
 20
18.2993711098
 30
0.0
 10
-70.7268528765
 20
18.2997158299
 30
0.0
 10
-70.7270147905
 20
18.2999033099
 30
0.0
 10
-70.7270147905
 20
18.2999735975
 30
0.0
  0
SPLINE
  5
5CF
100
AcDbEntity
  8
RACCORDO
100
AcDbSpline
 62
250
  6
CONTINUOUS
 70
0
 71
3
 72
23
 73
19
 74
0
 42
0.0000001
 43
0.0000001
 44
0.0000000001
 40
0.0
 40
0.0
 40
0.0
 40
0.0
 40
0.1951255356
 40
0.3826626906
 40
0.5554416259
 40
0.6342007368
 40
0.7068491248
 40
0.772690753
 40
0.8310948391
 40
0.8815021202
 40
0.92343096
 40
0.9564832139
 40
0.9695810941
 40
0.9803505429
 40
0.9887708595
 40
0.9948284686
 40
0.998530524
 40
1.0
 40
1.0
 40
1.0
 40
1.0
 10
-74.0315960094
 20
17.4642258507
 30
0.0
 10
-74.0344120772
 20
17.4802014306
 30
0.0
 10
-74.0398828182
 20
17.5115404788
 30
0.0
 10
-74.0476668064
 20
17.5570567499
 30
0.0
 10
-74.0536816107
 20
17.5930607017
 30
0.0
 10
-74.0580243844
 20
17.6196599898
 30
0.0
 10
-74.0608847152
 20
17.6374932039
 30
0.0
 10
-74.0634233748
 20
17.6536641564
 30
0.0
 10
-74.0656162207
 20
17.6680173515
 30
0.0
 10
-74.0674433804
 20
17.6804159848
 30
0.0
 10
-74.0688872986
 20
17.6907381931
 30
0.0
 10
-74.0698258353
 20
17.6980043816
 30
0.0
 10
-74.070361091
 20
17.7027003586
 30
0.0
 10
-74.0706296359
 20
17.7053835218
 30
0.0
 10
-74.0707927805
 20
17.707444531
 30
0.0
 10
-74.0708677596
 20
17.7090271277
 30
0.0
 10
-74.0708339753
 20
17.7098302313
 30
0.0
 10
-74.0707652621
 20
17.7104065751
 30
0.0
 10
-74.0706449522
 20
17.710427789
 30
0.0
  0
SPLINE
  5
5D0
100
AcDbEntity
  8
RACCORDO
100
AcDbSpline
 62
250
  6
CONTINUOUS
 70
0
 71
3
 72
23
 73
19
 74
0
 42
0.0000001
 43
0.0000001
 44
0.0000000001
 40
0.0
 40
0.0
 40
0.0
 40
0.0
 40
0.1951255356
 40
0.3826626906
 40
0.555441626
 40
0.6342007368
 40
0.7068491249
 40
0.772690753
 40
0.8310948392
 40
0.8815021202
 40
0.92343096
 40
0.9564832139
 40
0.9695810942
 40
0.980350543
 40
0.9887708595
 40
0.9948284687
 40
0.998530524
 40
1.0
 40
1.0
 40
1.0
 40
1.0
 10
-74.0315960094
 20
-17.4642258507
 30
0.0
 10
-74.0344120772
 20
-17.4802014306
 30
0.0
 10
-74.0398828182
 20
-17.5115404788
 30
0.0
 10
-74.0476668064
 20
-17.55705675
 30
0.0
 10
-74.0536816106
 20
-17.5930607017
 30
0.0
 10
-74.0580243844
 20
-17.6196599898
 30
0.0
 10
-74.0608847152
 20
-17.6374932039
 30
0.0
 10
-74.0634233748
 20
-17.6536641564
 30
0.0
 10
-74.0656162207
 20
-17.6680173515
 30
0.0
 10
-74.0674433804
 20
-17.6804159848
 30
0.0
 10
-74.0688872986
 20
-17.6907381931
 30
0.0
 10
-74.0698258353
 20
-17.6980043816
 30
0.0
 10
-74.070361091
 20
-17.7027003586
 30
0.0
 10
-74.0706296359
 20
-17.7053835218
 30
0.0
 10
-74.0707927805
 20
-17.707444531
 30
0.0
 10
-74.0708677596
 20
-17.7090271277
 30
0.0
 10
-74.0708339753
 20
-17.7098302313
 30
0.0
 10
-74.0707652621
 20
-17.7104065751
 30
0.0
 10
-74.0706449522
 20
-17.710427789
 30
0.0
  0
SPLINE
  5
5D1
100
AcDbEntity
  8
RACCORDO
100
AcDbSpline
 62
7
  6
CONTINUOUS
 70
0
 71
3
 72
26
 73
22
 74
0
 42
0.0000001
 43
0.0000001
 44
0.0000000001
 40
0.0
 40
0.0
 40
0.0
 40
0.0
 40
0.1735354346
 40
0.3436214067
 40
0.5066884088
 40
0.5842381424
 40
0.658244601
 40
0.7279018011
 40
0.79226666
 40
0.8502478084
 40
0.9006106599
 40
0.9225192286
 40
0.9420181316
 40
0.9589390823
 40
0.9731227676
 40
0.9844250498
 40
0.9927222999
 40
0.9957144598
 40
0.9979233752
 40
0.9993472629
 40
1.0
 40
1.0
 40
1.0
 40
1.0
 10
-70.4813778921
 20
-18.0902250922
 30
0.0
 10
-70.4956915425
 20
-18.1022378182
 30
0.0
 10
-70.5240169035
 20
-18.1260452523
 30
0.0
 10
-70.5657305811
 20
-18.1612142773
 30
0.0
 10
-70.5994936868
 20
-18.1897783572
 30
0.0
 10
-70.625323412
 20
-18.2117012912
 30
0.0
 10
-70.6434657368
 20
-18.2271374487
 30
0.0
 10
-70.6605058897
 20
-18.2416780362
 30
0.0
 10
-70.6762097058
 20
-18.2551261975
 30
0.0
 10
-70.6903078417
 20
-18.2672551091
 30
0.0
 10
-70.7009122756
 20
-18.2764349752
 30
0.0
 10
-70.7083598869
 20
-18.2829300089
 30
0.0
 10
-70.7130810363
 20
-18.2870726616
 30
0.0
 10
-70.7171618359
 20
-18.2906832521
 30
0.0
 10
-70.7205659916
 20
-18.2937282192
 30
0.0
 10
-70.7232532644
 20
-18.29617712
 30
0.0
 10
-70.7250360301
 20
-18.2978392216
 30
0.0
 10
-70.7260654812
 20
-18.2988569165
 30
0.0
 10
-70.7265749992
 20
-18.2993711098
 30
0.0
 10
-70.7268528765
 20
-18.2997158299
 30
0.0
 10
-70.7270147905
 20
-18.2999033099
 30
0.0
 10
-70.7270147905
 20
-18.2999735975
 30
0.0
  0
SPLINE
  5
5D2
100
AcDbEntity
  8
RACCORDO
100
AcDbSpline
 62
7
  6
CONTINUOUS
 70
0
 71
3
 72
26
 73
22
 74
0
 42
0.0000001
 43
0.0000001
 44
0.0000000001
 40
0.0
 40
0.0
 40
0.0
 40
0.0
 40
0.1681901187
 40
0.3336782314
 40
0.4936016174
 40
0.5703478463
 40
0.6441727511
 40
0.7143325531
 40
0.7799104675
 40
0.8397784332
 40
0.8925670081
 40
0.9158130119
 40
0.9366723688
 40
0.9549212436
 40
0.9703386245
 40
0.9827155761
 40
0.9918674882
 40
0.9951877977
 40
0.9976511678
 40
0.999251745
 40
1.0
 40
1.0
 40
1.0
 40
1.0
 10
-70.4813778921
 20
-19.05
 30
0.0
 10
-70.495271511
 20
-19.0361042647
 30
0.0
 10
-70.5228156368
 20
-19.0085161169
 30
0.0
 10
-70.5634996172
 20
-18.9676445399
 30
0.0
 10
-70.5965909822
 20
-18.934289535
 30
0.0
 10
-70.6220999325
 20
-18.9084975381
 30
0.0
 10
-70.6402126244
 20
-18.8901405824
 30
0.0
 10
-70.6573845828
 20
-18.8726885012
 30
0.0
 10
-70.6733850809
 20
-18.8563714112
 30
0.0
 10
-70.687931872
 20
-18.8414713689
 30
0.0
 10
-70.6989901486
 20
-18.8300774524
 30
0.0
 10
-70.7068457182
 20
-18.8219263987
 30
0.0
 10
-70.7118857536
 20
-18.8166661166
 30
0.0
 10
-70.7162746103
 20
-18.8120491627
 30
0.0
 10
-70.7199610595
 20
-18.8081305062
 30
0.0
 10
-70.722889502
 20
-18.8049619408
 30
0.0
 10
-70.7248395026
 20
-18.8028051768
 30
0.0
 10
-70.7259699578
 20
-18.8014832324
 30
0.0
 10
-70.7265302967
 20
-18.8008142159
 30
0.0
 10
-70.7268390807
 20
-18.8003657955
 30
0.0
 10
-70.7270147905
 20
-18.8001254966
 30
0.0
 10
-70.7270147905
 20
-18.8000380762
 30
0.0
  0
SPLINE
  5
5D3
100
AcDbEntity
  8
RACCORDO
100
AcDbSpline
 62
7
  6
CONTINUOUS
 70
0
 71
3
 72
26
 73
22
 74
0
 42
0.0000001
 43
0.0000001
 44
0.0000000001
 40
0.0
 40
0.0
 40
0.0
 40
0.0
 40
0.1681901187
 40
0.3336782314
 40
0.4936016174
 40
0.5703478463
 40
0.6441727511
 40
0.7143325531
 40
0.7799104675
 40
0.8397784332
 40
0.8925670081
 40
0.9158130119
 40
0.9366723688
 40
0.9549212436
 40
0.9703386245
 40
0.9827155761
 40
0.9918674882
 40
0.9951877977
 40
0.9976511678
 40
0.999251745
 40
1.0
 40
1.0
 40
1.0
 40
1.0
 10
-70.9813778921
 20
-19.05
 30
0.0
 10
-70.995271511
 20
-19.0361042647
 30
0.0
 10
-71.0228156368
 20
-19.0085161169
 30
0.0
 10
-71.0634996172
 20
-18.9676445399
 30
0.0
 10
-71.0965909822
 20
-18.934289535
 30
0.0
 10
-71.1220999325
 20
-18.9084975381
 30
0.0
 10
-71.1402126244
 20
-18.8901405824
 30
0.0
 10
-71.1573845828
 20
-18.8726885012
 30
0.0
 10
-71.1733850809
 20
-18.8563714112
 30
0.0
 10
-71.187931872
 20
-18.8414713689
 30
0.0
 10
-71.1989901486
 20
-18.8300774524
 30
0.0
 10
-71.2068457182
 20
-18.8219263987
 30
0.0
 10
-71.2118857536
 20
-18.8166661166
 30
0.0
 10
-71.2162746103
 20
-18.8120491627
 30
0.0
 10
-71.2199610595
 20
-18.8081305062
 30
0.0
 10
-71.222889502
 20
-18.8049619408
 30
0.0
 10
-71.2248395026
 20
-18.8028051768
 30
0.0
 10
-71.2259699578
 20
-18.8014832324
 30
0.0
 10
-71.2265302967
 20
-18.8008142159
 30
0.0
 10
-71.2268390807
 20
-18.8003657955
 30
0.0
 10
-71.2270147905
 20
-18.8001254966
 30
0.0
 10
-71.2270147905
 20
-18.8000380762
 30
0.0
  0
SPLINE
  5
5D4
100
AcDbEntity
  8
RACCORDO
100
AcDbSpline
 62
250
  6
CONTINUOUS
 70
0
 71
3
 72
15
 73
11
 74
0
 42
0.0000001
 43
0.0000001
 44
0.0000000001
 40
0.0
 40
0.0
 40
0.0
 40
0.0
 40
0.0517357266
 40
0.1039389231
 40
0.211243485
 40
0.3249235176
 40
0.4464868689
 40
0.5761377323
 40
0.712974058
 40
1.0
 40
1.0
 40
1.0
 40
1.0
 10
-74.8182494876
 20
-18.6355418579
 30
0.0
 10
-74.8172604832
 20
-18.6580752825
 30
0.0
 10
-74.812181931
 20
-18.7032732426
 30
0.0
 10
-74.7896699341
 20
-18.7928102083
 30
0.0
 10
-74.7377508508
 20
-18.9015517398
 30
0.0
 10
-74.6425410569
 20
-19.0181648607
 30
0.0
 10
-74.5178678949
 20
-19.1185781839
 30
0.0
 10
-74.3683460846
 20
-19.1995404217
 30
0.0
 10
-74.1398163917
 20
-19.2792430338
 30
0.0
 10
-73.9530563492
 20
-19.3007480095
 30
0.0
 10
-73.8279378215
 20
-19.2987733807
 30
0.0
  0
SPLINE
  5
5D5
100
AcDbEntity
  8
RACCORDO
100
AcDbSpline
 62
250
  6
CONTINUOUS
 70
0
 71
3
 72
15
 73
11
 74
0
 42
0.0000001
 43
0.0000001
 44
0.0000000001
 40
0.0
 40
0.0
 40
0.0
 40
0.0
 40
0.0517357266
 40
0.1039389231
 40
0.2112434851
 40
0.3249235178
 40
0.4464868692
 40
0.5761377326
 40
0.7129740582
 40
1.0
 40
1.0
 40
1.0
 40
1.0
 10
-74.8182494853
 20
18.6355418578
 30
0.0
 10
-74.8172604806
 20
18.6580752823
 30
0.0
 10
-74.8121819279
 20
18.703273242
 30
0.0
 10
-74.7896699302
 20
18.792810207
 30
0.0
 10
-74.7377508463
 20
18.9015517375
 30
0.0
 10
-74.6425410523
 20
19.0181648572
 30
0.0
 10
-74.5178678906
 20
19.1185781793
 30
0.0
 10
-74.368346081
 20
19.1995404164
 30
0.0
 10
-74.1398163895
 20
19.2792430278
 30
0.0
 10
-73.9530563483
 20
19.3007480034
 30
0.0
 10
-73.8279378214
 20
19.2987733748
 30
0.0
  0
SPLINE
  5
5D6
100
AcDbEntity
  8
RACCORDO
100
AcDbSpline
 62
7
  6
CONTINUOUS
 70
0
 71
3
 72
9
 73
5
 74
0
 42
0.0000001
 43
0.0000001
 44
0.0000000001
 40
0.0
 40
0.0
 40
0.0
 40
0.0
 40
0.2524656424
 40
1.0
 40
1.0
 40
1.0
 40
1.0
 10
-60.2359098866
 20
11.6005752576
 30
0.0
 10
-60.2344361734
 20
11.594535151
 30
0.0
 10
-60.2292907111
 20
11.5704477693
 30
0.0
 10
-60.2270147905
 20
11.545742679
 30
0.0
 10
-60.2270147905
 20
11.5273336821
 30
0.0
  0
SPLINE
  5
5D7
100
AcDbEntity
  8
RACCORDO
100
AcDbSpline
 62
7
  6
CONTINUOUS
 70
0
 71
3
 72
9
 73
5
 74
0
 42
0.0000001
 43
0.0000001
 44
0.0000000001
 40
0.0
 40
0.0
 40
0.0
 40
0.0
 40
0.2524656972
 40
1.0
 40
1.0
 40
1.0
 40
1.0
 10
-60.2359100882
 20
-11.6005760838
 30
0.0
 10
-60.2344363418
 20
-11.5945359106
 30
0.0
 10
-60.2292907639
 20
-11.5704482644
 30
0.0
 10
-60.2270147905
 20
-11.545742889
 30
0.0
 10
-60.2270147905
 20
-11.5273336821
 30
0.0
  0
SPLINE
  5
5D8
100
AcDbEntity
  8
RACCORDO
100
AcDbSpline
 62
250
  6
CONTINUOUS
 70
0
 71
3
 72
11
 73
7
 74
0
 42
0.0000001
 43
0.0000001
 44
0.0000000001
 40
0.0
 40
0.0
 40
0.0
 40
0.0
 40
0.0822685417
 40
0.271108371
 40
0.5765092107
 40
1.0
 40
1.0
 40
1.0
 40
1.0
 10
-26.6175905516
 20
4.2059392925
 30
0.0
 10
-26.617718038
 20
4.2059372898
 30
0.0
 10
-26.6179532603
 20
4.2054560498
 30
0.0
 10
-26.6181348906
 20
4.2046697577
 30
0.0
 10
-26.6183761069
 20
4.2032186773
 30
0.0
 10
-26.618495179
 20
4.2021105058
 30
0.0
 10
-26.6185604231
 20
4.2014574188
 30
0.0
  0
LINE
  5
5D9
100
AcDbEntity
  8
RACCORDO
100
AcDbLine
 62
250
  6
CONTINUOUS
 10
-26.6185604231
 20
4.2014574188
 11
-26.6189858409
 21
4.1958907869
  0
SPLINE
  5
5DA
100
AcDbEntity
  8
RACCORDO
100
AcDbSpline
 62
250
  6
CONTINUOUS
 70
0
 71
3
 72
13
 73
9
 74
0
 42
0.0000001
 43
0.0000001
 44
0.0000000001
 40
0.0
 40
0.0
 40
0.0
 40
0.0
 40
0.0524266623
 40
0.1315913983
 40
0.2352767249
 40
0.3605596326
 40
0.6612684623
 40
1.0
 40
1.0
 40
1.0
 40
1.0
 10
-26.6189858409
 20
4.1958907869
 30
0.0
 10
-26.6193985993
 20
4.1890889385
 30
0.0
 10
-26.619930027
 20
4.1719888151
 30
0.0
 10
-26.6204386991
 20
4.1414133014
 30
0.0
 10
-26.6206982987
 20
4.1013621334
 30
0.0
 10
-26.6207248519
 20
4.0325153908
 30
0.0
 10
-26.6200489185
 20
3.9331184249
 30
0.0
 10
-26.6189799378
 20
3.8500111687
 30
0.0
 10
-26.6182885873
 20
3.8059886395
 30
0.0
  0
SPLINE
  5
5DB
100
AcDbEntity
  8
RACCORDO
100
AcDbSpline
 62
250
  6
CONTINUOUS
 70
0
 71
3
 72
22
 73
18
 74
0
 42
0.0000001
 43
0.0000001
 44
0.0000000001
 40
0.0
 40
0.0
 40
0.0
 40
0.0
 40
0.0061360579
 40
0.0122241037
 40
0.0206304647
 40
0.0313912706
 40
0.0444852388
 40
0.077526333
 40
0.1194385295
 40
0.1698236296
 40
0.2281983362
 40
0.2940021287
 40
0.3666024266
 40
0.4453009768
 40
0.6179127849
 40
0.805209615
 40
1.0
 40
1.0
 40
1.0
 40
1.0
 10
-28.6348684491
 20
4.174249359
 30
0.0
 10
-28.6356875987
 20
4.1742364907
 30
0.0
 10
-28.63654321
 20
4.172161504
 30
0.0
 10
-28.636781295
 20
4.1696481746
 30
0.0
 10
-28.6370125718
 20
4.1661953023
 30
0.0
 10
-28.6372269507
 20
4.1619272996
 30
0.0
 10
-28.6376018636
 20
4.154323976
 30
0.0
 10
-28.6379343956
 20
4.1425825599
 30
0.0
 10
-28.6382450627
 20
4.1258466401
 30
0.0
 10
-28.6384707599
 20
4.1057323958
 30
0.0
 10
-28.6386042119
 20
4.0824254897
 30
0.0
 10
-28.6386467713
 20
4.056152868
 30
0.0
 10
-28.6385953294
 20
4.0271665417
 30
0.0
 10
-28.6383961231
 20
3.9839203153
 30
0.0
 10
-28.6379068358
 20
3.9253618644
 30
0.0
 10
-28.6369987923
 20
3.8513071185
 30
0.0
 10
-28.6361949125
 20
3.8002992772
 30
0.0
 10
-28.6357409937
 20
3.7742959646
 30
0.0
  0
SPLINE
  5
5DC
100
AcDbEntity
  8
RACCORDO
100
AcDbSpline
 62
250
  6
CONTINUOUS
 70
0
 71
3
 72
14
 73
10
 74
0
 42
0.0000001
 43
0.0000001
 44
0.0000000001
 40
0.0
 40
0.0
 40
0.0
 40
0.0
 40
0.2402881316
 40
0.4838837986
 40
0.6081513836
 40
0.7349333822
 40
0.8652440791
 40
0.9321316247
 40
1.0
 40
1.0
 40
1.0
 40
1.0
 10
-26.1848659783
 20
4.2127370766
 30
0.0
 10
-26.1990487176
 20
4.1677245499
 30
0.0
 10
-26.2334621377
 20
4.0787950693
 30
0.0
 10
-26.2948334288
 20
3.9752531628
 30
0.0
 10
-26.3590316309
 20
3.9019239357
 30
0.0
 10
-26.4170653988
 20
3.853945361
 30
0.0
 10
-26.4743054244
 20
3.8244887759
 30
0.0
 10
-26.5247091575
 20
3.8108001626
 30
0.0
 10
-26.5511535758
 20
3.8078868206
 30
0.0
 10
-26.5644780146
 20
3.8075102325
 30
0.0
  0
SPLINE
  5
5DD
100
AcDbEntity
  8
RACCORDO
100
AcDbSpline
 62
250
  6
CONTINUOUS
 70
0
 71
3
 72
14
 73
10
 74
0
 42
0.0000001
 43
0.0000001
 44
0.0000000001
 40
0.0
 40
0.0
 40
0.0
 40
0.0
 40
0.0678684086
 40
0.1347559849
 40
0.2650667212
 40
0.391848854
 40
0.5161167084
 40
0.7597121884
 40
1.0
 40
1.0
 40
1.0
 40
1.0
 10
-26.5644793412
 20
-3.8075101273
 30
0.0
 10
-26.5511548721
 20
-3.8078867029
 30
0.0
 10
-26.5247103925
 20
-3.8107999726
 30
0.0
 10
-26.4743064704
 20
-3.8244882929
 30
0.0
 10
-26.4170661147
 20
-3.8539446573
 30
0.0
 10
-26.3590323984
 20
-3.9019237143
 30
0.0
 10
-26.2948347224
 20
-3.9752536419
 30
0.0
 10
-26.2334625211
 20
-4.0787950272
 30
0.0
 10
-26.1990483417
 20
-4.1677244104
 30
0.0
 10
-26.1848659783
 20
-4.2127370766
 30
0.0
  0
SPLINE
  5
5DE
100
AcDbEntity
  8
RACCORDO
100
AcDbSpline
 62
250
  6
CONTINUOUS
 70
0
 71
3
 72
24
 73
20
 74
0
 42
0.0000001
 43
0.0000001
 44
0.0000000001
 40
0.0
 40
0.0
 40
0.0
 40
0.0
 40
0.0014769537
 40
0.0051843442
 40
0.011248049
 40
0.0196749815
 40
0.0304535066
 40
0.0435602871
 40
0.0589666362
 40
0.0766357242
 40
0.1185911682
 40
0.1690268052
 40
0.2274592789
 40
0.2933274578
 40
0.3659982041
 40
0.444772644
 40
0.6175497837
 40
0.8050252832
 40
1.0
 40
1.0
 40
1.0
 40
1.0
 10
-26.6182885873
 20
-15.5093603591
 30
0.0
 10
-26.618042374
 20
-15.5093560614
 30
0.0
 10
-26.6177165796
 20
-15.5082388169
 30
0.0
 10
-26.617395882
 20
-15.5066525912
 30
0.0
 10
-26.6170404848
 20
-15.5034939758
 30
0.0
 10
-26.6167121659
 20
-15.4993561776
 30
0.0
 10
-26.6163965112
 20
-15.493953486
 30
0.0
 10
-26.6161056129
 20
-15.4874174788
 30
0.0
 10
-26.6158381863
 20
-15.4797191712
 30
0.0
 10
-26.6154965063
 20
-15.4672151968
 30
0.0
 10
-26.6151577936
 20
-15.4488670537
 30
0.0
 10
-26.6148770088
 20
-15.4237221708
 30
0.0
 10
-26.6147091558
 20
-15.3945888601
 30
0.0
 10
-26.6146565319
 20
-15.3617480572
 30
0.0
 10
-26.6147206386
 20
-15.3255156457
 30
0.0
 10
-26.6149697735
 20
-15.2714589639
 30
0.0
 10
-26.61558136
 20
-15.198262785
 30
0.0
 10
-26.6167162995
 20
-15.1056971658
 30
0.0
 10
-26.6177214189
 20
-15.0419394661
 30
0.0
 10
-26.6182885873
 20
-15.0094365115
 30
0.0
  0
SPLINE
  5
5DF
100
AcDbEntity
  8
RACCORDO
100
AcDbSpline
 62
250
  6
CONTINUOUS
 70
0
 71
3
 72
24
 73
20
 74
0
 42
0.0000001
 43
0.0000001
 44
0.0000000001
 40
0.0
 40
0.0
 40
0.0
 40
0.0
 40
0.0014769707
 40
0.0051843937
 40
0.0112481494
 40
0.0196751509
 40
0.0304537627
 40
0.0435606462
 40
0.0589671134
 40
0.0766363326
 40
0.1185920712
 40
0.1690280296
 40
0.2274608296
 40
0.2933293151
 40
0.3660003204
 40
0.4447749424
 40
0.61755209
 40
0.8050269074
 40
1.0
 40
1.0
 40
1.0
 40
1.0
 10
-36.7191611318
 20
4.0472511411
 30
0.0
 10
-36.7189149011
 20
4.0472550092
 30
0.0
 10
-36.7185871386
 20
4.0483717242
 30
0.0
 10
-36.7182636591
 20
4.0499574525
 30
0.0
 10
-36.7179027307
 20
4.0531155635
 30
0.0
 10
-36.7175671743
 20
4.0572529427
 30
0.0
 10
-36.7172420743
 20
4.0626552826
 30
0.0
 10
-36.716939754
 20
4.0691910225
 30
0.0
 10
-36.7166588778
 20
4.0768891449
 30
0.0
 10
-36.7162953568
 20
4.0893929755
 30
0.0
 10
-36.7159246028
 20
4.1077411832
 30
0.0
 10
-36.7155999167
 20
4.1328864612
 30
0.0
 10
-36.7153812069
 20
4.1620204816
 30
0.0
 10
-36.7152712612
 20
4.1948622924
 30
0.0
 10
-36.7152721324
 20
4.2310959896
 30
0.0
 10
-36.7154269314
 20
4.2851547465
 30
0.0
 10
-36.7159107944
 20
4.3583540303
 30
0.0
 10
-36.7168842295
 20
4.4509239273
 30
0.0
 10
-36.7177781195
 20
4.5146848427
 30
0.0
 10
-36.7182885873
 20
4.5471894573
 30
0.0
  0
SPLINE
  5
5E0
100
AcDbEntity
  8
RACCORDO
100
AcDbSpline
 62
250
  6
CONTINUOUS
 70
0
 71
3
 72
17
 73
13
 74
0
 42
0.0000001
 43
0.0000001
 44
0.0000000001
 40
0.0
 40
0.0
 40
0.0
 40
0.0
 40
0.0303966263
 40
0.0564696475
 40
0.0907284335
 40
0.1331819542
 40
0.1835964405
 40
0.2415902225
 40
0.3066730902
 40
0.4557114922
 40
0.6252668452
 40
1.0
 40
1.0
 40
1.0
 40
1.0
 10
-26.5207318654
 20
4.207460985
 30
0.0
 10
-26.5248649974
 20
4.2073960747
 30
0.0
 10
-26.5307593223
 20
4.2000160161
 30
0.0
 10
-26.535497562
 20
4.1892185287
 30
0.0
 10
-26.5398934955
 20
4.1757223399
 30
0.0
 10
-26.5439157038
 20
4.1589715667
 30
0.0
 10
-26.5477461437
 20
4.1387857831
 30
0.0
 10
-26.5512569362
 20
4.1154589346
 30
0.0
 10
-26.5556963287
 20
4.0787140713
 30
0.0
 10
-26.5600537071
 20
4.0267048131
 30
0.0
 10
-26.5647325595
 20
3.9325248543
 30
0.0
 10
-26.5652660986
 20
3.8584641432
 30
0.0
 10
-26.5644781777
 20
3.8075102174
 30
0.0
  0
SPLINE
  5
5E1
100
AcDbEntity
  8
RACCORDO
100
AcDbSpline
 62
250
  6
CONTINUOUS
 70
0
 71
3
 72
24
 73
20
 74
0
 42
0.0000001
 43
0.0000001
 44
0.0000000001
 40
0.0
 40
0.0
 40
0.0
 40
0.0
 40
0.194973087
 40
0.3824478998
 40
0.555225044
 40
0.633999665
 40
0.7066706698
 40
0.7725391552
 40
0.8309719558
 40
0.8814079154
 40
0.9233636556
 40
0.941032876
 40
0.9564393444
 40
0.9695462293
 40
0.9803248425
 40
0.9887518457
 40
0.9948156032
 40
0.9985230279
 40
1.0
 40
1.0
 40
1.0
 40
1.0
 10
-36.7182885873
 20
-4.5471894573
 30
0.0
 10
-36.7177781195
 20
-4.5146848436
 30
0.0
 10
-36.7168842295
 20
-4.4509239299
 30
0.0
 10
-36.7159107944
 20
-4.3583540352
 30
0.0
 10
-36.7154269314
 20
-4.2851547529
 30
0.0
 10
-36.7152721325
 20
-4.2310959969
 30
0.0
 10
-36.7152712612
 20
-4.1948623
 30
0.0
 10
-36.7153812068
 20
-4.1620204892
 30
0.0
 10
-36.7155999166
 20
-4.1328864685
 30
0.0
 10
-36.7159246027
 20
-4.1077411899
 30
0.0
 10
-36.7162953566
 20
-4.0893929816
 30
0.0
 10
-36.7166588776
 20
-4.0768891503
 30
0.0
 10
-36.7169397538
 20
-4.0691910273
 30
0.0
 10
-36.7172420741
 20
-4.0626552867
 30
0.0
 10
-36.7175671741
 20
-4.057252946
 30
0.0
 10
-36.7179027305
 20
-4.0531155661
 30
0.0
 10
-36.7182636586
 20
-4.049957454
 30
0.0
 10
-36.7185871389
 20
-4.0483717254
 30
0.0
 10
-36.7189149009
 20
-4.0472550092
 30
0.0
 10
-36.7191611318
 20
-4.0472511411
 30
0.0
  0
SPLINE
  5
5E2
100
AcDbEntity
  8
RACCORDO
100
AcDbSpline
 62
250
  6
CONTINUOUS
 70
0
 71
3
 72
17
 73
13
 74
0
 42
0.0000001
 43
0.0000001
 44
0.0000000001
 40
0.0
 40
0.0
 40
0.0
 40
0.0
 40
0.3747331539
 40
0.5442885071
 40
0.6933269098
 40
0.7584097779
 40
0.8164035603
 40
0.8668180469
 40
0.9092715677
 40
0.9435303537
 40
0.9696033747
 40
1.0
 40
1.0
 40
1.0
 40
1.0
 10
-26.5644781772
 20
-3.8075102174
 30
0.0
 10
-26.565266098
 20
-3.8584641433
 30
0.0
 10
-26.5647325589
 20
-3.9325248546
 30
0.0
 10
-26.5600537065
 20
-4.0267048138
 30
0.0
 10
-26.5556963282
 20
-4.0787140723
 30
0.0
 10
-26.5512569358
 20
-4.115458936
 30
0.0
 10
-26.5477461434
 20
-4.1387857848
 30
0.0
 10
-26.5439157035
 20
-4.1589715686
 30
0.0
 10
-26.5398934953
 20
-4.1757223419
 30
0.0
 10
-26.5354975618
 20
-4.1892185308
 30
0.0
 10
-26.5307593223
 20
-4.2000160181
 30
0.0
 10
-26.5248649973
 20
-4.2073960767
 30
0.0
 10
-26.5207318654
 20
-4.2074609866
 30
0.0
  0
SPLINE
  5
5E3
100
AcDbEntity
  8
RACCORDO
100
AcDbSpline
 62
250
  6
CONTINUOUS
 70
0
 71
3
 72
24
 73
20
 74
0
 42
0.0000001
 43
0.0000001
 44
0.0000000001
 40
0.0
 40
0.0
 40
0.0
 40
0.0
 40
0.1949747168
 40
0.3824502163
 40
0.555227356
 40
0.6340017959
 40
0.7066725422
 40
0.7725407211
 40
0.8309731948
 40
0.8814088318
 40
0.9233642758
 40
0.9410333638
 40
0.9564397129
 40
0.9695464934
 40
0.9803250185
 40
0.988751951
 40
0.9948156558
 40
0.9985230463
 40
1.0
 40
1.0
 40
1.0
 40
1.0
 10
-36.7182885873
 20
-15.1857326673
 30
0.0
 10
-36.7177214189
 20
-15.2182356219
 30
0.0
 10
-36.7167162995
 20
-15.2819933216
 30
0.0
 10
-36.71558136
 20
-15.3745589407
 30
0.0
 10
-36.7149697735
 20
-15.4477551197
 30
0.0
 10
-36.7147206386
 20
-15.5018118015
 30
0.0
 10
-36.7146565319
 20
-15.5380442129
 30
0.0
 10
-36.7147091558
 20
-15.5708850159
 30
0.0
 10
-36.7148770088
 20
-15.6000183266
 30
0.0
 10
-36.7151577936
 20
-15.6251632094
 30
0.0
 10
-36.7154965063
 20
-15.6435113525
 30
0.0
 10
-36.7158381863
 20
-15.6560153269
 30
0.0
 10
-36.7161056129
 20
-15.6637136345
 30
0.0
 10
-36.7163965112
 20
-15.6702496418
 30
0.0
 10
-36.7167121659
 20
-15.6756523334
 30
0.0
 10
-36.7170404848
 20
-15.6797901316
 30
0.0
 10
-36.717395882
 20
-15.6829487469
 30
0.0
 10
-36.7177165796
 20
-15.6845349727
 30
0.0
 10
-36.718042374
 20
-15.6856522172
 30
0.0
 10
-36.7182885873
 20
-15.6856565148
 30
0.0
  0
SPLINE
  5
5E4
100
AcDbEntity
  8
RACCORDO
100
AcDbSpline
 62
250
  6
CONTINUOUS
 70
0
 71
3
 72
23
 73
19
 74
0
 42
0.0000001
 43
0.0000001
 44
0.0000000001
 40
0.0
 40
0.0
 40
0.0
 40
0.0
 40
0.001477048
 40
0.0051843703
 40
0.0112480675
 40
0.0196751742
 40
0.0304533826
 40
0.0435606068
 40
0.0766358522
 40
0.1185912435
 40
0.169026766
 40
0.2274591258
 40
0.2933272696
 40
0.3659980969
 40
0.4447726265
 40
0.6175496631
 40
0.8050239342
 40
1.0
 40
1.0
 40
1.0
 40
1.0
 10
-25.4217790685
 20
-15.4884752077
 30
0.0
 10
-25.4216313312
 20
-15.488472629
 30
0.0
 10
-25.421435932
 20
-15.4878022234
 30
0.0
 10
-25.4212434267
 20
-15.4868505336
 30
0.0
 10
-25.4210302042
 20
-15.484955335
 30
0.0
 10
-25.4208332222
 20
-15.4824726621
 30
0.0
 10
-25.4206437684
 20
-15.4792311208
 30
0.0
 10
-25.4203911771
 20
-15.4735452471
 30
0.0
 10
-25.4201332334
 20
-15.4647271283
 30
0.0
 10
-25.4199002501
 20
-15.4521798091
 30
0.0
 10
-25.4197322396
 20
-15.437092006
 30
0.0
 10
-25.4196313723
 20
-15.419612354
 30
0.0
 10
-25.4195998469
 20
-15.3999077875
 30
0.0
 10
-25.4196382965
 20
-15.3781683633
 30
0.0
 10
-25.4197877846
 20
-15.3457343454
 30
0.0
 10
-25.4201547331
 20
-15.3018167812
 30
0.0
 10
-25.4208356932
 20
-15.2462774216
 30
0.0
 10
-25.4214387653
 20
-15.2080228013
 30
0.0
 10
-25.4217790685
 20
-15.1885208992
 30
0.0
  0
SPLINE
  5
5E5
100
AcDbEntity
  8
RACCORDO
100
AcDbSpline
 62
250
  6
CONTINUOUS
 70
0
 71
3
 72
24
 73
20
 74
0
 42
0.0000001
 43
0.0000001
 44
0.0000000001
 40
0.0
 40
0.0
 40
0.0
 40
0.0
 40
0.0014769551
 40
0.0051843473
 40
0.0112480539
 40
0.019674988
 40
0.0304535146
 40
0.0435602964
 40
0.0589666468
 40
0.0766357359
 40
0.1185911815
 40
0.1690268197
 40
0.227459294
 40
0.2933274729
 40
0.3659982186
 40
0.4447726575
 40
0.6175497938
 40
0.8050252887
 40
1.0
 40
1.0
 40
1.0
 40
1.0
 10
-36.7182885873
 20
15.6856565148
 30
0.0
 10
-36.7180423738
 20
15.6856522172
 30
0.0
 10
-36.7177165799
 20
15.6845349715
 30
0.0
 10
-36.7173958815
 20
15.6829487455
 30
0.0
 10
-36.7170404846
 20
15.679790129
 30
0.0
 10
-36.7167121656
 20
15.6756523301
 30
0.0
 10
-36.716396511
 20
15.6702496377
 30
0.0
 10
-36.7161056127
 20
15.6637136298
 30
0.0
 10
-36.7158381862
 20
15.6560153216
 30
0.0
 10
-36.7154965062
 20
15.6435113465
 30
0.0
 10
-36.7151577935
 20
15.6251632028
 30
0.0
 10
-36.7148770087
 20
15.6000183194
 30
0.0
 10
-36.7147091557
 20
15.5708850084
 30
0.0
 10
-36.7146565319
 20
15.5380442054
 30
0.0
 10
-36.7147206386
 20
15.5018117942
 30
0.0
 10
-36.7149697735
 20
15.4477551133
 30
0.0
 10
-36.71558136
 20
15.3745589358
 30
0.0
 10
-36.7167162995
 20
15.281993319
 30
0.0
 10
-36.7177214189
 20
15.2182356209
 30
0.0
 10
-36.7182885873
 20
15.1857326673
 30
0.0
  0
SPLINE
  5
5E6
100
AcDbEntity
  8
RACCORDO
100
AcDbSpline
 62
250
  6
CONTINUOUS
 70
0
 71
3
 72
24
 73
20
 74
0
 42
0.0000001
 43
0.0000001
 44
0.0000000001
 40
0.0
 40
0.0
 40
0.0
 40
0.0
 40
0.0014770123
 40
0.00518439
 40
0.0112481815
 40
0.0196751968
 40
0.0304537599
 40
0.0435607483
 40
0.0589670649
 40
0.0766364907
 40
0.1185922736
 40
0.1690282586
 40
0.227461065
 40
0.2933295355
 40
0.3660005133
 40
0.4447750825
 40
0.617552072
 40
0.8050264101
 40
1.0
 40
1.0
 40
1.0
 40
1.0
 10
-26.6191611318
 20
4.2059146199
 30
0.0
 10
-26.6189148942
 20
4.2059184881
 30
0.0
 10
-26.6185871896
 20
4.2070352434
 30
0.0
 10
-26.6182636395
 20
4.2086209408
 30
0.0
 10
-26.6179027341
 20
4.2117790714
 30
0.0
 10
-26.6175671676
 20
4.2159164425
 30
0.0
 10
-26.617242075
 20
4.2213187973
 30
0.0
 10
-26.6169397616
 20
4.2278545205
 30
0.0
 10
-26.6166588708
 20
4.2355526693
 30
0.0
 10
-26.6162953648
 20
4.2480565167
 30
0.0
 10
-26.6159246035
 20
4.2664047701
 30
0.0
 10
-26.6155999204
 20
4.2915500605
 30
0.0
 10
-26.6153812103
 20
4.3206840833
 30
0.0
 10
-26.6152712649
 20
4.3535258873
 30
0.0
 10
-26.6152721361
 20
4.3897595678
 30
0.0
 10
-26.6154269343
 20
4.4438182836
 30
0.0
 10
-26.6159107956
 20
4.5170174507
 30
0.0
 10
-26.6168842274
 20
4.6095873223
 30
0.0
 10
-26.6177781182
 20
4.6733482393
 30
0.0
 10
-26.6182885873
 20
4.7058529361
 30
0.0
  0
SPLINE
  5
5E7
100
AcDbEntity
  8
RACCORDO
100
AcDbSpline
 62
250
  6
CONTINUOUS
 70
0
 71
3
 72
24
 73
20
 74
0
 42
0.0000001
 43
0.0000001
 44
0.0000000001
 40
0.0
 40
0.0
 40
0.0
 40
0.0
 40
0.0014770123
 40
0.00518439
 40
0.0112481815
 40
0.0196751968
 40
0.0304537599
 40
0.0435607483
 40
0.0589670649
 40
0.0766364907
 40
0.1185922736
 40
0.1690282586
 40
0.227461065
 40
0.2933295355
 40
0.3660005133
 40
0.4447750825
 40
0.617552072
 40
0.8050264101
 40
1.0
 40
1.0
 40
1.0
 40
1.0
 10
-26.6191611318
 20
-4.2059146199
 30
0.0
 10
-26.6189148942
 20
-4.2059184881
 30
0.0
 10
-26.6185871896
 20
-4.2070352434
 30
0.0
 10
-26.6182636395
 20
-4.2086209408
 30
0.0
 10
-26.6179027341
 20
-4.2117790714
 30
0.0
 10
-26.6175671676
 20
-4.2159164425
 30
0.0
 10
-26.617242075
 20
-4.2213187973
 30
0.0
 10
-26.6169397616
 20
-4.2278545205
 30
0.0
 10
-26.6166588708
 20
-4.2355526693
 30
0.0
 10
-26.6162953648
 20
-4.2480565167
 30
0.0
 10
-26.6159246035
 20
-4.2664047701
 30
0.0
 10
-26.6155999204
 20
-4.2915500605
 30
0.0
 10
-26.6153812103
 20
-4.3206840833
 30
0.0
 10
-26.6152712649
 20
-4.3535258873
 30
0.0
 10
-26.6152721361
 20
-4.3897595678
 30
0.0
 10
-26.6154269343
 20
-4.4438182836
 30
0.0
 10
-26.6159107956
 20
-4.5170174507
 30
0.0
 10
-26.6168842274
 20
-4.6095873223
 30
0.0
 10
-26.6177781182
 20
-4.6733482393
 30
0.0
 10
-26.6182885873
 20
-4.7058529361
 30
0.0
  0
SPLINE
  5
5E8
100
AcDbEntity
  8
RACCORDO
100
AcDbSpline
 62
250
  6
CONTINUOUS
 70
0
 71
3
 72
23
 73
19
 74
0
 42
0.0000001
 43
0.0000001
 44
0.0000000001
 40
0.0
 40
0.0
 40
0.0
 40
0.0
 40
0.194975973
 40
0.3824502647
 40
0.5552273181
 40
0.6340018561
 40
0.7066726923
 40
0.7725408444
 40
0.8309732116
 40
0.8814087405
 40
0.9233641373
 40
0.956439387
 40
0.9695466134
 40
0.9803248229
 40
0.988751931
 40
0.994815629
 40
0.9985229518
 40
1.0
 40
1.0
 40
1.0
 40
1.0
 10
-25.4217790685
 20
15.1885208992
 30
0.0
 10
-25.4214387654
 20
15.208022792
 30
0.0
 10
-25.4208356934
 20
15.2462774051
 30
0.0
 10
-25.4201547333
 20
15.3018167591
 30
0.0
 10
-25.4197877847
 20
15.3457343279
 30
0.0
 10
-25.4196382965
 20
15.3781683493
 30
0.0
 10
-25.4195998469
 20
15.3999077759
 30
0.0
 10
-25.4196313723
 20
15.4196123449
 30
0.0
 10
-25.4197322395
 20
15.4370919992
 30
0.0
 10
-25.41990025
 20
15.4521798042
 30
0.0
 10
-25.4201332333
 20
15.464727125
 30
0.0
 10
-25.4203911771
 20
15.473545245
 30
0.0
 10
-25.4206437683
 20
15.4792311195
 30
0.0
 10
-25.4208332221
 20
15.4824726612
 30
0.0
 10
-25.4210302041
 20
15.4849553345
 30
0.0
 10
-25.4212434267
 20
15.4868505334
 30
0.0
 10
-25.421435932
 20
15.4878022233
 30
0.0
 10
-25.4216313312
 20
15.488472629
 30
0.0
 10
-25.4217790685
 20
15.4884752077
 30
0.0
  0
SPLINE
  5
5E9
100
AcDbEntity
  8
RACCORDO
100
AcDbSpline
 62
250
  6
CONTINUOUS
 70
0
 71
3
 72
23
 73
19
 74
0
 42
0.0000001
 43
0.0000001
 44
0.0000000001
 40
0.0
 40
0.0
 40
0.0
 40
0.0
 40
0.0014771169
 40
0.0051844515
 40
0.0112479828
 40
0.0196753876
 40
0.0304532064
 40
0.0435607315
 40
0.0766357146
 40
0.118590916
 40
0.1690266451
 40
0.2274593695
 40
0.2933276393
 40
0.3659982463
 40
0.4447725367
 40
0.6175495918
 40
0.80502281
 40
1.0
 40
1.0
 40
1.0
 40
1.0
 10
-55.709562384
 20
-23.8600548477
 30
0.0
 10
-55.7094392639
 20
-23.8600526986
 30
0.0
 10
-55.7092764755
 20
-23.8594939852
 30
0.0
 10
-55.7091160155
 20
-23.8587009439
 30
0.0
 10
-55.7089383226
 20
-23.8571215892
 30
0.0
 10
-55.7087741832
 20
-23.8550527214
 30
0.0
 10
-55.7086162897
 20
-23.8523514188
 30
0.0
 10
-55.7084058239
 20
-23.8476132199
 30
0.0
 10
-55.7081908468
 20
-23.8402648009
 30
0.0
 10
-55.7079967008
 20
-23.8298087224
 30
0.0
 10
-55.7078566918
 20
-23.8172355218
 30
0.0
 10
-55.7077726399
 20
-23.8026690875
 30
0.0
 10
-55.70774637
 20
-23.7862485936
 30
0.0
 10
-55.7077784094
 20
-23.7681324353
 30
0.0
 10
-55.7079029786
 20
-23.7411041248
 30
0.0
 10
-55.7082087701
 20
-23.7045062623
 30
0.0
 10
-55.7087762368
 20
-23.658223457
 30
0.0
 10
-55.7092787963
 20
-23.626344602
 30
0.0
 10
-55.709562384
 20
-23.6100929239
 30
0.0
  0
SPLINE
  5
5EA
100
AcDbEntity
  8
RACCORDO
100
AcDbSpline
 62
250
  6
CONTINUOUS
 70
0
 71
3
 72
24
 73
20
 74
0
 42
0.0000001
 43
0.0000001
 44
0.0000000001
 40
0.0
 40
0.0
 40
0.0
 40
0.0
 40
0.0014769953
 40
0.0051843405
 40
0.0112480812
 40
0.0196750273
 40
0.0304535038
 40
0.0435603891
 40
0.0589665877
 40
0.0766358822
 40
0.1185913705
 40
0.1690270342
 40
0.2274595142
 40
0.2933276781
 40
0.3659983969
 40
0.444772784
 40
0.6175497656
 40
0.8050247858
 40
1.0
 40
1.0
 40
1.0
 40
1.0
 10
-26.6182885873
 20
15.5093603591
 30
0.0
 10
-26.6180423671
 20
15.5093560613
 30
0.0
 10
-26.6177166308
 20
15.5082387765
 30
0.0
 10
-26.6173958624
 20
15.5066525817
 30
0.0
 10
-26.6170404883
 20
15.5034939467
 30
0.0
 10
-26.6167121592
 20
15.4993561566
 30
0.0
 10
-26.616396512
 20
15.4939534501
 30
0.0
 10
-26.6161056206
 20
15.4874174596
 30
0.0
 10
-26.6158381794
 20
15.4797191255
 30
0.0
 10
-26.6154965145
 20
15.4672151344
 30
0.0
 10
-26.6151577945
 20
15.4488669456
 30
0.0
 10
-26.6148770127
 20
15.4237220504
 30
0.0
 10
-26.6147091594
 20
15.3945887373
 30
0.0
 10
-26.6146565359
 20
15.3617479411
 30
0.0
 10
-26.6147206424
 20
15.3255155464
 30
0.0
 10
-26.6149697765
 20
15.2714589055
 30
0.0
 10
-26.6155813611
 20
15.1982628433
 30
0.0
 10
-26.6167162972
 20
15.1056972496
 30
0.0
 10
-26.6177214174
 20
15.0419395483
 30
0.0
 10
-26.6182885873
 20
15.0094365115
 30
0.0
  0
SPLINE
  5
5EB
100
AcDbEntity
  8
RACCORDO
100
AcDbSpline
 62
250
  6
CONTINUOUS
 70
0
 71
3
 72
22
 73
18
 74
0
 42
0.0000001
 43
0.0000001
 44
0.0000000001
 40
0.0
 40
0.0
 40
0.0
 40
0.0
 40
0.1947971291
 40
0.3820988923
 40
0.5547160204
 40
0.6334171293
 40
0.7060197801
 40
0.7718256006
 40
0.8302020233
 40
0.8805886225
 40
0.9225018922
 40
0.9555450266
 40
0.968638305
 40
0.979397174
 40
0.9878077444
 40
0.9939081739
 40
1.0
 40
1.0
 40
1.0
 40
1.0
 10
-28.6357409937
 20
-3.7742959646
 30
0.0
 10
-28.6361949376
 20
-3.8002993583
 30
0.0
 10
-28.636998773
 20
-3.8513071533
 30
0.0
 10
-28.6379068356
 20
-3.9253618358
 30
0.0
 10
-28.6383961176
 20
-3.9839201552
 30
0.0
 10
-28.6385953232
 20
-4.0271663828
 30
0.0
 10
-28.6386468641
 20
-4.0561527308
 30
0.0
 10
-28.638603811
 20
-4.0824253143
 30
0.0
 10
-28.638472152
 20
-4.105732265
 30
0.0
 10
-28.6382411553
 20
-4.1258462147
 30
0.0
 10
-28.6379433127
 20
-4.1425828594
 30
0.0
 10
-28.6375898705
 20
-4.1543229173
 30
0.0
 10
-28.6372269492
 20
-4.161927307
 30
0.0
 10
-28.6370330508
 20
-4.166194555
 30
0.0
 10
-28.6367919831
 20
-4.1696538338
 30
0.0
 10
-28.6364989354
 20
-4.1721461658
 30
0.0
 10
-28.6356816682
 20
-4.1742365839
 30
0.0
 10
-28.6348684491
 20
-4.174249359
 30
0.0
  0
SPLINE
  5
5EC
100
AcDbEntity
  8
RACCORDO
100
AcDbSpline
 62
7
  6
CONTINUOUS
 70
0
 71
3
 72
15
 73
11
 74
0
 42
0.0000001
 43
0.0000001
 44
0.0000000001
 40
0.0
 40
0.0
 40
0.0
 40
0.0
 40
0.2903597508
 40
0.4315463098
 40
0.567599211
 40
0.6960387183
 40
0.8135867372
 40
0.9161148908
 40
0.9605094791
 40
1.0
 40
1.0
 40
1.0
 40
1.0
 10
-54.9726516889
 20
15.5043637604
 30
0.0
 10
-54.9447098392
 20
15.5434038141
 30
0.0
 10
-54.9032384205
 20
15.6014718638
 30
0.0
 10
-54.8501497222
 20
15.6788679433
 30
0.0
 10
-54.8133805165
 20
15.7349740166
 30
0.0
 10
-54.7805249946
 20
15.788956898
 30
0.0
 10
-54.7533135694
 20
15.8397697211
 30
0.0
 10
-54.7362547505
 20
15.8802284747
 30
0.0
 10
-54.728544838
 20
15.9101282392
 30
0.0
 10
-54.7270147905
 20
15.9240015578
 30
0.0
 10
-54.7270147905
 20
15.9305310578
 30
0.0
  0
SPLINE
  5
5ED
100
AcDbEntity
  8
RACCORDO
100
AcDbSpline
 62
250
  6
CONTINUOUS
 70
0
 71
3
 72
13
 73
9
 74
0
 42
0.0000001
 43
0.0000001
 44
0.0000000001
 40
0.0
 40
0.0
 40
0.0
 40
0.0
 40
0.3387315377
 40
0.6394403674
 40
0.7647232751
 40
0.8684086017
 40
0.9475733377
 40
1.0
 40
1.0
 40
1.0
 40
1.0
 10
-26.6182885873
 20
-3.8059886395
 30
0.0
 10
-26.6189799378
 20
-3.8500111687
 30
0.0
 10
-26.6200489185
 20
-3.9331184249
 30
0.0
 10
-26.6207248519
 20
-4.0325153908
 30
0.0
 10
-26.6206982987
 20
-4.1013621334
 30
0.0
 10
-26.6204386991
 20
-4.1414133014
 30
0.0
 10
-26.619930027
 20
-4.1719888151
 30
0.0
 10
-26.6193985993
 20
-4.1890889385
 30
0.0
 10
-26.6189858409
 20
-4.1958907869
 30
0.0
  0
SPLINE
  5
5EE
100
AcDbEntity
  8
RACCORDO
100
AcDbSpline
 62
250
  6
CONTINUOUS
 70
0
 71
3
 72
10
 73
6
 74
0
 42
0.0000001
 43
0.0000001
 44
0.0000000001
 40
0.0
 40
0.0
 40
0.0
 40
0.0
 40
0.6737435979
 40
0.8800689566
 40
1.0
 40
1.0
 40
1.0
 40
1.0
 10
-26.6189858409
 20
-4.1958907869
 30
0.0
 10
-26.61885187
 20
-4.1980984952
 30
0.0
 10
-26.6186697573
 20
-4.2009914675
 30
0.0
 10
-26.6182197877
 20
-4.2042326623
 30
0.0
 10
-26.6180078024
 20
-4.2052959226
 30
0.0
 10
-26.6178470716
 20
-4.2056553297
 30
0.0
  0
SPLINE
  5
5EF
100
AcDbEntity
  8
RACCORDO
100
AcDbSpline
 62
250
  6
CONTINUOUS
 70
0
 71
3
 72
24
 73
20
 74
0
 42
0.0000001
 43
0.0000001
 44
0.0000000001
 40
0.0
 40
0.0
 40
0.0
 40
0.0
 40
0.0014769721
 40
0.0051843968
 40
0.0112481543
 40
0.0196751575
 40
0.0304537707
 40
0.0435606556
 40
0.0589671239
 40
0.0766363444
 40
0.1185920846
 40
0.1690280442
 40
0.2274608448
 40
0.2933293302
 40
0.366000335
 40
0.4447749559
 40
0.6175521001
 40
0.805026913
 40
1.0
 40
1.0
 40
1.0
 40
1.0
 10
-39.2348684491
 20
-4.0077312525
 30
0.0
 10
-39.2346222182
 20
-4.0077351206
 30
0.0
 10
-39.2342944562
 20
-4.0088518368
 30
0.0
 10
-39.2339709759
 20
-4.0104375655
 30
0.0
 10
-39.2336100478
 20
-4.0135956775
 30
0.0
 10
-39.2332744914
 20
-4.0177330574
 30
0.0
 10
-39.2329493914
 20
-4.0231353982
 30
0.0
 10
-39.2326470711
 20
-4.0296711387
 30
0.0
 10
-39.2323661949
 20
-4.0373692617
 30
0.0
 10
-39.2320026739
 20
-4.049873093
 30
0.0
 10
-39.23163192
 20
-4.0682213014
 30
0.0
 10
-39.2313072339
 20
-4.0933665799
 30
0.0
 10
-39.2310885242
 20
-4.1225006006
 30
0.0
 10
-39.2309785785
 20
-4.1553424114
 30
0.0
 10
-39.2309794498
 20
-4.1915761083
 30
0.0
 10
-39.2311342487
 20
-4.2456348643
 30
0.0
 10
-39.2316181117
 20
-4.3188341466
 30
0.0
 10
-39.2325915468
 20
-4.4114040413
 30
0.0
 10
-39.2334854368
 20
-4.475164955
 30
0.0
 10
-39.2339959046
 20
-4.5076695688
 30
0.0
  0
SPLINE
  5
5F0
100
AcDbEntity
  8
RACCORDO
100
AcDbSpline
 62
250
  6
CONTINUOUS
 70
0
 71
3
 72
23
 73
19
 74
0
 42
0.0000001
 43
0.0000001
 44
0.0000000001
 40
0.0
 40
0.0
 40
0.0
 40
0.0
 40
0.0014771169
 40
0.0051844516
 40
0.0112479828
 40
0.0196753876
 40
0.0304532064
 40
0.0435607315
 40
0.0766357147
 40
0.118590916
 40
0.1690266452
 40
0.2274593695
 40
0.2933276393
 40
0.3659982463
 40
0.4447725368
 40
0.6175495918
 40
0.8050228101
 40
1.0
 40
1.0
 40
1.0
 40
1.0
 10
-55.709562384
 20
23.8600548477
 30
0.0
 10
-55.7094392639
 20
23.8600526986
 30
0.0
 10
-55.7092764755
 20
23.8594939852
 30
0.0
 10
-55.7091160155
 20
23.8587009439
 30
0.0
 10
-55.7089383226
 20
23.8571215892
 30
0.0
 10
-55.7087741831
 20
23.8550527214
 30
0.0
 10
-55.7086162897
 20
23.8523514188
 30
0.0
 10
-55.7084058239
 20
23.8476132199
 30
0.0
 10
-55.7081908467
 20
23.8402648009
 30
0.0
 10
-55.7079967007
 20
23.8298087224
 30
0.0
 10
-55.7078566917
 20
23.8172355218
 30
0.0
 10
-55.7077726398
 20
23.8026690875
 30
0.0
 10
-55.7077463699
 20
23.7862485935
 30
0.0
 10
-55.7077784093
 20
23.7681324353
 30
0.0
 10
-55.7079029786
 20
23.7411041248
 30
0.0
 10
-55.7082087701
 20
23.7045062623
 30
0.0
 10
-55.7087762368
 20
23.658223457
 30
0.0
 10
-55.7092787963
 20
23.626344602
 30
0.0
 10
-55.709562384
 20
23.6100929239
 30
0.0
  0
SPLINE
  5
5F1
100
AcDbEntity
  8
RACCORDO
100
AcDbSpline
 62
7
  6
CONTINUOUS
 70
0
 71
3
 72
15
 73
11
 74
0
 42
0.0000001
 43
0.0000001
 44
0.0000000001
 40
0.0
 40
0.0
 40
0.0
 40
0.0
 40
0.0394903581
 40
0.0838846593
 40
0.1864125964
 40
0.3039607011
 40
0.4324002699
 40
0.5684532758
 40
0.7096399751
 40
1.0
 40
1.0
 40
1.0
 40
1.0
 10
-54.7270147905
 20
-15.9305310578
 30
0.0
 10
-54.7270147905
 20
-15.9240015847
 30
0.0
 10
-54.7285448221
 20
-15.9101283402
 30
0.0
 10
-54.7362546807
 20
-15.880228676
 30
0.0
 10
-54.7533134445
 20
-15.8397699732
 30
0.0
 10
-54.7805248529
 20
-15.7889571539
 30
0.0
 10
-54.8133803764
 20
-15.7349742246
 30
0.0
 10
-54.8501496083
 20
-15.6788681075
 30
0.0
 10
-54.9032383552
 20
-15.6014719573
 30
0.0
 10
-54.9447098128
 20
-15.543403851
 30
0.0
 10
-54.9726516889
 20
-15.5043637604
 30
0.0
  0
SPLINE
  5
5F2
100
AcDbEntity
  8
RACCORDO
100
AcDbSpline
 62
250
  6
CONTINUOUS
 70
0
 71
3
 72
24
 73
20
 74
0
 42
0.0000001
 43
0.0000001
 44
0.0000000001
 40
0.0
 40
0.0
 40
0.0
 40
0.0
 40
0.194973087
 40
0.3824478999
 40
0.5552250441
 40
0.633999665
 40
0.7066706698
 40
0.7725391552
 40
0.8309719558
 40
0.8814079154
 40
0.9233636556
 40
0.9410328761
 40
0.9564393444
 40
0.9695462293
 40
0.9803248425
 40
0.9887518457
 40
0.9948156032
 40
0.9985230279
 40
1.0
 40
1.0
 40
1.0
 40
1.0
 10
-39.2339959046
 20
4.5076695688
 30
0.0
 10
-39.2334854368
 20
4.475164955
 30
0.0
 10
-39.2325915468
 20
4.4114040413
 30
0.0
 10
-39.2316181117
 20
4.3188341466
 30
0.0
 10
-39.2311342487
 20
4.2456348643
 30
0.0
 10
-39.2309794498
 20
4.1915761083
 30
0.0
 10
-39.2309785785
 20
4.1553424114
 30
0.0
 10
-39.2310885242
 20
4.1225006006
 30
0.0
 10
-39.2313072339
 20
4.0933665799
 30
0.0
 10
-39.23163192
 20
4.0682213014
 30
0.0
 10
-39.2320026739
 20
4.049873093
 30
0.0
 10
-39.2323661949
 20
4.0373692617
 30
0.0
 10
-39.2326470711
 20
4.0296711387
 30
0.0
 10
-39.2329493914
 20
4.0231353982
 30
0.0
 10
-39.2332744914
 20
4.0177330574
 30
0.0
 10
-39.2336100478
 20
4.0135956775
 30
0.0
 10
-39.2339709759
 20
4.0104375655
 30
0.0
 10
-39.2342944562
 20
4.0088518368
 30
0.0
 10
-39.2346222182
 20
4.0077351206
 30
0.0
 10
-39.2348684491
 20
4.0077312525
 30
0.0
  0
SPLINE
  5
5F3
100
AcDbEntity
  8
RACCORDO
100
AcDbSpline
 62
250
  6
CONTINUOUS
 70
0
 71
3
 72
19
 73
15
 74
0
 42
0.0000001
 43
0.0000001
 44
0.0000000001
 40
0.0
 40
0.0
 40
0.0
 40
0.0
 40
0.1883495843
 40
0.3688819521
 40
0.5349019033
 40
0.6805748142
 40
0.7442870997
 40
0.8012849975
 40
0.8512365787
 40
0.8939534514
 40
0.9294545448
 40
0.9580900775
 40
0.9808749895
 40
1.0
 40
1.0
 40
1.0
 40
1.0
 10
-28.6357409937
 20
3.7742958122
 30
0.0
 10
-28.6681554768
 20
3.7741850431
 30
0.0
 10
-28.7316422489
 20
3.7727438558
 30
0.0
 10
-28.8235425714
 20
3.7669389586
 30
0.0
 10
-28.9077877368
 20
3.7577880408
 30
0.0
 10
-28.9715949331
 20
3.7473314428
 30
0.0
 10
-29.0163413861
 20
3.7373021
 30
0.0
 10
-29.0446870375
 20
3.7295620044
 30
0.0
 10
-29.0691182816
 20
3.7213457545
 30
0.0
 10
-29.089455863
 20
3.7127344279
 30
0.0
 10
-29.1055814536
 20
3.7037927555
 30
0.0
 10
-29.1174474856
 20
3.6945474209
 30
0.0
 10
-29.1250756416
 20
3.6848563364
 30
0.0
 10
-29.1270141235
 20
3.6776024274
 30
0.0
 10
-29.1270147905
 20
3.6743110427
 30
0.0
  0
SPLINE
  5
5F4
100
AcDbEntity
  8
RACCORDO
100
AcDbSpline
 62
250
  6
CONTINUOUS
 70
0
 71
3
 72
19
 73
15
 74
0
 42
0.0000001
 43
0.0000001
 44
0.0000000001
 40
0.0
 40
0.0
 40
0.0
 40
0.0
 40
0.1883491367
 40
0.3688811598
 40
0.5349007817
 40
0.6805736785
 40
0.7442861369
 40
0.8012842952
 40
0.8512361408
 40
0.8939533215
 40
0.9294544775
 40
0.9580903092
 40
0.9808751009
 40
1.0
 40
1.0
 40
1.0
 40
1.0
 10
-28.6357365981
 20
-3.7742958696
 30
0.0
 10
-28.6681513009
 20
-3.7741827566
 30
0.0
 10
-28.7316383274
 20
-3.7727374901
 30
0.0
 10
-28.8235397125
 20
-3.7669400589
 30
0.0
 10
-28.9077860252
 20
-3.7577924431
 30
0.0
 10
-28.9715937072
 20
-3.7473349743
 30
0.0
 10
-29.0163404292
 20
-3.7373045055
 30
0.0
 10
-29.0446862436
 20
-3.7295635315
 30
0.0
 10
-29.0691177443
 20
-3.7213468018
 30
0.0
 10
-29.0894553663
 20
-3.7127348194
 30
0.0
 10
-29.1055813233
 20
-3.7037931817
 30
0.0
 10
-29.1174472705
 20
-3.6945474561
 30
0.0
 10
-29.1250756279
 20
-3.6848563907
 30
0.0
 10
-29.1270141256
 20
-3.6776024392
 30
0.0
 10
-29.1270147905
 20
-3.6743110427
 30
0.0
  0
ELLIPSE
  5
5F5
100
AcDbEntity
  8
RACCORDO
100
AcDbEllipse
 62
7
  6
CONTINUOUS
 10
-12.149961918
 20
23.749961918
 30
0.0
 11
0.1768305473
 21
-0.1768305473
 31
0.0
 40
0.9996954599
 41
8.6395320906
 42
10.2100238309
  0
ELLIPSE
  5
5F6
100
AcDbEntity
  8
RACCORDO
100
AcDbEllipse
 62
7
  6
CONTINUOUS
 10
-12.149961918
 20
-23.749961918
 30
0.0
 11
-0.1768305473
 21
-0.1768305473
 31
0.0
 40
0.9996954599
 41
5.497939437
 42
7.0684311773
  0
ELLIPSE
  5
5F7
100
AcDbEntity
  8
RACCORDO
100
AcDbEllipse
 62
7
  6
CONTINUOUS
 10
12.149961918
 20
-23.749961918
 30
0.0
 11
-0.1768305473
 21
0.1768305473
 31
0.0
 40
0.9996954599
 41
8.6395320906
 42
10.2100238309
  0
ELLIPSE
  5
5F8
100
AcDbEntity
  8
RACCORDO
100
AcDbEllipse
 62
7
  6
CONTINUOUS
 10
12.149961918
 20
23.749961918
 30
0.0
 11
0.1768305473
 21
0.1768305473
 31
0.0
 40
0.9996954599
 41
5.497939437
 42
7.0684311773
  0
ELLIPSE
  5
5F9
100
AcDbEntity
  8
RACCORDO
100
AcDbEllipse
 62
7
  6
CONTINUOUS
 10
-12.149961918
 20
23.75
 30
0.0
 11
0.250038082
 21
0.0
 31
0.0
 40
0.9998476952
 41
1.5707963268
 42
3.1415926536
  0
ELLIPSE
  5
5FA
100
AcDbEntity
  8
RACCORDO
100
AcDbEllipse
 62
7
  6
CONTINUOUS
 10
-12.149961918
 20
-23.75
 30
0.0
 11
0.250038082
 21
-0.0
 31
0.0
 40
0.9998476952
 41
-3.1415926536
 42
-1.5707963268
  0
ELLIPSE
  5
5FB
100
AcDbEntity
  8
RACCORDO
100
AcDbEllipse
 62
7
  6
CONTINUOUS
 10
-10.650038082
 20
-23.75
 30
0.0
 11
0.250038082
 21
-0.0
 31
0.0
 40
0.9998476952
 41
-1.5707963268
 42
0.0
  0
ELLIPSE
  5
5FC
100
AcDbEntity
  8
RACCORDO
100
AcDbEllipse
 62
7
  6
CONTINUOUS
 10
-10.650038082
 20
23.75
 30
0.0
 11
0.250038082
 21
-0.0
 31
0.0
 40
0.9998476952
 41
0.0
 42
1.5707963268
  0
ELLIPSE
  5
5FD
100
AcDbEntity
  8
RACCORDO
100
AcDbEllipse
 62
7
  6
CONTINUOUS
 10
12.149961918
 20
23.75
 30
0.0
 11
0.250038082
 21
0.0
 31
0.0
 40
0.9998476952
 41
-0.0
 42
1.5707963268
  0
ELLIPSE
  5
5FE
100
AcDbEntity
  8
RACCORDO
100
AcDbEllipse
 62
7
  6
CONTINUOUS
 10
10.650038082
 20
23.75
 30
0.0
 11
0.250038082
 21
-0.0
 31
0.0
 40
0.9998476952
 41
1.5707963268
 42
3.1415926536
  0
ELLIPSE
  5
5FF
100
AcDbEntity
  8
RACCORDO
100
AcDbEllipse
 62
7
  6
CONTINUOUS
 10
10.650038082
 20
-23.75
 30
0.0
 11
0.250038082
 21
0.0
 31
0.0
 40
0.9998476952
 41
3.1415926536
 42
4.7123889804
  0
ELLIPSE
  5
600
100
AcDbEntity
  8
RACCORDO
100
AcDbEllipse
 62
7
  6
CONTINUOUS
 10
12.149961918
 20
-23.75
 30
0.0
 11
0.250038082
 21
-0.0
 31
0.0
 40
0.9998476952
 41
-1.5707963268
 42
0.0
  0
ELLIPSE
  5
601
100
AcDbEntity
  8
RACCORDO
100
AcDbEllipse
 62
7
  6
CONTINUOUS
 10
-12.019048931
 20
19.05
 30
0.0
 11
0.250038082
 21
0.0
 31
0.0
 40
0.9998476952
 41
-1.5882496193
 42
-1.5707963268
  0
ELLIPSE
  5
602
100
AcDbEntity
  8
RACCORDO
100
AcDbEllipse
 62
7
  6
CONTINUOUS
 10
-12.019048931
 20
-19.05
 30
0.0
 11
-0.250038082
 21
-0.0
 31
0.0
 40
0.9998476952
 41
-1.5707963268
 42
-1.5533430343
  0
ELLIPSE
  5
603
100
AcDbEntity
  8
RACCORDO
100
AcDbEllipse
 62
7
  6
CONTINUOUS
 10
12.019048931
 20
-19.05
 30
0.0
 11
-0.250038082
 21
-0.0
 31
0.0
 40
0.9998476952
 41
-1.5882496193
 42
-1.5707963268
  0
ELLIPSE
  5
604
100
AcDbEntity
  8
RACCORDO
100
AcDbEllipse
 62
7
  6
CONTINUOUS
 10
12.0277764635
 20
-18.046143347
 30
0.0
 11
-0.0250113895
 21
0.2526592035
 31
0.0
 40
0.9846622838
 41
-3.2387599651
 42
-3.2243372558
  0
ELLIPSE
  5
605
100
AcDbEntity
  8
RACCORDO
100
AcDbEllipse
 62
7
  6
CONTINUOUS
 10
-12.0277764635
 20
-18.046143347
 30
0.0
 11
0.0250113895
 21
0.2526592035
 31
0.0
 40
0.9846622838
 41
-3.0588480514
 42
-3.0444253421
  0
ELLIPSE
  5
606
100
AcDbEntity
  8
RACCORDO
100
AcDbEllipse
 62
7
  6
CONTINUOUS
 10
6.2541107013
 20
22.6965394526
 30
0.0
 11
-0.0
 21
0.2
 31
0.0
 40
0.0174550649
 41
-4.7123889804
 42
-3.1590459461
  0
ELLIPSE
  5
607
100
AcDbEntity
  8
RACCORDO
100
AcDbEllipse
 62
7
  6
CONTINUOUS
 10
-6.2541107013
 20
22.6965394526
 30
0.0
 11
-0.0
 21
0.2
 31
0.0
 40
0.0174550649
 41
-3.1241393611
 42
-1.5707963268
  0
ELLIPSE
  5
608
100
AcDbEntity
  8
RACCORDO
100
AcDbEllipse
 62
7
  6
CONTINUOUS
 10
6.2541107013
 20
-22.6965394526
 30
0.0
 11
0.0
 21
0.2
 31
0.0
 40
0.0174550649
 41
0.0174532925
 42
1.5707963268
  0
ELLIPSE
  5
609
100
AcDbEntity
  8
RACCORDO
100
AcDbEllipse
 62
7
  6
CONTINUOUS
 10
-6.2541107013
 20
-22.6965394526
 30
0.0
 11
0.0
 21
0.2
 31
0.0
 40
0.0174550649
 41
-1.5707963268
 42
-0.0174532925
  0
ELLIPSE
  5
60A
100
AcDbEntity
  8
RACCORDO
100
AcDbEllipse
 62
7
  6
CONTINUOUS
 10
12.0277764635
 20
18.046143347
 30
0.0
 11
0.0250113895
 21
0.2526592035
 31
0.0
 40
0.9846622838
 41
0.0827446022
 42
0.0971673115
  0
ELLIPSE
  5
60B
100
AcDbEntity
  8
RACCORDO
100
AcDbEllipse
 62
7
  6
CONTINUOUS
 10
-7.1253098441
 20
23.086109
 30
0.0
 11
0.7106908977
 21
0.0
 31
0.0
 40
0.0174550649
 41
-3.1241393611
 42
-0.0174532925
  0
ELLIPSE
  5
60C
100
AcDbEntity
  8
RACCORDO
100
AcDbEllipse
 62
7
  6
CONTINUOUS
 10
-7.1253098441
 20
22.336109
 30
0.0
 11
0.7106908977
 21
-0.0
 31
0.0
 40
0.0174550649
 41
-3.1241393611
 42
-0.0174532925
  0
ELLIPSE
  5
60D
100
AcDbEntity
  8
RACCORDO
100
AcDbEllipse
 62
7
  6
CONTINUOUS
 10
-12.0277764635
 20
18.046143347
 30
0.0
 11
-0.0250113895
 21
0.2526592035
 31
0.0
 40
0.9846622838
 41
-0.0971673115
 42
-0.0827446022
  0
ELLIPSE
  5
60E
100
AcDbEntity
  8
RACCORDO
100
AcDbEllipse
 62
7
  6
CONTINUOUS
 10
7.1253098441
 20
23.086109
 30
0.0
 11
0.7106908977
 21
0.0
 31
0.0
 40
0.0174550649
 41
-3.1241393611
 42
-0.0174532925
  0
ELLIPSE
  5
60F
100
AcDbEntity
  8
RACCORDO
100
AcDbEllipse
 62
7
  6
CONTINUOUS
 10
7.1253098441
 20
22.336109
 30
0.0
 11
0.7106908977
 21
-0.0
 31
0.0
 40
0.0174550649
 41
-3.1241393611
 42
-0.0174532925
  0
ELLIPSE
  5
610
100
AcDbEntity
  8
RACCORDO
100
AcDbEllipse
 62
7
  6
CONTINUOUS
 10
-7.1253098441
 20
-22.336109
 30
0.0
 11
0.7106908977
 21
0.0
 31
0.0
 40
0.0174550649
 41
0.0174532925
 42
3.1241393611
  0
ELLIPSE
  5
611
100
AcDbEntity
  8
RACCORDO
100
AcDbEllipse
 62
7
  6
CONTINUOUS
 10
-7.1253098441
 20
-23.086109
 30
0.0
 11
0.7106908977
 21
0.0
 31
0.0
 40
0.0174550649
 41
0.0174532925
 42
3.1241393611
  0
ELLIPSE
  5
612
100
AcDbEntity
  8
RACCORDO
100
AcDbEllipse
 62
7
  6
CONTINUOUS
 10
7.1253098441
 20
-22.336109
 30
0.0
 11
0.7106908977
 21
0.0
 31
0.0
 40
0.0174550649
 41
0.0174532925
 42
3.1241393611
  0
ELLIPSE
  5
613
100
AcDbEntity
  8
RACCORDO
100
AcDbEllipse
 62
7
  6
CONTINUOUS
 10
7.1253098441
 20
-23.086109
 30
0.0
 11
0.7106908977
 21
0.0
 31
0.0
 40
0.0174550649
 41
0.0174532925
 42
3.1241393611
  0
ELLIPSE
  5
614
100
AcDbEntity
  8
RACCORDO
100
AcDbEllipse
 62
7
  6
CONTINUOUS
 10
-11.4
 20
22.3579911806
 30
0.0
 11
0.9643201836
 21
-0.0
 31
0.0
 40
0.0174550649
 41
-2.3876467058
 42
-0.0174532925
  0
ELLIPSE
  5
615
100
AcDbEntity
  8
RACCORDO
100
AcDbEllipse
 62
7
  6
CONTINUOUS
 10
-11.4
 20
-22.3579911806
 30
0.0
 11
0.9643201836
 21
0.0
 31
0.0
 40
0.0174550649
 41
0.0174532925
 42
2.3876467058
  0
ELLIPSE
  5
616
100
AcDbEntity
  8
RACCORDO
100
AcDbEllipse
 62
7
  6
CONTINUOUS
 10
11.4
 20
22.3579911806
 30
0.0
 11
0.9643201836
 21
0.0
 31
0.0
 40
0.0174550649
 41
-3.1241393611
 42
-0.7539459478
  0
ELLIPSE
  5
617
100
AcDbEntity
  8
RACCORDO
100
AcDbEllipse
 62
7
  6
CONTINUOUS
 10
11.4
 20
-22.3579911806
 30
0.0
 11
0.9643201836
 21
0.0
 31
0.0
 40
0.0174550649
 41
0.7539459478
 42
3.1241393611
  0
ELLIPSE
  5
618
100
AcDbEntity
  8
RACCORDO
100
AcDbEllipse
 62
7
  6
CONTINUOUS
 10
12.019048931
 20
19.05
 30
0.0
 11
0.250038082
 21
0.0
 31
0.0
 40
0.9998476952
 41
-1.5707963268
 42
-1.5533430343
  0
ELLIPSE
  5
619
100
AcDbEntity
  8
RACCORDO
100
AcDbEllipse
 62
7
  6
CONTINUOUS
 10
-29.5270147905
 20
3.0812585549
 30
0.0
 11
0.3999543407
 21
0.0104710464
 31
0.0
 40
0.5771744562
 41
-0.0151096263
 42
1.538233408
  0
ELLIPSE
  5
61A
100
AcDbEntity
  8
RACCORDO
100
AcDbEllipse
 62
7
  6
CONTINUOUS
 10
-29.5270147905
 20
-3.0812585549
 30
0.0
 11
0.3999543407
 21
-0.0104710464
 31
0.0
 40
0.5771744562
 41
-1.538233408
 42
0.0151096263
  0
ELLIPSE
  5
61B
100
AcDbEntity
  8
RACCORDO
100
AcDbEllipse
 62
7
  6
CONTINUOUS
 10
-26.6270147905
 20
12.9340590999
 30
0.0
 11
0.4999429259
 21
0.0130888081
 31
0.0
 40
0.5771744562
 41
-0.0151096263
 42
1.538233408
  0
ELLIPSE
  5
61C
100
AcDbEntity
  8
RACCORDO
100
AcDbEllipse
 62
7
  6
CONTINUOUS
 10
-26.6270147905
 20
6.6659409001
 30
0.0
 11
0.4999429259
 21
-0.0130888081
 31
0.0
 40
0.5771744562
 41
-1.538233408
 42
0.0151096263
  0
ELLIPSE
  5
61D
100
AcDbEntity
  8
RACCORDO
100
AcDbEllipse
 62
7
  6
CONTINUOUS
 10
-26.6270147905
 20
-6.6659409001
 30
0.0
 11
0.4999429259
 21
0.0130888081
 31
0.0
 40
0.5771744562
 41
-0.0151096263
 42
1.538233408
  0
ELLIPSE
  5
61E
100
AcDbEntity
  8
RACCORDO
100
AcDbEllipse
 62
7
  6
CONTINUOUS
 10
-26.6270147905
 20
-12.9340590999
 30
0.0
 11
0.4999429259
 21
-0.0130888081
 31
0.0
 40
0.5771744562
 41
-1.538233408
 42
0.0151096263
  0
ENDSEC
  0
SECTION
  2
OBJECTS
  0
DICTIONARY
  5
C
100
AcDbDictionary
280
0
281
1
  3
ACAD_GROUP
350
D
  3
ACAD_MLINESTYLE
350
17
  3
ACAD_LAYOUT
350
1A
  3
ACAD_PLOTSETTINGS
350
19
  3
ACAD_PLOTSTYLENAME
350
E
  0
DICTIONARY
  5
D
102
{ACAD_REACTORS
330
C
102
}
100
AcDbDictionary
280
0
281
1
  0
ACDBDICTIONARYWDFLT
  5
E
102
{ACAD_REACTORS
330
C
102
}
100
AcDbDictionary
281
1
  3
Normal
350
F
100
AcDbDictionaryWithDefault
340
F
  0
DICTIONARY
  5
17
102
{ACAD_REACTORS
330
C
102
}
100
AcDbDictionary
280
0
281
1
  3
Standard
350
18
  0
DICTIONARY
  5
19
102
{ACAD_REACTORS
330
C
102
}
100
AcDbDictionary
281
1
  0
DICTIONARY
  5
1A
102
{ACAD_REACTORS
330
C
102
}
100
AcDbDictionary
281
1
  3
Model
350
61F
  3
Layout1
350
620
  0
ACDBPLACEHOLDER
  5
F
102
{ACAD_REACTORS
330
E
102
}
  0
MLINESTYLE
  5
18
102
{ACAD_REACTORS
330
17
102
}
100
AcDbMlineStyle
  2
STANDARD
 70
0
  3

 62
256
 51
90.0
 52
90.0
 71
2
 49
0.5
 62
256
  6
BYLAYER
 49
-0.5
 62
256
  6
BYLAYER
  0
LAYOUT
  5
61F
102
{ACAD_REACTORS
330
1A
102
}
100
AcDbPlotSettings
  1

  2
none_device
  4
ANSI_C_(22.00_x_17.00_Inches)
  6

 40
0.0
 41
0.0
 42
0.0
 43
0.0
 44
558.8
 45
431.8
 46
0.0
 47
0.0
 48
0.0
 49
0.0
140
0.0
141
0.0
142
1.0
143
1.0
 70
1024
 72
1
 73
0
 74
0
  7

 75
0
147
1.0
148
0.0
149
0.0
100
AcDbLayout
  1
Model
 70
0
 71
0
 10
0.0
 20
0.0
 11
558.8
 21
431.8
 12
0.0
 22
0.0
 32
0.0
 14
0.0
 24
0.0
 34
0.0
 15
0.0
 25
0.0
 35
0.0
146
0.0
 13
0.0
 23
0.0
 33
0.0
 16
1.0
 26
0.0
 36
0.0
 17
0.0
 27
1.0
 37
0.0
 76
0
330
216
345
0
346
0
  0
LAYOUT
  5
620
102
{ACAD_REACTORS
330
1A
102
}
100
AcDbPlotSettings
  1

  2
none_device
  4
ANSI_C_(22.00_x_17.00_Inches)
  6

 40
0.0
 41
0.0
 42
0.0
 43
0.0
 44
558.8
 45
431.8
 46
0.0
 47
0.0
 48
0.0
 49
0.0
140
0.0
141
0.0
142
1.0
143
1.0
 70
0
 72
1
 73
0
 74
0
  7

 75
0
147
1.0
148
0.0
149
0.0
100
AcDbLayout
  1
Layout1
 70
0
 71
1
 10
0.0
 20
0.0
 11
558.8
 21
431.8
 12
0.0
 22
0.0
 32
0.0
 14
0.0
 24
0.0
 34
0.0
 15
0.0
 25
0.0
 35
0.0
146
0.0
 13
0.0
 23
0.0
 33
0.0
 16
1.0
 26
0.0
 36
0.0
 17
0.0
 27
1.0
 37
0.0
 76
0
330
217
345
0
346
0
  0
ENDSEC
  0
EOF
