  0
SECTION
  2
HEADER
  9
$ACADVER
  1
AC1021
  9
$DWGCODEPAGE
  3
ANSI_1252
  9
$EXTMAX
 10
210.0
 20
297.0
 30
0.0
  9
$EXTMIN
 10
0.0
 20
0.0
 30
0.0
  9
$LIMMIN
 10
0.0
 20
0.0
  9
$LIMMAX
 10
210.0
 20
297.0
  9
$VIEWCTR
 10
105.0
 20
148.5
  9
$VIEWSIZE
 40
297.0
  9
$CLAYER
  8
0
  9
$LTSCALE
 40
19.36
  9
$CELTYPE
  6
BYLAYER
  9
$DIMSCALE
 40
1.0
  9
$DIMASZ
 40
3.0
  9
$DIMEXO
 40
0.5
  9
$DIMDLI
 40
13.376
  9
$DIMEXE
 40
1.5
  9
$DIMCEN
 40
3.168
  9
$DIMLFAC
 40
1.0
  9
$DIMBLK
  1
_FILLED
  9
$DIMALT
 70
0
  9
$DIMALTF
 40
0.0393700787
  9
$DIMTXT
 40
3.0
  9
$DIMTOL
 70
1
  9
$DIMLIM
 70
0
  9
$DIMTFAC
 40
1.0
  9
$DIMTP
 40
0.01
  9
$DIMTM
 40
0.01
  9
$DIMGAP
 40
0.625
  9
$DIMDSEP
 70
44
  9
$AUNITS
 70
0
  9
$PDMODE
 70
3
  9
$PDSIZE
 40
3.0
  9
$HANDSEED
  5
7F6
  9
$TILEMODE
 70
1
  9
$MEASUREMENT
 70
1
  9
$INSUNITS
 70
4
  0
ENDSEC
  0
SECTION
  2
CLASSES
  0
CLASS
  1
ACDBDICTIONARYWDFLT
  2
AcDbDictionaryWithDefault
  3
AutoCAD 2000
 90
0
 91
1
280
0
281
0
  0
CLASS
  1
ACDBPLACEHOLDER
  2
AcDbPlaceHolder
  3
AutoCAD 2000
 90
0
 91
1
280
0
281
0
  0
CLASS
  1
LAYOUT
  2
AcDbLayout
  3
AutoCAD 2000
 90
0
 91
0
280
0
281
0
  0
ENDSEC
  0
SECTION
  2
TABLES
  0
TABLE
  2
VPORT
  5
8
100
AcDbSymbolTable
 70
2
  0
VPORT
  5
1F4
100
AcDbSymbolTableRecord
100
AcDbViewportTableRecord
  2
*ACTIVE
 70
0
 10
0.0
 20
0.0
 11
1.0
 21
1.0
 12
105.0
 22
148.5
 13
0.0
 23
0.0
 14
1.0
 24
1.0
 15
0.0
 25
0.0
 16
0.0
 26
0.0
 36
1.0
 17
0.0
 27
0.0
 37
0.0
 40
297.0
 41
0.7070707071
 42
50.0
 43
0.0
 44
0.0
 50
0.0
 51
0.0
 71
0
 72
100
 73
1
 74
1
 75
0
 76
0
 77
0
 78
0
  0
ENDTAB
  0
TABLE
  2
LTYPE
  5
5
100
AcDbSymbolTable
 70
6
  0
LTYPE
  5
14
100
AcDbSymbolTableRecord
100
AcDbLinetypeTableRecord
  2
BYBLOCK
 70
0
  3

 72
65
 73
0
 40
0.0
  0
LTYPE
  5
15
100
AcDbSymbolTableRecord
100
AcDbLinetypeTableRecord
  2
BYLAYER
 70
0
  3

 72
65
 73
0
 40
0.0
  0
LTYPE
  5
16
100
AcDbSymbolTableRecord
100
AcDbLinetypeTableRecord
  2
CONTINUOUS
 70
64
  3
Solid line
 72
65
 73
0
 40
0.0
  0
LTYPE
  5
1F5
100
AcDbSymbolTableRecord
100
AcDbLinetypeTableRecord
  2
CENTER
 70
64
  3
____ _ ____ _ ____ _ ____ _ ____ _ ____ _ ____
 72
65
 73
4
 40
0.6
 49
0.375
 74
0
 49
-0.075
 74
0
 49
0.075
 74
0
 49
-0.075
 74
0
  0
LTYPE
  5
1F6
100
AcDbSymbolTableRecord
100
AcDbLinetypeTableRecord
  2
HIDDEN
 70
64
  3
- - - - - - - - - - - - - - - - - - - -
 72
65
 73
2
 40
0.2
 49
0.1
 74
0
 49
-0.1
 74
0
  0
LTYPE
  5
1F7
100
AcDbSymbolTableRecord
100
AcDbLinetypeTableRecord
  2
PHANTOM
 70
64
  3
_____ _ _ _____ _ _ _____ _ _ _____
 72
65
 73
6
 40
0.8
 49
0.45
 74
0
 49
-0.05
 74
0
 49
0.1
 74
0
 49
-0.05
 74
0
 49
0.1
 74
0
 49
-0.05
 74
0
  0
LTYPE
  5
1F8
100
AcDbSymbolTableRecord
100
AcDbLinetypeTableRecord
  2
DOT
 70
64
  3
. . . . . . . . . . . . . . . . . . . .
 72
65
 73
2
 40
0.2
 49
0.1
 74
0
 49
-0.1
 74
0
  0
LTYPE
  5
1F9
100
AcDbSymbolTableRecord
100
AcDbLinetypeTableRecord
  2
DASHED
 70
64
  3
- - - - - - - - - - - - - - - - - - - -
 72
65
 73
2
 40
0.2
 49
0.1
 74
0
 49
-0.1
 74
0
  0
ENDTAB
  0
TABLE
  2
LAYER
  5
2
100
AcDbSymbolTable
 70
36
  0
LAYER
  5
10
100
AcDbSymbolTableRecord
100
AcDbLayerTableRecord
  2
0
 70
0
 62
7
  6
CONTINUOUS
370
-3
390
F
  0
LAYER
  5
1FA
100
AcDbSymbolTableRecord
100
AcDbLayerTableRecord
  2
DEFAULT_1
 70
0
 62
7
  6
CENTER
370
-3
390
F
  0
LAYER
  5
1FB
100
AcDbSymbolTableRecord
100
AcDbLayerTableRecord
  2
DEFAULT_2
 70
0
 62
7
  6
HIDDEN
370
-3
390
F
  0
LAYER
  5
1FC
100
AcDbSymbolTableRecord
100
AcDbLayerTableRecord
  2
DEFAULT_3
 70
0
 62
7
  6
PHANTOM
370
-3
390
F
  0
LAYER
  5
1FD
100
AcDbSymbolTableRecord
100
AcDbLayerTableRecord
  2
ASSI
 70
0
 62
7
  6
CONTINUOUS
370
-3
390
F
  0
LAYER
  5
1FE
100
AcDbSymbolTableRecord
100
AcDbLayerTableRecord
  2
COLOR5
 70
0
 62
7
  6
CONTINUOUS
370
-3
390
F
  0
LAYER
  5
1FF
100
AcDbSymbolTableRecord
100
AcDbLayerTableRecord
  2
COORDINATE
 70
0
 62
7
  6
CONTINUOUS
370
-3
390
F
  0
LAYER
  5
200
100
AcDbSymbolTableRecord
100
AcDbLayerTableRecord
  2
COORD_ORIGINE
 70
0
 62
7
  6
CONTINUOUS
370
-3
390
F
  0
LAYER
  5
201
100
AcDbSymbolTableRecord
100
AcDbLayerTableRecord
  2
COSMETICHE
 70
0
 62
7
  6
CONTINUOUS
370
-3
390
F
  0
LAYER
  5
202
100
AcDbSymbolTableRecord
100
AcDbLayerTableRecord
  2
COSMETICI
 70
0
 62
7
  6
CONTINUOUS
370
-3
390
F
  0
LAYER
  5
203
100
AcDbSymbolTableRecord
100
AcDbLayerTableRecord
  2
CURVE
 70
0
 62
7
  6
CONTINUOUS
370
-3
390
F
  0
LAYER
  5
204
100
AcDbSymbolTableRecord
100
AcDbLayerTableRecord
  2
CURVE1
 70
0
 62
7
  6
CONTINUOUS
370
-3
390
F
  0
LAYER
  5
205
100
AcDbSymbolTableRecord
100
AcDbLayerTableRecord
  2
DRAFT
 70
0
 62
7
  6
CONTINUOUS
370
-3
390
F
  0
LAYER
  5
206
100
AcDbSymbolTableRecord
100
AcDbLayerTableRecord
  2
IGES_SCRITTE
 70
0
 62
7
  6
CONTINUOUS
370
-3
390
F
  0
LAYER
  5
207
100
AcDbSymbolTableRecord
100
AcDbLayerTableRecord
  2
IMPORT
 70
0
 62
7
  6
CONTINUOUS
370
-3
390
F
  0
LAYER
  5
208
100
AcDbSymbolTableRecord
100
AcDbLayerTableRecord
  2
INTF_1
 70
0
 62
7
  6
CONTINUOUS
370
-3
390
F
  0
LAYER
  5
209
100
AcDbSymbolTableRecord
100
AcDbLayerTableRecord
  2
INTF_2
 70
0
 62
7
  6
CONTINUOUS
370
-3
390
F
  0
LAYER
  5
20A
100
AcDbSymbolTableRecord
100
AcDbLayerTableRecord
  2
INTF_YELLOW
 70
0
 62
7
  6
CONTINUOUS
370
-3
390
F
  0
LAYER
  5
20B
100
AcDbSymbolTableRecord
100
AcDbLayerTableRecord
  2
LAY0001
 70
0
 62
7
  6
CONTINUOUS
370
-3
390
F
  0
LAYER
  5
20C
100
AcDbSymbolTableRecord
100
AcDbLayerTableRecord
  2
NOTE
 70
0
 62
7
  6
CONTINUOUS
370
-3
390
F
  0
LAYER
  5
20D
100
AcDbSymbolTableRecord
100
AcDbLayerTableRecord
  2
PIANI
 70
0
 62
7
  6
CONTINUOUS
370
-3
390
F
  0
LAYER
  5
20E
100
AcDbSymbolTableRecord
100
AcDbLayerTableRecord
  2
PIANI_DI_RIFERIMENTO
 70
0
 62
7
  6
CONTINUOUS
370
-3
390
F
  0
LAYER
  5
20F
100
AcDbSymbolTableRecord
100
AcDbLayerTableRecord
  2
PIANI_ORIGINE
 70
0
 62
7
  6
CONTINUOUS
370
-3
390
F
  0
LAYER
  5
210
100
AcDbSymbolTableRecord
100
AcDbLayerTableRecord
  2
PUNTI
 70
0
 62
7
  6
CONTINUOUS
370
-3
390
F
  0
LAYER
  5
211
100
AcDbSymbolTableRecord
100
AcDbLayerTableRecord
  2
RACCORDO
 70
0
 62
7
  6
CONTINUOUS
370
-3
390
F
  0
LAYER
  5
212
100
AcDbSymbolTableRecord
100
AcDbLayerTableRecord
  2
RGB__255__255__255__
 70
0
 62
7
  6
CONTINUOUS
370
-3
390
F
  0
LAYER
  5
213
100
AcDbSymbolTableRecord
100
AcDbLayerTableRecord
  2
RGB____0____0____0__
 70
0
 62
7
  6
CONTINUOUS
370
-3
390
F
  0
LAYER
  5
214
100
AcDbSymbolTableRecord
100
AcDbLayerTableRecord
  2
SMUSSO
 70
0
 62
7
  6
CONTINUOUS
370
-3
390
F
  0
LAYER
  5
215
100
AcDbSymbolTableRecord
100
AcDbLayerTableRecord
  2
SNAPLINE
 70
0
 62
7
  6
CONTINUOUS
370
-3
390
F
  0
LAYER
  5
216
100
AcDbSymbolTableRecord
100
AcDbLayerTableRecord
  2
SUPERFICI
 70
0
 62
7
  6
CONTINUOUS
370
-3
390
F
  0
LAYER
  5
217
100
AcDbSymbolTableRecord
100
AcDbLayerTableRecord
  2
TRASH
 70
0
 62
7
  6
CONTINUOUS
370
-3
390
F
  0
LAYER
  5
218
100
AcDbSymbolTableRecord
100
AcDbLayerTableRecord
  2
XSEC_DATUMS
 70
0
 62
7
  6
CONTINUOUS
370
-3
390
F
  0
ENDTAB
  0
TABLE
  2
STYLE
  5
3
100
AcDbSymbolTable
 70
1
  0
STYLE
  5
11
100
AcDbSymbolTableRecord
100
AcDbTextStyleTableRecord
  2
STANDARD
 70
0
 40
0.0
 41
0.8
 50
0.0
 71
0
 42
0.2
  3
txt
  4

  0
STYLE
  5
219
100
AcDbSymbolTableRecord
100
AcDbTextStyleTableRecord
  2
TEXTSTYLE_1
 70
0
 40
0.0
 41
0.8
 50
0.0
 71
0
 42
0.2
  3
gdt
  4

  0
ENDTAB
  0
TABLE
  2
VIEW
  5
6
100
AcDbSymbolTable
 70
0
  0
ENDTAB
  0
TABLE
  2
UCS
  5
7
100
AcDbSymbolTable
 70
0
  0
ENDTAB
  0
TABLE
  2
APPID
  5
9
100
AcDbSymbolTable
 70
1
  0
APPID
  5
21A
100
AcDbSymbolTableRecord
100
AcDbRegAppTableRecord
  2
ACAD
 70
0
  0
ENDTAB
  0
TABLE
  2
BLOCK_RECORD
  5
1
100
AcDbSymbolTable
 70
0
  0
BLOCK_RECORD
  5
21B
100
AcDbSymbolTableRecord
100
AcDbBlockTableRecord
  2
*Model_Space
  0
BLOCK_RECORD
  5
21C
100
AcDbSymbolTableRecord
100
AcDbBlockTableRecord
  2
*Paper_Space
  0
BLOCK_RECORD
  5
21D
100
AcDbSymbolTableRecord
100
AcDbBlockTableRecord
  2
_FILLED
  0
BLOCK_RECORD
  5
21E
100
AcDbSymbolTableRecord
100
AcDbBlockTableRecord
  2
*D0
  0
BLOCK_RECORD
  5
21F
100
AcDbSymbolTableRecord
100
AcDbBlockTableRecord
  2
*D1
  0
BLOCK_RECORD
  5
220
100
AcDbSymbolTableRecord
100
AcDbBlockTableRecord
  2
*D2
  0
BLOCK_RECORD
  5
221
100
AcDbSymbolTableRecord
100
AcDbBlockTableRecord
  2
*D3
  0
ENDTAB
  0
TABLE
  2
DIMSTYLE
  5
A
100
AcDbSymbolTable
 70
1
100
AcDbDimStyleTable
 71
0
  0
DIMSTYLE
105
222
100
AcDbSymbolTableRecord
100
AcDbDimStyleTableRecord
  2
STANDARD
 70
0
  3

  4

 40
1.0
 41
3.0
 42
0.5
 43
0.38
 44
1.5
 45
0.0
 46
0.0
 47
0.01
 48
0.01
140
3.0
141
0.09
142
0.0
143
25.4
144
1.0
145
0.0
146
1.0
147
0.625
 71
1.0
 72
0.0
 73
0
 74
0
 75
0
 76
0
 77
1
 78
8
170
0
171
2
172
0
173
0
174
0
175
0
176
0
177
0
178
0
270
2
271
2
272
2
273
2
274
2
275
0
280
0
281
0
282
0
283
1
284
8
285
0
286
0
287
3
288
0
340
11
278
44
341
21D
342
21D
343
21D
344
21D
  0
DIMSTYLE
105
223
100
AcDbSymbolTableRecord
100
AcDbDimStyleTableRecord
  2
DIMSTYLE_1
 70
0
  3

  4

 40
1.0
 41
3.0
 42
0.5
 43
0.38
 44
1.5
 45
0.0
 46
0.0
 47
0.0
 48
0.0
140
3.0
141
0.09
142
0.0
143
25.4
144
1.0
145
0.0
146
1.0
147
0.75
 71
0.0
 72
0.0
 73
0
 74
0
 75
0
 76
0
 77
1
 78
8
170
0
171
2
172
0
173
0
174
0
175
0
176
0
177
0
178
0
270
2
271
2
272
2
273
2
274
2
275
0
280
0
281
0
282
0
283
1
284
8
285
0
286
0
287
3
288
0
340
11
278
44
341
21D
342
21D
343
21D
344
21D
  0
ENDTAB
  0
ENDSEC
  0
SECTION
  2
BLOCKS
  0
BLOCK
  5
20
100
AcDbEntity
  8
0
100
AcDbBlockBegin
  2
*Model_Space
 70
0
 10
0.0
 20
0.0
 30
0.0
  3
*Model_Space
  1

  0
ENDBLK
  5
21
100
AcDbEntity
  8
0
100
AcDbBlockEnd
  0
BLOCK
  5
1C
100
AcDbEntity
  8
0
100
AcDbBlockBegin
  2
*Paper_Space
 70
0
 10
0.0
 20
0.0
 30
0.0
  3
*Paper_Space
  1

  0
ENDBLK
  5
1D
100
AcDbEntity
  8
0
100
AcDbBlockEnd
  0
BLOCK
  5
224
100
AcDbEntity
  8
0
100
AcDbBlockBegin
  2
_FILLED
 70
64
 10
0.0
 20
0.0
  3
_FILLED
  1

  0
SOLID
  5
225
100
AcDbEntity
  8
0
  6
BYBLOCK
 62
0
100
AcDbTrace
 10
0.0
 20
0.0
 11
-1.0
 21
0.3166666667
 12
-1.0
 22
-0.3166666667
 13
-1.0
 23
-0.3166666667
  0
ENDBLK
  5
226
100
AcDbEntity
  8
0
  6
BYBLOCK
 62
0
100
AcDbBlockEnd
  0
BLOCK
  5
227
100
AcDbEntity
  8
0
100
AcDbBlockBegin
 62
7
  6
CONTINUOUS
  2
*D0
 70
65
 10
0.0
 20
0.0
  3
*D0
  1

  0
MTEXT
  5
228
100
AcDbEntity
  8
0
100
AcDbMText
 62
7
  6
CONTINUOUS
  7
STANDARD
 71
2
 72
1
 10
3.6018829791
 20
51.1663467507
 30
0.0
 11
1.0
 21
0.0
 31
0.0
 44
0.9
  1
54,5
 40
3.0
 41
12.5357142857
  0
LINE
  5
229
100
AcDbEntity
  8
0
100
AcDbLine
 62
7
  6
CONTINUOUS
 10
30.8518829791
 20
12.7399745764
 11
30.8518829791
 21
48.9163467507
  0
LINE
  5
22A
100
AcDbEntity
  8
0
100
AcDbLine
 62
7
  6
CONTINUOUS
 10
-23.6481170209
 20
0.2899765129
 11
-23.6481170209
 21
48.9163467507
  0
LINE
  5
22B
100
AcDbEntity
  8
0
100
AcDbLine
 62
7
  6
CONTINUOUS
 10
30.8518829791
 20
47.4163467507
 11
3.6018829791
 21
47.4163467507
  0
LINE
  5
22C
100
AcDbEntity
  8
0
100
AcDbLine
 62
7
  6
CONTINUOUS
 10
-23.6481170209
 20
47.4163467507
 11
3.6018829791
 21
47.4163467507
  0
INSERT
  5
22D
100
AcDbEntity
  8
0
100
AcDbBlockReference
 62
7
  6
CONTINUOUS
  2
_FILLED
 10
30.8518829791
 20
47.4163467507
 41
3.0
 42
3.0
 43
3.0
  0
INSERT
  5
22E
100
AcDbEntity
  8
0
100
AcDbBlockReference
 62
7
  6
CONTINUOUS
  2
_FILLED
 10
-23.6481170209
 20
47.4163467507
 41
3.0
 42
3.0
 43
3.0
 50
180.0
  0
ENDBLK
  5
22F
100
AcDbEntity
  8
0
  6
BYBLOCK
 62
0
100
AcDbBlockEnd
  0
BLOCK
  5
230
100
AcDbEntity
  8
0
100
AcDbBlockBegin
 62
7
  6
CONTINUOUS
  2
*D1
 70
65
 10
0.0
 20
0.0
  3
*D1
  1

  0
MTEXT
  5
231
100
AcDbEntity
  8
0
100
AcDbMText
 62
7
  6
CONTINUOUS
  7
STANDARD
 71
2
 72
1
 10
11.2518829791
 20
41.1663467507
 30
0.0
 11
1.0
 21
0.0
 31
0.0
 44
0.9
  1
39,2
 40
3.0
 41
12.8571428571
  0
LINE
  5
232
100
AcDbEntity
  8
0
100
AcDbLine
 62
7
  6
CONTINUOUS
 10
30.8518829791
 20
12.7399745764
 11
30.8518829791
 21
38.9163467507
  0
LINE
  5
233
100
AcDbEntity
  8
0
100
AcDbLine
 62
7
  6
CONTINUOUS
 10
-8.3481170209
 20
24.827296358
 11
-8.3481170209
 21
38.9163467507
  0
LINE
  5
234
100
AcDbEntity
  8
0
100
AcDbLine
 62
7
  6
CONTINUOUS
 10
30.8518829791
 20
37.4163467507
 11
11.2518829791
 21
37.4163467507
  0
LINE
  5
235
100
AcDbEntity
  8
0
100
AcDbLine
 62
7
  6
CONTINUOUS
 10
-8.3481170209
 20
37.4163467507
 11
11.2518829791
 21
37.4163467507
  0
INSERT
  5
236
100
AcDbEntity
  8
0
100
AcDbBlockReference
 62
7
  6
CONTINUOUS
  2
_FILLED
 10
30.8518829791
 20
37.4163467507
 41
3.0
 42
3.0
 43
3.0
  0
INSERT
  5
237
100
AcDbEntity
  8
0
100
AcDbBlockReference
 62
7
  6
CONTINUOUS
  2
_FILLED
 10
-8.3481170209
 20
37.4163467507
 41
3.0
 42
3.0
 43
3.0
 50
180.0
  0
ENDBLK
  5
238
100
AcDbEntity
  8
0
  6
BYBLOCK
 62
0
100
AcDbBlockEnd
  0
BLOCK
  5
239
100
AcDbEntity
  8
0
100
AcDbBlockBegin
 62
7
  6
CONTINUOUS
  2
*D2
 70
65
 10
0.0
 20
0.0
  3
*D2
  1

  0
MTEXT
  5
23A
100
AcDbEntity
  8
0
100
AcDbMText
 62
7
  6
CONTINUOUS
  7
STANDARD
 71
2
 72
1
 10
78.9743840876
 20
41.1663467507
 30
0.0
 11
1.0
 21
0.0
 31
0.0
 44
0.9
  1
49,7
 40
3.0
 41
13.1785714286
  0
LINE
  5
23B
100
AcDbEntity
  8
0
100
AcDbLine
 62
7
  6
CONTINUOUS
 10
54.1243840876
 20
24.0900069738
 11
54.1243840876
 21
38.9163467507
  0
LINE
  5
23C
100
AcDbEntity
  8
0
100
AcDbLine
 62
7
  6
CONTINUOUS
 10
103.8243840876
 20
24.0900069738
 11
103.8243840876
 21
38.9163467507
  0
LINE
  5
23D
100
AcDbEntity
  8
0
100
AcDbLine
 62
7
  6
CONTINUOUS
 10
54.1243840876
 20
37.4163467507
 11
78.9743840876
 21
37.4163467507
  0
LINE
  5
23E
100
AcDbEntity
  8
0
100
AcDbLine
 62
7
  6
CONTINUOUS
 10
103.8243840876
 20
37.4163467507
 11
78.9743840876
 21
37.4163467507
  0
INSERT
  5
23F
100
AcDbEntity
  8
0
100
AcDbBlockReference
 62
7
  6
CONTINUOUS
  2
_FILLED
 10
54.1243840876
 20
37.4163467507
 41
3.0
 42
3.0
 43
3.0
 50
180.0
  0
INSERT
  5
240
100
AcDbEntity
  8
0
100
AcDbBlockReference
 62
7
  6
CONTINUOUS
  2
_FILLED
 10
103.8243840876
 20
37.4163467507
 41
3.0
 42
3.0
 43
3.0
  0
ENDBLK
  5
241
100
AcDbEntity
  8
0
  6
BYBLOCK
 62
0
100
AcDbBlockEnd
  0
BLOCK
  5
242
100
AcDbEntity
  8
0
100
AcDbBlockBegin
 62
7
  6
CONTINUOUS
  2
*D3
 70
65
 10
0.0
 20
0.0
  3
*D3
  1

  0
MTEXT
  5
243
100
AcDbEntity
  8
0
100
AcDbMText
 62
7
  6
CONTINUOUS
  7
STANDARD
 71
2
 72
1
 10
113.2243840876
 20
-0.2100234871
 30
0.0
 11
0.0
 21
1.0
 31
0.0
 44
0.9
  1
49,2
 40
3.0
 41
13.1785714286
  0
LINE
  5
244
100
AcDbEntity
  8
0
100
AcDbLine
 62
7
  6
CONTINUOUS
 10
97.9743840876
 20
24.3899765129
 11
118.4743840876
 21
24.3899765129
  0
LINE
  5
245
100
AcDbEntity
  8
0
100
AcDbLine
 62
7
  6
CONTINUOUS
 10
97.9743840876
 20
-24.8100234871
 11
118.4743840876
 21
-24.8100234871
  0
LINE
  5
246
100
AcDbEntity
  8
0
100
AcDbLine
 62
7
  6
CONTINUOUS
 10
116.9743840876
 20
24.3899765129
 11
116.9743840876
 21
-0.2100234871
  0
LINE
  5
247
100
AcDbEntity
  8
0
100
AcDbLine
 62
7
  6
CONTINUOUS
 10
116.9743840876
 20
-24.8100234871
 11
116.9743840876
 21
-0.2100234871
  0
INSERT
  5
248
100
AcDbEntity
  8
0
100
AcDbBlockReference
 62
7
  6
CONTINUOUS
  2
_FILLED
 10
116.9743840876
 20
24.3899765129
 41
3.0
 42
3.0
 43
3.0
 50
90.0
  0
INSERT
  5
249
100
AcDbEntity
  8
0
100
AcDbBlockReference
 62
7
  6
CONTINUOUS
  2
_FILLED
 10
116.9743840876
 20
-24.8100234871
 41
3.0
 42
3.0
 43
3.0
 50
270.0
  0
ENDBLK
  5
24A
100
AcDbEntity
  8
0
  6
BYBLOCK
 62
0
100
AcDbBlockEnd
  0
ENDSEC
  0
SECTION
  2
ENTITIES
  0
DIMENSION
  5
24B
100
AcDbEntity
  8
0
100
AcDbDimension
 62
7
  6
CONTINUOUS
  2
*D0
 10
-23.6481170209
 20
47.4163467507
 11
3.1733115234
 21
47.4163467507
 70
160
 71
2
 42
54.5
  3
DIMSTYLE_1
100
AcDbAlignedDimension
 13
30.8518829791
 23
12.2399745764
 14
-23.6481170209
 24
-0.2100234871
 50
180.0
100
AcDbRotatedDimension
  0
DIMENSION
  5
24C
100
AcDbEntity
  8
0
100
AcDbDimension
 62
7
  6
CONTINUOUS
  2
*D1
 10
-8.3481170209
 20
37.4163467507
 11
10.8233120117
 21
37.4163467507
 70
160
 71
2
 42
39.2
  3
DIMSTYLE_1
100
AcDbAlignedDimension
 13
30.8518829791
 23
12.2399745764
 14
-8.3481170209
 24
24.327296358
 50
180.0
100
AcDbRotatedDimension
  0
DIMENSION
  5
24D
100
AcDbEntity
  8
0
100
AcDbDimension
 62
7
  6
CONTINUOUS
  2
*D2
 10
103.8243840876
 20
37.4163467507
 11
78.5458164063
 21
37.4163467507
 70
160
 71
2
 42
49.7
  3
DIMSTYLE_1
100
AcDbAlignedDimension
 13
54.1243840876
 23
23.5900069738
 14
103.8243840876
 24
23.5900069738
100
AcDbRotatedDimension
  0
DIMENSION
  5
24E
100
AcDbEntity
  8
0
100
AcDbDimension
 62
7
  6
CONTINUOUS
  2
*D3
 10
116.9743840876
 20
-24.8100234871
 11
116.9743840876
 21
-0.6385957723
 70
160
 71
2
 42
49.2
  3
DIMSTYLE_1
100
AcDbAlignedDimension
 13
97.4743840876
 23
24.3899765129
 14
97.4743840876
 24
-24.8100234871
 50
270.0
100
AcDbRotatedDimension
  0
LWPOLYLINE
  5
24F
100
AcDbEntity
  8
RACCORDO
100
AcDbPolyline
 62
253
  6
CONTINUOUS
 90
16
 70
0
 10
54.5192000507
 20
22.0951148583
 10
54.5031711291
 20
22.0873156438
 10
54.4867531348
 20
22.0683466117
 10
54.470548248
 20
22.0386490129
 10
54.4553828949
 20
21.9987034868
 10
54.4414966904
 20
21.9492003314
 10
54.4284761484
 20
21.8911700251
 10
54.4164910501
 20
21.8256514907
 10
54.4059319969
 20
21.753508497
 10
54.3965616631
 20
21.6756856461
 10
54.3884160342
 20
21.5932523162
 10
54.3816554885
 20
21.5071038416
 10
54.3761980792
 20
21.4178645055
 10
54.3720449088
 20
21.3263259859
 10
54.3692262476
 20
21.2334907585
 10
54.3676923043
 20
21.1402298906
  0
LINE
  5
250
100
AcDbEntity
  8
RACCORDO
100
AcDbLine
 62
253
  6
CONTINUOUS
 10
54.2292279337
 20
21.6057033834
 11
54.231206157
 21
21.5000659558
  0
LWPOLYLINE
  5
251
100
AcDbEntity
  8
RACCORDO
100
AcDbPolyline
 62
253
  6
CONTINUOUS
 90
16
 70
0
 10
54.3676923072
 20
-21.5602768656
 10
54.3692262923
 20
-21.6535385155
 10
54.3720450356
 20
-21.7463742207
 10
54.3761982833
 20
-21.8379129154
 10
54.3816556817
 20
-21.9271520307
 10
54.3884161127
 20
-22.0133000419
 10
54.3965616351
 20
-22.0957330119
 10
54.405931957
 20
-22.1735557302
 10
54.4164910448
 20
-22.2456986613
 10
54.4284761686
 20
-22.3112171021
 10
54.4414966896
 20
-22.3692472361
 10
54.4553828451
 20
-22.4187502478
 10
54.4705481559
 20
-22.4586957588
 10
54.486753037
 20
-22.4883934413
 10
54.5031710606
 20
-22.5073625688
 10
54.5192000492
 20
-22.5151618341
  0
LINE
  5
252
100
AcDbEntity
  8
RACCORDO
100
AcDbLine
 62
253
  6
CONTINUOUS
 10
54.231206157
 20
21.5000659558
 11
54.2326630897
 21
21.3813114333
  0
LINE
  5
253
100
AcDbEntity
  8
RACCORDO
100
AcDbLine
 62
253
  6
CONTINUOUS
 10
54.2326630897
 20
21.3813114333
 11
54.2335925082
 21
21.255752351
  0
LINE
  5
254
100
AcDbEntity
  8
RACCORDO
100
AcDbLine
 62
253
  6
CONTINUOUS
 10
54.2335925082
 20
21.255752351
 11
54.2339897315
 21
21.1253010388
  0
LWPOLYLINE
  5
255
100
AcDbEntity
  8
RACCORDO
100
AcDbPolyline
 62
253
  6
CONTINUOUS
 90
13
 70
0
 10
54.3676599943
 20
21.1402326437
 10
54.3739707509
 20
17.8928674364
 10
54.3772291284
 20
14.5212908873
 10
54.3784662562
 20
11.0256006887
 10
54.3794347214
 20
7.3651737743
 10
54.3812752763
 20
3.5809549104
 10
54.3825582727
 20
-0.2044911804
 10
54.3812472489
 20
-3.9917029599
 10
54.3794132029
 20
-7.7795520662
 10
54.3784682109
 20
-11.4429737431
 10
54.3772429941
 20
-14.9401903079
 10
54.3739867699
 20
-18.3126580218
 10
54.367659975
 20
-21.5602796211
  0
LWPOLYLINE
  5
256
100
AcDbEntity
  8
RACCORDO
100
AcDbPolyline
 62
253
  6
CONTINUOUS
 90
12
 70
0
 10
54.2339897315
 20
21.1253010388
 10
54.2372569982
 20
17.87998647
 10
54.2399652445
 20
14.5108112334
 10
54.2421144705
 20
11.017775329
 10
54.2437474338
 20
7.3599024091
 10
54.2448213768
 20
3.5781688213
 10
54.2452080265
 20
-0.204496391
 10
54.244821977
 20
-3.9889259793
 10
54.2437486343
 20
-7.7742871922
 10
54.2421159438
 20
-11.435152732
 10
54.239966554
 20
-14.9297134994
 10
54.2372578164
 20
-18.2997785938
  0
LINE
  5
257
100
AcDbEntity
  8
ASSI
100
AcDbLine
 62
7
  6
CONTINUOUS
 10
54.1243840876
 20
23.5900069738
 11
54.1243840876
 21
21.8900222043
  0
LINE
  5
258
100
AcDbEntity
  8
RACCORDO
100
AcDbLine
 62
7
  6
CONTINUOUS
 10
54.1243840876
 20
23.5900069738
 11
54.1243840876
 21
-24.0100539481
  0
LINE
  5
259
100
AcDbEntity
  8
ASSI
100
AcDbLine
 62
7
  6
CONTINUOUS
 10
54.1243840876
 20
-22.3100691786
 11
54.1243840876
 21
-24.0100539481
  0
LINE
  5
25A
100
AcDbEntity
  8
RACCORDO
100
AcDbLine
 62
253
  6
CONTINUOUS
 10
54.2372578164
 20
-18.2997785938
 11
54.2338574497
 21
-21.6112649098
  0
LINE
  5
25B
100
AcDbEntity
  8
RACCORDO
100
AcDbLine
 62
253
  6
CONTINUOUS
 10
54.2338574497
 20
-21.6112649098
 11
54.2331949095
 21
-21.7389514003
  0
LINE
  5
25C
100
AcDbEntity
  8
RACCORDO
100
AcDbLine
 62
253
  6
CONTINUOUS
 10
54.2331949095
 20
-21.7389514003
 11
54.2319986111
 21
-21.8623830259
  0
LWPOLYLINE
  5
25D
100
AcDbEntity
  8
RACCORDO
100
AcDbPolyline
 62
253
  6
CONTINUOUS
 90
10
 70
0
 10
54.2319986111
 20
-21.8623830259
 10
54.2302810322
 20
-21.9745789781
 10
54.2292279321
 20
-22.0257503341
 10
54.2280656057
 20
-22.0716217685
 10
54.2267851055
 20
-22.1121298529
 10
54.225395379
 20
-22.1473380157
 10
54.2239420199
 20
-22.1754313546
 10
54.2224402261
 20
-22.1958049021
 10
54.2208747997
 20
-22.2090636258
 10
54.2192457406
 20
-22.2152075256
  0
LWPOLYLINE
  5
25E
100
AcDbEntity
  8
RACCORDO
100
AcDbPolyline
 62
253
  6
CONTINUOUS
 90
10
 70
0
 10
103.4295680963
 20
-22.5151618044
 10
103.4816444789
 20
-22.5105907501
 10
103.5321392403
 20
-22.4970481193
 10
103.5795187096
 20
-22.4749451992
 10
103.6223438672
 20
-22.4449532447
 10
103.659313914
 20
-22.4079831848
 10
103.6893058478
 20
-22.3651580257
 10
103.7114087454
 20
-22.3177785694
 10
103.724951358
 20
-22.2672838363
 10
103.7295224049
 20
-22.2152074959
  0
LINE
  5
25F
100
AcDbEntity
  8
0
100
AcDbLine
 62
7
  6
CONTINUOUS
 10
60.4743840876
 20
-24.8100234871
 11
72.4743840876
 21
-24.8100234871
  0
LINE
  5
260
100
AcDbEntity
  8
0
100
AcDbLine
 62
7
  6
CONTINUOUS
 10
85.4743840876
 20
-24.8100234871
 11
97.4743840876
 21
-24.8100234871
  0
LWPOLYLINE
  5
261
100
AcDbEntity
  8
RACCORDO
100
AcDbPolyline
 62
253
  6
CONTINUOUS
 90
10
 70
0
 10
54.5192000492
 20
-22.5151618341
 10
54.4671235249
 20
-22.510590755
 10
54.4166287073
 20
-22.4970480773
 10
54.3692492627
 20
-22.4749451294
 10
54.3264242345
 20
-22.4449532384
 10
54.2894543363
 20
-22.4079833403
 10
54.2594624453
 20
-22.3651583121
 10
54.2373594974
 20
-22.3177788674
 10
54.2238168198
 20
-22.2672840499
 10
54.2192457406
 20
-22.2152075256
  0
LINE
  5
262
100
AcDbEntity
  8
RACCORDO
100
AcDbLine
 62
7
  6
CONTINUOUS
 10
56.0243840876
 20
-24.0100539481
 11
56.0243840876
 21
-22.7100234871
  0
LINE
  5
263
100
AcDbEntity
  8
ASSI
100
AcDbLine
 62
7
  6
CONTINUOUS
 10
56.0243840876
 20
-24.0100539481
 11
56.0243840876
 21
-22.7100234871
  0
LINE
  5
264
100
AcDbEntity
  8
RACCORDO
100
AcDbLine
 62
7
  6
CONTINUOUS
 10
56.0243840876
 20
22.2899765129
 11
56.0243840876
 21
23.5900069738
  0
LINE
  5
265
100
AcDbEntity
  8
ASSI
100
AcDbLine
 62
7
  6
CONTINUOUS
 10
56.0243840876
 20
22.2899765129
 11
56.0243840876
 21
23.5900069738
  0
LINE
  5
266
100
AcDbEntity
  8
RACCORDO
100
AcDbLine
 62
7
  6
CONTINUOUS
 10
56.4743840876
 20
22.103755086
 11
56.4743840876
 21
22.1376113181
  0
LINE
  5
267
100
AcDbEntity
  8
RACCORDO
100
AcDbLine
 62
7
  6
CONTINUOUS
 10
56.4743840876
 20
-22.5238020603
 11
56.4743840876
 21
-22.5576582924
  0
LWPOLYLINE
  5
268
100
AcDbEntity
  8
RACCORDO
100
AcDbPolyline
 62
253
  6
CONTINUOUS
 90
10
 70
0
 10
103.5811078103
 20
-21.5602795153
 10
103.6069000506
 20
-21.5590878476
 10
103.6304816781
 20
-21.5577380688
 10
103.6515812927
 20
-21.5562457137
 10
103.6699560591
 20
-21.5546279582
 10
103.6853945044
 20
-21.5529034211
 10
103.6977189507
 20
-21.5510919503
 10
103.706787556
 20
-21.549214394
 10
103.7124959493
 20
-21.5472923613
 10
103.7147784325
 20
-21.545347973
  0
LWPOLYLINE
  5
269
100
AcDbEntity
  8
RACCORDO
100
AcDbPolyline
 62
7
  6
CONTINUOUS
 90
13
 70
0
 10
56.4743840876
 20
-22.5238020603
 10
57.3048697623
 20
-22.515432211
 10
58.1529138227
 20
-22.5077566855
 10
59.0185162688
 20
-22.5007754838
 10
59.9035746461
 20
-22.4944762989
 10
60.8061914091
 20
-22.4888714379
 10
61.7206739208
 20
-22.4839978211
 10
62.6471424576
 20
-22.4798604637
 10
63.5854767432
 20
-22.4764543505
 10
64.5296233116
 20
-22.4738013569
 10
65.4775643411
 20
-22.4719087744
 10
66.4313176536
 20
-22.4707693113
 10
67.390883249
 20
-22.4703829677
  0
LWPOLYLINE
  5
26A
100
AcDbEntity
  8
RACCORDO
100
AcDbPolyline
 62
253
  6
CONTINUOUS
 90
16
 70
0
 10
67.390883249
 20
-22.4443684453
 10
66.4721270948
 20
-22.4446982911
 10
65.5575849071
 20
-22.4456773928
 10
64.6472566858
 20
-22.4473057505
 10
63.7394448545
 20
-22.4495887209
 10
62.8358469898
 20
-22.4525209472
 10
61.9415558204
 20
-22.4560863586
 10
61.0564712606
 20
-22.4602913223
 10
60.1806933963
 20
-22.4651294711
 10
59.3196152142
 20
-22.4705656324
 10
58.4733093905
 20
-22.4766069221
 10
57.641703249
 20
-22.4832462243
 10
56.8299717483
 20
-22.4904270186
 10
56.0398398745
 20
-22.498130465
 10
55.2695826415
 20
-22.5063754035
 10
54.5192000492
 20
-22.5151618341
  0
LINE
  5
26B
100
AcDbEntity
  8
0
100
AcDbLine
 62
253
  6
CONTINUOUS
 10
60.4743840876
 20
-24.2925737388
 11
72.4743840876
 21
-24.2925737388
  0
LINE
  5
26C
100
AcDbEntity
  8
0
100
AcDbLine
 62
253
  6
CONTINUOUS
 10
85.4743840876
 20
-24.2925737388
 11
97.4743840876
 21
-24.2925737388
  0
LINE
  5
26D
100
AcDbEntity
  8
RACCORDO
100
AcDbLine
 62
7
  6
CONTINUOUS
 10
54.3243536266
 20
-24.2100234871
 11
55.8244145486
 21
-24.2100234871
  0
LINE
  5
26E
100
AcDbEntity
  8
ASSI
100
AcDbLine
 62
7
  6
CONTINUOUS
 10
54.3243536266
 20
-24.2100234871
 11
55.8244145486
 21
-24.2100234871
  0
LINE
  5
26F
100
AcDbEntity
  8
RACCORDO
100
AcDbLine
 62
7
  6
CONTINUOUS
 10
102.1243536266
 20
-24.2100234871
 11
103.6244145486
 21
-24.2100234871
  0
LINE
  5
270
100
AcDbEntity
  8
ASSI
100
AcDbLine
 62
7
  6
CONTINUOUS
 10
102.1243536266
 20
-24.2100234871
 11
103.6244145486
 21
-24.2100234871
  0
LINE
  5
271
100
AcDbEntity
  8
0
100
AcDbLine
 62
7
  6
CONTINUOUS
 10
97.4743840876
 20
-23.5960636885
 11
92.9743840876
 21
-23.5960636885
  0
LINE
  5
272
100
AcDbEntity
  8
0
100
AcDbLine
 62
7
  6
CONTINUOUS
 10
72.4743840876
 20
-23.5960636885
 11
67.9743840876
 21
-23.5960636885
  0
LINE
  5
273
100
AcDbEntity
  8
0
100
AcDbLine
 62
7
  6
CONTINUOUS
 10
60.4743840876
 20
-23.5960636885
 11
64.9743840876
 21
-23.5960636885
  0
LINE
  5
274
100
AcDbEntity
  8
0
100
AcDbLine
 62
7
  6
CONTINUOUS
 10
85.4743840876
 20
-23.5960636885
 11
89.9743840876
 21
-23.5960636885
  0
LINE
  5
275
100
AcDbEntity
  8
0
100
AcDbLine
 62
7
  6
CONTINUOUS
 10
64.9743840876
 20
-23.5460636885
 11
67.9743840876
 21
-23.5460636885
  0
LINE
  5
276
100
AcDbEntity
  8
0
100
AcDbLine
 62
7
  6
CONTINUOUS
 10
89.9743840876
 20
-23.5460636885
 11
92.9743840876
 21
-23.5460636885
  0
LINE
  5
277
100
AcDbEntity
  8
DRAFT
100
AcDbLine
 62
7
  6
CONTINUOUS
 10
85.4743840876
 20
-23.4600234871
 11
85.1155429968
 21
-23.4600234871
  0
LINE
  5
278
100
AcDbEntity
  8
RACCORDO
100
AcDbLine
 62
7
  6
CONTINUOUS
 10
74.274353622
 20
-23.4600234871
 11
72.8332251785
 21
-23.4600234871
  0
LINE
  5
279
100
AcDbEntity
  8
DRAFT
100
AcDbLine
 62
7
  6
CONTINUOUS
 10
60.4743840876
 20
-23.4600234871
 11
60.1155429968
 21
-23.4600234871
  0
LINE
  5
27A
100
AcDbEntity
  8
RACCORDO
100
AcDbLine
 62
7
  6
CONTINUOUS
 10
60.1155429968
 20
-23.4600234871
 11
58.6744145532
 21
-23.4600234871
  0
LINE
  5
27B
100
AcDbEntity
  8
ASSI
100
AcDbLine
 62
7
  6
CONTINUOUS
 10
60.4743840876
 20
-23.4600234871
 11
58.6744145532
 21
-23.4600234871
  0
LINE
  5
27C
100
AcDbEntity
  8
DRAFT
100
AcDbLine
 62
7
  6
CONTINUOUS
 10
72.4743840876
 20
-23.4600234871
 11
72.8332251785
 21
-23.4600234871
  0
LINE
  5
27D
100
AcDbEntity
  8
ASSI
100
AcDbLine
 62
7
  6
CONTINUOUS
 10
72.4743840876
 20
-23.4600234871
 11
74.274353622
 21
-23.4600234871
  0
LINE
  5
27E
100
AcDbEntity
  8
RACCORDO
100
AcDbLine
 62
7
  6
CONTINUOUS
 10
83.6744145532
 20
-23.4600234871
 11
85.1155429968
 21
-23.4600234871
  0
LINE
  5
27F
100
AcDbEntity
  8
ASSI
100
AcDbLine
 62
7
  6
CONTINUOUS
 10
83.6744145532
 20
-23.4600234871
 11
85.4743840876
 21
-23.4600234871
  0
LINE
  5
280
100
AcDbEntity
  8
DRAFT
100
AcDbLine
 62
7
  6
CONTINUOUS
 10
97.4743840876
 20
-23.4600234871
 11
97.8332251785
 21
-23.4600234871
  0
LINE
  5
281
100
AcDbEntity
  8
RACCORDO
100
AcDbLine
 62
7
  6
CONTINUOUS
 10
97.8332251785
 20
-23.4600234871
 11
99.274353622
 21
-23.4600234871
  0
LINE
  5
282
100
AcDbEntity
  8
ASSI
100
AcDbLine
 62
7
  6
CONTINUOUS
 10
97.4743840876
 20
-23.4600234871
 11
99.274353622
 21
-23.4600234871
  0
LINE
  5
283
100
AcDbEntity
  8
RACCORDO
100
AcDbLine
 62
7
  6
CONTINUOUS
 10
97.4743840876
 20
-22.9601485548
 11
95.4243840876
 21
-22.9601485548
  0
LINE
  5
284
100
AcDbEntity
  8
RACCORDO
100
AcDbLine
 62
7
  6
CONTINUOUS
 10
72.4743840876
 20
-22.9601485548
 11
70.4243840876
 21
-22.9601485548
  0
LINE
  5
285
100
AcDbEntity
  8
RACCORDO
100
AcDbLine
 62
7
  6
CONTINUOUS
 10
60.4743840876
 20
-22.9601485548
 11
62.5243840876
 21
-22.9601485548
  0
LINE
  5
286
100
AcDbEntity
  8
RACCORDO
100
AcDbLine
 62
7
  6
CONTINUOUS
 10
85.4743840876
 20
-22.9601485548
 11
87.5243840876
 21
-22.9601485548
  0
LINE
  5
287
100
AcDbEntity
  8
DRAFT
100
AcDbLine
 62
7
  6
CONTINUOUS
 10
101.9243840876
 20
-22.7100234871
 11
99.4743840876
 21
-22.7100234871
  0
LINE
  5
288
100
AcDbEntity
  8
ASSI
100
AcDbLine
 62
7
  6
CONTINUOUS
 10
101.9243840876
 20
-22.7100234871
 11
99.4743840876
 21
-22.7100234871
  0
LINE
  5
289
100
AcDbEntity
  8
DRAFT
100
AcDbLine
 62
7
  6
CONTINUOUS
 10
83.4743840876
 20
-22.7100234871
 11
74.4743840876
 21
-22.7100234871
  0
LINE
  5
28A
100
AcDbEntity
  8
ASSI
100
AcDbLine
 62
7
  6
CONTINUOUS
 10
83.4743840876
 20
-22.7100234871
 11
74.4743840876
 21
-22.7100234871
  0
LINE
  5
28B
100
AcDbEntity
  8
DRAFT
100
AcDbLine
 62
7
  6
CONTINUOUS
 10
58.4743840876
 20
-22.7100234871
 11
56.0243840876
 21
-22.7100234871
  0
LINE
  5
28C
100
AcDbEntity
  8
ASSI
100
AcDbLine
 62
7
  6
CONTINUOUS
 10
58.4743840876
 20
-22.7100234871
 11
56.0243840876
 21
-22.7100234871
  0
LINE
  5
28D
100
AcDbEntity
  8
DRAFT
100
AcDbLine
 62
7
  6
CONTINUOUS
 10
60.1155429968
 20
-22.7100234871
 11
72.8332251785
 21
-22.7100234871
  0
LINE
  5
28E
100
AcDbEntity
  8
ASSI
100
AcDbLine
 62
7
  6
CONTINUOUS
 10
60.1155429968
 20
-22.7100234871
 11
72.8332251785
 21
-22.7100234871
  0
LINE
  5
28F
100
AcDbEntity
  8
DRAFT
100
AcDbLine
 62
7
  6
CONTINUOUS
 10
85.1155429968
 20
-22.7100234871
 11
97.8332251785
 21
-22.7100234871
  0
LINE
  5
290
100
AcDbEntity
  8
ASSI
100
AcDbLine
 62
7
  6
CONTINUOUS
 10
85.1155429968
 20
-22.7100234871
 11
97.8332251785
 21
-22.7100234871
  0
LINE
  5
291
100
AcDbEntity
  8
RACCORDO
100
AcDbLine
 62
7
  6
CONTINUOUS
 10
54.4243383962
 20
-22.6100234871
 11
71.9743840876
 21
-22.6100234871
  0
LINE
  5
292
100
AcDbEntity
  8
DRAFT
100
AcDbLine
 62
7
  6
CONTINUOUS
 10
71.9743840876
 20
-22.6100234871
 11
74.7243840876
 21
-22.6100234871
  0
LINE
  5
293
100
AcDbEntity
  8
DRAFT
100
AcDbLine
 62
7
  6
CONTINUOUS
 10
83.2243840876
 20
-22.6100234871
 11
85.9743840876
 21
-22.6100234871
  0
LINE
  5
294
100
AcDbEntity
  8
RACCORDO
100
AcDbLine
 62
7
  6
CONTINUOUS
 10
85.9743840876
 20
-22.6100234871
 11
103.5244297791
 21
-22.6100234871
  0
LINE
  5
295
100
AcDbEntity
  8
DRAFT
100
AcDbLine
 62
7
  6
CONTINUOUS
 10
74.7243840876
 20
-22.6082779807
 11
83.2243840876
 21
-22.6082779807
  0
LINE
  5
296
100
AcDbEntity
  8
DRAFT
100
AcDbLine
 62
7
  6
CONTINUOUS
 10
83.2243840876
 20
-22.5733678508
 11
74.7243840876
 21
-22.5733678508
  0
LINE
  5
297
100
AcDbEntity
  8
RACCORDO
100
AcDbLine
 62
7
  6
CONTINUOUS
 10
101.4743840876
 20
-22.5576582924
 11
56.4743840876
 21
-22.5576582924
  0
LINE
  5
298
100
AcDbEntity
  8
RACCORDO
100
AcDbLine
 62
7
  6
CONTINUOUS
 10
67.390883249
 20
-22.4703829677
 11
90.5578849262
 21
-22.4703829677
  0
LINE
  5
299
100
AcDbEntity
  8
RACCORDO
100
AcDbLine
 62
253
  6
CONTINUOUS
 10
90.5578849262
 20
-22.4443684453
 11
67.390883249
 21
-22.4443684453
  0
LWPOLYLINE
  5
29A
100
AcDbEntity
  8
RACCORDO
100
AcDbPolyline
 62
7
  6
CONTINUOUS
 90
13
 70
0
 10
90.5578849262
 20
-22.4703829677
 10
91.5174422572
 20
-22.4707692927
 10
92.4711905492
 20
-22.4719087443
 10
93.4191298022
 20
-22.4738013226
 10
94.3632767863
 20
-22.4764543027
 10
95.3016147313
 20
-22.4798604095
 10
96.2280933273
 20
-22.4839978174
 10
97.1426007622
 20
-22.4888716169
 10
98.045248848
 20
-22.4944767175
 10
98.9303227108
 20
-22.5007760219
 10
99.7959173927
 20
-22.5077571642
 10
100.6439378517
 20
-22.5154325104
 10
101.4743840876
 20
-22.5238020603
  0
LWPOLYLINE
  5
29B
100
AcDbEntity
  8
RACCORDO
100
AcDbPolyline
 62
7
  6
CONTINUOUS
 90
25
 70
0
 10
70.4243840876
 20
-22.9601485548
 10
70.4112114614
 20
-22.9600525848
 10
70.39820544
 20
-22.9597753297
 10
70.3853660232
 20
-22.9593167895
 10
70.3726398104
 20
-22.958673458
 10
70.3600802023
 20
-22.9578488414
 10
70.3478474011
 20
-22.9568534579
 10
70.3359455932
 20
-22.95568512
 10
70.3243705921
 20
-22.9543460152
 10
70.313270041
 20
-22.9528532244
 10
70.3026500176
 20
-22.9512047787
 10
70.2925044443
 20
-22.9494026469
 10
70.2829627314
 20
-22.9474698157
 10
70.2740326142
 20
-22.9454046111
 10
70.2657063573
 20
-22.9432087071
 10
70.2580901652
 20
-22.9409101133
 10
70.2511931335
 20
-22.9385075144
 10
70.2450061665
 20
-22.9360022256
 10
70.2396081811
 20
-22.9334262029
 10
70.235009284
 20
-22.9307785401
 10
70.2311993686
 20
-22.9280601434
 10
70.2282270315
 20
-22.9253056868
 10
70.2261084718
 20
-22.9225267284
 10
70.2248274905
 20
-22.9197117101
 10
70.2243840876
 20
-22.916860632
  0
LWPOLYLINE
  5
29C
100
AcDbEntity
  8
RACCORDO
100
AcDbPolyline
 62
7
  6
CONTINUOUS
 90
25
 70
0
 10
95.4243840876
 20
-22.9601485548
 10
95.4112114614
 20
-22.9600525848
 10
95.39820544
 20
-22.9597753297
 10
95.3853660232
 20
-22.9593167895
 10
95.3726398104
 20
-22.958673458
 10
95.3600802023
 20
-22.9578488414
 10
95.3478474011
 20
-22.9568534579
 10
95.3359455932
 20
-22.95568512
 10
95.3243705921
 20
-22.9543460152
 10
95.313270041
 20
-22.9528532244
 10
95.3026500176
 20
-22.9512047787
 10
95.2925044443
 20
-22.9494026469
 10
95.2829627314
 20
-22.9474698157
 10
95.2740326142
 20
-22.9454046111
 10
95.2657063573
 20
-22.9432087071
 10
95.2580901652
 20
-22.9409101133
 10
95.2511931335
 20
-22.9385075144
 10
95.2450061665
 20
-22.9360022256
 10
95.2396081811
 20
-22.9334262029
 10
95.235009284
 20
-22.9307785401
 10
95.2311993686
 20
-22.9280601434
 10
95.2282270315
 20
-22.9253056868
 10
95.2261084718
 20
-22.9225267284
 10
95.2248274905
 20
-22.9197117101
 10
95.2243840876
 20
-22.916860632
  0
LWPOLYLINE
  5
29D
100
AcDbEntity
  8
RACCORDO
100
AcDbPolyline
 62
253
  6
CONTINUOUS
 90
16
 70
0
 10
103.4295680963
 20
-22.5151618044
 10
102.679199151
 20
-22.5063755716
 10
101.9089629084
 20
-22.49813084
 10
101.1188593688
 20
-22.4904276094
 10
100.3071699917
 20
-22.4832470818
 10
99.4756133175
 20
-22.4766080552
 10
98.6293449669
 20
-22.4705669242
 10
97.768285804
 20
-22.4651307353
 10
96.8925149647
 20
-22.4602924419
 10
96.007425478
 20
-22.4560872986
 10
95.1131149495
 20
-22.4525216738
 10
94.2094857736
 20
-22.449589199
 10
93.3016381621
 20
-22.4473060237
 10
92.3912721857
 20
-22.4456775313
 10
91.4766877737
 20
-22.4446983385
 10
90.5578849262
 20
-22.4443684453
  0
LWPOLYLINE
  5
29E
100
AcDbEntity
  8
RACCORDO
100
AcDbPolyline
 62
253
  6
CONTINUOUS
 90
10
 70
0
 10
54.3677436121
 20
-21.560272256
 10
54.3419466557
 20
-21.5590815199
 10
54.3183590501
 20
-21.5577326725
 10
54.2972522231
 20
-21.5562412355
 10
54.2788690565
 20
-21.5546243718
 10
54.2634210877
 20
-21.5529006873
 10
54.2510860778
 20
-21.5510900173
 10
54.2420059684
 20
-21.549213198
 10
54.2362852477
 20
-21.5472918271
 10
54.2339897454
 20
-21.5453480149
  0
LINE
  5
29F
100
AcDbEntity
  8
RACCORDO
100
AcDbLine
 62
7
  6
CONTINUOUS
 10
58.4743840876
 20
-23.2600234871
 11
58.4743840876
 21
-22.7100234871
  0
LINE
  5
2A0
100
AcDbEntity
  8
ASSI
100
AcDbLine
 62
7
  6
CONTINUOUS
 10
58.4743840876
 20
-23.2600234871
 11
58.4743840876
 21
-22.7100234871
  0
LINE
  5
2A1
100
AcDbEntity
  8
RACCORDO
100
AcDbLine
 62
7
  6
CONTINUOUS
 10
58.4743840876
 20
22.2899765129
 11
58.4743840876
 21
22.8399765129
  0
LINE
  5
2A2
100
AcDbEntity
  8
ASSI
100
AcDbLine
 62
7
  6
CONTINUOUS
 10
58.4743840876
 20
22.2899765129
 11
58.4743840876
 21
22.8399765129
  0
LINE
  5
2A3
100
AcDbEntity
  8
DRAFT
100
AcDbLine
 62
7
  6
CONTINUOUS
 10
60.1155429968
 20
-23.4600234871
 11
60.1155429968
 21
-22.7100234871
  0
LINE
  5
2A4
100
AcDbEntity
  8
ASSI
100
AcDbLine
 62
7
  6
CONTINUOUS
 10
60.1155429968
 20
-23.4600234871
 11
60.1155429968
 21
-22.7100234871
  0
LINE
  5
2A5
100
AcDbEntity
  8
DRAFT
100
AcDbLine
 62
7
  6
CONTINUOUS
 10
60.1155429968
 20
22.2899765129
 11
60.1155429968
 21
23.0399765129
  0
LINE
  5
2A6
100
AcDbEntity
  8
ASSI
100
AcDbLine
 62
7
  6
CONTINUOUS
 10
60.1155429968
 20
22.2899765129
 11
60.1155429968
 21
23.0399765129
  0
LINE
  5
2A7
100
AcDbEntity
  8
DRAFT
100
AcDbLine
 62
7
  6
CONTINUOUS
 10
60.2743840876
 20
23.0399765129
 11
60.2743840876
 21
22.2899765129
  0
LINE
  5
2A8
100
AcDbEntity
  8
ASSI
100
AcDbLine
 62
7
  6
CONTINUOUS
 10
60.2743840876
 20
23.0399765129
 11
60.2743840876
 21
22.2899765129
  0
LINE
  5
2A9
100
AcDbEntity
  8
DRAFT
100
AcDbLine
 62
7
  6
CONTINUOUS
 10
60.2743840876
 20
-23.4600234871
 11
60.2743840876
 21
-22.7100234871
  0
LINE
  5
2AA
100
AcDbEntity
  8
ASSI
100
AcDbLine
 62
7
  6
CONTINUOUS
 10
60.2743840876
 20
-23.4600234871
 11
60.2743840876
 21
-22.7100234871
  0
LINE
  5
2AB
100
AcDbEntity
  8
0
100
AcDbLine
 62
7
  6
CONTINUOUS
 10
60.4743840876
 20
-23.5960636885
 11
60.4743840876
 21
-22.9601485548
  0
LINE
  5
2AC
100
AcDbEntity
  8
0
100
AcDbLine
 62
7
  6
CONTINUOUS
 10
60.4743840876
 20
23.1760167142
 11
60.4743840876
 21
22.5401015805
  0
LINE
  5
2AD
100
AcDbEntity
  8
0
100
AcDbLine
 62
7
  6
CONTINUOUS
 10
60.4743840876
 20
-23.5960636885
 11
60.4743840876
 21
-24.8100234871
  0
LINE
  5
2AE
100
AcDbEntity
  8
0
100
AcDbLine
 62
7
  6
CONTINUOUS
 10
60.4743840876
 20
23.1760167142
 11
60.4743840876
 21
24.3899765129
  0
LWPOLYLINE
  5
2AF
100
AcDbEntity
  8
RACCORDO
100
AcDbPolyline
 62
253
  6
CONTINUOUS
 90
16
 70
0
 10
67.390883249
 20
-21.4941340615
 10
66.4686717206
 20
-21.4944413646
 10
65.5475017213
 20
-21.4953533208
 10
64.6288032595
 20
-21.4968699297
 10
63.7138186526
 20
-21.4989957256
 10
62.8041634355
 20
-21.5017261734
 10
61.9018109087
 20
-21.5050476692
 10
61.0079989432
 20
-21.5089656539
 10
60.1242724861
 20
-21.5134746851
 10
59.252994527
 20
-21.5185448334
 10
58.3954421376
 20
-21.5241812935
 10
57.5529100333
 20
-21.5303788686
 10
56.7276516171
 20
-21.5370920417
 10
55.921139721
 20
-21.5443056398
 10
55.1341255282
 20
-21.5520348334
 10
54.367659975
 20
-21.5602796211
  0
LINE
  5
2B0
100
AcDbEntity
  8
RACCORDO
100
AcDbLine
 62
253
  6
CONTINUOUS
 10
90.5578849262
 20
-21.4941340615
 11
67.390883249
 21
-21.4941340615
  0
LWPOLYLINE
  5
2B1
100
AcDbEntity
  8
RACCORDO
100
AcDbPolyline
 62
253
  6
CONTINUOUS
 90
16
 70
0
 10
103.5811078024
 20
-21.5602795542
 10
102.8147075406
 20
-21.5520354315
 10
102.0277519445
 20
-21.5443067533
 10
101.2212910427
 20
-21.5370935211
 10
100.39607577
 20
-21.5303805432
 10
99.5535776438
 20
-21.5241830137
 10
98.6960475901
 20
-21.5185465128
 10
97.8247783584
 20
-21.5134762378
 10
96.9410477598
 20
-21.5089669935
 10
96.047220519
 20
-21.5050487716
 10
95.1448397256
 20
-21.5017270093
 10
94.2351446965
 20
-21.4989962708
 10
93.3201158016
 20
-21.4968702383
 10
92.4013711037
 20
-21.4953534726
 10
91.4801507393
 20
-21.4944414136
 10
90.5578849262
 20
-21.4941340615
  0
LWPOLYLINE
  5
2B2
100
AcDbEntity
  8
RACCORDO
100
AcDbPolyline
 62
253
  6
CONTINUOUS
 90
8
 70
0
 10
54.2192457422
 20
21.7951605498
 10
54.220874801
 20
21.7890166168
 10
54.2224402273
 20
21.7757578737
 10
54.223942021
 20
21.7553843203
 10
54.2253953801
 20
21.7272909947
 10
54.2267851067
 20
21.6920828589
 10
54.228065607
 20
21.6515747986
 10
54.2292279337
 20
21.6057033834
  0
LINE
  5
2B3
100
AcDbEntity
  8
0
100
AcDbLine
 62
7
  6
CONTINUOUS
 10
62.5002769448
 20
-22.9601485548
 11
62.5002769448
 21
-22.7100234871
  0
LINE
  5
2B4
100
AcDbEntity
  8
0
100
AcDbLine
 62
7
  6
CONTINUOUS
 10
62.5002769448
 20
22.5401015805
 11
62.5002769448
 21
22.2899765129
  0
LINE
  5
2B5
100
AcDbEntity
  8
ASSI
100
AcDbLine
 62
7
  6
CONTINUOUS
 10
62.5002769448
 20
-22.9601485548
 11
62.5002769448
 21
-22.7100234871
  0
LINE
  5
2B6
100
AcDbEntity
  8
ASSI
100
AcDbLine
 62
7
  6
CONTINUOUS
 10
62.5002769448
 20
22.5401015805
 11
62.5002769448
 21
22.2899765129
  0
LINE
  5
2B7
100
AcDbEntity
  8
RACCORDO
100
AcDbLine
 62
7
  6
CONTINUOUS
 10
62.7243840876
 20
22.2899765129
 11
62.7243840876
 21
22.4968136577
  0
LINE
  5
2B8
100
AcDbEntity
  8
RACCORDO
100
AcDbLine
 62
7
  6
CONTINUOUS
 10
62.7243840876
 20
-22.7100234871
 11
62.7243840876
 21
-22.916860632
  0
LINE
  5
2B9
100
AcDbEntity
  8
DRAFT
100
AcDbLine
 62
7
  6
CONTINUOUS
 10
83.6743840876
 20
-17.4707525821
 11
83.1743840876
 21
-17.475116016
  0
LINE
  5
2BA
100
AcDbEntity
  8
DRAFT
100
AcDbLine
 62
7
  6
CONTINUOUS
 10
82.6743840876
 20
-17.4707525821
 11
82.1743840876
 21
-17.475116016
  0
LINE
  5
2BB
100
AcDbEntity
  8
DRAFT
100
AcDbLine
 62
7
  6
CONTINUOUS
 10
81.6743840876
 20
-17.4707525821
 11
81.1743840876
 21
-17.475116016
  0
LINE
  5
2BC
100
AcDbEntity
  8
DRAFT
100
AcDbLine
 62
7
  6
CONTINUOUS
 10
80.6743840876
 20
-17.4707525821
 11
80.1743840876
 21
-17.475116016
  0
LINE
  5
2BD
100
AcDbEntity
  8
DRAFT
100
AcDbLine
 62
7
  6
CONTINUOUS
 10
79.6743840876
 20
-17.4707525821
 11
79.1743840876
 21
-17.475116016
  0
LINE
  5
2BE
100
AcDbEntity
  8
DRAFT
100
AcDbLine
 62
7
  6
CONTINUOUS
 10
78.6743840876
 20
-17.4707525821
 11
78.1743840876
 21
-17.475116016
  0
LINE
  5
2BF
100
AcDbEntity
  8
DRAFT
100
AcDbLine
 62
7
  6
CONTINUOUS
 10
77.6743840876
 20
-17.4707525821
 11
77.2095988736
 21
-17.4748087012
  0
LINE
  5
2C0
100
AcDbEntity
  8
0
100
AcDbLine
 62
7
  6
CONTINUOUS
 10
84.2243840876
 20
-17.6100234871
 11
73.7243840876
 21
-17.6100234871
  0
LINE
  5
2C1
100
AcDbEntity
  8
DRAFT
100
AcDbLine
 62
7
  6
CONTINUOUS
 10
84.2243840876
 20
-17.5100234871
 11
82.2883481396
 21
-17.5100234871
  0
LINE
  5
2C2
100
AcDbEntity
  8
DRAFT
100
AcDbLine
 62
7
  6
CONTINUOUS
 10
73.7243840876
 20
-17.5100234871
 11
79.0604200357
 21
-17.5100234871
  0
LINE
  5
2C3
100
AcDbEntity
  8
DRAFT
100
AcDbLine
 62
7
  6
CONTINUOUS
 10
79.0743840876
 20
-17.5030419929
 11
82.2743840876
 21
-17.5030419929
  0
LINE
  5
2C4
100
AcDbEntity
  8
DRAFT
100
AcDbLine
 62
7
  6
CONTINUOUS
 10
78.1743840876
 20
-17.475116016
 11
77.6743840876
 21
-17.4707525821
  0
LINE
  5
2C5
100
AcDbEntity
  8
DRAFT
100
AcDbLine
 62
7
  6
CONTINUOUS
 10
79.1743840876
 20
-17.475116016
 11
78.6743840876
 21
-17.4707525821
  0
LINE
  5
2C6
100
AcDbEntity
  8
DRAFT
100
AcDbLine
 62
7
  6
CONTINUOUS
 10
80.1743840876
 20
-17.475116016
 11
79.6743840876
 21
-17.4707525821
  0
LINE
  5
2C7
100
AcDbEntity
  8
DRAFT
100
AcDbLine
 62
7
  6
CONTINUOUS
 10
81.1743840876
 20
-17.475116016
 11
80.6743840876
 21
-17.4707525821
  0
LINE
  5
2C8
100
AcDbEntity
  8
DRAFT
100
AcDbLine
 62
7
  6
CONTINUOUS
 10
82.1743840876
 20
-17.475116016
 11
81.6743840876
 21
-17.4707525821
  0
LINE
  5
2C9
100
AcDbEntity
  8
DRAFT
100
AcDbLine
 62
7
  6
CONTINUOUS
 10
83.1743840876
 20
-17.475116016
 11
82.6743840876
 21
-17.4707525821
  0
LINE
  5
2CA
100
AcDbEntity
  8
DRAFT
100
AcDbLine
 62
7
  6
CONTINUOUS
 10
84.1391693017
 20
-17.4748087012
 11
83.6743840876
 21
-17.4707525821
  0
LWPOLYLINE
  5
2CB
100
AcDbEntity
  8
0
100
AcDbPolyline
 62
7
  6
CONTINUOUS
 90
10
 70
0
 10
66.4743841039
 20
-0.2100234934
 10
66.4863355595
 20
-0.7469660694
 10
66.5209218835
 20
-1.2809247091
 10
66.5781405517
 20
-1.8118986003
 10
66.658185596
 20
-2.3408817434
 10
66.7608516706
 20
-2.8668785828
 10
66.885532818
 20
-3.3869040754
 10
67.0320151179
 20
-3.8999628402
 10
67.2004752343
 20
-4.4070490883
 10
67.390883249
 20
-4.9081623019
  0
LINE
  5
2CC
100
AcDbEntity
  8
0
100
AcDbLine
 62
7
  6
CONTINUOUS
 10
64.9743840876
 20
-23.5960636885
 11
64.9743840876
 21
-23.5460636885
  0
LINE
  5
2CD
100
AcDbEntity
  8
0
100
AcDbLine
 62
7
  6
CONTINUOUS
 10
64.9743840876
 20
23.1260167142
 11
64.9743840876
 21
23.1760167142
  0
LWPOLYLINE
  5
2CE
100
AcDbEntity
  8
RACCORDO
100
AcDbPolyline
 62
7
  6
CONTINUOUS
 90
25
 70
0
 10
62.7243840876
 20
-22.916860632
 10
62.7239406847
 20
-22.9197117101
 10
62.7226597034
 20
-22.9225267284
 10
62.7205411437
 20
-22.9253056868
 10
62.7175688066
 20
-22.9280601434
 10
62.7137588912
 20
-22.9307785401
 10
62.7091599941
 20
-22.9334262029
 10
62.7037620087
 20
-22.9360022256
 10
62.6975750417
 20
-22.9385075144
 10
62.6906780101
 20
-22.9409101133
 10
62.6830618179
 20
-22.9432087071
 10
62.6747355611
 20
-22.9454046111
 10
62.6658054439
 20
-22.9474698157
 10
62.6562637309
 20
-22.9494026469
 10
62.6461181576
 20
-22.9512047787
 10
62.6354981342
 20
-22.9528532244
 10
62.6243975832
 20
-22.9543460152
 10
62.6128225821
 20
-22.95568512
 10
62.6009207741
 20
-22.9568534579
 10
62.5886879729
 20
-22.9578488414
 10
62.5761283648
 20
-22.958673458
 10
62.563402152
 20
-22.9593167895
 10
62.5505627353
 20
-22.9597753297
 10
62.5375567138
 20
-22.9600525848
 10
62.5243840876
 20
-22.9601485548
  0
LWPOLYLINE
  5
2CF
100
AcDbEntity
  8
0
100
AcDbPolyline
 62
7
  6
CONTINUOUS
 90
7
 70
0
 10
66.8898561558
 20
2.9829241284
 10
66.7689020646
 20
2.4979463604
 10
66.6686195361
 20
1.9940959441
 10
66.5890188369
 20
1.4713731976
 10
66.5301083341
 20
0.9297785895
 10
66.491894914
 20
0.3693127539
 10
66.4743841039
 20
-0.2100234934
  0
LINE
  5
2D0
100
AcDbEntity
  8
DRAFT
100
AcDbLine
 62
7
  6
CONTINUOUS
 10
84.1391693017
 20
-13.9452382731
 11
83.6743840876
 21
-13.9492943922
  0
LINE
  5
2D1
100
AcDbEntity
  8
DRAFT
100
AcDbLine
 62
7
  6
CONTINUOUS
 10
83.1743840876
 20
-13.9449309583
 11
82.6743840876
 21
-13.9492943922
  0
LINE
  5
2D2
100
AcDbEntity
  8
DRAFT
100
AcDbLine
 62
7
  6
CONTINUOUS
 10
82.1743840876
 20
-13.9449309583
 11
81.6743840876
 21
-13.9492943922
  0
LINE
  5
2D3
100
AcDbEntity
  8
DRAFT
100
AcDbLine
 62
7
  6
CONTINUOUS
 10
81.1743840876
 20
-13.9449309583
 11
80.6743840876
 21
-13.9492943922
  0
LINE
  5
2D4
100
AcDbEntity
  8
DRAFT
100
AcDbLine
 62
7
  6
CONTINUOUS
 10
80.1743840876
 20
-13.9449309583
 11
79.6743840876
 21
-13.9492943922
  0
LINE
  5
2D5
100
AcDbEntity
  8
DRAFT
100
AcDbLine
 62
7
  6
CONTINUOUS
 10
79.1743840876
 20
-13.9449309583
 11
78.6743840876
 21
-13.9492943922
  0
LINE
  5
2D6
100
AcDbEntity
  8
DRAFT
100
AcDbLine
 62
7
  6
CONTINUOUS
 10
78.1743840876
 20
-13.9449309583
 11
77.6743840876
 21
-13.9492943922
  0
LINE
  5
2D7
100
AcDbEntity
  8
DRAFT
100
AcDbLine
 62
7
  6
CONTINUOUS
 10
79.0743840876
 20
-13.9170049814
 11
82.2743840876
 21
-13.9170049814
  0
LINE
  5
2D8
100
AcDbEntity
  8
DRAFT
100
AcDbLine
 62
7
  6
CONTINUOUS
 10
84.2243840876
 20
-13.9100234871
 11
82.2883481396
 21
-13.9100234871
  0
LINE
  5
2D9
100
AcDbEntity
  8
0
100
AcDbLine
 62
7
  6
CONTINUOUS
 10
82.2883481396
 20
-13.9100234871
 11
79.0604200357
 21
-13.9100234871
  0
LINE
  5
2DA
100
AcDbEntity
  8
DRAFT
100
AcDbLine
 62
7
  6
CONTINUOUS
 10
73.7243840876
 20
-13.9100234871
 11
79.0604200357
 21
-13.9100234871
  0
LINE
  5
2DB
100
AcDbEntity
  8
0
100
AcDbLine
 62
7
  6
CONTINUOUS
 10
84.2243840876
 20
-13.8100234871
 11
73.7243840876
 21
-13.8100234871
  0
LINE
  5
2DC
100
AcDbEntity
  8
DRAFT
100
AcDbLine
 62
7
  6
CONTINUOUS
 10
77.6743840876
 20
-13.9492943922
 11
77.2095988736
 21
-13.9452382731
  0
LINE
  5
2DD
100
AcDbEntity
  8
DRAFT
100
AcDbLine
 62
7
  6
CONTINUOUS
 10
78.6743840876
 20
-13.9492943922
 11
78.1743840876
 21
-13.9449309583
  0
LINE
  5
2DE
100
AcDbEntity
  8
DRAFT
100
AcDbLine
 62
7
  6
CONTINUOUS
 10
79.6743840876
 20
-13.9492943922
 11
79.1743840876
 21
-13.9449309583
  0
LINE
  5
2DF
100
AcDbEntity
  8
DRAFT
100
AcDbLine
 62
7
  6
CONTINUOUS
 10
80.6743840876
 20
-13.9492943922
 11
80.1743840876
 21
-13.9449309583
  0
LINE
  5
2E0
100
AcDbEntity
  8
DRAFT
100
AcDbLine
 62
7
  6
CONTINUOUS
 10
81.6743840876
 20
-13.9492943922
 11
81.1743840876
 21
-13.9449309583
  0
LINE
  5
2E1
100
AcDbEntity
  8
DRAFT
100
AcDbLine
 62
7
  6
CONTINUOUS
 10
82.6743840876
 20
-13.9492943922
 11
82.1743840876
 21
-13.9449309583
  0
LINE
  5
2E2
100
AcDbEntity
  8
DRAFT
100
AcDbLine
 62
7
  6
CONTINUOUS
 10
83.6743840876
 20
-13.9492943922
 11
83.1743840876
 21
-13.9449309583
  0
LINE
  5
2E3
100
AcDbEntity
  8
DRAFT
100
AcDbLine
 62
7
  6
CONTINUOUS
 10
82.2743840876
 20
-17.5030419929
 11
82.2883481396
 21
-17.5100234871
  0
LWPOLYLINE
  5
2E4
100
AcDbEntity
  8
0
100
AcDbPolyline
 62
7
  6
CONTINUOUS
 90
25
 70
0
 10
67.390883249
 20
-4.9081623019
 10
67.6378590702
 20
-5.4760689464
 10
67.911151628
 20
-6.0286413469
 10
68.2107609224
 20
-6.5658793495
 10
68.5375746374
 20
-7.0890615832
 10
68.890705089
 20
-7.5969094316
 10
69.2674892252
 20
-8.0855872759
 10
69.6680819727
 20
-8.5549131505
 10
70.0923284048
 20
-9.005070192
 10
70.5371006897
 20
-9.4327710157
 10
71.0025198461
 20
-9.8378742964
 10
71.4884648552
 20
-10.2205233976
 10
71.9914448286
 20
-10.5778584302
 10
72.5116157806
 20
-10.9096448716
 10
73.048821697
 20
-11.2161197663
 10
73.599103647
 20
-11.4951308547
 10
74.1625429999
 20
-11.7465163127
 10
74.7390583865
 20
-11.9704404569
 10
75.3244467676
 20
-12.1652403153
 10
75.9188004552
 20
-12.3307003229
 10
76.5220271375
 20
-12.4670380399
 10
77.1296468393
 20
-12.5732400789
 10
77.7401662358
 20
-12.6489690256
 10
78.3550786519
 20
-12.6945634002
 10
78.9743840876
 20
-12.7100234833
  0
LINE
  5
2E5
100
AcDbEntity
  8
RACCORDO
100
AcDbLine
 62
253
  6
CONTINUOUS
 10
67.390883249
 20
-22.4443684453
 11
67.390883249
 21
22.024321471
  0
LINE
  5
2E6
100
AcDbEntity
  8
0
100
AcDbLine
 62
7
  6
CONTINUOUS
 10
67.9743840876
 20
23.1760167142
 11
67.9743840876
 21
23.1260167142
  0
LINE
  5
2E7
100
AcDbEntity
  8
0
100
AcDbLine
 62
7
  6
CONTINUOUS
 10
67.9743840876
 20
-23.5460636885
 11
67.9743840876
 21
-23.5960636885
  0
LWPOLYLINE
  5
2E8
100
AcDbEntity
  8
RACCORDO
100
AcDbPolyline
 62
7
  6
CONTINUOUS
 90
25
 70
0
 10
70.2243840876
 20
22.4968136577
 10
70.2248274905
 20
22.4996647358
 10
70.2261084718
 20
22.5024797541
 10
70.2282270315
 20
22.5052587125
 10
70.2311993686
 20
22.5080131691
 10
70.235009284
 20
22.5107315658
 10
70.2396081811
 20
22.5133792286
 10
70.2450061665
 20
22.5159552513
 10
70.2511931335
 20
22.5184605401
 10
70.2580901652
 20
22.520863139
 10
70.2657063573
 20
22.5231617328
 10
70.2740326142
 20
22.5253576368
 10
70.2829627314
 20
22.5274228414
 10
70.2925044443
 20
22.5293556726
 10
70.3026500176
 20
22.5311578044
 10
70.313270041
 20
22.5328062501
 10
70.3243705921
 20
22.5342990409
 10
70.3359455932
 20
22.5356381457
 10
70.3478474011
 20
22.5368064836
 10
70.3600802023
 20
22.5378018671
 10
70.3726398104
 20
22.5386264837
 10
70.3853660232
 20
22.5392698152
 10
70.39820544
 20
22.5397283554
 10
70.4112114614
 20
22.5400056105
 10
70.4243840876
 20
22.5401015805
  0
LWPOLYLINE
  5
2E9
100
AcDbEntity
  8
0
100
AcDbPolyline
 62
7
  6
CONTINUOUS
 90
7
 70
0
 10
67.390883249
 20
4.4881153276
 10
67.2960280701
 20
4.2540168635
 10
67.2057087898
 20
4.0132117462
 10
67.1199289004
 20
3.7656999372
 10
67.0386915904
 20
3.5114814077
 10
66.9619997809
 20
3.25055614
 10
66.8898561558
 20
2.9829241284
  0
LWPOLYLINE
  5
2EA
100
AcDbEntity
  8
0
100
AcDbPolyline
 62
7
  6
CONTINUOUS
 90
25
 70
0
 10
78.9743840876
 20
-12.7100234833
 10
79.5936895233
 20
-12.6945634002
 10
80.2086019394
 20
-12.6489690256
 10
80.8191213359
 20
-12.5732400789
 10
81.4267410378
 20
-12.4670380399
 10
82.02996772
 20
-12.3307003229
 10
82.6243214077
 20
-12.1652403153
 10
83.2097097888
 20
-11.9704404569
 10
83.7862251753
 20
-11.7465163127
 10
84.3496645282
 20
-11.4951308547
 10
84.8999464782
 20
-11.2161197663
 10
85.4371523946
 20
-10.9096448716
 10
85.9573233466
 20
-10.5778584302
 10
86.4603033201
 20
-10.2205233976
 10
86.9462483291
 20
-9.8378742964
 10
87.4116674855
 20
-9.4327710157
 10
87.8564397704
 20
-9.005070192
 10
88.2806862025
 20
-8.5549131505
 10
88.68127895
 20
-8.0855872759
 10
89.0580630863
 20
-7.5969094316
 10
89.4111935378
 20
-7.0890615832
 10
89.7380072528
 20
-6.5658793495
 10
90.0376165472
 20
-6.0286413469
 10
90.310909105
 20
-5.4760689464
 10
90.5578849262
 20
-4.9081623019
  0
LINE
  5
2EB
100
AcDbEntity
  8
DRAFT
100
AcDbLine
 62
7
  6
CONTINUOUS
 10
79.0604200357
 20
-13.9100234871
 11
79.0743840876
 21
-13.9170049814
  0
LINE
  5
2EC
100
AcDbEntity
  8
DRAFT
100
AcDbLine
 62
7
  6
CONTINUOUS
 10
77.2095988736
 20
-13.9452382731
 11
77.1743840876
 21
-13.9100234871
  0
LINE
  5
2ED
100
AcDbEntity
  8
RACCORDO
100
AcDbLine
 62
7
  6
CONTINUOUS
 10
70.2243840876
 20
22.2899765129
 11
70.2243840876
 21
22.4968136577
  0
LINE
  5
2EE
100
AcDbEntity
  8
RACCORDO
100
AcDbLine
 62
7
  6
CONTINUOUS
 10
70.2243840876
 20
-22.7100234871
 11
70.2243840876
 21
-22.916860632
  0
LINE
  5
2EF
100
AcDbEntity
  8
0
100
AcDbLine
 62
7
  6
CONTINUOUS
 10
70.4484912305
 20
-22.9601485548
 11
70.4484912305
 21
-22.7100234871
  0
LINE
  5
2F0
100
AcDbEntity
  8
0
100
AcDbLine
 62
7
  6
CONTINUOUS
 10
70.4484912305
 20
22.5401015805
 11
70.4484912305
 21
22.2899765129
  0
LINE
  5
2F1
100
AcDbEntity
  8
ASSI
100
AcDbLine
 62
7
  6
CONTINUOUS
 10
70.4484912305
 20
-22.9601485548
 11
70.4484912305
 21
-22.7100234871
  0
LINE
  5
2F2
100
AcDbEntity
  8
ASSI
100
AcDbLine
 62
7
  6
CONTINUOUS
 10
70.4484912305
 20
22.5401015805
 11
70.4484912305
 21
22.2899765129
  0
LINE
  5
2F3
100
AcDbEntity
  8
DRAFT
100
AcDbLine
 62
7
  6
CONTINUOUS
 10
84.1743840876
 20
-17.5100234871
 11
84.1391693017
 21
-17.4748087012
  0
LINE
  5
2F4
100
AcDbEntity
  8
0
100
AcDbLine
 62
7
  6
CONTINUOUS
 10
72.4743840876
 20
-23.5960636885
 11
72.4743840876
 21
-22.9601485548
  0
LINE
  5
2F5
100
AcDbEntity
  8
0
100
AcDbLine
 62
7
  6
CONTINUOUS
 10
72.4743840876
 20
23.1760167142
 11
72.4743840876
 21
22.5401015805
  0
LINE
  5
2F6
100
AcDbEntity
  8
0
100
AcDbLine
 62
7
  6
CONTINUOUS
 10
72.4743840876
 20
-23.5960636885
 11
72.4743840876
 21
-24.8100234871
  0
LINE
  5
2F7
100
AcDbEntity
  8
0
100
AcDbLine
 62
7
  6
CONTINUOUS
 10
72.4743840876
 20
23.1760167142
 11
72.4743840876
 21
24.3899765129
  0
LINE
  5
2F8
100
AcDbEntity
  8
DRAFT
100
AcDbLine
 62
7
  6
CONTINUOUS
 10
72.6743840876
 20
23.0399765129
 11
72.6743840876
 21
22.2899765129
  0
LINE
  5
2F9
100
AcDbEntity
  8
ASSI
100
AcDbLine
 62
7
  6
CONTINUOUS
 10
72.6743840876
 20
23.0399765129
 11
72.6743840876
 21
22.2899765129
  0
LINE
  5
2FA
100
AcDbEntity
  8
DRAFT
100
AcDbLine
 62
7
  6
CONTINUOUS
 10
72.6743840876
 20
-23.4600234871
 11
72.6743840876
 21
-22.7100234871
  0
LINE
  5
2FB
100
AcDbEntity
  8
ASSI
100
AcDbLine
 62
7
  6
CONTINUOUS
 10
72.6743840876
 20
-23.4600234871
 11
72.6743840876
 21
-22.7100234871
  0
LINE
  5
2FC
100
AcDbEntity
  8
DRAFT
100
AcDbLine
 62
7
  6
CONTINUOUS
 10
72.8332251785
 20
23.0399765129
 11
72.8332251785
 21
22.2899765129
  0
LINE
  5
2FD
100
AcDbEntity
  8
ASSI
100
AcDbLine
 62
7
  6
CONTINUOUS
 10
72.8332251785
 20
23.0399765129
 11
72.8332251785
 21
22.2899765129
  0
LINE
  5
2FE
100
AcDbEntity
  8
DRAFT
100
AcDbLine
 62
7
  6
CONTINUOUS
 10
72.8332251785
 20
-22.7100234871
 11
72.8332251785
 21
-23.4600234871
  0
LINE
  5
2FF
100
AcDbEntity
  8
ASSI
100
AcDbLine
 62
7
  6
CONTINUOUS
 10
72.8332251785
 20
-22.7100234871
 11
72.8332251785
 21
-23.4600234871
  0
LINE
  5
300
100
AcDbEntity
  8
0
100
AcDbLine
 62
7
  6
CONTINUOUS
 10
73.7243840876
 20
-17.6100234871
 11
73.7243840876
 21
-13.8100234871
  0
LINE
  5
301
100
AcDbEntity
  8
RACCORDO
100
AcDbLine
 62
7
  6
CONTINUOUS
 10
74.4743840876
 20
22.8399765129
 11
74.4743840876
 21
22.2899765129
  0
LINE
  5
302
100
AcDbEntity
  8
ASSI
100
AcDbLine
 62
7
  6
CONTINUOUS
 10
74.4743840876
 20
22.8399765129
 11
74.4743840876
 21
22.2899765129
  0
LINE
  5
303
100
AcDbEntity
  8
ASSI
100
AcDbLine
 62
7
  6
CONTINUOUS
 10
74.4743840876
 20
-15.2100234871
 11
74.4743840876
 21
-16.2100234871
  0
LINE
  5
304
100
AcDbEntity
  8
RACCORDO
100
AcDbLine
 62
7
  6
CONTINUOUS
 10
74.4743840876
 20
-22.7100234871
 11
74.4743840876
 21
-23.2600234871
  0
LINE
  5
305
100
AcDbEntity
  8
ASSI
100
AcDbLine
 62
7
  6
CONTINUOUS
 10
74.4743840876
 20
-22.7100234871
 11
74.4743840876
 21
-23.2600234871
  0
LINE
  5
306
100
AcDbEntity
  8
DRAFT
100
AcDbLine
 62
7
  6
CONTINUOUS
 10
74.7243840876
 20
22.1533208765
 11
74.7243840876
 21
22.1899765129
  0
LINE
  5
307
100
AcDbEntity
  8
DRAFT
100
AcDbLine
 62
7
  6
CONTINUOUS
 10
74.7243840876
 20
-22.5733678508
 11
74.7243840876
 21
-22.6100234871
  0
LINE
  5
308
100
AcDbEntity
  8
DRAFT
100
AcDbLine
 62
7
  6
CONTINUOUS
 10
74.9412194643
 20
-13.8100234871
 11
74.9412194643
 21
-13.9100234871
  0
LINE
  5
309
100
AcDbEntity
  8
DRAFT
100
AcDbLine
 62
7
  6
CONTINUOUS
 10
74.9412194643
 20
-17.5100234871
 11
74.9412194643
 21
-17.6100234871
  0
LINE
  5
30A
100
AcDbEntity
  8
ASSI
100
AcDbLine
 62
7
  6
CONTINUOUS
 10
74.9743840876
 20
-16.2100234871
 11
74.9743840876
 21
-15.2100234871
  0
LINE
  5
30B
100
AcDbEntity
  8
ASSI
100
AcDbLine
 62
7
  6
CONTINUOUS
 10
75.7743840876
 20
-15.2100234871
 11
75.7743840876
 21
-16.2100234871
  0
LINE
  5
30C
100
AcDbEntity
  8
ASSI
100
AcDbLine
 62
7
  6
CONTINUOUS
 10
76.2743840876
 20
-16.2100234871
 11
76.2743840876
 21
-15.2100234871
  0
LINE
  5
30D
100
AcDbEntity
  8
DRAFT
100
AcDbLine
 62
7
  6
CONTINUOUS
 10
77.1743840876
 20
-13.9100234871
 11
77.1743840876
 21
-17.5100234871
  0
LINE
  5
30E
100
AcDbEntity
  8
DRAFT
100
AcDbLine
 62
7
  6
CONTINUOUS
 10
77.2095988736
 20
-13.9452382731
 11
77.2095988736
 21
-17.4748087012
  0
LINE
  5
30F
100
AcDbEntity
  8
RACCORDO
100
AcDbLine
 62
253
  6
CONTINUOUS
 10
54.2192457406
 20
-22.2152075256
 11
54.1243840876
 21
-22.3100691786
  0
LINE
  5
310
100
AcDbEntity
  8
RACCORDO
100
AcDbLine
 62
253
  6
CONTINUOUS
 10
54.1243840876
 20
21.8900222043
 11
54.2192457422
 21
21.7951605498
  0
LINE
  5
311
100
AcDbEntity
  8
RACCORDO
100
AcDbLine
 62
253
  6
CONTINUOUS
 10
54.4243383962
 20
22.1899765129
 11
54.5192000507
 21
22.0951148583
  0
LINE
  5
312
100
AcDbEntity
  8
DRAFT
100
AcDbLine
 62
7
  6
CONTINUOUS
 10
77.6743840876
 20
-13.9492943922
 11
77.6743840876
 21
-17.4707525821
  0
LINE
  5
313
100
AcDbEntity
  8
DRAFT
100
AcDbLine
 62
7
  6
CONTINUOUS
 10
78.1743840876
 20
-13.9449309583
 11
78.1743840876
 21
-17.475116016
  0
LINE
  5
314
100
AcDbEntity
  8
DRAFT
100
AcDbLine
 62
7
  6
CONTINUOUS
 10
78.6743840876
 20
-13.9492943922
 11
78.6743840876
 21
-17.4707525821
  0
LINE
  5
315
100
AcDbEntity
  8
DRAFT
100
AcDbLine
 62
7
  6
CONTINUOUS
 10
79.1743840876
 20
-13.9449309583
 11
79.1743840876
 21
-17.475116016
  0
LINE
  5
316
100
AcDbEntity
  8
DRAFT
100
AcDbLine
 62
7
  6
CONTINUOUS
 10
79.6743840876
 20
-13.9492943922
 11
79.6743840876
 21
-17.4707525821
  0
LINE
  5
317
100
AcDbEntity
  8
DRAFT
100
AcDbLine
 62
7
  6
CONTINUOUS
 10
80.1743840876
 20
-13.9449309583
 11
80.1743840876
 21
-17.475116016
  0
LINE
  5
318
100
AcDbEntity
  8
RACCORDO
100
AcDbLine
 62
253
  6
CONTINUOUS
 10
54.5192000492
 20
-22.5151618341
 11
54.4243383962
 21
-22.6100234871
  0
LINE
  5
319
100
AcDbEntity
  8
DRAFT
100
AcDbLine
 62
7
  6
CONTINUOUS
 10
80.6743840876
 20
-13.9492943922
 11
80.6743840876
 21
-17.4707525821
  0
LINE
  5
31A
100
AcDbEntity
  8
DRAFT
100
AcDbLine
 62
7
  6
CONTINUOUS
 10
81.1743840876
 20
-13.9449309583
 11
81.1743840876
 21
-17.475116016
  0
LINE
  5
31B
100
AcDbEntity
  8
DRAFT
100
AcDbLine
 62
7
  6
CONTINUOUS
 10
81.6743840876
 20
-13.9492943922
 11
81.6743840876
 21
-17.4707525821
  0
LINE
  5
31C
100
AcDbEntity
  8
DRAFT
100
AcDbLine
 62
7
  6
CONTINUOUS
 10
82.1743840876
 20
-13.9449309583
 11
82.1743840876
 21
-17.475116016
  0
LINE
  5
31D
100
AcDbEntity
  8
DRAFT
100
AcDbLine
 62
7
  6
CONTINUOUS
 10
82.6743840876
 20
-13.9492943922
 11
82.6743840876
 21
-17.4707525821
  0
LINE
  5
31E
100
AcDbEntity
  8
DRAFT
100
AcDbLine
 62
7
  6
CONTINUOUS
 10
83.007548711
 20
-13.8100234871
 11
83.007548711
 21
-13.9100234871
  0
LINE
  5
31F
100
AcDbEntity
  8
DRAFT
100
AcDbLine
 62
7
  6
CONTINUOUS
 10
83.007548711
 20
-17.5100234871
 11
83.007548711
 21
-17.6100234871
  0
LINE
  5
320
100
AcDbEntity
  8
RACCORDO
100
AcDbLine
 62
253
  6
CONTINUOUS
 10
103.4295680978
 20
22.0951148316
 11
103.5244297791
 21
22.1899765129
  0
LINE
  5
321
100
AcDbEntity
  8
RACCORDO
100
AcDbLine
 62
253
  6
CONTINUOUS
 10
103.7295224064
 20
21.7951605231
 11
103.8243840876
 21
21.8900222043
  0
LINE
  5
322
100
AcDbEntity
  8
RACCORDO
100
AcDbLine
 62
253
  6
CONTINUOUS
 10
103.5244297791
 20
-22.6100234871
 11
103.4295680963
 21
-22.5151618044
  0
LINE
  5
323
100
AcDbEntity
  8
RACCORDO
100
AcDbLine
 62
253
  6
CONTINUOUS
 10
103.8243840876
 20
-22.3100691786
 11
103.7295224049
 21
-22.2152074959
  0
LINE
  5
324
100
AcDbEntity
  8
DRAFT
100
AcDbLine
 62
7
  6
CONTINUOUS
 10
83.1743840876
 20
-13.9449309583
 11
83.1743840876
 21
-17.475116016
  0
LINE
  5
325
100
AcDbEntity
  8
DRAFT
100
AcDbLine
 62
7
  6
CONTINUOUS
 10
83.2243840876
 20
-22.6100234871
 11
83.2243840876
 21
-22.5733678508
  0
LINE
  5
326
100
AcDbEntity
  8
DRAFT
100
AcDbLine
 62
7
  6
CONTINUOUS
 10
83.2243840876
 20
22.1899765129
 11
83.2243840876
 21
22.1533208765
  0
LINE
  5
327
100
AcDbEntity
  8
RACCORDO
100
AcDbLine
 62
7
  6
CONTINUOUS
 10
83.4743840876
 20
22.8399765129
 11
83.4743840876
 21
22.2899765129
  0
LINE
  5
328
100
AcDbEntity
  8
ASSI
100
AcDbLine
 62
7
  6
CONTINUOUS
 10
83.4743840876
 20
22.8399765129
 11
83.4743840876
 21
22.2899765129
  0
LINE
  5
329
100
AcDbEntity
  8
RACCORDO
100
AcDbLine
 62
7
  6
CONTINUOUS
 10
83.4743840876
 20
-22.7100234871
 11
83.4743840876
 21
-23.2600234871
  0
LINE
  5
32A
100
AcDbEntity
  8
ASSI
100
AcDbLine
 62
7
  6
CONTINUOUS
 10
83.4743840876
 20
-22.7100234871
 11
83.4743840876
 21
-23.2600234871
  0
LINE
  5
32B
100
AcDbEntity
  8
DRAFT
100
AcDbLine
 62
7
  6
CONTINUOUS
 10
83.6743840876
 20
-13.9492943922
 11
83.6743840876
 21
-17.4707525821
  0
LINE
  5
32C
100
AcDbEntity
  8
DRAFT
100
AcDbLine
 62
7
  6
CONTINUOUS
 10
84.1391693017
 20
-13.9452382731
 11
84.1391693017
 21
-17.4748087012
  0
LINE
  5
32D
100
AcDbEntity
  8
DRAFT
100
AcDbLine
 62
7
  6
CONTINUOUS
 10
84.1743840876
 20
-13.9100234871
 11
84.1743840876
 21
-17.5100234871
  0
LINE
  5
32E
100
AcDbEntity
  8
0
100
AcDbLine
 62
7
  6
CONTINUOUS
 10
84.2243840876
 20
-17.6100234871
 11
84.2243840876
 21
-13.8100234871
  0
LINE
  5
32F
100
AcDbEntity
  8
DRAFT
100
AcDbLine
 62
7
  6
CONTINUOUS
 10
85.1155429968
 20
23.0399765129
 11
85.1155429968
 21
22.2899765129
  0
LINE
  5
330
100
AcDbEntity
  8
ASSI
100
AcDbLine
 62
7
  6
CONTINUOUS
 10
85.1155429968
 20
23.0399765129
 11
85.1155429968
 21
22.2899765129
  0
LINE
  5
331
100
AcDbEntity
  8
DRAFT
100
AcDbLine
 62
7
  6
CONTINUOUS
 10
85.1155429968
 20
-22.7100234871
 11
85.1155429968
 21
-23.4600234871
  0
LINE
  5
332
100
AcDbEntity
  8
ASSI
100
AcDbLine
 62
7
  6
CONTINUOUS
 10
85.1155429968
 20
-22.7100234871
 11
85.1155429968
 21
-23.4600234871
  0
LINE
  5
333
100
AcDbEntity
  8
DRAFT
100
AcDbLine
 62
7
  6
CONTINUOUS
 10
85.2743840876
 20
23.0399765129
 11
85.2743840876
 21
22.2899765129
  0
LINE
  5
334
100
AcDbEntity
  8
ASSI
100
AcDbLine
 62
7
  6
CONTINUOUS
 10
85.2743840876
 20
23.0399765129
 11
85.2743840876
 21
22.2899765129
  0
LINE
  5
335
100
AcDbEntity
  8
DRAFT
100
AcDbLine
 62
7
  6
CONTINUOUS
 10
85.2743840876
 20
-23.4600234871
 11
85.2743840876
 21
-22.7100234871
  0
LINE
  5
336
100
AcDbEntity
  8
ASSI
100
AcDbLine
 62
7
  6
CONTINUOUS
 10
85.2743840876
 20
-23.4600234871
 11
85.2743840876
 21
-22.7100234871
  0
LINE
  5
337
100
AcDbEntity
  8
0
100
AcDbLine
 62
7
  6
CONTINUOUS
 10
85.4743840876
 20
-23.5960636885
 11
85.4743840876
 21
-22.9601485548
  0
LINE
  5
338
100
AcDbEntity
  8
0
100
AcDbLine
 62
7
  6
CONTINUOUS
 10
85.4743840876
 20
23.1760167142
 11
85.4743840876
 21
22.5401015805
  0
LINE
  5
339
100
AcDbEntity
  8
0
100
AcDbLine
 62
7
  6
CONTINUOUS
 10
85.4743840876
 20
-23.5960636885
 11
85.4743840876
 21
-24.8100234871
  0
LINE
  5
33A
100
AcDbEntity
  8
0
100
AcDbLine
 62
7
  6
CONTINUOUS
 10
85.4743840876
 20
23.1760167142
 11
85.4743840876
 21
24.3899765129
  0
LINE
  5
33B
100
AcDbEntity
  8
0
100
AcDbLine
 62
7
  6
CONTINUOUS
 10
87.5002769448
 20
-22.9601485548
 11
87.5002769448
 21
-22.7100234871
  0
LINE
  5
33C
100
AcDbEntity
  8
0
100
AcDbLine
 62
7
  6
CONTINUOUS
 10
87.5002769448
 20
22.5401015805
 11
87.5002769448
 21
22.2899765129
  0
LINE
  5
33D
100
AcDbEntity
  8
ASSI
100
AcDbLine
 62
7
  6
CONTINUOUS
 10
87.5002769448
 20
-22.9601485548
 11
87.5002769448
 21
-22.7100234871
  0
LINE
  5
33E
100
AcDbEntity
  8
ASSI
100
AcDbLine
 62
7
  6
CONTINUOUS
 10
87.5002769448
 20
22.5401015805
 11
87.5002769448
 21
22.2899765129
  0
LINE
  5
33F
100
AcDbEntity
  8
RACCORDO
100
AcDbLine
 62
7
  6
CONTINUOUS
 10
87.7243840876
 20
22.2899765129
 11
87.7243840876
 21
22.4968136577
  0
LINE
  5
340
100
AcDbEntity
  8
RACCORDO
100
AcDbLine
 62
7
  6
CONTINUOUS
 10
87.7243840876
 20
-22.7100234871
 11
87.7243840876
 21
-22.916860632
  0
LINE
  5
341
100
AcDbEntity
  8
0
100
AcDbLine
 62
7
  6
CONTINUOUS
 10
89.9743840876
 20
-23.5960636885
 11
89.9743840876
 21
-23.5460636885
  0
LINE
  5
342
100
AcDbEntity
  8
0
100
AcDbLine
 62
7
  6
CONTINUOUS
 10
89.9743840876
 20
23.1260167142
 11
89.9743840876
 21
23.1760167142
  0
LINE
  5
343
100
AcDbEntity
  8
RACCORDO
100
AcDbLine
 62
253
  6
CONTINUOUS
 10
90.5578849262
 20
-22.4443684453
 11
90.5578849262
 21
22.024321471
  0
LWPOLYLINE
  5
344
100
AcDbEntity
  8
RACCORDO
100
AcDbPolyline
 62
7
  6
CONTINUOUS
 90
25
 70
0
 10
87.7243840876
 20
-22.916860632
 10
87.7239406847
 20
-22.9197117101
 10
87.7226597034
 20
-22.9225267284
 10
87.7205411437
 20
-22.9253056868
 10
87.7175688066
 20
-22.9280601434
 10
87.7137588912
 20
-22.9307785401
 10
87.7091599941
 20
-22.9334262029
 10
87.7037620087
 20
-22.9360022256
 10
87.6975750417
 20
-22.9385075144
 10
87.6906780101
 20
-22.9409101133
 10
87.6830618179
 20
-22.9432087071
 10
87.6747355611
 20
-22.9454046111
 10
87.6658054439
 20
-22.9474698157
 10
87.6562637309
 20
-22.9494026469
 10
87.6461181576
 20
-22.9512047787
 10
87.6354981342
 20
-22.9528532244
 10
87.6243975832
 20
-22.9543460152
 10
87.6128225821
 20
-22.95568512
 10
87.6009207741
 20
-22.9568534579
 10
87.5886879729
 20
-22.9578488414
 10
87.5761283648
 20
-22.958673458
 10
87.563402152
 20
-22.9593167895
 10
87.5505627353
 20
-22.9597753297
 10
87.5375567138
 20
-22.9600525848
 10
87.5243840876
 20
-22.9601485548
  0
LINE
  5
345
100
AcDbEntity
  8
DRAFT
100
AcDbLine
 62
7
  6
CONTINUOUS
 10
77.2095988736
 20
-17.4748087012
 11
77.1743840876
 21
-17.5100234871
  0
LWPOLYLINE
  5
346
100
AcDbEntity
  8
0
100
AcDbPolyline
 62
7
  6
CONTINUOUS
 90
10
 70
0
 10
91.4743840713
 20
-0.2100234809
 10
91.4624326157
 20
0.3269190951
 10
91.4278462917
 20
0.8608777348
 10
91.3706276235
 20
1.391851626
 10
91.2905825792
 20
1.9208347691
 10
91.1879165047
 20
2.4468316085
 10
91.0632353572
 20
2.9668571011
 10
90.9167530574
 20
3.4799158659
 10
90.7482929409
 20
3.987002114
 10
90.5578849262
 20
4.4881153276
  0
LINE
  5
347
100
AcDbEntity
  8
0
100
AcDbLine
 62
7
  6
CONTINUOUS
 10
92.9743840876
 20
23.1760167142
 11
92.9743840876
 21
23.1260167142
  0
LINE
  5
348
100
AcDbEntity
  8
0
100
AcDbLine
 62
7
  6
CONTINUOUS
 10
92.9743840876
 20
-23.5460636885
 11
92.9743840876
 21
-23.5960636885
  0
LWPOLYLINE
  5
349
100
AcDbEntity
  8
RACCORDO
100
AcDbPolyline
 62
7
  6
CONTINUOUS
 90
25
 70
0
 10
95.2243840876
 20
22.4968136577
 10
95.2248274905
 20
22.4996647358
 10
95.2261084718
 20
22.5024797541
 10
95.2282270315
 20
22.5052587125
 10
95.2311993686
 20
22.5080131691
 10
95.235009284
 20
22.5107315658
 10
95.2396081811
 20
22.5133792286
 10
95.2450061665
 20
22.5159552513
 10
95.2511931335
 20
22.5184605401
 10
95.2580901652
 20
22.520863139
 10
95.2657063573
 20
22.5231617328
 10
95.2740326142
 20
22.5253576368
 10
95.2829627314
 20
22.5274228414
 10
95.2925044443
 20
22.5293556726
 10
95.3026500176
 20
22.5311578044
 10
95.313270041
 20
22.5328062501
 10
95.3243705921
 20
22.5342990409
 10
95.3359455932
 20
22.5356381457
 10
95.3478474011
 20
22.5368064836
 10
95.3600802023
 20
22.5378018671
 10
95.3726398104
 20
22.5386264837
 10
95.3853660232
 20
22.5392698152
 10
95.39820544
 20
22.5397283554
 10
95.4112114614
 20
22.5400056105
 10
95.4243840876
 20
22.5401015805
  0
LWPOLYLINE
  5
34A
100
AcDbEntity
  8
0
100
AcDbPolyline
 62
7
  6
CONTINUOUS
 90
7
 70
0
 10
91.0589120194
 20
-3.4029711027
 10
91.1798661107
 20
-2.9179933347
 10
91.2801486391
 20
-2.4141429184
 10
91.3597493383
 20
-1.8914201719
 10
91.4186598411
 20
-1.3498255638
 10
91.4568732612
 20
-0.7893597282
 10
91.4743840713
 20
-0.2100234809
  0
LWPOLYLINE
  5
34B
100
AcDbEntity
  8
0
100
AcDbPolyline
 62
7
  6
CONTINUOUS
 90
7
 70
0
 10
90.5578849262
 20
-4.9081623019
 10
90.6527401052
 20
-4.6740638378
 10
90.7430593854
 20
-4.4332587205
 10
90.8288392749
 20
-4.1857469115
 10
90.9100765848
 20
-3.931528382
 10
90.9867683943
 20
-3.6706031143
 10
91.0589120194
 20
-3.4029711027
  0
LINE
  5
34C
100
AcDbEntity
  8
DRAFT
100
AcDbLine
 62
7
  6
CONTINUOUS
 10
84.1743840876
 20
-13.9100234871
 11
84.1391693017
 21
-13.9452382731
  0
LINE
  5
34D
100
AcDbEntity
  8
DRAFT
100
AcDbLine
 62
7
  6
CONTINUOUS
 10
82.2743840876
 20
-13.9170049814
 11
82.2883481396
 21
-13.9100234871
  0
LWPOLYLINE
  5
34E
100
AcDbEntity
  8
0
100
AcDbPolyline
 62
7
  6
CONTINUOUS
 90
25
 70
0
 10
78.9743840876
 20
12.289976509
 10
78.3550786519
 20
12.2745164259
 10
77.7401662358
 20
12.2289220513
 10
77.1296468393
 20
12.1531931046
 10
76.5220271375
 20
12.0469910656
 10
75.9188004552
 20
11.9106533486
 10
75.3244467676
 20
11.745193341
 10
74.7390583865
 20
11.5503934826
 10
74.1625429999
 20
11.3264693384
 10
73.599103647
 20
11.0750838804
 10
73.048821697
 20
10.796072792
 10
72.5116157806
 20
10.4895978974
 10
71.9914448286
 20
10.1578114559
 10
71.4884648552
 20
9.8004764233
 10
71.0025198461
 20
9.4178273221
 10
70.5371006897
 20
9.0127240414
 10
70.0923284048
 20
8.5850232177
 10
69.6680819727
 20
8.1348661762
 10
69.2674892252
 20
7.6655403016
 10
68.890705089
 20
7.1768624573
 10
68.5375746374
 20
6.669014609
 10
68.2107609224
 20
6.1458323752
 10
67.911151628
 20
5.6085943726
 10
67.6378590702
 20
5.0560219721
 10
67.390883249
 20
4.4881153276
  0
LWPOLYLINE
  5
34F
100
AcDbEntity
  8
0
100
AcDbPolyline
 62
7
  6
CONTINUOUS
 90
25
 70
0
 10
90.5578849262
 20
4.4881153276
 10
90.310909105
 20
5.0560219721
 10
90.0376165472
 20
5.6085943726
 10
89.7380072528
 20
6.1458323752
 10
89.4111935378
 20
6.669014609
 10
89.0580630863
 20
7.1768624573
 10
88.68127895
 20
7.6655403016
 10
88.2806862025
 20
8.1348661762
 10
87.8564397704
 20
8.5850232177
 10
87.4116674855
 20
9.0127240414
 10
86.9462483291
 20
9.4178273221
 10
86.4603033201
 20
9.8004764233
 10
85.9573233466
 20
10.1578114559
 10
85.4371523946
 20
10.4895978974
 10
84.8999464782
 20
10.796072792
 10
84.3496645282
 20
11.0750838804
 10
83.7862251753
 20
11.3264693384
 10
83.2097097888
 20
11.5503934826
 10
82.6243214077
 20
11.745193341
 10
82.02996772
 20
11.9106533486
 10
81.4267410378
 20
12.0469910656
 10
80.8191213359
 20
12.1531931046
 10
80.2086019394
 20
12.2289220513
 10
79.5936895233
 20
12.2745164259
 10
78.9743840876
 20
12.289976509
  0
LINE
  5
350
100
AcDbEntity
  8
RACCORDO
100
AcDbLine
 62
7
  6
CONTINUOUS
 10
95.2243840876
 20
22.2899765129
 11
95.2243840876
 21
22.4968136577
  0
LINE
  5
351
100
AcDbEntity
  8
RACCORDO
100
AcDbLine
 62
7
  6
CONTINUOUS
 10
95.2243840876
 20
-22.7100234871
 11
95.2243840876
 21
-22.916860632
  0
LINE
  5
352
100
AcDbEntity
  8
0
100
AcDbLine
 62
7
  6
CONTINUOUS
 10
95.4484912305
 20
-22.9601485548
 11
95.4484912305
 21
-22.7100234871
  0
LINE
  5
353
100
AcDbEntity
  8
0
100
AcDbLine
 62
7
  6
CONTINUOUS
 10
95.4484912305
 20
22.5401015805
 11
95.4484912305
 21
22.2899765129
  0
LINE
  5
354
100
AcDbEntity
  8
ASSI
100
AcDbLine
 62
7
  6
CONTINUOUS
 10
95.4484912305
 20
-22.9601485548
 11
95.4484912305
 21
-22.7100234871
  0
LINE
  5
355
100
AcDbEntity
  8
ASSI
100
AcDbLine
 62
7
  6
CONTINUOUS
 10
95.4484912305
 20
22.5401015805
 11
95.4484912305
 21
22.2899765129
  0
LINE
  5
356
100
AcDbEntity
  8
DRAFT
100
AcDbLine
 62
7
  6
CONTINUOUS
 10
79.0604200357
 20
-17.5100234871
 11
79.0743840876
 21
-17.5030419929
  0
LINE
  5
357
100
AcDbEntity
  8
0
100
AcDbLine
 62
7
  6
CONTINUOUS
 10
97.4743840876
 20
-23.5960636885
 11
97.4743840876
 21
-22.9601485548
  0
LINE
  5
358
100
AcDbEntity
  8
0
100
AcDbLine
 62
7
  6
CONTINUOUS
 10
97.4743840876
 20
23.1760167142
 11
97.4743840876
 21
22.5401015805
  0
LINE
  5
359
100
AcDbEntity
  8
0
100
AcDbLine
 62
7
  6
CONTINUOUS
 10
97.4743840876
 20
-23.5960636885
 11
97.4743840876
 21
-24.8100234871
  0
LINE
  5
35A
100
AcDbEntity
  8
0
100
AcDbLine
 62
7
  6
CONTINUOUS
 10
97.4743840876
 20
23.1760167142
 11
97.4743840876
 21
24.3899765129
  0
LINE
  5
35B
100
AcDbEntity
  8
DRAFT
100
AcDbLine
 62
7
  6
CONTINUOUS
 10
97.6743840876
 20
23.0399765129
 11
97.6743840876
 21
22.2899765129
  0
LINE
  5
35C
100
AcDbEntity
  8
ASSI
100
AcDbLine
 62
7
  6
CONTINUOUS
 10
97.6743840876
 20
23.0399765129
 11
97.6743840876
 21
22.2899765129
  0
LINE
  5
35D
100
AcDbEntity
  8
DRAFT
100
AcDbLine
 62
7
  6
CONTINUOUS
 10
97.6743840876
 20
-23.4600234871
 11
97.6743840876
 21
-22.7100234871
  0
LINE
  5
35E
100
AcDbEntity
  8
ASSI
100
AcDbLine
 62
7
  6
CONTINUOUS
 10
97.6743840876
 20
-23.4600234871
 11
97.6743840876
 21
-22.7100234871
  0
LINE
  5
35F
100
AcDbEntity
  8
DRAFT
100
AcDbLine
 62
7
  6
CONTINUOUS
 10
97.8332251785
 20
-23.4600234871
 11
97.8332251785
 21
-22.7100234871
  0
LINE
  5
360
100
AcDbEntity
  8
ASSI
100
AcDbLine
 62
7
  6
CONTINUOUS
 10
97.8332251785
 20
-23.4600234871
 11
97.8332251785
 21
-22.7100234871
  0
LINE
  5
361
100
AcDbEntity
  8
DRAFT
100
AcDbLine
 62
7
  6
CONTINUOUS
 10
97.8332251785
 20
22.2899765129
 11
97.8332251785
 21
23.0399765129
  0
LINE
  5
362
100
AcDbEntity
  8
ASSI
100
AcDbLine
 62
7
  6
CONTINUOUS
 10
97.8332251785
 20
22.2899765129
 11
97.8332251785
 21
23.0399765129
  0
LINE
  5
363
100
AcDbEntity
  8
RACCORDO
100
AcDbLine
 62
7
  6
CONTINUOUS
 10
99.4743840876
 20
-23.2600234871
 11
99.4743840876
 21
-22.7100234871
  0
LINE
  5
364
100
AcDbEntity
  8
ASSI
100
AcDbLine
 62
7
  6
CONTINUOUS
 10
99.4743840876
 20
-23.2600234871
 11
99.4743840876
 21
-22.7100234871
  0
LINE
  5
365
100
AcDbEntity
  8
RACCORDO
100
AcDbLine
 62
7
  6
CONTINUOUS
 10
99.4743840876
 20
22.2899765129
 11
99.4743840876
 21
22.8399765129
  0
LINE
  5
366
100
AcDbEntity
  8
ASSI
100
AcDbLine
 62
7
  6
CONTINUOUS
 10
99.4743840876
 20
22.2899765129
 11
99.4743840876
 21
22.8399765129
  0
LWPOLYLINE
  5
367
100
AcDbEntity
  8
RACCORDO
100
AcDbPolyline
 62
253
  6
CONTINUOUS
 90
8
 70
0
 10
103.7295224049
 20
-22.2152074959
 10
103.7278933466
 20
-22.2090635638
 10
103.7263279211
 20
-22.1958048241
 10
103.7248261281
 20
-22.1754312769
 10
103.7233727701
 20
-22.1473379612
 10
103.7219830446
 20
-22.1121298379
 10
103.7207025453
 20
-22.0716217897
 10
103.7195402195
 20
-22.0257503865
  0
LINE
  5
368
100
AcDbEntity
  8
RACCORDO
100
AcDbLine
 62
7
  6
CONTINUOUS
 10
101.4743840876
 20
-22.5576582924
 11
101.4743840876
 21
-22.5238020603
  0
LINE
  5
369
100
AcDbEntity
  8
RACCORDO
100
AcDbLine
 62
7
  6
CONTINUOUS
 10
101.4743840876
 20
22.1376113181
 11
101.4743840876
 21
22.103755086
  0
LINE
  5
36A
100
AcDbEntity
  8
RACCORDO
100
AcDbLine
 62
7
  6
CONTINUOUS
 10
101.9243840876
 20
23.5900069738
 11
101.9243840876
 21
22.2899765129
  0
LINE
  5
36B
100
AcDbEntity
  8
ASSI
100
AcDbLine
 62
7
  6
CONTINUOUS
 10
101.9243840876
 20
23.5900069738
 11
101.9243840876
 21
22.2899765129
  0
LINE
  5
36C
100
AcDbEntity
  8
RACCORDO
100
AcDbLine
 62
7
  6
CONTINUOUS
 10
101.9243840876
 20
-22.7100234871
 11
101.9243840876
 21
-24.0100539481
  0
LINE
  5
36D
100
AcDbEntity
  8
ASSI
100
AcDbLine
 62
7
  6
CONTINUOUS
 10
101.9243840876
 20
-22.7100234871
 11
101.9243840876
 21
-24.0100539481
  0
LWPOLYLINE
  5
36E
100
AcDbEntity
  8
RACCORDO
100
AcDbPolyline
 62
253
  6
CONTINUOUS
 90
10
 70
0
 10
54.3676599874
 20
21.1402326046
 10
54.3418677686
 20
21.1390409335
 10
54.3182861681
 20
21.1376911514
 10
54.2971865858
 20
21.1361987932
 10
54.2788118569
 20
21.1345810347
 10
54.2633734537
 20
21.1328564949
 10
54.251049054
 20
21.1310450216
 10
54.2419804991
 20
21.1291674632
 10
54.2362721597
 20
21.1272454286
 10
54.2339897332
 20
21.1253010388
  0
LWPOLYLINE
  5
36F
100
AcDbEntity
  8
RACCORDO
100
AcDbPolyline
 62
7
  6
CONTINUOUS
 90
13
 70
0
 10
101.4743840876
 20
22.103755086
 10
100.6439379048
 20
22.0953855364
 10
99.7959174708
 20
22.0877101905
 10
98.9303227855
 20
22.0807290481
 10
98.0452488765
 20
22.0744297435
 10
97.1426007164
 20
22.0688246424
 10
96.2280932226
 20
22.0639508426
 10
95.3016145963
 20
22.0598134347
 10
94.3632766364
 20
22.056407328
 10
93.419129658
 20
22.053754348
 10
92.4711904326
 20
22.0518617698
 10
91.5174421887
 20
22.0507223183
 10
90.5578849262
 20
22.0503359934
  0
LWPOLYLINE
  5
370
100
AcDbEntity
  8
RACCORDO
100
AcDbPolyline
 62
253
  6
CONTINUOUS
 90
16
 70
0
 10
90.5578849262
 20
21.0740870872
 10
91.4801507492
 20
21.0743944397
 10
92.4013711234
 20
21.075306499
 10
93.3201158312
 20
21.0768232647
 10
94.2351447357
 20
21.0789492968
 10
95.1448397742
 20
21.0816800347
 10
96.0472205769
 20
21.0850017967
 10
96.9410478266
 20
21.0889200188
 10
97.8247784338
 20
21.0934292636
 10
98.6960476736
 20
21.0984995392
 10
99.5535777392
 20
21.1041360407
 10
100.3960758767
 20
21.1103335709
 10
101.2212911478
 20
21.1170465494
 10
102.0277520319
 20
21.124259782
 10
102.8147075992
 20
21.1319884604
 10
103.5811078219
 20
21.1402325832
  0
LWPOLYLINE
  5
371
100
AcDbEntity
  8
RACCORDO
100
AcDbPolyline
 62
253
  6
CONTINUOUS
 90
16
 70
0
 10
90.5578849262
 20
22.024321471
 10
91.4766877763
 20
22.0246513643
 10
92.3912721915
 20
22.0256305572
 10
93.3016381718
 20
22.0272590496
 10
94.2094857887
 20
22.0295422247
 10
95.1131149707
 20
22.0324746994
 10
96.0074255036
 20
22.0360403242
 10
96.8925149911
 20
22.0402454676
 10
97.7682858295
 20
22.0450837612
 10
98.6293449926
 20
22.0505199503
 10
99.4756133475
 20
22.0565610813
 10
100.3071700272
 20
22.0632001079
 10
101.1188594048
 20
22.0703806356
 10
101.9089629379
 20
22.0780838664
 10
102.6791991689
 20
22.0863285984
 10
103.4295680978
 20
22.0951148316
  0
LINE
  5
372
100
AcDbEntity
  8
RACCORDO
100
AcDbLine
 62
253
  6
CONTINUOUS
 10
67.390883249
 20
21.0740870872
 11
90.5578849262
 21
21.0740870872
  0
LINE
  5
373
100
AcDbEntity
  8
RACCORDO
100
AcDbLine
 62
253
  6
CONTINUOUS
 10
67.390883249
 20
22.024321471
 11
90.5578849262
 21
22.024321471
  0
LINE
  5
374
100
AcDbEntity
  8
RACCORDO
100
AcDbLine
 62
7
  6
CONTINUOUS
 10
90.5578849262
 20
22.0503359934
 11
67.390883249
 21
22.0503359934
  0
LINE
  5
375
100
AcDbEntity
  8
RACCORDO
100
AcDbLine
 62
7
  6
CONTINUOUS
 10
56.4743840876
 20
22.1376113181
 11
101.4743840876
 21
22.1376113181
  0
LINE
  5
376
100
AcDbEntity
  8
DRAFT
100
AcDbLine
 62
7
  6
CONTINUOUS
 10
83.2243840876
 20
22.1533208765
 11
74.7243840876
 21
22.1533208765
  0
LINE
  5
377
100
AcDbEntity
  8
DRAFT
100
AcDbLine
 62
7
  6
CONTINUOUS
 10
74.7243840876
 20
22.1882310064
 11
83.2243840876
 21
22.1882310064
  0
LINE
  5
378
100
AcDbEntity
  8
RACCORDO
100
AcDbLine
 62
7
  6
CONTINUOUS
 10
54.4243383962
 20
22.1899765129
 11
71.9743840876
 21
22.1899765129
  0
LINE
  5
379
100
AcDbEntity
  8
DRAFT
100
AcDbLine
 62
7
  6
CONTINUOUS
 10
71.9743840876
 20
22.1899765129
 11
74.7243840876
 21
22.1899765129
  0
LINE
  5
37A
100
AcDbEntity
  8
DRAFT
100
AcDbLine
 62
7
  6
CONTINUOUS
 10
83.2243840876
 20
22.1899765129
 11
85.9743840876
 21
22.1899765129
  0
LINE
  5
37B
100
AcDbEntity
  8
RACCORDO
100
AcDbLine
 62
7
  6
CONTINUOUS
 10
85.9743840876
 20
22.1899765129
 11
103.5244297791
 21
22.1899765129
  0
LINE
  5
37C
100
AcDbEntity
  8
DRAFT
100
AcDbLine
 62
7
  6
CONTINUOUS
 10
101.9243840876
 20
22.2899765129
 11
99.4743840876
 21
22.2899765129
  0
LINE
  5
37D
100
AcDbEntity
  8
ASSI
100
AcDbLine
 62
7
  6
CONTINUOUS
 10
101.9243840876
 20
22.2899765129
 11
99.4743840876
 21
22.2899765129
  0
LINE
  5
37E
100
AcDbEntity
  8
DRAFT
100
AcDbLine
 62
7
  6
CONTINUOUS
 10
97.8332251785
 20
22.2899765129
 11
85.1155429968
 21
22.2899765129
  0
LINE
  5
37F
100
AcDbEntity
  8
ASSI
100
AcDbLine
 62
7
  6
CONTINUOUS
 10
97.8332251785
 20
22.2899765129
 11
85.1155429968
 21
22.2899765129
  0
LINE
  5
380
100
AcDbEntity
  8
DRAFT
100
AcDbLine
 62
7
  6
CONTINUOUS
 10
83.4743840876
 20
22.2899765129
 11
74.4743840876
 21
22.2899765129
  0
LINE
  5
381
100
AcDbEntity
  8
ASSI
100
AcDbLine
 62
7
  6
CONTINUOUS
 10
83.4743840876
 20
22.2899765129
 11
74.4743840876
 21
22.2899765129
  0
LINE
  5
382
100
AcDbEntity
  8
DRAFT
100
AcDbLine
 62
7
  6
CONTINUOUS
 10
72.8332251785
 20
22.2899765129
 11
60.1155429968
 21
22.2899765129
  0
LINE
  5
383
100
AcDbEntity
  8
ASSI
100
AcDbLine
 62
7
  6
CONTINUOUS
 10
72.8332251785
 20
22.2899765129
 11
60.1155429968
 21
22.2899765129
  0
LINE
  5
384
100
AcDbEntity
  8
DRAFT
100
AcDbLine
 62
7
  6
CONTINUOUS
 10
58.4743840876
 20
22.2899765129
 11
56.0243840876
 21
22.2899765129
  0
LINE
  5
385
100
AcDbEntity
  8
ASSI
100
AcDbLine
 62
7
  6
CONTINUOUS
 10
58.4743840876
 20
22.2899765129
 11
56.0243840876
 21
22.2899765129
  0
LWPOLYLINE
  5
386
100
AcDbEntity
  8
RACCORDO
100
AcDbPolyline
 62
7
  6
CONTINUOUS
 90
13
 70
0
 10
67.390883249
 20
22.0503359934
 10
66.4313129432
 20
22.050722346
 10
65.4775563218
 20
22.0518618168
 10
64.5296133848
 20
22.0537544058
 10
63.5854665965
 20
22.0564074062
 10
62.6471334927
 20
22.0598135247
 10
61.7206666806
 20
22.063950882
 10
60.8061866242
 20
22.068824488
 10
59.9035728596
 20
22.0744293327
 10
59.0185166021
 20
22.0807285059
 10
58.1529149235
 20
22.0877097041
 10
57.304870752
 20
22.0953852308
 10
56.4743840876
 20
22.103755086
  0
LWPOLYLINE
  5
387
100
AcDbEntity
  8
RACCORDO
100
AcDbPolyline
 62
253
  6
CONTINUOUS
 90
16
 70
0
 10
54.3676599943
 20
21.1402326437
 10
55.1341255861
 20
21.1319878559
 10
55.9211398074
 20
21.1242586625
 10
56.7276517211
 20
21.1170450648
 10
57.5529101388
 20
21.1103318923
 10
58.395442232
 20
21.104134318
 10
59.2529946096
 20
21.0984978585
 10
60.1242725606
 20
21.0934277108
 10
61.0079990092
 20
21.0889186801
 10
61.9018109659
 20
21.0850006955
 10
62.8041634837
 20
21.0816791994
 10
63.7138186914
 20
21.078948751
 10
64.6288032887
 20
21.0768229547
 10
65.5475017409
 20
21.0753063458
 10
66.4686717304
 20
21.0743943899
 10
67.390883249
 20
21.0740870872
  0
LWPOLYLINE
  5
388
100
AcDbEntity
  8
RACCORDO
100
AcDbPolyline
 62
253
  6
CONTINUOUS
 90
16
 70
0
 10
54.5192000507
 20
22.0951148583
 10
55.2695826593
 20
22.0863284281
 10
56.0398399037
 20
22.0780834899
 10
56.829971784
 20
22.0703800438
 10
57.6417032844
 20
22.0631992496
 10
58.4733094207
 20
22.0565599474
 10
59.3196152403
 20
22.0505186577
 10
60.1806934221
 20
22.0450824966
 10
61.0564712872
 20
22.040244348
 10
61.941555846
 20
22.0360393844
 10
62.835847011
 20
22.032473973
 10
63.7394448697
 20
22.0295417465
 10
64.6472566955
 20
22.027258776
 10
65.5575849129
 20
22.0256304184
 10
66.4721270974
 20
22.0246513167
 10
67.390883249
 20
22.024321471
  0
LWPOLYLINE
  5
389
100
AcDbEntity
  8
RACCORDO
100
AcDbPolyline
 62
253
  6
CONTINUOUS
 90
10
 70
0
 10
103.5810245645
 20
21.1402252612
 10
103.6068215635
 20
21.1390345236
 10
103.6304092031
 20
21.1376856744
 10
103.6515160541
 20
21.1361942353
 10
103.6698992337
 20
21.1345773692
 10
103.6853472035
 20
21.1328536822
 10
103.6976822017
 20
21.1310430096
 10
103.7067622863
 20
21.1291661879
 10
103.7124829691
 20
21.1272448147
 10
103.7147784204
 20
21.1253010005
  0
LINE
  5
38A
100
AcDbEntity
  8
RACCORDO
100
AcDbLine
 62
253
  6
CONTINUOUS
 10
103.7195402195
 20
-22.0257503865
 11
103.7175619977
 21
-21.9201129784
  0
LWPOLYLINE
  5
38B
100
AcDbEntity
  8
RACCORDO
100
AcDbPolyline
 62
253
  6
CONTINUOUS
 90
16
 70
0
 10
103.5810758692
 20
21.1402298708
 10
103.5795417201
 20
21.2334915614
 10
103.5767228584
 20
21.3263272977
 10
103.5725695385
 20
21.4178660137
 10
103.567112128
 20
21.5071051396
 10
103.5603517311
 20
21.593253152
 10
103.5522062478
 20
21.6756861169
 10
103.5428359542
 20
21.7535088246
 10
103.5322768968
 20
21.8256517406
 10
103.5202918073
 20
21.8911701644
 10
103.5072713222
 20
21.9492002799
 10
103.4933852012
 20
21.9987032739
 10
103.4782199235
 20
22.0386487717
 10
103.4620150728
 20
22.0683464457
 10
103.4455970727
 20
22.0873155682
 10
103.4295680978
 20
22.0951148316
  0
LINE
  5
38C
100
AcDbEntity
  8
RACCORDO
100
AcDbLine
 62
253
  6
CONTINUOUS
 10
103.7175619977
 20
-21.9201129784
 11
103.7161050652
 21
-21.8013584623
  0
LINE
  5
38D
100
AcDbEntity
  8
RACCORDO
100
AcDbLine
 62
253
  6
CONTINUOUS
 10
103.7161050652
 20
-21.8013584623
 11
103.71517565
 21
-21.6757993524
  0
LWPOLYLINE
  5
38E
100
AcDbEntity
  8
RACCORDO
100
AcDbPolyline
 62
253
  6
CONTINUOUS
 90
13
 70
0
 10
103.5811078024
 20
-21.5602795542
 10
103.5747979127
 20
-18.3127026467
 10
103.5715393546
 20
-14.9409548273
 10
103.570301542
 20
-11.4451338527
 10
103.5693329784
 20
-7.7846174868
 10
103.5674929183
 20
-4.0003497664
 10
103.5662099023
 20
-0.2148931162
 10
103.567520843
 20
3.5722890006
 10
103.5693553478
 20
7.3600701514
 10
103.570300307
 20
11.0233936915
 10
103.5715248646
 20
14.520484672
 10
103.5747807126
 20
17.8927967063
 10
103.5811078219
 20
21.1402325832
  0
LINE
  5
38F
100
AcDbEntity
  8
RACCORDO
100
AcDbLine
 62
253
  6
CONTINUOUS
 10
103.71517565
 20
-21.6757993524
 11
103.7147784342
 21
-21.545347973
  0
LWPOLYLINE
  5
390
100
AcDbEntity
  8
RACCORDO
100
AcDbPolyline
 62
253
  6
CONTINUOUS
 90
12
 70
0
 10
103.7147784342
 20
-21.545347973
 10
103.711511015
 20
-18.2998227642
 10
103.7088026778
 20
-14.9304771692
 10
103.7066534225
 20
-11.4373111881
 10
103.7050205131
 20
-7.7793491621
 10
103.7039466856
 20
-3.9975667499
 10
103.7035601485
 20
-0.214890928
 10
103.7039463047
 20
3.5695089653
 10
103.7050197513
 20
7.3548022683
 10
103.7066524876
 20
11.0155700194
 10
103.7088018469
 20
14.5100058983
 10
103.7115104959
 20
17.8799162253
  0
LINE
  5
391
100
AcDbEntity
  8
ASSI
100
AcDbLine
 62
7
  6
CONTINUOUS
 10
103.8243840876
 20
-24.0100539481
 11
103.8243840876
 21
-22.3100691786
  0
LINE
  5
392
100
AcDbEntity
  8
RACCORDO
100
AcDbLine
 62
7
  6
CONTINUOUS
 10
103.8243840876
 20
-24.0100539481
 11
103.8243840876
 21
23.5900069738
  0
LINE
  5
393
100
AcDbEntity
  8
ASSI
100
AcDbLine
 62
7
  6
CONTINUOUS
 10
103.8243840876
 20
21.8900222043
 11
103.8243840876
 21
23.5900069738
  0
LINE
  5
394
100
AcDbEntity
  8
RACCORDO
100
AcDbLine
 62
253
  6
CONTINUOUS
 10
103.7115104959
 20
17.8799162253
 11
103.7149107118
 21
21.1912179338
  0
LINE
  5
395
100
AcDbEntity
  8
RACCORDO
100
AcDbLine
 62
253
  6
CONTINUOUS
 10
103.7149107118
 20
21.1912179338
 11
103.7155732464
 21
21.3189044727
  0
LINE
  5
396
100
AcDbEntity
  8
RACCORDO
100
AcDbLine
 62
253
  6
CONTINUOUS
 10
103.7155732464
 20
21.3189044727
 11
103.7167695437
 21
21.4423361051
  0
LWPOLYLINE
  5
397
100
AcDbEntity
  8
RACCORDO
100
AcDbPolyline
 62
253
  6
CONTINUOUS
 90
10
 70
0
 10
103.7167695437
 20
21.4423361051
 10
103.7184871218
 20
21.5545320444
 10
103.7195402211
 20
21.6057033888
 10
103.7207025466
 20
21.6515748112
 10
103.7219830458
 20
21.6920828834
 10
103.7233727712
 20
21.7272910336
 10
103.7248261293
 20
21.7553843626
 10
103.7263279223
 20
21.775757904
 10
103.727893348
 20
21.7890166241
 10
103.7295224064
 20
21.7951605231
  0
LWPOLYLINE
  5
398
100
AcDbEntity
  8
RACCORDO
100
AcDbPolyline
 62
253
  6
CONTINUOUS
 90
10
 70
0
 10
54.5192000507
 20
22.0951148583
 10
54.4671236681
 20
22.090543804
 10
54.4166289067
 20
22.0770011732
 10
54.3692494374
 20
22.0548982531
 10
54.3264242798
 20
22.0249062986
 10
54.2894542331
 20
21.9879362387
 10
54.2594622992
 20
21.9451110796
 10
54.2373594017
 20
21.8977316233
 10
54.223816789
 20
21.8472368902
 10
54.2192457422
 20
21.7951605498
  0
LINE
  5
399
100
AcDbEntity
  8
RACCORDO
100
AcDbLine
 62
7
  6
CONTINUOUS
 10
97.4743840876
 20
22.5401015805
 11
95.4243840876
 21
22.5401015805
  0
LINE
  5
39A
100
AcDbEntity
  8
RACCORDO
100
AcDbLine
 62
7
  6
CONTINUOUS
 10
72.4743840876
 20
22.5401015805
 11
70.4243840876
 21
22.5401015805
  0
LINE
  5
39B
100
AcDbEntity
  8
RACCORDO
100
AcDbLine
 62
7
  6
CONTINUOUS
 10
60.4743840876
 20
22.5401015805
 11
62.5243840876
 21
22.5401015805
  0
LINE
  5
39C
100
AcDbEntity
  8
RACCORDO
100
AcDbLine
 62
7
  6
CONTINUOUS
 10
85.4743840876
 20
22.5401015805
 11
87.5243840876
 21
22.5401015805
  0
LINE
  5
39D
100
AcDbEntity
  8
RACCORDO
100
AcDbLine
 62
7
  6
CONTINUOUS
 10
99.274353622
 20
23.0399765129
 11
97.8332251785
 21
23.0399765129
  0
LINE
  5
39E
100
AcDbEntity
  8
RACCORDO
100
AcDbLine
 62
7
  6
CONTINUOUS
 10
85.1155429968
 20
23.0399765129
 11
83.6744145532
 21
23.0399765129
  0
LINE
  5
39F
100
AcDbEntity
  8
DRAFT
100
AcDbLine
 62
7
  6
CONTINUOUS
 10
60.4743840876
 20
23.0399765129
 11
60.1155429968
 21
23.0399765129
  0
LINE
  5
3A0
100
AcDbEntity
  8
RACCORDO
100
AcDbLine
 62
7
  6
CONTINUOUS
 10
58.6744145532
 20
23.0399765129
 11
60.1155429968
 21
23.0399765129
  0
LINE
  5
3A1
100
AcDbEntity
  8
ASSI
100
AcDbLine
 62
7
  6
CONTINUOUS
 10
58.6744145532
 20
23.0399765129
 11
60.4743840876
 21
23.0399765129
  0
LINE
  5
3A2
100
AcDbEntity
  8
DRAFT
100
AcDbLine
 62
7
  6
CONTINUOUS
 10
72.4743840876
 20
23.0399765129
 11
72.8332251785
 21
23.0399765129
  0
LINE
  5
3A3
100
AcDbEntity
  8
RACCORDO
100
AcDbLine
 62
7
  6
CONTINUOUS
 10
72.8332251785
 20
23.0399765129
 11
74.274353622
 21
23.0399765129
  0
LINE
  5
3A4
100
AcDbEntity
  8
ASSI
100
AcDbLine
 62
7
  6
CONTINUOUS
 10
72.4743840876
 20
23.0399765129
 11
74.274353622
 21
23.0399765129
  0
LINE
  5
3A5
100
AcDbEntity
  8
DRAFT
100
AcDbLine
 62
7
  6
CONTINUOUS
 10
85.1155429968
 20
23.0399765129
 11
85.4743840876
 21
23.0399765129
  0
LINE
  5
3A6
100
AcDbEntity
  8
ASSI
100
AcDbLine
 62
7
  6
CONTINUOUS
 10
83.6744145532
 20
23.0399765129
 11
85.4743840876
 21
23.0399765129
  0
LINE
  5
3A7
100
AcDbEntity
  8
DRAFT
100
AcDbLine
 62
7
  6
CONTINUOUS
 10
97.4743840876
 20
23.0399765129
 11
97.8332251785
 21
23.0399765129
  0
LINE
  5
3A8
100
AcDbEntity
  8
ASSI
100
AcDbLine
 62
7
  6
CONTINUOUS
 10
97.4743840876
 20
23.0399765129
 11
99.274353622
 21
23.0399765129
  0
LINE
  5
3A9
100
AcDbEntity
  8
0
100
AcDbLine
 62
7
  6
CONTINUOUS
 10
92.9743840876
 20
23.1260167142
 11
89.9743840876
 21
23.1260167142
  0
LINE
  5
3AA
100
AcDbEntity
  8
0
100
AcDbLine
 62
7
  6
CONTINUOUS
 10
67.9743840876
 20
23.1260167142
 11
64.9743840876
 21
23.1260167142
  0
LINE
  5
3AB
100
AcDbEntity
  8
0
100
AcDbLine
 62
7
  6
CONTINUOUS
 10
97.4743840876
 20
23.1760167142
 11
92.9743840876
 21
23.1760167142
  0
LINE
  5
3AC
100
AcDbEntity
  8
0
100
AcDbLine
 62
7
  6
CONTINUOUS
 10
72.4743840876
 20
23.1760167142
 11
67.9743840876
 21
23.1760167142
  0
LINE
  5
3AD
100
AcDbEntity
  8
0
100
AcDbLine
 62
7
  6
CONTINUOUS
 10
60.4743840876
 20
23.1760167142
 11
64.9743840876
 21
23.1760167142
  0
LINE
  5
3AE
100
AcDbEntity
  8
0
100
AcDbLine
 62
7
  6
CONTINUOUS
 10
85.4743840876
 20
23.1760167142
 11
89.9743840876
 21
23.1760167142
  0
LINE
  5
3AF
100
AcDbEntity
  8
RACCORDO
100
AcDbLine
 62
7
  6
CONTINUOUS
 10
103.6244145486
 20
23.7899765129
 11
102.1243536266
 21
23.7899765129
  0
LINE
  5
3B0
100
AcDbEntity
  8
ASSI
100
AcDbLine
 62
7
  6
CONTINUOUS
 10
103.6244145486
 20
23.7899765129
 11
102.1243536266
 21
23.7899765129
  0
LINE
  5
3B1
100
AcDbEntity
  8
RACCORDO
100
AcDbLine
 62
7
  6
CONTINUOUS
 10
55.8244145486
 20
23.7899765129
 11
54.3243536266
 21
23.7899765129
  0
LINE
  5
3B2
100
AcDbEntity
  8
ASSI
100
AcDbLine
 62
7
  6
CONTINUOUS
 10
55.8244145486
 20
23.7899765129
 11
54.3243536266
 21
23.7899765129
  0
LINE
  5
3B3
100
AcDbEntity
  8
0
100
AcDbLine
 62
253
  6
CONTINUOUS
 10
97.4743840876
 20
23.8725267645
 11
85.4743840876
 21
23.8725267645
  0
LINE
  5
3B4
100
AcDbEntity
  8
0
100
AcDbLine
 62
253
  6
CONTINUOUS
 10
72.4743840876
 20
23.8725267645
 11
60.4743840876
 21
23.8725267645
  0
LINE
  5
3B5
100
AcDbEntity
  8
0
100
AcDbLine
 62
7
  6
CONTINUOUS
 10
97.4743840876
 20
24.3899765129
 11
85.4743840876
 21
24.3899765129
  0
LINE
  5
3B6
100
AcDbEntity
  8
0
100
AcDbLine
 62
7
  6
CONTINUOUS
 10
72.4743840876
 20
24.3899765129
 11
60.4743840876
 21
24.3899765129
  0
LWPOLYLINE
  5
3B7
100
AcDbEntity
  8
RACCORDO
100
AcDbPolyline
 62
7
  6
CONTINUOUS
 90
25
 70
0
 10
62.5243840876
 20
22.5401015805
 10
62.5375567138
 20
22.5400056105
 10
62.5505627353
 20
22.5397283554
 10
62.563402152
 20
22.5392698152
 10
62.5761283648
 20
22.5386264837
 10
62.5886879729
 20
22.5378018671
 10
62.6009207741
 20
22.5368064836
 10
62.6128225821
 20
22.5356381457
 10
62.6243975832
 20
22.5342990409
 10
62.6354981342
 20
22.5328062501
 10
62.6461181576
 20
22.5311578044
 10
62.6562637309
 20
22.5293556726
 10
62.6658054439
 20
22.5274228414
 10
62.6747355611
 20
22.5253576368
 10
62.6830618179
 20
22.5231617328
 10
62.6906780101
 20
22.520863139
 10
62.6975750417
 20
22.5184605401
 10
62.7037620087
 20
22.5159552513
 10
62.7091599941
 20
22.5133792286
 10
62.7137588912
 20
22.5107315658
 10
62.7175688066
 20
22.5080131691
 10
62.7205411437
 20
22.5052587125
 10
62.7226597034
 20
22.5024797541
 10
62.7239406847
 20
22.4996647358
 10
62.7243840876
 20
22.4968136577
  0
LWPOLYLINE
  5
3B8
100
AcDbEntity
  8
RACCORDO
100
AcDbPolyline
 62
7
  6
CONTINUOUS
 90
25
 70
0
 10
87.5243840876
 20
22.5401015805
 10
87.5375567138
 20
22.5400056105
 10
87.5505627353
 20
22.5397283554
 10
87.563402152
 20
22.5392698152
 10
87.5761283648
 20
22.5386264837
 10
87.5886879729
 20
22.5378018671
 10
87.6009207741
 20
22.5368064836
 10
87.6128225821
 20
22.5356381457
 10
87.6243975832
 20
22.5342990409
 10
87.6354981342
 20
22.5328062501
 10
87.6461181576
 20
22.5311578044
 10
87.6562637309
 20
22.5293556726
 10
87.6658054439
 20
22.5274228414
 10
87.6747355611
 20
22.5253576368
 10
87.6830618179
 20
22.5231617328
 10
87.6906780101
 20
22.520863139
 10
87.6975750417
 20
22.5184605401
 10
87.7037620087
 20
22.5159552513
 10
87.7091599941
 20
22.5133792286
 10
87.7137588912
 20
22.5107315658
 10
87.7175688066
 20
22.5080131691
 10
87.7205411437
 20
22.5052587125
 10
87.7226597034
 20
22.5024797541
 10
87.7239406847
 20
22.4996647358
 10
87.7243840876
 20
22.4968136577
  0
LWPOLYLINE
  5
3B9
100
AcDbEntity
  8
RACCORDO
100
AcDbPolyline
 62
253
  6
CONTINUOUS
 90
10
 70
0
 10
103.4295680978
 20
22.0951148316
 10
103.4816446222
 20
22.0905437525
 10
103.5321394397
 20
22.0770010748
 10
103.5795188843
 20
22.054898127
 10
103.6223439125
 20
22.0249062359
 10
103.6593138107
 20
21.9879363378
 10
103.6893057017
 20
21.9451113096
 10
103.7114086496
 20
21.8977318649
 10
103.7249513272
 20
21.8472370474
 10
103.7295224064
 20
21.7951605231
  0
LWPOLYLINE
  5
3BA
100
AcDbEntity
  8
RACCORDO
100
AcDbPolyline
 62
253
  6
CONTINUOUS
 90
16
 70
0
 10
103.4295680963
 20
-22.5151618044
 10
103.4455970043
 20
-22.5073625918
 10
103.4620149751
 20
-22.4883935647
 10
103.4782198317
 20
-22.4586959743
 10
103.4933851516
 20
-22.4187504615
 10
103.5072713218
 20
-22.3692473236
 10
103.5202918278
 20
-22.3112170358
 10
103.5322768919
 20
-22.2456985184
 10
103.5428359147
 20
-22.1735555397
 10
103.5522062203
 20
-22.0957326994
 10
103.5603518099
 20
-22.0132993747
 10
103.5671123214
 20
-21.927150899
 10
103.572569743
 20
-21.8379115523
 10
103.5767229856
 20
-21.7463730115
 10
103.5795417653
 20
-21.653537753
 10
103.5810758726
 20
-21.5602768444
  0
LINE
  5
3BB
100
AcDbEntity
  8
0
100
AcDbLine
 62
7
  6
CONTINUOUS
 10
-9.5481170209
 20
-24.8100234871
 11
-8.6856078343
 21
-24.8100234871
  0
LINE
  5
3BC
100
AcDbEntity
  8
DRAFT
100
AcDbLine
 62
7
  6
CONTINUOUS
 10
-24.1481170209
 20
-13.9492943922
 11
-24.1481170209
 21
-17.4707525821
  0
LINE
  5
3BD
100
AcDbEntity
  8
DRAFT
100
AcDbLine
 62
7
  6
CONTINUOUS
 10
-23.6833318068
 20
-13.9452382731
 11
-23.6833318068
 21
-17.4748087012
  0
LWPOLYLINE
  5
3BE
100
AcDbEntity
  8
RACCORDO
100
AcDbPolyline
 62
253
  6
CONTINUOUS
 90
7
 70
0
 10
-18.0827390982
 20
22.0951148316
 10
-18.0835683088
 20
22.0905437525
 10
-18.0842133108
 20
22.0770010748
 10
-18.0846545137
 20
22.054898127
 10
-18.0848785169
 20
22.0249062359
 10
-18.0848785169
 20
21.9879363378
 10
-18.0842133108
 20
21.8977318649
  0
LINE
  5
3BF
100
AcDbEntity
  8
0
100
AcDbLine
 62
7
  6
CONTINUOUS
 10
-8.5773880274
 20
-24.7981714907
 11
-5.4779878516
 21
-24.1110510143
  0
LINE
  5
3C0
100
AcDbEntity
  8
0
100
AcDbLine
 62
7
  6
CONTINUOUS
 10
-8.663963873
 20
-24.4076530879
 11
-7.4840229707
 21
-24.1460664876
  0
LWPOLYLINE
  5
3C1
100
AcDbEntity
  8
RACCORDO
100
AcDbPolyline
 62
253
  6
CONTINUOUS
 90
31
 70
0
 10
-0.1306646145
 20
-23.817743601
 10
-0.0971382946
 20
-23.8168002347
 10
-0.0623429257
 20
-23.8139066096
 10
-0.0262785077
 20
-23.8090627257
 10
0.011314992
 20
-23.8024146719
 10
0.0501775408
 20
-23.7938163593
 10
0.0895290404
 20
-23.7828295208
 10
0.1294115883
 20
-23.7693533276
 10
0.1697830871
 20
-23.7534886084
 10
0.2097371455
 20
-23.7350995832
 10
0.2492543483
 20
-23.7140784657
 10
0.2883541107
 20
-23.6905330421
 10
0.3261882876
 20
-23.6646508918
 10
0.3627054083
 20
-23.6363298122
 10
0.3979569433
 20
-23.6056720058
 10
0.4312491591
 20
-23.5731716596
 10
0.4625024834
 20
-23.5387387104
 10
0.4917964883
 20
-23.5024632212
 10
0.5186761568
 20
-23.465109568
 10
0.5430302557
 20
-23.4266275053
 10
0.5649700181
 20
-23.3870672785
 10
0.5843741261
 20
-23.347344
 10
0.6011305641
 20
-23.307417364
 10
0.6153513478
 20
-23.2673276763
 10
0.6272512056
 20
-23.2281109674
 10
0.6367153028
 20
-23.1899403542
 10
0.6438584741
 20
-23.1526427197
 10
0.6492399523
 20
-23.1167347435
 10
0.6530461482
 20
-23.0823886523
 10
0.6550906509
 20
-23.0494322194
 10
0.6553734604
 20
-23.0178654449
  0
LWPOLYLINE
  5
3C2
100
AcDbEntity
  8
ASSI
100
AcDbPolyline
 62
253
  6
CONTINUOUS
 90
31
 70
0
 10
-0.1306646145
 20
-23.817743601
 10
-0.0971382946
 20
-23.8168002347
 10
-0.0623429257
 20
-23.8139066096
 10
-0.0262785077
 20
-23.8090627257
 10
0.011314992
 20
-23.8024146719
 10
0.0501775408
 20
-23.7938163593
 10
0.0895290404
 20
-23.7828295208
 10
0.1294115883
 20
-23.7693533276
 10
0.1697830871
 20
-23.7534886084
 10
0.2097371455
 20
-23.7350995832
 10
0.2492543483
 20
-23.7140784657
 10
0.2883541107
 20
-23.6905330421
 10
0.3261882876
 20
-23.6646508918
 10
0.3627054083
 20
-23.6363298122
 10
0.3979569433
 20
-23.6056720058
 10
0.4312491591
 20
-23.5731716596
 10
0.4625024834
 20
-23.5387387104
 10
0.4917964883
 20
-23.5024632212
 10
0.5186761568
 20
-23.465109568
 10
0.5430302557
 20
-23.4266275053
 10
0.5649700181
 20
-23.3870672785
 10
0.5843741261
 20
-23.347344
 10
0.6011305641
 20
-23.307417364
 10
0.6153513478
 20
-23.2673276763
 10
0.6272512056
 20
-23.2281109674
 10
0.6367153028
 20
-23.1899403542
 10
0.6438584741
 20
-23.1526427197
 10
0.6492399523
 20
-23.1167347435
 10
0.6530461482
 20
-23.0823886523
 10
0.6550906509
 20
-23.0494322194
 10
0.6553734604
 20
-23.0178654449
  0
LINE
  5
3C3
100
AcDbEntity
  8
RACCORDO
100
AcDbLine
 62
7
  6
CONTINUOUS
 10
-11.1481170209
 20
-24.2100234871
 11
-0.1306646145
 21
-24.0177131401
  0
LINE
  5
3C4
100
AcDbEntity
  8
ASSI
100
AcDbLine
 62
7
  6
CONTINUOUS
 10
-11.1481170209
 20
-24.2100234871
 11
-0.1306646145
 21
-24.0177131401
  0
LINE
  5
3C5
100
AcDbEntity
  8
RACCORDO
100
AcDbLine
 62
253
  6
CONTINUOUS
 10
-11.1481170209
 20
-24.0100539481
 11
-0.1306646145
 21
-23.817743601
  0
LINE
  5
3C6
100
AcDbEntity
  8
ASSI
100
AcDbLine
 62
253
  6
CONTINUOUS
 10
-11.1481170209
 20
-24.0100539481
 11
-0.1306646145
 21
-23.817743601
  0
LINE
  5
3C7
100
AcDbEntity
  8
0
100
AcDbLine
 62
7
  6
CONTINUOUS
 10
-9.5481170209
 20
-24.4100234871
 11
-8.6856078343
 21
-24.4100234871
  0
LINE
  5
3C8
100
AcDbEntity
  8
RACCORDO
100
AcDbLine
 62
253
  6
CONTINUOUS
 10
0.6553734604
 20
-23.0178654449
 11
0.8518829791
 21
-23.0178654449
  0
LINE
  5
3C9
100
AcDbEntity
  8
ASSI
100
AcDbLine
 62
253
  6
CONTINUOUS
 10
0.6553734604
 20
-23.0178654449
 11
0.8518829791
 21
-23.0178654449
  0
LINE
  5
3CA
100
AcDbEntity
  8
RACCORDO
100
AcDbLine
 62
7
  6
CONTINUOUS
 10
-12.6481170209
 20
-22.6100234871
 11
-11.1481170209
 21
-22.6100234871
  0
LINE
  5
3CB
100
AcDbEntity
  8
RACCORDO
100
AcDbLine
 62
253
  6
CONTINUOUS
 10
-12.6481170209
 20
-22.1100234871
 11
-11.1481170209
 21
-22.1100234871
  0
LINE
  5
3CC
100
AcDbEntity
  8
RACCORDO
100
AcDbLine
 62
253
  6
CONTINUOUS
 10
-19.1714693819
 20
-21.5602795542
 11
-23.1198041101
 21
-21.4941340615
  0
LINE
  5
3CD
100
AcDbEntity
  8
RACCORDO
100
AcDbLine
 62
7
  6
CONTINUOUS
 10
-12.6481170209
 20
-22.6100234871
 11
-22.1384880152
 21
-22.4443684453
  0
LINE
  5
3CE
100
AcDbEntity
  8
RACCORDO
100
AcDbLine
 62
253
  6
CONTINUOUS
 10
-12.6481170209
 20
-22.3100691786
 11
-18.0827391858
 21
-22.2152074959
  0
LINE
  5
3CF
100
AcDbEntity
  8
0
100
AcDbLine
 62
253
  6
CONTINUOUS
 10
-9.6480561036
 20
-24.3065335375
 11
-10.0478124344
 21
-24.2925737388
  0
LWPOLYLINE
  5
3D0
100
AcDbEntity
  8
RACCORDO
100
AcDbPolyline
 62
253
  6
CONTINUOUS
 90
16
 70
0
 10
-18.0827391858
 20
-22.5151618044
 10
-18.2016974733
 20
-22.5073625918
 10
-18.3176565826
 20
-22.4883935647
 10
-18.4296658268
 20
-22.4586959743
 10
-18.5371914857
 20
-22.4187504615
 10
-18.6390387711
 20
-22.3692473236
 10
-18.7334186197
 20
-22.3112170358
 10
-18.8194780752
 20
-22.2456985184
 10
-18.8969958713
 20
-22.1735555397
 10
-18.965327026
 20
-22.0957326994
 10
-19.0240451206
 20
-22.0132993747
 10
-19.0730873751
 20
-21.927150899
 10
-19.1124126351
 20
-21.8379115523
 10
-19.1419310126
 20
-21.7463730115
 10
-19.1615855413
 20
-21.653537753
 10
-19.1714269489
 20
-21.5602768444
  0
LWPOLYLINE
  5
3D1
100
AcDbEntity
  8
RACCORDO
100
AcDbPolyline
 62
253
  6
CONTINUOUS
 90
16
 70
0
 10
-18.0827391858
 20
-22.2152074959
 10
-18.1760678692
 20
-22.2090635638
 10
-18.2657510401
 20
-22.1958048241
 10
-18.3517886988
 20
-22.1754312769
 10
-18.435051528
 20
-22.1473379612
 10
-18.5146688449
 20
-22.1121298379
 10
-18.5880286008
 20
-22.0716217897
 10
-18.6546182008
 20
-22.0257503865
 10
-18.7149502398
 20
-21.9745790584
 10
-18.7679504538
 20
-21.9201129784
 10
-18.8133501693
 20
-21.8623830963
 10
-18.8514180599
 20
-21.8013584623
 10
-18.8818858823
 20
-21.7389514006
 10
-18.9046642222
 20
-21.6757993524
 10
-18.9198424939
 20
-21.6112648766
 10
-18.9274206975
 20
-21.545347973
  0
LWPOLYLINE
  5
3D2
100
AcDbEntity
  8
RACCORDO
100
AcDbPolyline
 62
253
  6
CONTINUOUS
 90
6
 70
0
 10
-18.0827391858
 20
-22.5151618044
 10
-18.0835684038
 20
-22.5105907501
 10
-18.0842134127
 20
-22.4970481193
 10
-18.0846546212
 20
-22.4749451992
 10
-18.0848786279
 20
-22.4449532447
 10
-18.0848786277
 20
-22.4079831848
  0
LWPOLYLINE
  5
3D3
100
AcDbEntity
  8
RACCORDO
100
AcDbPolyline
 62
253
  6
CONTINUOUS
 90
13
 70
0
 10
-18.9274206975
 20
-21.545347973
 10
-19.1146110179
 20
-18.2998227642
 10
-19.269771554
 20
-14.9304771692
 10
-19.3929023059
 20
-11.4373111881
 10
-19.4864516246
 20
-7.7793491621
 10
-19.547971159
 20
-3.9975667499
 10
-19.5701158558
 20
-0.214890928
 10
-19.5479929811
 20
3.5695089653
 10
-19.4864952688
 20
7.3548022683
 10
-19.3929558665
 20
11.0155700194
 10
-19.2698191567
 20
14.5100058983
 10
-19.1146407568
 20
17.8799162253
 10
-18.9274206669
 20
21.1253010006
  0
LWPOLYLINE
  5
3D4
100
AcDbEntity
  8
RACCORDO
100
AcDbPolyline
 62
253
  6
CONTINUOUS
 90
13
 70
0
 10
-19.1714693819
 20
-21.5602795542
 10
-19.3550843152
 20
-18.3127026467
 10
-19.5117859182
 20
-14.9409548273
 10
-19.6390090485
 20
-11.4451338527
 10
-19.7353438301
 20
-7.7846174868
 10
-19.796234556
 20
-4.0003497664
 10
-19.8169910596
 20
-0.2148931162
 10
-19.7963007204
 20
3.5722890006
 10
-19.7354240006
 20
7.3600701514
 10
-19.639062776
 20
11.0233936915
 10
-19.5118127932
 20
14.520484672
 10
-19.3550885376
 20
17.8927967063
 10
-19.1714693687
 20
21.1402325832
  0
LWPOLYLINE
  5
3D5
100
AcDbEntity
  8
RACCORDO
100
AcDbPolyline
 62
253
  6
CONTINUOUS
 90
16
 70
0
 10
-19.1714268908
 20
21.1402298708
 10
-19.161585375
 20
21.2334915614
 10
-19.1419306688
 20
21.3263272977
 10
-19.112412112
 20
21.4178660137
 10
-19.0730867725
 20
21.5071051396
 10
-19.0240445841
 20
21.593253152
 10
-18.9653266024
 20
21.6756861169
 10
-18.8969955017
 20
21.7535088246
 10
-18.8194777465
 20
21.8256517406
 10
-18.7334183963
 20
21.8911701644
 10
-18.6390388337
 20
21.9492002799
 10
-18.5371919205
 20
21.9987032739
 10
-18.4296664754
 20
22.0386487717
 10
-18.3176571817
 20
22.0683464457
 10
-18.2016978275
 20
22.0873155682
 10
-18.0827390982
 20
22.0951148316
  0
LWPOLYLINE
  5
3D6
100
AcDbEntity
  8
RACCORDO
100
AcDbPolyline
 62
253
  6
CONTINUOUS
 90
16
 70
0
 10
-18.9274206669
 20
21.1253010006
 10
-18.9198425207
 20
21.1912179338
 10
-18.9046642783
 20
21.2557524245
 10
-18.8818859395
 20
21.3189044727
 10
-18.8514180731
 20
21.3813115102
 10
-18.8133501103
 20
21.4423361051
 10
-18.767950345
 20
21.5000659622
 10
-18.7149501289
 20
21.5545320444
 10
-18.6546181102
 20
21.6057033888
 10
-18.5880285275
 20
21.6515748112
 10
-18.5146687778
 20
21.6920828834
 10
-18.435051464
 20
21.7272910336
 10
-18.3517886344
 20
21.7553843626
 10
-18.2657509716
 20
21.775757904
 10
-18.1760677928
 20
21.7890166241
 10
-18.0827390982
 20
21.7951605231
  0
LINE
  5
3D7
100
AcDbEntity
  8
CURVE
100
AcDbLine
 62
253
  6
CONTINUOUS
 10
-4.4481170388
 20
18.7179767532
 11
-4.1481170567
 21
18.8859766731
  0
LINE
  5
3D8
100
AcDbEntity
  8
0
100
AcDbLine
 62
253
  6
CONTINUOUS
 10
-3.3101170209
 20
-19.4420234871
 11
-3.4081170209
 21
-19.4560234871
  0
LINE
  5
3D9
100
AcDbEntity
  8
0
100
AcDbLine
 62
253
  6
CONTINUOUS
 10
-3.3941170209
 20
-19.8260234871
 11
-3.4941170209
 21
-19.8400234871
  0
LINE
  5
3DA
100
AcDbEntity
  8
0
100
AcDbLine
 62
253
  6
CONTINUOUS
 10
-4.0561170209
 20
-19.8620234871
 11
-4.1481170209
 21
-19.8720234871
  0
LINE
  5
3DB
100
AcDbEntity
  8
RACCORDO
100
AcDbLine
 62
253
  6
CONTINUOUS
 10
-19.1714693956
 20
-21.5602795153
 11
-18.9274206975
 21
-21.545347973
  0
LINE
  5
3DC
100
AcDbEntity
  8
RACCORDO
100
AcDbLine
 62
253
  6
CONTINUOUS
 10
11.8518829791
 20
-20.3172083623
 11
12.3431567759
 21
-20.3000579301
  0
LINE
  5
3DD
100
AcDbEntity
  8
ASSI
100
AcDbLine
 62
253
  6
CONTINUOUS
 10
11.8518829791
 20
-20.3172083623
 11
12.3431567759
 21
-20.3000579301
  0
LINE
  5
3DE
100
AcDbEntity
  8
RACCORDO
100
AcDbLine
 62
7
  6
CONTINUOUS
 10
28.6606091823
 20
-20.5151595866
 11
11.3647760905
 21
-20.8170594762
  0
LINE
  5
3DF
100
AcDbEntity
  8
ASSI
100
AcDbLine
 62
7
  6
CONTINUOUS
 10
28.6606091823
 20
-20.5151595866
 11
11.3647760905
 21
-20.8170594762
  0
LINE
  5
3E0
100
AcDbEntity
  8
RACCORDO
100
AcDbLine
 62
7
  6
CONTINUOUS
 10
0.8518829791
 20
-21.000562708
 11
11.3606091823
 21
-20.8171322098
  0
LINE
  5
3E1
100
AcDbEntity
  8
ASSI
100
AcDbLine
 62
7
  6
CONTINUOUS
 10
0.8518829791
 20
-21.000562708
 11
11.3606091823
 21
-20.8171322098
  0
LINE
  5
3E2
100
AcDbEntity
  8
RACCORDO
100
AcDbLine
 62
253
  6
CONTINUOUS
 10
28.6606091823
 20
-20.015235739
 11
12.3431567759
 21
-20.3000579302
  0
LINE
  5
3E3
100
AcDbEntity
  8
ASSI
100
AcDbLine
 62
253
  6
CONTINUOUS
 10
28.6606091823
 20
-20.015235739
 11
12.3431567759
 21
-20.3000579302
  0
LINE
  5
3E4
100
AcDbEntity
  8
RACCORDO
100
AcDbLine
 62
253
  6
CONTINUOUS
 10
0.6553734604
 20
-20.5040689468
 11
11.3606091823
 21
-20.3172083622
  0
LINE
  5
3E5
100
AcDbEntity
  8
ASSI
100
AcDbLine
 62
253
  6
CONTINUOUS
 10
0.6553734604
 20
-20.5040689468
 11
11.3606091823
 21
-20.3172083622
  0
LINE
  5
3E6
100
AcDbEntity
  8
DRAFT
100
AcDbLine
 62
7
  6
CONTINUOUS
 10
15.2518829791
 20
-20.7600234871
 11
15.7518829791
 21
-20.7600234871
  0
LINE
  5
3E7
100
AcDbEntity
  8
0
100
AcDbLine
 62
253
  6
CONTINUOUS
 10
-2.4481170209
 20
-20.5100234871
 11
-1.1481170209
 21
-20.5100234871
  0
LINE
  5
3E8
100
AcDbEntity
  8
RACCORDO
100
AcDbLine
 62
253
  6
CONTINUOUS
 10
11.3606091823
 20
-20.3172083622
 11
11.8518829791
 21
-20.3172083622
  0
LINE
  5
3E9
100
AcDbEntity
  8
ASSI
100
AcDbLine
 62
253
  6
CONTINUOUS
 10
11.3606091823
 20
-20.3172083622
 11
11.8518829791
 21
-20.3172083622
  0
LINE
  5
3EA
100
AcDbEntity
  8
RACCORDO
100
AcDbLine
 62
253
  6
CONTINUOUS
 10
28.6606091823
 20
-20.015235739
 11
29.1518829791
 21
-20.015235739
  0
LINE
  5
3EB
100
AcDbEntity
  8
ASSI
100
AcDbLine
 62
253
  6
CONTINUOUS
 10
28.6606091823
 20
-20.015235739
 11
29.1518829791
 21
-20.015235739
  0
LINE
  5
3EC
100
AcDbEntity
  8
0
100
AcDbLine
 62
253
  6
CONTINUOUS
 10
-1.1481170209
 20
-19.6260234871
 11
-2.4481170209
 21
-19.6260234871
  0
LINE
  5
3ED
100
AcDbEntity
  8
0
100
AcDbLine
 62
253
  6
CONTINUOUS
 10
-6.2501170209
 20
-19.1860234871
 11
-4.9501170209
 21
-19.1860234871
  0
LINE
  5
3EE
100
AcDbEntity
  8
0
100
AcDbLine
 62
253
  6
CONTINUOUS
 10
-8.1641170209
 20
-19.1800234871
 11
-6.8641170209
 21
-19.1800234871
  0
LINE
  5
3EF
100
AcDbEntity
  8
0
100
AcDbLine
 62
253
  6
CONTINUOUS
 10
-6.8641170209
 20
-18.7740234871
 11
-8.1641170209
 21
-18.7740234871
  0
LINE
  5
3F0
100
AcDbEntity
  8
ASSI
100
AcDbLine
 62
7
  6
CONTINUOUS
 10
29.1518829791
 20
-18.5062797145
 11
29.3518829791
 21
-18.5062797145
  0
LINE
  5
3F1
100
AcDbEntity
  8
0
100
AcDbLine
 62
253
  6
CONTINUOUS
 10
-3.4081170209
 20
-19.4560234871
 11
-3.5361170209
 21
-19.4480234871
  0
LINE
  5
3F2
100
AcDbEntity
  8
0
100
AcDbLine
 62
253
  6
CONTINUOUS
 10
-3.4361170209
 20
-18.6860234871
 11
-3.3401170209
 21
-18.6940234871
  0
LINE
  5
3F3
100
AcDbEntity
  8
0
100
AcDbLine
 62
253
  6
CONTINUOUS
 10
-3.9121170209
 20
-18.3500234871
 11
-3.8141170209
 21
-18.3600234871
  0
LINE
  5
3F4
100
AcDbEntity
  8
0
100
AcDbLine
 62
253
  6
CONTINUOUS
 10
-3.2881170209
 20
-19.8380234871
 11
-3.3941170209
 21
-19.8260234871
  0
LINE
  5
3F5
100
AcDbEntity
  8
0
100
AcDbLine
 62
253
  6
CONTINUOUS
 10
-3.9601170209
 20
-19.8800234871
 11
-4.0561170209
 21
-19.8620234871
  0
LINE
  5
3F6
100
AcDbEntity
  8
0
100
AcDbLine
 62
253
  6
CONTINUOUS
 10
-4.0481170209
 20
-18.3200234871
 11
-3.9121170209
 21
-18.3500234871
  0
LINE
  5
3F7
100
AcDbEntity
  8
0
100
AcDbLine
 62
253
  6
CONTINUOUS
 10
-6.8641170209
 20
-20.0460234871
 11
-8.1641170209
 21
-19.5360234871
  0
LINE
  5
3F8
100
AcDbEntity
  8
0
100
AcDbLine
 62
253
  6
CONTINUOUS
 10
-4.9501170209
 20
-20.0520234871
 11
-6.2501170209
 21
-19.5400234871
  0
LINE
  5
3F9
100
AcDbEntity
  8
0
100
AcDbLine
 62
253
  6
CONTINUOUS
 10
-3.3401170209
 20
-18.6940234871
 11
-3.2441170209
 21
-18.7320234871
  0
LINE
  5
3FA
100
AcDbEntity
  8
0
100
AcDbLine
 62
253
  6
CONTINUOUS
 10
-6.8861170209
 20
-18.1500234871
 11
-8.1641170209
 21
-17.6100234871
  0
LINE
  5
3FB
100
AcDbEntity
  8
0
100
AcDbLine
 62
253
  6
CONTINUOUS
 10
-6.8641170209
 20
-17.1860234871
 11
-8.1641170209
 21
-16.6360234871
  0
LINE
  5
3FC
100
AcDbEntity
  8
0
100
AcDbLine
 62
253
  6
CONTINUOUS
 10
-4.9501170209
 20
-18.8200234871
 11
-6.2501170209
 21
-18.2680234871
  0
LWPOLYLINE
  5
3FD
100
AcDbEntity
  8
0
100
AcDbPolyline
 62
253
  6
CONTINUOUS
 90
14
 70
0
 10
-3.5361170209
 20
-19.4480234871
 10
-3.6573401736
 20
-19.3940273674
 10
-3.6771707961
 20
-19.3850409005
 10
-3.6968704126
 20
-19.3760082237
 10
-3.7164263994
 20
-19.3669149575
 10
-3.7358261325
 20
-19.3577467223
 10
-3.7550569883
 20
-19.3484891386
 10
-3.7741063429
 20
-19.3391278269
 10
-3.7929626514
 20
-19.3296486256
 10
-3.8116186836
 20
-19.3200382447
 10
-3.830068288
 20
-19.3102836124
 10
-3.8483053133
 20
-19.3003716567
 10
-3.8663236081
 20
-19.2902893056
 10
-3.8841170209
 20
-19.2800234871
  0
LINE
  5
3FE
100
AcDbEntity
  8
0
100
AcDbLine
 62
253
  6
CONTINUOUS
 10
-3.2041170209
 20
-19.8800234871
 11
-3.2881170209
 21
-19.8380234871
  0
LINE
  5
3FF
100
AcDbEntity
  8
0
100
AcDbLine
 62
253
  6
CONTINUOUS
 10
-3.8841170209
 20
-19.9200234871
 11
-3.9601170209
 21
-19.8800234871
  0
LINE
  5
400
100
AcDbEntity
  8
RACCORDO
100
AcDbLine
 62
253
  6
CONTINUOUS
 10
-18.0842133108
 20
21.8977318649
 11
-18.0827390982
 21
21.7951605231
  0
LINE
  5
401
100
AcDbEntity
  8
RACCORDO
100
AcDbLine
 62
253
  6
CONTINUOUS
 10
-18.0848786277
 20
-22.4079831848
 11
-18.0842134119
 21
-22.3177785694
  0
LINE
  5
402
100
AcDbEntity
  8
RACCORDO
100
AcDbLine
 62
253
  6
CONTINUOUS
 10
-18.0842134119
 20
-22.3177785694
 11
-18.0827391858
 21
-22.2152074959
  0
LINE
  5
403
100
AcDbEntity
  8
CURVE
100
AcDbLine
 62
253
  6
CONTINUOUS
 10
-4.7481170209
 20
18.3819763526
 11
-4.4481170388
 21
18.7179767532
  0
LINE
  5
404
100
AcDbEntity
  8
CURVE
100
AcDbLine
 62
253
  6
CONTINUOUS
 10
-2.9481170343
 20
17.877976593
 11
-3.2481170477
 21
17.7099766731
  0
LINE
  5
405
100
AcDbEntity
  8
0
100
AcDbLine
 62
253
  6
CONTINUOUS
 10
-3.9201170209
 20
-17.5700234871
 11
-4.0481170209
 21
-17.6040234871
  0
LINE
  5
406
100
AcDbEntity
  8
0
100
AcDbLine
 62
253
  6
CONTINUOUS
 10
-3.4661170209
 20
-18.3480234871
 11
-3.3441170209
 21
-18.3160234871
  0
LINE
  5
407
100
AcDbEntity
  8
0
100
AcDbLine
 62
253
  6
CONTINUOUS
 10
-3.3081170209
 20
-17.2260234871
 11
-3.4061170209
 21
-17.2420234871
  0
LINE
  5
408
100
AcDbEntity
  8
0
100
AcDbLine
 62
253
  6
CONTINUOUS
 10
-3.5761170209
 20
-18.3600234871
 11
-3.4661170209
 21
-18.3480234871
  0
LINE
  5
409
100
AcDbEntity
  8
0
100
AcDbLine
 62
253
  6
CONTINUOUS
 10
-3.6941170209
 20
-17.5580234871
 11
-3.9201170209
 21
-17.5700234871
  0
LINE
  5
40A
100
AcDbEntity
  8
0
100
AcDbLine
 62
253
  6
CONTINUOUS
 10
-3.8141170209
 20
-18.3600234871
 11
-3.5761170209
 21
-18.3600234871
  0
LINE
  5
40B
100
AcDbEntity
  8
ASSI
100
AcDbLine
 62
7
  6
CONTINUOUS
 10
29.1518829791
 20
-17.9462517145
 11
29.3518829791
 21
-17.9462517145
  0
LINE
  5
40C
100
AcDbEntity
  8
0
100
AcDbLine
 62
253
  6
CONTINUOUS
 10
-8.1641170209
 20
-17.5140234871
 11
-6.8641170209
 21
-17.5140234871
  0
LINE
  5
40D
100
AcDbEntity
  8
0
100
AcDbLine
 62
253
  6
CONTINUOUS
 10
-2.4481170209
 20
-17.3560234871
 11
-1.1481170209
 21
-17.3560234871
  0
LINE
  5
40E
100
AcDbEntity
  8
0
100
AcDbLine
 62
253
  6
CONTINUOUS
 10
-6.2501170209
 20
-17.3480234871
 11
-4.9501170209
 21
-17.3480234871
  0
LINE
  5
40F
100
AcDbEntity
  8
ASSI
100
AcDbLine
 62
7
  6
CONTINUOUS
 10
29.1518829791
 20
-17.3272277145
 11
29.3518829791
 21
-17.3272277145
  0
LINE
  5
410
100
AcDbEntity
  8
ASSI
100
AcDbLine
 62
7
  6
CONTINUOUS
 10
29.1518829791
 20
-16.7082107145
 11
29.3518829791
 21
-16.7082107145
  0
LINE
  5
411
100
AcDbEntity
  8
0
100
AcDbLine
 62
253
  6
CONTINUOUS
 10
-6.2501170209
 20
-16.2540234871
 11
-4.9501170209
 21
-16.2540234871
  0
LINE
  5
412
100
AcDbEntity
  8
ASSI
100
AcDbLine
 62
7
  6
CONTINUOUS
 10
29.1518829791
 20
-16.1481827145
 11
29.3518829791
 21
-16.1481827145
  0
LINE
  5
413
100
AcDbEntity
  8
ASSI
100
AcDbLine
 62
7
  6
CONTINUOUS
 10
29.1518829791
 20
-15.7748377145
 11
29.3518829791
 21
-15.7748377145
  0
LINE
  5
414
100
AcDbEntity
  8
0
100
AcDbLine
 62
253
  6
CONTINUOUS
 10
-1.1481170209
 20
-15.7180234871
 11
-1.7181170209
 21
-15.7180234871
  0
LINE
  5
415
100
AcDbEntity
  8
0
100
AcDbLine
 62
253
  6
CONTINUOUS
 10
-6.8641170209
 20
-15.6100234871
 11
-8.1641170209
 21
-15.6100234871
  0
LINE
  5
416
100
AcDbEntity
  8
DRAFT
100
AcDbLine
 62
7
  6
CONTINUOUS
 10
-23.2970983977
 20
-17.4781793091
 11
-24.1481170209
 21
-17.4707525821
  0
LINE
  5
417
100
AcDbEntity
  8
0
100
AcDbLine
 62
253
  6
CONTINUOUS
 10
-3.4061170209
 20
-17.2420234871
 11
-3.5341170209
 21
-17.2320234871
  0
LINE
  5
418
100
AcDbEntity
  8
0
100
AcDbLine
 62
253
  6
CONTINUOUS
 10
-3.4701170209
 20
-17.5780234871
 11
-3.6941170209
 21
-17.5580234871
  0
LINE
  5
419
100
AcDbEntity
  8
0
100
AcDbLine
 62
253
  6
CONTINUOUS
 10
-3.4341170209
 20
-16.4700234871
 11
-3.3381170209
 21
-16.4800234871
  0
LINE
  5
41A
100
AcDbEntity
  8
0
100
AcDbLine
 62
253
  6
CONTINUOUS
 10
-3.2861170209
 20
-15.4080234871
 11
-3.3921170209
 21
-15.3960234871
  0
LWPOLYLINE
  5
41B
100
AcDbEntity
  8
0
100
AcDbPolyline
 62
253
  6
CONTINUOUS
 90
38
 70
0
 10
-7.8226337412
 20
-14.8587667662
 10
-7.7977334975
 20
-14.8630081155
 10
-7.7895082243
 20
-14.8644651432
 10
-7.7813160245
 20
-14.8659919738
 10
-7.7731622926
 20
-14.8676137885
 10
-7.7650524231
 20
-14.8693557684
 10
-7.7569918107
 20
-14.8712430946
 10
-7.74898585
 20
-14.8733009483
 10
-7.7430209503
 20
-14.8749714617
 10
-7.7370948661
 20
-14.8767630829
 10
-7.7312126369
 20
-14.8786868338
 10
-7.7253793023
 20
-14.8807537361
 10
-7.71960165
 20
-14.8829742832
 10
-7.7138934615
 20
-14.8853568554
 10
-7.7082702665
 20
-14.8879093047
 10
-7.7027475948
 20
-14.8906394828
 10
-7.6973387792
 20
-14.8935504191
 10
-7.692048366
 20
-14.8966258526
 10
-7.6868766644
 20
-14.8998440816
 10
-7.6818158245
 20
-14.9031809314
 10
-7.6768563378
 20
-14.9066122393
 10
-7.6719902215
 20
-14.9101163629
 10
-7.6672107726
 20
-14.9136761607
 10
-7.6625148823
 20
-14.9172899733
 10
-7.6578999685
 20
-14.9209604673
 10
-7.6533619597
 20
-14.9246921309
 10
-7.6488976213
 20
-14.9284888851
 10
-7.6445085538
 20
-14.9323505609
 10
-7.6387770201
 20
-14.9376000558
 10
-7.6331826315
 20
-14.9429700086
 10
-7.6277237237
 20
-14.9484675793
 10
-7.6224016684
 20
-14.9540958082
 10
-7.6172299802
 20
-14.9598412572
 10
-7.6122252096
 20
-14.9656863685
 10
-7.608587051
 20
-14.9701309713
 10
-7.6050346173
 20
-14.9746499184
 10
-7.6015504325
 20
-14.9792713702
 10
-7.5981170209
 20
-14.9840234871
  0
LINE
  5
41C
100
AcDbEntity
  8
0
100
AcDbLine
 62
253
  6
CONTINUOUS
 10
-3.9581170209
 20
-15.4500234871
 11
-4.0541170209
 21
-15.4320234871
  0
LWPOLYLINE
  5
41D
100
AcDbEntity
  8
0
100
AcDbPolyline
 62
253
  6
CONTINUOUS
 90
4
 70
0
 10
-7.8481170209
 20
-14.8540234871
 10
-7.8395371998
 20
-14.8557161233
 10
-7.8310468958
 20
-14.8572860617
 10
-7.8226337412
 20
-14.8587667662
  0
LINE
  5
41E
100
AcDbEntity
  8
0
100
AcDbLine
 62
253
  6
CONTINUOUS
 10
-3.3541170209
 20
-17.6020234871
 11
-3.4701170209
 21
-17.5780234871
  0
LINE
  5
41F
100
AcDbEntity
  8
0
100
AcDbLine
 62
253
  6
CONTINUOUS
 10
-3.3381170209
 20
-16.4800234871
 11
-3.2421170209
 21
-16.5160234871
  0
LWPOLYLINE
  5
420
100
AcDbEntity
  8
0
100
AcDbPolyline
 62
253
  6
CONTINUOUS
 90
13
 70
0
 10
-3.5341170209
 20
-17.2320234871
 10
-3.5532509032
 20
-17.2243603285
 10
-3.5723910189
 20
-17.2164649238
 10
-3.5915423751
 20
-17.2083446137
 10
-3.6107099787
 20
-17.2000067391
 10
-3.629898837
 20
-17.1914586406
 10
-3.6491139568
 20
-17.182707659
 10
-3.6722120304
 20
-17.1719505769
 10
-3.6953530698
 20
-17.160933993
 10
-3.7185350139
 20
-17.1496799867
 10
-3.7417558016
 20
-17.1382106371
 10
-3.7650133718
 20
-17.1265480236
 10
-3.794139173
 20
-17.111730283
  0
LINE
  5
421
100
AcDbEntity
  8
0
100
AcDbLine
 62
253
  6
CONTINUOUS
 10
-1.1481170209
 20
-18.8280234871
 11
-2.4481170209
 21
-18.2760234871
  0
LINE
  5
422
100
AcDbEntity
  8
0
100
AcDbLine
 62
253
  6
CONTINUOUS
 10
-4.1961170209
 20
-18.2520234871
 11
-4.0481170209
 21
-18.3200234871
  0
LINE
  5
423
100
AcDbEntity
  8
0
100
AcDbLine
 62
253
  6
CONTINUOUS
 10
-3.1961170209
 20
-17.6800234871
 11
-3.3541170209
 21
-17.6020234871
  0
LWPOLYLINE
  5
424
100
AcDbEntity
  8
0
100
AcDbPolyline
 62
253
  6
CONTINUOUS
 90
3
 70
0
 10
-3.794139173
 20
-17.111730283
 10
-3.8526635044
 20
-17.0814328865
 10
-3.8821170209
 20
-17.0660234871
  0
LINE
  5
425
100
AcDbEntity
  8
0
100
AcDbLine
 62
253
  6
CONTINUOUS
 10
-3.8821170209
 20
-15.4900234871
 11
-3.9581170209
 21
-15.4500234871
  0
LINE
  5
426
100
AcDbEntity
  8
0
100
AcDbLine
 62
253
  6
CONTINUOUS
 10
-3.8841170209
 20
-19.2800234871
 11
-4.3501170209
 21
-18.9840234871
  0
LINE
  5
427
100
AcDbEntity
  8
0
100
AcDbLine
 62
253
  6
CONTINUOUS
 10
-3.8821170209
 20
-17.0660234871
 11
-4.3481170209
 21
-16.7700234871
  0
LINE
  5
428
100
AcDbEntity
  8
0
100
AcDbLine
 62
253
  6
CONTINUOUS
 10
-3.2441170209
 20
-18.7320234871
 11
-3.1561170209
 21
-18.7940234871
  0
LINE
  5
429
100
AcDbEntity
  8
0
100
AcDbLine
 62
253
  6
CONTINUOUS
 10
-3.2421170209
 20
-16.5160234871
 11
-3.1541170209
 21
-16.5780234871
  0
LINE
  5
42A
100
AcDbEntity
  8
0
100
AcDbLine
 62
253
  6
CONTINUOUS
 10
-3.1361170209
 20
-19.9380234871
 11
-3.2041170209
 21
-19.8800234871
  0
LINE
  5
42B
100
AcDbEntity
  8
0
100
AcDbLine
 62
253
  6
CONTINUOUS
 10
-4.2761170209
 20
-20.4240234871
 11
-4.2181170209
 21
-20.4820234871
  0
LINE
  5
42C
100
AcDbEntity
  8
0
100
AcDbLine
 62
253
  6
CONTINUOUS
 10
-3.8201170209
 20
-19.9840234871
 11
-3.8841170209
 21
-19.9200234871
  0
LINE
  5
42D
100
AcDbEntity
  8
0
100
AcDbLine
 62
253
  6
CONTINUOUS
 10
-4.3121170209
 20
-18.1280234871
 11
-4.1961170209
 21
-18.2520234871
  0
LINE
  5
42E
100
AcDbEntity
  8
RACCORDO
100
AcDbLine
 62
7
  6
CONTINUOUS
 10
-12.6481170209
 20
22.1899765129
 11
-12.6481170209
 21
-22.6100234871
  0
LINE
  5
42F
100
AcDbEntity
  8
0
100
AcDbLine
 62
253
  6
CONTINUOUS
 10
-8.663963873
 20
23.9876061136
 11
-8.5773880274
 21
24.3781245164
  0
LWPOLYLINE
  5
430
100
AcDbEntity
  8
CURVE
100
AcDbPolyline
 62
253
  6
CONTINUOUS
 90
56
 70
0
 10
-7.8382915429
 20
19.248224908
 10
-7.8416422702
 20
19.2347528277
 10
-7.8444713495
 20
19.2212301057
 10
-7.8467990285
 20
19.2076172123
 10
-7.8486455548
 20
19.1938746181
 10
-7.8500311759
 20
19.1799627935
 10
-7.8508465433
 20
19.1682205302
 10
-7.8513565511
 20
19.1563627123
 10
-7.8515618518
 20
19.1444187577
 10
-7.8514648551
 20
19.1324077794
 10
-7.8510749983
 20
19.1203076715
 10
-7.8504034761
 20
19.1080860238
 10
-7.8494534908
 20
19.0957179361
 10
-7.8481962754
 20
19.0832085493
 10
-7.8465950707
 20
19.0705705149
 10
-7.8446163066
 20
19.0578239629
 10
-7.8422391687
 20
19.0450189384
 10
-7.8394460315
 20
19.0322129655
 10
-7.8362330132
 20
19.0194565294
 10
-7.8326512064
 20
19.0067719605
 10
-7.8287654469
 20
18.9941745507
 10
-7.8256860477
 20
18.9847961105
 10
-7.822471816
 20
18.9755010714
 10
-7.8191175361
 20
18.9663064894
 10
-7.8155984465
 20
18.9571945561
 10
-7.8118829104
 20
18.948141268
 10
-7.807931337
 20
18.9391327062
 10
-7.8037142672
 20
18.9301631552
 10
-7.7992507255
 20
18.9212496292
 10
-7.7945723367
 20
18.9124102217
 10
-7.7897126455
 20
18.9036446148
 10
-7.779594605
 20
18.8863111598
 10
-7.7744013929
 20
18.8777372537
 10
-7.7690906026
 20
18.8692639233
 10
-7.7636105632
 20
18.8609389547
 10
-7.7579112199
 20
18.8528113713
 10
-7.7519474375
 20
18.8449324632
 10
-7.7456921452
 20
18.8373613493
 10
-7.7391325956
 20
18.8301440416
 10
-7.7322952735
 20
18.8232662966
 10
-7.7252112266
 20
18.8166982545
 10
-7.7178905211
 20
18.8104078467
 10
-7.7103395884
 20
18.8043675927
 10
-7.7025713037
 20
18.7985705738
 10
-7.694600033
 20
18.7930142088
 10
-7.6864396639
 20
18.7876927068
 10
-7.6781034713
 20
18.7826010357
 10
-7.6696027566
 20
18.7777404076
 10
-7.6580361358
 20
18.7716188194
 10
-7.6462513112
 20
18.7658898125
 10
-7.6343033476
 20
18.7605302945
 10
-7.6222430982
 20
18.7555112963
 10
-7.61010457
 20
18.7507803425
 10
-7.5979175582
 20
18.7462790808
 10
-7.5795891173
 20
18.739837316
 10
-7.5611860226
 20
18.7336267291
  0
LINE
  5
431
100
AcDbEntity
  8
CURVE
100
AcDbLine
 62
253
  6
CONTINUOUS
 10
-2.6481170209
 20
18.2139764327
 11
-2.9481170343
 21
17.877976593
  0
LINE
  5
432
100
AcDbEntity
  8
CURVE
100
AcDbLine
 62
253
  6
CONTINUOUS
 10
-3.8481170745
 20
16.701976593
 11
-3.5481170298
 21
17.0379764327
  0
LINE
  5
433
100
AcDbEntity
  8
0
100
AcDbLine
 62
253
  6
CONTINUOUS
 10
-3.3921170209
 20
-15.3960234871
 11
-3.4921170209
 21
-15.4100234871
  0
LINE
  5
434
100
AcDbEntity
  8
0
100
AcDbLine
 62
253
  6
CONTINUOUS
 10
-7.9201170209
 20
-14.8640234871
 11
-7.8481170209
 21
-14.8540234871
  0
LINE
  5
435
100
AcDbEntity
  8
0
100
AcDbLine
 62
253
  6
CONTINUOUS
 10
-4.0541170209
 20
-15.4320234871
 11
-4.1461170209
 21
-15.4400234871
  0
LINE
  5
436
100
AcDbEntity
  8
0
100
AcDbLine
 62
253
  6
CONTINUOUS
 10
-7.7994276052
 20
-13.0756314042
 11
-7.7581170209
 21
-13.0720234871
  0
LINE
  5
437
100
AcDbEntity
  8
0
100
AcDbLine
 62
253
  6
CONTINUOUS
 10
-7.8407605944
 20
-13.0789647097
 11
-7.7994276052
 21
-13.0756314042
  0
LINE
  5
438
100
AcDbEntity
  8
0
100
AcDbLine
 62
253
  6
CONTINUOUS
 10
-7.8821170209
 20
-13.0820234871
 11
-7.8407605944
 21
-13.0789647097
  0
LINE
  5
439
100
AcDbEntity
  8
DRAFT
100
AcDbLine
 62
7
  6
CONTINUOUS
 10
-23.4219741957
 20
-13.9429574398
 11
-24.1481170209
 21
-13.9492943922
  0
LINE
  5
43A
100
AcDbEntity
  8
ASSI
100
AcDbLine
 62
7
  6
CONTINUOUS
 10
29.1518829791
 20
-15.2148167145
 11
29.3518829791
 21
-15.2148167145
  0
LINE
  5
43B
100
AcDbEntity
  8
ASSI
100
AcDbLine
 62
7
  6
CONTINUOUS
 10
29.1518829791
 20
-14.6548167145
 11
29.3518829791
 21
-14.6548167145
  0
LINE
  5
43C
100
AcDbEntity
  8
0
100
AcDbLine
 62
253
  6
CONTINUOUS
 10
-3.0481170209
 20
-13.8300234871
 11
-4.3481170209
 21
-13.8300234871
  0
LINE
  5
43D
100
AcDbEntity
  8
ASSI
100
AcDbLine
 62
7
  6
CONTINUOUS
 10
29.1518829791
 20
-13.8082157145
 11
29.3518829791
 21
-13.8082157145
  0
LINE
  5
43E
100
AcDbEntity
  8
ASSI
100
AcDbLine
 62
7
  6
CONTINUOUS
 10
29.1518829791
 20
-13.2853227145
 11
29.3518829791
 21
-13.2853227145
  0
LINE
  5
43F
100
AcDbEntity
  8
RACCORDO
100
AcDbLine
 62
7
  6
CONTINUOUS
 10
30.5518829791
 20
-12.9600234871
 11
29.3518829791
 21
-12.9600234871
  0
LINE
  5
440
100
AcDbEntity
  8
ASSI
100
AcDbLine
 62
7
  6
CONTINUOUS
 10
30.5518829791
 20
-12.9600234871
 11
29.3518829791
 21
-12.9600234871
  0
LINE
  5
441
100
AcDbEntity
  8
ASSI
100
AcDbLine
 62
7
  6
CONTINUOUS
 10
29.1518829791
 20
-12.7624297145
 11
29.3518829791
 21
-12.7624297145
  0
LINE
  5
442
100
AcDbEntity
  8
0
100
AcDbLine
 62
253
  6
CONTINUOUS
 10
-4.3481170209
 20
-12.5700234871
 11
-3.0481170209
 21
-12.5700234871
  0
LINE
  5
443
100
AcDbEntity
  8
0
100
AcDbLine
 62
253
  6
CONTINUOUS
 10
-6.2501170209
 20
-12.5140234871
 11
-4.9501170209
 21
-12.5140234871
  0
LINE
  5
444
100
AcDbEntity
  8
0
100
AcDbLine
 62
253
  6
CONTINUOUS
 10
-5.5981170209
 20
-12.1600234871
 11
-5.7441170209
 21
-12.1440234871
  0
LWPOLYLINE
  5
445
100
AcDbEntity
  8
0
100
AcDbPolyline
 62
253
  6
CONTINUOUS
 90
22
 70
0
 10
-7.1741170209
 20
-12.3840234871
 10
-7.1667641975
 20
-12.3851193054
 10
-7.1594423938
 20
-12.3863154356
 10
-7.1521519358
 20
-12.3876116524
 10
-7.1448931493
 20
-12.3890077308
 10
-7.1376663603
 20
-12.3905034453
 10
-7.1304718946
 20
-12.3920985707
 10
-7.1233100782
 20
-12.3937928819
 10
-7.1161810104
 20
-12.3955862389
 10
-7.1090838849
 20
-12.3974788436
 10
-7.1020176689
 20
-12.3994709835
 10
-7.0949813295
 20
-12.4015629459
 10
-7.0879738339
 20
-12.4037550181
 10
-7.0809941492
 20
-12.4060474875
 10
-7.0740412426
 20
-12.4084406414
 10
-7.0671143235
 20
-12.4109347307
 10
-7.0602135704
 20
-12.4135298599
 10
-7.0533394041
 20
-12.4162260971
 10
-7.0464922452
 20
-12.4190235104
 10
-7.0396725146
 20
-12.4219221678
 10
-7.0328806329
 20
-12.4249221374
 10
-7.0261170209
 20
-12.4280234871
  0
LINE
  5
446
100
AcDbEntity
  8
0
100
AcDbLine
 62
253
  6
CONTINUOUS
 10
-7.9441170209
 20
-13.0720234871
 11
-7.8821170209
 21
-13.0820234871
  0
LINE
  5
447
100
AcDbEntity
  8
0
100
AcDbLine
 62
253
  6
CONTINUOUS
 10
-5.7441170209
 20
-12.1440234871
 11
-5.8681170209
 21
-12.1040234871
  0
LINE
  5
448
100
AcDbEntity
  8
0
100
AcDbLine
 62
253
  6
CONTINUOUS
 10
-4.9501170209
 20
-13.3800234871
 11
-6.2501170209
 21
-12.8680234871
  0
LINE
  5
449
100
AcDbEntity
  8
0
100
AcDbLine
 62
253
  6
CONTINUOUS
 10
-6.8641170209
 20
-10.6600234871
 11
-8.1641170209
 21
-10.1100234871
  0
LINE
  5
44A
100
AcDbEntity
  8
0
100
AcDbLine
 62
253
  6
CONTINUOUS
 10
-3.0721170209
 20
-13.2060234871
 11
-4.3481170209
 21
-12.6660234871
  0
LINE
  5
44B
100
AcDbEntity
  8
0
100
AcDbLine
 62
253
  6
CONTINUOUS
 10
-3.0481170209
 20
-12.2420234871
 11
-4.3481170209
 21
-11.6900234871
  0
LINE
  5
44C
100
AcDbEntity
  8
0
100
AcDbLine
 62
253
  6
CONTINUOUS
 10
-5.8681170209
 20
-12.1040234871
 11
-5.9301170209
 21
-12.0760234871
  0
LINE
  5
44D
100
AcDbEntity
  8
0
100
AcDbLine
 62
253
  6
CONTINUOUS
 10
-7.7421170209
 20
-11.0920234871
 11
-7.6401170209
 21
-11.1420234871
  0
LINE
  5
44E
100
AcDbEntity
  8
0
100
AcDbLine
 62
253
  6
CONTINUOUS
 10
-3.2021170209
 20
-15.4500234871
 11
-3.2861170209
 21
-15.4080234871
  0
LINE
  5
44F
100
AcDbEntity
  8
0
100
AcDbLine
 62
253
  6
CONTINUOUS
 10
-8.0341170209
 20
-13.0260234871
 11
-7.9441170209
 21
-13.0720234871
  0
LINE
  5
450
100
AcDbEntity
  8
0
100
AcDbLine
 62
253
  6
CONTINUOUS
 10
-1.7181170209
 20
-15.7180234871
 11
-2.4481170209
 21
-15.2400234871
  0
LINE
  5
451
100
AcDbEntity
  8
0
100
AcDbLine
 62
253
  6
CONTINUOUS
 10
-5.9301170209
 20
-12.0760234871
 11
-6.0541170209
 21
-11.9920234871
  0
LINE
  5
452
100
AcDbEntity
  8
0
100
AcDbLine
 62
253
  6
CONTINUOUS
 10
-3.1341170209
 20
-15.5080234871
 11
-3.2021170209
 21
-15.4500234871
  0
LINE
  5
453
100
AcDbEntity
  8
0
100
AcDbLine
 62
253
  6
CONTINUOUS
 10
-7.0261170209
 20
-12.4280234871
 11
-7.0058838703
 21
-12.4464418409
  0
LINE
  5
454
100
AcDbEntity
  8
0
100
AcDbLine
 62
253
  6
CONTINUOUS
 10
-7.0058838703
 20
-12.4464418409
 11
-6.9857842356
 21
-12.4650018274
  0
LINE
  5
455
100
AcDbEntity
  8
0
100
AcDbLine
 62
253
  6
CONTINUOUS
 10
-6.9857842356
 20
-12.4650018274
 11
-6.9658178468
 21
-12.4837036813
  0
LWPOLYLINE
  5
456
100
AcDbEntity
  8
0
100
AcDbPolyline
 62
253
  6
CONTINUOUS
 90
3
 70
0
 10
-6.9658178468
 20
-12.4837036813
 10
-6.9459841195
 20
-12.5025479563
 10
-6.9361170209
 20
-12.5120234871
  0
LINE
  5
457
100
AcDbEntity
  8
0
100
AcDbLine
 62
253
  6
CONTINUOUS
 10
-4.2741170209
 20
-15.9940234871
 11
-4.2161170209
 21
-16.0520234871
  0
LINE
  5
458
100
AcDbEntity
  8
0
100
AcDbLine
 62
253
  6
CONTINUOUS
 10
-3.8181170209
 20
-15.5540234871
 11
-3.8821170209
 21
-15.4900234871
  0
LINE
  5
459
100
AcDbEntity
  8
0
100
AcDbLine
 62
253
  6
CONTINUOUS
 10
-6.0541170209
 20
-11.9920234871
 11
-6.0941170209
 21
-11.9520234871
  0
LINE
  5
45A
100
AcDbEntity
  8
0
100
AcDbLine
 62
253
  6
CONTINUOUS
 10
-3.0781170209
 20
-17.8020234871
 11
-3.1961170209
 21
-17.6800234871
  0
LWPOLYLINE
  5
45B
100
AcDbEntity
  8
0
100
AcDbPolyline
 62
253
  6
CONTINUOUS
 90
22
 70
0
 10
-6.0941170209
 20
-11.9520234871
 10
-6.0994123406
 20
-11.94554863
 10
-6.1046053494
 20
-11.9390160707
 10
-6.1096961245
 20
-11.9324264142
 10
-6.1146847432
 20
-11.9257802655
 10
-6.1195712827
 20
-11.9190782295
 10
-6.1243558201
 20
-11.9123209113
 10
-6.1290384328
 20
-11.9055089157
 10
-6.1336192803
 20
-11.8986425555
 10
-6.1380988521
 20
-11.8917209743
 10
-6.1424777199
 20
-11.8847430235
 10
-6.1467564555
 20
-11.8777075546
 10
-6.1509356308
 20
-11.8706134189
 10
-6.1550158175
 20
-11.8634594677
 10
-6.1589975875
 20
-11.8562445526
 10
-6.1628813804
 20
-11.8489677779
 10
-6.1666671074
 20
-11.8416292607
 10
-6.1703545476
 20
-11.8342293709
 10
-6.17394348
 20
-11.8267684786
 10
-6.1774336836
 20
-11.8192469539
 10
-6.1808249376
 20
-11.8116651667
 10
-6.1841170209
 20
-11.8040234871
  0
LWPOLYLINE
  5
45C
100
AcDbEntity
  8
0
100
AcDbPolyline
 62
253
  6
CONTINUOUS
 90
16
 70
0
 10
-8.0961170209
 20
-12.9580234871
 10
-8.0923207419
 20
-12.9628755427
 10
-8.0884762821
 20
-12.9676817474
 10
-8.0845838517
 20
-12.9724420218
 10
-8.0806436607
 20
-12.9771562863
 10
-8.0766559192
 20
-12.9818244613
 10
-8.0726207336
 20
-12.9864465484
 10
-8.0685377949
 20
-12.9910228736
 10
-8.0644066902
 20
-12.9955538437
 10
-8.0602270067
 20
-13.0000398657
 10
-8.0559983316
 20
-13.0044813466
 10
-8.0517203432
 20
-13.0088786022
 10
-8.0473930842
 20
-13.0132315838
 10
-8.0430166883
 20
-13.0175401517
 10
-8.0385912893
 20
-13.021804166
 10
-8.0341170209
 20
-13.0260234871
  0
LINE
  5
45D
100
AcDbEntity
  8
0
100
AcDbLine
 62
253
  6
CONTINUOUS
 10
-3.1561170209
 20
-18.7940234871
 11
-3.0941170209
 21
-18.8740234871
  0
LINE
  5
45E
100
AcDbEntity
  8
0
100
AcDbLine
 62
253
  6
CONTINUOUS
 10
-3.1541170209
 20
-16.5780234871
 11
-3.0921170209
 21
-16.6580234871
  0
LINE
  5
45F
100
AcDbEntity
  8
0
100
AcDbLine
 62
253
  6
CONTINUOUS
 10
-3.7701170209
 20
-20.0600234871
 11
-3.8201170209
 21
-19.9840234871
  0
LINE
  5
460
100
AcDbEntity
  8
0
100
AcDbLine
 62
253
  6
CONTINUOUS
 10
-4.3141170209
 20
-20.3660234871
 11
-4.2761170209
 21
-20.4240234871
  0
LINE
  5
461
100
AcDbEntity
  8
0
100
AcDbLine
 62
253
  6
CONTINUOUS
 10
-4.3121170209
 20
-15.9360234871
 11
-4.2741170209
 21
-15.9940234871
  0
LINE
  5
462
100
AcDbEntity
  8
0
100
AcDbLine
 62
253
  6
CONTINUOUS
 10
-7.6401170209
 20
-11.1420234871
 11
-7.5721170209
 21
-11.2500234871
  0
LINE
  5
463
100
AcDbEntity
  8
0
100
AcDbLine
 62
253
  6
CONTINUOUS
 10
-3.0841170209
 20
-20.0260234871
 11
-3.1361170209
 21
-19.9380234871
  0
LINE
  5
464
100
AcDbEntity
  8
0
100
AcDbLine
 62
253
  6
CONTINUOUS
 10
-3.7081170209
 20
-19.3360234871
 11
-3.7541170209
 21
-19.2540234871
  0
LINE
  5
465
100
AcDbEntity
  8
0
100
AcDbLine
 62
253
  6
CONTINUOUS
 10
-8.1521170209
 20
-12.8300234871
 11
-8.0961170209
 21
-12.9580234871
  0
LINE
  5
466
100
AcDbEntity
  8
0
100
AcDbLine
 62
253
  6
CONTINUOUS
 10
-8.663963873
 20
-24.4076530879
 11
-8.5773880274
 21
-24.7981714907
  0
LINE
  5
467
100
AcDbEntity
  8
0
100
AcDbLine
 62
7
  6
CONTINUOUS
 10
-10.0442568644
 20
23.7707085621
 11
-10.0478124344
 21
23.8725267645
  0
LINE
  5
468
100
AcDbEntity
  8
RACCORDO
100
AcDbLine
 62
7
  6
CONTINUOUS
 10
-11.1481170209
 20
-24.2100234871
 11
-11.1481170209
 21
23.7899765129
  0
LINE
  5
469
100
AcDbEntity
  8
ASSI
100
AcDbLine
 62
7
  6
CONTINUOUS
 10
-11.1481170209
 20
-24.2100234871
 11
-11.1481170209
 21
23.7899765129
  0
LINE
  5
46A
100
AcDbEntity
  8
0
100
AcDbLine
 62
253
  6
CONTINUOUS
 10
-9.5481170209
 20
-24.4100234871
 11
-9.5481170209
 21
-24.8100234871
  0
LINE
  5
46B
100
AcDbEntity
  8
0
100
AcDbLine
 62
253
  6
CONTINUOUS
 10
-9.5481170209
 20
23.9899765129
 11
-9.5481170209
 21
24.3899765129
  0
LINE
  5
46C
100
AcDbEntity
  8
0
100
AcDbLine
 62
7
  6
CONTINUOUS
 10
-10.0442568644
 20
-24.1907555364
 11
-10.0478124344
 21
-24.2925737388
  0
LINE
  5
46D
100
AcDbEntity
  8
CURVE
100
AcDbLine
 62
253
  6
CONTINUOUS
 10
-3.8481170745
 20
13.1739764528
 11
-3.5481170298
 21
13.5099764327
  0
LINE
  5
46E
100
AcDbEntity
  8
CURVE
100
AcDbLine
 62
253
  6
CONTINUOUS
 10
-2.6481170209
 20
12.6699765529
 11
-2.9481170343
 21
12.3339765729
  0
LINE
  5
46F
100
AcDbEntity
  8
CURVE
100
AcDbLine
 62
253
  6
CONTINUOUS
 10
7.2233115344
 20
16.8033094596
 11
7.4947400896
 21
16.9553098945
  0
LINE
  5
470
100
AcDbEntity
  8
CURVE
100
AcDbLine
 62
253
  6
CONTINUOUS
 10
8.5804543955
 20
16.043309822
 11
8.309025812
 21
15.8913098945
  0
LINE
  5
471
100
AcDbEntity
  8
0
100
AcDbLine
 62
253
  6
CONTINUOUS
 10
-4.1061170209
 20
-9.9200234871
 11
-4.0321170209
 21
-9.9080234871
  0
LINE
  5
472
100
AcDbEntity
  8
0
100
AcDbLine
 62
253
  6
CONTINUOUS
 10
-5.4361170209
 20
-12.1380234871
 11
-5.5981170209
 21
-12.1600234871
  0
LINE
  5
473
100
AcDbEntity
  8
0
100
AcDbLine
 62
253
  6
CONTINUOUS
 10
-3.6581170209
 20
-9.5720234871
 11
-3.5521170209
 21
-9.5600234871
  0
LINE
  5
474
100
AcDbEntity
  8
0
100
AcDbLine
 62
253
  6
CONTINUOUS
 10
-7.2681170209
 20
-12.3940234871
 11
-7.1741170209
 21
-12.3840234871
  0
LINE
  5
475
100
AcDbEntity
  8
ASSI
100
AcDbLine
 62
7
  6
CONTINUOUS
 10
29.1518829791
 20
-11.9158287145
 11
29.3518829791
 21
-11.9158287145
  0
LINE
  5
476
100
AcDbEntity
  8
0
100
AcDbLine
 62
253
  6
CONTINUOUS
 10
-6.8641170209
 20
-11.8060234871
 11
-8.1641170209
 21
-11.8060234871
  0
LINE
  5
477
100
AcDbEntity
  8
ASSI
100
AcDbLine
 62
7
  6
CONTINUOUS
 10
29.1518829791
 20
-11.5424837145
 11
29.3518829791
 21
-11.5424837145
  0
LINE
  5
478
100
AcDbEntity
  8
0
100
AcDbLine
 62
253
  6
CONTINUOUS
 10
-6.2501170209
 20
-10.8200234871
 11
-4.9501170209
 21
-10.8200234871
  0
LINE
  5
479
100
AcDbEntity
  8
0
100
AcDbLine
 62
253
  6
CONTINUOUS
 10
-3.0481170209
 20
-10.6660234871
 11
-4.3481170209
 21
-10.6660234871
  0
LINE
  5
47A
100
AcDbEntity
  8
ASSI
100
AcDbLine
 62
7
  6
CONTINUOUS
 10
29.1518829791
 20
-10.6434667145
 11
29.3518829791
 21
-10.6434667145
  0
LINE
  5
47B
100
AcDbEntity
  8
ASSI
100
AcDbLine
 62
7
  6
CONTINUOUS
 10
29.1518829791
 20
-10.0834177145
 11
29.3518829791
 21
-10.0834177145
  0
LINE
  5
47C
100
AcDbEntity
  8
0
100
AcDbLine
 62
253
  6
CONTINUOUS
 10
-4.9501170209
 20
-9.6460234871
 11
-6.2501170209
 21
-9.6460234871
  0
LINE
  5
47D
100
AcDbEntity
  8
ASSI
100
AcDbLine
 62
7
  6
CONTINUOUS
 10
29.1518829791
 20
-9.1843867145
 11
29.3518829791
 21
-9.1843867145
  0
LWPOLYLINE
  5
47E
100
AcDbEntity
  8
0
100
AcDbPolyline
 62
253
  6
CONTINUOUS
 90
16
 70
0
 10
-3.8541170209
 20
-9.5600234871
 10
-3.8409804476
 20
-9.5600449202
 10
-3.8278541786
 20
-9.5601780398
 10
-3.8147384753
 20
-9.5604226173
 10
-3.801633599
 20
-9.5607784243
 10
-3.7885398108
 20
-9.5612452322
 10
-3.7754571983
 20
-9.5618228716
 10
-3.7623851528
 20
-9.5625114097
 10
-3.749322892
 20
-9.5633109729
 10
-3.7362696335
 20
-9.5642216874
 10
-3.7232245949
 20
-9.5652436797
 10
-3.7101871675
 20
-9.566377046
 10
-3.697157437
 20
-9.5676217632
 10
-3.6841356628
 20
-9.5689777779
 10
-3.6711221043
 20
-9.570445037
 10
-3.6581170209
 20
-9.5720234871
  0
LWPOLYLINE
  5
47F
100
AcDbEntity
  8
0
100
AcDbPolyline
 62
253
  6
CONTINUOUS
 90
13
 70
0
 10
-7.8481170209
 20
-11.0760234871
 10
-7.8392335583
 20
-11.0770606288
 10
-7.8303593672
 20
-11.0781516762
 10
-7.8214945676
 20
-11.0792965673
 10
-7.8126392792
 20
-11.0804952399
 10
-7.8037935396
 20
-11.081747654
 10
-7.7949570584
 20
-11.0830538567
 10
-7.7861294628
 20
-11.0844139173
 10
-7.7773103804
 20
-11.0858279048
 10
-7.768499521
 20
-11.0872958726
 10
-7.7596969256
 20
-11.0888178099
 10
-7.7509027177
 20
-11.0903936903
 10
-7.7421170209
 20
-11.0920234871
  0
LWPOLYLINE
  5
480
100
AcDbEntity
  8
0
100
AcDbPolyline
 62
253
  6
CONTINUOUS
 90
34
 70
0
 10
-4.0005346804
 20
-9.9152221971
 10
-3.9691752078
 20
-9.9214319321
 10
-3.9613513534
 20
-9.9230581964
 10
-3.9535427455
 20
-9.9247685838
 10
-3.9457545963
 20
-9.9265900296
 10
-3.937992118
 20
-9.928549469
 10
-3.9321906847
 20
-9.9301259197
 10
-3.9264114828
 20
-9.9318071638
 10
-3.9206593717
 20
-9.9336052223
 10
-3.9149392109
 20
-9.9355321161
 10
-3.9092573866
 20
-9.9375993491
 10
-3.9036263913
 20
-9.939816358
 10
-3.8980600881
 20
-9.9421925753
 10
-3.8925717165
 20
-9.9447394869
 10
-3.8871739061
 20
-9.9474659705
 10
-3.8818774716
 20
-9.950368419
 10
-3.8766895763
 20
-9.9534371524
 10
-3.8716045936
 20
-9.9566506854
 10
-3.8666136186
 20
-9.9599852576
 10
-3.8617074233
 20
-9.9634198164
 10
-3.8568772322
 20
-9.9669365616
 10
-3.8521164024
 20
-9.9705279943
 10
-3.8458676204
 20
-9.9754271244
 10
-3.8397267398
 20
-9.9804558984
 10
-3.8336892147
 20
-9.9856199349
 10
-3.8277527178
 20
-9.9909219547
 10
-3.8219237947
 20
-9.9963530895
 10
-3.8162112094
 20
-10.0019015737
 10
-3.8106202417
 20
-10.0075603895
 10
-3.8051422355
 20
-10.0133415108
 10
-3.7997650505
 20
-10.0192616594
 10
-3.7944765465
 20
-10.0253375572
 10
-3.7892645834
 20
-10.0315859258
 10
-3.7841170209
 20
-10.0380234871
  0
LWPOLYLINE
  5
481
100
AcDbEntity
  8
0
100
AcDbPolyline
 62
253
  6
CONTINUOUS
 90
5
 70
0
 10
-4.0321170209
 20
-9.9080234871
 10
-4.0241786994
 20
-9.9100283922
 10
-4.0162733121
 20
-9.9118749195
 10
-4.008394194
 20
-9.9135954081
 10
-4.0005346804
 20
-9.9152221971
  0
LINE
  5
482
100
AcDbEntity
  8
0
100
AcDbLine
 62
253
  6
CONTINUOUS
 10
-4.0261170209
 20
-9.4880234871
 11
-3.8541170209
 21
-9.5600234871
  0
LINE
  5
483
100
AcDbEntity
  8
0
100
AcDbLine
 62
253
  6
CONTINUOUS
 10
-4.9741170209
 20
-8.2480234871
 11
-6.2221170209
 21
-7.3600234871
  0
LINE
  5
484
100
AcDbEntity
  8
0
100
AcDbLine
 62
253
  6
CONTINUOUS
 10
-4.1441170209
 20
-9.3980234871
 11
-4.0261170209
 21
-9.4880234871
  0
LINE
  5
485
100
AcDbEntity
  8
0
100
AcDbLine
 62
253
  6
CONTINUOUS
 10
-5.1201170209
 20
-11.1100234871
 11
-5.0701170209
 21
-11.1560234871
  0
LINE
  5
486
100
AcDbEntity
  8
0
100
AcDbLine
 62
253
  6
CONTINUOUS
 10
-4.2561170209
 20
-9.2640234871
 11
-4.1441170209
 21
-9.3980234871
  0
LWPOLYLINE
  5
487
100
AcDbEntity
  8
0
100
AcDbPolyline
 62
253
  6
CONTINUOUS
 90
16
 70
0
 10
-5.0701170209
 20
-11.1560234871
 10
-5.0662136623
 20
-11.1614610206
 10
-5.0624059275
 20
-11.1669966076
 10
-5.0586897694
 20
-11.1726267724
 10
-5.0550611407
 20
-11.1783480396
 10
-5.0515159945
 20
-11.1841569336
 10
-5.0480502835
 20
-11.1900499788
 10
-5.0446599606
 20
-11.1960236996
 10
-5.0413409788
 20
-11.2020746205
 10
-5.0380892909
 20
-11.2081992658
 10
-5.0349008498
 20
-11.2143941601
 10
-5.0309971775
 20
-11.2222314073
 10
-5.0271727233
 20
-11.2301670189
 10
-5.0234142061
 20
-11.2381950264
 10
-5.0197083443
 20
-11.2463094607
 10
-5.0160418569
 20
-11.2545043531
  0
LINE
  5
488
100
AcDbEntity
  8
0
100
AcDbLine
 62
253
  6
CONTINUOUS
 10
-3.7681170209
 20
-15.6300234871
 11
-3.8181170209
 21
-15.5540234871
  0
LINE
  5
489
100
AcDbEntity
  8
RACCORDO
100
AcDbLine
 62
7
  6
CONTINUOUS
 10
0.6553734604
 20
-20.5040689468
 11
0.7077178794
 21
-20.586987655
  0
LINE
  5
48A
100
AcDbEntity
  8
ASSI
100
AcDbLine
 62
7
  6
CONTINUOUS
 10
0.6553734604
 20
-20.5040689468
 11
0.7077178794
 21
-20.586987655
  0
LWPOLYLINE
  5
48B
100
AcDbEntity
  8
RACCORDO
100
AcDbPolyline
 62
7
  6
CONTINUOUS
 90
11
 70
0
 10
0.7077178794
 20
-20.586987655
 10
0.7322197922
 20
-20.6261549473
 10
0.7550227059
 20
-20.663930925
 10
0.7758832107
 20
-20.7001788615
 10
0.7947030436
 20
-20.7344885773
 10
0.811155596
 20
-20.7667539451
 10
0.825053337
 20
-20.7970810921
 10
0.8363726865
 20
-20.8253782202
 10
0.8448378061
 20
-20.8516147301
 10
0.8500881327
 20
-20.8758212211
 10
0.8518829791
 20
-20.8979976933
  0
LWPOLYLINE
  5
48C
100
AcDbEntity
  8
ASSI
100
AcDbPolyline
 62
7
  6
CONTINUOUS
 90
11
 70
0
 10
0.7077178794
 20
-20.586987655
 10
0.7322197922
 20
-20.6261549473
 10
0.7550227059
 20
-20.663930925
 10
0.7758832107
 20
-20.7001788615
 10
0.7947030436
 20
-20.7344885773
 10
0.811155596
 20
-20.7667539451
 10
0.825053337
 20
-20.7970810921
 10
0.8363726865
 20
-20.8253782202
 10
0.8448378061
 20
-20.8516147301
 10
0.8500881327
 20
-20.8758212211
 10
0.8518829791
 20
-20.8979976933
  0
LINE
  5
48D
100
AcDbEntity
  8
0
100
AcDbLine
 62
253
  6
CONTINUOUS
 10
-3.0821170209
 20
-15.5960234871
 11
-3.1341170209
 21
-15.5080234871
  0
LINE
  5
48E
100
AcDbEntity
  8
0
100
AcDbLine
 62
253
  6
CONTINUOUS
 10
-3.7061170209
 20
-17.1220234871
 11
-3.7521170209
 21
-17.0380234871
  0
LWPOLYLINE
  5
48F
100
AcDbEntity
  8
0
100
AcDbPolyline
 62
253
  6
CONTINUOUS
 90
22
 70
0
 10
-6.9361170209
 20
-12.5120234871
 10
-6.9313311173
 20
-12.5212236616
 10
-6.9266765517
 20
-12.5304172646
 10
-6.9221536956
 20
-12.5396056148
 10
-6.9177629204
 20
-12.5487900312
 10
-6.9135045974
 20
-12.5579718325
 10
-6.9093790981
 20
-12.5671523377
 10
-6.9053867937
 20
-12.5763328654
 10
-6.9015282458
 20
-12.5855140864
 10
-6.897804776
 20
-12.5946940789
 10
-6.894217896
 20
-12.6038702729
 10
-6.8907691174
 20
-12.6130400982
 10
-6.887459952
 20
-12.6222009851
 10
-6.8842919115
 20
-12.6313503634
 10
-6.8812665075
 20
-12.6404856631
 10
-6.8783849822
 20
-12.6496048998
 10
-6.8756474993
 20
-12.6587084305
 10
-6.8730539532
 20
-12.667797198
 10
-6.8706042381
 20
-12.6768721448
 10
-6.8682982482
 20
-12.6859342135
 10
-6.8661358777
 20
-12.6949843467
 10
-6.8641170209
 20
-12.7040234871
  0
LWPOLYLINE
  5
490
100
AcDbEntity
  8
0
100
AcDbPolyline
 62
253
  6
CONTINUOUS
 90
6
 70
0
 10
-4.994105276
 20
-11.3050170591
 10
-4.9903140793
 20
-11.3135915666
 10
-4.9864375507
 20
-11.322188102
 10
-4.9824577949
 20
-11.3307980263
 10
-4.9783569167
 20
-11.339412701
 10
-4.9741170209
 20
-11.3480234871
  0
LINE
  5
491
100
AcDbEntity
  8
0
100
AcDbLine
 62
253
  6
CONTINUOUS
 10
-5.0160418569
 20
-11.2545043531
 11
-5.0087738796
 21
-11.2711116369
  0
LINE
  5
492
100
AcDbEntity
  8
0
100
AcDbLine
 62
253
  6
CONTINUOUS
 10
-5.0087738796
 20
-11.2711116369
 11
-4.994105276
 21
-11.3050170591
  0
LWPOLYLINE
  5
493
100
AcDbEntity
  8
0
100
AcDbPolyline
 62
253
  6
CONTINUOUS
 90
22
 70
0
 10
-3.0941170209
 20
-18.8740234871
 10
-3.0906761332
 20
-18.882781515
 10
-3.0873709349
 20
-18.8915682969
 10
-3.0842012749
 20
-18.900383251
 10
-3.0811670024
 20
-18.9092257955
 10
-3.0782679663
 20
-18.9180953487
 10
-3.0755040158
 20
-18.9269913288
 10
-3.072875
 20
-18.9359131539
 10
-3.0703807429
 20
-18.9448605798
 10
-3.0680209693
 20
-18.9538347123
 10
-3.0657953791
 20
-18.9628369945
 10
-3.0637036721
 20
-18.9718688698
 10
-3.0617455483
 20
-18.9809317815
 10
-3.0599207074
 20
-18.9900271728
 10
-3.0582288493
 20
-18.9991564869
 10
-3.0566697698
 20
-19.0083208485
 10
-3.0552436478
 20
-19.0175201081
 10
-3.0539507582
 20
-19.0267537973
 10
-3.0527913759
 20
-19.0360214481
 10
-3.0517657757
 20
-19.0453225921
 10
-3.0508742324
 20
-19.0546567612
 10
-3.0501170209
 20
-19.0640234871
  0
LINE
  5
494
100
AcDbEntity
  8
0
100
AcDbLine
 62
253
  6
CONTINUOUS
 10
-6.1841170209
 20
-11.8040234871
 11
-6.2341170209
 21
-11.6740234871
  0
LINE
  5
495
100
AcDbEntity
  8
0
100
AcDbLine
 62
253
  6
CONTINUOUS
 10
-3.7341170209
 20
-20.1660234871
 11
-3.7701170209
 21
-20.0600234871
  0
LWPOLYLINE
  5
496
100
AcDbEntity
  8
0
100
AcDbPolyline
 62
253
  6
CONTINUOUS
 90
22
 70
0
 10
-3.7541170209
 20
-19.2540234871
 10
-3.7569110936
 20
-19.2453828869
 10
-3.7595873455
 20
-19.2367210454
 10
-3.7621457469
 20
-19.2280383706
 10
-3.7645862679
 20
-19.2193352707
 10
-3.7669088787
 20
-19.2106121537
 10
-3.7691135494
 20
-19.2018694277
 10
-3.7712002501
 20
-19.1931075008
 10
-3.7731690032
 20
-19.1843265197
 10
-3.7750200394
 20
-19.1755255854
 10
-3.7767536418
 20
-19.1667035377
 10
-3.7783700933
 20
-19.1578592164
 10
-3.7798696768
 20
-19.1489914611
 10
-3.7812526753
 20
-19.1400991115
 10
-3.7825193719
 20
-19.1311810074
 10
-3.7836699428
 20
-19.1222362445
 10
-3.7847041384
 20
-19.1132649423
 10
-3.7856216026
 20
-19.1042674764
 10
-3.7864219792
 20
-19.0952442223
 10
-3.7871049119
 20
-19.0861955558
 10
-3.7876700445
 20
-19.0771218522
 10
-3.7881170209
 20
-19.0680234871
  0
LWPOLYLINE
  5
497
100
AcDbEntity
  8
0
100
AcDbPolyline
 62
253
  6
CONTINUOUS
 90
23
 70
0
 10
-7.5981170209
 20
-14.9840234871
 10
-7.5971508987
 20
-14.9870238135
 10
-7.5961450432
 20
-14.9900019782
 10
-7.5950996822
 20
-14.9929578856
 10
-7.5940150435
 20
-14.9958914397
 10
-7.5928913549
 20
-14.9988025448
 10
-7.5917288444
 20
-15.0016911049
 10
-7.5905277397
 20
-15.0045570243
 10
-7.5892882688
 20
-15.0074002072
 10
-7.5878249211
 20
-15.0106217235
 10
-7.5863113647
 20
-15.0138140437
 10
-7.584747204
 20
-15.0169777937
 10
-7.5831320438
 20
-15.0201135993
 10
-7.5814654887
 20
-15.0232220864
 10
-7.5797471435
 20
-15.0263038809
 10
-7.5779766126
 20
-15.0293596087
 10
-7.576153584
 20
-15.0323897529
 10
-7.5742780782
 20
-15.0353942263
 10
-7.5723501988
 20
-15.0383727991
 10
-7.5703700497
 20
-15.0413252414
 10
-7.5683377346
 20
-15.0442513235
 10
-7.5662533571
 20
-15.0471508153
 10
-7.5641170209
 20
-15.0500234871
  0
LINE
  5
498
100
AcDbEntity
  8
0
100
AcDbLine
 62
253
  6
CONTINUOUS
 10
-7.5721170209
 20
-11.2500234871
 11
-7.5401170209
 21
-11.3740234871
  0
LWPOLYLINE
  5
499
100
AcDbEntity
  8
0
100
AcDbPolyline
 62
253
  6
CONTINUOUS
 90
17
 70
0
 10
-7.5464881999
 20
-15.1410649267
 10
-7.5437925553
 20
-15.1544085207
 10
-7.541204135
 20
-15.167870396
 10
-7.5387775253
 20
-15.1814580423
 10
-7.5365571612
 20
-15.1951796526
 10
-7.5345849402
 20
-15.2090435964
 10
-7.532892524
 20
-15.2230551717
 10
-7.5314706329
 20
-15.2372073925
 10
-7.5302997515
 20
-15.2514902016
 10
-7.5293612261
 20
-15.265894466
 10
-7.5286398498
 20
-15.2804147477
 10
-7.5281212773
 20
-15.2950465329
 10
-7.527745249
 20
-15.3127464745
 10
-7.5276083476
 20
-15.3305985033
 10
-7.52767832
 20
-15.348600641
 10
-7.527922913
 20
-15.3667509099
 10
-7.5283098734
 20
-15.3850473318
  0
LWPOLYLINE
  5
49A
100
AcDbEntity
  8
0
100
AcDbPolyline
 62
253
  6
CONTINUOUS
 90
5
 70
0
 10
-7.5641170209
 20
-15.0500234871
 10
-7.5615929285
 20
-15.0654586935
 10
-7.5587705255
 20
-15.0809285167
 10
-7.5557218612
 20
-15.096461618
 10
-7.5464881999
 20
-15.1410649267
  0
LINE
  5
49B
100
AcDbEntity
  8
0
100
AcDbLine
 62
253
  6
CONTINUOUS
 10
-6.2341170209
 20
-11.6740234871
 11
-6.2501170209
 21
-11.5160234871
  0
LINE
  5
49C
100
AcDbEntity
  8
0
100
AcDbLine
 62
253
  6
CONTINUOUS
 10
-7.5401170209
 20
-11.3740234871
 11
-7.5341170209
 21
-11.4800234871
  0
LINE
  5
49D
100
AcDbEntity
  8
0
100
AcDbLine
 62
7
  6
CONTINUOUS
 10
-9.6437689316
 20
23.7637180193
 11
-9.6480561036
 21
23.8864865632
  0
LINE
  5
49E
100
AcDbEntity
  8
CURVE
100
AcDbLine
 62
253
  6
CONTINUOUS
 10
-8.1428007071
 20
12.8962496657
 11
-8.1470250209
 21
13.0126855604
  0
LINE
  5
49F
100
AcDbEntity
  8
0
100
AcDbLine
 62
253
  6
CONTINUOUS
 10
-8.6856078343
 20
-24.4100234871
 11
-8.6856078343
 21
-24.8100234871
  0
LINE
  5
4A0
100
AcDbEntity
  8
0
100
AcDbLine
 62
253
  6
CONTINUOUS
 10
-8.6856078343
 20
23.9899765129
 11
-8.6856078343
 21
24.3899765129
  0
LINE
  5
4A1
100
AcDbEntity
  8
0
100
AcDbLine
 62
253
  6
CONTINUOUS
 10
-8.1641170209
 20
-18.7740234871
 11
-8.1641170209
 21
-18.6840234871
  0
LINE
  5
4A2
100
AcDbEntity
  8
0
100
AcDbLine
 62
253
  6
CONTINUOUS
 10
-8.1641170209
 20
-17.6100234871
 11
-8.1641170209
 21
-17.5140234871
  0
LINE
  5
4A3
100
AcDbEntity
  8
0
100
AcDbLine
 62
253
  6
CONTINUOUS
 10
-8.1641170209
 20
-16.6360234871
 11
-8.1641170209
 21
-16.5780234871
  0
LINE
  5
4A4
100
AcDbEntity
  8
0
100
AcDbLine
 62
253
  6
CONTINUOUS
 10
-8.1641170209
 20
-15.6100234871
 11
-8.1641170209
 21
-15.1800234871
  0
LINE
  5
4A5
100
AcDbEntity
  8
0
100
AcDbLine
 62
253
  6
CONTINUOUS
 10
-8.1641170209
 20
-11.8060234871
 11
-8.1641170209
 21
-11.4020234871
  0
LINE
  5
4A6
100
AcDbEntity
  8
0
100
AcDbLine
 62
253
  6
CONTINUOUS
 10
-8.1641170209
 20
-10.1100234871
 11
-8.1641170209
 21
-10.0520234871
  0
LINE
  5
4A7
100
AcDbEntity
  8
CURVE
100
AcDbLine
 62
253
  6
CONTINUOUS
 10
-8.1470250209
 20
13.0126855604
 11
-8.1470250209
 21
13.7715545129
  0
LINE
  5
4A8
100
AcDbEntity
  8
CURVE
100
AcDbLine
 62
253
  6
CONTINUOUS
 10
-8.1470250209
 20
15.6379778961
 11
-8.1470250209
 21
16.8167315129
  0
LINE
  5
4A9
100
AcDbEntity
  8
CURVE
100
AcDbLine
 62
253
  6
CONTINUOUS
 10
-8.1470250209
 20
18.3868165129
 11
-8.1470250209
 21
19.7717189723
  0
LINE
  5
4AA
100
AcDbEntity
  8
0
100
AcDbLine
 62
253
  6
CONTINUOUS
 10
-7.5341170209
 20
-11.4800234871
 11
-7.5341170209
 21
-11.7840234871
  0
LINE
  5
4AB
100
AcDbEntity
  8
0
100
AcDbLine
 62
253
  6
CONTINUOUS
 10
-7.2421170209
 20
-17.0260234871
 11
-7.2421170209
 21
-16.1880234871
  0
LINE
  5
4AC
100
AcDbEntity
  8
0
100
AcDbLine
 62
253
  6
CONTINUOUS
 10
-7.2421170209
 20
-10.5000234871
 11
-7.2421170209
 21
-9.6620234871
  0
LINE
  5
4AD
100
AcDbEntity
  8
0
100
AcDbLine
 62
253
  6
CONTINUOUS
 10
-6.8641170209
 20
-20.0800234871
 11
-6.8641170209
 21
-20.0460234871
  0
LINE
  5
4AE
100
AcDbEntity
  8
0
100
AcDbLine
 62
253
  6
CONTINUOUS
 10
-6.8641170209
 20
-12.7040234871
 11
-6.8641170209
 21
-12.8180234871
  0
LINE
  5
4AF
100
AcDbEntity
  8
0
100
AcDbLine
 62
253
  6
CONTINUOUS
 10
-6.2521170209
 20
-7.3600234871
 11
-6.2521170209
 21
-8.3040234871
  0
LINE
  5
4B0
100
AcDbEntity
  8
0
100
AcDbLine
 62
253
  6
CONTINUOUS
 10
-6.2501170209
 20
-18.2680234871
 11
-6.2501170209
 21
-18.2100234871
  0
LINE
  5
4B1
100
AcDbEntity
  8
0
100
AcDbLine
 62
253
  6
CONTINUOUS
 10
-6.2501170209
 20
-9.6460234871
 11
-6.2501170209
 21
-9.5800234871
  0
LINE
  5
4B2
100
AcDbEntity
  8
0
100
AcDbLine
 62
253
  6
CONTINUOUS
 10
-6.2501170209
 20
-6.4520234871
 11
-6.2501170209
 21
-6.3940234871
  0
LINE
  5
4B3
100
AcDbEntity
  8
0
100
AcDbLine
 62
253
  6
CONTINUOUS
 10
-6.2501170209
 20
-3.0140234871
 11
-6.2501170209
 21
-2.9660234871
  0
LINE
  5
4B4
100
AcDbEntity
  8
0
100
AcDbLine
 62
253
  6
CONTINUOUS
 10
-6.2501170209
 20
-3.9380234871
 11
-6.2501170209
 21
-3.9700234871
  0
LINE
  5
4B5
100
AcDbEntity
  8
0
100
AcDbLine
 62
253
  6
CONTINUOUS
 10
-6.2501170209
 20
-9.9920234871
 11
-6.2501170209
 21
-10.8200234871
  0
LINE
  5
4B6
100
AcDbEntity
  8
0
100
AcDbLine
 62
253
  6
CONTINUOUS
 10
-6.2501170209
 20
-15.4260234871
 11
-6.2501170209
 21
-16.2540234871
  0
LWPOLYLINE
  5
4B7
100
AcDbEntity
  8
0
100
AcDbPolyline
 62
253
  6
CONTINUOUS
 90
7
 70
0
 10
-7.5304573202
 20
-15.4596811452
 10
-7.5309017052
 20
-15.4787035918
 10
-7.5312110295
 20
-15.4978725837
 10
-7.5313362582
 20
-15.5171885952
 10
-7.5312283564
 20
-15.5366521002
 10
-7.5308382889
 20
-15.5562635728
 10
-7.5301170209
 20
-15.5760234871
  0
LINE
  5
4B8
100
AcDbEntity
  8
0
100
AcDbLine
 62
253
  6
CONTINUOUS
 10
-7.5283098734
 20
-15.3850473318
 11
-7.5304573202
 21
-15.4596811452
  0
LINE
  5
4B9
100
AcDbEntity
  8
0
100
AcDbLine
 62
7
  6
CONTINUOUS
 10
-9.6437689316
 20
-24.1837649936
 11
-9.6480561036
 21
-24.3065335375
  0
LWPOLYLINE
  5
4BA
100
AcDbEntity
  8
0
100
AcDbPolyline
 62
253
  6
CONTINUOUS
 90
22
 70
0
 10
-8.1641170209
 20
-12.6720234871
 10
-8.1647005712
 20
-12.6796592296
 10
-8.1651675221
 20
-12.6872833304
 10
-8.1655182159
 20
-12.6948953332
 10
-8.1657529951
 20
-12.7024947818
 10
-8.1658722019
 20
-12.7100812199
 10
-8.1658761789
 20
-12.7176541914
 10
-8.1657652684
 20
-12.7252132399
 10
-8.1655397292
 20
-12.7327582013
 10
-8.1651994854
 20
-12.7402900796
 10
-8.1647443777
 20
-12.7478101707
 10
-8.1641742465
 20
-12.7553197707
 10
-8.1634889326
 20
-12.7628201755
 10
-8.1626882764
 20
-12.7703126813
 10
-8.1617721184
 20
-12.777798584
 10
-8.1607403152
 20
-12.7852788869
 10
-8.1595927868
 20
-12.7927534226
 10
-8.1583294689
 20
-12.8002217309
 10
-8.1569502975
 20
-12.8076833517
 10
-8.1554552085
 20
-12.8151378248
 10
-8.1538441376
 20
-12.82258469
 10
-8.1521170209
 20
-12.8300234871
  0
LINE
  5
4BB
100
AcDbEntity
  8
0
100
AcDbLine
 62
253
  6
CONTINUOUS
 10
-8.1641170209
 20
-15.1800234871
 11
-8.1581170209
 21
-15.1360234871
  0
LINE
  5
4BC
100
AcDbEntity
  8
0
100
AcDbLine
 62
253
  6
CONTINUOUS
 10
-8.1461170209
 20
-12.5640234871
 11
-8.1641170209
 21
-12.6720234871
  0
LWPOLYLINE
  5
4BD
100
AcDbEntity
  8
0
100
AcDbPolyline
 62
253
  6
CONTINUOUS
 90
22
 70
0
 10
-3.8081170209
 20
-8.3280234871
 10
-3.8191628506
 20
-8.3301434684
 10
-3.8301137665
 20
-8.3323799894
 10
-3.8409706999
 20
-8.33473258
 10
-3.8517345824
 20
-8.3372007697
 10
-3.8624063452
 20
-8.3397840882
 10
-3.8729869198
 20
-8.342482065
 10
-3.8834772376
 20
-8.34529423
 10
-3.8938776967
 20
-8.3482199553
 10
-3.9041865625
 20
-8.3512579844
 10
-3.9144015673
 20
-8.3544069032
 10
-3.9245204431
 20
-8.3576652978
 10
-3.9345409221
 20
-8.3610317541
 10
-3.9444607365
 20
-8.3645048581
 10
-3.9542776185
 20
-8.3680831959
 10
-3.9639898653
 20
-8.3717655406
 10
-3.9735980347
 20
-8.3755514133
 10
-3.9831032496
 20
-8.3794405224
 10
-3.9925066328
 20
-8.383432576
 10
-4.0018093071
 20
-8.3875272825
 10
-4.0110123956
 20
-8.3917243501
 10
-4.0201170209
 20
-8.3960234871
  0
LINE
  5
4BE
100
AcDbEntity
  8
0
100
AcDbLine
 62
253
  6
CONTINUOUS
 10
-3.4541170209
 20
-7.2680234871
 11
-3.3581170209
 21
-7.2560234871
  0
LINE
  5
4BF
100
AcDbEntity
  8
0
100
AcDbLine
 62
253
  6
CONTINUOUS
 10
-3.9716440616
 20
-7.9485842427
 11
-3.9441170209
 21
-7.9460234871
  0
LINE
  5
4C0
100
AcDbEntity
  8
0
100
AcDbLine
 62
253
  6
CONTINUOUS
 10
-3.6921170209
 20
-8.3180234871
 11
-3.8081170209
 21
-8.3280234871
  0
LINE
  5
4C1
100
AcDbEntity
  8
0
100
AcDbLine
 62
253
  6
CONTINUOUS
 10
-3.999186856
 20
-7.950951506
 11
-3.9716440616
 21
-7.9485842427
  0
LINE
  5
4C2
100
AcDbEntity
  8
0
100
AcDbLine
 62
253
  6
CONTINUOUS
 10
-4.026745903
 20
-7.9531253209
 11
-3.999186856
 21
-7.950951506
  0
LWPOLYLINE
  5
4C3
100
AcDbEntity
  8
0
100
AcDbPolyline
 62
253
  6
CONTINUOUS
 90
3
 70
0
 10
-4.0681170209
 20
-7.9560234871
 10
-4.0543223247
 20
-7.9551057822
 10
-4.026745903
 20
-7.9531253209
  0
LINE
  5
4C4
100
AcDbEntity
  8
ASSI
100
AcDbLine
 62
7
  6
CONTINUOUS
 10
29.1518829791
 20
-8.8110417145
 11
29.3518829791
 21
-8.8110417145
  0
LINE
  5
4C5
100
AcDbEntity
  8
0
100
AcDbLine
 62
253
  6
CONTINUOUS
 10
-4.9501170209
 20
-8.6000234871
 11
-6.2501170209
 21
-8.6000234871
  0
LINE
  5
4C6
100
AcDbEntity
  8
0
100
AcDbLine
 62
253
  6
CONTINUOUS
 10
-4.9501170209
 20
-8.2480234871
 11
-4.9741170209
 21
-8.2480234871
  0
LINE
  5
4C7
100
AcDbEntity
  8
ASSI
100
AcDbLine
 62
7
  6
CONTINUOUS
 10
29.1518829791
 20
-7.4996617145
 11
29.3518829791
 21
-7.4996617145
  0
LINE
  5
4C8
100
AcDbEntity
  8
0
100
AcDbLine
 62
253
  6
CONTINUOUS
 10
-6.2221170209
 20
-7.3600234871
 11
-6.2521170209
 21
-7.3600234871
  0
LINE
  5
4C9
100
AcDbEntity
  8
ASSI
100
AcDbLine
 62
7
  6
CONTINUOUS
 10
29.1518829791
 20
-6.6409402151
 11
29.3518829791
 21
-6.6409402151
  0
LINE
  5
4CA
100
AcDbEntity
  8
ASSI
100
AcDbLine
 62
7
  6
CONTINUOUS
 10
29.1518829791
 20
-6.5701877145
 11
29.3518829791
 21
-6.5701877145
  0
LINE
  5
4CB
100
AcDbEntity
  8
RACCORDO
100
AcDbLine
 62
7
  6
CONTINUOUS
 10
30.5518829791
 20
-6.4600234871
 11
29.1518829791
 21
-6.4600234871
  0
LINE
  5
4CC
100
AcDbEntity
  8
ASSI
100
AcDbLine
 62
7
  6
CONTINUOUS
 10
30.5518829791
 20
-6.4600234871
 11
29.1518829791
 21
-6.4600234871
  0
LINE
  5
4CD
100
AcDbEntity
  8
0
100
AcDbLine
 62
253
  6
CONTINUOUS
 10
-3.0481170209
 20
-6.3180234871
 11
-4.3481170209
 21
-6.3180234871
  0
LINE
  5
4CE
100
AcDbEntity
  8
0
100
AcDbLine
 62
253
  6
CONTINUOUS
 10
-3.5341170209
 20
-8.3280234871
 11
-3.6921170209
 21
-8.3180234871
  0
LINE
  5
4CF
100
AcDbEntity
  8
0
100
AcDbLine
 62
253
  6
CONTINUOUS
 10
-4.1301170209
 20
-7.9460234871
 11
-4.0681170209
 21
-7.9560234871
  0
LWPOLYLINE
  5
4D0
100
AcDbEntity
  8
0
100
AcDbPolyline
 62
253
  6
CONTINUOUS
 90
19
 70
0
 10
-3.3581170209
 20
-7.2560234871
 10
-3.3497193415
 20
-7.257684464
 10
-3.3413558415
 20
-7.2594508439
 10
-3.3330268384
 20
-7.261322438
 10
-3.3247326493
 20
-7.2632990574
 10
-3.3164735917
 20
-7.2653805133
 10
-3.3082499828
 20
-7.2675666169
 10
-3.3000619197
 20
-7.2698572598
 10
-3.2919086186
 20
-7.2722526555
 10
-3.2837890756
 20
-7.2747530983
 10
-3.2757022867
 20
-7.2773588822
 10
-3.2676472478
 20
-7.2800703014
 10
-3.2596229551
 20
-7.2828876499
 10
-3.2516286377
 20
-7.285811179
 10
-3.2436644578
 20
-7.2888409691
 10
-3.2357308108
 20
-7.2919770575
 10
-3.227828092
 20
-7.2952194817
 10
-3.2199566969
 20
-7.2985682791
 10
-3.2121170209
 20
-7.3020234871
  0
LINE
  5
4D1
100
AcDbEntity
  8
0
100
AcDbLine
 62
253
  6
CONTINUOUS
 10
-3.8421170209
 20
-5.0600234871
 11
-3.9661170209
 21
-5.0200234871
  0
LWPOLYLINE
  5
4D2
100
AcDbEntity
  8
0
100
AcDbPolyline
 62
253
  6
CONTINUOUS
 90
13
 70
0
 10
-3.3681170209
 20
-8.3900234871
 10
-3.3821702473
 20
-8.3854086457
 10
-3.3961830748
 20
-8.3806933975
 10
-3.4101552467
 20
-8.3758779699
 10
-3.4240865063
 20
-8.3709625901
 10
-3.4379767852
 20
-8.3659473873
 10
-3.4518267689
 20
-8.3608320973
 10
-3.4656373312
 20
-8.3556163577
 10
-3.4794093459
 20
-8.350299806
 10
-3.4931434933
 20
-8.344882162
 10
-3.5068396798
 20
-8.3393634739
 10
-3.520497618
 20
-8.3337438722
 10
-3.5341170209
 20
-8.3280234871
  0
LINE
  5
4D3
100
AcDbEntity
  8
0
100
AcDbLine
 62
253
  6
CONTINUOUS
 10
-4.9501170209
 20
-7.0020234871
 11
-6.2501170209
 21
-6.4520234871
  0
LINE
  5
4D4
100
AcDbEntity
  8
0
100
AcDbLine
 62
253
  6
CONTINUOUS
 10
-3.9661170209
 20
-5.0200234871
 11
-4.0281170209
 21
-4.9920234871
  0
LINE
  5
4D5
100
AcDbEntity
  8
0
100
AcDbLine
 62
253
  6
CONTINUOUS
 10
-4.2201170209
 20
-7.9000234871
 11
-4.1301170209
 21
-7.9460234871
  0
LINE
  5
4D6
100
AcDbEntity
  8
0
100
AcDbLine
 62
253
  6
CONTINUOUS
 10
-4.0281170209
 20
-4.9920234871
 11
-4.1521170209
 21
-4.9060234871
  0
LWPOLYLINE
  5
4D7
100
AcDbEntity
  8
0
100
AcDbPolyline
 62
253
  6
CONTINUOUS
 90
13
 70
0
 10
-3.2281170209
 20
-8.4860234871
 10
-3.2394115297
 20
-8.4774736694
 10
-3.2507735134
 20
-8.4690240657
 10
-3.26220273
 20
-8.4606747759
 10
-3.2736989371
 20
-8.4524258997
 10
-3.2852620386
 20
-8.4442774498
 10
-3.2968925216
 20
-8.4362290916
 10
-3.3085910189
 20
-8.4282804031
 10
-3.3203581636
 20
-8.4204309628
 10
-3.3321944503
 20
-8.4126804464
 10
-3.3440998202
 20
-8.4050289196
 10
-3.3560740761
 20
-8.3974765454
 10
-3.3681170209
 20
-8.3900234871
  0
LWPOLYLINE
  5
4D8
100
AcDbEntity
  8
0
100
AcDbPolyline
 62
253
  6
CONTINUOUS
 90
16
 70
0
 10
-3.2121170209
 20
-7.3020234871
 10
-3.2057799086
 20
-7.3072697484
 10
-3.1994911641
 20
-7.3125665117
 10
-3.1932508651
 20
-7.3179136363
 10
-3.1870590889
 20
-7.3233109819
 10
-3.1809159132
 20
-7.3287584078
 10
-3.1748213492
 20
-7.3342558494
 10
-3.1687751429
 20
-7.3398035456
 10
-3.1627769742
 20
-7.3454018113
 10
-3.1568265229
 20
-7.3510509613
 10
-3.1509234687
 20
-7.3567513105
 10
-3.145067564
 20
-7.3625031052
 10
-3.1392588516
 20
-7.368306317
 10
-3.1334974467
 20
-7.3741608492
 10
-3.1277834647
 20
-7.3800666049
 10
-3.1221170209
 20
-7.3860234871
  0
LINE
  5
4D9
100
AcDbEntity
  8
0
100
AcDbLine
 62
253
  6
CONTINUOUS
 10
-4.1521170209
 20
-4.9060234871
 11
-4.1921170209
 21
-4.8680234871
  0
LINE
  5
4DA
100
AcDbEntity
  8
0
100
AcDbLine
 62
253
  6
CONTINUOUS
 10
-3.1321170209
 20
-8.6020234871
 11
-3.1642955741
 21
-8.5635038338
  0
LINE
  5
4DB
100
AcDbEntity
  8
0
100
AcDbLine
 62
253
  6
CONTINUOUS
 10
-3.1642955741
 20
-8.5635038338
 11
-3.1962955702
 21
-8.5248371736
  0
LINE
  5
4DC
100
AcDbEntity
  8
0
100
AcDbLine
 62
253
  6
CONTINUOUS
 10
-3.1962955702
 20
-8.5248371736
 11
-3.2281170209
 21
-8.4860234871
  0
LWPOLYLINE
  5
4DD
100
AcDbEntity
  8
0
100
AcDbPolyline
 62
253
  6
CONTINUOUS
 90
22
 70
0
 10
-4.1921170209
 20
-4.8680234871
 10
-4.1974123406
 20
-4.86154863
 10
-4.2026053494
 20
-4.8550160707
 10
-4.2076961245
 20
-4.8484264142
 10
-4.2126847432
 20
-4.8417802655
 10
-4.2175712827
 20
-4.8350782295
 10
-4.2223558201
 20
-4.8283209113
 10
-4.2270384328
 20
-4.8215089157
 10
-4.2316192803
 20
-4.8146425555
 10
-4.2360988521
 20
-4.8077209743
 10
-4.2404777199
 20
-4.8007430235
 10
-4.2447564555
 20
-4.7937075546
 10
-4.2489356308
 20
-4.7866134189
 10
-4.2530158175
 20
-4.7794594677
 10
-4.2569975875
 20
-4.7722445526
 10
-4.2608813804
 20
-4.7649677779
 10
-4.2646671074
 20
-4.7576292607
 10
-4.2683545476
 20
-4.7502293709
 10
-4.27194348
 20
-4.7427684786
 10
-4.2754336836
 20
-4.7352469539
 10
-4.2788249376
 20
-4.7276651667
 10
-4.2821170209
 20
-4.7200234871
  0
LINE
  5
4DE
100
AcDbEntity
  8
0
100
AcDbLine
 62
253
  6
CONTINUOUS
 10
-6.2501170209
 20
-3.9700234871
 11
-6.0121170209
 21
-4.2680234871
  0
LWPOLYLINE
  5
4DF
100
AcDbEntity
  8
0
100
AcDbPolyline
 62
253
  6
CONTINUOUS
 90
16
 70
0
 10
-4.2821170209
 20
-7.8320234871
 10
-4.2783207419
 20
-7.8368755427
 10
-4.2744762821
 20
-7.8416817474
 10
-4.2705838517
 20
-7.8464420218
 10
-4.2666436607
 20
-7.8511562863
 10
-4.2626559192
 20
-7.8558244613
 10
-4.2586207336
 20
-7.8604465484
 10
-4.2545377949
 20
-7.8650228736
 10
-4.2504066902
 20
-7.8695538437
 10
-4.2462270067
 20
-7.8740398657
 10
-4.2419983316
 20
-7.8784813466
 10
-4.2377203432
 20
-7.8828786022
 10
-4.2333930842
 20
-7.8872315838
 10
-4.2290166883
 20
-7.8915401517
 10
-4.2245912893
 20
-7.895804166
 10
-4.2201170209
 20
-7.9000234871
  0
LWPOLYLINE
  5
4E0
100
AcDbEntity
  8
0
100
AcDbPolyline
 62
253
  6
CONTINUOUS
 90
21
 70
0
 10
-3.1221170209
 20
-7.3860234871
 10
-3.1177586179
 20
-7.3942873414
 10
-3.1134843823
 20
-7.402640437
 10
-3.1092939675
 20
-7.4110833642
 10
-3.1051870266
 20
-7.4196167131
 10
-3.101163213
 20
-7.4282410739
 10
-3.0972221798
 20
-7.436957037
 10
-3.0933635803
 20
-7.4457651926
 10
-3.0895872057
 20
-7.4546656874
 10
-3.0858933993
 20
-7.4636568948
 10
-3.0822826423
 20
-7.472736745
 10
-3.0787554158
 20
-7.481903168
 10
-3.075312201
 20
-7.4911540937
 10
-3.0719534792
 20
-7.5004874522
 10
-3.0686797316
 20
-7.5099011736
 10
-3.0649680929
 20
-7.520983351
 10
-3.0613716943
 20
-7.5321729729
 10
-3.0578894619
 20
-7.5434709183
 10
-3.0545203216
 20
-7.5548780664
 10
-3.0512631992
 20
-7.5663952963
 10
-3.0481170209
 20
-7.5780234871
  0
LINE
  5
4E1
100
AcDbEntity
  8
0
100
AcDbLine
 62
253
  6
CONTINUOUS
 10
-4.3381170209
 20
-7.7020234871
 11
-4.2821170209
 21
-7.8320234871
  0
LWPOLYLINE
  5
4E2
100
AcDbEntity
  8
0
100
AcDbPolyline
 62
253
  6
CONTINUOUS
 90
22
 70
0
 10
-3.0921170209
 20
-16.6580234871
 10
-3.0886357714
 20
-16.6668693621
 10
-3.0852942468
 20
-16.6757447019
 10
-3.0820923043
 20
-16.6846489027
 10
-3.0790298009
 20
-16.6935813612
 10
-3.0761065939
 20
-16.7025414738
 10
-3.0733225402
 20
-16.711528637
 10
-3.070677497
 20
-16.7205422471
 10
-3.0681712916
 20
-16.7295820527
 10
-3.0658036311
 20
-16.7386492103
 10
-3.0635741929
 20
-16.7477452285
 10
-3.0614826543
 20
-16.7568716159
 10
-3.0595286925
 20
-16.7660298809
 10
-3.0577119848
 20
-16.7752215322
 10
-3.0560322086
 20
-16.7844480782
 10
-3.054489147
 20
-16.7937106948
 10
-3.0530830058
 20
-16.8030092258
 10
-3.051814097
 20
-16.8123431824
 10
-3.0506827323
 20
-16.8217120757
 10
-3.0496892236
 20
-16.8311154169
 10
-3.0488338825
 20
-16.840552717
 10
-3.0481170209
 20
-16.8500234871
  0
LWPOLYLINE
  5
4E3
100
AcDbEntity
  8
0
100
AcDbPolyline
 62
253
  6
CONTINUOUS
 90
19
 70
0
 10
-3.7841170209
 20
-10.0380234871
 10
-3.7825683557
 20
-10.0419813174
 10
-3.7809794983
 20
-10.0459177242
 10
-3.779350589
 20
-10.0498326202
 10
-3.7776817679
 20
-10.0537259185
 10
-3.7759731752
 20
-10.0575975319
 10
-3.7742249512
 20
-10.0614473733
 10
-3.7724371788
 20
-10.0652754277
 10
-3.7706097129
 20
-10.0690819684
 10
-3.7687423509
 20
-10.0728673408
 10
-3.7668348906
 20
-10.0766318903
 10
-3.7648871295
 20
-10.0803759624
 10
-3.7628988652
 20
-10.0840999023
 10
-3.7608699399
 20
-10.0878039787
 10
-3.7588003745
 20
-10.091488152
 10
-3.7566902344
 20
-10.0951523059
 10
-3.7545395851
 20
-10.098796324
 10
-3.7523484921
 20
-10.1024200899
 10
-3.7501170209
 20
-10.1060234871
  0
LINE
  5
4E4
100
AcDbEntity
  8
0
100
AcDbLine
 62
253
  6
CONTINUOUS
 10
-4.3121170209
 20
-9.1180234871
 11
-4.2561170209
 21
-9.2640234871
  0
LINE
  5
4E5
100
AcDbEntity
  8
0
100
AcDbLine
 62
253
  6
CONTINUOUS
 10
-3.7321170209
 20
-15.7360234871
 11
-3.7681170209
 21
-15.6300234871
  0
LWPOLYLINE
  5
4E6
100
AcDbEntity
  8
0
100
AcDbPolyline
 62
253
  6
CONTINUOUS
 90
22
 70
0
 10
-3.7521170209
 20
-17.0380234871
 10
-3.7549110936
 20
-17.0293828869
 10
-3.7575873455
 20
-17.0207210454
 10
-3.7601457469
 20
-17.0120383706
 10
-3.7625862679
 20
-17.0033352707
 10
-3.7649088787
 20
-16.9946121537
 10
-3.7671135494
 20
-16.9858694277
 10
-3.7692002501
 20
-16.9771075008
 10
-3.7711690032
 20
-16.9683265197
 10
-3.7730200394
 20
-16.9595255854
 10
-3.7747536418
 20
-16.9507035377
 10
-3.7763700933
 20
-16.9418592164
 10
-3.7778696768
 20
-16.9329914611
 10
-3.7792526753
 20
-16.9240991115
 10
-3.7805193719
 20
-16.9151810074
 10
-3.7816699428
 20
-16.9062362445
 10
-3.7827041384
 20
-16.8972649423
 10
-3.7836216026
 20
-16.8882674764
 10
-3.7844219792
 20
-16.8792442223
 10
-3.7851049119
 20
-16.8701955557
 10
-3.7856700445
 20
-16.8611218522
 10
-3.7861170209
 20
-16.8520234871
  0
LINE
  5
4E7
100
AcDbEntity
  8
0
100
AcDbLine
 62
253
  6
CONTINUOUS
 10
-3.0601170209
 20
-20.1080234871
 11
-3.0841170209
 21
-20.0260234871
  0
LINE
  5
4E8
100
AcDbEntity
  8
0
100
AcDbLine
 62
253
  6
CONTINUOUS
 10
-3.0581170209
 20
-15.6780234871
 11
-3.0821170209
 21
-15.5960234871
  0
LINE
  5
4E9
100
AcDbEntity
  8
0
100
AcDbLine
 62
253
  6
CONTINUOUS
 10
-4.3501170209
 20
-17.9640234871
 11
-4.3121170209
 21
-18.1280234871
  0
LWPOLYLINE
  5
4EA
100
AcDbEntity
  8
0
100
AcDbPolyline
 62
253
  6
CONTINUOUS
 90
13
 70
0
 10
-4.9741170209
 20
-11.3480234871
 10
-4.9715491881
 20
-11.3658027003
 10
-4.9690847524
 20
-11.3835915142
 10
-4.966723665
 20
-11.4013897017
 10
-4.9644658772
 20
-11.4191970359
 10
-4.96231134
 20
-11.4370134362
 10
-4.9602600033
 20
-11.4548394081
 10
-4.9583118164
 20
-11.472675604
 10
-4.9564667291
 20
-11.4905226759
 10
-4.954724701
 20
-11.508381131
 10
-4.9530857329
 20
-11.5262508965
 10
-4.9515498359
 20
-11.5441317545
 10
-4.9501170209
 20
-11.5620234871
  0
LINE
  5
4EB
100
AcDbEntity
  8
0
100
AcDbLine
 62
253
  6
CONTINUOUS
 10
-4.3321170209
 20
-4.5900234871
 11
-4.3481170209
 21
-4.4320234871
  0
LINE
  5
4EC
100
AcDbEntity
  8
0
100
AcDbLine
 62
253
  6
CONTINUOUS
 10
-3.0481170209
 20
-8.9380234871
 11
-3.0601170209
 21
-8.8100234871
  0
LINE
  5
4ED
100
AcDbEntity
  8
0
100
AcDbLine
 62
253
  6
CONTINUOUS
 10
-3.0521170209
 20
-20.2000234871
 11
-3.0601170209
 21
-20.1080234871
  0
LINE
  5
4EE
100
AcDbEntity
  8
0
100
AcDbLine
 62
253
  6
CONTINUOUS
 10
-3.0501170209
 20
-15.7700234871
 11
-3.0581170209
 21
-15.6780234871
  0
LINE
  5
4EF
100
AcDbEntity
  8
0
100
AcDbLine
 62
253
  6
CONTINUOUS
 10
-5.6321170209
 20
-10.0540234871
 11
-5.6321170209
 21
-10.8200234871
  0
LINE
  5
4F0
100
AcDbEntity
  8
0
100
AcDbLine
 62
253
  6
CONTINUOUS
 10
-5.6321170209
 20
-15.4880234871
 11
-5.6321170209
 21
-16.2540234871
  0
LINE
  5
4F1
100
AcDbEntity
  8
0
100
AcDbLine
 62
253
  6
CONTINUOUS
 10
-5.3281170209
 20
-18.6600234871
 11
-5.3281170209
 21
-17.8200234871
  0
LINE
  5
4F2
100
AcDbEntity
  8
0
100
AcDbLine
 62
253
  6
CONTINUOUS
 10
-5.3281170209
 20
-6.8420234871
 11
-5.3281170209
 21
-6.0040234871
  0
LINE
  5
4F3
100
AcDbEntity
  8
0
100
AcDbLine
 62
253
  6
CONTINUOUS
 10
-5.2881170209
 20
-2.7520234871
 11
-5.2881170209
 21
-3.5880234871
  0
LINE
  5
4F4
100
AcDbEntity
  8
CURVE
100
AcDbLine
 62
253
  6
CONTINUOUS
 10
-5.1481170209
 20
19.5351415129
 11
-5.1481170209
 21
17.7862215129
  0
LINE
  5
4F5
100
AcDbEntity
  8
CURVE
100
AcDbLine
 62
253
  6
CONTINUOUS
 10
-5.1481170209
 20
16.4280865129
 11
-5.1481170209
 21
14.9372954465
  0
LINE
  5
4F6
100
AcDbEntity
  8
CURVE
100
AcDbLine
 62
253
  6
CONTINUOUS
 10
-5.1481170209
 20
13.9121195129
 11
-5.1481170209
 21
12.1598204356
  0
LINE
  5
4F7
100
AcDbEntity
  8
CURVE
100
AcDbLine
 62
253
  6
CONTINUOUS
 10
-5.1481170209
 20
11.0470745129
 11
-5.1481170209
 21
10.0899765129
  0
LINE
  5
4F8
100
AcDbEntity
  8
0
100
AcDbLine
 62
253
  6
CONTINUOUS
 10
-4.9501170209
 20
-20.0860234871
 11
-4.9501170209
 21
-20.0520234871
  0
LINE
  5
4F9
100
AcDbEntity
  8
0
100
AcDbLine
 62
253
  6
CONTINUOUS
 10
-4.9501170209
 20
-17.3480234871
 11
-4.9501170209
 21
-16.6040234871
  0
LINE
  5
4FA
100
AcDbEntity
  8
0
100
AcDbLine
 62
253
  6
CONTINUOUS
 10
-4.9501170209
 20
-16.2540234871
 11
-4.9501170209
 21
-15.4140234871
  0
LINE
  5
4FB
100
AcDbEntity
  8
0
100
AcDbLine
 62
253
  6
CONTINUOUS
 10
-4.9501170209
 20
-13.4140234871
 11
-4.9501170209
 21
-13.3800234871
  0
LINE
  5
4FC
100
AcDbEntity
  8
0
100
AcDbLine
 62
253
  6
CONTINUOUS
 10
-4.9501170209
 20
-10.8200234871
 11
-4.9501170209
 21
-9.9800234871
  0
LINE
  5
4FD
100
AcDbEntity
  8
0
100
AcDbLine
 62
253
  6
CONTINUOUS
 10
-4.9501170209
 20
-8.6680234871
 11
-4.9501170209
 21
-8.6000234871
  0
LINE
  5
4FE
100
AcDbEntity
  8
0
100
AcDbLine
 62
253
  6
CONTINUOUS
 10
-4.9501170209
 20
-7.2640234871
 11
-4.9501170209
 21
-8.2480234871
  0
LINE
  5
4FF
100
AcDbEntity
  8
CURVE
100
AcDbLine
 62
253
  6
CONTINUOUS
 10
-4.7481170209
 20
17.0379764327
 11
-4.7481170209
 21
16.0299763526
  0
LINE
  5
500
100
AcDbEntity
  8
CURVE
100
AcDbLine
 62
253
  6
CONTINUOUS
 10
-4.7481170209
 20
18.2139764327
 11
-4.7481170209
 21
18.3819763526
  0
LINE
  5
501
100
AcDbEntity
  8
0
100
AcDbLine
 62
253
  6
CONTINUOUS
 10
-4.3481170209
 20
-13.8300234871
 11
-4.3481170209
 21
-13.7400234871
  0
LINE
  5
502
100
AcDbEntity
  8
0
100
AcDbLine
 62
253
  6
CONTINUOUS
 10
-4.3481170209
 20
-12.6660234871
 11
-4.3481170209
 21
-12.5700234871
  0
LINE
  5
503
100
AcDbEntity
  8
0
100
AcDbLine
 62
253
  6
CONTINUOUS
 10
-4.3481170209
 20
-11.6900234871
 11
-4.3481170209
 21
-11.6340234871
  0
LINE
  5
504
100
AcDbEntity
  8
0
100
AcDbLine
 62
253
  6
CONTINUOUS
 10
-4.3481170209
 20
-10.6660234871
 11
-4.3481170209
 21
-10.2360234871
  0
LINE
  5
505
100
AcDbEntity
  8
0
100
AcDbLine
 62
253
  6
CONTINUOUS
 10
-4.3481170209
 20
-6.8760234871
 11
-4.3481170209
 21
-5.7720234871
  0
LINE
  5
506
100
AcDbEntity
  8
0
100
AcDbLine
 62
253
  6
CONTINUOUS
 10
-4.3481170209
 20
-3.2100234871
 11
-4.3481170209
 21
-3.1520234871
  0
LINE
  5
507
100
AcDbEntity
  8
CURVE
100
AcDbLine
 62
253
  6
CONTINUOUS
 10
-3.8481170745
 20
12.4459765663
 11
-3.8481170745
 21
13.1739764528
  0
LINE
  5
508
100
AcDbEntity
  8
CURVE
100
AcDbLine
 62
253
  6
CONTINUOUS
 10
-3.8481170745
 20
16.0299763526
 11
-3.8481170745
 21
16.701976593
  0
LINE
  5
509
100
AcDbEntity
  8
0
100
AcDbLine
 62
253
  6
CONTINUOUS
 10
-3.7341170209
 20
-20.1660234871
 11
-3.7341170209
 21
-20.2460234871
  0
LINE
  5
50A
100
AcDbEntity
  8
0
100
AcDbLine
 62
253
  6
CONTINUOUS
 10
-3.7321170209
 20
-15.7360234871
 11
-3.7321170209
 21
-15.8140234871
  0
LINE
  5
50B
100
AcDbEntity
  8
0
100
AcDbLine
 62
253
  6
CONTINUOUS
 10
-3.4261170209
 20
-12.0820234871
 11
-3.4261170209
 21
-11.2420234871
  0
LINE
  5
50C
100
AcDbEntity
  8
0
100
AcDbLine
 62
253
  6
CONTINUOUS
 10
-3.4261170209
 20
-3.6000234871
 11
-3.4261170209
 21
-2.7620234871
  0
LINE
  5
50D
100
AcDbEntity
  8
CURVE
100
AcDbLine
 62
253
  6
CONTINUOUS
 10
-3.0981170254
 20
15.3579763927
 11
-3.0981170254
 21
14.1819763927
  0
LINE
  5
50E
100
AcDbEntity
  8
0
100
AcDbLine
 62
253
  6
CONTINUOUS
 10
-3.0481170209
 20
-0.6360234871
 11
-3.0481170209
 21
-0.6020234871
  0
LINE
  5
50F
100
AcDbEntity
  8
0
100
AcDbLine
 62
253
  6
CONTINUOUS
 10
-3.0481170209
 20
-7.5780234871
 11
-3.0481170209
 21
-7.6920234871
  0
LWPOLYLINE
  5
510
100
AcDbEntity
  8
0
100
AcDbPolyline
 62
253
  6
CONTINUOUS
 90
27
 70
0
 10
-4.3501170209
 20
-15.7060234871
 10
-4.3501804674
 20
-15.7166610277
 10
-4.3501330785
 20
-15.7272097631
 10
-4.34996948
 20
-15.7376720305
 10
-4.3496842981
 20
-15.7480501672
 10
-4.3492721586
 20
-15.7583465106
 10
-4.3487276877
 20
-15.7685633978
 10
-4.3480455112
 20
-15.7787031661
 10
-4.3472202553
 20
-15.7887681529
 10
-4.3463625577
 20
-15.7976528575
 10
-4.3453857317
 20
-15.8064756033
 10
-4.3442879455
 20
-15.8152316713
 10
-4.3430673674
 20
-15.8239163429
 10
-4.3417221656
 20
-15.832524899
 10
-4.3402505082
 20
-15.8410526209
 10
-4.3386505634
 20
-15.8494947897
 10
-4.3369204996
 20
-15.8578466866
 10
-4.3350584848
 20
-15.8661035927
 10
-4.3330627651
 20
-15.8742616957
 10
-4.3309318977
 20
-15.88232081
 10
-4.3286645174
 20
-15.8902816567
 10
-4.3262592591
 20
-15.8981449565
 10
-4.3237147578
 20
-15.9059114305
 10
-4.3210296484
 20
-15.9135817996
 10
-4.3182025659
 20
-15.9211567848
 10
-4.3152321451
 20
-15.928637107
 10
-4.3121170209
 20
-15.9360234871
  0
LWPOLYLINE
  5
511
100
AcDbEntity
  8
0
100
AcDbPolyline
 62
253
  6
CONTINUOUS
 90
27
 70
0
 10
-4.3521170209
 20
-20.1360234871
 10
-4.3521804674
 20
-20.1466610277
 10
-4.3521330785
 20
-20.1572097631
 10
-4.35196948
 20
-20.1676720305
 10
-4.3516842981
 20
-20.1780501672
 10
-4.3512721586
 20
-20.1883465106
 10
-4.3507276877
 20
-20.1985633978
 10
-4.3500455112
 20
-20.2087031661
 10
-4.3492202553
 20
-20.2187681529
 10
-4.3483625577
 20
-20.2276528575
 10
-4.3473857317
 20
-20.2364756033
 10
-4.3462879455
 20
-20.2452316713
 10
-4.3450673674
 20
-20.2539163429
 10
-4.3437221656
 20
-20.262524899
 10
-4.3422505082
 20
-20.2710526209
 10
-4.3406505634
 20
-20.2794947897
 10
-4.3389204996
 20
-20.2878466866
 10
-4.3370584848
 20
-20.2961035927
 10
-4.3350627651
 20
-20.3042616957
 10
-4.3329318977
 20
-20.31232081
 10
-4.3306645174
 20
-20.3202816567
 10
-4.3282592591
 20
-20.3281449565
 10
-4.3257147578
 20
-20.3359114305
 10
-4.3230296484
 20
-20.3435817996
 10
-4.3202025659
 20
-20.3511567848
 10
-4.3172321451
 20
-20.358637107
 10
-4.3141170209
 20
-20.3660234871
  0
LWPOLYLINE
  5
512
100
AcDbEntity
  8
0
100
AcDbPolyline
 62
253
  6
CONTINUOUS
 90
5
 70
0
 10
-3.7161683909
 20
-10.5465912882
 10
-3.7164938967
 20
-10.5677098378
 10
-3.71663032
 20
-10.5889868423
 10
-3.7165229363
 20
-10.6104241195
 10
-3.7161170209
 20
-10.6320234871
  0
LWPOLYLINE
  5
513
100
AcDbEntity
  8
0
100
AcDbPolyline
 62
253
  6
CONTINUOUS
 90
4
 70
0
 10
-3.7136199903
 20
-10.443311745
 10
-3.7146046262
 20
-10.4841681923
 10
-3.715169031
 20
-10.5048222832
 10
-3.7161683909
 20
-10.5465912882
  0
LINE
  5
514
100
AcDbEntity
  8
0
100
AcDbLine
 62
253
  6
CONTINUOUS
 10
-3.7861170209
 20
-16.8520234871
 11
-3.7801170209
 21
-16.7500234871
  0
LWPOLYLINE
  5
515
100
AcDbEntity
  8
0
100
AcDbPolyline
 62
253
  6
CONTINUOUS
 90
22
 70
0
 10
-4.3481170209
 20
-7.5440234871
 10
-4.3486050895
 20
-7.5516256462
 10
-4.3489960746
 20
-7.5592196336
 10
-4.3492901803
 20
-7.566805134
 10
-4.3494876108
 20
-7.574381832
 10
-4.3495885704
 20
-7.5819494122
 10
-4.3495932631
 20
-7.5895075592
 10
-4.3495018932
 20
-7.5970559575
 10
-4.349314615
 20
-7.604594496
 10
-4.3490313835
 20
-7.6121238801
 10
-4.3486521036
 20
-7.6196450198
 10
-4.3481766805
 20
-7.6271588247
 10
-4.3476050192
 20
-7.6346662046
 10
-4.3469370249
 20
-7.6421680693
 10
-4.3461726024
 20
-7.6496653285
 10
-4.3453116667
 20
-7.6571586875
 10
-4.3443541715
 20
-7.664648034
 10
-4.34330008
 20
-7.672133051
 10
-4.3421493558
 20
-7.6796134217
 10
-4.3409019623
 20
-7.6870888292
 10
-4.3395578629
 20
-7.6945589567
 10
-4.3381170209
 20
-7.7020234871
  0
LINE
  5
516
100
AcDbEntity
  8
0
100
AcDbLine
 62
253
  6
CONTINUOUS
 10
-4.3481170209
 20
-10.2360234871
 11
-4.3441170209
 21
-10.1920234871
  0
LINE
  5
517
100
AcDbEntity
  8
0
100
AcDbLine
 62
253
  6
CONTINUOUS
 10
-6.2351477941
 20
-11.4067311745
 11
-6.2281170209
 21
-11.3520234871
  0
LINE
  5
518
100
AcDbEntity
  8
0
100
AcDbLine
 62
253
  6
CONTINUOUS
 10
-4.3121170209
 20
-8.7760234871
 11
-4.3341170209
 21
-8.9440234871
  0
LINE
  5
519
100
AcDbEntity
  8
0
100
AcDbLine
 62
253
  6
CONTINUOUS
 10
-4.3481170209
 20
-4.4320234871
 11
-4.3261170209
 21
-4.2680234871
  0
LINE
  5
51A
100
AcDbEntity
  8
0
100
AcDbLine
 62
253
  6
CONTINUOUS
 10
-6.2424810941
 20
-11.4613975954
 11
-6.2351477941
 21
-11.4067311745
  0
LINE
  5
51B
100
AcDbEntity
  8
0
100
AcDbLine
 62
253
  6
CONTINUOUS
 10
-6.2501170209
 20
-11.5160234871
 11
-6.2424810941
 21
-11.4613975954
  0
LINE
  5
51C
100
AcDbEntity
  8
0
100
AcDbLine
 62
253
  6
CONTINUOUS
 10
-4.9501170209
 20
-11.5620234871
 11
-4.9681170209
 21
-11.6860234871
  0
LINE
  5
51D
100
AcDbEntity
  8
0
100
AcDbLine
 62
253
  6
CONTINUOUS
 10
-4.3321170209
 20
-7.4380234871
 11
-4.3481170209
 21
-7.5440234871
  0
LINE
  5
51E
100
AcDbEntity
  8
0
100
AcDbLine
 62
253
  6
CONTINUOUS
 10
-6.8641170209
 20
-12.8180234871
 11
-6.8801170209
 21
-12.8960234871
  0
LWPOLYLINE
  5
51F
100
AcDbEntity
  8
0
100
AcDbPolyline
 62
253
  6
CONTINUOUS
 90
13
 70
0
 10
-8.1641170209
 20
-11.4020234871
 10
-8.160220035
 20
-11.3867831999
 10
-8.1561831653
 20
-11.3715870007
 10
-8.1520065405
 20
-11.3564352057
 10
-8.1476902895
 20
-11.3413281313
 10
-8.1432344716
 20
-11.3262658786
 10
-8.1386388696
 20
-11.311247689
 10
-8.1339031967
 20
-11.2962725885
 10
-8.1290271665
 20
-11.2813396034
 10
-8.1240105436
 20
-11.2664479809
 10
-8.1188532976
 20
-11.2515978524
 10
-8.1135554497
 20
-11.2367895703
 10
-8.1081170209
 20
-11.2220234871
  0
LINE
  5
520
100
AcDbEntity
  8
0
100
AcDbLine
 62
253
  6
CONTINUOUS
 10
-8.1581170209
 20
-15.1360234871
 11
-8.1241170209
 21
-15.0280234871
  0
LINE
  5
521
100
AcDbEntity
  8
0
100
AcDbLine
 62
253
  6
CONTINUOUS
 10
-7.5501170209
 20
-12.8300234871
 11
-7.4821170209
 21
-12.6380234871
  0
LINE
  5
522
100
AcDbEntity
  8
CURVE
100
AcDbLine
 62
253
  6
CONTINUOUS
 10
8.1280734418
 20
17.9686434211
 11
8.3995020254
 21
18.3739762229
  0
LINE
  5
523
100
AcDbEntity
  8
CURVE
100
AcDbLine
 62
253
  6
CONTINUOUS
 10
6.9518829791
 20
16.4993096046
 11
7.2233115344
 21
16.8033094596
  0
LINE
  5
524
100
AcDbEntity
  8
CURVE
100
AcDbLine
 62
253
  6
CONTINUOUS
 10
8.8518829791
 20
16.3473096771
 11
8.5804543955
 21
16.043309822
  0
LINE
  5
525
100
AcDbEntity
  8
CURVE
100
AcDbLine
 62
253
  6
CONTINUOUS
 10
8.0375972567
 20
15.2833096771
 11
7.7661686449
 21
14.979309822
  0
LINE
  5
526
100
AcDbEntity
  8
CURVE
100
AcDbLine
 62
253
  6
CONTINUOUS
 10
7.2233115344
 20
13.7633098945
 11
6.9518829791
 21
13.4593100395
  0
LINE
  5
527
100
AcDbEntity
  8
CURVE
100
AcDbLine
 62
253
  6
CONTINUOUS
 10
7.2233115344
 20
10.3179765129
 11
7.4947400896
 21
10.4699764404
  0
LINE
  5
528
100
AcDbEntity
  8
CURVE
100
AcDbLine
 62
253
  6
CONTINUOUS
 10
8.5804543955
 20
9.5579764947
 11
8.309025812
 21
9.4059765672
  0
LINE
  5
529
100
AcDbEntity
  8
0
100
AcDbLine
 62
253
  6
CONTINUOUS
 10
-3.5341170209
 20
-5.0540234871
 11
-3.6961170209
 21
-5.0760234871
  0
LINE
  5
52A
100
AcDbEntity
  8
DRAFT
100
AcDbLine
 62
7
  6
CONTINUOUS
 10
16.9318796234
 20
-3.5326260953
 11
15.2518829791
 21
-3.5912928709
  0
LINE
  5
52B
100
AcDbEntity
  8
0
100
AcDbLine
 62
253
  6
CONTINUOUS
 10
-4.3481170209
 20
-5.4300234871
 11
-3.0481170209
 21
-5.4300234871
  0
LINE
  5
52C
100
AcDbEntity
  8
0
100
AcDbLine
 62
253
  6
CONTINUOUS
 10
-4.9501170209
 20
-3.9380234871
 11
-6.2501170209
 21
-3.9380234871
  0
LINE
  5
52D
100
AcDbEntity
  8
0
100
AcDbLine
 62
253
  6
CONTINUOUS
 10
-5.2881170209
 20
-3.5880234871
 11
-5.3361170209
 21
-3.5880234871
  0
LINE
  5
52E
100
AcDbEntity
  8
0
100
AcDbLine
 62
253
  6
CONTINUOUS
 10
-6.2501170209
 20
-2.9660234871
 11
-4.9501170209
 21
-2.9660234871
  0
LINE
  5
52F
100
AcDbEntity
  8
RACCORDO
100
AcDbLine
 62
7
  6
CONTINUOUS
 10
15.2518829791
 20
-4.2100234871
 11
29.1518829791
 21
-4.4526488897
  0
LINE
  5
530
100
AcDbEntity
  8
ASSI
100
AcDbLine
 62
7
  6
CONTINUOUS
 10
15.2518829791
 20
-4.2100234871
 11
29.1518829791
 21
-4.4526488897
  0
LINE
  5
531
100
AcDbEntity
  8
0
100
AcDbLine
 62
253
  6
CONTINUOUS
 10
-3.6961170209
 20
-5.0760234871
 11
-3.8421170209
 21
-5.0600234871
  0
LINE
  5
532
100
AcDbEntity
  8
0
100
AcDbLine
 62
253
  6
CONTINUOUS
 10
-3.0481170209
 20
-3.7600234871
 11
-4.3481170209
 21
-3.2100234871
  0
LINE
  5
533
100
AcDbEntity
  8
0
100
AcDbLine
 62
253
  6
CONTINUOUS
 10
-5.3361170209
 20
-3.5880234871
 11
-6.2501170209
 21
-3.0140234871
  0
LINE
  5
534
100
AcDbEntity
  8
0
100
AcDbLine
 62
253
  6
CONTINUOUS
 10
-3.2181170209
 20
-4.0260234871
 11
-3.1681170209
 21
-4.0700234871
  0
LWPOLYLINE
  5
535
100
AcDbEntity
  8
0
100
AcDbPolyline
 62
253
  6
CONTINUOUS
 90
16
 70
0
 10
-3.1681170209
 20
-4.0700234871
 10
-3.1642136623
 20
-4.0754610206
 10
-3.1604059275
 20
-4.0809966076
 10
-3.1566897694
 20
-4.0866267724
 10
-3.1530611407
 20
-4.0923480396
 10
-3.1495159945
 20
-4.0981569336
 10
-3.1460502835
 20
-4.1040499788
 10
-3.1426599606
 20
-4.1100236996
 10
-3.1393409788
 20
-4.1160746205
 10
-3.1360892909
 20
-4.1221992658
 10
-3.1329008498
 20
-4.1283941601
 10
-3.1289971775
 20
-4.1362314073
 10
-3.1251727233
 20
-4.1441670189
 10
-3.1214142061
 20
-4.1521950264
 10
-3.1177083443
 20
-4.1603094607
 10
-3.1140418569
 20
-4.1685043531
  0
LWPOLYLINE
  5
536
100
AcDbEntity
  8
0
100
AcDbPolyline
 62
253
  6
CONTINUOUS
 90
6
 70
0
 10
-3.092105276
 20
-4.2190170591
 10
-3.0883140793
 20
-4.2275915666
 10
-3.0844375507
 20
-4.236188102
 10
-3.0804577949
 20
-4.2447980263
 10
-3.0763569167
 20
-4.253412701
 10
-3.0721170209
 20
-4.2620234871
  0
LINE
  5
537
100
AcDbEntity
  8
0
100
AcDbLine
 62
253
  6
CONTINUOUS
 10
-3.1140418569
 20
-4.1685043531
 11
-3.1067738796
 21
-4.1851116369
  0
LINE
  5
538
100
AcDbEntity
  8
CURVE
100
AcDbLine
 62
253
  6
CONTINUOUS
 10
-9.1910100209
 20
11.1666665129
 11
-9.6461420209
 21
12.2149715129
  0
LINE
  5
539
100
AcDbEntity
  8
CURVE
100
AcDbLine
 62
253
  6
CONTINUOUS
 10
-8.7528300209
 20
11.9830265129
 11
-8.2961270209
 21
10.9311045129
  0
LINE
  5
53A
100
AcDbEntity
  8
CURVE
100
AcDbLine
 62
253
  6
CONTINUOUS
 10
-9.2024020209
 20
14.0579495129
 11
-9.6461420209
 21
15.0800115129
  0
LINE
  5
53B
100
AcDbEntity
  8
CURVE
100
AcDbLine
 62
253
  6
CONTINUOUS
 10
-7.6831450209
 20
10.7572765129
 11
-8.1470250209
 21
11.8257315129
  0
LINE
  5
53C
100
AcDbEntity
  8
0
100
AcDbLine
 62
253
  6
CONTINUOUS
 10
-3.1067738796
 20
-4.1851116369
 11
-3.092105276
 21
-4.2190170591
  0
LINE
  5
53D
100
AcDbEntity
  8
0
100
AcDbLine
 62
253
  6
CONTINUOUS
 10
-4.2821170209
 20
-4.7200234871
 11
-4.3321170209
 21
-4.5900234871
  0
LWPOLYLINE
  5
53E
100
AcDbEntity
  8
0
100
AcDbPolyline
 62
253
  6
CONTINUOUS
 90
13
 70
0
 10
-3.0601170209
 20
-8.8100234871
 10
-3.0653831913
 20
-8.7924330054
 10
-3.0707827523
 20
-8.7748895973
 10
-3.0763155787
 20
-8.7573935026
 10
-3.081981545
 20
-8.7399449608
 10
-3.0877805908
 20
-8.7225440463
 10
-3.0937129143
 20
-8.7051901722
 10
-3.0997787787
 20
-8.6878825863
 10
-3.1059784473
 20
-8.6706205365
 10
-3.1123121299
 20
-8.6534034399
 10
-3.1187798238
 20
-8.6362313906
 10
-3.1253814728
 20
-8.6191046519
 10
-3.1321170209
 20
-8.6020234871
  0
LWPOLYLINE
  5
53F
100
AcDbEntity
  8
0
100
AcDbPolyline
 62
253
  6
CONTINUOUS
 90
18
 70
0
 10
-3.7411423429
 20
-10.1532807043
 10
-3.7318796627
 20
-10.1985711756
 10
-3.7292384011
 20
-10.2120970691
 10
-3.7267206425
 20
-10.225728872
 10
-3.7243732777
 20
-10.2394717824
 10
-3.7222309603
 20
-10.2533313198
 10
-3.7203252841
 20
-10.267313084
 10
-3.7186795396
 20
-10.2814203528
 10
-3.7172838028
 20
-10.2956471168
 10
-3.7161198464
 20
-10.3099850447
 10
-3.7151703815
 20
-10.3244266122
 10
-3.7144218743
 20
-10.3389675219
 10
-3.7138617296
 20
-10.3536042836
 10
-3.7134194115
 20
-10.3712905635
 10
-3.7132021384
 20
-10.3891071469
 10
-3.7131818505
 20
-10.4070513364
 10
-3.7133304878
 20
-10.4251204349
 10
-3.7136199903
 20
-10.443311745
  0
LWPOLYLINE
  5
540
100
AcDbEntity
  8
0
100
AcDbPolyline
 62
253
  6
CONTINUOUS
 90
4
 70
0
 10
-3.7501170209
 20
-10.1060234871
 10
-3.7473223748
 20
-10.1217413003
 10
-3.7443098245
 20
-10.1374843263
 10
-3.7411423429
 20
-10.1532807043
  0
LWPOLYLINE
  5
541
100
AcDbEntity
  8
CURVE
100
AcDbPolyline
 62
253
  6
CONTINUOUS
 90
3
 70
0
 10
-8.1395377817
 20
15.5942165794
 10
-8.1444601359
 20
15.6232160391
 10
-8.1470250209
 20
15.6379778961
  0
LINE
  5
542
100
AcDbEntity
  8
0
100
AcDbLine
 62
253
  6
CONTINUOUS
 10
-3.0521170209
 20
-17.9660234871
 11
-3.0781170209
 21
-17.8020234871
  0
LWPOLYLINE
  5
543
100
AcDbEntity
  8
0
100
AcDbPolyline
 62
253
  6
CONTINUOUS
 90
13
 70
0
 10
-3.0721170209
 20
-4.2620234871
 10
-3.0695711051
 20
-4.2799715265
 10
-3.0671245817
 20
-4.2979287985
 10
-3.0647774083
 20
-4.3158951003
 10
-3.062529543
 20
-4.3338702293
 10
-3.0603809431
 20
-4.3518541138
 10
-3.0583315644
 20
-4.3698472062
 10
-3.0563813623
 20
-4.3878500895
 10
-3.0545302922
 20
-4.4058633472
 10
-3.0527783186
 20
-4.4238874329
 10
-3.0511254422
 20
-4.4419222813
 10
-3.049571673
 20
-4.4599676976
 10
-3.0481170209
 20
-4.4780234871
  0
LINE
  5
544
100
AcDbEntity
  8
0
100
AcDbLine
 62
253
  6
CONTINUOUS
 10
-4.3341170209
 20
-8.9440234871
 11
-4.3121170209
 21
-9.1180234871
  0
LINE
  5
545
100
AcDbEntity
  8
RACCORDO
100
AcDbLine
 62
253
  6
CONTINUOUS
 10
-0.1306646145
 20
-23.817743601
 11
-0.1296818063
 21
-23.8861244627
  0
LINE
  5
546
100
AcDbEntity
  8
ASSI
100
AcDbLine
 62
253
  6
CONTINUOUS
 10
-0.1306646145
 20
-23.817743601
 11
-0.1296818063
 21
-23.8861244627
  0
LWPOLYLINE
  5
547
100
AcDbEntity
  8
RACCORDO
100
AcDbPolyline
 62
253
  6
CONTINUOUS
 90
7
 70
0
 10
-0.1296818063
 20
-23.8861244627
 10
-0.1292383353
 20
-23.9462607747
 10
-0.1292383351
 20
-23.9709073809
 10
-0.1293876704
 20
-23.9909019844
 10
-0.1296818057
 20
-24.0056372922
 10
-0.1301118071
 20
-24.0146657511
 10
-0.1306646145
 20
-24.0177131401
  0
LWPOLYLINE
  5
548
100
AcDbEntity
  8
ASSI
100
AcDbPolyline
 62
253
  6
CONTINUOUS
 90
7
 70
0
 10
-0.1296818063
 20
-23.8861244627
 10
-0.1292383353
 20
-23.9462607747
 10
-0.1292383351
 20
-23.9709073809
 10
-0.1293876704
 20
-23.9909019844
 10
-0.1296818057
 20
-24.0056372922
 10
-0.1301118071
 20
-24.0146657511
 10
-0.1306646145
 20
-24.0177131401
  0
LINE
  5
549
100
AcDbEntity
  8
CURVE
100
AcDbLine
 62
253
  6
CONTINUOUS
 10
-2.6481170209
 20
18.3819763526
 11
-2.6481170209
 21
18.2139764327
  0
LINE
  5
54A
100
AcDbEntity
  8
CURVE
100
AcDbLine
 62
253
  6
CONTINUOUS
 10
-2.6481170209
 20
16.701976593
 11
-2.6481170209
 21
16.0299763526
  0
LINE
  5
54B
100
AcDbEntity
  8
CURVE
100
AcDbLine
 62
253
  6
CONTINUOUS
 10
-2.6481170209
 20
13.1739764528
 11
-2.6481170209
 21
12.6699765529
  0
LINE
  5
54C
100
AcDbEntity
  8
0
100
AcDbLine
 62
253
  6
CONTINUOUS
 10
-2.4481170209
 20
-20.1820234871
 11
-2.4481170209
 21
-19.0800234871
  0
LINE
  5
54D
100
AcDbEntity
  8
0
100
AcDbLine
 62
253
  6
CONTINUOUS
 10
-2.4481170209
 20
-18.2760234871
 11
-2.4481170209
 21
-18.2200234871
  0
LINE
  5
54E
100
AcDbEntity
  8
0
100
AcDbLine
 62
253
  6
CONTINUOUS
 10
-1.5261170209
 20
-18.6680234871
 11
-1.5261170209
 21
-17.8280234871
  0
LINE
  5
54F
100
AcDbEntity
  8
0
100
AcDbLine
 62
253
  6
CONTINUOUS
 10
-1.1481170209
 20
-17.3560234871
 11
-1.1481170209
 21
-16.6120234871
  0
LINE
  5
550
100
AcDbEntity
  8
RACCORDO
100
AcDbLine
 62
253
  6
CONTINUOUS
 10
-0.1292383352
 20
23.5262138169
 11
-0.1296818062
 21
23.4660775035
  0
LINE
  5
551
100
AcDbEntity
  8
ASSI
100
AcDbLine
 62
253
  6
CONTINUOUS
 10
-0.1292383352
 20
23.5262138169
 11
-0.1296818062
 21
23.4660775035
  0
LINE
  5
552
100
AcDbEntity
  8
RACCORDO
100
AcDbLine
 62
253
  6
CONTINUOUS
 10
-0.1296818062
 20
23.4660775035
 11
-0.1306646145
 21
23.3976966267
  0
LINE
  5
553
100
AcDbEntity
  8
ASSI
100
AcDbLine
 62
253
  6
CONTINUOUS
 10
-0.1296818062
 20
23.4660775035
 11
-0.1306646145
 21
23.3976966267
  0
LINE
  5
554
100
AcDbEntity
  8
0
100
AcDbLine
 62
253
  6
CONTINUOUS
 10
-3.0541170209
 20
-9.0680234871
 11
-3.0481170209
 21
-8.9380234871
  0
LINE
  5
555
100
AcDbEntity
  8
0
100
AcDbLine
 62
253
  6
CONTINUOUS
 10
-3.7881170209
 20
-19.0680234871
 11
-3.7821170209
 21
-18.9660234871
  0
LWPOLYLINE
  5
556
100
AcDbEntity
  8
RACCORDO
100
AcDbPolyline
 62
7
  6
CONTINUOUS
 90
12
 70
0
 10
0.8518829791
 20
20.477950719
 10
0.8501389925
 20
20.4561734853
 10
0.8450036842
 20
20.4322343856
 10
0.8366621335
 20
20.40613342
 10
0.8253927348
 20
20.3777812482
 10
0.811442776
 20
20.3472672106
 10
0.794924237
 20
20.3148593273
 10
0.7761078333
 20
20.2805415808
 10
0.7552814738
 20
20.2443299887
 10
0.7324842126
 20
20.2065406245
 10
0.7079306358
 20
20.167278846
 10
0.6553734604
 20
20.0840219725
  0
LWPOLYLINE
  5
557
100
AcDbEntity
  8
ASSI
100
AcDbPolyline
 62
7
  6
CONTINUOUS
 90
12
 70
0
 10
0.8518829791
 20
20.477950719
 10
0.8501389925
 20
20.4561734853
 10
0.8450036842
 20
20.4322343856
 10
0.8366621335
 20
20.40613342
 10
0.8253927348
 20
20.3777812482
 10
0.811442776
 20
20.3472672106
 10
0.794924237
 20
20.3148593273
 10
0.7761078333
 20
20.2805415808
 10
0.7552814738
 20
20.2443299887
 10
0.7324842126
 20
20.2065406245
 10
0.7079306358
 20
20.167278846
 10
0.6553734604
 20
20.0840219725
  0
LINE
  5
558
100
AcDbEntity
  8
0
100
AcDbLine
 62
253
  6
CONTINUOUS
 10
-3.0481170209
 20
-16.8500234871
 11
-3.0561170209
 21
-16.9460234871
  0
LINE
  5
559
100
AcDbEntity
  8
0
100
AcDbLine
 62
253
  6
CONTINUOUS
 10
-3.0501170209
 20
-19.0640234871
 11
-3.0581170209
 21
-19.1600234871
  0
LWPOLYLINE
  5
55A
100
AcDbEntity
  8
0
100
AcDbPolyline
 62
253
  6
CONTINUOUS
 90
25
 70
0
 10
-3.0481170209
 20
-7.6920234871
 10
-3.0490443002
 20
-7.6987977215
 10
-3.0500803006
 20
-7.7055329234
 10
-3.051224625
 20
-7.7122286857
 10
-3.0524768766
 20
-7.7188846015
 10
-3.0538366582
 20
-7.7255002635
 10
-3.0553035729
 20
-7.7320752649
 10
-3.0568772236
 20
-7.7386091984
 10
-3.0585572134
 20
-7.7451016571
 10
-3.0603432844
 20
-7.7515525213
 10
-3.0622357361
 20
-7.7579628218
 10
-3.0642350069
 20
-7.7643338766
 10
-3.0663415355
 20
-7.7706670038
 10
-3.0685557604
 20
-7.7769635215
 10
-3.0708781202
 20
-7.7832247479
 10
-3.0733090535
 20
-7.789452001
 10
-3.0758489988
 20
-7.795646599
 10
-3.0784983389
 20
-7.8018095427
 10
-3.0812572329
 20
-7.8079405633
 10
-3.0841257844
 20
-7.8140390749
 10
-3.0871040966
 20
-7.8201044914
 10
-3.0901922729
 20
-7.8261362269
 10
-3.0933904169
 20
-7.8321336954
 10
-3.0966986317
 20
-7.8380963108
 10
-3.1001170209
 20
-7.8440234871
  0
LINE
  5
55B
100
AcDbEntity
  8
0
100
AcDbLine
 62
253
  6
CONTINUOUS
 10
-3.0481170209
 20
-4.4780234871
 11
-3.0661170209
 21
-4.6020234871
  0
LINE
  5
55C
100
AcDbEntity
  8
0
100
AcDbLine
 62
253
  6
CONTINUOUS
 10
-4.3341170209
 20
-15.6300234871
 11
-4.3501170209
 21
-15.7060234871
  0
LINE
  5
55D
100
AcDbEntity
  8
0
100
AcDbLine
 62
253
  6
CONTINUOUS
 10
-4.3361170209
 20
-20.0600234871
 11
-4.3521170209
 21
-20.1360234871
  0
LINE
  5
55E
100
AcDbEntity
  8
0
100
AcDbLine
 62
253
  6
CONTINUOUS
 10
-4.3141170209
 20
-17.8020234871
 11
-4.3501170209
 21
-17.9640234871
  0
LINE
  5
55F
100
AcDbEntity
  8
0
100
AcDbLine
 62
253
  6
CONTINUOUS
 10
-4.3441170209
 20
-10.1920234871
 11
-4.3101170209
 21
-10.0840234871
  0
LWPOLYLINE
  5
560
100
AcDbEntity
  8
0
100
AcDbPolyline
 62
253
  6
CONTINUOUS
 90
10
 70
0
 10
-3.1161170209
 20
-9.2460234871
 10
-3.1096592268
 20
-9.2260898967
 10
-3.1030936992
 20
-9.2061955536
 10
-3.0964205709
 20
-9.1863406782
 10
-3.0896399091
 20
-9.1665253368
 10
-3.0827515182
 20
-9.1467489781
 10
-3.0757551367
 20
-9.1270108967
 10
-3.068650562
 20
-9.1073105435
 10
-3.0614378264
 20
-9.0876479958
 10
-3.0541170209
 20
-9.0680234871
  0
LINE
  5
561
100
AcDbEntity
  8
0
100
AcDbLine
 62
253
  6
CONTINUOUS
 10
-3.7361170209
 20
-7.7020234871
 11
-3.6681170209
 21
-7.5100234871
  0
LWPOLYLINE
  5
562
100
AcDbEntity
  8
0
100
AcDbPolyline
 62
253
  6
CONTINUOUS
 90
22
 70
0
 10
-6.8801170209
 20
-12.8960234871
 10
-6.8831547929
 20
-12.9037945149
 10
-6.8862888391
 20
-12.9115117509
 10
-6.8895189256
 20
-12.9191748998
 10
-6.8928448188
 20
-12.9267836661
 10
-6.8962662849
 20
-12.9343377545
 10
-6.8997830904
 20
-12.9418368696
 10
-6.9033950014
 20
-12.9492807159
 10
-6.9071019033
 20
-12.9566692091
 10
-6.9109041576
 20
-12.9640031089
 10
-6.9148022449
 20
-12.9712833862
 10
-6.9187966457
 20
-12.9785110118
 10
-6.9228878406
 20
-12.9856869566
 10
-6.9270763101
 20
-12.9928121914
 10
-6.9313625348
 20
-12.9998876869
 10
-6.9357469176
 20
-13.0069141765
 10
-6.9402295514
 20
-13.0138914425
 10
-6.9448104516
 20
-13.0208190297
 10
-6.9494896333
 20
-13.027696483
 10
-6.9542671119
 20
-13.0345233471
 10
-6.9591429027
 20
-13.0412991669
 10
-6.9641170209
 20
-13.0480234871
  0
LINE
  5
563
100
AcDbEntity
  8
0
100
AcDbLine
 62
253
  6
CONTINUOUS
 10
-4.2701170209
 20
-4.1620234871
 11
-4.2541170209
 21
-4.1220234871
  0
LINE
  5
564
100
AcDbEntity
  8
0
100
AcDbLine
 62
253
  6
CONTINUOUS
 10
-6.1721170209
 20
-11.2460234871
 11
-6.1561170209
 21
-11.2060234871
  0
LINE
  5
565
100
AcDbEntity
  8
0
100
AcDbLine
 62
253
  6
CONTINUOUS
 10
-3.0661170209
 20
-4.6020234871
 11
-3.1341170209
 21
-4.7720234871
  0
LINE
  5
566
100
AcDbEntity
  8
0
100
AcDbLine
 62
253
  6
CONTINUOUS
 10
-4.2561170209
 20
-8.6360234871
 11
-4.3121170209
 21
-8.7760234871
  0
LINE
  5
567
100
AcDbEntity
  8
0
100
AcDbLine
 62
253
  6
CONTINUOUS
 10
-4.9681170209
 20
-11.6860234871
 11
-5.0361170209
 21
-11.8560234871
  0
LINE
  5
568
100
AcDbEntity
  8
0
100
AcDbLine
 62
253
  6
CONTINUOUS
 10
-4.3261170209
 20
-4.2680234871
 11
-4.2701170209
 21
-4.1620234871
  0
LINE
  5
569
100
AcDbEntity
  8
0
100
AcDbLine
 62
253
  6
CONTINUOUS
 10
-6.2281170209
 20
-11.3520234871
 11
-6.1721170209
 21
-11.2460234871
  0
LWPOLYLINE
  5
56A
100
AcDbEntity
  8
0
100
AcDbPolyline
 62
253
  6
CONTINUOUS
 90
19
 70
0
 10
-7.4821170209
 20
-12.6380234871
 10
-7.477142227
 20
-12.6298693263
 10
-7.472283822
 20
-12.6216677093
 10
-7.4675415742
 20
-12.6134194332
 10
-7.462915252
 20
-12.6051252952
 10
-7.4584046235
 20
-12.5967860924
 10
-7.4540094571
 20
-12.5884026221
 10
-7.4497294645
 20
-12.5799752805
 10
-7.4455641303
 20
-12.5715028612
 10
-7.4415128826
 20
-12.562983757
 10
-7.4375751495
 20
-12.5544163607
 10
-7.4337503591
 20
-12.545799065
 10
-7.4300379394
 20
-12.5371302627
 10
-7.4264374381
 20
-12.5284087064
 10
-7.4229488815
 20
-12.5196345867
 10
-7.4195724156
 20
-12.5108084544
 10
-7.4163081862
 20
-12.50193086
 10
-7.4131563393
 20
-12.4930023541
 10
-7.4101170209
 20
-12.4840234871
  0
LINE
  5
56B
100
AcDbEntity
  8
0
100
AcDbLine
 62
253
  6
CONTINUOUS
 10
-8.0841170209
 20
-12.4680234871
 11
-8.1461170209
 21
-12.5640234871
  0
LINE
  5
56C
100
AcDbEntity
  8
0
100
AcDbLine
 62
253
  6
CONTINUOUS
 10
-4.2701170209
 20
-7.3420234871
 11
-4.3321170209
 21
-7.4380234871
  0
LINE
  5
56D
100
AcDbEntity
  8
CURVE
100
AcDbLine
 62
253
  6
CONTINUOUS
 10
6.9518829791
 20
10.013976531
 11
7.2233115344
 21
10.3179765129
  0
LINE
  5
56E
100
AcDbEntity
  8
CURVE
100
AcDbLine
 62
253
  6
CONTINUOUS
 10
8.8518829791
 20
9.8619764766
 11
8.5804543955
 21
9.5579764947
  0
LINE
  5
56F
100
AcDbEntity
  8
0
100
AcDbLine
 62
253
  6
CONTINUOUS
 10
-4.2541170209
 20
-4.1220234871
 11
-4.2081170209
 21
-4.0760234871
  0
LINE
  5
570
100
AcDbEntity
  8
0
100
AcDbLine
 62
253
  6
CONTINUOUS
 10
-4.3481170209
 20
-1.1420234871
 11
-3.0481170209
 21
-0.6360234871
  0
LINE
  5
571
100
AcDbEntity
  8
0
100
AcDbLine
 62
7
  6
CONTINUOUS
 10
24.6321594949
 20
9.809699997
 11
24.0616880424
 21
9.6399765129
  0
LINE
  5
572
100
AcDbEntity
  8
0
100
AcDbLine
 62
7
  6
CONTINUOUS
 10
25.6716064633
 20
8.7702530287
 11
26.2420779158
 21
8.9399765129
  0
LINE
  5
573
100
AcDbEntity
  8
0
100
AcDbLine
 62
253
  6
CONTINUOUS
 10
-4.3481170209
 20
0.2639765129
 11
-3.0481170209
 21
0.2639765129
  0
LINE
  5
574
100
AcDbEntity
  8
0
100
AcDbLine
 62
253
  6
CONTINUOUS
 10
-3.0481170209
 20
-0.6020234871
 11
-4.3481170209
 21
-0.0900234871
  0
LINE
  5
575
100
AcDbEntity
  8
CURVE
100
AcDbLine
 62
253
  6
CONTINUOUS
 10
-6.4547750209
 20
15.6559095129
 11
-6.6770520209
 21
16.1678795129
  0
LINE
  5
576
100
AcDbEntity
  8
RACCORDO
100
AcDbLine
 62
253
  6
CONTINUOUS
 10
0.6553734604
 20
22.5978184706
 11
0.6553734604
 21
20.0840219725
  0
LINE
  5
577
100
AcDbEntity
  8
ASSI
100
AcDbLine
 62
253
  6
CONTINUOUS
 10
0.6553734604
 20
22.5978184706
 11
0.6553734604
 21
20.0840219725
  0
LINE
  5
578
100
AcDbEntity
  8
RACCORDO
100
AcDbLine
 62
253
  6
CONTINUOUS
 10
0.6553734604
 20
-23.0178654449
 11
0.6553734604
 21
-20.5040689468
  0
LINE
  5
579
100
AcDbEntity
  8
ASSI
100
AcDbLine
 62
253
  6
CONTINUOUS
 10
0.6553734604
 20
-23.0178654449
 11
0.6553734604
 21
-20.5040689468
  0
LINE
  5
57A
100
AcDbEntity
  8
RACCORDO
100
AcDbLine
 62
7
  6
CONTINUOUS
 10
0.8518829791
 20
22.5978184706
 11
0.8518829791
 21
20.477950719
  0
LINE
  5
57B
100
AcDbEntity
  8
ASSI
100
AcDbLine
 62
7
  6
CONTINUOUS
 10
0.8518829791
 20
22.5978184706
 11
0.8518829791
 21
20.477950719
  0
LINE
  5
57C
100
AcDbEntity
  8
RACCORDO
100
AcDbLine
 62
7
  6
CONTINUOUS
 10
0.8518829791
 20
-23.0178654449
 11
0.8518829791
 21
-20.8979976933
  0
LINE
  5
57D
100
AcDbEntity
  8
ASSI
100
AcDbLine
 62
7
  6
CONTINUOUS
 10
0.8518829791
 20
-23.0178654449
 11
0.8518829791
 21
-20.8979976933
  0
LINE
  5
57E
100
AcDbEntity
  8
CURVE
100
AcDbLine
 62
253
  6
CONTINUOUS
 10
1.9268829791
 20
16.9470284008
 11
1.9268829791
 21
18.4075325129
  0
LINE
  5
57F
100
AcDbEntity
  8
CURVE
100
AcDbLine
 62
253
  6
CONTINUOUS
 10
2.6768829791
 20
18.4075325129
 11
2.6768829791
 21
16.9470315129
  0
LINE
  5
580
100
AcDbEntity
  8
0
100
AcDbLine
 62
253
  6
CONTINUOUS
 10
-3.0881170209
 20
-18.1280234871
 11
-3.0521170209
 21
-17.9660234871
  0
LINE
  5
581
100
AcDbEntity
  8
0
100
AcDbLine
 62
253
  6
CONTINUOUS
 10
-3.6901170209
 20
-15.5960234871
 11
-3.7321170209
 21
-15.7360234871
  0
LINE
  5
582
100
AcDbEntity
  8
0
100
AcDbLine
 62
253
  6
CONTINUOUS
 10
-3.6921170209
 20
-20.0260234871
 11
-3.7341170209
 21
-20.1660234871
  0
LINE
  5
583
100
AcDbEntity
  8
0
100
AcDbLine
 62
253
  6
CONTINUOUS
 10
-3.0561170209
 20
-16.9460234871
 11
-3.0841170209
 21
-17.0320234871
  0
LINE
  5
584
100
AcDbEntity
  8
0
100
AcDbLine
 62
253
  6
CONTINUOUS
 10
-3.0581170209
 20
-19.1600234871
 11
-3.0861170209
 21
-19.2460234871
  0
LWPOLYLINE
  5
585
100
AcDbEntity
  8
0
100
AcDbPolyline
 62
253
  6
CONTINUOUS
 90
22
 70
0
 10
-3.0821170209
 20
-15.9420234871
 10
-3.079246145
 20
-15.9340573281
 10
-3.0765113812
 20
-15.9260689254
 10
-3.0739124844
 20
-15.9180589325
 10
-3.0714492094
 20
-15.9100280029
 10
-3.0691213111
 20
-15.9019767899
 10
-3.0669285443
 20
-15.8939059472
 10
-3.0648706638
 20
-15.8858161281
 10
-3.0629474252
 20
-15.8777076106
 10
-3.0611585859
 20
-15.8695791708
 10
-3.0595039043
 20
-15.861429209
 10
-3.0579831386
 20
-15.8532561258
 10
-3.056596047
 20
-15.8450583216
 10
-3.0553423876
 20
-15.836834197
 10
-3.0542219188
 20
-15.8285821523
 10
-3.0532344842
 20
-15.8203009432
 10
-3.0523802702
 20
-15.8119907451
 10
-3.0516595485
 20
-15.8036520884
 10
-3.051072591
 20
-15.7952855038
 10
-3.0506196693
 20
-15.7868915217
 10
-3.0503010553
 20
-15.7784706727
 10
-3.0501170209
 20
-15.7700234871
  0
LINE
  5
586
100
AcDbEntity
  8
0
100
AcDbLine
 62
253
  6
CONTINUOUS
 10
-3.7801170209
 20
-16.7500234871
 11
-3.7461170209
 21
-16.6640234871
  0
LINE
  5
587
100
AcDbEntity
  8
0
100
AcDbLine
 62
253
  6
CONTINUOUS
 10
-3.7821170209
 20
-18.9660234871
 11
-3.7481170209
 21
-18.8800234871
  0
LINE
  5
588
100
AcDbEntity
  8
0
100
AcDbLine
 62
253
  6
CONTINUOUS
 10
-4.2921170209
 20
-15.5480234871
 11
-4.3341170209
 21
-15.6300234871
  0
LINE
  5
589
100
AcDbEntity
  8
0
100
AcDbLine
 62
253
  6
CONTINUOUS
 10
-4.3101170209
 20
-10.0840234871
 11
-4.2641170209
 21
-10.0040234871
  0
LWPOLYLINE
  5
58A
100
AcDbEntity
  8
0
100
AcDbPolyline
 62
253
  6
CONTINUOUS
 90
16
 70
0
 10
-3.6681170209
 20
-7.5100234871
 10
-3.6624598077
 20
-7.5002150639
 10
-3.6569067526
 20
-7.4903603615
 10
-3.65145781
 20
-7.4804598743
 10
-3.646112934
 20
-7.4705140965
 10
-3.640872079
 20
-7.4605235226
 10
-3.6357351292
 20
-7.4504883759
 10
-3.6307016882
 20
-7.4404077966
 10
-3.6257712895
 20
-7.430280654
 10
-3.6209434667
 20
-7.4201058174
 10
-3.6162177533
 20
-7.4098821562
 10
-3.6115937831
 20
-7.3996087922
 10
-3.6070715902
 20
-7.389285858
 10
-3.6026513093
 20
-7.378913739
 10
-3.5983330747
 20
-7.3684928203
 10
-3.5941170209
 20
-7.3580234871
  0
LINE
  5
58B
100
AcDbEntity
  8
0
100
AcDbLine
 62
253
  6
CONTINUOUS
 10
-8.1241170209
 20
-15.0280234871
 11
-8.0781170209
 21
-14.9500234871
  0
LINE
  5
58C
100
AcDbEntity
  8
0
100
AcDbLine
 62
253
  6
CONTINUOUS
 10
-3.1001170209
 20
-7.8440234871
 11
-3.1501170209
 21
-7.9220234871
  0
LWPOLYLINE
  5
58D
100
AcDbEntity
  8
0
100
AcDbPolyline
 62
253
  6
CONTINUOUS
 90
7
 70
0
 10
-3.2161170209
 20
-9.3860234871
 10
-3.1991906921
 20
-9.3628732912
 10
-3.1823683383
 20
-9.3396499753
 10
-3.1656499718
 20
-9.3163535926
 10
-3.1490353915
 20
-9.292983855
 10
-3.1325243988
 20
-9.2695404724
 10
-3.1161170209
 20
-9.2460234871
  0
LWPOLYLINE
  5
58E
100
AcDbEntity
  8
0
100
AcDbPolyline
 62
253
  6
CONTINUOUS
 90
22
 70
0
 10
-7.6621170209
 20
-13.0200234871
 10
-7.6555716143
 20
-13.0116764292
 10
-7.6491482153
 20
-13.0032593936
 10
-7.642846923
 20
-12.994772871
 10
-7.6366678362
 20
-12.9862173517
 10
-7.6306110539
 20
-12.9775933265
 10
-7.624676675
 20
-12.9689012857
 10
-7.6188647985
 20
-12.96014172
 10
-7.613175391
 20
-12.9513148456
 10
-7.6076078898
 20
-12.9424197817
 10
-7.6021615998
 20
-12.9334553733
 10
-7.5968358259
 20
-12.9244204653
 10
-7.5916298731
 20
-12.9153139028
 10
-7.5865430464
 20
-12.9061345307
 10
-7.5815746507
 20
-12.8968811939
 10
-7.5767241759
 20
-12.8875529814
 10
-7.5719918521
 20
-12.8781499581
 10
-7.5673780942
 20
-12.8686724327
 10
-7.5628833171
 20
-12.8591207141
 10
-7.5585079359
 20
-12.8494951111
 10
-7.5542523655
 20
-12.8397959325
 10
-7.5501170209
 20
-12.8300234871
  0
LWPOLYLINE
  5
58F
100
AcDbEntity
  8
0
100
AcDbPolyline
 62
253
  6
CONTINUOUS
 90
22
 70
0
 10
-3.8481170209
 20
-7.8940234871
 10
-3.8414900847
 20
-7.8856217305
 10
-3.834993394
 20
-7.877145958
 10
-3.8286270633
 20
-7.86859672
 10
-3.8223912071
 20
-7.8599745668
 10
-3.8162859402
 20
-7.8512800488
 10
-3.810311377
 20
-7.8425137162
 10
-3.8044676322
 20
-7.8336761194
 10
-3.7987546704
 20
-7.8247675007
 10
-3.7931718569
 20
-7.8157868699
 10
-3.787718407
 20
-7.8067329289
 10
-3.7823935358
 20
-7.7976043795
 10
-3.7771964587
 20
-7.7883999236
 10
-3.7721263909
 20
-7.7791182631
 10
-3.7671825479
 20
-7.7697580997
 10
-3.7623643576
 20
-7.7603184084
 10
-3.7576720994
 20
-7.7507992563
 10
-3.7531062658
 20
-7.7412009834
 10
-3.7486673488
 20
-7.7315239299
 10
-3.7443558409
 20
-7.721768436
 10
-3.7401722341
 20
-7.7119348417
 10
-3.7361170209
 20
-7.7020234871
  0
LWPOLYLINE
  5
590
100
AcDbEntity
  8
0
100
AcDbPolyline
 62
253
  6
CONTINUOUS
 90
19
 70
0
 10
-4.1601170209
 20
-8.4960234871
 10
-4.1661281157
 20
-8.5033665398
 10
-4.1720587624
 20
-8.5107608387
 10
-4.177908959
 20
-8.5182059991
 10
-4.1836787033
 20
-8.5257016358
 10
-4.1893679931
 20
-8.5332473639
 10
-4.1949768265
 20
-8.5408427982
 10
-4.2005052777
 20
-8.5484877485
 10
-4.2059537265
 20
-8.5561828031
 10
-4.2113226291
 20
-8.5639287449
 10
-4.2166124416
 20
-8.5717263569
 10
-4.2218236202
 20
-8.5795764221
 10
-4.2269566212
 20
-8.5874797234
 10
-4.2320118015
 20
-8.5954368686
 10
-4.2369891214
 20
-8.6034477645
 10
-4.2418884422
 20
-8.6115121427
 10
-4.2467096249
 20
-8.6196297348
 10
-4.2514525308
 20
-8.6278002724
 10
-4.2561170209
 20
-8.6360234871
  0
LWPOLYLINE
  5
591
100
AcDbEntity
  8
0
100
AcDbPolyline
 62
253
  6
CONTINUOUS
 90
13
 70
0
 10
-3.1341170209
 20
-4.7720234871
 10
-3.142453237
 20
-4.7821040911
 10
-3.1507281464
 20
-4.7922305499
 10
-3.1589416892
 20
-4.8024027102
 10
-3.1670938051
 20
-4.8126204184
 10
-3.1751844904
 20
-4.8228836099
 10
-3.1832139658
 20
-4.8331925759
 10
-3.1911825084
 20
-4.8435476963
 10
-3.1990903952
 20
-4.8539493513
 10
-3.2069378421
 20
-4.8643978362
 10
-3.2147248214
 20
-4.8748931065
 10
-3.2224512439
 20
-4.8854350332
 10
-3.2301170209
 20
-4.8960234871
  0
LINE
  5
592
100
AcDbEntity
  8
0
100
AcDbLine
 62
253
  6
CONTINUOUS
 10
-8.0181170209
 20
-12.3940234871
 11
-8.0841170209
 21
-12.4680234871
  0
LWPOLYLINE
  5
593
100
AcDbEntity
  8
0
100
AcDbPolyline
 62
253
  6
CONTINUOUS
 90
16
 70
0
 10
-8.1081170209
 20
-11.2220234871
 10
-8.1036019602
 20
-11.2169949633
 10
-8.0991415862
 20
-11.2119231682
 10
-8.094736077
 20
-11.2068082834
 10
-8.0903856107
 20
-11.2016504899
 10
-8.0860903653
 20
-11.1964499692
 10
-8.0818504052
 20
-11.1912067772
 10
-8.0776653393
 20
-11.1859204686
 10
-8.073534663
 20
-11.1805904727
 10
-8.0694578713
 20
-11.1752162189
 10
-8.0654344597
 20
-11.1697971366
 10
-8.061464056
 20
-11.1643327684
 10
-8.0575468188
 20
-11.1588231102
 10
-8.0536830396
 20
-11.1532682712
 10
-8.0498730099
 20
-11.1476683604
 10
-8.0461170209
 20
-11.1420234871
  0
LINE
  5
594
100
AcDbEntity
  8
0
100
AcDbLine
 62
253
  6
CONTINUOUS
 10
-4.2021170209
 20
-7.2680234871
 11
-4.2701170209
 21
-7.3420234871
  0
LINE
  5
595
100
AcDbEntity
  8
0
100
AcDbLine
 62
253
  6
CONTINUOUS
 10
-3.1501170209
 20
-7.9220234871
 11
-3.2181170209
 21
-7.9960234871
  0
LINE
  5
596
100
AcDbEntity
  8
0
100
AcDbLine
 62
253
  6
CONTINUOUS
 10
-6.1561170209
 20
-11.2060234871
 11
-6.1101170209
 21
-11.1600234871
  0
LWPOLYLINE
  5
597
100
AcDbEntity
  8
0
100
AcDbPolyline
 62
253
  6
CONTINUOUS
 90
19
 70
0
 10
-3.2301170209
 20
-4.8960234871
 10
-3.2384481201
 20
-4.9009702029
 10
-3.2467134409
 20
-4.9060019704
 10
-3.2549128347
 20
-4.9111183962
 10
-3.2630461531
 20
-4.9163190868
 10
-3.2711132477
 20
-4.9216036488
 10
-3.2791139702
 20
-4.9269716887
 10
-3.2870483237
 20
-4.9324229855
 10
-3.2949169177
 20
-4.9379580083
 10
-3.3027205136
 20
-4.9435773985
 10
-3.3104598724
 20
-4.9492817975
 10
-3.3181357553
 20
-4.9550718468
 10
-3.3257489237
 20
-4.9609481878
 10
-3.3332999695
 20
-4.9669113195
 10
-3.3407888082
 20
-4.9729611705
 10
-3.3482151863
 20
-4.9790975267
 10
-3.3555788502
 20
-4.9853201741
 10
-3.3628795463
 20
-4.991628899
 10
-3.3701170209
 20
-4.9980234871
  0
LINE
  5
598
100
AcDbEntity
  8
0
100
AcDbLine
 62
253
  6
CONTINUOUS
 10
-6.2501170209
 20
-6.3940234871
 11
-4.9501170209
 21
-5.8420234871
  0
LINE
  5
599
100
AcDbEntity
  8
0
100
AcDbLine
 62
253
  6
CONTINUOUS
 10
-4.3481170209
 20
-3.1520234871
 11
-3.0481170209
 21
-2.6020234871
  0
LINE
  5
59A
100
AcDbEntity
  8
RACCORDO
100
AcDbLine
 62
7
  6
CONTINUOUS
 10
29.1518829791
 20
4.0326019154
 11
15.2518829791
 21
3.7899765129
  0
LINE
  5
59B
100
AcDbEntity
  8
ASSI
100
AcDbLine
 62
7
  6
CONTINUOUS
 10
29.1518829791
 20
4.0326019154
 11
15.2518829791
 21
3.7899765129
  0
LINE
  5
59C
100
AcDbEntity
  8
CURVE
100
AcDbLine
 62
253
  6
CONTINUOUS
 10
-6.6909570209
 20
17.1164915129
 11
-6.0014513168
 21
15.5283578911
  0
LINE
  5
59D
100
AcDbEntity
  8
CURVE
100
AcDbLine
 62
253
  6
CONTINUOUS
 10
-7.3288111711
 20
18.5856591622
 11
-6.9110820209
 21
17.6235065129
  0
LINE
  5
59E
100
AcDbEntity
  8
CURVE
100
AcDbLine
 62
253
  6
CONTINUOUS
 10
-6.3365600209
 20
17.4743345129
 11
-7.0137650209
 21
19.0341415129
  0
LINE
  5
59F
100
AcDbEntity
  8
CURVE
100
AcDbLine
 62
253
  6
CONTINUOUS
 10
-5.6627155998
 20
15.9222728463
 11
-6.1164350209
 21
16.9673195129
  0
LINE
  5
5A0
100
AcDbEntity
  8
CURVE
100
AcDbLine
 62
253
  6
CONTINUOUS
 10
-6.6129070209
 20
18.9300595129
 11
-6.3950900209
 21
18.4283645129
  0
LWPOLYLINE
  5
5A1
100
AcDbEntity
  8
0
100
AcDbPolyline
 62
253
  6
CONTINUOUS
 90
22
 70
0
 10
-3.0841170209
 20
-20.3720234871
 10
-3.081246145
 20
-20.3640573281
 10
-3.0785113812
 20
-20.3560689254
 10
-3.0759124844
 20
-20.3480589325
 10
-3.0734492094
 20
-20.3400280029
 10
-3.0711213111
 20
-20.3319767899
 10
-3.0689285443
 20
-20.3239059472
 10
-3.0668706638
 20
-20.3158161281
 10
-3.0649474252
 20
-20.3077076106
 10
-3.0631585859
 20
-20.2995791708
 10
-3.0615039043
 20
-20.291429209
 10
-3.0599831386
 20
-20.2832561258
 10
-3.058596047
 20
-20.2750583216
 10
-3.0573423876
 20
-20.266834197
 10
-3.0562219188
 20
-20.2585821523
 10
-3.0552344842
 20
-20.2503009432
 10
-3.0543802702
 20
-20.2419907451
 10
-3.0536595485
 20
-20.2336520884
 10
-3.053072591
 20
-20.2252855038
 10
-3.0526196693
 20
-20.2168915217
 10
-3.0523010553
 20
-20.2084706727
 10
-3.0521170209
 20
-20.2000234871
  0
LINE
  5
5A2
100
AcDbEntity
  8
0
100
AcDbLine
 62
253
  6
CONTINUOUS
 10
-4.2941170209
 20
-19.9780234871
 11
-4.3361170209
 21
-20.0600234871
  0
LINE
  5
5A3
100
AcDbEntity
  8
0
100
AcDbLine
 62
253
  6
CONTINUOUS
 10
-3.6421170209
 20
-15.5200234871
 11
-3.6901170209
 21
-15.5960234871
  0
LINE
  5
5A4
100
AcDbEntity
  8
0
100
AcDbLine
 62
253
  6
CONTINUOUS
 10
-3.1381170209
 20
-16.0280234871
 11
-3.0821170209
 21
-15.9420234871
  0
LINE
  5
5A5
100
AcDbEntity
  8
0
100
AcDbLine
 62
253
  6
CONTINUOUS
 10
-3.7461170209
 20
-16.6640234871
 11
-3.6861170209
 21
-16.5780234871
  0
LWPOLYLINE
  5
5A6
100
AcDbEntity
  8
0
100
AcDbPolyline
 62
253
  6
CONTINUOUS
 90
13
 70
0
 10
-5.0361170209
 20
-11.8560234871
 10
-5.044453237
 20
-11.8661040911
 10
-5.0527281464
 20
-11.8762305499
 10
-5.0609416892
 20
-11.8864027102
 10
-5.0690938051
 20
-11.8966204184
 10
-5.0771844904
 20
-11.9068836099
 10
-5.0852139658
 20
-11.9171925759
 10
-5.0931825084
 20
-11.9275476963
 10
-5.1010903952
 20
-11.9379493513
 10
-5.1089378421
 20
-11.9483978362
 10
-5.1167248214
 20
-11.9588931065
 10
-5.1244512439
 20
-11.9694350332
 10
-5.1321170209
 20
-11.9800234871
  0
LINE
  5
5A7
100
AcDbEntity
  8
0
100
AcDbLine
 62
253
  6
CONTINUOUS
 10
-6.9641170209
 20
-13.0480234871
 11
-7.0321170209
 21
-13.1220234871
  0
LINE
  5
5A8
100
AcDbEntity
  8
0
100
AcDbLine
 62
253
  6
CONTINUOUS
 10
-8.0781170209
 20
-14.9500234871
 11
-8.0221170209
 21
-14.8980234871
  0
LINE
  5
5A9
100
AcDbEntity
  8
0
100
AcDbLine
 62
253
  6
CONTINUOUS
 10
-4.2641170209
 20
-10.0040234871
 11
-4.2081170209
 21
-9.9540234871
  0
LINE
  5
5AA
100
AcDbEntity
  8
0
100
AcDbLine
 62
253
  6
CONTINUOUS
 10
-3.5941170209
 20
-7.3580234871
 11
-3.5221170209
 21
-7.3020234871
  0
LINE
  5
5AB
100
AcDbEntity
  8
0
100
AcDbLine
 62
253
  6
CONTINUOUS
 10
-7.4101170209
 20
-12.4840234871
 11
-7.3361170209
 21
-12.4280234871
  0
LINE
  5
5AC
100
AcDbEntity
  8
0
100
AcDbLine
 62
253
  6
CONTINUOUS
 10
-6.2501170209
 20
-9.5800234871
 11
-4.9501170209
 21
-8.6680234871
  0
LWPOLYLINE
  5
5AD
100
AcDbEntity
  8
0
100
AcDbPolyline
 62
253
  6
CONTINUOUS
 90
14
 70
0
 10
-3.314394016
 20
-9.4615859653
 10
-3.3056283079
 20
-9.4555471826
 10
-3.296937774
 20
-9.4494884631
 10
-3.2883318277
 20
-9.4434015849
 10
-3.2798198826
 20
-9.4372783256
 10
-3.2714113522
 20
-9.4311104633
 10
-3.26311565
 20
-9.4248897756
 10
-3.2561016332
 20
-9.419509561
 10
-3.2491812386
 20
-9.4140798005
 10
-3.2423582783
 20
-9.408595799
 10
-3.2356365644
 20
-9.4030528618
 10
-3.2290199088
 20
-9.397446294
 10
-3.2225121236
 20
-9.3917714007
 10
-3.2161170209
 20
-9.3860234871
  0
LWPOLYLINE
  5
5AE
100
AcDbEntity
  8
0
100
AcDbPolyline
 62
253
  6
CONTINUOUS
 90
3
 70
0
 10
-3.3681170209
 20
-9.4980234871
 10
-3.3356870396
 20
-9.4760573389
 10
-3.314394016
 20
-9.4615859653
  0
LWPOLYLINE
  5
5AF
100
AcDbEntity
  8
0
100
AcDbPolyline
 62
253
  6
CONTINUOUS
 90
13
 70
0
 10
-4.0201170209
 20
-8.3960234871
 10
-4.0321495296
 20
-8.4038644653
 10
-4.0441151157
 20
-8.4117949268
 10
-4.0560135975
 20
-8.4198145956
 10
-4.0678447936
 20
-8.4279231956
 10
-4.0796086725
 20
-8.4361205898
 10
-4.0913058036
 20
-8.4444071965
 10
-4.1029369067
 20
-8.4527835728
 10
-4.1145027012
 20
-8.4612502759
 10
-4.1260037479
 20
-8.4698077378
 10
-4.1374399723
 20
-8.4784558896
 10
-4.1488111411
 20
-8.4871945374
 10
-4.1601170209
 20
-8.4960234871
  0
LINE
  5
5B0
100
AcDbEntity
  8
0
100
AcDbLine
 62
253
  6
CONTINUOUS
 10
-8.0461170209
 20
-11.1420234871
 11
-7.9661170209
 21
-11.0980234871
  0
LINE
  5
5B1
100
AcDbEntity
  8
0
100
AcDbLine
 62
253
  6
CONTINUOUS
 10
-3.9441170209
 20
-7.9460234871
 11
-3.8481170209
 21
-7.8940234871
  0
LINE
  5
5B2
100
AcDbEntity
  8
0
100
AcDbLine
 62
253
  6
CONTINUOUS
 10
-3.5221170209
 20
-7.3020234871
 11
-3.4541170209
 21
-7.2680234871
  0
LINE
  5
5B3
100
AcDbEntity
  8
0
100
AcDbLine
 62
253
  6
CONTINUOUS
 10
-8.1641170209
 20
-10.0520234871
 11
-6.8641170209
 21
-9.5000234871
  0
LINE
  5
5B4
100
AcDbEntity
  8
0
100
AcDbLine
 62
253
  6
CONTINUOUS
 10
-3.3701170209
 20
-4.9980234871
 11
-3.5341170209
 21
-5.0540234871
  0
LINE
  5
5B5
100
AcDbEntity
  8
RACCORDO
100
AcDbLine
 62
253
  6
CONTINUOUS
 10
12.3431567759
 20
4.346655258
 11
28.6606091823
 21
4.6314774493
  0
LINE
  5
5B6
100
AcDbEntity
  8
ASSI
100
AcDbLine
 62
253
  6
CONTINUOUS
 10
12.3431567759
 20
4.346655258
 11
28.6606091823
 21
4.6314774493
  0
LINE
  5
5B7
100
AcDbEntity
  8
RACCORDO
100
AcDbLine
 62
7
  6
CONTINUOUS
 10
12.3431567759
 20
4.8465791056
 11
28.6606091823
 21
5.1314012968
  0
LINE
  5
5B8
100
AcDbEntity
  8
ASSI
100
AcDbLine
 62
7
  6
CONTINUOUS
 10
12.3431567759
 20
4.8465791056
 11
28.6606091823
 21
5.1314012968
  0
LINE
  5
5B9
100
AcDbEntity
  8
RACCORDO
100
AcDbLine
 62
253
  6
CONTINUOUS
 10
12.3431567759
 20
5.3465029532
 11
28.1693353855
 21
5.6227499284
  0
LINE
  5
5BA
100
AcDbEntity
  8
ASSI
100
AcDbLine
 62
253
  6
CONTINUOUS
 10
12.3431567759
 20
5.3465029532
 11
28.1693353855
 21
5.6227499284
  0
LINE
  5
5BB
100
AcDbEntity
  8
RACCORDO
100
AcDbLine
 62
253
  6
CONTINUOUS
 10
28.1693353855
 20
5.6227499284
 11
29.1518829791
 21
5.6313251444
  0
LINE
  5
5BC
100
AcDbEntity
  8
ASSI
100
AcDbLine
 62
253
  6
CONTINUOUS
 10
28.1693353855
 20
5.6227499284
 11
29.1518829791
 21
5.6313251444
  0
LINE
  5
5BD
100
AcDbEntity
  8
RACCORDO
100
AcDbLine
 62
253
  6
CONTINUOUS
 10
11.8518829791
 20
4.346655258
 11
12.3431567759
 21
4.346655258
  0
LINE
  5
5BE
100
AcDbEntity
  8
ASSI
100
AcDbLine
 62
253
  6
CONTINUOUS
 10
11.8518829791
 20
4.346655258
 11
12.3431567759
 21
4.346655258
  0
LINE
  5
5BF
100
AcDbEntity
  8
RACCORDO
100
AcDbLine
 62
253
  6
CONTINUOUS
 10
29.1518829791
 20
4.6314774531
 11
28.6606091823
 21
4.6314774516
  0
LINE
  5
5C0
100
AcDbEntity
  8
ASSI
100
AcDbLine
 62
253
  6
CONTINUOUS
 10
29.1518829791
 20
4.6314774531
 11
28.6606091823
 21
4.6314774516
  0
LINE
  5
5C1
100
AcDbEntity
  8
RACCORDO
100
AcDbLine
 62
253
  6
CONTINUOUS
 10
11.8518829791
 20
5.3465029494
 11
12.3431567759
 21
5.3465029509
  0
LINE
  5
5C2
100
AcDbEntity
  8
ASSI
100
AcDbLine
 62
253
  6
CONTINUOUS
 10
11.8518829791
 20
5.3465029494
 11
12.3431567759
 21
5.3465029509
  0
LINE
  5
5C3
100
AcDbEntity
  8
RACCORDO
100
AcDbLine
 62
7
  6
CONTINUOUS
 10
30.5518829791
 20
6.0399765129
 11
29.1518829791
 21
6.0399765129
  0
LINE
  5
5C4
100
AcDbEntity
  8
ASSI
100
AcDbLine
 62
7
  6
CONTINUOUS
 10
30.5518829791
 20
6.0399765129
 11
29.1518829791
 21
6.0399765129
  0
LINE
  5
5C5
100
AcDbEntity
  8
RACCORDO
100
AcDbLine
 62
7
  6
CONTINUOUS
 10
25.1518829791
 20
6.2899765129
 11
29.1518829791
 21
6.2899765129
  0
LINE
  5
5C6
100
AcDbEntity
  8
ASSI
100
AcDbLine
 62
7
  6
CONTINUOUS
 10
25.1518829791
 20
6.2899765129
 11
29.1518829791
 21
6.2899765129
  0
LINE
  5
5C7
100
AcDbEntity
  8
DRAFT
100
AcDbLine
 62
7
  6
CONTINUOUS
 10
16.9318796234
 20
3.112579121
 11
15.2518829791
 21
3.1712458966
  0
LINE
  5
5C8
100
AcDbEntity
  8
CURVE
100
AcDbLine
 62
253
  6
CONTINUOUS
 10
-4.1481170567
 20
10.9899765129
 11
-4.7481170209
 21
11.6619765429
  0
LINE
  5
5C9
100
AcDbEntity
  8
CURVE
100
AcDbLine
 62
253
  6
CONTINUOUS
 10
-4.2981169851
 20
12.6699765529
 11
-4.7481170209
 21
13.1739764528
  0
LWPOLYLINE
  5
5CA
100
AcDbEntity
  8
RACCORDO
100
AcDbPolyline
 62
253
  6
CONTINUOUS
 90
6
 70
0
 10
-0.1306646145
 20
23.5976661658
 10
-0.1301118072
 20
23.5946187781
 10
-0.1296818058
 20
23.5855903224
 10
-0.1293876705
 20
23.5708550188
 10
-0.1292383351
 20
23.5508604197
 10
-0.1292383352
 20
23.5262138169
  0
LWPOLYLINE
  5
5CB
100
AcDbEntity
  8
ASSI
100
AcDbPolyline
 62
253
  6
CONTINUOUS
 90
6
 70
0
 10
-0.1306646145
 20
23.5976661658
 10
-0.1301118072
 20
23.5946187781
 10
-0.1296818058
 20
23.5855903224
 10
-0.1293876705
 20
23.5708550188
 10
-0.1292383351
 20
23.5508604197
 10
-0.1292383352
 20
23.5262138169
  0
LINE
  5
5CC
100
AcDbEntity
  8
CURVE
100
AcDbLine
 62
253
  6
CONTINUOUS
 10
6.9518829791
 20
13.4593100395
 11
6.9518829791
 21
13.0033097495
  0
LINE
  5
5CD
100
AcDbEntity
  8
CURVE
100
AcDbLine
 62
253
  6
CONTINUOUS
 10
6.9518829791
 20
9.8619764766
 11
6.9518829791
 21
10.013976531
  0
LINE
  5
5CE
100
AcDbEntity
  8
CURVE
100
AcDbLine
 62
253
  6
CONTINUOUS
 10
6.9518829791
 20
14.3713096046
 11
6.9518829791
 21
15.2833096771
  0
LINE
  5
5CF
100
AcDbEntity
  8
CURVE
100
AcDbLine
 62
253
  6
CONTINUOUS
 10
6.9518829791
 20
16.3473096771
 11
6.9518829791
 21
16.4993096046
  0
LINE
  5
5D0
100
AcDbEntity
  8
CURVE
100
AcDbLine
 62
253
  6
CONTINUOUS
 10
7.7661686449
 20
14.979309822
 11
7.7661686449
 21
14.3713096046
  0
LINE
  5
5D1
100
AcDbEntity
  8
CURVE
100
AcDbLine
 62
253
  6
CONTINUOUS
 10
8.8518829791
 20
16.4993096046
 11
8.8518829791
 21
16.3473096771
  0
LINE
  5
5D2
100
AcDbEntity
  8
CURVE
100
AcDbLine
 62
253
  6
CONTINUOUS
 10
8.8518829791
 20
13.7633098945
 11
8.8518829791
 21
12.6993098945
  0
LINE
  5
5D3
100
AcDbEntity
  8
CURVE
100
AcDbLine
 62
253
  6
CONTINUOUS
 10
8.8518829791
 20
10.013976531
 11
8.8518829791
 21
9.8619764766
  0
LINE
  5
5D4
100
AcDbEntity
  8
CURVE
100
AcDbLine
 62
253
  6
CONTINUOUS
 10
8.8518829791
 20
14.3713096046
 11
8.8518829791
 21
14.979309822
  0
LINE
  5
5D5
100
AcDbEntity
  8
0
100
AcDbLine
 62
253
  6
CONTINUOUS
 10
-3.6441170209
 20
-19.9500234871
 11
-3.6921170209
 21
-20.0260234871
  0
LINE
  5
5D6
100
AcDbEntity
  8
0
100
AcDbLine
 62
253
  6
CONTINUOUS
 10
-3.1401170209
 20
-20.4580234871
 11
-3.0841170209
 21
-20.3720234871
  0
LINE
  5
5D7
100
AcDbEntity
  8
0
100
AcDbLine
 62
253
  6
CONTINUOUS
 10
-3.0841170209
 20
-17.0320234871
 11
-3.1481170209
 21
-17.1280234871
  0
LINE
  5
5D8
100
AcDbEntity
  8
0
100
AcDbLine
 62
253
  6
CONTINUOUS
 10
-3.0861170209
 20
-19.2460234871
 11
-3.1501170209
 21
-19.3420234871
  0
LINE
  5
5D9
100
AcDbEntity
  8
0
100
AcDbLine
 62
253
  6
CONTINUOUS
 10
-3.7481170209
 20
-18.8800234871
 11
-3.6881170209
 21
-18.7940234871
  0
LINE
  5
5DA
100
AcDbEntity
  8
0
100
AcDbLine
 62
253
  6
CONTINUOUS
 10
-4.1941170209
 20
-17.6740234871
 11
-4.3141170209
 21
-17.8020234871
  0
LINE
  5
5DB
100
AcDbEntity
  8
0
100
AcDbLine
 62
253
  6
CONTINUOUS
 10
-3.5741170209
 20
-15.4500234871
 11
-3.6421170209
 21
-15.5200234871
  0
LINE
  5
5DC
100
AcDbEntity
  8
0
100
AcDbLine
 62
253
  6
CONTINUOUS
 10
-4.2221170209
 20
-15.4800234871
 11
-4.2921170209
 21
-15.5480234871
  0
LINE
  5
5DD
100
AcDbEntity
  8
0
100
AcDbLine
 62
253
  6
CONTINUOUS
 10
-3.2161170209
 20
-16.0980234871
 11
-3.1381170209
 21
-16.0280234871
  0
LINE
  5
5DE
100
AcDbEntity
  8
0
100
AcDbLine
 62
253
  6
CONTINUOUS
 10
-3.6701170209
 20
-10.2880234871
 11
-3.0541170209
 21
-9.9200234871
  0
LINE
  5
5DF
100
AcDbEntity
  8
0
100
AcDbLine
 62
253
  6
CONTINUOUS
 10
-7.4861170209
 20
-15.2320234871
 11
-6.8701170209
 21
-14.8640234871
  0
LWPOLYLINE
  5
5E0
100
AcDbEntity
  8
0
100
AcDbPolyline
 62
253
  6
CONTINUOUS
 90
19
 70
0
 10
-5.1321170209
 20
-11.9800234871
 10
-5.1404481201
 20
-11.9849702029
 10
-5.1487134409
 20
-11.9900019704
 10
-5.1569128347
 20
-11.9951183962
 10
-5.1650461531
 20
-12.0003190868
 10
-5.1731132477
 20
-12.0056036488
 10
-5.1811139702
 20
-12.0109716887
 10
-5.1890483237
 20
-12.0164229855
 10
-5.1969169177
 20
-12.0219580083
 10
-5.2047205136
 20
-12.0275773985
 10
-5.2124598724
 20
-12.0332817975
 10
-5.2201357553
 20
-12.0390718468
 10
-5.2277489237
 20
-12.0449481878
 10
-5.2352999695
 20
-12.0509113195
 10
-5.2427888082
 20
-12.0569611705
 10
-5.2502151863
 20
-12.0630975267
 10
-5.2575788502
 20
-12.0693201741
 10
-5.2648795463
 20
-12.075628899
 10
-5.2721170209
 20
-12.0820234871
  0
LINE
  5
5E1
100
AcDbEntity
  8
0
100
AcDbLine
 62
253
  6
CONTINUOUS
 10
-7.7581170209
 20
-13.0720234871
 11
-7.6621170209
 21
-13.0200234871
  0
LINE
  5
5E2
100
AcDbEntity
  8
0
100
AcDbLine
 62
253
  6
CONTINUOUS
 10
-7.3361170209
 20
-12.4280234871
 11
-7.2681170209
 21
-12.3940234871
  0
LINE
  5
5E3
100
AcDbEntity
  8
0
100
AcDbLine
 62
253
  6
CONTINUOUS
 10
-4.3481170209
 20
-11.6340234871
 11
-3.0481170209
 21
-11.0820234871
  0
LWPOLYLINE
  5
5E4
100
AcDbEntity
  8
0
100
AcDbPolyline
 62
253
  6
CONTINUOUS
 90
25
 70
0
 10
-7.9661170209
 20
-11.0980234871
 10
-7.9613317396
 20
-11.0962009404
 10
-7.9565348507
 20
-11.0944587899
 10
-7.9517268147
 20
-11.0927967299
 10
-7.946908092
 20
-11.0912144548
 10
-7.9420791429
 20
-11.0897116589
 10
-7.9372404279
 20
-11.0882880364
 10
-7.9323924073
 20
-11.0869432819
 10
-7.9275355416
 20
-11.0856770894
 10
-7.9226700482
 20
-11.0844891926
 10
-7.9177951732
 20
-11.0833794815
 10
-7.9129099196
 20
-11.0823478851
 10
-7.9080132906
 20
-11.0813943327
 10
-7.9031042893
 20
-11.0805187534
 10
-7.8981819188
 20
-11.0797210764
 10
-7.8932451821
 20
-11.0790012308
 10
-7.8882930824
 20
-11.0783591458
 10
-7.8833248443
 20
-11.0777947704
 10
-7.8783405787
 20
-11.0773081327
 10
-7.8733406179
 20
-11.0768992807
 10
-7.8683252944
 20
-11.0765682625
 10
-7.8632949406
 20
-11.0763151261
 10
-7.8582498888
 20
-11.0761399193
 10
-7.8531904714
 20
-11.0760426904
 10
-7.8481170209
 20
-11.0760234871
  0
LINE
  5
5E5
100
AcDbEntity
  8
0
100
AcDbLine
 62
253
  6
CONTINUOUS
 10
-5.2721170209
 20
-12.0820234871
 11
-5.4361170209
 21
-12.1380234871
  0
LINE
  5
5E6
100
AcDbEntity
  8
0
100
AcDbLine
 62
253
  6
CONTINUOUS
 10
-4.2081170209
 20
-9.9540234871
 11
-4.1061170209
 21
-9.9200234871
  0
LWPOLYLINE
  5
5E7
100
AcDbEntity
  8
0
100
AcDbPolyline
 62
253
  6
CONTINUOUS
 90
10
 70
0
 10
-3.5521170209
 20
-9.5600234871
 10
-3.5314930398
 20
-9.5536466135
 10
-3.5109141927
 20
-9.5471417297
 10
-3.4903806477
 20
-9.5405089815
 10
-3.4698924501
 20
-9.5337484527
 10
-3.449449154
 20
-9.5268599793
 10
-3.429050191
 20
-9.519843335
 10
-3.4086951186
 20
-9.5126983447
 10
-3.3883839991
 20
-9.5054250359
 10
-3.3681170209
 20
-9.4980234871
  0
LINE
  5
5E8
100
AcDbEntity
  8
DRAFT
100
AcDbLine
 62
7
  6
CONTINUOUS
 10
22.5518829791
 20
8.5767457076
 11
22.2422414731
 21
8.571340895
  0
LINE
  5
5E9
100
AcDbEntity
  8
RACCORDO
100
AcDbLine
 62
7
  6
CONTINUOUS
 10
23.0518829791
 20
7.4899765129
 11
23.5648980326
 21
7.4899765129
  0
LINE
  5
5EA
100
AcDbEntity
  8
ASSI
100
AcDbLine
 62
7
  6
CONTINUOUS
 10
23.0518829791
 20
7.4899765129
 11
23.5648980326
 21
7.4899765129
  0
LINE
  5
5EB
100
AcDbEntity
  8
0
100
AcDbLine
 62
7
  6
CONTINUOUS
 10
25.5018829791
 20
8.1472815682
 11
25.2245002178
 21
8.1472815682
  0
LINE
  5
5EC
100
AcDbEntity
  8
0
100
AcDbLine
 62
7
  6
CONTINUOUS
 10
25.0792657404
 20
8.1472815682
 11
24.8018829791
 21
8.1472815682
  0
LINE
  5
5ED
100
AcDbEntity
  8
0
100
AcDbLine
 62
7
  6
CONTINUOUS
 10
27.4215061273
 20
8.6899765129
 11
25.6477230421
 21
8.6899765129
  0
LINE
  5
5EE
100
AcDbEntity
  8
0
100
AcDbLine
 62
7
  6
CONTINUOUS
 10
24.6560429161
 20
8.6899765129
 11
22.8822598309
 21
8.6899765129
  0
LINE
  5
5EF
100
AcDbEntity
  8
0
100
AcDbLine
 62
7
  6
CONTINUOUS
 10
29.1518829791
 20
8.7649765129
 11
29.3518829791
 21
8.7649765129
  0
LINE
  5
5F0
100
AcDbEntity
  8
ASSI
100
AcDbLine
 62
7
  6
CONTINUOUS
 10
29.1518829791
 20
8.7649765129
 11
29.3518829791
 21
8.7649765129
  0
LINE
  5
5F1
100
AcDbEntity
  8
CURVE
100
AcDbLine
 62
253
  6
CONTINUOUS
 10
6.9518829791
 20
8.79797654
 11
8.8518829791
 21
8.79797654
  0
LINE
  5
5F2
100
AcDbEntity
  8
0
100
AcDbLine
 62
7
  6
CONTINUOUS
 10
26.6435850494
 20
8.9399765129
 11
26.2420779158
 21
8.9399765129
  0
LINE
  5
5F3
100
AcDbEntity
  8
0
100
AcDbLine
 62
7
  6
CONTINUOUS
 10
24.0616880424
 20
8.9399765129
 11
23.6601809088
 21
8.9399765129
  0
LINE
  5
5F4
100
AcDbEntity
  8
CURVE
100
AcDbLine
 62
253
  6
CONTINUOUS
 10
8.309025812
 20
9.4059765672
 11
7.4947400896
 21
9.4059765672
  0
LINE
  5
5F5
100
AcDbEntity
  8
0
100
AcDbLine
 62
7
  6
CONTINUOUS
 10
26.6435850494
 20
9.6399765129
 11
26.2420779158
 21
9.6399765129
  0
LINE
  5
5F6
100
AcDbEntity
  8
0
100
AcDbLine
 62
7
  6
CONTINUOUS
 10
24.0616880424
 20
9.6399765129
 11
23.6601809088
 21
9.6399765129
  0
LWPOLYLINE
  5
5F7
100
AcDbEntity
  8
0
100
AcDbPolyline
 62
7
  6
CONTINUOUS
 90
10
 70
0
 10
24.8018829791
 20
7.3637124605
 10
24.8795248939
 20
7.361895531
 10
24.95723474
 20
7.3605328338
 10
25.0350125174
 20
7.359624369
 10
25.1129035135
 20
7.3591701366
 10
25.190862441
 20
7.3591701366
 10
25.2687534375
 20
7.359624369
 10
25.3465312156
 20
7.3605328338
 10
25.4242410628
 20
7.361895531
 10
25.5018829791
 20
7.3637124605
  0
LINE
  5
5F8
100
AcDbEntity
  8
CURVE
100
AcDbLine
 62
253
  6
CONTINUOUS
 10
-8.1470250209
 20
11.8257315129
 11
-5.1481170209
 21
11.0470745129
  0
LINE
  5
5F9
100
AcDbEntity
  8
CURVE
100
AcDbLine
 62
253
  6
CONTINUOUS
 10
-9.6461420209
 20
12.2149715129
 11
-8.7528300209
 21
11.9830265129
  0
LINE
  5
5FA
100
AcDbEntity
  8
CURVE
100
AcDbLine
 62
253
  6
CONTINUOUS
 10
-5.1481170209
 20
10.0899765129
 11
-7.6831450209
 21
10.7572765129
  0
LINE
  5
5FB
100
AcDbEntity
  8
CURVE
100
AcDbLine
 62
253
  6
CONTINUOUS
 10
-8.2961270209
 20
10.9311045129
 11
-9.1910100209
 21
11.1666665129
  0
LWPOLYLINE
  5
5FC
100
AcDbEntity
  8
CURVE
100
AcDbPolyline
 62
253
  6
CONTINUOUS
 90
43
 70
0
 10
-7.8288011892
 20
12.2758375951
 10
-7.8446342199
 20
12.2835281292
 10
-7.8601068977
 20
12.2917019467
 10
-7.8752332506
 20
12.3003665662
 10
-7.8900273066
 20
12.3095295064
 10
-7.9045030936
 20
12.3191982858
 10
-7.9186746396
 20
12.329380423
 10
-7.9325457265
 20
12.3400785974
 10
-7.9460791532
 20
12.351276131
 10
-7.9592274727
 20
12.3629515069
 10
-7.9688096208
 20
12.3720099008
 10
-7.9781415059
 20
12.3813232309
 10
-7.9872161769
 20
12.3908897507
 10
-7.9960266824
 20
12.4007077135
 10
-8.0045652205
 20
12.4107742982
 10
-8.0128205848
 20
12.4210823861
 10
-8.0207807182
 20
12.4316237841
 10
-8.0284335634
 20
12.4423902988
 10
-8.0357694251
 20
12.4533710203
 10
-8.0427880548
 20
12.4645441715
 10
-8.0494915659
 20
12.4758852582
 10
-8.0558820719
 20
12.4873697866
 10
-8.0639232799
 20
12.5028720483
 10
-8.0714394658
 20
12.5185802795
 10
-8.0784583038
 20
12.5344889874
 10
-8.085004493
 20
12.5505869291
 10
-8.0910908311
 20
12.5668398617
 10
-8.0967271407
 20
12.5832077925
 10
-8.1019251692
 20
12.5996585324
 10
-8.106704363
 20
12.6161911075
 10
-8.1110860935
 20
12.6328123477
 10
-8.115091732
 20
12.6495290829
 10
-8.1187426498
 20
12.6663481427
 10
-8.1220602184
 20
12.6832763572
 10
-8.1256304184
 20
12.7037420678
 10
-8.1287825885
 20
12.7243755141
 10
-8.1315479467
 20
12.7451774144
 10
-8.1339577115
 20
12.7661484867
 10
-8.136043101
 20
12.7872894492
 10
-8.1382428638
 20
12.8139663095
 10
-8.140055259
 20
12.8409750775
 10
-8.1415509767
 20
12.8683810855
 10
-8.1428007071
 20
12.8962496657
  0
LINE
  5
5FD
100
AcDbEntity
  8
CURVE
100
AcDbLine
 62
253
  6
CONTINUOUS
 10
-3.6981170209
 20
12.3339765729
 11
-4.2981169851
 21
12.6699765529
  0
LINE
  5
5FE
100
AcDbEntity
  8
CURVE
100
AcDbLine
 62
253
  6
CONTINUOUS
 10
-2.9481170343
 20
13.5099764327
 11
-2.6481170209
 21
13.1739764528
  0
LINE
  5
5FF
100
AcDbEntity
  8
CURVE
100
AcDbLine
 62
253
  6
CONTINUOUS
 10
-4.4481170388
 20
17.877976593
 11
-4.7481170209
 21
18.2139764327
  0
LINE
  5
600
100
AcDbEntity
  8
CURVE
100
AcDbLine
 62
253
  6
CONTINUOUS
 10
-2.9481170343
 20
17.0379764327
 11
-2.6481170209
 21
16.701976593
  0
LINE
  5
601
100
AcDbEntity
  8
RACCORDO
100
AcDbLine
 62
253
  6
CONTINUOUS
 10
11.3606091823
 20
-20.3172083622
 11
11.3622364007
 21
-20.4214527181
  0
LINE
  5
602
100
AcDbEntity
  8
ASSI
100
AcDbLine
 62
253
  6
CONTINUOUS
 10
11.3606091823
 20
-20.3172083622
 11
11.3622364007
 21
-20.4214527181
  0
LINE
  5
603
100
AcDbEntity
  8
RACCORDO
100
AcDbLine
 62
253
  6
CONTINUOUS
 10
12.3431567759
 20
4.346655258
 11
12.3415340101
 21
4.4505754162
  0
LINE
  5
604
100
AcDbEntity
  8
ASSI
100
AcDbLine
 62
253
  6
CONTINUOUS
 10
12.3431567759
 20
4.346655258
 11
12.3415340101
 21
4.4505754162
  0
LINE
  5
605
100
AcDbEntity
  8
RACCORDO
100
AcDbLine
 62
253
  6
CONTINUOUS
 10
12.3431567759
 20
13.2334500725
 11
12.3415166612
 21
13.337354782
  0
LINE
  5
606
100
AcDbEntity
  8
ASSI
100
AcDbLine
 62
253
  6
CONTINUOUS
 10
12.3431567759
 20
13.2334500725
 11
12.3415166612
 21
13.337354782
  0
LINE
  5
607
100
AcDbEntity
  8
RACCORDO
100
AcDbLine
 62
253
  6
CONTINUOUS
 10
12.345425004
 20
-20.454508995
 11
12.3431567712
 21
-20.3000579303
  0
LINE
  5
608
100
AcDbEntity
  8
ASSI
100
AcDbLine
 62
253
  6
CONTINUOUS
 10
12.345425004
 20
-20.454508995
 11
12.3431567712
 21
-20.3000579303
  0
LINE
  5
609
100
AcDbEntity
  8
RACCORDO
100
AcDbLine
 62
253
  6
CONTINUOUS
 10
11.3622364007
 20
-20.4214527181
 11
11.3634085644
 21
-20.5211268119
  0
LINE
  5
60A
100
AcDbEntity
  8
ASSI
100
AcDbLine
 62
253
  6
CONTINUOUS
 10
11.3622364007
 20
-20.4214527181
 11
11.3634085644
 21
-20.5211268119
  0
LINE
  5
60B
100
AcDbEntity
  8
RACCORDO
100
AcDbLine
 62
253
  6
CONTINUOUS
 10
12.3415340101
 20
4.4505754162
 11
12.3403633691
 21
4.5499555195
  0
LINE
  5
60C
100
AcDbEntity
  8
ASSI
100
AcDbLine
 62
253
  6
CONTINUOUS
 10
12.3415340101
 20
4.4505754162
 11
12.3403633691
 21
4.5499555195
  0
LINE
  5
60D
100
AcDbEntity
  8
RACCORDO
100
AcDbLine
 62
253
  6
CONTINUOUS
 10
12.3415166612
 20
13.337354782
 11
12.3403716883
 21
13.4367646685
  0
LINE
  5
60E
100
AcDbEntity
  8
ASSI
100
AcDbLine
 62
253
  6
CONTINUOUS
 10
12.3415166612
 20
13.337354782
 11
12.3403716883
 21
13.4367646685
  0
LWPOLYLINE
  5
60F
100
AcDbEntity
  8
RACCORDO
100
AcDbPolyline
 62
253
  6
CONTINUOUS
 90
7
 70
0
 10
12.3397012647
 20
13.8281104039
 10
12.3399743567
 20
13.7996298643
 10
12.340378858
 20
13.7759332769
 10
12.340907706
 20
13.7573535249
 10
12.3415524575
 20
13.7440425992
 10
12.3423053087
 20
13.7360442309
 10
12.3431567759
 20
13.7333739201
  0
LWPOLYLINE
  5
610
100
AcDbEntity
  8
ASSI
100
AcDbPolyline
 62
253
  6
CONTINUOUS
 90
7
 70
0
 10
12.3397012647
 20
13.8281104039
 10
12.3399743567
 20
13.7996298643
 10
12.340378858
 20
13.7759332769
 10
12.340907706
 20
13.7573535249
 10
12.3415524575
 20
13.7440425992
 10
12.3423053087
 20
13.7360442309
 10
12.3431567759
 20
13.7333739201
  0
LWPOLYLINE
  5
611
100
AcDbEntity
  8
RACCORDO
100
AcDbPolyline
 62
253
  6
CONTINUOUS
 90
7
 70
0
 10
12.3396958664
 20
4.9420379358
 10
12.3399658314
 20
4.913536444
 10
12.3403701976
 20
4.8897789971
 10
12.340887671
 20
4.8710259881
 10
12.3415154195
 20
4.8574843921
 10
12.3422690255
 20
4.8493048898
 10
12.3431567759
 20
4.8465791056
  0
LWPOLYLINE
  5
612
100
AcDbEntity
  8
ASSI
100
AcDbPolyline
 62
253
  6
CONTINUOUS
 90
7
 70
0
 10
12.3396958664
 20
4.9420379358
 10
12.3399658314
 20
4.913536444
 10
12.3403701976
 20
4.8897789971
 10
12.340887671
 20
4.8710259881
 10
12.3415154195
 20
4.8574843921
 10
12.3422690255
 20
4.8493048898
 10
12.3431567759
 20
4.8465791056
  0
LINE
  5
613
100
AcDbEntity
  8
RACCORDO
100
AcDbLine
 62
253
  6
CONTINUOUS
 10
12.3463490825
 20
-20.549969365
 11
12.345425004
 21
-20.454508995
  0
LINE
  5
614
100
AcDbEntity
  8
ASSI
100
AcDbLine
 62
253
  6
CONTINUOUS
 10
12.3463490825
 20
-20.549969365
 11
12.345425004
 21
-20.454508995
  0
LINE
  5
615
100
AcDbEntity
  8
RACCORDO
100
AcDbLine
 62
253
  6
CONTINUOUS
 10
11.3634085644
 20
-20.5211268119
 11
11.3640738549
 21
-20.6118274892
  0
LINE
  5
616
100
AcDbEntity
  8
ASSI
100
AcDbLine
 62
253
  6
CONTINUOUS
 10
11.3634085644
 20
-20.5211268119
 11
11.3640738549
 21
-20.6118274892
  0
LINE
  5
617
100
AcDbEntity
  8
RACCORDO
100
AcDbLine
 62
253
  6
CONTINUOUS
 10
12.3403633691
 20
4.5499555195
 11
12.3396959959
 21
4.6404538587
  0
LINE
  5
618
100
AcDbEntity
  8
ASSI
100
AcDbLine
 62
253
  6
CONTINUOUS
 10
12.3403633691
 20
4.5499555195
 11
12.3396959959
 21
4.6404538587
  0
LINE
  5
619
100
AcDbEntity
  8
RACCORDO
100
AcDbLine
 62
253
  6
CONTINUOUS
 10
12.3403716883
 20
13.4367646685
 11
12.3396962099
 21
13.5273145978
  0
LINE
  5
61A
100
AcDbEntity
  8
ASSI
100
AcDbLine
 62
253
  6
CONTINUOUS
 10
12.3403716883
 20
13.4367646685
 11
12.3396962099
 21
13.5273145978
  0
LINE
  5
61B
100
AcDbEntity
  8
RACCORDO
100
AcDbLine
 62
253
  6
CONTINUOUS
 10
12.3467524902
 20
-20.6345132669
 11
12.3463490825
 21
-20.549969365
  0
LINE
  5
61C
100
AcDbEntity
  8
ASSI
100
AcDbLine
 62
253
  6
CONTINUOUS
 10
12.3467524902
 20
-20.6345132669
 11
12.3463490825
 21
-20.549969365
  0
LINE
  5
61D
100
AcDbEntity
  8
RACCORDO
100
AcDbLine
 62
253
  6
CONTINUOUS
 10
11.3606091823
 20
-20.3172083622
 11
11.3606091823
 21
19.8971613879
  0
LINE
  5
61E
100
AcDbEntity
  8
ASSI
100
AcDbLine
 62
253
  6
CONTINUOUS
 10
11.3606091823
 20
-20.3172083622
 11
11.3606091823
 21
19.8971613879
  0
LINE
  5
61F
100
AcDbEntity
  8
RACCORDO
100
AcDbLine
 62
253
  6
CONTINUOUS
 10
11.3640699623
 20
20.3015545873
 11
11.3642049117
 21
20.2316229399
  0
LINE
  5
620
100
AcDbEntity
  8
ASSI
100
AcDbLine
 62
253
  6
CONTINUOUS
 10
11.3640699623
 20
20.3015545873
 11
11.3642049117
 21
20.2316229399
  0
LINE
  5
621
100
AcDbEntity
  8
RACCORDO
100
AcDbLine
 62
7
  6
CONTINUOUS
 10
11.8518829791
 20
-20.3172083622
 11
11.8518829791
 21
19.8971613879
  0
LINE
  5
622
100
AcDbEntity
  8
ASSI
100
AcDbLine
 62
7
  6
CONTINUOUS
 10
11.8518829791
 20
-20.3172083622
 11
11.8518829791
 21
19.8971613879
  0
LINE
  5
623
100
AcDbEntity
  8
RACCORDO
100
AcDbLine
 62
253
  6
CONTINUOUS
 10
12.3395659989
 20
5.0119690768
 11
12.3396958664
 21
4.9420379358
  0
LINE
  5
624
100
AcDbEntity
  8
ASSI
100
AcDbLine
 62
253
  6
CONTINUOUS
 10
12.3395659989
 20
5.0119690768
 11
12.3396958664
 21
4.9420379358
  0
LWPOLYLINE
  5
625
100
AcDbEntity
  8
RACCORDO
100
AcDbPolyline
 62
253
  6
CONTINUOUS
 90
9
 70
0
 10
12.3396959959
 20
4.6404538587
 10
12.3395610465
 20
4.7181167503
 10
12.3396959959
 20
4.7510484574
 10
12.3399644167
 20
4.7795512645
 10
12.3403633691
 20
4.8033130098
 10
12.3408884839
 20
4.8220734556
 10
12.3415340101
 20
4.8356271382
 10
12.3422928778
 20
4.843825618
 10
12.3431567759
 20
4.8465791056
  0
LWPOLYLINE
  5
626
100
AcDbEntity
  8
ASSI
100
AcDbPolyline
 62
253
  6
CONTINUOUS
 90
9
 70
0
 10
12.3396959959
 20
4.6404538587
 10
12.3395610465
 20
4.7181167503
 10
12.3396959959
 20
4.7510484574
 10
12.3399644167
 20
4.7795512645
 10
12.3403633691
 20
4.8033130098
 10
12.3408884839
 20
4.8220734556
 10
12.3415340101
 20
4.8356271382
 10
12.3422928778
 20
4.843825618
 10
12.3431567759
 20
4.8465791056
  0
LWPOLYLINE
  5
627
100
AcDbEntity
  8
RACCORDO
100
AcDbPolyline
 62
253
  6
CONTINUOUS
 90
9
 70
0
 10
12.3396962099
 20
13.5273145978
 10
12.3395659063
 20
13.6049841265
 10
12.3396958674
 20
13.6379151907
 10
12.3399658321
 20
13.6664166501
 10
12.3403701978
 20
13.6901740685
 10
12.3408876708
 20
13.7089270574
 10
12.3415154192
 20
13.7224686415
 10
12.3422690254
 20
13.7306481376
 10
12.3431567759
 20
13.7333739201
  0
LWPOLYLINE
  5
628
100
AcDbEntity
  8
ASSI
100
AcDbPolyline
 62
253
  6
CONTINUOUS
 90
9
 70
0
 10
12.3396962099
 20
13.5273145978
 10
12.3395659063
 20
13.6049841265
 10
12.3396958674
 20
13.6379151907
 10
12.3399658321
 20
13.6664166501
 10
12.3403701978
 20
13.6901740685
 10
12.3408876708
 20
13.7089270574
 10
12.3415154192
 20
13.7224686415
 10
12.3422690254
 20
13.7306481376
 10
12.3431567759
 20
13.7333739201
  0
LINE
  5
629
100
AcDbEntity
  8
RACCORDO
100
AcDbLine
 62
253
  6
CONTINUOUS
 10
12.3395596062
 20
13.8979897182
 11
12.3397012647
 21
13.8281104039
  0
LINE
  5
62A
100
AcDbEntity
  8
ASSI
100
AcDbLine
 62
253
  6
CONTINUOUS
 10
12.3395596062
 20
13.8979897182
 11
12.3397012647
 21
13.8281104039
  0
LINE
  5
62B
100
AcDbEntity
  8
RACCORDO
100
AcDbLine
 62
253
  6
CONTINUOUS
 10
12.3431567759
 20
19.8800109559
 11
12.3431567759
 21
14.2332977677
  0
LINE
  5
62C
100
AcDbEntity
  8
ASSI
100
AcDbLine
 62
253
  6
CONTINUOUS
 10
12.3431567759
 20
19.8800109559
 11
12.3431567759
 21
14.2332977677
  0
LINE
  5
62D
100
AcDbEntity
  8
RACCORDO
100
AcDbLine
 62
253
  6
CONTINUOUS
 10
12.3431567759
 20
13.2334500725
 11
12.3431567759
 21
5.3465029532
  0
LINE
  5
62E
100
AcDbEntity
  8
ASSI
100
AcDbLine
 62
253
  6
CONTINUOUS
 10
12.3431567759
 20
13.2334500725
 11
12.3431567759
 21
5.3465029532
  0
LINE
  5
62F
100
AcDbEntity
  8
RACCORDO
100
AcDbLine
 62
253
  6
CONTINUOUS
 10
12.3431567759
 20
4.346655258
 11
12.3431567759
 21
-20.3000579302
  0
LINE
  5
630
100
AcDbEntity
  8
ASSI
100
AcDbLine
 62
253
  6
CONTINUOUS
 10
12.3431567759
 20
4.346655258
 11
12.3431567759
 21
-20.3000579302
  0
LINE
  5
631
100
AcDbEntity
  8
RACCORDO
100
AcDbLine
 62
253
  6
CONTINUOUS
 10
12.3466175786
 20
20.2843997139
 11
12.3467524888
 21
20.2144662932
  0
LINE
  5
632
100
AcDbEntity
  8
ASSI
100
AcDbLine
 62
253
  6
CONTINUOUS
 10
12.3466175786
 20
20.2843997139
 11
12.3467524888
 21
20.2144662932
  0
LWPOLYLINE
  5
633
100
AcDbEntity
  8
RACCORDO
100
AcDbPolyline
 62
253
  6
CONTINUOUS
 90
9
 70
0
 10
11.3640738549
 20
-20.6118274892
 10
11.3642032647
 20
-20.6895023729
 10
11.3640646936
 20
-20.722395726
 10
11.3637916015
 20
-20.7508762656
 10
11.3633871002
 20
-20.774572853
 10
11.3628582522
 20
-20.793152605
 10
11.3622135007
 20
-20.8064635307
 10
11.3614606495
 20
-20.814461899
 10
11.3606091823
 20
-20.8171322098
  0
LWPOLYLINE
  5
634
100
AcDbEntity
  8
ASSI
100
AcDbPolyline
 62
253
  6
CONTINUOUS
 90
9
 70
0
 10
11.3640738549
 20
-20.6118274892
 10
11.3642032647
 20
-20.6895023729
 10
11.3640646936
 20
-20.722395726
 10
11.3637916015
 20
-20.7508762656
 10
11.3633871002
 20
-20.774572853
 10
11.3628582522
 20
-20.793152605
 10
11.3622135007
 20
-20.8064635307
 10
11.3614606495
 20
-20.814461899
 10
11.3606091823
 20
-20.8171322098
  0
LINE
  5
635
100
AcDbEntity
  8
RACCORDO
100
AcDbLine
 62
253
  6
CONTINUOUS
 10
11.3642049117
 20
20.2316229399
 11
11.3638015415
 21
20.1470793655
  0
LINE
  5
636
100
AcDbEntity
  8
ASSI
100
AcDbLine
 62
253
  6
CONTINUOUS
 10
11.3642049117
 20
20.2316229399
 11
11.3638015415
 21
20.1470793655
  0
LINE
  5
637
100
AcDbEntity
  8
RACCORDO
100
AcDbLine
 62
253
  6
CONTINUOUS
 10
12.3467524888
 20
20.2144662932
 11
12.3463490807
 21
20.1299223909
  0
LINE
  5
638
100
AcDbEntity
  8
ASSI
100
AcDbLine
 62
253
  6
CONTINUOUS
 10
12.3467524888
 20
20.2144662932
 11
12.3463490807
 21
20.1299223909
  0
LINE
  5
639
100
AcDbEntity
  8
RACCORDO
100
AcDbLine
 62
253
  6
CONTINUOUS
 10
12.339958969
 20
13.9826390587
 11
12.3395596062
 21
13.8979897182
  0
LINE
  5
63A
100
AcDbEntity
  8
ASSI
100
AcDbLine
 62
253
  6
CONTINUOUS
 10
12.339958969
 20
13.9826390587
 11
12.3395596062
 21
13.8979897182
  0
LINE
  5
63B
100
AcDbEntity
  8
RACCORDO
100
AcDbLine
 62
253
  6
CONTINUOUS
 10
12.3399667346
 20
5.0965406655
 11
12.3395659989
 21
5.0119690768
  0
LINE
  5
63C
100
AcDbEntity
  8
ASSI
100
AcDbLine
 62
253
  6
CONTINUOUS
 10
12.3399667346
 20
5.0965406655
 11
12.3395659989
 21
5.0119690768
  0
LINE
  5
63D
100
AcDbEntity
  8
RACCORDO
100
AcDbLine
 62
253
  6
CONTINUOUS
 10
11.3638015415
 20
20.1470793655
 11
11.3628774743
 21
20.0516173961
  0
LINE
  5
63E
100
AcDbEntity
  8
ASSI
100
AcDbLine
 62
253
  6
CONTINUOUS
 10
11.3638015415
 20
20.1470793655
 11
11.3628774743
 21
20.0516173961
  0
LINE
  5
63F
100
AcDbEntity
  8
RACCORDO
100
AcDbLine
 62
253
  6
CONTINUOUS
 10
12.3463490807
 20
20.1299223909
 11
12.3454250024
 21
20.0344620207
  0
LINE
  5
640
100
AcDbEntity
  8
ASSI
100
AcDbLine
 62
253
  6
CONTINUOUS
 10
12.3463490807
 20
20.1299223909
 11
12.3454250024
 21
20.0344620207
  0
LINE
  5
641
100
AcDbEntity
  8
RACCORDO
100
AcDbLine
 62
253
  6
CONTINUOUS
 10
12.3408828906
 20
14.0783665327
 11
12.339958969
 21
13.9826390587
  0
LINE
  5
642
100
AcDbEntity
  8
ASSI
100
AcDbLine
 62
253
  6
CONTINUOUS
 10
12.3408828906
 20
14.0783665327
 11
12.339958969
 21
13.9826390587
  0
LINE
  5
643
100
AcDbEntity
  8
RACCORDO
100
AcDbLine
 62
253
  6
CONTINUOUS
 10
12.3415166629
 20
5.2425985006
 11
12.3399667346
 21
5.0965406655
  0
LINE
  5
644
100
AcDbEntity
  8
ASSI
100
AcDbLine
 62
253
  6
CONTINUOUS
 10
12.3415166629
 20
5.2425985006
 11
12.3399667346
 21
5.0965406655
  0
LWPOLYLINE
  5
645
100
AcDbEntity
  8
RACCORDO
100
AcDbPolyline
 62
253
  6
CONTINUOUS
 90
3
 70
0
 10
11.3628774743
 20
20.0516173961
 10
11.3614730805
 20
19.9494075662
 10
11.3606091823
 20
19.8971613879
  0
LWPOLYLINE
  5
646
100
AcDbEntity
  8
ASSI
100
AcDbPolyline
 62
253
  6
CONTINUOUS
 90
3
 70
0
 10
11.3628774743
 20
20.0516173961
 10
11.3614730805
 20
19.9494075662
 10
11.3606091823
 20
19.8971613879
  0
LWPOLYLINE
  5
647
100
AcDbEntity
  8
RACCORDO
100
AcDbPolyline
 62
253
  6
CONTINUOUS
 90
3
 70
0
 10
12.3454250024
 20
20.0344620207
 10
12.3440206374
 20
19.932255169
 10
12.3431567712
 20
19.880010956
  0
LWPOLYLINE
  5
648
100
AcDbEntity
  8
ASSI
100
AcDbPolyline
 62
253
  6
CONTINUOUS
 90
3
 70
0
 10
12.3454250024
 20
20.0344620207
 10
12.3440206374
 20
19.932255169
 10
12.3431567712
 20
19.880010956
  0
LINE
  5
649
100
AcDbEntity
  8
RACCORDO
100
AcDbLine
 62
253
  6
CONTINUOUS
 10
12.3431567759
 20
14.2332977677
 11
12.3408828906
 21
14.0783665327
  0
LINE
  5
64A
100
AcDbEntity
  8
ASSI
100
AcDbLine
 62
253
  6
CONTINUOUS
 10
12.3431567759
 20
14.2332977677
 11
12.3408828906
 21
14.0783665327
  0
LINE
  5
64B
100
AcDbEntity
  8
RACCORDO
100
AcDbLine
 62
253
  6
CONTINUOUS
 10
12.3431567759
 20
5.3465029532
 11
12.3415166629
 21
5.2425985006
  0
LINE
  5
64C
100
AcDbEntity
  8
ASSI
100
AcDbLine
 62
253
  6
CONTINUOUS
 10
12.3431567759
 20
5.3465029532
 11
12.3415166629
 21
5.2425985006
  0
LINE
  5
64D
100
AcDbEntity
  8
0
100
AcDbLine
 62
253
  6
CONTINUOUS
 10
-3.2021170209
 20
-18.2520234871
 11
-3.0881170209
 21
-18.1280234871
  0
LINE
  5
64E
100
AcDbEntity
  8
0
100
AcDbLine
 62
253
  6
CONTINUOUS
 10
-3.5761170209
 20
-19.8800234871
 11
-3.6441170209
 21
-19.9500234871
  0
LINE
  5
64F
100
AcDbEntity
  8
0
100
AcDbLine
 62
253
  6
CONTINUOUS
 10
-4.2241170209
 20
-19.9100234871
 11
-4.2941170209
 21
-19.9780234871
  0
LINE
  5
650
100
AcDbEntity
  8
0
100
AcDbLine
 62
253
  6
CONTINUOUS
 10
-3.1501170209
 20
-19.3420234871
 11
-3.2221170209
 21
-19.4040234871
  0
LINE
  5
651
100
AcDbEntity
  8
0
100
AcDbLine
 62
253
  6
CONTINUOUS
 10
-3.1481170209
 20
-17.1280234871
 11
-3.2201170209
 21
-17.1880234871
  0
LINE
  5
652
100
AcDbEntity
  8
0
100
AcDbLine
 62
253
  6
CONTINUOUS
 10
-3.6861170209
 20
-16.5780234871
 11
-3.6121170209
 21
-16.5220234871
  0
LINE
  5
653
100
AcDbEntity
  8
0
100
AcDbLine
 62
253
  6
CONTINUOUS
 10
-3.6881170209
 20
-18.7940234871
 11
-3.6141170209
 21
-18.7380234871
  0
LINE
  5
654
100
AcDbEntity
  8
0
100
AcDbLine
 62
253
  6
CONTINUOUS
 10
-1.7181170209
 20
-15.7180234871
 11
-2.4481170209
 21
-16.1960234871
  0
LINE
  5
655
100
AcDbEntity
  8
0
100
AcDbLine
 62
253
  6
CONTINUOUS
 10
-4.1461170209
 20
-15.4400234871
 11
-4.2221170209
 21
-15.4800234871
  0
LINE
  5
656
100
AcDbEntity
  8
0
100
AcDbLine
 62
253
  6
CONTINUOUS
 10
-3.4921170209
 20
-15.4100234871
 11
-3.5741170209
 21
-15.4500234871
  0
LINE
  5
657
100
AcDbEntity
  8
0
100
AcDbLine
 62
253
  6
CONTINUOUS
 10
-8.1641170209
 20
-16.5780234871
 11
-6.8641170209
 21
-16.0260234871
  0
LINE
  5
658
100
AcDbEntity
  8
0
100
AcDbLine
 62
253
  6
CONTINUOUS
 10
-4.3481170209
 20
-13.7400234871
 11
-3.0721170209
 21
-13.2060234871
  0
LINE
  5
659
100
AcDbEntity
  8
0
100
AcDbLine
 62
253
  6
CONTINUOUS
 10
-6.2501170209
 20
-13.9200234871
 11
-4.9501170209
 21
-13.4140234871
  0
LINE
  5
65A
100
AcDbEntity
  8
0
100
AcDbLine
 62
253
  6
CONTINUOUS
 10
-8.0221170209
 20
-14.8980234871
 11
-7.9201170209
 21
-14.8640234871
  0
LINE
  5
65B
100
AcDbEntity
  8
0
100
AcDbLine
 62
7
  6
CONTINUOUS
 10
22.8822598309
 20
9.8899765129
 11
24.6560429161
 21
9.8899765129
  0
LINE
  5
65C
100
AcDbEntity
  8
0
100
AcDbLine
 62
7
  6
CONTINUOUS
 10
25.6477230421
 20
9.8899765129
 11
27.4215061273
 21
9.8899765129
  0
LINE
  5
65D
100
AcDbEntity
  8
0
100
AcDbLine
 62
7
  6
CONTINUOUS
 10
29.1518829791
 20
9.8899765129
 11
29.3518829791
 21
9.8899765129
  0
LINE
  5
65E
100
AcDbEntity
  8
ASSI
100
AcDbLine
 62
7
  6
CONTINUOUS
 10
29.1518829791
 20
9.8899765129
 11
29.3518829791
 21
9.8899765129
  0
LINE
  5
65F
100
AcDbEntity
  8
0
100
AcDbLine
 62
7
  6
CONTINUOUS
 10
25.5018829791
 20
10.4326714575
 11
25.2245002178
 21
10.4326714575
  0
LINE
  5
660
100
AcDbEntity
  8
0
100
AcDbLine
 62
7
  6
CONTINUOUS
 10
25.0792657404
 20
10.4326714575
 11
24.8018829791
 21
10.4326714575
  0
LINE
  5
661
100
AcDbEntity
  8
CURVE
100
AcDbLine
 62
253
  6
CONTINUOUS
 10
7.4947400896
 20
10.4699764404
 11
8.309025812
 21
10.4699764404
  0
LINE
  5
662
100
AcDbEntity
  8
RACCORDO
100
AcDbLine
 62
7
  6
CONTINUOUS
 10
23.5648980326
 20
11.0899765129
 11
23.0518829791
 21
11.0899765129
  0
LINE
  5
663
100
AcDbEntity
  8
ASSI
100
AcDbLine
 62
7
  6
CONTINUOUS
 10
23.5648980326
 20
11.0899765129
 11
23.0518829791
 21
11.0899765129
  0
LINE
  5
664
100
AcDbEntity
  8
CURVE
100
AcDbLine
 62
253
  6
CONTINUOUS
 10
-4.7481170209
 20
11.6619765429
 11
-2.6481170209
 21
11.6619765429
  0
LINE
  5
665
100
AcDbEntity
  8
RACCORDO
100
AcDbLine
 62
7
  6
CONTINUOUS
 10
29.1518829791
 20
12.2899765129
 11
25.1518829791
 21
12.2899765129
  0
LINE
  5
666
100
AcDbEntity
  8
ASSI
100
AcDbLine
 62
7
  6
CONTINUOUS
 10
29.1518829791
 20
12.2899765129
 11
25.1518829791
 21
12.2899765129
  0
LINE
  5
667
100
AcDbEntity
  8
CURVE
100
AcDbLine
 62
253
  6
CONTINUOUS
 10
-2.9481170343
 20
12.3339765729
 11
-3.6981170209
 21
12.3339765729
  0
LINE
  5
668
100
AcDbEntity
  8
RACCORDO
100
AcDbLine
 62
7
  6
CONTINUOUS
 10
30.5518829791
 20
12.5399765129
 11
29.1518829791
 21
12.5399765129
  0
LINE
  5
669
100
AcDbEntity
  8
ASSI
100
AcDbLine
 62
7
  6
CONTINUOUS
 10
30.5518829791
 20
12.5399765129
 11
29.1518829791
 21
12.5399765129
  0
LINE
  5
66A
100
AcDbEntity
  8
0
100
AcDbLine
 62
253
  6
CONTINUOUS
 10
29.1518829791
 20
12.9163787402
 11
29.3518829791
 21
12.9163787402
  0
LINE
  5
66B
100
AcDbEntity
  8
ASSI
100
AcDbLine
 62
253
  6
CONTINUOUS
 10
29.1518829791
 20
12.9163787402
 11
29.3518829791
 21
12.9163787402
  0
LINE
  5
66C
100
AcDbEntity
  8
DRAFT
100
AcDbLine
 62
7
  6
CONTINUOUS
 10
22.5518829791
 20
10.0032073181
 11
22.2422414731
 21
10.0086121307
  0
LWPOLYLINE
  5
66D
100
AcDbEntity
  8
0
100
AcDbPolyline
 62
7
  6
CONTINUOUS
 90
10
 70
0
 10
25.5018829791
 20
11.2162405652
 10
25.4242410643
 20
11.2180574947
 10
25.3465312182
 20
11.2194201919
 10
25.2687534408
 20
11.2203286567
 10
25.1908624447
 20
11.2207828891
 10
25.1129035172
 20
11.2207828891
 10
25.0350125207
 20
11.2203286567
 10
24.9572347426
 20
11.2194201919
 10
24.8795248954
 20
11.2180574947
 10
24.8018829791
 20
11.2162405652
  0
LINE
  5
66E
100
AcDbEntity
  8
CURVE
100
AcDbLine
 62
253
  6
CONTINUOUS
 10
-5.7654350209
 20
11.7400915129
 11
-7.8288011892
 21
12.2758375951
  0
LINE
  5
66F
100
AcDbEntity
  8
CURVE
100
AcDbLine
 62
253
  6
CONTINUOUS
 10
-7.6831365892
 20
13.1508443236
 11
-5.7913920209
 21
12.6596615129
  0
LINE
  5
670
100
AcDbEntity
  8
CURVE
100
AcDbLine
 62
253
  6
CONTINUOUS
 10
-5.4644828711
 20
13.0577359547
 11
-7.8325020209
 21
13.6725845129
  0
LINE
  5
671
100
AcDbEntity
  8
CURVE
100
AcDbLine
 62
253
  6
CONTINUOUS
 10
-9.6461420209
 20
15.0800115129
 11
-5.1481170209
 21
13.9121195129
  0
LINE
  5
672
100
AcDbEntity
  8
CURVE
100
AcDbLine
 62
253
  6
CONTINUOUS
 10
-5.6459220209
 20
14.5291745129
 11
-7.8735421309
 21
15.1075700607
  0
LINE
  5
673
100
AcDbEntity
  8
CURVE
100
AcDbLine
 62
253
  6
CONTINUOUS
 10
-8.1470250209
 20
13.7715545129
 11
-9.2024020209
 21
14.0579495129
  0
LINE
  5
674
100
AcDbEntity
  8
CURVE
100
AcDbLine
 62
253
  6
CONTINUOUS
 10
-3.0981170254
 20
14.1819763927
 11
-4.7481170209
 21
14.6859764327
  0
LWPOLYLINE
  5
675
100
AcDbEntity
  8
CURVE
100
AcDbPolyline
 62
253
  6
CONTINUOUS
 90
43
 70
0
 10
-7.8735421309
 20
15.1075700607
 10
-7.8820908342
 20
15.1117955434
 10
-7.8904608629
 20
15.1162268393
 10
-7.8986692134
 20
15.120869464
 10
-7.906732882
 20
15.1257289331
 10
-7.9172796418
 20
15.1325527077
 10
-7.9275850104
 20
15.1397706771
 10
-7.9376345932
 20
15.1473817293
 10
-7.9474135169
 20
15.1553816832
 10
-7.956904993
 20
15.1637540809
 10
-7.9660917539
 20
15.1724793954
 10
-7.9749608315
 20
15.1815353472
 10
-7.9835164544
 20
15.1908886467
 10
-7.9917671502
 20
15.2005032519
 10
-7.9997193172
 20
15.2103486541
 10
-8.0073708361
 20
15.2204164776
 10
-8.0147174578
 20
15.2307038802
 10
-8.0217558154
 20
15.2412027745
 10
-8.0284860695
 20
15.2518840931
 10
-8.0349092625
 20
15.2627135235
 10
-8.0410317058
 20
15.2736620706
 10
-8.0468807861
 20
15.2847220072
 10
-8.0524891593
 20
15.2958909234
 10
-8.0578839163
 20
15.3071630195
 10
-8.0630698908
 20
15.3185189355
 10
-8.0680463516
 20
15.3299359215
 10
-8.0728146678
 20
15.3413983482
 10
-8.077384609
 20
15.3529190702
 10
-8.0817680447
 20
15.3645180623
 10
-8.0880185185
 20
15.382095366
 10
-8.0939104405
 20
15.3998913164
 10
-8.0994773184
 20
15.4179079929
 10
-8.1047491748
 20
15.4361654114
 10
-8.1097551608
 20
15.4546880723
 10
-8.1145244278
 20
15.4735004761
 10
-8.1190824523
 20
15.4926270531
 10
-8.1234400119
 20
15.5120919537
 10
-8.1262408166
 20
15.5252709628
 10
-8.1289795479
 20
15.5386335334
 10
-8.1316800712
 20
15.5522021587
 10
-8.1343568717
 20
15.5659936756
 10
-8.1369869138
 20
15.580002297
 10
-8.1395377817
 20
15.5942165794
  0
LINE
  5
676
100
AcDbEntity
  8
CURVE
100
AcDbLine
 62
253
  6
CONTINUOUS
 10
7.4947400896
 20
9.4059765672
 11
7.2233115344
 21
9.5579764947
  0
LWPOLYLINE
  5
677
100
AcDbEntity
  8
CURVE
100
AcDbPolyline
 62
253
  6
CONTINUOUS
 90
20
 70
0
 10
-5.5079233268
 20
15.8763497202
 10
-5.5110900585
 20
15.8781685796
 10
-5.5143254815
 20
15.8799039266
 10
-5.5176275868
 20
15.8815589641
 10
-5.5209943654
 20
15.8831368949
 10
-5.5244238082
 20
15.884640922
 10
-5.527913906
 20
15.8860742483
 10
-5.53146265
 20
15.8874400767
 10
-5.5350680309
 20
15.8887416102
 10
-5.5392551313
 20
15.8901546655
 10
-5.5435099281
 20
15.8914939586
 10
-5.5478287671
 20
15.8927655212
 10
-5.5522079938
 20
15.8939753846
 10
-5.5566439539
 20
15.8951295806
 10
-5.5611329932
 20
15.8962341407
 10
-5.5656714572
 20
15.8972950964
 10
-5.5710214131
 20
15.8984855801
 10
-5.5764127992
 20
15.8996330993
 10
-5.5818247468
 20
15.9007458304
 10
-5.6061892062
 20
15.9055735977
  0
LWPOLYLINE
  5
678
100
AcDbEntity
  8
CURVE
100
AcDbPolyline
 62
253
  6
CONTINUOUS
 90
90
 70
0
 10
-6.0014513168
 20
15.5283578911
 10
-5.9935210887
 20
15.5235471357
 10
-5.9855539374
 20
15.5191388079
 10
-5.9775541228
 20
15.5151106019
 10
-5.969525905
 20
15.5114402117
 10
-5.9614735439
 20
15.5081053314
 10
-5.9513819827
 20
15.5043789109
 10
-5.9412757839
 20
15.5011244091
 10
-5.9311713775
 20
15.4983243639
 10
-5.9210851936
 20
15.4959613126
 10
-5.9110329518
 20
15.4940186531
 10
-5.9010275303
 20
15.4924832233
 10
-5.8910810971
 20
15.4913427213
 10
-5.8812058201
 20
15.4905848451
 10
-5.8714214827
 20
15.4901958611
 10
-5.8617783307
 20
15.4901563093
 10
-5.852326292
 20
15.4904401206
 10
-5.8430835607
 20
15.491000517
 10
-5.8340535486
 20
15.4917875905
 10
-5.8252122694
 20
15.4927596225
 10
-5.8165327538
 20
15.4938768914
 10
-5.808003496
 20
15.4950994744
 10
-5.7968581615
 20
15.4968337853
 10
-5.7859871345
 20
15.4986463093
 10
-5.7754111791
 20
15.5004990972
 10
-5.7651423192
 20
15.5023654577
 10
-5.7551576181
 20
15.5042637302
 10
-5.7454253993
 20
15.5062235121
 10
-5.7359146247
 20
15.5082730437
 10
-5.7265968097
 20
15.5104351386
 10
-5.7174441084
 20
15.5127312534
 10
-5.7084376013
 20
15.5151806239
 10
-5.6995940759
 20
15.5177936011
 10
-5.6909392463
 20
15.520578315
 10
-5.6824941092
 20
15.5235414417
 10
-5.6742607923
 20
15.5266838421
 10
-5.6662367056
 20
15.5300049234
 10
-5.6568797695
 20
15.5342220102
 10
-5.6478125032
 20
15.5386751106
 10
-5.6390270144
 20
15.5433437918
 10
-5.6305154108
 20
15.5482076206
 10
-5.6222697999
 20
15.553246164
 10
-5.6123238694
 20
15.559763562
 10
-5.6027601311
 20
15.5665100443
 10
-5.5935574956
 20
15.5734736302
 10
-5.5846948732
 20
15.580642339
 10
-5.5761514231
 20
15.5880080943
 10
-5.5679072998
 20
15.5955784384
 10
-5.5599429067
 20
15.6033648179
 10
-5.552238647
 20
15.6113786795
 10
-5.5447760015
 20
15.619623295
 10
-5.5375407607
 20
15.6280692364
 10
-5.5305159465
 20
15.636681408
 10
-5.5236691961
 20
15.645434742
 10
-5.516963621
 20
15.6543043644
 10
-5.5103596132
 20
15.6632561483
 10
-5.4973452192
 20
15.6813193642
 10
-5.4909402611
 20
15.6904471105
 10
-5.4846913196
 20
15.6996928815
 10
-5.4806623658
 20
15.7059493078
 10
-5.4767820592
 20
15.7122940318
 10
-5.4730851699
 20
15.7187376525
 10
-5.4704539376
 20
15.72364132
 10
-5.4679610078
 20
15.7286091006
 10
-5.4656215995
 20
15.7336459168
 10
-5.4634495173
 20
15.7387662938
 10
-5.4614591159
 20
15.7439874755
 10
-5.4596683616
 20
15.7493279785
 10
-5.4580980109
 20
15.7548112158
 10
-5.4567763689
 20
15.7604789143
 10
-5.4557372435
 20
15.7663639675
 10
-5.4550289045
 20
15.7724456214
 10
-5.4546964555
 20
15.7786865336
 10
-5.4547578724
 20
15.7850366569
 10
-5.4552196448
 20
15.7914421066
 10
-5.4560694439
 20
15.7978463543
 10
-5.4572932124
 20
15.804208281
 10
-5.458888796
 20
15.8105510499
 10
-5.460860902
 20
15.8169059861
 10
-5.4632297807
 20
15.8232727814
 10
-5.4660132185
 20
15.8296303338
 10
-5.4692036047
 20
15.8359060017
 10
-5.47278511
 20
15.8420174587
 10
-5.476734426
 20
15.8478951814
 10
-5.4810311368
 20
15.8534795414
 10
-5.4856738741
 20
15.8587376882
 10
-5.4906702777
 20
15.8636495338
 10
-5.4960449736
 20
15.8682192637
 10
-5.5018116586
 20
15.8724541728
 10
-5.5079233268
 20
15.8763497202
  0
LINE
  5
679
100
AcDbEntity
  8
CURVE
100
AcDbLine
 62
253
  6
CONTINUOUS
 10
-2.9481170343
 20
18.7179767532
 11
-2.6481170209
 21
18.3819763526
  0
LINE
  5
67A
100
AcDbEntity
  8
CURVE
100
AcDbLine
 62
253
  6
CONTINUOUS
 10
7.4947400896
 20
8.1899765129
 11
6.9518829791
 21
8.79797654
  0
LINE
  5
67B
100
AcDbEntity
  8
CURVE
100
AcDbLine
 62
253
  6
CONTINUOUS
 10
7.2233115344
 20
9.5579764947
 11
6.9518829791
 21
9.8619764766
  0
LINE
  5
67C
100
AcDbEntity
  8
DRAFT
100
AcDbLine
 62
7
  6
CONTINUOUS
 10
15.2518829791
 20
3.7899765129
 11
15.2518829791
 21
-4.2100234871
  0
LINE
  5
67D
100
AcDbEntity
  8
ASSI
100
AcDbLine
 62
7
  6
CONTINUOUS
 10
15.2518829791
 20
3.7899765129
 11
15.2518829791
 21
-4.2100234871
  0
LINE
  5
67E
100
AcDbEntity
  8
DRAFT
100
AcDbLine
 62
7
  6
CONTINUOUS
 10
15.7518829791
 20
3.1537855118
 11
15.7518829791
 21
-3.5738324861
  0
LINE
  5
67F
100
AcDbEntity
  8
0
100
AcDbLine
 62
253
  6
CONTINUOUS
 10
-3.2181170209
 20
-20.5280234871
 11
-3.1401170209
 21
-20.4580234871
  0
LINE
  5
680
100
AcDbEntity
  8
0
100
AcDbLine
 62
253
  6
CONTINUOUS
 10
-4.1481170209
 20
-19.8720234871
 11
-4.2241170209
 21
-19.9100234871
  0
LINE
  5
681
100
AcDbEntity
  8
0
100
AcDbLine
 62
253
  6
CONTINUOUS
 10
-4.0481170209
 20
-17.6040234871
 11
-4.1941170209
 21
-17.6740234871
  0
LWPOLYLINE
  5
682
100
AcDbEntity
  8
0
100
AcDbPolyline
 62
253
  6
CONTINUOUS
 90
22
 70
0
 10
-3.6121170209
 20
-16.5220234871
 10
-3.6040266392
 20
-16.5181527654
 10
-3.5958978225
 20
-16.5144227816
 10
-3.5877312519
 20
-16.510833409
 10
-3.5795276087
 20
-16.5073845207
 10
-3.5712875741
 20
-16.50407599
 10
-3.5630118293
 20
-16.5009076902
 10
-3.5547010555
 20
-16.4978794945
 10
-3.5463555478
 20
-16.4949912213
 10
-3.5379740564
 20
-16.49224247
 10
-3.5295549456
 20
-16.489632785
 10
-3.5210965795
 20
-16.4871617108
 10
-3.5125973221
 20
-16.4848287919
 10
-3.5040555377
 20
-16.4826335727
 10
-3.4954695905
 20
-16.4805755979
 10
-3.4868382032
 20
-16.478654555
 10
-3.4781615335
 20
-16.4768707049
 10
-3.4694400977
 20
-16.4752244517
 10
-3.4606744122
 20
-16.4737161992
 10
-3.4518649934
 20
-16.4723463516
 10
-3.4430123575
 20
-16.4711153129
 10
-3.4341170209
 20
-16.4700234871
  0
LWPOLYLINE
  5
683
100
AcDbEntity
  8
0
100
AcDbPolyline
 62
253
  6
CONTINUOUS
 90
22
 70
0
 10
-3.6141170209
 20
-18.7380234871
 10
-3.6060266392
 20
-18.7341527654
 10
-3.5978978225
 20
-18.7304227816
 10
-3.5897312519
 20
-18.726833409
 10
-3.5815276087
 20
-18.7233845207
 10
-3.5732875741
 20
-18.72007599
 10
-3.5650118293
 20
-18.7169076902
 10
-3.5567010555
 20
-18.7138794945
 10
-3.5483555478
 20
-18.7109912213
 10
-3.5399740564
 20
-18.70824247
 10
-3.5315549456
 20
-18.705632785
 10
-3.5230965795
 20
-18.7031617108
 10
-3.5145973221
 20
-18.7008287919
 10
-3.5060555377
 20
-18.6986335727
 10
-3.4974695905
 20
-18.6965755979
 10
-3.4888382032
 20
-18.694654555
 10
-3.4801615335
 20
-18.6928707049
 10
-3.4714400977
 20
-18.6912244517
 10
-3.4626744122
 20
-18.6897161992
 10
-3.4538649934
 20
-18.6883463516
 10
-3.4450123575
 20
-18.6871153129
 10
-3.4361170209
 20
-18.6860234871
  0
LINE
  5
684
100
AcDbEntity
  8
0
100
AcDbLine
 62
253
  6
CONTINUOUS
 10
-3.3441170209
 20
-18.3160234871
 11
-3.2021170209
 21
-18.2520234871
  0
LINE
  5
685
100
AcDbEntity
  8
0
100
AcDbLine
 62
253
  6
CONTINUOUS
 10
-3.2201170209
 20
-17.1880234871
 11
-3.3081170209
 21
-17.2260234871
  0
LINE
  5
686
100
AcDbEntity
  8
0
100
AcDbLine
 62
253
  6
CONTINUOUS
 10
-2.4481170209
 20
-18.2200234871
 11
-1.1481170209
 21
-17.6680234871
  0
LINE
  5
687
100
AcDbEntity
  8
0
100
AcDbLine
 62
253
  6
CONTINUOUS
 10
-6.2501170209
 20
-18.2100234871
 11
-4.9501170209
 21
-17.6600234871
  0
LINE
  5
688
100
AcDbEntity
  8
0
100
AcDbLine
 62
253
  6
CONTINUOUS
 10
-8.1641170209
 20
-18.6840234871
 11
-6.8861170209
 21
-18.1500234871
  0
LINE
  5
689
100
AcDbEntity
  8
RACCORDO
100
AcDbLine
 62
253
  6
CONTINUOUS
 10
11.8518829791
 20
13.2334500763
 11
12.3431567759
 21
13.2334500748
  0
LINE
  5
68A
100
AcDbEntity
  8
ASSI
100
AcDbLine
 62
253
  6
CONTINUOUS
 10
11.8518829791
 20
13.2334500763
 11
12.3431567759
 21
13.2334500748
  0
LINE
  5
68B
100
AcDbEntity
  8
0
100
AcDbLine
 62
7
  6
CONTINUOUS
 10
29.3518829791
 20
13.3461184179
 11
29.1518829791
 21
13.3461184179
  0
LINE
  5
68C
100
AcDbEntity
  8
ASSI
100
AcDbLine
 62
7
  6
CONTINUOUS
 10
29.3518829791
 20
13.3461184179
 11
29.1518829791
 21
13.3461184179
  0
LINE
  5
68D
100
AcDbEntity
  8
CURVE
100
AcDbLine
 62
253
  6
CONTINUOUS
 10
-3.5481170298
 20
13.5099764327
 11
-2.9481170343
 21
13.5099764327
  0
LINE
  5
68E
100
AcDbEntity
  8
0
100
AcDbLine
 62
7
  6
CONTINUOUS
 10
29.1518829791
 20
13.6110967402
 11
29.3518829791
 21
13.6110967402
  0
LINE
  5
68F
100
AcDbEntity
  8
ASSI
100
AcDbLine
 62
7
  6
CONTINUOUS
 10
29.1518829791
 20
13.6110967402
 11
29.3518829791
 21
13.6110967402
  0
LINE
  5
690
100
AcDbEntity
  8
CURVE
100
AcDbLine
 62
253
  6
CONTINUOUS
 10
7.4947400896
 20
13.7633098945
 11
7.2233115344
 21
13.7633098945
  0
LINE
  5
691
100
AcDbEntity
  8
RACCORDO
100
AcDbLine
 62
253
  6
CONTINUOUS
 10
29.1518829791
 20
13.9484755727
 11
28.6606091823
 21
13.9484755741
  0
LINE
  5
692
100
AcDbEntity
  8
ASSI
100
AcDbLine
 62
253
  6
CONTINUOUS
 10
29.1518829791
 20
13.9484755727
 11
28.6606091823
 21
13.9484755741
  0
LINE
  5
693
100
AcDbEntity
  8
RACCORDO
100
AcDbLine
 62
253
  6
CONTINUOUS
 10
11.8518829791
 20
14.2332977677
 11
12.3431567759
 21
14.2332977677
  0
LINE
  5
694
100
AcDbEntity
  8
ASSI
100
AcDbLine
 62
253
  6
CONTINUOUS
 10
11.8518829791
 20
14.2332977677
 11
12.3431567759
 21
14.2332977677
  0
LINE
  5
695
100
AcDbEntity
  8
CURVE
100
AcDbLine
 62
253
  6
CONTINUOUS
 10
7.7661686449
 20
14.3713096046
 11
6.9518829791
 21
14.3713096046
  0
LINE
  5
696
100
AcDbEntity
  8
CURVE
100
AcDbLine
 62
253
  6
CONTINUOUS
 10
-0.2461540209
 20
14.4224225129
 11
0.5046629791
 21
14.4224225129
  0
LINE
  5
697
100
AcDbEntity
  8
CURVE
100
AcDbLine
 62
253
  6
CONTINUOUS
 10
4.0991029791
 20
14.4224225129
 11
4.8499199791
 21
14.4224225129
  0
LINE
  5
698
100
AcDbEntity
  8
0
100
AcDbLine
 62
7
  6
CONTINUOUS
 10
29.1518829791
 20
14.6673697402
 11
29.3518829791
 21
14.6673697402
  0
LINE
  5
699
100
AcDbEntity
  8
ASSI
100
AcDbLine
 62
7
  6
CONTINUOUS
 10
29.1518829791
 20
14.6673697402
 11
29.3518829791
 21
14.6673697402
  0
LINE
  5
69A
100
AcDbEntity
  8
0
100
AcDbLine
 62
7
  6
CONTINUOUS
 10
29.1518829791
 20
14.6814517402
 11
29.3518829791
 21
14.6814517402
  0
LINE
  5
69B
100
AcDbEntity
  8
ASSI
100
AcDbLine
 62
7
  6
CONTINUOUS
 10
29.1518829791
 20
14.6814517402
 11
29.3518829791
 21
14.6814517402
  0
LINE
  5
69C
100
AcDbEntity
  8
0
100
AcDbLine
 62
7
  6
CONTINUOUS
 10
29.1518829791
 20
14.9379067402
 11
29.3518829791
 21
14.9379067402
  0
LINE
  5
69D
100
AcDbEntity
  8
ASSI
100
AcDbLine
 62
7
  6
CONTINUOUS
 10
29.1518829791
 20
14.9379067402
 11
29.3518829791
 21
14.9379067402
  0
LINE
  5
69E
100
AcDbEntity
  8
CURVE
100
AcDbLine
 62
253
  6
CONTINUOUS
 10
-3.6981170209
 20
14.9659764861
 11
-2.6481170209
 21
14.9659764861
  0
LINE
  5
69F
100
AcDbEntity
  8
0
100
AcDbLine
 62
7
  6
CONTINUOUS
 10
29.1518829791
 20
15.1702047402
 11
29.3518829791
 21
15.1702047402
  0
LINE
  5
6A0
100
AcDbEntity
  8
ASSI
100
AcDbLine
 62
7
  6
CONTINUOUS
 10
29.1518829791
 20
15.1702047402
 11
29.3518829791
 21
15.1702047402
  0
LINE
  5
6A1
100
AcDbEntity
  8
CURVE
100
AcDbLine
 62
253
  6
CONTINUOUS
 10
8.5804543955
 20
15.2833096771
 11
8.0375972567
 21
15.2833096771
  0
LINE
  5
6A2
100
AcDbEntity
  8
CURVE
100
AcDbLine
 62
253
  6
CONTINUOUS
 10
8.309025812
 20
15.8913098945
 11
7.4947400896
 21
15.8913098945
  0
LINE
  5
6A3
100
AcDbEntity
  8
0
100
AcDbLine
 62
7
  6
CONTINUOUS
 10
29.1518829791
 20
15.8991537402
 11
29.3518829791
 21
15.8991537402
  0
LINE
  5
6A4
100
AcDbEntity
  8
ASSI
100
AcDbLine
 62
7
  6
CONTINUOUS
 10
29.1518829791
 20
15.8991537402
 11
29.3518829791
 21
15.8991537402
  0
LINE
  5
6A5
100
AcDbEntity
  8
CURVE
100
AcDbLine
 62
253
  6
CONTINUOUS
 10
-4.7481170209
 20
16.0299763526
 11
-3.8481170745
 21
16.0299763526
  0
LINE
  5
6A6
100
AcDbEntity
  8
0
100
AcDbLine
 62
7
  6
CONTINUOUS
 10
29.1518829791
 20
16.0889767402
 11
29.3518829791
 21
16.0889767402
  0
LINE
  5
6A7
100
AcDbEntity
  8
ASSI
100
AcDbLine
 62
7
  6
CONTINUOUS
 10
29.1518829791
 20
16.0889767402
 11
29.3518829791
 21
16.0889767402
  0
LINE
  5
6A8
100
AcDbEntity
  8
RACCORDO
100
AcDbLine
 62
253
  6
CONTINUOUS
 10
29.1518829791
 20
12.9486278813
 11
28.1693353855
 21
12.9572030973
  0
LINE
  5
6A9
100
AcDbEntity
  8
ASSI
100
AcDbLine
 62
253
  6
CONTINUOUS
 10
29.1518829791
 20
12.9486278813
 11
28.1693353855
 21
12.9572030973
  0
LINE
  5
6AA
100
AcDbEntity
  8
RACCORDO
100
AcDbLine
 62
253
  6
CONTINUOUS
 10
28.1693353855
 20
12.9572030973
 11
12.3431567759
 21
13.2334500725
  0
LINE
  5
6AB
100
AcDbEntity
  8
ASSI
100
AcDbLine
 62
253
  6
CONTINUOUS
 10
28.1693353855
 20
12.9572030973
 11
12.3431567759
 21
13.2334500725
  0
LINE
  5
6AC
100
AcDbEntity
  8
RACCORDO
100
AcDbLine
 62
7
  6
CONTINUOUS
 10
28.6606091823
 20
13.4485517289
 11
12.3431567759
 21
13.7333739201
  0
LINE
  5
6AD
100
AcDbEntity
  8
ASSI
100
AcDbLine
 62
7
  6
CONTINUOUS
 10
28.6606091823
 20
13.4485517289
 11
12.3431567759
 21
13.7333739201
  0
LINE
  5
6AE
100
AcDbEntity
  8
RACCORDO
100
AcDbLine
 62
253
  6
CONTINUOUS
 10
28.6606091823
 20
13.9484755764
 11
12.3431567759
 21
14.2332977677
  0
LINE
  5
6AF
100
AcDbEntity
  8
ASSI
100
AcDbLine
 62
253
  6
CONTINUOUS
 10
28.6606091823
 20
13.9484755764
 11
12.3431567759
 21
14.2332977677
  0
LWPOLYLINE
  5
6B0
100
AcDbEntity
  8
CURVE
100
AcDbPolyline
 62
253
  6
CONTINUOUS
 90
14
 70
0
 10
-5.6061892062
 20
15.9055735977
 10
-5.6143319492
 20
15.9072461257
 10
-5.6197811435
 20
15.9084254417
 10
-5.6252397174
 20
15.9096792344
 10
-5.630696904
 20
15.9110282888
 10
-5.6343288139
 20
15.9119908264
 10
-5.6379513717
 20
15.9130109819
 10
-5.6415606272
 20
15.9140947965
 10
-5.6451526302
 20
15.9152483118
 10
-5.6487234305
 20
15.916477569
 10
-5.6522690777
 20
15.9177886097
 10
-5.6557856219
 20
15.9191874753
 10
-5.6592691126
 20
15.920680207
 10
-5.6627155998
 20
15.9222728463
  0
LINE
  5
6B1
100
AcDbEntity
  8
CURVE
100
AcDbLine
 62
253
  6
CONTINUOUS
 10
-7.6223511046
 20
15.9590673907
 11
-6.4547750209
 21
15.6559095129
  0
LINE
  5
6B2
100
AcDbEntity
  8
CURVE
100
AcDbLine
 62
253
  6
CONTINUOUS
 10
-6.6770520209
 20
16.1678795129
 11
-7.8239070209
 21
16.4656515129
  0
LINE
  5
6B3
100
AcDbEntity
  8
CURVE
100
AcDbLine
 62
253
  6
CONTINUOUS
 10
-7.4882920209
 20
17.3235195129
 11
-6.6909570209
 21
17.1164915129
  0
LINE
  5
6B4
100
AcDbEntity
  8
CURVE
100
AcDbLine
 62
253
  6
CONTINUOUS
 10
-6.1164350209
 20
16.9673195129
 11
-5.50579803
 21
16.8087728906
  0
LINE
  5
6B5
100
AcDbEntity
  8
CURVE
100
AcDbLine
 62
253
  6
CONTINUOUS
 10
-5.7486650214
 20
17.321689513
 11
-6.3365600209
 21
17.4743345129
  0
LINE
  5
6B6
100
AcDbEntity
  8
CURVE
100
AcDbLine
 62
253
  6
CONTINUOUS
 10
-6.9110820209
 20
17.6235065129
 11
-7.718546367
 21
17.8331613431
  0
LINE
  5
6B7
100
AcDbEntity
  8
0
100
AcDbLine
 62
7
  6
CONTINUOUS
 10
24.0616880424
 20
8.9399765129
 11
24.6321594949
 21
8.7702530287
  0
LWPOLYLINE
  5
6B8
100
AcDbEntity
  8
CURVE
100
AcDbPolyline
 62
253
  6
CONTINUOUS
 90
21
 70
0
 10
-7.5611860226
 20
18.7336267291
 10
-7.5241862419
 20
18.7212872727
 10
-7.5057399562
 20
18.7148565725
 10
-7.4874175054
 20
18.708047574
 10
-7.4752971363
 20
18.7032183888
 10
-7.4632641299
 20
18.6980868651
 10
-7.4513263153
 20
18.6925875801
 10
-7.4424435439
 20
18.6881829331
 10
-7.4336424871
 20
18.6835101159
 10
-7.4249472473
 20
18.678543244
 10
-7.416383276
 20
18.6732509114
 10
-7.4079756867
 20
18.6676071522
 10
-7.3997468935
 20
18.6616132831
 10
-7.3917149267
 20
18.6552783748
 10
-7.3838829818
 20
18.6486152326
 10
-7.3737547073
 20
18.6392492364
 10
-7.3640042605
 20
18.629386902
 10
-7.3546547869
 20
18.6190909934
 10
-7.345713414
 20
18.6084031522
 10
-7.3371231964
 20
18.5972805315
 10
-7.3288111711
 20
18.5856591622
  0
LINE
  5
6B9
100
AcDbEntity
  8
CURVE
100
AcDbLine
 62
253
  6
CONTINUOUS
 10
8.309025812
 20
10.4699764404
 11
8.5804543955
 21
10.3179765129
  0
LINE
  5
6BA
100
AcDbEntity
  8
CURVE
100
AcDbLine
 62
253
  6
CONTINUOUS
 10
-4.1481170567
 20
17.7099766731
 11
-4.4481170388
 21
17.877976593
  0
LINE
  5
6BB
100
AcDbEntity
  8
CURVE
100
AcDbLine
 62
253
  6
CONTINUOUS
 10
-3.2481170477
 20
18.8859766731
 11
-2.9481170343
 21
18.7179767532
  0
LINE
  5
6BC
100
AcDbEntity
  8
CURVE
100
AcDbLine
 62
253
  6
CONTINUOUS
 10
7.1328353493
 20
12.2939765853
 11
8.806644883
 21
11.0779764041
  0
LINE
  5
6BD
100
AcDbEntity
  8
CURVE
100
AcDbLine
 62
253
  6
CONTINUOUS
 10
6.9518829791
 20
13.0033097495
 11
7.3590258686
 21
12.6993098945
  0
LINE
  5
6BE
100
AcDbEntity
  8
CURVE
100
AcDbLine
 62
253
  6
CONTINUOUS
 10
8.8518829791
 20
12.6993098945
 11
7.4947400896
 21
13.7633098945
  0
LINE
  5
6BF
100
AcDbEntity
  8
CURVE
100
AcDbLine
 62
253
  6
CONTINUOUS
 10
8.5804543955
 20
10.3179765129
 11
8.8518829791
 21
10.013976531
  0
LINE
  5
6C0
100
AcDbEntity
  8
CURVE
100
AcDbLine
 62
253
  6
CONTINUOUS
 10
7.2233115344
 20
16.043309822
 11
6.9518829791
 21
16.3473096771
  0
LINE
  5
6C1
100
AcDbEntity
  8
CURVE
100
AcDbLine
 62
253
  6
CONTINUOUS
 10
8.2637877194
 20
17.613976078
 11
8.1280734418
 21
17.9686434211
  0
LINE
  5
6C2
100
AcDbEntity
  8
CURVE
100
AcDbLine
 62
253
  6
CONTINUOUS
 10
8.3995020254
 20
18.3739762229
 11
8.2637877194
 21
18.7793100395
  0
LINE
  5
6C3
100
AcDbEntity
  8
ASSI
100
AcDbLine
 62
7
  6
CONTINUOUS
 10
16.5518829791
 20
-4.2327150716
 11
16.5518829791
 21
-3.5458958705
  0
LINE
  5
6C4
100
AcDbEntity
  8
ASSI
100
AcDbLine
 62
7
  6
CONTINUOUS
 10
16.5518829791
 20
3.1258488962
 11
16.5518829791
 21
3.8126680973
  0
LINE
  5
6C5
100
AcDbEntity
  8
DRAFT
100
AcDbLine
 62
253
  6
CONTINUOUS
 10
16.7871810018
 20
3.1176321082
 11
16.7871810018
 21
-3.5376790825
  0
LINE
  5
6C6
100
AcDbEntity
  8
ASSI
100
AcDbLine
 62
7
  6
CONTINUOUS
 10
16.9318829791
 20
3.1125790038
 11
16.9318829791
 21
-3.5326259781
  0
LINE
  5
6C7
100
AcDbEntity
  8
DRAFT
100
AcDbLine
 62
7
  6
CONTINUOUS
 10
17.5518829791
 20
-4.2501701365
 11
17.5518829791
 21
3.8301231622
  0
LINE
  5
6C8
100
AcDbEntity
  8
ASSI
100
AcDbLine
 62
7
  6
CONTINUOUS
 10
17.5518829791
 20
-4.2501701365
 11
17.5518829791
 21
3.8301231622
  0
LWPOLYLINE
  5
6C9
100
AcDbEntity
  8
RACCORDO
100
AcDbPolyline
 62
253
  6
CONTINUOUS
 90
8
 70
0
 10
12.3431567682
 20
-20.7999817779
 10
12.3440206871
 20
-20.7972281384
 10
12.3447795694
 20
-20.7890292228
 10
12.3454251037
 20
-20.7754748537
 10
12.3459502214
 20
-20.7567134767
 10
12.3463491703
 20
-20.7329506144
 10
12.3466175794
 20
-20.7044466874
 10
12.3467524902
 20
-20.6345132669
  0
LWPOLYLINE
  5
6CA
100
AcDbEntity
  8
ASSI
100
AcDbPolyline
 62
253
  6
CONTINUOUS
 90
8
 70
0
 10
12.3431567682
 20
-20.7999817779
 10
12.3440206871
 20
-20.7972281384
 10
12.3447795694
 20
-20.7890292228
 10
12.3454251037
 20
-20.7754748537
 10
12.3459502214
 20
-20.7567134767
 10
12.3463491703
 20
-20.7329506144
 10
12.3466175794
 20
-20.7044466874
 10
12.3467524902
 20
-20.6345132669
  0
LINE
  5
6CB
100
AcDbEntity
  8
0
100
AcDbLine
 62
253
  6
CONTINUOUS
 10
-3.4941170209
 20
-19.8400234871
 11
-3.5761170209
 21
-19.8800234871
  0
LINE
  5
6CC
100
AcDbEntity
  8
0
100
AcDbLine
 62
253
  6
CONTINUOUS
 10
-3.2221170209
 20
-19.4040234871
 11
-3.3101170209
 21
-19.4420234871
  0
LINE
  5
6CD
100
AcDbEntity
  8
0
100
AcDbLine
 62
253
  6
CONTINUOUS
 10
-8.1641170209
 20
-20.5860234871
 11
-6.8641170209
 21
-20.0800234871
  0
LINE
  5
6CE
100
AcDbEntity
  8
0
100
AcDbLine
 62
253
  6
CONTINUOUS
 10
-6.2501170209
 20
-20.5920234871
 11
-4.9501170209
 21
-20.0860234871
  0
LINE
  5
6CF
100
AcDbEntity
  8
0
100
AcDbLine
 62
7
  6
CONTINUOUS
 10
29.1518829791
 20
16.4059957402
 11
29.3518829791
 21
16.4059957402
  0
LINE
  5
6D0
100
AcDbEntity
  8
ASSI
100
AcDbLine
 62
7
  6
CONTINUOUS
 10
29.1518829791
 20
16.4059957402
 11
29.3518829791
 21
16.4059957402
  0
LINE
  5
6D1
100
AcDbEntity
  8
CURVE
100
AcDbLine
 62
253
  6
CONTINUOUS
 10
7.4947400896
 20
16.9553098945
 11
8.309025812
 21
16.9553098945
  0
LINE
  5
6D2
100
AcDbEntity
  8
0
100
AcDbLine
 62
253
  6
CONTINUOUS
 10
29.1518829791
 20
16.9936667402
 11
29.3518829791
 21
16.9936667402
  0
LINE
  5
6D3
100
AcDbEntity
  8
ASSI
100
AcDbLine
 62
253
  6
CONTINUOUS
 10
29.1518829791
 20
16.9936667402
 11
29.3518829791
 21
16.9936667402
  0
LINE
  5
6D4
100
AcDbEntity
  8
CURVE
100
AcDbLine
 62
253
  6
CONTINUOUS
 10
-3.5481170298
 20
17.0379764327
 11
-2.9481170343
 21
17.0379764327
  0
LINE
  5
6D5
100
AcDbEntity
  8
0
100
AcDbLine
 62
7
  6
CONTINUOUS
 10
29.1518829791
 20
17.6028225012
 11
29.3518829791
 21
17.6028225012
  0
LINE
  5
6D6
100
AcDbEntity
  8
ASSI
100
AcDbLine
 62
7
  6
CONTINUOUS
 10
29.1518829791
 20
17.6028225012
 11
29.3518829791
 21
17.6028225012
  0
LINE
  5
6D7
100
AcDbEntity
  8
CURVE
100
AcDbLine
 62
253
  6
CONTINUOUS
 10
-3.2481170477
 20
17.7099766731
 11
-4.1481170567
 21
17.7099766731
  0
LINE
  5
6D8
100
AcDbEntity
  8
0
100
AcDbLine
 62
7
  6
CONTINUOUS
 10
29.1518829791
 20
17.8761457402
 11
29.3518829791
 21
17.8761457402
  0
LINE
  5
6D9
100
AcDbEntity
  8
ASSI
100
AcDbLine
 62
7
  6
CONTINUOUS
 10
29.1518829791
 20
17.8761457402
 11
29.3518829791
 21
17.8761457402
  0
LINE
  5
6DA
100
AcDbEntity
  8
0
100
AcDbLine
 62
7
  6
CONTINUOUS
 10
29.1518829791
 20
18.0862327402
 11
29.3518829791
 21
18.0862327402
  0
LINE
  5
6DB
100
AcDbEntity
  8
ASSI
100
AcDbLine
 62
7
  6
CONTINUOUS
 10
29.1518829791
 20
18.0862327402
 11
29.3518829791
 21
18.0862327402
  0
LINE
  5
6DC
100
AcDbEntity
  8
CURVE
100
AcDbLine
 62
253
  6
CONTINUOUS
 10
1.9268829791
 20
18.4075325129
 11
2.6768829791
 21
18.4075325129
  0
LINE
  5
6DD
100
AcDbEntity
  8
CURVE
100
AcDbLine
 62
253
  6
CONTINUOUS
 10
-0.2461541386
 20
18.8075325129
 11
0.5046629791
 21
18.8075325129
  0
LINE
  5
6DE
100
AcDbEntity
  8
CURVE
100
AcDbLine
 62
253
  6
CONTINUOUS
 10
4.0990999307
 20
18.8075325129
 11
4.8499200968
 21
18.8075325129
  0
LINE
  5
6DF
100
AcDbEntity
  8
CURVE
100
AcDbLine
 62
253
  6
CONTINUOUS
 10
-4.1481170567
 20
18.8859766731
 11
-3.2481170477
 21
18.8859766731
  0
LINE
  5
6E0
100
AcDbEntity
  8
CURVE
100
AcDbLine
 62
253
  6
CONTINUOUS
 10
-6.3950900209
 20
18.4283645129
 11
-5.8613170209
 21
18.2897695129
  0
LINE
  5
6E1
100
AcDbEntity
  8
CURVE
100
AcDbLine
 62
253
  6
CONTINUOUS
 10
-5.4365727637
 20
18.6246259268
 11
-6.6129070209
 21
18.9300595129
  0
LINE
  5
6E2
100
AcDbEntity
  8
CURVE
100
AcDbLine
 62
253
  6
CONTINUOUS
 10
-7.0137650209
 20
19.0341415129
 11
-7.8382915429
 21
19.248224908
  0
LINE
  5
6E3
100
AcDbEntity
  8
CURVE
100
AcDbLine
 62
253
  6
CONTINUOUS
 10
-7.6142600209
 20
20.1754665129
 11
-5.1481170209
 21
19.5351415129
  0
LINE
  5
6E4
100
AcDbEntity
  8
0
100
AcDbLine
 62
7
  6
CONTINUOUS
 10
26.2420779158
 20
9.6399765129
 11
25.6716064633
 21
9.809699997
  0
LINE
  5
6E5
100
AcDbEntity
  8
CURVE
100
AcDbLine
 62
253
  6
CONTINUOUS
 10
7.4947400896
 20
15.8913098945
 11
7.2233115344
 21
16.043309822
  0
LINE
  5
6E6
100
AcDbEntity
  8
CURVE
100
AcDbLine
 62
253
  6
CONTINUOUS
 10
8.309025812
 20
16.9553098945
 11
8.5804543955
 21
16.8033094596
  0
LINE
  5
6E7
100
AcDbEntity
  8
CURVE
100
AcDbLine
 62
253
  6
CONTINUOUS
 10
8.8518829791
 20
14.979309822
 11
8.5804543955
 21
15.2833096771
  0
LINE
  5
6E8
100
AcDbEntity
  8
CURVE
100
AcDbLine
 62
253
  6
CONTINUOUS
 10
8.5804543955
 20
16.8033094596
 11
8.8518829791
 21
16.4993096046
  0
LWPOLYLINE
  5
6E9
100
AcDbEntity
  8
RACCORDO
100
AcDbPolyline
 62
253
  6
CONTINUOUS
 90
7
 70
0
 10
11.3606091823
 20
20.3970852355
 10
11.3614730805
 20
20.3943317479
 10
11.3622319481
 20
20.3861332681
 10
11.3628774743
 20
20.3725795855
 10
11.3634025891
 20
20.3538191397
 10
11.3638015415
 20
20.3300573944
 10
11.3640699623
 20
20.3015545873
  0
LWPOLYLINE
  5
6EA
100
AcDbEntity
  8
ASSI
100
AcDbPolyline
 62
253
  6
CONTINUOUS
 90
7
 70
0
 10
11.3606091823
 20
20.3970852355
 10
11.3614730805
 20
20.3943317479
 10
11.3622319481
 20
20.3861332681
 10
11.3628774743
 20
20.3725795855
 10
11.3634025891
 20
20.3538191397
 10
11.3638015415
 20
20.3300573944
 10
11.3640699623
 20
20.3015545873
  0
LWPOLYLINE
  5
6EB
100
AcDbEntity
  8
RACCORDO
100
AcDbPolyline
 62
253
  6
CONTINUOUS
 90
7
 70
0
 10
12.3431567682
 20
20.3799348036
 10
12.3440206873
 20
20.3771811641
 10
12.3447795696
 20
20.3689822487
 10
12.3454251038
 20
20.3554278798
 10
12.3459502213
 20
20.336666503
 10
12.3463491699
 20
20.3129036409
 10
12.3466175786
 20
20.2843997139
  0
LWPOLYLINE
  5
6EC
100
AcDbEntity
  8
ASSI
100
AcDbPolyline
 62
253
  6
CONTINUOUS
 90
7
 70
0
 10
12.3431567682
 20
20.3799348036
 10
12.3440206873
 20
20.3771811641
 10
12.3447795696
 20
20.3689822487
 10
12.3454251038
 20
20.3554278798
 10
12.3459502213
 20
20.336666503
 10
12.3463491699
 20
20.3129036409
 10
12.3466175786
 20
20.2843997139
  0
LINE
  5
6ED
100
AcDbEntity
  8
0
100
AcDbLine
 62
7
  6
CONTINUOUS
 10
24.6321594949
 20
9.809699997
 11
24.8018829791
 21
10.3801714495
  0
LINE
  5
6EE
100
AcDbEntity
  8
0
100
AcDbLine
 62
7
  6
CONTINUOUS
 10
25.6716064633
 20
8.7702530287
 11
25.5018829791
 21
8.1997815762
  0
LINE
  5
6EF
100
AcDbEntity
  8
RACCORDO
100
AcDbLine
 62
253
  6
CONTINUOUS
 10
-18.0827390982
 20
21.7951605231
 11
-12.6481170209
 21
21.8900222043
  0
LINE
  5
6F0
100
AcDbEntity
  8
RACCORDO
100
AcDbLine
 62
7
  6
CONTINUOUS
 10
-22.1384880152
 20
22.024321471
 11
-12.6481170209
 21
22.1899765129
  0
LINE
  5
6F1
100
AcDbEntity
  8
RACCORDO
100
AcDbLine
 62
253
  6
CONTINUOUS
 10
-23.1198041101
 20
21.0740870872
 11
-19.1714693687
 21
21.1402325832
  0
LINE
  5
6F2
100
AcDbEntity
  8
RACCORDO
100
AcDbLine
 62
253
  6
CONTINUOUS
 10
29.1518829791
 20
19.5951887647
 11
28.6606091823
 21
19.5951887647
  0
LINE
  5
6F3
100
AcDbEntity
  8
ASSI
100
AcDbLine
 62
253
  6
CONTINUOUS
 10
29.1518829791
 20
19.5951887647
 11
28.6606091823
 21
19.5951887647
  0
LINE
  5
6F4
100
AcDbEntity
  8
RACCORDO
100
AcDbLine
 62
253
  6
CONTINUOUS
 10
11.3606091823
 20
19.8971613879
 11
11.8518829791
 21
19.8971613879
  0
LINE
  5
6F5
100
AcDbEntity
  8
ASSI
100
AcDbLine
 62
253
  6
CONTINUOUS
 10
11.3606091823
 20
19.8971613879
 11
11.8518829791
 21
19.8971613879
  0
LINE
  5
6F6
100
AcDbEntity
  8
DRAFT
100
AcDbLine
 62
7
  6
CONTINUOUS
 10
15.7518829791
 20
20.3399765129
 11
15.2518829791
 21
20.3399765129
  0
LINE
  5
6F7
100
AcDbEntity
  8
RACCORDO
100
AcDbLine
 62
253
  6
CONTINUOUS
 10
-12.6481170209
 20
21.6899765129
 11
-11.1481170209
 21
21.6899765129
  0
LINE
  5
6F8
100
AcDbEntity
  8
RACCORDO
100
AcDbLine
 62
7
  6
CONTINUOUS
 10
-12.6481170209
 20
22.1899765129
 11
-11.1481170209
 21
22.1899765129
  0
LINE
  5
6F9
100
AcDbEntity
  8
RACCORDO
100
AcDbLine
 62
253
  6
CONTINUOUS
 10
11.3606091823
 20
19.8971613879
 11
0.6553734604
 21
20.0840219725
  0
LINE
  5
6FA
100
AcDbEntity
  8
ASSI
100
AcDbLine
 62
253
  6
CONTINUOUS
 10
11.3606091823
 20
19.8971613879
 11
0.6553734604
 21
20.0840219725
  0
LINE
  5
6FB
100
AcDbEntity
  8
RACCORDO
100
AcDbLine
 62
253
  6
CONTINUOUS
 10
12.3431567759
 20
19.8800109559
 11
28.6606091823
 21
19.5951887647
  0
LINE
  5
6FC
100
AcDbEntity
  8
ASSI
100
AcDbLine
 62
253
  6
CONTINUOUS
 10
12.3431567759
 20
19.8800109559
 11
28.6606091823
 21
19.5951887647
  0
LINE
  5
6FD
100
AcDbEntity
  8
RACCORDO
100
AcDbLine
 62
7
  6
CONTINUOUS
 10
0.8518829791
 20
20.5805157337
 11
28.6606091823
 21
20.0951126123
  0
LINE
  5
6FE
100
AcDbEntity
  8
ASSI
100
AcDbLine
 62
7
  6
CONTINUOUS
 10
0.8518829791
 20
20.5805157337
 11
28.6606091823
 21
20.0951126123
  0
LINE
  5
6FF
100
AcDbEntity
  8
RACCORDO
100
AcDbLine
 62
253
  6
CONTINUOUS
 10
11.8518829791
 20
19.897161388
 11
12.3431567759
 21
19.8800109558
  0
LINE
  5
700
100
AcDbEntity
  8
ASSI
100
AcDbLine
 62
253
  6
CONTINUOUS
 10
11.8518829791
 20
19.897161388
 11
12.3431567759
 21
19.8800109558
  0
LINE
  5
701
100
AcDbEntity
  8
RACCORDO
100
AcDbLine
 62
253
  6
CONTINUOUS
 10
-19.1713499134
 20
21.1402252612
 11
-18.9274206666
 21
21.1253010005
  0
LINE
  5
702
100
AcDbEntity
  8
0
100
AcDbLine
 62
7
  6
CONTINUOUS
 10
-8.663963873
 20
23.9876061136
 11
-7.4840229707
 21
23.7260195133
  0
LINE
  5
703
100
AcDbEntity
  8
0
100
AcDbLine
 62
7
  6
CONTINUOUS
 10
-8.5773880274
 20
24.3781245164
 11
-5.4779878516
 21
23.6910040401
  0
LINE
  5
704
100
AcDbEntity
  8
0
100
AcDbLine
 62
7
  6
CONTINUOUS
 10
22.5518829791
 20
7.7935199624
 11
22.5518829791
 21
8.5767457076
  0
LINE
  5
705
100
AcDbEntity
  8
DRAFT
100
AcDbLine
 62
7
  6
CONTINUOUS
 10
22.5518829791
 20
8.5767457076
 11
22.5518829791
 21
10.0032073181
  0
LINE
  5
706
100
AcDbEntity
  8
0
100
AcDbLine
 62
7
  6
CONTINUOUS
 10
22.5518829791
 20
10.0032073181
 11
22.5518829791
 21
10.7864330633
  0
LINE
  5
707
100
AcDbEntity
  8
0
100
AcDbLine
 62
7
  6
CONTINUOUS
 10
22.6518829791
 20
10.9451833126
 11
22.6518829791
 21
7.6347697131
  0
LINE
  5
708
100
AcDbEntity
  8
0
100
AcDbLine
 62
7
  6
CONTINUOUS
 10
23.6601809088
 20
8.9399765129
 11
23.6601809088
 21
9.6399765129
  0
LINE
  5
709
100
AcDbEntity
  8
0
100
AcDbLine
 62
7
  6
CONTINUOUS
 10
24.0091880344
 20
9.6399765129
 11
24.0091880344
 21
9.3625937516
  0
LINE
  5
70A
100
AcDbEntity
  8
0
100
AcDbLine
 62
7
  6
CONTINUOUS
 10
24.0091880344
 20
9.2173592741
 11
24.0091880344
 21
8.9399765129
  0
LINE
  5
70B
100
AcDbEntity
  8
0
100
AcDbLine
 62
7
  6
CONTINUOUS
 10
24.8018829791
 20
11.2162405652
 11
24.8018829791
 21
10.3801714495
  0
LINE
  5
70C
100
AcDbEntity
  8
0
100
AcDbLine
 62
7
  6
CONTINUOUS
 10
24.8018829791
 20
8.1997815762
 11
24.8018829791
 21
7.3637124605
  0
LINE
  5
70D
100
AcDbEntity
  8
0
100
AcDbLine
 62
7
  6
CONTINUOUS
 10
25.5018829791
 20
11.2162405652
 11
25.5018829791
 21
10.3801714495
  0
LINE
  5
70E
100
AcDbEntity
  8
0
100
AcDbLine
 62
7
  6
CONTINUOUS
 10
25.5018829791
 20
8.1997815762
 11
25.5018829791
 21
7.3637124605
  0
LINE
  5
70F
100
AcDbEntity
  8
0
100
AcDbLine
 62
253
  6
CONTINUOUS
 10
-9.6480561036
 20
23.8864865632
 11
-10.0478124344
 21
23.8725267645
  0
LINE
  5
710
100
AcDbEntity
  8
RACCORDO
100
AcDbLine
 62
253
  6
CONTINUOUS
 10
0.8518829791
 20
22.5978184706
 11
0.6553734604
 21
22.5978184706
  0
LINE
  5
711
100
AcDbEntity
  8
ASSI
100
AcDbLine
 62
253
  6
CONTINUOUS
 10
0.8518829791
 20
22.5978184706
 11
0.6553734604
 21
22.5978184706
  0
LINE
  5
712
100
AcDbEntity
  8
0
100
AcDbLine
 62
7
  6
CONTINUOUS
 10
-9.5481170209
 20
23.9899765129
 11
-8.6856078343
 21
23.9899765129
  0
LINE
  5
713
100
AcDbEntity
  8
0
100
AcDbLine
 62
7
  6
CONTINUOUS
 10
-9.5481170209
 20
24.3899765129
 11
-8.6856078343
 21
24.3899765129
  0
LINE
  5
714
100
AcDbEntity
  8
RACCORDO
100
AcDbLine
 62
253
  6
CONTINUOUS
 10
-11.1481170209
 20
23.5900069738
 11
-0.1306646145
 21
23.3976966267
  0
LINE
  5
715
100
AcDbEntity
  8
ASSI
100
AcDbLine
 62
253
  6
CONTINUOUS
 10
-11.1481170209
 20
23.5900069738
 11
-0.1306646145
 21
23.3976966267
  0
LINE
  5
716
100
AcDbEntity
  8
RACCORDO
100
AcDbLine
 62
7
  6
CONTINUOUS
 10
-11.1481170209
 20
23.7899765129
 11
-0.1306646145
 21
23.5976661658
  0
LINE
  5
717
100
AcDbEntity
  8
ASSI
100
AcDbLine
 62
7
  6
CONTINUOUS
 10
-11.1481170209
 20
23.7899765129
 11
-0.1306646145
 21
23.5976661658
  0
LWPOLYLINE
  5
718
100
AcDbEntity
  8
RACCORDO
100
AcDbPolyline
 62
253
  6
CONTINUOUS
 90
31
 70
0
 10
-0.1306646145
 20
23.3976966267
 10
-0.0987169322
 20
23.3968611329
 10
-0.0653510623
 20
23.3941774207
 10
-0.0305670048
 20
23.3896454899
 10
0.005894415
 20
23.383424569
 10
0.0437740224
 20
23.3753554295
 10
0.0822942936
 20
23.3649603867
 10
0.1214934211
 20
23.352146799
 10
0.1613332123
 20
23.3370073078
 10
0.2009215659
 20
23.3193421532
 10
0.2402572319
 20
23.2990385225
 10
0.2793414602
 20
23.2762092283
 10
0.3172858995
 20
23.2509929488
 10
0.3540397448
 20
23.2232849331
 10
0.3896538009
 20
23.1931899321
 10
0.4233921319
 20
23.1611608759
 10
0.4551759377
 20
23.1271065433
 10
0.4850840182
 20
23.0911181555
 10
0.5126168369
 20
23.0539223059
 10
0.5376667767
 20
23.0154611044
 10
0.5603414546
 20
22.9757924411
 10
0.5804641844
 20
22.9358165801
 10
0.5979225216
 20
22.8954778933
 10
0.6128289106
 20
22.8548320088
 10
0.6253439991
 20
22.8149460752
 10
0.6353422638
 20
22.7760241522
 10
0.6429492279
 20
22.7378621802
 10
0.6487021079
 20
22.700915129
 10
0.6527799761
 20
22.6653346553
 10
0.6550037603
 20
22.6309691025
 10
0.6553734604
 20
22.5978184706
  0
LWPOLYLINE
  5
719
100
AcDbEntity
  8
ASSI
100
AcDbPolyline
 62
253
  6
CONTINUOUS
 90
31
 70
0
 10
-0.1306646145
 20
23.3976966267
 10
-0.0987169322
 20
23.3968611329
 10
-0.0653510623
 20
23.3941774207
 10
-0.0305670048
 20
23.3896454899
 10
0.005894415
 20
23.383424569
 10
0.0437740224
 20
23.3753554295
 10
0.0822942936
 20
23.3649603867
 10
0.1214934211
 20
23.352146799
 10
0.1613332123
 20
23.3370073078
 10
0.2009215659
 20
23.3193421532
 10
0.2402572319
 20
23.2990385225
 10
0.2793414602
 20
23.2762092283
 10
0.3172858995
 20
23.2509929488
 10
0.3540397448
 20
23.2232849331
 10
0.3896538009
 20
23.1931899321
 10
0.4233921319
 20
23.1611608759
 10
0.4551759377
 20
23.1271065433
 10
0.4850840182
 20
23.0911181555
 10
0.5126168369
 20
23.0539223059
 10
0.5376667767
 20
23.0154611044
 10
0.5603414546
 20
22.9757924411
 10
0.5804641844
 20
22.9358165801
 10
0.5979225216
 20
22.8954778933
 10
0.6128289106
 20
22.8548320088
 10
0.6253439991
 20
22.8149460752
 10
0.6353422638
 20
22.7760241522
 10
0.6429492279
 20
22.7378621802
 10
0.6487021079
 20
22.700915129
 10
0.6527799761
 20
22.6653346553
 10
0.6550037603
 20
22.6309691025
 10
0.6553734604
 20
22.5978184706
  0
LINE
  5
71A
100
AcDbEntity
  8
DRAFT
100
AcDbLine
 62
7
  6
CONTINUOUS
 10
15.7719943192
 20
20.3200842215
 11
15.7518829791
 21
20.3399765129
  0
LINE
  5
71B
100
AcDbEntity
  8
RACCORDO
100
AcDbLine
 62
253
  6
CONTINUOUS
 10
28.1693353855
 20
5.6227499284
 11
28.1712955744
 21
5.4933806927
  0
LINE
  5
71C
100
AcDbEntity
  8
ASSI
100
AcDbLine
 62
253
  6
CONTINUOUS
 10
28.1693353855
 20
5.6227499284
 11
28.1712955744
 21
5.4933806927
  0
LINE
  5
71D
100
AcDbEntity
  8
RACCORDO
100
AcDbLine
 62
253
  6
CONTINUOUS
 10
28.6628774743
 20
-20.1696917472
 11
28.6606091823
 21
-20.015235739
  0
LINE
  5
71E
100
AcDbEntity
  8
ASSI
100
AcDbLine
 62
253
  6
CONTINUOUS
 10
28.6628774743
 20
-20.1696917472
 11
28.6606091823
 21
-20.015235739
  0
LWPOLYLINE
  5
71F
100
AcDbEntity
  8
RACCORDO
100
AcDbPolyline
 62
253
  6
CONTINUOUS
 90
7
 70
0
 10
28.6640700908
 20
5.0359425674
 10
28.6638001261
 20
5.0644440268
 10
28.6633957604
 20
5.0882014452
 10
28.6628782874
 20
5.1069544341
 10
28.662250539
 20
5.1204960182
 10
28.6614969329
 20
5.1286755144
 10
28.6606091823
 20
5.1314012968
  0
LWPOLYLINE
  5
720
100
AcDbEntity
  8
ASSI
100
AcDbPolyline
 62
253
  6
CONTINUOUS
 90
7
 70
0
 10
28.6640700908
 20
5.0359425674
 10
28.6638001261
 20
5.0644440268
 10
28.6633957604
 20
5.0882014452
 10
28.6628782874
 20
5.1069544341
 10
28.662250539
 20
5.1204960182
 10
28.6614969329
 20
5.1286755144
 10
28.6606091823
 20
5.1314012968
  0
LINE
  5
721
100
AcDbEntity
  8
RACCORDO
100
AcDbLine
 62
253
  6
CONTINUOUS
 10
28.1712955744
 20
5.4933806927
 11
28.1725277444
 21
5.3728260176
  0
LINE
  5
722
100
AcDbEntity
  8
ASSI
100
AcDbLine
 62
253
  6
CONTINUOUS
 10
28.1712955744
 20
5.4933806927
 11
28.1725277444
 21
5.3728260176
  0
LINE
  5
723
100
AcDbEntity
  8
RACCORDO
100
AcDbLine
 62
253
  6
CONTINUOUS
 10
28.6638015415
 20
-20.2651537165
 11
28.6628774743
 21
-20.1696917472
  0
LINE
  5
724
100
AcDbEntity
  8
ASSI
100
AcDbLine
 62
253
  6
CONTINUOUS
 10
28.6638015415
 20
-20.2651537165
 11
28.6628774743
 21
-20.1696917472
  0
LINE
  5
725
100
AcDbEntity
  8
RACCORDO
100
AcDbLine
 62
253
  6
CONTINUOUS
 10
28.6633942672
 20
13.7451612799
 11
28.6640697469
 21
13.6546112472
  0
LINE
  5
726
100
AcDbEntity
  8
ASSI
100
AcDbLine
 62
253
  6
CONTINUOUS
 10
28.6633942672
 20
13.7451612799
 11
28.6640697469
 21
13.6546112472
  0
LINE
  5
727
100
AcDbEntity
  8
RACCORDO
100
AcDbLine
 62
253
  6
CONTINUOUS
 10
28.6642049117
 20
-20.349697291
 11
28.6638015415
 21
-20.2651537165
  0
LINE
  5
728
100
AcDbEntity
  8
ASSI
100
AcDbLine
 62
253
  6
CONTINUOUS
 10
28.6642049117
 20
-20.349697291
 11
28.6638015415
 21
-20.2651537165
  0
LWPOLYLINE
  5
729
100
AcDbEntity
  8
RACCORDO
100
AcDbPolyline
 62
253
  6
CONTINUOUS
 90
7
 70
0
 10
28.1729480162
 20
13.3106488173
 10
28.1728424972
 20
13.3537652915
 10
28.1725277438
 20
13.390099104
 10
28.1720091393
 20
13.419028814
 10
28.1712955538
 20
13.4400596178
 10
28.1703991922
 20
13.4528318118
 10
28.1693353855
 20
13.4571269449
  0
LWPOLYLINE
  5
72A
100
AcDbEntity
  8
ASSI
100
AcDbPolyline
 62
253
  6
CONTINUOUS
 90
7
 70
0
 10
28.1729480162
 20
13.3106488173
 10
28.1728424972
 20
13.3537652915
 10
28.1725277438
 20
13.390099104
 10
28.1720091393
 20
13.419028814
 10
28.1712955538
 20
13.4400596178
 10
28.1703991922
 20
13.4528318118
 10
28.1693353855
 20
13.4571269449
  0
LWPOLYLINE
  5
72B
100
AcDbEntity
  8
RACCORDO
100
AcDbPolyline
 62
253
  6
CONTINUOUS
 90
8
 70
0
 10
28.1725277444
 20
5.3728260176
 10
28.1729479737
 20
5.2692984066
 10
28.1728424305
 20
5.2261827741
 10
28.1725276589
 20
5.1898501131
 10
28.1720090474
 20
5.1609217071
 10
28.1712954713
 20
5.1398921377
 10
28.1703991393
 20
5.1271208577
 10
28.1693353855
 20
5.1228260808
  0
LWPOLYLINE
  5
72C
100
AcDbEntity
  8
ASSI
100
AcDbPolyline
 62
253
  6
CONTINUOUS
 90
8
 70
0
 10
28.1725277444
 20
5.3728260176
 10
28.1729479737
 20
5.2692984066
 10
28.1728424305
 20
5.2261827741
 10
28.1725276589
 20
5.1898501131
 10
28.1720090474
 20
5.1609217071
 10
28.1712954713
 20
5.1398921377
 10
28.1703991393
 20
5.1271208577
 10
28.1693353855
 20
5.1228260808
  0
LINE
  5
72D
100
AcDbEntity
  8
0
100
AcDbLine
 62
7
  6
CONTINUOUS
 10
26.2945779238
 20
9.6399765129
 11
26.2945779238
 21
9.3625937516
  0
LINE
  5
72E
100
AcDbEntity
  8
0
100
AcDbLine
 62
7
  6
CONTINUOUS
 10
26.2945779238
 20
9.2173592741
 11
26.2945779238
 21
8.9399765129
  0
LINE
  5
72F
100
AcDbEntity
  8
0
100
AcDbLine
 62
7
  6
CONTINUOUS
 10
26.6435850494
 20
8.9399765129
 11
26.6435850494
 21
9.6399765129
  0
LINE
  5
730
100
AcDbEntity
  8
RACCORDO
100
AcDbLine
 62
253
  6
CONTINUOUS
 10
28.1693353855
 20
12.9572030973
 11
28.1693353855
 21
12.2899765129
  0
LINE
  5
731
100
AcDbEntity
  8
ASSI
100
AcDbLine
 62
253
  6
CONTINUOUS
 10
28.1693353855
 20
12.9572030973
 11
28.1693353855
 21
12.2899765129
  0
LINE
  5
732
100
AcDbEntity
  8
RACCORDO
100
AcDbLine
 62
253
  6
CONTINUOUS
 10
28.1693353855
 20
6.2899765129
 11
28.1693353855
 21
5.6227499284
  0
LINE
  5
733
100
AcDbEntity
  8
ASSI
100
AcDbLine
 62
253
  6
CONTINUOUS
 10
28.1693353855
 20
6.2899765129
 11
28.1693353855
 21
5.6227499284
  0
LINE
  5
734
100
AcDbEntity
  8
RACCORDO
100
AcDbLine
 62
253
  6
CONTINUOUS
 10
28.6606091823
 20
19.5951887647
 11
28.6606091823
 21
13.9484755764
  0
LINE
  5
735
100
AcDbEntity
  8
ASSI
100
AcDbLine
 62
253
  6
CONTINUOUS
 10
28.6606091823
 20
19.5951887647
 11
28.6606091823
 21
13.9484755764
  0
LINE
  5
736
100
AcDbEntity
  8
RACCORDO
100
AcDbLine
 62
253
  6
CONTINUOUS
 10
28.6606091823
 20
4.6314774493
 11
28.6606091823
 21
4.0240266993
  0
LINE
  5
737
100
AcDbEntity
  8
ASSI
100
AcDbLine
 62
253
  6
CONTINUOUS
 10
28.6606091823
 20
4.6314774493
 11
28.6606091823
 21
4.0240266993
  0
LINE
  5
738
100
AcDbEntity
  8
RACCORDO
100
AcDbLine
 62
253
  6
CONTINUOUS
 10
28.6606091823
 20
-4.4440736736
 11
28.6606091823
 21
-20.015235739
  0
LINE
  5
739
100
AcDbEntity
  8
ASSI
100
AcDbLine
 62
253
  6
CONTINUOUS
 10
28.6606091823
 20
-4.4440736736
 11
28.6606091823
 21
-20.015235739
  0
LINE
  5
73A
100
AcDbEntity
  8
RACCORDO
100
AcDbLine
 62
253
  6
CONTINUOUS
 10
28.6641999598
 20
4.9660114885
 11
28.6640700908
 21
5.0359425674
  0
LINE
  5
73B
100
AcDbEntity
  8
ASSI
100
AcDbLine
 62
253
  6
CONTINUOUS
 10
28.6641999598
 20
4.9660114885
 11
28.6640700908
 21
5.0359425674
  0
LWPOLYLINE
  5
73C
100
AcDbEntity
  8
RACCORDO
100
AcDbPolyline
 62
253
  6
CONTINUOUS
 90
9
 70
0
 10
28.6640697469
 20
13.6546112472
 10
28.6642000524
 20
13.5769416545
 10
28.6640700918
 20
13.5440105591
 10
28.6638001268
 20
13.5155090673
 10
28.6633957606
 20
13.4917516203
 10
28.6628782872
 20
13.4729986114
 10
28.6622505387
 20
13.4594570153
 10
28.6614969327
 20
13.4512775131
 10
28.6606091823
 20
13.4485517289
  0
LWPOLYLINE
  5
73D
100
AcDbEntity
  8
ASSI
100
AcDbPolyline
 62
253
  6
CONTINUOUS
 90
9
 70
0
 10
28.6640697469
 20
13.6546112472
 10
28.6642000524
 20
13.5769416545
 10
28.6640700918
 20
13.5440105591
 10
28.6638001268
 20
13.5155090673
 10
28.6633957606
 20
13.4917516203
 10
28.6628782872
 20
13.4729986114
 10
28.6622505387
 20
13.4594570153
 10
28.6614969327
 20
13.4512775131
 10
28.6606091823
 20
13.4485517289
  0
LINE
  5
73E
100
AcDbEntity
  8
RACCORDO
100
AcDbLine
 62
253
  6
CONTINUOUS
 10
28.6640646936
 20
20.0003761285
 11
28.664206352
 21
19.9304968142
  0
LINE
  5
73F
100
AcDbEntity
  8
ASSI
100
AcDbLine
 62
253
  6
CONTINUOUS
 10
28.6640646936
 20
20.0003761285
 11
28.664206352
 21
19.9304968142
  0
LINE
  5
740
100
AcDbEntity
  8
RACCORDO
100
AcDbLine
 62
253
  6
CONTINUOUS
 10
28.1725277411
 20
13.2071210756
 11
28.1729480162
 21
13.3106488173
  0
LINE
  5
741
100
AcDbEntity
  8
ASSI
100
AcDbLine
 62
253
  6
CONTINUOUS
 10
28.1725277411
 20
13.2071210756
 11
28.1729480162
 21
13.3106488173
  0
LINE
  5
742
100
AcDbEntity
  8
RACCORDO
100
AcDbLine
 62
253
  6
CONTINUOUS
 10
28.664206352
 20
19.9304968142
 11
28.6638069892
 21
19.8458474737
  0
LINE
  5
743
100
AcDbEntity
  8
ASSI
100
AcDbLine
 62
253
  6
CONTINUOUS
 10
28.664206352
 20
19.9304968142
 11
28.6638069892
 21
19.8458474737
  0
LINE
  5
744
100
AcDbEntity
  8
RACCORDO
100
AcDbLine
 62
253
  6
CONTINUOUS
 10
28.6637992257
 20
4.8814399833
 11
28.6641999598
 21
4.9660114885
  0
LINE
  5
745
100
AcDbEntity
  8
ASSI
100
AcDbLine
 62
253
  6
CONTINUOUS
 10
28.6637992257
 20
4.8814399833
 11
28.6641999598
 21
4.9660114885
  0
LINE
  5
746
100
AcDbEntity
  8
RACCORDO
100
AcDbLine
 62
253
  6
CONTINUOUS
 10
28.6638069892
 20
19.8458474737
 11
28.6628830676
 21
19.7501199996
  0
LINE
  5
747
100
AcDbEntity
  8
ASSI
100
AcDbLine
 62
253
  6
CONTINUOUS
 10
28.6638069892
 20
19.8458474737
 11
28.6628830676
 21
19.7501199996
  0
LINE
  5
748
100
AcDbEntity
  8
RACCORDO
100
AcDbLine
 62
253
  6
CONTINUOUS
 10
28.1712955508
 20
13.086568403
 11
28.1725277411
 21
13.2071210756
  0
LINE
  5
749
100
AcDbEntity
  8
ASSI
100
AcDbLine
 62
253
  6
CONTINUOUS
 10
28.1712955508
 20
13.086568403
 11
28.1725277411
 21
13.2071210756
  0
LINE
  5
74A
100
AcDbEntity
  8
RACCORDO
100
AcDbLine
 62
253
  6
CONTINUOUS
 10
28.662249297
 20
4.7353821587
 11
28.6637992257
 21
4.8814399833
  0
LINE
  5
74B
100
AcDbEntity
  8
ASSI
100
AcDbLine
 62
253
  6
CONTINUOUS
 10
28.662249297
 20
4.7353821587
 11
28.6637992257
 21
4.8814399833
  0
LWPOLYLINE
  5
74C
100
AcDbEntity
  8
RACCORDO
100
AcDbPolyline
 62
253
  6
CONTINUOUS
 90
3
 70
0
 10
28.6628830676
 20
19.7501199996
 10
28.6614756405
 20
19.6475989134
 10
28.6606091823
 20
19.5951887647
  0
LWPOLYLINE
  5
74D
100
AcDbEntity
  8
ASSI
100
AcDbPolyline
 62
253
  6
CONTINUOUS
 90
3
 70
0
 10
28.6628830676
 20
19.7501199996
 10
28.6614756405
 20
19.6475989134
 10
28.6606091823
 20
19.5951887647
  0
LINE
  5
74E
100
AcDbEntity
  8
RACCORDO
100
AcDbLine
 62
253
  6
CONTINUOUS
 10
28.1693353855
 20
12.9572030973
 11
28.1712955508
 21
13.086568403
  0
LINE
  5
74F
100
AcDbEntity
  8
ASSI
100
AcDbLine
 62
253
  6
CONTINUOUS
 10
28.1693353855
 20
12.9572030973
 11
28.1712955508
 21
13.086568403
  0
LINE
  5
750
100
AcDbEntity
  8
RACCORDO
100
AcDbLine
 62
253
  6
CONTINUOUS
 10
28.6606091823
 20
4.6314774493
 11
28.662249297
 21
4.7353821587
  0
LINE
  5
751
100
AcDbEntity
  8
ASSI
100
AcDbLine
 62
253
  6
CONTINUOUS
 10
28.6606091823
 20
4.6314774493
 11
28.662249297
 21
4.7353821587
  0
LINE
  5
752
100
AcDbEntity
  8
DRAFT
100
AcDbLine
 62
7
  6
CONTINUOUS
 10
15.7518829791
 20
-20.7600234871
 11
15.7719943192
 21
-20.7401311958
  0
LINE
  5
753
100
AcDbEntity
  8
0
100
AcDbLine
 62
7
  6
CONTINUOUS
 10
24.6321594949
 20
8.7702530287
 11
24.8018829791
 21
8.1997815762
  0
LINE
  5
754
100
AcDbEntity
  8
0
100
AcDbLine
 62
7
  6
CONTINUOUS
 10
25.5018829791
 20
10.3801714495
 11
25.6716064633
 21
9.809699997
  0
LINE
  5
755
100
AcDbEntity
  8
RACCORDO
100
AcDbLine
 62
253
  6
CONTINUOUS
 10
28.6606091823
 20
13.9484755765
 11
28.6622492953
 21
13.8445711239
  0
LINE
  5
756
100
AcDbEntity
  8
ASSI
100
AcDbLine
 62
253
  6
CONTINUOUS
 10
28.6606091823
 20
13.9484755765
 11
28.6622492953
 21
13.8445711239
  0
LINE
  5
757
100
AcDbEntity
  8
RACCORDO
100
AcDbLine
 62
253
  6
CONTINUOUS
 10
28.6622492953
 20
13.8445711239
 11
28.6633942672
 21
13.7451612799
  0
LINE
  5
758
100
AcDbEntity
  8
ASSI
100
AcDbLine
 62
253
  6
CONTINUOUS
 10
28.6622492953
 20
13.8445711239
 11
28.6633942672
 21
13.7451612799
  0
LINE
  5
759
100
AcDbEntity
  8
RACCORDO
100
AcDbLine
 62
7
  6
CONTINUOUS
 10
29.1518829791
 20
12.9486278813
 11
29.1518829791
 21
12.2899765129
  0
LINE
  5
75A
100
AcDbEntity
  8
DRAFT
100
AcDbLine
 62
7
  6
CONTINUOUS
 10
29.1518829791
 20
4.0326019154
 11
29.1518829791
 21
-4.4526488897
  0
LINE
  5
75B
100
AcDbEntity
  8
RACCORDO
100
AcDbLine
 62
7
  6
CONTINUOUS
 10
29.1518829791
 20
-4.4526488897
 11
29.1518829791
 21
-20.015235739
  0
LINE
  5
75C
100
AcDbEntity
  8
RACCORDO
100
AcDbLine
 62
7
  6
CONTINUOUS
 10
29.1518829791
 20
4.0326019154
 11
29.1518829791
 21
6.2899765129
  0
LINE
  5
75D
100
AcDbEntity
  8
DRAFT
100
AcDbLine
 62
7
  6
CONTINUOUS
 10
29.1518829791
 20
6.2899765129
 11
29.1518829791
 21
12.2899765129
  0
LINE
  5
75E
100
AcDbEntity
  8
ASSI
100
AcDbLine
 62
7
  6
CONTINUOUS
 10
29.1518829791
 20
-20.015235739
 11
29.1518829791
 21
12.9486278813
  0
LINE
  5
75F
100
AcDbEntity
  8
0
100
AcDbLine
 62
7
  6
CONTINUOUS
 10
29.1518829791
 20
13.3458469981
 11
29.1518829791
 21
13.3459889647
  0
LINE
  5
760
100
AcDbEntity
  8
RACCORDO
100
AcDbLine
 62
7
  6
CONTINUOUS
 10
29.1518829791
 20
12.952716021
 11
29.1518829791
 21
19.5951887647
  0
LINE
  5
761
100
AcDbEntity
  8
ASSI
100
AcDbLine
 62
7
  6
CONTINUOUS
 10
29.1518829791
 20
12.952716021
 11
29.1518829791
 21
19.5951887647
  0
LINE
  5
762
100
AcDbEntity
  8
0
100
AcDbLine
 62
7
  6
CONTINUOUS
 10
29.3518829791
 20
18.0862327402
 11
29.3518829791
 21
17.8761457402
  0
LINE
  5
763
100
AcDbEntity
  8
ASSI
100
AcDbLine
 62
7
  6
CONTINUOUS
 10
29.3518829791
 20
18.0862327402
 11
29.3518829791
 21
17.8761457402
  0
LINE
  5
764
100
AcDbEntity
  8
0
100
AcDbLine
 62
7
  6
CONTINUOUS
 10
29.3518829791
 20
17.6028225012
 11
29.3518829791
 21
16.4059957402
  0
LINE
  5
765
100
AcDbEntity
  8
ASSI
100
AcDbLine
 62
7
  6
CONTINUOUS
 10
29.3518829791
 20
17.6028225012
 11
29.3518829791
 21
16.4059957402
  0
LINE
  5
766
100
AcDbEntity
  8
0
100
AcDbLine
 62
7
  6
CONTINUOUS
 10
29.3518829791
 20
16.0889767402
 11
29.3518829791
 21
14.9379067402
  0
LINE
  5
767
100
AcDbEntity
  8
ASSI
100
AcDbLine
 62
7
  6
CONTINUOUS
 10
29.3518829791
 20
16.0889767402
 11
29.3518829791
 21
14.9379067402
  0
LINE
  5
768
100
AcDbEntity
  8
0
100
AcDbLine
 62
7
  6
CONTINUOUS
 10
29.3518829791
 20
14.6814517402
 11
29.3518829791
 21
13.6110967402
  0
LINE
  5
769
100
AcDbEntity
  8
ASSI
100
AcDbLine
 62
7
  6
CONTINUOUS
 10
29.3518829791
 20
14.6814517402
 11
29.3518829791
 21
13.6110967402
  0
LINE
  5
76A
100
AcDbEntity
  8
0
100
AcDbLine
 62
7
  6
CONTINUOUS
 10
29.3518829791
 20
13.345831207
 11
29.3518829791
 21
12.5399765129
  0
LINE
  5
76B
100
AcDbEntity
  8
ASSI
100
AcDbLine
 62
7
  6
CONTINUOUS
 10
29.3518829791
 20
13.345831207
 11
29.3518829791
 21
12.5399765129
  0
LINE
  5
76C
100
AcDbEntity
  8
0
100
AcDbLine
 62
7
  6
CONTINUOUS
 10
29.3518829791
 20
9.8899765129
 11
29.3518829791
 21
8.7649765129
  0
LINE
  5
76D
100
AcDbEntity
  8
ASSI
100
AcDbLine
 62
7
  6
CONTINUOUS
 10
29.3518829791
 20
9.8899765129
 11
29.3518829791
 21
8.7649765129
  0
LINE
  5
76E
100
AcDbEntity
  8
ASSI
100
AcDbLine
 62
7
  6
CONTINUOUS
 10
29.3518829791
 20
-6.5701877145
 11
29.3518829791
 21
-8.8110417145
  0
LINE
  5
76F
100
AcDbEntity
  8
ASSI
100
AcDbLine
 62
7
  6
CONTINUOUS
 10
29.3518829791
 20
-9.1843867145
 11
29.3518829791
 21
-11.5424837145
  0
LINE
  5
770
100
AcDbEntity
  8
ASSI
100
AcDbLine
 62
7
  6
CONTINUOUS
 10
29.3518829791
 20
-11.9158287145
 11
29.3518829791
 21
-14.6548167145
  0
LINE
  5
771
100
AcDbEntity
  8
ASSI
100
AcDbLine
 62
7
  6
CONTINUOUS
 10
29.3518829791
 20
-15.2148167145
 11
29.3518829791
 21
-15.7748377145
  0
LINE
  5
772
100
AcDbEntity
  8
ASSI
100
AcDbLine
 62
7
  6
CONTINUOUS
 10
29.3518829791
 20
-16.1481827145
 11
29.3518829791
 21
-18.5062797145
  0
LINE
  5
773
100
AcDbEntity
  8
RACCORDO
100
AcDbLine
 62
253
  6
CONTINUOUS
 10
30.5518829791
 20
12.5399765129
 11
30.5518829791
 21
6.0399765129
  0
LINE
  5
774
100
AcDbEntity
  8
ASSI
100
AcDbLine
 62
253
  6
CONTINUOUS
 10
30.5518829791
 20
12.5399765129
 11
30.5518829791
 21
6.0399765129
  0
LINE
  5
775
100
AcDbEntity
  8
RACCORDO
100
AcDbLine
 62
253
  6
CONTINUOUS
 10
30.5518829791
 20
-6.4600234871
 11
30.5518829791
 21
-12.9600234871
  0
LINE
  5
776
100
AcDbEntity
  8
ASSI
100
AcDbLine
 62
253
  6
CONTINUOUS
 10
30.5518829791
 20
-6.4600234871
 11
30.5518829791
 21
-12.9600234871
  0
LINE
  5
777
100
AcDbEntity
  8
RACCORDO
100
AcDbLine
 62
7
  6
CONTINUOUS
 10
30.8518829791
 20
12.2399765129
 11
30.8518829791
 21
6.3399765129
  0
LINE
  5
778
100
AcDbEntity
  8
ASSI
100
AcDbLine
 62
7
  6
CONTINUOUS
 10
30.8518829791
 20
12.2399765129
 11
30.8518829791
 21
6.3399765129
  0
LINE
  5
779
100
AcDbEntity
  8
RACCORDO
100
AcDbLine
 62
7
  6
CONTINUOUS
 10
30.8518829791
 20
-6.7600234871
 11
30.8518829791
 21
-12.6600234871
  0
LINE
  5
77A
100
AcDbEntity
  8
ASSI
100
AcDbLine
 62
7
  6
CONTINUOUS
 10
30.8518829791
 20
-6.7600234871
 11
30.8518829791
 21
-12.6600234871
  0
LWPOLYLINE
  5
77B
100
AcDbEntity
  8
RACCORDO
100
AcDbPolyline
 62
253
  6
CONTINUOUS
 90
8
 70
0
 10
28.6606091823
 20
-20.5151595866
 10
28.6614730805
 20
-20.5124060989
 10
28.6622319481
 20
-20.5042076191
 10
28.6628774743
 20
-20.4906539366
 10
28.6634025891
 20
-20.4718934908
 10
28.6638015415
 20
-20.4481317454
 10
28.6640699623
 20
-20.4196289383
 10
28.6642049117
 20
-20.349697291
  0
LWPOLYLINE
  5
77C
100
AcDbEntity
  8
ASSI
100
AcDbPolyline
 62
253
  6
CONTINUOUS
 90
8
 70
0
 10
28.6606091823
 20
-20.5151595866
 10
28.6614730805
 20
-20.5124060989
 10
28.6622319481
 20
-20.5042076191
 10
28.6628774743
 20
-20.4906539366
 10
28.6634025891
 20
-20.4718934908
 10
28.6638015415
 20
-20.4481317454
 10
28.6640699623
 20
-20.4196289383
 10
28.6642049117
 20
-20.349697291
  0
LWPOLYLINE
  5
77D
100
AcDbEntity
  8
RACCORDO
100
AcDbPolyline
 62
253
  6
CONTINUOUS
 90
7
 70
0
 10
28.6606091823
 20
20.0951126123
 10
28.6614606495
 20
20.0924423015
 10
28.6622135007
 20
20.0844439331
 10
28.6628582522
 20
20.0711330075
 10
28.6633871002
 20
20.0525532555
 10
28.6637916015
 20
20.028856668
 10
28.6640646936
 20
20.0003761285
  0
LWPOLYLINE
  5
77E
100
AcDbEntity
  8
ASSI
100
AcDbPolyline
 62
253
  6
CONTINUOUS
 90
7
 70
0
 10
28.6606091823
 20
20.0951126123
 10
28.6614606495
 20
20.0924423015
 10
28.6622135007
 20
20.0844439331
 10
28.6628582522
 20
20.0711330075
 10
28.6633871002
 20
20.0525532555
 10
28.6637916015
 20
20.028856668
 10
28.6640646936
 20
20.0003761285
  0
CIRCLE
  5
77F
100
AcDbEntity
  8
0
100
AcDbCircle
 62
7
  6
CONTINUOUS
 10
78.9743840876
 20
-0.2100234871
 40
1.75
  0
CIRCLE
  5
780
100
AcDbEntity
  8
ASSI
100
AcDbCircle
 62
7
  6
CONTINUOUS
 10
78.9743840876
 20
-0.2100234871
 40
1.75
  0
CIRCLE
  5
781
100
AcDbEntity
  8
0
100
AcDbCircle
 62
7
  6
CONTINUOUS
 10
78.9743840876
 20
-0.2100234871
 40
1.6
  0
CIRCLE
  5
782
100
AcDbEntity
  8
ASSI
100
AcDbCircle
 62
7
  6
CONTINUOUS
 10
78.9743840876
 20
-0.2100234871
 40
1.6
  0
CIRCLE
  5
783
100
AcDbEntity
  8
0
100
AcDbCircle
 62
7
  6
CONTINUOUS
 10
78.9743840876
 20
-0.2100234871
 40
1.3
  0
ARC
  5
784
100
AcDbEntity
  8
ASSI
100
AcDbCircle
 62
7
  6
CONTINUOUS
 10
75.3743840876
 20
-15.2100234871
 40
0.9
100
AcDbArc
 50
0.0
 51
180.0
  0
ARC
  5
785
100
AcDbEntity
  8
ASSI
100
AcDbCircle
 62
7
  6
CONTINUOUS
 10
75.3743840876
 20
-16.2100234871
 40
0.9
100
AcDbArc
 50
180.0
 51
360.0
  0
ARC
  5
786
100
AcDbEntity
  8
ASSI
100
AcDbCircle
 62
7
  6
CONTINUOUS
 10
75.3743840876
 20
-16.2100234871
 40
0.4
100
AcDbArc
 50
180.0
 51
360.0
  0
ARC
  5
787
100
AcDbEntity
  8
ASSI
100
AcDbCircle
 62
7
  6
CONTINUOUS
 10
75.3743840876
 20
-15.2100234871
 40
0.4
100
AcDbArc
 50
0.0
 51
180.0
  0
ARC
  5
788
100
AcDbEntity
  8
RACCORDO
100
AcDbCircle
 62
7
  6
CONTINUOUS
 10
-22.1210090956
 20
-21.4445212129
 40
1.0
100
AcDbArc
 50
182.8436989761
 51
268.9984806782
  0
ARC
  5
789
100
AcDbEntity
  8
RACCORDO
100
AcDbCircle
 62
7
  6
CONTINUOUS
 10
-0.1481170209
 20
-23.0178654449
 40
1.0
100
AcDbArc
 50
271.0
 51
360.0
  0
ARC
  5
78A
100
AcDbEntity
  8
ASSI
100
AcDbCircle
 62
7
  6
CONTINUOUS
 10
-0.1481170209
 20
-23.0178654449
 40
1.0
100
AcDbArc
 50
271.0
 51
360.0
  0
ARC
  5
78B
100
AcDbEntity
  8
0
100
AcDbCircle
 62
7
  6
CONTINUOUS
 10
-8.6856078343
 20
-24.3100234871
 40
0.5
100
AcDbArc
 50
270.0
 51
282.5
  0
ARC
  5
78C
100
AcDbEntity
  8
0
100
AcDbCircle
 62
7
  6
CONTINUOUS
 10
-9.5481170209
 20
-24.3100234871
 40
0.5
100
AcDbArc
 50
178.0
 51
270.0
  0
ARC
  5
78D
100
AcDbEntity
  8
RACCORDO
100
AcDbCircle
 62
7
  6
CONTINUOUS
 10
11.3518829791
 20
-20.3172083622
 40
0.5
100
AcDbArc
 50
271.0
 51
360.0
  0
ARC
  5
78E
100
AcDbEntity
  8
RACCORDO
100
AcDbCircle
 62
7
  6
CONTINUOUS
 10
28.6518829791
 20
-20.015235739
 40
0.5
100
AcDbArc
 50
271.0
 51
360.0
  0
ARC
  5
78F
100
AcDbEntity
  8
ASSI
100
AcDbCircle
 62
7
  6
CONTINUOUS
 10
11.3518829791
 20
-20.3172083622
 40
0.5
100
AcDbArc
 50
271.0
 51
360.0
  0
ARC
  5
790
100
AcDbEntity
  8
ASSI
100
AcDbCircle
 62
7
  6
CONTINUOUS
 10
28.6518829791
 20
-20.015235739
 40
0.5
100
AcDbArc
 50
271.0
 51
360.0
  0
ARC
  5
791
100
AcDbEntity
  8
RACCORDO
100
AcDbCircle
 62
7
  6
CONTINUOUS
 10
30.5518829791
 20
-6.7600234871
 40
0.3
100
AcDbArc
 50
0.0
 51
90.0
  0
ARC
  5
792
100
AcDbEntity
  8
RACCORDO
100
AcDbCircle
 62
7
  6
CONTINUOUS
 10
30.5518829791
 20
-12.6600234871
 40
0.3
100
AcDbArc
 50
270.0
 51
360.0
  0
ARC
  5
793
100
AcDbEntity
  8
ASSI
100
AcDbCircle
 62
7
  6
CONTINUOUS
 10
30.5518829791
 20
-6.7600234871
 40
0.3
100
AcDbArc
 50
0.0
 51
90.0
  0
ARC
  5
794
100
AcDbEntity
  8
ASSI
100
AcDbCircle
 62
7
  6
CONTINUOUS
 10
30.5518829791
 20
-12.6600234871
 40
0.3
100
AcDbArc
 50
270.0
 51
360.0
  0
ARC
  5
795
100
AcDbEntity
  8
0
100
AcDbCircle
 62
7
  6
CONTINUOUS
 10
-8.6856078343
 20
-24.3100234871
 40
0.1
100
AcDbArc
 50
270.0
 51
282.5
  0
ARC
  5
796
100
AcDbEntity
  8
0
100
AcDbCircle
 62
7
  6
CONTINUOUS
 10
-9.5481170209
 20
-24.3100234871
 40
0.1
100
AcDbArc
 50
178.0
 51
270.0
  0
ARC
  5
797
100
AcDbEntity
  8
RACCORDO
100
AcDbCircle
 62
7
  6
CONTINUOUS
 10
-22.1210093385
 20
21.0244742343
 40
1.0
100
AcDbArc
 50
91.0015054021
 51
177.1563000907
  0
ARC
  5
798
100
AcDbEntity
  8
RACCORDO
100
AcDbCircle
 62
7
  6
CONTINUOUS
 10
-0.1481170209
 20
22.5978184706
 40
1.0
100
AcDbArc
 50
0.0
 51
89.0
  0
ARC
  5
799
100
AcDbEntity
  8
ASSI
100
AcDbCircle
 62
7
  6
CONTINUOUS
 10
-0.1481170209
 20
22.5978184706
 40
1.0
100
AcDbArc
 50
0.0
 51
89.0
  0
ARC
  5
79A
100
AcDbEntity
  8
0
100
AcDbCircle
 62
7
  6
CONTINUOUS
 10
-8.6856078343
 20
23.8899765129
 40
0.5
100
AcDbArc
 50
77.5
 51
90.0
  0
ARC
  5
79B
100
AcDbEntity
  8
0
100
AcDbCircle
 62
7
  6
CONTINUOUS
 10
-9.5481170209
 20
23.8899765129
 40
0.5
100
AcDbArc
 50
90.0
 51
182.0
  0
ARC
  5
79C
100
AcDbEntity
  8
0
100
AcDbCircle
 62
7
  6
CONTINUOUS
 10
-8.6856078343
 20
23.8899765129
 40
0.1
100
AcDbArc
 50
77.5
 51
90.0
  0
ARC
  5
79D
100
AcDbEntity
  8
0
100
AcDbCircle
 62
7
  6
CONTINUOUS
 10
-9.5481170209
 20
23.8899765129
 40
0.1
100
AcDbArc
 50
90.0
 51
182.0
  0
ARC
  5
79E
100
AcDbEntity
  8
RACCORDO
100
AcDbCircle
 62
7
  6
CONTINUOUS
 10
12.3518829791
 20
4.346655258
 40
0.5
100
AcDbArc
 50
91.0
 51
180.0
  0
ARC
  5
79F
100
AcDbEntity
  8
ASSI
100
AcDbCircle
 62
7
  6
CONTINUOUS
 10
12.3518829791
 20
4.346655258
 40
0.5
100
AcDbArc
 50
91.0
 51
180.0
  0
ARC
  5
7A0
100
AcDbEntity
  8
RACCORDO
100
AcDbCircle
 62
7
  6
CONTINUOUS
 10
28.6518829791
 20
5.6313251444
 40
0.5
100
AcDbArc
 50
271.0
 51
360.0
  0
ARC
  5
7A1
100
AcDbEntity
  8
RACCORDO
100
AcDbCircle
 62
7
  6
CONTINUOUS
 10
23.0518829791
 20
6.9899765129
 40
0.5
100
AcDbArc
 50
90.0
 51
119.6506185269
  0
ARC
  5
7A2
100
AcDbEntity
  8
ASSI
100
AcDbCircle
 62
7
  6
CONTINUOUS
 10
28.6518829791
 20
5.6313251444
 40
0.5
100
AcDbArc
 50
271.0
 51
360.0
  0
ARC
  5
7A3
100
AcDbEntity
  8
ASSI
100
AcDbCircle
 62
7
  6
CONTINUOUS
 10
23.0518829791
 20
6.9899765129
 40
0.5
100
AcDbArc
 50
90.0
 51
119.6506185269
  0
ARC
  5
7A4
100
AcDbEntity
  8
RACCORDO
100
AcDbCircle
 62
7
  6
CONTINUOUS
 10
30.5518829791
 20
6.3399765129
 40
0.3
100
AcDbArc
 50
270.0
 51
360.0
  0
ARC
  5
7A5
100
AcDbEntity
  8
ASSI
100
AcDbCircle
 62
7
  6
CONTINUOUS
 10
30.5518829791
 20
6.3399765129
 40
0.3
100
AcDbArc
 50
270.0
 51
360.0
  0
ARC
  5
7A6
100
AcDbEntity
  8
DRAFT
100
AcDbCircle
 62
7
  6
CONTINUOUS
 10
25.1518829791
 20
9.2899765129
 40
3.0
100
AcDbArc
 50
90.0
 51
270.0
  0
ARC
  5
7A7
100
AcDbEntity
  8
ASSI
100
AcDbCircle
 62
7
  6
CONTINUOUS
 10
25.1518829791
 20
9.2899765129
 40
3.0
100
AcDbArc
 50
90.0
 51
270.0
  0
CIRCLE
  5
7A8
100
AcDbEntity
  8
0
100
AcDbCircle
 62
7
  6
CONTINUOUS
 10
25.1518829791
 20
9.2899765129
 40
2.4
  0
ARC
  5
7A9
100
AcDbEntity
  8
0
100
AcDbCircle
 62
7
  6
CONTINUOUS
 10
25.1518829791
 20
9.2899765129
 40
2.3475922207
100
AcDbArc
 50
165.1919843279
 51
194.8080156721
  0
ARC
  5
7AA
100
AcDbEntity
  8
0
100
AcDbCircle
 62
7
  6
CONTINUOUS
 10
25.1518829791
 20
9.2899765129
 40
2.3475922207
100
AcDbArc
 50
345.1919843279
 51
14.8080156721
  0
ARC
  5
7AB
100
AcDbEntity
  8
0
100
AcDbCircle
 62
253
  6
CONTINUOUS
 10
25.1518829791
 20
9.2899765129
 40
2.3155837266
100
AcDbArc
 50
195.0174923991
 51
344.9825076009
  0
ARC
  5
7AC
100
AcDbEntity
  8
0
100
AcDbCircle
 62
253
  6
CONTINUOUS
 10
25.1518829791
 20
9.2899765129
 40
2.3155837266
100
AcDbArc
 50
15.0174923991
 51
164.9825076009
  0
ARC
  5
7AD
100
AcDbEntity
  8
0
100
AcDbCircle
 62
253
  6
CONTINUOUS
 10
25.1518829791
 20
9.2899765129
 40
2.1888184342
100
AcDbArc
 50
195.9096084729
 51
344.0903915271
  0
ARC
  5
7AE
100
AcDbEntity
  8
0
100
AcDbCircle
 62
253
  6
CONTINUOUS
 10
25.1518829791
 20
9.2899765129
 40
2.1888184342
100
AcDbArc
 50
15.9096084729
 51
164.0903915271
  0
ARC
  5
7AF
100
AcDbEntity
  8
0
100
AcDbCircle
 62
7
  6
CONTINUOUS
 10
25.1518829791
 20
9.2899765129
 40
1.145
100
AcDbArc
 50
266.3637942714
 51
273.6362057286
  0
ARC
  5
7B0
100
AcDbEntity
  8
0
100
AcDbCircle
 62
7
  6
CONTINUOUS
 10
25.1518829791
 20
9.2899765129
 40
1.145
100
AcDbArc
 50
86.3637942714
 51
93.6362057286
  0
ARC
  5
7B1
100
AcDbEntity
  8
0
100
AcDbCircle
 62
7
  6
CONTINUOUS
 10
25.1518829791
 20
9.2899765129
 40
1.145
100
AcDbArc
 50
356.3637942714
 51
3.6362057286
  0
ARC
  5
7B2
100
AcDbEntity
  8
0
100
AcDbCircle
 62
7
  6
CONTINUOUS
 10
25.1518829791
 20
9.2899765129
 40
1.145
100
AcDbArc
 50
176.3637942714
 51
183.6362057286
  0
ARC
  5
7B3
100
AcDbEntity
  8
RACCORDO
100
AcDbCircle
 62
7
  6
CONTINUOUS
 10
28.6518590969
 20
12.9486282982
 40
0.5
100
AcDbArc
 50
359.9999522331
 51
88.9972628886
  0
ARC
  5
7B4
100
AcDbEntity
  8
RACCORDO
100
AcDbCircle
 62
7
  6
CONTINUOUS
 10
23.0518829791
 20
11.5899765129
 40
0.5
100
AcDbArc
 50
240.3498089255
 51
270.0
  0
ARC
  5
7B5
100
AcDbEntity
  8
ASSI
100
AcDbCircle
 62
7
  6
CONTINUOUS
 10
28.6518590969
 20
12.9486282982
 40
0.5
100
AcDbArc
 50
359.9999522331
 51
88.9972628886
  0
ARC
  5
7B6
100
AcDbEntity
  8
ASSI
100
AcDbCircle
 62
7
  6
CONTINUOUS
 10
23.0518829791
 20
11.5899765129
 40
0.5
100
AcDbArc
 50
240.3498089255
 51
270.0
  0
ARC
  5
7B7
100
AcDbEntity
  8
RACCORDO
100
AcDbCircle
 62
7
  6
CONTINUOUS
 10
30.5518829791
 20
12.2399765129
 40
0.3
100
AcDbArc
 50
0.0
 51
90.0
  0
ARC
  5
7B8
100
AcDbEntity
  8
ASSI
100
AcDbCircle
 62
7
  6
CONTINUOUS
 10
30.5518829791
 20
12.2399765129
 40
0.3
100
AcDbArc
 50
0.0
 51
90.0
  0
ARC
  5
7B9
100
AcDbEntity
  8
RACCORDO
100
AcDbCircle
 62
7
  6
CONTINUOUS
 10
11.3518829791
 20
19.8971613879
 40
0.5
100
AcDbArc
 50
0.0
 51
89.0
  0
ARC
  5
7BA
100
AcDbEntity
  8
RACCORDO
100
AcDbCircle
 62
7
  6
CONTINUOUS
 10
12.3518829791
 20
14.2332977677
 40
0.5
100
AcDbArc
 50
180.0
 51
269.0
  0
ARC
  5
7BB
100
AcDbEntity
  8
RACCORDO
100
AcDbCircle
 62
7
  6
CONTINUOUS
 10
28.6518829791
 20
19.5951887647
 40
0.5
100
AcDbArc
 50
0.0
 51
89.0
  0
ARC
  5
7BC
100
AcDbEntity
  8
ASSI
100
AcDbCircle
 62
7
  6
CONTINUOUS
 10
11.3518829791
 20
19.8971613879
 40
0.5
100
AcDbArc
 50
0.0
 51
89.0
  0
ARC
  5
7BD
100
AcDbEntity
  8
ASSI
100
AcDbCircle
 62
7
  6
CONTINUOUS
 10
12.3518829791
 20
14.2332977677
 40
0.5
100
AcDbArc
 50
180.0
 51
269.0
  0
ARC
  5
7BE
100
AcDbEntity
  8
ASSI
100
AcDbCircle
 62
7
  6
CONTINUOUS
 10
28.6518829791
 20
19.5951887647
 40
0.5
100
AcDbArc
 50
0.0
 51
89.0
  0
ARC
  5
7BF
100
AcDbEntity
  8
RACCORDO
100
AcDbCircle
 62
7
  6
CONTINUOUS
 10
405.3518829791
 20
-0.2100234871
 40
429.0
100
AcDbArc
 50
177.1561991765
 51
182.8438008235
  0
ELLIPSE
  5
7C0
100
AcDbEntity
  8
RACCORDO
100
AcDbEllipse
 62
7
  6
CONTINUOUS
 10
54.3244145532
 20
-24.0099930215
 30
0.0
 11
0.1414644378
 21
0.1414644378
 31
0.0
 40
0.9996954599
 41
2.3563467834
 42
3.9268385237
  0
ELLIPSE
  5
7C1
100
AcDbEntity
  8
RACCORDO
100
AcDbEllipse
 62
7
  6
CONTINUOUS
 10
54.3244145532
 20
23.5899460472
 30
0.0
 11
0.1414644378
 21
-0.1414644378
 31
0.0
 40
0.9996954599
 41
2.3563467834
 42
3.9268385237
  0
ELLIPSE
  5
7C2
100
AcDbEntity
  8
RACCORDO
100
AcDbEllipse
 62
7
  6
CONTINUOUS
 10
55.824353622
 20
23.5899460472
 30
0.0
 11
-0.1414644378
 21
-0.1414644378
 31
0.0
 40
0.9996954599
 41
2.3563467834
 42
3.9268385237
  0
ELLIPSE
  5
7C3
100
AcDbEntity
  8
RACCORDO
100
AcDbEllipse
 62
7
  6
CONTINUOUS
 10
58.6744145532
 20
22.8399765129
 30
0.0
 11
-0.2000304656
 21
0.0
 31
0.0
 40
0.9998476952
 41
-1.5707963268
 42
0.0
  0
ELLIPSE
  5
7C4
100
AcDbEntity
  8
RACCORDO
100
AcDbEllipse
 62
7
  6
CONTINUOUS
 10
74.274353622
 20
22.8399765129
 30
0.0
 11
0.2000304656
 21
0.0
 31
0.0
 40
0.9998476952
 41
-0.0
 42
1.5707963268
  0
ELLIPSE
  5
7C5
100
AcDbEntity
  8
RACCORDO
100
AcDbEllipse
 62
7
  6
CONTINUOUS
 10
83.6744145532
 20
22.8399765129
 30
0.0
 11
0.2000304656
 21
0.0
 31
0.0
 40
0.9998476952
 41
1.5707963268
 42
3.1415926536
  0
ELLIPSE
  5
7C6
100
AcDbEntity
  8
RACCORDO
100
AcDbEllipse
 62
7
  6
CONTINUOUS
 10
99.274353622
 20
22.8399765129
 30
0.0
 11
-0.2000304656
 21
0.0
 31
0.0
 40
0.9998476952
 41
3.1415926536
 42
4.7123889804
  0
ELLIPSE
  5
7C7
100
AcDbEntity
  8
RACCORDO
100
AcDbEllipse
 62
7
  6
CONTINUOUS
 10
102.1244145532
 20
23.5899460472
 30
0.0
 11
0.1414644378
 21
-0.1414644378
 31
0.0
 40
0.9996954599
 41
2.3563467834
 42
3.9268385237
  0
ELLIPSE
  5
7C8
100
AcDbEntity
  8
RACCORDO
100
AcDbEllipse
 62
7
  6
CONTINUOUS
 10
103.624353622
 20
23.5899460472
 30
0.0
 11
-0.1414644378
 21
-0.1414644378
 31
0.0
 40
0.9996954599
 41
2.3563467834
 42
3.9268385237
  0
ELLIPSE
  5
7C9
100
AcDbEntity
  8
RACCORDO
100
AcDbEllipse
 62
7
  6
CONTINUOUS
 10
103.624353622
 20
-24.0099930215
 30
0.0
 11
-0.1414644378
 21
0.1414644378
 31
0.0
 40
0.9996954599
 41
2.3563467834
 42
3.9268385237
  0
ELLIPSE
  5
7CA
100
AcDbEntity
  8
RACCORDO
100
AcDbEllipse
 62
7
  6
CONTINUOUS
 10
102.1244145532
 20
-24.0099930215
 30
0.0
 11
0.1414644378
 21
0.1414644378
 31
0.0
 40
0.9996954599
 41
2.3563467834
 42
3.9268385237
  0
ELLIPSE
  5
7CB
100
AcDbEntity
  8
RACCORDO
100
AcDbEllipse
 62
7
  6
CONTINUOUS
 10
99.274353622
 20
-23.2600234871
 30
0.0
 11
-0.2000304656
 21
0.0
 31
0.0
 40
0.9998476952
 41
1.5707963268
 42
3.1415926536
  0
ELLIPSE
  5
7CC
100
AcDbEntity
  8
RACCORDO
100
AcDbEllipse
 62
7
  6
CONTINUOUS
 10
83.6744145532
 20
-23.2600234871
 30
0.0
 11
0.2000304656
 21
0.0
 31
0.0
 40
0.9998476952
 41
3.1415926536
 42
4.7123889804
  0
ELLIPSE
  5
7CD
100
AcDbEntity
  8
RACCORDO
100
AcDbEllipse
 62
7
  6
CONTINUOUS
 10
74.274353622
 20
-23.2600234871
 30
0.0
 11
0.2000304656
 21
0.0
 31
0.0
 40
0.9998476952
 41
-1.5707963268
 42
0.0
  0
ELLIPSE
  5
7CE
100
AcDbEntity
  8
RACCORDO
100
AcDbEllipse
 62
7
  6
CONTINUOUS
 10
58.6744145532
 20
-23.2600234871
 30
0.0
 11
-0.2000304656
 21
0.0
 31
0.0
 40
0.9998476952
 41
-0.0
 42
1.5707963268
  0
ELLIPSE
  5
7CF
100
AcDbEntity
  8
RACCORDO
100
AcDbEllipse
 62
7
  6
CONTINUOUS
 10
55.824353622
 20
-24.0099930215
 30
0.0
 11
-0.1414644378
 21
0.1414644378
 31
0.0
 40
0.9996954599
 41
2.3563467834
 42
3.9268385237
  0
ELLIPSE
  5
7D0
100
AcDbEntity
  8
ASSI
100
AcDbEllipse
 62
7
  6
CONTINUOUS
 10
54.3244145532
 20
-24.0099930215
 30
0.0
 11
0.1414644378
 21
0.1414644378
 31
0.0
 40
0.9996954599
 41
2.3563467834
 42
3.9268385237
  0
ELLIPSE
  5
7D1
100
AcDbEntity
  8
ASSI
100
AcDbEllipse
 62
7
  6
CONTINUOUS
 10
54.3244145532
 20
23.5899460472
 30
0.0
 11
0.1414644378
 21
-0.1414644378
 31
0.0
 40
0.9996954599
 41
2.3563467834
 42
3.9268385237
  0
ELLIPSE
  5
7D2
100
AcDbEntity
  8
ASSI
100
AcDbEllipse
 62
7
  6
CONTINUOUS
 10
55.824353622
 20
23.5899460472
 30
0.0
 11
-0.1414644378
 21
-0.1414644378
 31
0.0
 40
0.9996954599
 41
2.3563467834
 42
3.9268385237
  0
ELLIPSE
  5
7D3
100
AcDbEntity
  8
ASSI
100
AcDbEllipse
 62
7
  6
CONTINUOUS
 10
58.6744145532
 20
22.8399765129
 30
0.0
 11
-0.2000304656
 21
0.0
 31
0.0
 40
0.9998476952
 41
-1.5707963268
 42
0.0
  0
ELLIPSE
  5
7D4
100
AcDbEntity
  8
ASSI
100
AcDbEllipse
 62
7
  6
CONTINUOUS
 10
74.274353622
 20
22.8399765129
 30
0.0
 11
0.2000304656
 21
0.0
 31
0.0
 40
0.9998476952
 41
-0.0
 42
1.5707963268
  0
ELLIPSE
  5
7D5
100
AcDbEntity
  8
ASSI
100
AcDbEllipse
 62
7
  6
CONTINUOUS
 10
83.6744145532
 20
22.8399765129
 30
0.0
 11
0.2000304656
 21
0.0
 31
0.0
 40
0.9998476952
 41
1.5707963268
 42
3.1415926536
  0
ELLIPSE
  5
7D6
100
AcDbEntity
  8
ASSI
100
AcDbEllipse
 62
7
  6
CONTINUOUS
 10
99.274353622
 20
22.8399765129
 30
0.0
 11
-0.2000304656
 21
0.0
 31
0.0
 40
0.9998476952
 41
3.1415926536
 42
4.7123889804
  0
ELLIPSE
  5
7D7
100
AcDbEntity
  8
ASSI
100
AcDbEllipse
 62
7
  6
CONTINUOUS
 10
102.1244145532
 20
23.5899460472
 30
0.0
 11
0.1414644378
 21
-0.1414644378
 31
0.0
 40
0.9996954599
 41
2.3563467834
 42
3.9268385237
  0
ELLIPSE
  5
7D8
100
AcDbEntity
  8
ASSI
100
AcDbEllipse
 62
7
  6
CONTINUOUS
 10
103.624353622
 20
23.5899460472
 30
0.0
 11
-0.1414644378
 21
-0.1414644378
 31
0.0
 40
0.9996954599
 41
2.3563467834
 42
3.9268385237
  0
ELLIPSE
  5
7D9
100
AcDbEntity
  8
ASSI
100
AcDbEllipse
 62
7
  6
CONTINUOUS
 10
103.624353622
 20
-24.0099930215
 30
0.0
 11
-0.1414644378
 21
0.1414644378
 31
0.0
 40
0.9996954599
 41
2.3563467834
 42
3.9268385237
  0
ELLIPSE
  5
7DA
100
AcDbEntity
  8
ASSI
100
AcDbEllipse
 62
7
  6
CONTINUOUS
 10
102.1244145532
 20
-24.0099930215
 30
0.0
 11
0.1414644378
 21
0.1414644378
 31
0.0
 40
0.9996954599
 41
2.3563467834
 42
3.9268385237
  0
ELLIPSE
  5
7DB
100
AcDbEntity
  8
ASSI
100
AcDbEllipse
 62
7
  6
CONTINUOUS
 10
99.274353622
 20
-23.2600234871
 30
0.0
 11
-0.2000304656
 21
0.0
 31
0.0
 40
0.9998476952
 41
1.5707963268
 42
3.1415926536
  0
ELLIPSE
  5
7DC
100
AcDbEntity
  8
ASSI
100
AcDbEllipse
 62
7
  6
CONTINUOUS
 10
83.6744145532
 20
-23.2600234871
 30
0.0
 11
0.2000304656
 21
0.0
 31
0.0
 40
0.9998476952
 41
3.1415926536
 42
4.7123889804
  0
ELLIPSE
  5
7DD
100
AcDbEntity
  8
ASSI
100
AcDbEllipse
 62
7
  6
CONTINUOUS
 10
74.274353622
 20
-23.2600234871
 30
0.0
 11
0.2000304656
 21
0.0
 31
0.0
 40
0.9998476952
 41
-1.5707963268
 42
0.0
  0
ELLIPSE
  5
7DE
100
AcDbEntity
  8
ASSI
100
AcDbEllipse
 62
7
  6
CONTINUOUS
 10
58.6744145532
 20
-23.2600234871
 30
0.0
 11
-0.2000304656
 21
0.0
 31
0.0
 40
0.9998476952
 41
-0.0
 42
1.5707963268
  0
ELLIPSE
  5
7DF
100
AcDbEntity
  8
ASSI
100
AcDbEllipse
 62
7
  6
CONTINUOUS
 10
55.824353622
 20
-24.0099930215
 30
0.0
 11
-0.1414644378
 21
0.1414644378
 31
0.0
 40
0.9996954599
 41
2.3563467834
 42
3.9268385237
  0
ELLIPSE
  5
7E0
100
AcDbEntity
  8
RACCORDO
100
AcDbEllipse
 62
7
  6
CONTINUOUS
 10
103.5243383892
 20
-22.3099777887
 30
0.0
 11
-0.2121966568
 21
0.2121966568
 31
0.0
 40
0.9996954599
 41
-3.9268385237
 42
-2.3563467834
  0
ELLIPSE
  5
7E1
100
AcDbEntity
  8
RACCORDO
100
AcDbEllipse
 62
7
  6
CONTINUOUS
 10
103.5243383892
 20
21.8899308144
 30
0.0
 11
0.2121966568
 21
0.2121966568
 31
0.0
 40
0.9996954599
 41
-0.7852458701
 42
0.7852458701
  0
ELLIPSE
  5
7E2
100
AcDbEntity
  8
RACCORDO
100
AcDbEllipse
 62
7
  6
CONTINUOUS
 10
54.424429786
 20
-22.3099777887
 30
0.0
 11
0.2121966568
 21
0.2121966568
 31
0.0
 40
0.9996954599
 41
-3.9268385237
 42
-2.3563467834
  0
ELLIPSE
  5
7E3
100
AcDbEntity
  8
RACCORDO
100
AcDbEllipse
 62
7
  6
CONTINUOUS
 10
54.424429786
 20
21.8899308144
 30
0.0
 11
0.2121966568
 21
-0.2121966568
 31
0.0
 40
0.9996954599
 41
2.3563467834
 42
3.9268385237
  0
ELLIPSE
  5
7E4
100
AcDbEntity
  8
CURVE
100
AcDbEllipse
 62
253
  6
CONTINUOUS
 10
2.3018829791
 20
18.7075325129
 30
0.0
 11
0.0
 21
1.7999999246
 31
0.0
 40
1.0
 41
1.5152121512
 42
2.9317220524
  0
ELLIPSE
  5
7E5
100
AcDbEntity
  8
CURVE
100
AcDbEllipse
 62
253
  6
CONTINUOUS
 10
2.3018829791
 20
18.7075325129
 30
0.0
 11
0.0
 21
1.7999968808
 31
0.0
 40
1.0
 41
-2.9317216922
 42
-1.5152120571
  0
ELLIPSE
  5
7E6
100
AcDbEntity
  8
CURVE
100
AcDbEllipse
 62
253
  6
CONTINUOUS
 10
-5.8382320209
 20
18.6972965129
 30
0.0
 11
0.4081803192
 21
0.0
 31
0.0
 40
1.0
 41
-1.6273824069
 42
-0.1789896921
  0
ELLIPSE
  5
7E7
100
AcDbEntity
  8
CURVE
100
AcDbEllipse
 62
253
  6
CONTINUOUS
 10
-5.6280520209
 20
17.7862215129
 30
0.0
 11
0.0
 21
0.4799348652
 31
0.0
 40
1.0
 41
-3.395627335
 42
-1.5707963268
  0
ELLIPSE
  5
7E8
100
AcDbEntity
  8
CURVE
100
AcDbEllipse
 62
253
  6
CONTINUOUS
 10
-7.5615820209
 20
19.5525765129
 30
0.0
 11
0.6251135287
 21
0.0
 31
0.0
 40
1.0
 41
1.6551658775
 42
2.7834191264
  0
ELLIPSE
  5
7E9
100
AcDbEntity
  8
CURVE
100
AcDbEllipse
 62
253
  6
CONTINUOUS
 10
-7.5747920209
 20
18.3868165129
 30
0.0
 11
0.572705
 21
-0.0
 31
0.0
 40
1.0
 41
3.1415926536
 42
4.4583526615
  0
ELLIPSE
  5
7EA
100
AcDbEntity
  8
CURVE
100
AcDbEllipse
 62
253
  6
CONTINUOUS
 10
-7.6227120209
 20
16.8167315129
 30
0.0
 11
0.5243117521
 21
-0.0
 31
0.0
 40
1.0
 41
1.3115271857
 42
3.1415926536
  0
ELLIPSE
  5
7EB
100
AcDbEntity
  8
CURVE
100
AcDbEllipse
 62
253
  6
CONTINUOUS
 10
-5.7081750209
 20
15.1127665129
 30
0.0
 11
0.5869029379
 21
-0.0
 31
0.0
 40
1.0
 41
-1.4645260649
 42
-0.3036214867
  0
ELLIPSE
  5
7EC
100
AcDbEntity
  8
CURVE
100
AcDbEllipse
 62
253
  6
CONTINUOUS
 10
-5.6881000209
 20
16.2791115129
 30
0.0
 11
0.0
 21
0.5601563986
 31
0.0
 40
1.0
 41
-1.3016044442
 42
-0.3314858817
  0
ELLIPSE
  5
7ED
100
AcDbEntity
  8
CURVE
100
AcDbEllipse
 62
253
  6
CONTINUOUS
 10
-7.3989120209
 20
16.3413565129
 30
0.0
 11
-0.0
 21
0.442797919
 31
0.0
 40
1.0
 41
1.2862691517
 42
2.6126655494
  0
ELLIPSE
  5
7EE
100
AcDbEntity
  8
CURVE
100
AcDbEllipse
 62
253
  6
CONTINUOUS
 10
-5.8279320209
 20
13.0229395129
 30
0.0
 11
-0.0
 21
0.3651110473
 31
0.0
 40
1.0
 41
-3.0413456924
 42
-1.475347741
  0
ELLIPSE
  5
7EF
100
AcDbEntity
  8
CURVE
100
AcDbEllipse
 62
253
  6
CONTINUOUS
 10
-7.4082350209
 20
13.5117945129
 30
0.0
 11
0.0
 21
0.4537134684
 31
0.0
 40
1.0
 41
1.2085382518
 42
2.490705448
  0
ELLIPSE
  5
7F0
100
AcDbEntity
  8
CURVE
100
AcDbEllipse
 62
253
  6
CONTINUOUS
 10
-5.6839170209
 20
12.2840245129
 30
0.0
 11
0.0
 21
0.5500075389
 31
0.0
 40
1.0
 41
-3.2903532321
 42
-1.79858359
  0
ELLIPSE
  5
7F1
100
AcDbEntity
  8
CURVE
100
AcDbEllipse
 62
253
  6
CONTINUOUS
 10
2.3018829791
 20
18.7075325129
 30
0.0
 11
2.5499986575
 21
-0.0
 31
0.0
 40
1.0
 41
3.1023668883
 42
6.3224110725
  0
ELLIPSE
  5
7F2
100
AcDbEntity
  8
CURVE
100
AcDbEllipse
 62
253
  6
CONTINUOUS
 10
2.3018829791
 20
14.3224225129
 30
0.0
 11
1.7999999246
 21
0.0
 31
0.0
 40
1.0
 41
3.086008478
 42
6.3387694828
  0
ELLIPSE
  5
7F3
100
AcDbEntity
  8
CURVE
100
AcDbEllipse
 62
253
  6
CONTINUOUS
 10
2.3018829791
 20
14.3224225129
 30
0.0
 11
2.5499985399
 21
-0.0
 31
0.0
 40
1.0
 41
3.1023668864
 42
6.3224110743
  0
ENDSEC
  0
SECTION
  2
OBJECTS
  0
DICTIONARY
  5
C
100
AcDbDictionary
280
0
281
1
  3
ACAD_GROUP
350
D
  3
ACAD_MLINESTYLE
350
17
  3
ACAD_LAYOUT
350
1A
  3
ACAD_PLOTSETTINGS
350
19
  3
ACAD_PLOTSTYLENAME
350
E
  0
DICTIONARY
  5
D
102
{ACAD_REACTORS
330
C
102
}
100
AcDbDictionary
280
0
281
1
  0
ACDBDICTIONARYWDFLT
  5
E
102
{ACAD_REACTORS
330
C
102
}
100
AcDbDictionary
281
1
  3
Normal
350
F
100
AcDbDictionaryWithDefault
340
F
  0
DICTIONARY
  5
17
102
{ACAD_REACTORS
330
C
102
}
100
AcDbDictionary
280
0
281
1
  3
Standard
350
18
  0
DICTIONARY
  5
19
102
{ACAD_REACTORS
330
C
102
}
100
AcDbDictionary
281
1
  0
DICTIONARY
  5
1A
102
{ACAD_REACTORS
330
C
102
}
100
AcDbDictionary
281
1
  3
Model
350
7F4
  3
Layout1
350
7F5
  0
ACDBPLACEHOLDER
  5
F
102
{ACAD_REACTORS
330
E
102
}
  0
MLINESTYLE
  5
18
102
{ACAD_REACTORS
330
17
102
}
100
AcDbMlineStyle
  2
STANDARD
 70
0
  3

 62
256
 51
90.0
 52
90.0
 71
2
 49
0.5
 62
256
  6
BYLAYER
 49
-0.5
 62
256
  6
BYLAYER
  0
LAYOUT
  5
7F4
102
{ACAD_REACTORS
330
1A
102
}
100
AcDbPlotSettings
  1

  2
none_device
  4

  6

 40
0.0
 41
0.0
 42
0.0
 43
0.0
 44
210.0
 45
297.0
 46
0.0
 47
0.0
 48
0.0
 49
0.0
140
0.0
141
0.0
142
1.0
143
1.0
 70
1024
 72
1
 73
0
 74
0
  7

 75
0
147
1.0
148
0.0
149
0.0
100
AcDbLayout
  1
Model
 70
0
 71
0
 10
0.0
 20
0.0
 11
210.0
 21
297.0
 12
0.0
 22
0.0
 32
0.0
 14
0.0
 24
0.0
 34
0.0
 15
0.0
 25
0.0
 35
0.0
146
0.0
 13
0.0
 23
0.0
 33
0.0
 16
1.0
 26
0.0
 36
0.0
 17
0.0
 27
1.0
 37
0.0
 76
0
330
21B
345
0
346
0
  0
LAYOUT
  5
7F5
102
{ACAD_REACTORS
330
1A
102
}
100
AcDbPlotSettings
  1

  2
none_device
  4

  6

 40
0.0
 41
0.0
 42
0.0
 43
0.0
 44
210.0
 45
297.0
 46
0.0
 47
0.0
 48
0.0
 49
0.0
140
0.0
141
0.0
142
1.0
143
1.0
 70
0
 72
1
 73
0
 74
0
  7

 75
0
147
1.0
148
0.0
149
0.0
100
AcDbLayout
  1
Layout1
 70
0
 71
1
 10
0.0
 20
0.0
 11
210.0
 21
297.0
 12
0.0
 22
0.0
 32
0.0
 14
0.0
 24
0.0
 34
0.0
 15
0.0
 25
0.0
 35
0.0
146
0.0
 13
0.0
 23
0.0
 33
0.0
 16
1.0
 26
0.0
 36
0.0
 17
0.0
 27
1.0
 37
0.0
 76
0
330
21C
345
0
346
0
  0
ENDSEC
  0
EOF
