  0
SECTION
  2
HEADER
  9
$ACADVER
  1
AC1024
  9
$DWGCODEPAGE
  3
ANSI_1252
  9
$EXTMAX
 10
297.0
 20
210.0
 30
0.0
  9
$EXTMIN
 10
0.0
 20
0.0
 30
0.0
  9
$LIMMIN
 10
0.0
 20
0.0
  9
$LIMMAX
 10
297.0
 20
210.0
  9
$VIEWCTR
 10
148.5
 20
105.0
  9
$VIEWSIZE
 40
210.0
  9
$CLAYER
  8
0
  9
$LTSCALE
 40
16.335
  9
$CELTYPE
  6
BYLAYER
  9
$DIMSCALE
 40
1.0
  9
$DIMASZ
 40
3.0
  9
$DIMEXO
 40
0.5
  9
$DIMDLI
 40
11.286
  9
$DIMEXE
 40
1.5
  9
$DIMCEN
 40
2.673
  9
$DIMLFAC
 40
1.0
  9
$DIMBLK
  1
_FILLED
  9
$DIMALT
 70
0
  9
$DIMALTF
 40
0.0393700787
  9
$DIMTXT
 40
3.0
  9
$DIMTOL
 70
1
  9
$DIMLIM
 70
0
  9
$DIMTFAC
 40
1.0
  9
$DIMTP
 40
0.01
  9
$DIMTM
 40
0.01
  9
$DIMGAP
 40
0.625
  9
$DIMDSEP
 70
44
  9
$AUNITS
 70
0
  9
$PDMODE
 70
3
  9
$PDSIZE
 40
3.0
  9
$HANDSEED
  5
2F1
  9
$TILEMODE
 70
1
  9
$MEASUREMENT
 70
1
  9
$INSUNITS
 70
4
  0
ENDSEC
  0
SECTION
  2
CLASSES
  0
CLASS
  1
ACDBDICTIONARYWDFLT
  2
AcDbDictionaryWithDefault
  3
AutoCAD 2000
 90
0
 91
1
280
0
281
0
  0
CLASS
  1
ACDBPLACEHOLDER
  2
AcDbPlaceHolder
  3
AutoCAD 2000
 90
0
 91
1
280
0
281
0
  0
CLASS
  1
LAYOUT
  2
AcDbLayout
  3
AutoCAD 2000
 90
0
 91
0
280
0
281
0
  0
ENDSEC
  0
SECTION
  2
TABLES
  0
TABLE
  2
VPORT
  5
8
100
AcDbSymbolTable
 70
2
  0
VPORT
  5
1F4
100
AcDbSymbolTableRecord
100
AcDbViewportTableRecord
  2
*ACTIVE
 70
0
 10
0.0
 20
0.0
 11
1.0
 21
1.0
 12
148.5
 22
105.0
 13
0.0
 23
0.0
 14
1.0
 24
1.0
 15
0.0
 25
0.0
 16
0.0
 26
0.0
 36
1.0
 17
0.0
 27
0.0
 37
0.0
 40
210.0
 41
1.4142857143
 42
50.0
 43
0.0
 44
0.0
 50
0.0
 51
0.0
 71
0
 72
100
 73
1
 74
1
 75
0
 76
0
 77
0
 78
0
  0
ENDTAB
  0
TABLE
  2
LTYPE
  5
5
100
AcDbSymbolTable
 70
6
  0
LTYPE
  5
14
100
AcDbSymbolTableRecord
100
AcDbLinetypeTableRecord
  2
BYBLOCK
 70
0
  3

 72
65
 73
0
 40
0.0
  0
LTYPE
  5
15
100
AcDbSymbolTableRecord
100
AcDbLinetypeTableRecord
  2
BYLAYER
 70
0
  3

 72
65
 73
0
 40
0.0
  0
LTYPE
  5
16
100
AcDbSymbolTableRecord
100
AcDbLinetypeTableRecord
  2
CONTINUOUS
 70
64
  3
Solid line
 72
65
 73
0
 40
0.0
  0
LTYPE
  5
1F5
100
AcDbSymbolTableRecord
100
AcDbLinetypeTableRecord
  2
CENTER
 70
64
  3
____ _ ____ _ ____ _ ____ _ ____ _ ____ _ ____
 72
65
 73
4
 40
0.6
 49
0.375
 74
0
 49
-0.075
 74
0
 49
0.075
 74
0
 49
-0.075
 74
0
  0
LTYPE
  5
1F6
100
AcDbSymbolTableRecord
100
AcDbLinetypeTableRecord
  2
HIDDEN
 70
64
  3
- - - - - - - - - - - - - - - - - - - -
 72
65
 73
2
 40
0.2
 49
0.1
 74
0
 49
-0.1
 74
0
  0
LTYPE
  5
1F7
100
AcDbSymbolTableRecord
100
AcDbLinetypeTableRecord
  2
PHANTOM
 70
64
  3
_____ _ _ _____ _ _ _____ _ _ _____
 72
65
 73
6
 40
0.8
 49
0.45
 74
0
 49
-0.05
 74
0
 49
0.1
 74
0
 49
-0.05
 74
0
 49
0.1
 74
0
 49
-0.05
 74
0
  0
LTYPE
  5
1F8
100
AcDbSymbolTableRecord
100
AcDbLinetypeTableRecord
  2
DOT
 70
64
  3
. . . . . . . . . . . . . . . . . . . .
 72
65
 73
2
 40
0.2
 49
0.1
 74
0
 49
-0.1
 74
0
  0
LTYPE
  5
1F9
100
AcDbSymbolTableRecord
100
AcDbLinetypeTableRecord
  2
DASHED
 70
64
  3
- - - - - - - - - - - - - - - - - - - -
 72
65
 73
2
 40
0.2
 49
0.1
 74
0
 49
-0.1
 74
0
  0
ENDTAB
  0
TABLE
  2
LAYER
  5
2
100
AcDbSymbolTable
 70
36
  0
LAYER
  5
10
100
AcDbSymbolTableRecord
100
AcDbLayerTableRecord
  2
0
 70
0
 62
7
  6
CONTINUOUS
370
-3
390
F
  0
LAYER
  5
1FA
100
AcDbSymbolTableRecord
100
AcDbLayerTableRecord
  2
DEFAULT_1
 70
0
 62
7
  6
CENTER
370
-3
390
F
  0
LAYER
  5
1FB
100
AcDbSymbolTableRecord
100
AcDbLayerTableRecord
  2
DEFAULT_2
 70
0
 62
7
  6
HIDDEN
370
-3
390
F
  0
LAYER
  5
1FC
100
AcDbSymbolTableRecord
100
AcDbLayerTableRecord
  2
DEFAULT_3
 70
0
 62
7
  6
PHANTOM
370
-3
390
F
  0
LAYER
  5
1FD
100
AcDbSymbolTableRecord
100
AcDbLayerTableRecord
  2
ASSI
 70
0
 62
7
  6
CONTINUOUS
370
-3
390
F
  0
LAYER
  5
1FE
100
AcDbSymbolTableRecord
100
AcDbLayerTableRecord
  2
COORDINATE
 70
0
 62
7
  6
CONTINUOUS
370
-3
390
F
  0
LAYER
  5
1FF
100
AcDbSymbolTableRecord
100
AcDbLayerTableRecord
  2
COORD_ORIGINE
 70
0
 62
7
  6
CONTINUOUS
370
-3
390
F
  0
LAYER
  5
200
100
AcDbSymbolTableRecord
100
AcDbLayerTableRecord
  2
COSMETICI
 70
0
 62
7
  6
CONTINUOUS
370
-3
390
F
  0
LAYER
  5
201
100
AcDbSymbolTableRecord
100
AcDbLayerTableRecord
  2
CURVE
 70
0
 62
7
  6
CONTINUOUS
370
-3
390
F
  0
LAYER
  5
202
100
AcDbSymbolTableRecord
100
AcDbLayerTableRecord
  2
CURVE_LED_TASTO
 70
0
 62
7
  6
CONTINUOUS
370
-3
390
F
  0
LAYER
  5
203
100
AcDbSymbolTableRecord
100
AcDbLayerTableRecord
  2
DRAFT
 70
0
 62
7
  6
CONTINUOUS
370
-3
390
F
  0
LAYER
  5
204
100
AcDbSymbolTableRecord
100
AcDbLayerTableRecord
  2
IGES_SCRITTE
 70
0
 62
7
  6
CONTINUOUS
370
-3
390
F
  0
LAYER
  5
205
100
AcDbSymbolTableRecord
100
AcDbLayerTableRecord
  2
INTF_1
 70
0
 62
7
  6
CONTINUOUS
370
-3
390
F
  0
LAYER
  5
206
100
AcDbSymbolTableRecord
100
AcDbLayerTableRecord
  2
INTF_11
 70
0
 62
7
  6
CONTINUOUS
370
-3
390
F
  0
LAYER
  5
207
100
AcDbSymbolTableRecord
100
AcDbLayerTableRecord
  2
NOTE
 70
0
 62
7
  6
CONTINUOUS
370
-3
390
F
  0
LAYER
  5
208
100
AcDbSymbolTableRecord
100
AcDbLayerTableRecord
  2
PIANI
 70
0
 62
7
  6
CONTINUOUS
370
-3
390
F
  0
LAYER
  5
209
100
AcDbSymbolTableRecord
100
AcDbLayerTableRecord
  2
PIANI_ORIGINE
 70
0
 62
7
  6
CONTINUOUS
370
-3
390
F
  0
LAYER
  5
20A
100
AcDbSymbolTableRecord
100
AcDbLayerTableRecord
  2
PIANI_RIFERIMENTO
 70
0
 62
7
  6
CONTINUOUS
370
-3
390
F
  0
LAYER
  5
20B
100
AcDbSymbolTableRecord
100
AcDbLayerTableRecord
  2
PUNTI
 70
0
 62
7
  6
CONTINUOUS
370
-3
390
F
  0
LAYER
  5
20C
100
AcDbSymbolTableRecord
100
AcDbLayerTableRecord
  2
RACCORDO
 70
0
 62
7
  6
CONTINUOUS
370
-3
390
F
  0
LAYER
  5
20D
100
AcDbSymbolTableRecord
100
AcDbLayerTableRecord
  2
RGB____0____0____0__
 70
0
 62
7
  6
CONTINUOUS
370
-3
390
F
  0
LAYER
  5
20E
100
AcDbSymbolTableRecord
100
AcDbLayerTableRecord
  2
SIMBOLI
 70
0
 62
7
  6
CONTINUOUS
370
-3
390
F
  0
LAYER
  5
20F
100
AcDbSymbolTableRecord
100
AcDbLayerTableRecord
  2
SMUSSO
 70
0
 62
7
  6
CONTINUOUS
370
-3
390
F
  0
LAYER
  5
210
100
AcDbSymbolTableRecord
100
AcDbLayerTableRecord
  2
SNAPLINE
 70
0
 62
7
  6
CONTINUOUS
370
-3
390
F
  0
LAYER
  5
211
100
AcDbSymbolTableRecord
100
AcDbLayerTableRecord
  2
SUPERFICI
 70
0
 62
7
  6
CONTINUOUS
370
-3
390
F
  0
LAYER
  5
212
100
AcDbSymbolTableRecord
100
AcDbLayerTableRecord
  2
TRASH
 70
0
 62
7
  6
CONTINUOUS
370
-3
390
F
  0
ENDTAB
  0
TABLE
  2
STYLE
  5
3
100
AcDbSymbolTable
 70
1
  0
STYLE
  5
11
100
AcDbSymbolTableRecord
100
AcDbTextStyleTableRecord
  2
STANDARD
 70
0
 40
0.0
 41
0.8
 50
0.0
 71
0
 42
0.2
  3
txt
  4

  0
STYLE
  5
213
100
AcDbSymbolTableRecord
100
AcDbTextStyleTableRecord
  2
TEXTSTYLE_1
 70
0
 40
0.0
 41
0.8
 50
0.0
 71
0
 42
0.2
  3
gdt
  4

  0
ENDTAB
  0
TABLE
  2
VIEW
  5
6
100
AcDbSymbolTable
 70
0
  0
ENDTAB
  0
TABLE
  2
UCS
  5
7
100
AcDbSymbolTable
 70
0
  0
ENDTAB
  0
TABLE
  2
APPID
  5
9
100
AcDbSymbolTable
 70
1
  0
APPID
  5
214
100
AcDbSymbolTableRecord
100
AcDbRegAppTableRecord
  2
ACAD
 70
0
  0
ENDTAB
  0
TABLE
  2
BLOCK_RECORD
  5
1
100
AcDbSymbolTable
 70
0
  0
BLOCK_RECORD
  5
215
100
AcDbSymbolTableRecord
100
AcDbBlockTableRecord
  2
*Model_Space
  0
BLOCK_RECORD
  5
216
100
AcDbSymbolTableRecord
100
AcDbBlockTableRecord
  2
*Paper_Space
  0
BLOCK_RECORD
  5
217
100
AcDbSymbolTableRecord
100
AcDbBlockTableRecord
  2
_FILLED
  0
BLOCK_RECORD
  5
218
100
AcDbSymbolTableRecord
100
AcDbBlockTableRecord
  2
*D0
  0
BLOCK_RECORD
  5
219
100
AcDbSymbolTableRecord
100
AcDbBlockTableRecord
  2
*D1
  0
BLOCK_RECORD
  5
21A
100
AcDbSymbolTableRecord
100
AcDbBlockTableRecord
  2
*D2
  0
ENDTAB
  0
TABLE
  2
DIMSTYLE
  5
A
100
AcDbSymbolTable
 70
1
100
AcDbDimStyleTable
 71
0
  0
DIMSTYLE
105
21B
100
AcDbSymbolTableRecord
100
AcDbDimStyleTableRecord
  2
STANDARD
 70
0
  3

  4

 40
1.0
 41
3.0
 42
0.5
 43
0.38
 44
1.5
 45
0.0
 46
0.0
 47
0.01
 48
0.01
140
3.0
141
0.09
142
0.0
143
25.4
144
1.0
145
0.0
146
1.0
147
0.625
 71
1
 72
0
 73
0
 74
0
 75
0
 76
0
 77
1
 78
8
 79
2
170
0
171
1
172
0
173
0
174
0
175
0
176
0
177
0
178
0
270
2
179
2
271
2
272
2
273
2
274
2
275
0
280
0
281
0
282
0
283
1
284
8
285
0
286
0
287
3
288
0
340
11
278
44
341
217
342
217
343
217
344
217
  0
DIMSTYLE
105
21C
100
AcDbSymbolTableRecord
100
AcDbDimStyleTableRecord
  2
DIMSTYLE_1
 70
0
  3

  4

 40
1.0
 41
3.0
 42
0.5
 43
0.38
 44
1.5
 45
0.0
 46
0.0
 47
0.0
 48
0.0
140
3.0
141
0.09
142
0.0
143
25.4
144
1.0
145
0.0
146
1.0
147
0.75
 71
0
 72
0
 73
0
 74
0
 75
0
 76
0
 77
1
 78
8
 79
2
170
0
171
1
172
0
173
0
174
0
175
0
176
0
177
0
178
0
270
2
179
2
271
2
272
2
273
2
274
2
275
0
280
0
281
0
282
0
283
1
284
8
285
0
286
0
287
3
288
0
340
11
278
44
341
217
342
217
343
217
344
217
  0
DIMSTYLE
105
21D
100
AcDbSymbolTableRecord
100
AcDbDimStyleTableRecord
  2
DIMSTYLE_2
 70
0
  3

  4

 40
1.0
 41
3.0
 42
0.5
 43
0.38
 44
1.5
 45
0.0
 46
0.0
 47
0.0
 48
0.0
140
3.0
141
0.09
142
0.0
143
25.4
144
1.0
145
0.0
146
1.0
147
0.75
 71
0
 72
0
 73
0
 74
0
 75
0
 76
0
 77
1
 78
8
 79
2
170
0
171
1
172
0
173
0
174
0
175
0
176
0
177
0
178
0
270
2
179
2
271
1
272
1
273
2
274
2
275
0
280
0
281
0
282
0
283
1
284
8
285
0
286
0
287
3
288
0
340
11
278
44
341
217
342
217
343
217
344
217
  0
ENDTAB
  0
ENDSEC
  0
SECTION
  2
BLOCKS
  0
BLOCK
  5
20
100
AcDbEntity
  8
0
100
AcDbBlockBegin
  2
*Model_Space
 70
0
 10
0.0
 20
0.0
 30
0.0
  3
*Model_Space
  1

  0
ENDBLK
  5
21
100
AcDbEntity
  8
0
100
AcDbBlockEnd
  0
BLOCK
  5
1C
100
AcDbEntity
  8
0
100
AcDbBlockBegin
  2
*Paper_Space
 70
0
 10
0.0
 20
0.0
 30
0.0
  3
*Paper_Space
  1

  0
ENDBLK
  5
1D
100
AcDbEntity
  8
0
100
AcDbBlockEnd
  0
BLOCK
  5
21E
100
AcDbEntity
  8
0
100
AcDbBlockBegin
  2
_FILLED
 70
64
 10
0.0
 20
0.0
  3
_FILLED
  1

  0
SOLID
  5
21F
100
AcDbEntity
  8
0
  6
BYBLOCK
 62
0
100
AcDbTrace
 10
0.0
 20
0.0
 11
-1.0
 21
0.3166666667
 12
-1.0
 22
-0.3166666667
 13
-1.0
 23
-0.3166666667
  0
ENDBLK
  5
220
100
AcDbEntity
  8
0
  6
BYBLOCK
 62
0
100
AcDbBlockEnd
  0
BLOCK
  5
221
100
AcDbEntity
  8
0
100
AcDbBlockBegin
 62
7
  6
CONTINUOUS
  2
*D0
 70
65
 10
0.0
 20
0.0
  3
*D0
  1

  0
LINE
  5
222
100
AcDbEntity
  8
0
100
AcDbLine
 62
7
  6
CONTINUOUS
 10
21.6731369408
 20
7.7479871711
 11
21.6731369408
 21
33.5189532546
  0
LINE
  5
223
100
AcDbEntity
  8
0
100
AcDbLine
 62
7
  6
CONTINUOUS
 10
-22.1268630592
 20
7.7479871711
 11
-22.1268630592
 21
33.5189532546
  0
LINE
  5
224
100
AcDbEntity
  8
0
100
AcDbLine
 62
7
  6
CONTINUOUS
 10
21.6731369408
 20
32.0189532546
 11
-0.2268630592
 21
32.0189532546
  0
LINE
  5
225
100
AcDbEntity
  8
0
100
AcDbLine
 62
7
  6
CONTINUOUS
 10
-22.1268630592
 20
32.0189532546
 11
-0.2268630592
 21
32.0189532546
  0
INSERT
  5
226
100
AcDbEntity
  8
0
100
AcDbBlockReference
 62
7
  6
CONTINUOUS
  2
_FILLED
 10
21.6731369408
 20
32.0189532546
 41
3.0
 42
3.0
 43
3.0
  0
INSERT
  5
227
100
AcDbEntity
  8
0
100
AcDbBlockReference
 62
7
  6
CONTINUOUS
  2
_FILLED
 10
-22.1268630592
 20
32.0189532546
 41
3.0
 42
3.0
 43
3.0
 50
180.0
  0
ENDBLK
  5
228
100
AcDbEntity
  8
0
  6
BYBLOCK
 62
0
100
AcDbBlockEnd
  0
BLOCK
  5
229
100
AcDbEntity
  8
0
100
AcDbBlockBegin
 62
7
  6
CONTINUOUS
  2
*D1
 70
65
 10
0.0
 20
0.0
  3
*D1
  1

  0
LINE
  5
22A
100
AcDbEntity
  8
0
100
AcDbLine
 62
7
  6
CONTINUOUS
 10
21.6375962856
 20
21.9758287088
 11
33.1913915676
 21
21.9758287088
  0
LINE
  5
22B
100
AcDbEntity
  8
0
100
AcDbLine
 62
7
  6
CONTINUOUS
 10
21.6375962856
 20
-22.4798543667
 11
33.1913915676
 21
-22.4798543667
  0
LINE
  5
22C
100
AcDbEntity
  8
0
100
AcDbLine
 62
7
  6
CONTINUOUS
 10
31.6913915676
 20
21.9758287088
 11
31.6913915676
 21
-0.2520128289
  0
LINE
  5
22D
100
AcDbEntity
  8
0
100
AcDbLine
 62
7
  6
CONTINUOUS
 10
31.6913915676
 20
-22.4798543667
 11
31.6913915676
 21
-0.2520128289
  0
INSERT
  5
22E
100
AcDbEntity
  8
0
100
AcDbBlockReference
 62
7
  6
CONTINUOUS
  2
_FILLED
 10
31.6913915676
 20
21.9758287088
 41
3.0
 42
3.0
 43
3.0
 50
90.0
  0
INSERT
  5
22F
100
AcDbEntity
  8
0
100
AcDbBlockReference
 62
7
  6
CONTINUOUS
  2
_FILLED
 10
31.6913915676
 20
-22.4798543667
 41
3.0
 42
3.0
 43
3.0
 50
270.0
  0
ENDBLK
  5
230
100
AcDbEntity
  8
0
  6
BYBLOCK
 62
0
100
AcDbBlockEnd
  0
BLOCK
  5
231
100
AcDbEntity
  8
0
100
AcDbBlockBegin
 62
7
  6
CONTINUOUS
  2
*D2
 70
65
 10
0.0
 20
0.0
  3
*D2
  1

  0
LINE
  5
232
100
AcDbEntity
  8
0
100
AcDbLine
 62
7
  6
CONTINUOUS
 10
-43.8264876955
 20
7.7479871711
 11
-43.8264876955
 21
33.4758287088
  0
LINE
  5
233
100
AcDbEntity
  8
0
100
AcDbLine
 62
7
  6
CONTINUOUS
 10
-49.8264876955
 20
0.2479871711
 11
-49.8264876955
 21
33.4758287088
  0
LINE
  5
234
100
AcDbEntity
  8
0
100
AcDbLine
 62
7
  6
CONTINUOUS
 10
-43.8264876955
 20
31.9758287088
 11
-46.8264876955
 21
31.9758287088
  0
LINE
  5
235
100
AcDbEntity
  8
0
100
AcDbLine
 62
7
  6
CONTINUOUS
 10
-49.8264876955
 20
31.9758287088
 11
-46.8264876955
 21
31.9758287088
  0
INSERT
  5
236
100
AcDbEntity
  8
0
100
AcDbBlockReference
 62
7
  6
CONTINUOUS
  2
_FILLED
 10
-43.8264876955
 20
31.9758287088
 41
3.0
 42
3.0
 43
3.0
  0
INSERT
  5
237
100
AcDbEntity
  8
0
100
AcDbBlockReference
 62
7
  6
CONTINUOUS
  2
_FILLED
 10
-49.8264876955
 20
31.9758287088
 41
3.0
 42
3.0
 43
3.0
 50
180.0
  0
ENDBLK
  5
238
100
AcDbEntity
  8
0
  6
BYBLOCK
 62
0
100
AcDbBlockEnd
  0
ENDSEC
  0
SECTION
  2
ENTITIES
  0
DIMENSION
  5
239
100
AcDbEntity
  8
0
100
AcDbDimension
 62
7
  6
CONTINUOUS
  2
*D0
 10
-22.1268630592
 20
32.0189532546
 11
-4.5125773449
 21
32.0189532546
 70
160
 71
2
 72
2
 41
0.9
 42
43.8
  3
DIMSTYLE_1
100
AcDbAlignedDimension
 13
21.6731369408
 23
7.2479871711
 14
-22.1268630592
 24
7.2479871711
 50
180.0
100
AcDbRotatedDimension
  0
DIMENSION
  5
23A
100
AcDbEntity
  8
0
100
AcDbDimension
 62
7
  6
CONTINUOUS
  2
*D1
 10
31.6913915676
 20
-22.4798543667
 11
31.6913915676
 21
-4.5377271147
 70
160
 71
2
 72
2
 41
0.9
 42
44.4556830754
  3
DIMSTYLE_2
100
AcDbAlignedDimension
 13
21.1375962856
 23
21.9758287088
 14
21.1375962856
 24
-22.4798543667
 50
270.0
100
AcDbRotatedDimension
  0
DIMENSION
  5
23B
100
AcDbEntity
  8
0
100
AcDbDimension
 62
7
  6
CONTINUOUS
  2
*D2
 10
-49.8264876955
 20
31.9758287088
 11
-48.0050591241
 21
31.9758287088
 70
160
 71
2
 72
2
 41
0.9
 42
6.0
  3
DIMSTYLE_1
100
AcDbAlignedDimension
 13
-43.8264876955
 23
7.2479871711
 14
-49.8264876955
 24
-0.2520128289
 50
180.0
100
AcDbRotatedDimension
  0
LWPOLYLINE
  5
23C
100
AcDbEntity
  8
RACCORDO
100
AcDbPolyline
 62
250
  6
CONTINUOUS
 90
16
 70
0
 10
-22.0107638008
 20
20.9155876364
 10
-22.0067836677
 20
20.9232736857
 10
-21.9975484658
 20
20.9308782614
 10
-21.9831560712
 20
20.9383207692
 10
-21.9637590164
 20
20.9455223322
 10
-21.939562874
 20
20.9524066274
 10
-21.9108240782
 20
20.9589006939
 10
-21.8778472067
 20
20.9649357069
 10
-21.840981753
 20
20.9704477064
 10
-21.8006184221
 20
20.9753782755
 10
-21.7571849904
 20
20.9796751592
 10
-21.7111417713
 20
20.9832928188
 10
-21.6629767372
 20
20.9861929138
 10
-21.6132003479
 20
20.9883447089
 10
-21.5623401405
 20
20.989725399
 10
-21.5109351384
 20
20.9903203513
  0
LWPOLYLINE
  5
23D
100
AcDbEntity
  8
0
100
AcDbPolyline
 62
7
  6
CONTINUOUS
 90
5
 70
0
 43
0.3500000006
 10
-1.2982916021
 20
34.483237793
 10
-0.9411487877
 20
34.6975268097
 10
-0.9411487877
 20
35.3403802643
 10
-1.2982916021
 20
35.7689537659
 10
-2.1554344983
 20
35.7689537659
  0
LWPOLYLINE
  5
23E
100
AcDbEntity
  8
RACCORDO
100
AcDbPolyline
 62
250
  6
CONTINUOUS
 90
16
 70
0
 10
-22.0107638009
 20
-21.4196132943
 10
-22.00678458
 20
-21.4272995474
 10
-21.99755015
 20
-21.4349043385
 10
-21.983158381
 20
-21.4423470689
 10
-21.9637618027
 20
-21.4495488577
 10
-21.9395659876
 20
-21.4564333774
 10
-21.9108273727
 20
-21.4629276632
 10
-21.8778505412
 20
-21.468962886
 10
-21.8409849947
 20
-21.4744750822
 10
-21.8006214488
 20
-21.4794058313
 10
-21.7571876924
 20
-21.4837028753
 10
-21.7111440536
 20
-21.4873206724
 10
-21.6629785214
 20
-21.4902208799
 10
-21.613201573
 20
-21.4923727604
 10
-21.5623407643
 20
-21.4937535073
 10
-21.5109351384
 20
-21.4943484869
  0
LWPOLYLINE
  5
23F
100
AcDbEntity
  8
RACCORDO
100
AcDbPolyline
 62
250
  6
CONTINUOUS
 90
16
 70
0
 10
-22.0230244453
 20
-21.8441928636
 10
-22.0202196847
 20
-21.8963392387
 10
-22.0119790747
 20
-21.9479154467
 10
-21.9983926957
 20
-21.9983574018
 10
-21.9796090942
 20
-22.0471134188
 10
-21.9558336627
 20
-22.0936502373
 10
-21.9273263977
 20
-22.1374588556
 10
-21.8943990454
 20
-22.1780601173
 10
-21.8574117044
 20
-22.2150099315
 10
-21.8167688999
 20
-22.2479041283
 10
-21.7729151251
 20
-22.2763829115
 10
-21.7263300032
 20
-22.3001347692
 10
-21.6775230664
 20
-22.3188998781
 10
-21.6270281351
 20
-22.3324729723
 10
-21.5753974736
 20
-22.3407055792
 10
-21.523195783
 20
-22.3435076312
  0
LWPOLYLINE
  5
240
100
AcDbEntity
  8
RACCORDO
100
AcDbPolyline
 62
250
  6
CONTINUOUS
 90
16
 70
0
 10
-22.0230244453
 20
21.3401672057
 10
-22.0202195863
 20
21.3923145056
 10
-22.0119787164
 20
21.443891464
 10
-21.9983919671
 20
21.4943339773
 10
-21.9796079383
 20
21.5430903496
 10
-21.9558320733
 20
21.5896273264
 10
-21.9273244116
 20
21.633435927
 10
-21.8943967452
 20
21.6740370113
 10
-21.8574092078
 20
21.7109865202
 10
-21.8167663369
 20
21.7438803324
 10
-21.7729126485
 20
21.7723586841
 10
-21.7263277758
 20
21.7961101042
 10
-21.6775212234
 20
21.8148748204
 10
-21.6270267945
 20
21.8284476007
 10
-21.5753967529
 20
21.8366799978
 10
-21.5231957829
 20
21.8394819731
  0
LWPOLYLINE
  5
241
100
AcDbEntity
  8
RACCORDO
100
AcDbPolyline
 62
250
  6
CONTINUOUS
 90
6
 70
0
 10
-21.5183927195
 20
21.748773818
 10
-21.5193147074
 20
21.7779860678
 10
-21.5202575766
 20
21.8017846338
 10
-21.5212160975
 20
21.8200317215
 10
-21.5221954996
 20
21.8326218245
 10
-21.5231957829
 20
21.8394819731
  0
LWPOLYLINE
  5
242
100
AcDbEntity
  8
RACCORDO
100
AcDbPolyline
 62
250
  6
CONTINUOUS
 90
10
 70
0
 10
-22.0149162763
 20
21.211303059
 10
-22.0156790751
 20
21.2357245228
 10
-22.0164925592
 20
21.2579982047
 10
-22.0173426337
 20
21.277746043
 10
-22.0182304836
 20
21.294925981
 10
-22.0191549238
 20
21.3095800753
 10
-22.0200983051
 20
21.3214564341
 10
-22.0210547442
 20
21.3304710934
 10
-22.0220301243
 20
21.3367080173
 10
-22.0230244453
 20
21.3401672057
  0
LINE
  5
243
100
AcDbEntity
  8
RACCORDO
100
AcDbLine
 62
250
  6
CONTINUOUS
 10
-22.0135443607
 20
21.1559303028
 11
-22.0149162763
 21
21.211303059
  0
LINE
  5
244
100
AcDbEntity
  8
RACCORDO
100
AcDbLine
 62
250
  6
CONTINUOUS
 10
-21.5166590093
 20
21.6748170347
 11
-21.5183927195
 21
21.748773818
  0
LINE
  5
245
100
AcDbEntity
  8
RACCORDO
100
AcDbLine
 62
250
  6
CONTINUOUS
 10
-22.0124112684
 20
21.0934411304
 11
-22.0135443607
 21
21.1559303028
  0
LINE
  5
246
100
AcDbEntity
  8
RACCORDO
100
AcDbLine
 62
250
  6
CONTINUOUS
 10
-21.5150861526
 20
21.5816236895
 11
-21.5166590093
 21
21.6748170347
  0
LINE
  5
247
100
AcDbEntity
  8
RACCORDO
100
AcDbLine
 62
250
  6
CONTINUOUS
 10
-22.0115369739
 20
21.0249970534
 11
-22.0124112684
 21
21.0934411304
  0
LINE
  5
248
100
AcDbEntity
  8
RACCORDO
100
AcDbLine
 62
250
  6
CONTINUOUS
 10
-21.5131202937
 20
21.4105719598
 11
-21.5150861526
 21
21.5816236895
  0
LINE
  5
249
100
AcDbEntity
  8
RACCORDO
100
AcDbLine
 62
250
  6
CONTINUOUS
 10
-22.0107638009
 20
20.9155876364
 11
-22.0115369739
 21
21.0249970534
  0
LINE
  5
24A
100
AcDbEntity
  8
RACCORDO
100
AcDbLine
 62
250
  6
CONTINUOUS
 10
-21.5113834858
 20
21.1383557309
 11
-21.5131202937
 21
21.4105719598
  0
LINE
  5
24B
100
AcDbEntity
  8
DRAFT
100
AcDbLine
 62
7
  6
CONTINUOUS
 10
-22.1268630592
 20
-7.7520128289
 11
-22.0908085677
 21
-20.8520128289
  0
LINE
  5
24C
100
AcDbEntity
  8
RACCORDO
100
AcDbLine
 62
250
  6
CONTINUOUS
 10
-21.9943036966
 20
15.742314717
 11
-22.0107638009
 21
20.9155876364
  0
LINE
  5
24D
100
AcDbEntity
  8
RACCORDO
100
AcDbLine
 62
250
  6
CONTINUOUS
 10
-21.4944750269
 20
15.7880608087
 11
-21.5109351384
 21
20.9903228346
  0
LINE
  5
24E
100
AcDbEntity
  8
RACCORDO
100
AcDbLine
 62
250
  6
CONTINUOUS
 10
-21.5109351384
 20
20.9903228346
 11
-21.5113834858
 21
21.1383557309
  0
LINE
  5
24F
100
AcDbEntity
  8
RACCORDO
100
AcDbLine
 62
250
  6
CONTINUOUS
 10
-21.9857561219
 20
10.5414926168
 11
-21.9943036966
 21
15.742314717
  0
LINE
  5
250
100
AcDbEntity
  8
RACCORDO
100
AcDbLine
 62
250
  6
CONTINUOUS
 10
-21.4859275041
 20
10.5578360511
 11
-21.4944750269
 21
15.7880608087
  0
LINE
  5
251
100
AcDbEntity
  8
0
100
AcDbLine
 62
7
  6
CONTINUOUS
 10
-22.1268630592
 20
-7.7520128289
 11
-22.1268630592
 21
-4.8045060271
  0
LINE
  5
252
100
AcDbEntity
  8
0
100
AcDbLine
 62
7
  6
CONTINUOUS
 10
-22.1268630592
 20
4.3004803692
 11
-22.1268630592
 21
7.2479871711
  0
LINE
  5
253
100
AcDbEntity
  8
0
100
AcDbLine
 62
7
  6
CONTINUOUS
 10
-22.1111515063
 20
-4.2938472419
 11
-22.1111515063
 21
3.789821584
  0
LINE
  5
254
100
AcDbEntity
  8
RACCORDO
100
AcDbLine
 62
7
  6
CONTINUOUS
 10
-22.0908085677
 20
21.4758284736
 11
-22.0908085677
 21
20.3479871711
  0
LINE
  5
255
100
AcDbEntity
  8
RACCORDO
100
AcDbLine
 62
7
  6
CONTINUOUS
 10
-22.0908085677
 20
-20.8520128289
 11
-22.0908085677
 21
-21.9798541315
  0
LINE
  5
256
100
AcDbEntity
  8
RACCORDO
100
AcDbLine
 62
250
  6
CONTINUOUS
 10
-21.9871491314
 20
-12.3473704703
 11
-21.9857561219
 21
10.5414926168
  0
LINE
  5
257
100
AcDbEntity
  8
RACCORDO
100
AcDbLine
 62
250
  6
CONTINUOUS
 10
-21.4873205037
 20
-12.3710709182
 11
-21.4859275041
 21
10.5578360511
  0
LINE
  5
258
100
AcDbEntity
  8
RACCORDO
100
AcDbLine
 62
250
  6
CONTINUOUS
 10
-21.9976784629
 20
-17.5429307645
 11
-21.9871491314
 21
-12.3473704703
  0
LINE
  5
259
100
AcDbEntity
  8
RACCORDO
100
AcDbLine
 62
250
  6
CONTINUOUS
 10
-21.4978496776
 20
-17.5959643776
 11
-21.4873205037
 21
-12.3710709182
  0
LINE
  5
25A
100
AcDbEntity
  8
DRAFT
100
AcDbLine
 62
7
  6
CONTINUOUS
 10
-22.0908085677
 20
20.3479871711
 11
-22.1268630592
 21
7.2479871711
  0
LINE
  5
25B
100
AcDbEntity
  8
RACCORDO
100
AcDbLine
 62
250
  6
CONTINUOUS
 10
-21.512114564
 20
-21.7835500826
 11
-21.4978496776
 21
-17.5959643776
  0
LINE
  5
25C
100
AcDbEntity
  8
RACCORDO
100
AcDbLine
 62
250
  6
CONTINUOUS
 10
-22.0112085152
 20
-21.4935224195
 11
-21.9976784629
 21
-17.5429307645
  0
LINE
  5
25D
100
AcDbEntity
  8
RACCORDO
100
AcDbLine
 62
250
  6
CONTINUOUS
 10
-21.5137170787
 20
-21.9753650236
 11
-21.512114564
 21
-21.7835500826
  0
LINE
  5
25E
100
AcDbEntity
  8
RACCORDO
100
AcDbLine
 62
250
  6
CONTINUOUS
 10
-22.01193814
 20
-21.5636861161
 11
-22.0112085152
 21
-21.4935224195
  0
LINE
  5
25F
100
AcDbEntity
  8
RACCORDO
100
AcDbLine
 62
250
  6
CONTINUOUS
 10
-21.5158465113
 20
-22.134524432
 11
-21.5137170787
 21
-21.9753650236
  0
LINE
  5
260
100
AcDbEntity
  8
RACCORDO
100
AcDbLine
 62
250
  6
CONTINUOUS
 10
-22.012944399
 20
-21.6294581846
 11
-22.01193814
 21
-21.5636861161
  0
LINE
  5
261
100
AcDbEntity
  8
RACCORDO
100
AcDbLine
 62
7
  6
CONTINUOUS
 10
-21.5913224041
 20
-22.4798543667
 11
21.1375962856
 21
-22.4798543667
  0
LINE
  5
262
100
AcDbEntity
  8
RACCORDO
100
AcDbLine
 62
250
  6
CONTINUOUS
 10
21.0694696644
 20
-22.3435076309
 11
-21.5231957829
 21
-22.3435076309
  0
LINE
  5
263
100
AcDbEntity
  8
RACCORDO
100
AcDbLine
 62
250
  6
CONTINUOUS
 10
21.05720902
 20
-21.4943484925
 11
-21.5109351384
 21
-21.4943484925
  0
LINE
  5
264
100
AcDbEntity
  8
0
100
AcDbLine
 62
7
  6
CONTINUOUS
 10
-22.1268630592
 20
-4.8045060271
 11
-22.1231033403
 21
-4.791944591
  0
LINE
  5
265
100
AcDbEntity
  8
0
100
AcDbLine
 62
7
  6
CONTINUOUS
 10
-22.1268630592
 20
4.3004803692
 11
-22.1231033403
 21
4.2879189331
  0
LWPOLYLINE
  5
266
100
AcDbEntity
  8
RACCORDO
100
AcDbPolyline
 62
250
  6
CONTINUOUS
 90
8
 70
0
 10
-21.5231957829
 20
-22.3435076309
 10
-21.5221954232
 20
-22.3366474988
 10
-21.5212159504
 20
-22.3240573859
 10
-21.5202573643
 20
-22.3058102121
 10
-21.519314449
 20
-22.282011388
 10
-21.5183924205
 20
-22.2527986916
 10
-21.5175069269
 20
-22.2183418479
 10
-21.5158465113
 20
-22.134524432
  0
LWPOLYLINE
  5
267
100
AcDbEntity
  8
RACCORDO
100
AcDbPolyline
 62
250
  6
CONTINUOUS
 90
12
 70
0
 10
-22.0230244453
 20
-21.8441928636
 10
-22.0220299568
 20
-21.8407351823
 10
-22.0210542954
 20
-21.8344955106
 10
-22.0200974613
 20
-21.8254738484
 10
-22.0191535046
 20
-21.813585938
 10
-22.0182283752
 20
-21.7989160372
 10
-22.0173399224
 20
-21.7817169193
 10
-22.0164893079
 20
-21.7619415835
 10
-22.0156753701
 20
-21.7396370306
 10
-22.0149124738
 20
-21.7151970366
 10
-22.0142016673
 20
-21.6885865155
 10
-22.012944399
 20
-21.6294581846
  0
LWPOLYLINE
  5
268
100
AcDbEntity
  8
RACCORDO
100
AcDbPolyline
 62
250
  6
CONTINUOUS
 90
7
 70
0
 10
21.5311327677
 20
-9.7425128289
 10
21.527139907
 20
-9.7434896956
 10
21.5178939486
 20
-9.7444562129
 10
21.5034928483
 20
-9.7454021412
 10
21.4840891774
 20
-9.7463174589
 10
21.4598885068
 20
-9.7471924686
 10
21.4311472287
 20
-9.7480179003
  0
LWPOLYLINE
  5
269
100
AcDbEntity
  8
RACCORDO
100
AcDbPolyline
 62
250
  6
CONTINUOUS
 90
9
 70
0
 10
-21.9848588861
 20
-9.7425128289
 10
-21.9808660275
 20
-9.7434896957
 10
-21.9716200708
 20
-9.744456213
 10
-21.9572189719
 20
-9.7454021413
 10
-21.9378153021
 20
-9.746317459
 10
-21.9136146322
 20
-9.7471924688
 10
-21.8848733545
 20
-9.7480179005
 10
-21.8518959666
 20
-9.7487850091
 10
-21.7746715443
 20
-9.7501124526
  0
LWPOLYLINE
  5
26A
100
AcDbEntity
  8
0
100
AcDbPolyline
 62
7
  6
CONTINUOUS
 90
3
 70
0
 43
0.3500000006
 10
0.7017083709
 20
33.0546685181
 10
0.630279808
 20
32.8403840332
 10
0.4874226469
 20
32.5546683655
  0
LINE
  5
26B
100
AcDbEntity
  8
RACCORDO
100
AcDbLine
 62
250
  6
CONTINUOUS
 10
-22.0908085677
 20
-21.9798541315
 11
-22.0230244453
 21
-21.8441928636
  0
LINE
  5
26C
100
AcDbEntity
  8
RACCORDO
100
AcDbLine
 62
250
  6
CONTINUOUS
 10
-21.5913224041
 20
-22.4798543667
 11
-21.5231957829
 21
-22.3435076309
  0
LINE
  5
26D
100
AcDbEntity
  8
RACCORDO
100
AcDbLine
 62
250
  6
CONTINUOUS
 10
21.4311472287
 20
-9.7480179003
 11
21.3613057194
 21
-9.7494856672
  0
LINE
  5
26E
100
AcDbEntity
  8
RACCORDO
100
AcDbLine
 62
250
  6
CONTINUOUS
 10
21.3613057194
 20
-9.7494856672
 11
21.2775165342
 21
-9.7506587238
  0
LINE
  5
26F
100
AcDbEntity
  8
RACCORDO
100
AcDbLine
 62
250
  6
CONTINUOUS
 10
21.2775165342
 20
-9.7506587238
 11
21.183321063
 21
-9.7514874902
  0
LINE
  5
270
100
AcDbEntity
  8
RACCORDO
100
AcDbLine
 62
250
  6
CONTINUOUS
 10
21.183321063
 20
-9.7514874902
 11
21.0313041052
 21
-9.7520128285
  0
LINE
  5
271
100
AcDbEntity
  8
RACCORDO
100
AcDbLine
 62
250
  6
CONTINUOUS
 10
-21.5872785452
 20
-9.7517612052
 11
21.0313041052
 21
-9.7520128289
  0
LINE
  5
272
100
AcDbEntity
  8
RACCORDO
100
AcDbLine
 62
250
  6
CONTINUOUS
 10
-21.6852052925
 20
-9.7511186944
 11
-21.5872785452
 21
-9.7517612052
  0
LINE
  5
273
100
AcDbEntity
  8
RACCORDO
100
AcDbLine
 62
250
  6
CONTINUOUS
 10
-21.7746715443
 20
-9.7501124526
 11
-21.6852052925
 21
-9.7511186944
  0
LINE
  5
274
100
AcDbEntity
  8
RACCORDO
100
AcDbLine
 62
250
  6
CONTINUOUS
 10
-22.0230244453
 20
21.3401672057
 11
-22.0908085677
 21
21.4758284736
  0
LINE
  5
275
100
AcDbEntity
  8
RACCORDO
100
AcDbLine
 62
250
  6
CONTINUOUS
 10
-21.5231957829
 20
21.8394819731
 11
-21.5913224041
 21
21.9758287088
  0
LWPOLYLINE
  5
276
100
AcDbEntity
  8
0
100
AcDbPolyline
 62
7
  6
CONTINUOUS
 90
2
 70
0
 43
0.3500000006
 10
-3.5125772638
 20
32.7689528503
 10
-3.5125772638
 20
34.2689533081
  0
LWPOLYLINE
  5
277
100
AcDbEntity
  8
0
100
AcDbPolyline
 62
7
  6
CONTINUOUS
 90
2
 70
0
 43
0.3500000006
 10
30.9413921127
 20
-3.53772686
 10
29.441391655
 20
-3.53772686
  0
LWPOLYLINE
  5
278
100
AcDbEntity
  8
0
100
AcDbPolyline
 62
7
  6
CONTINUOUS
 90
2
 70
0
 43
0.3500000006
 10
30.9413921127
 20
-1.180583931
 10
29.441391655
 20
-1.180583931
  0
LWPOLYLINE
  5
279
100
AcDbEntity
  8
0
100
AcDbPolyline
 62
7
  6
CONTINUOUS
 90
4
 70
0
 43
0.3500000006
 10
1.701708322
 20
33.1975263519
 10
1.701708322
 20
34.0546688232
 10
2.1302798409
 20
34.483237793
 10
2.7731368361
 20
34.483237793
  0
LINE
  5
27A
100
AcDbEntity
  8
RACCORDO
100
AcDbLine
 62
250
  6
CONTINUOUS
 10
21.1375962856
 20
21.9758287088
 11
21.0694696644
 21
21.8394819731
  0
LINE
  5
27B
100
AcDbEntity
  8
RACCORDO
100
AcDbLine
 62
250
  6
CONTINUOUS
 10
21.6370824493
 20
21.4758284736
 11
21.5692983269
 21
21.3401672057
  0
LINE
  5
27C
100
AcDbEntity
  8
RACCORDO
100
AcDbLine
 62
250
  6
CONTINUOUS
 10
-21.8848733421
 20
9.2439922422
 11
-21.8150318328
 21
9.2454600091
  0
LINE
  5
27D
100
AcDbEntity
  8
RACCORDO
100
AcDbLine
 62
250
  6
CONTINUOUS
 10
-21.8150318328
 20
9.2454600091
 11
-21.7312426484
 21
9.2466330656
  0
LINE
  5
27E
100
AcDbEntity
  8
RACCORDO
100
AcDbLine
 62
250
  6
CONTINUOUS
 10
-21.7312426484
 20
9.2466330656
 11
-21.6370471787
 21
9.247461832
  0
LINE
  5
27F
100
AcDbEntity
  8
RACCORDO
100
AcDbLine
 62
250
  6
CONTINUOUS
 10
-21.6370471787
 20
9.247461832
 11
-21.4850302236
 21
9.2479871703
  0
LINE
  5
280
100
AcDbEntity
  8
RACCORDO
100
AcDbLine
 62
250
  6
CONTINUOUS
 10
21.1335524268
 20
9.2477355473
 11
-21.4850302236
 21
9.2479871711
  0
LINE
  5
281
100
AcDbEntity
  8
RACCORDO
100
AcDbLine
 62
250
  6
CONTINUOUS
 10
21.2314791741
 20
9.2470930366
 11
21.1335524268
 21
9.2477355473
  0
LINE
  5
282
100
AcDbEntity
  8
RACCORDO
100
AcDbLine
 62
250
  6
CONTINUOUS
 10
21.320945426
 20
9.2460867947
 11
21.2314791741
 21
9.2470930366
  0
LINE
  5
283
100
AcDbEntity
  8
RACCORDO
100
AcDbLine
 62
250
  6
CONTINUOUS
 10
21.0694696644
 20
-22.3435076309
 11
21.1375962856
 21
-22.4798543667
  0
LINE
  5
284
100
AcDbEntity
  8
RACCORDO
100
AcDbLine
 62
250
  6
CONTINUOUS
 10
21.5692983269
 20
-21.8441928636
 11
21.6370824493
 21
-21.9798541315
  0
LWPOLYLINE
  5
285
100
AcDbEntity
  8
0
100
AcDbPolyline
 62
7
  6
CONTINUOUS
 90
10
 70
0
 43
0.3500000006
 10
30.4413919601
 20
0.8194166794
 10
30.584249794
 20
0.8908433304
 10
30.655676445
 20
0.8908433304
 10
30.7985342789
 20
0.7479877625
 10
30.7985342789
 20
0.6765588455
 10
30.7271053619
 20
0.6051299286
 10
30.655676445
 20
0.6051299286
 10
30.5128208771
 20
0.6765588455
 10
30.4413919601
 20
0.7479877625
 10
30.4413919601
 20
0.8194166794
  0
LWPOLYLINE
  5
286
100
AcDbEntity
  8
0
100
AcDbPolyline
 62
7
  6
CONTINUOUS
 90
3
 70
0
 43
0.3500000006
 10
30.655676445
 20
0.8908433304
 10
30.8699631958
 20
0.8194166794
 10
31.1556765976
 20
0.6765588455
  0
LWPOLYLINE
  5
287
100
AcDbEntity
  8
RACCORDO
100
AcDbPolyline
 62
250
  6
CONTINUOUS
 90
7
 70
0
 10
-21.9848588861
 20
9.2384871711
 10
-21.980866024
 20
9.2394640377
 10
-21.9716200645
 20
9.240430555
 10
-21.9572189632
 20
9.2413764833
 10
-21.9378152915
 20
9.2422918009
 10
-21.9136146204
 20
9.2431668106
 10
-21.8848733421
 20
9.2439922422
  0
LWPOLYLINE
  5
288
100
AcDbEntity
  8
RACCORDO
100
AcDbPolyline
 62
250
  6
CONTINUOUS
 90
9
 70
0
 10
21.5311327677
 20
9.2384871711
 10
21.5271399091
 20
9.2394640378
 10
21.5178939525
 20
9.2404305551
 10
21.5034928536
 20
9.2413764834
 10
21.4840891837
 20
9.2422918011
 10
21.4598885138
 20
9.2431668109
 10
21.4311472362
 20
9.2439922426
 10
21.3981698483
 20
9.2447593512
 10
21.320945426
 20
9.2460867947
  0
LWPOLYLINE
  5
289
100
AcDbEntity
  8
RACCORDO
100
AcDbPolyline
 62
250
  6
CONTINUOUS
 90
12
 70
0
 10
21.5692983269
 20
21.3401672057
 10
21.5683040058
 20
21.3367080173
 10
21.5673286258
 20
21.3304710934
 10
21.5663721867
 20
21.321456434
 10
21.5654288054
 20
21.3095800752
 10
21.5645043651
 20
21.294925981
 10
21.5636165153
 20
21.277746043
 10
21.5627664408
 20
21.2579982048
 10
21.5619529566
 20
21.2357245228
 10
21.5611901579
 20
21.211303059
 10
21.5604788574
 20
21.1846905718
 10
21.5592199689
 20
21.1255300378
  0
LWPOLYLINE
  5
28A
100
AcDbEntity
  8
0
100
AcDbPolyline
 62
7
  6
CONTINUOUS
 90
10
 70
0
 43
0.3500000006
 10
0.630279808
 20
33.2689530029
 10
0.7017083709
 20
33.1260951691
 10
0.7017083709
 20
33.0546685181
 10
0.5588512098
 20
32.9118106842
 10
0.4874226469
 20
32.9118106842
 10
0.415994084
 20
32.9832373352
 10
0.415994084
 20
33.0546685181
 10
0.4874226469
 20
33.1975263519
 10
0.5588512098
 20
33.2689530029
 10
0.630279808
 20
33.2689530029
  0
LWPOLYLINE
  5
28B
100
AcDbEntity
  8
RACCORDO
100
AcDbPolyline
 62
250
  6
CONTINUOUS
 90
7
 70
0
 10
21.0694696644
 20
21.8394819731
 10
21.0684693811
 20
21.8326218245
 10
21.067489979
 20
21.8200317215
 10
21.0665314582
 20
21.8017846338
 10
21.065588589
 20
21.7779860678
 10
21.064666601
 20
21.748773818
 10
21.0629328909
 20
21.6748170347
  0
LWPOLYLINE
  5
28C
100
AcDbEntity
  8
RACCORDO
100
AcDbPolyline
 62
250
  6
CONTINUOUS
 90
6
 70
0
 10
21.0646663021
 20
-22.2527986916
 10
21.0655883306
 20
-22.282011388
 10
21.0665312459
 20
-22.3058102121
 10
21.067489832
 20
-22.3240573859
 10
21.0684693048
 20
-22.3366474988
 10
21.0694696644
 20
-22.3435076309
  0
LINE
  5
28D
100
AcDbEntity
  8
RACCORDO
100
AcDbLine
 62
250
  6
CONTINUOUS
 10
21.0629323332
 20
-22.1788410434
 11
21.0646663021
 21
-22.2527986916
  0
LINE
  5
28E
100
AcDbEntity
  8
RACCORDO
100
AcDbLine
 62
250
  6
CONTINUOUS
 10
21.0613591849
 20
-22.0856471748
 11
21.0629323332
 21
-22.1788410434
  0
LINE
  5
28F
100
AcDbEntity
  8
RACCORDO
100
AcDbLine
 62
250
  6
CONTINUOUS
 10
21.0593941526
 20
-21.9145957754
 11
21.0613591849
 21
-22.0856471748
  0
LINE
  5
290
100
AcDbEntity
  8
RACCORDO
100
AcDbLine
 62
250
  6
CONTINUOUS
 10
21.0613600342
 20
21.5816236895
 11
21.0593941753
 21
21.4105719598
  0
LINE
  5
291
100
AcDbEntity
  8
RACCORDO
100
AcDbLine
 62
250
  6
CONTINUOUS
 10
21.0629328909
 20
21.6748170347
 11
21.0613600342
 21
21.5816236895
  0
LINE
  5
292
100
AcDbEntity
  8
0
100
AcDbLine
 62
7
  6
CONTINUOUS
 10
21.6731369408
 20
4.3004803692
 11
21.6693772219
 21
4.2879189331
  0
LINE
  5
293
100
AcDbEntity
  8
0
100
AcDbLine
 62
7
  6
CONTINUOUS
 10
21.6731369408
 20
-4.8045060271
 11
21.6693772219
 21
-4.791944591
  0
LWPOLYLINE
  5
294
100
AcDbEntity
  8
RACCORDO
100
AcDbPolyline
 62
250
  6
CONTINUOUS
 90
16
 70
0
 10
21.5692983269
 20
21.3401672057
 10
21.5664936023
 20
21.392313245
 10
21.5582530871
 20
21.4438891795
 10
21.5446668437
 20
21.49433093
 10
21.5258833993
 20
21.5430868151
 10
21.5021081283
 20
21.5896235727
 10
21.473601011
 20
21.6334321948
 10
21.4406737769
 20
21.6740335191
 10
21.4036865115
 20
21.7109834432
 10
21.3630437347
 20
21.7438777801
 10
21.3191899307
 20
21.7723567217
 10
21.272604719
 20
21.796108741
 10
21.2237976408
 20
21.8148739956
 10
21.1733025221
 20
21.8284472073
 10
21.1216716275
 20
21.8366798927
 10
21.0694696645
 20
21.8394819732
  0
LWPOLYLINE
  5
295
100
AcDbEntity
  8
RACCORDO
100
AcDbPolyline
 62
250
  6
CONTINUOUS
 90
10
 70
0
 10
21.5611863554
 20
-21.7151970366
 10
21.5619492517
 20
-21.7396370305
 10
21.5627631895
 20
-21.7619415835
 10
21.563613804
 20
-21.7817169193
 10
21.5645022568
 20
-21.7989160372
 10
21.5654273862
 20
-21.813585938
 10
21.5663713429
 20
-21.8254738484
 10
21.567328177
 20
-21.8344955106
 10
21.5683038384
 20
-21.8407351823
 10
21.5692983269
 20
-21.8441928636
  0
LINE
  5
296
100
AcDbEntity
  8
RACCORDO
100
AcDbLine
 62
250
  6
CONTINUOUS
 10
21.5598157839
 20
-21.6598405535
 11
21.5611863554
 21
-21.7151970366
  0
LINE
  5
297
100
AcDbEntity
  8
RACCORDO
100
AcDbLine
 62
250
  6
CONTINUOUS
 10
21.5586840202
 20
-21.5973903537
 11
21.5598157839
 21
-21.6598405535
  0
LINE
  5
298
100
AcDbEntity
  8
RACCORDO
100
AcDbLine
 62
250
  6
CONTINUOUS
 10
21.5578105609
 20
-21.5289916714
 11
21.5586840202
 21
-21.5973903537
  0
LINE
  5
299
100
AcDbEntity
  8
RACCORDO
100
AcDbLine
 62
250
  6
CONTINUOUS
 10
21.5570376824
 20
-21.4196132943
 11
21.5578105609
 21
-21.5289916714
  0
LINE
  5
29A
100
AcDbEntity
  8
RACCORDO
100
AcDbLine
 62
250
  6
CONTINUOUS
 10
21.0576573793
 20
-21.6423816836
 11
21.0593941526
 21
-21.9145957754
  0
LINE
  5
29B
100
AcDbEntity
  8
DRAFT
100
AcDbLine
 62
7
  6
CONTINUOUS
 10
21.6370824493
 20
20.3479871711
 11
21.6731369408
 21
7.2479871711
  0
LINE
  5
29C
100
AcDbEntity
  8
RACCORDO
100
AcDbLine
 62
250
  6
CONTINUOUS
 10
21.040748908
 20
-16.2920864532
 11
21.05720902
 21
-21.4943484925
  0
LINE
  5
29D
100
AcDbEntity
  8
RACCORDO
100
AcDbLine
 62
250
  6
CONTINUOUS
 10
21.5405776581
 20
-16.2463731813
 11
21.5570376824
 21
-21.4196132943
  0
LINE
  5
29E
100
AcDbEntity
  8
RACCORDO
100
AcDbLine
 62
250
  6
CONTINUOUS
 10
21.05720902
 20
-21.4943484925
 11
21.0576573793
 21
-21.6423816836
  0
LINE
  5
29F
100
AcDbEntity
  8
RACCORDO
100
AcDbLine
 62
250
  6
CONTINUOUS
 10
21.0322013863
 20
-11.0618617035
 11
21.040748908
 21
-16.2920864532
  0
LINE
  5
2A0
100
AcDbEntity
  8
RACCORDO
100
AcDbLine
 62
250
  6
CONTINUOUS
 10
21.532030022
 20
-11.0455314408
 11
21.5405776581
 21
-16.2463731813
  0
LINE
  5
2A1
100
AcDbEntity
  8
RACCORDO
100
AcDbLine
 62
250
  6
CONTINUOUS
 10
21.0289721123
 20
0.8035535873
 11
21.0322013863
 21
-11.0618617035
  0
LINE
  5
2A2
100
AcDbEntity
  8
RACCORDO
100
AcDbLine
 62
250
  6
CONTINUOUS
 10
21.5288007751
 20
0.8025102477
 11
21.532030022
 21
-11.0455314408
  0
LINE
  5
2A3
100
AcDbEntity
  8
RACCORDO
100
AcDbLine
 62
7
  6
CONTINUOUS
 10
21.6370824493
 20
21.4758284736
 11
21.6370824493
 21
20.3479871711
  0
LINE
  5
2A4
100
AcDbEntity
  8
RACCORDO
100
AcDbLine
 62
7
  6
CONTINUOUS
 10
21.6370824493
 20
-20.8520128289
 11
21.6370824493
 21
-21.9798541315
  0
LINE
  5
2A5
100
AcDbEntity
  8
0
100
AcDbLine
 62
7
  6
CONTINUOUS
 10
21.6574253878
 20
-4.2938472419
 11
21.6574253878
 21
3.789821584
  0
LINE
  5
2A6
100
AcDbEntity
  8
0
100
AcDbLine
 62
7
  6
CONTINUOUS
 10
21.6731369408
 20
-7.7520128289
 11
21.6731369408
 21
-4.8045060271
  0
LINE
  5
2A7
100
AcDbEntity
  8
0
100
AcDbLine
 62
7
  6
CONTINUOUS
 10
21.6731369408
 20
4.3004803692
 11
21.6731369408
 21
7.2479871711
  0
LINE
  5
2A8
100
AcDbEntity
  8
RACCORDO
100
AcDbLine
 62
250
  6
CONTINUOUS
 10
21.0354831011
 20
13.1753373243
 11
21.0289721123
 21
0.8035535873
  0
LINE
  5
2A9
100
AcDbEntity
  8
RACCORDO
100
AcDbLine
 62
250
  6
CONTINUOUS
 10
21.5353116912
 20
13.1439746616
 11
21.5288007751
 21
0.8025102477
  0
LINE
  5
2AA
100
AcDbEntity
  8
DRAFT
100
AcDbLine
 62
7
  6
CONTINUOUS
 10
21.6731369408
 20
-7.7520128289
 11
21.6370824493
 21
-20.8520128289
  0
LINE
  5
2AB
100
AcDbEntity
  8
RACCORDO
100
AcDbLine
 62
250
  6
CONTINUOUS
 10
21.0479914912
 20
18.3937922976
 11
21.0354831011
 21
13.1753373243
  0
LINE
  5
2AC
100
AcDbEntity
  8
RACCORDO
100
AcDbLine
 62
250
  6
CONTINUOUS
 10
21.5478201975
 20
18.3331339451
 11
21.5353116912
 21
13.1439746616
  0
LINE
  5
2AD
100
AcDbEntity
  8
RACCORDO
100
AcDbLine
 62
250
  6
CONTINUOUS
 10
21.0583884134
 20
21.2795249416
 11
21.0479914912
 21
18.3937922976
  0
LINE
  5
2AE
100
AcDbEntity
  8
RACCORDO
100
AcDbLine
 62
250
  6
CONTINUOUS
 10
21.5574824711
 20
20.989513518
 11
21.5478201975
 21
18.3331339451
  0
LINE
  5
2AF
100
AcDbEntity
  8
RACCORDO
100
AcDbLine
 62
250
  6
CONTINUOUS
 10
21.0593941753
 20
21.4105719598
 11
21.0583884134
 21
21.2795249416
  0
LINE
  5
2B0
100
AcDbEntity
  8
RACCORDO
100
AcDbLine
 62
250
  6
CONTINUOUS
 10
21.5582126727
 20
21.059712227
 11
21.5574824711
 21
20.989513518
  0
LINE
  5
2B1
100
AcDbEntity
  8
RACCORDO
100
AcDbLine
 62
250
  6
CONTINUOUS
 10
21.5592199689
 20
21.1255300378
 11
21.5582126727
 21
21.059712227
  0
LWPOLYLINE
  5
2B2
100
AcDbEntity
  8
RACCORDO
100
AcDbPolyline
 62
250
  6
CONTINUOUS
 90
16
 70
0
 10
21.5692983269
 20
-21.8441928636
 10
21.5664934679
 20
-21.8963401635
 10
21.5582525979
 20
-21.9479171219
 10
21.5446658486
 20
-21.9983596353
 10
21.5258818198
 20
-22.0471160076
 10
21.5021059548
 20
-22.0936529844
 10
21.4735982932
 20
-22.137461585
 10
21.4406706267
 20
-22.1780626692
 10
21.4036830893
 20
-22.2150121782
 10
21.3630402184
 20
-22.2479059903
 10
21.31918653
 20
-22.2763843421
 10
21.2726016573
 20
-22.3001357622
 10
21.2237951049
 20
-22.3189004784
 10
21.173300676
 20
-22.3324732586
 10
21.1216706344
 20
-22.3407056557
 10
21.0694696644
 20
-22.3435076309
  0
LINE
  5
2B3
100
AcDbEntity
  8
RACCORDO
100
AcDbLine
 62
250
  6
CONTINUOUS
 10
21.05720902
 20
20.9903228346
 11
-21.5109351384
 21
20.9903228346
  0
LINE
  5
2B4
100
AcDbEntity
  8
RACCORDO
100
AcDbLine
 62
250
  6
CONTINUOUS
 10
21.0694696644
 20
21.8394819731
 11
-21.5231957829
 21
21.8394819731
  0
LINE
  5
2B5
100
AcDbEntity
  8
RACCORDO
100
AcDbLine
 62
7
  6
CONTINUOUS
 10
-21.5913224041
 20
21.9758287088
 11
21.1375962856
 21
21.9758287088
  0
LWPOLYLINE
  5
2B6
100
AcDbEntity
  8
0
100
AcDbPolyline
 62
7
  6
CONTINUOUS
 90
3
 70
0
 43
0.3500000006
 10
30.2985341263
 20
-0.6805837784
 10
30.2985341263
 20
-2.1805842361
 10
27.9413911972
 20
-1.5377273827
  0
LWPOLYLINE
  5
2B7
100
AcDbEntity
  8
0
100
AcDbPolyline
 62
7
  6
CONTINUOUS
 90
3
 70
0
 43
0.3500000006
 10
30.2985341263
 20
-3.0377267075
 10
30.2985341263
 20
-4.5377271652
 10
27.9413911972
 20
-3.8948703117
  0
LWPOLYLINE
  5
2B8
100
AcDbEntity
  8
0
100
AcDbPolyline
 62
7
  6
CONTINUOUS
 90
8
 70
0
 43
0.3500000006
 10
30.9413921127
 20
1.8908436356
 10
30.9413921127
 20
2.7479861069
 10
30.5128208771
 20
3.1765596085
 10
29.6556784058
 20
3.1765596085
 10
29.2271049042
 20
2.7479861069
 10
29.2271049042
 20
1.8908436356
 10
27.9413911972
 20
1.8908436356
 10
27.9413911972
 20
3.1765596085
  0
LWPOLYLINE
  5
2B9
100
AcDbEntity
  8
RACCORDO
100
AcDbPolyline
 62
250
  6
CONTINUOUS
 90
16
 70
0
 10
21.5570376823
 20
-21.4196132943
 10
21.5530572629
 20
-21.4272992585
 10
21.5438218189
 20
-21.4349037464
 10
21.529429228
 20
-21.4423461653
 10
21.5100320237
 20
-21.4495476399
 10
21.4858357786
 20
-21.4564318488
 10
21.4570969261
 20
-21.4629258325
 10
21.4241200421
 20
-21.4689607676
 10
21.3872546174
 20
-21.4744726953
 10
21.3468913541
 20
-21.4794032001
 10
21.3034580242
 20
-21.483700028
 10
21.2574149368
 20
-21.487317641
 10
21.2092500591
 20
-21.4902176997
 10
21.1594738452
 20
-21.492369469
 10
21.1086138264
 20
-21.4937501443
 10
21.05720902
 20
-21.4943450931
  0
LWPOLYLINE
  5
2BA
100
AcDbEntity
  8
0
100
AcDbPolyline
 62
7
  6
CONTINUOUS
 90
6
 70
0
 43
0.3500000006
 10
-2.1554344983
 20
32.7689528503
 10
-1.0840059135
 20
32.7689528503
 10
-0.8697202249
 20
32.9832373352
 10
-0.8697202249
 20
34.0546688232
 10
-1.2982916021
 20
34.483237793
 10
-1.726863121
 20
34.483237793
  0
LWPOLYLINE
  5
2BB
100
AcDbEntity
  8
0
100
AcDbPolyline
 62
7
  6
CONTINUOUS
 90
3
 70
0
 43
0.3500000006
 10
-3.0125773945
 20
33.4118108368
 10
-4.5125772858
 20
33.4118108368
 10
-3.869720149
 20
35.7689537659
  0
LWPOLYLINE
  5
2BC
100
AcDbEntity
  8
0
100
AcDbPolyline
 62
7
  6
CONTINUOUS
 90
13
 70
0
 43
0.3500000006
 10
2.1302798409
 20
34.483237793
 10
1.8445654478
 20
34.6975268097
 10
1.8445654478
 20
35.3403802643
 10
2.1302798409
 20
35.7689537659
 10
2.7731368361
 20
35.7689537659
 10
3.0588510876
 20
35.3403802643
 10
3.0588510876
 20
34.6975268097
 10
2.7731368361
 20
34.483237793
 10
3.2017083549
 20
34.0546688232
 10
3.2017083549
 20
33.1975263519
 10
2.7731368361
 20
32.7689528503
 10
2.1302798409
 20
32.7689528503
 10
1.701708322
 20
33.1975263519
  0
LWPOLYLINE
  5
2BD
100
AcDbEntity
  8
RACCORDO
100
AcDbPolyline
 62
250
  6
CONTINUOUS
 90
16
 70
0
 10
21.5570376824
 20
20.9155876364
 10
21.553058463
 20
20.9232738897
 10
21.5438240342
 20
20.9308786809
 10
21.5294322661
 20
20.9383214115
 10
21.5100356885
 20
20.9455232004
 10
21.4858398739
 20
20.9524077203
 10
21.4571012593
 20
20.9589020062
 10
21.4241244279
 20
20.9649372292
 10
21.3872588812
 20
20.9704494255
 10
21.3468953349
 20
20.9753801747
 10
21.303461578
 20
20.9796772188
 10
21.2574179386
 20
20.9832950159
 10
21.2092524056
 20
20.9861952236
 10
21.1594754563
 20
20.9883471042
 10
21.1086146468
 20
20.9897278513
 10
21.05720902
 20
20.9903228312
  0
LWPOLYLINE
  5
2BE
100
AcDbEntity
  8
0
100
AcDbPolyline
 62
7
  6
CONTINUOUS
 90
10
 70
0
 43
0.3500000006
 10
-46.9336316528
 20
35.7258285828
 10
-47.5764896393
 20
35.0829705963
 10
-48.005058609
 20
34.225828125
 10
-48.005058609
 20
33.1544011688
 10
-47.5764896393
 20
32.7258276672
 10
-46.9336316528
 20
32.7258276672
 10
-46.5050581512
 20
33.1544011688
 10
-46.5050581512
 20
34.0115436401
 10
-46.9336316528
 20
34.4401126099
 10
-47.8622007751
 20
34.4401126099
  0
LINE
  5
2BF
100
AcDbEntity
  8
RACCORDO
100
AcDbLine
 62
7
  6
CONTINUOUS
 10
-47.8050038786
 20
-22.3435076309
 11
-45.2033531775
 21
-22.4798543667
  0
LINE
  5
2C0
100
AcDbEntity
  8
RACCORDO
100
AcDbLine
 62
250
  6
CONTINUOUS
 10
-47.7919243747
 20
-21.8441928636
 11
-45.2033531775
 21
-21.9798541315
  0
LWPOLYLINE
  5
2C1
100
AcDbEntity
  8
RACCORDO
100
AcDbPolyline
 62
250
  6
CONTINUOUS
 90
4
 70
0
 10
-48.7180898535
 20
-21.4902176997
 10
-48.7310206218
 20
-21.492369469
 10
-48.738822116
 20
-21.4937501443
 10
-48.7414116557
 20
-21.4943450931
  0
LINE
  5
2C2
100
AcDbEntity
  8
RACCORDO
100
AcDbLine
 62
250
  6
CONTINUOUS
 10
-48.6501548418
 20
-21.4794032001
 11
-48.7180898535
 21
-21.4902176997
  0
LWPOLYLINE
  5
2C3
100
AcDbEntity
  8
RACCORDO
100
AcDbPolyline
 62
250
  6
CONTINUOUS
 90
3
 70
0
 10
-48.2601394972
 20
-21.4196132943
 10
-48.3108789662
 20
-21.4272992585
 10
-48.6501548418
 20
-21.4794032001
  0
LINE
  5
2C4
100
AcDbEntity
  8
RACCORDO
100
AcDbLine
 62
250
  6
CONTINUOUS
 10
-49.7335818831
 20
-9.7519369382
 11
-49.7362295266
 21
-9.7520128285
  0
LINE
  5
2C5
100
AcDbEntity
  8
RACCORDO
100
AcDbLine
 62
250
  6
CONTINUOUS
 10
-49.2494082813
 20
-9.7425128289
 11
-49.7335818831
 21
-9.7519369382
  0
LWPOLYLINE
  5
2C6
100
AcDbEntity
  8
RACCORDO
100
AcDbPolyline
 62
250
  6
CONTINUOUS
 90
10
 70
0
 10
-48.2601394972
 20
20.9155876364
 10
-48.4455703772
 20
19.6253712866
 10
-48.6121410474
 20
18.3331339451
 10
-48.7598515078
 20
17.0388756118
 10
-48.8887255208
 20
15.742314717
 10
-48.998739324
 20
14.4437328304
 10
-49.0898216303
 20
13.1439746616
 10
-49.1619486774
 20
11.8433217803
 10
-49.2151442278
 20
10.5414926168
 10
-49.2494082813
 20
9.2384871711
  0
LWPOLYLINE
  5
2C7
100
AcDbEntity
  8
RACCORDO
100
AcDbPolyline
 62
250
  6
CONTINUOUS
 90
19
 70
0
 10
-48.2601394972
 20
-21.4196132943
 10
-48.2529948862
 20
-21.4570629604
 10
-48.2431565408
 20
-21.4935224195
 10
-48.2306244611
 20
-21.5289916714
 10
-48.2152932948
 20
-21.5636861161
 10
-48.1972683942
 20
-21.5973903537
 10
-48.1768658156
 20
-21.6294581846
 10
-48.1540480841
 20
-21.6598405535
 10
-48.1288526746
 20
-21.6885865155
 10
-48.1017080681
 20
-21.7151970366
 10
-48.0725742347
 20
-21.7396370305
 10
-48.0414912044
 20
-21.7619415835
 10
-48.0090075471
 20
-21.7817169193
 10
-47.9750789049
 20
-21.7989160372
 10
-47.9397496358
 20
-21.813585938
 10
-47.9037013838
 20
-21.8254738484
 10
-47.8671613636
 20
-21.8344955106
 10
-47.8299023606
 20
-21.8407351823
 10
-47.7919243747
 20
-21.8441928636
  0
LINE
  5
2C8
100
AcDbEntity
  8
0
100
AcDbLine
 62
7
  6
CONTINUOUS
 10
-43.8264876955
 20
-4.8045060271
 11
-43.9700655669
 21
-4.791944591
  0
LWPOLYLINE
  5
2C9
100
AcDbEntity
  8
RACCORDO
100
AcDbPolyline
 62
250
  6
CONTINUOUS
 90
10
 70
0
 10
-49.2494082813
 20
-9.7425128289
 10
-49.2151435216
 20
-11.0455314408
 10
-49.1619473401
 20
-12.3473704703
 10
-49.0898197367
 20
-13.6480299175
 10
-48.9987368136
 20
-14.9477913406
 10
-48.8887224686
 20
-16.2463731813
 10
-48.7598483951
 20
-17.5429307645
 10
-48.612138491
 20
-18.8371825319
 10
-48.4455688583
 20
-20.1294100418
 10
-48.2601394972
 20
-21.4196132943
  0
LWPOLYLINE
  5
2CA
100
AcDbEntity
  8
RACCORDO
100
AcDbPolyline
 62
250
  6
CONTINUOUS
 90
10
 70
0
 10
-49.2494082813
 20
9.2384871711
 10
-49.2850303682
 20
7.1295244207
 10
-49.3117469312
 20
5.020542806
 10
-49.3295579703
 20
2.911542327
 10
-49.3384634825
 20
0.8025102477
 10
-49.3384634707
 20
-1.306540696
 10
-49.3295579438
 20
-3.4155722963
 10
-49.3117469048
 20
-5.5245718173
 10
-49.2850303506
 20
-7.6335519948
 10
-49.2494082813
 20
-9.7425128289
  0
LINE
  5
2CB
100
AcDbEntity
  8
RACCORDO
100
AcDbLine
 62
250
  6
CONTINUOUS
 10
-47.7919243747
 20
21.3401672057
 11
-47.7970709723
 21
21.4438891795
  0
LINE
  5
2CC
100
AcDbEntity
  8
RACCORDO
100
AcDbLine
 62
250
  6
CONTINUOUS
 10
-47.7970709723
 20
21.4438891795
 11
-47.801422062
 21
21.5430868151
  0
LWPOLYLINE
  5
2CD
100
AcDbEntity
  8
RACCORDO
100
AcDbPolyline
 62
250
  6
CONTINUOUS
 90
11
 70
0
 10
-47.801422062
 20
21.5430868151
 10
-47.8047877952
 20
21.6334321948
 10
-47.8060533893
 20
21.6740335191
 10
-47.8070213068
 20
21.7109834432
 10
-47.8076809578
 20
21.7438777801
 10
-47.808025125
 20
21.7723567217
 10
-47.8080500411
 20
21.796108741
 10
-47.8077554312
 20
21.8148739956
 10
-47.8071445161
 20
21.8284472073
 10
-47.8062239754
 20
21.8366798927
 10
-47.8050038758
 20
21.8394819732
  0
LWPOLYLINE
  5
2CE
100
AcDbEntity
  8
RACCORDO
100
AcDbPolyline
 62
250
  6
CONTINUOUS
 90
9
 70
0
 10
-47.8060535141
 20
-22.1780626692
 10
-47.8070214029
 20
-22.2150121782
 10
-47.8076810233
 20
-22.2479059903
 10
-47.8080251609
 20
-22.2763843421
 10
-47.808050052
 20
-22.3001357622
 10
-47.8077554245
 20
-22.3189004784
 10
-47.807144501
 20
-22.3324732586
 10
-47.806223963
 20
-22.3407056557
 10
-47.8050038786
 20
-22.3435076309
  0
LINE
  5
2CF
100
AcDbEntity
  8
RACCORDO
100
AcDbLine
 62
250
  6
CONTINUOUS
 10
-47.803238531
 20
-22.0936529844
 11
-47.8060535141
 21
-22.1780626692
  0
LINE
  5
2D0
100
AcDbEntity
  8
RACCORDO
100
AcDbLine
 62
250
  6
CONTINUOUS
 10
-47.7993588885
 20
-21.9983596353
 11
-47.803238531
 21
-22.0936529844
  0
LWPOLYLINE
  5
2D1
100
AcDbEntity
  8
RACCORDO
100
AcDbPolyline
 62
250
  6
CONTINUOUS
 90
3
 70
0
 10
-47.7919243747
 20
-21.8441928636
 10
-47.794583851
 20
-21.8963401635
 10
-47.7993588885
 20
-21.9983596353
  0
LINE
  5
2D2
100
AcDbEntity
  8
RACCORDO
100
AcDbLine
 62
7
  6
CONTINUOUS
 10
-45.2033531775
 20
21.9758287088
 11
-45.2033531775
 21
20.3479871711
  0
LINE
  5
2D3
100
AcDbEntity
  8
RACCORDO
100
AcDbLine
 62
7
  6
CONTINUOUS
 10
-45.2033531775
 20
-20.8520128289
 11
-45.2033531775
 21
-22.4798543667
  0
LINE
  5
2D4
100
AcDbEntity
  8
0
100
AcDbLine
 62
7
  6
CONTINUOUS
 10
-44.4264876955
 20
-4.2938472419
 11
-44.4264876955
 21
3.789821584
  0
LINE
  5
2D5
100
AcDbEntity
  8
0
100
AcDbLine
 62
7
  6
CONTINUOUS
 10
-43.8264876955
 20
-7.7520128289
 11
-43.8264876955
 21
-4.8045060271
  0
LINE
  5
2D6
100
AcDbEntity
  8
0
100
AcDbLine
 62
7
  6
CONTINUOUS
 10
-43.8264876955
 20
4.3004803692
 11
-43.8264876955
 21
7.2479871711
  0
LINE
  5
2D7
100
AcDbEntity
  8
DRAFT
100
AcDbLine
 62
7
  6
CONTINUOUS
 10
-45.2033531775
 20
20.3479871711
 11
-43.8264876955
 21
7.2479871711
  0
LINE
  5
2D8
100
AcDbEntity
  8
DRAFT
100
AcDbLine
 62
7
  6
CONTINUOUS
 10
-43.8264876955
 20
-7.7520128289
 11
-45.2033531775
 21
-20.8520128289
  0
LINE
  5
2D9
100
AcDbEntity
  8
0
100
AcDbLine
 62
7
  6
CONTINUOUS
 10
-43.8264876955
 20
4.3004803692
 11
-43.9700655669
 21
4.2879189331
  0
LWPOLYLINE
  5
2DA
100
AcDbEntity
  8
RACCORDO
100
AcDbPolyline
 62
250
  6
CONTINUOUS
 90
3
 70
0
 10
-49.2494082813
 20
9.2384871711
 10
-49.7335819048
 20
9.2479112807
 10
-49.7362295485
 20
9.247987171
  0
LWPOLYLINE
  5
2DB
100
AcDbEntity
  8
RACCORDO
100
AcDbPolyline
 62
250
  6
CONTINUOUS
 90
19
 70
0
 10
-47.7919243747
 20
21.3401672057
 10
-47.8298959646
 20
21.3367080173
 10
-47.8671442273
 20
21.3304710934
 10
-47.9036691628
 20
21.321456434
 10
-47.9396954394
 20
21.3095800752
 10
-47.9749983887
 20
21.294925981
 10
-48.0089040057
 20
21.277746043
 10
-48.0413670434
 20
21.2579982048
 10
-48.0724327487
 20
21.2357245228
 10
-48.1015628573
 20
21.211303059
 10
-48.128726327
 20
21.1846905718
 10
-48.1539542
 20
21.1559303028
 10
-48.1768013384
 20
21.1255300378
 10
-48.197225251
 20
21.0934411304
 10
-48.2152684292
 20
21.059712227
 10
-48.2306132092
 20
21.0249970534
 10
-48.2431537033
 20
20.989513518
 10
-48.2529957993
 20
20.9530437124
 10
-48.2601394972
 20
20.9155876364
  0
LINE
  5
2DC
100
AcDbEntity
  8
RACCORDO
100
AcDbLine
 62
250
  6
CONTINUOUS
 10
-45.2033531775
 20
21.4758284736
 11
-47.7919243747
 21
21.3401672057
  0
LINE
  5
2DD
100
AcDbEntity
  8
RACCORDO
100
AcDbLine
 62
7
  6
CONTINUOUS
 10
-45.2033531775
 20
21.9758287088
 11
-47.8050038786
 21
21.8394819731
  0
LINE
  5
2DE
100
AcDbEntity
  8
RACCORDO
100
AcDbLine
 62
250
  6
CONTINUOUS
 10
-48.2601394972
 20
20.9155876364
 11
-48.6186115924
 21
20.9704494255
  0
LWPOLYLINE
  5
2DF
100
AcDbEntity
  8
RACCORDO
100
AcDbPolyline
 62
250
  6
CONTINUOUS
 90
6
 70
0
 10
-48.6186115924
 20
20.9704494255
 10
-48.7001868518
 20
20.9832950159
 10
-48.7181108455
 20
20.9861952236
 10
-48.7310423597
 20
20.9883471042
 10
-48.7388443412
 20
20.9897278513
 10
-48.7414341015
 20
20.9903228312
  0
ARC
  5
2E0
100
AcDbEntity
  8
RACCORDO
100
AcDbCircle
 62
7
  6
CONTINUOUS
 10
450.1735123045
 20
-0.2520128289
 40
500.0
100
AcDbArc
 50
178.91131468
 51
181.08868532
  0
ARC
  5
2E1
100
AcDbEntity
  8
RACCORDO
100
AcDbCircle
 62
7
  6
CONTINUOUS
 10
40.2475239847
 20
-8.0420128289
 40
90.0
100
AcDbArc
 50
181.08868532
 51
188.5962365037
  0
ARC
  5
2E2
100
AcDbEntity
  8
RACCORDO
100
AcDbCircle
 62
7
  6
CONTINUOUS
 10
40.2475239847
 20
7.5379871711
 40
90.0
100
AcDbArc
 50
171.4037634963
 51
178.91131468
  0
ARC
  5
2E3
100
AcDbEntity
  8
RACCORDO
100
AcDbCircle
 62
7
  6
CONTINUOUS
 10
-47.7526679224
 20
-21.3448780962
 40
1.0
100
AcDbArc
 50
188.5962365037
 51
267.0
  0
ARC
  5
2E4
100
AcDbEntity
  8
RACCORDO
100
AcDbCircle
 62
7
  6
CONTINUOUS
 10
-47.7526679224
 20
20.8408524383
 40
1.0
100
AcDbArc
 50
93.0
 51
171.4037634963
  0
ARC
  5
2E5
100
AcDbEntity
  8
0
100
AcDbCircle
 62
7
  6
CONTINUOUS
 10
-43.9264876955
 20
3.789821584
 40
0.5
100
AcDbArc
 50
95.0
 51
180.0
  0
ARC
  5
2E6
100
AcDbEntity
  8
0
100
AcDbCircle
 62
7
  6
CONTINUOUS
 10
-43.9264876955
 20
-4.2938472419
 40
0.5
100
AcDbArc
 50
180.0
 51
265.0
  0
ELLIPSE
  5
2E7
100
AcDbEntity
  8
0
100
AcDbEllipse
 62
7
  6
CONTINUOUS
 10
-22.1242444671
 20
-4.2938472419
 30
0.0
 11
0.0
 21
0.5
 31
0.0
 40
0.0261859216
 41
-3.054326191
 42
-1.5707963268
  0
ELLIPSE
  5
2E8
100
AcDbEntity
  8
0
100
AcDbEllipse
 62
7
  6
CONTINUOUS
 10
-22.1242444671
 20
3.789821584
 30
0.0
 11
-0.0
 21
0.5
 31
0.0
 40
0.0261859216
 41
-1.5707963268
 42
-0.0872664626
  0
ELLIPSE
  5
2E9
100
AcDbEntity
  8
0
100
AcDbEllipse
 62
7
  6
CONTINUOUS
 10
21.6705183486
 20
3.789821584
 30
0.0
 11
-0.0
 21
0.5
 31
0.0
 40
0.0261859216
 41
0.0872664626
 42
1.5707963268
  0
ELLIPSE
  5
2EA
100
AcDbEntity
  8
0
100
AcDbEllipse
 62
7
  6
CONTINUOUS
 10
21.6705183486
 20
-4.2938472419
 30
0.0
 11
-0.0
 21
0.5
 31
0.0
 40
0.0261859216
 41
-4.7123889804
 42
-3.2288591162
  0
ELLIPSE
  5
2EB
100
AcDbEntity
  8
RACCORDO
100
AcDbEllipse
 62
7
  6
CONTINUOUS
 10
21.136911053
 20
21.4751425358
 30
0.0
 11
0.2238673116
 21
0.4480418466
 31
0.0
 40
0.9982882662
 41
-1.1067376861
 42
0.4626886447
  0
ELLIPSE
  5
2EC
100
AcDbEntity
  8
RACCORDO
100
AcDbEllipse
 62
7
  6
CONTINUOUS
 10
21.136911053
 20
-21.9791681937
 30
0.0
 11
-0.2238673116
 21
0.4480418466
 31
0.0
 40
0.9982882662
 41
-3.6042812983
 42
-2.0348549675
  0
ELLIPSE
  5
2ED
100
AcDbEntity
  8
RACCORDO
100
AcDbEllipse
 62
7
  6
CONTINUOUS
 10
-21.5906371714
 20
-21.9791681937
 30
0.0
 11
0.2238673116
 21
0.4480418466
 31
0.0
 40
0.9982882662
 41
-4.2483303396
 42
-2.6789040089
  0
ELLIPSE
  5
2EE
100
AcDbEntity
  8
RACCORDO
100
AcDbEllipse
 62
7
  6
CONTINUOUS
 10
-21.5906371714
 20
21.4751425358
 30
0.0
 11
-0.2238673116
 21
0.4480418466
 31
0.0
 40
0.9982882662
 41
-0.4626886447
 42
1.1067376861
  0
ENDSEC
  0
SECTION
  2
OBJECTS
  0
DICTIONARY
  5
C
100
AcDbDictionary
280
0
281
1
  3
ACAD_GROUP
350
D
  3
ACAD_MLINESTYLE
350
17
  3
ACAD_LAYOUT
350
1A
  3
ACAD_PLOTSETTINGS
350
19
  3
ACAD_PLOTSTYLENAME
350
E
  0
DICTIONARY
  5
D
102
{ACAD_REACTORS
330
C
102
}
100
AcDbDictionary
280
0
281
1
  0
ACDBDICTIONARYWDFLT
  5
E
102
{ACAD_REACTORS
330
C
102
}
100
AcDbDictionary
281
1
  3
Normal
350
F
100
AcDbDictionaryWithDefault
340
F
  0
DICTIONARY
  5
17
102
{ACAD_REACTORS
330
C
102
}
100
AcDbDictionary
280
0
281
1
  3
Standard
350
18
  0
DICTIONARY
  5
19
102
{ACAD_REACTORS
330
C
102
}
100
AcDbDictionary
281
1
  0
DICTIONARY
  5
1A
102
{ACAD_REACTORS
330
C
102
}
100
AcDbDictionary
281
1
  3
Model
350
2EF
  3
Layout1
350
2F0
  0
ACDBPLACEHOLDER
  5
F
102
{ACAD_REACTORS
330
E
102
}
  0
MLINESTYLE
  5
18
102
{ACAD_REACTORS
330
17
102
}
100
AcDbMlineStyle
  2
STANDARD
 70
0
  3

 62
256
 51
90.0
 52
90.0
 71
2
 49
0.5
 62
256
  6
BYLAYER
 49
-0.5
 62
256
  6
BYLAYER
  0
LAYOUT
  5
2EF
102
{ACAD_REACTORS
330
1A
102
}
100
AcDbPlotSettings
  1

  2
none_device
  4
ISO_A4_(297.00_x_210.00_MM)
  6

 40
0.0
 41
0.0
 42
0.0
 43
0.0
 44
297.0
 45
210.0
 46
0.0
 47
0.0
 48
0.0
 49
0.0
140
0.0
141
0.0
142
1.0
143
1.0
 70
1024
 72
1
 73
0
 74
0
  7

 75
0
147
1.0
148
0.0
149
0.0
100
AcDbLayout
  1
Model
 70
0
 71
0
 10
0.0
 20
0.0
 11
297.0
 21
210.0
 12
0.0
 22
0.0
 32
0.0
 14
0.0
 24
0.0
 34
0.0
 15
0.0
 25
0.0
 35
0.0
146
0.0
 13
0.0
 23
0.0
 33
0.0
 16
1.0
 26
0.0
 36
0.0
 17
0.0
 27
1.0
 37
0.0
 76
0
330
215
345
0
346
0
  0
LAYOUT
  5
2F0
102
{ACAD_REACTORS
330
1A
102
}
100
AcDbPlotSettings
  1

  2
none_device
  4
ISO_A4_(297.00_x_210.00_MM)
  6

 40
0.0
 41
0.0
 42
0.0
 43
0.0
 44
297.0
 45
210.0
 46
0.0
 47
0.0
 48
0.0
 49
0.0
140
0.0
141
0.0
142
1.0
143
1.0
 70
0
 72
1
 73
0
 74
0
  7

 75
0
147
1.0
148
0.0
149
0.0
100
AcDbLayout
  1
Layout1
 70
0
 71
1
 10
0.0
 20
0.0
 11
297.0
 21
210.0
 12
0.0
 22
0.0
 32
0.0
 14
0.0
 24
0.0
 34
0.0
 15
0.0
 25
0.0
 35
0.0
146
0.0
 13
0.0
 23
0.0
 33
0.0
 16
1.0
 26
0.0
 36
0.0
 17
0.0
 27
1.0
 37
0.0
 76
0
330
216
345
0
346
0
  0
ENDSEC
  0
EOF
