0
SECTION
2
HEADER
9
$ACADVER
1
AC1014
9
$HANDSEED
5
       3B2
9
$EXTMAX
10
297.0000000000
20
210.0000000000
9
$EXTMIN
10
0.0000000000
20
0.0000000000
9
$LIMMIN
10
0.0000000000
20
0.0000000000
9
$LIMMAX
10
297.0000000000
20
210.0000000000
9
$VIEWCTR
10
148.5000000000
20
105.0000000000
9
$VIEWSIZE
40
210.0000000000
9
$CLAYER
8
0
9
$LTSCALE
40
16.3350000000
9
$CELTYPE
6
BYLAYER
9
$DIMSCALE
40
1
9
$DIMASZ
40
3.0000000000
9
$DIMEXO
40
1.8562500000
9
$DIMDLI
40
11.2860000000
9
$DIMEXE
40
5.3460000000
9
$DIMCEN
40
2.6730000000
9
$DIMLFAC
40
1.0000000000
9
$DIMTXT
40
3.0000000000
9
$DIMTOL
70
1
9
$DIMLIM
70
0
9
$DIMTFAC
40
1.0000000000
9
$DIMTP
40
0.0100000000
9
$DIMTM
40
0.0100000000
9
$MEASUREMENT
70
1
0
ENDSEC
0
SECTION
2
CLASSES
0
ENDSEC
0
SECTION
2
TABLES
0
TABLE
2
VPORT
5
8
100
AcDbSymbolTable
70
2
0
VPORT
5
1F4
100
AcDbSymbolTableRecord
100
AcDbViewportTableRecord
2
*ACTIVE
70
0
10
0.0
20
0.0
11
1.0
21
1.0
12
148.5000000000
22
105.0000000000
13
0.0
23
0.0
14
1.0
24
1.0
15
0.0
25
0.0
16
0.0
26
0.0
36
1.0
17
0.0
27
0.0
37
0.0
40
210.0000000000
41
1.4142857143
42
50.0
43
0.0
44
0.0
50
0.0
51
0.0
71
0
72
100
73
1
74
1
75
0
76
0
77
0
78
0
0
ENDTAB
0
TABLE
2
LTYPE
5
5
100
AcDbSymbolTable
70
6
0
LTYPE
5
14
100
AcDbSymbolTableRecord
100
AcDbLinetypeTableRecord
2
BYBLOCK
70
0
3

72
65
73
0
40
0.0
0
LTYPE
5
15
100
AcDbSymbolTableRecord
100
AcDbLinetypeTableRecord
2
BYLAYER
70
0
3

72
65
73
0
40
0.0
0
LTYPE
5
16
100
AcDbSymbolTableRecord
100
AcDbLinetypeTableRecord
2
CONTINUOUS
70
64
3
Solid line
72
65
73
0
40
0
0
LTYPE
5
1F5
100
AcDbSymbolTableRecord
100
AcDbLinetypeTableRecord
2
CENTER
70
64
3
____ _ ____ _ ____ _ ____ _ ____ _ ____ _ ____
72
65
73
4
40
0.6
49
0.375
74
0
49
-0.075
74
0
49
0.075
74
0
49
-0.075
74
0
0
LTYPE
5
1F6
100
AcDbSymbolTableRecord
100
AcDbLinetypeTableRecord
2
HIDDEN
70
64
3
- - - - - - - - - - - - - - - - - - - -
72
65
73
2
40
0.2
49
0.1
74
0
49
-0.1
74
0
0
LTYPE
5
1F7
100
AcDbSymbolTableRecord
100
AcDbLinetypeTableRecord
2
PHANTOM
70
64
3
_____ _ _ _____ _ _ _____ _ _ _____
72
65
73
6
40
0.8
49
0.45
74
0
49
-0.05
74
0
49
0.1
74
0
49
-0.05
74
0
49
0.1
74
0
49
-0.05
74
0
0
LTYPE
5
1F8
100
AcDbSymbolTableRecord
100
AcDbLinetypeTableRecord
2
DOT
70
64
3
. . . . . . . . . . . . . . . . . . . .
72
65
73
2
40
0.2
49
0.1
74
0
49
-0.1
74
0
0
LTYPE
5
1F9
100
AcDbSymbolTableRecord
100
AcDbLinetypeTableRecord
2
DASHED
70
64
3
- - - - - - - - - - - - - - - - - - - -
72
65
73
2
40
0.2
49
0.1
74
0
49
-0.1
74
0
0
ENDTAB
0
TABLE
2
LAYER
5
2
100
AcDbSymbolTable
70
36
0
LAYER
5
10
100
AcDbSymbolTableRecord
100
AcDbLayerTableRecord
2
0
70
0
62
7
6
CONTINUOUS
0
LAYER
5
1FA
100
AcDbSymbolTableRecord
100
AcDbLayerTableRecord
2
DEFAULT_1
70
0
62
7
6
CENTER
0
LAYER
5
1FB
100
AcDbSymbolTableRecord
100
AcDbLayerTableRecord
2
DEFAULT_2
70
0
62
8
6
HIDDEN
0
LAYER
5
1FC
100
AcDbSymbolTableRecord
100
AcDbLayerTableRecord
2
DEFAULT_3
70
0
62
7
6
PHANTOM
0
LAYER
5
1FD
100
AcDbSymbolTableRecord
100
AcDbLayerTableRecord
2
ASSI
70
0
62
7
6
CONTINUOUS
0
LAYER
5
1FE
100
AcDbSymbolTableRecord
100
AcDbLayerTableRecord
2
COLOR5
70
0
62
7
6
CONTINUOUS
0
LAYER
5
1FF
100
AcDbSymbolTableRecord
100
AcDbLayerTableRecord
2
COORDINATE
70
0
62
7
6
CONTINUOUS
0
LAYER
5
200
100
AcDbSymbolTableRecord
100
AcDbLayerTableRecord
2
COORD_ORIGINE
70
0
62
7
6
CONTINUOUS
0
LAYER
5
201
100
AcDbSymbolTableRecord
100
AcDbLayerTableRecord
2
COSMETICI
70
0
62
7
6
CONTINUOUS
0
LAYER
5
202
100
AcDbSymbolTableRecord
100
AcDbLayerTableRecord
2
CURVE
70
0
62
7
6
CONTINUOUS
0
LAYER
5
203
100
AcDbSymbolTableRecord
100
AcDbLayerTableRecord
2
DRAFT
70
0
62
7
6
CONTINUOUS
0
LAYER
5
204
100
AcDbSymbolTableRecord
100
AcDbLayerTableRecord
2
IGES
70
0
62
7
6
CONTINUOUS
0
LAYER
5
205
100
AcDbSymbolTableRecord
100
AcDbLayerTableRecord
2
NOTE
70
0
62
7
6
CONTINUOUS
0
LAYER
5
206
100
AcDbSymbolTableRecord
100
AcDbLayerTableRecord
2
PIANI
70
0
62
7
6
CONTINUOUS
0
LAYER
5
207
100
AcDbSymbolTableRecord
100
AcDbLayerTableRecord
2
PIANI_ORIGINE
70
0
62
7
6
CONTINUOUS
0
LAYER
5
208
100
AcDbSymbolTableRecord
100
AcDbLayerTableRecord
2
PIANI_SFORMI
70
0
62
7
6
CONTINUOUS
0
LAYER
5
209
100
AcDbSymbolTableRecord
100
AcDbLayerTableRecord
2
PUNTI
70
0
62
7
6
CONTINUOUS
0
LAYER
5
20A
100
AcDbSymbolTableRecord
100
AcDbLayerTableRecord
2
RACCORDO
70
0
62
7
6
CONTINUOUS
0
LAYER
5
20B
100
AcDbSymbolTableRecord
100
AcDbLayerTableRecord
2
SNAPLINE
70
0
62
7
6
CONTINUOUS
0
LAYER
5
20C
100
AcDbSymbolTableRecord
100
AcDbLayerTableRecord
2
SUPERFICI
70
0
62
7
6
CONTINUOUS
0
LAYER
5
20D
100
AcDbSymbolTableRecord
100
AcDbLayerTableRecord
2
TRASH
70
0
62
7
6
CONTINUOUS
0
ENDTAB
0
TABLE
2
STYLE
5
3
100
AcDbSymbolTable
70
1
0
STYLE
5
11
100
AcDbSymbolTableRecord
100
AcDbTextStyleTableRecord
2
STANDARD
70
0
40
0.0
41
0.8000000000
50
0.0
71
0
42
0.2
3
txt
4

0
ENDTAB
0
TABLE
2
VIEW
5
6
100
AcDbSymbolTable
70
0
0
ENDTAB
0
TABLE
2
UCS
5
7
100
AcDbSymbolTable
70
0
0
ENDTAB
0
TABLE
2
APPID
5
9
100
AcDbSymbolTable
70
1
0
APPID
5
20E
100
AcDbSymbolTableRecord
100
AcDbRegAppTableRecord
2
ACAD
70
0
0
ENDTAB
0
TABLE
2
DIMSTYLE
5
A
100
AcDbSymbolTable
70
1
0
DIMSTYLE
105
20F
100
AcDbSymbolTableRecord
100
AcDbDimStyleTableRecord
2
STANDARD
70
0
3

4

5

6

7

40
1.0
41
3.0000000000
42
0.0625
43
0.38
44
0.18
45
0.0
46
0.0
47
0.0100000000
48
0.0100000000
140
3.0000000000
141
0.09
142
0.0
143
25.4
144
1.0000000000
145
0.0
146
1.0000000000
147
0.09
71
1
72
0
73
0
74
0
75
0
76
0
77
1
78
8
170
0
171
2
172
0
173
0
174
0
175
0
176
0
177
0
178
0
270
2
271
2
272
2
273
2
274
2
340
11
275
0
280
0
281
0
282
0
283
1
284
8
285
0
286
0
287
3
288
0
0
DIMSTYLE
105
210
100
AcDbSymbolTableRecord
100
AcDbDimStyleTableRecord
2
DIMSTYLE_1
70
0
3

4

5

6

7

40
1.0
41
3.0000000000
42
0.0625
43
0.38
44
0.18
45
0.0
46
0.0
47
0.0000000000
48
0.0000000000
140
3.0000000000
141
0.09
142
0.0
143
25.4
144
1.0000000000
145
0.0
146
1.0000000000
147
0.09
71
0
72
0
73
0
74
0
75
0
76
0
77
1
78
8
170
0
171
2
172
0
173
0
174
0
175
0
176
0
177
0
178
0
270
2
271
2
272
2
273
2
274
2
340
11
275
0
280
0
281
0
282
0
283
1
284
8
285
0
286
0
287
3
288
0
0
ENDTAB
0
TABLE
2
BLOCK_RECORD
5
1
100
AcDbSymbolTable
70
0
0
BLOCK_RECORD
5
1B
100
AcDbSymbolTableRecord
100
AcDbBlockTableRecord
2
*MODEL_SPACE
0
BLOCK_RECORD
5
1C
100
AcDbSymbolTableRecord
100
AcDbBlockTableRecord
2
*PAPER_SPACE
0
BLOCK_RECORD
5
211
100
AcDbSymbolTableRecord
100
AcDbBlockTableRecord
2
*D0
0
BLOCK_RECORD
5
212
100
AcDbSymbolTableRecord
100
AcDbBlockTableRecord
2
*D1
0
BLOCK_RECORD
5
213
100
AcDbSymbolTableRecord
100
AcDbBlockTableRecord
2
*D2
0
BLOCK_RECORD
5
214
100
AcDbSymbolTableRecord
100
AcDbBlockTableRecord
2
*D3
0
ENDTAB
0
ENDSEC
0
SECTION
2
BLOCKS
0
BLOCK
5
1E
100
AcDbEntity
8
0
100
AcDbBlockBegin
2
*MODEL_SPACE
70
0
10
0.0
20
0.0
30
0.0
3
*MODEL_SPACE
1

0
ENDBLK
5
1F
100
AcDbEntity
8
0
100
AcDbBlockEnd
0
BLOCK
5
20
100
AcDbEntity
8
0
100
AcDbBlockBegin
2
*PAPER_SPACE
70
0
10
0.0
20
0.0
30
0.0
3
*PAPER_SPACE
1

0
ENDBLK
5
21
100
AcDbEntity
8
0
100
AcDbBlockEnd
0
BLOCK
5
215
100
AcDbEntity
8
0
100
AcDbBlockBegin
62
7
6
CONTINUOUS
2
*D0
70
65
10
0.0000000000
20
0.0000000000
3
*D0
1

0
TEXT
5
216
100
AcDbEntity
8
0
100
AcDbText
62
7
6
CONTINUOUS
10
-33.1386431969
20
51.0854425825
7
STANDARD
40
3.0000000000
1
20,5
41
0.7142857143
72
0
100
AcDbText
0
LINE
5
217
100
AcDbEntity
8
0
100
AcDbLine
62
7
6
CONTINUOUS
10
-20.2391480530
20
25.8354425825
11
-20.2391480530
21
51.8354425825
0
LINE
5
218
100
AcDbEntity
8
0
100
AcDbLine
62
7
6
CONTINUOUS
10
-40.7391480530
20
7.3354425825
11
-40.7391480530
21
51.8354425825
0
LINE
5
219
100
AcDbEntity
8
0
100
AcDbLine
62
7
6
CONTINUOUS
10
-20.2391480530
20
50.3354425825
11
-30.4891480530
21
50.3354425825
0
LINE
5
21A
100
AcDbEntity
8
0
100
AcDbLine
62
7
6
CONTINUOUS
10
-40.7391480530
20
50.3354425825
11
-30.4891480530
21
50.3354425825
0
SOLID
5
21B
100
AcDbEntity
8
0
100
AcDbTrace
62
7
6
CONTINUOUS
10
-23.2391480530
20
49.9354425825
11
-20.2391480530
21
50.3354425825
12
-23.2391480530
22
50.7354425825
13
-23.2391480530
23
50.7354425825
0
SOLID
5
21C
100
AcDbEntity
8
0
100
AcDbTrace
62
7
6
CONTINUOUS
10
-37.7391480530
20
50.7354425825
11
-40.7391480530
21
50.3354425825
12
-37.7391480530
22
49.9354425825
13
-37.7391480530
23
49.9354425825
0
ENDBLK
5
21D
100
AcDbEntity
8
0
100
AcDbBlockEnd
0
BLOCK
5
21E
100
AcDbEntity
8
0
100
AcDbBlockBegin
62
7
6
CONTINUOUS
2
*D1
70
65
10
0.0000000000
20
0.0000000000
3
*D1
1

0
TEXT
5
21F
100
AcDbEntity
8
0
100
AcDbText
62
7
6
CONTINUOUS
10
-29.5473133798
20
41.0854425825
7
STANDARD
40
3.0000000000
1
10,5
41
0.6607142857
72
0
100
AcDbText
0
LINE
5
220
100
AcDbEntity
8
0
100
AcDbLine
62
7
6
CONTINUOUS
10
-20.2391480530
20
28.3663455994
11
-20.2391480530
21
41.8354425825
0
LINE
5
221
100
AcDbEntity
8
0
100
AcDbLine
62
7
6
CONTINUOUS
10
-30.7391480530
20
31.8354425825
11
-30.7391480530
21
41.8354425825
0
LINE
5
222
100
AcDbEntity
8
0
100
AcDbLine
62
7
6
CONTINUOUS
10
-20.2391480530
20
40.3354425825
11
-25.4891480530
21
40.3354425825
0
LINE
5
223
100
AcDbEntity
8
0
100
AcDbLine
62
7
6
CONTINUOUS
10
-30.7391480530
20
40.3354425825
11
-25.4891480530
21
40.3354425825
0
SOLID
5
224
100
AcDbEntity
8
0
100
AcDbTrace
62
7
6
CONTINUOUS
10
-23.2391480530
20
39.9354425825
11
-20.2391480530
21
40.3354425825
12
-23.2391480530
22
40.7354425825
13
-23.2391480530
23
40.7354425825
0
SOLID
5
225
100
AcDbEntity
8
0
100
AcDbTrace
62
7
6
CONTINUOUS
10
-27.7391480530
20
40.7354425825
11
-30.7391480530
21
40.3354425825
12
-27.7391480530
22
39.9354425825
13
-27.7391480530
23
39.9354425825
0
ENDBLK
5
226
100
AcDbEntity
8
0
100
AcDbBlockEnd
0
BLOCK
5
227
100
AcDbEntity
8
0
100
AcDbBlockBegin
62
7
6
CONTINUOUS
2
*D2
70
65
10
0.0000000000
20
0.0000000000
3
*D2
1

0
TEXT
5
228
100
AcDbEntity
8
0
100
AcDbText
62
7
6
CONTINUOUS
10
1.8627318838
20
41.0854425825
7
STANDARD
40
3.0000000000
1
24,8
41
0.7321428571
72
0
100
AcDbText
0
LINE
5
229
100
AcDbEntity
8
0
100
AcDbLine
62
7
6
CONTINUOUS
10
-6.9731220498
20
31.0854425825
11
-6.9731220498
21
41.8354425825
0
LINE
5
22A
100
AcDbEntity
8
0
100
AcDbLine
62
7
6
CONTINUOUS
10
17.8268779502
20
31.0854425825
11
17.8268779502
21
41.8354425825
0
LINE
5
22B
100
AcDbEntity
8
0
100
AcDbLine
62
7
6
CONTINUOUS
10
-6.9731220498
20
40.3354425825
11
5.4268779502
21
40.3354425825
0
LINE
5
22C
100
AcDbEntity
8
0
100
AcDbLine
62
7
6
CONTINUOUS
10
17.8268779502
20
40.3354425825
11
5.4268779502
21
40.3354425825
0
SOLID
5
22D
100
AcDbEntity
8
0
100
AcDbTrace
62
7
6
CONTINUOUS
10
-3.9731220498
20
40.7354425825
11
-6.9731220498
21
40.3354425825
12
-3.9731220498
22
39.9354425825
13
-3.9731220498
23
39.9354425825
0
SOLID
5
22E
100
AcDbEntity
8
0
100
AcDbTrace
62
7
6
CONTINUOUS
10
14.8268779502
20
39.9354425825
11
17.8268779502
21
40.3354425825
12
14.8268779502
22
40.7354425825
13
14.8268779502
23
40.7354425825
0
ENDBLK
5
22F
100
AcDbEntity
8
0
100
AcDbBlockEnd
0
BLOCK
5
230
100
AcDbEntity
8
0
100
AcDbBlockBegin
62
7
6
CONTINUOUS
2
*D3
70
65
10
0.0000000000
20
0.0000000000
3
*D3
1

0
TEXT
5
231
100
AcDbEntity
8
0
100
AcDbText
62
7
6
CONTINUOUS
10
25.0768779502
20
7.0699633680
7
STANDARD
40
3.0000000000
1
51
50
90.0000000000
41
0.6428571429
72
0
100
AcDbText
0
LINE
5
232
100
AcDbEntity
8
0
100
AcDbLine
62
7
6
CONTINUOUS
10
11.9268779502
20
32.3354425825
11
27.3268779502
21
32.3354425825
0
LINE
5
233
100
AcDbEntity
8
0
100
AcDbLine
62
7
6
CONTINUOUS
10
11.9268779502
20
-18.6645574175
11
27.3268779502
21
-18.6645574175
0
LINE
5
234
100
AcDbEntity
8
0
100
AcDbLine
62
7
6
CONTINUOUS
10
25.8268779502
20
32.3354425825
11
25.8268779502
21
6.8354425825
0
LINE
5
235
100
AcDbEntity
8
0
100
AcDbLine
62
7
6
CONTINUOUS
10
25.8268779502
20
-18.6645574175
11
25.8268779502
21
6.8354425825
0
SOLID
5
236
100
AcDbEntity
8
0
100
AcDbTrace
62
7
6
CONTINUOUS
10
26.2268779502
20
29.3354425825
11
25.8268779502
21
32.3354425825
12
25.4268779502
22
29.3354425825
13
25.4268779502
23
29.3354425825
0
SOLID
5
237
100
AcDbEntity
8
0
100
AcDbTrace
62
7
6
CONTINUOUS
10
25.4268779502
20
-15.6645574175
11
25.8268779502
21
-18.6645574175
12
26.2268779502
22
-15.6645574175
13
26.2268779502
23
-15.6645574175
0
ENDBLK
5
238
100
AcDbEntity
8
0
100
AcDbBlockEnd
0
ENDSEC
0
SECTION
2
ENTITIES
0
DIMENSION
5
239
100
AcDbEntity
8
0
100
AcDbDimension
62
7
6
CONTINUOUS
2
*D0
10
-40.7391480530
20
50.3354425825
11
-28.8529289112
21
52.5854425825
70
160
3
DIMSTYLE_1
100
AcDbAlignedDimension
13
-20.2391480530
23
25.8354425825
14
-40.7391480530
24
7.3354425825
50
180.000000
100
AcDbRotatedDimension
0
DIMENSION
5
23A
100
AcDbEntity
8
0
100
AcDbDimension
62
7
6
CONTINUOUS
2
*D1
10
-30.7391480530
20
40.3354425825
11
-25.5830276655
21
42.5854425825
70
160
3
DIMSTYLE_1
100
AcDbAlignedDimension
13
-20.2391480530
23
28.3663455994
14
-30.7391480530
24
31.8354425825
50
180.000000
100
AcDbRotatedDimension
0
DIMENSION
5
23B
100
AcDbEntity
8
0
100
AcDbDimension
62
7
6
CONTINUOUS
2
*D2
10
17.8268779502
20
40.3354425825
11
6.2555890267
21
42.5854425825
70
160
3
DIMSTYLE_1
100
AcDbAlignedDimension
13
-6.9731220498
23
31.0854425825
14
17.8268779502
24
31.0854425825
100
AcDbRotatedDimension
0
DIMENSION
5
23C
100
AcDbEntity
8
0
100
AcDbDimension
62
7
6
CONTINUOUS
2
*D3
10
25.8268779502
20
-18.6645574175
11
23.5768779502
21
8.9985347965
70
160
3
DIMSTYLE_1
100
AcDbAlignedDimension
13
11.9268779502
23
32.3354425825
14
11.9268779502
24
-18.6645574175
50
270.000000
100
AcDbRotatedDimension
0
LINE
5
23D
100
AcDbEntity
8
0
100
AcDbLine
62
7
6
CONTINUOUS
10
-0.5731220498
20
-18.6645574175
11
11.4268779502
21
-18.6645574175
0
LINE
5
23E
100
AcDbEntity
8
0
100
AcDbLine
62
9
6
CONTINUOUS
10
-0.5731220498
20
-17.9645574175
11
11.4268779502
21
-17.9645574175
0
LINE
5
23F
100
AcDbEntity
8
0
100
AcDbLine
62
7
6
CONTINUOUS
10
-0.5731220498
20
-17.6645574175
11
1.4936117154
21
-17.6645574175
0
LINE
5
240
100
AcDbEntity
8
0
100
AcDbLine
62
7
6
CONTINUOUS
10
9.3601441850
20
-17.6645574175
11
11.4268779502
21
-17.6645574175
0
LINE
5
241
100
AcDbEntity
8
0
100
AcDbLine
62
7
6
CONTINUOUS
10
9.7268779502
20
-17.5229668774
11
9.1689595651
21
-17.5229668774
0
LINE
5
242
100
AcDbEntity
8
0
100
AcDbLine
62
7
6
CONTINUOUS
10
1.6847963353
20
-17.5229668774
11
1.1268779502
21
-17.5229668774
0
LINE
5
243
100
AcDbEntity
8
0
100
AcDbLine
62
7
6
CONTINUOUS
10
17.5768398682
20
-17.1645574175
11
16.0769160322
21
-17.1645574175
0
LINE
5
244
100
AcDbEntity
8
0
100
AcDbLine
62
7
6
CONTINUOUS
10
-5.2231601318
20
-17.1645574175
11
-6.7230839678
21
-17.1645574175
0
LINE
5
245
100
AcDbEntity
8
0
100
AcDbLine
62
7
6
CONTINUOUS
10
9.7268779502
20
-17.1425442708
11
9.1312077176
21
-17.1425442708
0
LINE
5
246
100
AcDbEntity
8
0
100
AcDbLine
62
7
6
CONTINUOUS
10
1.7225481827
20
-17.1425442708
11
1.1268779502
21
-17.1425442708
0
LINE
5
247
100
AcDbEntity
8
0
100
AcDbLine
62
9
6
CONTINUOUS
10
17.8268779502
20
-16.9145574175
11
15.8268779502
21
-16.9145574175
0
LINE
5
248
100
AcDbEntity
8
0
100
AcDbLine
62
9
6
CONTINUOUS
10
-4.9731220498
20
-16.9145574175
11
-6.9731220498
21
-16.9145574175
0
LINE
5
249
100
AcDbEntity
8
0
100
AcDbLine
62
7
6
CONTINUOUS
10
-0.5731220498
20
-16.4145574175
11
-2.7171263355
21
-16.4145574175
0
LINE
5
24A
100
AcDbEntity
8
0
100
AcDbLine
62
7
6
CONTINUOUS
10
11.4268779502
20
-16.4145574175
11
13.5708822358
21
-16.4145574175
0
LINE
5
24B
100
AcDbEntity
8
0
100
AcDbLine
62
7
6
CONTINUOUS
10
11.4268779502
20
-16.1153062660
11
9.3768779502
21
-16.1153062660
0
LINE
5
24C
100
AcDbEntity
8
0
100
AcDbLine
62
7
6
CONTINUOUS
10
-0.5731220498
20
-16.1153062660
11
1.4768779502
21
-16.1153062660
0
LINE
5
24D
100
AcDbEntity
8
0
100
AcDbLine
62
9
6
CONTINUOUS
10
11.6268779502
20
-15.8645574175
11
9.3775803956
21
-15.8645574175
0
LINE
5
24E
100
AcDbEntity
8
0
100
AcDbLine
62
9
6
CONTINUOUS
10
1.4761755048
20
-15.8645574175
11
-0.7731220498
21
-15.8645574175
0
LINE
5
24F
100
AcDbEntity
8
0
100
AcDbLine
62
7
6
CONTINUOUS
10
17.5297834651
20
-15.6645574175
11
-6.6760275647
21
-15.6645574175
0
LINE
5
250
100
AcDbEntity
8
0
100
AcDbLine
62
9
6
CONTINUOUS
10
17.7910512632
20
-15.4145574175
11
-6.9372953628
21
-15.4145574175
0
LINE
5
251
100
AcDbEntity
8
0
100
AcDbLine
62
7
6
CONTINUOUS
10
-6.8509365953
20
-11.9645574175
11
17.7046924957
21
-11.9645574175
0
LINE
5
252
100
AcDbEntity
8
0
100
AcDbLine
62
7
6
CONTINUOUS
10
-6.6016562734
20
-11.4645574175
11
17.4554121737
21
-11.4645574175
0
LINE
5
253
100
AcDbEntity
8
0
100
AcDbLine
62
9
6
CONTINUOUS
10
17.3970488922
20
-10.8749852065
11
-6.5432929918
21
-10.8749852065
0
LINE
5
254
100
AcDbEntity
8
0
100
AcDbLine
62
9
6
CONTINUOUS
10
17.3862410632
20
-9.9296246705
11
-6.5324851628
21
-9.9296246705
0
LINE
5
255
100
AcDbEntity
8
0
100
AcDbLine
62
7
6
CONTINUOUS
10
-6.9731220498
20
-16.9145574175
11
-6.9731220498
21
30.5854425825
0
LINE
5
256
100
AcDbEntity
8
0
100
AcDbLine
62
9
6
CONTINUOUS
10
-6.9372953628
20
-16.9145574175
11
-6.9372953628
21
-15.4145574175
0
LINE
5
257
100
AcDbEntity
8
0
100
AcDbLine
62
9
6
CONTINUOUS
10
-6.9372953628
20
29.0854425825
11
-6.9372953628
21
30.5854425825
0
LINE
5
258
100
AcDbEntity
8
0
100
AcDbLine
62
7
6
CONTINUOUS
10
-6.8509365953
20
-11.9645574175
11
-6.8509365953
21
-11.2114700971
0
LINE
5
259
100
AcDbEntity
8
0
100
AcDbLine
62
7
6
CONTINUOUS
10
-6.8509365953
20
24.8823552621
11
-6.8509365953
21
25.6354425825
0
LINE
5
25A
100
AcDbEntity
8
0
100
AcDbLine
62
9
6
CONTINUOUS
10
-6.8464966709
20
-15.4145574175
11
-6.8464966709
21
-11.9645574175
0
LINE
5
25B
100
AcDbEntity
8
0
100
AcDbLine
62
9
6
CONTINUOUS
10
-6.8464966709
20
25.6354425825
11
-6.8464966709
21
29.0854425825
0
LINE
5
25C
100
AcDbEntity
8
0
100
AcDbLine
62
9
6
CONTINUOUS
10
-6.5965347471
20
-15.6645574175
11
-6.5965347471
21
-11.9645574175
0
LINE
5
25D
100
AcDbEntity
8
0
100
AcDbLine
62
9
6
CONTINUOUS
10
-6.5965347471
20
25.6354425825
11
-6.5965347471
21
29.3354425825
0
LINE
5
25E
100
AcDbEntity
8
0
100
AcDbLine
62
9
6
CONTINUOUS
10
-6.7932549156
20
24.2996684332
11
-6.8509365953
21
24.8823552621
0
LINE
5
25F
100
AcDbEntity
8
0
100
AcDbLine
62
9
6
CONTINUOUS
10
-6.5432929918
20
24.5458703715
11
-6.6016562734
21
25.1354425825
0
LINE
5
260
100
AcDbEntity
8
0
100
AcDbLine
62
9
6
CONTINUOUS
10
-5.0089487368
20
30.5854425825
11
-5.0089487368
21
29.3354425825
0
LINE
5
261
100
AcDbEntity
8
0
100
AcDbLine
62
9
6
CONTINUOUS
10
-5.0089487368
20
-15.6645574175
11
-5.0089487368
21
-16.9145574175
0
LINE
5
262
100
AcDbEntity
8
0
100
AcDbLine
62
7
6
CONTINUOUS
10
-4.9731220498
20
-16.9145574175
11
-4.9731220498
21
-15.6645574175
0
LINE
5
263
100
AcDbEntity
8
0
100
AcDbLine
62
7
6
CONTINUOUS
10
-4.9731220498
20
29.3354425825
11
-4.9731220498
21
30.5854425825
0
LINE
5
264
100
AcDbEntity
8
0
100
AcDbLine
62
9
6
CONTINUOUS
10
-6.8509365953
20
-11.2114700971
11
-6.7932549156
21
-10.6287832682
0
LINE
5
265
100
AcDbEntity
8
0
100
AcDbLine
62
9
6
CONTINUOUS
10
-6.6016562734
20
-11.4645574175
11
-6.5432929918
21
-10.8749852065
0
LINE
5
266
100
AcDbEntity
8
0
100
AcDbLine
62
9
6
CONTINUOUS
10
-2.5168612940
20
30.0854425825
11
-2.5168612940
21
29.3354425825
0
LINE
5
267
100
AcDbEntity
8
0
100
AcDbLine
62
9
6
CONTINUOUS
10
-2.5168612940
20
-15.6645574175
11
-2.5168612940
21
-16.4145574175
0
LINE
5
268
100
AcDbEntity
8
0
100
AcDbLine
62
9
6
CONTINUOUS
10
-0.9358587016
20
30.0854425825
11
-0.9358587016
21
29.3354425825
0
LINE
5
269
100
AcDbEntity
8
0
100
AcDbLine
62
9
6
CONTINUOUS
10
-0.9358587016
20
-15.6645574175
11
-0.9358587016
21
-16.4145574175
0
LINE
5
26A
100
AcDbEntity
8
0
100
AcDbLine
62
7
6
CONTINUOUS
10
-0.7731220498
20
-16.4145574175
11
-0.7731220498
21
-15.8645574175
0
LINE
5
26B
100
AcDbEntity
8
0
100
AcDbLine
62
7
6
CONTINUOUS
10
-0.7731220498
20
29.5354425825
11
-0.7731220498
21
30.0854425825
0
LINE
5
26C
100
AcDbEntity
8
0
100
AcDbLine
62
7
6
CONTINUOUS
10
-0.5731220498
20
31.3354425825
11
-0.5731220498
21
29.7861914310
0
LINE
5
26D
100
AcDbEntity
8
0
100
AcDbLine
62
7
6
CONTINUOUS
10
-0.5731220498
20
-17.6645574175
11
-0.5731220498
21
-18.6645574175
0
LINE
5
26E
100
AcDbEntity
8
0
100
AcDbLine
62
7
6
CONTINUOUS
10
-0.5731220498
20
-17.6645574175
11
-0.5731220498
21
-16.1153062660
0
LINE
5
26F
100
AcDbEntity
8
0
100
AcDbLine
62
7
6
CONTINUOUS
10
-0.5731220498
20
31.3354425825
11
-0.5731220498
21
32.3354425825
0
LINE
5
270
100
AcDbEntity
8
0
100
AcDbLine
62
7
6
CONTINUOUS
10
0.9268779502
20
31.3354425825
11
0.9268779502
21
30.8752328347
0
LINE
5
271
100
AcDbEntity
8
0
100
AcDbLine
62
7
6
CONTINUOUS
10
0.9268779502
20
-17.2043476697
11
0.9268779502
21
-17.6645574175
0
LINE
5
272
100
AcDbEntity
8
0
100
AcDbLine
62
9
6
CONTINUOUS
10
1.1268779502
20
31.1938520424
11
1.1268779502
21
30.8134294358
0
LINE
5
273
100
AcDbEntity
8
0
100
AcDbLine
62
9
6
CONTINUOUS
10
1.1268779502
20
-17.5229668774
11
1.1268779502
21
-17.1425442708
0
LINE
5
274
100
AcDbEntity
8
0
100
AcDbLine
62
7
6
CONTINUOUS
10
1.4761755048
20
-16.1153062660
11
1.4761755048
21
-15.8645574175
0
LINE
5
275
100
AcDbEntity
8
0
100
AcDbLine
62
7
6
CONTINUOUS
10
1.4761755048
20
29.5354425825
11
1.4761755048
21
29.7861914310
0
LINE
5
276
100
AcDbEntity
8
0
100
AcDbLine
62
7
6
CONTINUOUS
10
1.6768779502
20
-15.6645574175
11
1.6768779502
21
-16.0535028671
0
LINE
5
277
100
AcDbEntity
8
0
100
AcDbLine
62
7
6
CONTINUOUS
10
1.6768779502
20
29.3354425825
11
1.6768779502
21
29.7243880321
0
LINE
5
278
100
AcDbEntity
8
0
100
AcDbLine
62
9
6
CONTINUOUS
10
1.8789022544
20
4.8330868699
11
1.8789022544
21
8.8377982951
0
LINE
5
279
100
AcDbEntity
8
0
100
AcDbLine
62
7
6
CONTINUOUS
10
2.4268779502
20
4.8354425825
11
2.4268779502
21
8.8354425825
0
LINE
5
27A
100
AcDbEntity
8
0
100
AcDbLine
62
9
6
CONTINUOUS
10
2.4268779502
20
4.8354425825
11
2.3788832159
21
4.8354425825
0
LINE
5
27B
100
AcDbEntity
8
0
100
AcDbLine
62
9
6
CONTINUOUS
10
8.4268779502
20
4.8354425825
11
8.4748726845
21
4.8354425825
0
LINE
5
27C
100
AcDbEntity
8
0
100
AcDbLine
62
7
6
CONTINUOUS
10
1.6928506550
20
31.1528737310
11
1.8518552772
21
29.3354425825
0
LINE
5
27D
100
AcDbEntity
8
0
100
AcDbLine
62
7
6
CONTINUOUS
10
1.8518552772
20
-15.6645574175
11
1.6928506550
21
-17.4819885661
0
LINE
5
27E
100
AcDbEntity
8
0
100
AcDbLine
62
7
6
CONTINUOUS
10
9.1609052454
20
-17.4819885661
11
9.0019006231
21
-15.6645574175
0
LINE
5
27F
100
AcDbEntity
8
0
100
AcDbLine
62
7
6
CONTINUOUS
10
9.0019006231
20
29.3354425825
11
9.1609052454
21
31.1528737310
0
LINE
5
280
100
AcDbEntity
8
0
100
AcDbLine
62
9
6
CONTINUOUS
10
2.4268779502
20
8.8354425825
11
2.3788832159
21
8.8354425825
0
LINE
5
281
100
AcDbEntity
8
0
100
AcDbLine
62
9
6
CONTINUOUS
10
8.4268779502
20
8.8354425825
11
8.4748726845
21
8.8354425825
0
LINE
5
282
100
AcDbEntity
8
0
100
AcDbLine
62
7
6
CONTINUOUS
10
8.4268779502
20
8.8354425825
11
8.4268779502
21
4.8354425825
0
LINE
5
283
100
AcDbEntity
8
0
100
AcDbLine
62
9
6
CONTINUOUS
10
8.9748536460
20
8.8377982951
11
8.9748536460
21
4.8330868699
0
LINE
5
284
100
AcDbEntity
8
0
100
AcDbLine
62
7
6
CONTINUOUS
10
9.1768779502
20
-15.6645574175
11
9.1768779502
21
-16.0535028671
0
LINE
5
285
100
AcDbEntity
8
0
100
AcDbLine
62
7
6
CONTINUOUS
10
9.1768779502
20
29.3354425825
11
9.1768779502
21
29.7243880321
0
LINE
5
286
100
AcDbEntity
8
0
100
AcDbLine
62
7
6
CONTINUOUS
10
9.3775803956
20
-16.1153062660
11
9.3775803956
21
-15.8645574175
0
LINE
5
287
100
AcDbEntity
8
0
100
AcDbLine
62
7
6
CONTINUOUS
10
9.3775803956
20
29.5354425825
11
9.3775803956
21
29.7861914310
0
LINE
5
288
100
AcDbEntity
8
0
100
AcDbLine
62
9
6
CONTINUOUS
10
9.7268779502
20
31.1938520424
11
9.7268779502
21
30.8134294358
0
LINE
5
289
100
AcDbEntity
8
0
100
AcDbLine
62
9
6
CONTINUOUS
10
9.7268779502
20
-17.5229668774
11
9.7268779502
21
-17.1425442708
0
LINE
5
28A
100
AcDbEntity
8
0
100
AcDbLine
62
7
6
CONTINUOUS
10
9.9268779502
20
-17.6645574175
11
9.9268779502
21
-17.2043476697
0
LINE
5
28B
100
AcDbEntity
8
0
100
AcDbLine
62
7
6
CONTINUOUS
10
9.9268779502
20
30.8752328347
11
9.9268779502
21
31.3354425825
0
LINE
5
28C
100
AcDbEntity
8
0
100
AcDbLine
62
7
6
CONTINUOUS
10
11.4268779502
20
31.3354425825
11
11.4268779502
21
29.7861914310
0
LINE
5
28D
100
AcDbEntity
8
0
100
AcDbLine
62
7
6
CONTINUOUS
10
11.4268779502
20
-17.6645574175
11
11.4268779502
21
-18.6645574175
0
LINE
5
28E
100
AcDbEntity
8
0
100
AcDbLine
62
7
6
CONTINUOUS
10
11.4268779502
20
-17.6645574175
11
11.4268779502
21
-16.1153062660
0
LINE
5
28F
100
AcDbEntity
8
0
100
AcDbLine
62
7
6
CONTINUOUS
10
11.4268779502
20
31.3354425825
11
11.4268779502
21
32.3354425825
0
LINE
5
290
100
AcDbEntity
8
0
100
AcDbLine
62
7
6
CONTINUOUS
10
11.6268779502
20
30.0854425825
11
11.6268779502
21
29.5354425825
0
LINE
5
291
100
AcDbEntity
8
0
100
AcDbLine
62
7
6
CONTINUOUS
10
11.6268779502
20
-15.8645574175
11
11.6268779502
21
-16.4145574175
0
LINE
5
292
100
AcDbEntity
8
0
100
AcDbLine
62
9
6
CONTINUOUS
10
11.7896146020
20
30.0854425825
11
11.7896146020
21
29.3354425825
0
LINE
5
293
100
AcDbEntity
8
0
100
AcDbLine
62
9
6
CONTINUOUS
10
11.7896146020
20
-15.6645574175
11
11.7896146020
21
-16.4145574175
0
LINE
5
294
100
AcDbEntity
8
0
100
AcDbLine
62
9
6
CONTINUOUS
10
13.3706171944
20
30.0854425825
11
13.3706171944
21
29.3354425825
0
LINE
5
295
100
AcDbEntity
8
0
100
AcDbLine
62
9
6
CONTINUOUS
10
13.3706171944
20
-15.6645574175
11
13.3706171944
21
-16.4145574175
0
LINE
5
296
100
AcDbEntity
8
0
100
AcDbLine
62
9
6
CONTINUOUS
10
17.3970488922
20
-10.8749852065
11
17.4554121737
21
-11.4645574175
0
LINE
5
297
100
AcDbEntity
8
0
100
AcDbLine
62
9
6
CONTINUOUS
10
17.6470108160
20
-10.6287832682
11
17.7046924957
21
-11.2114700971
0
LINE
5
298
100
AcDbEntity
8
0
100
AcDbLine
62
7
6
CONTINUOUS
10
15.8268779502
20
30.5854425825
11
15.8268779502
21
29.3354425825
0
LINE
5
299
100
AcDbEntity
8
0
100
AcDbLine
62
7
6
CONTINUOUS
10
15.8268779502
20
-15.6645574175
11
15.8268779502
21
-16.9145574175
0
LINE
5
29A
100
AcDbEntity
8
0
100
AcDbLine
62
9
6
CONTINUOUS
10
15.8627046372
20
30.5854425825
11
15.8627046372
21
29.3354425825
0
LINE
5
29B
100
AcDbEntity
8
0
100
AcDbLine
62
9
6
CONTINUOUS
10
15.8627046372
20
-15.6645574175
11
15.8627046372
21
-16.9145574175
0
LINE
5
29C
100
AcDbEntity
8
0
100
AcDbLine
62
9
6
CONTINUOUS
10
17.4554121737
20
25.1354425825
11
17.3970488922
21
24.5458703715
0
LINE
5
29D
100
AcDbEntity
8
0
100
AcDbLine
62
9
6
CONTINUOUS
10
17.7046924957
20
24.8823552621
11
17.6470108160
21
24.2996684332
0
LINE
5
29E
100
AcDbEntity
8
0
100
AcDbLine
62
9
6
CONTINUOUS
10
17.4502906474
20
-15.6645574175
11
17.4502906474
21
-11.9645574175
0
LINE
5
29F
100
AcDbEntity
8
0
100
AcDbLine
62
9
6
CONTINUOUS
10
17.4502906474
20
25.6354425825
11
17.4502906474
21
29.3354425825
0
LINE
5
2A0
100
AcDbEntity
8
0
100
AcDbLine
62
9
6
CONTINUOUS
10
17.7002525712
20
29.0854425825
11
17.7002525712
21
25.6354425825
0
LINE
5
2A1
100
AcDbEntity
8
0
100
AcDbLine
62
9
6
CONTINUOUS
10
17.7002525712
20
-11.9645574175
11
17.7002525712
21
-15.4145574175
0
LINE
5
2A2
100
AcDbEntity
8
0
100
AcDbLine
62
7
6
CONTINUOUS
10
17.7046924957
20
25.6354425825
11
17.7046924957
21
24.8823552621
0
LINE
5
2A3
100
AcDbEntity
8
0
100
AcDbLine
62
7
6
CONTINUOUS
10
17.7046924957
20
-11.2114700971
11
17.7046924957
21
-11.9645574175
0
LINE
5
2A4
100
AcDbEntity
8
0
100
AcDbLine
62
9
6
CONTINUOUS
10
17.7910512632
20
30.5854425825
11
17.7910512632
21
29.0854425825
0
LINE
5
2A5
100
AcDbEntity
8
0
100
AcDbLine
62
9
6
CONTINUOUS
10
17.7910512632
20
-15.4145574175
11
17.7910512632
21
-16.9145574175
0
LINE
5
2A6
100
AcDbEntity
8
0
100
AcDbLine
62
7
6
CONTINUOUS
10
17.8268779502
20
30.5854425825
11
17.8268779502
21
-16.9145574175
0
LINE
5
2A7
100
AcDbEntity
8
0
100
AcDbLine
62
9
6
CONTINUOUS
10
17.3862410632
20
23.6005098355
11
-6.5324851628
21
23.6005098355
0
LINE
5
2A8
100
AcDbEntity
8
0
100
AcDbLine
62
9
6
CONTINUOUS
10
17.3970488922
20
24.5458703715
11
-6.5432929918
21
24.5458703715
0
LINE
5
2A9
100
AcDbEntity
8
0
100
AcDbLine
62
7
6
CONTINUOUS
10
-6.6016562734
20
25.1354425825
11
17.4554121737
21
25.1354425825
0
LINE
5
2AA
100
AcDbEntity
8
0
100
AcDbLine
62
7
6
CONTINUOUS
10
-6.8509365953
20
25.6354425825
11
17.7046924957
21
25.6354425825
0
LINE
5
2AB
100
AcDbEntity
8
0
100
AcDbLine
62
9
6
CONTINUOUS
10
-6.9372953628
20
29.0854425825
11
17.7910512632
21
29.0854425825
0
LINE
5
2AC
100
AcDbEntity
8
0
100
AcDbLine
62
7
6
CONTINUOUS
10
-6.6760275647
20
29.3354425825
11
17.5297834651
21
29.3354425825
0
LINE
5
2AD
100
AcDbEntity
8
0
100
AcDbLine
62
9
6
CONTINUOUS
10
-0.7731220498
20
29.5354425825
11
1.4761755048
21
29.5354425825
0
LINE
5
2AE
100
AcDbEntity
8
0
100
AcDbLine
62
9
6
CONTINUOUS
10
9.3775803956
20
29.5354425825
11
11.6268779502
21
29.5354425825
0
LINE
5
2AF
100
AcDbEntity
8
0
100
AcDbLine
62
7
6
CONTINUOUS
10
11.4268779502
20
29.7861914310
11
9.3768779502
21
29.7861914310
0
LINE
5
2B0
100
AcDbEntity
8
0
100
AcDbLine
62
7
6
CONTINUOUS
10
-0.5731220498
20
29.7861914310
11
1.4768779502
21
29.7861914310
0
LINE
5
2B1
100
AcDbEntity
8
0
100
AcDbLine
62
7
6
CONTINUOUS
10
-0.5731220498
20
30.0854425825
11
-2.7171263355
21
30.0854425825
0
LINE
5
2B2
100
AcDbEntity
8
0
100
AcDbLine
62
7
6
CONTINUOUS
10
11.4268779502
20
30.0854425825
11
13.5708822358
21
30.0854425825
0
LINE
5
2B3
100
AcDbEntity
8
0
100
AcDbLine
62
9
6
CONTINUOUS
10
-4.9731220498
20
30.5854425825
11
-6.9731220498
21
30.5854425825
0
LINE
5
2B4
100
AcDbEntity
8
0
100
AcDbLine
62
9
6
CONTINUOUS
10
15.8268779502
20
30.5854425825
11
17.8268779502
21
30.5854425825
0
LINE
5
2B5
100
AcDbEntity
8
0
100
AcDbLine
62
7
6
CONTINUOUS
10
1.1268779502
20
30.8134294358
11
1.7225481827
21
30.8134294358
0
LINE
5
2B6
100
AcDbEntity
8
0
100
AcDbLine
62
7
6
CONTINUOUS
10
9.1312077176
20
30.8134294358
11
9.7268779502
21
30.8134294358
0
LINE
5
2B7
100
AcDbEntity
8
0
100
AcDbLine
62
7
6
CONTINUOUS
10
-5.2231601318
20
30.8354425825
11
-6.7230839678
21
30.8354425825
0
LINE
5
2B8
100
AcDbEntity
8
0
100
AcDbLine
62
7
6
CONTINUOUS
10
16.0769160322
20
30.8354425825
11
17.5768398682
21
30.8354425825
0
LINE
5
2B9
100
AcDbEntity
8
0
100
AcDbLine
62
7
6
CONTINUOUS
10
1.1268779502
20
31.1938520424
11
1.6847963353
21
31.1938520424
0
LINE
5
2BA
100
AcDbEntity
8
0
100
AcDbLine
62
7
6
CONTINUOUS
10
9.1689595651
20
31.1938520424
11
9.7268779502
21
31.1938520424
0
LINE
5
2BB
100
AcDbEntity
8
0
100
AcDbLine
62
7
6
CONTINUOUS
10
11.4268779502
20
31.3354425825
11
9.3601441850
21
31.3354425825
0
LINE
5
2BC
100
AcDbEntity
8
0
100
AcDbLine
62
7
6
CONTINUOUS
10
1.4936117154
20
31.3354425825
11
-0.5731220498
21
31.3354425825
0
LINE
5
2BD
100
AcDbEntity
8
0
100
AcDbLine
62
9
6
CONTINUOUS
10
11.4268779502
20
31.6354425825
11
-0.5731220498
21
31.6354425825
0
LINE
5
2BE
100
AcDbEntity
8
0
100
AcDbLine
62
7
6
CONTINUOUS
10
11.4268779502
20
32.3354425825
11
-0.5731220498
21
32.3354425825
0
LINE
5
2BF
100
AcDbEntity
8
0
100
AcDbLine
62
7
6
CONTINUOUS
10
-30.4391480530
20
-18.6645574175
11
-29.9249850691
21
-18.6645574175
0
LINE
5
2C0
100
AcDbEntity
8
0
100
AcDbLine
62
7
6
CONTINUOUS
10
-30.4391480530
20
-18.2645574175
11
-29.9249850691
21
-18.2645574175
0
LINE
5
2C1
100
AcDbEntity
8
0
100
AcDbLine
62
9
6
CONTINUOUS
10
-30.7391480530
20
-17.9645574175
11
-31.1391480530
21
-17.9645574175
0
LINE
5
2C2
100
AcDbEntity
8
0
100
AcDbLine
62
7
6
CONTINUOUS
10
-30.7391480530
20
-17.6645574175
11
-31.1391480530
21
-17.6645574175
0
LINE
5
2C3
100
AcDbEntity
8
0
100
AcDbLine
62
9
6
CONTINUOUS
10
-31.1391480530
20
-17.4819885661
11
-30.7391480530
21
-17.4819885661
0
LINE
5
2C4
100
AcDbEntity
8
0
100
AcDbLine
62
7
6
CONTINUOUS
10
-29.2391480530
20
-17.1645574175
11
-31.9891472248
21
-17.1645574175
0
LINE
5
2C5
100
AcDbEntity
8
0
100
AcDbLine
62
9
6
CONTINUOUS
10
-29.2391480530
20
-16.9145574175
11
-32.2391480530
21
-16.9145574175
0
LINE
5
2C6
100
AcDbEntity
8
0
100
AcDbLine
62
7
6
CONTINUOUS
10
-33.0391480530
20
-16.4145574175
11
-32.2391480530
21
-16.4145574175
0
LINE
5
2C7
100
AcDbEntity
8
0
100
AcDbLine
62
7
6
CONTINUOUS
10
-29.2391480530
20
-16.4145574175
11
-20.9891480530
21
-16.4145574175
0
LINE
5
2C8
100
AcDbEntity
8
0
100
AcDbLine
62
7
6
CONTINUOUS
10
-20.2391480530
20
-15.6645574175
11
-29.2391480530
21
-15.6645574175
0
LINE
5
2C9
100
AcDbEntity
8
0
100
AcDbLine
62
7
6
CONTINUOUS
10
-31.9350075826
20
-15.6645574175
11
-36.4891480530
21
-15.6645574175
0
LINE
5
2CA
100
AcDbEntity
8
0
100
AcDbLine
62
9
6
CONTINUOUS
10
-31.2916575772
20
-15.4145574175
11
-36.7391480530
21
-15.4145574175
0
LINE
5
2CB
100
AcDbEntity
8
0
100
AcDbLine
62
7
6
CONTINUOUS
10
-20.2391480530
20
-14.1954604344
11
-29.2391480530
21
-14.1169186242
0
LINE
5
2CC
100
AcDbEntity
8
0
100
AcDbLine
62
7
6
CONTINUOUS
10
-36.2391480530
20
-11.9645574175
11
-36.7391480530
21
-11.9645574175
0
LINE
5
2CD
100
AcDbEntity
8
0
100
AcDbLine
62
7
6
CONTINUOUS
10
-39.5827782148
20
-10.8749852065
11
-36.2391480530
21
-11.4645574175
0
LINE
5
2CE
100
AcDbEntity
8
0
100
AcDbLine
62
9
6
CONTINUOUS
10
-39.5437292720
20
-10.6287832682
11
-36.2391480530
21
-11.2114700971
0
LINE
5
2CF
100
AcDbEntity
8
0
100
AcDbLine
62
9
6
CONTINUOUS
10
-40.1629093805
20
-9.9197628663
11
-40.4083516340
21
-9.9296246682
0
LINE
5
2D0
100
AcDbEntity
8
0
100
AcDbLine
62
7
6
CONTINUOUS
10
-29.2391480530
20
-9.2530146856
11
-20.2391480530
21
-11.6645574175
0
LINE
5
2D1
100
AcDbEntity
8
0
100
AcDbLine
62
7
6
CONTINUOUS
10
-20.7512449367
20
-6.2406384306
11
-22.7391480530
21
-6.4145574175
0
LINE
5
2D2
100
AcDbEntity
8
0
100
AcDbLine
62
7
6
CONTINUOUS
10
-24.2391480530
20
-6.1645574175
11
-22.7391480530
21
-6.1514671158
0
LINE
5
2D3
100
AcDbEntity
8
0
100
AcDbLine
62
7
6
CONTINUOUS
10
-25.2391480530
20
-6.1558305497
11
-24.2391480530
21
-6.1645574175
0
LINE
5
2D4
100
AcDbEntity
8
0
100
AcDbLine
62
7
6
CONTINUOUS
10
-29.2391480530
20
-5.8272887396
11
-25.2391480530
21
-5.7923812684
0
LINE
5
2D5
100
AcDbEntity
8
0
100
AcDbLine
62
7
6
CONTINUOUS
10
-20.0983246212
20
-3.7645574175
11
-21.5391480530
21
-3.7645574175
0
LINE
5
2D6
100
AcDbEntity
8
0
100
AcDbLine
62
7
6
CONTINUOUS
10
-21.5391480530
20
-2.5645574175
11
-20.0983247055
21
-2.5645574175
0
LINE
5
2D7
100
AcDbEntity
8
0
100
AcDbLine
62
9
6
CONTINUOUS
10
-29.8322799708
20
31.9207595374
11
-29.7086731730
21
32.3011821439
0
LINE
5
2D8
100
AcDbEntity
8
0
100
AcDbLine
62
7
6
CONTINUOUS
10
-29.2391480530
20
-0.5018260954
11
-25.2391480530
21
-0.5367335666
0
LINE
5
2D9
100
AcDbEntity
8
0
100
AcDbLine
62
9
6
CONTINUOUS
10
-29.8322799708
20
-18.2498743724
11
-29.7086731730
21
-18.6302969789
0
LINE
5
2DA
100
AcDbEntity
8
0
100
AcDbLine
62
7
6
CONTINUOUS
10
-36.7391480530
20
29.0854425825
11
-36.7391480530
21
25.6354425825
0
LINE
5
2DB
100
AcDbEntity
8
0
100
AcDbLine
62
7
6
CONTINUOUS
10
-36.7391480530
20
-11.9645574175
11
-36.7391480530
21
-15.4145574175
0
LINE
5
2DC
100
AcDbEntity
8
0
100
AcDbLine
62
9
6
CONTINUOUS
10
-36.4935111546
20
29.0854425825
11
-36.4935111546
21
25.6354425825
0
LINE
5
2DD
100
AcDbEntity
8
0
100
AcDbLine
62
9
6
CONTINUOUS
10
-36.4935111546
20
-11.9645574175
11
-36.4935111546
21
-15.4145574175
0
LINE
5
2DE
100
AcDbEntity
8
0
100
AcDbLine
62
7
6
CONTINUOUS
10
-36.2391480530
20
25.6354425825
11
-36.2391480530
21
24.8823552621
0
LINE
5
2DF
100
AcDbEntity
8
0
100
AcDbLine
62
7
6
CONTINUOUS
10
-36.2391480530
20
-11.2114700971
11
-36.2391480530
21
-11.9645574175
0
LINE
5
2E0
100
AcDbEntity
8
0
100
AcDbLine
62
7
6
CONTINUOUS
10
-25.2391480530
20
-0.1732842853
11
-24.2391480530
21
-0.1645574175
0
LINE
5
2E1
100
AcDbEntity
8
0
100
AcDbLine
62
7
6
CONTINUOUS
10
-24.2391480530
20
-0.1645574175
11
-22.7391480530
21
-0.1776477192
0
LINE
5
2E2
100
AcDbEntity
8
0
100
AcDbLine
62
7
6
CONTINUOUS
10
-20.7512449367
20
-0.0884764044
11
-22.7391480530
21
0.0854425825
0
LINE
5
2E3
100
AcDbEntity
8
0
100
AcDbLine
62
7
6
CONTINUOUS
10
-33.2391480530
20
29.8854425861
11
-33.2391480530
21
29.3354425825
0
LINE
5
2E4
100
AcDbEntity
8
0
100
AcDbLine
62
7
6
CONTINUOUS
10
-33.2391480530
20
-15.6645574175
11
-33.2391480530
21
-16.2145574200
0
LINE
5
2E5
100
AcDbEntity
8
0
100
AcDbLine
62
9
6
CONTINUOUS
10
-32.4623245928
20
30.0854425825
11
-32.4623245928
21
29.3354425825
0
LINE
5
2E6
100
AcDbEntity
8
0
100
AcDbLine
62
9
6
CONTINUOUS
10
-32.4623245928
20
-15.6645574175
11
-32.4623245928
21
-16.4145574175
0
LINE
5
2E7
100
AcDbEntity
8
0
100
AcDbLine
62
7
6
CONTINUOUS
10
-32.2391480530
20
30.5854425825
11
-32.2391480530
21
29.3354425825
0
LINE
5
2E8
100
AcDbEntity
8
0
100
AcDbLine
62
7
6
CONTINUOUS
10
-32.2391480530
20
-15.6645574175
11
-32.2391480530
21
-16.9145574175
0
LINE
5
2E9
100
AcDbEntity
8
0
100
AcDbLine
62
9
6
CONTINUOUS
10
-31.2916575772
20
30.5854425825
11
-31.2916575772
21
29.0854425825
0
LINE
5
2EA
100
AcDbEntity
8
0
100
AcDbLine
62
9
6
CONTINUOUS
10
-31.2916575772
20
-15.4145574175
11
-31.2916575772
21
-16.9145574175
0
LINE
5
2EB
100
AcDbEntity
8
0
100
AcDbLine
62
7
6
CONTINUOUS
10
-31.1391480530
20
-17.9645574175
11
-31.1391480530
21
-17.1645574175
0
LINE
5
2EC
100
AcDbEntity
8
0
100
AcDbLine
62
7
6
CONTINUOUS
10
-31.1391480530
20
30.8354425825
11
-31.1391480530
21
31.6354425825
0
LINE
5
2ED
100
AcDbEntity
8
0
100
AcDbLine
62
7
6
CONTINUOUS
10
-30.7391480530
20
-17.9645574175
11
-30.7391480530
21
-17.1645574175
0
LINE
5
2EE
100
AcDbEntity
8
0
100
AcDbLine
62
7
6
CONTINUOUS
10
-30.7391480530
20
30.8354425825
11
-30.7391480530
21
31.6354425825
0
LINE
5
2EF
100
AcDbEntity
8
0
100
AcDbLine
62
9
6
CONTINUOUS
10
-30.4391480530
20
-18.2645574175
11
-30.4391480530
21
-18.6645574175
0
LINE
5
2F0
100
AcDbEntity
8
0
100
AcDbLine
62
9
6
CONTINUOUS
10
-30.4391480530
20
31.9354425825
11
-30.4391480530
21
32.3354425825
0
LINE
5
2F1
100
AcDbEntity
8
0
100
AcDbLine
62
9
6
CONTINUOUS
10
-29.9249850691
20
-18.2645574175
11
-29.9249850691
21
-18.6645574175
0
LINE
5
2F2
100
AcDbEntity
8
0
100
AcDbLine
62
9
6
CONTINUOUS
10
-29.9249850691
20
31.9354425825
11
-29.9249850691
21
32.3354425825
0
LINE
5
2F3
100
AcDbEntity
8
0
100
AcDbLine
62
7
6
CONTINUOUS
10
-23.1391480530
20
30.1666140375
11
-23.1655222576
21
30.0854425825
0
LINE
5
2F4
100
AcDbEntity
8
0
100
AcDbLine
62
9
6
CONTINUOUS
10
-22.9489367498
20
30.1048106387
11
-22.9552298127
21
30.0854425825
0
LINE
5
2F5
100
AcDbEntity
8
0
100
AcDbLine
62
7
6
CONTINUOUS
10
-23.1391480530
20
-16.4957288725
11
-23.1655222576
21
-16.4145574175
0
LINE
5
2F6
100
AcDbEntity
8
0
100
AcDbLine
62
9
6
CONTINUOUS
10
-22.9489367498
20
-16.4339254737
11
-22.9552298127
21
-16.4145574175
0
LINE
5
2F7
100
AcDbEntity
8
0
100
AcDbLine
62
7
6
CONTINUOUS
10
-29.2391480530
20
30.8354425825
11
-29.2391480530
21
-17.1645574175
0
LINE
5
2F8
100
AcDbEntity
8
0
100
AcDbLine
62
7
6
CONTINUOUS
10
-25.2391480530
20
-0.1732842853
11
-25.2391480530
21
-6.1558305497
0
LINE
5
2F9
100
AcDbEntity
8
0
100
AcDbLine
62
7
6
CONTINUOUS
10
-24.2391480530
20
-0.1645574175
11
-24.2391480530
21
-6.1645574175
0
LINE
5
2FA
100
AcDbEntity
8
0
100
AcDbLine
62
7
6
CONTINUOUS
10
-22.7391480530
20
-6.4145574175
11
-22.7391480530
21
0.0854425825
0
LINE
5
2FB
100
AcDbEntity
8
0
100
AcDbLine
62
7
6
CONTINUOUS
10
-21.5391480530
20
-3.7645574175
11
-21.5391480530
21
-2.5645574175
0
LINE
5
2FC
100
AcDbEntity
8
0
100
AcDbLine
62
9
6
CONTINUOUS
10
-21.5130013302
20
-2.5645574175
11
-21.5130013302
21
-3.7645574175
0
LINE
5
2FD
100
AcDbEntity
8
0
100
AcDbLine
62
7
6
CONTINUOUS
10
-21.2391480530
20
-2.5645574175
11
-21.2391480530
21
-3.7645574175
0
LINE
5
2FE
100
AcDbEntity
8
0
100
AcDbLine
62
9
6
CONTINUOUS
10
-21.2216956466
20
29.3354425825
11
-21.2216956466
21
27.8577710364
0
LINE
5
2FF
100
AcDbEntity
8
0
100
AcDbLine
62
9
6
CONTINUOUS
10
-21.2216956466
20
-14.1868858714
11
-21.2216956466
21
-15.6645574175
0
LINE
5
300
100
AcDbEntity
8
0
100
AcDbLine
62
7
6
CONTINUOUS
10
-20.7512449367
20
-6.2406384306
11
-20.7512449367
21
-3.7645574175
0
LINE
5
301
100
AcDbEntity
8
0
100
AcDbLine
62
7
6
CONTINUOUS
10
-20.7512449367
20
-2.5645574175
11
-20.7512449367
21
-0.0884764044
0
LINE
5
302
100
AcDbEntity
8
0
100
AcDbLine
62
7
6
CONTINUOUS
10
-20.2455924574
20
-1.4770733823
11
-20.2455924574
21
-1.4925396816
0
LINE
5
303
100
AcDbEntity
8
0
100
AcDbLine
62
7
6
CONTINUOUS
10
-20.2455924574
20
-4.8365486677
11
-20.2455924574
21
-4.8520414527
0
LINE
5
304
100
AcDbEntity
8
0
100
AcDbLine
62
7
6
CONTINUOUS
10
-20.2391480530
20
-15.6645574175
11
-20.2391480530
21
-11.6645574175
0
LINE
5
305
100
AcDbEntity
8
0
100
AcDbLine
62
7
6
CONTINUOUS
10
-20.2391480530
20
25.3354425825
11
-20.2391480530
21
29.3354425825
0
LINE
5
306
100
AcDbEntity
8
0
100
AcDbLine
62
7
6
CONTINUOUS
10
-20.2391480530
20
25.3354425825
11
-29.2391480530
21
22.9238998506
0
LINE
5
307
100
AcDbEntity
8
0
100
AcDbLine
62
9
6
CONTINUOUS
10
-40.1629093805
20
23.5906480313
11
-40.4083516927
21
23.6005098355
0
LINE
5
308
100
AcDbEntity
8
0
100
AcDbLine
62
9
6
CONTINUOUS
10
-36.2391480530
20
24.8823552621
11
-39.5437292720
21
24.2996684332
0
LINE
5
309
100
AcDbEntity
8
0
100
AcDbLine
62
7
6
CONTINUOUS
10
-36.2391480530
20
25.1354425825
11
-39.5827782148
21
24.5458703715
0
LINE
5
30A
100
AcDbEntity
8
0
100
AcDbLine
62
7
6
CONTINUOUS
10
-36.2391480530
20
25.6354425825
11
-36.7391480530
21
25.6354425825
0
LINE
5
30B
100
AcDbEntity
8
0
100
AcDbLine
62
7
6
CONTINUOUS
10
-20.2391480530
20
27.8663455994
11
-29.2391480530
21
27.7878037892
0
LINE
5
30C
100
AcDbEntity
8
0
100
AcDbLine
62
9
6
CONTINUOUS
10
-31.2916575772
20
29.0854425825
11
-36.7391480530
21
29.0854425825
0
LINE
5
30D
100
AcDbEntity
8
0
100
AcDbLine
62
7
6
CONTINUOUS
10
-29.8322799708
20
-18.2498743724
11
-24.1837551932
21
-16.4145574175
0
LINE
5
30E
100
AcDbEntity
8
0
100
AcDbLine
62
7
6
CONTINUOUS
10
-22.8893280022
20
-16.4145574175
11
-29.7086731730
21
-18.6302969789
0
LINE
5
30F
100
AcDbEntity
8
0
100
AcDbLine
62
7
6
CONTINUOUS
10
-36.4891480530
20
29.3354425825
11
-31.9350075826
21
29.3354425825
0
LINE
5
310
100
AcDbEntity
8
0
100
AcDbLine
62
7
6
CONTINUOUS
10
-20.2391480530
20
29.3354425825
11
-29.2391480530
21
29.3354425825
0
LINE
5
311
100
AcDbEntity
8
0
100
AcDbLine
62
7
6
CONTINUOUS
10
-33.0391480530
20
30.0854425825
11
-32.2391480530
21
30.0854425825
0
LINE
5
312
100
AcDbEntity
8
0
100
AcDbLine
62
7
6
CONTINUOUS
10
-29.2391480530
20
30.0854425825
11
-20.9891480530
21
30.0854425825
0
LINE
5
313
100
AcDbEntity
8
0
100
AcDbLine
62
9
6
CONTINUOUS
10
-32.2391480530
20
30.5854425825
11
-29.2391480530
21
30.5854425825
0
LINE
5
314
100
AcDbEntity
8
0
100
AcDbLine
62
7
6
CONTINUOUS
10
-31.9891472248
20
30.8354425825
11
-29.2391480530
21
30.8354425825
0
LINE
5
315
100
AcDbEntity
8
0
100
AcDbLine
62
7
6
CONTINUOUS
10
-29.8322799708
20
31.9207595374
11
-24.1837551932
21
30.0854425825
0
LINE
5
316
100
AcDbEntity
8
0
100
AcDbLine
62
7
6
CONTINUOUS
10
-22.8893280022
20
30.0854425825
11
-29.7086731730
21
32.3011821439
0
LINE
5
317
100
AcDbEntity
8
0
100
AcDbLine
62
9
6
CONTINUOUS
10
-31.1391480530
20
31.1528737310
11
-30.7391480530
21
31.1528737310
0
LINE
5
318
100
AcDbEntity
8
0
100
AcDbLine
62
7
6
CONTINUOUS
10
-30.7391480530
20
31.3354425825
11
-31.1391480530
21
31.3354425825
0
LINE
5
319
100
AcDbEntity
8
0
100
AcDbLine
62
9
6
CONTINUOUS
10
-30.7391480530
20
31.6354425825
11
-31.1391480530
21
31.6354425825
0
LINE
5
31A
100
AcDbEntity
8
0
100
AcDbLine
62
7
6
CONTINUOUS
10
-30.4391480530
20
31.9354425825
11
-29.9249850691
21
31.9354425825
0
LINE
5
31B
100
AcDbEntity
8
0
100
AcDbLine
62
7
6
CONTINUOUS
10
-30.4391480530
20
32.3354425825
11
-29.9249850691
21
32.3354425825
0
ARC
5
31C
100
AcDbEntity
8
0
100
AcDbCircle
62
7
6
CONTINUOUS
10
1.4936117154
20
-17.4645574175
40
0.2000000000
100
AcDbArc
50
270.0000000000
51
355.0000000000
0
ARC
5
31D
100
AcDbEntity
8
0
100
AcDbCircle
62
7
6
CONTINUOUS
10
9.3601441850
20
-17.4645574175
40
0.2000000000
100
AcDbArc
50
185.0000000000
51
270.0000000000
0
ARC
5
31E
100
AcDbEntity
8
0
100
AcDbCircle
62
7
6
CONTINUOUS
10
9.3601441850
20
31.1354425825
40
0.2000000000
100
AcDbArc
50
90.0000000000
51
175.0000000000
0
ARC
5
31F
100
AcDbEntity
8
0
100
AcDbCircle
62
7
6
CONTINUOUS
10
1.4936117154
20
31.1354425825
40
0.2000000000
100
AcDbArc
50
5.0000000000
51
90.0000000000
0
ARC
5
320
100
AcDbEntity
8
0
100
AcDbCircle
62
7
6
CONTINUOUS
10
5.4268779502
20
4.8354425825
40
3.0000000000
100
AcDbArc
50
180.0000000000
51
360.0000000000
0
ARC
5
321
100
AcDbEntity
8
0
100
AcDbCircle
62
7
6
CONTINUOUS
10
5.4268779502
20
8.8354425825
40
3.0000000000
100
AcDbArc
50
0.0000000000
51
180.0000000000
0
ARC
5
322
100
AcDbEntity
8
0
100
AcDbCircle
62
7
6
CONTINUOUS
10
-29.9249850691
20
-17.9645574175
40
0.7000000000
100
AcDbArc
50
270.0000000000
51
288.0000000000
0
ARC
5
323
100
AcDbEntity
8
0
100
AcDbCircle
62
7
6
CONTINUOUS
10
-30.4391480530
20
-17.9645574175
40
0.7000000000
100
AcDbArc
50
180.0000000000
51
270.0000000000
0
ARC
5
324
100
AcDbEntity
8
0
100
AcDbCircle
62
7
6
CONTINUOUS
10
-29.9249850691
20
31.6354425825
40
0.7000000000
100
AcDbArc
50
72.0000000000
51
90.0000000000
0
ARC
5
325
100
AcDbEntity
8
0
100
AcDbCircle
62
7
6
CONTINUOUS
10
-30.4391480530
20
31.6354425825
40
0.7000000000
100
AcDbArc
50
90.0000000000
51
180.0000000000
0
ARC
5
326
100
AcDbEntity
8
0
100
AcDbCircle
62
7
6
CONTINUOUS
10
-27.0391480530
20
-3.1645574175
40
7.0000000000
100
AcDbArc
50
13.9496509173
51
26.0681656277
0
ARC
5
327
100
AcDbEntity
8
0
100
AcDbCircle
62
7
6
CONTINUOUS
10
-27.0391480530
20
-3.1645574175
40
7.0000000000
100
AcDbArc
50
333.9318343723
51
346.0503490827
0
ARC
5
328
100
AcDbEntity
8
0
100
AcDbCircle
62
7
6
CONTINUOUS
10
-33.0391480530
20
-16.2145574175
40
0.2000000000
100
AcDbArc
50
180.0000000000
51
270.0000000000
0
ARC
5
329
100
AcDbEntity
8
0
100
AcDbCircle
62
7
6
CONTINUOUS
10
-33.0391480530
20
29.8854425825
40
0.2000000000
100
AcDbArc
50
90.0000000000
51
180.0000000000
0
ARC
5
32A
100
AcDbEntity
8
0
100
AcDbCircle
62
7
6
CONTINUOUS
10
-31.9891480530
20
-16.9145574175
40
0.2500000000
100
AcDbArc
50
180.0000000000
51
270.0000000000
0
ARC
5
32B
100
AcDbEntity
8
0
100
AcDbCircle
62
7
6
CONTINUOUS
10
-31.9891480530
20
30.5854425825
40
0.2500000000
100
AcDbArc
50
90.0000000000
51
180.0000000000
0
ARC
5
32C
100
AcDbEntity
8
0
100
AcDbCircle
62
7
6
CONTINUOUS
10
-20.9891480530
20
29.3354425825
40
0.7500000000
100
AcDbArc
50
0.0000000000
51
90.0000000000
0
ARC
5
32D
100
AcDbEntity
8
0
100
AcDbCircle
62
7
6
CONTINUOUS
10
-36.4891480530
20
-15.4145574175
40
0.2500000000
100
AcDbArc
50
180.0000000000
51
270.0000000000
0
ARC
5
32E
100
AcDbEntity
8
0
100
AcDbCircle
62
7
6
CONTINUOUS
10
-36.4891480530
20
29.0854425825
40
0.2500000000
100
AcDbArc
50
90.0000000000
51
180.0000000000
0
ARC
5
32F
100
AcDbEntity
8
0
100
AcDbCircle
62
7
6
CONTINUOUS
10
-39.4091300371
20
-9.8901774535
40
1.0000000000
100
AcDbArc
50
182.2607456281
51
260.0000000000
0
ARC
5
330
100
AcDbEntity
8
0
100
AcDbCircle
62
7
6
CONTINUOUS
10
384.2608519470
20
6.8354425825
40
425.0000000000
100
AcDbArc
50
177.7392543719
51
182.2607456281
0
ARC
5
331
100
AcDbEntity
8
0
100
AcDbCircle
62
7
6
CONTINUOUS
10
-39.4091300371
20
23.5610626185
40
1.0000000000
100
AcDbArc
50
100.0000000000
51
177.7392543719
0
ARC
5
332
100
AcDbEntity
8
0
100
AcDbCircle
62
7
6
CONTINUOUS
10
-20.9891480530
20
-15.6645574175
40
0.7500000000
100
AcDbArc
50
270.0000000000
51
360.0000000000
0
ARC
5
333
100
AcDbEntity
8
0
100
AcDbCircle
62
7
6
CONTINUOUS
10
-29.9249850691
20
-17.9645574175
40
0.3000000000
100
AcDbArc
50
270.0000000000
51
288.0000000000
0
ARC
5
334
100
AcDbEntity
8
0
100
AcDbCircle
62
7
6
CONTINUOUS
10
-30.4391480530
20
-17.9645574175
40
0.3000000000
100
AcDbArc
50
180.0000000000
51
270.0000000000
0
ARC
5
335
100
AcDbEntity
8
0
100
AcDbCircle
62
7
6
CONTINUOUS
10
-29.9249850691
20
31.6354425825
40
0.3000000000
100
AcDbArc
50
72.0000000000
51
90.0000000000
0
ARC
5
336
100
AcDbEntity
8
0
100
AcDbCircle
62
7
6
CONTINUOUS
10
-30.4391480530
20
31.6354425825
40
0.3000000000
100
AcDbArc
50
90.0000000000
51
180.0000000000
0
SPLINE
5
337
100
AcDbEntity
8
0
100
AcDbSpline
62
7
6
CONTINUOUS
70
0
71
3
72
15
73
11
74
9
42
0.0000001000
43
0.0000001000
44
0.0000000001
12
-0.2198589173
22
0.0000000000
32
0.0000000000
13
0.0000000000
23
-0.2198589173
33
0.0000000000
40
0.0000000000
40
0.0000000000
40
0.0000000000
40
0.0000000000
40
0.1775508236
40
0.3489475586
40
0.5083491360
40
0.6505618283
40
0.7714455810
40
0.8685458831
40
0.9424410166
40
1.0000000000
40
1.0000000000
40
1.0000000000
40
1.0000000000
10
1.1268779502
20
-17.5229668774
30
0.0000000000
10
1.1138659062
20
-17.5229668774
30
0.0000000000
10
1.0882855670
20
-17.5237318404
30
0.0000000000
10
1.0511632059
20
-17.5271481418
30
0.0000000000
10
1.0169090892
20
-17.5326845428
30
0.0000000000
10
0.9868124204
20
-17.5401217625
30
0.0000000000
10
0.9619200998
20
-17.5491400003
30
0.0000000000
10
0.9430880985
20
-17.5594898572
30
0.0000000000
10
0.9304605148
20
-17.5709370204
30
0.0000000000
10
0.9268779502
20
-17.5805519910
30
0.0000000000
10
0.9268779502
20
-17.5847702762
30
0.0000000000
11
1.1268779502
21
-17.5229668774
31
0.0000000000
11
1.0878598858
21
-17.5241544123
31
0.0000000000
11
1.0503412637
21
-17.5276713810
31
0.0000000000
11
1.0157639036
21
-17.5333826281
31
0.0000000000
11
0.9854565940
21
-17.5410686738
31
0.0000000000
11
0.9605840277
21
-17.5504341475
31
0.0000000000
11
0.9421020437
21
-17.5611191394
31
0.0000000000
11
0.9307208941
21
-17.5727130313
31
0.0000000000
11
0.9268779502
21
-17.5847702762
31
0.0000000000
0
SPLINE
5
338
100
AcDbEntity
8
0
100
AcDbSpline
62
7
6
CONTINUOUS
70
0
71
3
72
15
73
11
74
9
42
0.0000001000
43
0.0000001000
44
0.0000000001
12
0.0000000000
22
0.2198589173
32
0.0000000000
13
-0.2198589173
23
0.0000000000
33
0.0000000000
40
0.0000000000
40
0.0000000000
40
0.0000000000
40
0.0000000000
40
0.0575589834
40
0.1314541169
40
0.2285544190
40
0.3494381717
40
0.4916508640
40
0.6510524414
40
0.8224491764
40
1.0000000000
40
1.0000000000
40
1.0000000000
40
1.0000000000
10
9.9268779502
20
-17.5847702762
30
0.0000000000
10
9.9268779502
20
-17.5805519910
30
0.0000000000
10
9.9232953855
20
-17.5709370204
30
0.0000000000
10
9.9106678019
20
-17.5594898572
30
0.0000000000
10
9.8918358006
20
-17.5491400003
30
0.0000000000
10
9.8669434800
20
-17.5401217625
30
0.0000000000
10
9.8368468112
20
-17.5326845428
30
0.0000000000
10
9.8025926945
20
-17.5271481418
30
0.0000000000
10
9.7654703334
20
-17.5237318404
30
0.0000000000
10
9.7398899941
20
-17.5229668774
30
0.0000000000
10
9.7268779502
20
-17.5229668774
30
0.0000000000
11
9.9268779502
21
-17.5847702762
31
0.0000000000
11
9.9230350063
21
-17.5727130313
31
0.0000000000
11
9.9116538567
21
-17.5611191394
31
0.0000000000
11
9.8931718727
21
-17.5504341475
31
0.0000000000
11
9.8682993064
21
-17.5410686738
31
0.0000000000
11
9.8379919968
21
-17.5333826281
31
0.0000000000
11
9.8034146367
21
-17.5276713810
31
0.0000000000
11
9.7658960146
21
-17.5241544123
31
0.0000000000
11
9.7268779502
21
-17.5229668774
31
0.0000000000
0
SPLINE
5
339
100
AcDbEntity
8
0
100
AcDbSpline
62
7
6
CONTINUOUS
70
0
71
3
72
15
73
11
74
9
42
0.0000001000
43
0.0000001000
44
0.0000000001
12
0.2198589173
22
0.0000000000
32
0.0000000000
13
0.0000000000
23
0.2198589173
33
0.0000000000
40
0.0000000000
40
0.0000000000
40
0.0000000000
40
0.0000000000
40
0.1775508236
40
0.3489475586
40
0.5083491360
40
0.6505618283
40
0.7714455810
40
0.8685458831
40
0.9424410166
40
1.0000000000
40
1.0000000000
40
1.0000000000
40
1.0000000000
10
9.7268779502
20
31.1938520424
30
0.0000000000
10
9.7398899941
20
31.1938520424
30
0.0000000000
10
9.7654703334
20
31.1946170054
30
0.0000000000
10
9.8025926945
20
31.1980333068
30
0.0000000000
10
9.8368468112
20
31.2035697078
30
0.0000000000
10
9.8669434800
20
31.2110069275
30
0.0000000000
10
9.8918358006
20
31.2200251653
30
0.0000000000
10
9.9106678019
20
31.2303750222
30
0.0000000000
10
9.9232953855
20
31.2418221854
30
0.0000000000
10
9.9268779502
20
31.2514371560
30
0.0000000000
10
9.9268779502
20
31.2556554412
30
0.0000000000
11
9.7268779502
21
31.1938520424
31
0.0000000000
11
9.7658960146
21
31.1950395773
31
0.0000000000
11
9.8034146367
21
31.1985565460
31
0.0000000000
11
9.8379919968
21
31.2042677931
31
0.0000000000
11
9.8682993064
21
31.2119538388
31
0.0000000000
11
9.8931718727
21
31.2213193125
31
0.0000000000
11
9.9116538567
21
31.2320043044
31
0.0000000000
11
9.9230350063
21
31.2435981962
31
0.0000000000
11
9.9268779502
21
31.2556554412
31
0.0000000000
0
SPLINE
5
33A
100
AcDbEntity
8
0
100
AcDbSpline
62
7
6
CONTINUOUS
70
0
71
3
72
15
73
11
74
9
42
0.0000001000
43
0.0000001000
44
0.0000000001
12
0.0000000000
22
-0.2198589173
32
0.0000000000
13
0.2198589173
23
0.0000000000
33
0.0000000000
40
0.0000000000
40
0.0000000000
40
0.0000000000
40
0.0000000000
40
0.0575589834
40
0.1314541169
40
0.2285544190
40
0.3494381717
40
0.4916508640
40
0.6510524414
40
0.8224491764
40
1.0000000000
40
1.0000000000
40
1.0000000000
40
1.0000000000
10
0.9268779502
20
31.2556554412
30
0.0000000000
10
0.9268779502
20
31.2514371560
30
0.0000000000
10
0.9304605148
20
31.2418221854
30
0.0000000000
10
0.9430880985
20
31.2303750222
30
0.0000000000
10
0.9619200998
20
31.2200251653
30
0.0000000000
10
0.9868124204
20
31.2110069275
30
0.0000000000
10
1.0169090892
20
31.2035697078
30
0.0000000000
10
1.0511632059
20
31.1980333068
30
0.0000000000
10
1.0882855670
20
31.1946170054
30
0.0000000000
10
1.1138659062
20
31.1938520424
30
0.0000000000
10
1.1268779502
20
31.1938520424
30
0.0000000000
11
0.9268779502
21
31.2556554412
31
0.0000000000
11
0.9307208941
21
31.2435981962
31
0.0000000000
11
0.9421020437
21
31.2320043044
31
0.0000000000
11
0.9605840277
21
31.2213193125
31
0.0000000000
11
0.9854565940
21
31.2119538388
31
0.0000000000
11
1.0157639036
21
31.2042677931
31
0.0000000000
11
1.0503412637
21
31.1985565460
31
0.0000000000
11
1.0878598858
21
31.1950395773
31
0.0000000000
11
1.1268779502
21
31.1938520424
31
0.0000000000
0
SPLINE
5
33B
100
AcDbEntity
8
0
100
AcDbSpline
62
7
6
CONTINUOUS
70
0
71
3
72
20
73
16
74
14
42
0.0000001000
43
0.0000001000
44
0.0000000001
12
0.2000140496
22
0.0000000000
32
0.0000000000
13
0.0000000000
23
0.2000140496
33
0.0000000000
40
0.0000000000
40
0.0000000000
40
0.0000000000
40
0.0000000000
40
0.0072789196
40
0.0290630274
40
0.0649465105
40
0.1143438513
40
0.1770156179
40
0.2516623578
40
0.3367530292
40
0.4320301817
40
0.5357670695
40
0.6456150950
40
0.7608504125
40
0.8798727406
40
1.0000000000
40
1.0000000000
40
1.0000000000
40
1.0000000000
10
9.3763586500
20
29.3354425825
30
0.0000000000
10
9.3768439453
20
29.3354425825
30
0.0000000000
10
9.3760055485
20
29.3385426210
30
0.0000000000
10
9.3770332107
20
29.3417523731
30
0.0000000000
10
9.3766548474
20
29.3495181918
30
0.0000000000
10
9.3770040657
20
29.3591090448
30
0.0000000000
10
9.3770425965
20
29.3716609806
30
0.0000000000
10
9.3771854031
20
29.3864526042
30
0.0000000000
10
9.3772781737
20
29.4034663679
30
0.0000000000
10
9.3773708359
20
29.4224040370
30
0.0000000000
10
9.3774451500
20
29.4429973023
30
0.0000000000
10
9.3775051188
20
29.4649197750
30
0.0000000000
10
9.3775483381
20
29.4878618234
30
0.0000000000
10
9.3775745711
20
29.5114891032
30
0.0000000000
10
9.3775803956
20
29.5274335360
30
0.0000000000
10
9.3775803956
20
29.5354425825
30
0.0000000000
11
9.3763586500
21
29.3354425825
31
0.0000000000
11
9.3765054234
21
29.3368910514
31
0.0000000000
11
9.3766508229
21
29.3412457523
31
0.0000000000
11
9.3767916007
21
29.3484215723
31
0.0000000000
11
9.3769258347
21
29.3583008226
31
0.0000000000
11
9.3770525886
21
29.3708354155
31
0.0000000000
11
9.3771689890
21
29.3857653585
31
0.0000000000
11
9.3772729574
21
29.4027843707
31
0.0000000000
11
9.3773641745
21
29.4218409215
31
0.0000000000
11
9.3774407457
21
29.4425896152
31
0.0000000000
11
9.3775010925
21
29.4645606807
31
0.0000000000
11
9.3775449389
21
29.4876093216
31
0.0000000000
11
9.3775715471
21
29.5114154445
31
0.0000000000
11
9.3775803956
21
29.5354425825
31
0.0000000000
0
SPLINE
5
33C
100
AcDbEntity
8
0
100
AcDbSpline
62
7
6
CONTINUOUS
70
0
71
3
72
20
73
16
74
14
42
0.0000001000
43
0.0000001000
44
0.0000000001
12
-0.2000140496
22
0.0000000000
32
0.0000000000
13
0.0000000000
23
-0.2000140496
33
0.0000000000
40
0.0000000000
40
0.0000000000
40
0.0000000000
40
0.0000000000
40
0.0072789196
40
0.0290630274
40
0.0649465105
40
0.1143438513
40
0.1770156179
40
0.2516623578
40
0.3367530292
40
0.4320301817
40
0.5357670695
40
0.6456150950
40
0.7608504125
40
0.8798727406
40
1.0000000000
40
1.0000000000
40
1.0000000000
40
1.0000000000
10
1.4773972504
20
-15.6645574175
30
0.0000000000
10
1.4769119550
20
-15.6645574175
30
0.0000000000
10
1.4777503519
20
-15.6676574560
30
0.0000000000
10
1.4767226897
20
-15.6708672081
30
0.0000000000
10
1.4771010530
20
-15.6786330268
30
0.0000000000
10
1.4767518347
20
-15.6882238798
30
0.0000000000
10
1.4767133038
20
-15.7007758156
30
0.0000000000
10
1.4765704973
20
-15.7155674392
30
0.0000000000
10
1.4764777267
20
-15.7325812029
30
0.0000000000
10
1.4763850645
20
-15.7515188720
30
0.0000000000
10
1.4763107503
20
-15.7721121373
30
0.0000000000
10
1.4762507816
20
-15.7940346100
30
0.0000000000
10
1.4762075623
20
-15.8169766584
30
0.0000000000
10
1.4761813293
20
-15.8406039382
30
0.0000000000
10
1.4761755048
20
-15.8565483710
30
0.0000000000
10
1.4761755048
20
-15.8645574175
30
0.0000000000
11
1.4773972504
21
-15.6645574175
31
0.0000000000
11
1.4772504769
21
-15.6660058864
31
0.0000000000
11
1.4771050775
21
-15.6703605873
31
0.0000000000
11
1.4769642996
21
-15.6775364073
31
0.0000000000
11
1.4768300657
21
-15.6874156576
31
0.0000000000
11
1.4767033118
21
-15.6999502505
31
0.0000000000
11
1.4765869113
21
-15.7148801935
31
0.0000000000
11
1.4764829430
21
-15.7318992057
31
0.0000000000
11
1.4763917259
21
-15.7509557565
31
0.0000000000
11
1.4763151546
21
-15.7717044502
31
0.0000000000
11
1.4762548079
21
-15.7936755158
31
0.0000000000
11
1.4762109615
21
-15.8167241566
31
0.0000000000
11
1.4761843533
21
-15.8405302795
31
0.0000000000
11
1.4761755048
21
-15.8645574175
31
0.0000000000
0
SPLINE
5
33D
100
AcDbEntity
8
0
100
AcDbSpline
62
7
6
CONTINUOUS
70
0
71
3
72
25
73
21
74
19
42
0.0000001000
43
0.0000001000
44
0.0000000001
12
0.7504590076
22
0.0000000000
32
0.0000000000
13
-0.0000000000
23
0.7504590076
33
0.0000000000
40
0.0000000000
40
0.0000000000
40
0.0000000000
40
0.0000000000
40
0.0040822192
40
0.0155737310
40
0.0345190792
40
0.0607095713
40
0.0941177171
40
0.1344840005
40
0.1813376501
40
0.2343197083
40
0.2933277233
40
0.3577268836
40
0.4267651332
40
0.5002737981
40
0.5777711497
40
0.6583734853
40
0.7413158780
40
0.8264915831
40
0.9130631511
40
1.0000000000
40
1.0000000000
40
1.0000000000
40
1.0000000000
10
13.5708822358
20
-16.4145574175
30
0.0000000000
10
13.5719034152
20
-16.4145574175
30
0.0000000000
10
13.5720535694
20
-16.4087741834
30
0.0000000000
10
13.5736471205
20
-16.4020168386
30
0.0000000000
10
13.5743344956
20
-16.3868659673
30
0.0000000000
10
13.5755317784
20
-16.3676902216
30
0.0000000000
10
13.5765005931
20
-16.3425330399
30
0.0000000000
10
13.5775152898
20
-16.3124346599
30
0.0000000000
10
13.5784564167
20
-16.2773549131
30
0.0000000000
10
13.5793533248
20
-16.2376362532
30
0.0000000000
10
13.5801861189
20
-16.1935176733
30
0.0000000000
10
13.5809507281
20
-16.1453835154
30
0.0000000000
10
13.5816397099
20
-16.0936196805
30
0.0000000000
10
13.5822485674
20
-16.0385783282
30
0.0000000000
10
13.5827723770
20
-15.9806431195
30
0.0000000000
10
13.5832061791
20
-15.9203472528
30
0.0000000000
10
13.5835470739
20
-15.8581299936
30
0.0000000000
10
13.5837926287
20
-15.7944190553
30
0.0000000000
10
13.5839406442
20
-15.7297085900
30
0.0000000000
10
13.5839735345
20
-15.6863049313
30
0.0000000000
10
13.5839735345
20
-15.6645574175
30
0.0000000000
11
13.5708822358
21
-16.4145574175
31
0.0000000000
11
13.5720212136
21
-16.4117134773
31
0.0000000000
11
13.5731553930
21
-16.4031644753
31
0.0000000000
11
13.5742712405
21
-16.3889906232
31
0.0000000000
11
13.5753578573
21
-16.3693657922
31
0.0000000000
11
13.5764137969
21
-16.3443165947
31
0.0000000000
11
13.5774289765
21
-16.3140403688
31
0.0000000000
11
13.5783918351
21
-16.2788918111
31
0.0000000000
11
13.5792961102
21
-16.2391412325
31
0.0000000000
11
13.5801395543
21
-16.1948661693
31
0.0000000000
11
13.5809122858
21
-16.1465434174
31
0.0000000000
11
13.5816060251
21
-16.0947376858
31
0.0000000000
11
13.5822194473
21
-16.0395758568
31
0.0000000000
11
13.5827478073
21
-15.9814196713
31
0.0000000000
11
13.5831849219
21
-15.9209325019
31
0.0000000000
11
13.5835273804
21
-15.8586885782
31
0.0000000000
11
13.5837747264
21
-15.7947681817
31
0.0000000000
11
13.5839239078
21
-15.7297999400
31
0.0000000000
11
13.5839735345
21
-15.6645574175
31
0.0000000000
0
SPLINE
5
33E
100
AcDbEntity
8
0
100
AcDbSpline
62
7
6
CONTINUOUS
70
0
71
3
72
25
73
21
74
19
42
0.0000001000
43
0.0000001000
44
0.0000000001
12
-0.7504588480
22
0.0000000000
32
0.0000000000
13
0.0000000000
23
-0.7504588480
33
0.0000000000
40
0.0000000000
40
0.0000000000
40
0.0000000000
40
0.0000000000
40
0.0040963494
40
0.0155780674
40
0.0345099572
40
0.0607710527
40
0.0941700166
40
0.1344547200
40
0.1813225853
40
0.2344155136
40
0.2933320006
40
0.3576228847
40
0.4267986538
40
0.5003347554
40
0.5776688773
40
0.6582159079
40
0.7413608655
40
0.8264726377
40
0.9129053939
40
1.0000000000
40
1.0000000000
40
1.0000000000
40
1.0000000000
10
-2.7171263355
20
30.0854425825
30
0.0000000000
10
-2.7181510494
20
30.0854425825
30
0.0000000000
10
-2.7182968215
20
30.0796548548
30
0.0000000000
10
-2.7198920458
20
30.0728988225
30
0.0000000000
10
-2.7205789172
20
30.0577359175
30
0.0000000000
10
-2.7217773203
20
30.0385491818
30
0.0000000000
10
-2.7227453410
20
30.0133970365
30
0.0000000000
10
-2.7237594339
20
29.9833176912
30
0.0000000000
10
-2.7247008999
20
29.9482270677
30
0.0000000000
10
-2.7255978613
20
29.9085000318
30
0.0000000000
10
-2.7264301291
20
29.8644037052
30
0.0000000000
10
-2.7271946054
20
29.8162851373
30
0.0000000000
10
-2.7278838254
20
29.7645071361
30
0.0000000000
10
-2.7284926115
20
29.7094653630
30
0.0000000000
10
-2.7290160264
20
29.6515779689
30
0.0000000000
10
-2.7294499736
20
29.5912861111
30
0.0000000000
10
-2.7297910474
20
29.5290480211
30
0.0000000000
10
-2.7300365879
20
29.4653371413
30
0.0000000000
10
-2.7301846809
20
29.4006379439
30
0.0000000000
10
-2.7302176342
20
29.3572295551
30
0.0000000000
10
-2.7302176342
20
29.3354425825
30
0.0000000000
11
-2.7171263355
21
30.0854425825
31
0.0000000000
11
-2.7182674250
21
30.0825880665
31
0.0000000000
11
-2.7193998287
21
30.0740462450
31
0.0000000000
11
-2.7205149051
21
30.0598824665
31
0.0000000000
11
-2.7216041747
21
30.0402047204
31
0.0000000000
11
-2.7226593702
21
30.0151623937
31
0.0000000000
11
-2.7236724164
21
29.9849473595
31
0.0000000000
11
-2.7246356563
21
29.9497881476
31
0.0000000000
11
-2.7255417077
21
29.9099543928
31
0.0000000000
11
-2.7263837119
21
29.8657480120
31
0.0000000000
11
-2.7271552442
21
29.8175065184
31
0.0000000000
11
-2.7278504333
21
29.7655976054
31
0.0000000000
11
-2.7284640087
21
29.7104151984
31
0.0000000000
11
-2.7289912830
21
29.6523815176
31
0.0000000000
11
-2.7294282709
21
29.5919358654
31
0.0000000000
11
-2.7297716381
21
29.5295399411
31
0.0000000000
11
-2.7300187823
21
29.4656675367
31
0.0000000000
11
-2.7301678268
21
29.4008034813
31
0.0000000000
11
-2.7302176342
21
29.3354425825
31
0.0000000000
0
SPLINE
5
33F
100
AcDbEntity
8
0
100
AcDbSpline
62
7
6
CONTINUOUS
70
0
71
3
72
21
73
17
74
15
42
0.0000001000
43
0.0000001000
44
0.0000000001
12
-0.3925230246
22
0.0000000000
32
0.0000000000
13
0.0000000000
23
0.3925230246
33
0.0000000000
40
0.0000000000
40
0.0000000000
40
0.0000000000
40
0.0000000000
40
0.0714236128
40
0.1429215076
40
0.2142764821
40
0.2857959513
40
0.3571466683
40
0.4286392935
40
0.5000527343
40
0.5714639957
40
0.6429485803
40
0.7142867622
40
0.7857895018
40
0.8571243250
40
0.9286000887
40
1.0000000000
40
1.0000000000
40
1.0000000000
40
1.0000000000
10
16.0769160322
20
-17.1645574175
30
0.0000000000
10
16.0675708947
20
-17.1645574175
30
0.0000000000
10
16.0488539604
20
-17.1635070185
30
0.0000000000
10
16.0211586720
20
-17.1588006574
30
0.0000000000
10
15.9941488709
20
-17.1510200155
30
0.0000000000
10
15.9681984244
20
-17.1402716456
30
0.0000000000
10
15.9435987939
20
-17.1266769091
30
0.0000000000
10
15.9206867384
20
-17.1104217351
30
0.0000000000
10
15.8997335678
20
-17.0916975689
30
0.0000000000
10
15.8810087492
20
-17.0707463916
30
0.0000000000
10
15.8647538982
20
-17.0478377597
30
0.0000000000
10
15.8511601718
20
-17.0232431502
30
0.0000000000
10
15.8404130879
20
-16.9972991725
30
0.0000000000
10
15.8326336519
20
-16.9702970631
30
0.0000000000
10
15.8279281462
20
-16.9426103898
30
0.0000000000
10
15.8268779502
20
-16.9238994539
30
0.0000000000
10
15.8268779502
20
-16.9145574175
30
0.0000000000
11
16.0769160322
21
-17.1645574175
31
0.0000000000
11
16.0489246984
21
-17.1629859261
31
0.0000000000
11
16.0212566946
21
-17.1582846867
31
0.0000000000
11
15.9943427355
21
-17.1505314149
31
0.0000000000
11
15.9684063749
21
-17.1397889441
31
0.0000000000
11
15.9438937696
21
-17.1262422476
31
0.0000000000
11
15.9210062575
21
-17.1100044589
31
0.0000000000
11
15.9001045019
21
-17.0913262067
31
0.0000000000
11
15.8814255098
21
-17.0704262595
31
0.0000000000
11
15.8651881898
21
-17.0475422849
31
0.0000000000
11
15.8516425660
21
-17.0230347084
31
0.0000000000
11
15.8409014548
21
-16.9971048924
31
0.0000000000
11
15.8331494709
21
-16.9701987939
31
0.0000000000
11
15.8284491136
21
-16.9425394517
31
0.0000000000
11
15.8268779502
21
-16.9145574175
31
0.0000000000
0
SPLINE
5
340
100
AcDbEntity
8
0
100
AcDbSpline
62
7
6
CONTINUOUS
70
0
71
3
72
20
73
16
74
14
42
0.0000001000
43
0.0000001000
44
0.0000000001
12
0.0000000000
22
-0.2000140496
32
0.0000000000
13
0.2000140496
23
0.0000000000
33
0.0000000000
40
0.0000000000
40
0.0000000000
40
0.0000000000
40
0.0000000000
40
0.1201272594
40
0.2391495875
40
0.3543849050
40
0.4642329305
40
0.5679698183
40
0.6632469708
40
0.7483376422
40
0.8229843821
40
0.8856561487
40
0.9350534895
40
0.9709369726
40
0.9927210804
40
1.0000000000
40
1.0000000000
40
1.0000000000
40
1.0000000000
10
1.4761755048
20
29.5354425825
30
0.0000000000
10
1.4761755048
20
29.5274335360
30
0.0000000000
10
1.4761813293
20
29.5114891032
30
0.0000000000
10
1.4762075623
20
29.4878618234
30
0.0000000000
10
1.4762507816
20
29.4649197750
30
0.0000000000
10
1.4763107503
20
29.4429973023
30
0.0000000000
10
1.4763850645
20
29.4224040370
30
0.0000000000
10
1.4764777267
20
29.4034663679
30
0.0000000000
10
1.4765704973
20
29.3864526042
30
0.0000000000
10
1.4767133038
20
29.3716609806
30
0.0000000000
10
1.4767518347
20
29.3591090448
30
0.0000000000
10
1.4771010530
20
29.3495181918
30
0.0000000000
10
1.4767226897
20
29.3417523731
30
0.0000000000
10
1.4777503519
20
29.3385426210
30
0.0000000000
10
1.4769119550
20
29.3354425825
30
0.0000000000
10
1.4773972504
20
29.3354425825
30
0.0000000000
11
1.4761755048
21
29.5354425825
31
0.0000000000
11
1.4761843533
21
29.5114154445
31
0.0000000000
11
1.4762109615
21
29.4876093216
31
0.0000000000
11
1.4762548079
21
29.4645606807
31
0.0000000000
11
1.4763151546
21
29.4425896152
31
0.0000000000
11
1.4763917259
21
29.4218409215
31
0.0000000000
11
1.4764829430
21
29.4027843707
31
0.0000000000
11
1.4765869113
21
29.3857653585
31
0.0000000000
11
1.4767033118
21
29.3708354155
31
0.0000000000
11
1.4768300657
21
29.3583008226
31
0.0000000000
11
1.4769642996
21
29.3484215723
31
0.0000000000
11
1.4771050775
21
29.3412457523
31
0.0000000000
11
1.4772504769
21
29.3368910514
31
0.0000000000
11
1.4773972504
21
29.3354425825
31
0.0000000000
0
SPLINE
5
341
100
AcDbEntity
8
0
100
AcDbSpline
62
7
6
CONTINUOUS
70
0
71
3
72
20
73
16
74
14
42
0.0000001000
43
0.0000001000
44
0.0000000001
12
0.0000000000
22
0.2000140496
32
0.0000000000
13
-0.2000140496
23
-0.0000000000
33
0.0000000000
40
0.0000000000
40
0.0000000000
40
0.0000000000
40
0.0000000000
40
0.1201272594
40
0.2391495875
40
0.3543849050
40
0.4642329305
40
0.5679698183
40
0.6632469708
40
0.7483376422
40
0.8229843821
40
0.8856561487
40
0.9350534895
40
0.9709369726
40
0.9927210804
40
1.0000000000
40
1.0000000000
40
1.0000000000
40
1.0000000000
10
9.3775803956
20
-15.8645574175
30
0.0000000000
10
9.3775803956
20
-15.8565483710
30
0.0000000000
10
9.3775745711
20
-15.8406039382
30
0.0000000000
10
9.3775483381
20
-15.8169766584
30
0.0000000000
10
9.3775051188
20
-15.7940346100
30
0.0000000000
10
9.3774451500
20
-15.7721121373
30
0.0000000000
10
9.3773708359
20
-15.7515188720
30
0.0000000000
10
9.3772781737
20
-15.7325812029
30
0.0000000000
10
9.3771854031
20
-15.7155674392
30
0.0000000000
10
9.3770425965
20
-15.7007758156
30
0.0000000000
10
9.3770040657
20
-15.6882238798
30
0.0000000000
10
9.3766548474
20
-15.6786330268
30
0.0000000000
10
9.3770332107
20
-15.6708672081
30
0.0000000000
10
9.3760055485
20
-15.6676574560
30
0.0000000000
10
9.3768439453
20
-15.6645574175
30
0.0000000000
10
9.3763586500
20
-15.6645574175
30
0.0000000000
11
9.3775803956
21
-15.8645574175
31
0.0000000000
11
9.3775715471
21
-15.8405302795
31
0.0000000000
11
9.3775449389
21
-15.8167241566
31
0.0000000000
11
9.3775010925
21
-15.7936755158
31
0.0000000000
11
9.3774407457
21
-15.7717044502
31
0.0000000000
11
9.3773641745
21
-15.7509557565
31
0.0000000000
11
9.3772729574
21
-15.7318992057
31
0.0000000000
11
9.3771689890
21
-15.7148801935
31
0.0000000000
11
9.3770525886
21
-15.6999502505
31
0.0000000000
11
9.3769258347
21
-15.6874156576
31
0.0000000000
11
9.3767916007
21
-15.6775364073
31
0.0000000000
11
9.3766508229
21
-15.6703605873
31
0.0000000000
11
9.3765054234
21
-15.6660058864
31
0.0000000000
11
9.3763586500
21
-15.6645574175
31
0.0000000000
0
SPLINE
5
342
100
AcDbEntity
8
0
100
AcDbSpline
62
7
6
CONTINUOUS
70
0
71
3
72
25
73
21
74
19
42
0.0000001000
43
0.0000001000
44
0.0000000001
12
0.0000000000
22
0.7504588480
32
0.0000000000
13
-0.7504588480
23
0.0000000000
33
0.0000000000
40
0.0000000000
40
0.0000000000
40
0.0000000000
40
0.0000000000
40
0.0870946061
40
0.1735273623
40
0.2586391345
40
0.3417840921
40
0.4223311227
40
0.4996652446
40
0.5732013462
40
0.6423771153
40
0.7066679994
40
0.7655844864
40
0.8186774147
40
0.8655452800
40
0.9058299834
40
0.9392289473
40
0.9654900428
40
0.9844219326
40
0.9959036506
40
1.0000000000
40
1.0000000000
40
1.0000000000
40
1.0000000000
10
13.5839735345
20
29.3354425825
30
0.0000000000
10
13.5839735345
20
29.3572295551
30
0.0000000000
10
13.5839405813
20
29.4006379439
30
0.0000000000
10
13.5837924882
20
29.4653371413
30
0.0000000000
10
13.5835469478
20
29.5290480211
30
0.0000000000
10
13.5832058740
20
29.5912861111
30
0.0000000000
10
13.5827719268
20
29.6515779689
30
0.0000000000
10
13.5822485119
20
29.7094653630
30
0.0000000000
10
13.5816397258
20
29.7645071361
30
0.0000000000
10
13.5809505058
20
29.8162851373
30
0.0000000000
10
13.5801860294
20
29.8644037052
30
0.0000000000
10
13.5793537616
20
29.9085000318
30
0.0000000000
10
13.5784568002
20
29.9482270677
30
0.0000000000
10
13.5775153343
20
29.9833176912
30
0.0000000000
10
13.5765012414
20
30.0133970365
30
0.0000000000
10
13.5755332207
20
30.0385491818
30
0.0000000000
10
13.5743348176
20
30.0577359175
30
0.0000000000
10
13.5736479462
20
30.0728988225
30
0.0000000000
10
13.5720527219
20
30.0796548548
30
0.0000000000
10
13.5719069497
20
30.0854425825
30
0.0000000000
10
13.5708822358
20
30.0854425825
30
0.0000000000
11
13.5839735345
21
29.3354425825
31
0.0000000000
11
13.5839237272
21
29.4008034813
31
0.0000000000
11
13.5837746827
21
29.4656675367
31
0.0000000000
11
13.5835275385
21
29.5295399411
31
0.0000000000
11
13.5831841713
21
29.5919358654
31
0.0000000000
11
13.5827471833
21
29.6523815176
31
0.0000000000
11
13.5822199090
21
29.7104151984
31
0.0000000000
11
13.5816063336
21
29.7655976054
31
0.0000000000
11
13.5809111446
21
29.8175065184
31
0.0000000000
11
13.5801396123
21
29.8657480120
31
0.0000000000
11
13.5792976081
21
29.9099543928
31
0.0000000000
11
13.5783915567
21
29.9497881476
31
0.0000000000
11
13.5774283168
21
29.9849473595
31
0.0000000000
11
13.5764152706
21
30.0151623937
31
0.0000000000
11
13.5753600751
21
30.0402047204
31
0.0000000000
11
13.5742708055
21
30.0598824665
31
0.0000000000
11
13.5731557291
21
30.0740462450
31
0.0000000000
11
13.5720233254
21
30.0825880665
31
0.0000000000
11
13.5708822358
21
30.0854425825
31
0.0000000000
0
SPLINE
5
343
100
AcDbEntity
8
0
100
AcDbSpline
62
7
6
CONTINUOUS
70
0
71
3
72
21
73
17
74
15
42
0.0000001000
43
0.0000001000
44
0.0000000001
12
0.0000000000
22
-0.3925230246
32
0.0000000000
13
-0.3925230246
23
0.0000000000
33
0.0000000000
40
0.0000000000
40
0.0000000000
40
0.0000000000
40
0.0000000000
40
0.0713999113
40
0.1428756750
40
0.2142104982
40
0.2857132378
40
0.3570514197
40
0.4285360043
40
0.4999472657
40
0.5713607065
40
0.6428533317
40
0.7142040487
40
0.7857235179
40
0.8570784924
40
0.9285763872
40
1.0000000000
40
1.0000000000
40
1.0000000000
40
1.0000000000
10
17.8268779502
20
-16.9145574175
30
0.0000000000
10
17.8268779502
20
-16.9238994539
30
0.0000000000
10
17.8258277541
20
-16.9426103898
30
0.0000000000
10
17.8211222485
20
-16.9702970631
30
0.0000000000
10
17.8133428125
20
-16.9972991725
30
0.0000000000
10
17.8025957286
20
-17.0232431502
30
0.0000000000
10
17.7890020022
20
-17.0478377597
30
0.0000000000
10
17.7727471512
20
-17.0707463916
30
0.0000000000
10
17.7540223326
20
-17.0916975689
30
0.0000000000
10
17.7330691620
20
-17.1104217351
30
0.0000000000
10
17.7101571065
20
-17.1266769091
30
0.0000000000
10
17.6855574760
20
-17.1402716456
30
0.0000000000
10
17.6596070295
20
-17.1510200155
30
0.0000000000
10
17.6325972284
20
-17.1588006574
30
0.0000000000
10
17.6049019400
20
-17.1635070185
30
0.0000000000
10
17.5861850057
20
-17.1645574175
30
0.0000000000
10
17.5768398682
20
-17.1645574175
30
0.0000000000
11
17.8268779502
21
-16.9145574175
31
0.0000000000
11
17.8253067868
21
-16.9425394517
31
0.0000000000
11
17.8206064295
21
-16.9701987939
31
0.0000000000
11
17.8128544456
21
-16.9971048924
31
0.0000000000
11
17.8021133343
21
-17.0230347084
31
0.0000000000
11
17.7885677106
21
-17.0475422849
31
0.0000000000
11
17.7723303905
21
-17.0704262595
31
0.0000000000
11
17.7536513985
21
-17.0913262067
31
0.0000000000
11
17.7327496429
21
-17.1100044589
31
0.0000000000
11
17.7098621308
21
-17.1262422476
31
0.0000000000
11
17.6853495255
21
-17.1397889441
31
0.0000000000
11
17.6594131648
21
-17.1505314149
31
0.0000000000
11
17.6324992058
21
-17.1582846867
31
0.0000000000
11
17.6048312020
21
-17.1629859261
31
0.0000000000
11
17.5768398682
21
-17.1645574175
31
0.0000000000
0
SPLINE
5
344
100
AcDbEntity
8
0
100
AcDbSpline
62
7
6
CONTINUOUS
70
0
71
3
72
21
73
17
74
15
42
0.0000001000
43
0.0000001000
44
0.0000000001
12
0.0000000000
22
0.3925230246
32
0.0000000000
13
0.3925230246
23
0.0000000000
33
0.0000000000
40
0.0000000000
40
0.0000000000
40
0.0000000000
40
0.0000000000
40
0.0713999113
40
0.1428756750
40
0.2142104982
40
0.2857132378
40
0.3570514197
40
0.4285360043
40
0.4999472657
40
0.5713607065
40
0.6428533317
40
0.7142040487
40
0.7857235179
40
0.8570784924
40
0.9285763872
40
1.0000000000
40
1.0000000000
40
1.0000000000
40
1.0000000000
10
15.8268779502
20
30.5854425825
30
0.0000000000
10
15.8268779502
20
30.5947846189
30
0.0000000000
10
15.8279281462
20
30.6134955548
30
0.0000000000
10
15.8326336519
20
30.6411822281
30
0.0000000000
10
15.8404130879
20
30.6681843375
30
0.0000000000
10
15.8511601718
20
30.6941283152
30
0.0000000000
10
15.8647538982
20
30.7187229247
30
0.0000000000
10
15.8810087492
20
30.7416315566
30
0.0000000000
10
15.8997335678
20
30.7625827339
30
0.0000000000
10
15.9206867384
20
30.7813069001
30
0.0000000000
10
15.9435987939
20
30.7975620741
30
0.0000000000
10
15.9681984244
20
30.8111568106
30
0.0000000000
10
15.9941488709
20
30.8219051805
30
0.0000000000
10
16.0211586720
20
30.8296858224
30
0.0000000000
10
16.0488539604
20
30.8343921835
30
0.0000000000
10
16.0675708947
20
30.8354425825
30
0.0000000000
10
16.0769160322
20
30.8354425825
30
0.0000000000
11
15.8268779502
21
30.5854425825
31
0.0000000000
11
15.8284491136
21
30.6134246167
31
0.0000000000
11
15.8331494709
21
30.6410839589
31
0.0000000000
11
15.8409014548
21
30.6679900574
31
0.0000000000
11
15.8516425660
21
30.6939198734
31
0.0000000000
11
15.8651881898
21
30.7184274498
31
0.0000000000
11
15.8814255098
21
30.7413114245
31
0.0000000000
11
15.9001045019
21
30.7622113717
31
0.0000000000
11
15.9210062575
21
30.7808896239
31
0.0000000000
11
15.9438937696
21
30.7971274126
31
0.0000000000
11
15.9684063749
21
30.8106741091
31
0.0000000000
11
15.9943427355
21
30.8214165799
31
0.0000000000
11
16.0212566946
21
30.8291698517
31
0.0000000000
11
16.0489246984
21
30.8338710911
31
0.0000000000
11
16.0769160322
21
30.8354425825
31
0.0000000000
0
SPLINE
5
345
100
AcDbEntity
8
0
100
AcDbSpline
62
7
6
CONTINUOUS
70
0
71
3
72
21
73
17
74
15
42
0.0000001000
43
0.0000001000
44
0.0000000001
12
0.3925230246
22
0.0000000000
32
0.0000000000
13
0.0000000000
23
-0.3925230246
33
0.0000000000
40
0.0000000000
40
0.0000000000
40
0.0000000000
40
0.0000000000
40
0.0714236128
40
0.1429215076
40
0.2142764821
40
0.2857959513
40
0.3571466683
40
0.4286392935
40
0.5000527343
40
0.5714639957
40
0.6429485803
40
0.7142867622
40
0.7857895018
40
0.8571243250
40
0.9286000887
40
1.0000000000
40
1.0000000000
40
1.0000000000
40
1.0000000000
10
17.5768398682
20
30.8354425825
30
0.0000000000
10
17.5861850057
20
30.8354425825
30
0.0000000000
10
17.6049019400
20
30.8343921835
30
0.0000000000
10
17.6325972284
20
30.8296858224
30
0.0000000000
10
17.6596070295
20
30.8219051805
30
0.0000000000
10
17.6855574760
20
30.8111568106
30
0.0000000000
10
17.7101571065
20
30.7975620741
30
0.0000000000
10
17.7330691620
20
30.7813069001
30
0.0000000000
10
17.7540223326
20
30.7625827339
30
0.0000000000
10
17.7727471512
20
30.7416315566
30
0.0000000000
10
17.7890020022
20
30.7187229247
30
0.0000000000
10
17.8025957286
20
30.6941283152
30
0.0000000000
10
17.8133428125
20
30.6681843375
30
0.0000000000
10
17.8211222485
20
30.6411822281
30
0.0000000000
10
17.8258277541
20
30.6134955548
30
0.0000000000
10
17.8268779502
20
30.5947846189
30
0.0000000000
10
17.8268779502
20
30.5854425825
30
0.0000000000
11
17.5768398682
21
30.8354425825
31
0.0000000000
11
17.6048312020
21
30.8338710911
31
0.0000000000
11
17.6324992058
21
30.8291698517
31
0.0000000000
11
17.6594131648
21
30.8214165799
31
0.0000000000
11
17.6853495255
21
30.8106741091
31
0.0000000000
11
17.7098621308
21
30.7971274126
31
0.0000000000
11
17.7327496429
21
30.7808896239
31
0.0000000000
11
17.7536513985
21
30.7622113717
31
0.0000000000
11
17.7723303905
21
30.7413114245
31
0.0000000000
11
17.7885677106
21
30.7184274498
31
0.0000000000
11
17.8021133343
21
30.6939198734
31
0.0000000000
11
17.8128544456
21
30.6679900574
31
0.0000000000
11
17.8206064295
21
30.6410839589
31
0.0000000000
11
17.8253067868
21
30.6134246167
31
0.0000000000
11
17.8268779502
21
30.5854425825
31
0.0000000000
0
SPLINE
5
346
100
AcDbEntity
8
0
100
AcDbSpline
62
7
6
CONTINUOUS
70
0
71
3
72
21
73
17
74
15
42
0.0000001000
43
0.0000001000
44
0.0000000001
12
0.0000000000
22
-0.3925230246
32
0.0000000000
13
-0.3925230246
23
0.0000000000
33
0.0000000000
40
0.0000000000
40
0.0000000000
40
0.0000000000
40
0.0000000000
40
0.0713999113
40
0.1428756750
40
0.2142104982
40
0.2857132378
40
0.3570514197
40
0.4285360043
40
0.4999472657
40
0.5713607065
40
0.6428533317
40
0.7142040487
40
0.7857235179
40
0.8570784924
40
0.9285763872
40
1.0000000000
40
1.0000000000
40
1.0000000000
40
1.0000000000
10
-4.9731220498
20
-16.9145574175
30
0.0000000000
10
-4.9731220498
20
-16.9238994539
30
0.0000000000
10
-4.9741722459
20
-16.9426103898
30
0.0000000000
10
-4.9788777515
20
-16.9702970631
30
0.0000000000
10
-4.9866571875
20
-16.9972991725
30
0.0000000000
10
-4.9974042714
20
-17.0232431502
30
0.0000000000
10
-5.0109979978
20
-17.0478377597
30
0.0000000000
10
-5.0272528488
20
-17.0707463916
30
0.0000000000
10
-5.0459776674
20
-17.0916975689
30
0.0000000000
10
-5.0669308380
20
-17.1104217351
30
0.0000000000
10
-5.0898428935
20
-17.1266769091
30
0.0000000000
10
-5.1144425240
20
-17.1402716456
30
0.0000000000
10
-5.1403929705
20
-17.1510200155
30
0.0000000000
10
-5.1674027716
20
-17.1588006574
30
0.0000000000
10
-5.1950980600
20
-17.1635070185
30
0.0000000000
10
-5.2138149943
20
-17.1645574175
30
0.0000000000
10
-5.2231601318
20
-17.1645574175
30
0.0000000000
11
-4.9731220498
21
-16.9145574175
31
0.0000000000
11
-4.9746932132
21
-16.9425394517
31
0.0000000000
11
-4.9793935705
21
-16.9701987939
31
0.0000000000
11
-4.9871455544
21
-16.9971048924
31
0.0000000000
11
-4.9978866657
21
-17.0230347084
31
0.0000000000
11
-5.0114322894
21
-17.0475422849
31
0.0000000000
11
-5.0276696095
21
-17.0704262595
31
0.0000000000
11
-5.0463486015
21
-17.0913262067
31
0.0000000000
11
-5.0672503571
21
-17.1100044589
31
0.0000000000
11
-5.0901378692
21
-17.1262422476
31
0.0000000000
11
-5.1146504745
21
-17.1397889441
31
0.0000000000
11
-5.1405868352
21
-17.1505314149
31
0.0000000000
11
-5.1675007942
21
-17.1582846867
31
0.0000000000
11
-5.1951687980
21
-17.1629859261
31
0.0000000000
11
-5.2231601318
21
-17.1645574175
31
0.0000000000
0
SPLINE
5
347
100
AcDbEntity
8
0
100
AcDbSpline
62
7
6
CONTINUOUS
70
0
71
3
72
21
73
17
74
15
42
0.0000001000
43
0.0000001000
44
0.0000000001
12
-0.3925230246
22
0.0000000000
32
0.0000000000
13
0.0000000000
23
0.3925230246
33
0.0000000000
40
0.0000000000
40
0.0000000000
40
0.0000000000
40
0.0000000000
40
0.0714236128
40
0.1429215076
40
0.2142764821
40
0.2857959513
40
0.3571466683
40
0.4286392935
40
0.5000527343
40
0.5714639957
40
0.6429485803
40
0.7142867622
40
0.7857895018
40
0.8571243250
40
0.9286000887
40
1.0000000000
40
1.0000000000
40
1.0000000000
40
1.0000000000
10
-6.7230839678
20
-17.1645574175
30
0.0000000000
10
-6.7324291053
20
-17.1645574175
30
0.0000000000
10
-6.7511460396
20
-17.1635070185
30
0.0000000000
10
-6.7788413280
20
-17.1588006574
30
0.0000000000
10
-6.8058511291
20
-17.1510200155
30
0.0000000000
10
-6.8318015756
20
-17.1402716456
30
0.0000000000
10
-6.8564012061
20
-17.1266769091
30
0.0000000000
10
-6.8793132616
20
-17.1104217351
30
0.0000000000
10
-6.9002664322
20
-17.0916975689
30
0.0000000000
10
-6.9189912508
20
-17.0707463916
30
0.0000000000
10
-6.9352461018
20
-17.0478377597
30
0.0000000000
10
-6.9488398282
20
-17.0232431502
30
0.0000000000
10
-6.9595869121
20
-16.9972991725
30
0.0000000000
10
-6.9673663481
20
-16.9702970631
30
0.0000000000
10
-6.9720718538
20
-16.9426103898
30
0.0000000000
10
-6.9731220498
20
-16.9238994539
30
0.0000000000
10
-6.9731220498
20
-16.9145574175
30
0.0000000000
11
-6.7230839678
21
-17.1645574175
31
0.0000000000
11
-6.7510753016
21
-17.1629859261
31
0.0000000000
11
-6.7787433054
21
-17.1582846867
31
0.0000000000
11
-6.8056572645
21
-17.1505314149
31
0.0000000000
11
-6.8315936251
21
-17.1397889441
31
0.0000000000
11
-6.8561062304
21
-17.1262422476
31
0.0000000000
11
-6.8789937425
21
-17.1100044589
31
0.0000000000
11
-6.8998954981
21
-17.0913262067
31
0.0000000000
11
-6.9185744902
21
-17.0704262595
31
0.0000000000
11
-6.9348118102
21
-17.0475422849
31
0.0000000000
11
-6.9483574340
21
-17.0230347084
31
0.0000000000
11
-6.9590985452
21
-16.9971048924
31
0.0000000000
11
-6.9668505291
21
-16.9701987939
31
0.0000000000
11
-6.9715508864
21
-16.9425394517
31
0.0000000000
11
-6.9731220498
21
-16.9145574175
31
0.0000000000
0
SPLINE
5
348
100
AcDbEntity
8
0
100
AcDbSpline
62
7
6
CONTINUOUS
70
0
71
3
72
21
73
17
74
15
42
0.0000001000
43
0.0000001000
44
0.0000000001
12
0.3925230246
22
0.0000000000
32
0.0000000000
13
0.0000000000
23
-0.3925230246
33
0.0000000000
40
0.0000000000
40
0.0000000000
40
0.0000000000
40
0.0000000000
40
0.0714236128
40
0.1429215076
40
0.2142764821
40
0.2857959513
40
0.3571466683
40
0.4286392935
40
0.5000527343
40
0.5714639957
40
0.6429485803
40
0.7142867622
40
0.7857895018
40
0.8571243250
40
0.9286000887
40
1.0000000000
40
1.0000000000
40
1.0000000000
40
1.0000000000
10
-5.2231601318
20
30.8354425825
30
0.0000000000
10
-5.2138149943
20
30.8354425825
30
0.0000000000
10
-5.1950980600
20
30.8343921835
30
0.0000000000
10
-5.1674027716
20
30.8296858224
30
0.0000000000
10
-5.1403929705
20
30.8219051805
30
0.0000000000
10
-5.1144425240
20
30.8111568106
30
0.0000000000
10
-5.0898428935
20
30.7975620741
30
0.0000000000
10
-5.0669308380
20
30.7813069001
30
0.0000000000
10
-5.0459776674
20
30.7625827339
30
0.0000000000
10
-5.0272528488
20
30.7416315566
30
0.0000000000
10
-5.0109979978
20
30.7187229247
30
0.0000000000
10
-4.9974042714
20
30.6941283152
30
0.0000000000
10
-4.9866571875
20
30.6681843375
30
0.0000000000
10
-4.9788777515
20
30.6411822281
30
0.0000000000
10
-4.9741722459
20
30.6134955548
30
0.0000000000
10
-4.9731220498
20
30.5947846189
30
0.0000000000
10
-4.9731220498
20
30.5854425825
30
0.0000000000
11
-5.2231601318
21
30.8354425825
31
0.0000000000
11
-5.1951687980
21
30.8338710911
31
0.0000000000
11
-5.1675007942
21
30.8291698517
31
0.0000000000
11
-5.1405868352
21
30.8214165799
31
0.0000000000
11
-5.1146504745
21
30.8106741091
31
0.0000000000
11
-5.0901378692
21
30.7971274126
31
0.0000000000
11
-5.0672503571
21
30.7808896239
31
0.0000000000
11
-5.0463486015
21
30.7622113717
31
0.0000000000
11
-5.0276696095
21
30.7413114245
31
0.0000000000
11
-5.0114322894
21
30.7184274498
31
0.0000000000
11
-4.9978866657
21
30.6939198734
31
0.0000000000
11
-4.9871455544
21
30.6679900574
31
0.0000000000
11
-4.9793935705
21
30.6410839589
31
0.0000000000
11
-4.9746932132
21
30.6134246167
31
0.0000000000
11
-4.9731220498
21
30.5854425825
31
0.0000000000
0
SPLINE
5
349
100
AcDbEntity
8
0
100
AcDbSpline
62
7
6
CONTINUOUS
70
0
71
3
72
21
73
17
74
15
42
0.0000001000
43
0.0000001000
44
0.0000000001
12
0.0000000000
22
0.3925230246
32
0.0000000000
13
0.3925230246
23
0.0000000000
33
0.0000000000
40
0.0000000000
40
0.0000000000
40
0.0000000000
40
0.0000000000
40
0.0713999113
40
0.1428756750
40
0.2142104982
40
0.2857132378
40
0.3570514197
40
0.4285360043
40
0.4999472657
40
0.5713607065
40
0.6428533317
40
0.7142040487
40
0.7857235179
40
0.8570784924
40
0.9285763872
40
1.0000000000
40
1.0000000000
40
1.0000000000
40
1.0000000000
10
-6.9731220498
20
30.5854425825
30
0.0000000000
10
-6.9731220498
20
30.5947846189
30
0.0000000000
10
-6.9720718538
20
30.6134955548
30
0.0000000000
10
-6.9673663481
20
30.6411822281
30
0.0000000000
10
-6.9595869121
20
30.6681843375
30
0.0000000000
10
-6.9488398282
20
30.6941283152
30
0.0000000000
10
-6.9352461018
20
30.7187229247
30
0.0000000000
10
-6.9189912508
20
30.7416315566
30
0.0000000000
10
-6.9002664322
20
30.7625827339
30
0.0000000000
10
-6.8793132616
20
30.7813069001
30
0.0000000000
10
-6.8564012061
20
30.7975620741
30
0.0000000000
10
-6.8318015756
20
30.8111568106
30
0.0000000000
10
-6.8058511291
20
30.8219051805
30
0.0000000000
10
-6.7788413280
20
30.8296858224
30
0.0000000000
10
-6.7511460396
20
30.8343921835
30
0.0000000000
10
-6.7324291053
20
30.8354425825
30
0.0000000000
10
-6.7230839678
20
30.8354425825
30
0.0000000000
11
-6.9731220498
21
30.5854425825
31
0.0000000000
11
-6.9715508864
21
30.6134246167
31
0.0000000000
11
-6.9668505291
21
30.6410839589
31
0.0000000000
11
-6.9590985452
21
30.6679900574
31
0.0000000000
11
-6.9483574340
21
30.6939198734
31
0.0000000000
11
-6.9348118102
21
30.7184274498
31
0.0000000000
11
-6.9185744902
21
30.7413114245
31
0.0000000000
11
-6.8998954981
21
30.7622113717
31
0.0000000000
11
-6.8789937425
21
30.7808896239
31
0.0000000000
11
-6.8561062304
21
30.7971274126
31
0.0000000000
11
-6.8315936251
21
30.8106741091
31
0.0000000000
11
-6.8056572645
21
30.8214165799
31
0.0000000000
11
-6.7787433054
21
30.8291698517
31
0.0000000000
11
-6.7510753016
21
30.8338710911
31
0.0000000000
11
-6.7230839678
21
30.8354425825
31
0.0000000000
0
SPLINE
5
34A
100
AcDbEntity
8
0
100
AcDbSpline
62
7
6
CONTINUOUS
70
0
71
3
72
25
73
21
74
19
42
0.0000001000
43
0.0000001000
44
0.0000000001
12
0.0000000000
22
-0.7504590076
32
0.0000000000
13
0.7504590076
23
0.0000000000
33
0.0000000000
40
0.0000000000
40
0.0000000000
40
0.0000000000
40
0.0000000000
40
0.0869368489
40
0.1735084169
40
0.2586841219
40
0.3416265147
40
0.4222288503
40
0.4997262019
40
0.5732348668
40
0.6422731164
40
0.7066722767
40
0.7656802917
40
0.8186623499
40
0.8655159995
40
0.9058822829
40
0.9392904287
40
0.9654809208
40
0.9844262690
40
0.9959177808
40
1.0000000000
40
1.0000000000
40
1.0000000000
40
1.0000000000
10
-2.7302176342
20
-15.6645574175
30
0.0000000000
10
-2.7302176342
20
-15.6863049313
30
0.0000000000
10
-2.7301847438
20
-15.7297085900
30
0.0000000000
10
-2.7300367283
20
-15.7944190553
30
0.0000000000
10
-2.7297911735
20
-15.8581299936
30
0.0000000000
10
-2.7294502788
20
-15.9203472528
30
0.0000000000
10
-2.7290164766
20
-15.9806431195
30
0.0000000000
10
-2.7284926670
20
-16.0385783282
30
0.0000000000
10
-2.7278838095
20
-16.0936196805
30
0.0000000000
10
-2.7271948277
20
-16.1453835154
30
0.0000000000
10
-2.7264302185
20
-16.1935176733
30
0.0000000000
10
-2.7255974244
20
-16.2376362532
30
0.0000000000
10
-2.7247005163
20
-16.2773549131
30
0.0000000000
10
-2.7237593895
20
-16.3124346599
30
0.0000000000
10
-2.7227446927
20
-16.3425330399
30
0.0000000000
10
-2.7217758780
20
-16.3676902216
30
0.0000000000
10
-2.7205785952
20
-16.3868659673
30
0.0000000000
10
-2.7198912201
20
-16.4020168386
30
0.0000000000
10
-2.7182976690
20
-16.4087741834
30
0.0000000000
10
-2.7181475149
20
-16.4145574175
30
0.0000000000
10
-2.7171263355
20
-16.4145574175
30
0.0000000000
11
-2.7302176342
21
-15.6645574175
31
0.0000000000
11
-2.7301680074
21
-15.7297999400
31
0.0000000000
11
-2.7300188260
21
-15.7947681817
31
0.0000000000
11
-2.7297714800
21
-15.8586885782
31
0.0000000000
11
-2.7294290216
21
-15.9209325019
31
0.0000000000
11
-2.7289919069
21
-15.9814196713
31
0.0000000000
11
-2.7284635469
21
-16.0395758568
31
0.0000000000
11
-2.7278501247
21
-16.0947376858
31
0.0000000000
11
-2.7271563854
21
-16.1465434174
31
0.0000000000
11
-2.7263836539
21
-16.1948661693
31
0.0000000000
11
-2.7255402098
21
-16.2391412325
31
0.0000000000
11
-2.7246359347
21
-16.2788918111
31
0.0000000000
11
-2.7236730762
21
-16.3140403688
31
0.0000000000
11
-2.7226578965
21
-16.3443165947
31
0.0000000000
11
-2.7216019569
21
-16.3693657922
31
0.0000000000
11
-2.7205153401
21
-16.3889906232
31
0.0000000000
11
-2.7193994926
21
-16.4031644753
31
0.0000000000
11
-2.7182653132
21
-16.4117134773
31
0.0000000000
11
-2.7171263355
21
-16.4145574175
31
0.0000000000
0
SPLINE
5
34B
100
AcDbEntity
8
0
100
AcDbSpline
62
9
6
CONTINUOUS
70
0
71
3
72
21
73
17
74
15
42
0.0000001000
43
0.0000001000
44
0.0000000001
12
0.3924632419
22
0.0000000000
32
0.0000000000
13
-0.0000000000
23
-0.3924632419
33
0.0000000000
40
0.0000000000
40
0.0000000000
40
0.0000000000
40
0.0000000000
40
0.0714231657
40
0.1428466024
40
0.2142705677
40
0.2856952926
40
0.3571209699
40
0.4285477447
40
0.4999757071
40
0.5714048877
40
0.6428352559
40
0.7142667216
40
0.7856991396
40
0.8571323171
40
0.9285660230
40
1.0000000000
40
1.0000000000
40
1.0000000000
40
1.0000000000
10
17.4502906474
20
29.3354425825
30
0.0000000000
10
17.4596343032
20
29.3354425825
30
0.0000000000
10
17.4783386106
20
29.3343924117
30
0.0000000000
10
17.5060287254
20
29.3296864566
30
0.0000000000
10
17.5330215396
20
29.3219089837
30
0.0000000000
10
17.5589729778
20
29.3111578021
30
0.0000000000
10
17.5835579227
20
29.2975681182
30
0.0000000000
10
17.6064668721
20
29.2813108335
30
0.0000000000
10
17.6274118228
20
29.2625903985
30
0.0000000000
10
17.6461293584
20
29.2416422304
30
0.0000000000
10
17.6623841048
20
29.2187297907
30
0.0000000000
10
17.6759716511
20
29.1941411289
30
0.0000000000
10
17.6867211307
20
29.1681857932
30
0.0000000000
10
17.6944973661
20
29.1411889475
30
0.0000000000
10
17.6992025698
20
29.1134947101
30
0.0000000000
10
17.7002525712
20
29.0947876526
30
0.0000000000
10
17.7002525712
20
29.0854425825
30
0.0000000000
11
17.4502906474
21
29.3354425825
31
0.0000000000
11
17.4782775033
21
29.3338706350
31
0.0000000000
11
17.5059124082
21
29.3291745605
31
0.0000000000
11
17.5328478372
21
29.3214134151
31
0.0000000000
11
17.5587450616
21
29.3106847995
31
0.0000000000
11
17.5832784088
21
29.2971236323
31
0.0000000000
11
17.6061393578
21
29.2809004531
31
0.0000000000
11
17.6270404188
21
29.2622192778
31
0.0000000000
11
17.6457187489
21
29.2413150330
31
0.0000000000
11
17.6619394572
21
29.2184506016
31
0.0000000000
11
17.6754985589
21
29.1939135173
31
0.0000000000
11
17.6862255405
21
29.1680123480
31
0.0000000000
11
17.6939855039
21
29.1410728160
31
0.0000000000
11
17.6986808631
21
29.1134337015
31
0.0000000000
11
17.7002525712
21
29.0854425825
31
0.0000000000
0
SPLINE
5
34C
100
AcDbEntity
8
0
100
AcDbSpline
62
9
6
CONTINUOUS
70
0
71
3
72
59
73
55
74
53
42
0.0000001000
43
0.0000001000
44
0.0000000001
12
-0.0004838222
22
-11.1506681602
32
0.0000000000
13
-0.0004873095
23
11.1506681601
33
0.0000000000
40
0.0000000000
40
0.0000000000
40
0.0000000000
40
0.0000000000
40
0.0191691802
40
0.0383975832
40
0.0576612152
40
0.0769371907
40
0.0962036546
40
0.1154556033
40
0.1347038433
40
0.1539496912
40
0.1731929934
40
0.1924349185
40
0.2116761049
40
0.2309167399
40
0.2501554611
40
0.2693899641
40
0.2886198821
40
0.3078467560
40
0.3270716773
40
0.3462941358
40
0.3655136131
40
0.3847304799
40
0.4039452890
40
0.4231584517
40
0.4423700843
40
0.4615805429
40
0.4807901957
40
0.4999994966
40
0.5192087975
40
0.5384184495
40
0.5576289063
40
0.5768405368
40
0.5960536987
40
0.6152685073
40
0.6344853695
40
0.6537048396
40
0.6729272967
40
0.6921522275
40
0.7113791050
40
0.7306090048
40
0.7498434834
40
0.7690822046
40
0.7883228646
40
0.8075640864
40
0.8268060789
40
0.8460494424
40
0.8652950327
40
0.8845425519
40
0.9037939630
40
0.9230599730
40
0.9423357998
40
0.9615998799
40
0.9808294505
40
1.0000000000
40
1.0000000000
40
1.0000000000
40
1.0000000000
10
8.9748536460
20
4.8330868699
30
0.0000000000
10
8.9748505545
20
4.7618371475
30
0.0000000000
10
8.9705530961
20
4.6190806028
30
0.0000000000
10
8.9512122032
20
4.4055105332
30
0.0000000000
10
8.9189631828
20
4.1930949561
30
0.0000000000
10
8.8739129036
20
3.9828787173
30
0.0000000000
10
8.8162569754
20
3.7758094106
30
0.0000000000
10
8.7462368683
20
3.5726970913
30
0.0000000000
10
8.6641138635
20
3.3742523453
30
0.0000000000
10
8.5701766471
20
3.1811552420
30
0.0000000000
10
8.4647666129
20
2.9941008768
30
0.0000000000
10
8.3482664760
20
2.8137653644
30
0.0000000000
10
8.2210971158
20
2.6408003657
30
0.0000000000
10
8.0837230910
20
2.4758391035
30
0.0000000000
10
7.9366544177
20
2.3194933745
30
0.0000000000
10
7.7804406893
20
2.1723426303
30
0.0000000000
10
7.6156589493
20
2.0349230747
30
0.0000000000
10
7.4429073425
20
1.9077273495
30
0.0000000000
10
7.2628119861
20
1.7912127964
30
0.0000000000
10
7.0760316135
20
1.6858027564
30
0.0000000000
10
6.8832519556
20
1.5918807660
30
0.0000000000
10
6.6851771643
20
1.5097862136
30
0.0000000000
10
6.4825271668
20
1.4398144345
30
0.0000000000
10
6.2760390662
20
1.3822176221
30
0.0000000000
10
6.0664644421
20
1.3372035106
30
0.0000000000
10
5.8545661203
20
1.3049343324
30
0.0000000000
10
5.6411140086
20
1.2855261374
30
0.0000000000
10
5.4268835706
20
1.2790487408
30
0.0000000000
10
5.2126531152
20
1.2855254583
30
0.0000000000
10
4.9992009516
20
1.3049329757
30
0.0000000000
10
4.7873025445
20
1.3372014786
30
0.0000000000
10
4.5777277942
20
1.3822149199
30
0.0000000000
10
4.3712395224
20
1.4398110714
30
0.0000000000
10
4.1685893225
20
1.5097821976
30
0.0000000000
10
3.9705143116
20
1.5918760999
30
0.0000000000
10
3.7777343958
20
1.6857974497
30
0.0000000000
10
3.5909536807
20
1.7912068888
30
0.0000000000
10
3.4108579132
20
1.9077208875
30
0.0000000000
10
3.2381059161
20
2.0349160502
30
0.0000000000
10
3.0733238460
20
2.1723349835
30
0.0000000000
10
2.9171097508
20
2.3194851066
30
0.0000000000
10
2.7700405574
20
2.4758303496
30
0.0000000000
10
2.6326658482
20
2.6407913345
30
0.0000000000
10
2.5054956557
20
2.8137563123
30
0.0000000000
10
2.3889946427
20
2.9940919866
30
0.0000000000
10
2.2835843166
20
3.1811456383
30
0.0000000000
10
2.1896479906
20
3.3742393779
30
0.0000000000
10
2.1075262219
20
3.5726785218
30
0.0000000000
10
2.0375068443
20
3.7757843489
30
0.0000000000
10
1.9798503631
20
3.9828490928
30
0.0000000000
10
1.9347982771
20
4.1930643548
30
0.0000000000
10
1.9025466151
20
4.4054850547
30
0.0000000000
10
1.8832033739
20
4.6190660749
30
0.0000000000
10
1.8789053684
20
4.7618320578
30
0.0000000000
10
1.8789022544
20
4.8330868699
30
0.0000000000
11
8.9748536460
21
4.8330868699
31
0.0000000000
11
8.9684208447
21
4.6194345222
31
0.0000000000
11
8.9490836713
21
4.4058987525
31
0.0000000000
11
8.9168413128
21
4.1935299980
31
0.0000000000
11
8.8718012926
21
3.9833619632
31
0.0000000000
11
8.8141752378
21
3.7764009476
31
0.0000000000
11
8.7442105202
21
3.5734501025
31
0.0000000000
11
8.6621390041
21
3.3751306139
31
0.0000000000
11
8.5682583156
21
3.1821505100
31
0.0000000000
11
8.4629141513
21
2.9952138139
31
0.0000000000
11
8.3464857876
21
2.8149901538
31
0.0000000000
11
8.2193938336
21
2.6421311580
31
0.0000000000
11
8.0820998045
21
2.4772666440
31
0.0000000000
11
7.9351144288
21
2.3210101186
31
0.0000000000
11
7.7789944548
21
2.1739483022
31
0.0000000000
11
7.6143170908
21
2.0366163632
31
0.0000000000
11
7.4416736154
21
1.9095007844
31
0.0000000000
11
7.2616860515
21
1.7930564543
31
0.0000000000
11
7.0750175016
21
1.6877099609
31
0.0000000000
11
6.8823562703
21
1.5938460589
31
0.0000000000
11
6.6844038269
21
1.5118025570
31
0.0000000000
11
6.4818785467
21
1.4418741323
31
0.0000000000
11
6.2755165081
21
1.3843127229
31
0.0000000000
11
6.0660707300
21
1.3393264735
31
0.0000000000
11
5.8543027495
21
1.3070772788
31
0.0000000000
11
5.6409822667
21
1.2876811330
31
0.0000000000
11
5.4268835673
21
1.2812077466
31
0.0000000000
11
5.2127848472
21
1.2876804544
31
0.0000000000
11
4.9994643119
21
1.3070759231
31
0.0000000000
11
4.7876962491
21
1.3393244425
31
0.0000000000
11
4.5782503501
21
1.3843100210
31
0.0000000000
11
4.3718881366
21
1.4418707709
31
0.0000000000
11
4.1693626396
21
1.5117985482
31
0.0000000000
11
3.9714099805
21
1.5938413987
31
0.0000000000
11
3.7787485208
21
1.6877046463
31
0.0000000000
11
3.5920796438
21
1.7930505306
31
0.0000000000
11
3.4120916182
21
1.9094943395
31
0.0000000000
11
3.2394477040
21
2.0366093920
31
0.0000000000
11
3.0747700552
21
2.1739406716
31
0.0000000000
11
2.9186497967
21
2.3210017899
31
0.0000000000
11
2.7716639030
21
2.4772578277
31
0.0000000000
11
2.6343691552
21
2.6421221061
31
0.0000000000
11
2.5072764176
21
2.8149810157
31
0.0000000000
11
2.3908471015
21
2.9952049564
31
0.0000000000
11
2.2855020753
21
3.1821419512
31
0.0000000000
11
2.1916220409
21
3.3751191782
31
0.0000000000
11
2.1095526741
21
3.5734308583
31
0.0000000000
11
2.0395885643
21
3.7763755713
31
0.0000000000
11
1.9819621734
21
3.9833312389
31
0.0000000000
11
1.9369205795
21
4.1934972418
31
0.0000000000
11
1.9046756363
21
4.4058706565
31
0.0000000000
11
1.8853359697
21
4.6194192737
31
0.0000000000
11
1.8789022544
21
4.8330868699
31
0.0000000000
0
SPLINE
5
34D
100
AcDbEntity
8
0
100
AcDbSpline
62
9
6
CONTINUOUS
70
0
71
3
72
21
73
17
74
15
42
0.0000001000
43
0.0000001000
44
0.0000000001
12
-0.3924632419
22
0.0000000000
32
0.0000000000
13
0.0000000000
23
-0.3924632419
33
0.0000000000
40
0.0000000000
40
0.0000000000
40
0.0000000000
40
0.0000000000
40
0.0714231657
40
0.1428466024
40
0.2142705677
40
0.2856952926
40
0.3571209699
40
0.4285477447
40
0.4999757071
40
0.5714048877
40
0.6428352559
40
0.7142667216
40
0.7856991396
40
0.8571323171
40
0.9285660230
40
1.0000000000
40
1.0000000000
40
1.0000000000
40
1.0000000000
10
-6.5965347471
20
29.3354425825
30
0.0000000000
10
-6.6058784028
20
29.3354425825
30
0.0000000000
10
-6.6245827102
20
29.3343924117
30
0.0000000000
10
-6.6522728251
20
29.3296864566
30
0.0000000000
10
-6.6792656392
20
29.3219089837
30
0.0000000000
10
-6.7052170774
20
29.3111578021
30
0.0000000000
10
-6.7298020223
20
29.2975681182
30
0.0000000000
10
-6.7527109717
20
29.2813108335
30
0.0000000000
10
-6.7736559224
20
29.2625903985
30
0.0000000000
10
-6.7923734581
20
29.2416422304
30
0.0000000000
10
-6.8086282044
20
29.2187297907
30
0.0000000000
10
-6.8222157507
20
29.1941411289
30
0.0000000000
10
-6.8329652303
20
29.1681857932
30
0.0000000000
10
-6.8407414657
20
29.1411889475
30
0.0000000000
10
-6.8454466694
20
29.1134947101
30
0.0000000000
10
-6.8464966709
20
29.0947876526
30
0.0000000000
10
-6.8464966709
20
29.0854425825
30
0.0000000000
11
-6.5965347471
21
29.3354425825
31
0.0000000000
11
-6.6245216029
21
29.3338706350
31
0.0000000000
11
-6.6521565078
21
29.3291745605
31
0.0000000000
11
-6.6790919368
21
29.3214134151
31
0.0000000000
11
-6.7049891612
21
29.3106847995
31
0.0000000000
11
-6.7295225084
21
29.2971236323
31
0.0000000000
11
-6.7523834574
21
29.2809004531
31
0.0000000000
11
-6.7732845184
21
29.2622192778
31
0.0000000000
11
-6.7919628485
21
29.2413150330
31
0.0000000000
11
-6.8081835568
21
29.2184506016
31
0.0000000000
11
-6.8217426586
21
29.1939135173
31
0.0000000000
11
-6.8324696401
21
29.1680123480
31
0.0000000000
11
-6.8402296036
21
29.1410728160
31
0.0000000000
11
-6.8449249627
21
29.1134337015
31
0.0000000000
11
-6.8464966709
21
29.0854425825
31
0.0000000000
0
SPLINE
5
34E
100
AcDbEntity
8
0
100
AcDbSpline
62
7
6
CONTINUOUS
70
0
71
3
72
20
73
16
74
14
42
0.0000001000
43
0.0000001000
44
0.0000000001
12
-0.2001135905
22
0.0000000000
32
0.0000000000
13
0.0000000000
23
-0.2001135905
33
0.0000000000
40
0.0000000000
40
0.0000000000
40
0.0000000000
40
0.0000000000
40
0.0075366553
40
0.0293997114
40
0.0653192761
40
0.1147301698
40
0.1773992594
40
0.2520297144
40
0.3370925550
40
0.4323312765
40
0.5360200911
40
0.6458123712
40
0.7609859196
40
0.8799417263
40
1.0000000000
40
1.0000000000
40
1.0000000000
40
1.0000000000
10
11.6303689632
20
-15.6645574175
30
0.0000000000
10
11.6298662341
20
-15.6645574175
30
0.0000000000
10
11.6301098305
20
-15.6675784624
30
0.0000000000
10
11.6292450778
20
-15.6709027541
30
0.0000000000
10
11.6291590840
20
-15.6786135904
30
0.0000000000
10
11.6286670609
20
-15.6882325036
30
0.0000000000
10
11.6283639862
20
-15.7007761381
30
0.0000000000
10
11.6280232680
20
-15.7155724383
30
0.0000000000
10
11.6277360935
20
-15.7325858501
30
0.0000000000
10
11.6274783303
20
-15.7515241928
30
0.0000000000
10
11.6272638695
20
-15.7721171471
30
0.0000000000
10
11.6270931592
20
-15.7940389549
30
0.0000000000
10
11.6269694986
20
-15.8169798607
30
0.0000000000
10
11.6268946025
20
-15.8406056540
30
0.0000000000
10
11.6268779502
20
-15.8565489868
30
0.0000000000
10
11.6268779502
20
-15.8645574175
30
0.0000000000
11
11.6303689632
21
-15.6645574175
31
0.0000000000
11
11.6299495405
21
-15.6660061111
31
0.0000000000
11
11.6295340490
21
-15.6703614320
31
0.0000000000
11
11.6291317700
21
-15.6775381594
31
0.0000000000
11
11.6287481961
21
-15.6874185080
31
0.0000000000
11
11.6283860044
21
-15.6999542132
31
0.0000000000
11
11.6280534062
21
-15.7148850776
31
0.0000000000
11
11.6277563381
21
-15.7319047156
31
0.0000000000
11
11.6274957107
21
-15.7509614960
31
0.0000000000
11
11.6272769357
21
-15.7717098836
31
0.0000000000
11
11.6271045202
21
-15.7936801345
31
0.0000000000
11
11.6269792495
21
-15.8167275864
31
0.0000000000
11
11.6269032300
21
-15.8405321386
31
0.0000000000
11
11.6268779502
21
-15.8645574175
31
0.0000000000
0
SPLINE
5
34F
100
AcDbEntity
8
0
100
AcDbSpline
62
7
6
CONTINUOUS
70
0
71
3
72
20
73
16
74
14
42
0.0000001000
43
0.0000001000
44
0.0000000001
12
0.0136754126
22
0.3989739077
32
0.0000000000
13
0.3992082112
23
0.0000000000
33
0.0000000000
40
0.0000000000
40
0.0000000000
40
0.0000000000
40
0.0000000000
40
0.0659953554
40
0.1327655408
40
0.2004715189
40
0.2693103412
40
0.3395167492
40
0.4113674929
40
0.4851926833
40
0.5613905949
40
0.6404486674
40
0.7229724829
40
0.8097210985
40
0.9016567570
40
1.0000000000
40
1.0000000000
40
1.0000000000
40
1.0000000000
10
-6.9372953628
20
29.0854425825
30
0.0000000000
10
-6.9369945249
20
29.0942193908
30
0.0000000000
10
-6.9354585935
20
29.1118578979
30
0.0000000000
10
-6.9303639543
20
29.1380911716
30
0.0000000000
10
-6.9224265631
20
29.1640090279
30
0.0000000000
10
-6.9116074423
20
29.1893612693
30
0.0000000000
10
-6.8978638665
20
29.2138921211
30
0.0000000000
10
-6.8811465664
20
29.2373254561
30
0.0000000000
10
-6.8613973055
20
29.2593561423
30
0.0000000000
10
-6.8385471618
20
29.2796361806
30
0.0000000000
10
-6.8125157610
20
29.2977564058
30
0.0000000000
10
-6.7832149672
20
29.3132203632
30
0.0000000000
10
-6.7505534398
20
29.3254074458
30
0.0000000000
10
-6.7144768280
20
29.3335208066
30
0.0000000000
10
-6.6891140414
20
29.3354425825
30
0.0000000000
10
-6.6760275647
20
29.3354425825
30
0.0000000000
11
-6.9372953628
21
29.0854425825
31
0.0000000000
11
-6.9350133861
21
29.1116894563
31
0.0000000000
11
-6.9299359766
21
29.1378566101
31
0.0000000000
11
-6.9220246389
21
29.1637016447
31
0.0000000000
11
-6.9112414636
21
29.1889787047
31
0.0000000000
11
-6.8975453094
21
29.2134312437
31
0.0000000000
11
-6.8808892927
21
29.2367832229
31
0.0000000000
11
-6.8612184888
21
29.2587294296
31
0.0000000000
11
-6.8384685807
21
29.2789221763
31
0.0000000000
11
-6.8125658407
21
29.2969533033
31
0.0000000000
11
-6.7834298545
21
29.3123290511
31
0.0000000000
11
-6.7509835658
21
29.3244339203
31
0.0000000000
11
-6.7151751183
21
29.3324808437
31
0.0000000000
11
-6.6760275647
21
29.3354425825
31
0.0000000000
0
SPLINE
5
350
100
AcDbEntity
8
0
100
AcDbSpline
62
7
6
CONTINUOUS
70
0
71
3
72
21
73
17
74
15
42
0.0000001000
43
0.0000001000
44
0.0000000001
12
-0.3944111719
22
0.0000000000
32
0.0000000000
13
-0.0000000000
23
0.3944111719
33
0.0000000000
40
0.0000000000
40
0.0000000000
40
0.0000000000
40
0.0000000000
40
0.0703747308
40
0.1407674932
40
0.2112090772
40
0.2817919090
40
0.3525240979
40
0.4234986317
40
0.4946888730
40
0.5661769277
40
0.6379029218
40
0.7099258257
40
0.7821640862
40
0.8546343949
40
0.9272523316
40
1.0000000000
40
1.0000000000
40
1.0000000000
40
1.0000000000
10
-6.6016562734
20
-11.4645574175
30
0.0000000000
10
-6.6109084667
20
-11.4645574175
30
0.0000000000
10
-6.6294322131
20
-11.4635121933
30
0.0000000000
10
-6.6568585542
20
-11.4588255733
30
0.0000000000
10
-6.6836128658
20
-11.4510733628
30
0.0000000000
10
-6.7093653137
20
-11.4403429897
30
0.0000000000
10
-6.7338096444
20
-11.4267514069
30
0.0000000000
10
-6.7566378522
20
-11.4104540112
30
0.0000000000
10
-6.7775678068
20
-11.3916323883
30
0.0000000000
10
-6.7963233204
20
-11.3705107015
30
0.0000000000
10
-6.8126615575
20
-11.3473341745
30
0.0000000000
10
-6.8263562912
20
-11.3223910927
30
0.0000000000
10
-6.8372203342
20
-11.2959857963
30
0.0000000000
10
-6.8450963540
20
-11.2684582186
30
0.0000000000
10
-6.8498706884
20
-11.2401626900
30
0.0000000000
10
-6.8509365953
20
-11.2210342614
30
0.0000000000
10
-6.8509365953
20
-11.2114700971
30
0.0000000000
11
-6.6016562734
21
-11.4645574175
31
0.0000000000
11
-6.6293687245
21
-11.4629928769
31
0.0000000000
11
-6.6567358778
21
-11.4583172476
31
0.0000000000
11
-6.6834213842
21
-11.4505857581
31
0.0000000000
11
-6.7091191525
21
-11.4398798927
31
0.0000000000
11
-6.7335021322
21
-11.4263246553
31
0.0000000000
11
-6.7562864637
21
-11.4100614874
31
0.0000000000
11
-6.7771661920
21
-11.3912885348
31
0.0000000000
11
-6.7958896640
21
-11.3702070646
31
0.0000000000
11
-6.8121915569
21
-11.3470868140
31
0.0000000000
11
-6.8258651696
21
-11.3221876294
31
0.0000000000
11
-6.8367079474
21
-11.2958398756
31
0.0000000000
11
-6.8445725221
21
-11.2683600278
31
0.0000000000
11
-6.8493387688
21
-11.2401180658
31
0.0000000000
11
-6.8509365953
21
-11.2114700971
31
0.0000000000
0
SPLINE
5
351
100
AcDbEntity
8
0
100
AcDbSpline
62
9
6
CONTINUOUS
70
0
71
3
72
20
73
16
74
14
42
0.0000001000
43
0.0000001000
44
0.0000000001
12
0.0011971472
22
-0.3890806396
32
0.0000000000
13
0.3890807480
23
-0.0011614029
33
0.0000000000
40
0.0000000000
40
0.0000000000
40
0.0000000000
40
0.0000000000
40
0.0762841387
40
0.1526297751
40
0.2290661123
40
0.3056170097
40
0.3822996043
40
0.4591233413
40
0.5360894660
40
0.6131909961
40
0.6904131664
40
0.7677343113
40
0.8451271274
40
0.9225602422
40
1.0000000000
40
1.0000000000
40
1.0000000000
40
1.0000000000
10
-6.7932549156
20
-10.6287832682
30
0.0000000000
10
-6.7932244745
20
-10.6386768287
30
0.0000000000
10
-6.7919489477
20
-10.6584895031
30
0.0000000000
10
-6.7864228133
20
-10.6877512588
30
0.0000000000
10
-6.7773639648
20
-10.7161597052
30
0.0000000000
10
-6.7649045509
20
-10.7432960954
30
0.0000000000
10
-6.7492261451
20
-10.7687677674
30
0.0000000000
10
-6.7305570597
20
-10.7922044681
30
0.0000000000
10
-6.7091689367
20
-10.8132662236
30
0.0000000000
10
-6.6853727930
20
-10.8316475504
30
0.0000000000
10
-6.6595142961
20
-10.8470820102
30
0.0000000000
10
-6.6319693745
20
-10.8593459572
30
0.0000000000
10
-6.6031363780
20
-10.8682617386
30
0.0000000000
10
-6.5734392716
20
-10.8737001874
30
0.0000000000
10
-6.5533364314
20
-10.8749552269
30
0.0000000000
10
-6.5432929918
20
-10.8749852065
30
0.0000000000
11
-6.7932549156
21
-10.6287832682
31
0.0000000000
11
-6.7913482940
21
-10.6584027886
31
0.0000000000
11
-6.7858383952
21
-10.6875920532
31
0.0000000000
11
-6.7768052565
21
-10.7159270557
31
0.0000000000
11
-6.7643800939
21
-10.7429961989
31
0.0000000000
11
-6.7487433965
21
-10.7684062735
31
0.0000000000
11
-6.7301223046
21
-10.7917881698
31
0.0000000000
11
-6.7087873098
21
-10.8128022400
31
0.0000000000
11
-6.6850483267
21
-10.8311432312
31
0.0000000000
11
-6.6592501900
21
-10.8465447201
31
0.0000000000
11
-6.6317676464
21
-10.8587829829
31
0.0000000000
11
-6.6029999102
21
-10.8676802452
31
0.0000000000
11
-6.5733648646
21
-10.8731072642
31
0.0000000000
11
-6.5432929918
21
-10.8749852065
31
0.0000000000
0
SPLINE
5
352
100
AcDbEntity
8
0
100
AcDbSpline
62
9
6
CONTINUOUS
70
0
71
3
72
24
73
20
74
18
42
0.0000001000
43
0.0000001000
44
0.0000000001
12
0.0700004076
22
0.9428892346
32
0.0000000000
13
0.0004887707
23
0.9454839643
33
0.0000000000
40
0.0000000000
40
0.0000000000
40
0.0000000000
40
0.0000000000
40
0.0179923716
40
0.0424920057
40
0.0733481541
40
0.1103654884
40
0.1533091514
40
0.2019070772
40
0.2558496117
40
0.3147935993
40
0.3783634982
40
0.4461555330
40
0.5177378472
40
0.5926549702
40
0.6704290461
40
0.7505664040
40
0.8325570334
40
0.9158767364
40
1.0000000000
40
1.0000000000
40
1.0000000000
40
1.0000000000
10
-6.5432929918
20
-10.8749852065
30
0.0000000000
10
-6.5428731673
20
-10.8693302686
30
0.0000000000
10
-6.5421233706
20
-10.8559578900
30
0.0000000000
10
-6.5411572328
20
-10.8328615702
30
0.0000000000
10
-6.5402099093
20
-10.8037641099
30
0.0000000000
10
-6.5392875903
20
-10.7688509188
30
0.0000000000
10
-6.5384010417
20
-10.7283436879
30
0.0000000000
10
-6.5375567403
20
-10.6825004227
30
0.0000000000
10
-6.5367611938
20
-10.6316129262
30
0.0000000000
10
-6.5360199629
20
-10.5760055793
30
0.0000000000
10
-6.5353381570
20
-10.5160323477
30
0.0000000000
10
-6.5347203620
20
-10.4520751181
30
0.0000000000
10
-6.5341706885
20
-10.3845409391
30
0.0000000000
10
-6.5336927649
20
-10.3138601882
30
0.0000000000
10
-6.5332897230
20
-10.2404827113
30
0.0000000000
10
-6.5329641942
20
-10.1648755340
30
0.0000000000
10
-6.5327182995
20
-10.0875202802
30
0.0000000000
10
-6.5325536297
20
-10.0089086062
30
0.0000000000
10
-6.5324988685
20
-9.9561370694
30
0.0000000000
10
-6.5324851628
20
-9.9296246705
30
0.0000000000
11
-6.5432929918
21
-10.8749852065
31
0.0000000000
11
-6.5422722776
21
-10.8580043551
31
0.0000000000
11
-6.5412725850
21
-10.8348619229
31
0.0000000000
11
-6.5403002033
21
-10.8057041349
31
0.0000000000
11
-6.5393613662
21
-10.7707174284
31
0.0000000000
11
-6.5384620460
21
-10.7301248392
31
0.0000000000
11
-6.5376079551
21
-10.6841842120
31
0.0000000000
11
-6.5368045420
21
-10.6331887322
31
0.0000000000
11
-6.5360569196
21
-10.5774631445
31
0.0000000000
11
-6.5353698503
21
-10.5173627437
31
0.0000000000
11
-6.5347476977
21
-10.4532694728
31
0.0000000000
11
-6.5341944254
21
-10.3855917950
31
0.0000000000
11
-6.5337135531
21
-10.3147604795
31
0.0000000000
11
-6.5333081456
21
-10.2412274456
31
0.0000000000
11
-6.5329807748
21
-10.1654595559
31
0.0000000000
11
-6.5327335243
21
-10.0879391145
31
0.0000000000
11
-6.5325679718
21
-10.0091618348
31
0.0000000000
11
-6.5324851628
21
-9.9296246705
31
0.0000000000
0
SPLINE
5
353
100
AcDbEntity
8
0
100
AcDbSpline
62
9
6
CONTINUOUS
70
0
71
3
72
24
73
20
74
18
42
0.0000001000
43
0.0000001000
44
0.0000000001
12
0.0698594915
22
0.7057358907
32
0.0000000000
13
0.0004887986
23
0.7091849244
33
0.0000000000
40
0.0000000000
40
0.0000000000
40
0.0000000000
40
0.0000000000
40
0.0180110545
40
0.0425254804
40
0.0733917830
40
0.1104161827
40
0.1533646257
40
0.2019655771
40
0.2559097385
40
0.3148541482
40
0.3784233710
40
0.4462137622
40
0.5177935729
40
0.5927074253
40
0.6704775497
40
0.7506103498
40
0.8325959028
40
0.9159100653
40
1.0000000000
40
1.0000000000
40
1.0000000000
40
1.0000000000
10
-6.7932549156
20
-10.6287832682
30
0.0000000000
10
-6.7928355012
20
-10.6245462524
30
0.0000000000
10
-6.7920856759
20
-10.6145193900
30
0.0000000000
10
-6.7911194639
20
-10.5971968390
30
0.0000000000
10
-6.7901720296
20
-10.5753726979
30
0.0000000000
10
-6.7892496525
20
-10.5491869954
30
0.0000000000
10
-6.7883630540
20
-10.5188055557
30
0.0000000000
10
-6.7875187115
20
-10.4844218813
30
0.0000000000
10
-6.7867231298
20
-10.4462547770
30
0.0000000000
10
-6.7859818695
20
-10.4045475639
30
0.0000000000
10
-6.7853000401
20
-10.3595657611
30
0.0000000000
10
-6.7846822278
20
-10.3115958312
30
0.0000000000
10
-6.7841325432
20
-10.2609430968
30
0.0000000000
10
-6.7836546142
20
-10.2079303789
30
0.0000000000
10
-6.7832515734
20
-10.1528951010
30
0.0000000000
10
-6.7829260504
20
-10.0961875689
30
0.0000000000
10
-6.7826801690
20
-10.0381690416
30
0.0000000000
10
-6.7825155343
20
-9.9792147784
30
0.0000000000
10
-6.7824607876
20
-9.9396413043
30
0.0000000000
10
-6.7824470866
20
-9.9197628663
30
0.0000000000
11
-6.7932549156
21
-10.6287832682
31
0.0000000000
11
-6.7922344234
21
-10.6160509274
31
0.0000000000
11
-6.7912346872
21
-10.5986944306
31
0.0000000000
11
-6.7902622711
21
-10.5768261185
31
0.0000000000
11
-6.7893233960
21
-10.5505857571
31
0.0000000000
11
-6.7884240405
21
-10.5201406423
31
0.0000000000
11
-6.7875699156
21
-10.4856841566
31
0.0000000000
11
-6.7867664714
21
-10.4474361993
31
0.0000000000
11
-6.7860188218
21
-10.4056403891
31
0.0000000000
11
-6.7853317307
21
-10.3605632801
31
0.0000000000
11
-6.7847095618
21
-10.3124913713
31
0.0000000000
11
-6.7841562790
21
-10.2617310518
31
0.0000000000
11
-6.7836754019
21
-10.2086054408
31
0.0000000000
11
-6.7832699956
21
-10.1534535179
31
0.0000000000
11
-6.7829426314
21
-10.0966254735
31
0.0000000000
11
-6.7826953938
21
-10.0384830672
31
0.0000000000
11
-6.7825298588
21
-9.9793981370
31
0.0000000000
11
-6.7824470866
21
-9.9197628663
31
0.0000000000
0
SPLINE
5
354
100
AcDbEntity
8
0
100
AcDbSpline
62
9
6
CONTINUOUS
70
0
71
3
72
20
73
16
74
14
42
0.0000001000
43
0.0000001000
44
0.0000000001
12
0.1013012927
22
-0.2291819165
32
0.0000000000
13
0.2505718920
23
-0.0001723979
33
0.0000000000
40
0.0000000000
40
0.0000000000
40
0.0000000000
40
0.0000000000
40
0.0103159363
40
0.0340528544
40
0.0713690644
40
0.1218316278
40
0.1847582747
40
0.2592703331
40
0.3443163096
40
0.4386907927
40
0.5410533273
40
0.6499483643
40
0.7638264767
40
0.8810667334
40
1.0000000000
40
1.0000000000
40
1.0000000000
40
1.0000000000
10
-6.7824470866
20
-9.9197628663
30
0.0000000000
10
-6.7820987474
20
-9.9205509416
30
0.0000000000
10
-6.7787564295
20
-9.9212029652
30
0.0000000000
10
-6.7733813986
20
-9.9224012202
30
0.0000000000
10
-6.7638613134
20
-9.9233597175
30
0.0000000000
10
-6.7514257989
20
-9.9244325286
30
0.0000000000
10
-6.7357203679
20
-9.9254006414
30
0.0000000000
10
-6.7171738319
20
-9.9263178791
30
0.0000000000
10
-6.6959754656
20
-9.9271411651
30
0.0000000000
10
-6.6724522277
20
-9.9278659458
30
0.0000000000
10
-6.6469313483
20
-9.9284779478
30
0.0000000000
10
-6.6197791444
20
-9.9289686877
30
0.0000000000
10
-6.5913820120
20
-9.9293304974
30
0.0000000000
10
-6.5621450925
20
-9.9295580494
30
0.0000000000
10
-6.5424189407
20
-9.9296178359
30
0.0000000000
10
-6.5324851628
20
-9.9296246705
30
0.0000000000
11
-6.7824470866
21
-9.9197628663
31
0.0000000000
11
-6.7801450809
21
-9.9209386198
31
0.0000000000
11
-6.7743112875
21
-9.9220976064
31
0.0000000000
11
-6.7650289001
21
-9.9232232981
31
0.0000000000
11
-6.7524302915
21
-9.9242996419
31
0.0000000000
11
-6.7366951257
21
-9.9253112883
31
0.0000000000
11
-6.7180477962
21
-9.9262438107
31
0.0000000000
11
-6.6967542258
21
-9.9270839108
31
0.0000000000
11
-6.6731180743
21
-9.9278196081
31
0.0000000000
11
-6.6474764082
21
-9.9284404111
31
0.0000000000
11
-6.6201948940
21
-9.9289374669
31
0.0000000000
11
-6.5916625833
21
-9.9293036870
31
0.0000000000
11
-6.5622863651
21
-9.9295338490
31
0.0000000000
11
-6.5324851628
21
-9.9296246705
31
0.0000000000
0
SPLINE
5
355
100
AcDbEntity
8
0
100
AcDbSpline
62
9
6
CONTINUOUS
70
0
71
3
72
16
73
12
74
10
42
0.0000001000
43
0.0000001000
44
0.0000000001
12
0.0230916855
22
33.5301291707
32
0.0000000000
13
-0.0230916856
23
33.5301291707
33
0.0000000000
40
0.0000000000
40
0.0000000000
40
0.0000000000
40
0.0000000000
40
0.1110712573
40
0.2221724041
40
0.3332949020
40
0.4444302106
40
0.5555697894
40
0.6667050980
40
0.7778275959
40
0.8889287427
40
1.0000000000
40
1.0000000000
40
1.0000000000
40
1.0000000000
10
-6.5324851628
20
-9.9296246705
30
0.0000000000
10
-6.5316302219
20
-8.6882134686
30
0.0000000000
10
-6.5301103463
20
-6.2050568641
30
0.0000000000
10
-6.5284006070
20
-2.4799159868
30
0.0000000000
10
-6.5272607078
20
1.2459409917
30
0.0000000000
10
-6.5266907362
20
4.9722276441
30
0.0000000000
10
-6.5266907362
20
8.6986575210
30
0.0000000000
10
-6.5272607078
20
12.4249441733
30
0.0000000000
10
-6.5284006070
20
16.1508011519
30
0.0000000000
10
-6.5301103463
20
19.8759420292
30
0.0000000000
10
-6.5316302219
20
22.3590986336
30
0.0000000000
10
-6.5324851628
20
23.6005098355
30
0.0000000000
11
-6.5324851628
21
-9.9296246705
31
0.0000000000
11
-6.5302055686
21
-6.2053908791
31
0.0000000000
11
-6.5284957197
21
-2.4801545863
31
0.0000000000
11
-6.5273557474
21
1.2457978326
31
0.0000000000
11
-6.5267857394
21
4.9721799251
31
0.0000000000
11
-6.5267857394
21
8.6987052400
31
0.0000000000
11
-6.5273557474
21
12.4250873325
31
0.0000000000
11
-6.5284957197
21
16.1510397514
31
0.0000000000
11
-6.5302055686
21
19.8762760442
31
0.0000000000
11
-6.5324851628
21
23.6005098355
31
0.0000000000
0
SPLINE
5
356
100
AcDbEntity
8
0
100
AcDbSpline
62
9
6
CONTINUOUS
70
0
71
3
72
16
73
12
74
10
42
0.0000001000
43
0.0000001000
44
0.0000000001
12
0.0230916855
22
33.5104055590
32
0.0000000000
13
-0.0230916856
23
33.5104055590
33
0.0000000000
40
0.0000000000
40
0.0000000000
40
0.0000000000
40
0.0000000000
40
0.1110712476
40
0.2221723967
40
0.3332948969
40
0.4444302077
40
0.5555697887
40
0.6667050996
40
0.7778275998
40
0.8889287488
40
1.0000000000
40
1.0000000000
40
1.0000000000
40
1.0000000000
10
-6.7824470866
20
-9.9197628663
30
0.0000000000
10
-6.7815921458
20
-8.6790820149
30
0.0000000000
10
-6.7800722702
20
-6.1973861743
30
0.0000000000
10
-6.7783625309
20
-2.4744366143
30
0.0000000000
10
-6.7772226316
20
1.2492287599
30
0.0000000000
10
-6.7766526600
20
4.9733235551
30
0.0000000000
10
-6.7766526600
20
8.6975614909
30
0.0000000000
10
-6.7772226316
20
12.4216562862
30
0.0000000000
10
-6.7783625309
20
16.1453216605
30
0.0000000000
10
-6.7800722702
20
19.8682712602
30
0.0000000000
10
-6.7815921458
20
22.3499671404
30
0.0000000000
10
-6.7824470866
20
23.5906480313
30
0.0000000000
11
-6.7824470866
21
-9.9197628663
31
0.0000000000
11
-6.7801674926
21
-6.1977201267
31
0.0000000000
11
-6.7784576436
21
-2.4746750734
31
0.0000000000
11
-6.7773176713
21
1.2490856849
31
0.0000000000
11
-6.7767476632
21
4.9732758642
31
0.0000000000
11
-6.7767476632
21
8.6976091817
31
0.0000000000
11
-6.7773176712
21
12.4217993612
31
0.0000000000
11
-6.7784576435
21
16.1455601196
31
0.0000000000
11
-6.7801674925
21
19.8686051731
31
0.0000000000
11
-6.7824470866
21
23.5906480313
31
0.0000000000
0
SPLINE
5
357
100
AcDbEntity
8
0
100
AcDbSpline
62
9
6
CONTINUOUS
70
0
71
3
72
20
73
16
74
14
42
0.0000001000
43
0.0000001000
44
0.0000000001
12
0.1013019178
22
0.2291816396
32
0.0000000000
13
0.2505718914
23
0.0001723978
33
0.0000000000
40
0.0000000000
40
0.0000000000
40
0.0000000000
40
0.0000000000
40
0.0103159486
40
0.0340528778
40
0.0713690966
40
0.1218316662
40
0.1847583166
40
0.2592703762
40
0.3443163514
40
0.4386908311
40
0.5410533604
40
0.6499483905
40
0.7638264949
40
0.8810667427
40
1.0000000000
40
1.0000000000
40
1.0000000000
40
1.0000000000
10
-6.7824470866
20
23.5906480313
30
0.0000000000
10
-6.7820987448
20
23.5914361066
30
0.0000000000
10
-6.7787564275
20
23.5920881296
30
0.0000000000
10
-6.7733813915
20
23.5932863850
30
0.0000000000
10
-6.7638613054
20
23.5942448820
30
0.0000000000
10
-6.7514257888
20
23.5953176931
30
0.0000000000
10
-6.7357203572
20
23.5962858057
30
0.0000000000
10
-6.7171738209
20
23.5972030433
30
0.0000000000
10
-6.6959754549
20
23.5980263292
30
0.0000000000
10
-6.6724522179
20
23.5987511098
30
0.0000000000
10
-6.6469313398
20
23.5993631116
30
0.0000000000
10
-6.6197791377
20
23.5998538514
30
0.0000000000
10
-6.5913820074
20
23.6002156611
30
0.0000000000
10
-6.5621450901
20
23.6004432130
30
0.0000000000
10
-6.5424189399
20
23.6005029995
30
0.0000000000
10
-6.5324851628
20
23.6005098341
30
0.0000000000
11
-6.7824470866
21
23.5906480313
31
0.0000000000
11
-6.7801450774
21
23.5918237847
31
0.0000000000
11
-6.7743112812
21
23.5929827712
31
0.0000000000
11
-6.7650288916
21
23.5941084627
31
0.0000000000
11
-6.7524302814
21
23.5951848063
31
0.0000000000
11
-6.7366951147
21
23.5961964526
31
0.0000000000
11
-6.7180477850
21
23.5971289749
31
0.0000000000
11
-6.6967542150
21
23.5979690748
31
0.0000000000
11
-6.6731180644
21
23.5987047720
31
0.0000000000
11
-6.6474763997
21
23.5993255750
31
0.0000000000
11
-6.6201948872
21
23.5998226306
31
0.0000000000
11
-6.5916625786
21
23.6001888507
31
0.0000000000
11
-6.5622863627
21
23.6004190126
31
0.0000000000
11
-6.5324851628
21
23.6005098341
31
0.0000000000
0
SPLINE
5
358
100
AcDbEntity
8
0
100
AcDbSpline
62
9
6
CONTINUOUS
70
0
71
3
72
24
73
20
74
18
42
0.0000001000
43
0.0000001000
44
0.0000000001
12
-0.0004887434
22
0.9454839643
32
0.0000000000
13
-0.0700011004
23
0.9428891831
33
0.0000000000
40
0.0000000000
40
0.0000000000
40
0.0000000000
40
0.0000000000
40
0.0841234005
40
0.1674430853
40
0.2494336962
40
0.3295710724
40
0.4073451311
40
0.4822622406
40
0.5538445534
40
0.6216365934
40
0.6852064867
40
0.7441504598
40
0.7980929862
40
0.8466909120
40
0.8896345748
40
0.9266518912
40
0.9575080367
40
0.9820076647
40
1.0000000000
40
1.0000000000
40
1.0000000000
40
1.0000000000
10
-6.5324851628
20
23.6005098355
30
0.0000000000
10
-6.5324988677
20
23.6270222776
30
0.0000000000
10
-6.5325536307
20
23.6797938517
30
0.0000000000
10
-6.5327182992
20
23.7584055573
30
0.0000000000
10
-6.5329641950
20
23.8357608053
30
0.0000000000
10
-6.5332897236
20
23.9113679772
30
0.0000000000
10
-6.5336927661
20
23.9847454501
30
0.0000000000
10
-6.5341706897
20
24.0554261909
30
0.0000000000
10
-6.5347203636
20
24.1229603669
30
0.0000000000
10
-6.5353381589
20
24.1869175959
30
0.0000000000
10
-6.5360199651
20
24.2468908228
30
0.0000000000
10
-6.5367611961
20
24.3024981608
30
0.0000000000
10
-6.5375567426
20
24.3533856501
30
0.0000000000
10
-6.5384010443
20
24.3992289127
30
0.0000000000
10
-6.5392875925
20
24.4397361378
30
0.0000000000
10
-6.5402099126
20
24.4746493223
30
0.0000000000
10
-6.5411572334
20
24.5037467743
30
0.0000000000
10
-6.5421233766
20
24.5268430794
30
0.0000000000
10
-6.5428731640
20
24.5402154454
30
0.0000000000
10
-6.5432929918
20
24.5458703715
30
0.0000000000
11
-6.5324851628
21
23.6005098355
31
0.0000000000
11
-6.5325679722
21
23.6800471292
31
0.0000000000
11
-6.5327335244
21
23.7588243917
31
0.0000000000
11
-6.5329807753
21
23.8363448155
31
0.0000000000
11
-6.5333081464
21
23.9121127226
31
0.0000000000
11
-6.5337135542
21
23.9856457402
31
0.0000000000
11
-6.5341944267
21
24.0564770430
31
0.0000000000
11
-6.5347476993
21
24.1241547195
31
0.0000000000
11
-6.5353698523
21
24.1882479952
31
0.0000000000
11
-6.5360569218
21
24.2483483908
31
0.0000000000
11
-6.5368045443
21
24.3040739647
31
0.0000000000
11
-6.5376079574
21
24.3550694370
31
0.0000000000
11
-6.5384620484
21
24.4010100640
31
0.0000000000
11
-6.5393613687
21
24.4416026530
31
0.0000000000
11
-6.5403002057
21
24.4765893426
31
0.0000000000
11
-6.5412725873
21
24.5057471279
31
0.0000000000
11
-6.5422722806
21
24.5288895543
31
0.0000000000
11
-6.5432929918
21
24.5458703715
31
0.0000000000
0
SPLINE
5
359
100
AcDbEntity
8
0
100
AcDbSpline
62
9
6
CONTINUOUS
70
0
71
3
72
24
73
20
74
18
42
0.0000001000
43
0.0000001000
44
0.0000000001
12
-0.0004887875
22
0.7091849245
32
0.0000000000
13
-0.0698591277
23
0.7057359268
33
0.0000000000
40
0.0000000000
40
0.0000000000
40
0.0000000000
40
0.0000000000
40
0.0840966315
40
0.1674109199
40
0.2493965507
40
0.3295294212
40
0.4072995282
40
0.4822133130
40
0.5537930102
40
0.6215831629
40
0.6851519452
40
0.7440957455
40
0.7980392401
40
0.8466395403
40
0.8895873425
40
0.9266111041
40
0.9574767918
40
0.9819906514
40
1.0000000000
40
1.0000000000
40
1.0000000000
40
1.0000000000
10
-6.7824470866
20
23.5906480313
30
0.0000000000
10
-6.7824607884
20
23.6105280523
30
0.0000000000
10
-6.7825155402
20
23.6501031393
30
0.0000000000
10
-6.7826801855
20
23.7090590338
30
0.0000000000
10
-6.7829260747
20
23.7670776258
30
0.0000000000
10
-6.7832516053
20
23.8237851888
30
0.0000000000
10
-6.7836546542
20
23.8788204632
30
0.0000000000
10
-6.7841325913
20
23.9318331342
30
0.0000000000
10
-6.7846822842
20
23.9824857693
30
0.0000000000
10
-6.7853001042
20
24.0304555117
30
0.0000000000
10
-6.7859819398
20
24.0754370098
30
0.0000000000
10
-6.7867232045
20
24.1171438170
30
0.0000000000
10
-6.7875187890
20
24.1553104654
30
0.0000000000
10
-6.7883631332
20
24.1896936766
30
0.0000000000
10
-6.7892497331
20
24.2200746598
30
0.0000000000
10
-6.7901721092
20
24.2462599145
30
0.0000000000
10
-6.7911195455
20
24.2680836249
30
0.0000000000
10
-6.7920857356
20
24.2854054939
30
0.0000000000
10
-6.7928355431
20
24.2954318184
30
0.0000000000
10
-6.7932549156
20
24.2996684332
30
0.0000000000
11
-6.7824470866
21
23.5906480313
31
0.0000000000
11
-6.7825298688
21
23.6502880512
31
0.0000000000
11
-6.7826954107
21
23.7093730707
31
0.0000000000
11
-6.7829426558
21
23.7675155322
31
0.0000000000
11
-6.7832700279
21
23.8243436265
31
0.0000000000
11
-6.7836754422
21
23.8794955370
31
0.0000000000
11
-6.7841563275
21
23.9326211000
31
0.0000000000
11
-6.7847096189
21
23.9833813388
31
0.0000000000
11
-6.7853317958
21
24.0314530785
31
0.0000000000
11
-6.7860188932
21
24.0765298749
31
0.0000000000
11
-6.7867665468
21
24.1183252527
31
0.0000000000
11
-6.7875699936
21
24.1565727371
31
0.0000000000
11
-6.7884241204
21
24.1910287607
31
0.0000000000
11
-6.7893234772
21
24.2214734208
31
0.0000000000
11
-6.7902623526
21
24.2477133294
31
0.0000000000
11
-6.7912347687
21
24.2695812051
31
0.0000000000
11
-6.7922345043
21
24.2869372996
31
0.0000000000
11
-6.7932549156
21
24.2996684332
31
0.0000000000
0
SPLINE
5
35A
100
AcDbEntity
8
0
100
AcDbSpline
62
9
6
CONTINUOUS
70
0
71
3
72
20
73
16
74
14
42
0.0000001000
43
0.0000001000
44
0.0000000001
12
0.0011971472
22
0.3890806396
32
0.0000000000
13
0.3890807480
23
0.0011614029
33
0.0000000000
40
0.0000000000
40
0.0000000000
40
0.0000000000
40
0.0000000000
40
0.0762841454
40
0.1526297873
40
0.2290661287
40
0.3056170291
40
0.3822996253
40
0.4591233628
40
0.5360894869
40
0.6131910154
40
0.6904131830
40
0.7677343244
40
0.8451271365
40
0.9225602469
40
1.0000000000
40
1.0000000000
40
1.0000000000
40
1.0000000000
10
-6.7932549156
20
24.2996684332
30
0.0000000000
10
-6.7932244745
20
24.3095619946
30
0.0000000000
10
-6.7919489475
20
24.3293746706
30
0.0000000000
10
-6.7864228123
20
24.3586364282
30
0.0000000000
10
-6.7773639626
20
24.3870448760
30
0.0000000000
10
-6.7649045474
20
24.4141812670
30
0.0000000000
10
-6.7492261405
20
24.4396529390
30
0.0000000000
10
-6.7305570542
20
24.4630896392
30
0.0000000000
10
-6.7091689307
20
24.4841513938
30
0.0000000000
10
-6.6853727869
20
24.5025327196
30
0.0000000000
10
-6.6595142905
20
24.5179671781
30
0.0000000000
10
-6.6319693697
20
24.5302311239
30
0.0000000000
10
-6.6031363746
20
24.5391469044
30
0.0000000000
10
-6.5734392698
20
24.5445853525
30
0.0000000000
10
-6.5533364308
20
24.5458403919
30
0.0000000000
10
-6.5432929918
20
24.5458703715
30
0.0000000000
11
-6.7932549156
21
24.2996684332
31
0.0000000000
11
-6.7913482937
21
24.3292879562
31
0.0000000000
11
-6.7858383941
21
24.3584772228
31
0.0000000000
11
-6.7768052542
21
24.3868122267
31
0.0000000000
11
-6.7643800904
21
24.4138813706
31
0.0000000000
11
-6.7487433918
21
24.4392914452
31
0.0000000000
11
-6.7301222990
21
24.4626733411
31
0.0000000000
11
-6.7087873037
21
24.4836874104
31
0.0000000000
11
-6.6850483205
21
24.5020284004
31
0.0000000000
11
-6.6592501843
21
24.5174298881
31
0.0000000000
11
-6.6317676416
21
24.5296681497
31
0.0000000000
11
-6.6029999067
21
24.5385654110
31
0.0000000000
11
-6.5733648628
21
24.5439924294
31
0.0000000000
11
-6.5432929918
21
24.5458703715
31
0.0000000000
0
SPLINE
5
35B
100
AcDbEntity
8
0
100
AcDbSpline
62
7
6
CONTINUOUS
70
0
71
3
72
21
73
17
74
15
42
0.0000001000
43
0.0000001000
44
0.0000000001
12
0.0000000000
22
0.3944111719
32
0.0000000000
13
0.3944111719
23
0.0000000000
33
0.0000000000
40
0.0000000000
40
0.0000000000
40
0.0000000000
40
0.0000000000
40
0.0727476684
40
0.1453656051
40
0.2178359138
40
0.2900741743
40
0.3620970782
40
0.4338230723
40
0.5053111270
40
0.5765013683
40
0.6474759021
40
0.7182080910
40
0.7887909228
40
0.8592325068
40
0.9296252692
40
1.0000000000
40
1.0000000000
40
1.0000000000
40
1.0000000000
10
-6.8509365953
20
24.8823552621
30
0.0000000000
10
-6.8509365953
20
24.8919194264
30
0.0000000000
10
-6.8498706884
20
24.9110478550
30
0.0000000000
10
-6.8450963540
20
24.9393433836
30
0.0000000000
10
-6.8372203342
20
24.9668709613
30
0.0000000000
10
-6.8263562912
20
24.9932762577
30
0.0000000000
10
-6.8126615575
20
25.0182193395
30
0.0000000000
10
-6.7963233204
20
25.0413958665
30
0.0000000000
10
-6.7775678068
20
25.0625175533
30
0.0000000000
10
-6.7566378522
20
25.0813391761
30
0.0000000000
10
-6.7338096444
20
25.0976365719
30
0.0000000000
10
-6.7093653137
20
25.1112281547
30
0.0000000000
10
-6.6836128658
20
25.1219585278
30
0.0000000000
10
-6.6568585542
20
25.1297107383
30
0.0000000000
10
-6.6294322131
20
25.1343973583
30
0.0000000000
10
-6.6109084667
20
25.1354425825
30
0.0000000000
10
-6.6016562734
20
25.1354425825
30
0.0000000000
11
-6.8509365953
21
24.8823552621
31
0.0000000000
11
-6.8493387688
21
24.9110032308
31
0.0000000000
11
-6.8445725221
21
24.9392451928
31
0.0000000000
11
-6.8367079474
21
24.9667250406
31
0.0000000000
11
-6.8258651696
21
24.9930727944
31
0.0000000000
11
-6.8121915569
21
25.0179719790
31
0.0000000000
11
-6.7958896640
21
25.0410922296
31
0.0000000000
11
-6.7771661920
21
25.0621736998
31
0.0000000000
11
-6.7562864637
21
25.0809466524
31
0.0000000000
11
-6.7335021322
21
25.0972098203
31
0.0000000000
11
-6.7091191525
21
25.1107650577
31
0.0000000000
11
-6.6834213842
21
25.1214709231
31
0.0000000000
11
-6.6567358778
21
25.1292024126
31
0.0000000000
11
-6.6293687245
21
25.1338780419
31
0.0000000000
11
-6.6016562734
21
25.1354425825
31
0.0000000000
0
SPLINE
5
35C
100
AcDbEntity
8
0
100
AcDbSpline
62
9
6
CONTINUOUS
70
0
71
3
72
20
73
16
74
14
42
0.0000001000
43
0.0000001000
44
0.0000000001
12
-0.0011971472
22
-0.3890806396
32
0.0000000000
13
-0.3890807480
23
-0.0011614029
33
0.0000000000
40
0.0000000000
40
0.0000000000
40
0.0000000000
40
0.0000000000
40
0.0762841454
40
0.1526297873
40
0.2290661287
40
0.3056170291
40
0.3822996253
40
0.4591233628
40
0.5360894869
40
0.6131910154
40
0.6904131830
40
0.7677343244
40
0.8451271365
40
0.9225602469
40
1.0000000000
40
1.0000000000
40
1.0000000000
40
1.0000000000
10
17.6470108160
20
-10.6287832682
30
0.0000000000
10
17.6469803748
20
-10.6386768296
30
0.0000000000
10
17.6457048479
20
-10.6584895056
30
0.0000000000
10
17.6401787126
20
-10.6877512632
30
0.0000000000
10
17.6311198630
20
-10.7161597110
30
0.0000000000
10
17.6186604478
20
-10.7432961020
30
0.0000000000
10
17.6029820409
20
-10.7687677740
30
0.0000000000
10
17.5843129546
20
-10.7922044742
30
0.0000000000
10
17.5629248311
20
-10.8132662288
30
0.0000000000
10
17.5391286872
20
-10.8316475546
30
0.0000000000
10
17.5132701908
20
-10.8470820131
30
0.0000000000
10
17.4857252701
20
-10.8593459589
30
0.0000000000
10
17.4568922749
20
-10.8682617394
30
0.0000000000
10
17.4271951702
20
-10.8737001875
30
0.0000000000
10
17.4070923312
20
-10.8749552269
30
0.0000000000
10
17.3970488922
20
-10.8749852065
30
0.0000000000
11
17.6470108160
21
-10.6287832682
31
0.0000000000
11
17.6451041940
21
-10.6584027912
31
0.0000000000
11
17.6395942945
21
-10.6875920578
31
0.0000000000
11
17.6305611546
21
-10.7159270617
31
0.0000000000
11
17.6181359907
21
-10.7429962056
31
0.0000000000
11
17.6024992922
21
-10.7684062802
31
0.0000000000
11
17.5838781993
21
-10.7917881761
31
0.0000000000
11
17.5625432041
21
-10.8128022454
31
0.0000000000
11
17.5388042209
21
-10.8311432354
31
0.0000000000
11
17.5130060847
21
-10.8465447231
31
0.0000000000
11
17.4855235420
21
-10.8587829847
31
0.0000000000
11
17.4567558071
21
-10.8676802460
31
0.0000000000
11
17.4271207632
21
-10.8731072644
31
0.0000000000
11
17.3970488922
21
-10.8749852065
31
0.0000000000
0
SPLINE
5
35D
100
AcDbEntity
8
0
100
AcDbSpline
62
7
6
CONTINUOUS
70
0
71
3
72
21
73
17
74
15
42
0.0000001000
43
0.0000001000
44
0.0000000001
12
0.0000000000
22
-0.3944111719
32
0.0000000000
13
-0.3944111719
23
0.0000000000
33
0.0000000000
40
0.0000000000
40
0.0000000000
40
0.0000000000
40
0.0000000000
40
0.0727476684
40
0.1453656051
40
0.2178359138
40
0.2900741743
40
0.3620970782
40
0.4338230723
40
0.5053111270
40
0.5765013683
40
0.6474759021
40
0.7182080910
40
0.7887909228
40
0.8592325068
40
0.9296252692
40
1.0000000000
40
1.0000000000
40
1.0000000000
40
1.0000000000
10
17.7046924957
20
-11.2114700971
30
0.0000000000
10
17.7046924957
20
-11.2210342614
30
0.0000000000
10
17.7036265888
20
-11.2401626900
30
0.0000000000
10
17.6988522543
20
-11.2684582186
30
0.0000000000
10
17.6909762346
20
-11.2959857963
30
0.0000000000
10
17.6801121915
20
-11.3223910927
30
0.0000000000
10
17.6664174578
20
-11.3473341745
30
0.0000000000
10
17.6500792208
20
-11.3705107015
30
0.0000000000
10
17.6313237072
20
-11.3916323883
30
0.0000000000
10
17.6103937526
20
-11.4104540112
30
0.0000000000
10
17.5875655448
20
-11.4267514069
30
0.0000000000
10
17.5631212141
20
-11.4403429897
30
0.0000000000
10
17.5373687662
20
-11.4510733628
30
0.0000000000
10
17.5106144546
20
-11.4588255733
30
0.0000000000
10
17.4831881135
20
-11.4635121933
30
0.0000000000
10
17.4646643671
20
-11.4645574175
30
0.0000000000
10
17.4554121737
20
-11.4645574175
30
0.0000000000
11
17.7046924957
21
-11.2114700971
31
0.0000000000
11
17.7030946691
21
-11.2401180658
31
0.0000000000
11
17.6983284224
21
-11.2683600278
31
0.0000000000
11
17.6904638477
21
-11.2958398756
31
0.0000000000
11
17.6796210700
21
-11.3221876294
31
0.0000000000
11
17.6659474572
21
-11.3470868140
31
0.0000000000
11
17.6496455644
21
-11.3702070646
31
0.0000000000
11
17.6309220924
21
-11.3912885348
31
0.0000000000
11
17.6100423641
21
-11.4100614874
31
0.0000000000
11
17.5872580326
21
-11.4263246553
31
0.0000000000
11
17.5628750528
21
-11.4398798927
31
0.0000000000
11
17.5371772846
21
-11.4505857581
31
0.0000000000
11
17.5104917782
21
-11.4583172476
31
0.0000000000
11
17.4831246249
21
-11.4629928769
31
0.0000000000
11
17.4554121737
21
-11.4645574175
31
0.0000000000
0
SPLINE
5
35E
100
AcDbEntity
8
0
100
AcDbSpline
62
9
6
CONTINUOUS
70
0
71
3
72
20
73
16
74
14
42
0.0000001000
43
0.0000001000
44
0.0000000001
12
-0.1013022884
22
-0.2291814754
32
0.0000000000
13
-0.2505718910
23
-0.0001723978
33
0.0000000000
40
0.0000000000
40
0.0000000000
40
0.0000000000
40
0.0000000000
40
0.0103159558
40
0.0340528916
40
0.0713691155
40
0.1218316888
40
0.1847583414
40
0.2592704016
40
0.3443163761
40
0.4386908537
40
0.5410533799
40
0.6499484061
40
0.7638265057
40
0.8810667482
40
1.0000000000
40
1.0000000000
40
1.0000000000
40
1.0000000000
10
17.6362029870
20
-9.9197628663
30
0.0000000000
10
17.6358546436
20
-9.9205509416
30
0.0000000000
10
17.6325123267
20
-9.9212029642
30
0.0000000000
10
17.6271372877
20
-9.9224012198
30
0.0000000000
10
17.6176172011
20
-9.9233597166
30
0.0000000000
10
17.6051816833
20
-9.9244325277
30
0.0000000000
10
17.5894762512
20
-9.9254006402
30
0.0000000000
10
17.5709297147
20
-9.9263178777
30
0.0000000000
10
17.5497313490
20
-9.9271411635
30
0.0000000000
10
17.5262081125
20
-9.9278659441
30
0.0000000000
10
17.5006872352
20
-9.9284779458
30
0.0000000000
10
17.4735350341
20
-9.9289686856
30
0.0000000000
10
17.4451379050
20
-9.9293304952
30
0.0000000000
10
17.4159009891
20
-9.9295580471
30
0.0000000000
10
17.3961748398
20
-9.9296178336
30
0.0000000000
10
17.3862410632
20
-9.9296246682
30
0.0000000000
11
17.6362029870
21
-9.9197628663
31
0.0000000000
11
17.6339009757
21
-9.9209386196
31
0.0000000000
11
17.6280671778
21
-9.9220976060
31
0.0000000000
11
17.6187847869
21
-9.9232232975
31
0.0000000000
11
17.6061861758
21
-9.9242996410
31
0.0000000000
11
17.5904510086
21
-9.9253112872
31
0.0000000000
11
17.5718036787
21
-9.9262438094
31
0.0000000000
11
17.5505101089
21
-9.9270839092
31
0.0000000000
11
17.5268739589
21
-9.9278196063
31
0.0000000000
11
17.5012322950
21
-9.9284404092
31
0.0000000000
11
17.4739507836
21
-9.9289374648
31
0.0000000000
11
17.4454184762
21
-9.9293036848
31
0.0000000000
11
17.4160422616
21
-9.9295338467
31
0.0000000000
11
17.3862410632
21
-9.9296246682
31
0.0000000000
0
SPLINE
5
35F
100
AcDbEntity
8
0
100
AcDbSpline
62
9
6
CONTINUOUS
70
0
71
3
72
24
73
20
74
18
42
0.0000001000
43
0.0000001000
44
0.0000000001
12
0.0004887707
22
-0.9454839643
32
0.0000000000
13
0.0700004076
23
-0.9428892346
33
0.0000000000
40
0.0000000000
40
0.0000000000
40
0.0000000000
40
0.0000000000
40
0.0841232636
40
0.1674429666
40
0.2494335960
40
0.3295709539
40
0.4073450298
40
0.4822621528
40
0.5538444670
40
0.6216365018
40
0.6852064007
40
0.7441503883
40
0.7980929228
40
0.8466908486
40
0.8896345116
40
0.9266518459
40
0.9575079943
40
0.9820076284
40
1.0000000000
40
1.0000000000
40
1.0000000000
40
1.0000000000
10
17.3862410632
20
-9.9296246705
30
0.0000000000
10
17.3862547688
20
-9.9561370694
30
0.0000000000
10
17.3863095301
20
-10.0089086062
30
0.0000000000
10
17.3864741998
20
-10.0875202802
30
0.0000000000
10
17.3867200946
20
-10.1648755340
30
0.0000000000
10
17.3870456233
20
-10.2404827113
30
0.0000000000
10
17.3874486653
20
-10.3138601882
30
0.0000000000
10
17.3879265888
20
-10.3845409391
30
0.0000000000
10
17.3884762624
20
-10.4520751181
30
0.0000000000
10
17.3890940573
20
-10.5160323477
30
0.0000000000
10
17.3897758633
20
-10.5760055793
30
0.0000000000
10
17.3905170942
20
-10.6316129262
30
0.0000000000
10
17.3913126407
20
-10.6825004227
30
0.0000000000
10
17.3921569421
20
-10.7283436879
30
0.0000000000
10
17.3930434907
20
-10.7688509188
30
0.0000000000
10
17.3939658097
20
-10.8037641099
30
0.0000000000
10
17.3949131332
20
-10.8328615702
30
0.0000000000
10
17.3958792710
20
-10.8559578900
30
0.0000000000
10
17.3966290677
20
-10.8693302686
30
0.0000000000
10
17.3970488922
20
-10.8749852065
30
0.0000000000
11
17.3862410632
21
-9.9296246705
31
0.0000000000
11
17.3863238722
21
-10.0091618348
31
0.0000000000
11
17.3864894246
21
-10.0879391145
31
0.0000000000
11
17.3867366751
21
-10.1654595559
31
0.0000000000
11
17.3870640459
21
-10.2412274456
31
0.0000000000
11
17.3874694535
21
-10.3147604795
31
0.0000000000
11
17.3879503258
21
-10.3855917950
31
0.0000000000
11
17.3885035981
21
-10.4532694728
31
0.0000000000
11
17.3891257507
21
-10.5173627437
31
0.0000000000
11
17.3898128200
21
-10.5774631445
31
0.0000000000
11
17.3905604424
21
-10.6331887322
31
0.0000000000
11
17.3913638555
21
-10.6841842120
31
0.0000000000
11
17.3922179464
21
-10.7301248392
31
0.0000000000
11
17.3931172665
21
-10.7707174284
31
0.0000000000
11
17.3940561037
21
-10.8057041349
31
0.0000000000
11
17.3950284854
21
-10.8348619229
31
0.0000000000
11
17.3960281780
21
-10.8580043551
31
0.0000000000
11
17.3970488922
21
-10.8749852065
31
0.0000000000
0
SPLINE
5
360
100
AcDbEntity
8
0
100
AcDbSpline
62
9
6
CONTINUOUS
70
0
71
3
72
24
73
20
74
18
42
0.0000001000
43
0.0000001000
44
0.0000000001
12
0.0004887986
22
-0.7091849244
32
0.0000000000
13
0.0698594915
23
-0.7057358907
33
0.0000000000
40
0.0000000000
40
0.0000000000
40
0.0000000000
40
0.0000000000
40
0.0840899347
40
0.1674040972
40
0.2493896502
40
0.3295224503
40
0.4072925747
40
0.4822064271
40
0.5537862378
40
0.6215766290
40
0.6851458518
40
0.7440902615
40
0.7980344229
40
0.8466353743
40
0.8895838173
40
0.9266082170
40
0.9574745196
40
0.9819889455
40
1.0000000000
40
1.0000000000
40
1.0000000000
40
1.0000000000
10
17.6362029870
20
-9.9197628663
30
0.0000000000
10
17.6362166880
20
-9.9396413043
30
0.0000000000
10
17.6362714347
20
-9.9792147784
30
0.0000000000
10
17.6364360694
20
-10.0381690416
30
0.0000000000
10
17.6366819508
20
-10.0961875689
30
0.0000000000
10
17.6370074738
20
-10.1528951010
30
0.0000000000
10
17.6374105146
20
-10.2079303789
30
0.0000000000
10
17.6378884435
20
-10.2609430968
30
0.0000000000
10
17.6384381282
20
-10.3115958312
30
0.0000000000
10
17.6390559405
20
-10.3595657611
30
0.0000000000
10
17.6397377699
20
-10.4045475639
30
0.0000000000
10
17.6404790302
20
-10.4462547770
30
0.0000000000
10
17.6412746118
20
-10.4844218813
30
0.0000000000
10
17.6421189544
20
-10.5188055557
30
0.0000000000
10
17.6430055528
20
-10.5491869954
30
0.0000000000
10
17.6439279299
20
-10.5753726979
30
0.0000000000
10
17.6448753643
20
-10.5971968390
30
0.0000000000
10
17.6458415763
20
-10.6145193900
30
0.0000000000
10
17.6465914016
20
-10.6245462524
30
0.0000000000
10
17.6470108160
20
-10.6287832682
30
0.0000000000
11
17.6362029870
21
-9.9197628663
31
0.0000000000
11
17.6362857592
21
-9.9793981370
31
0.0000000000
11
17.6364512942
21
-10.0384830672
31
0.0000000000
11
17.6366985318
21
-10.0966254735
31
0.0000000000
11
17.6370258960
21
-10.1534535179
31
0.0000000000
11
17.6374313023
21
-10.2086054408
31
0.0000000000
11
17.6379121793
21
-10.2617310518
31
0.0000000000
11
17.6384654622
21
-10.3124913713
31
0.0000000000
11
17.6390876310
21
-10.3605632801
31
0.0000000000
11
17.6397747222
21
-10.4056403891
31
0.0000000000
11
17.6405223717
21
-10.4474361993
31
0.0000000000
11
17.6413258160
21
-10.4856841566
31
0.0000000000
11
17.6421799409
21
-10.5201406423
31
0.0000000000
11
17.6430792964
21
-10.5505857571
31
0.0000000000
11
17.6440181715
21
-10.5768261185
31
0.0000000000
11
17.6449905875
21
-10.5986944306
31
0.0000000000
11
17.6459903238
21
-10.6160509274
31
0.0000000000
11
17.6470108160
21
-10.6287832682
31
0.0000000000
0
SPLINE
5
361
100
AcDbEntity
8
0
100
AcDbSpline
62
9
6
CONTINUOUS
70
0
71
3
72
20
73
16
74
14
42
0.0000001000
43
0.0000001000
44
0.0000000001
12
-0.1013012925
22
0.2291819166
32
0.0000000000
13
-0.2505718920
23
0.0001723979
33
0.0000000000
40
0.0000000000
40
0.0000000000
40
0.0000000000
40
0.0000000000
40
0.0103159363
40
0.0340528543
40
0.0713690644
40
0.1218316278
40
0.1847582746
40
0.2592703331
40
0.3443163096
40
0.4386907927
40
0.5410533272
40
0.6499483643
40
0.7638264767
40
0.8810667334
40
1.0000000000
40
1.0000000000
40
1.0000000000
40
1.0000000000
10
17.6362029870
20
23.5906480313
30
0.0000000000
10
17.6358546477
20
23.5914361066
30
0.0000000000
10
17.6325123299
20
23.5920881302
30
0.0000000000
10
17.6271372990
20
23.5932863852
30
0.0000000000
10
17.6176172138
20
23.5942448824
30
0.0000000000
10
17.6051816993
20
23.5953176936
30
0.0000000000
10
17.5894762683
20
23.5962858064
30
0.0000000000
10
17.5709297323
20
23.5972030441
30
0.0000000000
10
17.5497313659
20
23.5980263301
30
0.0000000000
10
17.5262081281
20
23.5987511108
30
0.0000000000
10
17.5006872487
20
23.5993631128
30
0.0000000000
10
17.4735350448
20
23.5998538527
30
0.0000000000
10
17.4451379124
20
23.6002156624
30
0.0000000000
10
17.4159009929
20
23.6004432144
30
0.0000000000
10
17.3961748410
20
23.6005030009
30
0.0000000000
10
17.3862410632
20
23.6005098355
30
0.0000000000
11
17.6362029870
21
23.5906480313
31
0.0000000000
11
17.6339009812
21
23.5918237848
31
0.0000000000
11
17.6280671879
21
23.5929827714
31
0.0000000000
11
17.6187848005
21
23.5941084631
31
0.0000000000
11
17.6061861919
21
23.5951848068
31
0.0000000000
11
17.5904510261
21
23.5961964533
31
0.0000000000
11
17.5718036966
21
23.5971289757
31
0.0000000000
11
17.5505101262
21
23.5979690758
31
0.0000000000
11
17.5268739747
21
23.5987047731
31
0.0000000000
11
17.5012323086
21
23.5993255761
31
0.0000000000
11
17.4739507944
21
23.5998226319
31
0.0000000000
11
17.4454184837
21
23.6001888520
31
0.0000000000
11
17.4160422655
21
23.6004190140
31
0.0000000000
11
17.3862410632
21
23.6005098355
31
0.0000000000
0
SPLINE
5
362
100
AcDbEntity
8
0
100
AcDbSpline
62
9
6
CONTINUOUS
70
0
71
3
72
16
73
12
74
10
42
0.0000001000
43
0.0000001000
44
0.0000000001
12
-0.0230916856
22
-33.5301291707
32
0.0000000000
13
0.0230916855
23
-33.5301291707
33
0.0000000000
40
0.0000000000
40
0.0000000000
40
0.0000000000
40
0.0000000000
40
0.1110712573
40
0.2221724041
40
0.3332949020
40
0.4444302106
40
0.5555697894
40
0.6667050980
40
0.7778275959
40
0.8889287427
40
1.0000000000
40
1.0000000000
40
1.0000000000
40
1.0000000000
10
17.3862410632
20
23.6005098355
30
0.0000000000
10
17.3853861223
20
22.3590986336
30
0.0000000000
10
17.3838662467
20
19.8759420292
30
0.0000000000
10
17.3821565074
20
16.1508011519
30
0.0000000000
10
17.3810166081
20
12.4249441733
30
0.0000000000
10
17.3804466366
20
8.6986575210
30
0.0000000000
10
17.3804466366
20
4.9722276441
30
0.0000000000
10
17.3810166081
20
1.2459409917
30
0.0000000000
10
17.3821565074
20
-2.4799159868
30
0.0000000000
10
17.3838662467
20
-6.2050568641
30
0.0000000000
10
17.3853861223
20
-8.6882134686
30
0.0000000000
10
17.3862410632
20
-9.9296246705
30
0.0000000000
11
17.3862410632
21
23.6005098355
31
0.0000000000
11
17.3839614690
21
19.8762760442
31
0.0000000000
11
17.3822516201
21
16.1510397514
31
0.0000000000
11
17.3811116478
21
12.4250873325
31
0.0000000000
11
17.3805416398
21
8.6987052400
31
0.0000000000
11
17.3805416398
21
4.9721799251
31
0.0000000000
11
17.3811116478
21
1.2457978326
31
0.0000000000
11
17.3822516201
21
-2.4801545863
31
0.0000000000
11
17.3839614690
21
-6.2053908791
31
0.0000000000
11
17.3862410632
21
-9.9296246705
31
0.0000000000
0
SPLINE
5
363
100
AcDbEntity
8
0
100
AcDbSpline
62
9
6
CONTINUOUS
70
0
71
3
72
16
73
12
74
10
42
0.0000001000
43
0.0000001000
44
0.0000000001
12
-0.0230916856
22
-33.5104055590
32
0.0000000000
13
0.0230916855
23
-33.5104055590
33
0.0000000000
40
0.0000000000
40
0.0000000000
40
0.0000000000
40
0.0000000000
40
0.1110712512
40
0.2221724002
40
0.3332949004
40
0.4444302113
40
0.5555697923
40
0.6667051031
40
0.7778276033
40
0.8889287524
40
1.0000000000
40
1.0000000000
40
1.0000000000
40
1.0000000000
10
17.6362029870
20
23.5906480313
30
0.0000000000
10
17.6353480462
20
22.3499671404
30
0.0000000000
10
17.6338281706
20
19.8682712602
30
0.0000000000
10
17.6321184312
20
16.1453216605
30
0.0000000000
10
17.6309785319
20
12.4216562862
30
0.0000000000
10
17.6304085604
20
8.6975614909
30
0.0000000000
10
17.6304085604
20
4.9733235551
30
0.0000000000
10
17.6309785320
20
1.2492287599
30
0.0000000000
10
17.6321184313
20
-2.4744366143
30
0.0000000000
10
17.6338281706
20
-6.1973861743
30
0.0000000000
10
17.6353480462
20
-8.6790820149
30
0.0000000000
10
17.6362029870
20
-9.9197628663
30
0.0000000000
11
17.6362029870
21
23.5906480313
31
0.0000000000
11
17.6339233929
21
19.8686051731
31
0.0000000000
11
17.6322135439
21
16.1455601196
31
0.0000000000
11
17.6310735716
21
12.4217993612
31
0.0000000000
11
17.6305035636
21
8.6976091817
31
0.0000000000
11
17.6305035636
21
4.9732758642
31
0.0000000000
11
17.6310735716
21
1.2490856849
31
0.0000000000
11
17.6322135440
21
-2.4746750734
31
0.0000000000
11
17.6339233930
21
-6.1977201267
31
0.0000000000
11
17.6362029870
21
-9.9197628663
31
0.0000000000
0
SPLINE
5
364
100
AcDbEntity
8
0
100
AcDbSpline
62
9
6
CONTINUOUS
70
0
71
3
72
20
73
16
74
14
42
0.0000001000
43
0.0000001000
44
0.0000000001
12
-0.0011971472
22
0.3890806396
32
0.0000000000
13
-0.3890807480
23
0.0011614029
33
0.0000000000
40
0.0000000000
40
0.0000000000
40
0.0000000000
40
0.0000000000
40
0.0762841341
40
0.1526297668
40
0.2290661010
40
0.3056169962
40
0.3822995895
40
0.4591233260
40
0.5360894512
40
0.6131909824
40
0.6904131546
40
0.7677343018
40
0.8451271208
40
0.9225602389
40
1.0000000000
40
1.0000000000
40
1.0000000000
40
1.0000000000
10
17.6470108160
20
24.2996684332
30
0.0000000000
10
17.6469803748
20
24.3095619931
30
0.0000000000
10
17.6457048482
20
24.3293746664
30
0.0000000000
10
17.6401787144
20
24.3586364207
30
0.0000000000
10
17.6311198667
20
24.3870448661
30
0.0000000000
10
17.6186604537
20
24.4141812559
30
0.0000000000
10
17.6029820487
20
24.4396529277
30
0.0000000000
10
17.5843129640
20
24.4630896287
30
0.0000000000
10
17.5629248414
20
24.4841513848
30
0.0000000000
10
17.5391286977
20
24.5025327125
30
0.0000000000
10
17.5132702006
20
24.5179671731
30
0.0000000000
10
17.4857252783
20
24.5302311209
30
0.0000000000
10
17.4568922808
20
24.5391469030
30
0.0000000000
10
17.4271951733
20
24.5445853522
30
0.0000000000
10
17.4070923322
20
24.5458403919
30
0.0000000000
10
17.3970488922
20
24.5458703715
30
0.0000000000
11
17.6470108160
21
24.2996684332
31
0.0000000000
11
17.6451041946
21
24.3292879518
31
0.0000000000
11
17.6395942964
21
24.3584772150
31
0.0000000000
11
17.6305611585
21
24.3868122166
31
0.0000000000
11
17.6181359968
21
24.4138813593
31
0.0000000000
11
17.6024993002
21
24.4392914337
31
0.0000000000
11
17.5838782089
21
24.4626733304
31
0.0000000000
11
17.5625432146
21
24.4836874012
31
0.0000000000
11
17.5388042315
21
24.5020283932
31
0.0000000000
11
17.5130060945
21
24.5174298830
31
0.0000000000
11
17.4855235502
21
24.5296681466
31
0.0000000000
11
17.4567558130
21
24.5385654096
31
0.0000000000
11
17.4271207663
21
24.5439924290
31
0.0000000000
11
17.3970488922
21
24.5458703715
31
0.0000000000
0
SPLINE
5
365
100
AcDbEntity
8
0
100
AcDbSpline
62
9
6
CONTINUOUS
70
0
71
3
72
24
73
20
74
18
42
0.0000001000
43
0.0000001000
44
0.0000000001
12
-0.0700011004
22
-0.9428891831
32
0.0000000000
13
-0.0004887434
23
-0.9454839643
33
0.0000000000
40
0.0000000000
40
0.0000000000
40
0.0000000000
40
0.0000000000
40
0.0179923353
40
0.0424919633
40
0.0733481088
40
0.1103654252
40
0.1533090880
40
0.2019070138
40
0.2558495402
40
0.3147935133
40
0.3783634066
40
0.4461554466
40
0.5177377594
40
0.5926548689
40
0.6704289276
40
0.7505663038
40
0.8325569147
40
0.9158765995
40
1.0000000000
40
1.0000000000
40
1.0000000000
40
1.0000000000
10
17.3970488922
20
24.5458703715
30
0.0000000000
10
17.3966290644
20
24.5402154454
30
0.0000000000
10
17.3958792770
20
24.5268430794
30
0.0000000000
10
17.3949131338
20
24.5037467743
30
0.0000000000
10
17.3939658130
20
24.4746493223
30
0.0000000000
10
17.3930434929
20
24.4397361378
30
0.0000000000
10
17.3921569446
20
24.3992289127
30
0.0000000000
10
17.3913126430
20
24.3533856501
30
0.0000000000
10
17.3905170964
20
24.3024981608
30
0.0000000000
10
17.3897758655
20
24.2468908228
30
0.0000000000
10
17.3890940593
20
24.1869175959
30
0.0000000000
10
17.3884762640
20
24.1229603669
30
0.0000000000
10
17.3879265901
20
24.0554261909
30
0.0000000000
10
17.3874486664
20
23.9847454501
30
0.0000000000
10
17.3870456240
20
23.9113679772
30
0.0000000000
10
17.3867200954
20
23.8357608053
30
0.0000000000
10
17.3864741996
20
23.7584055573
30
0.0000000000
10
17.3863095311
20
23.6797938517
30
0.0000000000
10
17.3862547681
20
23.6270222776
30
0.0000000000
10
17.3862410632
20
23.6005098355
30
0.0000000000
11
17.3970488922
21
24.5458703715
31
0.0000000000
11
17.3960281810
21
24.5288895543
31
0.0000000000
11
17.3950284877
21
24.5057471279
31
0.0000000000
11
17.3940561061
21
24.4765893426
31
0.0000000000
11
17.3931172691
21
24.4416026530
31
0.0000000000
11
17.3922179488
21
24.4010100640
31
0.0000000000
11
17.3913638577
21
24.3550694370
31
0.0000000000
11
17.3905604446
21
24.3040739647
31
0.0000000000
11
17.3898128222
21
24.2483483908
31
0.0000000000
11
17.3891257527
21
24.1882479952
31
0.0000000000
11
17.3885035997
21
24.1241547195
31
0.0000000000
11
17.3879503270
21
24.0564770430
31
0.0000000000
11
17.3874694546
21
23.9856457402
31
0.0000000000
11
17.3870640468
21
23.9121127226
31
0.0000000000
11
17.3867366757
21
23.8363448155
31
0.0000000000
11
17.3864894248
21
23.7588243917
31
0.0000000000
11
17.3863238726
21
23.6800471292
31
0.0000000000
11
17.3862410632
21
23.6005098355
31
0.0000000000
0
SPLINE
5
366
100
AcDbEntity
8
0
100
AcDbSpline
62
9
6
CONTINUOUS
70
0
71
3
72
24
73
20
74
18
42
0.0000001000
43
0.0000001000
44
0.0000000001
12
-0.0698591277
22
-0.7057359268
32
0.0000000000
13
-0.0004887875
23
-0.7091849245
33
0.0000000000
40
0.0000000000
40
0.0000000000
40
0.0000000000
40
0.0000000000
40
0.0180093486
40
0.0425232082
40
0.0733888959
40
0.1104126575
40
0.1533604597
40
0.2019607599
40
0.2559042545
40
0.3148480548
40
0.3784168371
40
0.4462069898
40
0.5177866870
40
0.5927004718
40
0.6704705788
40
0.7506034493
40
0.8325890801
40
0.9159033685
40
1.0000000000
40
1.0000000000
40
1.0000000000
40
1.0000000000
10
17.6470108160
20
24.2996684332
30
0.0000000000
10
17.6465914435
20
24.2954318184
30
0.0000000000
10
17.6458416359
20
24.2854054939
30
0.0000000000
10
17.6448754459
20
24.2680836249
30
0.0000000000
10
17.6439280096
20
24.2462599145
30
0.0000000000
10
17.6430056334
20
24.2200746598
30
0.0000000000
10
17.6421190335
20
24.1896936766
30
0.0000000000
10
17.6412746894
20
24.1553104654
30
0.0000000000
10
17.6404791049
20
24.1171438170
30
0.0000000000
10
17.6397378402
20
24.0754370098
30
0.0000000000
10
17.6390560046
20
24.0304555117
30
0.0000000000
10
17.6384381846
20
23.9824857693
30
0.0000000000
10
17.6378884917
20
23.9318331342
30
0.0000000000
10
17.6374105546
20
23.8788204632
30
0.0000000000
10
17.6370075056
20
23.8237851888
30
0.0000000000
10
17.6366819751
20
23.7670776258
30
0.0000000000
10
17.6364360859
20
23.7090590338
30
0.0000000000
10
17.6362714405
20
23.6501031393
30
0.0000000000
10
17.6362166888
20
23.6105280523
30
0.0000000000
10
17.6362029870
20
23.5906480313
30
0.0000000000
11
17.6470108160
21
24.2996684332
31
0.0000000000
11
17.6459904047
21
24.2869372996
31
0.0000000000
11
17.6449906691
21
24.2695812051
31
0.0000000000
11
17.6440182529
21
24.2477133294
31
0.0000000000
11
17.6430793776
21
24.2214734208
31
0.0000000000
11
17.6421800208
21
24.1910287607
31
0.0000000000
11
17.6413258940
21
24.1565727371
31
0.0000000000
11
17.6405224471
21
24.1183252527
31
0.0000000000
11
17.6397747936
21
24.0765298749
31
0.0000000000
11
17.6390876961
21
24.0314530785
31
0.0000000000
11
17.6384655193
21
23.9833813388
31
0.0000000000
11
17.6379122279
21
23.9326211000
31
0.0000000000
11
17.6374313426
21
23.8794955370
31
0.0000000000
11
17.6370259282
21
23.8243436265
31
0.0000000000
11
17.6366985562
21
23.7675155322
31
0.0000000000
11
17.6364513111
21
23.7093730707
31
0.0000000000
11
17.6362857692
21
23.6502880512
31
0.0000000000
11
17.6362029870
21
23.5906480313
31
0.0000000000
0
SPLINE
5
367
100
AcDbEntity
8
0
100
AcDbSpline
62
7
6
CONTINUOUS
70
0
71
3
72
21
73
17
74
15
42
0.0000001000
43
0.0000001000
44
0.0000000001
12
0.3944111719
22
0.0000000000
32
0.0000000000
13
0.0000000000
23
-0.3944111719
33
0.0000000000
40
0.0000000000
40
0.0000000000
40
0.0000000000
40
0.0000000000
40
0.0703747308
40
0.1407674932
40
0.2112090772
40
0.2817919090
40
0.3525240979
40
0.4234986317
40
0.4946888730
40
0.5661769277
40
0.6379029218
40
0.7099258257
40
0.7821640862
40
0.8546343949
40
0.9272523316
40
1.0000000000
40
1.0000000000
40
1.0000000000
40
1.0000000000
10
17.4554121737
20
25.1354425825
30
0.0000000000
10
17.4646643671
20
25.1354425825
30
0.0000000000
10
17.4831881135
20
25.1343973583
30
0.0000000000
10
17.5106144546
20
25.1297107383
30
0.0000000000
10
17.5373687662
20
25.1219585278
30
0.0000000000
10
17.5631212141
20
25.1112281547
30
0.0000000000
10
17.5875655448
20
25.0976365719
30
0.0000000000
10
17.6103937526
20
25.0813391761
30
0.0000000000
10
17.6313237072
20
25.0625175533
30
0.0000000000
10
17.6500792208
20
25.0413958665
30
0.0000000000
10
17.6664174578
20
25.0182193395
30
0.0000000000
10
17.6801121915
20
24.9932762577
30
0.0000000000
10
17.6909762346
20
24.9668709613
30
0.0000000000
10
17.6988522543
20
24.9393433836
30
0.0000000000
10
17.7036265888
20
24.9110478550
30
0.0000000000
10
17.7046924957
20
24.8919194264
30
0.0000000000
10
17.7046924957
20
24.8823552621
30
0.0000000000
11
17.4554121737
21
25.1354425825
31
0.0000000000
11
17.4831246249
21
25.1338780419
31
0.0000000000
11
17.5104917782
21
25.1292024126
31
0.0000000000
11
17.5371772846
21
25.1214709231
31
0.0000000000
11
17.5628750528
21
25.1107650577
31
0.0000000000
11
17.5872580326
21
25.0972098203
31
0.0000000000
11
17.6100423641
21
25.0809466524
31
0.0000000000
11
17.6309220924
21
25.0621736998
31
0.0000000000
11
17.6496455644
21
25.0410922296
31
0.0000000000
11
17.6659474572
21
25.0179719790
31
0.0000000000
11
17.6796210700
21
24.9930727944
31
0.0000000000
11
17.6904638477
21
24.9667250406
31
0.0000000000
11
17.6983284224
21
24.9392451928
31
0.0000000000
11
17.7030946691
21
24.9110032308
31
0.0000000000
11
17.7046924957
21
24.8823552621
31
0.0000000000
0
SPLINE
5
368
100
AcDbEntity
8
0
100
AcDbSpline
62
9
6
CONTINUOUS
70
0
71
3
72
8
73
4
74
2
42
0.0000001000
43
0.0000001000
44
0.0000000001
12
-0.0301846675
22
0.0000000000
32
0.0000000000
13
-0.0299876410
23
0.0036411167
33
0.0000000000
40
0.0000000000
40
0.0000000000
40
0.0000000000
40
0.0000000000
40
1.0000000000
40
1.0000000000
40
1.0000000000
40
1.0000000000
10
16.1126665610
20
-17.1645574175
30
0.0000000000
10
16.1026050052
20
-17.1645574175
30
0.0000000000
10
16.0925328608
20
-17.1639483416
30
0.0000000000
10
16.0825369805
20
-17.1627346360
30
0.0000000000
11
16.1126665610
21
-17.1645574175
31
0.0000000000
11
16.0825369805
21
-17.1627346360
31
0.0000000000
0
SPLINE
5
369
100
AcDbEntity
8
0
100
AcDbSpline
62
9
6
CONTINUOUS
70
0
71
3
72
8
73
4
74
2
42
0.0000001000
43
0.0000001000
44
0.0000000001
12
-0.0099950987
22
0.0012136106
32
0.0000000000
13
-0.0099366264
23
0.0016151596
33
0.0000000000
40
0.0000000000
40
0.0000000000
40
0.0000000000
40
0.0000000000
40
1.0000000000
40
1.0000000000
40
1.0000000000
40
1.0000000000
10
16.0825369805
20
-17.1627346360
30
0.0000000000
10
16.0792052809
20
-17.1623300991
30
0.0000000000
10
16.0758820538
20
-17.1618583917
30
0.0000000000
10
16.0725698451
20
-17.1613200052
30
0.0000000000
11
16.0825369805
21
-17.1627346360
31
0.0000000000
11
16.0725698451
21
-17.1613200052
31
0.0000000000
0
SPLINE
5
36A
100
AcDbEntity
8
0
100
AcDbSpline
62
9
6
CONTINUOUS
70
0
71
3
72
19
73
15
74
13
42
0.0000001000
43
0.0000001000
44
0.0000000001
12
-0.3478392013
22
0.0565398959
32
0.0000000000
13
0.0000000000
23
0.3521849105
33
0.0000000000
40
0.0000000000
40
0.0000000000
40
0.0000000000
40
0.0000000000
40
0.0571405262
40
0.1428485075
40
0.2285575325
40
0.3142678525
40
0.3999796441
40
0.4856929978
40
0.5714079137
40
0.6571243010
40
0.7428419834
40
0.8285607092
40
0.9142801663
40
1.0000000000
40
1.0000000000
40
1.0000000000
40
1.0000000000
10
16.0725698451
20
-17.1613200052
30
0.0000000000
10
16.0659446067
20
-17.1602430987
30
0.0000000000
10
16.0494920448
20
-17.1568839425
30
0.0000000000
10
16.0238125164
20
-17.1488809080
30
0.0000000000
10
15.9962203060
20
-17.1364606266
30
0.0000000000
10
15.9703258337
20
-17.1208044942
30
0.0000000000
10
15.9465071129
20
-17.1021408207
30
0.0000000000
10
15.9251113609
20
-17.0807417616
30
0.0000000000
10
15.9064506015
20
-17.0569193974
30
0.0000000000
10
15.8907969374
20
-17.0310210031
30
0.0000000000
10
15.8783786305
20
-17.0034246501
30
0.0000000000
10
15.8693767615
20
-16.9745312085
30
0.0000000000
10
15.8639225936
20
-16.9447677728
30
0.0000000000
10
15.8627046372
20
-16.9246204948
30
0.0000000000
10
15.8627046372
20
-16.9145574175
30
0.0000000000
11
16.0725698451
21
-17.1613200052
31
0.0000000000
11
16.0528467572
21
-17.1572928719
31
0.0000000000
11
16.0240288412
21
-17.1483114782
31
0.0000000000
11
15.9965034629
21
-17.1359214239
31
0.0000000000
11
15.9706720041
21
-17.1203033840
31
0.0000000000
11
15.9469111456
21
-17.1016851045
31
0.0000000000
11
15.9255673744
21
-17.0803380821
31
0.0000000000
11
15.9069519306
21
-17.0565736042
31
0.0000000000
11
15.8913362694
21
-17.0307382105
31
0.0000000000
11
15.8789481022
21
-17.0032086393
31
0.0000000000
11
15.8699680764
21
-16.9743863336
31
0.0000000000
11
15.8645271411
21
-16.9446915876
31
0.0000000000
11
15.8627046372
21
-16.9145574175
31
0.0000000000
0
SPLINE
5
36B
100
AcDbEntity
8
0
100
AcDbSpline
62
9
6
CONTINUOUS
70
0
71
3
72
20
73
16
74
14
42
0.0000001000
43
0.0000001000
44
0.0000000001
12
0.3924303470
22
0.0000000000
32
0.0000000000
13
0.0000000000
23
0.3924303470
33
0.0000000000
40
0.0000000000
40
0.0000000000
40
0.0000000000
40
0.0000000000
40
0.0769172542
40
0.1538348478
40
0.2307530992
40
0.3076722885
40
0.3845926415
40
0.4615143162
40
0.5384373940
40
0.6153618748
40
0.6922876769
40
0.7692146420
40
0.8461425442
40
0.9230711030
40
1.0000000000
40
1.0000000000
40
1.0000000000
40
1.0000000000
10
17.5410893394
20
-17.1645574175
30
0.0000000000
10
17.5511508943
20
-17.1645574175
30
0.0000000000
10
17.5712952256
20
-17.1633392632
30
0.0000000000
10
17.6010542433
20
-17.1578842190
30
0.0000000000
10
17.6299433780
20
-17.1488809102
30
0.0000000000
10
17.6575355877
20
-17.1364606300
30
0.0000000000
10
17.6834300600
20
-17.1208044989
30
0.0000000000
10
17.7072487813
20
-17.1021408262
30
0.0000000000
10
17.7286445342
20
-17.0807417676
30
0.0000000000
10
17.7473052947
20
-17.0569194034
30
0.0000000000
10
17.7629589601
20
-17.0310210087
30
0.0000000000
10
17.7753772682
20
-17.0034246548
30
0.0000000000
10
17.7843791381
20
-16.9745312119
30
0.0000000000
10
17.7898333067
20
-16.9447677746
30
0.0000000000
10
17.7910512632
20
-16.9246204954
30
0.0000000000
10
17.7910512632
20
-16.9145574175
30
0.0000000000
11
17.5410893394
21
-17.1645574175
31
0.0000000000
11
17.5712189171
21
-17.1627346364
31
0.0000000000
11
17.6009091384
21
-17.1572928730
31
0.0000000000
11
17.6297270530
21
-17.1483114805
31
0.0000000000
11
17.6572524307
21
-17.1359214275
31
0.0000000000
11
17.6830838895
21
-17.1203033887
31
0.0000000000
11
17.7068447484
21
-17.1016851101
31
0.0000000000
11
17.7281885206
21
-17.0803380881
31
0.0000000000
11
17.7468039655
21
-17.0565736103
31
0.0000000000
11
17.7624196280
21
-17.0307382162
31
0.0000000000
11
17.7748077964
21
-17.0032086440
31
0.0000000000
11
17.7837878231
21
-16.9743863370
31
0.0000000000
11
17.7892287591
21
-16.9446915894
31
0.0000000000
11
17.7910512632
21
-16.9145574175
31
0.0000000000
0
SPLINE
5
36C
100
AcDbEntity
8
0
100
AcDbSpline
62
7
6
CONTINUOUS
70
0
71
3
72
20
73
16
74
14
42
0.0000001000
43
0.0000001000
44
0.0000000001
12
0.2001135905
22
0.0000000000
32
0.0000000000
13
0.0000000000
23
0.2001135905
33
0.0000000000
40
0.0000000000
40
0.0000000000
40
0.0000000000
40
0.0000000000
40
0.0075366553
40
0.0293997114
40
0.0653192761
40
0.1147301698
40
0.1773992594
40
0.2520297144
40
0.3370925550
40
0.4323312765
40
0.5360200911
40
0.6458123712
40
0.7609859196
40
0.8799417263
40
1.0000000000
40
1.0000000000
40
1.0000000000
40
1.0000000000
10
-0.7766130628
20
29.3354425825
30
0.0000000000
10
-0.7761103337
20
29.3354425825
30
0.0000000000
10
-0.7763539301
20
29.3384636274
30
0.0000000000
10
-0.7754891774
20
29.3417879191
30
0.0000000000
10
-0.7754031836
20
29.3494987554
30
0.0000000000
10
-0.7749111605
20
29.3591176686
30
0.0000000000
10
-0.7746080858
20
29.3716613031
30
0.0000000000
10
-0.7742673676
20
29.3864576033
30
0.0000000000
10
-0.7739801931
20
29.4034710151
30
0.0000000000
10
-0.7737224299
20
29.4224093578
30
0.0000000000
10
-0.7735079691
20
29.4430023121
30
0.0000000000
10
-0.7733372588
20
29.4649241199
30
0.0000000000
10
-0.7732135982
20
29.4878650257
30
0.0000000000
10
-0.7731387021
20
29.5114908189
30
0.0000000000
10
-0.7731220498
20
29.5274341518
30
0.0000000000
10
-0.7731220498
20
29.5354425825
30
0.0000000000
11
-0.7766130628
21
29.3354425825
31
0.0000000000
11
-0.7761936402
21
29.3368912761
31
0.0000000000
11
-0.7757781487
21
29.3412465970
31
0.0000000000
11
-0.7753758696
21
29.3484233244
31
0.0000000000
11
-0.7749922957
21
29.3583036730
31
0.0000000000
11
-0.7746301040
21
29.3708393782
31
0.0000000000
11
-0.7742975058
21
29.3857702426
31
0.0000000000
11
-0.7740004378
21
29.4027898806
31
0.0000000000
11
-0.7737398103
21
29.4218466610
31
0.0000000000
11
-0.7735210354
21
29.4425950486
31
0.0000000000
11
-0.7733486198
21
29.4645652995
31
0.0000000000
11
-0.7732233491
21
29.4876127514
31
0.0000000000
11
-0.7731473296
21
29.5114173036
31
0.0000000000
11
-0.7731220498
21
29.5354425825
31
0.0000000000
0
SPLINE
5
36D
100
AcDbEntity
8
0
100
AcDbSpline
62
9
6
CONTINUOUS
70
0
71
3
72
125
73
121
74
119
42
0.0000001000
43
0.0000001000
44
0.0000000001
12
-0.0914304416
22
1.7063155864
32
0.0000000000
13
-0.0914304456
23
-1.7063155861
33
0.0000000000
40
0.0000000000
40
0.0000000000
40
0.0000000000
40
0.0000000000
40
0.0039840850
40
0.0079447926
40
0.0119098840
40
0.0159068315
40
0.0199621911
40
0.0241010655
40
0.0283466905
40
0.0327201208
40
0.0372401123
40
0.0419232293
40
0.0467838452
40
0.0518342028
40
0.0570841459
40
0.0625413679
40
0.0682109724
40
0.0740966813
40
0.0802022872
40
0.0865305665
40
0.0930832766
40
0.0998611806
40
0.1068642371
40
0.1140918309
40
0.1215427033
40
0.1292149679
40
0.1371062317
40
0.1452136517
40
0.1535339798
40
0.1620636048
40
0.1707986828
40
0.1797349645
40
0.1888678699
40
0.1981925498
40
0.2077039077
40
0.2173966166
40
0.2272651697
40
0.2373040095
40
0.2475072474
40
0.2578687947
40
0.2683824013
40
0.2790416651
40
0.2898400441
40
0.3007709285
40
0.3118277284
40
0.3230035670
40
0.3342914480
40
0.3456842755
40
0.3571748612
40
0.3687559341
40
0.3804202413
40
0.3921605574
40
0.4039694431
40
0.4158393955
40
0.4277628465
40
0.4397321755
40
0.4517397282
40
0.4637779373
40
0.4758392605
40
0.4879160240
40
0.5000005291
40
0.5120850368
40
0.5241617992
40
0.5362230832
40
0.5482612877
40
0.5602688457
40
0.5722381430
40
0.5841615667
40
0.5960314949
40
0.6078403429
40
0.6195805946
40
0.6312448892
40
0.6428259321
40
0.6543164632
40
0.6657092441
40
0.6769970747
40
0.6881728437
40
0.6992295674
40
0.7101604324
40
0.7209587510
40
0.7316179488
40
0.7421315017
40
0.7524929959
40
0.7626961701
40
0.7727349587
40
0.7826035013
40
0.7922961539
40
0.8018074692
40
0.8111321211
40
0.8202650009
40
0.8292012539
40
0.8379363223
40
0.8464659509
40
0.8547862531
40
0.8628936686
40
0.8707849327
40
0.8784571931
40
0.8859080628
40
0.8931356761
40
0.9001387316
40
0.9069165922
40
0.9134693157
40
0.9197977199
40
0.9259034965
40
0.9317892284
40
0.9374585451
40
0.9429161314
40
0.9481660681
40
0.9532161473
40
0.9580766557
40
0.9627598048
40
0.9672798611
40
0.9716533086
40
0.9758989334
40
0.9800378113
40
0.9840931708
40
0.9880901142
40
0.9920552011
40
0.9960159074
40
1.0000000000
40
1.0000000000
40
1.0000000000
40
1.0000000000
10
13.3706171944
20
-16.4145574175
30
0.0000000000
10
13.3704957722
20
-16.4122913821
30
0.0000000000
10
13.3700683676
20
-16.4077801719
30
0.0000000000
10
13.3688634213
20
-16.4010965472
30
0.0000000000
10
13.3670988486
20
-16.3945304124
30
0.0000000000
10
13.3647764116
20
-16.3880832981
30
0.0000000000
10
13.3618984685
20
-16.3817557405
30
0.0000000000
10
13.3584679052
20
-16.3755481731
30
0.0000000000
10
13.3544879968
20
-16.3694606894
30
0.0000000000
10
13.3499623256
20
-16.3634931742
30
0.0000000000
10
13.3448946899
20
-16.3576453119
30
0.0000000000
10
13.3392890458
20
-16.3519166475
30
0.0000000000
10
13.3331495064
20
-16.3463066692
30
0.0000000000
10
13.3264806117
20
-16.3408150668
30
0.0000000000
10
13.3192875985
20
-16.3354418438
30
0.0000000000
10
13.3115769417
20
-16.3301875478
30
0.0000000000
10
13.3033562242
20
-16.3250529571
30
0.0000000000
10
13.2946333195
20
-16.3200385053
30
0.0000000000
10
13.2854157529
20
-16.3151440879
30
0.0000000000
10
13.2757106471
20
-16.3103692276
30
0.0000000000
10
13.2655254277
20
-16.3057135035
30
0.0000000000
10
13.2548678921
20
-16.3011765678
30
0.0000000000
10
13.2437461326
20
-16.2967580980
30
0.0000000000
10
13.2321684799
20
-16.2924577760
30
0.0000000000
10
13.2201435206
20
-16.2882752987
30
0.0000000000
10
13.2076801599
20
-16.2842103974
30
0.0000000000
10
13.1947876021
20
-16.2802628263
30
0.0000000000
10
13.1814753023
20
-16.2764323465
30
0.0000000000
10
13.1677529502
20
-16.2727187235
30
0.0000000000
10
13.1536304038
20
-16.2691217128
30
0.0000000000
10
13.1391177355
20
-16.2656410776
30
0.0000000000
10
13.1242252543
20
-16.2622765957
30
0.0000000000
10
13.1089635625
20
-16.2590280703
30
0.0000000000
10
13.0933434992
20
-16.2558953149
30
0.0000000000
10
13.0773761107
20
-16.2528781488
30
0.0000000000
10
13.0610726246
20
-16.2499763930
30
0.0000000000
10
13.0444443590
20
-16.2471898580
30
0.0000000000
10
13.0275027971
20
-16.2445183613
30
0.0000000000
10
13.0102596139
20
-16.2419617333
30
0.0000000000
10
12.9927267543
20
-16.2395198264
30
0.0000000000
10
12.9749163441
20
-16.2371925006
30
0.0000000000
10
12.9568406679
20
-16.2349796215
30
0.0000000000
10
12.9385121255
20
-16.2328810555
30
0.0000000000
10
12.9199431439
20
-16.2308966632
30
0.0000000000
10
12.9011462677
20
-16.2290263135
30
0.0000000000
10
12.8821341962
20
-16.2272698878
30
0.0000000000
10
12.8629198577
20
-16.2256272845
30
0.0000000000
10
12.8435163053
20
-16.2240984084
30
0.0000000000
10
12.8239367015
20
-16.2226831701
30
0.0000000000
10
12.8041942563
20
-16.2213814818
30
0.0000000000
10
12.7843021633
20
-16.2201932561
30
0.0000000000
10
12.7642736784
20
-16.2191184140
30
0.0000000000
10
12.7441221702
20
-16.2181568876
30
0.0000000000
10
12.7238611766
20
-16.2173086211
30
0.0000000000
10
12.7035043162
20
-16.2165735652
30
0.0000000000
10
12.6830652747
20
-16.2159516764
30
0.0000000000
10
12.6625577213
20
-16.2154429148
30
0.0000000000
10
12.6419952672
20
-16.2150472455
30
0.0000000000
10
12.6213915240
20
-16.2147646421
30
0.0000000000
10
12.6007601706
20
-16.2145950878
30
0.0000000000
10
12.5801149926
20
-16.2145385739
30
0.0000000000
10
12.5594698152
20
-16.2145950977
30
0.0000000000
10
12.5388384834
20
-16.2147646617
30
0.0000000000
10
12.5182347660
20
-16.2150472746
30
0.0000000000
10
12.4976723340
20
-16.2154429531
30
0.0000000000
10
12.4771647985
20
-16.2159517240
30
0.0000000000
10
12.4567257879
20
-16.2165736216
30
0.0000000000
10
12.4363689752
20
-16.2173086853
30
0.0000000000
10
12.4161080327
20
-16.2181569591
30
0.0000000000
10
12.3959565968
20
-16.2191184913
30
0.0000000000
10
12.3759281776
20
-16.2201933387
30
0.0000000000
10
12.3560361460
20
-16.2213815694
30
0.0000000000
10
12.3362937566
20
-16.2226832627
30
0.0000000000
10
12.3167142280
20
-16.2240985040
30
0.0000000000
10
12.2973107623
20
-16.2256273812
30
0.0000000000
10
12.2780965190
20
-16.2272699841
30
0.0000000000
10
12.2590845594
20
-16.2290264068
30
0.0000000000
10
12.2402877776
20
-16.2308967536
30
0.0000000000
10
12.2217188849
20
-16.2328811426
30
0.0000000000
10
12.2033904257
20
-16.2349797050
30
0.0000000000
10
12.1853148518
20
-16.2371925768
30
0.0000000000
10
12.1675045399
20
-16.2395198944
30
0.0000000000
10
12.1499717770
20
-16.2419617918
30
0.0000000000
10
12.1327286891
20
-16.2445184090
30
0.0000000000
10
12.1157871980
20
-16.2471898971
30
0.0000000000
10
12.0991589991
20
-16.2499764231
30
0.0000000000
10
12.0828555747
20
-16.2528781694
30
0.0000000000
10
12.0668882574
20
-16.2558953229
30
0.0000000000
10
12.0512682477
20
-16.2590280676
30
0.0000000000
10
12.0360066017
20
-16.2622765829
30
0.0000000000
10
12.0211141557
20
-16.2656410557
30
0.0000000000
10
12.0066015062
20
-16.2691216848
30
0.0000000000
10
11.9924789771
20
-16.2727186893
30
0.0000000000
10
11.9787566392
20
-16.2764323062
30
0.0000000000
10
11.9654443551
20
-16.2802627786
30
0.0000000000
10
11.9525518010
20
-16.2842103455
30
0.0000000000
10
11.9400884428
20
-16.2882752426
30
0.0000000000
10
11.9280634756
20
-16.2924577188
30
0.0000000000
10
11.9164858132
20
-16.2967580406
30
0.0000000000
10
11.9053640656
20
-16.3011765019
30
0.0000000000
10
11.8947065445
20
-16.3057134263
30
0.0000000000
10
11.8845212734
20
-16.3103691676
30
0.0000000000
10
11.8748160083
20
-16.3151441030
30
0.0000000000
10
11.8655982836
20
-16.3200386098
30
0.0000000000
10
11.8568754309
20
-16.3250530447
30
0.0000000000
10
11.8486546680
20
-16.3301876688
30
0.0000000000
10
11.8409439811
20
-16.3354419925
30
0.0000000000
10
11.8337509443
20
-16.3408152597
30
0.0000000000
10
11.8270822299
20
-16.3463067289
30
0.0000000000
10
11.8209428359
20
-16.3519165671
30
0.0000000000
10
11.8153371889
20
-16.3576452203
30
0.0000000000
10
11.8102695063
20
-16.3634931281
30
0.0000000000
10
11.8057438060
20
-16.3694606798
30
0.0000000000
10
11.8017638911
20
-16.3755481732
30
0.0000000000
10
11.7983333269
20
-16.3817557423
30
0.0000000000
10
11.7954553843
20
-16.3880832996
30
0.0000000000
10
11.7931329491
20
-16.3945304093
30
0.0000000000
10
11.7913683773
20
-16.4010965384
30
0.0000000000
10
11.7901634298
20
-16.4077801640
30
0.0000000000
10
11.7897360245
20
-16.4122913777
30
0.0000000000
10
11.7896146020
20
-16.4145574175
30
0.0000000000
11
13.3706171944
21
-16.4145574175
31
0.0000000000
11
13.3699724590
21
-16.4077801573
31
0.0000000000
11
13.3687711790
21
-16.4011197097
31
0.0000000000
11
13.3670142008
21
-16.3945760781
31
0.0000000000
11
13.3647027633
21
-16.3881492639
31
0.0000000000
11
13.3618384966
21
-16.3818392698
31
0.0000000000
11
13.3584234173
21
-16.3756460906
31
0.0000000000
11
13.3544599216
21
-16.3695697125
31
0.0000000000
11
13.3499508257
21
-16.3636101705
31
0.0000000000
11
13.3448993595
21
-16.3577675146
31
0.0000000000
11
13.3393090139
21
-16.3520416553
31
0.0000000000
11
13.3331835895
21
-16.3464324776
31
0.0000000000
11
13.3265272808
21
-16.3409399239
31
0.0000000000
11
13.3193452842
21
-16.3355644088
31
0.0000000000
11
13.3116437850
21
-16.3303066123
31
0.0000000000
11
13.3034308988
21
-16.3251679265
31
0.0000000000
11
13.2947152256
21
-16.3201493606
31
0.0000000000
11
13.2855038000
21
-16.3152505977
31
0.0000000000
11
13.2758037847
21
-16.3104712485
31
0.0000000000
11
13.2656226608
21
-16.3058109663
31
0.0000000000
11
13.2549683687
21
-16.3012694968
31
0.0000000000
11
13.2438491648
21
-16.2968465991
31
0.0000000000
11
13.2322733840
21
-16.2925419594
31
0.0000000000
11
13.2202496584
21
-16.2883552908
31
0.0000000000
11
13.2077869908
21
-16.2842863535
31
0.0000000000
11
13.1948946465
21
-16.2803349131
31
0.0000000000
11
13.1815821316
21
-16.2765007360
31
0.0000000000
11
13.1678591821
21
-16.2727835899
31
0.0000000000
11
13.1537357489
21
-16.2691832429
31
0.0000000000
11
13.1392218270
21
-16.2656994268
31
0.0000000000
11
13.1243277830
21
-16.2623319233
31
0.0000000000
11
13.1090642668
21
-16.2590805358
31
0.0000000000
11
13.0934421423
21
-16.2559450731
31
0.0000000000
11
13.0774724763
21
-16.2529253488
31
0.0000000000
11
13.0611665338
21
-16.2500211819
31
0.0000000000
11
13.0445357146
21
-16.2472323874
31
0.0000000000
11
13.0275913511
21
-16.2445587498
31
0.0000000000
11
13.0103451990
21
-16.2420001059
31
0.0000000000
11
12.9928092303
21
-16.2395563052
31
0.0000000000
11
12.9749955818
21
-16.2372272031
31
0.0000000000
11
12.9569165489
21
-16.2350126607
31
0.0000000000
11
12.9385845769
21
-16.2329125443
31
0.0000000000
11
12.9200121458
21
-16.2309267147
31
0.0000000000
11
12.9012116298
21
-16.2290550182
31
0.0000000000
11
12.8821958260
21
-16.2272973425
31
0.0000000000
11
12.8629776765
21
-16.2256535836
31
0.0000000000
11
12.8435702408
21
-16.2241236434
31
0.0000000000
11
12.8239866895
21
-16.2227074299
31
0.0000000000
11
12.8042402913
21
-16.2214048564
31
0.0000000000
11
12.7843442474
21
-16.2202158328
31
0.0000000000
11
12.7643116778
21
-16.2191402699
31
0.0000000000
11
12.7441560383
21
-16.2181781029
31
0.0000000000
11
12.7238908672
21
-16.2173292743
31
0.0000000000
11
12.7035297917
21
-16.2165937337
31
0.0000000000
11
12.6830865093
21
-16.2159714368
31
0.0000000000
11
12.6625747594
21
-16.2154623443
31
0.0000000000
11
12.6420081188
21
-16.2150664190
31
0.0000000000
11
12.6214001110
21
-16.2147836322
31
0.0000000000
11
12.6007644769
21
-16.2146139681
31
0.0000000000
11
12.5801149941
21
-16.2145574175
31
0.0000000000
11
12.5594655069
21
-16.2146139780
31
0.0000000000
11
12.5388298747
21
-16.2147836521
31
0.0000000000
11
12.5182219341
21
-16.2150664477
31
0.0000000000
11
12.4976553016
21
-16.2154623826
31
0.0000000000
11
12.4771435427
21
-16.2159714850
31
0.0000000000
11
12.4567003149
21
-16.2165937899
31
0.0000000000
11
12.4363392863
21
-16.2173293384
31
0.0000000000
11
12.4160741569
21
-16.2181781746
31
0.0000000000
11
12.3959185822
21
-16.2191403478
31
0.0000000000
11
12.3758861229
21
-16.2202159137
31
0.0000000000
11
12.3559901011
21
-16.2214049446
31
0.0000000000
11
12.3362437547
21
-16.2227075233
31
0.0000000000
11
12.3166602969
21
-16.2241237385
31
0.0000000000
11
12.2972529414
21
-16.2256536804
31
0.0000000000
11
12.2780348783
21
-16.2272974397
31
0.0000000000
11
12.2590191935
21
-16.2290551116
31
0.0000000000
11
12.2402188079
21
-16.2309268017
31
0.0000000000
11
12.2216464103
21
-16.2329126338
31
0.0000000000
11
12.2033145413
21
-16.2350127443
31
0.0000000000
11
12.1852356211
21
-16.2372272782
31
0.0000000000
11
12.1674220641
21
-16.2395563730
31
0.0000000000
11
12.1498861861
21
-16.2420001650
31
0.0000000000
11
12.1326401421
21
-16.2445587963
31
0.0000000000
11
12.1156958654
21
-16.2472324226
31
0.0000000000
11
12.0990650641
21
-16.2500212162
31
0.0000000000
11
12.0827592168
21
-16.2529253678
31
0.0000000000
11
12.0667896223
21
-16.2559450793
31
0.0000000000
11
12.0511675447
21
-16.2590805327
31
0.0000000000
11
12.0359040714
21
-16.2623319106
31
0.0000000000
11
12.0210100747
21
-16.2656994023
31
0.0000000000
11
12.0064961685
21
-16.2691832129
31
0.0000000000
11
11.9923727289
21
-16.2727835598
31
0.0000000000
11
11.9786498216
21
-16.2765006922
31
0.0000000000
11
11.9653373133
21
-16.2803348646
31
0.0000000000
11
11.9524449676
21
-16.2842863023
31
0.0000000000
11
11.9399823058
21
-16.2883552342
31
0.0000000000
11
11.9279585833
21
-16.2925418979
31
0.0000000000
11
11.9163827701
21
-16.2968465459
31
0.0000000000
11
11.9052635666
21
-16.3012694396
31
0.0000000000
11
11.8946093406
21
-16.3058108757
31
0.0000000000
11
11.8844281937
21
-16.3104711621
31
0.0000000000
11
11.8747279856
21
-16.3152506032
31
0.0000000000
11
11.8655163049
21
-16.3201495077
31
0.0000000000
11
11.8568006034
21
-16.3251681031
31
0.0000000000
11
11.8485881360
21
-16.3303065310
31
0.0000000000
11
11.8408861266
21
-16.3355646843
31
0.0000000000
11
11.8337041514
21
-16.3409402099
31
0.0000000000
11
11.8270482167
21
-16.3464324691
31
0.0000000000
11
11.8209229238
21
-16.3520415187
31
0.0000000000
11
11.8153325328
21
-16.3577674104
31
0.0000000000
11
11.8102809903
21
-16.3636101464
31
0.0000000000
11
11.8057718758
21
-16.3695697113
31
0.0000000000
11
11.8018083801
21
-16.3756460889
31
0.0000000000
11
11.7983932980
21
-16.3818392734
31
0.0000000000
11
11.7955290317
21
-16.3881492676
31
0.0000000000
11
11.7932175966
21
-16.3945760751
31
0.0000000000
11
11.7914606198
21
-16.4011196991
31
0.0000000000
11
11.7902593392
21
-16.4077801444
31
0.0000000000
11
11.7896146020
21
-16.4145574175
31
0.0000000000
0
SPLINE
5
36E
100
AcDbEntity
8
0
100
AcDbSpline
62
9
6
CONTINUOUS
70
0
71
3
72
8
73
4
74
2
42
0.0000001000
43
0.0000001000
44
0.0000000001
12
-0.0301846630
22
0.0000000000
32
0.0000000000
13
-0.0299876366
23
-0.0036411156
33
0.0000000000
40
0.0000000000
40
0.0000000000
40
0.0000000000
40
0.0000000000
40
1.0000000000
40
1.0000000000
40
1.0000000000
40
1.0000000000
10
16.1126665610
20
30.8354425825
30
0.0000000000
10
16.1026050067
20
30.8354425825
30
0.0000000000
10
16.0925328638
20
30.8348335068
30
0.0000000000
10
16.0825369850
20
30.8336198016
30
0.0000000000
11
16.1126665610
21
30.8354425825
31
0.0000000000
11
16.0825369850
21
30.8336198016
31
0.0000000000
0
SPLINE
5
36F
100
AcDbEntity
8
0
100
AcDbSpline
62
9
6
CONTINUOUS
70
0
71
3
72
8
73
4
74
2
42
0.0000001000
43
0.0000001000
44
0.0000000001
12
-0.0099950974
22
-0.0012136103
32
0.0000000000
13
-0.0099366251
23
-0.0016151591
33
0.0000000000
40
0.0000000000
40
0.0000000000
40
0.0000000000
40
0.0000000000
40
1.0000000000
40
1.0000000000
40
1.0000000000
40
1.0000000000
10
16.0825369850
20
30.8336198016
30
0.0000000000
10
16.0792052858
20
30.8332152648
30
0.0000000000
10
16.0758820592
20
30.8327435575
30
0.0000000000
10
16.0725698508
20
30.8322051711
30
0.0000000000
11
16.0825369850
21
30.8336198016
31
0.0000000000
11
16.0725698508
21
30.8322051711
31
0.0000000000
0
SPLINE
5
370
100
AcDbEntity
8
0
100
AcDbSpline
62
9
6
CONTINUOUS
70
0
71
3
72
19
73
15
74
13
42
0.0000001000
43
0.0000001000
44
0.0000000001
12
-0.3478392083
22
-0.0565398887
32
0.0000000000
13
-0.0000000000
23
-0.3521849163
33
0.0000000000
40
0.0000000000
40
0.0000000000
40
0.0000000000
40
0.0000000000
40
0.0571405187
40
0.1428484910
40
0.2285575093
40
0.3142678251
40
0.3999796145
40
0.4856929682
40
0.5714078860
40
0.6571242767
40
0.7428419638
40
0.8285606955
40
0.9142801592
40
1.0000000000
40
1.0000000000
40
1.0000000000
40
1.0000000000
10
16.0725698508
20
30.8322051711
30
0.0000000000
10
16.0659446132
20
30.8311282649
30
0.0000000000
10
16.0494920528
20
30.8277691095
30
0.0000000000
10
16.0238125263
20
30.8197660767
30
0.0000000000
10
15.9962203171
20
30.8073457973
30
0.0000000000
10
15.9703258447
20
30.7916896669
30
0.0000000000
10
15.9465071231
20
30.7730259948
30
0.0000000000
10
15.9251113696
20
30.7516269365
30
0.0000000000
10
15.9064506084
20
30.7278045724
30
0.0000000000
10
15.8907969422
20
30.7019061774
30
0.0000000000
10
15.8783786333
20
30.6743098229
30
0.0000000000
10
15.8693767628
20
30.6454163791
30
0.0000000000
10
15.8639225938
20
30.6156529407
30
0.0000000000
10
15.8627046372
20
30.5955056608
30
0.0000000000
10
15.8627046372
20
30.5854425825
30
0.0000000000
11
16.0725698508
21
30.8322051711
31
0.0000000000
11
16.0528467650
21
30.8281780388
31
0.0000000000
11
16.0240288514
21
30.8191966470
31
0.0000000000
11
15.9965034741
21
30.8068065948
31
0.0000000000
11
15.9706720153
21
30.7911885567
31
0.0000000000
11
15.9469111560
21
30.7725702788
31
0.0000000000
11
15.9255673833
21
30.7512232571
31
0.0000000000
11
15.9069519376
21
30.7274587793
31
0.0000000000
11
15.8913362743
21
30.7016233849
31
0.0000000000
11
15.8789481052
21
30.6740938121
31
0.0000000000
11
15.8699680778
21
30.6452715042
31
0.0000000000
11
15.8645271414
21
30.6155767556
31
0.0000000000
11
15.8627046372
21
30.5854425825
31
0.0000000000
0
SPLINE
5
371
100
AcDbEntity
8
0
100
AcDbSpline
62
9
6
CONTINUOUS
70
0
71
3
72
125
73
121
74
119
42
0.0000001000
43
0.0000001000
44
0.0000000001
12
-0.0914304416
22
1.7063155864
32
0.0000000000
13
-0.0914304456
23
-1.7063155861
33
0.0000000000
40
0.0000000000
40
0.0000000000
40
0.0000000000
40
0.0000000000
40
0.0039840850
40
0.0079447926
40
0.0119098840
40
0.0159068315
40
0.0199621911
40
0.0241010655
40
0.0283466905
40
0.0327201208
40
0.0372401123
40
0.0419232293
40
0.0467838452
40
0.0518342028
40
0.0570841459
40
0.0625413679
40
0.0682109724
40
0.0740966813
40
0.0802022872
40
0.0865305665
40
0.0930832766
40
0.0998611806
40
0.1068642371
40
0.1140918309
40
0.1215427033
40
0.1292149679
40
0.1371062317
40
0.1452136517
40
0.1535339798
40
0.1620636048
40
0.1707986828
40
0.1797349645
40
0.1888678699
40
0.1981925498
40
0.2077039077
40
0.2173966166
40
0.2272651697
40
0.2373040095
40
0.2475072474
40
0.2578687947
40
0.2683824013
40
0.2790416651
40
0.2898400441
40
0.3007709285
40
0.3118277284
40
0.3230035670
40
0.3342914480
40
0.3456842755
40
0.3571748612
40
0.3687559341
40
0.3804202413
40
0.3921605574
40
0.4039694431
40
0.4158393955
40
0.4277628465
40
0.4397321755
40
0.4517397282
40
0.4637779373
40
0.4758392605
40
0.4879160240
40
0.5000005291
40
0.5120850368
40
0.5241617992
40
0.5362230832
40
0.5482612877
40
0.5602688457
40
0.5722381430
40
0.5841615667
40
0.5960314949
40
0.6078403429
40
0.6195805946
40
0.6312448892
40
0.6428259321
40
0.6543164632
40
0.6657092441
40
0.6769970747
40
0.6881728437
40
0.6992295674
40
0.7101604324
40
0.7209587510
40
0.7316179488
40
0.7421315017
40
0.7524929959
40
0.7626961701
40
0.7727349587
40
0.7826035013
40
0.7922961539
40
0.8018074692
40
0.8111321211
40
0.8202650009
40
0.8292012539
40
0.8379363223
40
0.8464659509
40
0.8547862531
40
0.8628936686
40
0.8707849327
40
0.8784571931
40
0.8859080628
40
0.8931356761
40
0.9001387316
40
0.9069165922
40
0.9134693157
40
0.9197977199
40
0.9259034965
40
0.9317892284
40
0.9374585451
40
0.9429161314
40
0.9481660681
40
0.9532161473
40
0.9580766557
40
0.9627598048
40
0.9672798611
40
0.9716533086
40
0.9758989334
40
0.9800378113
40
0.9840931708
40
0.9880901142
40
0.9920552011
40
0.9960159074
40
1.0000000000
40
1.0000000000
40
1.0000000000
40
1.0000000000
10
-0.9358587016
20
-16.4145574175
30
0.0000000000
10
-0.9359801239
20
-16.4122913821
30
0.0000000000
10
-0.9364075285
20
-16.4077801719
30
0.0000000000
10
-0.9376124748
20
-16.4010965472
30
0.0000000000
10
-0.9393770475
20
-16.3945304124
30
0.0000000000
10
-0.9416994844
20
-16.3880832981
30
0.0000000000
10
-0.9445774276
20
-16.3817557405
30
0.0000000000
10
-0.9480079909
20
-16.3755481731
30
0.0000000000
10
-0.9519878992
20
-16.3694606894
30
0.0000000000
10
-0.9565135705
20
-16.3634931742
30
0.0000000000
10
-0.9615812062
20
-16.3576453119
30
0.0000000000
10
-0.9671868503
20
-16.3519166475
30
0.0000000000
10
-0.9733263897
20
-16.3463066692
30
0.0000000000
10
-0.9799952844
20
-16.3408150668
30
0.0000000000
10
-0.9871882976
20
-16.3354418438
30
0.0000000000
10
-0.9948989544
20
-16.3301875478
30
0.0000000000
10
-1.0031196719
20
-16.3250529571
30
0.0000000000
10
-1.0118425765
20
-16.3200385053
30
0.0000000000
10
-1.0210601432
20
-16.3151440879
30
0.0000000000
10
-1.0307652489
20
-16.3103692276
30
0.0000000000
10
-1.0409504684
20
-16.3057135035
30
0.0000000000
10
-1.0516080039
20
-16.3011765678
30
0.0000000000
10
-1.0627297635
20
-16.2967580980
30
0.0000000000
10
-1.0743074162
20
-16.2924577760
30
0.0000000000
10
-1.0863323754
20
-16.2882752987
30
0.0000000000
10
-1.0987957361
20
-16.2842103974
30
0.0000000000
10
-1.1116882940
20
-16.2802628263
30
0.0000000000
10
-1.1250005938
20
-16.2764323465
30
0.0000000000
10
-1.1387229459
20
-16.2727187235
30
0.0000000000
10
-1.1528454922
20
-16.2691217128
30
0.0000000000
10
-1.1673581605
20
-16.2656410776
30
0.0000000000
10
-1.1822506417
20
-16.2622765957
30
0.0000000000
10
-1.1975123335
20
-16.2590280703
30
0.0000000000
10
-1.2131323969
20
-16.2558953149
30
0.0000000000
10
-1.2290997854
20
-16.2528781488
30
0.0000000000
10
-1.2454032715
20
-16.2499763930
30
0.0000000000
10
-1.2620315370
20
-16.2471898580
30
0.0000000000
10
-1.2789730990
20
-16.2445183613
30
0.0000000000
10
-1.2962162821
20
-16.2419617333
30
0.0000000000
10
-1.3137491417
20
-16.2395198264
30
0.0000000000
10
-1.3315595519
20
-16.2371925006
30
0.0000000000
10
-1.3496352282
20
-16.2349796215
30
0.0000000000
10
-1.3679637706
20
-16.2328810555
30
0.0000000000
10
-1.3865327522
20
-16.2308966632
30
0.0000000000
10
-1.4053296284
20
-16.2290263135
30
0.0000000000
10
-1.4243416998
20
-16.2272698878
30
0.0000000000
10
-1.4435560384
20
-16.2256272845
30
0.0000000000
10
-1.4629595908
20
-16.2240984084
30
0.0000000000
10
-1.4825391946
20
-16.2226831701
30
0.0000000000
10
-1.5022816397
20
-16.2213814818
30
0.0000000000
10
-1.5221737327
20
-16.2201932561
30
0.0000000000
10
-1.5422022177
20
-16.2191184140
30
0.0000000000
10
-1.5623537259
20
-16.2181568876
30
0.0000000000
10
-1.5826147195
20
-16.2173086211
30
0.0000000000
10
-1.6029715799
20
-16.2165735652
30
0.0000000000
10
-1.6234106214
20
-16.2159516764
30
0.0000000000
10
-1.6439181748
20
-16.2154429148
30
0.0000000000
10
-1.6644806289
20
-16.2150472455
30
0.0000000000
10
-1.6850843720
20
-16.2147646421
30
0.0000000000
10
-1.7057157254
20
-16.2145950878
30
0.0000000000
10
-1.7263609035
20
-16.2145385739
30
0.0000000000
10
-1.7470060808
20
-16.2145950977
30
0.0000000000
10
-1.7676374127
20
-16.2147646617
30
0.0000000000
10
-1.7882411301
20
-16.2150472746
30
0.0000000000
10
-1.8088035621
20
-16.2154429531
30
0.0000000000
10
-1.8293110976
20
-16.2159517240
30
0.0000000000
10
-1.8497501082
20
-16.2165736216
30
0.0000000000
10
-1.8701069209
20
-16.2173086853
30
0.0000000000
10
-1.8903678634
20
-16.2181569591
30
0.0000000000
10
-1.9105192993
20
-16.2191184913
30
0.0000000000
10
-1.9305477184
20
-16.2201933387
30
0.0000000000
10
-1.9504397501
20
-16.2213815694
30
0.0000000000
10
-1.9701821394
20
-16.2226832627
30
0.0000000000
10
-1.9897616681
20
-16.2240985040
30
0.0000000000
10
-2.0091651338
20
-16.2256273812
30
0.0000000000
10
-2.0283793771
20
-16.2272699841
30
0.0000000000
10
-2.0473913366
20
-16.2290264068
30
0.0000000000
10
-2.0661881185
20
-16.2308967536
30
0.0000000000
10
-2.0847570111
20
-16.2328811426
30
0.0000000000
10
-2.1030854704
20
-16.2349797050
30
0.0000000000
10
-2.1211610443
20
-16.2371925768
30
0.0000000000
10
-2.1389713562
20
-16.2395198944
30
0.0000000000
10
-2.1565041190
20
-16.2419617918
30
0.0000000000
10
-2.1737472070
20
-16.2445184090
30
0.0000000000
10
-2.1906886980
20
-16.2471898971
30
0.0000000000
10
-2.2073168969
20
-16.2499764231
30
0.0000000000
10
-2.2236203214
20
-16.2528781694
30
0.0000000000
10
-2.2395876387
20
-16.2558953229
30
0.0000000000
10
-2.2552076483
20
-16.2590280676
30
0.0000000000
10
-2.2704692944
20
-16.2622765829
30
0.0000000000
10
-2.2853617404
20
-16.2656410557
30
0.0000000000
10
-2.2998743898
20
-16.2691216848
30
0.0000000000
10
-2.3139969189
20
-16.2727186893
30
0.0000000000
10
-2.3277192568
20
-16.2764323062
30
0.0000000000
10
-2.3410315409
20
-16.2802627786
30
0.0000000000
10
-2.3539240951
20
-16.2842103455
30
0.0000000000
10
-2.3663874533
20
-16.2882752426
30
0.0000000000
10
-2.3784124205
20
-16.2924577188
30
0.0000000000
10
-2.3899900829
20
-16.2967580406
30
0.0000000000
10
-2.4011118305
20
-16.3011765019
30
0.0000000000
10
-2.4117693516
20
-16.3057134263
30
0.0000000000
10
-2.4219546226
20
-16.3103691676
30
0.0000000000
10
-2.4316598877
20
-16.3151441030
30
0.0000000000
10
-2.4408776125
20
-16.3200386098
30
0.0000000000
10
-2.4496004651
20
-16.3250530447
30
0.0000000000
10
-2.4578212281
20
-16.3301876688
30
0.0000000000
10
-2.4655319149
20
-16.3354419925
30
0.0000000000
10
-2.4727249518
20
-16.3408152597
30
0.0000000000
10
-2.4793936661
20
-16.3463067289
30
0.0000000000
10
-2.4855330601
20
-16.3519165671
30
0.0000000000
10
-2.4911387072
20
-16.3576452203
30
0.0000000000
10
-2.4962063898
20
-16.3634931281
30
0.0000000000
10
-2.5007320901
20
-16.3694606798
30
0.0000000000
10
-2.5047120049
20
-16.3755481732
30
0.0000000000
10
-2.5081425691
20
-16.3817557423
30
0.0000000000
10
-2.5110205118
20
-16.3880832996
30
0.0000000000
10
-2.5133429470
20
-16.3945304093
30
0.0000000000
10
-2.5151075188
20
-16.4010965384
30
0.0000000000
10
-2.5163124663
20
-16.4077801640
30
0.0000000000
10
-2.5167398716
20
-16.4122913777
30
0.0000000000
10
-2.5168612940
20
-16.4145574175
30
0.0000000000
11
-0.9358587016
21
-16.4145574175
31
0.0000000000
11
-0.9365034371
21
-16.4077801573
31
0.0000000000
11
-0.9377047171
21
-16.4011197097
31
0.0000000000
11
-0.9394616953
21
-16.3945760781
31
0.0000000000
11
-0.9417731328
21
-16.3881492639
31
0.0000000000
11
-0.9446373994
21
-16.3818392698
31
0.0000000000
11
-0.9480524788
21
-16.3756460906
31
0.0000000000
11
-0.9520159745
21
-16.3695697125
31
0.0000000000
11
-0.9565250704
21
-16.3636101705
31
0.0000000000
11
-0.9615765365
21
-16.3577675146
31
0.0000000000
11
-0.9671668821
21
-16.3520416553
31
0.0000000000
11
-0.9732923065
21
-16.3464324776
31
0.0000000000
11
-0.9799486153
21
-16.3409399239
31
0.0000000000
11
-0.9871306119
21
-16.3355644088
31
0.0000000000
11
-0.9948321111
21
-16.3303066123
31
0.0000000000
11
-1.0030449973
21
-16.3251679265
31
0.0000000000
11
-1.0117606705
21
-16.3201493606
31
0.0000000000
11
-1.0209720960
21
-16.3152505977
31
0.0000000000
11
-1.0306721114
21
-16.3104712485
31
0.0000000000
11
-1.0408532352
21
-16.3058109663
31
0.0000000000
11
-1.0515075273
21
-16.3012694968
31
0.0000000000
11
-1.0626267312
21
-16.2968465991
31
0.0000000000
11
-1.0742025121
21
-16.2925419594
31
0.0000000000
11
-1.0862262377
21
-16.2883552908
31
0.0000000000
11
-1.0986889052
21
-16.2842863535
31
0.0000000000
11
-1.1115812495
21
-16.2803349131
31
0.0000000000
11
-1.1248937644
21
-16.2765007360
31
0.0000000000
11
-1.1386167140
21
-16.2727835899
31
0.0000000000
11
-1.1527401472
21
-16.2691832429
31
0.0000000000
11
-1.1672540691
21
-16.2656994268
31
0.0000000000
11
-1.1821481131
21
-16.2623319233
31
0.0000000000
11
-1.1974116292
21
-16.2590805358
31
0.0000000000
11
-1.2130337538
21
-16.2559450731
31
0.0000000000
11
-1.2290034197
21
-16.2529253488
31
0.0000000000
11
-1.2453093623
21
-16.2500211819
31
0.0000000000
11
-1.2619401815
21
-16.2472323874
31
0.0000000000
11
-1.2788845450
21
-16.2445587498
31
0.0000000000
11
-1.2961306970
21
-16.2420001059
31
0.0000000000
11
-1.3136666658
21
-16.2395563052
31
0.0000000000
11
-1.3314803143
21
-16.2372272031
31
0.0000000000
11
-1.3495593471
21
-16.2350126607
31
0.0000000000
11
-1.3678913191
21
-16.2329125443
31
0.0000000000
11
-1.3864637503
21
-16.2309267147
31
0.0000000000
11
-1.4052642663
21
-16.2290550182
31
0.0000000000
11
-1.4242800701
21
-16.2272973425
31
0.0000000000
11
-1.4434982195
21
-16.2256535836
31
0.0000000000
11
-1.4629056553
21
-16.2241236434
31
0.0000000000
11
-1.4824892066
21
-16.2227074299
31
0.0000000000
11
-1.5022356047
21
-16.2214048564
31
0.0000000000
11
-1.5221316486
21
-16.2202158328
31
0.0000000000
11
-1.5421642182
21
-16.2191402699
31
0.0000000000
11
-1.5623198577
21
-16.2181781029
31
0.0000000000
11
-1.5825850288
21
-16.2173292743
31
0.0000000000
11
-1.6029461043
21
-16.2165937337
31
0.0000000000
11
-1.6233893867
21
-16.2159714368
31
0.0000000000
11
-1.6439011367
21
-16.2154623443
31
0.0000000000
11
-1.6644677773
21
-16.2150664190
31
0.0000000000
11
-1.6850757850
21
-16.2147836322
31
0.0000000000
11
-1.7057114192
21
-16.2146139681
31
0.0000000000
11
-1.7263609019
21
-16.2145574175
31
0.0000000000
11
-1.7470103892
21
-16.2146139780
31
0.0000000000
11
-1.7676460213
21
-16.2147836521
31
0.0000000000
11
-1.7882539620
21
-16.2150664477
31
0.0000000000
11
-1.8088205945
21
-16.2154623826
31
0.0000000000
11
-1.8293323534
21
-16.2159714850
31
0.0000000000
11
-1.8497755812
21
-16.2165937899
31
0.0000000000
11
-1.8701366098
21
-16.2173293384
31
0.0000000000
11
-1.8904017391
21
-16.2181781746
31
0.0000000000
11
-1.9105573139
21
-16.2191403478
31
0.0000000000
11
-1.9305897731
21
-16.2202159137
31
0.0000000000
11
-1.9504857949
21
-16.2214049446
31
0.0000000000
11
-1.9702321413
21
-16.2227075233
31
0.0000000000
11
-1.9898155992
21
-16.2241237385
31
0.0000000000
11
-2.0092229547
21
-16.2256536804
31
0.0000000000
11
-2.0284410178
21
-16.2272974397
31
0.0000000000
11
-2.0474567026
21
-16.2290551116
31
0.0000000000
11
-2.0662570882
21
-16.2309268017
31
0.0000000000
11
-2.0848294857
21
-16.2329126338
31
0.0000000000
11
-2.1031613547
21
-16.2350127443
31
0.0000000000
11
-2.1212402749
21
-16.2372272782
31
0.0000000000
11
-2.1390538320
21
-16.2395563730
31
0.0000000000
11
-2.1565897100
21
-16.2420001650
31
0.0000000000
11
-2.1738357540
21
-16.2445587963
31
0.0000000000
11
-2.1907800307
21
-16.2472324226
31
0.0000000000
11
-2.2074108320
21
-16.2500212162
31
0.0000000000
11
-2.2237166793
21
-16.2529253678
31
0.0000000000
11
-2.2396862738
21
-16.2559450793
31
0.0000000000
11
-2.2553083513
21
-16.2590805327
31
0.0000000000
11
-2.2705718247
21
-16.2623319106
31
0.0000000000
11
-2.2854658214
21
-16.2656994023
31
0.0000000000
11
-2.2999797275
21
-16.2691832129
31
0.0000000000
11
-2.3141031671
21
-16.2727835598
31
0.0000000000
11
-2.3278260744
21
-16.2765006922
31
0.0000000000
11
-2.3411385828
21
-16.2803348646
31
0.0000000000
11
-2.3540309285
21
-16.2842863023
31
0.0000000000
11
-2.3664935903
21
-16.2883552342
31
0.0000000000
11
-2.3785173128
21
-16.2925418979
31
0.0000000000
11
-2.3900931260
21
-16.2968465459
31
0.0000000000
11
-2.4012123295
21
-16.3012694396
31
0.0000000000
11
-2.4118665555
21
-16.3058108757
31
0.0000000000
11
-2.4220477023
21
-16.3104711621
31
0.0000000000
11
-2.4317479105
21
-16.3152506032
31
0.0000000000
11
-2.4409595911
21
-16.3201495077
31
0.0000000000
11
-2.4496752926
21
-16.3251681031
31
0.0000000000
11
-2.4578877601
21
-16.3303065310
31
0.0000000000
11
-2.4655897694
21
-16.3355646843
31
0.0000000000
11
-2.4727717446
21
-16.3409402099
31
0.0000000000
11
-2.4794276794
21
-16.3464324691
31
0.0000000000
11
-2.4855529723
21
-16.3520415187
31
0.0000000000
11
-2.4911433633
21
-16.3577674104
31
0.0000000000
11
-2.4961949058
21
-16.3636101464
31
0.0000000000
11
-2.5007040203
21
-16.3695697113
31
0.0000000000
11
-2.5046675159
21
-16.3756460889
31
0.0000000000
11
-2.5080825981
21
-16.3818392734
31
0.0000000000
11
-2.5109468644
21
-16.3881492676
31
0.0000000000
11
-2.5132582995
21
-16.3945760751
31
0.0000000000
11
-2.5150152762
21
-16.4011196991
31
0.0000000000
11
-2.5162165568
21
-16.4077801444
31
0.0000000000
11
-2.5168612940
21
-16.4145574175
31
0.0000000000
0
SPLINE
5
372
100
AcDbEntity
8
0
100
AcDbSpline
62
9
6
CONTINUOUS
70
0
71
3
72
8
73
4
74
2
42
0.0000001000
43
0.0000001000
44
0.0000000001
12
0.0301846675
22
0.0000000000
32
0.0000000000
13
0.0299876410
23
-0.0036411167
33
0.0000000000
40
0.0000000000
40
0.0000000000
40
0.0000000000
40
0.0000000000
40
1.0000000000
40
1.0000000000
40
1.0000000000
40
1.0000000000
10
17.5410893394
20
30.8354425825
30
0.0000000000
10
17.5511508952
20
30.8354425825
30
0.0000000000
10
17.5612230395
20
30.8348335066
30
0.0000000000
10
17.5712189199
20
30.8336198010
30
0.0000000000
11
17.5410893394
21
30.8354425825
31
0.0000000000
11
17.5712189199
21
30.8336198010
31
0.0000000000
0
SPLINE
5
373
100
AcDbEntity
8
0
100
AcDbSpline
62
9
6
CONTINUOUS
70
0
71
3
72
8
73
4
74
2
42
0.0000001000
43
0.0000001000
44
0.0000000001
12
0.0099950987
22
-0.0012136106
32
0.0000000000
13
0.0099366264
23
-0.0016151596
33
0.0000000000
40
0.0000000000
40
0.0000000000
40
0.0000000000
40
0.0000000000
40
1.0000000000
40
1.0000000000
40
1.0000000000
40
1.0000000000
10
17.5712189199
20
30.8336198010
30
0.0000000000
10
17.5745506194
20
30.8332152641
30
0.0000000000
10
17.5778738465
20
30.8327435567
30
0.0000000000
10
17.5811860553
20
30.8322051702
30
0.0000000000
11
17.5712189199
21
30.8336198010
31
0.0000000000
11
17.5811860553
21
30.8322051702
31
0.0000000000
0
SPLINE
5
374
100
AcDbEntity
8
0
100
AcDbSpline
62
9
6
CONTINUOUS
70
0
71
3
72
19
73
15
74
13
42
0.0000001000
43
0.0000001000
44
0.0000000001
12
0.3478392013
22
-0.0565398959
32
0.0000000000
13
0.0000000000
23
-0.3521849105
33
0.0000000000
40
0.0000000000
40
0.0000000000
40
0.0000000000
40
0.0000000000
40
0.0571405262
40
0.1428485075
40
0.2285575325
40
0.3142678525
40
0.3999796441
40
0.4856929978
40
0.5714079137
40
0.6571243010
40
0.7428419834
40
0.8285607092
40
0.9142801663
40
1.0000000000
40
1.0000000000
40
1.0000000000
40
1.0000000000
10
17.5811860553
20
30.8322051702
30
0.0000000000
10
17.5878112937
20
30.8311282637
30
0.0000000000
10
17.6042638556
20
30.8277691075
30
0.0000000000
10
17.6299433840
20
30.8197660730
30
0.0000000000
10
17.6575355944
20
30.8073457916
30
0.0000000000
10
17.6834300667
20
30.7916896592
30
0.0000000000
10
17.7072487875
20
30.7730259857
30
0.0000000000
10
17.7286445395
20
30.7516269266
30
0.0000000000
10
17.7473052989
20
30.7278045624
30
0.0000000000
10
17.7629589630
20
30.7019061681
30
0.0000000000
10
17.7753772699
20
30.6743098151
30
0.0000000000
10
17.7843791389
20
30.6454163735
30
0.0000000000
10
17.7898333068
20
30.6156529378
30
0.0000000000
10
17.7910512632
20
30.5955056598
30
0.0000000000
10
17.7910512632
20
30.5854425825
30
0.0000000000
11
17.5811860553
21
30.8322051702
31
0.0000000000
11
17.6009091432
21
30.8281780369
31
0.0000000000
11
17.6297270591
21
30.8191966432
31
0.0000000000
11
17.6572524375
21
30.8068065889
31
0.0000000000
11
17.6830838963
21
30.7911885490
31
0.0000000000
11
17.7068447548
21
30.7725702695
31
0.0000000000
11
17.7281885260
21
30.7512232471
31
0.0000000000
11
17.7468039698
21
30.7274587692
31
0.0000000000
11
17.7624196310
21
30.7016233755
31
0.0000000000
11
17.7748077982
21
30.6740938043
31
0.0000000000
11
17.7837878240
21
30.6452714986
31
0.0000000000
11
17.7892287593
21
30.6155767526
31
0.0000000000
11
17.7910512632
21
30.5854425825
31
0.0000000000
0
SPLINE
5
375
100
AcDbEntity
8
0
100
AcDbSpline
62
9
6
CONTINUOUS
70
0
71
3
72
125
73
121
74
119
42
0.0000001000
43
0.0000001000
44
0.0000000001
12
0.0914304416
22
-1.7063155864
32
0.0000000000
13
0.0914304435
23
1.7063155863
33
0.0000000000
40
0.0000000000
40
0.0000000000
40
0.0000000000
40
0.0000000000
40
0.0039840856
40
0.0079447938
40
0.0119098859
40
0.0159068341
40
0.0199621943
40
0.0241010693
40
0.0283466950
40
0.0327201265
40
0.0372401179
40
0.0419232347
40
0.0467838528
40
0.0518342174
40
0.0570841736
40
0.0625414203
40
0.0682110615
40
0.0740967822
40
0.0802023836
40
0.0865306563
40
0.0930833693
40
0.0998612819
40
0.1068643452
40
0.1140919423
40
0.1215428188
40
0.1292150887
40
0.1371063590
40
0.1452137864
40
0.1535341221
40
0.1620637527
40
0.1707988347
40
0.1797351209
40
0.1888680322
40
0.1981927196
40
0.2077040861
40
0.2173968039
40
0.2272653630
40
0.2373042075
40
0.2475074504
40
0.2578690027
40
0.2683826136
40
0.2790418818
40
0.2898402655
40
0.3007711522
40
0.3118279518
40
0.3230037899
40
0.3342916718
40
0.3456845023
40
0.3571750922
40
0.3687561702
40
0.3804204789
40
0.3921607940
40
0.4039696786
40
0.4158396315
40
0.4277630848
40
0.4397324175
40
0.4517399747
40
0.4637781847
40
0.4758395063
40
0.4879162682
40
0.5000007733
40
0.5120852827
40
0.5241620481
40
0.5362233359
40
0.5482615408
40
0.5602690966
40
0.5722383917
40
0.5841618149
40
0.5960317439
40
0.6078405942
40
0.6195808487
40
0.6312451432
40
0.6428261832
40
0.6543167116
40
0.6657094912
40
0.6769973218
40
0.6881730921
40
0.6992298174
40
0.7101606816
40
0.7209589967
40
0.7316181911
40
0.7421317418
40
0.7524932349
40
0.7626964092
40
0.7727351980
40
0.7826037389
40
0.7922963870
40
0.8018076982
40
0.8111323469
40
0.8202652245
40
0.8292014763
40
0.8379365434
40
0.8464661691
40
0.8547864659
40
0.8628938763
40
0.8707851361
40
0.8784573936
40
0.8859082612
40
0.8931358717
40
0.9001389222
40
0.9069167835
40
0.9134695096
40
0.9197979046
40
0.9259036488
40
0.9317893262
40
0.9374585770
40
0.9429161175
40
0.9481660499
40
0.9532161325
40
0.9580766476
40
0.9627598026
40
0.9672798616
40
0.9716533069
40
0.9758989255
40
0.9800378027
40
0.9840931654
40
0.9880901136
40
0.9920552045
40
0.9960159118
40
1.0000000000
40
1.0000000000
40
1.0000000000
40
1.0000000000
10
11.7896146020
20
30.0854425825
30
0.0000000000
10
11.7897360243
20
30.0831765467
30
0.0000000000
10
11.7901634290
20
30.0786653358
30
0.0000000000
10
11.7913683756
20
30.0719817100
30
0.0000000000
10
11.7931329488
20
30.0654155742
30
0.0000000000
10
11.7954553865
20
30.0589684590
30
0.0000000000
10
11.7983333304
20
30.0526409005
30
0.0000000000
10
11.8017638947
20
30.0464333324
30
0.0000000000
10
11.8057438042
20
30.0403458478
30
0.0000000000
10
11.8102694765
20
30.0343783322
30
0.0000000000
10
11.8153371130
20
30.0285304699
30
0.0000000000
10
11.8209427583
20
30.0228018051
30
0.0000000000
10
11.8270823019
20
30.0171918238
30
0.0000000000
10
11.8337512070
20
30.0117002141
30
0.0000000000
10
11.8409442417
20
30.0063269771
30
0.0000000000
10
11.8486549353
20
30.0010726595
30
0.0000000000
10
11.8568756906
20
29.9959380507
30
0.0000000000
10
11.8655986198
20
29.9909235914
30
0.0000000000
10
11.8748161894
20
29.9860291786
30
0.0000000000
10
11.8845212929
20
29.9812543246
30
0.0000000000
10
11.8947065167
20
29.9765986032
30
0.0000000000
10
11.9053640634
20
29.9720616673
30
0.0000000000
10
11.9164858344
20
29.9676431975
30
0.0000000000
10
11.9280634962
20
29.9633428764
30
0.0000000000
10
11.9400884636
20
29.9591604005
30
0.0000000000
10
11.9525518340
20
29.9550955000
30
0.0000000000
10
11.9654444034
20
29.9511479292
30
0.0000000000
10
11.9787567160
20
29.9473174496
30
0.0000000000
10
11.9924790804
20
29.9436038270
30
0.0000000000
10
12.0066016371
20
29.9400068174
30
0.0000000000
10
12.0211143140
20
29.9365261837
30
0.0000000000
10
12.0360068040
20
29.9331617033
30
0.0000000000
10
12.0512685064
20
29.9299131789
30
0.0000000000
10
12.0668885828
20
29.9267804243
30
0.0000000000
10
12.0828559858
20
29.9237632587
30
0.0000000000
10
12.0991594857
20
29.9208615038
30
0.0000000000
10
12.1157877627
20
29.9180749701
30
0.0000000000
10
12.1327293341
20
29.9154034751
30
0.0000000000
10
12.1499725259
20
29.9128468489
30
0.0000000000
10
12.1675053940
20
29.9104049439
30
0.0000000000
10
12.1853158123
20
29.9080776201
30
0.0000000000
10
12.2033914965
20
29.9058647429
30
0.0000000000
10
12.2217200457
20
29.9037661790
30
0.0000000000
10
12.2402890314
20
29.9017817891
30
0.0000000000
10
12.2590859087
20
29.8999114421
30
0.0000000000
10
12.2780979805
20
29.8981550190
30
0.0000000000
10
12.2973123212
20
29.8965124181
30
0.0000000000
10
12.3167158784
20
29.8949835442
30
0.0000000000
10
12.3362954893
20
29.8935683078
30
0.0000000000
10
12.3560379408
20
29.8922666216
30
0.0000000000
10
12.3759300371
20
29.8910783982
30
0.0000000000
10
12.3959585218
20
29.8900035586
30
0.0000000000
10
12.4161100292
20
29.8890420346
30
0.0000000000
10
12.4363710239
20
29.8881937704
30
0.0000000000
10
12.4567278881
20
29.8874587166
30
0.0000000000
10
12.4771669356
20
29.8868368299
30
0.0000000000
10
12.4976744943
20
29.8863280706
30
0.0000000000
10
12.5182369506
20
29.8859324035
30
0.0000000000
10
12.5388406925
20
29.8856498025
30
0.0000000000
10
12.5594720440
20
29.8854802505
30
0.0000000000
10
12.5801172221
20
29.8854237389
30
0.0000000000
10
12.6007624021
20
29.8854802650
30
0.0000000000
10
12.6213937387
20
29.8856498314
30
0.0000000000
10
12.6419974602
20
29.8859324467
30
0.0000000000
10
12.6625598933
20
29.8863281276
30
0.0000000000
10
12.6830674265
20
29.8868369008
30
0.0000000000
10
12.7035064343
20
29.8874588007
30
0.0000000000
10
12.7238632458
20
29.8881938668
30
0.0000000000
10
12.7441241896
20
29.8890421431
30
0.0000000000
10
12.7642756288
20
29.8900036780
30
0.0000000000
10
12.7843040506
20
29.8910785282
30
0.0000000000
10
12.8041960821
20
29.8922667615
30
0.0000000000
10
12.8239384680
20
29.8935684573
30
0.0000000000
10
12.8435179926
20
29.8949837010
30
0.0000000000
10
12.8629214557
20
29.8965125808
30
0.0000000000
10
12.8821356988
20
29.8981551866
30
0.0000000000
10
12.9011476597
20
29.8999116123
30
0.0000000000
10
12.9199444425
20
29.9017819623
30
0.0000000000
10
12.9385133333
20
29.9037663542
30
0.0000000000
10
12.9568417878
20
29.9058649193
30
0.0000000000
10
12.9749173560
20
29.9080777939
30
0.0000000000
10
12.9927276638
20
29.9104051143
30
0.0000000000
10
13.0102604244
20
29.9128470150
30
0.0000000000
10
13.0275035114
20
29.9154036358
30
0.0000000000
10
13.0444450010
20
29.9180751275
30
0.0000000000
10
13.0610731959
20
29.9208616569
30
0.0000000000
10
13.0773766139
20
29.9237634063
30
0.0000000000
10
13.0933439238
20
29.9267805628
30
0.0000000000
10
13.1089639272
20
29.9299133108
30
0.0000000000
10
13.1242255686
20
29.9331618298
30
0.0000000000
10
13.1391180109
20
29.9365263068
30
0.0000000000
10
13.1536306562
20
29.9400069402
30
0.0000000000
10
13.1677531786
20
29.9436039486
30
0.0000000000
10
13.1814755077
20
29.9473175690
30
0.0000000000
10
13.1947877821
20
29.9511480448
30
0.0000000000
10
13.2076803277
20
29.9550956155
30
0.0000000000
10
13.2201436788
20
29.9591605170
30
0.0000000000
10
13.2321686395
20
29.9633429982
30
0.0000000000
10
13.2437462941
20
29.9676433249
30
0.0000000000
10
13.2548680352
20
29.9720617919
30
0.0000000000
10
13.2655255522
20
29.9765987236
30
0.0000000000
10
13.2757108164
20
29.9812544716
30
0.0000000000
10
13.2854160573
20
29.9860294058
30
0.0000000000
10
13.2946337294
20
29.9909238952
30
0.0000000000
10
13.3033565028
20
29.9959382932
30
0.0000000000
10
13.3115771831
20
30.0010728709
30
0.0000000000
10
13.3192878148
20
30.0063271580
30
0.0000000000
10
13.3264808311
20
30.0117004083
30
0.0000000000
10
13.3331495489
20
30.0171918785
30
0.0000000000
10
13.3392889504
20
30.0228017220
30
0.0000000000
10
13.3448946039
20
30.0285303811
30
0.0000000000
10
13.3499622890
20
30.0343782917
30
0.0000000000
10
13.3544879874
20
30.0403458406
30
0.0000000000
10
13.3584678998
20
30.0464333293
30
0.0000000000
10
13.3618984639
20
30.0526408960
30
0.0000000000
10
13.3647764092
20
30.0589684568
30
0.0000000000
10
13.3670988471
20
30.0654155728
30
0.0000000000
10
13.3688634202
20
30.0719817074
30
0.0000000000
10
13.3700683672
20
30.0786653334
30
0.0000000000
10
13.3704957721
20
30.0831765452
30
0.0000000000
10
13.3706171944
20
30.0854425825
30
0.0000000000
11
11.7896146020
21
30.0854425825
31
0.0000000000
11
11.7902593376
21
30.0786653213
31
0.0000000000
11
11.7914606179
21
30.0720048726
31
0.0000000000
11
11.7932175966
21
30.0654612399
31
0.0000000000
11
11.7955290348
21
30.0590344248
31
0.0000000000
11
11.7983933023
21
30.0527244298
31
0.0000000000
11
11.8018083826
21
30.0465312499
31
0.0000000000
11
11.8057718793
21
30.0404548712
31
0.0000000000
11
11.8102809768
21
30.0344953280
31
0.0000000000
11
11.8153324433
21
30.0286526726
31
0.0000000000
11
11.8209227892
21
30.0229268139
31
0.0000000000
11
11.8270482167
21
30.0173176341
31
0.0000000000
11
11.8337045353
21
30.0118250734
31
0.0000000000
11
11.8408865508
21
30.0064495463
31
0.0000000000
11
11.8485880866
21
30.0011917283
31
0.0000000000
11
11.8568010283
21
29.9960530132
31
0.0000000000
11
11.8655167218
21
29.9910344421
31
0.0000000000
11
11.8747281431
21
29.9861356876
31
0.0000000000
11
11.8844281505
21
29.9813563476
31
0.0000000000
11
11.8946092804
21
29.9766960673
31
0.0000000000
11
11.9052635878
21
29.9721545959
31
0.0000000000
11
11.9163828040
21
29.9677316978
31
0.0000000000
11
11.9279585916
21
29.9634270600
31
0.0000000000
11
11.9399823252
21
29.9592403927
31
0.0000000000
11
11.9524450024
21
29.9551714563
31
0.0000000000
11
11.9653373584
21
29.9512200162
31
0.0000000000
11
11.9786498866
21
29.9473858391
31
0.0000000000
11
11.9923728495
21
29.9436686931
31
0.0000000000
11
12.0064962929
21
29.9400683472
31
0.0000000000
11
12.0210102223
21
29.9365845329
31
0.0000000000
11
12.0359042747
21
29.9332170310
31
0.0000000000
11
12.0511678012
21
29.9299656447
31
0.0000000000
11
12.0667899390
21
29.9268301826
31
0.0000000000
11
12.0827596201
21
29.9238104588
31
0.0000000000
11
12.0990655780
21
29.9209062924
31
0.0000000000
11
12.1156964079
21
29.9181174993
31
0.0000000000
11
12.1326407799
21
29.9154438637
31
0.0000000000
11
12.1498869409
21
29.9128852215
31
0.0000000000
11
12.1674229183
21
29.9104414226
31
0.0000000000
11
12.1852365747
21
29.9081123225
31
0.0000000000
11
12.2033156153
21
29.9058977821
31
0.0000000000
11
12.2216475957
21
29.9037976676
31
0.0000000000
11
12.2402200310
21
29.9018118404
31
0.0000000000
11
12.2590205466
21
29.8999401468
31
0.0000000000
11
12.2780363499
21
29.8981824738
31
0.0000000000
11
12.2972545013
21
29.8965387173
31
0.0000000000
11
12.3166619421
21
29.8950087792
31
0.0000000000
11
12.3362455009
21
29.8935925676
31
0.0000000000
11
12.3559919077
21
29.8922899961
31
0.0000000000
11
12.3758879545
21
29.8911009748
31
0.0000000000
11
12.3959205224
21
29.8900254144
31
0.0000000000
11
12.4160761602
21
29.8890632499
31
0.0000000000
11
12.4363413323
21
29.8882144236
31
0.0000000000
11
12.4567024118
21
29.8874788852
31
0.0000000000
11
12.4771457005
21
29.8868565904
31
0.0000000000
11
12.4976574582
21
29.8863475001
31
0.0000000000
11
12.5182241005
21
29.8859515770
31
0.0000000000
11
12.5388321055
21
29.8856687926
31
0.0000000000
11
12.5594677369
21
29.8854991308
31
0.0000000000
11
12.5801172196
21
29.8854425825
31
0.0000000000
11
12.6007667097
21
29.8854991453
31
0.0000000000
11
12.6214023470
21
29.8856688218
31
0.0000000000
11
12.6420102940
21
29.8859516198
31
0.0000000000
11
12.6625769272
21
29.8863475571
31
0.0000000000
11
12.6830886823
21
29.8868566618
31
0.0000000000
11
12.7035319064
21
29.8874789691
31
0.0000000000
11
12.7238929339
21
29.8882145199
31
0.0000000000
11
12.7441580646
21
29.8890633587
31
0.0000000000
11
12.7643136431
21
29.8900255345
31
0.0000000000
11
12.7843461069
21
29.8911011033
31
0.0000000000
11
12.8042421285
21
29.8922901368
31
0.0000000000
11
12.8239884699
21
29.8935927179
31
0.0000000000
11
12.8435719229
21
29.8950089355
31
0.0000000000
11
12.8629792759
21
29.8965388800
31
0.0000000000
11
12.8821973387
21
29.8981826421
31
0.0000000000
11
12.9012130254
21
29.8999403172
31
0.0000000000
11
12.9200134135
21
29.9018120105
31
0.0000000000
11
12.9385858094
21
29.9037978457
31
0.0000000000
11
12.9569176720
21
29.9058979587
31
0.0000000000
11
12.9749965860
21
29.9081124952
31
0.0000000000
11
12.9928101389
21
29.9104415928
31
0.0000000000
11
13.0103460147
21
29.9128853882
31
0.0000000000
11
13.0275920583
21
29.9154440231
31
0.0000000000
11
13.0445363348
21
29.9181176533
31
0.0000000000
11
13.0611671325
21
29.9209064503
31
0.0000000000
11
13.0774729716
21
29.9238106047
31
0.0000000000
11
13.0934425583
21
29.9268303192
31
0.0000000000
11
13.1090646296
21
29.9299657758
31
0.0000000000
11
13.1243280983
21
29.9332171575
31
0.0000000000
11
13.1392220919
21
29.9365846535
31
0.0000000000
11
13.1537359947
21
29.9400684687
31
0.0000000000
11
13.1678594282
21
29.9436688196
31
0.0000000000
11
13.1815823251
21
29.9473859550
31
0.0000000000
11
13.1948948234
21
29.9512201307
31
0.0000000000
11
13.2077871604
21
29.9551715722
31
0.0000000000
11
13.2202498153
21
29.9592405087
31
0.0000000000
11
13.2322735321
21
29.9634271777
31
0.0000000000
11
13.2438493383
21
29.9677318308
31
0.0000000000
11
13.2549685311
21
29.9721547286
31
0.0000000000
11
13.2656227549
21
29.9766961728
31
0.0000000000
11
13.2758039020
21
29.9813564692
31
0.0000000000
11
13.2855040918
21
29.9861359119
31
0.0000000000
11
13.2947157192
21
29.9910347987
31
0.0000000000
11
13.3034313364
21
29.9960533541
31
0.0000000000
11
13.3116437061
21
30.0011917258
31
0.0000000000
11
13.3193456505
21
30.0064498355
31
0.0000000000
11
13.3265276205
21
30.0118253556
31
0.0000000000
11
13.3331835608
21
30.0173176176
31
0.0000000000
11
13.3393088627
21
30.0229266740
31
0.0000000000
11
13.3448992611
21
30.0286525726
31
0.0000000000
11
13.3499508068
21
30.0344953121
31
0.0000000000
11
13.3544599190
21
30.0404548739
31
0.0000000000
11
13.3584234093
21
30.0465312423
31
0.0000000000
11
13.3618384918
21
30.0527244251
31
0.0000000000
11
13.3647027613
21
30.0590344240
31
0.0000000000
11
13.3670141996
21
30.0654612391
31
0.0000000000
11
13.3687711779
21
30.0720048698
31
0.0000000000
11
13.3699724582
21
30.0786653169
31
0.0000000000
11
13.3706171944
21
30.0854425825
31
0.0000000000
0
SPLINE
5
376
100
AcDbEntity
8
0
100
AcDbSpline
62
9
6
CONTINUOUS
70
0
71
3
72
59
73
55
74
53
42
0.0000001000
43
0.0000001000
44
0.0000000001
12
0.0004838229
22
11.1506681603
32
0.0000000000
13
0.0004873102
23
-11.1506681601
33
0.0000000000
40
0.0000000000
40
0.0000000000
40
0.0000000000
40
0.0000000000
40
0.0191693443
40
0.0383978226
40
0.0576614654
40
0.0769374120
40
0.0962038307
40
0.1154557044
40
0.1347038150
40
0.1539496179
40
0.1731929330
40
0.1924348692
40
0.2116760588
40
0.2309166967
40
0.2501554221
40
0.2693899288
40
0.2886198495
40
0.3078467262
40
0.3270716511
40
0.3462941132
40
0.3655135939
40
0.3847304639
40
0.4039452763
40
0.4231584423
40
0.4423700783
40
0.4615805402
40
0.4807901963
40
0.4999995006
40
0.5192088048
40
0.5384184602
40
0.5576289202
40
0.5768405542
40
0.5960537194
40
0.6152685313
40
0.6344853967
40
0.6537048701
40
0.6729273310
40
0.6921522652
40
0.7113791457
40
0.7306090481
40
0.7498435305
40
0.7690822557
40
0.7883229186
40
0.8075641437
40
0.8268061478
40
0.8460495251
40
0.8652950701
40
0.8845424581
40
0.9037937917
40
0.9230597548
40
0.9423355520
40
0.9615996422
40
0.9808292874
40
1.0000000000
40
1.0000000000
40
1.0000000000
40
1.0000000000
10
1.8789022544
20
8.8377982951
30
0.0000000000
10
1.8789053459
20
8.9090486274
30
0.0000000000
10
1.8832028679
20
9.0518060629
30
0.0000000000
10
1.9025439800
20
9.2653770478
30
0.0000000000
10
1.9347931956
20
9.4777928108
30
0.0000000000
10
1.9798435809
20
9.6880087858
30
0.0000000000
10
2.0374994893
20
9.8950775217
30
0.0000000000
10
2.1075193818
20
10.0981889319
30
0.0000000000
10
2.1896420539
20
10.2966328096
30
0.0000000000
10
2.2835789764
20
10.4897293872
30
0.0000000000
10
2.3889889331
20
10.6767837066
30
0.0000000000
10
2.5054890938
20
10.8571193241
30
0.0000000000
10
2.6326584660
20
11.0300843935
30
0.0000000000
10
2.7700324922
20
11.1950457045
30
0.0000000000
10
2.9171011730
20
11.3513914819
30
0.0000000000
10
3.0733149131
20
11.4985422715
30
0.0000000000
10
3.2380966649
20
11.6359618667
30
0.0000000000
10
3.4108482863
20
11.7631576287
30
0.0000000000
10
3.5909436638
20
11.8796722180
30
0.0000000000
10
3.7777240626
20
11.9850822917
30
0.0000000000
10
3.9705037487
20
12.0790043115
30
0.0000000000
10
4.1685785692
20
12.1610988889
30
0.0000000000
10
4.3712285981
20
12.2310706890
30
0.0000000000
10
4.5777167327
20
12.2886675187
30
0.0000000000
10
4.7872913924
20
12.3336816430
30
0.0000000000
10
4.9991897506
20
12.3659508298
30
0.0000000000
10
5.2126418993
20
12.3853590288
30
0.0000000000
10
5.4268723745
20
12.3918364249
30
0.0000000000
10
5.6411028670
20
12.3853597025
30
0.0000000000
10
5.8545550670
20
12.3659521757
30
0.0000000000
10
6.0664535097
20
12.3336836589
30
0.0000000000
10
6.2760282946
20
12.2886701994
30
0.0000000000
10
6.4825165990
20
12.2310740255
30
0.0000000000
10
6.6851668285
20
12.1611028730
30
0.0000000000
10
6.8832418666
20
12.0790089409
30
0.0000000000
10
7.0760218081
20
11.9850875568
30
0.0000000000
10
7.2628025466
20
11.8796780793
30
0.0000000000
10
7.4428983324
20
11.7631640399
30
0.0000000000
10
7.6156503412
20
11.6359688358
30
0.0000000000
10
7.7804324197
20
11.4985498586
30
0.0000000000
10
7.9366465224
20
11.3513996865
30
0.0000000000
10
8.0837157188
20
11.1950543921
30
0.0000000000
10
8.2210904252
20
11.0300933551
30
0.0000000000
10
8.3482606264
20
10.8571283020
30
0.0000000000
10
8.4647616617
20
10.6767925150
30
0.0000000000
10
8.5701719071
20
10.4897389024
30
0.0000000000
10
8.6641079318
20
10.2966456896
30
0.0000000000
10
8.7462293562
20
10.0982074276
30
0.0000000000
10
8.8162485081
20
9.8951025294
30
0.0000000000
10
8.8739049620
20
9.6880383732
30
0.0000000000
10
8.9189571499
20
9.4778233858
30
0.0000000000
10
8.9512090046
20
9.2654025076
30
0.0000000000
10
8.9705524633
20
9.0518205806
30
0.0000000000
10
8.9748505320
20
8.9090537133
30
0.0000000000
10
8.9748536460
20
8.8377982951
30
0.0000000000
11
1.8789022544
21
8.8377982951
31
0.0000000000
11
1.8853351657
21
9.0514524698
31
0.0000000000
11
1.9046725501
21
9.2649890641
31
0.0000000000
11
1.9369150897
21
9.4773579126
31
0.0000000000
11
1.9819551979
21
9.6875255993
31
0.0000000000
11
2.0395812466
21
9.8944860936
31
0.0000000000
11
2.1095457797
21
10.0974361170
31
0.0000000000
11
2.1916167668
21
10.2957542633
31
0.0000000000
11
2.2854972050
21
10.4887339307
31
0.0000000000
11
2.3908414006
21
10.6756707741
31
0.0000000000
11
2.5072698004
21
10.8558945583
31
0.0000000000
11
2.6343617496
21
11.0287536019
31
0.0000000000
11
2.7716557764
21
11.1936181601
31
0.0000000000
11
2.9186411641
21
11.3498747386
31
0.0000000000
11
3.0747611510
21
11.4969366016
31
0.0000000000
11
3.2394385237
21
11.6342685777
31
0.0000000000
11
3.4120820119
21
11.7613841920
31
0.0000000000
11
3.5920695983
21
11.8778285591
31
0.0000000000
11
3.7787381760
21
11.9831750872
31
0.0000000000
11
3.9713994350
21
12.0770390182
31
0.0000000000
11
4.1693519066
21
12.1590825447
31
0.0000000000
11
4.3718772181
21
12.2290109904
31
0.0000000000
11
4.5782392911
21
12.2865724171
31
0.0000000000
11
4.7876851049
21
12.3315586795
31
0.0000000000
11
4.9994531216
21
12.3638078826
31
0.0000000000
11
5.2127736412
21
12.3832040324
31
0.0000000000
11
5.4268723778
21
12.3896774183
31
0.0000000000
11
5.6409711350
21
12.3832047056
31
0.0000000000
11
5.8542917066
21
12.3638092276
31
0.0000000000
11
6.0660598047
21
12.3315606944
31
0.0000000000
11
6.2755057384
21
12.2865750976
31
0.0000000000
11
6.4818679848
21
12.2290143252
31
0.0000000000
11
6.6843935113
21
12.1590865217
31
0.0000000000
11
6.8823461966
21
12.0770436417
31
0.0000000000
11
7.0750076815
21
11.9831803602
31
0.0000000000
11
7.2616765835
21
11.8778344366
31
0.0000000000
11
7.4416646288
21
11.7613905861
31
0.0000000000
11
7.6143085530
21
11.6342754934
31
0.0000000000
11
7.7789862074
21
11.4969441723
31
0.0000000000
11
7.9351064745
21
11.3498830040
31
0.0000000000
11
8.0820923754
21
11.1936269104
31
0.0000000000
11
8.2193871165
21
11.0287625846
31
0.0000000000
11
8.3464798456
21
10.8559036233
31
0.0000000000
11
8.4629091957
21
10.6756795516
31
0.0000000000
11
8.5682542532
21
10.4887423973
31
0.0000000000
11
8.6621340308
21
10.2957656059
31
0.0000000000
11
8.7442028553
21
10.0974552856
31
0.0000000000
11
8.8141667679
21
9.8945114189
31
0.0000000000
11
8.8717931452
21
9.6875562896
31
0.0000000000
11
8.9168348234
21
9.4773906432
31
0.0000000000
11
8.9490799454
21
9.2650171409
31
0.0000000000
11
8.9684198213
21
9.0514677071
31
0.0000000000
11
8.9748536460
21
8.8377982951
31
0.0000000000
0
SPLINE
5
377
100
AcDbEntity
8
0
100
AcDbSpline
62
9
6
CONTINUOUS
70
0
71
3
72
125
73
121
74
119
42
0.0000001000
43
0.0000001000
44
0.0000000001
12
0.0914304416
22
-1.7063155864
32
0.0000000000
13
0.0914304435
23
1.7063155863
33
0.0000000000
40
0.0000000000
40
0.0000000000
40
0.0000000000
40
0.0000000000
40
0.0039840856
40
0.0079447938
40
0.0119098859
40
0.0159068341
40
0.0199621943
40
0.0241010693
40
0.0283466950
40
0.0327201265
40
0.0372401179
40
0.0419232347
40
0.0467838528
40
0.0518342174
40
0.0570841736
40
0.0625414203
40
0.0682110615
40
0.0740967822
40
0.0802023836
40
0.0865306563
40
0.0930833693
40
0.0998612819
40
0.1068643452
40
0.1140919423
40
0.1215428188
40
0.1292150887
40
0.1371063590
40
0.1452137864
40
0.1535341221
40
0.1620637527
40
0.1707988347
40
0.1797351209
40
0.1888680322
40
0.1981927196
40
0.2077040861
40
0.2173968039
40
0.2272653630
40
0.2373042075
40
0.2475074504
40
0.2578690027
40
0.2683826136
40
0.2790418818
40
0.2898402655
40
0.3007711522
40
0.3118279518
40
0.3230037899
40
0.3342916718
40
0.3456845023
40
0.3571750922
40
0.3687561702
40
0.3804204789
40
0.3921607940
40
0.4039696786
40
0.4158396315
40
0.4277630848
40
0.4397324175
40
0.4517399747
40
0.4637781847
40
0.4758395063
40
0.4879162682
40
0.5000007733
40
0.5120852827
40
0.5241620481
40
0.5362233359
40
0.5482615408
40
0.5602690966
40
0.5722383917
40
0.5841618149
40
0.5960317439
40
0.6078405942
40
0.6195808487
40
0.6312451432
40
0.6428261832
40
0.6543167116
40
0.6657094912
40
0.6769973218
40
0.6881730921
40
0.6992298174
40
0.7101606816
40
0.7209589967
40
0.7316181911
40
0.7421317418
40
0.7524932349
40
0.7626964092
40
0.7727351980
40
0.7826037389
40
0.7922963870
40
0.8018076982
40
0.8111323469
40
0.8202652245
40
0.8292014763
40
0.8379365434
40
0.8464661691
40
0.8547864659
40
0.8628938763
40
0.8707851361
40
0.8784573936
40
0.8859082612
40
0.8931358717
40
0.9001389222
40
0.9069167835
40
0.9134695096
40
0.9197979046
40
0.9259036488
40
0.9317893262
40
0.9374585770
40
0.9429161175
40
0.9481660499
40
0.9532161325
40
0.9580766476
40
0.9627598026
40
0.9672798616
40
0.9716533069
40
0.9758989255
40
0.9800378027
40
0.9840931654
40
0.9880901136
40
0.9920552045
40
0.9960159118
40
1.0000000000
40
1.0000000000
40
1.0000000000
40
1.0000000000
10
-2.5168612940
20
30.0854425825
30
0.0000000000
10
-2.5167398718
20
30.0831765467
30
0.0000000000
10
-2.5163124671
20
30.0786653358
30
0.0000000000
10
-2.5151075205
20
30.0719817100
30
0.0000000000
10
-2.5133429472
20
30.0654155742
30
0.0000000000
10
-2.5110205096
20
30.0589684590
30
0.0000000000
10
-2.5081425657
20
30.0526409005
30
0.0000000000
10
-2.5047120014
20
30.0464333324
30
0.0000000000
10
-2.5007320919
20
30.0403458478
30
0.0000000000
10
-2.4962064196
20
30.0343783322
30
0.0000000000
10
-2.4911387831
20
30.0285304699
30
0.0000000000
10
-2.4855331378
20
30.0228018051
30
0.0000000000
10
-2.4793935942
20
30.0171918238
30
0.0000000000
10
-2.4727246891
20
30.0117002141
30
0.0000000000
10
-2.4655316543
20
30.0063269771
30
0.0000000000
10
-2.4578209608
20
30.0010726595
30
0.0000000000
10
-2.4496002054
20
29.9959380507
30
0.0000000000
10
-2.4408772762
20
29.9909235914
30
0.0000000000
10
-2.4316597067
20
29.9860291786
30
0.0000000000
10
-2.4219546031
20
29.9812543246
30
0.0000000000
10
-2.4117693794
20
29.9765986032
30
0.0000000000
10
-2.4011118327
20
29.9720616673
30
0.0000000000
10
-2.3899900616
20
29.9676431975
30
0.0000000000
10
-2.3784123999
20
29.9633428764
30
0.0000000000
10
-2.3663874325
20
29.9591604005
30
0.0000000000
10
-2.3539240621
20
29.9550955000
30
0.0000000000
10
-2.3410314927
20
29.9511479292
30
0.0000000000
10
-2.3277191801
20
29.9473174496
30
0.0000000000
10
-2.3139968157
20
29.9436038270
30
0.0000000000
10
-2.2998742590
20
29.9400068174
30
0.0000000000
10
-2.2853615820
20
29.9365261837
30
0.0000000000
10
-2.2704690921
20
29.9331617033
30
0.0000000000
10
-2.2552073896
20
29.9299131789
30
0.0000000000
10
-2.2395873133
20
29.9267804243
30
0.0000000000
10
-2.2236199102
20
29.9237632587
30
0.0000000000
10
-2.2073164104
20
29.9208615038
30
0.0000000000
10
-2.1906881333
20
29.9180749701
30
0.0000000000
10
-2.1737465620
20
29.9154034751
30
0.0000000000
10
-2.1565033701
20
29.9128468489
30
0.0000000000
10
-2.1389705020
20
29.9104049439
30
0.0000000000
10
-2.1211600837
20
29.9080776201
30
0.0000000000
10
-2.1030843995
20
29.9058647429
30
0.0000000000
10
-2.0847558503
20
29.9037661790
30
0.0000000000
10
-2.0661868647
20
29.9017817891
30
0.0000000000
10
-2.0473899874
20
29.8999114421
30
0.0000000000
10
-2.0283779156
20
29.8981550190
30
0.0000000000
10
-2.0091635749
20
29.8965124181
30
0.0000000000
10
-1.9897600176
20
29.8949835442
30
0.0000000000
10
-1.9701804067
20
29.8935683078
30
0.0000000000
10
-1.9504379553
20
29.8922666216
30
0.0000000000
10
-1.9305458590
20
29.8910783982
30
0.0000000000
10
-1.9105173742
20
29.8900035586
30
0.0000000000
10
-1.8903658668
20
29.8890420346
30
0.0000000000
10
-1.8701048721
20
29.8881937704
30
0.0000000000
10
-1.8497480079
20
29.8874587166
30
0.0000000000
10
-1.8293089604
20
29.8868368299
30
0.0000000000
10
-1.8088014018
20
29.8863280706
30
0.0000000000
10
-1.7882389454
20
29.8859324035
30
0.0000000000
10
-1.7676352036
20
29.8856498025
30
0.0000000000
10
-1.7470038520
20
29.8854802505
30
0.0000000000
10
-1.7263586740
20
29.8854237389
30
0.0000000000
10
-1.7057134940
20
29.8854802650
30
0.0000000000
10
-1.6850821573
20
29.8856498314
30
0.0000000000
10
-1.6644784359
20
29.8859324467
30
0.0000000000
10
-1.6439160027
20
29.8863281276
30
0.0000000000
10
-1.6234084695
20
29.8868369008
30
0.0000000000
10
-1.6029694618
20
29.8874588007
30
0.0000000000
10
-1.5826126503
20
29.8881938668
30
0.0000000000
10
-1.5623517064
20
29.8890421431
30
0.0000000000
10
-1.5422002673
20
29.8900036780
30
0.0000000000
10
-1.5221718454
20
29.8910785282
30
0.0000000000
10
-1.5022798140
20
29.8922667615
30
0.0000000000
10
-1.4825374280
20
29.8935684573
30
0.0000000000
10
-1.4629579035
20
29.8949837010
30
0.0000000000
10
-1.4435544403
20
29.8965125808
30
0.0000000000
10
-1.4243401973
20
29.8981551866
30
0.0000000000
10
-1.4053282363
20
29.8999116123
30
0.0000000000
10
-1.3865314536
20
29.9017819623
30
0.0000000000
10
-1.3679625628
20
29.9037663542
30
0.0000000000
10
-1.3496341083
20
29.9058649193
30
0.0000000000
10
-1.3315585400
20
29.9080777939
30
0.0000000000
10
-1.3137482323
20
29.9104051143
30
0.0000000000
10
-1.2962154717
20
29.9128470150
30
0.0000000000
10
-1.2789723847
20
29.9154036358
30
0.0000000000
10
-1.2620308950
20
29.9180751275
30
0.0000000000
10
-1.2454027001
20
29.9208616569
30
0.0000000000
10
-1.2290992822
20
29.9237634063
30
0.0000000000
10
-1.2131319723
20
29.9267805628
30
0.0000000000
10
-1.1975119689
20
29.9299133108
30
0.0000000000
10
-1.1822503275
20
29.9331618298
30
0.0000000000
10
-1.1673578852
20
29.9365263068
30
0.0000000000
10
-1.1528452399
20
29.9400069402
30
0.0000000000
10
-1.1387227174
20
29.9436039486
30
0.0000000000
10
-1.1250003884
20
29.9473175690
30
0.0000000000
10
-1.1116881140
20
29.9511480448
30
0.0000000000
10
-1.0987955683
20
29.9550956155
30
0.0000000000
10
-1.0863322172
20
29.9591605170
30
0.0000000000
10
-1.0743072565
20
29.9633429982
30
0.0000000000
10
-1.0627296019
20
29.9676433249
30
0.0000000000
10
-1.0516078609
20
29.9720617919
30
0.0000000000
10
-1.0409503439
20
29.9765987236
30
0.0000000000
10
-1.0307650797
20
29.9812544716
30
0.0000000000
10
-1.0210598388
20
29.9860294058
30
0.0000000000
10
-1.0118421667
20
29.9909238952
30
0.0000000000
10
-1.0031193933
20
29.9959382932
30
0.0000000000
10
-0.9948987130
20
30.0010728709
30
0.0000000000
10
-0.9871880812
20
30.0063271580
30
0.0000000000
10
-0.9799950649
20
30.0117004083
30
0.0000000000
10
-0.9733263472
20
30.0171918785
30
0.0000000000
10
-0.9671869457
20
30.0228017220
30
0.0000000000
10
-0.9615812922
20
30.0285303811
30
0.0000000000
10
-0.9565136071
20
30.0343782917
30
0.0000000000
10
-0.9519879087
20
30.0403458406
30
0.0000000000
10
-0.9480079963
20
30.0464333293
30
0.0000000000
10
-0.9445774322
20
30.0526408960
30
0.0000000000
10
-0.9416994869
20
30.0589684568
30
0.0000000000
10
-0.9393770489
20
30.0654155728
30
0.0000000000
10
-0.9376124759
20
30.0719817074
30
0.0000000000
10
-0.9364075289
20
30.0786653334
30
0.0000000000
10
-0.9359801240
20
30.0831765452
30
0.0000000000
10
-0.9358587016
20
30.0854425825
30
0.0000000000
11
-2.5168612940
21
30.0854425825
31
0.0000000000
11
-2.5162165585
21
30.0786653213
31
0.0000000000
11
-2.5150152781
21
30.0720048726
31
0.0000000000
11
-2.5132582994
21
30.0654612399
31
0.0000000000
11
-2.5109468612
21
30.0590344248
31
0.0000000000
11
-2.5080825938
21
30.0527244298
31
0.0000000000
11
-2.5046675135
21
30.0465312499
31
0.0000000000
11
-2.5007040167
21
30.0404548712
31
0.0000000000
11
-2.4961949192
21
30.0344953280
31
0.0000000000
11
-2.4911434527
21
30.0286526726
31
0.0000000000
11
-2.4855531069
21
30.0229268139
31
0.0000000000
11
-2.4794276794
21
30.0173176341
31
0.0000000000
11
-2.4727713608
21
30.0118250734
31
0.0000000000
11
-2.4655893452
21
30.0064495463
31
0.0000000000
11
-2.4578878095
21
30.0011917283
31
0.0000000000
11
-2.4496748678
21
29.9960530132
31
0.0000000000
11
-2.4409591742
21
29.9910344421
31
0.0000000000
11
-2.4317477529
21
29.9861356876
31
0.0000000000
11
-2.4220477456
21
29.9813563476
31
0.0000000000
11
-2.4118666157
21
29.9766960673
31
0.0000000000
11
-2.4012123083
21
29.9721545959
31
0.0000000000
11
-2.3900930920
21
29.9677316978
31
0.0000000000
11
-2.3785173045
21
29.9634270600
31
0.0000000000
11
-2.3664935709
21
29.9592403927
31
0.0000000000
11
-2.3540308937
21
29.9551714563
31
0.0000000000
11
-2.3411385377
21
29.9512200162
31
0.0000000000
11
-2.3278260095
21
29.9473858391
31
0.0000000000
11
-2.3141030465
21
29.9436686931
31
0.0000000000
11
-2.2999796031
21
29.9400683472
31
0.0000000000
11
-2.2854656738
21
29.9365845329
31
0.0000000000
11
-2.2705716214
21
29.9332170310
31
0.0000000000
11
-2.2553080949
21
29.9299656447
31
0.0000000000
11
-2.2396859571
21
29.9268301826
31
0.0000000000
11
-2.2237162759
21
29.9238104588
31
0.0000000000
11
-2.2074103181
21
29.9209062924
31
0.0000000000
11
-2.1907794882
21
29.9181174993
31
0.0000000000
11
-2.1738351161
21
29.9154438637
31
0.0000000000
11
-2.1565889551
21
29.9128852215
31
0.0000000000
11
-2.1390529778
21
29.9104414226
31
0.0000000000
11
-2.1212393214
21
29.9081123225
31
0.0000000000
11
-2.1031602808
21
29.9058977821
31
0.0000000000
11
-2.0848283004
21
29.9037976676
31
0.0000000000
11
-2.0662558651
21
29.9018118404
31
0.0000000000
11
-2.0474553495
21
29.8999401468
31
0.0000000000
11
-2.0284395461
21
29.8981824738
31
0.0000000000
11
-2.0092213948
21
29.8965387173
31
0.0000000000
11
-1.9898139540
21
29.8950087792
31
0.0000000000
11
-1.9702303952
21
29.8935925676
31
0.0000000000
11
-1.9504839883
21
29.8922899961
31
0.0000000000
11
-1.9305879416
21
29.8911009748
31
0.0000000000
11
-1.9105553737
21
29.8900254144
31
0.0000000000
11
-1.8903997358
21
29.8890632499
31
0.0000000000
11
-1.8701345638
21
29.8882144236
31
0.0000000000
11
-1.8497734843
21
29.8874788852
31
0.0000000000
11
-1.8293301956
21
29.8868565904
31
0.0000000000
11
-1.8088184379
21
29.8863475001
31
0.0000000000
11
-1.7882517956
21
29.8859515770
31
0.0000000000
11
-1.7676437906
21
29.8856687926
31
0.0000000000
11
-1.7470081592
21
29.8854991308
31
0.0000000000
11
-1.7263586765
21
29.8854425825
31
0.0000000000
11
-1.7057091864
21
29.8854991453
31
0.0000000000
11
-1.6850735491
21
29.8856688218
31
0.0000000000
11
-1.6644656021
21
29.8859516198
31
0.0000000000
11
-1.6438989688
21
29.8863475571
31
0.0000000000
11
-1.6233872137
21
29.8868566618
31
0.0000000000
11
-1.6029439897
21
29.8874789691
31
0.0000000000
11
-1.5825829622
21
29.8882145199
31
0.0000000000
11
-1.5623178314
21
29.8890633587
31
0.0000000000
11
-1.5421622530
21
29.8900255345
31
0.0000000000
11
-1.5221297891
21
29.8911011033
31
0.0000000000
11
-1.5022337676
21
29.8922901368
31
0.0000000000
11
-1.4824874262
21
29.8935927179
31
0.0000000000
11
-1.4629039732
21
29.8950089355
31
0.0000000000
11
-1.4434966202
21
29.8965388800
31
0.0000000000
11
-1.4242785573
21
29.8981826421
31
0.0000000000
11
-1.4052628706
21
29.8999403172
31
0.0000000000
11
-1.3864624825
21
29.9018120105
31
0.0000000000
11
-1.3678900866
21
29.9037978457
31
0.0000000000
11
-1.3495582241
21
29.9058979587
31
0.0000000000
11
-1.3314793100
21
29.9081124952
31
0.0000000000
11
-1.3136657572
21
29.9104415928
31
0.0000000000
11
-1.2961298814
21
29.9128853882
31
0.0000000000
11
-1.2788838378
21
29.9154440231
31
0.0000000000
11
-1.2619395613
21
29.9181176533
31
0.0000000000
11
-1.2453087635
21
29.9209064503
31
0.0000000000
11
-1.2290029245
21
29.9238106047
31
0.0000000000
11
-1.2130333378
21
29.9268303192
31
0.0000000000
11
-1.1974112665
21
29.9299657758
31
0.0000000000
11
-1.1821477977
21
29.9332171575
31
0.0000000000
11
-1.1672538042
21
29.9365846535
31
0.0000000000
11
-1.1527399013
21
29.9400684687
31
0.0000000000
11
-1.1386164679
21
29.9436688196
31
0.0000000000
11
-1.1248935710
21
29.9473859550
31
0.0000000000
11
-1.1115810726
21
29.9512201307
31
0.0000000000
11
-1.0986887357
21
29.9551715722
31
0.0000000000
11
-1.0862260808
21
29.9592405087
31
0.0000000000
11
-1.0742023639
21
29.9634271777
31
0.0000000000
11
-1.0626265577
21
29.9677318308
31
0.0000000000
11
-1.0515073650
21
29.9721547286
31
0.0000000000
11
-1.0408531412
21
29.9766961728
31
0.0000000000
11
-1.0306719940
21
29.9813564692
31
0.0000000000
11
-1.0209718043
21
29.9861359119
31
0.0000000000
11
-1.0117601768
21
29.9910347987
31
0.0000000000
11
-1.0030445597
21
29.9960533541
31
0.0000000000
11
-0.9948321899
21
30.0011917258
31
0.0000000000
11
-0.9871302456
21
30.0064498355
31
0.0000000000
11
-0.9799482756
21
30.0118253556
31
0.0000000000
11
-0.9732923353
21
30.0173176176
31
0.0000000000
11
-0.9671670333
21
30.0229266740
31
0.0000000000
11
-0.9615766350
21
30.0286525726
31
0.0000000000
11
-0.9565250893
21
30.0344953121
31
0.0000000000
11
-0.9520159771
21
30.0404548739
31
0.0000000000
11
-0.9480524867
21
30.0465312423
31
0.0000000000
11
-0.9446374043
21
30.0527244251
31
0.0000000000
11
-0.9417731348
21
30.0590344240
31
0.0000000000
11
-0.9394616965
21
30.0654612391
31
0.0000000000
11
-0.9377047182
21
30.0720048698
31
0.0000000000
11
-0.9365034378
21
30.0786653169
31
0.0000000000
11
-0.9358587016
21
30.0854425825
31
0.0000000000
0
SPLINE
5
378
100
AcDbEntity
8
0
100
AcDbSpline
62
9
6
CONTINUOUS
70
0
71
3
72
20
73
16
74
14
42
0.0000001000
43
0.0000001000
44
0.0000000001
12
-0.3924303470
22
0.0000000000
32
0.0000000000
13
0.0000000000
23
0.3924303470
33
0.0000000000
40
0.0000000000
40
0.0000000000
40
0.0000000000
40
0.0000000000
40
0.0769172612
40
0.1538348604
40
0.2307531160
40
0.3076723081
40
0.3845926626
40
0.4615143377
40
0.5384374147
40
0.6153618937
40
0.6922876932
40
0.7692146549
40
0.8461425531
40
0.9230711076
40
1.0000000000
40
1.0000000000
40
1.0000000000
40
1.0000000000
10
-6.6873334390
20
-17.1645574175
30
0.0000000000
10
-6.6973949948
20
-17.1645574175
30
0.0000000000
10
-6.7175393277
20
-17.1633392630
30
0.0000000000
10
-6.7472983476
20
-17.1578842179
30
0.0000000000
10
-6.7761874836
20
-17.1488809080
30
0.0000000000
10
-6.8037796940
20
-17.1364606266
30
0.0000000000
10
-6.8296741663
20
-17.1208044942
30
0.0000000000
10
-6.8534928871
20
-17.1021408207
30
0.0000000000
10
-6.8748886391
20
-17.0807417616
30
0.0000000000
10
-6.8935493985
20
-17.0569193974
30
0.0000000000
10
-6.9092030626
20
-17.0310210031
30
0.0000000000
10
-6.9216213695
20
-17.0034246501
30
0.0000000000
10
-6.9306232385
20
-16.9745312085
30
0.0000000000
10
-6.9360774064
20
-16.9447677728
30
0.0000000000
10
-6.9372953628
20
-16.9246204948
30
0.0000000000
10
-6.9372953628
20
-16.9145574175
30
0.0000000000
11
-6.6873334390
21
-17.1645574175
31
0.0000000000
11
-6.7174630195
21
-17.1627346360
31
0.0000000000
11
-6.7471532428
21
-17.1572928719
31
0.0000000000
11
-6.7759711588
21
-17.1483114782
31
0.0000000000
11
-6.8034965371
21
-17.1359214239
31
0.0000000000
11
-6.8293279959
21
-17.1203033840
31
0.0000000000
11
-6.8530888544
21
-17.1016851045
31
0.0000000000
11
-6.8744326256
21
-17.0803380821
31
0.0000000000
11
-6.8930480694
21
-17.0565736042
31
0.0000000000
11
-6.9086637306
21
-17.0307382105
31
0.0000000000
11
-6.9210518978
21
-17.0032086393
31
0.0000000000
11
-6.9300319236
21
-16.9743863336
31
0.0000000000
11
-6.9354728589
21
-16.9446915876
31
0.0000000000
11
-6.9372953628
21
-16.9145574175
31
0.0000000000
0
SPLINE
5
379
100
AcDbEntity
8
0
100
AcDbSpline
62
9
6
CONTINUOUS
70
0
71
3
72
8
73
4
74
2
42
0.0000001000
43
0.0000001000
44
0.0000000001
12
0.0301846648
22
0.0000000000
32
0.0000000000
13
0.0299876383
23
0.0036411160
33
0.0000000000
40
0.0000000000
40
0.0000000000
40
0.0000000000
40
0.0000000000
40
1.0000000000
40
1.0000000000
40
1.0000000000
40
1.0000000000
10
-5.2589106606
20
-17.1645574175
30
0.0000000000
10
-5.2488491057
20
-17.1645574175
30
0.0000000000
10
-5.2387769623
20
-17.1639483417
30
0.0000000000
10
-5.2287810829
20
-17.1627346364
30
0.0000000000
11
-5.2589106606
21
-17.1645574175
31
0.0000000000
11
-5.2287810829
21
-17.1627346364
31
0.0000000000
0
SPLINE
5
37A
100
AcDbEntity
8
0
100
AcDbSpline
62
9
6
CONTINUOUS
70
0
71
3
72
8
73
4
74
2
42
0.0000001000
43
0.0000001000
44
0.0000000001
12
0.0099950979
22
0.0012136104
32
0.0000000000
13
0.0099366256
23
0.0016151593
33
0.0000000000
40
0.0000000000
40
0.0000000000
40
0.0000000000
40
0.0000000000
40
1.0000000000
40
1.0000000000
40
1.0000000000
40
1.0000000000
10
-5.2287810829
20
-17.1627346364
30
0.0000000000
10
-5.2254493836
20
-17.1623300995
30
0.0000000000
10
-5.2221261567
20
-17.1618583922
30
0.0000000000
10
-5.2188139482
20
-17.1613200057
30
0.0000000000
11
-5.2287810829
21
-17.1627346364
31
0.0000000000
11
-5.2188139482
21
-17.1613200057
31
0.0000000000
0
SPLINE
5
37B
100
AcDbEntity
8
0
100
AcDbSpline
62
9
6
CONTINUOUS
70
0
71
3
72
19
73
15
74
13
42
0.0000001000
43
0.0000001000
44
0.0000000001
12
0.3478392055
22
0.0565398915
32
0.0000000000
13
0.0000000000
23
0.3521849140
33
0.0000000000
40
0.0000000000
40
0.0000000000
40
0.0000000000
40
0.0000000000
40
0.0571405217
40
0.1428484975
40
0.2285575184
40
0.3142678359
40
0.3999796262
40
0.4856929799
40
0.5714078970
40
0.6571242864
40
0.7428419716
40
0.8285607010
40
0.9142801621
40
1.0000000000
40
1.0000000000
40
1.0000000000
40
1.0000000000
10
-5.2188139482
20
-17.1613200057
30
0.0000000000
10
-5.2121887103
20
-17.1602430994
30
0.0000000000
10
-5.1957361493
20
-17.1568839437
30
0.0000000000
10
-5.1700566220
20
-17.1488809102
30
0.0000000000
10
-5.1424644123
20
-17.1364606300
30
0.0000000000
10
-5.1165699400
20
-17.1208044989
30
0.0000000000
10
-5.0927512187
20
-17.1021408262
30
0.0000000000
10
-5.0713554658
20
-17.0807417676
30
0.0000000000
10
-5.0526947053
20
-17.0569194034
30
0.0000000000
10
-5.0370410399
20
-17.0310210087
30
0.0000000000
10
-5.0246227318
20
-17.0034246548
30
0.0000000000
10
-5.0156208619
20
-16.9745312119
30
0.0000000000
10
-5.0101666933
20
-16.9447677746
30
0.0000000000
10
-5.0089487368
20
-16.9246204954
30
0.0000000000
10
-5.0089487368
20
-16.9145574175
30
0.0000000000
11
-5.2188139482
21
-17.1613200057
31
0.0000000000
11
-5.1990908616
21
-17.1572928730
31
0.0000000000
11
-5.1702729470
21
-17.1483114805
31
0.0000000000
11
-5.1427475693
21
-17.1359214275
31
0.0000000000
11
-5.1169161105
21
-17.1203033887
31
0.0000000000
11
-5.0931552516
21
-17.1016851101
31
0.0000000000
11
-5.0718114794
21
-17.0803380881
31
0.0000000000
11
-5.0531960345
21
-17.0565736103
31
0.0000000000
11
-5.0375803720
21
-17.0307382162
31
0.0000000000
11
-5.0251922036
21
-17.0032086440
31
0.0000000000
11
-5.0162121769
21
-16.9743863370
31
0.0000000000
11
-5.0107712409
21
-16.9446915894
31
0.0000000000
11
-5.0089487368
21
-16.9145574175
31
0.0000000000
0
SPLINE
5
37C
100
AcDbEntity
8
0
100
AcDbSpline
62
7
6
CONTINUOUS
70
0
71
3
72
20
73
16
74
14
42
0.0000001000
43
0.0000001000
44
0.0000000001
12
-0.3992082112
22
0.0000000000
32
0.0000000000
13
-0.0136754126
23
0.3989739077
33
0.0000000000
40
0.0000000000
40
0.0000000000
40
0.0000000000
40
0.0000000000
40
0.0983432430
40
0.1902789015
40
0.2770275171
40
0.3595513326
40
0.4386094051
40
0.5148073167
40
0.5886325071
40
0.6604832508
40
0.7306896588
40
0.7995284811
40
0.8672344592
40
0.9340046446
40
1.0000000000
40
1.0000000000
40
1.0000000000
40
1.0000000000
10
-6.6760275647
20
-15.6645574175
30
0.0000000000
10
-6.6891140414
20
-15.6645574175
30
0.0000000000
10
-6.7144768280
20
-15.6626356416
30
0.0000000000
10
-6.7505534398
20
-15.6545222808
30
0.0000000000
10
-6.7832149672
20
-15.6423351982
30
0.0000000000
10
-6.8125157610
20
-15.6268712408
30
0.0000000000
10
-6.8385471618
20
-15.6087510156
30
0.0000000000
10
-6.8613973055
20
-15.5884709773
30
0.0000000000
10
-6.8811465664
20
-15.5664402911
30
0.0000000000
10
-6.8978638665
20
-15.5430069561
30
0.0000000000
10
-6.9116074423
20
-15.5184761043
30
0.0000000000
10
-6.9224265631
20
-15.4931238629
30
0.0000000000
10
-6.9303639543
20
-15.4672060066
30
0.0000000000
10
-6.9354585935
20
-15.4409727329
30
0.0000000000
10
-6.9369945249
20
-15.4233342258
30
0.0000000000
10
-6.9372953628
20
-15.4145574175
30
0.0000000000
11
-6.6760275647
21
-15.6645574175
31
0.0000000000
11
-6.7151751183
21
-15.6615956787
31
0.0000000000
11
-6.7509835658
21
-15.6535487553
31
0.0000000000
11
-6.7834298545
21
-15.6414438861
31
0.0000000000
11
-6.8125658407
21
-15.6260681383
31
0.0000000000
11
-6.8384685807
21
-15.6080370114
31
0.0000000000
11
-6.8612184888
21
-15.5878442646
31
0.0000000000
11
-6.8808892927
21
-15.5658980579
31
0.0000000000
11
-6.8975453094
21
-15.5425460787
31
0.0000000000
11
-6.9112414636
21
-15.5180935397
31
0.0000000000
11
-6.9220246389
21
-15.4928164797
31
0.0000000000
11
-6.9299359766
21
-15.4669714451
31
0.0000000000
11
-6.9350133861
21
-15.4408042913
31
0.0000000000
11
-6.9372953628
21
-15.4145574175
31
0.0000000000
0
SPLINE
5
37D
100
AcDbEntity
8
0
100
AcDbSpline
62
9
6
CONTINUOUS
70
0
71
3
72
19
73
15
74
13
42
0.0000001000
43
0.0000001000
44
0.0000000001
12
-0.0000000000
22
0.3521849142
32
0.0000000000
13
-0.3478392058
23
0.0565398912
33
0.0000000000
40
0.0000000000
40
0.0000000000
40
0.0000000000
40
0.0000000000
40
0.0857198382
40
0.1714392996
40
0.2571580292
40
0.3428757146
40
0.4285921042
40
0.5143070213
40
0.6000203750
40
0.6857321652
40
0.7714424826
40
0.8571515032
40
0.9428594786
40
1.0000000000
40
1.0000000000
40
1.0000000000
40
1.0000000000
10
-5.0089487368
20
30.5854425825
30
0.0000000000
10
-5.0089487368
20
30.5955056605
30
0.0000000000
10
-5.0101666934
20
30.6156529397
30
0.0000000000
10
-5.0156208620
20
30.6454163771
30
0.0000000000
10
-5.0246227319
20
30.6743098202
30
0.0000000000
10
-5.0370410401
20
30.7019061741
30
0.0000000000
10
-5.0526947056
20
30.7278045688
30
0.0000000000
10
-5.0713554662
20
30.7516269330
30
0.0000000000
10
-5.0927512191
20
30.7730259916
30
0.0000000000
10
-5.1165699405
20
30.7916896642
30
0.0000000000
10
-5.1424644128
20
30.8073457953
30
0.0000000000
10
-5.1700566224
20
30.8197660754
30
0.0000000000
10
-5.1957361496
20
30.8277691088
30
0.0000000000
10
-5.2121887105
20
30.8311282645
30
0.0000000000
10
-5.2188139484
20
30.8322051708
30
0.0000000000
11
-5.0089487368
21
30.5854425825
31
0.0000000000
11
-5.0107712409
21
30.6155767545
31
0.0000000000
11
-5.0162121769
21
30.6452715022
31
0.0000000000
11
-5.0251922037
21
30.6740938093
31
0.0000000000
11
-5.0375803722
21
30.7016233816
31
0.0000000000
11
-5.0531960347
21
30.7274587757
31
0.0000000000
11
-5.0718114798
21
30.7512232536
31
0.0000000000
11
-5.0931552520
21
30.7725702755
31
0.0000000000
11
-5.1169161110
21
30.7911885540
31
0.0000000000
11
-5.1427475698
21
30.8068065927
31
0.0000000000
11
-5.1702729474
21
30.8191966457
31
0.0000000000
11
-5.1990908619
21
30.8281780381
31
0.0000000000
11
-5.2188139484
21
30.8322051708
31
0.0000000000
0
SPLINE
5
37E
100
AcDbEntity
8
0
100
AcDbSpline
62
9
6
CONTINUOUS
70
0
71
3
72
8
73
4
74
2
42
0.0000001000
43
0.0000001000
44
0.0000000001
12
-0.0099366256
22
0.0016151593
32
0.0000000000
13
-0.0099950978
23
0.0012136104
33
0.0000000000
40
0.0000000000
40
0.0000000000
40
0.0000000000
40
0.0000000000
40
1.0000000000
40
1.0000000000
40
1.0000000000
40
1.0000000000
10
-5.2188139484
20
30.8322051708
30
0.0000000000
10
-5.2221261569
20
30.8327435572
30
0.0000000000
10
-5.2254493838
20
30.8332152646
30
0.0000000000
10
-5.2287810830
20
30.8336198014
30
0.0000000000
11
-5.2188139484
21
30.8322051708
31
0.0000000000
11
-5.2287810830
21
30.8336198014
31
0.0000000000
0
SPLINE
5
37F
100
AcDbEntity
8
0
100
AcDbSpline
62
9
6
CONTINUOUS
70
0
71
3
72
8
73
4
74
2
42
0.0000001000
43
0.0000001000
44
0.0000000001
12
-0.0299876381
22
0.0036411160
32
0.0000000000
13
-0.0301846646
23
0.0000000000
33
0.0000000000
40
0.0000000000
40
0.0000000000
40
0.0000000000
40
0.0000000000
40
1.0000000000
40
1.0000000000
40
1.0000000000
40
1.0000000000
10
-5.2287810830
20
30.8336198014
30
0.0000000000
10
-5.2387769624
20
30.8348335067
30
0.0000000000
10
-5.2488491057
20
30.8354425825
30
0.0000000000
10
-5.2589106606
20
30.8354425825
30
0.0000000000
11
-5.2287810830
21
30.8336198014
31
0.0000000000
11
-5.2589106606
21
30.8354425825
31
0.0000000000
0
SPLINE
5
380
100
AcDbEntity
8
0
100
AcDbSpline
62
9
6
CONTINUOUS
70
0
71
3
72
19
73
15
74
13
42
0.0000001000
43
0.0000001000
44
0.0000000001
12
0.0000000000
22
0.3521849105
32
0.0000000000
13
0.3478392013
23
0.0565398959
33
0.0000000000
40
0.0000000000
40
0.0000000000
40
0.0000000000
40
0.0000000000
40
0.0857198337
40
0.1714392908
40
0.2571580166
40
0.3428756990
40
0.4285920863
40
0.5143070022
40
0.6000203559
40
0.6857321475
40
0.7714424675
40
0.8571514925
40
0.9428594738
40
1.0000000000
40
1.0000000000
40
1.0000000000
40
1.0000000000
10
-6.9372953628
20
30.5854425825
30
0.0000000000
10
-6.9372953628
20
30.5955056598
30
0.0000000000
10
-6.9360774064
20
30.6156529378
30
0.0000000000
10
-6.9306232385
20
30.6454163735
30
0.0000000000
10
-6.9216213695
20
30.6743098151
30
0.0000000000
10
-6.9092030626
20
30.7019061681
30
0.0000000000
10
-6.8935493985
20
30.7278045624
30
0.0000000000
10
-6.8748886391
20
30.7516269266
30
0.0000000000
10
-6.8534928871
20
30.7730259857
30
0.0000000000
10
-6.8296741663
20
30.7916896592
30
0.0000000000
10
-6.8037796940
20
30.8073457916
30
0.0000000000
10
-6.7761874836
20
30.8197660730
30
0.0000000000
10
-6.7505079552
20
30.8277691075
30
0.0000000000
10
-6.7340553933
20
30.8311282637
30
0.0000000000
10
-6.7274301549
20
30.8322051702
30
0.0000000000
11
-6.9372953628
21
30.5854425825
31
0.0000000000
11
-6.9354728589
21
30.6155767526
31
0.0000000000
11
-6.9300319236
21
30.6452714986
31
0.0000000000
11
-6.9210518978
21
30.6740938043
31
0.0000000000
11
-6.9086637306
21
30.7016233755
31
0.0000000000
11
-6.8930480694
21
30.7274587692
31
0.0000000000
11
-6.8744326256
21
30.7512232471
31
0.0000000000
11
-6.8530888544
21
30.7725702695
31
0.0000000000
11
-6.8293279959
21
30.7911885490
31
0.0000000000
11
-6.8034965371
21
30.8068065889
31
0.0000000000
11
-6.7759711588
21
30.8191966432
31
0.0000000000
11
-6.7471532428
21
30.8281780369
31
0.0000000000
11
-6.7274301549
21
30.8322051702
31
0.0000000000
0
SPLINE
5
381
100
AcDbEntity
8
0
100
AcDbSpline
62
9
6
CONTINUOUS
70
0
71
3
72
8
73
4
74
2
42
0.0000001000
43
0.0000001000
44
0.0000000001
12
0.0099366264
22
0.0016151596
32
0.0000000000
13
0.0099950987
23
0.0012136106
33
0.0000000000
40
0.0000000000
40
0.0000000000
40
0.0000000000
40
0.0000000000
40
1.0000000000
40
1.0000000000
40
1.0000000000
40
1.0000000000
10
-6.7274301549
20
30.8322051702
30
0.0000000000
10
-6.7241179462
20
30.8327435567
30
0.0000000000
10
-6.7207947191
20
30.8332152641
30
0.0000000000
10
-6.7174630195
20
30.8336198010
30
0.0000000000
11
-6.7274301549
21
30.8322051702
31
0.0000000000
11
-6.7174630195
21
30.8336198010
31
0.0000000000
0
SPLINE
5
382
100
AcDbEntity
8
0
100
AcDbSpline
62
9
6
CONTINUOUS
70
0
71
3
72
8
73
4
74
2
42
0.0000001000
43
0.0000001000
44
0.0000000001
12
0.0299876410
22
0.0036411167
32
0.0000000000
13
0.0301846675
23
0.0000000000
33
0.0000000000
40
0.0000000000
40
0.0000000000
40
0.0000000000
40
0.0000000000
40
1.0000000000
40
1.0000000000
40
1.0000000000
40
1.0000000000
10
-6.7174630195
20
30.8336198010
30
0.0000000000
10
-6.7074671392
20
30.8348335066
30
0.0000000000
10
-6.6973949948
20
30.8354425825
30
0.0000000000
10
-6.6873334390
20
30.8354425825
30
0.0000000000
11
-6.7174630195
21
30.8336198010
31
0.0000000000
11
-6.6873334390
21
30.8354425825
31
0.0000000000
0
SPLINE
5
383
100
AcDbEntity
8
0
100
AcDbSpline
62
9
6
CONTINUOUS
70
0
71
3
72
23
73
19
74
17
42
0.0000001000
43
0.0000001000
44
0.0000000001
12
0.5000010063
22
0.0000205578
32
0.0000000000
13
0.4399677544
23
0.2375486935
33
0.0000000000
40
0.0000000000
40
0.0000000000
40
0.0000000000
40
0.0000000000
40
0.0974741500
40
0.1940199862
40
0.2887180348
40
0.3806664215
40
0.4689894615
40
0.5528460010
40
0.6314374294
40
0.7040152876
40
0.7698884004
40
0.8284294654
40
0.8790810392
40
0.9213608721
40
0.9548665595
40
0.9792795463
40
0.9943688676
40
1.0000000000
40
1.0000000000
40
1.0000000000
40
1.0000000000
10
1.8789022544
20
4.8330868699
30
0.0000000000
10
1.8951479787
20
4.8330875378
30
0.0000000000
10
1.9274847083
20
4.8330962751
30
0.0000000000
10
1.9756044666
20
4.8331315315
30
0.0000000000
10
2.0228032405
20
4.8331885747
30
0.0000000000
10
2.0686315155
20
4.8332668367
30
0.0000000000
10
2.1126528176
20
4.8333655734
30
0.0000000000
10
2.1544479253
20
4.8334837104
30
0.0000000000
10
2.1936186729
20
4.8336203892
30
0.0000000000
10
2.2297923816
20
4.8337731392
30
0.0000000000
10
2.2626233042
20
4.8339439058
30
0.0000000000
10
2.2918026799
20
4.8341196532
30
0.0000000000
10
2.3170406504
20
4.8343325859
30
0.0000000000
10
2.3381318195
20
4.8344800084
30
0.0000000000
10
2.3547797029
20
4.8348328865
30
0.0000000000
10
2.3670637817
20
4.8347039630
30
0.0000000000
10
2.3743682912
20
4.8355157404
30
0.0000000000
10
2.3780573770
20
4.8349966931
30
0.0000000000
10
2.3788832159
20
4.8354425825
30
0.0000000000
11
1.8789022544
21
4.8330868699
31
0.0000000000
11
1.9276394257
21
4.8331000916
31
0.0000000000
11
1.9759124279
21
4.8331356229
31
0.0000000000
11
2.0232615126
21
4.8331931256
31
0.0000000000
11
2.0692357308
21
4.8332720520
31
0.0000000000
11
2.1133972274
21
4.8333716503
31
0.0000000000
11
2.1553254118
21
4.8334909720
31
0.0000000000
11
2.1946209631
21
4.8336288807
31
0.0000000000
11
2.2309096335
21
4.8337840629
31
0.0000000000
11
2.2638458124
21
4.8339550408
31
0.0000000000
11
2.2931158183
21
4.8341401859
31
0.0000000000
11
2.3184408857
21
4.8343377349
31
0.0000000000
11
2.3395798207
21
4.8345458064
31
0.0000000000
11
2.3563312977
21
4.8347624188
31
0.0000000000
11
2.3685357769
21
4.8349855089
31
0.0000000000
11
2.3760770237
21
4.8352129522
31
0.0000000000
11
2.3788832159
21
4.8354425825
31
0.0000000000
0
SPLINE
5
384
100
AcDbEntity
8
0
100
AcDbSpline
62
9
6
CONTINUOUS
70
0
71
3
72
10
73
6
74
4
42
0.0000001000
43
0.0000001000
44
0.0000000001
12
-0.0001644658
22
3.9999999976
32
0.0000000000
13
0.0001644658
23
3.9999999976
33
0.0000000000
40
0.0000000000
40
0.0000000000
40
0.0000000000
40
0.0000000000
40
0.3333331524
40
0.6666668540
40
1.0000000000
40
1.0000000000
40
1.0000000000
40
1.0000000000
10
2.3788832159
20
4.8354425825
30
0.0000000000
10
2.3788649419
20
5.2798867854
30
0.0000000000
10
2.3788405769
20
6.1687759241
30
0.0000000000
10
2.3788405769
20
7.5021092579
30
0.0000000000
10
2.3788649419
20
8.3909983881
30
0.0000000000
10
2.3788832159
20
8.8354425825
30
0.0000000000
11
2.3788832159
21
4.8354425825
31
0.0000000000
11
2.3788466681
21
6.1687751917
31
0.0000000000
11
2.3788466681
21
7.5021099988
31
0.0000000000
11
2.3788832159
21
8.8354425825
31
0.0000000000
0
SPLINE
5
385
100
AcDbEntity
8
0
100
AcDbSpline
62
9
6
CONTINUOUS
70
0
71
3
72
59
73
55
74
53
42
0.0000001000
43
0.0000001000
44
0.0000000001
12
-0.0004694766
22
-9.5736068298
32
0.0000000000
13
-0.0004710097
23
9.5736068297
33
0.0000000000
40
0.0000000000
40
0.0000000000
40
0.0000000000
40
0.0000000000
40
0.0191593175
40
0.0383766688
40
0.0576295434
40
0.0768952271
40
0.0961520281
40
0.1153950869
40
0.1346353338
40
0.1538742004
40
0.1731116346
40
0.1923488896
40
0.2115866715
40
0.2308252167
40
0.2500631930
40
0.2692983060
40
0.2885301787
40
0.3077603224
40
0.3269897802
40
0.3462179743
40
0.3654443015
40
0.3846690314
40
0.4038926013
40
0.4231152937
40
0.4423370852
40
0.4615581829
40
0.4807787990
40
0.4999992265
40
0.5192196544
40
0.5384402704
40
0.5576613675
40
0.5768831587
40
0.5961058524
40
0.6153294240
40
0.6345541516
40
0.6537804737
40
0.6730086687
40
0.6922381381
40
0.7114682877
40
0.7307001442
40
0.7499352350
40
0.7691732134
40
0.7884117859
40
0.8076496054
40
0.8268869301
40
0.8461244277
40
0.8653630389
40
0.8846025675
40
0.9038450907
40
0.9231014396
40
0.9423669771
40
0.9616203027
40
0.9808388251
40
1.0000000000
40
1.0000000000
40
1.0000000000
40
1.0000000000
10
8.4748726845
20
4.8354425825
30
0.0000000000
10
8.4748696862
20
4.7743013248
30
0.0000000000
10
8.4711764328
20
4.6518018290
30
0.0000000000
10
8.4545585542
20
4.4685398264
30
0.0000000000
10
8.4268516964
20
4.2862728938
30
0.0000000000
10
8.3881475275
20
4.1058934649
30
0.0000000000
10
8.3386140610
20
3.9282146566
30
0.0000000000
10
8.2784588189
20
3.7539315480
30
0.0000000000
10
8.2079063006
20
3.5836538714
30
0.0000000000
10
8.1272045699
20
3.4179651721
30
0.0000000000
10
8.0366469654
20
3.2574618784
30
0.0000000000
10
7.9365623240
20
3.1027241208
30
0.0000000000
10
7.8273122654
20
2.9543110383
30
0.0000000000
10
7.7092959296
20
2.8127659403
30
0.0000000000
10
7.5829515022
20
2.6786137427
30
0.0000000000
10
7.4487511603
20
2.5523515989
30
0.0000000000
10
7.3071906525
20
2.4344395465
30
0.0000000000
10
7.1587838464
20
2.3253002410
30
0.0000000000
10
7.0040686312
20
2.2253260465
30
0.0000000000
10
6.8436109052
20
2.1348801512
30
0.0000000000
10
6.6779997481
20
2.0542915884
30
0.0000000000
10
6.5078400544
20
1.9838515125
30
0.0000000000
10
6.3337502607
20
1.9238132821
30
0.0000000000
10
6.1563635492
20
1.8743932426
30
0.0000000000
10
5.9763255297
20
1.8357695985
30
0.0000000000
10
5.7942914672
20
1.8080815196
30
0.0000000000
10
5.6109227065
20
1.7914285587
30
0.0000000000
10
5.4268853620
20
1.7858706063
30
0.0000000000
10
5.2428479908
20
1.7914276642
30
0.0000000000
10
5.0594791504
20
1.8080797338
30
0.0000000000
10
4.8774449564
20
1.8357669273
30
0.0000000000
10
4.6974067477
20
1.8743896962
30
0.0000000000
10
4.5200197875
20
1.9238088759
30
0.0000000000
10
4.3459297001
20
1.9838462616
30
0.0000000000
10
4.1757696812
20
2.0542855040
30
0.0000000000
10
4.0101581505
20
2.1348732513
30
0.0000000000
10
3.8496999630
20
2.2253183758
30
0.0000000000
10
3.6949842129
20
2.3252918510
30
0.0000000000
10
3.5465768762
20
2.4344304426
30
0.0000000000
10
3.4050158770
20
2.5523417427
30
0.0000000000
10
3.2708150002
20
2.6786031488
30
0.0000000000
10
3.1444698949
20
2.8127547393
30
0.0000000000
10
3.0264527296
20
2.9542994248
30
0.0000000000
10
2.9172017054
20
3.1027123305
30
0.0000000000
10
2.8171160525
20
3.2574500842
30
0.0000000000
10
2.7265579315
20
3.4179526391
30
0.0000000000
10
2.6458566942
20
3.5836383424
30
0.0000000000
10
2.5753049614
20
3.7539111177
30
0.0000000000
10
2.5151500671
20
3.9281885771
30
0.0000000000
10
2.4656158395
20
4.1058634087
30
0.0000000000
10
2.4269098383
20
4.2862419617
30
0.0000000000
10
2.3992004088
20
4.4685132757
30
0.0000000000
10
2.3825801127
20
4.6517862280
30
0.0000000000
10
2.3788862243
20
4.7742953975
30
0.0000000000
10
2.3788832159
20
4.8354425825
30
0.0000000000
11
8.4748726845
21
4.8354425825
31
0.0000000000
11
8.4693443570
21
4.6521021390
31
0.0000000000
11
8.4527301225
21
4.4688744818
31
0.0000000000
11
8.4250292517
21
4.2866484626
31
0.0000000000
11
8.3863341964
21
4.1063110737
31
0.0000000000
11
8.3368267817
21
3.9287257852
31
0.0000000000
11
8.2767195583
21
3.7545817382
31
0.0000000000
11
8.2062117487
21
3.5844119466
31
0.0000000000
11
8.1255590762
21
3.4188239402
31
0.0000000000
11
8.0350585584
21
3.2584218018
31
0.0000000000
11
7.9350360583
21
3.1037800949
31
0.0000000000
11
7.8258529448
21
2.9554579326
31
0.0000000000
11
7.7079057247
21
2.8139957078
31
0.0000000000
11
7.5816331786
21
2.6799198124
31
0.0000000000
11
7.4475136156
21
2.5537336490
31
0.0000000000
11
7.3060429148
21
2.4358963820
31
0.0000000000
11
7.1577290364
21
2.3268253990
31
0.0000000000
11
7.0031063464
21
2.2269109770
31
0.0000000000
11
6.8427444937
21
2.1365191087
31
0.0000000000
11
6.6772347706
21
2.0559798922
31
0.0000000000
11
6.5071797717
21
1.9855831451
31
0.0000000000
11
6.3331966092
21
1.9255816791
31
0.0000000000
11
6.1559175966
21
1.8761916367
31
0.0000000000
11
5.9759895926
21
1.8375915882
31
0.0000000000
11
5.7940667721
21
1.8099204253
31
0.0000000000
11
5.6108103200
21
1.7932776612
31
0.0000000000
11
5.4268853584
21
1.7877231020
31
0.0000000000
11
5.2429603672
21
1.7932767674
31
0.0000000000
11
5.0597038349
21
1.8099186407
31
0.0000000000
11
4.8777808856
21
1.8375889184
31
0.0000000000
11
4.6978526968
21
1.8761880914
31
0.0000000000
11
4.5205734315
21
1.9255772755
31
0.0000000000
11
4.3465899626
21
1.9855779018
31
0.0000000000
11
4.1765346421
21
2.0559738145
31
0.0000000000
11
4.0110245708
21
2.1365122037
31
0.0000000000
11
3.8506622700
21
2.2269032944
31
0.0000000000
11
3.6960390015
21
2.3268170258
31
0.0000000000
11
3.5477245510
21
2.4358873261
31
0.0000000000
11
3.4062533978
21
2.5537238090
31
0.0000000000
11
3.2721333711
21
2.6799091686
31
0.0000000000
11
3.1458601490
21
2.8139844556
31
0.0000000000
11
3.0279120700
21
2.9554463040
31
0.0000000000
11
2.9187280326
21
3.1037682336
31
0.0000000000
11
2.8187044559
21
3.2584100385
31
0.0000000000
11
2.7282029321
21
3.4188123066
31
0.0000000000
11
2.6475505501
21
3.5843977346
31
0.0000000000
11
2.5770443106
21
3.7545607327
31
0.0000000000
11
2.5169373301
21
3.9286994389
31
0.0000000000
11
2.4674293436
21
4.1062800750
31
0.0000000000
11
2.4287326515
21
4.2866156811
31
0.0000000000
11
2.4010292681
21
4.4688456859
31
0.0000000000
11
2.3844126144
21
4.6520843815
31
0.0000000000
11
2.3788832159
21
4.8354425825
31
0.0000000000
0
SPLINE
5
386
100
AcDbEntity
8
0
100
AcDbSpline
62
9
6
CONTINUOUS
70
0
71
3
72
10
73
6
74
4
42
0.0000001000
43
0.0000001000
44
0.0000000001
12
0.0001644658
22
-3.9999999976
32
0.0000000000
13
-0.0001644658
23
-3.9999999976
33
0.0000000000
40
0.0000000000
40
0.0000000000
40
0.0000000000
40
0.0000000000
40
0.3333331524
40
0.6666668540
40
1.0000000000
40
1.0000000000
40
1.0000000000
40
1.0000000000
10
8.4748726845
20
8.8354425825
30
0.0000000000
10
8.4748909585
20
8.3909983796
30
0.0000000000
10
8.4749153235
20
7.5021092409
30
0.0000000000
10
8.4749153235
20
6.1687759071
30
0.0000000000
10
8.4748909584
20
5.2798867769
30
0.0000000000
10
8.4748726845
20
4.8354425825
30
0.0000000000
11
8.4748726845
21
8.8354425825
31
0.0000000000
11
8.4749092322
21
7.5021099732
31
0.0000000000
11
8.4749092322
21
6.1687751662
31
0.0000000000
11
8.4748726845
21
4.8354425825
31
0.0000000000
0
SPLINE
5
387
100
AcDbEntity
8
0
100
AcDbSpline
62
9
6
CONTINUOUS
70
0
71
3
72
59
73
55
74
53
42
0.0000001000
43
0.0000001000
44
0.0000000001
12
0.0004694769
22
9.5736068298
32
0.0000000000
13
0.0004710100
23
-9.5736068297
33
0.0000000000
40
0.0000000000
40
0.0000000000
40
0.0000000000
40
0.0000000000
40
0.0191594815
40
0.0383769081
40
0.0576297935
40
0.0768954483
40
0.0961522041
40
0.1153951879
40
0.1346353055
40
0.1538741271
40
0.1731115742
40
0.1923488403
40
0.2115866254
40
0.2308251735
40
0.2500631540
40
0.2692982707
40
0.2885301461
40
0.3077602926
40
0.3269897539
40
0.3462179517
40
0.3654442823
40
0.3846690154
40
0.4038925886
40
0.4231152843
40
0.4423370792
40
0.4615581803
40
0.4807787996
40
0.4999992305
40
0.5192196617
40
0.5384402810
40
0.5576613815
40
0.5768831761
40
0.5961058732
40
0.6153294480
40
0.6345541788
40
0.6537805043
40
0.6730087029
40
0.6922381758
40
0.7114683283
40
0.7307001876
40
0.7499352820
40
0.7691732646
40
0.7884118399
40
0.8076496627
40
0.8268869989
40
0.8461245104
40
0.8653630764
40
0.8846024737
40
0.9038449195
40
0.9231012216
40
0.9423667293
40
0.9616200651
40
0.9808386621
40
1.0000000000
40
1.0000000000
40
1.0000000000
40
1.0000000000
10
2.3788832159
20
8.8354425825
30
0.0000000000
10
2.3788862142
20
8.8965843635
30
0.0000000000
10
2.3825795222
20
9.0190846237
30
0.0000000000
10
2.3991975891
20
9.2023474117
30
0.0000000000
10
2.4269046146
20
9.3846145038
30
0.0000000000
10
2.4656088746
20
9.5649937062
30
0.0000000000
10
2.5151423241
20
9.7426720247
30
0.0000000000
10
2.5752973819
20
9.9169543533
30
0.0000000000
10
2.6458496142
20
10.0872312847
30
0.0000000000
10
2.7265510925
20
10.2529195331
30
0.0000000000
10
2.8171086304
20
10.4134227875
30
0.0000000000
10
2.9171932923
20
10.5681606353
30
0.0000000000
10
3.0264433613
20
10.7165737784
30
0.0000000000
10
3.1444596983
20
10.8581189183
30
0.0000000000
10
3.2708041321
20
10.9922711574
30
0.0000000000
10
3.4050044840
20
11.1185333402
30
0.0000000000
10
3.5465650020
20
11.2364454266
30
0.0000000000
10
3.6949718206
20
11.3455847638
30
0.0000000000
10
3.8496870539
20
11.4455589893
30
0.0000000000
10
4.0101448025
20
11.5360049135
30
0.0000000000
10
4.1757559838
20
11.6165935015
30
0.0000000000
10
4.3459157026
20
11.6870335988
30
0.0000000000
10
4.5200055232
20
11.7470718473
30
0.0000000000
10
4.6973922640
20
11.7964919016
30
0.0000000000
10
4.8774303141
20
11.8351155568
30
0.0000000000
10
5.0594644079
20
11.8628036430
30
0.0000000000
10
5.2428332004
20
11.8794566073
30
0.0000000000
10
5.4268705768
20
11.8850145593
30
0.0000000000
10
5.6109079798
20
11.8794574972
30
0.0000000000
10
5.7942768516
20
11.8628054195
30
0.0000000000
10
5.9763110762
20
11.8351182142
30
0.0000000000
10
6.1563493146
20
11.7964954296
30
0.0000000000
10
6.3337363027
20
11.7470762307
30
0.0000000000
10
6.5078264156
20
11.6870388224
30
0.0000000000
10
6.6779864578
20
11.6165995544
30
0.0000000000
10
6.8435980106
20
11.5360117777
30
0.0000000000
10
7.0040562183
20
11.4455666202
30
0.0000000000
10
7.1587719842
20
11.3455931101
30
0.0000000000
10
7.3071793309
20
11.2364544830
30
0.0000000000
10
7.4487403373
20
11.1185431452
30
0.0000000000
10
7.5829412206
20
10.9922816970
30
0.0000000000
10
7.7092863284
20
10.8581300624
30
0.0000000000
10
7.8273034913
20
10.7165853322
30
0.0000000000
10
7.9365545231
20
10.5681723619
30
0.0000000000
10
8.0366401950
20
10.4134345115
30
0.0000000000
10
8.1271982468
20
10.2529319900
30
0.0000000000
10
8.2078992253
20
10.0872467387
30
0.0000000000
10
8.2784506622
20
9.9169747201
30
0.0000000000
10
8.3386053626
20
9.7426980578
30
0.0000000000
10
8.3881395667
20
9.5650237305
30
0.0000000000
10
8.4268456555
20
9.3846454132
30
0.0000000000
10
8.4545552504
20
9.2023739463
30
0.0000000000
10
8.4711757333
20
9.0191002160
30
0.0000000000
10
8.4748696761
20
8.8965902875
30
0.0000000000
10
8.4748726845
20
8.8354425825
30
0.0000000000
11
2.3788832159
21
8.8354425825
31
0.0000000000
11
2.3844116379
21
9.0187845937
31
0.0000000000
11
2.4010260536
21
9.2020129584
31
0.0000000000
11
2.4287270801
21
9.3842390582
31
0.0000000000
11
2.4674222110
21
9.5645761484
31
0.0000000000
11
2.5169296204
21
9.7421609895
31
0.0000000000
11
2.5770366852
21
9.9163043315
31
0.0000000000
11
2.6475440405
21
10.0864729713
31
0.0000000000
11
2.7281964978
21
10.2520606032
31
0.0000000000
11
2.8186970425
21
10.4124628680
31
0.0000000000
11
2.9187195737
21
10.5671046815
31
0.0000000000
11
3.0279026830
21
10.7154268847
31
0.0000000000
11
3.1458499012
21
10.8568891475
31
0.0000000000
11
3.2721224575
21
10.9909650885
31
0.0000000000
11
3.4062420316
21
11.1171512919
31
0.0000000000
11
3.5477127400
21
11.2349885907
31
0.0000000000
11
3.6960266293
21
11.3440596041
31
0.0000000000
11
3.8506493387
21
11.4439740579
31
0.0000000000
11
4.0110112153
21
11.5343659559
31
0.0000000000
11
4.1765209623
21
11.6149051974
31
0.0000000000
11
4.3465759853
21
11.6853019655
31
0.0000000000
11
4.5205591747
21
11.7453034496
31
0.0000000000
11
4.6978382168
21
11.7946935069
31
0.0000000000
11
4.8777662516
21
11.8332935665
31
0.0000000000
11
5.0596891031
21
11.8609647367
31
0.0000000000
11
5.2429455868
21
11.8776075041
31
0.0000000000
11
5.4268705804
21
11.8831620630
31
0.0000000000
11
5.6107956035
21
11.8776083934
31
0.0000000000
11
5.7940521669
21
11.8609665120
31
0.0000000000
11
5.9759751466
21
11.8332962225
31
0.0000000000
11
6.1559033652
21
11.7946970338
31
0.0000000000
11
6.3331826588
21
11.7453078303
31
0.0000000000
11
6.5071661531
21
11.6853071816
31
0.0000000000
11
6.6772214960
21
11.6149112436
31
0.0000000000
11
6.8427315890
21
11.5343728252
31
0.0000000000
11
7.0030939113
21
11.4439817009
31
0.0000000000
11
7.1577171967
21
11.3440679337
31
0.0000000000
11
7.3060316558
21
11.2349975989
31
0.0000000000
11
7.4475028138
21
11.1171610804
31
0.0000000000
11
7.5816228480
21
10.9909756779
31
0.0000000000
11
7.7078960761
21
10.8569003430
31
0.0000000000
11
7.8258441494
21
10.7154384540
31
0.0000000000
11
7.9350281795
21
10.5671164799
31
0.0000000000
11
8.0350517855
21
10.4124745627
31
0.0000000000
11
8.1255533362
21
10.2520721576
31
0.0000000000
11
8.2062054975
21
10.0864871033
31
0.0000000000
11
8.2767112711
21
9.9163252721
31
0.0000000000
11
8.3368180822
21
9.7421872921
31
0.0000000000
11
8.3863260570
21
9.5646071179
31
0.0000000000
11
8.4250228216
21
9.3842718177
31
0.0000000000
11
8.4527263584
21
9.2020417378
31
0.0000000000
11
8.4693431920
21
9.0188023417
31
0.0000000000
11
8.4748726845
21
8.8354425825
31
0.0000000000
0
SPLINE
5
388
100
AcDbEntity
8
0
100
AcDbSpline
62
9
6
CONTINUOUS
70
0
71
3
72
23
73
19
74
17
42
0.0000001000
43
0.0000001000
44
0.0000000001
12
-0.5000010205
22
0.0000205577
32
0.0000000000
13
-0.4399677751
23
0.2375486852
33
0.0000000000
40
0.0000000000
40
0.0000000000
40
0.0000000000
40
0.0000000000
40
0.0974741489
40
0.1940199844
40
0.2887180325
40
0.3806664188
40
0.4689894588
40
0.5528459984
40
0.6314374269
40
0.7040152854
40
0.7698883986
40
0.8284294638
40
0.8790810380
40
0.9213608713
40
0.9548665590
40
0.9792795460
40
0.9943688675
40
1.0000000000
40
1.0000000000
40
1.0000000000
40
1.0000000000
10
8.9748536460
20
4.8330868699
30
0.0000000000
10
8.9586079214
20
4.8330875379
30
0.0000000000
10
8.9262711911
20
4.8330962751
30
0.0000000000
10
8.8781514319
20
4.8331315315
30
0.0000000000
10
8.8309526569
20
4.8331885747
30
0.0000000000
10
8.7851243808
20
4.8332668367
30
0.0000000000
10
8.7411030775
20
4.8333655734
30
0.0000000000
10
8.6993079686
20
4.8334837104
30
0.0000000000
10
8.6601372197
20
4.8336203892
30
0.0000000000
10
8.6239635099
20
4.8337731392
30
0.0000000000
10
8.5911325862
20
4.8339439058
30
0.0000000000
10
8.5619532095
20
4.8341196532
30
0.0000000000
10
8.5367152381
20
4.8343325859
30
0.0000000000
10
8.5156240682
20
4.8344800084
30
0.0000000000
10
8.4989761842
20
4.8348328865
30
0.0000000000
10
8.4866921049
20
4.8347039630
30
0.0000000000
10
8.4793875951
20
4.8355157404
30
0.0000000000
10
8.4756985092
20
4.8349966931
30
0.0000000000
10
8.4748726703
20
4.8354425825
30
0.0000000000
11
8.9748536460
21
4.8330868699
31
0.0000000000
11
8.9261164738
21
4.8331000916
31
0.0000000000
11
8.8778434706
21
4.8331356229
31
0.0000000000
11
8.8304943848
21
4.8331931256
31
0.0000000000
11
8.7845201655
21
4.8332720519
31
0.0000000000
11
8.7403586677
21
4.8333716502
31
0.0000000000
11
8.6984304820
21
4.8334909719
31
0.0000000000
11
8.6591349295
21
4.8336288806
31
0.0000000000
11
8.6228462580
21
4.8337840629
31
0.0000000000
11
8.5899100779
21
4.8339550408
31
0.0000000000
11
8.5606400711
21
4.8341401859
31
0.0000000000
11
8.5353150028
21
4.8343377349
31
0.0000000000
11
8.5141760670
21
4.8345458064
31
0.0000000000
11
8.4974245894
21
4.8347624187
31
0.0000000000
11
8.4852201097
21
4.8349855089
31
0.0000000000
11
8.4776788626
21
4.8352129522
31
0.0000000000
11
8.4748726703
21
4.8354425825
31
0.0000000000
0
SPLINE
5
389
100
AcDbEntity
8
0
100
AcDbSpline
62
9
6
CONTINUOUS
70
0
71
3
72
23
73
19
74
17
42
0.0000001000
43
0.0000001000
44
0.0000000001
12
-0.5000010063
22
-0.0000205578
32
0.0000000000
13
-0.4399677544
23
-0.2375486935
33
0.0000000000
40
0.0000000000
40
0.0000000000
40
0.0000000000
40
0.0000000000
40
0.0974741500
40
0.1940199862
40
0.2887180348
40
0.3806664215
40
0.4689894615
40
0.5528460010
40
0.6314374294
40
0.7040152876
40
0.7698884004
40
0.8284294654
40
0.8790810392
40
0.9213608721
40
0.9548665595
40
0.9792795463
40
0.9943688676
40
1.0000000000
40
1.0000000000
40
1.0000000000
40
1.0000000000
10
8.9748536460
20
8.8377982951
30
0.0000000000
10
8.9586079217
20
8.8377976271
30
0.0000000000
10
8.9262711920
20
8.8377888899
30
0.0000000000
10
8.8781514338
20
8.8377536335
30
0.0000000000
10
8.8309526599
20
8.8376965903
30
0.0000000000
10
8.7851243849
20
8.8376183283
30
0.0000000000
10
8.7411030828
20
8.8375195916
30
0.0000000000
10
8.6993079751
20
8.8374014546
30
0.0000000000
10
8.6601372275
20
8.8372647758
30
0.0000000000
10
8.6239635188
20
8.8371120257
30
0.0000000000
10
8.5911325962
20
8.8369412592
30
0.0000000000
10
8.5619532205
20
8.8367655118
30
0.0000000000
10
8.5367152500
20
8.8365525791
30
0.0000000000
10
8.5156240809
20
8.8364051566
30
0.0000000000
10
8.4989761975
20
8.8360522785
30
0.0000000000
10
8.4866921186
20
8.8361812020
30
0.0000000000
10
8.4793876092
20
8.8353694246
30
0.0000000000
10
8.4756985234
20
8.8358884719
30
0.0000000000
10
8.4748726845
20
8.8354425825
30
0.0000000000
11
8.9748536460
21
8.8377982951
31
0.0000000000
11
8.9261164747
21
8.8377850734
31
0.0000000000
11
8.8778434725
21
8.8377495421
31
0.0000000000
11
8.8304943877
21
8.8376920394
31
0.0000000000
11
8.7845201696
21
8.8376131130
31
0.0000000000
11
8.7403586730
21
8.8375135147
31
0.0000000000
11
8.6984304886
21
8.8373941930
31
0.0000000000
11
8.6591349373
21
8.8372562843
31
0.0000000000
11
8.6228462669
21
8.8371011021
31
0.0000000000
11
8.5899100880
21
8.8369301242
31
0.0000000000
11
8.5606400821
21
8.8367449791
31
0.0000000000
11
8.5353150147
21
8.8365474301
31
0.0000000000
11
8.5141760797
21
8.8363393586
31
0.0000000000
11
8.4974246027
21
8.8361227462
31
0.0000000000
11
8.4852201235
21
8.8358996561
31
0.0000000000
11
8.4776788767
21
8.8356722128
31
0.0000000000
11
8.4748726845
21
8.8354425825
31
0.0000000000
0
SPLINE
5
38A
100
AcDbEntity
8
0
100
AcDbSpline
62
9
6
CONTINUOUS
70
0
71
3
72
23
73
19
74
17
42
0.0000001000
43
0.0000001000
44
0.0000000001
12
0.5000010205
22
-0.0000205577
32
0.0000000000
13
0.4399677751
23
-0.2375486852
33
0.0000000000
40
0.0000000000
40
0.0000000000
40
0.0000000000
40
0.0000000000
40
0.0974741489
40
0.1940199844
40
0.2887180325
40
0.3806664188
40
0.4689894588
40
0.5528459984
40
0.6314374269
40
0.7040152854
40
0.7698883986
40
0.8284294638
40
0.8790810380
40
0.9213608713
40
0.9548665590
40
0.9792795460
40
0.9943688675
40
1.0000000000
40
1.0000000000
40
1.0000000000
40
1.0000000000
10
1.8789022544
20
8.8377982951
30
0.0000000000
10
1.8951479790
20
8.8377976271
30
0.0000000000
10
1.9274847092
20
8.8377888899
30
0.0000000000
10
1.9756044685
20
8.8377536335
30
0.0000000000
10
2.0228032434
20
8.8376965903
30
0.0000000000
10
2.0686315196
20
8.8376183283
30
0.0000000000
10
2.1126528229
20
8.8375195916
30
0.0000000000
10
2.1544479318
20
8.8374014546
30
0.0000000000
10
2.1936186806
20
8.8372647758
30
0.0000000000
10
2.2297923905
20
8.8371120258
30
0.0000000000
10
2.2626233142
20
8.8369412592
30
0.0000000000
10
2.2918026909
20
8.8367655118
30
0.0000000000
10
2.3170406623
20
8.8365525791
30
0.0000000000
10
2.3381318322
20
8.8364051566
30
0.0000000000
10
2.3547797162
20
8.8360522785
30
0.0000000000
10
2.3670637955
20
8.8361812020
30
0.0000000000
10
2.3743683052
20
8.8353694246
30
0.0000000000
10
2.3780573912
20
8.8358884719
30
0.0000000000
10
2.3788832301
20
8.8354425825
30
0.0000000000
11
1.8789022544
21
8.8377982951
31
0.0000000000
11
1.9276394265
21
8.8377850734
31
0.0000000000
11
1.9759124298
21
8.8377495421
31
0.0000000000
11
2.0232615156
21
8.8376920394
31
0.0000000000
11
2.0692357349
21
8.8376131131
31
0.0000000000
11
2.1133972327
21
8.8375135148
31
0.0000000000
11
2.1553254183
21
8.8373941931
31
0.0000000000
11
2.1946209708
21
8.8372562844
31
0.0000000000
11
2.2309096424
21
8.8371011021
31
0.0000000000
11
2.2638458224
21
8.8369301242
31
0.0000000000
11
2.2931158293
21
8.8367449791
31
0.0000000000
11
2.3184408976
21
8.8365474301
31
0.0000000000
11
2.3395798334
21
8.8363393586
31
0.0000000000
11
2.3563313110
21
8.8361227463
31
0.0000000000
11
2.3685357906
21
8.8358996561
31
0.0000000000
11
2.3760770378
21
8.8356722128
31
0.0000000000
11
2.3788832301
21
8.8354425825
31
0.0000000000
0
SPLINE
5
38B
100
AcDbEntity
8
0
100
AcDbSpline
62
9
6
CONTINUOUS
70
0
71
3
72
21
73
17
74
15
42
0.0000001000
43
0.0000001000
44
0.0000000001
12
-0.3924632419
22
0.0000000000
32
0.0000000000
13
0.0000000000
23
0.3924632419
33
0.0000000000
40
0.0000000000
40
0.0000000000
40
0.0000000000
40
0.0000000000
40
0.0714231657
40
0.1428466024
40
0.2142705677
40
0.2856952926
40
0.3571209699
40
0.4285477447
40
0.4999757071
40
0.5714048877
40
0.6428352559
40
0.7142667216
40
0.7856991396
40
0.8571323171
40
0.9285660230
40
1.0000000000
40
1.0000000000
40
1.0000000000
40
1.0000000000
10
-6.5965347471
20
-15.6645574175
30
0.0000000000
10
-6.6058784028
20
-15.6645574175
30
0.0000000000
10
-6.6245827102
20
-15.6635072467
30
0.0000000000
10
-6.6522728251
20
-15.6588012916
30
0.0000000000
10
-6.6792656392
20
-15.6510238187
30
0.0000000000
10
-6.7052170774
20
-15.6402726372
30
0.0000000000
10
-6.7298020223
20
-15.6266829532
30
0.0000000000
10
-6.7527109717
20
-15.6104256685
30
0.0000000000
10
-6.7736559224
20
-15.5917052335
30
0.0000000000
10
-6.7923734581
20
-15.5707570654
30
0.0000000000
10
-6.8086282044
20
-15.5478446257
30
0.0000000000
10
-6.8222157507
20
-15.5232559639
30
0.0000000000
10
-6.8329652303
20
-15.4973006282
30
0.0000000000
10
-6.8407414657
20
-15.4703037825
30
0.0000000000
10
-6.8454466694
20
-15.4426095451
30
0.0000000000
10
-6.8464966709
20
-15.4239024876
30
0.0000000000
10
-6.8464966709
20
-15.4145574175
30
0.0000000000
11
-6.5965347471
21
-15.6645574175
31
0.0000000000
11
-6.6245216029
21
-15.6629854700
31
0.0000000000
11
-6.6521565078
21
-15.6582893955
31
0.0000000000
11
-6.6790919368
21
-15.6505282501
31
0.0000000000
11
-6.7049891612
21
-15.6397996345
31
0.0000000000
11
-6.7295225084
21
-15.6262384673
31
0.0000000000
11
-6.7523834574
21
-15.6100152881
31
0.0000000000
11
-6.7732845184
21
-15.5913341128
31
0.0000000000
11
-6.7919628485
21
-15.5704298680
31
0.0000000000
11
-6.8081835568
21
-15.5475654366
31
0.0000000000
11
-6.8217426586
21
-15.5230283523
31
0.0000000000
11
-6.8324696401
21
-15.4971271830
31
0.0000000000
11
-6.8402296036
21
-15.4701876510
31
0.0000000000
11
-6.8449249627
21
-15.4425485365
31
0.0000000000
11
-6.8464966709
21
-15.4145574175
31
0.0000000000
0
SPLINE
5
38C
100
AcDbEntity
8
0
100
AcDbSpline
62
7
6
CONTINUOUS
70
0
71
3
72
20
73
16
74
14
42
0.0000001000
43
0.0000001000
44
0.0000000001
12
-0.0136754126
22
-0.3989739077
32
0.0000000000
13
-0.3992082112
23
0.0000000000
33
0.0000000000
40
0.0000000000
40
0.0000000000
40
0.0000000000
40
0.0000000000
40
0.0659953554
40
0.1327655408
40
0.2004715189
40
0.2693103412
40
0.3395167492
40
0.4113674929
40
0.4851926833
40
0.5613905949
40
0.6404486674
40
0.7229724829
40
0.8097210985
40
0.9016567570
40
1.0000000000
40
1.0000000000
40
1.0000000000
40
1.0000000000
10
17.7910512632
20
-15.4145574175
30
0.0000000000
10
17.7907504253
20
-15.4233342258
30
0.0000000000
10
17.7892144938
20
-15.4409727329
30
0.0000000000
10
17.7841198547
20
-15.4672060066
30
0.0000000000
10
17.7761824635
20
-15.4931238629
30
0.0000000000
10
17.7653633426
20
-15.5184761043
30
0.0000000000
10
17.7516197669
20
-15.5430069561
30
0.0000000000
10
17.7349024668
20
-15.5664402911
30
0.0000000000
10
17.7151532059
20
-15.5884709773
30
0.0000000000
10
17.6923030622
20
-15.6087510156
30
0.0000000000
10
17.6662716613
20
-15.6268712408
30
0.0000000000
10
17.6369708676
20
-15.6423351982
30
0.0000000000
10
17.6043093402
20
-15.6545222808
30
0.0000000000
10
17.5682327283
20
-15.6626356416
30
0.0000000000
10
17.5428699418
20
-15.6645574175
30
0.0000000000
10
17.5297834651
20
-15.6645574175
30
0.0000000000
11
17.7910512632
21
-15.4145574175
31
0.0000000000
11
17.7887692864
21
-15.4408042913
31
0.0000000000
11
17.7836918770
21
-15.4669714451
31
0.0000000000
11
17.7757805393
21
-15.4928164797
31
0.0000000000
11
17.7649973640
21
-15.5180935397
31
0.0000000000
11
17.7513012098
21
-15.5425460787
31
0.0000000000
11
17.7346451930
21
-15.5658980579
31
0.0000000000
11
17.7149743891
21
-15.5878442646
31
0.0000000000
11
17.6922244810
21
-15.6080370114
31
0.0000000000
11
17.6663217411
21
-15.6260681383
31
0.0000000000
11
17.6371857549
21
-15.6414438861
31
0.0000000000
11
17.6047394662
21
-15.6535487553
31
0.0000000000
11
17.5689310187
21
-15.6615956787
31
0.0000000000
11
17.5297834651
21
-15.6645574175
31
0.0000000000
0
SPLINE
5
38D
100
AcDbEntity
8
0
100
AcDbSpline
62
7
6
CONTINUOUS
70
0
71
3
72
20
73
16
74
14
42
0.0000001000
43
0.0000001000
44
0.0000000001
12
0.0000000000
22
-0.2001135905
32
0.0000000000
13
0.2001135905
23
0.0000000000
33
0.0000000000
40
0.0000000000
40
0.0000000000
40
0.0000000000
40
0.0000000000
40
0.1200582737
40
0.2390140804
40
0.3541876288
40
0.4639799089
40
0.5676687235
40
0.6629074450
40
0.7479702856
40
0.8226007406
40
0.8852698302
40
0.9346807239
40
0.9706002886
40
0.9924633447
40
1.0000000000
40
1.0000000000
40
1.0000000000
40
1.0000000000
10
11.6268779502
20
29.5354425825
30
0.0000000000
10
11.6268779502
20
29.5274341518
30
0.0000000000
10
11.6268946025
20
29.5114908189
30
0.0000000000
10
11.6269694986
20
29.4878650257
30
0.0000000000
10
11.6270931592
20
29.4649241199
30
0.0000000000
10
11.6272638695
20
29.4430023121
30
0.0000000000
10
11.6274783303
20
29.4224093578
30
0.0000000000
10
11.6277360935
20
29.4034710151
30
0.0000000000
10
11.6280232680
20
29.3864576033
30
0.0000000000
10
11.6283639862
20
29.3716613031
30
0.0000000000
10
11.6286670609
20
29.3591176686
30
0.0000000000
10
11.6291590840
20
29.3494987554
30
0.0000000000
10
11.6292450778
20
29.3417879191
30
0.0000000000
10
11.6301098305
20
29.3384636274
30
0.0000000000
10
11.6298662341
20
29.3354425825
30
0.0000000000
10
11.6303689632
20
29.3354425825
30
0.0000000000
11
11.6268779502
21
29.5354425825
31
0.0000000000
11
11.6269032300
21
29.5114173036
31
0.0000000000
11
11.6269792495
21
29.4876127514
31
0.0000000000
11
11.6271045202
21
29.4645652995
31
0.0000000000
11
11.6272769357
21
29.4425950486
31
0.0000000000
11
11.6274957107
21
29.4218466610
31
0.0000000000
11
11.6277563381
21
29.4027898806
31
0.0000000000
11
11.6280534062
21
29.3857702426
31
0.0000000000
11
11.6283860044
21
29.3708393782
31
0.0000000000
11
11.6287481961
21
29.3583036730
31
0.0000000000
11
11.6291317700
21
29.3484233244
31
0.0000000000
11
11.6295340490
21
29.3412465970
31
0.0000000000
11
11.6299495405
21
29.3368912761
31
0.0000000000
11
11.6303689632
21
29.3354425825
31
0.0000000000
0
SPLINE
5
38E
100
AcDbEntity
8
0
100
AcDbSpline
62
9
6
CONTINUOUS
70
0
71
3
72
21
73
17
74
15
42
0.0000001000
43
0.0000001000
44
0.0000000001
12
0.3924632419
22
0.0000000000
32
0.0000000000
13
0.0000000000
23
0.3924632419
33
0.0000000000
40
0.0000000000
40
0.0000000000
40
0.0000000000
40
0.0000000000
40
0.0714231657
40
0.1428466024
40
0.2142705677
40
0.2856952926
40
0.3571209699
40
0.4285477447
40
0.4999757071
40
0.5714048877
40
0.6428352559
40
0.7142667216
40
0.7856991396
40
0.8571323171
40
0.9285660230
40
1.0000000000
40
1.0000000000
40
1.0000000000
40
1.0000000000
10
17.4502906474
20
-15.6645574175
30
0.0000000000
10
17.4596343032
20
-15.6645574175
30
0.0000000000
10
17.4783386106
20
-15.6635072467
30
0.0000000000
10
17.5060287254
20
-15.6588012916
30
0.0000000000
10
17.5330215396
20
-15.6510238187
30
0.0000000000
10
17.5589729778
20
-15.6402726372
30
0.0000000000
10
17.5835579227
20
-15.6266829532
30
0.0000000000
10
17.6064668721
20
-15.6104256685
30
0.0000000000
10
17.6274118228
20
-15.5917052335
30
0.0000000000
10
17.6461293584
20
-15.5707570654
30
0.0000000000
10
17.6623841048
20
-15.5478446257
30
0.0000000000
10
17.6759716511
20
-15.5232559639
30
0.0000000000
10
17.6867211307
20
-15.4973006282
30
0.0000000000
10
17.6944973661
20
-15.4703037825
30
0.0000000000
10
17.6992025698
20
-15.4426095451
30
0.0000000000
10
17.7002525712
20
-15.4239024876
30
0.0000000000
10
17.7002525712
20
-15.4145574175
30
0.0000000000
11
17.4502906474
21
-15.6645574175
31
0.0000000000
11
17.4782775033
21
-15.6629854700
31
0.0000000000
11
17.5059124082
21
-15.6582893955
31
0.0000000000
11
17.5328478372
21
-15.6505282501
31
0.0000000000
11
17.5587450616
21
-15.6397996345
31
0.0000000000
11
17.5832784088
21
-15.6262384673
31
0.0000000000
11
17.6061393578
21
-15.6100152881
31
0.0000000000
11
17.6270404188
21
-15.5913341128
31
0.0000000000
11
17.6457187489
21
-15.5704298680
31
0.0000000000
11
17.6619394572
21
-15.5475654366
31
0.0000000000
11
17.6754985589
21
-15.5230283523
31
0.0000000000
11
17.6862255405
21
-15.4971271830
31
0.0000000000
11
17.6939855039
21
-15.4701876510
31
0.0000000000
11
17.6986808631
21
-15.4425485365
31
0.0000000000
11
17.7002525712
21
-15.4145574175
31
0.0000000000
0
SPLINE
5
38F
100
AcDbEntity
8
0
100
AcDbSpline
62
7
6
CONTINUOUS
70
0
71
3
72
20
73
16
74
14
42
0.0000001000
43
0.0000001000
44
0.0000000001
12
0.3992082112
22
0.0000000000
32
0.0000000000
13
0.0136754126
23
-0.3989739077
33
0.0000000000
40
0.0000000000
40
0.0000000000
40
0.0000000000
40
0.0000000000
40
0.0983432430
40
0.1902789015
40
0.2770275171
40
0.3595513326
40
0.4386094051
40
0.5148073167
40
0.5886325071
40
0.6604832508
40
0.7306896588
40
0.7995284811
40
0.8672344592
40
0.9340046446
40
1.0000000000
40
1.0000000000
40
1.0000000000
40
1.0000000000
10
17.5297834651
20
29.3354425825
30
0.0000000000
10
17.5428699418
20
29.3354425825
30
0.0000000000
10
17.5682327283
20
29.3335208066
30
0.0000000000
10
17.6043093402
20
29.3254074458
30
0.0000000000
10
17.6369708676
20
29.3132203632
30
0.0000000000
10
17.6662716613
20
29.2977564058
30
0.0000000000
10
17.6923030622
20
29.2796361806
30
0.0000000000
10
17.7151532059
20
29.2593561423
30
0.0000000000
10
17.7349024668
20
29.2373254561
30
0.0000000000
10
17.7516197669
20
29.2138921211
30
0.0000000000
10
17.7653633426
20
29.1893612693
30
0.0000000000
10
17.7761824635
20
29.1640090279
30
0.0000000000
10
17.7841198547
20
29.1380911716
30
0.0000000000
10
17.7892144938
20
29.1118578979
30
0.0000000000
10
17.7907504253
20
29.0942193908
30
0.0000000000
10
17.7910512632
20
29.0854425825
30
0.0000000000
11
17.5297834651
21
29.3354425825
31
0.0000000000
11
17.5689310187
21
29.3324808437
31
0.0000000000
11
17.6047394662
21
29.3244339203
31
0.0000000000
11
17.6371857549
21
29.3123290511
31
0.0000000000
11
17.6663217411
21
29.2969533033
31
0.0000000000
11
17.6922244810
21
29.2789221763
31
0.0000000000
11
17.7149743891
21
29.2587294296
31
0.0000000000
11
17.7346451930
21
29.2367832229
31
0.0000000000
11
17.7513012098
21
29.2134312437
31
0.0000000000
11
17.7649973640
21
29.1889787047
31
0.0000000000
11
17.7757805393
21
29.1637016447
31
0.0000000000
11
17.7836918770
21
29.1378566101
31
0.0000000000
11
17.7887692864
21
29.1116894563
31
0.0000000000
11
17.7910512632
21
29.0854425825
31
0.0000000000
0
SPLINE
5
390
100
AcDbEntity
8
0
100
AcDbSpline
62
7
6
CONTINUOUS
70
0
71
3
72
20
73
16
74
14
42
0.0000001000
43
0.0000001000
44
0.0000000001
12
0.0000000000
22
0.2001135905
32
0.0000000000
13
-0.2001135905
23
0.0000000000
33
0.0000000000
40
0.0000000000
40
0.0000000000
40
0.0000000000
40
0.0000000000
40
0.1200582737
40
0.2390140804
40
0.3541876288
40
0.4639799089
40
0.5676687235
40
0.6629074450
40
0.7479702856
40
0.8226007406
40
0.8852698302
40
0.9346807239
40
0.9706002886
40
0.9924633447
40
1.0000000000
40
1.0000000000
40
1.0000000000
40
1.0000000000
10
-0.7731220498
20
-15.8645574175
30
0.0000000000
10
-0.7731220498
20
-15.8565489868
30
0.0000000000
10
-0.7731387021
20
-15.8406056540
30
0.0000000000
10
-0.7732135982
20
-15.8169798607
30
0.0000000000
10
-0.7733372588
20
-15.7940389549
30
0.0000000000
10
-0.7735079691
20
-15.7721171471
30
0.0000000000
10
-0.7737224299
20
-15.7515241928
30
0.0000000000
10
-0.7739801931
20
-15.7325858501
30
0.0000000000
10
-0.7742673676
20
-15.7155724383
30
0.0000000000
10
-0.7746080858
20
-15.7007761381
30
0.0000000000
10
-0.7749111605
20
-15.6882325036
30
0.0000000000
10
-0.7754031836
20
-15.6786135904
30
0.0000000000
10
-0.7754891774
20
-15.6709027541
30
0.0000000000
10
-0.7763539301
20
-15.6675784624
30
0.0000000000
10
-0.7761103337
20
-15.6645574175
30
0.0000000000
10
-0.7766130628
20
-15.6645574175
30
0.0000000000
11
-0.7731220498
21
-15.8645574175
31
0.0000000000
11
-0.7731473296
21
-15.8405321386
31
0.0000000000
11
-0.7732233491
21
-15.8167275864
31
0.0000000000
11
-0.7733486198
21
-15.7936801345
31
0.0000000000
11
-0.7735210354
21
-15.7717098836
31
0.0000000000
11
-0.7737398103
21
-15.7509614960
31
0.0000000000
11
-0.7740004378
21
-15.7319047156
31
0.0000000000
11
-0.7742975058
21
-15.7148850776
31
0.0000000000
11
-0.7746301040
21
-15.6999542132
31
0.0000000000
11
-0.7749922957
21
-15.6874185080
31
0.0000000000
11
-0.7753758696
21
-15.6775381594
31
0.0000000000
11
-0.7757781487
21
-15.6703614320
31
0.0000000000
11
-0.7761936402
21
-15.6660061111
31
0.0000000000
11
-0.7766130628
21
-15.6645574175
31
0.0000000000
0
SPLINE
5
391
100
AcDbEntity
8
0
100
AcDbSpline
62
7
6
CONTINUOUS
70
0
71
3
72
15
73
11
74
9
42
0.0000001000
43
0.0000001000
44
0.0000000001
12
-0.2198589173
22
0.0000000000
32
0.0000000000
13
0.0000000000
23
0.2198589173
33
0.0000000000
40
0.0000000000
40
0.0000000000
40
0.0000000000
40
0.0000000000
40
0.1775508236
40
0.3489475586
40
0.5083491360
40
0.6505618283
40
0.7714455810
40
0.8685458831
40
0.9424410166
40
1.0000000000
40
1.0000000000
40
1.0000000000
40
1.0000000000
10
9.3768779502
20
-16.1153062660
30
0.0000000000
10
9.3638659062
20
-16.1153062660
30
0.0000000000
10
9.3382855670
20
-16.1145413029
30
0.0000000000
10
9.3011632059
20
-16.1111250016
30
0.0000000000
10
9.2669090892
20
-16.1055886006
30
0.0000000000
10
9.2368124204
20
-16.0981513808
30
0.0000000000
10
9.2119200998
20
-16.0891331431
30
0.0000000000
10
9.1930880985
20
-16.0787832862
30
0.0000000000
10
9.1804605148
20
-16.0673361230
30
0.0000000000
10
9.1768779502
20
-16.0577211524
30
0.0000000000
10
9.1768779502
20
-16.0535028671
30
0.0000000000
11
9.3768779502
21
-16.1153062660
31
0.0000000000
11
9.3378598858
21
-16.1141187310
31
0.0000000000
11
9.3003412637
21
-16.1106017624
31
0.0000000000
11
9.2657639036
21
-16.1048905152
31
0.0000000000
11
9.2354565940
21
-16.0972044696
31
0.0000000000
11
9.2105840277
21
-16.0878389959
31
0.0000000000
11
9.1921020437
21
-16.0771540040
31
0.0000000000
11
9.1807208941
21
-16.0655601121
31
0.0000000000
11
9.1768779502
21
-16.0535028671
31
0.0000000000
0
SPLINE
5
392
100
AcDbEntity
8
0
100
AcDbSpline
62
7
6
CONTINUOUS
70
0
71
3
72
15
73
11
74
9
42
0.0000001000
43
0.0000001000
44
0.0000000001
12
0.0000000000
22
-0.2198589173
32
0.0000000000
13
-0.2198589173
23
0.0000000000
33
0.0000000000
40
0.0000000000
40
0.0000000000
40
0.0000000000
40
0.0000000000
40
0.0575589834
40
0.1314541169
40
0.2285544190
40
0.3494381717
40
0.4916508640
40
0.6510524414
40
0.8224491764
40
1.0000000000
40
1.0000000000
40
1.0000000000
40
1.0000000000
10
1.6768779502
20
-16.0535028671
30
0.0000000000
10
1.6768779502
20
-16.0577211524
30
0.0000000000
10
1.6732953855
20
-16.0673361230
30
0.0000000000
10
1.6606678019
20
-16.0787832862
30
0.0000000000
10
1.6418358006
20
-16.0891331431
30
0.0000000000
10
1.6169434800
20
-16.0981513808
30
0.0000000000
10
1.5868468112
20
-16.1055886006
30
0.0000000000
10
1.5525926945
20
-16.1111250016
30
0.0000000000
10
1.5154703334
20
-16.1145413029
30
0.0000000000
10
1.4898899941
20
-16.1153062660
30
0.0000000000
10
1.4768779502
20
-16.1153062660
30
0.0000000000
11
1.6768779502
21
-16.0535028671
31
0.0000000000
11
1.6730350063
21
-16.0655601121
31
0.0000000000
11
1.6616538567
21
-16.0771540040
31
0.0000000000
11
1.6431718727
21
-16.0878389959
31
0.0000000000
11
1.6182993064
21
-16.0972044696
31
0.0000000000
11
1.5879919968
21
-16.1048905152
31
0.0000000000
11
1.5534146367
21
-16.1106017624
31
0.0000000000
11
1.5158960146
21
-16.1141187310
31
0.0000000000
11
1.4768779502
21
-16.1153062660
31
0.0000000000
0
SPLINE
5
393
100
AcDbEntity
8
0
100
AcDbSpline
62
7
6
CONTINUOUS
70
0
71
3
72
15
73
11
74
9
42
0.0000001000
43
0.0000001000
44
0.0000000001
12
0.0000000000
22
0.2198589173
32
0.0000000000
13
0.2198589173
23
0.0000000000
33
0.0000000000
40
0.0000000000
40
0.0000000000
40
0.0000000000
40
0.0000000000
40
0.0575589834
40
0.1314541169
40
0.2285544190
40
0.3494381717
40
0.4916508640
40
0.6510524414
40
0.8224491764
40
1.0000000000
40
1.0000000000
40
1.0000000000
40
1.0000000000
10
0.9268779502
20
-17.2043476697
30
0.0000000000
10
0.9268779502
20
-17.2001293845
30
0.0000000000
10
0.9304605148
20
-17.1905144139
30
0.0000000000
10
0.9430880985
20
-17.1790672507
30
0.0000000000
10
0.9619200998
20
-17.1687173938
30
0.0000000000
10
0.9868124204
20
-17.1596991560
30
0.0000000000
10
1.0169090892
20
-17.1522619363
30
0.0000000000
10
1.0511632059
20
-17.1467255353
30
0.0000000000
10
1.0882855670
20
-17.1433092339
30
0.0000000000
10
1.1138659062
20
-17.1425442708
30
0.0000000000
10
1.1268779502
20
-17.1425442708
30
0.0000000000
11
0.9268779502
21
-17.2043476697
31
0.0000000000
11
0.9307208941
21
-17.1922904247
31
0.0000000000
11
0.9421020437
21
-17.1806965329
31
0.0000000000
11
0.9605840277
21
-17.1700115410
31
0.0000000000
11
0.9854565940
21
-17.1606460673
31
0.0000000000
11
1.0157639036
21
-17.1529600216
31
0.0000000000
11
1.0503412637
21
-17.1472487745
31
0.0000000000
11
1.0878598858
21
-17.1437318058
31
0.0000000000
11
1.1268779502
21
-17.1425442708
31
0.0000000000
0
SPLINE
5
394
100
AcDbEntity
8
0
100
AcDbSpline
62
7
6
CONTINUOUS
70
0
71
3
72
15
73
11
74
9
42
0.0000001000
43
0.0000001000
44
0.0000000001
12
0.2198589173
22
0.0000000000
32
0.0000000000
13
0.0000000000
23
-0.2198589173
33
0.0000000000
40
0.0000000000
40
0.0000000000
40
0.0000000000
40
0.0000000000
40
0.1775508236
40
0.3489475586
40
0.5083491360
40
0.6505618283
40
0.7714455810
40
0.8685458831
40
0.9424410166
40
1.0000000000
40
1.0000000000
40
1.0000000000
40
1.0000000000
10
9.7268779502
20
-17.1425442708
30
0.0000000000
10
9.7398899941
20
-17.1425442708
30
0.0000000000
10
9.7654703334
20
-17.1433092339
30
0.0000000000
10
9.8025926945
20
-17.1467255353
30
0.0000000000
10
9.8368468112
20
-17.1522619363
30
0.0000000000
10
9.8669434800
20
-17.1596991560
30
0.0000000000
10
9.8918358006
20
-17.1687173938
30
0.0000000000
10
9.9106678019
20
-17.1790672507
30
0.0000000000
10
9.9232953855
20
-17.1905144139
30
0.0000000000
10
9.9268779502
20
-17.2001293845
30
0.0000000000
10
9.9268779502
20
-17.2043476697
30
0.0000000000
11
9.7268779502
21
-17.1425442708
31
0.0000000000
11
9.7658960146
21
-17.1437318058
31
0.0000000000
11
9.8034146367
21
-17.1472487745
31
0.0000000000
11
9.8379919968
21
-17.1529600216
31
0.0000000000
11
9.8682993064
21
-17.1606460673
31
0.0000000000
11
9.8931718727
21
-17.1700115410
31
0.0000000000
11
9.9116538567
21
-17.1806965329
31
0.0000000000
11
9.9230350063
21
-17.1922904247
31
0.0000000000
11
9.9268779502
21
-17.2043476697
31
0.0000000000
0
SPLINE
5
395
100
AcDbEntity
8
0
100
AcDbSpline
62
7
6
CONTINUOUS
70
0
71
3
72
15
73
11
74
9
42
0.0000001000
43
0.0000001000
44
0.0000000001
12
0.2198589173
22
0.0000000000
32
0.0000000000
13
0.0000000000
23
-0.2198589173
33
0.0000000000
40
0.0000000000
40
0.0000000000
40
0.0000000000
40
0.0000000000
40
0.1775508236
40
0.3489475586
40
0.5083491360
40
0.6505618283
40
0.7714455810
40
0.8685458831
40
0.9424410166
40
1.0000000000
40
1.0000000000
40
1.0000000000
40
1.0000000000
10
1.4768779502
20
29.7861914310
30
0.0000000000
10
1.4898899941
20
29.7861914310
30
0.0000000000
10
1.5154703334
20
29.7854264679
30
0.0000000000
10
1.5525926945
20
29.7820101666
30
0.0000000000
10
1.5868468112
20
29.7764737655
30
0.0000000000
10
1.6169434800
20
29.7690365458
30
0.0000000000
10
1.6418358006
20
29.7600183081
30
0.0000000000
10
1.6606678019
20
29.7496684512
30
0.0000000000
10
1.6732953855
20
29.7382212880
30
0.0000000000
10
1.6768779502
20
29.7286063174
30
0.0000000000
10
1.6768779502
20
29.7243880321
30
0.0000000000
11
1.4768779502
21
29.7861914310
31
0.0000000000
11
1.5158960146
21
29.7850038960
31
0.0000000000
11
1.5534146367
21
29.7814869274
31
0.0000000000
11
1.5879919968
21
29.7757756802
31
0.0000000000
11
1.6182993064
21
29.7680896346
31
0.0000000000
11
1.6431718727
21
29.7587241609
31
0.0000000000
11
1.6616538567
21
29.7480391690
31
0.0000000000
11
1.6730350063
21
29.7364452771
31
0.0000000000
11
1.6768779502
21
29.7243880321
31
0.0000000000
0
SPLINE
5
396
100
AcDbEntity
8
0
100
AcDbSpline
62
7
6
CONTINUOUS
70
0
71
3
72
15
73
11
74
9
42
0.0000001000
43
0.0000001000
44
0.0000000001
12
0.0000000000
22
0.2198589173
32
0.0000000000
13
0.2198589173
23
0.0000000000
33
0.0000000000
40
0.0000000000
40
0.0000000000
40
0.0000000000
40
0.0000000000
40
0.0575589834
40
0.1314541169
40
0.2285544190
40
0.3494381717
40
0.4916508640
40
0.6510524414
40
0.8224491764
40
1.0000000000
40
1.0000000000
40
1.0000000000
40
1.0000000000
10
9.1768779502
20
29.7243880321
30
0.0000000000
10
9.1768779502
20
29.7286063174
30
0.0000000000
10
9.1804605148
20
29.7382212880
30
0.0000000000
10
9.1930880985
20
29.7496684512
30
0.0000000000
10
9.2119200998
20
29.7600183081
30
0.0000000000
10
9.2368124204
20
29.7690365458
30
0.0000000000
10
9.2669090892
20
29.7764737655
30
0.0000000000
10
9.3011632059
20
29.7820101666
30
0.0000000000
10
9.3382855670
20
29.7854264679
30
0.0000000000
10
9.3638659062
20
29.7861914310
30
0.0000000000
10
9.3768779502
20
29.7861914310
30
0.0000000000
11
9.1768779502
21
29.7243880321
31
0.0000000000
11
9.1807208941
21
29.7364452771
31
0.0000000000
11
9.1921020437
21
29.7480391690
31
0.0000000000
11
9.2105840277
21
29.7587241609
31
0.0000000000
11
9.2354565940
21
29.7680896346
31
0.0000000000
11
9.2657639036
21
29.7757756802
31
0.0000000000
11
9.3003412637
21
29.7814869274
31
0.0000000000
11
9.3378598858
21
29.7850038960
31
0.0000000000
11
9.3768779502
21
29.7861914310
31
0.0000000000
0
SPLINE
5
397
100
AcDbEntity
8
0
100
AcDbSpline
62
7
6
CONTINUOUS
70
0
71
3
72
15
73
11
74
9
42
0.0000001000
43
0.0000001000
44
0.0000000001
12
0.0000000000
22
-0.2198589173
32
0.0000000000
13
-0.2198589173
23
-0.0000000000
33
0.0000000000
40
0.0000000000
40
0.0000000000
40
0.0000000000
40
0.0000000000
40
0.0575589834
40
0.1314541169
40
0.2285544190
40
0.3494381717
40
0.4916508640
40
0.6510524414
40
0.8224491764
40
1.0000000000
40
1.0000000000
40
1.0000000000
40
1.0000000000
10
9.9268779502
20
30.8752328347
30
0.0000000000
10
9.9268779502
20
30.8710145495
30
0.0000000000
10
9.9232953855
20
30.8613995789
30
0.0000000000
10
9.9106678019
20
30.8499524157
30
0.0000000000
10
9.8918358006
20
30.8396025588
30
0.0000000000
10
9.8669434800
20
30.8305843210
30
0.0000000000
10
9.8368468112
20
30.8231471013
30
0.0000000000
10
9.8025926945
20
30.8176107003
30
0.0000000000
10
9.7654703334
20
30.8141943989
30
0.0000000000
10
9.7398899941
20
30.8134294358
30
0.0000000000
10
9.7268779502
20
30.8134294358
30
0.0000000000
11
9.9268779502
21
30.8752328347
31
0.0000000000
11
9.9230350063
21
30.8631755897
31
0.0000000000
11
9.9116538567
21
30.8515816979
31
0.0000000000
11
9.8931718727
21
30.8408967060
31
0.0000000000
11
9.8682993064
21
30.8315312323
31
0.0000000000
11
9.8379919968
21
30.8238451866
31
0.0000000000
11
9.8034146367
21
30.8181339395
31
0.0000000000
11
9.7658960146
21
30.8146169708
31
0.0000000000
11
9.7268779502
21
30.8134294358
31
0.0000000000
0
SPLINE
5
398
100
AcDbEntity
8
0
100
AcDbSpline
62
7
6
CONTINUOUS
70
0
71
3
72
15
73
11
74
9
42
0.0000001000
43
0.0000001000
44
0.0000000001
12
-0.2198589173
22
0.0000000000
32
0.0000000000
13
0.0000000000
23
0.2198589173
33
0.0000000000
40
0.0000000000
40
0.0000000000
40
0.0000000000
40
0.0000000000
40
0.1775508236
40
0.3489475586
40
0.5083491360
40
0.6505618283
40
0.7714455810
40
0.8685458831
40
0.9424410166
40
1.0000000000
40
1.0000000000
40
1.0000000000
40
1.0000000000
10
1.1268779502
20
30.8134294358
30
0.0000000000
10
1.1138659062
20
30.8134294358
30
0.0000000000
10
1.0882855670
20
30.8141943989
30
0.0000000000
10
1.0511632059
20
30.8176107003
30
0.0000000000
10
1.0169090892
20
30.8231471013
30
0.0000000000
10
0.9868124204
20
30.8305843210
30
0.0000000000
10
0.9619200998
20
30.8396025588
30
0.0000000000
10
0.9430880985
20
30.8499524157
30
0.0000000000
10
0.9304605148
20
30.8613995789
30
0.0000000000
10
0.9268779502
20
30.8710145495
30
0.0000000000
10
0.9268779502
20
30.8752328347
30
0.0000000000
11
1.1268779502
21
30.8134294358
31
0.0000000000
11
1.0878598858
21
30.8146169708
31
0.0000000000
11
1.0503412637
21
30.8181339395
31
0.0000000000
11
1.0157639036
21
30.8238451866
31
0.0000000000
11
0.9854565940
21
30.8315312323
31
0.0000000000
11
0.9605840277
21
30.8408967060
31
0.0000000000
11
0.9421020437
21
30.8515816979
31
0.0000000000
11
0.9307208941
21
30.8631755897
31
0.0000000000
11
0.9268779502
21
30.8752328347
31
0.0000000000
0
SPLINE
5
399
100
AcDbEntity
8
0
100
AcDbSpline
62
7
6
CONTINUOUS
70
0
71
3
72
10
73
6
74
4
42
0.0000001000
43
0.0000001000
44
0.0000000001
12
0.1142119382
22
-0.4784403204
32
0.0000000000
13
0.0788509552
23
-0.4855224339
33
0.0000000000
40
0.0000000000
40
0.0000000000
40
0.0000000000
40
0.0000000000
40
0.3358263880
40
0.6703993209
40
1.0000000000
40
1.0000000000
40
1.0000000000
40
1.0000000000
10
-20.2455924574
20
-1.4925396816
30
0.0000000000
10
-20.2328073298
20
-1.5460973098
30
0.0000000000
10
-20.2086019178
20
-1.6533322227
30
0.0000000000
10
-20.1764412084
20
-1.8141235147
30
0.0000000000
10
-20.1576861428
20
-1.9214078806
30
0.0000000000
10
-20.1490230334
20
-1.9747507219
30
0.0000000000
11
-20.2455924574
21
-1.4925396816
31
0.0000000000
11
-20.2092203591
21
-1.6536731098
31
0.0000000000
11
-20.1769423928
21
-1.8150476129
31
0.0000000000
11
-20.1490230334
21
-1.9747507219
31
0.0000000000
0
SPLINE
5
39A
100
AcDbEntity
8
0
100
AcDbSpline
62
7
6
CONTINUOUS
70
0
71
3
72
9
73
5
74
3
42
0.0000001000
43
0.0000001000
44
0.0000000001
12
0.0025341947
22
-0.0181968643
32
0.0000000000
13
0.0024639124
23
-0.0182065139
33
0.0000000000
40
0.0000000000
40
0.0000000000
40
0.0000000000
40
0.0000000000
40
0.4980183667
40
1.0000000000
40
1.0000000000
40
1.0000000000
40
1.0000000000
10
-20.1490230334
20
-1.9747507219
30
0.0000000000
10
-20.1486023415
20
-1.9777715128
30
0.0000000000
10
-20.1477634423
20
-1.9838379479
30
0.0000000000
10
-20.1469362567
20
-1.9899059913
30
0.0000000000
10
-20.1465239771
20
-1.9929524365
30
0.0000000000
11
-20.1490230334
21
-1.9747507219
31
0.0000000000
11
-20.1477696723
21
-1.9838143039
31
0.0000000000
11
-20.1465239771
21
-1.9929524365
31
0.0000000000
0
SPLINE
5
39B
100
AcDbEntity
8
0
100
AcDbSpline
62
7
6
CONTINUOUS
70
0
71
3
72
16
73
12
74
10
42
0.0000001000
43
0.0000001000
44
0.0000000001
12
-0.0248075456
22
0.5463339579
32
0.0000000000
13
-0.0775346810
23
0.5413728670
33
0.0000000000
40
0.0000000000
40
0.0000000000
40
0.0000000000
40
0.0000000000
40
0.0993450600
40
0.1982808856
40
0.2964312685
40
0.3942609912
40
0.4951235936
40
0.6027038944
40
0.7203362278
40
0.8515398006
40
1.0000000000
40
1.0000000000
40
1.0000000000
40
1.0000000000
10
-20.0955901998
20
-2.5372599082
30
0.0000000000
10
-20.0964117022
20
-2.5191680483
30
0.0000000000
10
-20.0982185486
20
-2.4830662188
30
0.0000000000
10
-20.1014231594
20
-2.4291214571
30
0.0000000000
10
-20.1051137040
20
-2.3754846082
30
0.0000000000
10
-20.1093350793
20
-2.3215345987
30
0.0000000000
10
-20.1142241298
20
-2.2659149929
30
0.0000000000
10
-20.1200287217
20
-2.2067548174
30
0.0000000000
10
-20.1270851026
20
-2.1421633421
30
0.0000000000
10
-20.1358312421
20
-2.0702648091
30
0.0000000000
10
-20.1426870390
20
-2.0197432111
30
0.0000000000
10
-20.1465239771
20
-1.9929524365
30
0.0000000000
11
-20.0955901998
21
-2.5372599082
31
0.0000000000
11
-20.0983067997
21
-2.4829963620
31
0.0000000000
11
-20.1015162425
21
-2.4289839360
31
0.0000000000
11
-20.1052016266
21
-2.3754324601
31
0.0000000000
11
-20.1093758653
21
-2.3220927728
31
0.0000000000
11
-20.1142066158
21
-2.2671432624
31
0.0000000000
11
-20.1199523937
21
-2.2085891650
31
0.0000000000
11
-20.1269396460
21
-2.1446369800
31
0.0000000000
11
-20.1356052530
21
-2.0734073353
31
0.0000000000
11
-20.1465239771
21
-1.9929524365
31
0.0000000000
0
SPLINE
5
39C
100
AcDbEntity
8
0
100
AcDbSpline
62
7
6
CONTINUOUS
70
0
71
3
72
9
73
5
74
3
42
0.0000001000
43
0.0000001000
44
0.0000000001
12
0.0029730139
22
0.0272728289
32
0.0000000000
13
0.0024941625
23
0.0273207826
33
0.0000000000
40
0.0000000000
40
0.0000000000
40
0.0000000000
40
0.0000000000
40
0.5016991309
40
1.0000000000
40
1.0000000000
40
1.0000000000
40
1.0000000000
10
-20.0983247055
20
-2.5645574175
30
0.0000000000
10
-20.0978275193
20
-2.5599964993
30
0.0000000000
10
-20.0968760889
20
-2.5509011975
30
0.0000000000
10
-20.0960044809
20
-2.5417978981
30
0.0000000000
10
-20.0955901998
20
-2.5372599082
30
0.0000000000
11
-20.0983247055
21
-2.5645574175
31
0.0000000000
11
-20.0968929472
21
-2.5508682763
31
0.0000000000
11
-20.0955901998
21
-2.5372599082
31
0.0000000000
0
SPLINE
5
39D
100
AcDbEntity
8
0
100
AcDbSpline
62
7
6
CONTINUOUS
70
0
71
3
72
9
73
5
74
3
42
0.0000001000
43
0.0000001000
44
0.0000000001
12
-0.0024940685
22
0.0273206838
32
0.0000000000
13
-0.0029731036
23
0.0272727116
33
0.0000000000
40
0.0000000000
40
0.0000000000
40
0.0000000000
40
0.0000000000
40
0.4993753744
40
1.0000000000
40
1.0000000000
40
1.0000000000
40
1.0000000000
10
-20.0955901651
20
-3.7918548241
30
0.0000000000
10
-20.0960053239
20
-3.7873070652
30
0.0000000000
10
-20.0968769859
20
-3.7782038061
30
0.0000000000
10
-20.0978284849
20
-3.7691085478
30
0.0000000000
10
-20.0983246212
20
-3.7645574175
30
0.0000000000
11
-20.0955901651
21
-3.7918548241
31
0.0000000000
11
-20.0968958064
21
-3.7782171736
31
0.0000000000
11
-20.0983246212
21
-3.7645574175
31
0.0000000000
0
SPLINE
5
39E
100
AcDbEntity
8
0
100
AcDbSpline
62
7
6
CONTINUOUS
70
0
71
3
72
12
73
8
74
6
42
0.0000001000
43
0.0000001000
44
0.0000000001
12
0.0775338666
22
0.5413672451
32
0.0000000000
13
0.0248068549
23
0.5463283028
33
0.0000000000
40
0.0000000000
40
0.0000000000
40
0.0000000000
40
0.0000000000
40
0.1992505899
40
0.3989635062
40
0.5990341878
40
0.7992649123
40
1.0000000000
40
1.0000000000
40
1.0000000000
40
1.0000000000
10
-20.1465239639
20
-4.3361623064
30
0.0000000000
10
-20.1413744077
20
-4.3002063921
30
0.0000000000
10
-20.1317757350
20
-4.2281070555
30
0.0000000000
10
-20.1194977166
20
-4.1195906233
30
0.0000000000
10
-20.1093263626
20
-4.0106766032
30
0.0000000000
10
-20.1012490800
20
-3.9014011409
30
0.0000000000
10
-20.0972500338
20
-3.8284105774
30
0.0000000000
10
-20.0955901651
20
-3.7918548241
30
0.0000000000
11
-20.1465239639
21
-4.3361623064
31
0.0000000000
11
-20.1321413786
21
-4.2281472493
31
0.0000000000
11
-20.1198586745
21
-4.1196188472
31
0.0000000000
11
-20.1096803523
21
-4.0106763895
31
0.0000000000
11
-20.1016023603
21
-3.9014703242
31
0.0000000000
11
-20.0955901651
21
-3.7918548241
31
0.0000000000
0
SPLINE
5
39F
100
AcDbEntity
8
0
100
AcDbSpline
62
7
6
CONTINUOUS
70
0
71
3
72
9
73
5
74
3
42
0.0000001000
43
0.0000001000
44
0.0000000001
12
-0.0024965639
22
-0.0184477869
32
0.0000000000
13
-0.0025687211
23
-0.0184378780
33
0.0000000000
40
0.0000000000
40
0.0000000000
40
0.0000000000
40
0.0000000000
40
0.5020345891
40
1.0000000000
40
1.0000000000
40
1.0000000000
40
1.0000000000
10
-20.1465239639
20
-4.3361623064
30
0.0000000000
10
-20.1469417511
20
-4.3392494488
30
0.0000000000
10
-20.1477799780
20
-4.3453978954
30
0.0000000000
10
-20.1486302311
20
-4.3515446903
30
0.0000000000
10
-20.1490566092
20
-4.3546051655
30
0.0000000000
11
-20.1465239639
21
-4.3361623064
31
0.0000000000
11
-20.1477864200
21
-4.3454224982
31
0.0000000000
11
-20.1490566092
21
-4.3546051655
31
0.0000000000
0
SPLINE
5
3A0
100
AcDbEntity
8
0
100
AcDbSpline
62
7
6
CONTINUOUS
70
0
71
3
72
11
73
7
74
5
42
0.0000001000
43
0.0000001000
44
0.0000000001
12
0.1141483197
22
0.4781839943
32
0.0000000000
13
0.0788531658
23
0.4852545204
33
0.0000000000
40
0.0000000000
40
0.0000000000
40
0.0000000000
40
0.0000000000
40
0.2197656114
40
0.4560890076
40
0.7139546041
40
1.0000000000
40
1.0000000000
40
1.0000000000
40
1.0000000000
10
-20.2455924574
20
-4.8365486677
30
0.0000000000
10
-20.2372304990
20
-4.8015192017
30
0.0000000000
10
-20.2204622152
20
-4.7286798822
30
0.0000000000
10
-20.1961230439
20
-4.6142356724
30
0.0000000000
10
-20.1717920411
20
-4.4887052647
30
0.0000000000
10
-20.1565751376
20
-4.4008734393
30
0.0000000000
10
-20.1490566092
20
-4.3546051655
30
0.0000000000
11
-20.2455924574
21
-4.8365486677
31
0.0000000000
11
-20.2213542056
21
-4.7312615381
31
0.0000000000
11
-20.1971858886
21
-4.6176219170
31
0.0000000000
11
-20.1730629195
21
-4.4931664513
31
0.0000000000
11
-20.1490566092
21
-4.3546051655
31
0.0000000000
0
SPLINE
5
3A1
100
AcDbEntity
8
0
100
AcDbSpline
62
9
6
CONTINUOUS
70
0
71
3
72
21
73
17
74
15
42
0.0000001000
43
0.0000001000
44
0.0000000001
12
-0.2501444309
22
0.0000000000
32
0.0000000000
13
-0.0000000000
23
0.2501444309
33
0.0000000000
40
0.0000000000
40
0.0000000000
40
0.0000000000
40
0.0000000000
40
0.0065806203
40
0.0254528506
40
0.0565363858
40
0.0994641232
40
0.1537044943
40
0.2185793586
40
0.2932751547
40
0.3768540178
40
0.4682659442
40
0.5663621747
40
0.6699097371
40
0.7776070079
40
0.8881001173
40
1.0000000000
40
1.0000000000
40
1.0000000000
40
1.0000000000
10
-36.4891480530
20
-15.6645574175
30
0.0000000000
10
-36.4896967549
20
-15.6645574175
30
0.0000000000
10
-36.4895015183
20
-15.6613076626
30
0.0000000000
10
-36.4904224465
20
-15.6576929075
30
0.0000000000
10
-36.4905727008
20
-15.6493536480
30
0.0000000000
10
-36.4911294535
20
-15.6389314940
30
0.0000000000
10
-36.4914978540
20
-15.6253262024
30
0.0000000000
10
-36.4919046290
20
-15.6092057232
30
0.0000000000
10
-36.4922574337
20
-15.5905909306
30
0.0000000000
10
-36.4925802485
20
-15.5697778291
30
0.0000000000
10
-36.4928590369
20
-15.5470079756
30
0.0000000000
10
-36.4930929700
20
-15.5225739880
30
0.0000000000
10
-36.4932780199
20
-15.4967812166
30
0.0000000000
10
-36.4934120061
20
-15.4699545743
30
0.0000000000
10
-36.4934930930
20
-15.4424312546
30
0.0000000000
10
-36.4935111546
20
-15.4238877950
30
0.0000000000
10
-36.4935111546
20
-15.4145574175
30
0.0000000000
11
-36.4891480530
21
-15.6645574175
31
0.0000000000
11
-36.4896365654
21
-15.6629854700
31
0.0000000000
11
-36.4901189345
21
-15.6582893955
31
0.0000000000
11
-36.4905890941
21
-15.6505282501
31
0.0000000000
11
-36.4910411319
21
-15.6397996345
31
0.0000000000
11
-36.4914693630
21
-15.6262384673
31
0.0000000000
11
-36.4918684024
21
-15.6100152881
31
0.0000000000
11
-36.4922332318
21
-15.5913341128
31
0.0000000000
11
-36.4925592632
21
-15.5704298680
31
0.0000000000
11
-36.4928423968
21
-15.5475654366
31
0.0000000000
11
-36.4930790718
21
-15.5230283523
31
0.0000000000
11
-36.4932663119
21
-15.4971271830
31
0.0000000000
11
-36.4934017626
21
-15.4701876510
31
0.0000000000
11
-36.4934837204
21
-15.4425485365
31
0.0000000000
11
-36.4935111546
21
-15.4145574175
31
0.0000000000
0
SPLINE
5
3A2
100
AcDbEntity
8
0
100
AcDbSpline
62
9
6
CONTINUOUS
70
0
71
3
72
20
73
16
74
14
42
0.0000001000
43
0.0000001000
44
0.0000000001
12
-0.0432915957
22
-0.2455936444
32
0.0000000000
13
0.2455913891
23
-0.0433043881
33
0.0000000000
40
0.0000000000
40
0.0000000000
40
0.0000000000
40
0.0000000000
40
0.1205817900
40
0.2393684007
40
0.3546348731
40
0.4647074343
40
0.5679878490
40
0.6629766924
40
0.7482952273
40
0.8227056075
40
0.8851292224
40
0.9346632317
40
0.9705962413
40
0.9924295749
40
1.0000000000
40
1.0000000000
40
1.0000000000
40
1.0000000000
10
-39.5437292720
20
-10.6287832682
30
0.0000000000
10
-39.5454693314
20
-10.6386546420
30
0.0000000000
10
-39.5489033679
20
-10.6582539982
30
0.0000000000
10
-39.5539302734
20
-10.6873018474
30
0.0000000000
10
-39.5587466864
20
-10.7154996188
30
0.0000000000
10
-39.5632823312
20
-10.7424371297
30
0.0000000000
10
-39.5674729743
20
-10.7677249998
30
0.0000000000
10
-39.5712531827
20
-10.7909894166
30
0.0000000000
10
-39.5745842366
20
-10.8119131701
30
0.0000000000
10
-39.5773700287
20
-10.8301278639
30
0.0000000000
10
-39.5797149044
20
-10.8455584567
30
0.0000000000
10
-39.5811947262
20
-10.8574593156
30
0.0000000000
10
-39.5827723582
20
-10.8669504583
30
0.0000000000
10
-39.5824254243
20
-10.8712173823
30
0.0000000000
10
-39.5833979586
20
-10.8748759289
30
0.0000000000
10
-39.5827782148
20
-10.8749852065
30
0.0000000000
11
-39.5437292720
21
-10.6287832682
31
0.0000000000
11
-39.5489187128
21
-10.6584027912
31
0.0000000000
11
-39.5539693924
21
-10.6875920578
31
0.0000000000
11
-39.5588079441
21
-10.7159270617
31
0.0000000000
11
-39.5633640825
21
-10.7429962056
31
0.0000000000
11
-39.5675716246
21
-10.7684062802
31
0.0000000000
11
-39.5713694513
21
-10.7917881761
31
0.0000000000
11
-39.5747023950
21
-10.8128022454
31
0.0000000000
11
-39.5775220409
21
-10.8311432354
31
0.0000000000
11
-39.5797874306
21
-10.8465447231
31
0.0000000000
11
-39.5814656567
21
-10.8587829847
31
0.0000000000
11
-39.5825323413
21
-10.8676802460
31
0.0000000000
11
-39.5829719894
21
-10.8731072644
31
0.0000000000
11
-39.5827782148
21
-10.8749852065
31
0.0000000000
0
SPLINE
5
3A3
100
AcDbEntity
8
0
100
AcDbSpline
62
9
6
CONTINUOUS
70
0
71
3
72
24
73
20
74
18
42
0.0000001000
43
0.0000001000
44
0.0000000001
12
0.0401397300
22
-1.0165422102
32
0.0000000000
13
1.0018774404
23
-0.1766659488
33
0.0000000000
40
0.0000000000
40
0.0000000000
40
0.0000000000
40
0.0000000000
40
0.0588041747
40
0.1176257093
40
0.1764488803
40
0.2352720500
40
0.2940952488
40
0.3529195417
40
0.4117441914
40
0.4705693363
40
0.5293946434
40
0.5882208935
40
0.6470476529
40
0.7058749437
40
0.7647019499
40
0.8235296658
40
0.8823579824
40
0.9411851919
40
1.0000000000
40
1.0000000000
40
1.0000000000
40
1.0000000000
10
-40.1629093805
20
-9.9197628663
30
0.0000000000
10
-40.1621225859
20
-9.9396885082
30
0.0000000000
10
-40.1589573962
20
-9.9795011780
30
0.0000000000
10
-40.1494646428
20
-10.0386404769
30
0.0000000000
10
-40.1352855318
20
-10.0968449442
30
0.0000000000
10
-40.1165109068
20
-10.1537331337
30
0.0000000000
10
-40.0932603922
20
-10.2089440350
30
0.0000000000
10
-40.0656818128
20
-10.2621258398
30
0.0000000000
10
-40.0339505642
20
-10.3129401248
30
0.0000000000
10
-39.9982687380
20
-10.3610630076
30
0.0000000000
10
-39.9588633232
20
-10.4061882015
30
0.0000000000
10
-39.9159851122
20
-10.4480283096
30
0.0000000000
10
-39.8699069127
20
-10.4863169043
30
0.0000000000
10
-39.8209223896
20
-10.5208098350
30
0.0000000000
10
-39.7693432597
20
-10.5512874688
30
0.0000000000
10
-39.7154982567
20
-10.5775556713
30
0.0000000000
10
-39.6597290969
20
-10.5994470988
30
0.0000000000
10
-39.6024001581
20
-10.6168205087
30
0.0000000000
10
-39.5633710151
20
-10.6253197436
30
0.0000000000
10
-39.5437292720
20
-10.6287832682
30
0.0000000000
11
-40.1629093805
21
-9.9197628663
31
0.0000000000
11
-40.1581673611
21
-9.9793981370
31
0.0000000000
11
-40.1486838669
21
-10.0384830672
31
0.0000000000
11
-40.1345196351
21
-10.0966254735
31
0.0000000000
11
-40.1157649532
21
-10.1534535179
31
0.0000000000
11
-40.0925392418
21
-10.2086054408
31
0.0000000000
11
-40.0649898145
21
-10.2617310518
31
0.0000000000
11
-40.0332922611
21
-10.3124913713
31
0.0000000000
11
-39.9976482319
21
-10.3605632801
31
0.0000000000
11
-39.9582848069
21
-10.4056403891
31
0.0000000000
11
-39.9154519919
21
-10.4474361993
31
0.0000000000
11
-39.8694227014
21
-10.4856841566
31
0.0000000000
11
-39.8204899197
21
-10.5201406423
31
0.0000000000
11
-39.7689658782
21
-10.5505857571
31
0.0000000000
11
-39.7151777593
21
-10.5768261185
31
0.0000000000
11
-39.6594680801
21
-10.5986944306
31
0.0000000000
11
-39.6021932283
21
-10.6160509274
31
0.0000000000
11
-39.5437292720
21
-10.6287832682
31
0.0000000000
0
SPLINE
5
3A4
100
AcDbEntity
8
0
100
AcDbSpline
62
9
6
CONTINUOUS
70
0
71
3
72
16
73
12
74
10
42
0.0000001000
43
0.0000001000
44
0.0000000001
12
-1.3222311353
22
-33.4929111213
32
0.0000000000
13
1.3222311330
23
-33.4929111214
33
0.0000000000
40
0.0000000000
40
0.0000000000
40
0.0000000000
40
0.0000000000
40
0.1111111099
40
0.2222222248
40
0.3333333371
40
0.4444444472
40
0.5555555564
40
0.6666666665
40
0.7777777788
40
0.8888888936
40
1.0000000000
40
1.0000000000
40
1.0000000000
40
1.0000000000
10
-40.1629093805
20
23.5906480313
30
0.0000000000
10
-40.2118809035
20
22.3501698552
30
0.0000000000
10
-40.2989474962
20
19.8687702801
30
0.0000000000
10
-40.3969058361
20
16.1456799425
30
0.0000000000
10
-40.4622156690
20
12.4218708347
30
0.0000000000
10
-40.4948718206
20
8.6976330988
30
0.0000000000
10
-40.4948718200
20
4.9732519472
30
0.0000000000
10
-40.4622156674
20
1.2490142113
30
0.0000000000
10
-40.3969058334
20
-2.4747948963
30
0.0000000000
10
-40.2989474937
20
-6.1978851942
30
0.0000000000
10
-40.2118809018
20
-8.6792847297
30
0.0000000000
10
-40.1629093805
20
-9.9197628663
30
0.0000000000
11
-40.1629093805
21
23.5906480313
31
0.0000000000
11
-40.2935072363
21
19.8686051731
31
0.0000000000
11
-40.3914644188
21
16.1455601196
31
0.0000000000
11
-40.4567733892
21
12.4217993612
31
0.0000000000
11
-40.4894291286
21
8.6976091817
31
0.0000000000
11
-40.4894291281
21
4.9732758642
31
0.0000000000
11
-40.4567733877
21
1.2490856849
31
0.0000000000
11
-40.3914644162
21
-2.4746750734
31
0.0000000000
11
-40.2935072327
21
-6.1977201267
31
0.0000000000
11
-40.1629093805
21
-9.9197628663
31
0.0000000000
0
SPLINE
5
3A5
100
AcDbEntity
8
0
100
AcDbSpline
62
9
6
CONTINUOUS
70
0
71
3
72
20
73
16
74
14
42
0.0000001000
43
0.0000001000
44
0.0000000001
12
-0.0432915958
22
0.2455936444
32
0.0000000000
13
0.2455913891
23
0.0433043881
33
0.0000000000
40
0.0000000000
40
0.0000000000
40
0.0000000000
40
0.0000000000
40
0.1205817722
40
0.2393683691
40
0.3546348321
40
0.4647073884
40
0.5679878025
40
0.6629766491
40
0.7482951900
40
0.8227055782
40
0.8851292018
40
0.9346632192
40
0.9705962354
40
0.9924295734
40
1.0000000000
40
1.0000000000
40
1.0000000000
40
1.0000000000
10
-39.5437292720
20
24.2996684332
30
0.0000000000
10
-39.5454693311
20
24.3095398055
30
0.0000000000
10
-39.5489033672
20
24.3291391592
30
0.0000000000
10
-39.5539302722
20
24.3581870050
30
0.0000000000
10
-39.5587466848
20
24.3863847741
30
0.0000000000
10
-39.5632823294
20
24.4133222838
30
0.0000000000
10
-39.5674729725
20
24.4386101537
30
0.0000000000
10
-39.5712531811
20
24.4618745711
30
0.0000000000
10
-39.5745842352
20
24.4827983261
30
0.0000000000
10
-39.5773700277
20
24.5010130217
30
0.0000000000
10
-39.5797149037
20
24.5164436166
30
0.0000000000
10
-39.5811947257
20
24.5283444774
30
0.0000000000
10
-39.5827723582
20
24.5378356217
30
0.0000000000
10
-39.5824254242
20
24.5421025466
30
0.0000000000
10
-39.5833979587
20
24.5457610939
30
0.0000000000
10
-39.5827782148
20
24.5458703715
30
0.0000000000
11
-39.5437292720
21
24.2996684332
31
0.0000000000
11
-39.5489187121
21
24.3292879518
31
0.0000000000
11
-39.5539693911
21
24.3584772150
31
0.0000000000
11
-39.5588079424
21
24.3868122166
31
0.0000000000
11
-39.5633640806
21
24.4138813593
31
0.0000000000
11
-39.5675716228
21
24.4392914337
31
0.0000000000
11
-39.5713694497
21
24.4626733304
31
0.0000000000
11
-39.5747023936
21
24.4836874012
31
0.0000000000
11
-39.5775220399
21
24.5020283932
31
0.0000000000
11
-39.5797874299
21
24.5174298830
31
0.0000000000
11
-39.5814656564
21
24.5296681466
31
0.0000000000
11
-39.5825323411
21
24.5385654096
31
0.0000000000
11
-39.5829719894
21
24.5439924290
31
0.0000000000
11
-39.5827782148
21
24.5458703715
31
0.0000000000
0
SPLINE
5
3A6
100
AcDbEntity
8
0
100
AcDbSpline
62
9
6
CONTINUOUS
70
0
71
3
72
24
73
20
74
18
42
0.0000001000
43
0.0000001000
44
0.0000000001
12
-1.0018772815
22
-0.1766668500
32
0.0000000000
13
-0.0401388145
23
-1.0165422463
33
0.0000000000
40
0.0000000000
40
0.0000000000
40
0.0000000000
40
0.0000000000
40
0.0588101052
40
0.1176371656
40
0.1764653288
40
0.2352928605
40
0.2941197035
40
0.3529468230
40
0.4117733961
40
0.4705995115
40
0.5294248192
40
0.5882500999
40
0.6470749368
40
0.7058994020
40
0.7647227654
40
0.8235461204
40
0.8823694446
40
0.9411911271
40
1.0000000000
40
1.0000000000
40
1.0000000000
40
1.0000000000
10
-39.5437292720
20
24.2996684332
30
0.0000000000
10
-39.5633694414
20
24.2962051679
30
0.0000000000
10
-39.6023970004
20
24.2877064454
30
0.0000000000
10
-39.6597244163
20
24.2703338615
30
0.0000000000
10
-39.7154935755
20
24.2484428896
30
0.0000000000
10
-39.7693386036
20
24.2221751254
30
0.0000000000
10
-39.8209178020
20
24.1916979552
30
0.0000000000
10
-39.8699024346
20
24.1572054873
30
0.0000000000
10
-39.9159807982
20
24.1189173523
30
0.0000000000
10
-39.9588592598
20
24.0770776572
30
0.0000000000
10
-39.9982650340
20
24.0319527764
30
0.0000000000
10
-40.0339473039
20
23.9838300854
30
0.0000000000
10
-40.0656790305
20
23.9330159002
30
0.0000000000
10
-40.0932580836
20
23.8798341404
30
0.0000000000
10
-40.1165090668
20
23.8246232433
30
0.0000000000
10
-40.1352841294
20
23.7677350187
30
0.0000000000
10
-40.1494636912
20
23.7095304895
30
0.0000000000
10
-40.1589570571
20
23.6503895723
30
0.0000000000
10
-40.1621225410
20
23.6105752658
30
0.0000000000
10
-40.1629093805
20
23.5906480313
30
0.0000000000
11
-39.5437292720
21
24.2996684332
31
0.0000000000
11
-39.6021885946
21
24.2869372996
31
0.0000000000
11
-39.6594634098
21
24.2695812051
31
0.0000000000
11
-39.7151730927
21
24.2477133294
31
0.0000000000
11
-39.7689612240
21
24.2214734208
31
0.0000000000
11
-39.8204853413
21
24.1910287607
31
0.0000000000
11
-39.8694182353
21
24.1565727371
31
0.0000000000
11
-39.9154476722
21
24.1183252527
31
0.0000000000
11
-39.9582807178
21
24.0765298749
31
0.0000000000
11
-39.9976445017
21
24.0314530785
31
0.0000000000
11
-40.0332889910
21
23.9833813388
31
0.0000000000
11
-40.0649870331
21
23.9326211000
31
0.0000000000
11
-40.0925369336
21
23.8794955370
31
0.0000000000
11
-40.1157631059
21
23.8243436265
31
0.0000000000
11
-40.1345182381
21
23.7675155322
31
0.0000000000
11
-40.1486829023
21
23.7093730707
31
0.0000000000
11
-40.1581667895
21
23.6502880512
31
0.0000000000
11
-40.1629093805
21
23.5906480313
31
0.0000000000
0
SPLINE
5
3A7
100
AcDbEntity
8
0
100
AcDbSpline
62
9
6
CONTINUOUS
70
0
71
3
72
20
73
16
74
14
42
0.0000001000
43
0.0000001000
44
0.0000000001
12
-0.2501418417
22
0.0000000000
32
0.0000000000
13
0.0000000001
23
0.2501418417
33
0.0000000000
40
0.0000000000
40
0.0000000000
40
0.0000000000
40
0.0000000000
40
0.0075842319
40
0.0294373733
40
0.0653988409
40
0.1149681770
40
0.1774309217
40
0.2518802716
40
0.3372329364
40
0.4322458259
40
0.5355345511
40
0.6455937927
40
0.7608193505
40
0.8795315952
40
1.0000000000
40
1.0000000000
40
1.0000000000
40
1.0000000000
10
-31.2872944756
20
-17.1645574175
30
0.0000000000
10
-31.2879268535
20
-17.1645574175
30
0.0000000000
10
-31.2876175721
20
-17.1607738748
30
0.0000000000
10
-31.2887010570
20
-17.1566121372
30
0.0000000000
10
-31.2888071896
20
-17.1469567387
30
0.0000000000
10
-31.2894224207
20
-17.1349340555
30
0.0000000000
10
-31.2898004869
20
-17.1192740212
30
0.0000000000
10
-31.2902262503
20
-17.1007866747
30
0.0000000000
10
-31.2905849397
20
-17.0795296669
30
0.0000000000
10
-31.2909067109
20
-17.0558847616
30
0.0000000000
10
-31.2911746486
20
-17.0301735203
30
0.0000000000
10
-31.2913881639
20
-17.0027780416
30
0.0000000000
10
-31.2915428593
20
-16.9740956390
30
0.0000000000
10
-31.2916366801
20
-16.9445451901
30
0.0000000000
10
-31.2916575772
20
-16.9246021471
30
0.0000000000
10
-31.2916575772
20
-16.9145574175
30
0.0000000000
11
-31.2872944756
21
-17.1645574175
31
0.0000000000
11
-31.2878203893
21
-17.1627346364
31
0.0000000000
11
-31.2883386341
21
-17.1572928730
31
0.0000000000
11
-31.2888416527
21
-17.1483114805
31
0.0000000000
11
-31.2893221099
21
-17.1359214275
31
0.0000000000
11
-31.2897729997
21
-17.1203033887
31
0.0000000000
11
-31.2901877471
21
-17.1016851101
31
0.0000000000
11
-31.2905603040
21
-17.0803380881
31
0.0000000000
11
-31.2908852378
21
-17.0565736103
31
0.0000000000
11
-31.2911578102
21
-17.0307382162
31
0.0000000000
11
-31.2913740465
21
-17.0032086440
31
0.0000000000
11
-31.2915307934
21
-16.9743863370
31
0.0000000000
11
-31.2916257653
21
-16.9446915894
31
0.0000000000
11
-31.2916575772
21
-16.9145574175
31
0.0000000000
0
SPLINE
5
3A8
100
AcDbEntity
8
0
100
AcDbSpline
62
9
6
CONTINUOUS
70
0
71
3
72
20
73
16
74
14
42
0.0000001000
43
0.0000001000
44
0.0000000001
12
-0.2501418417
22
0.0000000000
32
0.0000000000
13
-0.0000000000
23
-0.2501418417
33
0.0000000000
40
0.0000000000
40
0.0000000000
40
0.0000000000
40
0.0000000000
40
0.0075842332
40
0.0294373781
40
0.0653988502
40
0.1149681913
40
0.1774309405
40
0.2518802940
40
0.3372329607
40
0.4322458503
40
0.5355345737
40
0.6455938117
40
0.7608193642
40
0.8795316023
40
1.0000000000
40
1.0000000000
40
1.0000000000
40
1.0000000000
10
-31.2872944756
20
30.8354425825
30
0.0000000000
10
-31.2879268536
20
30.8354425825
30
0.0000000000
10
-31.2876175720
20
30.8316590391
30
0.0000000000
10
-31.2887010571
20
30.8274973010
30
0.0000000000
10
-31.2888071897
20
30.8178419013
30
0.0000000000
10
-31.2894224208
20
30.8058192169
30
0.0000000000
10
-31.2898004869
20
30.7901591815
30
0.0000000000
10
-31.2902262504
20
30.7716718342
30
0.0000000000
10
-31.2905849397
20
30.7504148260
30
0.0000000000
10
-31.2909067109
20
30.7267699206
30
0.0000000000
10
-31.2911746486
20
30.7010586798
30
0.0000000000
10
-31.2913881639
20
30.6736632020
30
0.0000000000
10
-31.2915428593
20
30.6449808006
30
0.0000000000
10
-31.2916366801
20
30.6154303534
30
0.0000000000
10
-31.2916575772
20
30.5954873114
30
0.0000000000
10
-31.2916575772
20
30.5854425825
30
0.0000000000
11
-31.2872944756
21
30.8354425825
31
0.0000000000
11
-31.2878203894
21
30.8336198010
31
0.0000000000
11
-31.2883386341
21
30.8281780369
31
0.0000000000
11
-31.2888416527
21
30.8191966432
31
0.0000000000
11
-31.2893221100
21
30.8068065889
31
0.0000000000
11
-31.2897729998
21
30.7911885490
31
0.0000000000
11
-31.2901877471
21
30.7725702695
31
0.0000000000
11
-31.2905603040
21
30.7512232471
31
0.0000000000
11
-31.2908852378
21
30.7274587692
31
0.0000000000
11
-31.2911578102
21
30.7016233755
31
0.0000000000
11
-31.2913740465
21
30.6740938043
31
0.0000000000
11
-31.2915307934
21
30.6452714986
31
0.0000000000
11
-31.2916257653
21
30.6155767526
31
0.0000000000
11
-31.2916575772
21
30.5854425825
31
0.0000000000
0
SPLINE
5
3A9
100
AcDbEntity
8
0
100
AcDbSpline
62
7
6
CONTINUOUS
70
0
71
3
72
20
73
16
74
14
42
0.0000001000
43
0.0000001000
44
0.0000000001
12
0.6949431591
22
0.0000000000
32
0.0000000000
13
0.6192694921
23
-0.3153589867
33
0.0000000000
40
0.0000000000
40
0.0000000000
40
0.0000000000
40
0.0000000000
40
0.0639318444
40
0.1309847544
40
0.2010414630
40
0.2738329257
40
0.3490419091
40
0.4263451485
40
0.5054246782
40
0.5859706228
40
0.6676790907
40
0.7502477224
40
0.8333716238
40
0.9167345676
40
1.0000000000
40
1.0000000000
40
1.0000000000
40
1.0000000000
10
-31.9350075826
20
29.3354425825
30
0.0000000000
10
-31.9201979166
20
29.3354425825
30
0.0000000000
10
-31.8898434066
20
29.3331753082
30
0.0000000000
10
-31.8439672936
20
29.3248730596
30
0.0000000000
10
-31.7968809884
20
29.3126000007
30
0.0000000000
10
-31.7487804016
20
29.2971155740
30
0.0000000000
10
-31.6998157369
20
29.2790150128
30
0.0000000000
10
-31.6501232285
20
29.2587789623
30
0.0000000000
10
-31.5998243872
20
29.2368071235
30
0.0000000000
10
-31.5490340117
20
29.2134418112
30
0.0000000000
10
-31.4978641337
20
29.1889848350
30
0.0000000000
10
-31.4464278531
20
29.1637099217
30
0.0000000000
10
-31.3948432988
20
29.1378725146
30
0.0000000000
10
-31.3432381164
20
29.1117178767
30
0.0000000000
10
-31.3088454912
20
29.0941954166
30
0.0000000000
10
-31.2916575772
20
29.0854425825
30
0.0000000000
11
-31.9350075826
21
29.3354425825
31
0.0000000000
11
-31.8906774128
21
29.3324808437
31
0.0000000000
11
-31.8447795152
21
29.3244339203
31
0.0000000000
11
-31.7976229326
21
29.3123290511
31
0.0000000000
11
-31.7494303752
21
29.2969533033
31
0.0000000000
11
-31.7003731644
21
29.2789221763
31
0.0000000000
11
-31.6505912679
21
29.2587294296
31
0.0000000000
11
-31.6002077234
21
29.2367832229
31
0.0000000000
11
-31.5493366190
21
29.2134312437
31
0.0000000000
11
-31.4980886630
21
29.1889787047
31
0.0000000000
11
-31.4465756290
21
29.1637016447
31
0.0000000000
11
-31.3949133641
21
29.1378566101
31
0.0000000000
11
-31.3432272394
21
29.1116894563
31
0.0000000000
11
-31.2916575772
21
29.0854425825
31
0.0000000000
0
SPLINE
5
3AA
100
AcDbEntity
8
0
100
AcDbSpline
62
9
6
CONTINUOUS
70
0
71
3
72
21
73
17
74
15
42
0.0000001000
43
0.0000001000
44
0.0000000001
12
-0.2501444309
22
0.0000000000
32
0.0000000000
13
0.0000000000
23
-0.2501444309
33
0.0000000000
40
0.0000000000
40
0.0000000000
40
0.0000000000
40
0.0000000000
40
0.0065806203
40
0.0254528506
40
0.0565363858
40
0.0994641232
40
0.1537044943
40
0.2185793586
40
0.2932751547
40
0.3768540178
40
0.4682659442
40
0.5663621747
40
0.6699097371
40
0.7776070079
40
0.8881001173
40
1.0000000000
40
1.0000000000
40
1.0000000000
40
1.0000000000
10
-36.4891480530
20
29.3354425825
30
0.0000000000
10
-36.4896967549
20
29.3354425825
30
0.0000000000
10
-36.4895015183
20
29.3321928275
30
0.0000000000
10
-36.4904224465
20
29.3285780725
30
0.0000000000
10
-36.4905727008
20
29.3202388130
30
0.0000000000
10
-36.4911294535
20
29.3098166590
30
0.0000000000
10
-36.4914978540
20
29.2962113674
30
0.0000000000
10
-36.4919046290
20
29.2800908882
30
0.0000000000
10
-36.4922574337
20
29.2614760956
30
0.0000000000
10
-36.4925802485
20
29.2406629941
30
0.0000000000
10
-36.4928590369
20
29.2178931406
30
0.0000000000
10
-36.4930929700
20
29.1934591530
30
0.0000000000
10
-36.4932780199
20
29.1676663816
30
0.0000000000
10
-36.4934120061
20
29.1408397393
30
0.0000000000
10
-36.4934930930
20
29.1133164196
30
0.0000000000
10
-36.4935111546
20
29.0947729600
30
0.0000000000
10
-36.4935111546
20
29.0854425825
30
0.0000000000
11
-36.4891480530
21
29.3354425825
31
0.0000000000
11
-36.4896365654
21
29.3338706350
31
0.0000000000
11
-36.4901189345
21
29.3291745605
31
0.0000000000
11
-36.4905890941
21
29.3214134151
31
0.0000000000
11
-36.4910411319
21
29.3106847995
31
0.0000000000
11
-36.4914693630
21
29.2971236323
31
0.0000000000
11
-36.4918684024
21
29.2809004531
31
0.0000000000
11
-36.4922332318
21
29.2622192778
31
0.0000000000
11
-36.4925592632
21
29.2413150330
31
0.0000000000
11
-36.4928423968
21
29.2184506016
31
0.0000000000
11
-36.4930790718
21
29.1939135173
31
0.0000000000
11
-36.4932663119
21
29.1680123480
31
0.0000000000
11
-36.4934017626
21
29.1410728160
31
0.0000000000
11
-36.4934837204
21
29.1134337015
31
0.0000000000
11
-36.4935111546
21
29.0854425825
31
0.0000000000
0
SPLINE
5
3AB
100
AcDbEntity
8
0
100
AcDbSpline
62
9
6
CONTINUOUS
70
0
71
3
72
66
73
62
74
60
42
0.0000001000
43
0.0000001000
44
0.0000000001
12
-0.7630681991
22
-0.2485726623
32
0.0000000000
13
-0.0000000017
23
0.0000000004
33
0.0000000000
40
0.0000000000
40
0.0000000000
40
0.0000000000
40
0.0000000000
40
0.0274685402
40
0.0548635937
40
0.0821682050
40
0.1093653823
40
0.1364381143
40
0.1633694165
40
0.1901423586
40
0.2167398268
40
0.2431446615
40
0.2693404134
40
0.2953108526
40
0.3210395921
40
0.3465081042
40
0.3716966338
40
0.3965819261
40
0.4211423302
40
0.4453629622
40
0.4692295694
40
0.4927279434
40
0.5158436276
40
0.5385623606
40
0.5608705682
40
0.5827548581
40
0.6042018862
40
0.6251985922
40
0.6457322292
40
0.6657903717
40
0.6853609269
40
0.7044323512
40
0.7229931888
40
0.7410322158
40
0.7585385405
40
0.7755016102
40
0.7919112164
40
0.8077575499
40
0.8230313721
40
0.8377235403
40
0.8518252281
40
0.8653279774
40
0.8782237020
40
0.8905046926
40
0.9021636828
40
0.9131939126
40
0.9235888031
40
0.9333421471
40
0.9424481269
40
0.9509013181
40
0.9586966957
40
0.9658296892
40
0.9722961636
40
0.9780922766
40
0.9832145823
40
0.9876600333
40
0.9914259896
40
0.9945102255
40
0.9969109494
40
0.9986267659
40
0.9996566514
40
1.0000000000
40
1.0000000000
40
1.0000000000
40
1.0000000000
10
-32.4623245928
20
30.0854425825
30
0.0000000000
10
-32.4693113826
20
30.0831666064
30
0.0000000000
10
-32.4832774073
20
30.0786548558
30
0.0000000000
10
-32.5042256478
20
30.0719963237
30
0.0000000000
10
-32.5251345947
20
30.0654545579
30
0.0000000000
10
-32.5459895033
20
30.0590295615
30
0.0000000000
10
-32.5667756845
20
30.0527213359
30
0.0000000000
10
-32.5874785127
20
30.0465298756
30
0.0000000000
10
-32.6080833854
20
30.0404551872
30
0.0000000000
10
-32.6285757016
20
30.0344972959
30
0.0000000000
10
-32.6489410276
20
30.0286562001
30
0.0000000000
10
-32.6691652003
20
30.0229318476
30
0.0000000000
10
-32.6892342974
20
30.0173241496
30
0.0000000000
10
-32.7091339009
20
30.0118331890
30
0.0000000000
10
-32.7288487194
20
30.0064593139
30
0.0000000000
10
-32.7483617193
20
30.0012033576
30
0.0000000000
10
-32.7676550846
20
29.9960663588
30
0.0000000000
10
-32.7867122817
20
29.9910490106
30
0.0000000000
10
-32.8055191353
20
29.9861514103
30
0.0000000000
10
-32.8240634307
20
29.9813731971
30
0.0000000000
10
-32.8423330994
20
29.9767140369
30
0.0000000000
10
-32.8603161044
20
29.9721736506
30
0.0000000000
10
-32.8780006049
20
29.9677517723
30
0.0000000000
10
-32.8953750678
20
29.9634481231
30
0.0000000000
10
-32.9124282280
20
29.9592624233
30
0.0000000000
10
-32.9291489831
20
29.9551944192
30
0.0000000000
10
-32.9455264263
20
29.9512438756
30
0.0000000000
10
-32.9615499168
20
29.9474105600
30
0.0000000000
10
-32.9772090915
20
29.9436942409
30
0.0000000000
10
-32.9924939262
20
29.9400946751
30
0.0000000000
10
-33.0073946741
20
29.9366116235
30
0.0000000000
10
-33.0219018387
20
29.9332448590
30
0.0000000000
10
-33.0360061168
20
29.9299941796
30
0.0000000000
10
-33.0496984635
20
29.9268593944
30
0.0000000000
10
-33.0629701204
20
29.9238403180
30
0.0000000000
10
-33.0758126334
20
29.9209367673
30
0.0000000000
10
-33.0882179123
20
29.9181485488
30
0.0000000000
10
-33.1001781656
20
29.9154754753
30
0.0000000000
10
-33.1116858787
20
29.9129173705
30
0.0000000000
10
-33.1227337606
20
29.9104740820
30
0.0000000000
10
-33.1333148154
20
29.9081454656
30
0.0000000000
10
-33.1434223580
20
29.9059313825
30
0.0000000000
10
-33.1530500335
20
29.9038316959
30
0.0000000000
10
-33.1621918515
20
29.9018462640
30
0.0000000000
10
-33.1708421355
20
29.8999749521
30
0.0000000000
10
-33.1789955033
20
29.8982176369
30
0.0000000000
10
-33.1866468371
20
29.8965742137
30
0.0000000000
10
-33.1937913364
20
29.8950445848
30
0.0000000000
10
-33.2004245326
20
29.8936286575
30
0.0000000000
10
-33.2065422817
20
29.8923263454
30
0.0000000000
10
-33.2121408537
20
29.8911375507
30
0.0000000000
10
-33.2172166493
20
29.8900622233
30
0.0000000000
10
-33.2217670048
20
29.8891001931
30
0.0000000000
10
-33.2257875912
20
29.8882517149
30
0.0000000000
10
-33.2292804555
20
29.8875157829
30
0.0000000000
10
-33.2322299290
20
29.8868951824
30
0.0000000000
10
-33.2346724906
20
29.8863818411
30
0.0000000000
10
-33.2365044226
20
29.8859971597
30
0.0000000000
10
-33.2379722923
20
29.8856891682
30
0.0000000000
10
-33.2385696605
20
29.8855638640
30
0.0000000000
10
-33.2391480530
20
29.8854425825
30
0.0000000000
10
-33.2391480530
20
29.8854425825
30
0.0000000000
11
-32.4623245928
21
30.0854425825
31
0.0000000000
11
-32.4833013996
21
30.0786653213
31
0.0000000000
11
-32.5042537127
21
30.0720048726
31
0.0000000000
11
-32.5251667613
21
30.0654612399
31
0.0000000000
11
-32.5460258018
21
30.0590344248
31
0.0000000000
11
-32.5668161297
21
30.0527244298
31
0.0000000000
11
-32.5875231114
21
30.0465312499
31
0.0000000000
11
-32.6081322041
21
30.0404548712
31
0.0000000000
11
-32.6286287700
21
30.0344953280
31
0.0000000000
11
-32.6489981801
21
30.0286526726
31
0.0000000000
11
-32.6692263962
21
30.0229268139
31
0.0000000000
11
-32.6892995916
21
30.0173176341
31
0.0000000000
11
-32.7092038591
21
30.0118250734
31
0.0000000000
11
-32.7289236718
21
30.0064495463
31
0.0000000000
11
-32.7484425826
21
30.0011917283
31
0.0000000000
11
-32.7677414568
21
29.9960530132
31
0.0000000000
11
-32.7868024240
21
29.9910344421
31
0.0000000000
11
-32.8056128938
21
29.9861356876
31
0.0000000000
11
-32.8241608029
21
29.9813563476
31
0.0000000000
11
-32.8424341579
21
29.9766960673
31
0.0000000000
11
-32.8604208061
21
29.9721545959
31
0.0000000000
11
-32.8781087790
21
29.9677316978
31
0.0000000000
11
-32.8954866734
21
29.9634270600
31
0.0000000000
11
-32.9125432588
21
29.9592403927
31
0.0000000000
11
-32.9292673710
21
29.9551714563
31
0.0000000000
11
-32.9456480950
21
29.9512200162
31
0.0000000000
11
-32.9616747875
21
29.9473858391
31
0.0000000000
11
-32.9773370823
21
29.9436686931
31
0.0000000000
11
-32.9926248981
21
29.9400683472
31
0.0000000000
11
-33.0075286080
21
29.9365845329
31
0.0000000000
11
-33.0220386776
21
29.9332170310
31
0.0000000000
11
-33.0361457774
21
29.9299656447
31
0.0000000000
11
-33.0498408602
21
29.9268301826
31
0.0000000000
11
-33.0631151662
21
29.9238104588
31
0.0000000000
11
-33.0759602266
21
29.9209062924
31
0.0000000000
11
-33.0883679061
21
29.9181174993
31
0.0000000000
11
-33.1003305370
21
29.9154438637
31
0.0000000000
11
-33.1118405469
21
29.9128852215
31
0.0000000000
11
-33.1228906311
21
29.9104414226
31
0.0000000000
11
-33.1334737925
21
29.9081123225
31
0.0000000000
11
-33.1435833446
21
29.9058977821
31
0.0000000000
11
-33.1532129150
21
29.9037976676
31
0.0000000000
11
-33.1623564965
21
29.9018118404
31
0.0000000000
11
-33.1710084976
21
29.8999401468
31
0.0000000000
11
-33.1791634862
21
29.8981824738
31
0.0000000000
11
-33.1868163393
21
29.8965387173
31
0.0000000000
11
-33.1939622568
21
29.8950087792
31
0.0000000000
11
-33.2005967638
21
29.8935925676
31
0.0000000000
11
-33.2067157160
21
29.8922899961
31
0.0000000000
11
-33.2123153423
21
29.8911009748
31
0.0000000000
11
-33.2173922299
21
29.8900254144
31
0.0000000000
11
-33.2219432117
21
29.8890632499
31
0.0000000000
11
-33.2259654484
21
29.8882144236
31
0.0000000000
11
-33.2294564294
21
29.8874788852
31
0.0000000000
11
-33.2324139796
21
29.8868565904
31
0.0000000000
11
-33.2348362654
21
29.8863475001
31
0.0000000000
11
-33.2367218097
21
29.8859515770
31
0.0000000000
11
-33.2380694621
21
29.8856687926
31
0.0000000000
11
-33.2388783796
21
29.8854991308
31
0.0000000000
11
-33.2391480530
21
29.8854425825
31
0.0000000000
0
SPLINE
5
3AC
100
AcDbEntity
8
0
100
AcDbSpline
62
9
6
CONTINUOUS
70
0
71
3
72
66
73
62
74
60
42
0.0000001000
43
0.0000001000
44
0.0000000001
12
-0.7630681958
22
0.2485726612
32
0.0000000000
13
-0.0000011227
23
0.0000002349
33
0.0000000000
40
0.0000000000
40
0.0000000000
40
0.0000000000
40
0.0000000000
40
0.0274685360
40
0.0548635852
40
0.0821681922
40
0.1093653654
40
0.1364380935
40
0.1633693925
40
0.1901423315
40
0.2167397940
40
0.2431446307
40
0.2693403850
40
0.2953108143
40
0.3210395208
40
0.3465079745
40
0.3716963991
40
0.3965815462
40
0.4211419213
40
0.4453625911
40
0.4692292409
40
0.4927276216
40
0.5158432929
40
0.5385620209
40
0.5608702351
40
0.5827545295
40
0.6042015594
40
0.6251982645
40
0.6457318990
40
0.6657900399
40
0.6853605987
40
0.7044320308
40
0.7229928749
40
0.7410319065
40
0.7585382330
40
0.7755013033
40
0.7919109110
40
0.8077572512
40
0.8230310825
40
0.8377232595
40
0.8518249568
40
0.8653277163
40
0.8782234515
40
0.8905044525
40
0.9021634558
40
0.9131937013
40
0.9235886071
40
0.9333419649
40
0.9424479570
40
0.9509011595
40
0.9586965482
40
0.9658295552
40
0.9722960446
40
0.9780921722
40
0.9832144916
40
0.9876599557
40
0.9914259247
40
0.9945101735
40
0.9969109115
40
0.9986267423
40
0.9996566418
40
1.0000000000
40
1.0000000000
40
1.0000000000
40
1.0000000000
10
-32.4623245928
20
-16.4145574175
30
0.0000000000
10
-32.4693113815
20
-16.4122814418
30
0.0000000000
10
-32.4832774040
20
-16.4077696919
30
0.0000000000
10
-32.5042256412
20
-16.4011111608
30
0.0000000000
10
-32.5251345846
20
-16.3945693961
30
0.0000000000
10
-32.5459894900
20
-16.3881444006
30
0.0000000000
10
-32.5667756682
20
-16.3818361758
30
0.0000000000
10
-32.5874784937
20
-16.3756447163
30
0.0000000000
10
-32.6080833632
20
-16.3695700287
30
0.0000000000
10
-32.6285756775
20
-16.3636121378
30
0.0000000000
10
-32.6489410031
20
-16.3577710421
30
0.0000000000
10
-32.6691651743
20
-16.3520466899
30
0.0000000000
10
-32.6892342608
20
-16.3464389948
30
0.0000000000
10
-32.7091338381
20
-16.3409480413
30
0.0000000000
10
-32.7288486058
20
-16.3355741798
30
0.0000000000
10
-32.7483615258
20
-16.3303182446
30
0.0000000000
10
-32.7676548186
20
-16.3251812643
30
0.0000000000
10
-32.7867119802
20
-16.3201639246
30
0.0000000000
10
-32.8055188468
20
-16.3152663200
30
0.0000000000
10
-32.8240631645
20
-16.3104881003
30
0.0000000000
10
-32.8423328424
20
-16.3058289371
30
0.0000000000
10
-32.8603158442
20
-16.3012885510
30
0.0000000000
10
-32.8780003416
20
-16.2968666728
30
0.0000000000
10
-32.8953748058
20
-16.2925630227
30
0.0000000000
10
-32.9124279692
20
-16.2883773215
30
0.0000000000
10
-32.9291487255
20
-16.2843093166
30
0.0000000000
10
-32.9455261681
20
-16.2803587726
30
0.0000000000
10
-32.9615496571
20
-16.2765254569
30
0.0000000000
10
-32.9772088315
20
-16.2728091374
30
0.0000000000
10
-32.9924936686
20
-16.2692095705
30
0.0000000000
10
-33.0073944210
20
-16.2657265175
30
0.0000000000
10
-33.0219015903
20
-16.2623597514
30
0.0000000000
10
-33.0360058717
20
-16.2591090709
30
0.0000000000
10
-33.0496982200
20
-16.2559742850
30
0.0000000000
10
-33.0629698778
20
-16.2529552081
30
0.0000000000
10
-33.0758123931
20
-16.2500516565
30
0.0000000000
10
-33.0882176763
20
-16.2472634368
30
0.0000000000
10
-33.1001779359
20
-16.2445903615
30
0.0000000000
10
-33.1116856561
20
-16.2420322548
30
0.0000000000
10
-33.1227335453
20
-16.2395889645
30
0.0000000000
10
-33.1333146079
20
-16.2372603461
30
0.0000000000
10
-33.1434221586
20
-16.2350462611
30
0.0000000000
10
-33.1530498429
20
-16.2329465724
30
0.0000000000
10
-33.1621916711
20
-16.2309611381
30
0.0000000000
10
-33.1708419665
20
-16.2290898236
30
0.0000000000
10
-33.1789953460
20
-16.2273325058
30
0.0000000000
10
-33.1866466905
20
-16.2256890801
30
0.0000000000
10
-33.1937911996
20
-16.2241594490
30
0.0000000000
10
-33.2004244048
20
-16.2227435197
30
0.0000000000
10
-33.2065421633
20
-16.2214412056
30
0.0000000000
10
-33.2121407456
20
-16.2202524086
30
0.0000000000
10
-33.2172165525
20
-16.2191770788
30
0.0000000000
10
-33.2217669193
20
-16.2182150462
30
0.0000000000
10
-33.2257875164
20
-16.2173665656
30
0.0000000000
10
-33.2292803912
20
-16.2166306314
30
0.0000000000
10
-33.2322298746
20
-16.2160100289
30
0.0000000000
10
-33.2346724473
20
-16.2154966852
30
0.0000000000
10
-33.2365043881
20
-16.2151120019
30
0.0000000000
10
-33.2379722737
20
-16.2148040071
30
0.0000000000
10
-33.2385696420
20
-16.2146787029
30
0.0000000000
10
-33.2391480529
20
-16.2145574175
30
0.0000000000
10
-33.2391480530
20
-16.2145574175
30
0.0000000000
11
-32.4623245928
21
-16.4145574175
31
0.0000000000
11
-32.4833013963
21
-16.4077801573
31
0.0000000000
11
-32.5042537060
21
-16.4011197097
31
0.0000000000
11
-32.5251667512
21
-16.3945760781
31
0.0000000000
11
-32.5460257884
21
-16.3881492639
31
0.0000000000
11
-32.5668161132
21
-16.3818392698
31
0.0000000000
11
-32.5875230924
21
-16.3756460906
31
0.0000000000
11
-32.6081321825
21
-16.3695697125
31
0.0000000000
11
-32.6286287440
21
-16.3636101705
31
0.0000000000
11
-32.6489981556
21
-16.3577675146
31
0.0000000000
11
-32.6692263733
21
-16.3520416553
31
0.0000000000
11
-32.6892995610
21
-16.3464324776
31
0.0000000000
11
-32.7092038029
21
-16.3409399239
31
0.0000000000
11
-32.7289235702
21
-16.3355644088
31
0.0000000000
11
-32.7484423994
21
-16.3303066123
31
0.0000000000
11
-32.7677411608
21
-16.3251679265
31
0.0000000000
11
-32.7868021052
21
-16.3201493606
31
0.0000000000
11
-32.8056126040
21
-16.3152505977
31
0.0000000000
11
-32.8241605459
21
-16.3104712485
31
0.0000000000
11
-32.8424339059
21
-16.3058109663
31
0.0000000000
11
-32.8604205439
21
-16.3012694968
31
0.0000000000
11
-32.8781085125
21
-16.2968465991
31
0.0000000000
11
-32.8954864120
21
-16.2925419594
31
0.0000000000
11
-32.9125430006
21
-16.2883552908
31
0.0000000000
11
-32.9292671140
21
-16.2842863535
31
0.0000000000
11
-32.9456478372
21
-16.2803349131
31
0.0000000000
11
-32.9616745276
21
-16.2765007360
31
0.0000000000
11
-32.9773368209
21
-16.2727835899
31
0.0000000000
11
-32.9926246394
21
-16.2691832429
31
0.0000000000
11
-33.0075283551
21
-16.2656994268
31
0.0000000000
11
-33.0220384297
21
-16.2623319233
31
0.0000000000
11
-33.0361455330
21
-16.2590805358
31
0.0000000000
11
-33.0498406171
21
-16.2559450731
31
0.0000000000
11
-33.0631149234
21
-16.2529253488
31
0.0000000000
11
-33.0759599849
21
-16.2500211819
31
0.0000000000
11
-33.0883676695
21
-16.2472323874
31
0.0000000000
11
-33.1003303074
21
-16.2445587498
31
0.0000000000
11
-33.1118403241
21
-16.2420001059
31
0.0000000000
11
-33.1228904156
21
-16.2395563052
31
0.0000000000
11
-33.1334735849
21
-16.2372272031
31
0.0000000000
11
-33.1435831452
21
-16.2350126607
31
0.0000000000
11
-33.1532127236
21
-16.2329125443
31
0.0000000000
11
-33.1623563154
21
-16.2309267147
31
0.0000000000
11
-33.1710083288
21
-16.2290550182
31
0.0000000000
11
-33.1791633293
21
-16.2272973425
31
0.0000000000
11
-33.1868161932
21
-16.2256535836
31
0.0000000000
11
-33.1939621202
21
-16.2241236434
31
0.0000000000
11
-33.2005966361
21
-16.2227074299
31
0.0000000000
11
-33.2067155970
21
-16.2214048564
31
0.0000000000
11
-33.2123152339
21
-16.2202158328
31
0.0000000000
11
-33.2173921331
21
-16.2191402699
31
0.0000000000
11
-33.2219431264
21
-16.2181781029
31
0.0000000000
11
-33.2259653739
21
-16.2173292743
31
0.0000000000
11
-33.2294563650
21
-16.2165937337
31
0.0000000000
11
-33.2324139253
21
-16.2159714368
31
0.0000000000
11
-33.2348362212
21
-16.2154623443
31
0.0000000000
11
-33.2367217765
21
-16.2150664190
31
0.0000000000
11
-33.2380694401
21
-16.2147836322
31
0.0000000000
11
-33.2388783687
21
-16.2146139681
31
0.0000000000
11
-33.2391480530
21
-16.2145574175
31
0.0000000000
0
SPLINE
5
3AD
100
AcDbEntity
8
0
100
AcDbSpline
62
7
6
CONTINUOUS
70
0
71
3
72
20
73
16
74
14
42
0.0000001000
43
0.0000001000
44
0.0000000001
12
-0.6192694921
22
-0.3153589867
32
0.0000000000
13
-0.6949431591
23
0.0000000000
33
0.0000000000
40
0.0000000000
40
0.0000000000
40
0.0000000000
40
0.0000000000
40
0.0832654324
40
0.1666283762
40
0.2497522776
40
0.3323209093
40
0.4140293772
40
0.4945753218
40
0.5736548515
40
0.6509580909
40
0.7261670743
40
0.7989585370
40
0.8690152456
40
0.9360681556
40
1.0000000000
40
1.0000000000
40
1.0000000000
40
1.0000000000
10
-31.2916575772
20
-15.4145574175
30
0.0000000000
10
-31.3088454912
20
-15.4233102516
30
0.0000000000
10
-31.3432381164
20
-15.4408327117
30
0.0000000000
10
-31.3948432988
20
-15.4669873496
30
0.0000000000
10
-31.4464278531
20
-15.4928247567
30
0.0000000000
10
-31.4978641337
20
-15.5180996700
30
0.0000000000
10
-31.5490340117
20
-15.5425566462
30
0.0000000000
10
-31.5998243872
20
-15.5659219585
30
0.0000000000
10
-31.6501232285
20
-15.5878937973
30
0.0000000000
10
-31.6998157369
20
-15.6081298478
30
0.0000000000
10
-31.7487804016
20
-15.6262304090
30
0.0000000000
10
-31.7968809884
20
-15.6417148357
30
0.0000000000
10
-31.8439672936
20
-15.6539878946
30
0.0000000000
10
-31.8898434066
20
-15.6622901432
30
0.0000000000
10
-31.9201979166
20
-15.6645574175
30
0.0000000000
10
-31.9350075826
20
-15.6645574175
30
0.0000000000
11
-31.2916575772
21
-15.4145574175
31
0.0000000000
11
-31.3432272394
21
-15.4408042913
31
0.0000000000
11
-31.3949133641
21
-15.4669714451
31
0.0000000000
11
-31.4465756290
21
-15.4928164797
31
0.0000000000
11
-31.4980886630
21
-15.5180935397
31
0.0000000000
11
-31.5493366190
21
-15.5425460787
31
0.0000000000
11
-31.6002077234
21
-15.5658980579
31
0.0000000000
11
-31.6505912679
21
-15.5878442646
31
0.0000000000
11
-31.7003731644
21
-15.6080370114
31
0.0000000000
11
-31.7494303752
21
-15.6260681383
31
0.0000000000
11
-31.7976229326
21
-15.6414438861
31
0.0000000000
11
-31.8447795152
21
-15.6535487553
31
0.0000000000
11
-31.8906774128
21
-15.6615956787
31
0.0000000000
11
-31.9350075826
21
-15.6645574175
31
0.0000000000
0
ENDSEC
0
SECTION
2
OBJECTS
0
DICTIONARY
5
3AE
100
AcDbDictionary
3
ACAD_GROUP
350
3AF
3
ACAD_MLINESTYLE
350
3B0
0
DICTIONARY
5
3AF
102
{ACAD_REACTORS
330
3AE
102
}
100
AcDbDictionary
0
DICTIONARY
5
3B0
102
{ACAD_REACTORS
330
3AE
102
}
100
AcDbDictionary
3
STANDARD
350
3B1
0
MLINESTYLE
5
3B1
102
{ACAD_REACTORS
330
3B0
102
}
100
AcDbMlineStyle
2
STANDARD
70
0
3

62
256
51
90.0
52
90.0
71
2
49
0.5
62
256
6
BYLAYER
49
-0.5
62
256
6
BYLAYER
0
ENDSEC
0
EOF
