  0
SECTION
  2
HEADER
  9
$ACADVER
  1
AC1024
  9
$DWGCODEPAGE
  3
ANSI_1252
  9
$EXTMAX
 10
297.0
 20
210.0
 30
0.0
  9
$EXTMIN
 10
0.0
 20
0.0
 30
0.0
  9
$LIMMIN
 10
0.0
 20
0.0
  9
$LIMMAX
 10
297.0
 20
210.0
  9
$VIEWCTR
 10
148.5
 20
105.0
  9
$VIEWSIZE
 40
210.0
  9
$CLAYER
  8
0
  9
$LTSCALE
 40
16.335
  9
$CELTYPE
  6
BYLAYER
  9
$DIMSCALE
 40
1.0
  9
$DIMASZ
 40
3.0
  9
$DIMEXO
 40
0.5
  9
$DIMDLI
 40
11.286
  9
$DIMEXE
 40
1.5
  9
$DIMCEN
 40
2.673
  9
$DIMLFAC
 40
1.0
  9
$DIMBLK
  1
_FILLED
  9
$DIMALT
 70
0
  9
$DIMALTF
 40
0.0393700787
  9
$DIMTXT
 40
3.0
  9
$DIMTOL
 70
1
  9
$DIMLIM
 70
0
  9
$DIMTFAC
 40
1.0
  9
$DIMTP
 40
0.01
  9
$DIMTM
 40
0.01
  9
$DIMGAP
 40
0.625
  9
$DIMDSEP
 70
44
  9
$AUNITS
 70
0
  9
$PDMODE
 70
3
  9
$PDSIZE
 40
3.0
  9
$HANDSEED
  5
497
  9
$TILEMODE
 70
1
  9
$MEASUREMENT
 70
1
  9
$INSUNITS
 70
4
  0
ENDSEC
  0
SECTION
  2
CLASSES
  0
CLASS
  1
ACDBDICTIONARYWDFLT
  2
AcDbDictionaryWithDefault
  3
AutoCAD 2000
 90
0
 91
1
280
0
281
0
  0
CLASS
  1
ACDBPLACEHOLDER
  2
AcDbPlaceHolder
  3
AutoCAD 2000
 90
0
 91
1
280
0
281
0
  0
CLASS
  1
LAYOUT
  2
AcDbLayout
  3
AutoCAD 2000
 90
0
 91
0
280
0
281
0
  0
ENDSEC
  0
SECTION
  2
TABLES
  0
TABLE
  2
VPORT
  5
8
100
AcDbSymbolTable
 70
2
  0
VPORT
  5
1F4
100
AcDbSymbolTableRecord
100
AcDbViewportTableRecord
  2
*ACTIVE
 70
0
 10
0.0
 20
0.0
 11
1.0
 21
1.0
 12
148.5
 22
105.0
 13
0.0
 23
0.0
 14
1.0
 24
1.0
 15
0.0
 25
0.0
 16
0.0
 26
0.0
 36
1.0
 17
0.0
 27
0.0
 37
0.0
 40
210.0
 41
1.4142857143
 42
50.0
 43
0.0
 44
0.0
 50
0.0
 51
0.0
 71
0
 72
100
 73
1
 74
1
 75
0
 76
0
 77
0
 78
0
  0
ENDTAB
  0
TABLE
  2
LTYPE
  5
5
100
AcDbSymbolTable
 70
6
  0
LTYPE
  5
14
100
AcDbSymbolTableRecord
100
AcDbLinetypeTableRecord
  2
BYBLOCK
 70
0
  3

 72
65
 73
0
 40
0.0
  0
LTYPE
  5
15
100
AcDbSymbolTableRecord
100
AcDbLinetypeTableRecord
  2
BYLAYER
 70
0
  3

 72
65
 73
0
 40
0.0
  0
LTYPE
  5
16
100
AcDbSymbolTableRecord
100
AcDbLinetypeTableRecord
  2
CONTINUOUS
 70
64
  3
Solid line
 72
65
 73
0
 40
0.0
  0
LTYPE
  5
1F5
100
AcDbSymbolTableRecord
100
AcDbLinetypeTableRecord
  2
CENTER
 70
64
  3
____ _ ____ _ ____ _ ____ _ ____ _ ____ _ ____
 72
65
 73
4
 40
0.6
 49
0.375
 74
0
 49
-0.075
 74
0
 49
0.075
 74
0
 49
-0.075
 74
0
  0
LTYPE
  5
1F6
100
AcDbSymbolTableRecord
100
AcDbLinetypeTableRecord
  2
HIDDEN
 70
64
  3
- - - - - - - - - - - - - - - - - - - -
 72
65
 73
2
 40
0.2
 49
0.1
 74
0
 49
-0.1
 74
0
  0
LTYPE
  5
1F7
100
AcDbSymbolTableRecord
100
AcDbLinetypeTableRecord
  2
PHANTOM
 70
64
  3
_____ _ _ _____ _ _ _____ _ _ _____
 72
65
 73
6
 40
0.8
 49
0.45
 74
0
 49
-0.05
 74
0
 49
0.1
 74
0
 49
-0.05
 74
0
 49
0.1
 74
0
 49
-0.05
 74
0
  0
LTYPE
  5
1F8
100
AcDbSymbolTableRecord
100
AcDbLinetypeTableRecord
  2
DOT
 70
64
  3
. . . . . . . . . . . . . . . . . . . .
 72
65
 73
2
 40
0.2
 49
0.1
 74
0
 49
-0.1
 74
0
  0
LTYPE
  5
1F9
100
AcDbSymbolTableRecord
100
AcDbLinetypeTableRecord
  2
DASHED
 70
64
  3
- - - - - - - - - - - - - - - - - - - -
 72
65
 73
2
 40
0.2
 49
0.1
 74
0
 49
-0.1
 74
0
  0
ENDTAB
  0
TABLE
  2
LAYER
  5
2
100
AcDbSymbolTable
 70
36
  0
LAYER
  5
10
100
AcDbSymbolTableRecord
100
AcDbLayerTableRecord
  2
0
 70
0
 62
7
  6
CONTINUOUS
370
-3
390
F
  0
LAYER
  5
1FA
100
AcDbSymbolTableRecord
100
AcDbLayerTableRecord
  2
DEFAULT_1
 70
0
 62
7
  6
CENTER
370
-3
390
F
  0
LAYER
  5
1FB
100
AcDbSymbolTableRecord
100
AcDbLayerTableRecord
  2
DEFAULT_2
 70
0
 62
7
  6
HIDDEN
370
-3
390
F
  0
LAYER
  5
1FC
100
AcDbSymbolTableRecord
100
AcDbLayerTableRecord
  2
DEFAULT_3
 70
0
 62
7
  6
PHANTOM
370
-3
390
F
  0
LAYER
  5
1FD
100
AcDbSymbolTableRecord
100
AcDbLayerTableRecord
  2
ASSI
 70
0
 62
7
  6
CONTINUOUS
370
-3
390
F
  0
LAYER
  5
1FE
100
AcDbSymbolTableRecord
100
AcDbLayerTableRecord
  2
COORDINATE
 70
0
 62
7
  6
CONTINUOUS
370
-3
390
F
  0
LAYER
  5
1FF
100
AcDbSymbolTableRecord
100
AcDbLayerTableRecord
  2
COORD_ORIGINE
 70
0
 62
7
  6
CONTINUOUS
370
-3
390
F
  0
LAYER
  5
200
100
AcDbSymbolTableRecord
100
AcDbLayerTableRecord
  2
COSMETICI
 70
0
 62
7
  6
CONTINUOUS
370
-3
390
F
  0
LAYER
  5
201
100
AcDbSymbolTableRecord
100
AcDbLayerTableRecord
  2
CURVE
 70
0
 62
7
  6
CONTINUOUS
370
-3
390
F
  0
LAYER
  5
202
100
AcDbSymbolTableRecord
100
AcDbLayerTableRecord
  2
DRAFT
 70
0
 62
7
  6
CONTINUOUS
370
-3
390
F
  0
LAYER
  5
203
100
AcDbSymbolTableRecord
100
AcDbLayerTableRecord
  2
IGES
 70
0
 62
7
  6
CONTINUOUS
370
-3
390
F
  0
LAYER
  5
204
100
AcDbSymbolTableRecord
100
AcDbLayerTableRecord
  2
NOTE
 70
0
 62
7
  6
CONTINUOUS
370
-3
390
F
  0
LAYER
  5
205
100
AcDbSymbolTableRecord
100
AcDbLayerTableRecord
  2
PIANI
 70
0
 62
7
  6
CONTINUOUS
370
-3
390
F
  0
LAYER
  5
206
100
AcDbSymbolTableRecord
100
AcDbLayerTableRecord
  2
PIANI_ORIGINE
 70
0
 62
7
  6
CONTINUOUS
370
-3
390
F
  0
LAYER
  5
207
100
AcDbSymbolTableRecord
100
AcDbLayerTableRecord
  2
PIANO_SFORMI
 70
0
 62
7
  6
CONTINUOUS
370
-3
390
F
  0
LAYER
  5
208
100
AcDbSymbolTableRecord
100
AcDbLayerTableRecord
  2
PUNTI
 70
0
 62
7
  6
CONTINUOUS
370
-3
390
F
  0
LAYER
  5
209
100
AcDbSymbolTableRecord
100
AcDbLayerTableRecord
  2
RACCORDO
 70
0
 62
7
  6
CONTINUOUS
370
-3
390
F
  0
LAYER
  5
20A
100
AcDbSymbolTableRecord
100
AcDbLayerTableRecord
  2
SNAPLINE
 70
0
 62
7
  6
CONTINUOUS
370
-3
390
F
  0
LAYER
  5
20B
100
AcDbSymbolTableRecord
100
AcDbLayerTableRecord
  2
TRASH
 70
0
 62
7
  6
CONTINUOUS
370
-3
390
F
  0
LAYER
  5
20C
100
AcDbSymbolTableRecord
100
AcDbLayerTableRecord
  2
XSEC_DATUMS
 70
0
 62
7
  6
CONTINUOUS
370
-3
390
F
  0
ENDTAB
  0
TABLE
  2
STYLE
  5
3
100
AcDbSymbolTable
 70
1
  0
STYLE
  5
11
100
AcDbSymbolTableRecord
100
AcDbTextStyleTableRecord
  2
STANDARD
 70
0
 40
0.0
 41
0.8
 50
0.0
 71
0
 42
0.2
  3
txt
  4

  0
STYLE
  5
20D
100
AcDbSymbolTableRecord
100
AcDbTextStyleTableRecord
  2
TEXTSTYLE_1
 70
0
 40
0.0
 41
0.8
 50
0.0
 71
0
 42
0.2
  3
gdt
  4

  0
STYLE
  5
20E
100
AcDbSymbolTableRecord
100
AcDbTextStyleTableRecord
  2
TEXTSTYLE_2
 70
0
 40
0.0
 41
0.7142857143
 50
0.0
 71
0
 42
0.2
  3
txt
  4

  0
STYLE
  5
20F
100
AcDbSymbolTableRecord
100
AcDbTextStyleTableRecord
  2
TEXTSTYLE_3
 70
0
 40
0.0
 41
0.7321428571
 50
0.0
 71
0
 42
0.2
  3
txt
  4

  0
STYLE
  5
210
100
AcDbSymbolTableRecord
100
AcDbTextStyleTableRecord
  2
TEXTSTYLE_4
 70
0
 40
0.0
 41
0.6607142857
 50
0.0
 71
0
 42
0.2
  3
txt
  4

  0
ENDTAB
  0
TABLE
  2
VIEW
  5
6
100
AcDbSymbolTable
 70
0
  0
ENDTAB
  0
TABLE
  2
UCS
  5
7
100
AcDbSymbolTable
 70
0
  0
ENDTAB
  0
TABLE
  2
APPID
  5
9
100
AcDbSymbolTable
 70
1
  0
APPID
  5
211
100
AcDbSymbolTableRecord
100
AcDbRegAppTableRecord
  2
ACAD
 70
0
  0
ENDTAB
  0
TABLE
  2
BLOCK_RECORD
  5
1
100
AcDbSymbolTable
 70
0
  0
BLOCK_RECORD
  5
212
100
AcDbSymbolTableRecord
100
AcDbBlockTableRecord
  2
*Model_Space
  0
BLOCK_RECORD
  5
213
100
AcDbSymbolTableRecord
100
AcDbBlockTableRecord
  2
*Paper_Space
  0
BLOCK_RECORD
  5
214
100
AcDbSymbolTableRecord
100
AcDbBlockTableRecord
  2
_FILLED
  0
BLOCK_RECORD
  5
215
100
AcDbSymbolTableRecord
100
AcDbBlockTableRecord
  2
*D0
  0
BLOCK_RECORD
  5
216
100
AcDbSymbolTableRecord
100
AcDbBlockTableRecord
  2
*D1
  0
BLOCK_RECORD
  5
217
100
AcDbSymbolTableRecord
100
AcDbBlockTableRecord
  2
*D2
  0
BLOCK_RECORD
  5
218
100
AcDbSymbolTableRecord
100
AcDbBlockTableRecord
  2
*D3
  0
ENDTAB
  0
TABLE
  2
DIMSTYLE
  5
A
100
AcDbSymbolTable
 70
1
100
AcDbDimStyleTable
 71
0
  0
DIMSTYLE
105
219
100
AcDbSymbolTableRecord
100
AcDbDimStyleTableRecord
  2
STANDARD
 70
0
  3

  4

 40
1.0
 41
3.0
 42
0.5
 43
0.38
 44
1.5
 45
0.0
 46
0.0
 47
0.01
 48
0.01
140
3.0
141
0.09
142
0.0
143
25.4
144
1.0
145
0.0
146
1.0
147
0.625
 71
1
 72
0
 73
0
 74
0
 75
0
 76
0
 77
1
 78
8
 79
2
170
0
171
1
172
0
173
0
174
0
175
0
176
0
177
0
178
0
270
2
179
2
271
2
272
2
273
2
274
2
275
0
280
0
281
0
282
0
283
1
284
8
285
0
286
0
287
3
288
0
340
11
278
44
341
214
342
214
343
214
344
214
  0
DIMSTYLE
105
21A
100
AcDbSymbolTableRecord
100
AcDbDimStyleTableRecord
  2
DIMSTYLE_1
 70
0
  3

  4

 40
1.0
 41
3.0
 42
0.5
 43
0.38
 44
1.5
 45
0.0
 46
0.0
 47
0.0
 48
0.0
140
3.0
141
0.09
142
0.0
143
25.4
144
1.0
145
0.0
146
1.0
147
0.75
 71
0
 72
0
 73
0
 74
0
 75
0
 76
0
 77
1
 78
8
 79
2
170
0
171
1
172
0
173
0
174
0
175
0
176
0
177
0
178
0
270
2
179
2
271
2
272
0
273
2
274
2
275
0
280
0
281
0
282
0
283
1
284
8
285
0
286
0
287
3
288
0
340
20E
278
44
341
214
342
214
343
214
344
214
  0
DIMSTYLE
105
21B
100
AcDbSymbolTableRecord
100
AcDbDimStyleTableRecord
  2
DIMSTYLE_2
 70
0
  3

  4

 40
1.0
 41
3.0
 42
0.5
 43
0.38
 44
1.5
 45
0.0
 46
0.0
 47
0.0
 48
0.0
140
3.0
141
0.09
142
0.0
143
25.4
144
1.0
145
0.0
146
1.0
147
0.75
 71
0
 72
0
 73
0
 74
0
 75
0
 76
0
 77
1
 78
8
 79
2
170
0
171
1
172
0
173
0
174
0
175
0
176
0
177
0
178
0
270
2
179
2
271
2
272
0
273
2
274
2
275
0
280
0
281
0
282
0
283
1
284
8
285
0
286
0
287
3
288
0
340
20F
278
44
341
214
342
214
343
214
344
214
  0
DIMSTYLE
105
21C
100
AcDbSymbolTableRecord
100
AcDbDimStyleTableRecord
  2
DIMSTYLE_3
 70
0
  3

  4

 40
1.0
 41
3.0
 42
0.5
 43
0.38
 44
1.5
 45
0.0
 46
0.0
 47
0.0
 48
0.0
140
3.0
141
0.09
142
0.0
143
25.4
144
1.0
145
0.0
146
1.0
147
0.75
 71
0
 72
0
 73
0
 74
0
 75
0
 76
0
 77
1
 78
8
 79
2
170
0
171
1
172
0
173
0
174
0
175
0
176
0
177
0
178
0
270
2
179
2
271
2
272
0
273
2
274
2
275
0
280
0
281
0
282
0
283
1
284
8
285
0
286
0
287
3
288
0
340
210
278
44
341
214
342
214
343
214
344
214
  0
ENDTAB
  0
ENDSEC
  0
SECTION
  2
BLOCKS
  0
BLOCK
  5
20
100
AcDbEntity
  8
0
100
AcDbBlockBegin
  2
*Model_Space
 70
0
 10
0.0
 20
0.0
 30
0.0
  3
*Model_Space
  1

  0
ENDBLK
  5
21
100
AcDbEntity
  8
0
100
AcDbBlockEnd
  0
BLOCK
  5
1C
100
AcDbEntity
  8
0
100
AcDbBlockBegin
  2
*Paper_Space
 70
0
 10
0.0
 20
0.0
 30
0.0
  3
*Paper_Space
  1

  0
ENDBLK
  5
1D
100
AcDbEntity
  8
0
100
AcDbBlockEnd
  0
BLOCK
  5
21D
100
AcDbEntity
  8
0
100
AcDbBlockBegin
  2
_FILLED
 70
64
 10
0.0
 20
0.0
  3
_FILLED
  1

  0
SOLID
  5
21E
100
AcDbEntity
  8
0
  6
BYBLOCK
 62
0
100
AcDbTrace
 10
0.0
 20
0.0
 11
-1.0
 21
0.3166666667
 12
-1.0
 22
-0.3166666667
 13
-1.0
 23
-0.3166666667
  0
ENDBLK
  5
21F
100
AcDbEntity
  8
0
  6
BYBLOCK
 62
0
100
AcDbBlockEnd
  0
BLOCK
  5
220
100
AcDbEntity
  8
0
100
AcDbBlockBegin
 62
7
  6
CONTINUOUS
  2
*D0
 70
65
 10
0.0
 20
0.0
  3
*D0
  1

  0
LINE
  5
221
100
AcDbEntity
  8
0
100
AcDbLine
 62
7
  6
CONTINUOUS
 10
57.067845981
 20
50.2
 11
69.717845981
 21
50.2
  0
LINE
  5
222
100
AcDbEntity
  8
0
100
AcDbLine
 62
7
  6
CONTINUOUS
 10
69.717845981
 20
50.2
 11
71.967845981
 21
50.2
  0
LINE
  5
223
100
AcDbEntity
  8
0
100
AcDbLine
 62
7
  6
CONTINUOUS
 10
57.067845981
 20
0.0
 11
69.717845981
 21
0.0
  0
LINE
  5
224
100
AcDbEntity
  8
0
100
AcDbLine
 62
7
  6
CONTINUOUS
 10
69.717845981
 20
0.0
 11
71.967845981
 21
0.0
  0
LINE
  5
225
100
AcDbEntity
  8
0
100
AcDbLine
 62
7
  6
CONTINUOUS
 10
70.467845981
 20
50.2
 11
70.467845981
 21
25.1
  0
LINE
  5
226
100
AcDbEntity
  8
0
100
AcDbLine
 62
7
  6
CONTINUOUS
 10
70.467845981
 20
0.0
 11
70.467845981
 21
25.1
  0
INSERT
  5
227
100
AcDbEntity
  8
0
100
AcDbBlockReference
 62
7
  6
CONTINUOUS
  2
_FILLED
 10
70.467845981
 20
50.2
 41
3.0
 42
3.0
 43
3.0
 50
90.0
  0
INSERT
  5
228
100
AcDbEntity
  8
0
100
AcDbBlockReference
 62
7
  6
CONTINUOUS
  2
_FILLED
 10
70.467845981
 20
0.0
 41
3.0
 42
3.0
 43
3.0
 50
270.0
  0
ENDBLK
  5
229
100
AcDbEntity
  8
0
  6
BYBLOCK
 62
0
100
AcDbBlockEnd
  0
BLOCK
  5
22A
100
AcDbEntity
  8
0
100
AcDbBlockBegin
 62
7
  6
CONTINUOUS
  2
*D1
 70
65
 10
0.0
 20
0.0
  3
*D1
  1

  0
LINE
  5
22B
100
AcDbEntity
  8
0
100
AcDbLine
 62
7
  6
CONTINUOUS
 10
62.467845981
 20
44.3543443947
 11
62.467845981
 21
58.95
  0
LINE
  5
22C
100
AcDbEntity
  8
0
100
AcDbLine
 62
7
  6
CONTINUOUS
 10
62.467845981
 20
58.95
 11
62.467845981
 21
59.7
  0
LINE
  5
22D
100
AcDbEntity
  8
0
100
AcDbLine
 62
7
  6
CONTINUOUS
 10
37.667845981
 20
44.3543443947
 11
37.667845981
 21
58.95
  0
LINE
  5
22E
100
AcDbEntity
  8
0
100
AcDbLine
 62
7
  6
CONTINUOUS
 10
37.667845981
 20
58.95
 11
37.667845981
 21
59.7
  0
LINE
  5
22F
100
AcDbEntity
  8
0
100
AcDbLine
 62
7
  6
CONTINUOUS
 10
62.467845981
 20
58.2
 11
50.067845981
 21
58.2
  0
LINE
  5
230
100
AcDbEntity
  8
0
100
AcDbLine
 62
7
  6
CONTINUOUS
 10
37.667845981
 20
58.2
 11
50.067845981
 21
58.2
  0
INSERT
  5
231
100
AcDbEntity
  8
0
100
AcDbBlockReference
 62
7
  6
CONTINUOUS
  2
_FILLED
 10
62.467845981
 20
58.2
 41
3.0
 42
3.0
 43
3.0
  0
INSERT
  5
232
100
AcDbEntity
  8
0
100
AcDbBlockReference
 62
7
  6
CONTINUOUS
  2
_FILLED
 10
37.667845981
 20
58.2
 41
3.0
 42
3.0
 43
3.0
 50
180.0
  0
ENDBLK
  5
233
100
AcDbEntity
  8
0
  6
BYBLOCK
 62
0
100
AcDbBlockEnd
  0
BLOCK
  5
234
100
AcDbEntity
  8
0
100
AcDbBlockBegin
 62
7
  6
CONTINUOUS
  2
*D2
 70
65
 10
0.0
 20
0.0
  3
*D2
  1

  0
LINE
  5
235
100
AcDbEntity
  8
0
100
AcDbLine
 62
7
  6
CONTINUOUS
 10
20.5
 20
47.0785418102
 11
20.5
 21
58.95
  0
LINE
  5
236
100
AcDbEntity
  8
0
100
AcDbLine
 62
7
  6
CONTINUOUS
 10
20.5
 20
58.95
 11
20.5
 21
59.7
  0
LINE
  5
237
100
AcDbEntity
  8
0
100
AcDbLine
 62
7
  6
CONTINUOUS
 10
10.0
 20
50.0174311486
 11
10.0
 21
58.95
  0
LINE
  5
238
100
AcDbEntity
  8
0
100
AcDbLine
 62
7
  6
CONTINUOUS
 10
10.0
 20
58.95
 11
10.0
 21
59.7
  0
LINE
  5
239
100
AcDbEntity
  8
0
100
AcDbLine
 62
7
  6
CONTINUOUS
 10
20.5
 20
58.2
 11
24.5
 21
58.2
  0
LINE
  5
23A
100
AcDbEntity
  8
0
100
AcDbLine
 62
7
  6
CONTINUOUS
 10
24.5
 20
58.2
 11
15.25
 21
58.2
  0
LINE
  5
23B
100
AcDbEntity
  8
0
100
AcDbLine
 62
7
  6
CONTINUOUS
 10
10.0
 20
58.2
 11
6.0
 21
58.2
  0
LINE
  5
23C
100
AcDbEntity
  8
0
100
AcDbLine
 62
7
  6
CONTINUOUS
 10
6.0
 20
58.2
 11
15.25
 21
58.2
  0
INSERT
  5
23D
100
AcDbEntity
  8
0
100
AcDbBlockReference
 62
7
  6
CONTINUOUS
  2
_FILLED
 10
20.5
 20
58.2
 41
3.0
 42
3.0
 43
3.0
 50
180.0
  0
INSERT
  5
23E
100
AcDbEntity
  8
0
100
AcDbBlockReference
 62
7
  6
CONTINUOUS
  2
_FILLED
 10
10.0
 20
58.2
 41
3.0
 42
3.0
 43
3.0
  0
ENDBLK
  5
23F
100
AcDbEntity
  8
0
  6
BYBLOCK
 62
0
100
AcDbBlockEnd
  0
BLOCK
  5
240
100
AcDbEntity
  8
0
100
AcDbBlockBegin
 62
7
  6
CONTINUOUS
  2
*D3
 70
65
 10
0.0
 20
0.0
  3
*D3
  1

  0
LINE
  5
241
100
AcDbEntity
  8
0
100
AcDbLine
 62
7
  6
CONTINUOUS
 10
20.5
 20
47.0785418102
 11
20.5
 21
68.95
  0
LINE
  5
242
100
AcDbEntity
  8
0
100
AcDbLine
 62
7
  6
CONTINUOUS
 10
20.5
 20
68.95
 11
20.5
 21
69.7
  0
LINE
  5
243
100
AcDbEntity
  8
0
100
AcDbLine
 62
7
  6
CONTINUOUS
 10
0.0
 20
26.1
 11
0.0
 21
68.95
  0
LINE
  5
244
100
AcDbEntity
  8
0
100
AcDbLine
 62
7
  6
CONTINUOUS
 10
0.0
 20
68.95
 11
0.0
 21
69.7
  0
LINE
  5
245
100
AcDbEntity
  8
0
100
AcDbLine
 62
7
  6
CONTINUOUS
 10
20.5
 20
68.2
 11
10.25
 21
68.2
  0
LINE
  5
246
100
AcDbEntity
  8
0
100
AcDbLine
 62
7
  6
CONTINUOUS
 10
0.0
 20
68.2
 11
10.25
 21
68.2
  0
INSERT
  5
247
100
AcDbEntity
  8
0
100
AcDbBlockReference
 62
7
  6
CONTINUOUS
  2
_FILLED
 10
20.5
 20
68.2
 41
3.0
 42
3.0
 43
3.0
  0
INSERT
  5
248
100
AcDbEntity
  8
0
100
AcDbBlockReference
 62
7
  6
CONTINUOUS
  2
_FILLED
 10
0.0
 20
68.2
 41
3.0
 42
3.0
 43
3.0
 50
180.0
  0
ENDBLK
  5
249
100
AcDbEntity
  8
0
  6
BYBLOCK
 62
0
100
AcDbBlockEnd
  0
ENDSEC
  0
SECTION
  2
ENTITIES
  0
DIMENSION
  5
24A
100
AcDbEntity
  8
0
100
AcDbDimension
 62
7
  6
CONTINUOUS
  2
*D0
 10
70.467845981
 20
0.0
 11
70.467845981
 21
20.3044264578
 70
160
 71
2
 72
2
 41
0.9
  1
50,2
  3
DIMSTYLE_1
100
AcDbAlignedDimension
 13
56.567845981
 23
50.2
 14
56.567845981
 24
0.0
 50
270.0
100
AcDbRotatedDimension
  0
DIMENSION
  5
24B
100
AcDbEntity
  8
0
100
AcDbDimension
 62
7
  6
CONTINUOUS
  2
*D1
 10
37.667845981
 20
58.2
 11
46.5953044092
 21
58.2
 70
160
 71
2
 72
2
 41
0.9
  1
24,8
  3
DIMSTYLE_2
100
AcDbAlignedDimension
 13
62.467845981
 23
43.8543443947
 14
37.667845981
 24
43.8543443947
 50
180.0
100
AcDbRotatedDimension
  0
DIMENSION
  5
24C
100
AcDbEntity
  8
0
100
AcDbDimension
 62
7
  6
CONTINUOUS
  2
*D2
 10
10.0
 20
58.2
 11
10.9126940277
 21
58.2
 70
160
 71
2
 72
2
 41
0.9
  1
10,5
  3
DIMSTYLE_3
100
AcDbAlignedDimension
 13
20.5
 23
46.5785418102
 14
10.0
 24
49.5174311486
 50
180.0
100
AcDbRotatedDimension
  0
DIMENSION
  5
24D
100
AcDbEntity
  8
0
100
AcDbDimension
 62
7
  6
CONTINUOUS
  2
*D3
 10
0.0
 20
68.2
 11
6.8474709612
 21
68.2
 70
160
 71
2
 72
2
 41
0.9
  1
20,5
  3
DIMSTYLE_1
100
AcDbAlignedDimension
 13
20.5
 23
46.5785418102
 14
0.0
 24
25.6
 50
180.0
100
AcDbRotatedDimension
  0
LINE
  5
24E
100
AcDbEntity
  8
0
100
AcDbLine
 62
9
  6
CONTINUOUS
 10
10.9068680823
 20
0.4146830451
 11
11.03047488
 21
0.0342604386
  0
LWPOLYLINE
  5
24F
100
AcDbEntity
  8
0
100
AcDbPolyline
 62
9
  6
CONTINUOUS
 90
8
 70
0
 10
1.195418781
 20
42.5642258508
 10
1.1902293409
 20
42.5938453695
 10
1.1851786619
 20
42.6230346327
 10
1.1803401106
 20
42.6513696343
 10
1.1757839724
 20
42.678438777
 10
1.1715764302
 20
42.7038488515
 10
1.1677786033
 20
42.7272307482
 10
1.1644456594
 20
42.7482448189
  0
LWPOLYLINE
  5
250
100
AcDbEntity
  8
0
100
AcDbPolyline
 62
9
  6
CONTINUOUS
 90
4
 70
0
 10
1.1644456594
 20
42.7482448189
 10
1.1604601474
 20
42.7743083189
 10
1.1593606231
 20
42.7819873006
 10
1.1582750191
 20
42.7900763607
  0
LWPOLYLINE
  5
251
100
AcDbEntity
  8
0
100
AcDbPolyline
 62
9
  6
CONTINUOUS
 90
17
 70
0
 10
1.1576823967
 20
42.7942255642
 10
1.1571326689
 20
42.7979119977
 10
1.1568944546
 20
42.7997220739
 10
1.1567138431
 20
42.8014692249
 10
1.1566157119
 20
42.8031228271
 10
1.1565974621
 20
42.804317629
 10
1.1565673196
 20
42.8055485599
 10
1.1565041617
 20
42.8064424667
 10
1.1563810342
 20
42.8074322527
 10
1.1561760636
 20
42.8085498466
 10
1.1560864156
 20
42.8089684198
 10
1.1560105468
 20
42.8093798671
 10
1.1559747059
 20
42.8097578582
 10
1.1559898839
 20
42.8100035563
 10
1.1560534161
 20
42.8102045163
 10
1.1561763763
 20
42.8103496299
 10
1.1563698382
 20
42.810427789
  0
LINE
  5
252
100
AcDbEntity
  8
0
100
AcDbLine
 62
9
  6
CONTINUOUS
 10
1.1582750191
 20
42.7900763607
 11
1.1576823967
 21
42.7942255642
  0
LWPOLYLINE
  5
253
100
AcDbEntity
  8
0
100
AcDbPolyline
 62
9
  6
CONTINUOUS
 90
52
 70
0
 10
0.5762386726
 20
8.3447945513
 10
0.5772904716
 20
8.3248790477
 10
0.5788715262
 20
8.3049950232
 10
0.5809807104
 20
8.2851591269
 10
0.5836175599
 20
8.2653816692
 10
0.5867794762
 20
8.2456822797
 10
0.5904642138
 20
8.2260742115
 10
0.5946694696
 20
8.2065702865
 10
0.5993919946
 20
8.187184853
 10
0.6046284527
 20
8.1679318221
 10
0.6103753254
 20
8.1488250145
 10
0.6166283645
 20
8.1298778844
 10
0.6233831387
 20
8.1111037952
 10
0.6306350458
 20
8.0925160463
 10
0.6383787769
 20
8.0741277341
 10
0.6466088513
 20
8.0559518909
 10
0.6553197842
 20
8.0380011349
 10
0.6645050939
 20
8.0202884254
 10
0.6741582764
 20
8.0028262992
 10
0.6842727273
 20
7.9856270978
 10
0.6948410707
 20
7.9687030033
 10
0.705855824
 20
7.952065999
 10
0.7173094479
 20
7.9357278266
 10
0.7291935927
 20
7.9197000807
 10
0.741499844
 20
7.903994109
 10
0.7542196766
 20
7.8886211
 10
0.7673439114
 20
7.8735918559
 10
0.7808632562
 20
7.8589170179
 10
0.7947685075
 20
7.844606872
 10
0.8090494774
 20
7.8306716519
 10
0.8236960544
 20
7.8171212243
 10
0.8386981327
 20
7.8039652043
 10
0.8540448456
 20
7.79121288
 10
0.8697253257
 20
7.7788732807
 10
0.8857287385
 20
7.7669551808
 10
0.9020435084
 20
7.7554669775
 10
0.9186580872
 20
7.744416805
 10
0.9355607397
 20
7.73381269
 10
0.9527394726
 20
7.7236619243
 10
0.9701821086
 20
7.7139716961
 10
0.9878766073
 20
7.7047489186
 10
1.0058101897
 20
7.6960000688
 10
1.0239702074
 20
7.687731337
 10
1.0423440861
 20
7.6799486689
 10
1.0609184184
 20
7.6726575031
 10
1.0796798665
 20
7.6658630237
 10
1.0986148192
 20
7.6595703314
 10
1.1177107087
 20
7.653783496
 10
1.1369547003
 20
7.6485065226
 10
1.1563293198
 20
7.6437442501
 10
1.1758227976
 20
7.639499002
 10
1.195418781
 20
7.6357741493
  0
LWPOLYLINE
  5
254
100
AcDbEntity
  8
0
100
AcDbPolyline
 62
9
  6
CONTINUOUS
 90
3
 70
0
 10
4.2463945616
 20
2.6809673161
 10
4.2461416109
 20
2.688057469
 10
4.2459613949
 20
2.6948152682
  0
LWPOLYLINE
  5
255
100
AcDbEntity
  8
0
100
AcDbPolyline
 62
9
  6
CONTINUOUS
 90
3
 70
0
 10
4.246578157
 20
2.6740974468
 10
4.2464999716
 20
2.6773273428
 10
4.2463945616
 20
2.6809673161
  0
LWPOLYLINE
  5
256
100
AcDbEntity
  8
0
100
AcDbPolyline
 62
9
  6
CONTINUOUS
 90
10
 70
0
 10
4.2459613949
 20
2.6948152682
 10
4.2455743216
 20
2.7178424462
 10
4.2453725255
 20
2.7365228064
 10
4.2452289114
 20
2.7574255516
 10
4.2451452848
 20
2.7802878686
 10
4.2451226972
 20
2.8048223062
 10
4.2451614328
 20
2.8307203894
 10
4.2452610043
 20
2.8576564979
 10
4.2454201598
 20
2.88529196
 10
4.2456368984
 20
2.9132793111
  0
LINE
  5
257
100
AcDbEntity
  8
0
100
AcDbLine
 62
7
  6
CONTINUOUS
 10
4.0
 20
47.286720689
 11
4.0
 21
43.9
  0
LINE
  5
258
100
AcDbEntity
  8
0
100
AcDbLine
 62
7
  6
CONTINUOUS
 10
4.0
 20
6.3
 11
4.0
 21
2.9132793111
  0
LINE
  5
259
100
AcDbEntity
  8
0
100
AcDbLine
 62
9
  6
CONTINUOUS
 10
4.2456368984
 20
47.286720689
 11
4.2456368984
 21
43.9
  0
LINE
  5
25A
100
AcDbEntity
  8
0
100
AcDbLine
 62
9
  6
CONTINUOUS
 10
4.2456368984
 20
6.3
 11
4.2456368984
 21
2.9132793111
  0
LINE
  5
25B
100
AcDbEntity
  8
0
100
AcDbLine
 62
7
  6
CONTINUOUS
 10
4.5
 20
43.9
 11
4.5
 21
43.1469126796
  0
LINE
  5
25C
100
AcDbEntity
  8
0
100
AcDbLine
 62
7
  6
CONTINUOUS
 10
4.5
 20
7.0530873205
 11
4.5
 21
6.3
  0
LWPOLYLINE
  5
25D
100
AcDbEntity
  8
0
100
AcDbPolyline
 62
9
  6
CONTINUOUS
 90
19
 70
0
 10
0.5762386726
 20
41.8552054488
 10
0.5068603125
 20
39.9943290481
 10
0.4456408166
 20
38.1331625874
 10
0.3925815967
 20
36.2717469207
 10
0.3476836342
 20
34.410117536
 10
0.3109477623
 20
32.5483088735
 10
0.2823746638
 20
30.6863567785
 10
0.2619649296
 20
28.8242974469
 10
0.2497189244
 20
26.9621665987
 10
0.2456369057
 20
25.0999999412
 10
0.2497189249
 20
23.2378332837
 10
0.2619649306
 20
21.3757024356
 10
0.2823746653
 20
19.5136431041
 10
0.3109477643
 20
17.6516910092
 10
0.3476836368
 20
15.7898823467
 10
0.3925815998
 20
13.9282529621
 10
0.4456408202
 20
12.0668372954
 10
0.5068603146
 20
10.2056708934
 10
0.5762386726
 20
8.3447945513
  0
LWPOLYLINE
  5
25E
100
AcDbEntity
  8
0
100
AcDbPolyline
 62
9
  6
CONTINUOUS
 90
32
 70
0
 10
8.2768234602
 20
1.8781282356
 10
8.2559798834
 20
1.886755055
 10
8.2351596754
 20
1.8952326693
 10
8.2143771327
 20
1.9035610684
 10
8.1936465454
 20
1.9117402446
 10
8.1729821756
 20
1.919770193
 10
8.1523982571
 20
1.9276509119
 10
8.131908989
 20
1.9353823998
 10
8.1115284629
 20
1.94296468
 10
8.0912706934
 20
1.9503977849
 10
8.0711497919
 20
1.9576816897
 10
8.0511798199
 20
1.9648163649
 10
8.0313746539
 20
1.9718018216
 10
8.011747524
 20
1.9786382649
 10
7.9923115825
 20
1.985325885
 10
7.9730859794
 20
1.9918628019
 10
7.9540907045
 20
1.9982469041
 10
7.9353413132
 20
2.0044775979
 10
7.9168529266
 20
2.0105544115
 10
7.898639769
 20
2.0164771331
 10
7.8807150691
 20
2.0222458258
 10
7.8630915444
 20
2.0278606567
 10
7.8457794921
 20
2.0333224878
 10
7.8287892103
 20
2.0386320879
 10
7.8121312072
 20
2.0437900706
 10
7.7958157429
 20
2.0487970398
 10
7.7798528127
 20
2.0536535926
 10
7.7642521556
 20
2.058360316
 10
7.7490231669
 20
2.062917811
 10
7.7341746758
 20
2.0673267565
 10
7.7197156012
 20
2.0715877119
 10
7.6920002805
 20
2.0796677577
  0
LWPOLYLINE
  5
25F
100
AcDbEntity
  8
0
100
AcDbPolyline
 62
7
  6
CONTINUOUS
 90
8
 70
0
 10
37.7506788534
 20
6.308586718
 10
37.7514803816
 20
6.3077166207
 10
37.7517853073
 20
6.3064185791
 10
37.7518651548
 20
6.3049505933
 10
37.752142154
 20
6.3014418662
 10
37.75258244
 20
6.2982770031
 10
37.7530443701
 20
6.2952217646
 10
37.7537866883
 20
6.2874728184
  0
LWPOLYLINE
  5
260
100
AcDbEntity
  8
0
100
AcDbPolyline
 62
9
  6
CONTINUOUS
 90
7
 70
0
 10
37.8585209442
 20
8.3447945513
 10
37.8587470567
 20
8.3444470263
 10
37.8590634339
 20
8.3441817272
 10
37.8594496437
 20
8.3439824543
 10
37.8598852542
 20
8.3438330081
 10
37.8603498336
 20
8.3437171891
 10
37.8638467456
 20
8.3429963157
  0
LWPOLYLINE
  5
261
100
AcDbEntity
  8
0
100
AcDbPolyline
 62
9
  6
CONTINUOUS
 90
3
 70
0
 10
9.4475195212
 20
1.721201351
 10
9.4476062708
 20
1.6927861303
 10
9.4477495694
 20
1.6651326615
  0
LINE
  5
262
100
AcDbEntity
  8
0
100
AcDbLine
 62
7
  6
CONTINUOUS
 10
7.5
 20
48.0672821136
 11
7.5
 21
47.565099317
  0
LINE
  5
263
100
AcDbEntity
  8
0
100
AcDbLine
 62
7
  6
CONTINUOUS
 10
7.5
 20
2.6349006831
 11
7.5
 21
2.1327178865
  0
LINE
  5
264
100
AcDbEntity
  8
0
100
AcDbLine
 62
9
  6
CONTINUOUS
 10
8.2768234602
 20
48.3218717645
 11
8.2768234602
 21
47.5718717645
  0
LINE
  5
265
100
AcDbEntity
  8
0
100
AcDbLine
 62
9
  6
CONTINUOUS
 10
8.2768234602
 20
2.6281282356
 11
8.2768234602
 21
1.8781282356
  0
LINE
  5
266
100
AcDbEntity
  8
0
100
AcDbLine
 62
7
  6
CONTINUOUS
 10
8.5
 20
48.45
 11
8.5
 21
47.5738195647
  0
LINE
  5
267
100
AcDbEntity
  8
0
100
AcDbLine
 62
7
  6
CONTINUOUS
 10
8.5
 20
2.6261804354
 11
8.5
 21
1.75
  0
LINE
  5
268
100
AcDbEntity
  8
0
100
AcDbLine
 62
9
  6
CONTINUOUS
 10
9.4474904758
 20
2.8678834227
 11
9.4475195212
 21
1.721201351
  0
LINE
  5
269
100
AcDbEntity
  8
0
100
AcDbLine
 62
7
  6
CONTINUOUS
 10
9.6
 20
0.7
 11
9.6
 21
1.7530344886
  0
LINE
  5
26A
100
AcDbEntity
  8
0
100
AcDbLine
 62
7
  6
CONTINUOUS
 10
9.6
 20
48.4469655115
 11
9.6
 21
49.5
  0
LINE
  5
26B
100
AcDbEntity
  8
0
100
AcDbLine
 62
3
  6
CONTINUOUS
 10
10.0
 20
0.7
 11
10.0
 21
1.8630903017
  0
LINE
  5
26C
100
AcDbEntity
  8
0
100
AcDbLine
 62
3
  6
CONTINUOUS
 10
10.0
 20
48.3369096984
 11
10.0
 21
49.5
  0
LINE
  5
26D
100
AcDbEntity
  8
0
100
AcDbLine
 62
9
  6
CONTINUOUS
 10
10.3
 20
0.4
 11
10.3
 21
0.0
  0
LINE
  5
26E
100
AcDbEntity
  8
0
100
AcDbLine
 62
9
  6
CONTINUOUS
 10
10.3
 20
49.8
 11
10.3
 21
50.2
  0
LINE
  5
26F
100
AcDbEntity
  8
0
100
AcDbLine
 62
9
  6
CONTINUOUS
 10
10.814162984
 20
0.4
 11
10.814162984
 21
0.0
  0
LINE
  5
270
100
AcDbEntity
  8
0
100
AcDbLine
 62
9
  6
CONTINUOUS
 10
10.814162984
 20
49.8
 11
10.814162984
 21
50.2
  0
LINE
  5
271
100
AcDbEntity
  8
0
100
AcDbLine
 62
7
  6
CONTINUOUS
 10
11.5
 20
47.35
 11
11.5
 21
45.9228207668
  0
LINE
  5
272
100
AcDbEntity
  8
0
100
AcDbLine
 62
7
  6
CONTINUOUS
 10
11.5
 20
43.3543443947
 11
11.5
 21
6.8456556053
  0
LINE
  5
273
100
AcDbEntity
  8
0
100
AcDbLine
 62
7
  6
CONTINUOUS
 10
11.5
 20
4.2771792332
 11
11.5
 21
2.85
  0
LWPOLYLINE
  5
274
100
AcDbEntity
  8
0
100
AcDbPolyline
 62
7
  6
CONTINUOUS
 90
2
 70
0
 43
0.3500000006
 10
11.9037650757
 20
61.9500004578
 10
11.9037650757
 20
58.9499995422
  0
LWPOLYLINE
  5
275
100
AcDbEntity
  8
0
100
AcDbPolyline
 62
9
  6
CONTINUOUS
 90
4
 70
0
 10
9.4474904758
 20
47.3321165774
 10
9.4475195212
 20
48.4787986491
 10
9.4476062708
 20
48.5072138698
 10
9.4477495694
 20
48.5348673386
  0
LWPOLYLINE
  5
276
100
AcDbEntity
  8
0
100
AcDbPolyline
 62
9
  6
CONTINUOUS
 90
9
 70
0
 10
4.2455743216
 20
47.4821575539
 10
4.2453725255
 20
47.4634771937
 10
4.2452289114
 20
47.4425744485
 10
4.2451452848
 20
47.4197121315
 10
4.2451226972
 20
47.3951776938
 10
4.2451614328
 20
47.3692796106
 10
4.2452610043
 20
47.3423435021
 10
4.2454201598
 20
47.31470804
 10
4.2456368984
 20
47.286720689
  0
LWPOLYLINE
  5
277
100
AcDbEntity
  8
0
100
AcDbPolyline
 62
9
  6
CONTINUOUS
 90
3
 70
0
 10
4.2461416109
 20
47.5119425311
 10
4.2459613949
 20
47.5051847319
 10
4.2455743216
 20
47.4821575539
  0
LWPOLYLINE
  5
278
100
AcDbEntity
  8
0
100
AcDbPolyline
 62
9
  6
CONTINUOUS
 90
3
 70
0
 10
4.2464999716
 20
47.5226726573
 10
4.2463945616
 20
47.519032684
 10
4.2461416109
 20
47.5119425311
  0
LWPOLYLINE
  5
279
100
AcDbEntity
  8
0
100
AcDbPolyline
 62
9
  6
CONTINUOUS
 90
16
 70
0
 10
1.1571326687
 20
7.402088
 10
1.1568944544
 20
7.4002779242
 10
1.1567138429
 20
7.3985307735
 10
1.1566157118
 20
7.3968771715
 10
1.1565974619
 20
7.3956823699
 10
1.1565673195
 20
7.3944514392
 10
1.1565041616
 20
7.3935575326
 10
1.1563810342
 20
7.3925677468
 10
1.1561760636
 20
7.3914501531
 10
1.1560864156
 20
7.39103158
 10
1.1560105469
 20
7.3906201327
 10
1.155974706
 20
7.3902421417
 10
1.1559898839
 20
7.3899964436
 10
1.1560534162
 20
7.3897954837
 10
1.1561763764
 20
7.3896503701
 10
1.1563698382
 20
7.3895722111
  0
LINE
  5
27A
100
AcDbEntity
  8
0
100
AcDbLine
 62
9
  6
CONTINUOUS
 10
7.540840177
 20
2.1218475413
 11
7.5000884825
 21
2.1327119039
  0
LINE
  5
27B
100
AcDbEntity
  8
0
100
AcDbLine
 62
9
  6
CONTINUOUS
 10
7.5707629563
 20
2.1137385604
 11
7.540840177
 21
2.1218475413
  0
LINE
  5
27C
100
AcDbEntity
  8
0
100
AcDbLine
 62
9
  6
CONTINUOUS
 10
7.5983193634
 20
2.1061690922
 11
7.5707629563
 21
2.1137385604
  0
LINE
  5
27D
100
AcDbEntity
  8
0
100
AcDbLine
 62
9
  6
CONTINUOUS
 10
7.6190483267
 20
2.1004090508
 11
7.5983193634
 21
2.1061690922
  0
LINE
  5
27E
100
AcDbEntity
  8
0
100
AcDbLine
 62
9
  6
CONTINUOUS
 10
7.6416075576
 20
2.0940744639
 11
7.6190483267
 21
2.1004090508
  0
LINE
  5
27F
100
AcDbEntity
  8
0
100
AcDbLine
 62
9
  6
CONTINUOUS
 10
7.6659437545
 20
2.0871620021
 11
7.6416075576
 21
2.0940744639
  0
LINE
  5
280
100
AcDbEntity
  8
0
100
AcDbLine
 62
9
  6
CONTINUOUS
 10
7.6920002805
 20
2.0796677577
 11
7.6659437545
 21
2.0871620021
  0
LWPOLYLINE
  5
281
100
AcDbEntity
  8
0
100
AcDbPolyline
 62
9
  6
CONTINUOUS
 90
14
 70
0
 10
4.2478183661
 20
2.6632888304
 10
4.2475916069
 20
2.6633564236
 10
4.2474479059
 20
2.6635369558
 10
4.2473692616
 20
2.6638042371
 10
4.2473338979
 20
2.6643105231
 10
4.2473436531
 20
2.664864676
 10
4.2473402173
 20
2.6658444823
 10
4.247292101
 20
2.6667059392
 10
4.2472117796
 20
2.6674788269
 10
4.2470582028
 20
2.6685372348
 10
4.2469023387
 20
2.6695638747
 10
4.2467459197
 20
2.6709946416
 10
4.2466430519
 20
2.6725155626
 10
4.246578157
 20
2.6740974468
  0
LINE
  5
282
100
AcDbEntity
  8
0
100
AcDbLine
 62
7
  6
CONTINUOUS
 10
39.660400261
 20
2.6037225765
 11
39.632019294
 21
2.6179119793
  0
LINE
  5
283
100
AcDbEntity
  8
0
100
AcDbLine
 62
7
  6
CONTINUOUS
 10
40.5780409257
 20
2.644899108
 11
40.8121598166
 21
2.5278485776
  0
LINE
  5
284
100
AcDbEntity
  8
0
100
AcDbLine
 62
7
  6
CONTINUOUS
 10
43.7051093291
 20
1.8781282356
 11
43.867845981
 21
1.7967661065
  0
LINE
  5
285
100
AcDbEntity
  8
0
100
AcDbLine
 62
7
  6
CONTINUOUS
 10
43.867845981
 20
2.5467661065
 11
43.7051093291
 21
2.6281282356
  0
LINE
  5
286
100
AcDbEntity
  8
0
100
AcDbLine
 62
7
  6
CONTINUOUS
 10
37.6764973523
 20
6.3456746438
 11
37.7506788534
 21
6.308586718
  0
LINE
  5
287
100
AcDbEntity
  8
0
100
AcDbLine
 62
7
  6
CONTINUOUS
 10
54.0419531238
 20
2.5467661065
 11
53.967845981
 21
2.6191991092
  0
LWPOLYLINE
  5
288
100
AcDbEntity
  8
0
100
AcDbPolyline
 62
7
  6
CONTINUOUS
 90
5
 70
0
 43
0.3500000006
 10
12.2046137581
 20
68.950002594
 10
12.0706848221
 20
69.1999981384
 10
12.2046137581
 20
69.1999981384
 10
12.2046137581
 20
68.950002594
 10
11.936757019
 20
68.4500024414
  0
LWPOLYLINE
  5
289
100
AcDbEntity
  8
0
100
AcDbPolyline
 62
7
  6
CONTINUOUS
 90
5
 70
0
 43
0.3500000006
 10
15.868050705
 20
58.9499995422
 10
15.7441677704
 20
59.2000041504
 10
15.868050705
 20
59.2000041504
 10
15.868050705
 20
58.9499995422
 10
15.6202837029
 20
58.4499993896
  0
LWPOLYLINE
  5
28A
100
AcDbEntity
  8
0
100
AcDbPolyline
 62
7
  6
CONTINUOUS
 90
23
 70
0
 10
37.7185161281
 20
1.6651326615
 10
37.71706213
 20
1.6689381435
 10
37.7156683233
 20
1.6727670077
 10
37.7143351707
 20
1.6766181132
 10
37.713063135
 20
1.6804903197
 10
37.7118526791
 20
1.6843824864
 10
37.7107042658
 20
1.6882934728
 10
37.7096183579
 20
1.6922221382
 10
37.7085740738
 20
1.6962524342
 10
37.7075957976
 20
1.7002990186
 10
37.7066838307
 20
1.7043609222
 10
37.7058384742
 20
1.7084371756
 10
37.7050600295
 20
1.7125268094
 10
37.7043487977
 20
1.7166288544
 10
37.7037050802
 20
1.7207423412
 10
37.7031933644
 20
1.7243807792
 10
37.7027346008
 20
1.728026441
 10
37.7023289382
 20
1.7316783959
 10
37.7019765254
 20
1.7353357135
 10
37.701677511
 20
1.7389974633
 10
37.7014320438
 20
1.7426627147
 10
37.7012402727
 20
1.7463305371
 10
37.7011023462
 20
1.75
  0
LWPOLYLINE
  5
28B
100
AcDbEntity
  8
0
100
AcDbPolyline
 62
9
  6
CONTINUOUS
 90
8
 70
0
 10
19.737864335
 20
43.486506105
 10
19.7315706822
 20
43.5107243639
 10
19.724645073
 20
43.537205429
 10
19.7171743506
 20
43.5656172415
 10
19.7092521942
 20
43.5956035321
 10
19.7009779434
 20
43.6267882881
 10
19.6924553532
 20
43.6587804691
 10
19.6837912922
 20
43.6911789096
  0
LINE
  5
28C
100
AcDbEntity
  8
0
100
AcDbLine
 62
9
  6
CONTINUOUS
 10
19.755279852
 20
43.4178321009
 11
19.7541846672
 21
43.4220566124
  0
LWPOLYLINE
  5
28D
100
AcDbEntity
  8
0
100
AcDbPolyline
 62
9
  6
CONTINUOUS
 90
3
 70
0
 10
19.7502664884
 20
43.4381490497
 10
19.7458446591
 20
43.4554573482
 10
19.737864335
 20
43.486506105
  0
LWPOLYLINE
  5
28E
100
AcDbEntity
  8
0
100
AcDbPolyline
 62
9
  6
CONTINUOUS
 90
3
 70
0
 10
19.7541846672
 20
43.4220566124
 10
19.7522098103
 20
43.4303006922
 10
19.7502664884
 20
43.4381490497
  0
LWPOLYLINE
  5
28F
100
AcDbEntity
  8
0
100
AcDbPolyline
 62
7
  6
CONTINUOUS
 90
21
 70
0
 10
20.4788482993
 20
4.121642778
 10
20.4780460204
 20
4.1477645783
 10
20.4775580754
 20
4.1738944884
 10
20.4773949728
 20
4.2000943407
 10
20.4775604404
 20
4.2262940849
 10
20.4780515017
 20
4.2524563545
 10
20.4788575899
 20
4.2786108399
 10
20.4799620022
 20
4.3047150509
 10
20.4813423684
 20
4.330806121
 10
20.4829590405
 20
4.356705148
 10
20.4847842507
 20
4.382590324
 10
20.4867467928
 20
4.4080859191
 10
20.4888222145
 20
4.4335725725
 10
20.4929346822
 20
4.4828214247
 10
20.4948139254
 20
4.5062448342
 10
20.4965461413
 20
4.5296794521
 10
20.4979536229
 20
4.5515432026
 10
20.4990699435
 20
4.5734242415
 10
20.499565396
 20
4.5867624193
 10
20.4998860376
 20
4.6001055492
 10
20.5
 20
4.6134510799
  0
LWPOLYLINE
  5
290
100
AcDbEntity
  8
0
100
AcDbPolyline
 62
9
  6
CONTINUOUS
 90
49
 70
0
 10
20.2026179606
 20
5.8326730121
 10
20.2023576601
 20
5.85175329
 10
20.2015774005
 20
5.870822932
 10
20.2002776772
 20
5.8898651648
 10
20.1984587055
 20
5.9088682718
 10
20.1961222869
 20
5.9278137763
 10
20.1932701884
 20
5.9466882793
 10
20.1899043048
 20
5.9654785595
 10
20.1860273652
 20
5.9841703433
 10
20.1816422425
 20
6.0027495375
 10
20.1767520209
 20
6.02120206
 10
20.1713605085
 20
6.0395143275
 10
20.1654717207
 20
6.0576727667
 10
20.159089836
 20
6.075663908
 10
20.152219798
 20
6.0934743827
 10
20.1448667164
 20
6.1110909266
 10
20.1370358199
 20
6.1285004817
 10
20.12873316
 20
6.1456900538
 10
20.1199649141
 20
6.1626468579
 10
20.1107374159
 20
6.1793582248
 10
20.1010577093
 20
6.1958117957
 10
20.0909329956
 20
6.2119953283
 10
20.080370658
 20
6.227896658
 10
20.0693786941
 20
6.2435040968
 10
20.057965282
 20
6.2588060336
 10
20.0461387464
 20
6.2737909828
 10
20.0339080391
 20
6.2884479137
 10
20.0212822592
 20
6.3027659216
 10
20.0082706049
 20
6.3167342786
 10
19.9948829359
 20
6.3303426812
 10
19.9811292134
 20
6.3435810049
 10
19.9670195027
 20
6.3564392912
 10
19.9525644491
 20
6.3689080962
 10
19.9377748032
 20
6.3809781434
 10
19.9226614995
 20
6.3926402623
 10
19.9072358471
 20
6.4038859822
 10
19.8915093362
 20
6.414706935
 10
19.8754935577
 20
6.4250949129
 10
19.8592004824
 20
6.4350423624
 10
19.8426421815
 20
6.4445418901
 10
19.8258307451
 20
6.4535863245
 10
19.8087790221
 20
6.4621690181
 10
19.7914998842
 20
6.4702835514
 10
19.7740063724
 20
6.4779236128
 10
19.7563108066
 20
6.4850839265
 10
19.7384256709
 20
6.4917593116
 10
19.7203697543
 20
6.497942782
 10
19.7021529368
 20
6.5036316441
 10
19.6837912922
 20
6.5088210905
  0
LWPOLYLINE
  5
291
100
AcDbEntity
  8
0
100
AcDbPolyline
 62
7
  6
CONTINUOUS
 90
21
 70
0
 10
20.5
 20
45.5865489202
 10
20.4998860358
 20
45.59989456
 10
20.4995653894
 20
45.6132377989
 10
20.4990699295
 20
45.6265760857
 10
20.4979536171
 20
45.6484568967
 10
20.4965461502
 20
45.6703204196
 10
20.4948139869
 20
45.6937543722
 10
20.4929348022
 20
45.717177117
 10
20.4888222463
 20
45.766427044
 10
20.4867468114
 20
45.7919138475
 10
20.4847842568
 20
45.8174095927
 10
20.4829590647
 20
45.8432944885
 10
20.4813424056
 20
45.8691932351
 10
20.4799620216
 20
45.8952845421
 10
20.4788575961
 20
45.9213889904
 10
20.4780514923
 20
45.9475440213
 10
20.4775604288
 20
45.9737068367
 10
20.4773949727
 20
45.9999070496
 10
20.4775580986
 20
46.0261073704
 10
20.4780460434
 20
46.0522363509
 10
20.4788482993
 20
46.0783572221
  0
LINE
  5
292
100
AcDbEntity
  8
0
100
AcDbLine
 62
9
  6
CONTINUOUS
 10
20.0087262032
 20
2.625280119
 11
20.0087262032
 21
4.1257454714
  0
LINE
  5
293
100
AcDbEntity
  8
0
100
AcDbLine
 62
9
  6
CONTINUOUS
 10
20.0087262032
 20
46.0742545287
 11
20.0087262032
 21
47.574719881
  0
LINE
  5
294
100
AcDbEntity
  8
0
100
AcDbLine
 62
9
  6
CONTINUOUS
 10
20.2026179606
 20
45.3474047863
 11
20.2026179606
 21
44.367326988
  0
LINE
  5
295
100
AcDbEntity
  8
0
100
AcDbLine
 62
9
  6
CONTINUOUS
 10
20.2026179606
 20
4.8525952138
 11
20.2026179606
 21
5.8326730121
  0
LINE
  5
296
100
AcDbEntity
  8
0
100
AcDbLine
 62
7
  6
CONTINUOUS
 10
20.5
 20
3.3633100178
 11
20.5
 21
5.8326730121
  0
LINE
  5
297
100
AcDbEntity
  8
0
100
AcDbLine
 62
7
  6
CONTINUOUS
 10
20.5
 20
44.367326988
 11
20.5
 21
46.8366899823
  0
LWPOLYLINE
  5
298
100
AcDbEntity
  8
0
100
AcDbPolyline
 62
9
  6
CONTINUOUS
 90
49
 70
0
 10
20.2026179606
 20
44.367326988
 10
20.2023576595
 20
44.3482466336
 10
20.2015773931
 20
44.3291769152
 10
20.2002776582
 20
44.3101346065
 10
20.198458691
 20
44.2911316021
 10
20.1961222831
 20
44.2721861996
 10
20.193270201
 20
44.2533117979
 10
20.1899043409
 20
44.2345216273
 10
20.1860274305
 20
44.2158299517
 10
20.1816423428
 20
44.1972508642
 10
20.1767521637
 20
44.1787984521
 10
20.1713606999
 20
44.160486293
 10
20.1654719667
 20
44.1423279599
 10
20.1590901448
 20
44.1243369281
 10
20.1522201759
 20
44.10652656
 10
20.1448671693
 20
44.0889101194
 10
20.1370363572
 20
44.0715006718
 10
20.1287337878
 20
44.0543112032
 10
20.1199656385
 20
44.0373544984
 10
20.110738245
 20
44.0206432303
 10
20.101058649
 20
44.0041897534
 10
20.0909340516
 20
43.9880063096
 10
20.0803718192
 20
43.9721050395
 10
20.0693799647
 20
43.9564976555
 10
20.0579666656
 20
43.9411957689
 10
20.0461402377
 20
43.9262108537
 10
20.0339096409
 20
43.9115539524
 10
20.0212839743
 20
43.8972359693
 10
20.0082724315
 20
43.8832676277
 10
19.9948848761
 20
43.8696592358
 10
19.9811312691
 20
43.8564209181
 10
19.967021672
 20
43.8435626299
 10
19.9525667335
 20
43.8310938182
 10
19.9377772039
 20
43.8190237591
 10
19.9226640132
 20
43.8073616196
 10
19.9072384743
 20
43.7961158743
 10
19.8915120771
 20
43.785294892
 10
19.8754964053
 20
43.7749068761
 10
19.8592034365
 20
43.764959384
 10
19.8426452426
 20
43.7554598078
 10
19.8258339108
 20
43.746415317
 10
19.8087822921
 20
43.7378325627
 10
19.7915032564
 20
43.7297179671
 10
19.7740098389
 20
43.7220778408
 10
19.7563143655
 20
43.7149174588
 10
19.7384293216
 20
43.708241997
 10
19.7203722119
 20
43.702058019
 10
19.7021541773
 20
43.696368717
 10
19.6837912922
 20
43.6911789096
  0
LWPOLYLINE
  5
299
100
AcDbEntity
  8
0
100
AcDbPolyline
 62
9
  6
CONTINUOUS
 90
4
 70
0
 10
1.1593606225
 20
7.4180126944
 10
1.1582750186
 20
7.4099236357
 10
1.1576823963
 20
7.4057744328
 10
1.1571326687
 20
7.402088
  0
LINE
  5
29A
100
AcDbEntity
  8
0
100
AcDbLine
 62
9
  6
CONTINUOUS
 10
1.1604601466
 20
7.4256916751
 11
1.1593606225
 21
7.4180126944
  0
LWPOLYLINE
  5
29B
100
AcDbEntity
  8
0
100
AcDbPolyline
 62
9
  6
CONTINUOUS
 90
9
 70
0
 10
1.195418781
 20
7.6357741493
 10
1.1902293402
 20
7.6061546263
 10
1.1851786606
 20
7.5769653597
 10
1.1803401089
 20
7.5486303559
 10
1.1757839705
 20
7.521561212
 10
1.1715764284
 20
7.4961511373
 10
1.1677786017
 20
7.4727692414
 10
1.164445658
 20
7.4517551721
 10
1.1604601466
 20
7.4256916751
  0
LINE
  5
29C
100
AcDbEntity
  8
0
100
AcDbLine
 62
9
  6
CONTINUOUS
 10
19.6837912922
 20
6.5088210905
 11
11.5
 21
8.7016613582
  0
LINE
  5
29D
100
AcDbEntity
  8
0
100
AcDbLine
 62
7
  6
CONTINUOUS
 10
19.7588190451
 20
6.7985988383
 11
11.5
 21
9.0115427319
  0
LINE
  5
29E
100
AcDbEntity
  8
0
100
AcDbLine
 62
7
  6
CONTINUOUS
 10
58.0115852252
 20
1.8781282356
 11
58.1804427952
 21
1.7937058805
  0
LINE
  5
29F
100
AcDbEntity
  8
0
100
AcDbLine
 62
7
  6
CONTINUOUS
 10
58.2121598166
 20
2.5278485776
 11
58.0115852252
 21
2.6281282356
  0
LINE
  5
2A0
100
AcDbEntity
  8
0
100
AcDbLine
 62
9
  6
CONTINUOUS
 10
62.1707902976
 20
2.6235260492
 11
62.0912586782
 21
2.6632888304
  0
LINE
  5
2A1
100
AcDbEntity
  8
0
100
AcDbLine
 62
9
  6
CONTINUOUS
 10
62.432019294
 20
2.8678834227
 11
62.341220602
 21
2.9132793111
  0
LINE
  5
2A2
100
AcDbEntity
  8
0
100
AcDbLine
 62
7
  6
CONTINUOUS
 10
60.3606606086
 20
2.6037225765
 11
60.2811961752
 21
2.6448912748
  0
LWPOLYLINE
  5
2A3
100
AcDbEntity
  8
0
100
AcDbPolyline
 62
7
  6
CONTINUOUS
 90
15
 70
0
 43
0.3500000006
 10
13.8859078903
 20
58.9499995422
 10
13.6381408882
 20
59.2000041504
 10
13.5142568207
 20
59.4499996948
 10
13.3903727531
 20
59.9499998474
 10
13.3903727531
 20
60.9500001526
 10
13.5142568207
 20
61.4500003052
 10
13.6381408882
 20
61.6999958496
 10
13.8859078903
 20
61.9500004578
 10
14.1336760254
 20
61.6999958496
 10
14.2575600929
 20
61.4500003052
 10
14.3814441605
 20
60.9500001526
 10
14.3814441605
 20
59.9499998474
 10
14.2575600929
 20
59.4499996948
 10
14.1336760254
 20
59.2000041504
 10
13.8859078903
 20
58.9499995422
  0
LWPOLYLINE
  5
2A4
100
AcDbEntity
  8
0
100
AcDbPolyline
 62
7
  6
CONTINUOUS
 90
9
 70
0
 10
37.674806149
 20
6.3560149376
 10
37.6753291099
 20
6.352446577
 10
37.6755411913
 20
6.3505473702
 10
37.6756496017
 20
6.348465176
 10
37.6756619368
 20
6.3477842069
 10
37.6757061839
 20
6.3471215628
 10
37.6758290386
 20
6.3465203501
 10
37.6760771962
 20
6.3460236749
 10
37.6764973523
 20
6.3456746438
  0
LINE
  5
2A5
100
AcDbEntity
  8
0
100
AcDbLine
 62
9
  6
CONTINUOUS
 10
37.8477131152
 20
42.5642258508
 11
37.7900314355
 21
43.1469126796
  0
LINE
  5
2A6
100
AcDbEntity
  8
0
100
AcDbLine
 62
9
  6
CONTINUOUS
 10
38.097675039
 20
42.810427789
 11
38.0393117574
 21
43.4
  0
LINE
  5
2A7
100
AcDbEntity
  8
0
100
AcDbLine
 62
7
  6
CONTINUOUS
 10
37.7537866883
 20
6.2874728184
 11
37.7553366307
 21
6.2577858369
  0
LWPOLYLINE
  5
2A8
100
AcDbEntity
  8
0
100
AcDbPolyline
 62
7
  6
CONTINUOUS
 90
5
 70
0
 10
37.6731817698
 20
6.3849577542
 10
37.6739797596
 20
6.3682467529
 10
37.6741555232
 20
6.3640855875
 10
37.674399542
 20
6.359973058
 10
37.674806149
 20
6.3560149376
  0
LWPOLYLINE
  5
2A9
100
AcDbEntity
  8
0
100
AcDbPolyline
 62
7
  6
CONTINUOUS
 90
32
 70
0
 10
37.7553366307
 20
6.2577858369
 10
37.7564260818
 20
6.2304884393
 10
37.7574695154
 20
6.1976868205
 10
37.7584564883
 20
6.1597108105
 10
37.7593812526
 20
6.1167810667
 10
37.7602342592
 20
6.0693418086
 10
37.7610106995
 20
6.0176607387
 10
37.7617025212
 20
5.9622739189
 10
37.7623057653
 20
5.903499646
 10
37.7628143102
 20
5.8419330411
 10
37.763225066
 20
5.7779513455
 10
37.7635340625
 20
5.7121688514
 10
37.7637392362
 20
5.6450321212
 10
37.763838743
 20
5.57713185
 10
37.7638318555
 20
5.5089928583
 10
37.7637185858
 20
5.4411455748
 10
37.7634999652
 20
5.3741837198
 10
37.7631774529
 20
5.3085644683
 10
37.7627541625
 20
5.2449157833
 10
37.762232671
 20
5.1836289833
 10
37.7616182661
 20
5.1253238048
 10
37.7609144634
 20
5.070335439
 10
37.760128566
 20
5.0192344734
 10
37.7592649914
 20
4.9723085091
 10
37.7583326758
 20
4.9300440671
 10
37.7573370167
 20
4.8926853807
 10
37.7562880235
 20
4.860609568
 10
37.7551923038
 20
4.8340168273
 10
37.7540602441
 20
4.8131600639
 10
37.7528994485
 20
4.7981785872
 10
37.7524269746
 20
4.7936769807
 10
37.751720858
 20
4.7892118692
  0
LINE
  5
2AA
100
AcDbEntity
  8
0
100
AcDbLine
 62
7
  6
CONTINUOUS
 10
37.7011023462
 20
1.75
 11
37.667845981
 21
2.85
  0
LINE
  5
2AB
100
AcDbEntity
  8
0
100
AcDbLine
 62
9
  6
CONTINUOUS
 10
10.9068680823
 20
49.7853169549
 11
11.03047488
 21
50.1657395614
  0
LINE
  5
2AC
100
AcDbEntity
  8
0
100
AcDbLine
 62
7
  6
CONTINUOUS
 10
1.1563698382
 20
7.3895722111
 11
4.5
 21
6.8
  0
LINE
  5
2AD
100
AcDbEntity
  8
0
100
AcDbLine
 62
9
  6
CONTINUOUS
 10
1.195418781
 20
7.6357741493
 11
4.5
 21
7.0530873205
  0
LWPOLYLINE
  5
2AE
100
AcDbEntity
  8
0
100
AcDbPolyline
 62
9
  6
CONTINUOUS
 90
20
 70
0
 10
37.8638467456
 20
8.3429963157
 10
37.8652564058
 20
8.3427156001
 10
37.8666567433
 20
8.3424598111
 10
37.8696793364
 20
8.3420084188
 10
37.8727938106
 20
8.3416452974
 10
37.8759391307
 20
8.3413341194
 10
37.8822604942
 20
8.3407633242
 10
37.8885377393
 20
8.3402577757
 10
37.8963937389
 20
8.3397150783
 10
37.9042729051
 20
8.3392461293
 10
37.9135983825
 20
8.3387527818
 10
37.9229202346
 20
8.3383136069
 10
37.9335649959
 20
8.3378684596
 10
37.944213805
 20
8.3374735068
 10
37.9678499565
 20
8.3367378095
 10
37.9934916226
 20
8.3361170064
 10
38.0207731368
 20
8.3356199506
 10
38.0493054475
 20
8.3352537305
 10
38.0786816657
 20
8.3350235685
 10
38.108482868
 20
8.334932747
  0
LINE
  5
2AF
100
AcDbEntity
  8
0
100
AcDbLine
 62
7
  6
CONTINUOUS
 10
11.5
 20
47.35
 11
9.1617314098
 21
48.7
  0
LWPOLYLINE
  5
2B0
100
AcDbEntity
  8
0
100
AcDbPolyline
 62
7
  6
CONTINUOUS
 90
15
 70
0
 43
0.3500000006
 10
10.0617564468
 20
68.950002594
 10
9.7938997078
 20
69.1999981384
 10
9.6599707718
 20
69.4500027466
 10
9.5260418358
 20
69.9500028992
 10
9.5260418358
 20
70.9500032043
 10
9.6599707718
 20
71.4500033569
 10
9.7938997078
 20
71.6999989014
 10
10.0617564468
 20
71.9500035095
 10
10.3296143188
 20
71.6999989014
 10
10.4635421219
 20
71.4500033569
 10
10.5974710579
 20
70.9500032043
 10
10.5974710579
 20
69.9500028992
 10
10.4635421219
 20
69.4500027466
 10
10.3296143188
 20
69.1999981384
 10
10.0617564468
 20
68.950002594
  0
LWPOLYLINE
  5
2B1
100
AcDbEntity
  8
0
100
AcDbPolyline
 62
7
  6
CONTINUOUS
 90
23
 70
0
 10
39.6171758339
 20
48.5348673386
 10
39.618629832
 20
48.5310618566
 10
39.6200236387
 20
48.5272329924
 10
39.6213567913
 20
48.5233818868
 10
39.622628827
 20
48.5195096804
 10
39.6238392829
 20
48.5156175137
 10
39.6249876962
 20
48.5117065273
 10
39.6260736041
 20
48.5077778619
 10
39.6271178882
 20
48.5037475658
 10
39.6280961643
 20
48.4997009814
 10
39.6290081313
 20
48.4956390778
 10
39.6298534877
 20
48.4915628245
 10
39.6306319324
 20
48.4874731907
 10
39.6313431642
 20
48.4833711457
 10
39.6319868818
 20
48.4792576589
 10
39.6324985975
 20
48.4756192209
 10
39.6329573611
 20
48.4719735591
 10
39.6333630237
 20
48.4683216042
 10
39.6337154365
 20
48.4646642865
 10
39.6340144509
 20
48.4610025368
 10
39.6342599181
 20
48.4573372854
 10
39.6344516892
 20
48.453669463
 10
39.6345896157
 20
48.45
  0
LWPOLYLINE
  5
2B2
100
AcDbEntity
  8
0
100
AcDbPolyline
 62
7
  6
CONTINUOUS
 90
23
 70
0
 10
60.5185161281
 20
1.6651326615
 10
60.51706213
 20
1.6689381435
 10
60.5156683233
 20
1.6727670077
 10
60.5143351707
 20
1.6766181132
 10
60.513063135
 20
1.6804903197
 10
60.5118526791
 20
1.6843824864
 10
60.5107042658
 20
1.6882934728
 10
60.5096183579
 20
1.6922221382
 10
60.5085740738
 20
1.6962524342
 10
60.5075957976
 20
1.7002990186
 10
60.5066838307
 20
1.7043609222
 10
60.5058384742
 20
1.7084371756
 10
60.5050600295
 20
1.7125268094
 10
60.5043487977
 20
1.7166288544
 10
60.5037050802
 20
1.7207423412
 10
60.5031933644
 20
1.7243807792
 10
60.5027346008
 20
1.728026441
 10
60.5023289382
 20
1.7316783959
 10
60.5019765254
 20
1.7353357135
 10
60.501677511
 20
1.7389974633
 10
60.5014320438
 20
1.7426627147
 10
60.5012402727
 20
1.7463305371
 10
60.5011023462
 20
1.75
  0
LINE
  5
2B3
100
AcDbEntity
  8
0
100
AcDbLine
 62
7
  6
CONTINUOUS
 10
37.751720858
 20
45.4107881309
 11
37.6694393566
 21
45.823201297
  0
LWPOLYLINE
  5
2B4
100
AcDbEntity
  8
0
100
AcDbPolyline
 62
7
  6
CONTINUOUS
 90
33
 70
0
 10
37.751720858
 20
45.4107881309
 10
37.7524270928
 20
45.4063221482
 10
37.7528996197
 20
45.401819661
 10
37.7540606193
 20
45.3868340709
 10
37.755192867
 20
45.36597118
 10
37.7562887511
 20
45.339370525
 10
37.7573379043
 20
45.3072844807
 10
37.758333685
 20
45.2699142451
 10
37.7592661012
 20
45.2276363746
 10
37.7601297335
 20
45.1806961288
 10
37.7609156575
 20
45.129579519
 10
37.7616194423
 20
45.0745750826
 10
37.7622337898
 20
45.0162532153
 10
37.7627551797
 20
44.9549496513
 10
37.763178324
 20
44.8912845148
 10
37.7635006475
 20
44.8256490127
 10
37.763719034
 20
44.7586722579
 10
37.7638320287
 20
44.6908105038
 10
37.7638386003
 20
44.6226594221
 10
37.7637387389
 20
44.5547476968
 10
37.7635331775
 20
44.4876025601
 10
37.7632237589
 20
44.4218131133
 10
37.7628125574
 20
44.3578277353
 10
37.7623035415
 20
44.2962597301
 10
37.7616998116
 20
44.2374873529
 10
37.7610074925
 20
44.1821054642
 10
37.7602305474
 20
44.1304325201
 10
37.7593770422
 20
44.0830049764
 10
37.7584517785
 20
44.0400899821
 10
37.7574643335
 20
44.0021326194
 10
37.7564204303
 20
43.9693524258
 10
37.7553305652
 20
43.9420804681
 10
37.7537833762
 20
43.9124897935
  0
LINE
  5
2B5
100
AcDbEntity
  8
0
100
AcDbLine
 62
7
  6
CONTINUOUS
 10
46.3338186858
 20
49.0174311486
 11
46.459507547
 21
47.5808008909
  0
LINE
  5
2B6
100
AcDbEntity
  8
0
100
AcDbLine
 62
7
  6
CONTINUOUS
 10
53.8018732762
 20
1.1825688515
 11
53.6761844149
 21
2.6191991092
  0
LWPOLYLINE
  5
2B7
100
AcDbEntity
  8
0
100
AcDbPolyline
 62
9
  6
CONTINUOUS
 90
120
 70
0
 10
43.7051093291
 20
1.8781282356
 10
43.704470448
 20
1.8867550549
 10
43.7032820173
 20
1.8952326693
 10
43.7015447872
 20
1.9035610683
 10
43.6992598717
 20
1.9117402446
 10
43.6964287481
 20
1.919770193
 10
43.6930532575
 20
1.9276509119
 10
43.6891356068
 20
1.9353823997
 10
43.6846783539
 20
1.94296468
 10
43.6796844099
 20
1.9503977849
 10
43.6741570883
 20
1.9576816896
 10
43.6681000843
 20
1.964816365
 10
43.6615174345
 20
1.9718018216
 10
43.6544133306
 20
1.9786382649
 10
43.6467922706
 20
1.9853258849
 10
43.6386617256
 20
1.9918628018
 10
43.6300306858
 20
1.9982469041
 10
43.6209072114
 20
2.0044775979
 10
43.6112999206
 20
2.0105544114
 10
43.6012177092
 20
2.0164771331
 10
43.5906695948
 20
2.0222458258
 10
43.579664908
 20
2.0278606567
 10
43.5682119579
 20
2.0333224878
 10
43.5563193633
 20
2.038632088
 10
43.5439962504
 20
2.0437900706
 10
43.5312519693
 20
2.0487970398
 10
43.51809608
 20
2.0536535926
 10
43.504538352
 20
2.058360316
 10
43.4905886814
 20
2.062917811
 10
43.4762568442
 20
2.0673267565
 10
43.4615530978
 20
2.071587712
 10
43.4464879353
 20
2.0757012076
 10
43.4310720423
 20
2.0796677577
 10
43.4153162952
 20
2.0834878608
 10
43.3992317434
 20
2.0871620021
 10
43.3828294228
 20
2.0906906915
 10
43.3661202906
 20
2.0940744639
 10
43.3491157175
 20
2.0973137738
 10
43.3318272552
 20
2.1004090509
 10
43.3142666694
 20
2.1033606962
 10
43.2964458906
 20
2.1061690921
 10
43.2783769691
 20
2.1088346093
 10
43.2600718279
 20
2.1113576378
 10
43.241542374
 20
2.1137385604
 10
43.2228007527
 20
2.1159777182
 10
43.2038593036
 20
2.1180754201
 10
43.1847306115
 20
2.1200319413
 10
43.1654273727
 20
2.1218475413
 10
43.1459623227
 20
2.1235224691
 10
43.1263480582
 20
2.1250569746
 10
43.1065971533
 20
2.1264512913
 10
43.0867221916
 20
2.1277056313
 10
43.0667360573
 20
2.1288201676
 10
43.0466518525
 20
2.1297950465
 10
43.0264827314
 20
2.1306303994
 10
43.006241811
 20
2.1313263453
 10
42.9859421283
 20
2.131882989
 10
42.9655966155
 20
2.1323004173
 10
42.9452179837
 20
2.1325786954
 10
42.9248194024
 20
2.1327178566
 10
42.9044141631
 20
2.1327179163
 10
42.8840155548
 20
2.1325788742
 10
42.8636368091
 20
2.1323007138
 10
42.8432911178
 20
2.1318834007
 10
42.8229914274
 20
2.1313268758
 10
42.8027503127
 20
2.1306310426
 10
42.7825809653
 20
2.1297957997
 10
42.7624965979
 20
2.1288210325
 10
42.7425103256
 20
2.1277066088
 10
42.7226350632
 20
2.1264523707
 10
42.7028836457
 20
2.1250581379
 10
42.6832688507
 20
2.1235237097
 10
42.6638033972
 20
2.1218488649
 10
42.6444999357
 20
2.1200333624
 10
42.625371046
 20
2.1180769409
 10
42.6064293277
 20
2.1159793309
 10
42.5876873889
 20
2.113740258
 10
42.5691577348
 20
2.1113594343
 10
42.5508523703
 20
2.1088365024
 10
42.5327831149
 20
2.1061710654
 10
42.5149620819
 20
2.103362761
 10
42.4974012733
 20
2.1004112129
 10
42.4801125937
 20
2.0973160353
 10
42.4631078202
 20
2.0940768298
 10
42.4463985611
 20
2.0906931792
 10
42.4299959921
 20
2.087164589
 10
42.4139111898
 20
2.0834905481
 10
42.398155253
 20
2.0796705623
 10
42.3827391692
 20
2.0757041332
 10
42.3676738211
 20
2.0715907646
 10
42.3529699159
 20
2.0673299493
 10
42.3386379216
 20
2.0629211511
 10
42.3246879636
 20
2.0583637674
 10
42.3111300212
 20
2.0536571845
 10
42.2979739454
 20
2.0488007898
 10
42.2852294568
 20
2.0437939795
 10
42.2729060934
 20
2.0386361466
 10
42.2610131816
 20
2.0333266736
 10
42.2495598995
 20
2.0278649675
 10
42.2385551882
 20
2.022250429
 10
42.2280068515
 20
2.0164819463
 10
42.2179230653
 20
2.010558628
 10
42.2083135901
 20
2.004480709
 10
42.1991877843
 20
1.998248612
 10
42.1905547122
 20
1.9918630884
 10
42.1824236146
 20
1.9853257333
 10
42.1748028684
 20
1.9786383871
 10
42.1676987326
 20
1.9718019238
 10
42.1611159669
 20
1.9648163486
 10
42.1550589314
 20
1.9576816322
 10
42.1495316302
 20
1.9503977488
 10
42.1445377102
 20
1.9429646771
 10
42.1400804598
 20
1.9353824011
 10
42.1361628069
 20
1.9276509086
 10
42.1327873171
 20
1.9197701911
 10
42.1299561941
 20
1.9117402445
 10
42.1276712787
 20
1.9035610685
 10
42.1259340486
 20
1.895232669
 10
42.1247456178
 20
1.8867550542
 10
42.1241067368
 20
1.8781282356
  0
LWPOLYLINE
  5
2B8
100
AcDbEntity
  8
0
100
AcDbPolyline
 62
9
  6
CONTINUOUS
 90
120
 70
0
 10
42.1241067368
 20
48.3218717645
 10
42.124745618
 20
48.3132449443
 10
42.1259340489
 20
48.3047673292
 10
42.1276712793
 20
48.2964389292
 10
42.1299561952
 20
48.2882597524
 10
42.1327873194
 20
48.2802298032
 10
42.1361628106
 20
48.2723490836
 10
42.140080462
 20
48.2646175949
 10
42.1445377156
 20
48.2570353143
 10
42.1495316599
 20
48.2496022097
 10
42.1550589822
 20
48.2423183048
 10
42.1611159881
 20
48.2351836279
 10
42.1676986415
 20
48.2281981683
 10
42.1748027428
 20
48.2213617283
 10
42.1824237957
 20
48.2146741148
 10
42.1905543665
 20
48.208137178
 10
42.1991854114
 20
48.2017530738
 10
42.2083088772
 20
48.1955223872
 10
42.2179161581
 20
48.1894455808
 10
42.2279983675
 20
48.1835228609
 10
42.2385464921
 20
48.1777541632
 10
42.2495511952
 20
48.172139325
 10
42.2610041487
 20
48.1666774935
 10
42.2728967456
 20
48.1613678935
 10
42.2852198604
 20
48.1562099113
 10
42.2979641431
 20
48.1512029426
 10
42.3111200349
 20
48.14634639
 10
42.3246777665
 20
48.1416396664
 10
42.3386274379
 20
48.1370821722
 10
42.3529592694
 20
48.1326732293
 10
42.3676630097
 20
48.1284122764
 10
42.3827281687
 20
48.1242987825
 10
42.3981440618
 20
48.1203322329
 10
42.4138998127
 20
48.1165121294
 10
42.4299843707
 20
48.1128379873
 10
42.446386692
 20
48.1093092983
 10
42.4630958181
 20
48.1059255278
 10
42.4801003845
 20
48.1026862197
 10
42.4973888434
 20
48.0995909436
 10
42.5149494305
 20
48.0966392984
 10
42.5327702147
 20
48.0938309019
 10
42.5508391449
 20
48.0911653839
 10
42.5691442892
 20
48.0886423555
 10
42.5876737375
 20
48.086261434
 10
42.6064153523
 20
48.0840222774
 10
42.6253567993
 20
48.081924576
 10
42.6444854943
 20
48.0799680548
 10
42.663788741
 20
48.0781524545
 10
42.6832538027
 20
48.0764775261
 10
42.702868074
 20
48.0749430205
 10
42.722618975
 20
48.0735487045
 10
42.7424939316
 20
48.0722943653
 10
42.7624800652
 20
48.0711798295
 10
42.7825642749
 20
48.0702049508
 10
42.8027334069
 20
48.069369598
 10
42.822974342
 20
48.0686736521
 10
42.8432740361
 20
48.0681170087
 10
42.863619547
 20
48.0676995811
 10
42.8839981751
 20
48.0674213037
 10
42.9043967573
 20
48.0672821431
 10
42.9248020035
 20
48.0672820841
 10
42.9452006254
 20
48.067421127
 10
42.9655793884
 20
48.0676992886
 10
42.9859250948
 20
48.0681166029
 10
43.0062247853
 20
48.0686731288
 10
43.0264659
 20
48.069368963
 10
43.04663525
 20
48.0702042071
 10
43.0667196213
 20
48.0711789756
 10
43.0867058976
 20
48.0722934006
 10
43.1065811636
 20
48.0735476401
 10
43.1263325829
 20
48.0749418743
 10
43.1459473782
 20
48.0764763038
 10
43.1654128303
 20
48.0781511496
 10
43.1847162895
 20
48.0799666533
 10
43.2038451772
 20
48.0819230759
 10
43.222786894
 20
48.0840206872
 10
43.2415288333
 20
48.0862597615
 10
43.2600584905
 20
48.0886405869
 10
43.278363847
 20
48.0911635192
 10
43.29643309
 20
48.0938289558
 10
43.3142541121
 20
48.0966372599
 10
43.3318149153
 20
48.0995888084
 10
43.349103594
 20
48.1026839873
 10
43.3661083702
 20
48.1059231948
 10
43.3828176332
 20
48.1093068477
 10
43.3992201976
 20
48.1128354385
 10
43.4153049912
 20
48.1165094791
 10
43.4310609208
 20
48.1203294647
 10
43.446477001
 20
48.1242958945
 10
43.4615423491
 20
48.1284092648
 10
43.4762462567
 20
48.1326700827
 10
43.4905782538
 20
48.1370788837
 10
43.5045282091
 20
48.1416362687
 10
43.5180861455
 20
48.1463428517
 10
43.5312422161
 20
48.1511992467
 10
43.5439867023
 20
48.1562060583
 10
43.5563100651
 20
48.1613638935
 10
43.5682029785
 20
48.16667337
 10
43.5796562646
 20
48.172135081
 10
43.5906609756
 20
48.1777496227
 10
43.6012093023
 20
48.1835181035
 10
43.6112930944
 20
48.1894414292
 10
43.620902572
 20
48.1955193543
 10
43.6300283569
 20
48.2017514415
 10
43.6386613826
 20
48.2081369339
 10
43.6467924445
 20
48.2146742612
 10
43.6544131883
 20
48.2213616046
 10
43.6615173246
 20
48.2281980675
 10
43.6681000917
 20
48.2351836433
 10
43.6741571287
 20
48.2423183607
 10
43.6796844313
 20
48.2496022451
 10
43.6846783521
 20
48.2570353172
 10
43.6891356032
 20
48.2646175937
 10
43.6930532569
 20
48.272349087
 10
43.6964287473
 20
48.2802298051
 10
43.6992598708
 20
48.2882597524
 10
43.7015447866
 20
48.2964389292
 10
43.703282017
 20
48.3047673295
 10
43.704470448
 20
48.313244945
 10
43.7051093291
 20
48.3218717645
  0
LWPOLYLINE
  5
2B9
100
AcDbEntity
  8
0
100
AcDbPolyline
 62
7
  6
CONTINUOUS
 90
47
 70
0
 10
45.567845981
 20
49.1202128588
 10
45.5679178269
 20
49.1186325069
 10
45.5681266219
 20
49.1170596411
 10
45.5684622517
 20
49.1155009749
 10
45.5689146021
 20
49.1139632218
 10
45.5694735588
 20
49.1124530956
 10
45.5701290077
 20
49.1109773098
 10
45.5708708344
 20
49.109542578
 10
45.5716889249
 20
49.1081556138
 10
45.5728366483
 20
49.1064524817
 10
45.5740832389
 20
49.1048333934
 10
45.5754185373
 20
49.103292598
 10
45.5768323844
 20
49.1018243441
 10
45.5783146209
 20
49.1004228807
 10
45.5798550876
 20
49.0990824566
 10
45.5814436252
 20
49.0977973208
 10
45.5830700745
 20
49.096561722
 10
45.5859881005
 20
49.0945024997
 10
45.5889826302
 20
49.0925678055
 10
45.5920449771
 20
49.0907477603
 10
45.5951664549
 20
49.0890324853
 10
45.5983383775
 20
49.0874121015
 10
45.6015520585
 20
49.08587673
 10
45.6056000292
 20
49.0840710078
 10
45.6096939968
 20
49.0823737941
 10
45.6138287007
 20
49.0807771505
 10
45.6179988804
 20
49.0792731386
 10
45.6221992752
 20
49.07785382
 10
45.6264246247
 20
49.0765112563
 10
45.6324237677
 20
49.0747335292
 10
45.6384581154
 20
49.0730845067
 10
45.6445236226
 20
49.0715557431
 10
45.650616244
 20
49.0701387929
 10
45.6567319344
 20
49.0688252107
 10
45.6636097571
 20
49.0674663497
 10
45.6705089423
 20
49.0662212691
 10
45.6774269521
 20
49.0650844943
 10
45.6843612488
 20
49.0640505507
 10
45.6913092945
 20
49.0631139635
 10
45.7006656685
 20
49.0620001373
 10
45.7100394563
 20
49.0610465387
 10
45.7194278188
 20
49.0602474104
 10
45.7288279166
 20
49.0595969949
 10
45.7385749455
 20
49.0590746564
 10
45.7483287879
 20
49.0587038619
 10
45.7580867107
 20
49.0584827502
 10
45.767845981
 20
49.0584094599
  0
LINE
  5
2BA
100
AcDbEntity
  8
0
100
AcDbLine
 62
7
  6
CONTINUOUS
 10
41.9235321454
 20
2.5278485776
 11
41.9552491668
 21
1.7937058805
  0
LINE
  5
2BB
100
AcDbEntity
  8
0
100
AcDbLine
 62
7
  6
CONTINUOUS
 10
39.660400261
 20
47.5962774236
 11
39.6345896157
 21
48.45
  0
LWPOLYLINE
  5
2BC
100
AcDbEntity
  8
0
100
AcDbPolyline
 62
9
  6
CONTINUOUS
 90
53
 70
0
 10
37.8477131152
 20
7.6357741493
 10
37.8478496786
 20
7.6283536991
 10
37.8482133386
 20
7.6209381592
 10
37.8488035423
 20
7.6135357342
 10
37.8496197368
 20
7.6061546289
 10
37.8506621494
 20
7.5987968391
 10
37.8519289074
 20
7.5914750675
 10
37.8534185548
 20
7.5841957604
 10
37.8551296356
 20
7.5769653643
 10
37.8570629746
 20
7.5697818597
 10
37.8592144921
 20
7.5626604523
 10
37.8615818659
 20
7.5556077502
 10
37.8641627743
 20
7.5486303617
 10
37.8669591055
 20
7.5417245379
 10
37.8699641589
 20
7.5349069964
 10
37.8731748107
 20
7.5281838518
 10
37.876587937
 20
7.5215612185
 10
37.8802066803
 20
7.5150340183
 10
37.8840216108
 20
7.508619488
 10
37.8880288788
 20
7.5023233044
 10
37.8922246344
 20
7.496151144
 10
37.896613155
 20
7.4900975879
 10
37.9011825039
 20
7.4841793358
 10
37.905928191
 20
7.4784015137
 10
37.9108457264
 20
7.4727692476
 10
37.9159401096
 20
7.4672775428
 10
37.9211974307
 20
7.4619416094
 10
37.9266126483
 20
7.4567659775
 10
37.9321807211
 20
7.4517551774
 10
37.9379067185
 20
7.4469052633
 10
37.943775549
 20
7.4422291991
 10
37.9497817113
 20
7.4377308762
 10
37.9559197043
 20
7.4334141862
 10
37.9621938647
 20
7.4292765901
 10
37.9685888646
 20
7.4253283256
 10
37.9750988185
 20
7.4215726193
 10
37.9817178409
 20
7.4180126973
 10
37.9884486851
 20
7.4146474917
 10
37.9952768251
 20
7.4114843505
 10
38.0021961089
 20
7.4085258171
 10
38.0092003845
 20
7.4057744346
 10
38.0162900479
 20
7.4032303715
 10
38.0234522141
 20
7.4008982407
 10
38.0306803995
 20
7.3987798912
 10
38.0379681207
 20
7.3968771723
 10
38.0453127747
 20
7.3951909948
 10
38.0527043147
 20
7.3937236688
 10
38.0601365191
 20
7.3924763399
 10
38.0676031662
 20
7.3914501534
 10
38.0750984081
 20
7.3906460778
 10
38.082614031
 20
7.3900647686
 10
38.0901421896
 20
7.3897066662
 10
38.097675039
 20
7.3895722111
  0
LWPOLYLINE
  5
2BD
100
AcDbEntity
  8
0
100
AcDbPolyline
 62
9
  6
CONTINUOUS
 90
22
 70
0
 10
37.703672668
 20
1.75
 10
37.7037066984
 20
1.7458786828
 10
37.7038087422
 20
1.741757536
 10
37.7039787285
 20
1.7376379021
 10
37.7042165863
 20
1.7335211239
 10
37.7045222445
 20
1.7294085442
 10
37.7048956322
 20
1.7253015056
 10
37.7053366785
 20
1.721201351
 10
37.7058452929
 20
1.7171093816
 10
37.7064213201
 20
1.7130266354
 10
37.7070645861
 20
1.7089541088
 10
37.7077749167
 20
1.7048927984
 10
37.7085521378
 20
1.7008437009
 10
37.7093960753
 20
1.6968078126
 10
37.710306555
 20
1.6927861303
 10
37.7112833592
 20
1.6887797301
 10
37.7123261418
 20
1.6847898193
 10
37.7134345142
 20
1.6808176853
 10
37.7146080877
 20
1.6768646153
 10
37.7158464736
 20
1.6729318965
 10
37.7171492833
 20
1.6690208161
 10
37.7185161281
 20
1.6651326615
  0
LWPOLYLINE
  5
2BE
100
AcDbEntity
  8
0
100
AcDbPolyline
 62
9
  6
CONTINUOUS
 90
22
 70
0
 10
39.632019294
 20
48.45
 10
39.6319852636
 20
48.4541213172
 10
39.6318832198
 20
48.458242464
 10
39.6317132335
 20
48.4623620979
 10
39.6314753757
 20
48.4664788761
 10
39.6311697175
 20
48.4705914559
 10
39.6307963298
 20
48.4746984944
 10
39.6303552835
 20
48.4787986491
 10
39.6298466691
 20
48.4828906185
 10
39.6292706419
 20
48.4869733647
 10
39.6286273759
 20
48.4910458913
 10
39.6279170453
 20
48.4951072016
 10
39.6271398242
 20
48.4991562992
 10
39.6262958867
 20
48.5031921874
 10
39.625385407
 20
48.5072138698
 10
39.6244086028
 20
48.5112202699
 10
39.6233658202
 20
48.5152101807
 10
39.6222574478
 20
48.5191823147
 10
39.6210838743
 20
48.5231353847
 10
39.6198454884
 20
48.5270681036
 10
39.6185426787
 20
48.5309791839
 10
39.6171758339
 20
48.5348673386
  0
LWPOLYLINE
  5
2BF
100
AcDbEntity
  8
0
100
AcDbPolyline
 62
7
  6
CONTINUOUS
 90
14
 70
0
 10
37.6678616684
 20
45.9094439987
 10
37.6679089391
 20
45.8962056513
 10
37.6679867516
 20
45.8834772956
 10
37.6680929875
 20
45.8715377419
 10
37.6682274001
 20
45.8604283812
 10
37.6683876862
 20
45.8504071764
 10
37.6685691967
 20
45.8417658036
 10
37.668767608
 20
45.8346609229
 10
37.6688626407
 20
45.8318866162
 10
37.668982029
 20
45.8291143981
 10
37.6692080438
 20
45.8252634492
 10
37.6692586088
 20
45.8245722534
 10
37.6693295726
 20
45.8238837559
 10
37.6694393566
 20
45.823201297
  0
LWPOLYLINE
  5
2C0
100
AcDbEntity
  8
0
100
AcDbPolyline
 62
9
  6
CONTINUOUS
 90
19
 70
0
 10
37.8585209442
 20
41.8552054488
 10
37.8584381617
 20
41.9148455963
 10
37.8582726197
 20
41.9739305985
 10
37.8580253745
 20
42.0320730401
 10
37.8576980025
 20
42.0889011143
 10
37.8572925882
 20
42.144053004
 10
37.856811703
 20
42.1971785456
 10
37.8562584118
 20
42.2479387635
 10
37.8556362352
 20
42.2960104843
 10
37.8549491381
 20
42.3410872657
 10
37.8542014848
 20
42.3828826318
 10
37.8533980383
 20
42.421130108
 10
37.8525439118
 20
42.4555861267
 10
37.8516445553
 20
42.4860307855
 10
37.8507056803
 20
42.512270696
 10
37.8497332645
 20
42.5341385764
 10
37.8487335291
 20
42.5514946781
 10
37.8482742814
 20
42.5578646047
 10
37.8477131152
 20
42.5642258508
  0
LWPOLYLINE
  5
2C1
100
AcDbEntity
  8
0
100
AcDbPolyline
 62
9
  6
CONTINUOUS
 90
18
 70
0
 10
38.108482868
 20
41.8650672531
 10
38.1084000586
 20
41.9446045487
 10
38.1082345064
 20
42.0233818116
 10
38.1079872555
 20
42.1009022345
 10
38.1076598844
 20
42.1766701412
 10
38.1072544766
 20
42.2502031588
 10
38.1067736041
 20
42.3210344608
 10
38.1062203315
 20
42.3887121369
 10
38.1055981785
 20
42.4528054122
 10
38.104911109
 20
42.5129058076
 10
38.1041634866
 20
42.5686313813
 10
38.1033600735
 20
42.6196268534
 10
38.1025059824
 20
42.66556748
 10
38.1016066621
 20
42.7061600691
 10
38.1006678251
 20
42.741146759
 10
38.0996954435
 20
42.7703045441
 10
38.0986957503
 20
42.7934469709
 10
38.097675039
 20
42.810427789
  0
LWPOLYLINE
  5
2C2
100
AcDbEntity
  8
0
100
AcDbPolyline
 62
7
  6
CONTINUOUS
 90
14
 70
0
 10
37.667845981
 20
6.8456556053
 10
37.6678872713
 20
6.7970765745
 10
37.6680116333
 20
6.7487012265
 10
37.6682178279
 20
6.7012628361
 10
37.6685024407
 20
6.6554080036
 10
37.6688637461
 20
6.611331185
 10
37.6693005199
 20
6.5692745077
 10
37.6698068639
 20
6.5298726414
 10
37.6703750226
 20
6.4936670192
 10
37.6710019782
 20
6.4607974472
 10
37.6716853039
 20
6.4314399502
 10
37.6724155666
 20
6.4060459415
 10
37.6727608987
 20
6.3954835795
 10
37.6731817698
 20
6.3849577542
  0
LINE
  5
2C3
100
AcDbEntity
  8
0
100
AcDbLine
 62
7
  6
CONTINUOUS
 10
37.667845981
 20
6.8456556053
 11
37.667845981
 21
43.3543443947
  0
LINE
  5
2C4
100
AcDbEntity
  8
0
100
AcDbLine
 62
7
  6
CONTINUOUS
 10
37.6678616684
 20
45.9094439987
 11
37.667845981
 21
47.35
  0
LINE
  5
2C5
100
AcDbEntity
  8
0
100
AcDbLine
 62
9
  6
CONTINUOUS
 10
37.703672668
 20
1.75
 11
37.703672668
 21
2.8678834227
  0
LINE
  5
2C6
100
AcDbEntity
  8
0
100
AcDbLine
 62
9
  6
CONTINUOUS
 10
37.703672668
 20
47.3321165774
 11
37.703672668
 21
48.45
  0
LINE
  5
2C7
100
AcDbEntity
  8
0
100
AcDbLine
 62
7
  6
CONTINUOUS
 10
37.7900314355
 20
6.3
 11
37.7900314355
 21
7.0530873205
  0
LINE
  5
2C8
100
AcDbEntity
  8
0
100
AcDbLine
 62
7
  6
CONTINUOUS
 10
37.7900314355
 20
43.1469126796
 11
37.7900314355
 21
43.9
  0
LINE
  5
2C9
100
AcDbEntity
  8
0
100
AcDbLine
 62
9
  6
CONTINUOUS
 10
37.7944713599
 20
2.9132793111
 11
37.7944713599
 21
6.3
  0
LINE
  5
2CA
100
AcDbEntity
  8
0
100
AcDbLine
 62
9
  6
CONTINUOUS
 10
37.7944713599
 20
43.9
 11
37.7944713599
 21
47.286720689
  0
LINE
  5
2CB
100
AcDbEntity
  8
0
100
AcDbLine
 62
9
  6
CONTINUOUS
 10
38.0444332837
 20
2.6632888304
 11
38.0444332837
 21
6.3
  0
LINE
  5
2CC
100
AcDbEntity
  8
0
100
AcDbLine
 62
9
  6
CONTINUOUS
 10
38.0444332837
 20
43.9
 11
38.0444332837
 21
47.5367111697
  0
LINE
  5
2CD
100
AcDbEntity
  8
0
100
AcDbLine
 62
9
  6
CONTINUOUS
 10
39.632019294
 20
48.45
 11
39.632019294
 21
47.5820880208
  0
LINE
  5
2CE
100
AcDbEntity
  8
0
100
AcDbLine
 62
9
  6
CONTINUOUS
 10
39.632019294
 20
2.6179119793
 11
39.632019294
 21
1.75
  0
LINE
  5
2CF
100
AcDbEntity
  8
0
100
AcDbLine
 62
9
  6
CONTINUOUS
 10
42.1241067368
 20
48.3218717645
 11
42.1241067368
 21
47.5718717645
  0
LINE
  5
2D0
100
AcDbEntity
  8
0
100
AcDbLine
 62
9
  6
CONTINUOUS
 10
42.1241067368
 20
2.6281282356
 11
42.1241067368
 21
1.8781282356
  0
LINE
  5
2D1
100
AcDbEntity
  8
0
100
AcDbLine
 62
9
  6
CONTINUOUS
 10
43.7051093291
 20
48.3218717645
 11
43.7051093291
 21
47.5718717645
  0
LINE
  5
2D2
100
AcDbEntity
  8
0
100
AcDbLine
 62
9
  6
CONTINUOUS
 10
43.7051093291
 20
2.6281282356
 11
43.7051093291
 21
1.8781282356
  0
LINE
  5
2D3
100
AcDbEntity
  8
0
100
AcDbLine
 62
7
  6
CONTINUOUS
 10
43.867845981
 20
1.7967661065
 11
43.867845981
 21
2.5467661065
  0
LINE
  5
2D4
100
AcDbEntity
  8
0
100
AcDbLine
 62
7
  6
CONTINUOUS
 10
43.867845981
 20
47.6532338936
 11
43.867845981
 21
48.4032338936
  0
LINE
  5
2D5
100
AcDbEntity
  8
0
100
AcDbLine
 62
3
  6
CONTINUOUS
 10
44.067845981
 20
49.2
 11
44.067845981
 21
47.6507488486
  0
LINE
  5
2D6
100
AcDbEntity
  8
0
100
AcDbLine
 62
7
  6
CONTINUOUS
 10
44.067845981
 20
1.0
 11
44.067845981
 21
0.0
  0
LINE
  5
2D7
100
AcDbEntity
  8
0
100
AcDbLine
 62
3
  6
CONTINUOUS
 10
44.067845981
 20
1.0
 11
44.067845981
 21
2.5492511515
  0
LINE
  5
2D8
100
AcDbEntity
  8
0
100
AcDbLine
 62
7
  6
CONTINUOUS
 10
44.067845981
 20
49.2
 11
44.067845981
 21
50.2
  0
LINE
  5
2D9
100
AcDbEntity
  8
0
100
AcDbLine
 62
3
  6
CONTINUOUS
 10
45.567845981
 20
49.2
 11
45.567845981
 21
48.7397902523
  0
LINE
  5
2DA
100
AcDbEntity
  8
0
100
AcDbLine
 62
3
  6
CONTINUOUS
 10
45.567845981
 20
1.4602097478
 11
45.567845981
 21
1.0
  0
LINE
  5
2DB
100
AcDbEntity
  8
0
100
AcDbLine
 62
9
  6
CONTINUOUS
 10
45.767845981
 20
49.0584094599
 11
45.767845981
 21
48.6779868534
  0
LINE
  5
2DC
100
AcDbEntity
  8
0
100
AcDbLine
 62
9
  6
CONTINUOUS
 10
45.767845981
 20
1.1415905402
 11
45.767845981
 21
1.5220131467
  0
LWPOLYLINE
  5
2DD
100
AcDbEntity
  8
0
100
AcDbPolyline
 62
9
  6
CONTINUOUS
 90
10
 70
0
 10
37.8585209442
 20
8.3447945513
 10
37.8608005382
 20
12.0668372941
 10
37.8625103872
 20
15.7898823466
 10
37.8636503595
 20
19.513643104
 10
37.8642203676
 20
23.2378332845
 10
37.8642203676
 20
26.9621665979
 10
37.8636503595
 20
30.6863567785
 10
37.8625103872
 20
34.4101175361
 10
37.8608005383
 20
38.1331625886
 10
37.8585209442
 20
41.8552054488
  0
LWPOLYLINE
  5
2DE
100
AcDbEntity
  8
0
100
AcDbPolyline
 62
9
  6
CONTINUOUS
 90
10
 70
0
 10
38.108482868
 20
8.334932747
 10
38.1107624622
 20
12.0591665375
 10
38.1124723111
 20
15.784402832
 10
38.1136122834
 20
19.5103552495
 10
38.1141822914
 20
23.236737342
 10
38.1141822914
 20
26.9632626581
 10
38.1136122834
 20
30.6896447507
 10
38.1124723111
 20
34.4155971681
 10
38.1107624622
 20
38.1408334626
 10
38.108482868
 20
41.8650672531
  0
LWPOLYLINE
  5
2DF
100
AcDbEntity
  8
0
100
AcDbPolyline
 62
9
  6
CONTINUOUS
 90
22
 70
0
 10
37.703672668
 20
48.45
 10
37.7037066984
 20
48.4541213172
 10
37.7038087422
 20
48.458242464
 10
37.7039787285
 20
48.4623620979
 10
37.7042165863
 20
48.4664788761
 10
37.7045222445
 20
48.4705914559
 10
37.7048956322
 20
48.4746984944
 10
37.7053366785
 20
48.4787986491
 10
37.7058452929
 20
48.4828906185
 10
37.7064213201
 20
48.4869733647
 10
37.7070645861
 20
48.4910458913
 10
37.7077749167
 20
48.4951072016
 10
37.7085521378
 20
48.4991562992
 10
37.7093960753
 20
48.5031921874
 10
37.710306555
 20
48.5072138698
 10
37.7112833592
 20
48.5112202699
 10
37.7123261418
 20
48.5152101807
 10
37.7134345142
 20
48.5191823147
 10
37.7146080877
 20
48.5231353847
 10
37.7158464736
 20
48.5270681036
 10
37.7171492833
 20
48.5309791839
 10
37.7185161281
 20
48.5348673386
  0
LWPOLYLINE
  5
2E0
100
AcDbEntity
  8
0
100
AcDbPolyline
 62
9
  6
CONTINUOUS
 90
22
 70
0
 10
39.632019294
 20
1.75
 10
39.6319852636
 20
1.7458786828
 10
39.6318832198
 20
1.741757536
 10
39.6317132335
 20
1.7376379021
 10
39.6314753757
 20
1.7335211239
 10
39.6311697175
 20
1.7294085442
 10
39.6307963298
 20
1.7253015056
 10
39.6303552835
 20
1.721201351
 10
39.6298466691
 20
1.7171093816
 10
39.6292706419
 20
1.7130266354
 10
39.6286273759
 20
1.7089541088
 10
39.6279170453
 20
1.7048927984
 10
39.6271398242
 20
1.7008437009
 10
39.6262958867
 20
1.6968078126
 10
39.625385407
 20
1.6927861303
 10
39.6244086028
 20
1.6887797301
 10
39.6233658202
 20
1.6847898193
 10
39.6222574478
 20
1.6808176853
 10
39.6210838743
 20
1.6768646153
 10
39.6198454884
 20
1.6729318965
 10
39.6185426787
 20
1.6690208161
 10
39.6171758339
 20
1.6651326615
  0
LWPOLYLINE
  5
2E1
100
AcDbEntity
  8
0
100
AcDbPolyline
 62
7
  6
CONTINUOUS
 90
57
 70
0
 10
37.7900314355
 20
43.1469126796
 10
37.790131415
 20
43.1540863145
 10
37.7904311997
 20
43.1612565802
 10
37.790930559
 20
43.1684168878
 10
37.791629262
 20
43.1755606484
 10
37.7925252058
 20
43.1826688184
 10
37.7936187581
 20
43.1897486953
 10
37.7949091241
 20
43.1967950392
 10
37.7963955087
 20
43.2038026104
 10
37.7980734059
 20
43.2107520158
 10
37.7999443739
 20
43.2176521104
 10
37.802007053
 20
43.2244974169
 10
37.8042600834
 20
43.2312824582
 10
37.8066938911
 20
43.2379803896
 10
37.8093135667
 20
43.244607795
 10
37.8121171951
 20
43.2511594705
 10
37.8151028611
 20
43.257630212
 10
37.8182588514
 20
43.2639959415
 10
37.8215914269
 20
43.2702710477
 10
37.8250981227
 20
43.2764505321
 10
37.8287764739
 20
43.2825293965
 10
37.8326077184
 20
43.2884782847
 10
37.8366037738
 20
43.2943177429
 10
37.8407616524
 20
43.3000430905
 10
37.8450783668
 20
43.3056496471
 10
37.8495357485
 20
43.3111148037
 10
37.8541444509
 20
43.3164529832
 10
37.8589009794
 20
43.3216598621
 10
37.8638018388
 20
43.3267311173
 10
37.8688221599
 20
43.3316422425
 10
37.8739781914
 20
43.3364106995
 10
37.8792659787
 20
43.3410326036
 10
37.8846815671
 20
43.34550407
 10
37.8902039573
 20
43.3498084449
 10
37.8958450634
 20
43.3539560313
 10
37.9016005042
 20
43.3579434289
 10
37.9074658986
 20
43.3617672379
 10
37.9134162342
 20
43.3654119458
 10
37.9194666746
 20
43.3688879541
 10
37.9256124719
 20
43.3721924137
 10
37.9318488784
 20
43.3753224753
 10
37.9381576563
 20
43.3782693386
 10
37.9445468995
 20
43.3810374433
 10
37.9510115741
 20
43.3836245303
 10
37.9575466466
 20
43.3860283406
 10
37.9641337541
 20
43.3882424662
 10
37.9707806103
 20
43.3902701729
 10
37.9774818613
 20
43.3921098358
 10
37.984232153
 20
43.3937598302
 10
37.9910214369
 20
43.3952176959
 10
37.9978491732
 20
43.3964835669
 10
38.0047101876
 20
43.3975564769
 10
38.0115993063
 20
43.3984354595
 10
38.0185093561
 20
43.3991195108
 10
38.0254357985
 20
43.399608478
 10
38.0323721075
 20
43.3999020711
 10
38.0393117574
 20
43.4
  0
LWPOLYLINE
  5
2E2
100
AcDbEntity
  8
0
100
AcDbPolyline
 62
9
  6
CONTINUOUS
 90
53
 70
0
 10
37.8477131152
 20
42.5642258508
 10
37.8478496786
 20
42.5716463016
 10
37.8482133387
 20
42.5790618421
 10
37.8488035425
 20
42.5864642677
 10
37.8496197371
 20
42.5938453737
 10
37.8506621498
 20
42.6012031641
 10
37.851928908
 20
42.6085249362
 10
37.8534185557
 20
42.6158042437
 10
37.8551296367
 20
42.6230346404
 10
37.857062976
 20
42.6302181452
 10
37.8592144937
 20
42.637339553
 10
37.8615818679
 20
42.6443922554
 10
37.8641627766
 20
42.6513696442
 10
37.8669591081
 20
42.6582754682
 10
37.8699641618
 20
42.6650930098
 10
37.8731748139
 20
42.6718161547
 10
37.8765879405
 20
42.6784387881
 10
37.880206684
 20
42.6849659883
 10
37.8840216149
 20
42.6913805186
 10
37.8880288831
 20
42.6976767023
 10
37.892224639
 20
42.7038488627
 10
37.8966131598
 20
42.7099024187
 10
37.9011825089
 20
42.7158206707
 10
37.9059281962
 20
42.7215984926
 10
37.9108457318
 20
42.7272307586
 10
37.9159401152
 20
42.7327224632
 10
37.9211974364
 20
42.7380583964
 10
37.9266126542
 20
42.743234028
 10
37.9321807271
 20
42.7482448279
 10
37.9379067246
 20
42.7530947418
 10
37.9437755551
 20
42.7577708057
 10
37.9497817174
 20
42.7622691283
 10
37.9559197103
 20
42.766585818
 10
37.9621938706
 20
42.7707234138
 10
37.9685888704
 20
42.7746716779
 10
37.9750988242
 20
42.778427384
 10
37.9817178465
 20
42.7819873056
 10
37.9884486905
 20
42.785352511
 10
37.9952768303
 20
42.7885156518
 10
38.0021961138
 20
42.791474185
 10
38.0092003892
 20
42.7942255672
 10
38.0162900523
 20
42.79676963
 10
38.0234522181
 20
42.7991017606
 10
38.0306804032
 20
42.8012201098
 10
38.0379681241
 20
42.8031228285
 10
38.0453127777
 20
42.8048090059
 10
38.0527043173
 20
42.8062763317
 10
38.0601365213
 20
42.8075236605
 10
38.067603168
 20
42.8085498469
 10
38.0750984095
 20
42.8093539224
 10
38.0826140319
 20
42.8099352316
 10
38.0901421901
 20
42.8102933339
 10
38.097675039
 20
42.810427789
  0
LINE
  5
2E3
100
AcDbEntity
  8
0
100
AcDbLine
 62
7
  6
CONTINUOUS
 10
37.667845981
 20
47.35
 11
37.7011023462
 21
48.45
  0
LINE
  5
2E4
100
AcDbEntity
  8
0
100
AcDbLine
 62
7
  6
CONTINUOUS
 10
39.6345896157
 20
1.75
 11
39.660400261
 21
2.6037225765
  0
LWPOLYLINE
  5
2E5
100
AcDbEntity
  8
0
100
AcDbPolyline
 62
7
  6
CONTINUOUS
 90
23
 70
0
 10
37.7011023462
 20
48.45
 10
37.7012402727
 20
48.453669463
 10
37.7014320438
 20
48.4573372854
 10
37.701677511
 20
48.4610025368
 10
37.7019765254
 20
48.4646642865
 10
37.7023289382
 20
48.4683216042
 10
37.7027346008
 20
48.4719735591
 10
37.7031933644
 20
48.4756192209
 10
37.7037050802
 20
48.4792576589
 10
37.7043487977
 20
48.4833711457
 10
37.7050600295
 20
48.4874731907
 10
37.7058384742
 20
48.4915628245
 10
37.7066838307
 20
48.4956390778
 10
37.7075957976
 20
48.4997009814
 10
37.7085740738
 20
48.5037475658
 10
37.7096183579
 20
48.5077778619
 10
37.7107042658
 20
48.5117065273
 10
37.7118526791
 20
48.5156175137
 10
37.713063135
 20
48.5195096804
 10
37.7143351707
 20
48.5233818868
 10
37.7156683233
 20
48.5272329924
 10
37.71706213
 20
48.5310618566
 10
37.7185161281
 20
48.5348673386
  0
LWPOLYLINE
  5
2E6
100
AcDbEntity
  8
0
100
AcDbPolyline
 62
7
  6
CONTINUOUS
 90
23
 70
0
 10
39.6345896157
 20
1.75
 10
39.6344516892
 20
1.7463305371
 10
39.6342599181
 20
1.7426627147
 10
39.6340144509
 20
1.7389974633
 10
39.6337154365
 20
1.7353357135
 10
39.6333630237
 20
1.7316783959
 10
39.6329573611
 20
1.728026441
 10
39.6324985975
 20
1.7243807792
 10
39.6319868818
 20
1.7207423412
 10
39.6313431642
 20
1.7166288544
 10
39.6306319324
 20
1.7125268094
 10
39.6298534877
 20
1.7084371756
 10
39.6290081313
 20
1.7043609222
 10
39.6280961643
 20
1.7002990186
 10
39.6271178882
 20
1.6962524342
 10
39.6260736041
 20
1.6922221382
 10
39.6249876962
 20
1.6882934728
 10
39.6238392829
 20
1.6843824864
 10
39.622628827
 20
1.6804903197
 10
39.6213567913
 20
1.6766181132
 10
39.6200236387
 20
1.6727670077
 10
39.618629832
 20
1.6689381435
 10
39.6171758339
 20
1.6651326615
  0
LINE
  5
2E7
100
AcDbEntity
  8
0
100
AcDbLine
 62
7
  6
CONTINUOUS
 10
41.9235321454
 20
47.6721514225
 11
41.9552491668
 21
48.4062941195
  0
LWPOLYLINE
  5
2E8
100
AcDbEntity
  8
0
100
AcDbPolyline
 62
7
  6
CONTINUOUS
 90
55
 70
0
 10
37.703672668
 20
47.3321165774
 10
37.7039853442
 20
47.3385910218
 10
37.7044710648
 20
47.3450566154
 10
37.7051289877
 20
47.3515079594
 10
37.7059582706
 20
47.357939655
 10
37.7069711448
 20
47.3644239294
 10
37.7081573658
 20
47.3708782565
 10
37.7095156078
 20
47.3772983464
 10
37.711044545
 20
47.383679909
 10
37.7127688895
 20
47.390111117
 10
37.7146657408
 20
47.3964937293
 10
37.7167332402
 20
47.4028232302
 10
37.7189695295
 20
47.4090951041
 10
37.7214164348
 20
47.4154135526
 10
37.7240338048
 20
47.4216632997
 10
37.726819248
 20
47.4278399921
 10
37.7297703735
 20
47.4339392764
 10
37.7329516355
 20
47.4400819036
 10
37.7363001407
 20
47.4461350304
 10
37.7398129344
 20
47.452094376
 10
37.7434870615
 20
47.4579556598
 10
37.7474159872
 20
47.4638553578
 10
37.7515076343
 20
47.4696434341
 10
37.755758438
 20
47.4753157192
 10
37.7601648338
 20
47.4808680436
 10
37.764856953
 20
47.4864510693
 10
37.7697057488
 20
47.491898645
 10
37.7747069703
 20
47.4972067178
 10
37.7798563667
 20
47.5023712348
 10
37.7853299907
 20
47.5075542473
 10
37.79095233
 20
47.5125756495
 10
37.7967183389
 20
47.5174315292
 10
37.8026229713
 20
47.5221179738
 10
37.8088995648
 20
47.5268038543
 10
37.8153143503
 20
47.5312988518
 10
37.8218613056
 20
47.5355992343
 10
37.8285344084
 20
47.5397012697
 10
37.8356383303
 20
47.543773326
 10
37.8428663395
 20
47.5476210873
 10
37.8502112587
 20
47.5512410769
 10
37.8576659104
 20
47.5546298183
 10
37.8656232936
 20
47.5579433587
 10
37.8736853733
 20
47.5609937537
 10
37.8818432164
 20
47.563777929
 10
37.89008789
 20
47.5662928103
 10
37.897147687
 20
47.5682140135
 10
37.904258401
 20
47.5699377371
 10
37.9114148236
 20
47.5714627434
 10
37.9186117466
 20
47.572787795
 10
37.9258439616
 20
47.5739116543
 10
37.9336200168
 20
47.5748906461
 10
37.9414221856
 20
47.5756369828
 10
37.9492420972
 20
47.5761500533
 10
37.9570713805
 20
47.5764292464
 10
37.9649016644
 20
47.5764739509
  0
LWPOLYLINE
  5
2E9
100
AcDbEntity
  8
0
100
AcDbPolyline
 62
7
  6
CONTINUOUS
 90
15
 70
0
 10
37.6739797596
 20
43.8317532472
 10
37.6731817698
 20
43.8150422459
 10
37.6727608987
 20
43.8045164206
 10
37.6724155666
 20
43.7939540585
 10
37.6716853039
 20
43.7685600498
 10
37.6710019782
 20
43.7392025529
 10
37.6703750226
 20
43.7063329809
 10
37.6698068639
 20
43.6701273587
 10
37.6693005199
 20
43.6307254924
 10
37.6688637461
 20
43.5886688151
 10
37.6685024407
 20
43.5445919965
 10
37.6682178279
 20
43.498737164
 10
37.6680116333
 20
43.4512987736
 10
37.6678872713
 20
43.4029234256
 10
37.667845981
 20
43.3543443947
  0
LWPOLYLINE
  5
2EA
100
AcDbEntity
  8
0
100
AcDbPolyline
 62
9
  6
CONTINUOUS
 90
18
 70
0
 10
38.097675039
 20
7.3895722111
 10
38.0986957532
 20
7.406553063
 10
38.0996954458
 20
7.4296954956
 10
38.1006678276
 20
7.4588532833
 10
38.1016066647
 20
7.4938399899
 10
38.1025059848
 20
7.5344325792
 10
38.1033600757
 20
7.580373206
 10
38.1041634888
 20
7.6313686856
 10
38.1049111112
 20
7.6870942728
 10
38.1055981805
 20
7.7471946735
 10
38.1062203331
 20
7.8112879441
 10
38.1067736054
 20
7.8789656214
 10
38.1072544776
 20
7.9497969361
 10
38.1076598852
 20
8.0233299696
 10
38.107987256
 20
8.0990978593
 10
38.1082345065
 20
8.1766182996
 10
38.108400059
 20
8.2553955791
 10
38.108482868
 20
8.334932747
  0
LWPOLYLINE
  5
2EB
100
AcDbEntity
  8
0
100
AcDbPolyline
 62
7
  6
CONTINUOUS
 90
8
 70
0
 10
37.7537833762
 20
43.9124897935
 10
37.7530442646
 20
43.9047770868
 10
37.7525826537
 20
43.9017241294
 10
37.7521427116
 20
43.8985618011
 10
37.751866312
 20
43.8950559393
 10
37.751786675
 20
43.8935853703
 10
37.7514815898
 20
43.8922849547
 10
37.7506788534
 20
43.8914132821
  0
LWPOLYLINE
  5
2EC
100
AcDbEntity
  8
0
100
AcDbPolyline
 62
7
  6
CONTINUOUS
 90
13
 70
0
 43
0.3500000006
 10
7.383185091
 20
71.4500033569
 10
7.517114027
 20
71.6999989014
 10
7.7849707661
 20
71.9500035095
 10
8.0528280716
 20
71.9500035095
 10
8.3206853771
 20
71.6999989014
 10
8.4546137466
 20
71.4500033569
 10
8.4546137466
 20
70.9500032043
 10
8.3206853771
 20
70.6999985962
 10
8.0528280716
 20
70.4500030518
 10
7.7849707661
 20
70.1999984436
 10
7.517114027
 20
69.699998291
 10
7.383185091
 20
68.950002594
 10
8.4546137466
 20
68.950002594
  0
LINE
  5
2ED
100
AcDbEntity
  8
0
100
AcDbLine
 62
9
  6
CONTINUOUS
 10
56.6658546677
 20
1.8809565705
 11
56.5861909798
 21
1.8802732063
  0
LWPOLYLINE
  5
2EE
100
AcDbEntity
  8
0
100
AcDbPolyline
 62
7
  6
CONTINUOUS
 90
47
 70
0
 10
45.767845981
 20
1.1415905402
 10
45.7580867107
 20
1.1415172499
 10
45.7483287879
 20
1.1412961382
 10
45.7385749455
 20
1.1409253437
 10
45.7288279166
 20
1.1404030052
 10
45.7194278188
 20
1.1397525896
 10
45.7100394563
 20
1.1389534613
 10
45.7006656685
 20
1.1379998628
 10
45.6913092945
 20
1.1368860365
 10
45.6843612488
 20
1.1359494494
 10
45.6774269521
 20
1.1349155057
 10
45.6705089423
 20
1.133778731
 10
45.6636097571
 20
1.1325336504
 10
45.6567319344
 20
1.1311747894
 10
45.650616244
 20
1.1298612072
 10
45.6445236226
 20
1.128444257
 10
45.6384581154
 20
1.1269154934
 10
45.6324237677
 20
1.1252664708
 10
45.6264246247
 20
1.1234887437
 10
45.6221992752
 20
1.1221461801
 10
45.6179988804
 20
1.1207268615
 10
45.6138287007
 20
1.1192228496
 10
45.6096939968
 20
1.117626206
 10
45.6056000292
 20
1.1159289922
 10
45.6015520585
 20
1.11412327
 10
45.5983383775
 20
1.1125878986
 10
45.5951664549
 20
1.1109675148
 10
45.5920449771
 20
1.1092522398
 10
45.5889826302
 20
1.1074321946
 10
45.5859881005
 20
1.1054975003
 10
45.5830700745
 20
1.1034382781
 10
45.5814436252
 20
1.1022026793
 10
45.5798550876
 20
1.1009175435
 10
45.5783146209
 20
1.0995771194
 10
45.5768323844
 20
1.098175656
 10
45.5754185373
 20
1.0967074021
 10
45.5740832389
 20
1.0951666067
 10
45.5728366483
 20
1.0935475184
 10
45.5716889249
 20
1.0918443863
 10
45.5708708344
 20
1.0904574221
 10
45.5701290077
 20
1.0890226903
 10
45.5694735588
 20
1.0875469045
 10
45.5689146021
 20
1.0860367783
 10
45.5684622517
 20
1.0844990252
 10
45.5681266219
 20
1.082940359
 10
45.5679178269
 20
1.0813674932
 10
45.567845981
 20
1.0797871413
  0
LINE
  5
2EF
100
AcDbEntity
  8
0
100
AcDbLine
 62
9
  6
CONTINUOUS
 10
42.4425358487
 20
1.8815078337
 11
42.3323182426
 21
1.880744041
  0
LINE
  5
2F0
100
AcDbEntity
  8
0
100
AcDbLine
 62
9
  6
CONTINUOUS
 10
56.777164788
 20
1.8816645372
 11
56.6658546677
 21
1.8809565705
  0
LINE
  5
2F1
100
AcDbEntity
  8
0
100
AcDbLine
 62
9
  6
CONTINUOUS
 10
42.5841261647
 20
1.8821697537
 11
42.4425358487
 21
1.8815078337
  0
LINE
  5
2F2
100
AcDbEntity
  8
0
100
AcDbLine
 62
9
  6
CONTINUOUS
 10
56.9331789612
 20
1.8823133913
 11
56.777164788
 21
1.8816645372
  0
LINE
  5
2F3
100
AcDbEntity
  8
0
100
AcDbLine
 62
9
  6
CONTINUOUS
 10
57.032108441
 20
1.8825626538
 11
56.9331789612
 21
1.8823133913
  0
LINE
  5
2F4
100
AcDbEntity
  8
0
100
AcDbLine
 62
9
  6
CONTINUOUS
 10
42.7256325449
 20
1.8825626538
 11
42.5841261647
 21
1.8821697537
  0
LINE
  5
2F5
100
AcDbEntity
  8
0
100
AcDbLine
 62
9
  6
CONTINUOUS
 10
57.1303207737
 20
1.8827032605
 11
57.032108441
 21
1.8825626538
  0
LINE
  5
2F6
100
AcDbEntity
  8
0
100
AcDbLine
 62
9
  6
CONTINUOUS
 10
42.8238448776
 20
1.8827032605
 11
42.7256325449
 21
1.8825626538
  0
LINE
  5
2F7
100
AcDbEntity
  8
0
100
AcDbLine
 62
7
  6
CONTINUOUS
 10
10.3
 20
0.0
 11
10.814162984
 21
0.0
  0
LINE
  5
2F8
100
AcDbEntity
  8
0
100
AcDbLine
 62
7
  6
CONTINUOUS
 10
44.067845981
 20
0.0
 11
56.067845981
 21
0.0
  0
LINE
  5
2F9
100
AcDbEntity
  8
0
100
AcDbLine
 62
3
  6
CONTINUOUS
 10
10.3
 20
0.4
 11
10.814162984
 21
0.4
  0
LINE
  5
2FA
100
AcDbEntity
  8
0
100
AcDbLine
 62
9
  6
CONTINUOUS
 10
10.0
 20
0.7
 11
9.6
 21
0.7
  0
LINE
  5
2FB
100
AcDbEntity
  8
0
100
AcDbLine
 62
9
  6
CONTINUOUS
 10
44.067845981
 20
0.7
 11
56.067845981
 21
0.7
  0
LINE
  5
2FC
100
AcDbEntity
  8
0
100
AcDbLine
 62
7
  6
CONTINUOUS
 10
10.0
 20
1.0
 11
9.6
 21
1.0
  0
LINE
  5
2FD
100
AcDbEntity
  8
0
100
AcDbLine
 62
7
  6
CONTINUOUS
 10
44.067845981
 20
1.0
 11
46.1345797462
 21
1.0
  0
LINE
  5
2FE
100
AcDbEntity
  8
0
100
AcDbLine
 62
7
  6
CONTINUOUS
 10
54.0011122158
 20
1.0
 11
56.067845981
 21
1.0
  0
LINE
  5
2FF
100
AcDbEntity
  8
0
100
AcDbLine
 62
7
  6
CONTINUOUS
 10
54.367845981
 20
1.1415905402
 11
53.8099275959
 21
1.1415905402
  0
LINE
  5
300
100
AcDbEntity
  8
0
100
AcDbLine
 62
7
  6
CONTINUOUS
 10
46.3257643661
 20
1.1415905402
 11
45.767845981
 21
1.1415905402
  0
LINE
  5
301
100
AcDbEntity
  8
0
100
AcDbLine
 62
9
  6
CONTINUOUS
 10
9.6
 20
1.1825688515
 11
10.0
 21
1.1825688515
  0
LINE
  5
302
100
AcDbEntity
  8
0
100
AcDbLine
 62
7
  6
CONTINUOUS
 10
8.7500008273
 20
1.5
 11
9.1617314098
 21
1.5
  0
LINE
  5
303
100
AcDbEntity
  8
0
100
AcDbLine
 62
7
  6
CONTINUOUS
 10
38.0207807921
 20
1.5
 11
39.3149111699
 21
1.5
  0
LINE
  5
304
100
AcDbEntity
  8
0
100
AcDbLine
 62
7
  6
CONTINUOUS
 10
60.8207807921
 20
1.5
 11
62.1149111699
 21
1.5
  0
LINE
  5
305
100
AcDbEntity
  8
0
100
AcDbLine
 62
3
  6
CONTINUOUS
 10
54.367845981
 20
1.5220131467
 11
53.7721757484
 21
1.5220131467
  0
LINE
  5
306
100
AcDbEntity
  8
0
100
AcDbLine
 62
3
  6
CONTINUOUS
 10
46.3635162135
 20
1.5220131467
 11
45.767845981
 21
1.5220131467
  0
LINE
  5
307
100
AcDbEntity
  8
0
100
AcDbLine
 62
9
  6
CONTINUOUS
 10
8.5
 20
1.75
 11
9.5947441117
 21
1.75
  0
LINE
  5
308
100
AcDbEntity
  8
0
100
AcDbLine
 62
9
  6
CONTINUOUS
 10
37.7011023462
 20
1.75
 11
39.6345896157
 21
1.75
  0
LINE
  5
309
100
AcDbEntity
  8
0
100
AcDbLine
 62
9
  6
CONTINUOUS
 10
60.5011023462
 20
1.75
 11
62.4345896157
 21
1.75
  0
LINE
  5
30A
100
AcDbEntity
  8
0
100
AcDbLine
 62
7
  6
CONTINUOUS
 10
41.9552491668
 20
1.7937058805
 11
44.067845981
 21
1.7937058805
  0
LINE
  5
30B
100
AcDbEntity
  8
0
100
AcDbLine
 62
7
  6
CONTINUOUS
 10
56.067845981
 20
1.7937058805
 11
58.1804427952
 21
1.7937058805
  0
LINE
  5
30C
100
AcDbEntity
  8
0
100
AcDbLine
 62
7
  6
CONTINUOUS
 10
56.267845981
 20
1.7967661065
 11
56.067845981
 21
1.7967661065
  0
LINE
  5
30D
100
AcDbEntity
  8
0
100
AcDbLine
 62
7
  6
CONTINUOUS
 10
44.067845981
 20
1.7967661065
 11
43.867845981
 21
1.7967661065
  0
LINE
  5
30E
100
AcDbEntity
  8
0
100
AcDbLine
 62
7
  6
CONTINUOUS
 10
40.8121598166
 20
2.5278485776
 11
41.9235321454
 21
2.5278485776
  0
LINE
  5
30F
100
AcDbEntity
  8
0
100
AcDbLine
 62
7
  6
CONTINUOUS
 10
58.2121598166
 20
2.5278485776
 11
59.3235321454
 21
2.5278485776
  0
LINE
  5
310
100
AcDbEntity
  8
0
100
AcDbLine
 62
7
  6
CONTINUOUS
 10
43.867845981
 20
2.5467661065
 11
44.067845981
 21
2.5467661065
  0
LINE
  5
311
100
AcDbEntity
  8
0
100
AcDbLine
 62
7
  6
CONTINUOUS
 10
56.067845981
 20
2.5467661065
 11
56.267845981
 21
2.5467661065
  0
LINE
  5
312
100
AcDbEntity
  8
0
100
AcDbLine
 62
3
  6
CONTINUOUS
 10
54.0394106421
 20
2.5492511515
 11
54.017845981
 21
2.5492511515
  0
LINE
  5
313
100
AcDbEntity
  8
0
100
AcDbLine
 62
3
  6
CONTINUOUS
 10
46.0962813198
 20
2.5492511515
 11
46.117845981
 21
2.5492511515
  0
LINE
  5
314
100
AcDbEntity
  8
0
100
AcDbLine
 62
7
  6
CONTINUOUS
 10
39.660400261
 20
2.6037225765
 11
39.7750313534
 21
2.6037225765
  0
LINE
  5
315
100
AcDbEntity
  8
0
100
AcDbLine
 62
7
  6
CONTINUOUS
 10
60.3606606086
 20
2.6037225765
 11
60.4752917009
 21
2.6037225765
  0
LINE
  5
316
100
AcDbEntity
  8
0
100
AcDbLine
 62
7
  6
CONTINUOUS
 10
53.967845981
 20
2.6191991092
 11
46.167845981
 21
2.6191991092
  0
LINE
  5
317
100
AcDbEntity
  8
0
100
AcDbLine
 62
9
  6
CONTINUOUS
 10
62.0912586782
 20
2.6632888304
 11
38.0444332837
 21
2.6632888304
  0
LINE
  5
318
100
AcDbEntity
  8
0
100
AcDbLine
 62
9
  6
CONTINUOUS
 10
42.9634616168
 20
1.8827327898
 11
42.8238448776
 21
1.8827032605
  0
LINE
  5
319
100
AcDbEntity
  8
0
100
AcDbLine
 62
9
  6
CONTINUOUS
 10
57.2699375129
 20
1.8827327898
 11
57.1303207737
 21
1.8827032605
  0
LINE
  5
31A
100
AcDbEntity
  8
0
100
AcDbLine
 62
9
  6
CONTINUOUS
 10
43.1600395126
 20
1.8824343415
 11
42.9634616168
 21
1.8827327898
  0
LINE
  5
31B
100
AcDbEntity
  8
0
100
AcDbLine
 62
9
  6
CONTINUOUS
 10
57.4665154087
 20
1.8824343415
 11
57.2699375129
 21
1.8827327898
  0
LINE
  5
31C
100
AcDbEntity
  8
0
100
AcDbLine
 62
9
  6
CONTINUOUS
 10
43.3302605516
 20
1.8818085276
 11
43.1600395126
 21
1.8824343415
  0
LINE
  5
31D
100
AcDbEntity
  8
0
100
AcDbLine
 62
9
  6
CONTINUOUS
 10
57.6367364477
 20
1.8818085276
 11
57.4665154087
 21
1.8824343415
  0
LWPOLYLINE
  5
31E
100
AcDbEntity
  8
0
100
AcDbPolyline
 62
7
  6
CONTINUOUS
 90
55
 70
0
 10
37.9649016644
 20
2.6235260492
 10
37.9570713805
 20
2.6235707536
 10
37.9492420972
 20
2.6238499467
 10
37.9414221856
 20
2.6243630172
 10
37.9336200168
 20
2.625109354
 10
37.9258439616
 20
2.6260883457
 10
37.9186117466
 20
2.6272122051
 10
37.9114148236
 20
2.6285372567
 10
37.904258401
 20
2.630062263
 10
37.897147687
 20
2.6317859866
 10
37.89008789
 20
2.6337071897
 10
37.8818432164
 20
2.636222071
 10
37.8736853733
 20
2.6390062463
 10
37.8656232936
 20
2.6420566414
 10
37.8576659104
 20
2.6453701818
 10
37.8502112587
 20
2.6487589232
 10
37.8428663395
 20
2.6523789128
 10
37.8356383303
 20
2.656226674
 10
37.8285344084
 20
2.6602987303
 10
37.8218613056
 20
2.6644007658
 10
37.8153143503
 20
2.6687011483
 10
37.8088995648
 20
2.6731961458
 10
37.8026229713
 20
2.6778820263
 10
37.7967183389
 20
2.6825684709
 10
37.79095233
 20
2.6874243506
 10
37.7853299907
 20
2.6924457528
 10
37.7798563667
 20
2.6976287653
 10
37.7747069703
 20
2.7027932823
 10
37.7697057488
 20
2.7081013551
 10
37.764856953
 20
2.7135489308
 10
37.7601648338
 20
2.7191319565
 10
37.755758438
 20
2.7246842809
 10
37.7515076343
 20
2.730356566
 10
37.7474159872
 20
2.7361446423
 10
37.7434870615
 20
2.7420443403
 10
37.7398129344
 20
2.7479056241
 10
37.7363001407
 20
2.7538649697
 10
37.7329516355
 20
2.7599180965
 10
37.7297703735
 20
2.7660607237
 10
37.726819248
 20
2.772160008
 10
37.7240338048
 20
2.7783367004
 10
37.7214164348
 20
2.7845864475
 10
37.7189695295
 20
2.790904896
 10
37.7167332402
 20
2.7971767699
 10
37.7146657408
 20
2.8035062708
 10
37.7127688895
 20
2.8098888831
 10
37.711044545
 20
2.816320091
 10
37.7095156078
 20
2.8227016537
 10
37.7081573658
 20
2.8291217435
 10
37.7069711448
 20
2.8355760706
 10
37.7059582706
 20
2.842060345
 10
37.7051289877
 20
2.8484920407
 10
37.7044710648
 20
2.8549433847
 10
37.7039853442
 20
2.8614089783
 10
37.703672668
 20
2.8678834227
  0
LINE
  5
31F
100
AcDbEntity
  8
0
100
AcDbLine
 62
9
  6
CONTINUOUS
 10
43.4561717605
 20
1.8810571974
 11
43.3302605516
 21
1.8818085276
  0
LINE
  5
320
100
AcDbEntity
  8
0
100
AcDbLine
 62
9
  6
CONTINUOUS
 10
57.7626476566
 20
1.8810571974
 11
57.6367364477
 21
1.8818085276
  0
LWPOLYLINE
  5
321
100
AcDbEntity
  8
0
100
AcDbPolyline
 62
3
  6
CONTINUOUS
 90
47
 70
0
 10
54.367845981
 20
1.5220131467
 10
54.3776052512
 20
1.5219398564
 10
54.3873631741
 20
1.5217187447
 10
54.3971170165
 20
1.5213479502
 10
54.4068640454
 20
1.5208256117
 10
54.4162641432
 20
1.5201751961
 10
54.4256525057
 20
1.5193760678
 10
54.4350262935
 20
1.5184224693
 10
54.4443826675
 20
1.517308643
 10
54.4513307132
 20
1.5163720559
 10
54.4582650099
 20
1.5153381122
 10
54.4651830197
 20
1.5142013375
 10
54.4720822049
 20
1.5129562569
 10
54.4789600276
 20
1.5115973959
 10
54.485075718
 20
1.5102838137
 10
54.4911683394
 20
1.5088668635
 10
54.4972338466
 20
1.5073380999
 10
54.5032681943
 20
1.5056890774
 10
54.5092673372
 20
1.5039113503
 10
54.5134926867
 20
1.5025687866
 10
54.5176930816
 20
1.501149468
 10
54.5218632612
 20
1.4996454561
 10
54.5259979651
 20
1.4980488125
 10
54.5300919327
 20
1.4963515988
 10
54.5341399034
 20
1.4945458766
 10
54.5373535844
 20
1.4930105051
 10
54.540525507
 20
1.4913901213
 10
54.5436469849
 20
1.4896748463
 10
54.5467093318
 20
1.4878548011
 10
54.5497038614
 20
1.4859201069
 10
54.5526218875
 20
1.4838608846
 10
54.5542483368
 20
1.4826252858
 10
54.5558368743
 20
1.48134015
 10
54.557377341
 20
1.4799997259
 10
54.5588595775
 20
1.4785982625
 10
54.5602734246
 20
1.4771300086
 10
54.5616087231
 20
1.4755892132
 10
54.5628553136
 20
1.4739701249
 10
54.5640030371
 20
1.4722669928
 10
54.5648211275
 20
1.4708800286
 10
54.5655629543
 20
1.4694452968
 10
54.5662184031
 20
1.467969511
 10
54.5667773599
 20
1.4664593848
 10
54.5672297103
 20
1.4649216317
 10
54.5675653401
 20
1.4633629655
 10
54.5677741351
 20
1.4617900997
 10
54.567845981
 20
1.4602097478
  0
LWPOLYLINE
  5
322
100
AcDbEntity
  8
0
100
AcDbPolyline
 62
3
  6
CONTINUOUS
 90
47
 70
0
 10
54.017845981
 20
2.5492511515
 10
54.0080867107
 20
2.5493244418
 10
53.9983287879
 20
2.5495455535
 10
53.9885749455
 20
2.549916348
 10
53.9788279166
 20
2.5504386865
 10
53.9694278188
 20
2.5510891021
 10
53.9600394563
 20
2.5518882304
 10
53.9506656685
 20
2.5528418289
 10
53.9413092945
 20
2.5539556552
 10
53.9343612488
 20
2.5548922423
 10
53.9274269521
 20
2.555926186
 10
53.9205089423
 20
2.5570629607
 10
53.9136097571
 20
2.5583080413
 10
53.9067319344
 20
2.5596669023
 10
53.900616244
 20
2.5609804845
 10
53.8945236226
 20
2.5623974347
 10
53.8884581154
 20
2.5639261983
 10
53.8824237677
 20
2.5655752209
 10
53.8764246247
 20
2.567352948
 10
53.8721992752
 20
2.5686955116
 10
53.8679988804
 20
2.5701148302
 10
53.8638287007
 20
2.5716188421
 10
53.8596939968
 20
2.5732154857
 10
53.8556000292
 20
2.5749126995
 10
53.8515520585
 20
2.5767184217
 10
53.8483383775
 20
2.5782537931
 10
53.8451664549
 20
2.5798741769
 10
53.8420449771
 20
2.5815894519
 10
53.8389826302
 20
2.5834094971
 10
53.8359881005
 20
2.5853441914
 10
53.8330700745
 20
2.5874034136
 10
53.8314436252
 20
2.5886390124
 10
53.8298550876
 20
2.5899241482
 10
53.8283146209
 20
2.5912645723
 10
53.8268323844
 20
2.5926660357
 10
53.8254185373
 20
2.5941342896
 10
53.8240832389
 20
2.595675085
 10
53.8228366483
 20
2.5972941733
 10
53.8216889249
 20
2.5989973054
 10
53.8208708344
 20
2.6003842696
 10
53.8201290077
 20
2.6018190014
 10
53.8194735588
 20
2.6032947872
 10
53.8189146021
 20
2.6048049134
 10
53.8184622517
 20
2.6063426665
 10
53.8181266219
 20
2.6079013327
 10
53.8179178269
 20
2.6094741985
 10
53.817845981
 20
2.6110545504
  0
LINE
  5
323
100
AcDbEntity
  8
0
100
AcDbLine
 62
7
  6
CONTINUOUS
 10
7.7478183587
 20
1.8827447931
 11
8.5
 21
1.8761806034
  0
LINE
  5
324
100
AcDbEntity
  8
0
100
AcDbLine
 62
7
  6
CONTINUOUS
 10
9.7937399586
 20
1.8648903058
 11
17.9506671649
 21
1.7937058805
  0
LINE
  5
325
100
AcDbEntity
  8
0
100
AcDbLine
 62
7
  6
CONTINUOUS
 10
19.7677341029
 20
2.5278485776
 11
11.0734349896
 21
2.6037225765
  0
LINE
  5
326
100
AcDbEntity
  8
0
100
AcDbLine
 62
7
  6
CONTINUOUS
 10
8.8041817858
 20
2.6235260492
 11
4.2478183661
 21
2.6632888304
  0
LINE
  5
327
100
AcDbEntity
  8
0
100
AcDbLine
 62
9
  6
CONTINUOUS
 10
9.4474904758
 20
2.8678834227
 11
4.2456368984
 21
2.9132793111
  0
LINE
  5
328
100
AcDbEntity
  8
0
100
AcDbLine
 62
9
  6
CONTINUOUS
 10
43.5495006876
 20
1.8802732092
 11
43.4561717605
 21
1.8810571974
  0
LINE
  5
329
100
AcDbEntity
  8
0
100
AcDbLine
 62
9
  6
CONTINUOUS
 10
57.8559765837
 20
1.8802732092
 11
57.7626476566
 21
1.8810571974
  0
LWPOLYLINE
  5
32A
100
AcDbEntity
  8
0
100
AcDbPolyline
 62
7
  6
CONTINUOUS
 90
48
 70
0
 10
38.0207807921
 20
1.5
 10
38.0139447655
 20
1.5000753755
 10
38.0071110966
 20
1.5002973266
 10
38.0002831281
 20
1.5006595904
 10
37.9926605527
 20
1.5012234487
 10
37.9850518551
 20
1.501948954
 10
37.9774596117
 20
1.5028302273
 10
37.969169864
 20
1.5039671351
 10
37.9609058623
 20
1.5052788788
 10
37.9526705449
 20
1.5067606572
 10
37.9437748472
 20
1.5085547946
 10
37.9349198046
 20
1.5105400029
 10
37.9261088768
 20
1.5127130028
 10
37.9167599894
 20
1.5152355077
 10
37.9074699129
 20
1.5179668326
 10
37.8982432921
 20
1.5209057211
 10
37.888658311
 20
1.5242035011
 10
37.8791545057
 20
1.5277284858
 10
37.869738431
 20
1.5314818202
 10
37.862565648
 20
1.5345225026
 10
37.8554525021
 20
1.5377002792
 10
37.8484029397
 20
1.5410166902
 10
37.8414209069
 20
1.544473276
 10
37.8344807235
 20
1.5480876841
 10
37.8276181783
 20
1.5518475103
 10
37.8208388104
 20
1.5557552226
 10
37.8141481592
 20
1.5598132892
 10
37.8076359077
 20
1.5639694351
 10
37.8012230796
 20
1.5682775137
 10
37.794917239
 20
1.5727405204
 10
37.7887259495
 20
1.5773614507
 10
37.7828161419
 20
1.5820147523
 10
37.7770319622
 20
1.5868234592
 10
37.7713832975
 20
1.5917904572
 10
37.7658800349
 20
1.596918632
 10
37.7607215568
 20
1.6020180785
 10
37.7557197357
 20
1.6072714023
 10
37.7508868736
 20
1.6126799704
 10
37.7462352728
 20
1.6182451495
 10
37.7419518867
 20
1.6237363638
 10
37.737860595
 20
1.6293724844
 10
37.7339750816
 20
1.6351528066
 10
37.7303090302
 20
1.6410766257
 10
37.7276447416
 20
1.6457342914
 10
37.7251259839
 20
1.6504726657
 10
37.7227600803
 20
1.6552878107
 10
37.720554354
 20
1.6601757886
 10
37.7185161281
 20
1.6651326615
  0
LWPOLYLINE
  5
32B
100
AcDbEntity
  8
0
100
AcDbPolyline
 62
7
  6
CONTINUOUS
 90
48
 70
0
 10
60.8207807921
 20
1.5
 10
60.8139447655
 20
1.5000753755
 10
60.8071110966
 20
1.5002973266
 10
60.8002831281
 20
1.5006595904
 10
60.7926605527
 20
1.5012234487
 10
60.7850518551
 20
1.501948954
 10
60.7774596117
 20
1.5028302273
 10
60.769169864
 20
1.5039671351
 10
60.7609058623
 20
1.5052788788
 10
60.7526705449
 20
1.5067606572
 10
60.7437748472
 20
1.5085547946
 10
60.7349198046
 20
1.5105400029
 10
60.7261088768
 20
1.5127130028
 10
60.7167599894
 20
1.5152355077
 10
60.7074699129
 20
1.5179668326
 10
60.6982432921
 20
1.5209057211
 10
60.688658311
 20
1.5242035011
 10
60.6791545057
 20
1.5277284858
 10
60.669738431
 20
1.5314818202
 10
60.662565648
 20
1.5345225026
 10
60.6554525021
 20
1.5377002792
 10
60.6484029397
 20
1.5410166902
 10
60.6414209069
 20
1.544473276
 10
60.6344807235
 20
1.5480876841
 10
60.6276181783
 20
1.5518475103
 10
60.6208388104
 20
1.5557552226
 10
60.6141481592
 20
1.5598132892
 10
60.6076359077
 20
1.5639694351
 10
60.6012230796
 20
1.5682775137
 10
60.594917239
 20
1.5727405204
 10
60.5887259495
 20
1.5773614507
 10
60.5828161419
 20
1.5820147523
 10
60.5770319622
 20
1.5868234592
 10
60.5713832975
 20
1.5917904572
 10
60.5658800349
 20
1.596918632
 10
60.5607215568
 20
1.6020180785
 10
60.5557197357
 20
1.6072714023
 10
60.5508868736
 20
1.6126799704
 10
60.5462352728
 20
1.6182451495
 10
60.5419518867
 20
1.6237363638
 10
60.537860595
 20
1.6293724844
 10
60.5339750816
 20
1.6351528066
 10
60.5303090302
 20
1.6410766257
 10
60.5276447416
 20
1.6457342914
 10
60.5251259839
 20
1.6504726657
 10
60.5227600803
 20
1.6552878107
 10
60.520554354
 20
1.6601757886
 10
60.5185161281
 20
1.6651326615
  0
LINE
  5
32C
100
AcDbEntity
  8
0
100
AcDbLine
 62
9
  6
CONTINUOUS
 10
43.6111687462
 20
1.879597124
 11
43.5495006876
 21
1.8802732092
  0
LINE
  5
32D
100
AcDbEntity
  8
0
100
AcDbLine
 62
9
  6
CONTINUOUS
 10
57.9176446423
 20
1.879597124
 11
57.8559765837
 21
1.8802732092
  0
LWPOLYLINE
  5
32E
100
AcDbEntity
  8
0
100
AcDbPolyline
 62
9
  6
CONTINUOUS
 90
57
 70
0
 10
38.0444332837
 20
2.6632888304
 10
38.0374256736
 20
2.6633882778
 10
38.0304214328
 20
2.6636842766
 10
38.0234270788
 20
2.6641765137
 10
38.0164491297
 20
2.664864676
 10
38.0094937432
 20
2.6657483668
 10
38.0025664501
 20
2.6668267489
 10
37.9956724205
 20
2.6680988943
 10
37.9888168244
 20
2.6695638747
 10
37.9820047238
 20
2.6712206981
 10
37.9752416024
 20
2.6730679049
 10
37.9685328342
 20
2.6751039636
 10
37.9618837929
 20
2.6773273427
 10
37.9552996636
 20
2.6797364669
 10
37.9487857149
 20
2.6823292728
 10
37.9423470241
 20
2.6851036452
 10
37.9359886681
 20
2.6880574689
 10
37.9297155547
 20
2.6911886023
 10
37.9235326894
 20
2.694494407
 10
37.9174449047
 20
2.6979722109
 10
37.9114570331
 20
2.7016193419
 10
37.905573741
 20
2.7054331143
 10
37.8997996951
 20
2.7094103527
 10
37.8941393918
 20
2.7135478618
 10
37.8885973277
 20
2.7178424462
 10
37.883177848
 20
2.7222909038
 10
37.8778852203
 20
2.7268895684
 10
37.8727235569
 20
2.7316347619
 10
37.8676969702
 20
2.7365228064
 10
37.8628094381
 20
2.741550016
 10
37.8580647733
 20
2.7467122868
 10
37.8534666503
 20
2.7520055037
 10
37.849018744
 20
2.7574255516
 10
37.8447246116
 20
2.7629682999
 10
37.8405875647
 20
2.7686292678
 10
37.8366107946
 20
2.7744039568
 10
37.8327974929
 20
2.7802878686
 10
37.8291507492
 20
2.7862764739
 10
37.8256733351
 20
2.7923649709
 10
37.822367919
 20
2.7985485262
 10
37.8192371691
 20
2.8048223062
 10
37.816283663
 20
2.8111814329
 10
37.813509603
 20
2.8176208736
 10
37.8109171009
 20
2.8241355515
 10
37.8085082687
 20
2.8307203894
 10
37.8062851322
 20
2.8373702254
 10
37.804249304
 20
2.8440797707
 10
37.8024023128
 20
2.8508436525
 10
37.8007456875
 20
2.8576564979
 10
37.7992808697
 20
2.8645129003
 10
37.7980088692
 20
2.8714077239
 10
37.7969306123
 20
2.8783358
 10
37.7960470255
 20
2.88529196
 10
37.7953589411
 20
2.8922707146
 10
37.7948667602
 20
2.8992658684
 10
37.7945707957
 20
2.9062709057
 10
37.7944713599
 20
2.9132793111
  0
LINE
  5
32F
100
AcDbEntity
  8
0
100
AcDbLine
 62
9
  6
CONTINUOUS
 10
43.6560956283
 20
1.8789845885
 11
43.6111687462
 21
1.879597124
  0
LINE
  5
330
100
AcDbEntity
  8
0
100
AcDbLine
 62
9
  6
CONTINUOUS
 10
57.9625715243
 20
1.8789845885
 11
57.9176446423
 21
1.879597124
  0
LWPOLYLINE
  5
331
100
AcDbEntity
  8
0
100
AcDbPolyline
 62
9
  6
CONTINUOUS
 90
3
 70
0
 10
43.7051093291
 20
1.8781282356
 10
43.6960307373
 20
1.8783075477
 10
43.6560956283
 20
1.8789845885
  0
LWPOLYLINE
  5
332
100
AcDbEntity
  8
0
100
AcDbPolyline
 62
9
  6
CONTINUOUS
 90
3
 70
0
 10
58.0115852252
 20
1.8781282356
 10
58.0025066334
 20
1.8783075477
 10
57.9625715243
 20
1.8789845885
  0
LWPOLYLINE
  5
333
100
AcDbEntity
  8
0
100
AcDbPolyline
 62
7
  6
CONTINUOUS
 90
7
 70
0
 10
40.5630019305
 20
2.6457957677
 10
40.5684296263
 20
2.6455687396
 10
40.5718295892
 20
2.6453321294
 10
40.5753020755
 20
2.6452355405
 10
40.5762507207
 20
2.6452468456
 10
40.5771759007
 20
2.6451727046
 10
40.5780409257
 20
2.644899108
  0
LWPOLYLINE
  5
334
100
AcDbEntity
  8
0
100
AcDbPolyline
 62
7
  6
CONTINUOUS
 90
7
 70
0
 10
60.2662060204
 20
2.6457909449
 10
60.2716323765
 20
2.6455610874
 10
60.2750196391
 20
2.6453201743
 10
60.278484581
 20
2.645227503
 10
60.2794260888
 20
2.6452419478
 10
60.2803428533
 20
2.6451689091
 10
60.2811961752
 20
2.6448912748
  0
LWPOLYLINE
  5
335
100
AcDbEntity
  8
0
100
AcDbPolyline
 62
7
  6
CONTINUOUS
 90
6
 70
0
 10
43.6819568751
 20
2.6297356971
 10
43.690245446
 20
2.6293447493
 10
43.695458365
 20
2.6289600407
 10
43.7007733002
 20
2.6287393619
 10
43.7030143071
 20
2.6286756736
 10
43.7051093291
 20
2.6281282356
  0
LWPOLYLINE
  5
336
100
AcDbEntity
  8
0
100
AcDbPolyline
 62
7
  6
CONTINUOUS
 90
6
 70
0
 10
57.9884327711
 20
2.6297356971
 10
57.996721342
 20
2.6293447493
 10
58.001934261
 20
2.6289600407
 10
58.0072491962
 20
2.6287393619
 10
58.0094902031
 20
2.6286756736
 10
58.0115852252
 20
2.6281282356
  0
LWPOLYLINE
  5
337
100
AcDbEntity
  8
0
100
AcDbPolyline
 62
7
  6
CONTINUOUS
 90
6
 70
0
 10
39.6077861146
 20
2.6197098742
 10
39.616424207
 20
2.6192794847
 10
39.6218741259
 20
2.6188652688
 10
39.6274259233
 20
2.6185985017
 10
39.6297991455
 20
2.6185056384
 10
39.632019294
 20
2.6179119793
  0
LINE
  5
338
100
AcDbEntity
  8
0
100
AcDbLine
 62
7
  6
CONTINUOUS
 10
11.4087155743
 20
4.3767987031
 11
6.6948115146
 21
4.7892118692
  0
LWPOLYLINE
  5
339
100
AcDbEntity
  8
0
100
AcDbPolyline
 62
7
  6
CONTINUOUS
 90
8
 70
0
 43
0.3500000006
 10
67.2178443146
 20
27.2687109833
 10
66.9678442383
 20
27.4026410522
 10
66.717844162
 20
27.6704966583
 10
66.717844162
 20
27.9383567963
 10
66.9678442383
 20
28.2062124023
 10
67.2178443146
 20
28.3401424713
 10
67.7178444672
 20
28.3401424713
 10
67.9678445435
 20
28.2062124023
  0
LINE
  5
33A
100
AcDbEntity
  8
0
100
AcDbLine
 62
7
  6
CONTINUOUS
 10
46.167845981
 20
47.5808008909
 11
46.0937388381
 21
47.6532338936
  0
LWPOLYLINE
  5
33B
100
AcDbEntity
  8
0
100
AcDbPolyline
 62
7
  6
CONTINUOUS
 90
5
 70
0
 43
0.3500000006
 10
67.9678445435
 20
28.2062124023
 10
68.467844696
 20
27.6704966583
 10
68.9678448486
 20
27.4026410522
 10
69.7178450775
 20
27.2687109833
 10
69.7178450775
 20
28.3401424713
  0
LWPOLYLINE
  5
33C
100
AcDbEntity
  8
0
100
AcDbPolyline
 62
7
  6
CONTINUOUS
 90
8
 70
0
 10
62.3850131085
 20
43.8914132821
 10
62.3842115804
 20
43.8922833794
 10
62.3839066547
 20
43.893581421
 10
62.3838268072
 20
43.8950494068
 10
62.383549808
 20
43.8985581339
 10
62.383109522
 20
43.9017229969
 10
62.3826475919
 20
43.9047782355
 10
62.3819052736
 20
43.9125271816
  0
LWPOLYLINE
  5
33D
100
AcDbEntity
  8
0
100
AcDbPolyline
 62
9
  6
CONTINUOUS
 90
7
 70
0
 10
62.2771710178
 20
41.8552054488
 10
62.2769449052
 20
41.8555529737
 10
62.2766285281
 20
41.8558182728
 10
62.2762423182
 20
41.8560175457
 10
62.2758067077
 20
41.8561669919
 10
62.2753421283
 20
41.856282811
 10
62.2718452164
 20
41.8570036844
  0
LWPOLYLINE
  5
33E
100
AcDbEntity
  8
0
100
AcDbPolyline
 62
7
  6
CONTINUOUS
 90
5
 70
0
 43
0.3500000006
 10
52.086375
 20
58.9499995422
 10
51.9491004181
 20
59.2000041504
 10
52.086375
 20
59.2000041504
 10
52.086375
 20
58.9499995422
 10
51.8118213043
 20
58.4499993896
  0
LINE
  5
33F
100
AcDbEntity
  8
0
100
AcDbLine
 62
7
  6
CONTINUOUS
 10
62.4662526054
 20
4.3767987031
 11
62.383971104
 21
4.7892118692
  0
LINE
  5
340
100
AcDbEntity
  8
0
100
AcDbLine
 62
9
  6
CONTINUOUS
 10
62.038016923
 20
7.3895722111
 11
62.0963802045
 21
6.8
  0
LINE
  5
341
100
AcDbEntity
  8
0
100
AcDbLine
 62
9
  6
CONTINUOUS
 10
62.2879788467
 20
7.6357741493
 11
62.3456605265
 21
7.0530873205
  0
LWPOLYLINE
  5
342
100
AcDbEntity
  8
0
100
AcDbPolyline
 62
9
  6
CONTINUOUS
 90
120
 70
0
 10
58.0115852252
 20
1.8781282356
 10
58.0109463441
 20
1.8867550549
 10
58.0097579133
 20
1.8952326693
 10
58.0080206833
 20
1.9035610683
 10
58.0057357678
 20
1.9117402446
 10
58.0029046441
 20
1.919770193
 10
57.9995291535
 20
1.9276509119
 10
57.9956115029
 20
1.9353823997
 10
57.99115425
 20
1.94296468
 10
57.986160306
 20
1.9503977849
 10
57.9806329843
 20
1.9576816896
 10
57.9745759803
 20
1.964816365
 10
57.9679933305
 20
1.9718018216
 10
57.9608892267
 20
1.9786382649
 10
57.9532681667
 20
1.9853258849
 10
57.9451376216
 20
1.9918628018
 10
57.9365065819
 20
1.9982469041
 10
57.9273831075
 20
2.0044775979
 10
57.9177758167
 20
2.0105544114
 10
57.9076936053
 20
2.0164771331
 10
57.8971454909
 20
2.0222458258
 10
57.886140804
 20
2.0278606567
 10
57.874687854
 20
2.0333224878
 10
57.8627952594
 20
2.038632088
 10
57.8504721464
 20
2.0437900706
 10
57.8377278653
 20
2.0487970398
 10
57.824571976
 20
2.0536535926
 10
57.8110142481
 20
2.058360316
 10
57.7970645774
 20
2.062917811
 10
57.7827327403
 20
2.0673267565
 10
57.7680289939
 20
2.071587712
 10
57.7529638314
 20
2.0757012076
 10
57.7375479384
 20
2.0796677577
 10
57.7217921913
 20
2.0834878608
 10
57.7057076394
 20
2.0871620021
 10
57.6893053189
 20
2.0906906915
 10
57.6725961867
 20
2.0940744639
 10
57.6555916136
 20
2.0973137738
 10
57.6383031512
 20
2.1004090509
 10
57.6207425654
 20
2.1033606962
 10
57.6029217867
 20
2.1061690921
 10
57.5848528652
 20
2.1088346093
 10
57.5665477239
 20
2.1113576378
 10
57.54801827
 20
2.1137385604
 10
57.5292766487
 20
2.1159777182
 10
57.5103351996
 20
2.1180754201
 10
57.4912065075
 20
2.1200319413
 10
57.4719032688
 20
2.1218475413
 10
57.4524382188
 20
2.1235224691
 10
57.4328239543
 20
2.1250569746
 10
57.4130730493
 20
2.1264512913
 10
57.3931980877
 20
2.1277056313
 10
57.3732119534
 20
2.1288201676
 10
57.3531277486
 20
2.1297950465
 10
57.3329586274
 20
2.1306303994
 10
57.3127177071
 20
2.1313263453
 10
57.2924180243
 20
2.131882989
 10
57.2720725115
 20
2.1323004173
 10
57.2516938798
 20
2.1325786954
 10
57.2312952985
 20
2.1327178566
 10
57.2108900592
 20
2.1327179163
 10
57.1904914509
 20
2.1325788742
 10
57.1701127052
 20
2.1323007138
 10
57.1497670138
 20
2.1318834007
 10
57.1294673235
 20
2.1313268758
 10
57.1092262088
 20
2.1306310426
 10
57.0890568613
 20
2.1297957997
 10
57.068972494
 20
2.1288210325
 10
57.0489862217
 20
2.1277066088
 10
57.0291109592
 20
2.1264523707
 10
57.0093595417
 20
2.1250581379
 10
56.9897447467
 20
2.1235237097
 10
56.9702792932
 20
2.1218488649
 10
56.9509758318
 20
2.1200333624
 10
56.931846942
 20
2.1180769409
 10
56.9129052238
 20
2.1159793309
 10
56.894163285
 20
2.113740258
 10
56.8756336308
 20
2.1113594343
 10
56.8573282663
 20
2.1088365024
 10
56.8392590109
 20
2.1061710654
 10
56.821437978
 20
2.103362761
 10
56.8038771693
 20
2.1004112129
 10
56.7865884897
 20
2.0973160353
 10
56.7695837162
 20
2.0940768298
 10
56.7528744571
 20
2.0906931792
 10
56.7364718881
 20
2.087164589
 10
56.7203870858
 20
2.0834905481
 10
56.7046311491
 20
2.0796705623
 10
56.6892150653
 20
2.0757041332
 10
56.6741497172
 20
2.0715907646
 10
56.6594458119
 20
2.0673299493
 10
56.6451138177
 20
2.0629211511
 10
56.6311638597
 20
2.0583637674
 10
56.6176059173
 20
2.0536571845
 10
56.6044498414
 20
2.0488007898
 10
56.5917053528
 20
2.0437939795
 10
56.5793819895
 20
2.0386361466
 10
56.5674890777
 20
2.0333266736
 10
56.5560357956
 20
2.0278649675
 10
56.5450310843
 20
2.022250429
 10
56.5344827476
 20
2.0164819463
 10
56.5243989613
 20
2.010558628
 10
56.5147894861
 20
2.004480709
 10
56.5056636803
 20
1.998248612
 10
56.4970306082
 20
1.9918630884
 10
56.4888995107
 20
1.9853257333
 10
56.4812787645
 20
1.9786383871
 10
56.4741746287
 20
1.9718019238
 10
56.467591863
 20
1.9648163486
 10
56.4615348275
 20
1.9576816322
 10
56.4560075263
 20
1.9503977488
 10
56.4510136063
 20
1.9429646771
 10
56.4465563559
 20
1.9353824011
 10
56.442638703
 20
1.9276509086
 10
56.4392632132
 20
1.9197701911
 10
56.4364320902
 20
1.9117402445
 10
56.4341471748
 20
1.9035610685
 10
56.4324099447
 20
1.895232669
 10
56.4312215139
 20
1.8867550542
 10
56.4305826328
 20
1.8781282356
  0
LWPOLYLINE
  5
343
100
AcDbEntity
  8
0
100
AcDbPolyline
 62
9
  6
CONTINUOUS
 90
120
 70
0
 10
56.4305826328
 20
48.3218717645
 10
56.431221514
 20
48.3132449443
 10
56.432409945
 20
48.3047673292
 10
56.4341471754
 20
48.2964389292
 10
56.4364320912
 20
48.2882597524
 10
56.4392632154
 20
48.2802298032
 10
56.4426387066
 20
48.2723490836
 10
56.4465563581
 20
48.2646175949
 10
56.4510136116
 20
48.2570353143
 10
56.456007556
 20
48.2496022097
 10
56.4615348782
 20
48.2423183048
 10
56.4675918841
 20
48.2351836279
 10
56.4741745375
 20
48.2281981683
 10
56.4812786389
 20
48.2213617283
 10
56.4888996918
 20
48.2146741148
 10
56.4970302626
 20
48.208137178
 10
56.5056613074
 20
48.2017530738
 10
56.5147847733
 20
48.1955223872
 10
56.5243920542
 20
48.1894455808
 10
56.5344742636
 20
48.1835228609
 10
56.5450223881
 20
48.1777541632
 10
56.5560270912
 20
48.172139325
 10
56.5674800448
 20
48.1666774935
 10
56.5793726416
 20
48.1613678935
 10
56.5916957565
 20
48.1562099113
 10
56.6044400392
 20
48.1512029426
 10
56.617595931
 20
48.14634639
 10
56.6311536626
 20
48.1416396664
 10
56.645103334
 20
48.1370821722
 10
56.6594351655
 20
48.1326732293
 10
56.6741389058
 20
48.1284122764
 10
56.6892040648
 20
48.1242987825
 10
56.7046199579
 20
48.1203322329
 10
56.7203757088
 20
48.1165121294
 10
56.7364602668
 20
48.1128379873
 10
56.7528625881
 20
48.1093092983
 10
56.7695717141
 20
48.1059255278
 10
56.7865762805
 20
48.1026862197
 10
56.8038647395
 20
48.0995909436
 10
56.8214253266
 20
48.0966392984
 10
56.8392461108
 20
48.0938309019
 10
56.8573150409
 20
48.0911653839
 10
56.8756201852
 20
48.0886423555
 10
56.8941496336
 20
48.086261434
 10
56.9128912484
 20
48.0840222774
 10
56.9318326954
 20
48.081924576
 10
56.9509613904
 20
48.0799680548
 10
56.9702646371
 20
48.0781524545
 10
56.9897296988
 20
48.0764775261
 10
57.0093439701
 20
48.0749430205
 10
57.0290948711
 20
48.0735487045
 10
57.0489698276
 20
48.0722943653
 10
57.0689559613
 20
48.0711798295
 10
57.089040171
 20
48.0702049508
 10
57.109209303
 20
48.069369598
 10
57.1294502381
 20
48.0686736521
 10
57.1497499321
 20
48.0681170087
 10
57.170095443
 20
48.0676995811
 10
57.1904740711
 20
48.0674213037
 10
57.2108726534
 20
48.0672821431
 10
57.2312778996
 20
48.0672820841
 10
57.2516765214
 20
48.067421127
 10
57.2720552844
 20
48.0676992886
 10
57.2924009908
 20
48.0681166029
 10
57.3127006814
 20
48.0686731288
 10
57.3329417961
 20
48.069368963
 10
57.3531111461
 20
48.0702042071
 10
57.3731955174
 20
48.0711789756
 10
57.3931817937
 20
48.0722934006
 10
57.4130570596
 20
48.0735476401
 10
57.4328084789
 20
48.0749418743
 10
57.4524232742
 20
48.0764763038
 10
57.4718887264
 20
48.0781511496
 10
57.4911921856
 20
48.0799666533
 10
57.5103210733
 20
48.0819230759
 10
57.5292627901
 20
48.0840206872
 10
57.5480047294
 20
48.0862597615
 10
57.5665343866
 20
48.0886405869
 10
57.5848397431
 20
48.0911635192
 10
57.602908986
 20
48.0938289558
 10
57.6207300081
 20
48.0966372599
 10
57.6382908113
 20
48.0995888084
 10
57.6555794901
 20
48.1026839873
 10
57.6725842663
 20
48.1059231948
 10
57.6892935293
 20
48.1093068477
 10
57.7056960937
 20
48.1128354385
 10
57.7217808872
 20
48.1165094791
 10
57.7375368168
 20
48.1203294647
 10
57.752952897
 20
48.1242958945
 10
57.7680182451
 20
48.1284092648
 10
57.7827221528
 20
48.1326700827
 10
57.7970541499
 20
48.1370788837
 10
57.8110041052
 20
48.1416362687
 10
57.8245620416
 20
48.1463428517
 10
57.8377181122
 20
48.1511992467
 10
57.8504625984
 20
48.1562060583
 10
57.8627859612
 20
48.1613638935
 10
57.8746788746
 20
48.16667337
 10
57.8861321606
 20
48.172135081
 10
57.8971368716
 20
48.1777496227
 10
57.9076851983
 20
48.1835181035
 10
57.9177689905
 20
48.1894414292
 10
57.9273784681
 20
48.1955193543
 10
57.9365042529
 20
48.2017514415
 10
57.9451372787
 20
48.2081369339
 10
57.9532683406
 20
48.2146742612
 10
57.9608890844
 20
48.2213616046
 10
57.9679932207
 20
48.2281980675
 10
57.9745759878
 20
48.2351836433
 10
57.9806330247
 20
48.2423183607
 10
57.9861603273
 20
48.2496022451
 10
57.9911542482
 20
48.2570353172
 10
57.9956114992
 20
48.2646175937
 10
57.9995291529
 20
48.272349087
 10
58.0029046433
 20
48.2802298051
 10
58.0057357669
 20
48.2882597524
 10
58.0080206827
 20
48.2964389292
 10
58.0097579131
 20
48.3047673295
 10
58.0109463441
 20
48.313244945
 10
58.0115852252
 20
48.3218717645
  0
LWPOLYLINE
  5
344
100
AcDbEntity
  8
0
100
AcDbPolyline
 62
7
  6
CONTINUOUS
 90
47
 70
0
 10
54.567845981
 20
1.0797871413
 10
54.5677741351
 20
1.0813674932
 10
54.5675653401
 20
1.082940359
 10
54.5672297103
 20
1.0844990252
 10
54.5667773599
 20
1.0860367783
 10
54.5662184031
 20
1.0875469045
 10
54.5655629543
 20
1.0890226903
 10
54.5648211275
 20
1.0904574221
 10
54.5640030371
 20
1.0918443863
 10
54.5628553136
 20
1.0935475184
 10
54.5616087231
 20
1.0951666067
 10
54.5602734246
 20
1.0967074021
 10
54.5588595775
 20
1.098175656
 10
54.557377341
 20
1.0995771194
 10
54.5558368743
 20
1.1009175435
 10
54.5542483368
 20
1.1022026793
 10
54.5526218875
 20
1.1034382781
 10
54.5497038614
 20
1.1054975003
 10
54.5467093318
 20
1.1074321946
 10
54.5436469849
 20
1.1092522398
 10
54.540525507
 20
1.1109675148
 10
54.5373535844
 20
1.1125878986
 10
54.5341399034
 20
1.11412327
 10
54.5300919327
 20
1.1159289922
 10
54.5259979651
 20
1.117626206
 10
54.5218632612
 20
1.1192228496
 10
54.5176930816
 20
1.1207268615
 10
54.5134926867
 20
1.1221461801
 10
54.5092673372
 20
1.1234887437
 10
54.5032681943
 20
1.1252664708
 10
54.4972338466
 20
1.1269154934
 10
54.4911683394
 20
1.128444257
 10
54.485075718
 20
1.1298612072
 10
54.4789600276
 20
1.1311747894
 10
54.4720822049
 20
1.1325336504
 10
54.4651830197
 20
1.133778731
 10
54.4582650099
 20
1.1349155057
 10
54.4513307132
 20
1.1359494494
 10
54.4443826675
 20
1.1368860365
 10
54.4350262935
 20
1.1379998628
 10
54.4256525057
 20
1.1389534613
 10
54.4162641432
 20
1.1397525896
 10
54.4068640454
 20
1.1404030052
 10
54.3971170165
 20
1.1409253437
 10
54.3873631741
 20
1.1412961382
 10
54.3776052512
 20
1.1415172499
 10
54.367845981
 20
1.1415905402
  0
LINE
  5
345
100
AcDbEntity
  8
0
100
AcDbLine
 62
7
  6
CONTINUOUS
 10
58.2121598166
 20
47.6721514225
 11
58.1804427952
 21
48.4062941195
  0
LINE
  5
346
100
AcDbEntity
  8
0
100
AcDbLine
 62
3
  6
CONTINUOUS
 10
46.317845981
 20
2.6191991092
 11
46.317845981
 21
2.6110545504
  0
LINE
  5
347
100
AcDbEntity
  8
0
100
AcDbLine
 62
3
  6
CONTINUOUS
 10
46.317845981
 20
47.5808008909
 11
46.317845981
 21
47.5889454497
  0
LWPOLYLINE
  5
348
100
AcDbEntity
  8
0
100
AcDbPolyline
 62
7
  6
CONTINUOUS
 90
4
 70
0
 43
0.3500000006
 10
50.301778244
 20
58.9499995422
 10
50.301778244
 20
61.9500004578
 10
49.3408380432
 20
59.700004303
 10
50.5763319397
 20
59.700004303
  0
LINE
  5
349
100
AcDbEntity
  8
0
100
AcDbLine
 62
3
  6
CONTINUOUS
 10
53.817845981
 20
2.6191991092
 11
53.817845981
 21
2.6110545504
  0
LINE
  5
34A
100
AcDbEntity
  8
0
100
AcDbLine
 62
3
  6
CONTINUOUS
 10
53.817845981
 20
47.5808008909
 11
53.817845981
 21
47.5889454497
  0
LINE
  5
34B
100
AcDbEntity
  8
0
100
AcDbLine
 62
9
  6
CONTINUOUS
 10
54.367845981
 20
49.0584094599
 11
54.367845981
 21
48.6779868534
  0
LINE
  5
34C
100
AcDbEntity
  8
0
100
AcDbLine
 62
9
  6
CONTINUOUS
 10
54.367845981
 20
1.1415905402
 11
54.367845981
 21
1.5220131467
  0
LINE
  5
34D
100
AcDbEntity
  8
0
100
AcDbLine
 62
3
  6
CONTINUOUS
 10
54.567845981
 20
1.0
 11
54.567845981
 21
1.4602097478
  0
LINE
  5
34E
100
AcDbEntity
  8
0
100
AcDbLine
 62
3
  6
CONTINUOUS
 10
54.567845981
 20
48.7397902523
 11
54.567845981
 21
49.2
  0
LINE
  5
34F
100
AcDbEntity
  8
0
100
AcDbLine
 62
3
  6
CONTINUOUS
 10
56.067845981
 20
49.2
 11
56.067845981
 21
47.6507488486
  0
LINE
  5
350
100
AcDbEntity
  8
0
100
AcDbLine
 62
7
  6
CONTINUOUS
 10
56.067845981
 20
1.0
 11
56.067845981
 21
0.0
  0
LINE
  5
351
100
AcDbEntity
  8
0
100
AcDbLine
 62
3
  6
CONTINUOUS
 10
56.067845981
 20
1.0
 11
56.067845981
 21
2.5492511515
  0
LINE
  5
352
100
AcDbEntity
  8
0
100
AcDbLine
 62
7
  6
CONTINUOUS
 10
56.067845981
 20
49.2
 11
56.067845981
 21
50.2
  0
LINE
  5
353
100
AcDbEntity
  8
0
100
AcDbLine
 62
7
  6
CONTINUOUS
 10
56.267845981
 20
48.4032338936
 11
56.267845981
 21
47.6532338936
  0
LINE
  5
354
100
AcDbEntity
  8
0
100
AcDbLine
 62
7
  6
CONTINUOUS
 10
56.267845981
 20
2.5467661065
 11
56.267845981
 21
1.7967661065
  0
LINE
  5
355
100
AcDbEntity
  8
0
100
AcDbLine
 62
9
  6
CONTINUOUS
 10
56.4305826328
 20
48.3218717645
 11
56.4305826328
 21
47.5718717645
  0
LINE
  5
356
100
AcDbEntity
  8
0
100
AcDbLine
 62
9
  6
CONTINUOUS
 10
56.4305826328
 20
2.6281282356
 11
56.4305826328
 21
1.8781282356
  0
LWPOLYLINE
  5
357
100
AcDbEntity
  8
0
100
AcDbPolyline
 62
3
  6
CONTINUOUS
 90
47
 70
0
 10
45.567845981
 20
1.4602097478
 10
45.5679178269
 20
1.4617900997
 10
45.5681266219
 20
1.4633629655
 10
45.5684622517
 20
1.4649216317
 10
45.5689146021
 20
1.4664593848
 10
45.5694735588
 20
1.467969511
 10
45.5701290077
 20
1.4694452968
 10
45.5708708344
 20
1.4708800286
 10
45.5716889249
 20
1.4722669928
 10
45.5728366483
 20
1.4739701249
 10
45.5740832389
 20
1.4755892132
 10
45.5754185373
 20
1.4771300086
 10
45.5768323844
 20
1.4785982625
 10
45.5783146209
 20
1.4799997259
 10
45.5798550876
 20
1.48134015
 10
45.5814436252
 20
1.4826252858
 10
45.5830700745
 20
1.4838608846
 10
45.5859881005
 20
1.4859201069
 10
45.5889826302
 20
1.4878548011
 10
45.5920449771
 20
1.4896748463
 10
45.5951664549
 20
1.4913901213
 10
45.5983383775
 20
1.4930105051
 10
45.6015520585
 20
1.4945458766
 10
45.6056000292
 20
1.4963515988
 10
45.6096939968
 20
1.4980488125
 10
45.6138287007
 20
1.4996454561
 10
45.6179988804
 20
1.501149468
 10
45.6221992752
 20
1.5025687866
 10
45.6264246247
 20
1.5039113503
 10
45.6324237677
 20
1.5056890774
 10
45.6384581154
 20
1.5073380999
 10
45.6445236226
 20
1.5088668635
 10
45.650616244
 20
1.5102838137
 10
45.6567319344
 20
1.5115973959
 10
45.6636097571
 20
1.5129562569
 10
45.6705089423
 20
1.5142013375
 10
45.6774269521
 20
1.5153381122
 10
45.6843612488
 20
1.5163720559
 10
45.6913092945
 20
1.517308643
 10
45.7006656685
 20
1.5184224693
 10
45.7100394563
 20
1.5193760678
 10
45.7194278188
 20
1.5201751961
 10
45.7288279166
 20
1.5208256117
 10
45.7385749455
 20
1.5213479502
 10
45.7483287879
 20
1.5217187447
 10
45.7580867107
 20
1.5219398564
 10
45.767845981
 20
1.5220131467
  0
LWPOLYLINE
  5
358
100
AcDbEntity
  8
0
100
AcDbPolyline
 62
3
  6
CONTINUOUS
 90
47
 70
0
 10
46.317845981
 20
2.6110545504
 10
46.3177741351
 20
2.6094741985
 10
46.3175653401
 20
2.6079013327
 10
46.3172297103
 20
2.6063426665
 10
46.3167773599
 20
2.6048049134
 10
46.3162184031
 20
2.6032947872
 10
46.3155629543
 20
2.6018190014
 10
46.3148211275
 20
2.6003842696
 10
46.3140030371
 20
2.5989973054
 10
46.3128553136
 20
2.5972941733
 10
46.3116087231
 20
2.595675085
 10
46.3102734246
 20
2.5941342896
 10
46.3088595775
 20
2.5926660357
 10
46.307377341
 20
2.5912645723
 10
46.3058368743
 20
2.5899241482
 10
46.3042483368
 20
2.5886390124
 10
46.3026218875
 20
2.5874034136
 10
46.2997038614
 20
2.5853441914
 10
46.2967093318
 20
2.5834094971
 10
46.2936469849
 20
2.5815894519
 10
46.290525507
 20
2.5798741769
 10
46.2873535844
 20
2.5782537931
 10
46.2841399034
 20
2.5767184217
 10
46.2800919327
 20
2.5749126995
 10
46.2759979651
 20
2.5732154857
 10
46.2718632612
 20
2.5716188421
 10
46.2676930816
 20
2.5701148302
 10
46.2634926867
 20
2.5686955116
 10
46.2592673372
 20
2.567352948
 10
46.2532681943
 20
2.5655752209
 10
46.2472338466
 20
2.5639261983
 10
46.2411683394
 20
2.5623974347
 10
46.235075718
 20
2.5609804845
 10
46.2289600276
 20
2.5596669023
 10
46.2220822049
 20
2.5583080413
 10
46.2151830197
 20
2.5570629607
 10
46.2082650099
 20
2.555926186
 10
46.2013307132
 20
2.5548922423
 10
46.1943826675
 20
2.5539556552
 10
46.1850262935
 20
2.5528418289
 10
46.1756525057
 20
2.5518882304
 10
46.1662641432
 20
2.5510891021
 10
46.1568640454
 20
2.5504386865
 10
46.1471170165
 20
2.549916348
 10
46.1373631741
 20
2.5495455535
 10
46.1276052512
 20
2.5493244418
 10
46.117845981
 20
2.5492511515
  0
LWPOLYLINE
  5
359
100
AcDbEntity
  8
0
100
AcDbPolyline
 62
3
  6
CONTINUOUS
 90
47
 70
0
 10
53.817845981
 20
47.5889454497
 10
53.8179178269
 20
47.5905258015
 10
53.8181266219
 20
47.5920986674
 10
53.8184622517
 20
47.5936573336
 10
53.8189146021
 20
47.5951950866
 10
53.8194735588
 20
47.5967052128
 10
53.8201290077
 20
47.5981809987
 10
53.8208708344
 20
47.5996157305
 10
53.8216889249
 20
47.6010026946
 10
53.8228366483
 20
47.6027058268
 10
53.8240832389
 20
47.604324915
 10
53.8254185373
 20
47.6058657105
 10
53.8268323844
 20
47.6073339644
 10
53.8283146209
 20
47.6087354278
 10
53.8298550876
 20
47.6100758518
 10
53.8314436252
 20
47.6113609877
 10
53.8330700745
 20
47.6125965865
 10
53.8359881005
 20
47.6146558087
 10
53.8389826302
 20
47.6165905029
 10
53.8420449771
 20
47.6184105481
 10
53.8451664549
 20
47.6201258232
 10
53.8483383775
 20
47.6217462069
 10
53.8515520585
 20
47.6232815784
 10
53.8556000292
 20
47.6250873006
 10
53.8596939968
 20
47.6267845144
 10
53.8638287007
 20
47.628381158
 10
53.8679988804
 20
47.6298851699
 10
53.8721992752
 20
47.6313044885
 10
53.8764246247
 20
47.6326470521
 10
53.8824237677
 20
47.6344247792
 10
53.8884581154
 20
47.6360738018
 10
53.8945236226
 20
47.6376025654
 10
53.900616244
 20
47.6390195156
 10
53.9067319344
 20
47.6403330978
 10
53.9136097571
 20
47.6416919588
 10
53.9205089423
 20
47.6429370394
 10
53.9274269521
 20
47.6440738141
 10
53.9343612488
 20
47.6451077578
 10
53.9413092945
 20
47.6460443449
 10
53.9506656685
 20
47.6471581712
 10
53.9600394563
 20
47.6481117697
 10
53.9694278188
 20
47.648910898
 10
53.9788279166
 20
47.6495613136
 10
53.9885749455
 20
47.6500836521
 10
53.9983287879
 20
47.6504544466
 10
54.0080867107
 20
47.6506755583
 10
54.017845981
 20
47.6507488486
  0
LINE
  5
35A
100
AcDbEntity
  8
0
100
AcDbLine
 62
7
  6
CONTINUOUS
 10
46.459507547
 20
2.6191991092
 11
46.3338186858
 21
1.1825688515
  0
LWPOLYLINE
  5
35B
100
AcDbEntity
  8
0
100
AcDbPolyline
 62
9
  6
CONTINUOUS
 90
19
 70
0
 10
37.8477131152
 20
7.6357741493
 10
37.8482743305
 20
7.642135995
 10
37.8487336095
 20
7.6485065226
 10
37.8497333455
 20
7.6658630237
 10
37.8507057612
 20
7.687731337
 10
37.8516446359
 20
7.7139716961
 10
37.8525439911
 20
7.7444168051
 10
37.8533981156
 20
7.7788732807
 10
37.8542015595
 20
7.8171212243
 10
37.8549492088
 20
7.8589170178
 10
37.8556362997
 20
7.903994109
 10
37.8562584684
 20
7.952065999
 10
37.8568117512
 20
8.0028262993
 10
37.8572926282
 20
8.0559518909
 10
37.8576980345
 20
8.1111037951
 10
37.8580253987
 20
8.1679318222
 10
37.8582726365
 20
8.2260742115
 10
37.8584381717
 20
8.2851591269
 10
37.8585209442
 20
8.3447945513
  0
LINE
  5
35C
100
AcDbEntity
  8
0
100
AcDbLine
 62
9
  6
CONTINUOUS
 10
37.7900314355
 20
7.0530873205
 11
37.8477131152
 21
7.6357741493
  0
LINE
  5
35D
100
AcDbEntity
  8
0
100
AcDbLine
 62
9
  6
CONTINUOUS
 10
38.0393117574
 20
6.8
 11
38.097675039
 21
7.3895722111
  0
LWPOLYLINE
  5
35E
100
AcDbEntity
  8
0
100
AcDbPolyline
 62
7
  6
CONTINUOUS
 90
5
 70
0
 10
37.6753291099
 20
43.8475534231
 10
37.674806149
 20
43.8439850625
 10
37.674399542
 20
43.8400269421
 10
37.6741555232
 20
43.8359144126
 10
37.6739797596
 20
43.8317532472
  0
LWPOLYLINE
  5
35F
100
AcDbEntity
  8
0
100
AcDbPolyline
 62
7
  6
CONTINUOUS
 90
15
 70
0
 10
37.6694393566
 20
4.3767987031
 10
37.6693295726
 20
4.3761162442
 10
37.6692586088
 20
4.3754277467
 10
37.6692080438
 20
4.3747365508
 10
37.668982029
 20
4.3708856019
 10
37.6688626407
 20
4.3681133838
 10
37.668767608
 20
4.3653390772
 10
37.6685691967
 20
4.3582341965
 10
37.6683876862
 20
4.3495928236
 10
37.6682274001
 20
4.3395716188
 10
37.6680929875
 20
4.3284622581
 10
37.6679867516
 20
4.3165227044
 10
37.6679089391
 20
4.3037943488
 10
37.6678616684
 20
4.2905560014
 10
37.667845981
 20
2.85
  0
LWPOLYLINE
  5
360
100
AcDbEntity
  8
0
100
AcDbPolyline
 62
9
  6
CONTINUOUS
 90
14
 70
0
 10
19.7563061632
 20
6.7859085571
 10
19.7567721847
 20
6.7877465873
 10
19.7571562973
 20
6.7895233019
 10
19.7574206363
 20
6.7912088637
 10
19.7575830839
 20
6.7928338056
 10
19.7576962078
 20
6.7936777856
 10
19.757879725
 20
6.7945842239
 10
19.7581704804
 20
6.7955842098
 10
19.7586053191
 20
6.7967088323
 10
19.7588729262
 20
6.7973226025
 10
19.7590734743
 20
6.797895884
 10
19.7591138257
 20
6.7982158073
 10
19.7590402344
 20
6.7984580796
 10
19.7588190451
 20
6.7985988383
  0
LWPOLYLINE
  5
361
100
AcDbEntity
  8
0
100
AcDbPolyline
 62
9
  6
CONTINUOUS
 90
7
 70
0
 10
19.743447112
 20
6.7351456635
 10
19.7502664884
 20
6.7618509504
 10
19.7522098103
 20
6.7696993079
 10
19.7531853912
 20
6.7738075147
 10
19.7541846672
 20
6.7779433877
 10
19.755279852
 20
6.7821678992
 10
19.7563061632
 20
6.7859085571
  0
LWPOLYLINE
  5
362
100
AcDbEntity
  8
0
100
AcDbPolyline
 62
9
  6
CONTINUOUS
 90
9
 70
0
 10
19.6837912922
 20
6.5088210905
 10
19.6924553532
 20
6.541219531
 10
19.7009779434
 20
6.573211712
 10
19.7092521942
 20
6.604396468
 10
19.7171743506
 20
6.6343827585
 10
19.724645073
 20
6.662794571
 10
19.7315706822
 20
6.6892756361
 10
19.737864335
 20
6.713493895
 10
19.743447112
 20
6.7351456635
  0
LWPOLYLINE
  5
363
100
AcDbEntity
  8
0
100
AcDbPolyline
 62
7
  6
CONTINUOUS
 90
26
 70
0
 10
60.5601499078
 20
2.6206063878
 10
60.5897610219
 20
2.6212436191
 10
60.6252239666
 20
2.6218574566
 10
60.6663256264
 20
2.6224441956
 10
60.7127567704
 20
2.6229994378
 10
60.7642532577
 20
2.6235200177
 10
60.8204184273
 20
2.6240019256
 10
60.8809359
 20
2.6244424456
 10
60.9453421742
 20
2.624838197
 10
61.0132667446
 20
2.6251869038
 10
61.0842001263
 20
2.6254859421
 10
61.1577206584
 20
2.6257335356
 10
61.2332918457
 20
2.6259278691
 10
61.3104467747
 20
2.6260677449
 10
61.3886419857
 20
2.6261521696
 10
61.4673716619
 20
2.6261806024
 10
61.5461058374
 20
2.6261528445
 10
61.6243092462
 20
2.6260690921
 10
61.7014811659
 20
2.6259298759
 10
61.777073093
 20
2.6257361937
 10
61.8506226014
 20
2.6254892272
 10
61.9215887208
 20
2.6251908012
 10
61.9895534648
 20
2.6248426722
 10
62.0540035859
 20
2.6244474776
 10
62.1145713421
 20
2.6240074716
 10
62.1707902976
 20
2.6235260492
  0
LWPOLYLINE
  5
364
100
AcDbEntity
  8
0
100
AcDbPolyline
 62
7
  6
CONTINUOUS
 90
29
 70
0
 10
56.484687582
 20
2.6305190225
 10
56.513096563
 20
2.6310788417
 10
56.547067657
 20
2.6316142952
 10
56.5863628326
 20
2.6321216087
 10
56.6306286699
 20
2.6325962382
 10
56.6795771792
 20
2.6330350802
 10
56.7327489207
 20
2.6334340206
 10
56.7898133697
 20
2.6337905695
 10
56.8502226727
 20
2.6341013027
 10
56.9136104973
 20
2.6343643281
 10
56.9793597079
 20
2.634577083
 10
57.0470790633
 20
2.6347382948
 10
57.1161009754
 20
2.6348463735
 10
57.1860217891
 20
2.634900683
 10
57.2561460689
 20
2.634900683
 10
57.3260668826
 20
2.6348463735
 10
57.3950887947
 20
2.6347382948
 10
57.4628081501
 20
2.634577083
 10
57.5285573607
 20
2.6343643281
 10
57.5919451853
 20
2.6341013027
 10
57.6523544883
 20
2.6337905695
 10
57.7094189373
 20
2.6334340206
 10
57.7625906789
 20
2.6330350802
 10
57.8115391882
 20
2.6325962382
 10
57.8558050254
 20
2.6321216087
 10
57.895100201
 20
2.6316142952
 10
57.929071295
 20
2.6310788417
 10
57.957480276
 20
2.6305190225
 10
57.9884327711
 20
2.6297356971
  0
LWPOLYLINE
  5
365
100
AcDbEntity
  8
0
100
AcDbPolyline
 62
7
  6
CONTINUOUS
 90
29
 70
0
 10
42.178211686
 20
2.6305190225
 10
42.206620667
 20
2.6310788417
 10
42.2405917609
 20
2.6316142952
 10
42.2798869366
 20
2.6321216087
 10
42.3241527738
 20
2.6325962382
 10
42.3731012831
 20
2.6330350802
 10
42.4262730247
 20
2.6334340206
 10
42.4833374737
 20
2.6337905695
 10
42.5437467767
 20
2.6341013027
 10
42.6071346012
 20
2.6343643281
 10
42.6728838118
 20
2.634577083
 10
42.7406031672
 20
2.6347382948
 10
42.8096250793
 20
2.6348463735
 10
42.8795458931
 20
2.634900683
 10
42.9496701728
 20
2.634900683
 10
43.0195909866
 20
2.6348463735
 10
43.0886128987
 20
2.6347382948
 10
43.1563322541
 20
2.634577083
 10
43.2220814647
 20
2.6343643281
 10
43.2854692893
 20
2.6341013027
 10
43.3458785923
 20
2.6337905695
 10
43.4029430413
 20
2.6334340206
 10
43.4561147828
 20
2.6330350802
 10
43.5050632921
 20
2.6325962382
 10
43.5493291294
 20
2.6321216087
 10
43.588624305
 20
2.6316142952
 10
43.6225953989
 20
2.6310788417
 10
43.6510043799
 20
2.6305190225
 10
43.6819568751
 20
2.6297356971
  0
LINE
  5
366
100
AcDbEntity
  8
0
100
AcDbLine
 62
9
  6
CONTINUOUS
 10
56.4589389638
 20
1.8786541311
 11
56.4305826328
 21
1.8781282356
  0
LINE
  5
367
100
AcDbEntity
  8
0
100
AcDbLine
 62
9
  6
CONTINUOUS
 10
42.1524630678
 20
1.8786541311
 11
42.1241067368
 21
1.8781282356
  0
LWPOLYLINE
  5
368
100
AcDbEntity
  8
0
100
AcDbPolyline
 62
7
  6
CONTINUOUS
 90
23
 70
0
 10
39.8897095287
 20
2.6461977294
 10
39.9082969333
 20
2.6464955068
 10
39.9304082214
 20
2.6467739123
 10
39.9557074547
 20
2.6470291764
 10
39.9841127827
 20
2.6472604167
 10
40.0151990193
 20
2.6474638295
 10
40.0484494492
 20
2.6476363206
 10
40.0837342889
 20
2.6477772915
 10
40.1206009128
 20
2.647884647
 10
40.1584106735
 20
2.6479566773
 10
40.1969273046
 20
2.6479930996
 10
40.2357770961
 20
2.64799334
 10
40.2742865811
 20
2.6479574019
 10
40.3120732325
 20
2.6478858909
 10
40.3489107244
 20
2.6477790982
 10
40.3841651821
 20
2.6476387239
 10
40.4173797529
 20
2.6474668912
 10
40.4484305307
 20
2.6472641885
 10
40.4768079646
 20
2.6470336597
 10
40.5020852509
 20
2.6467791102
 10
40.5241812243
 20
2.6465014188
 10
40.5427648269
 20
2.6462042721
 10
40.5630019305
 20
2.6457957677
  0
LWPOLYLINE
  5
369
100
AcDbEntity
  8
0
100
AcDbPolyline
 62
7
  6
CONTINUOUS
 90
23
 70
0
 10
59.5929135836
 20
2.6462040247
 10
59.6114671776
 20
2.6465008032
 10
59.6336080156
 20
2.6467791248
 10
59.6589485223
 20
2.6470342431
 10
59.6871873404
 20
2.6472636483
 10
59.7182533177
 20
2.6474665481
 10
59.7516414365
 20
2.6476392468
 10
59.7867726129
 20
2.6477790687
 10
59.8234916411
 20
2.6478855873
 10
59.8614665755
 20
2.6479574881
 10
59.9000400564
 20
2.6479933978
 10
59.9386459089
 20
2.6479931558
 10
59.9772304437
 20
2.6479567496
 10
60.0152250124
 20
2.6478843252
 10
60.0519693066
 20
2.6477772515
 10
60.0871344816
 20
2.6476368148
 10
60.1205564683
 20
2.6474634585
 10
60.1516550095
 20
2.6472598625
 10
60.1799216829
 20
2.6470297457
 10
60.2052844118
 20
2.6467739048
 10
60.2274384158
 20
2.6464948926
 10
60.2459957912
 20
2.646197485
 10
60.2662060204
 20
2.6457909449
  0
LWPOLYLINE
  5
36A
100
AcDbEntity
  8
0
100
AcDbPolyline
 62
9
  6
CONTINUOUS
 90
57
 70
0
 10
62.0912586782
 20
2.6632888304
 10
62.0982662883
 20
2.6633882778
 10
62.1052705291
 20
2.6636842766
 10
62.1122648831
 20
2.6641765137
 10
62.1192428323
 20
2.664864676
 10
62.1261982188
 20
2.6657483668
 10
62.1331255119
 20
2.6668267489
 10
62.1400195414
 20
2.6680988943
 10
62.1468751376
 20
2.6695638747
 10
62.1536872382
 20
2.6712206981
 10
62.1604503595
 20
2.6730679049
 10
62.1671591278
 20
2.6751039636
 10
62.173808169
 20
2.6773273427
 10
62.1803922983
 20
2.6797364669
 10
62.186906247
 20
2.6823292728
 10
62.1933449378
 20
2.6851036452
 10
62.1997032938
 20
2.6880574689
 10
62.2059764072
 20
2.6911886023
 10
62.2121592725
 20
2.694494407
 10
62.2182470572
 20
2.6979722109
 10
62.2242349288
 20
2.7016193419
 10
62.2301182209
 20
2.7054331143
 10
62.2358922668
 20
2.7094103527
 10
62.2415525701
 20
2.7135478618
 10
62.2470946342
 20
2.7178424462
 10
62.2525141139
 20
2.7222909038
 10
62.2578067416
 20
2.7268895684
 10
62.262968405
 20
2.7316347619
 10
62.2679949917
 20
2.7365228064
 10
62.2728825238
 20
2.741550016
 10
62.2776271887
 20
2.7467122868
 10
62.2822253116
 20
2.7520055037
 10
62.286673218
 20
2.7574255516
 10
62.2909673503
 20
2.7629682999
 10
62.2951043973
 20
2.7686292678
 10
62.2990811674
 20
2.7744039568
 10
62.3028944691
 20
2.7802878686
 10
62.3065412127
 20
2.7862764739
 10
62.3100186268
 20
2.7923649709
 10
62.313324043
 20
2.7985485262
 10
62.3164547928
 20
2.8048223062
 10
62.319408299
 20
2.8111814329
 10
62.322182359
 20
2.8176208736
 10
62.324774861
 20
2.8241355515
 10
62.3271836933
 20
2.8307203894
 10
62.3294068298
 20
2.8373702254
 10
62.331442658
 20
2.8440797707
 10
62.3332896491
 20
2.8508436525
 10
62.3349462745
 20
2.8576564979
 10
62.3364110922
 20
2.8645129003
 10
62.3376830927
 20
2.8714077239
 10
62.3387613496
 20
2.8783358
 10
62.3396449364
 20
2.88529196
 10
62.3403330209
 20
2.8922707146
 10
62.3408252017
 20
2.8992658684
 10
62.3411211662
 20
2.9062709057
 10
62.341220602
 20
2.9132793111
  0
LINE
  5
36B
100
AcDbEntity
  8
0
100
AcDbLine
 62
9
  6
CONTINUOUS
 10
56.501500289
 20
1.8792989015
 11
56.4589389638
 21
1.8786541311
  0
LINE
  5
36C
100
AcDbEntity
  8
0
100
AcDbLine
 62
9
  6
CONTINUOUS
 10
42.195024393
 20
1.8792989015
 11
42.1524630678
 21
1.8786541311
  0
LINE
  5
36D
100
AcDbEntity
  8
0
100
AcDbLine
 62
9
  6
CONTINUOUS
 10
56.5608904869
 20
1.880014562
 11
56.501500289
 21
1.8792989015
  0
LINE
  5
36E
100
AcDbEntity
  8
0
100
AcDbLine
 62
9
  6
CONTINUOUS
 10
42.2544145908
 20
1.880014562
 11
42.195024393
 21
1.8792989015
  0
LINE
  5
36F
100
AcDbEntity
  8
0
100
AcDbLine
 62
9
  6
CONTINUOUS
 10
56.5861909798
 20
1.8802732063
 11
56.5608904869
 21
1.880014562
  0
LINE
  5
370
100
AcDbEntity
  8
0
100
AcDbLine
 62
7
  6
CONTINUOUS
 10
11.0043632677
 20
6.3456746438
 11
6.754507915
 21
6.308586718
  0
LWPOLYLINE
  5
371
100
AcDbEntity
  8
0
100
AcDbPolyline
 62
7
  6
CONTINUOUS
 90
27
 70
0
 10
37.9649016644
 20
2.6235260492
 10
38.0211206199
 20
2.6240074716
 10
38.081688376
 20
2.6244474776
 10
38.1461384971
 20
2.6248426722
 10
38.2141032412
 20
2.6251908012
 10
38.2850693605
 20
2.6254892272
 10
38.3586188689
 20
2.6257361937
 10
38.434210796
 20
2.6259298759
 10
38.5113827157
 20
2.6260690921
 10
38.5895861245
 20
2.6261528445
 10
38.6683203001
 20
2.6261806024
 10
38.7470499762
 20
2.6261521696
 10
38.8252451873
 20
2.6260677449
 10
38.9024001163
 20
2.6259278691
 10
38.9779713036
 20
2.6257335356
 10
39.0514918356
 20
2.6254859421
 10
39.1224252174
 20
2.6251869038
 10
39.1903497878
 20
2.624838197
 10
39.254756062
 20
2.6244424456
 10
39.3152735346
 20
2.6240019256
 10
39.3714387042
 20
2.6235200177
 10
39.4229351916
 20
2.6229994378
 10
39.4693663356
 20
2.6224441956
 10
39.5104679953
 20
2.6218574566
 10
39.54593094
 20
2.6212436191
 10
39.5755420541
 20
2.6206063878
 10
39.6077861146
 20
2.6197098742
  0
LINE
  5
372
100
AcDbEntity
  8
0
100
AcDbLine
 62
9
  6
CONTINUOUS
 10
42.3323182426
 20
1.880744041
 11
42.2544145908
 21
1.880014562
  0
LINE
  5
373
100
AcDbEntity
  8
0
100
AcDbLine
 62
9
  6
CONTINUOUS
 10
62.341220602
 20
2.9132793111
 11
37.7944713599
 21
2.9132793111
  0
LINE
  5
374
100
AcDbEntity
  8
0
100
AcDbLine
 62
9
  6
CONTINUOUS
 10
4.2456368984
 20
2.9132793111
 11
4.0
 21
2.9132793111
  0
LINE
  5
375
100
AcDbEntity
  8
0
100
AcDbLine
 62
9
  6
CONTINUOUS
 10
20.2026179606
 20
5.8326730121
 11
20.5
 21
5.8326730121
  0
LINE
  5
376
100
AcDbEntity
  8
0
100
AcDbLine
 62
7
  6
CONTINUOUS
 10
4.5
 20
6.3
 11
4.0
 21
6.3
  0
LINE
  5
377
100
AcDbEntity
  8
0
100
AcDbLine
 62
7
  6
CONTINUOUS
 10
37.7900314355
 20
6.3
 11
62.3456605265
 21
6.3
  0
LINE
  5
378
100
AcDbEntity
  8
0
100
AcDbLine
 62
7
  6
CONTINUOUS
 10
38.0393117574
 20
6.8
 11
62.0963802045
 21
6.8
  0
LINE
  5
379
100
AcDbEntity
  8
0
100
AcDbLine
 62
9
  6
CONTINUOUS
 10
62.038016923
 20
7.3895722111
 11
38.097675039
 21
7.3895722111
  0
LINE
  5
37A
100
AcDbEntity
  8
0
100
AcDbLine
 62
9
  6
CONTINUOUS
 10
62.027209094
 20
8.334932747
 11
38.108482868
 21
8.334932747
  0
LINE
  5
37B
100
AcDbEntity
  8
0
100
AcDbLine
 62
7
  6
CONTINUOUS
 10
11.5
 20
4.2
 11
20.4788482993
 21
4.121642778
  0
LINE
  5
37C
100
AcDbEntity
  8
0
100
AcDbLine
 62
7
  6
CONTINUOUS
 10
20.5
 20
4.85
 11
6.2604149583
 21
4.9742669761
  0
LWPOLYLINE
  5
37D
100
AcDbEntity
  8
0
100
AcDbPolyline
 62
7
  6
CONTINUOUS
 90
57
 70
0
 10
38.0393117574
 20
6.8
 10
38.0323721075
 20
6.8000979289
 10
38.0254357985
 20
6.800391522
 10
38.0185093561
 20
6.8008804893
 10
38.0115993063
 20
6.8015645406
 10
38.0047101876
 20
6.8024435232
 10
37.9978491732
 20
6.8035164332
 10
37.9910214369
 20
6.8047823042
 10
37.984232153
 20
6.8062401699
 10
37.9774818613
 20
6.8078901643
 10
37.9707806103
 20
6.8097298272
 10
37.9641337541
 20
6.8117575339
 10
37.9575466466
 20
6.8139716595
 10
37.9510115741
 20
6.8163754698
 10
37.9445468995
 20
6.8189625568
 10
37.9381576563
 20
6.8217306615
 10
37.9318488784
 20
6.8246775248
 10
37.9256124719
 20
6.8278075864
 10
37.9194666746
 20
6.831112046
 10
37.9134162342
 20
6.8345880543
 10
37.9074658986
 20
6.8382327622
 10
37.9016005042
 20
6.8420565712
 10
37.8958450634
 20
6.8460439688
 10
37.8902039573
 20
6.8501915552
 10
37.8846815671
 20
6.8544959301
 10
37.8792659787
 20
6.8589673965
 10
37.8739781914
 20
6.8635893006
 10
37.8688221599
 20
6.8683577576
 10
37.8638018388
 20
6.8732688827
 10
37.8589009794
 20
6.8783401379
 10
37.8541444509
 20
6.8835470169
 10
37.8495357485
 20
6.8888851963
 10
37.8450783668
 20
6.8943503529
 10
37.8407616524
 20
6.8999569095
 10
37.8366037738
 20
6.9056822572
 10
37.8326077184
 20
6.9115217154
 10
37.8287764739
 20
6.9174706035
 10
37.8250981227
 20
6.923549468
 10
37.8215914269
 20
6.9297289524
 10
37.8182588514
 20
6.9360040586
 10
37.8151028611
 20
6.9423697881
 10
37.8121171951
 20
6.9488405296
 10
37.8093135667
 20
6.9553922051
 10
37.8066938911
 20
6.9620196105
 10
37.8042600834
 20
6.9687175419
 10
37.802007053
 20
6.9755025832
 10
37.7999443739
 20
6.9823478897
 10
37.7980734059
 20
6.9892479843
 10
37.7963955087
 20
6.9961973897
 10
37.7949091241
 20
7.0032049609
 10
37.7936187581
 20
7.0102513048
 10
37.7925252058
 20
7.0173311817
 10
37.791629262
 20
7.0244393517
 10
37.790930559
 20
7.0315831123
 10
37.7904311997
 20
7.0387434199
 10
37.790131415
 20
7.0459136856
 10
37.7900314355
 20
7.0530873205
  0
LINE
  5
37E
100
AcDbEntity
  8
0
100
AcDbLine
 62
3
  6
CONTINUOUS
 10
10.9068680823
 20
49.7853169549
 11
15.2242904509
 21
48.3825013904
  0
LINE
  5
37F
100
AcDbEntity
  8
0
100
AcDbLine
 62
7
  6
CONTINUOUS
 10
11.03047488
 20
50.1657395614
 11
16.4848605722
 21
48.3935022192
  0
LINE
  5
380
100
AcDbEntity
  8
0
100
AcDbLine
 62
7
  6
CONTINUOUS
 10
19.9996852747
 20
47.578437066
 11
17.9506671649
 21
48.4062941195
  0
LINE
  5
381
100
AcDbEntity
  8
0
100
AcDbLine
 62
9
  6
CONTINUOUS
 10
37.703672668
 20
47.3321165774
 11
37.7944713599
 21
47.286720689
  0
LINE
  5
382
100
AcDbEntity
  8
0
100
AcDbLine
 62
9
  6
CONTINUOUS
 10
37.9649016644
 20
47.5764739509
 11
38.0444332837
 21
47.5367111697
  0
LINE
  5
383
100
AcDbEntity
  8
0
100
AcDbLine
 62
7
  6
CONTINUOUS
 10
41.9235321454
 20
47.6721514225
 11
42.1241067368
 21
47.5718717645
  0
LINE
  5
384
100
AcDbEntity
  8
0
100
AcDbLine
 62
7
  6
CONTINUOUS
 10
42.1241067368
 20
48.3218717645
 11
41.9552491668
 21
48.4062941195
  0
LINE
  5
385
100
AcDbEntity
  8
0
100
AcDbLine
 62
7
  6
CONTINUOUS
 10
62.4591946096
 20
43.8543253563
 11
62.3850131085
 21
43.8914132821
  0
LINE
  5
386
100
AcDbEntity
  8
0
100
AcDbLine
 62
7
  6
CONTINUOUS
 10
56.267845981
 20
47.6532338936
 11
56.4305826328
 21
47.5718717645
  0
LINE
  5
387
100
AcDbEntity
  8
0
100
AcDbLine
 62
7
  6
CONTINUOUS
 10
39.7750313534
 20
47.5962774236
 11
39.8544957868
 21
47.5551087253
  0
LWPOLYLINE
  5
388
100
AcDbEntity
  8
0
100
AcDbPolyline
 62
7
  6
CONTINUOUS
 90
17
 70
0
 43
0.3500000006
 10
54.1455254517
 20
58.9499995422
 10
53.8709762878
 20
59.2000041504
 10
53.7336971741
 20
59.4499996948
 10
53.5964225922
 20
59.700004303
 10
53.5964225922
 20
59.9499998474
 10
53.7336971741
 20
60.2000044556
 10
53.8709762878
 20
60.45
 10
54.1455254517
 20
60.6999955444
 10
54.4200791473
 20
60.6999955444
 10
54.694632843
 20
60.45
 10
54.8319119568
 20
60.2000044556
 10
54.9691865387
 20
59.9499998474
 10
54.9691865387
 20
59.700004303
 10
54.8319119568
 20
59.4499996948
 10
54.694632843
 20
59.2000041504
 10
54.4200791473
 20
58.9499995422
 10
54.1455254517
 20
58.9499995422
  0
LWPOLYLINE
  5
389
100
AcDbEntity
  8
0
100
AcDbPolyline
 62
7
  6
CONTINUOUS
 90
12
 70
0
 43
0.3500000006
 10
54.1455254517
 20
60.6999955444
 10
53.8709762878
 20
60.9500001526
 10
53.7336971741
 20
61.199995697
 10
53.7336971741
 20
61.4500003052
 10
53.8709762878
 20
61.6999958496
 10
54.1455254517
 20
61.9500004578
 10
54.4200791473
 20
61.9500004578
 10
54.694632843
 20
61.6999958496
 10
54.8319119568
 20
61.4500003052
 10
54.8319119568
 20
61.199995697
 10
54.694632843
 20
60.9500001526
 10
54.4200791473
 20
60.6999955444
  0
LWPOLYLINE
  5
38A
100
AcDbEntity
  8
0
100
AcDbPolyline
 62
7
  6
CONTINUOUS
 90
23
 70
0
 10
62.4171758339
 20
48.5348673386
 10
62.418629832
 20
48.5310618566
 10
62.4200236387
 20
48.5272329924
 10
62.4213567913
 20
48.5233818868
 10
62.422628827
 20
48.5195096804
 10
62.4238392829
 20
48.5156175137
 10
62.4249876962
 20
48.5117065273
 10
62.4260736041
 20
48.5077778619
 10
62.4271178882
 20
48.5037475658
 10
62.4280961643
 20
48.4997009814
 10
62.4290081313
 20
48.4956390778
 10
62.4298534877
 20
48.4915628245
 10
62.4306319324
 20
48.4874731907
 10
62.4313431642
 20
48.4833711457
 10
62.4319868818
 20
48.4792576589
 10
62.4324985975
 20
48.4756192209
 10
62.4329573611
 20
48.4719735591
 10
62.4333630237
 20
48.4683216042
 10
62.4337154365
 20
48.4646642865
 10
62.4340144509
 20
48.4610025368
 10
62.4342599181
 20
48.4573372854
 10
62.4344516892
 20
48.453669463
 10
62.4345896157
 20
48.45
  0
LWPOLYLINE
  5
38B
100
AcDbEntity
  8
0
100
AcDbPolyline
 62
7
  6
CONTINUOUS
 90
33
 70
0
 10
62.383971104
 20
4.7892118692
 10
62.3832648692
 20
4.7936778519
 10
62.3827923423
 20
4.7981803391
 10
62.3816313426
 20
4.8131659291
 10
62.380499095
 20
4.83402882
 10
62.3794032109
 20
4.8606294751
 10
62.3783540577
 20
4.8927155193
 10
62.3773582769
 20
4.930085755
 10
62.3764258608
 20
4.9723636254
 10
62.3755622285
 20
5.0193038713
 10
62.3747763044
 20
5.0704204811
 10
62.3740725197
 20
5.1254249175
 10
62.3734581721
 20
5.1837467848
 10
62.3729367822
 20
5.2450503487
 10
62.3725136379
 20
5.3087154853
 10
62.3721913144
 20
5.3743509874
 10
62.3719729279
 20
5.4413277422
 10
62.3718599332
 20
5.5091894963
 10
62.3718533616
 20
5.577340578
 10
62.3719532231
 20
5.6452523033
 10
62.3721587845
 20
5.7123974399
 10
62.372468203
 20
5.7781868868
 10
62.3728794045
 20
5.8421722648
 10
62.3733884205
 20
5.9037402699
 10
62.3739921504
 20
5.9625126472
 10
62.3746844695
 20
6.0178945359
 10
62.3754614146
 20
6.06956748
 10
62.3763149197
 20
6.1169950236
 10
62.3772401835
 20
6.159910018
 10
62.3782276285
 20
6.1978673807
 10
62.3792715317
 20
6.2306475743
 10
62.3803613968
 20
6.2579195319
 10
62.3819085857
 20
6.2875102066
  0
LWPOLYLINE
  5
38C
100
AcDbEntity
  8
0
100
AcDbPolyline
 62
7
  6
CONTINUOUS
 90
9
 70
0
 10
62.4608858129
 20
43.8439850625
 10
62.460362852
 20
43.8475534231
 10
62.4601507706
 20
43.8494526299
 10
62.4600423603
 20
43.8515348241
 10
62.4600300252
 20
43.8522157932
 10
62.459985778
 20
43.8528784373
 10
62.4598629234
 20
43.85347965
 10
62.4596147658
 20
43.8539763252
 10
62.4591946096
 20
43.8543253563
  0
LINE
  5
38D
100
AcDbEntity
  8
0
100
AcDbLine
 62
7
  6
CONTINUOUS
 10
62.3819052736
 20
43.9125271816
 11
62.3803553312
 21
43.9422141632
  0
LWPOLYLINE
  5
38E
100
AcDbEntity
  8
0
100
AcDbPolyline
 62
7
  6
CONTINUOUS
 90
5
 70
0
 10
62.4625101922
 20
43.8150422459
 10
62.4617122023
 20
43.8317532472
 10
62.4615364387
 20
43.8359144126
 10
62.4612924199
 20
43.8400269421
 10
62.4608858129
 20
43.8439850625
  0
LWPOLYLINE
  5
38F
100
AcDbEntity
  8
0
100
AcDbPolyline
 62
7
  6
CONTINUOUS
 90
32
 70
0
 10
62.3803553312
 20
43.9422141632
 10
62.3792658801
 20
43.9695115608
 10
62.3782224466
 20
44.0023131796
 10
62.3772354737
 20
44.0402891896
 10
62.3763107094
 20
44.0832189334
 10
62.3754577028
 20
44.1306581914
 10
62.3746812625
 20
44.1823392613
 10
62.3739894408
 20
44.2377260812
 10
62.3733861967
 20
44.2965003541
 10
62.3728776518
 20
44.358066959
 10
62.372466896
 20
44.4220486546
 10
62.3721578995
 20
44.4878311487
 10
62.3719527258
 20
44.5549678788
 10
62.371853219
 20
44.6228681501
 10
62.3718601065
 20
44.6910071417
 10
62.3719733761
 20
44.7588544252
 10
62.3721919968
 20
44.8258162802
 10
62.3725145091
 20
44.8914355318
 10
62.3729377994
 20
44.9550842167
 10
62.3734592909
 20
45.0163710168
 10
62.3740736958
 20
45.0746761953
 10
62.3747774985
 20
45.1296645611
 10
62.375563396
 20
45.1807655267
 10
62.3764269706
 20
45.227691491
 10
62.3773592862
 20
45.269955933
 10
62.3783549452
 20
45.3073146194
 10
62.3794039385
 20
45.3393904321
 10
62.3804996581
 20
45.3659831727
 10
62.3816317178
 20
45.3868399362
 10
62.3827925134
 20
45.4018214129
 10
62.3832649873
 20
45.4063230194
 10
62.383971104
 20
45.4107881309
  0
LINE
  5
390
100
AcDbEntity
  8
0
100
AcDbLine
 62
7
  6
CONTINUOUS
 10
60.5011023462
 20
1.75
 11
60.4752917009
 21
2.6037225765
  0
LINE
  5
391
100
AcDbEntity
  8
0
100
AcDbLine
 62
7
  6
CONTINUOUS
 10
62.467845981
 20
47.35
 11
62.4345896157
 21
48.45
  0
LWPOLYLINE
  5
392
100
AcDbEntity
  8
0
100
AcDbPolyline
 62
9
  6
CONTINUOUS
 90
53
 70
0
 10
62.2879788467
 20
42.5642258508
 10
62.2878422833
 20
42.5716463005
 10
62.2874786233
 20
42.57906184
 10
62.2868884197
 20
42.5864642645
 10
62.2860722254
 20
42.5938453694
 10
62.2850298129
 20
42.6012031589
 10
62.2837630551
 20
42.6085249301
 10
62.2822734078
 20
42.6158042368
 10
62.2805623272
 20
42.6230346327
 10
62.2786289883
 20
42.6302181369
 10
62.2764774711
 20
42.6373395442
 10
62.2741100974
 20
42.6443922461
 10
62.2715291892
 20
42.6513696344
 10
62.2687328583
 20
42.658275458
 10
62.2657278051
 20
42.6650929993
 10
62.2625171535
 20
42.6718161439
 10
62.2591040275
 20
42.678438777
 10
62.2554852844
 20
42.6849659772
 10
62.251670354
 20
42.6913805074
 10
62.2476630863
 20
42.6976766911
 10
62.2434673309
 20
42.7038488515
 10
62.2390788104
 20
42.7099024076
 10
62.2345094618
 20
42.7158206598
 10
62.2297637748
 20
42.721598482
 10
62.2248462396
 20
42.7272307481
 10
62.2197518565
 20
42.7327224531
 10
62.2144945354
 20
42.7380583866
 10
62.2090793179
 20
42.7432340186
 10
62.2035112452
 20
42.7482448189
 10
62.1977852477
 20
42.7530947332
 10
62.1919164172
 20
42.7577707977
 10
62.1859102549
 20
42.7622691207
 10
62.179772262
 20
42.7665858109
 10
62.1734981016
 20
42.7707234073
 10
62.1671031016
 20
42.7746716719
 10
62.1605931476
 20
42.7784273785
 10
62.1539741251
 20
42.7819873006
 10
62.1472432807
 20
42.7853525065
 10
62.1404151406
 20
42.7885156479
 10
62.1334958566
 20
42.7914741815
 10
62.1264915808
 20
42.7942255642
 10
62.1194019172
 20
42.7967696275
 10
62.1122397508
 20
42.7991017585
 10
62.1050115652
 20
42.8012201081
 10
62.0977238437
 20
42.8031228271
 10
62.0903791894
 20
42.8048090048
 10
62.0829876491
 20
42.8062763309
 10
62.0755554445
 20
42.80752366
 10
62.068088797
 20
42.8085498466
 10
62.0605935548
 20
42.8093539222
 10
62.0530779316
 20
42.8099352315
 10
62.0455497727
 20
42.8102933339
 10
62.038016923
 20
42.810427789
  0
LWPOLYLINE
  5
393
100
AcDbEntity
  8
0
100
AcDbPolyline
 62
9
  6
CONTINUOUS
 90
22
 70
0
 10
60.503672668
 20
1.75
 10
60.5037066984
 20
1.7458786828
 10
60.5038087422
 20
1.741757536
 10
60.5039787285
 20
1.7376379021
 10
60.5042165863
 20
1.7335211239
 10
60.5045222445
 20
1.7294085442
 10
60.5048956322
 20
1.7253015056
 10
60.5053366785
 20
1.721201351
 10
60.5058452929
 20
1.7171093816
 10
60.5064213201
 20
1.7130266354
 10
60.5070645861
 20
1.7089541088
 10
60.5077749167
 20
1.7048927984
 10
60.5085521378
 20
1.7008437009
 10
60.5093960753
 20
1.6968078126
 10
60.510306555
 20
1.6927861303
 10
60.5112833592
 20
1.6887797301
 10
60.5123261418
 20
1.6847898193
 10
60.5134345142
 20
1.6808176853
 10
60.5146080877
 20
1.6768646153
 10
60.5158464736
 20
1.6729318965
 10
60.5171492833
 20
1.6690208161
 10
60.5185161281
 20
1.6651326615
  0
LWPOLYLINE
  5
394
100
AcDbEntity
  8
0
100
AcDbPolyline
 62
9
  6
CONTINUOUS
 90
22
 70
0
 10
62.432019294
 20
48.45
 10
62.4319852636
 20
48.4541213172
 10
62.4318832198
 20
48.458242464
 10
62.4317132335
 20
48.4623620979
 10
62.4314753757
 20
48.4664788761
 10
62.4311697175
 20
48.4705914559
 10
62.4307963298
 20
48.4746984944
 10
62.4303552835
 20
48.4787986491
 10
62.4298466691
 20
48.4828906185
 10
62.4292706419
 20
48.4869733647
 10
62.4286273759
 20
48.4910458913
 10
62.4279170453
 20
48.4951072016
 10
62.4271398242
 20
48.4991562992
 10
62.4262958867
 20
48.5031921874
 10
62.425385407
 20
48.5072138698
 10
62.4244086028
 20
48.5112202699
 10
62.4233658202
 20
48.5152101807
 10
62.4222574478
 20
48.5191823147
 10
62.4210838743
 20
48.5231353847
 10
62.4198454884
 20
48.5270681036
 10
62.4185426787
 20
48.5309791839
 10
62.4171758339
 20
48.5348673386
  0
LWPOLYLINE
  5
395
100
AcDbEntity
  8
0
100
AcDbPolyline
 62
7
  6
CONTINUOUS
 90
14
 70
0
 10
62.4678302936
 20
4.2905560014
 10
62.4677830228
 20
4.3037943488
 10
62.4677052104
 20
4.3165227044
 10
62.4675989744
 20
4.3284622581
 10
62.4674645619
 20
4.3395716188
 10
62.4673042758
 20
4.3495928236
 10
62.4671227652
 20
4.3582341965
 10
62.4669243539
 20
4.3653390772
 10
62.4668293212
 20
4.3681133838
 10
62.4667099329
 20
4.3708856019
 10
62.4664839181
 20
4.3747365508
 10
62.4664333531
 20
4.3754277467
 10
62.4663623893
 20
4.3761162442
 10
62.4662526054
 20
4.3767987031
  0
LWPOLYLINE
  5
396
100
AcDbEntity
  8
0
100
AcDbPolyline
 62
9
  6
CONTINUOUS
 90
19
 70
0
 10
62.2771710178
 20
8.3447945513
 10
62.2772537903
 20
8.2851591269
 10
62.2774193255
 20
8.2260742115
 10
62.2776665632
 20
8.1679318222
 10
62.2779939275
 20
8.1111037951
 10
62.2783993338
 20
8.0559518909
 10
62.2788802108
 20
8.0028262993
 10
62.2794334936
 20
7.952065999
 10
62.2800556622
 20
7.903994109
 10
62.2807427532
 20
7.8589170178
 10
62.2814904024
 20
7.8171212243
 10
62.2822938463
 20
7.7788732807
 10
62.2831479708
 20
7.7444168051
 10
62.284047326
 20
7.7139716961
 10
62.2849862007
 20
7.687731337
 10
62.2859586165
 20
7.6658630237
 10
62.2869583524
 20
7.6485065226
 10
62.2874176314
 20
7.642135995
 10
62.2879788467
 20
7.6357741493
  0
LWPOLYLINE
  5
397
100
AcDbEntity
  8
0
100
AcDbPolyline
 62
9
  6
CONTINUOUS
 90
18
 70
0
 10
62.027209094
 20
8.334932747
 10
62.0272919029
 20
8.2553955791
 10
62.0274574554
 20
8.1766182996
 10
62.027704706
 20
8.0990978593
 10
62.0280320767
 20
8.0233299696
 10
62.0284374843
 20
7.9497969361
 10
62.0289183565
 20
7.8789656214
 10
62.0294716289
 20
7.8112879441
 10
62.0300937815
 20
7.7471946735
 10
62.0307808508
 20
7.6870942728
 10
62.0315284732
 20
7.6313686856
 10
62.0323318863
 20
7.580373206
 10
62.0331859772
 20
7.5344325792
 10
62.0340852973
 20
7.4938399899
 10
62.0350241344
 20
7.4588532833
 10
62.0359965162
 20
7.4296954956
 10
62.0369962087
 20
7.406553063
 10
62.038016923
 20
7.3895722111
  0
LWPOLYLINE
  5
398
100
AcDbEntity
  8
0
100
AcDbPolyline
 62
7
  6
CONTINUOUS
 90
14
 70
0
 10
62.467845981
 20
43.3543443947
 10
62.4678046907
 20
43.4029234256
 10
62.4676803287
 20
43.4512987736
 10
62.4674741341
 20
43.498737164
 10
62.4671895213
 20
43.5445919965
 10
62.4668282158
 20
43.5886688151
 10
62.466391442
 20
43.6307254924
 10
62.465885098
 20
43.6701273587
 10
62.4653169393
 20
43.7063329809
 10
62.4646899838
 20
43.7392025529
 10
62.4640066581
 20
43.7685600498
 10
62.4632763953
 20
43.7939540585
 10
62.4629310632
 20
43.8045164206
 10
62.4625101922
 20
43.8150422459
  0
LINE
  5
399
100
AcDbEntity
  8
0
100
AcDbLine
 62
9
  6
CONTINUOUS
 10
58.0115852252
 20
48.3218717645
 11
58.0115852252
 21
47.5718717645
  0
LINE
  5
39A
100
AcDbEntity
  8
0
100
AcDbLine
 62
9
  6
CONTINUOUS
 10
58.0115852252
 20
2.6281282356
 11
58.0115852252
 21
1.8781282356
  0
LINE
  5
39B
100
AcDbEntity
  8
0
100
AcDbLine
 62
9
  6
CONTINUOUS
 10
60.503672668
 20
48.45
 11
60.503672668
 21
47.5820880208
  0
LINE
  5
39C
100
AcDbEntity
  8
0
100
AcDbLine
 62
9
  6
CONTINUOUS
 10
60.503672668
 20
2.6179119793
 11
60.503672668
 21
1.75
  0
LINE
  5
39D
100
AcDbEntity
  8
0
100
AcDbLine
 62
9
  6
CONTINUOUS
 10
62.0912586782
 20
2.6632888304
 11
62.0912586782
 21
6.3
  0
LINE
  5
39E
100
AcDbEntity
  8
0
100
AcDbLine
 62
9
  6
CONTINUOUS
 10
62.0912586782
 20
43.9
 11
62.0912586782
 21
47.5367111697
  0
LINE
  5
39F
100
AcDbEntity
  8
0
100
AcDbLine
 62
9
  6
CONTINUOUS
 10
62.341220602
 20
47.286720689
 11
62.341220602
 21
43.9
  0
LINE
  5
3A0
100
AcDbEntity
  8
0
100
AcDbLine
 62
9
  6
CONTINUOUS
 10
62.341220602
 20
6.3
 11
62.341220602
 21
2.9132793111
  0
LINE
  5
3A1
100
AcDbEntity
  8
0
100
AcDbLine
 62
7
  6
CONTINUOUS
 10
62.3456605265
 20
43.9
 11
62.3456605265
 21
43.1469126796
  0
LINE
  5
3A2
100
AcDbEntity
  8
0
100
AcDbLine
 62
7
  6
CONTINUOUS
 10
62.3456605265
 20
7.0530873205
 11
62.3456605265
 21
6.3
  0
LINE
  5
3A3
100
AcDbEntity
  8
0
100
AcDbLine
 62
9
  6
CONTINUOUS
 10
62.432019294
 20
48.45
 11
62.432019294
 21
47.3321165774
  0
LINE
  5
3A4
100
AcDbEntity
  8
0
100
AcDbLine
 62
9
  6
CONTINUOUS
 10
62.432019294
 20
2.8678834227
 11
62.432019294
 21
1.75
  0
LINE
  5
3A5
100
AcDbEntity
  8
0
100
AcDbLine
 62
7
  6
CONTINUOUS
 10
62.467845981
 20
43.3543443947
 11
62.467845981
 21
6.8456556053
  0
LINE
  5
3A6
100
AcDbEntity
  8
0
100
AcDbLine
 62
7
  6
CONTINUOUS
 10
62.4678302936
 20
4.2905560014
 11
62.467845981
 21
2.85
  0
LWPOLYLINE
  5
3A7
100
AcDbEntity
  8
0
100
AcDbPolyline
 62
7
  6
CONTINUOUS
 90
14
 70
0
 43
0.3500000006
 10
66.717844162
 20
21.9115671387
 10
66.717844162
 20
21.1079957886
 10
67.9678445435
 20
20.9740702515
 10
67.7178444672
 20
21.2419258575
 10
67.7178444672
 20
21.5097814636
 10
67.9678445435
 20
21.7776416016
 10
68.2178446198
 20
21.9115671387
 10
68.7178447723
 20
22.0454972076
 10
69.2178449249
 20
21.9115671387
 10
69.4678450012
 20
21.7776416016
 10
69.7178450775
 20
21.5097814636
 10
69.7178450775
 20
21.2419258575
 10
69.4678450012
 20
20.9740702515
 10
69.2178449249
 20
20.8401401825
  0
LWPOLYLINE
  5
3A8
100
AcDbEntity
  8
0
100
AcDbPolyline
 62
9
  6
CONTINUOUS
 90
10
 70
0
 10
62.027209094
 20
41.8650672531
 10
62.0249294998
 20
38.1408334626
 10
62.0232196509
 20
34.4155971681
 10
62.0220796786
 20
30.6896447507
 10
62.0215096706
 20
26.9632626581
 10
62.0215096706
 20
23.236737342
 10
62.0220796786
 20
19.5103552495
 10
62.0232196509
 20
15.784402832
 10
62.0249294998
 20
12.0591665375
 10
62.027209094
 20
8.334932747
  0
LWPOLYLINE
  5
3A9
100
AcDbEntity
  8
0
100
AcDbPolyline
 62
9
  6
CONTINUOUS
 90
10
 70
0
 10
62.2771710178
 20
41.8552054488
 10
62.2748914237
 20
38.1331625886
 10
62.2731815747
 20
34.4101175361
 10
62.2720416024
 20
30.6863567785
 10
62.2714715944
 20
26.9621665979
 10
62.2714715944
 20
23.2378332845
 10
62.2720416025
 20
19.513643104
 10
62.2731815748
 20
15.7898823466
 10
62.2748914238
 20
12.0668372941
 10
62.2771710178
 20
8.3447945513
  0
LWPOLYLINE
  5
3AA
100
AcDbEntity
  8
0
100
AcDbPolyline
 62
9
  6
CONTINUOUS
 90
22
 70
0
 10
60.503672668
 20
48.45
 10
60.5037066984
 20
48.4541213172
 10
60.5038087422
 20
48.458242464
 10
60.5039787285
 20
48.4623620979
 10
60.5042165863
 20
48.4664788761
 10
60.5045222445
 20
48.4705914559
 10
60.5048956322
 20
48.4746984944
 10
60.5053366785
 20
48.4787986491
 10
60.5058452929
 20
48.4828906185
 10
60.5064213201
 20
48.4869733647
 10
60.5070645861
 20
48.4910458913
 10
60.5077749167
 20
48.4951072016
 10
60.5085521378
 20
48.4991562992
 10
60.5093960753
 20
48.5031921874
 10
60.510306555
 20
48.5072138698
 10
60.5112833592
 20
48.5112202699
 10
60.5123261418
 20
48.5152101807
 10
60.5134345142
 20
48.5191823147
 10
60.5146080877
 20
48.5231353847
 10
60.5158464736
 20
48.5270681036
 10
60.5171492833
 20
48.5309791839
 10
60.5185161281
 20
48.5348673386
  0
LWPOLYLINE
  5
3AB
100
AcDbEntity
  8
0
100
AcDbPolyline
 62
9
  6
CONTINUOUS
 90
22
 70
0
 10
62.432019294
 20
1.75
 10
62.4319852636
 20
1.7458786828
 10
62.4318832198
 20
1.741757536
 10
62.4317132335
 20
1.7376379021
 10
62.4314753757
 20
1.7335211239
 10
62.4311697175
 20
1.7294085442
 10
62.4307963298
 20
1.7253015056
 10
62.4303552835
 20
1.721201351
 10
62.4298466691
 20
1.7171093816
 10
62.4292706419
 20
1.7130266354
 10
62.4286273759
 20
1.7089541088
 10
62.4279170453
 20
1.7048927984
 10
62.4271398242
 20
1.7008437009
 10
62.4262958867
 20
1.6968078126
 10
62.425385407
 20
1.6927861303
 10
62.4244086028
 20
1.6887797301
 10
62.4233658202
 20
1.6847898193
 10
62.4222574478
 20
1.6808176853
 10
62.4210838743
 20
1.6768646153
 10
62.4198454884
 20
1.6729318965
 10
62.4185426787
 20
1.6690208161
 10
62.4171758339
 20
1.6651326615
  0
LWPOLYLINE
  5
3AC
100
AcDbEntity
  8
0
100
AcDbPolyline
 62
7
  6
CONTINUOUS
 90
57
 70
0
 10
62.3456605265
 20
7.0530873205
 10
62.345560547
 20
7.0459136856
 10
62.3452607623
 20
7.0387434199
 10
62.344761403
 20
7.0315831123
 10
62.3440626999
 20
7.0244393517
 10
62.3431667561
 20
7.0173311817
 10
62.3420732038
 20
7.0102513048
 10
62.3407828378
 20
7.0032049609
 10
62.3392964532
 20
6.9961973897
 10
62.3376185561
 20
6.9892479843
 10
62.335747588
 20
6.9823478897
 10
62.3336849089
 20
6.9755025832
 10
62.3314318785
 20
6.9687175419
 10
62.3289980708
 20
6.9620196105
 10
62.3263783952
 20
6.9553922051
 10
62.3235747668
 20
6.9488405296
 10
62.3205891008
 20
6.9423697881
 10
62.3174331105
 20
6.9360040586
 10
62.314100535
 20
6.9297289524
 10
62.3105938393
 20
6.923549468
 10
62.306915488
 20
6.9174706035
 10
62.3030842436
 20
6.9115217154
 10
62.2990881882
 20
6.9056822572
 10
62.2949303095
 20
6.8999569095
 10
62.2906135952
 20
6.8943503529
 10
62.2861562135
 20
6.8888851963
 10
62.2815475111
 20
6.8835470169
 10
62.2767909826
 20
6.8783401379
 10
62.2718901232
 20
6.8732688827
 10
62.2668698021
 20
6.8683577576
 10
62.2617137706
 20
6.8635893006
 10
62.2564259833
 20
6.8589673965
 10
62.2510103949
 20
6.8544959301
 10
62.2454880047
 20
6.8501915552
 10
62.2398468986
 20
6.8460439688
 10
62.2340914578
 20
6.8420565712
 10
62.2282260634
 20
6.8382327622
 10
62.2222757278
 20
6.8345880543
 10
62.2162252874
 20
6.831112046
 10
62.2100794901
 20
6.8278075864
 10
62.2038430836
 20
6.8246775248
 10
62.1975343057
 20
6.8217306615
 10
62.1911450625
 20
6.8189625568
 10
62.1846803878
 20
6.8163754698
 10
62.1781453153
 20
6.8139716595
 10
62.1715582078
 20
6.8117575339
 10
62.1649113516
 20
6.8097298272
 10
62.1582101006
 20
6.8078901643
 10
62.1514598089
 20
6.8062401699
 10
62.144670525
 20
6.8047823042
 10
62.1378427887
 20
6.8035164332
 10
62.1309817743
 20
6.8024435232
 10
62.1240926557
 20
6.8015645406
 10
62.1171826059
 20
6.8008804893
 10
62.1102561635
 20
6.800391522
 10
62.1033198544
 20
6.8000979289
 10
62.0963802045
 20
6.8
  0
LWPOLYLINE
  5
3AD
100
AcDbEntity
  8
0
100
AcDbPolyline
 62
9
  6
CONTINUOUS
 90
53
 70
0
 10
62.2879788467
 20
7.6357741493
 10
62.2878422833
 20
7.6283536985
 10
62.2874786232
 20
7.620938158
 10
62.2868884194
 20
7.6135357324
 10
62.2860722248
 20
7.6061546264
 10
62.2850298121
 20
7.598796836
 10
62.2837630539
 20
7.5914750639
 10
62.2822734063
 20
7.5841957564
 10
62.2805623252
 20
7.5769653597
 10
62.2786289859
 20
7.5697818549
 10
62.2764774682
 20
7.5626604471
 10
62.2741100941
 20
7.5556077447
 10
62.2715291854
 20
7.5486303559
 10
62.2687328539
 20
7.5417245319
 10
62.2657278002
 20
7.5349069903
 10
62.2625171481
 20
7.5281838454
 10
62.2591040215
 20
7.521561212
 10
62.255485278
 20
7.5150340118
 10
62.2516703471
 20
7.5086194814
 10
62.2476630789
 20
7.5023232977
 10
62.243467323
 20
7.4961511374
 10
62.2390788022
 20
7.4900975814
 10
62.2345094531
 20
7.4841793294
 10
62.2297637658
 20
7.4784015074
 10
62.2248462302
 20
7.4727692414
 10
62.2197518468
 20
7.4672775369
 10
62.2144945256
 20
7.4619416037
 10
62.2090793078
 20
7.456765972
 10
62.2035112349
 20
7.4517551722
 10
62.1977852374
 20
7.4469052583
 10
62.1919164069
 20
7.4422291944
 10
62.1859102445
 20
7.4377308718
 10
62.1797722516
 20
7.4334141821
 10
62.1734980913
 20
7.4292765863
 10
62.1671030915
 20
7.4253283222
 10
62.1605931377
 20
7.4215726161
 10
62.1539741154
 20
7.4180126945
 10
62.1472432714
 20
7.4146474891
 10
62.1404151317
 20
7.4114843482
 10
62.1334958481
 20
7.408525815
 10
62.1264915727
 20
7.4057744328
 10
62.1194019096
 20
7.40323037
 10
62.1122397438
 20
7.4008982394
 10
62.1050115587
 20
7.3987798902
 10
62.0977238379
 20
7.3968771715
 10
62.0903791843
 20
7.3951909941
 10
62.0829876447
 20
7.3937236683
 10
62.0755554407
 20
7.3924763395
 10
62.068088794
 20
7.3914501531
 10
62.0605935525
 20
7.3906460776
 10
62.0530779301
 20
7.3900647685
 10
62.0455497719
 20
7.3897066662
 10
62.038016923
 20
7.3895722111
  0
LINE
  5
3AE
100
AcDbEntity
  8
0
100
AcDbLine
 62
7
  6
CONTINUOUS
 10
60.4752917009
 20
47.5962774236
 11
60.5011023462
 21
48.45
  0
LINE
  5
3AF
100
AcDbEntity
  8
0
100
AcDbLine
 62
7
  6
CONTINUOUS
 10
62.4345896157
 20
1.75
 11
62.467845981
 21
2.85
  0
LWPOLYLINE
  5
3B0
100
AcDbEntity
  8
0
100
AcDbPolyline
 62
7
  6
CONTINUOUS
 90
23
 70
0
 10
60.5011023462
 20
48.45
 10
60.5012402727
 20
48.453669463
 10
60.5014320438
 20
48.4573372854
 10
60.501677511
 20
48.4610025368
 10
60.5019765254
 20
48.4646642865
 10
60.5023289382
 20
48.4683216042
 10
60.5027346008
 20
48.4719735591
 10
60.5031933644
 20
48.4756192209
 10
60.5037050802
 20
48.4792576589
 10
60.5043487977
 20
48.4833711457
 10
60.5050600295
 20
48.4874731907
 10
60.5058384742
 20
48.4915628245
 10
60.5066838307
 20
48.4956390778
 10
60.5075957976
 20
48.4997009814
 10
60.5085740738
 20
48.5037475658
 10
60.5096183579
 20
48.5077778619
 10
60.5107042658
 20
48.5117065273
 10
60.5118526791
 20
48.5156175137
 10
60.513063135
 20
48.5195096804
 10
60.5143351707
 20
48.5233818868
 10
60.5156683233
 20
48.5272329924
 10
60.51706213
 20
48.5310618566
 10
60.5185161281
 20
48.5348673386
  0
LWPOLYLINE
  5
3B1
100
AcDbEntity
  8
0
100
AcDbPolyline
 62
7
  6
CONTINUOUS
 90
23
 70
0
 10
62.4345896157
 20
1.75
 10
62.4344516892
 20
1.7463305371
 10
62.4342599181
 20
1.7426627147
 10
62.4340144509
 20
1.7389974633
 10
62.4337154365
 20
1.7353357135
 10
62.4333630237
 20
1.7316783959
 10
62.4329573611
 20
1.728026441
 10
62.4324985975
 20
1.7243807792
 10
62.4319868818
 20
1.7207423412
 10
62.4313431642
 20
1.7166288544
 10
62.4306319324
 20
1.7125268094
 10
62.4298534877
 20
1.7084371756
 10
62.4290081313
 20
1.7043609222
 10
62.4280961643
 20
1.7002990186
 10
62.4271178882
 20
1.6962524342
 10
62.4260736041
 20
1.6922221382
 10
62.4249876962
 20
1.6882934728
 10
62.4238392829
 20
1.6843824864
 10
62.422628827
 20
1.6804903197
 10
62.4213567913
 20
1.6766181132
 10
62.4200236387
 20
1.6727670077
 10
62.418629832
 20
1.6689381435
 10
62.4171758339
 20
1.6651326615
  0
LINE
  5
3B2
100
AcDbEntity
  8
0
100
AcDbLine
 62
7
  6
CONTINUOUS
 10
58.2121598166
 20
2.5278485776
 11
58.1804427952
 21
1.7937058805
  0
LWPOLYLINE
  5
3B3
100
AcDbEntity
  8
0
100
AcDbPolyline
 62
3
  6
CONTINUOUS
 90
47
 70
0
 10
54.567845981
 20
48.7397902523
 10
54.5677741351
 20
48.7382099004
 10
54.5675653401
 20
48.7366370346
 10
54.5672297103
 20
48.7350783683
 10
54.5667773599
 20
48.7335406153
 10
54.5662184031
 20
48.7320304891
 10
54.5655629543
 20
48.7305547032
 10
54.5648211275
 20
48.7291199714
 10
54.5640030371
 20
48.7277330073
 10
54.5628553136
 20
48.7260298751
 10
54.5616087231
 20
48.7244107869
 10
54.5602734246
 20
48.7228699914
 10
54.5588595775
 20
48.7214017375
 10
54.557377341
 20
48.7200002741
 10
54.5558368743
 20
48.7186598501
 10
54.5542483368
 20
48.7173747142
 10
54.5526218875
 20
48.7161391154
 10
54.5497038614
 20
48.7140798932
 10
54.5467093318
 20
48.712145199
 10
54.5436469849
 20
48.7103251538
 10
54.540525507
 20
48.7086098788
 10
54.5373535844
 20
48.706989495
 10
54.5341399034
 20
48.7054541235
 10
54.5300919327
 20
48.7036484013
 10
54.5259979651
 20
48.7019511876
 10
54.5218632612
 20
48.700354544
 10
54.5176930816
 20
48.6988505321
 10
54.5134926867
 20
48.6974312135
 10
54.5092673372
 20
48.6960886498
 10
54.5032681943
 20
48.6943109227
 10
54.4972338466
 20
48.6926619001
 10
54.4911683394
 20
48.6911331365
 10
54.485075718
 20
48.6897161864
 10
54.4789600276
 20
48.6884026041
 10
54.4720822049
 20
48.6870437431
 10
54.4651830197
 20
48.6857986625
 10
54.4582650099
 20
48.6846618878
 10
54.4513307132
 20
48.6836279442
 10
54.4443826675
 20
48.682691357
 10
54.4350262935
 20
48.6815775308
 10
54.4256525057
 20
48.6806239322
 10
54.4162641432
 20
48.6798248039
 10
54.4068640454
 20
48.6791743884
 10
54.3971170165
 20
48.6786520499
 10
54.3873631741
 20
48.6782812554
 10
54.3776052512
 20
48.6780601437
 10
54.367845981
 20
48.6779868534
  0
LWPOLYLINE
  5
3B4
100
AcDbEntity
  8
0
100
AcDbPolyline
 62
9
  6
CONTINUOUS
 90
18
 70
0
 10
62.038016923
 20
42.810427789
 10
62.0369962117
 20
42.7934469709
 10
62.0359965184
 20
42.7703045441
 10
62.0350241368
 20
42.741146759
 10
62.0340852999
 20
42.7061600691
 10
62.0331859796
 20
42.66556748
 10
62.0323318885
 20
42.6196268534
 10
62.0315284754
 20
42.5686313813
 10
62.030780853
 20
42.5129058076
 10
62.0300937835
 20
42.4528054122
 10
62.0294716305
 20
42.3887121369
 10
62.0289183578
 20
42.3210344608
 10
62.0284374853
 20
42.2502031588
 10
62.0280320776
 20
42.1766701412
 10
62.0277047065
 20
42.1009022345
 10
62.0274574556
 20
42.0233818116
 10
62.0272919034
 20
41.9446045487
 10
62.027209094
 20
41.8650672531
  0
LINE
  5
3B5
100
AcDbEntity
  8
0
100
AcDbLine
 62
7
  6
CONTINUOUS
 10
53.6761844149
 20
47.5808008909
 11
53.8018732762
 21
49.0174311486
  0
LINE
  5
3B6
100
AcDbEntity
  8
0
100
AcDbLine
 62
7
  6
CONTINUOUS
 10
37.6694393566
 20
4.3767987031
 11
37.751720858
 21
4.7892118692
  0
LINE
  5
3B7
100
AcDbEntity
  8
0
100
AcDbLine
 62
9
  6
CONTINUOUS
 10
0.5762386726
 20
8.3447945513
 11
0.3307964181
 21
8.3349327493
  0
LINE
  5
3B8
100
AcDbEntity
  8
0
100
AcDbLine
 62
7
  6
CONTINUOUS
 10
56.4305826328
 20
48.3218717645
 11
56.267845981
 21
48.4032338936
  0
LINE
  5
3B9
100
AcDbEntity
  8
0
100
AcDbLine
 62
7
  6
CONTINUOUS
 10
59.5576510363
 20
47.5551008921
 11
59.3235321454
 21
47.6721514225
  0
LINE
  5
3BA
100
AcDbEntity
  8
0
100
AcDbLine
 62
7
  6
CONTINUOUS
 10
60.4752917009
 20
47.5962774236
 11
60.503672668
 21
47.5820880208
  0
LWPOLYLINE
  5
3BB
100
AcDbEntity
  8
0
100
AcDbPolyline
 62
7
  6
CONTINUOUS
 90
55
 70
0
 10
62.432019294
 20
2.8678834227
 10
62.4317066178
 20
2.8614089783
 10
62.4312208971
 20
2.8549433847
 10
62.4305629742
 20
2.8484920407
 10
62.4297336913
 20
2.842060345
 10
62.4287208171
 20
2.8355760706
 10
62.4275345961
 20
2.8291217435
 10
62.4261763541
 20
2.8227016537
 10
62.4246474169
 20
2.816320091
 10
62.4229230724
 20
2.8098888831
 10
62.4210262212
 20
2.8035062708
 10
62.4189587217
 20
2.7971767699
 10
62.4167224325
 20
2.790904896
 10
62.4142755272
 20
2.7845864475
 10
62.4116581572
 20
2.7783367004
 10
62.408872714
 20
2.772160008
 10
62.4059215885
 20
2.7660607237
 10
62.4027403265
 20
2.7599180965
 10
62.3993918213
 20
2.7538649697
 10
62.3958790276
 20
2.7479056241
 10
62.3922049005
 20
2.7420443403
 10
62.3882759748
 20
2.7361446423
 10
62.3841843277
 20
2.730356566
 10
62.3799335239
 20
2.7246842809
 10
62.3755271281
 20
2.7191319565
 10
62.3708350089
 20
2.7135489308
 10
62.3659862131
 20
2.7081013551
 10
62.3609849916
 20
2.7027932823
 10
62.3558355952
 20
2.6976287653
 10
62.3503619713
 20
2.6924457528
 10
62.344739632
 20
2.6874243506
 10
62.3389736231
 20
2.6825684709
 10
62.3330689906
 20
2.6778820263
 10
62.3267923972
 20
2.6731961458
 10
62.3203776117
 20
2.6687011483
 10
62.3138306563
 20
2.6644007658
 10
62.3071575535
 20
2.6602987303
 10
62.3000536316
 20
2.656226674
 10
62.2928256224
 20
2.6523789128
 10
62.2854807033
 20
2.6487589232
 10
62.2780260516
 20
2.6453701818
 10
62.2700686683
 20
2.6420566414
 10
62.2620065886
 20
2.6390062463
 10
62.2538487455
 20
2.636222071
 10
62.245604072
 20
2.6337071897
 10
62.238544275
 20
2.6317859866
 10
62.231433561
 20
2.630062263
 10
62.2242771384
 20
2.6285372567
 10
62.2170802154
 20
2.6272122051
 10
62.2098480004
 20
2.6260883457
 10
62.2020719452
 20
2.625109354
 10
62.1942697763
 20
2.6243630172
 10
62.1864498647
 20
2.6238499467
 10
62.1786205815
 20
2.6235707536
 10
62.1707902976
 20
2.6235260492
  0
LWPOLYLINE
  5
3BC
100
AcDbEntity
  8
0
100
AcDbPolyline
 62
7
  6
CONTINUOUS
 90
15
 70
0
 10
62.4617122023
 20
6.3682467529
 10
62.4625101922
 20
6.3849577542
 10
62.4629310632
 20
6.3954835795
 10
62.4632763953
 20
6.4060459415
 10
62.4640066581
 20
6.4314399502
 10
62.4646899838
 20
6.4607974472
 10
62.4653169393
 20
6.4936670192
 10
62.465885098
 20
6.5298726414
 10
62.466391442
 20
6.5692745077
 10
62.4668282158
 20
6.611331185
 10
62.4671895213
 20
6.6554080036
 10
62.4674741341
 20
6.7012628361
 10
62.4676803287
 20
6.7487012265
 10
62.4678046907
 20
6.7970765745
 10
62.467845981
 20
6.8456556053
  0
LWPOLYLINE
  5
3BD
100
AcDbEntity
  8
0
100
AcDbPolyline
 62
9
  6
CONTINUOUS
 90
19
 70
0
 10
62.2879788467
 20
42.5642258508
 10
62.2874176805
 20
42.5578646047
 10
62.2869584329
 20
42.5514946781
 10
62.2859586975
 20
42.5341385764
 10
62.2849862817
 20
42.512270696
 10
62.2840474067
 20
42.4860307855
 10
62.2831480502
 20
42.4555861267
 10
62.2822939237
 20
42.421130108
 10
62.2814904772
 20
42.3828826318
 10
62.2807428239
 20
42.3410872657
 10
62.2800557267
 20
42.2960104843
 10
62.2794335502
 20
42.2479387635
 10
62.278880259
 20
42.1971785456
 10
62.2783993738
 20
42.144053004
 10
62.2779939595
 20
42.0889011143
 10
62.2776665875
 20
42.0320730401
 10
62.2774193423
 20
41.9739305985
 10
62.2772538003
 20
41.9148455963
 10
62.2771710178
 20
41.8552054488
  0
LWPOLYLINE
  5
3BE
100
AcDbEntity
  8
0
100
AcDbPolyline
 62
7
  6
CONTINUOUS
 90
8
 70
0
 10
62.3819085857
 20
6.2875102066
 10
62.3826476973
 20
6.2952229133
 10
62.3831093083
 20
6.2982758707
 10
62.3835492504
 20
6.301438199
 10
62.3838256499
 20
6.3049440608
 10
62.3839052869
 20
6.3064146298
 10
62.3842103721
 20
6.3077150454
 10
62.3850131085
 20
6.308586718
  0
LINE
  5
3BF
100
AcDbEntity
  8
0
100
AcDbLine
 62
9
  6
CONTINUOUS
 10
62.0963802045
 20
43.4
 11
62.038016923
 21
42.810427789
  0
LINE
  5
3C0
100
AcDbEntity
  8
0
100
AcDbLine
 62
9
  6
CONTINUOUS
 10
62.3456605265
 20
43.1469126796
 11
62.2879788467
 21
42.5642258508
  0
LWPOLYLINE
  5
3C1
100
AcDbEntity
  8
0
100
AcDbPolyline
 62
7
  6
CONTINUOUS
 90
15
 70
0
 10
62.4662526054
 20
45.823201297
 10
62.4663623893
 20
45.8238837559
 10
62.4664333531
 20
45.8245722534
 10
62.4664839181
 20
45.8252634492
 10
62.4667099329
 20
45.8291143981
 10
62.4668293212
 20
45.8318866162
 10
62.4669243539
 20
45.8346609229
 10
62.4671227652
 20
45.8417658036
 10
62.4673042758
 20
45.8504071764
 10
62.4674645619
 20
45.8604283812
 10
62.4675989744
 20
45.8715377419
 10
62.4677052104
 20
45.8834772956
 10
62.4677830228
 20
45.8962056513
 10
62.4678302936
 20
45.9094439987
 10
62.467845981
 20
47.35
  0
LINE
  5
3C2
100
AcDbEntity
  8
0
100
AcDbLine
 62
7
  6
CONTINUOUS
 10
62.383971104
 20
45.4107881309
 11
62.4662526054
 21
45.823201297
  0
LWPOLYLINE
  5
3C3
100
AcDbEntity
  8
0
100
AcDbPolyline
 62
7
  6
CONTINUOUS
 90
48
 70
0
 10
37.7185161281
 20
48.5348673386
 10
37.720554354
 20
48.5398242114
 10
37.7227600803
 20
48.5447121893
 10
37.7251259839
 20
48.5495273343
 10
37.7276447416
 20
48.5542657086
 10
37.7303090302
 20
48.5589233743
 10
37.7339750816
 20
48.5648471934
 10
37.737860595
 20
48.5706275156
 10
37.7419518867
 20
48.5762636362
 10
37.7462352728
 20
48.5817548505
 10
37.7508868736
 20
48.5873200297
 10
37.7557197357
 20
48.5927285977
 10
37.7607215568
 20
48.5979819216
 10
37.7658800349
 20
48.6030813681
 10
37.7713832975
 20
48.6082095429
 10
37.7770319622
 20
48.6131765409
 10
37.7828161419
 20
48.6179852478
 10
37.7887259495
 20
48.6226385494
 10
37.794917239
 20
48.6272594797
 10
37.8012230796
 20
48.6317224864
 10
37.8076359077
 20
48.636030565
 10
37.8141481592
 20
48.6401867109
 10
37.8208388104
 20
48.6442447775
 10
37.8276181783
 20
48.6481524898
 10
37.8344807235
 20
48.651912316
 10
37.8414209069
 20
48.6555267241
 10
37.8484029397
 20
48.6589833098
 10
37.8554525021
 20
48.6622997208
 10
37.862565648
 20
48.6654774974
 10
37.869738431
 20
48.6685181798
 10
37.8791545057
 20
48.6722715143
 10
37.888658311
 20
48.6757964989
 10
37.8982432921
 20
48.679094279
 10
37.9074699129
 20
48.6820331675
 10
37.9167599894
 20
48.6847644924
 10
37.9261088768
 20
48.6872869972
 10
37.9349198046
 20
48.6894599972
 10
37.9437748472
 20
48.6914452054
 10
37.9526705449
 20
48.6932393428
 10
37.9609058623
 20
48.6947211213
 10
37.969169864
 20
48.696032865
 10
37.9774596117
 20
48.6971697728
 10
37.9850518551
 20
48.6980510461
 10
37.9926605527
 20
48.6987765514
 10
38.0002831281
 20
48.6993404097
 10
38.0071110966
 20
48.6997026734
 10
38.0139447655
 20
48.6999246245
 10
38.0207807921
 20
48.7
  0
LWPOLYLINE
  5
3C4
100
AcDbEntity
  8
0
100
AcDbPolyline
 62
7
  6
CONTINUOUS
 90
7
 70
0
 10
60.503672668
 20
2.6179119793
 10
60.5058928165
 20
2.6185056384
 10
60.5082660386
 20
2.6185985017
 10
60.513817836
 20
2.6188652688
 10
60.519267755
 20
2.6192794847
 10
60.5279058474
 20
2.6197098742
 10
60.5601499078
 20
2.6206063878
  0
LWPOLYLINE
  5
3C5
100
AcDbEntity
  8
0
100
AcDbPolyline
 62
7
  6
CONTINUOUS
 90
7
 70
0
 10
56.4305826328
 20
2.6281282356
 10
56.4326776549
 20
2.6286756736
 10
56.4349186618
 20
2.6287393619
 10
56.440233597
 20
2.6289600407
 10
56.445446516
 20
2.6293447493
 10
56.4537350869
 20
2.6297356971
 10
56.484687582
 20
2.6305190225
  0
LWPOLYLINE
  5
3C6
100
AcDbEntity
  8
0
100
AcDbPolyline
 62
7
  6
CONTINUOUS
 90
7
 70
0
 10
42.1241067368
 20
2.6281282356
 10
42.1262017588
 20
2.6286756736
 10
42.1284427658
 20
2.6287393619
 10
42.133757701
 20
2.6289600407
 10
42.1389706199
 20
2.6293447493
 10
42.1472591908
 20
2.6297356971
 10
42.178211686
 20
2.6305190225
  0
LINE
  5
3C7
100
AcDbEntity
  8
0
100
AcDbLine
 62
9
  6
CONTINUOUS
 10
62.2753421233
 20
8.3437171893
 11
62.2718452095
 21
8.3429963162
  0
LWPOLYLINE
  5
3C8
100
AcDbEntity
  8
0
100
AcDbPolyline
 62
9
  6
CONTINUOUS
 90
20
 70
0
 10
62.2718452095
 20
8.3429963162
 10
62.2704355478
 20
8.3427156006
 10
62.2690352087
 20
8.3424598115
 10
62.2660126139
 20
8.3420084193
 10
62.2628981388
 20
8.3416452979
 10
62.2597528179
 20
8.34133412
 10
62.2534314534
 20
8.3407633249
 10
62.2471542068
 20
8.3402577765
 10
62.2392982064
 20
8.3397150793
 10
62.2314190397
 20
8.3392461303
 10
62.2220935622
 20
8.338752783
 10
62.2127717098
 20
8.3383136081
 10
62.2021269487
 20
8.337868461
 10
62.19147814
 20
8.3374735083
 10
62.1678419899
 20
8.3367378112
 10
62.142200326
 20
8.3361170083
 10
62.1149188145
 20
8.3356199527
 10
62.0863865072
 20
8.3352537327
 10
62.0570102925
 20
8.3350235708
 10
62.027209094
 20
8.3349327493
  0
LWPOLYLINE
  5
3C9
100
AcDbEntity
  8
0
100
AcDbPolyline
 62
9
  6
CONTINUOUS
 90
20
 70
0
 10
62.2718452164
 20
41.8570036844
 10
62.2704355562
 20
41.8572843999
 10
62.2690352187
 20
41.8575401889
 10
62.2660126256
 20
41.8579915812
 10
62.2628981514
 20
41.8583547027
 10
62.2597528313
 20
41.8586658806
 10
62.2534314678
 20
41.8592366759
 10
62.2471542227
 20
41.8597422244
 10
62.2392982231
 20
41.8602849218
 10
62.2314190569
 20
41.8607538708
 10
62.2220935795
 20
41.8612472183
 10
62.2127717274
 20
41.8616863932
 10
62.202126966
 20
41.8621315404
 10
62.191478157
 20
41.8625264933
 10
62.1678420055
 20
41.8632621906
 10
62.1422003394
 20
41.8638829937
 10
62.1149188252
 20
41.8643800494
 10
62.0863865145
 20
41.8647462696
 10
62.0570102963
 20
41.8649764315
 10
62.027209094
 20
41.8650672531
  0
LWPOLYLINE
  5
3CA
100
AcDbEntity
  8
0
100
AcDbPolyline
 62
7
  6
CONTINUOUS
 90
5
 70
0
 10
62.460362852
 20
6.352446577
 10
62.4608858129
 20
6.3560149376
 10
62.4612924199
 20
6.359973058
 10
62.4615364387
 20
6.3640855875
 10
62.4617122023
 20
6.3682467529
  0
LWPOLYLINE
  5
3CB
100
AcDbEntity
  8
0
100
AcDbPolyline
 62
7
  6
CONTINUOUS
 90
48
 70
0
 10
39.6171758339
 20
1.6651326615
 10
39.6151376079
 20
1.6601757886
 10
39.6129318816
 20
1.6552878107
 10
39.610565978
 20
1.6504726657
 10
39.6080472203
 20
1.6457342914
 10
39.6053829317
 20
1.6410766257
 10
39.6017168803
 20
1.6351528066
 10
39.597831367
 20
1.6293724844
 10
39.5937400753
 20
1.6237363638
 10
39.5894566892
 20
1.6182451495
 10
39.5848050884
 20
1.6126799704
 10
39.5799722263
 20
1.6072714023
 10
39.5749704052
 20
1.6020180785
 10
39.5698119271
 20
1.596918632
 10
39.5643086645
 20
1.5917904572
 10
39.5586599998
 20
1.5868234592
 10
39.5528758201
 20
1.5820147523
 10
39.5469660125
 20
1.5773614507
 10
39.540774723
 20
1.5727405204
 10
39.5344688824
 20
1.5682775137
 10
39.5280560543
 20
1.5639694351
 10
39.5215438028
 20
1.5598132892
 10
39.5148531516
 20
1.5557552226
 10
39.5080737837
 20
1.5518475103
 10
39.5012112385
 20
1.5480876841
 10
39.4942710551
 20
1.544473276
 10
39.4872890223
 20
1.5410166902
 10
39.4802394599
 20
1.5377002792
 10
39.473126314
 20
1.5345225026
 10
39.465953531
 20
1.5314818202
 10
39.4565374563
 20
1.5277284858
 10
39.447033651
 20
1.5242035011
 10
39.4374486699
 20
1.5209057211
 10
39.4282220491
 20
1.5179668326
 10
39.4189319726
 20
1.5152355077
 10
39.4095830852
 20
1.5127130028
 10
39.4007721574
 20
1.5105400029
 10
39.3919171148
 20
1.5085547946
 10
39.3830214171
 20
1.5067606572
 10
39.3747860997
 20
1.5052788788
 10
39.366522098
 20
1.5039671351
 10
39.3582323503
 20
1.5028302273
 10
39.3506401068
 20
1.501948954
 10
39.3430314092
 20
1.5012234487
 10
39.3354088338
 20
1.5006595904
 10
39.3285808653
 20
1.5002973266
 10
39.3217471965
 20
1.5000753755
 10
39.3149111699
 20
1.5
  0
LWPOLYLINE
  5
3CC
100
AcDbEntity
  8
0
100
AcDbPolyline
 62
7
  6
CONTINUOUS
 90
8
 70
0
 43
0.3500000006
 10
47.1444130096
 20
61.4500003052
 10
47.2816875916
 20
61.6999958496
 10
47.5562412872
 20
61.9500004578
 10
47.8307949829
 20
61.9500004578
 10
48.1053486786
 20
61.6999958496
 10
48.2426277924
 20
61.4500003052
 10
48.2426277924
 20
60.9500001526
 10
48.1053486786
 20
60.6999955444
  0
LINE
  5
3CD
100
AcDbEntity
  8
0
100
AcDbLine
 62
9
  6
CONTINUOUS
 10
62.027209094
 20
41.8650672531
 11
38.108482868
 21
41.8650672531
  0
LINE
  5
3CE
100
AcDbEntity
  8
0
100
AcDbLine
 62
9
  6
CONTINUOUS
 10
62.038016923
 20
42.810427789
 11
38.097675039
 21
42.810427789
  0
LINE
  5
3CF
100
AcDbEntity
  8
0
100
AcDbLine
 62
7
  6
CONTINUOUS
 10
38.0393117574
 20
43.4
 11
62.0963802045
 21
43.4
  0
LINE
  5
3D0
100
AcDbEntity
  8
0
100
AcDbLine
 62
7
  6
CONTINUOUS
 10
62.3456605265
 20
43.9
 11
37.7900314355
 21
43.9
  0
LINE
  5
3D1
100
AcDbEntity
  8
0
100
AcDbLine
 62
7
  6
CONTINUOUS
 10
4.5
 20
43.9
 11
4.0
 21
43.9
  0
LINE
  5
3D2
100
AcDbEntity
  8
0
100
AcDbLine
 62
7
  6
CONTINUOUS
 10
11.0043632677
 20
43.8543253563
 11
6.754507915
 21
43.8914132821
  0
LWPOLYLINE
  5
3D3
100
AcDbEntity
  8
0
100
AcDbPolyline
 62
7
  6
CONTINUOUS
 90
57
 70
0
 10
62.0963802045
 20
43.4
 10
62.1033198544
 20
43.3999020711
 10
62.1102561635
 20
43.399608478
 10
62.1171826059
 20
43.3991195108
 10
62.1240926557
 20
43.3984354595
 10
62.1309817743
 20
43.3975564769
 10
62.1378427887
 20
43.3964835669
 10
62.144670525
 20
43.3952176959
 10
62.1514598089
 20
43.3937598302
 10
62.1582101006
 20
43.3921098358
 10
62.1649113516
 20
43.3902701729
 10
62.1715582078
 20
43.3882424662
 10
62.1781453153
 20
43.3860283406
 10
62.1846803878
 20
43.3836245303
 10
62.1911450625
 20
43.3810374433
 10
62.1975343057
 20
43.3782693386
 10
62.2038430836
 20
43.3753224753
 10
62.2100794901
 20
43.3721924137
 10
62.2162252874
 20
43.3688879541
 10
62.2222757278
 20
43.3654119458
 10
62.2282260634
 20
43.3617672379
 10
62.2340914578
 20
43.3579434289
 10
62.2398468986
 20
43.3539560313
 10
62.2454880047
 20
43.3498084449
 10
62.2510103949
 20
43.34550407
 10
62.2564259833
 20
43.3410326036
 10
62.2617137706
 20
43.3364106995
 10
62.2668698021
 20
43.3316422425
 10
62.2718901232
 20
43.3267311173
 10
62.2767909826
 20
43.3216598621
 10
62.2815475111
 20
43.3164529832
 10
62.2861562135
 20
43.3111148037
 10
62.2906135952
 20
43.3056496471
 10
62.2949303095
 20
43.3000430905
 10
62.2990881882
 20
43.2943177429
 10
62.3030842436
 20
43.2884782847
 10
62.306915488
 20
43.2825293965
 10
62.3105938393
 20
43.2764505321
 10
62.314100535
 20
43.2702710477
 10
62.3174331105
 20
43.2639959415
 10
62.3205891008
 20
43.257630212
 10
62.3235747668
 20
43.2511594705
 10
62.3263783952
 20
43.244607795
 10
62.3289980708
 20
43.2379803896
 10
62.3314318785
 20
43.2312824582
 10
62.3336849089
 20
43.2244974169
 10
62.335747588
 20
43.2176521104
 10
62.3376185561
 20
43.2107520158
 10
62.3392964532
 20
43.2038026104
 10
62.3407828378
 20
43.1967950392
 10
62.3420732038
 20
43.1897486953
 10
62.3431667561
 20
43.1826688184
 10
62.3440626999
 20
43.1755606484
 10
62.344761403
 20
43.1684168878
 10
62.3452607623
 20
43.1612565802
 10
62.345560547
 20
43.1540863145
 10
62.3456605265
 20
43.1469126796
  0
LINE
  5
3D4
100
AcDbEntity
  8
0
100
AcDbLine
 62
9
  6
CONTINUOUS
 10
0.5762386726
 20
41.8552054488
 11
0.3307963603
 21
41.8650672531
  0
LWPOLYLINE
  5
3D5
100
AcDbEntity
  8
0
100
AcDbPolyline
 62
7
  6
CONTINUOUS
 90
7
 70
0
 10
59.5726902397
 20
47.5542042255
 10
59.5672624779
 20
47.5544312552
 10
59.5638624679
 20
47.5546678681
 10
59.5603899332
 20
47.5547644563
 10
59.5594412718
 20
47.5547531499
 10
59.558516076
 20
47.5548272913
 10
59.5576510363
 20
47.5551008921
  0
LWPOLYLINE
  5
3D6
100
AcDbEntity
  8
0
100
AcDbPolyline
 62
7
  6
CONTINUOUS
 90
7
 70
0
 10
39.8694860627
 20
47.554209051
 10
39.8640596549
 20
47.5544389102
 10
39.8606723682
 20
47.5546798247
 10
39.8572074016
 20
47.5547724956
 10
39.8562658866
 20
47.5547580503
 10
39.8553491152
 20
47.5548310891
 10
39.8544957868
 20
47.5551087253
  0
LWPOLYLINE
  5
3D7
100
AcDbEntity
  8
0
100
AcDbPolyline
 62
7
  6
CONTINUOUS
 90
6
 70
0
 10
42.1472591908
 20
47.570264303
 10
42.1389706199
 20
47.5706552508
 10
42.133757701
 20
47.5710399594
 10
42.1284427658
 20
47.5712606382
 10
42.1262017588
 20
47.5713243264
 10
42.1241067368
 20
47.5718717645
  0
LWPOLYLINE
  5
3D8
100
AcDbEntity
  8
0
100
AcDbPolyline
 62
7
  6
CONTINUOUS
 90
6
 70
0
 10
56.4537350869
 20
47.570264303
 10
56.445446516
 20
47.5706552508
 10
56.440233597
 20
47.5710399594
 10
56.4349186618
 20
47.5712606382
 10
56.4326776549
 20
47.5713243264
 10
56.4305826328
 20
47.5718717645
  0
LWPOLYLINE
  5
3D9
100
AcDbEntity
  8
0
100
AcDbPolyline
 62
7
  6
CONTINUOUS
 90
6
 70
0
 10
60.5279058474
 20
47.5802901258
 10
60.519267755
 20
47.5807205154
 10
60.513817836
 20
47.5811347312
 10
60.5082660386
 20
47.5814014984
 10
60.5058928165
 20
47.5814943617
 10
60.503672668
 20
47.5820880208
  0
LWPOLYLINE
  5
3DA
100
AcDbEntity
  8
0
100
AcDbPolyline
 62
7
  6
CONTINUOUS
 90
48
 70
0
 10
60.5185161281
 20
48.5348673386
 10
60.520554354
 20
48.5398242114
 10
60.5227600803
 20
48.5447121893
 10
60.5251259839
 20
48.5495273343
 10
60.5276447416
 20
48.5542657086
 10
60.5303090302
 20
48.5589233743
 10
60.5339750816
 20
48.5648471934
 10
60.537860595
 20
48.5706275156
 10
60.5419518867
 20
48.5762636362
 10
60.5462352728
 20
48.5817548505
 10
60.5508868736
 20
48.5873200297
 10
60.5557197357
 20
48.5927285977
 10
60.5607215568
 20
48.5979819216
 10
60.5658800349
 20
48.6030813681
 10
60.5713832975
 20
48.6082095429
 10
60.5770319622
 20
48.6131765409
 10
60.5828161419
 20
48.6179852478
 10
60.5887259495
 20
48.6226385494
 10
60.594917239
 20
48.6272594797
 10
60.6012230796
 20
48.6317224864
 10
60.6076359077
 20
48.636030565
 10
60.6141481592
 20
48.6401867109
 10
60.6208388104
 20
48.6442447775
 10
60.6276181783
 20
48.6481524898
 10
60.6344807235
 20
48.651912316
 10
60.6414209069
 20
48.6555267241
 10
60.6484029397
 20
48.6589833098
 10
60.6554525021
 20
48.6622997208
 10
60.662565648
 20
48.6654774974
 10
60.669738431
 20
48.6685181798
 10
60.6791545057
 20
48.6722715143
 10
60.688658311
 20
48.6757964989
 10
60.6982432921
 20
48.679094279
 10
60.7074699129
 20
48.6820331675
 10
60.7167599894
 20
48.6847644924
 10
60.7261088768
 20
48.6872869972
 10
60.7349198046
 20
48.6894599972
 10
60.7437748472
 20
48.6914452054
 10
60.7526705449
 20
48.6932393428
 10
60.7609058623
 20
48.6947211213
 10
60.769169864
 20
48.696032865
 10
60.7774596117
 20
48.6971697728
 10
60.7850518551
 20
48.6980510461
 10
60.7926605527
 20
48.6987765514
 10
60.8002831281
 20
48.6993404097
 10
60.8071110966
 20
48.6997026734
 10
60.8139447655
 20
48.6999246245
 10
60.8207807921
 20
48.7
  0
LWPOLYLINE
  5
3DB
100
AcDbEntity
  8
0
100
AcDbPolyline
 62
9
  6
CONTINUOUS
 90
6
 70
0
 10
37.8585209442
 20
41.8552054488
 10
37.8587470579
 20
41.8555529737
 10
37.8590634358
 20
41.8558182728
 10
37.8594496462
 20
41.8560175457
 10
37.8598852571
 20
41.8561669918
 10
37.8603498368
 20
41.8562828108
  0
LWPOLYLINE
  5
3DC
100
AcDbEntity
  8
0
100
AcDbPolyline
 62
7
  6
CONTINUOUS
 90
26
 70
0
 10
39.5755420541
 20
47.5793936123
 10
39.54593094
 20
47.578756381
 10
39.5104679953
 20
47.5781425435
 10
39.4693663356
 20
47.5775558045
 10
39.4229351916
 20
47.5770005622
 10
39.3714387042
 20
47.5764799823
 10
39.3152735346
 20
47.5759980744
 10
39.254756062
 20
47.5755575545
 10
39.1903497878
 20
47.5751618031
 10
39.1224252174
 20
47.5748130962
 10
39.0514918356
 20
47.5745140579
 10
38.9779713036
 20
47.5742664645
 10
38.9024001163
 20
47.5740721309
 10
38.8252451873
 20
47.5739322551
 10
38.7470499762
 20
47.5738478305
 10
38.6683203001
 20
47.5738193977
 10
38.5895861245
 20
47.5738471556
 10
38.5113827157
 20
47.573930908
 10
38.434210796
 20
47.5740701242
 10
38.3586188689
 20
47.5742638064
 10
38.2850693605
 20
47.5745107729
 10
38.2141032412
 20
47.5748091989
 10
38.1461384971
 20
47.5751573279
 10
38.081688376
 20
47.5755525225
 10
38.0211206199
 20
47.5759925285
 10
37.9649016644
 20
47.5764739509
  0
LWPOLYLINE
  5
3DD
100
AcDbEntity
  8
0
100
AcDbPolyline
 62
7
  6
CONTINUOUS
 90
29
 70
0
 10
57.957480276
 20
47.5694809776
 10
57.929071295
 20
47.5689211584
 10
57.895100201
 20
47.5683857048
 10
57.8558050254
 20
47.5678783914
 10
57.8115391882
 20
47.5674037619
 10
57.7625906789
 20
47.5669649199
 10
57.7094189373
 20
47.5665659795
 10
57.6523544883
 20
47.5662094306
 10
57.5919451853
 20
47.5658986974
 10
57.5285573607
 20
47.565635672
 10
57.4628081501
 20
47.5654229171
 10
57.3950887947
 20
47.5652617053
 10
57.3260668826
 20
47.5651536265
 10
57.2561460689
 20
47.565099317
 10
57.1860217891
 20
47.565099317
 10
57.1161009754
 20
47.5651536265
 10
57.0470790633
 20
47.5652617053
 10
56.9793597079
 20
47.5654229171
 10
56.9136104973
 20
47.565635672
 10
56.8502226727
 20
47.5658986974
 10
56.7898133697
 20
47.5662094306
 10
56.7327489207
 20
47.5665659795
 10
56.6795771792
 20
47.5669649199
 10
56.6306286699
 20
47.5674037619
 10
56.5863628326
 20
47.5678783914
 10
56.547067657
 20
47.5683857048
 10
56.513096563
 20
47.5689211584
 10
56.484687582
 20
47.5694809776
 10
56.4537350869
 20
47.570264303
  0
LWPOLYLINE
  5
3DE
100
AcDbEntity
  8
0
100
AcDbPolyline
 62
7
  6
CONTINUOUS
 90
29
 70
0
 10
43.6510043799
 20
47.5694809776
 10
43.6225953989
 20
47.5689211584
 10
43.588624305
 20
47.5683857048
 10
43.5493291294
 20
47.5678783914
 10
43.5050632921
 20
47.5674037619
 10
43.4561147828
 20
47.5669649199
 10
43.4029430413
 20
47.5665659795
 10
43.3458785923
 20
47.5662094306
 10
43.2854692893
 20
47.5658986974
 10
43.2220814647
 20
47.565635672
 10
43.1563322541
 20
47.5654229171
 10
43.0886128987
 20
47.5652617053
 10
43.0195909866
 20
47.5651536265
 10
42.9496701728
 20
47.565099317
 10
42.8795458931
 20
47.565099317
 10
42.8096250793
 20
47.5651536265
 10
42.7406031672
 20
47.5652617053
 10
42.6728838118
 20
47.5654229171
 10
42.6071346012
 20
47.565635672
 10
42.5437467767
 20
47.5658986974
 10
42.4833374737
 20
47.5662094306
 10
42.4262730247
 20
47.5665659795
 10
42.3731012831
 20
47.5669649199
 10
42.3241527738
 20
47.5674037619
 10
42.2798869366
 20
47.5678783914
 10
42.2405917609
 20
47.5683857048
 10
42.206620667
 20
47.5689211584
 10
42.178211686
 20
47.5694809776
 10
42.1472591908
 20
47.570264303
  0
LINE
  5
3DF
100
AcDbEntity
  8
0
100
AcDbLine
 62
9
  6
CONTINUOUS
 10
57.9832288912
 20
48.3213458689
 11
58.0115852252
 21
48.3218717645
  0
LINE
  5
3E0
100
AcDbEntity
  8
0
100
AcDbLine
 62
9
  6
CONTINUOUS
 10
43.6767529952
 20
48.3213458689
 11
43.7051093291
 21
48.3218717645
  0
LWPOLYLINE
  5
3E1
100
AcDbEntity
  8
0
100
AcDbPolyline
 62
7
  6
CONTINUOUS
 90
23
 70
0
 10
60.2459821713
 20
47.5538022658
 10
60.2273947778
 20
47.5535044896
 10
60.2052834215
 20
47.5532260842
 10
60.1799841889
 20
47.5529708208
 10
60.1515789304
 20
47.5527395816
 10
60.1204926898
 20
47.5525361691
 10
60.0872422675
 20
47.5523636783
 10
60.051957511
 20
47.552222708
 10
60.0150909512
 20
47.5521153528
 10
59.9772812211
 20
47.5520433226
 10
59.9387646481
 20
47.5520069005
 10
59.8999149466
 20
47.55200666
 10
59.8614055309
 20
47.552042598
 10
59.8236189016
 20
47.5521141088
 10
59.7867814606
 20
47.5522209011
 10
59.7515270953
 20
47.5523612747
 10
59.7183125306
 20
47.5525331071
 10
59.6872617288
 20
47.5527358094
 10
59.6588843665
 20
47.5529663371
 10
59.6336070834
 20
47.5532208857
 10
59.6115110236
 20
47.5534985773
 10
59.5929274266
 20
47.5537957227
 10
59.5726902397
 20
47.5542042255
  0
LWPOLYLINE
  5
3E2
100
AcDbEntity
  8
0
100
AcDbPolyline
 62
7
  6
CONTINUOUS
 90
23
 70
0
 10
40.5427781887
 20
47.553795972
 10
40.5242246186
 20
47.5534991945
 10
40.5020837709
 20
47.5532208733
 10
40.4767432197
 20
47.552965755
 10
40.4485044208
 20
47.5527363504
 10
40.4174385004
 20
47.5525334512
 10
40.3840503902
 20
47.5523607527
 10
40.348919216
 20
47.5522209309
 10
40.3122002326
 20
47.5521144125
 10
40.2742253582
 20
47.5520425119
 10
40.2356519224
 20
47.5520066023
 10
40.1970460848
 20
47.5520068443
 10
40.1584615826
 20
47.5520432504
 10
40.1204670748
 20
47.5521156746
 10
40.0837228322
 20
47.552222748
 10
40.0485576542
 20
47.5523631845
 10
40.0151356628
 20
47.5525365406
 10
39.9840371817
 20
47.5527401359
 10
39.955770532
 20
47.5529702521
 10
39.930407745
 20
47.5532260932
 10
39.9082537249
 20
47.553505105
 10
39.8896963759
 20
47.5538025113
 10
39.8694860627
 20
47.554209051
  0
LWPOLYLINE
  5
3E3
100
AcDbEntity
  8
0
100
AcDbPolyline
 62
9
  6
CONTINUOUS
 90
57
 70
0
 10
38.0444332837
 20
47.5367111697
 10
38.0374256736
 20
47.5366117223
 10
38.0304214328
 20
47.5363157235
 10
38.0234270788
 20
47.5358234863
 10
38.0164491297
 20
47.5351353241
 10
38.0094937432
 20
47.5342516333
 10
38.0025664501
 20
47.5331732511
 10
37.9956724205
 20
47.5319011058
 10
37.9888168244
 20
47.5304361254
 10
37.9820047238
 20
47.528779302
 10
37.9752416024
 20
47.5269320952
 10
37.9685328342
 20
47.5248960365
 10
37.9618837929
 20
47.5226726573
 10
37.9552996636
 20
47.5202635331
 10
37.9487857149
 20
47.5176707272
 10
37.9423470241
 20
47.5148963548
 10
37.9359886681
 20
47.5119425311
 10
37.9297155547
 20
47.5088113977
 10
37.9235326894
 20
47.505505593
 10
37.9174449047
 20
47.5020277891
 10
37.9114570331
 20
47.4983806582
 10
37.905573741
 20
47.4945668858
 10
37.8997996951
 20
47.4905896474
 10
37.8941393918
 20
47.4864521383
 10
37.8885973277
 20
47.4821575539
 10
37.883177848
 20
47.4777090963
 10
37.8778852203
 20
47.4731104317
 10
37.8727235569
 20
47.4683652382
 10
37.8676969702
 20
47.4634771937
 10
37.8628094381
 20
47.4584499841
 10
37.8580647733
 20
47.4532877133
 10
37.8534666503
 20
47.4479944964
 10
37.849018744
 20
47.4425744485
 10
37.8447246116
 20
47.4370317002
 10
37.8405875647
 20
47.4313707323
 10
37.8366107946
 20
47.4255960433
 10
37.8327974929
 20
47.4197121315
 10
37.8291507492
 20
47.4137235262
 10
37.8256733351
 20
47.4076350292
 10
37.822367919
 20
47.4014514738
 10
37.8192371691
 20
47.3951776938
 10
37.816283663
 20
47.3888185672
 10
37.813509603
 20
47.3823791264
 10
37.8109171009
 20
47.3758644485
 10
37.8085082687
 20
47.3692796106
 10
37.8062851322
 20
47.3626297747
 10
37.804249304
 20
47.3559202293
 10
37.8024023128
 20
47.3491563475
 10
37.8007456875
 20
47.3423435022
 10
37.7992808697
 20
47.3354870998
 10
37.7980088692
 20
47.3285922762
 10
37.7969306123
 20
47.3216642001
 10
37.7960470255
 20
47.3147080401
 10
37.7953589411
 20
47.3077292855
 10
37.7948667602
 20
47.3007341317
 10
37.7945707957
 20
47.2937290944
 10
37.7944713599
 20
47.286720689
  0
LINE
  5
3E4
100
AcDbEntity
  8
0
100
AcDbLine
 62
9
  6
CONTINUOUS
 10
57.9406675614
 20
48.3207010985
 11
57.9832288912
 21
48.3213458689
  0
LINE
  5
3E5
100
AcDbEntity
  8
0
100
AcDbLine
 62
9
  6
CONTINUOUS
 10
43.6341916653
 20
48.3207010985
 11
43.6767529952
 21
48.3213458689
  0
LINE
  5
3E6
100
AcDbEntity
  8
0
100
AcDbLine
 62
9
  6
CONTINUOUS
 10
57.8812773554
 20
48.3199854379
 11
57.9406675614
 21
48.3207010985
  0
LINE
  5
3E7
100
AcDbEntity
  8
0
100
AcDbLine
 62
9
  6
CONTINUOUS
 10
43.5748014593
 20
48.3199854379
 11
43.6341916653
 21
48.3207010985
  0
LINE
  5
3E8
100
AcDbEntity
  8
0
100
AcDbLine
 62
7
  6
CONTINUOUS
 10
20.5
 20
45.35
 11
6.2604163781
 21
45.2257330364
  0
LINE
  5
3E9
100
AcDbEntity
  8
0
100
AcDbLine
 62
7
  6
CONTINUOUS
 10
20.4788482993
 20
46.0783572221
 11
11.5
 21
46.0
  0
LINE
  5
3EA
100
AcDbEntity
  8
0
100
AcDbLine
 62
9
  6
CONTINUOUS
 10
4.2456368984
 20
47.286720689
 11
9.4474904758
 21
47.3321165774
  0
LINE
  5
3EB
100
AcDbEntity
  8
0
100
AcDbLine
 62
7
  6
CONTINUOUS
 10
4.2478183661
 20
47.5367111697
 11
8.8041817858
 21
47.5764739509
  0
LINE
  5
3EC
100
AcDbEntity
  8
0
100
AcDbLine
 62
7
  6
CONTINUOUS
 10
11.0734349896
 20
47.5962774236
 11
19.7677341029
 21
47.6721514225
  0
LINE
  5
3ED
100
AcDbEntity
  8
0
100
AcDbLine
 62
7
  6
CONTINUOUS
 10
7.7478183587
 20
48.3172552069
 11
8.5
 21
48.3238193967
  0
LINE
  5
3EE
100
AcDbEntity
  8
0
100
AcDbLine
 62
7
  6
CONTINUOUS
 10
9.7937399586
 20
48.3351096942
 11
17.9506671649
 21
48.4062941195
  0
LWPOLYLINE
  5
3EF
100
AcDbEntity
  8
0
100
AcDbPolyline
 62
7
  6
CONTINUOUS
 90
27
 70
0
 10
62.1707902976
 20
47.5764739509
 10
62.1145713421
 20
47.5759925285
 10
62.0540035859
 20
47.5755525225
 10
61.9895534648
 20
47.5751573279
 10
61.9215887208
 20
47.5748091989
 10
61.8506226014
 20
47.5745107729
 10
61.777073093
 20
47.5742638064
 10
61.7014811659
 20
47.5740701242
 10
61.6243092462
 20
47.573930908
 10
61.5461058374
 20
47.5738471556
 10
61.4673716619
 20
47.5738193977
 10
61.3886419857
 20
47.5738478305
 10
61.3104467747
 20
47.5739322551
 10
61.2332918457
 20
47.5740721309
 10
61.1577206584
 20
47.5742664645
 10
61.0842001263
 20
47.5745140579
 10
61.0132667446
 20
47.5748130962
 10
60.9453421742
 20
47.5751618031
 10
60.8809359
 20
47.5755575545
 10
60.8204184273
 20
47.5759980744
 10
60.7642532577
 20
47.5764799823
 10
60.7127567704
 20
47.5770005622
 10
60.6663256264
 20
47.5775558045
 10
60.6252239666
 20
47.5781425435
 10
60.5897610219
 20
47.578756381
 10
60.5601499078
 20
47.5793936123
 10
60.5279058474
 20
47.5802901258
  0
LINE
  5
3F0
100
AcDbEntity
  8
0
100
AcDbLine
 62
9
  6
CONTINUOUS
 10
57.8033738471
 20
48.3192559601
 11
57.8812773554
 21
48.3199854379
  0
LINE
  5
3F1
100
AcDbEntity
  8
0
100
AcDbLine
 62
9
  6
CONTINUOUS
 10
43.4968979511
 20
48.3192559601
 11
43.5748014593
 21
48.3199854379
  0
LWPOLYLINE
  5
3F2
100
AcDbEntity
  8
0
100
AcDbPolyline
 62
7
  6
CONTINUOUS
 90
47
 70
0
 10
54.367845981
 20
49.0584094599
 10
54.3776052512
 20
49.0584827502
 10
54.3873631741
 20
49.0587038619
 10
54.3971170165
 20
49.0590746564
 10
54.4068640454
 20
49.0595969949
 10
54.4162641432
 20
49.0602474104
 10
54.4256525057
 20
49.0610465387
 10
54.4350262935
 20
49.0620001373
 10
54.4443826675
 20
49.0631139635
 10
54.4513307132
 20
49.0640505507
 10
54.4582650099
 20
49.0650844943
 10
54.4651830197
 20
49.0662212691
 10
54.4720822049
 20
49.0674663497
 10
54.4789600276
 20
49.0688252107
 10
54.485075718
 20
49.0701387929
 10
54.4911683394
 20
49.0715557431
 10
54.4972338466
 20
49.0730845067
 10
54.5032681943
 20
49.0747335292
 10
54.5092673372
 20
49.0765112563
 10
54.5134926867
 20
49.07785382
 10
54.5176930816
 20
49.0792731386
 10
54.5218632612
 20
49.0807771505
 10
54.5259979651
 20
49.0823737941
 10
54.5300919327
 20
49.0840710078
 10
54.5341399034
 20
49.08587673
 10
54.5373535844
 20
49.0874121015
 10
54.540525507
 20
49.0890324853
 10
54.5436469849
 20
49.0907477603
 10
54.5467093318
 20
49.0925678055
 10
54.5497038614
 20
49.0945024997
 10
54.5526218875
 20
49.096561722
 10
54.5542483368
 20
49.0977973208
 10
54.5558368743
 20
49.0990824566
 10
54.557377341
 20
49.1004228807
 10
54.5588595775
 20
49.1018243441
 10
54.5602734246
 20
49.103292598
 10
54.5616087231
 20
49.1048333934
 10
54.5628553136
 20
49.1064524817
 10
54.5640030371
 20
49.1081556138
 10
54.5648211275
 20
49.109542578
 10
54.5655629543
 20
49.1109773098
 10
54.5662184031
 20
49.1124530956
 10
54.5667773599
 20
49.1139632218
 10
54.5672297103
 20
49.1155009749
 10
54.5675653401
 20
49.1170596411
 10
54.5677741351
 20
49.1186325069
 10
54.567845981
 20
49.1202128588
  0
LINE
  5
3F3
100
AcDbEntity
  8
0
100
AcDbLine
 62
9
  6
CONTINUOUS
 10
57.6931562191
 20
48.318492167
 11
57.8033738471
 21
48.3192559601
  0
LINE
  5
3F4
100
AcDbEntity
  8
0
100
AcDbLine
 62
9
  6
CONTINUOUS
 10
43.386680323
 20
48.318492167
 11
43.4968979511
 21
48.3192559601
  0
LINE
  5
3F5
100
AcDbEntity
  8
0
100
AcDbLine
 62
9
  6
CONTINUOUS
 10
57.5515659022
 20
48.3178302467
 11
57.6931562191
 21
48.318492167
  0
LINE
  5
3F6
100
AcDbEntity
  8
0
100
AcDbLine
 62
9
  6
CONTINUOUS
 10
43.2450900061
 20
48.3178302467
 11
43.386680323
 21
48.318492167
  0
LINE
  5
3F7
100
AcDbEntity
  8
0
100
AcDbLine
 62
9
  6
CONTINUOUS
 10
57.4100595339
 20
48.3174373465
 11
57.5515659022
 21
48.3178302467
  0
LINE
  5
3F8
100
AcDbEntity
  8
0
100
AcDbLine
 62
9
  6
CONTINUOUS
 10
43.1035836378
 20
48.3174373465
 11
43.2450900061
 21
48.3178302467
  0
LINE
  5
3F9
100
AcDbEntity
  8
0
100
AcDbLine
 62
9
  6
CONTINUOUS
 10
57.3118471882
 20
48.3172967396
 11
57.4100595339
 21
48.3174373465
  0
LINE
  5
3FA
100
AcDbEntity
  8
0
100
AcDbLine
 62
9
  6
CONTINUOUS
 10
43.0053712921
 20
48.3172967396
 11
43.1035836378
 21
48.3174373465
  0
LINE
  5
3FB
100
AcDbEntity
  8
0
100
AcDbLine
 62
9
  6
CONTINUOUS
 10
20.5
 20
44.367326988
 11
20.2026179606
 21
44.367326988
  0
LINE
  5
3FC
100
AcDbEntity
  8
0
100
AcDbLine
 62
9
  6
CONTINUOUS
 10
62.341220602
 20
47.286720689
 11
37.7944713599
 21
47.286720689
  0
LINE
  5
3FD
100
AcDbEntity
  8
0
100
AcDbLine
 62
9
  6
CONTINUOUS
 10
4.2456368984
 20
47.286720689
 11
4.0
 21
47.286720689
  0
LINE
  5
3FE
100
AcDbEntity
  8
0
100
AcDbLine
 62
9
  6
CONTINUOUS
 10
62.0912586782
 20
47.5367111697
 11
38.0444332837
 21
47.5367111697
  0
LINE
  5
3FF
100
AcDbEntity
  8
0
100
AcDbLine
 62
7
  6
CONTINUOUS
 10
53.967845981
 20
47.5808008909
 11
46.167845981
 21
47.5808008909
  0
LINE
  5
400
100
AcDbEntity
  8
0
100
AcDbLine
 62
7
  6
CONTINUOUS
 10
39.660400261
 20
47.5962774236
 11
39.7750313534
 21
47.5962774236
  0
LINE
  5
401
100
AcDbEntity
  8
0
100
AcDbLine
 62
7
  6
CONTINUOUS
 10
60.3606606086
 20
47.5962774236
 11
60.4752917009
 21
47.5962774236
  0
LINE
  5
402
100
AcDbEntity
  8
0
100
AcDbLine
 62
3
  6
CONTINUOUS
 10
54.0394106421
 20
47.6507488486
 11
54.017845981
 21
47.6507488486
  0
LINE
  5
403
100
AcDbEntity
  8
0
100
AcDbLine
 62
3
  6
CONTINUOUS
 10
46.0962813198
 20
47.6507488486
 11
46.117845981
 21
47.6507488486
  0
LINE
  5
404
100
AcDbEntity
  8
0
100
AcDbLine
 62
7
  6
CONTINUOUS
 10
43.867845981
 20
47.6532338936
 11
44.067845981
 21
47.6532338936
  0
LINE
  5
405
100
AcDbEntity
  8
0
100
AcDbLine
 62
7
  6
CONTINUOUS
 10
56.067845981
 20
47.6532338936
 11
56.267845981
 21
47.6532338936
  0
LINE
  5
406
100
AcDbEntity
  8
0
100
AcDbLine
 62
7
  6
CONTINUOUS
 10
40.8121598166
 20
47.6721514225
 11
41.9235321454
 21
47.6721514225
  0
LINE
  5
407
100
AcDbEntity
  8
0
100
AcDbLine
 62
7
  6
CONTINUOUS
 10
58.2121598166
 20
47.6721514225
 11
59.3235321454
 21
47.6721514225
  0
LINE
  5
408
100
AcDbEntity
  8
0
100
AcDbLine
 62
7
  6
CONTINUOUS
 10
43.867845981
 20
48.4032338936
 11
44.067845981
 21
48.4032338936
  0
LINE
  5
409
100
AcDbEntity
  8
0
100
AcDbLine
 62
7
  6
CONTINUOUS
 10
56.067845981
 20
48.4032338936
 11
56.267845981
 21
48.4032338936
  0
LINE
  5
40A
100
AcDbEntity
  8
0
100
AcDbLine
 62
7
  6
CONTINUOUS
 10
41.9552491668
 20
48.4062941195
 11
44.067845981
 21
48.4062941195
  0
LINE
  5
40B
100
AcDbEntity
  8
0
100
AcDbLine
 62
7
  6
CONTINUOUS
 10
56.067845981
 20
48.4062941195
 11
58.1804427952
 21
48.4062941195
  0
LINE
  5
40C
100
AcDbEntity
  8
0
100
AcDbLine
 62
9
  6
CONTINUOUS
 10
62.4345896157
 20
48.45
 11
60.5011023462
 21
48.45
  0
LINE
  5
40D
100
AcDbEntity
  8
0
100
AcDbLine
 62
9
  6
CONTINUOUS
 10
39.6345896157
 20
48.45
 11
37.7011023462
 21
48.45
  0
LINE
  5
40E
100
AcDbEntity
  8
0
100
AcDbLine
 62
9
  6
CONTINUOUS
 10
9.5947441117
 20
48.45
 11
8.5
 21
48.45
  0
LINE
  5
40F
100
AcDbEntity
  8
0
100
AcDbLine
 62
3
  6
CONTINUOUS
 10
45.767845981
 20
48.6779868534
 11
46.3635162135
 21
48.6779868534
  0
LINE
  5
410
100
AcDbEntity
  8
0
100
AcDbLine
 62
3
  6
CONTINUOUS
 10
53.7721757484
 20
48.6779868534
 11
54.367845981
 21
48.6779868534
  0
LINE
  5
411
100
AcDbEntity
  8
0
100
AcDbLine
 62
7
  6
CONTINUOUS
 10
62.1149111699
 20
48.7
 11
60.8207807921
 21
48.7
  0
LINE
  5
412
100
AcDbEntity
  8
0
100
AcDbLine
 62
7
  6
CONTINUOUS
 10
39.3149111699
 20
48.7
 11
38.0207807921
 21
48.7
  0
LINE
  5
413
100
AcDbEntity
  8
0
100
AcDbLine
 62
7
  6
CONTINUOUS
 10
9.1617314098
 20
48.7
 11
8.75
 21
48.7
  0
LINE
  5
414
100
AcDbEntity
  8
0
100
AcDbLine
 62
9
  6
CONTINUOUS
 10
9.6
 20
49.0174311486
 11
10.0
 21
49.0174311486
  0
LINE
  5
415
100
AcDbEntity
  8
0
100
AcDbLine
 62
7
  6
CONTINUOUS
 10
45.767845981
 20
49.0584094599
 11
46.3257643661
 21
49.0584094599
  0
LINE
  5
416
100
AcDbEntity
  8
0
100
AcDbLine
 62
7
  6
CONTINUOUS
 10
53.8099275959
 20
49.0584094599
 11
54.367845981
 21
49.0584094599
  0
LINE
  5
417
100
AcDbEntity
  8
0
100
AcDbLine
 62
7
  6
CONTINUOUS
 10
56.067845981
 20
49.2
 11
54.0011122158
 21
49.2
  0
LINE
  5
418
100
AcDbEntity
  8
0
100
AcDbLine
 62
7
  6
CONTINUOUS
 10
46.1345797462
 20
49.2
 11
44.067845981
 21
49.2
  0
LINE
  5
419
100
AcDbEntity
  8
0
100
AcDbLine
 62
7
  6
CONTINUOUS
 10
10.0
 20
49.2
 11
9.6
 21
49.2
  0
LINE
  5
41A
100
AcDbEntity
  8
0
100
AcDbLine
 62
9
  6
CONTINUOUS
 10
56.067845981
 20
49.5
 11
44.067845981
 21
49.5
  0
LINE
  5
41B
100
AcDbEntity
  8
0
100
AcDbLine
 62
9
  6
CONTINUOUS
 10
10.0
 20
49.5
 11
9.6
 21
49.5
  0
LINE
  5
41C
100
AcDbEntity
  8
0
100
AcDbLine
 62
3
  6
CONTINUOUS
 10
10.3
 20
49.8
 11
10.814162984
 21
49.8
  0
LINE
  5
41D
100
AcDbEntity
  8
0
100
AcDbLine
 62
7
  6
CONTINUOUS
 10
56.067845981
 20
50.2
 11
44.067845981
 21
50.2
  0
LINE
  5
41E
100
AcDbEntity
  8
0
100
AcDbLine
 62
7
  6
CONTINUOUS
 10
10.3
 20
50.2
 11
10.814162984
 21
50.2
  0
LINE
  5
41F
100
AcDbEntity
  8
0
100
AcDbLine
 62
9
  6
CONTINUOUS
 10
42.8657545167
 20
48.3172672102
 11
43.0053712921
 21
48.3172967396
  0
LINE
  5
420
100
AcDbEntity
  8
0
100
AcDbLine
 62
9
  6
CONTINUOUS
 10
57.1722304128
 20
48.3172672102
 11
57.3118471882
 21
48.3172967396
  0
LINE
  5
421
100
AcDbEntity
  8
0
100
AcDbLine
 62
9
  6
CONTINUOUS
 10
42.6691765925
 20
48.3175656585
 11
42.8657545167
 21
48.3172672102
  0
LINE
  5
422
100
AcDbEntity
  8
0
100
AcDbLine
 62
9
  6
CONTINUOUS
 10
56.9756524886
 20
48.3175656585
 11
57.1722304128
 21
48.3172672102
  0
LINE
  5
423
100
AcDbEntity
  8
0
100
AcDbLine
 62
9
  6
CONTINUOUS
 10
42.498955554
 20
48.3181914722
 11
42.6691765925
 21
48.3175656585
  0
LINE
  5
424
100
AcDbEntity
  8
0
100
AcDbLine
 62
9
  6
CONTINUOUS
 10
56.80543145
 20
48.3181914722
 11
56.9756524886
 21
48.3175656585
  0
LWPOLYLINE
  5
425
100
AcDbEntity
  8
0
100
AcDbPolyline
 62
7
  6
CONTINUOUS
 90
55
 70
0
 10
62.1707902976
 20
47.5764739509
 10
62.1786205815
 20
47.5764292464
 10
62.1864498647
 20
47.5761500533
 10
62.1942697763
 20
47.5756369828
 10
62.2020719452
 20
47.5748906461
 10
62.2098480004
 20
47.5739116543
 10
62.2170802154
 20
47.572787795
 10
62.2242771384
 20
47.5714627434
 10
62.231433561
 20
47.5699377371
 10
62.238544275
 20
47.5682140135
 10
62.245604072
 20
47.5662928103
 10
62.2538487455
 20
47.563777929
 10
62.2620065886
 20
47.5609937537
 10
62.2700686683
 20
47.5579433587
 10
62.2780260516
 20
47.5546298183
 10
62.2854807033
 20
47.5512410769
 10
62.2928256224
 20
47.5476210873
 10
62.3000536316
 20
47.543773326
 10
62.3071575535
 20
47.5397012697
 10
62.3138306563
 20
47.5355992343
 10
62.3203776117
 20
47.5312988518
 10
62.3267923972
 20
47.5268038543
 10
62.3330689906
 20
47.5221179738
 10
62.3389736231
 20
47.5174315292
 10
62.344739632
 20
47.5125756495
 10
62.3503619713
 20
47.5075542473
 10
62.3558355952
 20
47.5023712348
 10
62.3609849916
 20
47.4972067178
 10
62.3659862131
 20
47.491898645
 10
62.3708350089
 20
47.4864510693
 10
62.3755271281
 20
47.4808680436
 10
62.3799335239
 20
47.4753157192
 10
62.3841843277
 20
47.4696434341
 10
62.3882759748
 20
47.4638553578
 10
62.3922049005
 20
47.4579556598
 10
62.3958790276
 20
47.452094376
 10
62.3993918213
 20
47.4461350304
 10
62.4027403265
 20
47.4400819036
 10
62.4059215885
 20
47.4339392764
 10
62.408872714
 20
47.4278399921
 10
62.4116581572
 20
47.4216632997
 10
62.4142755272
 20
47.4154135526
 10
62.4167224325
 20
47.4090951041
 10
62.4189587217
 20
47.4028232302
 10
62.4210262212
 20
47.3964937293
 10
62.4229230724
 20
47.390111117
 10
62.4246474169
 20
47.383679909
 10
62.4261763541
 20
47.3772983464
 10
62.4275345961
 20
47.3708782565
 10
62.4287208171
 20
47.3644239294
 10
62.4297336913
 20
47.357939655
 10
62.4305629742
 20
47.3515079594
 10
62.4312208971
 20
47.3450566154
 10
62.4317066178
 20
47.3385910218
 10
62.432019294
 20
47.3321165774
  0
LINE
  5
426
100
AcDbEntity
  8
0
100
AcDbLine
 62
9
  6
CONTINUOUS
 10
42.373044351
 20
48.3189428024
 11
42.498955554
 21
48.3181914722
  0
LINE
  5
427
100
AcDbEntity
  8
0
100
AcDbLine
 62
9
  6
CONTINUOUS
 10
56.679520247
 20
48.3189428024
 11
56.80543145
 21
48.3181914722
  0
LWPOLYLINE
  5
428
100
AcDbEntity
  8
0
100
AcDbPolyline
 62
3
  6
CONTINUOUS
 90
47
 70
0
 10
46.117845981
 20
47.6507488486
 10
46.1276052512
 20
47.6506755583
 10
46.1373631741
 20
47.6504544466
 10
46.1471170165
 20
47.6500836521
 10
46.1568640454
 20
47.6495613136
 10
46.1662641432
 20
47.648910898
 10
46.1756525057
 20
47.6481117697
 10
46.1850262935
 20
47.6471581712
 10
46.1943826675
 20
47.6460443449
 10
46.2013307132
 20
47.6451077578
 10
46.2082650099
 20
47.6440738141
 10
46.2151830197
 20
47.6429370394
 10
46.2220822049
 20
47.6416919588
 10
46.2289600276
 20
47.6403330978
 10
46.235075718
 20
47.6390195156
 10
46.2411683394
 20
47.6376025654
 10
46.2472338466
 20
47.6360738018
 10
46.2532681943
 20
47.6344247792
 10
46.2592673372
 20
47.6326470521
 10
46.2634926867
 20
47.6313044885
 10
46.2676930816
 20
47.6298851699
 10
46.2718632612
 20
47.628381158
 10
46.2759979651
 20
47.6267845144
 10
46.2800919327
 20
47.6250873006
 10
46.2841399034
 20
47.6232815784
 10
46.2873535844
 20
47.6217462069
 10
46.290525507
 20
47.6201258232
 10
46.2936469849
 20
47.6184105481
 10
46.2967093318
 20
47.6165905029
 10
46.2997038614
 20
47.6146558087
 10
46.3026218875
 20
47.6125965865
 10
46.3042483368
 20
47.6113609877
 10
46.3058368743
 20
47.6100758518
 10
46.307377341
 20
47.6087354278
 10
46.3088595775
 20
47.6073339644
 10
46.3102734246
 20
47.6058657105
 10
46.3116087231
 20
47.604324915
 10
46.3128553136
 20
47.6027058268
 10
46.3140030371
 20
47.6010026946
 10
46.3148211275
 20
47.5996157305
 10
46.3155629543
 20
47.5981809987
 10
46.3162184031
 20
47.5967052128
 10
46.3167773599
 20
47.5951950866
 10
46.3172297103
 20
47.5936573336
 10
46.3175653401
 20
47.5920986674
 10
46.3177741351
 20
47.5905258015
 10
46.317845981
 20
47.5889454497
  0
LWPOLYLINE
  5
429
100
AcDbEntity
  8
0
100
AcDbPolyline
 62
3
  6
CONTINUOUS
 90
47
 70
0
 10
45.767845981
 20
48.6779868534
 10
45.7580867107
 20
48.6780601437
 10
45.7483287879
 20
48.6782812554
 10
45.7385749455
 20
48.6786520499
 10
45.7288279166
 20
48.6791743884
 10
45.7194278188
 20
48.6798248039
 10
45.7100394563
 20
48.6806239322
 10
45.7006656685
 20
48.6815775308
 10
45.6913092945
 20
48.682691357
 10
45.6843612488
 20
48.6836279442
 10
45.6774269521
 20
48.6846618878
 10
45.6705089423
 20
48.6857986625
 10
45.6636097571
 20
48.6870437431
 10
45.6567319344
 20
48.6884026041
 10
45.650616244
 20
48.6897161864
 10
45.6445236226
 20
48.6911331365
 10
45.6384581154
 20
48.6926619001
 10
45.6324237677
 20
48.6943109227
 10
45.6264246247
 20
48.6960886498
 10
45.6221992752
 20
48.6974312135
 10
45.6179988804
 20
48.6988505321
 10
45.6138287007
 20
48.700354544
 10
45.6096939968
 20
48.7019511876
 10
45.6056000292
 20
48.7036484013
 10
45.6015520585
 20
48.7054541235
 10
45.5983383775
 20
48.706989495
 10
45.5951664549
 20
48.7086098788
 10
45.5920449771
 20
48.7103251538
 10
45.5889826302
 20
48.712145199
 10
45.5859881005
 20
48.7140798932
 10
45.5830700745
 20
48.7161391154
 10
45.5814436252
 20
48.7173747142
 10
45.5798550876
 20
48.7186598501
 10
45.5783146209
 20
48.7200002741
 10
45.5768323844
 20
48.7214017375
 10
45.5754185373
 20
48.7228699914
 10
45.5740832389
 20
48.7244107869
 10
45.5728366483
 20
48.7260298751
 10
45.5716889249
 20
48.7277330073
 10
45.5708708344
 20
48.7291199714
 10
45.5701290077
 20
48.7305547032
 10
45.5694735588
 20
48.7320304891
 10
45.5689146021
 20
48.7335406153
 10
45.5684622517
 20
48.7350783683
 10
45.5681266219
 20
48.7366370346
 10
45.5679178269
 20
48.7382099004
 10
45.567845981
 20
48.7397902523
  0
LWPOLYLINE
  5
42A
100
AcDbEntity
  8
0
100
AcDbPolyline
 62
7
  6
CONTINUOUS
 90
31
 70
0
 10
8.8041817858
 20
47.5764739509
 10
8.8152578115
 20
47.576369797
 10
8.8263285109
 20
47.5758860327
 10
8.8373826851
 20
47.5750556534
 10
8.8484091351
 20
47.5739116543
 10
8.8599297256
 20
47.572409165
 10
8.8714067934
 20
47.5706223995
 10
8.8828396013
 20
47.5685755503
 10
8.8942274119
 20
47.5662928103
 10
8.9100137001
 20
47.5627615622
 10
8.925713034
 20
47.55886032
 10
8.9413271915
 20
47.5546298183
 10
8.957463336
 20
47.5499262357
 10
8.973514038
 20
47.5449403268
 10
8.9894838952
 20
47.5397012697
 10
9.0059055855
 20
47.5340509448
 10
9.0222506316
 20
47.5281827549
 10
9.0385238002
 20
47.5221179738
 10
9.0634861609
 20
47.5124262205
 10
9.0883044107
 20
47.5023712348
 10
9.1135627033
 20
47.4917611579
 10
9.138700234
 20
47.4808680436
 10
9.1641967914
 20
47.4695212354
 10
9.189594858
 20
47.4579556598
 10
9.2152739288
 20
47.4460303131
 10
9.2408754005
 20
47.4339392764
 10
9.2666807746
 20
47.4215774392
 10
9.2924280771
 20
47.4090951041
 10
9.3441352066
 20
47.383679909
 10
9.3958698425
 20
47.3579396551
 10
9.4474904758
 20
47.3321165774
  0
LINE
  5
42B
100
AcDbEntity
  8
0
100
AcDbLine
 62
9
  6
CONTINUOUS
 10
42.279715379
 20
48.3197267909
 11
42.373044351
 21
48.3189428024
  0
LINE
  5
42C
100
AcDbEntity
  8
0
100
AcDbLine
 62
9
  6
CONTINUOUS
 10
56.586191275
 20
48.3197267909
 11
56.679520247
 21
48.3189428024
  0
LWPOLYLINE
  5
42D
100
AcDbEntity
  8
0
100
AcDbPolyline
 62
7
  6
CONTINUOUS
 90
48
 70
0
 10
39.3149111699
 20
48.7
 10
39.3217471965
 20
48.6999246245
 10
39.3285808653
 20
48.6997026734
 10
39.3354088338
 20
48.6993404097
 10
39.3430314092
 20
48.6987765514
 10
39.3506401068
 20
48.6980510461
 10
39.3582323503
 20
48.6971697728
 10
39.366522098
 20
48.696032865
 10
39.3747860997
 20
48.6947211213
 10
39.3830214171
 20
48.6932393428
 10
39.3919171148
 20
48.6914452054
 10
39.4007721574
 20
48.6894599972
 10
39.4095830852
 20
48.6872869972
 10
39.4189319726
 20
48.6847644924
 10
39.4282220491
 20
48.6820331675
 10
39.4374486699
 20
48.679094279
 10
39.447033651
 20
48.6757964989
 10
39.4565374563
 20
48.6722715143
 10
39.465953531
 20
48.6685181798
 10
39.473126314
 20
48.6654774974
 10
39.4802394599
 20
48.6622997208
 10
39.4872890223
 20
48.6589833098
 10
39.4942710551
 20
48.6555267241
 10
39.5012112385
 20
48.651912316
 10
39.5080737837
 20
48.6481524898
 10
39.5148531516
 20
48.6442447775
 10
39.5215438028
 20
48.6401867109
 10
39.5280560543
 20
48.636030565
 10
39.5344688824
 20
48.6317224864
 10
39.540774723
 20
48.6272594797
 10
39.5469660125
 20
48.6226385494
 10
39.5528758201
 20
48.6179852478
 10
39.5586599998
 20
48.6131765409
 10
39.5643086645
 20
48.6082095429
 10
39.5698119271
 20
48.6030813681
 10
39.5749704052
 20
48.5979819216
 10
39.5799722263
 20
48.5927285977
 10
39.5848050884
 20
48.5873200297
 10
39.5894566892
 20
48.5817548505
 10
39.5937400753
 20
48.5762636362
 10
39.597831367
 20
48.5706275156
 10
39.6017168803
 20
48.5648471934
 10
39.6053829317
 20
48.5589233743
 10
39.6080472203
 20
48.5542657086
 10
39.610565978
 20
48.5495273343
 10
39.6129318816
 20
48.5447121893
 10
39.6151376079
 20
48.5398242114
 10
39.6171758339
 20
48.5348673386
  0
LWPOLYLINE
  5
42E
100
AcDbEntity
  8
0
100
AcDbPolyline
 62
7
  6
CONTINUOUS
 90
48
 70
0
 10
62.1149111699
 20
48.7
 10
62.1217471965
 20
48.6999246245
 10
62.1285808653
 20
48.6997026734
 10
62.1354088338
 20
48.6993404097
 10
62.1430314092
 20
48.6987765514
 10
62.1506401068
 20
48.6980510461
 10
62.1582323503
 20
48.6971697728
 10
62.166522098
 20
48.696032865
 10
62.1747860997
 20
48.6947211213
 10
62.1830214171
 20
48.6932393428
 10
62.1919171148
 20
48.6914452054
 10
62.2007721574
 20
48.6894599972
 10
62.2095830852
 20
48.6872869972
 10
62.2189319726
 20
48.6847644924
 10
62.2282220491
 20
48.6820331675
 10
62.2374486699
 20
48.679094279
 10
62.247033651
 20
48.6757964989
 10
62.2565374563
 20
48.6722715143
 10
62.265953531
 20
48.6685181798
 10
62.273126314
 20
48.6654774974
 10
62.2802394599
 20
48.6622997208
 10
62.2872890223
 20
48.6589833098
 10
62.2942710551
 20
48.6555267241
 10
62.3012112385
 20
48.651912316
 10
62.3080737837
 20
48.6481524898
 10
62.3148531516
 20
48.6442447775
 10
62.3215438028
 20
48.6401867109
 10
62.3280560543
 20
48.636030565
 10
62.3344688824
 20
48.6317224864
 10
62.340774723
 20
48.6272594797
 10
62.3469660125
 20
48.6226385494
 10
62.3528758201
 20
48.6179852478
 10
62.3586599998
 20
48.6131765409
 10
62.3643086645
 20
48.6082095429
 10
62.3698119271
 20
48.6030813681
 10
62.3749704052
 20
48.5979819216
 10
62.3799722263
 20
48.5927285977
 10
62.3848050884
 20
48.5873200297
 10
62.3894566892
 20
48.5817548505
 10
62.3937400753
 20
48.5762636362
 10
62.397831367
 20
48.5706275156
 10
62.4017168803
 20
48.5648471934
 10
62.4053829317
 20
48.5589233743
 10
62.4080472203
 20
48.5542657086
 10
62.410565978
 20
48.5495273343
 10
62.4129318816
 20
48.5447121893
 10
62.4151376079
 20
48.5398242114
 10
62.4171758339
 20
48.5348673386
  0
LINE
  5
42F
100
AcDbEntity
  8
0
100
AcDbLine
 62
9
  6
CONTINUOUS
 10
42.2180473285
 20
48.320402876
 11
42.279715379
 21
48.3197267909
  0
LINE
  5
430
100
AcDbEntity
  8
0
100
AcDbLine
 62
9
  6
CONTINUOUS
 10
56.5245232246
 20
48.320402876
 11
56.586191275
 21
48.3197267909
  0
LWPOLYLINE
  5
431
100
AcDbEntity
  8
0
100
AcDbPolyline
 62
9
  6
CONTINUOUS
 90
57
 70
0
 10
62.0912586782
 20
47.5367111697
 10
62.0982662883
 20
47.5366117223
 10
62.1052705291
 20
47.5363157235
 10
62.1122648831
 20
47.5358234863
 10
62.1192428323
 20
47.5351353241
 10
62.1261982188
 20
47.5342516333
 10
62.1331255119
 20
47.5331732511
 10
62.1400195414
 20
47.5319011058
 10
62.1468751376
 20
47.5304361254
 10
62.1536872382
 20
47.528779302
 10
62.1604503595
 20
47.5269320952
 10
62.1671591278
 20
47.5248960365
 10
62.173808169
 20
47.5226726573
 10
62.1803922983
 20
47.5202635331
 10
62.186906247
 20
47.5176707272
 10
62.1933449378
 20
47.5148963548
 10
62.1997032938
 20
47.5119425311
 10
62.2059764072
 20
47.5088113977
 10
62.2121592725
 20
47.505505593
 10
62.2182470572
 20
47.5020277891
 10
62.2242349288
 20
47.4983806582
 10
62.2301182209
 20
47.4945668858
 10
62.2358922668
 20
47.4905896474
 10
62.2415525701
 20
47.4864521383
 10
62.2470946342
 20
47.4821575539
 10
62.2525141139
 20
47.4777090963
 10
62.2578067416
 20
47.4731104317
 10
62.262968405
 20
47.4683652382
 10
62.2679949917
 20
47.4634771937
 10
62.2728825238
 20
47.4584499841
 10
62.2776271887
 20
47.4532877133
 10
62.2822253116
 20
47.4479944964
 10
62.286673218
 20
47.4425744485
 10
62.2909673503
 20
47.4370317002
 10
62.2951043973
 20
47.4313707323
 10
62.2990811674
 20
47.4255960433
 10
62.3028944691
 20
47.4197121315
 10
62.3065412127
 20
47.4137235262
 10
62.3100186268
 20
47.4076350292
 10
62.313324043
 20
47.4014514738
 10
62.3164547928
 20
47.3951776938
 10
62.319408299
 20
47.3888185672
 10
62.322182359
 20
47.3823791264
 10
62.324774861
 20
47.3758644485
 10
62.3271836933
 20
47.3692796106
 10
62.3294068298
 20
47.3626297747
 10
62.331442658
 20
47.3559202293
 10
62.3332896491
 20
47.3491563475
 10
62.3349462745
 20
47.3423435022
 10
62.3364110922
 20
47.3354870998
 10
62.3376830927
 20
47.3285922762
 10
62.3387613496
 20
47.3216642001
 10
62.3396449364
 20
47.3147080401
 10
62.3403330209
 20
47.3077292855
 10
62.3408252017
 20
47.3007341317
 10
62.3411211662
 20
47.2937290944
 10
62.341220602
 20
47.286720689
  0
LINE
  5
432
100
AcDbEntity
  8
0
100
AcDbLine
 62
9
  6
CONTINUOUS
 10
42.1731204428
 20
48.3210154114
 11
42.2180473285
 21
48.320402876
  0
LINE
  5
433
100
AcDbEntity
  8
0
100
AcDbLine
 62
9
  6
CONTINUOUS
 10
56.4795963389
 20
48.3210154114
 11
56.5245232246
 21
48.320402876
  0
LWPOLYLINE
  5
434
100
AcDbEntity
  8
0
100
AcDbPolyline
 62
9
  6
CONTINUOUS
 90
3
 70
0
 10
42.1241067368
 20
48.3218717645
 10
42.1331853295
 20
48.3216924524
 10
42.1731204428
 20
48.3210154114
  0
LWPOLYLINE
  5
435
100
AcDbEntity
  8
0
100
AcDbPolyline
 62
9
  6
CONTINUOUS
 90
3
 70
0
 10
56.4305826328
 20
48.3218717645
 10
56.4396612256
 20
48.3216924524
 10
56.4795963389
 20
48.3210154114
  0
LWPOLYLINE
  5
436
100
AcDbEntity
  8
0
100
AcDbPolyline
 62
7
  6
CONTINUOUS
 90
48
 70
0
 10
62.4171758339
 20
1.6651326615
 10
62.4151376079
 20
1.6601757886
 10
62.4129318816
 20
1.6552878107
 10
62.410565978
 20
1.6504726657
 10
62.4080472203
 20
1.6457342914
 10
62.4053829317
 20
1.6410766257
 10
62.4017168803
 20
1.6351528066
 10
62.397831367
 20
1.6293724844
 10
62.3937400753
 20
1.6237363638
 10
62.3894566892
 20
1.6182451495
 10
62.3848050884
 20
1.6126799704
 10
62.3799722263
 20
1.6072714023
 10
62.3749704052
 20
1.6020180785
 10
62.3698119271
 20
1.596918632
 10
62.3643086645
 20
1.5917904572
 10
62.3586599998
 20
1.5868234592
 10
62.3528758201
 20
1.5820147523
 10
62.3469660125
 20
1.5773614507
 10
62.340774723
 20
1.5727405204
 10
62.3344688824
 20
1.5682775137
 10
62.3280560543
 20
1.5639694351
 10
62.3215438028
 20
1.5598132892
 10
62.3148531516
 20
1.5557552226
 10
62.3080737837
 20
1.5518475103
 10
62.3012112385
 20
1.5480876841
 10
62.2942710551
 20
1.544473276
 10
62.2872890223
 20
1.5410166902
 10
62.2802394599
 20
1.5377002792
 10
62.273126314
 20
1.5345225026
 10
62.265953531
 20
1.5314818202
 10
62.2565374563
 20
1.5277284858
 10
62.247033651
 20
1.5242035011
 10
62.2374486699
 20
1.5209057211
 10
62.2282220491
 20
1.5179668326
 10
62.2189319726
 20
1.5152355077
 10
62.2095830852
 20
1.5127130028
 10
62.2007721574
 20
1.5105400029
 10
62.1919171148
 20
1.5085547946
 10
62.1830214171
 20
1.5067606572
 10
62.1747860997
 20
1.5052788788
 10
62.166522098
 20
1.5039671351
 10
62.1582323503
 20
1.5028302273
 10
62.1506401068
 20
1.501948954
 10
62.1430314092
 20
1.5012234487
 10
62.1354088338
 20
1.5006595904
 10
62.1285808653
 20
1.5002973266
 10
62.1217471965
 20
1.5000753755
 10
62.1149111699
 20
1.5
  0
LWPOLYLINE
  5
437
100
AcDbEntity
  8
0
100
AcDbPolyline
 62
9
  6
CONTINUOUS
 90
20
 70
0
 10
37.8638467499
 20
41.857003684
 10
37.8652564111
 20
41.8572843996
 10
37.8666567496
 20
41.8575401887
 10
37.8696793437
 20
41.857991581
 10
37.8727938185
 20
41.8583547023
 10
37.8759391391
 20
41.8586658803
 10
37.8822605032
 20
41.8592366754
 10
37.8885377492
 20
41.8597422239
 10
37.8963937494
 20
41.8602849211
 10
37.9042729159
 20
41.8607538702
 10
37.9135983934
 20
41.8612472176
 10
37.9229202456
 20
41.8616863925
 10
37.9335650068
 20
41.8621315396
 10
37.9442138156
 20
41.8625264924
 10
37.9678499663
 20
41.8632621895
 10
37.993491631
 20
41.8638829925
 10
38.0207731435
 20
41.8643800482
 10
38.0493054521
 20
41.8647462682
 10
38.078681668
 20
41.8649764302
 10
38.108482868
 20
41.8650672517
  0
LINE
  5
438
100
AcDbEntity
  8
0
100
AcDbLine
 62
7
  6
CONTINUOUS
 10
6.6948115146
 20
45.4107881309
 11
11.4087155743
 21
45.823201297
  0
LWPOLYLINE
  5
439
100
AcDbEntity
  8
0
100
AcDbPolyline
 62
7
  6
CONTINUOUS
 90
14
 70
0
 43
0.3500000006
 10
18.3457297897
 20
61.9500004578
 10
17.6024265175
 20
61.9500004578
 10
17.47854245
 20
60.6999955444
 10
17.726310585
 20
60.9500001526
 10
17.9740775871
 20
60.9500001526
 10
18.2218457222
 20
60.6999955444
 10
18.3457297897
 20
60.45
 10
18.4696138573
 20
59.9499998474
 10
18.3457297897
 20
59.4499996948
 10
18.2218457222
 20
59.2000041504
 10
17.9740775871
 20
58.9499995422
 10
17.726310585
 20
58.9499995422
 10
17.47854245
 20
59.2000041504
 10
17.3546583824
 20
59.4499996948
  0
LWPOLYLINE
  5
43A
100
AcDbEntity
  8
0
100
AcDbPolyline
 62
7
  6
CONTINUOUS
 90
5
 70
0
 43
0.3500000006
 10
48.1053486786
 20
60.6999955444
 10
47.5562412872
 20
60.2000044556
 10
47.2816875916
 20
59.700004303
 10
47.1444130096
 20
58.9499995422
 10
48.2426277924
 20
58.9499995422
  0
LWPOLYLINE
  5
43B
100
AcDbEntity
  8
0
100
AcDbPolyline
 62
7
  6
CONTINUOUS
 90
7
 70
0
 10
58.0115852252
 20
47.5718717645
 10
58.0094902031
 20
47.5713243264
 10
58.0072491962
 20
47.5712606382
 10
58.001934261
 20
47.5710399594
 10
57.996721342
 20
47.5706552508
 10
57.9884327711
 20
47.570264303
 10
57.957480276
 20
47.5694809776
  0
LINE
  5
43C
100
AcDbEntity
  8
0
100
AcDbLine
 62
9
  6
CONTINUOUS
 10
37.8603498368
 20
41.8562828108
 11
37.8638467499
 21
41.857003684
  0
LWPOLYLINE
  5
43D
100
AcDbEntity
  8
0
100
AcDbPolyline
 62
9
  6
CONTINUOUS
 90
52
 70
0
 10
1.195418781
 20
42.5642258508
 10
1.1758243535
 20
42.5605013073
 10
1.1563324124
 20
42.5562564635
 10
1.1369593084
 20
42.5514946781
 10
1.1177153322
 20
42.546217839
 10
1.0986194546
 20
42.5404311348
 10
1.079684509
 20
42.5341385764
 10
1.0609230636
 20
42.5273442378
 10
1.042348729
 20
42.5200532175
 10
1.0239748439
 20
42.512270696
 10
1.0058148257
 20
42.5040021136
 10
0.9878812386
 20
42.4952534128
 10
0.9701867304
 20
42.4860307856
 10
0.9527440736
 20
42.4763407062
 10
0.9355653148
 20
42.4661900908
 10
0.9186626317
 20
42.4555861267
 10
0.9020480199
 20
42.4445361065
 10
0.8857332121
 20
42.4330480554
 10
0.8697297567
 20
42.4211301079
 10
0.8540492327
 20
42.4087906644
 10
0.8387024707
 20
42.396038496
 10
0.823700338
 20
42.3828826318
 10
0.809053689
 20
42.3693323479
 10
0.7947726425
 20
42.3553972703
 10
0.7808673099
 20
42.3410872657
 10
0.7673478494
 20
42.3264125341
 10
0.7542234959
 20
42.3113833933
 10
0.741503542
 20
42.2960104844
 10
0.7291971396
 20
42.2803045739
 10
0.7173128431
 20
42.2642768843
 10
0.705859067
 20
42.2479387636
 10
0.6948441518
 20
42.2313017919
 10
0.6842756473
 20
42.2143777248
 10
0.6741610359
 20
42.1971785456
 10
0.6645076966
 20
42.1797164409
 10
0.6553222309
 20
42.162003748
 10
0.6466111425
 20
42.1440530039
 10
0.6383809143
 20
42.1258771702
 10
0.6306370308
 20
42.107488863
 10
0.6233849733
 20
42.0889011142
 10
0.616630049
 20
42.0701270136
 10
0.6103768617
 20
42.0511798677
 10
0.6046298408
 20
42.0320730401
 10
0.5993932368
 20
42.0128199959
 10
0.5946705676
 20
41.9934345451
 10
0.5904651728
 20
41.9739305985
 10
0.5867803038
 20
41.9543225054
 10
0.5836182593
 20
41.9346230868
 10
0.5809812789
 20
41.9148455962
 10
0.5788718164
 20
41.8950081342
 10
0.5772905684
 20
41.8751225342
 10
0.5762386726
 20
41.8552054488
  0
LINE
  5
43E
100
AcDbEntity
  8
0
100
AcDbLine
 62
9
  6
CONTINUOUS
 10
4.5
 20
43.1469126796
 11
1.195418781
 21
42.5642258508
  0
LINE
  5
43F
100
AcDbEntity
  8
0
100
AcDbLine
 62
7
  6
CONTINUOUS
 10
4.5
 20
43.4
 11
1.1563698382
 21
42.810427789
  0
LWPOLYLINE
  5
440
100
AcDbEntity
  8
0
100
AcDbPolyline
 62
7
  6
CONTINUOUS
 90
14
 70
0
 43
0.3500000006
 10
14.8831856804
 20
71.9500035095
 10
14.0796143303
 20
71.9500035095
 10
13.9456853943
 20
70.6999985962
 10
14.2135421333
 20
70.9500032043
 10
14.4814000053
 20
70.9500032043
 10
14.7492567444
 20
70.6999985962
 10
14.8831856804
 20
70.4500030518
 10
15.0171134834
 20
69.9500028992
 10
14.8831856804
 20
69.4500027466
 10
14.7492567444
 20
69.1999981384
 10
14.4814000053
 20
68.950002594
 10
14.2135421333
 20
68.950002594
 10
13.9456853943
 20
69.1999981384
 10
13.8117564583
 20
69.4500027466
  0
LWPOLYLINE
  5
441
100
AcDbEntity
  8
0
100
AcDbPolyline
 62
9
  6
CONTINUOUS
 90
6
 70
0
 10
62.2771710178
 20
8.3447945513
 10
62.2769449035
 20
8.3444470264
 10
62.2766285251
 20
8.3441817273
 10
62.2762423144
 20
8.3439824544
 10
62.2758067032
 20
8.3438330083
 10
62.2753421233
 20
8.3437171893
  0
LINE
  5
442
100
AcDbEntity
  8
0
100
AcDbLine
 62
7
  6
CONTINUOUS
 10
54.0419531238
 20
47.6532338936
 11
53.967845981
 21
47.5808008909
  0
LWPOLYLINE
  5
443
100
AcDbEntity
  8
0
100
AcDbPolyline
 62
7
  6
CONTINUOUS
 90
8
 70
0
 10
37.6764973523
 20
43.8543253563
 10
37.6760771962
 20
43.8539763252
 10
37.6758290386
 20
43.85347965
 10
37.6757061839
 20
43.8528784373
 10
37.6756619368
 20
43.8522157932
 10
37.6756496017
 20
43.8515348241
 10
37.6755411913
 20
43.8494526299
 10
37.6753291099
 20
43.8475534231
  0
LINE
  5
444
100
AcDbEntity
  8
0
100
AcDbLine
 62
7
  6
CONTINUOUS
 10
19.7588190451
 20
43.4014011617
 11
11.5
 21
41.1884572682
  0
LINE
  5
445
100
AcDbEntity
  8
0
100
AcDbLine
 62
9
  6
CONTINUOUS
 10
19.6837912922
 20
43.6911789096
 11
11.5
 21
41.4983386418
  0
LWPOLYLINE
  5
446
100
AcDbEntity
  8
0
100
AcDbPolyline
 62
7
  6
CONTINUOUS
 90
7
 70
0
 10
39.632019294
 20
47.5820880208
 10
39.6297991455
 20
47.5814943617
 10
39.6274259233
 20
47.5814014984
 10
39.6218741259
 20
47.5811347312
 10
39.616424207
 20
47.5807205154
 10
39.6077861146
 20
47.5802901258
 10
39.5755420541
 20
47.5793936123
  0
LWPOLYLINE
  5
447
100
AcDbEntity
  8
0
100
AcDbPolyline
 62
7
  6
CONTINUOUS
 90
7
 70
0
 10
43.7051093291
 20
47.5718717645
 10
43.7030143071
 20
47.5713243264
 10
43.7007733002
 20
47.5712606382
 10
43.695458365
 20
47.5710399594
 10
43.690245446
 20
47.5706552508
 10
43.6819568751
 20
47.570264303
 10
43.6510043799
 20
47.5694809776
  0
LWPOLYLINE
  5
448
100
AcDbEntity
  8
0
100
AcDbPolyline
 62
9
  6
CONTINUOUS
 90
15
 70
0
 10
19.7588190451
 20
43.4014011617
 10
19.7590402344
 20
43.4015419205
 10
19.7591138257
 20
43.4017841928
 10
19.7590734743
 20
43.4021041161
 10
19.7588729262
 20
43.4026773976
 10
19.7586053191
 20
43.4032911678
 10
19.7581704804
 20
43.4044157903
 10
19.757879725
 20
43.4054157762
 10
19.7576962078
 20
43.4063222145
 10
19.7575830839
 20
43.4071661945
 10
19.7574206363
 20
43.4087911364
 10
19.7571562973
 20
43.4104766982
 10
19.7567721847
 20
43.4122534128
 10
19.7563061632
 20
43.414091443
 10
19.755279852
 20
43.4178321009
  0
LINE
  5
449
100
AcDbEntity
  8
0
100
AcDbLine
 62
9
  6
CONTINUOUS
 10
7.6535569843
 20
48.1093092983
 11
7.6301023748
 21
48.1026862197
  0
LINE
  5
44A
100
AcDbEntity
  8
0
100
AcDbLine
 62
9
  6
CONTINUOUS
 10
7.6301023748
 20
48.1026862197
 11
7.6084518702
 21
48.0966392984
  0
LINE
  5
44B
100
AcDbEntity
  8
0
100
AcDbLine
 62
9
  6
CONTINUOUS
 10
7.6084518702
 20
48.0966392984
 11
7.5886566932
 21
48.0911653839
  0
LINE
  5
44C
100
AcDbEntity
  8
0
100
AcDbLine
 62
9
  6
CONTINUOUS
 10
7.5886566932
 20
48.0911653839
 11
7.5625420714
 21
48.0840222774
  0
LINE
  5
44D
100
AcDbEntity
  8
0
100
AcDbLine
 62
9
  6
CONTINUOUS
 10
7.5625420714
 20
48.0840222774
 11
7.540840161
 21
48.0781524545
  0
LINE
  5
44E
100
AcDbEntity
  8
0
100
AcDbLine
 62
9
  6
CONTINUOUS
 10
7.540840161
 20
48.0781524545
 11
7.5189615358
 21
48.0722943653
  0
LWPOLYLINE
  5
44F
100
AcDbEntity
  8
0
100
AcDbPolyline
 62
9
  6
CONTINUOUS
 90
7
 70
0
 10
7.5189615358
 20
48.0722943653
 10
7.5004713089
 20
48.0673892185
 10
7.500350666
 20
48.0673573504
 10
7.500240325
 20
48.0673282042
 10
7.500149769
 20
48.0673042845
 10
7.5000884812
 20
48.0672880959
 10
7.5000659446
 20
48.0672821431
  0
LWPOLYLINE
  5
450
100
AcDbEntity
  8
0
100
AcDbPolyline
 62
7
  6
CONTINUOUS
 90
15
 70
0
 43
0.3500000006
 10
69.7178450775
 20
23.5187143707
 10
69.4678450012
 20
23.2508542328
 10
69.2178449249
 20
23.1169286957
 10
68.7178447723
 20
22.9829986267
 10
67.7178444672
 20
22.9829986267
 10
67.2178443146
 20
23.1169286957
 10
66.9678442383
 20
23.2508542328
 10
66.717844162
 20
23.5187143707
 10
66.9678442383
 20
23.7865699768
 10
67.2178443146
 20
23.9205000458
 10
67.7178444672
 20
24.0544255829
 10
68.7178447723
 20
24.0544255829
 10
69.2178449249
 20
23.9205000458
 10
69.4678450012
 20
23.7865699768
 10
69.7178450775
 20
23.5187143707
  0
LWPOLYLINE
  5
451
100
AcDbEntity
  8
0
100
AcDbPolyline
 62
9
  6
CONTINUOUS
 90
30
 70
0
 10
8.2768234602
 20
48.3218717645
 10
8.2559798814
 20
48.3132449443
 10
8.2351596714
 20
48.3047673292
 10
8.2143771266
 20
48.2964389292
 10
8.1936465373
 20
48.2882597523
 10
8.1729821657
 20
48.2802298032
 10
8.1523982451
 20
48.2723490836
 10
8.1319089743
 20
48.2646175948
 10
8.1115284471
 20
48.2570353143
 10
8.0912706783
 20
48.2496022097
 10
8.0711497762
 20
48.2423183048
 10
8.0511797995
 20
48.2351836279
 10
8.0313746251
 20
48.2281981683
 10
8.011747504
 20
48.2213617282
 10
7.9923115816
 20
48.2146741148
 10
7.9730859197
 20
48.208137178
 10
7.9540906382
 20
48.2017530738
 10
7.935341268
 20
48.1955223872
 10
7.9168529027
 20
48.1894455808
 10
7.89863975
 20
48.1835228609
 10
7.8807150345
 20
48.1777541632
 10
7.8630914864
 20
48.172139325
 10
7.8457794322
 20
48.1666774935
 10
7.8287891504
 20
48.1613678935
 10
7.8121311484
 20
48.1562099113
 10
7.7958156849
 20
48.1512029426
 10
7.7798527548
 20
48.1463463899
 10
7.7642520966
 20
48.1416396664
 10
7.7490231102
 20
48.1370821722
 10
7.7341746276
 20
48.1326732293
  0
LINE
  5
452
100
AcDbEntity
  8
0
100
AcDbLine
 62
7
  6
CONTINUOUS
 10
46.167845981
 20
2.6191991092
 11
46.0937388381
 21
2.5467661065
  0
LINE
  5
453
100
AcDbEntity
  8
0
100
AcDbLine
 62
7
  6
CONTINUOUS
 10
60.3606606086
 20
47.5962774236
 11
60.2811961752
 21
47.5551087253
  0
LINE
  5
454
100
AcDbEntity
  8
0
100
AcDbLine
 62
7
  6
CONTINUOUS
 10
39.660400261
 20
47.5962774236
 11
39.632019294
 21
47.5820880208
  0
LINE
  5
455
100
AcDbEntity
  8
0
100
AcDbLine
 62
7
  6
CONTINUOUS
 10
40.8121598166
 20
47.6721514225
 11
40.5780409257
 21
47.5551008921
  0
LINE
  5
456
100
AcDbEntity
  8
0
100
AcDbLine
 62
7
  6
CONTINUOUS
 10
43.7051093291
 20
48.3218717645
 11
43.867845981
 21
48.4032338936
  0
LINE
  5
457
100
AcDbEntity
  8
0
100
AcDbLine
 62
7
  6
CONTINUOUS
 10
43.867845981
 20
47.6532338936
 11
43.7051093291
 21
47.5718717645
  0
LINE
  5
458
100
AcDbEntity
  8
0
100
AcDbLine
 62
7
  6
CONTINUOUS
 10
37.6764973523
 20
43.8543253563
 11
37.7506788534
 21
43.8914132821
  0
LINE
  5
459
100
AcDbEntity
  8
0
100
AcDbLine
 62
7
  6
CONTINUOUS
 10
58.0115852252
 20
48.3218717645
 11
58.1804427952
 21
48.4062941195
  0
LINE
  5
45A
100
AcDbEntity
  8
0
100
AcDbLine
 62
7
  6
CONTINUOUS
 10
58.2121598166
 20
47.6721514225
 11
58.0115852252
 21
47.5718717645
  0
LWPOLYLINE
  5
45B
100
AcDbEntity
  8
0
100
AcDbPolyline
 62
7
  6
CONTINUOUS
 90
8
 70
0
 10
62.4591946096
 20
6.3456746438
 10
62.4596147658
 20
6.3460236749
 10
62.4598629234
 20
6.3465203501
 10
62.459985778
 20
6.3471215628
 10
62.4600300252
 20
6.3477842069
 10
62.4600423603
 20
6.348465176
 10
62.4601507706
 20
6.3505473702
 10
62.460362852
 20
6.352446577
  0
LINE
  5
45C
100
AcDbEntity
  8
0
100
AcDbLine
 62
7
  6
CONTINUOUS
 10
11.5
 20
2.85
 11
9.1617314098
 21
1.5
  0
LINE
  5
45D
100
AcDbEntity
  8
0
100
AcDbLine
 62
9
  6
CONTINUOUS
 10
62.0912586782
 20
47.5367111697
 11
62.1707902976
 21
47.5764739509
  0
LINE
  5
45E
100
AcDbEntity
  8
0
100
AcDbLine
 62
9
  6
CONTINUOUS
 10
62.341220602
 20
47.286720689
 11
62.432019294
 21
47.3321165774
  0
LWPOLYLINE
  5
45F
100
AcDbEntity
  8
0
100
AcDbPolyline
 62
9
  6
CONTINUOUS
 90
15
 70
0
 10
4.2478183661
 20
47.5367111697
 10
4.2475916069
 20
47.5366435765
 10
4.2474479059
 20
47.5364630443
 10
4.2473692616
 20
47.536195763
 10
4.2473338979
 20
47.535689477
 10
4.2473436531
 20
47.5351353241
 10
4.2473402173
 20
47.5341555178
 10
4.247292101
 20
47.5332940609
 10
4.2472117796
 20
47.5325211732
 10
4.2470582028
 20
47.5314627653
 10
4.2469023387
 20
47.5304361254
 10
4.2467459197
 20
47.5290053585
 10
4.2466430519
 20
47.5274844375
 10
4.246578157
 20
47.5259025533
 10
4.2464999716
 20
47.5226726573
  0
LINE
  5
460
100
AcDbEntity
  8
0
100
AcDbLine
 62
9
  6
CONTINUOUS
 10
7.7341746276
 20
48.1326732293
 11
7.7056546178
 21
48.1242987825
  0
LINE
  5
461
100
AcDbEntity
  8
0
100
AcDbLine
 62
9
  6
CONTINUOUS
 10
7.7056546178
 20
48.1242987825
 11
7.6787606415
 21
48.1165121294
  0
LINE
  5
462
100
AcDbEntity
  8
0
100
AcDbLine
 62
9
  6
CONTINUOUS
 10
7.6787606415
 20
48.1165121294
 11
7.6535569843
 21
48.1093092983
  0
LWPOLYLINE
  5
463
100
AcDbEntity
  8
0
100
AcDbPolyline
 62
7
  6
CONTINUOUS
 90
31
 70
0
 10
9.4474904758
 20
2.8678834227
 10
9.3958698425
 20
2.842060345
 10
9.3441352066
 20
2.8163200911
 10
9.2924280771
 20
2.790904896
 10
9.2666807746
 20
2.7784225608
 10
9.2408754005
 20
2.7660607236
 10
9.2152739288
 20
2.753969687
 10
9.189594858
 20
2.7420443403
 10
9.1641967914
 20
2.7304787647
 10
9.138700234
 20
2.7191319565
 10
9.1135627033
 20
2.7082388422
 10
9.0883044107
 20
2.6976287653
 10
9.0634861609
 20
2.6875737796
 10
9.0385238002
 20
2.6778820262
 10
9.0222506316
 20
2.6718172451
 10
9.0059055855
 20
2.6659490553
 10
8.9894838952
 20
2.6602987303
 10
8.973514038
 20
2.6550596733
 10
8.957463336
 20
2.6500737643
 10
8.9413271915
 20
2.6453701818
 10
8.925713034
 20
2.6411396801
 10
8.9100137001
 20
2.6372384379
 10
8.8942274119
 20
2.6337071897
 10
8.8828396013
 20
2.6314244497
 10
8.8714067934
 20
2.6293776006
 10
8.8599297256
 20
2.627590835
 10
8.8484091351
 20
2.6260883457
 10
8.8373826851
 20
2.6249443466
 10
8.8263285109
 20
2.6241139673
 10
8.8152578115
 20
2.6236302031
 10
8.8041817858
 20
2.6235260492
  0
LWPOLYLINE
  5
464
100
AcDbEntity
  8
0
100
AcDbPolyline
 62
7
  6
CONTINUOUS
 90
8
 70
0
 10
60.2811961752
 20
47.5551087253
 10
60.2803415735
 20
47.5548307196
 10
60.2794234288
 20
47.5547576625
 10
60.2784805109
 20
47.5547722115
 10
60.2750154537
 20
47.554679653
 10
60.2716280651
 20
47.5544387528
 10
60.2662082365
 20
47.5542091778
 10
60.2459821713
 20
47.5538022658
  0
LWPOLYLINE
  5
465
100
AcDbEntity
  8
0
100
AcDbPolyline
 62
7
  6
CONTINUOUS
 90
8
 70
0
 10
40.5780409257
 20
47.5551008921
 10
40.5771772392
 20
47.5548276731
 10
40.5762534962
 20
47.5547535535
 10
40.5753063174
 20
47.5547647557
 10
40.5718340108
 20
47.5546680511
 10
40.5684342361
 20
47.5544314309
 10
40.5629994033
 20
47.5542040975
 10
40.5427781887
 20
47.553795972
  0
LWPOLYLINE
  5
466
100
AcDbEntity
  8
0
100
AcDbPolyline
 62
7
  6
CONTINUOUS
 90
5
 70
0
 43
0.3500000006
 10
69.7178450775
 20
25.6615682831
 10
69.4678450012
 20
25.527642746
 10
69.4678450012
 20
25.6615682831
 10
69.7178450775
 20
25.6615682831
 10
70.2178452301
 20
25.393712677
  0
LINE
  5
467
100
AcDbEntity
  8
0
100
AcDbLine
 62
7
  6
CONTINUOUS
 10
39.7750313534
 20
2.6037225765
 11
39.8544957868
 21
2.6448912748
  0
LINE
  5
468
100
AcDbEntity
  8
0
100
AcDbLine
 62
9
  6
CONTINUOUS
 10
37.7944713599
 20
2.9132793111
 11
37.703672668
 21
2.8678834227
  0
LINE
  5
469
100
AcDbEntity
  8
0
100
AcDbLine
 62
9
  6
CONTINUOUS
 10
38.0444332837
 20
2.6632888304
 11
37.9649016644
 21
2.6235260492
  0
LINE
  5
46A
100
AcDbEntity
  8
0
100
AcDbLine
 62
7
  6
CONTINUOUS
 10
41.9235321454
 20
2.5278485776
 11
42.1241067368
 21
2.6281282356
  0
LINE
  5
46B
100
AcDbEntity
  8
0
100
AcDbLine
 62
7
  6
CONTINUOUS
 10
42.1241067368
 20
1.8781282356
 11
41.9552491668
 21
1.7937058805
  0
LINE
  5
46C
100
AcDbEntity
  8
0
100
AcDbLine
 62
7
  6
CONTINUOUS
 10
62.4591946096
 20
6.3456746438
 11
62.3850131085
 21
6.308586718
  0
LINE
  5
46D
100
AcDbEntity
  8
0
100
AcDbLine
 62
7
  6
CONTINUOUS
 10
56.267845981
 20
2.5467661065
 11
56.4305826328
 21
2.6281282356
  0
LINE
  5
46E
100
AcDbEntity
  8
0
100
AcDbLine
 62
7
  6
CONTINUOUS
 10
56.4305826328
 20
1.8781282356
 11
56.267845981
 21
1.7967661065
  0
LINE
  5
46F
100
AcDbEntity
  8
0
100
AcDbLine
 62
7
  6
CONTINUOUS
 10
59.3235321454
 20
2.5278485776
 11
59.5576510363
 21
2.644899108
  0
LINE
  5
470
100
AcDbEntity
  8
0
100
AcDbLine
 62
7
  6
CONTINUOUS
 10
60.4752917009
 20
2.6037225765
 11
60.503672668
 21
2.6179119793
  0
LINE
  5
471
100
AcDbEntity
  8
0
100
AcDbLine
 62
7
  6
CONTINUOUS
 10
19.9996852747
 20
2.6215629341
 11
17.9506671649
 21
1.7937058805
  0
LINE
  5
472
100
AcDbEntity
  8
0
100
AcDbLine
 62
3
  6
CONTINUOUS
 10
10.9068680823
 20
0.4146830451
 11
15.2242904509
 21
1.8174986097
  0
LINE
  5
473
100
AcDbEntity
  8
0
100
AcDbLine
 62
7
  6
CONTINUOUS
 10
11.03047488
 20
0.0342604386
 11
16.4848605722
 21
1.8064977809
  0
LWPOLYLINE
  5
474
100
AcDbEntity
  8
0
100
AcDbPolyline
 62
7
  6
CONTINUOUS
 90
8
 70
0
 10
39.8544957868
 20
2.6448912748
 10
39.855350375
 20
2.6451692765
 10
39.8562685052
 20
2.6452423334
 10
39.8572114082
 20
2.6452277856
 10
39.8606764225
 20
2.6453203449
 10
39.8640637692
 20
2.6455612425
 10
39.8694835392
 20
2.645790816
 10
39.8897095287
 20
2.6461977294
  0
LWPOLYLINE
  5
475
100
AcDbEntity
  8
0
100
AcDbPolyline
 62
7
  6
CONTINUOUS
 90
8
 70
0
 10
59.5576510363
 20
2.644899108
 10
59.5585147163
 20
2.6451723251
 10
59.5594384524
 20
2.6452464446
 10
59.5603856241
 20
2.6452352429
 10
59.5638579078
 20
2.6453319478
 10
59.5672576602
 20
2.6455685667
 10
59.5726924467
 20
2.6457958988
 10
59.5929135836
 20
2.6462040247
  0
ARC
  5
476
100
AcDbEntity
  8
0
100
AcDbCircle
 62
7
  6
CONTINUOUS
 10
425.0
 20
25.1
 40
425.0
100
AcDbArc
 50
177.7392543719
 51
182.2607456281
  0
ARC
  5
477
100
AcDbEntity
  8
0
100
AcDbCircle
 62
7
  6
CONTINUOUS
 10
19.5
 20
5.8326730121
 40
1.0
100
AcDbArc
 50
0.0
 51
75.0
  0
ARC
  5
478
100
AcDbEntity
  8
0
100
AcDbCircle
 62
7
  6
CONTINUOUS
 10
19.5
 20
44.367326988
 40
1.0
100
AcDbArc
 50
285.0
 51
360.0
  0
ARC
  5
479
100
AcDbEntity
  8
0
100
AcDbCircle
 62
7
  6
CONTINUOUS
 10
1.3300180159
 20
8.3743799641
 40
1.0
100
AcDbArc
 50
182.2607456281
 51
260.0
  0
ARC
  5
47A
100
AcDbEntity
  8
0
100
AcDbCircle
 62
7
  6
CONTINUOUS
 10
1.3300180159
 20
41.825620036
 40
1.0
100
AcDbArc
 50
100.0
 51
177.7392543719
  0
ARC
  5
47B
100
AcDbEntity
  8
0
100
AcDbCircle
 62
7
  6
CONTINUOUS
 10
19.7
 20
3.3633100178
 40
0.8
100
AcDbArc
 50
292.0
 51
360.0
  0
ARC
  5
47C
100
AcDbEntity
  8
0
100
AcDbCircle
 62
7
  6
CONTINUOUS
 10
19.7
 20
46.8366899823
 40
0.8
100
AcDbArc
 50
0.0
 51
68.0
  0
ARC
  5
47D
100
AcDbEntity
  8
0
100
AcDbCircle
 62
7
  6
CONTINUOUS
 10
6.7611501185
 20
5.5474655817
 40
0.7611501185
100
AcDbArc
 50
90.5
 51
265.0
  0
ARC
  5
47E
100
AcDbEntity
  8
0
100
AcDbCircle
 62
7
  6
CONTINUOUS
 10
6.7611501185
 20
44.6525344183
 40
0.7611501185
100
AcDbArc
 50
95.0
 51
269.5
  0
ARC
  5
47F
100
AcDbEntity
  8
0
100
AcDbCircle
 62
7
  6
CONTINUOUS
 10
10.814162984
 20
0.7
 40
0.7
100
AcDbArc
 50
270.0
 51
288.0
  0
ARC
  5
480
100
AcDbEntity
  8
0
100
AcDbCircle
 62
7
  6
CONTINUOUS
 10
10.3
 20
0.7
 40
0.7
100
AcDbArc
 50
180.0
 51
270.0
  0
ARC
  5
481
100
AcDbEntity
  8
0
100
AcDbCircle
 62
7
  6
CONTINUOUS
 10
10.814162984
 20
49.5
 40
0.7
100
AcDbArc
 50
72.0
 51
90.0
  0
ARC
  5
482
100
AcDbEntity
  8
0
100
AcDbCircle
 62
7
  6
CONTINUOUS
 10
10.3
 20
49.5
 40
0.7
100
AcDbArc
 50
90.0
 51
180.0
  0
ARC
  5
483
100
AcDbEntity
  8
0
100
AcDbCircle
 62
7
  6
CONTINUOUS
 10
11.0
 20
6.8456556053
 40
0.5
100
AcDbArc
 50
270.5
 51
360.0
  0
ARC
  5
484
100
AcDbEntity
  8
0
100
AcDbCircle
 62
7
  6
CONTINUOUS
 10
11.0
 20
43.3543443947
 40
0.5
100
AcDbArc
 50
0.0
 51
89.5
  0
ARC
  5
485
100
AcDbEntity
  8
0
100
AcDbCircle
 62
3
  6
CONTINUOUS
 10
10.814162984
 20
0.7
 40
0.3
100
AcDbArc
 50
270.0
 51
288.0
  0
ARC
  5
486
100
AcDbEntity
  8
0
100
AcDbCircle
 62
3
  6
CONTINUOUS
 10
10.3
 20
0.7
 40
0.3
100
AcDbArc
 50
180.0
 51
270.0
  0
ARC
  5
487
100
AcDbEntity
  8
0
100
AcDbCircle
 62
3
  6
CONTINUOUS
 10
10.814162984
 20
49.5
 40
0.3
100
AcDbArc
 50
72.0
 51
90.0
  0
ARC
  5
488
100
AcDbEntity
  8
0
100
AcDbCircle
 62
3
  6
CONTINUOUS
 10
10.3
 20
49.5
 40
0.3
100
AcDbArc
 50
90.0
 51
180.0
  0
ARC
  5
489
100
AcDbEntity
  8
0
100
AcDbCircle
 62
7
  6
CONTINUOUS
 10
8.75
 20
1.75
 40
0.25
100
AcDbArc
 50
180.0
 51
270.0
  0
ARC
  5
48A
100
AcDbEntity
  8
0
100
AcDbCircle
 62
7
  6
CONTINUOUS
 10
8.75
 20
48.45
 40
0.25
100
AcDbArc
 50
90.0
 51
180.0
  0
ARC
  5
48B
100
AcDbEntity
  8
0
100
AcDbCircle
 62
7
  6
CONTINUOUS
 10
4.25
 20
2.9132793111
 40
0.25
100
AcDbArc
 50
180.0
 51
269.5
  0
ARC
  5
48C
100
AcDbEntity
  8
0
100
AcDbCircle
 62
7
  6
CONTINUOUS
 10
4.25
 20
47.286720689
 40
0.25
100
AcDbArc
 50
90.5
 51
180.0
  0
ARC
  5
48D
100
AcDbEntity
  8
0
100
AcDbCircle
 62
7
  6
CONTINUOUS
 10
7.7500000011
 20
2.1327352724
 40
0.2499999985
100
AcDbArc
 50
180.0000000011
 51
269.4999996811
  0
ARC
  5
48E
100
AcDbEntity
  8
0
100
AcDbCircle
 62
7
  6
CONTINUOUS
 10
7.7500000011
 20
48.0672647277
 40
0.2499999985
100
AcDbArc
 50
90.5000003189
 51
179.9999999989
  0
ARC
  5
48F
100
AcDbEntity
  8
0
100
AcDbCircle
 62
7
  6
CONTINUOUS
 10
46.1345797462
 20
1.2
 40
0.2
100
AcDbArc
 50
270.0
 51
355.0
  0
ARC
  5
490
100
AcDbEntity
  8
0
100
AcDbCircle
 62
7
  6
CONTINUOUS
 10
54.0011122158
 20
1.2
 40
0.2
100
AcDbArc
 50
185.0
 51
270.0
  0
ARC
  5
491
100
AcDbEntity
  8
0
100
AcDbCircle
 62
7
  6
CONTINUOUS
 10
54.0011122158
 20
49.0
 40
0.2
100
AcDbArc
 50
90.0
 51
175.0
  0
ARC
  5
492
100
AcDbEntity
  8
0
100
AcDbCircle
 62
7
  6
CONTINUOUS
 10
46.1345797462
 20
49.0
 40
0.2
100
AcDbArc
 50
5.0
 51
90.0
  0
ARC
  5
493
100
AcDbEntity
  8
0
100
AcDbCircle
 62
7
  6
CONTINUOUS
 10
11.4
 20
4.2771792332
 40
0.1
100
AcDbArc
 50
0.0
 51
85.0
  0
ARC
  5
494
100
AcDbEntity
  8
0
100
AcDbCircle
 62
7
  6
CONTINUOUS
 10
11.4
 20
45.9228207668
 40
0.1
100
AcDbArc
 50
275.0
 51
360.0
  0
ENDSEC
  0
SECTION
  2
OBJECTS
  0
DICTIONARY
  5
C
100
AcDbDictionary
280
0
281
1
  3
ACAD_GROUP
350
D
  3
ACAD_MLINESTYLE
350
17
  3
ACAD_LAYOUT
350
1A
  3
ACAD_PLOTSETTINGS
350
19
  3
ACAD_PLOTSTYLENAME
350
E
  0
DICTIONARY
  5
D
102
{ACAD_REACTORS
330
C
102
}
100
AcDbDictionary
280
0
281
1
  0
ACDBDICTIONARYWDFLT
  5
E
102
{ACAD_REACTORS
330
C
102
}
100
AcDbDictionary
281
1
  3
Normal
350
F
100
AcDbDictionaryWithDefault
340
F
  0
DICTIONARY
  5
17
102
{ACAD_REACTORS
330
C
102
}
100
AcDbDictionary
280
0
281
1
  3
Standard
350
18
  0
DICTIONARY
  5
19
102
{ACAD_REACTORS
330
C
102
}
100
AcDbDictionary
281
1
  0
DICTIONARY
  5
1A
102
{ACAD_REACTORS
330
C
102
}
100
AcDbDictionary
281
1
  3
Model
350
495
  3
Layout1
350
496
  0
ACDBPLACEHOLDER
  5
F
102
{ACAD_REACTORS
330
E
102
}
  0
MLINESTYLE
  5
18
102
{ACAD_REACTORS
330
17
102
}
100
AcDbMlineStyle
  2
STANDARD
 70
0
  3

 62
256
 51
90.0
 52
90.0
 71
2
 49
0.5
 62
256
  6
BYLAYER
 49
-0.5
 62
256
  6
BYLAYER
  0
LAYOUT
  5
495
102
{ACAD_REACTORS
330
1A
102
}
100
AcDbPlotSettings
  1

  2
none_device
  4
ISO_A4_(297.00_x_210.00_MM)
  6

 40
0.0
 41
0.0
 42
0.0
 43
0.0
 44
297.0
 45
210.0
 46
0.0
 47
0.0
 48
0.0
 49
0.0
140
0.0
141
0.0
142
1.0
143
1.0
 70
1024
 72
1
 73
0
 74
0
  7

 75
0
147
1.0
148
0.0
149
0.0
100
AcDbLayout
  1
Model
 70
0
 71
0
 10
0.0
 20
0.0
 11
297.0
 21
210.0
 12
0.0
 22
0.0
 32
0.0
 14
0.0
 24
0.0
 34
0.0
 15
0.0
 25
0.0
 35
0.0
146
0.0
 13
0.0
 23
0.0
 33
0.0
 16
1.0
 26
0.0
 36
0.0
 17
0.0
 27
1.0
 37
0.0
 76
0
330
212
345
0
346
0
  0
LAYOUT
  5
496
102
{ACAD_REACTORS
330
1A
102
}
100
AcDbPlotSettings
  1

  2
none_device
  4
ISO_A4_(297.00_x_210.00_MM)
  6

 40
0.0
 41
0.0
 42
0.0
 43
0.0
 44
297.0
 45
210.0
 46
0.0
 47
0.0
 48
0.0
 49
0.0
140
0.0
141
0.0
142
1.0
143
1.0
 70
0
 72
1
 73
0
 74
0
  7

 75
0
147
1.0
148
0.0
149
0.0
100
AcDbLayout
  1
Layout1
 70
0
 71
1
 10
0.0
 20
0.0
 11
297.0
 21
210.0
 12
0.0
 22
0.0
 32
0.0
 14
0.0
 24
0.0
 34
0.0
 15
0.0
 25
0.0
 35
0.0
146
0.0
 13
0.0
 23
0.0
 33
0.0
 16
1.0
 26
0.0
 36
0.0
 17
0.0
 27
1.0
 37
0.0
 76
0
330
213
345
0
346
0
  0
ENDSEC
  0
EOF
