  0
SECTION
  2
HEADER
  9
$ACADVER
  1
AC1024
  9
$DWGCODEPAGE
  3
ANSI_1252
  9
$EXTMAX
 10
297.0
 20
210.0
 30
0.0
  9
$EXTMIN
 10
0.0
 20
0.0
 30
0.0
  9
$LIMMIN
 10
0.0
 20
0.0
  9
$LIMMAX
 10
297.0
 20
210.0
  9
$VIEWCTR
 10
148.5
 20
105.0
  9
$VIEWSIZE
 40
210.0
  9
$CLAYER
  8
0
  9
$LTSCALE
 40
16.335
  9
$CELTYPE
  6
BYLAYER
  9
$DIMSCALE
 40
1.0
  9
$DIMASZ
 40
3.0
  9
$DIMEXO
 40
0.5
  9
$DIMDLI
 40
11.286
  9
$DIMEXE
 40
1.5
  9
$DIMCEN
 40
2.673
  9
$DIMLFAC
 40
1.0
  9
$DIMBLK
  1
_FILLED
  9
$DIMALT
 70
0
  9
$DIMALTF
 40
0.0393700787
  9
$DIMTXT
 40
3.0
  9
$DIMTOL
 70
1
  9
$DIMLIM
 70
0
  9
$DIMTFAC
 40
1.0
  9
$DIMTP
 40
0.01
  9
$DIMTM
 40
0.01
  9
$DIMGAP
 40
0.625
  9
$DIMDSEP
 70
44
  9
$AUNITS
 70
0
  9
$PDMODE
 70
3
  9
$PDSIZE
 40
3.0
  9
$HANDSEED
  5
68C
  9
$TILEMODE
 70
1
  9
$MEASUREMENT
 70
1
  9
$INSUNITS
 70
4
  0
ENDSEC
  0
SECTION
  2
CLASSES
  0
CLASS
  1
ACDBDICTIONARYWDFLT
  2
AcDbDictionaryWithDefault
  3
AutoCAD 2000
 90
0
 91
1
280
0
281
0
  0
CLASS
  1
ACDBPLACEHOLDER
  2
AcDbPlaceHolder
  3
AutoCAD 2000
 90
0
 91
1
280
0
281
0
  0
CLASS
  1
LAYOUT
  2
AcDbLayout
  3
AutoCAD 2000
 90
0
 91
0
280
0
281
0
  0
ENDSEC
  0
SECTION
  2
TABLES
  0
TABLE
  2
VPORT
  5
8
100
AcDbSymbolTable
 70
2
  0
VPORT
  5
1F4
100
AcDbSymbolTableRecord
100
AcDbViewportTableRecord
  2
*ACTIVE
 70
0
 10
0.0
 20
0.0
 11
1.0
 21
1.0
 12
148.5
 22
105.0
 13
0.0
 23
0.0
 14
1.0
 24
1.0
 15
0.0
 25
0.0
 16
0.0
 26
0.0
 36
1.0
 17
0.0
 27
0.0
 37
0.0
 40
210.0
 41
1.4142857143
 42
50.0
 43
0.0
 44
0.0
 50
0.0
 51
0.0
 71
0
 72
100
 73
1
 74
1
 75
0
 76
0
 77
0
 78
0
  0
ENDTAB
  0
TABLE
  2
LTYPE
  5
5
100
AcDbSymbolTable
 70
6
  0
LTYPE
  5
14
100
AcDbSymbolTableRecord
100
AcDbLinetypeTableRecord
  2
BYBLOCK
 70
0
  3

 72
65
 73
0
 40
0.0
  0
LTYPE
  5
15
100
AcDbSymbolTableRecord
100
AcDbLinetypeTableRecord
  2
BYLAYER
 70
0
  3

 72
65
 73
0
 40
0.0
  0
LTYPE
  5
16
100
AcDbSymbolTableRecord
100
AcDbLinetypeTableRecord
  2
CONTINUOUS
 70
64
  3
Solid line
 72
65
 73
0
 40
0.0
  0
LTYPE
  5
1F5
100
AcDbSymbolTableRecord
100
AcDbLinetypeTableRecord
  2
CENTER
 70
64
  3
____ _ ____ _ ____ _ ____ _ ____ _ ____ _ ____
 72
65
 73
4
 40
0.6
 49
0.375
 74
0
 49
-0.075
 74
0
 49
0.075
 74
0
 49
-0.075
 74
0
  0
LTYPE
  5
1F6
100
AcDbSymbolTableRecord
100
AcDbLinetypeTableRecord
  2
HIDDEN
 70
64
  3
- - - - - - - - - - - - - - - - - - - -
 72
65
 73
2
 40
0.2
 49
0.1
 74
0
 49
-0.1
 74
0
  0
LTYPE
  5
1F7
100
AcDbSymbolTableRecord
100
AcDbLinetypeTableRecord
  2
PHANTOM
 70
64
  3
_____ _ _ _____ _ _ _____ _ _ _____
 72
65
 73
6
 40
0.8
 49
0.45
 74
0
 49
-0.05
 74
0
 49
0.1
 74
0
 49
-0.05
 74
0
 49
0.1
 74
0
 49
-0.05
 74
0
  0
LTYPE
  5
1F8
100
AcDbSymbolTableRecord
100
AcDbLinetypeTableRecord
  2
DOT
 70
64
  3
. . . . . . . . . . . . . . . . . . . .
 72
65
 73
2
 40
0.2
 49
0.1
 74
0
 49
-0.1
 74
0
  0
LTYPE
  5
1F9
100
AcDbSymbolTableRecord
100
AcDbLinetypeTableRecord
  2
DASHED
 70
64
  3
- - - - - - - - - - - - - - - - - - - -
 72
65
 73
2
 40
0.2
 49
0.1
 74
0
 49
-0.1
 74
0
  0
ENDTAB
  0
TABLE
  2
LAYER
  5
2
100
AcDbSymbolTable
 70
36
  0
LAYER
  5
10
100
AcDbSymbolTableRecord
100
AcDbLayerTableRecord
  2
0
 70
0
 62
7
  6
CONTINUOUS
370
-3
390
F
  0
LAYER
  5
1FA
100
AcDbSymbolTableRecord
100
AcDbLayerTableRecord
  2
DEFAULT_1
 70
0
 62
7
  6
CENTER
370
-3
390
F
  0
LAYER
  5
1FB
100
AcDbSymbolTableRecord
100
AcDbLayerTableRecord
  2
DEFAULT_2
 70
0
 62
7
  6
HIDDEN
370
-3
390
F
  0
LAYER
  5
1FC
100
AcDbSymbolTableRecord
100
AcDbLayerTableRecord
  2
DEFAULT_3
 70
0
 62
7
  6
PHANTOM
370
-3
390
F
  0
LAYER
  5
1FD
100
AcDbSymbolTableRecord
100
AcDbLayerTableRecord
  2
ASSI
 70
0
 62
7
  6
CONTINUOUS
370
-3
390
F
  0
LAYER
  5
1FE
100
AcDbSymbolTableRecord
100
AcDbLayerTableRecord
  2
COORDINATE
 70
0
 62
7
  6
CONTINUOUS
370
-3
390
F
  0
LAYER
  5
1FF
100
AcDbSymbolTableRecord
100
AcDbLayerTableRecord
  2
COORD_ORIGINE
 70
0
 62
7
  6
CONTINUOUS
370
-3
390
F
  0
LAYER
  5
200
100
AcDbSymbolTableRecord
100
AcDbLayerTableRecord
  2
COPY-PUBBLISH
 70
0
 62
7
  6
CONTINUOUS
370
-3
390
F
  0
LAYER
  5
201
100
AcDbSymbolTableRecord
100
AcDbLayerTableRecord
  2
CURVE
 70
0
 62
7
  6
CONTINUOUS
370
-3
390
F
  0
LAYER
  5
202
100
AcDbSymbolTableRecord
100
AcDbLayerTableRecord
  2
DRAFT
 70
0
 62
7
  6
CONTINUOUS
370
-3
390
F
  0
LAYER
  5
203
100
AcDbSymbolTableRecord
100
AcDbLayerTableRecord
  2
IGES-SCRITTE
 70
0
 62
7
  6
CONTINUOUS
370
-3
390
F
  0
LAYER
  5
204
100
AcDbSymbolTableRecord
100
AcDbLayerTableRecord
  2
NOTE_3D
 70
0
 62
7
  6
CONTINUOUS
370
-3
390
F
  0
LAYER
  5
205
100
AcDbSymbolTableRecord
100
AcDbLayerTableRecord
  2
PIANI
 70
0
 62
7
  6
CONTINUOUS
370
-3
390
F
  0
LAYER
  5
206
100
AcDbSymbolTableRecord
100
AcDbLayerTableRecord
  2
PIANI-RIFERIMENTO
 70
0
 62
7
  6
CONTINUOUS
370
-3
390
F
  0
LAYER
  5
207
100
AcDbSymbolTableRecord
100
AcDbLayerTableRecord
  2
PIANI_ORIGINE
 70
0
 62
7
  6
CONTINUOUS
370
-3
390
F
  0
LAYER
  5
208
100
AcDbSymbolTableRecord
100
AcDbLayerTableRecord
  2
PUNTI
 70
0
 62
7
  6
CONTINUOUS
370
-3
390
F
  0
LAYER
  5
209
100
AcDbSymbolTableRecord
100
AcDbLayerTableRecord
  2
RACCORDI
 70
0
 62
7
  6
CONTINUOUS
370
-3
390
F
  0
LAYER
  5
20A
100
AcDbSymbolTableRecord
100
AcDbLayerTableRecord
  2
RACCORDO
 70
0
 62
7
  6
CONTINUOUS
370
-3
390
F
  0
LAYER
  5
20B
100
AcDbSymbolTableRecord
100
AcDbLayerTableRecord
  2
SFORMI
 70
0
 62
7
  6
CONTINUOUS
370
-3
390
F
  0
LAYER
  5
20C
100
AcDbSymbolTableRecord
100
AcDbLayerTableRecord
  2
SMUSSI
 70
0
 62
7
  6
CONTINUOUS
370
-3
390
F
  0
LAYER
  5
20D
100
AcDbSymbolTableRecord
100
AcDbLayerTableRecord
  2
SMUSSO
 70
0
 62
7
  6
CONTINUOUS
370
-3
390
F
  0
LAYER
  5
20E
100
AcDbSymbolTableRecord
100
AcDbLayerTableRecord
  2
SNAPLINE
 70
0
 62
7
  6
CONTINUOUS
370
-3
390
F
  0
LAYER
  5
20F
100
AcDbSymbolTableRecord
100
AcDbLayerTableRecord
  2
SUPERFICI
 70
0
 62
7
  6
CONTINUOUS
370
-3
390
F
  0
LAYER
  5
210
100
AcDbSymbolTableRecord
100
AcDbLayerTableRecord
  2
TRASH
 70
0
 62
7
  6
CONTINUOUS
370
-3
390
F
  0
LAYER
  5
211
100
AcDbSymbolTableRecord
100
AcDbLayerTableRecord
  2
XSEC_DATUMS
 70
0
 62
7
  6
CONTINUOUS
370
-3
390
F
  0
ENDTAB
  0
TABLE
  2
STYLE
  5
3
100
AcDbSymbolTable
 70
1
  0
STYLE
  5
11
100
AcDbSymbolTableRecord
100
AcDbTextStyleTableRecord
  2
STANDARD
 70
0
 40
0.0
 41
0.8
 50
0.0
 71
0
 42
0.2
  3
txt
  4

  0
STYLE
  5
212
100
AcDbSymbolTableRecord
100
AcDbTextStyleTableRecord
  2
TEXTSTYLE_1
 70
0
 40
0.0
 41
0.8
 50
0.0
 71
0
 42
0.2
  3
gdt
  4

  0
ENDTAB
  0
TABLE
  2
VIEW
  5
6
100
AcDbSymbolTable
 70
0
  0
ENDTAB
  0
TABLE
  2
UCS
  5
7
100
AcDbSymbolTable
 70
0
  0
ENDTAB
  0
TABLE
  2
APPID
  5
9
100
AcDbSymbolTable
 70
1
  0
APPID
  5
213
100
AcDbSymbolTableRecord
100
AcDbRegAppTableRecord
  2
ACAD
 70
0
  0
ENDTAB
  0
TABLE
  2
BLOCK_RECORD
  5
1
100
AcDbSymbolTable
 70
0
  0
BLOCK_RECORD
  5
214
100
AcDbSymbolTableRecord
100
AcDbBlockTableRecord
  2
*Model_Space
  0
BLOCK_RECORD
  5
215
100
AcDbSymbolTableRecord
100
AcDbBlockTableRecord
  2
*Paper_Space
  0
BLOCK_RECORD
  5
216
100
AcDbSymbolTableRecord
100
AcDbBlockTableRecord
  2
_FILLED
  0
BLOCK_RECORD
  5
217
100
AcDbSymbolTableRecord
100
AcDbBlockTableRecord
  2
*D0
  0
BLOCK_RECORD
  5
218
100
AcDbSymbolTableRecord
100
AcDbBlockTableRecord
  2
*D1
  0
BLOCK_RECORD
  5
219
100
AcDbSymbolTableRecord
100
AcDbBlockTableRecord
  2
*D2
  0
ENDTAB
  0
TABLE
  2
DIMSTYLE
  5
A
100
AcDbSymbolTable
 70
1
100
AcDbDimStyleTable
 71
0
  0
DIMSTYLE
105
21A
100
AcDbSymbolTableRecord
100
AcDbDimStyleTableRecord
  2
STANDARD
 70
0
  3

  4

 40
1.0
 41
3.0
 42
0.5
 43
0.38
 44
1.5
 45
0.0
 46
0.0
 47
0.01
 48
0.01
140
3.0
141
0.09
142
0.0
143
25.4
144
1.0
145
0.0
146
1.0
147
0.625
 71
1
 72
0
 73
0
 74
0
 75
0
 76
0
 77
1
 78
8
 79
2
170
0
171
1
172
0
173
0
174
0
175
0
176
0
177
0
178
0
270
2
179
2
271
2
272
2
273
2
274
2
275
0
280
0
281
0
282
0
283
1
284
8
285
0
286
0
287
3
288
0
340
11
278
44
341
216
342
216
343
216
344
216
  0
DIMSTYLE
105
21B
100
AcDbSymbolTableRecord
100
AcDbDimStyleTableRecord
  2
DIMSTYLE_1
 70
0
  3

  4

 40
1.0
 41
3.0
 42
0.5
 43
0.38
 44
1.5
 45
0.0
 46
0.0
 47
0.0
 48
0.0
140
3.0
141
0.09
142
0.0
143
25.4
144
1.0
145
0.0
146
1.0
147
0.75
 71
0
 72
0
 73
0
 74
0
 75
0
 76
0
 77
1
 78
8
 79
2
170
0
171
1
172
0
173
0
174
0
175
0
176
0
177
0
178
0
270
2
179
2
271
2
272
2
273
2
274
2
275
0
280
0
281
0
282
0
283
1
284
8
285
0
286
0
287
3
288
0
340
11
278
44
341
216
342
216
343
216
344
216
  0
ENDTAB
  0
ENDSEC
  0
SECTION
  2
BLOCKS
  0
BLOCK
  5
20
100
AcDbEntity
  8
0
100
AcDbBlockBegin
  2
*Model_Space
 70
0
 10
0.0
 20
0.0
 30
0.0
  3
*Model_Space
  1

  0
ENDBLK
  5
21
100
AcDbEntity
  8
0
100
AcDbBlockEnd
  0
BLOCK
  5
1C
100
AcDbEntity
  8
0
100
AcDbBlockBegin
  2
*Paper_Space
 70
0
 10
0.0
 20
0.0
 30
0.0
  3
*Paper_Space
  1

  0
ENDBLK
  5
1D
100
AcDbEntity
  8
0
100
AcDbBlockEnd
  0
BLOCK
  5
21C
100
AcDbEntity
  8
0
100
AcDbBlockBegin
  2
_FILLED
 70
64
 10
0.0
 20
0.0
  3
_FILLED
  1

  0
SOLID
  5
21D
100
AcDbEntity
  8
0
  6
BYBLOCK
 62
0
100
AcDbTrace
 10
0.0
 20
0.0
 11
-1.0
 21
0.3166666667
 12
-1.0
 22
-0.3166666667
 13
-1.0
 23
-0.3166666667
  0
ENDBLK
  5
21E
100
AcDbEntity
  8
0
  6
BYBLOCK
 62
0
100
AcDbBlockEnd
  0
BLOCK
  5
21F
100
AcDbEntity
  8
0
100
AcDbBlockBegin
 62
7
  6
CONTINUOUS
  2
*D0
 70
65
 10
0.0
 20
0.0
  3
*D0
  1

  0
LINE
  5
220
100
AcDbEntity
  8
0
100
AcDbLine
 62
7
  6
CONTINUOUS
 10
-17.7625757497
 20
38.7501294985
 11
-17.7625757497
 21
47.7501294985
  0
LINE
  5
221
100
AcDbEntity
  8
0
100
AcDbLine
 62
7
  6
CONTINUOUS
 10
17.7374242503
 20
38.7501294985
 11
17.7374242503
 21
47.7501294985
  0
LINE
  5
222
100
AcDbEntity
  8
0
100
AcDbLine
 62
7
  6
CONTINUOUS
 10
-17.7625757497
 20
46.2501294985
 11
-0.0125757497
 21
46.2501294985
  0
LINE
  5
223
100
AcDbEntity
  8
0
100
AcDbLine
 62
7
  6
CONTINUOUS
 10
17.7374242503
 20
46.2501294985
 11
-0.0125757497
 21
46.2501294985
  0
INSERT
  5
224
100
AcDbEntity
  8
0
100
AcDbBlockReference
 62
7
  6
CONTINUOUS
  2
_FILLED
 10
-17.7625757497
 20
46.2501294985
 41
3.0
 42
3.0
 43
3.0
 50
180.0
  0
INSERT
  5
225
100
AcDbEntity
  8
0
100
AcDbBlockReference
 62
7
  6
CONTINUOUS
  2
_FILLED
 10
17.7374242503
 20
46.2501294985
 41
3.0
 42
3.0
 43
3.0
 50
0.0
  0
ENDBLK
  5
226
100
AcDbEntity
  8
0
  6
BYBLOCK
 62
0
100
AcDbBlockEnd
  0
BLOCK
  5
227
100
AcDbEntity
  8
0
100
AcDbBlockBegin
 62
7
  6
CONTINUOUS
  2
*D1
 70
65
 10
0.0
 20
0.0
  3
*D1
  1

  0
LINE
  5
228
100
AcDbEntity
  8
0
100
AcDbLine
 62
7
  6
CONTINUOUS
 10
-37.6223691784
 20
30.7373233903
 11
-37.6223691784
 21
47.7501294985
  0
LINE
  5
229
100
AcDbEntity
  8
0
100
AcDbLine
 62
7
  6
CONTINUOUS
 10
-96.6223691784
 20
-5.4342494849
 11
-96.6223691784
 21
47.7501294985
  0
LINE
  5
22A
100
AcDbEntity
  8
0
100
AcDbLine
 62
7
  6
CONTINUOUS
 10
-37.6223691784
 20
46.2501294985
 11
-67.1223691784
 21
46.2501294985
  0
LINE
  5
22B
100
AcDbEntity
  8
0
100
AcDbLine
 62
7
  6
CONTINUOUS
 10
-96.6223691784
 20
46.2501294985
 11
-67.1223691784
 21
46.2501294985
  0
INSERT
  5
22C
100
AcDbEntity
  8
0
100
AcDbBlockReference
 62
7
  6
CONTINUOUS
  2
_FILLED
 10
-37.6223691784
 20
46.2501294985
 41
3.0
 42
3.0
 43
3.0
  0
INSERT
  5
22D
100
AcDbEntity
  8
0
100
AcDbBlockReference
 62
7
  6
CONTINUOUS
  2
_FILLED
 10
-96.6223691784
 20
46.2501294985
 41
3.0
 42
3.0
 43
3.0
 50
180.0
  0
ENDBLK
  5
22E
100
AcDbEntity
  8
0
  6
BYBLOCK
 62
0
100
AcDbBlockEnd
  0
BLOCK
  5
22F
100
AcDbEntity
  8
0
100
AcDbBlockBegin
 62
7
  6
CONTINUOUS
  2
*D2
 70
65
 10
0.0
 20
0.0
  3
*D2
  1

  0
LINE
  5
230
100
AcDbEntity
  8
0
100
AcDbLine
 62
7
  6
CONTINUOUS
 10
-46.1363936326
 20
38.2513478445
 11
-106.0856098018
 21
38.2513478445
  0
LINE
  5
231
100
AcDbEntity
  8
0
100
AcDbLine
 62
7
  6
CONTINUOUS
 10
-38.1223691784
 20
-38.2501294985
 11
-106.0856098018
 21
-38.2501294985
  0
LINE
  5
232
100
AcDbEntity
  8
0
100
AcDbLine
 62
7
  6
CONTINUOUS
 10
-104.5856098018
 20
38.2513478445
 11
-104.5856098018
 21
0.000609173
  0
LINE
  5
233
100
AcDbEntity
  8
0
100
AcDbLine
 62
7
  6
CONTINUOUS
 10
-104.5856098018
 20
-38.2501294985
 11
-104.5856098018
 21
0.000609173
  0
INSERT
  5
234
100
AcDbEntity
  8
0
100
AcDbBlockReference
 62
7
  6
CONTINUOUS
  2
_FILLED
 10
-104.5856098018
 20
38.2513478445
 41
3.0
 42
3.0
 43
3.0
 50
90.0
  0
INSERT
  5
235
100
AcDbEntity
  8
0
100
AcDbBlockReference
 62
7
  6
CONTINUOUS
  2
_FILLED
 10
-104.5856098018
 20
-38.2501294985
 41
3.0
 42
3.0
 43
3.0
 50
270.0
  0
ENDBLK
  5
236
100
AcDbEntity
  8
0
  6
BYBLOCK
 62
0
100
AcDbBlockEnd
  0
ENDSEC
  0
SECTION
  2
ENTITIES
  0
DIMENSION
  5
237
100
AcDbEntity
  8
0
100
AcDbDimension
 62
7
  6
CONTINUOUS
  2
*D0
 10
17.7374242503
 20
46.2501294985
 11
-4.0840043211
 21
46.2501294985
 70
160
 71
2
 72
2
 41
0.9
 42
35.5
  3
DIMSTYLE_1
100
AcDbAlignedDimension
 13
-17.7625757497
 23
38.2501294985
 14
17.7374242503
 24
38.2501294985
100
AcDbRotatedDimension
  0
DIMENSION
  5
238
100
AcDbEntity
  8
0
100
AcDbDimension
 62
7
  6
CONTINUOUS
  2
*D1
 10
-96.6223691784
 20
46.2501294985
 11
-69.3723691784
 21
46.2501294985
 70
160
 71
2
 72
2
 41
0.9
 42
59.0
  3
DIMSTYLE_1
100
AcDbAlignedDimension
 13
-37.6223691784
 23
30.2373233903
 14
-96.6223691784
 24
-5.9342494849
 50
180.0
100
AcDbRotatedDimension
  0
DIMENSION
  5
239
100
AcDbEntity
  8
0
100
AcDbDimension
 62
7
  6
CONTINUOUS
  2
*D2
 10
-104.5856098018
 20
-38.2501294985
 11
-104.5856098018
 21
-4.2851051127
 70
160
 71
2
 72
2
 41
0.9
 42
76.501477343
  3
DIMSTYLE_1
100
AcDbAlignedDimension
 13
-45.6363936326
 23
38.2513478445
 14
-37.6223691784
 24
-38.2501294985
 50
270.0
100
AcDbRotatedDimension
  0
LWPOLYLINE
  5
23A
100
AcDbEntity
  8
0
100
AcDbPolyline
 62
7
  6
CONTINUOUS
 90
5
 70
0
 43
0.3500000006
 10
-3.2268615961
 20
48.7144167938
 10
-2.8697187109
 20
48.9287012787
 10
-2.8697187109
 20
49.5715592651
 10
-3.2268615961
 20
50.0001282349
 10
-4.0840043507
 20
50.0001282349
  0
LINE
  5
23B
100
AcDbEntity
  8
DRAFT
100
AcDbLine
 62
7
  6
CONTINUOUS
 10
17.7374242503
 20
-38.2501294985
 11
16.2331103408
 21
-38.2501294985
  0
LINE
  5
23C
100
AcDbEntity
  8
DRAFT
100
AcDbLine
 62
7
  6
CONTINUOUS
 10
-16.2582618402
 20
-38.2501294985
 11
-17.7625757497
 21
-38.2501294985
  0
LINE
  5
23D
100
AcDbEntity
  8
RACCORDO
100
AcDbLine
 62
7
  6
CONTINUOUS
 10
-16.1884468979
 20
-37.9707633426
 11
-12.2371699906
 21
-37.9707633426
  0
LINE
  5
23E
100
AcDbEntity
  8
RACCORDO
100
AcDbLine
 62
7
  6
CONTINUOUS
 10
12.2120184913
 20
-37.9707633426
 11
16.1632953985
 21
-37.9707633426
  0
LINE
  5
23F
100
AcDbEntity
  8
RACCORDO
100
AcDbLine
 62
7
  6
CONTINUOUS
 10
-11.7178117456
 20
-37.9342494849
 11
11.6926602463
 21
-37.9342494849
  0
LINE
  5
240
100
AcDbEntity
  8
RACCORDO
100
AcDbLine
 62
250
  6
CONTINUOUS
 10
-11.4178117456
 20
-37.6342494849
 11
11.3926602463
 21
-37.6342494849
  0
LINE
  5
241
100
AcDbEntity
  8
RACCORDO
100
AcDbLine
 62
7
  6
CONTINUOUS
 10
7.8403579259
 20
-36.979013489
 11
-7.8655094252
 21
-36.979013489
  0
LINE
  5
242
100
AcDbEntity
  8
RACCORDO
100
AcDbLine
 62
250
  6
CONTINUOUS
 10
-17.7625757497
 20
-36.4848025632
 11
17.7374242503
 21
-36.4848025632
  0
LWPOLYLINE
  5
243
100
AcDbEntity
  8
RACCORDO
100
AcDbPolyline
 62
7
  6
CONTINUOUS
 90
31
 70
0
 10
-16.06344713
 20
29.1640536144
 10
-16.0501621497
 20
29.1780512755
 10
-16.0370140192
 20
29.1930404039
 10
-16.0246104203
 20
29.2083654202
 10
-16.0129531645
 20
29.2239815955
 10
-16.0020544224
 20
29.2398251144
 10
-15.9919071192
 20
29.2558535247
 10
-15.9824992537
 20
29.2720306744
 10
-15.973827992
 20
29.2883016914
 10
-15.9658732633
 20
29.3046401758
 10
-15.9586230921
 20
29.3210029768
 10
-15.9520771179
 20
29.3373108473
 10
-15.9461686578
 20
29.3536554548
 10
-15.940922179
 20
29.3698890853
 10
-15.9364240278
 20
29.3855658062
 10
-15.9325935073
 20
29.4007080533
 10
-15.9293790071
 20
29.4152436342
 10
-15.9268184358
 20
29.4285793955
 10
-15.9248371585
 20
29.4404969706
 10
-15.9232970916
 20
29.4512097604
 10
-15.9221078897
 20
29.4607840063
 10
-15.9212108305
 20
29.4691207389
 10
-15.9205299565
 20
29.4763750229
 10
-15.9199846998
 20
29.4829922028
 10
-15.9195472198
 20
29.4890023489
 10
-15.9191948224
 20
29.4944313314
 10
-15.9188874768
 20
29.4996992313
 10
-15.9186131113
 20
29.5049055775
 10
-15.9183689592
 20
29.5100035587
 10
-15.9181425541
 20
29.5151744096
 10
-15.9177294607
 20
29.5258613113
  0
LINE
  5
244
100
AcDbEntity
  8
RACCORDO
100
AcDbLine
 62
250
  6
CONTINUOUS
 10
-16.4194057287
 20
29.0151974368
 11
-16.6074583772
 21
28.8271447882
  0
LINE
  5
245
100
AcDbEntity
  8
RACCORDO
100
AcDbLine
 62
7
  6
CONTINUOUS
 10
-16.06344367
 20
29.1640502009
 11
-16.2539049866
 21
28.9735723591
  0
LWPOLYLINE
  5
246
100
AcDbEntity
  8
RACCORDO
100
AcDbPolyline
 62
250
  6
CONTINUOUS
 90
10
 70
0
 10
-16.0658523381
 20
29.1616250077
 10
-16.0980111976
 20
29.1321571636
 10
-16.1326163007
 20
29.1056046249
 10
-16.169404256
 20
29.0821694919
 10
-16.2080950578
 20
29.0620301375
 10
-16.2483942173
 20
29.0453398492
 10
-16.2899950037
 20
29.0322256624
 10
-16.3325807793
 20
29.0227873937
 10
-16.3758274093
 20
29.017096881
 10
-16.4194057287
 20
29.0151974368
  0
LWPOLYLINE
  5
247
100
AcDbEntity
  8
RACCORDO
100
AcDbPolyline
 62
250
  6
CONTINUOUS
 90
10
 70
0
 10
-16.2539049866
 20
28.9735723591
 10
-16.2860660583
 20
28.9441026589
 10
-16.3206711594
 20
28.9175504288
 10
-16.3574590268
 20
28.8941156182
 10
-16.3961496493
 20
28.8739765831
 10
-16.4364485376
 20
28.8572865923
 10
-16.4780489852
 20
28.8441726568
 10
-16.5206343677
 20
28.8347345795
 10
-16.5638805503
 20
28.8290441894
 10
-16.6074583772
 20
28.8271447882
  0
LWPOLYLINE
  5
248
100
AcDbEntity
  8
RACCORDO
100
AcDbPolyline
 62
250
  6
CONTINUOUS
 90
8
 70
0
 10
-15.9116459333
 20
30.0276745194
 10
-15.8795063601
 20
30.0481771435
 10
-15.8407603733
 20
30.0683685426
 10
-15.8003971783
 20
30.085100731
 10
-15.758726024
 20
30.0982456449
 10
-15.7160656367
 20
30.1077030364
 10
-15.6727416861
 20
30.1134009933
 10
-15.6290851577
 20
30.1152962263
  0
LINE
  5
249
100
AcDbEntity
  8
RACCORDO
100
AcDbLine
 62
250
  6
CONTINUOUS
 10
-17.7625757497
 20
-34.9857163227
 11
17.7374242503
 21
-34.9857163227
  0
LINE
  5
24A
100
AcDbEntity
  8
DRAFT
100
AcDbLine
 62
7
  6
CONTINUOUS
 10
-3.0125757497
 20
-32.1386398241
 11
2.9874242503
 21
-32.1386398241
  0
LINE
  5
24B
100
AcDbEntity
  8
COPY-PUBBLISH
100
AcDbLine
 62
7
  6
CONTINUOUS
 10
-3.0125757497
 20
-32.0338242656
 11
-0.6125757497
 21
-32.0338242656
  0
LINE
  5
24C
100
AcDbEntity
  8
COPY-PUBBLISH
100
AcDbLine
 62
7
  6
CONTINUOUS
 10
0.5874242503
 20
-32.0338242656
 11
2.9874242503
 21
-32.0338242656
  0
LINE
  5
24D
100
AcDbEntity
  8
COPY-PUBBLISH
100
AcDbLine
 62
7
  6
CONTINUOUS
 10
0.5708432015
 20
-31.9342494849
 11
-0.5959947009
 21
-31.9342494849
  0
LINE
  5
24E
100
AcDbEntity
  8
COPY-PUBBLISH
100
AcDbLine
 62
7
  6
CONTINUOUS
 10
-3.0125757497
 20
-31.9176684361
 11
-0.5959947009
 21
-31.9176684361
  0
LINE
  5
24F
100
AcDbEntity
  8
COPY-PUBBLISH
100
AcDbLine
 62
7
  6
CONTINUOUS
 10
0.5708432015
 20
-31.9176684361
 11
2.9874242503
 21
-31.9176684361
  0
LWPOLYLINE
  5
250
100
AcDbEntity
  8
RACCORDO
100
AcDbPolyline
 62
7
  6
CONTINUOUS
 90
5
 70
0
 10
-16.1197167641
 20
25.8740246469
 10
-16.1188115793
 20
25.8749455872
 10
-16.1100243351
 20
25.8841687349
 10
-16.0984307802
 20
25.8959015527
 10
-16.0843020597
 20
25.9098323724
  0
LINE
  5
251
100
AcDbEntity
  8
RACCORDO
100
AcDbLine
 62
7
  6
CONTINUOUS
 10
-16.0843020597
 20
25.9098323724
 11
-16.0509675813
 21
25.9433483045
  0
LINE
  5
252
100
AcDbEntity
  8
RACCORDO
100
AcDbLine
 62
7
  6
CONTINUOUS
 10
-11.5174737293
 20
30.1152962263
 11
-10.8636819063
 21
30.7690880493
  0
LINE
  5
253
100
AcDbEntity
  8
RACCORDO
100
AcDbLine
 62
7
  6
CONTINUOUS
 10
-15.9672161851
 20
26.0269481516
 11
-15.6557096434
 21
26.3386273235
  0
LINE
  5
254
100
AcDbEntity
  8
RACCORDO
100
AcDbLine
 62
7
  6
CONTINUOUS
 10
-15.9898861253
 20
26.0043955396
 11
-15.9672161851
 21
26.0269481516
  0
LINE
  5
255
100
AcDbEntity
  8
RACCORDO
100
AcDbLine
 62
7
  6
CONTINUOUS
 10
-15.6557096434
 20
26.3386273235
 11
-15.6290851577
 21
26.3651079123
  0
LWPOLYLINE
  5
256
100
AcDbEntity
  8
RACCORDO
100
AcDbPolyline
 62
7
  6
CONTINUOUS
 90
3
 70
0
 10
-16.0509675813
 20
25.9433483045
 10
-16.0317618234
 20
25.9623986283
 10
-15.9898861253
 20
26.0043955396
  0
LWPOLYLINE
  5
257
100
AcDbEntity
  8
RACCORDO
100
AcDbPolyline
 62
7
  6
CONTINUOUS
 90
9
 70
0
 10
-16.1195628864
 20
25.8253176965
 10
-16.124424969
 20
25.8221195819
 10
-16.1351351065
 20
25.8186547125
 10
-16.1514511257
 20
25.8152596892
 10
-16.1741323529
 20
25.8119357198
 10
-16.2024194619
 20
25.8086815965
 10
-16.2340344734
 20
25.8054936962
 10
-16.2687433961
 20
25.8023748708
 10
-16.3067802213
 20
25.7993222684
  0
LWPOLYLINE
  5
258
100
AcDbEntity
  8
RACCORDO
100
AcDbPolyline
 62
250
  6
CONTINUOUS
 90
31
 70
0
 10
17.193710424
 20
-28.2428247009
 10
17.2300255157
 20
-28.2414533559
 10
17.2654785552
 20
-28.2374500891
 10
17.2998855754
 20
-28.2309006906
 10
17.333394384
 20
-28.2217776377
 10
17.3655638027
 20
-28.2101481598
 10
17.3954264902
 20
-28.1963469274
 10
17.4228630584
 20
-28.1804317763
 10
17.4479252315
 20
-28.1623946719
 10
17.4700381177
 20
-28.1427192661
 10
17.4891399759
 20
-28.1215067204
 10
17.5052498152
 20
-28.0987176718
 10
17.5180179274
 20
-28.0748977319
 10
17.5274839107
 20
-28.0500786518
 10
17.5334743158
 20
-28.0243783433
 10
17.5354454399
 20
-27.9987252246
 10
17.5328139582
 20
-27.9737676473
 10
17.5260132566
 20
-27.9492130455
 10
17.5161643961
 20
-27.9247609085
 10
17.503680143
 20
-27.9004212275
 10
17.4881245912
 20
-27.8766852135
 10
17.4694789103
 20
-27.8540478582
 10
17.4477387681
 20
-27.8326331511
 10
17.4230313051
 20
-27.8127854815
 10
17.395671497
 20
-27.7952941077
 10
17.3657174398
 20
-27.7805062152
 10
17.333504783
 20
-27.7682650876
 10
17.2998946229
 20
-27.7584923826
 10
17.2653471777
 20
-27.7510930657
 10
17.2298781932
 20
-27.7459611241
 10
17.193710424
 20
-27.7429008534
  0
LINE
  5
259
100
AcDbEntity
  8
RACCORDO
100
AcDbLine
 62
250
  6
CONTINUOUS
 10
-17.1532589833
 20
-28.2401813557
 11
-17.1222759826
 21
-28.2396422172
  0
LINE
  5
25A
100
AcDbEntity
  8
RACCORDO
100
AcDbLine
 62
250
  6
CONTINUOUS
 10
-17.1222759826
 20
-28.2396422172
 11
-17.068964686
 21
-28.2389994346
  0
LINE
  5
25B
100
AcDbEntity
  8
RACCORDO
100
AcDbLine
 62
250
  6
CONTINUOUS
 10
-17.068964686
 20
-28.2389994346
 11
-17.0109213147
 21
-28.2386189822
  0
LINE
  5
25C
100
AcDbEntity
  8
DRAFT
100
AcDbLine
 62
7
  6
CONTINUOUS
 10
6.2714590347
 20
-30.4682842693
 11
2.9874242503
 21
-30.4682842693
  0
LINE
  5
25D
100
AcDbEntity
  8
DRAFT
100
AcDbLine
 62
7
  6
CONTINUOUS
 10
-3.0125757497
 20
-30.4682842693
 11
-6.2966105341
 21
-30.4682842693
  0
LINE
  5
25E
100
AcDbEntity
  8
DRAFT
100
AcDbLine
 62
7
  6
CONTINUOUS
 10
6.2374242503
 20
-30.4342494849
 11
2.9874242503
 21
-30.4342494849
  0
LINE
  5
25F
100
AcDbEntity
  8
DRAFT
100
AcDbLine
 62
7
  6
CONTINUOUS
 10
1.5874242503
 20
-30.4342494849
 11
-1.6125757497
 21
-30.4342494849
  0
LINE
  5
260
100
AcDbEntity
  8
DRAFT
100
AcDbLine
 62
7
  6
CONTINUOUS
 10
-3.0125757497
 20
-30.4342494849
 11
-6.2625757497
 21
-30.4342494849
  0
LINE
  5
261
100
AcDbEntity
  8
DRAFT
100
AcDbLine
 62
7
  6
CONTINUOUS
 10
6.2374242503
 20
-29.1842494849
 11
8.0874242503
 21
-29.1842494849
  0
LINE
  5
262
100
AcDbEntity
  8
DRAFT
100
AcDbLine
 62
7
  6
CONTINUOUS
 10
-6.2625757497
 20
-29.1842494849
 11
-8.1125757497
 21
-29.1842494849
  0
LINE
  5
263
100
AcDbEntity
  8
DRAFT
100
AcDbLine
 62
7
  6
CONTINUOUS
 10
-4.2125757497
 20
-29.1342494849
 11
-1.6125757497
 21
-29.1342494849
  0
LINE
  5
264
100
AcDbEntity
  8
DRAFT
100
AcDbLine
 62
7
  6
CONTINUOUS
 10
4.1874242503
 20
-29.1342494849
 11
1.5874242503
 21
-29.1342494849
  0
LINE
  5
265
100
AcDbEntity
  8
DRAFT
100
AcDbLine
 62
7
  6
CONTINUOUS
 10
-12.5125757497
 20
-28.4342494849
 11
-8.1125757497
 21
-28.4342494849
  0
LINE
  5
266
100
AcDbEntity
  8
DRAFT
100
AcDbLine
 62
7
  6
CONTINUOUS
 10
8.0874242503
 20
-28.4342494849
 11
12.4874242503
 21
-28.4342494849
  0
LINE
  5
267
100
AcDbEntity
  8
RACCORDO
100
AcDbLine
 62
7
  6
CONTINUOUS
 10
17.2375004028
 20
-28.2866146797
 11
12.4874242503
 21
-28.2866146797
  0
LINE
  5
268
100
AcDbEntity
  8
RACCORDO
100
AcDbLine
 62
7
  6
CONTINUOUS
 10
-12.5125757497
 20
-28.2866146797
 11
-17.2626519021
 21
-28.2866146797
  0
LINE
  5
269
100
AcDbEntity
  8
RACCORDO
100
AcDbLine
 62
250
  6
CONTINUOUS
 10
-17.0109213147
 20
-28.2386189822
 11
-12.5606533364
 21
-28.2385370929
  0
LINE
  5
26A
100
AcDbEntity
  8
RACCORDO
100
AcDbLine
 62
250
  6
CONTINUOUS
 10
-16.9710250977
 20
-27.9885751692
 11
-12.5649409445
 21
-27.9885751692
  0
LINE
  5
26B
100
AcDbEntity
  8
RACCORDO
100
AcDbLine
 62
250
  6
CONTINUOUS
 10
12.5397894451
 20
-27.9885751692
 11
16.9458735984
 21
-27.9885751692
  0
LINE
  5
26C
100
AcDbEntity
  8
RACCORDO
100
AcDbLine
 62
250
  6
CONTINUOUS
 10
16.9857698154
 20
-28.2386189822
 11
12.5355018371
 21
-28.2385370929
  0
LINE
  5
26D
100
AcDbEntity
  8
RACCORDO
100
AcDbLine
 62
250
  6
CONTINUOUS
 10
17.0438131866
 20
-28.2389994346
 11
16.9857698154
 21
-28.2386189822
  0
LINE
  5
26E
100
AcDbEntity
  8
RACCORDO
100
AcDbLine
 62
250
  6
CONTINUOUS
 10
17.0971244833
 20
-28.2396422172
 11
17.0438131866
 21
-28.2389994346
  0
LINE
  5
26F
100
AcDbEntity
  8
RACCORDO
100
AcDbLine
 62
250
  6
CONTINUOUS
 10
17.128107484
 20
-28.2401813557
 11
17.0971244833
 21
-28.2396422172
  0
LWPOLYLINE
  5
270
100
AcDbEntity
  8
RACCORDO
100
AcDbPolyline
 62
250
  6
CONTINUOUS
 90
15
 70
0
 10
-17.6547327901
 20
-22.6795931294
 10
-17.6521208795
 20
-22.681293376
 10
-17.6458076486
 20
-22.6829809682
 10
-17.6358400845
 20
-22.6846433458
 10
-17.6222923724
 20
-22.6862681365
 10
-17.6052653432
 20
-22.6878432474
 10
-17.5848857232
 20
-22.6893569555
 10
-17.5613051909
 20
-22.6907979948
 10
-17.5346992478
 20
-22.6921556402
 10
-17.505265913
 20
-22.6934197872
 10
-17.4732242484
 20
-22.6945810271
 10
-17.4388127291
 20
-22.6956307173
 10
-17.4022874681
 20
-22.6965610453
 10
-17.3639203102
 20
-22.697365087
 10
-17.282814101
 20
-22.6985713591
  0
LINE
  5
271
100
AcDbEntity
  8
0
100
AcDbLine
 62
7
  6
CONTINUOUS
 10
-12.5125757497
 20
-28.2866146797
 11
-12.5606533364
 21
-28.2385370929
  0
LWPOLYLINE
  5
272
100
AcDbEntity
  8
RACCORDO
100
AcDbPolyline
 62
250
  6
CONTINUOUS
 90
8
 70
0
 10
-16.6074583772
 20
28.8271447882
 10
-16.6084516014
 20
28.8239997117
 10
-16.6094406688
 20
28.8159898139
 10
-16.6104255796
 20
28.8030484205
 10
-16.6114111674
 20
28.7850958828
 10
-16.6123925986
 20
28.7621151447
 10
-16.6133553721
 20
28.7342231241
 10
-16.6152238055
 20
28.6640042163
  0
LWPOLYLINE
  5
273
100
AcDbEntity
  8
RACCORDO
100
AcDbPolyline
 62
250
  6
CONTINUOUS
 90
7
 70
0
 10
-17.2188619233
 20
-28.2428247009
 10
-17.2169762699
 20
-28.2424737372
 10
-17.2132248843
 20
-28.2421275233
 10
-17.2076077665
 20
-28.2417860593
 10
-17.1999923945
 20
-28.2414469321
 10
-17.1905112903
 20
-28.2411125548
 10
-17.1795620204
 20
-28.2407901663
  0
LWPOLYLINE
  5
274
100
AcDbEntity
  8
RACCORDO
100
AcDbPolyline
 62
250
  6
CONTINUOUS
 90
31
 70
0
 10
-17.2188619233
 20
-27.7429008534
 10
-17.2550296926
 20
-27.7459611241
 10
-17.2904986771
 20
-27.7510930657
 10
-17.3250461222
 20
-27.7584923826
 10
-17.3586562823
 20
-27.7682650876
 10
-17.3908689392
 20
-27.7805062152
 10
-17.4208229964
 20
-27.7952941077
 10
-17.4481828045
 20
-27.8127854815
 10
-17.4728902674
 20
-27.8326331511
 10
-17.4946304096
 20
-27.8540478582
 10
-17.5132760905
 20
-27.8766852135
 10
-17.5288316423
 20
-27.9004212275
 10
-17.5413158954
 20
-27.9247609085
 10
-17.5511647559
 20
-27.9492130455
 10
-17.5579654575
 20
-27.9737676473
 10
-17.5605969393
 20
-27.9987252246
 10
-17.5586258151
 20
-28.0243783433
 10
-17.55263541
 20
-28.0500786518
 10
-17.5431694267
 20
-28.0748977319
 10
-17.5304013145
 20
-28.0987176718
 10
-17.5142914752
 20
-28.1215067204
 10
-17.4951896171
 20
-28.1427192661
 10
-17.4730767308
 20
-28.1623946719
 10
-17.4480145577
 20
-28.1804317763
 10
-17.4205779895
 20
-28.1963469274
 10
-17.390715302
 20
-28.2101481598
 10
-17.3585458834
 20
-28.2217776377
 10
-17.3250370747
 20
-28.2309006906
 10
-17.2906300545
 20
-28.2374500891
 10
-17.255177015
 20
-28.2414533559
 10
-17.2188619233
 20
-28.2428247009
  0
LWPOLYLINE
  5
275
100
AcDbEntity
  8
RACCORDO
100
AcDbPolyline
 62
7
  6
CONTINUOUS
 90
25
 70
0
 10
17.2024379565
 20
-24.23419668
 10
17.2418680621
 20
-24.2319958422
 10
17.2802382294
 20
-24.227692484
 10
17.3173415627
 20
-24.2212866055
 10
17.3529681595
 20
-24.2126026563
 10
17.3870064903
 20
-24.2018161867
 10
17.419433607
 20
-24.189453848
 10
17.450136489
 20
-24.1755487733
 10
17.4790491355
 20
-24.1600678295
 10
17.5062303172
 20
-24.1434382685
 10
17.531631096
 20
-24.1256876296
 10
17.5552070898
 20
-24.1067883735
 10
17.5770170882
 20
-24.0870851354
 10
17.59704216
 20
-24.0665952664
 10
17.6152608518
 20
-24.0453014154
 10
17.6317168615
 20
-24.0234961632
 10
17.6464106445
 20
-24.0011871781
 10
17.6593381477
 20
-23.9783667919
 10
17.6705288719
 20
-23.9553045803
 10
17.6799982377
 20
-23.9320049376
 10
17.6877609983
 20
-23.9084634696
 10
17.6938461063
 20
-23.8849365695
 10
17.698284014
 20
-23.8615097016
 10
17.7011090065
 20
-23.8380974015
 10
17.702361804
 20
-23.8146996693
  0
LINE
  5
276
100
AcDbEntity
  8
RACCORDO
100
AcDbLine
 62
250
  6
CONTINUOUS
 10
-17.1795620204
 20
-28.2407901663
 11
-17.1532589833
 21
-28.2401813557
  0
LINE
  5
277
100
AcDbEntity
  8
RACCORDO
100
AcDbLine
 62
250
  6
CONTINUOUS
 10
-17.7187857709
 20
-27.7429008534
 11
-17.2188619233
 21
-27.7429008534
  0
LINE
  5
278
100
AcDbEntity
  8
RACCORDO
100
AcDbLine
 62
250
  6
CONTINUOUS
 10
17.6936342716
 20
-27.7429008534
 11
17.193710424
 21
-27.7429008534
  0
LINE
  5
279
100
AcDbEntity
  8
ASSI
100
AcDbLine
 62
7
  6
CONTINUOUS
 10
-4.2175757497
 20
-25.9342494849
 11
-3.4199937497
 21
-25.9342494849
  0
LINE
  5
27A
100
AcDbEntity
  8
ASSI
100
AcDbLine
 62
7
  6
CONTINUOUS
 10
-2.4927059552
 20
-25.9342494849
 11
-1.0324577497
 21
-25.9342494849
  0
LINE
  5
27B
100
AcDbEntity
  8
ASSI
100
AcDbLine
 62
7
  6
CONTINUOUS
 10
-0.1781403422
 20
-25.9342494849
 11
1.0641822503
 21
-25.9342494849
  0
LINE
  5
27C
100
AcDbEntity
  8
ASSI
100
AcDbLine
 62
7
  6
CONTINUOUS
 10
2.1959621736
 20
-25.9342494849
 11
3.6533952503
 21
-25.9342494849
  0
LINE
  5
27D
100
AcDbEntity
  8
RACCORDO
100
AcDbLine
 62
250
  6
CONTINUOUS
 10
17.702361804
 20
-25.2342494849
 11
17.6936342716
 21
-25.2342494849
  0
LINE
  5
27E
100
AcDbEntity
  8
RACCORDO
100
AcDbLine
 62
250
  6
CONTINUOUS
 10
-17.7187857709
 20
-25.2342494849
 11
-17.7275133034
 21
-25.2342494849
  0
LINE
  5
27F
100
AcDbEntity
  8
DRAFT
100
AcDbLine
 62
7
  6
CONTINUOUS
 10
-12.5649409445
 20
-24.7342494849
 11
-12.556213412
 21
-24.7342494849
  0
LINE
  5
280
100
AcDbEntity
  8
RACCORDO
100
AcDbLine
 62
7
  6
CONTINUOUS
 10
17.1849828915
 20
-24.7342494849
 11
12.5397894451
 21
-24.7342494849
  0
LINE
  5
281
100
AcDbEntity
  8
DRAFT
100
AcDbLine
 62
7
  6
CONTINUOUS
 10
12.5397894451
 20
-24.7342494849
 11
12.5310619127
 21
-24.7342494849
  0
LINE
  5
282
100
AcDbEntity
  8
RACCORDO
100
AcDbLine
 62
7
  6
CONTINUOUS
 10
-12.5649409445
 20
-24.7342494849
 11
-17.2101343909
 21
-24.7342494849
  0
LWPOLYLINE
  5
283
100
AcDbEntity
  8
RACCORDO
100
AcDbPolyline
 62
7
  6
CONTINUOUS
 90
25
 70
0
 10
-17.2275894558
 20
-24.23419668
 10
-17.2670250089
 20
-24.2323678215
 10
-17.3053941181
 20
-24.2279922109
 10
-17.3424930621
 20
-24.2212866055
 10
-17.3781184045
 20
-24.2125170063
 10
-17.4121588585
 20
-24.2018755159
 10
-17.4445851064
 20
-24.189453848
 10
-17.4752867248
 20
-24.1754624994
 10
-17.5042012547
 20
-24.1601101614
 10
-17.5313818165
 20
-24.1434382685
 10
-17.5567815333
 20
-24.1256151081
 10
-17.5803591187
 20
-24.1068245341
 10
-17.6021685875
 20
-24.0870851354
 10
-17.6221927887
 20
-24.0665358137
 10
-17.6404128343
 20
-24.0453344098
 10
-17.6568683608
 20
-24.0234961632
 10
-17.6715614193
 20
-24.0011377024
 10
-17.684490096
 20
-23.9783974526
 10
-17.6956803712
 20
-23.9553045803
 10
-17.7051491061
 20
-23.9319618595
 10
-17.7129128929
 20
-23.9084904564
 10
-17.7189976056
 20
-23.8849365695
 10
-17.7234336245
 20
-23.8613807225
 10
-17.726258175
 20
-23.8379382381
 10
-17.7275133034
 20
-23.8146996693
  0
LWPOLYLINE
  5
284
100
AcDbEntity
  8
RACCORDO
100
AcDbPolyline
 62
250
  6
CONTINUOUS
 90
8
 70
0
 10
17.193710424
 20
-28.2428247009
 10
17.1918247705
 20
-28.2424737372
 10
17.1880733849
 20
-28.2421275233
 10
17.1824562672
 20
-28.2417860593
 10
17.1748408952
 20
-28.2414469321
 10
17.165359791
 20
-28.2411125548
 10
17.154410521
 20
-28.2407901663
 10
17.128107484
 20
-28.2401813557
  0
LINE
  5
285
100
AcDbEntity
  8
RACCORDO
100
AcDbLine
 62
250
  6
CONTINUOUS
 10
-15.4082438185
 20
30.9989981095
 11
-15.6290851577
 21
30.1152962263
  0
LINE
  5
286
100
AcDbEntity
  8
RACCORDO
100
AcDbLine
 62
7
  6
CONTINUOUS
 10
-15.8933259328
 20
30.620527043
 11
-15.8932923569
 21
30.6206613189
  0
LWPOLYLINE
  5
287
100
AcDbEntity
  8
RACCORDO
100
AcDbPolyline
 62
250
  6
CONTINUOUS
 90
17
 70
0
 10
-15.8932923569
 20
30.6206613189
 10
-15.8912211907
 20
30.6286578912
 10
-15.8781127534
 20
30.6702403794
 10
-15.8614269438
 20
30.7105214245
 10
-15.8412908004
 20
30.7491943445
 10
-15.8178576306
 20
30.7859647011
 10
-15.7913058443
 20
30.8205525413
 10
-15.7618375947
 20
30.8526945286
 10
-15.7296772401
 20
30.8821459483
 10
-15.6950696349
 20
30.9086825705
 10
-15.6582782661
 20
30.9321023571
 10
-15.6195832467
 20
30.9522270004
 10
-15.5792791832
 20
30.9689032804
 10
-15.5376729329
 20
30.9820042313
 10
-15.4950812671
 20
30.9914301082
 10
-15.4518284598
 20
30.9971091469
 10
-15.4082438185
 20
30.9989981095
  0
LWPOLYLINE
  5
288
100
AcDbEntity
  8
RACCORDO
100
AcDbPolyline
 62
250
  6
CONTINUOUS
 90
16
 70
0
 10
-15.9359455256
 20
30.6262387144
 10
-15.9241523272
 20
30.6692219617
 10
-15.9087092249
 20
30.7109821216
 10
-15.8897390933
 20
30.7511869253
 10
-15.8673928703
 20
30.7895164792
 10
-15.8418483558
 20
30.8256658108
 10
-15.8133087974
 20
30.8593472942
 10
-15.7820012731
 20
30.8902929395
 10
-15.7481748841
 20
30.9182565246
 10
-15.7120987737
 20
30.9430155547
 10
-15.674059985
 20
30.9643730321
 10
-15.6343611774
 20
30.9821590239
 10
-15.5933182184
 20
30.9962320142
 10
-15.5512576704
 20
31.00648003
 10
-15.5085141924
 20
31.0128215318
 10
-15.465427877
 20
31.0152060628
  0
LWPOLYLINE
  5
289
100
AcDbEntity
  8
RACCORDO
100
AcDbPolyline
 62
7
  6
CONTINUOUS
 90
24
 70
0
 10
-17.2609438874
 20
-24.7368328449
 10
-17.310236529
 20
-24.7430918919
 10
-17.3490793856
 20
-24.7514279801
 10
-17.3859402774
 20
-24.7626809595
 10
-17.4207463487
 20
-24.7765692463
 10
-17.4535806764
 20
-24.7922480885
 10
-17.4843445879
 20
-24.8096268661
 10
-17.5130091591
 20
-24.8287961991
 10
-17.5397624738
 20
-24.8491831962
 10
-17.5645912543
 20
-24.8707312996
 10
-17.5874654753
 20
-24.893497067
 10
-17.608520449
 20
-24.9170772808
 10
-17.6277626504
 20
-24.9414432752
 10
-17.6451823223
 20
-24.966623716
 10
-17.6608629353
 20
-24.9923013822
 10
-17.6748217913
 20
-25.0184685879
 10
-17.687061945
 20
-25.0451330191
 10
-17.6976289901
 20
-25.0720005132
 10
-17.7065494555
 20
-25.0990704973
 10
-17.7138435891
 20
-25.1263435443
 10
-17.719546397
 20
-25.153527211
 10
-17.7236963714
 20
-25.180524016
 10
-17.7263361515
 20
-25.2074314407
 10
-17.7275133034
 20
-25.2342494849
  0
LINE
  5
28A
100
AcDbEntity
  8
RACCORDO
100
AcDbLine
 62
7
  6
CONTINUOUS
 10
-17.2275894558
 20
-24.7343256374
 11
-17.2696616768
 21
-24.737391111
  0
LINE
  5
28B
100
AcDbEntity
  8
RACCORDO
100
AcDbLine
 62
7
  6
CONTINUOUS
 10
-17.2188619233
 20
-24.7343256374
 11
-17.2609438874
 21
-24.7368328449
  0
LINE
  5
28C
100
AcDbEntity
  8
RACCORDO
100
AcDbLine
 62
250
  6
CONTINUOUS
 10
17.3771343107
 20
-22.6965607105
 11
17.2988441088
 21
-22.6980364882
  0
LINE
  5
28D
100
AcDbEntity
  8
RACCORDO
100
AcDbLine
 62
250
  6
CONTINUOUS
 10
17.2988441088
 20
-22.6980364882
 11
17.2155265655
 21
-22.6989642187
  0
LINE
  5
28E
100
AcDbEntity
  8
RACCORDO
100
AcDbLine
 62
250
  6
CONTINUOUS
 10
17.2155265655
 20
-22.6989642187
 11
17.1296574432
 21
-22.6993163347
  0
LINE
  5
28F
100
AcDbEntity
  8
RACCORDO
100
AcDbLine
 62
7
  6
CONTINUOUS
 10
17.1952259441
 20
-24.2342494849
 11
12.5310619127
 21
-24.2342494849
  0
LINE
  5
290
100
AcDbEntity
  8
RACCORDO
100
AcDbLine
 62
7
  6
CONTINUOUS
 10
-12.556213412
 20
-24.2342494849
 11
-17.2203774434
 21
-24.2342494849
  0
LINE
  5
291
100
AcDbEntity
  8
RACCORDO
100
AcDbLine
 62
250
  6
CONTINUOUS
 10
-17.1620141619
 20
-23.6446772739
 11
-12.6145766936
 21
-23.6446772739
  0
LINE
  5
292
100
AcDbEntity
  8
RACCORDO
100
AcDbLine
 62
250
  6
CONTINUOUS
 10
12.5894251942
 20
-23.6446772739
 11
17.1368626625
 21
-23.6446772739
  0
LINE
  5
293
100
AcDbEntity
  8
ASSI
100
AcDbLine
 62
7
  6
CONTINUOUS
 10
3.850544191
 20
-23.4351604849
 11
2.6940791315
 21
-23.4351604849
  0
LINE
  5
294
100
AcDbEntity
  8
ASSI
100
AcDbLine
 62
7
  6
CONTINUOUS
 10
1.3880586795
 20
-23.4351604849
 11
0.4057535938
 21
-23.4351604849
  0
LINE
  5
295
100
AcDbEntity
  8
ASSI
100
AcDbLine
 62
7
  6
CONTINUOUS
 10
-1.1495937497
 20
-23.4351604849
 11
-1.8521994406
 21
-23.4354187641
  0
LINE
  5
296
100
AcDbEntity
  8
RACCORDO
100
AcDbLine
 62
250
  6
CONTINUOUS
 10
12.6038356329
 20
-22.699316738
 11
17.1296574432
 21
-22.699316738
  0
LINE
  5
297
100
AcDbEntity
  8
RACCORDO
100
AcDbLine
 62
250
  6
CONTINUOUS
 10
-17.1979041903
 20
-22.6992136893
 11
-12.6289871322
 21
-22.699316738
  0
LINE
  5
298
100
AcDbEntity
  8
RACCORDO
100
AcDbLine
 62
250
  6
CONTINUOUS
 10
-17.282814101
 20
-22.6985713591
 11
-17.1979041903
 21
-22.6992136893
  0
LINE
  5
299
100
AcDbEntity
  8
RACCORDO
100
AcDbLine
 62
7
  6
CONTINUOUS
 10
17.193710424
 20
-24.7343256374
 11
17.2445199206
 21
-24.7368328449
  0
LWPOLYLINE
  5
29A
100
AcDbEntity
  8
RACCORDO
100
AcDbPolyline
 62
7
  6
CONTINUOUS
 90
24
 70
0
 10
17.2357923881
 20
-24.7368328449
 10
17.2850928321
 20
-24.7426448236
 10
17.3239278863
 20
-24.7514279801
 10
17.360786304
 20
-24.7628227166
 10
17.3955959345
 20
-24.7765070677
 10
17.428429177
 20
-24.7922480885
 10
17.459190868
 20
-24.8097540996
 10
17.4878582496
 20
-24.8287624042
 10
17.5146109745
 20
-24.8491831962
 10
17.5394381511
 20
-24.8708232017
 10
17.562314493
 20
-24.8934674393
 10
17.5833689497
 20
-24.9170772808
 10
17.6026099832
 20
-24.9415101915
 10
17.6200313176
 20
-24.9665953711
 10
17.635711436
 20
-24.9923013822
 10
17.6496694034
 20
-25.0185195023
 10
17.6619109252
 20
-25.0451055396
 10
17.6724774907
 20
-25.0720005132
 10
17.6813972199
 20
-25.0991126882
 10
17.6886925121
 20
-25.1263193452
 10
17.6943948977
 20
-25.153527211
 10
17.6985427743
 20
-25.1806442147
 10
17.7011820706
 20
-25.207579357
 10
17.702361804
 20
-25.2342494849
  0
LWPOLYLINE
  5
29B
100
AcDbEntity
  8
ASSI
100
AcDbPolyline
 62
7
  6
CONTINUOUS
 90
22
 70
0
 10
3.4142982793
 20
-23.6924373735
 10
3.3706118829
 20
-23.6850762301
 10
3.3280403375
 20
-23.6819973453
 10
3.2865836431
 20
-23.683200719
 10
3.2456694036
 20
-23.6892330164
 10
3.2058700151
 20
-23.6995475723
 10
3.1689026659
 20
-23.7125043919
 10
3.1351395546
 20
-23.7274231297
 10
3.1042084826
 20
-23.7449841312
 10
3.0767100429
 20
-23.7655884379
 10
3.0531280213
 20
-23.7895974161
 10
3.032978632
 20
-23.8166496995
 10
3.0154111106
 20
-23.8460622305
 10
3.0011508938
 20
-23.8786035911
 10
2.9894725449
 20
-23.9135051994
 10
2.9773489896
 20
-23.9477782514
 10
2.9647728802
 20
-23.9810647778
 10
2.9517515643
 20
-24.013722748
 10
2.9352800105
 20
-24.0438372656
 10
2.9143565418
 20
-24.0707700319
 10
2.8899828353
 20
-24.0951593456
 10
2.8621588909
 20
-24.1170052068
  0
LWPOLYLINE
  5
29C
100
AcDbEntity
  8
RACCORDO
100
AcDbPolyline
 62
250
  6
CONTINUOUS
 90
22
 70
0
 10
-17.2188619233
 20
-27.7429008534
 10
-17.2170405151
 20
-27.7599706238
 10
-17.2138665999
 20
-27.7769028048
 10
-17.2093401776
 20
-27.7936973964
 10
-17.2033824768
 20
-27.8104431785
 10
-17.1960722689
 20
-27.8270513712
 10
-17.187645869
 20
-27.8432556345
 10
-17.1781032771
 20
-27.8590559685
 10
-17.1674444932
 20
-27.8744523731
 10
-17.1559058322
 20
-27.8891785083
 10
-17.1434872941
 20
-27.9032343742
 10
-17.1301888791
 20
-27.9166199708
 10
-17.1162469019
 20
-27.9290689582
 10
-17.1016613626
 20
-27.9405813362
 10
-17.0864322613
 20
-27.951157105
 10
-17.0707959129
 20
-27.9605299246
 10
-17.0547523173
 20
-27.968699795
 10
-17.0383014747
 20
-27.9756667161
 10
-17.0216796999
 20
-27.9811643481
 10
-17.0049657646
 20
-27.9851039109
 10
-16.9880808972
 20
-27.9875741846
 10
-16.9710250977
 20
-27.9885751692
  0
LWPOLYLINE
  5
29D
100
AcDbEntity
  8
RACCORDO
100
AcDbPolyline
 62
250
  6
CONTINUOUS
 90
19
 70
0
 10
-17.6619380094
 20
-23.1522733974
 10
-17.6599112623
 20
-23.1951059841
 10
-17.6541099491
 20
-23.2376139474
 10
-17.6445780257
 20
-23.2794750308
 10
-17.6313877334
 20
-23.3203718706
 10
-17.6146390444
 20
-23.3599944255
 10
-17.5944588978
 20
-23.3980423245
 10
-17.5710002509
 20
-23.4342271127
 10
-17.5444409259
 20
-23.4682744436
 10
-17.5149822492
 20
-23.4999261799
 10
-17.482847526
 20
-23.5289423454
 10
-17.4482803641
 20
-23.5551029306
 10
-17.4115428298
 20
-23.5782095675
 10
-17.3729134248
 20
-23.5980870572
 10
-17.3326850094
 20
-23.6145846739
 10
-17.2911626054
 20
-23.6275773071
 10
-17.2486610239
 20
-23.6369664376
 10
-17.2055024742
 20
-23.6426808726
 10
-17.1620141619
 20
-23.6446772739
  0
LWPOLYLINE
  5
29E
100
AcDbEntity
  8
RACCORDO
100
AcDbPolyline
 62
250
  6
CONTINUOUS
 90
19
 70
0
 10
-17.7187857709
 20
-27.7429008534
 10
-17.7169065283
 20
-27.7860555965
 10
-17.7112896433
 20
-27.8289994405
 10
-17.7019482326
 20
-27.8714063168
 10
-17.6889112628
 20
-27.9129854489
 10
-17.6722561553
 20
-27.9533750603
 10
-17.6521391914
 20
-27.9921574949
 10
-17.6287374767
 20
-28.0290030181
 10
-17.6022121068
 20
-28.0636680315
 10
-17.5727582332
 20
-28.0958954075
 10
-17.5405934799
 20
-28.1254419421
 10
-17.5059657701
 20
-28.1520752314
 10
-17.4691464055
 20
-28.1755849893
 10
-17.4304192741
 20
-28.1957904365
 10
-17.3900774225
 20
-28.2125391429
 10
-17.3484292762
 20
-28.2257031394
 10
-17.3057929278
 20
-28.2351820582
 10
-17.2624936508
 20
-28.2409037541
 10
-17.2188619233
 20
-28.2428247009
  0
LINE
  5
29F
100
AcDbEntity
  8
RACCORDO
100
AcDbLine
 62
250
  6
CONTINUOUS
 10
-17.6583371509
 20
11.1964213354
 11
-17.6592912815
 21
11.2308271959
  0
LINE
  5
2A0
100
AcDbEntity
  8
RACCORDO
100
AcDbLine
 62
250
  6
CONTINUOUS
 10
-17.6574663141
 20
11.1551643324
 11
-17.6583371509
 21
11.1964213354
  0
LINE
  5
2A1
100
AcDbEntity
  8
RACCORDO
100
AcDbLine
 62
250
  6
CONTINUOUS
 10
-17.6563540078
 20
11.082178559
 11
-17.6574663141
 21
11.1551643324
  0
LINE
  5
2A2
100
AcDbEntity
  8
RACCORDO
100
AcDbLine
 62
250
  6
CONTINUOUS
 10
-17.6555084304
 20
10.9982847234
 11
-17.6563540078
 21
11.082178559
  0
LINE
  5
2A3
100
AcDbEntity
  8
RACCORDO
100
AcDbLine
 62
250
  6
CONTINUOUS
 10
-17.6548496771
 20
10.875257229
 11
-17.6555084304
 21
10.9982847234
  0
LINE
  5
2A4
100
AcDbEntity
  8
RACCORDO
100
AcDbLine
 62
250
  6
CONTINUOUS
 10
-17.6490367974
 20
-4.0730726287
 11
-17.6548496771
 21
10.875257229
  0
LINE
  5
2A5
100
AcDbEntity
  8
RACCORDO
100
AcDbLine
 62
7
  6
CONTINUOUS
 10
-17.7625757497
 20
-38.2501294985
 11
-17.7625757497
 21
29.0151974368
  0
LINE
  5
2A6
100
AcDbEntity
  8
ASSI
100
AcDbLine
 62
7
  6
CONTINUOUS
 10
-17.7625757497
 20
29.0151974368
 11
-17.7625757497
 21
32.5142836773
  0
LINE
  5
2A7
100
AcDbEntity
  8
RACCORDO
100
AcDbLine
 62
7
  6
CONTINUOUS
 10
-17.7625757497
 20
32.5142836773
 11
-17.7625757497
 21
38.2501294985
  0
LINE
  5
2A8
100
AcDbEntity
  8
RACCORDO
100
AcDbLine
 62
250
  6
CONTINUOUS
 10
-17.7275133034
 20
-25.2342494849
 11
-17.7275133034
 21
-23.8146996693
  0
LINE
  5
2A9
100
AcDbEntity
  8
RACCORDO
100
AcDbLine
 62
250
  6
CONTINUOUS
 10
-17.7275133034
 20
11.9462006995
 11
-17.7275133034
 21
13.3657505151
  0
LINE
  5
2AA
100
AcDbEntity
  8
RACCORDO
100
AcDbLine
 62
250
  6
CONTINUOUS
 10
-17.7187857709
 20
-27.7429008534
 11
-17.7187857709
 21
-25.2342494849
  0
LINE
  5
2AB
100
AcDbEntity
  8
RACCORDO
100
AcDbLine
 62
250
  6
CONTINUOUS
 10
-17.7187857709
 20
13.3657505151
 11
-17.7187857709
 21
15.8744018835
  0
LINE
  5
2AC
100
AcDbEntity
  8
RACCORDO
100
AcDbLine
 62
250
  6
CONTINUOUS
 10
-17.6507455936
 20
-15.2385120947
 11
-17.6490367974
 21
-4.0730726287
  0
LINE
  5
2AD
100
AcDbEntity
  8
RACCORDO
100
AcDbLine
 62
250
  6
CONTINUOUS
 10
-17.655108896
 20
-22.8062767109
 11
-17.6507455936
 21
-15.2385120947
  0
LINE
  5
2AE
100
AcDbEntity
  8
RACCORDO
100
AcDbLine
 62
250
  6
CONTINUOUS
 10
-17.656042046
 20
-22.923869815
 11
-17.655108896
 21
-22.8062767109
  0
LINE
  5
2AF
100
AcDbEntity
  8
RACCORDO
100
AcDbLine
 62
250
  6
CONTINUOUS
 10
-17.6570701878
 20
-23.0008238223
 11
-17.656042046
 21
-22.923869815
  0
LWPOLYLINE
  5
2B0
100
AcDbEntity
  8
RACCORDO
100
AcDbPolyline
 62
250
  6
CONTINUOUS
 90
19
 70
0
 10
-17.7187857709
 20
15.8744018835
 10
-17.7168708783
 20
15.9179646925
 10
-17.7111673056
 20
15.9611960907
 10
-17.7017184437
 20
16.0037671886
 10
-17.6885961762
 20
16.0453541199
 10
-17.6719003328
 20
16.0856405057
 10
-17.6517579298
 20
16.124319861
 10
-17.6283222034
 20
16.1610979267
 10
-17.6017714447
 20
16.195694908
 10
-17.5723076427
 20
16.2278476029
 10
-17.5401549478
 20
16.2573114049
 10
-17.5055579665
 20
16.2838621636
 10
-17.4687799008
 20
16.3072978899
 10
-17.4301005455
 20
16.327440293
 10
-17.3898141597
 20
16.3441361364
 10
-17.3482272284
 20
16.3572584039
 10
-17.3056561305
 20
16.3667072658
 10
-17.2624247323
 20
16.3724108385
 10
-17.2188619233
 20
16.3743257311
  0
LWPOLYLINE
  5
2B1
100
AcDbEntity
  8
RACCORDO
100
AcDbPolyline
 62
250
  6
CONTINUOUS
 90
19
 70
0
 10
-17.6619380094
 20
11.2837744275
 10
-17.6599111846
 20
11.3266078607
 10
-17.654109661
 20
11.3691165615
 10
-17.6445774217
 20
11.4109782594
 10
-17.6313867333
 20
11.4518755888
 10
-17.6146375981
 20
11.4914984957
 10
-17.5944569962
 20
11.5295465873
 10
-17.5709979223
 20
11.5657314105
 10
-17.5444382264
 20
11.5997786377
 10
-17.5149792651
 20
11.6314301473
 10
-17.482844375
 20
11.6604459801
 10
-17.4482771801
 20
11.6866061589
 10
-17.4115397438
 20
11.709712356
 10
-17.3729105833
 20
11.7295893967
 10
-17.3326825571
 20
11.7460865875
 10
-17.2911606454
 20
11.7590788586
 10
-17.2486596374
 20
11.7684677117
 10
-17.2055017455
 20
11.7741819673
 10
-17.1620141619
 20
11.776178304
  0
LWPOLYLINE
  5
2B2
100
AcDbEntity
  8
RACCORDO
100
AcDbPolyline
 62
250
  6
CONTINUOUS
 90
19
 70
0
 10
-15.9128101204
 20
29.868691454
 10
-15.9144419609
 20
29.8442222034
 10
-15.9198931978
 20
29.8163075594
 10
-15.9291276435
 20
29.788823035
 10
-15.9420744395
 20
29.761979585
 10
-15.958634232
 20
29.7359832475
 10
-15.9786799334
 20
29.7110335616
 10
-16.0020577012
 20
29.6873220313
 10
-16.0285881151
 20
29.6650306598
 10
-16.0580675494
 20
29.6443305549
 10
-16.0902697475
 20
29.6253806062
 10
-16.1249475507
 20
29.6083262718
 10
-16.1618347866
 20
29.593298465
 10
-16.2006483329
 20
29.5804125383
 10
-16.2410902787
 20
29.5697674055
 10
-16.2828501975
 20
29.5614447839
 10
-16.3256075546
 20
29.5555085595
 10
-16.3690341687
 20
29.5520043
 10
-16.4127967154
 20
29.5509589075
  0
LWPOLYLINE
  5
2B3
100
AcDbEntity
  8
RACCORDO
100
AcDbPolyline
 62
250
  6
CONTINUOUS
 90
22
 70
0
 10
-17.2188619233
 20
15.8744018835
 10
-17.2174234128
 20
15.891487358
 10
-17.2145675971
 20
15.9084325854
 10
-17.2102944765
 20
15.9252375658
 10
-17.2045193883
 20
15.9419908375
 10
-17.1973269951
 20
15.9586038622
 10
-17.188971284
 20
15.9748110248
 10
-17.179452255
 20
15.9906123251
 10
-17.1687699082
 20
16.0060077633
 10
-17.1571782306
 20
16.0207317241
 10
-17.1446772223
 20
16.0347842076
 10
-17.1312668833
 20
16.0481652138
 10
-17.1172012007
 20
16.0606091275
 10
-17.1024801746
 20
16.0721159488
 10
-17.0871038049
 20
16.0826856776
 10
-17.0713260789
 20
16.0920526988
 10
-17.0551469965
 20
16.1002170123
 10
-17.0385665577
 20
16.1071786183
 10
-17.0218387497
 20
16.1126719014
 10
-17.0050482349
 20
16.1166083235
 10
-16.9881103509
 20
16.1190764228
 10
-16.9710250977
 20
16.1200761993
  0
LINE
  5
2B4
100
AcDbEntity
  8
0
100
AcDbLine
 62
7
  6
CONTINUOUS
 10
-12.5606533364
 20
16.3700381231
 11
-12.5125757497
 21
16.4181157099
  0
LWPOLYLINE
  5
2B5
100
AcDbEntity
  8
RACCORDO
100
AcDbPolyline
 62
250
  6
CONTINUOUS
 90
14
 70
0
 10
-17.6547327901
 20
10.8110941596
 10
-17.6521203137
 20
10.8127943688
 10
-17.645806588
 20
10.8144819224
 10
-17.6358386029
 20
10.8161442605
 10
-17.6222905454
 20
10.8177690113
 10
-17.6052632472
 20
10.8193440825
 10
-17.5848834342
 20
10.8208577516
 10
-17.5613027838
 20
10.8222987531
 10
-17.5346967953
 20
10.8236563624
 10
-17.5052634844
 20
10.8249204752
 10
-17.4732219092
 20
10.8260816836
 10
-17.4388105396
 20
10.8271313451
 10
-17.4022854832
 20
10.8280616477
 10
-17.3639185783
 20
10.8288656674
  0
LWPOLYLINE
  5
2B6
100
AcDbEntity
  8
RACCORDO
100
AcDbPolyline
 62
7
  6
CONTINUOUS
 90
23
 70
0
 10
-17.3015167989
 20
-24.7426448236
 10
-17.3403518532
 20
-24.7514279801
 10
-17.3772102709
 20
-24.7628227166
 10
-17.4120199014
 20
-24.7765070677
 10
-17.4448531439
 20
-24.7922480885
 10
-17.4756148349
 20
-24.8097540996
 10
-17.5042822165
 20
-24.8287624042
 10
-17.5310349414
 20
-24.8491831962
 10
-17.555862118
 20
-24.8708232017
 10
-17.5787384599
 20
-24.8934674393
 10
-17.5997929165
 20
-24.9170772808
 10
-17.61903395
 20
-24.9415101915
 10
-17.6364552845
 20
-24.9665953711
 10
-17.6521354028
 20
-24.9923013822
 10
-17.6660933703
 20
-25.0185195023
 10
-17.6783348921
 20
-25.0451055396
 10
-17.6889014576
 20
-25.0720005132
 10
-17.6978211867
 20
-25.0991126882
 10
-17.705116479
 20
-25.1263193452
 10
-17.7108188646
 20
-25.153527211
 10
-17.7149667412
 20
-25.1806442147
 10
-17.7176060375
 20
-25.207579357
 10
-17.7187857709
 20
-25.2342494849
  0
LWPOLYLINE
  5
2B7
100
AcDbEntity
  8
RACCORDO
100
AcDbPolyline
 62
7
  6
CONTINUOUS
 90
23
 70
0
 10
17.2763652996
 20
-24.7426448236
 10
17.3152003538
 20
-24.7514279801
 10
17.3520587716
 20
-24.7628227166
 10
17.3868684021
 20
-24.7765070677
 10
17.4197016446
 20
-24.7922480885
 10
17.4504633356
 20
-24.8097540996
 10
17.4791307171
 20
-24.8287624042
 10
17.505883442
 20
-24.8491831962
 10
17.5307106186
 20
-24.8708232017
 10
17.5535869606
 20
-24.8934674393
 10
17.5746414172
 20
-24.9170772808
 10
17.5938824507
 20
-24.9415101915
 10
17.6113037852
 20
-24.9665953711
 10
17.6269839035
 20
-24.9923013822
 10
17.6409418709
 20
-25.0185195023
 10
17.6531833928
 20
-25.0451055396
 10
17.6637499582
 20
-25.0720005132
 10
17.6726696874
 20
-25.0991126882
 10
17.6799649797
 20
-25.1263193452
 10
17.6856673652
 20
-25.153527211
 10
17.6898152418
 20
-25.1806442147
 10
17.6924545382
 20
-25.207579357
 10
17.6936342716
 20
-25.2342494849
  0
LINE
  5
2B8
100
AcDbEntity
  8
RACCORDO
100
AcDbLine
 62
7
  6
CONTINUOUS
 10
11.7123230778
 20
-37.9539123165
 11
10.838530407
 21
-37.0801196456
  0
LINE
  5
2B9
100
AcDbEntity
  8
RACCORDO
100
AcDbLine
 62
250
  6
CONTINUOUS
 10
-17.6619380094
 20
11.2837744275
 11
-17.7275133034
 21
11.9462006995
  0
LINE
  5
2BA
100
AcDbEntity
  8
RACCORDO
100
AcDbLine
 62
250
  6
CONTINUOUS
 10
-17.1620141619
 20
11.776178304
 11
-17.2203774434
 21
12.3657505151
  0
LINE
  5
2BB
100
AcDbEntity
  8
RACCORDO
100
AcDbLine
 62
7
  6
CONTINUOUS
 10
-12.556213412
 20
-24.2342494849
 11
-12.6145766936
 21
-23.6446772739
  0
LINE
  5
2BC
100
AcDbEntity
  8
RACCORDO
100
AcDbLine
 62
7
  6
CONTINUOUS
 10
-12.533751814
 20
-22.2272127451
 11
-12.5843150653
 21
-21.7164346145
  0
LWPOLYLINE
  5
2BD
100
AcDbEntity
  8
RACCORDO
100
AcDbPolyline
 62
250
  6
CONTINUOUS
 90
6
 70
0
 10
-17.6592912815
 20
11.2308271959
 10
-17.6597974513
 20
11.2453616784
 10
-17.6603159076
 20
11.2579419782
 10
-17.6608443217
 20
11.2685069774
 10
-17.6613850223
 20
11.2771177938
 10
-17.6619380094
 20
11.2837744275
  0
LWPOLYLINE
  5
2BE
100
AcDbEntity
  8
RACCORDO
100
AcDbPolyline
 62
250
  6
CONTINUOUS
 90
7
 70
0
 10
-16.61368988
 20
25.8823529474
 10
-16.6127500486
 20
25.8532298396
 10
-16.6117909367
 20
25.8288209222
 10
-16.6108270822
 20
25.8092557384
 10
-16.6098633309
 20
25.7945298292
 10
-16.6088948371
 20
25.7845726219
 10
-16.6079216006
 20
25.7793292924
  0
LWPOLYLINE
  5
2BF
100
AcDbEntity
  8
RACCORDO
100
AcDbPolyline
 62
250
  6
CONTINUOUS
 90
3
 70
0
 10
-17.1609162475
 20
11.7455859606
 10
-17.1614586442
 20
11.7629093778
 10
-17.1620141619
 20
11.776178304
  0
LINE
  5
2C0
100
AcDbEntity
  8
RACCORDO
100
AcDbLine
 62
250
  6
CONTINUOUS
 10
-16.6155099562
 20
25.9544197851
 11
-16.61368988
 21
25.8823529474
  0
LINE
  5
2C1
100
AcDbEntity
  8
RACCORDO
100
AcDbLine
 62
250
  6
CONTINUOUS
 10
-17.1598687781
 20
11.6990853535
 11
-17.1609162475
 21
11.7455859606
  0
LINE
  5
2C2
100
AcDbEntity
  8
RACCORDO
100
AcDbLine
 62
250
  6
CONTINUOUS
 10
-16.6172155519
 20
26.0436854526
 11
-16.6155099562
 21
25.9544197851
  0
LINE
  5
2C3
100
AcDbEntity
  8
RACCORDO
100
AcDbLine
 62
250
  6
CONTINUOUS
 10
-17.1588778712
 20
11.6374534984
 11
-17.1598687781
 21
11.6990853535
  0
LINE
  5
2C4
100
AcDbEntity
  8
RACCORDO
100
AcDbLine
 62
250
  6
CONTINUOUS
 10
-16.6195152877
 20
26.2065538741
 11
-16.6172155519
 21
26.0436854526
  0
LINE
  5
2C5
100
AcDbEntity
  8
RACCORDO
100
AcDbLine
 62
250
  6
CONTINUOUS
 10
-17.1571451854
 20
11.4731096899
 11
-17.1588778712
 21
11.6374534984
  0
LINE
  5
2C6
100
AcDbEntity
  8
RACCORDO
100
AcDbLine
 62
250
  6
CONTINUOUS
 10
-16.6225305092
 20
26.5448881727
 11
-16.6195152877
 21
26.2065538741
  0
LINE
  5
2C7
100
AcDbEntity
  8
RACCORDO
100
AcDbLine
 62
7
  6
CONTINUOUS
 10
-16.1192795027
 20
25.8253174223
 11
-16.122467
 21
26.2887127228
  0
LINE
  5
2C8
100
AcDbEntity
  8
RACCORDO
100
AcDbLine
 62
250
  6
CONTINUOUS
 10
-17.155369784
 20
11.1459874667
 11
-17.1571451854
 21
11.4731096899
  0
LINE
  5
2C9
100
AcDbEntity
  8
RACCORDO
100
AcDbLine
 62
250
  6
CONTINUOUS
 10
-16.6245149943
 20
27.0280609488
 11
-16.6225305092
 21
26.5448881727
  0
LINE
  5
2CA
100
AcDbEntity
  8
RACCORDO
100
AcDbLine
 62
7
  6
CONTINUOUS
 10
-16.122467
 20
26.2887127228
 11
-16.1247466655
 21
27.1862802938
  0
LINE
  5
2CB
100
AcDbEntity
  8
RACCORDO
100
AcDbLine
 62
250
  6
CONTINUOUS
 10
-17.2275894558
 20
-24.7343256374
 11
-17.2275894558
 21
-24.23419668
  0
LINE
  5
2CC
100
AcDbEntity
  8
RACCORDO
100
AcDbLine
 62
250
  6
CONTINUOUS
 10
-17.2275894558
 20
12.3656977101
 11
-17.2275894558
 21
12.8658266675
  0
LINE
  5
2CD
100
AcDbEntity
  8
RACCORDO
100
AcDbLine
 62
250
  6
CONTINUOUS
 10
-17.2188619233
 20
-27.7429008534
 11
-17.2188619233
 21
-24.7343256374
  0
LINE
  5
2CE
100
AcDbEntity
  8
RACCORDO
100
AcDbLine
 62
250
  6
CONTINUOUS
 10
-17.2188619233
 20
12.8658266675
 11
-17.2188619233
 21
15.8744018835
  0
LINE
  5
2CF
100
AcDbEntity
  8
RACCORDO
100
AcDbLine
 62
250
  6
CONTINUOUS
 10
-17.1491129466
 20
-7.7975121459
 11
-17.155369784
 21
11.1459874667
  0
LINE
  5
2D0
100
AcDbEntity
  8
RACCORDO
100
AcDbLine
 62
250
  6
CONTINUOUS
 10
-16.9710250977
 20
16.3700381231
 11
-16.9710250977
 21
16.1200761993
  0
LINE
  5
2D1
100
AcDbEntity
  8
RACCORDO
100
AcDbLine
 62
250
  6
CONTINUOUS
 10
-16.9710250977
 20
-27.9885751692
 11
-16.9710250977
 21
-28.2385370929
  0
LINE
  5
2D2
100
AcDbEntity
  8
RACCORDO
100
AcDbLine
 62
250
  6
CONTINUOUS
 10
-15.6290851577
 20
26.3651079123
 11
-15.6290851577
 21
30.1152962263
  0
LINE
  5
2D3
100
AcDbEntity
  8
RACCORDO
100
AcDbLine
 62
250
  6
CONTINUOUS
 10
-17.1525305442
 20
-18.9750830114
 11
-17.1491129466
 21
-7.7975121459
  0
LINE
  5
2D4
100
AcDbEntity
  8
RACCORDO
100
AcDbLine
 62
250
  6
CONTINUOUS
 10
-16.6243068485
 20
27.6664049195
 11
-16.6245149943
 21
27.0280609488
  0
LINE
  5
2D5
100
AcDbEntity
  8
RACCORDO
100
AcDbLine
 62
250
  6
CONTINUOUS
 10
-17.1558359879
 20
-23.1320248456
 11
-17.1525305442
 21
-18.9750830114
  0
LINE
  5
2D6
100
AcDbEntity
  8
RACCORDO
100
AcDbLine
 62
7
  6
CONTINUOUS
 10
-16.1247466655
 20
27.1862802938
 11
-16.1209809196
 21
28.5683690844
  0
LINE
  5
2D7
100
AcDbEntity
  8
RACCORDO
100
AcDbLine
 62
250
  6
CONTINUOUS
 10
-16.6219258612
 20
28.1466172609
 11
-16.6243068485
 21
27.6664049195
  0
LINE
  5
2D8
100
AcDbEntity
  8
RACCORDO
100
AcDbLine
 62
250
  6
CONTINUOUS
 10
-16.3981575653
 20
31.5501022628
 11
-16.4142539372
 21
29.3140324752
  0
LINE
  5
2D9
100
AcDbEntity
  8
RACCORDO
100
AcDbLine
 62
250
  6
CONTINUOUS
 10
-17.1575422953
 20
-23.3874176064
 11
-17.1558359879
 21
-23.1320248456
  0
LINE
  5
2DA
100
AcDbEntity
  8
RACCORDO
100
AcDbLine
 62
7
  6
CONTINUOUS
 10
-16.1209809196
 20
28.5683690844
 11
-16.1178886012
 21
28.9148725287
  0
LINE
  5
2DB
100
AcDbEntity
  8
RACCORDO
100
AcDbLine
 62
250
  6
CONTINUOUS
 10
-16.6193453624
 20
28.4131676892
 11
-16.6219258612
 21
28.1466172609
  0
LINE
  5
2DC
100
AcDbEntity
  8
RACCORDO
100
AcDbLine
 62
7
  6
CONTINUOUS
 10
-15.9142847289
 20
29.7088833885
 11
-15.9081615464
 21
30.5035073917
  0
LINE
  5
2DD
100
AcDbEntity
  8
RACCORDO
100
AcDbLine
 62
250
  6
CONTINUOUS
 10
-16.4142539372
 20
29.3140324752
 11
-16.4159887084
 21
29.140594951
  0
LINE
  5
2DE
100
AcDbEntity
  8
RACCORDO
100
AcDbLine
 62
250
  6
CONTINUOUS
 10
-17.1588779231
 20
-23.5059528627
 11
-17.1575422953
 21
-23.3874176064
  0
LINE
  5
2DF
100
AcDbEntity
  8
RACCORDO
100
AcDbLine
 62
7
  6
CONTINUOUS
 10
-16.1178886012
 20
28.9148725287
 11
-16.1158895639
 21
29.0647600673
  0
LINE
  5
2E0
100
AcDbEntity
  8
RACCORDO
100
AcDbLine
 62
7
  6
CONTINUOUS
 10
-15.915364209
 20
29.6294248267
 11
-15.9142847289
 21
29.7088833885
  0
LINE
  5
2E1
100
AcDbEntity
  8
RACCORDO
100
AcDbLine
 62
250
  6
CONTINUOUS
 10
-16.61697757
 20
28.5757881017
 11
-16.6193453624
 21
28.4131676892
  0
LINE
  5
2E2
100
AcDbEntity
  8
RACCORDO
100
AcDbLine
 62
7
  6
CONTINUOUS
 10
-16.1158895639
 20
29.0647600673
 11
-16.1151005657
 21
29.1123767801
  0
LWPOLYLINE
  5
2E3
100
AcDbEntity
  8
RACCORDO
100
AcDbPolyline
 62
250
  6
CONTINUOUS
 90
7
 70
0
 10
-16.4159887084
 20
29.140594951
 10
-16.4169299171
 20
29.0806854566
 10
-16.4174153727
 20
29.057827144
 10
-16.4179061416
 20
29.03979483
 10
-16.4184006906
 20
29.0266497445
 10
-16.418900553
 20
29.0184406156
 10
-16.4194057287
 20
29.0151974368
  0
LINE
  5
2E4
100
AcDbEntity
  8
RACCORDO
100
AcDbLine
 62
250
  6
CONTINUOUS
 10
-17.1598688517
 20
-23.5675874063
 11
-17.1588779231
 21
-23.5059528627
  0
LINE
  5
2E5
100
AcDbEntity
  8
RACCORDO
100
AcDbLine
 62
250
  6
CONTINUOUS
 10
-17.6578901885
 20
-23.0450975882
 11
-17.6570701878
 21
-23.0008238223
  0
LINE
  5
2E6
100
AcDbEntity
  8
RACCORDO
100
AcDbLine
 62
7
  6
CONTINUOUS
 10
-15.9161657931
 20
29.584941181
 11
-15.915364209
 21
29.6294248267
  0
LINE
  5
2E7
100
AcDbEntity
  8
RACCORDO
100
AcDbLine
 62
250
  6
CONTINUOUS
 10
-16.6152238055
 20
28.6640042163
 11
-16.61697757
 21
28.5757881017
  0
LINE
  5
2E8
100
AcDbEntity
  8
RACCORDO
100
AcDbLine
 62
7
  6
CONTINUOUS
 10
-15.9168298767
 20
29.5558273156
 11
-15.9161657931
 21
29.584941181
  0
LINE
  5
2E9
100
AcDbEntity
  8
RACCORDO
100
AcDbLine
 62
7
  6
CONTINUOUS
 10
-15.917353381
 20
29.5371848549
 11
-15.9168298767
 21
29.5558273156
  0
LINE
  5
2EA
100
AcDbEntity
  8
RACCORDO
100
AcDbLine
 62
7
  6
CONTINUOUS
 10
-15.9177294607
 20
29.5258613113
 11
-15.917353381
 21
29.5371848549
  0
LWPOLYLINE
  5
2EB
100
AcDbEntity
  8
RACCORDO
100
AcDbPolyline
 62
250
  6
CONTINUOUS
 90
4
 70
0
 10
-17.1620141619
 20
-23.6446772739
 10
-17.1614586886
 20
-23.6314095996
 10
-17.1609163221
 20
-23.6140874747
 10
-17.1598688517
 20
-23.5675874063
  0
LWPOLYLINE
  5
2EC
100
AcDbEntity
  8
RACCORDO
100
AcDbPolyline
 62
7
  6
CONTINUOUS
 90
5
 70
0
 10
-15.9081616954
 20
30.5035117127
 10
-15.9066310338
 20
30.5390311153
 10
-15.902236675
 20
30.5765140779
 10
-15.8950219389
 20
30.613525994
 10
-15.8932925135
 20
30.6206613563
  0
LWPOLYLINE
  5
2ED
100
AcDbEntity
  8
RACCORDO
100
AcDbPolyline
 62
250
  6
CONTINUOUS
 90
8
 70
0
 10
-17.6619380094
 20
-23.1522733974
 10
-17.6613847684
 20
-23.1456105231
 10
-17.6608439366
 20
-23.1369965855
 10
-17.6603155141
 20
-23.1264315845
 10
-17.6597972061
 20
-23.1138540533
 10
-17.6592913074
 20
-23.0993254587
 10
-17.6588047024
 20
-23.0830302013
 10
-17.6578901885
 20
-23.0450975882
  0
LINE
  5
2EE
100
AcDbEntity
  8
RACCORDO
100
AcDbLine
 62
250
  6
CONTINUOUS
 10
-17.7275133034
 20
-23.8146996693
 11
-17.6619380094
 21
-23.1522733974
  0
LINE
  5
2EF
100
AcDbEntity
  8
RACCORDO
100
AcDbLine
 62
250
  6
CONTINUOUS
 10
-17.2203774434
 20
-24.2342494849
 11
-17.1620141619
 21
-23.6446772739
  0
LWPOLYLINE
  5
2F0
100
AcDbEntity
  8
0
100
AcDbPolyline
 62
7
  6
CONTINUOUS
 90
3
 70
0
 43
0.3500000006
 10
0.9159956882
 20
47.2858429871
 10
0.8445671253
 20
47.0715585022
 10
0.7017099996
 20
46.7858428345
  0
LINE
  5
2F1
100
AcDbEntity
  8
DRAFT
100
AcDbLine
 62
7
  6
CONTINUOUS
 10
-12.5125757497
 20
-12.7256682005
 11
-12.59541949
 21
-12.6842494849
  0
LINE
  5
2F2
100
AcDbEntity
  8
DRAFT
100
AcDbLine
 62
7
  6
CONTINUOUS
 10
6.2714590347
 20
-30.4682842693
 11
6.2374242503
 21
-30.4342494849
  0
LINE
  5
2F3
100
AcDbEntity
  8
0
100
AcDbLine
 62
7
  6
CONTINUOUS
 10
-12.5649409445
 20
-27.9885751692
 11
-12.5649409445
 21
-24.7342494849
  0
LINE
  5
2F4
100
AcDbEntity
  8
0
100
AcDbLine
 62
7
  6
CONTINUOUS
 10
-12.5649409445
 20
12.8657505151
 11
-12.5649409445
 21
16.1200761993
  0
LINE
  5
2F5
100
AcDbEntity
  8
DRAFT
100
AcDbLine
 62
7
  6
CONTINUOUS
 10
-12.556213412
 20
-24.7342494849
 11
-12.556213412
 21
-24.2342494849
  0
LINE
  5
2F6
100
AcDbEntity
  8
DRAFT
100
AcDbLine
 62
7
  6
CONTINUOUS
 10
-12.556213412
 20
12.3657505151
 11
-12.556213412
 21
12.8657505151
  0
LINE
  5
2F7
100
AcDbEntity
  8
RACCORDO
100
AcDbLine
 62
7
  6
CONTINUOUS
 10
-12.5265398016
 20
-25.5342494849
 11
-12.5265398016
 21
-22.7196166216
  0
LINE
  5
2F8
100
AcDbEntity
  8
RACCORDO
100
AcDbLine
 62
7
  6
CONTINUOUS
 10
-12.5265398016
 20
10.8511176517
 11
-12.5265398016
 21
13.6657505151
  0
LINE
  5
2F9
100
AcDbEntity
  8
DRAFT
100
AcDbLine
 62
7
  6
CONTINUOUS
 10
-12.5125757497
 20
16.5657505151
 11
-12.5125757497
 21
14.1657505151
  0
LINE
  5
2FA
100
AcDbEntity
  8
DRAFT
100
AcDbLine
 62
7
  6
CONTINUOUS
 10
-12.5125757497
 20
1.9743317995
 11
-12.5125757497
 21
0.8571692306
  0
LINE
  5
2FB
100
AcDbEntity
  8
DRAFT
100
AcDbLine
 62
7
  6
CONTINUOUS
 10
-12.5125757497
 20
-12.7256682005
 11
-12.5125757497
 21
-13.8428307694
  0
LINE
  5
2FC
100
AcDbEntity
  8
DRAFT
100
AcDbLine
 62
7
  6
CONTINUOUS
 10
-12.5125757497
 20
-26.0342494849
 11
-12.5125757497
 21
-28.4342494849
  0
LINE
  5
2FD
100
AcDbEntity
  8
RACCORDO
100
AcDbLine
 62
7
  6
CONTINUOUS
 10
-11.5343247554
 20
26.3651079123
 11
-11.5343247554
 21
29.6156008127
  0
LINE
  5
2FE
100
AcDbEntity
  8
RACCORDO
100
AcDbLine
 62
7
  6
CONTINUOUS
 10
-12.6145766936
 20
11.776178304
 11
-12.556213412
 21
12.3657505151
  0
LINE
  5
2FF
100
AcDbEntity
  8
RACCORDO
100
AcDbLine
 62
7
  6
CONTINUOUS
 10
-12.5843150653
 20
9.8479356446
 11
-12.533751814
 21
10.3587137752
  0
LINE
  5
300
100
AcDbEntity
  8
0
100
AcDbLine
 62
7
  6
CONTINUOUS
 10
-8.1125757497
 20
17.3157505151
 11
-8.1125757497
 21
16.5657505151
  0
LINE
  5
301
100
AcDbEntity
  8
0
100
AcDbLine
 62
7
  6
CONTINUOUS
 10
-8.1125757497
 20
-29.1842494849
 11
-8.1125757497
 21
-28.4342494849
  0
LINE
  5
302
100
AcDbEntity
  8
ASSI
100
AcDbLine
 62
7
  6
CONTINUOUS
 10
-6.0439847497
 20
14.0646465151
 11
-6.9125527497
 21
11.3625185151
  0
LINE
  5
303
100
AcDbEntity
  8
ASSI
100
AcDbLine
 62
7
  6
CONTINUOUS
 10
-6.5057837497
 20
10.1657505151
 11
-5.2525297497
 21
14.0646465151
  0
LINE
  5
304
100
AcDbEntity
  8
RACCORDO
100
AcDbLine
 62
7
  6
CONTINUOUS
 10
10.838530407
 20
25.2116206758
 11
11.49232223
 21
25.8654124988
  0
LINE
  5
305
100
AcDbEntity
  8
DRAFT
100
AcDbLine
 62
7
  6
CONTINUOUS
 10
6.2714590347
 20
18.5997852995
 11
6.2374242503
 21
18.5657505151
  0
LINE
  5
306
100
AcDbEntity
  8
DRAFT
100
AcDbLine
 62
7
  6
CONTINUOUS
 10
12.5699038662
 20
-13.8840674366
 11
12.4874242503
 21
-13.8428307694
  0
LINE
  5
307
100
AcDbEntity
  8
RACCORDO
100
AcDbLine
 62
250
  6
CONTINUOUS
 10
17.193710424
 20
-28.2428247009
 11
17.2375004028
 21
-28.2866146797
  0
LINE
  5
308
100
AcDbEntity
  8
RACCORDO
100
AcDbLine
 62
250
  6
CONTINUOUS
 10
17.6936342716
 20
-27.7429008534
 11
17.7374242503
 21
-27.7866908321
  0
LWPOLYLINE
  5
309
100
AcDbEntity
  8
RACCORDO
100
AcDbPolyline
 62
250
  6
CONTINUOUS
 90
5
 70
0
 10
-15.9200899643
 20
30.5851557467
 10
-15.9145763922
 20
30.5642433547
 10
-15.9107349937
 20
30.5430054705
 10
-15.9086061612
 20
30.5213800708
 10
-15.9081612147
 20
30.503552739
  0
LINE
  5
30A
100
AcDbEntity
  8
DRAFT
100
AcDbLine
 62
7
  6
CONTINUOUS
 10
-6.2966105341
 20
-29.1842494849
 11
-6.2966105341
 21
-30.4682842693
  0
LINE
  5
30B
100
AcDbEntity
  8
DRAFT
100
AcDbLine
 62
7
  6
CONTINUOUS
 10
-6.2966105341
 20
17.3157505151
 11
-6.2966105341
 21
18.5997852995
  0
LINE
  5
30C
100
AcDbEntity
  8
DRAFT
100
AcDbLine
 62
7
  6
CONTINUOUS
 10
-6.2625757497
 20
-29.1842494849
 11
-6.2625757497
 21
-30.4342494849
  0
LINE
  5
30D
100
AcDbEntity
  8
DRAFT
100
AcDbLine
 62
7
  6
CONTINUOUS
 10
-6.2625757497
 20
17.3157505151
 11
-6.2625757497
 21
18.5657505151
  0
LINE
  5
30E
100
AcDbEntity
  8
ASSI
100
AcDbLine
 62
7
  6
CONTINUOUS
 10
-4.7701057497
 20
14.0646465151
 11
-4.7701057497
 21
10.1657505151
  0
LINE
  5
30F
100
AcDbEntity
  8
DRAFT
100
AcDbLine
 62
7
  6
CONTINUOUS
 10
-4.2125757497
 20
-29.1342494849
 11
-4.2125757497
 21
-30.4342494849
  0
LINE
  5
310
100
AcDbEntity
  8
DRAFT
100
AcDbLine
 62
7
  6
CONTINUOUS
 10
-4.2125757497
 20
17.2657505151
 11
-4.2125757497
 21
18.5657505151
  0
LINE
  5
311
100
AcDbEntity
  8
ASSI
100
AcDbLine
 62
7
  6
CONTINUOUS
 10
-3.9499707497
 20
10.1657505151
 11
-3.9499707497
 21
14.0646465151
  0
LINE
  5
312
100
AcDbEntity
  8
ASSI
100
AcDbLine
 62
7
  6
CONTINUOUS
 10
-3.0781847497
 20
14.0646465151
 11
-3.0781847497
 21
10.1657505151
  0
LINE
  5
313
100
AcDbEntity
  8
DRAFT
100
AcDbLine
 62
7
  6
CONTINUOUS
 10
-16.2582618402
 20
-38.2501294985
 11
-16.1884468979
 21
-37.9707633426
  0
LINE
  5
314
100
AcDbEntity
  8
ASSI
100
AcDbLine
 62
7
  6
CONTINUOUS
 10
-0.3500107497
 20
14.0646465151
 11
-1.1221517497
 21
11.3818325151
  0
LINE
  5
315
100
AcDbEntity
  8
ASSI
100
AcDbLine
 62
7
  6
CONTINUOUS
 10
-0.7106847497
 20
10.1657505151
 11
0.0576422503
 21
12.6169365151
  0
LINE
  5
316
100
AcDbEntity
  8
DRAFT
100
AcDbLine
 62
7
  6
CONTINUOUS
 10
-12.5125757497
 20
0.8571692306
 11
-12.59541949
 21
0.8157505151
  0
LINE
  5
317
100
AcDbEntity
  8
DRAFT
100
AcDbLine
 62
7
  6
CONTINUOUS
 10
-12.5950553656
 20
2.0155684667
 11
-12.5125757497
 21
1.9743317995
  0
LINE
  5
318
100
AcDbEntity
  8
ASSI
100
AcDbLine
 62
7
  6
CONTINUOUS
 10
-8.5725757497
 20
14.0646465151
 11
-7.3193217497
 21
10.1657505151
  0
LINE
  5
319
100
AcDbEntity
  8
ASSI
100
AcDbLine
 62
7
  6
CONTINUOUS
 10
-6.9125527497
 20
11.3625185151
 11
-7.7811197497
 21
14.0646465151
  0
LINE
  5
31A
100
AcDbEntity
  8
RACCORDO
100
AcDbLine
 62
7
  6
CONTINUOUS
 10
-16.1877153817
 20
38.2501294985
 11
-15.9535799213
 21
37.3132308725
  0
LINE
  5
31B
100
AcDbEntity
  8
COPY-PUBBLISH
100
AcDbLine
 62
7
  6
CONTINUOUS
 10
0.5708432015
 20
-31.9342494849
 11
0.5874242503
 21
-32.0338242656
  0
LINE
  5
31C
100
AcDbEntity
  8
DRAFT
100
AcDbLine
 62
7
  6
CONTINUOUS
 10
-3.0125757497
 20
-30.4342494849
 11
-3.0125757497
 21
-32.1386398241
  0
LINE
  5
31D
100
AcDbEntity
  8
DRAFT
100
AcDbLine
 62
7
  6
CONTINUOUS
 10
-3.0125757497
 20
18.5657505151
 11
-3.0125757497
 21
20.2701408543
  0
LINE
  5
31E
100
AcDbEntity
  8
ASSI
100
AcDbLine
 62
7
  6
CONTINUOUS
 10
-2.3019457497
 20
10.1657505151
 11
-2.3019457497
 21
12.6169365151
  0
LINE
  5
31F
100
AcDbEntity
  8
DRAFT
100
AcDbLine
 62
7
  6
CONTINUOUS
 10
-1.6125757497
 20
-29.1342494849
 11
-1.6125757497
 21
-30.4342494849
  0
LINE
  5
320
100
AcDbEntity
  8
DRAFT
100
AcDbLine
 62
7
  6
CONTINUOUS
 10
-1.6125757497
 20
17.2657505151
 11
-1.6125757497
 21
18.5657505151
  0
LINE
  5
321
100
AcDbEntity
  8
COPY-PUBBLISH
100
AcDbLine
 62
7
  6
CONTINUOUS
 10
-0.5959947009
 20
-31.9176684361
 11
-0.5959947009
 21
-31.9342494849
  0
LINE
  5
322
100
AcDbEntity
  8
COPY-PUBBLISH
100
AcDbLine
 62
7
  6
CONTINUOUS
 10
-0.5959947009
 20
20.0491694663
 11
-0.5959947009
 21
20.0657505151
  0
LINE
  5
323
100
AcDbEntity
  8
ASSI
100
AcDbLine
 62
7
  6
CONTINUOUS
 10
0.0576422503
 20
12.6169365151
 11
0.0576422503
 21
10.1657505151
  0
LINE
  5
324
100
AcDbEntity
  8
COPY-PUBBLISH
100
AcDbLine
 62
7
  6
CONTINUOUS
 10
0.5708432015
 20
20.0657505151
 11
0.5874242503
 21
20.1653252957
  0
LINE
  5
325
100
AcDbEntity
  8
ASSI
100
AcDbLine
 62
7
  6
CONTINUOUS
 10
2.6800252503
 20
11.6231175151
 11
3.1047982503
 21
13.0225415151
  0
LINE
  5
326
100
AcDbEntity
  8
ASSI
100
AcDbLine
 62
7
  6
CONTINUOUS
 10
2.1521422503
 20
10.1657505151
 11
2.3954292503
 21
10.9185775151
  0
LINE
  5
327
100
AcDbEntity
  8
ASSI
100
AcDbLine
 62
7
  6
CONTINUOUS
 10
2.6578382503
 20
14.0646465151
 11
1.3420712503
 21
10.1657505151
  0
LINE
  5
328
100
AcDbEntity
  8
RACCORDO
100
AcDbLine
 62
7
  6
CONTINUOUS
 10
16.1625638824
 20
38.2501294985
 11
16.163173009
 21
38.2513410617
  0
LWPOLYLINE
  5
329
100
AcDbEntity
  8
RACCORDO
100
AcDbPolyline
 62
250
  6
CONTINUOUS
 90
7
 70
0
 10
16.1601020168
 20
31.1078473093
 10
16.1916773288
 20
31.1706281185
 10
16.2247899932
 20
31.2375143514
 10
16.2596007591
 20
31.3087258551
 10
16.2960719122
 20
31.3844644203
 10
16.3339418809
 20
31.4648691957
 10
16.3730060702
 20
31.5501016749
  0
LINE
  5
32A
100
AcDbEntity
  8
RACCORDO
100
AcDbLine
 62
250
  6
CONTINUOUS
 10
16.1019514464
 20
30.9941986572
 11
16.1601020168
 21
31.1078473093
  0
LINE
  5
32B
100
AcDbEntity
  8
RACCORDO
100
AcDbLine
 62
250
  6
CONTINUOUS
 10
16.0501328969
 20
30.8948314352
 11
16.1019514464
 21
30.9941986572
  0
LWPOLYLINE
  5
32C
100
AcDbEntity
  8
RACCORDO
100
AcDbPolyline
 62
250
  6
CONTINUOUS
 90
3
 70
0
 10
15.9498047385
 20
30.7039339542
 10
15.9847661232
 20
30.7707429227
 10
16.0501328969
 20
30.8948314352
  0
LINE
  5
32D
100
AcDbEntity
  8
RACCORDO
100
AcDbLine
 62
250
  6
CONTINUOUS
 10
-17.7187857709
 20
15.8744018835
 11
-17.7625757497
 21
15.9181918623
  0
LINE
  5
32E
100
AcDbEntity
  8
RACCORDO
100
AcDbLine
 62
250
  6
CONTINUOUS
 10
-17.2188619233
 20
16.3743257311
 11
-17.2626519021
 21
16.4181157099
  0
LWPOLYLINE
  5
32F
100
AcDbEntity
  8
RACCORDO
100
AcDbPolyline
 62
250
  6
CONTINUOUS
 90
5
 70
0
 10
-15.9916148364
 20
30.7358839534
 10
-15.9749932138
 20
30.7040053868
 10
-15.9601458642
 20
30.6751665105
 10
-15.9471220794
 20
30.6492711719
 10
-15.935946603
 20
30.6262389679
  0
LWPOLYLINE
  5
330
100
AcDbEntity
  8
RACCORDO
100
AcDbPolyline
 62
250
  6
CONTINUOUS
 90
3
 70
0
 10
-16.1271748979
 20
30.99433718
 10
-16.1004924618
 20
30.9429827449
 10
-15.9916148364
 20
30.7358839534
  0
LWPOLYLINE
  5
331
100
AcDbEntity
  8
RACCORDO
100
AcDbPolyline
 62
250
  6
CONTINUOUS
 90
8
 70
0
 10
-16.3981575696
 20
31.550101679
 10
-16.3591145196
 20
31.464914581
 10
-16.3212608722
 20
31.3845431683
 10
-16.2848010679
 20
31.3088267157
 10
-16.249994272
 20
31.237622021
 10
-16.2168809399
 20
31.1707329874
 10
-16.1853075551
 20
31.1079540713
 10
-16.1271748979
 20
30.99433718
  0
LWPOLYLINE
  5
332
100
AcDbEntity
  8
RACCORDO
100
AcDbPolyline
 62
250
  6
CONTINUOUS
 90
3
 70
0
 10
-15.935946603
 20
30.6262389679
 10
-15.9272301557
 20
30.6058020641
 10
-15.9200899643
 20
30.5851557467
  0
LINE
  5
333
100
AcDbEntity
  8
COPY-PUBBLISH
100
AcDbLine
 62
7
  6
CONTINUOUS
 10
0.5708432015
 20
-31.9176684361
 11
0.5708432015
 21
-31.9342494849
  0
LINE
  5
334
100
AcDbEntity
  8
COPY-PUBBLISH
100
AcDbLine
 62
7
  6
CONTINUOUS
 10
0.5708432015
 20
20.0491694663
 11
0.5708432015
 21
20.0657505151
  0
LINE
  5
335
100
AcDbEntity
  8
ASSI
100
AcDbLine
 62
7
  6
CONTINUOUS
 10
0.8338812503
 20
10.1657505151
 11
0.8338812503
 21
14.0646465151
  0
LINE
  5
336
100
AcDbEntity
  8
DRAFT
100
AcDbLine
 62
7
  6
CONTINUOUS
 10
1.5874242503
 20
-29.1342494849
 11
1.5874242503
 21
-30.4342494849
  0
LINE
  5
337
100
AcDbEntity
  8
DRAFT
100
AcDbLine
 62
7
  6
CONTINUOUS
 10
1.5874242503
 20
17.2657505151
 11
1.5874242503
 21
18.5657505151
  0
LINE
  5
338
100
AcDbEntity
  8
DRAFT
100
AcDbLine
 62
7
  6
CONTINUOUS
 10
2.9874242503
 20
20.2701408543
 11
2.9874242503
 21
18.5657505151
  0
LINE
  5
339
100
AcDbEntity
  8
DRAFT
100
AcDbLine
 62
7
  6
CONTINUOUS
 10
2.9874242503
 20
-32.1386398241
 11
2.9874242503
 21
-30.4342494849
  0
LINE
  5
33A
100
AcDbEntity
  8
ASSI
100
AcDbLine
 62
7
  6
CONTINUOUS
 10
-2.6400337497
 20
-22.9303214849
 11
-2.4467467497
 21
-22.1858964849
  0
LINE
  5
33B
100
AcDbEntity
  8
ASSI
100
AcDbLine
 62
7
  6
CONTINUOUS
 10
-3.4199937497
 20
-25.9342494849
 11
-2.7711137497
 21
-23.4351604849
  0
LINE
  5
33C
100
AcDbEntity
  8
ASSI
100
AcDbLine
 62
7
  6
CONTINUOUS
 10
-2.3960258377
 20
-23.7003488242
 11
-2.8424797497
 21
-25.4198184849
  0
LINE
  5
33D
100
AcDbEntity
  8
ASSI
100
AcDbLine
 62
7
  6
CONTINUOUS
 10
-3.6614907497
 20
-23.8217264849
 11
-4.2175757497
 21
-25.9342494849
  0
LINE
  5
33E
100
AcDbEntity
  8
ASSI
100
AcDbLine
 62
7
  6
CONTINUOUS
 10
-3.3203337497
 20
-22.5651734849
 11
-3.5166347497
 21
-23.3109064849
  0
LINE
  5
33F
100
AcDbEntity
  8
RACCORDO
100
AcDbLine
 62
250
  6
CONTINUOUS
 10
15.902086061
 20
30.6058230318
 11
15.9107951036
 21
30.6262389679
  0
LWPOLYLINE
  5
340
100
AcDbEntity
  8
RACCORDO
100
AcDbPolyline
 62
250
  6
CONTINUOUS
 90
6
 70
0
 10
15.3830923191
 20
30.9989981095
 10
15.3842983679
 20
31.0018039296
 10
15.3888342677
 20
31.0045673767
 10
15.3967000185
 20
31.007288451
 10
15.4078956205
 20
31.0099671525
 10
15.4224210735
 20
31.0126034811
  0
LWPOLYLINE
  5
341
100
AcDbEntity
  8
RACCORDO
100
AcDbPolyline
 62
250
  6
CONTINUOUS
 90
4
 70
0
 10
15.9107951036
 20
30.6262389679
 10
15.9219595476
 20
30.6492472879
 10
15.9349707534
 20
30.6751188078
 10
15.9498047385
 20
30.7039339542
  0
LINE
  5
342
100
AcDbEntity
  8
RACCORDO
100
AcDbLine
 62
250
  6
CONTINUOUS
 10
17.2375004028
 20
16.4181157099
 11
17.193710424
 21
16.3743257311
  0
LINE
  5
343
100
AcDbEntity
  8
RACCORDO
100
AcDbLine
 62
250
  6
CONTINUOUS
 10
17.7374242503
 20
15.9181918623
 11
17.6936342716
 21
15.8744018835
  0
LINE
  5
344
100
AcDbEntity
  8
DRAFT
100
AcDbLine
 62
7
  6
CONTINUOUS
 10
12.5699038662
 20
2.0155684667
 11
12.4874242503
 21
1.9743317995
  0
LINE
  5
345
100
AcDbEntity
  8
RACCORDO
100
AcDbLine
 62
7
  6
CONTINUOUS
 10
-16.1883245083
 20
38.2513410616
 11
-16.1877153817
 21
38.2501294985
  0
LINE
  5
346
100
AcDbEntity
  8
ASSI
100
AcDbLine
 62
7
  6
CONTINUOUS
 10
-2.3019457497
 20
12.6169365151
 11
-1.5336187497
 21
10.1657505151
  0
LINE
  5
347
100
AcDbEntity
  8
ASSI
100
AcDbLine
 62
7
  6
CONTINUOUS
 10
-1.1221517497
 20
11.3818325151
 11
-1.8942927497
 21
14.0646465151
  0
LINE
  5
348
100
AcDbEntity
  8
COPY-PUBBLISH
100
AcDbLine
 62
7
  6
CONTINUOUS
 10
-0.5959947009
 20
20.0657505151
 11
-0.6125757497
 21
20.1653252957
  0
LINE
  5
349
100
AcDbEntity
  8
DRAFT
100
AcDbLine
 62
7
  6
CONTINUOUS
 10
4.1874242503
 20
-29.1342494849
 11
4.1874242503
 21
-30.4342494849
  0
LINE
  5
34A
100
AcDbEntity
  8
DRAFT
100
AcDbLine
 62
7
  6
CONTINUOUS
 10
4.1874242503
 20
17.2657505151
 11
4.1874242503
 21
18.5657505151
  0
LINE
  5
34B
100
AcDbEntity
  8
ASSI
100
AcDbLine
 62
7
  6
CONTINUOUS
 10
5.2953852503
 20
14.0646465151
 11
5.2953852503
 21
10.1657505151
  0
LINE
  5
34C
100
AcDbEntity
  8
ASSI
100
AcDbLine
 62
7
  6
CONTINUOUS
 10
6.1447842503
 20
10.1657505151
 11
6.1447842503
 21
11.7311035151
  0
LINE
  5
34D
100
AcDbEntity
  8
ASSI
100
AcDbLine
 62
7
  6
CONTINUOUS
 10
6.1447842503
 20
12.4069645151
 11
6.1447842503
 21
13.4082465151
  0
LINE
  5
34E
100
AcDbEntity
  8
DRAFT
100
AcDbLine
 62
7
  6
CONTINUOUS
 10
6.2374242503
 20
-29.1842494849
 11
6.2374242503
 21
-30.4342494849
  0
LINE
  5
34F
100
AcDbEntity
  8
DRAFT
100
AcDbLine
 62
7
  6
CONTINUOUS
 10
6.2374242503
 20
17.3157505151
 11
6.2374242503
 21
18.5657505151
  0
LINE
  5
350
100
AcDbEntity
  8
DRAFT
100
AcDbLine
 62
7
  6
CONTINUOUS
 10
6.2714590347
 20
-29.1842494849
 11
6.2714590347
 21
-30.4682842693
  0
LINE
  5
351
100
AcDbEntity
  8
DRAFT
100
AcDbLine
 62
7
  6
CONTINUOUS
 10
6.2714590347
 20
17.3157505151
 11
6.2714590347
 21
18.5997852995
  0
LINE
  5
352
100
AcDbEntity
  8
ASSI
100
AcDbLine
 62
7
  6
CONTINUOUS
 10
7.5670342503
 20
12.9236335151
 11
7.5670342503
 21
12.8915727962
  0
LINE
  5
353
100
AcDbEntity
  8
COPY-PUBBLISH
100
AcDbLine
 62
7
  6
CONTINUOUS
 10
-0.5959947009
 20
-31.9342494849
 11
-0.6125757497
 21
-32.0338242656
  0
LWPOLYLINE
  5
354
100
AcDbEntity
  8
ASSI
100
AcDbPolyline
 62
7
  6
CONTINUOUS
 90
3
 70
0
 10
0.6167725686
 20
-25.605631328
 10
0.625875127
 20
-25.5665042757
 10
0.6426719411
 20
-25.5054166192
  0
LINE
  5
355
100
AcDbEntity
  8
RACCORDO
100
AcDbLine
 62
7
  6
CONTINUOUS
 10
16.1625638824
 20
38.2501294985
 11
15.928428422
 21
37.3132308725
  0
LINE
  5
356
100
AcDbEntity
  8
ASSI
100
AcDbLine
 62
7
  6
CONTINUOUS
 10
-2.0761727497
 20
-25.3981864849
 11
-1.6668512086
 21
-23.8217282524
  0
LINE
  5
357
100
AcDbEntity
  8
ASSI
100
AcDbLine
 62
7
  6
CONTINUOUS
 10
-1.2320687497
 20
-23.6972614849
 11
-1.7444429168
 21
-25.6706121285
  0
LINE
  5
358
100
AcDbEntity
  8
ASSI
100
AcDbLine
 62
7
  6
CONTINUOUS
 10
-1.0324577497
 20
-25.9342494849
 11
-0.0592117497
 21
-22.1858964849
  0
LINE
  5
359
100
AcDbEntity
  8
ASSI
100
AcDbLine
 62
7
  6
CONTINUOUS
 10
-0.0362488533
 20
-23.663064884
 11
-0.5182427497
 21
-25.5194124849
  0
LINE
  5
35A
100
AcDbEntity
  8
ASSI
100
AcDbLine
 62
7
  6
CONTINUOUS
 10
0.4207012503
 20
-24.8453674849
 11
0.6733303859
 21
-23.8723959629
  0
LINE
  5
35B
100
AcDbEntity
  8
ASSI
100
AcDbLine
 62
7
  6
CONTINUOUS
 10
1.0954882503
 20
-23.7044254849
 11
0.8473412503
 21
-24.6601364849
  0
LINE
  5
35C
100
AcDbEntity
  8
ASSI
100
AcDbLine
 62
7
  6
CONTINUOUS
 10
-0.9109317497
 20
-22.5556794849
 11
-1.1495937497
 21
-23.4351604849
  0
LINE
  5
35D
100
AcDbEntity
  8
RACCORDO
100
AcDbLine
 62
250
  6
CONTINUOUS
 10
-17.7625757497
 20
-27.7866908321
 11
-17.7187857709
 21
-27.7429008534
  0
LINE
  5
35E
100
AcDbEntity
  8
DRAFT
100
AcDbLine
 62
7
  6
CONTINUOUS
 10
-12.5950553656
 20
-13.8840674366
 11
-12.5125757497
 21
-13.8428307694
  0
LINE
  5
35F
100
AcDbEntity
  8
DRAFT
100
AcDbLine
 62
7
  6
CONTINUOUS
 10
12.4874242503
 20
0.8571692306
 11
12.5702679907
 21
0.8157505151
  0
LINE
  5
360
100
AcDbEntity
  8
ASSI
100
AcDbLine
 62
7
  6
CONTINUOUS
 10
3.8141672503
 20
10.9185775151
 11
4.0574552503
 21
10.1657505151
  0
LINE
  5
361
100
AcDbEntity
  8
ASSI
100
AcDbLine
 62
7
  6
CONTINUOUS
 10
3.1047982503
 20
13.0225415151
 11
3.5295712503
 21
11.6231175151
  0
LINE
  5
362
100
AcDbEntity
  8
DRAFT
100
AcDbLine
 62
7
  6
CONTINUOUS
 10
16.2331103408
 20
-38.2501294985
 11
16.1632953985
 21
-37.9707633426
  0
LINE
  5
363
100
AcDbEntity
  8
0
100
AcDbLine
 62
7
  6
CONTINUOUS
 10
8.0874242503
 20
-28.4342494849
 11
8.0874242503
 21
-29.1842494849
  0
LINE
  5
364
100
AcDbEntity
  8
0
100
AcDbLine
 62
7
  6
CONTINUOUS
 10
8.0874242503
 20
16.5657505151
 11
8.0874242503
 21
17.3157505151
  0
LINE
  5
365
100
AcDbEntity
  8
ASSI
100
AcDbLine
 62
7
  6
CONTINUOUS
 10
8.4289442503
 20
12.8595944703
 11
8.4289442503
 21
12.9478855151
  0
LINE
  5
366
100
AcDbEntity
  8
ASSI
100
AcDbLine
 62
7
  6
CONTINUOUS
 10
1.381417908
 20
-25.6361919519
 11
1.5135442503
 21
-25.1273184849
  0
LINE
  5
367
100
AcDbEntity
  8
ASSI
100
AcDbLine
 62
7
  6
CONTINUOUS
 10
1.6378552503
 20
-24.6485494849
 11
1.8103762503
 21
-23.9841034849
  0
LINE
  5
368
100
AcDbEntity
  8
ASSI
100
AcDbLine
 62
7
  6
CONTINUOUS
 10
2.2359529818
 20
-23.7888594087
 11
2.0603662503
 21
-24.4651114849
  0
LINE
  5
369
100
AcDbEntity
  8
ASSI
100
AcDbLine
 62
7
  6
CONTINUOUS
 10
1.9360562503
 20
-24.9438804849
 11
1.8088522503
 21
-25.4337914849
  0
LINE
  5
36A
100
AcDbEntity
  8
ASSI
100
AcDbLine
 62
7
  6
CONTINUOUS
 10
2.6155862503
 20
-25.3399164849
 11
2.7310802503
 21
-24.8951044849
  0
LINE
  5
36B
100
AcDbEntity
  8
ASSI
100
AcDbLine
 62
7
  6
CONTINUOUS
 10
3.1491592503
 20
-24.7135914849
 11
2.8946341113
 21
-25.6938700203
  0
LINE
  5
36C
100
AcDbEntity
  8
ASSI
100
AcDbLine
 62
7
  6
CONTINUOUS
 10
3.4142982793
 20
-23.6924373735
 11
3.2358942503
 21
-24.3795424849
  0
LINE
  5
36D
100
AcDbEntity
  8
ASSI
100
AcDbLine
 62
7
  6
CONTINUOUS
 10
3.6533952503
 20
-25.9342494849
 11
4.1869992503
 21
-23.8791304849
  0
LINE
  5
36E
100
AcDbEntity
  8
ASSI
100
AcDbLine
 62
7
  6
CONTINUOUS
 10
0.6102372795
 20
-25.623139853
 11
0.6167725686
 21
-25.605631328
  0
LWPOLYLINE
  5
36F
100
AcDbEntity
  8
ASSI
100
AcDbPolyline
 62
7
  6
CONTINUOUS
 90
12
 70
0
 10
-2.3960258377
 20
-23.7003488242
 10
-2.3708577572
 20
-23.653080603
 10
-2.3403382448
 20
-23.610425783
 10
-2.3044673005
 20
-23.5723843641
 10
-2.2629472235
 20
-23.5387798976
 10
-2.2160757147
 20
-23.5097888322
 10
-2.1647458766
 20
-23.4859405144
 10
-2.1086227978
 20
-23.4680316344
 10
-2.0480413899
 20
-23.4552655021
 10
-1.9848994902
 20
-23.4457813933
 10
-1.9198297112
 20
-23.4389590669
 10
-1.8521994406
 20
-23.4354187641
  0
LINE
  5
370
100
AcDbEntity
  8
RACCORDO
100
AcDbLine
 62
250
  6
CONTINUOUS
 10
-17.2626519021
 20
-28.2866146797
 11
-17.2188619233
 21
-28.2428247009
  0
LWPOLYLINE
  5
371
100
AcDbEntity
  8
RACCORDO
100
AcDbPolyline
 62
7
  6
CONTINUOUS
 90
23
 70
0
 10
17.2763652996
 20
12.8741458537
 10
17.3152003538
 20
12.8829290102
 10
17.3520587716
 20
12.8943237467
 10
17.3868684021
 20
12.9080080978
 10
17.4197016446
 20
12.9237491186
 10
17.4504633356
 20
12.9412551297
 10
17.4791307171
 20
12.9602634343
 10
17.505883442
 20
12.9806842264
 10
17.5307106186
 20
13.0023242318
 10
17.5535869606
 20
13.0249684694
 10
17.5746414172
 20
13.0485783109
 10
17.5938824507
 20
13.0730112216
 10
17.6113037852
 20
13.0980964012
 10
17.6269839035
 20
13.1238024124
 10
17.6409418709
 20
13.1500205325
 10
17.6531833928
 20
13.1766065697
 10
17.6637499582
 20
13.2035015434
 10
17.6726696874
 20
13.2306137184
 10
17.6799649797
 20
13.2578203754
 10
17.6856673652
 20
13.2850282411
 10
17.6898152418
 20
13.3121452449
 10
17.6924545382
 20
13.3390803871
 10
17.6936342716
 20
13.3657505151
  0
LWPOLYLINE
  5
372
100
AcDbEntity
  8
RACCORDO
100
AcDbPolyline
 62
7
  6
CONTINUOUS
 90
24
 70
0
 10
17.2357923881
 20
12.868333875
 10
17.2850850297
 20
12.874592922
 10
17.3239278863
 20
12.8829290102
 10
17.360788778
 20
12.8941819897
 10
17.3955948494
 20
12.9080702764
 10
17.428429177
 20
12.9237491186
 10
17.4591930886
 20
12.9411278962
 10
17.4878576598
 20
12.9602972292
 10
17.5146109745
 20
12.9806842264
 10
17.539439755
 20
13.0022323297
 10
17.562313976
 20
13.0249980972
 10
17.5833689497
 20
13.0485783109
 10
17.602611151
 20
13.0729443054
 10
17.6200308229
 20
13.0981247461
 10
17.635711436
 20
13.1238024124
 10
17.649670292
 20
13.149969618
 10
17.6619104456
 20
13.1766340492
 10
17.6724774907
 20
13.2035015434
 10
17.6813979562
 20
13.2305715274
 10
17.6886920898
 20
13.2578445745
 10
17.6943948977
 20
13.2850282411
 10
17.698544872
 20
13.3120250462
 10
17.7011846521
 20
13.3389324708
 10
17.702361804
 20
13.3657505151
  0
LINE
  5
373
100
AcDbEntity
  8
RACCORDO
100
AcDbLine
 62
250
  6
CONTINUOUS
 10
-17.3639185783
 20
10.8288656674
 11
-17.282812992
 21
10.8300719073
  0
LINE
  5
374
100
AcDbEntity
  8
RACCORDO
100
AcDbLine
 62
250
  6
CONTINUOUS
 10
-17.282812992
 20
10.8300719073
 11
-17.1979038083
 21
10.8307142216
  0
LINE
  5
375
100
AcDbEntity
  8
ASSI
100
AcDbLine
 62
7
  6
CONTINUOUS
 10
-7.3193217497
 20
10.1657505151
 11
-6.5057837497
 21
10.1657505151
  0
LINE
  5
376
100
AcDbEntity
  8
ASSI
100
AcDbLine
 62
7
  6
CONTINUOUS
 10
-4.7701057497
 20
10.1657505151
 11
-3.9499707497
 21
10.1657505151
  0
LINE
  5
377
100
AcDbEntity
  8
ASSI
100
AcDbLine
 62
7
  6
CONTINUOUS
 10
-3.0781847497
 20
10.1657505151
 11
-2.3019457497
 21
10.1657505151
  0
LINE
  5
378
100
AcDbEntity
  8
ASSI
100
AcDbLine
 62
7
  6
CONTINUOUS
 10
-1.5336187497
 20
10.1657505151
 11
-0.7106847497
 21
10.1657505151
  0
LINE
  5
379
100
AcDbEntity
  8
ASSI
100
AcDbLine
 62
7
  6
CONTINUOUS
 10
0.0576422503
 20
10.1657505151
 11
0.8338812503
 21
10.1657505151
  0
LINE
  5
37A
100
AcDbEntity
  8
ASSI
100
AcDbLine
 62
7
  6
CONTINUOUS
 10
1.3420712503
 20
10.1657505151
 11
2.1521422503
 21
10.1657505151
  0
LINE
  5
37B
100
AcDbEntity
  8
ASSI
100
AcDbLine
 62
7
  6
CONTINUOUS
 10
4.0574552503
 20
10.1657505151
 11
4.8675262503
 21
10.1657505151
  0
LINE
  5
37C
100
AcDbEntity
  8
ASSI
100
AcDbLine
 62
7
  6
CONTINUOUS
 10
5.2953852503
 20
10.1657505151
 11
6.1447842503
 21
10.1657505151
  0
LINE
  5
37D
100
AcDbEntity
  8
ASSI
100
AcDbLine
 62
7
  6
CONTINUOUS
 10
7.6221602503
 20
10.1657505151
 11
8.5486742503
 21
10.1657505151
  0
LINE
  5
37E
100
AcDbEntity
  8
RACCORDO
100
AcDbLine
 62
250
  6
CONTINUOUS
 10
-17.1979038083
 20
10.8307142216
 11
-12.6289871322
 21
10.8308177681
  0
LINE
  5
37F
100
AcDbEntity
  8
ASSI
100
AcDbLine
 62
7
  6
CONTINUOUS
 10
2.3954292503
 20
10.9185775151
 11
3.8141672503
 21
10.9185775151
  0
LINE
  5
380
100
AcDbEntity
  8
RACCORDO
100
AcDbLine
 62
250
  6
CONTINUOUS
 10
17.1727526908
 20
10.8307147195
 11
12.6038356329
 21
10.8308177681
  0
LINE
  5
381
100
AcDbEntity
  8
RACCORDO
100
AcDbLine
 62
250
  6
CONTINUOUS
 10
17.2576626014
 20
10.8300723896
 11
17.1727526908
 21
10.8307147195
  0
LWPOLYLINE
  5
382
100
AcDbEntity
  8
RACCORDO
100
AcDbPolyline
 62
7
  6
CONTINUOUS
 90
24
 70
0
 10
-17.2609341444
 20
12.8688921411
 10
-17.3015089965
 20
12.874592922
 10
-17.3403518532
 20
12.8829290102
 10
-17.3772127449
 20
12.8941819897
 10
-17.4120188163
 20
12.9080702764
 10
-17.4448531439
 20
12.9237491186
 10
-17.4756170555
 20
12.9411278962
 10
-17.5042816266
 20
12.9602972292
 10
-17.5310349414
 20
12.9806842264
 10
-17.5558637219
 20
13.0022323297
 10
-17.5787379428
 20
13.0249980972
 10
-17.5997929165
 20
13.0485783109
 10
-17.6190351179
 20
13.0729443054
 10
-17.6364547898
 20
13.0981247461
 10
-17.6521354028
 20
13.1238024124
 10
-17.6660942588
 20
13.149969618
 10
-17.6783344125
 20
13.1766340492
 10
-17.6889014576
 20
13.2035015434
 10
-17.6978219231
 20
13.2305715274
 10
-17.7051160567
 20
13.2578445745
 10
-17.7108188646
 20
13.2850282411
 10
-17.7149688389
 20
13.3120250462
 10
-17.717608619
 20
13.3389324708
 10
-17.7187857709
 20
13.3657505151
  0
LINE
  5
383
100
AcDbEntity
  8
DRAFT
100
AcDbLine
 62
7
  6
CONTINUOUS
 10
-6.2625757497
 20
18.5657505151
 11
-6.2966105341
 21
18.5997852995
  0
LINE
  5
384
100
AcDbEntity
  8
RACCORDO
100
AcDbLine
 62
7
  6
CONTINUOUS
 10
-11.5174737293
 20
25.8654124988
 11
-10.8636819063
 21
25.2116206758
  0
LINE
  5
385
100
AcDbEntity
  8
ASSI
100
AcDbLine
 62
7
  6
CONTINUOUS
 10
4.8675262503
 20
10.1657505151
 11
3.5517582503
 21
14.0646465151
  0
LINE
  5
386
100
AcDbEntity
  8
RACCORDO
100
AcDbLine
 62
7
  6
CONTINUOUS
 10
12.5591635659
 20
9.8479356446
 11
12.5086003146
 21
10.3587137752
  0
LINE
  5
387
100
AcDbEntity
  8
RACCORDO
100
AcDbLine
 62
7
  6
CONTINUOUS
 10
12.5894251942
 20
11.776178304
 11
12.5310619127
 21
12.3657505151
  0
LINE
  5
388
100
AcDbEntity
  8
RACCORDO
100
AcDbLine
 62
7
  6
CONTINUOUS
 10
11.5091732561
 20
26.3651079123
 11
11.5091732561
 21
29.6156008127
  0
LINE
  5
389
100
AcDbEntity
  8
DRAFT
100
AcDbLine
 62
7
  6
CONTINUOUS
 10
12.4874242503
 20
1.9743317995
 11
12.4874242503
 21
0.8571692306
  0
LINE
  5
38A
100
AcDbEntity
  8
DRAFT
100
AcDbLine
 62
7
  6
CONTINUOUS
 10
12.4874242503
 20
-12.7256682005
 11
12.4874242503
 21
-13.8428307694
  0
LINE
  5
38B
100
AcDbEntity
  8
DRAFT
100
AcDbLine
 62
7
  6
CONTINUOUS
 10
12.4874242503
 20
-26.0342494849
 11
12.4874242503
 21
-28.4342494849
  0
LINE
  5
38C
100
AcDbEntity
  8
DRAFT
100
AcDbLine
 62
7
  6
CONTINUOUS
 10
12.4874242503
 20
14.1657505151
 11
12.4874242503
 21
16.5657505151
  0
LINE
  5
38D
100
AcDbEntity
  8
RACCORDO
100
AcDbLine
 62
7
  6
CONTINUOUS
 10
12.5013883023
 20
-25.5342494849
 11
12.5013883023
 21
-22.7196166216
  0
LINE
  5
38E
100
AcDbEntity
  8
RACCORDO
100
AcDbLine
 62
7
  6
CONTINUOUS
 10
12.5013883023
 20
10.8511176517
 11
12.5013883023
 21
13.6657505151
  0
LINE
  5
38F
100
AcDbEntity
  8
DRAFT
100
AcDbLine
 62
7
  6
CONTINUOUS
 10
12.5310619127
 20
-24.7342494849
 11
12.5310619127
 21
-24.2342494849
  0
LINE
  5
390
100
AcDbEntity
  8
DRAFT
100
AcDbLine
 62
7
  6
CONTINUOUS
 10
12.5310619127
 20
12.3657505151
 11
12.5310619127
 21
12.8657505151
  0
LINE
  5
391
100
AcDbEntity
  8
0
100
AcDbLine
 62
7
  6
CONTINUOUS
 10
12.5397894451
 20
-27.9885751692
 11
12.5397894451
 21
-24.7342494849
  0
LINE
  5
392
100
AcDbEntity
  8
0
100
AcDbLine
 62
7
  6
CONTINUOUS
 10
12.5397894451
 20
12.8657505151
 11
12.5397894451
 21
16.1200761993
  0
LINE
  5
393
100
AcDbEntity
  8
RACCORDO
100
AcDbLine
 62
7
  6
CONTINUOUS
 10
12.5086003146
 20
-22.2272127451
 11
12.5591635659
 21
-21.7164346145
  0
LWPOLYLINE
  5
394
100
AcDbEntity
  8
ASSI
100
AcDbPolyline
 62
7
  6
CONTINUOUS
 90
28
 70
0
 10
0.3144100423
 20
-25.2231361411
 10
0.2997046914
 20
-25.2535986054
 10
0.2893811971
 20
-25.2846971212
 10
0.2834395595
 20
-25.3164316884
 10
0.2827218592
 20
-25.3493487107
 10
0.2863860155
 20
-25.3829017844
 10
0.2919057863
 20
-25.4154516989
 10
0.2983213077
 20
-25.4468640552
 10
0.3065924436
 20
-25.4772732523
 10
0.3170725435
 20
-25.5054432756
 10
0.3303100697
 20
-25.5310008293
 10
0.34575656
 20
-25.5543192093
 10
0.3621199772
 20
-25.5752822882
 10
0.3792375721
 20
-25.5934749116
 10
0.3972720939
 20
-25.6093122339
 10
0.4154197537
 20
-25.6239235904
 10
0.4334152599
 20
-25.6380302247
 10
0.4515239041
 20
-25.6509108932
 10
0.4697377719
 20
-25.6615312007
 10
0.4882412987
 20
-25.6699985793
 10
0.5068500491
 20
-25.676205597
 10
0.5250028025
 20
-25.678795563
 10
0.5429933617
 20
-25.6770393593
 10
0.5605279237
 20
-25.6716661039
 10
0.5761638595
 20
-25.6635064593
 10
0.589470216
 20
-25.6525110712
 10
0.6008779462
 20
-25.6387292938
 10
0.6102372795
 20
-25.623139853
  0
LWPOLYLINE
  5
395
100
AcDbEntity
  8
ASSI
100
AcDbPolyline
 62
7
  6
CONTINUOUS
 90
13
 70
0
 10
-0.0362488533
 20
-23.663064884
 10
-0.0176374659
 20
-23.6303878673
 10
0.004832533
 20
-23.6004410134
 10
0.0311611436
 20
-23.5732243224
 10
0.0616938193
 20
-23.5488505019
 10
0.0960851066
 20
-23.5272068443
 10
0.1332986449
 20
-23.5079552265
 10
0.1732860488
 20
-23.4912363347
 10
0.2160957037
 20
-23.4769094828
 10
0.260836406
 20
-23.46421449
 10
0.3072110879
 20
-23.4528979626
 10
0.3555168171
 20
-23.4432132942
 10
0.4057535938
 20
-23.4351604849
  0
LWPOLYLINE
  5
396
100
AcDbEntity
  8
RACCORDO
100
AcDbPolyline
 62
250
  6
CONTINUOUS
 90
6
 70
0
 10
17.193710424
 20
16.3743257311
 10
17.191358284
 20
16.3739751067
 10
17.1872306995
 20
16.3736291665
 10
17.1813276707
 20
16.3732879104
 10
17.1735267072
 20
16.3729489182
 10
17.1639502993
 20
16.3726146103
  0
LINE
  5
397
100
AcDbEntity
  8
RACCORDO
100
AcDbLine
 62
7
  6
CONTINUOUS
 10
17.2024379565
 20
12.8658266675
 11
17.2445101775
 21
12.8688921411
  0
LWPOLYLINE
  5
398
100
AcDbEntity
  8
RACCORDO
100
AcDbPolyline
 62
250
  6
CONTINUOUS
 90
31
 70
0
 10
17.193710424
 20
15.8744018835
 10
17.2300310919
 20
15.8769630404
 10
17.2654818988
 20
15.8822252123
 10
17.2998835616
 20
15.8900344057
 10
17.3333972275
 20
15.9001739648
 10
17.3655780663
 20
15.9125519153
 10
17.3954404523
 20
15.9272561671
 10
17.4228626939
 20
15.9445569514
 10
17.4479110741
 20
15.9640308619
 10
17.4700171276
 20
15.9848567899
 10
17.4891227511
 20
16.0070011714
 10
17.5052434366
 20
16.0304626493
 10
17.5180218479
 20
16.0545939759
 10
17.5274829252
 20
16.0793315051
 10
17.5334625014
 20
16.1046815199
 10
17.5354420617
 20
16.1302284809
 10
17.5328545877
 20
16.1561601363
 10
17.526111688
 20
16.1821723295
 10
17.5163015213
 20
16.2071948188
 10
17.5038237816
 20
16.2308531729
 10
17.4882528124
 20
16.2533076708
 10
17.4695742364
 20
16.2743641339
 10
17.4477776883
 20
16.2939678007
 10
17.4230023631
 20
16.311899271
 10
17.3955969943
 20
16.327817626
 10
17.3656405879
 20
16.341659551
 10
17.3334498893
 20
16.3532807823
 10
17.2998600907
 20
16.3624021056
 10
17.2653237514
 20
16.3689564256
 10
17.2298661788
 20
16.3729521806
 10
17.193710424
 20
16.3743257311
  0
LINE
  5
399
100
AcDbEntity
  8
RACCORDO
100
AcDbLine
 62
7
  6
CONTINUOUS
 10
17.193710424
 20
12.8658266675
 11
17.2357923881
 21
12.868333875
  0
LWPOLYLINE
  5
39A
100
AcDbEntity
  8
RACCORDO
100
AcDbPolyline
 62
7
  6
CONTINUOUS
 90
25
 70
0
 10
-17.2275894558
 20
12.3656977101
 10
-17.2670195614
 20
12.3634968723
 10
-17.3053897287
 20
12.3591935142
 10
-17.3424930621
 20
12.3527876357
 10
-17.3781196588
 20
12.3441036865
 10
-17.4121579896
 20
12.3333172169
 10
-17.4445851064
 20
12.3209548782
 10
-17.4752879883
 20
12.3070498035
 10
-17.5042006348
 20
12.2915688596
 10
-17.5313818165
 20
12.2749392987
 10
-17.5567825953
 20
12.2571886597
 10
-17.5803585892
 20
12.2382894037
 10
-17.6021685875
 20
12.2185861655
 10
-17.6221936594
 20
12.1980962966
 10
-17.6404123511
 20
12.1768024456
 10
-17.6568683608
 20
12.1549971933
 10
-17.6715621438
 20
12.1326882083
 10
-17.684489647
 20
12.109867822
 10
-17.6956803712
 20
12.0868056104
 10
-17.705149737
 20
12.0635059678
 10
-17.7129124977
 20
12.0399644998
 10
-17.7189976056
 20
12.0164375996
 10
-17.7234355134
 20
11.9930107317
 10
-17.7262605059
 20
11.9695984317
 10
-17.7275133034
 20
11.9462006995
  0
LINE
  5
39B
100
AcDbEntity
  8
ASSI
100
AcDbLine
 62
7
  6
CONTINUOUS
 10
3.5295712503
 20
11.6231175151
 11
2.6800252503
 21
11.6231175151
  0
LINE
  5
39C
100
AcDbEntity
  8
ASSI
100
AcDbLine
 62
7
  6
CONTINUOUS
 10
6.1447842503
 20
11.7311035151
 11
6.8105492503
 21
11.7311035151
  0
LINE
  5
39D
100
AcDbEntity
  8
RACCORDO
100
AcDbLine
 62
250
  6
CONTINUOUS
 10
-17.1620141619
 20
11.776178304
 11
-12.6145766936
 21
11.776178304
  0
LINE
  5
39E
100
AcDbEntity
  8
RACCORDO
100
AcDbLine
 62
250
  6
CONTINUOUS
 10
12.5894251942
 20
11.776178304
 11
17.1368626625
 21
11.776178304
  0
LINE
  5
39F
100
AcDbEntity
  8
RACCORDO
100
AcDbLine
 62
7
  6
CONTINUOUS
 10
17.1952259441
 20
12.3657505151
 11
12.5310619127
 21
12.3657505151
  0
LINE
  5
3A0
100
AcDbEntity
  8
RACCORDO
100
AcDbLine
 62
7
  6
CONTINUOUS
 10
-12.556213412
 20
12.3657505151
 11
-17.2203774434
 21
12.3657505151
  0
LINE
  5
3A1
100
AcDbEntity
  8
ASSI
100
AcDbLine
 62
7
  6
CONTINUOUS
 10
7.0222192503
 20
12.4069645151
 11
6.1447842503
 21
12.4069645151
  0
LINE
  5
3A2
100
AcDbEntity
  8
RACCORDO
100
AcDbLine
 62
7
  6
CONTINUOUS
 10
17.1849828915
 20
12.8657505151
 11
12.5397894451
 21
12.8657505151
  0
LINE
  5
3A3
100
AcDbEntity
  8
DRAFT
100
AcDbLine
 62
7
  6
CONTINUOUS
 10
-12.556213412
 20
12.8657505151
 11
-12.5649409445
 21
12.8657505151
  0
LINE
  5
3A4
100
AcDbEntity
  8
DRAFT
100
AcDbLine
 62
7
  6
CONTINUOUS
 10
12.5310619127
 20
12.8657505151
 11
12.5397894451
 21
12.8657505151
  0
LINE
  5
3A5
100
AcDbEntity
  8
RACCORDO
100
AcDbLine
 62
7
  6
CONTINUOUS
 10
-12.5649409445
 20
12.8657505151
 11
-17.2101343909
 21
12.8657505151
  0
LINE
  5
3A6
100
AcDbEntity
  8
RACCORDO
100
AcDbLine
 62
250
  6
CONTINUOUS
 10
-17.7275133034
 20
13.3657505151
 11
-17.7187857709
 21
13.3657505151
  0
LINE
  5
3A7
100
AcDbEntity
  8
RACCORDO
100
AcDbLine
 62
250
  6
CONTINUOUS
 10
17.6936342716
 20
13.3657505151
 11
17.702361804
 21
13.3657505151
  0
LINE
  5
3A8
100
AcDbEntity
  8
ASSI
100
AcDbLine
 62
7
  6
CONTINUOUS
 10
6.1447842503
 20
13.4082465151
 11
7.0222204541
 21
13.4082465151
  0
LINE
  5
3A9
100
AcDbEntity
  8
ASSI
100
AcDbLine
 62
7
  6
CONTINUOUS
 10
7.5073290129
 20
14.0646465151
 11
5.2953852503
 21
14.0646465151
  0
LINE
  5
3AA
100
AcDbEntity
  8
ASSI
100
AcDbLine
 62
7
  6
CONTINUOUS
 10
3.5517582503
 20
14.0646465151
 11
2.6578382503
 21
14.0646465151
  0
LINE
  5
3AB
100
AcDbEntity
  8
ASSI
100
AcDbLine
 62
7
  6
CONTINUOUS
 10
0.8338812503
 20
14.0646465151
 11
-0.3500107497
 21
14.0646465151
  0
LINE
  5
3AC
100
AcDbEntity
  8
ASSI
100
AcDbLine
 62
7
  6
CONTINUOUS
 10
-1.8942927497
 20
14.0646465151
 11
-3.0781847497
 21
14.0646465151
  0
LINE
  5
3AD
100
AcDbEntity
  8
ASSI
100
AcDbLine
 62
7
  6
CONTINUOUS
 10
-3.9499707497
 20
14.0646465151
 11
-4.7701057497
 21
14.0646465151
  0
LINE
  5
3AE
100
AcDbEntity
  8
ASSI
100
AcDbLine
 62
7
  6
CONTINUOUS
 10
-5.2525297497
 20
14.0646465151
 11
-6.0439847497
 21
14.0646465151
  0
LINE
  5
3AF
100
AcDbEntity
  8
ASSI
100
AcDbLine
 62
7
  6
CONTINUOUS
 10
-7.7811197497
 20
14.0646465151
 11
-8.5725757497
 21
14.0646465151
  0
LWPOLYLINE
  5
3B0
100
AcDbEntity
  8
RACCORDO
100
AcDbPolyline
 62
7
  6
CONTINUOUS
 90
25
 70
0
 10
17.2024379565
 20
12.3656977101
 10
17.2418735096
 20
12.3638688516
 10
17.2802426188
 20
12.359493241
 10
17.3173415627
 20
12.3527876357
 10
17.3529669051
 20
12.3440180364
 10
17.3870073591
 20
12.3333765461
 10
17.419433607
 20
12.3209548782
 10
17.4501352255
 20
12.3069635296
 10
17.4790497554
 20
12.2916111916
 10
17.5062303172
 20
12.2749392987
 10
17.5316300339
 20
12.2571161383
 10
17.5552076194
 20
12.2383255643
 10
17.5770170882
 20
12.2185861655
 10
17.5970412894
 20
12.1980368438
 10
17.615261335
 20
12.17683544
 10
17.6317168615
 20
12.1549971933
 10
17.6464099199
 20
12.1326387325
 10
17.6593385967
 20
12.1098984827
 10
17.6705288719
 20
12.0868056104
 10
17.6799976068
 20
12.0634628896
 10
17.6877613936
 20
12.0399914866
 10
17.6938461063
 20
12.0164375996
 10
17.6982821252
 20
11.9928817527
 10
17.7011066756
 20
11.9694392682
 10
17.702361804
 20
11.9462006995
  0
LWPOLYLINE
  5
3B1
100
AcDbEntity
  8
RACCORDO
100
AcDbPolyline
 62
7
  6
CONTINUOUS
 90
25
 70
0
 10
-17.2275894558
 20
12.8658266675
 10
-17.2696714199
 20
12.868333875
 10
-17.3102443314
 20
12.8741458537
 10
-17.3490793856
 20
12.8829290102
 10
-17.3859378034
 20
12.8943237467
 10
-17.4207474339
 20
12.9080080978
 10
-17.4535806764
 20
12.9237491186
 10
-17.4843423674
 20
12.9412551297
 10
-17.5130097489
 20
12.9602634343
 10
-17.5397624738
 20
12.9806842264
 10
-17.5645896504
 20
13.0023242318
 10
-17.5874659924
 20
13.0249684694
 10
-17.608520449
 20
13.0485783109
 10
-17.6277614825
 20
13.0730112216
 10
-17.645182817
 20
13.0980964012
 10
-17.6608629353
 20
13.1238024124
 10
-17.6748209027
 20
13.1500205325
 10
-17.6870624246
 20
13.1766065697
 10
-17.6976289901
 20
13.2035015434
 10
-17.7065487192
 20
13.2306137184
 10
-17.7138440115
 20
13.2578203754
 10
-17.719546397
 20
13.2850282411
 10
-17.7236942736
 20
13.3121452449
 10
-17.72633357
 20
13.3390803871
 10
-17.7275133034
 20
13.3657505151
  0
LINE
  5
3B2
100
AcDbEntity
  8
RACCORDO
100
AcDbLine
 62
7
  6
CONTINUOUS
 10
-17.2188619233
 20
12.8658266675
 11
-17.2609341444
 21
12.8688921411
  0
LWPOLYLINE
  5
3B3
100
AcDbEntity
  8
RACCORDO
100
AcDbPolyline
 62
250
  6
CONTINUOUS
 90
8
 70
0
 10
-17.2188619233
 20
16.3743257311
 10
-17.2165097833
 20
16.3739751067
 10
-17.2123821989
 20
16.3736291665
 10
-17.20647917
 20
16.3732879104
 10
-17.1986782065
 20
16.3729489182
 10
-17.1891017986
 20
16.3726146103
 10
-17.1781174168
 20
16.3722922473
 10
-17.1519247314
 20
16.3716833564
  0
LWPOLYLINE
  5
3B4
100
AcDbEntity
  8
RACCORDO
100
AcDbPolyline
 62
250
  6
CONTINUOUS
 90
18
 70
0
 10
-16.3981567841
 20
31.5501022628
 10
-16.3188727653
 20
31.4870664774
 10
-16.2426896297
 20
31.4288083276
 10
-16.1696073773
 20
31.3752457037
 10
-16.0995654859
 20
31.3263668973
 10
-16.0326244777
 20
31.2819232504
 10
-15.9689659192
 20
31.2414987505
 10
-15.9086702469
 20
31.2049904241
 10
-15.8516570243
 20
31.1722529727
 10
-15.7978665088
 20
31.1429138569
 10
-15.7472145397
 20
31.1168388188
 10
-15.6997852777
 20
31.0939972355
 10
-15.6557714615
 20
31.0742465983
 10
-15.6151769868
 20
31.0574889539
 10
-15.5779979579
 20
31.0436390172
 10
-15.5444154273
 20
31.0325878974
 10
-15.5144897456
 20
31.0242329636
 10
-15.4881605621
 20
31.0184722568
  0
LINE
  5
3B5
100
AcDbEntity
  8
ASSI
100
AcDbLine
 62
7
  6
CONTINUOUS
 10
8.5486742503
 20
10.1657505151
 11
7.6789392503
 21
11.8375285151
  0
LINE
  5
3B6
100
AcDbEntity
  8
ASSI
100
AcDbLine
 62
7
  6
CONTINUOUS
 10
6.8105492503
 20
11.7311035151
 11
7.6221602503
 21
10.1657505151
  0
LINE
  5
3B7
100
AcDbEntity
  8
RACCORDO
100
AcDbLine
 62
250
  6
CONTINUOUS
 10
17.1368626625
 20
-23.6446772739
 11
17.1952259441
 21
-24.2342494849
  0
LINE
  5
3B8
100
AcDbEntity
  8
RACCORDO
100
AcDbLine
 62
250
  6
CONTINUOUS
 10
17.6367865101
 20
-23.1522733974
 11
17.702361804
 21
-23.8146996693
  0
LWPOLYLINE
  5
3B9
100
AcDbEntity
  8
RACCORDO
100
AcDbPolyline
 62
7
  6
CONTINUOUS
 90
28
 70
0
 10
15.8933163296
 20
29.5078825572
 10
15.8935889717
 20
29.5024243138
 10
15.8938925382
 20
29.496946719
 10
15.8942388311
 20
29.4913457255
 10
15.89466738
 20
29.4851853394
 10
15.8951952611
 20
29.4785044555
 10
15.8958551408
 20
29.4711967251
 10
15.8967515081
 20
29.4625873774
 10
15.8979938745
 20
29.4523563586
 10
15.8996441289
 20
29.4407658374
 10
15.9017692144
 20
29.4280069532
 10
15.9045106838
 20
29.4138767728
 10
15.9079519497
 20
29.398572898
 10
15.91200093
 20
29.3828918103
 10
15.9166494931
 20
29.3670335516
 10
15.9219905441
 20
29.3508366913
 10
15.9279862005
 20
29.3345527808
 10
15.9346319553
 20
29.318274932
 10
15.9419734881
 20
29.3019665749
 10
15.9500196406
 20
29.2856844208
 10
15.958787337
 20
29.2694628854
 10
15.9682922964
 20
29.2533378947
 10
15.9785336842
 20
29.2373697557
 10
15.9895239488
 20
29.2215929382
 10
16.0012685286
 20
29.2060512226
 10
16.01374678
 20
29.1908170475
 10
16.0269527771
 20
29.1759364269
 10
16.0385034212
 20
29.1638430524
  0
LWPOLYLINE
  5
3BA
100
AcDbEntity
  8
RACCORDO
100
AcDbPolyline
 62
250
  6
CONTINUOUS
 90
19
 70
0
 10
17.6367865101
 20
11.2837744275
 10
17.6347597471
 20
11.3266071865
 10
17.6289583907
 20
11.3691153007
 10
17.6194264024
 20
11.4109765107
 10
17.606236028
 20
11.4518734527
 10
17.5894872459
 20
11.4914960824
 10
17.5693070039
 20
11.5295440232
 10
17.5458482671
 20
11.5657288204
 10
17.5192888634
 20
11.5997761315
 10
17.4898301259
 20
11.6314278219
 10
17.4576953666
 20
11.660443919
 10
17.4231281966
 20
11.68660442
 10
17.3863906818
 20
11.7097109653
 10
17.3477613276
 20
11.7295883613
 10
17.3075329936
 20
11.7460858888
 10
17.2660106928
 20
11.7590784462
 10
17.223509232
 20
11.7684675186
 10
17.180350821
 20
11.7741819161
 10
17.1368626625
 20
11.7761783043
  0
LINE
  5
3BB
100
AcDbEntity
  8
RACCORDO
100
AcDbLine
 62
7
  6
CONTINUOUS
 10
15.8928438469
 20
29.5187880201
 11
15.8933163296
 21
29.5078825572
  0
LINE
  5
3BC
100
AcDbEntity
  8
RACCORDO
100
AcDbLine
 62
7
  6
CONTINUOUS
 10
15.8924246284
 20
29.5302831586
 11
15.8928438469
 21
29.5187880201
  0
LWPOLYLINE
  5
3BD
100
AcDbEntity
  8
RACCORDO
100
AcDbPolyline
 62
250
  6
CONTINUOUS
 90
6
 70
0
 10
17.634139808
 20
-23.0993254587
 10
17.6346457067
 20
-23.1138540533
 10
17.6351640148
 20
-23.1264315846
 10
17.6356924373
 20
-23.1369965856
 10
17.636233269
 20
-23.1456105232
 10
17.6367865101
 20
-23.1522733974
  0
LWPOLYLINE
  5
3BE
100
AcDbEntity
  8
RACCORDO
100
AcDbPolyline
 62
250
  6
CONTINUOUS
 90
3
 70
0
 10
17.1357648227
 20
-23.6140874747
 10
17.1363071893
 20
-23.6314095996
 10
17.1368626625
 20
-23.6446772739
  0
LINE
  5
3BF
100
AcDbEntity
  8
RACCORDO
100
AcDbLine
 62
7
  6
CONTINUOUS
 10
15.8918483084
 20
29.549385026
 11
15.8924246284
 21
29.5302831586
  0
LWPOLYLINE
  5
3C0
100
AcDbEntity
  8
RACCORDO
100
AcDbPolyline
 62
250
  6
CONTINUOUS
 90
5
 70
0
 10
16.3922639641
 20
29.0578242863
 10
16.3927547346
 20
29.0397924027
 10
16.393249266
 20
29.0266483529
 10
16.3937490976
 20
29.0184401665
 10
16.3942542293
 20
29.0151974368
  0
LINE
  5
3C1
100
AcDbEntity
  8
RACCORDO
100
AcDbLine
 62
250
  6
CONTINUOUS
 10
17.6331862992
 20
-23.0649472261
 11
17.634139808
 21
-23.0993254587
  0
LINE
  5
3C2
100
AcDbEntity
  8
RACCORDO
100
AcDbLine
 62
250
  6
CONTINUOUS
 10
16.588193912
 20
28.7345393529
 11
16.5900631273
 21
28.6644065631
  0
LINE
  5
3C3
100
AcDbEntity
  8
RACCORDO
100
AcDbLine
 62
7
  6
CONTINUOUS
 10
15.8913028749
 20
29.5714905116
 11
15.8918483084
 21
29.549385026
  0
LINE
  5
3C4
100
AcDbEntity
  8
RACCORDO
100
AcDbLine
 62
250
  6
CONTINUOUS
 10
17.1347173524
 20
-23.5675874063
 11
17.1357648227
 21
-23.6140874747
  0
LINE
  5
3C5
100
AcDbEntity
  8
RACCORDO
100
AcDbLine
 62
250
  6
CONTINUOUS
 10
17.6323160357
 20
-23.0237288526
 11
17.6331862992
 21
-23.0649472261
  0
LINE
  5
3C6
100
AcDbEntity
  8
RACCORDO
100
AcDbLine
 62
250
  6
CONTINUOUS
 10
16.5900631273
 20
28.6644065631
 11
16.591818574
 21
28.5762174407
  0
LINE
  5
3C7
100
AcDbEntity
  8
RACCORDO
100
AcDbLine
 62
7
  6
CONTINUOUS
 10
15.8904266126
 20
29.6164651825
 11
15.8913028749
 21
29.5714905116
  0
LINE
  5
3C8
100
AcDbEntity
  8
RACCORDO
100
AcDbLine
 62
250
  6
CONTINUOUS
 10
16.3913029413
 20
29.1082997061
 11
16.3922639641
 21
29.0578242863
  0
LINE
  5
3C9
100
AcDbEntity
  8
RACCORDO
100
AcDbLine
 62
250
  6
CONTINUOUS
 10
17.1337264238
 20
-23.5059528627
 11
17.1347173524
 21
-23.5675874063
  0
LINE
  5
3CA
100
AcDbEntity
  8
RACCORDO
100
AcDbLine
 62
250
  6
CONTINUOUS
 10
17.6312034772
 20
-22.9507556252
 11
17.6323160357
 21
-23.0237288526
  0
LINE
  5
3CB
100
AcDbEntity
  8
RACCORDO
100
AcDbLine
 62
250
  6
CONTINUOUS
 10
16.591818574
 20
28.5762174407
 11
16.5941889826
 21
28.4135700013
  0
LINE
  5
3CC
100
AcDbEntity
  8
RACCORDO
100
AcDbLine
 62
7
  6
CONTINUOUS
 10
16.0899494281
 20
29.1123764183
 11
16.0922131136
 21
28.9587979749
  0
LINE
  5
3CD
100
AcDbEntity
  8
RACCORDO
100
AcDbLine
 62
7
  6
CONTINUOUS
 10
15.8892527024
 20
29.6988078609
 11
15.8904266126
 21
29.6164651825
  0
LINE
  5
3CE
100
AcDbEntity
  8
RACCORDO
100
AcDbLine
 62
250
  6
CONTINUOUS
 10
16.389940409
 20
29.2187390341
 11
16.3913029413
 21
29.1082997061
  0
LINE
  5
3CF
100
AcDbEntity
  8
RACCORDO
100
AcDbLine
 62
250
  6
CONTINUOUS
 10
17.1319940729
 20
-23.3416176596
 11
17.1337264238
 21
-23.5059528627
  0
LINE
  5
3D0
100
AcDbEntity
  8
RACCORDO
100
AcDbLine
 62
250
  6
CONTINUOUS
 10
17.6303570492
 20
-22.8668029257
 11
17.6312034772
 21
-22.9507556252
  0
LINE
  5
3D1
100
AcDbEntity
  8
RACCORDO
100
AcDbLine
 62
250
  6
CONTINUOUS
 10
16.5941889826
 20
28.4135700013
 11
16.5967709385
 21
28.1470726167
  0
LINE
  5
3D2
100
AcDbEntity
  8
RACCORDO
100
AcDbLine
 62
7
  6
CONTINUOUS
 10
16.0922131136
 20
28.9587979749
 11
16.0952027129
 21
28.6537932734
  0
LINE
  5
3D3
100
AcDbEntity
  8
RACCORDO
100
AcDbLine
 62
7
  6
CONTINUOUS
 10
15.8830100256
 20
30.503510322
 11
15.8876586211
 21
29.8686914539
  0
LINE
  5
3D4
100
AcDbEntity
  8
RACCORDO
100
AcDbLine
 62
7
  6
CONTINUOUS
 10
15.8876586554
 20
29.8686946712
 11
15.8892527024
 21
29.6988078609
  0
LINE
  5
3D5
100
AcDbEntity
  8
RACCORDO
100
AcDbLine
 62
250
  6
CONTINUOUS
 10
16.3730060659
 20
31.5501022628
 11
16.389940409
 21
29.2187390341
  0
LINE
  5
3D6
100
AcDbEntity
  8
RACCORDO
100
AcDbLine
 62
250
  6
CONTINUOUS
 10
17.1302181937
 20
-23.0144890846
 11
17.1319940729
 21
-23.3416176596
  0
LINE
  5
3D7
100
AcDbEntity
  8
RACCORDO
100
AcDbLine
 62
250
  6
CONTINUOUS
 10
17.6296980676
 20
-22.7437330369
 11
17.6303570492
 21
-22.8668029257
  0
LINE
  5
3D8
100
AcDbEntity
  8
RACCORDO
100
AcDbLine
 62
7
  6
CONTINUOUS
 10
16.0952027129
 20
28.6537932734
 11
16.0984589374
 21
28.0410368995
  0
LINE
  5
3D9
100
AcDbEntity
  8
RACCORDO
100
AcDbLine
 62
250
  6
CONTINUOUS
 10
16.5967709385
 20
28.1470726167
 11
16.5991542295
 21
27.6668202773
  0
LINE
  5
3DA
100
AcDbEntity
  8
RACCORDO
100
AcDbLine
 62
250
  6
CONTINUOUS
 10
17.1256702461
 20
-15.2498467175
 11
17.1302181937
 21
-23.0144890846
  0
LINE
  5
3DB
100
AcDbEntity
  8
RACCORDO
100
AcDbLine
 62
250
  6
CONTINUOUS
 10
17.6255940943
 20
-15.2385120947
 11
17.6296980676
 21
-22.7437330369
  0
LINE
  5
3DC
100
AcDbEntity
  8
RACCORDO
100
AcDbLine
 62
250
  6
CONTINUOUS
 10
15.6039336583
 20
26.3651079123
 11
15.6039336583
 21
30.1152962263
  0
LINE
  5
3DD
100
AcDbEntity
  8
RACCORDO
100
AcDbLine
 62
250
  6
CONTINUOUS
 10
16.9458735984
 20
-28.2385370929
 11
16.9458735984
 21
-27.9885751692
  0
LINE
  5
3DE
100
AcDbEntity
  8
RACCORDO
100
AcDbLine
 62
250
  6
CONTINUOUS
 10
16.9458735984
 20
16.1200761993
 11
16.9458735984
 21
16.3700381231
  0
LINE
  5
3DF
100
AcDbEntity
  8
RACCORDO
100
AcDbLine
 62
250
  6
CONTINUOUS
 10
17.1239614471
 20
-4.0709868262
 11
17.1256702461
 21
-15.2498467175
  0
LINE
  5
3E0
100
AcDbEntity
  8
RACCORDO
100
AcDbLine
 62
250
  6
CONTINUOUS
 10
17.193710424
 20
15.8744018835
 11
17.193710424
 21
12.8658266675
  0
LINE
  5
3E1
100
AcDbEntity
  8
RACCORDO
100
AcDbLine
 62
250
  6
CONTINUOUS
 10
17.193710424
 20
-24.7343256374
 11
17.193710424
 21
-27.7429008534
  0
LINE
  5
3E2
100
AcDbEntity
  8
RACCORDO
100
AcDbLine
 62
250
  6
CONTINUOUS
 10
17.2024379565
 20
12.8658266675
 11
17.2024379565
 21
12.3656977101
  0
LINE
  5
3E3
100
AcDbEntity
  8
RACCORDO
100
AcDbLine
 62
250
  6
CONTINUOUS
 10
17.2024379565
 20
-24.23419668
 11
17.2024379565
 21
-24.7343256374
  0
LINE
  5
3E4
100
AcDbEntity
  8
RACCORDO
100
AcDbLine
 62
250
  6
CONTINUOUS
 10
17.623885298
 20
-4.0730726287
 11
17.6255940943
 21
-15.2385120947
  0
LINE
  5
3E5
100
AcDbEntity
  8
RACCORDO
100
AcDbLine
 62
250
  6
CONTINUOUS
 10
17.6936342716
 20
15.8744018835
 11
17.6936342716
 21
13.3657505151
  0
LINE
  5
3E6
100
AcDbEntity
  8
RACCORDO
100
AcDbLine
 62
250
  6
CONTINUOUS
 10
17.6936342716
 20
-25.2342494849
 11
17.6936342716
 21
-27.7429008534
  0
LINE
  5
3E7
100
AcDbEntity
  8
RACCORDO
100
AcDbLine
 62
250
  6
CONTINUOUS
 10
17.702361804
 20
13.3657505151
 11
17.702361804
 21
11.9462006995
  0
LINE
  5
3E8
100
AcDbEntity
  8
RACCORDO
100
AcDbLine
 62
250
  6
CONTINUOUS
 10
17.702361804
 20
-23.8146996693
 11
17.702361804
 21
-25.2342494849
  0
LINE
  5
3E9
100
AcDbEntity
  8
RACCORDO
100
AcDbLine
 62
7
  6
CONTINUOUS
 10
17.7374242503
 20
-38.2501294985
 11
17.7374242503
 21
29.0151974368
  0
LINE
  5
3EA
100
AcDbEntity
  8
ASSI
100
AcDbLine
 62
7
  6
CONTINUOUS
 10
17.7374242503
 20
29.0151974368
 11
17.7374242503
 21
32.5142836773
  0
LINE
  5
3EB
100
AcDbEntity
  8
RACCORDO
100
AcDbLine
 62
7
  6
CONTINUOUS
 10
17.7374242503
 20
32.5142836773
 11
17.7374242503
 21
38.2501294985
  0
LINE
  5
3EC
100
AcDbEntity
  8
RACCORDO
100
AcDbLine
 62
250
  6
CONTINUOUS
 10
17.1273790447
 20
7.1065840407
 11
17.1239614471
 21
-4.0709868262
  0
LINE
  5
3ED
100
AcDbEntity
  8
RACCORDO
100
AcDbLine
 62
250
  6
CONTINUOUS
 10
17.6273028943
 20
7.0907746119
 11
17.623885298
 21
-4.0730726287
  0
LINE
  5
3EE
100
AcDbEntity
  8
RACCORDO
100
AcDbLine
 62
7
  6
CONTINUOUS
 10
16.0984589374
 20
28.0410368995
 11
16.0994623599
 21
27.0207604276
  0
LINE
  5
3EF
100
AcDbEntity
  8
RACCORDO
100
AcDbLine
 62
250
  6
CONTINUOUS
 10
16.5991542295
 20
27.6668202773
 11
16.5993628639
 21
27.0277415692
  0
LINE
  5
3F0
100
AcDbEntity
  8
RACCORDO
100
AcDbLine
 62
250
  6
CONTINUOUS
 10
17.130684473
 20
11.2635232036
 11
17.1273790447
 21
7.1065840407
  0
LINE
  5
3F1
100
AcDbEntity
  8
RACCORDO
100
AcDbLine
 62
250
  6
CONTINUOUS
 10
17.6299574781
 20
10.9377926196
 11
17.6273028943
 21
7.0907746119
  0
LINE
  5
3F2
100
AcDbEntity
  8
RACCORDO
100
AcDbLine
 62
7
  6
CONTINUOUS
 10
16.0994623599
 20
27.0207604276
 11
16.0968448136
 21
26.1993827635
  0
LINE
  5
3F3
100
AcDbEntity
  8
RACCORDO
100
AcDbLine
 62
250
  6
CONTINUOUS
 10
16.5993628639
 20
27.0277415692
 11
16.5973758493
 21
26.54440265
  0
LINE
  5
3F4
100
AcDbEntity
  8
RACCORDO
100
AcDbLine
 62
250
  6
CONTINUOUS
 10
17.1323904179
 20
11.5189109786
 11
17.130684473
 21
11.2635232036
  0
LINE
  5
3F5
100
AcDbEntity
  8
RACCORDO
100
AcDbLine
 62
7
  6
CONTINUOUS
 10
16.0968448136
 20
26.1993827635
 11
16.0941272665
 21
25.8253174284
  0
LINE
  5
3F6
100
AcDbEntity
  8
RACCORDO
100
AcDbLine
 62
250
  6
CONTINUOUS
 10
17.6308898402
 20
11.0553076723
 11
17.6299574781
 21
10.9377926196
  0
LINE
  5
3F7
100
AcDbEntity
  8
RACCORDO
100
AcDbLine
 62
250
  6
CONTINUOUS
 10
16.5973758493
 20
26.54440265
 11
16.5943593039
 21
26.2061730606
  0
LINE
  5
3F8
100
AcDbEntity
  8
RACCORDO
100
AcDbLine
 62
250
  6
CONTINUOUS
 10
17.1337263719
 20
11.6374534984
 11
17.1323904179
 21
11.5189109786
  0
LINE
  5
3F9
100
AcDbEntity
  8
RACCORDO
100
AcDbLine
 62
250
  6
CONTINUOUS
 10
17.6319174439
 20
11.1322492415
 11
17.6308898402
 21
11.0553076723
  0
LINE
  5
3FA
100
AcDbEntity
  8
RACCORDO
100
AcDbLine
 62
250
  6
CONTINUOUS
 10
16.5943593039
 20
26.2061730606
 11
16.5920569062
 21
26.0432619009
  0
LINE
  5
3FB
100
AcDbEntity
  8
RACCORDO
100
AcDbLine
 62
250
  6
CONTINUOUS
 10
17.1347172788
 20
11.6990853535
 11
17.1337263719
 21
11.6374534984
  0
LINE
  5
3FC
100
AcDbEntity
  8
RACCORDO
100
AcDbLine
 62
250
  6
CONTINUOUS
 10
17.6327376907
 20
11.1765499573
 11
17.6319174439
 21
11.1322492415
  0
LINE
  5
3FD
100
AcDbEntity
  8
RACCORDO
100
AcDbLine
 62
250
  6
CONTINUOUS
 10
16.5920569062
 20
26.0432619009
 11
16.5903495021
 21
25.9540091155
  0
LWPOLYLINE
  5
3FE
100
AcDbEntity
  8
RACCORDO
100
AcDbPolyline
 62
250
  6
CONTINUOUS
 90
6
 70
0
 10
15.8830097066
 20
30.5035539375
 10
15.8834558147
 20
30.521400322
 10
15.8855878932
 20
30.5430380188
 10
15.8894326811
 20
30.5642802432
 10
15.8949478734
 20
30.5851888708
 10
15.902086061
 20
30.6058230318
  0
LWPOLYLINE
  5
3FF
100
AcDbEntity
  8
RACCORDO
100
AcDbPolyline
 62
250
  6
CONTINUOUS
 90
8
 70
0
 10
16.5903495021
 20
25.9540091155
 10
16.5885285873
 20
25.8820222734
 10
16.5875892642
 20
25.8529665363
 10
16.5866311672
 20
25.8286301862
 10
16.5856686827
 20
25.8091335636
 10
16.5847066063
 20
25.7944658157
 10
16.5837401423
 20
25.7845512563
 10
16.5827692908
 20
25.7793292924
  0
LWPOLYLINE
  5
400
100
AcDbEntity
  8
RACCORDO
100
AcDbPolyline
 62
250
  6
CONTINUOUS
 90
4
 70
0
 10
17.1368626625
 20
11.776178304
 10
17.1363071448
 20
11.7629093778
 10
17.1357647482
 20
11.7455859606
 10
17.1347172788
 20
11.6990853535
  0
LWPOLYLINE
  5
401
100
AcDbEntity
  8
RACCORDO
100
AcDbPolyline
 62
250
  6
CONTINUOUS
 90
8
 70
0
 10
17.6367865101
 20
11.2837744275
 10
17.636233523
 20
11.2771177938
 10
17.6356928224
 20
11.2685069774
 10
17.6351644083
 20
11.2579419782
 10
17.634645952
 20
11.2453616784
 10
17.6341397822
 20
11.2308271959
 10
17.6336528849
 20
11.2145218847
 10
17.6327376907
 20
11.1765499573
  0
LINE
  5
402
100
AcDbEntity
  8
RACCORDO
100
AcDbLine
 62
7
  6
CONTINUOUS
 10
12.5310619127
 20
-24.2342494849
 11
12.5894251942
 21
-23.6446772739
  0
LINE
  5
403
100
AcDbEntity
  8
RACCORDO
100
AcDbLine
 62
250
  6
CONTINUOUS
 10
17.1952259441
 20
12.3657505151
 11
17.1368626625
 21
11.776178304
  0
LINE
  5
404
100
AcDbEntity
  8
RACCORDO
100
AcDbLine
 62
250
  6
CONTINUOUS
 10
17.702361804
 20
11.9462006995
 11
17.6367865101
 21
11.2837744275
  0
LINE
  5
405
100
AcDbEntity
  8
DRAFT
100
AcDbLine
 62
7
  6
CONTINUOUS
 10
-6.2966105341
 20
-30.4682842693
 11
-6.2625757497
 21
-30.4342494849
  0
LINE
  5
406
100
AcDbEntity
  8
DRAFT
100
AcDbLine
 62
7
  6
CONTINUOUS
 10
12.4874242503
 20
-12.7256682005
 11
12.5702679907
 21
-12.6842494849
  0
LWPOLYLINE
  5
407
100
AcDbEntity
  8
RACCORDO
100
AcDbPolyline
 62
250
  6
CONTINUOUS
 90
31
 70
0
 10
-17.2188619233
 20
16.3743257311
 10
-17.2550176781
 20
16.3729521806
 10
-17.2904752508
 20
16.3689564256
 10
-17.32501159
 20
16.3624021056
 10
-17.3586013887
 20
16.3532807823
 10
-17.3907920872
 20
16.341659551
 10
-17.4207484936
 20
16.327817626
 10
-17.4481538624
 20
16.311899271
 10
-17.4729291876
 20
16.2939678007
 10
-17.4947257357
 20
16.2743641339
 10
-17.5134043118
 20
16.2533076708
 10
-17.5289752809
 20
16.2308531729
 10
-17.5414530206
 20
16.2071948188
 10
-17.5512631873
 20
16.1821723295
 10
-17.5580060871
 20
16.1561601363
 10
-17.560593561
 20
16.1302284809
 10
-17.5586140008
 20
16.1046815199
 10
-17.5526344245
 20
16.0793315051
 10
-17.5431733472
 20
16.0545939759
 10
-17.5303949359
 20
16.0304626493
 10
-17.5142742505
 20
16.0070011714
 10
-17.4951686269
 20
15.9848567899
 10
-17.4730625735
 20
15.9640308619
 10
-17.4480141933
 20
15.9445569514
 10
-17.4205919516
 20
15.9272561671
 10
-17.3907295656
 20
15.9125519153
 10
-17.3585487268
 20
15.9001739648
 10
-17.325035061
 20
15.8900344057
 10
-17.2906333981
 20
15.8822252123
 10
-17.2551825912
 20
15.8769630404
 10
-17.2188619233
 20
15.8744018835
  0
LINE
  5
408
100
AcDbEntity
  8
RACCORDO
100
AcDbLine
 62
250
  6
CONTINUOUS
 10
17.1639502993
 20
16.3726146103
 11
17.1405735617
 21
16.3719818294
  0
LINE
  5
409
100
AcDbEntity
  8
RACCORDO
100
AcDbLine
 62
250
  6
CONTINUOUS
 10
17.1405735617
 20
16.3719818294
 11
17.111932399
 21
16.3714040894
  0
LINE
  5
40A
100
AcDbEntity
  8
RACCORDO
100
AcDbLine
 62
250
  6
CONTINUOUS
 10
17.111932399
 20
16.3714040894
 11
17.0615343499
 21
16.3706887843
  0
LINE
  5
40B
100
AcDbEntity
  8
RACCORDO
100
AcDbLine
 62
250
  6
CONTINUOUS
 10
17.0615343499
 20
16.3706887843
 11
17.0050790048
 21
16.3702116797
  0
LINE
  5
40C
100
AcDbEntity
  8
RACCORDO
100
AcDbLine
 62
250
  6
CONTINUOUS
 10
17.0050790048
 20
16.3702116797
 11
16.9458735984
 21
16.3700381231
  0
LINE
  5
40D
100
AcDbEntity
  8
RACCORDO
100
AcDbLine
 62
250
  6
CONTINUOUS
 10
-17.7187857709
 20
15.8744018835
 11
-17.2188619233
 21
15.8744018835
  0
LINE
  5
40E
100
AcDbEntity
  8
RACCORDO
100
AcDbLine
 62
250
  6
CONTINUOUS
 10
17.6936342716
 20
15.8744018835
 11
17.193710424
 21
15.8744018835
  0
LINE
  5
40F
100
AcDbEntity
  8
RACCORDO
100
AcDbLine
 62
250
  6
CONTINUOUS
 10
-16.9710250977
 20
16.1200761993
 11
-12.5649409445
 21
16.1200761993
  0
LINE
  5
410
100
AcDbEntity
  8
RACCORDO
100
AcDbLine
 62
250
  6
CONTINUOUS
 10
12.5397894451
 20
16.1200761993
 11
16.9458735984
 21
16.1200761993
  0
LINE
  5
411
100
AcDbEntity
  8
RACCORDO
100
AcDbLine
 62
250
  6
CONTINUOUS
 10
12.5355018371
 20
16.3700381231
 11
16.9458735984
 21
16.3700381231
  0
LINE
  5
412
100
AcDbEntity
  8
RACCORDO
100
AcDbLine
 62
7
  6
CONTINUOUS
 10
17.2375004028
 20
16.4181157099
 11
12.4874242503
 21
16.4181157099
  0
LINE
  5
413
100
AcDbEntity
  8
RACCORDO
100
AcDbLine
 62
7
  6
CONTINUOUS
 10
-12.5125757497
 20
16.4181157099
 11
-17.2626519021
 21
16.4181157099
  0
LINE
  5
414
100
AcDbEntity
  8
DRAFT
100
AcDbLine
 62
7
  6
CONTINUOUS
 10
12.4874242503
 20
16.5657505151
 11
8.0874242503
 21
16.5657505151
  0
LINE
  5
415
100
AcDbEntity
  8
DRAFT
100
AcDbLine
 62
7
  6
CONTINUOUS
 10
-8.1125757497
 20
16.5657505151
 11
-12.5125757497
 21
16.5657505151
  0
LINE
  5
416
100
AcDbEntity
  8
DRAFT
100
AcDbLine
 62
7
  6
CONTINUOUS
 10
-4.2125757497
 20
17.2657505151
 11
-1.6125757497
 21
17.2657505151
  0
LINE
  5
417
100
AcDbEntity
  8
DRAFT
100
AcDbLine
 62
7
  6
CONTINUOUS
 10
4.1874242503
 20
17.2657505151
 11
1.5874242503
 21
17.2657505151
  0
LINE
  5
418
100
AcDbEntity
  8
DRAFT
100
AcDbLine
 62
7
  6
CONTINUOUS
 10
8.0874242503
 20
17.3157505151
 11
6.2374242503
 21
17.3157505151
  0
LINE
  5
419
100
AcDbEntity
  8
DRAFT
100
AcDbLine
 62
7
  6
CONTINUOUS
 10
-6.2625757497
 20
17.3157505151
 11
-8.1125757497
 21
17.3157505151
  0
LINE
  5
41A
100
AcDbEntity
  8
RACCORDO
100
AcDbLine
 62
250
  6
CONTINUOUS
 10
-17.0108009311
 20
16.3701200999
 11
-12.5606533364
 21
16.3700381231
  0
LINE
  5
41B
100
AcDbEntity
  8
RACCORDO
100
AcDbLine
 62
250
  6
CONTINUOUS
 10
-17.0684179436
 20
16.3705008624
 11
-17.0108009311
 21
16.3701200999
  0
LINE
  5
41C
100
AcDbEntity
  8
RACCORDO
100
AcDbLine
 62
250
  6
CONTINUOUS
 10
-17.1212025619
 20
16.3711440282
 11
-17.0684179436
 21
16.3705008624
  0
LINE
  5
41D
100
AcDbEntity
  8
RACCORDO
100
AcDbLine
 62
250
  6
CONTINUOUS
 10
-17.1519247314
 20
16.3716833564
 11
-17.1212025619
 21
16.3711440282
  0
LWPOLYLINE
  5
41E
100
AcDbEntity
  8
RACCORDO
100
AcDbPolyline
 62
250
  6
CONTINUOUS
 90
22
 70
0
 10
17.193710424
 20
15.8744018835
 10
17.1922719134
 20
15.891487358
 10
17.1894160978
 20
15.9084325854
 10
17.1851429771
 20
15.9252375658
 10
17.179367889
 20
15.9419908375
 10
17.1721754958
 20
15.9586038622
 10
17.1638197847
 20
15.9748110248
 10
17.1543007557
 20
15.9906123251
 10
17.1436184088
 20
16.0060077633
 10
17.1320267312
 20
16.0207317241
 10
17.1195257229
 20
16.0347842076
 10
17.1061153839
 20
16.0481652138
 10
17.0920497014
 20
16.0606091275
 10
17.0773286752
 20
16.0721159488
 10
17.0619523056
 20
16.0826856776
 10
17.0461745795
 20
16.0920526988
 10
17.0299954971
 20
16.1002170123
 10
17.0134150583
 20
16.1071786183
 10
16.9966872504
 20
16.1126719014
 10
16.9798967356
 20
16.1166083235
 10
16.9629588516
 20
16.1190764228
 10
16.9458735984
 20
16.1200761993
  0
LWPOLYLINE
  5
41F
100
AcDbEntity
  8
RACCORDO
100
AcDbPolyline
 62
250
  6
CONTINUOUS
 90
19
 70
0
 10
17.6936342716
 20
15.8744018835
 10
17.691719379
 20
15.9179646925
 10
17.6860158063
 20
15.9611960907
 10
17.6765669444
 20
16.0037671886
 10
17.6634446769
 20
16.0453541199
 10
17.6467488335
 20
16.0856405057
 10
17.6266064304
 20
16.124319861
 10
17.6031707041
 20
16.1610979267
 10
17.5766199454
 20
16.195694908
 10
17.5471561434
 20
16.2278476029
 10
17.5150034485
 20
16.2573114049
 10
17.4804064672
 20
16.2838621636
 10
17.4436284015
 20
16.3072978899
 10
17.4049490462
 20
16.327440293
 10
17.3646626604
 20
16.3441361364
 10
17.3230757291
 20
16.3572584039
 10
17.2805046312
 20
16.3667072658
 10
17.237273233
 20
16.3724108385
 10
17.193710424
 20
16.3743257311
  0
LWPOLYLINE
  5
420
100
AcDbEntity
  8
RACCORDO
100
AcDbPolyline
 62
250
  6
CONTINUOUS
 90
19
 70
0
 10
17.6936342716
 20
-27.7429008534
 10
17.691755029
 20
-27.7860555965
 10
17.6861381439
 20
-27.8289994405
 10
17.6767967333
 20
-27.8714063168
 10
17.6637597634
 20
-27.9129854489
 10
17.6471046559
 20
-27.9533750603
 10
17.6269876921
 20
-27.9921574949
 10
17.6035859773
 20
-28.0290030181
 10
17.5770606075
 20
-28.0636680315
 10
17.5476067339
 20
-28.0958954075
 10
17.5154419806
 20
-28.1254419421
 10
17.4808142707
 20
-28.1520752314
 10
17.4439949061
 20
-28.1755849893
 10
17.4052677748
 20
-28.1957904365
 10
17.3649259232
 20
-28.2125391429
 10
17.3232777768
 20
-28.2257031394
 10
17.2806414284
 20
-28.2351820582
 10
17.2373421515
 20
-28.2409037541
 10
17.193710424
 20
-28.2428247009
  0
LWPOLYLINE
  5
421
100
AcDbEntity
  8
RACCORDO
100
AcDbPolyline
 62
250
  6
CONTINUOUS
 90
19
 70
0
 10
17.6367865101
 20
-23.1522733974
 10
17.6347596852
 20
-23.1951068306
 10
17.6289581617
 20
-23.2376155314
 10
17.6194259224
 20
-23.2794772292
 10
17.606235234
 20
-23.3203745586
 10
17.5894860988
 20
-23.3599974654
 10
17.5693054969
 20
-23.3980455571
 10
17.545846423
 20
-23.4342303802
 10
17.5192867271
 20
-23.4682776074
 10
17.4898277658
 20
-23.4999291169
 10
17.4576928758
 20
-23.5289449498
 10
17.4231256808
 20
-23.5551051286
 10
17.3863882446
 20
-23.5782113256
 10
17.347759084
 20
-23.5980883663
 10
17.3075310578
 20
-23.6145855571
 10
17.2660091461
 20
-23.6275778282
 10
17.2235081381
 20
-23.6369666813
 10
17.1803502462
 20
-23.642680937
 10
17.1368626625
 20
-23.6446772739
  0
LWPOLYLINE
  5
422
100
AcDbEntity
  8
RACCORDO
100
AcDbPolyline
 62
250
  6
CONTINUOUS
 90
22
 70
0
 10
17.193710424
 20
-27.7429008534
 10
17.1918890158
 20
-27.7599706238
 10
17.1887151005
 20
-27.7769028048
 10
17.1841886783
 20
-27.7936973964
 10
17.1782309774
 20
-27.8104431785
 10
17.1709207696
 20
-27.8270513712
 10
17.1624943697
 20
-27.8432556345
 10
17.1529517778
 20
-27.8590559685
 10
17.1422929938
 20
-27.8744523731
 10
17.1307543328
 20
-27.8891785083
 10
17.1183357948
 20
-27.9032343742
 10
17.1050373797
 20
-27.9166199708
 10
17.0910954025
 20
-27.9290689582
 10
17.0765098633
 20
-27.9405813362
 10
17.061280762
 20
-27.951157105
 10
17.0456444135
 20
-27.9605299246
 10
17.029600818
 20
-27.968699795
 10
17.0131499753
 20
-27.9756667161
 10
16.9965282006
 20
-27.9811643481
 10
16.9798142653
 20
-27.9851039109
 10
16.9629293979
 20
-27.9875741846
 10
16.9458735984
 20
-27.9885751692
  0
LINE
  5
423
100
AcDbEntity
  8
RACCORDO
100
AcDbLine
 62
7
  6
CONTINUOUS
 10
-11.7374745771
 20
-37.9539123165
 11
-10.8636819063
 21
-37.0801196456
  0
LINE
  5
424
100
AcDbEntity
  8
ASSI
100
AcDbLine
 62
7
  6
CONTINUOUS
 10
-2.4467467497
 20
-22.1858964849
 11
-3.3203337497
 21
-22.5651734849
  0
LINE
  5
425
100
AcDbEntity
  8
ASSI
100
AcDbLine
 62
7
  6
CONTINUOUS
 10
-3.5166347497
 20
-23.3109064849
 11
-2.6400337497
 21
-22.9303214849
  0
LINE
  5
426
100
AcDbEntity
  8
ASSI
100
AcDbLine
 62
7
  6
CONTINUOUS
 10
-0.0592117497
 20
-22.1858964849
 11
-0.9109317497
 21
-22.5556794849
  0
LINE
  5
427
100
AcDbEntity
  8
ASSI
100
AcDbLine
 62
7
  6
CONTINUOUS
 10
-2.7711137497
 20
-23.4351604849
 11
-3.6614907497
 21
-23.8217264849
  0
LINE
  5
428
100
AcDbEntity
  8
DRAFT
100
AcDbLine
 62
7
  6
CONTINUOUS
 10
6.2374242503
 20
18.5657505151
 11
2.9874242503
 21
18.5657505151
  0
LINE
  5
429
100
AcDbEntity
  8
DRAFT
100
AcDbLine
 62
7
  6
CONTINUOUS
 10
1.5874242503
 20
18.5657505151
 11
-1.6125757497
 21
18.5657505151
  0
LINE
  5
42A
100
AcDbEntity
  8
DRAFT
100
AcDbLine
 62
7
  6
CONTINUOUS
 10
-3.0125757497
 20
18.5657505151
 11
-6.2625757497
 21
18.5657505151
  0
LINE
  5
42B
100
AcDbEntity
  8
DRAFT
100
AcDbLine
 62
7
  6
CONTINUOUS
 10
6.2714590347
 20
18.5997852995
 11
2.9874242503
 21
18.5997852995
  0
LINE
  5
42C
100
AcDbEntity
  8
DRAFT
100
AcDbLine
 62
7
  6
CONTINUOUS
 10
-3.0125757497
 20
18.5997852995
 11
-6.2966105341
 21
18.5997852995
  0
LINE
  5
42D
100
AcDbEntity
  8
COPY-PUBBLISH
100
AcDbLine
 62
7
  6
CONTINUOUS
 10
-3.0125757497
 20
20.0491694663
 11
-0.5959947009
 21
20.0491694663
  0
LINE
  5
42E
100
AcDbEntity
  8
COPY-PUBBLISH
100
AcDbLine
 62
7
  6
CONTINUOUS
 10
0.5708432015
 20
20.0491694663
 11
2.9874242503
 21
20.0491694663
  0
LINE
  5
42F
100
AcDbEntity
  8
COPY-PUBBLISH
100
AcDbLine
 62
7
  6
CONTINUOUS
 10
-0.5959947009
 20
20.0657505151
 11
0.5708432015
 21
20.0657505151
  0
LINE
  5
430
100
AcDbEntity
  8
COPY-PUBBLISH
100
AcDbLine
 62
7
  6
CONTINUOUS
 10
-3.0125757497
 20
20.1653252957
 11
-0.6125757497
 21
20.1653252957
  0
LINE
  5
431
100
AcDbEntity
  8
COPY-PUBBLISH
100
AcDbLine
 62
7
  6
CONTINUOUS
 10
0.5874242503
 20
20.1653252957
 11
2.9874242503
 21
20.1653252957
  0
LINE
  5
432
100
AcDbEntity
  8
DRAFT
100
AcDbLine
 62
7
  6
CONTINUOUS
 10
-3.0125757497
 20
20.2701408543
 11
2.9874242503
 21
20.2701408543
  0
LWPOLYLINE
  5
433
100
AcDbEntity
  8
RACCORDO
100
AcDbPolyline
 62
250
  6
CONTINUOUS
 90
15
 70
0
 10
17.6295812908
 20
10.8110941596
 10
17.62696938
 20
10.8127944061
 10
17.6206561489
 20
10.8144819983
 10
17.6106885848
 20
10.816144376
 10
17.5971408726
 20
10.8177691666
 10
17.5801138433
 20
10.8193442775
 10
17.5597342233
 20
10.8208579857
 10
17.5361536909
 20
10.822299025
 10
17.5095477479
 20
10.8236566705
 10
17.480114413
 20
10.8249208175
 10
17.4480727485
 20
10.8260820575
 10
17.4136612292
 20
10.8271317477
 10
17.3771359683
 20
10.8280620758
 10
17.3387688104
 20
10.8288661175
 10
17.2576626014
 20
10.8300723896
  0
LINE
  5
434
100
AcDbEntity
  8
0
100
AcDbLine
 62
7
  6
CONTINUOUS
 10
12.5355018371
 20
16.3700381231
 11
12.4874242503
 21
16.4181157099
  0
LINE
  5
435
100
AcDbEntity
  8
ASSI
100
AcDbLine
 62
7
  6
CONTINUOUS
 10
0.8473412503
 20
-24.6601364849
 11
0.4207012503
 21
-24.8453674849
  0
LINE
  5
436
100
AcDbEntity
  8
ASSI
100
AcDbLine
 62
7
  6
CONTINUOUS
 10
2.0603662503
 20
-24.4651114849
 11
2.8621588909
 21
-24.1170052068
  0
LINE
  5
437
100
AcDbEntity
  8
ASSI
100
AcDbLine
 62
7
  6
CONTINUOUS
 10
0.3144100423
 20
-25.2231361411
 11
1.6378552503
 21
-24.6485494849
  0
LINE
  5
438
100
AcDbEntity
  8
ASSI
100
AcDbLine
 62
7
  6
CONTINUOUS
 10
3.2358942503
 20
-24.3795424849
 11
1.9360562503
 21
-24.9438804849
  0
LINE
  5
439
100
AcDbEntity
  8
ASSI
100
AcDbLine
 62
7
  6
CONTINUOUS
 10
1.5135442503
 20
-25.1273184849
 11
0.6426719411
 21
-25.5054166192
  0
LINE
  5
43A
100
AcDbEntity
  8
ASSI
100
AcDbLine
 62
7
  6
CONTINUOUS
 10
2.7310802503
 20
-24.8951044849
 11
3.1491592503
 21
-24.7135914849
  0
LINE
  5
43B
100
AcDbEntity
  8
RACCORDO
100
AcDbLine
 62
250
  6
CONTINUOUS
 10
17.7374242503
 20
23.1172173529
 11
-17.7625757497
 21
23.1172173529
  0
LINE
  5
43C
100
AcDbEntity
  8
RACCORDO
100
AcDbLine
 62
250
  6
CONTINUOUS
 10
17.7374242503
 20
24.6163035934
 11
-17.7625757497
 21
24.6163035934
  0
LINE
  5
43D
100
AcDbEntity
  8
RACCORDO
100
AcDbLine
 62
7
  6
CONTINUOUS
 10
7.8403579259
 20
25.1105145191
 11
-7.8655094252
 21
25.1105145191
  0
LWPOLYLINE
  5
43E
100
AcDbEntity
  8
0
100
AcDbPolyline
 62
7
  6
CONTINUOUS
 90
10
 70
0
 43
0.3500000006
 10
0.8445671253
 20
47.5001274719
 10
0.9159956882
 20
47.3572741699
 10
0.9159956882
 20
47.2858429871
 10
0.7731385624
 20
47.1429851532
 10
0.7017099996
 20
47.1429851532
 10
0.6302813659
 20
47.2144163361
 10
0.6302813659
 20
47.2858429871
 10
0.7017099996
 20
47.4287008209
 10
0.7731385624
 20
47.5001274719
 10
0.8445671253
 20
47.5001274719
  0
LWPOLYLINE
  5
43F
100
AcDbEntity
  8
RACCORDO
100
AcDbPolyline
 62
250
  6
CONTINUOUS
 90
7
 70
0
 10
16.5823068779
 20
28.8271447882
 10
16.5832972985
 20
28.8240154036
 10
16.5842840197
 20
28.8160441525
 10
16.5852670417
 20
28.8031583346
 10
16.5862511844
 20
28.7852726603
 10
16.5872316277
 20
28.7623635396
 10
16.588193912
 20
28.7345393529
  0
LWPOLYLINE
  5
440
100
AcDbEntity
  8
RACCORDO
100
AcDbPolyline
 62
250
  6
CONTINUOUS
 90
16
 70
0
 10
15.9107943936
 20
30.6262388008
 10
15.8990017347
 20
30.6692229397
 10
15.8835590973
 20
30.7109840217
 10
15.8645893515
 20
30.7511897648
 10
15.8422434318
 20
30.7895202627
 10
15.8166991357
 20
30.8256705299
 10
15.7881597094
 20
30.8593529282
 10
15.7568522305
 20
30.8902994557
 10
15.7230258014
 20
30.9182638791
 10
15.6869495668
 20
30.9430236928
 10
15.6489105727
 20
30.9643818893
 10
15.6092114823
 20
30.982168527
 10
15.5681681675
 20
30.9962420823
 10
15.5261071962
 20
31.0064905753
 10
15.4833632333
 20
31.0128324612
 10
15.4402763783
 20
31.0152172792
  0
LWPOLYLINE
  5
441
100
AcDbEntity
  8
RACCORDO
100
AcDbPolyline
 62
250
  6
CONTINUOUS
 90
17
 70
0
 10
15.8681402856
 20
30.6206636048
 10
15.8660695877
 20
30.6286582781
 10
15.8529610819
 20
30.6702408523
 10
15.8362751951
 20
30.7105219592
 10
15.8161389717
 20
30.7491949147
 10
15.7927057249
 20
30.7859652813
 10
15.7661538692
 20
30.820553108
 10
15.7366855634
 20
30.8526950602
 10
15.7045251704
 20
30.8821464265
 10
15.669917548
 20
30.9086829816
 10
15.6331261858
 20
30.9321026922
 10
15.5944311994
 20
30.9522272557
 10
15.5541271961
 20
30.9689034577
 10
15.5125210321
 20
30.9820043387
 10
15.4699294773
 20
30.9914301593
 10
15.4266768047
 20
30.9971091604
 10
15.3830923191
 20
30.9989981095
  0
LINE
  5
442
100
AcDbEntity
  8
RACCORDO
100
AcDbLine
 62
7
  6
CONTINUOUS
 10
15.8681744335
 20
30.620527043
 11
15.8681402856
 21
30.6206636048
  0
LINE
  5
443
100
AcDbEntity
  8
RACCORDO
100
AcDbLine
 62
250
  6
CONTINUOUS
 10
15.6039336583
 20
30.1152962263
 11
15.3830923191
 21
30.9989981095
  0
LWPOLYLINE
  5
444
100
AcDbEntity
  8
RACCORDO
100
AcDbPolyline
 62
7
  6
CONTINUOUS
 90
4
 70
0
 10
15.8681403036
 20
30.6206636071
 10
15.8762866175
 20
30.5814718522
 10
15.8811679882
 20
30.542793306
 10
15.8830100294
 20
30.5035127878
  0
LINE
  5
445
100
AcDbEntity
  8
0
100
AcDbLine
 62
7
  6
CONTINUOUS
 10
12.4874242503
 20
-28.2866146797
 11
12.5355018371
 21
-28.2385370929
  0
LWPOLYLINE
  5
446
100
AcDbEntity
  8
RACCORDO
100
AcDbPolyline
 62
250
  6
CONTINUOUS
 90
13
 70
0
 10
17.6295812907
 20
-22.6795931294
 10
17.6269689076
 20
-22.6812933486
 10
17.6206552634
 20
-22.6829809119
 10
17.6106873476
 20
-22.6846432598
 10
17.597139347
 20
-22.68626802
 10
17.5801120931
 20
-22.6878431002
 10
17.5597323119
 20
-22.6893567779
 10
17.5361516809
 20
-22.6907977874
 10
17.5095456999
 20
-22.692155404
 10
17.4801123851
 20
-22.6934195234
 10
17.4480707951
 20
-22.6945807376
 10
17.4136594009
 20
-22.695630404
 10
17.3771343107
 20
-22.6965607105
  0
LWPOLYLINE
  5
447
100
AcDbEntity
  8
RACCORDO
100
AcDbPolyline
 62
250
  6
CONTINUOUS
 90
19
 70
0
 10
15.4224210735
 20
31.0126034811
 10
15.4629842431
 20
31.018468116
 10
15.4892885154
 20
31.0242209901
 10
15.5191891944
 20
31.0325651497
 10
15.552744086
 20
31.0436029795
 10
15.5898953844
 20
31.0574381298
 10
15.6304696716
 20
31.0741818538
 10
15.6744738057
 20
31.0939222418
 10
15.7219009288
 20
31.1167578657
 10
15.7725570487
 20
31.1428302352
 10
15.826361106
 20
31.1721716906
 10
15.8833941602
 20
31.2049164694
 10
15.9437053973
 20
31.2414311839
 10
16.0073670553
 20
31.2818548573
 10
16.0743068962
 20
31.3262943678
 10
16.1443573919
 20
31.3751755415
 10
16.2174626997
 20
31.4287519668
 10
16.2936786621
 20
31.4870331609
 10
16.3730052794
 20
31.5501022628
  0
LINE
  5
448
100
AcDbEntity
  8
RACCORDO
100
AcDbLine
 62
7
  6
CONTINUOUS
 10
-16.3067802213
 20
25.7993222684
 11
-16.3879925229
 21
25.7933793412
  0
LINE
  5
449
100
AcDbEntity
  8
RACCORDO
100
AcDbLine
 62
7
  6
CONTINUOUS
 10
-16.3879925229
 20
25.7933793412
 11
-16.5186916877
 21
25.7848284186
  0
LINE
  5
44A
100
AcDbEntity
  8
RACCORDO
100
AcDbLine
 62
7
  6
CONTINUOUS
 10
-16.5186916877
 20
25.7848284186
 11
-16.6079151222
 21
25.7793292924
  0
LINE
  5
44B
100
AcDbEntity
  8
RACCORDO
100
AcDbLine
 62
250
  6
CONTINUOUS
 10
11.3926602463
 20
25.7657505151
 11
-11.4178117456
 21
25.7657505151
  0
LINE
  5
44C
100
AcDbEntity
  8
RACCORDO
100
AcDbLine
 62
250
  6
CONTINUOUS
 10
17.7374242503
 20
25.7793292924
 11
16.5827635675
 21
25.7793292924
  0
LINE
  5
44D
100
AcDbEntity
  8
RACCORDO
100
AcDbLine
 62
250
  6
CONTINUOUS
 10
-16.6079151222
 20
25.7793292924
 11
-17.7625757497
 21
25.7793292924
  0
LINE
  5
44E
100
AcDbEntity
  8
RACCORDO
100
AcDbLine
 62
250
  6
CONTINUOUS
 10
-16.1192795027
 20
25.8654124988
 11
-11.5174737293
 21
25.8654124988
  0
LINE
  5
44F
100
AcDbEntity
  8
RACCORDO
100
AcDbLine
 62
250
  6
CONTINUOUS
 10
11.49232223
 20
25.8654124988
 11
16.0941272665
 21
25.8654124988
  0
LINE
  5
450
100
AcDbEntity
  8
RACCORDO
100
AcDbLine
 62
7
  6
CONTINUOUS
 10
11.5056763081
 20
26.0657505151
 11
-11.5308278074
 21
26.0657505151
  0
LINE
  5
451
100
AcDbEntity
  8
RACCORDO
100
AcDbLine
 62
250
  6
CONTINUOUS
 10
-15.6290851577
 20
26.3651079123
 11
-11.5343247554
 21
26.3651079123
  0
LINE
  5
452
100
AcDbEntity
  8
RACCORDO
100
AcDbLine
 62
250
  6
CONTINUOUS
 10
11.5091732561
 20
26.3651079123
 11
15.6039336583
 21
26.3651079123
  0
LINE
  5
453
100
AcDbEntity
  8
RACCORDO
100
AcDbLine
 62
250
  6
CONTINUOUS
 10
17.7374242503
 20
27.2784155329
 11
16.0996083029
 21
27.278415533
  0
LINE
  5
454
100
AcDbEntity
  8
RACCORDO
100
AcDbLine
 62
250
  6
CONTINUOUS
 10
-16.1247598023
 20
27.2784155329
 11
-17.7625757497
 21
27.2784155329
  0
LINE
  5
455
100
AcDbEntity
  8
RACCORDO
100
AcDbLine
 62
250
  6
CONTINUOUS
 10
-16.1247598023
 20
27.3272019036
 11
-17.7625757497
 21
27.3272019036
  0
LINE
  5
456
100
AcDbEntity
  8
RACCORDO
100
AcDbLine
 62
250
  6
CONTINUOUS
 10
16.0996083029
 20
27.3272019036
 11
17.7374242503
 21
27.3272019036
  0
LINE
  5
457
100
AcDbEntity
  8
RACCORDO
100
AcDbLine
 62
250
  6
CONTINUOUS
 10
-17.7625757497
 20
28.8271447882
 11
-16.6074583772
 21
28.8271447882
  0
LINE
  5
458
100
AcDbEntity
  8
RACCORDO
100
AcDbLine
 62
250
  6
CONTINUOUS
 10
16.5823068779
 20
28.8271447882
 11
17.7374242503
 21
28.8271447882
  0
LINE
  5
459
100
AcDbEntity
  8
RACCORDO
100
AcDbLine
 62
7
  6
CONTINUOUS
 10
16.5827635675
 20
25.7793292924
 11
16.4060196897
 21
25.7904889547
  0
LWPOLYLINE
  5
45A
100
AcDbEntity
  8
RACCORDO
100
AcDbPolyline
 62
7
  6
CONTINUOUS
 90
11
 70
0
 10
16.4060196897
 20
25.7904889547
 10
16.3214194806
 20
25.7963236946
 10
16.2816301664
 20
25.7993222342
 10
16.2435926946
 20
25.8023748014
 10
16.2088833169
 20
25.8054936045
 10
16.1772682029
 20
25.8086815093
 10
16.148981183
 20
25.8119356499
 10
16.1262999995
 20
25.8152596364
 10
16.1099838999
 20
25.8186546723
 10
16.0992736368
 20
25.8221195541
 10
16.0944113825
 20
25.8253177033
  0
LWPOLYLINE
  5
45B
100
AcDbEntity
  8
RACCORDO
100
AcDbPolyline
 62
250
  6
CONTINUOUS
 90
7
 70
0
 10
-15.4881605621
 20
31.0184722568
 10
-15.4475645887
 20
31.0126012697
 10
-15.4330343452
 20
31.0099636144
 10
-15.4218371464
 20
31.0072844707
 10
-15.4139729924
 20
31.0045638386
 10
-15.4094418831
 20
31.0018017182
 10
-15.4082438185
 20
30.9989981095
  0
LINE
  5
45C
100
AcDbEntity
  8
RACCORDO
100
AcDbLine
 62
250
  6
CONTINUOUS
 10
17.7374242503
 20
29.0151974368
 11
16.3942542293
 21
29.0151974368
  0
LINE
  5
45D
100
AcDbEntity
  8
RACCORDO
100
AcDbLine
 62
250
  6
CONTINUOUS
 10
-16.4194057287
 20
29.0151974368
 11
-17.7625757497
 21
29.0151974368
  0
LINE
  5
45E
100
AcDbEntity
  8
RACCORDO
100
AcDbLine
 62
250
  6
CONTINUOUS
 10
17.7374242503
 20
29.5509589068
 11
16.3876452161
 21
29.5509589068
  0
LINE
  5
45F
100
AcDbEntity
  8
RACCORDO
100
AcDbLine
 62
250
  6
CONTINUOUS
 10
-16.4127967154
 20
29.5509589068
 11
-17.7625757497
 21
29.5509589068
  0
LINE
  5
460
100
AcDbEntity
  8
RACCORDO
100
AcDbLine
 62
250
  6
CONTINUOUS
 10
-15.9155938573
 20
29.6156008127
 11
-11.5343247554
 21
29.6156008127
  0
LINE
  5
461
100
AcDbEntity
  8
RACCORDO
100
AcDbLine
 62
250
  6
CONTINUOUS
 10
11.5091732561
 20
29.6156008127
 11
15.8904417422
 21
29.6156008127
  0
LINE
  5
462
100
AcDbEntity
  8
RACCORDO
100
AcDbLine
 62
250
  6
CONTINUOUS
 10
-15.6290851577
 20
30.1152962263
 11
-11.5174737293
 21
30.1152962263
  0
LINE
  5
463
100
AcDbEntity
  8
RACCORDO
100
AcDbLine
 62
250
  6
CONTINUOUS
 10
11.49232223
 20
30.1152962263
 11
15.6039336583
 21
30.1152962263
  0
LINE
  5
464
100
AcDbEntity
  8
RACCORDO
100
AcDbLine
 62
7
  6
CONTINUOUS
 10
-7.8655094252
 20
30.8701942059
 11
7.8403579259
 21
30.8701942059
  0
LINE
  5
465
100
AcDbEntity
  8
RACCORDO
100
AcDbLine
 62
250
  6
CONTINUOUS
 10
-15.4654278769
 20
31.0151974368
 11
15.4402763775
 21
31.0151974368
  0
LINE
  5
466
100
AcDbEntity
  8
RACCORDO
100
AcDbLine
 62
250
  6
CONTINUOUS
 10
-17.7625757497
 20
31.5501022628
 11
-16.3981575653
 21
31.5501022628
  0
LINE
  5
467
100
AcDbEntity
  8
RACCORDO
100
AcDbLine
 62
250
  6
CONTINUOUS
 10
16.3730060659
 20
31.5501022628
 11
17.7374242503
 21
31.5501022628
  0
LWPOLYLINE
  5
468
100
AcDbEntity
  8
RACCORDO
100
AcDbPolyline
 62
250
  6
CONTINUOUS
 90
19
 70
0
 10
16.3876452161
 20
29.5509589068
 10
16.3438828155
 20
29.5520042913
 10
16.300456333
 20
29.5555085276
 10
16.2576990903
 20
29.5614447159
 10
16.2159392684
 20
29.5697672904
 10
16.1754973987
 20
29.5804123678
 10
16.1366839015
 20
29.5932982356
 10
16.0997966878
 20
29.6083259834
 10
16.0651188818
 20
29.6253802618
 10
16.0329166547
 20
29.644330163
 10
16.0034371686
 20
29.6650302322
 10
15.9769066853
 20
29.6873215826
 10
15.953528834
 20
29.7110331107
 10
15.9334830414
 20
29.7359828152
 10
15.9169231576
 20
29.7619791934
 10
15.9039762772
 20
29.7888227075
 10
15.8947417617
 20
29.8163073196
 10
15.8892904779
 20
29.8442220734
 10
15.8876586211
 20
29.8686914539
  0
LWPOLYLINE
  5
469
100
AcDbEntity
  8
RACCORDO
100
AcDbPolyline
 62
250
  6
CONTINUOUS
 90
10
 70
0
 10
16.5823068779
 20
28.8271447882
 10
16.5387288896
 20
28.8290442035
 10
16.4954825606
 20
28.8347346337
 10
16.4528970498
 20
28.8441727736
 10
16.4112964921
 20
28.857286791
 10
16.370997516
 20
28.8739768786
 10
16.3323068357
 20
28.8941160175
 10
16.2955189404
 20
28.9175509327
 10
16.2609138394
 20
28.9441032627
 10
16.228754919
 20
28.9735709274
  0
LWPOLYLINE
  5
46A
100
AcDbEntity
  8
RACCORDO
100
AcDbPolyline
 62
250
  6
CONTINUOUS
 90
10
 70
0
 10
16.3942542293
 20
29.0151974368
 10
16.3506759099
 20
29.017096881
 10
16.30742928
 20
29.0227873937
 10
16.2648435043
 20
29.0322256624
 10
16.2232427179
 20
29.0453398492
 10
16.1829435585
 20
29.0620301375
 10
16.1442527567
 20
29.0821694919
 10
16.1074648014
 20
29.1056046249
 10
16.0728596983
 20
29.1321571636
 10
16.0407008387
 20
29.1616250077
  0
LINE
  5
46B
100
AcDbEntity
  8
RACCORDO
100
AcDbLine
 62
7
  6
CONTINUOUS
 10
11.49232223
 20
30.1152962263
 11
10.838530407
 21
30.7690880493
  0
LINE
  5
46C
100
AcDbEntity
  8
RACCORDO
100
AcDbLine
 62
250
  6
CONTINUOUS
 10
16.3942542293
 20
29.0151974368
 11
16.5823068779
 21
28.8271447882
  0
LWPOLYLINE
  5
46D
100
AcDbEntity
  8
RACCORDO
100
AcDbPolyline
 62
7
  6
CONTINUOUS
 90
3
 70
0
 10
16.006610324
 20
25.9623986283
 10
15.6572625191
 20
26.3118959144
 10
15.6039336583
 20
26.3651079123
  0
LINE
  5
46E
100
AcDbEntity
  8
RACCORDO
100
AcDbLine
 62
7
  6
CONTINUOUS
 10
16.2287534873
 20
28.9735723591
 11
16.0384999807
 21
29.1638396542
  0
LWPOLYLINE
  5
46F
100
AcDbEntity
  8
RACCORDO
100
AcDbPolyline
 62
7
  6
CONTINUOUS
 90
3
 70
0
 10
16.0591505603
 20
25.9098323724
 10
16.025816082
 20
25.9433483045
 10
16.006610324
 20
25.9623986283
  0
LWPOLYLINE
  5
470
100
AcDbEntity
  8
RACCORDO
100
AcDbPolyline
 62
7
  6
CONTINUOUS
 90
5
 70
0
 10
16.0945646636
 20
25.8740252585
 10
16.09366008
 20
25.8749455872
 10
16.0848728357
 20
25.8841687349
 10
16.0732792808
 20
25.8959015527
 10
16.0591505603
 20
25.9098323724
  0
LINE
  5
471
100
AcDbEntity
  8
RACCORDO
100
AcDbLine
 62
250
  6
CONTINUOUS
 10
-17.7625757497
 20
32.5142836773
 11
17.7374242503
 21
32.5142836773
  0
LINE
  5
472
100
AcDbEntity
  8
RACCORDO
100
AcDbLine
 62
250
  6
CONTINUOUS
 10
-17.7625757497
 20
35.6172173529
 11
17.7374242503
 21
35.6172173529
  0
LWPOLYLINE
  5
473
100
AcDbEntity
  8
RACCORDO
100
AcDbPolyline
 62
250
  6
CONTINUOUS
 90
8
 70
0
 10
15.8864944339
 20
30.0276745194
 10
15.8543548607
 20
30.0481771435
 10
15.8156088739
 20
30.0683685426
 10
15.7752456789
 20
30.085100731
 10
15.7335745246
 20
30.0982456449
 10
15.6909141374
 20
30.1077030364
 10
15.6475901868
 20
30.1134009933
 10
15.6039336583
 20
30.1152962263
  0
LINE
  5
474
100
AcDbEntity
  8
RACCORDO
100
AcDbLine
 62
250
  6
CONTINUOUS
 10
-17.7625757497
 20
37.1163035934
 11
17.7374242503
 21
37.1163035934
  0
LINE
  5
475
100
AcDbEntity
  8
RACCORDO
100
AcDbLine
 62
7
  6
CONTINUOUS
 10
14.4284855374
 20
37.2613068242
 11
-14.4536370367
 21
37.2613068242
  0
LINE
  5
476
100
AcDbEntity
  8
RACCORDO
100
AcDbLine
 62
7
  6
CONTINUOUS
 10
-17.7625757497
 20
38.2513478445
 11
-16.1883245083
 21
38.2513478445
  0
LINE
  5
477
100
AcDbEntity
  8
RACCORDO
100
AcDbLine
 62
7
  6
CONTINUOUS
 10
16.163173009
 20
38.2513478445
 11
17.7374242503
 21
38.2513478445
  0
LWPOLYLINE
  5
478
100
AcDbEntity
  8
0
100
AcDbPolyline
 62
7
  6
CONTINUOUS
 90
6
 70
0
 43
0.3500000006
 10
-4.0840043507
 20
47.0001273193
 10
-3.012575695
 20
47.0001273193
 10
-2.7982900772
 20
47.2144163361
 10
-2.7982900772
 20
48.2858432922
 10
-3.2268615961
 20
48.7144167938
 10
-3.6554328318
 20
48.7144167938
  0
LWPOLYLINE
  5
479
100
AcDbEntity
  8
0
100
AcDbPolyline
 62
7
  6
CONTINUOUS
 90
8
 70
0
 43
0.3500000006
 10
-1.941147181
 20
47.0001273193
 10
-1.0840043557
 20
47.0001273193
 10
-0.6554329076
 20
47.4287008209
 10
-0.6554329076
 20
48.2858432922
 10
-1.0840043557
 20
48.7144167938
 10
-1.941147181
 20
48.7144167938
 10
-1.941147181
 20
50.0001282349
 10
-0.6554329076
 20
50.0001282349
  0
LWPOLYLINE
  5
47A
100
AcDbEntity
  8
0
100
AcDbPolyline
 62
7
  6
CONTINUOUS
 90
8
 70
0
 43
0.3500000006
 10
1.9159956393
 20
47.0001273193
 10
2.7731385355
 20
47.0001273193
 10
3.2017100544
 20
47.4287008209
 10
3.2017100544
 20
48.2858432922
 10
2.7731385355
 20
48.7144167938
 10
1.9159956393
 20
48.7144167938
 10
1.9159956393
 20
50.0001282349
 10
3.2017100544
 20
50.0001282349
  0
LWPOLYLINE
  5
47B
100
AcDbEntity
  8
0
100
AcDbPolyline
 62
7
  6
CONTINUOUS
 90
8
 70
0
 43
0.3500000006
 10
-105.3356072388
 20
2.1434653931
 10
-105.3356072388
 20
3.0006101303
 10
-105.7641852722
 20
3.429181366
 10
-106.6213232117
 20
3.429181366
 10
-107.0498921814
 20
3.0006101303
 10
-107.0498921814
 20
2.1434653931
 10
-108.3356081543
 20
2.1434653931
 10
-108.3356081543
 20
3.429181366
  0
LINE
  5
47C
100
AcDbEntity
  8
RACCORDO
100
AcDbLine
 62
7
  6
CONTINUOUS
 10
-88.1747184235
 20
-36.4848025632
 11
-37.6223691784
 21
-38.2501294985
  0
LWPOLYLINE
  5
47D
100
AcDbEntity
  8
RACCORDO
100
AcDbPolyline
 62
250
  6
CONTINUOUS
 90
6
 70
0
 10
-92.1310953817
 20
-28.2428247009
 10
-92.1336215731
 20
-28.2414533559
 10
-92.1388126803
 20
-28.2374500891
 10
-92.1465144913
 20
-28.2309006906
 10
-92.1565073796
 20
-28.2217776377
 10
-92.1831744953
 20
-28.1963469274
  0
LWPOLYLINE
  5
47E
100
AcDbEntity
  8
RACCORDO
100
AcDbPolyline
 62
250
  6
CONTINUOUS
 90
17
 70
0
 10
-92.1831744953
 20
-28.1963469274
 10
-92.2193215785
 20
-28.1623946719
 10
-92.2397925258
 20
-28.1427192661
 10
-92.2615775737
 20
-28.1215067204
 10
-92.2846578085
 20
-28.0987176718
 10
-92.308387231
 20
-28.0748977319
 10
-92.332695258
 20
-28.0500786518
 10
-92.3575944333
 20
-28.0243783433
 10
-92.3826979513
 20
-27.9987252246
 10
-92.4082175938
 20
-27.9737676473
 10
-92.4338336336
 20
-27.9492130455
 10
-92.458450056
 20
-27.9247609085
 10
-92.4816825584
 20
-27.9004212275
 10
-92.5037116009
 20
-27.8766852135
 10
-92.5243618218
 20
-27.8540478582
 10
-92.5435790016
 20
-27.8326331511
 10
-92.5767552168
 20
-27.7952941077
  0
LINE
  5
47F
100
AcDbEntity
  8
RACCORDO
100
AcDbLine
 62
7
  6
CONTINUOUS
 10
-92.184762373
 20
-25.1806442147
 11
-92.1310953817
 21
-25.2342494849
  0
LINE
  5
480
100
AcDbEntity
  8
RACCORDO
100
AcDbLine
 62
7
  6
CONTINUOUS
 10
-91.684762373
 20
-25.1806442147
 11
-91.6310953817
 21
-25.2342494849
  0
LINE
  5
481
100
AcDbEntity
  8
RACCORDO
100
AcDbLine
 62
7
  6
CONTINUOUS
 10
-92.3459893989
 20
-25.0185195023
 11
-92.184762373
 21
-25.1806442147
  0
LINE
  5
482
100
AcDbEntity
  8
RACCORDO
100
AcDbLine
 62
7
  6
CONTINUOUS
 10
-91.8459893989
 20
-25.0185195023
 11
-91.684762373
 21
-25.1806442147
  0
LINE
  5
483
100
AcDbEntity
  8
RACCORDO
100
AcDbLine
 62
7
  6
CONTINUOUS
 10
-92.4918250981
 20
-24.8708232017
 11
-92.3459893989
 21
-25.0185195023
  0
LINE
  5
484
100
AcDbEntity
  8
RACCORDO
100
AcDbLine
 62
7
  6
CONTINUOUS
 10
-91.9918250981
 20
-24.8708232017
 11
-91.8459893989
 21
-25.0185195023
  0
LINE
  5
485
100
AcDbEntity
  8
RACCORDO
100
AcDbLine
 62
7
  6
CONTINUOUS
 10
-92.551538118
 20
-24.8097540996
 11
-92.4918250981
 21
-24.8708232017
  0
LINE
  5
486
100
AcDbEntity
  8
RACCORDO
100
AcDbLine
 62
7
  6
CONTINUOUS
 10
-92.051538118
 20
-24.8097540996
 11
-91.9918250981
 21
-24.8708232017
  0
LWPOLYLINE
  5
487
100
AcDbEntity
  8
RACCORDO
100
AcDbPolyline
 62
7
  6
CONTINUOUS
 90
7
 70
0
 10
-92.6223691784
 20
-24.7343256374
 10
-92.6200377813
 20
-24.7368328449
 10
-92.6150443348
 20
-24.7426448236
 10
-92.6073848451
 20
-24.7514279801
 10
-92.5967735176
 20
-24.7628227166
 10
-92.5834907197
 20
-24.7765070677
 10
-92.551538118
 20
-24.8097540996
  0
LWPOLYLINE
  5
488
100
AcDbEntity
  8
RACCORDO
100
AcDbPolyline
 62
7
  6
CONTINUOUS
 90
7
 70
0
 10
-92.1223691784
 20
-24.7343256374
 10
-92.1200377813
 20
-24.7368328449
 10
-92.1150443348
 20
-24.7426448236
 10
-92.1073848451
 20
-24.7514279801
 10
-92.0967735176
 20
-24.7628227166
 10
-92.0834907197
 20
-24.7765070677
 10
-92.051538118
 20
-24.8097540996
  0
LWPOLYLINE
  5
489
100
AcDbEntity
  8
RACCORDO
100
AcDbPolyline
 62
250
  6
CONTINUOUS
 90
7
 70
0
 10
-92.5767552168
 20
-27.7952941077
 10
-92.5903429205
 20
-27.7805062152
 10
-92.6017585743
 20
-27.7682650876
 10
-92.6107151829
 20
-27.7584923826
 10
-92.6171429279
 20
-27.7510930657
 10
-92.6210499653
 20
-27.7459611241
 10
-92.6223691784
 20
-27.7429008534
  0
LWPOLYLINE
  5
48A
100
AcDbEntity
  8
0
100
AcDbPolyline
 62
7
  6
CONTINUOUS
 90
10
 70
0
 43
0.3500000006
 10
-66.8009403534
 20
47.0001273193
 10
-65.9437978821
 20
47.8572743225
 10
-65.7295133972
 20
48.7144167938
 10
-65.7295133972
 20
49.5715592651
 10
-66.1580823669
 20
50.0001282349
 10
-66.8009403534
 20
50.0001282349
 10
-67.229513855
 20
49.5715592651
 10
-67.229513855
 20
48.7144167938
 10
-66.8009403534
 20
48.2858432922
 10
-65.8723712311
 20
48.2858432922
  0
LWPOLYLINE
  5
48B
100
AcDbEntity
  8
RACCORDO
100
AcDbPolyline
 62
250
  6
CONTINUOUS
 90
22
 70
0
 10
-95.8006881936
 20
-22.6795931294
 10
-95.7983586545
 20
-22.7118801634
 10
-95.793998053
 20
-22.7437330369
 10
-95.7876063891
 20
-22.7751517499
 10
-95.7791411035
 20
-22.8062767109
 10
-95.7686447555
 20
-22.8369675114
 10
-95.7562450227
 20
-22.8668029257
 10
-95.7419146916
 20
-22.8957640635
 10
-95.7256809757
 20
-22.923869815
 10
-95.7077531931
 20
-22.9507556252
 10
-95.6881130143
 20
-22.9763996944
 10
-95.6667787687
 20
-23.0008238224
 10
-95.6440147631
 20
-23.0237288526
 10
-95.6198009602
 20
-23.0450975882
 10
-95.5941573973
 20
-23.0649472261
 10
-95.5674084929
 20
-23.0830302012
 10
-95.5395309156
 20
-23.0993254587
 10
-95.5105479967
 20
-23.1138540533
 10
-95.4808541499
 20
-23.1264315846
 10
-95.4505808462
 20
-23.1369965856
 10
-95.4195966144
 20
-23.1456105232
 10
-95.3879014546
 20
-23.1522733974
  0
LWPOLYLINE
  5
48C
100
AcDbEntity
  8
RACCORDO
100
AcDbPolyline
 62
250
  6
CONTINUOUS
 90
10
 70
0
 10
-95.8006881936
 20
10.8110941596
 10
-95.9312174425
 20
7.0907746119
 10
-96.0291143906
 20
3.3700217133
 10
-96.094379038
 20
-0.3511645363
 10
-96.1270113998
 20
-4.0730726287
 10
-96.1270114608
 20
-7.795414072
 10
-96.0943791753
 20
-11.5173233912
 10
-96.029114528
 20
-15.2385120947
 10
-95.931217534
 20
-18.9592686741
 10
-95.8006881936
 20
-22.6795931294
  0
LWPOLYLINE
  5
48D
100
AcDbEntity
  8
RACCORDO
100
AcDbPolyline
 62
250
  6
CONTINUOUS
 90
6
 70
0
 10
-92.6223691784
 20
15.8744018835
 10
-92.6210416657
 20
15.8769630404
 10
-92.6171293738
 20
15.8822252123
 10
-92.6107162774
 20
15.8900344057
 10
-92.6017681738
 20
15.9001739648
 10
-92.5768044548
 20
15.9272561671
  0
LWPOLYLINE
  5
48E
100
AcDbEntity
  8
RACCORDO
100
AcDbPolyline
 62
250
  6
CONTINUOUS
 90
17
 70
0
 10
-92.5768044548
 20
15.9272561671
 10
-92.5434970399
 20
15.9640308619
 10
-92.5241829652
 20
15.9848567899
 10
-92.5033534115
 20
16.0070011714
 10
-92.4809667515
 20
16.0304626493
 10
-92.4575600348
 20
16.0545939759
 10
-92.43317421
 20
16.0793315051
 10
-92.4079209512
 20
16.1046815199
 10
-92.3827001982
 20
16.1302284809
 10
-92.3581519666
 20
16.1561601363
 10
-92.3339979862
 20
16.1821723295
 10
-92.3099427539
 20
16.2071948188
 10
-92.2859912544
 20
16.2308531729
 10
-92.2626374419
 20
16.2533076708
 10
-92.2403918683
 20
16.2743641339
 10
-92.2193963209
 20
16.2939678007
 10
-92.1828338559
 20
16.327817626
  0
LWPOLYLINE
  5
48F
100
AcDbEntity
  8
RACCORDO
100
AcDbPolyline
 62
250
  6
CONTINUOUS
 90
7
 70
0
 10
-92.1828338559
 20
16.327817626
 10
-92.168307081
 20
16.341659551
 10
-92.156249588
 20
16.3532807823
 10
-92.1466185396
 20
16.3624021056
 10
-92.1393201745
 20
16.3689564256
 10
-92.1342166543
 20
16.3729521806
 10
-92.1310953817
 20
16.3743257311
  0
LINE
  5
490
100
AcDbEntity
  8
RACCORDO
100
AcDbLine
 62
7
  6
CONTINUOUS
 10
-89.6223691784
 20
-28.2866146797
 11
-92.37673228
 21
-28.2385370929
  0
LINE
  5
491
100
AcDbEntity
  8
0
100
AcDbLine
 62
7
  6
CONTINUOUS
 10
-92.1310953817
 20
-28.2428247009
 11
-92.37673228
 21
-28.2385370929
  0
LINE
  5
492
100
AcDbEntity
  8
0
100
AcDbLine
 62
7
  6
CONTINUOUS
 10
-87.3213221784
 20
-23.5304424849
 11
-84.7577641784
 21
-24.3544674849
  0
LWPOLYLINE
  5
493
100
AcDbEntity
  8
0
100
AcDbPolyline
 62
7
  6
CONTINUOUS
 90
10
 70
0
 43
0.3500000006
 10
-108.3356081543
 20
-0.8565332565
 10
-107.6927546997
 20
-1.499391243
 10
-106.8356076965
 20
-1.9279624786
 10
-105.7641852722
 20
-1.9279624786
 10
-105.3356072388
 20
-1.499391243
 10
-105.3356072388
 20
-0.8565332565
 10
-105.7641852722
 20
-0.4279620209
 10
-106.6213232117
 20
-0.4279620209
 10
-107.0498921814
 20
-0.8565332565
 10
-107.0498921814
 20
-1.7851046448
  0
LINE
  5
494
100
AcDbEntity
  8
0
100
AcDbLine
 62
7
  6
CONTINUOUS
 10
-92.6223691784
 20
-27.9885751692
 11
-92.6223691784
 21
-27.7429008534
  0
LINE
  5
495
100
AcDbEntity
  8
RACCORDO
100
AcDbLine
 62
7
  6
CONTINUOUS
 10
-92.6223691784
 20
-24.7342494849
 11
-92.6223691784
 21
-27.9885751692
  0
LINE
  5
496
100
AcDbEntity
  8
0
100
AcDbLine
 62
7
  6
CONTINUOUS
 10
-92.6223691784
 20
15.8744018835
 11
-92.6223691784
 21
16.1200761993
  0
LINE
  5
497
100
AcDbEntity
  8
RACCORDO
100
AcDbLine
 62
7
  6
CONTINUOUS
 10
-92.6223691784
 20
12.8658266675
 11
-92.6223691784
 21
16.1200761993
  0
LWPOLYLINE
  5
498
100
AcDbEntity
  8
RACCORDO
100
AcDbPolyline
 62
7
  6
CONTINUOUS
 90
9
 70
0
 10
-92.1223691784
 20
12.8658266675
 10
-92.1205959624
 20
12.8688921411
 10
-92.115491335
 20
12.874592922
 10
-92.1073848451
 20
12.8829290102
 10
-92.0966317822
 20
12.8941819897
 10
-92.0835528888
 20
12.9080702764
 10
-92.0683825955
 20
12.9237491186
 10
-92.0514109038
 20
12.9411278962
 10
-92.0329000457
 20
12.9602972292
  0
LWPOLYLINE
  5
499
100
AcDbEntity
  8
RACCORDO
100
AcDbPolyline
 62
7
  6
CONTINUOUS
 90
6
 70
0
 10
-92.6223691784
 20
12.8658266675
 10
-92.6200377813
 20
12.868333875
 10
-92.6150443348
 20
12.8741458537
 10
-92.6073848451
 20
12.8829290102
 10
-92.5967735176
 20
12.8943237467
 10
-92.5834907197
 20
12.9080080978
  0
LWPOLYLINE
  5
49A
100
AcDbEntity
  8
RACCORDO
100
AcDbPolyline
 62
7
  6
CONTINUOUS
 90
3
 70
0
 10
-92.5834907197
 20
12.9080080978
 10
-92.551538118
 20
12.9412551297
 10
-92.4918250981
 20
13.0023242318
  0
LINE
  5
49B
100
AcDbEntity
  8
RACCORDO
100
AcDbLine
 62
7
  6
CONTINUOUS
 10
-92.0329000457
 20
12.9602972292
 11
-91.8973531741
 21
13.0981247461
  0
LWPOLYLINE
  5
49C
100
AcDbEntity
  8
RACCORDO
100
AcDbPolyline
 62
7
  6
CONTINUOUS
 90
3
 70
0
 10
-91.8973531741
 20
13.0981247461
 10
-91.711690889
 20
13.2850282411
 10
-91.6310953817
 20
13.3657505151
  0
LINE
  5
49D
100
AcDbEntity
  8
RACCORDO
100
AcDbLine
 62
7
  6
CONTINUOUS
 10
-92.4918250981
 20
13.0023242318
 11
-92.1578969187
 21
13.3390803871
  0
LINE
  5
49E
100
AcDbEntity
  8
RACCORDO
100
AcDbLine
 62
7
  6
CONTINUOUS
 10
-92.1578969187
 20
13.3390803871
 11
-92.1310953817
 21
13.3657505151
  0
LINE
  5
49F
100
AcDbEntity
  8
RACCORDO
100
AcDbLine
 62
250
  6
CONTINUOUS
 10
-92.1310953817
 20
-27.7429008534
 11
-92.6223691784
 21
-27.7429008534
  0
LINE
  5
4A0
100
AcDbEntity
  8
RACCORDO
100
AcDbLine
 62
250
  6
CONTINUOUS
 10
-92.1310953817
 20
-27.7429008534
 11
-89.6223691784
 21
-27.7866908321
  0
LINE
  5
4A1
100
AcDbEntity
  8
RACCORDO
100
AcDbLine
 62
7
  6
CONTINUOUS
 10
-95.4659993402
 20
-23.6446772739
 11
-92.1223691784
 21
-24.2342494849
  0
LINE
  5
4A2
100
AcDbEntity
  8
RACCORDO
100
AcDbLine
 62
250
  6
CONTINUOUS
 10
-95.3879014546
 20
-23.1522733974
 11
-91.6310953817
 21
-23.8146996693
  0
LINE
  5
4A3
100
AcDbEntity
  8
0
100
AcDbLine
 62
7
  6
CONTINUOUS
 10
-83.6223691784
 20
-23.9685584849
 11
-87.3213221784
 21
-22.7795734849
  0
LINE
  5
4A4
100
AcDbEntity
  8
RACCORDO
100
AcDbLine
 62
250
  6
CONTINUOUS
 10
-95.3879014546
 20
11.2837744275
 11
-95.4100275939
 21
11.4109765107
  0
LINE
  5
4A5
100
AcDbEntity
  8
RACCORDO
100
AcDbLine
 62
250
  6
CONTINUOUS
 10
-95.4100275939
 20
11.4109765107
 11
-95.430059409
 21
11.5295440232
  0
LINE
  5
4A6
100
AcDbEntity
  8
RACCORDO
100
AcDbLine
 62
250
  6
CONTINUOUS
 10
-95.430059409
 20
11.5295440232
 11
-95.4415701548
 21
11.5997761315
  0
LWPOLYLINE
  5
4A7
100
AcDbEntity
  8
RACCORDO
100
AcDbPolyline
 62
250
  6
CONTINUOUS
 90
10
 70
0
 10
-95.4415701548
 20
11.5997761315
 10
-95.4511924038
 20
11.660443919
 10
-95.4552018335
 20
11.68660442
 10
-95.4586348848
 20
11.7097109653
 10
-95.4614655276
 20
11.7295883613
 10
-95.4636722981
 20
11.7460858888
 10
-95.4652384614
 20
11.7590784462
 10
-95.4661521419
 20
11.7684675186
 10
-95.466406411
 20
11.7741819161
 10
-95.465999339
 20
11.7761783043
  0
LINE
  5
4A8
100
AcDbEntity
  8
RACCORDO
100
AcDbLine
 62
250
  6
CONTINUOUS
 10
-92.1310953817
 20
15.8744018835
 11
-92.1330555502
 21
16.0037671886
  0
LWPOLYLINE
  5
4A9
100
AcDbEntity
  8
RACCORDO
100
AcDbPolyline
 62
250
  6
CONTINUOUS
 90
8
 70
0
 10
-92.1345227601
 20
-28.1520752314
 10
-92.13429044
 20
-28.1755849893
 10
-92.1339671428
 20
-28.1957904365
 10
-92.1335553229
 20
-28.2125391429
 10
-92.1330581302
 20
-28.2257031394
 10
-92.1324793652
 20
-28.2351820582
 10
-92.131823446
 20
-28.2409037541
 10
-92.1310953817
 20
-28.2428247009
  0
LINE
  5
4AA
100
AcDbEntity
  8
RACCORDO
100
AcDbLine
 62
250
  6
CONTINUOUS
 10
-92.1330555502
 20
16.0037671886
 11
-92.1342877409
 21
16.124319861
  0
LINE
  5
4AB
100
AcDbEntity
  8
RACCORDO
100
AcDbLine
 62
250
  6
CONTINUOUS
 10
-92.1342877409
 20
16.124319861
 11
-92.1346610796
 21
16.195694908
  0
LINE
  5
4AC
100
AcDbEntity
  8
RACCORDO
100
AcDbLine
 62
250
  6
CONTINUOUS
 10
-92.1347080044
 20
-28.0958954075
 11
-92.1345227601
 21
-28.1520752314
  0
LINE
  5
4AD
100
AcDbEntity
  8
RACCORDO
100
AcDbLine
 62
250
  6
CONTINUOUS
 10
-92.1310953817
 20
15.8744018835
 11
-92.1310953817
 21
13.3657505151
  0
LINE
  5
4AE
100
AcDbEntity
  8
RACCORDO
100
AcDbLine
 62
250
  6
CONTINUOUS
 10
-92.1310953817
 20
-25.2342494849
 11
-92.1310953817
 21
-27.7429008534
  0
LINE
  5
4AF
100
AcDbEntity
  8
RACCORDO
100
AcDbLine
 62
7
  6
CONTINUOUS
 10
-92.1223691784
 20
12.8658266675
 11
-92.1223691784
 21
12.3656977101
  0
LINE
  5
4B0
100
AcDbEntity
  8
RACCORDO
100
AcDbLine
 62
7
  6
CONTINUOUS
 10
-92.1223691784
 20
-24.23419668
 11
-92.1223691784
 21
-24.7343256374
  0
LINE
  5
4B1
100
AcDbEntity
  8
RACCORDO
100
AcDbLine
 62
250
  6
CONTINUOUS
 10
-91.6310953817
 20
13.3657505151
 11
-91.6310953817
 21
11.9462006995
  0
LINE
  5
4B2
100
AcDbEntity
  8
RACCORDO
100
AcDbLine
 62
250
  6
CONTINUOUS
 10
-91.6310953817
 20
-23.8146996693
 11
-91.6310953817
 21
-25.2342494849
  0
LINE
  5
4B3
100
AcDbEntity
  8
RACCORDO
100
AcDbLine
 62
7
  6
CONTINUOUS
 10
-89.6223691784
 20
23.1172173529
 11
-89.6223691784
 21
-34.9857163227
  0
LWPOLYLINE
  5
4B4
100
AcDbEntity
  8
RACCORDO
100
AcDbPolyline
 62
250
  6
CONTINUOUS
 90
10
 70
0
 10
-92.1346610796
 20
16.195694908
 10
-92.1346610796
 20
16.2573114049
 10
-92.1345206323
 20
16.2838621636
 10
-92.1342877409
 20
16.3072978899
 10
-92.1339641772
 20
16.327440293
 10
-92.1335524027
 20
16.3441361364
 10
-92.1330555502
 20
16.3572584039
 10
-92.1324773994
 20
16.3667072658
 10
-92.1318223487
 20
16.3724108385
 10
-92.1310953817
 20
16.3743257311
  0
LINE
  5
4B5
100
AcDbEntity
  8
RACCORDO
100
AcDbLine
 62
250
  6
CONTINUOUS
 10
-92.1345175147
 20
-28.0290030181
 11
-92.1347080044
 21
-28.0958954075
  0
LINE
  5
4B6
100
AcDbEntity
  8
RACCORDO
100
AcDbLine
 62
250
  6
CONTINUOUS
 10
-92.1335427578
 20
-27.9129854489
 11
-92.1345175147
 21
-28.0290030181
  0
LWPOLYLINE
  5
4B7
100
AcDbEntity
  8
RACCORDO
100
AcDbPolyline
 62
250
  6
CONTINUOUS
 90
3
 70
0
 10
-92.1310953817
 20
-27.7429008534
 10
-92.1318158482
 20
-27.7860555965
 10
-92.1335427578
 20
-27.9129854489
  0
LWPOLYLINE
  5
4B8
100
AcDbEntity
  8
RACCORDO
100
AcDbPolyline
 62
250
  6
CONTINUOUS
 90
8
 70
0
 10
-95.4552020936
 20
-23.5551051286
 10
-95.4586350852
 20
-23.5782113256
 10
-95.4614656692
 20
-23.5980883663
 10
-95.4636723862
 20
-23.6145855571
 10
-95.4652385065
 20
-23.6275778282
 10
-95.4661521568
 20
-23.6369666813
 10
-95.4664064106
 20
-23.642680937
 10
-95.4659993402
 20
-23.6446772739
  0
LINE
  5
4B9
100
AcDbEntity
  8
RACCORDO
100
AcDbLine
 62
250
  6
CONTINUOUS
 10
-95.4466373634
 20
-23.4999291169
 11
-95.4552020936
 21
-23.5551051286
  0
LINE
  5
4BA
100
AcDbEntity
  8
RACCORDO
100
AcDbLine
 62
250
  6
CONTINUOUS
 10
-95.4360307128
 20
-23.4342303802
 11
-95.4466373634
 21
-23.4999291169
  0
LINE
  5
4BB
100
AcDbEntity
  8
RACCORDO
100
AcDbLine
 62
250
  6
CONTINUOUS
 10
-95.4170089503
 20
-23.3203745586
 11
-95.4360307128
 21
-23.4342303802
  0
LWPOLYLINE
  5
4BC
100
AcDbEntity
  8
RACCORDO
100
AcDbPolyline
 62
250
  6
CONTINUOUS
 90
3
 70
0
 10
-95.3879014546
 20
-23.1522733974
 10
-95.3954187662
 20
-23.1951068306
 10
-95.4170089503
 20
-23.3203745586
  0
LINE
  5
4BD
100
AcDbEntity
  8
RACCORDO
100
AcDbLine
 62
250
  6
CONTINUOUS
 10
-91.6310953817
 20
-25.2342494849
 11
-92.1310953817
 21
-25.2342494849
  0
LINE
  5
4BE
100
AcDbEntity
  8
RACCORDO
100
AcDbLine
 62
7
  6
CONTINUOUS
 10
-92.1223691784
 20
-24.7342494849
 11
-92.6223691784
 21
-24.7342494849
  0
LINE
  5
4BF
100
AcDbEntity
  8
COPY-PUBBLISH
100
AcDbLine
 62
7
  6
CONTINUOUS
 10
-43.6223691784
 20
-23.4167957493
 11
-42.6362525066
 21
-23.4167957493
  0
LINE
  5
4C0
100
AcDbEntity
  8
COPY-PUBBLISH
100
AcDbLine
 62
7
  6
CONTINUOUS
 10
-40.6049154429
 20
-23.4167957493
 11
-39.6362525066
 21
-23.4167957493
  0
LINE
  5
4C1
100
AcDbEntity
  8
0
100
AcDbLine
 62
7
  6
CONTINUOUS
 10
-70.6223691784
 20
-23.409226812
 11
-59.6223691784
 21
-23.409226812
  0
LINE
  5
4C2
100
AcDbEntity
  8
0
100
AcDbLine
 62
7
  6
CONTINUOUS
 10
-87.3213221784
 20
-22.3218894849
 11
-83.6223691784
 21
-22.3218894849
  0
LINE
  5
4C3
100
AcDbEntity
  8
DRAFT
100
AcDbLine
 62
7
  6
CONTINUOUS
 10
-70.6223691784
 20
-23.2524208325
 11
-59.6223691784
 21
-23.2608193545
  0
LINE
  5
4C4
100
AcDbEntity
  8
0
100
AcDbLine
 62
7
  6
CONTINUOUS
 10
-87.3213221784
 20
-18.1284664849
 11
-84.7760881784
 21
-18.8610104849
  0
LINE
  5
4C5
100
AcDbEntity
  8
0
100
AcDbLine
 62
7
  6
CONTINUOUS
 10
-83.6223691784
 20
-18.4706444849
 11
-85.9478531784
 21
-17.7417184849
  0
LINE
  5
4C6
100
AcDbEntity
  8
0
100
AcDbLine
 62
7
  6
CONTINUOUS
 10
-87.3213221666
 20
-10.6740694849
 11
-87.3213221784
 21
-12.7725774849
  0
LINE
  5
4C7
100
AcDbEntity
  8
0
100
AcDbLine
 62
7
  6
CONTINUOUS
 10
-87.3213221784
 20
-14.4267874849
 11
-87.3213221784
 21
-15.2748664849
  0
LINE
  5
4C8
100
AcDbEntity
  8
0
100
AcDbLine
 62
7
  6
CONTINUOUS
 10
-87.3213221784
 20
-17.0052874849
 11
-87.3213221784
 21
-18.1284664849
  0
LINE
  5
4C9
100
AcDbEntity
  8
0
100
AcDbLine
 62
7
  6
CONTINUOUS
 10
-87.3213221784
 20
-19.5935544849
 11
-87.3213221784
 21
-20.7167334849
  0
LINE
  5
4CA
100
AcDbEntity
  8
0
100
AcDbLine
 62
7
  6
CONTINUOUS
 10
-87.3213221784
 20
-21.5438134849
 11
-87.3213221784
 21
-22.3218894849
  0
LINE
  5
4CB
100
AcDbEntity
  8
0
100
AcDbLine
 62
7
  6
CONTINUOUS
 10
-87.3213221784
 20
-22.7795734849
 11
-87.3213221784
 21
-23.5304424849
  0
LINE
  5
4CC
100
AcDbEntity
  8
0
100
AcDbLine
 62
7
  6
CONTINUOUS
 10
-87.3213221784
 20
-25.1784934849
 11
-87.3213221784
 21
-25.9293614849
  0
LINE
  5
4CD
100
AcDbEntity
  8
0
100
AcDbLine
 62
7
  6
CONTINUOUS
 10
-86.6985831784
 20
-11.9667374849
 11
-86.6985831784
 21
-11.1342994849
  0
LINE
  5
4CE
100
AcDbEntity
  8
0
100
AcDbLine
 62
7
  6
CONTINUOUS
 10
-86.1214581784
 20
13.7238704255
 11
-86.1214581784
 21
12.5697835151
  0
LINE
  5
4CF
100
AcDbEntity
  8
0
100
AcDbLine
 62
7
  6
CONTINUOUS
 10
-86.1214581784
 20
8.7237325151
 11
-86.1214581784
 21
8.0913171395
  0
LINE
  5
4D0
100
AcDbEntity
  8
0
100
AcDbLine
 62
7
  6
CONTINUOUS
 10
-86.1214593683
 20
11.2613785151
 11
-86.1214581784
 21
10.2790798097
  0
LWPOLYLINE
  5
4D1
100
AcDbEntity
  8
0
100
AcDbPolyline
 62
7
  6
CONTINUOUS
 90
25
 70
0
 10
-85.8641812898
 20
13.287624544
 10
-85.8706418144
 20
13.253611321
 10
-85.8742666031
 20
13.2200007873
 10
-85.8750556557
 20
13.186792943
 10
-85.8728497908
 20
13.1537669909
 10
-85.8678081899
 20
13.1211437283
 10
-85.8604083979
 20
13.0895855459
 10
-85.8507280694
 20
13.0591716412
 10
-85.8386895499
 20
13.0298228168
 10
-85.8245374207
 20
13.0019638715
 10
-85.808428579
 20
12.9752160664
 10
-85.7902061276
 20
12.9499581405
 10
-85.7696439565
 20
12.9277511097
 10
-85.7462697277
 20
12.9095415196
 10
-85.7205557791
 20
12.8943828247
 10
-85.6936930144
 20
12.8809964041
 10
-85.665835639
 20
12.8698407263
 10
-85.6368294475
 20
12.8604573228
 10
-85.6074027272
 20
12.8501921679
 10
-85.5772002529
 20
12.8392454402
 10
-85.5465772499
 20
12.827416961
 10
-85.5173276811
 20
12.811452169
 10
-85.4900495342
 20
12.7902662106
 10
-85.4641448216
 20
12.7649439393
 10
-85.4396135432
 20
12.7354853553
  0
LINE
  5
4D2
100
AcDbEntity
  8
RACCORDO
100
AcDbLine
 62
250
  6
CONTINUOUS
 10
-96.289704657
 20
-22.6992132895
 11
-96.2915626365
 21
-22.6993163347
  0
LINE
  5
4D3
100
AcDbEntity
  8
RACCORDO
100
AcDbLine
 62
250
  6
CONTINUOUS
 10
-96.2031530079
 20
-22.695630404
 11
-96.289704657
 21
-22.6992132895
  0
LINE
  5
4D4
100
AcDbEntity
  8
RACCORDO
100
AcDbLine
 62
250
  6
CONTINUOUS
 10
-95.8006881936
 20
-22.6795931294
 11
-96.2031530079
 21
-22.695630404
  0
LINE
  5
4D5
100
AcDbEntity
  8
RACCORDO
100
AcDbLine
 62
7
  6
CONTINUOUS
 10
-42.0282417121
 20
-21.8167957493
 11
-40.9049040198
 21
-21.8167957493
  0
LINE
  5
4D6
100
AcDbEntity
  8
RACCORDO
100
AcDbLine
 62
7
  6
CONTINUOUS
 10
-39.0282417121
 20
-21.8167957493
 11
-37.9223691784
 21
-21.8167957493
  0
LINE
  5
4D7
100
AcDbEntity
  8
0
100
AcDbLine
 62
7
  6
CONTINUOUS
 10
-83.6223691784
 20
-21.5438134849
 11
-87.3213221784
 21
-21.5438134849
  0
LINE
  5
4D8
100
AcDbEntity
  8
0
100
AcDbLine
 62
7
  6
CONTINUOUS
 10
-87.3213221784
 20
-20.7167334849
 11
-83.6223691784
 21
-20.7167334849
  0
LINE
  5
4D9
100
AcDbEntity
  8
0
100
AcDbLine
 62
7
  6
CONTINUOUS
 10
-42.3223691784
 20
-20.1342494849
 11
-40.9223691784
 21
-20.1342494849
  0
LINE
  5
4DA
100
AcDbEntity
  8
0
100
AcDbLine
 62
7
  6
CONTINUOUS
 10
-83.6223691784
 20
-19.9803024849
 11
-85.9478531784
 21
-19.9803024849
  0
LINE
  5
4DB
100
AcDbEntity
  8
0
100
AcDbLine
 62
7
  6
CONTINUOUS
 10
-85.0049991784
 20
-15.2538164849
 11
-86.3326581784
 21
-14.8508264849
  0
LINE
  5
4DC
100
AcDbEntity
  8
0
100
AcDbLine
 62
7
  6
CONTINUOUS
 10
-83.6223691784
 20
-15.7546294849
 11
-84.3365891784
 21
-15.5238184849
  0
LINE
  5
4DD
100
AcDbEntity
  8
0
100
AcDbLine
 62
7
  6
CONTINUOUS
 10
-87.3213221784
 20
-15.2748664849
 11
-83.6223691784
 21
-16.5231584849
  0
LWPOLYLINE
  5
4DE
100
AcDbEntity
  8
0
100
AcDbPolyline
 62
7
  6
CONTINUOUS
 90
25
 70
0
 10
-86.1214581784
 20
8.0913171395
 10
-86.1204770871
 20
8.055937035
 10
-86.1192179971
 20
8.0215532927
 10
-86.1176809084
 20
7.9881659125
 10
-86.1160146291
 20
7.95586867
 10
-86.1140703511
 20
7.9245677895
 10
-86.1114016506
 20
7.8939819445
 10
-86.1079709543
 20
7.8640575679
 10
-86.1038158354
 20
7.8348482267
 10
-86.0986025906
 20
7.8062332949
 10
-86.092323422
 20
7.7781802881
 10
-86.0849861274
 20
7.7507216907
 10
-86.0762803959
 20
7.7238343304
 10
-86.0661959196
 20
7.6973994465
 10
-86.0547430065
 20
7.6715357996
 10
-86.0416422702
 20
7.6465764987
 10
-86.0267487495
 20
7.6224828744
 10
-86.0102074056
 20
7.599293596
 10
-85.9921737359
 20
7.5774577806
 10
-85.9725764036
 20
7.5570682272
 10
-85.9514867454
 20
7.5380321369
 10
-85.9292742684
 20
7.5205202291
 10
-85.9060621417
 20
7.5045894106
 10
-85.8817271961
 20
7.4901827746
 10
-85.8562694317
 20
7.4773003212
  0
LINE
  5
4DF
100
AcDbEntity
  8
0
100
AcDbLine
 62
7
  6
CONTINUOUS
 10
-85.7486491784
 20
-11.1342994849
 11
-85.7486491784
 21
-11.9667374849
  0
LINE
  5
4E0
100
AcDbEntity
  8
0
100
AcDbLine
 62
7
  6
CONTINUOUS
 10
-85.1074471784
 20
-11.9667374849
 11
-85.1074471784
 21
-11.3351144849
  0
LINE
  5
4E1
100
AcDbEntity
  8
0
100
AcDbLine
 62
7
  6
CONTINUOUS
 10
-85.0049991784
 20
-14.4478374849
 11
-85.0049991784
 21
-15.2538164849
  0
LINE
  5
4E2
100
AcDbEntity
  8
0
100
AcDbLine
 62
7
  6
CONTINUOUS
 10
-84.3365891784
 20
-15.5238184849
 11
-84.3365891784
 21
-14.1778354849
  0
LINE
  5
4E3
100
AcDbEntity
  8
0
100
AcDbLine
 62
7
  6
CONTINUOUS
 10
-83.6223691784
 20
-24.7403764849
 11
-83.6223691784
 21
-23.9685584849
  0
LINE
  5
4E4
100
AcDbEntity
  8
0
100
AcDbLine
 62
7
  6
CONTINUOUS
 10
-83.6223691784
 20
-22.3218894849
 11
-83.6223691784
 21
-21.5438134849
  0
LINE
  5
4E5
100
AcDbEntity
  8
0
100
AcDbLine
 62
7
  6
CONTINUOUS
 10
-83.6223691784
 20
-20.7167334849
 11
-83.6223691784
 21
-19.9803024849
  0
LINE
  5
4E6
100
AcDbEntity
  8
0
100
AcDbLine
 62
7
  6
CONTINUOUS
 10
-83.6223691784
 20
-19.2513764849
 11
-83.6223691784
 21
-18.4706444849
  0
LINE
  5
4E7
100
AcDbEntity
  8
0
100
AcDbLine
 62
7
  6
CONTINUOUS
 10
-83.6223691784
 20
-17.7417184849
 11
-83.6223691784
 21
-17.0052874849
  0
LINE
  5
4E8
100
AcDbEntity
  8
0
100
AcDbLine
 62
7
  6
CONTINUOUS
 10
-83.6223691784
 20
-16.5231584849
 11
-83.6223691784
 21
-15.7546294849
  0
LINE
  5
4E9
100
AcDbEntity
  8
0
100
AcDbLine
 62
7
  6
CONTINUOUS
 10
-83.6223691784
 20
-13.9470244849
 11
-83.6223691784
 21
-13.1784954849
  0
LINE
  5
4EA
100
AcDbEntity
  8
0
100
AcDbLine
 62
7
  6
CONTINUOUS
 10
-83.6223691784
 20
-12.7725774849
 11
-83.6223691784
 21
-11.9667374849
  0
LINE
  5
4EB
100
AcDbEntity
  8
0
100
AcDbLine
 62
7
  6
CONTINUOUS
 10
-83.6223691784
 20
-10.5651254849
 11
-83.6223691784
 21
-9.6861244849
  0
LINE
  5
4EC
100
AcDbEntity
  8
0
100
AcDbLine
 62
7
  6
CONTINUOUS
 10
-83.6223691784
 20
5.6557505151
 11
-83.6223691784
 21
6.4533325151
  0
LINE
  5
4ED
100
AcDbEntity
  8
0
100
AcDbLine
 62
7
  6
CONTINUOUS
 10
-83.6223691784
 20
7.380620956
 11
-83.6223691784
 21
8.8408685151
  0
LINE
  5
4EE
100
AcDbEntity
  8
0
100
AcDbLine
 62
7
  6
CONTINUOUS
 10
-83.6223691784
 20
9.6951861774
 11
-83.6223691784
 21
10.9375085151
  0
LINE
  5
4EF
100
AcDbEntity
  8
0
100
AcDbLine
 62
7
  6
CONTINUOUS
 10
-83.6223691643
 20
12.0692885151
 11
-83.6223691784
 21
13.5267215151
  0
LWPOLYLINE
  5
4F0
100
AcDbEntity
  8
0
100
AcDbPolyline
 62
7
  6
CONTINUOUS
 90
10
 70
0
 43
0.3500000006
 10
-105.8356073914
 20
1.0720384369
 10
-105.6927540894
 20
1.1434673538
 10
-105.6213229065
 20
1.1434673538
 10
-105.4784696045
 20
1.00060952
 10
-105.4784696045
 20
0.929180603
 10
-105.5498917236
 20
0.8577516861
 10
-105.6213229065
 20
0.8577516861
 10
-105.7641852722
 20
0.929180603
 10
-105.8356073914
 20
1.00060952
 10
-105.8356073914
 20
1.0720384369
  0
LINE
  5
4F1
100
AcDbEntity
  8
RACCORDO
100
AcDbLine
 62
250
  6
CONTINUOUS
 10
-44.1675568721
 20
29.1799197135
 11
-44.0309491948
 21
29.2365044662
  0
LINE
  5
4F2
100
AcDbEntity
  8
RACCORDO
100
AcDbLine
 62
250
  6
CONTINUOUS
 10
-43.5835536411
 20
27.7712723534
 11
-43.4473918514
 21
27.8276724134
  0
LINE
  5
4F3
100
AcDbEntity
  8
0
100
AcDbLine
 62
7
  6
CONTINUOUS
 10
-85.9478531784
 20
-17.7417184849
 11
-83.6223691784
 21
-17.7417184849
  0
LINE
  5
4F4
100
AcDbEntity
  8
0
100
AcDbLine
 62
7
  6
CONTINUOUS
 10
-42.9223691784
 20
-17.6342494849
 11
-43.6223691784
 21
-17.6342494849
  0
LINE
  5
4F5
100
AcDbEntity
  8
0
100
AcDbLine
 62
7
  6
CONTINUOUS
 10
-83.6223691784
 20
-17.0052874849
 11
-87.3213221784
 21
-17.0052874849
  0
LINE
  5
4F6
100
AcDbEntity
  8
DRAFT
100
AcDbLine
 62
250
  6
CONTINUOUS
 10
-77.7973465055
 20
-16.2342494849
 11
-77.6351862262
 21
-16.2342494849
  0
LINE
  5
4F7
100
AcDbEntity
  8
DRAFT
100
AcDbLine
 62
250
  6
CONTINUOUS
 10
-52.4473918514
 20
-16.2342494849
 11
-52.5904304095
 21
-16.2342494849
  0
LWPOLYLINE
  5
4F8
100
AcDbEntity
  8
0
100
AcDbPolyline
 62
7
  6
CONTINUOUS
 90
37
 70
0
 10
-81.0569991784
 20
7.5257505151
 10
-81.059132021
 20
7.5467551154
 10
-81.0613924869
 20
7.5671850019
 10
-81.063780576
 20
7.5870401745
 10
-81.0662853284
 20
7.6062652608
 10
-81.0689177041
 20
7.6249156333
 10
-81.0717105832
 20
7.6431574092
 10
-81.0746447271
 20
7.6609976045
 10
-81.0777393744
 20
7.6784292033
 10
-81.0810851212
 20
7.6955972744
 10
-81.0846861292
 20
7.7125056267
 10
-81.0885382368
 20
7.7291504515
 10
-81.0927195556
 20
7.7456653916
 10
-81.0971846171
 20
7.7621112822
 10
-81.1019788898
 20
7.7784272881
 10
-81.1073168909
 20
7.7945645467
 10
-81.1130840619
 20
7.8106351939
 10
-81.1193949613
 20
7.8265270936
 10
-81.1268077817
 20
7.8418549749
 10
-81.1355299458
 20
7.8566265265
 10
-81.1453540309
 20
7.8708340598
 10
-81.1562159616
 20
7.8840692376
 10
-81.1682654224
 20
7.8961762101
 10
-81.1813527289
 20
7.9073108273
 10
-81.1949647521
 20
7.9175323018
 10
-81.2089914703
 20
7.9267506114
 10
-81.2235429053
 20
7.9350557783
 10
-81.238435993
 20
7.9427770817
 10
-81.2536140251
 20
7.9499647661
 10
-81.2691337099
 20
7.956568587
 10
-81.2849821088
 20
7.9627670902
 10
-81.3011244806
 20
7.9685804209
 10
-81.3175955664
 20
7.973988434
 10
-81.3344866506
 20
7.9791092389
 10
-81.3518281614
 20
7.9839822057
 10
-81.3695896707
 20
7.9885679644
 10
-81.3877711784
 20
7.9928665151
  0
LWPOLYLINE
  5
4F9
100
AcDbEntity
  8
0
100
AcDbPolyline
 62
7
  6
CONTINUOUS
 90
26
 70
0
 10
-80.5753285519
 20
9.3412064687
 10
-80.5730364105
 20
9.3122905156
 10
-80.5684794385
 20
9.2844751943
 10
-80.5619520557
 20
9.2575665253
 10
-80.5539812533
 20
9.2322670054
 10
-80.5445493649
 20
9.2088665604
 10
-80.5336740568
 20
9.1870752645
 10
-80.5219353191
 20
9.1667258372
 10
-80.5094619812
 20
9.1478248476
 10
-80.4961252137
 20
9.1303657266
 10
-80.4821185188
 20
9.1141614868
 10
-80.4675352252
 20
9.0991738888
 10
-80.4522820041
 20
9.0854411719
 10
-80.4362723717
 20
9.0728910671
 10
-80.4194464653
 20
9.0614894011
 10
-80.4018641475
 20
9.0512703471
 10
-80.3836185227
 20
9.0422641558
 10
-80.364598431
 20
9.0345399183
 10
-80.3449150324
 20
9.0280285435
 10
-80.3249949114
 20
9.0225530096
 10
-80.3049138929
 20
9.0180949723
 10
-80.284596152
 20
9.014672776
 10
-80.2642407991
 20
9.012164431
 10
-80.2439142043
 20
9.0105292743
 10
-80.2235499974
 20
9.009807969
 10
-80.2031481784
 20
9.0100005151
  0
LWPOLYLINE
  5
4FA
100
AcDbEntity
  8
0
100
AcDbPolyline
 62
7
  6
CONTINUOUS
 90
39
 70
0
 10
-79.8155591784
 20
9.3711025151
 10
-79.816209335
 20
9.4060057182
 10
-79.8201160586
 20
9.4396852111
 10
-79.8272793492
 20
9.4721409937
 10
-79.837707389
 20
9.5036788664
 10
-79.8513919959
 20
9.5339930289
 10
-79.8683086236
 20
9.5621660802
 10
-79.8887223417
 20
9.5879807326
 10
-79.9123680806
 20
9.6116542738
 10
-79.9384260857
 20
9.6329211657
 10
-79.9669613362
 20
9.6517378914
 10
-79.9979088529
 20
9.6681479677
 10
-80.0302539441
 20
9.6820164073
 10
-80.064012435
 20
9.69332646
 10
-80.0991685003
 20
9.7020948758
 10
-80.1346599718
 20
9.708236918
 10
-80.1707300714
 20
9.7116341927
 10
-80.2071355772
 20
9.7124050936
 10
-80.2420846555
 20
9.7108200651
 10
-80.275111513
 20
9.7066685855
 10
-80.3066819429
 20
9.7001611765
 10
-80.3364014913
 20
9.6921998467
 10
-80.3639901794
 20
9.6829467519
 10
-80.389727986
 20
9.6722397362
 10
-80.4140603932
 20
9.6604943417
 10
-80.4372046602
 20
9.6481457779
 10
-80.4589435278
 20
9.6347588352
 10
-80.4790707007
 20
9.6194434265
 10
-80.4976812475
 20
9.6019034408
 10
-80.5146800997
 20
9.582434989
 10
-80.5295757561
 20
9.5610363172
 10
-80.5421837055
 20
9.5373969243
 10
-80.5526884591
 20
9.5118273112
 10
-80.5611520492
 20
9.485257227
 10
-80.5674528128
 20
9.4577890253
 10
-80.5717124129
 20
9.4293203524
 10
-80.5743578707
 20
9.4004738962
 10
-80.5756502825
 20
9.3710290741
 10
-80.5753285519
 20
9.3412064687
  0
LWPOLYLINE
  5
4FB
100
AcDbEntity
  8
0
100
AcDbPolyline
 62
7
  6
CONTINUOUS
 90
39
 70
0
 10
-79.8155591784
 20
13.4946225151
 10
-79.816209335
 20
13.5295257182
 10
-79.8201160586
 20
13.5632052111
 10
-79.8272793492
 20
13.5956609937
 10
-79.837707389
 20
13.6271988664
 10
-79.8513919959
 20
13.6575130289
 10
-79.8683086236
 20
13.6856860802
 10
-79.8887223417
 20
13.7115007326
 10
-79.9123680806
 20
13.7351742738
 10
-79.9384260857
 20
13.7564411657
 10
-79.9669613362
 20
13.7752578914
 10
-79.9979088529
 20
13.7916679677
 10
-80.0302539441
 20
13.8055364073
 10
-80.064012435
 20
13.81684646
 10
-80.0991685003
 20
13.8256148758
 10
-80.1346599718
 20
13.831756918
 10
-80.1707300714
 20
13.8351541927
 10
-80.2071355772
 20
13.8359250936
 10
-80.2420846555
 20
13.8343400651
 10
-80.275111513
 20
13.8301885855
 10
-80.3066819429
 20
13.8236811765
 10
-80.3364014913
 20
13.8157198467
 10
-80.3639901794
 20
13.8064667519
 10
-80.389727986
 20
13.7957597362
 10
-80.4140603932
 20
13.7840143417
 10
-80.4372046602
 20
13.7716657779
 10
-80.4589435278
 20
13.7582788352
 10
-80.4790707007
 20
13.7429634265
 10
-80.4976812475
 20
13.7254234408
 10
-80.5146800997
 20
13.705954989
 10
-80.5295757561
 20
13.6845563172
 10
-80.5421837055
 20
13.6609169243
 10
-80.5526884591
 20
13.6353473112
 10
-80.5611520492
 20
13.608777227
 10
-80.5674528128
 20
13.5813090253
 10
-80.5717124129
 20
13.5528403524
 10
-80.5743578707
 20
13.5239938962
 10
-80.5756502825
 20
13.4945490741
 10
-80.5753285519
 20
13.4647264687
  0
LINE
  5
4FC
100
AcDbEntity
  8
0
100
AcDbLine
 62
7
  6
CONTINUOUS
 10
-81.3877711784
 20
8.1642135151
 11
-81.3877711784
 21
7.9928665151
  0
LINE
  5
4FD
100
AcDbEntity
  8
0
100
AcDbLine
 62
7
  6
CONTINUOUS
 10
-81.3659511784
 20
11.3309175151
 11
-81.3659511784
 21
10.1289705151
  0
LINE
  5
4FE
100
AcDbEntity
  8
0
100
AcDbLine
 62
7
  6
CONTINUOUS
 10
-81.1476401784
 20
10.1289705151
 11
-81.1476401784
 21
11.0845615151
  0
LINE
  5
4FF
100
AcDbEntity
  8
0
100
AcDbLine
 62
7
  6
CONTINUOUS
 10
-80.9424981784
 20
9.6898925151
 11
-80.9424981784
 21
9.9044935151
  0
LINE
  5
500
100
AcDbEntity
  8
0
100
AcDbLine
 62
7
  6
CONTINUOUS
 10
-80.9424981784
 20
13.8134125151
 11
-80.9424981784
 21
14.0280135151
  0
LINE
  5
501
100
AcDbEntity
  8
0
100
AcDbLine
 62
7
  6
CONTINUOUS
 10
-80.8905931784
 20
7.5257505151
 11
-80.8905931784
 21
7.9327255151
  0
LINE
  5
502
100
AcDbEntity
  8
0
100
AcDbLine
 62
7
  6
CONTINUOUS
 10
-80.7818711784
 20
11.5327205151
 11
-80.7818711784
 21
11.7535175151
  0
LINE
  5
503
100
AcDbEntity
  8
0
100
AcDbLine
 62
7
  6
CONTINUOUS
 10
-79.8719671784
 20
12.6761675151
 11
-79.8719671784
 21
11.7328995151
  0
LINE
  5
504
100
AcDbEntity
  8
0
100
AcDbLine
 62
7
  6
CONTINUOUS
 10
-79.6668551784
 20
7.9327255151
 11
-79.6668551784
 21
8.1642135151
  0
LINE
  5
505
100
AcDbEntity
  8
0
100
AcDbLine
 62
7
  6
CONTINUOUS
 10
-79.6668551784
 20
10.3752965151
 11
-79.6668551784
 21
10.6154275151
  0
LINE
  5
506
100
AcDbEntity
  8
0
100
AcDbLine
 62
7
  6
CONTINUOUS
 10
-79.6668551784
 20
11.4903125151
 11
-79.6668551784
 21
12.6761675151
  0
LINE
  5
507
100
AcDbEntity
  8
RACCORDO
100
AcDbLine
 62
7
  6
CONTINUOUS
 10
-79.6223691784
 20
32.5142836773
 11
-79.6223691784
 21
35.6172173529
  0
LINE
  5
508
100
AcDbEntity
  8
RACCORDO
100
AcDbLine
 62
7
  6
CONTINUOUS
 10
-77.5115268585
 20
-13.7371410496
 11
-77.6351862262
 21
-13.7382202086
  0
LINE
  5
509
100
AcDbEntity
  8
0
100
AcDbLine
 62
7
  6
CONTINUOUS
 10
-40.9223691784
 20
-14.6342494849
 11
-43.6223691784
 21
-14.6342494849
  0
LINE
  5
50A
100
AcDbEntity
  8
0
100
AcDbLine
 62
7
  6
CONTINUOUS
 10
-87.3213221784
 20
-12.7725774849
 11
-83.6223691784
 21
-12.7725774849
  0
LINE
  5
50B
100
AcDbEntity
  8
RACCORDO
100
AcDbLine
 62
7
  6
CONTINUOUS
 10
-77.5115268585
 20
-12.8313579203
 11
-77.6351862262
 21
-12.8302787613
  0
LINE
  5
50C
100
AcDbEntity
  8
0
100
AcDbLine
 62
7
  6
CONTINUOUS
 10
-87.3707221784
 20
7.4265795151
 11
-86.9914451784
 21
6.5529925151
  0
LINE
  5
50D
100
AcDbEntity
  8
0
100
AcDbLine
 62
7
  6
CONTINUOUS
 10
-86.2457121784
 20
6.3566915151
 11
-86.6262971784
 21
7.2332925151
  0
LINE
  5
50E
100
AcDbEntity
  8
0
100
AcDbLine
 62
7
  6
CONTINUOUS
 10
-87.3707221784
 20
9.8141145151
 11
-87.0009391784
 21
8.9623945151
  0
LINE
  5
50F
100
AcDbEntity
  8
0
100
AcDbLine
 62
7
  6
CONTINUOUS
 10
-86.1214581784
 20
7.1022125151
 11
-85.7348921784
 21
6.2118355151
  0
LWPOLYLINE
  5
510
100
AcDbEntity
  8
0
100
AcDbPolyline
 62
7
  6
CONTINUOUS
 90
26
 70
0
 10
-80.5753285519
 20
13.4647264687
 10
-80.5730364105
 20
13.4358105156
 10
-80.5684794385
 20
13.4079951943
 10
-80.5619520557
 20
13.3810865253
 10
-80.5539812533
 20
13.3557870054
 10
-80.5445493649
 20
13.3323865604
 10
-80.5336740568
 20
13.3105952645
 10
-80.5219353191
 20
13.2902458372
 10
-80.5094619812
 20
13.2713448476
 10
-80.4961252137
 20
13.2538857266
 10
-80.4821185188
 20
13.2376814868
 10
-80.4675352252
 20
13.2226938888
 10
-80.4522820041
 20
13.2089611719
 10
-80.4362723717
 20
13.1964110671
 10
-80.4194464653
 20
13.1850094011
 10
-80.4018641475
 20
13.1747903471
 10
-80.3836185227
 20
13.1657841558
 10
-80.364598431
 20
13.1580599183
 10
-80.3449150324
 20
13.1515485435
 10
-80.3249949114
 20
13.1460730096
 10
-80.3049138929
 20
13.1416149723
 10
-80.284596152
 20
13.138192776
 10
-80.2642407991
 20
13.135684431
 10
-80.2439142043
 20
13.1340492743
 10
-80.2235499974
 20
13.133327969
 10
-80.2031481784
 20
13.1335205151
  0
LINE
  5
511
100
AcDbEntity
  8
0
100
AcDbLine
 62
7
  6
CONTINUOUS
 10
-77.7973465055
 20
4.3657505151
 11
-77.7973465055
 21
-16.2342494849
  0
LINE
  5
512
100
AcDbEntity
  8
DRAFT
100
AcDbLine
 62
7
  6
CONTINUOUS
 10
-77.6351862262
 20
4.3657505151
 11
-77.6351862262
 21
1.8697212387
  0
LINE
  5
513
100
AcDbEntity
  8
DRAFT
100
AcDbLine
 62
7
  6
CONTINUOUS
 10
-77.6351862262
 20
0.9617797914
 11
-77.6351862262
 21
-12.8302787613
  0
LINE
  5
514
100
AcDbEntity
  8
DRAFT
100
AcDbLine
 62
7
  6
CONTINUOUS
 10
-77.6351862262
 20
-13.7382202086
 11
-77.6351862262
 21
-16.2342494849
  0
LINE
  5
515
100
AcDbEntity
  8
RACCORDO
100
AcDbLine
 62
7
  6
CONTINUOUS
 10
-77.5114671061
 20
1.8686415583
 11
-77.5114671061
 21
0.9628594719
  0
LINE
  5
516
100
AcDbEntity
  8
RACCORDO
100
AcDbLine
 62
7
  6
CONTINUOUS
 10
-77.5114671061
 20
-12.8313584417
 11
-77.5114671061
 21
-13.7371405281
  0
LINE
  5
517
100
AcDbEntity
  8
DRAFT
100
AcDbLine
 62
7
  6
CONTINUOUS
 10
-41.6223691784
 20
-11.8939365793
 11
-43.6223691784
 21
-11.8954635833
  0
LINE
  5
518
100
AcDbEntity
  8
0
100
AcDbLine
 62
7
  6
CONTINUOUS
 10
-83.6223691784
 20
-11.9667374849
 11
-85.1074471784
 21
-11.9667374849
  0
LINE
  5
519
100
AcDbEntity
  8
0
100
AcDbLine
 62
7
  6
CONTINUOUS
 10
-85.7486491784
 20
-11.9667374849
 11
-86.6985831784
 21
-11.9667374849
  0
LINE
  5
51A
100
AcDbEntity
  8
COPY-PUBBLISH
100
AcDbLine
 62
7
  6
CONTINUOUS
 10
-41.6223691784
 20
-11.7592721579
 11
-43.6223691784
 21
-11.7592721579
  0
LINE
  5
51B
100
AcDbEntity
  8
0
100
AcDbLine
 62
7
  6
CONTINUOUS
 10
-86.2388221784
 20
-10.6174234849
 11
-86.2084101784
 21
-10.6174234849
  0
LINE
  5
51C
100
AcDbEntity
  8
RACCORDO
100
AcDbLine
 62
7
  6
CONTINUOUS
 10
-45.3223691784
 20
-9.9342494849
 11
-43.9223691784
 21
-9.9342494849
  0
LINE
  5
51D
100
AcDbEntity
  8
0
100
AcDbLine
 62
7
  6
CONTINUOUS
 10
-86.1780651784
 20
-9.7997137437
 11
-86.2618301784
 21
-9.7997144849
  0
LINE
  5
51E
100
AcDbEntity
  8
RACCORDO
100
AcDbLine
 62
7
  6
CONTINUOUS
 10
-44.4223691784
 20
-9.6842494849
 11
-45.3223691784
 21
-9.6842494849
  0
LINE
  5
51F
100
AcDbEntity
  8
RACCORDO
100
AcDbLine
 62
250
  6
CONTINUOUS
 10
-44.1223691784
 20
-9.3842494849
 11
-45.6223691784
 21
-9.3842494849
  0
LWPOLYLINE
  5
520
100
AcDbEntity
  8
0
100
AcDbPolyline
 62
7
  6
CONTINUOUS
 90
3
 70
0
 43
0.3500000006
 10
-105.6213229065
 20
1.1434673538
 10
-105.4070384216
 20
1.0720384369
 10
-105.1213227539
 20
0.929180603
  0
LINE
  5
521
100
AcDbEntity
  8
0
100
AcDbLine
 62
7
  6
CONTINUOUS
 10
-84.8964821784
 20
10.7206675151
 11
-84.7112511784
 21
10.2940275151
  0
LINE
  5
522
100
AcDbEntity
  8
0
100
AcDbLine
 62
7
  6
CONTINUOUS
 10
-84.3334825223
 20
10.187736307
 11
-84.9080691784
 21
11.5111815151
  0
LINE
  5
523
100
AcDbEntity
  8
0
100
AcDbLine
 62
7
  6
CONTINUOUS
 10
-85.0915071784
 20
11.9336925151
 11
-85.4396135432
 21
12.7354853553
  0
LINE
  5
524
100
AcDbEntity
  8
0
100
AcDbLine
 62
7
  6
CONTINUOUS
 10
-85.1770761784
 20
13.1092205151
 11
-84.6127381784
 21
11.8093825151
  0
LINE
  5
525
100
AcDbEntity
  8
0
100
AcDbLine
 62
7
  6
CONTINUOUS
 10
-84.4293001784
 20
11.3868705151
 11
-84.0512020442
 21
10.5159982059
  0
LINE
  5
526
100
AcDbEntity
  8
0
100
AcDbLine
 62
7
  6
CONTINUOUS
 10
-84.6615141784
 20
12.6044065151
 11
-84.8430271784
 21
13.0224855151
  0
LWPOLYLINE
  5
527
100
AcDbEntity
  8
RACCORDO
100
AcDbPolyline
 62
7
  6
CONTINUOUS
 90
5
 70
0
 10
-92.1223691784
 20
-24.23419668
 10
-92.1208120205
 20
-24.2319958422
 10
-92.1162792082
 20
-24.227692484
 10
-92.1089872641
 20
-24.2212866055
 10
-92.0870566609
 20
-24.2018161867
  0
LINE
  5
528
100
AcDbEntity
  8
RACCORDO
100
AcDbLine
 62
7
  6
CONTINUOUS
 10
-91.6867944744
 20
11.9928817527
 11
-91.6310953817
 21
11.9462006995
  0
LINE
  5
529
100
AcDbEntity
  8
RACCORDO
100
AcDbLine
 62
7
  6
CONTINUOUS
 10
-91.8523851483
 20
12.1326387325
 11
-91.6867944744
 21
11.9928817527
  0
LINE
  5
52A
100
AcDbEntity
  8
RACCORDO
100
AcDbLine
 62
7
  6
CONTINUOUS
 10
-91.9987701315
 20
12.2571161383
 11
-91.8523851483
 21
12.1326387325
  0
LINE
  5
52B
100
AcDbEntity
  8
RACCORDO
100
AcDbLine
 62
7
  6
CONTINUOUS
 10
-92.0567748865
 20
12.3069635296
 11
-91.9987701315
 21
12.2571161383
  0
LINE
  5
52C
100
AcDbEntity
  8
RACCORDO
100
AcDbLine
 62
7
  6
CONTINUOUS
 10
-92.0992435739
 20
12.3440180364
 11
-92.0567748865
 21
12.3069635296
  0
LWPOLYLINE
  5
52D
100
AcDbEntity
  8
RACCORDO
100
AcDbPolyline
 62
7
  6
CONTINUOUS
 90
3
 70
0
 10
-92.1160277392
 20
12.359493241
 10
-92.1089872641
 20
12.3527876357
 10
-92.0992435739
 20
12.3440180364
  0
LINE
  5
52E
100
AcDbEntity
  8
RACCORDO
100
AcDbLine
 62
7
  6
CONTINUOUS
 10
-92.1223691784
 20
12.3656977101
 11
-92.1160277392
 21
12.359493241
  0
LINE
  5
52F
100
AcDbEntity
  8
DRAFT
100
AcDbLine
 62
250
  6
CONTINUOUS
 10
-70.6223691784
 20
11.5407278421
 11
-70.6223691784
 21
11.3839218627
  0
LINE
  5
530
100
AcDbEntity
  8
DRAFT
100
AcDbLine
 62
250
  6
CONTINUOUS
 10
-70.6223691784
 20
-23.409226812
 11
-70.6223691784
 21
-23.2524208325
  0
LWPOLYLINE
  5
531
100
AcDbEntity
  8
0
100
AcDbPolyline
 62
7
  6
CONTINUOUS
 90
4
 70
0
 43
0.3500000006
 10
-107.6927546997
 20
-4.2851054077
 10
-108.3356081543
 20
-4.2851054077
 10
-108.3356081543
 20
-2.78510495
 10
-105.3356072388
 20
-3.6422474213
  0
LWPOLYLINE
  5
532
100
AcDbEntity
  8
0
100
AcDbPolyline
 62
7
  6
CONTINUOUS
 90
20
 70
0
 10
-81.326632376
 20
11.7898482161
 10
-81.3064883015
 20
11.7573588427
 10
-81.2845942379
 20
11.7280469758
 10
-81.2609570512
 20
11.7017078808
 10
-81.2363169643
 20
11.6778018113
 10
-81.2108901988
 20
11.6563342696
 10
-81.1844605331
 20
11.6372997535
 10
-81.1571195257
 20
11.6201420097
 10
-81.1288549693
 20
11.6047693001
 10
-81.0996790712
 20
11.5912733627
 10
-81.0697200113
 20
11.579373159
 10
-81.0388460567
 20
11.5690687613
 10
-81.0071889404
 20
11.5603600972
 10
-80.9752720415
 20
11.5529659116
 10
-80.9431768863
 20
11.546900668
 10
-80.9108219485
 20
11.5421499028
 10
-80.8784860287
 20
11.5383889695
 10
-80.8462620606
 20
11.5355096527
 10
-80.8140571105
 20
11.5336201679
 10
-80.7818711784
 20
11.5327205151
  0
LINE
  5
533
100
AcDbEntity
  8
0
100
AcDbLine
 62
7
  6
CONTINUOUS
 10
-80.4744577815
 20
12.1015537939
 11
-80.4358127079
 21
12.0344379119
  0
LWPOLYLINE
  5
534
100
AcDbEntity
  8
0
100
AcDbPolyline
 62
7
  6
CONTINUOUS
 90
33
 70
0
 10
-80.4358127079
 20
12.0344379119
 10
-80.4008841886
 20
11.9727648842
 10
-80.384213811
 20
11.943627394
 10
-80.3679592908
 20
11.9156716698
 10
-80.3520893331
 20
11.8888244829
 10
-80.3360759767
 20
11.8627937112
 10
-80.3199090701
 20
11.8375679537
 10
-80.3035987649
 20
11.8131586115
 10
-80.286647554
 20
11.7893077663
 10
-80.2689644902
 20
11.7658933925
 10
-80.2506405207
 20
11.7430375158
 10
-80.2314509804
 20
11.7208482947
 10
-80.2113438603
 20
11.699222536
 10
-80.1903711694
 20
11.6782634328
 10
-80.1684642691
 20
11.6583887239
 10
-80.1455689634
 20
11.6396294029
 10
-80.1217394483
 20
11.621954476
 10
-80.0970696731
 20
11.6056887003
 10
-80.0714406607
 20
11.5910370961
 10
-80.0449713882
 20
11.577794643
 10
-80.0181127363
 20
11.5656710368
 10
-79.9910032743
 20
11.5546474776
 10
-79.9635044328
 20
11.5447427654
 10
-79.9356513848
 20
11.5357229962
 10
-79.9074717709
 20
11.5275444312
 10
-79.8789379505
 20
11.5202508093
 10
-79.8500021741
 20
11.5137394431
 10
-79.8206854054
 20
11.5079976122
 10
-79.7909666807
 20
11.5030380372
 10
-79.7607353597
 20
11.4987961924
 10
-79.7299545623
 20
11.4952505696
 10
-79.6986611685
 20
11.4924226772
 10
-79.6668551784
 20
11.4903125151
  0
LINE
  5
535
100
AcDbEntity
  8
RACCORDO
100
AcDbLine
 62
250
  6
CONTINUOUS
 10
-44.1223691784
 20
-2.4842494849
 11
-45.6223691784
 21
-2.4842494849
  0
LINE
  5
536
100
AcDbEntity
  8
RACCORDO
100
AcDbLine
 62
7
  6
CONTINUOUS
 10
-44.4223691784
 20
-2.1842494849
 11
-45.3223691784
 21
-2.1842494849
  0
LINE
  5
537
100
AcDbEntity
  8
RACCORDO
100
AcDbLine
 62
7
  6
CONTINUOUS
 10
-43.9223691784
 20
-1.9342494849
 11
-45.3223691784
 21
-1.9342494849
  0
LINE
  5
538
100
AcDbEntity
  8
COPY-PUBBLISH
100
AcDbLine
 62
7
  6
CONTINUOUS
 10
-43.6223691784
 20
-0.109226812
 11
-41.6223691784
 21
-0.109226812
  0
LINE
  5
539
100
AcDbEntity
  8
DRAFT
100
AcDbLine
 62
7
  6
CONTINUOUS
 10
-43.6223691784
 20
0.0269646135
 11
-41.6223691784
 21
0.0254376095
  0
LWPOLYLINE
  5
53A
100
AcDbEntity
  8
0
100
AcDbPolyline
 62
7
  6
CONTINUOUS
 90
28
 70
0
 10
-85.8935536166
 20
9.8370773692
 10
-85.9099860482
 20
9.8455776346
 10
-85.9257453874
 20
9.855072983
 10
-85.9408316343
 20
9.8655634146
 10
-85.9552872279
 20
9.8771415943
 10
-85.9690697293
 20
9.8897148572
 10
-85.9820518213
 20
9.903005208
 10
-85.9941812467
 20
9.9170045572
 10
-86.0055102628
 20
9.9317209944
 10
-86.0160683244
 20
9.9469007937
 10
-86.0258122948
 20
9.9625449745
 10
-86.0347853107
 20
9.9786525173
 10
-86.0431462377
 20
9.994966638
 10
-86.0508928996
 20
10.0113841054
 10
-86.0580274726
 20
10.0280081507
 10
-86.0647153508
 20
10.0448916832
 10
-86.0709692935
 20
10.0620182924
 10
-86.0767765415
 20
10.0794043888
 10
-86.082264211
 20
10.0971521131
 10
-86.0874393704
 20
10.1152447175
 10
-86.0922949514
 20
10.1336989497
 10
-86.0969368649
 20
10.1526671939
 10
-86.1013654132
 20
10.1721445358
 10
-86.1055802941
 20
10.1921358896
 10
-86.1096865107
 20
10.2128083813
 10
-86.1137190641
 20
10.2342177196
 10
-86.1176429534
 20
10.2563081957
 10
-86.1214581784
 20
10.2790798097
  0
LWPOLYLINE
  5
53B
100
AcDbEntity
  8
0
100
AcDbPolyline
 62
7
  6
CONTINUOUS
 90
16
 70
0
 10
-84.3334825223
 20
10.187736307
 10
-84.3220323197
 20
10.1810668119
 10
-84.3102482973
 20
10.1751766673
 10
-84.2981304548
 20
10.1700658731
 10
-84.2856138479
 20
10.1657304379
 10
-84.2727634211
 20
10.1621743533
 10
-84.2597740076
 20
10.1594095933
 10
-84.2466536481
 20
10.1574647497
 10
-84.233394302
 20
10.1563112307
 10
-84.2201666804
 20
10.1558752363
 10
-84.2070263948
 20
10.1562458449
 10
-84.1939178337
 20
10.1573339779
 10
-84.1808448744
 20
10.1587985994
 10
-84.1678670938
 20
10.1605747364
 10
-84.154924915
 20
10.1627273617
 10
-84.128587637
 20
10.1675666797
  0
LWPOLYLINE
  5
53C
100
AcDbEntity
  8
0
100
AcDbPolyline
 62
7
  6
CONTINUOUS
 90
37
 70
0
 10
-80.5615379515
 20
8.9814458365
 10
-80.5986694502
 20
9.0091254742
 10
-80.6323582067
 20
9.0393621522
 10
-80.6626042208
 20
9.0721558706
 10
-80.6894947535
 20
9.1073192211
 10
-80.7129425438
 20
9.1450396119
 10
-80.7326858096
 20
9.1858792674
 10
-80.7488112888
 20
9.2304658939
 10
-80.7612322434
 20
9.2781717852
 10
-80.7694266768
 20
9.3276760472
 10
-80.7732885258
 20
9.3794633129
 10
-80.7729238536
 20
9.4330489494
 10
-80.7681288543
 20
9.4856581642
 10
-80.7585186128
 20
9.5370874444
 10
-80.7444780442
 20
9.5875403029
 10
-80.7269580871
 20
9.6348524859
 10
-80.7058112104
 20
9.6783807417
 10
-80.6811849453
 20
9.7187683219
 10
-80.6544728238
 20
9.7557807278
 10
-80.6263256215
 20
9.7893358093
 10
-80.5960925629
 20
9.8195157165
 10
-80.5632148538
 20
9.8463324018
 10
-80.5277388456
 20
9.8697385088
 10
-80.4896181868
 20
9.8897813938
 10
-80.4481550293
 20
9.9066150779
 10
-80.4025988742
 20
9.9204058162
 10
-80.3537002202
 20
9.9309873535
 10
-80.3030127158
 20
9.9380149465
 10
-80.2503521309
 20
9.9416398357
 10
-80.1959026956
 20
9.9417107805
 10
-80.1417707481
 20
9.9374293156
 10
-80.0879879528
 20
9.928417052
 10
-80.0345226454
 20
9.9150523788
 10
-79.9833861717
 20
9.8976719969
 10
-79.9348680727
 20
9.8758759284
 10
-79.8886788073
 20
9.8500641512
 10
-79.8459610987
 20
9.8217733014
  0
LWPOLYLINE
  5
53D
100
AcDbEntity
  8
0
100
AcDbPolyline
 62
7
  6
CONTINUOUS
 90
44
 70
0
 10
-79.8459610987
 20
9.8217733014
 10
-79.8069737783
 20
9.7914921185
 10
-79.7714580145
 20
9.758731863
 10
-79.7397800364
 20
9.7235629515
 10
-79.7121296123
 20
9.6862124538
 10
-79.6883169738
 20
9.6464533001
 10
-79.6681390443
 20
9.6036746978
 10
-79.6514684485
 20
9.5570572629
 10
-79.6384325618
 20
9.5074203794
 10
-79.6292104332
 20
9.4566114067
 10
-79.6237247594
 20
9.40448329
 10
-79.6220528438
 20
9.3511830842
 10
-79.6246056459
 20
9.2989993132
 10
-79.6315371471
 20
9.2484243775
 10
-79.6426933661
 20
9.1989658767
 10
-79.6580233179
 20
9.1514351328
 10
-79.6776641763
 20
9.1060542014
 10
-79.7014787675
 20
9.0626010269
 10
-79.7290045863
 20
9.0212207647
 10
-79.7600692936
 20
8.9815021685
 10
-79.7948452285
 20
8.9438564846
 10
-79.833386902
 20
8.9096626075
 10
-79.8758172001
 20
8.8793498021
 10
-79.9220132369
 20
8.8524888035
 10
-79.9716608655
 20
8.8291707106
 10
-80.024746031
 20
8.8096123678
 10
-80.0812827883
 20
8.7935969308
 10
-80.1409991548
 20
8.7805649657
 10
-80.2040157792
 20
8.770455031
 10
-80.2702120128
 20
8.7633285682
 10
-80.3389539261
 20
8.7588104676
 10
-80.4108522301
 20
8.7567743839
 10
-80.4852962137
 20
8.7573466624
 10
-80.5598198146
 20
8.7605312293
 10
-80.6345971647
 20
8.7662476552
 10
-80.709454132
 20
8.7745763696
 10
-80.7814022579
 20
8.7857625867
 10
-80.8497188947
 20
8.7999201476
 10
-80.9151266902
 20
8.8169352113
 10
-80.9768051289
 20
8.8367114698
 10
-81.0347132066
 20
8.8593591635
 10
-81.0888919275
 20
8.884768052
 10
-81.1386437886
 20
8.9125111063
 10
-81.1837265318
 20
8.9425594167
  0
LWPOLYLINE
  5
53E
100
AcDbEntity
  8
0
100
AcDbPolyline
 62
7
  6
CONTINUOUS
 90
30
 70
0
 10
-81.1837265318
 20
8.9425594167
 10
-81.2243824152
 20
8.9749418929
 10
-81.2606407106
 20
9.0093182347
 10
-81.2923632689
 20
9.0455075939
 10
-81.3196882393
 20
9.0836908188
 10
-81.3430593407
 20
9.124070154
 10
-81.36260277
 20
9.1669643474
 10
-81.3781923303
 20
9.2120546511
 10
-81.3898931504
 20
9.2585870658
 10
-81.3973497835
 20
9.3071386642
 10
-81.4009176764
 20
9.3571323736
 10
-81.4017282975
 20
9.4060829765
 10
-81.4000777086
 20
9.4536298505
 10
-81.3956698479
 20
9.5001336179
 10
-81.3887479991
 20
9.5441909286
 10
-81.3795604084
 20
9.585278015
 10
-81.3678588295
 20
9.6239186447
 10
-81.3531418079
 20
9.6602807699
 10
-81.3355308738
 20
9.6944294029
 10
-81.314904497
 20
9.7262995313
 10
-81.290396632
 20
9.7558640707
 10
-81.2613088772
 20
9.7830881604
 10
-81.2283396343
 20
9.8080066611
 10
-81.1927180628
 20
9.8306970701
 10
-81.1542335074
 20
9.8517671119
 10
-81.1130966235
 20
9.870609062
 10
-81.0711685361
 20
9.885477245
 10
-81.0290696203
 20
9.8957897689
 10
-80.9861795011
 20
9.9021285256
 10
-80.9424981784
 20
9.9044935151
  0
LWPOLYLINE
  5
53F
100
AcDbEntity
  8
0
100
AcDbPolyline
 62
7
  6
CONTINUOUS
 90
13
 70
0
 10
-81.1476401784
 20
11.0845615151
 10
-81.0479316397
 20
11.0023477691
 10
-80.9421094534
 20
10.9230055893
 10
-80.8301736193
 20
10.8465349757
 10
-80.7110647455
 20
10.7720614831
 10
-80.5858422241
 20
10.7004595567
 10
-80.4576842313
 20
10.6343525322
 10
-80.3264128464
 20
10.5739872059
 10
-80.1922059903
 20
10.5191167814
 10
-80.0587756015
 20
10.4716242054
 10
-79.9273589931
 20
10.4321371268
 10
-79.796718852
 20
10.4000278967
 10
-79.6668551784
 20
10.3752965151
  0
LINE
  5
540
100
AcDbEntity
  8
RACCORDO
100
AcDbLine
 62
7
  6
CONTINUOUS
 10
-92.0870566609
 20
-24.2018161867
 11
-92.0388859916
 21
-24.1600678295
  0
LINE
  5
541
100
AcDbEntity
  8
RACCORDO
100
AcDbLine
 62
7
  6
CONTINUOUS
 10
-92.0388859916
 20
-24.1600678295
 11
-91.9044635901
 21
-24.0453014154
  0
LWPOLYLINE
  5
542
100
AcDbEntity
  8
RACCORDO
100
AcDbPolyline
 62
7
  6
CONTINUOUS
 90
3
 70
0
 10
-91.9044635901
 20
-24.0453014154
 10
-91.7146623542
 20
-23.8849365695
 10
-91.6310953817
 20
-23.8146996693
  0
LINE
  5
543
100
AcDbEntity
  8
0
100
AcDbLine
 62
7
  6
CONTINUOUS
 10
-83.6223691784
 20
-9.6861244849
 11
-85.2084151784
 21
-10.5112574849
  0
LINE
  5
544
100
AcDbEntity
  8
0
100
AcDbLine
 62
7
  6
CONTINUOUS
 10
-85.1074471784
 20
-11.3351144849
 11
-83.6223691784
 21
-10.5651254849
  0
LINE
  5
545
100
AcDbEntity
  8
RACCORDO
100
AcDbLine
 62
7
  6
CONTINUOUS
 10
-77.5115268585
 20
0.9628589504
 11
-77.6351862262
 21
0.9617797914
  0
LINE
  5
546
100
AcDbEntity
  8
0
100
AcDbLine
 62
7
  6
CONTINUOUS
 10
-40.9223691784
 20
2.7657505151
 11
-43.6223691784
 21
2.7657505151
  0
LINE
  5
547
100
AcDbEntity
  8
RACCORDO
100
AcDbLine
 62
7
  6
CONTINUOUS
 10
-77.5115268585
 20
1.8686420797
 11
-77.6351862262
 21
1.8697212387
  0
LINE
  5
548
100
AcDbEntity
  8
0
100
AcDbLine
 62
7
  6
CONTINUOUS
 10
-83.6223691784
 20
6.4533325151
 11
-86.1214581784
 21
7.1022125151
  0
LINE
  5
549
100
AcDbEntity
  8
0
100
AcDbLine
 62
7
  6
CONTINUOUS
 10
-86.6262971784
 20
7.2332925151
 11
-87.3707221784
 21
7.4265795151
  0
LINE
  5
54A
100
AcDbEntity
  8
0
100
AcDbLine
 62
7
  6
CONTINUOUS
 10
-85.8562694317
 20
7.4773003212
 11
-84.1368001784
 21
7.0308465151
  0
LINE
  5
54B
100
AcDbEntity
  8
0
100
AcDbLine
 62
7
  6
CONTINUOUS
 10
-84.1584321784
 20
7.7971535151
 11
-85.7348897292
 21
8.2064748791
  0
LINE
  5
54C
100
AcDbEntity
  8
0
100
AcDbLine
 62
7
  6
CONTINUOUS
 10
-85.8593571784
 20
8.6412575151
 11
-83.8860065349
 21
8.128883348
  0
LINE
  5
54D
100
AcDbEntity
  8
0
100
AcDbLine
 62
7
  6
CONTINUOUS
 10
-85.7348921784
 20
6.2118355151
 11
-83.6223691784
 21
5.6557505151
  0
LINE
  5
54E
100
AcDbEntity
  8
0
100
AcDbLine
 62
7
  6
CONTINUOUS
 10
-86.9914451784
 20
6.5529925151
 11
-86.2457121784
 21
6.3566915151
  0
LINE
  5
54F
100
AcDbEntity
  8
0
100
AcDbLine
 62
7
  6
CONTINUOUS
 10
-87.0009391784
 20
8.9623945151
 11
-86.1214581784
 21
8.7237325151
  0
LWPOLYLINE
  5
550
100
AcDbEntity
  8
0
100
AcDbPolyline
 62
7
  6
CONTINUOUS
 90
10
 70
0
 10
-83.9202943788
 20
10.4765494171
 10
-83.9330627024
 20
10.4833573438
 10
-83.947207131
 20
10.4886645837
 10
-83.9617184024
 20
10.4931474765
 10
-83.9763811762
 20
10.4965902841
 10
-83.9914107929
 20
10.4992087444
 10
-84.0064440121
 20
10.5023264114
 10
-84.0213597537
 20
10.5063844696
 10
-84.0362790977
 20
10.5109417344
 10
-84.0512020442
 20
10.5159982059
  0
LWPOLYLINE
  5
551
100
AcDbEntity
  8
0
100
AcDbPolyline
 62
7
  6
CONTINUOUS
 90
37
 70
0
 10
-80.5615379515
 20
13.1049658365
 10
-80.5986694502
 20
13.1326454742
 10
-80.6323582067
 20
13.1628821522
 10
-80.6626042208
 20
13.1956758706
 10
-80.6894947535
 20
13.2308392211
 10
-80.7129425438
 20
13.2685596119
 10
-80.7326858096
 20
13.3093992674
 10
-80.7488112888
 20
13.3539858939
 10
-80.7612322434
 20
13.4016917852
 10
-80.7694266768
 20
13.4511960472
 10
-80.7732885258
 20
13.5029833129
 10
-80.7729238536
 20
13.5565689494
 10
-80.7681288543
 20
13.6091781642
 10
-80.7585186128
 20
13.6606074444
 10
-80.7444780442
 20
13.7110603029
 10
-80.7269580871
 20
13.7583724859
 10
-80.7058112104
 20
13.8019007417
 10
-80.6811849453
 20
13.8422883219
 10
-80.6544728238
 20
13.8793007278
 10
-80.6263256215
 20
13.9128558093
 10
-80.5960925629
 20
13.9430357165
 10
-80.5632148538
 20
13.9698524018
 10
-80.5277388456
 20
13.9932585088
 10
-80.4896181868
 20
14.0133013938
 10
-80.4481550293
 20
14.0301350779
 10
-80.4025988742
 20
14.0439258162
 10
-80.3537002202
 20
14.0545073535
 10
-80.3030127158
 20
14.0615349465
 10
-80.2503521309
 20
14.0651598357
 10
-80.1959026956
 20
14.0652307805
 10
-80.1417707481
 20
14.0609493156
 10
-80.0879879528
 20
14.051937052
 10
-80.0345226454
 20
14.0385723788
 10
-79.9833861717
 20
14.0211919969
 10
-79.9348680727
 20
13.9993959284
 10
-79.8886788073
 20
13.9735841512
 10
-79.8459610987
 20
13.9452933014
  0
LWPOLYLINE
  5
552
100
AcDbEntity
  8
0
100
AcDbPolyline
 62
7
  6
CONTINUOUS
 90
44
 70
0
 10
-79.8459610987
 20
13.9452933014
 10
-79.8069737783
 20
13.9150121185
 10
-79.7714580145
 20
13.882251863
 10
-79.7397800364
 20
13.8470829515
 10
-79.7121296123
 20
13.8097324538
 10
-79.6883169738
 20
13.7699733001
 10
-79.6681390443
 20
13.7271946978
 10
-79.6514684485
 20
13.6805772629
 10
-79.6384325618
 20
13.6309403794
 10
-79.6292104332
 20
13.5801314067
 10
-79.6237247594
 20
13.52800329
 10
-79.6220528438
 20
13.4747030842
 10
-79.6246056459
 20
13.4225193132
 10
-79.6315371471
 20
13.3719443775
 10
-79.6426933661
 20
13.3224858767
 10
-79.6580233179
 20
13.2749551328
 10
-79.6776641763
 20
13.2295742014
 10
-79.7014787675
 20
13.1861210269
 10
-79.7290045863
 20
13.1447407647
 10
-79.7600692936
 20
13.1050221685
 10
-79.7948452285
 20
13.0673764846
 10
-79.833386902
 20
13.0331826075
 10
-79.8758172001
 20
13.0028698021
 10
-79.9220132369
 20
12.9760088035
 10
-79.9716608655
 20
12.9526907106
 10
-80.024746031
 20
12.9331323678
 10
-80.0812827883
 20
12.9171169308
 10
-80.1409991548
 20
12.9040849657
 10
-80.2040157792
 20
12.893975031
 10
-80.2702120128
 20
12.8868485682
 10
-80.3389539261
 20
12.8823304676
 10
-80.4108522301
 20
12.8802943839
 10
-80.4852962137
 20
12.8808666624
 10
-80.5598198146
 20
12.8840512293
 10
-80.6345971647
 20
12.8897676552
 10
-80.709454132
 20
12.8980963696
 10
-80.7814022579
 20
12.9092825867
 10
-80.8497188947
 20
12.9234401476
 10
-80.9151266902
 20
12.9404552113
 10
-80.9768051289
 20
12.9602314698
 10
-81.0347132066
 20
12.9828791635
 10
-81.0888919275
 20
13.008288052
 10
-81.1386437886
 20
13.0360311063
 10
-81.1837265318
 20
13.0660794167
  0
LWPOLYLINE
  5
553
100
AcDbEntity
  8
0
100
AcDbPolyline
 62
7
  6
CONTINUOUS
 90
30
 70
0
 10
-81.1837265318
 20
13.0660794167
 10
-81.2243824152
 20
13.0984618929
 10
-81.2606407106
 20
13.1328382347
 10
-81.2923632689
 20
13.1690275939
 10
-81.3196882393
 20
13.2072108188
 10
-81.3430593407
 20
13.247590154
 10
-81.36260277
 20
13.2904843474
 10
-81.3781923303
 20
13.3355746511
 10
-81.3898931504
 20
13.3821070658
 10
-81.3973497835
 20
13.4306586642
 10
-81.4009176764
 20
13.4806523736
 10
-81.4017282975
 20
13.5296029765
 10
-81.4000777086
 20
13.5771498505
 10
-81.3956698479
 20
13.6236536179
 10
-81.3887479991
 20
13.6677109286
 10
-81.3795604084
 20
13.708798015
 10
-81.3678588295
 20
13.7474386447
 10
-81.3531418079
 20
13.7838007699
 10
-81.3355308738
 20
13.8179494029
 10
-81.314904497
 20
13.8498195313
 10
-81.290396632
 20
13.8793840707
 10
-81.2613088772
 20
13.9066081604
 10
-81.2283396343
 20
13.9315266611
 10
-81.1927180628
 20
13.9542170701
 10
-81.1542335074
 20
13.9752871119
 10
-81.1130966235
 20
13.994129062
 10
-81.0711685361
 20
14.008997245
 10
-81.0290696203
 20
14.0193097689
 10
-80.9861795011
 20
14.0256485256
 10
-80.9424981784
 20
14.0280135151
  0
LINE
  5
554
100
AcDbEntity
  8
RACCORDO
100
AcDbLine
 62
250
  6
CONTINUOUS
 10
-46.9179018373
 20
31.1020202709
 11
-46.8604472801
 21
31.2407278421
  0
LINE
  5
555
100
AcDbEntity
  8
RACCORDO
100
AcDbLine
 62
250
  6
CONTINUOUS
 10
-47.6580738115
 20
10.2289042915
 11
-47.7973465055
 21
10.0896315974
  0
LINE
  5
556
100
AcDbEntity
  8
DRAFT
100
AcDbLine
 62
250
  6
CONTINUOUS
 10
-77.7973465055
 20
4.3657505151
 11
-77.6351862262
 21
4.3657505151
  0
LINE
  5
557
100
AcDbEntity
  8
DRAFT
100
AcDbLine
 62
250
  6
CONTINUOUS
 10
-52.4473918514
 20
4.3657505151
 11
-52.5904304095
 21
4.3657505151
  0
LINE
  5
558
100
AcDbEntity
  8
0
100
AcDbLine
 62
7
  6
CONTINUOUS
 10
-42.9223691784
 20
5.7657505151
 11
-43.6223691784
 21
5.7657505151
  0
LINE
  5
559
100
AcDbEntity
  8
0
100
AcDbLine
 62
7
  6
CONTINUOUS
 10
-83.6223691784
 20
8.8408685151
 11
-87.3707221784
 21
9.8141145151
  0
LINE
  5
55A
100
AcDbEntity
  8
0
100
AcDbLine
 62
7
  6
CONTINUOUS
 10
-85.8935536166
 20
9.8370773692
 11
-84.0372061784
 21
9.3550835151
  0
LINE
  5
55B
100
AcDbEntity
  8
0
100
AcDbLine
 62
7
  6
CONTINUOUS
 10
-84.7112511784
 20
10.2940275151
 11
-85.6842230102
 21
10.546656731
  0
LINE
  5
55C
100
AcDbEntity
  8
0
100
AcDbLine
 62
7
  6
CONTINUOUS
 10
-85.8521931784
 20
10.9688145151
 11
-84.8964821784
 21
10.7206675151
  0
LINE
  5
55D
100
AcDbEntity
  8
0
100
AcDbLine
 62
7
  6
CONTINUOUS
 10
-84.9080691784
 20
11.5111815151
 11
-85.5725151784
 21
11.6837025151
  0
LINE
  5
55E
100
AcDbEntity
  8
0
100
AcDbLine
 62
7
  6
CONTINUOUS
 10
-83.920432034
 20
11.2547455547
 11
-84.4293001784
 21
11.3868705151
  0
LINE
  5
55F
100
AcDbEntity
  8
DRAFT
100
AcDbLine
 62
250
  6
CONTINUOUS
 10
-59.6223691784
 20
11.5407278421
 11
-59.6223691784
 21
11.3923203847
  0
LINE
  5
560
100
AcDbEntity
  8
DRAFT
100
AcDbLine
 62
250
  6
CONTINUOUS
 10
-59.6223691784
 20
-23.409226812
 11
-59.6223691784
 21
-23.2608193545
  0
LINE
  5
561
100
AcDbEntity
  8
RACCORDO
100
AcDbLine
 62
250
  6
CONTINUOUS
 10
-45.5086240964
 20
30.5195389139
 11
-45.4516152273
 21
30.6571704987
  0
LINE
  5
562
100
AcDbEntity
  8
RACCORDO
100
AcDbLine
 62
250
  6
CONTINUOUS
 10
-47.359443407
 20
9.9298178771
 11
-47.4984880961
 21
9.790773188
  0
LINE
  5
563
100
AcDbEntity
  8
0
100
AcDbLine
 62
7
  6
CONTINUOUS
 10
-83.6223691784
 20
-13.1784954849
 11
-87.3213221784
 21
-14.4267874849
  0
LINE
  5
564
100
AcDbEntity
  8
0
100
AcDbLine
 62
7
  6
CONTINUOUS
 10
-84.3365891784
 20
-14.1778354849
 11
-83.6223691784
 21
-13.9470244849
  0
LINE
  5
565
100
AcDbEntity
  8
0
100
AcDbLine
 62
7
  6
CONTINUOUS
 10
-86.3326581784
 20
-14.8508264849
 11
-85.0049991784
 21
-14.4478374849
  0
LWPOLYLINE
  5
566
100
AcDbEntity
  8
0
100
AcDbPolyline
 62
7
  6
CONTINUOUS
 90
25
 70
0
 10
-80.1802076784
 20
9.0100005151
 10
-80.1543255256
 20
9.0117283319
 10
-80.1290166211
 20
9.0148081595
 10
-80.1042809649
 20
9.019239998
 10
-80.0800587797
 20
9.0250319755
 10
-80.0564098429
 20
9.0321759639
 10
-80.0335134865
 20
9.0406475789
 10
-80.0113682338
 20
9.0504898506
 10
-79.9899755616
 20
9.061659749
 10
-79.969519233
 20
9.0740037994
 10
-79.9499875704
 20
9.0875037882
 10
-79.9313922514
 20
9.1021779289
 10
-79.9139520718
 20
9.1179273877
 10
-79.897583541
 20
9.1347417755
 10
-79.8823701496
 20
9.1526314812
 10
-79.8687811648
 20
9.1715288376
 10
-79.8570231868
 20
9.1915850224
 10
-79.8468896155
 20
9.2126488578
 10
-79.8382299178
 20
9.2341991435
 10
-79.8310443912
 20
9.2561203458
 10
-79.8253327383
 20
9.2785279984
 10
-79.8209435332
 20
9.3012475016
 10
-79.8178263005
 20
9.3242206555
 10
-79.8160315156
 20
9.34750566
 10
-79.8155591784
 20
9.3711025151
  0
LINE
  5
567
100
AcDbEntity
  8
0
100
AcDbLine
 62
7
  6
CONTINUOUS
 10
-81.0569991784
 20
7.5257505151
 11
-80.8905931784
 21
7.5257505151
  0
LINE
  5
568
100
AcDbEntity
  8
0
100
AcDbLine
 62
7
  6
CONTINUOUS
 10
-80.8905931784
 20
7.9327255151
 11
-79.6668551784
 21
7.9327255151
  0
LINE
  5
569
100
AcDbEntity
  8
0
100
AcDbLine
 62
7
  6
CONTINUOUS
 10
-79.6668551784
 20
8.1642135151
 11
-81.3877711784
 21
8.1642135151
  0
LINE
  5
56A
100
AcDbEntity
  8
0
100
AcDbLine
 62
7
  6
CONTINUOUS
 10
-42.3223691784
 20
8.2657505151
 11
-40.9223691784
 21
8.2657505151
  0
LINE
  5
56B
100
AcDbEntity
  8
0
100
AcDbLine
 62
7
  6
CONTINUOUS
 10
-80.1802076784
 20
9.0100005151
 11
-80.2031481784
 21
9.0100005151
  0
LINE
  5
56C
100
AcDbEntity
  8
RACCORDO
100
AcDbLine
 62
7
  6
CONTINUOUS
 10
-43.6223691784
 20
9.790773188
 11
-47.4984880961
 21
9.790773188
  0
LINE
  5
56D
100
AcDbEntity
  8
RACCORDO
100
AcDbLine
 62
7
  6
CONTINUOUS
 10
-37.9223691784
 20
9.9482967795
 11
-39.0282417121
 21
9.9482967795
  0
LINE
  5
56E
100
AcDbEntity
  8
RACCORDO
100
AcDbLine
 62
7
  6
CONTINUOUS
 10
-40.9049040198
 20
9.9482967795
 11
-42.0282417121
 21
9.9482967795
  0
LINE
  5
56F
100
AcDbEntity
  8
RACCORDO
100
AcDbLine
 62
7
  6
CONTINUOUS
 10
-43.6223691784
 20
9.9269646135
 11
-47.359443407
 21
9.9298178771
  0
LWPOLYLINE
  5
570
100
AcDbEntity
  8
RACCORDO
100
AcDbPolyline
 62
250
  6
CONTINUOUS
 90
4
 70
0
 10
-95.8006881936
 20
10.8110941596
 10
-96.2841521223
 20
10.8304656422
 10
-96.2897147683
 20
10.8307147195
 10
-96.2915728128
 20
10.8308177679
  0
LWPOLYLINE
  5
571
100
AcDbEntity
  8
0
100
AcDbPolyline
 62
7
  6
CONTINUOUS
 90
13
 70
0
 10
-79.6668551784
 20
10.6154275151
 10
-79.797878833
 20
10.6404317196
 10
-79.929599837
 20
10.6728938481
 10
-80.0620181905
 20
10.7128139007
 10
-80.1963856971
 20
10.7608426931
 10
-80.3314505532
 20
10.8163294095
 10
-80.4634573473
 20
10.8773216025
 10
-80.5922282109
 20
10.9440598401
 10
-80.7179410125
 20
11.0163035543
 10
-80.8373739471
 20
11.091378594
 10
-80.9494530795
 20
11.1683935755
 10
-81.0552523449
 20
11.2482398826
 10
-81.1547717431
 20
11.3309175151
  0
LINE
  5
572
100
AcDbEntity
  8
0
100
AcDbLine
 62
7
  6
CONTINUOUS
 10
-85.7645396371
 20
12.1078466505
 11
-85.0915071784
 21
11.9336925151
  0
LINE
  5
573
100
AcDbEntity
  8
0
100
AcDbLine
 62
7
  6
CONTINUOUS
 10
-84.6127381784
 20
11.8093825151
 11
-84.1228271899
 21
11.6821785181
  0
LINE
  5
574
100
AcDbEntity
  8
0
100
AcDbLine
 62
7
  6
CONTINUOUS
 10
-84.2167021784
 20
12.4889125151
 11
-84.6615141784
 21
12.6044065151
  0
LINE
  5
575
100
AcDbEntity
  8
0
100
AcDbLine
 62
7
  6
CONTINUOUS
 10
-85.8641812898
 20
13.287624544
 11
-85.1770761784
 21
13.1092205151
  0
LINE
  5
576
100
AcDbEntity
  8
0
100
AcDbLine
 62
7
  6
CONTINUOUS
 10
-84.8430271784
 20
13.0224855151
 11
-83.8627486431
 21
12.7679603761
  0
LINE
  5
577
100
AcDbEntity
  8
0
100
AcDbLine
 62
7
  6
CONTINUOUS
 10
-83.6223691784
 20
13.5267215151
 11
-85.6774881784
 21
14.0603255151
  0
LWPOLYLINE
  5
578
100
AcDbEntity
  8
0
100
AcDbPolyline
 62
7
  6
CONTINUOUS
 90
57
 70
0
 10
-79.8719671784
 20
11.7328995151
 10
-79.9073535285
 20
11.7431479426
 10
-79.9422989495
 20
11.7574786629
 10
-79.9768034416
 20
11.775891676
 10
-80.0112154837
 20
11.7986626768
 10
-80.0451865968
 20
11.8255159703
 10
-80.0776713436
 20
11.8556244718
 10
-80.1081590322
 20
11.8889479393
 10
-80.1371603544
 20
11.9255266146
 10
-80.1651619487
 20
11.9646541385
 10
-80.1919044188
 20
12.0064435143
 10
-80.2176471608
 20
12.0507817385
 10
-80.2436550022
 20
12.0966234418
 10
-80.2701223497
 20
12.1439793678
 10
-80.2968547965
 20
12.1928387729
 10
-80.3245339491
 20
12.242124056
 10
-80.3532293609
 20
12.2921629174
 10
-80.3828714785
 20
12.3426276569
 10
-80.4139332474
 20
12.3914575728
 10
-80.4461810419
 20
12.4387572532
 10
-80.4798484877
 20
12.48442211
 10
-80.5161094071
 20
12.5260776768
 10
-80.5556907517
 20
12.563385764
 10
-80.5978655698
 20
12.5966845612
 10
-80.6416268285
 20
12.6246141703
 10
-80.6870401934
 20
12.6464791928
 10
-80.734039999
 20
12.6629750271
 10
-80.7814222153
 20
12.6748279711
 10
-80.8292404504
 20
12.6820942699
 10
-80.8774410964
 20
12.6847176783
 10
-80.9246592994
 20
12.6832557581
 10
-80.9707313379
 20
12.6776676312
 10
-81.0158209334
 20
12.6679941758
 10
-81.0590543967
 20
12.6549155877
 10
-81.1001852162
 20
12.6384179842
 10
-81.1394599035
 20
12.6185152481
 10
-81.1767443044
 20
12.5959292236
 10
-81.2124249774
 20
12.5709145133
 10
-81.246115364
 20
12.5432165146
 10
-81.2765216346
 20
12.5127932642
 10
-81.3032504059
 20
12.479462548
 10
-81.3266950611
 20
12.4434065801
 10
-81.3467419205
 20
12.4051300396
 10
-81.3631616776
 20
12.3644537959
 10
-81.3761836389
 20
12.3215569796
 10
-81.3863820436
 20
12.2774816615
 10
-81.3938052024
 20
12.2323640032
 10
-81.3984048047
 20
12.1860678431
 10
-81.4006101572
 20
12.1392267678
 10
-81.4006921441
 20
12.0914717301
 10
-81.3983798814
 20
12.0431717772
 10
-81.3932900231
 20
11.9960676371
 10
-81.3851898386
 20
11.9501720518
 10
-81.3743120585
 20
11.9054722793
 10
-81.3609715301
 20
11.8636708219
 10
-81.3450333272
 20
11.8253103615
 10
-81.326632376
 20
11.7898482161
  0
LINE
  5
579
100
AcDbEntity
  8
0
100
AcDbLine
 62
7
  6
CONTINUOUS
 10
-84.7760881784
 20
-18.8610104849
 11
-87.3213221784
 21
-19.5935544849
  0
LWPOLYLINE
  5
57A
100
AcDbEntity
  8
0
100
AcDbPolyline
 62
7
  6
CONTINUOUS
 90
49
 70
0
 10
-80.9424981784
 20
9.6898925151
 10
-80.9621477187
 20
9.6861625345
 10
-80.9816076328
 20
9.681566595
 10
-81.0008779209
 20
9.6761046966
 10
-81.0200664584
 20
9.6698585196
 10
-81.0390653698
 20
9.6627463836
 10
-81.0575510282
 20
9.6545232483
 10
-81.0755854262
 20
9.6450932514
 10
-81.0931065712
 20
9.6345522551
 10
-81.1096048587
 20
9.6229428054
 10
-81.1249928232
 20
9.6102997062
 10
-81.1393579302
 20
9.5965881536
 10
-81.1524529711
 20
9.5817462817
 10
-81.1642109072
 20
9.5657662748
 10
-81.1746987771
 20
9.5486559487
 10
-81.183870488
 20
9.5303768851
 10
-81.1917153496
 20
9.5108853554
 10
-81.1982440523
 20
9.4902250882
 10
-81.2034425738
 20
9.4684888503
 10
-81.2074343624
 20
9.4457438369
 10
-81.2100959699
 20
9.4219228528
 10
-81.2110430294
 20
9.3969170791
 10
-81.2104719249
 20
9.3703411855
 10
-81.2081862724
 20
9.3425805023
 10
-81.2032125526
 20
9.3146822016
 10
-81.1951868025
 20
9.2865426132
 10
-81.1844729852
 20
9.2582654073
 10
-81.1711894708
 20
9.2312087663
 10
-81.1552326726
 20
9.2057331847
 10
-81.1367061773
 20
9.181478168
 10
-81.1160391157
 20
9.1587204153
 10
-81.0931390473
 20
9.1375153485
 10
-81.0680984126
 20
9.1178075458
 10
-81.0416236648
 20
9.099707441
 10
-81.0137157363
 20
9.0833275936
 10
-80.9843736947
 20
9.0685554441
 10
-80.9543011964
 20
9.055163748
 10
-80.9236719218
 20
9.0431498735
 10
-80.8923121906
 20
9.0325164525
 10
-80.8604046184
 20
9.0230441364
 10
-80.8278853468
 20
9.014739046
 10
-80.7948182343
 20
9.0075950605
 10
-80.7615774722
 20
9.0013744689
 10
-80.7282024831
 20
8.9960543652
 10
-80.6946538444
 20
8.9916576555
 10
-80.6611874795
 20
8.988015347
 10
-80.6278886964
 20
8.9850711089
 10
-80.594672187
 20
8.9828812721
 10
-80.5615379515
 20
8.9814458365
  0
LINE
  5
57B
100
AcDbEntity
  8
DRAFT
100
AcDbLine
 62
7
  6
CONTINUOUS
 10
-59.6223691784
 20
11.3923203847
 11
-70.6223691784
 21
11.3839218627
  0
LINE
  5
57C
100
AcDbEntity
  8
0
100
AcDbLine
 62
7
  6
CONTINUOUS
 10
-81.3659511784
 20
10.1289705151
 11
-81.1476401784
 21
10.1289705151
  0
LINE
  5
57D
100
AcDbEntity
  8
0
100
AcDbLine
 62
7
  6
CONTINUOUS
 10
-81.1547717431
 20
11.3309175151
 11
-81.3659511784
 21
11.3309175151
  0
LINE
  5
57E
100
AcDbEntity
  8
0
100
AcDbLine
 62
7
  6
CONTINUOUS
 10
-59.6223691784
 20
11.5407278421
 11
-70.6223691784
 21
11.5407278421
  0
LINE
  5
57F
100
AcDbEntity
  8
RACCORDO
100
AcDbLine
 62
7
  6
CONTINUOUS
 10
-45.1460168582
 20
11.5482967795
 11
-42.6362525066
 21
11.5482967795
  0
LINE
  5
580
100
AcDbEntity
  8
COPY-PUBBLISH
100
AcDbLine
 62
7
  6
CONTINUOUS
 10
-40.6049154429
 20
11.5482967795
 11
-39.6362525066
 21
11.5482967795
  0
LINE
  5
581
100
AcDbEntity
  8
0
100
AcDbLine
 62
7
  6
CONTINUOUS
 10
-79.6668551784
 20
12.6761675151
 11
-79.8719671784
 21
12.6761675151
  0
LINE
  5
582
100
AcDbEntity
  8
RACCORDO
100
AcDbLine
 62
7
  6
CONTINUOUS
 10
-92.6223691784
 20
12.8657505151
 11
-92.1223691784
 21
12.8657505151
  0
LINE
  5
583
100
AcDbEntity
  8
0
100
AcDbLine
 62
7
  6
CONTINUOUS
 10
-80.1802076784
 20
13.1335205151
 11
-80.2031481784
 21
13.1335205151
  0
LWPOLYLINE
  5
584
100
AcDbEntity
  8
0
100
AcDbPolyline
 62
7
  6
CONTINUOUS
 90
41
 70
0
 10
-80.7818711784
 20
11.7535175151
 10
-80.8042825872
 20
11.754359357
 10
-80.8267350688
 20
11.755767339
 10
-80.8492286232
 20
11.7577414609
 10
-80.8718273363
 20
11.7601946038
 10
-80.8944671222
 20
11.7632138866
 10
-80.9169557235
 20
11.7670606668
 10
-80.9393542809
 20
11.7717326132
 10
-80.9616016537
 20
11.7772320568
 10
-80.983322163
 20
11.7838273481
 10
-81.0044319727
 20
11.7914728501
 10
-81.0250149189
 20
11.8002141997
 10
-81.044946831
 20
11.8104566573
 10
-81.064230492
 20
11.8221961014
 10
-81.082863119
 20
11.8354366534
 10
-81.1007121931
 20
11.8505959382
 10
-81.1179583448
 20
11.8676746039
 10
-81.1344209437
 20
11.8866720023
 10
-81.1494255803
 20
11.9080038138
 10
-81.1629810562
 20
11.9318798369
 10
-81.1750785698
 20
11.958090273
 10
-81.1850173061
 20
11.9864214068
 10
-81.1926515014
 20
12.0173160239
 10
-81.1981269195
 20
12.0503313387
 10
-81.2011800366
 20
12.0839252794
 10
-81.2018897644
 20
12.1179271335
 10
-81.2001771912
 20
12.1525076135
 10
-81.1955420584
 20
12.1866367858
 10
-81.1879596004
 20
12.2205003648
 10
-81.1774545827
 20
12.253912636
 10
-81.1636010434
 20
12.285286523
 10
-81.1460644371
 20
12.3143759311
 10
-81.1251793091
 20
12.3414269549
 10
-81.1015233338
 20
12.365590801
 10
-81.0748507431
 20
12.3867712733
 10
-81.0454073049
 20
12.4050645679
 10
-81.0145079973
 20
12.4199104792
 10
-80.9822981183
 20
12.4310267686
 10
-80.9486323698
 20
12.4386956748
 10
-80.914389835
 20
12.4432037075
 10
-80.8793627369
 20
12.4448584231
  0
LWPOLYLINE
  5
585
100
AcDbEntity
  8
0
100
AcDbPolyline
 62
7
  6
CONTINUOUS
 90
16
 70
0
 10
-80.8793627369
 20
12.4448584231
 10
-80.8437588526
 20
12.4433522653
 10
-80.8090805967
 20
12.4380490754
 10
-80.7756000441
 20
12.4285725182
 10
-80.74304512
 20
12.4152989289
 10
-80.7121020144
 20
12.3987211548
 10
-80.6830961421
 20
12.378705745
 10
-80.6557020885
 20
12.3553861505
 10
-80.6296297999
 20
12.3296555718
 10
-80.6049897651
 20
12.3014617663
 10
-80.5816714953
 20
12.2708569765
 10
-80.5590534715
 20
12.2388911307
 10
-80.536965363
 20
12.2054021983
 10
-80.5155775004
 20
12.1705522098
 10
-80.4947793563
 20
12.1358771849
 10
-80.4744577815
 20
12.1015537939
  0
LINE
  5
586
100
AcDbEntity
  8
ASSI
100
AcDbLine
 62
7
  6
CONTINUOUS
 10
-77.5939553905
 20
29.5509589068
 11
-79.2714358431
 21
31.5501022628
  0
LINE
  5
587
100
AcDbEntity
  8
RACCORDO
100
AcDbLine
 62
7
  6
CONTINUOUS
 10
-53.4223691784
 20
27.2784155329
 11
-53.4223691784
 21
27.3272019036
  0
LINE
  5
588
100
AcDbEntity
  8
DRAFT
100
AcDbLine
 62
7
  6
CONTINUOUS
 10
-52.5904304095
 20
-16.2342494849
 11
-52.5904304095
 21
4.3657505151
  0
LINE
  5
589
100
AcDbEntity
  8
0
100
AcDbLine
 62
7
  6
CONTINUOUS
 10
-52.4473918514
 20
-16.2342494849
 11
-52.4473918514
 21
4.3657505151
  0
LINE
  5
58A
100
AcDbEntity
  8
0
100
AcDbLine
 62
7
  6
CONTINUOUS
 10
-85.9478531784
 20
-19.9803024849
 11
-83.6223691784
 21
-19.2513764849
  0
LWPOLYLINE
  5
58B
100
AcDbEntity
  8
0
100
AcDbPolyline
 62
7
  6
CONTINUOUS
 90
30
 70
0
 10
-84.128587637
 20
10.1675666797
 10
-84.1151925379
 20
10.1702533722
 10
-84.1015888289
 20
10.1734954601
 10
-84.0877424862
 20
10.177240825
 10
-84.0736875337
 20
10.1815415853
 10
-84.059456684
 20
10.1868791204
 10
-84.0449660602
 20
10.1933637414
 10
-84.0302995393
 20
10.2008851371
 10
-84.0157414654
 20
10.2095937537
 10
-84.0011820209
 20
10.2196747037
 10
-83.9867310233
 20
10.2309428745
 10
-83.9730022695
 20
10.2429933748
 10
-83.9602110633
 20
10.2559199711
 10
-83.9481421008
 20
10.2696288969
 10
-83.9367632674
 20
10.28343396
 10
-83.9260125013
 20
10.2971663995
 10
-83.9159518643
 20
10.3109949764
 10
-83.9067354279
 20
10.3247397823
 10
-83.8980878263
 20
10.3382626459
 10
-83.8902844253
 20
10.3517017385
 10
-83.8843053928
 20
10.3652916652
 10
-83.8803829322
 20
10.3792596193
 10
-83.8782848401
 20
10.3933784075
 10
-83.8782946751
 20
10.4072010549
 10
-83.8806141004
 20
10.4208183703
 10
-83.8850414528
 20
10.4341395448
 10
-83.8912553
 20
10.4464451769
 10
-83.8992852947
 20
10.4576571808
 10
-83.9091017842
 20
10.4678536423
 10
-83.9202943788
 20
10.4765494171
  0
LWPOLYLINE
  5
58C
100
AcDbEntity
  8
0
100
AcDbPolyline
 62
7
  6
CONTINUOUS
 90
49
 70
0
 10
-80.9424981784
 20
13.8134125151
 10
-80.9621477187
 20
13.8096825345
 10
-80.9816076328
 20
13.805086595
 10
-81.0008779209
 20
13.7996246966
 10
-81.0200664584
 20
13.7933785196
 10
-81.0390653698
 20
13.7862663836
 10
-81.0575510282
 20
13.7780432483
 10
-81.0755854262
 20
13.7686132514
 10
-81.0931065712
 20
13.7580722551
 10
-81.1096048587
 20
13.7464628054
 10
-81.1249928232
 20
13.7338197062
 10
-81.1393579302
 20
13.7201081536
 10
-81.1524529711
 20
13.7052662817
 10
-81.1642109072
 20
13.6892862748
 10
-81.1746987771
 20
13.6721759487
 10
-81.183870488
 20
13.6538968851
 10
-81.1917153496
 20
13.6344053554
 10
-81.1982440523
 20
13.6137450882
 10
-81.2034425738
 20
13.5920088503
 10
-81.2074343624
 20
13.5692638369
 10
-81.2100959699
 20
13.5454428528
 10
-81.2110430294
 20
13.5204370791
 10
-81.2104719249
 20
13.4938611855
 10
-81.2081862724
 20
13.4661005023
 10
-81.2032125526
 20
13.4382022016
 10
-81.1951868025
 20
13.4100626132
 10
-81.1844729852
 20
13.3817854073
 10
-81.1711894708
 20
13.3547287663
 10
-81.1552326726
 20
13.3292531847
 10
-81.1367061773
 20
13.304998168
 10
-81.1160391157
 20
13.2822404153
 10
-81.0931390473
 20
13.2610353485
 10
-81.0680984126
 20
13.2413275458
 10
-81.0416236648
 20
13.223227441
 10
-81.0137157363
 20
13.2068475936
 10
-80.9843736947
 20
13.1920754441
 10
-80.9543011964
 20
13.178683748
 10
-80.9236719218
 20
13.1666698735
 10
-80.8923121906
 20
13.1560364525
 10
-80.8604046184
 20
13.1465641364
 10
-80.8278853468
 20
13.138259046
 10
-80.7948182343
 20
13.1311150605
 10
-80.7615774722
 20
13.1248944689
 10
-80.7282024831
 20
13.1195743652
 10
-80.6946538444
 20
13.1151776555
 10
-80.6611874795
 20
13.111535347
 10
-80.6278886964
 20
13.1085911089
 10
-80.594672187
 20
13.1064012721
 10
-80.5615379515
 20
13.1049658365
  0
LINE
  5
58D
100
AcDbEntity
  8
RACCORDO
100
AcDbLine
 62
250
  6
CONTINUOUS
 10
-91.6310953817
 20
11.9462006995
 11
-95.3879014546
 21
11.2837744275
  0
LINE
  5
58E
100
AcDbEntity
  8
RACCORDO
100
AcDbLine
 62
7
  6
CONTINUOUS
 10
-92.1223691784
 20
12.3657505151
 11
-95.4659993402
 21
11.776178304
  0
LWPOLYLINE
  5
58F
100
AcDbEntity
  8
0
100
AcDbPolyline
 62
7
  6
CONTINUOUS
 90
25
 70
0
 10
-80.1802076784
 20
13.1335205151
 10
-80.1543255256
 20
13.1352483319
 10
-80.1290166211
 20
13.1383281595
 10
-80.1042809649
 20
13.142759998
 10
-80.0800587797
 20
13.1485519755
 10
-80.0564098429
 20
13.1556959639
 10
-80.0335134865
 20
13.1641675789
 10
-80.0113682338
 20
13.1740098506
 10
-79.9899755616
 20
13.185179749
 10
-79.969519233
 20
13.1975237994
 10
-79.9499875704
 20
13.2110237882
 10
-79.9313922514
 20
13.2256979289
 10
-79.9139520718
 20
13.2414473877
 10
-79.897583541
 20
13.2582617755
 10
-79.8823701496
 20
13.2761514812
 10
-79.8687811648
 20
13.2950488376
 10
-79.8570231868
 20
13.3151050224
 10
-79.8468896155
 20
13.3361688578
 10
-79.8382299178
 20
13.3577191435
 10
-79.8310443912
 20
13.3796403458
 10
-79.8253327383
 20
13.4020479984
 10
-79.8209435332
 20
13.4247675016
 10
-79.8178263005
 20
13.4477406555
 10
-79.8160315156
 20
13.47102566
 10
-79.8155591784
 20
13.4946225151
  0
LINE
  5
590
100
AcDbEntity
  8
RACCORDO
100
AcDbLine
 62
250
  6
CONTINUOUS
 10
-89.6223691784
 20
15.9181918623
 11
-92.1310953817
 21
15.8744018835
  0
LINE
  5
591
100
AcDbEntity
  8
RACCORDO
100
AcDbLine
 62
7
  6
CONTINUOUS
 10
-47.359443407
 20
15.601683153
 11
-45.958230055
 21
15.6027529822
  0
LINE
  5
592
100
AcDbEntity
  8
RACCORDO
100
AcDbLine
 62
250
  6
CONTINUOUS
 10
-92.1310953817
 20
13.3657505151
 11
-91.6310953817
 21
13.3657505151
  0
LINE
  5
593
100
AcDbEntity
  8
RACCORDO
100
AcDbLine
 62
7
  6
CONTINUOUS
 10
-43.4473918514
 20
13.390773188
 11
-45.148533442
 21
13.390773188
  0
LINE
  5
594
100
AcDbEntity
  8
RACCORDO
100
AcDbLine
 62
7
  6
CONTINUOUS
 10
-47.4984880961
 20
15.7407278421
 11
-46.0962049149
 21
15.7407278421
  0
LINE
  5
595
100
AcDbEntity
  8
RACCORDO
100
AcDbLine
 62
250
  6
CONTINUOUS
 10
-92.1310953817
 20
15.8744018835
 11
-92.6223691784
 21
15.8744018835
  0
LINE
  5
596
100
AcDbEntity
  8
RACCORDO
100
AcDbLine
 62
7
  6
CONTINUOUS
 10
-43.5835536411
 20
13.5269349777
 11
-45.2859950491
 21
13.5282347952
  0
LINE
  5
597
100
AcDbEntity
  8
RACCORDO
100
AcDbLine
 62
7
  6
CONTINUOUS
 10
-45.1760226972
 20
11.5497896234
 11
-45.3135053084
 21
11.5635033153
  0
LINE
  5
598
100
AcDbEntity
  8
RACCORDO
100
AcDbLine
 62
250
  6
CONTINUOUS
 10
-45.4473918514
 20
11.848536382
 11
-45.5850818119
 21
11.8622707566
  0
LINE
  5
599
100
AcDbEntity
  8
RACCORDO
100
AcDbLine
 62
7
  6
CONTINUOUS
 10
-49.5973465055
 20
27.5165512503
 11
-49.5973465055
 21
29.746435795
  0
LINE
  5
59A
100
AcDbEntity
  8
RACCORDO
100
AcDbLine
 62
7
  6
CONTINUOUS
 10
-49.4567005564
 20
27.5214627151
 11
-49.4567005564
 21
29.6057898458
  0
LINE
  5
59B
100
AcDbEntity
  8
RACCORDO
100
AcDbLine
 62
7
  6
CONTINUOUS
 10
-47.7973465055
 20
10.0896315974
 11
-47.7973465055
 21
15.4418694327
  0
LINE
  5
59C
100
AcDbEntity
  8
RACCORDO
100
AcDbLine
 62
7
  6
CONTINUOUS
 10
-47.6580738115
 20
10.2289042915
 11
-47.6580738115
 21
15.3025967387
  0
LINE
  5
59D
100
AcDbEntity
  8
0
100
AcDbLine
 62
7
  6
CONTINUOUS
 10
-84.7577641784
 20
-24.3544674849
 11
-87.3213221784
 21
-25.1784934849
  0
LINE
  5
59E
100
AcDbEntity
  8
0
100
AcDbLine
 62
7
  6
CONTINUOUS
 10
-87.3213221784
 20
-25.9293614849
 11
-83.6223691784
 21
-24.7403764849
  0
LWPOLYLINE
  5
59F
100
AcDbEntity
  8
RACCORDO
100
AcDbPolyline
 62
250
  6
CONTINUOUS
 90
22
 70
0
 10
-95.3879014546
 20
11.2837744275
 10
-95.4195820648
 20
11.2771177938
 10
-95.4505587821
 20
11.2685069774
 10
-95.4808316063
 20
11.2579419782
 10
-95.510533948
 20
11.2453616784
 10
-95.5395323968
 20
11.2308271959
 10
-95.5674267206
 20
11.2145218847
 10
-95.5941945046
 20
11.1964213354
 10
-95.6198581636
 20
11.1765499573
 10
-95.644084711
 20
11.1551643324
 10
-95.6668500726
 20
11.1322492415
 10
-95.6881783225
 20
11.1078199037
 10
-95.7078086956
 20
11.082178559
 10
-95.72572145
 20
11.0553076723
 10
-95.7419363275
 20
11.0272247787
 10
-95.7562517885
 20
10.9982847234
 10
-95.7686438211
 20
10.9684672523
 10
-95.7791364371
 20
10.9377926196
 10
-95.7876001328
 20
10.9066764331
 10
-95.7939917401
 20
10.875257229
 10
-95.798354427
 20
10.8433964711
 10
-95.8006881936
 20
10.8110941596
  0
LINE
  5
5A0
100
AcDbEntity
  8
0
100
AcDbLine
 62
7
  6
CONTINUOUS
 10
-92.37673228
 20
16.3700381231
 11
-92.1310953817
 21
16.3743257311
  0
LINE
  5
5A1
100
AcDbEntity
  8
RACCORDO
100
AcDbLine
 62
7
  6
CONTINUOUS
 10
-89.6223691784
 20
16.4181157099
 11
-92.37673228
 21
16.3700381231
  0
LINE
  5
5A2
100
AcDbEntity
  8
RACCORDO
100
AcDbLine
 62
7
  6
CONTINUOUS
 10
-45.7973465055
 20
16.0395862515
 11
-45.7973465055
 21
25.5784553149
  0
LINE
  5
5A3
100
AcDbEntity
  8
RACCORDO
100
AcDbLine
 62
7
  6
CONTINUOUS
 10
-45.6595996505
 20
15.9018393965
 11
-45.6595996505
 21
24.3957826816
  0
LINE
  5
5A4
100
AcDbEntity
  8
RACCORDO
100
AcDbLine
 62
7
  6
CONTINUOUS
 10
-45.6223691784
 20
-2.2342494849
 11
-45.6223691784
 21
-9.6342494849
  0
LINE
  5
5A5
100
AcDbEntity
  8
RACCORDO
100
AcDbLine
 62
7
  6
CONTINUOUS
 10
-45.6223691784
 20
9.9284916175
 11
-45.6223691784
 21
25.7657505151
  0
LINE
  5
5A6
100
AcDbEntity
  8
RACCORDO
100
AcDbLine
 62
7
  6
CONTINUOUS
 10
-45.5850818119
 20
13.2296047391
 11
-45.5850818119
 21
11.8622707566
  0
LINE
  5
5A7
100
AcDbEntity
  8
RACCORDO
100
AcDbLine
 62
7
  6
CONTINUOUS
 10
-45.4473918514
 20
13.0919147786
 11
-45.4473918514
 21
11.848536382
  0
LINE
  5
5A8
100
AcDbEntity
  8
RACCORDO
100
AcDbLine
 62
250
  6
CONTINUOUS
 10
-45.3223691784
 20
-9.9342494849
 11
-45.3223691784
 21
-1.9234073426
  0
LINE
  5
5A9
100
AcDbEntity
  8
RACCORDO
100
AcDbLine
 62
250
  6
CONTINUOUS
 10
-45.3223691784
 20
9.9282625669
 11
-45.3223691784
 21
11.5635134146
  0
LINE
  5
5AA
100
AcDbEntity
  8
RACCORDO
100
AcDbLine
 62
250
  6
CONTINUOUS
 10
-45.3223691784
 20
13.5282347952
 11
-45.3223691784
 21
26.0657505151
  0
LINE
  5
5AB
100
AcDbEntity
  8
RACCORDO
100
AcDbLine
 62
250
  6
CONTINUOUS
 10
-44.4223691784
 20
11.5482967795
 11
-44.4223691784
 21
9.9275754151
  0
LINE
  5
5AC
100
AcDbEntity
  8
RACCORDO
100
AcDbLine
 62
250
  6
CONTINUOUS
 10
-44.4223691784
 20
-9.9342494849
 11
-44.4223691784
 21
-1.9342494849
  0
LINE
  5
5AD
100
AcDbEntity
  8
RACCORDO
100
AcDbLine
 62
250
  6
CONTINUOUS
 10
-44.4223691784
 20
13.5275754151
 11
-44.4223691784
 21
26.0657505151
  0
LINE
  5
5AE
100
AcDbEntity
  8
RACCORDO
100
AcDbLine
 62
7
  6
CONTINUOUS
 10
-44.1223691784
 20
25.7657505151
 11
-44.1223691784
 21
13.5273463645
  0
LINE
  5
5AF
100
AcDbEntity
  8
RACCORDO
100
AcDbLine
 62
7
  6
CONTINUOUS
 10
-44.1223691784
 20
11.5482967795
 11
-44.1223691784
 21
9.9273463645
  0
LINE
  5
5B0
100
AcDbEntity
  8
RACCORDO
100
AcDbLine
 62
7
  6
CONTINUOUS
 10
-44.1223691784
 20
-9.9342494849
 11
-44.1223691784
 21
-1.9342494849
  0
LINE
  5
5B1
100
AcDbEntity
  8
COPY-PUBBLISH
100
AcDbLine
 62
7
  6
CONTINUOUS
 10
-43.6223691784
 20
-23.4167957493
 11
-43.6223691784
 21
-11.7592721579
  0
LINE
  5
5B2
100
AcDbEntity
  8
RACCORDO
100
AcDbLine
 62
7
  6
CONTINUOUS
 10
-43.6223691784
 20
-9.6342494849
 11
-43.6223691784
 21
-2.2342494849
  0
LINE
  5
5B3
100
AcDbEntity
  8
COPY-PUBBLISH
100
AcDbLine
 62
7
  6
CONTINUOUS
 10
-43.6223691784
 20
-0.109226812
 11
-43.6223691784
 21
9.790773188
  0
LINE
  5
5B4
100
AcDbEntity
  8
DRAFT
100
AcDbLine
 62
7
  6
CONTINUOUS
 10
-43.6223691784
 20
9.790773188
 11
-43.6223691784
 21
9.9269646135
  0
LINE
  5
5B5
100
AcDbEntity
  8
RACCORDO
100
AcDbLine
 62
7
  6
CONTINUOUS
 10
-43.5835536411
 20
27.7712723534
 11
-43.5835536411
 21
13.5269349777
  0
LINE
  5
5B6
100
AcDbEntity
  8
RACCORDO
100
AcDbLine
 62
7
  6
CONTINUOUS
 10
-43.4473918514
 20
27.8276724134
 11
-43.4473918514
 21
13.390773188
  0
LINE
  5
5B7
100
AcDbEntity
  8
0
100
AcDbLine
 62
250
  6
CONTINUOUS
 10
-43.3223691784
 20
-14.6342494849
 11
-43.3223691784
 21
-17.6342494849
  0
LINE
  5
5B8
100
AcDbEntity
  8
0
100
AcDbLine
 62
250
  6
CONTINUOUS
 10
-43.3223691784
 20
2.7657505151
 11
-43.3223691784
 21
5.7657505151
  0
LINE
  5
5B9
100
AcDbEntity
  8
0
100
AcDbLine
 62
250
  6
CONTINUOUS
 10
-42.9223691784
 20
-14.6342494849
 11
-42.9223691784
 21
-17.6342494849
  0
LINE
  5
5BA
100
AcDbEntity
  8
0
100
AcDbLine
 62
250
  6
CONTINUOUS
 10
-42.9223691784
 20
2.7657505151
 11
-42.9223691784
 21
5.7657505151
  0
LINE
  5
5BB
100
AcDbEntity
  8
0
100
AcDbLine
 62
7
  6
CONTINUOUS
 10
-42.6223691784
 20
7.9657505151
 11
-42.6223691784
 21
2.7657505151
  0
LINE
  5
5BC
100
AcDbEntity
  8
0
100
AcDbLine
 62
7
  6
CONTINUOUS
 10
-42.6223691784
 20
-14.6342494849
 11
-42.6223691784
 21
-19.8342494849
  0
LINE
  5
5BD
100
AcDbEntity
  8
COPY-PUBBLISH
100
AcDbLine
 62
7
  6
CONTINUOUS
 10
-41.6223691784
 20
-0.109226812
 11
-41.6223691784
 21
-11.7592721579
  0
LINE
  5
5BE
100
AcDbEntity
  8
DRAFT
100
AcDbLine
 62
7
  6
CONTINUOUS
 10
-41.6223691784
 20
-11.7592721579
 11
-41.6223691784
 21
-11.8939365793
  0
LINE
  5
5BF
100
AcDbEntity
  8
DRAFT
100
AcDbLine
 62
7
  6
CONTINUOUS
 10
-41.6223691784
 20
-0.109226812
 11
-41.6223691784
 21
0.0254376095
  0
LINE
  5
5C0
100
AcDbEntity
  8
RACCORDO
100
AcDbLine
 62
250
  6
CONTINUOUS
 10
-45.7973465055
 20
25.5784553149
 11
-45.6223691784
 21
25.5845656578
  0
LINE
  5
5C1
100
AcDbEntity
  8
RACCORDO
100
AcDbLine
 62
7
  6
CONTINUOUS
 10
-46.1398189268
 20
26.0841946293
 11
-48.0392675041
 21
26.0178644234
  0
LINE
  5
5C2
100
AcDbEntity
  8
RACCORDO
100
AcDbLine
 62
7
  6
CONTINUOUS
 10
-54.8700199334
 20
25.7793292924
 11
-88.1747184235
 21
24.6163035934
  0
LINE
  5
5C3
100
AcDbEntity
  8
RACCORDO
100
AcDbLine
 62
250
  6
CONTINUOUS
 10
-44.1223691784
 20
25.7657505151
 11
-45.6223691784
 21
25.7657505151
  0
LINE
  5
5C4
100
AcDbEntity
  8
RACCORDO
100
AcDbLine
 62
7
  6
CONTINUOUS
 10
-44.4223691784
 20
26.0657505151
 11
-45.3223691784
 21
26.0657505151
  0
LINE
  5
5C5
100
AcDbEntity
  8
RACCORDO
100
AcDbLine
 62
250
  6
CONTINUOUS
 10
-45.4473918514
 20
13.0919147786
 11
-45.5850818119
 21
13.2296047391
  0
LINE
  5
5C6
100
AcDbEntity
  8
RACCORDO
100
AcDbLine
 62
250
  6
CONTINUOUS
 10
-47.6580738115
 20
15.3025967387
 11
-47.7973465055
 21
15.4418694327
  0
LINE
  5
5C7
100
AcDbEntity
  8
RACCORDO
100
AcDbLine
 62
250
  6
CONTINUOUS
 10
-45.148533442
 20
13.390773188
 11
-45.2859950491
 21
13.5282347952
  0
LINE
  5
5C8
100
AcDbEntity
  8
RACCORDO
100
AcDbLine
 62
250
  6
CONTINUOUS
 10
-47.359443407
 20
15.601683153
 11
-47.4984880961
 21
15.7407278421
  0
LINE
  5
5C9
100
AcDbEntity
  8
RACCORDO
100
AcDbLine
 62
250
  6
CONTINUOUS
 10
-46.0962049149
 20
15.7407278421
 11
-45.958230055
 21
15.6027529822
  0
LINE
  5
5CA
100
AcDbEntity
  8
0
100
AcDbLine
 62
7
  6
CONTINUOUS
 10
-40.6223691784
 20
7.9657505151
 11
-40.6223691784
 21
3.0657505151
  0
LINE
  5
5CB
100
AcDbEntity
  8
0
100
AcDbLine
 62
7
  6
CONTINUOUS
 10
-40.6223691784
 20
-19.8342494849
 11
-40.6223691784
 21
-14.9342494849
  0
LINE
  5
5CC
100
AcDbEntity
  8
RACCORDO
100
AcDbLine
 62
7
  6
CONTINUOUS
 10
-40.6049154429
 20
-22.1167843263
 11
-40.6049154429
 21
-23.4167957493
  0
LINE
  5
5CD
100
AcDbEntity
  8
RACCORDO
100
AcDbLine
 62
7
  6
CONTINUOUS
 10
-40.6049154429
 20
10.2482853564
 11
-40.6049154429
 21
11.5482967795
  0
LINE
  5
5CE
100
AcDbEntity
  8
RACCORDO
100
AcDbLine
 62
7
  6
CONTINUOUS
 10
-42.6362525066
 20
-23.4167957493
 11
-42.3205416013
 21
-22.0493015796
  0
LINE
  5
5CF
100
AcDbEntity
  8
RACCORDO
100
AcDbLine
 62
250
  6
CONTINUOUS
 10
-49.4567005564
 20
27.5214627151
 11
-49.5973465055
 21
27.5165512503
  0
LINE
  5
5D0
100
AcDbEntity
  8
RACCORDO
100
AcDbLine
 62
7
  6
CONTINUOUS
 10
-54.9092793752
 20
28.8271447882
 11
-76.4579785291
 21
29.0151974368
  0
LINE
  5
5D1
100
AcDbEntity
  8
DRAFT
100
AcDbLine
 62
7
  6
CONTINUOUS
 10
-43.5835536411
 20
13.5269349777
 11
-43.4473918514
 21
13.390773188
  0
LINE
  5
5D2
100
AcDbEntity
  8
RACCORDO
100
AcDbLine
 62
250
  6
CONTINUOUS
 10
-45.7973465055
 20
16.0395862515
 11
-45.6595996505
 21
15.9018393965
  0
LINE
  5
5D3
100
AcDbEntity
  8
RACCORDO
100
AcDbLine
 62
7
  6
CONTINUOUS
 10
-42.6362525066
 20
11.5482967795
 11
-42.3205416013
 21
10.1808026097
  0
LINE
  5
5D4
100
AcDbEntity
  8
RACCORDO
100
AcDbLine
 62
7
  6
CONTINUOUS
 10
-39.6362525066
 20
11.5482967795
 11
-39.3205416013
 21
10.1808026097
  0
LINE
  5
5D5
100
AcDbEntity
  8
RACCORDO
100
AcDbLine
 62
7
  6
CONTINUOUS
 10
-37.6223691784
 20
30.2373233903
 11
-37.6223691784
 21
10.248308203
  0
LINE
  5
5D6
100
AcDbEntity
  8
RACCORDO
100
AcDbLine
 62
7
  6
CONTINUOUS
 10
-37.6223691784
 20
-22.1168071729
 11
-37.6223691784
 21
-38.2501294985
  0
LINE
  5
5D7
100
AcDbEntity
  8
RACCORDO
100
AcDbLine
 62
7
  6
CONTINUOUS
 10
-39.6362525066
 20
-23.4167957493
 11
-39.3205416013
 21
-22.0493015796
  0
LINE
  5
5D8
100
AcDbEntity
  8
RACCORDO
100
AcDbLine
 62
7
  6
CONTINUOUS
 10
-47.9635485338
 20
31.1012219175
 11
-46.9179018373
 21
31.1020202709
  0
LINE
  5
5D9
100
AcDbEntity
  8
RACCORDO
100
AcDbLine
 62
7
  6
CONTINUOUS
 10
-48.1030544584
 20
31.2407278421
 11
-46.8604472801
 21
31.2407278421
  0
LINE
  5
5DA
100
AcDbEntity
  8
RACCORDO
100
AcDbLine
 62
250
  6
CONTINUOUS
 10
-49.4567005564
 20
29.6057898458
 11
-49.5973465055
 21
29.746435795
  0
LINE
  5
5DB
100
AcDbEntity
  8
RACCORDO
100
AcDbLine
 62
250
  6
CONTINUOUS
 10
-47.9635485338
 20
31.1012219175
 11
-48.1030544584
 21
31.2407278421
  0
LINE
  5
5DC
100
AcDbEntity
  8
RACCORDO
100
AcDbLine
 62
7
  6
CONTINUOUS
 10
-78.1747184235
 20
37.1163035934
 11
-45.706192626
 21
38.2501294985
  0
LINE
  5
5DD
100
AcDbEntity
  8
RACCORDO
100
AcDbLine
 62
7
  6
CONTINUOUS
 10
-45.5086240964
 20
30.5195389139
 11
-44.1675568721
 21
29.1799197135
  0
LINE
  5
5DE
100
AcDbEntity
  8
RACCORDO
100
AcDbLine
 62
7
  6
CONTINUOUS
 10
-45.4516152273
 20
30.6571704987
 11
-44.0309491948
 21
29.2365044662
  0
LWPOLYLINE
  5
5DF
100
AcDbEntity
  8
0
100
AcDbPolyline
 62
7
  6
CONTINUOUS
 90
8
 70
0
 43
0.3500000006
 10
-69.3723677673
 20
47.0001273193
 10
-68.515225296
 20
47.0001273193
 10
-68.0866563263
 20
47.4287008209
 10
-68.0866563263
 20
48.2858432922
 10
-68.515225296
 20
48.7144167938
 10
-69.3723677673
 20
48.7144167938
 10
-69.3723677673
 20
50.0001282349
 10
-68.0866563263
 20
50.0001282349
  0
LINE
  5
5E0
100
AcDbEntity
  8
RACCORDO
100
AcDbLine
 62
7
  6
CONTINUOUS
 10
-44.2221800702
 20
37.6655614068
 11
-38.2081556161
 21
31.6515369527
  0
ARC
  5
5E1
100
AcDbEntity
  8
ASSI
100
AcDbCircle
 62
7
  6
CONTINUOUS
 10
6.4182042503
 20
14.2363505151
 40
2.7099445987
100
AcDbArc
 50
297.7248090933
 51
306.6582901164
  0
ARC
  5
5E2
100
AcDbEntity
  8
ASSI
100
AcDbCircle
 62
7
  6
CONTINUOUS
 10
6.9789932503
 20
12.9478855151
 40
1.449951
100
AcDbArc
 50
0.0
 51
26.1670227722
  0
ARC
  5
5E3
100
AcDbEntity
  8
ASSI
100
AcDbCircle
 62
7
  6
CONTINUOUS
 10
7.2679672503
 20
13.0109895151
 40
1.2206235249
100
AcDbArc
 50
309.0013471031
 51
330.5881505118
  0
ARC
  5
5E4
100
AcDbEntity
  8
ASSI
100
AcDbCircle
 62
7
  6
CONTINUOUS
 10
7.3183772503
 20
12.9790255151
 40
1.1381441018
100
AcDbArc
 50
32.3061272483
 51
58.931036734
  0
ARC
  5
5E5
100
AcDbEntity
  8
ASSI
100
AcDbCircle
 62
7
  6
CONTINUOUS
 10
7.3525712503
 20
12.8595925151
 40
1.0763728599
100
AcDbArc
 50
335.4024432744
 51
0.0001040797
  0
ARC
  5
5E6
100
AcDbEntity
  8
ASSI
100
AcDbCircle
 62
7
  6
CONTINUOUS
 10
7.5073272503
 20
13.2926335151
 40
0.7720131597
100
AcDbArc
 50
58.9311118574
 51
89.9998691896
  0
ARC
  5
5E7
100
AcDbEntity
  8
ASSI
100
AcDbCircle
 62
7
  6
CONTINUOUS
 10
7.0222192503
 20
12.7565585151
 40
0.6516880976
100
AcDbArc
 50
62.1589307671
 51
89.9998941696
  0
ARC
  5
5E8
100
AcDbEntity
  8
ASSI
100
AcDbCircle
 62
7
  6
CONTINUOUS
 10
7.0222192503
 20
13.0586525151
 40
0.651688
100
AcDbArc
 50
270.0
 51
297.8408086568
  0
ARC
  5
5E9
100
AcDbEntity
  8
ASSI
100
AcDbCircle
 62
7
  6
CONTINUOUS
 10
3.6679252503
 20
-23.9230284849
 40
0.5209269161
100
AcDbArc
 50
4.8339919102
 51
69.4781004559
  0
ARC
  5
5EA
100
AcDbEntity
  8
ASSI
100
AcDbCircle
 62
7
  6
CONTINUOUS
 10
-0.0319157497
 20
-25.4675334849
 40
0.4890862721
100
AcDbArc
 50
186.0890080839
 51
252.6039501608
  0
ARC
  5
5EB
100
AcDbEntity
  8
ASSI
100
AcDbCircle
 62
7
  6
CONTINUOUS
 10
7.0826792503
 20
12.8915775151
 40
0.4843554524
100
AcDbArc
 50
327.1429582646
 51
359.9994417916
  0
ARC
  5
5EC
100
AcDbEntity
  8
ASSI
100
AcDbCircle
 62
7
  6
CONTINUOUS
 10
7.0826792503
 20
12.9236335151
 40
0.484355
100
AcDbArc
 50
0.0
 51
32.8576612954
  0
ARC
  5
5ED
100
AcDbEntity
  8
ASSI
100
AcDbCircle
 62
7
  6
CONTINUOUS
 10
2.6964572503
 20
-23.9120194849
 40
0.477254
100
AcDbArc
 50
90.0
 51
165.4447948104
  0
ARC
  5
5EE
100
AcDbEntity
  8
ASSI
100
AcDbCircle
 62
7
  6
CONTINUOUS
 10
0.9400362503
 20
-25.4842634849
 40
0.4667972038
100
AcDbArc
 50
285.423573031
 51
341.0059682157
  0
ARC
  5
5EF
100
AcDbEntity
  8
ASSI
100
AcDbCircle
 62
7
  6
CONTINUOUS
 10
-2.3892007497
 20
-25.4877484849
 40
0.4583408521
100
AcDbArc
 50
171.4768805277
 51
256.9485592673
  0
ARC
  5
5F0
100
AcDbEntity
  8
ASSI
100
AcDbCircle
 62
7
  6
CONTINUOUS
 10
7.1163792503
 20
12.9350325151
 40
0.449946414
100
AcDbArc
 50
33.9666848201
 51
62.1474204628
  0
ARC
  5
5F1
100
AcDbEntity
  8
ASSI
100
AcDbCircle
 62
7
  6
CONTINUOUS
 10
7.1163792503
 20
12.8801785151
 40
0.4499458322
100
AcDbArc
 50
297.8522021016
 51
326.0339818725
  0
ARC
  5
5F2
100
AcDbEntity
  8
ASSI
100
AcDbCircle
 62
7
  6
CONTINUOUS
 10
1.3880522503
 20
-23.8720864849
 40
0.4369271899
100
AcDbArc
 50
345.1449526191
 51
89.9991569212
  0
ARC
  5
5F3
100
AcDbEntity
  8
ASSI
100
AcDbCircle
 62
7
  6
CONTINUOUS
 10
2.1959622503
 20
-25.5343034849
 40
0.3999460142
100
AcDbArc
 50
165.444723266
 51
269.9999890059
  0
ARC
  5
5F4
100
AcDbEntity
  8
ASSI
100
AcDbCircle
 62
7
  6
CONTINUOUS
 10
-1.3660617497
 20
-24.0508174849
 40
0.3780951854
100
AcDbArc
 50
69.2439612236
 51
142.7061393729
  0
ARC
  5
5F5
100
AcDbEntity
  8
ASSI
100
AcDbCircle
 62
7
  6
CONTINUOUS
 10
0.9919082503
 20
-24.0585864849
 40
0.36899706
100
AcDbArc
 50
73.6976041409
 51
149.6961592365
  0
ARC
  5
5F6
100
AcDbEntity
  8
ASSI
100
AcDbCircle
 62
7
  6
CONTINUOUS
 10
2.9551912503
 20
-25.3591544849
 40
0.3401494623
100
AcDbArc
 50
176.7577644052
 51
259.7449096165
  0
ARC
  5
5F7
100
AcDbEntity
  8
ASSI
100
AcDbCircle
 62
7
  6
CONTINUOUS
 10
-1.7734397497
 20
-25.3677364849
 40
0.3042605327
100
AcDbArc
 50
185.7437026585
 51
275.4687390067
  0
ARC
  5
5F8
100
AcDbEntity
  8
0
100
AcDbCircle
 62
7
  6
CONTINUOUS
 10
-70.6223691784
 20
-16.2342494849
 40
7.1749773271
100
AcDbArc
 50
180.0
 51
270.0
  0
ARC
  5
5F9
100
AcDbEntity
  8
0
100
AcDbCircle
 62
7
  6
CONTINUOUS
 10
-59.6223691784
 20
-16.2342494849
 40
7.1749773271
100
AcDbArc
 50
270.0
 51
360.0
  0
ARC
  5
5FA
100
AcDbEntity
  8
0
100
AcDbCircle
 62
7
  6
CONTINUOUS
 10
-87.4842201784
 20
-11.7073394849
 40
2.5709726853
100
AcDbArc
 50
27.7248156618
 51
36.6583135475
  0
ARC
  5
5FB
100
AcDbEntity
  8
RACCORDO
100
AcDbCircle
 62
7
  6
CONTINUOUS
 10
-88.1223691784
 20
-34.9857163227
 40
1.5
100
AcDbArc
 50
180.0
 51
268.0
  0
ARC
  5
5FC
100
AcDbEntity
  8
0
100
AcDbCircle
 62
7
  6
CONTINUOUS
 10
-86.2618301784
 20
-11.1753084849
 40
1.375594
100
AcDbArc
 50
90.0
 51
116.1671833189
  0
ARC
  5
5FD
100
AcDbEntity
  8
0
100
AcDbCircle
 62
7
  6
CONTINUOUS
 10
-86.3216981784
 20
-10.9011544849
 40
1.1580278121
100
AcDbArc
 50
39.0014161695
 51
60.5886011288
  0
ARC
  5
5FE
100
AcDbEntity
  8
0
100
AcDbCircle
 62
7
  6
CONTINUOUS
 10
-86.2913731784
 20
-10.8533294849
 40
1.0797784371
100
AcDbArc
 50
122.3063169276
 51
148.9309538469
  0
ARC
  5
5FF
100
AcDbEntity
  8
0
100
AcDbCircle
 62
7
  6
CONTINUOUS
 10
-86.1780651784
 20
-10.8208884849
 40
1.0211747413
100
AcDbArc
 50
65.4029326903
 51
90.0
  0
ARC
  5
600
100
AcDbEntity
  8
RACCORDO
100
AcDbCircle
 62
7
  6
CONTINUOUS
 10
-95.2923511625
 20
-22.6598695209
 40
1.0
100
AcDbArc
 50
182.2607456281
 51
260.0
  0
ARC
  5
601
100
AcDbEntity
  8
0
100
AcDbCircle
 62
7
  6
CONTINUOUS
 10
-86.5888991784
 20
-10.6740694849
 40
0.7324229882
100
AcDbArc
 50
148.9309538469
 51
180.0
  0
ARC
  5
602
100
AcDbEntity
  8
0
100
AcDbCircle
 62
7
  6
CONTINUOUS
 10
-86.3669171784
 20
-11.1342994849
 40
0.618268
100
AcDbArc
 50
0.0
 51
27.8153985458
  0
ARC
  5
603
100
AcDbEntity
  8
0
100
AcDbCircle
 62
7
  6
CONTINUOUS
 10
-86.0803151784
 20
-11.1342994849
 40
0.6182674677
100
AcDbArc
 50
152.1847411081
 51
180.0
  0
ARC
  5
604
100
AcDbEntity
  8
0
100
AcDbCircle
 62
7
  6
CONTINUOUS
 10
-86.2388221784
 20
-11.0769394849
 40
0.459516
100
AcDbArc
 50
90.0
 51
122.8582367329
  0
ARC
  5
605
100
AcDbEntity
  8
0
100
AcDbCircle
 62
7
  6
CONTINUOUS
 10
-86.2084101784
 20
-11.0769394849
 40
0.4595155755
100
AcDbArc
 50
57.1357643505
 51
90.0
  0
ARC
  5
606
100
AcDbEntity
  8
0
100
AcDbCircle
 62
7
  6
CONTINUOUS
 10
-86.1975961784
 20
-11.0449684849
 40
0.4268730689
100
AcDbArc
 50
27.8153985458
 51
56.0262481188
  0
ARC
  5
607
100
AcDbEntity
  8
0
100
AcDbCircle
 62
7
  6
CONTINUOUS
 10
-86.2496371784
 20
-11.0449684849
 40
0.4268720032
100
AcDbArc
 50
123.9671830163
 51
152.1847411081
  0
ARC
  5
608
100
AcDbEntity
  8
RACCORDO
100
AcDbCircle
 62
7
  6
CONTINUOUS
 10
-44.4223691784
 20
-9.3842494849
 40
0.3
100
AcDbArc
 50
270.0
 51
360.0
  0
ARC
  5
609
100
AcDbEntity
  8
RACCORDO
100
AcDbCircle
 62
7
  6
CONTINUOUS
 10
-44.4223691784
 20
-2.4842494849
 40
0.3
100
AcDbArc
 50
0.0
 51
90.0
  0
ARC
  5
60A
100
AcDbEntity
  8
RACCORDO
100
AcDbCircle
 62
7
  6
CONTINUOUS
 10
-45.3223691784
 20
-9.3842494849
 40
0.3
100
AcDbArc
 50
202.1536322265
 51
270.0
  0
ARC
  5
60B
100
AcDbEntity
  8
RACCORDO
100
AcDbCircle
 62
7
  6
CONTINUOUS
 10
-45.3223691784
 20
-2.4842494849
 40
0.3
100
AcDbArc
 50
90.0
 51
157.5
  0
ARC
  5
60C
100
AcDbEntity
  8
0
100
AcDbCircle
 62
7
  6
CONTINUOUS
 10
-40.9223691784
 20
-14.9342494849
 40
0.3
100
AcDbArc
 50
0.0
 51
90.0
  0
ARC
  5
60D
100
AcDbEntity
  8
0
100
AcDbCircle
 62
7
  6
CONTINUOUS
 10
-40.9223691784
 20
-19.8342494849
 40
0.3
100
AcDbArc
 50
270.0
 51
360.0
  0
ARC
  5
60E
100
AcDbEntity
  8
0
100
AcDbCircle
 62
7
  6
CONTINUOUS
 10
-42.3223691784
 20
-19.8342494849
 40
0.3
100
AcDbArc
 50
180.0
 51
270.0
  0
ARC
  5
60F
100
AcDbEntity
  8
RACCORDO
100
AcDbCircle
 62
7
  6
CONTINUOUS
 10
-45.3223691784
 20
-2.2342494849
 40
0.3
100
AcDbArc
 50
90.0
 51
180.0
  0
ARC
  5
610
100
AcDbEntity
  8
RACCORDO
100
AcDbCircle
 62
7
  6
CONTINUOUS
 10
-43.9223691784
 20
-9.6342494849
 40
0.3
100
AcDbArc
 50
270.0
 51
360.0
  0
ARC
  5
611
100
AcDbEntity
  8
RACCORDO
100
AcDbCircle
 62
7
  6
CONTINUOUS
 10
-43.9223691784
 20
-2.2342494849
 40
0.3
100
AcDbArc
 50
0.0
 51
90.0
  0
ARC
  5
612
100
AcDbEntity
  8
RACCORDO
100
AcDbCircle
 62
7
  6
CONTINUOUS
 10
-45.3223691784
 20
-9.6342494849
 40
0.3
100
AcDbArc
 50
180.0
 51
270.0
  0
ARC
  5
613
100
AcDbEntity
  8
0
100
AcDbCircle
 62
7
  6
CONTINUOUS
 10
-42.9223691784
 20
-17.9342494849
 40
0.3
100
AcDbArc
 50
0.0
 51
90.0
  0
ARC
  5
614
100
AcDbEntity
  8
RACCORDO
100
AcDbCircle
 62
7
  6
CONTINUOUS
 10
-92.3723691784
 20
-27.9885751692
 40
0.25
100
AcDbArc
 50
180.0
 51
269.0
  0
ARC
  5
615
100
AcDbEntity
  8
0
100
AcDbCircle
 62
7
  6
CONTINUOUS
 10
-70.6223691784
 20
4.3657505151
 40
7.1749773271
100
AcDbArc
 50
90.0
 51
180.0
  0
ARC
  5
616
100
AcDbEntity
  8
0
100
AcDbCircle
 62
7
  6
CONTINUOUS
 10
-59.6223691784
 20
4.3657505151
 40
7.1749773271
100
AcDbArc
 50
0.0
 51
90.0
  0
ARC
  5
617
100
AcDbEntity
  8
RACCORDO
100
AcDbCircle
 62
7
  6
CONTINUOUS
 10
-39.6223691784
 20
30.2373233903
 40
2.0
100
AcDbArc
 50
0.0
 51
45.0
  0
ARC
  5
618
100
AcDbEntity
  8
RACCORDO
100
AcDbCircle
 62
7
  6
CONTINUOUS
 10
-45.6363936326
 20
36.2513478445
 40
2.0
100
AcDbArc
 50
45.0
 51
92.0
  0
ARC
  5
619
100
AcDbEntity
  8
ASSI
100
AcDbCircle
 62
7
  6
CONTINUOUS
 10
-76.4448887258
 20
30.5151403213
 40
1.5
100
AcDbArc
 50
220.0
 51
269.5000000001
  0
ARC
  5
61A
100
AcDbEntity
  8
RACCORDO
100
AcDbCircle
 62
7
  6
CONTINUOUS
 10
-54.9223691784
 20
27.3272019036
 40
1.5
100
AcDbArc
 50
0.0
 51
89.5
  0
ARC
  5
61B
100
AcDbEntity
  8
ASSI
100
AcDbCircle
 62
7
  6
CONTINUOUS
 10
-78.1223691784
 20
32.5142836773
 40
1.5
100
AcDbArc
 50
180.0
 51
220.0
  0
ARC
  5
61C
100
AcDbEntity
  8
RACCORDO
100
AcDbCircle
 62
7
  6
CONTINUOUS
 10
-78.1223691784
 20
35.6172173529
 40
1.5
100
AcDbArc
 50
92.0
 51
180.0
  0
ARC
  5
61D
100
AcDbEntity
  8
RACCORDO
100
AcDbCircle
 62
7
  6
CONTINUOUS
 10
-54.9223691784
 20
27.2784155329
 40
1.5
100
AcDbArc
 50
272.0
 51
360.0
  0
ARC
  5
61E
100
AcDbEntity
  8
RACCORDO
100
AcDbCircle
 62
7
  6
CONTINUOUS
 10
-88.1223691784
 20
23.1172173529
 40
1.5
100
AcDbArc
 50
92.0
 51
180.0
  0
ARC
  5
61F
100
AcDbEntity
  8
RACCORDO
100
AcDbCircle
 62
7
  6
CONTINUOUS
 10
-95.2923511625
 20
10.791370551
 40
1.0
100
AcDbArc
 50
100.0
 51
177.7392543719
  0
ARC
  5
620
100
AcDbEntity
  8
0
100
AcDbCircle
 62
7
  6
CONTINUOUS
 10
-85.6335901784
 20
13.5412515151
 40
0.5209269161
100
AcDbArc
 50
94.8339919102
 51
159.4781035645
  0
ARC
  5
621
100
AcDbEntity
  8
RACCORDO
100
AcDbCircle
 62
7
  6
CONTINUOUS
 10
-46.1223691784
 20
25.5844992158
 40
0.5
100
AcDbArc
 50
0.0
 51
92.0
  0
ARC
  5
622
100
AcDbEntity
  8
RACCORDO
100
AcDbCircle
 62
7
  6
CONTINUOUS
 10
-46.1223691784
 20
24.5851087601
 40
0.5
100
AcDbArc
 50
337.7497808771
 51
360.0
  0
ARC
  5
623
100
AcDbEntity
  8
0
100
AcDbCircle
 62
7
  6
CONTINUOUS
 10
-84.0890851784
 20
9.8414105151
 40
0.4890862721
100
AcDbArc
 50
276.0890080839
 51
342.6039786512
  0
ARC
  5
624
100
AcDbEntity
  8
0
100
AcDbCircle
 62
7
  6
CONTINUOUS
 10
-85.6445991784
 20
12.5697835151
 40
0.477254
100
AcDbArc
 50
180.0
 51
255.4447374258
  0
ARC
  5
625
100
AcDbEntity
  8
0
100
AcDbCircle
 62
7
  6
CONTINUOUS
 10
-84.0723551784
 20
10.8133625151
 40
0.4667972038
100
AcDbArc
 50
15.423573031
 51
71.0066411576
  0
ARC
  5
626
100
AcDbEntity
  8
0
100
AcDbCircle
 62
7
  6
CONTINUOUS
 10
-84.0688701784
 20
7.4841255151
 40
0.4583408521
100
AcDbArc
 50
261.4768805277
 51
346.9486380022
  0
ARC
  5
627
100
AcDbEntity
  8
0
100
AcDbCircle
 62
7
  6
CONTINUOUS
 10
-85.6845321784
 20
11.2613785151
 40
0.4369271899
100
AcDbArc
 50
75.1449526191
 51
180.0
  0
ARC
  5
628
100
AcDbEntity
  8
0
100
AcDbCircle
 62
7
  6
CONTINUOUS
 10
-84.0223151784
 20
12.0692885151
 40
0.3999460142
100
AcDbArc
 50
255.4447215655
 51
360.0
  0
ARC
  5
629
100
AcDbEntity
  8
0
100
AcDbCircle
 62
7
  6
CONTINUOUS
 10
-85.5058011784
 20
8.5072645151
 40
0.3780951854
100
AcDbArc
 50
159.2439612236
 51
232.7062378141
  0
ARC
  5
62A
100
AcDbEntity
  8
0
100
AcDbCircle
 62
7
  6
CONTINUOUS
 10
-85.4980321784
 20
10.8652345151
 40
0.36899706
100
AcDbArc
 50
163.6976041409
 51
239.6961114077
  0
ARC
  5
62B
100
AcDbEntity
  8
0
100
AcDbCircle
 62
7
  6
CONTINUOUS
 10
-84.1974641784
 20
12.8285175151
 40
0.3401494623
100
AcDbArc
 50
266.7577644052
 51
349.7449096165
  0
ARC
  5
62C
100
AcDbEntity
  8
0
100
AcDbCircle
 62
7
  6
CONTINUOUS
 10
-84.1888821784
 20
8.0998865151
 40
0.3042605327
100
AcDbArc
 50
275.7437026585
 51
5.4687390067
  0
ARC
  5
62D
100
AcDbEntity
  8
RACCORDO
100
AcDbCircle
 62
7
  6
CONTINUOUS
 10
-44.4223691784
 20
25.7657505151
 40
0.3
100
AcDbArc
 50
0.0
 51
90.0
  0
ARC
  5
62E
100
AcDbEntity
  8
RACCORDO
100
AcDbCircle
 62
7
  6
CONTINUOUS
 10
-45.3223691784
 20
25.7657505151
 40
0.3
100
AcDbArc
 50
90.0
 51
180.0
  0
ARC
  5
62F
100
AcDbEntity
  8
0
100
AcDbCircle
 62
7
  6
CONTINUOUS
 10
-42.3223691784
 20
7.9657505151
 40
0.3
100
AcDbArc
 50
90.0
 51
180.0
  0
ARC
  5
630
100
AcDbEntity
  8
0
100
AcDbCircle
 62
7
  6
CONTINUOUS
 10
-40.9223691784
 20
7.9657505151
 40
0.3
100
AcDbArc
 50
0.0
 51
90.0
  0
ARC
  5
631
100
AcDbEntity
  8
0
100
AcDbCircle
 62
7
  6
CONTINUOUS
 10
-40.9223691784
 20
3.0657505151
 40
0.3
100
AcDbArc
 50
270.0
 51
360.0
  0
ARC
  5
632
100
AcDbEntity
  8
0
100
AcDbCircle
 62
7
  6
CONTINUOUS
 10
-42.9223691784
 20
6.0657505151
 40
0.3
100
AcDbArc
 50
270.0
 51
360.0
  0
ARC
  5
633
100
AcDbEntity
  8
RACCORDO
100
AcDbCircle
 62
7
  6
CONTINUOUS
 10
-92.3723691784
 20
16.1200761993
 40
0.25
100
AcDbArc
 50
91.0
 51
180.0
  0
ARC
  5
634
100
AcDbEntity
  8
RACCORDO
100
AcDbCircle
 62
7
  6
CONTINUOUS
 10
328.3776308216
 20
-5.9342494849
 40
425.0
100
AcDbArc
 50
177.7392543719
 51
182.2607456281
  0
ELLIPSE
  5
635
100
AcDbEntity
  8
RACCORDO
100
AcDbEllipse
 62
7
  6
CONTINUOUS
 10
-12.2371699906
 20
-37.9533029578
 30
0.0
 11
0.5
 21
0.0
 31
0.0
 40
0.0349207695
 41
-1.5707963268
 42
-0.034906585
  0
ELLIPSE
  5
636
100
AcDbEntity
  8
RACCORDO
100
AcDbEllipse
 62
7
  6
CONTINUOUS
 10
12.2120184913
 20
-37.9533029578
 30
0.0
 11
0.5
 21
-0.0
 31
0.0
 40
0.0349207695
 41
-3.1066860685
 42
-1.5707963268
  0
ELLIPSE
  5
637
100
AcDbEntity
  8
RACCORDO
100
AcDbEllipse
 62
7
  6
CONTINUOUS
 10
-11.5168643707
 20
26.3651079123
 30
0.0
 11
0.0
 21
0.5
 31
0.0
 40
0.0349207695
 41
-4.7123889804
 42
-3.1764992386
  0
ELLIPSE
  5
638
100
AcDbEntity
  8
RACCORDO
100
AcDbEllipse
 62
7
  6
CONTINUOUS
 10
-11.5168643707
 20
29.6156008127
 30
0.0
 11
0.0
 21
0.5
 31
0.0
 40
0.0349207695
 41
0.034906585
 42
1.5707963268
  0
ELLIPSE
  5
639
100
AcDbEntity
  8
RACCORDO
100
AcDbEllipse
 62
7
  6
CONTINUOUS
 10
11.4917128714
 20
26.3651079123
 30
0.0
 11
0.0
 21
0.5
 31
0.0
 40
0.0349207695
 41
-3.1066860685
 42
-1.5707963268
  0
ELLIPSE
  5
63A
100
AcDbEntity
  8
RACCORDO
100
AcDbEllipse
 62
7
  6
CONTINUOUS
 10
11.4917128714
 20
29.6156008127
 30
0.0
 11
0.0
 21
0.5
 31
0.0
 40
0.0349207695
 41
-1.5707963268
 42
-0.034906585
  0
ELLIPSE
  5
63B
100
AcDbEntity
  8
RACCORDO
100
AcDbEllipse
 62
7
  6
CONTINUOUS
 10
-14.4536370367
 20
37.3136879785
 30
0.0
 11
1.5
 21
-0.0
 31
0.0
 40
0.0349207695
 41
-3.1328660073
 42
-1.5707963268
  0
ELLIPSE
  5
63C
100
AcDbEntity
  8
RACCORDO
100
AcDbEllipse
 62
7
  6
CONTINUOUS
 10
14.4284855374
 20
37.3136879785
 30
0.0
 11
1.5
 21
0.0
 31
0.0
 40
0.0349207695
 41
-1.5707963268
 42
-0.0087266463
  0
ELLIPSE
  5
63D
100
AcDbEntity
  8
RACCORDO
100
AcDbEllipse
 62
7
  6
CONTINUOUS
 10
12.5101158347
 20
-22.7196166216
 30
0.0
 11
-0.0
 21
0.5
 31
0.0
 40
0.0174550649
 41
0.1745329252
 42
1.5707963268
  0
ELLIPSE
  5
63E
100
AcDbEntity
  8
RACCORDO
100
AcDbEllipse
 62
7
  6
CONTINUOUS
 10
12.5101158347
 20
10.8511176517
 30
0.0
 11
0.0
 21
0.5
 31
0.0
 40
0.0174550649
 41
-4.7123889804
 42
-3.3161255788
  0
ELLIPSE
  5
63F
100
AcDbEntity
  8
RACCORDO
100
AcDbEllipse
 62
7
  6
CONTINUOUS
 10
-12.5352673341
 20
10.8511176517
 30
0.0
 11
0.0
 21
0.5
 31
0.0
 40
0.0174550649
 41
-2.9670597284
 42
-1.5707963268
  0
ELLIPSE
  5
640
100
AcDbEntity
  8
RACCORDO
100
AcDbEllipse
 62
7
  6
CONTINUOUS
 10
-12.5352673341
 20
-22.7196166216
 30
0.0
 11
-0.0
 21
0.5
 31
0.0
 40
0.0174550649
 41
-1.5707963268
 42
-0.1745329252
  0
ELLIPSE
  5
641
100
AcDbEntity
  8
RACCORDO
100
AcDbEllipse
 62
7
  6
CONTINUOUS
 10
12.4926607698
 20
-25.5342494849
 30
0.0
 11
-0.0
 21
0.5
 31
0.0
 40
0.0174550649
 41
-3.1415926536
 42
-1.5707963268
  0
ELLIPSE
  5
642
100
AcDbEntity
  8
RACCORDO
100
AcDbEllipse
 62
7
  6
CONTINUOUS
 10
12.5576480458
 20
-21.224030738
 30
0.0
 11
-0.0
 21
0.5
 31
0.0
 40
0.0174550649
 41
-2.9670597284
 42
-1.607010212
  0
ELLIPSE
  5
643
100
AcDbEntity
  8
RACCORDO
100
AcDbEllipse
 62
7
  6
CONTINUOUS
 10
12.5576480458
 20
9.3555317681
 30
0.0
 11
-0.0
 21
0.5
 31
0.0
 40
0.0174550649
 41
-1.5345824416
 42
-0.1745329252
  0
ELLIPSE
  5
644
100
AcDbEntity
  8
RACCORDO
100
AcDbEllipse
 62
7
  6
CONTINUOUS
 10
12.4926607698
 20
13.6657505151
 30
0.0
 11
0.0
 21
0.5
 31
0.0
 40
0.0174550649
 41
-1.5707963268
 42
-0.0
  0
ELLIPSE
  5
645
100
AcDbEntity
  8
RACCORDO
100
AcDbEllipse
 62
7
  6
CONTINUOUS
 10
-12.5178122691
 20
13.6657505151
 30
0.0
 11
0.0
 21
0.5
 31
0.0
 40
0.0174550649
 41
-0.0
 42
1.5707963268
  0
ELLIPSE
  5
646
100
AcDbEntity
  8
RACCORDO
100
AcDbEllipse
 62
7
  6
CONTINUOUS
 10
-12.5827995451
 20
9.3555317681
 30
0.0
 11
-0.0
 21
0.5
 31
0.0
 40
0.0174550649
 41
0.1745329252
 42
1.5345824416
  0
ELLIPSE
  5
647
100
AcDbEntity
  8
RACCORDO
100
AcDbEllipse
 62
7
  6
CONTINUOUS
 10
-12.5827995451
 20
-21.224030738
 30
0.0
 11
-0.0
 21
0.5
 31
0.0
 40
0.0174550649
 41
-4.6761750952
 42
-3.3161255788
  0
ELLIPSE
  5
648
100
AcDbEntity
  8
RACCORDO
100
AcDbEllipse
 62
7
  6
CONTINUOUS
 10
-12.5178122691
 20
-25.5342494849
 30
0.0
 11
-0.0
 21
0.5
 31
0.0
 40
0.0174550649
 41
-4.7123889804
 42
-3.1415926536
  0
ELLIPSE
  5
649
100
AcDbEntity
  8
RACCORDO
100
AcDbEllipse
 62
7
  6
CONTINUOUS
 10
7.8403579259
 20
-37.0837757975
 30
0.0
 11
3.0
 21
0.0
 31
0.0
 40
0.0349207695
 41
0.034906585
 42
1.5707963268
  0
ELLIPSE
  5
64A
100
AcDbEntity
  8
RACCORDO
100
AcDbEllipse
 62
7
  6
CONTINUOUS
 10
-7.8655094252
 20
-37.0837757975
 30
0.0
 11
3.0
 21
-0.0
 31
0.0
 40
0.0349207695
 41
1.5707963268
 42
3.1066860685
  0
ELLIPSE
  5
64B
100
AcDbEntity
  8
RACCORDO
100
AcDbEllipse
 62
7
  6
CONTINUOUS
 10
-7.8655094252
 20
30.7654318974
 30
0.0
 11
3.0
 21
0.0
 31
0.0
 40
0.0349207695
 41
1.5707963268
 42
3.1066860685
  0
ELLIPSE
  5
64C
100
AcDbEntity
  8
RACCORDO
100
AcDbEllipse
 62
7
  6
CONTINUOUS
 10
-7.8655094252
 20
25.2152768276
 30
0.0
 11
3.0
 21
0.0
 31
0.0
 40
0.0349207695
 41
-3.1066860685
 42
-1.5707963268
  0
ELLIPSE
  5
64D
100
AcDbEntity
  8
RACCORDO
100
AcDbEllipse
 62
7
  6
CONTINUOUS
 10
7.8403579259
 20
25.2152768276
 30
0.0
 11
3.0
 21
-0.0
 31
0.0
 40
0.0349207695
 41
-1.5707963268
 42
-0.034906585
  0
ELLIPSE
  5
64E
100
AcDbEntity
  8
RACCORDO
100
AcDbEllipse
 62
7
  6
CONTINUOUS
 10
7.8403579259
 20
30.7654318974
 30
0.0
 11
3.0
 21
0.0
 31
0.0
 40
0.0349207695
 41
0.034906585
 42
1.5707963268
  0
ELLIPSE
  5
64F
100
AcDbEntity
  8
RACCORDO
100
AcDbEllipse
 62
7
  6
CONTINUOUS
 10
-5.2163586097
 20
-5.9342494849
 30
0.0
 11
-0.0
 21
422.8
 31
0.0
 40
0.0174550649
 41
1.5345824416
 42
1.5519924326
  0
ELLIPSE
  5
650
100
AcDbEntity
  8
DRAFT
100
AcDbEllipse
 62
7
  6
CONTINUOUS
 10
-5.2163586097
 20
-5.9342494849
 30
0.0
 11
-0.0
 21
422.8
 31
0.0
 40
0.0174550649
 41
1.5548306533
 42
1.5867620003
  0
ELLIPSE
  5
651
100
AcDbEntity
  8
RACCORDO
100
AcDbEllipse
 62
7
  6
CONTINUOUS
 10
-5.2163586097
 20
-5.9342494849
 30
0.0
 11
-0.0
 21
422.8
 31
0.0
 40
0.0174550649
 41
-4.6935850862
 42
-4.6761750952
  0
ELLIPSE
  5
652
100
AcDbEntity
  8
RACCORDO
100
AcDbEllipse
 62
7
  6
CONTINUOUS
 10
5.1912071103
 20
-5.9342494849
 30
0.0
 11
-0.0
 21
422.8
 31
0.0
 40
0.0174550649
 41
-1.607010212
 42
-1.589600221
  0
ELLIPSE
  5
653
100
AcDbEntity
  8
DRAFT
100
AcDbEllipse
 62
7
  6
CONTINUOUS
 10
5.1912071103
 20
-5.9342494849
 30
0.0
 11
-0.0
 21
422.8
 31
0.0
 40
0.0174550649
 41
-1.5867620003
 42
-1.5548306533
  0
ELLIPSE
  5
654
100
AcDbEntity
  8
RACCORDO
100
AcDbEllipse
 62
7
  6
CONTINUOUS
 10
5.1912071103
 20
-5.9342494849
 30
0.0
 11
-0.0
 21
422.8
 31
0.0
 40
0.0174550649
 41
-1.5519924326
 42
-1.5345824416
  0
ELLIPSE
  5
655
100
AcDbEntity
  8
RACCORDO
100
AcDbEllipse
 62
7
  6
CONTINUOUS
 10
-17.2101343909
 20
-25.2342494849
 30
0.0
 11
0.500076164
 21
-0.0
 31
0.0
 40
0.9998476952
 41
1.5707963268
 42
1.5882496193
  0
ELLIPSE
  5
656
100
AcDbEntity
  8
RACCORDO
100
AcDbEllipse
 62
7
  6
CONTINUOUS
 10
-17.2188619233
 20
-23.726536179
 30
0.0
 11
0.0500227791
 21
0.505318407
 31
0.0
 40
0.9846622838
 41
-3.0588480514
 42
-3.0444253421
  0
ELLIPSE
  5
657
100
AcDbEntity
  8
RACCORDO
100
AcDbEllipse
 62
7
  6
CONTINUOUS
 10
-12.6115456533
 20
10.791370551
 30
0.0
 11
-0.0
 21
1.0
 31
0.0
 40
0.0174550649
 41
0.1745329252
 42
1.531338872
  0
ELLIPSE
  5
658
100
AcDbEntity
  8
RACCORDO
100
AcDbEllipse
 62
7
  6
CONTINUOUS
 10
17.193710424
 20
11.8580372091
 30
0.0
 11
-0.0500227791
 21
-0.505318407
 31
0.0
 40
0.9846622838
 41
-3.0588480514
 42
-3.0444253421
  0
ELLIPSE
  5
659
100
AcDbEntity
  8
RACCORDO
100
AcDbEllipse
 62
7
  6
CONTINUOUS
 10
17.1849828915
 20
13.3657505151
 30
0.0
 11
0.500076164
 21
-0.0
 31
0.0
 40
0.9998476952
 41
-1.5707963268
 42
-1.5533430343
  0
ELLIPSE
  5
65A
100
AcDbEntity
  8
RACCORDO
100
AcDbEllipse
 62
7
  6
CONTINUOUS
 10
12.586394154
 20
10.791370551
 30
0.0
 11
-0.0
 21
1.0
 31
0.0
 40
0.0174550649
 41
-1.531338872
 42
-0.1745329252
  0
ELLIPSE
  5
65B
100
AcDbEntity
  8
0
100
AcDbEllipse
 62
7
  6
CONTINUOUS
 10
12.5354256789
 20
16.1200761993
 30
0.0
 11
-0.0
 21
0.25
 31
0.0
 40
0.0174550649
 41
-1.5707963268
 42
-0.0174532925
  0
ELLIPSE
  5
65C
100
AcDbEntity
  8
0
100
AcDbEllipse
 62
7
  6
CONTINUOUS
 10
-12.5605771782
 20
16.1200761993
 30
0.0
 11
-0.0
 21
0.25
 31
0.0
 40
0.0174550649
 41
0.0174532925
 42
1.5707963268
  0
ELLIPSE
  5
65D
100
AcDbEntity
  8
0
100
AcDbEllipse
 62
7
  6
CONTINUOUS
 10
-12.5605771782
 20
-27.9885751692
 30
0.0
 11
0.0
 21
0.25
 31
0.0
 40
0.0174550649
 41
-4.7123889804
 42
-3.1590459461
  0
ELLIPSE
  5
65E
100
AcDbEntity
  8
0
100
AcDbEllipse
 62
7
  6
CONTINUOUS
 10
12.5354256789
 20
-27.9885751692
 30
0.0
 11
0.0
 21
0.25
 31
0.0
 40
0.0174550649
 41
-3.1241393611
 42
-1.5707963268
  0
ELLIPSE
  5
65F
100
AcDbEntity
  8
RACCORDO
100
AcDbEllipse
 62
7
  6
CONTINUOUS
 10
17.2373480863
 20
15.9180395458
 30
0.0
 11
0.3536610946
 21
0.3536610946
 31
0.0
 40
0.9996954599
 41
-0.7852458701
 42
0.7852458701
  0
ELLIPSE
  5
660
100
AcDbEntity
  8
RACCORDO
100
AcDbEllipse
 62
7
  6
CONTINUOUS
 10
-5.2163586097
 20
-5.9342494849
 30
0.0
 11
-0.0
 21
425.0
 31
0.0
 40
0.0174550649
 41
1.531338872
 42
1.6102537816
  0
ELLIPSE
  5
661
100
AcDbEntity
  8
RACCORDO
100
AcDbEllipse
 62
7
  6
CONTINUOUS
 10
17.193710424
 20
-23.726536179
 30
0.0
 11
-0.0500227791
 21
0.505318407
 31
0.0
 40
0.9846622838
 41
-3.2387599651
 42
-3.2243372558
  0
ELLIPSE
  5
662
100
AcDbEntity
  8
RACCORDO
100
AcDbEllipse
 62
7
  6
CONTINUOUS
 10
5.1912071103
 20
-5.9342494849
 30
0.0
 11
-0.0
 21
425.0
 31
0.0
 40
0.0174550649
 41
-1.6102537816
 42
-1.531338872
  0
ELLIPSE
  5
663
100
AcDbEntity
  8
RACCORDO
100
AcDbEllipse
 62
7
  6
CONTINUOUS
 10
17.1849828915
 20
-25.2342494849
 30
0.0
 11
-0.500076164
 21
-0.0
 31
0.0
 40
0.9998476952
 41
-1.5882496193
 42
-1.5707963268
  0
ELLIPSE
  5
664
100
AcDbEntity
  8
RACCORDO
100
AcDbEllipse
 62
7
  6
CONTINUOUS
 10
17.2373480863
 20
-27.7865385157
 30
0.0
 11
-0.3536610946
 21
0.3536610946
 31
0.0
 40
0.9996954599
 41
-3.9268385237
 42
-2.3563467834
  0
ELLIPSE
  5
665
100
AcDbEntity
  8
RACCORDO
100
AcDbEllipse
 62
7
  6
CONTINUOUS
 10
-17.2624995856
 20
-27.7865385157
 30
0.0
 11
0.3536610946
 21
0.3536610946
 31
0.0
 40
0.9996954599
 41
-3.9268385237
 42
-2.3563467834
  0
ELLIPSE
  5
666
100
AcDbEntity
  8
RACCORDO
100
AcDbEllipse
 62
7
  6
CONTINUOUS
 10
-17.2188619233
 20
11.8580372091
 30
0.0
 11
-0.0500227791
 21
0.505318407
 31
0.0
 40
0.9846622838
 41
-0.0971673115
 42
-0.0827446022
  0
ELLIPSE
  5
667
100
AcDbEntity
  8
RACCORDO
100
AcDbEllipse
 62
7
  6
CONTINUOUS
 10
-17.2101343909
 20
13.3657505151
 30
0.0
 11
0.500076164
 21
0.0
 31
0.0
 40
0.9998476952
 41
-1.5882496193
 42
-1.5707963268
  0
ELLIPSE
  5
668
100
AcDbEntity
  8
RACCORDO
100
AcDbEllipse
 62
7
  6
CONTINUOUS
 10
-17.2624995856
 20
15.9180395458
 30
0.0
 11
0.3536610946
 21
-0.3536610946
 31
0.0
 40
0.9996954599
 41
2.3563467834
 42
3.9268385237
  0
ELLIPSE
  5
669
100
AcDbEntity
  8
RACCORDO
100
AcDbEllipse
 62
7
  6
CONTINUOUS
 10
12.586394154
 20
-22.6598695209
 30
0.0
 11
-0.0
 21
1.0
 31
0.0
 40
0.0174550649
 41
-2.9670597284
 42
-1.6102537816
  0
ELLIPSE
  5
66A
100
AcDbEntity
  8
RACCORDO
100
AcDbEllipse
 62
7
  6
CONTINUOUS
 10
-12.6115456533
 20
-22.6598695209
 30
0.0
 11
-0.0
 21
1.0
 31
0.0
 40
0.0174550649
 41
-4.6729315256
 42
-3.3161255788
  0
ELLIPSE
  5
66B
100
AcDbEntity
  8
RACCORDO
100
AcDbEllipse
 62
7
  6
CONTINUOUS
 10
-45.2837057594
 20
11.8620196254
 30
0.0
 11
0.3001350319
 21
-0.0274483018
 31
0.0
 40
0.9953958626
 41
-3.0508107542
 42
-1.5790545683
  0
ELLIPSE
  5
66C
100
AcDbEntity
  8
RACCORDO
100
AcDbEllipse
 62
7
  6
CONTINUOUS
 10
-47.9521195506
 20
29.5955008873
 30
0.0
 11
-1.0073879801
 21
1.1252668489
 31
0.0
 40
0.9931483514
 41
-0.7260027955
 42
0.8371973348
  0
ELLIPSE
  5
66D
100
AcDbEntity
  8
RACCORDO
100
AcDbEllipse
 62
7
  6
CONTINUOUS
 10
-47.9521195506
 20
27.5218220134
 30
0.0
 11
1.5034289607
 21
0.059047394
 31
0.0
 40
0.9969505618
 41
3.1024572652
 42
4.6405035417
  0
ELLIPSE
  5
66E
100
AcDbEntity
  8
RACCORDO
100
AcDbEllipse
 62
7
  6
CONTINUOUS
 10
-45.5927273243
 20
27.7643200741
 30
0.0
 11
1.8797496639
 21
0.7131757622
 31
0.0
 40
0.9947765933
 41
-0.3608884995
 42
0.4213582757
  0
ELLIPSE
  5
66F
100
AcDbEntity
  8
RACCORDO
100
AcDbEllipse
 62
7
  6
CONTINUOUS
 10
-46.9242207081
 20
29.0943757713
 30
0.0
 11
0.9129001749
 21
1.7903298606
 31
0.0
 40
0.9951712705
 41
-0.3119004374
 42
0.4703463378
  0
ELLIPSE
  5
670
100
AcDbEntity
  8
RACCORDO
100
AcDbEllipse
 62
7
  6
CONTINUOUS
 10
-45.2837057594
 20
13.227087096
 30
0.0
 11
0.2233623313
 21
-0.2040340498
 31
0.0
 40
0.9916405181
 41
2.3144196187
 42
3.877619749
  0
ELLIPSE
  5
671
100
AcDbEntity
  8
RACCORDO
100
AcDbEllipse
 62
7
  6
CONTINUOUS
 10
-45.9605158516
 20
15.9038971883
 30
0.0
 11
-0.201477596
 21
0.2250533698
 31
0.0
 40
0.9931483514
 41
-3.8675954491
 42
-2.3043953188
  0
ELLIPSE
  5
672
100
AcDbEntity
  8
RACCORDO
100
AcDbEllipse
 62
7
  6
CONTINUOUS
 10
-37.9223691784
 20
10.248308203
 30
0.0
 11
0.0
 21
0.3000114235
 31
0.0
 40
0.9999619231
 41
3.1415926536
 42
4.7123889804
  0
ELLIPSE
  5
673
100
AcDbEntity
  8
RACCORDO
100
AcDbEllipse
 62
7
  6
CONTINUOUS
 10
-39.0282235391
 20
10.248308203
 30
0.0
 11
-0.1867660016
 21
-0.2347970436
 31
0.0
 40
0.9999378333
 41
-0.6719214746
 42
0.6719214746
  0
ELLIPSE
  5
674
100
AcDbEntity
  8
RACCORDO
100
AcDbEllipse
 62
7
  6
CONTINUOUS
 10
-40.9049268664
 20
10.248308203
 30
0.0
 11
-0.2121481893
 21
0.2121481893
 31
0.0
 40
0.9999238505
 41
2.3562325664
 42
3.9269527408
  0
ELLIPSE
  5
675
100
AcDbEntity
  8
RACCORDO
100
AcDbEllipse
 62
7
  6
CONTINUOUS
 10
-42.0282235391
 20
10.248308203
 30
0.0
 11
-0.1867660016
 21
-0.2347970436
 31
0.0
 40
0.9999378333
 41
-0.6719214746
 42
0.6719214746
  0
ELLIPSE
  5
676
100
AcDbEntity
  8
RACCORDO
100
AcDbEllipse
 62
7
  6
CONTINUOUS
 10
-37.9223691784
 20
-22.1168071729
 30
0.0
 11
0.0
 21
-0.3000114235
 31
0.0
 40
0.9999619231
 41
1.5707963268
 42
3.1415926536
  0
ELLIPSE
  5
677
100
AcDbEntity
  8
RACCORDO
100
AcDbEllipse
 62
7
  6
CONTINUOUS
 10
-40.9049268664
 20
-22.1168071729
 30
0.0
 11
0.2121481893
 21
0.2121481893
 31
0.0
 40
0.9999238505
 41
-0.7853600872
 42
0.7853600872
  0
ELLIPSE
  5
678
100
AcDbEntity
  8
RACCORDO
100
AcDbEllipse
 62
7
  6
CONTINUOUS
 10
-39.0282235391
 20
-22.1168071729
 30
0.0
 11
0.1867660016
 21
-0.2347970436
 31
0.0
 40
0.9999378333
 41
2.469671179
 42
3.8135141282
  0
ELLIPSE
  5
679
100
AcDbEntity
  8
RACCORDO
100
AcDbEllipse
 62
7
  6
CONTINUOUS
 10
-42.0282235391
 20
-22.1168071729
 30
0.0
 11
0.1867660016
 21
-0.2347970436
 31
0.0
 40
0.9999378333
 41
2.469671179
 42
3.8135141282
  0
ELLIPSE
  5
67A
100
AcDbEntity
  8
RACCORDO
100
AcDbEllipse
 62
7
  6
CONTINUOUS
 10
-47.3571576103
 20
10.2309620832
 30
0.0
 11
0.201477596
 21
0.2250533698
 31
0.0
 40
0.9931483514
 41
-3.9787899884
 42
-2.4155898581
  0
ELLIPSE
  5
67B
100
AcDbEntity
  8
RACCORDO
100
AcDbEllipse
 62
7
  6
CONTINUOUS
 10
-47.3571576103
 20
15.300538947
 30
0.0
 11
-0.201477596
 21
0.2250533698
 31
0.0
 40
0.9931483514
 41
-0.7260027955
 42
0.8371973348
  0
ELLIPSE
  5
67C
100
AcDbEntity
  8
DRAFT
100
AcDbEllipse
 62
7
  6
CONTINUOUS
 10
-70.6170107875
 20
4.3657505151
 30
0.0
 11
7.0181754387
 21
-0.0
 31
0.0
 40
0.9999997085
 41
1.5715598289
 42
3.1415926536
  0
ELLIPSE
  5
67D
100
AcDbEntity
  8
DRAFT
100
AcDbEllipse
 62
7
  6
CONTINUOUS
 10
-59.6170043752
 20
4.3657505151
 30
0.0
 11
7.0265739656
 21
-0.0
 31
0.0
 40
0.9999997085
 41
0.0
 42
1.5715598289
  0
ELLIPSE
  5
67E
100
AcDbEntity
  8
DRAFT
100
AcDbEllipse
 62
7
  6
CONTINUOUS
 10
-59.6170043752
 20
-16.2342494849
 30
0.0
 11
7.0265739656
 21
-0.0
 31
0.0
 40
0.9999997085
 41
-1.5715598289
 42
-0.0
  0
ELLIPSE
  5
67F
100
AcDbEntity
  8
DRAFT
100
AcDbEllipse
 62
7
  6
CONTINUOUS
 10
-70.6170107875
 20
-16.2342494849
 30
0.0
 11
7.0181754387
 21
-0.0
 31
0.0
 40
0.9999997085
 41
-3.1415926536
 42
-1.5715598289
  0
ELLIPSE
  5
680
100
AcDbEntity
  8
RACCORDO
100
AcDbEllipse
 62
7
  6
CONTINUOUS
 10
-47.4962005542
 20
15.4395818909
 30
0.0
 11
0.2137495824
 21
-0.2137495824
 31
0.0
 40
0.9924325091
 41
2.3599925885
 42
3.9231927187
  0
ELLIPSE
  5
681
100
AcDbEntity
  8
RACCORDO
100
AcDbEllipse
 62
7
  6
CONTINUOUS
 10
-46.2992564243
 20
25.5783221771
 30
0.0
 11
-0.501606492
 21
-0.0175164847
 31
0.0
 40
0.9961900842
 41
3.1068189523
 42
4.7123889804
  0
ELLIPSE
  5
682
100
AcDbEntity
  8
RACCORDO
100
AcDbEllipse
 62
7
  6
CONTINUOUS
 10
-48.0916167492
 20
29.7349980858
 30
0.0
 11
1.0687479118
 21
-1.0687479118
 31
0.0
 40
0.9924325091
 41
2.3599925885
 42
3.9231927187
  0
ELLIPSE
  5
683
100
AcDbEntity
  8
RACCORDO
100
AcDbEllipse
 62
7
  6
CONTINUOUS
 10
-48.0916167492
 20
27.5169506639
 30
0.0
 11
1.5048194761
 21
0.0525494541
 31
0.0
 40
0.9961900842
 41
3.1068189523
 42
4.7123889804
  0
ELLIPSE
  5
684
100
AcDbEntity
  8
RACCORDO
100
AcDbEllipse
 62
7
  6
CONTINUOUS
 10
-45.4550315265
 20
27.821355541
 30
0.0
 11
1.8560254921
 21
0.7687909309
 31
0.0
 40
0.9955461673
 41
-0.3911233876
 42
0.3911233876
  0
ELLIPSE
  5
685
100
AcDbEntity
  8
RACCORDO
100
AcDbEllipse
 62
7
  6
CONTINUOUS
 10
-46.8667641525
 20
29.233088167
 30
0.0
 11
0.7687909309
 21
1.8560254921
 31
0.0
 40
0.9955461673
 41
-0.3911233876
 42
0.3911233876
  0
ELLIPSE
  5
686
100
AcDbEntity
  8
RACCORDO
100
AcDbEllipse
 62
7
  6
CONTINUOUS
 10
-45.1462459001
 20
11.848308203
 30
0.0
 11
0.2996701959
 21
-0.0298916691
 31
0.0
 40
0.9961570542
 41
-3.0425525286
 42
-1.4709956341
  0
ELLIPSE
  5
687
100
AcDbEntity
  8
RACCORDO
100
AcDbEllipse
 62
7
  6
CONTINUOUS
 10
-45.1462459001
 20
13.0896272368
 30
0.0
 11
0.2137495824
 21
-0.2137495824
 31
0.0
 40
0.9924325091
 41
2.3599925885
 42
3.9231927187
  0
ELLIPSE
  5
688
100
AcDbEntity
  8
RACCORDO
100
AcDbEllipse
 62
7
  6
CONTINUOUS
 10
-46.0984924568
 20
16.0418737934
 30
0.0
 11
-0.2137495824
 21
0.2137495824
 31
0.0
 40
0.9924325091
 41
2.3599925885
 42
3.9231927187
  0
ELLIPSE
  5
689
100
AcDbEntity
  8
RACCORDO
100
AcDbEllipse
 62
7
  6
CONTINUOUS
 10
-47.4962005542
 20
10.0919191393
 30
0.0
 11
0.2137495824
 21
0.2137495824
 31
0.0
 40
0.9924325091
 41
2.3599925885
 42
3.9231927187
  0
ENDSEC
  0
SECTION
  2
OBJECTS
  0
DICTIONARY
  5
C
100
AcDbDictionary
280
0
281
1
  3
ACAD_GROUP
350
D
  3
ACAD_MLINESTYLE
350
17
  3
ACAD_LAYOUT
350
1A
  3
ACAD_PLOTSETTINGS
350
19
  3
ACAD_PLOTSTYLENAME
350
E
  0
DICTIONARY
  5
D
102
{ACAD_REACTORS
330
C
102
}
100
AcDbDictionary
280
0
281
1
  0
ACDBDICTIONARYWDFLT
  5
E
102
{ACAD_REACTORS
330
C
102
}
100
AcDbDictionary
281
1
  3
Normal
350
F
100
AcDbDictionaryWithDefault
340
F
  0
DICTIONARY
  5
17
102
{ACAD_REACTORS
330
C
102
}
100
AcDbDictionary
280
0
281
1
  3
Standard
350
18
  0
DICTIONARY
  5
19
102
{ACAD_REACTORS
330
C
102
}
100
AcDbDictionary
281
1
  0
DICTIONARY
  5
1A
102
{ACAD_REACTORS
330
C
102
}
100
AcDbDictionary
281
1
  3
Model
350
68A
  3
Layout1
350
68B
  0
ACDBPLACEHOLDER
  5
F
102
{ACAD_REACTORS
330
E
102
}
  0
MLINESTYLE
  5
18
102
{ACAD_REACTORS
330
17
102
}
100
AcDbMlineStyle
  2
STANDARD
 70
0
  3

 62
256
 51
90.0
 52
90.0
 71
2
 49
0.5
 62
256
  6
BYLAYER
 49
-0.5
 62
256
  6
BYLAYER
  0
LAYOUT
  5
68A
102
{ACAD_REACTORS
330
1A
102
}
100
AcDbPlotSettings
  1

  2
none_device
  4
ISO_A4_(297.00_x_210.00_MM)
  6

 40
0.0
 41
0.0
 42
0.0
 43
0.0
 44
297.0
 45
210.0
 46
0.0
 47
0.0
 48
0.0
 49
0.0
140
0.0
141
0.0
142
1.0
143
1.0
 70
1024
 72
1
 73
0
 74
0
  7

 75
0
147
1.0
148
0.0
149
0.0
100
AcDbLayout
  1
Model
 70
0
 71
0
 10
0.0
 20
0.0
 11
297.0
 21
210.0
 12
0.0
 22
0.0
 32
0.0
 14
0.0
 24
0.0
 34
0.0
 15
0.0
 25
0.0
 35
0.0
146
0.0
 13
0.0
 23
0.0
 33
0.0
 16
1.0
 26
0.0
 36
0.0
 17
0.0
 27
1.0
 37
0.0
 76
0
330
214
345
0
346
0
  0
LAYOUT
  5
68B
102
{ACAD_REACTORS
330
1A
102
}
100
AcDbPlotSettings
  1

  2
none_device
  4
ISO_A4_(297.00_x_210.00_MM)
  6

 40
0.0
 41
0.0
 42
0.0
 43
0.0
 44
297.0
 45
210.0
 46
0.0
 47
0.0
 48
0.0
 49
0.0
140
0.0
141
0.0
142
1.0
143
1.0
 70
0
 72
1
 73
0
 74
0
  7

 75
0
147
1.0
148
0.0
149
0.0
100
AcDbLayout
  1
Layout1
 70
0
 71
1
 10
0.0
 20
0.0
 11
297.0
 21
210.0
 12
0.0
 22
0.0
 32
0.0
 14
0.0
 24
0.0
 34
0.0
 15
0.0
 25
0.0
 35
0.0
146
0.0
 13
0.0
 23
0.0
 33
0.0
 16
1.0
 26
0.0
 36
0.0
 17
0.0
 27
1.0
 37
0.0
 76
0
330
215
345
0
346
0
  0
ENDSEC
  0
EOF
