  0
SECTION
  2
HEADER
  9
$ACADVER
  1
AC1024
  9
$DWGCODEPAGE
  3
ANSI_1252
  9
$EXTMAX
 10
297.0
 20
210.0
 30
0.0
  9
$EXTMIN
 10
0.0
 20
0.0
 30
0.0
  9
$LIMMIN
 10
0.0
 20
0.0
  9
$LIMMAX
 10
297.0
 20
210.0
  9
$VIEWCTR
 10
148.5
 20
105.0
  9
$VIEWSIZE
 40
210.0
  9
$CLAYER
  8
0
  9
$LTSCALE
 40
16.335
  9
$CELTYPE
  6
BYLAYER
  9
$DIMSCALE
 40
1.0
  9
$DIMASZ
 40
3.0
  9
$DIMEXO
 40
0.5
  9
$DIMDLI
 40
11.286
  9
$DIMEXE
 40
1.5
  9
$DIMCEN
 40
2.673
  9
$DIMLFAC
 40
1.0
  9
$DIMBLK
  1
_FILLED
  9
$DIMALT
 70
0
  9
$DIMALTF
 40
0.0393700787
  9
$DIMTXT
 40
3.0
  9
$DIMTOL
 70
1
  9
$DIMLIM
 70
0
  9
$DIMTFAC
 40
1.0
  9
$DIMTP
 40
0.01
  9
$DIMTM
 40
0.01
  9
$DIMGAP
 40
0.625
  9
$DIMDSEP
 70
44
  9
$AUNITS
 70
0
  9
$PDMODE
 70
3
  9
$PDSIZE
 40
3.0
  9
$HANDSEED
  5
6A6
  9
$TILEMODE
 70
1
  9
$MEASUREMENT
 70
1
  9
$INSUNITS
 70
4
  0
ENDSEC
  0
SECTION
  2
CLASSES
  0
CLASS
  1
ACDBDICTIONARYWDFLT
  2
AcDbDictionaryWithDefault
  3
AutoCAD 2000
 90
0
 91
1
280
0
281
0
  0
CLASS
  1
ACDBPLACEHOLDER
  2
AcDbPlaceHolder
  3
AutoCAD 2000
 90
0
 91
1
280
0
281
0
  0
CLASS
  1
LAYOUT
  2
AcDbLayout
  3
AutoCAD 2000
 90
0
 91
0
280
0
281
0
  0
ENDSEC
  0
SECTION
  2
TABLES
  0
TABLE
  2
VPORT
  5
8
100
AcDbSymbolTable
 70
2
  0
VPORT
  5
1F4
100
AcDbSymbolTableRecord
100
AcDbViewportTableRecord
  2
*ACTIVE
 70
0
 10
0.0
 20
0.0
 11
1.0
 21
1.0
 12
148.5
 22
105.0
 13
0.0
 23
0.0
 14
1.0
 24
1.0
 15
0.0
 25
0.0
 16
0.0
 26
0.0
 36
1.0
 17
0.0
 27
0.0
 37
0.0
 40
210.0
 41
1.4142857143
 42
50.0
 43
0.0
 44
0.0
 50
0.0
 51
0.0
 71
0
 72
100
 73
1
 74
1
 75
0
 76
0
 77
0
 78
0
  0
ENDTAB
  0
TABLE
  2
LTYPE
  5
5
100
AcDbSymbolTable
 70
6
  0
LTYPE
  5
14
100
AcDbSymbolTableRecord
100
AcDbLinetypeTableRecord
  2
BYBLOCK
 70
0
  3

 72
65
 73
0
 40
0.0
  0
LTYPE
  5
15
100
AcDbSymbolTableRecord
100
AcDbLinetypeTableRecord
  2
BYLAYER
 70
0
  3

 72
65
 73
0
 40
0.0
  0
LTYPE
  5
16
100
AcDbSymbolTableRecord
100
AcDbLinetypeTableRecord
  2
CONTINUOUS
 70
64
  3
Solid line
 72
65
 73
0
 40
0.0
  0
LTYPE
  5
1F5
100
AcDbSymbolTableRecord
100
AcDbLinetypeTableRecord
  2
CENTER
 70
64
  3
____ _ ____ _ ____ _ ____ _ ____ _ ____ _ ____
 72
65
 73
4
 40
0.6
 49
0.375
 74
0
 49
-0.075
 74
0
 49
0.075
 74
0
 49
-0.075
 74
0
  0
LTYPE
  5
1F6
100
AcDbSymbolTableRecord
100
AcDbLinetypeTableRecord
  2
HIDDEN
 70
64
  3
- - - - - - - - - - - - - - - - - - - -
 72
65
 73
2
 40
0.2
 49
0.1
 74
0
 49
-0.1
 74
0
  0
LTYPE
  5
1F7
100
AcDbSymbolTableRecord
100
AcDbLinetypeTableRecord
  2
PHANTOM
 70
64
  3
_____ _ _ _____ _ _ _____ _ _ _____
 72
65
 73
6
 40
0.8
 49
0.45
 74
0
 49
-0.05
 74
0
 49
0.1
 74
0
 49
-0.05
 74
0
 49
0.1
 74
0
 49
-0.05
 74
0
  0
LTYPE
  5
1F8
100
AcDbSymbolTableRecord
100
AcDbLinetypeTableRecord
  2
DOT
 70
64
  3
. . . . . . . . . . . . . . . . . . . .
 72
65
 73
2
 40
0.2
 49
0.1
 74
0
 49
-0.1
 74
0
  0
LTYPE
  5
1F9
100
AcDbSymbolTableRecord
100
AcDbLinetypeTableRecord
  2
DASHED
 70
64
  3
- - - - - - - - - - - - - - - - - - - -
 72
65
 73
2
 40
0.2
 49
0.1
 74
0
 49
-0.1
 74
0
  0
ENDTAB
  0
TABLE
  2
LAYER
  5
2
100
AcDbSymbolTable
 70
36
  0
LAYER
  5
10
100
AcDbSymbolTableRecord
100
AcDbLayerTableRecord
  2
0
 70
0
 62
7
  6
CONTINUOUS
370
-3
390
F
  0
LAYER
  5
1FA
100
AcDbSymbolTableRecord
100
AcDbLayerTableRecord
  2
DEFAULT_1
 70
0
 62
7
  6
CENTER
370
-3
390
F
  0
LAYER
  5
1FB
100
AcDbSymbolTableRecord
100
AcDbLayerTableRecord
  2
DEFAULT_2
 70
0
 62
7
  6
HIDDEN
370
-3
390
F
  0
LAYER
  5
1FC
100
AcDbSymbolTableRecord
100
AcDbLayerTableRecord
  2
DEFAULT_3
 70
0
 62
7
  6
PHANTOM
370
-3
390
F
  0
LAYER
  5
1FD
100
AcDbSymbolTableRecord
100
AcDbLayerTableRecord
  2
ASSI
 70
0
 62
7
  6
CONTINUOUS
370
-3
390
F
  0
LAYER
  5
1FE
100
AcDbSymbolTableRecord
100
AcDbLayerTableRecord
  2
COORDINATE
 70
0
 62
7
  6
CONTINUOUS
370
-3
390
F
  0
LAYER
  5
1FF
100
AcDbSymbolTableRecord
100
AcDbLayerTableRecord
  2
COORD_ORIGINE
 70
0
 62
7
  6
CONTINUOUS
370
-3
390
F
  0
LAYER
  5
200
100
AcDbSymbolTableRecord
100
AcDbLayerTableRecord
  2
COSMETICI
 70
0
 62
7
  6
CONTINUOUS
370
-3
390
F
  0
LAYER
  5
201
100
AcDbSymbolTableRecord
100
AcDbLayerTableRecord
  2
CURVA_VIMAR
 70
0
 62
7
  6
CONTINUOUS
370
-3
390
F
  0
LAYER
  5
202
100
AcDbSymbolTableRecord
100
AcDbLayerTableRecord
  2
CURVE
 70
0
 62
7
  6
CONTINUOUS
370
-3
390
F
  0
LAYER
  5
203
100
AcDbSymbolTableRecord
100
AcDbLayerTableRecord
  2
DRAFT
 70
0
 62
7
  6
CONTINUOUS
370
-3
390
F
  0
LAYER
  5
204
100
AcDbSymbolTableRecord
100
AcDbLayerTableRecord
  2
IMPORT_IGES
 70
0
 62
7
  6
CONTINUOUS
370
-3
390
F
  0
LAYER
  5
205
100
AcDbSymbolTableRecord
100
AcDbLayerTableRecord
  2
INTF_1
 70
0
 62
7
  6
CONTINUOUS
370
-3
390
F
  0
LAYER
  5
206
100
AcDbSymbolTableRecord
100
AcDbLayerTableRecord
  2
INTF_7
 70
0
 62
7
  6
CONTINUOUS
370
-3
390
F
  0
LAYER
  5
207
100
AcDbSymbolTableRecord
100
AcDbLayerTableRecord
  2
NOTE
 70
0
 62
7
  6
CONTINUOUS
370
-3
390
F
  0
LAYER
  5
208
100
AcDbSymbolTableRecord
100
AcDbLayerTableRecord
  2
PIANI
 70
0
 62
7
  6
CONTINUOUS
370
-3
390
F
  0
LAYER
  5
209
100
AcDbSymbolTableRecord
100
AcDbLayerTableRecord
  2
PIANI_DI_RIFERIMENTO
 70
0
 62
7
  6
CONTINUOUS
370
-3
390
F
  0
LAYER
  5
20A
100
AcDbSymbolTableRecord
100
AcDbLayerTableRecord
  2
PIANI_ORIGINE
 70
0
 62
7
  6
CONTINUOUS
370
-3
390
F
  0
LAYER
  5
20B
100
AcDbSymbolTableRecord
100
AcDbLayerTableRecord
  2
PUNTI
 70
0
 62
7
  6
CONTINUOUS
370
-3
390
F
  0
LAYER
  5
20C
100
AcDbSymbolTableRecord
100
AcDbLayerTableRecord
  2
PUNZONE_ITERC
 70
0
 62
7
  6
CONTINUOUS
370
-3
390
F
  0
LAYER
  5
20D
100
AcDbSymbolTableRecord
100
AcDbLayerTableRecord
  2
RACCORDO
 70
0
 62
7
  6
CONTINUOUS
370
-3
390
F
  0
LAYER
  5
20E
100
AcDbSymbolTableRecord
100
AcDbLayerTableRecord
  2
RGB__255__255__255__
 70
0
 62
7
  6
CONTINUOUS
370
-3
390
F
  0
LAYER
  5
20F
100
AcDbSymbolTableRecord
100
AcDbLayerTableRecord
  2
RGB____0____0____0__
 70
0
 62
7
  6
CONTINUOUS
370
-3
390
F
  0
LAYER
  5
210
100
AcDbSymbolTableRecord
100
AcDbLayerTableRecord
  2
SIMBOLI
 70
0
 62
7
  6
CONTINUOUS
370
-3
390
F
  0
LAYER
  5
211
100
AcDbSymbolTableRecord
100
AcDbLayerTableRecord
  2
SNAPLINE
 70
0
 62
7
  6
CONTINUOUS
370
-3
390
F
  0
LAYER
  5
212
100
AcDbSymbolTableRecord
100
AcDbLayerTableRecord
  2
SUPERFICI
 70
0
 62
7
  6
CONTINUOUS
370
-3
390
F
  0
LAYER
  5
213
100
AcDbSymbolTableRecord
100
AcDbLayerTableRecord
  2
TRASH
 70
0
 62
7
  6
CONTINUOUS
370
-3
390
F
  0
LAYER
  5
214
100
AcDbSymbolTableRecord
100
AcDbLayerTableRecord
  2
XSEC_DATUMS
 70
0
 62
7
  6
CONTINUOUS
370
-3
390
F
  0
ENDTAB
  0
TABLE
  2
STYLE
  5
3
100
AcDbSymbolTable
 70
1
  0
STYLE
  5
11
100
AcDbSymbolTableRecord
100
AcDbTextStyleTableRecord
  2
STANDARD
 70
0
 40
0.0
 41
0.8
 50
0.0
 71
0
 42
0.2
  3
txt
  4

  0
STYLE
  5
215
100
AcDbSymbolTableRecord
100
AcDbTextStyleTableRecord
  2
TEXTSTYLE_1
 70
0
 40
0.0
 41
0.8
 50
0.0
 71
0
 42
0.2
  3
gdt
  4

  0
ENDTAB
  0
TABLE
  2
VIEW
  5
6
100
AcDbSymbolTable
 70
0
  0
ENDTAB
  0
TABLE
  2
UCS
  5
7
100
AcDbSymbolTable
 70
0
  0
ENDTAB
  0
TABLE
  2
APPID
  5
9
100
AcDbSymbolTable
 70
1
  0
APPID
  5
216
100
AcDbSymbolTableRecord
100
AcDbRegAppTableRecord
  2
ACAD
 70
0
  0
ENDTAB
  0
TABLE
  2
BLOCK_RECORD
  5
1
100
AcDbSymbolTable
 70
0
  0
BLOCK_RECORD
  5
217
100
AcDbSymbolTableRecord
100
AcDbBlockTableRecord
  2
*Model_Space
  0
BLOCK_RECORD
  5
218
100
AcDbSymbolTableRecord
100
AcDbBlockTableRecord
  2
*Paper_Space
  0
BLOCK_RECORD
  5
219
100
AcDbSymbolTableRecord
100
AcDbBlockTableRecord
  2
_FILLED
  0
BLOCK_RECORD
  5
21A
100
AcDbSymbolTableRecord
100
AcDbBlockTableRecord
  2
*D0
  0
BLOCK_RECORD
  5
21B
100
AcDbSymbolTableRecord
100
AcDbBlockTableRecord
  2
*D1
  0
BLOCK_RECORD
  5
21C
100
AcDbSymbolTableRecord
100
AcDbBlockTableRecord
  2
*D2
  0
ENDTAB
  0
TABLE
  2
DIMSTYLE
  5
A
100
AcDbSymbolTable
 70
1
100
AcDbDimStyleTable
 71
0
  0
DIMSTYLE
105
21D
100
AcDbSymbolTableRecord
100
AcDbDimStyleTableRecord
  2
STANDARD
 70
0
  3

  4

 40
1.0
 41
3.0
 42
0.5
 43
0.38
 44
1.5
 45
0.0
 46
0.0
 47
0.01
 48
0.01
140
3.0
141
0.09
142
0.0
143
25.4
144
1.0
145
0.0
146
1.0
147
0.625
 71
1
 72
0
 73
0
 74
0
 75
0
 76
0
 77
1
 78
8
 79
2
170
0
171
1
172
0
173
0
174
0
175
0
176
0
177
0
178
0
270
2
179
2
271
2
272
2
273
2
274
2
275
0
280
0
281
0
282
0
283
1
284
8
285
0
286
0
287
3
288
0
340
11
278
44
341
219
342
219
343
219
344
219
  0
DIMSTYLE
105
21E
100
AcDbSymbolTableRecord
100
AcDbDimStyleTableRecord
  2
DIMSTYLE_1
 70
0
  3

  4

 40
1.0
 41
3.0
 42
0.5
 43
0.38
 44
1.5
 45
0.0
 46
0.0
 47
0.0
 48
0.0
140
3.0
141
0.09
142
0.0
143
25.4
144
1.0
145
0.0
146
1.0
147
0.75
 71
0
 72
0
 73
0
 74
0
 75
0
 76
0
 77
1
 78
8
 79
2
170
0
171
1
172
0
173
0
174
0
175
0
176
0
177
0
178
0
270
2
179
2
271
2
272
2
273
2
274
2
275
0
280
0
281
0
282
0
283
1
284
8
285
0
286
0
287
3
288
0
340
11
278
44
341
219
342
219
343
219
344
219
  0
DIMSTYLE
105
21F
100
AcDbSymbolTableRecord
100
AcDbDimStyleTableRecord
  2
DIMSTYLE_2
 70
0
  3

  4

 40
1.0
 41
3.0
 42
0.5
 43
0.38
 44
1.5
 45
0.0
 46
0.0
 47
0.0
 48
0.0
140
3.0
141
0.09
142
0.0
143
25.4
144
1.0
145
0.0
146
1.0
147
0.75
 71
0
 72
0
 73
0
 74
0
 75
0
 76
0
 77
1
 78
8
 79
2
170
0
171
1
172
0
173
0
174
0
175
0
176
0
177
0
178
0
270
2
179
2
271
1
272
1
273
2
274
2
275
0
280
0
281
0
282
0
283
1
284
8
285
0
286
0
287
3
288
0
340
11
278
44
341
219
342
219
343
219
344
219
  0
ENDTAB
  0
ENDSEC
  0
SECTION
  2
BLOCKS
  0
BLOCK
  5
20
100
AcDbEntity
  8
0
100
AcDbBlockBegin
  2
*Model_Space
 70
0
 10
0.0
 20
0.0
 30
0.0
  3
*Model_Space
  1

  0
ENDBLK
  5
21
100
AcDbEntity
  8
0
100
AcDbBlockEnd
  0
BLOCK
  5
1C
100
AcDbEntity
  8
0
100
AcDbBlockBegin
  2
*Paper_Space
 70
0
 10
0.0
 20
0.0
 30
0.0
  3
*Paper_Space
  1

  0
ENDBLK
  5
1D
100
AcDbEntity
  8
0
100
AcDbBlockEnd
  0
BLOCK
  5
220
100
AcDbEntity
  8
0
100
AcDbBlockBegin
  2
_FILLED
 70
64
 10
0.0
 20
0.0
  3
_FILLED
  1

  0
SOLID
  5
221
100
AcDbEntity
  8
0
  6
BYBLOCK
 62
0
100
AcDbTrace
 10
0.0
 20
0.0
 11
-1.0
 21
0.3166666667
 12
-1.0
 22
-0.3166666667
 13
-1.0
 23
-0.3166666667
  0
ENDBLK
  5
222
100
AcDbEntity
  8
0
  6
BYBLOCK
 62
0
100
AcDbBlockEnd
  0
BLOCK
  5
223
100
AcDbEntity
  8
0
100
AcDbBlockBegin
 62
7
  6
CONTINUOUS
  2
*D0
 70
65
 10
0.0
 20
0.0
  3
*D0
  1

  0
LINE
  5
224
100
AcDbEntity
  8
0
100
AcDbLine
 62
7
  6
CONTINUOUS
 10
-72.5
 20
40.8004264211
 11
-72.5
 21
50.5
  0
LINE
  5
225
100
AcDbEntity
  8
0
100
AcDbLine
 62
7
  6
CONTINUOUS
 10
72.5
 20
40.8004264211
 11
72.5
 21
50.5
  0
LINE
  5
226
100
AcDbEntity
  8
0
100
AcDbLine
 62
7
  6
CONTINUOUS
 10
-72.5
 20
49.0
 11
0.0
 21
49.0
  0
LINE
  5
227
100
AcDbEntity
  8
0
100
AcDbLine
 62
7
  6
CONTINUOUS
 10
72.5
 20
49.0
 11
0.0
 21
49.0
  0
INSERT
  5
228
100
AcDbEntity
  8
0
100
AcDbBlockReference
 62
7
  6
CONTINUOUS
  2
_FILLED
 10
-72.5
 20
49.0
 41
3.0
 42
3.0
 43
3.0
 50
180.0
  0
INSERT
  5
229
100
AcDbEntity
  8
0
100
AcDbBlockReference
 62
7
  6
CONTINUOUS
  2
_FILLED
 10
72.5
 20
49.0
 41
3.0
 42
3.0
 43
3.0
 50
0.0
  0
ENDBLK
  5
22A
100
AcDbEntity
  8
0
  6
BYBLOCK
 62
0
100
AcDbBlockEnd
  0
BLOCK
  5
22B
100
AcDbEntity
  8
0
100
AcDbBlockBegin
 62
7
  6
CONTINUOUS
  2
*D1
 70
65
 10
0.0
 20
0.0
  3
*D1
  1

  0
LINE
  5
22C
100
AcDbEntity
  8
0
100
AcDbLine
 62
7
  6
CONTINUOUS
 10
-84.8001139664
 20
40.8004264211
 11
-84.8001139664
 21
50.5
  0
LINE
  5
22D
100
AcDbEntity
  8
0
100
AcDbLine
 62
7
  6
CONTINUOUS
 10
-94.0501139664
 20
0.5
 11
-94.0501139664
 21
50.5
  0
LINE
  5
22E
100
AcDbEntity
  8
0
100
AcDbLine
 62
7
  6
CONTINUOUS
 10
-84.8001139664
 20
49.0
 11
-80.8001139664
 21
49.0
  0
LINE
  5
22F
100
AcDbEntity
  8
0
100
AcDbLine
 62
7
  6
CONTINUOUS
 10
-80.8001139664
 20
49.0
 11
-89.4251139664
 21
49.0
  0
LINE
  5
230
100
AcDbEntity
  8
0
100
AcDbLine
 62
7
  6
CONTINUOUS
 10
-94.0501139664
 20
49.0
 11
-98.0501139664
 21
49.0
  0
LINE
  5
231
100
AcDbEntity
  8
0
100
AcDbLine
 62
7
  6
CONTINUOUS
 10
-98.0501139664
 20
49.0
 11
-89.4251139664
 21
49.0
  0
INSERT
  5
232
100
AcDbEntity
  8
0
100
AcDbBlockReference
 62
7
  6
CONTINUOUS
  2
_FILLED
 10
-84.8001139664
 20
49.0
 41
3.0
 42
3.0
 43
3.0
 50
180.0
  0
INSERT
  5
233
100
AcDbEntity
  8
0
100
AcDbBlockReference
 62
7
  6
CONTINUOUS
  2
_FILLED
 10
-94.0501139664
 20
49.0
 41
3.0
 42
3.0
 43
3.0
  0
ENDBLK
  5
234
100
AcDbEntity
  8
0
  6
BYBLOCK
 62
0
100
AcDbBlockEnd
  0
BLOCK
  5
235
100
AcDbEntity
  8
0
100
AcDbBlockBegin
 62
7
  6
CONTINUOUS
  2
*D2
 70
65
 10
0.0
 20
0.0
  3
*D2
  1

  0
LINE
  5
236
100
AcDbEntity
  8
0
100
AcDbLine
 62
7
  6
CONTINUOUS
 10
-85.3001139664
 20
41.0
 11
-103.5501139664
 21
41.0
  0
LINE
  5
237
100
AcDbEntity
  8
0
100
AcDbLine
 62
7
  6
CONTINUOUS
 10
-85.3001139664
 20
-41.0
 11
-103.5501139664
 21
-41.0
  0
LINE
  5
238
100
AcDbEntity
  8
0
100
AcDbLine
 62
7
  6
CONTINUOUS
 10
-102.0501139664
 20
41.0
 11
-102.0501139664
 21
0.0
  0
LINE
  5
239
100
AcDbEntity
  8
0
100
AcDbLine
 62
7
  6
CONTINUOUS
 10
-102.0501139664
 20
-41.0
 11
-102.0501139664
 21
0.0
  0
INSERT
  5
23A
100
AcDbEntity
  8
0
100
AcDbBlockReference
 62
7
  6
CONTINUOUS
  2
_FILLED
 10
-102.0501139664
 20
41.0
 41
3.0
 42
3.0
 43
3.0
 50
90.0
  0
INSERT
  5
23B
100
AcDbEntity
  8
0
100
AcDbBlockReference
 62
7
  6
CONTINUOUS
  2
_FILLED
 10
-102.0501139664
 20
-41.0
 41
3.0
 42
3.0
 43
3.0
 50
270.0
  0
ENDBLK
  5
23C
100
AcDbEntity
  8
0
  6
BYBLOCK
 62
0
100
AcDbBlockEnd
  0
ENDSEC
  0
SECTION
  2
ENTITIES
  0
DIMENSION
  5
23D
100
AcDbEntity
  8
0
100
AcDbDimension
 62
7
  6
CONTINUOUS
  2
*D0
 10
72.5
 20
49.0
 11
-3.1071428571
 21
49.0
 70
160
 71
2
 72
2
 41
0.9
 42
145.0
  3
DIMSTYLE_1
100
AcDbAlignedDimension
 13
-72.5
 23
40.3004264211
 14
72.5
 24
40.3004264211
100
AcDbRotatedDimension
  0
DIMENSION
  5
23E
100
AcDbEntity
  8
0
100
AcDbDimension
 62
7
  6
CONTINUOUS
  2
*D1
 10
-94.0501139664
 20
49.0
 11
-92.5322568235
 21
49.0
 70
160
 71
2
 72
2
 41
0.9
 42
9.25
  3
DIMSTYLE_2
100
AcDbAlignedDimension
 13
-84.8001139664
 23
40.3004264211
 14
-94.0501139664
 24
0.0
 50
180.0
100
AcDbRotatedDimension
  0
DIMENSION
  5
23F
100
AcDbEntity
  8
0
100
AcDbDimension
 62
7
  6
CONTINUOUS
  2
*D2
 10
-102.0501139664
 20
-41.0
 11
-102.0501139664
 21
-2.3571428571
 70
160
 71
2
 72
2
 41
0.9
 42
82.0
  3
DIMSTYLE_1
100
AcDbAlignedDimension
 13
-84.8001139664
 23
41.0
 14
-84.8001139664
 24
-41.0
 50
270.0
100
AcDbRotatedDimension
  0
LWPOLYLINE
  5
240
100
AcDbEntity
  8
RACCORDO
100
AcDbPolyline
 62
250
  6
CONTINUOUS
 90
12
 70
0
 10
-71.5746141022
 20
-40.7405673083
 10
-71.5743399917
 20
-40.7453190956
 10
-71.5740693386
 20
-40.7496796348
 10
-71.5737991598
 20
-40.7536508638
 10
-71.5735216522
 20
-40.7572321978
 10
-71.5732465683
 20
-40.7604157547
 10
-71.5729726781
 20
-40.7632036199
 10
-71.5726932234
 20
-40.7655956638
 10
-71.5724151677
 20
-40.7675859224
 10
-71.5721407204
 20
-40.7691746413
 10
-71.5718633953
 20
-40.7703641129
 10
-71.5715794407
 20
-40.7711530197
  0
LWPOLYLINE
  5
241
100
AcDbEntity
  8
RACCORDO
100
AcDbPolyline
 62
250
  6
CONTINUOUS
 90
3
 70
0
 10
-71.5754132705
 20
-40.7240206299
 10
-71.5751440309
 20
-40.7299180088
 10
-71.5746141022
 20
-40.7405673083
  0
LINE
  5
242
100
AcDbEntity
  8
RACCORDO
100
AcDbLine
 62
250
  6
CONTINUOUS
 10
-71.5761925212
 20
-40.7040964368
 11
-71.5754132705
 21
-40.7240206299
  0
LINE
  5
243
100
AcDbEntity
  8
RACCORDO
100
AcDbLine
 62
250
  6
CONTINUOUS
 10
-71.5769478249
 20
-40.6808978356
 11
-71.5761925212
 21
-40.7040964368
  0
LINE
  5
244
100
AcDbEntity
  8
RACCORDO
100
AcDbLine
 62
250
  6
CONTINUOUS
 10
-71.5779074471
 20
-40.6450823755
 11
-71.5769478249
 21
-40.6808978356
  0
LINE
  5
245
100
AcDbEntity
  8
RACCORDO
100
AcDbLine
 62
250
  6
CONTINUOUS
 10
-71.5790318411
 20
-40.5929373207
 11
-71.5779074471
 21
-40.6450823755
  0
LINE
  5
246
100
AcDbEntity
  8
RACCORDO
100
AcDbLine
 62
250
  6
CONTINUOUS
 10
-71.5804149208
 20
-40.5075360088
 11
-71.5790318411
 21
-40.5929373207
  0
LWPOLYLINE
  5
247
100
AcDbEntity
  8
RACCORDO
100
AcDbPolyline
 62
250
  6
CONTINUOUS
 90
70
 70
0
 10
-72.2711530197
 20
-40.0715794407
 10
-72.2709526763
 20
-40.0874905589
 10
-72.270390493
 20
-40.1033937366
 10
-72.2694667407
 20
-40.1192807452
 10
-72.2681818677
 20
-40.13514346
 10
-72.2665365242
 20
-40.1509735752
 10
-72.2645315842
 20
-40.1667626102
 10
-72.2621681021
 20
-40.1825023003
 10
-72.2594472882
 20
-40.1981845968
 10
-72.2563705483
 20
-40.213801383
 10
-72.2529394735
 20
-40.2293445773
 10
-72.24915584
 20
-40.2448061381
 10
-72.2450216066
 20
-40.260178066
 10
-72.2405389127
 20
-40.2754524074
 10
-72.2357100775
 20
-40.2906212585
 10
-72.2305375993
 20
-40.3056767702
 10
-72.2250241543
 20
-40.3206111519
 10
-72.2191725956
 20
-40.3354166765
 10
-72.2129859509
 20
-40.350085683
 10
-72.2064674215
 20
-40.3646105814
 10
-72.1996203804
 20
-40.3789838558
 10
-72.1924483702
 20
-40.3931980692
 10
-72.1849551022
 20
-40.4072458665
 10
-72.1771444534
 20
-40.421119979
 10
-72.1690204654
 20
-40.4348132277
 10
-72.1605873419
 20
-40.4483185274
 10
-72.1518494464
 20
-40.46162889
 10
-72.1428113002
 20
-40.4747374281
 10
-72.1334775798
 20
-40.4876373591
 10
-72.123853115
 20
-40.5003220081
 10
-72.1139428856
 20
-40.5127848116
 10
-72.1037520195
 20
-40.525019321
 10
-72.0932857899
 20
-40.5370192056
 10
-72.0825496123
 20
-40.5487782565
 10
-72.071549042
 20
-40.560290389
 10
-72.060289771
 20
-40.5715496464
 10
-72.0487776252
 20
-40.5825502029
 10
-72.0370185613
 20
-40.5932863662
 10
-72.025018664
 20
-40.6037525813
 10
-72.0127841424
 20
-40.6139434325
 10
-72.000321327
 20
-40.6238536468
 10
-71.9876366664
 20
-40.6334780963
 10
-71.9747367242
 20
-40.642811801
 10
-71.9616281751
 20
-40.6518499314
 10
-71.948317802
 20
-40.6605878107
 10
-71.9348124922
 20
-40.6690209178
 10
-71.9211192336
 20
-40.677144889
 10
-71.9072451117
 20
-40.6849555208
 10
-71.8931973053
 20
-40.6924487717
 10
-71.8789830833
 20
-40.6996207645
 10
-71.8646098005
 20
-40.7064677881
 10
-71.8500848942
 20
-40.7129862996
 10
-71.8354158801
 20
-40.7191729262
 10
-71.8206103483
 20
-40.7250244666
 10
-71.8056759598
 20
-40.7305378932
 10
-71.790620442
 20
-40.735710353
 10
-71.7754515852
 20
-40.7405391698
 10
-71.7601772383
 20
-40.7450218448
 10
-71.7448053048
 20
-40.7491560588
 10
-71.7293437386
 20
-40.7529396725
 10
-71.7138005399
 20
-40.7563707279
 10
-71.698183751
 20
-40.7594474495
 10
-71.6825014527
 20
-40.7621682455
 10
-71.6667617601
 20
-40.7645317087
 10
-71.6509726891
 20
-40.7665366311
 10
-71.6351425371
 20
-40.7681819544
 10
-71.6192798825
 20
-40.7694667999
 10
-71.603393064
 20
-40.7703905231
 10
-71.587490174
 20
-40.7709526844
 10
-71.5715794407
 20
-40.7711530197
  0
LINE
  5
248
100
AcDbEntity
  8
RACCORDO
100
AcDbLine
 62
250
  6
CONTINUOUS
 10
-72.2711530197
 20
40.0715794407
 11
-72.2624357715
 21
37.4076452439
  0
LINE
  5
249
100
AcDbEntity
  8
RACCORDO
100
AcDbLine
 62
250
  6
CONTINUOUS
 10
-71.5831020457
 20
40.1390855945
 11
-71.5743749638
 21
37.4706798362
  0
LINE
  5
24A
100
AcDbEntity
  8
RACCORDO
100
AcDbLine
 62
250
  6
CONTINUOUS
 10
-72.2624357715
 20
37.4076452439
 11
-72.2543182492
 21
34.742193222
  0
LINE
  5
24B
100
AcDbEntity
  8
RACCORDO
100
AcDbLine
 62
250
  6
CONTINUOUS
 10
-71.5743749638
 20
37.4706798362
 11
-71.5662482887
 21
34.8007136247
  0
LINE
  5
24C
100
AcDbEntity
  8
RACCORDO
100
AcDbLine
 62
250
  6
CONTINUOUS
 10
-72.2543182492
 20
34.742193222
 11
-72.2432668429
 21
30.74130312
  0
LWPOLYLINE
  5
24D
100
AcDbEntity
  8
RACCORDO
100
AcDbPolyline
 62
250
  6
CONTINUOUS
 90
3
 70
0
 10
-71.5831020457
 20
-40.1390855945
 10
-71.5830058237
 20
-40.1724191667
 10
-71.5804149208
 20
-40.5075360088
  0
LINE
  5
24E
100
AcDbEntity
  8
RACCORDO
100
AcDbLine
 62
250
  6
CONTINUOUS
 10
-71.5662482887
 20
34.8007136247
 11
-71.5551844269
 21
30.7930839578
  0
LINE
  5
24F
100
AcDbEntity
  8
RACCORDO
100
AcDbLine
 62
250
  6
CONTINUOUS
 10
-72.2432668429
 20
30.74130312
 11
-72.2335663556
 21
26.7375400448
  0
LINE
  5
250
100
AcDbEntity
  8
RACCORDO
100
AcDbLine
 62
250
  6
CONTINUOUS
 10
-71.5551844269
 20
30.7930839578
 11
-71.5454730059
 21
26.7825762618
  0
LINE
  5
251
100
AcDbEntity
  8
RACCORDO
100
AcDbLine
 62
250
  6
CONTINUOUS
 10
-72.2335663556
 20
26.7375400448
 11
-72.2252176921
 21
22.7312780319
  0
LINE
  5
252
100
AcDbEntity
  8
RACCORDO
100
AcDbLine
 62
250
  6
CONTINUOUS
 10
-71.5454730059
 20
26.7825762618
 11
-71.5371149324
 21
22.7695654341
  0
LINE
  5
253
100
AcDbEntity
  8
RACCORDO
100
AcDbLine
 62
250
  6
CONTINUOUS
 10
-72.2252176921
 20
22.7312780319
 11
-72.2182216319
 21
18.7228916211
  0
LINE
  5
254
100
AcDbEntity
  8
RACCORDO
100
AcDbLine
 62
250
  6
CONTINUOUS
 10
-71.5371149324
 20
22.7695654341
 11
-71.5301109868
 21
18.7544266452
  0
LINE
  5
255
100
AcDbEntity
  8
RACCORDO
100
AcDbLine
 62
250
  6
CONTINUOUS
 10
-72.2182216319
 20
18.7228916211
 11
-72.2125788273
 21
14.7127549624
  0
LINE
  5
256
100
AcDbEntity
  8
RACCORDO
100
AcDbLine
 62
250
  6
CONTINUOUS
 10
-71.5301109868
 20
18.7544266452
 11
-71.5244618221
 21
14.7375346751
  0
LINE
  5
257
100
AcDbEntity
  8
RACCORDO
100
AcDbLine
 62
250
  6
CONTINUOUS
 10
-72.2125788273
 20
14.7127549624
 11
-72.2095690247
 21
12.0385384853
  0
LINE
  5
258
100
AcDbEntity
  8
RACCORDO
100
AcDbLine
 62
250
  6
CONTINUOUS
 10
-71.5244618221
 20
14.7375346751
 11
-71.5214486271
 21
12.0588179666
  0
LINE
  5
259
100
AcDbEntity
  8
RACCORDO
100
AcDbLine
 62
250
  6
CONTINUOUS
 10
-72.2095690247
 20
12.0385384853
 11
-72.2061827567
 21
8.0263175295
  0
LINE
  5
25A
100
AcDbEntity
  8
RACCORDO
100
AcDbLine
 62
250
  6
CONTINUOUS
 10
-71.5214486271
 20
12.0588179666
 11
-71.5180585424
 21
8.0398382144
  0
LINE
  5
25B
100
AcDbEntity
  8
RACCORDO
100
AcDbLine
 62
250
  6
CONTINUOUS
 10
-72.2061827567
 20
8.0263175295
 11
-72.2041508694
 21
4.0133463551
  0
LINE
  5
25C
100
AcDbEntity
  8
RACCORDO
100
AcDbLine
 62
250
  6
CONTINUOUS
 10
-71.5180585424
 20
8.0398382144
 11
-71.516024365
 21
4.0201069939
  0
LINE
  5
25D
100
AcDbEntity
  8
RACCORDO
100
AcDbLine
 62
7
  6
CONTINUOUS
 10
-72.5
 20
-40.3004264211
 11
-72.5
 21
-4.1331429141
  0
LINE
  5
25E
100
AcDbEntity
  8
RACCORDO
100
AcDbLine
 62
7
  6
CONTINUOUS
 10
-72.5
 20
4.1331429141
 11
-72.5
 21
40.3004264211
  0
LINE
  5
25F
100
AcDbEntity
  8
RACCORDO
100
AcDbLine
 62
7
  6
CONTINUOUS
 10
-72.430158461
 20
-3.2251006478
 11
-72.430158461
 21
3.2251006478
  0
LINE
  5
260
100
AcDbEntity
  8
RACCORDO
100
AcDbLine
 62
250
  6
CONTINUOUS
 10
-72.2041508694
 20
4.0133463551
 11
-72.2034735525
 21
0.0000000748
  0
LINE
  5
261
100
AcDbEntity
  8
RACCORDO
100
AcDbLine
 62
250
  6
CONTINUOUS
 10
-71.516024365
 20
4.0201069939
 11
-71.5153462847
 21
0.0000000493
  0
LINE
  5
262
100
AcDbEntity
  8
RACCORDO
100
AcDbLine
 62
250
  6
CONTINUOUS
 10
-72.2034735525
 20
0.0000000748
 11
-72.2037745869
 21
-2.6755918986
  0
LINE
  5
263
100
AcDbEntity
  8
RACCORDO
100
AcDbLine
 62
250
  6
CONTINUOUS
 10
-71.5153462847
 20
0.0000000493
 11
-71.5156476584
 21
-2.6800944394
  0
LINE
  5
264
100
AcDbEntity
  8
RACCORDO
100
AcDbLine
 62
250
  6
CONTINUOUS
 10
-72.2037745869
 20
-2.6755918986
 11
-72.2046776643
 21
-5.3510588371
  0
LINE
  5
265
100
AcDbEntity
  8
RACCORDO
100
AcDbLine
 62
250
  6
CONTINUOUS
 10
-71.5156476584
 20
-2.6800944394
 11
-71.5165517536
 21
-5.3600776053
  0
LINE
  5
266
100
AcDbEntity
  8
RACCORDO
100
AcDbLine
 62
250
  6
CONTINUOUS
 10
-72.2046776643
 20
-5.3510588371
 11
-72.2061827566
 21
-8.0263173831
  0
LINE
  5
267
100
AcDbEntity
  8
RACCORDO
100
AcDbLine
 62
250
  6
CONTINUOUS
 10
-71.5165517536
 20
-5.3600776053
 11
-71.5180585423
 21
-8.0398381155
  0
LWPOLYLINE
  5
268
100
AcDbEntity
  8
RACCORDO
100
AcDbPolyline
 62
250
  6
CONTINUOUS
 90
3
 70
0
 10
-72.2061827566
 20
-8.0263173831
 10
-72.2082898052
 20
-10.7012425119
 10
-72.2095690245
 20
-12.0385383414
  0
LWPOLYLINE
  5
269
100
AcDbEntity
  8
RACCORDO
100
AcDbPolyline
 62
250
  6
CONTINUOUS
 90
3
 70
0
 10
-71.5180585423
 20
-8.0398381155
 10
-71.5201679659
 20
-10.7192646568
 10
-71.521448627
 20
-12.0588178684
  0
LWPOLYLINE
  5
26A
100
AcDbEntity
  8
RACCORDO
100
AcDbPolyline
 62
250
  6
CONTINUOUS
 90
3
 70
0
 10
-72.2095690245
 20
-12.0385383414
 10
-72.2125788272
 20
-14.71275482
 10
-72.2143093566
 20
-16.0496337948
  0
LWPOLYLINE
  5
26B
100
AcDbEntity
  8
RACCORDO
100
AcDbPolyline
 62
250
  6
CONTINUOUS
 90
3
 70
0
 10
-71.521448627
 20
-12.0588178684
 10
-71.524461822
 20
-14.7375345771
 10
-71.526194302
 20
-16.0766702345
  0
LWPOLYLINE
  5
26C
100
AcDbEntity
  8
RACCORDO
100
AcDbPolyline
 62
250
  6
CONTINUOUS
 90
3
 70
0
 10
-72.2143093566
 20
-16.0496337948
 10
-72.2182216317
 20
-18.7228914791
 10
-72.2204033095
 20
-20.0592286206
  0
LWPOLYLINE
  5
26D
100
AcDbEntity
  8
RACCORDO
100
AcDbPolyline
 62
250
  6
CONTINUOUS
 90
3
 70
0
 10
-71.526194302
 20
-16.0766702345
 10
-71.5301109866
 20
-18.754426546
 10
-71.5322951235
 20
-20.0930194597
  0
LWPOLYLINE
  5
26E
100
AcDbEntity
  8
RACCORDO
100
AcDbPolyline
 62
250
  6
CONTINUOUS
 90
3
 70
0
 10
-72.2204033095
 20
-20.0592286206
 10
-72.2252176918
 20
-22.7312778902
 10
-72.2278503145
 20
-24.0669484536
  0
LWPOLYLINE
  5
26F
100
AcDbEntity
  8
RACCORDO
100
AcDbPolyline
 62
250
  6
CONTINUOUS
 90
3
 70
0
 10
-71.5322951235
 20
-20.0930194597
 10
-71.5371149322
 20
-22.7695653335
 10
-71.5397505222
 20
-24.1074905483
  0
LINE
  5
270
100
AcDbEntity
  8
RACCORDO
100
AcDbLine
 62
250
  6
CONTINUOUS
 10
-72.2278503145
 20
-24.0669484536
 11
-72.2335663553
 21
-26.7375399066
  0
LINE
  5
271
100
AcDbEntity
  8
RACCORDO
100
AcDbLine
 62
250
  6
CONTINUOUS
 10
-71.5397505222
 20
-24.1074905483
 11
-71.5454730056
 21
-26.7825761629
  0
LWPOLYLINE
  5
272
100
AcDbEntity
  8
RACCORDO
100
AcDbPolyline
 62
250
  6
CONTINUOUS
 90
3
 70
0
 10
-72.2335663553
 20
-26.7375399066
 10
-72.2398831746
 20
-29.4070068345
 10
-72.2432668426
 20
-30.7413029885
  0
LWPOLYLINE
  5
273
100
AcDbEntity
  8
RACCORDO
100
AcDbPolyline
 62
250
  6
CONTINUOUS
 90
3
 70
0
 10
-71.5454730056
 20
-26.7825761629
 10
-71.5517969449
 20
-29.4565492487
 10
-71.5551844266
 20
-30.7930838639
  0
LWPOLYLINE
  5
274
100
AcDbEntity
  8
RACCORDO
100
AcDbPolyline
 62
250
  6
CONTINUOUS
 90
3
 70
0
 10
-72.2432668426
 20
-30.7413029885
 10
-72.2504843797
 20
-33.4088961157
 10
-72.2543182488
 20
-34.742193089
  0
LWPOLYLINE
  5
275
100
AcDbEntity
  8
RACCORDO
100
AcDbPolyline
 62
250
  6
CONTINUOUS
 90
3
 70
0
 10
-71.5551844266
 20
-30.7930838639
 10
-71.5624100985
 20
-33.4651798816
 10
-71.5662482884
 20
-34.8007135302
  0
LWPOLYLINE
  5
276
100
AcDbEntity
  8
RACCORDO
100
AcDbPolyline
 62
250
  6
CONTINUOUS
 90
4
 70
0
 10
-72.2543182488
 20
-34.742193089
 10
-72.2624357712
 20
-37.4076451497
 10
-72.2667194246
 20
-38.739800237
 10
-72.2711530197
 20
-40.0715794407
  0
LWPOLYLINE
  5
277
100
AcDbEntity
  8
RACCORDO
100
AcDbPolyline
 62
250
  6
CONTINUOUS
 90
4
 70
0
 10
-71.5662482884
 20
-34.8007135302
 10
-71.5743749636
 20
-37.4706797694
 10
-71.5786634488
 20
-38.8050846297
 10
-71.5831020457
 20
-40.1390855945
  0
LINE
  5
278
100
AcDbEntity
  8
RACCORDO
100
AcDbLine
 62
250
  6
CONTINUOUS
 10
-71.5831020457
 20
40.1390855945
 11
-71.5828342873
 21
40.2219677963
  0
LINE
  5
279
100
AcDbEntity
  8
RACCORDO
100
AcDbLine
 62
250
  6
CONTINUOUS
 10
-71.5828342873
 20
40.2219677963
 11
-71.5825971075
 21
40.27073549
  0
LINE
  5
27A
100
AcDbEntity
  8
RACCORDO
100
AcDbLine
 62
250
  6
CONTINUOUS
 10
-71.5825971075
 20
40.27073549
 11
-71.5823028616
 21
40.3184722038
  0
LINE
  5
27B
100
AcDbEntity
  8
RACCORDO
100
AcDbLine
 62
250
  6
CONTINUOUS
 10
-71.5823028616
 20
40.3184722038
 11
-71.5819530777
 21
40.3649308208
  0
LINE
  5
27C
100
AcDbEntity
  8
RACCORDO
100
AcDbLine
 62
250
  6
CONTINUOUS
 10
-71.5819530777
 20
40.3649308208
 11
-71.5810944497
 21
40.4530596296
  0
LINE
  5
27D
100
AcDbEntity
  8
RACCORDO
100
AcDbLine
 62
250
  6
CONTINUOUS
 10
-71.5810944497
 20
40.4530596296
 11
-71.5805900739
 21
40.4942736144
  0
LINE
  5
27E
100
AcDbEntity
  8
RACCORDO
100
AcDbLine
 62
250
  6
CONTINUOUS
 10
-71.5805900739
 20
40.4942736144
 11
-71.5794443231
 21
40.5699351098
  0
LINE
  5
27F
100
AcDbEntity
  8
RACCORDO
100
AcDbLine
 62
250
  6
CONTINUOUS
 10
-71.5794443231
 20
40.5699351098
 11
-71.5776752849
 21
40.6545448921
  0
LINE
  5
280
100
AcDbEntity
  8
RACCORDO
100
AcDbLine
 62
250
  6
CONTINUOUS
 10
-71.5776752849
 20
40.6545448921
 11
-71.5769478251
 21
40.680897829
  0
LINE
  5
281
100
AcDbEntity
  8
RACCORDO
100
AcDbLine
 62
250
  6
CONTINUOUS
 10
-71.5769478251
 20
40.680897829
 11
-71.5761925214
 21
40.7040964316
  0
LINE
  5
282
100
AcDbEntity
  8
RACCORDO
100
AcDbLine
 62
250
  6
CONTINUOUS
 10
-71.5761925214
 20
40.7040964316
 11
-71.5754132707
 21
40.7240206261
  0
LWPOLYLINE
  5
283
100
AcDbEntity
  8
RACCORDO
100
AcDbPolyline
 62
250
  6
CONTINUOUS
 90
14
 70
0
 10
-71.5754132707
 20
40.7240206261
 10
-71.5748792193
 20
40.7354331383
 10
-71.5746141024
 20
40.7405673057
 10
-71.5743399918
 20
40.7453190934
 10
-71.5740693387
 20
40.749679633
 10
-71.5737991599
 20
40.7536508623
 10
-71.5735216523
 20
40.7572321966
 10
-71.5732465684
 20
40.7604157538
 10
-71.5729726782
 20
40.7632036192
 10
-71.5726932235
 20
40.7655956634
 10
-71.5724151678
 20
40.7675859222
 10
-71.5721407205
 20
40.7691746411
 10
-71.5718633953
 20
40.7703641129
 10
-71.5715794407
 20
40.7711530197
  0
LINE
  5
284
100
AcDbEntity
  8
RACCORDO
100
AcDbLine
 62
7
  6
CONTINUOUS
 10
-72.4840613881
 20
-3.635045565
 11
-72.4397216282
 21
-3.5239590572
  0
LINE
  5
285
100
AcDbEntity
  8
RACCORDO
100
AcDbLine
 62
7
  6
CONTINUOUS
 10
-72.4840613881
 20
3.635045565
 11
-72.4397216282
 21
3.5239590572
  0
LINE
  5
286
100
AcDbEntity
  8
RACCORDO
100
AcDbLine
 62
7
  6
CONTINUOUS
 10
-50.987469967
 20
40.1391612329
 11
-50.9646241783
 21
40.1618171099
  0
LWPOLYLINE
  5
287
100
AcDbEntity
  8
RACCORDO
100
AcDbPolyline
 62
7
  6
CONTINUOUS
 90
61
 70
0
 10
-50.9646241783
 20
40.1618171099
 10
-50.9640017834
 20
40.1624130711
 10
-50.9633453475
 20
40.1630039778
 10
-50.9626548707
 20
40.163589831
 10
-50.9619285895
 20
40.1641714944
 10
-50.9611682669
 20
40.1647481067
 10
-50.9603791919
 20
40.165317083
 10
-50.9595618045
 20
40.1658778265
 10
-50.9587156641
 20
40.1664309384
 10
-50.9578447387
 20
40.1669756313
 10
-50.9569510955
 20
40.1675108478
 10
-50.9560326667
 20
40.1680376503
 10
-50.9550872176
 20
40.1685584306
 10
-50.9541155868
 20
40.1690732013
 10
-50.9531169353
 20
40.169581953
 10
-50.9520865124
 20
40.1700870432
 10
-50.951024447
 20
40.1705888148
 10
-50.9499306101
 20
40.1710869266
 10
-50.9487998646
 20
40.1715827077
 10
-50.9476323393
 20
40.1720764251
 10
-50.9464279053
 20
40.1725678127
 10
-50.9451810397
 20
40.1730574
 10
-50.9438917826
 20
40.1735454496
 10
-50.9425600938
 20
40.1740316995
 10
-50.9411803294
 20
40.1745158912
 10
-50.9397524139
 20
40.1749982978
 10
-50.9382764228
 20
40.175478647
 10
-50.9367469391
 20
40.175955863
 10
-50.9351637135
 20
40.176430232
 10
-50.9335269951
 20
40.1769014692
 10
-50.9318321143
 20
40.1773676424
 10
-50.9300786036
 20
40.1778290335
 10
-50.9282669302
 20
40.1782853633
 10
-50.926393827
 20
40.1787338592
 10
-50.9244597656
 20
40.1791745746
 10
-50.9224642738
 20
40.1796074604
 10
-50.9204026686
 20
40.1800295915
 10
-50.9182768168
 20
40.1804409427
 10
-50.9160848509
 20
40.1808415452
 10
-50.9138164862
 20
40.1812285604
 10
-50.9114711924
 20
40.1816025219
 10
-50.9090494989
 20
40.1819629029
 10
-50.9065427107
 20
40.1823052765
 10
-50.9039504088
 20
40.1826300904
 10
-50.9012730112
 20
40.182936905
 10
-50.898503078
 20
40.1832199636
 10
-50.8956403668
 20
40.1834797049
 10
-50.8926851191
 20
40.1837156991
 10
-50.8896306208
 20
40.1839208888
 10
-50.8864773634
 20
40.1840957452
 10
-50.8832248544
 20
40.1842398053
 10
-50.8798649037
 20
40.1843446118
 10
-50.8764004021
 20
40.1844108586
 10
-50.8728284582
 20
40.1844378564
 10
-50.8691322088
 20
40.1844150723
 10
-50.8653315137
 20
40.1843450077
 10
-50.8614065131
 20
40.1842251579
 10
-50.8572807647
 20
40.1840374772
 10
-50.8529287884
 20
40.1837759423
 10
-50.848376066
 20
40.1834465543
 10
-50.843622599
 20
40.1830492977
  0
LINE
  5
288
100
AcDbEntity
  8
RACCORDO
100
AcDbLine
 62
7
  6
CONTINUOUS
 10
-50.9646237443
 20
-40.16181754
 11
-50.987469967
 21
-40.1391612329
  0
LWPOLYLINE
  5
289
100
AcDbEntity
  8
RACCORDO
100
AcDbPolyline
 62
250
  6
CONTINUOUS
 90
38
 70
0
 10
-50.3256196063
 20
31.4398938161
 10
-50.3248654279
 20
31.4417825567
 10
-50.3237327119
 20
31.4436702755
 10
-50.3222220711
 20
31.4455559499
 10
-50.3203343225
 20
31.4474385588
 10
-50.3180704883
 20
31.4493170821
 10
-50.3154317959
 20
31.451190501
 10
-50.3124196753
 20
31.4530578003
 10
-50.3090357576
 20
31.4549179689
 10
-50.3052818757
 20
31.4567699991
 10
-50.3011600632
 20
31.4586128877
 10
-50.2966725527
 20
31.4604456366
 10
-50.291821775
 20
31.4622672529
 10
-50.2866103577
 20
31.4640767499
 10
-50.2810411238
 20
31.4658731474
 10
-50.2751170899
 20
31.4676554723
 10
-50.2688414651
 20
31.4694227592
 10
-50.2622176487
 20
31.4711740507
 10
-50.2552492287
 20
31.4729083983
 10
-50.2479399799
 20
31.4746248625
 10
-50.2402938614
 20
31.4763225134
 10
-50.2323150152
 20
31.4780004315
 10
-50.2240077631
 20
31.4796577079
 10
-50.215376605
 20
31.4812934448
 10
-50.2064262164
 20
31.4829067563
 10
-50.1971614454
 20
31.4844967684
 10
-50.1875873107
 20
31.4860626198
 10
-50.1777089984
 20
31.4876034624
 10
-50.1675318594
 20
31.4891184614
 10
-50.1570614065
 20
31.4906067963
 10
-50.1463033113
 20
31.4920676608
 10
-50.1352634013
 20
31.4935002636
 10
-50.1239476567
 20
31.4949038287
 10
-50.112362207
 20
31.4962775958
 10
-50.1005133278
 20
31.4976208207
 10
-50.0884074374
 20
31.4989327759
 10
-50.0760510935
 20
31.5002127507
 10
-50.0634509892
 20
31.5014600517
  0
LINE
  5
28A
100
AcDbEntity
  8
RACCORDO
100
AcDbLine
 62
7
  6
CONTINUOUS
 10
-50.2816185814
 20
-8.4827342781
 11
-50.2817598032
 21
-8.4813939406
  0
LINE
  5
28B
100
AcDbEntity
  8
RACCORDO
100
AcDbLine
 62
7
  6
CONTINUOUS
 10
-50.2817598032
 20
-8.4813939406
 11
-50.2819522195
 21
-8.4794605274
  0
LINE
  5
28C
100
AcDbEntity
  8
RACCORDO
100
AcDbLine
 62
7
  6
CONTINUOUS
 10
-50.2819522195
 20
-8.4794605274
 11
-50.282188
 21
-8.476952928
  0
LINE
  5
28D
100
AcDbEntity
  8
RACCORDO
100
AcDbLine
 62
7
  6
CONTINUOUS
 10
-50.282188
 20
-8.476952928
 11
-50.2824629759
 21
-8.4738595658
  0
LINE
  5
28E
100
AcDbEntity
  8
RACCORDO
100
AcDbLine
 62
7
  6
CONTINUOUS
 10
-50.2824629759
 20
-8.4738595658
 11
-50.2827728439
 21
-8.4701757149
  0
LINE
  5
28F
100
AcDbEntity
  8
RACCORDO
100
AcDbLine
 62
7
  6
CONTINUOUS
 10
-50.2827728439
 20
-8.4701757149
 11
-50.283291941
 21
-8.4635670993
  0
LINE
  5
290
100
AcDbEntity
  8
RACCORDO
100
AcDbLine
 62
250
  6
CONTINUOUS
 10
-50.2815792422
 20
-8.50888999
 11
-50.2826716732
 21
-8.4944959088
  0
LINE
  5
291
100
AcDbEntity
  8
RACCORDO
100
AcDbLine
 62
7
  6
CONTINUOUS
 10
-50.283291941
 20
-8.4635670993
 11
-50.283866412
 21
-8.4556424291
  0
LINE
  5
292
100
AcDbEntity
  8
RACCORDO
100
AcDbLine
 62
250
  6
CONTINUOUS
 10
-50.2826716732
 20
-8.4944959088
 11
-50.2837405555
 21
-8.4787834942
  0
LINE
  5
293
100
AcDbEntity
  8
RACCORDO
100
AcDbLine
 62
7
  6
CONTINUOUS
 10
-50.283866412
 20
-8.4556424291
 11
-50.2844858454
 21
-8.4463989105
  0
LINE
  5
294
100
AcDbEntity
  8
RACCORDO
100
AcDbLine
 62
7
  6
CONTINUOUS
 10
-50.2844858454
 20
-8.4463989105
 11
-50.2851411153
 21
-8.4358299278
  0
LINE
  5
295
100
AcDbEntity
  8
RACCORDO
100
AcDbLine
 62
250
  6
CONTINUOUS
 10
-50.2837405555
 20
-8.4787834942
 11
-50.2847846937
 21
-8.4617719503
  0
LINE
  5
296
100
AcDbEntity
  8
RACCORDO
100
AcDbLine
 62
7
  6
CONTINUOUS
 10
-50.2851411153
 20
-8.4358299278
 11
-50.2860589789
 21
-8.4196363628
  0
LINE
  5
297
100
AcDbEntity
  8
RACCORDO
100
AcDbLine
 62
250
  6
CONTINUOUS
 10
-50.2847846937
 20
-8.4617719503
 11
-50.2858024896
 21
-8.4434875406
  0
LINE
  5
298
100
AcDbEntity
  8
RACCORDO
100
AcDbLine
 62
250
  6
CONTINUOUS
 10
-50.2858024896
 20
-8.4434875406
 11
-50.28679199
 21
-8.4239645255
  0
LINE
  5
299
100
AcDbEntity
  8
RACCORDO
100
AcDbLine
 62
7
  6
CONTINUOUS
 10
-50.2860589789
 20
-8.4196363628
 11
-50.2870182034
 21
-8.400902331
  0
LINE
  5
29A
100
AcDbEntity
  8
RACCORDO
100
AcDbLine
 62
7
  6
CONTINUOUS
 10
-50.2870182034
 20
-8.400902331
 11
-50.2880129547
 21
-8.3793817163
  0
LINE
  5
29B
100
AcDbEntity
  8
RACCORDO
100
AcDbLine
 62
250
  6
CONTINUOUS
 10
-50.28679199
 20
-8.4239645255
 11
-50.2882197158
 21
-8.3924247461
  0
LINE
  5
29C
100
AcDbEntity
  8
RACCORDO
100
AcDbLine
 62
7
  6
CONTINUOUS
 10
-50.2880129547
 20
-8.3793817163
 11
-50.2890363012
 21
-8.3548089271
  0
LINE
  5
29D
100
AcDbEntity
  8
RACCORDO
100
AcDbLine
 62
250
  6
CONTINUOUS
 10
-50.2626601283
 20
22.3570233368
 11
-50.2604474359
 21
22.30357978
  0
LINE
  5
29E
100
AcDbEntity
  8
RACCORDO
100
AcDbLine
 62
250
  6
CONTINUOUS
 10
-50.2882197158
 20
-8.3924247461
 11
-50.2895733825
 21
-8.3583141051
  0
LINE
  5
29F
100
AcDbEntity
  8
RACCORDO
100
AcDbLine
 62
7
  6
CONTINUOUS
 10
-50.2890363012
 20
-8.3548089271
 11
-50.2903361875
 21
-8.319555106
  0
LINE
  5
2A0
100
AcDbEntity
  8
RACCORDO
100
AcDbLine
 62
250
  6
CONTINUOUS
 10
-50.2654315466
 20
22.433943602
 11
-50.2626601283
 21
22.3570233368
  0
LINE
  5
2A1
100
AcDbEntity
  8
RACCORDO
100
AcDbLine
 62
250
  6
CONTINUOUS
 10
-50.2895733825
 20
-8.3583141051
 11
-50.2908470186
 21
-8.3217849423
  0
LINE
  5
2A2
100
AcDbEntity
  8
RACCORDO
100
AcDbLine
 62
7
  6
CONTINUOUS
 10
-50.2903361875
 20
-8.319555106
 11
-50.2916304194
 21
-8.2791254365
  0
LINE
  5
2A3
100
AcDbEntity
  8
RACCORDO
100
AcDbLine
 62
250
  6
CONTINUOUS
 10
-50.2679824059
 20
22.5168828471
 11
-50.2654315466
 21
22.433943602
  0
LINE
  5
2A4
100
AcDbEntity
  8
RACCORDO
100
AcDbLine
 62
250
  6
CONTINUOUS
 10
-50.2908470186
 20
-8.3217849423
 11
-50.2924121887
 21
-8.2695681974
  0
LINE
  5
2A5
100
AcDbEntity
  8
RACCORDO
100
AcDbLine
 62
7
  6
CONTINUOUS
 10
-50.2916304194
 20
-8.2791254365
 11
-50.2931333115
 21
-8.2236465446
  0
LINE
  5
2A6
100
AcDbEntity
  8
RACCORDO
100
AcDbLine
 62
250
  6
CONTINUOUS
 10
-50.2708358486
 20
22.6281922948
 11
-50.2679824059
 21
22.5168828471
  0
LINE
  5
2A7
100
AcDbEntity
  8
RACCORDO
100
AcDbLine
 62
250
  6
CONTINUOUS
 10
-50.2924121887
 20
-8.2695681974
 11
-50.2938149902
 21
-8.2136876943
  0
LINE
  5
2A8
100
AcDbEntity
  8
RACCORDO
100
AcDbLine
 62
7
  6
CONTINUOUS
 10
-50.2931333115
 20
-8.2236465446
 11
-50.2945321634
 21
-8.1605023049
  0
LINE
  5
2A9
100
AcDbEntity
  8
RACCORDO
100
AcDbLine
 62
250
  6
CONTINUOUS
 10
-50.2023621024
 20
40.673006114
 11
-50.2030287004
 21
40.704648879
  0
LINE
  5
2AA
100
AcDbEntity
  8
RACCORDO
100
AcDbLine
 62
250
  6
CONTINUOUS
 10
-50.2732920962
 20
22.7469882938
 11
-50.2708358486
 21
22.6281922948
  0
LINE
  5
2AB
100
AcDbEntity
  8
RACCORDO
100
AcDbLine
 62
250
  6
CONTINUOUS
 10
-50.2938149902
 20
-8.2136876943
 11
-50.2953238654
 21
-8.1393437106
  0
LINE
  5
2AC
100
AcDbEntity
  8
RACCORDO
100
AcDbLine
 62
7
  6
CONTINUOUS
 10
-50.2945321634
 20
-8.1605023049
 11
-50.2957739653
 21
-8.0897527323
  0
LINE
  5
2AD
100
AcDbEntity
  8
RACCORDO
100
AcDbLine
 62
250
  6
CONTINUOUS
 10
-50.2016091609
 20
40.6257164404
 11
-50.2023621024
 21
40.673006114
  0
LINE
  5
2AE
100
AcDbEntity
  8
RACCORDO
100
AcDbLine
 62
250
  6
CONTINUOUS
 10
-50.2953238654
 20
-8.1393437106
 11
-50.2965446187
 21
-8.0608494117
  0
LINE
  5
2AF
100
AcDbEntity
  8
RACCORDO
100
AcDbLine
 62
250
  6
CONTINUOUS
 10
-50.2756850596
 20
22.8979961903
 11
-50.2732920962
 21
22.7469882938
  0
LWPOLYLINE
  5
2B0
100
AcDbEntity
  8
RACCORDO
100
AcDbPolyline
 62
250
  6
CONTINUOUS
 90
67
 70
0
 10
-50.2300470675
 20
-22.0
 10
-50.2298489445
 20
-22.0166583892
 10
-50.2292546878
 20
-22.033307343
 10
-50.228264634
 20
-22.049937431
 10
-50.2268793438
 20
-22.066539234
 10
-50.2250996019
 20
-22.0831033484
 10
-50.2229264164
 20
-22.0996203921
 10
-50.2203610182
 20
-22.1160810097
 10
-50.2174048603
 20
-22.1324758778
 10
-50.2140596171
 20
-22.1487957101
 10
-50.2103271835
 20
-22.165031263
 10
-50.2062096735
 20
-22.1811733403
 10
-50.2017094194
 20
-22.197212799
 10
-50.19682897
 20
-22.2131405544
 10
-50.1915710899
 20
-22.2289475846
 10
-50.185938757
 20
-22.2446249364
 10
-50.1799351616
 20
-22.26016373
 10
-50.1735637042
 20
-22.2755551641
 10
-50.1668279937
 20
-22.2907905207
 10
-50.1597318453
 20
-22.3058611705
 10
-50.1522792782
 20
-22.3207585773
 10
-50.1444745138
 20
-22.3354743029
 10
-50.1363219726
 20
-22.3500000123
 10
-50.1278262725
 20
-22.364327478
 10
-50.1189922253
 20
-22.3784485846
 10
-50.109824835
 20
-22.3923553339
 10
-50.1003292939
 20
-22.406039849
 10
-50.0905109804
 20
-22.4194943788
 10
-50.0803754558
 20
-22.4327113024
 10
-50.0699284609
 20
-22.4456831338
 10
-50.0591759129
 20
-22.4584025255
 10
-50.0481239024
 20
-22.470862273
 10
-50.0367786891
 20
-22.4830553192
 10
-50.0251466993
 20
-22.4949747577
 10
-50.0132345213
 20
-22.5066138372
 10
-50.0010489024
 20
-22.5179659653
 10
-49.9885967446
 20
-22.5290247119
 10
-49.9758851009
 20
-22.5397838133
 10
-49.9629211714
 20
-22.5502371754
 10
-49.949712299
 20
-22.5603788773
 10
-49.9362659653
 20
-22.5702031746
 10
-49.9225897865
 20
-22.5797045028
 10
-49.9086915088
 20
-22.5888774803
 10
-49.8945790045
 20
-22.5977169112
 10
-49.880260267
 20
-22.606217789
 10
-49.8657434066
 20
-22.6143752986
 10
-49.8510366457
 20
-22.6221848195
 10
-49.8361483146
 20
-22.6296419284
 10
-49.821086846
 20
-22.6367424013
 10
-49.8058607709
 20
-22.6434822166
 10
-49.7904787136
 20
-22.6498575568
 10
-49.7749493865
 20
-22.6558648108
 10
-49.7592815858
 20
-22.661500576
 10
-49.7434841857
 20
-22.6667616603
 10
-49.7275661342
 20
-22.6716450837
 10
-49.7115364473
 20
-22.6761480803
 10
-49.6954042045
 20
-22.6802680994
 10
-49.6791785431
 20
-22.6840028074
 10
-49.6628686537
 20
-22.6873500891
 10
-49.6464837742
 20
-22.6903080484
 10
-49.6300331853
 20
-22.6928750099
 10
-49.6135262048
 20
-22.6950495197
 10
-49.5969721823
 20
-22.6968303461
 10
-49.5803804943
 20
-22.6982164804
 10
-49.5637605384
 20
-22.6992071375
 10
-49.5471217283
 20
-22.6998017563
 10
-49.5304734886
 20
-22.7
  0
LINE
  5
2B1
100
AcDbEntity
  8
RACCORDO
100
AcDbLine
 62
7
  6
CONTINUOUS
 10
-50.2957739653
 20
-8.0897527323
 11
-50.2968090222
 21
-8.0111775058
  0
LWPOLYLINE
  5
2B2
100
AcDbEntity
  8
RACCORDO
100
AcDbPolyline
 62
250
  6
CONTINUOUS
 90
7
 70
0
 10
-50.2728857341
 20
-8.5720564063
 10
-50.273017767
 20
-8.5589924331
 10
-50.2734935029
 20
-8.545937448
 10
-50.2743126146
 20
-8.5329004331
 10
-50.2754745384
 20
-8.5198903578
 10
-50.276978475
 20
-8.5069161731
 10
-50.2788233896
 20
-8.4939868055
  0
LWPOLYLINE
  5
2B3
100
AcDbEntity
  8
RACCORDO
100
AcDbPolyline
 62
250
  6
CONTINUOUS
 90
12
 70
0
 10
-50.2180697434
 20
-8.7093895131
 10
-50.2182017776
 20
-8.6963254815
 10
-50.218677518
 20
-8.6832704381
 10
-50.2194966371
 20
-8.670233365
 10
-50.2206585715
 20
-8.657223232
 10
-50.2221625217
 20
-8.6442489902
 10
-50.224007453
 20
-8.6313195657
 10
-50.2261920961
 20
-8.618443854
 10
-50.2287149479
 20
-8.6056307141
 10
-50.2315742725
 20
-8.5928889618
 10
-50.2347681027
 20
-8.580227364
 10
-50.2380224603
 20
-8.5686236881
  0
LINE
  5
2B4
100
AcDbEntity
  8
RACCORDO
100
AcDbLine
 62
250
  6
CONTINUOUS
 10
-50.2965446187
 20
-8.0608494117
 11
-50.2974653851
 21
-7.9789454856
  0
LINE
  5
2B5
100
AcDbEntity
  8
RACCORDO
100
AcDbLine
 62
250
  6
CONTINUOUS
 10
-50.2007115085
 20
40.5463251348
 11
-50.2016091609
 21
40.6257164404
  0
LINE
  5
2B6
100
AcDbEntity
  8
RACCORDO
100
AcDbLine
 62
250
  6
CONTINUOUS
 10
-50.2774344691
 20
23.0556689081
 11
-50.2756850596
 21
22.8979961903
  0
LINE
  5
2B7
100
AcDbEntity
  8
RACCORDO
100
AcDbLine
 62
7
  6
CONTINUOUS
 10
-50.2968090222
 20
-8.0111775058
 11
-50.2975803695
 21
-7.9244782574
  0
LINE
  5
2B8
100
AcDbEntity
  8
RACCORDO
100
AcDbLine
 62
250
  6
CONTINUOUS
 10
-50.2845089395
 20
24.0278598553
 11
-50.2774344691
 21
23.0556689081
  0
LINE
  5
2B9
100
AcDbEntity
  8
RACCORDO
100
AcDbLine
 62
250
  6
CONTINUOUS
 10
-49.5862234175
 20
24.3486998866
 11
-49.5782962333
 21
23.2545980146
  0
LINE
  5
2BA
100
AcDbEntity
  8
RACCORDO
100
AcDbLine
 62
250
  6
CONTINUOUS
 10
-50.2908163244
 20
24.9485125505
 11
-50.2845089395
 21
24.0278598553
  0
LINE
  5
2BB
100
AcDbEntity
  8
RACCORDO
100
AcDbLine
 62
250
  6
CONTINUOUS
 10
-49.5936726404
 20
25.4456746402
 11
-49.5862234175
 21
24.3486998866
  0
LINE
  5
2BC
100
AcDbEntity
  8
RACCORDO
100
AcDbLine
 62
250
  6
CONTINUOUS
 10
-50.2967916291
 20
25.871107237
 11
-50.2908163244
 21
24.9485125505
  0
LINE
  5
2BD
100
AcDbEntity
  8
RACCORDO
100
AcDbLine
 62
250
  6
CONTINUOUS
 10
-49.6006433105
 20
26.5453351031
 11
-49.5936726404
 21
25.4456746402
  0
LINE
  5
2BE
100
AcDbEntity
  8
RACCORDO
100
AcDbLine
 62
250
  6
CONTINUOUS
 10
-50.302433747
 20
26.7954991072
 11
-50.2967916291
 21
25.871107237
  0
LINE
  5
2BF
100
AcDbEntity
  8
RACCORDO
100
AcDbLine
 62
250
  6
CONTINUOUS
 10
-49.6071333955
 20
27.6474482912
 11
-49.6006433105
 21
26.5453351031
  0
LINE
  5
2C0
100
AcDbEntity
  8
RACCORDO
100
AcDbLine
 62
250
  6
CONTINUOUS
 10
-50.2974653851
 20
-7.9789454856
 11
-50.2980739719
 21
-7.8946126503
  0
LINE
  5
2C1
100
AcDbEntity
  8
RACCORDO
100
AcDbLine
 62
250
  6
CONTINUOUS
 10
-50.3077417327
 20
27.7215388728
 11
-50.302433747
 21
26.7954991072
  0
LINE
  5
2C2
100
AcDbEntity
  8
RACCORDO
100
AcDbLine
 62
250
  6
CONTINUOUS
 10
-50.312715011
 20
28.6491303685
 11
-50.3077417327
 21
27.7215388728
  0
LINE
  5
2C3
100
AcDbEntity
  8
RACCORDO
100
AcDbLine
 62
250
  6
CONTINUOUS
 10
-49.6131414188
 20
28.7517846859
 11
-49.6071333955
 21
27.6474482912
  0
LINE
  5
2C4
100
AcDbEntity
  8
RACCORDO
100
AcDbLine
 62
250
  6
CONTINUOUS
 10
-50.3173527677
 20
29.5781275048
 11
-50.312715011
 21
28.6491303685
  0
LINE
  5
2C5
100
AcDbEntity
  8
RACCORDO
100
AcDbLine
 62
250
  6
CONTINUOUS
 10
-49.6186665012
 20
29.8581412621
 11
-49.6131414188
 21
28.7517846859
  0
LINE
  5
2C6
100
AcDbEntity
  8
RACCORDO
100
AcDbLine
 62
250
  6
CONTINUOUS
 10
-50.3216544009
 20
30.5083958285
 11
-50.3173527677
 21
29.5781275048
  0
LINE
  5
2C7
100
AcDbEntity
  8
RACCORDO
100
AcDbLine
 62
250
  6
CONTINUOUS
 10
-50.2000907758
 20
40.4536011299
 11
-50.2007115085
 21
40.5463251348
  0
LINE
  5
2C8
100
AcDbEntity
  8
RACCORDO
100
AcDbLine
 62
250
  6
CONTINUOUS
 10
-50.3256197165
 20
31.4398938094
 11
-50.3216544009
 21
30.5083958285
  0
LWPOLYLINE
  5
2C9
100
AcDbEntity
  8
RACCORDO
100
AcDbPolyline
 62
250
  6
CONTINUOUS
 90
3
 70
0
 10
-49.6260461696
 20
31.5210048814
 10
-49.6237072902
 20
30.9662998873
 10
-49.6186665012
 20
29.8581412621
  0
LINE
  5
2CA
100
AcDbEntity
  8
RACCORDO
100
AcDbLine
 62
7
  6
CONTINUOUS
 10
-50.2975803695
 20
-7.9244782574
 11
-50.2979705508
 21
-7.845993077
  0
LINE
  5
2CB
100
AcDbEntity
  8
RACCORDO
100
AcDbLine
 62
250
  6
CONTINUOUS
 10
-50.9874699672
 20
-40.1391612334
 11
-50.9961972067
 21
-37.4707458582
  0
LWPOLYLINE
  5
2CC
100
AcDbEntity
  8
RACCORDO
100
AcDbPolyline
 62
250
  6
CONTINUOUS
 90
3
 70
0
 10
-50.9961972067
 20
-37.4707458582
 10
-51.0043240175
 20
-34.8007734869
 10
-51.008162267
 20
-33.4652380908
  0
LWPOLYLINE
  5
2CD
100
AcDbEntity
  8
RACCORDO
100
AcDbPolyline
 62
250
  6
CONTINUOUS
 90
3
 70
0
 10
-51.008162267
 20
-33.4652380908
 10
-51.0153880517
 20
-30.7931382872
 10
-51.0187755869
 20
-29.4566016346
  0
LWPOLYLINE
  5
2CE
100
AcDbEntity
  8
RACCORDO
100
AcDbPolyline
 62
250
  6
CONTINUOUS
 90
3
 70
0
 10
-50.3256197165
 20
-31.4398937901
 10
-50.3322656133
 20
-28.8242968361
 10
-50.3353721363
 20
-27.5160864923
  0
LWPOLYLINE
  5
2CF
100
AcDbEntity
  8
RACCORDO
100
AcDbPolyline
 62
250
  6
CONTINUOUS
 90
3
 70
0
 10
-51.0187755869
 20
-29.4566016346
 10
-51.0250996262
 20
-26.7826243094
 10
-51.0280361303
 20
-25.4452114109
  0
LWPOLYLINE
  5
2D0
100
AcDbEntity
  8
RACCORDO
100
AcDbPolyline
 62
250
  6
CONTINUOUS
 90
3
 70
0
 10
-50.3353721363
 20
-27.5160864923
 10
-50.3411523879
 20
-24.8988159436
 10
-50.343826004
 20
-23.5898079934
  0
LWPOLYLINE
  5
2D1
100
AcDbEntity
  8
RACCORDO
100
AcDbPolyline
 62
250
  6
CONTINUOUS
 90
3
 70
0
 10
-51.0280361303
 20
-25.4452114109
 10
-51.033457833
 20
-22.7696066452
 10
-51.0359430315
 20
-21.4314425689
  0
LINE
  5
2D2
100
AcDbEntity
  8
RACCORDO
100
AcDbLine
 62
250
  6
CONTINUOUS
 10
-50.343826004
 20
-23.5898079934
 11
-50.3487401242
 21
-20.971085931
  0
LINE
  5
2D3
100
AcDbEntity
  8
RACCORDO
100
AcDbLine
 62
250
  6
CONTINUOUS
 10
-50.2980739719
 20
-7.8946126503
 11
-50.2983620673
 21
-7.8092741198
  0
LWPOLYLINE
  5
2D4
100
AcDbEntity
  8
RACCORDO
100
AcDbPolyline
 62
250
  6
CONTINUOUS
 90
3
 70
0
 10
-51.0359430315
 20
-21.4314425689
 10
-51.0404618911
 20
-18.7544605028
 10
-51.0424955521
 20
-17.4156703181
  0
LWPOLYLINE
  5
2D5
100
AcDbEntity
  8
RACCORDO
100
AcDbPolyline
 62
250
  6
CONTINUOUS
 90
3
 70
0
 10
-50.3487401242
 20
-20.971085931
 10
-50.3530765546
 20
-18.3515398941
 10
-50.3550281088
 20
-17.0414725818
  0
LINE
  5
2D6
100
AcDbEntity
  8
RACCORDO
100
AcDbLine
 62
250
  6
CONTINUOUS
 10
-51.0424955521
 20
-17.4156703181
 11
-51.0461111465
 21
-14.73756115
  0
LWPOLYLINE
  5
2D7
100
AcDbEntity
  8
RACCORDO
100
AcDbPolyline
 62
250
  6
CONTINUOUS
 90
3
 70
0
 10
-50.3550281088
 20
-17.0414725818
 10
-50.3584977204
 20
-14.4208670007
 10
-50.3600157776
 20
-13.1103287319
  0
LWPOLYLINE
  5
2D8
100
AcDbEntity
  8
RACCORDO
100
AcDbPolyline
 62
250
  6
CONTINUOUS
 90
3
 70
0
 10
-51.0461111465
 20
-14.73756115
 10
-51.0491243897
 20
-12.0588396467
 10
-51.0504050713
 20
-10.7192840518
  0
LINE
  5
2D9
100
AcDbEntity
  8
RACCORDO
100
AcDbLine
 62
250
  6
CONTINUOUS
 10
-50.3600157776
 20
-13.1103287319
 11
-50.3626182588
 21
-10.4888989445
  0
LWPOLYLINE
  5
2DA
100
AcDbEntity
  8
RACCORDO
100
AcDbPolyline
 62
250
  6
CONTINUOUS
 90
3
 70
0
 10
-51.0504050713
 20
-10.7192840518
 10
-51.0525145286
 20
-8.0398527491
 10
-51.0533432644
 20
-6.7000048776
  0
LWPOLYLINE
  5
2DB
100
AcDbEntity
  8
RACCORDO
100
AcDbPolyline
 62
250
  6
CONTINUOUS
 90
3
 70
0
 10
-50.3626182588
 20
-10.4888989445
 10
-50.3646425313
 20
-7.8670374043
 10
-50.3654378001
 20
-6.5559888785
  0
LINE
  5
2DC
100
AcDbEntity
  8
RACCORDO
100
AcDbLine
 62
250
  6
CONTINUOUS
 10
-51.0533432644
 20
-6.7000048776
 11
-51.0545487386
 21
-4.0201142756
  0
LINE
  5
2DD
100
AcDbEntity
  8
RACCORDO
100
AcDbLine
 62
250
  6
CONTINUOUS
 10
-50.3654378001
 20
-6.5559888785
 11
-50.3665945918
 21
-3.9336955669
  0
LINE
  5
2DE
100
AcDbEntity
  8
RACCORDO
100
AcDbLine
 62
250
  6
CONTINUOUS
 10
-51.0545487386
 20
-4.0201142756
 11
-51.0551514839
 21
-1.3400566503
  0
LINE
  5
2DF
100
AcDbEntity
  8
RACCORDO
100
AcDbLine
 62
250
  6
CONTINUOUS
 10
-50.3665945918
 20
-3.9336955669
 11
-50.3671729953
 21
-1.3112452387
  0
LINE
  5
2E0
100
AcDbEntity
  8
RACCORDO
100
AcDbLine
 62
7
  6
CONTINUOUS
 10
-50.2979705508
 20
-7.845993077
 11
-50.2980830302
 21
-7.7751006478
  0
LINE
  5
2E1
100
AcDbEntity
  8
RACCORDO
100
AcDbLine
 62
250
  6
CONTINUOUS
 10
-50.2983620673
 20
-7.8092741198
 11
-50.2983875132
 21
7.7751006478
  0
LINE
  5
2E2
100
AcDbEntity
  8
RACCORDO
100
AcDbLine
 62
7
  6
CONTINUOUS
 10
-50.2980829267
 20
-7.7751006478
 11
-50.2980829325
 21
7.7771095577
  0
LINE
  5
2E3
100
AcDbEntity
  8
RACCORDO
100
AcDbLine
 62
250
  6
CONTINUOUS
 10
-50.2180697434
 20
-21.9999986429
 11
-50.2180697434
 21
-8.7093895131
  0
LINE
  5
2E4
100
AcDbEntity
  8
RACCORDO
100
AcDbLine
 62
250
  6
CONTINUOUS
 10
-50.2180697434
 20
8.7093895131
 11
-50.2180697434
 21
21.9999986431
  0
LINE
  5
2E5
100
AcDbEntity
  8
RACCORDO
100
AcDbLine
 62
7
  6
CONTINUOUS
 10
-50.2177651569
 20
-22.0
 11
-50.2177651569
 21
-8.7093895131
  0
LINE
  5
2E6
100
AcDbEntity
  8
RACCORDO
100
AcDbLine
 62
7
  6
CONTINUOUS
 10
-50.2177651569
 20
8.7093895131
 11
-50.2177651569
 21
22.0
  0
LINE
  5
2E7
100
AcDbEntity
  8
ASSI
100
AcDbLine
 62
7
  6
CONTINUOUS
 10
-50.2
 20
7.9
 11
-50.2
 21
-7.9
  0
LINE
  5
2E8
100
AcDbEntity
  8
RACCORDO
100
AcDbLine
 62
7
  6
CONTINUOUS
 10
-50.2000000848
 20
40.1396568101
 11
-50.2
 21
40.0986945859
  0
LINE
  5
2E9
100
AcDbEntity
  8
RACCORDO
100
AcDbLine
 62
7
  6
CONTINUOUS
 10
-50.2
 20
-40.0986945859
 11
-50.200000085
 21
-40.1396568101
  0
LINE
  5
2EA
100
AcDbEntity
  8
RACCORDO
100
AcDbLine
 62
250
  6
CONTINUOUS
 10
-51.0551514839
 20
-1.3400566503
 11
-51.0551514839
 21
1.3400566502
  0
LINE
  5
2EB
100
AcDbEntity
  8
RACCORDO
100
AcDbLine
 62
250
  6
CONTINUOUS
 10
-50.3671729953
 20
-1.3112452387
 11
-50.3671729954
 21
1.3112443478
  0
LINE
  5
2EC
100
AcDbEntity
  8
RACCORDO
100
AcDbLine
 62
250
  6
CONTINUOUS
 10
-51.0551514839
 20
1.3400566502
 11
-51.0545487386
 21
4.0201142755
  0
LINE
  5
2ED
100
AcDbEntity
  8
RACCORDO
100
AcDbLine
 62
250
  6
CONTINUOUS
 10
-50.3671729954
 20
1.3112443478
 11
-50.3665945921
 21
3.9336946884
  0
LINE
  5
2EE
100
AcDbEntity
  8
RACCORDO
100
AcDbLine
 62
250
  6
CONTINUOUS
 10
-51.0545487386
 20
4.0201142755
 11
-51.0533432644
 21
6.7000048775
  0
LINE
  5
2EF
100
AcDbEntity
  8
RACCORDO
100
AcDbLine
 62
250
  6
CONTINUOUS
 10
-50.3665945921
 20
3.9336946884
 11
-50.3654378005
 21
6.5559880248
  0
LINE
  5
2F0
100
AcDbEntity
  8
RACCORDO
100
AcDbLine
 62
250
  6
CONTINUOUS
 10
-50.1998839682
 20
40.287322366
 11
-50.2000907758
 21
40.4536011299
  0
LINE
  5
2F1
100
AcDbEntity
  8
RACCORDO
100
AcDbLine
 62
250
  6
CONTINUOUS
 10
-51.0533432644
 20
6.7000048775
 11
-51.0504050713
 21
10.7192840517
  0
LINE
  5
2F2
100
AcDbEntity
  8
RACCORDO
100
AcDbLine
 62
250
  6
CONTINUOUS
 10
-50.3654378005
 20
6.5559880248
 11
-50.3626182595
 21
10.4888981515
  0
LINE
  5
2F3
100
AcDbEntity
  8
RACCORDO
100
AcDbLine
 62
250
  6
CONTINUOUS
 10
-50.2
 20
40.1396568101
 11
-50.1998839682
 21
40.287322366
  0
LINE
  5
2F4
100
AcDbEntity
  8
RACCORDO
100
AcDbLine
 62
250
  6
CONTINUOUS
 10
-51.0504050713
 20
10.7192840517
 11
-51.0461111465
 21
14.7375611499
  0
LINE
  5
2F5
100
AcDbEntity
  8
RACCORDO
100
AcDbLine
 62
250
  6
CONTINUOUS
 10
-50.3626182595
 20
10.4888981515
 11
-50.3584977212
 21
14.4208662963
  0
LINE
  5
2F6
100
AcDbEntity
  8
RACCORDO
100
AcDbLine
 62
250
  6
CONTINUOUS
 10
-51.0461111465
 20
14.7375611499
 11
-51.0404618911
 21
18.7544605027
  0
LINE
  5
2F7
100
AcDbEntity
  8
RACCORDO
100
AcDbLine
 62
250
  6
CONTINUOUS
 10
-50.3584977212
 20
14.4208662963
 11
-50.3530765555
 21
18.3515393059
  0
LINE
  5
2F8
100
AcDbEntity
  8
RACCORDO
100
AcDbLine
 62
250
  6
CONTINUOUS
 10
-50.3530765555
 20
18.3515393059
 11
-50.3487401251
 21
20.9710854366
  0
LINE
  5
2F9
100
AcDbEntity
  8
RACCORDO
100
AcDbLine
 62
250
  6
CONTINUOUS
 10
-51.0404618911
 20
18.7544605027
 11
-51.033457833
 21
22.7696066451
  0
LINE
  5
2FA
100
AcDbEntity
  8
RACCORDO
100
AcDbLine
 62
250
  6
CONTINUOUS
 10
-50.3487401251
 20
20.9710854366
 11
-50.3411523886
 21
24.8988156031
  0
LINE
  5
2FB
100
AcDbEntity
  8
RACCORDO
100
AcDbLine
 62
250
  6
CONTINUOUS
 10
-51.033457833
 20
22.7696066451
 11
-51.0250996262
 21
26.7826243093
  0
LINE
  5
2FC
100
AcDbEntity
  8
RACCORDO
100
AcDbLine
 62
250
  6
CONTINUOUS
 10
-51.0250996262
 20
26.7826243093
 11
-51.0187755869
 21
29.4566016345
  0
LINE
  5
2FD
100
AcDbEntity
  8
RACCORDO
100
AcDbLine
 62
250
  6
CONTINUOUS
 10
-50.3411523886
 20
24.8988156031
 11
-50.3322656136
 21
28.824296679
  0
LINE
  5
2FE
100
AcDbEntity
  8
RACCORDO
100
AcDbLine
 62
250
  6
CONTINUOUS
 10
-50.3322656136
 20
28.824296679
 11
-50.3256197165
 21
31.4398938094
  0
LWPOLYLINE
  5
2FF
100
AcDbEntity
  8
RACCORDO
100
AcDbPolyline
 62
250
  6
CONTINUOUS
 90
31
 70
0
 10
-50.3256194962
 20
-31.4398938049
 10
-50.3263722103
 20
-31.7285407493
 10
-50.3282234754
 20
-32.0219383025
 10
-50.3311899813
 20
-32.3200733337
 10
-50.3353050547
 20
-32.6238072192
 10
-50.3405886595
 20
-32.9322548593
 10
-50.3470084699
 20
-33.2427819517
 10
-50.3546065113
 20
-33.5568782897
 10
-50.3633671488
 20
-33.8730273155
 10
-50.3730692707
 20
-34.1840863909
 10
-50.383634329
 20
-34.4893885094
 10
-50.3950394541
 20
-34.7895782465
 10
-50.4070220888
 20
-35.0794878933
 10
-50.4194180272
 20
-35.3574412141
 10
-50.4322191659
 20
-35.6251052937
 10
-50.4453438657
 20
-35.8823348232
 10
-50.4586818851
 20
-36.1284642555
 10
-50.4722028903
 20
-36.3641564002
 10
-50.4859567681
 20
-36.5912603429
 10
-50.4999199897
 20
-36.8101492591
 10
-50.5140317013
 20
-37.0204455748
 10
-50.5283022178
 20
-37.2228728488
 10
-50.5426843464
 20
-37.4173025491
 10
-50.5571592242
 20
-37.6038584713
 10
-50.5717870559
 20
-37.783644216
 10
-50.5865560364
 20
-37.9568030455
 10
-50.60144219
 20
-38.1231819235
 10
-50.6164929456
 20
-38.2834417852
 10
-50.6317153868
 20
-38.4377996582
 10
-50.6470915295
 20
-38.586017087
 10
-50.6626201809
 20
-38.7280787774
  0
LINE
  5
300
100
AcDbEntity
  8
RACCORDO
100
AcDbLine
 62
250
  6
CONTINUOUS
 10
-51.0187755869
 20
29.4566016345
 11
-51.008162267
 21
33.4652380907
  0
LWPOLYLINE
  5
301
100
AcDbEntity
  8
RACCORDO
100
AcDbPolyline
 62
250
  6
CONTINUOUS
 90
4
 70
0
 10
-51.008162267
 20
33.4652380907
 10
-50.9961972067
 20
37.4707458581
 10
-50.9919086455
 20
38.8051551004
 10
-50.9874699672
 20
40.1391612334
  0
LINE
  5
302
100
AcDbEntity
  8
RACCORDO
100
AcDbLine
 62
250
  6
CONTINUOUS
 10
-50.2983875132
 20
7.7751006478
 11
-50.2982278594
 21
7.8605036034
  0
LINE
  5
303
100
AcDbEntity
  8
RACCORDO
100
AcDbLine
 62
7
  6
CONTINUOUS
 10
-50.2980829325
 20
7.7771095577
 11
-50.2978787037
 21
7.8705970342
  0
LINE
  5
304
100
AcDbEntity
  8
RACCORDO
100
AcDbLine
 62
250
  6
CONTINUOUS
 10
-50.320820972
 20
-30.3222410248
 11
-50.3256197165
 21
-31.4398937901
  0
LINE
  5
305
100
AcDbEntity
  8
RACCORDO
100
AcDbLine
 62
250
  6
CONTINUOUS
 10
-49.6212473998
 20
-30.4120046486
 11
-49.6260461703
 21
-31.5210049278
  0
LINE
  5
306
100
AcDbEntity
  8
RACCORDO
100
AcDbLine
 62
250
  6
CONTINUOUS
 10
-50.3155380448
 20
-29.2063862625
 11
-50.320820972
 21
-30.3222410248
  0
LINE
  5
307
100
AcDbEntity
  8
RACCORDO
100
AcDbLine
 62
250
  6
CONTINUOUS
 10
-49.6159644626
 20
-29.3047254203
 11
-49.6212473998
 21
-30.4120046486
  0
LINE
  5
308
100
AcDbEntity
  8
RACCORDO
100
AcDbLine
 62
250
  6
CONTINUOUS
 10
-50.3097713183
 20
-28.0924078
 11
-50.3155380448
 21
-29.2063862625
  0
LINE
  5
309
100
AcDbEntity
  8
RACCORDO
100
AcDbLine
 62
250
  6
CONTINUOUS
 10
-49.6101977384
 20
-28.1993516789
 11
-49.6159644626
 21
-29.3047254203
  0
LINE
  5
30A
100
AcDbEntity
  8
RACCORDO
100
AcDbLine
 62
250
  6
CONTINUOUS
 10
-50.3035219937
 20
-26.9805630686
 11
-50.3097713183
 21
-28.0924078
  0
LINE
  5
30B
100
AcDbEntity
  8
RACCORDO
100
AcDbLine
 62
250
  6
CONTINUOUS
 10
-49.603948414
 20
-27.0960949261
 11
-49.6101977384
 21
-28.1993516789
  0
LINE
  5
30C
100
AcDbEntity
  8
RACCORDO
100
AcDbLine
 62
250
  6
CONTINUOUS
 10
-50.2
 20
-40.1396568101
 11
-50.2005463646
 21
-40.2551395573
  0
LINE
  5
30D
100
AcDbEntity
  8
RACCORDO
100
AcDbLine
 62
250
  6
CONTINUOUS
 10
-50.2967916162
 20
-25.8711067431
 11
-50.3035219937
 21
-26.9805630686
  0
LINE
  5
30E
100
AcDbEntity
  8
RACCORDO
100
AcDbLine
 62
250
  6
CONTINUOUS
 10
-49.5972180367
 20
-25.9951870403
 11
-49.603948414
 21
-27.0960949261
  0
LINE
  5
30F
100
AcDbEntity
  8
RACCORDO
100
AcDbLine
 62
250
  6
CONTINUOUS
 10
-50.2895812757
 20
-24.7642054359
 11
-50.2967916162
 21
-25.8711067431
  0
LINE
  5
310
100
AcDbEntity
  8
RACCORDO
100
AcDbLine
 62
250
  6
CONTINUOUS
 10
-49.5900076971
 20
-24.8968357781
 11
-49.5972180367
 21
-25.9951870403
  0
LINE
  5
311
100
AcDbEntity
  8
RACCORDO
100
AcDbLine
 62
250
  6
CONTINUOUS
 10
-50.2818931676
 20
-23.6601631868
 11
-50.2895812757
 21
-24.7642054359
  0
LWPOLYLINE
  5
312
100
AcDbEntity
  8
RACCORDO
100
AcDbPolyline
 62
7
  6
CONTINUOUS
 90
66
 70
0
 10
-50.2177651319
 20
22.0
 10
-50.217691306
 20
22.0101587389
 10
-50.2172439217
 20
22.0269936952
 10
-50.2163912252
 20
22.043813442
 10
-50.2151336796
 20
22.0606077933
 10
-50.2134720268
 20
22.0773673881
 10
-50.2114071034
 20
22.0940829028
 10
-50.2089401422
 20
22.1107446519
 10
-50.2060724813
 20
22.1273428772
 10
-50.2028057092
 20
22.1438680215
 10
-50.1991417019
 20
22.1603106371
 10
-50.1950824665
 20
22.1766610934
 10
-50.1906304346
 20
22.1929097292
 10
-50.1857881252
 20
22.2090471005
 10
-50.1805582789
 20
22.2250638506
 10
-50.1749440198
 20
22.2409505443
 10
-50.1689485047
 20
22.2566979286
 10
-50.1625752366
 20
22.2722969168
 10
-50.1558279278
 20
22.2877383437
 10
-50.1487104333
 20
22.3030132391
 10
-50.1412269332
 20
22.3181127852
 10
-50.1333817327
 20
22.3330280913
 10
-50.125179437
 20
22.3477504959
 10
-50.1166247776
 20
22.3622715119
 10
-50.1077226349
 20
22.3765827213
 10
-50.0984782491
 20
22.3906758451
 10
-50.088896892
 20
22.4045427019
 10
-50.0789840515
 20
22.4181753787
 10
-50.0687454783
 20
22.4315659795
 10
-50.0581870308
 20
22.4447066912
 10
-50.0473147901
 20
22.4575900451
 10
-50.0361349882
 20
22.4702085191
 10
-50.0246540908
 20
22.4825547897
 10
-50.0128786724
 20
22.4946218013
 10
-50.0008154652
 20
22.5064024837
 10
-49.9884714981
 20
22.5178900347
 10
-49.9758537959
 20
22.5290777988
 10
-49.9629696344
 20
22.5399592536
 10
-49.9498264936
 20
22.5505280985
 10
-49.9364318378
 20
22.5607781599
 10
-49.9227934457
 20
22.5707035143
 10
-49.9089191812
 20
22.5802983398
 10
-49.8948169668
 20
22.5895570574
 10
-49.8804949536
 20
22.5984743281
 10
-49.8659614092
 20
22.6070448347
 10
-49.8512247949
 20
22.6152635941
 10
-49.8362935747
 20
22.6231258083
 10
-49.8211764189
 20
22.6306267952
 10
-49.8058823145
 20
22.6377621308
 10
-49.7904200837
 20
22.6445275686
 10
-49.7747987063
 20
22.650919188
 10
-49.7590274638
 20
22.656933168
 10
-49.7431154627
 20
22.6625659473
 10
-49.7270719741
 20
22.6678143089
 10
-49.7109065615
 20
22.6726750375
 10
-49.6946286166
 20
22.6771453409
 10
-49.6782476067
 20
22.6812226482
 10
-49.6617733136
 20
22.6849044598
 10
-49.645215408
 20
22.6881887229
 10
-49.6285833721
 20
22.6910735183
 10
-49.6118868812
 20
22.6935572061
 10
-49.5951357364
 20
22.6956384102
 10
-49.578339666
 20
22.6973158637
 10
-49.561508114
 20
22.698588691
 10
-49.5446505163
 20
22.6994561213
 10
-49.5304691801
 20
22.6998440307
  0
LINE
  5
313
100
AcDbEntity
  8
RACCORDO
100
AcDbLine
 62
250
  6
CONTINUOUS
 10
-50.2982278594
 20
7.8605036034
 11
-50.297747238
 21
7.9453908919
  0
LWPOLYLINE
  5
314
100
AcDbEntity
  8
RACCORDO
100
AcDbPolyline
 62
250
  6
CONTINUOUS
 90
3
 70
0
 10
-49.5782962327
 20
-23.2545979312
 10
-49.5823195937
 20
-23.8012799544
 10
-49.5900076971
 20
-24.8968357781
  0
LINE
  5
315
100
AcDbEntity
  8
RACCORDO
100
AcDbLine
 62
7
  6
CONTINUOUS
 10
-50.2978787037
 20
7.8705970342
 11
-50.2973338898
 21
7.9570347546
  0
LINE
  5
316
100
AcDbEntity
  8
RACCORDO
100
AcDbLine
 62
250
  6
CONTINUOUS
 10
-50.202315498
 20
-40.4813048909
 11
-50.2026299964
 21
-40.5210806353
  0
LINE
  5
317
100
AcDbEntity
  8
RACCORDO
100
AcDbLine
 62
250
  6
CONTINUOUS
 10
-50.2026299964
 20
-40.5210806353
 11
-50.2028321204
 21
-40.5463197191
  0
LINE
  5
318
100
AcDbEntity
  8
RACCORDO
100
AcDbLine
 62
250
  6
CONTINUOUS
 10
-50.2005463646
 20
-40.2551395573
 11
-50.2013628988
 21
-40.3654783074
  0
LINE
  5
319
100
AcDbEntity
  8
RACCORDO
100
AcDbLine
 62
250
  6
CONTINUOUS
 10
-50.2020922658
 20
-40.453598418
 11
-50.202315498
 21
-40.4813048909
  0
LWPOLYLINE
  5
31A
100
AcDbEntity
  8
RACCORDO
100
AcDbPolyline
 62
250
  6
CONTINUOUS
 90
5
 70
0
 10
-50.2013628988
 20
-40.3654783074
 10
-50.2016112306
 20
-40.3956185358
 10
-50.2017351541
 20
-40.4104137802
 10
-50.2018567836
 20
-40.4250144245
 10
-50.2020922658
 20
-40.453598418
  0
LWPOLYLINE
  5
31B
100
AcDbEntity
  8
RACCORDO
100
AcDbPolyline
 62
250
  6
CONTINUOUS
 90
45
 70
0
 10
-50.2180697435
 20
21.9999986431
 10
-50.2179294603
 20
22.0140032182
 10
-50.2175079256
 20
22.0280191107
 10
-50.2168042916
 20
22.0420406659
 10
-50.2158176446
 20
22.0560644278
 10
-50.2145474539
 20
22.070082428
 10
-50.2129940222
 20
22.0840822291
 10
-50.2111573773
 20
22.0980579942
 10
-50.2090376431
 20
22.1120040771
 10
-50.206636228
 20
22.1259084045
 10
-50.2039539
 20
22.1397651828
 10
-50.2009915067
 20
22.1535688421
 10
-50.1977514936
 20
22.1673077979
 10
-50.1942356428
 20
22.1809752532
 10
-50.1904452341
 20
22.194566944
 10
-50.1863826159
 20
22.2080752485
 10
-50.182050312
 20
22.22149292
 10
-50.1774497975
 20
22.2348164656
 10
-50.1725819336
 20
22.2480439263
 10
-50.167448675
 20
22.261170132
 10
-50.1620522138
 20
22.2741896113
 10
-50.1563935536
 20
22.2870998775
 10
-50.150474346
 20
22.2998967482
 10
-50.1442973511
 20
22.3125738616
 10
-50.1378652604
 20
22.3251254718
 10
-50.1311804424
 20
22.3375467316
 10
-50.1242456732
 20
22.3498322682
 10
-50.1170645289
 20
22.361975687
 10
-50.1096401515
 20
22.373971706
 10
-50.1019753442
 20
22.385815828
 10
-50.0940734231
 20
22.3975029834
 10
-50.0859377959
 20
22.4090281896
 10
-50.0775716067
 20
22.4203870497
 10
-50.0689779039
 20
22.4315754604
 10
-50.0601601088
 20
22.4425889389
 10
-50.0511218337
 20
22.4534229465
 10
-50.0418665024
 20
22.4640733655
 10
-50.0323976829
 20
22.4745360215
 10
-50.0227193355
 20
22.4848064725
 10
-50.0128355995
 20
22.4948803104
 10
-50.0027504676
 20
22.5047534375
 10
-49.9924680167
 20
22.5144218366
 10
-49.9819926609
 20
22.5238813679
 10
-49.9713288192
 20
22.5331280495
 10
-49.9604806483
 20
22.5421582856
  0
LWPOLYLINE
  5
31C
100
AcDbEntity
  8
RACCORDO
100
AcDbPolyline
 62
250
  6
CONTINUOUS
 90
7
 70
0
 10
-50.2728857341
 20
8.5720564063
 10
-50.2730177669
 20
8.5589924349
 10
-50.2734935027
 20
8.5459374517
 10
-50.2743126142
 20
8.5329004385
 10
-50.2754745377
 20
8.5198903648
 10
-50.2769784739
 20
8.5069161818
 10
-50.278823388
 20
8.4939868156
  0
LWPOLYLINE
  5
31D
100
AcDbEntity
  8
RACCORDO
100
AcDbPolyline
 62
250
  6
CONTINUOUS
 90
12
 70
0
 10
-50.2180697434
 20
8.7093895131
 10
-50.2182017776
 20
8.6963254816
 10
-50.218677518
 20
8.6832704382
 10
-50.2194966371
 20
8.6702333652
 10
-50.2206585715
 20
8.6572232321
 10
-50.2221625217
 20
8.6442489901
 10
-50.224007453
 20
8.6313195655
 10
-50.2261920961
 20
8.6184438538
 10
-50.2287149479
 20
8.6056307137
 10
-50.2315742726
 20
8.5928889614
 10
-50.2347681029
 20
8.5802273633
 10
-50.2380224607
 20
8.5686236866
  0
LINE
  5
31E
100
AcDbEntity
  8
RACCORDO
100
AcDbLine
 62
250
  6
CONTINUOUS
 10
-50.297747238
 20
7.9453908919
 11
-50.2969499631
 21
8.0284206313
  0
LINE
  5
31F
100
AcDbEntity
  8
RACCORDO
100
AcDbLine
 62
250
  6
CONTINUOUS
 10
-50.2028321204
 20
-40.5463197191
 11
-50.2038666966
 21
-40.6550857692
  0
LINE
  5
320
100
AcDbEntity
  8
RACCORDO
100
AcDbLine
 62
250
  6
CONTINUOUS
 10
-50.2763410067
 20
-22.9499341654
 11
-50.2818931676
 21
-23.6601631868
  0
LWPOLYLINE
  5
321
100
AcDbEntity
  8
RACCORDO
100
AcDbPolyline
 62
250
  6
CONTINUOUS
 90
67
 70
0
 10
-50.2300470675
 20
22.0
 10
-50.2298489445
 20
22.0166583883
 10
-50.2292546879
 20
22.0333073411
 10
-50.2282646342
 20
22.0499374282
 10
-50.2268793442
 20
22.0665392303
 10
-50.2250996025
 20
22.0831033439
 10
-50.2229264172
 20
22.0996203868
 10
-50.2203610192
 20
22.1160810037
 10
-50.2174048616
 20
22.1324758711
 10
-50.2140596187
 20
22.1487957027
 10
-50.2103271855
 20
22.1650312549
 10
-50.2062096758
 20
22.1811733316
 10
-50.2017094221
 20
22.1972127898
 10
-50.1968289731
 20
22.2131405446
 10
-50.1915710934
 20
22.2289475743
 10
-50.185938761
 20
22.2446249257
 10
-50.179935166
 20
22.260163719
 10
-50.1735637091
 20
22.2755551527
 10
-50.1668279991
 20
22.2907905091
 10
-50.1597318511
 20
22.3058611587
 10
-50.1522792845
 20
22.3207585652
 10
-50.1444745204
 20
22.3354742907
 10
-50.1363219797
 20
22.35
 10
-50.12782628
 20
22.3643274656
 10
-50.1189922333
 20
22.3784485722
 10
-50.1098248434
 20
22.3923553216
 10
-50.1003293026
 20
22.4060398367
 10
-50.0905109896
 20
22.4194943666
 10
-50.0803754653
 20
22.4327112904
 10
-50.0699284707
 20
22.4456831219
 10
-50.0591759231
 20
22.4584025138
 10
-50.0481239128
 20
22.4708622616
 10
-50.0367786998
 20
22.483055308
 10
-50.0251467102
 20
22.4949747468
 10
-50.0132345324
 20
22.5066138267
 10
-50.0010489136
 20
22.5179659551
 10
-49.9885967559
 20
22.529024702
 10
-49.9758851123
 20
22.5397838038
 10
-49.9629211829
 20
22.5502371663
 10
-49.9497123105
 20
22.5603788686
 10
-49.9362659768
 20
22.5702031664
 10
-49.9225897979
 20
22.5797044951
 10
-49.9086915202
 20
22.588877473
 10
-49.8945790157
 20
22.5977169044
 10
-49.880260278
 20
22.6062177826
 10
-49.8657434174
 20
22.6143752927
 10
-49.8510366563
 20
22.6221848141
 10
-49.8361483249
 20
22.6296419233
 10
-49.821086856
 20
22.6367423967
 10
-49.8058607805
 20
22.6434822125
 10
-49.7904787228
 20
22.6498575531
 10
-49.7749493954
 20
22.6558648075
 10
-49.7592815942
 20
22.6615005731
 10
-49.7434841937
 20
22.6667616578
 10
-49.7275661417
 20
22.6716450815
 10
-49.7115364543
 20
22.6761480784
 10
-49.6954042109
 20
22.6802680978
 10
-49.6791785489
 20
22.6840028062
 10
-49.6628686589
 20
22.6873500881
 10
-49.6464837788
 20
22.6903080476
 10
-49.6300331893
 20
22.6928750093
 10
-49.6135262081
 20
22.6950495193
 10
-49.596972185
 20
22.6968303458
 10
-49.5803804963
 20
22.6982164802
 10
-49.5637605397
 20
22.6992071374
 10
-49.547121729
 20
22.6998017563
 10
-49.5304734886
 20
22.7
  0
LINE
  5
322
100
AcDbEntity
  8
RACCORDO
100
AcDbLine
 62
7
  6
CONTINUOUS
 10
-50.2973338898
 20
7.9570347546
 11
-50.2965158307
 21
8.0362035938
  0
LINE
  5
323
100
AcDbEntity
  8
RACCORDO
100
AcDbLine
 62
250
  6
CONTINUOUS
 10
-50.2969499631
 20
8.0284206313
 11
-50.2958478176
 21
8.1083789933
  0
LINE
  5
324
100
AcDbEntity
  8
RACCORDO
100
AcDbLine
 62
250
  6
CONTINUOUS
 10
-50.2038666966
 20
-40.6550857692
 11
-50.204715645
 21
-40.7183004707
  0
LINE
  5
325
100
AcDbEntity
  8
RACCORDO
100
AcDbLine
 62
250
  6
CONTINUOUS
 10
-50.2741581877
 20
-22.7963583188
 11
-50.2763410067
 21
-22.9499341654
  0
LINE
  5
326
100
AcDbEntity
  8
RACCORDO
100
AcDbLine
 62
7
  6
CONTINUOUS
 10
-50.2965158307
 20
8.0362035938
 11
-50.2952903066
 21
8.1194928937
  0
LINE
  5
327
100
AcDbEntity
  8
RACCORDO
100
AcDbLine
 62
250
  6
CONTINUOUS
 10
-50.2958478176
 20
8.1083789933
 11
-50.2944528145
 21
8.1844705438
  0
LWPOLYLINE
  5
328
100
AcDbEntity
  8
RACCORDO
100
AcDbPolyline
 62
250
  6
CONTINUOUS
 90
3
 70
0
 10
-50.204715645
 20
-40.7183004707
 10
-50.2051359002
 20
-40.7411215968
 10
-50.2052405685
 20
-40.7458720383
  0
LINE
  5
329
100
AcDbEntity
  8
RACCORDO
100
AcDbLine
 62
250
  6
CONTINUOUS
 10
-50.2718664025
 20
-22.6748269552
 11
-50.2741581877
 21
-22.7963583188
  0
LINE
  5
32A
100
AcDbEntity
  8
RACCORDO
100
AcDbLine
 62
7
  6
CONTINUOUS
 10
-50.2952903066
 20
8.1194928937
 11
-50.2938408157
 21
8.1934013828
  0
LINE
  5
32B
100
AcDbEntity
  8
RACCORDO
100
AcDbLine
 62
250
  6
CONTINUOUS
 10
-50.2944528145
 20
8.1844705438
 11
-50.2927792978
 21
8.2558973173
  0
LINE
  5
32C
100
AcDbEntity
  8
RACCORDO
100
AcDbLine
 62
250
  6
CONTINUOUS
 10
-50.2691691912
 20
-22.5604156849
 11
-50.2718664025
 21
-22.6748269552
  0
LINE
  5
32D
100
AcDbEntity
  8
RACCORDO
100
AcDbLine
 62
7
  6
CONTINUOUS
 10
-50.2938408157
 20
8.1934013828
 11
-50.2924701607
 21
8.2494315068
  0
LINE
  5
32E
100
AcDbEntity
  8
RACCORDO
100
AcDbLine
 62
250
  6
CONTINUOUS
 10
-50.2667345139
 20
-22.4746582478
 11
-50.2691691912
 21
-22.5604156849
  0
LINE
  5
32F
100
AcDbEntity
  8
RACCORDO
100
AcDbLine
 62
250
  6
CONTINUOUS
 10
-50.2927792978
 20
8.2558973173
 11
-50.2912539438
 21
8.3090630357
  0
LINE
  5
330
100
AcDbEntity
  8
RACCORDO
100
AcDbLine
 62
7
  6
CONTINUOUS
 10
-50.2924701607
 20
8.2494315068
 11
-50.2910241861
 21
8.298798925
  0
LINE
  5
331
100
AcDbEntity
  8
RACCORDO
100
AcDbLine
 62
250
  6
CONTINUOUS
 10
-50.2912539438
 20
8.3090630357
 11
-50.2900082972
 21
8.3463649084
  0
LINE
  5
332
100
AcDbEntity
  8
RACCORDO
100
AcDbLine
 62
250
  6
CONTINUOUS
 10
-50.2640713477
 20
-22.3946716339
 11
-50.2667345139
 21
-22.4746582478
  0
LINE
  5
333
100
AcDbEntity
  8
RACCORDO
100
AcDbLine
 62
7
  6
CONTINUOUS
 10
-50.2910241861
 20
8.298798925
 11
-50.2897888542
 21
8.3349942373
  0
LINE
  5
334
100
AcDbEntity
  8
RACCORDO
100
AcDbLine
 62
250
  6
CONTINUOUS
 10
-50.2900082972
 20
8.3463649084
 11
-50.2886809313
 21
8.3812968084
  0
LINE
  5
335
100
AcDbEntity
  8
RACCORDO
100
AcDbLine
 62
250
  6
CONTINUOUS
 10
-50.2619339882
 20
-22.3387703734
 11
-50.2640713477
 21
-22.3946716339
  0
LINE
  5
336
100
AcDbEntity
  8
RACCORDO
100
AcDbLine
 62
7
  6
CONTINUOUS
 10
-50.2897888542
 20
8.3349942373
 11
-50.2885458723
 21
8.3669106935
  0
LINE
  5
337
100
AcDbEntity
  8
RACCORDO
100
AcDbLine
 62
250
  6
CONTINUOUS
 10
-50.2604463999
 20
-22.3035562233
 11
-50.2619339882
 21
-22.3387703734
  0
LINE
  5
338
100
AcDbEntity
  8
RACCORDO
100
AcDbLine
 62
250
  6
CONTINUOUS
 10
-50.2886809313
 20
8.3812968084
 11
-50.28727736
 21
8.4137108995
  0
LINE
  5
339
100
AcDbEntity
  8
RACCORDO
100
AcDbLine
 62
7
  6
CONTINUOUS
 10
-50.2885458723
 20
8.3669106935
 11
-50.2875578719
 21
8.3895022959
  0
LINE
  5
33A
100
AcDbEntity
  8
RACCORDO
100
AcDbLine
 62
250
  6
CONTINUOUS
 10
-50.28727736
 20
8.4137108995
 11
-50.2863023731
 21
8.4338497408
  0
LINE
  5
33B
100
AcDbEntity
  8
RACCORDO
100
AcDbLine
 62
7
  6
CONTINUOUS
 10
-50.2875578719
 20
8.3895022959
 11
-50.2865861392
 21
8.4095762616
  0
LINE
  5
33C
100
AcDbEntity
  8
RACCORDO
100
AcDbLine
 62
250
  6
CONTINUOUS
 10
-50.2863023731
 20
8.4338497408
 11
-50.2852984404
 21
8.4527607813
  0
LINE
  5
33D
100
AcDbEntity
  8
RACCORDO
100
AcDbLine
 62
7
  6
CONTINUOUS
 10
-50.2865861392
 20
8.4095762616
 11
-50.2856421316
 21
8.4271955081
  0
LINE
  5
33E
100
AcDbEntity
  8
RACCORDO
100
AcDbLine
 62
250
  6
CONTINUOUS
 10
-50.2852984404
 20
8.4527607813
 11
-50.2842675399
 21
8.47041031
  0
LINE
  5
33F
100
AcDbEntity
  8
RACCORDO
100
AcDbLine
 62
7
  6
CONTINUOUS
 10
-50.2856421316
 20
8.4271955081
 11
-50.2849610125
 21
8.4388159706
  0
LINE
  5
340
100
AcDbEntity
  8
RACCORDO
100
AcDbLine
 62
7
  6
CONTINUOUS
 10
-50.2849610125
 20
8.4388159706
 11
-50.2843102347
 21
8.4490931012
  0
LINE
  5
341
100
AcDbEntity
  8
RACCORDO
100
AcDbLine
 62
250
  6
CONTINUOUS
 10
-50.2842675399
 20
8.47041031
 11
-50.2832109109
 21
8.4867772194
  0
LINE
  5
342
100
AcDbEntity
  8
RACCORDO
100
AcDbLine
 62
7
  6
CONTINUOUS
 10
-50.2843102347
 20
8.4490931012
 11
-50.2836980122
 21
8.4580304124
  0
LWPOLYLINE
  5
343
100
AcDbEntity
  8
RACCORDO
100
AcDbPolyline
 62
250
  6
CONTINUOUS
 90
18
 70
0
 10
-50.2832109109
 20
8.4867772194
 10
-50.2821302103
 20
8.501834465
 10
-50.2815814595
 20
8.5088623906
 10
-50.2810272206
 20
8.515553933
 10
-50.2804675867
 20
8.5219085023
 10
-50.2799034527
 20
8.5279148049
 10
-50.2793347554
 20
8.5335723674
 10
-50.2787615579
 20
8.538881663
 10
-50.278184945
 20
8.5438328184
 10
-50.2776049018
 20
8.548424627
 10
-50.2770214432
 20
8.5526582953
 10
-50.2764356977
 20
8.5565275689
 10
-50.2758476612
 20
8.5600311781
 10
-50.2752573379
 20
8.5631703927
 10
-50.2746658693
 20
8.5659427673
 10
-50.2740736361
 20
8.5683474869
 10
-50.2734802577
 20
8.5703853665
 10
-50.2728857341
 20
8.5720564063
  0
LINE
  5
344
100
AcDbEntity
  8
RACCORDO
100
AcDbLine
 62
7
  6
CONTINUOUS
 10
-50.2836980122
 20
8.4580304124
 11
-50.2831333679
 21
8.4656425787
  0
LINE
  5
345
100
AcDbEntity
  8
RACCORDO
100
AcDbLine
 62
7
  6
CONTINUOUS
 10
-50.2831333679
 20
8.4656425787
 11
-50.28278939
 21
8.4699736727
  0
LINE
  5
346
100
AcDbEntity
  8
RACCORDO
100
AcDbLine
 62
7
  6
CONTINUOUS
 10
-50.28278939
 20
8.4699736727
 11
-50.2824747332
 21
8.4737232914
  0
LINE
  5
347
100
AcDbEntity
  8
RACCORDO
100
AcDbLine
 62
7
  6
CONTINUOUS
 10
-50.2824747332
 20
8.4737232914
 11
-50.2821954143
 21
8.4768716857
  0
LINE
  5
348
100
AcDbEntity
  8
RACCORDO
100
AcDbLine
 62
7
  6
CONTINUOUS
 10
-50.2821954143
 20
8.4768716857
 11
-50.2819559994
 21
8.4794216689
  0
LINE
  5
349
100
AcDbEntity
  8
RACCORDO
100
AcDbLine
 62
7
  6
CONTINUOUS
 10
-50.2819559994
 20
8.4794216689
 11
-50.2817611976
 21
8.4813804549
  0
LINE
  5
34A
100
AcDbEntity
  8
RACCORDO
100
AcDbLine
 62
7
  6
CONTINUOUS
 10
-50.2817611976
 20
8.4813804549
 11
-50.2816167214
 21
8.4827511916
  0
LINE
  5
34B
100
AcDbEntity
  8
RACCORDO
100
AcDbLine
 62
250
  6
CONTINUOUS
 10
-50.278823388
 20
8.4939868156
 11
-50.2810080108
 21
8.4811111618
  0
LINE
  5
34C
100
AcDbEntity
  8
RACCORDO
100
AcDbLine
 62
250
  6
CONTINUOUS
 10
-50.2810080108
 20
8.4811111618
 11
-50.2824839408
 21
8.4736151255
  0
LWPOLYLINE
  5
34D
100
AcDbEntity
  8
RACCORDO
100
AcDbPolyline
 62
250
  6
CONTINUOUS
 90
64
 70
0
 10
-50.277869768
 20
23.1091934641
 10
-50.2770788783
 20
23.1127417543
 10
-50.2758722787
 20
23.1162879336
 10
-50.2742506872
 20
23.1198298924
 10
-50.2722150685
 20
23.1233655235
 10
-50.2697666334
 20
23.1268927235
 10
-50.2669068387
 20
23.1304093942
 10
-50.2636373856
 20
23.1339134434
 10
-50.2599602192
 20
23.1374027866
 10
-50.255877527
 20
23.1408753479
 10
-50.2513917378
 20
23.1443290614
 10
-50.2465055202
 20
23.1477618726
 10
-50.2412217812
 20
23.1511717393
 10
-50.2355436639
 20
23.1545566328
 10
-50.2294745464
 20
23.1579145395
 10
-50.2230180393
 20
23.1612434618
 10
-50.2161779834
 20
23.1645414193
 10
-50.2089584481
 20
23.1678064499
 10
-50.2013637282
 20
23.1710366114
 10
-50.193398342
 20
23.174229982
 10
-50.1850670279
 20
23.177384662
 10
-50.1763747425
 20
23.1804987747
 10
-50.1673266568
 20
23.1835704675
 10
-50.1579281535
 20
23.186597913
 10
-50.1481848239
 20
23.1895793101
 10
-50.1381024643
 20
23.1925128852
 10
-50.1276870728
 20
23.1953968932
 10
-50.1169448455
 20
23.1982296183
 10
-50.1058821731
 20
23.2010093752
 10
-50.0945056369
 20
23.2037345103
 10
-50.0828220047
 20
23.2064034025
 10
-50.0708382273
 20
23.2090144639
 10
-50.0585614338
 20
23.2115661412
 10
-50.0459989278
 20
23.2140569164
 10
-50.0331581829
 20
23.2164853078
 10
-50.0200468379
 20
23.2188498707
 10
-50.006672693
 20
23.2211491983
 10
-49.9930437045
 20
23.2233819229
 10
-49.9791679804
 20
23.2255467161
 10
-49.9650537754
 20
23.22764229
 10
-49.9507094861
 20
23.2296673982
 10
-49.9361436461
 20
23.2316208356
 10
-49.9213649206
 20
23.2335014404
 10
-49.9063821015
 20
23.2353080936
 10
-49.8912041023
 20
23.2370397206
 10
-49.8758399525
 20
23.2386952911
 10
-49.8602987922
 20
23.2402738202
 10
-49.8445898669
 20
23.2417743688
 10
-49.828722522
 20
23.2431960444
 10
-49.8127061972
 20
23.244538001
 10
-49.7965504204
 20
23.2457994404
 10
-49.7802648031
 20
23.2469796122
 10
-49.7638590334
 20
23.2480778142
 10
-49.7473428714
 20
23.2490933931
 10
-49.7307261426
 20
23.2500257447
 10
-49.7140187324
 20
23.2508743144
 10
-49.69723058
 20
23.2516385974
 10
-49.680371673
 20
23.252318139
 10
-49.6634520407
 20
23.2529125349
 10
-49.6464817486
 20
23.2534214315
 10
-49.6294708927
 20
23.2538445261
 10
-49.6124295926
 20
23.254181567
 10
-49.5953679864
 20
23.2544323536
 10
-49.5782962241
 20
23.2545967367
  0
LINE
  5
34E
100
AcDbEntity
  8
RACCORDO
100
AcDbLine
 62
250
  6
CONTINUOUS
 10
-50.2383993133
 20
8.567314696
 11
-50.2415863791
 21
8.5570037194
  0
LINE
  5
34F
100
AcDbEntity
  8
RACCORDO
100
AcDbLine
 62
250
  6
CONTINUOUS
 10
-50.2423021166
 20
8.5547304069
 11
-50.2427285138
 21
8.5533760917
  0
LINE
  5
350
100
AcDbEntity
  8
RACCORDO
100
AcDbLine
 62
250
  6
CONTINUOUS
 10
-50.2464903602
 20
8.5423838821
 11
-50.2467463491
 21
8.5416358762
  0
LINE
  5
351
100
AcDbEntity
  8
RACCORDO
100
AcDbLine
 62
250
  6
CONTINUOUS
 10
-50.2510344161
 20
8.5300613799
 11
-50.2511423859
 21
8.5297699442
  0
LWPOLYLINE
  5
352
100
AcDbEntity
  8
RACCORDO
100
AcDbPolyline
 62
7
  6
CONTINUOUS
 90
17
 70
0
 10
-50.2534090028
 20
8.5239889679
 10
-50.2511423859
 20
8.5297699442
 10
-50.2467463491
 20
8.5416358762
 10
-50.2427285138
 20
8.5533760917
 10
-50.2390325956
 20
8.5651150014
 10
-50.2356032485
 20
8.5770267763
 10
-50.23243007
 20
8.5891819698
 10
-50.2295447651
 20
8.6014967469
 10
-50.2269647545
 20
8.6139171874
 10
-50.2246959059
 20
8.6264273912
 10
-50.222741184
 20
8.6390242781
 10
-50.2211077201
 20
8.6516713139
 10
-50.2197994283
 20
8.6643325144
 10
-50.2188138363
 20
8.6770231778
 10
-50.2181496993
 20
8.6897835321
 10
-50.2178109819
 20
8.7026202534
 10
-50.217765157
 20
8.7093895131
  0
LINE
  5
353
100
AcDbEntity
  8
RACCORDO
100
AcDbLine
 62
250
  6
CONTINUOUS
 10
-50.2728857341
 20
8.5720564063
 11
-50.2180697434
 21
8.7093895131
  0
LINE
  5
354
100
AcDbEntity
  8
RACCORDO
100
AcDbLine
 62
7
  6
CONTINUOUS
 10
-50.2845061946
 20
8.4460796883
 11
-50.2533902224
 21
8.5240360125
  0
LWPOLYLINE
  5
355
100
AcDbEntity
  8
RACCORDO
100
AcDbPolyline
 62
250
  6
CONTINUOUS
 90
45
 70
0
 10
-49.9604806487
 20
-22.5421582853
 10
-49.9713288196
 20
-22.5331280491
 10
-49.9819926613
 20
-22.5238813676
 10
-49.9924680171
 20
-22.5144218362
 10
-50.002750468
 20
-22.5047534372
 10
-50.0128355998
 20
-22.49488031
 10
-50.0227193358
 20
-22.4848064722
 10
-50.0323976832
 20
-22.4745360212
 10
-50.0418665027
 20
-22.4640733652
 10
-50.051121834
 20
-22.4534229462
 10
-50.0601601091
 20
-22.4425889385
 10
-50.0689779042
 20
-22.43157546
 10
-50.0775716069
 20
-22.4203870493
 10
-50.0859377962
 20
-22.4090281892
 10
-50.0940734234
 20
-22.397502983
 10
-50.1019753444
 20
-22.3858158276
 10
-50.1096401517
 20
-22.3739717056
 10
-50.1170645292
 20
-22.3619756866
 10
-50.1242456734
 20
-22.3498322678
 10
-50.1311804426
 20
-22.3375467312
 10
-50.1378652606
 20
-22.3251254714
 10
-50.1442973513
 20
-22.3125738612
 10
-50.1504743462
 20
-22.2998967478
 10
-50.1563935538
 20
-22.2870998771
 10
-50.162052214
 20
-22.2741896109
 10
-50.1674486752
 20
-22.2611701316
 10
-50.1725819338
 20
-22.2480439259
 10
-50.1774497977
 20
-22.2348164652
 10
-50.1820503122
 20
-22.2214929196
 10
-50.1863826161
 20
-22.2080752481
 10
-50.1904452342
 20
-22.1945669436
 10
-50.1942356429
 20
-22.1809752527
 10
-50.1977514937
 20
-22.1673077974
 10
-50.2009915068
 20
-22.1535688417
 10
-50.2039539001
 20
-22.1397651824
 10
-50.2066362281
 20
-22.1259084041
 10
-50.2090376432
 20
-22.1120040767
 10
-50.2111573774
 20
-22.0980579938
 10
-50.2129940222
 20
-22.0840822287
 10
-50.2145474539
 20
-22.0700824276
 10
-50.2158176446
 20
-22.0560644273
 10
-50.2168042917
 20
-22.0420406655
 10
-50.2175079256
 20
-22.0280191103
 10
-50.2179294603
 20
-22.0140032179
 10
-50.2180697435
 20
-21.9999986429
  0
LINE
  5
356
100
AcDbEntity
  8
RACCORDO
100
AcDbLine
 62
250
  6
CONTINUOUS
 10
-50.2180697434
 20
-8.7093895131
 11
-50.2728857341
 21
-8.5720564063
  0
LINE
  5
357
100
AcDbEntity
  8
RACCORDO
100
AcDbLine
 62
7
  6
CONTINUOUS
 10
-50.2533902224
 20
-8.5240360125
 11
-50.2845061586
 21
-8.4460797787
  0
LWPOLYLINE
  5
358
100
AcDbEntity
  8
RACCORDO
100
AcDbPolyline
 62
7
  6
CONTINUOUS
 90
17
 70
0
 10
-50.2534090028
 20
-8.5239889679
 10
-50.2511423859
 20
-8.5297699442
 10
-50.2467463491
 20
-8.5416358762
 10
-50.2427285138
 20
-8.5533760917
 10
-50.2390325956
 20
-8.5651150014
 10
-50.2356032485
 20
-8.5770267763
 10
-50.23243007
 20
-8.5891819698
 10
-50.2295447651
 20
-8.6014967469
 10
-50.2269647545
 20
-8.6139171874
 10
-50.2246959059
 20
-8.6264273912
 10
-50.222741184
 20
-8.6390242781
 10
-50.2211077201
 20
-8.6516713139
 10
-50.2197994283
 20
-8.6643325144
 10
-50.2188138363
 20
-8.6770231778
 10
-50.2181496993
 20
-8.6897835321
 10
-50.2178109819
 20
-8.7026202534
 10
-50.217765157
 20
-8.7093895131
  0
LINE
  5
359
100
AcDbEntity
  8
RACCORDO
100
AcDbLine
 62
250
  6
CONTINUOUS
 10
-50.2510344159
 20
-8.5300613805
 11
-50.2511423859
 21
-8.5297699442
  0
LINE
  5
35A
100
AcDbEntity
  8
RACCORDO
100
AcDbLine
 62
250
  6
CONTINUOUS
 10
-50.24649036
 20
-8.5423838828
 11
-50.2467463491
 21
-8.5416358762
  0
LWPOLYLINE
  5
35B
100
AcDbEntity
  8
RACCORDO
100
AcDbPolyline
 62
250
  6
CONTINUOUS
 90
16
 70
0
 10
-50.2728857341
 20
-8.5720564063
 10
-50.2734796454
 20
-8.5703875199
 10
-50.2740724916
 20
-8.5683519682
 10
-50.2746642727
 20
-8.5659497511
 10
-50.2752553777
 20
-8.56318013
 10
-50.2758454176
 20
-8.5600438435
 10
-50.2764332251
 20
-8.5565431074
 10
-50.2770187872
 20
-8.5526766794
 10
-50.2776021169
 20
-8.5484458017
 10
-50.2781820858
 20
-8.5438564171
 10
-50.2787586818
 20
-8.5389072975
 10
-50.279331917
 20
-8.5335996709
 10
-50.2799006998
 20
-8.5279431642
 10
-50.2804649836
 20
-8.52193705
 10
-50.281024815
 20
-8.5155820555
 10
-50.2815792422
 20
-8.50888999
  0
LINE
  5
35C
100
AcDbEntity
  8
RACCORDO
100
AcDbLine
 62
250
  6
CONTINUOUS
 10
-50.2423021164
 20
-8.5547304075
 11
-50.2427285138
 21
-8.5533760917
  0
LINE
  5
35D
100
AcDbEntity
  8
RACCORDO
100
AcDbLine
 62
250
  6
CONTINUOUS
 10
-50.2383993131
 20
-8.5673146965
 11
-50.2415863785
 21
-8.5570037215
  0
LWPOLYLINE
  5
35E
100
AcDbEntity
  8
RACCORDO
100
AcDbPolyline
 62
250
  6
CONTINUOUS
 90
64
 70
0
 10
-50.277869803
 20
-23.1091934641
 10
-50.2770789122
 20
-23.1127417543
 10
-50.2758723115
 20
-23.1162879335
 10
-50.274250719
 20
-23.1198298922
 10
-50.2722150991
 20
-23.1233655233
 10
-50.2697666631
 20
-23.1268927233
 10
-50.2669068673
 20
-23.130409394
 10
-50.2636374132
 20
-23.1339134431
 10
-50.2599602458
 20
-23.1374027862
 10
-50.2558775526
 20
-23.1408753474
 10
-50.2513917624
 20
-23.1443290609
 10
-50.246505544
 20
-23.147761872
 10
-50.241221804
 20
-23.1511717386
 10
-50.2355436858
 20
-23.154556632
 10
-50.2294745675
 20
-23.1579145387
 10
-50.2230180595
 20
-23.1612434609
 10
-50.2161780028
 20
-23.1645414182
 10
-50.2089584666
 20
-23.1678064488
 10
-50.201363746
 20
-23.1710366101
 10
-50.1933983589
 20
-23.1742299806
 10
-50.1850670441
 20
-23.1773846606
 10
-50.176374758
 20
-23.1804987732
 10
-50.1673266715
 20
-23.1835704658
 10
-50.1579281676
 20
-23.1865979112
 10
-50.1481848373
 20
-23.1895793083
 10
-50.138102477
 20
-23.1925128833
 10
-50.1276870849
 20
-23.1953968911
 10
-50.116944857
 20
-23.1982296161
 10
-50.1058821841
 20
-23.2010093729
 10
-50.0945056472
 20
-23.203734508
 10
-50.0828220145
 20
-23.2064034
 10
-50.0708382365
 20
-23.2090144613
 10
-50.0585614426
 20
-23.2115661385
 10
-50.0459989361
 20
-23.2140569136
 10
-50.0331581907
 20
-23.2164853049
 10
-50.0200468453
 20
-23.2188498677
 10
-50.0066726999
 20
-23.2211491952
 10
-49.993043711
 20
-23.2233819197
 10
-49.9791679865
 20
-23.2255467128
 10
-49.9650537811
 20
-23.2276422867
 10
-49.9507094914
 20
-23.2296673947
 10
-49.936143651
 20
-23.2316208321
 10
-49.9213649252
 20
-23.2335014368
 10
-49.9063821058
 20
-23.2353080899
 10
-49.8912041063
 20
-23.2370397168
 10
-49.8758399562
 20
-23.2386952872
 10
-49.8602987956
 20
-23.2402738162
 10
-49.84458987
 20
-23.2417743648
 10
-49.8287225249
 20
-23.2431960403
 10
-49.8127061998
 20
-23.2445379969
 10
-49.7965504229
 20
-23.2457994362
 10
-49.7802648052
 20
-23.2469796079
 10
-49.7638590354
 20
-23.2480778099
 10
-49.7473428732
 20
-23.2490933887
 10
-49.7307261442
 20
-23.2500257403
 10
-49.7140187337
 20
-23.25087431
 10
-49.6972305812
 20
-23.251638593
 10
-49.680371674
 20
-23.2523181345
 10
-49.6634520415
 20
-23.2529125304
 10
-49.6464817493
 20
-23.253421427
 10
-49.6294708932
 20
-23.2538445215
 10
-49.6124295929
 20
-23.2541815624
 10
-49.5953679866
 20
-23.254432349
 10
-49.5782962241
 20
-23.2545967321
  0
LINE
  5
35F
100
AcDbEntity
  8
RACCORDO
100
AcDbLine
 62
250
  6
CONTINUOUS
 10
-50.2810080129
 20
-8.4811111504
 11
-50.2824837447
 21
-8.4736161218
  0
LINE
  5
360
100
AcDbEntity
  8
RACCORDO
100
AcDbLine
 62
250
  6
CONTINUOUS
 10
-50.2788233896
 20
-8.4939868055
 11
-50.2810080129
 21
-8.4811111504
  0
LINE
  5
361
100
AcDbEntity
  8
RACCORDO
100
AcDbLine
 62
7
  6
CONTINUOUS
 10
-50.2815643485
 20
-8.4832660333
 11
-50.2815321363
 21
-8.4835172945
  0
LWPOLYLINE
  5
362
100
AcDbEntity
  8
RACCORDO
100
AcDbPolyline
 62
7
  6
CONTINUOUS
 90
3
 70
0
 10
-50.2815165565
 20
-8.4836415626
 10
-50.2815689798
 20
-8.4831842548
 10
-50.2816185814
 20
-8.4827342781
  0
LWPOLYLINE
  5
363
100
AcDbEntity
  8
RACCORDO
100
AcDbPolyline
 62
250
  6
CONTINUOUS
 90
31
 70
0
 10
-50.6626202013
 20
38.728078774
 10
-50.6471005483
 20
38.5861005453
 10
-50.6317324627
 20
38.4379685049
 10
-50.6165175588
 20
38.2836976963
 10
-50.6014735468
 20
38.1235235217
 10
-50.5865935578
 20
37.9572320505
 10
-50.5718309835
 20
37.7841714828
 10
-50.5572100811
 20
37.6044981457
 10
-50.5427422386
 20
37.4180654905
 10
-50.5283669765
 20
37.2237691864
 10
-50.5141033456
 20
37.0214868858
 10
-50.4999983831
 20
36.8113455889
 10
-50.4860411258
 20
36.5926164861
 10
-50.4722916356
 20
36.3656614608
 10
-50.4587745301
 20
36.1301229004
 10
-50.4454417257
 20
35.8841934019
 10
-50.43232432
 20
35.6272325061
 10
-50.4195310571
 20
35.3598833859
 10
-50.4071416119
 20
35.0822660179
 10
-50.3951663652
 20
34.7927765615
 10
-50.3837666493
 20
34.4930278949
 10
-50.3731973288
 20
34.1879724072
 10
-50.3634800397
 20
33.8768590764
 10
-50.3546996379
 20
33.560461066
 10
-50.3470813516
 20
33.2460246413
 10
-50.3406420612
 20
32.9350824041
 10
-50.3353407643
 20
32.6261285527
 10
-50.331210997
 20
32.3218530366
 10
-50.3282332934
 20
32.0231596696
 10
-50.3263750824
 20
31.7291688936
 10
-50.3256196063
 20
31.4398938161
  0
LWPOLYLINE
  5
364
100
AcDbEntity
  8
RACCORDO
100
AcDbPolyline
 62
250
  6
CONTINUOUS
 90
31
 70
0
 10
-49.5577591461
 20
22.8191649952
 10
-49.5569530802
 20
22.8115655528
 10
-49.5561363404
 20
22.8041950793
 10
-49.5553098812
 20
22.797056525
 10
-49.5544736651
 20
22.7901525089
 10
-49.5536277296
 20
22.7834859669
 10
-49.5527731418
 20
22.7770601173
 10
-49.5519098928
 20
22.7708774625
 10
-49.5510379915
 20
22.7649403471
 10
-49.5501585305
 20
22.7592514857
 10
-49.5492715714
 20
22.7538134182
 10
-49.5483770526
 20
22.7486277163
 10
-49.5474758827
 20
22.743695555
 10
-49.5465680886
 20
22.7390190283
 10
-49.5456536433
 20
22.7345998184
 10
-49.5447333746
 20
22.730438649
 10
-49.5438071763
 20
22.7265369568
 10
-49.5428751547
 20
22.722896954
 10
-49.5419384564
 20
22.7195205193
 10
-49.540996973
 20
22.7164088251
 10
-49.5400508129
 20
22.7135636322
 10
-49.5391014482
 20
22.7109871783
 10
-49.538148852
 20
22.7086802949
 10
-49.5371930511
 20
22.7066437833
 10
-49.536235598
 20
22.704879009
 10
-49.5352764871
 20
22.7033861506
 10
-49.534315724
 20
22.7021653075
 10
-49.5333548773
 20
22.7012168327
 10
-49.5323944699
 20
22.7005403013
 10
-49.5314339789
 20
22.7001349304
 10
-49.5304734043
 20
22.7
  0
LINE
  5
365
100
AcDbEntity
  8
RACCORDO
100
AcDbLine
 62
250
  6
CONTINUOUS
 10
-49.5593392147
 20
22.8350385379
 11
-49.5577591461
 21
22.8191649952
  0
LINE
  5
366
100
AcDbEntity
  8
RACCORDO
100
AcDbLine
 62
250
  6
CONTINUOUS
 10
-49.5608738954
 20
22.8517914797
 11
-49.5593392147
 21
22.8350385379
  0
LWPOLYLINE
  5
367
100
AcDbEntity
  8
RACCORDO
100
AcDbPolyline
 62
250
  6
CONTINUOUS
 90
21
 70
0
 10
-50.2488450461
 20
22.1076266721
 10
-50.2479505241
 20
22.0972526642
 10
-50.2470493512
 20
22.0873895571
 10
-50.2461415538
 20
22.0780378372
 10
-50.2452271054
 20
22.069197018
 10
-50.2443068342
 20
22.0608759327
 10
-50.2433806345
 20
22.053074118
 10
-50.242448612
 20
22.0457920371
 10
-50.2415119123
 20
22.0390399127
 10
-50.2405704255
 20
22.0328181606
 10
-50.2396242614
 20
22.0271263649
 10
-50.2386748954
 20
22.0219735013
 10
-50.2377223045
 20
22.0173610234
 10
-50.2367665115
 20
22.0132874777
 10
-50.2358090609
 20
22.0097574789
 10
-50.2348499331
 20
22.0067726098
 10
-50.2338891476
 20
22.0043312877
 10
-50.2329283079
 20
22.002433379
 10
-50.2319679486
 20
22.0010788392
 10
-50.2310075351
 20
22.0002677129
 10
-50.2300470675
 20
22.0
  0
LINE
  5
368
100
AcDbEntity
  8
RACCORDO
100
AcDbLine
 62
250
  6
CONTINUOUS
 10
-49.5623614414
 20
22.8693980109
 11
-49.5608738954
 21
22.8517914797
  0
LINE
  5
369
100
AcDbEntity
  8
RACCORDO
100
AcDbLine
 62
250
  6
CONTINUOUS
 10
-50.2506114732
 20
22.1298778911
 11
-50.2488450461
 21
22.1076266721
  0
LINE
  5
36A
100
AcDbEntity
  8
RACCORDO
100
AcDbLine
 62
250
  6
CONTINUOUS
 10
-49.563799278
 20
22.8878313892
 11
-49.5623614414
 21
22.8693980109
  0
LINE
  5
36B
100
AcDbEntity
  8
RACCORDO
100
AcDbLine
 62
250
  6
CONTINUOUS
 10
-49.5651849752
 20
22.9070637279
 11
-49.563799278
 21
22.8878313892
  0
LINE
  5
36C
100
AcDbEntity
  8
RACCORDO
100
AcDbLine
 62
250
  6
CONTINUOUS
 10
-50.2523466315
 20
22.1541184965
 11
-50.2506114732
 21
22.1298778911
  0
LINE
  5
36D
100
AcDbEntity
  8
RACCORDO
100
AcDbLine
 62
250
  6
CONTINUOUS
 10
-49.5665169217
 20
22.9270653176
 11
-49.5651849752
 21
22.9070637279
  0
LINE
  5
36E
100
AcDbEntity
  8
RACCORDO
100
AcDbLine
 62
250
  6
CONTINUOUS
 10
-50.2540471636
 20
22.1803054322
 11
-50.2523466315
 21
22.1541184965
  0
LINE
  5
36F
100
AcDbEntity
  8
RACCORDO
100
AcDbLine
 62
250
  6
CONTINUOUS
 10
-49.5677927382
 20
22.9478052961
 11
-49.5665169217
 21
22.9270653176
  0
LINE
  5
370
100
AcDbEntity
  8
RACCORDO
100
AcDbLine
 62
250
  6
CONTINUOUS
 10
-50.2557098485
 20
22.2083868615
 11
-50.2540471636
 21
22.1803054322
  0
LINE
  5
371
100
AcDbEntity
  8
RACCORDO
100
AcDbLine
 62
250
  6
CONTINUOUS
 10
-49.569010017
 20
22.9692475781
 11
-49.5677927382
 21
22.9478052961
  0
LINE
  5
372
100
AcDbEntity
  8
RACCORDO
100
AcDbLine
 62
250
  6
CONTINUOUS
 10
-50.2573326644
 20
22.2383284387
 11
-50.2557098485
 21
22.2083868615
  0
LINE
  5
373
100
AcDbEntity
  8
RACCORDO
100
AcDbLine
 62
250
  6
CONTINUOUS
 10
-49.5707225115
 20
23.002648622
 11
-49.569010017
 21
22.9692475781
  0
LWPOLYLINE
  5
374
100
AcDbEntity
  8
RACCORDO
100
AcDbPolyline
 62
250
  6
CONTINUOUS
 90
10
 70
0
 10
-50.2044992974
 20
40.7502361715
 10
-50.2046925754
 20
40.7542083752
 10
-50.2048875628
 20
40.7577880704
 10
-50.2050837336
 20
40.7609732023
 10
-50.2052810885
 20
40.7637619384
 10
-50.2054796267
 20
40.7661526743
 10
-50.2056788194
 20
40.7681440368
 10
-50.2058784903
 20
40.7697348795
 10
-50.2060788156
 20
40.770924285
 10
-50.2062797953
 20
40.771711568
  0
LWPOLYLINE
  5
375
100
AcDbEntity
  8
RACCORDO
100
AcDbPolyline
 62
250
  6
CONTINUOUS
 90
3
 70
0
 10
-50.2604474359
 20
22.30357978
 10
-50.2596858798
 20
22.2866120591
 10
-50.2573326644
 20
22.2383284387
  0
LINE
  5
376
100
AcDbEntity
  8
RACCORDO
100
AcDbLine
 62
250
  6
CONTINUOUS
 10
-49.5722934731
 20
23.0374300212
 11
-49.5707225115
 21
23.002648622
  0
LINE
  5
377
100
AcDbEntity
  8
RACCORDO
100
AcDbLine
 62
250
  6
CONTINUOUS
 10
-50.2041178723
 20
40.7411235993
 11
-50.2044992974
 21
40.7502361715
  0
LINE
  5
378
100
AcDbEntity
  8
RACCORDO
100
AcDbLine
 62
250
  6
CONTINUOUS
 10
-49.5737184742
 20
23.0734940293
 11
-49.5722934731
 21
23.0374300212
  0
LINE
  5
379
100
AcDbEntity
  8
RACCORDO
100
AcDbLine
 62
250
  6
CONTINUOUS
 10
-50.2037448527
 20
40.7304712936
 11
-50.2041178723
 21
40.7411235993
  0
LINE
  5
37A
100
AcDbEntity
  8
RACCORDO
100
AcDbLine
 62
250
  6
CONTINUOUS
 10
-49.5749929762
 20
23.1107343321
 11
-49.5737184742
 21
23.0734940293
  0
LINE
  5
37B
100
AcDbEntity
  8
RACCORDO
100
AcDbLine
 62
250
  6
CONTINUOUS
 10
-49.5761114403
 20
23.1489976664
 11
-49.5749929762
 21
23.1107343321
  0
LWPOLYLINE
  5
37C
100
AcDbEntity
  8
RACCORDO
100
AcDbPolyline
 62
250
  6
CONTINUOUS
 90
3
 70
0
 10
-50.2030287004
 20
40.704648879
 10
-50.2032036148
 20
40.7116603365
 10
-50.2037448527
 20
40.7304712936
  0
LINE
  5
37D
100
AcDbEntity
  8
RACCORDO
100
AcDbLine
 62
250
  6
CONTINUOUS
 10
-49.5770686763
 20
23.1880980908
 11
-49.5761114403
 21
23.1489976664
  0
LINE
  5
37E
100
AcDbEntity
  8
RACCORDO
100
AcDbLine
 62
250
  6
CONTINUOUS
 10
-49.577860862
 20
23.2278401562
 11
-49.5770686763
 21
23.1880980908
  0
LINE
  5
37F
100
AcDbEntity
  8
RACCORDO
100
AcDbLine
 62
250
  6
CONTINUOUS
 10
-49.5782962458
 20
23.2545980146
 11
-49.577860862
 21
23.2278401562
  0
LINE
  5
380
100
AcDbEntity
  8
RACCORDO
100
AcDbLine
 62
250
  6
CONTINUOUS
 10
-49.5776151699
 20
-23.2145240343
 11
-49.5782962444
 21
-23.2545979312
  0
LINE
  5
381
100
AcDbEntity
  8
RACCORDO
100
AcDbLine
 62
250
  6
CONTINUOUS
 10
-49.5767673905
 20
-23.1749647608
 11
-49.5776151699
 21
-23.2145240343
  0
LINE
  5
382
100
AcDbEntity
  8
RACCORDO
100
AcDbLine
 62
250
  6
CONTINUOUS
 10
-50.2052405685
 20
-40.7458720383
 11
-50.205449479
 21
-40.7542072148
  0
LINE
  5
383
100
AcDbEntity
  8
RACCORDO
100
AcDbLine
 62
250
  6
CONTINUOUS
 10
-49.5757557524
 20
-23.1361189291
 11
-49.5767673905
 21
-23.1749647608
  0
LWPOLYLINE
  5
384
100
AcDbEntity
  8
RACCORDO
100
AcDbPolyline
 62
250
  6
CONTINUOUS
 90
8
 70
0
 10
-50.205449479
 20
-40.7542072148
 10
-50.205657831
 20
-40.760972502
 10
-50.2057618093
 20
-40.7637614294
 10
-50.2058656553
 20
-40.7661523289
 10
-50.2059693761
 20
-40.7681438246
 10
-50.2060729743
 20
-40.7697347693
 10
-50.2061764474
 20
-40.7709242457
 10
-50.2062797953
 20
-40.771711568
  0
LINE
  5
385
100
AcDbEntity
  8
RACCORDO
100
AcDbLine
 62
250
  6
CONTINUOUS
 10
-49.5745845544
 20
-23.0981769512
 11
-49.5757557524
 21
-23.1361189291
  0
LINE
  5
386
100
AcDbEntity
  8
RACCORDO
100
AcDbLine
 62
250
  6
CONTINUOUS
 10
-49.5732592746
 20
-23.0613165138
 11
-49.5745845544
 21
-23.0981769512
  0
LINE
  5
387
100
AcDbEntity
  8
RACCORDO
100
AcDbLine
 62
250
  6
CONTINUOUS
 10
-49.5717851671
 20
-23.0256723519
 11
-49.5732592746
 21
-23.0613165138
  0
LINE
  5
388
100
AcDbEntity
  8
RACCORDO
100
AcDbLine
 62
250
  6
CONTINUOUS
 10
-50.2581269444
 20
-22.2539552924
 11
-50.2604463999
 21
-22.3035562233
  0
LINE
  5
389
100
AcDbEntity
  8
RACCORDO
100
AcDbLine
 62
250
  6
CONTINUOUS
 10
-49.5701664354
 20
-22.9913401134
 11
-49.5717851671
 21
-23.0256723519
  0
LINE
  5
38A
100
AcDbEntity
  8
RACCORDO
100
AcDbLine
 62
250
  6
CONTINUOUS
 10
-50.2565254482
 20
-22.2231106043
 11
-50.2581269444
 21
-22.2539552924
  0
LINE
  5
38B
100
AcDbEntity
  8
RACCORDO
100
AcDbLine
 62
250
  6
CONTINUOUS
 10
-49.56840788
 20
-22.9584243743
 11
-49.5701664354
 21
-22.9913401134
  0
LINE
  5
38C
100
AcDbEntity
  8
RACCORDO
100
AcDbLine
 62
250
  6
CONTINUOUS
 10
-50.2548821897
 20
-22.1940911688
 11
-50.2565254482
 21
-22.2231106043
  0
LINE
  5
38D
100
AcDbEntity
  8
RACCORDO
100
AcDbLine
 62
250
  6
CONTINUOUS
 10
-49.567160874
 20
-22.9373290104
 11
-49.56840788
 21
-22.9584243743
  0
LINE
  5
38E
100
AcDbEntity
  8
RACCORDO
100
AcDbLine
 62
250
  6
CONTINUOUS
 10
-50.2531999924
 20
-22.1669499147
 11
-50.2548821897
 21
-22.1940911688
  0
LINE
  5
38F
100
AcDbEntity
  8
RACCORDO
100
AcDbLine
 62
250
  6
CONTINUOUS
 10
-49.5658569579
 20
-22.9169549384
 11
-49.567160874
 21
-22.9373290104
  0
LINE
  5
390
100
AcDbEntity
  8
RACCORDO
100
AcDbLine
 62
250
  6
CONTINUOUS
 10
-50.2514821365
 20
-22.1417377324
 11
-50.2531999924
 21
-22.1669499147
  0
LINE
  5
391
100
AcDbEntity
  8
RACCORDO
100
AcDbLine
 62
250
  6
CONTINUOUS
 10
-49.5644977162
 20
-22.8973348445
 11
-49.5658569579
 21
-22.9169549384
  0
LINE
  5
392
100
AcDbEntity
  8
RACCORDO
100
AcDbLine
 62
250
  6
CONTINUOUS
 10
-49.5630855106
 20
-22.8784992416
 11
-49.5644977162
 21
-22.8973348445
  0
LINE
  5
393
100
AcDbEntity
  8
RACCORDO
100
AcDbLine
 62
250
  6
CONTINUOUS
 10
-49.5616227884
 20
-22.8604764609
 11
-49.5630855106
 21
-22.8784992416
  0
LINE
  5
394
100
AcDbEntity
  8
RACCORDO
100
AcDbLine
 62
250
  6
CONTINUOUS
 10
-49.5601112185
 20
-22.8432941129
 11
-49.5616227884
 21
-22.8604764609
  0
LINE
  5
395
100
AcDbEntity
  8
RACCORDO
100
AcDbLine
 62
250
  6
CONTINUOUS
 10
-50.6626202597
 20
-38.7280787645
 11
-50.6737871652
 21
-38.8256864338
  0
LINE
  5
396
100
AcDbEntity
  8
RACCORDO
100
AcDbLine
 62
250
  6
CONTINUOUS
 10
-50.6737871652
 20
-38.8256864338
 11
-50.6847168859
 21
-38.9175886555
  0
LINE
  5
397
100
AcDbEntity
  8
RACCORDO
100
AcDbLine
 62
250
  6
CONTINUOUS
 10
-50.6847168859
 20
-38.9175886555
 11
-50.6953881011
 21
-39.0039061545
  0
LINE
  5
398
100
AcDbEntity
  8
RACCORDO
100
AcDbLine
 62
250
  6
CONTINUOUS
 10
-50.6953881011
 20
-39.0039061545
 11
-50.7058129919
 21
-39.085026598
  0
LINE
  5
399
100
AcDbEntity
  8
RACCORDO
100
AcDbLine
 62
250
  6
CONTINUOUS
 10
-50.7058129919
 20
-39.085026598
 11
-50.7160022573
 21
-39.1612955465
  0
LINE
  5
39A
100
AcDbEntity
  8
RACCORDO
100
AcDbLine
 62
250
  6
CONTINUOUS
 10
-50.7160022573
 20
-39.1612955465
 11
-50.7259545712
 21
-39.2329434881
  0
LINE
  5
39B
100
AcDbEntity
  8
RACCORDO
100
AcDbLine
 62
250
  6
CONTINUOUS
 10
-50.7259545712
 20
-39.2329434881
 11
-50.735685515
 21
-39.3003084664
  0
LINE
  5
39C
100
AcDbEntity
  8
RACCORDO
100
AcDbLine
 62
250
  6
CONTINUOUS
 10
-50.735685515
 20
-39.3003084664
 11
-50.7452161775
 21
-39.3637350718
  0
LINE
  5
39D
100
AcDbEntity
  8
RACCORDO
100
AcDbLine
 62
250
  6
CONTINUOUS
 10
-50.7452161775
 20
-39.3637350718
 11
-50.7545549647
 21
-39.423455775
  0
LINE
  5
39E
100
AcDbEntity
  8
RACCORDO
100
AcDbLine
 62
250
  6
CONTINUOUS
 10
-50.7545549647
 20
-39.423455775
 11
-50.763731589
 21
-39.4798185911
  0
LINE
  5
39F
100
AcDbEntity
  8
RACCORDO
100
AcDbLine
 62
250
  6
CONTINUOUS
 10
-49.9498264936
 20
22.5505280985
 11
-49.9494522824
 21
22.550968643
  0
LWPOLYLINE
  5
3A0
100
AcDbEntity
  8
RACCORDO
100
AcDbPolyline
 62
250
  6
CONTINUOUS
 90
5
 70
0
 10
-49.9382482379
 20
22.5595554871
 10
-49.9268729849
 20
22.5679153669
 10
-49.91533066
 20
22.5760452132
 10
-49.9036256456
 20
22.5839418561
 10
-49.8917629111
 20
22.5916018613
  0
LINE
  5
3A1
100
AcDbEntity
  8
RACCORDO
100
AcDbLine
 62
250
  6
CONTINUOUS
 10
-49.8804949536
 20
22.5984743281
 11
-49.879747565
 21
22.599021893
  0
LINE
  5
3A2
100
AcDbEntity
  8
RACCORDO
100
AcDbLine
 62
250
  6
CONTINUOUS
 10
-49.8675840966
 20
22.6061991202
 11
-49.8659614092
 21
22.6070448347
  0
LWPOLYLINE
  5
3A3
100
AcDbEntity
  8
RACCORDO
100
AcDbPolyline
 62
250
  6
CONTINUOUS
 90
31
 70
0
 10
72.0797527471
 20
-40.1163337878
 10
72.0912162736
 20
-40.1151021901
 10
72.1023760304
 20
-40.1138352915
 10
72.1132279345
 20
-40.1125542742
 10
72.1237651591
 20
-40.1112490878
 10
72.1339800789
 20
-40.1099105557
 10
72.1438681884
 20
-40.1085603024
 10
72.1534239339
 20
-40.1071883628
 10
72.1626406159
 20
-40.1057852701
 10
72.1715131408
 20
-40.1043727765
 10
72.180037363
 20
-40.1029412552
 10
72.1882076156
 20
-40.1014810407
 10
72.1960181007
 20
-40.1000136137
 10
72.2034661548
 20
-40.0985299784
 10
72.2105472286
 20
-40.097020401
 10
72.2172548116
 20
-40.0955056292
 10
72.2235876947
 20
-40.0939776055
 10
72.2295424831
 20
-40.0924266907
 10
72.2351121229
 20
-40.0908724175
 10
72.2402966909
 20
-40.0893079512
 10
72.2450939048
 20
-40.0877239325
 10
72.249496571
 20
-40.0861382283
 10
72.2535057288
 20
-40.0845454509
 10
72.2571200525
 20
-40.0829367112
 10
72.2603328694
 20
-40.0813278399
 10
72.2631457259
 20
-40.0797150352
 10
72.2655579647
 20
-40.0780900548
 10
72.2675643018
 20
-40.0764664293
 10
72.2691648797
 20
-40.0748468179
 10
72.2703615433
 20
-40.0732197472
 10
72.2711530197
 20
-40.0715794407
  0
LINE
  5
3A4
100
AcDbEntity
  8
RACCORDO
100
AcDbLine
 62
250
  6
CONTINUOUS
 10
72.0559476409
 20
-40.1187275135
 11
72.0797527471
 21
-40.1163337878
  0
LWPOLYLINE
  5
3A5
100
AcDbEntity
  8
RACCORDO
100
AcDbPolyline
 62
250
  6
CONTINUOUS
 90
3
 70
0
 10
72.0181438594
 20
-40.1221060917
 10
72.0310136116
 20
-40.1210020277
 10
72.0559476409
 20
-40.1187275135
  0
LINE
  5
3A6
100
AcDbEntity
  8
RACCORDO
100
AcDbLine
 62
250
  6
CONTINUOUS
 10
71.991628739
 20
-40.1242064801
 11
72.0181438594
 21
-40.1221060917
  0
LINE
  5
3A7
100
AcDbEntity
  8
RACCORDO
100
AcDbLine
 62
250
  6
CONTINUOUS
 10
71.9641382548
 20
-40.1261939909
 11
71.991628739
 21
-40.1242064801
  0
LINE
  5
3A8
100
AcDbEntity
  8
RACCORDO
100
AcDbLine
 62
250
  6
CONTINUOUS
 10
71.9357345484
 20
-40.1280536846
 11
71.9641382548
 21
-40.1261939909
  0
LINE
  5
3A9
100
AcDbEntity
  8
RACCORDO
100
AcDbLine
 62
250
  6
CONTINUOUS
 10
71.906481236
 20
-40.1297737061
 11
71.9357345484
 21
-40.1280536846
  0
LINE
  5
3AA
100
AcDbEntity
  8
RACCORDO
100
AcDbLine
 62
250
  6
CONTINUOUS
 10
71.8764509785
 20
-40.1313670281
 11
71.906481236
 21
-40.1297737061
  0
LINE
  5
3AB
100
AcDbEntity
  8
RACCORDO
100
AcDbLine
 62
250
  6
CONTINUOUS
 10
-71.8764509733
 20
-40.1313670283
 11
-71.9064812305
 21
-40.1297737064
  0
LINE
  5
3AC
100
AcDbEntity
  8
RACCORDO
100
AcDbLine
 62
250
  6
CONTINUOUS
 10
-71.9064812305
 20
-40.1297737064
 11
-71.9357345427
 21
-40.128053685
  0
LINE
  5
3AD
100
AcDbEntity
  8
RACCORDO
100
AcDbLine
 62
250
  6
CONTINUOUS
 10
-71.9357345427
 20
-40.128053685
 11
-71.964138249
 21
-40.1261939913
  0
LINE
  5
3AE
100
AcDbEntity
  8
RACCORDO
100
AcDbLine
 62
250
  6
CONTINUOUS
 10
-71.964138249
 20
-40.1261939913
 11
-71.9916287332
 21
-40.1242064805
  0
LINE
  5
3AF
100
AcDbEntity
  8
RACCORDO
100
AcDbLine
 62
250
  6
CONTINUOUS
 10
-71.9916287332
 20
-40.1242064805
 11
-72.0181438537
 21
-40.1221060922
  0
LWPOLYLINE
  5
3B0
100
AcDbEntity
  8
RACCORDO
100
AcDbPolyline
 62
250
  6
CONTINUOUS
 90
3
 70
0
 10
-72.0181438537
 20
-40.1221060922
 10
-72.0436178263
 20
-40.1198790622
 10
-72.0559476355
 20
-40.1187275141
  0
LWPOLYLINE
  5
3B1
100
AcDbEntity
  8
RACCORDO
100
AcDbPolyline
 62
250
  6
CONTINUOUS
 90
32
 70
0
 10
-72.0559476355
 20
-40.1187275141
 10
-72.0797527419
 20
-40.1163337883
 10
-72.0912162686
 20
-40.1151021906
 10
-72.1023760256
 20
-40.1138352921
 10
-72.1132279298
 20
-40.1125542747
 10
-72.1237651546
 20
-40.1112490884
 10
-72.1339800746
 20
-40.1099105563
 10
-72.1438681843
 20
-40.108560303
 10
-72.15342393
 20
-40.1071883634
 10
-72.1626406123
 20
-40.1057852707
 10
-72.1715131373
 20
-40.1043727771
 10
-72.1800373598
 20
-40.1029412557
 10
-72.1882076127
 20
-40.1014810413
 10
-72.1960180979
 20
-40.1000136142
 10
-72.2034661523
 20
-40.0985299789
 10
-72.2105472263
 20
-40.0970204015
 10
-72.2172548096
 20
-40.0955056297
 10
-72.2235876929
 20
-40.0939776059
 10
-72.2295424815
 20
-40.0924266911
 10
-72.2351121215
 20
-40.0908724179
 10
-72.2402966897
 20
-40.0893079515
 10
-72.2450939038
 20
-40.0877239328
 10
-72.2494965702
 20
-40.0861382286
 10
-72.2535057281
 20
-40.0845454512
 10
-72.2571200519
 20
-40.0829367115
 10
-72.2603328689
 20
-40.0813278401
 10
-72.2631457256
 20
-40.0797150354
 10
-72.2655579645
 20
-40.0780900549
 10
-72.2675643016
 20
-40.0764664294
 10
-72.2691648796
 20
-40.0748468179
 10
-72.2703615433
 20
-40.0732197473
 10
-72.2711530197
 20
-40.0715794407
  0
LINE
  5
3B2
100
AcDbEntity
  8
RACCORDO
100
AcDbLine
 62
250
  6
CONTINUOUS
 10
-49.8797475654
 20
-22.5990218927
 11
-49.8800185226
 21
-22.598762809
  0
LWPOLYLINE
  5
3B3
100
AcDbEntity
  8
RACCORDO
100
AcDbPolyline
 62
250
  6
CONTINUOUS
 90
5
 70
0
 10
-49.8917629115
 20
-22.591601861
 10
-49.903625646
 20
-22.5839418558
 10
-49.9153306605
 20
-22.5760452129
 10
-49.9268729853
 20
-22.5679153666
 10
-49.9382482383
 20
-22.5595554868
  0
LINE
  5
3B4
100
AcDbEntity
  8
RACCORDO
100
AcDbLine
 62
250
  6
CONTINUOUS
 10
-50.76365596
 20
39.4793632938
 11
-50.7544949827
 21
39.4230795567
  0
LINE
  5
3B5
100
AcDbEntity
  8
RACCORDO
100
AcDbLine
 62
250
  6
CONTINUOUS
 10
-50.7544949827
 20
39.4230795567
 11
-50.745169499
 21
39.363430363
  0
LINE
  5
3B6
100
AcDbEntity
  8
RACCORDO
100
AcDbLine
 62
250
  6
CONTINUOUS
 10
-50.745169499
 20
39.363430363
 11
-50.7356498952
 21
39.3000667339
  0
LINE
  5
3B7
100
AcDbEntity
  8
RACCORDO
100
AcDbLine
 62
250
  6
CONTINUOUS
 10
-50.7356498952
 20
39.3000667339
 11
-50.7259279815
 21
39.2327556027
  0
LINE
  5
3B8
100
AcDbEntity
  8
RACCORDO
100
AcDbLine
 62
250
  6
CONTINUOUS
 10
-50.7259279815
 20
39.2327556027
 11
-50.7159826476
 21
39.1611516029
  0
LINE
  5
3B9
100
AcDbEntity
  8
RACCORDO
100
AcDbLine
 62
250
  6
CONTINUOUS
 10
-50.7159826476
 20
39.1611516029
 11
-50.7057986926
 21
39.0849175997
  0
LINE
  5
3BA
100
AcDbEntity
  8
RACCORDO
100
AcDbLine
 62
250
  6
CONTINUOUS
 10
-50.7057986926
 20
39.0849175997
 11
-50.6953778413
 21
39.0038246512
  0
LINE
  5
3BB
100
AcDbEntity
  8
RACCORDO
100
AcDbLine
 62
250
  6
CONTINUOUS
 10
-50.6953778413
 20
39.0038246512
 11
-50.6847098893
 21
38.917531094
  0
LINE
  5
3BC
100
AcDbEntity
  8
RACCORDO
100
AcDbLine
 62
250
  6
CONTINUOUS
 10
-50.6847098893
 20
38.917531094
 11
-50.6737835366
 21
38.8256554388
  0
LINE
  5
3BD
100
AcDbEntity
  8
RACCORDO
100
AcDbLine
 62
250
  6
CONTINUOUS
 10
-50.6737835366
 20
38.8256554388
 11
-50.6626202629
 21
38.7280787639
  0
LINE
  5
3BE
100
AcDbEntity
  8
RACCORDO
100
AcDbLine
 62
250
  6
CONTINUOUS
 10
-50.763731589
 20
-39.4798185911
 11
-50.7727823084
 21
-39.5331706027
  0
LINE
  5
3BF
100
AcDbEntity
  8
RACCORDO
100
AcDbLine
 62
250
  6
CONTINUOUS
 10
-50.7727823084
 20
-39.5331706027
 11
-50.7817320344
 21
-39.5837567243
  0
LINE
  5
3C0
100
AcDbEntity
  8
RACCORDO
100
AcDbLine
 62
250
  6
CONTINUOUS
 10
-50.7817320344
 20
-39.5837567243
 11
-50.790646317
 21
-39.6320126256
  0
LWPOLYLINE
  5
3C1
100
AcDbEntity
  8
RACCORDO
100
AcDbPolyline
 62
250
  6
CONTINUOUS
 90
49
 70
0
 10
-50.790646317
 20
-39.6320126256
 10
-50.799552257
 20
-39.6781115097
 10
-50.8040061856
 20
-39.7003782193
 10
-50.8084273167
 20
-39.7219624338
 10
-50.8128077769
 20
-39.742841725
 10
-50.8171495431
 20
-39.7630394673
 10
-50.8214345444
 20
-39.7824880759
 10
-50.825646634
 20
-39.8011387798
 10
-50.8297923047
 20
-39.8190439171
 10
-50.8338868332
 20
-39.8362882459
 10
-50.8379250492
 20
-39.8528693268
 10
-50.8419036366
 20
-39.8687926844
 10
-50.845842752
 20
-39.8841537117
 10
-50.8497423513
 20
-39.8989660028
 10
-50.8535956569
 20
-39.9132180012
 10
-50.857414821
 20
-39.9269658007
 10
-50.8611982752
 20
-39.940215301
 10
-50.8649412249
 20
-39.9529623374
 10
-50.8686525145
 20
-39.9652464926
 10
-50.8723285653
 20
-39.9770662758
 10
-50.8759666336
 20
-39.9884248779
 10
-50.8795784695
 20
-39.9993670681
 10
-50.8831614892
 20
-40.0098930399
 10
-50.8867125492
 20
-40.0200036121
 10
-50.8902446036
 20
-40.0297419094
 10
-50.8937578862
 20
-40.0391137065
 10
-50.8972473446
 20
-40.0481129137
 10
-50.90071978
 20
-40.0567621142
 10
-50.9041774472
 20
-40.0650708239
 10
-50.9076133032
 20
-40.0730284679
 10
-50.9110206063
 20
-40.0806259837
 10
-50.9143958419
 20
-40.0878627763
 10
-50.9177352981
 20
-40.0947408069
 10
-50.9210312752
 20
-40.1012545994
 10
-50.9242738569
 20
-40.1073959032
 10
-50.9274629009
 20
-40.1131783864
 10
-50.9306056658
 20
-40.1186278441
 10
-50.9336939203
 20
-40.1237413087
 10
-50.9367254502
 20
-40.1285285168
 10
-50.9397185045
 20
-40.1330298293
 10
-50.9426715189
 20
-40.1372513071
 10
-50.9455769237
 20
-40.1411920508
 10
-50.9484459652
 20
-40.1448770536
 10
-50.9512812811
 20
-40.1483170661
 10
-50.9540713894
 20
-40.1515065931
 10
-50.9568065546
 20
-40.1544453397
 10
-50.9594796334
 20
-40.1571376465
 10
-50.9620868318
 20
-40.1595924719
 10
-50.9646228785
 20
-40.161818311
  0
LWPOLYLINE
  5
3C2
100
AcDbEntity
  8
RACCORDO
100
AcDbPolyline
 62
250
  6
CONTINUOUS
 90
31
 70
0
 10
-50.3214166122
 20
-38.8081999574
 10
-50.2898863124
 20
-38.6660918891
 10
-50.2586554018
 20
-38.5178579957
 10
-50.2277238807
 20
-38.3634998132
 10
-50.197107353
 20
-38.2032383565
 10
-50.1667902147
 20
-38.0368561151
 10
-50.1367256531
 20
-37.8636972366
 10
-50.1069049283
 20
-37.6839133408
 10
-50.0773367802
 20
-37.4973577823
 10
-50.0480006151
 20
-37.3029281429
 10
-50.0188459299
 20
-37.1005034546
 10
-49.9899232279
 20
-36.8902120647
 10
-49.9613634248
 20
-36.671326654
 10
-49.9331700746
 20
-36.444229459
 10
-49.9053396235
 20
-36.2085484378
 10
-49.877992326
 20
-35.9624267558
 10
-49.8510135071
 20
-35.7052085175
 10
-49.8245178418
 20
-35.4375655958
 10
-49.7989696104
 20
-35.1596347593
 10
-49.7742570647
 20
-34.8697486402
 10
-49.7504919529
 20
-34.5695959821
 10
-49.7284737992
 20
-34.2643448129
 10
-49.7082882002
 20
-33.9533369606
 10
-49.6898495592
 20
-33.6372474297
 10
-49.6737006111
 20
-33.3232336527
 10
-49.6600196661
 20
-33.012792758
 10
-49.648628414
 20
-32.7044302291
 10
-49.639534658
 20
-32.4008061898
 10
-49.6327409993
 20
-32.1028050479
 10
-49.6282448367
 20
-31.809538604
 10
-49.6260461703
 20
-31.5210049278
  0
LWPOLYLINE
  5
3C3
100
AcDbEntity
  8
RACCORDO
100
AcDbPolyline
 62
250
  6
CONTINUOUS
 90
52
 70
0
 10
-50.3214166122
 20
-38.8081999574
 10
-50.3337797796
 20
-38.8618745495
 10
-50.3460218574
 20
-38.9140093014
 10
-50.3581428453
 20
-38.9646041044
 10
-50.3701424351
 20
-39.0136196159
 10
-50.3820209351
 20
-39.0610949766
 10
-50.3937792709
 20
-39.1071478166
 10
-50.405417352
 20
-39.1517812563
 10
-50.4169352689
 20
-39.1949920164
 10
-50.4283342187
 20
-39.2368881449
 10
-50.4396124851
 20
-39.2774671951
 10
-50.4507717844
 20
-39.3167314872
 10
-50.4618184623
 20
-39.354796235
 10
-50.4727507447
 20
-39.3916601459
 10
-50.4835704057
 20
-39.4273244129
 10
-50.4942891137
 20
-39.4619079905
 10
-50.504904941
 20
-39.4954104416
 10
-50.5154198154
 20
-39.5278321256
 10
-50.5258511888
 20
-39.5592932033
 10
-50.5361967887
 20
-39.589793718
 10
-50.5464588876
 20
-39.6193335663
 10
-50.5566617546
 20
-39.6480326968
 10
-50.5668027044
 20
-39.6758918442
 10
-50.5768844223
 20
-39.7029102277
 10
-50.5869392333
 20
-39.7292055305
 10
-50.5969746005
 20
-39.7548029388
 10
-50.6069830606
 20
-39.7796772315
 10
-50.6169745496
 20
-39.8038704861
 10
-50.6269603596
 20
-39.827408172
 10
-50.6369291984
 20
-39.8502647909
 10
-50.6468571254
 20
-39.8724059697
 10
-50.6567479474
 20
-39.893832982
 10
-50.6665978576
 20
-39.9145445278
 10
-50.6763714948
 20
-39.9345023735
 10
-50.6860605023
 20
-39.9536846113
 10
-50.6956732368
 20
-39.9721131251
 10
-50.7051994073
 20
-39.9898153694
 10
-50.7146290312
 20
-40.0067747547
 10
-50.7239720911
 20
-40.0230078507
 10
-50.733248244
 20
-40.0385918532
 10
-50.7424503131
 20
-40.0535223486
 10
-50.7515854752
 20
-40.0678037354
 10
-50.7606949179
 20
-40.0815264295
 10
-50.7697718759
 20
-40.0946922575
 10
-50.7788231145
 20
-40.1072993819
 10
-50.7879101169
 20
-40.1194327246
 10
-50.7970233517
 20
-40.1310973499
 10
-50.8061723502
 20
-40.1422881855
 10
-50.8154471895
 20
-40.1530749505
 10
-50.8248778954
 20
-40.1634808827
 10
-50.8344344421
 20
-40.1734827383
 10
-50.8441168296
 20
-40.1830805145
  0
LWPOLYLINE
  5
3C4
100
AcDbEntity
  8
0
100
AcDbPolyline
 62
7
  6
CONTINUOUS
 90
3
 70
0
 43
0.3500000006
 10
-3.1071428747
 20
51.8928551788
 10
-2.2499999785
 20
52.750002182
 10
-2.2499999785
 20
49.7500012665
  0
LWPOLYLINE
  5
3C5
100
AcDbEntity
  8
RACCORDO
100
AcDbPolyline
 62
250
  6
CONTINUOUS
 90
4
 70
0
 10
-49.855277775
 20
22.6131303767
 10
-49.8428350285
 20
22.6198120731
 10
-49.8302612231
 20
22.6262414076
 10
-49.8175611978
 20
22.6324159852
  0
LINE
  5
3C6
100
AcDbEntity
  8
RACCORDO
100
AcDbLine
 62
250
  6
CONTINUOUS
 10
-49.8058823145
 20
22.6377621308
 11
-49.8047407321
 21
22.6383331004
  0
LINE
  5
3C7
100
AcDbEntity
  8
RACCORDO
100
AcDbLine
 62
250
  6
CONTINUOUS
 10
-49.7918061739
 20
22.6439899724
 11
-49.7904200837
 21
22.6445275686
  0
LWPOLYLINE
  5
3C8
100
AcDbEntity
  8
RACCORDO
100
AcDbPolyline
 62
250
  6
CONTINUOUS
 90
5
 70
0
 10
-49.7787617099
 20
22.6493849179
 10
-49.7656098906
 20
22.6545169055
 10
-49.7523561651
 20
22.6593837264
 10
-49.7390057231
 20
22.6639833936
 10
-49.7255606537
 20
22.6683150019
  0
LINE
  5
3C9
100
AcDbEntity
  8
RACCORDO
100
AcDbLine
 62
250
  6
CONTINUOUS
 10
71.8457114037
 20
-40.1328206427
 11
71.8764509785
 21
-40.1313670281
  0
LINE
  5
3CA
100
AcDbEntity
  8
RACCORDO
100
AcDbLine
 62
250
  6
CONTINUOUS
 10
71.8143316044
 20
-40.1341241088
 11
71.8457114037
 21
-40.1328206427
  0
LINE
  5
3CB
100
AcDbEntity
  8
RACCORDO
100
AcDbLine
 62
250
  6
CONTINUOUS
 10
71.7823893863
 20
-40.1352900143
 11
71.8143316044
 21
-40.1341241088
  0
LINE
  5
3CC
100
AcDbEntity
  8
RACCORDO
100
AcDbLine
 62
250
  6
CONTINUOUS
 10
71.7499566665
 20
-40.1363073093
 11
71.7823893863
 21
-40.1352900143
  0
LINE
  5
3CD
100
AcDbEntity
  8
RACCORDO
100
AcDbLine
 62
250
  6
CONTINUOUS
 10
71.7171064827
 20
-40.1371666843
 11
71.7499566665
 21
-40.1363073093
  0
LINE
  5
3CE
100
AcDbEntity
  8
RACCORDO
100
AcDbLine
 62
250
  6
CONTINUOUS
 10
71.6839201371
 20
-40.1378809269
 11
71.7171064827
 21
-40.1371666843
  0
LINE
  5
3CF
100
AcDbEntity
  8
RACCORDO
100
AcDbLine
 62
250
  6
CONTINUOUS
 10
71.6504724043
 20
-40.1384407896
 11
71.6839201371
 21
-40.1378809269
  0
LWPOLYLINE
  5
3D0
100
AcDbEntity
  8
RACCORDO
100
AcDbPolyline
 62
250
  6
CONTINUOUS
 90
70
 70
0
 10
71.5715794407
 20
-40.7711530197
 10
71.587490174
 20
-40.7709526844
 10
71.603393064
 20
-40.7703905231
 10
71.6192798825
 20
-40.7694667999
 10
71.6351425371
 20
-40.7681819544
 10
71.6509726891
 20
-40.7665366311
 10
71.6667617601
 20
-40.7645317087
 10
71.6825014527
 20
-40.7621682455
 10
71.698183751
 20
-40.7594474495
 10
71.7138005399
 20
-40.7563707279
 10
71.7293437386
 20
-40.7529396725
 10
71.7448053048
 20
-40.7491560588
 10
71.7601772383
 20
-40.7450218448
 10
71.7754515852
 20
-40.7405391698
 10
71.790620442
 20
-40.735710353
 10
71.8056759598
 20
-40.7305378932
 10
71.8206103483
 20
-40.7250244666
 10
71.8354158801
 20
-40.7191729262
 10
71.8500848942
 20
-40.7129862996
 10
71.8646098005
 20
-40.7064677881
 10
71.8789830833
 20
-40.6996207645
 10
71.8931973053
 20
-40.6924487717
 10
71.9072451117
 20
-40.6849555208
 10
71.9211192336
 20
-40.677144889
 10
71.9348124922
 20
-40.6690209178
 10
71.948317802
 20
-40.6605878107
 10
71.9616281751
 20
-40.6518499314
 10
71.9747367242
 20
-40.642811801
 10
71.9876366664
 20
-40.6334780963
 10
72.000321327
 20
-40.6238536468
 10
72.0127841424
 20
-40.6139434325
 10
72.025018664
 20
-40.6037525813
 10
72.0370185613
 20
-40.5932863662
 10
72.0487776252
 20
-40.5825502029
 10
72.060289771
 20
-40.5715496464
 10
72.071549042
 20
-40.560290389
 10
72.0825496123
 20
-40.5487782565
 10
72.0932857899
 20
-40.5370192056
 10
72.1037520195
 20
-40.525019321
 10
72.1139428856
 20
-40.5127848116
 10
72.123853115
 20
-40.5003220081
 10
72.1334775798
 20
-40.4876373591
 10
72.1428113002
 20
-40.4747374281
 10
72.1518494464
 20
-40.46162889
 10
72.1605873419
 20
-40.4483185274
 10
72.1690204654
 20
-40.4348132277
 10
72.1771444534
 20
-40.421119979
 10
72.1849551022
 20
-40.4072458665
 10
72.1924483702
 20
-40.3931980692
 10
72.1996203804
 20
-40.3789838558
 10
72.2064674215
 20
-40.3646105814
 10
72.2129859509
 20
-40.350085683
 10
72.2191725956
 20
-40.3354166765
 10
72.2250241543
 20
-40.3206111519
 10
72.2305375993
 20
-40.3056767702
 10
72.2357100775
 20
-40.2906212585
 10
72.2405389127
 20
-40.2754524074
 10
72.2450216066
 20
-40.260178066
 10
72.24915584
 20
-40.2448061381
 10
72.2529394735
 20
-40.2293445772
 10
72.2563705483
 20
-40.213801383
 10
72.2594472882
 20
-40.1981845968
 10
72.2621681021
 20
-40.1825023003
 10
72.2645315842
 20
-40.1667626102
 10
72.2665365242
 20
-40.1509735752
 10
72.2681818677
 20
-40.13514346
 10
72.2694667407
 20
-40.1192807452
 10
72.270390493
 20
-40.1033937366
 10
72.2709526763
 20
-40.0874905589
 10
72.2711530197
 20
-40.0715794407
  0
LINE
  5
3D1
100
AcDbEntity
  8
RACCORDO
100
AcDbLine
 62
250
  6
CONTINUOUS
 10
71.6168361675
 20
-40.1388304218
 11
71.6504724043
 21
-40.1384407896
  0
LINE
  5
3D2
100
AcDbEntity
  8
RACCORDO
100
AcDbLine
 62
250
  6
CONTINUOUS
 10
71.5831020457
 20
-40.1390855945
 11
71.6168361675
 21
-40.1388304218
  0
LINE
  5
3D3
100
AcDbEntity
  8
RACCORDO
100
AcDbLine
 62
250
  6
CONTINUOUS
 10
50.2062797953
 20
-40.771711568
 11
51.6305076459
 21
-40.7708691813
  0
LINE
  5
3D4
100
AcDbEntity
  8
RACCORDO
100
AcDbLine
 62
250
  6
CONTINUOUS
 10
50.2000000849
 20
-40.1396419601
 11
50.4684115221
 21
-40.1394741543
  0
LINE
  5
3D5
100
AcDbEntity
  8
RACCORDO
100
AcDbLine
 62
250
  6
CONTINUOUS
 10
51.6305076459
 20
-40.7708691813
 11
54.479074872
 21
-40.7695294623
  0
LINE
  5
3D6
100
AcDbEntity
  8
RACCORDO
100
AcDbLine
 62
250
  6
CONTINUOUS
 10
-71.5715794407
 20
-40.7711530197
 11
-68.7230117037
 21
-40.7697321963
  0
LWPOLYLINE
  5
3D7
100
AcDbEntity
  8
RACCORDO
100
AcDbPolyline
 62
250
  6
CONTINUOUS
 90
3
 70
0
 10
50.9874699671
 20
-40.1391612334
 10
53.7333780853
 20
-40.137760442
 10
55.1063926116
 20
-40.1372203661
  0
LINE
  5
3D8
100
AcDbEntity
  8
RACCORDO
100
AcDbLine
 62
250
  6
CONTINUOUS
 10
-71.5831020457
 20
-40.1390855945
 11
-68.837174001
 21
-40.137704962
  0
LINE
  5
3D9
100
AcDbEntity
  8
RACCORDO
100
AcDbLine
 62
250
  6
CONTINUOUS
 10
54.479074872
 20
-40.7695294623
 11
57.3278056863
 21
-40.7686498119
  0
LINE
  5
3DA
100
AcDbEntity
  8
RACCORDO
100
AcDbLine
 62
250
  6
CONTINUOUS
 10
-68.7230117037
 20
-40.7697321963
 11
-65.8743007116
 21
-40.7687714543
  0
LINE
  5
3DB
100
AcDbEntity
  8
RACCORDO
100
AcDbLine
 62
250
  6
CONTINUOUS
 10
55.1063926116
 20
-40.1372203661
 11
57.8525090855
 21
-40.1364613523
  0
LINE
  5
3DC
100
AcDbEntity
  8
RACCORDO
100
AcDbLine
 62
250
  6
CONTINUOUS
 10
-68.837174001
 20
-40.137704962
 11
-64.7180083078
 21
-40.1364361301
  0
LINE
  5
3DD
100
AcDbEntity
  8
RACCORDO
100
AcDbLine
 62
7
  6
CONTINUOUS
 10
-71.8004264211
 20
-41.0
 11
71.8004264211
 21
-41.0
  0
LINE
  5
3DE
100
AcDbEntity
  8
RACCORDO
100
AcDbLine
 62
250
  6
CONTINUOUS
 10
57.3278056863
 20
-40.7686498119
 11
60.1766183091
 21
-40.7682302549
  0
LINE
  5
3DF
100
AcDbEntity
  8
RACCORDO
100
AcDbLine
 62
250
  6
CONTINUOUS
 10
-50.2062797953
 20
-40.771711568
 11
50.2062797953
 21
-40.771711568
  0
LINE
  5
3E0
100
AcDbEntity
  8
RACCORDO
100
AcDbLine
 62
250
  6
CONTINUOUS
 10
-65.8743007116
 20
-40.7687714543
 11
-61.6010478115
 21
-40.768193014
  0
LINE
  5
3E1
100
AcDbEntity
  8
RACCORDO
100
AcDbLine
 62
250
  6
CONTINUOUS
 10
57.8525090855
 20
-40.1364613523
 11
60.5986975833
 21
-40.1361302801
  0
LINE
  5
3E2
100
AcDbEntity
  8
RACCORDO
100
AcDbLine
 62
250
  6
CONTINUOUS
 10
-50.200000085
 20
-40.1396568101
 11
50.200000085
 21
-40.1396568101
  0
LINE
  5
3E3
100
AcDbEntity
  8
RACCORDO
100
AcDbLine
 62
250
  6
CONTINUOUS
 10
-64.7180083078
 20
-40.1364361301
 11
-61.9718039322
 21
-40.1361252349
  0
LINE
  5
3E4
100
AcDbEntity
  8
DRAFT
100
AcDbLine
 62
7
  6
CONTINUOUS
 10
-50.2
 20
-40.0986945859
 11
50.2
 21
-40.0986945859
  0
LINE
  5
3E5
100
AcDbEntity
  8
RACCORDO
100
AcDbLine
 62
250
  6
CONTINUOUS
 10
-61.6010478115
 20
-40.768193014
 11
-58.7521992138
 21
-40.7683825211
  0
LWPOLYLINE
  5
3E6
100
AcDbEntity
  8
RACCORDO
100
AcDbPolyline
 62
250
  6
CONTINUOUS
 90
3
 70
0
 10
60.1766183091
 20
-40.7682302549
 10
63.0254677558
 20
-40.7682707988
 10
64.4498807665
 20
-40.7684636113
  0
LINE
  5
3E7
100
AcDbEntity
  8
RACCORDO
100
AcDbLine
 62
250
  6
CONTINUOUS
 10
-61.9718039322
 20
-40.1361252349
 11
-59.2255933578
 21
-40.136242341
  0
LINE
  5
3E8
100
AcDbEntity
  8
RACCORDO
100
AcDbLine
 62
250
  6
CONTINUOUS
 10
60.5986975833
 20
-40.1361302801
 11
63.344904591
 21
-40.1362272043
  0
LINE
  5
3E9
100
AcDbEntity
  8
RACCORDO
100
AcDbLine
 62
250
  6
CONTINUOUS
 10
-58.7521992138
 20
-40.7683825211
 11
-55.9034158675
 21
-40.7690321298
  0
LINE
  5
3EA
100
AcDbEntity
  8
RACCORDO
100
AcDbLine
 62
250
  6
CONTINUOUS
 10
64.4498807665
 20
-40.7684636113
 11
67.2986607014
 21
-40.7691943102
  0
LINE
  5
3EB
100
AcDbEntity
  8
RACCORDO
100
AcDbLine
 62
250
  6
CONTINUOUS
 10
-59.2255933578
 20
-40.136242341
 11
-56.4794332999
 21
-40.1367873316
  0
LWPOLYLINE
  5
3EC
100
AcDbEntity
  8
RACCORDO
100
AcDbPolyline
 62
250
  6
CONTINUOUS
 90
3
 70
0
 10
63.344904591
 20
-40.1362272043
 10
66.0910766584
 20
-40.1367520165
 10
67.4641328816
 20
-40.1371749666
  0
LINE
  5
3ED
100
AcDbEntity
  8
RACCORDO
100
AcDbLine
 62
250
  6
CONTINUOUS
 10
-55.9034158675
 20
-40.7690321298
 11
-53.054768829
 21
-40.7701418144
  0
LWPOLYLINE
  5
3EE
100
AcDbEntity
  8
RACCORDO
100
AcDbPolyline
 62
250
  6
CONTINUOUS
 90
3
 70
0
 10
67.2986607014
 20
-40.7691943102
 10
70.1473036616
 20
-40.7703850945
 10
71.5715794407
 20
-40.7711530197
  0
LWPOLYLINE
  5
3EF
100
AcDbEntity
  8
RACCORDO
100
AcDbPolyline
 62
250
  6
CONTINUOUS
 90
3
 70
0
 10
-56.4794332999
 20
-40.1367873316
 10
-52.3603995729
 20
-40.1384074304
 10
-50.9874699672
 20
-40.1391612334
  0
LWPOLYLINE
  5
3F0
100
AcDbEntity
  8
RACCORDO
100
AcDbPolyline
 62
250
  6
CONTINUOUS
 90
3
 70
0
 10
67.4641328816
 20
-40.1371749666
 10
70.2101522805
 20
-40.1383418679
 10
71.5831020457
 20
-40.1390855945
  0
LINE
  5
3F1
100
AcDbEntity
  8
RACCORDO
100
AcDbLine
 62
250
  6
CONTINUOUS
 10
-53.054768829
 20
-40.7701418144
 11
-50.2062797953
 21
-40.771711568
  0
LINE
  5
3F2
100
AcDbEntity
  8
RACCORDO
100
AcDbLine
 62
250
  6
CONTINUOUS
 10
-50.4684115197
 20
-40.1394741535
 11
-50.2000000849
 21
-40.1396419601
  0
LINE
  5
3F3
100
AcDbEntity
  8
RACCORDO
100
AcDbLine
 62
250
  6
CONTINUOUS
 10
-71.5831020457
 20
-40.1390855945
 11
-71.6336735876
 21
-40.138658804
  0
LINE
  5
3F4
100
AcDbEntity
  8
RACCORDO
100
AcDbLine
 62
250
  6
CONTINUOUS
 10
-71.6336735876
 20
-40.138658804
 11
-71.6672228583
 21
-40.1381765419
  0
LINE
  5
3F5
100
AcDbEntity
  8
RACCORDO
100
AcDbLine
 62
250
  6
CONTINUOUS
 10
-71.6672228583
 20
-40.1381765419
 11
-71.7005520449
 21
-40.1375466626
  0
LINE
  5
3F6
100
AcDbEntity
  8
RACCORDO
100
AcDbLine
 62
250
  6
CONTINUOUS
 10
-71.7005520449
 20
-40.1375466626
 11
-71.7335787025
 21
-40.1367560345
  0
LINE
  5
3F7
100
AcDbEntity
  8
RACCORDO
100
AcDbLine
 62
250
  6
CONTINUOUS
 10
-71.7335787025
 20
-40.1367560345
 11
-71.7662284259
 21
-40.135813512
  0
LINE
  5
3F8
100
AcDbEntity
  8
RACCORDO
100
AcDbLine
 62
250
  6
CONTINUOUS
 10
-71.7662284259
 20
-40.135813512
 11
-71.7984276788
 21
-40.1347292165
  0
LINE
  5
3F9
100
AcDbEntity
  8
RACCORDO
100
AcDbLine
 62
250
  6
CONTINUOUS
 10
-71.7984276788
 20
-40.1347292165
 11
-71.8300967044
 21
-40.1334905396
  0
LWPOLYLINE
  5
3FA
100
AcDbEntity
  8
RACCORDO
100
AcDbPolyline
 62
250
  6
CONTINUOUS
 90
3
 70
0
 10
-71.8300967044
 20
-40.1334905396
 10
-71.8611642389
 20
-40.1321073204
 10
-71.8764509733
 20
-40.1313670283
  0
LINE
  5
3FB
100
AcDbEntity
  8
RACCORDO
100
AcDbLine
 62
250
  6
CONTINUOUS
 10
-49.8047407326
 20
-22.6383331002
 11
-49.8053743214
 21
-22.6379914835
  0
LWPOLYLINE
  5
3FC
100
AcDbEntity
  8
RACCORDO
100
AcDbPolyline
 62
250
  6
CONTINUOUS
 90
5
 70
0
 10
-49.8175611983
 20
-22.6324159849
 10
-49.8302612236
 20
-22.6262414074
 10
-49.842835029
 20
-22.6198120729
 10
-49.8552777755
 20
-22.6131303765
 10
-49.8675840971
 20
-22.6061991199
  0
LWPOLYLINE
  5
3FD
100
AcDbEntity
  8
RACCORDO
100
AcDbPolyline
 62
250
  6
CONTINUOUS
 90
31
 70
0
 10
-50.3214200211
 20
38.8082146998
 10
-50.2899072988
 20
38.6661898879
 10
-50.2586927392
 20
38.5180404967
 10
-50.2277763422
 20
38.3637680607
 10
-50.1971731784
 20
38.2035904539
 10
-50.1668681772
 20
38.0372933034
 10
-50.1368161274
 20
37.8642301705
 10
-50.1070090279
 20
37.6845560736
 10
-50.0774548798
 20
37.4981209574
 10
-50.0481324756
 20
37.3038216003
 10
-50.0189914722
 20
37.1015385518
 10
-49.9900822127
 20
36.8913986258
 10
-49.9615345195
 20
36.672669124
 10
-49.9333504815
 20
36.4457166114
 10
-49.9055280098
 20
36.2101847057
 10
-49.8781906596
 20
35.9642581696
 10
-49.8512264482
 20
35.7073033189
 10
-49.8247473584
 20
35.4399697294
 10
-49.7992128933
 20
35.1623689903
 10
-49.774513649
 20
34.8728970728
 10
-49.7507590295
 20
34.5731792715
 10
-49.7287367505
 20
34.268168444
 10
-49.7085234026
 20
33.9571004353
 10
-49.6900423953
 20
33.6407566249
 10
-49.6738516723
 20
33.3263979201
 10
-49.6601325119
 20
33.0155338176
 10
-49.6487036358
 20
32.7066576309
 10
-49.6395791527
 20
32.4024959842
 10
-49.6327637653
 20
32.1039554438
 10
-49.628252771
 20
31.8101257077
 10
-49.6260461696
 20
31.5210048814
  0
LINE
  5
3FE
100
AcDbEntity
  8
RACCORDO
100
AcDbLine
 62
250
  6
CONTINUOUS
 10
-50.7993866277
 20
39.677272978
 11
-50.7905036378
 21
39.6312567693
  0
LINE
  5
3FF
100
AcDbEntity
  8
RACCORDO
100
AcDbLine
 62
250
  6
CONTINUOUS
 10
-50.7905036378
 20
39.6312567693
 11
-50.7816178661
 21
39.5831246894
  0
LINE
  5
400
100
AcDbEntity
  8
RACCORDO
100
AcDbLine
 62
250
  6
CONTINUOUS
 10
-50.7816178661
 20
39.5831246894
 11
-50.7726888937
 21
39.5326308584
  0
LINE
  5
401
100
AcDbEntity
  8
RACCORDO
100
AcDbLine
 62
250
  6
CONTINUOUS
 10
-50.7726888937
 20
39.5326308584
 11
-50.76365596
 21
39.4793632938
  0
LINE
  5
402
100
AcDbEntity
  8
RACCORDO
100
AcDbLine
 62
250
  6
CONTINUOUS
 10
49.7120244548
 20
-22.6723770567
 11
49.7109065615
 21
-22.6726750375
  0
LWPOLYLINE
  5
403
100
AcDbEntity
  8
RACCORDO
100
AcDbPolyline
 62
250
  6
CONTINUOUS
 90
5
 70
0
 10
49.6984043743
 20
-22.6761670181
 10
49.684708164
 20
-22.6796825093
 10
49.6709401158
 20
-22.6829222347
 10
49.6571070108
 20
-22.6858844055
 10
49.6432205005
 20
-22.6885665705
  0
LWPOLYLINE
  5
404
100
AcDbEntity
  8
RACCORDO
100
AcDbPolyline
 62
7
  6
CONTINUOUS
 90
10
 70
0
 10
-50.8441168296
 20
-40.1830805145
 10
-50.7980168711
 20
-40.1786859912
 10
-50.7530079799
 20
-40.1741906576
 10
-50.7090901561
 20
-40.1695945141
 10
-50.6662665149
 20
-40.1649133576
 10
-50.624533941
 20
-40.1601313918
 10
-50.5838830891
 20
-40.155201227
 10
-50.544310844
 20
-40.150107067
 10
-50.5058203209
 20
-40.144864709
 10
-50.4684115197
 20
-40.1394741537
  0
LINE
  5
405
100
AcDbEntity
  8
RACCORDO
100
AcDbLine
 62
250
  6
CONTINUOUS
 10
50.063450989
 20
-31.5014600517
 11
50.0375469288
 21
-31.503853948
  0
LWPOLYLINE
  5
406
100
AcDbEntity
  8
RACCORDO
100
AcDbPolyline
 62
7
  6
CONTINUOUS
 90
55
 70
0
 10
-50.8436177796
 20
-40.1830489877
 10
-50.8485010649
 20
-40.1834557414
 10
-50.8531758664
 20
-40.1837913302
 10
-50.8576421827
 20
-40.184055771
 10
-50.861876445
 20
-40.1842426586
 10
-50.8659022202
 20
-40.1843584213
 10
-50.8697902112
 20
-40.184422319
 10
-50.8735583303
 20
-40.1844367159
 10
-50.8771886652
 20
-40.1843992507
 10
-50.8806981824
 20
-40.18432209
 10
-50.8840865227
 20
-40.1842063098
 10
-50.8873540459
 20
-40.1840508288
 10
-50.8905187972
 20
-40.183864577
 10
-50.8935804932
 20
-40.1836486188
 10
-50.8965394183
 20
-40.1834018811
 10
-50.8994144691
 20
-40.1831300891
 10
-50.9022059394
 20
-40.1828341369
 10
-50.9049135365
 20
-40.1825131206
 10
-50.9075552771
 20
-40.182170069
 10
-50.9101344811
 20
-40.181805174
 10
-50.9126478298
 20
-40.181418233
 10
-50.9151033812
 20
-40.1810116847
 10
-50.9175040877
 20
-40.180585242
 10
-50.9198469982
 20
-40.180139181
 10
-50.9221313158
 20
-40.1796767867
 10
-50.9243570864
 20
-40.1791980405
 10
-50.9265242652
 20
-40.1787029512
 10
-50.9286319196
 20
-40.1781948462
 10
-50.9306798399
 20
-40.1776737572
 10
-50.9326682368
 20
-40.1771396443
 10
-50.934596808
 20
-40.17659573
 10
-50.9364651219
 20
-40.1760421642
 10
-50.938273611
 20
-40.1754787906
 10
-50.9400232695
 20
-40.1749083746
 10
-50.9417135086
 20
-40.1743312227
 10
-50.9433449176
 20
-40.1737470239
 10
-50.9449202581
 20
-40.1731576193
 10
-50.9464394278
 20
-40.1725632301
 10
-50.9479025294
 20
-40.1719636321
 10
-50.9493126312
 20
-40.1713599994
 10
-50.9506695912
 20
-40.1707526407
 10
-50.9519735516
 20
-40.1701412453
 10
-50.9532280073
 20
-40.1695260586
 10
-50.9544329772
 20
-40.1689074164
 10
-50.9555884427
 20
-40.1682849813
 10
-50.9566978424
 20
-40.1676579889
 10
-50.9577621324
 20
-40.1670261879
 10
-50.958780357
 20
-40.1663898273
 10
-50.9597530874
 20
-40.1657488925
 10
-50.9606809399
 20
-40.1651029927
 10
-50.9615632985
 20
-40.1644525162
 10
-50.9623988858
 20
-40.1637986177
 10
-50.9631872762
 20
-40.163141682
 10
-50.9639288957
 20
-40.162481323
 10
-50.9646237443
 20
-40.16181754
  0
LINE
  5
407
100
AcDbEntity
  8
RACCORDO
100
AcDbLine
 62
250
  6
CONTINUOUS
 10
50.0375469288
 20
-31.503853948
 11
50.010751376
 21
-31.5061092785
  0
LINE
  5
408
100
AcDbEntity
  8
RACCORDO
100
AcDbLine
 62
250
  6
CONTINUOUS
 10
50.010751376
 20
-31.5061092785
 11
49.9831223815
 21
-31.5082211572
  0
LINE
  5
409
100
AcDbEntity
  8
RACCORDO
100
AcDbLine
 62
250
  6
CONTINUOUS
 10
49.9831223815
 20
-31.5082211572
 11
49.954719802
 21
-31.5101850087
  0
LINE
  5
40A
100
AcDbEntity
  8
RACCORDO
100
AcDbLine
 62
250
  6
CONTINUOUS
 10
49.954719802
 20
-31.5101850087
 11
49.9256051697
 21
-31.5119965787
  0
LINE
  5
40B
100
AcDbEntity
  8
RACCORDO
100
AcDbLine
 62
250
  6
CONTINUOUS
 10
49.9256051697
 20
-31.5119965787
 11
49.8958415599
 21
-31.5136519423
  0
LINE
  5
40C
100
AcDbEntity
  8
RACCORDO
100
AcDbLine
 62
250
  6
CONTINUOUS
 10
49.8958415599
 20
-31.5136519423
 11
49.8654934535
 21
-31.5151475133
  0
LINE
  5
40D
100
AcDbEntity
  8
RACCORDO
100
AcDbLine
 62
250
  6
CONTINUOUS
 10
49.8654934535
 20
-31.5151475133
 11
49.8346265979
 21
-31.5164800518
  0
LINE
  5
40E
100
AcDbEntity
  8
RACCORDO
100
AcDbLine
 62
250
  6
CONTINUOUS
 10
49.8346265979
 20
-31.5164800518
 11
49.8033078643
 21
-31.5176466706
  0
LINE
  5
40F
100
AcDbEntity
  8
RACCORDO
100
AcDbLine
 62
250
  6
CONTINUOUS
 10
49.8033078643
 20
-31.5176466706
 11
49.7716051028
 21
-31.5186448426
  0
LWPOLYLINE
  5
410
100
AcDbEntity
  8
RACCORDO
100
AcDbPolyline
 62
250
  6
CONTINUOUS
 90
3
 70
0
 10
49.7716051028
 20
-31.5186448426
 10
49.7395869958
 20
-31.5194724051
 10
49.7234813419
 20
-31.519821633
  0
LINE
  5
411
100
AcDbEntity
  8
RACCORDO
100
AcDbLine
 62
250
  6
CONTINUOUS
 10
-49.7234813485
 20
-31.5198216453
 11
-49.7556311543
 21
-31.5190800819
  0
LINE
  5
412
100
AcDbEntity
  8
RACCORDO
100
AcDbLine
 62
250
  6
CONTINUOUS
 10
-49.7556311543
 20
-31.5190800819
 11
-49.7875002207
 21
-31.5181669662
  0
LINE
  5
413
100
AcDbEntity
  8
RACCORDO
100
AcDbLine
 62
250
  6
CONTINUOUS
 10
-49.7875002207
 20
-31.5181669662
 11
-49.8190195051
 21
-31.5170842763
  0
LINE
  5
414
100
AcDbEntity
  8
RACCORDO
100
AcDbLine
 62
250
  6
CONTINUOUS
 10
-49.8190195051
 20
-31.5170842763
 11
-49.8501207225
 21
-31.515834358
  0
LINE
  5
415
100
AcDbEntity
  8
RACCORDO
100
AcDbLine
 62
250
  6
CONTINUOUS
 10
-49.8501207225
 20
-31.515834358
 11
-49.8807364938
 21
-31.5144199191
  0
LINE
  5
416
100
AcDbEntity
  8
RACCORDO
100
AcDbLine
 62
250
  6
CONTINUOUS
 10
-49.8807364938
 20
-31.5144199191
 11
-49.910800492
 21
-31.5128440239
  0
LINE
  5
417
100
AcDbEntity
  8
RACCORDO
100
AcDbLine
 62
250
  6
CONTINUOUS
 10
-49.910800492
 20
-31.5128440239
 11
-49.9402475852
 21
-31.5111100865
  0
LINE
  5
418
100
AcDbEntity
  8
RACCORDO
100
AcDbLine
 62
250
  6
CONTINUOUS
 10
-49.9402475852
 20
-31.5111100865
 11
-49.9690139782
 21
-31.5092218634
  0
LINE
  5
419
100
AcDbEntity
  8
RACCORDO
100
AcDbLine
 62
250
  6
CONTINUOUS
 10
-49.9690139782
 20
-31.5092218634
 11
-49.9970373504
 21
-31.5071834453
  0
LINE
  5
41A
100
AcDbEntity
  8
RACCORDO
100
AcDbLine
 62
250
  6
CONTINUOUS
 10
-49.9970373504
 20
-31.5071834453
 11
-50.0242569909
 21
-31.5049992484
  0
LWPOLYLINE
  5
41B
100
AcDbEntity
  8
RACCORDO
100
AcDbPolyline
 62
250
  6
CONTINUOUS
 90
40
 70
0
 10
-50.0242569909
 20
-31.5049992484
 10
-50.0506139302
 20
-31.5026740045
 10
-50.0634509665
 20
-31.5014600526
 10
-50.0760510677
 20
-31.5002127512
 10
-50.0884074083
 20
-31.4989327762
 10
-50.1005132953
 20
-31.4976208207
 10
-50.1123621711
 20
-31.4962775955
 10
-50.1239476174
 20
-31.4949038282
 10
-50.1352633585
 20
-31.4935002629
 10
-50.146303265
 20
-31.49206766
 10
-50.1570613566
 20
-31.4906067953
 10
-50.167531806
 20
-31.4891184603
 10
-50.1777089414
 20
-31.4876034612
 10
-50.1875872502
 20
-31.4860626185
 10
-50.1971613814
 20
-31.4844967671
 10
-50.2064261489
 20
-31.4829067549
 10
-50.2153765341
 20
-31.4812934435
 10
-50.2240076888
 20
-31.4796577065
 10
-50.2323149376
 20
-31.4780004302
 10
-50.2402937807
 20
-31.4763225121
 10
-50.247939896
 20
-31.4746248613
 10
-50.2552491418
 20
-31.4729083972
 10
-50.2622175589
 20
-31.4711740498
 10
-50.2688413725
 20
-31.4694227583
 10
-50.2751169947
 20
-31.4676554716
 10
-50.2810410261
 20
-31.4658731469
 10
-50.2866102577
 20
-31.4640767496
 10
-50.2918216727
 20
-31.4622672528
 10
-50.2966724484
 20
-31.4604456367
 10
-50.301159957
 20
-31.4586128881
 10
-50.3052817679
 20
-31.4567699996
 10
-50.3090356482
 20
-31.4549179697
 10
-50.3124195646
 20
-31.4530578014
 10
-50.3154316841
 20
-31.4511905024
 10
-50.3180703749
 20
-31.4493170843
 10
-50.3203342079
 20
-31.4474385618
 10
-50.3222219571
 20
-31.4455559521
 10
-50.3237325998
 20
-31.4436702748
 10
-50.3248653174
 20
-31.4417825516
 10
-50.3256194962
 20
-31.4398938049
  0
LWPOLYLINE
  5
41C
100
AcDbEntity
  8
RACCORDO
100
AcDbPolyline
 62
250
  6
CONTINUOUS
 90
3
 70
0
 10
-49.6571070114
 20
-22.6858844053
 10
-49.6709401164
 20
-22.6829222346
 10
-49.6847081646
 20
-22.6796825092
  0
LINE
  5
41D
100
AcDbEntity
  8
RACCORDO
100
AcDbLine
 62
250
  6
CONTINUOUS
 10
-49.6847081646
 20
-22.6796825092
 11
-49.6984043748
 21
-22.6761670179
  0
LINE
  5
41E
100
AcDbEntity
  8
RACCORDO
100
AcDbLine
 62
250
  6
CONTINUOUS
 10
-49.7103712347
 20
-22.6728287719
 11
-49.7120244554
 21
-22.6723770566
  0
LINE
  5
41F
100
AcDbEntity
  8
RACCORDO
100
AcDbLine
 62
250
  6
CONTINUOUS
 10
-49.7255606543
 20
-22.6683150017
 11
-49.7265403728
 21
-22.6679809262
  0
LWPOLYLINE
  5
420
100
AcDbEntity
  8
RACCORDO
100
AcDbPolyline
 62
250
  6
CONTINUOUS
 90
5
 70
0
 10
-49.7390057236
 20
-22.6639833934
 10
-49.7523561656
 20
-22.6593837262
 10
-49.7656098911
 20
-22.6545169053
 10
-49.7787617104
 20
-22.6493849177
 10
-49.7918061744
 20
-22.6439899721
  0
LINE
  5
421
100
AcDbEntity
  8
RACCORDO
100
AcDbLine
 62
7
  6
CONTINUOUS
 10
-50.2
 20
-40.0986945859
 11
-50.3790827208
 21
-40.125999167
  0
LINE
  5
422
100
AcDbEntity
  8
RACCORDO
100
AcDbLine
 62
250
  6
CONTINUOUS
 10
49.629286175
 20
-22.6909678719
 11
49.6285833721
 21
-22.6910735183
  0
LINE
  5
423
100
AcDbEntity
  8
RACCORDO
100
AcDbLine
 62
7
  6
CONTINUOUS
 10
-50.3790827208
 20
-40.125999167
 11
-50.4684115197
 21
-40.1394741537
  0
LWPOLYLINE
  5
424
100
AcDbEntity
  8
RACCORDO
100
AcDbPolyline
 62
250
  6
CONTINUOUS
 90
5
 70
0
 10
49.615309822
 20
-22.6930875339
 10
49.6013035429
 20
-22.6949241458
 10
49.5872729945
 20
-22.6964775761
 10
49.5732240187
 20
-22.6977477864
 10
49.5591690738
 20
-22.6987344662
  0
LINE
  5
425
100
AcDbEntity
  8
RACCORDO
100
AcDbLine
 62
250
  6
CONTINUOUS
 10
49.7234813419
 20
-31.519821633
 11
49.6911204495
 21
-31.5203900364
  0
LINE
  5
426
100
AcDbEntity
  8
RACCORDO
100
AcDbLine
 62
250
  6
CONTINUOUS
 10
49.6911204495
 20
-31.5203900364
 11
49.6586185769
 21
-31.5207840494
  0
LINE
  5
427
100
AcDbEntity
  8
RACCORDO
100
AcDbLine
 62
250
  6
CONTINUOUS
 10
49.6586185769
 20
-31.5207840494
 11
49.6260461377
 21
-31.5210028186
  0
LINE
  5
428
100
AcDbEntity
  8
RACCORDO
100
AcDbLine
 62
250
  6
CONTINUOUS
 10
-49.6260461377
 20
-31.5210028343
 11
-49.6586185796
 21
-31.520784064
  0
LINE
  5
429
100
AcDbEntity
  8
RACCORDO
100
AcDbLine
 62
250
  6
CONTINUOUS
 10
-49.6586185796
 20
-31.520784064
 11
-49.6911204543
 21
-31.5203900498
  0
LINE
  5
42A
100
AcDbEntity
  8
RACCORDO
100
AcDbLine
 62
250
  6
CONTINUOUS
 10
-49.6911204543
 20
-31.5203900498
 11
-49.7234813485
 21
-31.5198216453
  0
LWPOLYLINE
  5
42B
100
AcDbEntity
  8
RACCORDO
100
AcDbPolyline
 62
7
  6
CONTINUOUS
 90
10
 70
0
 10
50.4684115221
 20
-40.1394741544
 10
50.5058207885
 20
-40.1448647739
 10
50.5443118033
 20
-40.150107193
 10
50.5838845665
 20
-40.1552014112
 10
50.6245359628
 20
-40.1601316306
 10
50.6662691076
 20
-40.1649136481
 10
50.7090933467
 20
-40.1695948552
 10
50.7530117957
 20
-40.1741910488
 10
50.7980213391
 20
-40.1786864315
 10
50.844121977
 20
-40.1830810027
  0
LINE
  5
42C
100
AcDbEntity
  8
RACCORDO
100
AcDbLine
 62
250
  6
CONTINUOUS
 10
-49.6280345961
 20
-22.6911616898
 11
-49.6292861756
 21
-22.6909678718
  0
LINE
  5
42D
100
AcDbEntity
  8
RACCORDO
100
AcDbLine
 62
7
  6
CONTINUOUS
 10
50.4684115221
 20
-40.1394741544
 11
50.2896126464
 21
-40.1124060819
  0
LINE
  5
42E
100
AcDbEntity
  8
RACCORDO
100
AcDbLine
 62
7
  6
CONTINUOUS
 10
50.2896126464
 20
-40.1124060819
 11
50.2
 21
-40.0986945859
  0
LINE
  5
42F
100
AcDbEntity
  8
RACCORDO
100
AcDbLine
 62
250
  6
CONTINUOUS
 10
-49.6432205011
 20
-22.6885665703
 11
-49.6446686223
 21
-22.6882901312
  0
LINE
  5
430
100
AcDbEntity
  8
RACCORDO
100
AcDbLine
 62
250
  6
CONTINUOUS
 10
-72.5
 20
-40.3004264211
 11
-72.2711530197
 21
-40.0715794407
  0
LINE
  5
431
100
AcDbEntity
  8
RACCORDO
100
AcDbLine
 62
250
  6
CONTINUOUS
 10
-71.8004264211
 20
-41.0
 11
-71.5715794407
 21
-40.7711530197
  0
LINE
  5
432
100
AcDbEntity
  8
RACCORDO
100
AcDbLine
 62
250
  6
CONTINUOUS
 10
49.5451161407
 20
-22.6994381366
 11
49.5446505163
 21
-22.6994561213
  0
LINE
  5
433
100
AcDbEntity
  8
RACCORDO
100
AcDbLine
 62
250
  6
CONTINUOUS
 10
-49.5782962327
 20
-23.2545979312
 11
49.5782962327
 21
-23.2545979314
  0
LINE
  5
434
100
AcDbEntity
  8
RACCORDO
100
AcDbLine
 62
7
  6
CONTINUOUS
 10
-49.5304734435
 20
-22.7
 11
49.5304734435
 21
-22.7
  0
LINE
  5
435
100
AcDbEntity
  8
RACCORDO
100
AcDbLine
 62
7
  6
CONTINUOUS
 10
50.0920356891
 20
-22.4
 11
-50.0920331568
 21
-22.4
  0
LINE
  5
436
100
AcDbEntity
  8
RACCORDO
100
AcDbLine
 62
250
  6
CONTINUOUS
 10
-50.2180697434
 20
-22.0
 11
-50.2177651569
 21
-22.0
  0
LINE
  5
437
100
AcDbEntity
  8
RACCORDO
100
AcDbLine
 62
250
  6
CONTINUOUS
 10
-50.2180697434
 20
-21.9999986429
 11
-50.2300470675
 21
-22.0
  0
LINE
  5
438
100
AcDbEntity
  8
RACCORDO
100
AcDbLine
 62
250
  6
CONTINUOUS
 10
50.2300470675
 20
-22.0
 11
50.2177651569
 21
-22.0
  0
LWPOLYLINE
  5
439
100
AcDbEntity
  8
RACCORDO
100
AcDbPolyline
 62
7
  6
CONTINUOUS
 90
66
 70
0
 10
-49.5304691857
 20
-22.699839714
 10
-49.5440968838
 20
-22.6994777138
 10
-49.5609547969
 20
-22.6986236243
 10
-49.577786987
 20
-22.6973641319
 10
-49.594584017
 20
-22.6957000042
 10
-49.6113364604
 20
-22.6936321051
 10
-49.6280345961
 20
-22.6911616898
 10
-49.6446686223
 20
-22.6882901312
 10
-49.6612288683
 20
-22.6850190506
 10
-49.677705855
 20
-22.681350361
 10
-49.6940899061
 20
-22.6772861061
 10
-49.7103712347
 20
-22.6728287719
 10
-49.7265403728
 20
-22.6679809262
 10
-49.7425879239
 20
-22.6627453454
 10
-49.7585043205
 20
-22.657125239
 10
-49.7742802883
 20
-22.6511238168
 10
-49.7899067162
 20
-22.6447446256
 10
-49.8053743214
 20
-22.6379914835
 10
-49.8206741179
 20
-22.6308682968
 10
-49.8357972804
 20
-22.6233793055
 10
-49.8507348179
 20
-22.6155289276
 10
-49.8654780545
 20
-22.6073218299
 10
-49.8800185226
 20
-22.598762809
 10
-49.8943477468
 20
-22.5898568401
 10
-49.908457456
 20
-22.5806092324
 10
-49.922339495
 20
-22.5710253219
 10
-49.9359859217
 20
-22.5611106822
 10
-49.949388871
 20
-22.5508711337
 10
-49.9625405566
 20
-22.5403125913
 10
-49.9754334991
 20
-22.52944123
 10
-49.988060216
 20
-22.5182633495
 10
-50.0004134224
 20
-22.5067854613
 10
-50.0124860849
 20
-22.4950142272
 10
-50.0242711665
 20
-22.4829564461
 10
-50.0357619305
 20
-22.4706191797
 10
-50.0469518013
 20
-22.4580094847
 10
-50.0578343026
 20
-22.4451346764
 10
-50.0684032012
 20
-22.432002275
 10
-50.0786524119
 20
-22.4186197451
 10
-50.0885760676
 20
-22.4049948929
 10
-50.0981684177
 20
-22.3911356147
 10
-50.1074239644
 20
-22.3770498152
 10
-50.1163374326
 20
-22.3627456753
 10
-50.1249035785
 20
-22.3482314702
 10
-50.133117514
 20
-22.3335156073
 10
-50.1409745067
 20
-22.3186065753
 10
-50.148469941
 20
-22.303513028
 10
-50.155599512
 20
-22.2882438438
 10
-50.1623590353
 20
-22.2728078389
 10
-50.1687446431
 20
-22.2572139773
 10
-50.174752626
 20
-22.241471413
 10
-50.1803794685
 20
-22.225589229
 10
-50.1856220068
 20
-22.2095766745
 10
-50.1904771161
 20
-22.1934431706
 10
-50.1949420402
 20
-22.1771980688
 10
-50.199014257
 20
-22.1608508124
 10
-50.2026913252
 20
-22.1444110464
 10
-50.2059712271
 20
-22.1278883956
 10
-50.2088520807
 20
-22.1112923103
 10
-50.2113322801
 20
-22.0946323411
 10
-50.2134104824
 20
-22.077918245
 10
-50.2150854425
 20
-22.0611597134
 10
-50.2163563112
 20
-22.0443660769
 10
-50.2172223417
 20
-22.0275466919
 10
-50.2176830524
 20
-22.0107117034
 10
-50.2177651319
 20
-22.0
  0
LINE
  5
43A
100
AcDbEntity
  8
RACCORDO
100
AcDbLine
 62
250
  6
CONTINUOUS
 10
-49.5440968838
 20
-22.6994777138
 11
-49.5451161412
 21
-22.6994381365
  0
LWPOLYLINE
  5
43B
100
AcDbEntity
  8
RACCORDO
100
AcDbPolyline
 62
250
  6
CONTINUOUS
 90
5
 70
0
 10
-49.5591690744
 20
-22.6987344662
 10
-49.5732240194
 20
-22.6977477863
 10
-49.5872729951
 20
-22.696477576
 10
-49.6013035435
 20
-22.6949241457
 10
-49.6153098226
 20
-22.6930875338
  0
LINE
  5
43C
100
AcDbEntity
  8
RACCORDO
100
AcDbLine
 62
250
  6
CONTINUOUS
 10
-72.2711530197
 20
40.0715794407
 11
-72.5
 21
40.3004264211
  0
LINE
  5
43D
100
AcDbEntity
  8
RACCORDO
100
AcDbLine
 62
250
  6
CONTINUOUS
 10
-71.5715794407
 20
40.7711530197
 11
-71.8004264211
 21
41.0
  0
LWPOLYLINE
  5
43E
100
AcDbEntity
  8
RACCORDO
100
AcDbPolyline
 62
250
  6
CONTINUOUS
 90
33
 70
0
 10
-49.5304733984
 20
-22.7
 10
-49.5314336762
 20
-22.7001348438
 10
-49.5323938965
 20
-22.7005399734
 10
-49.5333540593
 20
-22.7012161324
 10
-49.5343146842
 20
-22.7021641253
 10
-49.5352752516
 20
-22.7033844015
 10
-49.5362342027
 20
-22.70487664
 10
-49.5371915357
 20
-22.7066407712
 10
-49.5381472524
 20
-22.7086766427
 10
-49.5390997986
 20
-22.7109829229
 10
-49.5400491522
 20
-22.7135588578
 10
-49.5409953352
 20
-22.7164036308
 10
-49.5419368596
 20
-22.7195149763
 10
-49.5428736211
 20
-22.7228911631
 10
-49.5438057239
 20
-22.7265310208
 10
-49.5447319926
 20
-22.7304325641
 10
-49.5456523124
 20
-22.7345935361
 10
-49.5465667981
 20
-22.7390125219
 10
-49.5474746179
 20
-22.7436887638
 10
-49.5483757927
 20
-22.7486205318
 10
-49.5492703016
 20
-22.7538057506
 10
-49.5501572504
 20
-22.7592433184
 10
-49.5510367031
 20
-22.764931677
 10
-49.5519085958
 20
-22.7708682728
 10
-49.5527718425
 20
-22.777050442
 10
-49.5536264382
 20
-22.7834758703
 10
-49.554472388
 20
-22.7901420371
 10
-49.5553086216
 20
-22.7970457056
 10
-49.5561351017
 20
-22.8041839445
 10
-49.5569518656
 20
-22.8115541352
 10
-49.5577579551
 20
-22.8191532979
 10
-49.5585533486
 20
-22.826978344
 10
-49.5601112185
 20
-22.8432941129
  0
LWPOLYLINE
  5
43F
100
AcDbEntity
  8
RACCORDO
100
AcDbPolyline
 62
250
  6
CONTINUOUS
 90
23
 70
0
 10
-50.2300470675
 20
-22.0
 10
-50.2310072304
 20
-22.0002674594
 10
-50.231967369
 20
-22.00107812
 10
-50.2329274833
 20
-22.0024319817
 10
-50.2338881067
 20
-22.0043289435
 10
-50.2348487058
 20
-22.0067691065
 10
-50.2358076809
 20
-22.0097527741
 10
-50.236765013
 20
-22.013281526
 10
-50.2377207211
 20
-22.0173537826
 10
-50.2386732624
 20
-22.0219651078
 10
-50.2396226203
 20
-22.0271170039
 10
-50.2405688114
 20
-22.0328079687
 10
-50.2415103428
 20
-22.0390290603
 10
-50.2424471083
 20
-22.0457807729
 10
-50.243379214
 20
-22.0530626123
 10
-50.2443054863
 20
-22.0608641535
 10
-50.2452258113
 20
-22.069184903
 10
-50.2461403029
 20
-22.0780253543
 10
-50.2470481286
 20
-22.0873765627
 10
-50.2479493091
 20
-22.0972389372
 10
-50.2488438236
 20
-22.1076120688
 10
-50.2497307784
 20
-22.1184857849
 10
-50.2514821365
 20
-22.1417377324
  0
LINE
  5
440
100
AcDbEntity
  8
RACCORDO
100
AcDbLine
 62
250
  6
CONTINUOUS
 10
-50.2180697434
 20
-8.7093895131
 11
-50.217765157
 21
-8.7093895131
  0
LINE
  5
441
100
AcDbEntity
  8
RACCORDO
100
AcDbLine
 62
250
  6
CONTINUOUS
 10
50.2180697434
 20
-8.7093895131
 11
50.217765157
 21
-8.7093895131
  0
LINE
  5
442
100
AcDbEntity
  8
ASSI
100
AcDbLine
 62
7
  6
CONTINUOUS
 10
50.2977325047
 20
-7.9
 11
50.2
 21
-7.9
  0
LINE
  5
443
100
AcDbEntity
  8
ASSI
100
AcDbLine
 62
7
  6
CONTINUOUS
 10
-50.2
 20
-7.9
 11
-50.2977312378
 21
-7.9
  0
LINE
  5
444
100
AcDbEntity
  8
RACCORDO
100
AcDbLine
 62
250
  6
CONTINUOUS
 10
50.2983875132
 20
-7.7751006478
 11
50.2980829267
 21
-7.7751006478
  0
LINE
  5
445
100
AcDbEntity
  8
RACCORDO
100
AcDbLine
 62
250
  6
CONTINUOUS
 10
-50.2983875132
 20
-7.7751006478
 11
-50.2980829267
 21
-7.7751006478
  0
LWPOLYLINE
  5
446
100
AcDbEntity
  8
RACCORDO
100
AcDbPolyline
 62
250
  6
CONTINUOUS
 90
49
 70
0
 10
-50.8441216365
 20
40.1830809714
 10
-50.8338860463
 20
40.172917599
 10
-50.8237810979
 20
40.1622915499
 10
-50.8138067913
 20
40.1512028272
 10
-50.8039975619
 20
40.1396801871
 10
-50.7943189744
 20
40.1276948808
 10
-50.7846677226
 20
40.1151606551
 10
-50.7750323675
 20
40.1020834045
 10
-50.7654243481
 20
40.0884572447
 10
-50.7557746763
 20
40.0741782564
 10
-50.7460751145
 20
40.0592479341
 10
-50.7363339003
 20
40.0436647974
 10
-50.7265067578
 20
40.027320468
 10
-50.7165828017
 20
40.0102040915
 10
-50.7065729173
 20
39.9923265417
 10
-50.6964654853
 20
39.9736120353
 10
-50.6862471236
 20
39.9540340027
 10
-50.6759312143
 20
39.933619039
 10
-50.665546284
 20
39.9123711093
 10
-50.6550887575
 20
39.8902743606
 10
-50.6445622101
 20
39.867344676
 10
-50.6340058938
 20
39.8436336251
 10
-50.6234308519
 20
39.8191606909
 10
-50.6128260411
 20
39.7939064231
 10
-50.6021975831
 20
39.7678639914
 10
-50.5915573234
 20
39.7410664833
 10
-50.5808934165
 20
39.7134808491
 10
-50.5701764484
 20
39.6850010576
 10
-50.5594076291
 20
39.6556398801
 10
-50.5485857485
 20
39.6253845944
 10
-50.5376777624
 20
39.594090937
 10
-50.5266802966
 20
39.5617584495
 10
-50.5155967254
 20
39.5283876559
 10
-50.5044041273
 20
39.4938357757
 10
-50.4930999789
 20
39.4581025702
 10
-50.4816868037
 20
39.4211883643
 10
-50.470149251
 20
39.3829512363
 10
-50.4584850588
 20
39.3433899358
 10
-50.446696489
 20
39.3025058257
 10
-50.4347749771
 20
39.2601609189
 10
-50.4227183599
 20
39.2163525349
 10
-50.4105288005
 20
39.1710834998
 10
-50.3982042235
 20
39.1242241042
 10
-50.3857438339
 20
39.0757756752
 10
-50.3731484267
 20
39.0257370713
 10
-50.3604183109
 20
38.973974902
 10
-50.3475535895
 20
38.9204447855
 10
-50.3345541596
 20
38.8651913418
 10
-50.3214200211
 20
38.8082146998
  0
LWPOLYLINE
  5
447
100
AcDbEntity
  8
0
100
AcDbPolyline
 62
7
  6
CONTINUOUS
 90
2
 70
0
 43
0.3500000006
 10
-0.3928571312
 20
49.7500012665
 10
-0.3928571312
 20
51.2500017242
  0
LWPOLYLINE
  5
448
100
AcDbEntity
  8
RACCORDO
100
AcDbPolyline
 62
250
  6
CONTINUOUS
 90
48
 70
0
 10
-50.9646229064
 20
40.1618182549
 10
-50.9620756852
 20
40.159582255
 10
-50.9594578629
 20
40.1571163408
 10
-50.956774743
 20
40.154412145
 10
-50.9540300846
 20
40.1514607678
 10
-50.9512310762
 20
40.1482578891
 10
-50.9483877696
 20
40.1448043389
 10
-50.9455125139
 20
40.141107066
 10
-50.9426017376
 20
40.1371542138
 10
-50.9396420297
 20
40.1329177265
 10
-50.9366403865
 20
40.1283975359
 10
-50.9335991993
 20
40.1235883393
 10
-50.9305003255
 20
40.1184494551
 10
-50.9273455559
 20
40.1129704332
 10
-50.9241437434
 20
40.1071550258
 10
-50.9208892015
 20
40.1009798373
 10
-50.9175819311
 20
40.0944314229
 10
-50.9142318816
 20
40.0875184144
 10
-50.9108483679
 20
40.0802494146
 10
-50.9074355112
 20
40.0726243411
 10
-50.9039959919
 20
40.0646428392
 10
-50.9005362311
 20
40.0563130202
 10
-50.8970634101
 20
40.0476465414
 10
-50.8935747836
 20
40.0386334645
 10
-50.890062437
 20
40.0292478157
 10
-50.8865311008
 20
40.0194949948
 10
-50.8829807313
 20
40.0093702103
 10
-50.8793982051
 20
39.9988292006
 10
-50.8757865589
 20
39.9878707782
 10
-50.8721484032
 20
39.976495292
 10
-50.8684721508
 20
39.9646579602
 10
-50.8647605678
 20
39.9523554552
 10
-50.8610171492
 20
39.9395895048
 10
-50.8572332069
 20
39.926320787
 10
-50.8534136471
 20
39.9125534793
 10
-50.8495598937
 20
39.8982816985
 10
-50.8456597817
 20
39.8834492528
 10
-50.8417201084
 20
39.8680671817
 10
-50.8377409171
 20
39.8521223662
 10
-50.8337022652
 20
39.8355204054
 10
-50.8296075265
 20
39.8182553503
 10
-50.8254618337
 20
39.8003300079
 10
-50.821250232
 20
39.7816614312
 10
-50.8169658696
 20
39.7621949425
 10
-50.8126252725
 20
39.7419815862
 10
-50.8082480964
 20
39.7210974038
 10
-50.8038327967
 20
39.699521052
 10
-50.7993866277
 20
39.677272978
  0
LWPOLYLINE
  5
449
100
AcDbEntity
  8
RACCORDO
100
AcDbPolyline
 62
250
  6
CONTINUOUS
 90
48
 70
0
 10
50.964622909
 20
-40.1618182561
 10
50.9620773734
 20
-40.1595837884
 10
50.9594612833
 20
-40.157119671
 10
50.9567799349
 20
-40.1544175478
 10
50.9540370727
 20
-40.1514685187
 10
50.9512398831
 20
-40.1482682708
 10
50.9483984342
 20
-40.1448176662
 10
50.9455250478
 20
-40.141123631
 10
50.9426161666
 20
-40.1371743314
 10
50.9396584539
 20
-40.1329418392
 10
50.9366588818
 20
-40.1284260798
 10
50.9336198456
 20
-40.1236217736
 10
50.930523307
 20
-40.1184884521
 10
50.9273711063
 20
-40.1130158119
 10
50.9241720104
 20
-40.1072075004
 10
50.9209202305
 20
-40.1010399716
 10
50.917615834
 20
-40.0944999466
 10
50.9142686839
 20
-40.0875959024
 10
50.9108877912
 20
-40.0803357771
 10
50.9074772559
 20
-40.0727193814
 10
50.9040398122
 20
-40.0647464131
 10
50.9005817224
 20
-40.0564245188
 10
50.8971101319
 20
-40.04776516
 10
50.8936223856
 20
-40.0387585281
 10
50.8901106086
 20
-40.0293786664
 10
50.8865795311
 20
-40.0196308895
 10
50.883029151
 20
-40.0095104496
 10
50.8794464405
 20
-39.9989733063
 10
50.8758344349
 20
-39.988018217
 10
50.8721957705
 20
-39.9766455657
 10
50.868518983
 20
-39.9648109394
 10
50.8648068714
 20
-39.9525111069
 10
50.8610629025
 20
-39.939747699
 10
50.8572784109
 20
-39.9264814765
 10
50.853458394
 20
-39.9127169397
 10
50.8496041835
 20
-39.8984478863
 10
50.8457033785
 20
-39.8836172301
 10
50.8417628693
 20
-39.8682362938
 10
50.8377826356
 20
-39.8522916548
 10
50.8337423099
 20
-39.8356871006
 10
50.829644944
 20
-39.8184150943
 10
50.8254960921
 20
-39.8004799639
 10
50.8212814746
 20
-39.7818016244
 10
50.8169941908
 20
-39.7623252064
 10
50.8126508103
 20
-39.7421019557
 10
50.8082717114
 20
-39.7212114262
 10
50.8038557911
 20
-39.6996347546
 10
50.7994097412
 20
-39.6773899863
  0
LWPOLYLINE
  5
44A
100
AcDbEntity
  8
RACCORDO
100
AcDbPolyline
 62
250
  6
CONTINUOUS
 90
22
 70
0
 10
50.2300470675
 20
22.0
 10
50.2310075351
 20
22.0002677129
 10
50.2319679486
 20
22.0010788392
 10
50.2329283079
 20
22.0024333789
 10
50.2338891476
 20
22.0043312876
 10
50.2348499331
 20
22.0067726098
 10
50.2358090609
 20
22.0097574788
 10
50.2367665115
 20
22.0132874776
 10
50.2377223044
 20
22.0173610234
 10
50.2386748954
 20
22.0219735012
 10
50.2396242614
 20
22.0271263648
 10
50.2405704255
 20
22.0328181605
 10
50.2415119123
 20
22.0390399126
 10
50.242448612
 20
22.045792037
 10
50.2433806345
 20
22.0530741179
 10
50.2443068342
 20
22.0608759326
 10
50.2452271054
 20
22.0691970179
 10
50.2461415538
 20
22.0780378371
 10
50.2470493512
 20
22.087389557
 10
50.2479505241
 20
22.0972526641
 10
50.2488450461
 20
22.107626672
 10
50.2506114732
 20
22.129877891
  0
LINE
  5
44B
100
AcDbEntity
  8
RACCORDO
100
AcDbLine
 62
250
  6
CONTINUOUS
 10
-50.2983875132
 20
7.7751006478
 11
-50.2980829267
 21
7.7751006478
  0
LINE
  5
44C
100
AcDbEntity
  8
RACCORDO
100
AcDbLine
 62
250
  6
CONTINUOUS
 10
50.2983875132
 20
7.7751006478
 11
50.2980829267
 21
7.7751006478
  0
LINE
  5
44D
100
AcDbEntity
  8
ASSI
100
AcDbLine
 62
7
  6
CONTINUOUS
 10
50.2977312526
 20
7.9
 11
50.2
 21
7.9
  0
LINE
  5
44E
100
AcDbEntity
  8
ASSI
100
AcDbLine
 62
7
  6
CONTINUOUS
 10
-50.2
 20
7.9
 11
-50.2977325221
 21
7.9
  0
LINE
  5
44F
100
AcDbEntity
  8
RACCORDO
100
AcDbLine
 62
250
  6
CONTINUOUS
 10
-50.2180697434
 20
8.7093895131
 11
-50.217765157
 21
8.7093895131
  0
LINE
  5
450
100
AcDbEntity
  8
RACCORDO
100
AcDbLine
 62
250
  6
CONTINUOUS
 10
50.2180697434
 20
8.7093895131
 11
50.217765157
 21
8.7093895131
  0
LWPOLYLINE
  5
451
100
AcDbEntity
  8
RACCORDO
100
AcDbPolyline
 62
250
  6
CONTINUOUS
 90
52
 70
0
 10
50.844121977
 20
-40.1830810027
 10
50.8345167989
 20
-40.1735668126
 10
50.8250280934
 20
-40.1636436486
 10
50.8156558605
 20
-40.1533115133
 10
50.8064285368
 20
-40.1425928078
 10
50.7973176857
 20
-40.131465137
 10
50.7882379974
 20
-40.1198613106
 10
50.7791812863
 20
-40.1077875719
 10
50.770155738
 20
-40.0952376857
 10
50.7611005983
 20
-40.082125746
 10
50.7520093612
 20
-40.0684539
 10
50.7428885328
 20
-40.0542200114
 10
50.7336968774
 20
-40.0393317508
 10
50.7244266433
 20
-40.0237836263
 10
50.7150855821
 20
-40.0075811449
 10
50.7056557133
 20
-39.9906484781
 10
50.6961255459
 20
-39.972965396
 10
50.6865065709
 20
-39.9545521484
 10
50.676815281
 20
-39.9353936281
 10
50.6670459024
 20
-39.9154725835
 10
50.6572042089
 20
-39.8948062901
 10
50.647324014
 20
-39.8734314319
 10
50.6374102638
 20
-39.8513526123
 10
50.6274580124
 20
-39.8285652541
 10
50.6174862348
 20
-39.8050922701
 10
50.6075052455
 20
-39.7809576888
 10
50.5975047301
 20
-39.7561375106
 10
50.5874727205
 20
-39.7305826078
 10
50.5774148308
 20
-39.7043132352
 10
50.5673254469
 20
-39.6773091732
 10
50.5571757589
 20
-39.6494605874
 10
50.5469645541
 20
-39.6207720369
 10
50.5366930452
 20
-39.5912390087
 10
50.5263360598
 20
-39.5607380671
 10
50.5158909663
 20
-39.5292683831
 10
50.5053603963
 20
-39.4968308462
 10
50.4947270731
 20
-39.4633046071
 10
50.4839890604
 20
-39.4286892726
 10
50.4731482945
 20
-39.3929853142
 10
50.4621933068
 20
-39.3560731909
 10
50.4511223094
 20
-39.3179516452
 10
50.4399370901
 20
-39.278622035
 10
50.4286315448
 20
-39.2379687551
 10
50.4172039883
 20
-39.1959895865
 10
50.4056561056
 20
-39.1526868758
 10
50.3939868476
 20
-39.1079518803
 10
50.3821948578
 20
-39.0617824671
 10
50.3702814927
 20
-39.0141809297
 10
50.3582497726
 20
-38.9650451815
 10
50.3461007043
 20
-38.9143412628
 10
50.3338332811
 20
-38.8621033349
 10
50.321447503
 20
-38.8083315065
  0
LWPOLYLINE
  5
452
100
AcDbEntity
  8
RACCORDO
100
AcDbPolyline
 62
250
  6
CONTINUOUS
 90
33
 70
0
 10
49.5304734043
 20
22.7
 10
49.5314339789
 20
22.7001349304
 10
49.5323944699
 20
22.7005403013
 10
49.5333548773
 20
22.7012168327
 10
49.534315724
 20
22.7021653075
 10
49.5352764871
 20
22.7033861505
 10
49.5362355979
 20
22.7048790089
 10
49.5371930511
 20
22.7066437833
 10
49.538148852
 20
22.7086802948
 10
49.5391014482
 20
22.7109871782
 10
49.5400508129
 20
22.7135636322
 10
49.540996973
 20
22.7164088251
 10
49.5419384563
 20
22.7195205192
 10
49.5428751546
 20
22.722896954
 10
49.5438071763
 20
22.7265369567
 10
49.5447333746
 20
22.7304386489
 10
49.5456536433
 20
22.7345998184
 10
49.5465680885
 20
22.7390190282
 10
49.5474758827
 20
22.7436955549
 10
49.5483770526
 20
22.7486277162
 10
49.5492715714
 20
22.7538134182
 10
49.5501585305
 20
22.7592514857
 10
49.5510379915
 20
22.7649403471
 10
49.5519098928
 20
22.7708774625
 10
49.5527731418
 20
22.7770601173
 10
49.5536277296
 20
22.7834859669
 10
49.5544736651
 20
22.7901525089
 10
49.5553098812
 20
22.7970565249
 10
49.5561363404
 20
22.8041950793
 10
49.5569530802
 20
22.8115655528
 10
49.5577591461
 20
22.8191649952
 10
49.5585545174
 20
22.8269903262
 10
49.560112345
 20
22.8433066711
  0
LINE
  5
453
100
AcDbEntity
  8
RACCORDO
100
AcDbLine
 62
250
  6
CONTINUOUS
 10
71.8004264211
 20
41.0
 11
71.5715794407
 21
40.7711530197
  0
LINE
  5
454
100
AcDbEntity
  8
RACCORDO
100
AcDbLine
 62
250
  6
CONTINUOUS
 10
72.5
 20
40.3004264211
 11
72.2711530197
 21
40.0715794407
  0
LINE
  5
455
100
AcDbEntity
  8
RACCORDO
100
AcDbLine
 62
250
  6
CONTINUOUS
 10
50.2180697434
 20
21.9999986429
 11
50.2300470675
 21
22.0
  0
LINE
  5
456
100
AcDbEntity
  8
RACCORDO
100
AcDbLine
 62
250
  6
CONTINUOUS
 10
50.2180697434
 20
22.0
 11
50.2177651569
 21
22.0
  0
LINE
  5
457
100
AcDbEntity
  8
RACCORDO
100
AcDbLine
 62
7
  6
CONTINUOUS
 10
50.0920331568
 20
22.4
 11
-50.0920356891
 21
22.4
  0
LINE
  5
458
100
AcDbEntity
  8
RACCORDO
100
AcDbLine
 62
7
  6
CONTINUOUS
 10
-49.5304734464
 20
22.7
 11
49.5304734464
 21
22.7
  0
LINE
  5
459
100
AcDbEntity
  8
RACCORDO
100
AcDbLine
 62
250
  6
CONTINUOUS
 10
-50.2300470675
 20
22.0
 11
-50.2177651569
 21
22.0
  0
LINE
  5
45A
100
AcDbEntity
  8
RACCORDO
100
AcDbLine
 62
250
  6
CONTINUOUS
 10
71.5715794407
 20
-40.7711530197
 11
71.8004264211
 21
-41.0
  0
LINE
  5
45B
100
AcDbEntity
  8
RACCORDO
100
AcDbLine
 62
250
  6
CONTINUOUS
 10
72.2711530197
 20
-40.0715794407
 11
72.5
 21
-40.3004264211
  0
LINE
  5
45C
100
AcDbEntity
  8
RACCORDO
100
AcDbLine
 62
250
  6
CONTINUOUS
 10
-49.5451161407
 20
22.6994381366
 11
-49.5446505163
 21
22.6994561213
  0
LINE
  5
45D
100
AcDbEntity
  8
RACCORDO
100
AcDbLine
 62
250
  6
CONTINUOUS
 10
-49.5782962333
 20
23.2545980146
 11
49.5782962333
 21
23.2545980148
  0
LWPOLYLINE
  5
45E
100
AcDbEntity
  8
RACCORDO
100
AcDbPolyline
 62
7
  6
CONTINUOUS
 90
66
 70
0
 10
49.5304691887
 20
22.6998397139
 10
49.5440968838
 20
22.6994777138
 10
49.5609547969
 20
22.6986236243
 10
49.577786987
 20
22.6973641319
 10
49.594584017
 20
22.6957000042
 10
49.6113364604
 20
22.6936321051
 10
49.6280345961
 20
22.6911616898
 10
49.6446686223
 20
22.6882901312
 10
49.6612288683
 20
22.6850190506
 10
49.677705855
 20
22.681350361
 10
49.6940899061
 20
22.6772861061
 10
49.7103712347
 20
22.6728287719
 10
49.7265403728
 20
22.6679809262
 10
49.7425879239
 20
22.6627453454
 10
49.7585043205
 20
22.657125239
 10
49.7742802883
 20
22.6511238168
 10
49.7899067162
 20
22.6447446256
 10
49.8053743214
 20
22.6379914835
 10
49.8206741179
 20
22.6308682968
 10
49.8357972804
 20
22.6233793055
 10
49.8507348179
 20
22.6155289276
 10
49.8654780545
 20
22.6073218299
 10
49.8800185226
 20
22.598762809
 10
49.8943477468
 20
22.5898568401
 10
49.908457456
 20
22.5806092324
 10
49.922339495
 20
22.5710253219
 10
49.9359859217
 20
22.5611106822
 10
49.949388871
 20
22.5508711337
 10
49.9625405566
 20
22.5403125913
 10
49.9754334991
 20
22.52944123
 10
49.988060216
 20
22.5182633495
 10
50.0004134224
 20
22.5067854613
 10
50.0124860849
 20
22.4950142272
 10
50.0242711665
 20
22.482956446
 10
50.0357619305
 20
22.4706191797
 10
50.0469518013
 20
22.4580094847
 10
50.0578343026
 20
22.4451346764
 10
50.0684032012
 20
22.432002275
 10
50.0786524119
 20
22.4186197451
 10
50.0885760676
 20
22.4049948929
 10
50.0981684177
 20
22.3911356147
 10
50.1074239644
 20
22.3770498152
 10
50.1163374326
 20
22.3627456753
 10
50.1249035785
 20
22.3482314702
 10
50.133117514
 20
22.3335156073
 10
50.1409745067
 20
22.3186065753
 10
50.148469941
 20
22.303513028
 10
50.155599512
 20
22.2882438438
 10
50.1623590353
 20
22.2728078389
 10
50.1687446431
 20
22.2572139773
 10
50.174752626
 20
22.241471413
 10
50.1803794685
 20
22.225589229
 10
50.1856220068
 20
22.2095766745
 10
50.1904771161
 20
22.1934431706
 10
50.1949420402
 20
22.1771980688
 10
50.199014257
 20
22.1608508124
 10
50.2026913252
 20
22.1444110464
 10
50.2059712271
 20
22.1278883956
 10
50.2088520807
 20
22.1112923103
 10
50.2113322801
 20
22.0946323411
 10
50.2134104824
 20
22.077918245
 10
50.2150854425
 20
22.0611597134
 10
50.2163563112
 20
22.0443660769
 10
50.2172223417
 20
22.0275466919
 10
50.2176830524
 20
22.0107117034
 10
50.2177651319
 20
22.0
  0
LINE
  5
45F
100
AcDbEntity
  8
RACCORDO
100
AcDbLine
 62
250
  6
CONTINUOUS
 10
49.5440968838
 20
22.6994777138
 11
49.5451161412
 21
22.6994381365
  0
LWPOLYLINE
  5
460
100
AcDbEntity
  8
RACCORDO
100
AcDbPolyline
 62
250
  6
CONTINUOUS
 90
5
 70
0
 10
49.5591690744
 20
22.6987344662
 10
49.5732240194
 20
22.6977477863
 10
49.5872729951
 20
22.696477576
 10
49.6013035435
 20
22.6949241457
 10
49.6153098226
 20
22.6930875338
  0
LINE
  5
461
100
AcDbEntity
  8
RACCORDO
100
AcDbLine
 62
250
  6
CONTINUOUS
 10
-49.629286175
 20
22.6909678719
 11
-49.6285833721
 21
22.6910735183
  0
LINE
  5
462
100
AcDbEntity
  8
RACCORDO
100
AcDbLine
 62
7
  6
CONTINUOUS
 10
50.2
 20
40.0986945859
 11
50.3790827216
 21
40.1259991671
  0
LINE
  5
463
100
AcDbEntity
  8
RACCORDO
100
AcDbLine
 62
7
  6
CONTINUOUS
 10
50.3790827216
 20
40.1259991671
 11
50.4684115209
 21
40.1394741542
  0
LWPOLYLINE
  5
464
100
AcDbEntity
  8
RACCORDO
100
AcDbPolyline
 62
250
  6
CONTINUOUS
 90
5
 70
0
 10
-49.615309822
 20
22.6930875339
 10
-49.6013035429
 20
22.6949241458
 10
-49.5872729945
 20
22.6964775761
 10
-49.5732240187
 20
22.6977477864
 10
-49.5591690738
 20
22.6987344662
  0
LINE
  5
465
100
AcDbEntity
  8
RACCORDO
100
AcDbLine
 62
250
  6
CONTINUOUS
 10
-49.8958415598
 20
31.5136519422
 11
-49.8654934534
 21
31.5151475132
  0
LINE
  5
466
100
AcDbEntity
  8
RACCORDO
100
AcDbLine
 62
250
  6
CONTINUOUS
 10
-49.8654934534
 20
31.5151475132
 11
-49.8346265978
 21
31.5164800516
  0
LINE
  5
467
100
AcDbEntity
  8
RACCORDO
100
AcDbLine
 62
250
  6
CONTINUOUS
 10
-49.8346265978
 20
31.5164800516
 11
-49.8033078641
 21
31.5176466705
  0
LINE
  5
468
100
AcDbEntity
  8
RACCORDO
100
AcDbLine
 62
250
  6
CONTINUOUS
 10
-49.8033078641
 20
31.5176466705
 11
-49.7716051026
 21
31.5186448424
  0
LINE
  5
469
100
AcDbEntity
  8
RACCORDO
100
AcDbLine
 62
250
  6
CONTINUOUS
 10
-49.7716051026
 20
31.5186448424
 11
-49.7395869957
 21
31.519472405
  0
LINE
  5
46A
100
AcDbEntity
  8
RACCORDO
100
AcDbLine
 62
250
  6
CONTINUOUS
 10
-49.7395869957
 20
31.519472405
 11
-49.7073229088
 21
31.5201275652
  0
LINE
  5
46B
100
AcDbEntity
  8
RACCORDO
100
AcDbLine
 62
250
  6
CONTINUOUS
 10
-49.7073229088
 20
31.5201275652
 11
-49.6748827402
 21
31.5206089037
  0
LWPOLYLINE
  5
46C
100
AcDbEntity
  8
RACCORDO
100
AcDbPolyline
 62
250
  6
CONTINUOUS
 90
3
 70
0
 10
-49.6748827402
 20
31.5206089037
 10
-49.6423367695
 20
31.5209153778
 10
-49.6260461377
 20
31.5210028184
  0
LINE
  5
46D
100
AcDbEntity
  8
RACCORDO
100
AcDbLine
 62
250
  6
CONTINUOUS
 10
49.6260461377
 20
31.5210028343
 11
49.6586185796
 21
31.520784064
  0
LINE
  5
46E
100
AcDbEntity
  8
RACCORDO
100
AcDbLine
 62
250
  6
CONTINUOUS
 10
49.6586185796
 20
31.520784064
 11
49.6911204543
 21
31.5203900498
  0
LINE
  5
46F
100
AcDbEntity
  8
RACCORDO
100
AcDbLine
 62
250
  6
CONTINUOUS
 10
49.6911204543
 20
31.5203900498
 11
49.7234813485
 21
31.5198216453
  0
LINE
  5
470
100
AcDbEntity
  8
RACCORDO
100
AcDbLine
 62
250
  6
CONTINUOUS
 10
49.7234813485
 20
31.5198216453
 11
49.7556311543
 21
31.5190800819
  0
LINE
  5
471
100
AcDbEntity
  8
RACCORDO
100
AcDbLine
 62
250
  6
CONTINUOUS
 10
49.7556311543
 20
31.5190800819
 11
49.7875002207
 21
31.5181669661
  0
LINE
  5
472
100
AcDbEntity
  8
RACCORDO
100
AcDbLine
 62
250
  6
CONTINUOUS
 10
49.7875002207
 20
31.5181669661
 11
49.8190195052
 21
31.5170842763
  0
LINE
  5
473
100
AcDbEntity
  8
RACCORDO
100
AcDbLine
 62
250
  6
CONTINUOUS
 10
49.8190195052
 20
31.5170842763
 11
49.8501207225
 21
31.515834358
  0
LWPOLYLINE
  5
474
100
AcDbEntity
  8
RACCORDO
100
AcDbPolyline
 62
250
  6
CONTINUOUS
 90
3
 70
0
 10
49.8501207225
 20
31.515834358
 10
49.8807364938
 20
31.5144199191
 10
49.895841565
 20
31.5136519483
  0
LWPOLYLINE
  5
475
100
AcDbEntity
  8
RACCORDO
100
AcDbPolyline
 62
7
  6
CONTINUOUS
 90
10
 70
0
 10
-50.4684115185
 20
40.1394741535
 10
-50.5058207544
 20
40.1448647688
 10
-50.544311737
 20
40.1501071839
 10
-50.5838844663
 20
40.1552013983
 10
-50.624535827
 20
40.1601316141
 10
-50.6662689344
 20
40.1649136281
 10
-50.7090931344
 20
40.169594832
 10
-50.7530115424
 20
40.1741910227
 10
-50.7980210431
 20
40.1786864026
 10
-50.8441216365
 20
40.1830809714
  0
LINE
  5
476
100
AcDbEntity
  8
RACCORDO
100
AcDbLine
 62
250
  6
CONTINUOUS
 10
49.6280345961
 20
22.6911616898
 11
49.6292861756
 21
22.6909678718
  0
LINE
  5
477
100
AcDbEntity
  8
RACCORDO
100
AcDbLine
 62
7
  6
CONTINUOUS
 10
-50.4684115185
 20
40.1394741535
 11
-50.2896126451
 21
40.1124060817
  0
LINE
  5
478
100
AcDbEntity
  8
RACCORDO
100
AcDbLine
 62
7
  6
CONTINUOUS
 10
-50.2896126451
 20
40.1124060817
 11
-50.2
 21
40.0986945859
  0
LINE
  5
479
100
AcDbEntity
  8
RACCORDO
100
AcDbLine
 62
250
  6
CONTINUOUS
 10
49.6432205011
 20
22.6885665703
 11
49.6446686223
 21
22.6882901312
  0
LWPOLYLINE
  5
47A
100
AcDbEntity
  8
RACCORDO
100
AcDbPolyline
 62
250
  6
CONTINUOUS
 90
3
 70
0
 10
49.6571070114
 20
22.6858844053
 10
49.6709401164
 20
22.6829222346
 10
49.6847081646
 20
22.6796825092
  0
LWPOLYLINE
  5
47B
100
AcDbEntity
  8
RACCORDO
100
AcDbPolyline
 62
250
  6
CONTINUOUS
 90
5
 70
0
 10
49.7787617099
 20
-22.6493849179
 10
49.7656098906
 20
-22.6545169055
 10
49.7523561651
 20
-22.6593837264
 10
49.7390057231
 20
-22.6639833936
 10
49.7255606537
 20
-22.6683150019
  0
LINE
  5
47C
100
AcDbEntity
  8
RACCORDO
100
AcDbLine
 62
250
  6
CONTINUOUS
 10
-49.7120244548
 20
22.6723770567
 11
-49.7109065615
 21
22.6726750375
  0
LWPOLYLINE
  5
47D
100
AcDbEntity
  8
RACCORDO
100
AcDbPolyline
 62
250
  6
CONTINUOUS
 90
5
 70
0
 10
-49.6984043743
 20
22.6761670181
 10
-49.684708164
 20
22.6796825093
 10
-49.6709401158
 20
22.6829222347
 10
-49.6571070108
 20
22.6858844055
 10
-49.6432205005
 20
22.6885665705
  0
LWPOLYLINE
  5
47E
100
AcDbEntity
  8
RACCORDO
100
AcDbPolyline
 62
7
  6
CONTINUOUS
 90
10
 70
0
 10
50.844116895
 20
40.1830805211
 10
50.798016928
 20
40.1786859972
 10
50.7530080287
 20
40.1741906631
 10
50.7090901971
 20
40.1695945189
 10
50.6662665484
 20
40.1649133618
 10
50.6245339674
 20
40.1601313954
 10
50.5838831088
 20
40.1552012299
 10
50.5443108572
 20
40.1501070691
 10
50.5058203279
 20
40.1448647104
 10
50.4684115209
 20
40.1394741542
  0
LINE
  5
47F
100
AcDbEntity
  8
RACCORDO
100
AcDbLine
 62
250
  6
CONTINUOUS
 10
-50.0634509892
 20
31.5014600517
 11
-50.0375469288
 21
31.503853948
  0
LWPOLYLINE
  5
480
100
AcDbEntity
  8
RACCORDO
100
AcDbPolyline
 62
7
  6
CONTINUOUS
 90
55
 70
0
 10
50.843617845
 20
40.1830489944
 10
50.84850113
 20
40.1834557475
 10
50.8531759309
 20
40.1837913357
 10
50.8576422462
 20
40.1840557754
 10
50.861876507
 20
40.1842426616
 10
50.8659022803
 20
40.1843584227
 10
50.8697902691
 20
40.1844223192
 10
50.8735583855
 20
40.1844367157
 10
50.8771887174
 20
40.1843992503
 10
50.8806982315
 20
40.1843220894
 10
50.8840865685
 20
40.184206309
 10
50.8873540884
 20
40.1840508276
 10
50.8905188365
 20
40.1838645754
 10
50.8935805293
 20
40.1836486167
 10
50.8965394512
 20
40.1834018786
 10
50.899414499
 20
40.1831300864
 10
50.9022059665
 20
40.1828341342
 10
50.9049135609
 20
40.1825131181
 10
50.9075552991
 20
40.1821700668
 10
50.910134501
 20
40.1818051719
 10
50.9126478479
 20
40.1814182311
 10
50.9151033978
 20
40.1810116829
 10
50.9175041029
 20
40.1805852402
 10
50.9198470122
 20
40.1801391791
 10
50.9221313288
 20
40.1796767847
 10
50.9243570986
 20
40.1791980386
 10
50.9265242768
 20
40.1787029493
 10
50.9286319307
 20
40.1781948443
 10
50.9306798505
 20
40.1776737554
 10
50.932668247
 20
40.1771396425
 10
50.934596818
 20
40.1765957282
 10
50.9364651315
 20
40.1760421624
 10
50.9382736203
 20
40.1754787888
 10
50.9400232785
 20
40.1749083728
 10
50.9417135172
 20
40.1743312208
 10
50.9433449259
 20
40.1737470221
 10
50.944920266
 20
40.1731576176
 10
50.9464394354
 20
40.1725632285
 10
50.9479025365
 20
40.1719636306
 10
50.9493126378
 20
40.1713599981
 10
50.9506695973
 20
40.1707526395
 10
50.9519735572
 20
40.1701412442
 10
50.9532280124
 20
40.1695260578
 10
50.9544329819
 20
40.1689074158
 10
50.9555884469
 20
40.1682849808
 10
50.9566978462
 20
40.1676579886
 10
50.9577621358
 20
40.1670261878
 10
50.9587803601
 20
40.1663898274
 10
50.9597530902
 20
40.1657488927
 10
50.9606809421
 20
40.1651029933
 10
50.9615633002
 20
40.1644525173
 10
50.962398888
 20
40.1637986185
 10
50.9631872801
 20
40.1631416813
 10
50.9639289022
 20
40.16248132
 10
50.9646237543
 20
40.161817534
  0
LINE
  5
481
100
AcDbEntity
  8
RACCORDO
100
AcDbLine
 62
250
  6
CONTINUOUS
 10
-50.0375469288
 20
31.503853948
 11
-50.010751376
 21
31.5061092784
  0
LINE
  5
482
100
AcDbEntity
  8
RACCORDO
100
AcDbLine
 62
250
  6
CONTINUOUS
 10
-50.010751376
 20
31.5061092784
 11
-49.9831223815
 21
31.5082211571
  0
LINE
  5
483
100
AcDbEntity
  8
RACCORDO
100
AcDbLine
 62
250
  6
CONTINUOUS
 10
-49.9831223815
 20
31.5082211571
 11
-49.9547198019
 21
31.5101850087
  0
LINE
  5
484
100
AcDbEntity
  8
RACCORDO
100
AcDbLine
 62
250
  6
CONTINUOUS
 10
-49.9547198019
 20
31.5101850087
 11
-49.9256051696
 21
31.5119965786
  0
LINE
  5
485
100
AcDbEntity
  8
RACCORDO
100
AcDbLine
 62
250
  6
CONTINUOUS
 10
-49.9256051696
 20
31.5119965786
 11
-49.8958415598
 21
31.5136519422
  0
LINE
  5
486
100
AcDbEntity
  8
RACCORDO
100
AcDbLine
 62
250
  6
CONTINUOUS
 10
49.895841565
 20
31.5136519483
 11
49.9256051719
 21
31.5119965836
  0
LINE
  5
487
100
AcDbEntity
  8
RACCORDO
100
AcDbLine
 62
250
  6
CONTINUOUS
 10
49.9256051719
 20
31.5119965836
 11
49.9547198004
 21
31.5101850127
  0
LINE
  5
488
100
AcDbEntity
  8
RACCORDO
100
AcDbLine
 62
250
  6
CONTINUOUS
 10
49.9547198004
 20
31.5101850127
 11
49.9831223756
 21
31.5082211602
  0
LINE
  5
489
100
AcDbEntity
  8
RACCORDO
100
AcDbLine
 62
250
  6
CONTINUOUS
 10
49.9831223756
 20
31.5082211602
 11
50.010751365
 21
31.5061092807
  0
LINE
  5
48A
100
AcDbEntity
  8
RACCORDO
100
AcDbLine
 62
250
  6
CONTINUOUS
 10
50.010751365
 20
31.5061092807
 11
50.0375469123
 21
31.5038539495
  0
LWPOLYLINE
  5
48B
100
AcDbEntity
  8
RACCORDO
100
AcDbPolyline
 62
250
  6
CONTINUOUS
 90
39
 70
0
 10
50.0375469123
 20
31.5038539495
 10
50.0634509665
 20
31.5014600525
 10
50.0760510676
 20
31.5002127512
 10
50.0884074083
 20
31.4989327761
 10
50.1005132953
 20
31.4976208207
 10
50.1123621711
 20
31.4962775955
 10
50.1239476174
 20
31.4949038282
 10
50.1352633585
 20
31.4935002629
 10
50.1463032649
 20
31.4920676599
 10
50.1570613565
 20
31.4906067953
 10
50.1675318059
 20
31.4891184603
 10
50.1777089414
 20
31.4876034611
 10
50.1875872501
 20
31.4860626185
 10
50.1971613813
 20
31.484496767
 10
50.2064261488
 20
31.4829067549
 10
50.215376534
 20
31.4812934434
 10
50.2240076887
 20
31.4796577065
 10
50.2323149375
 20
31.4780004301
 10
50.2402937806
 20
31.4763225121
 10
50.2479398959
 20
31.4746248612
 10
50.2552491417
 20
31.4729083972
 10
50.2622175588
 20
31.4711740497
 10
50.2688413724
 20
31.4694227583
 10
50.2751169946
 20
31.4676554716
 10
50.2810410259
 20
31.4658731468
 10
50.2866102575
 20
31.4640767495
 10
50.2918216726
 20
31.4622672528
 10
50.2966724483
 20
31.4604456367
 10
50.3011599569
 20
31.458612888
 10
50.3052817677
 20
31.4567699996
 10
50.309035648
 20
31.4549179696
 10
50.3124195644
 20
31.4530578014
 10
50.3154316839
 20
31.4511905024
 10
50.3180703747
 20
31.4493170843
 10
50.3203342077
 20
31.4474385617
 10
50.3222219569
 20
31.445555952
 10
50.3237325996
 20
31.4436702748
 10
50.3248653172
 20
31.4417825515
 10
50.325619496
 20
31.4398938049
  0
LINE
  5
48C
100
AcDbEntity
  8
RACCORDO
100
AcDbLine
 62
250
  6
CONTINUOUS
 10
49.6847081646
 20
22.6796825092
 11
49.6984043748
 21
22.6761670179
  0
LINE
  5
48D
100
AcDbEntity
  8
RACCORDO
100
AcDbLine
 62
250
  6
CONTINUOUS
 10
49.7103712347
 20
22.6728287719
 11
49.7120244554
 21
22.6723770566
  0
LINE
  5
48E
100
AcDbEntity
  8
RACCORDO
100
AcDbLine
 62
250
  6
CONTINUOUS
 10
49.7255606543
 20
22.6683150017
 11
49.7265403728
 21
22.6679809262
  0
LWPOLYLINE
  5
48F
100
AcDbEntity
  8
RACCORDO
100
AcDbPolyline
 62
250
  6
CONTINUOUS
 90
5
 70
0
 10
49.7390057236
 20
22.6639833934
 10
49.7523561656
 20
22.6593837262
 10
49.7656098911
 20
22.6545169053
 10
49.7787617104
 20
22.6493849177
 10
49.7918061744
 20
22.6439899721
  0
LINE
  5
490
100
AcDbEntity
  8
RACCORDO
100
AcDbLine
 62
250
  6
CONTINUOUS
 10
50.7058127173
 20
39.085024502
 11
50.7160022824
 21
39.1612957303
  0
LINE
  5
491
100
AcDbEntity
  8
RACCORDO
100
AcDbLine
 62
250
  6
CONTINUOUS
 10
50.7160022824
 20
39.1612957303
 11
50.7259550723
 21
39.2329470265
  0
LINE
  5
492
100
AcDbEntity
  8
RACCORDO
100
AcDbLine
 62
250
  6
CONTINUOUS
 10
50.7259550723
 20
39.2329470265
 11
50.735686642
 21
39.3003161158
  0
LINE
  5
493
100
AcDbEntity
  8
RACCORDO
100
AcDbLine
 62
250
  6
CONTINUOUS
 10
50.735686642
 20
39.3003161158
 11
50.7452180175
 21
39.3637470756
  0
LINE
  5
494
100
AcDbEntity
  8
RACCORDO
100
AcDbLine
 62
250
  6
CONTINUOUS
 10
50.7452180175
 20
39.3637470756
 11
50.7545575632
 21
39.4234720609
  0
LINE
  5
495
100
AcDbEntity
  8
RACCORDO
100
AcDbLine
 62
250
  6
CONTINUOUS
 10
50.7545575632
 20
39.4234720609
 11
50.7637349206
 21
39.479838638
  0
LINE
  5
496
100
AcDbEntity
  8
RACCORDO
100
AcDbLine
 62
250
  6
CONTINUOUS
 10
50.7637349206
 20
39.479838638
 11
50.7727862473
 21
39.5331933413
  0
LINE
  5
497
100
AcDbEntity
  8
RACCORDO
100
AcDbLine
 62
250
  6
CONTINUOUS
 10
50.7727862473
 20
39.5331933413
 11
50.7817363824
 21
39.5837807789
  0
LINE
  5
498
100
AcDbEntity
  8
RACCORDO
100
AcDbLine
 62
250
  6
CONTINUOUS
 10
50.7817363824
 20
39.5837807789
 11
50.7906506981
 21
39.6320358214
  0
LWPOLYLINE
  5
499
100
AcDbEntity
  8
RACCORDO
100
AcDbPolyline
 62
250
  6
CONTINUOUS
 90
49
 70
0
 10
50.7906506981
 20
39.6320358214
 10
50.7995565886
 20
39.6781334199
 10
50.8040104915
 20
39.7003994925
 10
50.808431756
 20
39.7219838492
 10
50.8128126255
 20
39.7428645565
 10
50.8171549859
 20
39.7630644773
 10
50.8214406091
 20
39.7825152624
 10
50.8256533349
 20
39.8011680807
 10
50.82979967
 20
39.8190753285
 10
50.8338947554
 20
39.836321189
 10
50.837933336
 20
39.8529029177
 10
50.8419121604
 20
39.8688263577
 10
50.8458514703
 20
39.8841872658
 10
50.8497512352
 20
39.8989992996
 10
50.8536046578
 20
39.9132508432
 10
50.8574239355
 20
39.926998162
 10
50.861207517
 20
39.9402472163
 10
50.8649505903
 20
39.9529937806
 10
50.8686619961
 20
39.965277425
 10
50.8723381615
 20
39.9770966799
 10
50.8759763355
 20
39.9884547156
 10
50.8795882433
 20
39.9993962276
 10
50.8831712955
 20
40.0099214013
 10
50.8867223485
 20
40.0200310684
 10
50.8902543385
 20
40.0297683121
 10
50.8937674893
 20
40.0391388961
 10
50.8972567494
 20
40.0481367512
 10
50.9007289161
 20
40.0567844683
 10
50.9041862259
 20
40.0650915367
 10
50.9076216433
 20
40.0730474217
 10
50.9110284634
 20
40.0806431651
 10
50.9144031642
 20
40.0878781663
 10
50.9177420359
 20
40.0947544016
 10
50.9210374375
 20
40.1012665222
 10
50.924279471
 20
40.1074063087
 10
50.9274679804
 20
40.1131873943
 10
50.9306102398
 20
40.1186355953
 10
50.9336980339
 20
40.1237479619
 10
50.9367291397
 20
40.128534204
 10
50.9397217841
 20
40.1330346389
 10
50.9426744004
 20
40.1372553207
 10
50.9455794249
 20
40.1411953531
 10
50.9484480914
 20
40.1448797082
 10
50.951283035
 20
40.148319132
 10
50.9540727787
 20
40.151508133
 10
50.956807585
 20
40.1544464114
 10
50.9594803114
 20
40.1571383064
 10
50.9620871664
 20
40.1595927758
 10
50.9646228804
 20
40.1618183122
  0
LWPOLYLINE
  5
49A
100
AcDbEntity
  8
RACCORDO
100
AcDbPolyline
 62
250
  6
CONTINUOUS
 90
31
 70
0
 10
50.3214157566
 20
38.8081963155
 10
50.2898869926
 20
38.6660950306
 10
50.2586576242
 20
38.5178687727
 10
50.2277276513
 20
38.3635190774
 10
50.1971127576
 20
38.2032674501
 10
50.1667972594
 20
38.0368958892
 10
50.1367341055
 20
37.8637470706
 10
50.106914401
 20
37.6839716651
 10
50.0773470408
 20
37.4974239763
 10
50.0480116582
 20
37.3030029613
 10
50.0188579245
 20
37.1005888985
 10
49.9899361685
 20
36.8903088871
 10
49.9613770099
 20
36.6714332427
 10
49.9331837572
 20
36.4443420739
 10
49.9053531019
 20
36.2086654678
 10
49.878005738
 20
35.9625506087
 10
49.8510273027
 20
35.7053445803
 10
49.8245321588
 20
35.4377162712
 10
49.7989840883
 20
35.1597975242
 10
49.7742712078
 20
34.8699210246
 10
49.7505054008
 20
34.5697754647
 10
49.7284860995
 20
34.2645237976
 10
49.7082986515
 20
33.9535041242
 10
49.6898577093
 20
33.6373951919
 10
49.6737066619
 20
33.3233605625
 10
49.6600240015
 20
33.0128988013
 10
49.648631236
 20
32.7045139582
 10
49.6395362788
 20
32.400867972
 10
49.6327417675
 20
32.1028458549
 10
49.6282450644
 20
31.8095588028
 10
49.6260461696
 20
31.5210048853
  0
LWPOLYLINE
  5
49B
100
AcDbEntity
  8
RACCORDO
100
AcDbPolyline
 62
250
  6
CONTINUOUS
 90
52
 70
0
 10
50.3214157566
 20
38.8081963155
 10
50.3337848242
 20
38.8618961089
 10
50.3460324192
 20
38.9140536643
 10
50.3581585417
 20
38.964668873
 10
50.3701628489
 20
39.0137021566
 10
50.3820456835
 20
39.0611928911
 10
50.393808074
 20
39.1072594132
 10
50.4054499668
 20
39.1519050076
 10
50.4169714155
 20
39.1951262304
 10
50.4283736098
 20
39.2370313436
 10
50.4396548283
 20
39.2776178896
 10
50.4508167923
 20
39.3168881993
 10
50.4618658559
 20
39.3549577317
 10
50.4728002399
 20
39.3918251887
 10
50.4836217233
 20
39.4274917688
 10
50.4943419982
 20
39.4620766882
 10
50.504959125
 20
39.4955794895
 10
50.5154750432
 20
39.5280005524
 10
50.5259072634
 20
39.5594603605
 10
50.5362534931
 20
39.5899589247
 10
50.5465160249
 20
39.6194961739
 10
50.5567192477
 20
39.6481924772
 10
50.5668604808
 20
39.6760486138
 10
50.576942405
 20
39.7030637584
 10
50.5869974514
 20
39.7293558804
 10
50.5970332301
 20
39.7549505133
 10
50.607042131
 20
39.7798220889
 10
50.6170337553
 20
39.804011928
 10
50.6270192254
 20
39.8275450715
 10
50.6369874188
 20
39.8503964496
 10
50.6469145684
 20
39.8725322184
 10
50.6568045162
 20
39.893953759
 10
50.6666534202
 20
39.9146596637
 10
50.6764259878
 20
39.9346119054
 10
50.6861138952
 20
39.9537886511
 10
50.6957254663
 20
39.9722117096
 10
50.7052503799
 20
39.9899085169
 10
50.7146786873
 20
40.0068625304
 10
50.7240203373
 20
40.023090273
 10
50.7332948552
 20
40.0386687819
 10
50.7424950282
 20
40.053593568
 10
50.7516280692
 20
40.0678691055
 10
50.7607351425
 20
40.0815858787
 10
50.7698094883
 20
40.0947457143
 10
50.7788578666
 20
40.1073467745
 10
50.7879417208
 20
40.1194740488
 10
50.7970517483
 20
40.1311328071
 10
50.8061972519
 20
40.1423177714
 10
50.8154675831
 20
40.1530981106
 10
50.824892526
 20
40.1634968793
 10
50.8344422966
 20
40.1734910171
 10
50.844116895
 20
40.1830805211
  0
LINE
  5
49C
100
AcDbEntity
  8
RACCORDO
100
AcDbLine
 62
250
  6
CONTINUOUS
 10
49.8675840966
 20
-22.6061991202
 11
49.8659614092
 21
-22.6070448347
  0
LWPOLYLINE
  5
49D
100
AcDbEntity
  8
RACCORDO
100
AcDbPolyline
 62
250
  6
CONTINUOUS
 90
4
 70
0
 10
49.855277775
 20
-22.6131303767
 10
49.8428350285
 20
-22.6198120731
 10
49.8302612231
 20
-22.6262414076
 10
49.8175611978
 20
-22.6324159852
  0
LINE
  5
49E
100
AcDbEntity
  8
RACCORDO
100
AcDbLine
 62
250
  6
CONTINUOUS
 10
49.8058823145
 20
-22.6377621308
 11
49.8047407321
 21
-22.6383331004
  0
LINE
  5
49F
100
AcDbEntity
  8
RACCORDO
100
AcDbLine
 62
250
  6
CONTINUOUS
 10
49.7918061739
 20
-22.6439899724
 11
49.7904200837
 21
-22.6445275686
  0
LINE
  5
4A0
100
AcDbEntity
  8
RACCORDO
100
AcDbLine
 62
250
  6
CONTINUOUS
 10
-71.9500454021
 20
40.1271354869
 11
-71.9780027956
 21
40.1252202471
  0
LINE
  5
4A1
100
AcDbEntity
  8
RACCORDO
100
AcDbLine
 62
250
  6
CONTINUOUS
 10
-71.9212095811
 20
40.1289305946
 11
-71.9500454021
 21
40.1271354869
  0
LINE
  5
4A2
100
AcDbEntity
  8
RACCORDO
100
AcDbLine
 62
250
  6
CONTINUOUS
 10
-71.8915603491
 20
40.1305915769
 11
-71.9212095811
 21
40.1289305946
  0
LINE
  5
4A3
100
AcDbEntity
  8
RACCORDO
100
AcDbLine
 62
250
  6
CONTINUOUS
 10
-71.861164244
 20
40.1321073202
 11
-71.8915603491
 21
40.1305915769
  0
LINE
  5
4A4
100
AcDbEntity
  8
RACCORDO
100
AcDbLine
 62
250
  6
CONTINUOUS
 10
-71.8300967091
 20
40.1334905394
 11
-71.861164244
 21
40.1321073202
  0
LINE
  5
4A5
100
AcDbEntity
  8
RACCORDO
100
AcDbLine
 62
250
  6
CONTINUOUS
 10
-71.798427683
 20
40.1347292163
 11
-71.8300967091
 21
40.1334905394
  0
LINE
  5
4A6
100
AcDbEntity
  8
RACCORDO
100
AcDbLine
 62
250
  6
CONTINUOUS
 10
-71.7662284296
 20
40.1358135119
 11
-71.798427683
 21
40.1347292163
  0
LINE
  5
4A7
100
AcDbEntity
  8
RACCORDO
100
AcDbLine
 62
250
  6
CONTINUOUS
 10
-71.7335787056
 20
40.1367560344
 11
-71.7662284296
 21
40.1358135119
  0
LINE
  5
4A8
100
AcDbEntity
  8
RACCORDO
100
AcDbLine
 62
250
  6
CONTINUOUS
 10
-71.7005520474
 20
40.1375466625
 11
-71.7335787056
 21
40.1367560344
  0
LINE
  5
4A9
100
AcDbEntity
  8
RACCORDO
100
AcDbLine
 62
250
  6
CONTINUOUS
 10
-71.6504724043
 20
40.1384407896
 11
-71.7005520474
 21
40.1375466625
  0
LWPOLYLINE
  5
4AA
100
AcDbEntity
  8
RACCORDO
100
AcDbPolyline
 62
250
  6
CONTINUOUS
 90
70
 70
0
 10
-71.5715794407
 20
40.7711530197
 10
-71.587490174
 20
40.7709526844
 10
-71.603393064
 20
40.7703905231
 10
-71.6192798825
 20
40.7694667999
 10
-71.6351425371
 20
40.7681819544
 10
-71.6509726891
 20
40.7665366311
 10
-71.6667617601
 20
40.7645317087
 10
-71.6825014527
 20
40.7621682455
 10
-71.698183751
 20
40.7594474495
 10
-71.7138005399
 20
40.7563707279
 10
-71.7293437386
 20
40.7529396725
 10
-71.7448053048
 20
40.7491560588
 10
-71.7601772383
 20
40.7450218448
 10
-71.7754515852
 20
40.7405391698
 10
-71.790620442
 20
40.735710353
 10
-71.8056759598
 20
40.7305378932
 10
-71.8206103483
 20
40.7250244666
 10
-71.8354158801
 20
40.7191729262
 10
-71.8500848942
 20
40.7129862996
 10
-71.8646098005
 20
40.7064677881
 10
-71.8789830833
 20
40.6996207645
 10
-71.8931973053
 20
40.6924487717
 10
-71.9072451117
 20
40.6849555208
 10
-71.9211192336
 20
40.677144889
 10
-71.9348124922
 20
40.6690209178
 10
-71.948317802
 20
40.6605878107
 10
-71.9616281751
 20
40.6518499314
 10
-71.9747367242
 20
40.642811801
 10
-71.9876366664
 20
40.6334780963
 10
-72.000321327
 20
40.6238536468
 10
-72.0127841424
 20
40.6139434325
 10
-72.025018664
 20
40.6037525813
 10
-72.0370185613
 20
40.5932863662
 10
-72.0487776252
 20
40.5825502029
 10
-72.060289771
 20
40.5715496464
 10
-72.071549042
 20
40.560290389
 10
-72.0825496123
 20
40.5487782565
 10
-72.0932857899
 20
40.5370192056
 10
-72.1037520195
 20
40.525019321
 10
-72.1139428856
 20
40.5127848116
 10
-72.123853115
 20
40.5003220081
 10
-72.1334775798
 20
40.4876373591
 10
-72.1428113002
 20
40.4747374281
 10
-72.1518494464
 20
40.46162889
 10
-72.1605873419
 20
40.4483185274
 10
-72.1690204654
 20
40.4348132277
 10
-72.1771444534
 20
40.421119979
 10
-72.1849551022
 20
40.4072458665
 10
-72.1924483702
 20
40.3931980692
 10
-72.1996203804
 20
40.3789838558
 10
-72.2064674215
 20
40.3646105814
 10
-72.2129859509
 20
40.350085683
 10
-72.2191725956
 20
40.3354166765
 10
-72.2250241543
 20
40.3206111519
 10
-72.2305375993
 20
40.3056767702
 10
-72.2357100775
 20
40.2906212585
 10
-72.2405389127
 20
40.2754524074
 10
-72.2450216066
 20
40.260178066
 10
-72.24915584
 20
40.2448061381
 10
-72.2529394735
 20
40.2293445772
 10
-72.2563705483
 20
40.2138013829
 10
-72.2594472882
 20
40.1981845968
 10
-72.2621681021
 20
40.1825023003
 10
-72.2645315842
 20
40.1667626102
 10
-72.2665365242
 20
40.1509735752
 10
-72.2681818677
 20
40.13514346
 10
-72.2694667407
 20
40.1192807452
 10
-72.270390493
 20
40.1033937366
 10
-72.2709526763
 20
40.0874905589
 10
-72.2711530197
 20
40.0715794407
  0
LINE
  5
4AB
100
AcDbEntity
  8
RACCORDO
100
AcDbLine
 62
250
  6
CONTINUOUS
 10
-71.6168361675
 20
40.1388304218
 11
-71.6504724043
 21
40.1384407896
  0
LINE
  5
4AC
100
AcDbEntity
  8
RACCORDO
100
AcDbLine
 62
250
  6
CONTINUOUS
 10
-71.5831020457
 20
40.1390855945
 11
-71.6168361675
 21
40.1388304218
  0
LINE
  5
4AD
100
AcDbEntity
  8
RACCORDO
100
AcDbLine
 62
250
  6
CONTINUOUS
 10
-50.2000000848
 20
40.1396419601
 11
-50.4684115184
 21
40.1394741534
  0
LWPOLYLINE
  5
4AE
100
AcDbEntity
  8
RACCORDO
100
AcDbPolyline
 62
250
  6
CONTINUOUS
 90
3
 70
0
 10
71.5831020457
 20
40.1390855945
 10
68.8371603264
 20
40.1377049596
 10
67.4641328817
 20
40.1371749666
  0
LINE
  5
4AF
100
AcDbEntity
  8
RACCORDO
100
AcDbLine
 62
250
  6
CONTINUOUS
 10
-50.9874699672
 20
40.1391612334
 11
-53.7333744956
 21
40.1377604429
  0
LINE
  5
4B0
100
AcDbEntity
  8
RACCORDO
100
AcDbLine
 62
250
  6
CONTINUOUS
 10
71.5715794407
 20
40.7711530197
 11
68.7229974364
 21
40.7697321914
  0
LINE
  5
4B1
100
AcDbEntity
  8
RACCORDO
100
AcDbLine
 62
250
  6
CONTINUOUS
 10
-50.2062797953
 20
40.771711568
 11
-54.4790698903
 21
40.7695294643
  0
LINE
  5
4B2
100
AcDbEntity
  8
RACCORDO
100
AcDbLine
 62
250
  6
CONTINUOUS
 10
67.4641328817
 20
40.1371749666
 11
64.7179983423
 21
40.1364361267
  0
LINE
  5
4B3
100
AcDbEntity
  8
RACCORDO
100
AcDbLine
 62
250
  6
CONTINUOUS
 10
-53.7333744956
 20
40.1377604429
 11
-57.8525037901
 21
40.1364613528
  0
LWPOLYLINE
  5
4B4
100
AcDbEntity
  8
RACCORDO
100
AcDbPolyline
 62
250
  6
CONTINUOUS
 90
3
 70
0
 10
68.7229974364
 20
40.7697321914
 10
65.8742859923
 20
40.7687714498
 10
64.449880786
 20
40.7684636113
  0
LINE
  5
4B5
100
AcDbEntity
  8
RACCORDO
100
AcDbLine
 62
250
  6
CONTINUOUS
 10
-54.4790698903
 20
40.7695294643
 11
-57.3277995505
 21
40.7686498132
  0
LINE
  5
4B6
100
AcDbEntity
  8
DRAFT
100
AcDbLine
 62
7
  6
CONTINUOUS
 10
-50.2
 20
40.0986945859
 11
50.2
 21
40.0986945859
  0
LINE
  5
4B7
100
AcDbEntity
  8
RACCORDO
100
AcDbLine
 62
250
  6
CONTINUOUS
 10
64.7179983423
 20
40.1364361267
 11
61.9718021061
 21
40.1361252344
  0
LINE
  5
4B8
100
AcDbEntity
  8
RACCORDO
100
AcDbLine
 62
250
  6
CONTINUOUS
 10
50.2000000848
 20
40.1396568101
 11
-50.2000000848
 21
40.1396568101
  0
LINE
  5
4B9
100
AcDbEntity
  8
RACCORDO
100
AcDbLine
 62
250
  6
CONTINUOUS
 10
-57.8525037901
 20
40.1364613528
 11
-60.5986958043
 21
40.1361302809
  0
LINE
  5
4BA
100
AcDbEntity
  8
RACCORDO
100
AcDbLine
 62
250
  6
CONTINUOUS
 10
64.449880786
 20
40.7684636113
 11
61.6010469503
 21
40.7681930139
  0
LINE
  5
4BB
100
AcDbEntity
  8
RACCORDO
100
AcDbLine
 62
250
  6
CONTINUOUS
 10
50.2062797953
 20
40.771711568
 11
-50.2062797953
 21
40.771711568
  0
LINE
  5
4BC
100
AcDbEntity
  8
RACCORDO
100
AcDbLine
 62
250
  6
CONTINUOUS
 10
-57.3277995505
 20
40.7686498132
 11
-60.1766155255
 21
40.7682302553
  0
LINE
  5
4BD
100
AcDbEntity
  8
RACCORDO
100
AcDbLine
 62
7
  6
CONTINUOUS
 10
-71.8004264211
 20
41.0
 11
71.8004264211
 21
41.0
  0
LINE
  5
4BE
100
AcDbEntity
  8
RACCORDO
100
AcDbLine
 62
250
  6
CONTINUOUS
 10
-60.5986958043
 20
40.1361302809
 11
-63.344910105
 21
40.1362272049
  0
LINE
  5
4BF
100
AcDbEntity
  8
RACCORDO
100
AcDbLine
 62
250
  6
CONTINUOUS
 10
61.9718021061
 20
40.1361252344
 11
59.2255976792
 21
40.1362423405
  0
LINE
  5
4C0
100
AcDbEntity
  8
RACCORDO
100
AcDbLine
 62
250
  6
CONTINUOUS
 10
-60.1766155255
 20
40.7682302553
 11
-63.0254725203
 21
40.7682707992
  0
LINE
  5
4C1
100
AcDbEntity
  8
RACCORDO
100
AcDbLine
 62
250
  6
CONTINUOUS
 10
61.6010469503
 20
40.7681930139
 11
58.7522045335
 21
40.7683825203
  0
LINE
  5
4C2
100
AcDbEntity
  8
RACCORDO
100
AcDbLine
 62
250
  6
CONTINUOUS
 10
-63.344910105
 20
40.1362272049
 11
-66.0910911617
 21
40.1367520227
  0
LWPOLYLINE
  5
4C3
100
AcDbEntity
  8
RACCORDO
100
AcDbPolyline
 62
250
  6
CONTINUOUS
 90
3
 70
0
 10
59.2255976792
 20
40.1362423405
 10
56.4794385089
 20
40.1367873302
 10
55.1063926129
 20
40.1372203661
  0
LINE
  5
4C4
100
AcDbEntity
  8
RACCORDO
100
AcDbLine
 62
250
  6
CONTINUOUS
 10
-63.0254725203
 20
40.7682707992
 11
-67.2986773994
 21
40.7691943158
  0
LINE
  5
4C5
100
AcDbEntity
  8
RACCORDO
100
AcDbLine
 62
250
  6
CONTINUOUS
 10
58.7522045335
 20
40.7683825203
 11
55.9034216969
 21
40.769032128
  0
LWPOLYLINE
  5
4C6
100
AcDbEntity
  8
RACCORDO
100
AcDbPolyline
 62
250
  6
CONTINUOUS
 90
3
 70
0
 10
-66.0910911617
 20
40.1367520227
 10
-70.2101605996
 20
40.1383418678
 10
-71.5831020457
 20
40.1390855945
  0
LWPOLYLINE
  5
4C7
100
AcDbEntity
  8
RACCORDO
100
AcDbPolyline
 62
250
  6
CONTINUOUS
 90
3
 70
0
 10
55.1063926129
 20
40.1372203661
 10
52.3604016385
 20
40.1384074301
 10
50.9874699671
 20
40.1391612334
  0
LWPOLYLINE
  5
4C8
100
AcDbEntity
  8
RACCORDO
100
AcDbPolyline
 62
250
  6
CONTINUOUS
 90
3
 70
0
 10
-67.2986773994
 20
40.7691943158
 10
-70.1473124089
 20
40.7703850976
 10
-71.5715794407
 20
40.7711530197
  0
LINE
  5
4C9
100
AcDbEntity
  8
RACCORDO
100
AcDbLine
 62
250
  6
CONTINUOUS
 10
55.9034216969
 20
40.769032128
 11
53.054772673
 21
40.7701418127
  0
LINE
  5
4CA
100
AcDbEntity
  8
RACCORDO
100
AcDbLine
 62
250
  6
CONTINUOUS
 10
50.4684115209
 20
40.1394741541
 11
50.2000000848
 21
40.1396419601
  0
LINE
  5
4CB
100
AcDbEntity
  8
RACCORDO
100
AcDbLine
 62
250
  6
CONTINUOUS
 10
53.054772673
 20
40.7701418127
 11
50.2062797953
 21
40.771711568
  0
LINE
  5
4CC
100
AcDbEntity
  8
RACCORDO
100
AcDbLine
 62
250
  6
CONTINUOUS
 10
71.5831020457
 20
40.1390855945
 11
71.6336735876
 21
40.138658804
  0
LINE
  5
4CD
100
AcDbEntity
  8
RACCORDO
100
AcDbLine
 62
250
  6
CONTINUOUS
 10
71.6336735876
 20
40.138658804
 11
71.6672228583
 21
40.1381765419
  0
LINE
  5
4CE
100
AcDbEntity
  8
RACCORDO
100
AcDbLine
 62
250
  6
CONTINUOUS
 10
71.6672228583
 20
40.1381765419
 11
71.7005520449
 21
40.1375466626
  0
LINE
  5
4CF
100
AcDbEntity
  8
RACCORDO
100
AcDbLine
 62
250
  6
CONTINUOUS
 10
71.7005520449
 20
40.1375466626
 11
71.7335787025
 21
40.1367560345
  0
LINE
  5
4D0
100
AcDbEntity
  8
RACCORDO
100
AcDbLine
 62
250
  6
CONTINUOUS
 10
71.7335787025
 20
40.1367560345
 11
71.7662284259
 21
40.135813512
  0
LINE
  5
4D1
100
AcDbEntity
  8
RACCORDO
100
AcDbLine
 62
250
  6
CONTINUOUS
 10
71.7662284259
 20
40.135813512
 11
71.7984276788
 21
40.1347292165
  0
LINE
  5
4D2
100
AcDbEntity
  8
RACCORDO
100
AcDbLine
 62
250
  6
CONTINUOUS
 10
71.7984276788
 20
40.1347292165
 11
71.8300967044
 21
40.1334905396
  0
LINE
  5
4D3
100
AcDbEntity
  8
RACCORDO
100
AcDbLine
 62
250
  6
CONTINUOUS
 10
71.8300967044
 20
40.1334905396
 11
71.8611642389
 21
40.1321073204
  0
LINE
  5
4D4
100
AcDbEntity
  8
RACCORDO
100
AcDbLine
 62
250
  6
CONTINUOUS
 10
71.8611642389
 20
40.1321073204
 11
71.8915603437
 21
40.1305915772
  0
LINE
  5
4D5
100
AcDbEntity
  8
RACCORDO
100
AcDbLine
 62
250
  6
CONTINUOUS
 10
71.8915603437
 20
40.1305915772
 11
71.9212095755
 21
40.1289305949
  0
LINE
  5
4D6
100
AcDbEntity
  8
RACCORDO
100
AcDbLine
 62
250
  6
CONTINUOUS
 10
71.9212095755
 20
40.1289305949
 11
71.9500453963
 21
40.1271354873
  0
LINE
  5
4D7
100
AcDbEntity
  8
RACCORDO
100
AcDbLine
 62
250
  6
CONTINUOUS
 10
71.9500453963
 20
40.1271354873
 11
71.9780027898
 21
40.1252202475
  0
LINE
  5
4D8
100
AcDbEntity
  8
RACCORDO
100
AcDbLine
 62
250
  6
CONTINUOUS
 10
49.8047407326
 20
22.6383331002
 11
49.8053743214
 21
22.6379914835
  0
LWPOLYLINE
  5
4D9
100
AcDbEntity
  8
RACCORDO
100
AcDbPolyline
 62
250
  6
CONTINUOUS
 90
5
 70
0
 10
49.8175611983
 20
22.6324159849
 10
49.8302612236
 20
22.6262414074
 10
49.842835029
 20
22.6198120729
 10
49.8552777755
 20
22.6131303765
 10
49.8675840971
 20
22.6061991199
  0
LWPOLYLINE
  5
4DA
100
AcDbEntity
  8
RACCORDO
100
AcDbPolyline
 62
250
  6
CONTINUOUS
 90
31
 70
0
 10
50.321447503
 20
-38.8083315065
 10
50.2899646707
 20
-38.6664548302
 10
50.2587780079
 20
-38.5184560882
 10
50.2278875144
 20
-38.3643368119
 10
50.197308602
 20
-38.2043178357
 10
50.1670258591
 20
-38.0381818191
 10
50.1369930499
 20
-37.8652734305
 10
50.1072004516
 20
-37.6857353497
 10
50.0776577872
 20
-37.4994298583
 10
50.0483479894
 20
-37.3052818488
 10
50.0192244575
 20
-37.1031992829
 10
49.9903337923
 20
-36.8932815293
 10
49.9617987281
 20
-36.6747417271
 10
49.9336160827
 20
-36.4479019451
 10
49.9057890383
 20
-36.2124503249
 10
49.8784498767
 20
-35.9666509791
 10
49.8514926953
 20
-35.7099276739
 10
49.8250233966
 20
-35.4428724386
 10
49.7994919697
 20
-35.1655037287
 10
49.7747864527
 20
-34.8762183974
 10
49.7510188074
 20
-34.5766408918
 10
49.7289749082
 20
-34.2716284876
 10
49.7087267562
 20
-33.9603513583
 10
49.6902023502
 20
-33.6436568506
 10
49.6739715603
 20
-33.3289077479
 10
49.6602186514
 20
-33.0176304136
 10
49.6487593585
 20
-32.7083013883
 10
49.6396107565
 20
-32.4036985561
 10
49.6327785369
 20
-32.1047455417
 10
49.6282570082
 20
-31.8105149635
 10
49.6260461702
 20
-31.5210049208
  0
LINE
  5
4DB
100
AcDbEntity
  8
RACCORDO
100
AcDbLine
 62
250
  6
CONTINUOUS
 10
50.7994097412
 20
-39.6773899863
 11
50.7905267439
 21
-39.6313791855
  0
LINE
  5
4DC
100
AcDbEntity
  8
RACCORDO
100
AcDbLine
 62
250
  6
CONTINUOUS
 10
50.7905267439
 20
-39.6313791855
 11
50.7816403608
 21
-39.5832492001
  0
LINE
  5
4DD
100
AcDbEntity
  8
RACCORDO
100
AcDbLine
 62
250
  6
CONTINUOUS
 10
50.7816403608
 20
-39.5832492001
 11
50.7727090529
 21
-39.5327472799
  0
LINE
  5
4DE
100
AcDbEntity
  8
RACCORDO
100
AcDbLine
 62
250
  6
CONTINUOUS
 10
50.7727090529
 20
-39.5327472799
 11
50.7636728791
 21
-39.4794651339
  0
LINE
  5
4DF
100
AcDbEntity
  8
RACCORDO
100
AcDbLine
 62
250
  6
CONTINUOUS
 10
50.7636728791
 20
-39.4794651339
 11
50.754508106
 21
-39.4231618246
  0
LINE
  5
4E0
100
AcDbEntity
  8
RACCORDO
100
AcDbLine
 62
250
  6
CONTINUOUS
 10
50.754508106
 20
-39.4231618246
 11
50.7451787448
 21
-39.3634906927
  0
LINE
  5
4E1
100
AcDbEntity
  8
RACCORDO
100
AcDbLine
 62
250
  6
CONTINUOUS
 10
50.7451787448
 20
-39.3634906927
 11
50.7356555337
 21
-39.300105009
  0
LINE
  5
4E2
100
AcDbEntity
  8
RACCORDO
100
AcDbLine
 62
250
  6
CONTINUOUS
 10
50.7356555337
 20
-39.300105009
 11
50.725930483
 21
-39.2327732678
  0
LINE
  5
4E3
100
AcDbEntity
  8
RACCORDO
100
AcDbLine
 62
250
  6
CONTINUOUS
 10
50.725930483
 20
-39.2327732678
 11
50.7159827906
 21
-39.1611526554
  0
LINE
  5
4E4
100
AcDbEntity
  8
RACCORDO
100
AcDbLine
 62
250
  6
CONTINUOUS
 10
50.7159827906
 20
-39.1611526554
 11
50.7057973647
 21
-39.0849074638
  0
LWPOLYLINE
  5
4E5
100
AcDbEntity
  8
RACCORDO
100
AcDbPolyline
 62
250
  6
CONTINUOUS
 90
31
 70
0
 10
50.662620067
 20
-38.728078796
 10
50.6471134796
 20
-38.586224096
 10
50.6317590698
 20
-38.4382238621
 10
50.6165557913
 20
-38.2840946543
 10
50.6015239269
 20
-38.1240754278
 10
50.5866563785
 20
-37.9579470396
 10
50.5719036405
 20
-37.7850437859
 10
50.5572901156
 20
-37.6055072383
 10
50.5428288437
 20
-37.4192049661
 10
50.5284603589
 20
-37.2250613456
 10
50.5142060671
 20
-37.0229812363
 10
50.5001110621
 20
-36.8130640917
 10
50.4861600247
 20
-36.5945272928
 10
50.4724110948
 20
-36.3676879596
 10
50.4588924134
 20
-36.1322328313
 10
50.4455597607
 20
-35.8864342914
 10
50.4324467797
 20
-35.6297093011
 10
50.4196588449
 20
-35.3626435877
 10
50.4072706969
 20
-35.0852646246
 10
50.3952931513
 20
-34.7959693784
 10
50.3838882171
 20
-34.4963697052
 10
50.3733078329
 20
-34.1913226563
 10
50.3635730461
 20
-33.8800116178
 10
50.3547728222
 20
-33.5632751934
 10
50.347136143
 20
-33.2484609247
 10
50.3406805956
 20
-32.9371184218
 10
50.335365298
 20
-32.6277249596
 10
50.3312247607
 20
-32.3230209275
 10
50.3282395175
 20
-32.0239270001
 10
50.3263767505
 20
-31.7295469131
 10
50.3256196048
 20
-31.4398938162
  0
LWPOLYLINE
  5
4E6
100
AcDbEntity
  8
RACCORDO
100
AcDbPolyline
 62
250
  6
CONTINUOUS
 90
31
 70
0
 10
49.5577579551
 20
-22.8191532979
 10
49.5569518656
 20
-22.8115541352
 10
49.5561351017
 20
-22.8041839445
 10
49.5553086216
 20
-22.7970457056
 10
49.554472388
 20
-22.790142037
 10
49.5536264382
 20
-22.7834758702
 10
49.5527718425
 20
-22.7770504419
 10
49.5519085958
 20
-22.7708682727
 10
49.5510367031
 20
-22.7649316769
 10
49.5501572504
 20
-22.7592433183
 10
49.5492703016
 20
-22.7538057505
 10
49.5483757927
 20
-22.7486205318
 10
49.5474746179
 20
-22.7436887638
 10
49.5465667981
 20
-22.7390125219
 10
49.5456523124
 20
-22.734593536
 10
49.5447319926
 20
-22.730432564
 10
49.5438057239
 20
-22.7265310207
 10
49.5428736211
 20
-22.722891163
 10
49.5419368596
 20
-22.7195149763
 10
49.5409953352
 20
-22.7164036307
 10
49.5400491521
 20
-22.7135588577
 10
49.5390997985
 20
-22.7109829228
 10
49.5381472524
 20
-22.7086766427
 10
49.5371915357
 20
-22.7066407711
 10
49.5362342026
 20
-22.70487664
 10
49.5352752516
 20
-22.7033844014
 10
49.5343146842
 20
-22.7021641252
 10
49.5333540593
 20
-22.7012161324
 10
49.5323938965
 20
-22.7005399734
 10
49.5314336762
 20
-22.7001348437
 10
49.5304733984
 20
-22.7
  0
LINE
  5
4E7
100
AcDbEntity
  8
RACCORDO
100
AcDbLine
 62
250
  6
CONTINUOUS
 10
49.5593380678
 20
-22.8350262725
 11
49.5577579551
 21
-22.8191532979
  0
LINE
  5
4E8
100
AcDbEntity
  8
RACCORDO
100
AcDbLine
 62
250
  6
CONTINUOUS
 10
49.5608727876
 20
-22.8517786142
 11
49.5593380678
 21
-22.8350262725
  0
LWPOLYLINE
  5
4E9
100
AcDbEntity
  8
RACCORDO
100
AcDbPolyline
 62
250
  6
CONTINUOUS
 90
21
 70
0
 10
50.2488438236
 20
-22.1076120687
 10
50.2479493091
 20
-22.0972389371
 10
50.2470481286
 20
-22.0873765625
 10
50.2461403029
 20
-22.0780253542
 10
50.2452258113
 20
-22.0691849029
 10
50.2443054863
 20
-22.0608641533
 10
50.243379214
 20
-22.0530626122
 10
50.2424471082
 20
-22.0457807728
 10
50.2415103428
 20
-22.0390290602
 10
50.2405688114
 20
-22.0328079686
 10
50.2396226202
 20
-22.0271170038
 10
50.2386732623
 20
-22.0219651077
 10
50.237720721
 20
-22.0173537825
 10
50.236765013
 20
-22.0132815259
 10
50.2358076809
 20
-22.009752774
 10
50.2348487058
 20
-22.0067691064
 10
50.2338881067
 20
-22.0043289435
 10
50.2329274833
 20
-22.0024319817
 10
50.231967369
 20
-22.0010781199
 10
50.2310072303
 20
-22.0002674594
 10
50.2300470675
 20
-22.0
  0
LINE
  5
4EA
100
AcDbEntity
  8
RACCORDO
100
AcDbLine
 62
250
  6
CONTINUOUS
 10
49.5623603671
 20
-22.8693844929
 11
49.5608727876
 21
-22.8517786142
  0
LINE
  5
4EB
100
AcDbEntity
  8
RACCORDO
100
AcDbLine
 62
250
  6
CONTINUOUS
 10
50.2506102374
 20
-22.1298614663
 11
50.2488438236
 21
-22.1076120687
  0
LINE
  5
4EC
100
AcDbEntity
  8
RACCORDO
100
AcDbLine
 62
250
  6
CONTINUOUS
 10
49.563798232
 20
-22.8878171513
 11
49.5623603671
 21
-22.8693844929
  0
LINE
  5
4ED
100
AcDbEntity
  8
RACCORDO
100
AcDbLine
 62
250
  6
CONTINUOUS
 10
49.5651839557
 20
-22.9070487301
 11
49.563798232
 21
-22.8878171513
  0
LINE
  5
4EE
100
AcDbEntity
  8
RACCORDO
100
AcDbLine
 62
250
  6
CONTINUOUS
 10
50.2523453899
 20
-22.1541002671
 11
50.2506102374
 21
-22.1298614663
  0
LINE
  5
4EF
100
AcDbEntity
  8
RACCORDO
100
AcDbLine
 62
250
  6
CONTINUOUS
 10
49.5665159307
 20
-22.9270495715
 11
49.5651839557
 21
-22.9070487301
  0
LINE
  5
4F0
100
AcDbEntity
  8
RACCORDO
100
AcDbLine
 62
250
  6
CONTINUOUS
 10
50.2540459491
 20
-22.1802858308
 11
50.2523453899
 21
-22.1541002671
  0
LINE
  5
4F1
100
AcDbEntity
  8
RACCORDO
100
AcDbLine
 62
250
  6
CONTINUOUS
 10
49.5677917877
 20
-22.9477889663
 11
49.5665159307
 21
-22.9270495715
  0
LINE
  5
4F2
100
AcDbEntity
  8
RACCORDO
100
AcDbLine
 62
250
  6
CONTINUOUS
 10
50.2837422307
 20
8.4787574899
 11
50.2847862659
 21
8.4617450138
  0
LINE
  5
4F3
100
AcDbEntity
  8
RACCORDO
100
AcDbLine
 62
7
  6
CONTINUOUS
 10
50.2847051582
 20
8.4429520805
 11
50.2853709989
 21
8.4319286648
  0
LINE
  5
4F4
100
AcDbEntity
  8
RACCORDO
100
AcDbLine
 62
250
  6
CONTINUOUS
 10
50.255708677
 20
-22.2083661756
 11
50.2540459491
 21
-22.1802858308
  0
LINE
  5
4F5
100
AcDbEntity
  8
RACCORDO
100
AcDbLine
 62
250
  6
CONTINUOUS
 10
49.5690091248
 20
-22.9692309928
 11
49.5677917877
 21
-22.9477889663
  0
LINE
  5
4F6
100
AcDbEntity
  8
RACCORDO
100
AcDbLine
 62
250
  6
CONTINUOUS
 10
50.2847862659
 20
8.4617450138
 11
50.2858040317
 21
8.4434584327
  0
LINE
  5
4F7
100
AcDbEntity
  8
RACCORDO
100
AcDbLine
 62
7
  6
CONTINUOUS
 10
50.2853709989
 20
8.4319286648
 11
50.2862996819
 21
8.4151125581
  0
LINE
  5
4F8
100
AcDbEntity
  8
RACCORDO
100
AcDbLine
 62
250
  6
CONTINUOUS
 10
50.2573315445
 20
-22.2383068648
 11
50.255708677
 21
-22.2083661756
  0
LINE
  5
4F9
100
AcDbEntity
  8
RACCORDO
100
AcDbLine
 62
250
  6
CONTINUOUS
 10
50.2858040317
 20
8.4434584327
 11
50.2867934915
 21
8.4239334919
  0
LINE
  5
4FA
100
AcDbEntity
  8
RACCORDO
100
AcDbLine
 62
250
  6
CONTINUOUS
 10
49.5707217264
 20
-23.0026321306
 11
49.5690091248
 21
-22.9692309928
  0
LWPOLYLINE
  5
4FB
100
AcDbEntity
  8
RACCORDO
100
AcDbPolyline
 62
250
  6
CONTINUOUS
 90
10
 70
0
 10
50.2044992974
 20
-40.7502361715
 10
50.2046925754
 20
-40.7542083752
 10
50.2048875628
 20
-40.7577880704
 10
50.2050837335
 20
-40.7609732023
 10
50.2052810885
 20
-40.7637619384
 10
50.2054796267
 20
-40.7661526743
 10
50.2056788194
 20
-40.7681440368
 10
50.2058784903
 20
-40.7697348795
 10
50.2060788156
 20
-40.770924285
 10
50.2062797953
 20
-40.771711568
  0
LINE
  5
4FC
100
AcDbEntity
  8
RACCORDO
100
AcDbLine
 62
7
  6
CONTINUOUS
 10
50.2862996819
 20
8.4151125581
 11
50.2872681701
 21
8.3957017135
  0
LINE
  5
4FD
100
AcDbEntity
  8
RACCORDO
100
AcDbLine
 62
250
  6
CONTINUOUS
 10
50.2596848258
 20
-22.2865890491
 11
50.2573315445
 21
-22.2383068648
  0
LINE
  5
4FE
100
AcDbEntity
  8
RACCORDO
100
AcDbLine
 62
7
  6
CONTINUOUS
 10
50.2872681701
 20
8.3957017135
 11
50.2882707939
 21
8.3734341446
  0
LINE
  5
4FF
100
AcDbEntity
  8
RACCORDO
100
AcDbLine
 62
250
  6
CONTINUOUS
 10
50.2867934915
 20
8.4239334919
 11
50.2882210798
 21
8.3923925598
  0
LINE
  5
500
100
AcDbEntity
  8
RACCORDO
100
AcDbLine
 62
250
  6
CONTINUOUS
 10
49.5722927613
 20
-23.0374130174
 11
49.5707217264
 21
-23.0026321306
  0
LINE
  5
501
100
AcDbEntity
  8
RACCORDO
100
AcDbLine
 62
250
  6
CONTINUOUS
 10
50.2619339882
 20
-22.3387703734
 11
50.2596848258
 21
-22.2865890491
  0
LINE
  5
502
100
AcDbEntity
  8
RACCORDO
100
AcDbLine
 62
250
  6
CONTINUOUS
 10
50.2041178723
 20
-40.7411235993
 11
50.2044992974
 21
-40.7502361715
  0
LINE
  5
503
100
AcDbEntity
  8
RACCORDO
100
AcDbLine
 62
7
  6
CONTINUOUS
 10
50.2882707939
 20
8.3734341446
 11
50.2895589569
 21
8.3412148606
  0
LINE
  5
504
100
AcDbEntity
  8
RACCORDO
100
AcDbLine
 62
250
  6
CONTINUOUS
 10
50.2882210798
 20
8.3923925598
 11
50.28957454
 21
8.3582829849
  0
LINE
  5
505
100
AcDbEntity
  8
RACCORDO
100
AcDbLine
 62
250
  6
CONTINUOUS
 10
49.5737177656
 20
-23.0734746297
 11
49.5722927613
 21
-23.0374130174
  0
LINE
  5
506
100
AcDbEntity
  8
RACCORDO
100
AcDbLine
 62
250
  6
CONTINUOUS
 10
50.2640713477
 20
-22.3946716339
 11
50.2619339882
 21
-22.3387703734
  0
LINE
  5
507
100
AcDbEntity
  8
RACCORDO
100
AcDbLine
 62
250
  6
CONTINUOUS
 10
50.2037448527
 20
-40.7304712936
 11
50.2041178723
 21
-40.7411235993
  0
LINE
  5
508
100
AcDbEntity
  8
RACCORDO
100
AcDbLine
 62
250
  6
CONTINUOUS
 10
50.28957454
 20
8.3582829849
 11
50.290847999
 21
8.3217549361
  0
LINE
  5
509
100
AcDbEntity
  8
RACCORDO
100
AcDbLine
 62
7
  6
CONTINUOUS
 10
50.2895589569
 20
8.3412148606
 11
50.2908597957
 21
8.3039036131
  0
LINE
  5
50A
100
AcDbEntity
  8
RACCORDO
100
AcDbLine
 62
250
  6
CONTINUOUS
 10
49.5749922768
 20
-23.1107121628
 11
49.5737177656
 21
-23.0734746297
  0
LINE
  5
50B
100
AcDbEntity
  8
RACCORDO
100
AcDbLine
 62
250
  6
CONTINUOUS
 10
50.2667345139
 20
-22.4746582479
 11
50.2640713477
 21
-22.3946716339
  0
LINE
  5
50C
100
AcDbEntity
  8
RACCORDO
100
AcDbLine
 62
7
  6
CONTINUOUS
 10
50.2908597957
 20
8.3039036131
 11
50.2921427075
 21
8.2613761201
  0
LINE
  5
50D
100
AcDbEntity
  8
RACCORDO
100
AcDbLine
 62
250
  6
CONTINUOUS
 10
50.290847999
 20
8.3217549361
 11
50.2924130334
 21
8.2695374286
  0
LINE
  5
50E
100
AcDbEntity
  8
RACCORDO
100
AcDbLine
 62
250
  6
CONTINUOUS
 10
49.5761108532
 20
-23.1489757501
 11
49.5749922768
 21
-23.1107121628
  0
LINE
  5
50F
100
AcDbEntity
  8
RACCORDO
100
AcDbLine
 62
250
  6
CONTINUOUS
 10
50.2032036148
 20
-40.7116603365
 11
50.2037448527
 21
-40.7304712936
  0
LINE
  5
510
100
AcDbEntity
  8
RACCORDO
100
AcDbLine
 62
250
  6
CONTINUOUS
 10
50.2691691912
 20
-22.5604156851
 11
50.2667345139
 21
-22.4746582479
  0
LINE
  5
511
100
AcDbEntity
  8
RACCORDO
100
AcDbLine
 62
7
  6
CONTINUOUS
 10
50.2921427075
 20
8.2613761201
 11
50.2936160881
 21
8.2033468548
  0
LINE
  5
512
100
AcDbEntity
  8
RACCORDO
100
AcDbLine
 62
250
  6
CONTINUOUS
 10
50.2924130334
 20
8.2695374286
 11
50.2938157239
 21
8.2136556658
  0
LINE
  5
513
100
AcDbEntity
  8
RACCORDO
100
AcDbLine
 62
250
  6
CONTINUOUS
 10
49.5770682956
 20
-23.188080962
 11
49.5761108532
 21
-23.1489757501
  0
LINE
  5
514
100
AcDbEntity
  8
RACCORDO
100
AcDbLine
 62
250
  6
CONTINUOUS
 10
50.2026886967
 20
-40.689538089
 11
50.2032036148
 21
-40.7116603365
  0
LINE
  5
515
100
AcDbEntity
  8
RACCORDO
100
AcDbLine
 62
250
  6
CONTINUOUS
 10
50.2718664025
 20
-22.6748269555
 11
50.2691691912
 21
-22.5604156851
  0
LINE
  5
516
100
AcDbEntity
  8
RACCORDO
100
AcDbLine
 62
7
  6
CONTINUOUS
 10
50.2936160881
 20
8.2033468548
 11
50.2949678067
 21
8.1376706724
  0
LINE
  5
517
100
AcDbEntity
  8
RACCORDO
100
AcDbLine
 62
250
  6
CONTINUOUS
 10
49.5778607175
 20
-23.227831987
 11
49.5770682956
 21
-23.188080962
  0
LINE
  5
518
100
AcDbEntity
  8
RACCORDO
100
AcDbLine
 62
250
  6
CONTINUOUS
 10
50.2938157239
 20
8.2136556658
 11
50.2953243373
 21
8.1393174158
  0
LINE
  5
519
100
AcDbEntity
  8
RACCORDO
100
AcDbLine
 62
250
  6
CONTINUOUS
 10
50.2741581877
 20
-22.7963583192
 11
50.2718664025
 21
-22.6748269555
  0
LINE
  5
51A
100
AcDbEntity
  8
RACCORDO
100
AcDbLine
 62
250
  6
CONTINUOUS
 10
50.2020500274
 20
-40.6550910067
 11
50.2026886967
 21
-40.689538089
  0
LINE
  5
51B
100
AcDbEntity
  8
RACCORDO
100
AcDbLine
 62
250
  6
CONTINUOUS
 10
49.5782962444
 20
-23.2545979314
 11
49.5778607175
 21
-23.227831987
  0
LINE
  5
51C
100
AcDbEntity
  8
RACCORDO
100
AcDbLine
 62
7
  6
CONTINUOUS
 10
50.2949678067
 20
8.1376706724
 11
50.2961456067
 21
8.0643672007
  0
LINE
  5
51D
100
AcDbEntity
  8
RACCORDO
100
AcDbLine
 62
250
  6
CONTINUOUS
 10
50.2953243373
 20
8.1393174158
 11
50.2965449723
 21
8.0608228662
  0
LINE
  5
51E
100
AcDbEntity
  8
RACCORDO
100
AcDbLine
 62
250
  6
CONTINUOUS
 10
50.2763410067
 20
-22.9499341659
 11
50.2741581877
 21
-22.7963583192
  0
LINE
  5
51F
100
AcDbEntity
  8
RACCORDO
100
AcDbLine
 62
250
  6
CONTINUOUS
 10
50.2012010208
 20
-40.5934766304
 11
50.2020500274
 21
-40.6550910067
  0
LWPOLYLINE
  5
520
100
AcDbEntity
  8
RACCORDO
100
AcDbPolyline
 62
250
  6
CONTINUOUS
 90
67
 70
0
 10
50.2300470675
 20
22.0
 10
50.2298489445
 20
22.0166583898
 10
50.2292546878
 20
22.0333073441
 10
50.2282646339
 20
22.0499374327
 10
50.2268793436
 20
22.0665392362
 10
50.2250996016
 20
22.0831033511
 10
50.2229264159
 20
22.0996203953
 10
50.2203610175
 20
22.1160810134
 10
50.2174048595
 20
22.1324758819
 10
50.2140596161
 20
22.1487957147
 10
50.2103271823
 20
22.1650312679
 10
50.2062096721
 20
22.1811733456
 10
50.2017094177
 20
22.1972128047
 10
50.1968289681
 20
22.2131405603
 10
50.1915710877
 20
22.2289475908
 10
50.1859387546
 20
22.2446249429
 10
50.1799351589
 20
22.2601637367
 10
50.1735637013
 20
22.275555171
 10
50.1668279905
 20
22.2907905279
 10
50.1597318418
 20
22.3058611778
 10
50.1522792744
 20
22.3207585847
 10
50.1444745097
 20
22.3354743105
 10
50.1363219682
 20
22.3500000199
 10
50.1278262678
 20
22.3643274856
 10
50.1189922204
 20
22.3784485923
 10
50.1098248298
 20
22.3923553416
 10
50.1003292884
 20
22.4060398567
 10
50.0905109747
 20
22.4194943864
 10
50.0803754499
 20
22.4327113099
 10
50.0699284548
 20
22.4456831412
 10
50.0591759066
 20
22.4584025327
 10
50.0481238959
 20
22.4708622802
 10
50.0367786825
 20
22.4830553262
 10
50.0251466925
 20
22.4949747645
 10
50.0132345144
 20
22.5066138438
 10
50.0010488954
 20
22.5179659717
 10
49.9885967375
 20
22.529024718
 10
49.9758850938
 20
22.5397838192
 10
49.9629211642
 20
22.550237181
 10
49.9497122918
 20
22.5603788827
 10
49.9362659581
 20
22.5702031798
 10
49.9225897793
 20
22.5797045077
 10
49.9086915017
 20
22.5888774849
 10
49.8945789975
 20
22.5977169155
 10
49.8802602601
 20
22.606217793
 10
49.8657433998
 20
22.6143753023
 10
49.8510366391
 20
22.622184823
 10
49.8361483081
 20
22.6296419315
 10
49.8210868396
 20
22.6367424042
 10
49.8058607648
 20
22.6434822193
 10
49.7904787077
 20
22.6498575592
 10
49.7749493809
 20
22.6558648129
 10
49.7592815805
 20
22.6615005779
 10
49.7434841807
 20
22.6667616619
 10
49.7275661295
 20
22.6716450851
 10
49.7115364429
 20
22.6761480814
 10
49.6954042004
 20
22.6802681004
 10
49.6791785395
 20
22.6840028082
 10
49.6628686504
 20
22.6873500897
 10
49.6464837713
 20
22.6903080489
 10
49.6300331828
 20
22.6928750103
 10
49.6135262027
 20
22.6950495199
 10
49.5969721806
 20
22.6968303462
 10
49.580380493
 20
22.6982164805
 10
49.5637605375
 20
22.6992071375
 10
49.5471217279
 20
22.6998017563
 10
49.5304734886
 20
22.7
  0
LWPOLYLINE
  5
521
100
AcDbEntity
  8
RACCORDO
100
AcDbPolyline
 62
250
  6
CONTINUOUS
 90
12
 70
0
 10
50.2180697434
 20
8.7093895131
 10
50.2182017776
 20
8.6963254815
 10
50.218677518
 20
8.6832704381
 10
50.2194966371
 20
8.670233365
 10
50.2206585715
 20
8.657223232
 10
50.2221625217
 20
8.6442489902
 10
50.224007453
 20
8.6313195657
 10
50.2261920961
 20
8.618443854
 10
50.2287149479
 20
8.6056307141
 10
50.2315742725
 20
8.5928889618
 10
50.2347681027
 20
8.580227364
 10
50.2380224603
 20
8.5686236881
  0
LWPOLYLINE
  5
522
100
AcDbEntity
  8
RACCORDO
100
AcDbPolyline
 62
250
  6
CONTINUOUS
 90
7
 70
0
 10
50.2728857341
 20
8.5720564063
 10
50.273017767
 20
8.5589924328
 10
50.2734935029
 20
8.5459374475
 10
50.2743126146
 20
8.5329004324
 10
50.2754745385
 20
8.5198903569
 10
50.2769784751
 20
8.506916172
 10
50.2788233898
 20
8.4939868042
  0
LINE
  5
523
100
AcDbEntity
  8
RACCORDO
100
AcDbLine
 62
7
  6
CONTINUOUS
 10
50.2961456067
 20
8.0643672007
 11
50.2970993118
 21
7.9831249414
  0
LINE
  5
524
100
AcDbEntity
  8
RACCORDO
100
AcDbLine
 62
250
  6
CONTINUOUS
 10
50.2965449723
 20
8.0608228662
 11
50.2974657682
 21
7.9789039122
  0
LINE
  5
525
100
AcDbEntity
  8
RACCORDO
100
AcDbLine
 62
250
  6
CONTINUOUS
 10
50.277869803
 20
-23.1091934641
 11
50.2763410067
 21
-22.9499341659
  0
LINE
  5
526
100
AcDbEntity
  8
RACCORDO
100
AcDbLine
 62
250
  6
CONTINUOUS
 10
50.2004000291
 20
-40.5080750016
 11
50.2012010208
 21
-40.5934766304
  0
LINE
  5
527
100
AcDbEntity
  8
RACCORDO
100
AcDbLine
 62
250
  6
CONTINUOUS
 10
49.5862234151
 20
-24.3486995494
 11
49.5782962327
 21
-23.2545979314
  0
LINE
  5
528
100
AcDbEntity
  8
RACCORDO
100
AcDbLine
 62
250
  6
CONTINUOUS
 10
50.2845089384
 20
-24.0278596944
 11
50.277869803
 21
-23.1091934641
  0
LINE
  5
529
100
AcDbEntity
  8
RACCORDO
100
AcDbLine
 62
250
  6
CONTINUOUS
 10
49.5936726366
 20
-25.4456740753
 11
49.5862234151
 21
-24.3486995494
  0
LINE
  5
52A
100
AcDbEntity
  8
RACCORDO
100
AcDbLine
 62
250
  6
CONTINUOUS
 10
50.2908163221
 20
-24.948512202
 11
50.2845089384
 21
-24.0278596944
  0
LINE
  5
52B
100
AcDbEntity
  8
RACCORDO
100
AcDbLine
 62
250
  6
CONTINUOUS
 10
50.2967916257
 20
-25.871106698
 11
50.2908163221
 21
-24.948512202
  0
LINE
  5
52C
100
AcDbEntity
  8
RACCORDO
100
AcDbLine
 62
250
  6
CONTINUOUS
 10
49.600643306
 20
-26.5453343648
 11
49.5936726366
 21
-25.4456740753
  0
LINE
  5
52D
100
AcDbEntity
  8
RACCORDO
100
AcDbLine
 62
250
  6
CONTINUOUS
 10
50.3024337432
 20
-26.7954984649
 11
50.2967916257
 21
-25.871106698
  0
LINE
  5
52E
100
AcDbEntity
  8
RACCORDO
100
AcDbLine
 62
250
  6
CONTINUOUS
 10
49.6071333913
 20
-27.6474475487
 11
49.600643306
 21
-26.5453343648
  0
LINE
  5
52F
100
AcDbEntity
  8
RACCORDO
100
AcDbLine
 62
7
  6
CONTINUOUS
 10
50.2970993118
 20
7.9831249414
 11
50.2977671787
 21
7.8937179859
  0
LINE
  5
530
100
AcDbEntity
  8
RACCORDO
100
AcDbLine
 62
250
  6
CONTINUOUS
 10
50.3077417291
 20
-27.7215382308
 11
50.3024337432
 21
-26.7954984649
  0
LINE
  5
531
100
AcDbEntity
  8
RACCORDO
100
AcDbLine
 62
250
  6
CONTINUOUS
 10
50.2974657682
 20
7.9789039122
 11
50.2980740925
 21
7.89459216
  0
LINE
  5
532
100
AcDbEntity
  8
RACCORDO
100
AcDbLine
 62
250
  6
CONTINUOUS
 10
49.6131414156
 20
-28.7517840779
 11
49.6071333913
 21
-27.6474475487
  0
LINE
  5
533
100
AcDbEntity
  8
RACCORDO
100
AcDbLine
 62
250
  6
CONTINUOUS
 10
50.3127150082
 20
-28.6491298282
 11
50.3077417291
 21
-27.7215382308
  0
LINE
  5
534
100
AcDbEntity
  8
RACCORDO
100
AcDbLine
 62
250
  6
CONTINUOUS
 10
49.6186664995
 20
-29.8581408989
 11
49.6131414156
 21
-28.7517840779
  0
LINE
  5
535
100
AcDbEntity
  8
RACCORDO
100
AcDbLine
 62
250
  6
CONTINUOUS
 10
50.3173527659
 20
-29.5781271388
 11
50.3127150082
 21
-28.6491298282
  0
LINE
  5
536
100
AcDbEntity
  8
RACCORDO
100
AcDbLine
 62
250
  6
CONTINUOUS
 10
50.3216544001
 20
-30.5083956482
 11
50.3173527659
 21
-29.5781271388
  0
LWPOLYLINE
  5
537
100
AcDbEntity
  8
RACCORDO
100
AcDbPolyline
 62
250
  6
CONTINUOUS
 90
3
 70
0
 10
49.6260461702
 20
-31.5210049208
 10
49.62370729
 20
-30.9662997846
 10
49.6186664995
 20
-29.8581408989
  0
LINE
  5
538
100
AcDbEntity
  8
RACCORDO
100
AcDbLine
 62
250
  6
CONTINUOUS
 10
50.3256197165
 20
-31.4398938097
 11
50.3216544001
 21
-30.5083956482
  0
LINE
  5
539
100
AcDbEntity
  8
RACCORDO
100
AcDbLine
 62
250
  6
CONTINUOUS
 10
50.19995221
 20
-40.4104137505
 11
50.2004000291
 21
-40.5080750016
  0
LINE
  5
53A
100
AcDbEntity
  8
RACCORDO
100
AcDbLine
 62
250
  6
CONTINUOUS
 10
50.3256197165
 20
31.4398937901
 11
50.3322656136
 21
28.8242966765
  0
LINE
  5
53B
100
AcDbEntity
  8
RACCORDO
100
AcDbLine
 62
7
  6
CONTINUOUS
 10
50.2977671787
 20
7.8937179859
 11
50.2980507805
 21
7.8130412033
  0
LINE
  5
53C
100
AcDbEntity
  8
RACCORDO
100
AcDbLine
 62
250
  6
CONTINUOUS
 10
50.3322656136
 20
28.8242966765
 11
50.3411523886
 21
24.8988156044
  0
LINE
  5
53D
100
AcDbEntity
  8
RACCORDO
100
AcDbLine
 62
250
  6
CONTINUOUS
 10
50.2980740925
 20
7.89459216
 11
50.2983621252
 21
7.8092466315
  0
LINE
  5
53E
100
AcDbEntity
  8
RACCORDO
100
AcDbLine
 62
250
  6
CONTINUOUS
 10
50.3411523886
 20
24.8988156044
 11
50.3487401251
 21
20.9710854365
  0
LINE
  5
53F
100
AcDbEntity
  8
RACCORDO
100
AcDbLine
 62
250
  6
CONTINUOUS
 10
50.3487401251
 20
20.9710854365
 11
50.3530765555
 21
18.3515393059
  0
LINE
  5
540
100
AcDbEntity
  8
RACCORDO
100
AcDbLine
 62
250
  6
CONTINUOUS
 10
50.3530765555
 20
18.3515393059
 11
50.3584977212
 21
14.4208662963
  0
LINE
  5
541
100
AcDbEntity
  8
RACCORDO
100
AcDbLine
 62
250
  6
CONTINUOUS
 10
50.3584977212
 20
14.4208662963
 11
50.3626182595
 21
10.4888981515
  0
LINE
  5
542
100
AcDbEntity
  8
RACCORDO
100
AcDbLine
 62
250
  6
CONTINUOUS
 10
50.3626182595
 20
10.4888981515
 11
50.3646425319
 21
7.8670365678
  0
LINE
  5
543
100
AcDbEntity
  8
RACCORDO
100
AcDbLine
 62
250
  6
CONTINUOUS
 10
50.3646425319
 20
7.8670365678
 11
50.3665945921
 21
3.9336946884
  0
LINE
  5
544
100
AcDbEntity
  8
RACCORDO
100
AcDbLine
 62
7
  6
CONTINUOUS
 10
50.2000000848
 20
40.1396568101
 11
50.2
 21
40.0986945859
  0
LINE
  5
545
100
AcDbEntity
  8
RACCORDO
100
AcDbLine
 62
7
  6
CONTINUOUS
 10
50.2
 20
-40.0986945859
 11
50.200000085
 21
-40.1396568101
  0
LINE
  5
546
100
AcDbEntity
  8
ASSI
100
AcDbLine
 62
7
  6
CONTINUOUS
 10
50.2
 20
7.9
 11
50.2
 21
-7.9
  0
LINE
  5
547
100
AcDbEntity
  8
RACCORDO
100
AcDbLine
 62
7
  6
CONTINUOUS
 10
50.2177651569
 20
22.0
 11
50.2177651569
 21
8.7093895131
  0
LINE
  5
548
100
AcDbEntity
  8
RACCORDO
100
AcDbLine
 62
7
  6
CONTINUOUS
 10
50.2177651569
 20
-8.7093895131
 11
50.2177651569
 21
-22.0
  0
LINE
  5
549
100
AcDbEntity
  8
RACCORDO
100
AcDbLine
 62
250
  6
CONTINUOUS
 10
50.2180697434
 20
21.9999986429
 11
50.2180697434
 21
8.7093895131
  0
LINE
  5
54A
100
AcDbEntity
  8
RACCORDO
100
AcDbLine
 62
250
  6
CONTINUOUS
 10
50.2180697434
 20
-8.7093895131
 11
50.2180697434
 21
-21.9999986431
  0
LINE
  5
54B
100
AcDbEntity
  8
RACCORDO
100
AcDbLine
 62
250
  6
CONTINUOUS
 10
50.2983621252
 20
7.8092466315
 11
50.2983875132
 21
-7.7751006478
  0
LINE
  5
54C
100
AcDbEntity
  8
RACCORDO
100
AcDbLine
 62
250
  6
CONTINUOUS
 10
50.3665945921
 20
3.9336946884
 11
50.3672452982
 21
-0.0000004462
  0
LINE
  5
54D
100
AcDbEntity
  8
RACCORDO
100
AcDbLine
 62
250
  6
CONTINUOUS
 10
50.3672452982
 20
-0.0000004462
 11
50.366956091
 21
-2.6224900297
  0
LINE
  5
54E
100
AcDbEntity
  8
RACCORDO
100
AcDbLine
 62
250
  6
CONTINUOUS
 10
50.366956091
 20
-2.6224900297
 11
50.3660884934
 21
-5.2448618495
  0
LINE
  5
54F
100
AcDbEntity
  8
RACCORDO
100
AcDbLine
 62
250
  6
CONTINUOUS
 10
50.2
 20
-40.1396568101
 11
50.1999897802
 21
-40.1563433296
  0
LINE
  5
550
100
AcDbEntity
  8
RACCORDO
100
AcDbLine
 62
250
  6
CONTINUOUS
 10
50.3660884934
 20
-5.2448618495
 11
50.3646425313
 21
-7.8670374043
  0
LINE
  5
551
100
AcDbEntity
  8
RACCORDO
100
AcDbLine
 62
250
  6
CONTINUOUS
 10
50.1999897802
 20
-40.1563433296
 11
50.1999658644
 21
-40.1895646684
  0
LWPOLYLINE
  5
552
100
AcDbEntity
  8
RACCORDO
100
AcDbPolyline
 62
250
  6
CONTINUOUS
 90
3
 70
0
 10
50.1999213003
 20
-40.2388742239
 10
50.1999074044
 20
-40.2551318253
 10
50.19995221
 20
-40.4104137505
  0
LWPOLYLINE
  5
553
100
AcDbEntity
  8
RACCORDO
100
AcDbPolyline
 62
250
  6
CONTINUOUS
 90
3
 70
0
 10
50.3646425313
 20
-7.8670374043
 10
50.3626182588
 20
-10.4888989445
 10
50.3613892919
 20
-11.7996727144
  0
LINE
  5
554
100
AcDbEntity
  8
RACCORDO
100
AcDbLine
 62
250
  6
CONTINUOUS
 10
50.1999658644
 20
-40.1895646684
 11
50.1999213003
 21
-40.2388742239
  0
LWPOLYLINE
  5
555
100
AcDbEntity
  8
RACCORDO
100
AcDbPolyline
 62
250
  6
CONTINUOUS
 90
3
 70
0
 10
50.3613892919
 20
-11.7996727144
 10
50.3584977204
 20
-14.4208670007
 10
50.3568351655
 20
-15.7312482866
  0
LINE
  5
556
100
AcDbEntity
  8
RACCORDO
100
AcDbLine
 62
250
  6
CONTINUOUS
 10
50.3568351655
 20
-15.7312482866
 11
50.3530765546
 21
-18.3515398941
  0
LWPOLYLINE
  5
557
100
AcDbEntity
  8
RACCORDO
100
AcDbPolyline
 62
250
  6
CONTINUOUS
 90
3
 70
0
 10
50.3530765546
 20
-18.3515398941
 10
50.3487401242
 20
-20.971085931
 10
50.346355248
 20
-22.2805646557
  0
LWPOLYLINE
  5
558
100
AcDbEntity
  8
RACCORDO
100
AcDbPolyline
 62
250
  6
CONTINUOUS
 90
3
 70
0
 10
50.346355248
 20
-22.2805646557
 10
50.3411523879
 20
-24.8988159429
 10
50.3383344039
 20
-26.2075885055
  0
LINE
  5
559
100
AcDbEntity
  8
RACCORDO
100
AcDbLine
 62
250
  6
CONTINUOUS
 10
50.3383344039
 20
-26.2075885055
 11
50.3322656133
 21
-28.8242968405
  0
LWPOLYLINE
  5
55A
100
AcDbEntity
  8
RACCORDO
100
AcDbPolyline
 62
250
  6
CONTINUOUS
 90
31
 70
0
 10
50.325619496
 20
31.4398938049
 10
50.3263723008
 20
31.7285613371
 10
50.3282238117
 20
32.021979863
 10
50.3311907211
 20
32.3201362493
 10
50.3353063615
 20
32.6238924776
 10
50.3405906982
 20
32.9323628345
 10
50.3470113704
 20
33.2429111834
 10
50.3546104156
 20
33.5570287592
 10
50.3633721608
 20
33.8731975576
 10
50.3730752764
 20
34.1842687773
 10
50.3836409808
 20
34.4895716766
 10
50.3950464459
 20
34.7897545737
 10
50.4070292679
 20
35.0796548194
 10
50.419425196
 20
35.357596225
 10
50.4322261085
 20
35.6252458398
 10
50.4453506295
 20
35.8824632898
 10
50.4586886829
 20
36.1285860171
 10
50.4722098089
 20
36.364273844
 10
50.4859637044
 20
36.5913718336
 10
50.49992666
 20
36.8102510514
 10
50.5140379181
 20
37.0205360553
 10
50.5283079929
 20
37.2229527511
 10
50.5426897632
 20
37.4173738645
 10
50.5571642579
 20
37.6039219552
 10
50.5717916397
 20
37.7836992199
 10
50.5865599872
 20
37.9568480434
 10
50.6014453284
 20
38.123216306
 10
50.6164953014
 20
38.2834662024
 10
50.6317170046
 20
38.4378152213
 10
50.647092306
 20
38.5860245417
 10
50.6626201739
 20
38.7280787785
  0
LINE
  5
55B
100
AcDbEntity
  8
RACCORDO
100
AcDbLine
 62
250
  6
CONTINUOUS
 10
50.3322656133
 20
-28.8242968405
 11
50.3256197165
 21
-31.4398938097
  0
LINE
  5
55C
100
AcDbEntity
  8
RACCORDO
100
AcDbLine
 62
7
  6
CONTINUOUS
 10
50.2980507805
 20
7.8130412033
 11
50.2979384273
 21
-7.8554697898
  0
LINE
  5
55D
100
AcDbEntity
  8
RACCORDO
100
AcDbLine
 62
250
  6
CONTINUOUS
 10
50.2983875132
 20
-7.7751006478
 11
50.2982278009
 21
-7.8605234587
  0
LINE
  5
55E
100
AcDbEntity
  8
RACCORDO
100
AcDbLine
 62
250
  6
CONTINUOUS
 10
50.320820973
 20
30.322241243
 11
50.3256197165
 21
31.4398937901
  0
LINE
  5
55F
100
AcDbEntity
  8
RACCORDO
100
AcDbLine
 62
250
  6
CONTINUOUS
 10
49.6212474008
 20
30.4120048849
 11
49.6260461696
 21
31.5210048853
  0
LINE
  5
560
100
AcDbEntity
  8
RACCORDO
100
AcDbLine
 62
250
  6
CONTINUOUS
 10
49.615964465
 20
29.3047259101
 11
49.6212474008
 21
30.4120048849
  0
LINE
  5
561
100
AcDbEntity
  8
RACCORDO
100
AcDbLine
 62
250
  6
CONTINUOUS
 10
50.3155380469
 20
29.2063866957
 11
50.320820973
 21
30.322241243
  0
LINE
  5
562
100
AcDbEntity
  8
RACCORDO
100
AcDbLine
 62
250
  6
CONTINUOUS
 10
49.6101977422
 20
28.1993523733
 11
49.615964465
 21
29.3047259101
  0
LINE
  5
563
100
AcDbEntity
  8
RACCORDO
100
AcDbLine
 62
250
  6
CONTINUOUS
 10
50.3097713217
 20
28.0924084161
 11
50.3155380469
 21
29.2063866957
  0
LINE
  5
564
100
AcDbEntity
  8
RACCORDO
100
AcDbLine
 62
250
  6
CONTINUOUS
 10
49.6039484185
 20
27.0960956851
 11
49.6101977422
 21
28.1993523733
  0
LINE
  5
565
100
AcDbEntity
  8
RACCORDO
100
AcDbLine
 62
250
  6
CONTINUOUS
 10
50.3035219976
 20
26.9805637247
 11
50.3097713217
 21
28.0924084161
  0
LINE
  5
566
100
AcDbEntity
  8
RACCORDO
100
AcDbLine
 62
250
  6
CONTINUOUS
 10
50.2
 20
40.1396568101
 11
50.2005463646
 21
40.2551395573
  0
LINE
  5
567
100
AcDbEntity
  8
RACCORDO
100
AcDbLine
 62
250
  6
CONTINUOUS
 10
49.5972180409
 20
25.9951877102
 11
49.6039484185
 21
27.0960956851
  0
LINE
  5
568
100
AcDbEntity
  8
RACCORDO
100
AcDbLine
 62
250
  6
CONTINUOUS
 10
50.2967916196
 20
25.8711072824
 11
50.3035219976
 21
26.9805637247
  0
LINE
  5
569
100
AcDbEntity
  8
RACCORDO
100
AcDbLine
 62
250
  6
CONTINUOUS
 10
49.5900077002
 20
24.8968362291
 11
49.5972180409
 21
25.9951877102
  0
LINE
  5
56A
100
AcDbEntity
  8
RACCORDO
100
AcDbLine
 62
250
  6
CONTINUOUS
 10
50.2895812777
 20
24.7642057361
 11
50.2967916196
 21
25.8711072824
  0
LINE
  5
56B
100
AcDbEntity
  8
RACCORDO
100
AcDbLine
 62
250
  6
CONTINUOUS
 10
50.2818931683
 20
23.6601632842
 11
50.2895812777
 21
24.7642057361
  0
LWPOLYLINE
  5
56C
100
AcDbEntity
  8
RACCORDO
100
AcDbPolyline
 62
250
  6
CONTINUOUS
 90
3
 70
0
 10
49.5782962333
 20
23.2545980148
 10
49.5823195952
 20
23.8012801692
 10
49.5900077002
 20
24.8968362291
  0
LINE
  5
56D
100
AcDbEntity
  8
RACCORDO
100
AcDbLine
 62
250
  6
CONTINUOUS
 10
50.2982278009
 20
-7.8605234587
 11
50.2977469263
 21
-7.9454321214
  0
LINE
  5
56E
100
AcDbEntity
  8
RACCORDO
100
AcDbLine
 62
7
  6
CONTINUOUS
 10
50.2979384273
 20
-7.8554697898
 11
50.297445687
 21
-7.9430893636
  0
LWPOLYLINE
  5
56F
100
AcDbEntity
  8
RACCORDO
100
AcDbPolyline
 62
7
  6
CONTINUOUS
 90
66
 70
0
 10
50.2177651319
 20
-22.0
 10
50.217691306
 20
-22.0101587389
 10
50.2172439217
 20
-22.0269936952
 10
50.2163912252
 20
-22.043813442
 10
50.2151336796
 20
-22.0606077933
 10
50.2134720268
 20
-22.0773673881
 10
50.2114071034
 20
-22.0940829028
 10
50.2089401422
 20
-22.1107446519
 10
50.2060724813
 20
-22.1273428772
 10
50.2028057092
 20
-22.1438680215
 10
50.1991417019
 20
-22.1603106371
 10
50.1950824665
 20
-22.1766610934
 10
50.1906304346
 20
-22.1929097292
 10
50.1857881252
 20
-22.2090471005
 10
50.1805582789
 20
-22.2250638506
 10
50.1749440198
 20
-22.2409505443
 10
50.1689485047
 20
-22.2566979286
 10
50.1625752366
 20
-22.2722969168
 10
50.1558279278
 20
-22.2877383437
 10
50.1487104333
 20
-22.3030132391
 10
50.1412269332
 20
-22.3181127852
 10
50.1333817327
 20
-22.3330280913
 10
50.125179437
 20
-22.3477504959
 10
50.1166247776
 20
-22.3622715119
 10
50.1077226349
 20
-22.3765827213
 10
50.0984782491
 20
-22.3906758451
 10
50.088896892
 20
-22.4045427019
 10
50.0789840515
 20
-22.4181753787
 10
50.0687454783
 20
-22.4315659795
 10
50.0581870308
 20
-22.4447066912
 10
50.0473147901
 20
-22.4575900451
 10
50.0361349882
 20
-22.4702085191
 10
50.0246540908
 20
-22.4825547897
 10
50.0128786724
 20
-22.4946218013
 10
50.0008154652
 20
-22.5064024837
 10
49.9884714981
 20
-22.5178900347
 10
49.9758537959
 20
-22.5290777988
 10
49.9629696344
 20
-22.5399592536
 10
49.9498264936
 20
-22.5505280985
 10
49.9364318378
 20
-22.5607781599
 10
49.9227934457
 20
-22.5707035143
 10
49.9089191812
 20
-22.5802983398
 10
49.8948169668
 20
-22.5895570574
 10
49.8804949536
 20
-22.5984743281
 10
49.8659614092
 20
-22.6070448347
 10
49.8512247949
 20
-22.6152635941
 10
49.8362935747
 20
-22.6231258083
 10
49.8211764189
 20
-22.6306267952
 10
49.8058823145
 20
-22.6377621308
 10
49.7904200837
 20
-22.6445275686
 10
49.7747987063
 20
-22.650919188
 10
49.7590274638
 20
-22.656933168
 10
49.7431154627
 20
-22.6625659473
 10
49.7270719741
 20
-22.6678143089
 10
49.7109065615
 20
-22.6726750375
 10
49.6946286166
 20
-22.6771453409
 10
49.6782476067
 20
-22.6812226482
 10
49.6617733136
 20
-22.6849044598
 10
49.645215408
 20
-22.6881887229
 10
49.6285833721
 20
-22.6910735183
 10
49.6118868812
 20
-22.6935572061
 10
49.5951357364
 20
-22.6956384102
 10
49.578339666
 20
-22.6973158637
 10
49.561508114
 20
-22.698588691
 10
49.5446505163
 20
-22.6994561213
 10
49.5304691771
 20
-22.6998440308
  0
LWPOLYLINE
  5
570
100
AcDbEntity
  8
RACCORDO
100
AcDbPolyline
 62
250
  6
CONTINUOUS
 90
4
 70
0
 10
50.2005463646
 20
40.2551395573
 10
50.2016112306
 20
40.3956185358
 10
50.2017351541
 20
40.4104137802
 10
50.2018567836
 20
40.4250144245
  0
LWPOLYLINE
  5
571
100
AcDbEntity
  8
RACCORDO
100
AcDbPolyline
 62
250
  6
CONTINUOUS
 90
12
 70
0
 10
50.2180697434
 20
-8.7093895131
 10
50.2182017776
 20
-8.6963254816
 10
50.218677518
 20
-8.6832704382
 10
50.2194966371
 20
-8.6702333652
 10
50.2206585715
 20
-8.6572232321
 10
50.2221625217
 20
-8.6442489901
 10
50.224007453
 20
-8.6313195655
 10
50.2261920961
 20
-8.6184438538
 10
50.2287149479
 20
-8.6056307137
 10
50.2315742726
 20
-8.5928889614
 10
50.2347681029
 20
-8.5802273633
 10
50.2380224607
 20
-8.5686236866
  0
LWPOLYLINE
  5
572
100
AcDbEntity
  8
RACCORDO
100
AcDbPolyline
 62
250
  6
CONTINUOUS
 90
7
 70
0
 10
50.2728857341
 20
-8.5720564063
 10
50.2730177669
 20
-8.5589924349
 10
50.2734935027
 20
-8.5459374517
 10
50.2743126142
 20
-8.5329004385
 10
50.2754745377
 20
-8.5198903648
 10
50.2769784739
 20
-8.5069161818
 10
50.278823388
 20
-8.4939868156
  0
LWPOLYLINE
  5
573
100
AcDbEntity
  8
RACCORDO
100
AcDbPolyline
 62
250
  6
CONTINUOUS
 90
45
 70
0
 10
50.2180697435
 20
-21.9999986431
 10
50.2179294603
 20
-22.0140032182
 10
50.2175079256
 20
-22.0280191107
 10
50.2168042916
 20
-22.0420406659
 10
50.2158176446
 20
-22.0560644278
 10
50.2145474539
 20
-22.070082428
 10
50.2129940222
 20
-22.0840822291
 10
50.2111573773
 20
-22.0980579942
 10
50.2090376431
 20
-22.1120040771
 10
50.206636228
 20
-22.1259084045
 10
50.2039539
 20
-22.1397651828
 10
50.2009915067
 20
-22.1535688421
 10
50.1977514936
 20
-22.1673077979
 10
50.1942356428
 20
-22.1809752532
 10
50.1904452341
 20
-22.194566944
 10
50.1863826159
 20
-22.2080752485
 10
50.182050312
 20
-22.22149292
 10
50.1774497975
 20
-22.2348164656
 10
50.1725819336
 20
-22.2480439263
 10
50.167448675
 20
-22.261170132
 10
50.1620522138
 20
-22.2741896113
 10
50.1563935536
 20
-22.2870998775
 10
50.150474346
 20
-22.2998967482
 10
50.1442973511
 20
-22.3125738616
 10
50.1378652604
 20
-22.3251254718
 10
50.1311804424
 20
-22.3375467316
 10
50.1242456732
 20
-22.3498322682
 10
50.1170645289
 20
-22.361975687
 10
50.1096401515
 20
-22.373971706
 10
50.1019753442
 20
-22.385815828
 10
50.0940734231
 20
-22.3975029834
 10
50.0859377959
 20
-22.4090281896
 10
50.0775716067
 20
-22.4203870497
 10
50.0689779039
 20
-22.4315754604
 10
50.0601601088
 20
-22.4425889389
 10
50.0511218337
 20
-22.4534229465
 10
50.0418665024
 20
-22.4640733655
 10
50.0323976829
 20
-22.4745360215
 10
50.0227193355
 20
-22.4848064725
 10
50.0128355995
 20
-22.4948803104
 10
50.0027504676
 20
-22.5047534375
 10
49.9924680167
 20
-22.5144218366
 10
49.9819926609
 20
-22.5238813679
 10
49.9713288192
 20
-22.5331280495
 10
49.9604806483
 20
-22.5421582856
  0
LINE
  5
574
100
AcDbEntity
  8
RACCORDO
100
AcDbLine
 62
250
  6
CONTINUOUS
 10
50.2018567836
 20
40.4250144245
 11
50.2037604435
 21
40.6456222469
  0
LINE
  5
575
100
AcDbEntity
  8
RACCORDO
100
AcDbLine
 62
250
  6
CONTINUOUS
 10
50.2977469263
 20
-7.9454321214
 11
50.2969495883
 21
-8.0284527177
  0
LINE
  5
576
100
AcDbEntity
  8
RACCORDO
100
AcDbLine
 62
7
  6
CONTINUOUS
 10
50.297445687
 20
-7.9430893636
 11
50.296669299
 21
-8.0234563477
  0
LINE
  5
577
100
AcDbEntity
  8
RACCORDO
100
AcDbLine
 62
250
  6
CONTINUOUS
 10
50.2763414582
 20
22.949972201
 11
50.2818931683
 21
23.6601632842
  0
LWPOLYLINE
  5
578
100
AcDbEntity
  8
RACCORDO
100
AcDbPolyline
 62
250
  6
CONTINUOUS
 90
67
 70
0
 10
50.2300470675
 20
-22.0
 10
50.2298489445
 20
-22.0166583883
 10
50.2292546879
 20
-22.0333073411
 10
50.2282646342
 20
-22.0499374282
 10
50.2268793442
 20
-22.0665392303
 10
50.2250996025
 20
-22.0831033439
 10
50.2229264172
 20
-22.0996203868
 10
50.2203610192
 20
-22.1160810037
 10
50.2174048616
 20
-22.1324758711
 10
50.2140596187
 20
-22.1487957027
 10
50.2103271855
 20
-22.1650312549
 10
50.2062096758
 20
-22.1811733316
 10
50.2017094221
 20
-22.1972127898
 10
50.1968289731
 20
-22.2131405446
 10
50.1915710934
 20
-22.2289475743
 10
50.185938761
 20
-22.2446249257
 10
50.179935166
 20
-22.260163719
 10
50.1735637091
 20
-22.2755551527
 10
50.1668279991
 20
-22.2907905091
 10
50.1597318511
 20
-22.3058611587
 10
50.1522792845
 20
-22.3207585652
 10
50.1444745204
 20
-22.3354742907
 10
50.1363219797
 20
-22.35
 10
50.12782628
 20
-22.3643274656
 10
50.1189922333
 20
-22.3784485722
 10
50.1098248434
 20
-22.3923553216
 10
50.1003293026
 20
-22.4060398367
 10
50.0905109896
 20
-22.4194943666
 10
50.0803754653
 20
-22.4327112904
 10
50.0699284707
 20
-22.4456831219
 10
50.0591759231
 20
-22.4584025138
 10
50.0481239128
 20
-22.4708622616
 10
50.0367786998
 20
-22.483055308
 10
50.0251467102
 20
-22.4949747468
 10
50.0132345324
 20
-22.5066138267
 10
50.0010489136
 20
-22.5179659551
 10
49.9885967559
 20
-22.529024702
 10
49.9758851123
 20
-22.5397838038
 10
49.9629211829
 20
-22.5502371663
 10
49.9497123105
 20
-22.5603788686
 10
49.9362659768
 20
-22.5702031664
 10
49.9225897979
 20
-22.5797044951
 10
49.9086915202
 20
-22.588877473
 10
49.8945790157
 20
-22.5977169044
 10
49.880260278
 20
-22.6062177826
 10
49.8657434174
 20
-22.6143752927
 10
49.8510366563
 20
-22.6221848141
 10
49.8361483249
 20
-22.6296419233
 10
49.821086856
 20
-22.6367423967
 10
49.8058607805
 20
-22.6434822125
 10
49.7904787228
 20
-22.6498575531
 10
49.7749493954
 20
-22.6558648075
 10
49.7592815942
 20
-22.6615005731
 10
49.7434841937
 20
-22.6667616578
 10
49.7275661417
 20
-22.6716450815
 10
49.7115364543
 20
-22.6761480784
 10
49.6954042109
 20
-22.6802680978
 10
49.6791785489
 20
-22.6840028062
 10
49.6628686589
 20
-22.6873500881
 10
49.6464837788
 20
-22.6903080476
 10
49.6300331893
 20
-22.6928750093
 10
49.6135262081
 20
-22.6950495193
 10
49.596972185
 20
-22.6968303458
 10
49.5803804963
 20
-22.6982164802
 10
49.5637605397
 20
-22.6992071374
 10
49.547121729
 20
-22.6998017563
 10
49.5304734886
 20
-22.7
  0
LINE
  5
579
100
AcDbEntity
  8
RACCORDO
100
AcDbLine
 62
250
  6
CONTINUOUS
 10
50.2037604435
 20
40.6456222469
 11
50.2046101566
 21
40.7116567592
  0
LINE
  5
57A
100
AcDbEntity
  8
RACCORDO
100
AcDbLine
 62
7
  6
CONTINUOUS
 10
50.296669299
 20
-8.0234563477
 11
50.2956672183
 21
-8.0966049525
  0
LINE
  5
57B
100
AcDbEntity
  8
RACCORDO
100
AcDbLine
 62
250
  6
CONTINUOUS
 10
50.2969495883
 20
-8.0284527177
 11
50.2958474277
 21
-8.108403315
  0
LINE
  5
57C
100
AcDbEntity
  8
RACCORDO
100
AcDbLine
 62
250
  6
CONTINUOUS
 10
50.2741588903
 20
22.7964003974
 11
50.2763414582
 21
22.949972201
  0
LINE
  5
57D
100
AcDbEntity
  8
RACCORDO
100
AcDbLine
 62
250
  6
CONTINUOUS
 10
49.5776153892
 20
23.2145356026
 11
49.5782962458
 21
23.2545980148
  0
LINE
  5
57E
100
AcDbEntity
  8
RACCORDO
100
AcDbLine
 62
250
  6
CONTINUOUS
 10
50.2046101566
 20
40.7116567592
 11
50.2050310751
 21
40.7359861548
  0
LINE
  5
57F
100
AcDbEntity
  8
RACCORDO
100
AcDbLine
 62
250
  6
CONTINUOUS
 10
50.2958474277
 20
-8.108403315
 11
50.2944521756
 21
-8.1845012222
  0
LINE
  5
580
100
AcDbEntity
  8
RACCORDO
100
AcDbLine
 62
7
  6
CONTINUOUS
 10
50.2956672183
 20
-8.0966049525
 11
50.294275608
 21
-8.173148864
  0
LINE
  5
581
100
AcDbEntity
  8
RACCORDO
100
AcDbLine
 62
250
  6
CONTINUOUS
 10
50.2718670926
 20
22.6748596025
 11
50.2741588903
 21
22.7964003974
  0
LINE
  5
582
100
AcDbEntity
  8
RACCORDO
100
AcDbLine
 62
250
  6
CONTINUOUS
 10
49.5767678468
 20
23.1749839718
 11
49.5776153892
 21
23.2145356026
  0
LINE
  5
583
100
AcDbEntity
  8
RACCORDO
100
AcDbLine
 62
250
  6
CONTINUOUS
 10
50.2050310751
 20
40.7359861548
 11
50.2053450943
 21
40.750234748
  0
LINE
  5
584
100
AcDbEntity
  8
RACCORDO
100
AcDbLine
 62
7
  6
CONTINUOUS
 10
50.294275608
 20
-8.173148864
 11
50.2929394577
 21
-8.2314193093
  0
LINE
  5
585
100
AcDbEntity
  8
RACCORDO
100
AcDbLine
 62
250
  6
CONTINUOUS
 10
50.2691700123
 20
22.5604470321
 11
50.2718670926
 21
22.6748596025
  0
LINE
  5
586
100
AcDbEntity
  8
RACCORDO
100
AcDbLine
 62
250
  6
CONTINUOUS
 10
50.2944521756
 20
-8.1845012222
 11
50.2927784782
 21
-8.255928512
  0
LINE
  5
587
100
AcDbEntity
  8
RACCORDO
100
AcDbLine
 62
250
  6
CONTINUOUS
 10
49.5757563903
 20
23.1361414675
 11
49.5767678468
 21
23.1749839718
  0
LWPOLYLINE
  5
588
100
AcDbEntity
  8
RACCORDO
100
AcDbPolyline
 62
250
  6
CONTINUOUS
 90
9
 70
0
 10
50.2053450943
 20
40.750234748
 10
50.2055537212
 20
40.7577871525
 10
50.205657831
 20
40.760972502
 10
50.2057618093
 20
40.7637614294
 10
50.2058656553
 20
40.7661523289
 10
50.2059693761
 20
40.7681438246
 10
50.2060729743
 20
40.7697347693
 10
50.2061764474
 20
40.7709242457
 10
50.2062797953
 20
40.771711568
  0
LINE
  5
589
100
AcDbEntity
  8
RACCORDO
100
AcDbLine
 62
7
  6
CONTINUOUS
 10
50.2929394577
 20
-8.2314193093
 11
50.2915146913
 21
-8.2829883005
  0
LINE
  5
58A
100
AcDbEntity
  8
RACCORDO
100
AcDbLine
 62
250
  6
CONTINUOUS
 10
50.2667354387
 20
22.4746883074
 11
50.2691700123
 21
22.5604470321
  0
LINE
  5
58B
100
AcDbEntity
  8
RACCORDO
100
AcDbLine
 62
250
  6
CONTINUOUS
 10
50.2927784782
 20
-8.255928512
 11
50.2912530068
 21
-8.3090929587
  0
LINE
  5
58C
100
AcDbEntity
  8
RACCORDO
100
AcDbLine
 62
250
  6
CONTINUOUS
 10
49.574585269
 20
23.0981984617
 11
49.5757563903
 21
23.1361414675
  0
LINE
  5
58D
100
AcDbEntity
  8
RACCORDO
100
AcDbLine
 62
7
  6
CONTINUOUS
 10
50.2915146913
 20
-8.2829883005
 11
50.2902876744
 21
-8.3209606501
  0
LINE
  5
58E
100
AcDbEntity
  8
RACCORDO
100
AcDbLine
 62
250
  6
CONTINUOUS
 10
50.2912530068
 20
-8.3090929587
 11
50.2900072065
 21
-8.3463955143
  0
LINE
  5
58F
100
AcDbEntity
  8
RACCORDO
100
AcDbLine
 62
250
  6
CONTINUOUS
 10
50.2640723188
 20
22.3946985806
 11
50.2667354387
 21
22.4746883074
  0
LINE
  5
590
100
AcDbEntity
  8
RACCORDO
100
AcDbLine
 62
250
  6
CONTINUOUS
 10
49.5732599789
 20
23.0613349006
 11
49.574585269
 21
23.0981984617
  0
LINE
  5
591
100
AcDbEntity
  8
RACCORDO
100
AcDbLine
 62
7
  6
CONTINUOUS
 10
50.2902876744
 20
-8.3209606501
 11
50.2890459996
 21
-8.3545633324
  0
LINE
  5
592
100
AcDbEntity
  8
RACCORDO
100
AcDbLine
 62
250
  6
CONTINUOUS
 10
50.2900072065
 20
-8.3463955143
 11
50.2886796372
 21
-8.3813287198
  0
LINE
  5
593
100
AcDbEntity
  8
RACCORDO
100
AcDbLine
 62
250
  6
CONTINUOUS
 10
50.2619349935
 20
22.338795142
 11
50.2640723188
 21
22.3946985806
  0
LINE
  5
594
100
AcDbEntity
  8
RACCORDO
100
AcDbLine
 62
250
  6
CONTINUOUS
 10
49.5717858925
 20
23.0256889392
 11
49.5732599789
 21
23.0613349006
  0
LINE
  5
595
100
AcDbEntity
  8
RACCORDO
100
AcDbLine
 62
7
  6
CONTINUOUS
 10
50.2890459996
 20
-8.3545633324
 11
50.2878072951
 21
-8.3840143103
  0
LINE
  5
596
100
AcDbEntity
  8
RACCORDO
100
AcDbLine
 62
250
  6
CONTINUOUS
 10
50.2596858798
 20
22.2866120591
 11
50.2619349935
 21
22.338795142
  0
LINE
  5
597
100
AcDbEntity
  8
RACCORDO
100
AcDbLine
 62
250
  6
CONTINUOUS
 10
50.2886796372
 20
-8.3813287198
 11
50.2872758923
 21
-8.4137426478
  0
LINE
  5
598
100
AcDbEntity
  8
RACCORDO
100
AcDbLine
 62
7
  6
CONTINUOUS
 10
50.2878072951
 20
-8.3840143103
 11
50.2868305062
 21
-8.4047186742
  0
LINE
  5
599
100
AcDbEntity
  8
RACCORDO
100
AcDbLine
 62
250
  6
CONTINUOUS
 10
49.5701672555
 20
22.9913566528
 11
49.5717858925
 21
23.0256889392
  0
LINE
  5
59A
100
AcDbEntity
  8
RACCORDO
100
AcDbLine
 62
250
  6
CONTINUOUS
 10
50.2872758923
 20
-8.4137426478
 11
50.2863008446
 21
-8.4338799216
  0
LINE
  5
59B
100
AcDbEntity
  8
RACCORDO
100
AcDbLine
 62
250
  6
CONTINUOUS
 10
50.2573326644
 20
22.2383284387
 11
50.2596858798
 21
22.2866120591
  0
LINE
  5
59C
100
AcDbEntity
  8
RACCORDO
100
AcDbLine
 62
7
  6
CONTINUOUS
 10
50.2868305062
 20
-8.4047186742
 11
50.2858785168
 21
-8.4229512295
  0
LINE
  5
59D
100
AcDbEntity
  8
RACCORDO
100
AcDbLine
 62
250
  6
CONTINUOUS
 10
50.2863008446
 20
-8.4338799216
 11
50.2852968915
 21
-8.4527886782
  0
LINE
  5
59E
100
AcDbEntity
  8
RACCORDO
100
AcDbLine
 62
250
  6
CONTINUOUS
 10
50.2557098485
 20
22.2083868615
 11
50.2573326644
 21
22.2383284387
  0
LINE
  5
59F
100
AcDbEntity
  8
RACCORDO
100
AcDbLine
 62
250
  6
CONTINUOUS
 10
49.5684088046
 20
22.9584408952
 11
49.5701672555
 21
22.9913566528
  0
LINE
  5
5A0
100
AcDbEntity
  8
RACCORDO
100
AcDbLine
 62
7
  6
CONTINUOUS
 10
50.2858785168
 20
-8.4229512295
 11
50.2851887572
 21
-8.4350296308
  0
LWPOLYLINE
  5
5A1
100
AcDbEntity
  8
RACCORDO
100
AcDbPolyline
 62
250
  6
CONTINUOUS
 90
3
 70
0
 10
50.2852968915
 20
-8.4527886782
 10
50.2842659244
 20
-8.470436655
 10
50.2837405556
 20
-8.4787834934
  0
LINE
  5
5A2
100
AcDbEntity
  8
RACCORDO
100
AcDbLine
 62
250
  6
CONTINUOUS
 10
49.5671618461
 20
22.9373450694
 11
49.5684088046
 21
22.9584408952
  0
LINE
  5
5A3
100
AcDbEntity
  8
RACCORDO
100
AcDbLine
 62
250
  6
CONTINUOUS
 10
50.2540471636
 20
22.1803054321
 11
50.2557098485
 21
22.2083868615
  0
LINE
  5
5A4
100
AcDbEntity
  8
RACCORDO
100
AcDbLine
 62
7
  6
CONTINUOUS
 10
50.2851887572
 20
-8.4350296308
 11
50.2845271229
 21
-8.4457572054
  0
LINE
  5
5A5
100
AcDbEntity
  8
RACCORDO
100
AcDbLine
 62
250
  6
CONTINUOUS
 10
49.5658579646
 20
22.9169703292
 11
49.5671618461
 21
22.9373450694
  0
LINE
  5
5A6
100
AcDbEntity
  8
RACCORDO
100
AcDbLine
 62
250
  6
CONTINUOUS
 10
50.2523466315
 20
22.1541184964
 11
50.2540471636
 21
22.1803054321
  0
LINE
  5
5A7
100
AcDbEntity
  8
RACCORDO
100
AcDbLine
 62
250
  6
CONTINUOUS
 10
49.5644987487
 20
22.897349455
 11
49.5658579646
 21
22.9169703292
  0
LINE
  5
5A8
100
AcDbEntity
  8
RACCORDO
100
AcDbLine
 62
250
  6
CONTINUOUS
 10
50.2506114732
 20
22.129877891
 11
50.2523466315
 21
22.1541184964
  0
LINE
  5
5A9
100
AcDbEntity
  8
RACCORDO
100
AcDbLine
 62
250
  6
CONTINUOUS
 10
49.5630865702
 20
22.8785131116
 11
49.5644987487
 21
22.897349455
  0
LINE
  5
5AA
100
AcDbEntity
  8
RACCORDO
100
AcDbLine
 62
250
  6
CONTINUOUS
 10
49.5616238789
 20
22.8604896458
 11
49.5630865702
 21
22.8785131116
  0
LINE
  5
5AB
100
AcDbEntity
  8
RACCORDO
100
AcDbLine
 62
250
  6
CONTINUOUS
 10
49.560112345
 20
22.8433066711
 11
49.5616238789
 21
22.8604896458
  0
LINE
  5
5AC
100
AcDbEntity
  8
RACCORDO
100
AcDbLine
 62
250
  6
CONTINUOUS
 10
50.6626202597
 20
38.7280787644
 11
50.6737869264
 21
38.825684386
  0
LINE
  5
5AD
100
AcDbEntity
  8
RACCORDO
100
AcDbLine
 62
250
  6
CONTINUOUS
 10
50.6737869264
 20
38.825684386
 11
50.684716507
 21
38.9175855307
  0
LINE
  5
5AE
100
AcDbEntity
  8
RACCORDO
100
AcDbLine
 62
250
  6
CONTINUOUS
 10
50.684716507
 20
38.9175855307
 11
50.6953876984
 21
39.0039029609
  0
LINE
  5
5AF
100
AcDbEntity
  8
RACCORDO
100
AcDbLine
 62
250
  6
CONTINUOUS
 10
50.6953876984
 20
39.0039029609
 11
50.7058127173
 21
39.085024502
  0
LINE
  5
5B0
100
AcDbEntity
  8
RACCORDO
100
AcDbLine
 62
250
  6
CONTINUOUS
 10
50.2383993133
 20
-8.567314696
 11
50.2415863791
 21
-8.5570037194
  0
LINE
  5
5B1
100
AcDbEntity
  8
RACCORDO
100
AcDbLine
 62
250
  6
CONTINUOUS
 10
50.2423021166
 20
-8.5547304069
 11
50.2427285138
 21
-8.5533760917
  0
LINE
  5
5B2
100
AcDbEntity
  8
RACCORDO
100
AcDbLine
 62
250
  6
CONTINUOUS
 10
50.2464903602
 20
-8.5423838821
 11
50.2467463491
 21
-8.5416358762
  0
LINE
  5
5B3
100
AcDbEntity
  8
RACCORDO
100
AcDbLine
 62
250
  6
CONTINUOUS
 10
50.2510344161
 20
-8.5300613799
 11
50.2511423859
 21
-8.5297699442
  0
LWPOLYLINE
  5
5B4
100
AcDbEntity
  8
RACCORDO
100
AcDbPolyline
 62
7
  6
CONTINUOUS
 90
17
 70
0
 10
50.2534090028
 20
-8.5239889679
 10
50.2511423859
 20
-8.5297699442
 10
50.2467463491
 20
-8.5416358762
 10
50.2427285138
 20
-8.5533760917
 10
50.2390325956
 20
-8.5651150014
 10
50.2356032485
 20
-8.5770267763
 10
50.23243007
 20
-8.5891819698
 10
50.2295447651
 20
-8.6014967469
 10
50.2269647545
 20
-8.6139171874
 10
50.2246959059
 20
-8.6264273912
 10
50.222741184
 20
-8.6390242781
 10
50.2211077201
 20
-8.6516713139
 10
50.2197994283
 20
-8.6643325144
 10
50.2188138363
 20
-8.6770231778
 10
50.2181496993
 20
-8.6897835321
 10
50.2178109819
 20
-8.7026202534
 10
50.217765157
 20
-8.7093895131
  0
LINE
  5
5B5
100
AcDbEntity
  8
RACCORDO
100
AcDbLine
 62
7
  6
CONTINUOUS
 10
50.2845061534
 20
-8.4460797915
 11
50.2533902224
 21
-8.5240360125
  0
LINE
  5
5B6
100
AcDbEntity
  8
RACCORDO
100
AcDbLine
 62
250
  6
CONTINUOUS
 10
50.2728857341
 20
-8.5720564063
 11
50.2180697434
 21
-8.7093895131
  0
LINE
  5
5B7
100
AcDbEntity
  8
RACCORDO
100
AcDbLine
 62
250
  6
CONTINUOUS
 10
49.9498264936
 20
-22.5505280985
 11
49.9494522824
 21
-22.550968643
  0
LWPOLYLINE
  5
5B8
100
AcDbEntity
  8
RACCORDO
100
AcDbPolyline
 62
250
  6
CONTINUOUS
 90
5
 70
0
 10
49.9382482379
 20
-22.5595554871
 10
49.9268729849
 20
-22.5679153669
 10
49.91533066
 20
-22.5760452132
 10
49.9036256456
 20
-22.5839418561
 10
49.8917629111
 20
-22.5916018613
  0
LINE
  5
5B9
100
AcDbEntity
  8
RACCORDO
100
AcDbLine
 62
250
  6
CONTINUOUS
 10
49.8804949536
 20
-22.5984743281
 11
49.879747565
 21
-22.599021893
  0
LWPOLYLINE
  5
5BA
100
AcDbEntity
  8
RACCORDO
100
AcDbPolyline
 62
250
  6
CONTINUOUS
 90
31
 70
0
 10
-72.0797527471
 20
40.1163337878
 10
-72.0912162736
 20
40.1151021901
 10
-72.1023760304
 20
40.1138352915
 10
-72.1132279345
 20
40.1125542742
 10
-72.1237651591
 20
40.1112490878
 10
-72.1339800789
 20
40.1099105557
 10
-72.1438681884
 20
40.1085603024
 10
-72.1534239339
 20
40.1071883628
 10
-72.1626406159
 20
40.1057852701
 10
-72.1715131408
 20
40.1043727765
 10
-72.180037363
 20
40.1029412552
 10
-72.1882076156
 20
40.1014810407
 10
-72.1960181007
 20
40.1000136137
 10
-72.2034661548
 20
40.0985299784
 10
-72.2105472286
 20
40.097020401
 10
-72.2172548116
 20
40.0955056292
 10
-72.2235876947
 20
40.0939776055
 10
-72.2295424831
 20
40.0924266907
 10
-72.2351121229
 20
40.0908724175
 10
-72.2402966909
 20
40.0893079512
 10
-72.2450939048
 20
40.0877239325
 10
-72.249496571
 20
40.0861382283
 10
-72.2535057288
 20
40.0845454509
 10
-72.2571200525
 20
40.0829367112
 10
-72.2603328694
 20
40.0813278399
 10
-72.2631457259
 20
40.0797150352
 10
-72.2655579647
 20
40.0780900548
 10
-72.2675643018
 20
40.0764664293
 10
-72.2691648797
 20
40.0748468179
 10
-72.2703615433
 20
40.0732197472
 10
-72.2711530197
 20
40.0715794407
  0
LINE
  5
5BB
100
AcDbEntity
  8
RACCORDO
100
AcDbLine
 62
250
  6
CONTINUOUS
 10
-72.0559476409
 20
40.1187275135
 11
-72.0797527471
 21
40.1163337878
  0
LWPOLYLINE
  5
5BC
100
AcDbEntity
  8
RACCORDO
100
AcDbPolyline
 62
250
  6
CONTINUOUS
 90
3
 70
0
 10
-72.0181438594
 20
40.1221060917
 10
-72.0310136116
 20
40.1210020277
 10
-72.0559476409
 20
40.1187275135
  0
LWPOLYLINE
  5
5BD
100
AcDbEntity
  8
RACCORDO
100
AcDbPolyline
 62
250
  6
CONTINUOUS
 90
3
 70
0
 10
-71.9780027956
 20
40.1252202471
 10
-71.991628739
 20
40.1242064801
 10
-72.0181438594
 20
40.1221060917
  0
LWPOLYLINE
  5
5BE
100
AcDbEntity
  8
0
100
AcDbPolyline
 62
7
  6
CONTINUOUS
 90
8
 70
0
 43
0.3500000006
 10
0.9642857051
 20
49.7500012665
 10
1.8214286013
 20
49.7500012665
 10
2.2499999785
 20
50.1785702362
 10
2.2499999785
 20
51.0357127075
 10
1.8214286013
 20
51.4642862091
 10
0.9642857051
 20
51.4642862091
 10
0.9642857051
 20
52.750002182
 10
2.2499999785
 20
52.750002182
  0
LWPOLYLINE
  5
5BF
100
AcDbEntity
  8
0
100
AcDbPolyline
 62
7
  6
CONTINUOUS
 90
3
 70
0
 43
0.3500000006
 10
0.1071428532
 20
50.3928592529
 10
-1.3928570824
 20
50.3928592529
 10
-0.7500000165
 20
52.750002182
  0
LWPOLYLINE
  5
5C0
100
AcDbEntity
  8
RACCORDO
100
AcDbPolyline
 62
250
  6
CONTINUOUS
 90
3
 70
0
 10
71.9780027898
 20
40.1252202475
 10
72.0050123095
 20
40.1231715407
 10
72.0181438537
 20
40.1221060922
  0
LWPOLYLINE
  5
5C1
100
AcDbEntity
  8
RACCORDO
100
AcDbPolyline
 62
250
  6
CONTINUOUS
 90
3
 70
0
 10
72.0181438537
 20
40.1221060922
 10
72.0436178263
 20
40.1198790622
 10
72.0559476355
 20
40.1187275141
  0
LWPOLYLINE
  5
5C2
100
AcDbEntity
  8
RACCORDO
100
AcDbPolyline
 62
250
  6
CONTINUOUS
 90
32
 70
0
 10
72.0559476355
 20
40.1187275141
 10
72.0797527419
 20
40.1163337883
 10
72.0912162686
 20
40.1151021906
 10
72.1023760256
 20
40.1138352921
 10
72.1132279298
 20
40.1125542747
 10
72.1237651546
 20
40.1112490884
 10
72.1339800746
 20
40.1099105563
 10
72.1438681843
 20
40.108560303
 10
72.15342393
 20
40.1071883634
 10
72.1626406123
 20
40.1057852707
 10
72.1715131373
 20
40.1043727771
 10
72.1800373598
 20
40.1029412557
 10
72.1882076127
 20
40.1014810413
 10
72.1960180979
 20
40.1000136142
 10
72.2034661523
 20
40.0985299789
 10
72.2105472263
 20
40.0970204015
 10
72.2172548096
 20
40.0955056297
 10
72.2235876929
 20
40.0939776059
 10
72.2295424815
 20
40.0924266911
 10
72.2351121215
 20
40.0908724179
 10
72.2402966897
 20
40.0893079515
 10
72.2450939038
 20
40.0877239328
 10
72.2494965702
 20
40.0861382286
 10
72.2535057281
 20
40.0845454512
 10
72.2571200519
 20
40.0829367115
 10
72.2603328689
 20
40.0813278401
 10
72.2631457256
 20
40.0797150354
 10
72.2655579645
 20
40.0780900549
 10
72.2675643016
 20
40.0764664294
 10
72.2691648796
 20
40.0748468179
 10
72.2703615433
 20
40.0732197473
 10
72.2711530197
 20
40.0715794407
  0
LINE
  5
5C3
100
AcDbEntity
  8
RACCORDO
100
AcDbLine
 62
250
  6
CONTINUOUS
 10
49.8797475654
 20
22.5990218927
 11
49.8800185226
 21
22.598762809
  0
LWPOLYLINE
  5
5C4
100
AcDbEntity
  8
RACCORDO
100
AcDbPolyline
 62
250
  6
CONTINUOUS
 90
5
 70
0
 10
49.8917629115
 20
22.591601861
 10
49.903625646
 20
22.5839418558
 10
49.9153306605
 20
22.5760452129
 10
49.9268729853
 20
22.5679153666
 10
49.9382482383
 20
22.5595554868
  0
LWPOLYLINE
  5
5C5
100
AcDbEntity
  8
RACCORDO
100
AcDbPolyline
 62
250
  6
CONTINUOUS
 90
45
 70
0
 10
49.9604806487
 20
22.5421582853
 10
49.9713288196
 20
22.5331280491
 10
49.9819926613
 20
22.5238813676
 10
49.9924680171
 20
22.5144218362
 10
50.002750468
 20
22.5047534372
 10
50.0128355998
 20
22.49488031
 10
50.0227193358
 20
22.4848064722
 10
50.0323976832
 20
22.4745360212
 10
50.0418665027
 20
22.4640733652
 10
50.051121834
 20
22.4534229462
 10
50.0601601091
 20
22.4425889385
 10
50.0689779042
 20
22.43157546
 10
50.0775716069
 20
22.4203870493
 10
50.0859377962
 20
22.4090281892
 10
50.0940734234
 20
22.397502983
 10
50.1019753444
 20
22.3858158276
 10
50.1096401517
 20
22.3739717056
 10
50.1170645292
 20
22.3619756866
 10
50.1242456734
 20
22.3498322678
 10
50.1311804426
 20
22.3375467312
 10
50.1378652606
 20
22.3251254714
 10
50.1442973513
 20
22.3125738612
 10
50.1504743462
 20
22.2998967478
 10
50.1563935538
 20
22.2870998771
 10
50.162052214
 20
22.2741896109
 10
50.1674486752
 20
22.2611701316
 10
50.1725819338
 20
22.2480439259
 10
50.1774497977
 20
22.2348164652
 10
50.1820503122
 20
22.2214929196
 10
50.1863826161
 20
22.2080752481
 10
50.1904452342
 20
22.1945669436
 10
50.1942356429
 20
22.1809752527
 10
50.1977514937
 20
22.1673077974
 10
50.2009915068
 20
22.1535688417
 10
50.2039539001
 20
22.1397651824
 10
50.2066362281
 20
22.1259084041
 10
50.2090376432
 20
22.1120040767
 10
50.2111573774
 20
22.0980579938
 10
50.2129940222
 20
22.0840822287
 10
50.2145474539
 20
22.0700824276
 10
50.2158176446
 20
22.0560644273
 10
50.2168042917
 20
22.0420406655
 10
50.2175079256
 20
22.0280191103
 10
50.2179294603
 20
22.0140032179
 10
50.2180697435
 20
21.9999986429
  0
LINE
  5
5C6
100
AcDbEntity
  8
RACCORDO
100
AcDbLine
 62
7
  6
CONTINUOUS
 10
50.2533902224
 20
8.5240360125
 11
50.2845062061
 21
8.4460796597
  0
LINE
  5
5C7
100
AcDbEntity
  8
RACCORDO
100
AcDbLine
 62
250
  6
CONTINUOUS
 10
50.2180697434
 20
8.7093895131
 11
50.2728857341
 21
8.5720564063
  0
LWPOLYLINE
  5
5C8
100
AcDbEntity
  8
RACCORDO
100
AcDbPolyline
 62
7
  6
CONTINUOUS
 90
17
 70
0
 10
50.2534090028
 20
8.5239889679
 10
50.2511423859
 20
8.5297699442
 10
50.2467463491
 20
8.5416358762
 10
50.2427285138
 20
8.5533760917
 10
50.2390325956
 20
8.5651150014
 10
50.2356032485
 20
8.5770267763
 10
50.23243007
 20
8.5891819698
 10
50.2295447651
 20
8.6014967469
 10
50.2269647545
 20
8.6139171874
 10
50.2246959059
 20
8.6264273912
 10
50.222741184
 20
8.6390242781
 10
50.2211077201
 20
8.6516713139
 10
50.2197994283
 20
8.6643325144
 10
50.2188138363
 20
8.6770231778
 10
50.2181496993
 20
8.6897835321
 10
50.2178109819
 20
8.7026202534
 10
50.217765157
 20
8.7093895131
  0
LINE
  5
5C9
100
AcDbEntity
  8
RACCORDO
100
AcDbLine
 62
250
  6
CONTINUOUS
 10
50.2510344159
 20
8.5300613805
 11
50.2511423859
 21
8.5297699442
  0
LINE
  5
5CA
100
AcDbEntity
  8
RACCORDO
100
AcDbLine
 62
250
  6
CONTINUOUS
 10
50.24649036
 20
8.5423838828
 11
50.2467463491
 21
8.5416358762
  0
LWPOLYLINE
  5
5CB
100
AcDbEntity
  8
RACCORDO
100
AcDbPolyline
 62
250
  6
CONTINUOUS
 90
16
 70
0
 10
50.2728857341
 20
8.5720564063
 10
50.2734802577
 20
8.5703853667
 10
50.2740736361
 20
8.5683474872
 10
50.2746658693
 20
8.5659427677
 10
50.2752573378
 20
8.5631703931
 10
50.2758476611
 20
8.5600311785
 10
50.2764356976
 20
8.5565275693
 10
50.2770214431
 20
8.5526582958
 10
50.2776049018
 20
8.5484246275
 10
50.2781849449
 20
8.543832819
 10
50.2787615578
 20
8.5388816637
 10
50.2793347553
 20
8.533572368
 10
50.2799034526
 20
8.5279148057
 10
50.2804675866
 20
8.5219085031
 10
50.2810272206
 20
8.5155539338
 10
50.2815814595
 20
8.5088623915
  0
LINE
  5
5CC
100
AcDbEntity
  8
RACCORDO
100
AcDbLine
 62
250
  6
CONTINUOUS
 10
50.2423021164
 20
8.5547304075
 11
50.2427285138
 21
8.5533760917
  0
LINE
  5
5CD
100
AcDbEntity
  8
RACCORDO
100
AcDbLine
 62
250
  6
CONTINUOUS
 10
50.2383993131
 20
8.5673146965
 11
50.2415863785
 21
8.5570037215
  0
LINE
  5
5CE
100
AcDbEntity
  8
RACCORDO
100
AcDbLine
 62
250
  6
CONTINUOUS
 10
50.7057973647
 20
-39.0849074638
 11
50.6953758932
 21
-39.0038092008
  0
LINE
  5
5CF
100
AcDbEntity
  8
RACCORDO
100
AcDbLine
 62
250
  6
CONTINUOUS
 10
50.6953758932
 20
-39.0038092008
 11
50.6847080547
 21
-38.9175159637
  0
LINE
  5
5D0
100
AcDbEntity
  8
RACCORDO
100
AcDbLine
 62
250
  6
CONTINUOUS
 10
50.6847080547
 20
-38.9175159637
 11
50.6737823798
 21
-38.8256455196
  0
LINE
  5
5D1
100
AcDbEntity
  8
RACCORDO
100
AcDbLine
 62
250
  6
CONTINUOUS
 10
50.6737823798
 20
-38.8256455196
 11
50.6626202627
 21
-38.728078764
  0
LINE
  5
5D2
100
AcDbEntity
  8
RACCORDO
100
AcDbLine
 62
7
  6
CONTINUOUS
 10
50.2816203985
 20
8.4827173645
 11
50.2817623912
 21
8.4813688114
  0
LINE
  5
5D3
100
AcDbEntity
  8
RACCORDO
100
AcDbLine
 62
7
  6
CONTINUOUS
 10
50.2817623912
 20
8.4813688114
 11
50.2819548612
 21
8.4794334352
  0
LINE
  5
5D4
100
AcDbEntity
  8
RACCORDO
100
AcDbLine
 62
7
  6
CONTINUOUS
 10
50.2819548612
 20
8.4794334352
 11
50.2821911262
 21
8.4769186162
  0
LINE
  5
5D5
100
AcDbEntity
  8
RACCORDO
100
AcDbLine
 62
7
  6
CONTINUOUS
 10
50.2821911262
 20
8.4769186162
 11
50.2824666141
 21
8.4738172665
  0
LINE
  5
5D6
100
AcDbEntity
  8
RACCORDO
100
AcDbLine
 62
7
  6
CONTINUOUS
 10
50.2824666141
 20
8.4738172665
 11
50.2827769215
 21
8.4701261766
  0
LINE
  5
5D7
100
AcDbEntity
  8
RACCORDO
100
AcDbLine
 62
7
  6
CONTINUOUS
 10
50.2827769215
 20
8.4701261766
 11
50.2832960204
 21
8.463512884
  0
LINE
  5
5D8
100
AcDbEntity
  8
RACCORDO
100
AcDbLine
 62
250
  6
CONTINUOUS
 10
50.2815814595
 20
8.5088623915
 11
50.2826735659
 21
8.4944695674
  0
LINE
  5
5D9
100
AcDbEntity
  8
RACCORDO
100
AcDbLine
 62
7
  6
CONTINUOUS
 10
50.2832960204
 20
8.463512884
 11
50.2838711039
 21
8.4555753286
  0
LINE
  5
5DA
100
AcDbEntity
  8
RACCORDO
100
AcDbLine
 62
250
  6
CONTINUOUS
 10
50.2826735659
 20
8.4944695674
 11
50.2837422307
 21
8.4787574899
  0
LWPOLYLINE
  5
5DB
100
AcDbEntity
  8
RACCORDO
100
AcDbPolyline
 62
7
  6
CONTINUOUS
 90
3
 70
0
 10
50.2838711039
 20
8.4555753286
 10
50.2844902791
 20
8.4463300364
 10
50.2847051582
 20
8.4429520805
  0
LINE
  5
5DC
100
AcDbEntity
  8
RACCORDO
100
AcDbLine
 62
250
  6
CONTINUOUS
 10
50.9874699671
 20
40.1391612334
 11
50.9961972067
 21
37.4707458581
  0
LINE
  5
5DD
100
AcDbEntity
  8
RACCORDO
100
AcDbLine
 62
250
  6
CONTINUOUS
 10
50.9961972067
 20
37.4707458581
 11
51.0043240175
 21
34.8007734868
  0
LINE
  5
5DE
100
AcDbEntity
  8
RACCORDO
100
AcDbLine
 62
250
  6
CONTINUOUS
 10
51.0043240175
 20
34.8007734868
 11
51.0153880517
 21
30.7931382871
  0
LINE
  5
5DF
100
AcDbEntity
  8
RACCORDO
100
AcDbLine
 62
250
  6
CONTINUOUS
 10
51.0153880517
 20
30.7931382871
 11
51.0250996262
 21
26.7826243093
  0
LINE
  5
5E0
100
AcDbEntity
  8
RACCORDO
100
AcDbLine
 62
250
  6
CONTINUOUS
 10
51.0250996262
 20
26.7826243093
 11
51.033457833
 21
22.7696066451
  0
LINE
  5
5E1
100
AcDbEntity
  8
RACCORDO
100
AcDbLine
 62
250
  6
CONTINUOUS
 10
51.033457833
 20
22.7696066451
 11
51.0404618911
 21
18.7544605027
  0
LINE
  5
5E2
100
AcDbEntity
  8
RACCORDO
100
AcDbLine
 62
250
  6
CONTINUOUS
 10
51.0404618911
 20
18.7544605027
 11
51.0461111465
 21
14.7375611499
  0
LINE
  5
5E3
100
AcDbEntity
  8
RACCORDO
100
AcDbLine
 62
250
  6
CONTINUOUS
 10
51.0461111465
 20
14.7375611499
 11
51.0491243897
 21
12.0588396465
  0
LINE
  5
5E4
100
AcDbEntity
  8
RACCORDO
100
AcDbLine
 62
250
  6
CONTINUOUS
 10
51.0491243897
 20
12.0588396465
 11
51.0525145286
 21
8.039852749
  0
LINE
  5
5E5
100
AcDbEntity
  8
RACCORDO
100
AcDbLine
 62
250
  6
CONTINUOUS
 10
51.0525145286
 20
8.039852749
 11
51.0545487386
 21
4.0201142755
  0
LINE
  5
5E6
100
AcDbEntity
  8
RACCORDO
100
AcDbLine
 62
250
  6
CONTINUOUS
 10
51.0545487386
 20
4.0201142755
 11
51.0552268297
 21
-0.0000000001
  0
LINE
  5
5E7
100
AcDbEntity
  8
RACCORDO
100
AcDbLine
 62
250
  6
CONTINUOUS
 10
51.0552268297
 20
-0.0000000001
 11
51.0549254512
 21
-2.6800993819
  0
LINE
  5
5E8
100
AcDbEntity
  8
RACCORDO
100
AcDbLine
 62
250
  6
CONTINUOUS
 10
51.0549254512
 20
-2.6800993819
 11
51.0540213414
 21
-5.3600874136
  0
LINE
  5
5E9
100
AcDbEntity
  8
RACCORDO
100
AcDbLine
 62
250
  6
CONTINUOUS
 10
51.0540213414
 20
-5.3600874136
 11
51.0525145286
 21
-8.0398527491
  0
LWPOLYLINE
  5
5EA
100
AcDbEntity
  8
RACCORDO
100
AcDbPolyline
 62
250
  6
CONTINUOUS
 90
3
 70
0
 10
51.0525145286
 20
-8.0398527491
 10
51.0504050713
 20
-10.7192840518
 10
51.0491243897
 20
-12.0588396467
  0
LWPOLYLINE
  5
5EB
100
AcDbEntity
  8
RACCORDO
100
AcDbPolyline
 62
250
  6
CONTINUOUS
 90
3
 70
0
 10
51.0491243897
 20
-12.0588396467
 10
51.0461111465
 20
-14.73756115
 10
51.0443786388
 20
-16.0766992325
  0
LWPOLYLINE
  5
5EC
100
AcDbEntity
  8
RACCORDO
100
AcDbPolyline
 62
250
  6
CONTINUOUS
 90
3
 70
0
 10
51.0443786388
 20
-16.0766992325
 10
51.0404618911
 20
-18.7544605028
 10
51.0382777191
 20
-20.0930558875
  0
LWPOLYLINE
  5
5ED
100
AcDbEntity
  8
RACCORDO
100
AcDbPolyline
 62
250
  6
CONTINUOUS
 90
3
 70
0
 10
51.0382777191
 20
-20.0930558875
 10
51.033457833
 20
-22.7696066452
 10
51.0308222008
 20
-24.1075342226
  0
LINE
  5
5EE
100
AcDbEntity
  8
RACCORDO
100
AcDbLine
 62
250
  6
CONTINUOUS
 10
51.0308222008
 20
-24.1075342226
 11
51.0250996262
 21
-26.7826243094
  0
LWPOLYLINE
  5
5EF
100
AcDbEntity
  8
RACCORDO
100
AcDbPolyline
 62
250
  6
CONTINUOUS
 90
3
 70
0
 10
51.0250996262
 20
-26.7826243094
 10
51.0187755869
 20
-29.4566016346
 10
51.0153880517
 20
-30.7931382872
  0
LWPOLYLINE
  5
5F0
100
AcDbEntity
  8
RACCORDO
100
AcDbPolyline
 62
250
  6
CONTINUOUS
 90
3
 70
0
 10
51.0153880517
 20
-30.7931382872
 10
51.008162267
 20
-33.4652380908
 10
51.0043240175
 20
-34.8007734869
  0
LWPOLYLINE
  5
5F1
100
AcDbEntity
  8
RACCORDO
100
AcDbPolyline
 62
250
  6
CONTINUOUS
 90
4
 70
0
 10
51.0043240175
 20
-34.8007734869
 10
50.9961972067
 20
-37.4707458582
 10
50.9919086454
 20
-38.8051551004
 10
50.9874699671
 20
-40.1391612334
  0
LINE
  5
5F2
100
AcDbEntity
  8
RACCORDO
100
AcDbLine
 62
7
  6
CONTINUOUS
 10
50.2845271229
 20
-8.4457572054
 11
50.2839009369
 21
-8.4551462288
  0
LINE
  5
5F3
100
AcDbEntity
  8
RACCORDO
100
AcDbLine
 62
250
  6
CONTINUOUS
 10
50.2837405556
 20
-8.4787834934
 11
50.2826716733
 21
-8.4944959081
  0
LINE
  5
5F4
100
AcDbEntity
  8
RACCORDO
100
AcDbLine
 62
7
  6
CONTINUOUS
 10
50.2839009369
 20
-8.4551462288
 11
50.2833190654
 21
-8.4632071732
  0
LWPOLYLINE
  5
5F5
100
AcDbEntity
  8
RACCORDO
100
AcDbPolyline
 62
250
  6
CONTINUOUS
 90
17
 70
0
 10
50.2826716733
 20
-8.4944959081
 10
50.2815792423
 20
-8.5088899894
 10
50.2810248151
 20
-8.5155820549
 10
50.2804649837
 20
-8.5219370493
 10
50.2799006999
 20
-8.5279431636
 10
50.2793319171
 20
-8.5335996703
 10
50.2787586819
 20
-8.5389072969
 10
50.2781820859
 20
-8.5438564165
 10
50.277602117
 20
-8.5484458012
 10
50.2770187873
 20
-8.5526766789
 10
50.2764332252
 20
-8.556543107
 10
50.2758454177
 20
-8.5600438431
 10
50.2752553778
 20
-8.5631801296
 10
50.2746642727
 20
-8.5659497508
 10
50.2740724916
 20
-8.568351968
 10
50.2734796454
 20
-8.5703875198
 10
50.2728857341
 20
-8.5720564063
  0
LINE
  5
5F6
100
AcDbEntity
  8
RACCORDO
100
AcDbLine
 62
7
  6
CONTINUOUS
 10
50.2833190654
 20
-8.4632071732
 11
50.2827925086
 21
-8.4699352037
  0
LINE
  5
5F7
100
AcDbEntity
  8
RACCORDO
100
AcDbLine
 62
7
  6
CONTINUOUS
 10
50.2827925086
 20
-8.4699352037
 11
50.2824777267
 21
-8.473688825
  0
LINE
  5
5F8
100
AcDbEntity
  8
RACCORDO
100
AcDbLine
 62
7
  6
CONTINUOUS
 10
50.2824777267
 20
-8.473688825
 11
50.2821982286
 21
-8.4768410019
  0
LINE
  5
5F9
100
AcDbEntity
  8
RACCORDO
100
AcDbLine
 62
7
  6
CONTINUOUS
 10
50.2821982286
 20
-8.4768410019
 11
50.2819584692
 21
-8.4793959326
  0
LINE
  5
5FA
100
AcDbEntity
  8
RACCORDO
100
AcDbLine
 62
7
  6
CONTINUOUS
 10
50.2819584692
 20
-8.4793959326
 11
50.2817627111
 21
-8.4813655731
  0
LINE
  5
5FB
100
AcDbEntity
  8
RACCORDO
100
AcDbLine
 62
7
  6
CONTINUOUS
 10
50.2817627111
 20
-8.4813655731
 11
50.2816189954
 21
-8.4827304688
  0
LWPOLYLINE
  5
5FC
100
AcDbEntity
  8
RACCORDO
100
AcDbPolyline
 62
7
  6
CONTINUOUS
 90
3
 70
0
 10
50.2816189954
 20
-8.4827304688
 10
50.2815340628
 20
-8.483491776
 10
50.281516566
 20
-8.4836414829
  0
LINE
  5
5FD
100
AcDbEntity
  8
RACCORDO
100
AcDbLine
 62
250
  6
CONTINUOUS
 10
50.278823388
 20
-8.4939868156
 11
50.2810080108
 21
-8.4811111618
  0
LINE
  5
5FE
100
AcDbEntity
  8
RACCORDO
100
AcDbLine
 62
250
  6
CONTINUOUS
 10
50.2810080108
 20
-8.4811111618
 11
50.282484038
 21
-8.473614632
  0
LWPOLYLINE
  5
5FF
100
AcDbEntity
  8
RACCORDO
100
AcDbPolyline
 62
250
  6
CONTINUOUS
 90
64
 70
0
 10
50.2778697466
 20
-23.1091934641
 10
50.2770788574
 20
-23.1127417543
 10
50.2758722584
 20
-23.1162879336
 10
50.2742506675
 20
-23.1198298924
 10
50.2722150493
 20
-23.1233655236
 10
50.2697666148
 20
-23.1268927237
 10
50.2669068207
 20
-23.1304093944
 10
50.2636373681
 20
-23.1339134436
 10
50.2599602022
 20
-23.1374027868
 10
50.2558775105
 20
-23.1408753481
 10
50.2513917219
 20
-23.1443290617
 10
50.2465055048
 20
-23.147761873
 10
50.2412217663
 20
-23.1511717397
 10
50.2355436495
 20
-23.1545566332
 10
50.2294745325
 20
-23.15791454
 10
50.2230180258
 20
-23.1612434623
 10
50.2161779705
 20
-23.1645414198
 10
50.2089584356
 20
-23.1678064505
 10
50.2013637162
 20
-23.171036612
 10
50.1933983303
 20
-23.1742299827
 10
50.1850670168
 20
-23.1773846628
 10
50.1763747318
 20
-23.1804987755
 10
50.1673266464
 20
-23.1835704684
 10
50.1579281436
 20
-23.1865979139
 10
50.1481848143
 20
-23.1895793111
 10
50.1381024551
 20
-23.1925128863
 10
50.127687064
 20
-23.1953968943
 10
50.1169448371
 20
-23.1982296194
 10
50.1058821651
 20
-23.2010093764
 10
50.0945056292
 20
-23.2037345116
 10
50.0828219974
 20
-23.2064034038
 10
50.0708382203
 20
-23.2090144652
 10
50.0585614271
 20
-23.2115661426
 10
50.0459989214
 20
-23.2140569179
 10
50.0331581768
 20
-23.2164853093
 10
50.0200468321
 20
-23.2188498723
 10
50.0066726875
 20
-23.2211492
 10
49.9930436993
 20
-23.2233819246
 10
49.9791679755
 20
-23.2255467178
 10
49.9650537707
 20
-23.2276422918
 10
49.9507094817
 20
-23.2296674
 10
49.9361436419
 20
-23.2316208375
 10
49.9213649166
 20
-23.2335014423
 10
49.9063820978
 20
-23.2353080956
 10
49.8912040989
 20
-23.2370397226
 10
49.8758399492
 20
-23.2386952931
 10
49.8602987891
 20
-23.2402738222
 10
49.8445898641
 20
-23.2417743709
 10
49.8287225194
 20
-23.2431960465
 10
49.8127061948
 20
-23.2445380032
 10
49.7965504182
 20
-23.2457994426
 10
49.780264801
 20
-23.2469796144
 10
49.7638590316
 20
-23.2480778164
 10
49.7473428698
 20
-23.2490933954
 10
49.7307261411
 20
-23.250025747
 10
49.7140187311
 20
-23.2508743168
 10
49.6972305789
 20
-23.2516385998
 10
49.680371672
 20
-23.2523181414
 10
49.6634520398
 20
-23.2529125373
 10
49.646481748
 20
-23.2534214339
 10
49.6294708922
 20
-23.2538445285
 10
49.6124295923
 20
-23.2541815694
 10
49.5953679863
 20
-23.254432356
 10
49.5782962241
 20
-23.2545967392
  0
LWPOLYLINE
  5
600
100
AcDbEntity
  8
RACCORDO
100
AcDbPolyline
 62
250
  6
CONTINUOUS
 90
64
 70
0
 10
50.277869803
 20
23.1091934641
 10
50.2770789122
 20
23.1127417543
 10
50.2758723115
 20
23.1162879335
 10
50.274250719
 20
23.1198298922
 10
50.2722150991
 20
23.1233655233
 10
50.2697666631
 20
23.1268927233
 10
50.2669068673
 20
23.130409394
 10
50.2636374132
 20
23.1339134431
 10
50.2599602458
 20
23.1374027862
 10
50.2558775526
 20
23.1408753474
 10
50.2513917625
 20
23.1443290609
 10
50.246505544
 20
23.147761872
 10
50.241221804
 20
23.1511717386
 10
50.2355436859
 20
23.154556632
 10
50.2294745675
 20
23.1579145387
 10
50.2230180595
 20
23.1612434609
 10
50.2161780028
 20
23.1645414182
 10
50.2089584667
 20
23.1678064488
 10
50.201363746
 20
23.1710366101
 10
50.193398359
 20
23.1742299807
 10
50.1850670442
 20
23.1773846606
 10
50.176374758
 20
23.1804987732
 10
50.1673266716
 20
23.1835704659
 10
50.1579281676
 20
23.1865979112
 10
50.1481848373
 20
23.1895793083
 10
50.1381024771
 20
23.1925128833
 10
50.1276870849
 20
23.1953968912
 10
50.1169448571
 20
23.1982296161
 10
50.1058821841
 20
23.2010093729
 10
50.0945056473
 20
23.203734508
 10
50.0828220146
 20
23.2064034
 10
50.0708382366
 20
23.2090144613
 10
50.0585614426
 20
23.2115661385
 10
50.0459989362
 20
23.2140569137
 10
50.0331581907
 20
23.216485305
 10
50.0200468453
 20
23.2188498677
 10
50.0066727
 20
23.2211491953
 10
49.9930437111
 20
23.2233819197
 10
49.9791679865
 20
23.2255467128
 10
49.9650537811
 20
23.2276422867
 10
49.9507094915
 20
23.2296673947
 10
49.9361436511
 20
23.2316208321
 10
49.9213649252
 20
23.2335014368
 10
49.9063821059
 20
23.23530809
 10
49.8912041064
 20
23.2370397168
 10
49.8758399562
 20
23.2386952872
 10
49.8602987956
 20
23.2402738163
 10
49.8445898701
 20
23.2417743648
 10
49.828722525
 20
23.2431960403
 10
49.8127061998
 20
23.2445379969
 10
49.7965504229
 20
23.2457994362
 10
49.7802648053
 20
23.2469796079
 10
49.7638590354
 20
23.2480778099
 10
49.7473428732
 20
23.2490933887
 10
49.7307261442
 20
23.2500257403
 10
49.7140187338
 20
23.25087431
 10
49.6972305812
 20
23.251638593
 10
49.680371674
 20
23.2523181345
 10
49.6634520415
 20
23.2529125304
 10
49.6464817493
 20
23.253421427
 10
49.6294708932
 20
23.2538445216
 10
49.6124295929
 20
23.2541815624
 10
49.5953679866
 20
23.254432349
 10
49.5782962241
 20
23.2545967321
  0
LINE
  5
601
100
AcDbEntity
  8
RACCORDO
100
AcDbLine
 62
250
  6
CONTINUOUS
 10
50.2810080132
 20
8.4811111489
 11
50.2824837807
 21
8.4736159389
  0
LINE
  5
602
100
AcDbEntity
  8
RACCORDO
100
AcDbLine
 62
250
  6
CONTINUOUS
 10
50.2788233898
 20
8.4939868042
 11
50.2810080132
 21
8.4811111489
  0
LINE
  5
603
100
AcDbEntity
  8
RACCORDO
100
AcDbLine
 62
7
  6
CONTINUOUS
 10
50.2815632999
 20
8.4832741908
 11
50.2815315416
 21
8.4835221626
  0
LWPOLYLINE
  5
604
100
AcDbEntity
  8
RACCORDO
100
AcDbPolyline
 62
7
  6
CONTINUOUS
 90
3
 70
0
 10
50.2815165407
 20
8.4836417704
 10
50.281570011
 20
8.4831748953
 10
50.2816203985
 20
8.4827173645
  0
LWPOLYLINE
  5
605
100
AcDbEntity
  8
RACCORDO
100
AcDbPolyline
 62
250
  6
CONTINUOUS
 90
38
 70
0
 10
50.3256196048
 20
-31.4398938162
 10
50.3248654265
 20
-31.4417825568
 10
50.3237327105
 20
-31.4436702755
 10
50.3222220697
 20
-31.4455559499
 10
50.3203343212
 20
-31.4474385588
 10
50.318070487
 20
-31.4493170822
 10
50.3154317946
 20
-31.4511905011
 10
50.312419674
 20
-31.4530578003
 10
50.3090357563
 20
-31.4549179689
 10
50.3052818745
 20
-31.4567699991
 10
50.301160062
 20
-31.4586128878
 10
50.2966725515
 20
-31.4604456366
 10
50.2918217738
 20
-31.4622672529
 10
50.2866103566
 20
-31.4640767499
 10
50.2810411227
 20
-31.4658731474
 10
50.2751170888
 20
-31.4676554723
 10
50.2688414641
 20
-31.4694227592
 10
50.2622176477
 20
-31.4711740507
 10
50.2552492278
 20
-31.4729083983
 10
50.247939979
 20
-31.4746248624
 10
50.2402938606
 20
-31.4763225134
 10
50.2323150143
 20
-31.4780004315
 10
50.2240077623
 20
-31.4796577079
 10
50.2153766043
 20
-31.4812934448
 10
50.2064262157
 20
-31.4829067563
 10
50.1971614448
 20
-31.4844967684
 10
50.1875873101
 20
-31.4860626198
 10
50.1777089979
 20
-31.4876034624
 10
50.1675318589
 20
-31.4891184614
 10
50.157061406
 20
-31.4906067963
 10
50.1463033109
 20
-31.4920676608
 10
50.1352634009
 20
-31.4935002636
 10
50.1239476563
 20
-31.4949038287
 10
50.1123622066
 20
-31.4962775958
 10
50.1005133275
 20
-31.4976208207
 10
50.0884074372
 20
-31.4989327759
 10
50.0760510933
 20
-31.5002127507
 10
50.063450989
 20
-31.5014600517
  0
LINE
  5
606
100
AcDbEntity
  8
RACCORDO
100
AcDbLine
 62
7
  6
CONTINUOUS
 10
72.4840613881
 20
3.635045565
 11
72.4397216282
 21
3.5239590572
  0
LINE
  5
607
100
AcDbEntity
  8
RACCORDO
100
AcDbLine
 62
7
  6
CONTINUOUS
 10
50.9874699669
 20
-40.1391612329
 11
50.964624191
 21
-40.161817102
  0
LWPOLYLINE
  5
608
100
AcDbEntity
  8
RACCORDO
100
AcDbPolyline
 62
7
  6
CONTINUOUS
 90
61
 70
0
 10
50.964624191
 20
-40.161817102
 10
50.964001792
 20
-40.1624130665
 10
50.9633453536
 20
-40.1630039753
 10
50.9626548753
 20
-40.1635898298
 10
50.9619285944
 20
-40.1641714931
 10
50.9611682734
 20
-40.1647481044
 10
50.9603792001
 20
-40.1653170797
 10
50.9595618141
 20
-40.1658778225
 10
50.9587156751
 20
-40.1664309337
 10
50.9578447514
 20
-40.1669756259
 10
50.9569511101
 20
-40.1675108417
 10
50.9560326833
 20
-40.1680376433
 10
50.9550872364
 20
-40.1685584228
 10
50.9541156079
 20
-40.1690731927
 10
50.9531169588
 20
-40.1695819435
 10
50.9520865386
 20
-40.1700870327
 10
50.9510244758
 20
-40.1705888035
 10
50.9499306416
 20
-40.1710869144
 10
50.9487998989
 20
-40.1715826947
 10
50.9476323765
 20
-40.1720764113
 10
50.9464279456
 20
-40.1725677981
 10
50.945181083
 20
-40.1730573847
 10
50.9438918291
 20
-40.1735454337
 10
50.9425601436
 20
-40.174031683
 10
50.9411803826
 20
-40.1745158743
 10
50.9397524704
 20
-40.1749982805
 10
50.9382764826
 20
-40.1754786294
 10
50.9367470021
 20
-40.1759558451
 10
50.9351637796
 20
-40.1764302139
 10
50.9335270642
 20
-40.1769014509
 10
50.9318321863
 20
-40.177367624
 10
50.9300786782
 20
-40.1778290151
 10
50.9282670073
 20
-40.178285345
 10
50.9263939062
 20
-40.1787338412
 10
50.9244598465
 20
-40.1791745573
 10
50.9224643561
 20
-40.1796074441
 10
50.9204027524
 20
-40.1800295762
 10
50.9182769023
 20
-40.1804409283
 10
50.9160849382
 20
-40.1808415316
 10
50.9138165754
 20
-40.1812285474
 10
50.9114712834
 20
-40.1816025092
 10
50.9090495919
 20
-40.1819628902
 10
50.9065428061
 20
-40.1823052639
 10
50.9039505069
 20
-40.182630078
 10
50.9012731126
 20
-40.1829368928
 10
50.8985031836
 20
-40.1832199523
 10
50.8956404775
 20
-40.1834796957
 10
50.8926852357
 20
-40.1837156927
 10
50.8896307448
 20
-40.1839208845
 10
50.8864774964
 20
-40.1840957416
 10
50.883224998
 20
-40.1842398017
 10
50.8798650598
 20
-40.1843446082
 10
50.8764005728
 20
-40.1844108548
 10
50.8728286454
 20
-40.1844378526
 10
50.8691324137
 20
-40.1844150707
 10
50.8653317373
 20
-40.1843450119
 10
50.8614067566
 20
-40.1842251702
 10
50.8572810298
 20
-40.1840374966
 10
50.8529290768
 20
-40.1837759668
 10
50.8483763796
 20
-40.1834465831
 10
50.8436229395
 20
-40.1830493298
  0
LINE
  5
609
100
AcDbEntity
  8
RACCORDO
100
AcDbLine
 62
7
  6
CONTINUOUS
 10
50.9646237543
 20
40.161817534
 11
50.987469967
 21
40.1391612329
  0
LINE
  5
60A
100
AcDbEntity
  8
RACCORDO
100
AcDbLine
 62
7
  6
CONTINUOUS
 10
72.4840613881
 20
-3.635045565
 11
72.4397216282
 21
-3.5239590572
  0
LINE
  5
60B
100
AcDbEntity
  8
RACCORDO
100
AcDbLine
 62
250
  6
CONTINUOUS
 10
71.5769478249
 20
40.6808978356
 11
71.5761925212
 21
40.7040964368
  0
LINE
  5
60C
100
AcDbEntity
  8
RACCORDO
100
AcDbLine
 62
250
  6
CONTINUOUS
 10
71.5779074471
 20
40.6450823755
 11
71.5769478249
 21
40.6808978356
  0
LINE
  5
60D
100
AcDbEntity
  8
RACCORDO
100
AcDbLine
 62
250
  6
CONTINUOUS
 10
71.5794443229
 20
40.5699351203
 11
71.5779074471
 21
40.6450823755
  0
LINE
  5
60E
100
AcDbEntity
  8
RACCORDO
100
AcDbLine
 62
250
  6
CONTINUOUS
 10
71.5800390742
 20
40.5332994594
 11
71.5794443229
 21
40.5699351203
  0
LWPOLYLINE
  5
60F
100
AcDbEntity
  8
RACCORDO
100
AcDbPolyline
 62
250
  6
CONTINUOUS
 90
70
 70
0
 10
72.2711530197
 20
40.0715794407
 10
72.2709526763
 20
40.0874905589
 10
72.270390493
 20
40.1033937366
 10
72.2694667407
 20
40.1192807452
 10
72.2681818677
 20
40.13514346
 10
72.2665365242
 20
40.1509735752
 10
72.2645315842
 20
40.1667626102
 10
72.2621681021
 20
40.1825023003
 10
72.2594472882
 20
40.1981845968
 10
72.2563705483
 20
40.213801383
 10
72.2529394735
 20
40.2293445773
 10
72.24915584
 20
40.2448061381
 10
72.2450216066
 20
40.260178066
 10
72.2405389127
 20
40.2754524074
 10
72.2357100775
 20
40.2906212585
 10
72.2305375993
 20
40.3056767702
 10
72.2250241543
 20
40.3206111519
 10
72.2191725956
 20
40.3354166765
 10
72.2129859509
 20
40.350085683
 10
72.2064674215
 20
40.3646105814
 10
72.1996203804
 20
40.3789838558
 10
72.1924483702
 20
40.3931980692
 10
72.1849551022
 20
40.4072458665
 10
72.1771444534
 20
40.421119979
 10
72.1690204654
 20
40.4348132277
 10
72.1605873419
 20
40.4483185274
 10
72.1518494464
 20
40.46162889
 10
72.1428113002
 20
40.4747374281
 10
72.1334775798
 20
40.4876373591
 10
72.123853115
 20
40.5003220081
 10
72.1139428856
 20
40.5127848116
 10
72.1037520195
 20
40.525019321
 10
72.0932857899
 20
40.5370192056
 10
72.0825496123
 20
40.5487782565
 10
72.071549042
 20
40.560290389
 10
72.060289771
 20
40.5715496464
 10
72.0487776252
 20
40.5825502029
 10
72.0370185613
 20
40.5932863662
 10
72.025018664
 20
40.6037525813
 10
72.0127841424
 20
40.6139434325
 10
72.000321327
 20
40.6238536468
 10
71.9876366664
 20
40.6334780963
 10
71.9747367242
 20
40.642811801
 10
71.9616281751
 20
40.6518499314
 10
71.948317802
 20
40.6605878107
 10
71.9348124922
 20
40.6690209178
 10
71.9211192336
 20
40.677144889
 10
71.9072451117
 20
40.6849555208
 10
71.8931973053
 20
40.6924487717
 10
71.8789830833
 20
40.6996207645
 10
71.8646098005
 20
40.7064677881
 10
71.8500848942
 20
40.7129862996
 10
71.8354158801
 20
40.7191729262
 10
71.8206103483
 20
40.7250244666
 10
71.8056759598
 20
40.7305378932
 10
71.790620442
 20
40.735710353
 10
71.7754515852
 20
40.7405391698
 10
71.7601772383
 20
40.7450218448
 10
71.7448053048
 20
40.7491560588
 10
71.7293437386
 20
40.7529396725
 10
71.7138005399
 20
40.7563707279
 10
71.698183751
 20
40.7594474495
 10
71.6825014527
 20
40.7621682455
 10
71.6667617601
 20
40.7645317087
 10
71.6509726891
 20
40.7665366311
 10
71.6351425371
 20
40.7681819544
 10
71.6192798825
 20
40.7694667999
 10
71.603393064
 20
40.7703905231
 10
71.587490174
 20
40.7709526844
 10
71.5715794407
 20
40.7711530197
  0
LINE
  5
610
100
AcDbEntity
  8
RACCORDO
100
AcDbLine
 62
250
  6
CONTINUOUS
 10
71.581549574
 20
40.4098708516
 11
71.5800390742
 21
40.5332994594
  0
LINE
  5
611
100
AcDbEntity
  8
RACCORDO
100
AcDbLine
 62
250
  6
CONTINUOUS
 10
71.5825971075
 20
40.2707354957
 11
71.581549574
 21
40.4098708516
  0
LINE
  5
612
100
AcDbEntity
  8
RACCORDO
100
AcDbLine
 62
250
  6
CONTINUOUS
 10
71.5831020457
 20
-40.1390855945
 11
71.5743749636
 21
-37.4706797694
  0
LINE
  5
613
100
AcDbEntity
  8
RACCORDO
100
AcDbLine
 62
250
  6
CONTINUOUS
 10
72.2711530197
 20
-40.0715794407
 11
72.2624357712
 21
-37.4076451497
  0
LWPOLYLINE
  5
614
100
AcDbEntity
  8
RACCORDO
100
AcDbPolyline
 62
250
  6
CONTINUOUS
 90
3
 70
0
 10
71.5743749636
 20
-37.4706797694
 10
71.5662482884
 20
-34.8007135302
 10
71.5624100985
 20
-33.4651798816
  0
LWPOLYLINE
  5
615
100
AcDbEntity
  8
RACCORDO
100
AcDbPolyline
 62
250
  6
CONTINUOUS
 90
3
 70
0
 10
72.2624357712
 20
-37.4076451497
 10
72.2543182488
 20
-34.742193089
 10
72.2504843797
 20
-33.4088961157
  0
LWPOLYLINE
  5
616
100
AcDbEntity
  8
RACCORDO
100
AcDbPolyline
 62
250
  6
CONTINUOUS
 90
3
 70
0
 10
71.5624100985
 20
-33.4651798816
 10
71.5551844266
 20
-30.7930838639
 10
71.5517969449
 20
-29.4565492487
  0
LWPOLYLINE
  5
617
100
AcDbEntity
  8
RACCORDO
100
AcDbPolyline
 62
250
  6
CONTINUOUS
 90
3
 70
0
 10
71.5831020457
 20
40.1390855945
 10
71.5830058237
 20
40.1724191667
 10
71.5825971075
 20
40.2707354957
  0
LWPOLYLINE
  5
618
100
AcDbEntity
  8
RACCORDO
100
AcDbPolyline
 62
250
  6
CONTINUOUS
 90
3
 70
0
 10
72.2504843797
 20
-33.4088961157
 10
72.2432668426
 20
-30.7413029885
 10
72.2398831746
 20
-29.4070068345
  0
LWPOLYLINE
  5
619
100
AcDbEntity
  8
RACCORDO
100
AcDbPolyline
 62
250
  6
CONTINUOUS
 90
3
 70
0
 10
71.5517969449
 20
-29.4565492487
 10
71.5454730056
 20
-26.7825761629
 10
71.5425365483
 20
-25.4451654656
  0
LWPOLYLINE
  5
61A
100
AcDbEntity
  8
RACCORDO
100
AcDbPolyline
 62
250
  6
CONTINUOUS
 90
3
 70
0
 10
72.2398831746
 20
-29.4070068345
 10
72.2335663553
 20
-26.7375399066
 10
72.2306332039
 20
-25.4023691327
  0
LWPOLYLINE
  5
61B
100
AcDbEntity
  8
RACCORDO
100
AcDbPolyline
 62
250
  6
CONTINUOUS
 90
3
 70
0
 10
71.5425365483
 20
-25.4451654656
 10
71.5371149322
 20
-22.7695653335
 10
71.5346297736
 20
-21.4314036887
  0
LWPOLYLINE
  5
61C
100
AcDbEntity
  8
RACCORDO
100
AcDbPolyline
 62
250
  6
CONTINUOUS
 90
3
 70
0
 10
72.2306332039
 20
-25.4023691327
 10
72.2252176918
 20
-22.7312778902
 10
72.2227353311
 20
-21.3953574217
  0
LWPOLYLINE
  5
61D
100
AcDbEntity
  8
RACCORDO
100
AcDbPolyline
 62
250
  6
CONTINUOUS
 90
3
 70
0
 10
71.5346297736
 20
-21.4314036887
 10
71.5301109866
 20
-18.754426546
 10
71.5280773584
 20
-17.4156388522
  0
LWPOLYLINE
  5
61E
100
AcDbEntity
  8
RACCORDO
100
AcDbPolyline
 62
250
  6
CONTINUOUS
 90
3
 70
0
 10
72.2227353311
 20
-21.3953574217
 10
72.2182216317
 20
-18.7228914791
 10
72.216190293
 20
-17.3863460052
  0
LINE
  5
61F
100
AcDbEntity
  8
RACCORDO
100
AcDbLine
 62
250
  6
CONTINUOUS
 10
71.5280773584
 20
-17.4156388522
 11
71.524461822
 21
-14.7375345771
  0
LINE
  5
620
100
AcDbEntity
  8
RACCORDO
100
AcDbLine
 62
250
  6
CONTINUOUS
 10
72.216190293
 20
-17.3863460052
 11
72.2125788272
 21
-14.71275482
  0
LWPOLYLINE
  5
621
100
AcDbEntity
  8
RACCORDO
100
AcDbPolyline
 62
250
  6
CONTINUOUS
 90
3
 70
0
 10
71.524461822
 20
-14.7375345771
 10
71.521448627
 20
-12.0588178684
 10
71.5201679659
 20
-10.7192646568
  0
LWPOLYLINE
  5
622
100
AcDbEntity
  8
RACCORDO
100
AcDbPolyline
 62
250
  6
CONTINUOUS
 90
3
 70
0
 10
72.2125788272
 20
-14.71275482
 10
72.2095690245
 20
-12.0385383414
 10
72.2082898052
 20
-10.7012425119
  0
LWPOLYLINE
  5
623
100
AcDbEntity
  8
RACCORDO
100
AcDbPolyline
 62
250
  6
CONTINUOUS
 90
3
 70
0
 10
71.5201679659
 20
-10.7192646568
 10
71.5180585423
 20
-8.0398381155
 10
71.5172298198
 20
-6.6999926509
  0
LWPOLYLINE
  5
624
100
AcDbEntity
  8
RACCORDO
100
AcDbPolyline
 62
250
  6
CONTINUOUS
 90
3
 70
0
 10
72.2082898052
 20
-10.7012425119
 10
72.2061827566
 20
-8.0263173831
 10
72.205354967
 20
-6.6887297889
  0
LINE
  5
625
100
AcDbEntity
  8
RACCORDO
100
AcDbLine
 62
250
  6
CONTINUOUS
 10
71.5172298198
 20
-6.6999926509
 11
71.5160243649
 21
-4.0201068951
  0
LINE
  5
626
100
AcDbEntity
  8
RACCORDO
100
AcDbLine
 62
250
  6
CONTINUOUS
 10
72.205354967
 20
-6.6887297889
 11
72.2041508693
 21
-4.013346207
  0
LINE
  5
627
100
AcDbEntity
  8
RACCORDO
100
AcDbLine
 62
250
  6
CONTINUOUS
 10
71.5160243649
 20
-4.0201068951
 11
71.5154216293
 21
-1.3400541541
  0
LINE
  5
628
100
AcDbEntity
  8
RACCORDO
100
AcDbLine
 62
250
  6
CONTINUOUS
 10
72.2041508693
 20
-4.013346207
 11
72.2035488123
 21
-1.3377959118
  0
LINE
  5
629
100
AcDbEntity
  8
RACCORDO
100
AcDbLine
 62
7
  6
CONTINUOUS
 10
72.430158461
 20
-3.2251006478
 11
72.430158461
 21
3.2251006478
  0
LINE
  5
62A
100
AcDbEntity
  8
RACCORDO
100
AcDbLine
 62
7
  6
CONTINUOUS
 10
72.5
 20
-40.3004264211
 11
72.5
 21
-4.1331429141
  0
LINE
  5
62B
100
AcDbEntity
  8
RACCORDO
100
AcDbLine
 62
7
  6
CONTINUOUS
 10
72.5
 20
4.1331429141
 11
72.5
 21
40.3004264211
  0
LINE
  5
62C
100
AcDbEntity
  8
RACCORDO
100
AcDbLine
 62
250
  6
CONTINUOUS
 10
71.5154216293
 20
-1.3400541541
 11
71.5154216293
 21
1.3400542529
  0
LINE
  5
62D
100
AcDbEntity
  8
RACCORDO
100
AcDbLine
 62
250
  6
CONTINUOUS
 10
72.2035488123
 20
-1.3377959118
 11
72.2035488123
 21
1.3377960612
  0
LINE
  5
62E
100
AcDbEntity
  8
RACCORDO
100
AcDbLine
 62
250
  6
CONTINUOUS
 10
71.5154216293
 20
1.3400542529
 11
71.516024365
 21
4.0201069939
  0
LINE
  5
62F
100
AcDbEntity
  8
RACCORDO
100
AcDbLine
 62
250
  6
CONTINUOUS
 10
72.2035488123
 20
1.3377960612
 11
72.2041508694
 21
4.0133463551
  0
LINE
  5
630
100
AcDbEntity
  8
RACCORDO
100
AcDbLine
 62
250
  6
CONTINUOUS
 10
71.516024365
 20
4.0201069939
 11
71.5172298199
 21
6.6999927499
  0
LINE
  5
631
100
AcDbEntity
  8
RACCORDO
100
AcDbLine
 62
250
  6
CONTINUOUS
 10
72.2041508694
 20
4.0133463551
 11
72.2053549671
 21
6.6887299359
  0
LINE
  5
632
100
AcDbEntity
  8
RACCORDO
100
AcDbLine
 62
250
  6
CONTINUOUS
 10
71.5172298199
 20
6.6999927499
 11
71.520167966
 21
10.7192647552
  0
LINE
  5
633
100
AcDbEntity
  8
RACCORDO
100
AcDbLine
 62
250
  6
CONTINUOUS
 10
72.2053549671
 20
6.6887299359
 11
72.2082898054
 21
10.7012426566
  0
LINE
  5
634
100
AcDbEntity
  8
RACCORDO
100
AcDbLine
 62
250
  6
CONTINUOUS
 10
71.520167966
 20
10.7192647552
 11
71.5244618221
 21
14.7375346751
  0
LINE
  5
635
100
AcDbEntity
  8
RACCORDO
100
AcDbLine
 62
250
  6
CONTINUOUS
 10
72.2082898054
 20
10.7012426566
 11
72.2125788273
 21
14.7127549624
  0
LINE
  5
636
100
AcDbEntity
  8
RACCORDO
100
AcDbLine
 62
250
  6
CONTINUOUS
 10
71.5244618221
 20
14.7375346751
 11
71.5301109868
 21
18.7544266452
  0
LINE
  5
637
100
AcDbEntity
  8
RACCORDO
100
AcDbLine
 62
250
  6
CONTINUOUS
 10
72.2125788273
 20
14.7127549624
 11
72.2182216319
 21
18.7228916211
  0
LINE
  5
638
100
AcDbEntity
  8
RACCORDO
100
AcDbLine
 62
250
  6
CONTINUOUS
 10
71.5301109868
 20
18.7544266452
 11
71.5371149324
 21
22.7695654341
  0
LINE
  5
639
100
AcDbEntity
  8
RACCORDO
100
AcDbLine
 62
250
  6
CONTINUOUS
 10
72.2182216319
 20
18.7228916211
 11
72.2252176921
 21
22.7312780319
  0
LINE
  5
63A
100
AcDbEntity
  8
RACCORDO
100
AcDbLine
 62
250
  6
CONTINUOUS
 10
71.5371149324
 20
22.7695654341
 11
71.5454730059
 21
26.7825762618
  0
LINE
  5
63B
100
AcDbEntity
  8
RACCORDO
100
AcDbLine
 62
250
  6
CONTINUOUS
 10
72.2252176921
 20
22.7312780319
 11
72.2335663556
 21
26.7375400448
  0
LINE
  5
63C
100
AcDbEntity
  8
RACCORDO
100
AcDbLine
 62
250
  6
CONTINUOUS
 10
71.5454730059
 20
26.7825762618
 11
71.5517969451
 21
29.4565493445
  0
LINE
  5
63D
100
AcDbEntity
  8
RACCORDO
100
AcDbLine
 62
250
  6
CONTINUOUS
 10
72.2335663556
 20
26.7375400448
 11
72.239883175
 21
29.4070069685
  0
LINE
  5
63E
100
AcDbEntity
  8
RACCORDO
100
AcDbLine
 62
250
  6
CONTINUOUS
 10
71.5517969451
 20
29.4565493445
 11
71.5624100987
 21
33.4651799748
  0
LINE
  5
63F
100
AcDbEntity
  8
RACCORDO
100
AcDbLine
 62
250
  6
CONTINUOUS
 10
72.239883175
 20
29.4070069685
 11
72.25048438
 21
33.4088962467
  0
LWPOLYLINE
  5
640
100
AcDbEntity
  8
RACCORDO
100
AcDbPolyline
 62
250
  6
CONTINUOUS
 90
4
 70
0
 10
71.5624100987
 20
33.4651799748
 10
71.5743749638
 20
37.4706798362
 10
71.5786634489
 20
38.8050846676
 10
71.5831020457
 20
40.1390855945
  0
LWPOLYLINE
  5
641
100
AcDbEntity
  8
RACCORDO
100
AcDbPolyline
 62
250
  6
CONTINUOUS
 90
4
 70
0
 10
72.25048438
 20
33.4088962467
 10
72.2624357715
 20
37.4076452439
 10
72.2667194247
 20
38.7398002905
 10
72.2711530197
 20
40.0715794407
  0
LINE
  5
642
100
AcDbEntity
  8
RACCORDO
100
AcDbLine
 62
250
  6
CONTINUOUS
 10
71.5831020457
 20
-40.1390855945
 11
71.5825971075
 21
-40.27073549
  0
LINE
  5
643
100
AcDbEntity
  8
RACCORDO
100
AcDbLine
 62
250
  6
CONTINUOUS
 10
71.5825971075
 20
-40.27073549
 11
71.5816956801
 21
-40.3950756005
  0
LINE
  5
644
100
AcDbEntity
  8
RACCORDO
100
AcDbLine
 62
250
  6
CONTINUOUS
 10
71.5816956801
 20
-40.3950756005
 11
71.5805900739
 21
-40.4942736144
  0
LINE
  5
645
100
AcDbEntity
  8
RACCORDO
100
AcDbLine
 62
250
  6
CONTINUOUS
 10
71.5805900739
 20
-40.4942736144
 11
71.5790318413
 21
-40.5929373107
  0
LINE
  5
646
100
AcDbEntity
  8
RACCORDO
100
AcDbLine
 62
250
  6
CONTINUOUS
 10
71.5790318413
 20
-40.5929373107
 11
71.5779074473
 21
-40.6450823671
  0
LINE
  5
647
100
AcDbEntity
  8
RACCORDO
100
AcDbLine
 62
250
  6
CONTINUOUS
 10
71.5779074473
 20
-40.6450823671
 11
71.5769478251
 21
-40.680897829
  0
LINE
  5
648
100
AcDbEntity
  8
RACCORDO
100
AcDbLine
 62
250
  6
CONTINUOUS
 10
71.5769478251
 20
-40.680897829
 11
71.5761925214
 21
-40.7040964316
  0
LWPOLYLINE
  5
649
100
AcDbEntity
  8
RACCORDO
100
AcDbPolyline
 62
250
  6
CONTINUOUS
 90
12
 70
0
 10
71.5746141022
 20
40.7405673083
 10
71.5743399917
 20
40.7453190956
 10
71.5740693386
 20
40.7496796348
 10
71.5737991598
 20
40.7536508638
 10
71.5735216522
 20
40.7572321978
 10
71.5732465683
 20
40.7604157547
 10
71.5729726781
 20
40.7632036199
 10
71.5726932234
 20
40.7655956638
 10
71.5724151677
 20
40.7675859224
 10
71.5721407204
 20
40.7691746413
 10
71.5718633953
 20
40.7703641129
 10
71.5715794407
 20
40.7711530197
  0
LWPOLYLINE
  5
64A
100
AcDbEntity
  8
RACCORDO
100
AcDbPolyline
 62
250
  6
CONTINUOUS
 90
3
 70
0
 10
71.5754132705
 20
40.7240206299
 10
71.5751440309
 20
40.7299180088
 10
71.5746141022
 20
40.7405673083
  0
LINE
  5
64B
100
AcDbEntity
  8
RACCORDO
100
AcDbLine
 62
250
  6
CONTINUOUS
 10
71.5761925212
 20
40.7040964368
 11
71.5754132705
 21
40.7240206299
  0
LINE
  5
64C
100
AcDbEntity
  8
RACCORDO
100
AcDbLine
 62
250
  6
CONTINUOUS
 10
71.5761925214
 20
-40.7040964316
 11
71.5754132707
 21
-40.7240206261
  0
LWPOLYLINE
  5
64D
100
AcDbEntity
  8
RACCORDO
100
AcDbPolyline
 62
250
  6
CONTINUOUS
 90
14
 70
0
 10
71.5754132707
 20
-40.7240206261
 10
71.5748792193
 20
-40.7354331383
 10
71.5746141024
 20
-40.7405673057
 10
71.5743399918
 20
-40.7453190934
 10
71.5740693387
 20
-40.749679633
 10
71.5737991599
 20
-40.7536508623
 10
71.5735216523
 20
-40.7572321966
 10
71.5732465684
 20
-40.7604157538
 10
71.5729726782
 20
-40.7632036192
 10
71.5726932235
 20
-40.7655956634
 10
71.5724151678
 20
-40.7675859222
 10
71.5721407205
 20
-40.7691746411
 10
71.5718633953
 20
-40.7703641129
 10
71.5715794407
 20
-40.7711530197
  0
LWPOLYLINE
  5
64E
100
AcDbEntity
  8
0
100
AcDbPolyline
 62
7
  6
CONTINUOUS
 90
5
 70
0
 43
0.3500000006
 10
-87.6036884766
 20
51.4642862091
 10
-87.246541626
 20
51.678570694
 10
-87.246541626
 20
52.3214286804
 10
-87.6036884766
 20
52.750002182
 10
-88.460826416
 20
52.750002182
  0
LWPOLYLINE
  5
64F
100
AcDbEntity
  8
RACCORDO
100
AcDbPolyline
 62
250
  6
CONTINUOUS
 90
3
 70
0
 10
-92.0256464628
 20
-40.1390855945
 10
-92.0251740574
 20
-40.138970255
 10
-92.024295094
 20
-40.1388304218
  0
LWPOLYLINE
  5
650
100
AcDbEntity
  8
RACCORDO
100
AcDbPolyline
 62
250
  6
CONTINUOUS
 90
3
 70
0
 10
-92.024295094
 20
-40.1388304218
 10
-92.0213233115
 20
-40.1384407896
 10
-92.0192342003
 20
-40.1381765418
  0
LINE
  5
651
100
AcDbEntity
  8
RACCORDO
100
AcDbLine
 62
250
  6
CONTINUOUS
 10
-92.0192342003
 20
-40.1381765418
 11
-92.006874789
 21
-40.1367560344
  0
LINE
  5
652
100
AcDbEntity
  8
RACCORDO
100
AcDbLine
 62
250
  6
CONTINUOUS
 10
-92.006874789
 20
-40.1367560344
 11
-91.9409310526
 21
-40.1297737061
  0
LINE
  5
653
100
AcDbEntity
  8
RACCORDO
100
AcDbLine
 62
250
  6
CONTINUOUS
 10
-91.9409310526
 20
-40.1297737061
 11
-91.7833934769
 21
-40.1138352915
  0
LINE
  5
654
100
AcDbEntity
  8
RACCORDO
100
AcDbLine
 62
250
  6
CONTINUOUS
 10
-91.7833934769
 20
-40.1138352915
 11
-91.5190507789
 21
-40.0877239325
  0
LINE
  5
655
100
AcDbEntity
  8
RACCORDO
100
AcDbLine
 62
250
  6
CONTINUOUS
 10
-91.5190507789
 20
-40.0877239325
 11
-91.3534340584
 21
-40.0715794407
  0
LINE
  5
656
100
AcDbEntity
  8
RACCORDO
100
AcDbLine
 62
7
  6
CONTINUOUS
 10
-91.4382486868
 20
-40.7681912276
 11
-84.8001139664
 21
-41.0
  0
LINE
  5
657
100
AcDbEntity
  8
RACCORDO
100
AcDbLine
 62
250
  6
CONTINUOUS
 10
-91.3534340584
 20
-40.0715794407
 11
-84.8001139664
 21
-40.3004264211
  0
LINE
  5
658
100
AcDbEntity
  8
RACCORDO
100
AcDbLine
 62
250
  6
CONTINUOUS
 10
-92.1105573304
 20
-40.136114261
 11
-92.0256464628
 21
-40.1390855945
  0
LWPOLYLINE
  5
659
100
AcDbEntity
  8
RACCORDO
100
AcDbPolyline
 62
7
  6
CONTINUOUS
 90
4
 70
0
 10
-91.4862016353
 20
-40.7648652785
 10
-91.4701452453
 20
-40.7663477971
 10
-91.4540589678
 20
-40.7674600836
 10
-91.438248711
 20
-40.7681912267
  0
LWPOLYLINE
  5
65A
100
AcDbEntity
  8
RACCORDO
100
AcDbPolyline
 62
250
  6
CONTINUOUS
 90
20
 70
0
 10
-91.3534340584
 20
-40.7711530197
 10
-91.3539826928
 20
-40.7709526844
 10
-91.3545184184
 20
-40.7703905231
 10
-91.3550409572
 20
-40.7694667999
 10
-91.3555500456
 20
-40.7681819544
 10
-91.3560454112
 20
-40.7665366311
 10
-91.3565267739
 20
-40.7645317087
 10
-91.3569938724
 20
-40.7621682455
 10
-91.3574464773
 20
-40.7594474495
 10
-91.3578843691
 20
-40.7563707279
 10
-91.3583073274
 20
-40.7529396725
 10
-91.3587151271
 20
-40.7491560588
 10
-91.3591075527
 20
-40.7450218448
 10
-91.3594843989
 20
-40.7405391698
 10
-91.359845473
 20
-40.735710353
 10
-91.3601905892
 20
-40.7305378932
 10
-91.3605195696
 20
-40.7250244666
 10
-91.3608322435
 20
-40.7191729262
 10
-91.3611284489
 20
-40.7129862996
 10
-91.3614080325
 20
-40.7064677881
  0
LWPOLYLINE
  5
65B
100
AcDbEntity
  8
0
100
AcDbPolyline
 62
7
  6
CONTINUOUS
 90
10
 70
0
 43
0.3500000006
 10
-92.1036898499
 20
49.7500012665
 10
-91.2465428467
 20
50.6071437378
 10
-91.0322583618
 20
51.4642862091
 10
-91.0322583618
 20
52.3214286804
 10
-91.4608273315
 20
52.750002182
 10
-92.1036898499
 20
52.750002182
 10
-92.5322588196
 20
52.3214286804
 10
-92.5322588196
 20
51.4642862091
 10
-92.1036898499
 20
51.0357127075
 10
-91.1751116638
 20
51.0357127075
  0
LWPOLYLINE
  5
65C
100
AcDbEntity
  8
RACCORDO
100
AcDbPolyline
 62
7
  6
CONTINUOUS
 90
46
 70
0
 10
-92.0499204853
 20
-40.3608076213
 10
-92.0430214776
 20
-40.3753819247
 10
-92.0357885987
 20
-40.3897934512
 10
-92.0282256868
 20
-40.4040345537
 10
-92.0203367546
 20
-40.4180976756
 10
-92.0121259885
 20
-40.4319753545
 10
-92.003597745
 20
-40.4456602267
 10
-91.9947565496
 20
-40.4591450306
 10
-91.9856070936
 20
-40.4724226108
 10
-91.9761542321
 20
-40.4854859215
 10
-91.9664029811
 20
-40.4983280311
 10
-91.9563585149
 20
-40.5109421251
 10
-91.9460261635
 20
-40.52332151
 10
-91.9354114097
 20
-40.5354596168
 10
-91.9245198859
 20
-40.5473500047
 10
-91.9133573718
 20
-40.5589863643
 10
-91.9019297907
 20
-40.5703625208
 10
-91.8902432064
 20
-40.5814724378
 10
-91.8783038196
 20
-40.5923102208
 10
-91.8661179659
 20
-40.6028701185
 10
-91.8536921113
 20
-40.6131465281
 10
-91.8410328479
 20
-40.6231339975
 10
-91.828146893
 20
-40.6328272271
 10
-91.8150410841
 20
-40.6422210734
 10
-91.8017223741
 20
-40.6513105526
 10
-91.7881978296
 20
-40.6600908418
 10
-91.7744746275
 20
-40.6685572813
 10
-91.7605600489
 20
-40.6767053789
 10
-91.7464614757
 20
-40.6845308116
 10
-91.7321863904
 20
-40.6920294258
 10
-91.7177423721
 20
-40.6991972401
 10
-91.7031370847
 20
-40.7060304516
 10
-91.6883782786
 20
-40.712525434
 10
-91.6734737915
 20
-40.7186787388
 10
-91.658431532
 20
-40.7244871013
 10
-91.6432594824
 20
-40.72994744
 10
-91.6279656995
 20
-40.7350568559
 10
-91.6125582991
 20
-40.7398126389
 10
-91.5970454568
 20
-40.7442122664
 10
-91.5814354107
 20
-40.7482534032
 10
-91.5657364445
 20
-40.7519339064
 10
-91.5499568884
 20
-40.7552518244
 10
-91.534105121
 20
-40.7582053973
 10
-91.5181895523
 20
-40.7607930598
 10
-91.5022186292
 20
-40.7630134404
 10
-91.486200836
 20
-40.7648653616
  0
LWPOLYLINE
  5
65D
100
AcDbEntity
  8
0
100
AcDbPolyline
 62
7
  6
CONTINUOUS
 90
3
 70
0
 43
0.3500000006
 10
-89.4608267212
 20
50.0357124023
 10
-89.5322579041
 20
49.8214279175
 10
-89.6751112061
 20
49.5357122498
  0
LWPOLYLINE
  5
65E
100
AcDbEntity
  8
0
100
AcDbPolyline
 62
7
  6
CONTINUOUS
 90
7
 70
0
 43
0.3500000006
 10
-102.8001129456
 20
1.5000001373
 10
-102.8001129456
 20
-0.0000003204
 10
-104.9429668579
 20
1.5000001373
 10
-105.3715448914
 20
1.5000001373
 10
-105.8001138611
 20
1.0714289017
 10
-105.8001138611
 20
0.4285709152
 10
-105.1572604065
 20
-0.0000003204
  0
LWPOLYLINE
  5
65F
100
AcDbEntity
  8
0
100
AcDbPolyline
 62
7
  6
CONTINUOUS
 90
13
 70
0
 43
0.3500000006
 10
-104.5143978882
 20
-1.9285708809
 10
-104.728682373
 20
-2.2142854156
 10
-105.3715448914
 20
-2.2142854156
 10
-105.8001138611
 20
-1.9285708809
 10
-105.8001138611
 20
-1.2857140274
 10
-105.3715448914
 20
-1.0000006256
 10
-104.728682373
 20
-1.0000006256
 10
-104.5143978882
 20
-1.2857140274
 10
-104.0858289185
 20
-0.8571427917
 10
-103.2286819153
 20
-0.8571427917
 10
-102.8001129456
 20
-1.2857140274
 10
-102.8001129456
 20
-1.9285708809
 10
-103.2286819153
 20
-2.3571432495
  0
LWPOLYLINE
  5
660
100
AcDbEntity
  8
RACCORDO
100
AcDbPolyline
 62
250
  6
CONTINUOUS
 90
61
 70
0
 10
-92.0256464628
 20
-40.1390855945
 10
-92.0238278958
 20
-40.1557741826
 10
-92.0216087622
 20
-40.1724191652
 10
-92.0189905202
 20
-40.1890085314
 10
-92.0159756849
 20
-40.2055279038
 10
-92.0125661643
 20
-40.2219677963
 10
-92.0087626735
 20
-40.2383235641
 10
-92.0045680028
 20
-40.2545833749
 10
-91.9999853933
 20
-40.27073549
 10
-91.9950158699
 20
-40.2867753997
 10
-91.9896630747
 20
-40.3026914801
 10
-91.9839311026
 20
-40.3184722038
 10
-91.9778212736
 20
-40.3341132141
 10
-91.9713380594
 20
-40.3496031731
 10
-91.9644863975
 20
-40.3649308208
 10
-91.9572678971
 20
-40.3800919499
 10
-91.9496878214
 20
-40.3950756005
 10
-91.9417519317
 20
-40.4098708416
 10
-91.9334621406
 20
-40.4244735854
 10
-91.9248244403
 20
-40.4388733587
 10
-91.9158453859
 20
-40.4530596296
 10
-91.9065272411
 20
-40.4670283669
 10
-91.8968766311
 20
-40.4807697128
 10
-91.8869008564
 20
-40.4942736144
 10
-91.8766026345
 20
-40.5075359977
 10
-91.8659890787
 20
-40.5205477696
 10
-91.8550681608
 20
-40.5332994484
 10
-91.8438432338
 20
-40.5457867789
 10
-91.8323216905
 20
-40.5580016013
 10
-91.8205120615
 20
-40.5699351098
 10
-91.8084186269
 20
-40.5815826946
 10
-91.7960487696
 20
-40.5929373107
 10
-91.7834114139
 20
-40.6039909452
 10
-91.7705121993
 20
-40.6147384374
 10
-91.7573581148
 20
-40.6251740369
 10
-91.7439582436
 20
-40.6352906486
 10
-91.7303201838
 20
-40.6450823671
 10
-91.7164500498
 20
-40.6545448921
 10
-91.7023567596
 20
-40.6636721695
 10
-91.6880506457
 20
-40.6724574002
 10
-91.6735363863
 20
-40.680897829
 10
-91.6588223086
 20
-40.6889885497
 10
-91.6439224048
 20
-40.6967218219
 10
-91.6288393249
 20
-40.7040964316
 10
-91.6135802757
 20
-40.7111086838
 10
-91.5981639032
 20
-40.7177500207
 10
-91.5825902963
 20
-40.7240206261
 10
-91.5668649328
 20
-40.7299180054
 10
-91.5510120225
 20
-40.7354331383
 10
-91.5350287474
 20
-40.7405673057
 10
-91.5189182326
 20
-40.7453190934
 10
-91.5027108576
 20
-40.749679633
 10
-91.4864008804
 20
-40.7536508623
 10
-91.4699885452
 20
-40.7572321966
 10
-91.4535104527
 20
-40.7604157538
 10
-91.4369583577
 20
-40.7632036192
 10
-91.4203293375
 20
-40.7655956634
 10
-91.4036655076
 20
-40.7675859222
 10
-91.386975277
 20
-40.7691746411
 10
-91.3702342708
 20
-40.7703641129
 10
-91.3534340584
 20
-40.7711530197
  0
LWPOLYLINE
  5
661
100
AcDbEntity
  8
RACCORDO
100
AcDbPolyline
 62
7
  6
CONTINUOUS
 90
16
 70
0
 10
-92.1105573232
 20
-40.1361142905
 10
-92.1097333524
 20
-40.1441378564
 10
-92.1078092008
 20
-40.1601473628
 10
-92.1055168001
 20
-40.176108301
 10
-92.1028573668
 20
-40.1920122016
 10
-92.0998323121
 20
-40.2078506257
 10
-92.0964432411
 20
-40.223615169
 10
-92.0926919521
 20
-40.2392974665
 10
-92.0885804357
 20
-40.2548891967
 10
-92.0841108736
 20
-40.2703820865
 10
-92.0792856374
 20
-40.2857679148
 10
-92.0741072875
 20
-40.3010385175
 10
-92.0685785717
 20
-40.3161857917
 10
-92.0627024235
 20
-40.3312017
 10
-92.0564819612
 20
-40.3460782745
 10
-92.0499204853
 20
-40.3608076213
  0
LWPOLYLINE
  5
662
100
AcDbEntity
  8
RACCORDO
100
AcDbPolyline
 62
250
  6
CONTINUOUS
 90
61
 70
0
 10
-92.0256464628
 20
-40.1390855945
 10
-92.1528199101
 20
-38.8050846297
 10
-92.2756948136
 20
-37.4706797694
 10
-92.3942698904
 20
-36.1358848728
 10
-92.5085439258
 20
-34.8007135302
 10
-92.618515701
 20
-33.4651798816
 10
-92.7241840015
 20
-32.1292986171
 10
-92.8255477121
 20
-30.7930838639
 10
-92.9226058014
 20
-29.4565492487
 10
-93.0153572562
 20
-28.1197087166
 10
-93.103801114
 20
-26.7825761629
 10
-93.1879364585
 20
-25.4451654656
 10
-93.2677624138
 20
-24.1074905483
 10
-93.3432781508
 20
-22.7695653335
 10
-93.4144828887
 20
-21.4314036887
 10
-93.4813758907
 20
-20.0930194597
 10
-93.543956463
 20
-18.754426546
 10
-93.6022239567
 20
-17.4156388522
 10
-93.6561777682
 20
-16.0766702345
 10
-93.7058173383
 20
-14.7375345771
 10
-93.7511421507
 20
-13.3982458117
 10
-93.7921517336
 20
-12.0588178684
 10
-93.8288456613
 20
-10.7192646568
 10
-93.8612235531
 20
-9.3796000923
 10
-93.8892850719
 20
-8.0398381155
 10
-93.9130299264
 20
-6.6999926509
 10
-93.9324578706
 20
-5.3600776053
 10
-93.9475687028
 20
-4.0201068951
 10
-93.9583622662
 20
-2.6800944394
 10
-93.964838449
 20
-1.3400541541
 10
-93.966997184
 20
0.0000000493
 10
-93.9648384487
 20
1.3400542529
 10
-93.9583622655
 20
2.6800945382
 10
-93.9475687018
 20
4.0201069939
 10
-93.9324578693
 20
5.3600777043
 10
-93.9130299248
 20
6.6999927499
 10
-93.88928507
 20
8.0398382144
 10
-93.8612235509
 20
9.379600191
 10
-93.8288456588
 20
10.7192647552
 10
-93.7921517307
 20
12.0588179666
 10
-93.7511421475
 20
13.3982459097
 10
-93.7058173348
 20
14.7375346751
 10
-93.6561777644
 20
16.0766703326
 10
-93.6022239526
 20
17.4156389507
 10
-93.5439564586
 20
18.7544266452
 10
-93.4813758858
 20
20.0930195595
 10
-93.4144828835
 20
21.431403789
 10
-93.3432781453
 20
22.7695654341
 10
-93.2677624079
 20
24.1074906489
 10
-93.1879364524
 20
25.4451655655
 10
-93.1038011076
 20
26.7825762618
 10
-93.0153572496
 20
28.1197088141
 10
-92.9226057945
 20
29.4565493445
 10
-92.8255477051
 20
30.7930839578
 10
-92.7241839944
 20
32.129298709
 10
-92.6185156935
 20
33.4651799748
 10
-92.5085439179
 20
34.8007136247
 10
-92.3942698828
 20
36.1358849595
 10
-92.2756948075
 20
37.4706798362
 10
-92.1528199066
 20
38.8050846676
 10
-92.0256464628
 20
40.1390855945
  0
LWPOLYLINE
  5
663
100
AcDbEntity
  8
RACCORDO
100
AcDbPolyline
 62
250
  6
CONTINUOUS
 90
61
 70
0
 10
-91.3534340584
 20
-40.0715794407
 10
-91.4803956107
 20
-38.739800237
 10
-91.6030633924
 20
-37.4076451497
 10
-91.7214374036
 20
-36.0751141786
 10
-91.8355188213
 20
-34.742193089
 10
-91.9453064685
 20
-33.4088961157
 10
-92.050796814
 20
-32.0752659637
 10
-92.1519896882
 20
-30.7413029885
 10
-92.2488852608
 20
-29.4070068345
 10
-92.3414805095
 20
-28.0724191402
 10
-92.4297752988
 20
-26.7375399066
 10
-92.5137697642
 20
-25.4023691327
 10
-92.5934612899
 20
-24.0669484536
 10
-92.6688497404
 20
-22.7312778902
 10
-92.7399352512
 20
-21.3953574217
 10
-92.8067156127
 20
-20.0592286206
 10
-92.8691906916
 20
-18.7228914791
 10
-92.9273606211
 20
-17.3863460052
 10
-92.9812235919
 20
-16.0496337948
 10
-93.0307794708
 20
-14.71275482
 10
-93.0760283909
 20
-13.3757091087
 10
-93.1169689418
 20
-12.0385383414
 10
-93.153600989
 20
-10.7012425119
 10
-93.185924667
 20
-9.3638216263
 10
-93.2139389685
 20
-8.0263173831
 10
-93.2376437589
 20
-6.6887297889
 10
-93.2570391728
 20
-5.3510588371
 10
-93.2721246064
 20
-4.013346207
 10
-93.2828999257
 20
-2.6755918986
 10
-93.2893652647
 20
-1.3377959118
 10
-93.2915204222
 20
0.0000000748
 10
-93.2893652642
 20
1.3377960612
 10
-93.2828999247
 20
2.6755920474
 10
-93.272124605
 20
4.0133463551
 10
-93.2570391709
 20
5.3510589847
 10
-93.2376437565
 20
6.6887299359
 10
-93.2139389656
 20
8.0263175295
 10
-93.1859246637
 20
9.3638217718
 10
-93.1536009853
 20
10.7012426566
 10
-93.1169689376
 20
12.0385384853
 10
-93.0760283863
 20
13.3757092519
 10
-93.0307794658
 20
14.7127549624
 10
-92.9812235864
 20
16.0496339368
 10
-92.9273606152
 20
17.3863461471
 10
-92.8691906852
 20
18.7228916211
 10
-92.8067156059
 20
20.0592287625
 10
-92.7399352439
 20
21.3953575635
 10
-92.6688497326
 20
22.7312780319
 10
-92.5934612817
 20
24.0669485946
 10
-92.5137697556
 20
25.4023692725
 10
-92.4297752899
 20
26.7375400448
 10
-92.3414805002
 20
28.0724192764
 10
-92.2488852513
 20
29.4070069685
 10
-92.1519896784
 20
30.74130312
 10
-92.050796804
 20
32.0752660927
 10
-91.9453064578
 20
33.4088962467
 10
-91.8355188101
 20
34.742193222
 10
-91.721437393
 20
36.0751143008
 10
-91.6030633841
 20
37.4076452439
 10
-91.4803956059
 20
38.7398002905
 10
-91.3534340584
 20
40.0715794407
  0
LWPOLYLINE
  5
664
100
AcDbEntity
  8
RACCORDO
100
AcDbPolyline
 62
250
  6
CONTINUOUS
 90
61
 70
0
 10
-92.0256464628
 20
40.1390855945
 10
-92.0238278958
 20
40.1557741834
 10
-92.021608762
 20
40.1724191667
 10
-92.0189905198
 20
40.1890085336
 10
-92.0159756843
 20
40.2055279067
 10
-92.0125661635
 20
40.2219678
 10
-92.0087626724
 20
40.2383235684
 10
-92.0045680014
 20
40.25458338
 10
-91.9999853917
 20
40.2707354957
 10
-91.9950158679
 20
40.286775406
 10
-91.9896630723
 20
40.302691487
 10
-91.9839310998
 20
40.3184722112
 10
-91.9778212704
 20
40.334113222
 10
-91.9713380557
 20
40.3496031815
 10
-91.9644863934
 20
40.3649308297
 10
-91.9572678925
 20
40.3800919591
 10
-91.9496878164
 20
40.3950756101
 10
-91.9417519262
 20
40.4098708516
 10
-91.9334621346
 20
40.4244735957
 10
-91.9248244339
 20
40.4388733692
 10
-91.9158453789
 20
40.4530596403
 10
-91.9065272337
 20
40.4670283778
 10
-91.8968766232
 20
40.4807697237
 10
-91.886900848
 20
40.4942736254
 10
-91.8766026257
 20
40.5075360088
 10
-91.8659890695
 20
40.5205477806
 10
-91.8550681512
 20
40.5332994594
 10
-91.8438432238
 20
40.5457867898
 10
-91.8323216801
 20
40.5580016119
 10
-91.8205120509
 20
40.5699351203
 10
-91.808418616
 20
40.5815827049
 10
-91.7960487584
 20
40.5929373208
 10
-91.7834114025
 20
40.6039909549
 10
-91.7705121877
 20
40.6147384468
 10
-91.7573581031
 20
40.625174046
 10
-91.7439582318
 20
40.6352906573
 10
-91.7303201719
 20
40.6450823755
 10
-91.7164500379
 20
40.6545449
 10
-91.7023567478
 20
40.663672177
 10
-91.6880506339
 20
40.6724574072
 10
-91.6735363747
 20
40.6808978356
 10
-91.6588222971
 20
40.6889885558
 10
-91.6439223935
 20
40.6967218275
 10
-91.628839314
 20
40.7040964368
 10
-91.6135802651
 20
40.7111086886
 10
-91.5981638929
 20
40.717750025
 10
-91.5825902865
 20
40.7240206299
 10
-91.5668649234
 20
40.7299180088
 10
-91.5510120137
 20
40.7354331413
 10
-91.5350287391
 20
40.7405673083
 10
-91.5189182249
 20
40.7453190956
 10
-91.5027108505
 20
40.7496796348
 10
-91.486400874
 20
40.7536508638
 10
-91.4699885395
 20
40.7572321978
 10
-91.4535104477
 20
40.7604157547
 10
-91.4369583535
 20
40.7632036199
 10
-91.4203293341
 20
40.7655956638
 10
-91.403665505
 20
40.7675859224
 10
-91.3869752753
 20
40.7691746413
 10
-91.3702342699
 20
40.7703641129
 10
-91.3534340584
 20
40.7711530197
  0
LINE
  5
665
100
AcDbEntity
  8
RACCORDO
100
AcDbLine
 62
250
  6
CONTINUOUS
 10
-91.3614080325
 20
-40.7064677881
 11
-91.3619167648
 21
-40.6924487717
  0
LINE
  5
666
100
AcDbEntity
  8
RACCORDO
100
AcDbLine
 62
250
  6
CONTINUOUS
 10
-91.3619167648
 20
-40.6924487717
 11
-91.3623573878
 21
-40.677144889
  0
LINE
  5
667
100
AcDbEntity
  8
RACCORDO
100
AcDbLine
 62
250
  6
CONTINUOUS
 10
-91.3623573878
 20
-40.677144889
 11
-91.3627289902
 21
-40.6605878107
  0
LINE
  5
668
100
AcDbEntity
  8
RACCORDO
100
AcDbLine
 62
250
  6
CONTINUOUS
 10
-91.3627289902
 20
-40.6605878107
 11
-91.3630308031
 21
-40.642811801
  0
LINE
  5
669
100
AcDbEntity
  8
RACCORDO
100
AcDbLine
 62
250
  6
CONTINUOUS
 10
-91.3630308031
 20
-40.642811801
 11
-91.3632622021
 21
-40.6238536468
  0
LINE
  5
66A
100
AcDbEntity
  8
RACCORDO
100
AcDbLine
 62
250
  6
CONTINUOUS
 10
-91.3632622021
 20
40.6238536468
 11
-91.3630308031
 21
40.642811801
  0
LINE
  5
66B
100
AcDbEntity
  8
RACCORDO
100
AcDbLine
 62
250
  6
CONTINUOUS
 10
-91.3630308031
 20
40.642811801
 11
-91.3627289902
 21
40.6605878107
  0
LINE
  5
66C
100
AcDbEntity
  8
RACCORDO
100
AcDbLine
 62
250
  6
CONTINUOUS
 10
-91.3627289902
 20
40.6605878107
 11
-91.3623573878
 21
40.677144889
  0
LINE
  5
66D
100
AcDbEntity
  8
RACCORDO
100
AcDbLine
 62
250
  6
CONTINUOUS
 10
-91.3623573878
 20
40.677144889
 11
-91.3619167648
 21
40.6924487717
  0
LWPOLYLINE
  5
66E
100
AcDbEntity
  8
RACCORDO
100
AcDbPolyline
 62
250
  6
CONTINUOUS
 90
21
 70
0
 10
-91.3619167648
 20
40.6924487717
 10
-91.3614080325
 20
40.7064677881
 10
-91.3611284489
 20
40.7129862996
 10
-91.3608322435
 20
40.7191729262
 10
-91.3605195696
 20
40.7250244666
 10
-91.3601905892
 20
40.7305378932
 10
-91.359845473
 20
40.735710353
 10
-91.3594843989
 20
40.7405391698
 10
-91.3591075527
 20
40.7450218448
 10
-91.3587151271
 20
40.7491560588
 10
-91.3583073274
 20
40.7529396725
 10
-91.3578843691
 20
40.7563707279
 10
-91.3574464773
 20
40.7594474495
 10
-91.3569938724
 20
40.7621682455
 10
-91.3565267739
 20
40.7645317087
 10
-91.3560454112
 20
40.7665366311
 10
-91.3555500456
 20
40.7681819544
 10
-91.3550409572
 20
40.7694667999
 10
-91.3545184184
 20
40.7703905231
 10
-91.3539826928
 20
40.7709526844
 10
-91.3534340584
 20
40.7711530197
  0
LINE
  5
66F
100
AcDbEntity
  8
DRAFT
100
AcDbLine
 62
7
  6
CONTINUOUS
 10
-84.8001139664
 20
-4.0
 11
-84.8182080763
 21
-4.0
  0
LINE
  5
670
100
AcDbEntity
  8
RACCORDO
100
AcDbLine
 62
7
  6
CONTINUOUS
 10
-85.256536095
 20
-3.635045565
 11
-86.5262606892
 21
-3.5239590572
  0
LINE
  5
671
100
AcDbEntity
  8
RACCORDO
100
AcDbLine
 62
250
  6
CONTINUOUS
 10
-91.3534340584
 20
40.0715794407
 11
-91.3560455557
 21
40.1509735752
  0
LINE
  5
672
100
AcDbEntity
  8
RACCORDO
100
AcDbLine
 62
250
  6
CONTINUOUS
 10
-91.3560455557
 20
40.1509735752
 11
-91.3583074388
 21
40.2293445773
  0
LINE
  5
673
100
AcDbEntity
  8
RACCORDO
100
AcDbLine
 62
250
  6
CONTINUOUS
 10
-91.3583074388
 20
40.2293445773
 11
-91.3601907158
 21
40.3056767702
  0
LINE
  5
674
100
AcDbEntity
  8
RACCORDO
100
AcDbLine
 62
250
  6
CONTINUOUS
 10
-91.3601907158
 20
40.3056767702
 11
-91.3616709644
 21
40.3789838558
  0
LINE
  5
675
100
AcDbEntity
  8
RACCORDO
100
AcDbLine
 62
250
  6
CONTINUOUS
 10
-91.3616709644
 20
40.3789838558
 11
-91.3627290745
 21
40.4483185274
  0
LINE
  5
676
100
AcDbEntity
  8
RACCORDO
100
AcDbLine
 62
250
  6
CONTINUOUS
 10
-91.3627290745
 20
40.4483185274
 11
-91.3632622522
 21
40.5003220081
  0
LINE
  5
677
100
AcDbEntity
  8
RACCORDO
100
AcDbLine
 62
250
  6
CONTINUOUS
 10
-91.3632622021
 20
-40.6238536468
 11
-91.3634762677
 21
-40.5932863662
  0
LINE
  5
678
100
AcDbEntity
  8
RACCORDO
100
AcDbLine
 62
250
  6
CONTINUOUS
 10
-91.3632622522
 20
40.5003220081
 11
-91.3635120042
 21
40.5487782565
  0
LINE
  5
679
100
AcDbEntity
  8
RACCORDO
100
AcDbLine
 62
250
  6
CONTINUOUS
 10
-91.3634762677
 20
-40.5932863662
 11
-91.3635298635
 21
-40.560290389
  0
LINE
  5
67A
100
AcDbEntity
  8
RACCORDO
100
AcDbLine
 62
250
  6
CONTINUOUS
 10
-91.3635120042
 20
40.5487782565
 11
-91.3635119906
 21
40.5825502029
  0
LINE
  5
67B
100
AcDbEntity
  8
RACCORDO
100
AcDbLine
 62
250
  6
CONTINUOUS
 10
-91.3635298635
 20
-40.560290389
 11
-91.363351382
 21
-40.5127848116
  0
LWPOLYLINE
  5
67C
100
AcDbEntity
  8
RACCORDO
100
AcDbPolyline
 62
250
  6
CONTINUOUS
 90
3
 70
0
 10
-91.3635119906
 20
40.5825502029
 10
-91.3633513411
 20
40.6139434325
 10
-91.3632622021
 20
40.6238536468
  0
LINE
  5
67D
100
AcDbEntity
  8
RACCORDO
100
AcDbLine
 62
250
  6
CONTINUOUS
 10
-91.363351382
 20
-40.5127848116
 11
-91.3628887391
 21
-40.46162889
  0
LINE
  5
67E
100
AcDbEntity
  8
RACCORDO
100
AcDbLine
 62
250
  6
CONTINUOUS
 10
-91.3628887391
 20
-40.46162889
 11
-91.3619168739
 21
-40.3931980692
  0
LINE
  5
67F
100
AcDbEntity
  8
RACCORDO
100
AcDbLine
 62
250
  6
CONTINUOUS
 10
-91.3619168739
 20
-40.3931980692
 11
-91.3605196946
 21
-40.3206111519
  0
LINE
  5
680
100
AcDbEntity
  8
RACCORDO
100
AcDbLine
 62
250
  6
CONTINUOUS
 10
-91.3605196946
 20
-40.3206111519
 11
-91.3587152579
 21
-40.2448061381
  0
LINE
  5
681
100
AcDbEntity
  8
RACCORDO
100
AcDbLine
 62
250
  6
CONTINUOUS
 10
-91.3587152579
 20
-40.2448061381
 11
-91.3565269674
 21
-40.1667626102
  0
LWPOLYLINE
  5
682
100
AcDbEntity
  8
RACCORDO
100
AcDbPolyline
 62
250
  6
CONTINUOUS
 90
3
 70
0
 10
-91.3565269674
 20
-40.1667626102
 10
-91.3539826749
 20
-40.0874905589
 10
-91.3534340584
 20
-40.0715794407
  0
LWPOLYLINE
  5
683
100
AcDbEntity
  8
0
100
AcDbPolyline
 62
7
  6
CONTINUOUS
 90
4
 70
0
 43
0.3500000006
 10
-103.2286819153
 20
-2.3571432495
 10
-104.0858289185
 20
-2.3571432495
 10
-104.5143978882
 20
-1.9285708809
 10
-104.5143978882
 20
-1.2857140274
  0
LINE
  5
684
100
AcDbEntity
  8
RACCORDO
100
AcDbLine
 62
7
  6
CONTINUOUS
 10
-86.8001139664
 20
-3.2251006478
 11
-86.8001139664
 21
3.2251006478
  0
LINE
  5
685
100
AcDbEntity
  8
RACCORDO
100
AcDbLine
 62
7
  6
CONTINUOUS
 10
-84.8001139664
 20
-4.0
 11
-84.8001139664
 21
-41.0
  0
LINE
  5
686
100
AcDbEntity
  8
RACCORDO
100
AcDbLine
 62
7
  6
CONTINUOUS
 10
-84.8001139664
 20
4.0
 11
-84.8001139664
 21
41.0
  0
LINE
  5
687
100
AcDbEntity
  8
RACCORDO
100
AcDbLine
 62
7
  6
CONTINUOUS
 10
-85.256536095
 20
3.635045565
 11
-86.5262606892
 21
3.5239590572
  0
LINE
  5
688
100
AcDbEntity
  8
DRAFT
100
AcDbLine
 62
7
  6
CONTINUOUS
 10
-84.8001139664
 20
4.0
 11
-84.8182072555
 21
4.0
  0
LWPOLYLINE
  5
689
100
AcDbEntity
  8
0
100
AcDbPolyline
 62
7
  6
CONTINUOUS
 90
10
 70
0
 43
0.3500000006
 10
-89.5322579041
 20
50.2500014191
 10
-89.4608267212
 20
50.1071435852
 10
-89.4608267212
 20
50.0357124023
 10
-89.6036890869
 20
49.8928591003
 10
-89.6751112061
 20
49.8928591003
 10
-89.7465423889
 20
49.9642857513
 10
-89.7465423889
 20
50.0357124023
 10
-89.6751112061
 20
50.1785702362
 10
-89.6036890869
 20
50.2500014191
 10
-89.5322579041
 20
50.2500014191
  0
LWPOLYLINE
  5
68A
100
AcDbEntity
  8
RACCORDO
100
AcDbPolyline
 62
7
  6
CONTINUOUS
 90
64
 70
0
 10
-91.438248711
 20
40.7681912267
 10
-91.4540586717
 20
40.7674601007
 10
-91.4701446894
 20
40.766347842
 10
-91.4862008554
 20
40.7648653596
 10
-91.5022186531
 20
40.7630134373
 10
-91.5181895799
 20
40.7607930557
 10
-91.5341051516
 20
40.758205392
 10
-91.5499569215
 20
40.7552518179
 10
-91.5657364793
 20
40.7519338987
 10
-91.5814354467
 20
40.7482533944
 10
-91.5970454935
 20
40.7442122565
 10
-91.612558336
 20
40.739812628
 10
-91.6279657364
 20
40.7350568441
 10
-91.6432595187
 20
40.7299474274
 10
-91.6584315676
 20
40.7244870881
 10
-91.673473826
 20
40.7186787251
 10
-91.688378312
 20
40.7125254199
 10
-91.7031371167
 20
40.7060304371
 10
-91.7177424028
 20
40.6991972254
 10
-91.7321864197
 20
40.6920294109
 10
-91.7464615036
 20
40.6845307966
 10
-91.7605600755
 20
40.6767053639
 10
-91.7744746529
 20
40.6685572662
 10
-91.7881978539
 20
40.6600908265
 10
-91.8017223973
 20
40.6513105373
 10
-91.8150411064
 20
40.6422210579
 10
-91.8281469143
 20
40.6328272116
 10
-91.8410328684
 20
40.6231339819
 10
-91.8536921309
 20
40.6131465124
 10
-91.8661179847
 20
40.6028701028
 10
-91.8783038375
 20
40.592310205
 10
-91.8902432235
 20
40.5814724221
 10
-91.9019298071
 20
40.5703625051
 10
-91.9133573873
 20
40.5589863487
 10
-91.9245199005
 20
40.5473499893
 10
-91.9354114235
 20
40.5354596015
 10
-91.9460261765
 20
40.523321495
 10
-91.9563585271
 20
40.5109421104
 10
-91.9664029925
 20
40.4983280167
 10
-91.9761542428
 20
40.4854859075
 10
-91.9856071035
 20
40.4724225971
 10
-91.9947565587
 20
40.4591450173
 10
-92.0035977534
 20
40.4456602138
 10
-92.0121259962
 20
40.4319753421
 10
-92.0203367617
 20
40.4180976637
 10
-92.0282256932
 20
40.4040345423
 10
-92.0357886046
 20
40.3897934403
 10
-92.0430214828
 20
40.3753819143
 10
-92.04992049
 20
40.3608076114
 10
-92.0564819654
 20
40.3460782652
 10
-92.0627024273
 20
40.3312016913
 10
-92.0685785749
 20
40.3161857836
 10
-92.0741072903
 20
40.30103851
 10
-92.0792856398
 20
40.2857679079
 10
-92.0841108757
 20
40.2703820802
 10
-92.0885804375
 20
40.2548891911
 10
-92.0926919536
 20
40.2392974615
 10
-92.0964432423
 20
40.2236151647
 10
-92.099832313
 20
40.2078506221
 10
-92.1028573676
 20
40.1920121987
 10
-92.1055168007
 20
40.1761082988
 10
-92.1078092012
 20
40.1601473614
 10
-92.1097333527
 20
40.1441378557
 10
-92.1105573235
 20
40.1361142905
  0
LINE
  5
68B
100
AcDbEntity
  8
RACCORDO
100
AcDbLine
 62
250
  6
CONTINUOUS
 10
-84.8001139664
 20
40.3004264211
 11
-91.3534340584
 21
40.0715794407
  0
LINE
  5
68C
100
AcDbEntity
  8
RACCORDO
100
AcDbLine
 62
250
  6
CONTINUOUS
 10
-92.0256464628
 20
40.1390855945
 11
-92.1105573304
 21
40.136114261
  0
LINE
  5
68D
100
AcDbEntity
  8
RACCORDO
100
AcDbLine
 62
7
  6
CONTINUOUS
 10
-84.8001139664
 20
41.0
 11
-91.4382486868
 21
40.7681912276
  0
LWPOLYLINE
  5
68E
100
AcDbEntity
  8
0
100
AcDbPolyline
 62
7
  6
CONTINUOUS
 90
6
 70
0
 43
0.3500000006
 10
-88.460826416
 20
49.7500012665
 10
-87.3894039917
 20
49.7500012665
 10
-87.1751104431
 20
49.9642857513
 10
-87.1751104431
 20
51.0357127075
 10
-87.6036884766
 20
51.4642862091
 10
-88.0322574463
 20
51.4642862091
  0
LINE
  5
68F
100
AcDbEntity
  8
RACCORDO
100
AcDbLine
 62
250
  6
CONTINUOUS
 10
-92.0105615942
 20
40.1371666844
 11
-91.3534340584
 21
40.0715794407
  0
LINE
  5
690
100
AcDbEntity
  8
RACCORDO
100
AcDbLine
 62
250
  6
CONTINUOUS
 10
-92.0192342006
 20
40.1381765419
 11
-92.0105615942
 21
40.1371666844
  0
LWPOLYLINE
  5
691
100
AcDbEntity
  8
RACCORDO
100
AcDbPolyline
 62
250
  6
CONTINUOUS
 90
5
 70
0
 10
-92.0256464628
 20
40.1390855945
 10
-92.0251740574
 20
40.138970255
 10
-92.024295094
 20
40.1388304218
 10
-92.0230106614
 20
40.138658804
 10
-92.0192342006
 20
40.1381765419
  0
ARC
  5
692
100
AcDbEntity
  8
0
100
AcDbCircle
 62
7
  6
CONTINUOUS
 10
322.1969597082
 20
0.0
 40
416.2470736745
100
AcDbArc
 50
174.4667276285
 51
185.5332723715
  0
ARC
  5
693
100
AcDbEntity
  8
RACCORDO
100
AcDbCircle
 62
7
  6
CONTINUOUS
 10
-91.413819063
 20
40.0686176478
 40
0.7
100
AcDbArc
 50
92.0
 51
174.4667276284
  0
ARC
  5
694
100
AcDbEntity
  8
RACCORDO
100
AcDbCircle
 62
7
  6
CONTINUOUS
 10
-85.3001139664
 20
-4.1331429141
 40
0.5
100
AcDbArc
 50
0.0
 51
85.0
  0
ARC
  5
695
100
AcDbEntity
  8
RACCORDO
100
AcDbCircle
 62
7
  6
CONTINUOUS
 10
-85.3001139664
 20
4.1331429141
 40
0.5
100
AcDbArc
 50
275.0
 51
360.0
  0
ARC
  5
696
100
AcDbEntity
  8
RACCORDO
100
AcDbCircle
 62
7
  6
CONTINUOUS
 10
-86.5001139664
 20
3.2251006478
 40
0.3
100
AcDbArc
 50
95.0
 51
180.0
  0
ARC
  5
697
100
AcDbEntity
  8
RACCORDO
100
AcDbCircle
 62
7
  6
CONTINUOUS
 10
-86.5001139664
 20
-3.2251006478
 40
0.3
100
AcDbArc
 50
180.0
 51
265.0
  0
ELLIPSE
  5
698
100
AcDbEntity
  8
RACCORDO
100
AcDbEllipse
 62
7
  6
CONTINUOUS
 10
-71.799573319
 20
-40.299573319
 30
0.0
 11
0.4955779812
 21
0.4955779812
 31
0.0
 40
0.998782766
 41
2.3568034778
 42
3.9263818294
  0
ELLIPSE
  5
699
100
AcDbEntity
  8
RACCORDO
100
AcDbEllipse
 62
7
  6
CONTINUOUS
 10
71.799573319
 20
-40.299573319
 30
0.0
 11
0.4955779812
 21
-0.4955779812
 31
0.0
 40
0.998782766
 41
-0.7847891758
 42
0.7847891758
  0
ELLIPSE
  5
69A
100
AcDbEntity
  8
RACCORDO
100
AcDbEllipse
 62
7
  6
CONTINUOUS
 10
71.799573319
 20
40.299573319
 30
0.0
 11
0.4955779812
 21
0.4955779812
 31
0.0
 40
0.998782766
 41
-0.7847891758
 42
0.7847891758
  0
ELLIPSE
  5
69B
100
AcDbEntity
  8
RACCORDO
100
AcDbEllipse
 62
7
  6
CONTINUOUS
 10
-71.799573319
 20
40.299573319
 30
0.0
 11
0.4955779812
 21
-0.4955779812
 31
0.0
 40
0.998782766
 41
2.3568034778
 42
3.9263818294
  0
ELLIPSE
  5
69C
100
AcDbEntity
  8
RACCORDO
100
AcDbEllipse
 62
7
  6
CONTINUOUS
 10
72.4406346919
 20
-3.2251006478
 30
0.0
 11
0.0
 21
0.3
 31
0.0
 40
0.0349207695
 41
-4.7123889804
 42
-3.2288591162
  0
ELLIPSE
  5
69D
100
AcDbEntity
  8
RACCORDO
100
AcDbEllipse
 62
7
  6
CONTINUOUS
 10
72.4406346919
 20
3.2251006478
 30
0.0
 11
-0.0
 21
0.3
 31
0.0
 40
0.0349207695
 41
0.0872664626
 42
1.5707963268
  0
ELLIPSE
  5
69E
100
AcDbEntity
  8
RACCORDO
100
AcDbEllipse
 62
7
  6
CONTINUOUS
 10
-72.4406346919
 20
3.2251006478
 30
0.0
 11
0.0
 21
0.3
 31
0.0
 40
0.0349207695
 41
-1.5707963268
 42
-0.0872664626
  0
ELLIPSE
  5
69F
100
AcDbEntity
  8
RACCORDO
100
AcDbEllipse
 62
7
  6
CONTINUOUS
 10
-72.4406346919
 20
-3.2251006478
 30
0.0
 11
0.0
 21
0.3
 31
0.0
 40
0.0349207695
 41
-3.054326191
 42
-1.5707963268
  0
ELLIPSE
  5
6A0
100
AcDbEntity
  8
RACCORDO
100
AcDbEllipse
 62
7
  6
CONTINUOUS
 10
-72.4825396153
 20
4.1331429141
 30
0.0
 11
0.0
 21
0.5
 31
0.0
 40
0.0349207695
 41
-4.7123889804
 42
-3.2288591162
  0
ELLIPSE
  5
6A1
100
AcDbEntity
  8
RACCORDO
100
AcDbEllipse
 62
7
  6
CONTINUOUS
 10
72.4825396153
 20
4.1331429141
 30
0.0
 11
-0.0
 21
0.5
 31
0.0
 40
0.0349207695
 41
-3.054326191
 42
-1.5707963268
  0
ELLIPSE
  5
6A2
100
AcDbEntity
  8
RACCORDO
100
AcDbEllipse
 62
7
  6
CONTINUOUS
 10
-72.4825396153
 20
-4.1331429141
 30
0.0
 11
-0.0
 21
0.5
 31
0.0
 40
0.0349207695
 41
0.0872664626
 42
1.5707963268
  0
ELLIPSE
  5
6A3
100
AcDbEntity
  8
RACCORDO
100
AcDbEllipse
 62
7
  6
CONTINUOUS
 10
72.4825396153
 20
-4.1331429141
 30
0.0
 11
0.0
 21
0.5
 31
0.0
 40
0.0349207695
 41
-1.5707963268
 42
-0.0872664626
  0
ENDSEC
  0
SECTION
  2
OBJECTS
  0
DICTIONARY
  5
C
100
AcDbDictionary
280
0
281
1
  3
ACAD_GROUP
350
D
  3
ACAD_MLINESTYLE
350
17
  3
ACAD_LAYOUT
350
1A
  3
ACAD_PLOTSETTINGS
350
19
  3
ACAD_PLOTSTYLENAME
350
E
  0
DICTIONARY
  5
D
102
{ACAD_REACTORS
330
C
102
}
100
AcDbDictionary
280
0
281
1
  0
ACDBDICTIONARYWDFLT
  5
E
102
{ACAD_REACTORS
330
C
102
}
100
AcDbDictionary
281
1
  3
Normal
350
F
100
AcDbDictionaryWithDefault
340
F
  0
DICTIONARY
  5
17
102
{ACAD_REACTORS
330
C
102
}
100
AcDbDictionary
280
0
281
1
  3
Standard
350
18
  0
DICTIONARY
  5
19
102
{ACAD_REACTORS
330
C
102
}
100
AcDbDictionary
281
1
  0
DICTIONARY
  5
1A
102
{ACAD_REACTORS
330
C
102
}
100
AcDbDictionary
281
1
  3
Model
350
6A4
  3
Layout1
350
6A5
  0
ACDBPLACEHOLDER
  5
F
102
{ACAD_REACTORS
330
E
102
}
  0
MLINESTYLE
  5
18
102
{ACAD_REACTORS
330
17
102
}
100
AcDbMlineStyle
  2
STANDARD
 70
0
  3

 62
256
 51
90.0
 52
90.0
 71
2
 49
0.5
 62
256
  6
BYLAYER
 49
-0.5
 62
256
  6
BYLAYER
  0
LAYOUT
  5
6A4
102
{ACAD_REACTORS
330
1A
102
}
100
AcDbPlotSettings
  1

  2
none_device
  4
ISO_A4_(297.00_x_210.00_MM)
  6

 40
0.0
 41
0.0
 42
0.0
 43
0.0
 44
297.0
 45
210.0
 46
0.0
 47
0.0
 48
0.0
 49
0.0
140
0.0
141
0.0
142
1.0
143
1.0
 70
1024
 72
1
 73
0
 74
0
  7

 75
0
147
1.0
148
0.0
149
0.0
100
AcDbLayout
  1
Model
 70
0
 71
0
 10
0.0
 20
0.0
 11
297.0
 21
210.0
 12
0.0
 22
0.0
 32
0.0
 14
0.0
 24
0.0
 34
0.0
 15
0.0
 25
0.0
 35
0.0
146
0.0
 13
0.0
 23
0.0
 33
0.0
 16
1.0
 26
0.0
 36
0.0
 17
0.0
 27
1.0
 37
0.0
 76
0
330
217
345
0
346
0
  0
LAYOUT
  5
6A5
102
{ACAD_REACTORS
330
1A
102
}
100
AcDbPlotSettings
  1

  2
none_device
  4
ISO_A4_(297.00_x_210.00_MM)
  6

 40
0.0
 41
0.0
 42
0.0
 43
0.0
 44
297.0
 45
210.0
 46
0.0
 47
0.0
 48
0.0
 49
0.0
140
0.0
141
0.0
142
1.0
143
1.0
 70
0
 72
1
 73
0
 74
0
  7

 75
0
147
1.0
148
0.0
149
0.0
100
AcDbLayout
  1
Layout1
 70
0
 71
1
 10
0.0
 20
0.0
 11
297.0
 21
210.0
 12
0.0
 22
0.0
 32
0.0
 14
0.0
 24
0.0
 34
0.0
 15
0.0
 25
0.0
 35
0.0
146
0.0
 13
0.0
 23
0.0
 33
0.0
 16
1.0
 26
0.0
 36
0.0
 17
0.0
 27
1.0
 37
0.0
 76
0
330
218
345
0
346
0
  0
ENDSEC
  0
EOF
