  0
SECTION
  2
HEADER
  9
$ACADVER
  1
AC1024
  9
$DWGCODEPAGE
  3
ANSI_1252
  9
$EXTMAX
 10
297.0
 20
210.0
 30
0.0
  9
$EXTMIN
 10
0.0
 20
0.0
 30
0.0
  9
$LIMMIN
 10
0.0
 20
0.0
  9
$LIMMAX
 10
297.0
 20
210.0
  9
$VIEWCTR
 10
148.5
 20
105.0
  9
$VIEWSIZE
 40
210.0
  9
$CLAYER
  8
0
  9
$LTSCALE
 40
16.335
  9
$CELTYPE
  6
BYLAYER
  9
$DIMSCALE
 40
1.0
  9
$DIMASZ
 40
3.0
  9
$DIMEXO
 40
0.5
  9
$DIMDLI
 40
11.286
  9
$DIMEXE
 40
1.5
  9
$DIMCEN
 40
2.673
  9
$DIMLFAC
 40
1.0
  9
$DIMBLK
  1
_FILLED
  9
$DIMALT
 70
0
  9
$DIMALTF
 40
0.0393700787
  9
$DIMTXT
 40
3.0
  9
$DIMTOL
 70
1
  9
$DIMLIM
 70
0
  9
$DIMTFAC
 40
1.0
  9
$DIMTP
 40
0.01
  9
$DIMTM
 40
0.01
  9
$DIMGAP
 40
0.625
  9
$DIMDSEP
 70
44
  9
$AUNITS
 70
0
  9
$PDMODE
 70
3
  9
$PDSIZE
 40
3.0
  9
$HANDSEED
  5
347
  9
$TILEMODE
 70
1
  9
$MEASUREMENT
 70
1
  9
$INSUNITS
 70
4
  0
ENDSEC
  0
SECTION
  2
CLASSES
  0
CLASS
  1
ACDBDICTIONARYWDFLT
  2
AcDbDictionaryWithDefault
  3
AutoCAD 2000
 90
0
 91
1
280
0
281
0
  0
CLASS
  1
ACDBPLACEHOLDER
  2
AcDbPlaceHolder
  3
AutoCAD 2000
 90
0
 91
1
280
0
281
0
  0
CLASS
  1
LAYOUT
  2
AcDbLayout
  3
AutoCAD 2000
 90
0
 91
0
280
0
281
0
  0
ENDSEC
  0
SECTION
  2
TABLES
  0
TABLE
  2
VPORT
  5
8
100
AcDbSymbolTable
 70
2
  0
VPORT
  5
1F4
100
AcDbSymbolTableRecord
100
AcDbViewportTableRecord
  2
*ACTIVE
 70
0
 10
0.0
 20
0.0
 11
1.0
 21
1.0
 12
148.5
 22
105.0
 13
0.0
 23
0.0
 14
1.0
 24
1.0
 15
0.0
 25
0.0
 16
0.0
 26
0.0
 36
1.0
 17
0.0
 27
0.0
 37
0.0
 40
210.0
 41
1.4142857143
 42
50.0
 43
0.0
 44
0.0
 50
0.0
 51
0.0
 71
0
 72
100
 73
1
 74
1
 75
0
 76
0
 77
0
 78
0
  0
ENDTAB
  0
TABLE
  2
LTYPE
  5
5
100
AcDbSymbolTable
 70
6
  0
LTYPE
  5
14
100
AcDbSymbolTableRecord
100
AcDbLinetypeTableRecord
  2
BYBLOCK
 70
0
  3

 72
65
 73
0
 40
0.0
  0
LTYPE
  5
15
100
AcDbSymbolTableRecord
100
AcDbLinetypeTableRecord
  2
BYLAYER
 70
0
  3

 72
65
 73
0
 40
0.0
  0
LTYPE
  5
16
100
AcDbSymbolTableRecord
100
AcDbLinetypeTableRecord
  2
CONTINUOUS
 70
64
  3
Solid line
 72
65
 73
0
 40
0.0
  0
LTYPE
  5
1F5
100
AcDbSymbolTableRecord
100
AcDbLinetypeTableRecord
  2
CENTER
 70
64
  3
____ _ ____ _ ____ _ ____ _ ____ _ ____ _ ____
 72
65
 73
4
 40
0.6
 49
0.375
 74
0
 49
-0.075
 74
0
 49
0.075
 74
0
 49
-0.075
 74
0
  0
LTYPE
  5
1F6
100
AcDbSymbolTableRecord
100
AcDbLinetypeTableRecord
  2
HIDDEN
 70
64
  3
- - - - - - - - - - - - - - - - - - - -
 72
65
 73
2
 40
0.2
 49
0.1
 74
0
 49
-0.1
 74
0
  0
LTYPE
  5
1F7
100
AcDbSymbolTableRecord
100
AcDbLinetypeTableRecord
  2
PHANTOM
 70
64
  3
_____ _ _ _____ _ _ _____ _ _ _____
 72
65
 73
6
 40
0.8
 49
0.45
 74
0
 49
-0.05
 74
0
 49
0.1
 74
0
 49
-0.05
 74
0
 49
0.1
 74
0
 49
-0.05
 74
0
  0
LTYPE
  5
1F8
100
AcDbSymbolTableRecord
100
AcDbLinetypeTableRecord
  2
DOT
 70
64
  3
. . . . . . . . . . . . . . . . . . . .
 72
65
 73
2
 40
0.2
 49
0.1
 74
0
 49
-0.1
 74
0
  0
LTYPE
  5
1F9
100
AcDbSymbolTableRecord
100
AcDbLinetypeTableRecord
  2
DASHED
 70
64
  3
- - - - - - - - - - - - - - - - - - - -
 72
65
 73
2
 40
0.2
 49
0.1
 74
0
 49
-0.1
 74
0
  0
ENDTAB
  0
TABLE
  2
LAYER
  5
2
100
AcDbSymbolTable
 70
36
  0
LAYER
  5
10
100
AcDbSymbolTableRecord
100
AcDbLayerTableRecord
  2
0
 70
0
 62
7
  6
CONTINUOUS
370
-3
390
F
  0
LAYER
  5
1FA
100
AcDbSymbolTableRecord
100
AcDbLayerTableRecord
  2
DEFAULT_1
 70
0
 62
7
  6
CENTER
370
-3
390
F
  0
LAYER
  5
1FB
100
AcDbSymbolTableRecord
100
AcDbLayerTableRecord
  2
DEFAULT_2
 70
0
 62
7
  6
HIDDEN
370
-3
390
F
  0
LAYER
  5
1FC
100
AcDbSymbolTableRecord
100
AcDbLayerTableRecord
  2
DEFAULT_3
 70
0
 62
7
  6
PHANTOM
370
-3
390
F
  0
LAYER
  5
1FD
100
AcDbSymbolTableRecord
100
AcDbLayerTableRecord
  2
ASSI
 70
0
 62
7
  6
CONTINUOUS
370
-3
390
F
  0
LAYER
  5
1FE
100
AcDbSymbolTableRecord
100
AcDbLayerTableRecord
  2
COORDINATE
 70
0
 62
7
  6
CONTINUOUS
370
-3
390
F
  0
LAYER
  5
1FF
100
AcDbSymbolTableRecord
100
AcDbLayerTableRecord
  2
COORD_ORIGINE
 70
0
 62
7
  6
CONTINUOUS
370
-3
390
F
  0
LAYER
  5
200
100
AcDbSymbolTableRecord
100
AcDbLayerTableRecord
  2
COSMETICI
 70
0
 62
7
  6
CONTINUOUS
370
-3
390
F
  0
LAYER
  5
201
100
AcDbSymbolTableRecord
100
AcDbLayerTableRecord
  2
CURVE
 70
0
 62
7
  6
CONTINUOUS
370
-3
390
F
  0
LAYER
  5
202
100
AcDbSymbolTableRecord
100
AcDbLayerTableRecord
  2
DRAFT
 70
0
 62
7
  6
CONTINUOUS
370
-3
390
F
  0
LAYER
  5
203
100
AcDbSymbolTableRecord
100
AcDbLayerTableRecord
  2
IMPORT
 70
0
 62
7
  6
CONTINUOUS
370
-3
390
F
  0
LAYER
  5
204
100
AcDbSymbolTableRecord
100
AcDbLayerTableRecord
  2
INTF_1
 70
0
 62
7
  6
CONTINUOUS
370
-3
390
F
  0
LAYER
  5
205
100
AcDbSymbolTableRecord
100
AcDbLayerTableRecord
  2
NOTE
 70
0
 62
7
  6
CONTINUOUS
370
-3
390
F
  0
LAYER
  5
206
100
AcDbSymbolTableRecord
100
AcDbLayerTableRecord
  2
PIANI
 70
0
 62
7
  6
CONTINUOUS
370
-3
390
F
  0
LAYER
  5
207
100
AcDbSymbolTableRecord
100
AcDbLayerTableRecord
  2
PIANI_ORIGINE
 70
0
 62
7
  6
CONTINUOUS
370
-3
390
F
  0
LAYER
  5
208
100
AcDbSymbolTableRecord
100
AcDbLayerTableRecord
  2
PUNTI
 70
0
 62
7
  6
CONTINUOUS
370
-3
390
F
  0
LAYER
  5
209
100
AcDbSymbolTableRecord
100
AcDbLayerTableRecord
  2
RACCORDO
 70
0
 62
7
  6
CONTINUOUS
370
-3
390
F
  0
LAYER
  5
20A
100
AcDbSymbolTableRecord
100
AcDbLayerTableRecord
  2
RGB____0____0____0__
 70
0
 62
7
  6
CONTINUOUS
370
-3
390
F
  0
LAYER
  5
20B
100
AcDbSymbolTableRecord
100
AcDbLayerTableRecord
  2
SIMBOLI
 70
0
 62
7
  6
CONTINUOUS
370
-3
390
F
  0
LAYER
  5
20C
100
AcDbSymbolTableRecord
100
AcDbLayerTableRecord
  2
SNAPLINE
 70
0
 62
7
  6
CONTINUOUS
370
-3
390
F
  0
LAYER
  5
20D
100
AcDbSymbolTableRecord
100
AcDbLayerTableRecord
  2
SUPERFICI
 70
0
 62
7
  6
CONTINUOUS
370
-3
390
F
  0
LAYER
  5
20E
100
AcDbSymbolTableRecord
100
AcDbLayerTableRecord
  2
TRASH
 70
0
 62
7
  6
CONTINUOUS
370
-3
390
F
  0
LAYER
  5
20F
100
AcDbSymbolTableRecord
100
AcDbLayerTableRecord
  2
XSEC_DATUMS
 70
0
 62
7
  6
CONTINUOUS
370
-3
390
F
  0
ENDTAB
  0
TABLE
  2
STYLE
  5
3
100
AcDbSymbolTable
 70
1
  0
STYLE
  5
11
100
AcDbSymbolTableRecord
100
AcDbTextStyleTableRecord
  2
STANDARD
 70
0
 40
0.0
 41
0.8
 50
0.0
 71
0
 42
0.2
  3
txt
  4

  0
STYLE
  5
210
100
AcDbSymbolTableRecord
100
AcDbTextStyleTableRecord
  2
TEXTSTYLE_1
 70
0
 40
0.0
 41
0.8
 50
0.0
 71
0
 42
0.2
  3
gdt
  4

  0
ENDTAB
  0
TABLE
  2
VIEW
  5
6
100
AcDbSymbolTable
 70
0
  0
ENDTAB
  0
TABLE
  2
UCS
  5
7
100
AcDbSymbolTable
 70
0
  0
ENDTAB
  0
TABLE
  2
APPID
  5
9
100
AcDbSymbolTable
 70
1
  0
APPID
  5
211
100
AcDbSymbolTableRecord
100
AcDbRegAppTableRecord
  2
ACAD
 70
0
  0
ENDTAB
  0
TABLE
  2
BLOCK_RECORD
  5
1
100
AcDbSymbolTable
 70
0
  0
BLOCK_RECORD
  5
212
100
AcDbSymbolTableRecord
100
AcDbBlockTableRecord
  2
*Model_Space
  0
BLOCK_RECORD
  5
213
100
AcDbSymbolTableRecord
100
AcDbBlockTableRecord
  2
*Paper_Space
  0
BLOCK_RECORD
  5
214
100
AcDbSymbolTableRecord
100
AcDbBlockTableRecord
  2
_FILLED
  0
BLOCK_RECORD
  5
215
100
AcDbSymbolTableRecord
100
AcDbBlockTableRecord
  2
*D0
  0
BLOCK_RECORD
  5
216
100
AcDbSymbolTableRecord
100
AcDbBlockTableRecord
  2
*D1
  0
BLOCK_RECORD
  5
217
100
AcDbSymbolTableRecord
100
AcDbBlockTableRecord
  2
*D2
  0
ENDTAB
  0
TABLE
  2
DIMSTYLE
  5
A
100
AcDbSymbolTable
 70
1
100
AcDbDimStyleTable
 71
0
  0
DIMSTYLE
105
218
100
AcDbSymbolTableRecord
100
AcDbDimStyleTableRecord
  2
STANDARD
 70
0
  3

  4

 40
1.0
 41
3.0
 42
0.5
 43
0.38
 44
1.5
 45
0.0
 46
0.0
 47
0.01
 48
0.01
140
3.0
141
0.09
142
0.0
143
25.4
144
1.0
145
0.0
146
1.0
147
0.625
 71
1
 72
0
 73
0
 74
0
 75
0
 76
0
 77
1
 78
8
 79
2
170
0
171
1
172
0
173
0
174
0
175
0
176
0
177
0
178
0
270
2
179
2
271
2
272
2
273
2
274
2
275
0
280
0
281
0
282
0
283
1
284
8
285
0
286
0
287
3
288
0
340
11
278
44
341
214
342
214
343
214
344
214
  0
DIMSTYLE
105
219
100
AcDbSymbolTableRecord
100
AcDbDimStyleTableRecord
  2
DIMSTYLE_1
 70
0
  3

  4

 40
1.0
 41
3.0
 42
0.5
 43
0.38
 44
1.5
 45
0.0
 46
0.0
 47
0.0
 48
0.0
140
3.0
141
0.09
142
0.0
143
25.4
144
1.0
145
0.0
146
1.0
147
0.75
 71
0
 72
0
 73
0
 74
0
 75
0
 76
0
 77
1
 78
8
 79
2
170
0
171
1
172
0
173
0
174
0
175
0
176
0
177
0
178
0
270
2
179
2
271
2
272
2
273
2
274
2
275
0
280
0
281
0
282
0
283
1
284
8
285
0
286
0
287
3
288
0
340
11
278
44
341
214
342
214
343
214
344
214
  0
ENDTAB
  0
ENDSEC
  0
SECTION
  2
BLOCKS
  0
BLOCK
  5
20
100
AcDbEntity
  8
0
100
AcDbBlockBegin
  2
*Model_Space
 70
0
 10
0.0
 20
0.0
 30
0.0
  3
*Model_Space
  1

  0
ENDBLK
  5
21
100
AcDbEntity
  8
0
100
AcDbBlockEnd
  0
BLOCK
  5
1C
100
AcDbEntity
  8
0
100
AcDbBlockBegin
  2
*Paper_Space
 70
0
 10
0.0
 20
0.0
 30
0.0
  3
*Paper_Space
  1

  0
ENDBLK
  5
1D
100
AcDbEntity
  8
0
100
AcDbBlockEnd
  0
BLOCK
  5
21A
100
AcDbEntity
  8
0
100
AcDbBlockBegin
  2
_FILLED
 70
64
 10
0.0
 20
0.0
  3
_FILLED
  1

  0
SOLID
  5
21B
100
AcDbEntity
  8
0
  6
BYBLOCK
 62
0
100
AcDbTrace
 10
0.0
 20
0.0
 11
-1.0
 21
0.3166666667
 12
-1.0
 22
-0.3166666667
 13
-1.0
 23
-0.3166666667
  0
ENDBLK
  5
21C
100
AcDbEntity
  8
0
  6
BYBLOCK
 62
0
100
AcDbBlockEnd
  0
BLOCK
  5
21D
100
AcDbEntity
  8
0
100
AcDbBlockBegin
 62
7
  6
CONTINUOUS
  2
*D0
 70
65
 10
0.0
 20
0.0
  3
*D0
  1

  0
LINE
  5
21E
100
AcDbEntity
  8
0
100
AcDbLine
 62
7
  6
CONTINUOUS
 10
-85.0
 20
40.3016445583
 11
-85.0
 21
50.5
  0
LINE
  5
21F
100
AcDbEntity
  8
0
100
AcDbLine
 62
7
  6
CONTINUOUS
 10
85.0
 20
40.3016445583
 11
85.0
 21
50.5
  0
LINE
  5
220
100
AcDbEntity
  8
0
100
AcDbLine
 62
7
  6
CONTINUOUS
 10
-85.0
 20
49.0
 11
0.0
 21
49.0
  0
LINE
  5
221
100
AcDbEntity
  8
0
100
AcDbLine
 62
7
  6
CONTINUOUS
 10
85.0
 20
49.0
 11
0.0
 21
49.0
  0
INSERT
  5
222
100
AcDbEntity
  8
0
100
AcDbBlockReference
 62
7
  6
CONTINUOUS
  2
_FILLED
 10
-85.0
 20
49.0
 41
3.0
 42
3.0
 43
3.0
 50
180.0
  0
INSERT
  5
223
100
AcDbEntity
  8
0
100
AcDbBlockReference
 62
7
  6
CONTINUOUS
  2
_FILLED
 10
85.0
 20
49.0
 41
3.0
 42
3.0
 43
3.0
  0
ENDBLK
  5
224
100
AcDbEntity
  8
0
  6
BYBLOCK
 62
0
100
AcDbBlockEnd
  0
BLOCK
  5
225
100
AcDbEntity
  8
0
100
AcDbBlockBegin
 62
7
  6
CONTINUOUS
  2
*D1
 70
65
 10
0.0
 20
0.0
  3
*D1
  1

  0
LINE
  5
226
100
AcDbEntity
  8
0
100
AcDbLine
 62
7
  6
CONTINUOUS
 10
-103.8206603596
 20
0.5
 11
-103.8206603596
 21
50.5
  0
LINE
  5
227
100
AcDbEntity
  8
0
100
AcDbLine
 62
7
  6
CONTINUOUS
 10
-94.9206603596
 20
41.5
 11
-94.9206603596
 21
50.5
  0
LINE
  5
228
100
AcDbEntity
  8
0
100
AcDbLine
 62
7
  6
CONTINUOUS
 10
-103.8206603596
 20
49.0
 11
-107.8206603596
 21
49.0
  0
LINE
  5
229
100
AcDbEntity
  8
0
100
AcDbLine
 62
7
  6
CONTINUOUS
 10
-107.8206603596
 20
49.0
 11
-99.3706603596
 21
49.0
  0
LINE
  5
22A
100
AcDbEntity
  8
0
100
AcDbLine
 62
7
  6
CONTINUOUS
 10
-94.9206603596
 20
49.0
 11
-90.9206603596
 21
49.0
  0
LINE
  5
22B
100
AcDbEntity
  8
0
100
AcDbLine
 62
7
  6
CONTINUOUS
 10
-90.9206603596
 20
49.0
 11
-99.3706603596
 21
49.0
  0
INSERT
  5
22C
100
AcDbEntity
  8
0
100
AcDbBlockReference
 62
7
  6
CONTINUOUS
  2
_FILLED
 10
-103.8206603596
 20
49.0
 41
3.0
 42
3.0
 43
3.0
  0
INSERT
  5
22D
100
AcDbEntity
  8
0
100
AcDbBlockReference
 62
7
  6
CONTINUOUS
  2
_FILLED
 10
-94.9206603596
 20
49.0
 41
3.0
 42
3.0
 43
3.0
 50
180.0
  0
ENDBLK
  5
22E
100
AcDbEntity
  8
0
  6
BYBLOCK
 62
0
100
AcDbBlockEnd
  0
BLOCK
  5
22F
100
AcDbEntity
  8
0
100
AcDbBlockBegin
 62
7
  6
CONTINUOUS
  2
*D2
 70
65
 10
0.0
 20
0.0
  3
*D2
  1

  0
LINE
  5
230
100
AcDbEntity
  8
0
100
AcDbLine
 62
7
  6
CONTINUOUS
 10
-95.4206603596
 20
41.0
 11
-113.3206603596
 21
41.0
  0
LINE
  5
231
100
AcDbEntity
  8
0
100
AcDbLine
 62
7
  6
CONTINUOUS
 10
-95.4206603596
 20
-41.0
 11
-113.3206603596
 21
-41.0
  0
LINE
  5
232
100
AcDbEntity
  8
0
100
AcDbLine
 62
7
  6
CONTINUOUS
 10
-111.8206603596
 20
41.0
 11
-111.8206603596
 21
0.0
  0
LINE
  5
233
100
AcDbEntity
  8
0
100
AcDbLine
 62
7
  6
CONTINUOUS
 10
-111.8206603596
 20
-41.0
 11
-111.8206603596
 21
0.0
  0
INSERT
  5
234
100
AcDbEntity
  8
0
100
AcDbBlockReference
 62
7
  6
CONTINUOUS
  2
_FILLED
 10
-111.8206603596
 20
41.0
 41
3.0
 42
3.0
 43
3.0
 50
90.0
  0
INSERT
  5
235
100
AcDbEntity
  8
0
100
AcDbBlockReference
 62
7
  6
CONTINUOUS
  2
_FILLED
 10
-111.8206603596
 20
-41.0
 41
3.0
 42
3.0
 43
3.0
 50
270.0
  0
ENDBLK
  5
236
100
AcDbEntity
  8
0
  6
BYBLOCK
 62
0
100
AcDbBlockEnd
  0
ENDSEC
  0
SECTION
  2
ENTITIES
  0
DIMENSION
  5
237
100
AcDbEntity
  8
0
100
AcDbDimension
 62
7
  6
CONTINUOUS
  2
*D0
 10
85.0
 20
49.0
 11
-3.2142857143
 21
49.0
 70
160
 71
2
 72
2
 41
0.9
 42
170.0
  3
DIMSTYLE_1
100
AcDbAlignedDimension
 13
-85.0
 23
39.8016445583
 14
85.0
 24
39.8016445583
100
AcDbRotatedDimension
  0
DIMENSION
  5
238
100
AcDbEntity
  8
0
100
AcDbDimension
 62
7
  6
CONTINUOUS
  2
*D1
 10
-94.9206603596
 20
49.0
 11
-102.5849460739
 21
49.0
 70
160
 71
2
 72
2
 41
0.9
 42
8.9
  3
DIMSTYLE_1
100
AcDbAlignedDimension
 13
-103.8206603596
 23
0.0
 14
-94.9206603596
 24
41.0
100
AcDbRotatedDimension
  0
DIMENSION
  5
239
100
AcDbEntity
  8
0
100
AcDbDimension
 62
7
  6
CONTINUOUS
  2
*D2
 10
-111.8206603596
 20
-41.0
 11
-111.8206603596
 21
-2.3571428571
 70
160
 71
2
 72
2
 41
0.9
 42
82.0
  3
DIMSTYLE_1
100
AcDbAlignedDimension
 13
-94.9206603596
 23
41.0
 14
-94.9206603596
 24
-41.0
 50
270.0
100
AcDbRotatedDimension
  0
LWPOLYLINE
  5
23A
100
AcDbEntity
  8
RACCORDO
100
AcDbPolyline
 62
250
  6
CONTINUOUS
 90
16
 70
0
 10
-84.6909734094
 20
39.4926179677
 10
-84.6845949027
 20
39.5001367306
 10
-84.6735188887
 20
39.5071565986
 10
-84.6578136393
 20
39.5139127832
 10
-84.6374171066
 20
39.5208739258
 10
-84.6123127825
 20
39.5279299333
 10
-84.5827316837
 20
39.5345182261
 10
-84.5488671163
 20
39.5409928346
 10
-84.5107197897
 20
39.5475783925
 10
-84.4684639547
 20
39.5536221102
 10
-84.4223413157
 20
39.5594156335
 10
-84.3724991564
 20
39.5652731958
 10
-84.3190760531
 20
39.5705423228
 10
-84.2623655248
 20
39.5754662993
 10
-84.2026221084
 20
39.5803735669
 10
-84.1399651261
 20
39.5846649833
  0
LWPOLYLINE
  5
23B
100
AcDbEntity
  8
RACCORDO
100
AcDbPolyline
 62
250
  6
CONTINUOUS
 90
25
 70
0
 10
-84.6909734094
 20
-39.4926179677
 10
-84.6846213503
 20
-39.499775401
 10
-84.6734979902
 20
-39.5069043749
 10
-84.6576478542
 20
-39.5139765616
 10
-84.6371343881
 20
-39.5209639739
 10
-84.6120397028
 20
-39.5278386907
 10
-84.5824642447
 20
-39.5345729239
 10
-84.5485263974
 20
-39.5411397322
 10
-84.5103620066
 20
-39.5475129876
 10
-84.4681238347
 20
-39.5536670529
 10
-84.4219809508
 20
-39.5595772914
 10
-84.3721180542
 20
-39.5652201219
 10
-84.3187347337
 20
-39.5705729201
 10
-84.2620446698
 20
-39.5756142285
 10
-84.2022747793
 20
-39.5803238994
 10
-84.1396643068
 20
-39.5846831187
 10
-84.0744638667
 20
-39.5886743614
 10
-84.0069344404
 20
-39.5922816548
 10
-83.9373463328
 20
-39.5954906867
 10
-83.8659780874
 20
-39.5982884545
 10
-83.793115374
 20
-39.6006637452
 10
-83.7190498458
 20
-39.6026073216
 10
-83.644077969
 20
-39.604111356
 10
-83.5684998363
 20
-39.6051695071
 10
-83.4926179677
 20
-39.6057773315
  0
LWPOLYLINE
  5
23C
100
AcDbEntity
  8
RACCORDO
100
AcDbPolyline
 62
250
  6
CONTINUOUS
 90
28
 70
0
 10
-84.6909734094
 20
-39.4926179677
 10
-84.6887752916
 20
-39.5619650121
 10
-84.6825616769
 20
-39.6311343765
 10
-84.672343894
 20
-39.6998930379
 10
-84.6581425501
 20
-39.7680263318
 10
-84.6399982858
 20
-39.8352844968
 10
-84.6179820326
 20
-39.9013862225
 10
-84.5921759313
 20
-39.9660903444
 10
-84.5626613439
 20
-40.0291975151
 10
-84.5295358542
 20
-40.0904983026
 10
-84.4929091678
 20
-40.1497877983
 10
-84.4529054562
 20
-40.2068632876
 10
-84.409661658
 20
-40.2615288123
 10
-84.3633247062
 20
-40.3135988487
 10
-84.3140500566
 20
-40.36289891
 10
-84.2620035454
 20
-40.4092630163
 10
-84.2073604492
 20
-40.4525348695
 10
-84.1503053273
 20
-40.4925681669
 10
-84.0910310387
 20
-40.5292275274
 10
-84.0297377234
 20
-40.5623891768
 10
-83.9666320526
 20
-40.5919413052
 10
-83.9019269243
 20
-40.6177842012
 10
-83.8358406206
 20
-40.6398306659
 10
-83.7685961576
 20
-40.6580062831
 10
-83.700420512
 20
-40.672249697
 10
-83.6315437487
 20
-40.6825128465
 10
-83.5621982398
 20
-40.6887611108
 10
-83.4926179677
 20
-40.6909734094
  0
LINE
  5
23D
100
AcDbEntity
  8
RACCORDO
100
AcDbLine
 62
7
  6
CONTINUOUS
 10
-85.0
 20
-39.8016445583
 11
-85.0
 21
-3.6749773271
  0
LINE
  5
23E
100
AcDbEntity
  8
RACCORDO
100
AcDbLine
 62
7
  6
CONTINUOUS
 10
-85.0
 20
3.6749773271
 11
-85.0
 21
39.8016445583
  0
LINE
  5
23F
100
AcDbEntity
  8
DRAFT
100
AcDbLine
 62
7
  6
CONTINUOUS
 10
-84.8951844414
 20
3.5
 11
-84.8951844414
 21
-3.5
  0
LINE
  5
240
100
AcDbEntity
  8
RACCORDO
100
AcDbLine
 62
250
  6
CONTINUOUS
 10
-83.4926179677
 20
40.6909734094
 11
-83.4926179677
 21
39.6057773315
  0
LINE
  5
241
100
AcDbEntity
  8
RACCORDO
100
AcDbLine
 62
250
  6
CONTINUOUS
 10
-83.4926179677
 20
-39.6057773315
 11
-83.4926179677
 21
-40.6909734094
  0
LWPOLYLINE
  5
242
100
AcDbEntity
  8
RACCORDO
100
AcDbPolyline
 62
250
  6
CONTINUOUS
 90
22
 70
0
 10
-84.6909735919
 20
-39.4926181502
 10
-84.6732414064
 20
-35.7409093885
 10
-84.6572801928
 20
-31.9868146915
 10
-84.6430899512
 20
-28.2303340593
 10
-84.630669665
 20
-24.4711374888
 10
-84.6200203507
 20
-20.7095549831
 10
-84.6111450577
 20
-16.9465765512
 10
-84.6040443392
 20
-13.1822218207
 10
-84.598717642
 20
-9.4164711641
 10
-84.5951663556
 20
-5.650255708
 10
-84.5933909433
 20
-1.8835758694
 10
-84.5933909417
 20
1.8835687687
 10
-84.5951663504
 20
5.6502483304
 10
-84.5987176319
 20
9.4164630474
 10
-84.6040443235
 20
13.1822126879
 10
-84.6111450367
 20
16.9465666816
 10
-84.6200203235
 20
20.7095445708
 10
-84.6306696317
 20
24.4711268132
 10
-84.6430899163
 20
28.2303242111
 10
-84.6572801621
 20
31.9868070322
 10
-84.6732413842
 20
35.7409050088
 10
-84.6909735826
 20
39.4926181409
  0
LWPOLYLINE
  5
243
100
AcDbEntity
  8
RACCORDO
100
AcDbPolyline
 62
250
  6
CONTINUOUS
 90
22
 70
0
 10
-83.4926179677
 20
-39.6057773315
 10
-83.4748851784
 20
-35.8436427817
 10
-83.4589235824
 20
-32.0785643838
 10
-83.4447331796
 20
-28.3108466001
 10
-83.4323130429
 20
-24.5407876358
 10
-83.4216640995
 20
-20.7686988738
 10
-83.412789131
 20
-16.9949048827
 10
-83.4056886014
 20
-13.2197116111
 10
-83.4003620468
 20
-9.4434237559
 10
-83.3968108565
 20
-5.666364234
 10
-83.395035494
 20
-1.8888392027
 10
-83.3950354958
 20
1.8888463322
 10
-83.3968108614
 20
5.6663711074
 10
-83.4003620539
 20
9.4434300554
 10
-83.4056886103
 20
13.2197170809
 10
-83.4127891406
 20
16.9949094532
 10
-83.4216641085
 20
20.7687024666
 10
-83.4323130504
 20
24.5407901816
 10
-83.4447331854
 20
28.3108482422
 10
-83.4589235864
 20
32.0785653357
 10
-83.4748851805
 20
35.8436431863
 10
-83.4926179677
 20
39.6057773315
  0
LWPOLYLINE
  5
244
100
AcDbEntity
  8
RACCORDO
100
AcDbPolyline
 62
250
  6
CONTINUOUS
 90
28
 70
0
 10
-84.6909734094
 20
39.4926179677
 10
-84.6887625236
 20
39.5621750371
 10
-84.6825183622
 20
39.6314975672
 10
-84.6722619797
 20
39.7003518097
 10
-84.6580279597
 20
39.7685055952
 10
-84.6398642977
 20
39.8357291162
 10
-84.6178322397
 20
39.9017957018
 10
-84.5920060757
 20
39.9664825825
 10
-84.5624728886
 20
40.0295716407
 10
-84.5293322615
 20
40.0908501466
 10
-84.492695941
 20
40.1501114756
 10
-84.452687461
 20
40.2071558044
 10
-84.409441726
 20
40.2617907856
 10
-84.3631045562
 20
40.3138321956
 10
-84.3138321956
 20
40.3631045562
 10
-84.2617907856
 20
40.409441726
 10
-84.2071558044
 20
40.452687461
 10
-84.1501114756
 20
40.492695941
 10
-84.0908501466
 20
40.5293322615
 10
-84.0295716407
 20
40.5624728886
 10
-83.9664825825
 20
40.5920060757
 10
-83.9017957018
 20
40.6178322397
 10
-83.8357291162
 20
40.6398642977
 10
-83.7685055952
 20
40.6580279597
 10
-83.7003518097
 20
40.6722619797
 10
-83.6314975672
 20
40.6825183622
 10
-83.5621750371
 20
40.6887625236
 10
-83.4926179677
 20
40.6909734094
  0
LINE
  5
245
100
AcDbEntity
  8
DRAFT
100
AcDbLine
 62
7
  6
CONTINUOUS
 10
-84.8951844414
 20
-3.5
 11
-85.0
 21
-3.6749773271
  0
LINE
  5
246
100
AcDbEntity
  8
RACCORDO
100
AcDbLine
 62
250
  6
CONTINUOUS
 10
-63.5583078505
 20
39.3228858489
 11
-63.4166401736
 21
39.4635394966
  0
LINE
  5
247
100
AcDbEntity
  8
RACCORDO
100
AcDbLine
 62
250
  6
CONTINUOUS
 10
-63.5583191774
 20
-39.3228767649
 11
-63.4166383553
 21
-39.4635311044
  0
LINE
  5
248
100
AcDbEntity
  8
DRAFT
100
AcDbLine
 62
7
  6
CONTINUOUS
 10
-85.0
 20
3.6749773271
 11
-84.8951844414
 21
3.5
  0
LINE
  5
249
100
AcDbEntity
  8
RACCORDO
100
AcDbLine
 62
250
  6
CONTINUOUS
 10
-63.7
 20
39.6057773315
 11
-63.7
 21
-39.6057773315
  0
LINE
  5
24A
100
AcDbEntity
  8
RACCORDO
100
AcDbLine
 62
7
  6
CONTINUOUS
 10
-62.5
 20
25.9333767376
 11
-62.5
 21
-25.9333767287
  0
LWPOLYLINE
  5
24B
100
AcDbEntity
  8
RACCORDO
100
AcDbPolyline
 62
250
  6
CONTINUOUS
 90
7
 70
0
 10
-62.5
 20
-25.9333767861
 10
-62.5016144261
 20
-26.4639337115
 10
-62.5061933267
 20
-26.9787259007
 10
-62.5133481254
 20
-27.4777319199
 10
-62.5226642886
 20
-27.9603860267
 10
-62.5338030677
 20
-28.4272180928
 10
-62.546588164
 20
-28.8798546903
  0
LWPOLYLINE
  5
24C
100
AcDbEntity
  8
RACCORDO
100
AcDbPolyline
 62
250
  6
CONTINUOUS
 90
23
 70
0
 10
-61.3
 20
23.4574993802
 10
-61.3009334391
 20
23.431722456
 10
-61.3044112121
 20
23.4054449243
 10
-61.3104333189
 20
23.3786904326
 10
-61.3190281158
 20
23.3513992058
 10
-61.3301672466
 20
23.3236861449
 10
-61.3437656427
 20
23.2958343815
 10
-61.359933144
 20
23.2679403069
 10
-61.3785599107
 20
23.2399592552
 10
-61.3992313545
 20
23.2119576453
 10
-61.4219362313
 20
23.1840396881
 10
-61.4466857853
 20
23.1561569913
 10
-61.4730991615
 20
23.1281548196
 10
-61.501130602
 20
23.1001160364
 10
-61.5308258648
 20
23.0720379194
 10
-61.5619413684
 20
23.0436628626
 10
-61.5944661351
 20
23.0150693037
 10
-61.6284111427
 20
22.9863089129
 10
-61.6635657432
 20
22.9571270969
 10
-61.6999225451
 20
22.9276672478
 10
-61.7374889399
 20
22.897994231
 10
-61.7760764544
 20
22.8678068469
 10
-61.816127299
 20
22.8369549519
  0
LWPOLYLINE
  5
24D
100
AcDbEntity
  8
RACCORDO
100
AcDbPolyline
 62
7
  6
CONTINUOUS
 90
4
 70
0
 10
-62.5
 20
22.2719874245
 10
-62.4989157323
 20
22.300008337
 10
-62.4958512884
 20
22.3257633034
 10
-62.4911156389
 20
22.3490592464
  0
LWPOLYLINE
  5
24E
100
AcDbEntity
  8
RACCORDO
100
AcDbPolyline
 62
250
  6
CONTINUOUS
 90
28
 70
0
 10
-62.5
 20
23.2149987606
 10
-62.497970284
 20
23.2291647582
 10
-62.4918877468
 20
23.2432594382
 10
-62.4817725838
 20
23.2572353133
 10
-62.46765848
 20
23.2710359172
 10
-62.4495928951
 20
23.2846238488
 10
-62.4276372912
 20
23.2979808811
 10
-62.4018661933
 20
23.3110713384
 10
-62.3723665952
 20
23.3238411927
 10
-62.3392383513
 20
23.3362460691
 10
-62.3025935716
 20
23.348243941
 10
-62.2625562353
 20
23.3597941795
 10
-62.2192618313
 20
23.3708565916
 10
-62.1728568632
 20
23.3813937292
 10
-62.1234983485
 20
23.3913699322
 10
-62.071353302
 20
23.4007503656
 10
-62.0165981681
 20
23.4095032954
 10
-61.9594182259
 20
23.4175991142
 10
-61.9000069604
 20
23.4250093639
 10
-61.8385654046
 20
23.4317089861
 10
-61.7753014627
 20
23.4376753271
 10
-61.7104292087
 20
23.4428871368
 10
-61.6441681557
 20
23.4473267933
 10
-61.5767425156
 20
23.4509792835
 10
-61.5083804441
 20
23.4538311771
 10
-61.4393132641
 20
23.4558724639
 10
-61.3697746818
 20
23.4570965851
 10
-61.3
 20
23.4574993802
  0
LWPOLYLINE
  5
24F
100
AcDbEntity
  8
RACCORDO
100
AcDbPolyline
 62
250
  6
CONTINUOUS
 90
25
 70
0
 10
-62.5
 20
25.933376786
 10
-62.4974307077
 20
25.946897738
 10
-62.4897338331
 20
25.9603607911
 10
-62.4769423352
 20
25.9737082946
 10
-62.4591109895
 20
25.9868830923
 10
-62.4363161524
 20
25.9998287677
 10
-62.408655435
 20
26.0124898856
 10
-62.3762472848
 20
26.0248122289
 10
-62.3392304786
 20
26.0367430316
 10
-62.2977635279
 20
26.0482312041
 10
-62.2520240007
 20
26.0592275523
 10
-62.2022077607
 20
26.0696849882
 10
-62.1485281287
 20
26.0795587314
 10
-62.0912149691
 20
26.0888065011
 10
-62.0305137057
 20
26.0973886968
 10
-61.9666842707
 20
26.1052685684
 10
-61.8999999914
 20
26.112412373
 10
-61.8307464202
 20
26.1187895196
 10
-61.7592201116
 20
26.1243727006
 10
-61.685727352
 20
26.1291380076
 10
-61.6105828489
 20
26.1330650352
 10
-61.5341083824
 20
26.1361369669
 10
-61.4566314279
 20
26.1383406485
 10
-61.3784837537
 20
26.1396666435
 10
-61.3
 20
26.1401092736
  0
LWPOLYLINE
  5
250
100
AcDbEntity
  8
RACCORDO
100
AcDbPolyline
 62
7
  6
CONTINUOUS
 90
7
 70
0
 10
-62.4911156389
 20
22.3490592464
 10
-62.4849517784
 20
22.3700379508
 10
-62.4776828129
 20
22.3885172276
 10
-62.4697624182
 20
22.4042471088
 10
-62.4613247116
 20
22.4177239485
 10
-62.4519752702
 20
22.4299449044
 10
-62.441055192
 20
22.441786594
  0
LWPOLYLINE
  5
251
100
AcDbEntity
  8
RACCORDO
100
AcDbPolyline
 62
250
  6
CONTINUOUS
 90
25
 70
0
 10
-62.5
 20
-25.9333767861
 10
-62.4974306749
 20
-25.9468978299
 10
-62.4897337045
 20
-25.96036097
 10
-62.476942053
 20
-25.9737085545
 10
-62.4591104995
 20
-25.9868834275
 10
-62.4363154069
 20
-25.9998291708
 10
-62.4086543987
 20
-26.0124903453
 10
-62.3762459322
 20
-26.0248127339
 10
-62.3392287931
 20
-26.0367435703
 10
-62.2977615101
 20
-26.0482317629
 10
-62.2520216631
 20
-26.059228118
 10
-62.2022051257
 20
-26.0696855484
 10
-62.148525236
 20
-26.0795592734
 10
-62.0912118702
 20
-26.0888070134
 10
-62.0305104603
 20
-26.0973891698
 10
-61.9666809517
 20
-26.1052689935
 10
-61.8999966805
 20
-26.1124127437
 10
-61.8307432035
 20
-26.118789832
 10
-61.7592170809
 20
-26.1243729528
 10
-61.6857246029
 20
-26.1291382004
 10
-61.6105804762
 20
-26.1330651719
 10
-61.5341064773
 20
-26.1361370539
 10
-61.4566300774
 20
-26.1383406945
 10
-61.3784830406
 20
-26.1396666597
 10
-61.3
 20
-26.1401092738
  0
LWPOLYLINE
  5
252
100
AcDbEntity
  8
RACCORDO
100
AcDbPolyline
 62
250
  6
CONTINUOUS
 90
28
 70
0
 10
-62.5
 20
-23.2149987608
 10
-62.4979706473
 20
-23.2292691917
 10
-62.4918890217
 20
-23.2434500299
 10
-62.4817750502
 20
-23.2574938364
 10
-62.4676620589
 20
-23.2713418173
 10
-62.4495972894
 20
-23.2849589792
 10
-62.427642349
 20
-23.2983342306
 10
-62.4018718126
 20
-23.3114324046
 10
-62.3723725421
 20
-23.3241990059
 10
-62.3392445248
 20
-23.3365953164
 10
-62.3025999512
 20
-23.3485798996
 10
-62.2625627475
 20
-23.3601115564
 10
-62.2192683896
 20
-23.3711539937
 10
-62.1728633769
 20
-23.381670378
 10
-62.1235047369
 20
-23.3916244337
 10
-62.07135949
 20
-23.4009833688
 10
-62.0166040863
 20
-23.4097160168
 10
-61.9594238089
 20
-23.4177921947
 10
-61.9000121464
 20
-23.425183768
 10
-61.8385701354
 20
-23.4318661588
 10
-61.7753056876
 20
-23.4378162248
 10
-61.7104328869
 20
-23.4430115878
 10
-61.6441712514
 20
-23.447434982
 10
-61.5767450011
 20
-23.4510710333
 10
-61.5083823072
 20
-23.4539041099
 10
-61.4393145023
 20
-23.4559234675
 10
-61.3697752968
 20
-23.4571232786
 10
-61.3
 20
-23.4574993804
  0
LINE
  5
253
100
AcDbEntity
  8
RACCORDO
100
AcDbLine
 62
250
  6
CONTINUOUS
 10
-63.0354326829
 20
36.3976122809
 11
-62.9887696394
 21
35.9513135925
  0
LINE
  5
254
100
AcDbEntity
  8
RACCORDO
100
AcDbLine
 62
250
  6
CONTINUOUS
 10
-62.9887696394
 20
35.9513135925
 11
-62.942726914
 21
35.4775881441
  0
LINE
  5
255
100
AcDbEntity
  8
RACCORDO
100
AcDbLine
 62
250
  6
CONTINUOUS
 10
-62.942726914
 20
35.4775881441
 11
-62.8973255406
 21
34.9753026013
  0
LINE
  5
256
100
AcDbEntity
  8
RACCORDO
100
AcDbLine
 62
250
  6
CONTINUOUS
 10
-62.8973255406
 20
34.9753026013
 11
-62.8525890531
 21
34.4430778
  0
LINE
  5
257
100
AcDbEntity
  8
RACCORDO
100
AcDbLine
 62
250
  6
CONTINUOUS
 10
-62.8525890531
 20
34.4430778
 11
-62.808585634
 21
33.8791667475
  0
LINE
  5
258
100
AcDbEntity
  8
RACCORDO
100
AcDbLine
 62
250
  6
CONTINUOUS
 10
-62.808585634
 20
33.8791667475
 11
-62.7655193543
 21
33.2821148491
  0
LINE
  5
259
100
AcDbEntity
  8
RACCORDO
100
AcDbLine
 62
250
  6
CONTINUOUS
 10
-62.7655193543
 20
33.2821148491
 11
-62.7235650339
 21
32.6493313615
  0
LINE
  5
25A
100
AcDbEntity
  8
RACCORDO
100
AcDbLine
 62
250
  6
CONTINUOUS
 10
-62.7235650339
 20
32.6493313615
 11
-62.6829706296
 21
31.9777379646
  0
LINE
  5
25B
100
AcDbEntity
  8
RACCORDO
100
AcDbLine
 62
250
  6
CONTINUOUS
 10
-62.6829706296
 20
31.9777379646
 11
-62.644227762
 21
31.2652099249
  0
LINE
  5
25C
100
AcDbEntity
  8
RACCORDO
100
AcDbLine
 62
250
  6
CONTINUOUS
 10
-62.644227762
 20
31.2652099249
 11
-62.6078860048
 21
30.5084578445
  0
LINE
  5
25D
100
AcDbEntity
  8
RACCORDO
100
AcDbLine
 62
250
  6
CONTINUOUS
 10
-62.6078860048
 20
30.5084578445
 11
-62.5746460038
 21
29.7035061597
  0
LWPOLYLINE
  5
25E
100
AcDbEntity
  8
RACCORDO
100
AcDbPolyline
 62
250
  6
CONTINUOUS
 90
8
 70
0
 10
-62.5746460038
 20
29.7035061597
 10
-62.5456166975
 20
28.8476774488
 10
-62.5330729801
 20
28.3991347057
 10
-62.5221561462
 20
27.9368281037
 10
-62.5130381383
 20
27.459235226
 10
-62.5060450499
 20
26.9658604979
 10
-62.5015746732
 20
26.4572341416
 10
-62.5
 20
25.933376786
  0
LINE
  5
25F
100
AcDbEntity
  8
RACCORDO
100
AcDbLine
 62
250
  6
CONTINUOUS
 10
-61.3
 20
26.1401092737
 11
-61.3
 21
23.4574993802
  0
LINE
  5
260
100
AcDbEntity
  8
RACCORDO
100
AcDbLine
 62
250
  6
CONTINUOUS
 10
-61.3
 20
-23.4574993804
 11
-61.3
 21
-26.1401092738
  0
LWPOLYLINE
  5
261
100
AcDbEntity
  8
RACCORDO
100
AcDbPolyline
 62
250
  6
CONTINUOUS
 90
49
 70
0
 10
-61.3
 20
-26.1401092738
 10
-61.3044666918
 20
-26.6669763699
 10
-61.3133464877
 20
-27.1783303306
 10
-61.3266393879
 20
-27.6741082338
 10
-61.3448751488
 20
-28.1536815221
 10
-61.367524014
 20
-28.6175652699
 10
-61.3929967136
 20
-29.0674223836
 10
-61.4210964156
 20
-29.5032610609
 10
-61.4520199522
 20
-29.9249907041
 10
-61.48476855
 20
-30.3341376496
 10
-61.5192212436
 20
-30.7307220811
 10
-61.5554989984
 20
-31.1146633567
 10
-61.5929659378
 20
-31.4873451298
 10
-61.6315468674
 20
-31.8488189646
 10
-61.6713169815
 20
-32.1989889076
 10
-61.7118659861
 20
-32.5390235079
 10
-61.7531400149
 20
-32.8689414046
 10
-61.7951929343
 20
-33.1886911083
 10
-61.8377760498
 20
-33.4993404276
 10
-61.8808514024
 20
-33.8009215092
 10
-61.9244569512
 20
-34.0933779205
 10
-61.9684578784
 20
-34.3776478683
 10
-62.012838512
 20
-34.6538341528
 10
-62.057614524
 20
-34.9218159912
 10
-62.1026981125
 20
-35.1821984376
 10
-62.1480672595
 20
-35.4349965474
 10
-62.193743983
 20
-35.6801816102
 10
-62.2397065352
 20
-35.9182945309
 10
-62.2859110964
 20
-36.1492884656
 10
-62.3324014864
 20
-36.3731999245
 10
-62.3792874163
 20
-36.5906960474
 10
-62.4265511382
 20
-36.8017971993
 10
-62.4742104
 20
-37.0064753861
 10
-62.522428157
 20
-37.2053261752
 10
-62.571144997
 20
-37.3985850618
 10
-62.6204203323
 20
-37.5860109489
 10
-62.6705953544
 20
-37.7674850336
 10
-62.7218140724
 20
-37.9429960759
 10
-62.7739324772
 20
-38.1125508355
 10
-62.8268597337
 20
-38.2760577437
 10
-62.8797307646
 20
-38.4336041383
 10
-62.9334106471
 20
-38.585099234
 10
-62.9904037777
 20
-38.7301844363
 10
-63.0511861108
 20
-38.8688049418
 10
-63.115281692
 20
-39.0010128696
 10
-63.1837670538
 20
-39.1266101313
 10
-63.2570010404
 20
-39.245530034
 10
-63.3346248075
 20
-39.3578372988
 10
-63.4166383553
 20
-39.4635311044
  0
LINE
  5
262
100
AcDbEntity
  8
RACCORDO
100
AcDbLine
 62
250
  6
CONTINUOUS
 10
-62.546588164
 20
-28.8798546903
 11
-62.5761280325
 21
-29.7425854176
  0
LINE
  5
263
100
AcDbEntity
  8
RACCORDO
100
AcDbLine
 62
250
  6
CONTINUOUS
 10
-62.5761280325
 20
-29.7425854176
 11
-62.6098888985
 21
-30.552988254
  0
LINE
  5
264
100
AcDbEntity
  8
RACCORDO
100
AcDbLine
 62
250
  6
CONTINUOUS
 10
-62.6098888985
 20
-30.552988254
 11
-62.646735061
 21
-31.3138865589
  0
LINE
  5
265
100
AcDbEntity
  8
RACCORDO
100
AcDbLine
 62
250
  6
CONTINUOUS
 10
-62.646735061
 20
-31.3138865589
 11
-62.6859537705
 21
-32.0294401186
  0
LINE
  5
266
100
AcDbEntity
  8
RACCORDO
100
AcDbLine
 62
250
  6
CONTINUOUS
 10
-62.6859537705
 20
-32.0294401186
 11
-62.7269804743
 21
-32.7029788599
  0
LINE
  5
267
100
AcDbEntity
  8
RACCORDO
100
AcDbLine
 62
250
  6
CONTINUOUS
 10
-62.7269804743
 20
-32.7029788599
 11
-62.7693135649
 21
-33.3366964646
  0
LINE
  5
268
100
AcDbEntity
  8
RACCORDO
100
AcDbLine
 62
250
  6
CONTINUOUS
 10
-62.7693135649
 20
-33.3366964646
 11
-62.8127035317
 21
-33.9338043301
  0
LINE
  5
269
100
AcDbEntity
  8
RACCORDO
100
AcDbLine
 62
250
  6
CONTINUOUS
 10
-62.8127035317
 20
-33.9338043301
 11
-62.8569832684
 21
-34.4971039671
  0
LINE
  5
26A
100
AcDbEntity
  8
RACCORDO
100
AcDbLine
 62
250
  6
CONTINUOUS
 10
-62.8569832684
 20
-34.4971039671
 11
-62.9019482945
 21
-35.0281142059
  0
LINE
  5
26B
100
AcDbEntity
  8
RACCORDO
100
AcDbLine
 62
250
  6
CONTINUOUS
 10
-62.9019482945
 20
-35.0281142059
 11
-62.9475223839
 21
-35.5285508888
  0
LINE
  5
26C
100
AcDbEntity
  8
RACCORDO
100
AcDbLine
 62
250
  6
CONTINUOUS
 10
-62.9475223839
 20
-35.5285508888
 11
-62.9936887969
 21
-35.9999322221
  0
LINE
  5
26D
100
AcDbEntity
  8
RACCORDO
100
AcDbLine
 62
250
  6
CONTINUOUS
 10
-62.9936887969
 20
-35.9999322221
 11
-63.0404297747
 21
-36.4434594745
  0
LWPOLYLINE
  5
26E
100
AcDbEntity
  8
RACCORDO
100
AcDbPolyline
 62
250
  6
CONTINUOUS
 90
18
 70
0
 10
-63.0404297747
 20
-36.4434594745
 10
-63.0879263891
 20
-36.8612363252
 10
-63.1120714056
 20
-37.0610274776
 10
-63.1365224906
 20
-37.2551677682
 10
-63.1612567898
 20
-37.4434345442
 10
-63.1863973421
 20
-37.6257434913
 10
-63.211912498
 20
-37.8021455841
 10
-63.2378135028
 20
-37.9725862135
 10
-63.26429807
 20
-38.1368207772
 10
-63.2912057135
 20
-38.2946633432
 10
-63.3186819305
 20
-38.4462942836
 10
-63.3474051728
 20
-38.5920129023
 10
-63.377222249
 20
-38.7326250074
 10
-63.4082937219
 20
-38.8673094597
 10
-63.4418059772
 20
-38.9939118279
 10
-63.4781744166
 20
-39.1116971753
 10
-63.5170135242
 20
-39.2213594377
 10
-63.5583191776
 20
-39.3228767647
  0
LWPOLYLINE
  5
26F
100
AcDbEntity
  8
RACCORDO
100
AcDbPolyline
 62
7
  6
CONTINUOUS
 90
10
 70
0
 10
-62.4411236758
 20
-22.4417184316
 10
-62.4520427355
 20
-22.4298646921
 10
-62.461384116
 20
-22.4176382027
 10
-62.4698116897
 20
-22.4041597474
 10
-62.4777201672
 20
-22.3884337518
 10
-62.4849760505
 20
-22.3699670781
 10
-62.4911290093
 20
-22.349005278
 10
-62.4958572942
 20
-22.3257259688
 10
-62.4989172303
 20
-22.299989328
 10
-62.4989184348
 20
-22.2999581783
  0
LINE
  5
270
100
AcDbEntity
  8
RACCORDO
100
AcDbLine
 62
250
  6
CONTINUOUS
 10
-63.0828834505
 20
36.8184431843
 11
-63.0354326829
 21
36.3976122809
  0
LWPOLYLINE
  5
271
100
AcDbEntity
  8
RACCORDO
100
AcDbPolyline
 62
250
  6
CONTINUOUS
 90
4
 70
0
 10
-61.816127299
 20
22.8369549519
 10
-61.8977772434
 20
22.7755601982
 10
-61.9380395409
 20
22.7456012019
 10
-61.9778078541
 20
22.7165442863
  0
LWPOLYLINE
  5
272
100
AcDbEntity
  8
RACCORDO
100
AcDbPolyline
 62
250
  6
CONTINUOUS
 90
19
 70
0
 10
-61.9778078541
 20
22.7165442863
 10
-62.0489652899
 20
22.6653989057
 10
-62.0803544124
 20
22.6431344087
 10
-62.1093911658
 20
22.6228180002
 10
-62.1360676679
 20
22.6043764777
 10
-62.1603918008
 20
22.5877414159
 10
-62.1825788346
 20
22.572828085
 10
-62.2026369456
 20
22.5595558715
 10
-62.2205579575
 20
22.5478549083
 10
-62.2365326112
 20
22.537654069
 10
-62.2505627451
 20
22.5288709253
 10
-62.2626465208
 20
22.5214254362
 10
-62.2729691639
 20
22.5152430353
 10
-62.2815291454
 20
22.5102378879
 10
-62.2883279942
 20
22.5063274238
 10
-62.2935555228
 20
22.5034338642
 10
-62.2972750021
 20
22.5014717987
 10
-62.2994231611
 20
22.50035456
 10
-62.3
 20
22.4999999998
  0
LWPOLYLINE
  5
273
100
AcDbEntity
  8
RACCORDO
100
AcDbPolyline
 62
250
  6
CONTINUOUS
 90
18
 70
0
 10
-62.3
 20
-22.5
 10
-62.2994231399
 20
-22.5003544862
 10
-62.2972755064
 20
-22.5014714601
 10
-62.2935570995
 20
-22.5034330029
 10
-62.2883311143
 20
-22.50632571
 10
-62.2815343556
 20
-22.5102349183
 10
-62.2729772383
 20
-22.5152383345
 10
-62.2626582725
 20
-22.5214184364
 10
-62.250578948
 20
-22.5288609909
 10
-62.2365541497
 20
-22.5376405548
 10
-62.2205857871
 20
-22.5478371062
 10
-62.2026719506
 20
-22.5595330264
 10
-62.1826217955
 20
-22.5727995178
 10
-62.1604358742
 20
-22.5877102816
 10
-62.1361136344
 20
-22.6043427387
 10
-62.1094625739
 20
-22.622768226
 10
-62.080473093
 20
-22.6430507248
 10
-62.0491547914
 20
-22.6652616691
  0
LWPOLYLINE
  5
274
100
AcDbEntity
  8
RACCORDO
100
AcDbPolyline
 62
250
  6
CONTINUOUS
 90
3
 70
0
 10
-62.0491547914
 20
-22.6652616691
 10
-61.9784696687
 20
-22.7160839331
 10
-61.9391028475
 20
-22.7448486118
  0
LWPOLYLINE
  5
275
100
AcDbEntity
  8
RACCORDO
100
AcDbPolyline
 62
250
  6
CONTINUOUS
 90
25
 70
0
 10
-61.9391028475
 20
-22.7448486118
 10
-61.8573273994
 20
-22.8058337445
 10
-61.8149187725
 20
-22.8378427527
 10
-61.7737509104
 20
-22.869607678
 10
-61.7344981427
 20
-22.9003634137
 10
-61.6964861399
 20
-22.9304308279
 10
-61.6598760579
 20
-22.9601535246
 10
-61.6246951019
 20
-22.9894395276
 10
-61.5909160666
 20
-23.0181498962
 10
-61.5586184922
 20
-23.0466434776
 10
-61.5277692921
 20
-23.0748895752
 10
-61.4984015528
 20
-23.1027866762
 10
-61.4706940734
 20
-23.130639775
 10
-61.4445832427
 20
-23.1584691827
 10
-61.420132672
 20
-23.1861766801
 10
-61.3977119937
 20
-23.2139168547
 10
-61.3773093333
 20
-23.2417395914
 10
-61.3589365653
 20
-23.2695404458
 10
-61.3429989461
 20
-23.2972500031
 10
-61.3296064454
 20
-23.3249207092
 10
-61.3186490935
 20
-23.3524494333
 10
-61.3102022382
 20
-23.3795276309
 10
-61.3042909955
 20
-23.4060317308
 10
-61.3008902495
 20
-23.4320301496
 10
-61.3
 20
-23.4574993804
  0
LWPOLYLINE
  5
276
100
AcDbEntity
  8
RACCORDO
100
AcDbPolyline
 62
250
  6
CONTINUOUS
 90
3
 70
0
 10
84.1399651262
 20
-39.5846649868
 10
84.0072108787
 20
-39.5923364622
 10
83.9375671366
 20
-39.5954824899
  0
LWPOLYLINE
  5
277
100
AcDbEntity
  8
RACCORDO
100
AcDbPolyline
 62
250
  6
CONTINUOUS
 90
17
 70
0
 10
-63.5583191776
 20
39.3228767647
 10
-63.5160562963
 20
39.2185031261
 10
-63.4764143832
 20
39.1059813953
 10
-63.4393967161
 20
38.9853352795
 10
-63.4054324351
 20
38.8559113358
 10
-63.3740569553
 20
38.7184073627
 10
-63.3439461179
 20
38.5748618237
 10
-63.3148820278
 20
38.4259706082
 10
-63.2870762775
 20
38.2710531751
 10
-63.2598890084
 20
38.1100691432
 10
-63.233187668
 20
37.942890041
 10
-63.2071178007
 20
37.7696505986
 10
-63.1814778579
 20
37.5906998475
 10
-63.156262041
 20
37.4061638493
 10
-63.1314942393
 20
37.21592071
 10
-63.1070286815
 20
37.0199454504
 10
-63.0828834505
 20
36.8184431843
  0
LINE
  5
278
100
AcDbEntity
  8
RACCORDO
100
AcDbLine
 62
250
  6
CONTINUOUS
 10
-63.5583191776
 20
-39.3228767647
 11
-63.7
 21
-39.6057773304
  0
LWPOLYLINE
  5
279
100
AcDbEntity
  8
0
100
AcDbPolyline
 62
7
  6
CONTINUOUS
 90
3
 70
0
 43
0.3500000006
 10
-3.2142856836
 20
51.8928551788
 10
-2.3571427875
 20
52.750002182
 10
-2.3571427875
 20
49.7500012665
  0
LWPOLYLINE
  5
27A
100
AcDbEntity
  8
RACCORDO
100
AcDbPolyline
 62
250
  6
CONTINUOUS
 90
3
 70
0
 10
83.9375671366
 20
-39.5954824899
 10
83.793292939
 20
-39.6007284151
 10
83.7191656369
 20
-39.6026053356
  0
LINE
  5
27B
100
AcDbEntity
  8
RACCORDO
100
AcDbLine
 62
250
  6
CONTINUOUS
 10
83.7191656369
 20
-39.6026053356
 11
83.4926179677
 21
-39.6057773315
  0
LINE
  5
27C
100
AcDbEntity
  8
RACCORDO
100
AcDbLine
 62
7
  6
CONTINUOUS
 10
-83.8016445583
 20
-41.0
 11
83.8016445583
 21
-41.0
  0
LINE
  5
27D
100
AcDbEntity
  8
RACCORDO
100
AcDbLine
 62
250
  6
CONTINUOUS
 10
-83.4926179677
 20
-40.6909734094
 11
83.4926179677
 21
-40.6909734094
  0
LINE
  5
27E
100
AcDbEntity
  8
RACCORDO
100
AcDbLine
 62
250
  6
CONTINUOUS
 10
-83.4926179677
 20
-39.6057773315
 11
-63.6999999989
 21
-39.6057773315
  0
LINE
  5
27F
100
AcDbEntity
  8
RACCORDO
100
AcDbLine
 62
250
  6
CONTINUOUS
 10
63.6999999989
 20
-39.6057773315
 11
83.4926179677
 21
-39.6057773315
  0
LINE
  5
280
100
AcDbEntity
  8
RACCORDO
100
AcDbLine
 62
250
  6
CONTINUOUS
 10
-63.4166383553
 20
-39.4635311044
 11
63.4166383553
 21
-39.4635311044
  0
LINE
  5
281
100
AcDbEntity
  8
RACCORDO
100
AcDbLine
 62
250
  6
CONTINUOUS
 10
-63.7
 20
39.6057773296
 11
-63.5583191776
 21
39.3228767647
  0
LINE
  5
282
100
AcDbEntity
  8
RACCORDO
100
AcDbLine
 62
250
  6
CONTINUOUS
 10
-85.0
 20
-39.8016445583
 11
-84.6909735919
 21
-39.4926181502
  0
LINE
  5
283
100
AcDbEntity
  8
0
100
AcDbLine
 62
7
  6
CONTINUOUS
 10
74.74575
 20
-34.90007
 11
75.305771
 21
-34.900063
  0
LINE
  5
284
100
AcDbEntity
  8
0
100
AcDbLine
 62
7
  6
CONTINUOUS
 10
72.722904
 20
-34.90007
 11
73.282911
 21
-34.900063
  0
LINE
  5
285
100
AcDbEntity
  8
0
100
AcDbLine
 62
7
  6
CONTINUOUS
 10
70.513389
 20
-34.900077
 11
71.07341
 21
-34.90007
  0
LINE
  5
286
100
AcDbEntity
  8
0
100
AcDbLine
 62
7
  6
CONTINUOUS
 10
79.087269
 20
-34.900063
 11
79.718046
 21
-34.900056
  0
LINE
  5
287
100
AcDbEntity
  8
0
100
AcDbLine
 62
7
  6
CONTINUOUS
 10
68.680978
 20
-34.900077
 11
69.24102
 21
-34.90007
  0
LINE
  5
288
100
AcDbEntity
  8
0
100
AcDbLine
 62
7
  6
CONTINUOUS
 10
71.633417
 20
-34.90007
 11
72.193438
 21
-34.90007
  0
LINE
  5
289
100
AcDbEntity
  8
0
100
AcDbLine
 62
7
  6
CONTINUOUS
 10
73.812384
 20
-34.90007
 11
74.372405
 21
-34.90007
  0
LINE
  5
28A
100
AcDbEntity
  8
0
100
AcDbLine
 62
7
  6
CONTINUOUS
 10
77.477192
 20
-34.900063
 11
78.03722
 21
-34.900063
  0
LINE
  5
28B
100
AcDbEntity
  8
0
100
AcDbLine
 62
7
  6
CONTINUOUS
 10
76.543819
 20
-34.900063
 11
77.103847
 21
-34.90007
  0
LINE
  5
28C
100
AcDbEntity
  8
0
100
AcDbLine
 62
7
  6
CONTINUOUS
 10
75.48257
 20
-34.349401
 11
76.367027
 21
-34.349401
  0
LINE
  5
28D
100
AcDbEntity
  8
0
100
AcDbLine
 62
7
  6
CONTINUOUS
 10
75.653391
 20
-33.81738
 11
76.196199
 21
-33.81738
  0
LINE
  5
28E
100
AcDbEntity
  8
0
100
AcDbLine
 62
7
  6
CONTINUOUS
 10
78.037283
 20
-33.817373
 11
78.526058
 21
-33.81738
  0
LINE
  5
28F
100
AcDbEntity
  8
0
100
AcDbLine
 62
7
  6
CONTINUOUS
 10
78.029499
 20
-33.299352
 11
78.710842
 21
-33.299352
  0
LINE
  5
290
100
AcDbEntity
  8
0
100
AcDbLine
 62
7
  6
CONTINUOUS
 10
78.029492
 20
-32.617958
 11
78.710842
 21
-32.617958
  0
LINE
  5
291
100
AcDbEntity
  8
0
100
AcDbLine
 62
7
  6
CONTINUOUS
 10
67.781954
 20
-32.099944
 11
68.341982
 21
-32.099944
  0
LINE
  5
292
100
AcDbEntity
  8
0
100
AcDbLine
 62
7
  6
CONTINUOUS
 10
69.580023
 20
-32.099944
 11
70.140051
 21
-32.099944
  0
LINE
  5
293
100
AcDbEntity
  8
0
100
AcDbLine
 62
7
  6
CONTINUOUS
 10
70.513396
 20
-32.099944
 11
71.073417
 21
-32.099944
  0
LINE
  5
294
100
AcDbEntity
  8
0
100
AcDbLine
 62
7
  6
CONTINUOUS
 10
71.633417
 20
-32.099944
 11
72.480018
 21
-32.099944
  0
LINE
  5
295
100
AcDbEntity
  8
0
100
AcDbLine
 62
7
  6
CONTINUOUS
 10
73.525804
 20
-32.099944
 11
74.372405
 21
-32.099944
  0
LINE
  5
296
100
AcDbEntity
  8
0
100
AcDbLine
 62
7
  6
CONTINUOUS
 10
75.644767
 20
-32.099937
 11
76.204816
 21
-32.099937
  0
LINE
  5
297
100
AcDbEntity
  8
0
100
AcDbLine
 62
7
  6
CONTINUOUS
 10
77.477192
 20
-32.099937
 11
78.788572
 21
-32.099937
  0
LINE
  5
298
100
AcDbEntity
  8
RACCORDO
100
AcDbLine
 62
250
  6
CONTINUOUS
 10
-84.6909735826
 20
39.4926181409
 11
-85.0
 21
39.8016445583
  0
LINE
  5
299
100
AcDbEntity
  8
RACCORDO
100
AcDbLine
 62
250
  6
CONTINUOUS
 10
-83.8016445583
 20
-41.0
 11
-83.4926179677
 21
-40.6909734094
  0
LINE
  5
29A
100
AcDbEntity
  8
RACCORDO
100
AcDbLine
 62
250
  6
CONTINUOUS
 10
-83.4926179677
 20
40.6909734094
 11
-83.8016445583
 21
41.0
  0
LWPOLYLINE
  5
29B
100
AcDbEntity
  8
RACCORDO
100
AcDbPolyline
 62
250
  6
CONTINUOUS
 90
49
 70
0
 10
-63.4166383553
 20
39.4635311044
 10
-63.3322344319
 20
39.3565821152
 10
-63.2528256892
 20
39.2424997736
 10
-63.1784121272
 20
39.1212849718
 10
-63.1096730873
 20
38.9926637863
 10
-63.0459292282
 20
38.8569123177
 10
-62.9851425259
 20
38.7148565776
 10
-62.9272607105
 20
38.5666629591
 10
-62.872336052
 20
38.4121678024
 10
-62.8184873369
 20
38.2517020795
 10
-62.7651372672
 20
38.0852871973
 10
-62.712863141
 20
37.9129052915
 10
-62.6615156384
 20
37.7348285503
 10
-62.6111478802
 20
37.5511534772
 10
-62.5617067457
 20
37.3617880178
 10
-62.5128835532
 20
37.1667217444
 10
-62.4646449158
 20
36.9661688063
 10
-62.4170242205
 20
36.7599206921
 10
-62.3698129457
 20
36.5473335552
 10
-62.322974123
 20
36.3284103408
 10
-62.2765447209
 20
36.1031558021
 10
-62.2304271232
 20
35.870929782
 10
-62.1845814036
 20
35.6316923402
 10
-62.1390474884
 20
35.385493784
 10
-62.0938475408
 20
35.131830501
 10
-62.0489606433
 20
34.8707425215
 10
-62.0044077134
 20
34.6022034233
 10
-61.960273667
 20
34.3256113856
 10
-61.9165407145
 20
34.0410680823
 10
-61.8732266455
 20
33.7484897268
 10
-61.8304697448
 20
33.4469984664
 10
-61.7882340923
 20
33.1366558035
 10
-61.7465556081
 20
32.8174242093
 10
-61.7056803372
 20
32.4882804279
 10
-61.6655566896
 20
32.1492828155
 10
-61.6262362553
 20
31.8004052683
 10
-61.5881198494
 20
31.4405021615
 10
-61.551133438
 20
31.0696575677
 10
-61.515351055
 20
30.6878308643
 10
-61.481395617
 20
30.2936953444
 10
-61.4491502034
 20
29.887320252
 10
-61.4187317348
 20
29.4686952233
 10
-61.3911138898
 20
29.0363822793
 10
-61.3661089044
 20
28.5904652459
 10
-61.3439045425
 20
28.1309400223
 10
-61.3260377742
 20
27.6562476782
 10
-61.3130209226
 20
27.1659062103
 10
-61.3043416646
 20
26.6605066303
 10
-61.3
 20
26.1401092737
  0
LINE
  5
29C
100
AcDbEntity
  8
RACCORDO
100
AcDbLine
 62
250
  6
CONTINUOUS
 10
-61.3
 20
-23.4574993804
 11
61.3
 21
-23.4574993804
  0
LINE
  5
29D
100
AcDbEntity
  8
RACCORDO
100
AcDbLine
 62
7
  6
CONTINUOUS
 10
-62.3
 20
-22.5
 11
62.3
 21
-22.5
  0
LINE
  5
29E
100
AcDbEntity
  8
RACCORDO
100
AcDbLine
 62
250
  6
CONTINUOUS
 10
63.4166383553
 20
39.4635311044
 11
63.6999999981
 21
39.6057773315
  0
LINE
  5
29F
100
AcDbEntity
  8
RACCORDO
100
AcDbLine
 62
250
  6
CONTINUOUS
 10
63.6999999989
 20
-39.6057773315
 11
63.4166383553
 21
-39.4635311044
  0
LWPOLYLINE
  5
2A0
100
AcDbEntity
  8
0
100
AcDbPolyline
 62
7
  6
CONTINUOUS
 90
4
 70
0
 43
0.3500000006
 10
-1.5000000329
 20
52.1071441956
 10
-1.5000000329
 20
52.750002182
 10
0.0
 20
52.750002182
 10
-0.8571428254
 20
49.7500012665
  0
LWPOLYLINE
  5
2A1
100
AcDbEntity
  8
0
100
AcDbPolyline
 62
7
  6
CONTINUOUS
 90
13
 70
0
 43
0.3500000006
 10
0.8571428254
 20
50.6071437378
 10
0.8571428254
 20
51.8928551788
 10
1.0714285848
 20
52.3214286804
 10
1.5000000329
 20
52.750002182
 10
1.7142856507
 20
52.750002182
 10
2.1428571696
 20
52.3214286804
 10
2.3571427875
 20
51.8928551788
 10
2.3571427875
 20
50.6071437378
 10
2.1428571696
 20
50.1785702362
 10
1.7142856507
 20
49.7500012665
 10
1.5000000329
 20
49.7500012665
 10
1.0714285848
 20
50.1785702362
 10
0.8571428254
 20
50.6071437378
  0
LINE
  5
2A2
100
AcDbEntity
  8
RACCORDO
100
AcDbLine
 62
250
  6
CONTINUOUS
 10
-63.4166383553
 20
-39.4635311044
 11
-63.6999999989
 21
-39.6057773315
  0
LINE
  5
2A3
100
AcDbEntity
  8
RACCORDO
100
AcDbLine
 62
250
  6
CONTINUOUS
 10
-63.6999999981
 20
39.6057773315
 11
-63.4166383553
 21
39.4635311044
  0
LWPOLYLINE
  5
2A4
100
AcDbEntity
  8
RACCORDO
100
AcDbPolyline
 62
250
  6
CONTINUOUS
 90
49
 70
0
 10
63.4166383553
 20
39.4635311044
 10
63.3324296333
 20
39.3569387554
 10
63.2531990486
 20
39.243219115
 10
63.1789466012
 20
39.1223730708
 10
63.1103535632
 20
38.9941307077
 10
63.0467386626
 20
38.8587641059
 10
62.9860580829
 20
38.7170872306
 10
62.9282515105
 20
38.5692617546
 10
62.873379259
 20
38.4151287282
 10
62.8195784528
 20
38.255021224
 10
62.7662771642
 20
38.0889587831
 10
62.7140473209
 20
37.9169253938
 10
62.6627418296
 20
37.7392009201
 10
62.6124156615
 20
37.5558893818
 10
62.5630138453
 20
37.366891187
 10
62.5142243747
 20
37.1721810032
 10
62.4660128284
 20
36.971970774
 10
62.4184136276
 20
36.7660541804
 10
62.371218029
 20
36.5537790753
 10
62.324388901
 20
36.3351464134
 10
62.2779633752
 20
36.1101629305
 10
62.2318441036
 20
35.8781861319
 10
62.1859911431
 20
35.6391767008
 10
62.1404444368
 20
35.393184317
 10
62.0952264659
 20
35.1397011572
 10
62.0503163537
 20
34.8787672297
 10
62.005734977
 20
34.6103561409
 10
61.9615674468
 20
34.333861942
 10
61.9177955447
 20
34.0493834893
 10
61.874437489
 20
33.7568398386
 10
61.8316330462
 20
33.4553575
 10
61.7893469149
 20
33.1450029249
 10
61.7476143964
 20
32.8257336633
 10
61.7066811605
 20
32.4965160255
 10
61.666495795
 20
32.157414475
 10
61.6271097121
 20
31.8083968715
 10
61.5889228191
 20
31.4482889951
 10
61.5518596625
 20
31.0771681722
 10
61.5159956958
 20
30.6950007345
 10
61.4819571859
 20
30.3004520008
 10
61.4496262766
 20
29.8935868487
 10
61.4191208243
 20
29.4743996114
 10
61.3914206647
 20
29.0414579655
 10
61.3663372443
 20
28.5948452204
 10
61.3440591167
 20
28.1345582343
 10
61.3261317787
 20
27.6590459612
 10
61.3130703961
 20
27.1678292121
 10
61.3043598032
 20
26.6614967593
 10
61.3
 20
26.1401092737
  0
LINE
  5
2A5
100
AcDbEntity
  8
RACCORDO
100
AcDbLine
 62
7
  6
CONTINUOUS
 10
-62.3
 20
22.4999999998
 11
62.3
 21
22.4999999998
  0
LINE
  5
2A6
100
AcDbEntity
  8
RACCORDO
100
AcDbLine
 62
250
  6
CONTINUOUS
 10
-61.3
 20
23.4574993802
 11
61.3
 21
23.4574993802
  0
LWPOLYLINE
  5
2A7
100
AcDbEntity
  8
RACCORDO
100
AcDbPolyline
 62
250
  6
CONTINUOUS
 90
52
 70
0
 10
63.4166383553
 20
-39.4635311044
 10
63.3386822371
 20
-39.3649108255
 10
63.2649452697
 20
-39.260294459
 10
63.195427453
 20
-39.1496826894
 10
63.1305235346
 20
-39.0329512493
 10
63.0698387669
 20
-38.9102260431
 10
63.0121889072
 20
-38.7818831044
 10
62.9579118343
 20
-38.6479705443
 10
62.9066696694
 20
-38.5084423738
 10
62.856264533
 20
-38.3635335521
 10
62.8059661246
 20
-38.2133122042
 10
62.7565047448
 20
-38.0577129309
 10
62.7078734162
 20
-37.8967705455
 10
62.660163862
 20
-37.7304218855
 10
62.6132843589
 20
-37.5587336484
 10
62.5669527602
 20
-37.3819355923
 10
62.5211249474
 20
-37.2002378942
 10
62.4758450389
 20
-37.0134346745
 10
62.4309632437
 20
-36.8211319199
 10
62.3864731951
 20
-36.6233928156
 10
62.3423812596
 20
-36.420159862
 10
62.2985567453
 20
-36.2108586831
 10
62.2549628262
 20
-35.9954680054
 10
62.2116363282
 20
-35.7740167186
 10
62.1685570376
 20
-35.5460065734
 10
62.1257010444
 20
-35.3114225474
 10
62.0830922585
 20
-35.0702896717
 10
62.0407821965
 20
-34.8221708155
 10
61.9987594966
 20
-34.5671406576
 10
61.9570355205
 20
-34.3051374501
 10
61.9156958699
 20
-34.0355208213
 10
61.8747207637
 20
-33.7583625532
 10
61.8341299829
 20
-33.4736078414
 10
61.7940684734
 20
-33.1804285008
 10
61.7545033544
 20
-32.8788751182
 10
61.7154675066
 20
-32.5689196556
 10
61.6772045172
 20
-32.2496188846
 10
61.6396670877
 20
-31.9210165548
 10
61.6029025167
 20
-31.5830989577
 10
61.5672962867
 20
-31.2348405634
 10
61.5327827572
 20
-30.8763218979
 10
61.4994275688
 20
-30.5075024178
 10
61.4678131248
 20
-30.1271802788
 10
61.4378352978
 20
-29.7354097492
 10
61.4095982153
 20
-29.3321901731
 10
61.3839966638
 20
-28.916244451
 10
61.3608667972
 20
-28.4876455592
 10
61.3403724616
 20
-28.0463922336
 10
61.3238999817
 20
-27.5911054434
 10
61.3119114655
 20
-27.1213589038
 10
61.303944805
 20
-26.6376757207
 10
61.3
 20
-26.1401092738
  0
LINE
  5
2A8
100
AcDbEntity
  8
RACCORDO
100
AcDbLine
 62
250
  6
CONTINUOUS
 10
83.8016445583
 20
41.0
 11
83.4926179677
 21
40.6909734094
  0
LINE
  5
2A9
100
AcDbEntity
  8
RACCORDO
100
AcDbLine
 62
250
  6
CONTINUOUS
 10
85.0
 20
39.8016445583
 11
84.6909735924
 21
39.4926181507
  0
LINE
  5
2AA
100
AcDbEntity
  8
RACCORDO
100
AcDbLine
 62
250
  6
CONTINUOUS
 10
83.4926179677
 20
-40.6909734094
 11
83.8016445583
 21
-41.0
  0
LINE
  5
2AB
100
AcDbEntity
  8
RACCORDO
100
AcDbLine
 62
250
  6
CONTINUOUS
 10
84.6909735822
 20
-39.4926181405
 11
85.0
 21
-39.8016445583
  0
LINE
  5
2AC
100
AcDbEntity
  8
RACCORDO
100
AcDbLine
 62
250
  6
CONTINUOUS
 10
63.5583191776
 20
39.3228767647
 11
63.7
 21
39.6057773296
  0
LWPOLYLINE
  5
2AD
100
AcDbEntity
  8
RACCORDO
100
AcDbPolyline
 62
250
  6
CONTINUOUS
 90
3
 70
0
 10
-84.1399651261
 20
39.5846649833
 10
-84.0072108785
 20
39.5923364591
 10
-83.9375671363
 20
39.5954824871
  0
LWPOLYLINE
  5
2AE
100
AcDbEntity
  8
RACCORDO
100
AcDbPolyline
 62
250
  6
CONTINUOUS
 90
3
 70
0
 10
-83.9375671363
 20
39.5954824871
 10
-83.7932929388
 20
39.600728413
 10
-83.7191656368
 20
39.602605334
  0
LINE
  5
2AF
100
AcDbEntity
  8
RACCORDO
100
AcDbLine
 62
250
  6
CONTINUOUS
 10
-83.7191656368
 20
39.602605334
 11
-83.4926179677
 21
39.6057773315
  0
LINE
  5
2B0
100
AcDbEntity
  8
RACCORDO
100
AcDbLine
 62
250
  6
CONTINUOUS
 10
-63.4166383553
 20
39.4635311044
 11
63.4166383553
 21
39.4635311044
  0
LINE
  5
2B1
100
AcDbEntity
  8
RACCORDO
100
AcDbLine
 62
250
  6
CONTINUOUS
 10
-83.4926179677
 20
39.6057773315
 11
-63.7
 21
39.6057773315
  0
LINE
  5
2B2
100
AcDbEntity
  8
RACCORDO
100
AcDbLine
 62
250
  6
CONTINUOUS
 10
63.7
 20
39.6057773315
 11
83.4926179677
 21
39.6057773315
  0
LINE
  5
2B3
100
AcDbEntity
  8
RACCORDO
100
AcDbLine
 62
250
  6
CONTINUOUS
 10
-83.4926179677
 20
40.6909734094
 11
83.4926179677
 21
40.6909734094
  0
LINE
  5
2B4
100
AcDbEntity
  8
RACCORDO
100
AcDbLine
 62
7
  6
CONTINUOUS
 10
-83.8016445583
 20
41.0
 11
83.8016445583
 21
41.0
  0
LINE
  5
2B5
100
AcDbEntity
  8
RACCORDO
100
AcDbLine
 62
250
  6
CONTINUOUS
 10
63.7
 20
-39.6057773304
 11
63.5583191776
 21
-39.3228767647
  0
LWPOLYLINE
  5
2B6
100
AcDbEntity
  8
RACCORDO
100
AcDbPolyline
 62
250
  6
CONTINUOUS
 90
17
 70
0
 10
63.5583191776
 20
-39.3228767647
 10
63.5191888816
 20
-39.2278231163
 10
63.482362014
 20
-39.1254593887
 10
63.4478412001
 20
-39.0158049523
 10
63.4159773468
 20
-38.8982024422
 10
63.3863928062
 20
-38.7733456056
 10
63.3580065169
 20
-38.6432711644
 10
63.3306771545
 20
-38.5087639102
 10
63.304537875
 20
-38.3690531187
 10
63.2789508768
 20
-38.2238305359
 10
63.2537818706
 20
-38.072942097
 10
63.2291759854
 20
-37.9165471008
 10
63.204933433
 20
-37.7548022827
 10
63.1810320538
 20
-37.5876940987
 10
63.1575100965
 20
-37.415239348
 10
63.1342668749
 20
-37.2376385765
 10
63.1113215541
 20
-37.0550862581
  0
LWPOLYLINE
  5
2B7
100
AcDbEntity
  8
RACCORDO
100
AcDbPolyline
 62
250
  6
CONTINUOUS
 90
23
 70
0
 10
61.8149531292
 20
-22.837816454
 10
61.7737837979
 20
-22.8695822057
 10
61.734529669
 20
-22.9003385947
 10
61.696516055
 20
-22.9304068165
 10
61.659904276
 20
-22.9601303823
 10
61.6247215788
 20
-22.9894172673
 10
61.5909407165
 20
-23.0181285462
 10
61.5586412686
 20
-23.0466230744
 10
61.5277901535
 20
-23.0748701413
 10
61.4984204528
 20
-23.1027682301
 10
61.4707109902
 20
-23.1306223678
 10
61.4445981436
 20
-23.1584528576
 10
61.4201455352
 20
-23.1861614794
 10
61.3977228556
 20
-23.2139028699
 10
61.3773182007
 20
-23.2417269147
 10
61.3589434747
 20
-23.2695291654
 10
61.34300408
 20
-23.2972402533
 10
61.3296099834
 20
-23.3249127208
 10
61.3186512183
 20
-23.3524433398
 10
61.3102032871
 20
-23.3795233156
 10
61.3042913574
 20
-23.4060289867
 10
61.3008902617
 20
-23.4320288457
 10
61.3
 20
-23.4574993804
  0
LWPOLYLINE
  5
2B8
100
AcDbEntity
  8
RACCORDO
100
AcDbPolyline
 62
250
  6
CONTINUOUS
 90
4
 70
0
 10
61.9784980123
 20
-22.7160633731
 10
61.9391354169
 20
-22.7448247652
 10
61.8988279538
 20
-22.7747780309
 10
61.8149531292
 20
-22.837816454
  0
LWPOLYLINE
  5
2B9
100
AcDbEntity
  8
RACCORDO
100
AcDbPolyline
 62
250
  6
CONTINUOUS
 90
19
 70
0
 10
62.3
 20
-22.5
 10
62.299423155
 20
-22.5003544672
 10
62.2972756447
 20
-22.5014713772
 10
62.2935574692
 20
-22.5034328001
 10
62.2883318101
 20
-22.50632532
 10
62.2815354858
 20
-22.5102342618
 10
62.2729789507
 20
-22.5152373193
 10
62.2626607137
 20
-22.5214169573
 10
62.2505822659
 20
-22.5288589294
 10
62.2365585351
 20
-22.5376377781
 10
62.2205914297
 20
-22.5478334677
 10
62.2026790412
 20
-22.5595283654
 10
62.1826305717
 20
-22.5727936581
 10
62.1604465761
 20
-22.5877030326
 10
62.1361264996
 20
-22.6043338964
 10
62.10947788
 20
-22.6227575722
 10
62.0804911513
 20
-22.6430380151
 10
62.0491758795
 20
-22.6652466589
 10
61.9784980123
 20
-22.7160633731
  0
LWPOLYLINE
  5
2BA
100
AcDbEntity
  8
RACCORDO
100
AcDbPolyline
 62
250
  6
CONTINUOUS
 90
18
 70
0
 10
62.0489808199
 20
22.6653878503
 10
62.0803681569
 20
22.6431247306
 10
62.1094032391
 20
22.6228095947
 10
62.136078217
 20
22.6043692267
 10
62.1604009402
 20
22.5877352205
 10
62.1825866608
 20
22.5728228601
 10
62.2026435477
 20
22.5595515357
 10
62.2205634321
 20
22.5478513754
 10
62.2365370601
 20
22.5376512521
 10
62.2505662698
 20
22.5288687391
 10
62.2626492231
 20
22.5214237963
 10
62.2729711514
 20
22.5152418568
 10
62.2815305267
 20
22.5102370893
 10
62.2883288771
 20
22.5063269268
 10
62.293556018
 20
22.5034335928
 10
62.2972752214
 20
22.5014716815
 10
62.2994232154
 20
22.5003545315
 10
62.3
 20
22.4999999998
  0
LWPOLYLINE
  5
2BB
100
AcDbEntity
  8
RACCORDO
100
AcDbPolyline
 62
250
  6
CONTINUOUS
 90
3
 70
0
 10
61.9380613514
 20
22.7455852206
 10
61.9778274171
 20
22.716530083
 10
62.0489808199
 20
22.6653878503
  0
LINE
  5
2BC
100
AcDbEntity
  8
0
100
AcDbLine
 62
7
  6
CONTINUOUS
 10
78.526058
 20
-33.81738
 11
79.087269
 21
-34.900063
  0
LINE
  5
2BD
100
AcDbEntity
  8
0
100
AcDbLine
 62
7
  6
CONTINUOUS
 10
79.1219317907
 20
-33.7500306669
 11
79.718046
 21
-34.900056
  0
LINE
  5
2BE
100
AcDbEntity
  8
0
100
AcDbLine
 62
7
  6
CONTINUOUS
 10
67.781954
 20
-32.099944
 11
68.680978
 21
-34.900077
  0
LINE
  5
2BF
100
AcDbEntity
  8
0
100
AcDbLine
 62
7
  6
CONTINUOUS
 10
68.341982
 20
-32.099944
 11
68.961006
 21
-34.027982
  0
LINE
  5
2C0
100
AcDbEntity
  8
RACCORDO
100
AcDbLine
 62
250
  6
CONTINUOUS
 10
63.0439344349
 20
-36.4754911711
 11
62.9999186463
 21
-36.0609887973
  0
LINE
  5
2C1
100
AcDbEntity
  8
RACCORDO
100
AcDbLine
 62
250
  6
CONTINUOUS
 10
62.9999186463
 20
-36.0609887973
 11
62.9564226426
 21
-35.6220384862
  0
LINE
  5
2C2
100
AcDbEntity
  8
RACCORDO
100
AcDbLine
 62
250
  6
CONTINUOUS
 10
62.9564226426
 20
-35.6220384862
 11
62.9133884252
 21
-35.1571910303
  0
LINE
  5
2C3
100
AcDbEntity
  8
RACCORDO
100
AcDbLine
 62
250
  6
CONTINUOUS
 10
62.9133884252
 20
-35.1571910303
 11
62.8708862298
 21
-34.6655225949
  0
LINE
  5
2C4
100
AcDbEntity
  8
RACCORDO
100
AcDbLine
 62
250
  6
CONTINUOUS
 10
62.8708862298
 20
-34.6655225949
 11
62.82898614
 21
-34.1458977371
  0
LINE
  5
2C5
100
AcDbEntity
  8
RACCORDO
100
AcDbLine
 62
250
  6
CONTINUOUS
 10
62.82898614
 20
-34.1458977371
 11
62.787750832
 21
-33.5963515593
  0
LINE
  5
2C6
100
AcDbEntity
  8
RACCORDO
100
AcDbLine
 62
250
  6
CONTINUOUS
 10
62.787750832
 20
-33.5963515593
 11
62.7473849087
 21
-33.0154382096
  0
LINE
  5
2C7
100
AcDbEntity
  8
RACCORDO
100
AcDbLine
 62
250
  6
CONTINUOUS
 10
62.7473849087
 20
-33.0154382096
 11
62.7080748238
 21
-32.4007209628
  0
LINE
  5
2C8
100
AcDbEntity
  8
RACCORDO
100
AcDbLine
 62
250
  6
CONTINUOUS
 10
62.7080748238
 20
-32.4007209628
 11
62.6700735201
 21
-31.7493635536
  0
LINE
  5
2C9
100
AcDbEntity
  8
RACCORDO
100
AcDbLine
 62
250
  6
CONTINUOUS
 10
62.6700735201
 20
-31.7493635536
 11
62.6338541927
 21
-31.059437232
  0
LINE
  5
2CA
100
AcDbEntity
  8
RACCORDO
100
AcDbLine
 62
250
  6
CONTINUOUS
 10
62.6338541927
 20
-31.059437232
 11
62.5999459639
 21
-30.3280163284
  0
LINE
  5
2CB
100
AcDbEntity
  8
RACCORDO
100
AcDbLine
 62
250
  6
CONTINUOUS
 10
62.5999459639
 20
-30.3280163284
 11
62.569009619
 21
-29.5514814329
  0
LWPOLYLINE
  5
2CC
100
AcDbEntity
  8
RACCORDO
100
AcDbPolyline
 62
250
  6
CONTINUOUS
 90
25
 70
0
 10
61.3
 20
23.4574993802
 10
61.3009336352
 20
23.4317213232
 10
61.3044116711
 20
23.4054428421
 10
61.3104341077
 20
23.3786875835
 10
61.3190292975
 20
23.3513958378
 10
61.3301688879
 20
23.323682436
 10
61.3437678215
 20
23.2958303092
 10
61.3599359462
 20
23.2679357905
 10
61.3785634141
 20
23.2399542771
 10
61.3992356235
 20
23.211952174
 10
61.4219413255
 20
23.1840336968
 10
61.4466917692
 20
23.1561504545
 10
61.4731060999
 20
23.128147695
 10
61.5011385598
 20
23.1001082893
 10
61.5308349067
 20
23.0720295175
 10
61.5619515604
 20
23.0436537525
 10
61.5944775463
 20
23.0150594435
 10
61.628423839
 20
22.9862982671
 10
61.6635797814
 20
22.9571156081
 10
61.6999379908
 20
22.9276548765
 10
61.7375058499
 20
22.8979809517
 10
61.776094849
 20
22.8677926178
 10
61.8161475679
 20
22.8369394299
 10
61.8572214267
 20
22.8059516759
 10
61.9380613514
 20
22.7455852206
  0
LWPOLYLINE
  5
2CD
100
AcDbEntity
  8
RACCORDO
100
AcDbPolyline
 62
250
  6
CONTINUOUS
 90
8
 70
0
 10
62.569009619
 20
-29.5514814329
 10
62.542070802
 20
-28.7274316679
 10
62.5304614915
 20
-28.2962132679
 10
62.52037591
 20
-27.852190387
 10
62.5119728626
 20
-27.3940157352
 10
62.5055439624
 20
-26.92125084
 10
62.5014423862
 20
-26.4343650968
 10
62.5
 20
-25.9333767861
  0
LINE
  5
2CE
100
AcDbEntity
  8
RACCORDO
100
AcDbLine
 62
250
  6
CONTINUOUS
 10
61.3
 20
-26.1401092738
 11
61.3
 21
-23.4574993804
  0
LINE
  5
2CF
100
AcDbEntity
  8
RACCORDO
100
AcDbLine
 62
250
  6
CONTINUOUS
 10
61.3
 20
23.4574993802
 11
61.3
 21
26.1401092737
  0
LINE
  5
2D0
100
AcDbEntity
  8
RACCORDO
100
AcDbLine
 62
7
  6
CONTINUOUS
 10
62.5
 20
-25.9333767395
 11
62.5
 21
25.9333767394
  0
LINE
  5
2D1
100
AcDbEntity
  8
RACCORDO
100
AcDbLine
 62
250
  6
CONTINUOUS
 10
63.7
 20
-39.6057773315
 11
63.7
 21
39.6057773315
  0
LWPOLYLINE
  5
2D2
100
AcDbEntity
  8
RACCORDO
100
AcDbPolyline
 62
250
  6
CONTINUOUS
 90
7
 70
0
 10
62.5
 20
25.933376786
 10
62.5015805569
 20
26.4582297831
 10
62.5060672296
 20
26.9677935999
 10
62.5130850464
 20
27.4620474976
 10
62.5222341989
 20
27.9404638911
 10
62.5331868831
 20
28.4035355479
 10
62.5457700167
 20
28.8527766332
  0
LINE
  5
2D3
100
AcDbEntity
  8
RACCORDO
100
AcDbLine
 62
250
  6
CONTINUOUS
 10
62.5457700167
 20
28.8527766332
 11
62.5748837833
 21
29.7098001851
  0
LWPOLYLINE
  5
2D4
100
AcDbEntity
  8
RACCORDO
100
AcDbPolyline
 62
7
  6
CONTINUOUS
 90
4
 70
0
 10
62.5
 20
-22.2719874287
 10
62.4989156669
 20
-22.3000091635
 10
62.4958514232
 20
-22.3257624402
 10
62.4911166221
 20
-22.3490552447
  0
LINE
  5
2D5
100
AcDbEntity
  8
RACCORDO
100
AcDbLine
 62
250
  6
CONTINUOUS
 10
62.5748837833
 20
29.7098001851
 11
62.6082086637
 21
30.5156570649
  0
LINE
  5
2D6
100
AcDbEntity
  8
RACCORDO
100
AcDbLine
 62
250
  6
CONTINUOUS
 10
62.6082086637
 20
30.5156570649
 11
62.6446290201
 21
31.2730265631
  0
LINE
  5
2D7
100
AcDbEntity
  8
RACCORDO
100
AcDbLine
 62
250
  6
CONTINUOUS
 10
62.6446290201
 20
31.2730265631
 11
62.6834399469
 21
31.9858987617
  0
LINE
  5
2D8
100
AcDbEntity
  8
RACCORDO
100
AcDbLine
 62
250
  6
CONTINUOUS
 10
62.6834399469
 20
31.9858987617
 11
62.7240941226
 21
32.6576687811
  0
LINE
  5
2D9
100
AcDbEntity
  8
RACCORDO
100
AcDbLine
 62
250
  6
CONTINUOUS
 10
62.7240941226
 20
32.6576687811
 11
62.7661004321
 21
33.2905003536
  0
LINE
  5
2DA
100
AcDbEntity
  8
RACCORDO
100
AcDbLine
 62
250
  6
CONTINUOUS
 10
62.7661004321
 20
33.2905003536
 11
62.8092122526
 21
33.8875066441
  0
LINE
  5
2DB
100
AcDbEntity
  8
RACCORDO
100
AcDbLine
 62
250
  6
CONTINUOUS
 10
62.8092122526
 20
33.8875066441
 11
62.8532518525
 21
34.4512525016
  0
LINE
  5
2DC
100
AcDbEntity
  8
RACCORDO
100
AcDbLine
 62
250
  6
CONTINUOUS
 10
62.8532518525
 20
34.4512525016
 11
62.8980139621
 21
34.983192317
  0
LINE
  5
2DD
100
AcDbEntity
  8
RACCORDO
100
AcDbLine
 62
250
  6
CONTINUOUS
 10
62.8980139621
 20
34.983192317
 11
62.9434304231
 21
35.4850884394
  0
LINE
  5
2DE
100
AcDbEntity
  8
RACCORDO
100
AcDbLine
 62
250
  6
CONTINUOUS
 10
62.9434304231
 20
35.4850884394
 11
62.9894774788
 21
35.9583328459
  0
LINE
  5
2DF
100
AcDbEntity
  8
RACCORDO
100
AcDbLine
 62
250
  6
CONTINUOUS
 10
62.9894774788
 20
35.9583328459
 11
63.0361336338
 21
36.4040655677
  0
LWPOLYLINE
  5
2E0
100
AcDbEntity
  8
RACCORDO
100
AcDbPolyline
 62
250
  6
CONTINUOUS
 90
18
 70
0
 10
63.0361336338
 20
36.4040655677
 10
63.0835651141
 20
36.824248924
 10
63.1076965347
 20
37.0254064889
 10
63.1321452637
 20
37.2210235815
 10
63.1568935296
 20
37.4108973722
 10
63.1820886267
 20
37.5950678527
 10
63.2077078372
 20
37.7736643746
 10
63.2337558594
 20
37.9465534287
 10
63.2604323271
 20
38.1133786428
 10
63.287592526
 20
38.274005015
 10
63.3153681277
 20
38.4285613267
 10
63.3443942858
 20
38.5770815388
 10
63.3744590804
 20
38.7202358966
 10
63.4057804452
 20
38.8573389345
 10
63.4396780813
 20
38.9863769382
 10
63.476614882
 20
39.1066604774
 10
63.5161630108
 20
39.2188349311
 10
63.5583191776
 20
39.3228767647
  0
LWPOLYLINE
  5
2E1
100
AcDbEntity
  8
RACCORDO
100
AcDbPolyline
 62
7
  6
CONTINUOUS
 90
9
 70
0
 10
62.441054565
 20
22.4417872178
 10
62.4520021316
 20
22.429912965
 10
62.4613636966
 20
22.4176677129
 10
62.4698043393
 20
22.4041727555
 10
62.47771826
 20
22.3884380777
 10
62.4849750527
 20
22.3699700473
 10
62.491128487
 20
22.3490074227
 10
62.495857394
 20
22.3257253746
 10
62.4989173625
 20
22.2999876529
  0
LINE
  5
2E2
100
AcDbEntity
  8
0
100
AcDbLine
 62
7
  6
CONTINUOUS
 10
75.924788
 20
-32.972032
 11
76.196199
 21
-33.81738
  0
LINE
  5
2E3
100
AcDbEntity
  8
0
100
AcDbLine
 62
7
  6
CONTINUOUS
 10
76.367027
 20
-34.349401
 11
76.543819
 21
-34.900063
  0
LINE
  5
2E4
100
AcDbEntity
  8
0
100
AcDbLine
 62
7
  6
CONTINUOUS
 10
76.204816
 20
-32.099937
 11
77.103847
 21
-34.90007
  0
LINE
  5
2E5
100
AcDbEntity
  8
0
100
AcDbLine
 62
7
  6
CONTINUOUS
 10
72.193438
 20
-33.053575
 11
72.722904
 21
-34.90007
  0
LINE
  5
2E6
100
AcDbEntity
  8
0
100
AcDbLine
 62
7
  6
CONTINUOUS
 10
72.480018
 20
-32.099944
 11
73.002911
 21
-33.923486
  0
LWPOLYLINE
  5
2E7
100
AcDbEntity
  8
RACCORDO
100
AcDbPolyline
 62
250
  6
CONTINUOUS
 90
3
 70
0
 10
63.1113215541
 20
-37.0550862581
 10
63.0662090807
 20
-36.6741701405
 10
63.0439344349
 20
-36.4754911711
  0
LWPOLYLINE
  5
2E8
100
AcDbEntity
  8
RACCORDO
100
AcDbPolyline
 62
250
  6
CONTINUOUS
 90
28
 70
0
 10
62.5
 20
-23.2149987608
 10
62.4979702821
 20
-23.2291647857
 10
62.4918877409
 20
-23.2432594886
 10
62.4817725742
 20
-23.2572353821
 10
62.4676584711
 20
-23.2710359985
 10
62.449592893
 20
-23.2846239386
 10
62.4276372956
 20
-23.29798098
 10
62.4018661988
 20
-23.3110714485
 10
62.3723665971
 20
-23.3238413144
 10
62.3392383444
 20
-23.3362462022
 10
62.3025935476
 20
-23.3482440855
 10
62.2625561863
 20
-23.3597943349
 10
62.2192617569
 20
-23.3708567549
 10
62.1728567668
 20
-23.3813938968
 10
62.1234982316
 20
-23.3913701014
 10
62.071353168
 20
-23.4007505336
 10
62.0165980215
 20
-23.4095034594
 10
61.9594180714
 20
-23.4175992717
 10
61.9000068033
 20
-23.4250095126
 10
61.8385652512
 20
-23.4317091238
 10
61.775301319
 20
-23.4376754519
 10
61.7104290785
 20
-23.4428872473
 10
61.6441680428
 20
-23.447326888
 10
61.5767424236
 20
-23.4509793612
 10
61.5083803744
 20
-23.4538312369
 10
61.4393132168
 20
-23.4558725047
 10
61.3697746579
 20
-23.457096606
 10
61.3
 20
-23.4574993804
  0
LWPOLYLINE
  5
2E9
100
AcDbEntity
  8
RACCORDO
100
AcDbPolyline
 62
250
  6
CONTINUOUS
 90
25
 70
0
 10
62.5
 20
-25.9333767861
 10
62.4974307077
 20
-25.9468977381
 10
62.4897338331
 20
-25.9603607912
 10
62.4769423353
 20
-25.9737082947
 10
62.4591109896
 20
-25.9868830924
 10
62.4363161526
 20
-25.9998287678
 10
62.4086554353
 20
-26.0124898856
 10
62.3762472851
 20
-26.0248122289
 10
62.3392304789
 20
-26.0367430316
 10
62.2977635283
 20
-26.0482312041
 10
62.2520240011
 20
-26.0592275524
 10
62.2022077611
 20
-26.0696849882
 10
62.1485281292
 20
-26.0795587315
 10
62.0912149696
 20
-26.0888065011
 10
62.0305137062
 20
-26.0973886969
 10
61.9666842712
 20
-26.1052685685
 10
61.8999999919
 20
-26.112412373
 10
61.8307464207
 20
-26.1187895197
 10
61.759220112
 20
-26.1243727007
 10
61.6857273524
 20
-26.1291380078
 10
61.6105828492
 20
-26.1330650353
 10
61.5341083826
 20
-26.1361369671
 10
61.4566314281
 20
-26.1383406487
 10
61.3784837538
 20
-26.1396666436
 10
61.3
 20
-26.1401092737
  0
LWPOLYLINE
  5
2EA
100
AcDbEntity
  8
RACCORDO
100
AcDbPolyline
 62
7
  6
CONTINUOUS
 90
7
 70
0
 10
62.4911166221
 20
-22.3490552447
 10
62.4849516892
 20
-22.3700381517
 10
62.4776814794
 20
-22.3885201382
 10
62.4697710009
 20
-22.4042319335
 10
62.4613619924
 20
-22.4176701341
 10
62.4520590258
 20
-22.4298452848
 10
62.441206842
 20
-22.4416355655
  0
LWPOLYLINE
  5
2EB
100
AcDbEntity
  8
RACCORDO
100
AcDbPolyline
 62
250
  6
CONTINUOUS
 90
25
 70
0
 10
62.5
 20
25.933376786
 10
62.497430678
 20
25.9468978209
 10
62.4897337169
 20
25.9603609525
 10
62.4769420803
 20
25.9737085292
 10
62.4591105469
 20
25.986883395
 10
62.4363154789
 20
25.9998291317
 10
62.4086544989
 20
26.0124903008
 10
62.3762460629
 20
26.0248126849
 10
62.3392289559
 20
26.0367435181
 10
62.297761705
 20
26.0482317087
 10
62.2520218888
 20
26.0592280632
 10
62.2022053801
 20
26.0696854941
 10
62.1485255152
 20
26.0795592209
 10
62.0912121692
 20
26.0888069638
 10
62.0305107734
 20
26.097389124
 10
61.9666812719
 20
26.1052689523
 10
61.8999969998
 20
26.1124127078
 10
61.8307435137
 20
26.1187898017
 10
61.7592173731
 20
26.1243729283
 10
61.6857248679
 20
26.1291381817
 10
61.6105807048
 20
26.1330651586
 10
61.5341066608
 20
26.1361370454
 10
61.4566302075
 20
26.13834069
 10
61.3784831092
 20
26.139666658
 10
61.3
 20
26.1401092737
  0
LWPOLYLINE
  5
2EC
100
AcDbEntity
  8
RACCORDO
100
AcDbPolyline
 62
250
  6
CONTINUOUS
 90
28
 70
0
 10
62.5
 20
23.2149987606
 10
62.4979706485
 20
23.2292691859
 10
62.4918890263
 20
23.24345002
 10
62.4817750594
 20
23.2574938239
 10
62.4676620723
 20
23.2713418053
 10
62.4495973063
 20
23.2849589692
 10
62.4276423728
 20
23.29833422
 10
62.4018718518
 20
23.3114323885
 10
62.3723726039
 20
23.3241989821
 10
62.3392446106
 20
23.3365952856
 10
62.302600059
 20
23.3485798631
 10
62.2625628765
 20
23.3601115147
 10
62.2192685382
 20
23.3711539486
 10
62.1728635425
 20
23.3816703312
 10
62.1235049164
 20
23.3916243868
 10
62.0713596804
 20
23.4009833241
 10
62.016604285
 20
23.4097159769
 10
61.9594240123
 20
23.4177921617
 10
61.9000123493
 20
23.4251837439
 10
61.8385703317
 20
23.4318661462
 10
61.7753058713
 20
23.4378162255
 10
61.7104330533
 20
23.4430116005
 10
61.6441713949
 20
23.4474350067
 10
61.5767451169
 20
23.4510710685
 10
61.5083823941
 20
23.4539041485
 10
61.4393145607
 20
23.4559235004
 10
61.3697753262
 20
23.4571232985
 10
61.3
 20
23.4574993802
  0
LINE
  5
2ED
100
AcDbEntity
  8
0
100
AcDbLine
 62
7
  6
CONTINUOUS
 10
70.513396
 20
-32.099944
 11
70.513389
 21
-34.900077
  0
LINE
  5
2EE
100
AcDbEntity
  8
0
100
AcDbLine
 62
7
  6
CONTINUOUS
 10
71.073417
 20
-32.099944
 11
71.07341
 21
-34.90007
  0
LINE
  5
2EF
100
AcDbEntity
  8
0
100
AcDbLine
 62
7
  6
CONTINUOUS
 10
71.633417
 20
-32.099944
 11
71.633417
 21
-34.90007
  0
LINE
  5
2F0
100
AcDbEntity
  8
0
100
AcDbLine
 62
7
  6
CONTINUOUS
 10
72.193438
 20
-33.053575
 11
72.193438
 21
-34.90007
  0
LINE
  5
2F1
100
AcDbEntity
  8
0
100
AcDbLine
 62
7
  6
CONTINUOUS
 10
73.812377
 20
-33.053575
 11
73.812384
 21
-34.90007
  0
LINE
  5
2F2
100
AcDbEntity
  8
0
100
AcDbLine
 62
7
  6
CONTINUOUS
 10
74.372405
 20
-32.099944
 11
74.372405
 21
-34.90007
  0
LINE
  5
2F3
100
AcDbEntity
  8
0
100
AcDbLine
 62
7
  6
CONTINUOUS
 10
69.580023
 20
-32.099944
 11
68.961006
 21
-34.027982
  0
LINE
  5
2F4
100
AcDbEntity
  8
DRAFT
100
AcDbLine
 62
7
  6
CONTINUOUS
 10
85.0
 20
3.6749773271
 11
84.8951844414
 21
3.5
  0
LINE
  5
2F5
100
AcDbEntity
  8
RACCORDO
100
AcDbLine
 62
250
  6
CONTINUOUS
 10
63.5583003573
 20
-39.3228916475
 11
63.4166433905
 21
-39.4635462793
  0
LINE
  5
2F6
100
AcDbEntity
  8
RACCORDO
100
AcDbLine
 62
250
  6
CONTINUOUS
 10
63.558319169
 20
39.3228767715
 11
63.4166383553
 21
39.4635311027
  0
LINE
  5
2F7
100
AcDbEntity
  8
DRAFT
100
AcDbLine
 62
7
  6
CONTINUOUS
 10
84.8951844414
 20
-3.5
 11
85.0
 21
-3.6749773271
  0
LINE
  5
2F8
100
AcDbEntity
  8
0
100
AcDbLine
 62
7
  6
CONTINUOUS
 10
77.477192
 20
-32.099937
 11
77.477192
 21
-34.900063
  0
LINE
  5
2F9
100
AcDbEntity
  8
0
100
AcDbLine
 62
7
  6
CONTINUOUS
 10
78.029492
 20
-32.617958
 11
78.029499
 21
-33.299352
  0
LINE
  5
2FA
100
AcDbEntity
  8
0
100
AcDbLine
 62
7
  6
CONTINUOUS
 10
78.037283
 20
-33.817373
 11
78.03722
 21
-34.900063
  0
LINE
  5
2FB
100
AcDbEntity
  8
0
100
AcDbLine
 62
7
  6
CONTINUOUS
 10
73.525804
 20
-32.099944
 11
73.002911
 21
-33.923486
  0
LINE
  5
2FC
100
AcDbEntity
  8
0
100
AcDbLine
 62
7
  6
CONTINUOUS
 10
73.812377
 20
-33.053575
 11
73.282911
 21
-34.900063
  0
LINE
  5
2FD
100
AcDbEntity
  8
0
100
AcDbLine
 62
7
  6
CONTINUOUS
 10
70.140051
 20
-32.099944
 11
69.24102
 21
-34.90007
  0
LINE
  5
2FE
100
AcDbEntity
  8
0
100
AcDbLine
 62
7
  6
CONTINUOUS
 10
75.644767
 20
-32.099937
 11
74.74575
 21
-34.90007
  0
LINE
  5
2FF
100
AcDbEntity
  8
0
100
AcDbLine
 62
7
  6
CONTINUOUS
 10
75.924788
 20
-32.972032
 11
75.653391
 21
-33.81738
  0
LINE
  5
300
100
AcDbEntity
  8
0
100
AcDbLine
 62
7
  6
CONTINUOUS
 10
75.48257
 20
-34.349401
 11
75.305771
 21
-34.900063
  0
LWPOLYLINE
  5
301
100
AcDbEntity
  8
RACCORDO
100
AcDbPolyline
 62
250
  6
CONTINUOUS
 90
28
 70
0
 10
84.6909734094
 20
39.4926179677
 10
84.6887752916
 20
39.5619650121
 10
84.6825616769
 20
39.6311343765
 10
84.672343894
 20
39.6998930379
 10
84.6581425501
 20
39.7680263318
 10
84.6399982858
 20
39.8352844968
 10
84.6179820326
 20
39.9013862225
 10
84.5921759313
 20
39.9660903444
 10
84.5626613439
 20
40.0291975151
 10
84.5295358542
 20
40.0904983026
 10
84.4929091678
 20
40.1497877983
 10
84.4529054562
 20
40.2068632876
 10
84.409661658
 20
40.2615288123
 10
84.3633247062
 20
40.3135988487
 10
84.3140500566
 20
40.36289891
 10
84.2620035454
 20
40.4092630163
 10
84.2073604492
 20
40.4525348695
 10
84.1503053273
 20
40.4925681669
 10
84.0910310387
 20
40.5292275274
 10
84.0297377234
 20
40.5623891768
 10
83.9666320526
 20
40.5919413052
 10
83.9019269243
 20
40.6177842012
 10
83.8358406206
 20
40.6398306659
 10
83.7685961576
 20
40.6580062831
 10
83.700420512
 20
40.672249697
 10
83.6315437487
 20
40.6825128465
 10
83.5621982398
 20
40.6887611108
 10
83.4926179677
 20
40.6909734094
  0
LINE
  5
302
100
AcDbEntity
  8
RACCORDO
100
AcDbLine
 62
250
  6
CONTINUOUS
 10
83.4926179677
 20
-40.6909734094
 11
83.4926179677
 21
-39.6057773315
  0
LINE
  5
303
100
AcDbEntity
  8
RACCORDO
100
AcDbLine
 62
250
  6
CONTINUOUS
 10
83.4926179677
 20
39.6057773315
 11
83.4926179677
 21
40.6909734094
  0
LINE
  5
304
100
AcDbEntity
  8
DRAFT
100
AcDbLine
 62
7
  6
CONTINUOUS
 10
84.8951844414
 20
3.5
 11
84.8951844414
 21
-3.5
  0
LINE
  5
305
100
AcDbEntity
  8
RACCORDO
100
AcDbLine
 62
7
  6
CONTINUOUS
 10
85.0
 20
-39.8016445583
 11
85.0
 21
-3.6749773271
  0
LINE
  5
306
100
AcDbEntity
  8
RACCORDO
100
AcDbLine
 62
7
  6
CONTINUOUS
 10
85.0
 20
3.6749773271
 11
85.0
 21
39.8016445583
  0
LWPOLYLINE
  5
307
100
AcDbEntity
  8
RACCORDO
100
AcDbPolyline
 62
250
  6
CONTINUOUS
 90
22
 70
0
 10
83.4926179677
 20
39.6057773315
 10
83.4748851805
 20
35.8436431863
 10
83.4589235864
 20
32.0785653357
 10
83.4447331854
 20
28.3108482422
 10
83.4323130504
 20
24.5407901816
 10
83.4216641085
 20
20.7687024666
 10
83.4127891406
 20
16.9949094532
 10
83.4056886103
 20
13.2197170809
 10
83.4003620539
 20
9.4434300554
 10
83.3968108614
 20
5.6663711074
 10
83.3950354958
 20
1.8888463322
 10
83.395035494
 20
-1.8888392027
 10
83.3968108565
 20
-5.666364234
 10
83.4003620468
 20
-9.4434237559
 10
83.4056886014
 20
-13.2197116111
 10
83.412789131
 20
-16.9949048827
 10
83.4216640995
 20
-20.7686988738
 10
83.4323130429
 20
-24.5407876358
 10
83.4447331796
 20
-28.3108466001
 10
83.4589235824
 20
-32.0785643838
 10
83.4748851784
 20
-35.8436427817
 10
83.4926179677
 20
-39.6057773315
  0
LWPOLYLINE
  5
308
100
AcDbEntity
  8
RACCORDO
100
AcDbPolyline
 62
250
  6
CONTINUOUS
 90
22
 70
0
 10
84.6909735924
 20
39.4926181507
 10
84.6732414053
 20
35.7409088849
 10
84.6572801911
 20
31.9868140544
 10
84.6430899498
 20
28.2303336592
 10
84.6306696655
 20
24.4711378455
 10
84.6200203541
 20
20.7095564672
 10
84.611145063
 20
16.9465790856
 10
84.6040443447
 20
13.1822252364
 10
84.5987176467
 20
9.416475384
 10
84.595166359
 20
5.6502604832
 10
84.5933909446
 20
1.8835808938
 10
84.5933909404
 20
-1.883563744
 10
84.595166347
 20
-5.6502435543
 10
84.5987176272
 20
-9.4164588257
 10
84.604044318
 20
-13.1822092696
 10
84.6111450313
 20
-16.9465641439
 10
84.6200203201
 20
-20.709543083
 10
84.6306696312
 20
-24.4711264525
 10
84.6430899177
 20
-28.2303246075
 10
84.6572801638
 20
-31.9868076664
 10
84.6732413853
 20
-35.7409055107
 10
84.6909735822
 20
-39.4926181405
  0
LWPOLYLINE
  5
309
100
AcDbEntity
  8
RACCORDO
100
AcDbPolyline
 62
250
  6
CONTINUOUS
 90
28
 70
0
 10
84.6909734094
 20
-39.4926179677
 10
84.6887625236
 20
-39.5621750371
 10
84.6825183622
 20
-39.6314975672
 10
84.6722619797
 20
-39.7003518097
 10
84.6580279597
 20
-39.7685055952
 10
84.6398642977
 20
-39.8357291162
 10
84.6178322397
 20
-39.9017957018
 10
84.5920060757
 20
-39.9664825825
 10
84.5624728886
 20
-40.0295716407
 10
84.5293322615
 20
-40.0908501466
 10
84.492695941
 20
-40.1501114756
 10
84.452687461
 20
-40.2071558044
 10
84.409441726
 20
-40.2617907856
 10
84.3631045562
 20
-40.3138321956
 10
84.3138321956
 20
-40.3631045562
 10
84.2617907856
 20
-40.409441726
 10
84.2071558044
 20
-40.452687461
 10
84.1501114756
 20
-40.492695941
 10
84.0908501466
 20
-40.5293322615
 10
84.0295716407
 20
-40.5624728886
 10
83.9664825825
 20
-40.5920060757
 10
83.9017957018
 20
-40.6178322397
 10
83.8357291162
 20
-40.6398642977
 10
83.7685055952
 20
-40.6580279597
 10
83.7003518097
 20
-40.6722619797
 10
83.6314975672
 20
-40.6825183622
 10
83.5621750371
 20
-40.6887625236
 10
83.4926179677
 20
-40.6909734094
  0
LWPOLYLINE
  5
30A
100
AcDbEntity
  8
RACCORDO
100
AcDbPolyline
 62
250
  6
CONTINUOUS
 90
16
 70
0
 10
84.6909734094
 20
-39.4926179677
 10
84.6845949027
 20
-39.5001367312
 10
84.6735188887
 20
-39.5071565998
 10
84.6578136393
 20
-39.5139127848
 10
84.6374171066
 20
-39.5208739279
 10
84.6123127826
 20
-39.5279299358
 10
84.5827316838
 20
-39.5345182289
 10
84.5488671164
 20
-39.5409928377
 10
84.5107197898
 20
-39.5475783958
 10
84.4684639547
 20
-39.5536221137
 10
84.4223413157
 20
-39.5594156372
 10
84.3724991564
 20
-39.5652731996
 10
84.3190760531
 20
-39.5705423266
 10
84.2623655248
 20
-39.5754663031
 10
84.2026221085
 20
-39.5803735706
 10
84.1399651262
 20
-39.5846649868
  0
LWPOLYLINE
  5
30B
100
AcDbEntity
  8
RACCORDO
100
AcDbPolyline
 62
250
  6
CONTINUOUS
 90
25
 70
0
 10
84.6909734094
 20
39.4926179677
 10
84.6846213503
 20
39.4997754005
 10
84.6734979902
 20
39.5069043738
 10
84.6576478542
 20
39.5139765599
 10
84.6371343881
 20
39.5209639717
 10
84.6120397027
 20
39.5278386881
 10
84.5824642447
 20
39.534572921
 10
84.5485263973
 20
39.5411397289
 10
84.5103620066
 20
39.5475129841
 10
84.4681238347
 20
39.5536670492
 10
84.4219809508
 20
39.5595772875
 10
84.3721180541
 20
39.565220118
 10
84.3187347337
 20
39.5705729161
 10
84.2620446698
 20
39.5756142245
 10
84.2022747793
 20
39.5803238955
 10
84.1396643068
 20
39.584683115
 10
84.0744638667
 20
39.5886743579
 10
84.0069344404
 20
39.5922816516
 10
83.9373463328
 20
39.5954906837
 10
83.8659780874
 20
39.5982884519
 10
83.793115374
 20
39.6006637431
 10
83.7190498458
 20
39.6026073199
 10
83.644077969
 20
39.6041113548
 10
83.5684998363
 20
39.6051695065
 10
83.4926179677
 20
39.6057773315
  0
LWPOLYLINE
  5
30C
100
AcDbEntity
  8
RACCORDO
100
AcDbPolyline
 62
250
  6
CONTINUOUS
 90
6
 70
0
 10
-101.8899247257
 20
-39.5981919717
 10
-101.9111149936
 20
-39.6007284151
 10
-101.9277128336
 20
-39.6026053356
 10
-101.9396384512
 20
-39.6038030074
 10
-101.9467755905
 20
-39.6047850775
 10
-101.9490884795
 20
-39.6057773315
  0
LINE
  5
30D
100
AcDbEntity
  8
RACCORDO
100
AcDbLine
 62
250
  6
CONTINUOUS
 10
-101.6712917878
 20
-39.5754663031
 11
-101.717863601
 21
-39.5803735706
  0
LWPOLYLINE
  5
30E
100
AcDbEntity
  8
RACCORDO
100
AcDbPolyline
 62
250
  6
CONTINUOUS
 90
3
 70
0
 10
-101.5101821922
 20
-39.5594156372
 10
-101.5671659865
 20
-39.5652731996
 10
-101.6712917878
 20
-39.5754663031
  0
LWPOLYLINE
  5
30F
100
AcDbEntity
  8
RACCORDO
100
AcDbPolyline
 62
250
  6
CONTINUOUS
 90
3
 70
0
 10
-101.3218841583
 20
-39.5409928377
 10
-101.3872454604
 20
-39.5475783958
 10
-101.5101821922
 20
-39.5594156372
  0
LWPOLYLINE
  5
310
100
AcDbEntity
  8
RACCORDO
100
AcDbPolyline
 62
250
  6
CONTINUOUS
 90
4
 70
0
 10
-101.717863601
 20
-39.5803735706
 10
-101.7994020058
 20
-39.5885523818
 10
-101.8339034548
 20
-39.5923364622
 10
-101.8899247257
 20
-39.5981919717
  0
LINE
  5
311
100
AcDbEntity
  8
RACCORDO
100
AcDbLine
 62
250
  6
CONTINUOUS
 10
-100.8172389752
 20
-39.4926179677
 11
-100.8927631734
 21
-39.5001367312
  0
LINE
  5
312
100
AcDbEntity
  8
RACCORDO
100
AcDbLine
 62
250
  6
CONTINUOUS
 10
-100.8927631734
 20
-39.5001367312
 11
-101.3218841583
 21
-39.5409928377
  0
LINE
  5
313
100
AcDbEntity
  8
RACCORDO
100
AcDbLine
 62
7
  6
CONTINUOUS
 10
-100.8172389752
 20
-40.6909734094
 11
-94.9206603596
 21
-41.0
  0
LINE
  5
314
100
AcDbEntity
  8
RACCORDO
100
AcDbLine
 62
250
  6
CONTINUOUS
 10
-100.8172356786
 20
-39.4926181405
 11
-94.9206603596
 21
-39.8016445583
  0
LWPOLYLINE
  5
315
100
AcDbEntity
  8
0
100
AcDbPolyline
 62
7
  6
CONTINUOUS
 90
10
 70
0
 43
0.3500000006
 10
-98.0849479065
 20
49.7500012665
 10
-97.2278009033
 20
50.6071437378
 10
-97.0135164185
 20
51.4642862091
 10
-97.0135164185
 20
52.3214286804
 10
-97.4420853882
 20
52.750002182
 10
-98.0849479065
 20
52.750002182
 10
-98.5135168762
 20
52.3214286804
 10
-98.5135168762
 20
51.4642862091
 10
-98.0849479065
 20
51.0357127075
 10
-97.1563787842
 20
51.0357127075
  0
LINE
  5
316
100
AcDbEntity
  8
0
100
AcDbLine
 62
7
  6
CONTINUOUS
 10
-102.3681320892
 20
-34.900056
 11
-102.5186524628
 21
-34.900056
  0
LINE
  5
317
100
AcDbEntity
  8
0
100
AcDbLine
 62
7
  6
CONTINUOUS
 10
-102.4624349474
 20
-33.7500306669
 11
-102.6129214271
 21
-33.7500306669
  0
LINE
  5
318
100
AcDbEntity
  8
0
100
AcDbLine
 62
7
  6
CONTINUOUS
 10
-102.5921900087
 20
-32.099937
 11
-102.7426300689
 21
-32.099937
  0
LWPOLYLINE
  5
319
100
AcDbEntity
  8
0
100
AcDbPolyline
 62
7
  6
CONTINUOUS
 90
3
 70
0
 43
0.3500000006
 10
-99.5135171814
 20
50.0357124023
 10
-99.5849483643
 20
49.8214279175
 10
-99.7278016663
 20
49.5357122498
  0
LWPOLYLINE
  5
31A
100
AcDbEntity
  8
0
100
AcDbPolyline
 62
7
  6
CONTINUOUS
 90
7
 70
0
 43
0.3500000006
 10
-112.570658844
 20
1.5000001373
 10
-112.570658844
 20
-0.0000003204
 10
-114.7135218201
 20
1.5000001373
 10
-115.1420907898
 20
1.5000001373
 10
-115.5706597595
 20
1.0714289017
 10
-115.5706597595
 20
0.4285709152
 10
-114.9278063049
 20
-0.0000003204
  0
LWPOLYLINE
  5
31B
100
AcDbEntity
  8
0
100
AcDbPolyline
 62
7
  6
CONTINUOUS
 90
13
 70
0
 43
0.3500000006
 10
-114.2849437866
 20
-1.9285708809
 10
-114.4992282715
 20
-2.2142854156
 10
-115.1420907898
 20
-2.2142854156
 10
-115.5706597595
 20
-1.9285708809
 10
-115.5706597595
 20
-1.2857140274
 10
-115.1420907898
 20
-1.0000006256
 10
-114.4992282715
 20
-1.0000006256
 10
-114.2849437866
 20
-1.2857140274
 10
-113.8563748169
 20
-0.8571427917
 10
-112.9992278137
 20
-0.8571427917
 10
-112.570658844
 20
-1.2857140274
 10
-112.570658844
 20
-1.9285708809
 10
-112.9992278137
 20
-2.3571432495
  0
LINE
  5
31C
100
AcDbEntity
  8
RACCORDO
100
AcDbLine
 62
7
  6
CONTINUOUS
 10
-101.9490884795
 20
39.6057773315
 11
-101.9478454094
 21
39.6182108431
  0
LWPOLYLINE
  5
31D
100
AcDbEntity
  8
0
100
AcDbPolyline
 62
7
  6
CONTINUOUS
 90
4
 70
0
 43
0.3500000006
 10
-102.5849492798
 20
50.1785702362
 10
-102.5849492798
 20
51.0357127075
 10
-102.1563712463
 20
51.4642862091
 10
-101.5135177917
 20
51.4642862091
  0
LWPOLYLINE
  5
31E
100
AcDbEntity
  8
RACCORDO
100
AcDbPolyline
 62
250
  6
CONTINUOUS
 90
22
 70
0
 10
-100.8172354828
 20
39.4926181507
 10
-101.1555857686
 20
35.7409088849
 10
-101.4601438789
 20
31.9868140544
 10
-101.7309098136
 20
28.2303336592
 10
-101.9679029555
 20
24.4711378455
 10
-102.1711039219
 20
20.7095564672
 10
-102.3404545644
 20
16.9465790856
 10
-102.4759443406
 20
13.1822252364
 10
-102.5775837929
 20
9.416475384
 10
-102.6453464
 20
5.6502604832
 10
-102.6792233244
 20
1.8835808938
 10
-102.6792234036
 20
-1.883563744
 10
-102.6453466285
 20
-5.6502435543
 10
-102.5775841662
 20
-9.4164588257
 10
-102.4759448496
 20
-13.1822092696
 10
-102.3404551682
 20
-16.9465641439
 10
-102.1711045713
 20
-20.709543083
 10
-101.9679036097
 20
-24.4711264525
 10
-101.7309104254
 20
-28.2303246075
 10
-101.4601443991
 20
-31.9868076664
 10
-101.1555861502
 20
-35.7409055107
 10
-100.8172356786
 20
-39.4926181405
  0
LINE
  5
31F
100
AcDbEntity
  8
DRAFT
100
AcDbLine
 62
7
  6
CONTINUOUS
 10
-96.9206603596
 20
-3.5
 11
-94.9206603596
 21
-3.6749773271
  0
LINE
  5
320
100
AcDbEntity
  8
RACCORDO
100
AcDbLine
 62
250
  6
CONTINUOUS
 10
-100.8240574724
 20
39.6311343765
 11
-100.8299519235
 21
39.7680263318
  0
LINE
  5
321
100
AcDbEntity
  8
RACCORDO
100
AcDbLine
 62
250
  6
CONTINUOUS
 10
-100.8299519235
 20
39.7680263318
 11
-100.8348362957
 21
39.9013862225
  0
LINE
  5
322
100
AcDbEntity
  8
RACCORDO
100
AcDbLine
 62
250
  6
CONTINUOUS
 10
-100.8348362957
 20
39.9013862225
 11
-100.8386353673
 21
40.0291975151
  0
LWPOLYLINE
  5
323
100
AcDbEntity
  8
RACCORDO
100
AcDbPolyline
 62
250
  6
CONTINUOUS
 90
19
 70
0
 10
-100.8386353673
 20
40.0291975151
 10
-100.8412996796
 20
40.1497877983
 10
-100.8421943735
 20
40.2068632876
 10
-100.8427929609
 20
40.2615288123
 10
-100.8430934191
 20
40.3135988487
 10
-100.8430947509
 20
40.36289891
 10
-100.8427969486
 20
40.4092630163
 10
-100.8422010071
 20
40.4525348695
 10
-100.841308931
 20
40.4925681669
 10
-100.8401237329
 20
40.5292275274
 10
-100.8386494147
 20
40.5623891768
 10
-100.8368909481
 20
40.5919413052
 10
-100.8348542648
 20
40.6177842012
 10
-100.8325462346
 20
40.6398306659
 10
-100.8299746454
 20
40.6580062831
 10
-100.8271481769
 20
40.672249697
 10
-100.8240763676
 20
40.6825128465
 10
-100.8207695811
 20
40.6887611108
 10
-100.8172389752
 20
40.6909734094
  0
LWPOLYLINE
  5
324
100
AcDbEntity
  8
RACCORDO
100
AcDbPolyline
 62
250
  6
CONTINUOUS
 90
17
 70
0
 10
-100.8421982791
 20
-40.2071558044
 10
-100.8427951642
 20
-40.2617907856
 10
-100.8430941107
 20
-40.3138321956
 10
-100.8430941107
 20
-40.3631045562
 10
-100.8427951642
 20
-40.409441726
 10
-100.8421982791
 20
-40.452687461
 10
-100.8413054681
 20
-40.492695941
 10
-100.8401197416
 20
-40.5293322615
 10
-100.8386450979
 20
-40.5624728886
 10
-100.8368865092
 20
-40.5920060757
 10
-100.8348499053
 20
-40.6178322397
 10
-100.8325421535
 20
-40.6398642977
 10
-100.8299710352
 20
-40.6580279597
 10
-100.8271452201
 20
-40.6722619797
 10
-100.8240742364
 20
-40.6825183622
 10
-100.8207684391
 20
-40.6887625236
 10
-100.8172389752
 20
-40.6909734094
  0
LINE
  5
325
100
AcDbEntity
  8
RACCORDO
100
AcDbLine
 62
250
  6
CONTINUOUS
 10
-100.8401197416
 20
-40.0908501466
 11
-100.8421982791
 21
-40.2071558044
  0
LINE
  5
326
100
AcDbEntity
  8
RACCORDO
100
AcDbLine
 62
250
  6
CONTINUOUS
 10
-100.8368865092
 20
-39.9664825825
 11
-100.8401197416
 21
-40.0908501466
  0
LINE
  5
327
100
AcDbEntity
  8
RACCORDO
100
AcDbLine
 62
250
  6
CONTINUOUS
 10
-100.8325421535
 20
-39.8357291162
 11
-100.8368865092
 21
-39.9664825825
  0
LWPOLYLINE
  5
328
100
AcDbEntity
  8
RACCORDO
100
AcDbPolyline
 62
250
  6
CONTINUOUS
 90
3
 70
0
 10
-100.8240742364
 20
-39.6314975672
 10
-100.8271452201
 20
-39.7003518097
 10
-100.8325421535
 20
-39.8357291162
  0
LWPOLYLINE
  5
329
100
AcDbEntity
  8
0
100
AcDbPolyline
 62
7
  6
CONTINUOUS
 90
4
 70
0
 43
0.3500000006
 10
-112.9992278137
 20
-2.3571432495
 10
-113.8563748169
 20
-2.3571432495
 10
-114.2849437866
 20
-1.9285708809
 10
-114.2849437866
 20
-1.2857140274
  0
LINE
  5
32A
100
AcDbEntity
  8
RACCORDO
100
AcDbLine
 62
250
  6
CONTINUOUS
 10
-100.8172389752
 20
39.4926179677
 11
-100.8240574724
 21
39.6311343765
  0
LINE
  5
32B
100
AcDbEntity
  8
DRAFT
100
AcDbLine
 62
7
  6
CONTINUOUS
 10
-96.9206603596
 20
3.5
 11
-96.9206603596
 21
-3.5
  0
LINE
  5
32C
100
AcDbEntity
  8
RACCORDO
100
AcDbLine
 62
250
  6
CONTINUOUS
 10
-100.8172389752
 20
-39.4926179677
 11
-100.8240742364
 21
-39.6314975672
  0
LINE
  5
32D
100
AcDbEntity
  8
RACCORDO
100
AcDbLine
 62
7
  6
CONTINUOUS
 10
-94.9206603596
 20
-3.6749773271
 11
-94.9206603596
 21
-41.0
  0
LINE
  5
32E
100
AcDbEntity
  8
RACCORDO
100
AcDbLine
 62
7
  6
CONTINUOUS
 10
-94.9206603596
 20
3.6749773271
 11
-94.9206603596
 21
41.0
  0
LINE
  5
32F
100
AcDbEntity
  8
DRAFT
100
AcDbLine
 62
7
  6
CONTINUOUS
 10
-94.9206603596
 20
3.6749773271
 11
-96.9206603596
 21
3.5
  0
LWPOLYLINE
  5
330
100
AcDbEntity
  8
0
100
AcDbPolyline
 62
7
  6
CONTINUOUS
 90
10
 70
0
 43
0.3500000006
 10
-99.5849483643
 20
50.2500014191
 10
-99.5135171814
 20
50.1071435852
 10
-99.5135171814
 20
50.0357124023
 10
-99.6563704834
 20
49.8928591003
 10
-99.7278016663
 20
49.8928591003
 10
-99.7992328491
 20
49.9642857513
 10
-99.7992328491
 20
50.0357124023
 10
-99.7278016663
 20
50.1785702362
 10
-99.6563704834
 20
50.2500014191
 10
-99.5849483643
 20
50.2500014191
  0
LINE
  5
331
100
AcDbEntity
  8
RACCORDO
100
AcDbLine
 62
250
  6
CONTINUOUS
 10
-94.9206603596
 20
39.8016445583
 11
-100.8172354828
 21
39.4926181507
  0
LINE
  5
332
100
AcDbEntity
  8
RACCORDO
100
AcDbLine
 62
7
  6
CONTINUOUS
 10
-94.9206603596
 20
41.0
 11
-100.8172389752
 21
40.6909734094
  0
LINE
  5
333
100
AcDbEntity
  8
RACCORDO
100
AcDbLine
 62
250
  6
CONTINUOUS
 10
-100.8172389752
 20
39.4926179677
 11
-101.5675831242
 21
39.565220118
  0
LINE
  5
334
100
AcDbEntity
  8
RACCORDO
100
AcDbLine
 62
250
  6
CONTINUOUS
 10
-101.5675831242
 20
39.565220118
 11
-101.7995332011
 21
39.5886743579
  0
LWPOLYLINE
  5
335
100
AcDbEntity
  8
RACCORDO
100
AcDbPolyline
 62
250
  6
CONTINUOUS
 90
7
 70
0
 10
-101.7995332011
 20
39.5886743579
 10
-101.8899691693
 20
39.5982884519
 10
-101.9111671791
 20
39.6006637431
 10
-101.9277349997
 20
39.6026073199
 10
-101.9396063187
 20
39.6041113548
 10
-101.9467336484
 20
39.6051695065
 10
-101.9490884795
 20
39.6057773315
  0
LWPOLYLINE
  5
336
100
AcDbEntity
  8
0
100
AcDbPolyline
 62
7
  6
CONTINUOUS
 90
13
 70
0
 43
0.3500000006
 10
-102.1563712463
 20
51.4642862091
 10
-102.4420869141
 20
51.678570694
 10
-102.4420869141
 20
52.3214286804
 10
-102.1563712463
 20
52.750002182
 10
-101.5135177917
 20
52.750002182
 10
-101.227802124
 20
52.3214286804
 10
-101.227802124
 20
51.678570694
 10
-101.5135177917
 20
51.4642862091
 10
-101.084948822
 20
51.0357127075
 10
-101.084948822
 20
50.1785702362
 10
-101.5135177917
 20
49.7500012665
 10
-102.1563712463
 20
49.7500012665
 10
-102.5849492798
 20
50.1785702362
  0
ARC
  5
337
100
AcDbEntity
  8
0
100
AcDbCircle
 62
7
  6
CONTINUOUS
 10
78.788572
 20
-32.958656
 40
0.8587214994
100
AcDbArc
 50
292.8428415932
 51
90.0
  0
ARC
  5
338
100
AcDbEntity
  8
0
100
AcDbCircle
 62
7
  6
CONTINUOUS
 10
78.710842
 20
-32.958656
 40
0.340698
100
AcDbArc
 50
270.0
 51
90.0
  0
ARC
  5
339
100
AcDbEntity
  8
RACCORDO
100
AcDbCircle
 62
7
  6
CONTINUOUS
 10
-62.3
 20
22.2999999998
 40
0.2
100
AcDbArc
 50
90.0
 51
134.8513847554
  0
ARC
  5
33A
100
AcDbEntity
  8
RACCORDO
100
AcDbCircle
 62
7
  6
CONTINUOUS
 10
62.3
 20
22.2999999998
 40
0.2
100
AcDbArc
 50
45.1488701393
 51
90.0
  0
ARC
  5
33B
100
AcDbEntity
  8
RACCORDO
100
AcDbCircle
 62
7
  6
CONTINUOUS
 10
62.3
 20
-22.3
 40
0.2
100
AcDbArc
 50
270.0
 51
314.912375627
  0
ARC
  5
33C
100
AcDbEntity
  8
RACCORDO
100
AcDbCircle
 62
7
  6
CONTINUOUS
 10
-62.3
 20
-22.3
 40
0.2
100
AcDbArc
 50
225.1212572286
 51
270.0
  0
ARC
  5
33D
100
AcDbEntity
  8
0
100
AcDbCircle
 62
7
  6
CONTINUOUS
 10
316.1793396404
 20
0.0
 40
420.15
100
AcDbArc
 50
184.3817321275
 51
184.76480453
  0
ARC
  5
33E
100
AcDbEntity
  8
RACCORDO
100
AcDbCircle
 62
7
  6
CONTINUOUS
 10
316.1793396404
 20
0.0
 40
420.0
100
AcDbArc
 50
174.5889986143
 51
185.4110013857
  0
ARC
  5
33F
100
AcDbEntity
  8
RACCORDO
100
AcDbCircle
 62
7
  6
CONTINUOUS
 10
-100.7544358277
 20
39.4926179677
 40
1.2
100
AcDbArc
 50
93.0
 51
173.9923799038
  0
ARC
  5
340
100
AcDbEntity
  8
RACCORDO
100
AcDbCircle
 62
7
  6
CONTINUOUS
 10
-100.7544358277
 20
-39.4926179677
 40
1.2
100
AcDbArc
 50
185.4110013857
 51
267.0
  0
ELLIPSE
  5
341
100
AcDbEntity
  8
RACCORDO
100
AcDbEllipse
 62
7
  6
CONTINUOUS
 10
-83.7983531848
 20
-39.7983531848
 30
0.0
 11
0.8508554921
 21
0.8508554921
 31
0.0
 40
0.9972646886
 41
2.3575640181
 42
3.9256212891
  0
ELLIPSE
  5
342
100
AcDbEntity
  8
RACCORDO
100
AcDbEllipse
 62
7
  6
CONTINUOUS
 10
-83.7983531848
 20
39.7983531848
 30
0.0
 11
0.8508554921
 21
-0.8508554921
 31
0.0
 40
0.9972646886
 41
2.3575640181
 42
3.9256212891
  0
ELLIPSE
  5
343
100
AcDbEntity
  8
RACCORDO
100
AcDbEllipse
 62
7
  6
CONTINUOUS
 10
83.7983531848
 20
-39.7983531848
 30
0.0
 11
0.8508554921
 21
-0.8508554921
 31
0.0
 40
0.9972646886
 41
-0.7840286355
 42
0.7840286355
  0
ELLIPSE
  5
344
100
AcDbEntity
  8
RACCORDO
100
AcDbEllipse
 62
7
  6
CONTINUOUS
 10
83.7983531848
 20
39.7983531848
 30
0.0
 11
0.8508554921
 21
0.8508554921
 31
0.0
 40
0.9972646886
 41
-0.7840286355
 42
0.7840286355
  0
ENDSEC
  0
SECTION
  2
OBJECTS
  0
DICTIONARY
  5
C
100
AcDbDictionary
280
0
281
1
  3
ACAD_GROUP
350
D
  3
ACAD_MLINESTYLE
350
17
  3
ACAD_LAYOUT
350
1A
  3
ACAD_PLOTSETTINGS
350
19
  3
ACAD_PLOTSTYLENAME
350
E
  0
DICTIONARY
  5
D
102
{ACAD_REACTORS
330
C
102
}
100
AcDbDictionary
280
0
281
1
  0
ACDBDICTIONARYWDFLT
  5
E
102
{ACAD_REACTORS
330
C
102
}
100
AcDbDictionary
281
1
  3
Normal
350
F
100
AcDbDictionaryWithDefault
340
F
  0
DICTIONARY
  5
17
102
{ACAD_REACTORS
330
C
102
}
100
AcDbDictionary
280
0
281
1
  3
Standard
350
18
  0
DICTIONARY
  5
19
102
{ACAD_REACTORS
330
C
102
}
100
AcDbDictionary
281
1
  0
DICTIONARY
  5
1A
102
{ACAD_REACTORS
330
C
102
}
100
AcDbDictionary
281
1
  3
Model
350
345
  3
Layout1
350
346
  0
ACDBPLACEHOLDER
  5
F
102
{ACAD_REACTORS
330
E
102
}
  0
MLINESTYLE
  5
18
102
{ACAD_REACTORS
330
17
102
}
100
AcDbMlineStyle
  2
STANDARD
 70
0
  3

 62
256
 51
90.0
 52
90.0
 71
2
 49
0.5
 62
256
  6
BYLAYER
 49
-0.5
 62
256
  6
BYLAYER
  0
LAYOUT
  5
345
102
{ACAD_REACTORS
330
1A
102
}
100
AcDbPlotSettings
  1

  2
none_device
  4
ISO_A4_(297.00_x_210.00_MM)
  6

 40
0.0
 41
0.0
 42
0.0
 43
0.0
 44
297.0
 45
210.0
 46
0.0
 47
0.0
 48
0.0
 49
0.0
140
0.0
141
0.0
142
1.0
143
1.0
 70
1024
 72
1
 73
0
 74
0
  7

 75
0
147
1.0
148
0.0
149
0.0
100
AcDbLayout
  1
Model
 70
0
 71
0
 10
0.0
 20
0.0
 11
297.0
 21
210.0
 12
0.0
 22
0.0
 32
0.0
 14
0.0
 24
0.0
 34
0.0
 15
0.0
 25
0.0
 35
0.0
146
0.0
 13
0.0
 23
0.0
 33
0.0
 16
1.0
 26
0.0
 36
0.0
 17
0.0
 27
1.0
 37
0.0
 76
0
330
212
345
0
346
0
  0
LAYOUT
  5
346
102
{ACAD_REACTORS
330
1A
102
}
100
AcDbPlotSettings
  1

  2
none_device
  4
ISO_A4_(297.00_x_210.00_MM)
  6

 40
0.0
 41
0.0
 42
0.0
 43
0.0
 44
297.0
 45
210.0
 46
0.0
 47
0.0
 48
0.0
 49
0.0
140
0.0
141
0.0
142
1.0
143
1.0
 70
0
 72
1
 73
0
 74
0
  7

 75
0
147
1.0
148
0.0
149
0.0
100
AcDbLayout
  1
Layout1
 70
0
 71
1
 10
0.0
 20
0.0
 11
297.0
 21
210.0
 12
0.0
 22
0.0
 32
0.0
 14
0.0
 24
0.0
 34
0.0
 15
0.0
 25
0.0
 35
0.0
146
0.0
 13
0.0
 23
0.0
 33
0.0
 16
1.0
 26
0.0
 36
0.0
 17
0.0
 27
1.0
 37
0.0
 76
0
330
213
345
0
346
0
  0
ENDSEC
  0
EOF
