  0
SECTION
  2
HEADER
  9
$ACADVER
  1
AC1024
  9
$DWGCODEPAGE
  3
ANSI_1252
  9
$EXTMAX
 10
297.0
 20
210.0
 30
0.0
  9
$EXTMIN
 10
0.0
 20
0.0
 30
0.0
  9
$LIMMIN
 10
0.0
 20
0.0
  9
$LIMMAX
 10
297.0
 20
210.0
  9
$VIEWCTR
 10
148.5
 20
105.0
  9
$VIEWSIZE
 40
210.0
  9
$CLAYER
  8
0
  9
$LTSCALE
 40
16.335
  9
$CELTYPE
  6
BYLAYER
  9
$DIMSCALE
 40
1.0
  9
$DIMASZ
 40
3.0
  9
$DIMEXO
 40
0.5
  9
$DIMDLI
 40
11.286
  9
$DIMEXE
 40
1.5
  9
$DIMCEN
 40
2.673
  9
$DIMLFAC
 40
1.0
  9
$DIMBLK
  1
_FILLED
  9
$DIMALT
 70
0
  9
$DIMALTF
 40
0.0393700787
  9
$DIMTXT
 40
3.0
  9
$DIMTOL
 70
1
  9
$DIMLIM
 70
0
  9
$DIMTFAC
 40
1.0
  9
$DIMTP
 40
0.01
  9
$DIMTM
 40
0.01
  9
$DIMGAP
 40
0.625
  9
$DIMDSEP
 70
44
  9
$AUNITS
 70
0
  9
$PDMODE
 70
3
  9
$PDSIZE
 40
3.0
  9
$HANDSEED
  5
34E
  9
$TILEMODE
 70
1
  9
$MEASUREMENT
 70
1
  9
$INSUNITS
 70
4
  0
ENDSEC
  0
SECTION
  2
CLASSES
  0
CLASS
  1
ACDBDICTIONARYWDFLT
  2
AcDbDictionaryWithDefault
  3
AutoCAD 2000
 90
0
 91
1
280
0
281
0
  0
CLASS
  1
ACDBPLACEHOLDER
  2
AcDbPlaceHolder
  3
AutoCAD 2000
 90
0
 91
1
280
0
281
0
  0
CLASS
  1
LAYOUT
  2
AcDbLayout
  3
AutoCAD 2000
 90
0
 91
0
280
0
281
0
  0
ENDSEC
  0
SECTION
  2
TABLES
  0
TABLE
  2
VPORT
  5
8
100
AcDbSymbolTable
 70
2
  0
VPORT
  5
1F4
100
AcDbSymbolTableRecord
100
AcDbViewportTableRecord
  2
*ACTIVE
 70
0
 10
0.0
 20
0.0
 11
1.0
 21
1.0
 12
148.5
 22
105.0
 13
0.0
 23
0.0
 14
1.0
 24
1.0
 15
0.0
 25
0.0
 16
0.0
 26
0.0
 36
1.0
 17
0.0
 27
0.0
 37
0.0
 40
210.0
 41
1.4142857143
 42
50.0
 43
0.0
 44
0.0
 50
0.0
 51
0.0
 71
0
 72
100
 73
1
 74
1
 75
0
 76
0
 77
0
 78
0
  0
ENDTAB
  0
TABLE
  2
LTYPE
  5
5
100
AcDbSymbolTable
 70
6
  0
LTYPE
  5
14
100
AcDbSymbolTableRecord
100
AcDbLinetypeTableRecord
  2
BYBLOCK
 70
0
  3

 72
65
 73
0
 40
0.0
  0
LTYPE
  5
15
100
AcDbSymbolTableRecord
100
AcDbLinetypeTableRecord
  2
BYLAYER
 70
0
  3

 72
65
 73
0
 40
0.0
  0
LTYPE
  5
16
100
AcDbSymbolTableRecord
100
AcDbLinetypeTableRecord
  2
CONTINUOUS
 70
64
  3
Solid line
 72
65
 73
0
 40
0.0
  0
LTYPE
  5
1F5
100
AcDbSymbolTableRecord
100
AcDbLinetypeTableRecord
  2
CENTER
 70
64
  3
____ _ ____ _ ____ _ ____ _ ____ _ ____ _ ____
 72
65
 73
4
 40
0.6
 49
0.375
 74
0
 49
-0.075
 74
0
 49
0.075
 74
0
 49
-0.075
 74
0
  0
LTYPE
  5
1F6
100
AcDbSymbolTableRecord
100
AcDbLinetypeTableRecord
  2
HIDDEN
 70
64
  3
- - - - - - - - - - - - - - - - - - - -
 72
65
 73
2
 40
0.2
 49
0.1
 74
0
 49
-0.1
 74
0
  0
LTYPE
  5
1F7
100
AcDbSymbolTableRecord
100
AcDbLinetypeTableRecord
  2
PHANTOM
 70
64
  3
_____ _ _ _____ _ _ _____ _ _ _____
 72
65
 73
6
 40
0.8
 49
0.45
 74
0
 49
-0.05
 74
0
 49
0.1
 74
0
 49
-0.05
 74
0
 49
0.1
 74
0
 49
-0.05
 74
0
  0
LTYPE
  5
1F8
100
AcDbSymbolTableRecord
100
AcDbLinetypeTableRecord
  2
DOT
 70
64
  3
. . . . . . . . . . . . . . . . . . . .
 72
65
 73
2
 40
0.2
 49
0.1
 74
0
 49
-0.1
 74
0
  0
LTYPE
  5
1F9
100
AcDbSymbolTableRecord
100
AcDbLinetypeTableRecord
  2
DASHED
 70
64
  3
- - - - - - - - - - - - - - - - - - - -
 72
65
 73
2
 40
0.2
 49
0.1
 74
0
 49
-0.1
 74
0
  0
ENDTAB
  0
TABLE
  2
LAYER
  5
2
100
AcDbSymbolTable
 70
36
  0
LAYER
  5
10
100
AcDbSymbolTableRecord
100
AcDbLayerTableRecord
  2
0
 70
0
 62
7
  6
CONTINUOUS
370
-3
390
F
  0
LAYER
  5
1FA
100
AcDbSymbolTableRecord
100
AcDbLayerTableRecord
  2
DEFAULT_1
 70
0
 62
7
  6
CENTER
370
-3
390
F
  0
LAYER
  5
1FB
100
AcDbSymbolTableRecord
100
AcDbLayerTableRecord
  2
DEFAULT_2
 70
0
 62
7
  6
HIDDEN
370
-3
390
F
  0
LAYER
  5
1FC
100
AcDbSymbolTableRecord
100
AcDbLayerTableRecord
  2
DEFAULT_3
 70
0
 62
7
  6
PHANTOM
370
-3
390
F
  0
LAYER
  5
1FD
100
AcDbSymbolTableRecord
100
AcDbLayerTableRecord
  2
ASSI
 70
0
 62
7
  6
CONTINUOUS
370
-3
390
F
  0
LAYER
  5
1FE
100
AcDbSymbolTableRecord
100
AcDbLayerTableRecord
  2
COORDINATE
 70
0
 62
7
  6
CONTINUOUS
370
-3
390
F
  0
LAYER
  5
1FF
100
AcDbSymbolTableRecord
100
AcDbLayerTableRecord
  2
COORD_ORIGINE
 70
0
 62
7
  6
CONTINUOUS
370
-3
390
F
  0
LAYER
  5
200
100
AcDbSymbolTableRecord
100
AcDbLayerTableRecord
  2
COSMETICI
 70
0
 62
7
  6
CONTINUOUS
370
-3
390
F
  0
LAYER
  5
201
100
AcDbSymbolTableRecord
100
AcDbLayerTableRecord
  2
CURVE
 70
0
 62
7
  6
CONTINUOUS
370
-3
390
F
  0
LAYER
  5
202
100
AcDbSymbolTableRecord
100
AcDbLayerTableRecord
  2
DRAFT
 70
0
 62
7
  6
CONTINUOUS
370
-3
390
F
  0
LAYER
  5
203
100
AcDbSymbolTableRecord
100
AcDbLayerTableRecord
  2
IMPORT
 70
0
 62
7
  6
CONTINUOUS
370
-3
390
F
  0
LAYER
  5
204
100
AcDbSymbolTableRecord
100
AcDbLayerTableRecord
  2
INTF_1
 70
0
 62
7
  6
CONTINUOUS
370
-3
390
F
  0
LAYER
  5
205
100
AcDbSymbolTableRecord
100
AcDbLayerTableRecord
  2
NOTE
 70
0
 62
7
  6
CONTINUOUS
370
-3
390
F
  0
LAYER
  5
206
100
AcDbSymbolTableRecord
100
AcDbLayerTableRecord
  2
PIANI
 70
0
 62
7
  6
CONTINUOUS
370
-3
390
F
  0
LAYER
  5
207
100
AcDbSymbolTableRecord
100
AcDbLayerTableRecord
  2
PIANI_ORIGINE
 70
0
 62
7
  6
CONTINUOUS
370
-3
390
F
  0
LAYER
  5
208
100
AcDbSymbolTableRecord
100
AcDbLayerTableRecord
  2
PUNTI
 70
0
 62
7
  6
CONTINUOUS
370
-3
390
F
  0
LAYER
  5
209
100
AcDbSymbolTableRecord
100
AcDbLayerTableRecord
  2
RACCORDO
 70
0
 62
7
  6
CONTINUOUS
370
-3
390
F
  0
LAYER
  5
20A
100
AcDbSymbolTableRecord
100
AcDbLayerTableRecord
  2
RGB____0____0____0__
 70
0
 62
7
  6
CONTINUOUS
370
-3
390
F
  0
LAYER
  5
20B
100
AcDbSymbolTableRecord
100
AcDbLayerTableRecord
  2
SIMBOLI
 70
0
 62
7
  6
CONTINUOUS
370
-3
390
F
  0
LAYER
  5
20C
100
AcDbSymbolTableRecord
100
AcDbLayerTableRecord
  2
SNAPLINE
 70
0
 62
7
  6
CONTINUOUS
370
-3
390
F
  0
LAYER
  5
20D
100
AcDbSymbolTableRecord
100
AcDbLayerTableRecord
  2
SUPERFICI
 70
0
 62
7
  6
CONTINUOUS
370
-3
390
F
  0
LAYER
  5
20E
100
AcDbSymbolTableRecord
100
AcDbLayerTableRecord
  2
TRASH
 70
0
 62
7
  6
CONTINUOUS
370
-3
390
F
  0
LAYER
  5
20F
100
AcDbSymbolTableRecord
100
AcDbLayerTableRecord
  2
XSEC_DATUMS
 70
0
 62
7
  6
CONTINUOUS
370
-3
390
F
  0
ENDTAB
  0
TABLE
  2
STYLE
  5
3
100
AcDbSymbolTable
 70
1
  0
STYLE
  5
11
100
AcDbSymbolTableRecord
100
AcDbTextStyleTableRecord
  2
STANDARD
 70
0
 40
0.0
 41
0.8
 50
0.0
 71
0
 42
0.2
  3
txt
  4

  0
STYLE
  5
210
100
AcDbSymbolTableRecord
100
AcDbTextStyleTableRecord
  2
TEXTSTYLE_1
 70
0
 40
0.0
 41
0.8
 50
0.0
 71
0
 42
0.2
  3
gdt
  4

  0
ENDTAB
  0
TABLE
  2
VIEW
  5
6
100
AcDbSymbolTable
 70
0
  0
ENDTAB
  0
TABLE
  2
UCS
  5
7
100
AcDbSymbolTable
 70
0
  0
ENDTAB
  0
TABLE
  2
APPID
  5
9
100
AcDbSymbolTable
 70
1
  0
APPID
  5
211
100
AcDbSymbolTableRecord
100
AcDbRegAppTableRecord
  2
ACAD
 70
0
  0
ENDTAB
  0
TABLE
  2
BLOCK_RECORD
  5
1
100
AcDbSymbolTable
 70
0
  0
BLOCK_RECORD
  5
212
100
AcDbSymbolTableRecord
100
AcDbBlockTableRecord
  2
*Model_Space
  0
BLOCK_RECORD
  5
213
100
AcDbSymbolTableRecord
100
AcDbBlockTableRecord
  2
*Paper_Space
  0
BLOCK_RECORD
  5
214
100
AcDbSymbolTableRecord
100
AcDbBlockTableRecord
  2
_FILLED
  0
BLOCK_RECORD
  5
215
100
AcDbSymbolTableRecord
100
AcDbBlockTableRecord
  2
*D0
  0
BLOCK_RECORD
  5
216
100
AcDbSymbolTableRecord
100
AcDbBlockTableRecord
  2
*D1
  0
BLOCK_RECORD
  5
217
100
AcDbSymbolTableRecord
100
AcDbBlockTableRecord
  2
*D2
  0
ENDTAB
  0
TABLE
  2
DIMSTYLE
  5
A
100
AcDbSymbolTable
 70
1
100
AcDbDimStyleTable
 71
0
  0
DIMSTYLE
105
218
100
AcDbSymbolTableRecord
100
AcDbDimStyleTableRecord
  2
STANDARD
 70
0
  3

  4

 40
1.0
 41
3.0
 42
0.5
 43
0.38
 44
1.5
 45
0.0
 46
0.0
 47
0.01
 48
0.01
140
3.0
141
0.09
142
0.0
143
25.4
144
1.0
145
0.0
146
1.0
147
0.625
 71
1
 72
0
 73
0
 74
0
 75
0
 76
0
 77
1
 78
8
 79
2
170
0
171
1
172
0
173
0
174
0
175
0
176
0
177
0
178
0
270
2
179
2
271
2
272
2
273
2
274
2
275
0
280
0
281
0
282
0
283
1
284
8
285
0
286
0
287
3
288
0
340
11
278
44
341
214
342
214
343
214
344
214
  0
DIMSTYLE
105
219
100
AcDbSymbolTableRecord
100
AcDbDimStyleTableRecord
  2
DIMSTYLE_1
 70
0
  3

  4

 40
1.0
 41
3.0
 42
0.5
 43
0.38
 44
1.5
 45
0.0
 46
0.0
 47
0.0
 48
0.0
140
3.0
141
0.09
142
0.0
143
25.4
144
1.0
145
0.0
146
1.0
147
0.75
 71
0
 72
0
 73
0
 74
0
 75
0
 76
0
 77
1
 78
8
 79
2
170
0
171
1
172
0
173
0
174
0
175
0
176
0
177
0
178
0
270
2
179
2
271
2
272
2
273
2
274
2
275
0
280
0
281
0
282
0
283
1
284
8
285
0
286
0
287
3
288
0
340
11
278
44
341
214
342
214
343
214
344
214
  0
ENDTAB
  0
ENDSEC
  0
SECTION
  2
BLOCKS
  0
BLOCK
  5
20
100
AcDbEntity
  8
0
100
AcDbBlockBegin
  2
*Model_Space
 70
0
 10
0.0
 20
0.0
 30
0.0
  3
*Model_Space
  1

  0
ENDBLK
  5
21
100
AcDbEntity
  8
0
100
AcDbBlockEnd
  0
BLOCK
  5
1C
100
AcDbEntity
  8
0
100
AcDbBlockBegin
  2
*Paper_Space
 70
0
 10
0.0
 20
0.0
 30
0.0
  3
*Paper_Space
  1

  0
ENDBLK
  5
1D
100
AcDbEntity
  8
0
100
AcDbBlockEnd
  0
BLOCK
  5
21A
100
AcDbEntity
  8
0
100
AcDbBlockBegin
  2
_FILLED
 70
64
 10
0.0
 20
0.0
  3
_FILLED
  1

  0
SOLID
  5
21B
100
AcDbEntity
  8
0
  6
BYBLOCK
 62
0
100
AcDbTrace
 10
0.0
 20
0.0
 11
-1.0
 21
0.3166666667
 12
-1.0
 22
-0.3166666667
 13
-1.0
 23
-0.3166666667
  0
ENDBLK
  5
21C
100
AcDbEntity
  8
0
  6
BYBLOCK
 62
0
100
AcDbBlockEnd
  0
BLOCK
  5
21D
100
AcDbEntity
  8
0
100
AcDbBlockBegin
 62
7
  6
CONTINUOUS
  2
*D0
 70
65
 10
0.0
 20
0.0
  3
*D0
  1

  0
LINE
  5
21E
100
AcDbEntity
  8
0
100
AcDbLine
 62
7
  6
CONTINUOUS
 10
-97.5
 20
40.3016445583
 11
-97.5
 21
50.5
  0
LINE
  5
21F
100
AcDbEntity
  8
0
100
AcDbLine
 62
7
  6
CONTINUOUS
 10
97.5
 20
40.3016445583
 11
97.5
 21
50.5
  0
LINE
  5
220
100
AcDbEntity
  8
0
100
AcDbLine
 62
7
  6
CONTINUOUS
 10
-97.5
 20
49.0
 11
0.0
 21
49.0
  0
LINE
  5
221
100
AcDbEntity
  8
0
100
AcDbLine
 62
7
  6
CONTINUOUS
 10
97.5
 20
49.0
 11
0.0
 21
49.0
  0
INSERT
  5
222
100
AcDbEntity
  8
0
100
AcDbBlockReference
 62
7
  6
CONTINUOUS
  2
_FILLED
 10
-97.5
 20
49.0
 41
3.0
 42
3.0
 43
3.0
 50
180.0
  0
INSERT
  5
223
100
AcDbEntity
  8
0
100
AcDbBlockReference
 62
7
  6
CONTINUOUS
  2
_FILLED
 10
97.5
 20
49.0
 41
3.0
 42
3.0
 43
3.0
  0
ENDBLK
  5
224
100
AcDbEntity
  8
0
  6
BYBLOCK
 62
0
100
AcDbBlockEnd
  0
BLOCK
  5
225
100
AcDbEntity
  8
0
100
AcDbBlockBegin
 62
7
  6
CONTINUOUS
  2
*D1
 70
65
 10
0.0
 20
0.0
  3
*D1
  1

  0
LINE
  5
226
100
AcDbEntity
  8
0
100
AcDbLine
 62
7
  6
CONTINUOUS
 10
-116.7572723471
 20
0.5
 11
-116.7572723471
 21
50.5
  0
LINE
  5
227
100
AcDbEntity
  8
0
100
AcDbLine
 62
7
  6
CONTINUOUS
 10
-107.8572723471
 20
41.5
 11
-107.8572723471
 21
50.5
  0
LINE
  5
228
100
AcDbEntity
  8
0
100
AcDbLine
 62
7
  6
CONTINUOUS
 10
-116.7572723471
 20
49.0
 11
-120.7572723471
 21
49.0
  0
LINE
  5
229
100
AcDbEntity
  8
0
100
AcDbLine
 62
7
  6
CONTINUOUS
 10
-120.7572723471
 20
49.0
 11
-112.3072723471
 21
49.0
  0
LINE
  5
22A
100
AcDbEntity
  8
0
100
AcDbLine
 62
7
  6
CONTINUOUS
 10
-107.8572723471
 20
49.0
 11
-103.8572723471
 21
49.0
  0
LINE
  5
22B
100
AcDbEntity
  8
0
100
AcDbLine
 62
7
  6
CONTINUOUS
 10
-103.8572723471
 20
49.0
 11
-112.3072723471
 21
49.0
  0
INSERT
  5
22C
100
AcDbEntity
  8
0
100
AcDbBlockReference
 62
7
  6
CONTINUOUS
  2
_FILLED
 10
-116.7572723471
 20
49.0
 41
3.0
 42
3.0
 43
3.0
  0
INSERT
  5
22D
100
AcDbEntity
  8
0
100
AcDbBlockReference
 62
7
  6
CONTINUOUS
  2
_FILLED
 10
-107.8572723471
 20
49.0
 41
3.0
 42
3.0
 43
3.0
 50
180.0
  0
ENDBLK
  5
22E
100
AcDbEntity
  8
0
  6
BYBLOCK
 62
0
100
AcDbBlockEnd
  0
BLOCK
  5
22F
100
AcDbEntity
  8
0
100
AcDbBlockBegin
 62
7
  6
CONTINUOUS
  2
*D2
 70
65
 10
0.0
 20
0.0
  3
*D2
  1

  0
LINE
  5
230
100
AcDbEntity
  8
0
100
AcDbLine
 62
7
  6
CONTINUOUS
 10
-108.3572723471
 20
41.0
 11
-126.2572723471
 21
41.0
  0
LINE
  5
231
100
AcDbEntity
  8
0
100
AcDbLine
 62
7
  6
CONTINUOUS
 10
-108.3572723471
 20
-41.0
 11
-126.2572723471
 21
-41.0
  0
LINE
  5
232
100
AcDbEntity
  8
0
100
AcDbLine
 62
7
  6
CONTINUOUS
 10
-124.7572723471
 20
41.0
 11
-124.7572723471
 21
0.0
  0
LINE
  5
233
100
AcDbEntity
  8
0
100
AcDbLine
 62
7
  6
CONTINUOUS
 10
-124.7572723471
 20
-41.0
 11
-124.7572723471
 21
0.0
  0
INSERT
  5
234
100
AcDbEntity
  8
0
100
AcDbBlockReference
 62
7
  6
CONTINUOUS
  2
_FILLED
 10
-124.7572723471
 20
41.0
 41
3.0
 42
3.0
 43
3.0
 50
90.0
  0
INSERT
  5
235
100
AcDbEntity
  8
0
100
AcDbBlockReference
 62
7
  6
CONTINUOUS
  2
_FILLED
 10
-124.7572723471
 20
-41.0
 41
3.0
 42
3.0
 43
3.0
 50
270.0
  0
ENDBLK
  5
236
100
AcDbEntity
  8
0
  6
BYBLOCK
 62
0
100
AcDbBlockEnd
  0
ENDSEC
  0
SECTION
  2
ENTITIES
  0
DIMENSION
  5
237
100
AcDbEntity
  8
0
100
AcDbDimension
 62
7
  6
CONTINUOUS
  2
*D0
 10
97.5
 20
49.0
 11
-3.1071428571
 21
49.0
 70
160
 71
2
 72
2
 41
0.9
 42
195.0
  3
DIMSTYLE_1
100
AcDbAlignedDimension
 13
-97.5
 23
39.8016445583
 14
97.5
 24
39.8016445583
100
AcDbRotatedDimension
  0
DIMENSION
  5
238
100
AcDbEntity
  8
0
100
AcDbDimension
 62
7
  6
CONTINUOUS
  2
*D1
 10
-107.8572723471
 20
49.0
 11
-115.5215580614
 21
49.0
 70
160
 71
2
 72
2
 41
0.9
 42
8.9
  3
DIMSTYLE_1
100
AcDbAlignedDimension
 13
-116.7572723471
 23
0.0
 14
-107.8572723471
 24
41.0
100
AcDbRotatedDimension
  0
DIMENSION
  5
239
100
AcDbEntity
  8
0
100
AcDbDimension
 62
7
  6
CONTINUOUS
  2
*D2
 10
-124.7572723471
 20
-41.0
 11
-124.7572723471
 21
-2.3571428571
 70
160
 71
2
 72
2
 41
0.9
 42
82.0
  3
DIMSTYLE_1
100
AcDbAlignedDimension
 13
-107.8572723471
 23
41.0
 14
-107.8572723471
 24
-41.0
 50
270.0
100
AcDbRotatedDimension
  0
LWPOLYLINE
  5
23A
100
AcDbEntity
  8
RACCORDO
100
AcDbPolyline
 62
250
  6
CONTINUOUS
 90
28
 70
0
 10
-97.1909734094
 20
-39.4926179677
 10
-97.1887752916
 20
-39.5619650121
 10
-97.1825616769
 20
-39.6311343765
 10
-97.172343894
 20
-39.6998930379
 10
-97.1581425501
 20
-39.7680263318
 10
-97.1399982858
 20
-39.8352844968
 10
-97.1179820326
 20
-39.9013862225
 10
-97.0921759313
 20
-39.9660903444
 10
-97.0626613439
 20
-40.0291975151
 10
-97.0295358542
 20
-40.0904983026
 10
-96.9929091678
 20
-40.1497877983
 10
-96.9529054562
 20
-40.2068632876
 10
-96.909661658
 20
-40.2615288123
 10
-96.8633247062
 20
-40.3135988487
 10
-96.8140500566
 20
-40.36289891
 10
-96.7620035454
 20
-40.4092630163
 10
-96.7073604492
 20
-40.4525348695
 10
-96.6503053273
 20
-40.4925681669
 10
-96.5910310387
 20
-40.5292275274
 10
-96.5297377234
 20
-40.5623891768
 10
-96.4666320526
 20
-40.5919413052
 10
-96.4019269243
 20
-40.6177842012
 10
-96.3358406206
 20
-40.6398306659
 10
-96.2685961576
 20
-40.6580062831
 10
-96.200420512
 20
-40.672249697
 10
-96.1315437487
 20
-40.6825128465
 10
-96.0621982398
 20
-40.6887611108
 10
-95.9926179677
 20
-40.6909734094
  0
LWPOLYLINE
  5
23B
100
AcDbEntity
  8
RACCORDO
100
AcDbPolyline
 62
250
  6
CONTINUOUS
 90
28
 70
0
 10
-97.1909734094
 20
39.4926179677
 10
-97.1887625236
 20
39.5621750371
 10
-97.1825183622
 20
39.6314975672
 10
-97.1722619797
 20
39.7003518097
 10
-97.1580279597
 20
39.7685055952
 10
-97.1398642977
 20
39.8357291162
 10
-97.1178322397
 20
39.9017957018
 10
-97.0920060757
 20
39.9664825825
 10
-97.0624728886
 20
40.0295716407
 10
-97.0293322615
 20
40.0908501466
 10
-96.992695941
 20
40.1501114756
 10
-96.952687461
 20
40.2071558044
 10
-96.909441726
 20
40.2617907856
 10
-96.8631045562
 20
40.3138321956
 10
-96.8138321956
 20
40.3631045562
 10
-96.7617907856
 20
40.409441726
 10
-96.7071558044
 20
40.452687461
 10
-96.6501114756
 20
40.492695941
 10
-96.5908501466
 20
40.5293322615
 10
-96.5295716407
 20
40.5624728886
 10
-96.4664825825
 20
40.5920060757
 10
-96.4017957018
 20
40.6178322397
 10
-96.3357291162
 20
40.6398642977
 10
-96.2685055952
 20
40.6580279597
 10
-96.2003518097
 20
40.6722619797
 10
-96.1314975672
 20
40.6825183622
 10
-96.0621750371
 20
40.6887625236
 10
-95.9926179677
 20
40.6909734094
  0
LWPOLYLINE
  5
23C
100
AcDbEntity
  8
RACCORDO
100
AcDbPolyline
 62
250
  6
CONTINUOUS
 90
16
 70
0
 10
-97.1909734094
 20
39.4926179677
 10
-97.1855493771
 20
39.4992109668
 10
-97.1764085915
 20
39.5054704902
 10
-97.163594421
 20
39.5115560126
 10
-97.1470575673
 20
39.5177866768
 10
-97.1267844617
 20
39.5240818897
 10
-97.1029342386
 20
39.5300535353
 10
-97.0756158976
 20
39.5359426628
 10
-97.0448173452
 20
39.5418933346
 10
-97.0106794318
 20
39.5474603855
 10
-96.9733599542
 20
39.5528643785
 10
-96.9329316787
 20
39.5583118853
 10
-96.8894933714
 20
39.5633332151
 10
-96.843229692
 20
39.5681122007
 10
-96.7942947116
 20
39.5728798756
 10
-96.7427785488
 20
39.5771946879
  0
LWPOLYLINE
  5
23D
100
AcDbEntity
  8
RACCORDO
100
AcDbPolyline
 62
250
  6
CONTINUOUS
 90
28
 70
0
 10
-97.1909734094
 20
-39.4926179677
 10
-97.1855633847
 20
-39.4989809529
 10
-97.1763801995
 20
-39.5053239771
 10
-97.1634529002
 20
-39.5116271313
 10
-97.1468223756
 20
-39.517870721
 10
-97.1265412265
 20
-39.524035034
 10
-97.102673599
 20
-39.53010037
 10
-97.075294984
 20
-39.5360475688
 10
-97.0444919779
 20
-39.5418579384
 10
-97.0103620066
 20
-39.5475129869
 10
-96.9730130199
 20
-39.5529948323
 10
-96.9325631489
 20
-39.5582862027
 10
-96.8891403321
 20
-39.5633703162
 10
-96.8428819112
 20
-39.5682310837
 10
-96.7939341971
 20
-39.5728531616
 10
-96.7424520061
 20
-39.5772219307
 10
-96.6885981708
 20
-39.5813235426
 10
-96.6325430254
 20
-39.585145033
 10
-96.5744638667
 20
-39.5886743606
 10
-96.5145443925
 20
-39.5919002961
 10
-96.4529741219
 20
-39.5948126316
 10
-96.3899477957
 20
-39.5974022703
 10
-96.3256647591
 20
-39.599660903
 10
-96.2603283325
 20
-39.6015813619
 10
-96.194145169
 20
-39.6031577761
 10
-96.1273245988
 20
-39.604385124
 10
-96.0600779673
 20
-39.6052592819
 10
-95.9926179677
 20
-39.6057773315
  0
LINE
  5
23E
100
AcDbEntity
  8
RACCORDO
100
AcDbLine
 62
7
  6
CONTINUOUS
 10
-97.5
 20
-39.8016445583
 11
-97.5
 21
-3.6749773271
  0
LINE
  5
23F
100
AcDbEntity
  8
RACCORDO
100
AcDbLine
 62
7
  6
CONTINUOUS
 10
-97.5
 20
3.6749773271
 11
-97.5
 21
39.8016445583
  0
LINE
  5
240
100
AcDbEntity
  8
DRAFT
100
AcDbLine
 62
7
  6
CONTINUOUS
 10
-97.3951844414
 20
3.5
 11
-97.3951844414
 21
-3.5
  0
LINE
  5
241
100
AcDbEntity
  8
RACCORDO
100
AcDbLine
 62
250
  6
CONTINUOUS
 10
-95.9926179677
 20
40.6909734094
 11
-95.9926179677
 21
39.6057773315
  0
LINE
  5
242
100
AcDbEntity
  8
RACCORDO
100
AcDbLine
 62
250
  6
CONTINUOUS
 10
-95.9926179677
 20
-39.6057773315
 11
-95.9926179677
 21
-40.6909734094
  0
LWPOLYLINE
  5
243
100
AcDbEntity
  8
RACCORDO
100
AcDbPolyline
 62
250
  6
CONTINUOUS
 90
22
 70
0
 10
-97.19097303
 20
-39.4926175883
 10
-97.1732480335
 20
-35.742690925
 10
-97.1572917362
 20
-31.9899319125
 10
-97.1431041381
 20
-28.2343405508
 10
-97.1306835265
 20
-24.4755266991
 10
-97.120031614
 20
-20.7138804981
 10
-97.1111535394
 20
-16.9505723701
 10
-97.1040502179
 20
-13.1856233184
 10
-97.0987207341
 20
-9.4190123397
 10
-97.0951674809
 20
-5.6518468459
 10
-97.0933912562
 20
-1.8841260449
 10
-97.0933912621
 20
1.8841492711
 10
-97.0951674968
 20
5.6518693134
 10
-97.0987207579
 20
9.4190331425
 10
-97.104050248
 20
13.185641698
 10
-97.1111535725
 20
16.9505880101
 10
-97.1200316455
 20
20.713892987
 10
-97.130683553
 20
24.4755357206
 10
-97.1431041593
 20
28.2343465173
 10
-97.1572917523
 20
31.9899354793
 10
-97.1732480441
 20
35.7426925045
 10
-97.1909730345
 20
39.4926175928
  0
LWPOLYLINE
  5
244
100
AcDbEntity
  8
RACCORDO
100
AcDbPolyline
 62
250
  6
CONTINUOUS
 90
22
 70
0
 10
-95.9926179677
 20
-39.6057773315
 10
-95.9748921131
 20
-35.8454266614
 10
-95.9589352433
 20
-32.0816872649
 10
-95.9447473584
 20
-28.3148623009
 10
-95.9323268564
 20
-24.5451883019
 10
-95.9216753392
 20
-20.7730363084
 10
-95.9127976126
 20
-16.998912171
 10
-95.9056944805
 20
-13.2231233403
 10
-95.900365139
 20
-9.445972655
 10
-95.8968119818
 20
-5.667959862
 10
-95.8950358072
 20
-1.8893901623
 10
-95.895035817
 20
1.8894300628
 10
-95.8968120094
 20
5.6679990278
 10
-95.900365183
 20
9.4460103521
 10
-95.9056945393
 20
13.223158835
 10
-95.9127976815
 20
16.9989447302
 10
-95.9216754135
 20
20.7730651872
 10
-95.9323269315
 20
24.5452127703
 10
-95.9447474268
 20
28.3148816698
 10
-95.9589352965
 20
32.0817008604
 10
-95.9748921434
 20
35.8454337996
 10
-95.9926179677
 20
39.6057773315
  0
LWPOLYLINE
  5
245
100
AcDbEntity
  8
RACCORDO
100
AcDbPolyline
 62
250
  6
CONTINUOUS
 90
28
 70
0
 10
-75.0
 20
23.2149987606
 10
-74.9979702889
 20
23.229165072
 10
-74.9918877637
 20
23.2432599543
 10
-74.9817726158
 20
23.2572359205
 10
-74.9676585242
 20
23.2710364608
 10
-74.9495929457
 20
23.2846242181
 10
-74.9276373465
 20
23.2979810967
 10
-74.9018662549
 20
23.3110714662
 10
-74.8723666625
 20
23.3238412532
 10
-74.8392384241
 20
23.3362460775
 10
-74.8025936506
 20
23.3482439121
 10
-74.7625563207
 20
23.3597941284
 10
-74.7192619221
 20
23.3708565285
 10
-74.6728569579
 20
23.3813936643
 10
-74.6234984457
 20
23.3913698757
 10
-74.5713534003
 20
23.4007503224
 10
-74.5165982661
 20
23.4095032704
 10
-74.4594183221
 20
23.4175991121
 10
-74.4000070532
 20
23.4250093844
 10
-74.3385654921
 20
23.4317090288
 10
-74.2753015431
 20
23.4376753915
 10
-74.2104292806
 20
23.4428872173
 10
-74.1441682176
 20
23.4473268842
 10
-74.076742566
 20
23.450979379
 10
-74.0083804825
 20
23.4538312665
 10
-73.9393132901
 20
23.4558725344
 10
-73.869774695
 20
23.4570966258
 10
-73.8
 20
23.4574993802
  0
LWPOLYLINE
  5
246
100
AcDbEntity
  8
RACCORDO
100
AcDbPolyline
 62
250
  6
CONTINUOUS
 90
25
 70
0
 10
-75.0
 20
25.933376786
 10
-74.9974307077
 20
25.946897738
 10
-74.9897338331
 20
25.9603607911
 10
-74.9769423352
 20
25.9737082946
 10
-74.9591109895
 20
25.9868830923
 10
-74.9363161524
 20
25.9998287678
 10
-74.908655435
 20
26.0124898856
 10
-74.8762472848
 20
26.0248122289
 10
-74.8392304785
 20
26.0367430316
 10
-74.7977635278
 20
26.0482312041
 10
-74.7520240006
 20
26.0592275523
 10
-74.7022077606
 20
26.0696849882
 10
-74.6485281286
 20
26.0795587314
 10
-74.591214969
 20
26.0888065011
 10
-74.5305137056
 20
26.0973886969
 10
-74.4666842706
 20
26.1052685684
 10
-74.3999999913
 20
26.112412373
 10
-74.3307464202
 20
26.1187895196
 10
-74.2592201115
 20
26.1243727006
 10
-74.185727352
 20
26.1291380076
 10
-74.1105828489
 20
26.1330650351
 10
-74.0341083824
 20
26.1361369669
 10
-73.9566314279
 20
26.1383406485
 10
-73.8784837537
 20
26.1396666434
 10
-73.8
 20
26.1401092736
  0
LWPOLYLINE
  5
247
100
AcDbEntity
  8
RACCORDO
100
AcDbPolyline
 62
7
  6
CONTINUOUS
 90
7
 70
0
 10
-74.9911168006
 20
22.3490545219
 10
-74.9849518936
 20
22.3700375554
 10
-74.9776813837
 20
22.3885203525
 10
-74.9697677107
 20
22.4042377543
 10
-74.9613508593
 20
22.4176861968
 10
-74.9520355991
 20
22.4298731461
 10
-74.941165653
 20
22.4416766189
  0
LINE
  5
248
100
AcDbEntity
  8
DRAFT
100
AcDbLine
 62
7
  6
CONTINUOUS
 10
-97.3951844414
 20
-3.5
 11
-97.5
 21
-3.6749773271
  0
LINE
  5
249
100
AcDbEntity
  8
RACCORDO
100
AcDbLine
 62
250
  6
CONTINUOUS
 10
-76.0583081222
 20
39.3228856252
 11
-75.9166400975
 21
39.463539325
  0
LINE
  5
24A
100
AcDbEntity
  8
RACCORDO
100
AcDbLine
 62
250
  6
CONTINUOUS
 10
-76.0583191774
 20
-39.3228767649
 11
-75.9166383553
 21
-39.4635311044
  0
LINE
  5
24B
100
AcDbEntity
  8
DRAFT
100
AcDbLine
 62
7
  6
CONTINUOUS
 10
-97.5
 20
3.6749773271
 11
-97.3951844414
 21
3.5
  0
LWPOLYLINE
  5
24C
100
AcDbEntity
  8
RACCORDO
100
AcDbPolyline
 62
250
  6
CONTINUOUS
 90
25
 70
0
 10
-75.0
 20
-25.9333767861
 10
-74.9974306791
 20
-25.9468978179
 10
-74.9897337213
 20
-25.9603609467
 10
-74.9769420899
 20
-25.9737085207
 10
-74.9591105635
 20
-25.9868833839
 10
-74.9363155042
 20
-25.9998291184
 10
-74.908654534
 20
-26.0124902855
 10
-74.8762461088
 20
-26.0248126682
 10
-74.8392290132
 20
-26.0367435002
 10
-74.7977617735
 20
-26.0482316902
 10
-74.7520219682
 20
-26.0592280444
 10
-74.7022054697
 20
-26.0696854756
 10
-74.6485256136
 20
-26.079559203
 10
-74.5912122747
 20
-26.0888069469
 10
-74.530510884
 20
-26.0973891084
 10
-74.466681385
 20
-26.1052689384
 10
-74.3999971128
 20
-26.1124126956
 10
-74.3307436236
 20
-26.1187897915
 10
-74.2592174767
 20
-26.1243729201
 10
-74.185724962
 20
-26.1291381755
 10
-74.1105807862
 20
-26.1330651543
 10
-74.0341067262
 20
-26.1361370428
 10
-73.9566302539
 20
-26.1383406887
 10
-73.8784831338
 20
-26.1396666577
 10
-73.8
 20
-26.1401092738
  0
LWPOLYLINE
  5
24D
100
AcDbEntity
  8
RACCORDO
100
AcDbPolyline
 62
250
  6
CONTINUOUS
 90
28
 70
0
 10
-75.0
 20
-23.2149987608
 10
-74.9979706562
 20
-23.2292699974
 10
-74.9918890529
 20
-23.2434514435
 10
-74.9817751102
 20
-23.2574956606
 10
-74.9676621447
 20
-23.2713438006
 10
-74.9495973927
 20
-23.284960925
 10
-74.9276424668
 20
-23.2983361072
 10
-74.9018719455
 20
-23.3114342276
 10
-74.872372687
 20
-23.3242007436
 10
-74.8392446793
 20
-23.3365969589
 10
-74.8026001133
 20
-23.3485814399
 10
-74.7625629146
 20
-23.3601129846
 10
-74.7192685593
 20
-23.3711553139
 10
-74.6728635467
 20
-23.3816715972
 10
-74.6235049044
 20
-23.3916255559
 10
-74.5713596534
 20
-23.4009844029
 10
-74.5166042442
 20
-23.4097169745
 10
-74.4594239598
 20
-23.4177930848
 10
-74.4000122886
 20
-23.4251845956
 10
-74.3385702671
 20
-23.4318669316
 10
-74.2753058071
 20
-23.4378169479
 10
-74.2104329926
 20
-23.4430122544
 10
-74.1441713412
 20
-23.4474355877
 10
-74.0767450736
 20
-23.4510715712
 10
-74.0083823617
 20
-23.4539045553
 10
-73.9393145388
 20
-23.4559237893
 10
-73.8697753151
 20
-23.457123452
 10
-73.8
 20
-23.4574993804
  0
LINE
  5
24E
100
AcDbEntity
  8
RACCORDO
100
AcDbLine
 62
250
  6
CONTINUOUS
 10
-75.538461687
 20
36.4254473316
 11
-75.4918353697
 21
35.9816603307
  0
LINE
  5
24F
100
AcDbEntity
  8
RACCORDO
100
AcDbLine
 62
250
  6
CONTINUOUS
 10
-75.4918353697
 20
35.9816603307
 11
-75.4457859275
 21
35.5101423579
  0
LINE
  5
250
100
AcDbEntity
  8
RACCORDO
100
AcDbLine
 62
250
  6
CONTINUOUS
 10
-75.4457859275
 20
35.5101423579
 11
-75.4003329471
 21
35.0097063274
  0
LINE
  5
251
100
AcDbEntity
  8
RACCORDO
100
AcDbLine
 62
250
  6
CONTINUOUS
 10
-75.4003329471
 20
35.0097063274
 11
-75.3554987571
 21
34.4788985531
  0
LINE
  5
252
100
AcDbEntity
  8
RACCORDO
100
AcDbLine
 62
250
  6
CONTINUOUS
 10
-75.3554987571
 20
34.4788985531
 11
-75.3113547034
 21
33.9159524498
  0
LINE
  5
253
100
AcDbEntity
  8
RACCORDO
100
AcDbLine
 62
250
  6
CONTINUOUS
 10
-75.3113547034
 20
33.9159524498
 11
-75.2681062223
 21
33.3193732578
  0
LINE
  5
254
100
AcDbEntity
  8
RACCORDO
100
AcDbLine
 62
250
  6
CONTINUOUS
 10
-75.2681062223
 20
33.3193732578
 11
-75.2259274065
 21
32.6864824689
  0
LINE
  5
255
100
AcDbEntity
  8
RACCORDO
100
AcDbLine
 62
250
  6
CONTINUOUS
 10
-75.2259274065
 20
32.6864824689
 11
-75.1850657717
 21
32.0140923831
  0
LINE
  5
256
100
AcDbEntity
  8
RACCORDO
100
AcDbLine
 62
250
  6
CONTINUOUS
 10
-75.1850657717
 20
32.0140923831
 11
-75.1460173943
 21
31.2999945844
  0
LINE
  5
257
100
AcDbEntity
  8
RACCORDO
100
AcDbLine
 62
250
  6
CONTINUOUS
 10
-75.1460173943
 20
31.2999945844
 11
-75.1093372432
 21
30.5407613786
  0
LINE
  5
258
100
AcDbEntity
  8
RACCORDO
100
AcDbLine
 62
250
  6
CONTINUOUS
 10
-75.1093372432
 20
30.5407613786
 11
-75.0757342671
 21
29.732236517
  0
LWPOLYLINE
  5
259
100
AcDbEntity
  8
RACCORDO
100
AcDbPolyline
 62
250
  6
CONTINUOUS
 90
8
 70
0
 10
-75.0757342671
 20
29.732236517
 10
-75.0463383725
 20
28.871611076
 10
-75.0336181275
 20
28.4201307972
 10
-75.0225373902
 20
27.9545255067
 10
-75.0132717098
 20
27.4731913738
 10
-75.0061571954
 20
26.9756060111
 10
-75.0016048415
 20
26.462327397
 10
-75.0
 20
25.933376786
  0
LINE
  5
25A
100
AcDbEntity
  8
RACCORDO
100
AcDbLine
 62
250
  6
CONTINUOUS
 10
-76.2
 20
39.6057773315
 11
-76.2
 21
-39.6057773315
  0
LINE
  5
25B
100
AcDbEntity
  8
RACCORDO
100
AcDbLine
 62
7
  6
CONTINUOUS
 10
-75.0
 20
25.9333767362
 11
-75.0
 21
-25.9333767363
  0
LINE
  5
25C
100
AcDbEntity
  8
RACCORDO
100
AcDbLine
 62
250
  6
CONTINUOUS
 10
-73.8
 20
26.1401092737
 11
-73.8
 21
23.4574993802
  0
LINE
  5
25D
100
AcDbEntity
  8
RACCORDO
100
AcDbLine
 62
250
  6
CONTINUOUS
 10
-73.8
 20
-23.4574993804
 11
-73.8
 21
-26.1401092738
  0
LWPOLYLINE
  5
25E
100
AcDbEntity
  8
RACCORDO
100
AcDbPolyline
 62
250
  6
CONTINUOUS
 90
7
 70
0
 10
-75.0
 20
-25.9333767861
 10
-75.0014677211
 20
-26.4388290931
 10
-75.005638113
 20
-26.9297827613
 10
-75.0121688922
 20
-27.4062189915
 10
-75.0206956975
 20
-27.8676395694
 10
-75.0309184811
 20
-28.3145109969
 10
-75.0426755964
 20
-28.7482654737
  0
LWPOLYLINE
  5
25F
100
AcDbEntity
  8
RACCORDO
100
AcDbPolyline
 62
250
  6
CONTINUOUS
 90
52
 70
0
 10
-73.8
 20
-26.1401092738
 10
-73.8040280278
 20
-26.6421127083
 10
-73.8121252135
 20
-27.1298423489
 10
-73.8242915569
 20
-27.6032430516
 10
-73.8410010415
 20
-28.0617611634
 10
-73.8617796839
 20
-28.5058504483
 10
-73.8852055341
 20
-28.9369756669
 10
-73.9111082549
 20
-29.3551402429
 10
-73.9396581835
 20
-29.7602672366
 10
-73.9699443811
 20
-30.1537108049
 10
-74.0018596237
 20
-30.5354780657
 10
-74.0355111355
 20
-30.9055072632
 10
-74.07030965
 20
-31.2650567041
 10
-74.1061889251
 20
-31.6141782286
 10
-74.143215203
 20
-31.9527794481
 10
-74.1809979447
 20
-32.2819077824
 10
-74.2194889712
 20
-32.6015764599
 10
-74.2587364616
 20
-32.9117418626
 10
-74.2984944142
 20
-33.2133701092
 10
-74.3387286086
 20
-33.5064845925
 10
-74.3794732652
 20
-33.7910391778
 10
-74.4205850441
 20
-34.0678986567
 10
-74.4620450625
 20
-34.3371264983
 10
-74.5038722031
 20
-34.5986421942
 10
-74.545979774
 20
-34.85309668
 10
-74.5883560031
 20
-35.1005496324
 10
-74.6310126625
 20
-35.340928424
 10
-74.6738983759
 20
-35.5746869547
 10
-74.7169884246
 20
-35.8017975028
 10
-74.7603075274
 20
-36.0222777995
 10
-74.8038784642
 20
-36.2366509826
 10
-74.8476652887
 20
-36.4448925091
 10
-74.8917039473
 20
-36.6470193531
 10
-74.9361250582
 20
-36.8436178222
 10
-74.9809242229
 20
-37.0347536612
 10
-75.0261058401
 20
-37.2203554912
 10
-75.071813724
 20
-37.4008045959
 10
-75.1180047579
 20
-37.5762974498
 10
-75.1647220585
 20
-37.7466333163
 10
-75.212238791
 20
-37.9115979747
 10
-75.2606368382
 20
-38.0711127929
 10
-75.3098343173
 20
-38.2252529104
 10
-75.359858745
 20
-38.3740349327
 10
-75.409998181
 20
-38.5175221672
 10
-75.4609645657
 20
-38.6556486353
 10
-75.5149212365
 20
-38.78823717
 10
-75.5721872908
 20
-38.9153589035
 10
-75.6324436312
 20
-39.03694064
 10
-75.6968963033
 20
-39.1525887984
 10
-75.7659473223
 20
-39.2621716365
 10
-75.8391946729
 20
-39.3658192951
 10
-75.9166383553
 20
-39.4635311044
  0
LINE
  5
260
100
AcDbEntity
  8
RACCORDO
100
AcDbLine
 62
250
  6
CONTINUOUS
 10
-75.0426755964
 20
-28.7482654737
 11
-75.0699215226
 21
-29.5764549046
  0
LWPOLYLINE
  5
261
100
AcDbEntity
  8
RACCORDO
100
AcDbPolyline
 62
250
  6
CONTINUOUS
 90
23
 70
0
 10
-73.8
 20
23.4574993802
 10
-73.800889705
 20
23.4321984118
 10
-73.8042436163
 20
23.4063913485
 10
-73.8100617338
 20
23.380100925
 10
-73.8183592001
 20
23.3532753245
 10
-73.8291208727
 20
23.3260193128
 10
-73.8423013237
 20
23.2985886107
 10
-73.8580115504
 20
23.2710671661
 10
-73.8761405554
 20
23.2434224905
 10
-73.8963099194
 20
23.2157311051
 10
-73.9185168373
 20
23.1880939727
 10
-73.9427641141
 20
23.1604654509
 10
-73.9686817447
 20
23.132708856
 10
-73.9962271329
 20
23.1049072719
 10
-74.025442875
 20
23.0770554841
 10
-74.0560867547
 20
23.0489079637
 10
-74.0881449049
 20
23.0205438982
 10
-74.1216311928
 20
22.992009171
 10
-74.1563450042
 20
22.9630494673
 10
-74.1922754056
 20
22.9338058434
 10
-74.2294333305
 20
22.90433754
 10
-74.2676509654
 20
22.8743366457
 10
-74.3072541499
 20
22.8437540275
  0
LWPOLYLINE
  5
262
100
AcDbEntity
  8
RACCORDO
100
AcDbPolyline
 62
7
  6
CONTINUOUS
 90
4
 70
0
 10
-75.0
 20
22.2719874299
 10
-74.9989158081
 20
22.3000073677
 10
-74.9958517212
 20
22.3257605826
 10
-74.9911168006
 20
22.3490545219
  0
LINE
  5
263
100
AcDbEntity
  8
RACCORDO
100
AcDbLine
 62
250
  6
CONTINUOUS
 10
-75.0699215226
 20
-29.5764549046
 11
-75.1011638621
 21
-30.3561151171
  0
LINE
  5
264
100
AcDbEntity
  8
RACCORDO
100
AcDbLine
 62
250
  6
CONTINUOUS
 10
-75.1011638621
 20
-30.3561151171
 11
-75.1353609107
 21
-31.0897794389
  0
LINE
  5
265
100
AcDbEntity
  8
RACCORDO
100
AcDbLine
 62
250
  6
CONTINUOUS
 10
-75.1353609107
 20
-31.0897794389
 11
-75.1718472025
 21
-31.7812516465
  0
LINE
  5
266
100
AcDbEntity
  8
RACCORDO
100
AcDbLine
 62
250
  6
CONTINUOUS
 10
-75.1718472025
 20
-31.7812516465
 11
-75.2100854803
 21
-32.4334987454
  0
LINE
  5
267
100
AcDbEntity
  8
RACCORDO
100
AcDbLine
 62
250
  6
CONTINUOUS
 10
-75.2100854803
 20
-32.4334987454
 11
-75.2495967583
 21
-33.0484940209
  0
LINE
  5
268
100
AcDbEntity
  8
RACCORDO
100
AcDbLine
 62
250
  6
CONTINUOUS
 10
-75.2495967583
 20
-33.0484940209
 11
-75.2901254545
 21
-33.6291335459
  0
LINE
  5
269
100
AcDbEntity
  8
RACCORDO
100
AcDbLine
 62
250
  6
CONTINUOUS
 10
-75.2901254545
 20
-33.6291335459
 11
-75.3314888225
 21
-34.1779818806
  0
LINE
  5
26A
100
AcDbEntity
  8
RACCORDO
100
AcDbLine
 62
250
  6
CONTINUOUS
 10
-75.3314888225
 20
-34.1779818806
 11
-75.3734821013
 21
-34.6965320611
  0
LINE
  5
26B
100
AcDbEntity
  8
RACCORDO
100
AcDbLine
 62
250
  6
CONTINUOUS
 10
-75.3734821013
 20
-34.6965320611
 11
-75.416040511
 21
-35.1867672546
  0
LINE
  5
26C
100
AcDbEntity
  8
RACCORDO
100
AcDbLine
 62
250
  6
CONTINUOUS
 10
-75.416040511
 20
-35.1867672546
 11
-75.4590942981
 21
-35.649875421
  0
LINE
  5
26D
100
AcDbEntity
  8
RACCORDO
100
AcDbLine
 62
250
  6
CONTINUOUS
 10
-75.4590942981
 20
-35.649875421
 11
-75.502574176
 21
-36.0868225422
  0
LINE
  5
26E
100
AcDbEntity
  8
RACCORDO
100
AcDbLine
 62
250
  6
CONTINUOUS
 10
-75.502574176
 20
-36.0868225422
 11
-75.5465432869
 21
-36.4991445661
  0
LWPOLYLINE
  5
26F
100
AcDbEntity
  8
RACCORDO
100
AcDbPolyline
 62
250
  6
CONTINUOUS
 90
19
 70
0
 10
-75.5465432869
 20
-36.4991445661
 10
-75.5912077976
 20
-36.8887207304
 10
-75.6138047397
 20
-37.0752072345
 10
-75.6366896362
 20
-37.2565027074
 10
-75.6598605016
 20
-37.4327901292
 10
-75.6832985584
 20
-37.6038842766
 10
-75.70710248
 20
-37.7695995216
 10
-75.7312317875
 20
-37.9299053018
 10
-75.7557104974
 20
-38.0848290899
 10
-75.7807425239
 20
-38.2342706026
 10
-75.8061842378
 20
-38.3780758839
 10
-75.8321684338
 20
-38.5163937827
 10
-75.8593324764
 20
-38.6495731753
 10
-75.8875470623
 20
-38.7783906333
 10
-75.9169496015
 20
-38.9020557045
 10
-75.9486085287
 20
-39.0185551893
 10
-75.9828969364
 20
-39.1272034296
 10
-76.0194679849
 20
-39.2286503026
 10
-76.0583191776
 20
-39.3228767647
  0
LWPOLYLINE
  5
270
100
AcDbEntity
  8
RACCORDO
100
AcDbPolyline
 62
7
  6
CONTINUOUS
 90
9
 70
0
 10
-74.9411285484
 20
-22.4417135717
 10
-74.9520406631
 20
-22.4298671617
 10
-74.9613783563
 20
-22.4176465566
 10
-74.9698050608
 20
-22.4041714684
 10
-74.9777159229
 20
-22.3884431877
 10
-74.9849755123
 20
-22.369968669
 10
-74.9911303335
 20
-22.3489999518
 10
-74.9958584631
 20
-22.325718691
 10
-74.9989176909
 20
-22.2999834612
  0
LINE
  5
271
100
AcDbEntity
  8
RACCORDO
100
AcDbLine
 62
250
  6
CONTINUOUS
 10
-75.585838437
 20
36.8435647479
 11
-75.538461687
 21
36.4254473316
  0
LINE
  5
272
100
AcDbEntity
  8
RACCORDO
100
AcDbLine
 62
7
  6
CONTINUOUS
 10
-74.9414213518
 20
22.4414213605
 11
-74.9411641234
 21
22.4416781219
  0
LWPOLYLINE
  5
273
100
AcDbEntity
  8
RACCORDO
100
AcDbPolyline
 62
250
  6
CONTINUOUS
 90
4
 70
0
 10
-74.3072541499
 20
22.8437540275
 10
-74.388494316
 20
22.7824763886
 10
-74.4294368867
 20
22.7519116702
 10
-74.4702938345
 20
22.7220042929
  0
LWPOLYLINE
  5
274
100
AcDbEntity
  8
RACCORDO
100
AcDbPolyline
 62
250
  6
CONTINUOUS
 90
25
 70
0
 10
-74.4481011957
 20
-22.7382603915
 10
-74.3660129783
 20
-22.799268886
 10
-74.3226644357
 20
-22.8319114843
 10
-74.2805681035
 20
-22.8643352689
 10
-74.2405298343
 20
-22.8956285748
 10
-74.2017437756
 20
-22.9262172571
 10
-74.1644174083
 20
-22.9564337362
 10
-74.1285951292
 20
-22.9861682794
 10
-74.0942325416
 20
-23.0152808802
 10
-74.0614039361
 20
-23.0441496173
 10
-74.0300756435
 20
-23.072743541
 10
-74.0002813331
 20
-23.1009524316
 10
-73.9721963025
 20
-23.1290918672
 10
-73.9457575237
 20
-23.157181974
 10
-73.9210280247
 20
-23.1851197569
 10
-73.8983721881
 20
-23.2130652156
 10
-73.8777799158
 20
-23.2410696154
 10
-73.8592613058
 20
-23.2690240862
 10
-73.8432110351
 20
-23.2968564723
 10
-73.8297433991
 20
-23.3246044469
 10
-73.8187441023
 20
-23.352177158
 10
-73.810264935
 20
-23.3793049607
 10
-73.8043231606
 20
-23.405877604
 10
-73.8009015156
 20
-23.4319502693
 10
-73.8
 20
-23.4574993804
  0
LINE
  5
275
100
AcDbEntity
  8
RACCORDO
100
AcDbLine
 62
7
  6
CONTINUOUS
 10
-74.9414213543
 20
-22.4414213582
 11
-74.9411270183
 21
-22.4417150829
  0
LWPOLYLINE
  5
276
100
AcDbEntity
  8
RACCORDO
100
AcDbPolyline
 62
250
  6
CONTINUOUS
 90
19
 70
0
 10
-74.4702938345
 20
22.7220042929
 10
-74.5433731501
 20
22.6693816335
 10
-74.575595518
 20
22.6464858014
 10
-74.605386299
 20
22.6256083835
 10
-74.632720104
 20
22.6066796525
 10
-74.6576223221
 20
22.5896189184
 10
-74.6803212568
 20
22.5743366935
 10
-74.7008246988
 20
22.5607483256
 10
-74.7191248574
 20
22.5487797182
 10
-74.7354266634
 20
22.5383549459
 10
-74.7497323438
 20
22.5293874947
 10
-74.7620396716
 20
22.5217933241
 10
-74.7725468974
 20
22.5154935723
 10
-74.7812528678
 20
22.5103986815
 10
-74.7881587361
 20
22.5064223098
 10
-74.7934662125
 20
22.5034828539
 10
-74.7972425336
 20
22.5014916453
 10
-74.7994204628
 20
22.5003590527
 10
-74.8
 20
22.4999999998
  0
LWPOLYLINE
  5
277
100
AcDbEntity
  8
RACCORDO
100
AcDbPolyline
 62
250
  6
CONTINUOUS
 90
18
 70
0
 10
-74.8
 20
-22.5
 10
-74.7994640211
 20
-22.5003361603
 10
-74.7974189863
 20
-22.5013973276
 10
-74.7938648956
 20
-22.503264426
 10
-74.788868866
 20
-22.5060226457
 10
-74.7823637805
 20
-22.5097566011
 10
-74.7741482879
 20
-22.514544967
 10
-74.7642218149
 20
-22.5204705337
 10
-74.7525849349
 20
-22.5276196354
 10
-74.7390380168
 20
-22.5360703792
 10
-74.7235837005
 20
-22.5459050446
 10
-74.706219346
 20
-22.5572080711
 10
-74.6867374027
 20
-22.5700559838
 10
-74.6651393332
 20
-22.5845264748
 10
-74.6414236749
 20
-22.600700445
 10
-74.6153784888
 20
-22.6186553989
 10
-74.5869988594
 20
-22.6384589899
 10
-74.5562897023
 20
-22.6601886141
  0
LWPOLYLINE
  5
278
100
AcDbEntity
  8
RACCORDO
100
AcDbPolyline
 62
250
  6
CONTINUOUS
 90
3
 70
0
 10
-74.5562897023
 20
-22.6601886141
 10
-74.4868408705
 20
-22.7100099074
 10
-74.4481011957
 20
-22.7382603915
  0
LWPOLYLINE
  5
279
100
AcDbEntity
  8
RACCORDO
100
AcDbPolyline
 62
250
  6
CONTINUOUS
 90
17
 70
0
 10
-76.0583191776
 20
39.3228767647
 10
-76.0165380971
 20
39.2199942051
 10
-75.9773126436
 20
39.10900154
 10
-75.9406462864
 20
38.9899216413
 10
-75.9069561751
 20
38.8621107021
 10
-75.875791849
 20
38.7262553965
 10
-75.8458679373
 20
38.5843626781
 10
-75.8169763777
 20
38.4371242382
 10
-75.7893195209
 20
38.2838633733
 10
-75.7622662337
 20
38.1245206826
 10
-75.7356863549
 20
37.9589699428
 10
-75.7097233113
 20
37.7873434442
 10
-75.684177053
 20
37.6099642599
 10
-75.6590411073
 20
37.4269473141
 10
-75.6343404055
 20
37.2381816905
 10
-75.6099329918
 20
37.0436496619
 10
-75.585838437
 20
36.8435647479
  0
LWPOLYLINE
  5
27A
100
AcDbEntity
  8
RACCORDO
100
AcDbPolyline
 62
250
  6
CONTINUOUS
 90
3
 70
0
 10
-76.0583191776
 20
-39.3228767647
 10
-76.1762611185
 20
-39.5584587583
 10
-76.2
 20
-39.6057773304
  0
LINE
  5
27B
100
AcDbEntity
  8
RACCORDO
100
AcDbLine
 62
250
  6
CONTINUOUS
 10
-76.2
 20
39.6057773296
 11
-76.0583191776
 21
39.3228767647
  0
LWPOLYLINE
  5
27C
100
AcDbEntity
  8
RACCORDO
100
AcDbPolyline
 62
250
  6
CONTINUOUS
 90
3
 70
0
 10
96.7427785489
 20
-39.5771946915
 10
96.6328592593
 20
-39.5851756785
 10
96.5747424904
 20
-39.5886591905
  0
LWPOLYLINE
  5
27D
100
AcDbEntity
  8
RACCORDO
100
AcDbPolyline
 62
250
  6
CONTINUOUS
 90
3
 70
0
 10
96.5747424904
 20
-39.5886591905
 10
96.4532195733
 20
-39.5948505278
 10
96.3901465911
 20
-39.597395023
  0
LWPOLYLINE
  5
27E
100
AcDbEntity
  8
RACCORDO
100
AcDbPolyline
 62
250
  6
CONTINUOUS
 90
3
 70
0
 10
96.3901465911
 20
-39.597395023
 10
96.2604823167
 20
-39.6016283396
 10
96.194248535
 20
-39.6031572467
  0
LINE
  5
27F
100
AcDbEntity
  8
RACCORDO
100
AcDbLine
 62
250
  6
CONTINUOUS
 10
-97.5
 20
-39.8016445583
 11
-97.19097303
 21
-39.4926175883
  0
LINE
  5
280
100
AcDbEntity
  8
RACCORDO
100
AcDbLine
 62
250
  6
CONTINUOUS
 10
-96.3016445583
 20
-41.0
 11
-95.9926179677
 21
-40.6909734094
  0
LWPOLYLINE
  5
281
100
AcDbEntity
  8
0
100
AcDbPolyline
 62
7
  6
CONTINUOUS
 90
3
 70
0
 43
0.3500000006
 10
-3.1071428747
 20
51.8928551788
 10
-2.2499999785
 20
52.750002182
 10
-2.2499999785
 20
49.7500012665
  0
LWPOLYLINE
  5
282
100
AcDbEntity
  8
0
100
AcDbPolyline
 62
7
  6
CONTINUOUS
 90
10
 70
0
 43
0.3500000006
 10
-0.9642857051
 20
49.7500012665
 10
-0.1071428532
 20
50.6071437378
 10
0.1071428532
 20
51.4642862091
 10
0.1071428532
 20
52.3214286804
 10
-0.3214285684
 20
52.750002182
 10
-0.9642857051
 20
52.750002182
 10
-1.3928570824
 20
52.3214286804
 10
-1.3928570824
 20
51.4642862091
 10
-0.9642857051
 20
51.0357127075
 10
-0.0357142859
 20
51.0357127075
  0
LINE
  5
283
100
AcDbEntity
  8
RACCORDO
100
AcDbLine
 62
250
  6
CONTINUOUS
 10
96.194248535
 20
-39.6031572467
 11
95.9926179677
 21
-39.6057773315
  0
LINE
  5
284
100
AcDbEntity
  8
RACCORDO
100
AcDbLine
 62
7
  6
CONTINUOUS
 10
-96.3016445583
 20
-41.0
 11
96.3016445583
 21
-41.0
  0
LINE
  5
285
100
AcDbEntity
  8
RACCORDO
100
AcDbLine
 62
250
  6
CONTINUOUS
 10
-95.9926179677
 20
-40.6909734094
 11
95.9926179677
 21
-40.6909734094
  0
LINE
  5
286
100
AcDbEntity
  8
RACCORDO
100
AcDbLine
 62
250
  6
CONTINUOUS
 10
-95.9926179677
 20
-39.6057773315
 11
-76.1999999989
 21
-39.6057773315
  0
LINE
  5
287
100
AcDbEntity
  8
RACCORDO
100
AcDbLine
 62
250
  6
CONTINUOUS
 10
76.1999999989
 20
-39.6057773315
 11
95.9926179677
 21
-39.6057773315
  0
LINE
  5
288
100
AcDbEntity
  8
RACCORDO
100
AcDbLine
 62
250
  6
CONTINUOUS
 10
-75.9166383553
 20
-39.4635311044
 11
75.9166383553
 21
-39.4635311044
  0
LINE
  5
289
100
AcDbEntity
  8
0
100
AcDbLine
 62
7
  6
CONTINUOUS
 10
87.24575
 20
-34.90007
 11
87.805771
 21
-34.900063
  0
LINE
  5
28A
100
AcDbEntity
  8
0
100
AcDbLine
 62
7
  6
CONTINUOUS
 10
85.222904
 20
-34.90007
 11
85.782911
 21
-34.900063
  0
LINE
  5
28B
100
AcDbEntity
  8
0
100
AcDbLine
 62
7
  6
CONTINUOUS
 10
83.013389
 20
-34.900077
 11
83.57341
 21
-34.90007
  0
LINE
  5
28C
100
AcDbEntity
  8
0
100
AcDbLine
 62
7
  6
CONTINUOUS
 10
81.180978
 20
-34.900077
 11
81.74102
 21
-34.90007
  0
LINE
  5
28D
100
AcDbEntity
  8
0
100
AcDbLine
 62
7
  6
CONTINUOUS
 10
91.587269
 20
-34.900063
 11
92.218046
 21
-34.900056
  0
LINE
  5
28E
100
AcDbEntity
  8
0
100
AcDbLine
 62
7
  6
CONTINUOUS
 10
84.133417
 20
-34.90007
 11
84.693438
 21
-34.90007
  0
LINE
  5
28F
100
AcDbEntity
  8
0
100
AcDbLine
 62
7
  6
CONTINUOUS
 10
86.312384
 20
-34.90007
 11
86.872405
 21
-34.90007
  0
LINE
  5
290
100
AcDbEntity
  8
0
100
AcDbLine
 62
7
  6
CONTINUOUS
 10
89.977192
 20
-34.900063
 11
90.53722
 21
-34.900063
  0
LINE
  5
291
100
AcDbEntity
  8
0
100
AcDbLine
 62
7
  6
CONTINUOUS
 10
89.043819
 20
-34.900063
 11
89.603847
 21
-34.90007
  0
LINE
  5
292
100
AcDbEntity
  8
0
100
AcDbLine
 62
7
  6
CONTINUOUS
 10
87.98257
 20
-34.349401
 11
88.867027
 21
-34.349401
  0
LINE
  5
293
100
AcDbEntity
  8
RACCORDO
100
AcDbLine
 62
250
  6
CONTINUOUS
 10
-97.1909730345
 20
39.4926175928
 11
-97.5
 21
39.8016445583
  0
LINE
  5
294
100
AcDbEntity
  8
RACCORDO
100
AcDbLine
 62
250
  6
CONTINUOUS
 10
-95.9926179677
 20
40.6909734094
 11
-96.3016445583
 21
41.0
  0
LWPOLYLINE
  5
295
100
AcDbEntity
  8
RACCORDO
100
AcDbPolyline
 62
250
  6
CONTINUOUS
 90
49
 70
0
 10
-75.9166383553
 20
39.4635311044
 10
-75.8331743414
 20
39.3581420172
 10
-75.7545894785
 20
39.2456321857
 10
-75.6808837667
 20
39.1260024831
 10
-75.6127183803
 20
38.9989792376
 10
-75.5494321449
 20
38.8648382521
 10
-75.4890415376
 20
38.7244046929
 10
-75.4315003745
 20
38.5778541304
 10
-75.3768548395
 20
38.4250136689
 10
-75.323259961
 20
38.2661858196
 10
-75.2701509833
 20
38.1013905337
 10
-75.2180926622
 20
37.9306113424
 10
-75.1669342929
 20
37.7540962588
 10
-75.1167255693
 20
37.5719313981
 10
-75.0674167976
 20
37.3840350402
 10
-75.018708192
 20
37.1904036675
 10
-74.9705697137
 20
36.9912597636
 10
-74.9230314014
 20
36.7863864157
 10
-74.8758835855
 20
36.5751215844
 10
-74.8290900001
 20
36.3574722127
 10
-74.7826869111
 20
36.1334389925
 10
-74.7365734459
 20
35.9023514997
 10
-74.6907087617
 20
35.6641673503
 10
-74.6451337012
 20
35.4189392617
 10
-74.599869921
 20
35.1661406592
 10
-74.5548957621
 20
34.9058076411
 10
-74.5102328834
 20
34.6379177302
 10
-74.4659679179
 20
34.3618579823
 10
-74.4220837331
 20
34.0777360552
 10
-74.3785974615
 20
33.7854622414
 10
-74.3356471345
 20
33.4841297466
 10
-74.2931963933
 20
33.1738026109
 10
-74.2512815967
 20
32.8544409489
 10
-74.2101498522
 20
32.5249852984
 10
-74.169748681
 20
32.1854980802
 10
-74.1301305618
 20
31.8359495048
 10
-74.0917000382
 20
31.4751462505
 10
-74.0543811615
 20
31.1031767836
 10
-74.0182498804
 20
30.7199968049
 10
-73.983938585
 20
30.3242200284
 10
-73.9513266098
 20
29.9159210598
 10
-73.9205346204
 20
29.4950854459
 10
-73.8925570036
 20
29.0602018126
 10
-73.8671986255
 20
28.6113583292
 10
-73.84465462
 20
28.1485487246
 10
-73.8265047758
 20
27.6701314568
 10
-73.8132756892
 20
27.1755982714
 10
-73.8044407639
 20
26.6655700637
 10
-73.8
 20
26.1401092737
  0
LINE
  5
296
100
AcDbEntity
  8
0
100
AcDbLine
 62
7
  6
CONTINUOUS
 10
88.153391
 20
-33.81738
 11
88.696199
 21
-33.81738
  0
LINE
  5
297
100
AcDbEntity
  8
0
100
AcDbLine
 62
7
  6
CONTINUOUS
 10
90.537283
 20
-33.817373
 11
91.026058
 21
-33.81738
  0
LINE
  5
298
100
AcDbEntity
  8
0
100
AcDbLine
 62
7
  6
CONTINUOUS
 10
90.529499
 20
-33.299352
 11
91.210842
 21
-33.299352
  0
LINE
  5
299
100
AcDbEntity
  8
0
100
AcDbLine
 62
7
  6
CONTINUOUS
 10
90.529492
 20
-32.617958
 11
91.210842
 21
-32.617958
  0
LINE
  5
29A
100
AcDbEntity
  8
0
100
AcDbLine
 62
7
  6
CONTINUOUS
 10
80.281954
 20
-32.099944
 11
80.841982
 21
-32.099944
  0
LINE
  5
29B
100
AcDbEntity
  8
0
100
AcDbLine
 62
7
  6
CONTINUOUS
 10
82.080023
 20
-32.099944
 11
82.640051
 21
-32.099944
  0
LINE
  5
29C
100
AcDbEntity
  8
0
100
AcDbLine
 62
7
  6
CONTINUOUS
 10
83.013396
 20
-32.099944
 11
83.573417
 21
-32.099944
  0
LINE
  5
29D
100
AcDbEntity
  8
0
100
AcDbLine
 62
7
  6
CONTINUOUS
 10
84.133417
 20
-32.099944
 11
84.980018
 21
-32.099944
  0
LINE
  5
29E
100
AcDbEntity
  8
0
100
AcDbLine
 62
7
  6
CONTINUOUS
 10
86.025804
 20
-32.099944
 11
86.872405
 21
-32.099944
  0
LINE
  5
29F
100
AcDbEntity
  8
0
100
AcDbLine
 62
7
  6
CONTINUOUS
 10
88.144767
 20
-32.099937
 11
88.704816
 21
-32.099937
  0
LINE
  5
2A0
100
AcDbEntity
  8
0
100
AcDbLine
 62
7
  6
CONTINUOUS
 10
89.977192
 20
-32.099937
 11
91.288572
 21
-32.099937
  0
LINE
  5
2A1
100
AcDbEntity
  8
RACCORDO
100
AcDbLine
 62
250
  6
CONTINUOUS
 10
-73.8
 20
-23.4574993804
 11
73.8
 21
-23.4574993804
  0
LINE
  5
2A2
100
AcDbEntity
  8
RACCORDO
100
AcDbLine
 62
7
  6
CONTINUOUS
 10
-74.8
 20
-22.5
 11
74.8
 21
-22.5
  0
LINE
  5
2A3
100
AcDbEntity
  8
RACCORDO
100
AcDbLine
 62
250
  6
CONTINUOUS
 10
75.9166383553
 20
39.4635311044
 11
76.1999999981
 21
39.6057773315
  0
LINE
  5
2A4
100
AcDbEntity
  8
RACCORDO
100
AcDbLine
 62
250
  6
CONTINUOUS
 10
76.1999999989
 20
-39.6057773315
 11
75.9166383553
 21
-39.4635311044
  0
LINE
  5
2A5
100
AcDbEntity
  8
RACCORDO
100
AcDbLine
 62
250
  6
CONTINUOUS
 10
-75.9166383553
 20
-39.4635311044
 11
-76.1999999989
 21
-39.6057773315
  0
LINE
  5
2A6
100
AcDbEntity
  8
RACCORDO
100
AcDbLine
 62
250
  6
CONTINUOUS
 10
-76.1999999981
 20
39.6057773315
 11
-75.9166383553
 21
39.4635311044
  0
LINE
  5
2A7
100
AcDbEntity
  8
RACCORDO
100
AcDbLine
 62
7
  6
CONTINUOUS
 10
-74.8
 20
22.4999999998
 11
74.8
 21
22.4999999998
  0
LINE
  5
2A8
100
AcDbEntity
  8
RACCORDO
100
AcDbLine
 62
250
  6
CONTINUOUS
 10
-73.8
 20
23.4574993802
 11
73.8
 21
23.4574993802
  0
LWPOLYLINE
  5
2A9
100
AcDbEntity
  8
RACCORDO
100
AcDbPolyline
 62
250
  6
CONTINUOUS
 90
49
 70
0
 10
75.9166383553
 20
39.4635311044
 10
75.8333682911
 20
39.3584945752
 10
75.7549608348
 20
39.2463441592
 10
75.6814159862
 20
39.1270807248
 10
75.6133970134
 20
39.0004346649
 10
75.5502406483
 20
38.8666777059
 10
75.4899570872
 20
38.726622799
 10
75.432491944
 20
38.5804409395
 10
75.3778996047
 20
38.4279637968
 10
75.3243534239
 20
38.2694953784
 10
75.2712940463
 20
38.1050535321
 10
75.2192808271
 20
37.9346238799
 10
75.1681651863
 20
37.7584622204
 10
75.1179985835
 20
37.5766621691
 10
75.068729559
 20
37.3891344846
 10
75.0200551531
 20
37.1958609039
 10
74.9719443794
 20
36.9970618296
 10
74.9244282243
 20
36.7925224161
 10
74.8772966869
 20
36.5815721076
 10
74.8305132881
 20
36.3642157623
 10
74.784114507
 20
36.1404561486
 10
74.7379997808
 20
35.9096205698
 10
74.6921282715
 20
35.6716673115
 10
74.646540817
 20
35.4266484167
 10
74.6012593682
 20
35.1740330257
 10
74.5562623155
 20
34.9138573125
 10
74.5115712684
 20
34.64609873
 10
74.4672730069
 20
34.3701398371
 10
74.4233499442
 20
34.0860853205
 10
74.3798196669
 20
33.7938484683
 10
74.336821715
 20
33.4925269406
 10
74.2943203299
 20
33.1821894819
 10
74.2523512701
 20
32.8627915297
 10
74.2111613516
 20
32.5332640134
 10
74.1706983558
 20
32.1936761395
 10
74.1310145013
 20
31.8439914002
 10
74.0925132602
 20
31.4829866626
 10
74.0551172174
 20
31.1107435347
 10
74.018903788
 20
30.7272247843
 10
73.9845086888
 20
30.3310352736
 10
73.9518102656
 20
29.922244935
 10
73.9209301726
 20
29.5008443261
 10
73.8928690888
 20
29.0653277845
 10
73.8674310602
 20
28.6157828259
 10
73.8448120408
 20
28.1522042867
 10
73.8266005709
 20
27.672958996
 10
73.8133261643
 20
27.1775416805
 10
73.8044593073
 20
26.6665708448
 10
73.8
 20
26.1401092737
  0
LWPOLYLINE
  5
2AA
100
AcDbEntity
  8
RACCORDO
100
AcDbPolyline
 62
250
  6
CONTINUOUS
 90
52
 70
0
 10
75.9166383553
 20
-39.4635311044
 10
75.8393666427
 20
-39.3660841281
 10
75.7662828053
 20
-39.2627377609
 10
75.697386843
 20
-39.1534926667
 10
75.6330831061
 20
-39.0382288124
 10
75.5729672444
 20
-38.9170678163
 10
75.5158262074
 20
-38.7903729074
 10
75.461973966
 20
-38.658208665
 10
75.4110965493
 20
-38.5205125609
 10
75.3610389939
 20
-38.3774572452
 10
75.311091393
 20
-38.2291072765
 10
75.2619636534
 20
-38.0754007524
 10
75.2136305322
 20
-37.9163207873
 10
75.1661750867
 20
-37.7517953019
 10
75.1195142596
 20
-37.5818998489
 10
75.0733736363
 20
-37.4068391612
 10
75.0277098437
 20
-37.2268138779
 10
74.9825662548
 20
-37.0416276056
 10
74.9377985742
 20
-36.8508898454
 10
74.8934021676
 20
-36.6546700826
 10
74.8493816692
 20
-36.4529044541
 10
74.8056066866
 20
-36.2450031019
 10
74.7620412502
 20
-36.0309492515
 10
74.7187213296
 20
-35.8107672367
 10
74.6756244399
 20
-35.5839297591
 10
74.6327259932
 20
-35.3504197057
 10
74.5900505775
 20
-35.1102641771
 10
74.5476494729
 20
-34.8630032594
 10
74.5055106878
 20
-34.6087085767
 10
74.4636462137
 20
-34.3473214677
 10
74.4221433051
 20
-34.0781880174
 10
74.380982808
 20
-33.8013866678
 10
74.3401838764
 20
-33.5168560457
 10
74.2998912269
 20
-33.2237346261
 10
74.2600713798
 20
-32.9220754088
 10
74.2207578148
 20
-32.6118481711
 10
74.1821956865
 20
-32.2920695371
 10
74.1443365949
 20
-31.9627866849
 10
74.10722894
 20
-31.6239829276
 10
74.071263077
 20
-31.2745831224
 10
74.0363713341
 20
-30.9146726008
 10
74.0026213831
 20
-30.5442068247
 10
73.9706065938
 20
-30.1619213711
 10
73.9402188497
 20
-29.7678751088
 10
73.9115662674
 20
-29.3620641774
 10
73.8855665665
 20
-28.9431375595
 10
73.8620484056
 20
-28.5111723249
 10
73.841183126
 20
-28.0661654266
 10
73.8244024713
 20
-27.6066556509
 10
73.8121836894
 20
-27.1321906441
 10
73.8040495322
 20
-26.6433233374
 10
73.8
 20
-26.1401092738
  0
LINE
  5
2AB
100
AcDbEntity
  8
RACCORDO
100
AcDbLine
 62
250
  6
CONTINUOUS
 10
96.3016445583
 20
41.0
 11
95.9926179677
 21
40.6909734094
  0
LINE
  5
2AC
100
AcDbEntity
  8
RACCORDO
100
AcDbLine
 62
250
  6
CONTINUOUS
 10
97.5
 20
39.8016445583
 11
97.1909730294
 21
39.4926175877
  0
LWPOLYLINE
  5
2AD
100
AcDbEntity
  8
RACCORDO
100
AcDbPolyline
 62
250
  6
CONTINUOUS
 90
3
 70
0
 10
-96.3901465909
 20
39.5973950205
 10
-96.2604823165
 20
39.6016283378
 10
-96.1942485349
 20
39.6031572452
  0
LINE
  5
2AE
100
AcDbEntity
  8
RACCORDO
100
AcDbLine
 62
250
  6
CONTINUOUS
 10
-96.1942485349
 20
39.6031572452
 11
-95.9926179677
 21
39.6057773315
  0
LINE
  5
2AF
100
AcDbEntity
  8
RACCORDO
100
AcDbLine
 62
250
  6
CONTINUOUS
 10
-75.9166383553
 20
39.4635311044
 11
75.9166383553
 21
39.4635311044
  0
LINE
  5
2B0
100
AcDbEntity
  8
RACCORDO
100
AcDbLine
 62
250
  6
CONTINUOUS
 10
-95.9926179677
 20
39.6057773315
 11
-76.2
 21
39.6057773315
  0
LINE
  5
2B1
100
AcDbEntity
  8
RACCORDO
100
AcDbLine
 62
250
  6
CONTINUOUS
 10
76.2
 20
39.6057773315
 11
95.9926179677
 21
39.6057773315
  0
LINE
  5
2B2
100
AcDbEntity
  8
RACCORDO
100
AcDbLine
 62
250
  6
CONTINUOUS
 10
-95.9926179677
 20
40.6909734094
 11
95.9926179677
 21
40.6909734094
  0
LINE
  5
2B3
100
AcDbEntity
  8
RACCORDO
100
AcDbLine
 62
7
  6
CONTINUOUS
 10
-96.3016445583
 20
41.0
 11
96.3016445583
 21
41.0
  0
LINE
  5
2B4
100
AcDbEntity
  8
RACCORDO
100
AcDbLine
 62
250
  6
CONTINUOUS
 10
95.9926179677
 20
-40.6909734094
 11
96.3016445583
 21
-41.0
  0
LINE
  5
2B5
100
AcDbEntity
  8
RACCORDO
100
AcDbLine
 62
250
  6
CONTINUOUS
 10
97.190973035
 20
-39.4926175933
 11
97.5
 21
-39.8016445583
  0
LWPOLYLINE
  5
2B6
100
AcDbEntity
  8
RACCORDO
100
AcDbPolyline
 62
250
  6
CONTINUOUS
 90
3
 70
0
 10
-96.7427785488
 20
39.5771946879
 10
-96.6328592591
 20
39.585175675
 10
-96.5747424902
 20
39.5886591872
  0
LWPOLYLINE
  5
2B7
100
AcDbEntity
  8
RACCORDO
100
AcDbPolyline
 62
250
  6
CONTINUOUS
 90
3
 70
0
 10
-96.5747424902
 20
39.5886591872
 10
-96.4532195731
 20
39.594850525
 10
-96.3901465909
 20
39.5973950205
  0
LWPOLYLINE
  5
2B8
100
AcDbEntity
  8
0
100
AcDbPolyline
 62
7
  6
CONTINUOUS
 90
8
 70
0
 43
0.3500000006
 10
0.9642857051
 20
49.7500012665
 10
1.8214286013
 20
49.7500012665
 10
2.2499999785
 20
50.1785702362
 10
2.2499999785
 20
51.0357127075
 10
1.8214286013
 20
51.4642862091
 10
0.9642857051
 20
51.4642862091
 10
0.9642857051
 20
52.750002182
 10
2.2499999785
 20
52.750002182
  0
LWPOLYLINE
  5
2B9
100
AcDbEntity
  8
RACCORDO
100
AcDbPolyline
 62
250
  6
CONTINUOUS
 90
3
 70
0
 10
76.0583191776
 20
39.3228767647
 10
76.1762424442
 20
39.5584221014
 10
76.2
 20
39.6057773296
  0
LINE
  5
2BA
100
AcDbEntity
  8
RACCORDO
100
AcDbLine
 62
250
  6
CONTINUOUS
 10
76.2
 20
-39.6057773304
 11
76.1762611181
 21
-39.5584587575
  0
LINE
  5
2BB
100
AcDbEntity
  8
RACCORDO
100
AcDbLine
 62
250
  6
CONTINUOUS
 10
76.1762611181
 20
-39.5584587575
 11
76.0583191776
 21
-39.3228767647
  0
LWPOLYLINE
  5
2BC
100
AcDbEntity
  8
RACCORDO
100
AcDbPolyline
 62
250
  6
CONTINUOUS
 90
17
 70
0
 10
76.0583191776
 20
-39.3228767647
 10
76.0195538727
 20
-39.2288958338
 10
75.983064055
 20
-39.1277371717
 10
75.9488521393
 20
-39.0194197421
 10
75.9172656451
 20
-38.903306029
 10
75.8879308242
 20
-38.7800691856
 10
75.8597772026
 20
-38.6516850414
 10
75.8326658466
 20
-38.5189326586
 10
75.8067277809
 20
-38.3810467386
 10
75.781328363
 20
-38.2376750585
 10
75.7563352463
 20
-38.0886676985
 10
75.7318916598
 20
-37.9341796375
 10
75.7077949917
 20
-37.7743109848
 10
75.6840217958
 20
-37.6090373985
 10
75.6606119693
 20
-37.4383862835
 10
75.6374663706
 20
-37.2625336675
 10
75.6146038065
 20
-37.0816646264
  0
LWPOLYLINE
  5
2BD
100
AcDbEntity
  8
RACCORDO
100
AcDbPolyline
 62
250
  6
CONTINUOUS
 90
24
 70
0
 10
74.3659577497
 20
-22.7993105361
 10
74.3226109755
 20
-22.8319522896
 10
74.2805171112
 20
-22.8643746551
 10
74.2404817762
 20
-22.8956663123
 10
74.201699351
 20
-22.926252828
 10
74.1643765628
 20
-22.9564671435
 10
74.1285575655
 20
-22.9861997708
 10
74.0941982051
 20
-23.0153105514
 10
74.0613727471
 20
-23.0441775084
 10
74.0300475121
 20
-23.0727697145
 10
74.0002561794
 20
-23.1009769703
 10
73.9721740523
 20
-23.1291147746
 10
73.9457381224
 20
-23.1572032588
 10
73.9210113981
 20
-23.1851394432
 10
73.8983582076
 20
-23.213083253
 10
73.8777684727
 20
-23.241085937
 10
73.8592522716
 20
-23.2690386511
 10
73.8432041673
 20
-23.2968692239
 10
73.8297384476
 20
-23.3246153577
 10
73.8187408247
 20
-23.3521861801
 10
73.8102629985
 20
-23.3793119544
 10
73.8043222023
 20
-23.4058824001
 10
73.8009012028
 20
-23.4319527332
 10
73.8
 20
-23.4574993804
  0
LWPOLYLINE
  5
2BE
100
AcDbEntity
  8
RACCORDO
100
AcDbPolyline
 62
250
  6
CONTINUOUS
 90
3
 70
0
 10
74.4867958611
 20
-22.7100424875
 10
74.4480501925
 20
-22.7382976559
 10
74.3659577497
 20
-22.7993105361
  0
LWPOLYLINE
  5
2BF
100
AcDbEntity
  8
RACCORDO
100
AcDbPolyline
 62
250
  6
CONTINUOUS
 90
19
 70
0
 10
74.8
 20
-22.5
 10
74.7994639297
 20
-22.5003362131
 10
74.797418582
 20
-22.5013975473
 10
74.7938639571
 20
-22.5032649395
 10
74.7888671793
 20
-22.5060235929
 10
74.7823611242
 20
-22.5097581355
 10
74.7741444184
 20
-22.5145472547
 10
74.7642164879
 20
-22.5204737549
 10
74.7525779067
 20
-22.5276239829
 10
74.7390290232
 20
-22.536076055
 10
74.7235724775
 20
-22.5459122613
 10
74.7062056297
 20
-22.5572170529
 10
74.6867209084
 20
-22.5700669621
 10
74.6651197749
 20
-22.5845396888
 10
74.6414007679
 20
-22.600716143
 10
74.6153519329
 20
-22.6186738368
 10
74.5869683506
 20
-22.6384804244
 10
74.5562549402
 20
-22.6602133113
 10
74.4867958611
 20
-22.7100424875
  0
LWPOLYLINE
  5
2C0
100
AcDbEntity
  8
RACCORDO
100
AcDbPolyline
 62
250
  6
CONTINUOUS
 90
18
 70
0
 10
74.5433941404
 20
22.6693667219
 10
74.5756138446
 20
22.6464729113
 10
74.6054021351
 20
22.6255973394
 10
74.6327339069
 20
22.6066701466
 10
74.6576342651
 20
22.5896108069
 10
74.6803314709
 20
22.5743298622
 10
74.7008332989
 20
22.5607426682
 10
74.7191319745
 20
22.5487751187
 10
74.7354324347
 20
22.5383512865
 10
74.749736907
 20
22.5293846606
 10
74.7620431639
 20
22.5217912025
 10
74.772549461
 20
22.5154920505
 10
74.7812546463
 20
22.5103976521
 10
74.7881598717
 20
22.5064216701
 10
74.7934668486
 20
22.503482505
 10
74.7972428142
 20
22.5014914949
 10
74.7994205313
 20
22.5003590163
 10
74.8
 20
22.4999999998
  0
LWPOLYLINE
  5
2C1
100
AcDbEntity
  8
RACCORDO
100
AcDbPolyline
 62
250
  6
CONTINUOUS
 90
3
 70
0
 10
74.4294615923
 20
22.751893435
 10
74.4703180143
 20
22.7219866056
 10
74.5433941404
 20
22.6693667219
  0
LINE
  5
2C2
100
AcDbEntity
  8
RACCORDO
100
AcDbLine
 62
250
  6
CONTINUOUS
 10
75.5473902727
 20
-36.5068022019
 11
75.5034363565
 21
-36.0951867796
  0
LINE
  5
2C3
100
AcDbEntity
  8
RACCORDO
100
AcDbLine
 62
250
  6
CONTINUOUS
 10
75.4925476597
 20
35.9886895981
 11
75.5391666132
 21
36.431905614
  0
LWPOLYLINE
  5
2C4
100
AcDbEntity
  8
RACCORDO
100
AcDbPolyline
 62
250
  6
CONTINUOUS
 90
18
 70
0
 10
75.5391666132
 20
36.431905614
 10
75.5865234864
 20
36.8493705684
 10
75.6106039311
 20
37.0491086638
 10
75.634994243
 20
37.2432808504
 10
75.6596751454
 20
37.4316757527
 10
75.6847900877
 20
37.6143259193
 10
75.7103153075
 20
37.7913496765
 10
75.7362561797
 20
37.9626247002
 10
75.7628108161
 20
38.1278205296
 10
75.7898365936
 20
38.2868044086
 10
75.8174628187
 20
38.4397030646
 10
75.8463159775
 20
38.5865700114
 10
75.8761933328
 20
38.7280717673
 10
75.9073030503
 20
38.8635269534
 10
75.9409262984
 20
38.9909535616
 10
75.9775119423
 20
39.1096733476
 10
76.0166440615
 20
39.2203219835
 10
76.0583191776
 20
39.3228767647
  0
LINE
  5
2C5
100
AcDbEntity
  8
RACCORDO
100
AcDbLine
 62
7
  6
CONTINUOUS
 10
74.9414213543
 20
-22.4414213582
 11
74.9412087411
 21
-22.4416336522
  0
LWPOLYLINE
  5
2C6
100
AcDbEntity
  8
RACCORDO
100
AcDbPolyline
 62
7
  6
CONTINUOUS
 90
10
 70
0
 10
74.9410590282
 20
22.4417827794
 10
74.9520069912
 20
22.4299072075
 10
74.9613681107
 20
22.4176613048
 10
74.9698079483
 20
22.404166376
 10
74.9777208929
 20
22.3884321317
 10
74.9849764861
 20
22.3699658071
 10
74.9911290054
 20
22.3490052909
 10
74.9958574978
 20
22.3257246959
 10
74.9989173445
 20
22.2999878742
 10
74.9989184926
 20
22.2999581826
  0
LINE
  5
2C7
100
AcDbEntity
  8
0
100
AcDbLine
 62
7
  6
CONTINUOUS
 10
91.026058
 20
-33.81738
 11
91.587269
 21
-34.900063
  0
LINE
  5
2C8
100
AcDbEntity
  8
0
100
AcDbLine
 62
7
  6
CONTINUOUS
 10
91.6219317907
 20
-33.7500306669
 11
92.218046
 21
-34.900056
  0
LINE
  5
2C9
100
AcDbEntity
  8
0
100
AcDbLine
 62
7
  6
CONTINUOUS
 10
80.281954
 20
-32.099944
 11
81.180978
 21
-34.900077
  0
LINE
  5
2CA
100
AcDbEntity
  8
0
100
AcDbLine
 62
7
  6
CONTINUOUS
 10
80.841982
 20
-32.099944
 11
81.461006
 21
-34.027982
  0
LWPOLYLINE
  5
2CB
100
AcDbEntity
  8
RACCORDO
100
AcDbPolyline
 62
250
  6
CONTINUOUS
 90
3
 70
0
 10
75.6146038065
 20
-37.0816646264
 10
75.5696174755
 20
-36.7039516338
 10
75.5473902727
 20
-36.5068022019
  0
LINE
  5
2CC
100
AcDbEntity
  8
RACCORDO
100
AcDbLine
 62
250
  6
CONTINUOUS
 10
75.5034363565
 20
-36.0951867796
 11
75.4599592166
 21
-35.6588620647
  0
LINE
  5
2CD
100
AcDbEntity
  8
RACCORDO
100
AcDbLine
 62
250
  6
CONTINUOUS
 10
75.4599592166
 20
-35.6588620647
 11
75.416895901
 21
-35.1962798233
  0
LINE
  5
2CE
100
AcDbEntity
  8
RACCORDO
100
AcDbLine
 62
250
  6
CONTINUOUS
 10
75.416895901
 20
-35.1962798233
 11
75.3743158875
 21
-34.7064639443
  0
LINE
  5
2CF
100
AcDbEntity
  8
RACCORDO
100
AcDbLine
 62
250
  6
CONTINUOUS
 10
75.3743158875
 20
-34.7064639443
 11
75.3322886696
 21
-34.1882062997
  0
LINE
  5
2D0
100
AcDbEntity
  8
RACCORDO
100
AcDbLine
 62
250
  6
CONTINUOUS
 10
75.3322886696
 20
-34.1882062997
 11
75.2908795969
 21
-33.6395138364
  0
LINE
  5
2D1
100
AcDbEntity
  8
RACCORDO
100
AcDbLine
 62
250
  6
CONTINUOUS
 10
75.2908795969
 20
-33.6395138364
 11
75.2502947398
 21
-33.0588937078
  0
LINE
  5
2D2
100
AcDbEntity
  8
RACCORDO
100
AcDbLine
 62
250
  6
CONTINUOUS
 10
75.2502947398
 20
-33.0588937078
 11
75.2107198238
 21
-32.4438074824
  0
LINE
  5
2D3
100
AcDbEntity
  8
RACCORDO
100
AcDbLine
 62
250
  6
CONTINUOUS
 10
75.2107198238
 20
-32.4438074824
 11
75.1724078058
 21
-31.791297307
  0
LINE
  5
2D4
100
AcDbEntity
  8
RACCORDO
100
AcDbLine
 62
250
  6
CONTINUOUS
 10
75.1724078058
 20
-31.791297307
 11
75.1358375631
 21
-31.0993449306
  0
LINE
  5
2D5
100
AcDbEntity
  8
RACCORDO
100
AcDbLine
 62
250
  6
CONTINUOUS
 10
75.1358375631
 20
-31.0993449306
 11
75.1015452737
 21
-30.3648821258
  0
LINE
  5
2D6
100
AcDbEntity
  8
RACCORDO
100
AcDbLine
 62
250
  6
CONTINUOUS
 10
75.1015452737
 20
-30.3648821258
 11
75.0702017227
 21
-29.5840983382
  0
LWPOLYLINE
  5
2D7
100
AcDbEntity
  8
RACCORDO
100
AcDbPolyline
 62
250
  6
CONTINUOUS
 90
25
 70
0
 10
73.8
 20
23.4574993802
 10
73.8008898644
 20
23.4321973817
 10
73.8042440116
 20
23.4063894334
 10
73.8100624417
 20
23.3800982699
 10
73.8183602946
 20
23.3532721273
 10
73.8291224304
 20
23.3260157156
 10
73.8423034291
 20
23.2985845937
 10
73.8580142962
 20
23.2710626643
 10
73.8761440262
 20
23.2434174885
 10
73.8963141832
 20
23.2157255731
 10
73.9185219576
 20
23.1880878848
 10
73.9427701591
 20
23.1604587829
 10
73.9686887807
 20
23.1327015677
 10
73.9962352227
 20
23.1048993332
 10
74.0254520848
 20
23.0770468644
 10
74.0560971594
 20
23.0488986038
 10
74.0881565859
 20
23.0205337478
 10
74.1216442248
 20
22.9919981894
 10
74.1563594499
 20
22.9630375927
 10
74.1922913143
 20
22.9337930519
 10
74.2294507649
 20
22.9043238012
 10
74.2676700157
 20
22.874321859
 10
74.3072752004
 20
22.84373788
 10
74.3479401853
 20
22.8129799696
 10
74.4294615923
 20
22.751893435
  0
LWPOLYLINE
  5
2D8
100
AcDbEntity
  8
RACCORDO
100
AcDbPolyline
 62
250
  6
CONTINUOUS
 90
8
 70
0
 10
75.0702017227
 20
-29.5840983382
 10
75.0428561346
 20
-28.7544577766
 10
75.0310526552
 20
-28.3198598717
 10
75.0207877464
 20
-27.8720666134
 10
75.0122242775
 20
-27.4096497452
 10
75.0056643211
 20
-26.9321441467
 10
75.0014746786
 20
-26.4400468512
 10
75.0
 20
-25.9333767861
  0
LINE
  5
2D9
100
AcDbEntity
  8
RACCORDO
100
AcDbLine
 62
250
  6
CONTINUOUS
 10
73.8
 20
-26.1401092738
 11
73.8
 21
-23.4574993804
  0
LINE
  5
2DA
100
AcDbEntity
  8
RACCORDO
100
AcDbLine
 62
250
  6
CONTINUOUS
 10
73.8
 20
23.4574993802
 11
73.8
 21
26.1401092737
  0
LINE
  5
2DB
100
AcDbEntity
  8
RACCORDO
100
AcDbLine
 62
7
  6
CONTINUOUS
 10
75.0
 20
-25.9333767379
 11
75.0
 21
25.9333767381
  0
LINE
  5
2DC
100
AcDbEntity
  8
RACCORDO
100
AcDbLine
 62
250
  6
CONTINUOUS
 10
76.2
 20
-39.6057773315
 11
76.2
 21
39.6057773315
  0
LWPOLYLINE
  5
2DD
100
AcDbEntity
  8
RACCORDO
100
AcDbPolyline
 62
250
  6
CONTINUOUS
 90
7
 70
0
 10
75.0
 20
25.933376786
 10
75.001610843
 20
26.4633337442
 10
75.0061798084
 20
26.9775596078
 10
75.0133195105
 20
27.4760330098
 10
75.0226168858
 20
27.9581987713
 10
75.0337340701
 20
28.4245763061
 10
75.0464943425
 20
28.8767606959
  0
LINE
  5
2DE
100
AcDbEntity
  8
RACCORDO
100
AcDbLine
 62
250
  6
CONTINUOUS
 10
75.0464943425
 20
28.8767606959
 11
75.0759758303
 21
29.7385879608
  0
LWPOLYLINE
  5
2DF
100
AcDbEntity
  8
RACCORDO
100
AcDbPolyline
 62
7
  6
CONTINUOUS
 90
4
 70
0
 10
75.0
 20
-22.2719874315
 10
74.9989161297
 20
-22.3000032724
 10
74.9958526071
 20
-22.3257550746
 10
74.9911179854
 20
-22.3490497644
  0
LINE
  5
2E0
100
AcDbEntity
  8
RACCORDO
100
AcDbLine
 62
250
  6
CONTINUOUS
 10
75.0759758303
 20
29.7385879608
 11
75.1096645408
 21
30.5480188136
  0
LINE
  5
2E1
100
AcDbEntity
  8
RACCORDO
100
AcDbLine
 62
250
  6
CONTINUOUS
 10
75.1096645408
 20
30.5480188136
 11
75.1464237671
 21
31.3078648663
  0
LINE
  5
2E2
100
AcDbEntity
  8
RACCORDO
100
AcDbLine
 62
250
  6
CONTINUOUS
 10
75.1464237671
 20
31.3078648663
 11
75.1855403693
 21
32.0222996167
  0
LINE
  5
2E3
100
AcDbEntity
  8
RACCORDO
100
AcDbLine
 62
250
  6
CONTINUOUS
 10
75.1855403693
 20
32.0222996167
 11
75.2264619175
 21
32.6948610409
  0
LINE
  5
2E4
100
AcDbEntity
  8
RACCORDO
100
AcDbLine
 62
250
  6
CONTINUOUS
 10
75.2264619175
 20
32.6948610409
 11
75.2686929244
 21
33.3277969432
  0
LINE
  5
2E5
100
AcDbEntity
  8
RACCORDO
100
AcDbLine
 62
250
  6
CONTINUOUS
 10
75.2686929244
 20
33.3277969432
 11
75.3119869957
 21
33.9243262101
  0
LINE
  5
2E6
100
AcDbEntity
  8
RACCORDO
100
AcDbLine
 62
250
  6
CONTINUOUS
 10
75.3119869957
 20
33.9243262101
 11
75.3561671006
 21
34.4871015319
  0
LINE
  5
2E7
100
AcDbEntity
  8
RACCORDO
100
AcDbLine
 62
250
  6
CONTINUOUS
 10
75.3561671006
 20
34.4871015319
 11
75.4010266101
 21
35.0176177449
  0
LINE
  5
2E8
100
AcDbEntity
  8
RACCORDO
100
AcDbLine
 62
250
  6
CONTINUOUS
 10
75.4010266101
 20
35.0176177449
 11
75.4464943101
 21
35.5176582388
  0
LINE
  5
2E9
100
AcDbEntity
  8
RACCORDO
100
AcDbLine
 62
250
  6
CONTINUOUS
 10
75.4464943101
 20
35.5176582388
 11
75.4925476597
 21
35.9886895981
  0
LWPOLYLINE
  5
2EA
100
AcDbEntity
  8
RACCORDO
100
AcDbPolyline
 62
250
  6
CONTINUOUS
 90
28
 70
0
 10
75.0
 20
-23.2149987608
 10
74.9979702874
 20
-23.2291650845
 10
74.9918877591
 20
-23.2432599757
 10
74.9817726088
 20
-23.2572359474
 10
74.9676585195
 20
-23.2710364881
 10
74.9495929492
 20
-23.2846242425
 10
74.927637358
 20
-23.2979811204
 10
74.9018662687
 20
-23.311071493
 10
74.8723666736
 20
-23.323841285
 10
74.8392384269
 20
-23.3362461154
 10
74.8025936359
 20
-23.3482439577
 10
74.7625562802
 20
-23.3597941824
 10
74.7192618552
 20
-23.3708565891
 10
74.6728568681
 20
-23.3813937292
 10
74.6234983347
 20
-23.3913699431
 10
74.5713532712
 20
-23.4007503907
 10
74.516598123
 20
-23.4095033378
 10
74.4594181696
 20
-23.4175991774
 10
74.4000068965
 20
-23.4250094461
 10
74.3385653375
 20
-23.4317090857
 10
74.2753013968
 20
-23.4376754428
 10
74.2104291467
 20
-23.4428872623
 10
74.1441681007
 20
-23.4473269223
 10
74.0767424703
 20
-23.45097941
 10
74.0083804096
 20
-23.4538312899
 10
73.9393132404
 20
-23.4558725502
 10
73.8697746697
 20
-23.4570966339
 10
73.8
 20
-23.4574993804
  0
LWPOLYLINE
  5
2EB
100
AcDbEntity
  8
RACCORDO
100
AcDbPolyline
 62
7
  6
CONTINUOUS
 90
7
 70
0
 10
74.9911179854
 20
-22.3490497644
 10
74.9849512654
 20
-22.3700394054
 10
74.9776774436
 20
-22.3885290946
 10
74.9697645326
 20
-22.4042433596
 10
74.9613561166
 20
-22.4176786491
 10
74.9520563305
 20
-22.4298484975
 10
74.9412102752
 20
-22.4416321351
  0
LINE
  5
2EC
100
AcDbEntity
  8
0
100
AcDbLine
 62
7
  6
CONTINUOUS
 10
88.424788
 20
-32.972032
 11
88.696199
 21
-33.81738
  0
LINE
  5
2ED
100
AcDbEntity
  8
0
100
AcDbLine
 62
7
  6
CONTINUOUS
 10
88.867027
 20
-34.349401
 11
89.043819
 21
-34.900063
  0
LINE
  5
2EE
100
AcDbEntity
  8
0
100
AcDbLine
 62
7
  6
CONTINUOUS
 10
88.704816
 20
-32.099937
 11
89.603847
 21
-34.90007
  0
LINE
  5
2EF
100
AcDbEntity
  8
0
100
AcDbLine
 62
7
  6
CONTINUOUS
 10
84.693438
 20
-33.053575
 11
85.222904
 21
-34.90007
  0
LINE
  5
2F0
100
AcDbEntity
  8
0
100
AcDbLine
 62
7
  6
CONTINUOUS
 10
84.980018
 20
-32.099944
 11
85.502911
 21
-33.923486
  0
LWPOLYLINE
  5
2F1
100
AcDbEntity
  8
RACCORDO
100
AcDbPolyline
 62
250
  6
CONTINUOUS
 90
28
 70
0
 10
75.0
 20
23.2149987606
 10
74.9979706565
 20
23.2292699917
 10
74.9918890543
 20
23.2434514333
 10
74.9817751132
 20
23.2574956473
 10
74.9676621494
 20
23.2713437866
 10
74.9495973992
 20
23.2849609116
 10
74.9276424792
 20
23.298336092
 10
74.9018719733
 20
23.3114342064
 10
74.8723727385
 20
23.3242007145
 10
74.839244757
 20
23.3365969231
 10
74.8026002161
 20
23.348581399
 10
74.7625630427
 20
23.3601129397
 10
74.7192687116
 20
23.3711552664
 10
74.6728637209
 20
23.3816715488
 10
74.6235050975
 20
23.3916255079
 10
74.5713598616
 20
23.400984357
 10
74.5166044632
 20
23.4097169324
 10
74.4594241846
 20
23.4177930479
 10
74.4000125128
 20
23.4251845651
 10
74.3385704833
 20
23.4318669089
 10
74.2753060083
 20
23.4378169338
 10
74.2104331738
 20
23.4430122484
 10
74.1441714973
 20
23.4474355895
 10
74.0767451997
 20
23.4510715799
 10
74.0083824566
 20
23.4539045675
 10
73.9393146026
 20
23.4559238008
 10
73.8697753471
 20
23.4571234593
 10
73.8
 20
23.4574993802
  0
LINE
  5
2F2
100
AcDbEntity
  8
0
100
AcDbLine
 62
7
  6
CONTINUOUS
 10
83.013396
 20
-32.099944
 11
83.013389
 21
-34.900077
  0
LINE
  5
2F3
100
AcDbEntity
  8
0
100
AcDbLine
 62
7
  6
CONTINUOUS
 10
83.573417
 20
-32.099944
 11
83.57341
 21
-34.90007
  0
LINE
  5
2F4
100
AcDbEntity
  8
0
100
AcDbLine
 62
7
  6
CONTINUOUS
 10
84.133417
 20
-32.099944
 11
84.133417
 21
-34.90007
  0
LINE
  5
2F5
100
AcDbEntity
  8
0
100
AcDbLine
 62
7
  6
CONTINUOUS
 10
84.693438
 20
-33.053575
 11
84.693438
 21
-34.90007
  0
LWPOLYLINE
  5
2F6
100
AcDbEntity
  8
RACCORDO
100
AcDbPolyline
 62
250
  6
CONTINUOUS
 90
25
 70
0
 10
75.0
 20
-25.9333767861
 10
74.9974307077
 20
-25.9468977381
 10
74.9897338331
 20
-25.9603607912
 10
74.9769423353
 20
-25.9737082947
 10
74.9591109896
 20
-25.9868830924
 10
74.9363161526
 20
-25.9998287678
 10
74.9086554352
 20
-26.0124898856
 10
74.8762472851
 20
-26.0248122289
 10
74.8392304789
 20
-26.0367430316
 10
74.7977635282
 20
-26.0482312041
 10
74.7520240011
 20
-26.0592275524
 10
74.7022077611
 20
-26.0696849883
 10
74.6485281291
 20
-26.0795587315
 10
74.5912149695
 20
-26.0888065012
 10
74.5305137061
 20
-26.0973886969
 10
74.4666842711
 20
-26.1052685685
 10
74.3999999918
 20
-26.112412373
 10
74.3307464206
 20
-26.1187895197
 10
74.2592201119
 20
-26.1243727007
 10
74.1857273523
 20
-26.1291380078
 10
74.1105828491
 20
-26.1330650353
 10
74.0341083826
 20
-26.1361369671
 10
73.956631428
 20
-26.1383406487
 10
73.8784837537
 20
-26.1396666436
 10
73.8
 20
-26.1401092737
  0
LINE
  5
2F7
100
AcDbEntity
  8
DRAFT
100
AcDbLine
 62
7
  6
CONTINUOUS
 10
97.5
 20
3.6749773271
 11
97.3951844414
 21
3.5
  0
LINE
  5
2F8
100
AcDbEntity
  8
RACCORDO
100
AcDbLine
 62
250
  6
CONTINUOUS
 10
76.0583009392
 20
-39.3228911788
 11
75.9166431014
 21
-39.4635459088
  0
LINE
  5
2F9
100
AcDbEntity
  8
RACCORDO
100
AcDbLine
 62
250
  6
CONTINUOUS
 10
76.058319169
 20
39.3228767715
 11
75.9166383553
 21
39.4635311027
  0
LINE
  5
2FA
100
AcDbEntity
  8
DRAFT
100
AcDbLine
 62
7
  6
CONTINUOUS
 10
97.3951844414
 20
-3.5
 11
97.5
 21
-3.6749773271
  0
LWPOLYLINE
  5
2FB
100
AcDbEntity
  8
RACCORDO
100
AcDbPolyline
 62
250
  6
CONTINUOUS
 90
25
 70
0
 10
75.0
 20
25.933376786
 10
74.9974306772
 20
25.9468978232
 10
74.9897337137
 20
25.960360957
 10
74.9769420732
 20
25.9737085358
 10
74.9591105344
 20
25.9868834034
 10
74.93631546
 20
25.9998291418
 10
74.9086544726
 20
26.0124903123
 10
74.8762460287
 20
26.0248126976
 10
74.8392289133
 20
26.0367435316
 10
74.7977616539
 20
26.0482317228
 10
74.7520218296
 20
26.0592280774
 10
74.7022053134
 20
26.0696855082
 10
74.648525442
 20
26.0795592346
 10
74.5912120908
 20
26.0888069767
 10
74.5305106913
 20
26.0973891359
 10
74.4666811878
 20
26.105268963
 10
74.399996916
 20
26.1124127171
 10
74.3307434322
 20
26.1187898095
 10
74.2592172963
 20
26.1243729346
 10
74.1857247982
 20
26.1291381865
 10
74.1105806447
 20
26.133065162
 10
74.0341066125
 20
26.1361370476
 10
73.9566301733
 20
26.1383406911
 10
73.8784830912
 20
26.1396666584
 10
73.8
 20
26.1401092737
  0
LINE
  5
2FC
100
AcDbEntity
  8
0
100
AcDbLine
 62
7
  6
CONTINUOUS
 10
86.312377
 20
-33.053575
 11
86.312384
 21
-34.90007
  0
LINE
  5
2FD
100
AcDbEntity
  8
0
100
AcDbLine
 62
7
  6
CONTINUOUS
 10
86.872405
 20
-32.099944
 11
86.872405
 21
-34.90007
  0
LINE
  5
2FE
100
AcDbEntity
  8
0
100
AcDbLine
 62
7
  6
CONTINUOUS
 10
89.977192
 20
-32.099937
 11
89.977192
 21
-34.900063
  0
LINE
  5
2FF
100
AcDbEntity
  8
0
100
AcDbLine
 62
7
  6
CONTINUOUS
 10
90.529492
 20
-32.617958
 11
90.529499
 21
-33.299352
  0
LINE
  5
300
100
AcDbEntity
  8
0
100
AcDbLine
 62
7
  6
CONTINUOUS
 10
90.537283
 20
-33.817373
 11
90.53722
 21
-34.900063
  0
LINE
  5
301
100
AcDbEntity
  8
0
100
AcDbLine
 62
7
  6
CONTINUOUS
 10
86.025804
 20
-32.099944
 11
85.502911
 21
-33.923486
  0
LINE
  5
302
100
AcDbEntity
  8
0
100
AcDbLine
 62
7
  6
CONTINUOUS
 10
86.312377
 20
-33.053575
 11
85.782911
 21
-34.900063
  0
LINE
  5
303
100
AcDbEntity
  8
0
100
AcDbLine
 62
7
  6
CONTINUOUS
 10
82.080023
 20
-32.099944
 11
81.461006
 21
-34.027982
  0
LINE
  5
304
100
AcDbEntity
  8
0
100
AcDbLine
 62
7
  6
CONTINUOUS
 10
82.640051
 20
-32.099944
 11
81.74102
 21
-34.90007
  0
LWPOLYLINE
  5
305
100
AcDbEntity
  8
RACCORDO
100
AcDbPolyline
 62
250
  6
CONTINUOUS
 90
28
 70
0
 10
97.1909734094
 20
39.4926179677
 10
97.1887752916
 20
39.5619650121
 10
97.1825616769
 20
39.6311343765
 10
97.172343894
 20
39.6998930379
 10
97.1581425501
 20
39.7680263318
 10
97.1399982858
 20
39.8352844968
 10
97.1179820326
 20
39.9013862225
 10
97.0921759313
 20
39.9660903444
 10
97.0626613439
 20
40.0291975151
 10
97.0295358542
 20
40.0904983026
 10
96.9929091678
 20
40.1497877983
 10
96.9529054562
 20
40.2068632876
 10
96.909661658
 20
40.2615288123
 10
96.8633247062
 20
40.3135988487
 10
96.8140500566
 20
40.36289891
 10
96.7620035454
 20
40.4092630163
 10
96.7073604492
 20
40.4525348695
 10
96.6503053273
 20
40.4925681669
 10
96.5910310387
 20
40.5292275274
 10
96.5297377234
 20
40.5623891768
 10
96.4666320526
 20
40.5919413052
 10
96.4019269243
 20
40.6177842012
 10
96.3358406206
 20
40.6398306659
 10
96.2685961576
 20
40.6580062831
 10
96.200420512
 20
40.672249697
 10
96.1315437487
 20
40.6825128465
 10
96.0621982398
 20
40.6887611108
 10
95.9926179677
 20
40.6909734094
  0
LINE
  5
306
100
AcDbEntity
  8
RACCORDO
100
AcDbLine
 62
250
  6
CONTINUOUS
 10
95.9926179677
 20
-40.6909734094
 11
95.9926179677
 21
-39.6057773315
  0
LINE
  5
307
100
AcDbEntity
  8
RACCORDO
100
AcDbLine
 62
250
  6
CONTINUOUS
 10
95.9926179677
 20
39.6057773315
 11
95.9926179677
 21
40.6909734094
  0
LINE
  5
308
100
AcDbEntity
  8
DRAFT
100
AcDbLine
 62
7
  6
CONTINUOUS
 10
97.3951844414
 20
3.5
 11
97.3951844414
 21
-3.5
  0
LINE
  5
309
100
AcDbEntity
  8
RACCORDO
100
AcDbLine
 62
7
  6
CONTINUOUS
 10
97.5
 20
-39.8016445583
 11
97.5
 21
-3.6749773271
  0
LINE
  5
30A
100
AcDbEntity
  8
RACCORDO
100
AcDbLine
 62
7
  6
CONTINUOUS
 10
97.5
 20
3.6749773271
 11
97.5
 21
39.8016445583
  0
LWPOLYLINE
  5
30B
100
AcDbEntity
  8
RACCORDO
100
AcDbPolyline
 62
250
  6
CONTINUOUS
 90
22
 70
0
 10
95.9926179677
 20
39.6057773315
 10
95.9748921434
 20
35.8454337996
 10
95.9589352965
 20
32.0817008604
 10
95.9447474268
 20
28.3148816698
 10
95.9323269315
 20
24.5452127703
 10
95.9216754135
 20
20.7730651872
 10
95.9127976815
 20
16.9989447302
 10
95.9056945393
 20
13.223158835
 10
95.900365183
 20
9.4460103521
 10
95.8968120094
 20
5.6679990278
 10
95.895035817
 20
1.8894300628
 10
95.8950358072
 20
-1.8893901623
 10
95.8968119818
 20
-5.667959862
 10
95.900365139
 20
-9.445972655
 10
95.9056944805
 20
-13.2231233403
 10
95.9127976126
 20
-16.998912171
 10
95.9216753392
 20
-20.7730363084
 10
95.9323268564
 20
-24.5451883019
 10
95.9447473584
 20
-28.3148623009
 10
95.9589352433
 20
-32.0816872649
 10
95.9748921131
 20
-35.8454266614
 10
95.9926179677
 20
-39.6057773315
  0
LWPOLYLINE
  5
30C
100
AcDbEntity
  8
RACCORDO
100
AcDbPolyline
 62
250
  6
CONTINUOUS
 90
22
 70
0
 10
97.1909730294
 20
39.4926175877
 10
97.1732480598
 20
35.7426970903
 10
97.157291783
 20
31.989943802
 10
97.143104199
 20
28.2343577228
 10
97.1306835943
 20
24.4755488106
 10
97.1200316825
 20
20.7139071076
 10
97.1111536038
 20
16.9506027402
 10
97.1040502731
 20
13.1856566107
 10
97.0987207756
 20
9.4190478169
 10
97.095167507
 20
5.6518837789
 10
97.0933912655
 20
1.8841637071
 10
97.0933912528
 20
-1.8841116088
 10
97.0951674706
 20
-5.6518323802
 10
97.0987207165
 20
-9.4189976646
 10
97.1040501927
 20
-13.1856084045
 10
97.1111535081
 20
-16.9505576383
 10
97.1200315771
 20
-20.7138663754
 10
97.1306834852
 20
-24.4755136065
 10
97.1431040984
 20
-28.2343293428
 10
97.1572917055
 20
-31.9899235878
 10
97.1732480177
 20
-35.742686338
 10
97.190973035
 20
-39.4926175933
  0
LWPOLYLINE
  5
30D
100
AcDbEntity
  8
RACCORDO
100
AcDbPolyline
 62
250
  6
CONTINUOUS
 90
28
 70
0
 10
97.1909734094
 20
-39.4926179677
 10
97.1887625236
 20
-39.5621750371
 10
97.1825183622
 20
-39.6314975672
 10
97.1722619797
 20
-39.7003518097
 10
97.1580279597
 20
-39.7685055952
 10
97.1398642977
 20
-39.8357291162
 10
97.1178322397
 20
-39.9017957018
 10
97.0920060757
 20
-39.9664825825
 10
97.0624728886
 20
-40.0295716407
 10
97.0293322615
 20
-40.0908501466
 10
96.992695941
 20
-40.1501114756
 10
96.952687461
 20
-40.2071558044
 10
96.909441726
 20
-40.2617907856
 10
96.8631045562
 20
-40.3138321956
 10
96.8138321956
 20
-40.3631045562
 10
96.7617907856
 20
-40.409441726
 10
96.7071558044
 20
-40.452687461
 10
96.6501114756
 20
-40.492695941
 10
96.5908501466
 20
-40.5293322615
 10
96.5295716407
 20
-40.5624728886
 10
96.4664825825
 20
-40.5920060757
 10
96.4017957018
 20
-40.6178322397
 10
96.3357291162
 20
-40.6398642977
 10
96.2685055952
 20
-40.6580279597
 10
96.2003518097
 20
-40.6722619797
 10
96.1314975672
 20
-40.6825183622
 10
96.0621750371
 20
-40.6887625236
 10
95.9926179677
 20
-40.6909734094
  0
LINE
  5
30E
100
AcDbEntity
  8
0
100
AcDbLine
 62
7
  6
CONTINUOUS
 10
88.144767
 20
-32.099937
 11
87.24575
 21
-34.90007
  0
LINE
  5
30F
100
AcDbEntity
  8
0
100
AcDbLine
 62
7
  6
CONTINUOUS
 10
88.424788
 20
-32.972032
 11
88.153391
 21
-33.81738
  0
LINE
  5
310
100
AcDbEntity
  8
0
100
AcDbLine
 62
7
  6
CONTINUOUS
 10
87.98257
 20
-34.349401
 11
87.805771
 21
-34.900063
  0
LWPOLYLINE
  5
311
100
AcDbEntity
  8
RACCORDO
100
AcDbPolyline
 62
250
  6
CONTINUOUS
 90
16
 70
0
 10
97.1909734094
 20
-39.4926179677
 10
97.1855493771
 20
-39.4992109673
 10
97.1764085915
 20
-39.5054704912
 10
97.1635944211
 20
-39.5115560141
 10
97.1470575673
 20
-39.5177866787
 10
97.1267844617
 20
-39.5240818919
 10
97.1029342386
 20
-39.5300535378
 10
97.0756158976
 20
-39.5359426656
 10
97.0448173453
 20
-39.5418933376
 10
97.0106794319
 20
-39.5474603887
 10
96.9733599543
 20
-39.552864382
 10
96.9329316787
 20
-39.5583118888
 10
96.8894933714
 20
-39.5633332188
 10
96.843229692
 20
-39.5681122044
 10
96.7942947117
 20
-39.5728798793
 10
96.7427785489
 20
-39.5771946915
  0
LWPOLYLINE
  5
312
100
AcDbEntity
  8
RACCORDO
100
AcDbPolyline
 62
250
  6
CONTINUOUS
 90
28
 70
0
 10
97.1909734094
 20
39.4926179677
 10
97.1855633847
 20
39.4989809524
 10
97.1763801995
 20
39.5053239761
 10
97.1634529002
 20
39.5116271299
 10
97.1468223756
 20
39.5178707191
 10
97.1265412265
 20
39.5240350317
 10
97.102673599
 20
39.5301003673
 10
97.075294984
 20
39.5360475658
 10
97.0444919778
 20
39.5418579352
 10
97.0103620066
 20
39.5475129834
 10
96.9730130199
 20
39.5529948287
 10
96.9325631488
 20
39.5582861989
 10
96.889140332
 20
39.5633703123
 10
96.8428819112
 20
39.5682310798
 10
96.7939341971
 20
39.5728531577
 10
96.742452006
 20
39.5772219269
 10
96.6885981708
 20
39.5813235389
 10
96.6325430254
 20
39.5851450294
 10
96.5744638667
 20
39.5886743572
 10
96.5145443925
 20
39.5919002929
 10
96.4529741219
 20
39.5948126287
 10
96.3899477957
 20
39.5974022676
 10
96.3256647591
 20
39.5996609007
 10
96.2603283325
 20
39.60158136
 10
96.1941451689
 20
39.6031577746
 10
96.1273245988
 20
39.604385123
 10
96.0600779673
 20
39.6052592814
 10
95.9926179677
 20
39.6057773315
  0
LWPOLYLINE
  5
313
100
AcDbEntity
  8
RACCORDO
100
AcDbPolyline
 62
250
  6
CONTINUOUS
 90
6
 70
0
 10
-114.8388873363
 20
-39.5995951483
 10
-114.8556788423
 20
-39.6016283396
 10
-114.8688110266
 20
-39.6031572467
 10
-114.8782339514
 20
-39.6041703282
 10
-114.8838717706
 20
-39.6049908784
 10
-114.8857004669
 20
-39.6057773315
  0
LWPOLYLINE
  5
314
100
AcDbEntity
  8
RACCORDO
100
AcDbPolyline
 62
250
  6
CONTINUOUS
 90
3
 70
0
 10
-114.7669212246
 20
-39.5918175191
 10
-114.7944039066
 20
-39.5948505278
 10
-114.8388873363
 20
-39.5995951483
  0
LINE
  5
315
100
AcDbEntity
  8
RACCORDO
100
AcDbLine
 62
250
  6
CONTINUOUS
 10
-114.5341138355
 20
-39.5681122044
 11
-114.7669212246
 21
-39.5918175191
  0
LINE
  5
316
100
AcDbEntity
  8
RACCORDO
100
AcDbLine
 62
250
  6
CONTINUOUS
 10
-114.3798986882
 20
-39.552864382
 11
-114.5341138355
 21
-39.5681122044
  0
LINE
  5
317
100
AcDbEntity
  8
RACCORDO
100
AcDbLine
 62
250
  6
CONTINUOUS
 10
-113.9526878275
 20
-39.5115560141
 11
-114.3798986882
 21
-39.552864382
  0
LWPOLYLINE
  5
318
100
AcDbEntity
  8
RACCORDO
100
AcDbPolyline
 62
250
  6
CONTINUOUS
 90
3
 70
0
 10
-113.7538509627
 20
-39.4926179677
 10
-113.8871971759
 20
-39.5054704912
 10
-113.9526878275
 20
-39.5115560141
  0
LINE
  5
319
100
AcDbEntity
  8
RACCORDO
100
AcDbLine
 62
7
  6
CONTINUOUS
 10
-113.7538509627
 20
-40.6909734094
 11
-107.8572723471
 21
-41.0
  0
LINE
  5
31A
100
AcDbEntity
  8
RACCORDO
100
AcDbLine
 62
250
  6
CONTINUOUS
 10
-113.7538581057
 20
-39.4926175933
 11
-107.8572723471
 21
-39.8016445583
  0
LWPOLYLINE
  5
31B
100
AcDbEntity
  8
0
100
AcDbPolyline
 62
7
  6
CONTINUOUS
 90
10
 70
0
 43
0.3500000006
 10
-111.0215602112
 20
49.7500012665
 10
-110.164413208
 20
50.6071437378
 10
-109.9501287231
 20
51.4642862091
 10
-109.9501287231
 20
52.3214286804
 10
-110.3786976929
 20
52.750002182
 10
-111.0215602112
 20
52.750002182
 10
-111.4501291809
 20
52.3214286804
 10
-111.4501291809
 20
51.4642862091
 10
-111.0215602112
 20
51.0357127075
 10
-110.0929910889
 20
51.0357127075
  0
LINE
  5
31C
100
AcDbEntity
  8
0
100
AcDbLine
 62
7
  6
CONTINUOUS
 10
-115.3047440766
 20
-34.900056
 11
-115.4552644502
 21
-34.900056
  0
LINE
  5
31D
100
AcDbEntity
  8
0
100
AcDbLine
 62
7
  6
CONTINUOUS
 10
-115.3990469349
 20
-33.7500306669
 11
-115.5495334145
 21
-33.7500306669
  0
LINE
  5
31E
100
AcDbEntity
  8
0
100
AcDbLine
 62
7
  6
CONTINUOUS
 10
-115.5288019961
 20
-32.099937
 11
-115.6792420563
 21
-32.099937
  0
LWPOLYLINE
  5
31F
100
AcDbEntity
  8
0
100
AcDbPolyline
 62
7
  6
CONTINUOUS
 90
3
 70
0
 43
0.3500000006
 10
-112.4501294861
 20
50.0357124023
 10
-112.5215606689
 20
49.8214279175
 10
-112.6644139709
 20
49.5357122498
  0
LWPOLYLINE
  5
320
100
AcDbEntity
  8
0
100
AcDbPolyline
 62
7
  6
CONTINUOUS
 90
7
 70
0
 43
0.3500000006
 10
-125.5072711487
 20
1.5000001373
 10
-125.5072711487
 20
-0.0000003204
 10
-127.650125061
 20
1.5000001373
 10
-128.0787030945
 20
1.5000001373
 10
-128.5072720642
 20
1.0714289017
 10
-128.5072720642
 20
0.4285709152
 10
-127.8644186096
 20
-0.0000003204
  0
LWPOLYLINE
  5
321
100
AcDbEntity
  8
0
100
AcDbPolyline
 62
7
  6
CONTINUOUS
 90
13
 70
0
 43
0.3500000006
 10
-127.2215560913
 20
-1.9285708809
 10
-127.4358405762
 20
-2.2142854156
 10
-128.0787030945
 20
-2.2142854156
 10
-128.5072720642
 20
-1.9285708809
 10
-128.5072720642
 20
-1.2857140274
 10
-128.0787030945
 20
-1.0000006256
 10
-127.4358405762
 20
-1.0000006256
 10
-127.2215560913
 20
-1.2857140274
 10
-126.7929871216
 20
-0.8571427917
 10
-125.9358401184
 20
-0.8571427917
 10
-125.5072711487
 20
-1.2857140274
 10
-125.5072711487
 20
-1.9285708809
 10
-125.9358401184
 20
-2.3571432495
  0
LINE
  5
322
100
AcDbEntity
  8
RACCORDO
100
AcDbLine
 62
7
  6
CONTINUOUS
 10
-114.8857004669
 20
39.6057773315
 11
-114.8844573969
 21
39.6182108431
  0
LWPOLYLINE
  5
323
100
AcDbEntity
  8
0
100
AcDbPolyline
 62
7
  6
CONTINUOUS
 90
4
 70
0
 43
0.3500000006
 10
-115.5215615845
 20
50.1785702362
 10
-115.5215615845
 20
51.0357127075
 10
-115.092983551
 20
51.4642862091
 10
-114.4501300964
 20
51.4642862091
  0
LWPOLYLINE
  5
324
100
AcDbEntity
  8
RACCORDO
100
AcDbPolyline
 62
250
  6
CONTINUOUS
 90
22
 70
0
 10
-113.7538582125
 20
39.4926175877
 10
-114.092070781
 20
35.7426970903
 10
-114.3965346801
 20
31.989943802
 10
-114.6672499099
 20
28.2343577228
 10
-114.9042491649
 20
24.4755488106
 10
-115.1074997505
 20
20.7139071076
 10
-115.2769035833
 20
16.9506027402
 10
-115.412443207
 20
13.1856566107
 10
-115.5141360778
 20
9.4190478169
 10
-115.5819364815
 20
5.6518837789
 10
-115.6158291894
 20
1.8841637071
 10
-115.6158294301
 20
-1.8841116088
 10
-115.5819371753
 20
-5.6518323802
 10
-115.5141372064
 20
-9.4189976646
 10
-115.4124447418
 20
-13.1856084045
 10
-115.276905409
 20
-16.9505576383
 10
-115.1075017624
 20
-20.7138663754
 10
-114.9042512474
 20
-24.4755136065
 10
-114.6672518279
 20
-28.2343293428
 10
-114.3965361584
 20
-31.9899235878
 10
-114.0920715843
 20
-35.742686338
 10
-113.7538581057
 20
-39.4926175933
  0
LINE
  5
325
100
AcDbEntity
  8
DRAFT
100
AcDbLine
 62
7
  6
CONTINUOUS
 10
-109.8572723471
 20
-3.5
 11
-107.8572723471
 21
-3.6749773271
  0
LINE
  5
326
100
AcDbEntity
  8
RACCORDO
100
AcDbLine
 62
250
  6
CONTINUOUS
 10
-113.7606694598
 20
39.6311343765
 11
-113.766563911
 21
39.7680263318
  0
LINE
  5
327
100
AcDbEntity
  8
RACCORDO
100
AcDbLine
 62
250
  6
CONTINUOUS
 10
-113.766563911
 20
39.7680263318
 11
-113.7714482832
 21
39.9013862225
  0
LINE
  5
328
100
AcDbEntity
  8
RACCORDO
100
AcDbLine
 62
250
  6
CONTINUOUS
 10
-113.7714482832
 20
39.9013862225
 11
-113.7752473547
 21
40.0291975151
  0
LWPOLYLINE
  5
329
100
AcDbEntity
  8
RACCORDO
100
AcDbPolyline
 62
250
  6
CONTINUOUS
 90
19
 70
0
 10
-113.7752473547
 20
40.0291975151
 10
-113.777911667
 20
40.1497877983
 10
-113.778806361
 20
40.2068632876
 10
-113.7794049483
 20
40.2615288123
 10
-113.7797054066
 20
40.3135988487
 10
-113.7797067383
 20
40.36289891
 10
-113.7794089361
 20
40.4092630163
 10
-113.7788129945
 20
40.4525348695
 10
-113.7779209185
 20
40.4925681669
 10
-113.7767357203
 20
40.5292275274
 10
-113.7752614022
 20
40.5623891768
 10
-113.7735029355
 20
40.5919413052
 10
-113.7714662522
 20
40.6177842012
 10
-113.7691582221
 20
40.6398306659
 10
-113.7665866328
 20
40.6580062831
 10
-113.7637601644
 20
40.672249697
 10
-113.760688355
 20
40.6825128465
 10
-113.7573815686
 20
40.6887611108
 10
-113.7538509627
 20
40.6909734094
  0
LWPOLYLINE
  5
32A
100
AcDbEntity
  8
RACCORDO
100
AcDbPolyline
 62
250
  6
CONTINUOUS
 90
17
 70
0
 10
-113.7788102665
 20
-40.2071558044
 10
-113.7794071516
 20
-40.2617907856
 10
-113.7797060982
 20
-40.3138321956
 10
-113.7797060982
 20
-40.3631045562
 10
-113.7794071516
 20
-40.409441726
 10
-113.7788102665
 20
-40.452687461
 10
-113.7779174555
 20
-40.492695941
 10
-113.7767317291
 20
-40.5293322615
 10
-113.7752570853
 20
-40.5624728886
 10
-113.7734984966
 20
-40.5920060757
 10
-113.7714618928
 20
-40.6178322397
 10
-113.769154141
 20
-40.6398642977
 10
-113.7665830227
 20
-40.6580279597
 10
-113.7637572075
 20
-40.6722619797
 10
-113.7606862238
 20
-40.6825183622
 10
-113.7573804266
 20
-40.6887625236
 10
-113.7538509627
 20
-40.6909734094
  0
LINE
  5
32B
100
AcDbEntity
  8
RACCORDO
100
AcDbLine
 62
250
  6
CONTINUOUS
 10
-113.7767317291
 20
-40.0908501466
 11
-113.7788102665
 21
-40.2071558044
  0
LINE
  5
32C
100
AcDbEntity
  8
RACCORDO
100
AcDbLine
 62
250
  6
CONTINUOUS
 10
-113.7734984966
 20
-39.9664825825
 11
-113.7767317291
 21
-40.0908501466
  0
LINE
  5
32D
100
AcDbEntity
  8
RACCORDO
100
AcDbLine
 62
250
  6
CONTINUOUS
 10
-113.769154141
 20
-39.8357291162
 11
-113.7734984966
 21
-39.9664825825
  0
LWPOLYLINE
  5
32E
100
AcDbEntity
  8
RACCORDO
100
AcDbPolyline
 62
250
  6
CONTINUOUS
 90
3
 70
0
 10
-113.7606862238
 20
-39.6314975672
 10
-113.7637572075
 20
-39.7003518097
 10
-113.769154141
 20
-39.8357291162
  0
LWPOLYLINE
  5
32F
100
AcDbEntity
  8
0
100
AcDbPolyline
 62
7
  6
CONTINUOUS
 90
4
 70
0
 43
0.3500000006
 10
-125.9358401184
 20
-2.3571432495
 10
-126.7929871216
 20
-2.3571432495
 10
-127.2215560913
 20
-1.9285708809
 10
-127.2215560913
 20
-1.2857140274
  0
LINE
  5
330
100
AcDbEntity
  8
RACCORDO
100
AcDbLine
 62
250
  6
CONTINUOUS
 10
-113.7538509627
 20
39.4926179677
 11
-113.7606694598
 21
39.6311343765
  0
LINE
  5
331
100
AcDbEntity
  8
DRAFT
100
AcDbLine
 62
7
  6
CONTINUOUS
 10
-109.8572723471
 20
3.5
 11
-109.8572723471
 21
-3.5
  0
LINE
  5
332
100
AcDbEntity
  8
RACCORDO
100
AcDbLine
 62
250
  6
CONTINUOUS
 10
-113.7538509627
 20
-39.4926179677
 11
-113.7606862238
 21
-39.6314975672
  0
LINE
  5
333
100
AcDbEntity
  8
RACCORDO
100
AcDbLine
 62
7
  6
CONTINUOUS
 10
-107.8572723471
 20
-3.6749773271
 11
-107.8572723471
 21
-41.0
  0
LINE
  5
334
100
AcDbEntity
  8
RACCORDO
100
AcDbLine
 62
7
  6
CONTINUOUS
 10
-107.8572723471
 20
3.6749773271
 11
-107.8572723471
 21
41.0
  0
LINE
  5
335
100
AcDbEntity
  8
DRAFT
100
AcDbLine
 62
7
  6
CONTINUOUS
 10
-107.8572723471
 20
3.6749773271
 11
-109.8572723471
 21
3.5
  0
LWPOLYLINE
  5
336
100
AcDbEntity
  8
0
100
AcDbPolyline
 62
7
  6
CONTINUOUS
 90
10
 70
0
 43
0.3500000006
 10
-112.5215606689
 20
50.2500014191
 10
-112.4501294861
 20
50.1071435852
 10
-112.4501294861
 20
50.0357124023
 10
-112.5929827881
 20
49.8928591003
 10
-112.6644139709
 20
49.8928591003
 10
-112.7358451538
 20
49.9642857513
 10
-112.7358451538
 20
50.0357124023
 10
-112.6644139709
 20
50.1785702362
 10
-112.5929827881
 20
50.2500014191
 10
-112.5215606689
 20
50.2500014191
  0
LINE
  5
337
100
AcDbEntity
  8
RACCORDO
100
AcDbLine
 62
250
  6
CONTINUOUS
 10
-107.8572723471
 20
39.8016445583
 11
-113.7538582125
 21
39.4926175877
  0
LINE
  5
338
100
AcDbEntity
  8
RACCORDO
100
AcDbLine
 62
7
  6
CONTINUOUS
 10
-107.8572723471
 20
41.0
 11
-113.7538509627
 21
40.6909734094
  0
LINE
  5
339
100
AcDbEntity
  8
RACCORDO
100
AcDbLine
 62
250
  6
CONTINUOUS
 10
-113.7538509627
 20
39.4926179677
 11
-114.5344539354
 21
39.5682310798
  0
LINE
  5
33A
100
AcDbEntity
  8
RACCORDO
100
AcDbLine
 62
250
  6
CONTINUOUS
 10
-114.5344539354
 20
39.5682310798
 11
-114.7361451886
 21
39.5886743572
  0
LINE
  5
33B
100
AcDbEntity
  8
RACCORDO
100
AcDbLine
 62
250
  6
CONTINUOUS
 10
-114.7361451886
 20
39.5886743572
 11
-114.8185003677
 21
39.5974022676
  0
LWPOLYLINE
  5
33C
100
AcDbEntity
  8
RACCORDO
100
AcDbPolyline
 62
250
  6
CONTINUOUS
 90
6
 70
0
 10
-114.8185003677
 20
39.5974022676
 10
-114.8557186441
 20
39.60158136
 10
-114.8688286684
 20
39.6031577746
 10
-114.8782134424
 20
39.604385123
 10
-114.883843306
 20
39.6052592814
 10
-114.8857004669
 20
39.6057773315
  0
LWPOLYLINE
  5
33D
100
AcDbEntity
  8
0
100
AcDbPolyline
 62
7
  6
CONTINUOUS
 90
13
 70
0
 43
0.3500000006
 10
-115.092983551
 20
51.4642862091
 10
-115.3786992188
 20
51.678570694
 10
-115.3786992188
 20
52.3214286804
 10
-115.092983551
 20
52.750002182
 10
-114.4501300964
 20
52.750002182
 10
-114.1644144287
 20
52.3214286804
 10
-114.1644144287
 20
51.678570694
 10
-114.4501300964
 20
51.4642862091
 10
-114.0215611267
 20
51.0357127075
 10
-114.0215611267
 20
50.1785702362
 10
-114.4501300964
 20
49.7500012665
 10
-115.092983551
 20
49.7500012665
 10
-115.5215615845
 20
50.1785702362
  0
ARC
  5
33E
100
AcDbEntity
  8
0
100
AcDbCircle
 62
7
  6
CONTINUOUS
 10
91.288572
 20
-32.958656
 40
0.8587214994
100
AcDbArc
 50
292.8428415932
 51
90.0
  0
ARC
  5
33F
100
AcDbEntity
  8
0
100
AcDbCircle
 62
7
  6
CONTINUOUS
 10
91.210842
 20
-32.958656
 40
0.340698
100
AcDbArc
 50
270.0
 51
90.0
  0
ARC
  5
340
100
AcDbEntity
  8
RACCORDO
100
AcDbCircle
 62
7
  6
CONTINUOUS
 10
-74.8
 20
22.2999999998
 40
0.2
100
AcDbArc
 50
90.0
 51
134.8958786195
  0
ARC
  5
341
100
AcDbEntity
  8
RACCORDO
100
AcDbCircle
 62
7
  6
CONTINUOUS
 10
74.8
 20
22.2999999998
 40
0.2
100
AcDbArc
 50
45.1472288322
 51
90.0
  0
ARC
  5
342
100
AcDbEntity
  8
RACCORDO
100
AcDbCircle
 62
7
  6
CONTINUOUS
 10
74.8
 20
-22.3
 40
0.2
100
AcDbArc
 50
270.0
 51
314.9139252391
  0
ARC
  5
343
100
AcDbEntity
  8
RACCORDO
100
AcDbCircle
 62
7
  6
CONTINUOUS
 10
-74.8
 20
-22.3
 40
0.2
100
AcDbArc
 50
225.1191250266
 51
270.0
  0
ARC
  5
344
100
AcDbEntity
  8
0
100
AcDbCircle
 62
7
  6
CONTINUOUS
 10
303.2427276529
 20
0.0
 40
420.15
100
AcDbArc
 50
184.3817321275
 51
184.76480453
  0
ARC
  5
345
100
AcDbEntity
  8
RACCORDO
100
AcDbCircle
 62
7
  6
CONTINUOUS
 10
303.2427276529
 20
0.0
 40
420.0
100
AcDbArc
 50
174.5889986143
 51
185.4110013857
  0
ARC
  5
346
100
AcDbEntity
  8
RACCORDO
100
AcDbCircle
 62
7
  6
CONTINUOUS
 10
-113.6910478152
 20
39.4926179677
 40
1.2
100
AcDbArc
 50
93.0
 51
173.9923799071
  0
ARC
  5
347
100
AcDbEntity
  8
RACCORDO
100
AcDbCircle
 62
7
  6
CONTINUOUS
 10
-113.6910478152
 20
-39.4926179677
 40
1.2
100
AcDbArc
 50
185.4110013857
 51
267.0
  0
ELLIPSE
  5
348
100
AcDbEntity
  8
RACCORDO
100
AcDbEllipse
 62
7
  6
CONTINUOUS
 10
-96.2983531848
 20
-39.7983531848
 30
0.0
 11
0.8508554921
 21
0.8508554921
 31
0.0
 40
0.9972646886
 41
2.3575640181
 42
3.9256212891
  0
ELLIPSE
  5
349
100
AcDbEntity
  8
RACCORDO
100
AcDbEllipse
 62
7
  6
CONTINUOUS
 10
-96.2983531848
 20
39.7983531848
 30
0.0
 11
0.8508554921
 21
-0.8508554921
 31
0.0
 40
0.9972646886
 41
2.3575640181
 42
3.9256212891
  0
ELLIPSE
  5
34A
100
AcDbEntity
  8
RACCORDO
100
AcDbEllipse
 62
7
  6
CONTINUOUS
 10
96.2983531848
 20
-39.7983531848
 30
0.0
 11
0.8508554921
 21
-0.8508554921
 31
0.0
 40
0.9972646886
 41
-0.7840286355
 42
0.7840286355
  0
ELLIPSE
  5
34B
100
AcDbEntity
  8
RACCORDO
100
AcDbEllipse
 62
7
  6
CONTINUOUS
 10
96.2983531848
 20
39.7983531848
 30
0.0
 11
0.8508554921
 21
0.8508554921
 31
0.0
 40
0.9972646886
 41
-0.7840286355
 42
0.7840286355
  0
ENDSEC
  0
SECTION
  2
OBJECTS
  0
DICTIONARY
  5
C
100
AcDbDictionary
280
0
281
1
  3
ACAD_GROUP
350
D
  3
ACAD_MLINESTYLE
350
17
  3
ACAD_LAYOUT
350
1A
  3
ACAD_PLOTSETTINGS
350
19
  3
ACAD_PLOTSTYLENAME
350
E
  0
DICTIONARY
  5
D
102
{ACAD_REACTORS
330
C
102
}
100
AcDbDictionary
280
0
281
1
  0
ACDBDICTIONARYWDFLT
  5
E
102
{ACAD_REACTORS
330
C
102
}
100
AcDbDictionary
281
1
  3
Normal
350
F
100
AcDbDictionaryWithDefault
340
F
  0
DICTIONARY
  5
17
102
{ACAD_REACTORS
330
C
102
}
100
AcDbDictionary
280
0
281
1
  3
Standard
350
18
  0
DICTIONARY
  5
19
102
{ACAD_REACTORS
330
C
102
}
100
AcDbDictionary
281
1
  0
DICTIONARY
  5
1A
102
{ACAD_REACTORS
330
C
102
}
100
AcDbDictionary
281
1
  3
Model
350
34C
  3
Layout1
350
34D
  0
ACDBPLACEHOLDER
  5
F
102
{ACAD_REACTORS
330
E
102
}
  0
MLINESTYLE
  5
18
102
{ACAD_REACTORS
330
17
102
}
100
AcDbMlineStyle
  2
STANDARD
 70
0
  3

 62
256
 51
90.0
 52
90.0
 71
2
 49
0.5
 62
256
  6
BYLAYER
 49
-0.5
 62
256
  6
BYLAYER
  0
LAYOUT
  5
34C
102
{ACAD_REACTORS
330
1A
102
}
100
AcDbPlotSettings
  1

  2
none_device
  4
ISO_A4_(297.00_x_210.00_MM)
  6

 40
0.0
 41
0.0
 42
0.0
 43
0.0
 44
297.0
 45
210.0
 46
0.0
 47
0.0
 48
0.0
 49
0.0
140
0.0
141
0.0
142
1.0
143
1.0
 70
1024
 72
1
 73
0
 74
0
  7

 75
0
147
1.0
148
0.0
149
0.0
100
AcDbLayout
  1
Model
 70
0
 71
0
 10
0.0
 20
0.0
 11
297.0
 21
210.0
 12
0.0
 22
0.0
 32
0.0
 14
0.0
 24
0.0
 34
0.0
 15
0.0
 25
0.0
 35
0.0
146
0.0
 13
0.0
 23
0.0
 33
0.0
 16
1.0
 26
0.0
 36
0.0
 17
0.0
 27
1.0
 37
0.0
 76
0
330
212
345
0
346
0
  0
LAYOUT
  5
34D
102
{ACAD_REACTORS
330
1A
102
}
100
AcDbPlotSettings
  1

  2
none_device
  4
ISO_A4_(297.00_x_210.00_MM)
  6

 40
0.0
 41
0.0
 42
0.0
 43
0.0
 44
297.0
 45
210.0
 46
0.0
 47
0.0
 48
0.0
 49
0.0
140
0.0
141
0.0
142
1.0
143
1.0
 70
0
 72
1
 73
0
 74
0
  7

 75
0
147
1.0
148
0.0
149
0.0
100
AcDbLayout
  1
Layout1
 70
0
 71
1
 10
0.0
 20
0.0
 11
297.0
 21
210.0
 12
0.0
 22
0.0
 32
0.0
 14
0.0
 24
0.0
 34
0.0
 15
0.0
 25
0.0
 35
0.0
146
0.0
 13
0.0
 23
0.0
 33
0.0
 16
1.0
 26
0.0
 36
0.0
 17
0.0
 27
1.0
 37
0.0
 76
0
330
213
345
0
346
0
  0
ENDSEC
  0
EOF
