  0
SECTION
  2
HEADER
  9
$ACADVER
  1
AC1024
  9
$DWGCODEPAGE
  3
ANSI_1252
  9
$EXTMAX
 10
297.0
 20
210.0
 30
0.0
  9
$EXTMIN
 10
0.0
 20
0.0
 30
0.0
  9
$LIMMIN
 10
0.0
 20
0.0
  9
$LIMMAX
 10
297.0
 20
210.0
  9
$VIEWCTR
 10
148.5
 20
105.0
  9
$VIEWSIZE
 40
210.0
  9
$CLAYER
  8
0
  9
$LTSCALE
 40
16.335
  9
$CELTYPE
  6
BYLAYER
  9
$DIMSCALE
 40
1.0
  9
$DIMASZ
 40
3.0
  9
$DIMEXO
 40
0.5
  9
$DIMDLI
 40
11.286
  9
$DIMEXE
 40
1.5
  9
$DIMCEN
 40
2.673
  9
$DIMLFAC
 40
1.0
  9
$DIMBLK
  1
_FILLED
  9
$DIMALT
 70
0
  9
$DIMALTF
 40
25.4
  9
$DIMTXT
 40
3.0
  9
$DIMTOL
 70
1
  9
$DIMLIM
 70
0
  9
$DIMTFAC
 40
1.0
  9
$DIMTP
 40
0.01
  9
$DIMTM
 40
0.01
  9
$DIMGAP
 40
0.625
  9
$DIMDSEP
 70
44
  9
$AUNITS
 70
0
  9
$PDMODE
 70
3
  9
$PDSIZE
 40
3.0
  9
$HANDSEED
  5
5A7
  9
$TILEMODE
 70
1
  9
$MEASUREMENT
 70
1
  9
$INSUNITS
 70
4
  0
ENDSEC
  0
SECTION
  2
CLASSES
  0
CLASS
  1
ACDBDICTIONARYWDFLT
  2
AcDbDictionaryWithDefault
  3
AutoCAD 2000
 90
0
 91
1
280
0
281
0
  0
CLASS
  1
ACDBPLACEHOLDER
  2
AcDbPlaceHolder
  3
AutoCAD 2000
 90
0
 91
1
280
0
281
0
  0
CLASS
  1
LAYOUT
  2
AcDbLayout
  3
AutoCAD 2000
 90
0
 91
0
280
0
281
0
  0
ENDSEC
  0
SECTION
  2
TABLES
  0
TABLE
  2
VPORT
  5
8
100
AcDbSymbolTable
 70
2
  0
VPORT
  5
1F4
100
AcDbSymbolTableRecord
100
AcDbViewportTableRecord
  2
*ACTIVE
 70
0
 10
0.0
 20
0.0
 11
1.0
 21
1.0
 12
148.5
 22
105.0
 13
0.0
 23
0.0
 14
1.0
 24
1.0
 15
0.0
 25
0.0
 16
0.0
 26
0.0
 36
1.0
 17
0.0
 27
0.0
 37
0.0
 40
210.0
 41
1.4142857143
 42
50.0
 43
0.0
 44
0.0
 50
0.0
 51
0.0
 71
0
 72
100
 73
1
 74
1
 75
0
 76
0
 77
0
 78
0
  0
ENDTAB
  0
TABLE
  2
LTYPE
  5
5
100
AcDbSymbolTable
 70
6
  0
LTYPE
  5
14
100
AcDbSymbolTableRecord
100
AcDbLinetypeTableRecord
  2
BYBLOCK
 70
0
  3

 72
65
 73
0
 40
0.0
  0
LTYPE
  5
15
100
AcDbSymbolTableRecord
100
AcDbLinetypeTableRecord
  2
BYLAYER
 70
0
  3

 72
65
 73
0
 40
0.0
  0
LTYPE
  5
16
100
AcDbSymbolTableRecord
100
AcDbLinetypeTableRecord
  2
CONTINUOUS
 70
64
  3
Solid line
 72
65
 73
0
 40
0.0
  0
LTYPE
  5
1F5
100
AcDbSymbolTableRecord
100
AcDbLinetypeTableRecord
  2
CENTER
 70
64
  3
____ _ ____ _ ____ _ ____ _ ____ _ ____ _ ____
 72
65
 73
4
 40
0.6
 49
0.375
 74
0
 49
-0.075
 74
0
 49
0.075
 74
0
 49
-0.075
 74
0
  0
LTYPE
  5
1F6
100
AcDbSymbolTableRecord
100
AcDbLinetypeTableRecord
  2
HIDDEN
 70
64
  3
- - - - - - - - - - - - - - - - - - - -
 72
65
 73
2
 40
0.2
 49
0.1
 74
0
 49
-0.1
 74
0
  0
LTYPE
  5
1F7
100
AcDbSymbolTableRecord
100
AcDbLinetypeTableRecord
  2
PHANTOM
 70
64
  3
_____ _ _ _____ _ _ _____ _ _ _____
 72
65
 73
6
 40
0.8
 49
0.45
 74
0
 49
-0.05
 74
0
 49
0.1
 74
0
 49
-0.05
 74
0
 49
0.1
 74
0
 49
-0.05
 74
0
  0
LTYPE
  5
1F8
100
AcDbSymbolTableRecord
100
AcDbLinetypeTableRecord
  2
DOT
 70
64
  3
. . . . . . . . . . . . . . . . . . . .
 72
65
 73
2
 40
0.2
 49
0.1
 74
0
 49
-0.1
 74
0
  0
LTYPE
  5
1F9
100
AcDbSymbolTableRecord
100
AcDbLinetypeTableRecord
  2
DASHED
 70
64
  3
- - - - - - - - - - - - - - - - - - - -
 72
65
 73
2
 40
0.2
 49
0.1
 74
0
 49
-0.1
 74
0
  0
ENDTAB
  0
TABLE
  2
LAYER
  5
2
100
AcDbSymbolTable
 70
36
  0
LAYER
  5
10
100
AcDbSymbolTableRecord
100
AcDbLayerTableRecord
  2
0
 70
0
 62
7
  6
CONTINUOUS
370
-3
390
F
  0
LAYER
  5
1FA
100
AcDbSymbolTableRecord
100
AcDbLayerTableRecord
  2
DEFAULT_1
 70
0
 62
7
  6
CENTER
370
-3
390
F
  0
LAYER
  5
1FB
100
AcDbSymbolTableRecord
100
AcDbLayerTableRecord
  2
DEFAULT_2
 70
0
 62
7
  6
HIDDEN
370
-3
390
F
  0
LAYER
  5
1FC
100
AcDbSymbolTableRecord
100
AcDbLayerTableRecord
  2
DEFAULT_3
 70
0
 62
7
  6
PHANTOM
370
-3
390
F
  0
LAYER
  5
1FD
100
AcDbSymbolTableRecord
100
AcDbLayerTableRecord
  2
26216763_GEN
 70
0
 62
7
  6
CONTINUOUS
370
-3
390
F
  0
LAYER
  5
1FE
100
AcDbSymbolTableRecord
100
AcDbLayerTableRecord
  2
ASSI
 70
0
 62
7
  6
CONTINUOUS
370
-3
390
F
  0
LAYER
  5
1FF
100
AcDbSymbolTableRecord
100
AcDbLayerTableRecord
  2
COORDINATE
 70
0
 62
7
  6
CONTINUOUS
370
-3
390
F
  0
LAYER
  5
200
100
AcDbSymbolTableRecord
100
AcDbLayerTableRecord
  2
COORD_ORIGINE
 70
0
 62
7
  6
CONTINUOUS
370
-3
390
F
  0
LAYER
  5
201
100
AcDbSymbolTableRecord
100
AcDbLayerTableRecord
  2
COSMETICI
 70
0
 62
7
  6
CONTINUOUS
370
-3
390
F
  0
LAYER
  5
202
100
AcDbSymbolTableRecord
100
AcDbLayerTableRecord
  2
CURVE
 70
0
 62
7
  6
CONTINUOUS
370
-3
390
F
  0
LAYER
  5
203
100
AcDbSymbolTableRecord
100
AcDbLayerTableRecord
  2
DRAFT
 70
0
 62
7
  6
CONTINUOUS
370
-3
390
F
  0
LAYER
  5
204
100
AcDbSymbolTableRecord
100
AcDbLayerTableRecord
  2
IGES_SCRITTE
 70
0
 62
7
  6
CONTINUOUS
370
-3
390
F
  0
LAYER
  5
205
100
AcDbSymbolTableRecord
100
AcDbLayerTableRecord
  2
IMPORT_FEATURE
 70
0
 62
7
  6
CONTINUOUS
370
-3
390
F
  0
LAYER
  5
206
100
AcDbSymbolTableRecord
100
AcDbLayerTableRecord
  2
INTF_1
 70
0
 62
7
  6
CONTINUOUS
370
-3
390
F
  0
LAYER
  5
207
100
AcDbSymbolTableRecord
100
AcDbLayerTableRecord
  2
LAY0001
 70
0
 62
7
  6
CONTINUOUS
370
-3
390
F
  0
LAYER
  5
208
100
AcDbSymbolTableRecord
100
AcDbLayerTableRecord
  2
NOTE
 70
0
 62
7
  6
CONTINUOUS
370
-3
390
F
  0
LAYER
  5
209
100
AcDbSymbolTableRecord
100
AcDbLayerTableRecord
  2
PIANI
 70
0
 62
7
  6
CONTINUOUS
370
-3
390
F
  0
LAYER
  5
20A
100
AcDbSymbolTableRecord
100
AcDbLayerTableRecord
  2
PIANI_DI_RIFERIMENTO
 70
0
 62
7
  6
CONTINUOUS
370
-3
390
F
  0
LAYER
  5
20B
100
AcDbSymbolTableRecord
100
AcDbLayerTableRecord
  2
PIANI_ORIGINE
 70
0
 62
7
  6
CONTINUOUS
370
-3
390
F
  0
LAYER
  5
20C
100
AcDbSymbolTableRecord
100
AcDbLayerTableRecord
  2
PUNTI
 70
0
 62
7
  6
CONTINUOUS
370
-3
390
F
  0
LAYER
  5
20D
100
AcDbSymbolTableRecord
100
AcDbLayerTableRecord
  2
RACCORDO
 70
0
 62
7
  6
CONTINUOUS
370
-3
390
F
  0
LAYER
  5
20E
100
AcDbSymbolTableRecord
100
AcDbLayerTableRecord
  2
RGB____0____0____0__
 70
0
 62
7
  6
CONTINUOUS
370
-3
390
F
  0
LAYER
  5
20F
100
AcDbSymbolTableRecord
100
AcDbLayerTableRecord
  2
SIMBOLI
 70
0
 62
7
  6
CONTINUOUS
370
-3
390
F
  0
LAYER
  5
210
100
AcDbSymbolTableRecord
100
AcDbLayerTableRecord
  2
SNAPLINE
 70
0
 62
7
  6
CONTINUOUS
370
-3
390
F
  0
LAYER
  5
211
100
AcDbSymbolTableRecord
100
AcDbLayerTableRecord
  2
SUPERFICI
 70
0
 62
7
  6
CONTINUOUS
370
-3
390
F
  0
LAYER
  5
212
100
AcDbSymbolTableRecord
100
AcDbLayerTableRecord
  2
TRASH
 70
0
 62
7
  6
CONTINUOUS
370
-3
390
F
  0
LAYER
  5
213
100
AcDbSymbolTableRecord
100
AcDbLayerTableRecord
  2
XSEC_DATUMS
 70
0
 62
7
  6
CONTINUOUS
370
-3
390
F
  0
ENDTAB
  0
TABLE
  2
STYLE
  5
3
100
AcDbSymbolTable
 70
1
  0
STYLE
  5
11
100
AcDbSymbolTableRecord
100
AcDbTextStyleTableRecord
  2
STANDARD
 70
0
 40
0.0
 41
0.8
 50
0.0
 71
0
 42
0.2
  3
txt
  4

  0
STYLE
  5
214
100
AcDbSymbolTableRecord
100
AcDbTextStyleTableRecord
  2
TEXTSTYLE_1
 70
0
 40
0.0
 41
0.8
 50
0.0
 71
0
 42
0.2
  3
gdt
  4

  0
ENDTAB
  0
TABLE
  2
VIEW
  5
6
100
AcDbSymbolTable
 70
0
  0
ENDTAB
  0
TABLE
  2
UCS
  5
7
100
AcDbSymbolTable
 70
0
  0
ENDTAB
  0
TABLE
  2
APPID
  5
9
100
AcDbSymbolTable
 70
1
  0
APPID
  5
215
100
AcDbSymbolTableRecord
100
AcDbRegAppTableRecord
  2
ACAD
 70
0
  0
ENDTAB
  0
TABLE
  2
BLOCK_RECORD
  5
1
100
AcDbSymbolTable
 70
0
  0
BLOCK_RECORD
  5
216
100
AcDbSymbolTableRecord
100
AcDbBlockTableRecord
  2
*Model_Space
  0
BLOCK_RECORD
  5
217
100
AcDbSymbolTableRecord
100
AcDbBlockTableRecord
  2
*Paper_Space
  0
BLOCK_RECORD
  5
218
100
AcDbSymbolTableRecord
100
AcDbBlockTableRecord
  2
_FILLED
  0
BLOCK_RECORD
  5
219
100
AcDbSymbolTableRecord
100
AcDbBlockTableRecord
  2
*D0
  0
BLOCK_RECORD
  5
21A
100
AcDbSymbolTableRecord
100
AcDbBlockTableRecord
  2
*D1
  0
BLOCK_RECORD
  5
21B
100
AcDbSymbolTableRecord
100
AcDbBlockTableRecord
  2
*D2
  0
ENDTAB
  0
TABLE
  2
DIMSTYLE
  5
A
100
AcDbSymbolTable
 70
1
100
AcDbDimStyleTable
 71
0
  0
DIMSTYLE
105
21C
100
AcDbSymbolTableRecord
100
AcDbDimStyleTableRecord
  2
STANDARD
 70
0
  3

  4

 40
1.0
 41
3.0
 42
0.5
 43
0.38
 44
1.5
 45
0.0
 46
0.0
 47
0.01
 48
0.01
140
3.0
141
0.09
142
0.0
143
25.4
144
1.0
145
0.0
146
1.0
147
0.625
 71
1.0
 72
0.0
 73
0
 74
0
 75
0
 76
0
 77
1
 78
8
170
0
171
1
172
0
173
0
174
0
175
0
176
0
177
0
178
0
270
2
271
2
272
2
273
2
274
2
275
0
280
0
281
0
282
0
283
1
284
8
285
0
286
0
287
3
288
0
340
11
278
44
341
218
342
218
343
218
344
218
  0
DIMSTYLE
105
21D
100
AcDbSymbolTableRecord
100
AcDbDimStyleTableRecord
  2
DIMSTYLE_1
 70
0
  3

  4

 40
1.0
 41
3.0
 42
0.5
 43
0.38
 44
1.5
 45
0.0
 46
0.0
 47
0.0
 48
0.0
140
3.0
141
0.09
142
0.0
143
25.4
144
1.0
145
0.0
146
1.0
147
0.75
 71
0.0
 72
0.0
 73
0
 74
0
 75
0
 76
0
 77
1
 78
8
170
0
171
1
172
0
173
0
174
0
175
0
176
0
177
0
178
0
270
2
271
2
272
2
273
2
274
2
275
0
280
0
281
0
282
0
283
1
284
8
285
0
286
0
287
3
288
0
340
11
278
44
341
218
342
218
343
218
344
218
  0
ENDTAB
  0
ENDSEC
  0
SECTION
  2
BLOCKS
  0
BLOCK
  5
20
100
AcDbEntity
  8
0
100
AcDbBlockBegin
  2
*Model_Space
 70
0
 10
0.0
 20
0.0
 30
0.0
  3
*Model_Space
  1

  0
ENDBLK
  5
21
100
AcDbEntity
  8
0
100
AcDbBlockEnd
  0
BLOCK
  5
1C
100
AcDbEntity
  8
0
100
AcDbBlockBegin
  2
*Paper_Space
 70
0
 10
0.0
 20
0.0
 30
0.0
  3
*Paper_Space
  1

  0
ENDBLK
  5
1D
100
AcDbEntity
  8
0
100
AcDbBlockEnd
  0
BLOCK
  5
21E
100
AcDbEntity
  8
0
100
AcDbBlockBegin
  2
_FILLED
 70
64
 10
0.0
 20
0.0
  3
_FILLED
  1

  0
SOLID
  5
21F
100
AcDbEntity
  8
0
  6
BYBLOCK
 62
0
100
AcDbTrace
 10
0.0
 20
0.0
 11
-1.0
 21
0.3166666667
 12
-1.0
 22
-0.3166666667
 13
-1.0
 23
-0.3166666667
  0
ENDBLK
  5
220
100
AcDbEntity
  8
0
  6
BYBLOCK
 62
0
100
AcDbBlockEnd
  0
BLOCK
  5
221
100
AcDbEntity
  8
0
100
AcDbBlockBegin
 62
7
  6
CONTINUOUS
  2
*D0
 70
65
 10
0.0
 20
0.0
  3
*D0
  1

  0
MTEXT
  5
222
100
AcDbEntity
  8
0
100
AcDbMText
 62
7
  6
CONTINUOUS
  7
STANDARD
 71
2
 72
1
 10
-78.7873590867
 20
0.0
 30
0.0
 11
0.0
 21
1.0
 31
0.0
 44
0.9
  1
82
 40
3.0
 41
7.0714285714
  0
LINE
  5
223
100
AcDbEntity
  8
0
100
AcDbLine
 62
7
  6
CONTINUOUS
 10
-52.1292815281
 20
41.0
 11
-76.5373590867
 21
41.0
  0
LINE
  5
224
100
AcDbEntity
  8
0
100
AcDbLine
 62
7
  6
CONTINUOUS
 10
-52.1292815281
 20
-41.0
 11
-76.5373590867
 21
-41.0
  0
LINE
  5
225
100
AcDbEntity
  8
0
100
AcDbLine
 62
7
  6
CONTINUOUS
 10
-75.0373590867
 20
41.0
 11
-75.0373590867
 21
0.0
  0
LINE
  5
226
100
AcDbEntity
  8
0
100
AcDbLine
 62
7
  6
CONTINUOUS
 10
-75.0373590867
 20
-41.0
 11
-75.0373590867
 21
0.0
  0
INSERT
  5
227
100
AcDbEntity
  8
0
100
AcDbBlockReference
 62
7
  6
CONTINUOUS
  2
_FILLED
 10
-75.0373590867
 20
41.0
 41
3.0
 42
3.0
 43
3.0
 50
90.0
  0
INSERT
  5
228
100
AcDbEntity
  8
0
100
AcDbBlockReference
 62
7
  6
CONTINUOUS
  2
_FILLED
 10
-75.0373590867
 20
-41.0
 41
3.0
 42
3.0
 43
3.0
 50
270.0
  0
ENDBLK
  5
229
100
AcDbEntity
  8
0
  6
BYBLOCK
 62
0
100
AcDbBlockEnd
  0
BLOCK
  5
22A
100
AcDbEntity
  8
0
100
AcDbBlockBegin
 62
7
  6
CONTINUOUS
  2
*D1
 70
65
 10
0.0
 20
0.0
  3
*D1
  1

  0
MTEXT
  5
22B
100
AcDbEntity
  8
0
100
AcDbMText
 62
7
  6
CONTINUOUS
  7
STANDARD
 71
2
 72
1
 10
85.5798715848
 20
58.0618375935
 30
0.0
 11
1.0
 21
0.0
 31
0.0
 44
0.9
  1
9
 40
3.0
 41
3.5357142857
  0
LINE
  5
22C
100
AcDbEntity
  8
0
100
AcDbLine
 62
7
  6
CONTINUOUS
 10
81.0798715848
 20
34.404109589
 11
81.0798715848
 21
55.8118375935
  0
LINE
  5
22D
100
AcDbEntity
  8
0
100
AcDbLine
 62
7
  6
CONTINUOUS
 10
90.0798715848
 20
0.5
 11
90.0798715848
 21
55.8118375935
  0
LINE
  5
22E
100
AcDbEntity
  8
0
100
AcDbLine
 62
7
  6
CONTINUOUS
 10
81.0798715848
 20
54.3118375935
 11
85.5798715848
 21
54.3118375935
  0
LINE
  5
22F
100
AcDbEntity
  8
0
100
AcDbLine
 62
7
  6
CONTINUOUS
 10
90.0798715848
 20
54.3118375935
 11
85.5798715848
 21
54.3118375935
  0
INSERT
  5
230
100
AcDbEntity
  8
0
100
AcDbBlockReference
 62
7
  6
CONTINUOUS
  2
_FILLED
 10
81.0798715848
 20
54.3118375935
 41
3.0
 42
3.0
 43
3.0
 50
180.0
  0
INSERT
  5
231
100
AcDbEntity
  8
0
100
AcDbBlockReference
 62
7
  6
CONTINUOUS
  2
_FILLED
 10
90.0798715848
 20
54.3118375935
 41
3.0
 42
3.0
 43
3.0
  0
ENDBLK
  5
232
100
AcDbEntity
  8
0
  6
BYBLOCK
 62
0
100
AcDbBlockEnd
  0
BLOCK
  5
233
100
AcDbEntity
  8
0
100
AcDbBlockBegin
 62
7
  6
CONTINUOUS
  2
*D2
 70
65
 10
0.0
 20
0.0
  3
*D2
  1

  0
MTEXT
  5
234
100
AcDbEntity
  8
0
100
AcDbMText
 62
7
  6
CONTINUOUS
  7
STANDARD
 71
2
 72
1
 10
0.0
 20
58.0618375935
 30
0.0
 11
1.0
 21
0.0
 31
0.0
 44
0.9
  1
123
 40
3.0
 41
9.3214285714
  0
LINE
  5
235
100
AcDbEntity
  8
0
100
AcDbLine
 62
7
  6
CONTINUOUS
 10
61.5
 20
0.5
 11
61.5
 21
55.8118375935
  0
LINE
  5
236
100
AcDbEntity
  8
0
100
AcDbLine
 62
7
  6
CONTINUOUS
 10
-61.5
 20
0.5
 11
-61.5
 21
55.8118375935
  0
LINE
  5
237
100
AcDbEntity
  8
0
100
AcDbLine
 62
7
  6
CONTINUOUS
 10
61.5
 20
54.3118375935
 11
0.0
 21
54.3118375935
  0
LINE
  5
238
100
AcDbEntity
  8
0
100
AcDbLine
 62
7
  6
CONTINUOUS
 10
-61.5
 20
54.3118375935
 11
0.0
 21
54.3118375935
  0
INSERT
  5
239
100
AcDbEntity
  8
0
100
AcDbBlockReference
 62
7
  6
CONTINUOUS
  2
_FILLED
 10
61.5
 20
54.3118375935
 41
3.0
 42
3.0
 43
3.0
  0
INSERT
  5
23A
100
AcDbEntity
  8
0
100
AcDbBlockReference
 62
7
  6
CONTINUOUS
  2
_FILLED
 10
-61.5
 20
54.3118375935
 41
3.0
 42
3.0
 43
3.0
 50
180.0
  0
ENDBLK
  5
23B
100
AcDbEntity
  8
0
  6
BYBLOCK
 62
0
100
AcDbBlockEnd
  0
ENDSEC
  0
SECTION
  2
ENTITIES
  0
DIMENSION
  5
23C
100
AcDbEntity
  8
0
100
AcDbDimension
 62
7
  6
CONTINUOUS
  2
*D0
 10
-75.0373590867
 20
-41.0
 11
-75.0373590867
 21
-0.4285731915
 70
160
 71
2
 42
82.0
  3
DIMSTYLE_1
100
AcDbAlignedDimension
 13
-51.6292815281
 23
41.0
 14
-51.6292815281
 24
-41.0
 50
270.0
100
AcDbRotatedDimension
  0
DIMENSION
  5
23D
100
AcDbEntity
  8
0
100
AcDbDimension
 62
7
  6
CONTINUOUS
  2
*D1
 10
90.0798715848
 20
54.3118375935
 11
85.1513039703
 21
54.3118375935
 70
160
 71
2
 42
9.0
  3
DIMSTYLE_1
100
AcDbAlignedDimension
 13
81.0798715848
 23
33.904109589
 14
90.0798715848
 24
0.0
100
AcDbRotatedDimension
  0
DIMENSION
  5
23E
100
AcDbEntity
  8
0
100
AcDbDimension
 62
7
  6
CONTINUOUS
  2
*D2
 10
-61.5
 20
54.3118375935
 11
-0.4285714481
 21
54.3118375935
 70
160
 71
2
 42
123.0
  3
DIMSTYLE_1
100
AcDbAlignedDimension
 13
61.5
 23
0.0
 14
-61.5
 24
0.0
 50
180.0
100
AcDbRotatedDimension
  0
LWPOLYLINE
  5
23F
100
AcDbEntity
  8
0
100
AcDbPolyline
 62
253
  6
CONTINUOUS
 90
49
 70
0
 10
-59.3205110488
 20
-33.8748188837
 10
-59.4635066884
 20
-32.4658775758
 10
-59.6004045114
 20
-31.0565706967
 10
-59.7312053222
 20
-29.646921705
 10
-59.8559108875
 20
-28.236944207
 10
-59.9745211731
 20
-26.8266714495
 10
-60.087034809
 20
-25.4161563563
 10
-60.1934512548
 20
-24.0054506124
 10
-60.2937744107
 20
-22.5945493536
 10
-60.388009311
 20
-21.1834206319
 10
-60.4761574877
 20
-19.7720772785
 10
-60.5582192638
 20
-18.3605530449
 10
-60.634196844
 20
-16.9488472737
 10
-60.7040910538
 20
-15.5369827864
 10
-60.7679027651
 20
-14.1249832283
 10
-60.8256336979
 20
-12.7128491295
 10
-60.8772842947
 20
-11.3006106625
 10
-60.9228556608
 20
-9.8882840266
 10
-60.9623496779
 20
-8.4758487465
 10
-60.9957668012
 20
-7.0633194881
 10
-61.0231071631
 20
-5.6507278677
 10
-61.0443713912
 20
-4.2380788051
 10
-61.059559675
 20
-2.8254010567
 10
-61.0686724501
 20
-1.4127121129
 10
-61.0717100635
 20
0.0000000182
 10
-61.0686724495
 20
1.4127123136
 10
-61.0595596709
 20
2.8254015675
 10
-61.0443713823
 20
4.2380794976
 10
-61.0231071528
 20
5.6507284557
 10
-60.9957667934
 20
7.0633198431
 10
-60.9623496729
 20
8.4758489397
 10
-60.922855655
 20
9.8882842214
 10
-60.8772842856
 20
11.3006109299
 10
-60.825633685
 20
12.7128494631
 10
-60.7679027484
 20
14.1249836178
 10
-60.7040910331
 20
15.5369832255
 10
-60.6341968225
 20
16.9488476904
 10
-60.5582192505
 20
18.3605532796
 10
-60.4761574887
 20
19.7720772595
 10
-60.3880093205
 20
21.183420485
 10
-60.293774411
 20
22.5945493534
 10
-60.1934512351
 20
24.0054508843
 10
-60.0870347764
 20
25.416156777
 10
-59.9745211485
 20
26.8266717471
 10
-59.8559108829
 20
28.2369442586
 10
-59.7312053332
 20
29.6469215842
 10
-59.6004045261
 20
31.0565705427
 10
-59.4635066999
 20
32.4658774621
 10
-59.3205110488
 20
33.8748188837
  0
LINE
  5
240
100
AcDbEntity
  8
RACCORDO
100
AcDbLine
 62
7
  6
CONTINUOUS
 10
-61.3943109385
 20
6.5727673352
 11
-61.3779973368
 21
6.2718076515
  0
LINE
  5
241
100
AcDbEntity
  8
RACCORDO
100
AcDbLine
 62
7
  6
CONTINUOUS
 10
-61.3779973368
 20
6.2718076515
 11
-61.3626073156
 21
5.9637857108
  0
LINE
  5
242
100
AcDbEntity
  8
RACCORDO
100
AcDbLine
 62
7
  6
CONTINUOUS
 10
-61.3626073156
 20
5.9637857108
 11
-61.3481312626
 21
5.6489737274
  0
LINE
  5
243
100
AcDbEntity
  8
RACCORDO
100
AcDbLine
 62
7
  6
CONTINUOUS
 10
-61.3481312626
 20
5.6489737274
 11
-61.3345655197
 21
5.327721959
  0
LINE
  5
244
100
AcDbEntity
  8
RACCORDO
100
AcDbLine
 62
7
  6
CONTINUOUS
 10
-61.3345655197
 20
5.327721959
 11
-61.3219078638
 21
5.0004650032
  0
LWPOLYLINE
  5
245
100
AcDbEntity
  8
RACCORDO
100
AcDbPolyline
 62
7
  6
CONTINUOUS
 90
6
 70
0
 10
-61.4088501111
 20
6.8514476749
 10
-61.4078445137
 20
6.8242002112
 10
-61.4067376721
 20
6.7974527936
 10
-61.4055308446
 20
6.7712372785
 10
-61.4042227729
 20
6.7455732973
 10
-61.3943109385
 20
6.5727673352
  0
LINE
  5
246
100
AcDbEntity
  8
RACCORDO
100
AcDbLine
 62
7
  6
CONTINUOUS
 10
-61.3219078638
 20
5.0004650032
 11
-61.3101501475
 21
4.6675099192
  0
LINE
  5
247
100
AcDbEntity
  8
RACCORDO
100
AcDbLine
 62
7
  6
CONTINUOUS
 10
-61.3101501475
 20
4.6675099192
 11
-61.2992883729
 21
4.3292262136
  0
LINE
  5
248
100
AcDbEntity
  8
RACCORDO
100
AcDbLine
 62
7
  6
CONTINUOUS
 10
-61.4105455213
 20
6.9072631108
 11
-61.4088501111
 21
6.8514476749
  0
LINE
  5
249
100
AcDbEntity
  8
RACCORDO
100
AcDbLine
 62
7
  6
CONTINUOUS
 10
-61.2992883729
 20
4.3292262136
 11
-61.2893180657
 21
3.9860295002
  0
LINE
  5
24A
100
AcDbEntity
  8
RACCORDO
100
AcDbLine
 62
7
  6
CONTINUOUS
 10
-61.2893180657
 20
3.9860295002
 11
-61.280233323
 21
3.6382972626
  0
LINE
  5
24B
100
AcDbEntity
  8
RACCORDO
100
AcDbLine
 62
7
  6
CONTINUOUS
 10
-61.280233323
 20
3.6382972626
 11
-61.2720304367
 21
3.2864163817
  0
LINE
  5
24C
100
AcDbEntity
  8
RACCORDO
100
AcDbLine
 62
7
  6
CONTINUOUS
 10
-61.4118185383
 20
6.9646861691
 11
-61.4105455213
 21
6.9072631108
  0
LINE
  5
24D
100
AcDbEntity
  8
RACCORDO
100
AcDbLine
 62
7
  6
CONTINUOUS
 10
-61.2720304367
 20
3.2864163817
 11
-61.264703686
 21
2.9307578326
  0
LINE
  5
24E
100
AcDbEntity
  8
RACCORDO
100
AcDbLine
 62
7
  6
CONTINUOUS
 10
-61.4117202421
 20
-7.2689101834
 11
-61.4104032874
 21
-7.3314391493
  0
LINE
  5
24F
100
AcDbEntity
  8
RACCORDO
100
AcDbLine
 62
7
  6
CONTINUOUS
 10
-61.264703686
 20
2.9307578326
 11
-61.2582494905
 21
2.5717790122
  0
LINE
  5
250
100
AcDbEntity
  8
RACCORDO
100
AcDbLine
 62
7
  6
CONTINUOUS
 10
-61.2582494905
 20
2.5717790122
 11
-61.2526649716
 21
2.2098855462
  0
LINE
  5
251
100
AcDbEntity
  8
RACCORDO
100
AcDbLine
 62
7
  6
CONTINUOUS
 10
-61.412606215
 20
-7.206594434
 11
-61.4117202421
 21
-7.2689101834
  0
LINE
  5
252
100
AcDbEntity
  8
RACCORDO
100
AcDbLine
 62
7
  6
CONTINUOUS
 10
-61.4126651979
 20
7.0236422723
 11
-61.4118185383
 21
6.9646861691
  0
LINE
  5
253
100
AcDbEntity
  8
RACCORDO
100
AcDbLine
 62
7
  6
CONTINUOUS
 10
-61.2526649716
 20
2.2098855462
 11
-61.2479449482
 21
1.8454172392
  0
LINE
  5
254
100
AcDbEntity
  8
RACCORDO
100
AcDbLine
 62
7
  6
CONTINUOUS
 10
-61.2479449482
 20
1.8454172392
 11
-61.2440872351
 21
1.4788648037
  0
LINE
  5
255
100
AcDbEntity
  8
RACCORDO
100
AcDbLine
 62
7
  6
CONTINUOUS
 10
-61.2440872351
 20
1.4788648037
 11
-61.2410900399
 21
1.1106492854
  0
LINE
  5
256
100
AcDbEntity
  8
RACCORDO
100
AcDbLine
 62
7
  6
CONTINUOUS
 10
-61.4130604583
 20
-7.1447574258
 11
-61.412606215
 21
-7.206594434
  0
LINE
  5
257
100
AcDbEntity
  8
RACCORDO
100
AcDbLine
 62
7
  6
CONTINUOUS
 10
-61.2410900399
 20
1.1106492854
 11
-61.2389502975
 21
0.7411305543
  0
LINE
  5
258
100
AcDbEntity
  8
RACCORDO
100
AcDbLine
 62
7
  6
CONTINUOUS
 10
-61.4130798202
 20
7.0837455174
 11
-61.4126651979
 21
7.0236422723
  0
LINE
  5
259
100
AcDbEntity
  8
RACCORDO
100
AcDbLine
 62
7
  6
CONTINUOUS
 10
-61.2389502975
 20
0.7411305543
 11
-61.2376669586
 21
0.3707722783
  0
LINE
  5
25A
100
AcDbEntity
  8
RACCORDO
100
AcDbLine
 62
7
  6
CONTINUOUS
 10
-61.2376669586
 20
0.3707722783
 11
-61.2372394118
 21
0.000002129
  0
LINE
  5
25B
100
AcDbEntity
  8
RACCORDO
100
AcDbLine
 62
7
  6
CONTINUOUS
 10
-61.4130798202
 20
-7.0837455174
 11
-61.4130604583
 21
-7.1447574258
  0
LINE
  5
25C
100
AcDbEntity
  8
RACCORDO
100
AcDbLine
 62
7
  6
CONTINUOUS
 10
-61.2372394118
 20
0.000002129
 11
-61.2376669509
 21
-0.3707687076
  0
LINE
  5
25D
100
AcDbEntity
  8
RACCORDO
100
AcDbLine
 62
7
  6
CONTINUOUS
 10
-61.4130604583
 20
7.1447574258
 11
-61.4130798202
 21
7.0837455174
  0
LINE
  5
25E
100
AcDbEntity
  8
RACCORDO
100
AcDbLine
 62
7
  6
CONTINUOUS
 10
-61.2376669509
 20
-0.3707687076
 11
-61.2389502846
 21
-0.7411277697
  0
LINE
  5
25F
100
AcDbEntity
  8
RACCORDO
100
AcDbLine
 62
7
  6
CONTINUOUS
 10
-61.2389502846
 20
-0.7411277697
 11
-61.2410900246
 21
-1.1106470886
  0
LINE
  5
260
100
AcDbEntity
  8
RACCORDO
100
AcDbLine
 62
7
  6
CONTINUOUS
 10
-61.4126651979
 20
-7.0236422723
 11
-61.4130798202
 21
-7.0837455174
  0
LINE
  5
261
100
AcDbEntity
  8
RACCORDO
100
AcDbLine
 62
7
  6
CONTINUOUS
 10
-61.2410900246
 20
-1.1106470886
 11
-61.2440872168
 21
-1.4788628976
  0
LINE
  5
262
100
AcDbEntity
  8
RACCORDO
100
AcDbLine
 62
7
  6
CONTINUOUS
 10
-61.412606215
 20
7.206594434
 11
-61.4130604583
 21
7.1447574258
  0
LINE
  5
263
100
AcDbEntity
  8
RACCORDO
100
AcDbLine
 62
7
  6
CONTINUOUS
 10
-61.2440872168
 20
-1.4788628976
 11
-61.247944935
 21
-1.8454160597
  0
LINE
  5
264
100
AcDbEntity
  8
RACCORDO
100
AcDbLine
 62
7
  6
CONTINUOUS
 10
-61.247944935
 20
-1.8454160597
 11
-61.25266497
 21
-2.2098854342
  0
LINE
  5
265
100
AcDbEntity
  8
RACCORDO
100
AcDbLine
 62
7
  6
CONTINUOUS
 10
-61.4117202421
 20
7.2689101834
 11
-61.412606215
 21
7.206594434
  0
LINE
  5
266
100
AcDbEntity
  8
RACCORDO
100
AcDbLine
 62
7
  6
CONTINUOUS
 10
-61.25266497
 20
-2.2098854342
 11
-61.2582494943
 21
-2.5717792377
  0
LINE
  5
267
100
AcDbEntity
  8
RACCORDO
100
AcDbLine
 62
7
  6
CONTINUOUS
 10
-61.4118185383
 20
-6.9646861691
 11
-61.4126651979
 21
-7.0236422723
  0
LINE
  5
268
100
AcDbEntity
  8
RACCORDO
100
AcDbLine
 62
7
  6
CONTINUOUS
 10
-61.2582494943
 20
-2.5717792377
 11
-61.2647036899
 21
-2.9307580493
  0
LINE
  5
269
100
AcDbEntity
  8
RACCORDO
100
AcDbLine
 62
7
  6
CONTINUOUS
 10
-61.2647036899
 20
-2.9307580493
 11
-61.2720304378
 21
-3.2864164308
  0
LINE
  5
26A
100
AcDbEntity
  8
RACCORDO
100
AcDbLine
 62
7
  6
CONTINUOUS
 10
-61.4104032874
 20
7.3314391493
 11
-61.4117202421
 21
7.2689101834
  0
LINE
  5
26B
100
AcDbEntity
  8
RACCORDO
100
AcDbLine
 62
7
  6
CONTINUOUS
 10
-61.2720304378
 20
-3.2864164308
 11
-61.280233329
 21
-3.6382974963
  0
LINE
  5
26C
100
AcDbEntity
  8
RACCORDO
100
AcDbLine
 62
7
  6
CONTINUOUS
 10
-61.4105455213
 20
-6.9072631108
 11
-61.4118185383
 21
-6.9646861691
  0
LINE
  5
26D
100
AcDbEntity
  8
RACCORDO
100
AcDbLine
 62
7
  6
CONTINUOUS
 10
-61.280233329
 20
-3.6382974963
 11
-61.289318073
 21
-3.9860297719
  0
LINE
  5
26E
100
AcDbEntity
  8
RACCORDO
100
AcDbLine
 62
7
  6
CONTINUOUS
 10
-61.289318073
 20
-3.9860297719
 11
-61.2992883774
 21
-4.3292263612
  0
LINE
  5
26F
100
AcDbEntity
  8
RACCORDO
100
AcDbLine
 62
7
  6
CONTINUOUS
 10
-61.2992883774
 20
-4.3292263612
 11
-61.3101501553
 21
-4.6675101449
  0
LINE
  5
270
100
AcDbEntity
  8
RACCORDO
100
AcDbLine
 62
7
  6
CONTINUOUS
 10
-61.3101501553
 20
-4.6675101449
 11
-61.3219078732
 21
-5.0004652576
  0
LINE
  5
271
100
AcDbEntity
  8
RACCORDO
100
AcDbLine
 62
7
  6
CONTINUOUS
 10
-61.3219078732
 20
-5.0004652576
 11
-61.3345655279
 21
-5.3277221625
  0
LINE
  5
272
100
AcDbEntity
  8
RACCORDO
100
AcDbLine
 62
7
  6
CONTINUOUS
 10
-61.3345655279
 20
-5.3277221625
 11
-61.3481312685
 21
-5.648973863
  0
LINE
  5
273
100
AcDbEntity
  8
RACCORDO
100
AcDbLine
 62
7
  6
CONTINUOUS
 10
-61.3481312685
 20
-5.648973863
 11
-61.3626073218
 21
-5.9637858386
  0
LWPOLYLINE
  5
274
100
AcDbEntity
  8
RACCORDO
100
AcDbPolyline
 62
7
  6
CONTINUOUS
 90
6
 70
0
 10
-61.4042227729
 20
-6.7455732973
 10
-61.4055308446
 20
-6.7712372785
 10
-61.4067376721
 20
-6.7974527936
 10
-61.4078445137
 20
-6.8242002112
 10
-61.4088501111
 20
-6.8514476749
 10
-61.4105455213
 20
-6.9072631108
  0
LINE
  5
275
100
AcDbEntity
  8
RACCORDO
100
AcDbLine
 62
7
  6
CONTINUOUS
 10
-61.3626073218
 20
-5.9637858386
 11
-61.377997345
 21
-6.2718078092
  0
LWPOLYLINE
  5
276
100
AcDbEntity
  8
RACCORDO
100
AcDbPolyline
 62
7
  6
CONTINUOUS
 90
3
 70
0
 10
-61.377997345
 20
-6.2718078092
 10
-61.3943109425
 20
-6.5727674087
 10
-61.4042227729
 20
-6.7455732973
  0
LWPOLYLINE
  5
277
100
AcDbEntity
  8
0
100
AcDbPolyline
 62
253
  6
CONTINUOUS
 90
79
 70
0
 10
-59.3205110488
 20
33.8748188837
 10
-59.3032087588
 20
34.0187440436
 10
-59.2832138921
 20
34.1623193704
 10
-59.2605336443
 20
34.3054945068
 10
-59.235176295
 20
34.4482192863
 10
-59.2071507751
 20
34.5904436332
 10
-59.1764666708
 20
34.732117553
 10
-59.1431349242
 20
34.8731914641
 10
-59.107167415
 20
35.0136158148
 10
-59.0685765588
 20
35.1533409398
 10
-59.0273761258
 20
35.2923177348
 10
-58.9835807517
 20
35.4304976058
 10
-58.9372055511
 20
35.5678320125
 10
-58.8882669887
 20
35.7042728543
 10
-58.8367824489
 20
35.8397722711
 10
-58.7827697923
 20
35.9742825209
 10
-58.7262481826
 20
36.1077564584
 10
-58.6672376656
 20
36.2401473162
 10
-58.6057587724
 20
36.3714084348
 10
-58.5418333046
 20
36.5014938037
 10
-58.4754839068
 20
36.6303578704
 10
-58.4067336873
 20
36.7579552521
 10
-58.3356070208
 20
36.8842412082
 10
-58.2621290714
 20
37.0091715567
 10
-58.1863253991
 20
37.1327024122
 10
-58.1082228202
 20
37.2547905241
 10
-58.0278489775
 20
37.3753931351
 10
-57.9452318947
 20
37.4944678271
 10
-57.8604008106
 20
37.6119728818
 10
-57.7733857038
 20
37.7278672038
 10
-57.6842168864
 20
37.8421101052
 10
-57.5929258729
 20
37.9546615987
 10
-57.4995449264
 20
38.0654823076
 10
-57.4041066085
 20
38.1745333169
 10
-57.3066446586
 20
38.2817764407
 10
-57.2071934772
 20
38.3871742052
 10
-57.1057876893
 20
38.4906896798
 10
-57.0024630919
 20
38.5922866574
 10
-56.8972561642
 20
38.6919296193
 10
-56.7902035676
 20
38.7895836391
 10
-56.6813431044
 20
38.8852145465
 10
-56.570713161
 20
38.9787889505
 10
-56.4583522272
 20
39.0702741195
 10
-56.3442999284
 20
39.1596380745
 10
-56.2285964913
 20
39.2468496001
 10
-56.111282197
 20
39.3318781834
 10
-55.99239843
 20
39.4146940918
 10
-55.8719870737
 20
39.4952684335
 10
-55.7500899788
 20
39.5735730736
 10
-55.6267501015
 20
39.6495806538
 10
-55.5020109004
 20
39.7232646515
 10
-55.3759157338
 20
39.7945993435
 10
-55.2485090422
 20
39.8635598018
 10
-55.1198356772
 20
39.9301219867
 10
-54.9899402957
 20
39.9942627023
 10
-54.8588686187
 20
40.0559595569
 10
-54.7266668102
 20
40.1151910303
 10
-54.5933808024
 20
40.1719364637
 10
-54.4590575288
 20
40.2261760398
 10
-54.3237442507
 20
40.2778908648
 10
-54.1874879309
 20
40.3270629264
 10
-54.0503365547
 20
40.373675049
 10
-53.9123383444
 20
40.4177110125
 10
-53.7735410796
 20
40.4591555174
 10
-53.6339936264
 20
40.4979940855
 10
-53.4937450352
 20
40.5342132046
 10
-53.3528437458
 20
40.567800316
 10
-53.2113392087
 20
40.5987437051
 10
-53.069281292
 20
40.627032569
 10
-52.9267193727
 20
40.6526570386
 10
-52.7837034723
 20
40.675608182
 10
-52.640283991
 20
40.695877996
 10
-52.4965111139
 20
40.7134593776
 10
-52.352435607
 20
40.7283461886
 10
-52.2081079192
 20
40.7405333174
 10
-52.0635779175
 20
40.7500165679
 10
-51.9188961226
 20
40.7567926456
 10
-51.7741136929
 20
40.7608592137
 10
-51.6292815281
 20
40.7622148997
  0
LWPOLYLINE
  5
278
100
AcDbEntity
  8
0
100
AcDbPolyline
 62
253
  6
CONTINUOUS
 90
32
 70
0
 10
-59.3205110424
 20
33.8748188829
 10
-59.3060420631
 20
33.884448067
 10
-59.2891607987
 20
33.8937978543
 10
-59.2698747621
 20
33.9028640835
 10
-59.2481925363
 20
33.91164272
 10
-59.2241237709
 20
33.9201298568
 10
-59.1976791773
 20
33.9283217168
 10
-59.1688705247
 20
33.9362146544
 10
-59.137710634
 20
33.9438051567
 10
-59.1042133727
 20
33.9510898458
 10
-59.0683936484
 20
33.9580654796
 10
-59.0302674025
 20
33.9647289537
 10
-58.9898516027
 20
33.9710773025
 10
-58.9471642356
 20
33.9771077009
 10
-58.9022242991
 20
33.9828174649
 10
-58.8550517931
 20
33.9882040536
 10
-58.8056677115
 20
33.9932650696
 10
-58.7540940321
 20
33.9979982606
 10
-58.7003537076
 20
34.0024015202
 10
-58.6444706544
 20
34.0064728887
 10
-58.5864697429
 20
34.0102105541
 10
-58.526376786
 20
34.0136128531
 10
-58.4642185275
 20
34.0166782715
 10
-58.4000226304
 20
34.0194054451
 10
-58.3338176645
 20
34.0217931601
 10
-58.2656330938
 20
34.0238403539
 10
-58.1954992634
 20
34.0255461154
 10
-58.1234473856
 20
34.0269096856
 10
-58.0495095266
 20
34.0279304574
 10
-57.9737185917
 20
34.0286079768
 10
-57.8961083111
 20
34.0289419421
 10
-57.8167132247
 20
34.0289322047
  0
LWPOLYLINE
  5
279
100
AcDbEntity
  8
0
100
AcDbPolyline
 62
253
  6
CONTINUOUS
 90
34
 70
0
 10
-59.3205110484
 20
-33.8748188836
 10
-59.3060420691
 20
-33.8844480677
 10
-59.2891608047
 20
-33.8937978549
 10
-59.269874768
 20
-33.9028640842
 10
-59.2481925422
 20
-33.9116427207
 10
-59.2241237767
 20
-33.9201298575
 10
-59.1976791831
 20
-33.9283217175
 10
-59.1688705304
 20
-33.9362146551
 10
-59.1377106397
 20
-33.9438051574
 10
-59.1042133783
 20
-33.9510898465
 10
-59.068393654
 20
-33.9580654803
 10
-59.030267408
 20
-33.9647289544
 10
-58.9898516081
 20
-33.9710773032
 10
-58.947164241
 20
-33.9771077016
 10
-58.9022243044
 20
-33.9828174656
 10
-58.8550517983
 20
-33.9882040543
 10
-58.8056677166
 20
-33.9932650703
 10
-58.7540940372
 20
-33.9979982613
 10
-58.7003537126
 20
-34.0024015209
 10
-58.6444706593
 20
-34.0064728893
 10
-58.5864697478
 20
-34.0102105548
 10
-58.5263767908
 20
-34.0136128538
 10
-58.4642185322
 20
-34.0166782722
 10
-58.400022635
 20
-34.0194054457
 10
-58.333817669
 20
-34.0217931607
 10
-58.2656330983
 20
-34.0238403545
 10
-58.1954992677
 20
-34.025546116
 10
-58.1234473898
 20
-34.0269096862
 10
-58.0495095307
 20
-34.027930458
 10
-57.9737185957
 20
-34.0286079774
 10
-57.8961083151
 20
-34.0289419427
 10
-57.8167132285
 20
-34.0289322052
 10
-57.7355686702
 20
-34.0285787695
 10
-57.5681763515
 20
-34.0268415849
  0
LWPOLYLINE
  5
27A
100
AcDbEntity
  8
0
100
AcDbPolyline
 62
253
  6
CONTINUOUS
 90
49
 70
0
 10
-53.8856837327
 20
-33.7875965416
 10
-54.0258179671
 20
-32.382254998
 10
-54.1599778423
 20
-30.9765527422
 10
-54.288163358
 20
-29.5705128189
 10
-54.4103741292
 20
-28.164148285
 10
-54.526610541
 20
-26.7574921422
 10
-54.6368737491
 20
-25.3505973689
 10
-54.7411616451
 20
-23.9435152289
 10
-54.8394763374
 20
-22.5362405339
 10
-54.9318253061
 20
-21.1287415493
 10
-55.018209707
 20
-19.721030817
 10
-55.0986283844
 20
-18.3131416979
 10
-55.1730853505
 20
-16.9050736138
 10
-55.2415808454
 20
-15.4968490866
 10
-55.304114629
 20
-14.0884914258
 10
-55.3606899941
 20
-12.680001197
 10
-55.4113070611
 20
-11.271408268
 10
-55.4559657095
 20
-9.8627285422
 10
-55.4946688703
 20
-8.4539416028
 10
-55.5274171062
 20
-7.0450618604
 10
-55.5542098545
 20
-5.6361206139
 10
-55.5750483576
 20
-4.2271227548
 10
-55.5899328211
 20
-2.8180967501
 10
-55.5988630396
 20
-1.4090598211
 10
-55.601839639
 20
0.0000000183
 10
-55.5988630362
 20
1.4090600217
 10
-55.5899328144
 20
2.81809726
 10
-55.5750483488
 20
4.227123446
 10
-55.5542098465
 20
5.6361212007
 10
-55.5274171004
 20
7.045062215
 10
-55.4946688654
 20
8.453941796
 10
-55.4559657029
 20
9.8627287368
 10
-55.4113070515
 20
11.2714085351
 10
-55.3606899814
 20
12.6800015302
 10
-55.3041146121
 20
14.0884918147
 10
-55.2415808242
 20
15.4968495249
 10
-55.1730853294
 20
16.9050740298
 10
-55.0986283732
 20
18.3131419324
 10
-55.01820971
 20
19.7210307985
 10
-54.9318253153
 20
21.1287414032
 10
-54.8394763351
 20
22.5362405341
 10
-54.7411616233
 20
23.9435155005
 10
-54.636873717
 20
25.3505977889
 10
-54.526610519
 20
26.7574924395
 10
-54.4103741265
 20
28.1641483369
 10
-54.2881633687
 20
29.5705126989
 10
-54.1599778554
 20
30.9765525889
 10
-54.0258179767
 20
32.3822548847
 10
-53.8856837327
 20
33.7875965416
  0
LWPOLYLINE
  5
27B
100
AcDbEntity
  8
0
100
AcDbPolyline
 62
253
  6
CONTINUOUS
 90
58
 70
0
 10
-53.8856837327
 20
33.7875965416
 10
-53.8788145088
 20
33.847385626
 10
-53.8704271252
 20
33.9068963058
 10
-53.8605215819
 20
33.9661285933
 10
-53.8490865778
 20
34.0251307142
 10
-53.8361334139
 20
34.0838544652
 10
-53.8216959936
 20
34.1421552216
 10
-53.8057720354
 20
34.2000237413
 10
-53.7883638208
 20
34.2574693049
 10
-53.7695120963
 20
34.3143750846
 10
-53.7492130521
 20
34.3707412516
 10
-53.727470498
 20
34.4265676834
 10
-53.7043366114
 20
34.481737122
 10
-53.6798086634
 20
34.536246806
 10
-53.6538893828
 20
34.5900995555
 10
-53.626639133
 20
34.6431864947
 10
-53.5980548992
 20
34.6955058769
 10
-53.5681396963
 20
34.7470595155
 10
-53.5369629321
 20
34.7977438844
 10
-53.5045226482
 20
34.8475558866
 10
-53.4708208031
 20
34.8964986923
 10
-53.4359326796
 20
34.9444781837
 10
-53.399855527
 20
34.9914926413
 10
-53.362592096
 20
35.0375438621
 10
-53.3242259222
 20
35.0825430095
 10
-53.2847551059
 20
35.1264872668
 10
-53.2441815469
 20
35.1693795305
 10
-53.2025944791
 20
35.2111395387
 10
-53.1599936862
 20
35.2517634829
 10
-53.1163793846
 20
35.2912552517
 10
-53.0718414573
 20
35.3295461329
 10
-53.0263774452
 20
35.36663457
 10
-52.9799898074
 20
35.4025221978
 10
-52.9327758039
 20
35.4371450936
 10
-52.8847350069
 20
35.4705001078
 10
-52.8358678442
 20
35.5025904647
 10
-52.7862728592
 20
35.5333618045
 10
-52.7359492171
 20
35.5628115952
 10
-52.6848977528
 20
35.5909424381
 10
-52.6332195139
 20
35.6177076735
 10
-52.5809139922
 20
35.6431047188
 10
-52.527981696
 20
35.6671362191
 10
-52.4745251975
 20
35.6897633551
 10
-52.4205442308
 20
35.7109836257
 10
-52.3660390619
 20
35.7307995863
 10
-52.3111130605
 20
35.7491800013
 10
-52.2557650096
 20
35.7661226723
 10
-52.1999961263
 20
35.7816298426
 10
-52.1439134312
 20
35.795676938
 10
-52.087519558
 20
35.8082611328
 10
-52.0308118731
 20
35.819385287
 10
-51.973889496
 20
35.8290333528
 10
-51.9167396741
 20
35.837203681
 10
-51.85937516
 20
35.8438979442
 10
-51.8019333308
 20
35.8491050739
 10
-51.7444599786
 20
35.852821385
 10
-51.6869093112
 20
35.8550505744
 10
-51.6292813286
 20
35.8557926453
  0
LINE
  5
27C
100
AcDbEntity
  8
0
100
AcDbLine
 62
253
  6
CONTINUOUS
 10
-51.6292815281
 20
41.0
 11
-51.6292815281
 21
35.8557926453
  0
LINE
  5
27D
100
AcDbEntity
  8
0
100
AcDbLine
 62
253
  6
CONTINUOUS
 10
-51.6292815281
 20
-41.0
 11
-51.6292815281
 21
-35.8557926453
  0
LWPOLYLINE
  5
27E
100
AcDbEntity
  8
RACCORDO
100
AcDbPolyline
 62
253
  6
CONTINUOUS
 90
43
 70
0
 10
-37.7926352994
 20
22.4700982102
 10
-37.7918761082
 20
22.4714235277
 10
-37.7915058724
 20
22.4720625559
 10
-37.7911413331
 20
22.4726839692
 10
-37.7907824438
 20
22.4732876516
 10
-37.790429251
 20
22.4738737192
 10
-37.7900813436
 20
22.474440591
 10
-37.7897387048
 20
22.4749881316
 10
-37.7894013514
 20
22.4755164764
 10
-37.7890689226
 20
22.4760244507
 10
-37.7887414217
 20
22.4765119186
 10
-37.7884188454
 20
22.476979016
 10
-37.7881008227
 20
22.4774249749
 10
-37.7877873448
 20
22.4778497068
 10
-37.7874784206
 20
22.4782533003
 10
-37.7871737058
 20
22.4786352533
 10
-37.7868731944
 20
22.4789954964
 10
-37.7865768924
 20
22.4793340989
 10
-37.7862844742
 20
22.4796507674
 10
-37.7859959342
 20
22.479945452
 10
-37.785711278
 20
22.4802182026
 10
-37.7854301964
 20
22.4804688753
 10
-37.7851526759
 20
22.4806974411
 10
-37.7848787301
 20
22.4809039292
 10
-37.7846080903
 20
22.4810882829
 10
-37.7843407458
 20
22.4812504776
 10
-37.7840767072
 20
22.481390538
 10
-37.7838157376
 20
22.4815084821
 10
-37.7835578348
 20
22.4816042903
 10
-37.783303001
 20
22.4816779823
 10
-37.7830510059
 20
22.4817296351
 10
-37.7828018436
 20
22.4817592399
 10
-37.7825555201
 20
22.4817668056
 10
-37.7823118232
 20
22.4817524363
 10
-37.7820707437
 20
22.4817161274
 10
-37.7818322909
 20
22.4816578835
 10
-37.7815962793
 20
22.4815778234
 10
-37.7813627048
 20
22.4814759447
 10
-37.7811315715
 20
22.4813522497
 10
-37.7809027069
 20
22.4812068643
 10
-37.7806760534
 20
22.4810398306
 10
-37.7804516685
 20
22.4808511064
 10
-37.7802295522
 20
22.4806406918
  0
LINE
  5
27F
100
AcDbEntity
  8
RACCORDO
100
AcDbLine
 62
253
  6
CONTINUOUS
 10
-37.7918269472
 20
-22.4717805897
 11
-37.7925509829
 21
-22.4703585167
  0
LWPOLYLINE
  5
280
100
AcDbEntity
  8
RACCORDO
100
AcDbPolyline
 62
253
  6
CONTINUOUS
 90
62
 70
0
 10
-37.7970202407
 20
-22.4613096781
 10
-37.7974742359
 20
-22.4604127272
 10
-37.7979373051
 20
-22.4595090052
 10
-37.7984095681
 20
-22.4585989409
 10
-37.7988923387
 20
-22.457688571
 10
-37.7993856678
 20
-22.456776918
 10
-37.7998895047
 20
-22.4558649594
 10
-37.8004050103
 20
-22.454961665
 10
-37.8009317784
 20
-22.4540664356
 10
-37.8014702154
 20
-22.4531798704
 10
-37.8020227015
 20
-22.4523127364
 10
-37.8025893594
 20
-22.4514629678
 10
-37.8031700665
 20
-22.4506326305
 10
-37.8037668348
 20
-22.4498386897
 10
-37.8043812692
 20
-22.44907774
 10
-37.8050117648
 20
-22.4483531867
 10
-37.8056555188
 20
-22.4476922112
 10
-37.8063150054
 20
-22.4470942459
 10
-37.8069877504
 20
-22.4465598584
 10
-37.8076635276
 20
-22.446117933
 10
-37.8083432638
 20
-22.4457740573
 10
-37.8090260323
 20
-22.4455226438
 10
-37.8096988268
 20
-22.4453758137
 10
-37.8103591354
 20
-22.4453400903
 10
-37.8110094701
 20
-22.4454089502
 10
-37.8116443602
 20
-22.4455749448
 10
-37.8122615619
 20
-22.4458393531
 10
-37.8128633189
 20
-22.446200896
 10
-37.8134508921
 20
-22.4466482878
 10
-37.8140239505
 20
-22.4471806244
 10
-37.8145828251
 20
-22.4477988098
 10
-37.8151297694
 20
-22.4484942696
 10
-37.8156650828
 20
-22.4492665853
 10
-37.8161884657
 20
-22.4501161754
 10
-37.8167012736
 20
-22.4510357204
 10
-37.8172036085
 20
-22.4520248893
 10
-37.8176953683
 20
-22.453084013
 10
-37.8181776021
 20
-22.4542067645
 10
-37.8186503422
 20
-22.4553927654
 10
-37.8191135564
 20
-22.4566423942
 10
-37.8195681974
 20
-22.4579504588
 10
-37.8200143475
 20
-22.4593168184
 10
-37.8204519245
 20
-22.460741614
 10
-37.8208816337
 20
-22.4622200768
 10
-37.8213035041
 20
-22.4637520067
 10
-37.8217175068
 20
-22.4653376038
 10
-37.8221242606
 20
-22.4669727005
 10
-37.8225237896
 20
-22.4686571227
 10
-37.8229160698
 20
-22.4703910445
 10
-37.8233016474
 20
-22.4721708204
 10
-37.8236805423
 20
-22.4739962956
 10
-37.8240527346
 20
-22.4758676249
 10
-37.8244187109
 20
-22.4777816273
 10
-37.8247784806
 20
-22.4797381157
 10
-37.8251320342
 20
-22.4817372772
 10
-37.8254798298
 20
-22.4837764912
 10
-37.825821891
 20
-22.4858556796
 10
-37.8261581943
 20
-22.4879749205
 10
-37.8264891274
 20
-22.4901318277
 10
-37.8268147012
 20
-22.4923262792
 10
-37.8271349048
 20
-22.4945583971
 10
-37.8277602865
 20
-22.4991295369
  0
LINE
  5
281
100
AcDbEntity
  8
RACCORDO
100
AcDbLine
 62
253
  6
CONTINUOUS
 10
-37.7925509829
 20
-22.4703585167
 11
-37.793299612
 21
-22.4688584851
  0
LINE
  5
282
100
AcDbEntity
  8
RACCORDO
100
AcDbLine
 62
253
  6
CONTINUOUS
 10
-37.7961388766
 20
-22.4630798024
 11
-37.7970202407
 21
-22.4613096781
  0
LINE
  5
283
100
AcDbEntity
  8
RACCORDO
100
AcDbLine
 62
253
  6
CONTINUOUS
 10
-37.793299612
 20
-22.4688584851
 11
-37.7961388766
 21
-22.4630798024
  0
LWPOLYLINE
  5
284
100
AcDbEntity
  8
RACCORDO
100
AcDbPolyline
 62
253
  6
CONTINUOUS
 90
46
 70
0
 10
-37.8379631272
 20
-22.6375329197
 10
-37.8365905073
 20
-22.6524913975
 10
-37.834411421
 20
-22.6674331855
 10
-37.831428385
 20
-22.6823410044
 10
-37.8276448511
 20
-22.6971977858
 10
-37.8230651842
 20
-22.7119861776
 10
-37.8176946599
 20
-22.7266885681
 10
-37.8115394812
 20
-22.7412878022
 10
-37.8046067688
 20
-22.7557671623
 10
-37.7969045355
 20
-22.7701098765
 10
-37.7884416851
 20
-22.7842993596
 10
-37.7792280005
 20
-22.7983192135
 10
-37.7692741317
 20
-22.8121532126
 10
-37.7585915853
 20
-22.8257853616
 10
-37.7471927103
 20
-22.8391999054
 10
-37.7350906831
 20
-22.8523813288
 10
-37.7222994937
 20
-22.8653143939
 10
-37.7088339285
 20
-22.8779841509
 10
-37.6947095532
 20
-22.890375947
 10
-37.6799426955
 20
-22.9024754598
 10
-37.6645504256
 20
-22.9142687005
 10
-37.6485505362
 20
-22.9257420233
 10
-37.631961523
 20
-22.9368821649
 10
-37.6148025627
 20
-22.9476762484
 10
-37.5970934903
 20
-22.9581117853
 10
-37.5788547772
 20
-22.9681767091
 10
-37.5601075073
 20
-22.9778593887
 10
-37.5408733521
 20
-22.9871486308
 10
-37.5211745459
 20
-22.9960336941
 10
-37.5010338604
 20
-23.0045043112
 10
-37.4804745785
 20
-23.0125506998
 10
-37.4595204662
 20
-23.0201635559
 10
-37.4381957463
 20
-23.0273340818
 10
-37.4165250707
 20
-23.0340540065
 10
-37.3945334904
 20
-23.0403155618
 10
-37.3722464274
 20
-23.0461115094
 10
-37.3496896459
 20
-23.0514351671
 10
-37.3268892214
 20
-23.0562803829
 10
-37.3038715108
 20
-23.0606415537
 10
-37.2806631227
 20
-23.0645136497
 10
-37.2572908871
 20
-23.0678921983
 10
-37.2337818206
 20
-23.070773291
 10
-37.210163096
 20
-23.0731535983
 10
-37.186462015
 20
-23.075030369
 10
-37.162705977
 20
-23.0764014337
 10
-37.1389224435
 20
-23.0772652074
  0
LINE
  5
285
100
AcDbEntity
  8
RACCORDO
100
AcDbLine
 62
253
  6
CONTINUOUS
 10
-38.6724335119
 20
-29.3591342394
 11
-38.6592434934
 21
-32.2156939465
  0
LINE
  5
286
100
AcDbEntity
  8
RACCORDO
100
AcDbLine
 62
253
  6
CONTINUOUS
 10
-38.6843989881
 20
-26.5006050254
 11
-38.6724335119
 21
-29.3591342394
  0
LINE
  5
287
100
AcDbEntity
  8
RACCORDO
100
AcDbLine
 62
253
  6
CONTINUOUS
 10
-38.6951396453
 20
-23.6402983363
 11
-38.6843989881
 21
-26.5006050254
  0
LINE
  5
288
100
AcDbEntity
  8
RACCORDO
100
AcDbLine
 62
253
  6
CONTINUOUS
 10
-38.7046545315
 20
-20.7784067493
 11
-38.6951396453
 21
-23.6402983363
  0
LINE
  5
289
100
AcDbEntity
  8
RACCORDO
100
AcDbLine
 62
253
  6
CONTINUOUS
 10
-38.7129429671
 20
-17.9151221611
 11
-38.7046545315
 21
-20.7784067493
  0
LINE
  5
28A
100
AcDbEntity
  8
RACCORDO
100
AcDbLine
 62
253
  6
CONTINUOUS
 10
-38.7200045361
 20
-15.0506366664
 11
-38.7129429671
 21
-17.9151221611
  0
LINE
  5
28B
100
AcDbEntity
  8
RACCORDO
100
AcDbLine
 62
253
  6
CONTINUOUS
 10
-38.7258386702
 20
-12.1851423318
 11
-38.7200045361
 21
-15.0506366664
  0
LINE
  5
28C
100
AcDbEntity
  8
RACCORDO
100
AcDbLine
 62
253
  6
CONTINUOUS
 10
-38.7304449697
 20
-9.3188311438
 11
-38.7258386702
 21
-12.1851423318
  0
LINE
  5
28D
100
AcDbEntity
  8
RACCORDO
100
AcDbLine
 62
253
  6
CONTINUOUS
 10
-38.7338232042
 20
-6.4518952834
 11
-38.7304449697
 21
-9.3188311438
  0
LINE
  5
28E
100
AcDbEntity
  8
RACCORDO
100
AcDbLine
 62
253
  6
CONTINUOUS
 10
-38.7359730822
 20
-3.5845268371
 11
-38.7338232042
 21
-6.4518952834
  0
LINE
  5
28F
100
AcDbEntity
  8
RACCORDO
100
AcDbLine
 62
253
  6
CONTINUOUS
 10
-38.7368944805
 20
-0.7169180164
 11
-38.7359730822
 21
-3.5845268371
  0
LINE
  5
290
100
AcDbEntity
  8
RACCORDO
100
AcDbLine
 62
253
  6
CONTINUOUS
 10
-38.7365873533
 20
2.150738853
 11
-38.7368944805
 21
-0.7169180164
  0
LINE
  5
291
100
AcDbEntity
  8
RACCORDO
100
AcDbLine
 62
253
  6
CONTINUOUS
 10
-38.7350516851
 20
5.0182514975
 11
-38.7365873533
 21
2.150738853
  0
LINE
  5
292
100
AcDbEntity
  8
RACCORDO
100
AcDbLine
 62
253
  6
CONTINUOUS
 10
-38.7322876296
 20
7.8854277095
 11
-38.7350516851
 21
5.0182514975
  0
LINE
  5
293
100
AcDbEntity
  8
RACCORDO
100
AcDbLine
 62
253
  6
CONTINUOUS
 10
-38.7282953249
 20
10.7520752291
 11
-38.7322876296
 21
7.8854277095
  0
LINE
  5
294
100
AcDbEntity
  8
RACCORDO
100
AcDbLine
 62
253
  6
CONTINUOUS
 10
-38.7230750319
 20
13.6180019826
 11
-38.7282953249
 21
10.7520752291
  0
LINE
  5
295
100
AcDbEntity
  8
RACCORDO
100
AcDbLine
 62
253
  6
CONTINUOUS
 10
-38.716627181
 20
16.4830159414
 11
-38.7230750319
 21
13.6180019826
  0
LINE
  5
296
100
AcDbEntity
  8
RACCORDO
100
AcDbLine
 62
253
  6
CONTINUOUS
 10
-38.7089520951
 20
19.346924971
 11
-38.716627181
 21
16.4830159414
  0
LINE
  5
297
100
AcDbEntity
  8
RACCORDO
100
AcDbLine
 62
253
  6
CONTINUOUS
 10
-38.7000503113
 20
22.2095370665
 11
-38.7089520951
 21
19.346924971
  0
LINE
  5
298
100
AcDbEntity
  8
RACCORDO
100
AcDbLine
 62
253
  6
CONTINUOUS
 10
-38.6899225405
 20
25.0706601543
 11
-38.7000503113
 21
22.2095370665
  0
LINE
  5
299
100
AcDbEntity
  8
RACCORDO
100
AcDbLine
 62
253
  6
CONTINUOUS
 10
-38.6785692899
 20
27.9301022483
 11
-38.6899225405
 21
25.0706601543
  0
LWPOLYLINE
  5
29A
100
AcDbEntity
  8
RACCORDO
100
AcDbPolyline
 62
253
  6
CONTINUOUS
 90
3
 70
0
 10
-38.6592434939
 20
32.2156939465
 10
-38.6659915853
 20
30.7876715544
 10
-38.6785692899
 20
27.9301022483
  0
LWPOLYLINE
  5
29B
100
AcDbEntity
  8
RACCORDO
100
AcDbPolyline
 62
253
  6
CONTINUOUS
 90
46
 70
0
 10
-37.8383082645
 20
22.6616839026
 10
-37.8369202045
 20
22.6762434854
 10
-37.8347264066
 20
22.6907865908
 10
-37.8317294019
 20
22.7052964188
 10
-37.8279326524
 20
22.7197563253
 10
-37.8233405369
 20
22.7341494891
 10
-37.8179583487
 20
22.7484589346
 10
-37.8117923016
 20
22.7626680204
 10
-37.8048495201
 20
22.7767604521
 10
-37.7971380227
 20
22.7907199499
 10
-37.7886667156
 20
22.8045303889
 10
-37.779445383
 20
22.818175822
 10
-37.7694846752
 20
22.8316404942
 10
-37.7587960963
 20
22.8449088535
 10
-37.7473919913
 20
22.8579655771
 10
-37.7352855316
 20
22.8707955939
 10
-37.7224906997
 20
22.8833840878
 10
-37.7090222729
 20
22.895716518
 10
-37.6948958068
 20
22.9077786434
 10
-37.6801276167
 20
22.9195565337
 10
-37.6647347592
 20
22.9310365854
 10
-37.6487350122
 20
22.9422055398
 10
-37.6321468547
 20
22.9530504967
 10
-37.6149894453
 20
22.9635589315
 10
-37.5972826
 20
22.9737187097
 10
-37.5790467693
 20
22.9835180969
 10
-37.5603030148
 20
22.9929457757
 10
-37.5410729848
 20
23.001990861
 10
-37.5213788889
 20
23.0106429066
 10
-37.501243473
 20
23.0188919193
 10
-37.4806899925
 20
23.0267283742
 10
-37.4597421858
 20
23.034143221
 10
-37.4384242464
 20
23.0411278954
 10
-37.4167607957
 20
23.0476743317
 10
-37.3947768539
 20
23.0537749688
 10
-37.3724978114
 20
23.0594227609
 10
-37.3499493994
 20
23.0646111872
 10
-37.3271576603
 20
23.0693342546
 10
-37.3041489175
 20
23.0735865088
 10
-37.280949745
 20
23.0773630422
 10
-37.2575869371
 20
23.0806594923
 10
-37.2340874763
 20
23.0834720525
 10
-37.2104785029
 20
23.0857974799
 10
-37.1867872839
 20
23.0876330903
 10
-37.1630411818
 20
23.0889767619
 10
-37.139267622
 20
23.0898269428
  0
LWPOLYLINE
  5
29C
100
AcDbEntity
  8
RACCORDO
100
AcDbPolyline
 62
253
  6
CONTINUOUS
 90
43
 70
0
 10
-37.8932396807
 20
24.4161288327
 10
-37.8915671414
 20
24.4264636428
 10
-37.8889777538
 20
24.4367848654
 10
-37.8854749223
 20
24.4470789309
 10
-37.8810632522
 20
24.4573323055
 10
-37.8757485437
 20
24.4675315087
 10
-37.869537784
 20
24.4776631315
 10
-37.8624391387
 20
24.4877138535
 10
-37.8544619405
 20
24.4976704608
 10
-37.8456166774
 20
24.5075198631
 10
-37.8359149784
 20
24.5172491112
 10
-37.8253695985
 20
24.5268454138
 10
-37.8139944022
 20
24.5362961543
 10
-37.8018043446
 20
24.5455889077
 10
-37.7888154524
 20
24.5547114565
 10
-37.7750448023
 20
24.5636518071
 10
-37.7605104992
 20
24.5723982053
 10
-37.7452316515
 20
24.5809391521
 10
-37.7292283467
 20
24.5892634184
 10
-37.712521625
 20
24.5973600601
 10
-37.695133451
 20
24.6052184323
 10
-37.6770866853
 20
24.6128282035
 10
-37.6584050547
 20
24.6201793688
 10
-37.6391131203
 20
24.6272622636
 10
-37.6192362457
 20
24.6340675757
 10
-37.5988005635
 20
24.640586358
 10
-37.5778329412
 20
24.6468100401
 10
-37.5563609453
 20
24.6527304396
 10
-37.5344128057
 20
24.6583397728
 10
-37.5120173782
 20
24.6636306649
 10
-37.4892041066
 20
24.6685961599
 10
-37.4660029842
 20
24.6732297295
 10
-37.442444514
 20
24.6775252818
 10
-37.4185596689
 20
24.6814771693
 10
-37.3943798511
 20
24.6850801965
 10
-37.3699368503
 20
24.6883296263
 10
-37.3452628024
 20
24.6912211866
 10
-37.3203901471
 20
24.6937510758
 10
-37.2953515849
 20
24.6959159678
 10
-37.2701800349
 20
24.6977130164
 10
-37.2449085906
 20
24.6991398589
 10
-37.2195704771
 20
24.7001946194
 10
-37.1941990072
 20
24.7008759112
  0
LWPOLYLINE
  5
29D
100
AcDbEntity
  8
RACCORDO
100
AcDbPolyline
 62
253
  6
CONTINUOUS
 90
18
 70
0
 10
-37.4546859418
 20
22.8007194725
 10
-37.4588544167
 20
22.7982398119
 10
-37.462609804
 20
22.7959795755
 10
-37.4659529154
 20
22.7939256653
 10
-37.4688829392
 20
22.7920653754
 10
-37.47146344
 20
22.7903834595
 10
-37.4736956232
 20
22.7888685157
 10
-37.4755782834
 20
22.7875093945
 10
-37.4771713697
 20
22.7862929519
 10
-37.478476411
 20
22.7852089463
 10
-37.4794918784
 20
22.7842482624
 10
-37.4802731346
 20
22.7834007732
 10
-37.4808205695
 20
22.7826574632
 10
-37.4811337931
 20
22.7820103839
 10
-37.4812669979
 20
22.7814516702
 10
-37.481238248
 20
22.7809735838
 10
-37.4810294793
 20
22.7805685902
 10
-37.4806406918
 20
22.7802295522
  0
LINE
  5
29E
100
AcDbEntity
  8
0
100
AcDbLine
 62
7
  6
CONTINUOUS
 10
-51.6292815281
 20
-41.0
 11
51.6292815281
 21
-41.0
  0
LINE
  5
29F
100
AcDbEntity
  8
0
100
AcDbLine
 62
253
  6
CONTINUOUS
 10
51.6292815281
 20
-40.7622148997
 11
-51.6292815281
 21
-40.7622148997
  0
LWPOLYLINE
  5
2A0
100
AcDbEntity
  8
0
100
AcDbPolyline
 62
253
  6
CONTINUOUS
 90
79
 70
0
 10
-51.6292815281
 20
-40.7622148997
 10
-51.7741136856
 20
-40.7608592138
 10
-51.9188961087
 20
-40.756792646
 10
-52.0635778979
 20
-40.7500165688
 10
-52.2081078948
 20
-40.7405333191
 10
-52.3524355785
 20
-40.7283461912
 10
-52.4965110821
 20
-40.7134593811
 10
-52.6402839567
 20
-40.6958780004
 10
-52.7837034363
 20
-40.6756081871
 10
-52.9267193361
 20
-40.6526570445
 10
-53.0692812563
 20
-40.6270325754
 10
-53.2113391751
 20
-40.5987437117
 10
-53.3528437141
 20
-40.5678003229
 10
-53.4937450052
 20
-40.5342132116
 10
-53.633993598
 20
-40.4979940926
 10
-53.7735410524
 20
-40.4591555247
 10
-53.912338318
 20
-40.41771102
 10
-54.0503365287
 20
-40.373675057
 10
-54.1874879052
 20
-40.3270629347
 10
-54.3237442254
 20
-40.2778908735
 10
-54.4590575037
 20
-40.2261760489
 10
-54.5933807777
 20
-40.1719364731
 10
-54.7266667862
 20
-40.11519104
 10
-54.8588685955
 20
-40.0559595667
 10
-54.9899402732
 20
-39.9942627123
 10
-55.1198356555
 20
-39.9301219968
 10
-55.2485090212
 20
-39.8635598119
 10
-55.3759157135
 20
-39.7945993536
 10
-55.5020108809
 20
-39.7232646617
 10
-55.6267500826
 20
-39.649580664
 10
-55.7500899607
 20
-39.5735730838
 10
-55.8719870562
 20
-39.4952684437
 10
-55.9923984131
 20
-39.4146941021
 10
-56.1112821806
 20
-39.3318781936
 10
-56.2285964756
 20
-39.2468496103
 10
-56.3442999133
 20
-39.1596380845
 10
-56.4583522128
 20
-39.0702741294
 10
-56.5707131472
 20
-38.9787889604
 10
-56.6813430912
 20
-38.8852145561
 10
-56.7902035551
 20
-38.7895836486
 10
-56.8972561523
 20
-38.6919296285
 10
-57.0024630807
 20
-38.5922866664
 10
-57.1057876787
 20
-38.4906896886
 10
-57.2071934671
 20
-38.3871742138
 10
-57.306644649
 20
-38.281776449
 10
-57.4041065995
 20
-38.1745333249
 10
-57.4995449179
 20
-38.0654823154
 10
-57.5929258649
 20
-37.9546616062
 10
-57.6842168789
 20
-37.8421101124
 10
-57.7733856968
 20
-37.7278672107
 10
-57.8604008041
 20
-37.6119728882
 10
-57.9452318887
 20
-37.4944678332
 10
-58.0278489719
 20
-37.3753931407
 10
-58.1082228151
 20
-37.2547905293
 10
-58.1863253945
 20
-37.1327024169
 10
-58.2621290672
 20
-37.009171561
 10
-58.3356070169
 20
-36.8842412121
 10
-58.4067336837
 20
-36.7579552556
 10
-58.4754839035
 20
-36.6303578737
 10
-58.5418333015
 20
-36.5014938068
 10
-58.6057587695
 20
-36.3714084376
 10
-58.667237663
 20
-36.2401473185
 10
-58.7262481803
 20
-36.10775646
 10
-58.7827697904
 20
-35.9742825218
 10
-58.8367824474
 20
-35.8397722711
 10
-58.8882669876
 20
-35.7042728534
 10
-58.9372055503
 20
-35.5678320108
 10
-58.9835807509
 20
-35.4304976036
 10
-59.027376125
 20
-35.2923177324
 10
-59.068576558
 20
-35.1533409371
 10
-59.1071674144
 20
-35.0136158121
 10
-59.1431349236
 20
-34.8731914612
 10
-59.1764666703
 20
-34.7321175499
 10
-59.2071507746
 20
-34.5904436294
 10
-59.2351762943
 20
-34.4482192818
 10
-59.2605336435
 20
-34.3054945022
 10
-59.2832138914
 20
-34.1623193666
 10
-59.3032087583
 20
-34.0187440414
 10
-59.3205110488
 20
-33.8748188837
  0
LWPOLYLINE
  5
2A1
100
AcDbEntity
  8
RACCORDO
100
AcDbPolyline
 62
7
  6
CONTINUOUS
 90
15
 70
0
 10
-37.7753592853
 20
-8.5173506069
 10
-37.7752727988
 20
-8.5177174151
 10
-37.7751970012
 20
-8.5180477402
 10
-37.7752116657
 20
-8.5179801123
 10
-37.7753019342
 20
-8.5175541976
 10
-37.7754629388
 20
-8.5167681302
 10
-37.7756914086
 20
-8.5156134073
 10
-37.7759768057
 20
-8.5141207813
 10
-37.7763157178
 20
-8.5122878524
 10
-37.7767056762
 20
-8.5101079808
 10
-37.7771388782
 20
-8.5076063767
 10
-37.7776127727
 20
-8.5047811409
 10
-37.7781255849
 20
-8.5016264387
 10
-37.7786716154
 20
-8.498162002
 10
-37.7792485845
 20
-8.4943882869
  0
LWPOLYLINE
  5
2A2
100
AcDbEntity
  8
RACCORDO
100
AcDbPolyline
 62
253
  6
CONTINUOUS
 90
43
 70
0
 10
-37.89361826
 20
-24.3127971916
 10
-37.891962583
 20
-24.3238696673
 10
-37.8893891903
 20
-24.3349275723
 10
-37.8859014685
 20
-24.3459563553
 10
-37.8815040073
 20
-24.3569415028
 10
-37.8762025932
 20
-24.3678685592
 10
-37.8700042028
 20
-24.3787231452
 10
-37.8629169927
 20
-24.3894909767
 10
-37.8549502893
 20
-24.400157884
 10
-37.8461145761
 20
-24.4107098301
 10
-37.8364214806
 20
-24.4211329293
 10
-37.8258837581
 20
-24.4314134654
 10
-37.8145152756
 20
-24.4415379098
 10
-37.8023309935
 20
-24.4514929395
 10
-37.7893469454
 20
-24.4612654542
 10
-37.7755802175
 20
-24.4708425938
 10
-37.7610489261
 20
-24.4802117556
 10
-37.7457721933
 20
-24.4893606102
 10
-37.7297701225
 20
-24.4982771183
 10
-37.7130637712
 20
-24.5069495463
 10
-37.6956751242
 20
-24.5153664818
 10
-37.6776270637
 20
-24.5235168488
 10
-37.6589433398
 20
-24.5313899217
 10
-37.6396485393
 20
-24.5389753402
 10
-37.6197680528
 20
-24.5462631222
 10
-37.5993280418
 20
-24.5532436776
 10
-37.5783554041
 20
-24.5599078202
 10
-37.5568777384
 20
-24.5662467806
 10
-37.5349233081
 20
-24.5722522171
 10
-37.5125210036
 20
-24.5779162268
 10
-37.4897003052
 20
-24.5832313562
 10
-37.4664912433
 20
-24.5881906111
 10
-37.4429243598
 20
-24.5927874653
 10
-37.4190306671
 20
-24.5970158696
 10
-37.3948416078
 20
-24.6008702597
 10
-37.3703890133
 20
-24.6043455634
 10
-37.3457050617
 20
-24.6074372076
 10
-37.3208222355
 20
-24.6101411237
 10
-37.2957732789
 20
-24.6124537536
 10
-37.2705911548
 20
-24.614372054
 10
-37.2453090014
 20
-24.6158935006
 10
-37.2199600884
 20
-24.6170160911
 10
-37.1945777733
 20
-24.6177383484
  0
LINE
  5
2A3
100
AcDbEntity
  8
RACCORDO
100
AcDbLine
 62
253
  6
CONTINUOUS
 10
-37.8297319521
 20
22.5301884042
 11
-37.8291531891
 21
22.5248297066
  0
LINE
  5
2A4
100
AcDbEntity
  8
RACCORDO
100
AcDbLine
 62
7
  6
CONTINUOUS
 10
-37.7872008862
 20
-8.4317836785
 11
-37.7888955669
 21
-8.4160060752
  0
LINE
  5
2A5
100
AcDbEntity
  8
RACCORDO
100
AcDbLine
 62
253
  6
CONTINUOUS
 10
-37.8302931639
 20
22.5356738828
 11
-37.8297319521
 21
22.5301884042
  0
LINE
  5
2A6
100
AcDbEntity
  8
RACCORDO
100
AcDbLine
 62
7
  6
CONTINUOUS
 10
-37.7888955669
 20
-8.4160060752
 11
-37.7906484156
 21
-8.3987886614
  0
LINE
  5
2A7
100
AcDbEntity
  8
RACCORDO
100
AcDbLine
 62
253
  6
CONTINUOUS
 10
-37.8308379819
 20
22.541286726
 11
-37.8302931639
 21
22.5356738828
  0
LINE
  5
2A8
100
AcDbEntity
  8
RACCORDO
100
AcDbLine
 62
7
  6
CONTINUOUS
 10
-37.7906484156
 20
-8.3987886614
 11
-37.7924521808
 21
-8.3801032245
  0
LINE
  5
2A9
100
AcDbEntity
  8
RACCORDO
100
AcDbLine
 62
253
  6
CONTINUOUS
 10
-37.831366998
 20
22.5470241114
 11
-37.8308379819
 21
22.541286726
  0
LINE
  5
2AA
100
AcDbEntity
  8
RACCORDO
100
AcDbLine
 62
7
  6
CONTINUOUS
 10
-37.7924521808
 20
-8.3801032245
 11
-37.7942986967
 21
-8.3599366631
  0
LINE
  5
2AB
100
AcDbEntity
  8
RACCORDO
100
AcDbLine
 62
7
  6
CONTINUOUS
 10
-37.7942986967
 20
-8.3599366631
 11
-37.7961805337
 21
-8.3382773036
  0
LINE
  5
2AC
100
AcDbEntity
  8
RACCORDO
100
AcDbLine
 62
253
  6
CONTINUOUS
 10
-37.8321313445
 20
22.5558532044
 11
-37.831366998
 21
22.5470241114
  0
LWPOLYLINE
  5
2AD
100
AcDbEntity
  8
RACCORDO
100
AcDbPolyline
 62
253
  6
CONTINUOUS
 90
3
 70
0
 10
-38.0683977531
 20
26.9616819863
 10
-38.0324626748
 20
26.5393038907
 10
-37.9944213719
 20
26.0991954704
  0
LWPOLYLINE
  5
2AE
100
AcDbEntity
  8
RACCORDO
100
AcDbPolyline
 62
253
  6
CONTINUOUS
 90
14
 70
0
 10
-37.9944213719
 20
26.0991954704
 10
-37.9702463606
 20
25.8126949751
 10
-37.9590553513
 20
25.6745892745
 10
-37.9485869952
 20
25.5396342985
 10
-37.9389265397
 20
25.4088149725
 10
-37.9301579206
 20
25.282384494
 10
-37.9223111824
 20
25.160018687
 10
-37.9153822906
 20
25.04182466
 10
-37.909397504
 20
24.9279197651
 10
-37.904359517
 20
24.8181239242
 10
-37.9002335743
 20
24.7121011874
 10
-37.8970091609
 20
24.6097230788
 10
-37.8946851548
 20
24.5110716361
 10
-37.8932395673
 20
24.4161288327
  0
LINE
  5
2AF
100
AcDbEntity
  8
RACCORDO
100
AcDbLine
 62
7
  6
CONTINUOUS
 10
-37.7961805337
 20
-8.3382773036
 11
-37.7990553248
 21
-8.3029538972
  0
LINE
  5
2B0
100
AcDbEntity
  8
RACCORDO
100
AcDbLine
 62
253
  6
CONTINUOUS
 10
-37.8328607785
 20
22.5649240475
 11
-37.8321313445
 21
22.5558532044
  0
LINE
  5
2B1
100
AcDbEntity
  8
RACCORDO
100
AcDbLine
 62
253
  6
CONTINUOUS
 10
-37.7969576727
 20
-8.3577896446
 11
-37.8014021108
 21
-8.2996245317
  0
LINE
  5
2B2
100
AcDbEntity
  8
RACCORDO
100
AcDbLine
 62
7
  6
CONTINUOUS
 10
-37.7990553248
 20
-8.3029538972
 11
-37.8019736238
 21
-8.264189898
  0
LINE
  5
2B3
100
AcDbEntity
  8
RACCORDO
100
AcDbLine
 62
253
  6
CONTINUOUS
 10
-37.8335555651
 20
22.5742084071
 11
-37.8328607785
 21
22.5649240475
  0
LINE
  5
2B4
100
AcDbEntity
  8
RACCORDO
100
AcDbLine
 62
253
  6
CONTINUOUS
 10
-37.8342163597
 20
22.5836815732
 11
-37.8335555651
 21
22.5742084071
  0
LINE
  5
2B5
100
AcDbEntity
  8
RACCORDO
100
AcDbLine
 62
7
  6
CONTINUOUS
 10
-37.8019736238
 20
-8.264189898
 11
-37.8049179549
 21
-8.2219195931
  0
LINE
  5
2B6
100
AcDbEntity
  8
RACCORDO
100
AcDbLine
 62
253
  6
CONTINUOUS
 10
-37.8014021108
 20
-8.2996245317
 11
-37.80568518
 21
-8.2371548286
  0
LWPOLYLINE
  5
2B7
100
AcDbEntity
  8
RACCORDO
100
AcDbPolyline
 62
253
  6
CONTINUOUS
 90
36
 70
0
 10
-37.139267629
 20
23.0898268366
 10
-37.1389626279
 20
23.0849883798
 10
-37.1389348569
 20
23.0799707027
 10
-37.139184316
 20
23.0747780982
 10
-37.1396811288
 20
23.0694222748
 10
-37.1404551717
 20
23.0639007517
 10
-37.1415960736
 20
23.0581974022
 10
-37.1431078481
 20
23.0523081475
 10
-37.1449864816
 20
23.0462492751
 10
-37.1473095621
 20
23.0400359499
 10
-37.1500855935
 20
23.0336751917
 10
-37.1533060719
 20
23.0271735609
 10
-37.1570230744
 20
23.020545573
 10
-37.1612469139
 20
23.0138004728
 10
-37.1659672774
 20
23.0069441393
 10
-37.1712053029
 20
22.9999862635
 10
-37.1769660551
 20
22.9929426613
 10
-37.1832444691
 20
22.9858144725
 10
-37.1900464887
 20
22.9785907459
 10
-37.1973635735
 20
22.9712982749
 10
-37.2052042637
 20
22.9639310961
 10
-37.2136001239
 20
22.956434167
 10
-37.2225596327
 20
22.9488244768
 10
-37.2320743115
 20
22.9411169722
 10
-37.2421502891
 20
22.9332624494
 10
-37.2528639446
 20
22.9252412503
 10
-37.2641388989
 20
22.9171218409
 10
-37.2757521433
 20
22.9089886157
 10
-37.2876920502
 20
22.9008817257
 10
-37.2999702473
 20
22.8928039598
 10
-37.3123986089
 20
22.8847801472
 10
-37.3251257013
 20
22.8767336965
 10
-37.3380029583
 20
22.868798191
 10
-37.3503965554
 20
22.8612796785
 10
-37.3621682725
 20
22.8542203351
 10
-37.3734563298
 20
22.8475545875
  0
LINE
  5
2B8
100
AcDbEntity
  8
RACCORDO
100
AcDbLine
 62
7
  6
CONTINUOUS
 10
-37.8049179549
 20
-8.2219195931
 11
-37.8078705648
 21
-8.1760892314
  0
LINE
  5
2B9
100
AcDbEntity
  8
RACCORDO
100
AcDbLine
 62
253
  6
CONTINUOUS
 10
-37.8350465241
 20
22.5965760683
 11
-37.8342163597
 21
22.5836815732
  0
LINE
  5
2BA
100
AcDbEntity
  8
RACCORDO
100
AcDbLine
 62
253
  6
CONTINUOUS
 10
-37.80568518
 20
-8.2371548286
 11
-37.8097925919
 21
-8.1705973887
  0
LINE
  5
2BB
100
AcDbEntity
  8
RACCORDO
100
AcDbLine
 62
7
  6
CONTINUOUS
 10
-37.8078705648
 20
-8.1760892314
 11
-37.8108152985
 21
-8.1266463036
  0
LINE
  5
2BC
100
AcDbEntity
  8
RACCORDO
100
AcDbLine
 62
253
  6
CONTINUOUS
 10
-37.835821201
 20
22.6097368974
 11
-37.8350465241
 21
22.5965760683
  0
LINE
  5
2BD
100
AcDbEntity
  8
RACCORDO
100
AcDbLine
 62
253
  6
CONTINUOUS
 10
-37.8097925919
 20
-8.1705973887
 11
-37.8137157787
 21
-8.1000918655
  0
LINE
  5
2BE
100
AcDbEntity
  8
RACCORDO
100
AcDbLine
 62
7
  6
CONTINUOUS
 10
-37.8108152985
 20
-8.1266463036
 11
-37.8147003749
 21
-8.0550406082
  0
LINE
  5
2BF
100
AcDbEntity
  8
RACCORDO
100
AcDbLine
 62
253
  6
CONTINUOUS
 10
-37.8365442079
 20
22.6231520134
 11
-37.835821201
 21
22.6097368974
  0
LINE
  5
2C0
100
AcDbEntity
  8
RACCORDO
100
AcDbLine
 62
253
  6
CONTINUOUS
 10
-37.8137157787
 20
-8.1000918655
 11
-37.8174428138
 21
-8.0258502588
  0
LINE
  5
2C1
100
AcDbEntity
  8
RACCORDO
100
AcDbLine
 62
7
  6
CONTINUOUS
 10
-37.8147003749
 20
-8.0550406082
 11
-37.8185037908
 21
-7.9768788385
  0
LINE
  5
2C2
100
AcDbEntity
  8
RACCORDO
100
AcDbLine
 62
253
  6
CONTINUOUS
 10
-37.8373833749
 20
22.6403291051
 11
-37.8365442079
 21
22.6231520134
  0
LINE
  5
2C3
100
AcDbEntity
  8
RACCORDO
100
AcDbLine
 62
253
  6
CONTINUOUS
 10
-37.8174428138
 20
-8.0258502588
 11
-37.8209638698
 21
-7.9480793836
  0
LINE
  5
2C4
100
AcDbEntity
  8
RACCORDO
100
AcDbLine
 62
253
  6
CONTINUOUS
 10
-37.8381598266
 20
22.6580594564
 11
-37.8373833749
 21
22.6403291051
  0
LINE
  5
2C5
100
AcDbEntity
  8
RACCORDO
100
AcDbLine
 62
7
  6
CONTINUOUS
 10
-37.8185037908
 20
-7.9768788385
 11
-37.8221938235
 21
-7.8919801014
  0
LINE
  5
2C6
100
AcDbEntity
  8
RACCORDO
100
AcDbLine
 62
253
  6
CONTINUOUS
 10
-37.1533558423
 20
23.4272994663
 11
-37.139267622
 21
23.0898268366
  0
LINE
  5
2C7
100
AcDbEntity
  8
RACCORDO
100
AcDbLine
 62
253
  6
CONTINUOUS
 10
-37.8468859345
 20
22.8805210267
 11
-37.8381598266
 21
22.6580594564
  0
LINE
  5
2C8
100
AcDbEntity
  8
RACCORDO
100
AcDbLine
 62
253
  6
CONTINUOUS
 10
-37.8209638698
 20
-7.9480793836
 11
-37.8258427797
 21
-7.8251739509
  0
LINE
  5
2C9
100
AcDbEntity
  8
RACCORDO
100
AcDbLine
 62
7
  6
CONTINUOUS
 10
-37.8221938235
 20
-7.8919801014
 11
-37.8257413918
 21
-7.8000499487
  0
LINE
  5
2CA
100
AcDbEntity
  8
RACCORDO
100
AcDbLine
 62
253
  6
CONTINUOUS
 10
-37.1663977401
 20
23.7773182139
 11
-37.1533558423
 21
23.4272994663
  0
LINE
  5
2CB
100
AcDbEntity
  8
RACCORDO
100
AcDbLine
 62
253
  6
CONTINUOUS
 10
-37.859050588
 20
23.2181395725
 11
-37.8468859345
 21
22.8805210267
  0
LINE
  5
2CC
100
AcDbEntity
  8
RACCORDO
100
AcDbLine
 62
7
  6
CONTINUOUS
 10
-37.8257413918
 20
-7.8000499487
 11
-37.829114199
 21
-7.7007764895
  0
LINE
  5
2CD
100
AcDbEntity
  8
RACCORDO
100
AcDbLine
 62
253
  6
CONTINUOUS
 10
-37.8258427797
 20
-7.8251739509
 11
-37.8302103443
 21
-7.6954856403
  0
LINE
  5
2CE
100
AcDbEntity
  8
RACCORDO
100
AcDbLine
 62
253
  6
CONTINUOUS
 10
-37.1783559552
 20
24.1388771781
 11
-37.1663977401
 21
23.7773182139
  0
LINE
  5
2CF
100
AcDbEntity
  8
RACCORDO
100
AcDbLine
 62
253
  6
CONTINUOUS
 10
-37.8703530163
 20
23.566403731
 11
-37.859050588
 21
23.2181395725
  0
LINE
  5
2D0
100
AcDbEntity
  8
RACCORDO
100
AcDbLine
 62
253
  6
CONTINUOUS
 10
-37.8807677768
 20
23.9245070251
 11
-37.8703530163
 21
23.566403731
  0
LINE
  5
2D1
100
AcDbEntity
  8
RACCORDO
100
AcDbLine
 62
253
  6
CONTINUOUS
 10
-37.1892010056
 20
24.511064969
 11
-37.1783559552
 21
24.1388771781
  0
LINE
  5
2D2
100
AcDbEntity
  8
RACCORDO
100
AcDbLine
 62
7
  6
CONTINUOUS
 10
-37.829114199
 20
-7.7007764895
 11
-37.8330262886
 21
-7.5659382721
  0
LINE
  5
2D3
100
AcDbEntity
  8
RACCORDO
100
AcDbLine
 62
253
  6
CONTINUOUS
 10
-37.8302103443
 20
-7.6954856403
 11
-37.8340391065
 21
-7.5598551378
  0
LINE
  5
2D4
100
AcDbEntity
  8
RACCORDO
100
AcDbLine
 62
253
  6
CONTINUOUS
 10
-37.1941990072
 20
24.7008759094
 11
-37.1892010056
 21
24.511064969
  0
LWPOLYLINE
  5
2D5
100
AcDbEntity
  8
RACCORDO
100
AcDbPolyline
 62
253
  6
CONTINUOUS
 90
3
 70
0
 10
-37.8932396813
 20
24.4161288249
 10
-37.8902740502
 20
24.2917351381
 10
-37.8807677768
 20
23.9245070251
  0
LWPOLYLINE
  5
2D6
100
AcDbEntity
  8
RACCORDO
100
AcDbPolyline
 62
253
  6
CONTINUOUS
 90
40
 70
0
 10
-37.7809127086
 20
-22.4813238482
 10
-37.7806376036
 20
-22.4933660963
 10
-37.779878702
 20
-22.5053888799
 10
-37.7786372304
 20
-22.517372766
 10
-37.7769151957
 20
-22.5292983843
 10
-37.7747153811
 20
-22.5411464588
 10
-37.7720413423
 20
-22.5528978389
 10
-37.7688974016
 20
-22.5645335303
 10
-37.7652886406
 20
-22.5760347254
 10
-37.7612208924
 20
-22.5873828344
 10
-37.7567007319
 20
-22.5985595147
 10
-37.7517354652
 20
-22.6095467009
 10
-37.746333118
 20
-22.6203266337
 10
-37.7405024224
 20
-22.6308818891
 10
-37.7342528028
 20
-22.6411954059
 10
-37.7275943608
 20
-22.651250514
 10
-37.7205378588
 20
-22.6610309607
 10
-37.7130947025
 20
-22.6705209373
 10
-37.7052769229
 20
-22.6797051048
 10
-37.6970971561
 20
-22.6885686182
 10
-37.6885686235
 20
-22.697097151
 10
-37.6797051102
 20
-22.7052769181
 10
-37.6705209428
 20
-22.713094698
 10
-37.6610309662
 20
-22.7205378546
 10
-37.6512505195
 20
-22.7275943569
 10
-37.6411954113
 20
-22.7342527993
 10
-37.6308818943
 20
-22.7405024193
 10
-37.6203266387
 20
-22.7463331153
 10
-37.6095467056
 20
-22.7517354629
 10
-37.5985595192
 20
-22.7567007299
 10
-37.5873828385
 20
-22.7612208908
 10
-37.5760347291
 20
-22.7652886393
 10
-37.5645335336
 20
-22.7688974005
 10
-37.5528978418
 20
-22.7720413415
 10
-37.5411464613
 20
-22.7747153805
 10
-37.5292983863
 20
-22.7769151953
 10
-37.5173727675
 20
-22.7786372302
 10
-37.5053888809
 20
-22.7798787018
 10
-37.4933660968
 20
-22.7806376035
 10
-37.4813238482
 20
-22.7809127086
  0
LINE
  5
2D7
100
AcDbEntity
  8
RACCORDO
100
AcDbLine
 62
253
  6
CONTINUOUS
 10
-37.8340391065
 20
-7.5598551378
 11
-37.8373088351
 21
-7.4190254028
  0
LINE
  5
2D8
100
AcDbEntity
  8
RACCORDO
100
AcDbLine
 62
7
  6
CONTINUOUS
 10
-37.8330262886
 20
-7.5659382721
 11
-37.8365210289
 21
-7.4186607067
  0
LINE
  5
2D9
100
AcDbEntity
  8
RACCORDO
100
AcDbLine
 62
253
  6
CONTINUOUS
 10
-37.8373088351
 20
-7.4190254028
 11
-37.8400033609
 21
-7.2736564815
  0
LINE
  5
2DA
100
AcDbEntity
  8
RACCORDO
100
AcDbLine
 62
7
  6
CONTINUOUS
 10
-37.8365210289
 20
-7.4186607067
 11
-37.8394979405
 21
-7.2585147591
  0
LWPOLYLINE
  5
2DB
100
AcDbEntity
  8
RACCORDO
100
AcDbPolyline
 62
253
  6
CONTINUOUS
 90
9
 70
0
 10
-37.7490483482
 20
-8.6723188343
 10
-37.7493141384
 20
-8.6536401245
 10
-37.750281953
 20
-8.6349876907
 10
-37.7519504304
 20
-8.6163877717
 10
-37.7543172236
 20
-8.5978665324
 10
-37.7573790031
 20
-8.5794500272
 10
-37.7611314619
 20
-8.561164163
 10
-37.7655693212
 20
-8.5430346629
 10
-37.7706863382
 20
-8.5250870301
  0
LWPOLYLINE
  5
2DC
100
AcDbEntity
  8
RACCORDO
100
AcDbPolyline
 62
253
  6
CONTINUOUS
 90
6
 70
0
 10
-37.7275752953
 20
-8.708165587
 10
-37.7278404253
 20
-8.6895068669
 10
-37.7288064371
 20
-8.670869263
 10
-37.7304725465
 20
-8.6522789838
 10
-37.7328372296
 20
-8.63376053
 10
-37.7358976107
 20
-8.6153417093
  0
LINE
  5
2DD
100
AcDbEntity
  8
RACCORDO
100
AcDbLine
 62
253
  6
CONTINUOUS
 10
-37.8400033609
 20
-7.2736564815
 11
-37.8421046064
 21
-7.1246308372
  0
LINE
  5
2DE
100
AcDbEntity
  8
RACCORDO
100
AcDbLine
 62
7
  6
CONTINUOUS
 10
-37.8394979405
 20
-7.2585147591
 11
-37.8414275809
 21
-7.1209657966
  0
LINE
  5
2DF
100
AcDbEntity
  8
RACCORDO
100
AcDbLine
 62
253
  6
CONTINUOUS
 10
-37.8421046064
 20
-7.1246308372
 11
-37.8435960247
 21
-6.9731368008
  0
LINE
  5
2E0
100
AcDbEntity
  8
RACCORDO
100
AcDbLine
 62
7
  6
CONTINUOUS
 10
-37.8414275809
 20
-7.1209657966
 11
-37.8428803364
 21
-6.9750695438
  0
LINE
  5
2E1
100
AcDbEntity
  8
RACCORDO
100
AcDbLine
 62
253
  6
CONTINUOUS
 10
-37.8435960247
 20
-6.9731368008
 11
-37.844469895
 21
-6.8204866771
  0
LINE
  5
2E2
100
AcDbEntity
  8
RACCORDO
100
AcDbLine
 62
7
  6
CONTINUOUS
 10
-37.8428803364
 20
-6.9750695438
 11
-37.843778907
 21
-6.8210014948
  0
LINE
  5
2E3
100
AcDbEntity
  8
RACCORDO
100
AcDbLine
 62
253
  6
CONTINUOUS
 10
-37.9037491773
 20
-21.3634635963
 11
-37.8936184473
 21
-24.312797179
  0
LINE
  5
2E4
100
AcDbEntity
  8
RACCORDO
100
AcDbLine
 62
253
  6
CONTINUOUS
 10
-37.9125711231
 20
-18.4126505502
 11
-37.9037491773
 21
-21.3634635963
  0
LINE
  5
2E5
100
AcDbEntity
  8
RACCORDO
100
AcDbLine
 62
253
  6
CONTINUOUS
 10
-37.9200840496
 20
-15.4604443735
 11
-37.9125711231
 21
-18.4126505502
  0
LINE
  5
2E6
100
AcDbEntity
  8
RACCORDO
100
AcDbLine
 62
253
  6
CONTINUOUS
 10
-37.9262871206
 20
-12.5071376815
 11
-37.9200840496
 21
-15.4604443735
  0
LINE
  5
2E7
100
AcDbEntity
  8
RACCORDO
100
AcDbLine
 62
253
  6
CONTINUOUS
 10
-37.9311799022
 20
-9.5529628482
 11
-37.9262871206
 21
-12.5071376815
  0
LINE
  5
2E8
100
AcDbEntity
  8
RACCORDO
100
AcDbLine
 62
253
  6
CONTINUOUS
 10
-37.9347621335
 20
-6.5980780448
 11
-37.9311799022
 21
-9.5529628482
  0
LWPOLYLINE
  5
2E9
100
AcDbEntity
  8
RACCORDO
100
AcDbPolyline
 62
253
  6
CONTINUOUS
 90
9
 70
0
 10
-37.844469895
 20
-6.8204866771
 10
-37.8460538942
 20
-5.2256034491
 10
-37.8470625373
 20
-3.7325955435
 10
-37.8477349661
 20
-2.2395739091
 10
-37.8480711805
 20
-0.7465294134
 10
-37.8480711806
 20
0.7465288111
 10
-37.8477349663
 20
2.239573367
 10
-37.8470625375
 20
3.7325951219
 10
-37.8460538943
 20
5.2256032082
  0
LWPOLYLINE
  5
2EA
100
AcDbEntity
  8
RACCORDO
100
AcDbPolyline
 62
7
  6
CONTINUOUS
 90
8
 70
0
 10
-37.843778907
 20
-6.8210014948
 10
-37.8453587606
 20
-5.2380087233
 10
-37.8463721254
 20
-3.7416935557
 10
-37.8470477654
 20
-2.2453084541
 10
-37.8473856622
 20
-0.7488849335
 10
-37.8473858127
 20
0.7475507241
 10
-37.8470482171
 20
2.243974252
 10
-37.8463728783
 20
3.740359357
  0
LINE
  5
2EB
100
AcDbEntity
  8
RACCORDO
100
AcDbLine
 62
253
  6
CONTINUOUS
 10
-37.9370334842
 20
-3.64272039
 11
-37.9347621335
 21
-6.5980780448
  0
LINE
  5
2EC
100
AcDbEntity
  8
RACCORDO
100
AcDbLine
 62
253
  6
CONTINUOUS
 10
-37.9379938149
 20
-0.6871280727
 11
-37.9370334842
 21
-3.64272039
  0
LINE
  5
2ED
100
AcDbEntity
  8
RACCORDO
100
AcDbLine
 62
253
  6
CONTINUOUS
 10
-37.7275752953
 20
-22.4279864348
 11
-37.7275752953
 21
-8.708165587
  0
LINE
  5
2EE
100
AcDbEntity
  8
RACCORDO
100
AcDbLine
 62
253
  6
CONTINUOUS
 10
-37.7275752953
 20
8.708165587
 11
-37.7275752953
 21
22.4279864348
  0
LINE
  5
2EF
100
AcDbEntity
  8
RACCORDO
100
AcDbLine
 62
7
  6
CONTINUOUS
 10
-37.7268804517
 20
-22.4303741882
 11
-37.7268900626
 21
-8.708165587
  0
LINE
  5
2F0
100
AcDbEntity
  8
RACCORDO
100
AcDbLine
 62
7
  6
CONTINUOUS
 10
-37.7
 20
-8.05
 11
-37.7
 21
8.05
  0
LINE
  5
2F1
100
AcDbEntity
  8
RACCORDO
100
AcDbLine
 62
253
  6
CONTINUOUS
 10
-37.4279864348
 20
22.7275752953
 11
-37.4279864348
 21
22.7268900626
  0
LINE
  5
2F2
100
AcDbEntity
  8
RACCORDO
100
AcDbLine
 62
253
  6
CONTINUOUS
 10
-37.4279864348
 20
-22.7275752953
 11
-37.4279864348
 21
-22.7268900626
  0
LINE
  5
2F3
100
AcDbEntity
  8
RACCORDO
100
AcDbLine
 62
253
  6
CONTINUOUS
 10
-37.9376430743
 20
2.2685398417
 11
-37.9379938149
 21
-0.6871280727
  0
LINE
  5
2F4
100
AcDbEntity
  8
RACCORDO
100
AcDbLine
 62
253
  6
CONTINUOUS
 10
-37.9359812476
 20
5.2240438129
 11
-37.9376430743
 21
2.2685398417
  0
LINE
  5
2F5
100
AcDbEntity
  8
RACCORDO
100
AcDbLine
 62
7
  6
CONTINUOUS
 10
-37.8463728783
 20
3.740359357
 11
-37.8440240608
 21
6.718090903
  0
LINE
  5
2F6
100
AcDbEntity
  8
RACCORDO
100
AcDbLine
 62
253
  6
CONTINUOUS
 10
-37.9330085131
 20
8.1791466682
 11
-37.9359812476
 21
5.2240438129
  0
LINE
  5
2F7
100
AcDbEntity
  8
RACCORDO
100
AcDbLine
 62
253
  6
CONTINUOUS
 10
-37.9287250301
 20
11.1336901438
 11
-37.9330085131
 21
8.1791466682
  0
LINE
  5
2F8
100
AcDbEntity
  8
RACCORDO
100
AcDbLine
 62
253
  6
CONTINUOUS
 10
-37.9231310982
 20
14.0874369581
 11
-37.9287250301
 21
11.1336901438
  0
LINE
  5
2F9
100
AcDbEntity
  8
RACCORDO
100
AcDbLine
 62
253
  6
CONTINUOUS
 10
-37.916227199
 20
17.0401522862
 11
-37.9231310982
 21
14.0874369581
  0
LWPOLYLINE
  5
2FA
100
AcDbEntity
  8
RACCORDO
100
AcDbPolyline
 62
7
  6
CONTINUOUS
 90
39
 70
0
 10
-37.7268900626
 20
8.708165587
 10
-37.7268863703
 20
22.4294470328
 10
-37.7265593216
 20
22.4420929597
 10
-37.7257015932
 20
22.4547033539
 10
-37.724315787
 20
22.4672558677
 10
-37.7224048603
 20
22.4797296826
 10
-37.7199727465
 20
22.492104603
 10
-37.7170241382
 20
22.504358901
 10
-37.7135646453
 20
22.5164710741
 10
-37.7096005663
 20
22.528421336
 10
-37.7051387665
 20
22.5401892218
 10
-37.7001876863
 20
22.5517540837
 10
-37.6947559211
 20
22.5630959664
 10
-37.6888532581
 20
22.5741953423
 10
-37.6824901508
 20
22.5850329844
 10
-37.6756776707
 20
22.5955902357
 10
-37.6684279411
 20
22.6058489624
 10
-37.6607534263
 20
22.6157912973
 10
-37.6526676666
 20
22.6254003053
 10
-37.6441845314
 20
22.6346592477
 10
-37.6353188615
 20
22.6435521658
 10
-37.6260860398
 20
22.6520636172
 10
-37.6165019968
 20
22.6601787338
 10
-37.6065834232
 20
22.6678835871
 10
-37.5963472185
 20
22.6751645942
 10
-37.5858112179
 20
22.6820092463
 10
-37.5749935104
 20
22.6884053573
 10
-37.5639127336
 20
22.694341823
 10
-37.5525880688
 20
22.6998081181
 10
-37.5410390253
 20
22.70479442
 10
-37.5292855392
 20
22.7092920614
 10
-37.5173482368
 20
22.7132925479
 10
-37.5052475559
 20
22.7167889698
 10
-37.4930032505
 20
22.7197749613
 10
-37.4806368159
 20
22.7222448757
 10
-37.4681699539
 20
22.7241939387
 10
-37.4556228077
 20
22.7256181805
 10
-37.4430161698
 20
22.726514574
 10
-37.4303724307
 20
22.7268804559
  0
LINE
  5
2FB
100
AcDbEntity
  8
RACCORDO
100
AcDbLine
 62
253
  6
CONTINUOUS
 10
-37.9080137264
 20
19.9916708166
 11
-37.916227199
 21
17.0401522862
  0
LWPOLYLINE
  5
2FC
100
AcDbEntity
  8
RACCORDO
100
AcDbPolyline
 62
253
  6
CONTINUOUS
 90
3
 70
0
 10
-37.8932396813
 20
24.4161288249
 10
-37.8984915727
 20
22.9416739622
 10
-37.9080137264
 20
19.9916708166
  0
LINE
  5
2FD
100
AcDbEntity
  8
RACCORDO
100
AcDbLine
 62
253
  6
CONTINUOUS
 10
-37.8460538943
 20
5.2256032082
 11
-37.8442475405
 21
6.8713314909
  0
LINE
  5
2FE
100
AcDbEntity
  8
RACCORDO
100
AcDbLine
 62
7
  6
CONTINUOUS
 10
-37.844024098
 20
6.7180908901
 11
-37.8435553516
 21
6.8714309879
  0
LINE
  5
2FF
100
AcDbEntity
  8
RACCORDO
100
AcDbLine
 62
253
  6
CONTINUOUS
 10
-37.8442475405
 20
6.8713314909
 11
-37.8431682627
 21
7.0237427004
  0
LINE
  5
300
100
AcDbEntity
  8
RACCORDO
100
AcDbLine
 62
7
  6
CONTINUOUS
 10
-37.8435553516
 20
6.8714309879
 11
-37.842357465
 21
7.0348204385
  0
LWPOLYLINE
  5
301
100
AcDbEntity
  8
RACCORDO
100
AcDbPolyline
 62
253
  6
CONTINUOUS
 90
49
 70
0
 10
-37.7275752953
 20
22.4279864348
 10
-37.7274621812
 20
22.437731855
 10
-37.7270325677
 20
22.4474908199
 10
-37.7262844484
 20
22.4572530406
 10
-37.7252157275
 20
22.4670121694
 10
-37.7238252422
 20
22.476753519
 10
-37.7221140673
 20
22.4864542641
 10
-37.720082692
 20
22.4961039492
 10
-37.7177320518
 20
22.5056918829
 10
-37.7150667708
 20
22.5151953206
 10
-37.7120898731
 20
22.5246032017
 10
-37.7088042665
 20
22.5339062585
 10
-37.7052170008
 20
22.5430851927
 10
-37.7013341585
 20
22.5521272428
 10
-37.6971594724
 20
22.5610263959
 10
-37.6926977632
 20
22.5697740431
 10
-37.6879557221
 20
22.5783590461
 10
-37.6829379964
 20
22.5867748684
 10
-37.6776460128
 20
22.5950196701
 10
-37.6720844653
 20
22.6030859412
 10
-37.6662600877
 20
22.6109637333
 10
-37.6601768429
 20
22.6186472203
 10
-37.6538392542
 20
22.626129864
 10
-37.6472553487
 20
22.6334014347
 10
-37.6404347975
 20
22.6404509378
 10
-37.633384954
 20
22.6472707736
 10
-37.6261133195
 20
22.6538537419
 10
-37.6186307055
 20
22.6601903659
 10
-37.6109473941
 20
22.6662725886
 10
-37.6030698791
 20
22.6720959336
 10
-37.5950036146
 20
22.6776566935
 10
-37.5867583911
 20
22.6829481895
 10
-37.5783418289
 20
22.6879656033
 10
-37.5697557752
 20
22.6927074604
 10
-37.5610065531
 20
22.6971691793
 10
-37.552105482
 20
22.7013439269
 10
-37.5430618042
 20
22.7052265854
 10
-37.5338816883
 20
22.7088133992
 10
-37.524577777
 20
22.7120983776
 10
-37.5151696251
 20
22.7150744323
 10
-37.5056666085
 20
22.7177386873
 10
-37.4960797131
 20
22.7200882063
 10
-37.4864316687
 20
22.7221184314
 10
-37.4767331607
 20
22.7238284851
 10
-37.4669946583
 20
22.7252179313
 10
-37.4572389948
 20
22.7262857523
 10
-37.4474808556
 20
22.7270331672
 10
-37.4377265766
 20
22.7274623278
 10
-37.4279864348
 20
22.7275752953
  0
LINE
  5
302
100
AcDbEntity
  8
RACCORDO
100
AcDbLine
 62
253
  6
CONTINUOUS
 10
-37.8431682627
 20
7.0237427004
 11
-37.8414727805
 21
7.174541988
  0
LINE
  5
303
100
AcDbEntity
  8
RACCORDO
100
AcDbLine
 62
7
  6
CONTINUOUS
 10
-37.842357465
 20
7.0348204385
 11
-37.8405496021
 21
7.1885213051
  0
LWPOLYLINE
  5
304
100
AcDbEntity
  8
RACCORDO
100
AcDbPolyline
 62
253
  6
CONTINUOUS
 90
9
 70
0
 10
-37.7490483482
 20
8.6723188343
 10
-37.7493141383
 20
8.6536401275
 10
-37.7502819526
 20
8.6349876965
 10
-37.7519504295
 20
8.6163877801
 10
-37.754317222
 20
8.5978665432
 10
-37.7573790007
 20
8.5794500401
 10
-37.7611314586
 20
8.5611641778
 10
-37.7655693168
 20
8.5430346795
 10
-37.7706863326
 20
8.5250870482
  0
LWPOLYLINE
  5
305
100
AcDbEntity
  8
RACCORDO
100
AcDbPolyline
 62
253
  6
CONTINUOUS
 90
6
 70
0
 10
-37.7275752953
 20
8.708165587
 10
-37.7278404253
 20
8.6895068667
 10
-37.7288064371
 20
8.6708692627
 10
-37.7304725466
 20
8.6522789833
 10
-37.7328372297
 20
8.6337605294
 10
-37.7358976108
 20
8.6153417085
  0
LWPOLYLINE
  5
306
100
AcDbEntity
  8
RACCORDO
100
AcDbPolyline
 62
253
  6
CONTINUOUS
 90
16
 70
0
 10
-37.89361826
 20
-24.3127971916
 10
-37.8949920891
 20
-24.3960325735
 10
-37.8971558279
 20
-24.482315507
 10
-37.9001342325
 20
-24.5716491647
 10
-37.9039503343
 20
-24.6640583536
 10
-37.9086226596
 20
-24.7595315541
 10
-37.9141604003
 20
-24.858015411
 10
-37.9205601815
 20
-24.9593440643
 10
-37.9278361267
 20
-25.0636923588
 10
-37.9360226136
 20
-25.1715188003
 10
-37.9451298188
 20
-25.2829300406
 10
-37.9551476982
 20
-25.3978374731
 10
-37.9660799793
 20
-25.5164095268
 10
-37.9779306688
 20
-25.6388686644
 10
-37.9906563992
 20
-25.7650174698
 10
-38.0041715052
 20
-25.8943905793
  0
LINE
  5
307
100
AcDbEntity
  8
RACCORDO
100
AcDbLine
 62
253
  6
CONTINUOUS
 10
-37.8414727805
 20
7.174541988
 11
-37.8391717602
 21
7.322488992
  0
LINE
  5
308
100
AcDbEntity
  8
RACCORDO
100
AcDbLine
 62
7
  6
CONTINUOUS
 10
-37.8405496021
 20
7.1885213051
 11
-37.8382254136
 21
7.3324189198
  0
LINE
  5
309
100
AcDbEntity
  8
RACCORDO
100
AcDbLine
 62
253
  6
CONTINUOUS
 10
-37.8391717602
 20
7.322488992
 11
-37.836283646
 21
7.4664365326
  0
LINE
  5
30A
100
AcDbEntity
  8
RACCORDO
100
AcDbLine
 62
7
  6
CONTINUOUS
 10
-37.8382254136
 20
7.3324189198
 11
-37.8354670289
 21
7.4665963542
  0
LWPOLYLINE
  5
30B
100
AcDbEntity
  8
RACCORDO
100
AcDbPolyline
 62
253
  6
CONTINUOUS
 90
40
 70
0
 10
-37.7802295522
 20
22.4806406918
 10
-37.7799544473
 20
22.4926829399
 10
-37.7791955457
 20
22.5047057236
 10
-37.7779540743
 20
22.5166896096
 10
-37.7762320397
 20
22.5286152279
 10
-37.7740322252
 20
22.5404633025
 10
-37.7713581865
 20
22.5522146826
 10
-37.7682142459
 20
22.563850374
 10
-37.764605485
 20
22.5753515692
 10
-37.7605377369
 20
22.5866996783
 10
-37.7560175765
 20
22.5978763586
 10
-37.7510523099
 20
22.6088635449
 10
-37.7456499628
 20
22.6196434778
 10
-37.7398192672
 20
22.6301987332
 10
-37.7335696477
 20
22.6405122501
 10
-37.7269112057
 20
22.6505673582
 10
-37.7198547037
 20
22.660347805
 10
-37.7124115476
 20
22.6698377817
 10
-37.7045937679
 20
22.6790219492
 10
-37.6964140011
 20
22.6878854627
 10
-37.6878854684
 20
22.6964139955
 10
-37.6790219551
 20
22.7045937626
 10
-37.6698377877
 20
22.7124115426
 10
-37.660347811
 20
22.7198546992
 10
-37.6505673642
 20
22.7269112016
 10
-37.640512256
 20
22.7335696439
 10
-37.6301987389
 20
22.7398192639
 10
-37.6196434833
 20
22.7456499598
 10
-37.6088635502
 20
22.7510523073
 10
-37.5978763637
 20
22.7560175743
 10
-37.5866996829
 20
22.7605377351
 10
-37.5753515735
 20
22.7646054836
 10
-37.5638503778
 20
22.7682142448
 10
-37.552214686
 20
22.7713581857
 10
-37.5404633053
 20
22.7740322246
 10
-37.5286152302
 20
22.7762320393
 10
-37.5166896114
 20
22.7779540741
 10
-37.5047057247
 20
22.7791955456
 10
-37.4926829405
 20
22.7799544472
 10
-37.4806406918
 20
22.7802295522
  0
LINE
  5
30C
100
AcDbEntity
  8
RACCORDO
100
AcDbLine
 62
253
  6
CONTINUOUS
 10
-37.836283646
 20
7.4664365326
 11
-37.832826152
 21
7.6056026669
  0
LINE
  5
30D
100
AcDbEntity
  8
RACCORDO
100
AcDbLine
 62
7
  6
CONTINUOUS
 10
-37.8354670289
 20
7.4665963542
 11
-37.8323457104
 21
7.591278726
  0
LINE
  5
30E
100
AcDbEntity
  8
RACCORDO
100
AcDbLine
 62
253
  6
CONTINUOUS
 10
-37.884115744
 20
-23.9589899531
 11
-37.8936184473
 21
-24.312797179
  0
LINE
  5
30F
100
AcDbEntity
  8
RACCORDO
100
AcDbLine
 62
253
  6
CONTINUOUS
 10
-37.1850758318
 20
-24.2924226827
 11
-37.1945777733
 21
-24.6177381008
  0
LINE
  5
310
100
AcDbEntity
  8
RACCORDO
100
AcDbLine
 62
253
  6
CONTINUOUS
 10
-37.8737795757
 20
-23.6139530749
 11
-37.884115744
 21
-23.9589899531
  0
LINE
  5
311
100
AcDbEntity
  8
RACCORDO
100
AcDbLine
 62
7
  6
CONTINUOUS
 10
-37.8323457104
 20
7.591278726
 11
-37.8289222153
 21
7.7067955322
  0
LINE
  5
312
100
AcDbEntity
  8
RACCORDO
100
AcDbLine
 62
253
  6
CONTINUOUS
 10
-37.832826152
 20
7.6056026669
 11
-37.8288156105
 21
7.7393432325
  0
LINE
  5
313
100
AcDbEntity
  8
RACCORDO
100
AcDbLine
 62
253
  6
CONTINUOUS
 10
-37.1747395647
 20
-23.975142019
 11
-37.1850758318
 21
-24.2924226827
  0
LINE
  5
314
100
AcDbEntity
  8
RACCORDO
100
AcDbLine
 62
253
  6
CONTINUOUS
 10
-37.8626274055
 20
-23.278255738
 11
-37.8737795757
 21
-23.6139530749
  0
LWPOLYLINE
  5
315
100
AcDbEntity
  8
RACCORDO
100
AcDbPolyline
 62
253
  6
CONTINUOUS
 90
17
 70
0
 10
-37.1945777733
 20
-24.6177381008
 10
-37.1973451938
 20
-24.6956874913
 10
-37.201688339
 20
-24.7764241658
 10
-37.2076072089
 20
-24.8599750338
 10
-37.2150791663
 20
-24.9464065919
 10
-37.2241268484
 20
-25.0357040091
 10
-37.2348181669
 20
-25.1277689
 10
-37.2471501581
 20
-25.222457925
 10
-37.2611257856
 20
-25.3199532176
 10
-37.2768218518
 20
-25.4206461115
 10
-37.2942747494
 20
-25.5246461725
 10
-37.3134480856
 20
-25.6318858401
 10
-37.3343094845
 20
-25.7424947202
 10
-37.356949804
 20
-25.8566745796
 10
-37.3812781861
 20
-25.9742549458
 10
-37.4069896822
 20
-26.094798587
 10
-37.4342171764
 20
-26.218544811
  0
LINE
  5
316
100
AcDbEntity
  8
RACCORDO
100
AcDbLine
 62
7
  6
CONTINUOUS
 10
-37.8289222153
 20
7.7067955322
 11
-37.8252516614
 21
7.8134306106
  0
LINE
  5
317
100
AcDbEntity
  8
RACCORDO
100
AcDbLine
 62
253
  6
CONTINUOUS
 10
-37.1635872501
 20
-23.6664492119
 11
-37.1747395647
 21
-23.975142019
  0
LINE
  5
318
100
AcDbEntity
  8
RACCORDO
100
AcDbLine
 62
253
  6
CONTINUOUS
 10
-37.8288156105
 20
7.7393432325
 11
-37.8242744563
 21
7.8668709107
  0
LINE
  5
319
100
AcDbEntity
  8
RACCORDO
100
AcDbLine
 62
253
  6
CONTINUOUS
 10
-37.8506803528
 20
-22.9525503937
 11
-37.8626274055
 21
-23.278255738
  0
LINE
  5
31A
100
AcDbEntity
  8
RACCORDO
100
AcDbLine
 62
253
  6
CONTINUOUS
 10
-37.1516399757
 20
-23.3669435744
 11
-37.1635872501
 21
-23.6664492119
  0
LINE
  5
31B
100
AcDbEntity
  8
RACCORDO
100
AcDbLine
 62
7
  6
CONTINUOUS
 10
-37.8252516614
 20
7.8134306106
 11
-37.8213847566
 21
7.9114509982
  0
LINE
  5
31C
100
AcDbEntity
  8
RACCORDO
100
AcDbLine
 62
253
  6
CONTINUOUS
 10
-37.8242744563
 20
7.8668709107
 11
-37.8209662358
 21
7.9480242925
  0
LINE
  5
31D
100
AcDbEntity
  8
RACCORDO
100
AcDbLine
 62
253
  6
CONTINUOUS
 10
-37.8378160602
 20
-22.6340944588
 11
-37.8506803528
 21
-22.9525503937
  0
LINE
  5
31E
100
AcDbEntity
  8
RACCORDO
100
AcDbLine
 62
253
  6
CONTINUOUS
 10
-37.1389224435
 20
-23.0772651445
 11
-37.1516399757
 21
-23.3669435744
  0
LINE
  5
31F
100
AcDbEntity
  8
RACCORDO
100
AcDbLine
 62
7
  6
CONTINUOUS
 10
-37.8213847566
 20
7.9114509982
 11
-37.818180105
 21
7.9838757108
  0
LINE
  5
320
100
AcDbEntity
  8
RACCORDO
100
AcDbLine
 62
253
  6
CONTINUOUS
 10
-37.8209662358
 20
7.9480242925
 11
-37.8174452955
 21
8.0257982187
  0
LINE
  5
321
100
AcDbEntity
  8
RACCORDO
100
AcDbLine
 62
253
  6
CONTINUOUS
 10
-37.8370492864
 20
-22.6173116099
 11
-37.8378160602
 21
-22.6340944588
  0
LINE
  5
322
100
AcDbEntity
  8
RACCORDO
100
AcDbLine
 62
7
  6
CONTINUOUS
 10
-37.818180105
 20
7.9838757108
 11
-37.8148996753
 21
8.0511547005
  0
LINE
  5
323
100
AcDbEntity
  8
RACCORDO
100
AcDbLine
 62
253
  6
CONTINUOUS
 10
-37.8174452955
 20
8.0257982187
 11
-37.8137184015
 21
8.1000422343
  0
LINE
  5
324
100
AcDbEntity
  8
RACCORDO
100
AcDbLine
 62
253
  6
CONTINUOUS
 10
-37.8363949133
 20
-22.6043190103
 11
-37.8370492864
 21
-22.6173116099
  0
LINE
  5
325
100
AcDbEntity
  8
RACCORDO
100
AcDbLine
 62
7
  6
CONTINUOUS
 10
-37.8148996753
 20
8.0511547005
 11
-37.8115625219
 21
8.1134621459
  0
LINE
  5
326
100
AcDbEntity
  8
RACCORDO
100
AcDbLine
 62
253
  6
CONTINUOUS
 10
-37.8356981868
 20
-22.5916329606
 11
-37.8363949133
 21
-22.6043190103
  0
LINE
  5
327
100
AcDbEntity
  8
RACCORDO
100
AcDbLine
 62
253
  6
CONTINUOUS
 10
-37.8137184015
 20
8.1000422343
 11
-37.8097953961
 21
8.1705495523
  0
LINE
  5
328
100
AcDbEntity
  8
RACCORDO
100
AcDbLine
 62
7
  6
CONTINUOUS
 10
-37.8115625219
 20
8.1134621459
 11
-37.8081869776
 21
8.1709615785
  0
LINE
  5
329
100
AcDbEntity
  8
RACCORDO
100
AcDbLine
 62
253
  6
CONTINUOUS
 10
-37.8349508148
 20
-22.5791695744
 11
-37.8356981868
 21
-22.5916329606
  0
LINE
  5
32A
100
AcDbEntity
  8
RACCORDO
100
AcDbLine
 62
253
  6
CONTINUOUS
 10
-37.8097953961
 20
8.1705495523
 11
-37.8056881345
 21
8.2371093751
  0
LINE
  5
32B
100
AcDbEntity
  8
RACCORDO
100
AcDbLine
 62
253
  6
CONTINUOUS
 10
-37.8343541121
 20
-22.5699682684
 11
-37.8349508148
 21
-22.5791695744
  0
LINE
  5
32C
100
AcDbEntity
  8
RACCORDO
100
AcDbLine
 62
7
  6
CONTINUOUS
 10
-37.8081869776
 20
8.1709615785
 11
-37.8047906376
 21
8.2238163305
  0
LINE
  5
32D
100
AcDbEntity
  8
RACCORDO
100
AcDbLine
 62
253
  6
CONTINUOUS
 10
-37.8056881345
 20
8.2371093751
 11
-37.8014051621
 21
8.2995823386
  0
LINE
  5
32E
100
AcDbEntity
  8
RACCORDO
100
AcDbLine
 62
7
  6
CONTINUOUS
 10
-37.8047906376
 20
8.2238163305
 11
-37.8022398748
 21
8.2605014708
  0
LINE
  5
32F
100
AcDbEntity
  8
RACCORDO
100
AcDbLine
 62
253
  6
CONTINUOUS
 10
-37.8337251367
 20
-22.5609146384
 11
-37.8343541121
 21
-22.5699682684
  0
LINE
  5
330
100
AcDbEntity
  8
RACCORDO
100
AcDbLine
 62
7
  6
CONTINUOUS
 10
-37.8022398748
 20
8.2605014708
 11
-37.7996946983
 21
8.2947173656
  0
LINE
  5
331
100
AcDbEntity
  8
RACCORDO
100
AcDbLine
 62
253
  6
CONTINUOUS
 10
-37.8330627724
 20
-22.5520296913
 11
-37.8337251367
 21
-22.5609146384
  0
LWPOLYLINE
  5
332
100
AcDbEntity
  8
RACCORDO
100
AcDbPolyline
 62
253
  6
CONTINUOUS
 90
8
 70
0
 10
-37.8014051621
 20
8.2995823386
 10
-37.7969607292
 20
8.3577517298
 10
-37.7946823667
 20
8.3851709516
 10
-37.7923683135
 20
8.411456683
 10
-37.7900183121
 20
8.4366137151
 10
-37.7876360363
 20
8.460601271
 10
-37.7852212557
 20
8.4834203235
 10
-37.7827742008
 20
8.5050698998
  0
LINE
  5
333
100
AcDbEntity
  8
RACCORDO
100
AcDbLine
 62
7
  6
CONTINUOUS
 10
-37.7996946983
 20
8.2947173656
 11
-37.7971630785
 21
8.3265140216
  0
LINE
  5
334
100
AcDbEntity
  8
RACCORDO
100
AcDbLine
 62
253
  6
CONTINUOUS
 10
-37.8323663074
 20
-22.5433399804
 11
-37.8330627724
 21
-22.5520296913
  0
LINE
  5
335
100
AcDbEntity
  8
RACCORDO
100
AcDbLine
 62
7
  6
CONTINUOUS
 10
-37.7971630785
 20
8.3265140216
 11
-37.7946544185
 21
8.3559288135
  0
LINE
  5
336
100
AcDbEntity
  8
RACCORDO
100
AcDbLine
 62
253
  6
CONTINUOUS
 10
-37.8316357797
 20
-22.5348795876
 11
-37.8323663074
 21
-22.5433399804
  0
LINE
  5
337
100
AcDbEntity
  8
RACCORDO
100
AcDbLine
 62
253
  6
CONTINUOUS
 10
-37.8311299946
 20
-22.5293832428
 11
-37.8316357797
 21
-22.5348795876
  0
LINE
  5
338
100
AcDbEntity
  8
RACCORDO
100
AcDbLine
 62
7
  6
CONTINUOUS
 10
-37.7946544185
 20
8.3559288135
 11
-37.7921814893
 21
8.3829707292
  0
LWPOLYLINE
  5
339
100
AcDbEntity
  8
RACCORDO
100
AcDbPolyline
 62
253
  6
CONTINUOUS
 90
8
 70
0
 10
-38.2132819944
 20
-27.8980527122
 10
-38.2485701413
 20
-28.2734816698
 10
-38.2852513214
 20
-28.6533855165
 10
-38.3233313451
 20
-29.0382171543
 10
-38.3626866479
 20
-29.4274664083
 10
-38.4030369955
 20
-29.8196523492
 10
-38.4443165582
 20
-30.2147961102
 10
-38.4864484442
 20
-30.612820179
  0
LINE
  5
33A
100
AcDbEntity
  8
RACCORDO
100
AcDbLine
 62
7
  6
CONTINUOUS
 10
-37.7921814893
 20
8.3829707292
 11
-37.7905595338
 21
8.3996839952
  0
LINE
  5
33B
100
AcDbEntity
  8
RACCORDO
100
AcDbLine
 62
253
  6
CONTINUOUS
 10
-37.830609287
 20
-22.5240134822
 11
-37.8311299946
 21
-22.5293832428
  0
LINE
  5
33C
100
AcDbEntity
  8
RACCORDO
100
AcDbLine
 62
7
  6
CONTINUOUS
 10
-37.7905595338
 20
8.3996839952
 11
-37.7889641233
 21
8.4153498748
  0
LINE
  5
33D
100
AcDbEntity
  8
RACCORDO
100
AcDbLine
 62
253
  6
CONTINUOUS
 10
-37.8300734076
 20
-22.5187738181
 11
-37.830609287
 21
-22.5240134822
  0
LWPOLYLINE
  5
33E
100
AcDbEntity
  8
RACCORDO
100
AcDbPolyline
 62
253
  6
CONTINUOUS
 90
5
 70
0
 10
-38.1275957565
 20
-27.006916833
 10
-38.1420219324
 20
-27.1431676786
 10
-38.1554679325
 20
-27.2748496976
 10
-38.1679617362
 20
-27.4028481271
 10
-38.2132819944
 20
-27.8980527122
  0
LINE
  5
33F
100
AcDbEntity
  8
RACCORDO
100
AcDbLine
 62
253
  6
CONTINUOUS
 10
-38.4864484442
 20
-30.612820179
 11
-38.5721325843
 21
-31.4120709787
  0
LINE
  5
340
100
AcDbEntity
  8
RACCORDO
100
AcDbLine
 62
7
  6
CONTINUOUS
 10
-37.7889641233
 20
8.4153498748
 11
-37.7874009138
 21
8.4299655129
  0
LINE
  5
341
100
AcDbEntity
  8
RACCORDO
100
AcDbLine
 62
253
  6
CONTINUOUS
 10
-38.5721325843
 20
-31.4120709787
 11
-38.6592434865
 21
-32.2156955138
  0
LINE
  5
342
100
AcDbEntity
  8
RACCORDO
100
AcDbLine
 62
253
  6
CONTINUOUS
 10
-37.8295215936
 20
-22.5136652208
 11
-37.8300734076
 21
-22.5187738181
  0
LINE
  5
343
100
AcDbEntity
  8
RACCORDO
100
AcDbLine
 62
253
  6
CONTINUOUS
 10
-38.0041715052
 20
-25.8943905793
 11
-38.0334178713
 21
-26.1634154684
  0
LINE
  5
344
100
AcDbEntity
  8
RACCORDO
100
AcDbLine
 62
253
  6
CONTINUOUS
 10
-38.0967198534
 20
-26.726286991
 11
-38.1275957565
 21
-27.006916833
  0
LINE
  5
345
100
AcDbEntity
  8
RACCORDO
100
AcDbLine
 62
253
  6
CONTINUOUS
 10
-38.0334178713
 20
-26.1634154684
 11
-38.0967198534
 21
-26.726286991
  0
LINE
  5
346
100
AcDbEntity
  8
RACCORDO
100
AcDbLine
 62
7
  6
CONTINUOUS
 10
-37.7874009138
 20
8.4299655129
 11
-37.7858765365
 21
8.4435228472
  0
LINE
  5
347
100
AcDbEntity
  8
RACCORDO
100
AcDbLine
 62
253
  6
CONTINUOUS
 10
-37.8289526711
 20
-22.5086873737
 11
-37.8295215936
 21
-22.5136652208
  0
LINE
  5
348
100
AcDbEntity
  8
RACCORDO
100
AcDbLine
 62
7
  6
CONTINUOUS
 10
-37.7858765365
 20
8.4435228472
 11
-37.7843974638
 21
8.456021739
  0
LINE
  5
349
100
AcDbEntity
  8
RACCORDO
100
AcDbLine
 62
253
  6
CONTINUOUS
 10
-37.7827742008
 20
8.5050698998
 11
-37.7802992366
 21
8.5255063046
  0
LINE
  5
34A
100
AcDbEntity
  8
RACCORDO
100
AcDbLine
 62
253
  6
CONTINUOUS
 10
-37.8283659268
 20
-22.5038413127
 11
-37.8289526711
 21
-22.5086873737
  0
LINE
  5
34B
100
AcDbEntity
  8
RACCORDO
100
AcDbLine
 62
7
  6
CONTINUOUS
 10
-37.7843974638
 20
8.456021739
 11
-37.7829716018
 21
8.467456925
  0
LWPOLYLINE
  5
34C
100
AcDbEntity
  8
RACCORDO
100
AcDbPolyline
 62
253
  6
CONTINUOUS
 90
13
 70
0
 10
-37.7802992366
 20
8.5255063046
 10
-37.777795671
 20
8.5447310101
 10
-37.7752641961
 20
8.5627425441
 10
-37.772711253
 20
8.579492794
 10
-37.7701366126
 20
8.5949767679
 10
-37.767540504
 20
8.6091994577
 10
-37.7649300555
 20
8.6221277264
 10
-37.7623051301
 20
8.6337553206
 10
-37.7596658648
 20
8.6440884937
 10
-37.7570198
 20
8.6531128693
 10
-37.754369449
 20
8.6608236552
 10
-37.7517122984
 20
8.6672256435
 10
-37.7490483482
 20
8.6723188343
  0
LINE
  5
34D
100
AcDbEntity
  8
RACCORDO
100
AcDbLine
 62
253
  6
CONTINUOUS
 10
-37.8277602865
 20
-22.4991295369
 11
-37.8283659268
 21
-22.5038413127
  0
LINE
  5
34E
100
AcDbEntity
  8
RACCORDO
100
AcDbLine
 62
7
  6
CONTINUOUS
 10
-37.7829716018
 20
8.467456925
 11
-37.7816101942
 21
8.4778055165
  0
LINE
  5
34F
100
AcDbEntity
  8
RACCORDO
100
AcDbLine
 62
7
  6
CONTINUOUS
 10
-37.7816101942
 20
8.4778055165
 11
-37.7803240955
 21
8.4870573705
  0
LWPOLYLINE
  5
350
100
AcDbEntity
  8
RACCORDO
100
AcDbPolyline
 62
7
  6
CONTINUOUS
 90
13
 70
0
 10
-37.7803240955
 20
8.4870573705
 10
-37.7791277279
 20
8.4951882156
 10
-37.7785692416
 20
8.4988196512
 10
-37.7780396278
 20
8.5021620728
 10
-37.777541048
 20
8.5052143958
 10
-37.7770799625
 20
8.5079512058
 10
-37.7766582394
 20
8.5103768651
 10
-37.776278302
 20
8.5124931114
 10
-37.7759483571
 20
8.514271778
 10
-37.7756709229
 20
8.5157185552
 10
-37.7754493326
 20
8.516835613
 10
-37.7752942934
 20
8.5175908211
 10
-37.7752360526
 20
8.5178666206
  0
LINE
  5
351
100
AcDbEntity
  8
RACCORDO
100
AcDbLine
 62
253
  6
CONTINUOUS
 10
-37.7706863326
 20
8.5250870482
 11
-37.7764753078
 21
8.5073465314
  0
LINE
  5
352
100
AcDbEntity
  8
RACCORDO
100
AcDbLine
 62
253
  6
CONTINUOUS
 10
-37.7492006957
 20
8.5609749863
 11
-37.7491596105
 21
8.5606067341
  0
LINE
  5
353
100
AcDbEntity
  8
RACCORDO
100
AcDbLine
 62
253
  6
CONTINUOUS
 10
-37.7764753078
 20
8.5073465314
 11
-37.777763874
 21
8.5038502471
  0
LINE
  5
354
100
AcDbEntity
  8
RACCORDO
100
AcDbLine
 62
253
  6
CONTINUOUS
 10
-37.7549883096
 20
8.5432334436
 11
-37.7551391458
 21
8.5424819352
  0
LINE
  5
355
100
AcDbEntity
  8
RACCORDO
100
AcDbLine
 62
253
  6
CONTINUOUS
 10
-37.7614399666
 20
8.5257234965
 11
-37.7685465634
 21
8.5084699722
  0
LWPOLYLINE
  5
356
100
AcDbEntity
  8
RACCORDO
100
AcDbPolyline
 62
7
  6
CONTINUOUS
 90
12
 70
0
 10
-37.7693416328
 20
8.5065485389
 10
-37.7618650738
 20
8.5244490671
 10
-37.7551391458
 20
8.5424819352
 10
-37.7491596105
 20
8.5606067341
 10
-37.7438999079
 20
8.5788577745
 10
-37.7393638611
 20
8.5971781875
 10
-37.735535348
 20
8.6155883525
 10
-37.7324083143
 20
8.6340858965
 10
-37.7299888522
 20
8.6525851309
 10
-37.7282681006
 20
8.6710692396
 10
-37.7272352497
 20
8.6895895834
 10
-37.7268900626
 20
8.708165587
  0
LINE
  5
357
100
AcDbEntity
  8
RACCORDO
100
AcDbLine
 62
253
  6
CONTINUOUS
 10
-37.7685465634
 20
8.5084699722
 11
-37.7745781509
 21
8.495263209
  0
LINE
  5
358
100
AcDbEntity
  8
RACCORDO
100
AcDbLine
 62
253
  6
CONTINUOUS
 10
-37.7766522122
 20
8.4907933561
 11
-37.7810196655
 21
8.4821121193
  0
LWPOLYLINE
  5
359
100
AcDbEntity
  8
RACCORDO
100
AcDbPolyline
 62
7
  6
CONTINUOUS
 90
3
 70
0
 10
-37.7810235979
 20
8.4820834406
 10
-37.7775050242
 20
8.488955443
 10
-37.7693416328
 20
8.5065485389
  0
LINE
  5
35A
100
AcDbEntity
  8
RACCORDO
100
AcDbLine
 62
253
  6
CONTINUOUS
 10
-37.7490483482
 20
8.6723188343
 11
-37.7275752953
 21
8.708165587
  0
LINE
  5
35B
100
AcDbEntity
  8
RACCORDO
100
AcDbLine
 62
253
  6
CONTINUOUS
 10
-37.3734563298
 20
22.8475545875
 11
-37.3938212926
 21
22.8357051564
  0
LINE
  5
35C
100
AcDbEntity
  8
RACCORDO
100
AcDbLine
 62
253
  6
CONTINUOUS
 10
-37.4449119114
 20
22.8064043342
 11
-37.4546859418
 21
22.8007194725
  0
LWPOLYLINE
  5
35D
100
AcDbEntity
  8
RACCORDO
100
AcDbPolyline
 62
253
  6
CONTINUOUS
 90
3
 70
0
 10
-37.3938212926
 20
22.8357051564
 10
-37.4331551576
 20
22.813160211
 10
-37.4449119114
 20
22.8064043342
  0
LWPOLYLINE
  5
35E
100
AcDbEntity
  8
RACCORDO
100
AcDbPolyline
 62
253
  6
CONTINUOUS
 90
28
 70
0
 10
-38.0449584039
 20
26.6881207301
 10
-38.030425966
 20
26.6930646445
 10
-38.0152328798
 20
26.6980389195
 10
-37.9993975886
 20
26.7030375166
 10
-37.9829393148
 20
26.7080543681
 10
-37.9658780374
 20
26.7130833839
 10
-37.9482344673
 20
26.7181184592
 10
-37.9300300224
 20
26.7231534819
 10
-37.911286801
 20
26.72818234
 10
-37.892027556
 20
26.7331989287
 10
-37.8722756664
 20
26.7381971584
 10
-37.8520551092
 20
26.7431709617
 10
-37.8313904303
 20
26.7481143009
 10
-37.8103067151
 20
26.7530211751
 10
-37.7888295571
 20
26.7578856278
 10
-37.7669850278
 20
26.7627017541
 10
-37.7447996446
 20
26.7674637075
 10
-37.7223003386
 20
26.7721657074
 10
-37.6995144219
 20
26.7768020461
 10
-37.6764695547
 20
26.7813670954
 10
-37.6531937115
 20
26.7858553137
 10
-37.629715147
 20
26.7902612528
 10
-37.6060623623
 20
26.7945795642
 10
-37.5822640697
 20
26.7988050059
 10
-37.5583491582
 20
26.8029324485
 10
-37.5343466585
 20
26.8069568817
 10
-37.5102857076
 20
26.8108734202
 10
-37.4861955132
 20
26.8146773096
  0
LINE
  5
35F
100
AcDbEntity
  8
RACCORDO
100
AcDbLine
 62
253
  6
CONTINUOUS
 10
38.1794484196
 20
-27.5271322054
 11
38.1436050252
 21
-27.5349336754
  0
LINE
  5
360
100
AcDbEntity
  8
RACCORDO
100
AcDbLine
 62
253
  6
CONTINUOUS
 10
38.1436050252
 20
-27.5349336754
 11
38.1060356391
 21
-27.5428782643
  0
LINE
  5
361
100
AcDbEntity
  8
RACCORDO
100
AcDbLine
 62
253
  6
CONTINUOUS
 10
38.1060356391
 20
-27.5428782643
 11
38.0669014478
 21
-27.5509318867
  0
LINE
  5
362
100
AcDbEntity
  8
RACCORDO
100
AcDbLine
 62
253
  6
CONTINUOUS
 10
38.0669014478
 20
-27.5509318867
 11
38.026370351
 21
-27.5590599899
  0
LINE
  5
363
100
AcDbEntity
  8
RACCORDO
100
AcDbLine
 62
253
  6
CONTINUOUS
 10
38.026370351
 20
-27.5590599899
 11
37.9846162418
 21
-27.5672277012
  0
LINE
  5
364
100
AcDbEntity
  8
RACCORDO
100
AcDbLine
 62
253
  6
CONTINUOUS
 10
37.9846162418
 20
-27.5672277012
 11
37.9200850452
 21
-27.5794768688
  0
LWPOLYLINE
  5
365
100
AcDbEntity
  8
RACCORDO
100
AcDbPolyline
 62
253
  6
CONTINUOUS
 90
3
 70
0
 10
37.9200850452
 20
-27.5794768688
 10
37.8538288478
 20
-27.5916181126
 10
37.8314702508
 20
-27.5956209106
  0
LINE
  5
366
100
AcDbEntity
  8
0
100
AcDbLine
 62
253
  6
CONTINUOUS
 10
51.6292815281
 20
-35.8557926453
 11
-51.6292815281
 21
-35.8557926453
  0
LWPOLYLINE
  5
367
100
AcDbEntity
  8
0
100
AcDbPolyline
 62
253
  6
CONTINUOUS
 90
79
 70
0
 10
-51.6292815281
 20
-35.8557926453
 10
-51.6720762186
 20
-35.855381662
 10
-51.7148259
 20
-35.8541524433
 10
-51.7575305723
 20
-35.8521049884
 10
-51.800205717
 20
-35.8492379578
 10
-51.8428358525
 20
-35.8455526874
 10
-51.8853745343
 20
-35.8410531883
 10
-51.9278214709
 20
-35.8357385558
 10
-51.9701769537
 20
-35.8296096876
 10
-52.0123954128
 20
-35.8226732977
 10
-52.0544766582
 20
-35.8149284948
 10
-52.0964208798
 20
-35.8063761596
 10
-52.1381830772
 20
-35.7970256644
 10
-52.1797630124
 20
-35.786876138
 10
-52.2211609234
 20
-35.7759284377
 10
-52.2623325231
 20
-35.7641945277
 10
-52.3032775661
 20
-35.7516735413
 10
-52.3439962979
 20
-35.7383663284
 10
-52.3844451681
 20
-35.7242874266
 10
-52.4246238812
 20
-35.709435983
 10
-52.4645327328
 20
-35.6938128309
 10
-52.5041290582
 20
-35.6774350368
 10
-52.5434125076
 20
-35.6603017678
 10
-52.5823834309
 20
-35.6424138345
 10
-52.6210002135
 20
-35.6237907688
 10
-52.6592624492
 20
-35.6044317654
 10
-52.6971705442
 20
-35.5843376051
 10
-52.7346841022
 20
-35.563530199
 10
-52.7718026839
 20
-35.5420087613
 10
-52.8085267288
 20
-35.5197740514
 10
-52.8448171583
 20
-35.496850298
 10
-52.8806734833
 20
-35.4732367475
 10
-52.9160961931
 20
-35.4489341256
 10
-52.9510476773
 20
-35.4239688804
 10
-52.9855274125
 20
-35.3983402841
 10
-53.0195359222
 20
-35.3720490354
 10
-53.0530371671
 20
-35.3451237232
 10
-53.0860305755
 20
-35.3175636601
 10
-53.1185167191
 20
-35.2893695037
 10
-53.1504612734
 20
-35.2605718616
 10
-53.1818636381
 20
-35.231170075
 10
-53.2127244136
 20
-35.2011647726
 10
-53.243011076
 20
-35.1705884942
 10
-53.2727229821
 20
-35.1394406277
 10
-53.3018607751
 20
-35.1077217551
 10
-53.3303938616
 20
-35.0754662086
 10
-53.3583215745
 20
-35.0426734073
 10
-53.3856445808
 20
-35.0093439024
 10
-53.4123342882
 20
-34.9755137263
 10
-53.4383899923
 20
-34.9411823495
 10
-53.4638123974
 20
-34.9063502725
 10
-53.4885750243
 20
-34.8710550746
 10
-53.5126771477
 20
-34.8352962622
 10
-53.5361194929
 20
-34.7990743011
 10
-53.5588777563
 20
-34.7624282119
 10
-53.5809511807
 20
-34.7253575599
 10
-53.6023405234
 20
-34.6878627536
 10
-53.6230237523
 20
-34.6499840809
 10
-53.6430000984
 20
-34.6117211375
 10
-53.6622703306
 20
-34.5730743034
 10
-53.680814724
 20
-34.5340850459
 10
-53.6986324858
 20
-34.494753016
 10
-53.7157244087
 20
-34.4550785408
 10
-53.732073146
 20
-34.4151041031
 10
-53.7476778875
 20
-34.3748294082
 10
-53.7625394434
 20
-34.3342547315
 10
-53.7766428976
 20
-34.2934234141
 10
-53.7899874257
 20
-34.2523352248
 10
-53.802573852
 20
-34.2109903781
 10
-53.8143897329
 20
-34.1694328872
 10
-53.8254342455
 20
-34.1276625224
 10
-53.8357082128
 20
-34.0856794996
 10
-53.8452016603
 20
-34.0435285037
 10
-53.8539137723
 20
-34.0012091551
 10
-53.8618453646
 20
-33.9587218227
 10
-53.8689889095
 20
-33.9161123171
 10
-53.8753418979
 20
-33.8733959067
 10
-53.880906839
 20
-33.8305573162
 10
-53.8856837327
 20
-33.7875965416
  0
LINE
  5
368
100
AcDbEntity
  8
RACCORDO
100
AcDbLine
 62
253
  6
CONTINUOUS
 10
-37.898160025
 20
-27.5835417597
 11
-37.831470251
 21
-27.595620911
  0
LINE
  5
369
100
AcDbEntity
  8
RACCORDO
100
AcDbLine
 62
253
  6
CONTINUOUS
 10
-37.9633363513
 20
-27.5713154625
 11
-37.898160025
 21
-27.5835417597
  0
LINE
  5
36A
100
AcDbEntity
  8
RACCORDO
100
AcDbLine
 62
253
  6
CONTINUOUS
 10
-38.0056350849
 20
-27.5631410834
 11
-37.9633363513
 21
-27.5713154625
  0
LINE
  5
36B
100
AcDbEntity
  8
RACCORDO
100
AcDbLine
 62
253
  6
CONTINUOUS
 10
-38.0467997673
 20
-27.5549888032
 11
-38.0056350849
 21
-27.5631410834
  0
LINE
  5
36C
100
AcDbEntity
  8
RACCORDO
100
AcDbLine
 62
253
  6
CONTINUOUS
 10
-38.0866537871
 20
-27.546893598
 11
-38.0467997673
 21
-27.5549888032
  0
LINE
  5
36D
100
AcDbEntity
  8
RACCORDO
100
AcDbLine
 62
253
  6
CONTINUOUS
 10
-38.1250261562
 20
-27.5388901993
 11
-38.0866537871
 21
-27.546893598
  0
LWPOLYLINE
  5
36E
100
AcDbEntity
  8
RACCORDO
100
AcDbPolyline
 62
253
  6
CONTINUOUS
 90
3
 70
0
 10
-38.1794483961
 20
-27.5271322076
 10
-38.1617522431
 20
-27.5310129445
 10
-38.1250261562
 20
-27.5388901993
  0
LINE
  5
36F
100
AcDbEntity
  8
RACCORDO
100
AcDbLine
 62
253
  6
CONTINUOUS
 10
-37.4448136544
 20
-22.8063917247
 11
-37.395731344
 21
-22.8332242195
  0
LINE
  5
370
100
AcDbEntity
  8
RACCORDO
100
AcDbLine
 62
253
  6
CONTINUOUS
 10
-37.395731344
 20
-22.8332242195
 11
-37.3764277541
 21
-22.8439142763
  0
LWPOLYLINE
  5
371
100
AcDbEntity
  8
RACCORDO
100
AcDbPolyline
 62
253
  6
CONTINUOUS
 90
37
 70
0
 10
-37.3764277541
 20
-22.8439142763
 10
-37.3544643363
 20
-22.8563014102
 10
-37.3424646642
 20
-22.8631908114
 10
-37.3304216272
 20
-22.8702511375
 10
-37.3184335413
 20
-22.8773892573
 10
-37.3064020905
 20
-22.8846633165
 10
-37.2946048744
 20
-22.8919877537
 10
-37.2830916854
 20
-22.8993140035
 10
-37.2718127311
 20
-22.9066494314
 10
-37.2608962334
 20
-22.9139876252
 10
-37.2503288805
 20
-22.9213315082
 10
-37.2401239841
 20
-22.9286458036
 10
-37.230449701
 20
-22.935865509
 10
-37.2213701099
 20
-22.9429350155
 10
-37.2128211321
 20
-22.9498733725
 10
-37.2047786874
 20
-22.956729152
 10
-37.1972435655
 20
-22.9634957214
 10
-37.1902149767
 20
-22.9701561792
 10
-37.1836664718
 20
-22.9767502939
 10
-37.1775919125
 20
-22.9832832189
 10
-37.1719974371
 20
-22.9897336336
 10
-37.1668750112
 20
-22.9961048314
 10
-37.1622305253
 20
-23.0023945354
 10
-37.1580580888
 20
-23.0085912559
 10
-37.1543319968
 20
-23.0146852107
 10
-37.1510607803
 20
-23.0206712404
 10
-37.1482359083
 20
-23.0265420695
 10
-37.1458060817
 20
-23.0322848319
 10
-37.1437778825
 20
-23.0378946751
 10
-37.1421447288
 20
-23.0433652076
 10
-37.1408355761
 20
-23.0486811995
 10
-37.1398534138
 20
-23.0538259178
 10
-37.1391952525
 20
-23.0588057756
 10
-37.1387810792
 20
-23.0636409409
 10
-37.138584223
 20
-23.0683358048
 10
-37.1386313548
 20
-23.0728783922
 10
-37.1389224747
 20
-23.0772651445
  0
LINE
  5
372
100
AcDbEntity
  8
RACCORDO
100
AcDbLine
 62
253
  6
CONTINUOUS
 10
-37.7275752953
 20
-8.708165587
 11
-37.7490483482
 21
-8.6723188343
  0
LWPOLYLINE
  5
373
100
AcDbEntity
  8
RACCORDO
100
AcDbPolyline
 62
253
  6
CONTINUOUS
 90
13
 70
0
 10
-37.7490483482
 20
-8.6723188343
 10
-37.7517114795
 20
-8.6672275764
 10
-37.7543678852
 20
-8.6608279397
 10
-37.7570175653
 20
-8.6531199243
 10
-37.7596630194
 20
-8.6440989306
 10
-37.7623017479
 20
-8.6337695583
 10
-37.764926252
 20
-8.6221456055
 10
-37.7675364108
 20
-8.609220779
 10
-37.7701323451
 20
-8.5950013721
 10
-37.7727069184
 20
-8.5795200636
 10
-37.7752599281
 20
-8.562771608
 10
-37.7777915768
 20
-8.5447612508
 10
-37.780295336
 20
-8.5255374071
  0
LWPOLYLINE
  5
374
100
AcDbEntity
  8
RACCORDO
100
AcDbPolyline
 62
7
  6
CONTINUOUS
 90
3
 70
0
 10
-37.7810227645
 20
-8.4820850683
 10
-37.7775050242
 20
-8.488955443
 10
-37.7693416328
 20
-8.5065485389
  0
LINE
  5
375
100
AcDbEntity
  8
RACCORDO
100
AcDbLine
 62
253
  6
CONTINUOUS
 10
-37.7766522117
 20
-8.4907933571
 11
-37.7810187159
 21
-8.4821140068
  0
LINE
  5
376
100
AcDbEntity
  8
RACCORDO
100
AcDbLine
 62
253
  6
CONTINUOUS
 10
-37.7685465626
 20
-8.508469974
 11
-37.7745781495
 21
-8.4952632121
  0
LWPOLYLINE
  5
377
100
AcDbEntity
  8
RACCORDO
100
AcDbPolyline
 62
7
  6
CONTINUOUS
 90
12
 70
0
 10
-37.7693416328
 20
-8.5065485389
 10
-37.7618650738
 20
-8.5244490671
 10
-37.7551391458
 20
-8.5424819352
 10
-37.7491596105
 20
-8.5606067341
 10
-37.7438999079
 20
-8.5788577745
 10
-37.7393638611
 20
-8.5971781875
 10
-37.735535348
 20
-8.6155883525
 10
-37.7324083143
 20
-8.6340858965
 10
-37.7299888522
 20
-8.6525851309
 10
-37.7282681006
 20
-8.6710692396
 10
-37.7272352497
 20
-8.6895895834
 10
-37.7268900626
 20
-8.708165587
  0
LINE
  5
378
100
AcDbEntity
  8
RACCORDO
100
AcDbLine
 62
253
  6
CONTINUOUS
 10
-37.7614399661
 20
-8.5257234979
 11
-37.7685465626
 21
-8.508469974
  0
LINE
  5
379
100
AcDbEntity
  8
RACCORDO
100
AcDbLine
 62
253
  6
CONTINUOUS
 10
-37.7764753145
 20
-8.507346512
 11
-37.7777642679
 21
-8.5038491778
  0
LINE
  5
37A
100
AcDbEntity
  8
RACCORDO
100
AcDbLine
 62
253
  6
CONTINUOUS
 10
-37.7549883093
 20
-8.5432334446
 11
-37.7551391458
 21
-8.5424819352
  0
LINE
  5
37B
100
AcDbEntity
  8
RACCORDO
100
AcDbLine
 62
253
  6
CONTINUOUS
 10
-37.7706863382
 20
-8.5250870301
 11
-37.7764753145
 21
-8.507346512
  0
LINE
  5
37C
100
AcDbEntity
  8
RACCORDO
100
AcDbLine
 62
253
  6
CONTINUOUS
 10
-37.7492006955
 20
-8.5609749872
 11
-37.7491596105
 21
-8.5606067341
  0
LWPOLYLINE
  5
37D
100
AcDbEntity
  8
RACCORDO
100
AcDbPolyline
 62
253
  6
CONTINUOUS
 90
63
 70
0
 10
-37.8263096981
 20
22.5023530522
 10
-37.8259675368
 20
22.5000324074
 10
-37.825619556
 20
22.4977506195
 10
-37.8252657763
 20
22.4955076156
 10
-37.8249061771
 20
22.4933034684
 10
-37.8245403262
 20
22.4911407249
 10
-37.8241682337
 20
22.4890192201
 10
-37.8237898896
 20
22.4869391188
 10
-37.8234048307
 20
22.484903462
 10
-37.8230130694
 20
22.4829120835
 10
-37.8226145934
 20
22.4809651496
 10
-37.8222089028
 20
22.4790661995
 10
-37.8217960237
 20
22.4772151015
 10
-37.82137593
 20
22.4754119874
 10
-37.8209480433
 20
22.4736607919
 10
-37.8205123785
 20
22.4719613031
 10
-37.8200689206
 20
22.4703137328
 10
-37.8196170469
 20
22.4687226512
 10
-37.8191568436
 20
22.467188005
 10
-37.8186882245
 20
22.4657098476
 10
-37.8182103081
 20
22.4642929093
 10
-37.8177231197
 20
22.4629368393
 10
-37.8172266339
 20
22.4616419885
 10
-37.8167198934
 20
22.4604141404
 10
-37.8162029333
 20
22.4592529532
 10
-37.8156757184
 20
22.4581587686
 10
-37.8151371848
 20
22.4571383956
 10
-37.8145877113
 20
22.4561917608
 10
-37.814026919
 20
22.4553189376
 10
-37.813452607
 20
22.4545269549
 10
-37.812864371
 20
22.4538146959
 10
-37.8122626151
 20
22.4531832773
 10
-37.8116463516
 20
22.4526430789
 10
-37.8110139519
 20
22.4521943608
 10
-37.8103670445
 20
22.4518368627
 10
-37.8097095266
 20
22.4515801837
 10
-37.8090385744
 20
22.4514289829
 10
-37.8083570118
 20
22.4513786012
 10
-37.8076772069
 20
22.45142466
 10
-37.8070000363
 20
22.4515731238
 10
-37.8063246235
 20
22.4518180281
 10
-37.8056607077
 20
22.4521371002
 10
-37.8050102461
 20
22.4525315606
 10
-37.8043712815
 20
22.4530001888
 10
-37.8037476804
 20
22.45351705
 10
-37.8031413328
 20
22.4540795542
 10
-37.8025503487
 20
22.4546902916
 10
-37.8019729252
 20
22.455331098
 10
-37.8014091037
 20
22.4560001585
 10
-37.8008588428
 20
22.4566992882
 10
-37.8003202145
 20
22.4574157674
 10
-37.7997929812
 20
22.4581486516
 10
-37.7992773805
 20
22.4588988854
 10
-37.7987721976
 20
22.4596565836
 10
-37.7982774357
 20
22.460420841
 10
-37.7977930916
 20
22.4611925627
 10
-37.7973179406
 20
22.4619645793
 10
-37.7968518817
 20
22.4627363784
 10
-37.796395016
 20
22.4635084722
 10
-37.7959464216
 20
22.4642752276
 10
-37.795506037
 20
22.4650362447
 10
-37.7950739238
 20
22.4657919234
 10
-37.7926352994
 20
22.4700982102
  0
LINE
  5
37E
100
AcDbEntity
  8
RACCORDO
100
AcDbLine
 62
7
  6
CONTINUOUS
 10
-37.7792485845
 20
-8.4943882869
 11
-37.7804894777
 21
-8.4858968499
  0
LINE
  5
37F
100
AcDbEntity
  8
RACCORDO
100
AcDbLine
 62
253
  6
CONTINUOUS
 10
-37.8269776799
 20
22.5071037783
 11
-37.8263096981
 21
22.5023530522
  0
LINE
  5
380
100
AcDbEntity
  8
RACCORDO
100
AcDbLine
 62
7
  6
CONTINUOUS
 10
-37.7804894777
 20
-8.4858968499
 11
-37.7818329176
 21
-8.4761511714
  0
LINE
  5
381
100
AcDbEntity
  8
RACCORDO
100
AcDbLine
 62
253
  6
CONTINUOUS
 10
-37.8276242255
 20
22.5119985898
 11
-37.8269776799
 21
22.5071037783
  0
LINE
  5
382
100
AcDbEntity
  8
RACCORDO
100
AcDbLine
 62
7
  6
CONTINUOUS
 10
-37.7818329176
 20
-8.4761511714
 11
-37.7832679653
 21
-8.4651299991
  0
LINE
  5
383
100
AcDbEntity
  8
RACCORDO
100
AcDbLine
 62
253
  6
CONTINUOUS
 10
-38.6592434883
 20
32.215695144
 11
-38.5783544432
 21
31.5636919946
  0
LINE
  5
384
100
AcDbEntity
  8
RACCORDO
100
AcDbLine
 62
253
  6
CONTINUOUS
 10
-37.8282504385
 20
22.5170320427
 11
-37.8276242255
 21
22.5119985898
  0
LWPOLYLINE
  5
385
100
AcDbEntity
  8
RACCORDO
100
AcDbPolyline
 62
253
  6
CONTINUOUS
 90
15
 70
0
 10
-38.5783544432
 20
31.5636919946
 10
-38.4986269195
 20
30.9148303378
 10
-38.4593351371
 20
30.5915489956
 10
-38.4207449849
 20
30.2704779646
 10
-38.3829262515
 20
29.9517483126
 10
-38.3459218436
 20
29.6352769137
 10
-38.3099477288
 20
29.3220396178
 10
-38.2750470279
 20
29.0120077351
 10
-38.241273767
 20
28.7052529089
 10
-38.2088332446
 20
28.4028997982
 10
-38.1777865939
 20
28.1052045375
 10
-38.1481452112
 20
27.8119524604
 10
-38.1200096491
 20
27.5235575977
 10
-38.0934238843
 20
27.2401693081
 10
-38.0683977531
 20
26.9616819863
  0
LINE
  5
386
100
AcDbEntity
  8
RACCORDO
100
AcDbLine
 62
7
  6
CONTINUOUS
 10
-37.7832679653
 20
-8.4651299991
 11
-37.7847858141
 21
-8.4528024999
  0
LINE
  5
387
100
AcDbEntity
  8
RACCORDO
100
AcDbLine
 62
253
  6
CONTINUOUS
 10
-37.780295336
 20
-8.5255374071
 11
-37.782770506
 21
-8.5051014398
  0
LWPOLYLINE
  5
388
100
AcDbEntity
  8
RACCORDO
100
AcDbPolyline
 62
7
  6
CONTINUOUS
 90
3
 70
0
 10
-37.7847858141
 20
-8.4528024999
 10
-37.78637837
 20
-8.4391354228
 10
-37.7872008862
 20
-8.4317836785
  0
LWPOLYLINE
  5
389
100
AcDbEntity
  8
RACCORDO
100
AcDbPolyline
 62
253
  6
CONTINUOUS
 90
7
 70
0
 10
-37.782770506
 20
-8.5051014398
 10
-37.7852177865
 20
-8.4834519861
 10
-37.7876327485
 20
-8.4606333728
 10
-37.7900151326
 20
-8.4366468002
 10
-37.7923651982
 20
-8.4114910679
 10
-37.7946792939
 20
-8.3852069023
 10
-37.7969576727
 20
-8.3577896446
  0
LWPOLYLINE
  5
38A
100
AcDbEntity
  8
RACCORDO
100
AcDbPolyline
 62
253
  6
CONTINUOUS
 90
3
 70
0
 10
-37.8291531891
 20
22.5248297066
 10
-37.8288570933
 20
22.5221979001
 10
-37.8282504385
 20
22.5170320427
  0
LWPOLYLINE
  5
38B
100
AcDbEntity
  8
RACCORDO
100
AcDbPolyline
 62
253
  6
CONTINUOUS
 90
13
 70
0
 10
-37.7413098347
 20
-27.6112964501
 10
-37.8062801979
 20
-27.9762284045
 10
-37.8737832522
 20
-28.3455204379
 10
-37.9438189978
 20
-28.7191230803
 10
-38.016645498
 20
-29.0974366426
 10
-38.0920046894
 20
-29.4799505071
 10
-38.1691223812
 20
-29.8652427074
 10
-38.2480355283
 20
-30.253283974
 10
-38.3287071757
 20
-30.6439720928
 10
-38.4102522674
 20
-31.0357731428
 10
-38.4923757846
 20
-31.4281301535
 10
-38.575372746
 20
-31.821460997
 10
-38.6592431517
 20
-32.2156939465
  0
LWPOLYLINE
  5
38C
100
AcDbEntity
  8
RACCORDO
100
AcDbPolyline
 62
253
  6
CONTINUOUS
 90
5
 70
0
 10
-37.6422447088
 20
-27.1290925383
 10
-37.669766148
 20
-27.2554826196
 10
-37.6952652355
 20
-27.3776038022
 10
-37.7191131311
 20
-27.4962217408
 10
-37.7413098347
 20
-27.6112964501
  0
LINE
  5
38D
100
AcDbEntity
  8
RACCORDO
100
AcDbLine
 62
253
  6
CONTINUOUS
 10
-37.4342171764
 20
-26.218544811
 11
-37.4921179045
 21
-26.4737551874
  0
LWPOLYLINE
  5
38E
100
AcDbEntity
  8
RACCORDO
100
AcDbPolyline
 62
253
  6
CONTINUOUS
 90
4
 70
0
 10
-37.4921179045
 20
-26.4737551874
 10
-37.5530790952
 20
-26.7369456718
 10
-37.5833617338
 20
-26.8685834409
 10
-37.6422447088
 20
-27.1290925383
  0
LWPOLYLINE
  5
38F
100
AcDbEntity
  8
RACCORDO
100
AcDbPolyline
 62
253
  6
CONTINUOUS
 90
3
 70
0
 10
37.8314702508
 20
-27.5956209106
 10
37.763910519
 20
-27.6074363644
 10
37.7413098347
 20
-27.61129645
  0
LINE
  5
390
100
AcDbEntity
  8
0
100
AcDbLine
 62
253
  6
CONTINUOUS
 10
-54.9182299735
 20
-33.8839099243
 11
-54.6906874659
 21
-33.8643452851
  0
LINE
  5
391
100
AcDbEntity
  8
0
100
AcDbLine
 62
253
  6
CONTINUOUS
 10
-55.1439345814
 20
-33.902358058
 11
-54.9182299735
 21
-33.8839099243
  0
LINE
  5
392
100
AcDbEntity
  8
0
100
AcDbLine
 62
253
  6
CONTINUOUS
 10
-55.3673995424
 20
-33.9196568493
 11
-55.1439345814
 21
-33.902358058
  0
LINE
  5
393
100
AcDbEntity
  8
0
100
AcDbLine
 62
253
  6
CONTINUOUS
 10
-55.588227096
 20
-33.9357755069
 11
-55.3673995424
 21
-33.9196568493
  0
LINE
  5
394
100
AcDbEntity
  8
0
100
AcDbLine
 62
253
  6
CONTINUOUS
 10
-55.8060241762
 20
-33.9506853399
 11
-55.588227096
 21
-33.9357755069
  0
LINE
  5
395
100
AcDbEntity
  8
0
100
AcDbLine
 62
253
  6
CONTINUOUS
 10
-56.0204031109
 20
-33.9643598094
 11
-55.8060241762
 21
-33.9506853399
  0
LINE
  5
396
100
AcDbEntity
  8
0
100
AcDbLine
 62
253
  6
CONTINUOUS
 10
-56.2309823124
 20
-33.9767745753
 11
-56.0204031109
 21
-33.9643598094
  0
LINE
  5
397
100
AcDbEntity
  8
0
100
AcDbLine
 62
253
  6
CONTINUOUS
 10
-56.4373869565
 20
-33.9879075396
 11
-56.2309823124
 21
-33.9767745753
  0
LINE
  5
398
100
AcDbEntity
  8
0
100
AcDbLine
 62
253
  6
CONTINUOUS
 10
-56.6392496493
 20
-33.9977388861
 11
-56.4373869565
 21
-33.9879075396
  0
LINE
  5
399
100
AcDbEntity
  8
0
100
AcDbLine
 62
253
  6
CONTINUOUS
 10
-56.8362110816
 20
-34.0062511152
 11
-56.6392496493
 21
-33.9977388861
  0
LINE
  5
39A
100
AcDbEntity
  8
0
100
AcDbLine
 62
253
  6
CONTINUOUS
 10
-57.0279206682
 20
-34.0134290755
 11
-56.8362110816
 21
-34.0062511152
  0
LINE
  5
39B
100
AcDbEntity
  8
0
100
AcDbLine
 62
253
  6
CONTINUOUS
 10
-57.2140371722
 20
-34.0192599905
 11
-57.0279206682
 21
-34.0134290755
  0
LINE
  5
39C
100
AcDbEntity
  8
0
100
AcDbLine
 62
253
  6
CONTINUOUS
 10
-57.3942293121
 20
-34.0237334811
 11
-57.2140371722
 21
-34.0192599905
  0
LINE
  5
39D
100
AcDbEntity
  8
0
100
AcDbLine
 62
253
  6
CONTINUOUS
 10
-57.5681763515
 20
-34.0268415849
 11
-57.3942293121
 21
-34.0237334811
  0
LINE
  5
39E
100
AcDbEntity
  8
RACCORDO
100
AcDbLine
 62
253
  6
CONTINUOUS
 10
38.6592431517
 20
-32.2156939465
 11
-38.6592431517
 21
-32.2156939465
  0
LINE
  5
39F
100
AcDbEntity
  8
0
100
AcDbLine
 62
253
  6
CONTINUOUS
 10
57.8167132247
 20
-34.0289322047
 11
57.6527107491
 21
-34.0278817921
  0
LINE
  5
3A0
100
AcDbEntity
  8
0
100
AcDbLine
 62
253
  6
CONTINUOUS
 10
57.6527107491
 20
-34.0278817921
 11
57.4820030843
 21
-34.0254586087
  0
LINE
  5
3A1
100
AcDbEntity
  8
0
100
AcDbLine
 62
253
  6
CONTINUOUS
 10
57.4820030843
 20
-34.0254586087
 11
57.3048940845
 21
-34.0216669678
  0
LINE
  5
3A2
100
AcDbEntity
  8
0
100
AcDbLine
 62
253
  6
CONTINUOUS
 10
57.3048940845
 20
-34.0216669678
 11
57.121698998
 21
-34.0165136183
  0
LINE
  5
3A3
100
AcDbEntity
  8
0
100
AcDbLine
 62
253
  6
CONTINUOUS
 10
57.121698998
 20
-34.0165136183
 11
56.9327439064
 21
-34.010007733
  0
LINE
  5
3A4
100
AcDbEntity
  8
0
100
AcDbLine
 62
253
  6
CONTINUOUS
 10
56.9327439064
 20
-34.010007733
 11
56.7383651439
 21
-34.0021608922
  0
LINE
  5
3A5
100
AcDbEntity
  8
0
100
AcDbLine
 62
253
  6
CONTINUOUS
 10
56.7383651439
 20
-34.0021608922
 11
56.5389086983
 21
-33.9929870631
  0
LINE
  5
3A6
100
AcDbEntity
  8
0
100
AcDbLine
 62
253
  6
CONTINUOUS
 10
56.5389086983
 20
-33.9929870631
 11
56.334729596
 21
-33.9825025747
  0
LINE
  5
3A7
100
AcDbEntity
  8
0
100
AcDbLine
 62
253
  6
CONTINUOUS
 10
56.334729596
 20
-33.9825025747
 11
56.1261912694
 21
-33.9707260891
  0
LINE
  5
3A8
100
AcDbEntity
  8
0
100
AcDbLine
 62
253
  6
CONTINUOUS
 10
56.1261912694
 20
-33.9707260891
 11
55.9136649099
 21
-33.9576785681
  0
LINE
  5
3A9
100
AcDbEntity
  8
0
100
AcDbLine
 62
253
  6
CONTINUOUS
 10
55.9136649099
 20
-33.9576785681
 11
55.6975288079
 21
-33.9433832358
  0
LINE
  5
3AA
100
AcDbEntity
  8
0
100
AcDbLine
 62
253
  6
CONTINUOUS
 10
55.6975288079
 20
-33.9433832358
 11
55.4781676788
 21
-33.9278655376
  0
LINE
  5
3AB
100
AcDbEntity
  8
0
100
AcDbLine
 62
253
  6
CONTINUOUS
 10
55.4781676788
 20
-33.9278655376
 11
55.2559719785
 21
-33.9111530944
  0
LINE
  5
3AC
100
AcDbEntity
  8
0
100
AcDbLine
 62
253
  6
CONTINUOUS
 10
55.2559719785
 20
-33.9111530944
 11
55.0313372083
 21
-33.8932756538
  0
LWPOLYLINE
  5
3AD
100
AcDbEntity
  8
0
100
AcDbPolyline
 62
253
  6
CONTINUOUS
 90
3
 70
0
 10
55.0313372083
 20
-33.8932756538
 10
54.8046632111
 20
-33.8742650371
 10
54.6906874653
 20
-33.864345285
  0
LWPOLYLINE
  5
3AE
100
AcDbEntity
  8
RACCORDO
100
AcDbPolyline
 62
253
  6
CONTINUOUS
 90
3
 70
0
 10
-37.831470251
 20
-27.595620911
 10
-37.8090149232
 20
-27.5995943883
 10
-37.7413098347
 20
-27.6112964501
  0
LWPOLYLINE
  5
3AF
100
AcDbEntity
  8
RACCORDO
100
AcDbPolyline
 62
253
  6
CONTINUOUS
 90
19
 70
0
 10
-38.6592431948
 20
32.2156939465
 10
-38.5816225198
 20
31.8978859985
 10
-38.5047072186
 20
31.5806871795
 10
-38.4284972909
 20
31.264158464
 10
-38.3527478157
 20
30.9479774005
 10
-38.2777037141
 20
30.6325850682
 10
-38.2040997499
 20
30.3191876849
 10
-38.1319799365
 20
30.0079372033
 10
-38.0613002605
 20
29.6987941687
 10
-37.9926634448
 20
29.3926755104
 10
-37.9260883166
 20
29.0895725802
 10
-37.8615560487
 20
28.7895902364
 10
-37.7996128833
 20
28.4938090197
 10
-37.7403380127
 20
28.2024856845
 10
-37.6836522445
 20
27.9154353654
 10
-37.6298642439
 20
27.6330675995
 10
-37.5790768994
 20
27.3555343101
 10
-37.5311873225
 20
27.0827312799
 10
-37.4861955132
 20
26.8146773088
  0
LINE
  5
3B0
100
AcDbEntity
  8
RACCORDO
100
AcDbLine
 62
253
  6
CONTINUOUS
 10
-37.4861955132
 20
26.8146773088
 11
-37.3657508968
 21
26.1337891103
  0
LWPOLYLINE
  5
3B1
100
AcDbEntity
  8
RACCORDO
100
AcDbPolyline
 62
253
  6
CONTINUOUS
 90
14
 70
0
 10
-37.3657508968
 20
26.1337891103
 10
-37.3431216797
 20
26.0021485762
 10
-37.3217861987
 20
25.8737171287
 10
-37.3016030212
 20
25.7481908233
 10
-37.2830556689
 20
25.6264467592
 10
-37.2662624326
 20
25.5087218974
 10
-37.2511050217
 20
25.3947456141
 10
-37.2377120856
 20
25.2846141816
 10
-37.226143794
 20
25.1784279562
 10
-37.2163399772
 20
25.0760307966
 10
-37.2082487761
 20
24.9771324084
 10
-37.2018529042
 20
24.8816178254
 10
-37.1971696478
 20
24.7895431102
 10
-37.1941990072
 20
24.7008759094
  0
LINE
  5
3B2
100
AcDbEntity
  8
0
100
AcDbLine
 62
253
  6
CONTINUOUS
 10
-59.5780289672
 20
-33.904109589
 11
-59.3205110488
 21
-33.8748188837
  0
LINE
  5
3B3
100
AcDbEntity
  8
0
100
AcDbLine
 62
253
  6
CONTINUOUS
 10
-54.1164544174
 20
-33.8107822337
 11
-53.8856837327
 21
-33.7875965416
  0
LINE
  5
3B4
100
AcDbEntity
  8
0
100
AcDbLine
 62
253
  6
CONTINUOUS
 10
-54.3468143376
 20
-33.8329815855
 11
-54.1164544174
 21
-33.8107822337
  0
LWPOLYLINE
  5
3B5
100
AcDbEntity
  8
0
100
AcDbPolyline
 62
253
  6
CONTINUOUS
 90
3
 70
0
 10
-54.6906874659
 20
-33.8643452851
 10
-54.5763534598
 20
-33.8541550827
 10
-54.3468143376
 20
-33.8329815855
  0
LINE
  5
3B6
100
AcDbEntity
  8
RACCORDO
100
AcDbLine
 62
253
  6
CONTINUOUS
 10
-37.7413098347
 20
-27.6112964501
 11
37.7413098347
 21
-27.6112964501
  0
LINE
  5
3B7
100
AcDbEntity
  8
0
100
AcDbLine
 62
253
  6
CONTINUOUS
 10
54.6906874653
 20
-33.864345285
 11
54.4617120766
 21
-33.843698965
  0
LINE
  5
3B8
100
AcDbEntity
  8
0
100
AcDbLine
 62
253
  6
CONTINUOUS
 10
54.4617120766
 20
-33.843698965
 11
54.2317113756
 21
-33.8220077138
  0
LWPOLYLINE
  5
3B9
100
AcDbEntity
  8
0
100
AcDbPolyline
 62
253
  6
CONTINUOUS
 90
3
 70
0
 10
54.2317113756
 20
-33.8220077138
 10
54.0010947563
 20
-33.7993101412
 10
53.8856837327
 20
-33.7875965416
  0
LINE
  5
3BA
100
AcDbEntity
  8
0
100
AcDbLine
 62
253
  6
CONTINUOUS
 10
59.5780289672
 20
-33.904109589
 11
59.3205110488
 21
-33.8748188837
  0
LINE
  5
3BB
100
AcDbEntity
  8
RACCORDO
100
AcDbLine
 62
253
  6
CONTINUOUS
 10
-37.1389224747
 20
-23.0772651445
 11
37.1389224747
 21
-23.0772651445
  0
LINE
  5
3BC
100
AcDbEntity
  8
RACCORDO
100
AcDbLine
 62
253
  6
CONTINUOUS
 10
-37.4813238482
 20
-22.7809127086
 11
37.4813238482
 21
-22.7809127086
  0
LINE
  5
3BD
100
AcDbEntity
  8
RACCORDO
100
AcDbLine
 62
253
  6
CONTINUOUS
 10
37.4279864348
 20
-22.7275752953
 11
-37.4279864348
 21
-22.7275752953
  0
LINE
  5
3BE
100
AcDbEntity
  8
RACCORDO
100
AcDbLine
 62
7
  6
CONTINUOUS
 10
37.4303724307
 20
-22.7268804559
 11
-37.4279864348
 21
-22.7268900626
  0
LINE
  5
3BF
100
AcDbEntity
  8
RACCORDO
100
AcDbLine
 62
253
  6
CONTINUOUS
 10
37.7275752953
 20
-22.4279864348
 11
37.7268900626
 21
-22.4279864348
  0
LINE
  5
3C0
100
AcDbEntity
  8
RACCORDO
100
AcDbLine
 62
253
  6
CONTINUOUS
 10
-37.7275752953
 20
-22.4279864348
 11
-37.7268900626
 21
-22.4279864348
  0
LINE
  5
3C1
100
AcDbEntity
  8
ASSI
100
AcDbLine
 62
7
  6
CONTINUOUS
 10
-37.7268900626
 20
-22.4
 11
37.7268900626
 21
-22.4
  0
LWPOLYLINE
  5
3C2
100
AcDbEntity
  8
RACCORDO
100
AcDbPolyline
 62
7
  6
CONTINUOUS
 90
39
 70
0
 10
-37.4279864348
 20
-22.7268899037
 10
-37.4294452621
 20
-22.726886372
 10
-37.4420894994
 20
-22.726559474
 10
-37.4546983717
 20
-22.7257020403
 10
-37.4672493389
 20
-22.7243166451
 10
-37.479721637
 20
-22.7224062771
 10
-37.4920952062
 20
-22.7199747868
 10
-37.5043483472
 20
-22.7170269224
 10
-37.5164595141
 20
-22.7135682078
 10
-37.5284089631
 20
-22.7096049625
 10
-37.5401762476
 20
-22.7051440044
 10
-37.5517406923
 20
-22.7001937448
 10
-37.5630823094
 20
-22.6947628292
 10
-37.5741815292
 20
-22.6888609704
 10
-37.5850191642
 20
-22.6824986722
 10
-37.5955765005
 20
-22.6756869449
 10
-37.6058354262
 20
-22.6684379395
 10
-37.6157780595
 20
-22.6607641024
 10
-37.625387436
 20
-22.6526789538
 10
-37.6346468402
 20
-22.6441964031
 10
-37.6435402631
 20
-22.6353312249
 10
-37.6520523096
 20
-22.6260988498
 10
-37.6601680495
 20
-22.616515163
 10
-37.6678735853
 20
-22.6065968705
 10
-37.6751553273
 20
-22.5963608536
 10
-37.6820007352
 20
-22.5858249238
 10
-37.68839766
 20
-22.5750071976
 10
-37.6943349313
 20
-22.5639262548
 10
-37.6998020743
 20
-22.5526013151
 10
-37.7047891978
 20
-22.5410518496
 10
-37.7092876734
 20
-22.5292977593
 10
-37.7132889936
 20
-22.5173596491
 10
-37.7167861869
 20
-22.5052579702
 10
-37.719772919
 20
-22.4930125213
 10
-37.7222434537
 20
-22.4806447542
 10
-37.7241930706
 20
-22.4681763951
 10
-37.7256177253
 20
-22.4556277182
 10
-37.7265144103
 20
-22.4430195738
 10
-37.7268804517
 20
-22.4303741882
  0
LWPOLYLINE
  5
3C3
100
AcDbEntity
  8
RACCORDO
100
AcDbPolyline
 62
253
  6
CONTINUOUS
 90
49
 70
0
 10
-37.4279864348
 20
-22.7275752953
 10
-37.4377265766
 20
-22.7274623278
 10
-37.4474808556
 20
-22.7270331672
 10
-37.4572389948
 20
-22.7262857523
 10
-37.4669946583
 20
-22.7252179313
 10
-37.4767331607
 20
-22.7238284851
 10
-37.4864316687
 20
-22.7221184314
 10
-37.4960797131
 20
-22.7200882063
 10
-37.5056666085
 20
-22.7177386873
 10
-37.5151696251
 20
-22.7150744323
 10
-37.524577777
 20
-22.7120983776
 10
-37.5338816883
 20
-22.7088133992
 10
-37.5430618042
 20
-22.7052265854
 10
-37.552105482
 20
-22.7013439269
 10
-37.5610065531
 20
-22.6971691793
 10
-37.5697557752
 20
-22.6927074604
 10
-37.5783418289
 20
-22.6879656033
 10
-37.5867583911
 20
-22.6829481895
 10
-37.5950036146
 20
-22.6776566935
 10
-37.6030698791
 20
-22.6720959336
 10
-37.6109473941
 20
-22.6662725886
 10
-37.6186307055
 20
-22.6601903659
 10
-37.6261133195
 20
-22.6538537419
 10
-37.633384954
 20
-22.6472707736
 10
-37.6404347975
 20
-22.6404509378
 10
-37.6472553487
 20
-22.6334014347
 10
-37.6538392542
 20
-22.626129864
 10
-37.6601768429
 20
-22.6186472203
 10
-37.6662600877
 20
-22.6109637333
 10
-37.6720844653
 20
-22.6030859412
 10
-37.6776460128
 20
-22.5950196701
 10
-37.6829379964
 20
-22.5867748684
 10
-37.6879557221
 20
-22.5783590461
 10
-37.6926977632
 20
-22.5697740431
 10
-37.6971594724
 20
-22.5610263959
 10
-37.7013341585
 20
-22.5521272428
 10
-37.7052170008
 20
-22.5430851927
 10
-37.7088042665
 20
-22.5339062585
 10
-37.7120898731
 20
-22.5246032017
 10
-37.7150667708
 20
-22.5151953206
 10
-37.7177320518
 20
-22.5056918829
 10
-37.720082692
 20
-22.4961039492
 10
-37.7221140673
 20
-22.4864542641
 10
-37.7238252422
 20
-22.476753519
 10
-37.7252157275
 20
-22.4670121694
 10
-37.7262844484
 20
-22.4572530406
 10
-37.7270325677
 20
-22.4474908199
 10
-37.7274621812
 20
-22.437731855
 10
-37.7275752953
 20
-22.4279864348
  0
LINE
  5
3C4
100
AcDbEntity
  8
RACCORDO
100
AcDbLine
 62
253
  6
CONTINUOUS
 10
-37.7275752953
 20
-22.4279864348
 11
-37.7809127086
 21
-22.4813238482
  0
LINE
  5
3C5
100
AcDbEntity
  8
RACCORDO
100
AcDbLine
 62
253
  6
CONTINUOUS
 10
-37.4279864348
 20
-22.7275752953
 11
-37.4813238482
 21
-22.7809127086
  0
LWPOLYLINE
  5
3C6
100
AcDbEntity
  8
RACCORDO
100
AcDbPolyline
 62
253
  6
CONTINUOUS
 90
41
 70
0
 10
-37.7809127086
 20
-22.4813238482
 10
-37.7811278975
 20
-22.4815272679
 10
-37.7813452544
 20
-22.4817086212
 10
-37.7815647791
 20
-22.4818679082
 10
-37.7817864153
 20
-22.4820051976
 10
-37.7820102194
 20
-22.4821204207
 10
-37.782236361
 20
-22.4822133707
 10
-37.7824648364
 20
-22.4822840512
 10
-37.7826956493
 20
-22.4823324586
 10
-37.7829289796
 20
-22.4823583759
 10
-37.7831648169
 20
-22.4823618046
 10
-37.7834031716
 20
-22.4823427433
 10
-37.7836442548
 20
-22.48230097
 10
-37.7838880609
 20
-22.4822364837
 10
-37.7841345955
 20
-22.4821492855
 10
-37.7843840866
 20
-22.4820391567
 10
-37.7846365321
 20
-22.4819060856
 10
-37.7848919341
 20
-22.4817500839
 10
-37.7851505263
 20
-22.4815709686
 10
-37.785412298
 20
-22.4813687248
 10
-37.7856772599
 20
-22.4811433674
 10
-37.7859456785
 20
-22.4808947587
 10
-37.7862175383
 20
-22.4806228836
 10
-37.7864928548
 20
-22.4803277572
 10
-37.7867719401
 20
-22.4800092879
 10
-37.7870547883
 20
-22.4796674395
 10
-37.7873414053
 20
-22.4793022482
 10
-37.787632122
 20
-22.478913731
 10
-37.787926934
 20
-22.4785018291
 10
-37.7882258456
 20
-22.4780666013
 10
-37.788529201
 20
-22.4776082406
 10
-37.7888369928
 20
-22.4771266697
 10
-37.7891492284
 20
-22.4766219661
 10
-37.7894662748
 20
-22.4760945553
 10
-37.7897881322
 20
-22.4755443189
 10
-37.7901148003
 20
-22.4749713753
 10
-37.7904466456
 20
-22.4743765059
 10
-37.7907836487
 20
-22.4737595967
 10
-37.7911258289
 20
-22.4731207616
 10
-37.79147361
 20
-22.4724611238
 10
-37.7918269472
 20
-22.4717805897
  0
LWPOLYLINE
  5
3C7
100
AcDbEntity
  8
RACCORDO
100
AcDbPolyline
 62
253
  6
CONTINUOUS
 90
3
 70
0
 10
-37.8447090367
 20
-6.7185976259
 10
-37.8440710081
 20
-6.7182236105
 10
-37.8440240608
 20
-6.718090903
  0
LWPOLYLINE
  5
3C8
100
AcDbEntity
  8
RACCORDO
100
AcDbPolyline
 62
253
  6
CONTINUOUS
 90
3
 70
0
 10
-37.8447090801
 20
6.7185976259
 10
-37.8440710469
 20
6.7182236105
 10
-37.844024098
 20
6.718090903
  0
LINE
  5
3C9
100
AcDbEntity
  8
RACCORDO
100
AcDbLine
 62
253
  6
CONTINUOUS
 10
-37.7802295522
 20
22.4806406918
 11
-37.7275752953
 21
22.4279864348
  0
LINE
  5
3CA
100
AcDbEntity
  8
RACCORDO
100
AcDbLine
 62
253
  6
CONTINUOUS
 10
-37.4806406918
 20
22.7802295522
 11
-37.4279864348
 21
22.7275752953
  0
LWPOLYLINE
  5
3CB
100
AcDbEntity
  8
RACCORDO
100
AcDbPolyline
 62
253
  6
CONTINUOUS
 90
20
 70
0
 10
-37.4813238482
 20
-22.7809127086
 10
-37.4816843662
 20
-22.7812240112
 10
-37.4818848943
 20
-22.7815923947
 10
-37.4819254327
 20
-22.7820238626
 10
-37.4818222838
 20
-22.7825247274
 10
-37.4815591452
 20
-22.7831015111
 10
-37.4810871092
 20
-22.7837609077
 10
-37.4804062655
 20
-22.7845098078
 10
-37.4795165245
 20
-22.7853556611
 10
-37.47836871
 20
-22.7863064513
 10
-37.4769641244
 20
-22.7873695746
 10
-37.4753014652
 20
-22.7885536601
 10
-37.4733276493
 20
-22.7898694732
 10
-37.471043766
 20
-22.7913261987
 10
-37.468448726
 20
-22.7929332508
 10
-37.4654861782
 20
-22.7947030894
 10
-37.4621568655
 20
-22.7966461964
 10
-37.4584600449
 20
-22.7987733105
 10
-37.4543371373
 20
-22.8010987083
 10
-37.4448136544
 20
-22.8063917247
  0
LINE
  5
3CC
100
AcDbEntity
  8
RACCORDO
100
AcDbLine
 62
253
  6
CONTINUOUS
 10
-37.7268900626
 20
-8.7081655032
 11
-37.7275752953
 21
-8.708165587
  0
LINE
  5
3CD
100
AcDbEntity
  8
DRAFT
100
AcDbLine
 62
7
  6
CONTINUOUS
 10
-37.8149560927
 20
-8.05
 11
-37.7
 21
-8.05
  0
LINE
  5
3CE
100
AcDbEntity
  8
DRAFT
100
AcDbLine
 62
7
  6
CONTINUOUS
 10
37.7
 20
-8.05
 11
37.8149580214
 21
-8.05
  0
LINE
  5
3CF
100
AcDbEntity
  8
RACCORDO
100
AcDbLine
 62
253
  6
CONTINUOUS
 10
37.8168242682
 20
-8.0124192945
 11
37.7
 21
-8.0124192945
  0
LINE
  5
3D0
100
AcDbEntity
  8
RACCORDO
100
AcDbLine
 62
253
  6
CONTINUOUS
 10
-37.7
 20
-8.0124192945
 11
-37.8168241844
 21
-8.0124192945
  0
LINE
  5
3D1
100
AcDbEntity
  8
RACCORDO
100
AcDbLine
 62
253
  6
CONTINUOUS
 10
37.844182154
 20
-6.5427578071
 11
37.7
 21
-6.5427578071
  0
LINE
  5
3D2
100
AcDbEntity
  8
RACCORDO
100
AcDbLine
 62
253
  6
CONTINUOUS
 10
-37.7
 20
-6.5427578071
 11
-37.8441821717
 21
-6.5427578071
  0
LINE
  5
3D3
100
AcDbEntity
  8
RACCORDO
100
AcDbLine
 62
253
  6
CONTINUOUS
 10
37.7275752953
 20
-8.708165587
 11
37.7268900626
 21
-8.7081655032
  0
LINE
  5
3D4
100
AcDbEntity
  8
RACCORDO
100
AcDbLine
 62
253
  6
CONTINUOUS
 10
37.4279864348
 20
22.7275752953
 11
37.4806406918
 21
22.7802295522
  0
LWPOLYLINE
  5
3D5
100
AcDbEntity
  8
RACCORDO
100
AcDbPolyline
 62
253
  6
CONTINUOUS
 90
41
 70
0
 10
37.7802295522
 20
22.4806406918
 10
37.7804516416
 20
22.4808510823
 10
37.780675999
 20
22.4810397876
 10
37.7809026245
 20
22.4812068078
 10
37.7811314605
 20
22.4813521848
 10
37.7813625646
 20
22.4814758766
 10
37.7815961093
 20
22.4815777575
 10
37.7818320905
 20
22.4816578251
 10
37.7820705123
 20
22.4817160817
 10
37.7823115598
 20
22.4817524088
 10
37.7825552243
 20
22.4817668014
 10
37.7828015145
 20
22.4817592645
 10
37.7830506425
 20
22.481729694
 10
37.7833026024
 20
22.4816780808
 10
37.7835574001
 20
22.481604434
 10
37.7838152655
 20
22.4815086766
 10
37.7840761966
 20
22.4813907889
 10
37.7843401954
 20
22.4812507905
 10
37.7846074986
 20
22.4810886641
 10
37.7848780954
 20
22.4809043846
 10
37.7851519966
 20
22.480697977
 10
37.7854294703
 20
22.4804694983
 10
37.7857105027
 20
22.4802189199
 10
37.7859951076
 20
22.4799462704
 10
37.7862835949
 20
22.4796516929
 10
37.7865759587
 20
22.4793351381
 10
37.7868722049
 20
22.4789966553
 10
37.7871726608
 20
22.4786365352
 10
37.7874773207
 20
22.4782547079
 10
37.7877861903
 20
22.4778512435
 10
37.7880996133
 20
22.477426643
 10
37.7884175814
 20
22.4769808171
 10
37.7887401029
 20
22.4765138551
 10
37.7890675465
 20
22.4760265272
 10
37.7893999146
 20
22.4755186993
 10
37.7897372048
 20
22.4749905054
 10
37.7900797787
 20
22.4744431178
 10
37.79042762
 20
22.4738764008
 10
37.7907807451
 20
22.4732904902
 10
37.7911395648
 20
22.4726869657
 10
37.7915040331
 20
22.4720657104
  0
LINE
  5
3D6
100
AcDbEntity
  8
RACCORDO
100
AcDbLine
 62
253
  6
CONTINUOUS
 10
-37.844182154
 20
6.5427578071
 11
-37.7
 21
6.5427578071
  0
LINE
  5
3D7
100
AcDbEntity
  8
RACCORDO
100
AcDbLine
 62
253
  6
CONTINUOUS
 10
37.7
 20
6.5427578071
 11
37.8441821717
 21
6.5427578071
  0
LINE
  5
3D8
100
AcDbEntity
  8
RACCORDO
100
AcDbLine
 62
253
  6
CONTINUOUS
 10
-37.8168242632
 20
8.0124192945
 11
-37.7
 21
8.0124192945
  0
LINE
  5
3D9
100
AcDbEntity
  8
RACCORDO
100
AcDbLine
 62
253
  6
CONTINUOUS
 10
37.7
 20
8.0124192945
 11
37.8168241796
 21
8.0124192945
  0
LINE
  5
3DA
100
AcDbEntity
  8
DRAFT
100
AcDbLine
 62
7
  6
CONTINUOUS
 10
-37.814958035
 20
8.05
 11
-37.7
 21
8.05
  0
LINE
  5
3DB
100
AcDbEntity
  8
DRAFT
100
AcDbLine
 62
7
  6
CONTINUOUS
 10
37.7
 20
8.05
 11
37.8149561054
 21
8.05
  0
LINE
  5
3DC
100
AcDbEntity
  8
RACCORDO
100
AcDbLine
 62
253
  6
CONTINUOUS
 10
37.7268900626
 20
8.7081655032
 11
37.7275752953
 21
8.708165587
  0
LINE
  5
3DD
100
AcDbEntity
  8
RACCORDO
100
AcDbLine
 62
253
  6
CONTINUOUS
 10
-37.7275752953
 20
8.708165587
 11
-37.7268900626
 21
8.7081655032
  0
LWPOLYLINE
  5
3DE
100
AcDbEntity
  8
RACCORDO
100
AcDbPolyline
 62
253
  6
CONTINUOUS
 90
19
 70
0
 10
37.4813238482
 20
-22.7809127086
 10
37.4816843746
 20
-22.7812240209
 10
37.4818849024
 20
-22.7815924168
 10
37.4819254315
 20
-22.7820238998
 10
37.4818222648
 20
-22.7825247828
 10
37.4815590994
 20
-22.783101588
 10
37.481087027
 20
-22.7837610095
 10
37.4804061372
 20
-22.7845099379
 10
37.4795163405
 20
-22.7853558234
 10
37.4783684595
 20
-22.78630665
 10
37.4769637966
 20
-22.7873698144
 10
37.4753010493
 20
-22.7885539458
 10
37.4733271336
 20
-22.7898698099
 10
37.4710431386
 20
-22.791326592
 10
37.4684479752
 20
-22.7929337064
 10
37.4654852918
 20
-22.7947036132
 10
37.462155831
 20
-22.7966467947
 10
37.4584588502
 20
-22.7987739898
 10
37.4543357701
 20
-22.8010994754
  0
LINE
  5
3DF
100
AcDbEntity
  8
RACCORDO
100
AcDbLine
 62
253
  6
CONTINUOUS
 10
37.4813238482
 20
-22.7809127086
 11
37.4279864348
 21
-22.7275752953
  0
LINE
  5
3E0
100
AcDbEntity
  8
RACCORDO
100
AcDbLine
 62
253
  6
CONTINUOUS
 10
37.7275752953
 20
22.4279864348
 11
37.7802295522
 21
22.4806406918
  0
LWPOLYLINE
  5
3E1
100
AcDbEntity
  8
RACCORDO
100
AcDbPolyline
 62
253
  6
CONTINUOUS
 90
3
 70
0
 10
37.8447090367
 20
6.7185976259
 10
37.8440710081
 20
6.7182236105
 10
37.8440240608
 20
6.718090903
  0
LWPOLYLINE
  5
3E2
100
AcDbEntity
  8
RACCORDO
100
AcDbPolyline
 62
253
  6
CONTINUOUS
 90
3
 70
0
 10
37.84470911
 20
-6.7185976259
 10
37.8440710742
 20
-6.7182236104
 10
37.8440241244
 20
-6.718090903
  0
LINE
  5
3E3
100
AcDbEntity
  8
RACCORDO
100
AcDbLine
 62
253
  6
CONTINUOUS
 10
37.7809127086
 20
-22.4813238482
 11
37.7275752953
 21
-22.4279864348
  0
LINE
  5
3E4
100
AcDbEntity
  8
ASSI
100
AcDbLine
 62
7
  6
CONTINUOUS
 10
-37.7268900626
 20
22.4
 11
37.7268900626
 21
22.4
  0
LINE
  5
3E5
100
AcDbEntity
  8
RACCORDO
100
AcDbLine
 62
253
  6
CONTINUOUS
 10
-37.7275752953
 20
22.4279864348
 11
-37.7268900626
 21
22.4279864348
  0
LINE
  5
3E6
100
AcDbEntity
  8
RACCORDO
100
AcDbLine
 62
253
  6
CONTINUOUS
 10
37.7275752953
 20
22.4279864348
 11
37.7268900626
 21
22.4279864348
  0
LINE
  5
3E7
100
AcDbEntity
  8
RACCORDO
100
AcDbLine
 62
7
  6
CONTINUOUS
 10
-37.4303724307
 20
22.7268804559
 11
37.4279864348
 21
22.7268900626
  0
LINE
  5
3E8
100
AcDbEntity
  8
RACCORDO
100
AcDbLine
 62
253
  6
CONTINUOUS
 10
-37.4279864348
 20
22.7275752953
 11
37.4279864348
 21
22.7275752953
  0
LINE
  5
3E9
100
AcDbEntity
  8
RACCORDO
100
AcDbLine
 62
253
  6
CONTINUOUS
 10
-37.4806406918
 20
22.7802295522
 11
37.4806406918
 21
22.7802295522
  0
LINE
  5
3EA
100
AcDbEntity
  8
RACCORDO
100
AcDbLine
 62
253
  6
CONTINUOUS
 10
-37.139267629
 20
23.0898268366
 11
37.139267629
 21
23.0898268366
  0
LWPOLYLINE
  5
3EB
100
AcDbEntity
  8
RACCORDO
100
AcDbPolyline
 62
7
  6
CONTINUOUS
 90
39
 70
0
 10
37.4279864348
 20
22.7268899037
 10
37.4294452621
 20
22.726886372
 10
37.4420894994
 20
22.726559474
 10
37.4546983717
 20
22.7257020403
 10
37.4672493389
 20
22.7243166451
 10
37.479721637
 20
22.7224062771
 10
37.4920952062
 20
22.7199747868
 10
37.5043483472
 20
22.7170269224
 10
37.5164595141
 20
22.7135682078
 10
37.5284089631
 20
22.7096049625
 10
37.5401762476
 20
22.7051440044
 10
37.5517406923
 20
22.7001937448
 10
37.5630823094
 20
22.6947628292
 10
37.5741815292
 20
22.6888609704
 10
37.5850191642
 20
22.6824986722
 10
37.5955765005
 20
22.6756869449
 10
37.6058354262
 20
22.6684379395
 10
37.6157780595
 20
22.6607641024
 10
37.625387436
 20
22.6526789538
 10
37.6346468402
 20
22.6441964031
 10
37.6435402631
 20
22.6353312249
 10
37.6520523096
 20
22.6260988498
 10
37.6601680495
 20
22.616515163
 10
37.6678735853
 20
22.6065968705
 10
37.6751553273
 20
22.5963608536
 10
37.6820007352
 20
22.5858249238
 10
37.68839766
 20
22.5750071976
 10
37.6943349313
 20
22.5639262548
 10
37.6998020743
 20
22.5526013151
 10
37.7047891978
 20
22.5410518496
 10
37.7092876734
 20
22.5292977593
 10
37.7132889936
 20
22.5173596491
 10
37.7167861869
 20
22.5052579702
 10
37.719772919
 20
22.4930125213
 10
37.7222434537
 20
22.4806447542
 10
37.7241930706
 20
22.4681763951
 10
37.7256177253
 20
22.4556277182
 10
37.7265144103
 20
22.4430195738
 10
37.7268804517
 20
22.4303741882
  0
LWPOLYLINE
  5
3EC
100
AcDbEntity
  8
RACCORDO
100
AcDbPolyline
 62
253
  6
CONTINUOUS
 90
49
 70
0
 10
37.4279864348
 20
22.7275752953
 10
37.4377265766
 20
22.7274623278
 10
37.4474808556
 20
22.7270331672
 10
37.4572389948
 20
22.7262857523
 10
37.4669946583
 20
22.7252179313
 10
37.4767331607
 20
22.7238284851
 10
37.4864316687
 20
22.7221184314
 10
37.4960797131
 20
22.7200882063
 10
37.5056666085
 20
22.7177386873
 10
37.5151696251
 20
22.7150744323
 10
37.524577777
 20
22.7120983776
 10
37.5338816883
 20
22.7088133992
 10
37.5430618042
 20
22.7052265854
 10
37.552105482
 20
22.7013439269
 10
37.5610065531
 20
22.6971691793
 10
37.5697557752
 20
22.6927074604
 10
37.5783418289
 20
22.6879656033
 10
37.5867583911
 20
22.6829481895
 10
37.5950036146
 20
22.6776566935
 10
37.6030698791
 20
22.6720959336
 10
37.6109473941
 20
22.6662725886
 10
37.6186307055
 20
22.6601903659
 10
37.6261133195
 20
22.6538537419
 10
37.633384954
 20
22.6472707736
 10
37.6404347975
 20
22.6404509378
 10
37.6472553487
 20
22.6334014347
 10
37.6538392542
 20
22.626129864
 10
37.6601768429
 20
22.6186472203
 10
37.6662600877
 20
22.6109637333
 10
37.6720844653
 20
22.6030859412
 10
37.6776460128
 20
22.5950196701
 10
37.6829379964
 20
22.5867748684
 10
37.6879557221
 20
22.5783590461
 10
37.6926977632
 20
22.5697740431
 10
37.6971594724
 20
22.5610263959
 10
37.7013341585
 20
22.5521272428
 10
37.7052170008
 20
22.5430851927
 10
37.7088042665
 20
22.5339062585
 10
37.7120898731
 20
22.5246032017
 10
37.7150667708
 20
22.5151953206
 10
37.7177320518
 20
22.5056918829
 10
37.720082692
 20
22.4961039492
 10
37.7221140673
 20
22.4864542641
 10
37.7238252422
 20
22.476753519
 10
37.7252157275
 20
22.4670121694
 10
37.7262844484
 20
22.4572530406
 10
37.7270325677
 20
22.4474908199
 10
37.7274621812
 20
22.437731855
 10
37.7275752953
 20
22.4279864348
  0
LINE
  5
3ED
100
AcDbEntity
  8
0
100
AcDbLine
 62
253
  6
CONTINUOUS
 10
59.5780289672
 20
33.904109589
 11
59.3205110488
 21
33.8748188837
  0
LINE
  5
3EE
100
AcDbEntity
  8
0
100
AcDbLine
 62
253
  6
CONTINUOUS
 10
54.1164544174
 20
33.8107822337
 11
53.8856837327
 21
33.7875965416
  0
LINE
  5
3EF
100
AcDbEntity
  8
0
100
AcDbLine
 62
253
  6
CONTINUOUS
 10
54.3468143376
 20
33.8329815855
 11
54.1164544174
 21
33.8107822337
  0
LINE
  5
3F0
100
AcDbEntity
  8
0
100
AcDbLine
 62
253
  6
CONTINUOUS
 10
54.5763534598
 20
33.8541550827
 11
54.3468143376
 21
33.8329815855
  0
LINE
  5
3F1
100
AcDbEntity
  8
0
100
AcDbLine
 62
253
  6
CONTINUOUS
 10
54.8046632118
 20
33.8742650372
 11
54.5763534598
 21
33.8541550827
  0
LINE
  5
3F2
100
AcDbEntity
  8
0
100
AcDbLine
 62
253
  6
CONTINUOUS
 10
55.0313372092
 20
33.8932756539
 11
54.8046632118
 21
33.8742650372
  0
LINE
  5
3F3
100
AcDbEntity
  8
0
100
AcDbLine
 62
253
  6
CONTINUOUS
 10
55.2559719795
 20
33.9111530946
 11
55.0313372092
 21
33.8932756539
  0
LINE
  5
3F4
100
AcDbEntity
  8
0
100
AcDbLine
 62
253
  6
CONTINUOUS
 10
55.4781676801
 20
33.9278655378
 11
55.2559719795
 21
33.9111530946
  0
LWPOLYLINE
  5
3F5
100
AcDbEntity
  8
0
100
AcDbPolyline
 62
253
  6
CONTINUOUS
 90
3
 70
0
 10
55.8060241762
 20
33.9506853399
 10
55.6975288094
 20
33.9433832361
 10
55.4781676801
 20
33.9278655378
  0
LINE
  5
3F6
100
AcDbEntity
  8
RACCORDO
100
AcDbLine
 62
253
  6
CONTINUOUS
 10
-37.4861955132
 20
26.8146773088
 11
37.4861955132
 21
26.8146773088
  0
LINE
  5
3F7
100
AcDbEntity
  8
0
100
AcDbLine
 62
253
  6
CONTINUOUS
 10
-55.8060241746
 20
33.9506853396
 11
-55.5882270947
 21
33.9357755066
  0
LINE
  5
3F8
100
AcDbEntity
  8
0
100
AcDbLine
 62
253
  6
CONTINUOUS
 10
-55.5882270947
 20
33.9357755066
 11
-55.3673995413
 21
33.9196568491
  0
LINE
  5
3F9
100
AcDbEntity
  8
0
100
AcDbLine
 62
253
  6
CONTINUOUS
 10
-55.3673995413
 20
33.9196568491
 11
-55.1439345804
 21
33.9023580579
  0
LINE
  5
3FA
100
AcDbEntity
  8
0
100
AcDbLine
 62
253
  6
CONTINUOUS
 10
-55.1439345804
 20
33.9023580579
 11
-54.9182299727
 21
33.8839099241
  0
LINE
  5
3FB
100
AcDbEntity
  8
0
100
AcDbLine
 62
253
  6
CONTINUOUS
 10
-54.9182299727
 20
33.8839099241
 11
-54.6906874653
 21
33.864345285
  0
LINE
  5
3FC
100
AcDbEntity
  8
0
100
AcDbLine
 62
253
  6
CONTINUOUS
 10
-54.6906874653
 20
33.864345285
 11
-54.4617120766
 21
33.843698965
  0
LINE
  5
3FD
100
AcDbEntity
  8
0
100
AcDbLine
 62
253
  6
CONTINUOUS
 10
-54.4617120766
 20
33.843698965
 11
-54.2317113756
 21
33.8220077138
  0
LWPOLYLINE
  5
3FE
100
AcDbEntity
  8
0
100
AcDbPolyline
 62
253
  6
CONTINUOUS
 90
3
 70
0
 10
-54.2317113756
 20
33.8220077138
 10
-54.0010947563
 20
33.7993101412
 10
-53.8856837327
 20
33.7875965416
  0
LINE
  5
3FF
100
AcDbEntity
  8
0
100
AcDbLine
 62
253
  6
CONTINUOUS
 10
-59.5780289672
 20
33.904109589
 11
-59.3205110488
 21
33.8748188837
  0
LINE
  5
400
100
AcDbEntity
  8
RACCORDO
100
AcDbLine
 62
253
  6
CONTINUOUS
 10
38.6592434865
 20
-32.2156955138
 11
38.5721325973
 21
-31.4120710329
  0
LWPOLYLINE
  5
401
100
AcDbEntity
  8
RACCORDO
100
AcDbPolyline
 62
253
  6
CONTINUOUS
 90
17
 70
0
 10
38.0334178596
 20
-26.1634153611
 10
38.0041714938
 20
-25.8943904712
 10
37.990656388
 20
-25.7650173623
 10
37.977930658
 20
-25.6388685564
 10
37.9660799688
 20
-25.5164094168
 10
37.9551476882
 20
-25.3978373601
 10
37.9451298094
 20
-25.2829299256
 10
37.9360226048
 20
-25.1715186871
 10
37.9278361187
 20
-25.0636922529
 10
37.9205601743
 20
-24.9593439655
 10
37.9141603937
 20
-24.8580153085
 10
37.9086226535
 20
-24.7595314297
 10
37.9039503285
 20
-24.6640582054
 10
37.9001342279
 20
-24.5716490251
 10
37.8971558257
 20
-24.4823154351
 10
37.8949920896
 20
-24.3960325847
 10
37.8936182612
 20
-24.3127971916
  0
LWPOLYLINE
  5
402
100
AcDbEntity
  8
RACCORDO
100
AcDbPolyline
 62
253
  6
CONTINUOUS
 90
10
 70
0
 10
38.5721325973
 20
-31.4120710329
 10
38.4864484396
 20
-30.6128201588
 10
38.4443165556
 20
-30.2147960987
 10
38.403036995
 20
-29.8196523456
 10
38.3626866454
 20
-29.4274663935
 10
38.3233313406
 20
-29.038217129
 10
38.2852513208
 20
-28.6533855097
 10
38.2485701524
 20
-28.2734817196
 10
38.2132820113
 20
-27.8980527913
 10
38.1679617404
 20
-27.4028482391
  0
LINE
  5
403
100
AcDbEntity
  8
RACCORDO
100
AcDbLine
 62
253
  6
CONTINUOUS
 10
37.8285527294
 20
22.5195693831
 11
37.8291496491
 21
22.5247978121
  0
LINE
  5
404
100
AcDbEntity
  8
RACCORDO
100
AcDbLine
 62
253
  6
CONTINUOUS
 10
38.4593351416
 20
30.5915490151
 11
38.538345111
 21
31.2390260201
  0
LINE
  5
405
100
AcDbEntity
  8
RACCORDO
100
AcDbLine
 62
253
  6
CONTINUOUS
 10
37.8279366015
 20
22.5144716175
 11
37.8285527294
 21
22.5195693831
  0
LWPOLYLINE
  5
406
100
AcDbEntity
  8
RACCORDO
100
AcDbPolyline
 62
253
  6
CONTINUOUS
 90
3
 70
0
 10
38.538345111
 20
31.2390260201
 10
38.6186720929
 20
31.889247933
 10
38.6592434883
 20
32.215695144
  0
LINE
  5
407
100
AcDbEntity
  8
RACCORDO
100
AcDbLine
 62
253
  6
CONTINUOUS
 10
37.8273002757
 20
22.5095094702
 11
37.8279366015
 21
22.5144716175
  0
LWPOLYLINE
  5
408
100
AcDbEntity
  8
RACCORDO
100
AcDbPolyline
 62
253
  6
CONTINUOUS
 90
19
 70
0
 10
37.4861955132
 20
26.8146773088
 10
37.5311873225
 20
27.0827312799
 10
37.5790768995
 20
27.3555343101
 10
37.629864244
 20
27.6330675995
 10
37.6836522445
 20
27.9154353654
 10
37.7403380127
 20
28.2024856845
 10
37.7996128833
 20
28.4938090198
 10
37.8615560487
 20
28.7895902364
 10
37.9260883166
 20
29.0895725802
 10
37.9926634448
 20
29.3926755104
 10
38.0613002605
 20
29.6987941687
 10
38.1319799365
 20
30.0079372033
 10
38.2040997499
 20
30.3191876849
 10
38.2777037141
 20
30.6325850682
 10
38.3527478157
 20
30.9479774005
 10
38.4284972909
 20
31.2641584641
 10
38.5047072185
 20
31.5806871795
 10
38.5816225198
 20
31.8978859985
 10
38.6592431948
 20
32.2156939465
  0
LINE
  5
409
100
AcDbEntity
  8
RACCORDO
100
AcDbLine
 62
253
  6
CONTINUOUS
 10
37.3657508969
 20
26.1337891103
 11
37.4861955132
 21
26.8146773088
  0
LINE
  5
40A
100
AcDbEntity
  8
0
100
AcDbLine
 62
253
  6
CONTINUOUS
 10
56.0204031109
 20
33.9643598094
 11
55.8060241762
 21
33.9506853399
  0
LINE
  5
40B
100
AcDbEntity
  8
0
100
AcDbLine
 62
253
  6
CONTINUOUS
 10
56.2309823124
 20
33.9767745753
 11
56.0204031109
 21
33.9643598094
  0
LINE
  5
40C
100
AcDbEntity
  8
0
100
AcDbLine
 62
253
  6
CONTINUOUS
 10
56.4373869565
 20
33.9879075396
 11
56.2309823124
 21
33.9767745753
  0
LINE
  5
40D
100
AcDbEntity
  8
0
100
AcDbLine
 62
253
  6
CONTINUOUS
 10
56.6392496493
 20
33.9977388861
 11
56.4373869565
 21
33.9879075396
  0
LINE
  5
40E
100
AcDbEntity
  8
0
100
AcDbLine
 62
253
  6
CONTINUOUS
 10
56.8362110816
 20
34.0062511152
 11
56.6392496493
 21
33.9977388861
  0
LINE
  5
40F
100
AcDbEntity
  8
0
100
AcDbLine
 62
253
  6
CONTINUOUS
 10
57.0279206682
 20
34.0134290755
 11
56.8362110816
 21
34.0062511152
  0
LINE
  5
410
100
AcDbEntity
  8
0
100
AcDbLine
 62
253
  6
CONTINUOUS
 10
57.2140371722
 20
34.0192599905
 11
57.0279206682
 21
34.0134290755
  0
LINE
  5
411
100
AcDbEntity
  8
0
100
AcDbLine
 62
253
  6
CONTINUOUS
 10
57.3942293121
 20
34.0237334811
 11
57.2140371722
 21
34.0192599905
  0
LINE
  5
412
100
AcDbEntity
  8
0
100
AcDbLine
 62
253
  6
CONTINUOUS
 10
57.5681763515
 20
34.0268415849
 11
57.3942293121
 21
34.0237334811
  0
LINE
  5
413
100
AcDbEntity
  8
RACCORDO
100
AcDbLine
 62
253
  6
CONTINUOUS
 10
-38.6592431948
 20
32.2156939465
 11
38.6592431948
 21
32.2156939465
  0
LINE
  5
414
100
AcDbEntity
  8
0
100
AcDbLine
 62
253
  6
CONTINUOUS
 10
-57.8167132247
 20
34.0289322047
 11
-57.6527107491
 21
34.0278817921
  0
LINE
  5
415
100
AcDbEntity
  8
0
100
AcDbLine
 62
253
  6
CONTINUOUS
 10
-57.6527107491
 20
34.0278817921
 11
-57.4820030843
 21
34.0254586087
  0
LINE
  5
416
100
AcDbEntity
  8
0
100
AcDbLine
 62
253
  6
CONTINUOUS
 10
-57.4820030843
 20
34.0254586087
 11
-57.3048940845
 21
34.0216669678
  0
LINE
  5
417
100
AcDbEntity
  8
0
100
AcDbLine
 62
253
  6
CONTINUOUS
 10
-57.3048940845
 20
34.0216669678
 11
-57.121698998
 21
34.0165136183
  0
LINE
  5
418
100
AcDbEntity
  8
0
100
AcDbLine
 62
253
  6
CONTINUOUS
 10
-57.121698998
 20
34.0165136183
 11
-56.9327439064
 21
34.010007733
  0
LINE
  5
419
100
AcDbEntity
  8
0
100
AcDbLine
 62
253
  6
CONTINUOUS
 10
-56.9327439064
 20
34.010007733
 11
-56.7383651439
 21
34.0021608922
  0
LINE
  5
41A
100
AcDbEntity
  8
0
100
AcDbLine
 62
253
  6
CONTINUOUS
 10
-56.7383651439
 20
34.0021608922
 11
-56.5389086983
 21
33.9929870631
  0
LINE
  5
41B
100
AcDbEntity
  8
0
100
AcDbLine
 62
253
  6
CONTINUOUS
 10
-56.5389086983
 20
33.9929870631
 11
-56.334729596
 21
33.9825025747
  0
LINE
  5
41C
100
AcDbEntity
  8
0
100
AcDbLine
 62
253
  6
CONTINUOUS
 10
-56.334729596
 20
33.9825025747
 11
-56.1261912693
 21
33.9707260891
  0
LWPOLYLINE
  5
41D
100
AcDbEntity
  8
0
100
AcDbPolyline
 62
253
  6
CONTINUOUS
 90
3
 70
0
 10
-56.1261912693
 20
33.9707260891
 10
-55.9136649099
 20
33.9576785681
 10
-55.8060241746
 20
33.9506853396
  0
LINE
  5
41E
100
AcDbEntity
  8
RACCORDO
100
AcDbLine
 62
253
  6
CONTINUOUS
 10
37.5530790953
 20
-26.7369456718
 11
37.4921179044
 21
-26.4737551875
  0
LINE
  5
41F
100
AcDbEntity
  8
RACCORDO
100
AcDbLine
 62
253
  6
CONTINUOUS
 10
37.583361734
 20
-26.8685834409
 11
37.5530790953
 21
-26.7369456718
  0
LWPOLYLINE
  5
420
100
AcDbEntity
  8
RACCORDO
100
AcDbPolyline
 62
253
  6
CONTINUOUS
 90
18
 70
0
 10
37.4921179044
 20
-26.4737551875
 10
37.4342171764
 20
-26.218544811
 10
37.4069896822
 20
-26.094798587
 10
37.3812781862
 20
-25.9742549458
 10
37.3569498039
 20
-25.8566745796
 10
37.3343094845
 20
-25.7424947202
 10
37.3134480856
 20
-25.6318858401
 10
37.2942747496
 20
-25.5246461725
 10
37.2768218521
 20
-25.4206461114
 10
37.2611257856
 20
-25.3199532176
 10
37.2471501576
 20
-25.222457925
 10
37.2348181662
 20
-25.1277689001
 10
37.2241268482
 20
-25.0357040091
 10
37.2150791668
 20
-24.9464065918
 10
37.2076072098
 20
-24.8599750337
 10
37.2016883398
 20
-24.7764241658
 10
37.1973451944
 20
-24.6956874913
 10
37.1945777733
 20
-24.6177381008
  0
LWPOLYLINE
  5
421
100
AcDbEntity
  8
RACCORDO
100
AcDbPolyline
 62
253
  6
CONTINUOUS
 90
13
 70
0
 10
38.6592431517
 20
-32.2156939465
 10
38.575372746
 20
-31.821460997
 10
38.4923757846
 20
-31.4281301534
 10
38.4102522674
 20
-31.0357731428
 10
38.3287071757
 20
-30.6439720928
 10
38.2480355283
 20
-30.253283974
 10
38.1691223812
 20
-29.8652427074
 10
38.0920046894
 20
-29.4799505071
 10
38.016645498
 20
-29.0974366426
 10
37.9438189977
 20
-28.7191230803
 10
37.8737832522
 20
-28.3455204379
 10
37.8062801979
 20
-27.9762284045
 10
37.7413098347
 20
-27.6112964501
  0
LWPOLYLINE
  5
422
100
AcDbEntity
  8
RACCORDO
100
AcDbPolyline
 62
253
  6
CONTINUOUS
 90
6
 70
0
 10
37.7413098347
 20
-27.6112964501
 10
37.7191131313
 20
-27.4962217408
 10
37.6952652358
 20
-27.3776038022
 10
37.6697661484
 20
-27.2554826195
 10
37.6422447092
 20
-27.1290925382
 10
37.583361734
 20
-26.8685834409
  0
LWPOLYLINE
  5
423
100
AcDbEntity
  8
RACCORDO
100
AcDbPolyline
 62
253
  6
CONTINUOUS
 90
62
 70
0
 10
37.8271315125
 20
-22.4945343758
 10
37.8268112905
 20
-22.4923029025
 10
37.8264856967
 20
-22.4901090846
 10
37.8261547407
 20
-22.4879527925
 10
37.8258184128
 20
-22.4858341558
 10
37.8254763257
 20
-22.483755567
 10
37.8251285017
 20
-22.4817169432
 10
37.8247749185
 20
-22.4797183672
 10
37.8244151217
 20
-22.4777624804
 10
37.8240491251
 20
-22.4758491158
 10
37.8236769149
 20
-22.4739784404
 10
37.8232979964
 20
-22.4721535961
 10
37.8229123843
 20
-22.470374404
 10
37.8225200639
 20
-22.4686410431
 10
37.8221204952
 20
-22.4669571916
 10
37.821713706
 20
-22.4653226917
 10
37.8212996685
 20
-22.4637377014
 10
37.8208777592
 20
-22.4622063731
 10
37.8204480003
 20
-22.4607284872
 10
37.8200103695
 20
-22.4593042634
 10
37.8195641763
 20
-22.457938513
 10
37.819109511
 20
-22.4566311208
 10
37.8186462832
 20
-22.455382202
 10
37.8181735309
 20
-22.4541969135
 10
37.8176912905
 20
-22.4530748759
 10
37.8171995256
 20
-22.4520164686
 10
37.8166971653
 20
-22.4510279868
 10
37.8161842832
 20
-22.4501090608
 10
37.8156608058
 20
-22.4492600603
 10
37.815125441
 20
-22.4484883897
 10
37.8145785858
 20
-22.4477937073
 10
37.8140198432
 20
-22.4471763547
 10
37.8134467307
 20
-22.4466447619
 10
37.8128587529
 20
-22.4461978987
 10
37.812256405
 20
-22.4458367952
 10
37.8116386901
 20
-22.445572971
 10
37.8110034496
 20
-22.4454078283
 10
37.8103528421
 20
-22.4453399649
 10
37.8096923464
 20
-22.4453766939
 10
37.8090194326
 20
-22.4455245584
 10
37.8083366306
 20
-22.4457770154
 10
37.8076570095
 20
-22.4461217493
 10
37.8069815372
 20
-22.4465643074
 10
37.8063092457
 20
-22.4470991424
 10
37.8056503007
 20
-22.4476972972
 10
37.8050072454
 20
-22.4483580539
 10
37.8043775366
 20
-22.4490821304
 10
37.8037637108
 20
-22.4498427227
 10
37.8031672431
 20
-22.4506365728
 10
37.8025866583
 20
-22.4514669387
 10
37.8020200671
 20
-22.4523167913
 10
37.8014676045
 20
-22.4531840851
 10
37.8009291354
 20
-22.4540708654
 10
37.8004023657
 20
-22.4549662387
 10
37.7998869303
 20
-22.455869541
 10
37.7993831943
 20
-22.4567814362
 10
37.798889958
 20
-22.4576930227
 10
37.7984072551
 20
-22.4586033528
 10
37.7979350519
 20
-22.4595133743
 10
37.7974720483
 20
-22.4604170285
 10
37.7970181325
 20
-22.4613138718
 10
37.796136935
 20
-22.4630837296
  0
LINE
  5
424
100
AcDbEntity
  8
RACCORDO
100
AcDbLine
 62
253
  6
CONTINUOUS
 10
37.8277569348
 20
-22.4991042559
 11
37.8271315125
 21
-22.4945343758
  0
LINE
  5
425
100
AcDbEntity
  8
RACCORDO
100
AcDbLine
 62
253
  6
CONTINUOUS
 10
37.828362618
 20
-22.5038147864
 11
37.8277569348
 21
-22.4991042559
  0
LINE
  5
426
100
AcDbEntity
  8
RACCORDO
100
AcDbLine
 62
253
  6
CONTINUOUS
 10
37.8289493821
 20
-22.5086593943
 11
37.828362618
 21
-22.5038147864
  0
LINE
  5
427
100
AcDbEntity
  8
RACCORDO
100
AcDbLine
 62
253
  6
CONTINUOUS
 10
37.82951839
 20
-22.5136363881
 11
37.8289493821
 21
-22.5086593943
  0
LINE
  5
428
100
AcDbEntity
  8
RACCORDO
100
AcDbLine
 62
253
  6
CONTINUOUS
 10
37.8300703745
 20
-22.5187449598
 11
37.82951839
 21
-22.5136363881
  0
LINE
  5
429
100
AcDbEntity
  8
RACCORDO
100
AcDbLine
 62
7
  6
CONTINUOUS
 10
37.7872008425
 20
8.4317839733
 11
37.7888955777
 21
8.4160059364
  0
LINE
  5
42A
100
AcDbEntity
  8
RACCORDO
100
AcDbLine
 62
253
  6
CONTINUOUS
 10
37.830606541
 20
-22.5239859507
 11
37.8300703745
 21
-22.5187449598
  0
LINE
  5
42B
100
AcDbEntity
  8
RACCORDO
100
AcDbLine
 62
7
  6
CONTINUOUS
 10
37.7888955777
 20
8.4160059364
 11
37.7906484356
 21
8.3987885835
  0
LWPOLYLINE
  5
42C
100
AcDbEntity
  8
RACCORDO
100
AcDbPolyline
 62
253
  6
CONTINUOUS
 90
6
 70
0
 10
38.1679617404
 20
-27.4028482391
 10
38.1554679316
 20
-27.274849737
 10
38.142021924
 20
-27.1431675984
 10
38.1275957449
 20
-27.0069167037
 10
38.1123608262
 20
-26.8670393866
 10
38.0334178596
 20
-26.1634153611
  0
LINE
  5
42D
100
AcDbEntity
  8
RACCORDO
100
AcDbLine
 62
253
  6
CONTINUOUS
 10
37.8311273841
 20
-22.5293556045
 11
37.830606541
 21
-22.5239859507
  0
LINE
  5
42E
100
AcDbEntity
  8
RACCORDO
100
AcDbLine
 62
7
  6
CONTINUOUS
 10
37.7906484356
 20
8.3987885835
 11
37.7924521378
 21
8.3801036593
  0
LWPOLYLINE
  5
42F
100
AcDbEntity
  8
RACCORDO
100
AcDbPolyline
 62
253
  6
CONTINUOUS
 90
46
 70
0
 10
37.8383082645
 20
22.6616839026
 10
37.8369201726
 20
22.6762426899
 10
37.834726347
 20
22.6907850968
 10
37.8317293185
 20
22.7052943224
 10
37.8279325493
 20
22.7197537287
 10
37.8233404177
 20
22.7341464869
 10
37.8179582163
 20
22.7484556001
 10
37.811792159
 20
22.7626644261
 10
37.8048493701
 20
22.7767566701
 10
37.7971378673
 20
22.7907160329
 10
37.7886665571
 20
22.8045263888
 10
37.7794452234
 20
22.8181717905
 10
37.7694845158
 20
22.831636465
 10
37.7587959385
 20
22.8449048589
 10
37.7473918363
 20
22.8579616503
 10
37.7352853802
 20
22.8707917529
 10
37.7224905525
 20
22.8833803484
 10
37.7090221306
 20
22.895712898
 10
37.6948956697
 20
22.907775153
 10
37.6801274853
 20
22.9195531836
 10
37.6647346339
 20
22.9310333856
 10
37.6487348931
 20
22.9422024918
 10
37.6321467418
 20
22.9530476021
 10
37.6149893385
 20
22.9635561917
 10
37.5972824991
 20
22.9737161174
 10
37.579046674
 20
22.9835156431
 10
37.5603029247
 20
22.9929434532
 10
37.5410728994
 20
23.0019886592
 10
37.5213788078
 20
23.0106408125
 10
37.5012433957
 20
23.0188899225
 10
37.4806899187
 20
23.0267264678
 10
37.4597421151
 20
23.0341413961
 10
37.4384241786
 20
23.0411261453
 10
37.4167607308
 20
23.0476726589
 10
37.394776792
 20
23.0537733762
 10
37.3724977527
 20
23.0594212511
 10
37.3499493443
 20
23.0646097711
 10
37.3271576093
 20
23.0693329452
 10
37.304148871
 20
23.0735853171
 10
37.2809497036
 20
23.0773619825
 10
37.2575869012
 20
23.0806585819
 10
37.2340874465
 20
23.0834713058
 10
37.2104784805
 20
23.0857969064
 10
37.1867872703
 20
23.0876326981
 10
37.1630411781
 20
23.0889765608
 10
37.1392676296
 20
23.0898269426
  0
LINE
  5
430
100
AcDbEntity
  8
RACCORDO
100
AcDbLine
 62
253
  6
CONTINUOUS
 10
37.83163306
 20
-22.534849266
 11
37.8311273841
 21
-22.5293556045
  0
LINE
  5
431
100
AcDbEntity
  8
RACCORDO
100
AcDbLine
 62
7
  6
CONTINUOUS
 10
37.7924521378
 20
8.3801036593
 11
37.7942987017
 21
8.359936467
  0
LINE
  5
432
100
AcDbEntity
  8
RACCORDO
100
AcDbLine
 62
7
  6
CONTINUOUS
 10
37.7942987017
 20
8.359936467
 11
37.7961805672
 21
8.3382770364
  0
LINE
  5
433
100
AcDbEntity
  8
RACCORDO
100
AcDbLine
 62
253
  6
CONTINUOUS
 10
37.8323628357
 20
-22.5432982385
 11
37.83163306
 21
-22.534849266
  0
LINE
  5
434
100
AcDbEntity
  8
RACCORDO
100
AcDbLine
 62
7
  6
CONTINUOUS
 10
37.7961805672
 20
8.3382770364
 11
37.7990552973
 21
8.3029541875
  0
LINE
  5
435
100
AcDbEntity
  8
RACCORDO
100
AcDbLine
 62
253
  6
CONTINUOUS
 10
37.8330580134
 20
-22.5519681132
 11
37.8323628357
 21
-22.5432982385
  0
LINE
  5
436
100
AcDbEntity
  8
RACCORDO
100
AcDbLine
 62
253
  6
CONTINUOUS
 10
37.7969607295
 20
8.3577517264
 11
37.8014051624
 21
8.2995823348
  0
LINE
  5
437
100
AcDbEntity
  8
RACCORDO
100
AcDbLine
 62
7
  6
CONTINUOUS
 10
37.7990552973
 20
8.3029541875
 11
37.8019736267
 21
8.2641899165
  0
LINE
  5
438
100
AcDbEntity
  8
RACCORDO
100
AcDbLine
 62
253
  6
CONTINUOUS
 10
37.8337188851
 20
-22.5608277639
 11
37.8330580134
 21
-22.5519681132
  0
LINE
  5
439
100
AcDbEntity
  8
RACCORDO
100
AcDbLine
 62
253
  6
CONTINUOUS
 10
37.83434674
 20
-22.5698584401
 11
37.8337188851
 21
-22.5608277639
  0
LINE
  5
43A
100
AcDbEntity
  8
RACCORDO
100
AcDbLine
 62
7
  6
CONTINUOUS
 10
37.8019736267
 20
8.2641899165
 11
37.8049179343
 21
8.2219198888
  0
LINE
  5
43B
100
AcDbEntity
  8
RACCORDO
100
AcDbLine
 62
253
  6
CONTINUOUS
 10
37.8014051624
 20
8.2995823348
 11
37.8056881348
 21
8.2371093708
  0
LINE
  5
43C
100
AcDbEntity
  8
RACCORDO
100
AcDbLine
 62
7
  6
CONTINUOUS
 10
37.8049179343
 20
8.2219198888
 11
37.8078705527
 21
8.1760894256
  0
LINE
  5
43D
100
AcDbEntity
  8
RACCORDO
100
AcDbLine
 62
253
  6
CONTINUOUS
 10
37.8351350133
 20
-22.5821395143
 11
37.83434674
 21
-22.5698584401
  0
LINE
  5
43E
100
AcDbEntity
  8
RACCORDO
100
AcDbLine
 62
253
  6
CONTINUOUS
 10
37.8056881348
 20
8.2371093708
 11
37.8097953964
 21
8.1705495476
  0
LINE
  5
43F
100
AcDbEntity
  8
RACCORDO
100
AcDbLine
 62
7
  6
CONTINUOUS
 10
37.8078705527
 20
8.1760894256
 11
37.8108152786
 21
8.1266466517
  0
LINE
  5
440
100
AcDbEntity
  8
RACCORDO
100
AcDbLine
 62
253
  6
CONTINUOUS
 10
37.8358707154
 20
-22.5946735177
 11
37.8351350133
 21
-22.5821395143
  0
LINE
  5
441
100
AcDbEntity
  8
RACCORDO
100
AcDbLine
 62
253
  6
CONTINUOUS
 10
37.8097953964
 20
8.1705495476
 11
37.8137184018
 21
8.1000422292
  0
LINE
  5
442
100
AcDbEntity
  8
RACCORDO
100
AcDbLine
 62
253
  6
CONTINUOUS
 10
37.8365591983
 20
-22.6074766187
 11
37.8358707154
 21
-22.5946735177
  0
LINE
  5
443
100
AcDbEntity
  8
RACCORDO
100
AcDbLine
 62
7
  6
CONTINUOUS
 10
37.8108152786
 20
8.1266466517
 11
37.8147003686
 21
8.0550410014
  0
LINE
  5
444
100
AcDbEntity
  8
RACCORDO
100
AcDbLine
 62
253
  6
CONTINUOUS
 10
37.8137184018
 20
8.1000422292
 11
37.8174452957
 21
8.0257982131
  0
LINE
  5
445
100
AcDbEntity
  8
RACCORDO
100
AcDbLine
 62
253
  6
CONTINUOUS
 10
37.8373616848
 20
-22.6239302334
 11
37.8365591983
 21
-22.6074766187
  0
LINE
  5
446
100
AcDbEntity
  8
RACCORDO
100
AcDbLine
 62
7
  6
CONTINUOUS
 10
37.8147003686
 20
8.0550410014
 11
37.8185037652
 21
7.9768791439
  0
LINE
  5
447
100
AcDbEntity
  8
RACCORDO
100
AcDbLine
 62
253
  6
CONTINUOUS
 10
37.8174452957
 20
8.0257982131
 11
37.8209662361
 21
7.9480242864
  0
LINE
  5
448
100
AcDbEntity
  8
RACCORDO
100
AcDbLine
 62
253
  6
CONTINUOUS
 10
37.1516399758
 20
-23.366943575
 11
37.1389224676
 21
-23.0772651445
  0
LINE
  5
449
100
AcDbEntity
  8
RACCORDO
100
AcDbLine
 62
253
  6
CONTINUOUS
 10
37.8422877376
 20
-22.7413499836
 11
37.8373616848
 21
-22.6239302334
  0
LINE
  5
44A
100
AcDbEntity
  8
RACCORDO
100
AcDbLine
 62
7
  6
CONTINUOUS
 10
37.8185037652
 20
7.9768791439
 11
37.8221937943
 21
7.8919806192
  0
LINE
  5
44B
100
AcDbEntity
  8
RACCORDO
100
AcDbLine
 62
253
  6
CONTINUOUS
 10
37.1635872501
 20
-23.6664492123
 11
37.1516399758
 21
-23.366943575
  0
LINE
  5
44C
100
AcDbEntity
  8
RACCORDO
100
AcDbLine
 62
253
  6
CONTINUOUS
 10
37.8547491989
 20
-23.0599572366
 11
37.8422877376
 21
-22.7413499836
  0
LINE
  5
44D
100
AcDbEntity
  8
RACCORDO
100
AcDbLine
 62
253
  6
CONTINUOUS
 10
37.8209662361
 20
7.9480242864
 11
37.8258449651
 21
7.8251142715
  0
LINE
  5
44E
100
AcDbEntity
  8
RACCORDO
100
AcDbLine
 62
7
  6
CONTINUOUS
 10
37.8221937943
 20
7.8919806192
 11
37.8257413815
 21
7.8000505084
  0
LINE
  5
44F
100
AcDbEntity
  8
RACCORDO
100
AcDbLine
 62
253
  6
CONTINUOUS
 10
37.1747395647
 20
-23.9751420193
 11
37.1635872501
 21
-23.6664492123
  0
LINE
  5
450
100
AcDbEntity
  8
RACCORDO
100
AcDbLine
 62
253
  6
CONTINUOUS
 10
37.8664338981
 20
-23.3890687938
 11
37.8547491989
 21
-23.0599572366
  0
LINE
  5
451
100
AcDbEntity
  8
RACCORDO
100
AcDbLine
 62
7
  6
CONTINUOUS
 10
37.8257413815
 20
7.8000505084
 11
37.8291141937
 21
7.7007770592
  0
LINE
  5
452
100
AcDbEntity
  8
RACCORDO
100
AcDbLine
 62
253
  6
CONTINUOUS
 10
37.8258449651
 20
7.8251142715
 11
37.8302122458
 21
7.6954241974
  0
LINE
  5
453
100
AcDbEntity
  8
RACCORDO
100
AcDbLine
 62
253
  6
CONTINUOUS
 10
37.1850758318
 20
-24.2924226829
 11
37.1747395647
 21
-23.9751420193
  0
LINE
  5
454
100
AcDbEntity
  8
RACCORDO
100
AcDbLine
 62
253
  6
CONTINUOUS
 10
37.8773162788
 20
-23.7279487221
 11
37.8664338981
 21
-23.3890687938
  0
LINE
  5
455
100
AcDbEntity
  8
RACCORDO
100
AcDbLine
 62
253
  6
CONTINUOUS
 10
37.1945777733
 20
-24.6177381008
 11
37.1850758318
 21
-24.2924226829
  0
LINE
  5
456
100
AcDbEntity
  8
RACCORDO
100
AcDbLine
 62
253
  6
CONTINUOUS
 10
37.887375919
 20
-24.075951212
 11
37.8773162788
 21
-23.7279487221
  0
LINE
  5
457
100
AcDbEntity
  8
RACCORDO
100
AcDbLine
 62
7
  6
CONTINUOUS
 10
37.8291141937
 20
7.7007770592
 11
37.8330262822
 21
7.5659390023
  0
LINE
  5
458
100
AcDbEntity
  8
RACCORDO
100
AcDbLine
 62
253
  6
CONTINUOUS
 10
37.8302122458
 20
7.6954241974
 11
37.8340407048
 21
7.5597929305
  0
LINE
  5
459
100
AcDbEntity
  8
RACCORDO
100
AcDbLine
 62
253
  6
CONTINUOUS
 10
37.8936184473
 20
-24.312797179
 11
37.887375919
 21
-24.075951212
  0
LWPOLYLINE
  5
45A
100
AcDbEntity
  8
RACCORDO
100
AcDbPolyline
 62
253
  6
CONTINUOUS
 90
40
 70
0
 10
37.7802295522
 20
22.4806406918
 10
37.779954447
 20
22.4926829397
 10
37.7791955453
 20
22.5047057231
 10
37.7779540737
 20
22.516689609
 10
37.7762320388
 20
22.5286152271
 10
37.7740322241
 20
22.5404633014
 10
37.7713581853
 20
22.5522146814
 10
37.7682142445
 20
22.5638503726
 10
37.7646054834
 20
22.5753515676
 10
37.7605377351
 20
22.5866996765
 10
37.7560175746
 20
22.5978763567
 10
37.7510523078
 20
22.6088635428
 10
37.7456499606
 20
22.6196434756
 10
37.7398192649
 20
22.6301987309
 10
37.7335696453
 20
22.6405122477
 10
37.7269112032
 20
22.6505673557
 10
37.7198547012
 20
22.6603478024
 10
37.712411545
 20
22.669837779
 10
37.7045937653
 20
22.6790219465
 10
37.6964139984
 20
22.68788546
 10
37.6878854658
 20
22.6964139928
 10
37.6790219525
 20
22.70459376
 10
37.6698377851
 20
22.71241154
 10
37.6603478084
 20
22.7198546966
 10
37.6505673617
 20
22.726911199
 10
37.6405122535
 20
22.7335696414
 10
37.6301987366
 20
22.7398192615
 10
37.619643481
 20
22.7456499575
 10
37.608863548
 20
22.7510523052
 10
37.5978763616
 20
22.7560175723
 10
37.586699681
 20
22.7605377332
 10
37.5753515718
 20
22.7646054818
 10
37.5638503763
 20
22.7682142432
 10
37.5522146846
 20
22.7713581843
 10
37.5404633042
 20
22.7740322234
 10
37.5286152293
 20
22.7762320383
 10
37.5166896106
 20
22.7779540734
 10
37.5047057242
 20
22.7791955451
 10
37.4926829403
 20
22.779954447
 10
37.4806406918
 20
22.7802295522
  0
LINE
  5
45B
100
AcDbEntity
  8
RACCORDO
100
AcDbLine
 62
7
  6
CONTINUOUS
 10
37.8330262822
 20
7.5659390023
 11
37.8365210304
 21
7.418661355
  0
LINE
  5
45C
100
AcDbEntity
  8
RACCORDO
100
AcDbLine
 62
253
  6
CONTINUOUS
 10
37.8340407048
 20
7.5597929305
 11
37.8373102714
 21
7.4189563169
  0
LINE
  5
45D
100
AcDbEntity
  8
RACCORDO
100
AcDbLine
 62
253
  6
CONTINUOUS
 10
37.8373102714
 20
7.4189563169
 11
37.8400046829
 21
7.2735752114
  0
LINE
  5
45E
100
AcDbEntity
  8
RACCORDO
100
AcDbLine
 62
7
  6
CONTINUOUS
 10
37.8365210304
 20
7.418661355
 11
37.8394979416
 21
7.2585154801
  0
LWPOLYLINE
  5
45F
100
AcDbEntity
  8
RACCORDO
100
AcDbPolyline
 62
253
  6
CONTINUOUS
 90
6
 70
0
 10
37.7275752953
 20
8.708165587
 10
37.7278404253
 20
8.6895068669
 10
37.7288064371
 20
8.670869263
 10
37.7304725465
 20
8.6522789838
 10
37.7328372296
 20
8.63376053
 10
37.7358976107
 20
8.6153417093
  0
LWPOLYLINE
  5
460
100
AcDbEntity
  8
RACCORDO
100
AcDbPolyline
 62
253
  6
CONTINUOUS
 90
9
 70
0
 10
37.7490483482
 20
8.6723188343
 10
37.7493141385
 20
8.6536401227
 10
37.7502819532
 20
8.6349876872
 10
37.7519504309
 20
8.6163877666
 10
37.7543172246
 20
8.597866526
 10
37.7573790046
 20
8.5794500194
 10
37.7611314639
 20
8.561164154
 10
37.7655693238
 20
8.5430346528
 10
37.7706863415
 20
8.5250870191
  0
LINE
  5
461
100
AcDbEntity
  8
RACCORDO
100
AcDbLine
 62
7
  6
CONTINUOUS
 10
37.8394979416
 20
7.2585154801
 11
37.8414275897
 21
7.1209666476
  0
LINE
  5
462
100
AcDbEntity
  8
RACCORDO
100
AcDbLine
 62
253
  6
CONTINUOUS
 10
37.8400046829
 20
7.2735752114
 11
37.8421056184
 21
7.12454653
  0
LINE
  5
463
100
AcDbEntity
  8
RACCORDO
100
AcDbLine
 62
7
  6
CONTINUOUS
 10
37.8414275897
 20
7.1209666476
 11
37.8428803255
 21
6.9750715781
  0
LINE
  5
464
100
AcDbEntity
  8
RACCORDO
100
AcDbLine
 62
253
  6
CONTINUOUS
 10
37.8421056184
 20
7.12454653
 11
37.8435965476
 21
6.9730703049
  0
LINE
  5
465
100
AcDbEntity
  8
RACCORDO
100
AcDbLine
 62
253
  6
CONTINUOUS
 10
38.6724335131
 20
29.3591339702
 11
38.6592434935
 21
32.2156939465
  0
LINE
  5
466
100
AcDbEntity
  8
RACCORDO
100
AcDbLine
 62
253
  6
CONTINUOUS
 10
37.8435965476
 20
6.9730703049
 11
37.844470015
 21
6.8204560448
  0
LINE
  5
467
100
AcDbEntity
  8
RACCORDO
100
AcDbLine
 62
7
  6
CONTINUOUS
 10
37.8428803255
 20
6.9750715781
 11
37.8437789314
 21
6.8210026774
  0
LINE
  5
468
100
AcDbEntity
  8
RACCORDO
100
AcDbLine
 62
253
  6
CONTINUOUS
 10
38.6843989895
 20
26.5006046639
 11
38.6724335131
 21
29.3591339702
  0
LINE
  5
469
100
AcDbEntity
  8
RACCORDO
100
AcDbLine
 62
253
  6
CONTINUOUS
 10
38.6951396464
 20
23.6402980189
 11
38.6843989895
 21
26.5006046639
  0
LINE
  5
46A
100
AcDbEntity
  8
RACCORDO
100
AcDbLine
 62
253
  6
CONTINUOUS
 10
37.9034162544
 20
21.4668546257
 11
37.8932396813
 21
24.4161288249
  0
LINE
  5
46B
100
AcDbEntity
  8
RACCORDO
100
AcDbLine
 62
253
  6
CONTINUOUS
 10
38.7046545325
 20
20.7784064484
 11
38.6951396464
 21
23.6402980189
  0
LINE
  5
46C
100
AcDbEntity
  8
RACCORDO
100
AcDbLine
 62
253
  6
CONTINUOUS
 10
37.9122840675
 20
18.5160937875
 11
37.9034162544
 21
21.4668546257
  0
LINE
  5
46D
100
AcDbEntity
  8
RACCORDO
100
AcDbLine
 62
253
  6
CONTINUOUS
 10
38.7129429678
 20
17.9151218764
 11
38.7046545325
 21
20.7784064484
  0
LINE
  5
46E
100
AcDbEntity
  8
RACCORDO
100
AcDbLine
 62
253
  6
CONTINUOUS
 10
37.9198428846
 20
15.5639325466
 11
37.9122840675
 21
18.5160937875
  0
LINE
  5
46F
100
AcDbEntity
  8
RACCORDO
100
AcDbLine
 62
253
  6
CONTINUOUS
 10
38.7200045367
 20
15.0506363978
 11
38.7129429678
 21
17.9151218764
  0
LINE
  5
470
100
AcDbEntity
  8
RACCORDO
100
AcDbLine
 62
253
  6
CONTINUOUS
 10
37.9260918659
 20
12.6106631312
 11
37.9198428846
 21
15.5639325466
  0
LINE
  5
471
100
AcDbEntity
  8
RACCORDO
100
AcDbLine
 62
253
  6
CONTINUOUS
 10
38.7258386706
 20
12.1851420794
 11
38.7200045367
 21
15.0506363978
  0
LINE
  5
472
100
AcDbEntity
  8
RACCORDO
100
AcDbLine
 62
253
  6
CONTINUOUS
 10
37.9310305734
 20
9.6565179862
 11
37.9260918659
 21
12.6106631312
  0
LINE
  5
473
100
AcDbEntity
  8
RACCORDO
100
AcDbLine
 62
253
  6
CONTINUOUS
 10
38.73044497
 20
9.3188309077
 11
38.7258386706
 21
12.1851420794
  0
LINE
  5
474
100
AcDbEntity
  8
RACCORDO
100
AcDbLine
 62
253
  6
CONTINUOUS
 10
37.9346587436
 20
6.701655284
 11
37.9310305734
 21
9.6565179862
  0
LINE
  5
475
100
AcDbEntity
  8
RACCORDO
100
AcDbLine
 62
253
  6
CONTINUOUS
 10
38.7338232045
 20
6.4518950637
 11
38.73044497
 21
9.3188309077
  0
LWPOLYLINE
  5
476
100
AcDbEntity
  8
RACCORDO
100
AcDbPolyline
 62
7
  6
CONTINUOUS
 90
8
 70
0
 10
37.8437789314
 20
6.8210026774
 10
37.8453587605
 20
5.2380088802
 10
37.8463721253
 20
3.7416938202
 10
37.8470477653
 20
2.2453087764
 10
37.8473856621
 20
0.7488852777
 10
37.8473858128
 20
-0.7475503799
 10
37.8470482172
 20
-2.2439739297
 10
37.8463728784
 20
-3.7403590925
  0
LWPOLYLINE
  5
477
100
AcDbEntity
  8
RACCORDO
100
AcDbPolyline
 62
253
  6
CONTINUOUS
 90
9
 70
0
 10
37.844470015
 20
6.8204560448
 10
37.8460538943
 20
5.2256032082
 10
37.8470625375
 20
3.7325951219
 10
37.8477349663
 20
2.239573367
 10
37.8480711806
 20
0.7465288111
 10
37.8480711805
 20
-0.7465294134
 10
37.8477349661
 20
-2.2395739091
 10
37.8470625373
 20
-3.7325955435
 10
37.8460538942
 20
-5.2256034491
  0
LINE
  5
478
100
AcDbEntity
  8
RACCORDO
100
AcDbLine
 62
253
  6
CONTINUOUS
 10
37.9369760423
 20
3.7463122756
 11
37.9346587436
 21
6.701655284
  0
LINE
  5
479
100
AcDbEntity
  8
RACCORDO
100
AcDbLine
 62
253
  6
CONTINUOUS
 10
38.7359730823
 20
3.5845266339
 11
38.7338232045
 21
6.4518950637
  0
LINE
  5
47A
100
AcDbEntity
  8
RACCORDO
100
AcDbLine
 62
253
  6
CONTINUOUS
 10
37.937982326
 20
0.7907263328
 11
37.9369760423
 21
3.7463122756
  0
LINE
  5
47B
100
AcDbEntity
  8
RACCORDO
100
AcDbLine
 62
253
  6
CONTINUOUS
 10
38.7368944806
 20
0.7169178297
 11
38.7359730823
 21
3.5845266339
  0
LINE
  5
47C
100
AcDbEntity
  8
RACCORDO
100
AcDbLine
 62
253
  6
CONTINUOUS
 10
37.4279864348
 20
22.7275752953
 11
37.4279864348
 21
22.7268900626
  0
LINE
  5
47D
100
AcDbEntity
  8
RACCORDO
100
AcDbLine
 62
253
  6
CONTINUOUS
 10
37.4279864348
 20
-22.7275752953
 11
37.4279864348
 21
-22.7268900626
  0
LINE
  5
47E
100
AcDbEntity
  8
RACCORDO
100
AcDbLine
 62
7
  6
CONTINUOUS
 10
37.7
 20
-8.05
 11
37.7
 21
8.05
  0
LINE
  5
47F
100
AcDbEntity
  8
RACCORDO
100
AcDbLine
 62
7
  6
CONTINUOUS
 10
37.7268804517
 20
22.4303741882
 11
37.7268900626
 21
8.708165587
  0
LINE
  5
480
100
AcDbEntity
  8
RACCORDO
100
AcDbLine
 62
253
  6
CONTINUOUS
 10
37.7275752953
 20
22.4279864348
 11
37.7275752953
 21
8.708165587
  0
LINE
  5
481
100
AcDbEntity
  8
RACCORDO
100
AcDbLine
 62
253
  6
CONTINUOUS
 10
37.7275752953
 20
-8.708165587
 11
37.7275752953
 21
-22.4279864348
  0
LINE
  5
482
100
AcDbEntity
  8
RACCORDO
100
AcDbLine
 62
253
  6
CONTINUOUS
 10
37.9376775402
 20
-2.1649436837
 11
37.937982326
 21
0.7907263328
  0
LINE
  5
483
100
AcDbEntity
  8
RACCORDO
100
AcDbLine
 62
253
  6
CONTINUOUS
 10
38.7365873533
 20
-2.1507390233
 11
38.7368944806
 21
0.7169178297
  0
LINE
  5
484
100
AcDbEntity
  8
RACCORDO
100
AcDbLine
 62
253
  6
CONTINUOUS
 10
37.9360616646
 20
-5.1204583017
 11
37.9376775402
 21
-2.1649436837
  0
LINE
  5
485
100
AcDbEntity
  8
RACCORDO
100
AcDbLine
 62
253
  6
CONTINUOUS
 10
38.735051685
 20
-5.0182516514
 11
38.7365873533
 21
-2.1507390233
  0
LINE
  5
486
100
AcDbEntity
  8
RACCORDO
100
AcDbLine
 62
7
  6
CONTINUOUS
 10
37.8463728784
 20
-3.7403590925
 11
37.8440240608
 21
-6.718090903
  0
LINE
  5
487
100
AcDbEntity
  8
RACCORDO
100
AcDbLine
 62
253
  6
CONTINUOUS
 10
38.7322876294
 20
-7.8854278469
 11
38.735051685
 21
-5.0182516514
  0
LINE
  5
488
100
AcDbEntity
  8
RACCORDO
100
AcDbLine
 62
253
  6
CONTINUOUS
 10
37.9331348736
 20
-8.0755795308
 11
37.9360616646
 21
-5.1204583017
  0
LINE
  5
489
100
AcDbEntity
  8
RACCORDO
100
AcDbLine
 62
253
  6
CONTINUOUS
 10
37.9288973237
 20
-11.030148902
 11
37.9331348736
 21
-8.0755795308
  0
LINE
  5
48A
100
AcDbEntity
  8
RACCORDO
100
AcDbLine
 62
253
  6
CONTINUOUS
 10
38.7282953247
 20
-10.75207535
 11
38.7322876294
 21
-7.8854278469
  0
LINE
  5
48B
100
AcDbEntity
  8
RACCORDO
100
AcDbLine
 62
253
  6
CONTINUOUS
 10
38.7230750317
 20
-13.618002087
 11
38.7282953247
 21
-10.75207535
  0
LINE
  5
48C
100
AcDbEntity
  8
RACCORDO
100
AcDbLine
 62
253
  6
CONTINUOUS
 10
37.9233493105
 20
-13.9839291976
 11
37.9288973237
 21
-11.030148902
  0
LWPOLYLINE
  5
48D
100
AcDbEntity
  8
RACCORDO
100
AcDbPolyline
 62
7
  6
CONTINUOUS
 90
39
 70
0
 10
37.7268900626
 20
-8.708165587
 10
37.7268863703
 20
-22.4294470328
 10
37.7265593216
 20
-22.4420929597
 10
37.7257015932
 20
-22.4547033539
 10
37.724315787
 20
-22.4672558677
 10
37.7224048603
 20
-22.4797296826
 10
37.7199727465
 20
-22.492104603
 10
37.7170241382
 20
-22.504358901
 10
37.7135646453
 20
-22.5164710741
 10
37.7096005663
 20
-22.528421336
 10
37.7051387665
 20
-22.5401892218
 10
37.7001876863
 20
-22.5517540837
 10
37.6947559211
 20
-22.5630959664
 10
37.6888532581
 20
-22.5741953423
 10
37.6824901508
 20
-22.5850329844
 10
37.6756776707
 20
-22.5955902357
 10
37.6684279411
 20
-22.6058489624
 10
37.6607534263
 20
-22.6157912973
 10
37.6526676666
 20
-22.6254003053
 10
37.6441845314
 20
-22.6346592477
 10
37.6353188615
 20
-22.6435521658
 10
37.6260860398
 20
-22.6520636172
 10
37.6165019968
 20
-22.6601787338
 10
37.6065834232
 20
-22.6678835871
 10
37.5963472185
 20
-22.6751645942
 10
37.5858112179
 20
-22.6820092463
 10
37.5749935104
 20
-22.6884053573
 10
37.5639127336
 20
-22.694341823
 10
37.5525880688
 20
-22.6998081181
 10
37.5410390253
 20
-22.70479442
 10
37.5292855392
 20
-22.7092920614
 10
37.5173482368
 20
-22.7132925479
 10
37.5052475559
 20
-22.7167889698
 10
37.4930032505
 20
-22.7197749613
 10
37.4806368159
 20
-22.7222448757
 10
37.4681699539
 20
-22.7241939387
 10
37.4556228077
 20
-22.7256181805
 10
37.4430161698
 20
-22.726514574
 10
37.4303724307
 20
-22.7268804559
  0
LINE
  5
48E
100
AcDbEntity
  8
RACCORDO
100
AcDbLine
 62
253
  6
CONTINUOUS
 10
37.9164913117
 20
-16.9366856319
 11
37.9233493105
 21
-13.9839291976
  0
LINE
  5
48F
100
AcDbEntity
  8
RACCORDO
100
AcDbLine
 62
253
  6
CONTINUOUS
 10
38.7166271808
 20
-16.4830160291
 11
38.7230750317
 21
-13.618002087
  0
LINE
  5
490
100
AcDbEntity
  8
RACCORDO
100
AcDbLine
 62
253
  6
CONTINUOUS
 10
38.7089520949
 20
-19.3469250421
 11
38.7166271808
 21
-16.4830160291
  0
LINE
  5
491
100
AcDbEntity
  8
RACCORDO
100
AcDbLine
 62
253
  6
CONTINUOUS
 10
37.9083237189
 20
-19.8882527985
 11
37.9164913117
 21
-16.9366856319
  0
LINE
  5
492
100
AcDbEntity
  8
RACCORDO
100
AcDbLine
 62
253
  6
CONTINUOUS
 10
38.7000503111
 20
-22.2095371212
 11
38.7089520949
 21
-19.3469250421
  0
LWPOLYLINE
  5
493
100
AcDbEntity
  8
RACCORDO
100
AcDbPolyline
 62
253
  6
CONTINUOUS
 90
3
 70
0
 10
37.8936184473
 20
-24.312797179
 10
37.8988474201
 20
-22.8383117237
 10
37.9083237189
 20
-19.8882527985
  0
LINE
  5
494
100
AcDbEntity
  8
RACCORDO
100
AcDbLine
 62
253
  6
CONTINUOUS
 10
38.6899225404
 20
-25.070660193
 11
38.7000503111
 21
-22.2095371212
  0
LINE
  5
495
100
AcDbEntity
  8
RACCORDO
100
AcDbLine
 62
253
  6
CONTINUOUS
 10
38.6785692898
 20
-27.9301022713
 11
38.6899225404
 21
-25.070660193
  0
LINE
  5
496
100
AcDbEntity
  8
RACCORDO
100
AcDbLine
 62
253
  6
CONTINUOUS
 10
37.8460538942
 20
-5.2256034491
 11
37.8442473196
 21
-6.871375306
  0
LINE
  5
497
100
AcDbEntity
  8
RACCORDO
100
AcDbLine
 62
7
  6
CONTINUOUS
 10
37.8440241245
 20
-6.7180908888
 11
37.8435553653
 21
-6.8714290352
  0
LWPOLYLINE
  5
498
100
AcDbEntity
  8
RACCORDO
100
AcDbPolyline
 62
253
  6
CONTINUOUS
 90
3
 70
0
 10
38.6592434939
 20
-32.2156939465
 10
38.6659915853
 20
-30.787671562
 10
38.6785692898
 20
-27.9301022713
  0
LINE
  5
499
100
AcDbEntity
  8
RACCORDO
100
AcDbLine
 62
253
  6
CONTINUOUS
 10
37.8442473196
 20
-6.871375306
 11
37.8431675757
 21
-7.0238175775
  0
LINE
  5
49A
100
AcDbEntity
  8
RACCORDO
100
AcDbLine
 62
7
  6
CONTINUOUS
 10
37.8435553653
 20
-6.8714290352
 11
37.8423574994
 21
-7.0348188017
  0
LWPOLYLINE
  5
49B
100
AcDbEntity
  8
RACCORDO
100
AcDbPolyline
 62
253
  6
CONTINUOUS
 90
49
 70
0
 10
37.7275752953
 20
-22.4279864348
 10
37.7274621812
 20
-22.437731855
 10
37.7270325677
 20
-22.4474908199
 10
37.7262844484
 20
-22.4572530406
 10
37.7252157275
 20
-22.4670121694
 10
37.7238252422
 20
-22.476753519
 10
37.7221140673
 20
-22.4864542641
 10
37.720082692
 20
-22.4961039492
 10
37.7177320518
 20
-22.5056918829
 10
37.7150667708
 20
-22.5151953206
 10
37.7120898731
 20
-22.5246032017
 10
37.7088042665
 20
-22.5339062585
 10
37.7052170008
 20
-22.5430851927
 10
37.7013341585
 20
-22.5521272428
 10
37.6971594724
 20
-22.5610263959
 10
37.6926977632
 20
-22.5697740431
 10
37.6879557221
 20
-22.5783590461
 10
37.6829379964
 20
-22.5867748684
 10
37.6776460128
 20
-22.5950196701
 10
37.6720844653
 20
-22.6030859412
 10
37.6662600877
 20
-22.6109637333
 10
37.6601768429
 20
-22.6186472203
 10
37.6538392542
 20
-22.626129864
 10
37.6472553487
 20
-22.6334014347
 10
37.6404347975
 20
-22.6404509378
 10
37.633384954
 20
-22.6472707736
 10
37.6261133195
 20
-22.6538537419
 10
37.6186307055
 20
-22.6601903659
 10
37.6109473941
 20
-22.6662725886
 10
37.6030698791
 20
-22.6720959336
 10
37.5950036146
 20
-22.6776566935
 10
37.5867583911
 20
-22.6829481895
 10
37.5783418289
 20
-22.6879656033
 10
37.5697557752
 20
-22.6927074604
 10
37.5610065531
 20
-22.6971691793
 10
37.552105482
 20
-22.7013439269
 10
37.5430618042
 20
-22.7052265854
 10
37.5338816883
 20
-22.7088133992
 10
37.524577777
 20
-22.7120983776
 10
37.5151696251
 20
-22.7150744323
 10
37.5056666085
 20
-22.7177386873
 10
37.4960797131
 20
-22.7200882063
 10
37.4864316687
 20
-22.7221184314
 10
37.4767331607
 20
-22.7238284851
 10
37.4669946583
 20
-22.7252179313
 10
37.4572389948
 20
-22.7262857523
 10
37.4474808556
 20
-22.7270331672
 10
37.4377265766
 20
-22.7274623278
 10
37.4279864348
 20
-22.7275752953
  0
LINE
  5
49C
100
AcDbEntity
  8
RACCORDO
100
AcDbLine
 62
253
  6
CONTINUOUS
 10
37.8431675757
 20
-7.0238175775
 11
37.841471632
 21
-7.1746277566
  0
LINE
  5
49D
100
AcDbEntity
  8
RACCORDO
100
AcDbLine
 62
7
  6
CONTINUOUS
 10
37.8423574994
 20
-7.0348188017
 11
37.8405496283
 21
-7.1885204235
  0
LWPOLYLINE
  5
49E
100
AcDbEntity
  8
RACCORDO
100
AcDbPolyline
 62
253
  6
CONTINUOUS
 90
6
 70
0
 10
37.7275752953
 20
-8.708165587
 10
37.7278404253
 20
-8.6895068667
 10
37.7288064371
 20
-8.6708692627
 10
37.7304725466
 20
-8.6522789833
 10
37.7328372297
 20
-8.6337605294
 10
37.7358976108
 20
-8.6153417085
  0
LWPOLYLINE
  5
49F
100
AcDbEntity
  8
RACCORDO
100
AcDbPolyline
 62
253
  6
CONTINUOUS
 90
9
 70
0
 10
37.7490483482
 20
-8.6723188343
 10
37.7493141383
 20
-8.6536401275
 10
37.7502819526
 20
-8.6349876965
 10
37.7519504295
 20
-8.6163877801
 10
37.754317222
 20
-8.5978665432
 10
37.7573790007
 20
-8.5794500401
 10
37.7611314586
 20
-8.5611641778
 10
37.7655693168
 20
-8.5430346795
 10
37.7706863326
 20
-8.5250870482
  0
LWPOLYLINE
  5
4A0
100
AcDbEntity
  8
RACCORDO
100
AcDbPolyline
 62
253
  6
CONTINUOUS
 90
13
 70
0
 10
37.8932395653
 20
24.4161288327
 10
37.894685152
 20
24.5110716144
 10
37.8970091617
 20
24.6097231496
 10
37.9002335787
 20
24.7121013386
 10
37.9043595227
 20
24.8181240849
 10
37.9093975101
 20
24.9279198939
 10
37.9153822966
 20
25.0418247553
 10
37.9223111883
 20
25.1600187703
 10
37.9301579265
 20
25.2823845787
 10
37.9389265457
 20
25.4088150601
 10
37.9485870013
 20
25.539634382
 10
37.9590553571
 20
25.6745893479
 10
37.9702463656
 20
25.812695035
  0
LINE
  5
4A1
100
AcDbEntity
  8
RACCORDO
100
AcDbLine
 62
253
  6
CONTINUOUS
 10
37.841471632
 20
-7.1746277566
 11
37.8391703801
 21
-7.3225665247
  0
LINE
  5
4A2
100
AcDbEntity
  8
RACCORDO
100
AcDbLine
 62
7
  6
CONTINUOUS
 10
37.8405496283
 20
-7.1885204235
 11
37.8382254462
 21
-7.3324179908
  0
LINE
  5
4A3
100
AcDbEntity
  8
RACCORDO
100
AcDbLine
 62
253
  6
CONTINUOUS
 10
37.8391703801
 20
-7.3225665247
 11
37.836282176
 21
-7.4665020592
  0
LINE
  5
4A4
100
AcDbEntity
  8
RACCORDO
100
AcDbLine
 62
7
  6
CONTINUOUS
 10
37.8382254462
 20
-7.3324179908
 11
37.8354670627
 21
-7.4665954736
  0
LWPOLYLINE
  5
4A5
100
AcDbEntity
  8
RACCORDO
100
AcDbPolyline
 62
253
  6
CONTINUOUS
 90
40
 70
0
 10
37.7809127086
 20
-22.4813238482
 10
37.7806376037
 20
-22.4933660964
 10
37.7798787021
 20
-22.5053888801
 10
37.7786372307
 20
-22.5173727663
 10
37.776915196
 20
-22.5292983846
 10
37.7747153815
 20
-22.5411464593
 10
37.7720413428
 20
-22.5528978395
 10
37.7688974022
 20
-22.5645335309
 10
37.7652886413
 20
-22.5760347261
 10
37.7612208931
 20
-22.5873828352
 10
37.7567007327
 20
-22.5985595156
 10
37.751735466
 20
-22.6095467018
 10
37.7463331189
 20
-22.6203266347
 10
37.7405024233
 20
-22.6308818901
 10
37.7342528037
 20
-22.641195407
 10
37.7275943618
 20
-22.6512505151
 10
37.7205378598
 20
-22.6610309618
 10
37.7130947036
 20
-22.6705209384
 10
37.705276924
 20
-22.6797051059
 10
37.6970971572
 20
-22.6885686193
 10
37.6885686246
 20
-22.6970971521
 10
37.6797051113
 20
-22.7052769192
 10
37.6705209439
 20
-22.7130946992
 10
37.6610309673
 20
-22.7205378557
 10
37.6512505205
 20
-22.727594358
 10
37.6411954123
 20
-22.7342528004
 10
37.6308818953
 20
-22.7405024203
 10
37.6203266397
 20
-22.7463331163
 10
37.6095467065
 20
-22.7517354638
 10
37.59855952
 20
-22.7567007308
 10
37.5873828393
 20
-22.7612208916
 10
37.5760347299
 20
-22.76528864
 10
37.5645335342
 20
-22.7688974012
 10
37.5528978424
 20
-22.7720413421
 10
37.5411464617
 20
-22.774715381
 10
37.5292983867
 20
-22.7769151957
 10
37.5173727678
 20
-22.7786372305
 10
37.5053888812
 20
-22.7798787021
 10
37.4933660969
 20
-22.7806376036
 10
37.4813238482
 20
-22.7809127086
  0
LINE
  5
4A6
100
AcDbEntity
  8
RACCORDO
100
AcDbLine
 62
253
  6
CONTINUOUS
 10
37.8840384364
 20
24.0459359881
 11
37.8932396813
 21
24.4161288249
  0
LINE
  5
4A7
100
AcDbEntity
  8
RACCORDO
100
AcDbLine
 62
253
  6
CONTINUOUS
 10
37.836282176
 20
-7.4665020592
 11
37.83282447
 21
-7.6056640967
  0
LINE
  5
4A8
100
AcDbEntity
  8
RACCORDO
100
AcDbLine
 62
7
  6
CONTINUOUS
 10
37.8354670627
 20
-7.4665954736
 11
37.83234574
 21
-7.5912778986
  0
LINE
  5
4A9
100
AcDbEntity
  8
RACCORDO
100
AcDbLine
 62
253
  6
CONTINUOUS
 10
37.1839195898
 20
24.3236918064
 11
37.1941990072
 21
24.7008759094
  0
LINE
  5
4AA
100
AcDbEntity
  8
RACCORDO
100
AcDbLine
 62
253
  6
CONTINUOUS
 10
37.8739241361
 20
23.6847078224
 11
37.8840384364
 21
24.0459359881
  0
LINE
  5
4AB
100
AcDbEntity
  8
RACCORDO
100
AcDbLine
 62
7
  6
CONTINUOUS
 10
37.83234574
 20
-7.5912778986
 11
37.8289222313
 21
-7.7067947305
  0
LINE
  5
4AC
100
AcDbEntity
  8
RACCORDO
100
AcDbLine
 62
253
  6
CONTINUOUS
 10
37.83282447
 20
-7.6056640967
 11
37.8288136015
 21
-7.7394045877
  0
LINE
  5
4AD
100
AcDbEntity
  8
RACCORDO
100
AcDbLine
 62
253
  6
CONTINUOUS
 10
37.8629150529
 20
23.3330788253
 11
37.8739241361
 21
23.6847078224
  0
LINE
  5
4AE
100
AcDbEntity
  8
RACCORDO
100
AcDbLine
 62
253
  6
CONTINUOUS
 10
37.1725139873
 20
23.9567154661
 11
37.1839195898
 21
24.3236918064
  0
LWPOLYLINE
  5
4AF
100
AcDbEntity
  8
RACCORDO
100
AcDbPolyline
 62
253
  6
CONTINUOUS
 90
14
 70
0
 10
37.1941990072
 20
24.7008759094
 10
37.1971696474
 20
24.7895431103
 10
37.2018529034
 20
24.8816178255
 10
37.2082487753
 20
24.9771324084
 10
37.2163399768
 20
25.0760307966
 10
37.2261437941
 20
25.1784279561
 10
37.2377120861
 20
25.2846141815
 10
37.2511050221
 20
25.394745614
 10
37.2662624327
 20
25.5087218974
 10
37.2830556687
 20
25.6264467592
 10
37.301603021
 20
25.7481908233
 10
37.3217861987
 20
25.8737171286
 10
37.3431216797
 20
26.0021485761
 10
37.3657508969
 20
26.1337891103
  0
LINE
  5
4B0
100
AcDbEntity
  8
RACCORDO
100
AcDbLine
 62
253
  6
CONTINUOUS
 10
37.8510340207
 20
22.9918009849
 11
37.8629150529
 21
23.3330788253
  0
LINE
  5
4B1
100
AcDbEntity
  8
RACCORDO
100
AcDbLine
 62
7
  6
CONTINUOUS
 10
37.8289222313
 20
-7.7067947305
 11
37.8252516765
 21
-7.8134298148
  0
LINE
  5
4B2
100
AcDbEntity
  8
RACCORDO
100
AcDbLine
 62
253
  6
CONTINUOUS
 10
37.1600101382
 20
23.60080577
 11
37.1725139873
 21
23.9567154661
  0
LINE
  5
4B3
100
AcDbEntity
  8
RACCORDO
100
AcDbLine
 62
253
  6
CONTINUOUS
 10
37.8288136015
 20
-7.7394045877
 11
37.824272197
 21
-7.8669293592
  0
LINE
  5
4B4
100
AcDbEntity
  8
RACCORDO
100
AcDbLine
 62
253
  6
CONTINUOUS
 10
37.8381599501
 20
22.658062408
 11
37.8510340207
 21
22.9918009849
  0
LINE
  5
4B5
100
AcDbEntity
  8
RACCORDO
100
AcDbLine
 62
253
  6
CONTINUOUS
 10
37.1464410664
 20
23.2569319974
 11
37.1600101382
 21
23.60080577
  0
LINE
  5
4B6
100
AcDbEntity
  8
RACCORDO
100
AcDbLine
 62
7
  6
CONTINUOUS
 10
37.8252516765
 20
-7.8134298148
 11
37.8213847869
 21
-7.9114501866
  0
LINE
  5
4B7
100
AcDbEntity
  8
RACCORDO
100
AcDbLine
 62
253
  6
CONTINUOUS
 10
37.824272197
 20
-7.8669293592
 11
37.8209638696
 21
-7.9480793891
  0
LINE
  5
4B8
100
AcDbEntity
  8
RACCORDO
100
AcDbLine
 62
253
  6
CONTINUOUS
 10
37.1392676296
 20
23.0898268366
 11
37.1464410664
 21
23.2569319974
  0
LINE
  5
4B9
100
AcDbEntity
  8
RACCORDO
100
AcDbLine
 62
253
  6
CONTINUOUS
 10
37.8373839755
 20
22.6403420901
 11
37.8381599501
 21
22.658062408
  0
LINE
  5
4BA
100
AcDbEntity
  8
RACCORDO
100
AcDbLine
 62
7
  6
CONTINUOUS
 10
37.8213847869
 20
-7.9114501866
 11
37.8181801424
 21
-7.9838752073
  0
LINE
  5
4BB
100
AcDbEntity
  8
RACCORDO
100
AcDbLine
 62
253
  6
CONTINUOUS
 10
37.8209638696
 20
-7.9480793891
 11
37.8174428136
 21
-8.0258502642
  0
LINE
  5
4BC
100
AcDbEntity
  8
RACCORDO
100
AcDbLine
 62
7
  6
CONTINUOUS
 10
37.8181801424
 20
-7.9838752073
 11
37.8148996832
 21
-8.0511542689
  0
LINE
  5
4BD
100
AcDbEntity
  8
RACCORDO
100
AcDbLine
 62
253
  6
CONTINUOUS
 10
37.8365449189
 20
22.6231657859
 11
37.8373839755
 21
22.6403420901
  0
LINE
  5
4BE
100
AcDbEntity
  8
RACCORDO
100
AcDbLine
 62
253
  6
CONTINUOUS
 10
37.8174428136
 20
-8.0258502642
 11
37.8137157784
 21
-8.1000918708
  0
LINE
  5
4BF
100
AcDbEntity
  8
RACCORDO
100
AcDbLine
 62
7
  6
CONTINUOUS
 10
37.8148996832
 20
-8.0511542689
 11
37.8115625685
 21
-8.1134614712
  0
LINE
  5
4C0
100
AcDbEntity
  8
RACCORDO
100
AcDbLine
 62
253
  6
CONTINUOUS
 10
37.8358215776
 20
22.6097435861
 11
37.8365449189
 21
22.6231657859
  0
LINE
  5
4C1
100
AcDbEntity
  8
RACCORDO
100
AcDbLine
 62
253
  6
CONTINUOUS
 10
37.8137157784
 20
-8.1000918708
 11
37.8097925916
 21
-8.1705973938
  0
LINE
  5
4C2
100
AcDbEntity
  8
RACCORDO
100
AcDbLine
 62
253
  6
CONTINUOUS
 10
37.8350463766
 20
22.5965736533
 11
37.8358215776
 21
22.6097435861
  0
LINE
  5
4C3
100
AcDbEntity
  8
RACCORDO
100
AcDbLine
 62
7
  6
CONTINUOUS
 10
37.8115625685
 20
-8.1134614712
 11
37.8081869961
 21
-8.1709611731
  0
LWPOLYLINE
  5
4C4
100
AcDbEntity
  8
RACCORDO
100
AcDbPolyline
 62
253
  6
CONTINUOUS
 90
37
 70
0
 10
37.139267629
 20
23.0898268366
 10
37.1389626221
 20
23.0849883112
 10
37.1389348567
 20
23.0799705552
 10
37.1391843325
 20
23.0747778616
 10
37.1396811743
 20
23.0694219323
 10
37.1404552574
 20
23.063900294
 10
37.1415962078
 20
23.058196841
 10
37.1431080398
 20
23.0523075013
 10
37.1449867391
 20
23.0462485553
 10
37.1473098878
 20
23.0400351674
 10
37.1500859889
 20
23.033674358
 10
37.1533065394
 20
23.0271726865
 10
37.1570236134
 20
23.0205446661
 10
37.161247523
 20
23.0137995421
 10
37.1659679559
 20
23.0069431927
 10
37.171206049
 20
22.9999853052
 10
37.1769668665
 20
22.9929416957
 10
37.1832453441
 20
22.9858135037
 10
37.1900474258
 20
22.9785897749
 10
37.1973645751
 20
22.9712972989
 10
37.2052053285
 20
22.9639301162
 10
37.2136012391
 20
22.9564331924
 10
37.2225607894
 20
22.9488235136
 10
37.2320754968
 20
22.9411160291
 10
37.2421514666
 20
22.9332615501
 10
37.2528650305
 20
22.9252404511
 10
37.2641398567
 20
22.9171211604
 10
37.2757530553
 20
22.9089879884
 10
37.2876930692
 20
22.9008810446
 10
37.2999714555
 20
22.8928031728
 10
37.3123999952
 20
22.8847792639
 10
37.3251272643
 20
22.8767327165
 10
37.3380046868
 20
22.868797126
 10
37.3503983147
 20
22.8612786188
 10
37.3621698272
 20
22.8542194189
 10
37.3734575451
 20
22.8475538798
 10
37.3938220315
 20
22.8357047293
  0
LINE
  5
4C5
100
AcDbEntity
  8
RACCORDO
100
AcDbLine
 62
253
  6
CONTINUOUS
 10
37.8097925916
 20
-8.1705973938
 11
37.8056851796
 21
-8.2371548336
  0
LINE
  5
4C6
100
AcDbEntity
  8
RACCORDO
100
AcDbLine
 62
253
  6
CONTINUOUS
 10
37.8342157416
 20
22.5836723768
 11
37.8350463766
 21
22.5965736533
  0
LINE
  5
4C7
100
AcDbEntity
  8
RACCORDO
100
AcDbLine
 62
7
  6
CONTINUOUS
 10
37.8081869961
 20
-8.1709611731
 11
37.8047906748
 21
-8.2238157665
  0
LINE
  5
4C8
100
AcDbEntity
  8
RACCORDO
100
AcDbLine
 62
253
  6
CONTINUOUS
 10
37.8056851796
 20
-8.2371548336
 11
37.8014021104
 21
-8.2996245365
  0
LINE
  5
4C9
100
AcDbEntity
  8
RACCORDO
100
AcDbLine
 62
7
  6
CONTINUOUS
 10
37.8047906748
 20
-8.2238157665
 11
37.8022398732
 21
-8.2605013758
  0
LINE
  5
4CA
100
AcDbEntity
  8
RACCORDO
100
AcDbLine
 62
253
  6
CONTINUOUS
 10
37.8335543175
 20
22.5741911385
 11
37.8342157416
 21
22.5836723768
  0
LINE
  5
4CB
100
AcDbEntity
  8
RACCORDO
100
AcDbLine
 62
7
  6
CONTINUOUS
 10
37.8022398732
 20
-8.2605013758
 11
37.7996947433
 21
-8.2947169192
  0
LINE
  5
4CC
100
AcDbEntity
  8
RACCORDO
100
AcDbLine
 62
253
  6
CONTINUOUS
 10
37.8328586549
 20
22.5648966903
 11
37.8335543175
 21
22.5741911385
  0
LWPOLYLINE
  5
4CD
100
AcDbEntity
  8
RACCORDO
100
AcDbPolyline
 62
253
  6
CONTINUOUS
 90
8
 70
0
 10
37.8014021104
 20
-8.2996245365
 10
37.7969576723
 20
-8.3577896493
 10
37.7946792936
 20
-8.3852069068
 10
37.7923651978
 20
-8.4114910722
 10
37.7900151322
 20
-8.4366468044
 10
37.7876327481
 20
-8.4606333769
 10
37.7852177861
 20
-8.4834519901
 10
37.7827705056
 20
-8.5051014436
  0
LINE
  5
4CE
100
AcDbEntity
  8
RACCORDO
100
AcDbLine
 62
7
  6
CONTINUOUS
 10
37.7996947433
 20
-8.2947169192
 11
37.7971630856
 21
-8.3265137842
  0
LINE
  5
4CF
100
AcDbEntity
  8
RACCORDO
100
AcDbLine
 62
253
  6
CONTINUOUS
 10
37.8321283845
 20
22.555817746
 11
37.8328586549
 21
22.5648966903
  0
LINE
  5
4D0
100
AcDbEntity
  8
RACCORDO
100
AcDbLine
 62
253
  6
CONTINUOUS
 10
37.9702463656
 20
25.812695035
 11
37.9944213745
 21
26.0991955045
  0
LWPOLYLINE
  5
4D1
100
AcDbEntity
  8
RACCORDO
100
AcDbPolyline
 62
253
  6
CONTINUOUS
 90
3
 70
0
 10
37.9944213745
 20
26.0991955045
 10
38.0197606111
 20
26.3916681582
 10
38.0683977344
 20
26.9616818956
  0
LINE
  5
4D2
100
AcDbEntity
  8
RACCORDO
100
AcDbLine
 62
7
  6
CONTINUOUS
 10
37.7971630856
 20
-8.3265137842
 11
37.7946544536
 21
-8.3559285376
  0
LINE
  5
4D3
100
AcDbEntity
  8
RACCORDO
100
AcDbLine
 62
253
  6
CONTINUOUS
 10
37.8313635434
 20
22.5469856904
 11
37.8321283845
 21
22.555817746
  0
LWPOLYLINE
  5
4D4
100
AcDbEntity
  8
RACCORDO
100
AcDbPolyline
 62
253
  6
CONTINUOUS
 90
13
 70
0
 10
38.0683977344
 20
26.9616818956
 10
38.0934238724
 20
27.2401692552
 10
38.1200096507
 20
27.5235576156
 10
38.1481452181
 20
27.8119525039
 10
38.1777865989
 20
28.1052045694
 10
38.2088332458
 20
28.402899809
 10
38.2412737669
 20
28.7052529121
 10
38.2750470283
 20
29.0120077409
 10
38.3099477297
 20
29.322039627
 10
38.345921844
 20
29.6352769204
 10
38.3829262512
 20
29.9517483159
 10
38.4207449858
 20
30.2704779712
 10
38.4593351416
 20
30.5915490151
  0
LWPOLYLINE
  5
4D5
100
AcDbEntity
  8
RACCORDO
100
AcDbPolyline
 62
253
  6
CONTINUOUS
 90
46
 70
0
 10
37.8379631273
 20
-22.6375329197
 10
37.8365905541
 20
-22.6524925254
 10
37.8344115084
 20
-22.6674353012
 10
37.831428507
 20
-22.6823439686
 10
37.8276450016
 20
-22.6972014499
 10
37.8230653578
 20
-22.7119904048
 10
37.8176948522
 20
-22.7266932543
 10
37.8115396881
 20
-22.7412928451
 10
37.804606986
 20
-22.7557724596
 10
37.79690476
 20
-22.7701153546
 10
37.7884419138
 20
-22.7843049464
 10
37.7792282303
 20
-22.7983248366
 10
37.7692743608
 20
-22.8121588254
 10
37.7585918118
 20
-22.8257909194
 10
37.7471929322
 20
-22.8392053624
 10
37.7350908996
 20
-22.8523866595
 10
37.7222997038
 20
-22.8653195764
 10
37.7088341311
 20
-22.8779891603
 10
37.6947097478
 20
-22.8903807681
 10
37.6799428814
 20
-22.9024800764
 10
37.6645506022
 20
-22.9142730978
 10
37.6485507036
 20
-22.9257462002
 10
37.6319616811
 20
-22.9368861199
 10
37.6148027115
 20
-22.9476799805
 10
37.5970936304
 20
-22.9581153079
 10
37.5788549093
 20
-22.9681800385
 10
37.560107632
 20
-22.9778625382
 10
37.5408734702
 20
-22.9871516188
 10
37.5211746585
 20
-22.9960365428
 10
37.5010339682
 20
-23.0045070389
 10
37.480474682
 20
-23.0125533183
 10
37.459520566
 20
-23.02016608
 10
37.4381958431
 20
-23.0273365234
 10
37.4165251642
 20
-23.034056361
 10
37.3945335805
 20
-23.0403178244
 10
37.3722465138
 20
-23.0461136757
 10
37.3496897279
 20
-23.051437218
 10
37.3268892981
 20
-23.0562822965
 10
37.3038715814
 20
-23.0606433111
 10
37.2806631862
 20
-23.0645152255
 10
37.2572909412
 20
-23.0678935629
 10
37.2337818643
 20
-23.070774419
 10
37.2101631312
 20
-23.0731544707
 10
37.1864620446
 20
-23.0750309691
 10
37.1627060029
 20
-23.0764017427
 10
37.1389224676
 20
-23.0772652068
  0
LINE
  5
4D6
100
AcDbEntity
  8
RACCORDO
100
AcDbLine
 62
253
  6
CONTINUOUS
 10
37.8308344283
 20
22.5412491296
 11
37.8313635434
 21
22.5469856904
  0
LINE
  5
4D7
100
AcDbEntity
  8
RACCORDO
100
AcDbLine
 62
7
  6
CONTINUOUS
 10
37.7946544536
 20
-8.3559285376
 11
37.7921815399
 21
-8.3829701873
  0
LINE
  5
4D8
100
AcDbEntity
  8
RACCORDO
100
AcDbLine
 62
7
  6
CONTINUOUS
 10
37.7921815399
 20
-8.3829701873
 11
37.790559537
 21
-8.3996838384
  0
LINE
  5
4D9
100
AcDbEntity
  8
RACCORDO
100
AcDbLine
 62
253
  6
CONTINUOUS
 10
37.8302896407
 20
22.535638529
 11
37.8308344283
 21
22.5412491296
  0
LINE
  5
4DA
100
AcDbEntity
  8
RACCORDO
100
AcDbLine
 62
7
  6
CONTINUOUS
 10
37.790559537
 20
-8.3996838384
 11
37.7889640741
 21
-8.4153503697
  0
LINE
  5
4DB
100
AcDbEntity
  8
RACCORDO
100
AcDbLine
 62
253
  6
CONTINUOUS
 10
37.8297283952
 20
22.5301545763
 11
37.8302896407
 21
22.535638529
  0
LINE
  5
4DC
100
AcDbEntity
  8
RACCORDO
100
AcDbLine
 62
7
  6
CONTINUOUS
 10
37.7889640741
 20
-8.4153503697
 11
37.7874009507
 21
-8.4299652872
  0
LINE
  5
4DD
100
AcDbEntity
  8
RACCORDO
100
AcDbLine
 62
253
  6
CONTINUOUS
 10
37.8291496491
 20
22.5247978121
 11
37.8297283952
 21
22.5301545763
  0
LINE
  5
4DE
100
AcDbEntity
  8
RACCORDO
100
AcDbLine
 62
7
  6
CONTINUOUS
 10
37.7874009507
 20
-8.4299652872
 11
37.7858765956
 21
-8.4435223284
  0
LINE
  5
4DF
100
AcDbEntity
  8
RACCORDO
100
AcDbLine
 62
7
  6
CONTINUOUS
 10
37.7858765956
 20
-8.4435223284
 11
37.7843974739
 21
-8.4560215556
  0
LINE
  5
4E0
100
AcDbEntity
  8
RACCORDO
100
AcDbLine
 62
253
  6
CONTINUOUS
 10
37.7827705056
 20
-8.5051014436
 11
37.7802953356
 21
-8.5255374107
  0
LINE
  5
4E1
100
AcDbEntity
  8
RACCORDO
100
AcDbLine
 62
7
  6
CONTINUOUS
 10
37.7843974739
 20
-8.4560215556
 11
37.7829715751
 21
-8.4674571254
  0
LWPOLYLINE
  5
4E2
100
AcDbEntity
  8
RACCORDO
100
AcDbPolyline
 62
253
  6
CONTINUOUS
 90
13
 70
0
 10
37.7802953356
 20
-8.5255374107
 10
37.7777915763
 20
-8.5447612542
 10
37.7752599276
 20
-8.5627716113
 10
37.7727069179
 20
-8.5795200667
 10
37.7701323446
 20
-8.595001375
 10
37.7675364103
 20
-8.6092207817
 10
37.7649262515
 20
-8.622145608
 10
37.7623017474
 20
-8.6337695605
 10
37.7596630189
 20
-8.6440989326
 10
37.7570175648
 20
-8.6531199259
 10
37.7543678848
 20
-8.6608279409
 10
37.7517114793
 20
-8.667227577
 10
37.7490483482
 20
-8.6723188343
  0
LINE
  5
4E3
100
AcDbEntity
  8
RACCORDO
100
AcDbLine
 62
7
  6
CONTINUOUS
 10
37.7829715751
 20
-8.4674571254
 11
37.7816102018
 21
-8.4778055373
  0
LINE
  5
4E4
100
AcDbEntity
  8
RACCORDO
100
AcDbLine
 62
7
  6
CONTINUOUS
 10
37.7816102018
 20
-8.4778055373
 11
37.7803241728
 21
-8.4870568383
  0
LWPOLYLINE
  5
4E5
100
AcDbEntity
  8
RACCORDO
100
AcDbPolyline
 62
7
  6
CONTINUOUS
 90
13
 70
0
 10
37.7803241728
 20
-8.4870568383
 10
37.7791277308
 20
-8.4951881358
 10
37.7785692089
 20
-8.4988197992
 10
37.778039587
 20
-8.5021623006
 10
37.7775410178
 20
-8.5052146198
 10
37.7770799526
 20
-8.5079513372
 10
37.7766582783
 20
-8.5103767135
 10
37.7762784057
 20
-8.512492585
 10
37.7759484943
 20
-8.5142710575
 10
37.7756710311
 20
-8.5157179745
 10
37.7754493775
 20
-8.516835341
 10
37.7752942815
 20
-8.5175908217
 10
37.7752360165
 20
-8.5178667379
  0
LINE
  5
4E6
100
AcDbEntity
  8
RACCORDO
100
AcDbLine
 62
253
  6
CONTINUOUS
 10
37.7492006957
 20
-8.5609749863
 11
37.7491596105
 21
-8.5606067341
  0
LINE
  5
4E7
100
AcDbEntity
  8
RACCORDO
100
AcDbLine
 62
253
  6
CONTINUOUS
 10
37.7706863326
 20
-8.5250870482
 11
37.7764753078
 21
-8.5073465314
  0
LINE
  5
4E8
100
AcDbEntity
  8
RACCORDO
100
AcDbLine
 62
253
  6
CONTINUOUS
 10
37.7549883096
 20
-8.5432334436
 11
37.7551391458
 21
-8.5424819352
  0
LINE
  5
4E9
100
AcDbEntity
  8
RACCORDO
100
AcDbLine
 62
253
  6
CONTINUOUS
 10
37.7764753078
 20
-8.5073465314
 11
37.7777638775
 21
-8.5038502377
  0
LINE
  5
4EA
100
AcDbEntity
  8
RACCORDO
100
AcDbLine
 62
253
  6
CONTINUOUS
 10
37.7614399666
 20
-8.5257234965
 11
37.7685465634
 21
-8.5084699722
  0
LWPOLYLINE
  5
4EB
100
AcDbEntity
  8
RACCORDO
100
AcDbPolyline
 62
7
  6
CONTINUOUS
 90
12
 70
0
 10
37.7693416328
 20
-8.5065485389
 10
37.7618650738
 20
-8.5244490671
 10
37.7551391458
 20
-8.5424819352
 10
37.7491596105
 20
-8.5606067341
 10
37.7438999079
 20
-8.5788577745
 10
37.7393638611
 20
-8.5971781875
 10
37.735535348
 20
-8.6155883525
 10
37.7324083143
 20
-8.6340858965
 10
37.7299888522
 20
-8.6525851309
 10
37.7282681006
 20
-8.6710692396
 10
37.7272352497
 20
-8.6895895834
 10
37.7268900626
 20
-8.708165587
  0
LINE
  5
4EC
100
AcDbEntity
  8
RACCORDO
100
AcDbLine
 62
253
  6
CONTINUOUS
 10
37.7685465634
 20
-8.5084699722
 11
37.7745781509
 21
-8.495263209
  0
LINE
  5
4ED
100
AcDbEntity
  8
RACCORDO
100
AcDbLine
 62
253
  6
CONTINUOUS
 10
37.7766522122
 20
-8.4907933561
 11
37.7810196765
 21
-8.4821120973
  0
LWPOLYLINE
  5
4EE
100
AcDbEntity
  8
RACCORDO
100
AcDbPolyline
 62
7
  6
CONTINUOUS
 90
3
 70
0
 10
37.7810236089
 20
-8.4820834191
 10
37.7775050242
 20
-8.488955443
 10
37.7693416328
 20
-8.5065485389
  0
LINE
  5
4EF
100
AcDbEntity
  8
RACCORDO
100
AcDbLine
 62
253
  6
CONTINUOUS
 10
37.7490483482
 20
-8.6723188343
 11
37.7275752953
 21
-8.708165587
  0
LWPOLYLINE
  5
4F0
100
AcDbEntity
  8
RACCORDO
100
AcDbPolyline
 62
253
  6
CONTINUOUS
 90
36
 70
0
 10
37.3544600272
 20
-22.8563038765
 10
37.3424604041
 20
-22.8631932838
 10
37.3304173137
 20
-22.8702536761
 10
37.3184289585
 20
-22.8773920015
 10
37.306397136
 20
-22.8846663469
 10
37.294599597
 20
-22.8919910611
 10
37.2830861427
 20
-22.8993175695
 10
37.2718069718
 20
-22.9066532422
 10
37.260890431
 20
-22.9139915811
 10
37.2503232941
 20
-22.9213354465
 10
37.2401187873
 20
-22.9286496069
 10
37.2304449349
 20
-22.9358691366
 10
37.2213657971
 20
-22.9429384368
 10
37.2128173137
 20
-22.9498765455
 10
37.204775328
 20
-22.9567320876
 10
37.1972406003
 20
-22.9634984545
 10
37.1902123702
 20
-22.970158725
 10
37.1836641996
 20
-22.9767526555
 10
37.1775899529
 20
-22.9832853984
 10
37.1719957657
 20
-22.9897356358
 10
37.1668736064
 20
-22.9961066544
 10
37.1622293667
 20
-23.0023961756
 10
37.1580571549
 20
-23.0085927124
 10
37.1543312643
 20
-23.0146864808
 10
37.1510602259
 20
-23.0206723219
 10
37.1482355086
 20
-23.0265429605
 10
37.1458058122
 20
-23.0322855282
 10
37.143777717
 20
-23.037895163
 10
37.1421446426
 20
-23.0433654833
 10
37.1408355474
 20
-23.0486812881
 10
37.1398534167
 20
-23.0538258401
 10
37.1391952652
 20
-23.0588055584
 10
37.138781095
 20
-23.0636406557
 10
37.1385842402
 20
-23.0683355395
 10
37.1386313668
 20
-23.0728782216
 10
37.1389224747
 20
-23.0772651445
  0
LINE
  5
4F1
100
AcDbEntity
  8
RACCORDO
100
AcDbLine
 62
253
  6
CONTINUOUS
 10
37.3764237054
 20
-22.8439165327
 11
37.3544600272
 21
-22.8563038765
  0
LINE
  5
4F2
100
AcDbEntity
  8
RACCORDO
100
AcDbLine
 62
253
  6
CONTINUOUS
 10
37.4543357701
 20
-22.8010994754
 11
37.4448119047
 21
-22.8063926883
  0
LINE
  5
4F3
100
AcDbEntity
  8
RACCORDO
100
AcDbLine
 62
253
  6
CONTINUOUS
 10
37.3957279078
 20
-22.8332261102
 11
37.3764237054
 21
-22.8439165327
  0
LINE
  5
4F4
100
AcDbEntity
  8
RACCORDO
100
AcDbLine
 62
253
  6
CONTINUOUS
 10
37.4448119047
 20
-22.8063926883
 11
37.3957279078
 21
-22.8332261102
  0
LINE
  5
4F5
100
AcDbEntity
  8
0
100
AcDbLine
 62
253
  6
CONTINUOUS
 10
-51.6292815281
 20
35.8557926453
 11
51.6292815281
 21
35.8557926453
  0
LWPOLYLINE
  5
4F6
100
AcDbEntity
  8
0
100
AcDbPolyline
 62
253
  6
CONTINUOUS
 90
79
 70
0
 10
51.6292815281
 20
35.8557926453
 10
51.6720762186
 20
35.855381662
 10
51.7148259
 20
35.8541524433
 10
51.7575305723
 20
35.8521049884
 10
51.800205717
 20
35.8492379578
 10
51.8428358525
 20
35.8455526874
 10
51.8853745343
 20
35.8410531883
 10
51.9278214709
 20
35.8357385558
 10
51.9701769537
 20
35.8296096876
 10
52.0123954128
 20
35.8226732977
 10
52.0544766582
 20
35.8149284948
 10
52.0964208798
 20
35.8063761596
 10
52.1381830772
 20
35.7970256644
 10
52.1797630124
 20
35.786876138
 10
52.2211609234
 20
35.7759284377
 10
52.2623325231
 20
35.7641945277
 10
52.3032775661
 20
35.7516735413
 10
52.3439962979
 20
35.7383663284
 10
52.3844451681
 20
35.7242874266
 10
52.4246238812
 20
35.709435983
 10
52.4645327328
 20
35.6938128309
 10
52.5041290582
 20
35.6774350368
 10
52.5434125076
 20
35.6603017678
 10
52.5823834309
 20
35.6424138345
 10
52.6210002135
 20
35.6237907688
 10
52.6592624492
 20
35.6044317654
 10
52.6971705442
 20
35.5843376051
 10
52.7346841022
 20
35.563530199
 10
52.7718026839
 20
35.5420087613
 10
52.8085267288
 20
35.5197740514
 10
52.8448171583
 20
35.496850298
 10
52.8806734833
 20
35.4732367475
 10
52.9160961931
 20
35.4489341256
 10
52.9510476773
 20
35.4239688804
 10
52.9855274125
 20
35.3983402841
 10
53.0195359222
 20
35.3720490354
 10
53.0530371671
 20
35.3451237232
 10
53.0860305755
 20
35.3175636601
 10
53.1185167191
 20
35.2893695037
 10
53.1504612734
 20
35.2605718616
 10
53.1818636381
 20
35.231170075
 10
53.2127244136
 20
35.2011647726
 10
53.243011076
 20
35.1705884942
 10
53.2727229821
 20
35.1394406277
 10
53.3018607751
 20
35.1077217551
 10
53.3303938616
 20
35.0754662086
 10
53.3583215745
 20
35.0426734073
 10
53.3856445808
 20
35.0093439024
 10
53.4123342882
 20
34.9755137263
 10
53.4383899923
 20
34.9411823495
 10
53.4638123974
 20
34.9063502725
 10
53.4885750243
 20
34.8710550746
 10
53.5126771477
 20
34.8352962622
 10
53.5361194929
 20
34.7990743011
 10
53.5588777563
 20
34.7624282119
 10
53.5809511807
 20
34.7253575599
 10
53.6023405234
 20
34.6878627536
 10
53.6230237523
 20
34.6499840809
 10
53.6430000984
 20
34.6117211375
 10
53.6622703306
 20
34.5730743034
 10
53.680814724
 20
34.5340850459
 10
53.6986324858
 20
34.494753016
 10
53.7157244087
 20
34.4550785408
 10
53.732073146
 20
34.4151041031
 10
53.7476778875
 20
34.3748294082
 10
53.7625394434
 20
34.3342547315
 10
53.7766428976
 20
34.2934234141
 10
53.7899874257
 20
34.2523352248
 10
53.802573852
 20
34.2109903781
 10
53.8143897329
 20
34.1694328872
 10
53.8254342455
 20
34.1276625224
 10
53.8357082128
 20
34.0856794996
 10
53.8452016603
 20
34.0435285037
 10
53.8539137723
 20
34.0012091551
 10
53.8618453646
 20
33.9587218227
 10
53.8689889095
 20
33.9161123171
 10
53.8753418979
 20
33.8733959067
 10
53.880906839
 20
33.8305573162
 10
53.8856837327
 20
33.7875965416
  0
LWPOLYLINE
  5
4F7
100
AcDbEntity
  8
RACCORDO
100
AcDbPolyline
 62
253
  6
CONTINUOUS
 90
28
 70
0
 10
38.0449583798
 20
26.6881207314
 10
38.0304259429
 20
26.693064646
 10
38.0152328578
 20
26.698038921
 10
37.9993975675
 20
26.7030375183
 10
37.9829392947
 20
26.7080543698
 10
37.9658780183
 20
26.7130833857
 10
37.9482344492
 20
26.7181184611
 10
37.9300300052
 20
26.7231534838
 10
37.9112867849
 20
26.7281823418
 10
37.8920275409
 20
26.7331989305
 10
37.8722756522
 20
26.7381971602
 10
37.8520550959
 20
26.7431709635
 10
37.831390418
 20
26.7481143026
 10
37.8103067037
 20
26.7530211767
 10
37.7888295466
 20
26.7578856294
 10
37.7669850183
 20
26.7627017555
 10
37.744799636
 20
26.7674637088
 10
37.7223003308
 20
26.7721657086
 10
37.699514415
 20
26.7768020472
 10
37.6764695487
 20
26.7813670963
 10
37.6531937063
 20
26.7858553145
 10
37.6297151426
 20
26.7902612535
 10
37.6060623587
 20
26.7945795647
 10
37.5822640668
 20
26.7988050063
 10
37.5583491561
 20
26.8029324487
 10
37.5343466571
 20
26.8069568818
 10
37.5102857069
 20
26.8108734201
 10
37.4861955132
 20
26.8146773094
  0
LINE
  5
4F8
100
AcDbEntity
  8
RACCORDO
100
AcDbLine
 62
253
  6
CONTINUOUS
 10
37.3938220315
 20
22.8357047293
 11
37.444911977
 21
22.8064042969
  0
LWPOLYLINE
  5
4F9
100
AcDbEntity
  8
RACCORDO
100
AcDbPolyline
 62
253
  6
CONTINUOUS
 90
19
 70
0
 10
37.444911977
 20
22.8064042969
 10
37.45468593
 20
22.8007194796
 10
37.4588543814
 20
22.7982398335
 10
37.4626097517
 20
22.7959796076
 10
37.4659528525
 20
22.7939257046
 10
37.4688828721
 20
22.7920654188
 10
37.4714633724
 20
22.7903835046
 10
37.4736955584
 20
22.7888685607
 10
37.4755782251
 20
22.7875094378
 10
37.4771713191
 20
22.7862929923
 10
37.4784763689
 20
22.7852089833
 10
37.479491846
 20
22.7842482953
 10
37.4802731113
 20
22.7834008015
 10
37.4808205548
 20
22.7826574864
 10
37.4811337866
 20
22.7820104021
 10
37.4812669971
 20
22.7814516834
 10
37.4812382499
 20
22.7809735922
 10
37.4810294814
 20
22.7805685942
 10
37.4806406918
 20
22.7802295522
  0
LINE
  5
4FA
100
AcDbEntity
  8
RACCORDO
100
AcDbLine
 62
253
  6
CONTINUOUS
 10
37.7275752953
 20
8.708165587
 11
37.7490483482
 21
8.6723188343
  0
LWPOLYLINE
  5
4FB
100
AcDbEntity
  8
RACCORDO
100
AcDbPolyline
 62
253
  6
CONTINUOUS
 90
13
 70
0
 10
37.7490483482
 20
8.6723188343
 10
37.7517122985
 20
8.6672256433
 10
37.7543694491
 20
8.6608236548
 10
37.7570198002
 20
8.6531128687
 10
37.7596658651
 20
8.6440884929
 10
37.7623051303
 20
8.6337553196
 10
37.7649300558
 20
8.6221277253
 10
37.7675405042
 20
8.6091994564
 10
37.7701366129
 20
8.5949767665
 10
37.7727112533
 20
8.5794927925
 10
37.7752641964
 20
8.5627425424
 10
37.7777956713
 20
8.5447310083
 10
37.7802992369
 20
8.5255063025
  0
LWPOLYLINE
  5
4FC
100
AcDbEntity
  8
RACCORDO
100
AcDbPolyline
 62
7
  6
CONTINUOUS
 90
3
 70
0
 10
37.7810227545
 20
8.482085088
 10
37.7775050242
 20
8.488955443
 10
37.7693416328
 20
8.5065485389
  0
LINE
  5
4FD
100
AcDbEntity
  8
RACCORDO
100
AcDbLine
 62
253
  6
CONTINUOUS
 10
37.7766522117
 20
8.4907933571
 11
37.7810187058
 21
8.4821140269
  0
LINE
  5
4FE
100
AcDbEntity
  8
RACCORDO
100
AcDbLine
 62
253
  6
CONTINUOUS
 10
37.7685465626
 20
8.508469974
 11
37.7745781495
 21
8.4952632121
  0
LWPOLYLINE
  5
4FF
100
AcDbEntity
  8
RACCORDO
100
AcDbPolyline
 62
7
  6
CONTINUOUS
 90
12
 70
0
 10
37.7693416328
 20
8.5065485389
 10
37.7618650738
 20
8.5244490671
 10
37.7551391458
 20
8.5424819352
 10
37.7491596105
 20
8.5606067341
 10
37.7438999079
 20
8.5788577745
 10
37.7393638611
 20
8.5971781875
 10
37.735535348
 20
8.6155883525
 10
37.7324083143
 20
8.6340858965
 10
37.7299888522
 20
8.6525851309
 10
37.7282681006
 20
8.6710692396
 10
37.7272352497
 20
8.6895895834
 10
37.7268900626
 20
8.708165587
  0
LINE
  5
500
100
AcDbEntity
  8
RACCORDO
100
AcDbLine
 62
253
  6
CONTINUOUS
 10
37.7614399661
 20
8.5257234979
 11
37.7685465626
 21
8.508469974
  0
LINE
  5
501
100
AcDbEntity
  8
RACCORDO
100
AcDbLine
 62
253
  6
CONTINUOUS
 10
37.7764753186
 20
8.5073465003
 11
37.7777642647
 21
8.5038491859
  0
LINE
  5
502
100
AcDbEntity
  8
RACCORDO
100
AcDbLine
 62
253
  6
CONTINUOUS
 10
37.7549883093
 20
8.5432334446
 11
37.7551391458
 21
8.5424819352
  0
LINE
  5
503
100
AcDbEntity
  8
RACCORDO
100
AcDbLine
 62
253
  6
CONTINUOUS
 10
37.7706863415
 20
8.5250870191
 11
37.7764753186
 21
8.5073465003
  0
LINE
  5
504
100
AcDbEntity
  8
RACCORDO
100
AcDbLine
 62
253
  6
CONTINUOUS
 10
37.7492006955
 20
8.5609749872
 11
37.7491596105
 21
8.5606067341
  0
LWPOLYLINE
  5
505
100
AcDbEntity
  8
RACCORDO
100
AcDbPolyline
 62
7
  6
CONTINUOUS
 90
15
 70
0
 10
37.7753593584
 20
8.5173502865
 10
37.7752728906
 20
8.5177170121
 10
37.7751970849
 20
8.5180473811
 10
37.7752117159
 20
8.5179799257
 10
37.7753019418
 20
8.517554218
 10
37.7754628911
 20
8.516768415
 10
37.775691301
 20
8.5156139838
 10
37.7759766733
 20
8.5141214757
 10
37.7763156251
 20
8.5122883169
 10
37.7767056553
 20
8.5101080292
 10
37.7771389087
 20
8.5076061252
 10
37.7776128184
 20
8.5047808313
 10
37.7781256305
 20
8.5016261885
 10
37.778671646
 20
8.4981618691
 10
37.7792485811
 20
8.494388367
  0
LINE
  5
506
100
AcDbEntity
  8
RACCORDO
100
AcDbLine
 62
7
  6
CONTINUOUS
 10
37.7792485811
 20
8.494388367
 11
37.7804894127
 21
8.4858972872
  0
LINE
  5
507
100
AcDbEntity
  8
RACCORDO
100
AcDbLine
 62
7
  6
CONTINUOUS
 10
37.7804894127
 20
8.4858972872
 11
37.7818329451
 21
8.4761508874
  0
LINE
  5
508
100
AcDbEntity
  8
RACCORDO
100
AcDbLine
 62
7
  6
CONTINUOUS
 10
37.7818329451
 20
8.4761508874
 11
37.7832680222
 21
8.4651295988
  0
LINE
  5
509
100
AcDbEntity
  8
RACCORDO
100
AcDbLine
 62
7
  6
CONTINUOUS
 10
37.7832680222
 20
8.4651295988
 11
37.7847857947
 21
8.4528027496
  0
LINE
  5
50A
100
AcDbEntity
  8
RACCORDO
100
AcDbLine
 62
253
  6
CONTINUOUS
 10
37.7802992369
 20
8.5255063025
 11
37.7827742011
 21
8.5050698976
  0
LWPOLYLINE
  5
50B
100
AcDbEntity
  8
RACCORDO
100
AcDbPolyline
 62
7
  6
CONTINUOUS
 90
3
 70
0
 10
37.7847857947
 20
8.4528027496
 10
37.7863783257
 20
8.439135773
 10
37.7872008425
 20
8.4317839733
  0
LWPOLYLINE
  5
50C
100
AcDbEntity
  8
RACCORDO
100
AcDbPolyline
 62
253
  6
CONTINUOUS
 90
7
 70
0
 10
37.7827742011
 20
8.5050698976
 10
37.785221256
 20
8.4834203211
 10
37.7876360365
 20
8.4606012684
 10
37.7900183123
 20
8.4366137123
 10
37.7923683138
 20
8.41145668
 10
37.7946823669
 20
8.3851709484
 10
37.7969607295
 20
8.3577517264
  0
LWPOLYLINE
  5
50D
100
AcDbEntity
  8
RACCORDO
100
AcDbPolyline
 62
253
  6
CONTINUOUS
 90
43
 70
0
 10
37.8936184208
 20
-24.3127971916
 10
37.8919627452
 20
-24.3238696613
 10
37.8893893538
 20
-24.3349275604
 10
37.8859016329
 20
-24.3459563375
 10
37.8815041722
 20
-24.3569414793
 10
37.8762027584
 20
-24.3678685301
 10
37.8700043678
 20
-24.3787231105
 10
37.8629171572
 20
-24.3894909365
 10
37.8549504529
 20
-24.4001578385
 10
37.8461147386
 20
-24.4107097792
 10
37.8364216414
 20
-24.4211328732
 10
37.825883917
 20
-24.4314134042
 10
37.8145154323
 20
-24.4415378436
 10
37.8023311475
 20
-24.4514928684
 10
37.7893470964
 20
-24.4612653782
 10
37.7755803652
 20
-24.4708425132
 10
37.76104907
 20
-24.4802116703
 10
37.7457723333
 20
-24.4893605203
 10
37.7297702581
 20
-24.4982770239
 10
37.7130639023
 20
-24.5069494475
 10
37.6956752503
 20
-24.5153663788
 10
37.6776271846
 20
-24.5235167415
 10
37.6589434554
 20
-24.5313898102
 10
37.6396486492
 20
-24.5389752246
 10
37.6197681569
 20
-24.5462630026
 10
37.5993281399
 20
-24.553243554
 10
37.5783554961
 20
-24.5599076928
 10
37.5568778241
 20
-24.5662466494
 10
37.5349233874
 20
-24.572252082
 10
37.5125210765
 20
-24.577916088
 10
37.4897003716
 20
-24.5832312138
 10
37.4664913033
 20
-24.5881904651
 10
37.4429244133
 20
-24.5927873157
 10
37.4190307143
 20
-24.5970157165
 10
37.3948416488
 20
-24.6008701032
 10
37.3703890483
 20
-24.6043454036
 10
37.3457050908
 20
-24.6074370445
 10
37.3208222589
 20
-24.6101409574
 10
37.2957732969
 20
-24.6124535841
 10
37.2705911678
 20
-24.6143718814
 10
37.2453090097
 20
-24.6158933249
 10
37.2199600923
 20
-24.6170159125
 10
37.1945777733
 20
-24.6177381669
  0
LINE
  5
50E
100
AcDbEntity
  8
RACCORDO
100
AcDbLine
 62
253
  6
CONTINUOUS
 10
37.796136935
 20
-22.4630837296
 11
37.7932981289
 21
-22.4688614787
  0
LINE
  5
50F
100
AcDbEntity
  8
RACCORDO
100
AcDbLine
 62
253
  6
CONTINUOUS
 10
37.7932981289
 20
-22.4688614787
 11
37.7925496111
 21
-22.4703612405
  0
LWPOLYLINE
  5
510
100
AcDbEntity
  8
RACCORDO
100
AcDbPolyline
 62
253
  6
CONTINUOUS
 90
42
 70
0
 10
37.7925496111
 20
-22.4703612405
 10
37.7918256845
 20
-22.471783039
 10
37.7914724004
 20
-22.4724634372
 10
37.7911246712
 20
-22.4731229407
 10
37.7907825418
 20
-22.473761643
 10
37.7904455874
 20
-22.4743784238
 10
37.790113788
 20
-22.4749731707
 10
37.7897871636
 20
-22.475545996
 10
37.7894653497
 20
-22.4760961162
 10
37.7891483481
 20
-22.4766234104
 10
37.788836157
 20
-22.4771279994
 10
37.7885284072
 20
-22.4776094618
 10
37.7882250904
 20
-22.4780677217
 10
37.7879262149
 20
-22.478502855
 10
37.7876314367
 20
-22.478914668
 10
37.7873407508
 20
-22.4793031025
 10
37.7870541621
 20
-22.4796682167
 10
37.7867713417
 20
-22.4800099912
 10
37.7864922837
 20
-22.4803283892
 10
37.786216994
 20
-22.4806234474
 10
37.7859451612
 20
-22.4808952571
 10
37.7856767704
 20
-22.4811438025
 10
37.7854118365
 20
-22.4813690994
 10
37.7851500928
 20
-22.4815712864
 10
37.7848915282
 20
-22.4817503486
 10
37.7846361537
 20
-22.481906301
 10
37.7843837353
 20
-22.4820393269
 10
37.7841342709
 20
-22.4821494147
 10
37.7838877626
 20
-22.482236576
 10
37.7836439823
 20
-22.4823010297
 10
37.7834029245
 20
-22.4823427746
 10
37.7831645948
 20
-22.482361812
 10
37.7829287819
 20
-22.4823583635
 10
37.7826954755
 20
-22.4823324307
 10
37.7824646859
 20
-22.4822840122
 10
37.7822362333
 20
-22.4822133247
 10
37.7820101141
 20
-22.482120372
 10
37.7817863319
 20
-22.4820051504
 10
37.7815647172
 20
-22.4818678665
 10
37.7813452135
 20
-22.4817085893
 10
37.7811278773
 20
-22.4815272499
 10
37.7809127086
 20
-22.4813238482
  0
LINE
  5
511
100
AcDbEntity
  8
0
100
AcDbLine
 62
253
  6
CONTINUOUS
 10
-51.6292815281
 20
40.7622148997
 11
51.6292815281
 21
40.7622148997
  0
LINE
  5
512
100
AcDbEntity
  8
0
100
AcDbLine
 62
7
  6
CONTINUOUS
 10
51.6292815281
 20
41.0
 11
-51.6292815281
 21
41.0
  0
LWPOLYLINE
  5
513
100
AcDbEntity
  8
0
100
AcDbPolyline
 62
253
  6
CONTINUOUS
 90
79
 70
0
 10
51.6292815281
 20
40.7622148997
 10
51.7741136856
 20
40.7608592138
 10
51.9188961087
 20
40.756792646
 10
52.0635778979
 20
40.7500165688
 10
52.2081078948
 20
40.7405333191
 10
52.3524355785
 20
40.7283461912
 10
52.4965110821
 20
40.7134593811
 10
52.6402839567
 20
40.6958780004
 10
52.7837034363
 20
40.6756081871
 10
52.9267193361
 20
40.6526570445
 10
53.0692812563
 20
40.6270325754
 10
53.2113391751
 20
40.5987437117
 10
53.3528437141
 20
40.5678003229
 10
53.4937450052
 20
40.5342132116
 10
53.633993598
 20
40.4979940926
 10
53.7735410524
 20
40.4591555247
 10
53.912338318
 20
40.41771102
 10
54.0503365287
 20
40.373675057
 10
54.1874879052
 20
40.3270629347
 10
54.3237442254
 20
40.2778908735
 10
54.4590575037
 20
40.2261760489
 10
54.5933807777
 20
40.1719364731
 10
54.7266667862
 20
40.11519104
 10
54.8588685955
 20
40.0559595667
 10
54.9899402732
 20
39.9942627123
 10
55.1198356555
 20
39.9301219968
 10
55.2485090212
 20
39.8635598119
 10
55.3759157135
 20
39.7945993536
 10
55.5020108809
 20
39.7232646617
 10
55.6267500826
 20
39.649580664
 10
55.7500899607
 20
39.5735730838
 10
55.8719870562
 20
39.4952684437
 10
55.9923984131
 20
39.4146941021
 10
56.1112821806
 20
39.3318781936
 10
56.2285964756
 20
39.2468496103
 10
56.3442999133
 20
39.1596380845
 10
56.4583522128
 20
39.0702741294
 10
56.5707131472
 20
38.9787889604
 10
56.6813430912
 20
38.8852145561
 10
56.7902035551
 20
38.7895836486
 10
56.8972561523
 20
38.6919296285
 10
57.0024630807
 20
38.5922866664
 10
57.1057876787
 20
38.4906896886
 10
57.2071934671
 20
38.3871742138
 10
57.306644649
 20
38.281776449
 10
57.4041065995
 20
38.1745333249
 10
57.4995449179
 20
38.0654823154
 10
57.5929258649
 20
37.9546616062
 10
57.6842168789
 20
37.8421101124
 10
57.7733856968
 20
37.7278672107
 10
57.8604008041
 20
37.6119728882
 10
57.9452318887
 20
37.4944678332
 10
58.0278489719
 20
37.3753931407
 10
58.1082228151
 20
37.2547905293
 10
58.1863253945
 20
37.1327024169
 10
58.2621290672
 20
37.009171561
 10
58.3356070169
 20
36.8842412121
 10
58.4067336837
 20
36.7579552556
 10
58.4754839035
 20
36.6303578737
 10
58.5418333015
 20
36.5014938068
 10
58.6057587695
 20
36.3714084376
 10
58.667237663
 20
36.2401473185
 10
58.7262481803
 20
36.10775646
 10
58.7827697904
 20
35.9742825218
 10
58.8367824474
 20
35.8397722711
 10
58.8882669876
 20
35.7042728534
 10
58.9372055503
 20
35.5678320108
 10
58.9835807509
 20
35.4304976036
 10
59.027376125
 20
35.2923177324
 10
59.068576558
 20
35.1533409371
 10
59.1071674144
 20
35.0136158121
 10
59.1431349236
 20
34.8731914612
 10
59.1764666703
 20
34.7321175499
 10
59.2071507746
 20
34.5904436294
 10
59.2351762943
 20
34.4482192818
 10
59.2605336435
 20
34.3054945022
 10
59.2832138914
 20
34.1623193666
 10
59.3032087583
 20
34.0187440414
 10
59.3205110488
 20
33.8748188837
  0
LWPOLYLINE
  5
514
100
AcDbEntity
  8
RACCORDO
100
AcDbPolyline
 62
253
  6
CONTINUOUS
 90
63
 70
0
 10
37.7955033012
 20
22.4650410021
 10
37.795943578
 20
22.4642801212
 10
37.796392063
 20
22.4635134899
 10
37.7968488153
 20
22.4627415114
 10
37.797314748
 20
22.4619698251
 10
37.7977897549
 20
22.4611979288
 10
37.7982739422
 20
22.4604263248
 10
37.7987685425
 20
22.4596621596
 10
37.799273568
 20
22.458904517
 10
37.7997890064
 20
22.4581543133
 10
37.8003160526
 20
22.457421444
 10
37.800854451
 20
22.4567049888
 10
37.8014044573
 20
22.4560058681
 10
37.8019680331
 20
22.4553367385
 10
37.8025451631
 20
22.454695806
 10
37.8031358626
 20
22.4540848646
 10
37.8037421402
 20
22.4535219539
 10
37.8043660376
 20
22.4530043486
 10
37.805005513
 20
22.452534774
 10
37.8056564488
 20
22.4521394453
 10
37.8063207288
 20
22.451819686
 10
37.8069964692
 20
22.4515741727
 10
37.8076739011
 20
22.4514251501
 10
37.808353878
 20
22.4513785881
 10
37.8090355465
 20
22.4514285169
 10
37.8097065774
 20
22.4515792713
 10
37.8103642073
 20
22.4518355682
 10
37.8110111998
 20
22.4521926907
 10
37.8116435162
 20
22.4526408228
 10
37.8122593581
 20
22.4531800156
 10
37.8128605239
 20
22.453810218
 10
37.8134483702
 20
22.4545214599
 10
37.8140226995
 20
22.4553128541
 10
37.8145837093
 20
22.4561852879
 10
37.8151333485
 20
22.4571314529
 10
37.8156718878
 20
22.4581511401
 10
37.8161990565
 20
22.4592445585
 10
37.8167159915
 20
22.4604050265
 10
37.8172227602
 20
22.4616322607
 10
37.8177192952
 20
22.4629265444
 10
37.8182065298
 20
22.4642820461
 10
37.8186844836
 20
22.4656984094
 10
37.8191531372
 20
22.4671759906
 10
37.8196133648
 20
22.4687100261
 10
37.8200652462
 20
22.4703004381
 10
37.8205087017
 20
22.4719473044
 10
37.8209443667
 20
22.4736460946
 10
37.8213722628
 20
22.4753966221
 10
37.8217923683
 20
22.4771990735
 10
37.8222052541
 20
22.4790494786
 10
37.8226109396
 20
22.4809476734
 10
37.8230094053
 20
22.4828938218
 10
37.8234011635
 20
22.4848844461
 10
37.8237862308
 20
22.4869193979
 10
37.8241645905
 20
22.4889988257
 10
37.8245367049
 20
22.4911196963
 10
37.8249025825
 20
22.4932818334
 10
37.8252622147
 20
22.4954854134
 10
37.8256160381
 20
22.4977279325
 10
37.825964082
 20
22.5000093821
 10
37.8263063172
 20
22.5023297709
 10
37.8266430922
 20
22.5046866215
 10
37.8273002757
 20
22.5095094702
  0
LINE
  5
515
100
AcDbEntity
  8
RACCORDO
100
AcDbLine
 62
253
  6
CONTINUOUS
 10
37.7915040331
 20
22.4720657104
 11
37.7922506021
 21
22.4707722889
  0
LINE
  5
516
100
AcDbEntity
  8
RACCORDO
100
AcDbLine
 62
253
  6
CONTINUOUS
 10
37.7922506021
 20
22.4707722889
 11
37.7934178278
 21
22.468716463
  0
LWPOLYLINE
  5
517
100
AcDbEntity
  8
RACCORDO
100
AcDbPolyline
 62
253
  6
CONTINUOUS
 90
3
 70
0
 10
37.7934178278
 20
22.468716463
 10
37.7942298433
 20
22.4672779171
 10
37.7955033012
 20
22.4650410021
  0
LWPOLYLINE
  5
518
100
AcDbEntity
  8
RACCORDO
100
AcDbPolyline
 62
253
  6
CONTINUOUS
 90
43
 70
0
 10
37.8932395653
 20
24.4161288327
 10
37.8915670308
 20
24.4264636311
 10
37.8889776482
 20
24.4367848427
 10
37.885474822
 20
24.4470788979
 10
37.8810631572
 20
24.4573322628
 10
37.8757484542
 20
24.4675314571
 10
37.8695377002
 20
24.4776630715
 10
37.8624390606
 20
24.4877137858
 10
37.8544618683
 20
24.4976703861
 10
37.8456166111
 20
24.5075197821
 10
37.835914918
 20
24.5172490245
 10
37.8253695441
 20
24.5268453222
 10
37.8139943536
 20
24.5362960585
 10
37.8018043019
 20
24.5455888083
 10
37.7888154155
 20
24.5547113543
 10
37.7750447712
 20
24.5636517027
 10
37.7605104737
 20
24.5723980994
 10
37.7452316314
 20
24.5809390453
 10
37.729228332
 20
24.5892633114
 10
37.7125216153
 20
24.5973599536
 10
37.6951334461
 20
24.605218327
 10
37.6770866851
 20
24.6128280999
 10
37.6584050588
 20
24.6201792677
 10
37.6391131285
 20
24.6272621654
 10
37.6192362576
 20
24.6340674811
 10
37.5988005788
 20
24.6405862676
 10
37.5778329595
 20
24.6468099544
 10
37.5563609662
 20
24.6527303592
 10
37.5344128288
 20
24.6583396982
 10
37.5120174031
 20
24.6636305966
 10
37.4892041328
 20
24.6685960984
 10
37.4660030111
 20
24.6732296752
 10
37.4424445413
 20
24.6775252353
 10
37.4185596961
 20
24.681477131
 10
37.3943798775
 20
24.6850801667
 10
37.3699368755
 20
24.6883296054
 10
37.3452628258
 20
24.691221175
 10
37.3203901681
 20
24.6937510738
 10
37.295351603
 20
24.6959159757
 10
37.2701800493
 20
24.6977130345
 10
37.2449086009
 20
24.6991398874
 10
37.2195704826
 20
24.7001946585
 10
37.1941990072
 20
24.7008759612
  0
LINE
  5
519
100
AcDbEntity
  8
0
100
AcDbLine
 62
253
  6
CONTINUOUS
 10
51.6292815281
 20
41.0
 11
51.6292815281
 21
35.8557926453
  0
LINE
  5
51A
100
AcDbEntity
  8
0
100
AcDbLine
 62
253
  6
CONTINUOUS
 10
51.6292815281
 20
-41.0
 11
51.6292815281
 21
-35.8557926453
  0
LWPOLYLINE
  5
51B
100
AcDbEntity
  8
0
100
AcDbPolyline
 62
253
  6
CONTINUOUS
 90
49
 70
0
 10
53.8856837327
 20
33.7875965416
 10
54.0258179699
 20
32.3822549587
 10
54.1599778442
 20
30.9765527128
 10
54.2881633554
 20
29.5705128485
 10
54.4103741144
 20
28.1641484745
 10
54.5266105105
 20
26.7574925408
 10
54.6368737108
 20
25.3505978706
 10
54.7411616161
 20
23.9435156051
 10
54.8394763257
 20
22.5362406782
 10
54.9318253049
 20
21.1287415681
 10
55.0182097011
 20
19.7210309437
 10
55.098628367
 20
18.3131420391
 10
55.1730853254
 20
16.9050741083
 10
55.2415808209
 20
15.4968495983
 10
55.3041146088
 20
14.0884918935
 10
55.3606899781
 20
12.6800016163
 10
55.4113070483
 20
11.2714086323
 10
55.4559656998
 20
9.8627288471
 10
55.4946688626
 20
8.4539419074
 10
55.5274170983
 20
7.0450622999
 10
55.5542098454
 20
5.6361212473
 10
55.5750483485
 20
4.227123475
 10
55.5899328143
 20
2.8180973183
 10
55.5988630362
 20
1.4090601303
 10
55.601839639
 20
0.0000001536
 10
55.5988630396
 20
-1.4090597125
 10
55.5899328212
 20
-2.8180966916
 10
55.575048358
 20
-4.2271227256
 10
55.5542098556
 20
-5.6361205673
 10
55.5274171083
 20
-7.0450617756
 10
55.4946688731
 20
-8.4539414916
 10
55.4559657126
 20
-9.862728432
 10
55.4113070643
 20
-11.2714081707
 10
55.3606899973
 20
-12.6800011108
 10
55.3041146323
 20
-14.088491347
 10
55.2415808487
 20
-15.4968490133
 10
55.1730853545
 20
-16.9050735355
 10
55.0986283905
 20
-18.3131415914
 10
55.0182097159
 20
-19.7210306718
 10
54.9318253165
 20
-21.1287413843
 10
54.8394763468
 20
-22.5362403898
 10
54.7411616523
 20
-23.9435151245
 10
54.6368737553
 20
-25.3505972873
 10
54.5266105495
 20
-26.7574920411
 10
54.4103741412
 20
-28.1641481477
 10
54.2881633713
 20
-29.5705126696
 10
54.1599778534
 20
-30.9765526185
 10
54.0258179739
 20
-32.3822549241
 10
53.8856837327
 20
-33.7875965416
  0
LWPOLYLINE
  5
51C
100
AcDbEntity
  8
0
100
AcDbPolyline
 62
253
  6
CONTINUOUS
 90
79
 70
0
 10
53.8856837327
 20
-33.7875965416
 10
53.8809068034
 20
-33.8305575608
 10
53.8753418332
 20
-33.8733963347
 10
53.868988822
 20
-33.9161128671
 10
53.8618452628
 20
-33.958722413
 10
53.8539136627
 20
-34.0012097244
 10
53.8452015426
 20
-34.0435290517
 10
53.8357080847
 20
-34.0856800466
 10
53.8254341068
 20
-34.1276630681
 10
53.8143895836
 20
-34.1694334315
 10
53.8025736923
 20
-34.2109909207
 10
53.7899872556
 20
-34.2523357656
 10
53.7766427172
 20
-34.2934239529
 10
53.7625392528
 20
-34.3342552678
 10
53.7476776865
 20
-34.3748299418
 10
53.7320729347
 20
-34.4151046338
 10
53.7157241872
 20
-34.4550790685
 10
53.6986322541
 20
-34.4947535405
 10
53.6808144822
 20
-34.534085567
 10
53.6622700786
 20
-34.573074821
 10
53.6429998362
 20
-34.6117216514
 10
53.62302348
 20
-34.6499845909
 10
53.6023402412
 20
-34.6878632595
 10
53.5809508885
 20
-34.7253580614
 10
53.5588774542
 20
-34.7624287088
 10
53.536119181
 20
-34.7990747932
 10
53.5126768261
 20
-34.8352967493
 10
53.488574693
 20
-34.8710555565
 10
53.4638120565
 20
-34.9063507491
 10
53.4383896418
 20
-34.9411828204
 10
53.4123339283
 20
-34.9755141915
 10
53.3856442116
 20
-35.0093443616
 10
53.358321196
 20
-35.0426738603
 10
53.3303934739
 20
-35.0754666553
 10
53.3018603783
 20
-35.1077221953
 10
53.2727225763
 20
-35.1394410612
 10
53.2430106614
 20
-35.1705889207
 10
53.2127239903
 20
-35.201165192
 10
53.1818632064
 20
-35.2311704869
 10
53.1504608338
 20
-35.2605722655
 10
53.1185162724
 20
-35.2893698988
 10
53.0860301223
 20
-35.317564046
 10
53.0530367076
 20
-35.3451240997
 10
53.0195354567
 20
-35.3720494023
 10
52.9855269412
 20
-35.3983406413
 10
52.9510472004
 20
-35.4239692279
 10
52.9160957107
 20
-35.4489344632
 10
52.8806729957
 20
-35.4732370753
 10
52.8448166656
 20
-35.4968506157
 10
52.8085262312
 20
-35.519774359
 10
52.7718021818
 20
-35.5420090588
 10
52.7346835956
 20
-35.5635304862
 10
52.6971700333
 20
-35.5843378821
 10
52.6592619343
 20
-35.604432032
 10
52.6209996948
 20
-35.623791025
 10
52.5823829086
 20
-35.6424140802
 10
52.5434119819
 20
-35.6603020029
 10
52.5041285293
 20
-35.6774352614
 10
52.4645322008
 20
-35.6938130449
 10
52.4246233463
 20
-35.7094361865
 10
52.3844446304
 20
-35.7242876194
 10
52.3439957577
 20
-35.7383665105
 10
52.3032770237
 20
-35.7516737128
 10
52.2623319787
 20
-35.7641946884
 10
52.2211603774
 20
-35.7759285876
 10
52.1797624651
 20
-35.786876277
 10
52.1381825288
 20
-35.7970257926
 10
52.0964203306
 20
-35.806376277
 10
52.0544761085
 20
-35.8149286014
 10
52.0123948624
 20
-35.8226733936
 10
51.9701764024
 20
-35.8296097726
 10
51.9278209185
 20
-35.8357386299
 10
51.8853739809
 20
-35.8410532517
 10
51.8428352772
 20
-35.8455527404
 10
51.8002051198
 20
-35.8492380007
 10
51.7575300155
 20
-35.8521050209
 10
51.7148254666
 20
-35.8541524652
 10
51.6720759708
 20
-35.855381673
 10
51.6292815281
 20
-35.8557926453
  0
LWPOLYLINE
  5
51D
100
AcDbEntity
  8
0
100
AcDbPolyline
 62
253
  6
CONTINUOUS
 90
49
 70
0
 10
59.3205110488
 20
33.8748188837
 10
59.4635066924
 20
32.4658775365
 10
59.6004045142
 20
31.0565706673
 10
59.7312053196
 20
29.6469217346
 10
59.855910871
 20
28.236944397
 10
59.9745211402
 20
26.8266718491
 10
60.08703477
 20
25.4161568594
 10
60.1934512273
 20
24.0054509895
 10
60.293774401
 20
22.5945494983
 10
60.3880093098
 20
21.1834206508
 10
60.4761574799
 20
19.7720774055
 10
60.5582192445
 20
18.3605533869
 10
60.6341968184
 20
16.9488477695
 10
60.7040910296
 20
15.5369832995
 10
60.7679027449
 20
14.1249836972
 10
60.8256336816
 20
12.7128495498
 10
60.8772842822
 20
11.3006110278
 10
60.9228556517
 20
9.8882843324
 10
60.96234967
 20
8.4758490518
 10
60.9957667916
 20
7.0633199287
 10
61.0231071521
 20
5.6507285027
 10
61.0443713819
 20
4.2380795272
 10
61.0595596703
 20
2.8254016264
 10
61.068672449
 20
1.4127124229
 10
61.0717100635
 20
0.0000001541
 10
61.0686724506
 20
-1.4127120036
 10
61.0595596756
 20
-2.8254009977
 10
61.0443713916
 20
-4.2380787754
 10
61.0231071639
 20
-5.6507278207
 10
60.995766803
 20
-7.0633194027
 10
60.9623496808
 20
-8.4758486346
 10
60.9228556642
 20
-9.8882839158
 10
60.8772842981
 20
-11.3006105646
 10
60.8256337013
 20
-12.7128490426
 10
60.7679027685
 20
-14.1249831488
 10
60.7040910574
 20
-15.5369827125
 10
60.6341968481
 20
-16.9488471948
 10
60.5582192698
 20
-18.3605529377
 10
60.4761574965
 20
-19.7720771326
 10
60.3880093218
 20
-21.1834204661
 10
60.2937744208
 20
-22.5945492087
 10
60.1934512625
 20
-24.0054505073
 10
60.0870348154
 20
-25.4161562741
 10
59.9745211814
 20
-26.8266713477
 10
59.8559108994
 20
-28.2369440689
 10
59.7312053359
 20
-29.6469215548
 10
59.6004045232
 20
-31.0565705724
 10
59.4635066958
 20
-32.4658775015
 10
59.3205110488
 20
-33.8748188837
  0
LINE
  5
51E
100
AcDbEntity
  8
RACCORDO
100
AcDbLine
 62
7
  6
CONTINUOUS
 10
61.3943109437
 20
-6.5727674313
 11
61.3779973486
 21
-6.2718078786
  0
LINE
  5
51F
100
AcDbEntity
  8
RACCORDO
100
AcDbLine
 62
7
  6
CONTINUOUS
 10
61.3779973486
 20
-6.2718078786
 11
61.3626073275
 21
-5.963785957
  0
LINE
  5
520
100
AcDbEntity
  8
RACCORDO
100
AcDbLine
 62
7
  6
CONTINUOUS
 10
61.3626073275
 20
-5.963785957
 11
61.3481312759
 21
-5.6489740322
  0
LINE
  5
521
100
AcDbEntity
  8
RACCORDO
100
AcDbLine
 62
7
  6
CONTINUOUS
 10
61.3481312759
 20
-5.6489740322
 11
61.3345655369
 21
-5.3277223844
  0
LINE
  5
522
100
AcDbEntity
  8
RACCORDO
100
AcDbLine
 62
7
  6
CONTINUOUS
 10
61.3345655369
 20
-5.3277223844
 11
61.3219078834
 21
-5.0004655337
  0
LWPOLYLINE
  5
523
100
AcDbEntity
  8
RACCORDO
100
AcDbPolyline
 62
7
  6
CONTINUOUS
 90
6
 70
0
 10
61.4088501111
 20
-6.8514476749
 10
61.4078445137
 20
-6.8242002112
 10
61.4067376721
 20
-6.7974527936
 10
61.4055308446
 20
-6.7712372785
 10
61.4042227729
 20
-6.7455732973
 10
61.3943109437
 20
-6.5727674313
  0
LINE
  5
524
100
AcDbEntity
  8
RACCORDO
100
AcDbLine
 62
7
  6
CONTINUOUS
 10
61.3219078834
 20
-5.0004655337
 11
61.3101501664
 21
-4.6675104767
  0
LINE
  5
525
100
AcDbEntity
  8
RACCORDO
100
AcDbLine
 62
7
  6
CONTINUOUS
 10
61.3101501664
 20
-4.6675104767
 11
61.2992883892
 21
-4.3292267499
  0
LINE
  5
526
100
AcDbEntity
  8
RACCORDO
100
AcDbLine
 62
7
  6
CONTINUOUS
 10
61.2992883892
 20
-4.3292267499
 11
61.2893180853
 21
-3.9860302184
  0
LINE
  5
527
100
AcDbEntity
  8
RACCORDO
100
AcDbLine
 62
7
  6
CONTINUOUS
 10
61.4105455213
 20
-6.9072631108
 11
61.4088501111
 21
-6.8514476749
  0
LINE
  5
528
100
AcDbEntity
  8
RACCORDO
100
AcDbLine
 62
7
  6
CONTINUOUS
 10
61.2893180853
 20
-3.9860302184
 11
61.2802333415
 21
-3.6382980017
  0
LINE
  5
529
100
AcDbEntity
  8
RACCORDO
100
AcDbLine
 62
7
  6
CONTINUOUS
 10
61.2802333415
 20
-3.6382980017
 11
61.2720304502
 21
-3.2864169958
  0
LINE
  5
52A
100
AcDbEntity
  8
RACCORDO
100
AcDbLine
 62
7
  6
CONTINUOUS
 10
61.4118185383
 20
-6.9646861691
 11
61.4105455213
 21
-6.9072631108
  0
LINE
  5
52B
100
AcDbEntity
  8
RACCORDO
100
AcDbLine
 62
7
  6
CONTINUOUS
 10
61.2720304502
 20
-3.2864169958
 11
61.2647037019
 21
-2.9307586742
  0
LINE
  5
52C
100
AcDbEntity
  8
RACCORDO
100
AcDbLine
 62
7
  6
CONTINUOUS
 10
61.4117202421
 20
7.2689101834
 11
61.4104032874
 21
7.3314391493
  0
LINE
  5
52D
100
AcDbEntity
  8
RACCORDO
100
AcDbLine
 62
7
  6
CONTINUOUS
 10
61.2647037019
 20
-2.9307586742
 11
61.2582495057
 21
-2.5717799228
  0
LINE
  5
52E
100
AcDbEntity
  8
RACCORDO
100
AcDbLine
 62
7
  6
CONTINUOUS
 10
61.2582495057
 20
-2.5717799228
 11
61.2526649806
 21
-2.2098861798
  0
LINE
  5
52F
100
AcDbEntity
  8
RACCORDO
100
AcDbLine
 62
7
  6
CONTINUOUS
 10
61.4126651979
 20
-7.0236422723
 11
61.4118185383
 21
-6.9646861691
  0
LINE
  5
530
100
AcDbEntity
  8
RACCORDO
100
AcDbLine
 62
7
  6
CONTINUOUS
 10
61.412606215
 20
7.206594434
 11
61.4117202421
 21
7.2689101834
  0
LINE
  5
531
100
AcDbEntity
  8
RACCORDO
100
AcDbLine
 62
7
  6
CONTINUOUS
 10
61.2526649806
 20
-2.2098861798
 11
61.2479449444
 21
-1.8454168657
  0
LINE
  5
532
100
AcDbEntity
  8
RACCORDO
100
AcDbLine
 62
7
  6
CONTINUOUS
 10
61.2479449444
 20
-1.8454168657
 11
61.2440872249
 21
-1.4788637619
  0
LINE
  5
533
100
AcDbEntity
  8
RACCORDO
100
AcDbLine
 62
7
  6
CONTINUOUS
 10
61.2440872249
 20
-1.4788637619
 11
61.2410900311
 21
-1.1106480147
  0
LINE
  5
534
100
AcDbEntity
  8
RACCORDO
100
AcDbLine
 62
7
  6
CONTINUOUS
 10
61.4130604583
 20
7.1447574258
 11
61.412606215
 21
7.206594434
  0
LINE
  5
535
100
AcDbEntity
  8
RACCORDO
100
AcDbLine
 62
7
  6
CONTINUOUS
 10
61.2410900311
 20
-1.1106480147
 11
61.2389502893
 21
-0.7411288205
  0
LINE
  5
536
100
AcDbEntity
  8
RACCORDO
100
AcDbLine
 62
7
  6
CONTINUOUS
 10
61.4130798202
 20
-7.0837455174
 11
61.4126651979
 21
-7.0236422723
  0
LINE
  5
537
100
AcDbEntity
  8
RACCORDO
100
AcDbLine
 62
7
  6
CONTINUOUS
 10
61.2389502893
 20
-0.7411288205
 11
61.2376669533
 21
-0.3707697115
  0
LINE
  5
538
100
AcDbEntity
  8
RACCORDO
100
AcDbLine
 62
7
  6
CONTINUOUS
 10
61.2376669533
 20
-0.3707697115
 11
61.2372394118
 21
0.0000013953
  0
LINE
  5
539
100
AcDbEntity
  8
RACCORDO
100
AcDbLine
 62
7
  6
CONTINUOUS
 10
61.4130798202
 20
7.0837455174
 11
61.4130604583
 21
7.1447574258
  0
LINE
  5
53A
100
AcDbEntity
  8
RACCORDO
100
AcDbLine
 62
7
  6
CONTINUOUS
 10
61.2372394118
 20
0.0000013953
 11
61.2376669584
 21
0.3707720695
  0
LINE
  5
53B
100
AcDbEntity
  8
RACCORDO
100
AcDbLine
 62
7
  6
CONTINUOUS
 10
61.4130604583
 20
-7.1447574258
 11
61.4130798202
 21
-7.0837455174
  0
LINE
  5
53C
100
AcDbEntity
  8
RACCORDO
100
AcDbLine
 62
7
  6
CONTINUOUS
 10
61.2376669584
 20
0.3707720695
 11
61.2389502977
 21
0.7411306487
  0
LINE
  5
53D
100
AcDbEntity
  8
RACCORDO
100
AcDbLine
 62
7
  6
CONTINUOUS
 10
61.2389502977
 20
0.7411306487
 11
61.2410900409
 21
1.1106494163
  0
LINE
  5
53E
100
AcDbEntity
  8
RACCORDO
100
AcDbLine
 62
7
  6
CONTINUOUS
 10
61.2410900409
 20
1.1106494163
 11
61.2440872367
 21
1.4788649955
  0
LINE
  5
53F
100
AcDbEntity
  8
RACCORDO
100
AcDbLine
 62
7
  6
CONTINUOUS
 10
61.4126651979
 20
7.0236422723
 11
61.4130798202
 21
7.0837455174
  0
LINE
  5
540
100
AcDbEntity
  8
RACCORDO
100
AcDbLine
 62
7
  6
CONTINUOUS
 10
61.412606215
 20
-7.206594434
 11
61.4130604583
 21
-7.1447574258
  0
LINE
  5
541
100
AcDbEntity
  8
RACCORDO
100
AcDbLine
 62
7
  6
CONTINUOUS
 10
61.2440872367
 20
1.4788649955
 11
61.2479449529
 21
1.8454176278
  0
LINE
  5
542
100
AcDbEntity
  8
RACCORDO
100
AcDbLine
 62
7
  6
CONTINUOUS
 10
61.2479449529
 20
1.8454176278
 11
61.2526649812
 21
2.209886218
  0
LINE
  5
543
100
AcDbEntity
  8
RACCORDO
100
AcDbLine
 62
7
  6
CONTINUOUS
 10
61.4117202421
 20
-7.2689101834
 11
61.412606215
 21
-7.206594434
  0
LINE
  5
544
100
AcDbEntity
  8
RACCORDO
100
AcDbLine
 62
7
  6
CONTINUOUS
 10
61.2526649812
 20
2.209886218
 11
61.258249502
 21
2.5717797051
  0
LINE
  5
545
100
AcDbEntity
  8
RACCORDO
100
AcDbLine
 62
7
  6
CONTINUOUS
 10
61.4118185383
 20
6.9646861691
 11
61.4126651979
 21
7.0236422723
  0
LINE
  5
546
100
AcDbEntity
  8
RACCORDO
100
AcDbLine
 62
7
  6
CONTINUOUS
 10
61.258249502
 20
2.5717797051
 11
61.2647036983
 21
2.9307584738
  0
LINE
  5
547
100
AcDbEntity
  8
RACCORDO
100
AcDbLine
 62
7
  6
CONTINUOUS
 10
61.2647036983
 20
2.9307584738
 11
61.2720304491
 21
3.286416947
  0
LINE
  5
548
100
AcDbEntity
  8
RACCORDO
100
AcDbLine
 62
7
  6
CONTINUOUS
 10
61.4104032874
 20
-7.3314391493
 11
61.4117202421
 21
-7.2689101834
  0
LINE
  5
549
100
AcDbEntity
  8
RACCORDO
100
AcDbLine
 62
7
  6
CONTINUOUS
 10
61.2720304491
 20
3.286416947
 11
61.2802333355
 21
3.6382977676
  0
LINE
  5
54A
100
AcDbEntity
  8
RACCORDO
100
AcDbLine
 62
7
  6
CONTINUOUS
 10
61.4105455213
 20
6.9072631108
 11
61.4118185383
 21
6.9646861691
  0
LINE
  5
54B
100
AcDbEntity
  8
RACCORDO
100
AcDbLine
 62
7
  6
CONTINUOUS
 10
61.2802333355
 20
3.6382977676
 11
61.289318078
 21
3.9860299467
  0
LINE
  5
54C
100
AcDbEntity
  8
RACCORDO
100
AcDbLine
 62
7
  6
CONTINUOUS
 10
61.289318078
 20
3.9860299467
 11
61.2992883847
 21
4.3292266022
  0
LINE
  5
54D
100
AcDbEntity
  8
RACCORDO
100
AcDbLine
 62
7
  6
CONTINUOUS
 10
61.2992883847
 20
4.3292266022
 11
61.3101501587
 21
4.667510251
  0
LINE
  5
54E
100
AcDbEntity
  8
RACCORDO
100
AcDbLine
 62
7
  6
CONTINUOUS
 10
61.3101501587
 20
4.667510251
 11
61.321907874
 21
5.0004652794
  0
LINE
  5
54F
100
AcDbEntity
  8
RACCORDO
100
AcDbLine
 62
7
  6
CONTINUOUS
 10
61.321907874
 20
5.0004652794
 11
61.3345655287
 21
5.3277221809
  0
LINE
  5
550
100
AcDbEntity
  8
RACCORDO
100
AcDbLine
 62
7
  6
CONTINUOUS
 10
61.3345655287
 20
5.3277221809
 11
61.34813127
 21
5.6489738967
  0
LINE
  5
551
100
AcDbEntity
  8
RACCORDO
100
AcDbLine
 62
7
  6
CONTINUOUS
 10
61.34813127
 20
5.6489738967
 11
61.3626073213
 21
5.9637858292
  0
LINE
  5
552
100
AcDbEntity
  8
RACCORDO
100
AcDbLine
 62
7
  6
CONTINUOUS
 10
61.3626073213
 20
5.9637858292
 11
61.3779973404
 21
6.2718077209
  0
LWPOLYLINE
  5
553
100
AcDbEntity
  8
RACCORDO
100
AcDbPolyline
 62
7
  6
CONTINUOUS
 90
6
 70
0
 10
61.4042227729
 20
6.7455732973
 10
61.4055308446
 20
6.7712372785
 10
61.4067376721
 20
6.7974527936
 10
61.4078445137
 20
6.8242002112
 10
61.4088501111
 20
6.8514476749
 10
61.4105455213
 20
6.9072631108
  0
LWPOLYLINE
  5
554
100
AcDbEntity
  8
RACCORDO
100
AcDbPolyline
 62
7
  6
CONTINUOUS
 90
3
 70
0
 10
61.3779973404
 20
6.2718077209
 10
61.3943109398
 20
6.5727673578
 10
61.4042227729
 20
6.7455732973
  0
LWPOLYLINE
  5
555
100
AcDbEntity
  8
0
100
AcDbPolyline
 62
253
  6
CONTINUOUS
 90
79
 70
0
 10
59.3205110488
 20
-33.8748188837
 10
59.3032087588
 20
-34.0187440436
 10
59.2832138921
 20
-34.1623193704
 10
59.2605336443
 20
-34.3054945068
 10
59.235176295
 20
-34.4482192863
 10
59.2071507751
 20
-34.5904436332
 10
59.1764666708
 20
-34.732117553
 10
59.1431349242
 20
-34.8731914641
 10
59.107167415
 20
-35.0136158149
 10
59.0685765588
 20
-35.1533409398
 10
59.0273761258
 20
-35.2923177348
 10
58.9835807517
 20
-35.4304976058
 10
58.9372055511
 20
-35.5678320125
 10
58.8882669887
 20
-35.7042728544
 10
58.8367824489
 20
-35.8397722712
 10
58.7827697923
 20
-35.9742825209
 10
58.7262481826
 20
-36.1077564584
 10
58.6672376656
 20
-36.2401473162
 10
58.6057587724
 20
-36.3714084348
 10
58.5418333046
 20
-36.5014938037
 10
58.4754839068
 20
-36.6303578704
 10
58.4067336873
 20
-36.7579552521
 10
58.3356070208
 20
-36.8842412082
 10
58.2621290714
 20
-37.0091715567
 10
58.1863253991
 20
-37.1327024122
 10
58.1082228202
 20
-37.2547905241
 10
58.0278489775
 20
-37.3753931351
 10
57.9452318947
 20
-37.4944678271
 10
57.8604008106
 20
-37.6119728818
 10
57.7733857038
 20
-37.7278672038
 10
57.6842168864
 20
-37.8421101052
 10
57.5929258729
 20
-37.9546615987
 10
57.4995449264
 20
-38.0654823076
 10
57.4041066085
 20
-38.1745333169
 10
57.3066446586
 20
-38.2817764407
 10
57.2071934772
 20
-38.3871742052
 10
57.1057876893
 20
-38.4906896798
 10
57.0024630919
 20
-38.5922866574
 10
56.8972561642
 20
-38.6919296193
 10
56.7902035676
 20
-38.7895836392
 10
56.6813431044
 20
-38.8852145465
 10
56.570713161
 20
-38.9787889506
 10
56.4583522272
 20
-39.0702741195
 10
56.3442999284
 20
-39.1596380745
 10
56.2285964913
 20
-39.2468496001
 10
56.111282197
 20
-39.3318781834
 10
55.99239843
 20
-39.4146940918
 10
55.8719870737
 20
-39.4952684335
 10
55.7500899788
 20
-39.5735730736
 10
55.6267501015
 20
-39.6495806538
 10
55.5020109004
 20
-39.7232646515
 10
55.3759157338
 20
-39.7945993435
 10
55.2485090422
 20
-39.8635598018
 10
55.1198356772
 20
-39.9301219867
 10
54.9899402957
 20
-39.9942627023
 10
54.8588686187
 20
-40.0559595569
 10
54.7266668102
 20
-40.1151910303
 10
54.5933808024
 20
-40.1719364637
 10
54.4590575288
 20
-40.2261760398
 10
54.3237442507
 20
-40.2778908648
 10
54.1874879309
 20
-40.3270629264
 10
54.0503365547
 20
-40.373675049
 10
53.9123383444
 20
-40.4177110125
 10
53.7735410796
 20
-40.4591555174
 10
53.6339936264
 20
-40.4979940855
 10
53.4937450352
 20
-40.5342132046
 10
53.3528437458
 20
-40.567800316
 10
53.2113392087
 20
-40.5987437051
 10
53.069281292
 20
-40.627032569
 10
52.9267193727
 20
-40.6526570386
 10
52.7837034723
 20
-40.675608182
 10
52.640283991
 20
-40.695877996
 10
52.4965111139
 20
-40.7134593776
 10
52.352435607
 20
-40.7283461886
 10
52.2081079192
 20
-40.7405333174
 10
52.0635779175
 20
-40.7500165679
 10
51.9188961226
 20
-40.7567926456
 10
51.7741136929
 20
-40.7608592137
 10
51.6292815281
 20
-40.7622148997
  0
LWPOLYLINE
  5
556
100
AcDbEntity
  8
0
100
AcDbPolyline
 62
253
  6
CONTINUOUS
 90
32
 70
0
 10
59.3205110424
 20
-33.8748188829
 10
59.3060420631
 20
-33.884448067
 10
59.2891607987
 20
-33.8937978543
 10
59.2698747621
 20
-33.9028640835
 10
59.2481925363
 20
-33.91164272
 10
59.2241237709
 20
-33.9201298568
 10
59.1976791773
 20
-33.9283217168
 10
59.1688705247
 20
-33.9362146544
 10
59.137710634
 20
-33.9438051567
 10
59.1042133727
 20
-33.9510898458
 10
59.0683936484
 20
-33.9580654796
 10
59.0302674025
 20
-33.9647289537
 10
58.9898516027
 20
-33.9710773025
 10
58.9471642356
 20
-33.9771077009
 10
58.9022242991
 20
-33.9828174649
 10
58.8550517931
 20
-33.9882040536
 10
58.8056677115
 20
-33.9932650696
 10
58.7540940321
 20
-33.9979982606
 10
58.7003537076
 20
-34.0024015202
 10
58.6444706544
 20
-34.0064728887
 10
58.5864697429
 20
-34.0102105541
 10
58.526376786
 20
-34.0136128531
 10
58.4642185275
 20
-34.0166782715
 10
58.4000226304
 20
-34.0194054451
 10
58.3338176645
 20
-34.0217931601
 10
58.2656330938
 20
-34.0238403539
 10
58.1954992634
 20
-34.0255461154
 10
58.1234473856
 20
-34.0269096856
 10
58.0495095266
 20
-34.0279304574
 10
57.9737185917
 20
-34.0286079768
 10
57.8961083111
 20
-34.0289419421
 10
57.8167132247
 20
-34.0289322047
  0
LWPOLYLINE
  5
557
100
AcDbEntity
  8
0
100
AcDbPolyline
 62
253
  6
CONTINUOUS
 90
34
 70
0
 10
59.3205110484
 20
33.8748188836
 10
59.3060420691
 20
33.8844480677
 10
59.2891608047
 20
33.8937978549
 10
59.269874768
 20
33.9028640842
 10
59.2481925422
 20
33.9116427207
 10
59.2241237767
 20
33.9201298575
 10
59.1976791831
 20
33.9283217175
 10
59.1688705304
 20
33.9362146551
 10
59.1377106397
 20
33.9438051574
 10
59.1042133783
 20
33.9510898465
 10
59.068393654
 20
33.9580654803
 10
59.030267408
 20
33.9647289544
 10
58.9898516081
 20
33.9710773032
 10
58.947164241
 20
33.9771077016
 10
58.9022243044
 20
33.9828174656
 10
58.8550517983
 20
33.9882040543
 10
58.8056677166
 20
33.9932650703
 10
58.7540940372
 20
33.9979982613
 10
58.7003537126
 20
34.0024015209
 10
58.6444706593
 20
34.0064728893
 10
58.5864697478
 20
34.0102105548
 10
58.5263767908
 20
34.0136128538
 10
58.4642185322
 20
34.0166782722
 10
58.400022635
 20
34.0194054457
 10
58.333817669
 20
34.0217931607
 10
58.2656330983
 20
34.0238403545
 10
58.1954992677
 20
34.025546116
 10
58.1234473898
 20
34.0269096862
 10
58.0495095307
 20
34.027930458
 10
57.9737185957
 20
34.0286079774
 10
57.8961083151
 20
34.0289419427
 10
57.8167132285
 20
34.0289322052
 10
57.7355686702
 20
34.0285787695
 10
57.5681763515
 20
34.0268415849
  0
LINE
  5
558
100
AcDbEntity
  8
0
100
AcDbLine
 62
7
  6
CONTINUOUS
 10
81.0798715848
 20
-41.0
 11
83.342245691
 21
-40.7622148997
  0
LINE
  5
559
100
AcDbEntity
  8
0
100
AcDbLine
 62
253
  6
CONTINUOUS
 10
81.0798715848
 20
-33.904109589
 11
83.5457889863
 21
-33.8748188837
  0
LWPOLYLINE
  5
55A
100
AcDbEntity
  8
0
100
AcDbPolyline
 62
253
  6
CONTINUOUS
 90
40
 70
0
 10
86.6546383545
 20
-34.0289419427
 10
86.7392488117
 20
-34.0289322052
 10
86.822182189
 20
-34.0285787695
 10
86.9034015776
 20
-34.0278817926
 10
86.9828708314
 20
-34.0268415849
 10
87.0605545834
 20
-34.0254586093
 10
87.1364182611
 20
-34.0237334811
 10
87.2104281018
 20
-34.0216669683
 10
87.2825511683
 20
-34.0192599905
 10
87.3527553626
 20
-34.0165136188
 10
87.4210094411
 20
-34.0134290755
 10
87.4872830279
 20
-34.0100077335
 10
87.5515466283
 20
-34.0062511152
 10
87.6137716425
 20
-34.0021608927
 10
87.6739303776
 20
-33.9977388861
 10
87.7319960607
 20
-33.9929870635
 10
87.78794285
 20
-33.9879075396
 10
87.8417458469
 20
-33.9825025751
 10
87.8933811067
 20
-33.9767745753
 10
87.9428256498
 20
-33.9707260894
 10
87.9900574711
 20
-33.9643598094
 10
88.0350555506
 20
-33.9576785684
 10
88.0777998622
 20
-33.9506853399
 10
88.118271383
 20
-33.9433832361
 10
88.1564521013
 20
-33.9357755069
 10
88.1923250253
 20
-33.9278655378
 10
88.22587419
 20
-33.9196568493
 10
88.2570846646
 20
-33.9111530946
 10
88.2859425591
 20
-33.902358058
 10
88.3124350306
 20
-33.8932756539
 10
88.3365502889
 20
-33.8839099243
 10
88.3582776015
 20
-33.8742650372
 10
88.377607299
 20
-33.8643452851
 10
88.3945307789
 20
-33.8541550827
 10
88.4090405095
 20
-33.843698965
 10
88.4211300333
 20
-33.8329815855
 10
88.43079397
 20
-33.8220077138
 10
88.4380280189
 20
-33.8107822337
 10
88.4428289603
 20
-33.7993101411
 10
88.4451946577
 20
-33.7875965416
  0
LINE
  5
55B
100
AcDbEntity
  8
0
100
AcDbLine
 62
253
  6
CONTINUOUS
 10
86.4805375507
 20
-34.027930458
 11
86.6546383545
 21
-34.0289419427
  0
LINE
  5
55C
100
AcDbEntity
  8
0
100
AcDbLine
 62
253
  6
CONTINUOUS
 10
86.3001896714
 20
-34.025546116
 11
86.4805375507
 21
-34.027930458
  0
LINE
  5
55D
100
AcDbEntity
  8
0
100
AcDbLine
 62
253
  6
CONTINUOUS
 10
86.1139157302
 20
-34.0217931607
 11
86.3001896714
 21
-34.025546116
  0
LINE
  5
55E
100
AcDbEntity
  8
0
100
AcDbLine
 62
253
  6
CONTINUOUS
 10
85.9220472889
 20
-34.0166782722
 11
86.1139157302
 21
-34.0217931607
  0
LINE
  5
55F
100
AcDbEntity
  8
0
100
AcDbLine
 62
253
  6
CONTINUOUS
 10
85.7249258673
 20
-34.0102105548
 11
85.9220472889
 21
-34.0166782722
  0
LINE
  5
560
100
AcDbEntity
  8
0
100
AcDbLine
 62
253
  6
CONTINUOUS
 10
85.5229023352
 20
-34.0024015209
 11
85.7249258673
 21
-34.0102105548
  0
LINE
  5
561
100
AcDbEntity
  8
0
100
AcDbLine
 62
253
  6
CONTINUOUS
 10
85.3163362882
 20
-33.9932650703
 11
85.5229023352
 21
-34.0024015209
  0
LINE
  5
562
100
AcDbEntity
  8
0
100
AcDbLine
 62
253
  6
CONTINUOUS
 10
85.1055954073
 20
-33.9828174656
 11
85.3163362882
 21
-33.9932650703
  0
LINE
  5
563
100
AcDbEntity
  8
0
100
AcDbLine
 62
253
  6
CONTINUOUS
 10
84.8910548046
 20
-33.9710773032
 11
85.1055954073
 21
-33.9828174656
  0
LINE
  5
564
100
AcDbEntity
  8
0
100
AcDbLine
 62
253
  6
CONTINUOUS
 10
84.6730963557
 20
-33.9580654803
 11
84.8910548046
 21
-33.9710773032
  0
LINE
  5
565
100
AcDbEntity
  8
0
100
AcDbLine
 62
253
  6
CONTINUOUS
 10
84.4521080197
 20
-33.9438051574
 11
84.6730963557
 21
-33.9580654803
  0
LINE
  5
566
100
AcDbEntity
  8
0
100
AcDbLine
 62
253
  6
CONTINUOUS
 10
84.2284831489
 20
-33.9283217175
 11
84.4521080197
 21
-33.9438051574
  0
LINE
  5
567
100
AcDbEntity
  8
0
100
AcDbLine
 62
253
  6
CONTINUOUS
 10
84.0026197885
 20
-33.9116427207
 11
84.2284831489
 21
-33.9283217175
  0
LINE
  5
568
100
AcDbEntity
  8
0
100
AcDbLine
 62
253
  6
CONTINUOUS
 10
83.7749199681
 20
-33.8937978549
 11
84.0026197885
 21
-33.9116427207
  0
LINE
  5
569
100
AcDbEntity
  8
0
100
AcDbLine
 62
253
  6
CONTINUOUS
 10
83.5457889863
 20
-33.8748188836
 11
83.7749199681
 21
-33.8937978549
  0
LINE
  5
56A
100
AcDbEntity
  8
0
100
AcDbLine
 62
7
  6
CONTINUOUS
 10
81.0798715848
 20
41.0
 11
81.0798715848
 21
33.904109589
  0
LINE
  5
56B
100
AcDbEntity
  8
RACCORDO
100
AcDbLine
 62
7
  6
CONTINUOUS
 10
81.0798715848
 20
33.904109589
 11
81.0798715848
 21
7.3314391493
  0
LINE
  5
56C
100
AcDbEntity
  8
RACCORDO
100
AcDbLine
 62
7
  6
CONTINUOUS
 10
81.0798715848
 20
-7.3314391493
 11
81.0798715848
 21
-33.904109589
  0
LINE
  5
56D
100
AcDbEntity
  8
0
100
AcDbLine
 62
7
  6
CONTINUOUS
 10
81.0798715848
 20
-33.904109589
 11
81.0798715848
 21
-41.0
  0
LINE
  5
56E
100
AcDbEntity
  8
0
100
AcDbLine
 62
253
  6
CONTINUOUS
 10
83.4892366872
 20
35.8397722711
 11
83.342245691
 21
40.7622148997
  0
LWPOLYLINE
  5
56F
100
AcDbEntity
  8
0
100
AcDbPolyline
 62
253
  6
CONTINUOUS
 90
3
 70
0
 10
83.5457889863
 20
33.8748188837
 10
83.5375867362
 20
34.1623193704
 10
83.4892366872
 20
35.8397722711
  0
LWPOLYLINE
  5
570
100
AcDbEntity
  8
0
100
AcDbPolyline
 62
253
  6
CONTINUOUS
 90
3
 70
0
 10
83.5334957079
 20
-34.3054945022
 10
83.5375867485
 20
-34.1623193666
 10
83.5457889863
 20
-33.8748188837
  0
LWPOLYLINE
  5
571
100
AcDbEntity
  8
0
100
AcDbPolyline
 62
253
  6
CONTINUOUS
 90
5
 70
0
 10
83.5131592957
 20
-35.0136158121
 10
83.5172056243
 20
-34.8731914612
 10
83.5212628992
 20
-34.7321175499
 10
83.525330965
 20
-34.5904436294
 10
83.5334957079
 20
-34.3054945022
  0
LWPOLYLINE
  5
572
100
AcDbEntity
  8
0
100
AcDbPolyline
 62
253
  6
CONTINUOUS
 90
4
 70
0
 10
83.4971350735
 20
-35.5678320108
 10
83.5011143271
 20
-35.4304976036
 10
83.5051136471
 20
-35.2923177324
 10
83.5131592957
 20
-35.0136158121
  0
LWPOLYLINE
  5
573
100
AcDbEntity
  8
0
100
AcDbPolyline
 62
253
  6
CONTINUOUS
 90
4
 70
0
 10
83.4814321853
 20
-36.10775646
 10
83.4853221365
 20
-35.9742825218
 10
83.4892367004
 20
-35.8397722711
 10
83.4971350735
 20
-35.5678320108
  0
LWPOLYLINE
  5
574
100
AcDbEntity
  8
0
100
AcDbPolyline
 62
253
  6
CONTINUOUS
 90
4
 70
0
 10
83.4661450237
 20
-36.6303578737
 10
83.4699232427
 20
-36.5014938068
 10
83.4737305049
 20
-36.3714084376
 10
83.4814321853
 20
-36.10775646
  0
LWPOLYLINE
  5
575
100
AcDbEntity
  8
0
100
AcDbPolyline
 62
253
  6
CONTINUOUS
 90
4
 70
0
 10
83.4513711347
 20
-37.1327024169
 10
83.4550111622
 20
-37.009171561
 10
83.4586889834
 20
-36.8842412121
 10
83.4661450237
 20
-36.6303578737
  0
LWPOLYLINE
  5
576
100
AcDbEntity
  8
0
100
AcDbPolyline
 62
253
  6
CONTINUOUS
 90
3
 70
0
 10
83.4372018628
 20
-37.6119728882
 10
83.4406821507
 20
-37.4944678332
 10
83.4513711347
 20
-37.1327024169
  0
LINE
  5
577
100
AcDbEntity
  8
0
100
AcDbLine
 62
253
  6
CONTINUOUS
 10
83.4270257094
 20
-37.9546616062
 11
83.4372018628
 21
-37.6119728882
  0
LWPOLYLINE
  5
578
100
AcDbEntity
  8
0
100
AcDbPolyline
 62
253
  6
CONTINUOUS
 90
3
 70
0
 10
83.417277331
 20
-38.281776449
 10
83.4204765697
 20
-38.1745333249
 10
83.4270257094
 20
-37.9546616062
  0
LINE
  5
579
100
AcDbEntity
  8
0
100
AcDbLine
 62
253
  6
CONTINUOUS
 10
83.4079923606
 20
-38.5922866664
 11
83.417277331
 21
-38.281776449
  0
LWPOLYLINE
  5
57A
100
AcDbEntity
  8
0
100
AcDbPolyline
 62
253
  6
CONTINUOUS
 90
3
 70
0
 10
83.3992050153
 20
-38.8852145561
 10
83.4020763575
 20
-38.7895836486
 10
83.4079923606
 20
-38.5922866664
  0
LWPOLYLINE
  5
57B
100
AcDbEntity
  8
0
100
AcDbPolyline
 62
253
  6
CONTINUOUS
 90
3
 70
0
 10
83.390947939
 20
-39.1596380845
 10
83.3936390225
 20
-39.0702741294
 10
83.3992050153
 20
-38.8852145561
  0
LWPOLYLINE
  5
57C
100
AcDbEntity
  8
0
100
AcDbPolyline
 62
253
  6
CONTINUOUS
 90
3
 70
0
 10
83.3832520236
 20
-39.4146941021
 10
83.3857527552
 20
-39.3318781936
 10
83.390947939
 20
-39.1596380845
  0
LINE
  5
57D
100
AcDbEntity
  8
0
100
AcDbLine
 62
253
  6
CONTINUOUS
 10
83.3761462597
 20
-39.649580664
 11
83.3832520236
 21
-39.4146941021
  0
LINE
  5
57E
100
AcDbEntity
  8
0
100
AcDbLine
 62
253
  6
CONTINUOUS
 10
83.3696575736
 20
-39.8635598119
 11
83.3761462597
 21
-39.649580664
  0
LINE
  5
57F
100
AcDbEntity
  8
0
100
AcDbLine
 62
253
  6
CONTINUOUS
 10
83.358628007
 20
-40.2261760489
 11
83.3696575736
 21
-39.8635598119
  0
LINE
  5
580
100
AcDbEntity
  8
0
100
AcDbLine
 62
253
  6
CONTINUOUS
 10
83.3541294596
 20
-40.373675057
 11
83.358628007
 21
-40.2261760489
  0
LINE
  5
581
100
AcDbEntity
  8
0
100
AcDbLine
 62
253
  6
CONTINUOUS
 10
83.3503324168
 20
-40.4979940926
 11
83.3541294596
 21
-40.373675057
  0
LINE
  5
582
100
AcDbEntity
  8
0
100
AcDbLine
 62
253
  6
CONTINUOUS
 10
83.3422874021
 20
-40.7608592138
 11
83.3503324168
 21
-40.4979940926
  0
LINE
  5
583
100
AcDbEntity
  8
0
100
AcDbLine
 62
253
  6
CONTINUOUS
 10
83.342245691
 20
-40.7622148997
 11
83.3422874021
 21
-40.7608592138
  0
LWPOLYLINE
  5
584
100
AcDbEntity
  8
0
100
AcDbPolyline
 62
253
  6
CONTINUOUS
 90
49
 70
0
 10
83.5457889863
 20
-33.8748188837
 10
83.67713443
 20
-32.4658775758
 10
83.8028851862
 20
-31.0565706967
 10
83.9230412548
 20
-29.646921705
 10
84.037603023
 20
-28.236944207
 10
84.1465701037
 20
-26.8266714495
 10
84.2499413352
 20
-25.4161563563
 10
84.3477146221
 20
-24.0054506124
 10
84.4398920597
 20
-22.5945493536
 10
84.5264787729
 20
-21.1834206319
 10
84.6074757281
 20
-19.7720772785
 10
84.6828819589
 20
-18.3605530449
 10
84.7526996905
 20
-16.9488472737
 10
84.8169290325
 20
-15.5369827864
 10
84.8755698755
 20
-14.1249832283
 10
84.9286241164
 20
-12.7128491295
 10
84.9760917542
 20
-11.3006106625
 10
85.01797279
 20
-9.8882840266
 10
85.0542691247
 20
-8.4758487465
 10
85.0849811728
 20
-7.0633194881
 10
85.1101085199
 20
-5.6507278677
 10
85.1296518236
 20
-4.2380788051
 10
85.1436111639
 20
-2.8254010567
 10
85.151986461
 20
-1.4127121129
 10
85.1547781328
 20
0.0000000182
 10
85.1519864578
 20
1.4127123136
 10
85.1436111576
 20
2.8254015675
 10
85.1296518154
 20
4.2380794976
 10
85.1101085124
 20
5.6507284557
 10
85.0849811674
 20
7.0633198431
 10
85.0542691201
 20
8.4758489397
 10
85.0179727838
 20
9.8882842214
 10
84.9760917452
 20
11.3006109299
 10
84.9286241046
 20
12.7128494631
 10
84.8755698596
 20
14.1249836178
 10
84.8169290127
 20
15.5369832255
 10
84.7526996707
 20
16.9488476904
 10
84.6828819484
 20
18.3605532796
 10
84.607475731
 20
19.7720772595
 10
84.5264787817
 20
21.183420485
 10
84.4398920576
 20
22.5945493534
 10
84.3477146016
 20
24.0054508843
 10
84.2499413052
 20
25.416156777
 10
84.1465700831
 20
26.8266717471
 10
84.0376030205
 20
28.2369442586
 10
83.9230412649
 20
29.6469215842
 10
83.8028851985
 20
31.0565705427
 10
83.677134439
 20
32.4658774621
 10
83.5457889863
 20
33.8748188837
  0
LINE
  5
585
100
AcDbEntity
  8
0
100
AcDbLine
 62
253
  6
CONTINUOUS
 10
83.5457889857
 20
33.8748188829
 11
83.7749199673
 21
33.8937978543
  0
LINE
  5
586
100
AcDbEntity
  8
0
100
AcDbLine
 62
253
  6
CONTINUOUS
 10
83.7749199673
 20
33.8937978543
 11
84.0026197876
 21
33.91164272
  0
LINE
  5
587
100
AcDbEntity
  8
0
100
AcDbLine
 62
253
  6
CONTINUOUS
 10
84.0026197876
 20
33.91164272
 11
84.2284831479
 21
33.9283217168
  0
LINE
  5
588
100
AcDbEntity
  8
0
100
AcDbLine
 62
253
  6
CONTINUOUS
 10
84.2284831479
 20
33.9283217168
 11
84.4521080185
 21
33.9438051567
  0
LINE
  5
589
100
AcDbEntity
  8
0
100
AcDbLine
 62
253
  6
CONTINUOUS
 10
84.4521080185
 20
33.9438051567
 11
84.6730963544
 21
33.9580654796
  0
LINE
  5
58A
100
AcDbEntity
  8
0
100
AcDbLine
 62
253
  6
CONTINUOUS
 10
84.6730963544
 20
33.9580654796
 11
84.8910548032
 21
33.9710773025
  0
LINE
  5
58B
100
AcDbEntity
  8
0
100
AcDbLine
 62
253
  6
CONTINUOUS
 10
84.8910548032
 20
33.9710773025
 11
85.1055954058
 21
33.9828174649
  0
LINE
  5
58C
100
AcDbEntity
  8
0
100
AcDbLine
 62
253
  6
CONTINUOUS
 10
85.1055954058
 20
33.9828174649
 11
85.3163362866
 21
33.9932650696
  0
LINE
  5
58D
100
AcDbEntity
  8
0
100
AcDbLine
 62
253
  6
CONTINUOUS
 10
85.3163362866
 20
33.9932650696
 11
85.5229023335
 21
34.0024015202
  0
LINE
  5
58E
100
AcDbEntity
  8
0
100
AcDbLine
 62
253
  6
CONTINUOUS
 10
85.5229023335
 20
34.0024015202
 11
85.7249258655
 21
34.0102105541
  0
LINE
  5
58F
100
AcDbEntity
  8
0
100
AcDbLine
 62
253
  6
CONTINUOUS
 10
85.7249258655
 20
34.0102105541
 11
85.9220472871
 21
34.0166782715
  0
LINE
  5
590
100
AcDbEntity
  8
0
100
AcDbLine
 62
253
  6
CONTINUOUS
 10
85.9220472871
 20
34.0166782715
 11
86.1139157283
 21
34.0217931601
  0
LINE
  5
591
100
AcDbEntity
  8
0
100
AcDbLine
 62
253
  6
CONTINUOUS
 10
86.1139157283
 20
34.0217931601
 11
86.3001896694
 21
34.0255461154
  0
LINE
  5
592
100
AcDbEntity
  8
0
100
AcDbLine
 62
253
  6
CONTINUOUS
 10
86.3001896694
 20
34.0255461154
 11
86.4805375486
 21
34.0279304574
  0
LWPOLYLINE
  5
593
100
AcDbEntity
  8
0
100
AcDbPolyline
 62
253
  6
CONTINUOUS
 90
41
 70
0
 10
86.4805375486
 20
34.0279304574
 10
86.6546383525
 20
34.0289419421
 10
86.7392488097
 20
34.0289322047
 10
86.822182187
 20
34.0285787689
 10
86.9034015756
 20
34.0278817921
 10
86.9828708294
 20
34.0268415844
 10
87.0605545814
 20
34.0254586087
 10
87.136418259
 20
34.0237334806
 10
87.2104280998
 20
34.0216669678
 10
87.2825511663
 20
34.01925999
 10
87.3527553607
 20
34.0165136183
 10
87.4210094392
 20
34.0134290751
 10
87.4872830259
 20
34.010007733
 10
87.5515466264
 20
34.0062511148
 10
87.6137716406
 20
34.0021608922
 10
87.6739303758
 20
33.9977388857
 10
87.7319960589
 20
33.9929870631
 10
87.7879428483
 20
33.9879075392
 10
87.8417458452
 20
33.9825025747
 10
87.8933811051
 20
33.9767745749
 10
87.9428256482
 20
33.9707260891
 10
87.9900574696
 20
33.9643598091
 10
88.0350555491
 20
33.9576785681
 10
88.0777998608
 20
33.9506853396
 10
88.1182713816
 20
33.9433832358
 10
88.1564521001
 20
33.9357755066
 10
88.1923250242
 20
33.9278655376
 10
88.2258741889
 20
33.9196568491
 10
88.2570846636
 20
33.9111530944
 10
88.2859425582
 20
33.9023580579
 10
88.3124350298
 20
33.8932756538
 10
88.3365502881
 20
33.8839099241
 10
88.3582776009
 20
33.8742650371
 10
88.3776072985
 20
33.864345285
 10
88.3945307785
 20
33.8541550826
 10
88.4090405092
 20
33.843698965
 10
88.4211300331
 20
33.8329815854
 10
88.43079397
 20
33.8220077138
 10
88.4380280189
 20
33.8107822337
 10
88.4428289605
 20
33.7993101412
 10
88.445194658
 20
33.7875965416
  0
LINE
  5
594
100
AcDbEntity
  8
0
100
AcDbLine
 62
253
  6
CONTINUOUS
 10
81.0798715848
 20
33.904109589
 11
83.5457889863
 21
33.8748188837
  0
LINE
  5
595
100
AcDbEntity
  8
0
100
AcDbLine
 62
7
  6
CONTINUOUS
 10
81.0798715848
 20
41.0
 11
83.342245691
 21
40.7622148997
  0
ARC
  5
596
100
AcDbEntity
  8
RACCORDO
100
AcDbCircle
 62
7
  6
CONTINUOUS
 10
238.5
 20
0.0
 40
300.0
100
AcDbArc
 50
181.4003411461
 51
186.4890714501
  0
ARC
  5
597
100
AcDbEntity
  8
RACCORDO
100
AcDbCircle
 62
7
  6
CONTINUOUS
 10
-238.5
 20
-0.0
 40
300.0
100
AcDbArc
 50
353.5109285499
 51
358.5996588539
  0
ARC
  5
598
100
AcDbEntity
  8
RACCORDO
100
AcDbCircle
 62
7
  6
CONTINUOUS
 10
-238.5
 20
-0.0
 40
300.0
100
AcDbArc
 50
1.4003411461
 51
6.4890714501
  0
ARC
  5
599
100
AcDbEntity
  8
RACCORDO
100
AcDbCircle
 62
7
  6
CONTINUOUS
 10
238.5
 20
0.0
 40
300.0
100
AcDbArc
 50
173.5109285499
 51
178.5996588539
  0
ARC
  5
59A
100
AcDbEntity
  8
0
100
AcDbCircle
 62
7
  6
CONTINUOUS
 10
-51.6292815281
 20
-33.0
 40
8.0
100
AcDbArc
 50
186.4890714501
 51
270.0
  0
ARC
  5
59B
100
AcDbEntity
  8
0
100
AcDbCircle
 62
7
  6
CONTINUOUS
 10
51.6292815281
 20
-33.0
 40
8.0
100
AcDbArc
 50
270.0
 51
353.5109285499
  0
ARC
  5
59C
100
AcDbEntity
  8
0
100
AcDbCircle
 62
7
  6
CONTINUOUS
 10
51.6292815281
 20
33.0
 40
8.0
100
AcDbArc
 50
6.4890714501
 51
90.0
  0
ARC
  5
59D
100
AcDbEntity
  8
0
100
AcDbCircle
 62
7
  6
CONTINUOUS
 10
-51.6292815281
 20
33.0
 40
8.0
100
AcDbArc
 50
90.0
 51
173.5109285499
  0
ARC
  5
59E
100
AcDbEntity
  8
0
100
AcDbCircle
 62
7
  6
CONTINUOUS
 10
-259.9201284152
 20
0.0
 40
350.0
100
AcDbArc
 50
354.1200110534
 51
5.8799889466
  0
ARC
  5
59F
100
AcDbEntity
  8
RACCORDO
100
AcDbCircle
 62
7
  6
CONTINUOUS
 10
-259.9201284152
 20
0.0
 40
350.0
100
AcDbArc
 50
354.7187438152
 51
5.2812561848
  0
ARC
  5
5A0
100
AcDbEntity
  8
RACCORDO
100
AcDbCircle
 62
7
  6
CONTINUOUS
 10
72.5798715848
 20
0.0
 40
11.0
100
AcDbArc
 50
322.3415379938
 51
37.6584620062
  0
ARC
  5
5A1
100
AcDbEntity
  8
0
100
AcDbCircle
 62
7
  6
CONTINUOUS
 10
82.767339143
 20
35.2923444752
 40
5.5
100
AcDbArc
 50
5.8799889466
 51
84.0
  0
ARC
  5
5A2
100
AcDbEntity
  8
0
100
AcDbCircle
 62
7
  6
CONTINUOUS
 10
82.767339143
 20
-35.2923444752
 40
5.5
100
AcDbArc
 50
276.0
 51
354.1200110534
  0
ARC
  5
5A3
100
AcDbEntity
  8
RACCORDO
100
AcDbCircle
 62
7
  6
CONTINUOUS
 10
82.0798715848
 20
-7.3314391493
 40
1.0
100
AcDbArc
 50
142.3415379938
 51
180.0
  0
ARC
  5
5A4
100
AcDbEntity
  8
RACCORDO
100
AcDbCircle
 62
7
  6
CONTINUOUS
 10
82.0798715848
 20
7.3314391493
 40
1.0
100
AcDbArc
 50
180.0
 51
217.6584620062
  0
ENDSEC
  0
SECTION
  2
OBJECTS
  0
DICTIONARY
  5
C
100
AcDbDictionary
280
0
281
1
  3
ACAD_GROUP
350
D
  3
ACAD_MLINESTYLE
350
17
  3
ACAD_LAYOUT
350
1A
  3
ACAD_PLOTSETTINGS
350
19
  3
ACAD_PLOTSTYLENAME
350
E
  0
DICTIONARY
  5
D
102
{ACAD_REACTORS
330
C
102
}
100
AcDbDictionary
280
0
281
1
  0
ACDBDICTIONARYWDFLT
  5
E
102
{ACAD_REACTORS
330
C
102
}
100
AcDbDictionary
281
1
  3
Normal
350
F
100
AcDbDictionaryWithDefault
340
F
  0
DICTIONARY
  5
17
102
{ACAD_REACTORS
330
C
102
}
100
AcDbDictionary
280
0
281
1
  3
Standard
350
18
  0
DICTIONARY
  5
19
102
{ACAD_REACTORS
330
C
102
}
100
AcDbDictionary
281
1
  0
DICTIONARY
  5
1A
102
{ACAD_REACTORS
330
C
102
}
100
AcDbDictionary
281
1
  3
Model
350
5A5
  3
Layout1
350
5A6
  0
ACDBPLACEHOLDER
  5
F
102
{ACAD_REACTORS
330
E
102
}
  0
MLINESTYLE
  5
18
102
{ACAD_REACTORS
330
17
102
}
100
AcDbMlineStyle
  2
STANDARD
 70
0
  3

 62
256
 51
90.0
 52
90.0
 71
2
 49
0.5
 62
256
  6
BYLAYER
 49
-0.5
 62
256
  6
BYLAYER
  0
LAYOUT
  5
5A5
102
{ACAD_REACTORS
330
1A
102
}
100
AcDbPlotSettings
  1

  2
none_device
  4
ISO_A4_(297.00_x_210.00_MM)
  6

 40
0.0
 41
0.0
 42
0.0
 43
0.0
 44
297.0
 45
210.0
 46
0.0
 47
0.0
 48
0.0
 49
0.0
140
0.0
141
0.0
142
1.0
143
1.0
 70
1024
 72
1
 73
0
 74
0
  7

 75
0
147
1.0
148
0.0
149
0.0
100
AcDbLayout
  1
Model
 70
0
 71
0
 10
0.0
 20
0.0
 11
297.0
 21
210.0
 12
0.0
 22
0.0
 32
0.0
 14
0.0
 24
0.0
 34
0.0
 15
0.0
 25
0.0
 35
0.0
146
0.0
 13
0.0
 23
0.0
 33
0.0
 16
1.0
 26
0.0
 36
0.0
 17
0.0
 27
1.0
 37
0.0
 76
0
330
216
345
0
346
0
  0
LAYOUT
  5
5A6
102
{ACAD_REACTORS
330
1A
102
}
100
AcDbPlotSettings
  1

  2
none_device
  4
ISO_A4_(297.00_x_210.00_MM)
  6

 40
0.0
 41
0.0
 42
0.0
 43
0.0
 44
297.0
 45
210.0
 46
0.0
 47
0.0
 48
0.0
 49
0.0
140
0.0
141
0.0
142
1.0
143
1.0
 70
0
 72
1
 73
0
 74
0
  7

 75
0
147
1.0
148
0.0
149
0.0
100
AcDbLayout
  1
Layout1
 70
0
 71
1
 10
0.0
 20
0.0
 11
297.0
 21
210.0
 12
0.0
 22
0.0
 32
0.0
 14
0.0
 24
0.0
 34
0.0
 15
0.0
 25
0.0
 35
0.0
146
0.0
 13
0.0
 23
0.0
 33
0.0
 16
1.0
 26
0.0
 36
0.0
 17
0.0
 27
1.0
 37
0.0
 76
0
330
217
345
0
346
0
  0
ENDSEC
  0
EOF
