  0
SECTION
  2
HEADER
  9
$ACADVER
  1
AC1024
  9
$DWGCODEPAGE
  3
ANSI_1252
  9
$EXTMAX
 10
297.0
 20
210.0
 30
0.0
  9
$EXTMIN
 10
0.0
 20
0.0
 30
0.0
  9
$LIMMIN
 10
0.0
 20
0.0
  9
$LIMMAX
 10
297.0
 20
210.0
  9
$VIEWCTR
 10
148.5
 20
105.0
  9
$VIEWSIZE
 40
210.0
  9
$CLAYER
  8
0
  9
$LTSCALE
 40
16.335
  9
$CELTYPE
  6
BYLAYER
  9
$DIMSCALE
 40
1.0
  9
$DIMASZ
 40
3.0
  9
$DIMEXO
 40
0.5
  9
$DIMDLI
 40
11.286
  9
$DIMEXE
 40
1.5
  9
$DIMCEN
 40
2.673
  9
$DIMLFAC
 40
1.0
  9
$DIMBLK
  1
_FILLED
  9
$DIMALT
 70
0
  9
$DIMALTF
 40
0.0393700787
  9
$DIMTXT
 40
3.0
  9
$DIMTOL
 70
1
  9
$DIMLIM
 70
0
  9
$DIMTFAC
 40
1.0
  9
$DIMTP
 40
0.01
  9
$DIMTM
 40
0.01
  9
$DIMGAP
 40
0.625
  9
$DIMDSEP
 70
44
  9
$AUNITS
 70
0
  9
$PDMODE
 70
3
  9
$PDSIZE
 40
3.0
  9
$HANDSEED
  5
5D5
  9
$TILEMODE
 70
1
  9
$MEASUREMENT
 70
1
  9
$INSUNITS
 70
4
  0
ENDSEC
  0
SECTION
  2
CLASSES
  0
CLASS
  1
ACDBDICTIONARYWDFLT
  2
AcDbDictionaryWithDefault
  3
AutoCAD 2000
 90
0
 91
1
280
0
281
0
  0
CLASS
  1
ACDBPLACEHOLDER
  2
AcDbPlaceHolder
  3
AutoCAD 2000
 90
0
 91
1
280
0
281
0
  0
CLASS
  1
LAYOUT
  2
AcDbLayout
  3
AutoCAD 2000
 90
0
 91
0
280
0
281
0
  0
ENDSEC
  0
SECTION
  2
TABLES
  0
TABLE
  2
VPORT
  5
8
100
AcDbSymbolTable
 70
2
  0
VPORT
  5
1F4
100
AcDbSymbolTableRecord
100
AcDbViewportTableRecord
  2
*ACTIVE
 70
0
 10
0.0
 20
0.0
 11
1.0
 21
1.0
 12
148.5
 22
105.0
 13
0.0
 23
0.0
 14
1.0
 24
1.0
 15
0.0
 25
0.0
 16
0.0
 26
0.0
 36
1.0
 17
0.0
 27
0.0
 37
0.0
 40
210.0
 41
1.4142857143
 42
50.0
 43
0.0
 44
0.0
 50
0.0
 51
0.0
 71
0
 72
100
 73
1
 74
1
 75
0
 76
0
 77
0
 78
0
  0
ENDTAB
  0
TABLE
  2
LTYPE
  5
5
100
AcDbSymbolTable
 70
6
  0
LTYPE
  5
14
100
AcDbSymbolTableRecord
100
AcDbLinetypeTableRecord
  2
BYBLOCK
 70
0
  3

 72
65
 73
0
 40
0.0
  0
LTYPE
  5
15
100
AcDbSymbolTableRecord
100
AcDbLinetypeTableRecord
  2
BYLAYER
 70
0
  3

 72
65
 73
0
 40
0.0
  0
LTYPE
  5
16
100
AcDbSymbolTableRecord
100
AcDbLinetypeTableRecord
  2
CONTINUOUS
 70
64
  3
Solid line
 72
65
 73
0
 40
0.0
  0
LTYPE
  5
1F5
100
AcDbSymbolTableRecord
100
AcDbLinetypeTableRecord
  2
CENTER
 70
64
  3
____ _ ____ _ ____ _ ____ _ ____ _ ____ _ ____
 72
65
 73
4
 40
0.6
 49
0.375
 74
0
 49
-0.075
 74
0
 49
0.075
 74
0
 49
-0.075
 74
0
  0
LTYPE
  5
1F6
100
AcDbSymbolTableRecord
100
AcDbLinetypeTableRecord
  2
HIDDEN
 70
64
  3
- - - - - - - - - - - - - - - - - - - -
 72
65
 73
2
 40
0.2
 49
0.1
 74
0
 49
-0.1
 74
0
  0
LTYPE
  5
1F7
100
AcDbSymbolTableRecord
100
AcDbLinetypeTableRecord
  2
PHANTOM
 70
64
  3
_____ _ _ _____ _ _ _____ _ _ _____
 72
65
 73
6
 40
0.8
 49
0.45
 74
0
 49
-0.05
 74
0
 49
0.1
 74
0
 49
-0.05
 74
0
 49
0.1
 74
0
 49
-0.05
 74
0
  0
LTYPE
  5
1F8
100
AcDbSymbolTableRecord
100
AcDbLinetypeTableRecord
  2
DOT
 70
64
  3
. . . . . . . . . . . . . . . . . . . .
 72
65
 73
2
 40
0.2
 49
0.1
 74
0
 49
-0.1
 74
0
  0
LTYPE
  5
1F9
100
AcDbSymbolTableRecord
100
AcDbLinetypeTableRecord
  2
DASHED
 70
64
  3
- - - - - - - - - - - - - - - - - - - -
 72
65
 73
2
 40
0.2
 49
0.1
 74
0
 49
-0.1
 74
0
  0
ENDTAB
  0
TABLE
  2
LAYER
  5
2
100
AcDbSymbolTable
 70
36
  0
LAYER
  5
10
100
AcDbSymbolTableRecord
100
AcDbLayerTableRecord
  2
0
 70
0
 62
7
  6
CONTINUOUS
370
-3
390
F
  0
LAYER
  5
1FA
100
AcDbSymbolTableRecord
100
AcDbLayerTableRecord
  2
DEFAULT_1
 70
0
 62
7
  6
CENTER
370
-3
390
F
  0
LAYER
  5
1FB
100
AcDbSymbolTableRecord
100
AcDbLayerTableRecord
  2
DEFAULT_2
 70
0
 62
7
  6
HIDDEN
370
-3
390
F
  0
LAYER
  5
1FC
100
AcDbSymbolTableRecord
100
AcDbLayerTableRecord
  2
DEFAULT_3
 70
0
 62
7
  6
PHANTOM
370
-3
390
F
  0
LAYER
  5
1FD
100
AcDbSymbolTableRecord
100
AcDbLayerTableRecord
  2
26216763_GEN
 70
0
 62
7
  6
CONTINUOUS
370
-3
390
F
  0
LAYER
  5
1FE
100
AcDbSymbolTableRecord
100
AcDbLayerTableRecord
  2
ASSI
 70
0
 62
7
  6
CONTINUOUS
370
-3
390
F
  0
LAYER
  5
1FF
100
AcDbSymbolTableRecord
100
AcDbLayerTableRecord
  2
COORDINATE
 70
0
 62
7
  6
CONTINUOUS
370
-3
390
F
  0
LAYER
  5
200
100
AcDbSymbolTableRecord
100
AcDbLayerTableRecord
  2
COORD_ORIGINE
 70
0
 62
7
  6
CONTINUOUS
370
-3
390
F
  0
LAYER
  5
201
100
AcDbSymbolTableRecord
100
AcDbLayerTableRecord
  2
COSMETICI
 70
0
 62
7
  6
CONTINUOUS
370
-3
390
F
  0
LAYER
  5
202
100
AcDbSymbolTableRecord
100
AcDbLayerTableRecord
  2
CURVE
 70
0
 62
7
  6
CONTINUOUS
370
-3
390
F
  0
LAYER
  5
203
100
AcDbSymbolTableRecord
100
AcDbLayerTableRecord
  2
DRAFT
 70
0
 62
7
  6
CONTINUOUS
370
-3
390
F
  0
LAYER
  5
204
100
AcDbSymbolTableRecord
100
AcDbLayerTableRecord
  2
IGES_SCRITTE
 70
0
 62
7
  6
CONTINUOUS
370
-3
390
F
  0
LAYER
  5
205
100
AcDbSymbolTableRecord
100
AcDbLayerTableRecord
  2
IMPORT_FEATURE
 70
0
 62
7
  6
CONTINUOUS
370
-3
390
F
  0
LAYER
  5
206
100
AcDbSymbolTableRecord
100
AcDbLayerTableRecord
  2
INTF_1
 70
0
 62
7
  6
CONTINUOUS
370
-3
390
F
  0
LAYER
  5
207
100
AcDbSymbolTableRecord
100
AcDbLayerTableRecord
  2
LAY0001
 70
0
 62
7
  6
CONTINUOUS
370
-3
390
F
  0
LAYER
  5
208
100
AcDbSymbolTableRecord
100
AcDbLayerTableRecord
  2
NOTE
 70
0
 62
7
  6
CONTINUOUS
370
-3
390
F
  0
LAYER
  5
209
100
AcDbSymbolTableRecord
100
AcDbLayerTableRecord
  2
PIANI
 70
0
 62
7
  6
CONTINUOUS
370
-3
390
F
  0
LAYER
  5
20A
100
AcDbSymbolTableRecord
100
AcDbLayerTableRecord
  2
PIANI_DI_RIFERIMENTO
 70
0
 62
7
  6
CONTINUOUS
370
-3
390
F
  0
LAYER
  5
20B
100
AcDbSymbolTableRecord
100
AcDbLayerTableRecord
  2
PIANI_ORIGINE
 70
0
 62
7
  6
CONTINUOUS
370
-3
390
F
  0
LAYER
  5
20C
100
AcDbSymbolTableRecord
100
AcDbLayerTableRecord
  2
PUNTI
 70
0
 62
7
  6
CONTINUOUS
370
-3
390
F
  0
LAYER
  5
20D
100
AcDbSymbolTableRecord
100
AcDbLayerTableRecord
  2
RACCORDO
 70
0
 62
7
  6
CONTINUOUS
370
-3
390
F
  0
LAYER
  5
20E
100
AcDbSymbolTableRecord
100
AcDbLayerTableRecord
  2
RGB____0____0____0__
 70
0
 62
7
  6
CONTINUOUS
370
-3
390
F
  0
LAYER
  5
20F
100
AcDbSymbolTableRecord
100
AcDbLayerTableRecord
  2
SIMBOLI
 70
0
 62
7
  6
CONTINUOUS
370
-3
390
F
  0
LAYER
  5
210
100
AcDbSymbolTableRecord
100
AcDbLayerTableRecord
  2
SNAPLINE
 70
0
 62
7
  6
CONTINUOUS
370
-3
390
F
  0
LAYER
  5
211
100
AcDbSymbolTableRecord
100
AcDbLayerTableRecord
  2
SUPERFICI
 70
0
 62
7
  6
CONTINUOUS
370
-3
390
F
  0
LAYER
  5
212
100
AcDbSymbolTableRecord
100
AcDbLayerTableRecord
  2
TRASH
 70
0
 62
7
  6
CONTINUOUS
370
-3
390
F
  0
LAYER
  5
213
100
AcDbSymbolTableRecord
100
AcDbLayerTableRecord
  2
XSEC_DATUMS
 70
0
 62
7
  6
CONTINUOUS
370
-3
390
F
  0
ENDTAB
  0
TABLE
  2
STYLE
  5
3
100
AcDbSymbolTable
 70
1
  0
STYLE
  5
11
100
AcDbSymbolTableRecord
100
AcDbTextStyleTableRecord
  2
STANDARD
 70
0
 40
0.0
 41
0.8
 50
0.0
 71
0
 42
0.2
  3
txt
  4

  0
STYLE
  5
214
100
AcDbSymbolTableRecord
100
AcDbTextStyleTableRecord
  2
TEXTSTYLE_1
 70
0
 40
0.0
 41
0.8
 50
0.0
 71
0
 42
0.2
  3
gdt
  4

  0
ENDTAB
  0
TABLE
  2
VIEW
  5
6
100
AcDbSymbolTable
 70
0
  0
ENDTAB
  0
TABLE
  2
UCS
  5
7
100
AcDbSymbolTable
 70
0
  0
ENDTAB
  0
TABLE
  2
APPID
  5
9
100
AcDbSymbolTable
 70
1
  0
APPID
  5
215
100
AcDbSymbolTableRecord
100
AcDbRegAppTableRecord
  2
ACAD
 70
0
  0
ENDTAB
  0
TABLE
  2
BLOCK_RECORD
  5
1
100
AcDbSymbolTable
 70
0
  0
BLOCK_RECORD
  5
216
100
AcDbSymbolTableRecord
100
AcDbBlockTableRecord
  2
*Model_Space
  0
BLOCK_RECORD
  5
217
100
AcDbSymbolTableRecord
100
AcDbBlockTableRecord
  2
*Paper_Space
  0
BLOCK_RECORD
  5
218
100
AcDbSymbolTableRecord
100
AcDbBlockTableRecord
  2
_FILLED
  0
BLOCK_RECORD
  5
219
100
AcDbSymbolTableRecord
100
AcDbBlockTableRecord
  2
*D0
  0
BLOCK_RECORD
  5
21A
100
AcDbSymbolTableRecord
100
AcDbBlockTableRecord
  2
*D1
  0
BLOCK_RECORD
  5
21B
100
AcDbSymbolTableRecord
100
AcDbBlockTableRecord
  2
*D2
  0
ENDTAB
  0
TABLE
  2
DIMSTYLE
  5
A
100
AcDbSymbolTable
 70
1
100
AcDbDimStyleTable
 71
0
  0
DIMSTYLE
105
21C
100
AcDbSymbolTableRecord
100
AcDbDimStyleTableRecord
  2
STANDARD
 70
0
  3

  4

 40
1.0
 41
3.0
 42
0.5
 43
0.38
 44
1.5
 45
0.0
 46
0.0
 47
0.01
 48
0.01
140
3.0
141
0.09
142
0.0
143
25.4
144
1.0
145
0.0
146
1.0
147
0.625
 71
1
 72
0
 73
0
 74
0
 75
0
 76
0
 77
1
 78
8
 79
2
170
0
171
1
172
0
173
0
174
0
175
0
176
0
177
0
178
0
270
2
179
2
271
2
272
2
273
2
274
2
275
0
280
0
281
0
282
0
283
1
284
8
285
0
286
0
287
3
288
0
340
11
278
44
341
218
342
218
343
218
344
218
  0
DIMSTYLE
105
21D
100
AcDbSymbolTableRecord
100
AcDbDimStyleTableRecord
  2
DIMSTYLE_1
 70
0
  3

  4

 40
1.0
 41
3.0
 42
0.5
 43
0.38
 44
1.5
 45
0.0
 46
0.0
 47
0.0
 48
0.0
140
3.0
141
0.09
142
0.0
143
25.4
144
1.0
145
0.0
146
1.0
147
0.75
 71
0
 72
0
 73
0
 74
0
 75
0
 76
0
 77
1
 78
8
 79
2
170
0
171
1
172
0
173
0
174
0
175
0
176
0
177
0
178
0
270
2
179
2
271
2
272
2
273
2
274
2
275
0
280
0
281
0
282
0
283
1
284
8
285
0
286
0
287
3
288
0
340
11
278
44
341
218
342
218
343
218
344
218
  0
ENDTAB
  0
ENDSEC
  0
SECTION
  2
BLOCKS
  0
BLOCK
  5
20
100
AcDbEntity
  8
0
100
AcDbBlockBegin
  2
*Model_Space
 70
0
 10
0.0
 20
0.0
 30
0.0
  3
*Model_Space
  1

  0
ENDBLK
  5
21
100
AcDbEntity
  8
0
100
AcDbBlockEnd
  0
BLOCK
  5
1C
100
AcDbEntity
  8
0
100
AcDbBlockBegin
  2
*Paper_Space
 70
0
 10
0.0
 20
0.0
 30
0.0
  3
*Paper_Space
  1

  0
ENDBLK
  5
1D
100
AcDbEntity
  8
0
100
AcDbBlockEnd
  0
BLOCK
  5
21E
100
AcDbEntity
  8
0
100
AcDbBlockBegin
  2
_FILLED
 70
64
 10
0.0
 20
0.0
  3
_FILLED
  1

  0
SOLID
  5
21F
100
AcDbEntity
  8
0
  6
BYBLOCK
 62
0
100
AcDbTrace
 10
0.0
 20
0.0
 11
-1.0
 21
0.3166666667
 12
-1.0
 22
-0.3166666667
 13
-1.0
 23
-0.3166666667
  0
ENDBLK
  5
220
100
AcDbEntity
  8
0
  6
BYBLOCK
 62
0
100
AcDbBlockEnd
  0
BLOCK
  5
221
100
AcDbEntity
  8
0
100
AcDbBlockBegin
 62
7
  6
CONTINUOUS
  2
*D0
 70
65
 10
0.0
 20
0.0
  3
*D0
  1

  0
LINE
  5
222
100
AcDbEntity
  8
0
100
AcDbLine
 62
7
  6
CONTINUOUS
 10
74.0
 20
0.5
 11
74.0
 21
50.5
  0
LINE
  5
223
100
AcDbEntity
  8
0
100
AcDbLine
 62
7
  6
CONTINUOUS
 10
-74.0
 20
0.5
 11
-74.0
 21
50.5
  0
LINE
  5
224
100
AcDbEntity
  8
0
100
AcDbLine
 62
7
  6
CONTINUOUS
 10
74.0
 20
49.0
 11
-0.0
 21
49.0
  0
LINE
  5
225
100
AcDbEntity
  8
0
100
AcDbLine
 62
7
  6
CONTINUOUS
 10
-74.0
 20
49.0
 11
-0.0
 21
49.0
  0
INSERT
  5
226
100
AcDbEntity
  8
0
100
AcDbBlockReference
 62
7
  6
CONTINUOUS
  2
_FILLED
 10
74.0
 20
49.0
 41
3.0
 42
3.0
 43
3.0
  0
INSERT
  5
227
100
AcDbEntity
  8
0
100
AcDbBlockReference
 62
7
  6
CONTINUOUS
  2
_FILLED
 10
-74.0
 20
49.0
 41
3.0
 42
3.0
 43
3.0
 50
180.0
  0
ENDBLK
  5
228
100
AcDbEntity
  8
0
  6
BYBLOCK
 62
0
100
AcDbBlockEnd
  0
BLOCK
  5
229
100
AcDbEntity
  8
0
100
AcDbBlockBegin
 62
7
  6
CONTINUOUS
  2
*D1
 70
65
 10
0.0
 20
0.0
  3
*D1
  1

  0
LINE
  5
22A
100
AcDbEntity
  8
0
100
AcDbLine
 62
7
  6
CONTINUOUS
 10
-92.7466769374
 20
34.404109589
 11
-92.7466769374
 21
50.5
  0
LINE
  5
22B
100
AcDbEntity
  8
0
100
AcDbLine
 62
7
  6
CONTINUOUS
 10
-101.7466769374
 20
0.5
 11
-101.7466769374
 21
50.5
  0
LINE
  5
22C
100
AcDbEntity
  8
0
100
AcDbLine
 62
7
  6
CONTINUOUS
 10
-92.7466769374
 20
49.0
 11
-88.7466769374
 21
49.0
  0
LINE
  5
22D
100
AcDbEntity
  8
0
100
AcDbLine
 62
7
  6
CONTINUOUS
 10
-88.7466769374
 20
49.0
 11
-97.2466769374
 21
49.0
  0
LINE
  5
22E
100
AcDbEntity
  8
0
100
AcDbLine
 62
7
  6
CONTINUOUS
 10
-101.7466769374
 20
49.0
 11
-105.7466769374
 21
49.0
  0
LINE
  5
22F
100
AcDbEntity
  8
0
100
AcDbLine
 62
7
  6
CONTINUOUS
 10
-105.7466769374
 20
49.0
 11
-97.2466769374
 21
49.0
  0
INSERT
  5
230
100
AcDbEntity
  8
0
100
AcDbBlockReference
 62
7
  6
CONTINUOUS
  2
_FILLED
 10
-92.7466769374
 20
49.0
 41
3.0
 42
3.0
 43
3.0
 50
180.0
  0
INSERT
  5
231
100
AcDbEntity
  8
0
100
AcDbBlockReference
 62
7
  6
CONTINUOUS
  2
_FILLED
 10
-101.7466769374
 20
49.0
 41
3.0
 42
3.0
 43
3.0
  0
ENDBLK
  5
232
100
AcDbEntity
  8
0
  6
BYBLOCK
 62
0
100
AcDbBlockEnd
  0
BLOCK
  5
233
100
AcDbEntity
  8
0
100
AcDbBlockBegin
 62
7
  6
CONTINUOUS
  2
*D2
 70
65
 10
0.0
 20
0.0
  3
*D2
  1

  0
LINE
  5
234
100
AcDbEntity
  8
0
100
AcDbLine
 62
7
  6
CONTINUOUS
 10
-93.2466769374
 20
41.0
 11
-111.2466769374
 21
41.0
  0
LINE
  5
235
100
AcDbEntity
  8
0
100
AcDbLine
 62
7
  6
CONTINUOUS
 10
-93.2466769374
 20
-41.0
 11
-111.2466769374
 21
-41.0
  0
LINE
  5
236
100
AcDbEntity
  8
0
100
AcDbLine
 62
7
  6
CONTINUOUS
 10
-109.7466769374
 20
41.0
 11
-109.7466769374
 21
0.0
  0
LINE
  5
237
100
AcDbEntity
  8
0
100
AcDbLine
 62
7
  6
CONTINUOUS
 10
-109.7466769374
 20
-41.0
 11
-109.7466769374
 21
0.0
  0
INSERT
  5
238
100
AcDbEntity
  8
0
100
AcDbBlockReference
 62
7
  6
CONTINUOUS
  2
_FILLED
 10
-109.7466769374
 20
41.0
 41
3.0
 42
3.0
 43
3.0
 50
90.0
  0
INSERT
  5
239
100
AcDbEntity
  8
0
100
AcDbBlockReference
 62
7
  6
CONTINUOUS
  2
_FILLED
 10
-109.7466769374
 20
-41.0
 41
3.0
 42
3.0
 43
3.0
 50
270.0
  0
ENDBLK
  5
23A
100
AcDbEntity
  8
0
  6
BYBLOCK
 62
0
100
AcDbBlockEnd
  0
ENDSEC
  0
SECTION
  2
ENTITIES
  0
DIMENSION
  5
23B
100
AcDbEntity
  8
0
100
AcDbDimension
 62
7
  6
CONTINUOUS
  2
*D0
 10
-74.0
 20
49.0
 11
-3.2142857143
 21
49.0
 70
160
 71
2
 72
2
 41
0.9
 42
148.0
  3
DIMSTYLE_1
100
AcDbAlignedDimension
 13
74.0
 23
0.0
 14
-74.0
 24
0.0
 50
180.0
100
AcDbRotatedDimension
  0
DIMENSION
  5
23C
100
AcDbEntity
  8
0
100
AcDbDimension
 62
7
  6
CONTINUOUS
  2
*D1
 10
-101.7466769374
 20
49.0
 11
-98.425248366
 21
49.0
 70
160
 71
2
 72
2
 41
0.9
 42
9.0
  3
DIMSTYLE_1
100
AcDbAlignedDimension
 13
-92.7466769374
 23
33.904109589
 14
-101.7466769374
 24
0.0
 50
180.0
100
AcDbRotatedDimension
  0
DIMENSION
  5
23D
100
AcDbEntity
  8
0
100
AcDbDimension
 62
7
  6
CONTINUOUS
  2
*D2
 10
-109.7466769374
 20
-41.0
 11
-109.7466769374
 21
-2.3571428571
 70
160
 71
2
 72
2
 41
0.9
 42
82.0
  3
DIMSTYLE_1
100
AcDbAlignedDimension
 13
-92.7466769374
 23
41.0
 14
-92.7466769374
 24
-41.0
 50
270.0
100
AcDbRotatedDimension
  0
LWPOLYLINE
  5
23E
100
AcDbEntity
  8
0
100
AcDbPolyline
 62
250
  6
CONTINUOUS
 90
49
 70
0
 10
-71.8205110488
 20
-33.8748188837
 10
-71.9635066884
 20
-32.4658775758
 10
-72.1004045114
 20
-31.0565706967
 10
-72.2312053222
 20
-29.646921705
 10
-72.3559108875
 20
-28.236944207
 10
-72.4745211731
 20
-26.8266714495
 10
-72.587034809
 20
-25.4161563563
 10
-72.6934512548
 20
-24.0054506124
 10
-72.7937744107
 20
-22.5945493536
 10
-72.888009311
 20
-21.1834206318
 10
-72.9761574878
 20
-19.7720772785
 10
-73.0582192638
 20
-18.3605530448
 10
-73.134196844
 20
-16.9488472737
 10
-73.2040910538
 20
-15.5369827864
 10
-73.2679027651
 20
-14.1249832282
 10
-73.3256336979
 20
-12.7128491294
 10
-73.3772842947
 20
-11.3006106625
 10
-73.4228556608
 20
-9.8882840266
 10
-73.4623496779
 20
-8.4758487464
 10
-73.4957668012
 20
-7.063319488
 10
-73.5231071631
 20
-5.6507278676
 10
-73.5443713912
 20
-4.2380788049
 10
-73.559559675
 20
-2.8254010565
 10
-73.5686724501
 20
-1.4127121128
 10
-73.5717100635
 20
0.0000000183
 10
-73.5686724495
 20
1.4127123137
 10
-73.5595596709
 20
2.8254015676
 10
-73.5443713823
 20
4.2380794977
 10
-73.5231071528
 20
5.6507284558
 10
-73.4957667934
 20
7.0633198432
 10
-73.4623496729
 20
8.4758489398
 10
-73.422855655
 20
9.8882842215
 10
-73.3772842856
 20
11.30061093
 10
-73.325633685
 20
12.7128494631
 10
-73.2679027484
 20
14.1249836179
 10
-73.2040910331
 20
15.5369832256
 10
-73.1341968225
 20
16.9488476904
 10
-73.0582192505
 20
18.3605532796
 10
-72.9761574887
 20
19.7720772596
 10
-72.8880093205
 20
21.183420485
 10
-72.793774411
 20
22.5945493534
 10
-72.6934512351
 20
24.0054508843
 10
-72.5870347764
 20
25.416156777
 10
-72.4745211485
 20
26.8266717472
 10
-72.3559108829
 20
28.2369442586
 10
-72.2312053332
 20
29.6469215842
 10
-72.1004045261
 20
31.0565705427
 10
-71.9635066999
 20
32.4658774621
 10
-71.8205110488
 20
33.8748188837
  0
LINE
  5
23F
100
AcDbEntity
  8
RACCORDO
100
AcDbLine
 62
7
  6
CONTINUOUS
 10
-73.9040512891
 20
6.7423995891
 11
-73.8866431633
 21
6.4343270543
  0
LINE
  5
240
100
AcDbEntity
  8
RACCORDO
100
AcDbLine
 62
7
  6
CONTINUOUS
 10
-73.8866431633
 20
6.4343270543
 11
-73.8713293786
 21
6.1414529208
  0
LINE
  5
241
100
AcDbEntity
  8
RACCORDO
100
AcDbLine
 62
7
  6
CONTINUOUS
 10
-73.9062959332
 20
6.7875519528
 11
-73.9040512891
 21
6.7423995891
  0
LINE
  5
242
100
AcDbEntity
  8
RACCORDO
100
AcDbLine
 62
7
  6
CONTINUOUS
 10
-73.8713293786
 20
6.1414529208
 11
-73.8568696231
 21
5.842154067
  0
LINE
  5
243
100
AcDbEntity
  8
RACCORDO
100
AcDbLine
 62
7
  6
CONTINUOUS
 10
-73.8568696231
 20
5.842154067
 11
-73.8432545896
 21
5.5366487443
  0
LINE
  5
244
100
AcDbEntity
  8
RACCORDO
100
AcDbLine
 62
7
  6
CONTINUOUS
 10
-73.8432545896
 20
5.5366487443
 11
-73.8304829501
 21
5.2253316348
  0
LINE
  5
245
100
AcDbEntity
  8
RACCORDO
100
AcDbLine
 62
7
  6
CONTINUOUS
 10
-73.9082345888
 20
6.8343740415
 11
-73.9062959332
 21
6.7875519528
  0
LINE
  5
246
100
AcDbEntity
  8
RACCORDO
100
AcDbLine
 62
7
  6
CONTINUOUS
 10
-73.8304829501
 20
5.2253316348
 11
-73.8185517222
 21
4.9085354949
  0
LINE
  5
247
100
AcDbEntity
  8
RACCORDO
100
AcDbLine
 62
7
  6
CONTINUOUS
 10
-73.8185517222
 20
4.9085354949
 11
-73.8074540684
 21
4.586547584
  0
LINE
  5
248
100
AcDbEntity
  8
RACCORDO
100
AcDbLine
 62
7
  6
CONTINUOUS
 10
-73.9098553374
 20
6.8826285071
 11
-73.9082345888
 21
6.8343740415
  0
LINE
  5
249
100
AcDbEntity
  8
RACCORDO
100
AcDbLine
 62
7
  6
CONTINUOUS
 10
-73.8074540684
 20
4.586547584
 11
-73.7971851176
 21
4.2597040982
  0
LINE
  5
24A
100
AcDbEntity
  8
RACCORDO
100
AcDbLine
 62
7
  6
CONTINUOUS
 10
-73.7971851176
 20
4.2597040982
 11
-73.7877418307
 21
3.9283567663
  0
LINE
  5
24B
100
AcDbEntity
  8
RACCORDO
100
AcDbLine
 62
7
  6
CONTINUOUS
 10
-73.7877418307
 20
3.9283567663
 11
-73.7791206204
 21
3.5929064179
  0
LINE
  5
24C
100
AcDbEntity
  8
RACCORDO
100
AcDbLine
 62
7
  6
CONTINUOUS
 10
-73.911154195
 20
6.9321692213
 11
-73.9098553374
 21
6.8826285071
  0
LINE
  5
24D
100
AcDbEntity
  8
RACCORDO
100
AcDbLine
 62
7
  6
CONTINUOUS
 10
-73.7791206204
 20
3.5929064179
 11
-73.771314884
 21
3.2536259527
  0
LINE
  5
24E
100
AcDbEntity
  8
RACCORDO
100
AcDbLine
 62
7
  6
CONTINUOUS
 10
-73.9115787723
 20
-7.2767292057
 11
-73.9104032874
 21
-7.3314391493
  0
LINE
  5
24F
100
AcDbEntity
  8
RACCORDO
100
AcDbLine
 62
7
  6
CONTINUOUS
 10
-73.771314884
 20
3.2536259527
 11
-73.7643216389
 21
2.9108734488
  0
LINE
  5
250
100
AcDbEntity
  8
RACCORDO
100
AcDbLine
 62
7
  6
CONTINUOUS
 10
-73.9121294932
 20
6.9829711394
 11
-73.911154195
 21
6.9321692213
  0
LINE
  5
251
100
AcDbEntity
  8
RACCORDO
100
AcDbLine
 62
7
  6
CONTINUOUS
 10
-73.7643216389
 20
2.9108734488
 11
-73.758138489
 21
2.5651031813
  0
LINE
  5
252
100
AcDbEntity
  8
RACCORDO
100
AcDbLine
 62
7
  6
CONTINUOUS
 10
-73.758138489
 20
2.5651031813
 11
-73.7527602508
 21
2.2166019921
  0
LINE
  5
253
100
AcDbEntity
  8
RACCORDO
100
AcDbLine
 62
7
  6
CONTINUOUS
 10
-73.9124250337
 20
-7.2221385244
 11
-73.9115787723
 21
-7.2767292057
  0
LINE
  5
254
100
AcDbEntity
  8
RACCORDO
100
AcDbLine
 62
7
  6
CONTINUOUS
 10
-73.7527602508
 20
2.2166019921
 11
-73.7481844754
 21
1.8657296029
  0
LINE
  5
255
100
AcDbEntity
  8
RACCORDO
100
AcDbLine
 62
7
  6
CONTINUOUS
 10
-73.9127758874
 20
7.0348250102
 11
-73.9121294932
 21
6.9829711394
  0
LINE
  5
256
100
AcDbEntity
  8
RACCORDO
100
AcDbLine
 62
7
  6
CONTINUOUS
 10
-73.7481844754
 20
1.8657296029
 11
-73.744408603
 21
1.5128964652
  0
LINE
  5
257
100
AcDbEntity
  8
RACCORDO
100
AcDbLine
 62
7
  6
CONTINUOUS
 10
-73.9129412979
 20
-7.1678569344
 11
-73.9124250337
 21
-7.2221385244
  0
LINE
  5
258
100
AcDbEntity
  8
RACCORDO
100
AcDbLine
 62
7
  6
CONTINUOUS
 10
-73.744408603
 20
1.5128964652
 11
-73.7414300918
 21
1.1584693085
  0
LINE
  5
259
100
AcDbEntity
  8
RACCORDO
100
AcDbLine
 62
7
  6
CONTINUOUS
 10
-73.7414300918
 20
1.1584693085
 11
-73.7392475309
 21
0.8028137141
  0
LINE
  5
25A
100
AcDbEntity
  8
RACCORDO
100
AcDbLine
 62
7
  6
CONTINUOUS
 10
-73.9130913399
 20
7.0875525139
 11
-73.9127758874
 21
7.0348250102
  0
LINE
  5
25B
100
AcDbEntity
  8
RACCORDO
100
AcDbLine
 62
7
  6
CONTINUOUS
 10
-73.7392475309
 20
0.8028137141
 11
-73.7378590515
 21
0.4462635674
  0
LINE
  5
25C
100
AcDbEntity
  8
RACCORDO
100
AcDbLine
 62
7
  6
CONTINUOUS
 10
-73.913124393
 20
-7.1141678868
 11
-73.9129412979
 21
-7.1678569344
  0
LINE
  5
25D
100
AcDbEntity
  8
RACCORDO
100
AcDbLine
 62
7
  6
CONTINUOUS
 10
-73.7378590515
 20
0.4462635674
 11
-73.7372640973
 21
0.0892710774
  0
LINE
  5
25E
100
AcDbEntity
  8
RACCORDO
100
AcDbLine
 62
7
  6
CONTINUOUS
 10
-73.7372640973
 20
0.0892710774
 11
-73.7374624345
 21
-0.2677879285
  0
LINE
  5
25F
100
AcDbEntity
  8
RACCORDO
100
AcDbLine
 62
7
  6
CONTINUOUS
 10
-73.9130744175
 20
7.1409329722
 11
-73.9130913399
 21
7.0875525139
  0
LINE
  5
260
100
AcDbEntity
  8
RACCORDO
100
AcDbLine
 62
7
  6
CONTINUOUS
 10
-73.7374624345
 20
-0.2677879285
 11
-73.7384539912
 21
-0.6246217914
  0
LINE
  5
261
100
AcDbEntity
  8
RACCORDO
100
AcDbLine
 62
7
  6
CONTINUOUS
 10
-73.912975128
 20
-7.061093678
 11
-73.913124393
 21
-7.1141678868
  0
LINE
  5
262
100
AcDbEntity
  8
RACCORDO
100
AcDbLine
 62
7
  6
CONTINUOUS
 10
-73.7384539912
 20
-0.6246217914
 11
-73.740239509
 21
-0.980772645
  0
LINE
  5
263
100
AcDbEntity
  8
RACCORDO
100
AcDbLine
 62
7
  6
CONTINUOUS
 10
-73.740239509
 20
-0.980772645
 11
-73.7428197984
 21
-1.3358561556
  0
LINE
  5
264
100
AcDbEntity
  8
RACCORDO
100
AcDbLine
 62
7
  6
CONTINUOUS
 10
-73.9127247378
 20
7.1949382176
 11
-73.9130744175
 21
7.1409329722
  0
LINE
  5
265
100
AcDbEntity
  8
RACCORDO
100
AcDbLine
 62
7
  6
CONTINUOUS
 10
-73.7428197984
 20
-1.3358561556
 11
-73.7461965328
 21
-1.689534537
  0
LINE
  5
266
100
AcDbEntity
  8
RACCORDO
100
AcDbLine
 62
7
  6
CONTINUOUS
 10
-73.9124941233
 20
-7.0087776615
 11
-73.912975128
 21
-7.061093678
  0
LINE
  5
267
100
AcDbEntity
  8
RACCORDO
100
AcDbLine
 62
7
  6
CONTINUOUS
 10
-73.7461965328
 20
-1.689534537
 11
-73.7503723645
 21
-2.0414344568
  0
LINE
  5
268
100
AcDbEntity
  8
RACCORDO
100
AcDbLine
 62
7
  6
CONTINUOUS
 10
-73.9120429593
 20
7.249411896
 11
-73.9127247378
 21
7.1949382176
  0
LINE
  5
269
100
AcDbEntity
  8
RACCORDO
100
AcDbLine
 62
7
  6
CONTINUOUS
 10
-73.7503723645
 20
-2.0414344568
 11
-73.7553490332
 21
-2.3911764557
  0
LINE
  5
26A
100
AcDbEntity
  8
RACCORDO
100
AcDbLine
 62
7
  6
CONTINUOUS
 10
-73.7553490332
 20
-2.3911764557
 11
-73.7611288512
 21
-2.738345999
  0
LINE
  5
26B
100
AcDbEntity
  8
RACCORDO
100
AcDbLine
 62
7
  6
CONTINUOUS
 10
-73.9116823395
 20
-6.9574249218
 11
-73.9124941233
 21
-7.0087776615
  0
LINE
  5
26C
100
AcDbEntity
  8
RACCORDO
100
AcDbLine
 62
7
  6
CONTINUOUS
 10
-73.7611288512
 20
-2.738345999
 11
-73.7677170468
 21
-3.0826527298
  0
LINE
  5
26D
100
AcDbEntity
  8
RACCORDO
100
AcDbLine
 62
7
  6
CONTINUOUS
 10
-73.7677170468
 20
-3.0826527298
 11
-73.7751161839
 21
-3.4237295535
  0
LWPOLYLINE
  5
26E
100
AcDbEntity
  8
RACCORDO
100
AcDbPolyline
 62
7
  6
CONTINUOUS
 90
3
 70
0
 10
-73.9104032874
 20
7.3314391493
 10
-73.911032215
 20
7.3040784641
 10
-73.9120429593
 20
7.249411896
  0
LINE
  5
26F
100
AcDbEntity
  8
RACCORDO
100
AcDbLine
 62
7
  6
CONTINUOUS
 10
-73.9105452616
 20
-6.9072353046
 11
-73.9116823395
 21
-6.9574249218
  0
LINE
  5
270
100
AcDbEntity
  8
RACCORDO
100
AcDbLine
 62
7
  6
CONTINUOUS
 10
-73.7751161839
 20
-3.4237295535
 11
-73.7833285234
 21
-3.7611249319
  0
LINE
  5
271
100
AcDbEntity
  8
RACCORDO
100
AcDbLine
 62
7
  6
CONTINUOUS
 10
-73.7833285234
 20
-3.7611249319
 11
-73.792360771
 21
-4.0945677622
  0
LINE
  5
272
100
AcDbEntity
  8
RACCORDO
100
AcDbLine
 62
7
  6
CONTINUOUS
 10
-73.792360771
 20
-4.0945677622
 11
-73.8022162546
 21
-4.4237130863
  0
LINE
  5
273
100
AcDbEntity
  8
RACCORDO
100
AcDbLine
 62
7
  6
CONTINUOUS
 10
-73.9090853498
 20
-6.8583404593
 11
-73.9105452616
 21
-6.9072353046
  0
LINE
  5
274
100
AcDbEntity
  8
RACCORDO
100
AcDbLine
 62
7
  6
CONTINUOUS
 10
-73.8022162546
 20
-4.4237130863
 11
-73.8128986767
 21
-4.7481690306
  0
LINE
  5
275
100
AcDbEntity
  8
RACCORDO
100
AcDbLine
 62
7
  6
CONTINUOUS
 10
-73.8128986767
 20
-4.7481690306
 11
-73.8244131207
 21
-5.0676030507
  0
LINE
  5
276
100
AcDbEntity
  8
RACCORDO
100
AcDbLine
 62
7
  6
CONTINUOUS
 10
-73.9073037643
 20
-6.8107645483
 11
-73.9090853498
 21
-6.8583404593
  0
LINE
  5
277
100
AcDbEntity
  8
RACCORDO
100
AcDbLine
 62
7
  6
CONTINUOUS
 10
-73.8244131207
 20
-5.0676030507
 11
-73.8367633258
 21
-5.3816916077
  0
LINE
  5
278
100
AcDbEntity
  8
RACCORDO
100
AcDbLine
 62
7
  6
CONTINUOUS
 10
-73.8367633258
 20
-5.3816916077
 11
-73.8499563955
 21
-5.6901546566
  0
LINE
  5
279
100
AcDbEntity
  8
RACCORDO
100
AcDbLine
 62
7
  6
CONTINUOUS
 10
-73.8499563955
 20
-5.6901546566
 11
-73.8639937919
 21
-5.9925962193
  0
LINE
  5
27A
100
AcDbEntity
  8
RACCORDO
100
AcDbLine
 62
7
  6
CONTINUOUS
 10
-73.8639937919
 20
-5.9925962193
 11
-73.8788789097
 21
-6.2887075745
  0
LWPOLYLINE
  5
27B
100
AcDbEntity
  8
RACCORDO
100
AcDbPolyline
 62
7
  6
CONTINUOUS
 90
3
 70
0
 10
-73.9040512891
 20
-6.7423995891
 10
-73.9052121145
 20
-6.7647604415
 10
-73.9073037643
 20
-6.8107645483
  0
LWPOLYLINE
  5
27C
100
AcDbEntity
  8
RACCORDO
100
AcDbPolyline
 62
7
  6
CONTINUOUS
 90
3
 70
0
 10
-73.8788789097
 20
-6.2887075745
 10
-73.8946213556
 20
-6.5782661415
 10
-73.9040512891
 20
-6.7423995891
  0
LWPOLYLINE
  5
27D
100
AcDbEntity
  8
0
100
AcDbPolyline
 62
250
  6
CONTINUOUS
 90
82
 70
0
 10
-71.8205110488
 20
33.8748188837
 10
-71.8038976127
 20
34.0134194214
 10
-71.784787138
 20
34.1516972845
 10
-71.7631860037
 20
34.2896075001
 10
-71.7391015276
 20
34.4271052494
 10
-71.7125415749
 20
34.5641458077
 10
-71.6835145599
 20
34.7006845359
 10
-71.6520300793
 20
34.8366771382
 10
-71.6180985433
 20
34.9720793046
 10
-71.5817308101
 20
35.1068466133
 10
-71.5429389141
 20
35.2409351507
 10
-71.5017356378
 20
35.3743014338
 10
-71.458134171
 20
35.5069019899
 10
-71.4121488819
 20
35.6386937269
 10
-71.3637949148
 20
35.7696338013
 10
-71.3130878
 20
35.8996794794
 10
-71.2600442117
 20
36.028788519
 10
-71.204681607
 20
36.1569189418
 10
-71.1470178531
 20
36.2840288412
 10
-71.0870719229
 20
36.4100768855
 10
-71.0248635056
 20
36.5350221562
 10
-70.960412679
 20
36.6588238597
 10
-70.8937406262
 20
36.7814417578
 10
-70.8248692335
 20
36.9028360481
 10
-70.7538207345
 20
37.0229671431
 10
-70.6806184606
 20
37.1417960096
 10
-70.605286426
 20
37.2592840835
 10
-70.5278489514
 20
37.3753930894
 10
-70.4483314311
 20
37.4900853336
 10
-70.3667599491
 20
37.6033235816
 10
-70.2831608881
 20
37.7150709111
 10
-70.1975616769
 20
37.8252910193
 10
-70.1099903525
 20
37.9339481749
 10
-70.0204751953
 20
38.0410070304
 10
-69.929045527
 20
38.1464328497
 10
-69.8357313055
 20
38.2501914322
 10
-69.7405627063
 20
38.3522490015
 10
-69.6435709235
 20
38.4525724197
 10
-69.5447876883
 20
38.5511291924
 10
-69.444244875
 20
38.6478873239
 10
-69.341975376
 20
38.7428154461
 10
-69.238012674
 20
38.8358827801
 10
-69.1323903736
 20
38.9270590744
 10
-69.025143065
 20
39.0163147396
 10
-68.9163057966
 20
39.1036208937
 10
-68.8059136525
 20
39.1889492463
 10
-68.6940027089
 20
39.2722721551
 10
-68.5806095759
 20
39.3535626223
 10
-68.4657708779
 20
39.4327942657
 10
-68.3495241938
 20
39.5099413863
 10
-68.2319074755
 20
39.5849790444
 10
-68.1129585891
 20
39.6578829728
 10
-67.9927163767
 20
39.7286295659
 10
-67.8712201397
 20
39.797195921
 10
-67.748509058
 20
39.863559833
 10
-67.6246232476
 20
39.9276997909
 10
-67.4996031284
 20
39.9895950735
 10
-67.3734889023
 20
40.0492256967
 10
-67.2463217046
 20
40.106572368
 10
-67.118143086
 20
40.1616165288
 10
-66.9889943802
 20
40.2143403621
 10
-66.858917784
 20
40.2647267855
 10
-66.7279557054
 20
40.3127595385
 10
-66.5961502408
 20
40.3584231274
 10
-66.4635444132
 20
40.4017027673
 10
-66.330181471
 20
40.4425844864
 10
-66.1961042308
 20
40.4810551135
 10
-66.0613564674
 20
40.517102185
 10
-65.9259820944
 20
40.5507140728
 10
-65.7900244544
 20
40.5818799722
 10
-65.6535277636
 20
40.6105898078
 10
-65.5165366557
 20
40.6368342776
 10
-65.3790953571
 20
40.6606048781
 10
-65.2412486119
 20
40.6818939248
 10
-65.1030414414
 20
40.7006945415
 10
-64.9645186866
 20
40.7170006221
 10
-64.8257257184
 20
40.7308068888
 10
-64.6867075876
 20
40.7421089501
 10
-64.5475087853
 20
40.7509032025
 10
-64.4081744149
 20
40.7571868137
 10
-64.2687501784
 20
40.7609577729
 10
-64.1292815281
 20
40.7622148997
  0
LWPOLYLINE
  5
27E
100
AcDbEntity
  8
0
100
AcDbPolyline
 62
250
  6
CONTINUOUS
 90
49
 70
0
 10
-66.3856837327
 20
-33.7875965416
 10
-66.5258179671
 20
-32.382254998
 10
-66.6599778422
 20
-30.9765527422
 10
-66.788163358
 20
-29.570512819
 10
-66.9103741292
 20
-28.164148285
 10
-67.026610541
 20
-26.7574921422
 10
-67.1368737491
 20
-25.3505973689
 10
-67.2411616451
 20
-23.9435152289
 10
-67.3394763374
 20
-22.5362405339
 10
-67.4318253061
 20
-21.1287415493
 10
-67.518209707
 20
-19.721030817
 10
-67.5986283844
 20
-18.3131416979
 10
-67.6730853505
 20
-16.9050736137
 10
-67.7415808454
 20
-15.4968490865
 10
-67.804114629
 20
-14.0884914257
 10
-67.8606899941
 20
-12.680001197
 10
-67.9113070611
 20
-11.2714082679
 10
-67.9559657095
 20
-9.8627285421
 10
-67.9946688703
 20
-8.4539416027
 10
-68.0274171062
 20
-7.0450618603
 10
-68.0542098545
 20
-5.6361206137
 10
-68.0750483576
 20
-4.2271227547
 10
-68.0899328211
 20
-2.8180967499
 10
-68.0988630396
 20
-1.409059821
 10
-68.101839639
 20
0.0000000184
 10
-68.0988630362
 20
1.4090600218
 10
-68.0899328144
 20
2.8180972601
 10
-68.0750483488
 20
4.2271234461
 10
-68.0542098465
 20
5.6361212008
 10
-68.0274171004
 20
7.0450622151
 10
-67.9946688654
 20
8.4539417961
 10
-67.9559657029
 20
9.8627287369
 10
-67.9113070515
 20
11.2714085351
 10
-67.8606899814
 20
12.6800015303
 10
-67.8041146121
 20
14.0884918148
 10
-67.7415808242
 20
15.496849525
 10
-67.6730853294
 20
16.9050740298
 10
-67.5986283732
 20
18.3131419325
 10
-67.51820971
 20
19.7210307985
 10
-67.4318253153
 20
21.1287414032
 10
-67.3394763351
 20
22.5362405341
 10
-67.2411616233
 20
23.9435155006
 10
-67.136873717
 20
25.3505977889
 10
-67.026610519
 20
26.7574924395
 10
-66.9103741265
 20
28.1641483369
 10
-66.7881633687
 20
29.5705126989
 10
-66.6599778554
 20
30.9765525889
 10
-66.5258179767
 20
32.3822548847
 10
-66.3856837327
 20
33.7875965416
  0
LWPOLYLINE
  5
27F
100
AcDbEntity
  8
0
100
AcDbPolyline
 62
250
  6
CONTINUOUS
 90
61
 70
0
 10
-66.3856837327
 20
33.7875965416
 10
-66.379196194
 20
33.8443907442
 10
-66.3713372047
 20
33.9009407747
 10
-66.3621067649
 20
33.957246643
 10
-66.3514952998
 20
34.0133506466
 10
-66.3395123842
 20
34.0692105068
 10
-66.326186742
 20
34.1246993752
 10
-66.3115167165
 20
34.1798083148
 10
-66.2955039644
 20
34.2345462946
 10
-66.2781821795
 20
34.2888133356
 10
-66.2595481505
 20
34.3426099811
 10
-66.2396050886
 20
34.3959357283
 10
-66.2183963212
 20
34.4486890383
 10
-66.1959195357
 20
34.500867722
 10
-66.1721770447
 20
34.5524740173
 10
-66.1472191134
 20
34.603413034
 10
-66.1210434632
 20
34.6536830252
 10
-66.0936523727
 20
34.7032857935
 10
-66.0651029425
 20
34.7521317796
 10
-66.0353929493
 20
34.8002192919
 10
-66.0045246165
 20
34.8475500832
 10
-65.972561715
 20
34.894039768
 10
-65.9395021107
 20
34.9396865502
 10
-65.9053479377
 20
34.9844922912
 10
-65.8701693688
 20
35.0283780975
 10
-65.8339659192
 20
35.0713405863
 10
-65.7967380738
 20
35.1133832084
 10
-65.7585574605
 20
35.1544373251
 10
-65.719421824
 20
35.194501842
 10
-65.6793334196
 20
35.2335779221
 10
-65.6383706412
 20
35.2716003163
 10
-65.5965333294
 20
35.3085660384
 10
-65.5538216435
 20
35.3444781426
 10
-65.5103144554
 20
35.3792804436
 10
-65.4660100287
 20
35.4129714696
 10
-65.4209100998
 20
35.4455527581
 10
-65.3750987489
 20
35.4769726393
 10
-65.3285751442
 20
35.5072289016
 10
-65.2813401175
 20
35.536323819
 10
-65.2334802448
 20
35.5642124506
 10
-65.1849955889
 20
35.5908923166
 10
-65.1358860871
 20
35.6163659544
 10
-65.0862381266
 20
35.6405959486
 10
-65.0360508589
 20
35.6635804458
 10
-64.9853251326
 20
35.6853213509
 10
-64.9341498807
 20
35.7057868851
 10
-64.8825253009
 20
35.7249748747
 10
-64.8304511955
 20
35.742887538
 10
-64.7780159037
 20
35.7594996834
 10
-64.7252182084
 20
35.7748096097
 10
-64.6720593267
 20
35.7888190548
 10
-64.6186312493
 20
35.8015079837
 10
-64.564936186
 20
35.8128740933
 10
-64.510971927
 20
35.8229197148
 10
-64.4568238326
 20
35.8316317627
 10
-64.4024819899
 20
35.8390088677
 10
-64.3479563119
 20
35.8450524182
 10
-64.2933618978
 20
35.8497534623
 10
-64.2387371142
 20
35.8531090193
 10
-64.1840435946
 20
35.8551220795
 10
-64.129281339
 20
35.8557926453
  0
LWPOLYLINE
  5
280
100
AcDbEntity
  8
0
100
AcDbPolyline
 62
250
  6
CONTINUOUS
 90
31
 70
0
 10
-71.8205110429
 20
33.874818883
 10
-71.806693148
 20
33.8840524
 10
-71.7906595309
 20
33.8930294792
 10
-71.7724167451
 20
33.9017464511
 10
-71.7519722468
 20
33.9101997531
 10
-71.7293343924
 20
33.9183859299
 10
-71.7045124345
 20
33.9263016357
 10
-71.6775165187
 20
33.9339436351
 10
-71.6483576788
 20
33.9413088045
 10
-71.6170478331
 20
33.9483941337
 10
-71.5835997787
 20
33.9551967266
 10
-71.5480271868
 20
33.9617138029
 10
-71.5103445969
 20
33.9679426987
 10
-71.470567411
 20
33.9738808682
 10
-71.4287118872
 20
33.9795258843
 10
-71.384795133
 20
33.9848754397
 10
-71.3388350985
 20
33.9899273479
 10
-71.2908505688
 20
33.994679544
 10
-71.2408611566
 20
33.9991300857
 10
-71.188887294
 20
34.0032771539
 10
-71.1349502242
 20
34.0071190536
 10
-71.0790719929
 20
34.0106542144
 10
-71.0212754391
 20
34.0138811915
 10
-70.9615841859
 20
34.0167986659
 10
-70.9000226308
 20
34.0194054451
 10
-70.8366159358
 20
34.0217004637
 10
-70.771390017
 20
34.0236827837
 10
-70.7043715341
 20
34.0253515948
 10
-70.6355878796
 20
34.0267062149
 10
-70.5650671673
 20
34.0277460903
 10
-70.492838221
 20
34.028470796
  0
LWPOLYLINE
  5
281
100
AcDbEntity
  8
0
100
AcDbPolyline
 62
250
  6
CONTINUOUS
 90
33
 70
0
 10
-71.8205110484
 20
-33.8748188836
 10
-71.8066931535
 20
-33.8840524007
 10
-71.7906595364
 20
-33.8930294798
 10
-71.7724167505
 20
-33.9017464518
 10
-71.7519722522
 20
-33.9101997537
 10
-71.7293343977
 20
-33.9183859306
 10
-71.7045124398
 20
-33.9263016364
 10
-71.6775165239
 20
-33.9339436357
 10
-71.6483576841
 20
-33.9413088052
 10
-71.6170478383
 20
-33.9483941343
 10
-71.5835997838
 20
-33.9551967273
 10
-71.5480271919
 20
-33.9617138035
 10
-71.5103446019
 20
-33.9679426993
 10
-71.470567416
 20
-33.9738808689
 10
-71.4287118921
 20
-33.979525885
 10
-71.3847951378
 20
-33.9848754404
 10
-71.3388351032
 20
-33.9899273486
 10
-71.2908505735
 20
-33.9946795447
 10
-71.2408611612
 20
-33.9991300863
 10
-71.1888872986
 20
-34.0032771545
 10
-71.1349502287
 20
-34.0071190542
 10
-71.0790719974
 20
-34.010654215
 10
-71.0212754435
 20
-34.0138811921
 10
-70.9615841901
 20
-34.0167986665
 10
-70.900022635
 20
-34.0194054457
 10
-70.8366159399
 20
-34.0217004643
 10
-70.771390021
 20
-34.0236827843
 10
-70.7043715381
 20
-34.0253515953
 10
-70.6355878835
 20
-34.0267062154
 10
-70.5650671711
 20
-34.0277460908
 10
-70.4928382247
 20
-34.0284707966
 10
-70.4189305663
 20
-34.0288800364
 10
-70.2662006203
 20
-34.0287515784
  0
LINE
  5
282
100
AcDbEntity
  8
0
100
AcDbLine
 62
250
  6
CONTINUOUS
 10
-64.1292815281
 20
41.0
 11
-64.1292815281
 21
35.8557926453
  0
LINE
  5
283
100
AcDbEntity
  8
0
100
AcDbLine
 62
250
  6
CONTINUOUS
 10
-64.1292815281
 20
-41.0
 11
-64.1292815281
 21
-35.8557926453
  0
LINE
  5
284
100
AcDbEntity
  8
RACCORDO
100
AcDbLine
 62
7
  6
CONTINUOUS
 10
-50.2870627557
 20
-8.4330317668
 11
-50.2887109365
 21
-8.4177664013
  0
LINE
  5
285
100
AcDbEntity
  8
RACCORDO
100
AcDbLine
 62
7
  6
CONTINUOUS
 10
-50.2887109365
 20
-8.4177664013
 11
-50.290415953
 21
-8.4011253063
  0
LINE
  5
286
100
AcDbEntity
  8
RACCORDO
100
AcDbLine
 62
7
  6
CONTINUOUS
 10
-50.290415953
 20
-8.4011253063
 11
-50.2921698455
 21
-8.3830931489
  0
LWPOLYLINE
  5
287
100
AcDbEntity
  8
RACCORDO
100
AcDbPolyline
 62
250
  6
CONTINUOUS
 90
49
 70
0
 10
-50.3442898243
 20
-22.6348858369
 10
-50.3428393885
 20
-22.650739885
 10
-50.3405790174
 20
-22.6665774671
 10
-50.3375110061
 20
-22.6823825021
 10
-50.3336384637
 20
-22.6981387978
 10
-50.3289653287
 20
-22.7138304992
 10
-50.3234963667
 20
-22.7294421009
 10
-50.3172371386
 20
-22.7449578875
 10
-50.3101939949
 20
-22.7603619578
 10
-50.3023740891
 20
-22.7756386699
 10
-50.293785364
 20
-22.7907725264
 10
-50.284436542
 20
-22.8057481376
 10
-50.2743371158
 20
-22.8205502414
 10
-50.2634973432
 20
-22.8351638145
 10
-50.251928233
 20
-22.849574005
 10
-50.2396415318
 20
-22.8637660956
 10
-50.2266497182
 20
-22.8777256662
 10
-50.2129659874
 20
-22.8914385468
 10
-50.1986042346
 20
-22.9048907503
 10
-50.1835790447
 20
-22.9180685817
 10
-50.1679056793
 20
-22.9309586916
 10
-50.1516000585
 20
-22.9435480291
 10
-50.134678742
 20
-22.9558237877
 10
-50.1171589165
 20
-22.9677735205
 10
-50.0990583798
 20
-22.9793851925
 10
-50.0803955158
 20
-22.9906470168
 10
-50.0611892787
 20
-23.0015475479
 10
-50.0414591785
 20
-23.0120757945
 10
-50.0212252546
 20
-23.0222210828
 10
-50.0005080563
 20
-23.0319730881
 10
-49.9793286256
 20
-23.0413219244
 10
-49.9577084741
 20
-23.0502581208
 10
-49.9356695588
 20
-23.0587725763
 10
-49.913234261
 20
-23.0668565894
 10
-49.8904253674
 20
-23.0745019698
 10
-49.867266043
 20
-23.081700933
 10
-49.8437798044
 20
-23.088446054
 10
-49.8199905051
 20
-23.0947304802
 10
-49.7959223065
 20
-23.1005478329
 10
-49.7715996488
 20
-23.1058921004
 10
-49.7470472345
 20
-23.1107578408
 10
-49.7222900004
 20
-23.115140128
 10
-49.6973530884
 20
-23.1190344525
 10
-49.6722618236
 20
-23.1224368345
 10
-49.6470416912
 20
-23.1253438431
 10
-49.6217183083
 20
-23.1277525408
 10
-49.5963173951
 20
-23.1296604857
 10
-49.5708647488
 20
-23.1310657339
 10
-49.5453862198
 20
-23.131966857
  0
LINE
  5
288
100
AcDbEntity
  8
RACCORDO
100
AcDbLine
 62
7
  6
CONTINUOUS
 10
-50.2921698455
 20
-8.3830931489
 11
-50.2939660987
 21
-8.3636472832
  0
LINE
  5
289
100
AcDbEntity
  8
RACCORDO
100
AcDbLine
 62
7
  6
CONTINUOUS
 10
-50.2939660987
 20
-8.3636472832
 11
-50.2957973926
 21
-8.3427797647
  0
LINE
  5
28A
100
AcDbEntity
  8
RACCORDO
100
AcDbLine
 62
7
  6
CONTINUOUS
 10
-50.2957973926
 20
-8.3427797647
 11
-50.2985956008
 21
-8.3087884787
  0
LINE
  5
28B
100
AcDbEntity
  8
RACCORDO
100
AcDbLine
 62
250
  6
CONTINUOUS
 10
-50.2947937701
 20
-8.3838655811
 11
-50.2990881764
 21
-8.3307078323
  0
LINE
  5
28C
100
AcDbEntity
  8
RACCORDO
100
AcDbLine
 62
7
  6
CONTINUOUS
 10
-50.2985956008
 20
-8.3087884787
 11
-50.3014386109
 21
-8.2715241745
  0
LINE
  5
28D
100
AcDbEntity
  8
RACCORDO
100
AcDbLine
 62
250
  6
CONTINUOUS
 10
-50.2990881764
 20
-8.3307078323
 11
-50.3032431272
 21
-8.2735858914
  0
LINE
  5
28E
100
AcDbEntity
  8
RACCORDO
100
AcDbLine
 62
7
  6
CONTINUOUS
 10
-50.3014386109
 20
-8.2715241745
 11
-50.3043091196
 21
-8.2309317072
  0
LINE
  5
28F
100
AcDbEntity
  8
RACCORDO
100
AcDbLine
 62
250
  6
CONTINUOUS
 10
-50.3032431272
 20
-8.2735858914
 11
-50.3072459847
 21
-8.2126763999
  0
LINE
  5
290
100
AcDbEntity
  8
RACCORDO
100
AcDbLine
 62
7
  6
CONTINUOUS
 10
-50.3043091196
 20
-8.2309317072
 11
-50.3071911898
 21
-8.186954938
  0
LINE
  5
291
100
AcDbEntity
  8
RACCORDO
100
AcDbLine
 62
7
  6
CONTINUOUS
 10
-50.3071911898
 20
-8.186954938
 11
-50.3100690794
 21
-8.1395476563
  0
LINE
  5
292
100
AcDbEntity
  8
RACCORDO
100
AcDbLine
 62
250
  6
CONTINUOUS
 10
-50.3072459847
 20
-8.2126763999
 11
-50.3110890206
 21
-8.1480967992
  0
LINE
  5
293
100
AcDbEntity
  8
RACCORDO
100
AcDbLine
 62
7
  6
CONTINUOUS
 10
-50.3100690794
 20
-8.1395476563
 11
-50.313873471
 21
-8.0709349245
  0
LINE
  5
294
100
AcDbEntity
  8
RACCORDO
100
AcDbLine
 62
250
  6
CONTINUOUS
 10
-50.3110890206
 20
-8.1480967992
 11
-50.3147609173
 21
-8.0800338542
  0
LINE
  5
295
100
AcDbEntity
  8
RACCORDO
100
AcDbLine
 62
7
  6
CONTINUOUS
 10
-50.313873471
 20
-8.0709349245
 11
-50.317607486
 21
-7.9960892989
  0
LINE
  5
296
100
AcDbEntity
  8
RACCORDO
100
AcDbLine
 62
250
  6
CONTINUOUS
 10
-50.3147609173
 20
-8.0800338542
 11
-50.3182528542
 21
-8.0086631823
  0
LINE
  5
297
100
AcDbEntity
  8
RACCORDO
100
AcDbLine
 62
7
  6
CONTINUOUS
 10
-50.317607486
 20
-7.9960892989
 11
-50.3212397325
 21
-7.9148857658
  0
LINE
  5
298
100
AcDbEntity
  8
RACCORDO
100
AcDbLine
 62
250
  6
CONTINUOUS
 10
-50.3182528542
 20
-8.0086631823
 11
-50.3231391087
 21
-7.8957008065
  0
LINE
  5
299
100
AcDbEntity
  8
RACCORDO
100
AcDbLine
 62
7
  6
CONTINUOUS
 10
-50.3212397325
 20
-7.9148857658
 11
-50.3247440994
 21
-7.8270516771
  0
LINE
  5
29A
100
AcDbEntity
  8
RACCORDO
100
AcDbLine
 62
250
  6
CONTINUOUS
 10
-50.3231391087
 20
-7.8957008065
 11
-50.3275793478
 21
-7.7762084798
  0
LINE
  5
29B
100
AcDbEntity
  8
RACCORDO
100
AcDbLine
 62
7
  6
CONTINUOUS
 10
-50.3247440994
 20
-7.8270516771
 11
-50.3280911817
 21
-7.732304315
  0
LINE
  5
29C
100
AcDbEntity
  8
RACCORDO
100
AcDbLine
 62
250
  6
CONTINUOUS
 10
-50.3275793478
 20
-7.7762084798
 11
-50.3315479167
 21
-7.6508858192
  0
LINE
  5
29D
100
AcDbEntity
  8
RACCORDO
100
AcDbLine
 62
7
  6
CONTINUOUS
 10
-50.3280911817
 20
-7.732304315
 11
-50.3320020236
 21
-7.6037434487
  0
LINE
  5
29E
100
AcDbEntity
  8
RACCORDO
100
AcDbLine
 62
250
  6
CONTINUOUS
 10
-50.3315479167
 20
-7.6508858192
 11
-50.3350232272
 21
-7.5204437103
  0
LINE
  5
29F
100
AcDbEntity
  8
RACCORDO
100
AcDbLine
 62
7
  6
CONTINUOUS
 10
-50.3320020236
 20
-7.6037434487
 11
-50.3355382549
 21
-7.4634682019
  0
LWPOLYLINE
  5
2A0
100
AcDbEntity
  8
RACCORDO
100
AcDbPolyline
 62
250
  6
CONTINUOUS
 90
40
 70
0
 10
-50.2829772403
 20
-22.5305553812
 10
-50.2827021353
 20
-22.5425976298
 10
-50.2819432338
 20
-22.5546204138
 10
-50.2807017624
 20
-22.5666043003
 10
-50.2789797276
 20
-22.578529919
 10
-50.276779913
 20
-22.590377994
 10
-50.2741058743
 20
-22.6021293745
 10
-50.2709619335
 20
-22.6137650662
 10
-50.2673531724
 20
-22.6252662617
 10
-50.2632854241
 20
-22.636614371
 10
-50.2587652635
 20
-22.6477910515
 10
-50.2537999967
 20
-22.6587782379
 10
-50.2483976494
 20
-22.669558171
 10
-50.2425669536
 20
-22.6801134264
 10
-50.2363173339
 20
-22.6904269434
 10
-50.2296588917
 20
-22.7004820515
 10
-50.2226023896
 20
-22.7102624982
 10
-50.2151592333
 20
-22.7197524748
 10
-50.2073414535
 20
-22.7289366422
 10
-50.1991616866
 20
-22.7378001556
 10
-50.1906331539
 20
-22.7463286882
 10
-50.1817696406
 20
-22.7545084551
 10
-50.1725854732
 20
-22.7623262349
 10
-50.1630954966
 20
-22.7697693912
 10
-50.1533150499
 20
-22.7768258933
 10
-50.1432599417
 20
-22.7834843355
 10
-50.1329464248
 20
-22.7897339552
 10
-50.1223911693
 20
-22.795564651
 10
-50.1116112362
 20
-22.8009669983
 10
-50.1006240499
 20
-22.8059322651
 10
-50.0894473693
 20
-22.8104524257
 10
-50.07809926
 20
-22.8145201739
 10
-50.0665980645
 20
-22.818128935
 10
-50.0549623729
 20
-22.8212728757
 10
-50.0432109924
 20
-22.8239469145
 10
-50.0313629175
 20
-22.8261467291
 10
-50.0194372988
 20
-22.8278687638
 10
-50.0074534124
 20
-22.8291102352
 10
-49.9954306284
 20
-22.8298691367
 10
-49.9833883798
 20
-22.8301442416
  0
LINE
  5
2A1
100
AcDbEntity
  8
RACCORDO
100
AcDbLine
 62
250
  6
CONTINUOUS
 10
-50.3350232272
 20
-7.5204437103
 11
-50.337989862
 21
-7.3854743177
  0
LINE
  5
2A2
100
AcDbEntity
  8
RACCORDO
100
AcDbLine
 62
7
  6
CONTINUOUS
 10
-50.3355382549
 20
-7.4634682019
 11
-50.338611284
 21
-7.3110251571
  0
LINE
  5
2A3
100
AcDbEntity
  8
RACCORDO
100
AcDbLine
 62
250
  6
CONTINUOUS
 10
-50.337989862
 20
-7.3854743177
 11
-50.3404338192
 21
-7.2465624588
  0
LWPOLYLINE
  5
2A4
100
AcDbEntity
  8
RACCORDO
100
AcDbPolyline
 62
250
  6
CONTINUOUS
 90
9
 70
0
 10
-50.2490483482
 20
-8.6723188343
 10
-50.2493141384
 20
-8.6536401249
 10
-50.2502819529
 20
-8.6349876914
 10
-50.2519504303
 20
-8.6163877727
 10
-50.2543172234
 20
-8.5978665338
 10
-50.2573790028
 20
-8.5794500289
 10
-50.2611314615
 20
-8.5611641649
 10
-50.2655693206
 20
-8.543034665
 10
-50.2706863375
 20
-8.5250870324
  0
LINE
  5
2A5
100
AcDbEntity
  8
RACCORDO
100
AcDbLine
 62
7
  6
CONTINUOUS
 10
-50.338611284
 20
-7.3110251571
 11
-50.3411158091
 21
-7.1461451577
  0
LWPOLYLINE
  5
2A6
100
AcDbEntity
  8
RACCORDO
100
AcDbPolyline
 62
250
  6
CONTINUOUS
 90
12
 70
0
 10
-50.2275752953
 20
-8.708165587
 10
-50.2278009379
 20
-8.6907505392
 10
-50.2286371521
 20
-8.6733522089
 10
-50.2300833967
 20
-8.6559919066
 10
-50.2321385699
 20
-8.6386895504
 10
-50.2348005431
 20
-8.621467777
 10
-50.2380656798
 20
-8.6043518391
 10
-50.2419297225
 20
-8.587363942
 10
-50.246388193
 20
-8.5705236763
 10
-50.2514355508
 20
-8.5538520647
 10
-50.2570655582
 20
-8.5373696932
 10
-50.2632713631
 20
-8.5210966059
  0
LINE
  5
2A7
100
AcDbEntity
  8
RACCORDO
100
AcDbLine
 62
250
  6
CONTINUOUS
 10
-50.3404338192
 20
-7.2465624588
 11
-50.3423391712
 21
-7.104531571
  0
LINE
  5
2A8
100
AcDbEntity
  8
RACCORDO
100
AcDbLine
 62
7
  6
CONTINUOUS
 10
-50.3411158091
 20
-7.1461451577
 11
-50.3426285178
 21
-7.0052590926
  0
LINE
  5
2A9
100
AcDbEntity
  8
RACCORDO
100
AcDbLine
 62
250
  6
CONTINUOUS
 10
-50.3423391712
 20
-7.104531571
 11
-50.3436926164
 21
-6.9604219655
  0
LINE
  5
2AA
100
AcDbEntity
  8
RACCORDO
100
AcDbLine
 62
7
  6
CONTINUOUS
 10
-50.3426285178
 20
-7.0052590926
 11
-50.3436284057
 21
-6.8565495122
  0
LINE
  5
2AB
100
AcDbEntity
  8
RACCORDO
100
AcDbLine
 62
250
  6
CONTINUOUS
 10
-51.1724335119
 20
-29.3591342414
 11
-51.1592434934
 21
-32.2156939465
  0
LINE
  5
2AC
100
AcDbEntity
  8
RACCORDO
100
AcDbLine
 62
250
  6
CONTINUOUS
 10
-50.3436926164
 20
-6.9604219655
 11
-50.3444884094
 21
-6.8153682163
  0
LINE
  5
2AD
100
AcDbEntity
  8
RACCORDO
100
AcDbLine
 62
250
  6
CONTINUOUS
 10
-51.184398988
 20
-26.500605028
 11
-51.1724335119
 21
-29.3591342414
  0
LINE
  5
2AE
100
AcDbEntity
  8
RACCORDO
100
AcDbLine
 62
250
  6
CONTINUOUS
 10
-51.1951396453
 20
-23.6402983386
 11
-51.184398988
 21
-26.500605028
  0
LINE
  5
2AF
100
AcDbEntity
  8
RACCORDO
100
AcDbLine
 62
250
  6
CONTINUOUS
 10
-50.4042769082
 20
-21.1985368878
 11
-50.3943044764
 21
-24.1245085019
  0
LINE
  5
2B0
100
AcDbEntity
  8
RACCORDO
100
AcDbLine
 62
250
  6
CONTINUOUS
 10
-51.2046545315
 20
-20.7784067515
 11
-51.1951396453
 21
-23.6402983386
  0
LINE
  5
2B1
100
AcDbEntity
  8
RACCORDO
100
AcDbLine
 62
250
  6
CONTINUOUS
 10
-51.2129429671
 20
-17.9151221631
 11
-51.2046545315
 21
-20.7784067515
  0
LINE
  5
2B2
100
AcDbEntity
  8
RACCORDO
100
AcDbLine
 62
250
  6
CONTINUOUS
 10
-50.4129612592
 20
-18.2711199049
 11
-50.4042769082
 21
-21.1985368878
  0
LINE
  5
2B3
100
AcDbEntity
  8
RACCORDO
100
AcDbLine
 62
250
  6
CONTINUOUS
 10
-50.4203573015
 20
-15.3423419424
 11
-50.4129612592
 21
-18.2711199049
  0
LINE
  5
2B4
100
AcDbEntity
  8
RACCORDO
100
AcDbLine
 62
250
  6
CONTINUOUS
 10
-51.2200045361
 20
-15.0506366683
 11
-51.2129429671
 21
-17.9151221631
  0
LINE
  5
2B5
100
AcDbEntity
  8
RACCORDO
100
AcDbLine
 62
250
  6
CONTINUOUS
 10
-51.2258386702
 20
-12.1851423337
 11
-51.2200045361
 21
-15.0506366683
  0
LINE
  5
2B6
100
AcDbEntity
  8
RACCORDO
100
AcDbLine
 62
250
  6
CONTINUOUS
 10
-50.4264642232
 20
-12.4124891025
 11
-50.4203573015
 21
-15.3423419424
  0
LINE
  5
2B7
100
AcDbEntity
  8
RACCORDO
100
AcDbLine
 62
250
  6
CONTINUOUS
 10
-50.4312816037
 20
-9.4817881184
 11
-50.4264642232
 21
-12.4124891025
  0
LINE
  5
2B8
100
AcDbEntity
  8
RACCORDO
100
AcDbLine
 62
250
  6
CONTINUOUS
 10
-51.2304449697
 20
-9.3188311455
 11
-51.2258386702
 21
-12.1851423337
  0
LINE
  5
2B9
100
AcDbEntity
  8
RACCORDO
100
AcDbLine
 62
250
  6
CONTINUOUS
 10
-51.2338232042
 20
-6.451895285
 11
-51.2304449697
 21
-9.3188311455
  0
LINE
  5
2BA
100
AcDbEntity
  8
RACCORDO
100
AcDbLine
 62
250
  6
CONTINUOUS
 10
-50.4348091904
 20
-6.5503933774
 11
-50.4312816037
 21
-9.4817881184
  0
LWPOLYLINE
  5
2BB
100
AcDbEntity
  8
RACCORDO
100
AcDbPolyline
 62
250
  6
CONTINUOUS
 90
9
 70
0
 10
-50.3444884094
 20
-6.8153682163
 10
-50.3460538941
 20
-5.2256037593
 10
-50.3470625372
 20
-3.7325960287
 10
-50.3477349659
 20
-2.2395744339
 10
-50.3480711804
 20
-0.7465297656
 10
-50.3480711805
 20
0.7465287669
 10
-50.3477349662
 20
2.2395735351
 10
-50.3470625375
 20
3.7325953296
 10
-50.3460538943
 20
5.2256033599
  0
LWPOLYLINE
  5
2BC
100
AcDbEntity
  8
RACCORDO
100
AcDbPolyline
 62
7
  6
CONTINUOUS
 90
8
 70
0
 10
-50.3436284057
 20
-6.8565495122
 10
-50.3453587606
 20
-5.2380087233
 10
-50.3463721254
 20
-3.7416935557
 10
-50.3470477654
 20
-2.2453084541
 10
-50.3473856622
 20
-0.7488849335
 10
-50.3473858127
 20
0.7475507241
 10
-50.3470482171
 20
2.243974252
 10
-50.3463728783
 20
3.740359357
  0
LINE
  5
2BD
100
AcDbEntity
  8
RACCORDO
100
AcDbLine
 62
250
  6
CONTINUOUS
 10
-50.4370466627
 20
-3.6185362905
 11
-50.4348091904
 21
-6.5503933774
  0
LINE
  5
2BE
100
AcDbEntity
  8
RACCORDO
100
AcDbLine
 62
250
  6
CONTINUOUS
 10
-51.2359730822
 20
-3.5845268386
 11
-51.2338232042
 21
-6.451895285
  0
LINE
  5
2BF
100
AcDbEntity
  8
RACCORDO
100
AcDbLine
 62
250
  6
CONTINUOUS
 10
-51.2368944805
 20
-0.7169180177
 11
-51.2359730822
 21
-3.5845268386
  0
LINE
  5
2C0
100
AcDbEntity
  8
RACCORDO
100
AcDbLine
 62
250
  6
CONTINUOUS
 10
-50.4379938851
 20
-0.6864495077
 11
-50.4370466627
 21
-3.6185362905
  0
LINE
  5
2C1
100
AcDbEntity
  8
RACCORDO
100
AcDbLine
 62
250
  6
CONTINUOUS
 10
-50.2275752953
 20
-22.4751534362
 11
-50.2275752953
 21
-8.708165587
  0
LINE
  5
2C2
100
AcDbEntity
  8
RACCORDO
100
AcDbLine
 62
250
  6
CONTINUOUS
 10
-50.2275752953
 20
8.708165587
 11
-50.2275752953
 21
22.4751534362
  0
LINE
  5
2C3
100
AcDbEntity
  8
RACCORDO
100
AcDbLine
 62
7
  6
CONTINUOUS
 10
-50.2268862685
 20
-22.476642428
 11
-50.2268900626
 21
-8.708165587
  0
LINE
  5
2C4
100
AcDbEntity
  8
RACCORDO
100
AcDbLine
 62
7
  6
CONTINUOUS
 10
-50.2268900626
 20
8.708165587
 11
-50.2268900626
 21
22.4751534362
  0
LINE
  5
2C5
100
AcDbEntity
  8
RACCORDO
100
AcDbLine
 62
7
  6
CONTINUOUS
 10
-50.2
 20
-8.05
 11
-50.2
 21
8.05
  0
LINE
  5
2C6
100
AcDbEntity
  8
RACCORDO
100
AcDbLine
 62
250
  6
CONTINUOUS
 10
-51.2365873533
 20
2.1507388517
 11
-51.2368944805
 21
-0.7169180177
  0
LINE
  5
2C7
100
AcDbEntity
  8
RACCORDO
100
AcDbLine
 62
250
  6
CONTINUOUS
 10
-50.4376508076
 20
2.2457115102
 11
-50.4379938851
 21
-0.6864495077
  0
LINE
  5
2C8
100
AcDbEntity
  8
RACCORDO
100
AcDbLine
 62
250
  6
CONTINUOUS
 10
-51.2350516851
 20
5.0182514964
 11
-51.2365873533
 21
2.1507388517
  0
LINE
  5
2C9
100
AcDbEntity
  8
RACCORDO
100
AcDbLine
 62
250
  6
CONTINUOUS
 10
-50.4360174157
 20
5.1777123814
 11
-50.4376508076
 21
2.2457115102
  0
LINE
  5
2CA
100
AcDbEntity
  8
RACCORDO
100
AcDbLine
 62
7
  6
CONTINUOUS
 10
-50.3463728783
 20
3.740359357
 11
-50.3440240608
 21
6.718090903
  0
LINE
  5
2CB
100
AcDbEntity
  8
RACCORDO
100
AcDbLine
 62
250
  6
CONTINUOUS
 10
-51.2322876296
 20
7.8854277085
 11
-51.2350516851
 21
5.0182514964
  0
LINE
  5
2CC
100
AcDbEntity
  8
RACCORDO
100
AcDbLine
 62
250
  6
CONTINUOUS
 10
-50.4330938826
 20
8.109321672
 11
-50.4360174157
 21
5.1777123814
  0
LINE
  5
2CD
100
AcDbEntity
  8
RACCORDO
100
AcDbLine
 62
250
  6
CONTINUOUS
 10
-51.2282953249
 20
10.7520752282
 11
-51.2322876296
 21
7.8854277085
  0
LINE
  5
2CE
100
AcDbEntity
  8
RACCORDO
100
AcDbLine
 62
250
  6
CONTINUOUS
 10
-50.4288803626
 20
11.0403848957
 11
-50.4330938826
 21
8.109321672
  0
LINE
  5
2CF
100
AcDbEntity
  8
RACCORDO
100
AcDbLine
 62
250
  6
CONTINUOUS
 10
-51.2230750319
 20
13.6180019819
 11
-51.2282953249
 21
10.7520752282
  0
LINE
  5
2D0
100
AcDbEntity
  8
RACCORDO
100
AcDbLine
 62
250
  6
CONTINUOUS
 10
-50.423377146
 20
13.9706704495
 11
-50.4288803626
 21
11.0403848957
  0
LINE
  5
2D1
100
AcDbEntity
  8
RACCORDO
100
AcDbLine
 62
250
  6
CONTINUOUS
 10
-51.216627181
 20
16.4830159408
 11
-51.2230750319
 21
13.6180019819
  0
LINE
  5
2D2
100
AcDbEntity
  8
RACCORDO
100
AcDbLine
 62
250
  6
CONTINUOUS
 10
-50.4165846993
 20
16.8999491169
 11
-50.423377146
 21
13.9706704495
  0
LINE
  5
2D3
100
AcDbEntity
  8
RACCORDO
100
AcDbLine
 62
250
  6
CONTINUOUS
 10
-51.2089520951
 20
19.3469249705
 11
-51.216627181
 21
16.4830159408
  0
LINE
  5
2D4
100
AcDbEntity
  8
RACCORDO
100
AcDbLine
 62
250
  6
CONTINUOUS
 10
-50.4085034036
 20
19.8280595709
 11
-50.4165846993
 21
16.8999491169
  0
LINE
  5
2D5
100
AcDbEntity
  8
RACCORDO
100
AcDbLine
 62
250
  6
CONTINUOUS
 10
-51.2000503113
 20
22.2095370661
 11
-51.2089520951
 21
19.3469249705
  0
LWPOLYLINE
  5
2D6
100
AcDbEntity
  8
RACCORDO
100
AcDbPolyline
 62
250
  6
CONTINUOUS
 90
3
 70
0
 10
-50.3939664305
 20
24.2174730502
 10
-50.3991341226
 20
22.7546909648
 10
-50.4085034036
 20
19.8280595709
  0
LINE
  5
2D7
100
AcDbEntity
  8
RACCORDO
100
AcDbLine
 62
250
  6
CONTINUOUS
 10
-51.1899225405
 20
25.070660154
 11
-51.2000503113
 21
22.2095370661
  0
LINE
  5
2D8
100
AcDbEntity
  8
RACCORDO
100
AcDbLine
 62
250
  6
CONTINUOUS
 10
-51.1785692899
 20
27.9301022482
 11
-51.1899225405
 21
25.070660154
  0
LINE
  5
2D9
100
AcDbEntity
  8
RACCORDO
100
AcDbLine
 62
250
  6
CONTINUOUS
 10
-50.3460538943
 20
5.2256033599
 11
-50.34428531
 21
6.8636811471
  0
LINE
  5
2DA
100
AcDbEntity
  8
RACCORDO
100
AcDbLine
 62
7
  6
CONTINUOUS
 10
-50.3440240937
 20
6.7180908909
 11
-50.343573868
 21
6.8677723188
  0
LWPOLYLINE
  5
2DB
100
AcDbEntity
  8
RACCORDO
100
AcDbPolyline
 62
250
  6
CONTINUOUS
 90
3
 70
0
 10
-51.1592434939
 20
32.2156939465
 10
-51.1659915853
 20
30.7876715544
 10
-51.1785692899
 20
27.9301022482
  0
LINE
  5
2DC
100
AcDbEntity
  8
RACCORDO
100
AcDbLine
 62
250
  6
CONTINUOUS
 10
-50.34428531
 20
6.8636811471
 11
-50.3433040893
 21
7.0085451601
  0
LINE
  5
2DD
100
AcDbEntity
  8
RACCORDO
100
AcDbLine
 62
7
  6
CONTINUOUS
 10
-50.343573868
 20
6.8677723188
 11
-50.3424229649
 21
7.0279155772
  0
LWPOLYLINE
  5
2DE
100
AcDbEntity
  8
RACCORDO
100
AcDbPolyline
 62
250
  6
CONTINUOUS
 90
52
 70
0
 10
-50.2275752953
 20
22.4751534362
 10
-50.2274775684
 20
22.4843245692
 10
-50.2270996093
 20
22.4935087618
 10
-50.2264396743
 20
22.5026974446
 10
-50.225495959
 20
22.5118853042
 10
-50.2242673716
 20
22.521060147
 10
-50.2227545448
 20
22.5302030463
 10
-50.2209576823
 20
22.5393052684
 10
-50.2188773345
 20
22.548357889
 10
-50.2165168947
 20
22.5573419952
 10
-50.213878395
 20
22.5662487697
 10
-50.2109640565
 20
22.5750698912
 10
-50.2077797183
 20
22.5837877702
 10
-50.2043299705
 20
22.5923919329
 10
-50.2006178213
 20
22.6008768987
 10
-50.1966480965
 20
22.6092331147
 10
-50.1924264765
 20
22.6174507007
 10
-50.1879565626
 20
22.6255246216
 10
-50.1832400713
 20
22.6334526357
 10
-50.1782815418
 20
22.6412275254
 10
-50.1730859245
 20
22.6488419207
 10
-50.1676549962
 20
22.6562930302
 10
-50.1619923116
 20
22.6635753108
 10
-50.1561042284
 20
22.6706799659
 10
-50.149996725
 20
22.6775993198
 10
-50.1436745052
 20
22.6843276144
 10
-50.137144265
 20
22.6908573528
 10
-50.1304156714
 20
22.6971788859
 10
-50.1234963414
 20
22.7032854471
 10
-50.116391949
 20
22.7091724466
 10
-50.109109855
 20
22.7148341733
 10
-50.1016587922
 20
22.7202642988
 10
-50.0940443455
 20
22.725459216
 10
-50.0862691156
 20
22.7304172477
 10
-50.0783403423
 20
22.7351334798
 10
-50.0702653353
 20
22.7396032722
 10
-50.0620464796
 20
22.7438247985
 10
-50.0536886675
 20
22.7477945025
 10
-50.0452019091
 20
22.751506616
 10
-50.0365963427
 20
22.7549560706
 10
-50.0278776402
 20
22.7581398338
 10
-50.0190561225
 20
22.7610534246
 10
-50.010149471
 20
22.7636910229
 10
-50.0011660518
 20
22.7660504462
 10
-49.9921146608
 20
22.7681297195
 10
-49.9830142011
 20
22.7699255032
 10
-49.9738735912
 20
22.771437295
 10
-49.964701575
 20
22.7726649353
 10
-49.9555170892
 20
22.7736078381
 10
-49.9463323264
 20
22.7742671422
 10
-49.9371525887
 20
22.7746446985
 10
-49.9279864348
 20
22.7747422966
  0
LINE
  5
2DF
100
AcDbEntity
  8
RACCORDO
100
AcDbLine
 62
250
  6
CONTINUOUS
 10
-50.3433040893
 20
7.0085451601
 11
-50.341766154
 21
7.1520673194
  0
LWPOLYLINE
  5
2E0
100
AcDbEntity
  8
RACCORDO
100
AcDbPolyline
 62
250
  6
CONTINUOUS
 90
12
 70
0
 10
-50.2275752953
 20
8.708165587
 10
-50.2278009379
 20
8.6907505391
 10
-50.2286371521
 20
8.6733522087
 10
-50.2300833967
 20
8.6559919063
 10
-50.23213857
 20
8.63868955
 10
-50.2348005432
 20
8.6214677765
 10
-50.23806568
 20
8.6043518385
 10
-50.2419297226
 20
8.5873639414
 10
-50.2463881932
 20
8.5705236758
 10
-50.251435551
 20
8.5538520642
 10
-50.2570655585
 20
8.5373696924
 10
-50.2632713636
 20
8.5210966047
  0
LINE
  5
2E1
100
AcDbEntity
  8
RACCORDO
100
AcDbLine
 62
7
  6
CONTINUOUS
 10
-50.3424229649
 20
7.0279155772
 11
-50.340684214
 21
7.1787958119
  0
LWPOLYLINE
  5
2E2
100
AcDbEntity
  8
RACCORDO
100
AcDbPolyline
 62
250
  6
CONTINUOUS
 90
9
 70
0
 10
-50.2490483482
 20
8.6723188343
 10
-50.2493141383
 20
8.6536401275
 10
-50.2502819526
 20
8.6349876965
 10
-50.2519504295
 20
8.6163877801
 10
-50.254317222
 20
8.5978665432
 10
-50.2573790007
 20
8.5794500401
 10
-50.2611314586
 20
8.5611641778
 10
-50.2655693168
 20
8.5430346795
 10
-50.2706863326
 20
8.5250870482
  0
LINE
  5
2E3
100
AcDbEntity
  8
RACCORDO
100
AcDbLine
 62
250
  6
CONTINUOUS
 10
-50.341766154
 20
7.1520673194
 11
-50.3396796878
 21
7.2931804343
  0
LWPOLYLINE
  5
2E4
100
AcDbEntity
  8
RACCORDO
100
AcDbPolyline
 62
250
  6
CONTINUOUS
 90
17
 70
0
 10
-50.3943042841
 20
-24.1245085149
 10
-50.3957169715
 20
-24.2118284549
 10
-50.3979533244
 20
-24.3022129368
 10
-50.4010346491
 20
-24.395662816
 10
-50.4049751286
 20
-24.4920784983
 10
-50.4097938047
 20
-24.5915690058
 10
-50.4155187791
 20
-24.6944497414
 10
-50.4221622818
 20
-24.800718591
 10
-50.4297343334
 20
-24.9103918749
 10
-50.4382636656
 20
-25.0238157059
 10
-50.4477563786
 20
-25.141038319
 10
-50.4582076443
 20
-25.262031229
 10
-50.4696273593
 20
-25.3870275804
 10
-50.4820208826
 20
-25.5162599265
 10
-50.4953445401
 20
-25.6495247798
 10
-50.5095165763
 20
-25.7863975441
 10
-50.524526852
 20
-25.9272801515
  0
LINE
  5
2E5
100
AcDbEntity
  8
RACCORDO
100
AcDbLine
 62
7
  6
CONTINUOUS
 10
-50.340684214
 20
7.1787958119
 11
-50.3384458722
 21
7.3202946987
  0
LWPOLYLINE
  5
2E6
100
AcDbEntity
  8
RACCORDO
100
AcDbPolyline
 62
7
  6
CONTINUOUS
 90
41
 70
0
 10
-50.2268899413
 20
22.4751534362
 10
-50.2266381162
 20
22.4874665469
 10
-50.2259286796
 20
22.4991880423
 10
-50.2247631596
 20
22.5108627771
 10
-50.2231438626
 20
22.5224740877
 10
-50.2210737913
 20
22.5340058715
 10
-50.2185565743
 20
22.5454406332
 10
-50.2155964318
 20
22.5567610928
 10
-50.2121981269
 20
22.5679515265
 10
-50.2083668347
 20
22.5789953956
 10
-50.2041089068
 20
22.5898760246
 10
-50.1994307472
 20
22.6005775471
 10
-50.1943396043
 20
22.6110840947
 10
-50.1888434446
 20
22.62137998
 10
-50.1829504359
 20
22.6314500143
 10
-50.1766697472
 20
22.6412793164
 10
-50.1700107404
 20
22.6508531724
 10
-50.1629834527
 20
22.6601576356
 10
-50.1555984084
 20
22.6691788449
 10
-50.1478666644
 20
22.6779033208
 10
-50.1397998102
 20
22.6863182718
 10
-50.1314097476
 20
22.6944109967
 10
-50.1227091492
 20
22.7021695532
 10
-50.1137107682
 20
22.7095822979
 10
-50.1044280612
 20
22.7166381487
 10
-50.094874847
 20
22.7233265238
 10
-50.085065061
 20
22.7296373507
 10
-50.0750133848
 20
22.7355612185
 10
-50.0647346698
 20
22.7410889125
 10
-50.0542440998
 20
22.746212225
 10
-50.0435573283
 20
22.7509231304
 10
-50.0326902113
 20
22.7552143536
 10
-50.0216586097
 20
22.7590794239
 10
-50.0104791863
 20
22.7625119531
 10
-49.9991684575
 20
22.7655067239
 10
-49.9877421325
 20
22.768058921
 10
-49.9762174861
 20
22.7701642956
 10
-49.9646119946
 20
22.7718191529
 10
-49.9529417306
 20
22.7730204636
 10
-49.9412233421
 20
22.773765866
 10
-49.9294748338
 20
22.7740532644
  0
LINE
  5
2E7
100
AcDbEntity
  8
RACCORDO
100
AcDbLine
 62
250
  6
CONTINUOUS
 10
-50.3396796878
 20
7.2931804343
 11
-50.3370597512
 21
7.4308694193
  0
LINE
  5
2E8
100
AcDbEntity
  8
RACCORDO
100
AcDbLine
 62
7
  6
CONTINUOUS
 10
-50.3384458722
 20
7.3202946987
 11
-50.3357856324
 21
7.4524775375
  0
LWPOLYLINE
  5
2E9
100
AcDbEntity
  8
RACCORDO
100
AcDbPolyline
 62
250
  6
CONTINUOUS
 90
40
 70
0
 10
-50.2822025692
 20
22.5297807101
 10
-50.2819274642
 20
22.5418229583
 10
-50.2811685627
 20
22.553845742
 10
-50.2799270913
 20
22.5658296281
 10
-50.2782050566
 20
22.5777552464
 10
-50.2760052421
 20
22.589603321
 10
-50.2733312035
 20
22.6013547011
 10
-50.2701872628
 20
22.6129903925
 10
-50.266578502
 20
22.6244915877
 10
-50.2625107538
 20
22.6358396967
 10
-50.2579905934
 20
22.6470163771
 10
-50.2530253268
 20
22.6580035633
 10
-50.2476229797
 20
22.6687834961
 10
-50.2417922842
 20
22.6793387515
 10
-50.2355426646
 20
22.6896522684
 10
-50.2288842227
 20
22.6997073765
 10
-50.2218277208
 20
22.7094878232
 10
-50.2143845646
 20
22.7189777998
 10
-50.206566785
 20
22.7281619673
 10
-50.1983870182
 20
22.7370254807
 10
-50.1898584856
 20
22.7455540136
 10
-50.1809949724
 20
22.7537337807
 10
-50.171810805
 20
22.7615515606
 10
-50.1623208284
 20
22.7689947172
 10
-50.1525403817
 20
22.7760512195
 10
-50.1424852735
 20
22.7827096619
 10
-50.1321717564
 20
22.7889592819
 10
-50.1216165008
 20
22.7947899779
 10
-50.1108365676
 20
22.8001923255
 10
-50.099849381
 20
22.8051575925
 10
-50.0886727003
 20
22.8096777533
 10
-50.0773245908
 20
22.8137455018
 10
-50.0658233951
 20
22.817354263
 10
-50.0541877033
 20
22.8204982039
 10
-50.0424363226
 20
22.8231722429
 10
-50.0305882474
 20
22.8253720576
 10
-50.0186626285
 20
22.8270940924
 10
-50.0066787418
 20
22.828335564
 10
-49.9946559576
 20
22.8290944656
 10
-49.9826137088
 20
22.8293695705
  0
LINE
  5
2EA
100
AcDbEntity
  8
RACCORDO
100
AcDbLine
 62
250
  6
CONTINUOUS
 10
-50.3370597512
 20
7.4308694193
 11
-50.3339223105
 21
7.5643898396
  0
LINE
  5
2EB
100
AcDbEntity
  8
RACCORDO
100
AcDbLine
 62
7
  6
CONTINUOUS
 10
-50.3357856324
 20
7.4524775375
 11
-50.3327712037
 21
7.5755435138
  0
LINE
  5
2EC
100
AcDbEntity
  8
RACCORDO
100
AcDbLine
 62
250
  6
CONTINUOUS
 10
-50.3339223105
 20
7.5643898396
 11
-50.3302810517
 21
7.693195156
  0
LINE
  5
2ED
100
AcDbEntity
  8
RACCORDO
100
AcDbLine
 62
7
  6
CONTINUOUS
 10
-50.3327712037
 20
7.5755435138
 11
-50.3294604274
 21
7.6897967286
  0
LINE
  5
2EE
100
AcDbEntity
  8
RACCORDO
100
AcDbLine
 62
250
  6
CONTINUOUS
 10
-50.3302810517
 20
7.693195156
 11
-50.3261528005
 21
7.8166608724
  0
LINE
  5
2EF
100
AcDbEntity
  8
RACCORDO
100
AcDbLine
 62
7
  6
CONTINUOUS
 10
-50.3294604274
 20
7.6897967286
 11
-50.3259053877
 21
7.7955134018
  0
LINE
  5
2F0
100
AcDbEntity
  8
RACCORDO
100
AcDbLine
 62
7
  6
CONTINUOUS
 10
-50.3259053877
 20
7.7955134018
 11
-50.3221544839
 21
7.8929373993
  0
LINE
  5
2F1
100
AcDbEntity
  8
RACCORDO
100
AcDbLine
 62
250
  6
CONTINUOUS
 10
-50.3261528005
 20
7.8166608724
 11
-50.3215610652
 21
7.934056108
  0
LINE
  5
2F2
100
AcDbEntity
  8
RACCORDO
100
AcDbLine
 62
250
  6
CONTINUOUS
 10
-50.3215610652
 20
7.934056108
 11
-50.3182550767
 21
8.0086154472
  0
LINE
  5
2F3
100
AcDbEntity
  8
RACCORDO
100
AcDbLine
 62
7
  6
CONTINUOUS
 10
-50.3221544839
 20
7.8929373993
 11
-50.318250691
 21
7.9823565723
  0
LINE
  5
2F4
100
AcDbEntity
  8
RACCORDO
100
AcDbLine
 62
250
  6
CONTINUOUS
 10
-50.3182550767
 20
8.0086154472
 11
-50.3147632575
 21
8.0799883261
  0
LINE
  5
2F5
100
AcDbEntity
  8
RACCORDO
100
AcDbLine
 62
7
  6
CONTINUOUS
 10
-50.318250691
 20
7.9823565723
 11
-50.3150434734
 21
8.0483367808
  0
LINE
  5
2F6
100
AcDbEntity
  8
RACCORDO
100
AcDbLine
 62
7
  6
CONTINUOUS
 10
-50.3150434734
 20
8.0483367808
 11
-50.3117814139
 21
8.1095480373
  0
LINE
  5
2F7
100
AcDbEntity
  8
RACCORDO
100
AcDbLine
 62
250
  6
CONTINUOUS
 10
-50.3147632575
 20
8.0799883261
 11
-50.3110915122
 21
8.1480528129
  0
LINE
  5
2F8
100
AcDbEntity
  8
RACCORDO
100
AcDbLine
 62
7
  6
CONTINUOUS
 10
-50.3117814139
 20
8.1095480373
 11
-50.3084816002
 21
8.1661488549
  0
LINE
  5
2F9
100
AcDbEntity
  8
RACCORDO
100
AcDbLine
 62
250
  6
CONTINUOUS
 10
-50.3110915122
 20
8.1480528129
 11
-50.3072486357
 21
8.2126340221
  0
LINE
  5
2FA
100
AcDbEntity
  8
RACCORDO
100
AcDbLine
 62
7
  6
CONTINUOUS
 10
-50.3084816002
 20
8.1661488549
 11
-50.3051601158
 21
8.2182930686
  0
LINE
  5
2FB
100
AcDbEntity
  8
RACCORDO
100
AcDbLine
 62
250
  6
CONTINUOUS
 10
-50.3072486357
 20
8.2126340221
 11
-50.3032458766
 21
8.2735460715
  0
LINE
  5
2FC
100
AcDbEntity
  8
RACCORDO
100
AcDbLine
 62
7
  6
CONTINUOUS
 10
-50.3051601158
 20
8.2182930686
 11
-50.3026647856
 21
8.2545614513
  0
LINE
  5
2FD
100
AcDbEntity
  8
RACCORDO
100
AcDbLine
 62
250
  6
CONTINUOUS
 10
-50.3032458766
 20
8.2735460715
 11
-50.2990909561
 21
8.3306715372
  0
LINE
  5
2FE
100
AcDbEntity
  8
RACCORDO
100
AcDbLine
 62
7
  6
CONTINUOUS
 10
-50.3026647856
 20
8.2545614513
 11
-50.3001734256
 21
8.288457004
  0
LINE
  5
2FF
100
AcDbEntity
  8
RACCORDO
100
AcDbLine
 62
7
  6
CONTINUOUS
 10
-50.3001734256
 20
8.288457004
 11
-50.2976933982
 21
8.3200321059
  0
LWPOLYLINE
  5
300
100
AcDbEntity
  8
RACCORDO
100
AcDbPolyline
 62
250
  6
CONTINUOUS
 90
7
 70
0
 10
-50.2990909561
 20
8.3306715372
 10
-50.294796534
 20
8.3838330875
 10
-50.2926004403
 20
8.4088891389
 10
-50.2903730951
 20
8.4329121096
 10
-50.2881143469
 20
8.4559046363
 10
-50.2858272982
 20
8.4778327458
 10
-50.283511602
 20
8.4986982884
  0
LINE
  5
301
100
AcDbEntity
  8
RACCORDO
100
AcDbLine
 62
7
  6
CONTINUOUS
 10
-50.2976933982
 20
8.3200321059
 11
-50.2952335774
 21
8.349318452
  0
LINE
  5
302
100
AcDbEntity
  8
RACCORDO
100
AcDbLine
 62
7
  6
CONTINUOUS
 10
-50.2952335774
 20
8.349318452
 11
-50.2928044552
 21
8.3763369826
  0
LWPOLYLINE
  5
303
100
AcDbEntity
  8
RACCORDO
100
AcDbPolyline
 62
250
  6
CONTINUOUS
 90
49
 70
0
 10
-50.3446000763
 20
22.6607900556
 10
-50.3431330691
 20
22.6762092409
 10
-50.3408569002
 20
22.6916133476
 10
-50.3377738771
 20
22.7069867386
 10
-50.3338871326
 20
22.7223140046
 10
-50.3292006015
 20
22.7375793902
 10
-50.323719019
 20
22.7527668163
 10
-50.3174479416
 20
22.767860678
 10
-50.310393739
 20
22.7828458553
 10
-50.3025635696
 20
22.7977071439
 10
-50.293965379
 20
22.8124294625
 10
-50.2846078922
 20
22.826997874
 10
-50.2745006046
 20
22.8413976012
 10
-50.2636537726
 20
22.8556140315
 10
-50.2520784027
 20
22.8696327406
 10
-50.2397862414
 20
22.883439512
 10
-50.226789762
 20
22.8970203397
 10
-50.2131021523
 20
22.910361439
 10
-50.1987373015
 20
22.9234492696
 10
-50.1837097862
 20
22.93627055
 10
-50.1680348553
 20
22.9488122713
 10
-50.1517284147
 20
22.9610617077
 10
-50.134807011
 20
22.9730064267
 10
-50.1172878152
 20
22.9846343105
 10
-50.099188605
 20
22.9959335693
 10
-50.0805277462
 20
23.0068927379
 10
-50.0613241748
 20
23.0175006951
 10
-50.0415973777
 20
23.0277466847
 10
-50.0213673724
 20
23.0376203127
 10
-50.000654687
 20
23.0471115569
 10
-49.9794803392
 20
23.0562107857
 10
-49.9578658155
 20
23.0649087654
 10
-49.9358330489
 20
23.0731966701
 10
-49.9134043968
 20
23.0810660903
 10
-49.8906026183
 20
23.0885090396
 10
-49.8674508513
 20
23.0955179664
 10
-49.8439725889
 20
23.1020857622
 10
-49.8201916551
 20
23.1082057615
 10
-49.7961321815
 20
23.113871755
 10
-49.7718185822
 20
23.119077999
 10
-49.7472755291
 20
23.123819211
 10
-49.722527927
 20
23.1280905792
 10
-49.6976008882
 20
23.1318877738
 10
-49.6725197074
 20
23.1352069432
 10
-49.647309835
 20
23.1380447177
 10
-49.6219968518
 20
23.1403982167
 10
-49.5966064433
 20
23.1422650516
 10
-49.5711643744
 20
23.1436433284
 10
-49.545696462
 20
23.1445316486
  0
LINE
  5
304
100
AcDbEntity
  8
RACCORDO
100
AcDbLine
 62
7
  6
CONTINUOUS
 10
-50.2928044552
 20
8.3763369826
 11
-50.2912086936
 21
8.3930906197
  0
LINE
  5
305
100
AcDbEntity
  8
RACCORDO
100
AcDbLine
 62
7
  6
CONTINUOUS
 10
-50.2912086936
 20
8.3930906197
 11
-50.2896368571
 21
8.4088372642
  0
LINE
  5
306
100
AcDbEntity
  8
RACCORDO
100
AcDbLine
 62
7
  6
CONTINUOUS
 10
-50.2896368571
 20
8.4088372642
 11
-50.2880933721
 21
8.4235803791
  0
LINE
  5
307
100
AcDbEntity
  8
RACCORDO
100
AcDbLine
 62
7
  6
CONTINUOUS
 10
-50.2880933721
 20
8.4235803791
 11
-50.2865835946
 21
8.4373192567
  0
LINE
  5
308
100
AcDbEntity
  8
RACCORDO
100
AcDbLine
 62
7
  6
CONTINUOUS
 10
-50.2865835946
 20
8.4373192567
 11
-50.2851145694
 21
8.4500424488
  0
LINE
  5
309
100
AcDbEntity
  8
RACCORDO
100
AcDbLine
 62
250
  6
CONTINUOUS
 10
-50.283511602
 20
8.4986982884
 11
-50.2811676052
 21
8.5184994137
  0
LINE
  5
30A
100
AcDbEntity
  8
RACCORDO
100
AcDbLine
 62
7
  6
CONTINUOUS
 10
-50.2851145694
 20
8.4500424488
 11
-50.2836928832
 21
8.4617482995
  0
LWPOLYLINE
  5
30B
100
AcDbEntity
  8
RACCORDO
100
AcDbPolyline
 62
250
  6
CONTINUOUS
 90
14
 70
0
 10
-50.2811676052
 20
8.5184994137
 10
-50.2787994503
 20
8.537196597
 10
-50.2764066106
 20
8.5547900126
 10
-50.2739896128
 20
8.5712794861
 10
-50.2715541793
 20
8.5866249699
 10
-50.2691001686
 20
8.6008219298
 10
-50.2666277222
 20
8.6138749
 10
-50.2641429878
 20
8.6257574353
 10
-50.2616458099
 20
8.6364644908
 10
-50.2591363441
 20
8.6460011115
 10
-50.2566212036
 20
8.6543559872
 10
-50.254102593
 20
8.6615253479
 10
-50.2515783079
 20
8.6675129636
 10
-50.2490483482
 20
8.6723188343
  0
LINE
  5
30C
100
AcDbEntity
  8
RACCORDO
100
AcDbLine
 62
7
  6
CONTINUOUS
 10
-50.2836928832
 20
8.4617482995
 11
-50.2823266461
 21
8.4724296081
  0
LINE
  5
30D
100
AcDbEntity
  8
RACCORDO
100
AcDbLine
 62
7
  6
CONTINUOUS
 10
-50.2823266461
 20
8.4724296081
 11
-50.2810269773
 21
8.4820649251
  0
LINE
  5
30E
100
AcDbEntity
  8
RACCORDO
100
AcDbLine
 62
7
  6
CONTINUOUS
 10
-50.2810269773
 20
8.4820649251
 11
-50.2798049834
 21
8.4906429237
  0
LWPOLYLINE
  5
30F
100
AcDbEntity
  8
RACCORDO
100
AcDbPolyline
 62
250
  6
CONTINUOUS
 90
46
 70
0
 10
-50.3939664069
 20
24.2174730565
 10
-50.3922262111
 20
24.2289943519
 10
-50.389572509
 20
24.2405024446
 10
-50.3860083416
 20
24.2519841469
 10
-50.3815377933
 20
24.2634263015
 10
-50.376165987
 20
24.2748157962
 10
-50.3698990786
 20
24.2861395793
 10
-50.3627442496
 20
24.2973846744
 10
-50.354709699
 20
24.3085381951
 10
-50.345804634
 20
24.3195873602
 10
-50.3360392593
 20
24.3305195079
 10
-50.3254247654
 20
24.3413221106
 10
-50.3139733162
 20
24.3519827889
 10
-50.3016980341
 20
24.3624893265
 10
-50.2886129862
 20
24.3728296833
 10
-50.274733167
 20
24.3829920099
 10
-50.2600744822
 20
24.3929646608
 10
-50.2446537298
 20
24.4027362078
 10
-50.2284885812
 20
24.4122954533
 10
-50.2115975607
 20
24.4216314429
 10
-50.1940000245
 20
24.4307334781
 10
-50.1757161385
 20
24.4395911284
 10
-50.1567668549
 20
24.4481942435
 10
-50.1371738887
 20
24.4565329645
 10
-50.1169596924
 20
24.4645977359
 10
-50.0961474302
 20
24.4723793157
 10
-50.074760952
 20
24.4798687868
 10
-50.0528247655
 20
24.4870575666
 10
-50.0303640084
 20
24.4939374171
 10
-50.0074044194
 20
24.5005004544
 10
-49.9839723092
 20
24.5067391576
 10
-49.9600945295
 20
24.5126463775
 10
-49.935798443
 20
24.5182153447
 10
-49.9111118918
 20
24.5234396776
 10
-49.8860631653
 20
24.5283133891
 10
-49.860680968
 20
24.5328308945
 10
-49.8349943865
 20
24.5369870168
 10
-49.8090328563
 20
24.5407769934
 10
-49.7828261279
 20
24.5441964811
 10
-49.7564042328
 20
24.5472415614
 10
-49.7297974491
 20
24.5499087448
 10
-49.7030362667
 20
24.5521949748
 10
-49.6761513525
 20
24.5540976316
 10
-49.6491735152
 20
24.5556145348
 10
-49.6221336699
 20
24.5567439461
 10
-49.5950628028
 20
24.5574845713
  0
LWPOLYLINE
  5
310
100
AcDbEntity
  8
RACCORDO
100
AcDbPolyline
 62
7
  6
CONTINUOUS
 90
10
 70
0
 10
-50.2798049834
 20
8.4906429237
 10
-50.2786756992
 20
8.498135863
 10
-50.2781520366
 20
8.5014612439
 10
-50.2776582002
 20
8.5045057277
 10
-50.2771963329
 20
8.5072685015
 10
-50.2767729384
 20
8.509724639
 10
-50.2763899078
 20
8.5118784593
 10
-50.2760496693
 20
8.5137317493
 10
-50.2757604526
 20
8.515256934
 10
-50.2756040087
 20
8.5160598115
  0
LINE
  5
311
100
AcDbEntity
  8
RACCORDO
100
AcDbLine
 62
250
  6
CONTINUOUS
 10
-50.2706863326
 20
8.5250870482
 11
-50.2764753078
 21
8.5073465314
  0
LINE
  5
312
100
AcDbEntity
  8
RACCORDO
100
AcDbLine
 62
250
  6
CONTINUOUS
 10
-50.3002015718
 20
22.4965478043
 11
-50.2960824341
 21
22.5082931549
  0
LINE
  5
313
100
AcDbEntity
  8
RACCORDO
100
AcDbLine
 62
250
  6
CONTINUOUS
 10
-50.3011229953
 20
22.493970845
 11
-50.3002015718
 21
22.4965478043
  0
LINE
  5
314
100
AcDbEntity
  8
RACCORDO
100
AcDbLine
 62
250
  6
CONTINUOUS
 10
-50.2960824341
 20
22.5082931549
 11
-50.2949815982
 21
22.5113738553
  0
LINE
  5
315
100
AcDbEntity
  8
RACCORDO
100
AcDbLine
 62
250
  6
CONTINUOUS
 10
-50.3020823342
 20
22.4913366658
 11
-50.3011229953
 21
22.493970845
  0
LINE
  5
316
100
AcDbEntity
  8
RACCORDO
100
AcDbLine
 62
250
  6
CONTINUOUS
 10
-50.2949815982
 20
22.5113738553
 11
-50.2942772769
 21
22.5133030567
  0
LINE
  5
317
100
AcDbEntity
  8
RACCORDO
100
AcDbLine
 62
250
  6
CONTINUOUS
 10
-50.2764753078
 20
8.5073465314
 11
-50.2777650344
 21
8.5038470987
  0
LWPOLYLINE
  5
318
100
AcDbEntity
  8
RACCORDO
100
AcDbPolyline
 62
250
  6
CONTINUOUS
 90
47
 70
0
 10
-50.2942772769
 20
22.5133030567
 10
-50.2935952593
 20
22.5151309241
 10
-50.293262055
 20
22.5160063055
 10
-50.2929340657
 20
22.5168560381
 10
-50.2926108572
 20
22.5176799019
 10
-50.2922923846
 20
22.5184779031
 10
-50.2919786929
 20
22.5192500355
 10
-50.2916694828
 20
22.5199960605
 10
-50.2913647564
 20
22.5207158806
 10
-50.2910645116
 20
22.5214095932
 10
-50.2907684438
 20
22.5220772516
 10
-50.290476566
 20
22.5227187619
 10
-50.2901888651
 20
22.5233342181
 10
-50.2899049966
 20
22.5239239547
 10
-50.2896249436
 20
22.5244879634
 10
-50.2893487229
 20
22.5250262525
 10
-50.2890760409
 20
22.5255391827
 10
-50.2888068836
 20
22.5260267442
 10
-50.2885412649
 20
22.5264889466
 10
-50.2882789321
 20
22.52692618
 10
-50.2880198828
 20
22.5273384235
 10
-50.2877641193
 20
22.5277256978
 10
-50.2875113967
 20
22.5280884556
 10
-50.2872617093
 20
22.5284266913
 10
-50.2870150626
 20
22.5287404104
 10
-50.2867712285
 20
22.5290300824
 10
-50.2865301988
 20
22.52929571
 10
-50.2862919816
 20
22.5295372905
 10
-50.2860563724
 20
22.5297552854
 10
-50.2858233688
 20
22.5299496971
 10
-50.2855929732
 20
22.5301205231
 10
-50.2853649886
 20
22.5302682175
 10
-50.2851394121
 20
22.5303927905
 10
-50.2849162466
 20
22.530494232
 10
-50.284695304
 20
22.5305729651
 10
-50.2844765764
 20
22.5306290044
 10
-50.2842600717
 20
22.5306623354
 10
-50.2840456257
 20
22.5306733383
 10
-50.2838332319
 20
22.5306620256
 10
-50.2836228967
 20
22.5306283849
 10
-50.283414475
 20
22.5305727592
 10
-50.2832079656
 20
22.5304951627
 10
-50.2830033697
 20
22.5303955813
 10
-50.2828005463
 20
22.5302743152
 10
-50.2825994482
 20
22.5301314648
 10
-50.2824001225
 20
22.5299669297
 10
-50.2822025692
 20
22.5297807101
  0
LINE
  5
319
100
AcDbEntity
  8
RACCORDO
100
AcDbLine
 62
250
  6
CONTINUOUS
 10
-50.2764753137
 20
-8.5073465145
 11
-50.2777656511
 21
-8.5038454248
  0
LWPOLYLINE
  5
31A
100
AcDbEntity
  8
RACCORDO
100
AcDbPolyline
 62
250
  6
CONTINUOUS
 90
63
 70
0
 10
-50.3048065279
 20
-22.4817858643
 10
-50.305349837
 20
-22.4802340953
 10
-50.3059050436
 20
-22.4786792281
 10
-50.3064731198
 20
-22.4771201248
 10
-50.3070578387
 20
-22.4755630763
 10
-50.3076584937
 20
-22.4740067847
 10
-50.3082757914
 20
-22.4724525478
 10
-50.3089156246
 20
-22.4709105509
 10
-50.3095833046
 20
-22.4693671147
 10
-50.3102735202
 20
-22.4678359185
 10
-50.3109762305
 20
-22.4663681846
 10
-50.311694459
 20
-22.4649638776
 10
-50.3124251822
 20
-22.4636230329
 10
-50.3131492888
 20
-22.4623969792
 10
-50.3138650126
 20
-22.4612983289
 10
-50.3145741198
 20
-22.4603144696
 10
-50.3152627972
 20
-22.4594588924
 10
-50.3159251398
 20
-22.4587423243
 10
-50.3165670526
 20
-22.4581540383
 10
-50.3171924376
 20
-22.4576753447
 10
-50.3178016393
 20
-22.4573045593
 10
-50.3183943132
 20
-22.4570433663
 10
-50.318973327
 20
-22.4568781285
 10
-50.3195390709
 20
-22.4568077817
 10
-50.3200911547
 20
-22.4568333901
 10
-50.3206312749
 20
-22.4569445094
 10
-50.3211595578
 20
-22.4571405538
 10
-50.321675877
 20
-22.4574221089
 10
-50.3221815508
 20
-22.457780488
 10
-50.3226766603
 20
-22.4582152504
 10
-50.3231611243
 20
-22.4587268367
 10
-50.3236360177
 20
-22.459307882
 10
-50.324101406
 20
-22.4599580536
 10
-50.3245572238
 20
-22.4606776842
 10
-50.3250043496
 20
-22.461460407
 10
-50.3254428109
 20
-22.462305903
 10
-50.3258725802
 20
-22.4632144912
 10
-50.3262944543
 20
-22.464180762
 10
-50.3267084777
 20
-22.4652044913
 10
-50.3271146059
 20
-22.4662859033
 10
-50.3275135017
 20
-22.4674202605
 10
-50.3279051877
 20
-22.468607341
 10
-50.3282896412
 20
-22.4698473669
 10
-50.3286674576
 20
-22.4711362668
 10
-50.3290386587
 20
-22.4724738521
 10
-50.3294032225
 20
-22.4738603114
 10
-50.3297616787
 20
-22.4752921401
 10
-50.3301140481
 20
-22.4767691836
 10
-50.3304603098
 20
-22.4782915966
 10
-50.3308009305
 20
-22.4798563377
 10
-50.3311359207
 20
-22.4814632316
 10
-50.3314652698
 20
-22.4831124536
 10
-50.3317894128
 20
-22.4848014889
 10
-50.3321083758
 20
-22.4865302769
 10
-50.3324221327
 20
-22.488298878
 10
-50.3327310394
 20
-22.4901049588
 10
-50.3330350927
 20
-22.4919483096
 10
-50.3333342959
 20
-22.4938291401
 10
-50.3336290147
 20
-22.4957457451
 10
-50.3339192528
 20
-22.4976979394
 10
-50.3342050065
 20
-22.4996859084
 10
-50.3344866305
 20
-22.5017085029
 10
-50.3350375818
 20
-22.5058579216
  0
LINE
  5
31B
100
AcDbEntity
  8
RACCORDO
100
AcDbLine
 62
250
  6
CONTINUOUS
 10
-50.2940159823
 20
-22.5150632416
 11
-50.2946776993
 21
-22.5131311089
  0
LWPOLYLINE
  5
31C
100
AcDbEntity
  8
RACCORDO
100
AcDbPolyline
 62
250
  6
CONTINUOUS
 90
3
 70
0
 10
-50.3032514874
 20
-22.4863849394
 10
-50.3037576614
 20
-22.4848669896
 10
-50.3048065279
 20
-22.4817858643
  0
LINE
  5
31D
100
AcDbEntity
  8
RACCORDO
100
AcDbLine
 62
250
  6
CONTINUOUS
 10
-50.2946776993
 20
-22.5131311089
 11
-50.2953613401
 21
-22.5110856565
  0
LINE
  5
31E
100
AcDbEntity
  8
RACCORDO
100
AcDbLine
 62
250
  6
CONTINUOUS
 10
-50.2706863375
 20
-8.5250870324
 11
-50.2764753137
 21
-8.5073465145
  0
LINE
  5
31F
100
AcDbEntity
  8
RACCORDO
100
AcDbLine
 62
250
  6
CONTINUOUS
 10
-50.2953613401
 20
-22.5110856565
 11
-50.2960679353
 21
-22.5089272149
  0
LINE
  5
320
100
AcDbEntity
  8
RACCORDO
100
AcDbLine
 62
250
  6
CONTINUOUS
 10
-50.302273599
 20
-22.4893744194
 11
-50.3032514874
 21
-22.4863849394
  0
LINE
  5
321
100
AcDbEntity
  8
RACCORDO
100
AcDbLine
 62
250
  6
CONTINUOUS
 10
-50.2960679353
 20
-22.5089272149
 11
-50.2971745238
 21
-22.5054798149
  0
LINE
  5
322
100
AcDbEntity
  8
RACCORDO
100
AcDbLine
 62
250
  6
CONTINUOUS
 10
-50.3008834463
 20
-22.4937150009
 11
-50.302273599
 21
-22.4893744194
  0
LINE
  5
323
100
AcDbEntity
  8
RACCORDO
100
AcDbLine
 62
250
  6
CONTINUOUS
 10
-50.2971745238
 20
-22.5054798149
 11
-50.3008834463
 21
-22.4937150009
  0
LWPOLYLINE
  5
324
100
AcDbEntity
  8
RACCORDO
100
AcDbPolyline
 62
7
  6
CONTINUOUS
 90
12
 70
0
 10
-50.2752012287
 20
-8.5180282493
 10
-50.2752348671
 20
-8.517872194
 10
-50.2753471241
 20
-8.517336463
 10
-50.2755278391
 20
-8.5164442757
 10
-50.2757665144
 20
-8.5152255125
 10
-50.2760597532
 20
-8.5136777459
 10
-50.2764050475
 20
-8.5117946949
 10
-50.2767945431
 20
-8.5096012165
 10
-50.2772257539
 20
-8.5070950443
 10
-50.2776968193
 20
-8.5042709017
 10
-50.2782017482
 20
-8.5011497309
 10
-50.2787382363
 20
-8.4977322329
  0
LINE
  5
325
100
AcDbEntity
  8
RACCORDO
100
AcDbLine
 62
7
  6
CONTINUOUS
 10
-50.2787382363
 20
-8.4977322329
 11
-50.2798997285
 21
-8.4899950215
  0
LWPOLYLINE
  5
326
100
AcDbEntity
  8
RACCORDO
100
AcDbPolyline
 62
250
  6
CONTINUOUS
 90
46
 70
0
 10
-50.3943042841
 20
-24.1245085149
 10
-50.3925818519
 20
-24.1367685704
 10
-50.3899450632
 20
-24.1490145638
 10
-50.3863969426
 20
-24.1612324492
 10
-50.3819415595
 20
-24.1734082128
 10
-50.3765840243
 20
-24.1855278891
 10
-50.370330482
 20
-24.197577577
 10
-50.3631881053
 20
-24.2095434558
 10
-50.3551650865
 20
-24.2214118006
 10
-50.3462706278
 20
-24.2331689987
 10
-50.336514931
 20
-24.2448015647
 10
-50.3259091859
 20
-24.2562961562
 10
-50.314465557
 20
-24.267639589
 10
-50.3021971701
 20
-24.2788188524
 10
-50.2891180968
 20
-24.289821124
 10
-50.2752433386
 20
-24.3006337842
 10
-50.2605888098
 20
-24.3112444311
 10
-50.2451713188
 20
-24.3216408943
 10
-50.2290085493
 20
-24.3318112494
 10
-50.2121190398
 20
-24.341743831
 10
-50.1945221623
 20
-24.3514272465
 10
-50.1762381002
 20
-24.3608503893
 10
-50.1572878252
 20
-24.3700024512
 10
-50.1376930728
 20
-24.3788729347
 10
-50.1174763181
 20
-24.3874516656
 10
-50.0966607493
 20
-24.3957288042
 10
-50.0752702417
 20
-24.4036948567
 10
-50.0533293298
 20
-24.4113406862
 10
-50.0308631797
 20
-24.4186575229
 10
-50.0078975596
 20
-24.4256369746
 10
-49.9844588109
 20
-24.432271036
 10
-49.9605738174
 20
-24.4385520978
 10
-49.936269975
 20
-24.4444729558
 10
-49.9115751597
 20
-24.4500268187
 10
-49.8865176964
 20
-24.4552073165
 10
-49.8611263254
 20
-24.4600085071
 10
-49.8354301704
 20
-24.4644248836
 10
-49.8094587046
 20
-24.4684513805
 10
-49.7832417168
 20
-24.4720833794
 10
-49.7568092776
 20
-24.4753167145
 10
-49.7301917046
 20
-24.4781476773
 10
-49.7034195278
 20
-24.4805730205
 10
-49.6765234547
 20
-24.4825899624
 10
-49.6495343345
 20
-24.4841961896
 10
-49.6224831235
 20
-24.4853898598
 10
-49.595400849
 20
-24.4861696037
  0
LINE
  5
327
100
AcDbEntity
  8
RACCORDO
100
AcDbLine
 62
7
  6
CONTINUOUS
 10
-50.2798997285
 20
-8.4899950215
 11
-50.2811650994
 21
-8.4810657182
  0
LINE
  5
328
100
AcDbEntity
  8
RACCORDO
100
AcDbLine
 62
7
  6
CONTINUOUS
 10
-50.2811650994
 20
-8.4810657182
 11
-50.2825225875
 21
-8.47093216
  0
LINE
  5
329
100
AcDbEntity
  8
RACCORDO
100
AcDbLine
 62
7
  6
CONTINUOUS
 10
-50.2825225875
 20
-8.47093216
 11
-50.2839630297
 21
-8.4595700939
  0
LINE
  5
32A
100
AcDbEntity
  8
RACCORDO
100
AcDbLine
 62
7
  6
CONTINUOUS
 10
-50.2839630297
 20
-8.4595700939
 11
-50.2854781506
 21
-8.4469528152
  0
LINE
  5
32B
100
AcDbEntity
  8
RACCORDO
100
AcDbLine
 62
7
  6
CONTINUOUS
 10
-50.2854781506
 20
-8.4469528152
 11
-50.2870627557
 21
-8.4330317668
  0
LWPOLYLINE
  5
32C
100
AcDbEntity
  8
RACCORDO
100
AcDbPolyline
 62
250
  6
CONTINUOUS
 90
6
 70
0
 10
-50.2835083085
 20
-8.498726967
 10
-50.2858242013
 20
-8.477861559
 10
-50.2881113878
 20
-8.4559339123
 10
-50.2903702391
 20
-8.4329420342
 10
-50.2925976538
 20
-8.4089200723
 10
-50.2947937701
 20
-8.3838655811
  0
LINE
  5
32D
100
AcDbEntity
  8
RACCORDO
100
AcDbLine
 62
250
  6
CONTINUOUS
 10
-50.3365284753
 20
22.5354400635
 11
-50.336006599
 21
22.5306124287
  0
LINE
  5
32E
100
AcDbEntity
  8
RACCORDO
100
AcDbLine
 62
250
  6
CONTINUOUS
 10
-50.337035073
 20
22.540386899
 11
-50.3365284753
 21
22.5354400635
  0
LINE
  5
32F
100
AcDbEntity
  8
RACCORDO
100
AcDbLine
 62
250
  6
CONTINUOUS
 10
-50.3375265583
 20
22.5454447963
 11
-50.337035073
 21
22.540386899
  0
LINE
  5
330
100
AcDbEntity
  8
RACCORDO
100
AcDbLine
 62
250
  6
CONTINUOUS
 10
-50.3380030963
 20
22.550605113
 11
-50.3375265583
 21
22.5454447963
  0
LINE
  5
331
100
AcDbEntity
  8
RACCORDO
100
AcDbLine
 62
250
  6
CONTINUOUS
 10
-50.3386900539
 20
22.5585221017
 11
-50.3380030963
 21
22.550605113
  0
LINE
  5
332
100
AcDbEntity
  8
RACCORDO
100
AcDbLine
 62
250
  6
CONTINUOUS
 10
-50.5004390743
 20
25.981908859
 11
-50.4777858935
 21
25.7160804407
  0
LWPOLYLINE
  5
333
100
AcDbEntity
  8
RACCORDO
100
AcDbPolyline
 62
250
  6
CONTINUOUS
 90
3
 70
0
 10
-50.5831177802
 20
26.9443136892
 10
-50.5480443225
 20
26.5304608082
 10
-50.5004390743
 20
25.981908859
  0
LWPOLYLINE
  5
334
100
AcDbEntity
  8
RACCORDO
100
AcDbPolyline
 62
250
  6
CONTINUOUS
 90
14
 70
0
 10
-50.4777858935
 20
25.7160804407
 10
-50.4571803422
 20
25.461060002
 10
-50.4478481418
 20
25.3388126176
 10
-50.4392268446
 20
25.2198679895
 10
-50.4313248651
 20
25.1044683068
 10
-50.4241774773
 20
24.9926888014
 10
-50.4178013824
 20
24.8843991959
 10
-50.4121773872
 20
24.7795326787
 10
-50.4073161045
 20
24.678179082
 10
-50.4032125648
 20
24.5802006633
 10
-50.3998333002
 20
24.4851955167
 10
-50.397168324
 20
24.3930188483
 10
-50.3952177062
 20
24.3037822164
 10
-50.3939663791
 20
24.2174730565
  0
LINE
  5
335
100
AcDbEntity
  8
RACCORDO
100
AcDbLine
 62
250
  6
CONTINUOUS
 10
-50.3393437587
 20
22.56662109
 11
-50.3386900539
 21
22.5585221017
  0
LINE
  5
336
100
AcDbEntity
  8
RACCORDO
100
AcDbLine
 62
250
  6
CONTINUOUS
 10
-50.3399643929
 20
22.5748676545
 11
-50.3393437587
 21
22.56662109
  0
LINE
  5
337
100
AcDbEntity
  8
RACCORDO
100
AcDbLine
 62
250
  6
CONTINUOUS
 10
-50.3405526164
 20
22.5832317017
 11
-50.3399643929
 21
22.5748676545
  0
LWPOLYLINE
  5
338
100
AcDbEntity
  8
RACCORDO
100
AcDbPolyline
 62
250
  6
CONTINUOUS
 90
38
 70
0
 10
-49.5456964685
 20
23.1445316001
 10
-49.5454585979
 20
23.140868364
 10
-49.5454023908
 20
23.1371155865
 10
-49.5455278472
 20
23.1332748568
 10
-49.5458139216
 20
23.1293692425
 10
-49.5462816595
 20
23.1253788262
 10
-49.5469941975
 20
23.1212418074
 10
-49.5479507626
 20
23.1169369762
 10
-49.5491521277
 20
23.1124918155
 10
-49.5506637485
 20
23.1079186223
 10
-49.5524890799
 20
23.1032203402
 10
-49.554624667
 20
23.0984006518
 10
-49.5571256004
 20
23.0934728212
 10
-49.5599969548
 20
23.0884410402
 10
-49.5632336556
 20
23.0833082234
 10
-49.5668755696
 20
23.0780855549
 10
-49.5709285438
 20
23.0727781129
 10
-49.5753867311
 20
23.0673884328
 10
-49.5802724571
 20
23.0619238303
 10
-49.5855886219
 20
23.0563924623
 10
-49.5913323255
 20
23.0507944225
 10
-49.5975171927
 20
23.0451253404
 10
-49.604133968
 20
23.0394015574
 10
-49.611191907
 20
23.0336163122
 10
-49.618732402
 20
23.0277326435
 10
-49.6267612623
 20
23.0217564698
 10
-49.6352726786
 20
23.0156961785
 10
-49.6442906153
 20
23.0095220552
 10
-49.653880927
 20
23.0032089877
 10
-49.6639777592
 20
22.9968028652
 10
-49.6744075121
 20
22.9903794357
 10
-49.6851144658
 20
22.9839855054
 10
-49.6961543404
 20
22.977588064
 10
-49.7075206964
 20
22.9711432081
 10
-49.719219698
 20
22.9646631462
 10
-49.731245181
 20
22.9581588025
 10
-49.7435722134
 20
22.9515915365
 10
-49.7562426355
 20
22.9449618137
  0
LINE
  5
339
100
AcDbEntity
  8
RACCORDO
100
AcDbLine
 62
250
  6
CONTINUOUS
 10
-50.3412893688
 20
22.5945409057
 11
-50.3405526164
 21
22.5832317017
  0
LINE
  5
33A
100
AcDbEntity
  8
RACCORDO
100
AcDbLine
 62
250
  6
CONTINUOUS
 10
-50.3419765339
 20
22.6060214666
 11
-50.3412893688
 21
22.5945409057
  0
LINE
  5
33B
100
AcDbEntity
  8
RACCORDO
100
AcDbLine
 62
250
  6
CONTINUOUS
 10
-50.3426190682
 20
22.617680729
 11
-50.3419765339
 21
22.6060214666
  0
LINE
  5
33C
100
AcDbEntity
  8
RACCORDO
100
AcDbLine
 62
250
  6
CONTINUOUS
 10
-50.3433689559
 20
22.6325889075
 11
-50.3426190682
 21
22.617680729
  0
LINE
  5
33D
100
AcDbEntity
  8
RACCORDO
100
AcDbLine
 62
250
  6
CONTINUOUS
 10
-50.3440698581
 20
22.6480044981
 11
-50.3433689559
 21
22.6325889075
  0
LINE
  5
33E
100
AcDbEntity
  8
RACCORDO
100
AcDbLine
 62
250
  6
CONTINUOUS
 10
-49.5569271185
 20
23.412247542
 11
-49.545696462
 21
23.1445316001
  0
LINE
  5
33F
100
AcDbEntity
  8
RACCORDO
100
AcDbLine
 62
250
  6
CONTINUOUS
 10
-50.3484169374
 20
22.7581319433
 11
-50.3440698581
 21
22.6480044981
  0
LINE
  5
340
100
AcDbEntity
  8
RACCORDO
100
AcDbLine
 62
250
  6
CONTINUOUS
 10
-49.5708714241
 20
23.7814951773
 11
-49.5569271185
 21
23.412247542
  0
LINE
  5
341
100
AcDbEntity
  8
RACCORDO
100
AcDbLine
 62
250
  6
CONTINUOUS
 10
-50.3629525142
 20
23.1572764301
 11
-50.3484169374
 21
22.7581319433
  0
LINE
  5
342
100
AcDbEntity
  8
RACCORDO
100
AcDbLine
 62
250
  6
CONTINUOUS
 10
-49.5835975576
 20
24.163665518
 11
-49.5708714241
 21
23.7814951773
  0
LINE
  5
343
100
AcDbEntity
  8
RACCORDO
100
AcDbLine
 62
250
  6
CONTINUOUS
 10
-50.3762926819
 20
23.5713598507
 11
-50.3629525142
 21
23.1572764301
  0
LINE
  5
344
100
AcDbEntity
  8
RACCORDO
100
AcDbLine
 62
250
  6
CONTINUOUS
 10
-49.5950628028
 20
24.557484522
 11
-49.5835975576
 21
24.163665518
  0
LINE
  5
345
100
AcDbEntity
  8
RACCORDO
100
AcDbLine
 62
250
  6
CONTINUOUS
 10
-50.3883923621
 20
23.9989694394
 11
-50.3762926819
 21
23.5713598507
  0
LINE
  5
346
100
AcDbEntity
  8
RACCORDO
100
AcDbLine
 62
250
  6
CONTINUOUS
 10
-50.3939664305
 20
24.2174730502
 11
-50.3883923621
 21
23.9989694394
  0
LINE
  5
347
100
AcDbEntity
  8
RACCORDO
100
AcDbLine
 62
250
  6
CONTINUOUS
 10
-49.9279864348
 20
22.7747422966
 11
-49.9279864348
 21
22.774057064
  0
LINE
  5
348
100
AcDbEntity
  8
RACCORDO
100
AcDbLine
 62
250
  6
CONTINUOUS
 10
-49.9279864348
 20
-22.7747422966
 11
-49.9279864348
 21
-22.774057064
  0
LINE
  5
349
100
AcDbEntity
  8
RACCORDO
100
AcDbLine
 62
250
  6
CONTINUOUS
 10
-50.3832945477
 20
-23.7346507168
 11
-50.3943044764
 21
-24.1245085019
  0
LINE
  5
34A
100
AcDbEntity
  8
RACCORDO
100
AcDbLine
 62
250
  6
CONTINUOUS
 10
-49.5836206048
 20
-24.1084698958
 11
-49.595400849
 21
-24.486169292
  0
LINE
  5
34B
100
AcDbEntity
  8
RACCORDO
100
AcDbLine
 62
250
  6
CONTINUOUS
 10
-50.3712680289
 20
-23.3557767542
 11
-50.3832945477
 21
-23.7346507168
  0
LINE
  5
34C
100
AcDbEntity
  8
RACCORDO
100
AcDbLine
 62
250
  6
CONTINUOUS
 10
-50.3582552632
 20
-22.9888674937
 11
-50.3712680289
 21
-23.3557767542
  0
LINE
  5
34D
100
AcDbEntity
  8
RACCORDO
100
AcDbLine
 62
250
  6
CONTINUOUS
 10
-49.5706853904
 20
-23.742199758
 11
-49.5836206048
 21
-24.1084698958
  0
LWPOLYLINE
  5
34E
100
AcDbEntity
  8
RACCORDO
100
AcDbPolyline
 62
250
  6
CONTINUOUS
 90
17
 70
0
 10
-49.595400849
 20
-24.486169292
 10
-49.5984737795
 20
-24.5671725757
 10
-49.6032825348
 20
-24.6509429777
 10
-49.609827115
 20
-24.7375082564
 10
-49.6180694879
 20
-24.8268254273
 10
-49.6280476856
 20
-24.918989253
 10
-49.6398758043
 20
-25.0142359787
 10
-49.6535647126
 20
-25.112580002
 10
-49.669103542
 20
-25.2140583066
 10
-49.6865737827
 20
-25.318946117
 10
-49.706008955
 20
-25.42729951
 10
-49.7273755387
 20
-25.5391104478
 10
-49.7506544636
 20
-25.6545609256
 10
-49.7759461101
 20
-25.7738601329
 10
-49.8031500979
 20
-25.8968363439
 10
-49.8319462157
 20
-26.0230918738
 10
-49.8625081406
 20
-26.1529629583
  0
LINE
  5
34F
100
AcDbEntity
  8
RACCORDO
100
AcDbLine
 62
250
  6
CONTINUOUS
 10
-49.5566336177
 20
-23.3884399525
 11
-49.5706853904
 21
-23.742199758
  0
LINE
  5
350
100
AcDbEntity
  8
RACCORDO
100
AcDbLine
 62
250
  6
CONTINUOUS
 10
-50.344160565
 20
-22.6318075048
 11
-50.3582552632
 21
-22.9888674937
  0
LINE
  5
351
100
AcDbEntity
  8
RACCORDO
100
AcDbLine
 62
250
  6
CONTINUOUS
 10
-49.5453862198
 20
-23.1319668478
 11
-49.5566336177
 21
-23.3884399525
  0
LINE
  5
352
100
AcDbEntity
  8
RACCORDO
100
AcDbLine
 62
250
  6
CONTINUOUS
 10
-50.3434910642
 20
-22.6168097485
 11
-50.344160565
 21
-22.6318075048
  0
LINE
  5
353
100
AcDbEntity
  8
RACCORDO
100
AcDbLine
 62
250
  6
CONTINUOUS
 10
-50.3427789979
 20
-22.6023902067
 11
-50.3434910642
 21
-22.6168097485
  0
LINE
  5
354
100
AcDbEntity
  8
RACCORDO
100
AcDbLine
 62
250
  6
CONTINUOUS
 10
-50.3421740386
 20
-22.5912019644
 11
-50.3427789979
 21
-22.6023902067
  0
LINE
  5
355
100
AcDbEntity
  8
RACCORDO
100
AcDbLine
 62
250
  6
CONTINUOUS
 10
-50.341532181
 20
-22.5802606715
 11
-50.3421740386
 21
-22.5912019644
  0
LINE
  5
356
100
AcDbEntity
  8
RACCORDO
100
AcDbLine
 62
250
  6
CONTINUOUS
 10
-50.3408460099
 20
-22.5694990885
 11
-50.341532181
 21
-22.5802606715
  0
LINE
  5
357
100
AcDbEntity
  8
RACCORDO
100
AcDbLine
 62
250
  6
CONTINUOUS
 10
-50.340298715
 20
-22.5615374893
 11
-50.3408460099
 21
-22.5694990885
  0
LINE
  5
358
100
AcDbEntity
  8
RACCORDO
100
AcDbLine
 62
250
  6
CONTINUOUS
 10
-50.3397214093
 20
-22.553681014
 11
-50.340298715
 21
-22.5615374893
  0
LINE
  5
359
100
AcDbEntity
  8
RACCORDO
100
AcDbLine
 62
250
  6
CONTINUOUS
 10
-50.3391122498
 20
-22.5459436284
 11
-50.3397214093
 21
-22.553681014
  0
LINE
  5
35A
100
AcDbEntity
  8
RACCORDO
100
AcDbLine
 62
250
  6
CONTINUOUS
 10
-50.3384700713
 20
-22.5383502131
 11
-50.3391122498
 21
-22.5459436284
  0
LINE
  5
35B
100
AcDbEntity
  8
RACCORDO
100
AcDbLine
 62
250
  6
CONTINUOUS
 10
-50.3380235727
 20
-22.5333871839
 11
-50.3384700713
 21
-22.5383502131
  0
LWPOLYLINE
  5
35C
100
AcDbEntity
  8
RACCORDO
100
AcDbPolyline
 62
250
  6
CONTINUOUS
 90
8
 70
0
 10
-50.7261589114
 20
-27.8872220167
 10
-50.7607459149
 20
-28.2644856965
 10
-50.7966020517
 20
-28.6460086997
 10
-50.8337380795
 20
-29.0322248136
 10
-50.8720395223
 20
-29.4226449773
 10
-50.9112419105
 20
-29.8158497011
 10
-50.9512880629
 20
-30.2118544977
 10
-50.9921110382
 20
-30.6105892669
  0
LINE
  5
35D
100
AcDbEntity
  8
RACCORDO
100
AcDbLine
 62
250
  6
CONTINUOUS
 10
-50.337562475
 20
-22.5285149717
 11
-50.3380235727
 21
-22.5333871839
  0
LINE
  5
35E
100
AcDbEntity
  8
RACCORDO
100
AcDbLine
 62
250
  6
CONTINUOUS
 10
-50.3370869378
 20
-22.5237464045
 11
-50.337562475
 21
-22.5285149717
  0
LINE
  5
35F
100
AcDbEntity
  8
RACCORDO
100
AcDbLine
 62
250
  6
CONTINUOUS
 10
-50.9921110382
 20
-30.6105892669
 11
-51.0750282932
 21
-31.4110798662
  0
LINE
  5
360
100
AcDbEntity
  8
RACCORDO
100
AcDbLine
 62
250
  6
CONTINUOUS
 10
-51.0750282932
 20
-31.4110798662
 11
-51.1592434865
 21
-32.2156955138
  0
LINE
  5
361
100
AcDbEntity
  8
RACCORDO
100
AcDbLine
 62
250
  6
CONTINUOUS
 10
-50.3365969287
 20
-22.5190909269
 11
-50.3370869378
 21
-22.5237464045
  0
LWPOLYLINE
  5
362
100
AcDbEntity
  8
RACCORDO
100
AcDbPolyline
 62
250
  6
CONTINUOUS
 90
6
 70
0
 10
-50.6233234006
 20
-26.8192806491
 10
-50.6394326718
 20
-26.9690081367
 10
-50.6545528668
 20
-27.1138377232
 10
-50.6684662043
 20
-27.2523034009
 10
-50.6812610938
 20
-27.385788301
 10
-50.7261589114
 20
-27.8872220167
  0
LINE
  5
363
100
AcDbEntity
  8
RACCORDO
100
AcDbLine
 62
250
  6
CONTINUOUS
 10
-50.524526852
 20
-25.9272801515
 11
-50.5564936276
 21
-26.2183838103
  0
LINE
  5
364
100
AcDbEntity
  8
RACCORDO
100
AcDbLine
 62
250
  6
CONTINUOUS
 10
-50.5564936276
 20
-26.2183838103
 11
-50.6233234006
 21
-26.8192806491
  0
LINE
  5
365
100
AcDbEntity
  8
RACCORDO
100
AcDbLine
 62
250
  6
CONTINUOUS
 10
-50.3360923097
 20
-22.5145538059
 11
-50.3365969287
 21
-22.5190909269
  0
LINE
  5
366
100
AcDbEntity
  8
RACCORDO
100
AcDbLine
 62
250
  6
CONTINUOUS
 10
-50.3355726839
 20
-22.5101408881
 11
-50.3360923097
 21
-22.5145538059
  0
LINE
  5
367
100
AcDbEntity
  8
RACCORDO
100
AcDbLine
 62
250
  6
CONTINUOUS
 10
-50.3350375818
 20
-22.5058579216
 11
-50.3355726839
 21
-22.5101408881
  0
LWPOLYLINE
  5
368
100
AcDbEntity
  8
RACCORDO
100
AcDbPolyline
 62
7
  6
CONTINUOUS
 90
12
 70
0
 10
-50.2693416755
 20
8.506548442
 10
-50.261865114
 20
8.5244489653
 10
-50.2551391832
 20
8.5424818287
 10
-50.2491596448
 20
8.560606623
 10
-50.2438999388
 20
8.578857659
 10
-50.2393638884
 20
8.5971780677
 10
-50.2355353713
 20
8.6155882287
 10
-50.2324083334
 20
8.6340857688
 10
-50.2299888669
 20
8.6525849996
 10
-50.2282681107
 20
8.6710691048
 10
-50.2272352548
 20
8.6895894452
 10
-50.2268900626
 20
8.708165587
  0
LINE
  5
369
100
AcDbEntity
  8
RACCORDO
100
AcDbLine
 62
250
  6
CONTINUOUS
 10
-50.2693416755
 20
8.506548442
 11
-50.2700454033
 21
8.5050526579
  0
LWPOLYLINE
  5
36A
100
AcDbEntity
  8
RACCORDO
100
AcDbPolyline
 62
7
  6
CONTINUOUS
 90
3
 70
0
 10
-50.2810246694
 20
8.4820813471
 10
-50.2775050691
 20
8.488955351
 10
-50.2693416755
 20
8.506548442
  0
LINE
  5
36B
100
AcDbEntity
  8
RACCORDO
100
AcDbLine
 62
250
  6
CONTINUOUS
 10
-50.2490483482
 20
8.6723188343
 11
-50.2275752953
 21
8.708165587
  0
LINE
  5
36C
100
AcDbEntity
  8
RACCORDO
100
AcDbLine
 62
250
  6
CONTINUOUS
 10
-50.2275752953
 20
-8.708165587
 11
-50.2490483482
 21
-8.6723188343
  0
LWPOLYLINE
  5
36D
100
AcDbEntity
  8
RACCORDO
100
AcDbPolyline
 62
250
  6
CONTINUOUS
 90
15
 70
0
 10
-50.2490483482
 20
-8.6723188343
 10
-50.2515776895
 20
-8.6675143245
 10
-50.2541013798
 20
-8.6615285422
 10
-50.2566194192
 20
-8.6543614872
 10
-50.2591339856
 20
-8.6460095778
 10
-50.261642901
 20
-8.6364763958
 10
-50.2641396317
 20
-8.6257726868
 10
-50.2666240492
 20
-8.6138933619
 10
-50.269096282
 20
-8.6008435101
 10
-50.2715501815
 20
-8.586649143
 10
-50.2739856274
 20
-8.5713055454
 10
-50.27640274
 20
-8.5548174327
 10
-50.2787957324
 20
-8.5372249619
 10
-50.2811640806
 20
-8.5185281435
 10
-50.2835083085
 20
-8.498726967
  0
LWPOLYLINE
  5
36E
100
AcDbEntity
  8
RACCORDO
100
AcDbPolyline
 62
7
  6
CONTINUOUS
 90
3
 70
0
 10
-50.2810225878
 20
-8.4820854124
 10
-50.2775050691
 20
-8.488955351
 10
-50.2693416755
 20
-8.506548442
  0
LINE
  5
36F
100
AcDbEntity
  8
RACCORDO
100
AcDbLine
 62
250
  6
CONTINUOUS
 10
-50.2693416755
 20
-8.506548442
 11
-50.2700454027
 21
-8.5050526592
  0
LWPOLYLINE
  5
370
100
AcDbEntity
  8
RACCORDO
100
AcDbPolyline
 62
7
  6
CONTINUOUS
 90
12
 70
0
 10
-50.2693416755
 20
-8.506548442
 10
-50.261865114
 20
-8.5244489653
 10
-50.2551391832
 20
-8.5424818287
 10
-50.2491596448
 20
-8.560606623
 10
-50.2438999388
 20
-8.578857659
 10
-50.2393638884
 20
-8.5971780677
 10
-50.2355353713
 20
-8.6155882287
 10
-50.2324083334
 20
-8.6340857688
 10
-50.2299888669
 20
-8.6525849996
 10
-50.2282681107
 20
-8.6710691047
 10
-50.2272352548
 20
-8.6895894452
 10
-50.2268900626
 20
-8.708165587
  0
LWPOLYLINE
  5
371
100
AcDbEntity
  8
RACCORDO
100
AcDbPolyline
 62
250
  6
CONTINUOUS
 90
63
 70
0
 10
-50.3337598058
 20
22.5125949485
 10
-50.3334594243
 20
22.5104946604
 10
-50.3331544275
 20
22.5084288214
 10
-50.3328444862
 20
22.506399268
 10
-50.3325296092
 20
22.5044058818
 10
-50.3322097877
 20
22.5024487813
 10
-50.3318846659
 20
22.5005301583
 10
-50.3315542633
 20
22.4986499326
 10
-50.3312185604
 20
22.4968081844
 10
-50.3308771428
 20
22.4950073467
 10
-50.3305300223
 20
22.4932472681
 10
-50.330177187
 20
22.4915280999
 10
-50.3298181864
 20
22.4898527299
 10
-50.3294530386
 20
22.4882210117
 10
-50.3290817254
 20
22.4866330916
 10
-50.3287037418
 20
22.4850922958
 10
-50.3283191028
 20
22.4835984385
 10
-50.3279277933
 20
22.4821517056
 10
-50.3275292635
 20
22.4807559812
 10
-50.3271235422
 20
22.4794110932
 10
-50.3267106004
 20
22.4781172138
 10
-50.3262898013
 20
22.476878743
 10
-50.3258611722
 20
22.4756954543
 10
-50.3254246858
 20
22.4745675743
 10
-50.3249796229
 20
22.4735001834
 10
-50.324526009
 20
22.4724930119
 10
-50.3240638187
 20
22.4715463296
 10
-50.3235922567
 20
22.4706660256
 10
-50.323111376
 20
22.4698518246
 10
-50.3226211235
 20
22.4691040019
 10
-50.3221205457
 20
22.468429273
 10
-50.3216097363
 20
22.4678272911
 10
-50.3210886016
 20
22.467298403
 10
-50.3205559062
 20
22.4668503644
 10
-50.3200116851
 20
22.4664826829
 10
-50.3194559034
 20
22.4661958509
 10
-50.3188872211
 20
22.465999102
 10
-50.3183063251
 20
22.46589152
 10
-50.3177125285
 20
22.4658740211
 10
-50.3171024306
 20
22.4659585872
 10
-50.3164754387
 20
22.4661443478
 10
-50.3158321456
 20
22.4664321734
 10
-50.3151709287
 20
22.4668366571
 10
-50.3144875352
 20
22.4673643695
 10
-50.3137862181
 20
22.46800874
 10
-50.3130781139
 20
22.4687646501
 10
-50.3123613968
 20
22.4696425063
 10
-50.3116378926
 20
22.4706319021
 10
-50.3109242163
 20
22.4716964985
 10
-50.3102226749
 20
22.4728385243
 10
-50.3095309614
 20
22.4740557507
 10
-50.3088587694
 20
22.4753051524
 10
-50.3082104028
 20
22.4765782301
 10
-50.3075815577
 20
22.4778834831
 10
-50.3069690166
 20
22.4792033835
 10
-50.3063727757
 20
22.4805353639
 10
-50.3057928389
 20
22.4818819917
 10
-50.3052259996
 20
22.4832334411
 10
-50.3046716061
 20
22.4845896619
 10
-50.3041303102
 20
22.4859507044
 10
-50.3036008603
 20
22.4873068935
 10
-50.3030833088
 20
22.4886570649
 10
-50.3020823342
 20
22.4913366658
  0
LINE
  5
372
100
AcDbEntity
  8
RACCORDO
100
AcDbLine
 62
250
  6
CONTINUOUS
 10
-50.3343466871
 20
22.5168982047
 11
-50.3337598058
 21
22.5125949485
  0
LINE
  5
373
100
AcDbEntity
  8
RACCORDO
100
AcDbLine
 62
250
  6
CONTINUOUS
 10
-50.3349162877
 20
22.5213367919
 11
-50.3343466871
 21
22.5168982047
  0
LINE
  5
374
100
AcDbEntity
  8
RACCORDO
100
AcDbLine
 62
250
  6
CONTINUOUS
 10
-51.1592434883
 20
32.215695144
 11
-51.0811552429
 21
31.5636417857
  0
LINE
  5
375
100
AcDbEntity
  8
RACCORDO
100
AcDbLine
 62
250
  6
CONTINUOUS
 10
-50.3354692766
 20
22.5259089061
 11
-50.3349162877
 21
22.5213367919
  0
LWPOLYLINE
  5
376
100
AcDbEntity
  8
RACCORDO
100
AcDbPolyline
 62
250
  6
CONTINUOUS
 90
15
 70
0
 10
-51.0811552429
 20
31.5636417857
 10
-51.0041061556
 20
30.9144287313
 10
-50.966086965
 20
30.5908615973
 10
-50.9286993193
 20
30.2693347299
 10
-50.8919992389
 20
29.9499239806
 10
-50.8560290118
 20
29.6325997655
 10
-50.821005098
 20
29.3184140503
 10
-50.7869751567
 20
29.0074337948
 10
-50.7539759031
 20
28.6996335226
 10
-50.7221839772
 20
28.3959248536
 10
-50.6916405366
 20
28.0963981072
 10
-50.6623716758
 20
27.8010030205
 10
-50.6345038068
 20
27.510435974
 10
-50.6080870088
 20
27.2249398943
 10
-50.5831177802
 20
26.9443136892
  0
LINE
  5
377
100
AcDbEntity
  8
RACCORDO
100
AcDbLine
 62
250
  6
CONTINUOUS
 10
-50.336006599
 20
22.5306124287
 11
-50.3354692766
 21
22.5259089061
  0
LWPOLYLINE
  5
378
100
AcDbEntity
  8
RACCORDO
100
AcDbPolyline
 62
250
  6
CONTINUOUS
 90
13
 70
0
 10
-50.2055568799
 20
-27.6112964501
 10
-50.2738042936
 20
-27.9772877074
 10
-50.3445221244
 20
-28.3474097068
 10
-50.4177103725
 20
-28.7216122402
 10
-50.4936229364
 20
-29.1002734389
 10
-50.5720059175
 20
-29.48290397
 10
-50.6520976195
 20
-29.8681466489
 10
-50.7339317157
 20
-30.2559664408
 10
-50.8174745329
 20
-30.6462671935
 10
-50.9018633555
 20
-31.0375976734
 10
-50.9868106116
 20
-31.429428707
 10
-51.0726038732
 20
-31.8221511882
 10
-51.1592431401
 20
-32.2156939465
  0
LINE
  5
379
100
AcDbEntity
  8
RACCORDO
100
AcDbLine
 62
250
  6
CONTINUOUS
 10
-49.8625081406
 20
-26.1529629583
 11
-49.9275671385
 21
-26.4211303686
  0
LWPOLYLINE
  5
37A
100
AcDbEntity
  8
RACCORDO
100
AcDbPolyline
 62
250
  6
CONTINUOUS
 90
9
 70
0
 10
-49.9275671385
 20
-26.4211303686
 10
-49.9959461618
 20
-26.6972450425
 10
-50.0299460528
 20
-26.8356056502
 10
-50.0634566822
 20
-26.9737805885
 10
-50.0964022471
 20
-27.111256126
 10
-50.1272393855
 20
-27.2441877864
 10
-50.1554536434
 20
-27.3712427416
 10
-50.1815594749
 20
-27.4936281981
 10
-50.2055568799
 20
-27.6112964501
  0
LWPOLYLINE
  5
37B
100
AcDbEntity
  8
0
100
AcDbPolyline
 62
7
  6
CONTINUOUS
 90
3
 70
0
 43
0.3500000006
 10
-3.2142856836
 20
51.8928551788
 10
-2.3571427875
 20
52.750002182
 10
-2.3571427875
 20
49.7500012665
  0
LWPOLYLINE
  5
37C
100
AcDbEntity
  8
RACCORDO
100
AcDbPolyline
 62
250
  6
CONTINUOUS
 90
3
 70
0
 10
-49.7562426355
 20
22.9449618137
 10
-49.7823376743
 20
22.9316339745
 10
-49.7957320181
 20
22.9249069917
  0
LWPOLYLINE
  5
37D
100
AcDbEntity
  8
RACCORDO
100
AcDbPolyline
 62
250
  6
CONTINUOUS
 90
21
 70
0
 10
-49.9545484221
 20
22.8482199466
 10
-49.9585079827
 20
22.8462167979
 10
-49.9621123342
 20
22.8443723061
 10
-49.9653626734
 20
22.8426778517
 10
-49.9682578034
 20
22.8411249187
 10
-49.9708526866
 20
22.8397033242
 10
-49.9731486911
 20
22.838405471
 10
-49.9751444487
 20
22.8372238262
 10
-49.9768908166
 20
22.8361493489
 10
-49.9783894643
 20
22.8351751306
 10
-49.9796387224
 20
22.8342949623
 10
-49.9806844393
 20
22.8335017134
 10
-49.9815275801
 20
22.8327890977
 10
-49.9821671798
 20
22.8321518899
 10
-49.9826461913
 20
22.831584949
 10
-49.9829648619
 20
22.8310832116
 10
-49.9831229444
 20
22.8306411489
 10
-49.9831626493
 20
22.8302532949
 10
-49.9830980467
 20
22.8299148903
 10
-49.9829150665
 20
22.829621717
 10
-49.9826137088
 20
22.8293695705
  0
LINE
  5
37E
100
AcDbEntity
  8
RACCORDO
100
AcDbLine
 62
250
  6
CONTINUOUS
 10
-49.9453890011
 20
22.8527458382
 11
-49.9545484221
 21
22.8482199466
  0
LINE
  5
37F
100
AcDbEntity
  8
RACCORDO
100
AcDbLine
 62
250
  6
CONTINUOUS
 10
-49.7957320181
 20
22.9249069917
 11
-49.8224629983
 21
22.9117461903
  0
LINE
  5
380
100
AcDbEntity
  8
RACCORDO
100
AcDbLine
 62
250
  6
CONTINUOUS
 10
-49.9345140099
 20
22.8580315754
 11
-49.9453890011
 21
22.8527458382
  0
LINE
  5
381
100
AcDbEntity
  8
RACCORDO
100
AcDbLine
 62
250
  6
CONTINUOUS
 10
-49.8224629983
 20
22.9117461903
 11
-49.8476524999
 21
22.8995189789
  0
LINE
  5
382
100
AcDbEntity
  8
RACCORDO
100
AcDbLine
 62
250
  6
CONTINUOUS
 10
-49.8476524999
 20
22.8995189789
 11
-49.9345140099
 21
22.8580315754
  0
LWPOLYLINE
  5
383
100
AcDbEntity
  8
RACCORDO
100
AcDbPolyline
 62
250
  6
CONTINUOUS
 90
28
 70
0
 10
-50.5596200065
 20
26.6685813041
 10
-50.5429516432
 20
26.6742501657
 10
-50.525590174
 20
26.6799532919
 10
-50.5075554121
 20
26.6856841741
 10
-50.488867939
 20
26.6914362723
 10
-50.4695490811
 20
26.6972030219
 10
-50.4496208854
 20
26.702977842
 10
-50.4291060942
 20
26.7087541421
 10
-50.4080281193
 20
26.7145253304
 10
-50.3864110153
 20
26.7202848206
 10
-50.3642794519
 20
26.7260260399
 10
-50.3416586859
 20
26.7317424364
 10
-50.3185745325
 20
26.7374274863
 10
-50.2950533357
 20
26.743074702
 10
-50.2711219382
 20
26.7486776386
 10
-50.246807651
 20
26.754229902
 10
-50.2221382217
 20
26.7597251558
 10
-50.1971418037
 20
26.7651571289
 10
-50.171846923
 20
26.7705196222
 10
-50.1462824467
 20
26.7758065159
 10
-50.1204775492
 20
26.7810117764
 10
-50.0944616796
 20
26.7861294636
 10
-50.0682645275
 20
26.791153737
 10
-50.0419159895
 20
26.7960788629
 10
-50.015446135
 20
26.8008992205
 10
-49.9888851716
 20
26.805609309
 10
-49.9622634113
 20
26.8102037529
 10
-49.9356112352
 20
26.8146773091
  0
LINE
  5
384
100
AcDbEntity
  8
0
100
AcDbLine
 62
7
  6
CONTINUOUS
 10
-64.1292815281
 20
-41.0
 11
64.1292815281
 21
-41.0
  0
LINE
  5
385
100
AcDbEntity
  8
0
100
AcDbLine
 62
250
  6
CONTINUOUS
 10
64.1292815281
 20
-40.7622148997
 11
-64.1292815281
 21
-40.7622148997
  0
LWPOLYLINE
  5
386
100
AcDbEntity
  8
0
100
AcDbPolyline
 62
250
  6
CONTINUOUS
 90
82
 70
0
 10
-64.1292815281
 20
-40.7622148997
 10
-64.2687501718
 20
-40.7609577729
 10
-64.4081744023
 20
-40.757186814
 10
-64.5475087674
 20
-40.7509032033
 10
-64.686707565
 20
-40.7421089516
 10
-64.8257256918
 20
-40.7308068911
 10
-64.9645186566
 20
-40.7170006253
 10
-65.1030414085
 20
-40.7006945455
 10
-65.241248577
 20
-40.6818939296
 10
-65.3790953212
 20
-40.6606048836
 10
-65.5165366205
 20
-40.6368342837
 10
-65.6535277302
 20
-40.6105898142
 10
-65.7900244228
 20
-40.5818799788
 10
-65.9259820645
 20
-40.5507140796
 10
-66.0613564393
 20
-40.5171021919
 10
-66.196104204
 20
-40.4810551205
 10
-66.3301814451
 20
-40.4425844935
 10
-66.4635443879
 20
-40.4017027748
 10
-66.5961502159
 20
-40.3584231353
 10
-66.7279556807
 20
-40.3127595467
 10
-66.8589177595
 20
-40.2647267941
 10
-66.9889943559
 20
-40.214340371
 10
-67.1181430623
 20
-40.161616538
 10
-67.2463216815
 20
-40.1065723774
 10
-67.3734888799
 20
-40.0492257063
 10
-67.4996031067
 20
-39.9895950832
 10
-67.6246232266
 20
-39.9276998007
 10
-67.7485090378
 20
-39.8635598428
 10
-67.8712201202
 20
-39.7971959309
 10
-67.9927163579
 20
-39.7286295757
 10
-68.1129585709
 20
-39.6578829826
 10
-68.2319074579
 20
-39.5849790543
 10
-68.3495241768
 20
-39.5099413963
 10
-68.4657708614
 20
-39.4327942756
 10
-68.5806095601
 20
-39.3535626322
 10
-68.6940026936
 20
-39.2722721649
 10
-68.8059136379
 20
-39.1889492561
 10
-68.9163057826
 20
-39.1036209033
 10
-69.0251430516
 20
-39.0163147492
 10
-69.1323903607
 20
-38.9270590837
 10
-69.2380126617
 20
-38.8358827894
 10
-69.3419753643
 20
-38.7428154551
 10
-69.4442448639
 20
-38.6478873328
 10
-69.5447876777
 20
-38.551129201
 10
-69.6435709135
 20
-38.452572428
 10
-69.7405626968
 20
-38.3522490097
 10
-69.8357312966
 20
-38.2501914401
 10
-69.9290455185
 20
-38.1464328574
 10
-70.0204751872
 20
-38.0410070378
 10
-70.109990345
 20
-37.933948182
 10
-70.1975616699
 20
-37.8252910261
 10
-70.2831608815
 20
-37.7150709176
 10
-70.366759943
 20
-37.6033235877
 10
-70.4483314255
 20
-37.4900853394
 10
-70.5278489462
 20
-37.3753930948
 10
-70.6052864212
 20
-37.2592840885
 10
-70.6806184563
 20
-37.141796014
 10
-70.7538207305
 20
-37.0229671471
 10
-70.8248692298
 20
-36.9028360518
 10
-70.8937406228
 20
-36.7814417612
 10
-70.9604126758
 20
-36.6588238629
 10
-71.0248635026
 20
-36.5350221591
 10
-71.0870719202
 20
-36.4100768882
 10
-71.1470178506
 20
-36.2840288435
 10
-71.2046816048
 20
-36.1569189436
 10
-71.2600442099
 20
-36.02878852
 10
-71.3130877985
 20
-35.8996794797
 10
-71.3637949137
 20
-35.7696338007
 10
-71.4121488812
 20
-35.6386937253
 10
-71.4581341704
 20
-35.5069019876
 10
-71.5017356373
 20
-35.3743014312
 10
-71.5429389135
 20
-35.2409351481
 10
-71.5817308094
 20
-35.1068466106
 10
-71.6180985427
 20
-34.9720793018
 10
-71.6520300788
 20
-34.8366771352
 10
-71.6835145595
 20
-34.7006845326
 10
-71.7125415745
 20
-34.5641458037
 10
-71.739101527
 20
-34.4271052447
 10
-71.763186003
 20
-34.2896074953
 10
-71.7847871374
 20
-34.1516972806
 10
-71.8038976122
 20
-34.0134194191
 10
-71.8205110488
 20
-33.8748188837
  0
LINE
  5
387
100
AcDbEntity
  8
RACCORDO
100
AcDbLine
 62
250
  6
CONTINUOUS
 10
-49.9343084647
 20
-22.8580751164
 11
-49.8374937792
 21
-22.9022787255
  0
LINE
  5
388
100
AcDbEntity
  8
RACCORDO
100
AcDbLine
 62
250
  6
CONTINUOUS
 10
-49.9450717765
 20
-22.8530850289
 11
-49.9343084647
 21
-22.8580751164
  0
LINE
  5
389
100
AcDbEntity
  8
RACCORDO
100
AcDbLine
 62
250
  6
CONTINUOUS
 10
-49.8374937792
 20
-22.9022787255
 11
-49.8121150747
 21
-22.9140607162
  0
LWPOLYLINE
  5
38A
100
AcDbEntity
  8
RACCORDO
100
AcDbPolyline
 62
250
  6
CONTINUOUS
 90
43
 70
0
 10
-49.8121150747
 20
-22.9140607162
 10
-49.7864819262
 20
-22.9262179156
 10
-49.7737846458
 20
-22.9323128197
 10
-49.7613207241
 20
-22.9383954036
 10
-49.7491303625
 20
-22.9444332076
 10
-49.7371733596
 20
-22.9504266881
 10
-49.7255210069
 20
-22.9563869661
 10
-49.7142061614
 20
-22.9622888249
 10
-49.7031959661
 20
-22.968132731
 10
-49.6924631413
 20
-22.9739746321
 10
-49.6819848299
 20
-22.9798223986
 10
-49.671783889
 20
-22.9856542509
 10
-49.6619016109
 20
-22.9914869961
 10
-49.6522946588
 20
-22.9973478942
 10
-49.6430063696
 20
-23.0031996611
 10
-49.6342080453
 20
-23.0089603132
 10
-49.6259718001
 20
-23.0145810093
 10
-49.61822552
 20
-23.0200932266
 10
-49.6109241651
 20
-23.0255342985
 10
-49.604064229
 20
-23.030903237
 10
-49.5976492183
 20
-23.0361900021
 10
-49.5916446131
 20
-23.041421394
 10
-49.5860437306
 20
-23.0466028378
 10
-49.5808532537
 20
-23.0517210782
 10
-49.5760587111
 20
-23.0567762563
 10
-49.5716636607
 20
-23.0617675518
 10
-49.5676645446
 20
-23.0666887938
 10
-49.5640362175
 20
-23.0715322818
 10
-49.5607837182
 20
-23.0762956029
 10
-49.5579020079
 20
-23.0809746433
 10
-49.5553508249
 20
-23.0855590569
 10
-49.5531341195
 20
-23.0900468977
 10
-49.5512479413
 20
-23.0944339954
 10
-49.549640178
 20
-23.0987064717
 10
-49.5483138677
 20
-23.1028594592
 10
-49.5472659723
 20
-23.1068920072
 10
-49.546435265
 20
-23.1107960001
 10
-49.5458199783
 20
-23.1145453295
 10
-49.5454218796
 20
-23.1181606876
 10
-49.5451850449
 20
-23.1217052262
 10
-49.5450908328
 20
-23.1251995185
 10
-49.5451578846
 20
-23.1286204882
 10
-49.5453862003
 20
-23.1319668478
  0
LWPOLYLINE
  5
38B
100
AcDbEntity
  8
RACCORDO
100
AcDbPolyline
 62
250
  6
CONTINUOUS
 90
19
 70
0
 10
-51.1592431845
 20
32.2156939465
 10
-51.0791954526
 20
31.8990960093
 10
-50.99982079
 20
31.5830155123
 10
-50.9211191967
 20
31.2675125362
 10
-50.8428540176
 20
30.9522931064
 10
-50.7652619078
 20
30.6377683908
 10
-50.6890528328
 20
30.3250561881
 10
-50.6142575524
 20
30.0142551971
 10
-50.5408453067
 20
29.7053784684
 10
-50.4694337814
 20
29.3994133348
 10
-50.4000600609
 20
29.096445892
 10
-50.3326870608
 20
28.7964863476
 10
-50.2678212136
 20
28.5004021075
 10
-50.205508292
 20
28.208289502
 10
-50.1457025233
 20
27.92012653
 10
-50.0887730219
 20
27.6365944795
 10
-50.0348428257
 20
27.357935902
 10
-49.9837888968
 20
27.08395703
 10
-49.9356112352
 20
26.8146773088
  0
LINE
  5
38C
100
AcDbEntity
  8
RACCORDO
100
AcDbLine
 62
250
  6
CONTINUOUS
 10
-49.8873762227
 20
26.5618442295
 11
-49.8145009205
 21
26.1843666778
  0
LWPOLYLINE
  5
38D
100
AcDbEntity
  8
RACCORDO
100
AcDbPolyline
 62
250
  6
CONTINUOUS
 90
17
 70
0
 10
-49.8145009205
 20
26.1843666778
 10
-49.7909463311
 20
26.0609236571
 10
-49.7683271667
 20
25.9398935608
 10
-49.7465331469
 20
25.8210227413
 10
-49.7260552307
 20
25.7051797092
 10
-49.7069938208
 20
25.5925707364
 10
-49.6892485144
 20
25.4829736065
 10
-49.6730090626
 20
25.3765960263
 10
-49.658331972
 20
25.273505739
 10
-49.645160736
 20
25.173598447
 10
-49.6335155853
 20
25.0768178069
 10
-49.623428083
 20
24.9832390632
 10
-49.6148666659
 20
24.8927394282
 10
-49.6077568753
 20
24.8049685119
 10
-49.6020738914
 20
24.719796754
 10
-49.5978425339
 20
24.6373100543
 10
-49.5950628028
 20
24.557484522
  0
LINE
  5
38E
100
AcDbEntity
  8
RACCORDO
100
AcDbLine
 62
250
  6
CONTINUOUS
 10
-49.9356112352
 20
26.8146773088
 11
-49.8873762227
 21
26.5618442295
  0
LINE
  5
38F
100
AcDbEntity
  8
RACCORDO
100
AcDbLine
 62
250
  6
CONTINUOUS
 10
50.6928959722
 20
-27.5142501981
 11
50.652624782
 21
-27.5232517495
  0
LINE
  5
390
100
AcDbEntity
  8
RACCORDO
100
AcDbLine
 62
250
  6
CONTINUOUS
 10
50.652624782
 20
-27.5232517495
 11
50.6105494609
 21
-27.5324102672
  0
LINE
  5
391
100
AcDbEntity
  8
RACCORDO
100
AcDbLine
 62
250
  6
CONTINUOUS
 10
50.6105494609
 20
-27.5324102672
 11
50.5668398026
 21
-27.5416887923
  0
LINE
  5
392
100
AcDbEntity
  8
RACCORDO
100
AcDbLine
 62
250
  6
CONTINUOUS
 10
50.5668398026
 20
-27.5416887923
 11
50.5216721966
 21
-27.5510498816
  0
LINE
  5
393
100
AcDbEntity
  8
RACCORDO
100
AcDbLine
 62
250
  6
CONTINUOUS
 10
50.5216721966
 20
-27.5510498816
 11
50.4752289155
 21
-27.5604557586
  0
LINE
  5
394
100
AcDbEntity
  8
RACCORDO
100
AcDbLine
 62
250
  6
CONTINUOUS
 10
50.4752289155
 20
-27.5604557586
 11
50.4035833079
 21
-27.5745655079
  0
LINE
  5
395
100
AcDbEntity
  8
RACCORDO
100
AcDbLine
 62
250
  6
CONTINUOUS
 10
50.4035833079
 20
-27.5745655079
 11
50.3301404133
 21
-27.5885625594
  0
LINE
  5
396
100
AcDbEntity
  8
RACCORDO
100
AcDbLine
 62
250
  6
CONTINUOUS
 10
50.3301404133
 20
-27.5885625594
 11
50.2555667997
 21
-27.6023198756
  0
LINE
  5
397
100
AcDbEntity
  8
RACCORDO
100
AcDbLine
 62
250
  6
CONTINUOUS
 10
50.2555667997
 20
-27.6023198756
 11
50.2055568799
 21
-27.6112964497
  0
LINE
  5
398
100
AcDbEntity
  8
0
100
AcDbLine
 62
250
  6
CONTINUOUS
 10
-70.2662006203
 20
-34.0287515784
 11
-70.1071270079
 21
-34.0273609267
  0
LINE
  5
399
100
AcDbEntity
  8
0
100
AcDbLine
 62
250
  6
CONTINUOUS
 10
70.492838221
 20
-34.028470796
 11
70.3433744006
 21
-34.0289736426
  0
LINE
  5
39A
100
AcDbEntity
  8
0
100
AcDbLine
 62
250
  6
CONTINUOUS
 10
64.1292815281
 20
-35.8557926453
 11
-64.1292815281
 21
-35.8557926453
  0
LWPOLYLINE
  5
39B
100
AcDbEntity
  8
0
100
AcDbPolyline
 62
250
  6
CONTINUOUS
 90
3
 70
0
 10
70.3433744006
 20
-34.0289736426
 10
70.1874407543
 20
-34.0282139325
 10
70.1071270046
 20
-34.0273609262
  0
LWPOLYLINE
  5
39C
100
AcDbEntity
  8
0
100
AcDbPolyline
 62
250
  6
CONTINUOUS
 90
82
 70
0
 10
-64.1292815281
 20
-35.8557926453
 10
-64.1704897342
 20
-35.855411619
 10
-64.2116577698
 20
-35.8542717408
 10
-64.2527856351
 20
-35.8523730099
 10
-64.2938871617
 20
-35.8497142751
 10
-64.3349485178
 20
-35.8462966845
 10
-64.3759282087
 20
-35.8421236856
 10
-64.4168259773
 20
-35.8371945
 10
-64.4576420806
 20
-35.8315099
 10
-64.4983357948
 20
-35.825075658
 10
-64.5389069681
 20
-35.8178910045
 10
-64.5793557522
 20
-35.8099567
 10
-64.6196418792
 20
-35.8012808116
 10
-64.6597651413
 20
-35.7918625899
 10
-64.6997257462
 20
-35.7817027724
 10
-64.7394840491
 20
-35.7708116565
 10
-64.7790398484
 20
-35.7591884941
 10
-64.8183933456
 20
-35.7468340186
 10
-64.8575055004
 20
-35.7337607488
 10
-64.8963760636
 20
-35.7199679498
 10
-64.9350052844
 20
-35.7054563395
 10
-64.9733548697
 20
-35.6902406152
 10
-65.0114245382
 20
-35.6743200522
 10
-65.0492145713
 20
-35.6576953559
 10
-65.0866875205
 20
-35.6403833687
 10
-65.123843041
 20
-35.6223833947
 10
-65.1606814776
 20
-35.6036961086
 10
-65.1971664154
 20
-35.5843404082
 10
-65.2332974946
 20
-35.5643156072
 10
-65.2690750749
 20
-35.543622369
 10
-65.3044638208
 20
-35.5222816163
 10
-65.339463319
 20
-35.5002926952
 10
-65.3740739828
 20
-35.4776562351
 10
-65.4082617163
 20
-35.4543950846
 10
-65.4420260894
 20
-35.4305086021
 10
-65.4753675323
 20
-35.4059974037
 10
-65.508253239
 20
-35.3808862241
 10
-65.5406827281
 20
-35.3551744622
 10
-65.572656481
 20
-35.3288626927
 10
-65.6041431369
 20
-35.3019774154
 10
-65.6351421989
 20
-35.2745180449
 10
-65.6656541638
 20
-35.2464851398
 10
-65.6956491618
 20
-35.217906917
 10
-65.7251266516
 20
-35.1887828352
 10
-65.7540871743
 20
-35.1591134088
 10
-65.782502484
 20
-35.1289284395
 10
-65.810372024
 20
-35.0982274058
 10
-65.8376963509
 20
-35.0670108025
 10
-65.8644488876
 20
-35.0353099571
 10
-65.8906290418
 20
-35.0031243934
 10
-65.9162374058
 20
-34.9704545614
 10
-65.9412491795
 20
-34.9373331786
 10
-65.9656637551
 20
-34.9037597942
 10
-65.9894817404
 20
-34.8697348338
 10
-66.0126801586
 20
-34.8352923308
 10
-66.0352583724
 20
-34.8004318832
 10
-66.0572170192
 20
-34.7651538688
 10
-66.078535034
 20
-34.7294934935
 10
-66.0992117654
 20
-34.6934503865
 10
-66.1192478648
 20
-34.6570248958
 10
-66.1386242219
 20
-34.6202533072
 10
-66.157340168
 20
-34.5831352882
 10
-66.1753963718
 20
-34.5456711503
 10
-66.1927757286
 20
-34.5078981474
 10
-66.2094775553
 20
-34.4698159843
 10
-66.2255025351
 20
-34.4314249371
 10
-66.2408356127
 20
-34.3927631191
 10
-66.2554760865
 20
-34.3538302925
 10
-66.2694246581
 20
-34.3146266782
 10
-66.2826683774
 20
-34.2751910803
 10
-66.2952065369
 20
-34.2355232991
 10
-66.3070398441
 20
-34.1956235198
 10
-66.318157471
 20
-34.1555311273
 10
-66.3285587083
 20
-34.1152459289
 10
-66.3382442653
 20
-34.0747681053
 10
-66.347205442
 20
-34.034137604
 10
-66.3554415375
 20
-33.9933540903
 10
-66.3629532526
 20
-33.9524178895
 10
-66.3697339894
 20
-33.9113699428
 10
-66.3757815488
 20
-33.8702238957
 10
-66.3810981298
 20
-33.8289660964
 10
-66.3856837327
 20
-33.7875965416
  0
LINE
  5
39D
100
AcDbEntity
  8
RACCORDO
100
AcDbLine
 62
250
  6
CONTINUOUS
 10
-50.2805086716
 20
-27.597768506
 11
-50.2055568799
 21
-27.6112964501
  0
LINE
  5
39E
100
AcDbEntity
  8
RACCORDO
100
AcDbLine
 62
250
  6
CONTINUOUS
 10
-50.3547802006
 20
-27.5839172737
 11
-50.2805086716
 21
-27.597768506
  0
LINE
  5
39F
100
AcDbEntity
  8
RACCORDO
100
AcDbLine
 62
250
  6
CONTINUOUS
 10
-50.4276973782
 20
-27.5698684668
 11
-50.3547802006
 21
-27.5839172737
  0
LINE
  5
3A0
100
AcDbEntity
  8
RACCORDO
100
AcDbLine
 62
250
  6
CONTINUOUS
 10
-50.4985984079
 20
-27.5557495925
 11
-50.4276973782
 21
-27.5698684668
  0
LINE
  5
3A1
100
AcDbEntity
  8
RACCORDO
100
AcDbLine
 62
250
  6
CONTINUOUS
 10
-50.5444269714
 20
-27.5463613727
 11
-50.4985984079
 21
-27.5557495925
  0
LINE
  5
3A2
100
AcDbEntity
  8
RACCORDO
100
AcDbLine
 62
250
  6
CONTINUOUS
 10
-50.5888880328
 20
-27.537036861
 11
-50.5444269714
 21
-27.5463613727
  0
LINE
  5
3A3
100
AcDbEntity
  8
RACCORDO
100
AcDbLine
 62
250
  6
CONTINUOUS
 10
-50.6318021705
 20
-27.5278136863
 11
-50.5888880328
 21
-27.537036861
  0
LWPOLYLINE
  5
3A4
100
AcDbEntity
  8
RACCORDO
100
AcDbPolyline
 62
250
  6
CONTINUOUS
 90
3
 70
0
 10
-50.6928959456
 20
-27.5142502007
 10
-50.6729962055
 20
-27.5187290684
 10
-50.6318021705
 20
-27.5278136863
  0
LINE
  5
3A5
100
AcDbEntity
  8
0
100
AcDbLine
 62
250
  6
CONTINUOUS
 10
-67.0477199399
 20
-33.8515658031
 11
-66.8276433798
 21
-33.8311702883
  0
LINE
  5
3A6
100
AcDbEntity
  8
0
100
AcDbLine
 62
250
  6
CONTINUOUS
 10
-67.2667142378
 20
-33.8709887782
 11
-67.0477199399
 21
-33.8515658031
  0
LINE
  5
3A7
100
AcDbEntity
  8
0
100
AcDbLine
 62
250
  6
CONTINUOUS
 10
-67.484268273
 20
-33.8894074621
 11
-67.2667142378
 21
-33.8709887782
  0
LINE
  5
3A8
100
AcDbEntity
  8
0
100
AcDbLine
 62
250
  6
CONTINUOUS
 10
-67.7000263996
 20
-33.9067917449
 11
-67.484268273
 21
-33.8894074621
  0
LINE
  5
3A9
100
AcDbEntity
  8
0
100
AcDbLine
 62
250
  6
CONTINUOUS
 10
-67.9136359075
 20
-33.9231132076
 11
-67.7000263996
 21
-33.9067917449
  0
LINE
  5
3AA
100
AcDbEntity
  8
0
100
AcDbLine
 62
250
  6
CONTINUOUS
 10
-68.124747599
 20
-33.9383451688
 11
-67.9136359075
 21
-33.9231132076
  0
LINE
  5
3AB
100
AcDbEntity
  8
0
100
AcDbLine
 62
250
  6
CONTINUOUS
 10
-68.3330163597
 20
-33.952462728
 11
-68.124747599
 21
-33.9383451688
  0
LINE
  5
3AC
100
AcDbEntity
  8
0
100
AcDbLine
 62
250
  6
CONTINUOUS
 10
-68.5381017227
 20
-33.9654428066
 11
-68.3330163597
 21
-33.952462728
  0
LINE
  5
3AD
100
AcDbEntity
  8
0
100
AcDbLine
 62
250
  6
CONTINUOUS
 10
-68.7396684252
 20
-33.9772641855
 11
-68.5381017227
 21
-33.9654428066
  0
LINE
  5
3AE
100
AcDbEntity
  8
0
100
AcDbLine
 62
250
  6
CONTINUOUS
 10
-68.9373869565
 20
-33.9879075396
 11
-68.7396684252
 21
-33.9772641855
  0
LINE
  5
3AF
100
AcDbEntity
  8
0
100
AcDbLine
 62
250
  6
CONTINUOUS
 10
-69.1309340966
 20
-33.9973554698
 11
-68.9373869565
 21
-33.9879075396
  0
LINE
  5
3B0
100
AcDbEntity
  8
0
100
AcDbLine
 62
250
  6
CONTINUOUS
 10
-69.3199934449
 20
-34.0055925311
 11
-69.1309340966
 21
-33.9973554698
  0
LINE
  5
3B1
100
AcDbEntity
  8
0
100
AcDbLine
 62
250
  6
CONTINUOUS
 10
-69.5042559368
 20
-34.012605258
 11
-69.3199934449
 21
-34.0055925311
  0
LINE
  5
3B2
100
AcDbEntity
  8
0
100
AcDbLine
 62
250
  6
CONTINUOUS
 10
-69.6834203498
 20
-34.0183821864
 11
-69.5042559368
 21
-34.012605258
  0
LINE
  5
3B3
100
AcDbEntity
  8
0
100
AcDbLine
 62
250
  6
CONTINUOUS
 10
-69.8571937953
 20
-34.0229138725
 11
-69.6834203498
 21
-34.0183821864
  0
LWPOLYLINE
  5
3B4
100
AcDbEntity
  8
0
100
AcDbPolyline
 62
250
  6
CONTINUOUS
 90
3
 70
0
 10
-70.1071270079
 20
-34.0273609267
 10
-70.0252921974
 20
-34.0261929082
 10
-69.8571937953
 20
-34.0229138725
  0
LINE
  5
3B5
100
AcDbEntity
  8
RACCORDO
100
AcDbLine
 62
250
  6
CONTINUOUS
 10
51.1592431401
 20
-32.2156939465
 11
-51.1592431401
 21
-32.2156939465
  0
LINE
  5
3B6
100
AcDbEntity
  8
RACCORDO
100
AcDbLine
 62
250
  6
CONTINUOUS
 10
-50.2055568799
 20
-27.6112964501
 11
50.2055568799
 21
-27.6112964501
  0
LINE
  5
3B7
100
AcDbEntity
  8
0
100
AcDbLine
 62
250
  6
CONTINUOUS
 10
70.1071270046
 20
-34.0273609262
 11
69.9419697714
 21
-34.0247103543
  0
LINE
  5
3B8
100
AcDbEntity
  8
0
100
AcDbLine
 62
250
  6
CONTINUOUS
 10
69.9419697714
 20
-34.0247103543
 11
69.7709989074
 21
-34.0208041952
  0
LINE
  5
3B9
100
AcDbEntity
  8
0
100
AcDbLine
 62
250
  6
CONTINUOUS
 10
69.7709989074
 20
-34.0208041952
 11
69.5944939071
 21
-34.0156488344
  0
LINE
  5
3BA
100
AcDbEntity
  8
0
100
AcDbLine
 62
250
  6
CONTINUOUS
 10
69.5944939071
 20
-34.0156488344
 11
69.4127433114
 21
-34.0092526996
  0
LINE
  5
3BB
100
AcDbEntity
  8
0
100
AcDbLine
 62
250
  6
CONTINUOUS
 10
69.4127433114
 20
-34.0092526996
 11
69.2260442369
 21
-34.001626247
  0
LINE
  5
3BC
100
AcDbEntity
  8
0
100
AcDbLine
 62
250
  6
CONTINUOUS
 10
69.2260442369
 20
-34.001626247
 11
69.0347018893
 21
-33.9927819438
  0
LINE
  5
3BD
100
AcDbEntity
  8
0
100
AcDbLine
 62
250
  6
CONTINUOUS
 10
69.0347018893
 20
-33.9927819438
 11
68.8390290652
 21
-33.9827342482
  0
LINE
  5
3BE
100
AcDbEntity
  8
0
100
AcDbLine
 62
250
  6
CONTINUOUS
 10
68.8390290652
 20
-33.9827342482
 11
68.6393456404
 21
-33.9714995858
  0
LINE
  5
3BF
100
AcDbEntity
  8
0
100
AcDbLine
 62
250
  6
CONTINUOUS
 10
68.6393456404
 20
-33.9714995858
 11
68.4359780467
 21
-33.9590963223
  0
LINE
  5
3C0
100
AcDbEntity
  8
0
100
AcDbLine
 62
250
  6
CONTINUOUS
 10
68.4359780467
 20
-33.9590963223
 11
68.229258739
 21
-33.945544734
  0
LINE
  5
3C1
100
AcDbEntity
  8
0
100
AcDbLine
 62
250
  6
CONTINUOUS
 10
68.229258739
 20
-33.945544734
 11
68.0195256511
 21
-33.9308669742
  0
LINE
  5
3C2
100
AcDbEntity
  8
0
100
AcDbLine
 62
250
  6
CONTINUOUS
 10
68.0195256511
 20
-33.9308669742
 11
67.8071216438
 21
-33.9150870374
  0
LINE
  5
3C3
100
AcDbEntity
  8
0
100
AcDbLine
 62
250
  6
CONTINUOUS
 10
67.8071216438
 20
-33.9150870374
 11
67.5923939441
 21
-33.8982307199
  0
LINE
  5
3C4
100
AcDbEntity
  8
0
100
AcDbLine
 62
250
  6
CONTINUOUS
 10
67.5923939441
 20
-33.8982307199
 11
67.3756935775
 21
-33.8803255774
  0
LINE
  5
3C5
100
AcDbEntity
  8
0
100
AcDbLine
 62
250
  6
CONTINUOUS
 10
67.3756935775
 20
-33.8803255774
 11
67.1573747945
 21
-33.8614008804
  0
LWPOLYLINE
  5
3C6
100
AcDbEntity
  8
0
100
AcDbPolyline
 62
250
  6
CONTINUOUS
 90
3
 70
0
 10
67.1573747945
 20
-33.8614008804
 10
66.9377944912
 20
-33.8414875659
 10
66.8276433795
 20
-33.8311702883
  0
LINE
  5
3C7
100
AcDbEntity
  8
0
100
AcDbLine
 62
250
  6
CONTINUOUS
 10
-72.0780289672
 20
-33.904109589
 11
-71.8205110488
 21
-33.8748188837
  0
LINE
  5
3C8
100
AcDbEntity
  8
0
100
AcDbLine
 62
250
  6
CONTINUOUS
 10
-66.6068443271
 20
-33.8098355755
 11
-66.3856837327
 21
-33.7875965416
  0
LINE
  5
3C9
100
AcDbEntity
  8
0
100
AcDbLine
 62
250
  6
CONTINUOUS
 10
-66.8276433798
 20
-33.8311702883
 11
-66.6068443271
 21
-33.8098355755
  0
LINE
  5
3CA
100
AcDbEntity
  8
RACCORDO
100
AcDbLine
 62
250
  6
CONTINUOUS
 10
-49.5453862003
 20
-23.1319668478
 11
49.5453862003
 21
-23.1319668478
  0
LINE
  5
3CB
100
AcDbEntity
  8
RACCORDO
100
AcDbLine
 62
250
  6
CONTINUOUS
 10
-49.9833883798
 20
-22.8301442416
 11
49.9833883798
 21
-22.8301442416
  0
LINE
  5
3CC
100
AcDbEntity
  8
RACCORDO
100
AcDbLine
 62
250
  6
CONTINUOUS
 10
49.9279864348
 20
-22.7747422966
 11
-49.9279864348
 21
-22.7747422966
  0
LINE
  5
3CD
100
AcDbEntity
  8
RACCORDO
100
AcDbLine
 62
7
  6
CONTINUOUS
 10
49.9294748338
 20
-22.7740532644
 11
-49.9279864348
 21
-22.774057064
  0
LINE
  5
3CE
100
AcDbEntity
  8
RACCORDO
100
AcDbLine
 62
250
  6
CONTINUOUS
 10
-50.2275752953
 20
-22.4751534362
 11
-50.2268900626
 21
-22.4751534362
  0
LINE
  5
3CF
100
AcDbEntity
  8
RACCORDO
100
AcDbLine
 62
250
  6
CONTINUOUS
 10
50.2275752953
 20
-22.4751534362
 11
50.2268900626
 21
-22.4751534362
  0
LINE
  5
3D0
100
AcDbEntity
  8
ASSI
100
AcDbLine
 62
7
  6
CONTINUOUS
 10
-50.2268900626
 20
-22.4
 11
50.2268900626
 21
-22.4
  0
LWPOLYLINE
  5
3D1
100
AcDbEntity
  8
RACCORDO
100
AcDbPolyline
 62
250
  6
CONTINUOUS
 90
52
 70
0
 10
-49.9279864348
 20
-22.7747422966
 10
-49.9371525887
 20
-22.7746446985
 10
-49.9463323264
 20
-22.7742671422
 10
-49.9555170892
 20
-22.7736078381
 10
-49.964701575
 20
-22.7726649353
 10
-49.9738735912
 20
-22.771437295
 10
-49.9830142011
 20
-22.7699255032
 10
-49.9921146608
 20
-22.7681297195
 10
-50.0011660518
 20
-22.7660504462
 10
-50.010149471
 20
-22.7636910229
 10
-50.0190561225
 20
-22.7610534246
 10
-50.0278776402
 20
-22.7581398338
 10
-50.0365963427
 20
-22.7549560706
 10
-50.0452019091
 20
-22.751506616
 10
-50.0536886675
 20
-22.7477945025
 10
-50.0620464796
 20
-22.7438247985
 10
-50.0702653353
 20
-22.7396032722
 10
-50.0783403423
 20
-22.7351334798
 10
-50.0862691156
 20
-22.7304172477
 10
-50.0940443455
 20
-22.725459216
 10
-50.1016587922
 20
-22.7202642988
 10
-50.109109855
 20
-22.7148341733
 10
-50.116391949
 20
-22.7091724466
 10
-50.1234963414
 20
-22.7032854471
 10
-50.1304156714
 20
-22.6971788859
 10
-50.137144265
 20
-22.6908573528
 10
-50.1436745052
 20
-22.6843276144
 10
-50.149996725
 20
-22.6775993198
 10
-50.1561042284
 20
-22.6706799659
 10
-50.1619923116
 20
-22.6635753108
 10
-50.1676549962
 20
-22.6562930302
 10
-50.1730859245
 20
-22.6488419207
 10
-50.1782815418
 20
-22.6412275254
 10
-50.1832400713
 20
-22.6334526357
 10
-50.1879565626
 20
-22.6255246216
 10
-50.1924264765
 20
-22.6174507007
 10
-50.1966480965
 20
-22.6092331147
 10
-50.2006178213
 20
-22.6008768987
 10
-50.2043299705
 20
-22.5923919329
 10
-50.2077797183
 20
-22.5837877702
 10
-50.2109640565
 20
-22.5750698912
 10
-50.213878395
 20
-22.5662487697
 10
-50.2165168947
 20
-22.5573419952
 10
-50.2188773345
 20
-22.548357889
 10
-50.2209576823
 20
-22.5393052684
 10
-50.2227545448
 20
-22.5302030464
 10
-50.2242673716
 20
-22.521060147
 10
-50.225495959
 20
-22.5118853042
 10
-50.2264396743
 20
-22.5026974446
 10
-50.2270996093
 20
-22.4935087618
 10
-50.2274775684
 20
-22.4843245692
 10
-50.2275752953
 20
-22.4751534362
  0
LWPOLYLINE
  5
3D2
100
AcDbEntity
  8
RACCORDO
100
AcDbPolyline
 62
7
  6
CONTINUOUS
 90
41
 70
0
 10
-49.9279864348
 20
-22.7740569383
 10
-49.9402954077
 20
-22.7738052781
 10
-49.9520152999
 20
-22.7730961437
 10
-49.9636886205
 20
-22.7719310145
 10
-49.9752987269
 20
-22.7703122064
 10
-49.9868295707
 20
-22.7682426403
 10
-49.9982636733
 20
-22.7657259787
 10
-50.0095837199
 20
-22.7627663615
 10
-50.0207739679
 20
-22.7593685574
 10
-50.0318178952
 20
-22.7555377157
 10
-50.0426987911
 20
-22.7512801346
 10
-50.0534007182
 20
-22.746602285
 10
-50.0639077708
 20
-22.7415113442
 10
-50.074204281
 20
-22.7360153137
 10
-50.0842749686
 20
-22.7301223602
 10
-50.09410495
 20
-22.7238416514
 10
-50.1036795217
 20
-22.7171825717
 10
-50.1129846475
 20
-22.7101551519
 10
-50.1220064984
 20
-22.7027699736
 10
-50.1307315606
 20
-22.6950380482
 10
-50.1391470334
 20
-22.6869710335
 10
-50.147240196
 20
-22.6785808515
 10
-50.1549991134
 20
-22.6698801485
 10
-50.1624121924
 20
-22.6608817054
 10
-50.1694683033
 20
-22.6515989488
 10
-50.1761569213
 20
-22.6420457332
 10
-50.1824679569
 20
-22.6322359458
 10
-50.1883920175
 20
-22.6221842801
 10
-50.1939199047
 20
-22.6119055977
 10
-50.1990433914
 20
-22.6014150262
 10
-50.2037545023
 20
-22.5907282478
 10
-50.2080459037
 20
-22.579861089
 10
-50.211911186
 20
-22.5688293774
 10
-50.2153439358
 20
-22.5576497512
 10
-50.2183389138
 20
-22.5463387443
 10
-50.220891331
 20
-22.5349120864
 10
-50.2229968739
 20
-22.5233870197
 10
-50.2246519024
 20
-22.5117810353
 10
-50.2258533305
 20
-22.5001102899
 10
-50.226598821
 20
-22.4883914658
 10
-50.2268862685
 20
-22.476642428
  0
LINE
  5
3D3
100
AcDbEntity
  8
0
100
AcDbLine
 62
250
  6
CONTINUOUS
 10
66.8276433795
 20
-33.8311702883
 11
66.606844327
 21
-33.8098355755
  0
LINE
  5
3D4
100
AcDbEntity
  8
0
100
AcDbLine
 62
250
  6
CONTINUOUS
 10
66.606844327
 20
-33.8098355755
 11
66.3856837327
 21
-33.7875965416
  0
LINE
  5
3D5
100
AcDbEntity
  8
0
100
AcDbLine
 62
250
  6
CONTINUOUS
 10
72.0780289672
 20
-33.904109589
 11
71.8205110488
 21
-33.8748188837
  0
LINE
  5
3D6
100
AcDbEntity
  8
RACCORDO
100
AcDbLine
 62
250
  6
CONTINUOUS
 10
-50.2275752953
 20
-22.4751534362
 11
-50.2829772403
 21
-22.5305553812
  0
LINE
  5
3D7
100
AcDbEntity
  8
RACCORDO
100
AcDbLine
 62
250
  6
CONTINUOUS
 10
-49.9279864348
 20
-22.7747422966
 11
-49.9833883798
 21
-22.8301442416
  0
LWPOLYLINE
  5
3D8
100
AcDbEntity
  8
RACCORDO
100
AcDbPolyline
 62
250
  6
CONTINUOUS
 90
46
 70
0
 10
-50.2829772403
 20
-22.5305553812
 10
-50.2831689179
 20
-22.5307357012
 10
-50.2833622748
 20
-22.5308941432
 10
-50.2835573109
 20
-22.5310307072
 10
-50.2837539778
 20
-22.5311455051
 10
-50.283952324
 20
-22.531238425
 10
-50.2841524948
 20
-22.5313091312
 10
-50.2843544866
 20
-22.5313576461
 10
-50.284558303
 20
-22.5313839472
 10
-50.2847641004
 20
-22.5313876316
 10
-50.2849718754
 20
-22.5313687197
 10
-50.2851816313
 20
-22.5313271911
 10
-50.2853935349
 20
-22.5312625825
 10
-50.2856075811
 20
-22.5311749122
 10
-50.285823775
 20
-22.5310641619
 10
-50.2860422979
 20
-22.5309298127
 10
-50.2862631476
 20
-22.5307718774
 10
-50.2864863263
 20
-22.5305903433
 10
-50.2867120219
 20
-22.5303846533
 10
-50.286940232
 20
-22.5301548133
 10
-50.287170959
 20
-22.5299008173
 10
-50.2874043982
 20
-22.5296220911
 10
-50.2876405398
 20
-22.5293186453
 10
-50.2878793935
 20
-22.5289904692
 10
-50.2881211841
 20
-22.5286369562
 10
-50.2883659036
 20
-22.5282581131
 10
-50.2886135601
 20
-22.527853933
 10
-50.2888644025
 20
-22.5274237895
 10
-50.2891184282
 20
-22.5269676715
 10
-50.2893756398
 20
-22.52648559
 10
-50.289636294
 20
-22.5259769507
 10
-50.28990038
 20
-22.5254417492
 10
-50.2901679087
 20
-22.52487999
 10
-50.2904391697
 20
-22.5242910925
 10
-50.2907141464
 20
-22.5236750588
 10
-50.2909928554
 20
-22.5230318868
 10
-50.2912756361
 20
-22.5223609898
 10
-50.2915624964
 20
-22.5216622949
 10
-50.2918534282
 20
-22.5209358749
 10
-50.2921487471
 20
-22.5201813618
 10
-50.292448463
 20
-22.5193986456
 10
-50.2927525659
 20
-22.5185878363
 10
-50.2930613407
 20
-22.5177488951
 10
-50.2933747324
 20
-22.5168818767
 10
-50.2936927961
 20
-22.5159867265
 10
-50.2940159823
 20
-22.5150632416
  0
LWPOLYLINE
  5
3D9
100
AcDbEntity
  8
RACCORDO
100
AcDbPolyline
 62
250
  6
CONTINUOUS
 90
3
 70
0
 10
-50.3447090367
 20
-6.7185976259
 10
-50.3440903201
 20
-6.7182485337
 10
-50.3440240608
 20
-6.718090903
  0
LWPOLYLINE
  5
3DA
100
AcDbEntity
  8
RACCORDO
100
AcDbPolyline
 62
250
  6
CONTINUOUS
 90
3
 70
0
 10
-50.3447090749
 20
6.7185976259
 10
-50.3440903546
 20
6.7182485336
 10
-50.3440240936
 20
6.718090903
  0
LINE
  5
3DB
100
AcDbEntity
  8
RACCORDO
100
AcDbLine
 62
250
  6
CONTINUOUS
 10
-50.2822025692
 20
22.5297807101
 11
-50.2275752953
 21
22.4751534362
  0
LINE
  5
3DC
100
AcDbEntity
  8
RACCORDO
100
AcDbLine
 62
250
  6
CONTINUOUS
 10
-49.9826137088
 20
22.8293695705
 11
-49.9279864348
 21
22.7747422966
  0
LWPOLYLINE
  5
3DD
100
AcDbEntity
  8
RACCORDO
100
AcDbPolyline
 62
250
  6
CONTINUOUS
 90
23
 70
0
 10
-49.9833883798
 20
-22.8301442416
 10
-49.9836688968
 20
-22.8303770532
 10
-49.9838434301
 20
-22.830645962
 10
-49.9839119798
 20
-22.8309545866
 10
-49.9838875464
 20
-22.8313064747
 10
-49.9837571294
 20
-22.8317057947
 10
-49.9834817271
 20
-22.8321575419
 10
-49.9830617484
 20
-22.832666644
 10
-49.9824967846
 20
-22.8332374391
 10
-49.9817466078
 20
-22.8338744283
 10
-49.9808117985
 20
-22.8345823339
 10
-49.9796917764
 20
-22.8353665421
 10
-49.9783445731
 20
-22.8362328148
 10
-49.976771802
 20
-22.8371863378
 10
-49.9749718496
 20
-22.8382332219
 10
-49.9728979078
 20
-22.8393812645
 10
-49.9705512708
 20
-22.8406369569
 10
-49.9679306443
 20
-22.8420068533
 10
-49.9649853376
 20
-22.843499736
 10
-49.9617164711
 20
-22.845122967
 10
-49.9581229244
 20
-22.8468839669
 10
-49.9541506447
 20
-22.8487924944
 10
-49.9450717765
 20
-22.8530850289
  0
LINE
  5
3DE
100
AcDbEntity
  8
RACCORDO
100
AcDbLine
 62
250
  6
CONTINUOUS
 10
50.2275752953
 20
-8.708165587
 11
50.2268900626
 21
-8.708165587
  0
LINE
  5
3DF
100
AcDbEntity
  8
RACCORDO
100
AcDbLine
 62
250
  6
CONTINUOUS
 10
-50.2268900626
 20
-8.708165587
 11
-50.2275752953
 21
-8.708165587
  0
LINE
  5
3E0
100
AcDbEntity
  8
DRAFT
100
AcDbLine
 62
7
  6
CONTINUOUS
 10
-50.3149570618
 20
-8.05
 11
-50.2
 21
-8.05
  0
LINE
  5
3E1
100
AcDbEntity
  8
DRAFT
100
AcDbLine
 62
7
  6
CONTINUOUS
 10
50.2
 20
-8.05
 11
50.3149578043
 21
-8.05
  0
LINE
  5
3E2
100
AcDbEntity
  8
RACCORDO
100
AcDbLine
 62
250
  6
CONTINUOUS
 10
50.3168248132
 20
-8.0124192945
 11
50.2
 21
-8.0124192945
  0
LINE
  5
3E3
100
AcDbEntity
  8
RACCORDO
100
AcDbLine
 62
250
  6
CONTINUOUS
 10
-50.2
 20
-8.0124192945
 11
-50.3168247442
 21
-8.0124192945
  0
LINE
  5
3E4
100
AcDbEntity
  8
RACCORDO
100
AcDbLine
 62
250
  6
CONTINUOUS
 10
50.344182154
 20
-6.5427578071
 11
50.2
 21
-6.5427578071
  0
LINE
  5
3E5
100
AcDbEntity
  8
RACCORDO
100
AcDbLine
 62
250
  6
CONTINUOUS
 10
-50.2
 20
-6.5427578071
 11
-50.3441821717
 21
-6.5427578071
  0
LWPOLYLINE
  5
3E6
100
AcDbEntity
  8
0
100
AcDbPolyline
 62
7
  6
CONTINUOUS
 90
2
 70
0
 43
0.3500000006
 10
-0.500000011
 20
49.7500012665
 10
-0.500000011
 20
51.2500017242
  0
LWPOLYLINE
  5
3E7
100
AcDbEntity
  8
0
100
AcDbPolyline
 62
7
  6
CONTINUOUS
 90
4
 70
0
 43
0.3500000006
 10
0.8571428254
 20
50.1785702362
 10
0.8571428254
 20
51.0357127075
 10
1.2857142735
 20
51.4642862091
 10
1.9285714102
 20
51.4642862091
  0
LINE
  5
3E8
100
AcDbEntity
  8
RACCORDO
100
AcDbLine
 62
250
  6
CONTINUOUS
 10
-50.344182154
 20
6.5427578071
 11
-50.2
 21
6.5427578071
  0
LINE
  5
3E9
100
AcDbEntity
  8
RACCORDO
100
AcDbLine
 62
250
  6
CONTINUOUS
 10
50.2
 20
6.5427578071
 11
50.3441821717
 21
6.5427578071
  0
LINE
  5
3EA
100
AcDbEntity
  8
RACCORDO
100
AcDbLine
 62
250
  6
CONTINUOUS
 10
-50.3168248192
 20
8.0124192945
 11
-50.2
 21
8.0124192945
  0
LINE
  5
3EB
100
AcDbEntity
  8
RACCORDO
100
AcDbLine
 62
250
  6
CONTINUOUS
 10
50.2
 20
8.0124192945
 11
50.3168247502
 21
8.0124192945
  0
LINE
  5
3EC
100
AcDbEntity
  8
DRAFT
100
AcDbLine
 62
7
  6
CONTINUOUS
 10
-50.3149577938
 20
8.05
 11
-50.2
 21
8.05
  0
LINE
  5
3ED
100
AcDbEntity
  8
DRAFT
100
AcDbLine
 62
7
  6
CONTINUOUS
 10
50.2
 20
8.05
 11
50.3149570513
 21
8.05
  0
LINE
  5
3EE
100
AcDbEntity
  8
RACCORDO
100
AcDbLine
 62
250
  6
CONTINUOUS
 10
-50.2275752953
 20
8.708165587
 11
-50.2268900626
 21
8.708165587
  0
LINE
  5
3EF
100
AcDbEntity
  8
RACCORDO
100
AcDbLine
 62
250
  6
CONTINUOUS
 10
50.2268900626
 20
8.708165587
 11
50.2275752953
 21
8.708165587
  0
LWPOLYLINE
  5
3F0
100
AcDbEntity
  8
RACCORDO
100
AcDbPolyline
 62
250
  6
CONTINUOUS
 90
22
 70
0
 10
49.9833883798
 20
-22.8301442416
 10
49.9836688978
 20
-22.8303770547
 10
49.9838434313
 20
-22.8306459651
 10
49.9839119803
 20
-22.8309545913
 10
49.9838875449
 20
-22.8313064812
 10
49.983757125
 20
-22.8317058031
 10
49.9834817201
 20
-22.8321575518
 10
49.9830617387
 20
-22.832666655
 10
49.9824967722
 20
-22.8332374505
 10
49.9817465946
 20
-22.8338744393
 10
49.9808117864
 20
-22.8345823436
 10
49.979691767
 20
-22.8353665493
 10
49.9783445685
 20
-22.8362328188
 10
49.9767718043
 20
-22.8371863379
 10
49.9749718611
 20
-22.8382332171
 10
49.972897931
 20
-22.8393812539
 10
49.9705513082
 20
-22.8406369395
 10
49.9679306985
 20
-22.8420068279
 10
49.9649854116
 20
-22.8434997015
 10
49.9617165679
 20
-22.8451229223
 10
49.9581230469
 20
-22.8468839106
 10
49.9541507967
 20
-22.848792425
  0
LINE
  5
3F1
100
AcDbEntity
  8
RACCORDO
100
AcDbLine
 62
250
  6
CONTINUOUS
 10
49.9279864348
 20
22.7747422966
 11
49.9826137088
 21
22.8293695705
  0
LINE
  5
3F2
100
AcDbEntity
  8
RACCORDO
100
AcDbLine
 62
250
  6
CONTINUOUS
 10
50.2275752953
 20
22.4751534362
 11
50.2822025692
 21
22.5297807101
  0
LWPOLYLINE
  5
3F3
100
AcDbEntity
  8
RACCORDO
100
AcDbPolyline
 62
250
  6
CONTINUOUS
 90
46
 70
0
 10
50.2822025692
 20
22.5297807101
 10
50.2824000539
 20
22.5299668689
 10
50.2825993096
 20
22.5301313581
 10
50.2828003365
 20
22.5302741779
 10
50.2830030875
 20
22.5303954283
 10
50.2832076096
 20
22.5304950092
 10
50.2834140438
 20
22.5305726205
 10
50.2836223887
 20
22.5306282766
 10
50.2838326457
 20
22.5306619631
 10
50.2840449595
 20
22.5306733375
 10
50.2842593239
 20
22.5306624122
 10
50.2844757452
 20
22.5306291748
 10
50.2846943876
 20
22.5305732456
 10
50.2849152431
 20
22.5304946389
 10
50.2851383197
 20
22.5303933404
 10
50.2853638057
 20
22.530268927
 10
50.285591698
 20
22.5301214089
 10
50.2858219997
 20
22.5299507758
 10
50.2860549078
 20
22.5297565736
 10
50.2862904199
 20
22.5295388048
 10
50.2865285384
 20
22.5292974669
 10
50.2867694682
 20
22.5290320975
 10
50.2870132016
 20
22.528742699
 10
50.2872597463
 20
22.528429269
 10
50.2875093295
 20
22.5280913389
 10
50.2877619463
 20
22.527728902
 10
50.2880176016
 20
22.527341965
 10
50.2882765383
 20
22.5269300793
 10
50.2885387537
 20
22.5264932237
 10
50.2888042505
 20
22.5260314194
 10
50.2890732791
 20
22.5255442813
 10
50.2893458245
 20
22.5250318026
 10
50.2896219018
 20
22.5244939901
 10
50.2899018068
 20
22.5239304801
 10
50.2901855227
 20
22.5233412645
 10
50.2904730663
 20
22.5227263513
 10
50.290764784
 20
22.5220854003
 10
50.2910606912
 20
22.5214183129
 10
50.2913607724
 20
22.5207251878
 10
50.2916653281
 20
22.5200059806
 10
50.2919743573
 20
22.5192606007
 10
50.2922878608
 20
22.5184891387
 10
50.2926061418
 20
22.5176918214
 10
50.2929291564
 20
22.5168686527
 10
50.2932569484
 20
22.5160196286
 10
50.2935899525
 20
22.5151449636
  0
LWPOLYLINE
  5
3F4
100
AcDbEntity
  8
RACCORDO
100
AcDbPolyline
 62
250
  6
CONTINUOUS
 90
3
 70
0
 10
50.3447090367
 20
6.7185976259
 10
50.3440903201
 20
6.7182485337
 10
50.3440240608
 20
6.718090903
  0
LINE
  5
3F5
100
AcDbEntity
  8
ASSI
100
AcDbLine
 62
7
  6
CONTINUOUS
 10
-50.2268900626
 20
22.4
 11
50.2268900626
 21
22.4
  0
LINE
  5
3F6
100
AcDbEntity
  8
RACCORDO
100
AcDbLine
 62
250
  6
CONTINUOUS
 10
-50.2275752953
 20
22.4751534362
 11
-50.2268900626
 21
22.4751534362
  0
LINE
  5
3F7
100
AcDbEntity
  8
RACCORDO
100
AcDbLine
 62
250
  6
CONTINUOUS
 10
50.2275752953
 20
22.4751534362
 11
50.2268900626
 21
22.4751534362
  0
LINE
  5
3F8
100
AcDbEntity
  8
RACCORDO
100
AcDbLine
 62
7
  6
CONTINUOUS
 10
-49.9294748338
 20
22.7740532644
 11
49.9279864348
 21
22.774057064
  0
LINE
  5
3F9
100
AcDbEntity
  8
RACCORDO
100
AcDbLine
 62
250
  6
CONTINUOUS
 10
-49.9279864348
 20
22.7747422966
 11
49.9279864348
 21
22.7747422966
  0
LINE
  5
3FA
100
AcDbEntity
  8
RACCORDO
100
AcDbLine
 62
250
  6
CONTINUOUS
 10
-49.9826137088
 20
22.8293695705
 11
49.9826137088
 21
22.8293695705
  0
LINE
  5
3FB
100
AcDbEntity
  8
RACCORDO
100
AcDbLine
 62
250
  6
CONTINUOUS
 10
-49.5456964685
 20
23.1445316001
 11
49.5456964685
 21
23.1445316001
  0
LWPOLYLINE
  5
3FC
100
AcDbEntity
  8
RACCORDO
100
AcDbPolyline
 62
250
  6
CONTINUOUS
 90
3
 70
0
 10
50.3447091009
 20
-6.7185976259
 10
50.3440903785
 20
-6.7182485336
 10
50.3440241166
 20
-6.718090903
  0
LINE
  5
3FD
100
AcDbEntity
  8
RACCORDO
100
AcDbLine
 62
250
  6
CONTINUOUS
 10
49.9833883798
 20
-22.8301442416
 11
49.9279864348
 21
-22.7747422966
  0
LINE
  5
3FE
100
AcDbEntity
  8
RACCORDO
100
AcDbLine
 62
250
  6
CONTINUOUS
 10
50.2829772403
 20
-22.5305553812
 11
50.2275752953
 21
-22.4751534362
  0
LINE
  5
3FF
100
AcDbEntity
  8
0
100
AcDbLine
 62
250
  6
CONTINUOUS
 10
72.0780289672
 20
33.904109589
 11
71.8205110488
 21
33.8748188837
  0
LINE
  5
400
100
AcDbEntity
  8
0
100
AcDbLine
 62
250
  6
CONTINUOUS
 10
66.6068443271
 20
33.8098355755
 11
66.3856837327
 21
33.7875965416
  0
LINE
  5
401
100
AcDbEntity
  8
0
100
AcDbLine
 62
250
  6
CONTINUOUS
 10
66.8276433798
 20
33.8311702883
 11
66.6068443271
 21
33.8098355755
  0
LINE
  5
402
100
AcDbEntity
  8
0
100
AcDbLine
 62
250
  6
CONTINUOUS
 10
67.0477199399
 20
33.8515658031
 11
66.8276433798
 21
33.8311702883
  0
LINE
  5
403
100
AcDbEntity
  8
0
100
AcDbLine
 62
250
  6
CONTINUOUS
 10
67.2667142378
 20
33.8709887782
 11
67.0477199399
 21
33.8515658031
  0
LINE
  5
404
100
AcDbEntity
  8
0
100
AcDbLine
 62
250
  6
CONTINUOUS
 10
67.484268273
 20
33.8894074621
 11
67.2667142378
 21
33.8709887782
  0
LINE
  5
405
100
AcDbEntity
  8
0
100
AcDbLine
 62
250
  6
CONTINUOUS
 10
67.7000263996
 20
33.9067917449
 11
67.484268273
 21
33.8894074621
  0
LWPOLYLINE
  5
406
100
AcDbEntity
  8
0
100
AcDbPolyline
 62
250
  6
CONTINUOUS
 90
3
 70
0
 10
68.0195256523
 20
33.9308669744
 10
67.9136359075
 20
33.9231132076
 10
67.7000263996
 20
33.9067917449
  0
LINE
  5
407
100
AcDbEntity
  8
RACCORDO
100
AcDbLine
 62
250
  6
CONTINUOUS
 10
-49.9356112352
 20
26.8146773088
 11
49.9356112352
 21
26.8146773088
  0
LWPOLYLINE
  5
408
100
AcDbEntity
  8
RACCORDO
100
AcDbPolyline
 62
250
  6
CONTINUOUS
 90
52
 70
0
 10
49.9279864348
 20
22.7747422966
 10
49.9371525887
 20
22.7746446985
 10
49.9463323264
 20
22.7742671422
 10
49.9555170892
 20
22.7736078381
 10
49.964701575
 20
22.7726649353
 10
49.9738735912
 20
22.771437295
 10
49.9830142011
 20
22.7699255032
 10
49.9921146608
 20
22.7681297195
 10
50.0011660518
 20
22.7660504462
 10
50.010149471
 20
22.7636910229
 10
50.0190561225
 20
22.7610534246
 10
50.0278776402
 20
22.7581398338
 10
50.0365963427
 20
22.7549560706
 10
50.0452019091
 20
22.751506616
 10
50.0536886675
 20
22.7477945025
 10
50.0620464796
 20
22.7438247985
 10
50.0702653353
 20
22.7396032722
 10
50.0783403423
 20
22.7351334798
 10
50.0862691156
 20
22.7304172477
 10
50.0940443455
 20
22.725459216
 10
50.1016587922
 20
22.7202642988
 10
50.109109855
 20
22.7148341733
 10
50.116391949
 20
22.7091724466
 10
50.1234963414
 20
22.7032854471
 10
50.1304156714
 20
22.6971788859
 10
50.137144265
 20
22.6908573528
 10
50.1436745052
 20
22.6843276144
 10
50.149996725
 20
22.6775993198
 10
50.1561042284
 20
22.6706799659
 10
50.1619923116
 20
22.6635753108
 10
50.1676549962
 20
22.6562930302
 10
50.1730859245
 20
22.6488419207
 10
50.1782815418
 20
22.6412275254
 10
50.1832400713
 20
22.6334526357
 10
50.1879565626
 20
22.6255246216
 10
50.1924264765
 20
22.6174507007
 10
50.1966480965
 20
22.6092331147
 10
50.2006178213
 20
22.6008768987
 10
50.2043299705
 20
22.5923919329
 10
50.2077797183
 20
22.5837877702
 10
50.2109640565
 20
22.5750698912
 10
50.213878395
 20
22.5662487697
 10
50.2165168947
 20
22.5573419952
 10
50.2188773345
 20
22.548357889
 10
50.2209576823
 20
22.5393052684
 10
50.2227545448
 20
22.5302030464
 10
50.2242673716
 20
22.521060147
 10
50.225495959
 20
22.5118853042
 10
50.2264396743
 20
22.5026974446
 10
50.2270996093
 20
22.4935087618
 10
50.2274775684
 20
22.4843245692
 10
50.2275752953
 20
22.4751534362
  0
LWPOLYLINE
  5
409
100
AcDbEntity
  8
RACCORDO
100
AcDbPolyline
 62
7
  6
CONTINUOUS
 90
41
 70
0
 10
49.9279864348
 20
22.7740569383
 10
49.9402954077
 20
22.7738052781
 10
49.9520152999
 20
22.7730961437
 10
49.9636886205
 20
22.7719310145
 10
49.9752987269
 20
22.7703122064
 10
49.9868295707
 20
22.7682426403
 10
49.9982636733
 20
22.7657259787
 10
50.0095837199
 20
22.7627663615
 10
50.0207739679
 20
22.7593685574
 10
50.0318178952
 20
22.7555377157
 10
50.0426987911
 20
22.7512801346
 10
50.0534007182
 20
22.746602285
 10
50.0639077708
 20
22.7415113442
 10
50.074204281
 20
22.7360153137
 10
50.0842749686
 20
22.7301223602
 10
50.09410495
 20
22.7238416514
 10
50.1036795217
 20
22.7171825717
 10
50.1129846475
 20
22.7101551519
 10
50.1220064984
 20
22.7027699736
 10
50.1307315606
 20
22.6950380482
 10
50.1391470334
 20
22.6869710335
 10
50.147240196
 20
22.6785808515
 10
50.1549991134
 20
22.6698801485
 10
50.1624121924
 20
22.6608817054
 10
50.1694683033
 20
22.6515989488
 10
50.1761569213
 20
22.6420457332
 10
50.1824679569
 20
22.6322359458
 10
50.1883920175
 20
22.6221842801
 10
50.1939199047
 20
22.6119055977
 10
50.1990433914
 20
22.6014150262
 10
50.2037545023
 20
22.5907282478
 10
50.2080459037
 20
22.579861089
 10
50.211911186
 20
22.5688293774
 10
50.2153439358
 20
22.5576497512
 10
50.2183389138
 20
22.5463387443
 10
50.220891331
 20
22.5349120864
 10
50.2229968739
 20
22.5233870197
 10
50.2246519024
 20
22.5117810353
 10
50.2258533305
 20
22.5001102899
 10
50.226598821
 20
22.4883914658
 10
50.2268862685
 20
22.476642428
  0
LINE
  5
40A
100
AcDbEntity
  8
0
100
AcDbLine
 62
250
  6
CONTINUOUS
 10
-68.0195256511
 20
33.9308669742
 11
-67.8071216438
 21
33.9150870374
  0
LINE
  5
40B
100
AcDbEntity
  8
0
100
AcDbLine
 62
250
  6
CONTINUOUS
 10
-67.8071216438
 20
33.9150870374
 11
-67.5923939441
 21
33.8982307199
  0
LINE
  5
40C
100
AcDbEntity
  8
0
100
AcDbLine
 62
250
  6
CONTINUOUS
 10
-67.5923939441
 20
33.8982307199
 11
-67.3756935775
 21
33.8803255774
  0
LINE
  5
40D
100
AcDbEntity
  8
0
100
AcDbLine
 62
250
  6
CONTINUOUS
 10
-67.3756935775
 20
33.8803255774
 11
-67.1573747945
 21
33.8614008804
  0
LINE
  5
40E
100
AcDbEntity
  8
0
100
AcDbLine
 62
250
  6
CONTINUOUS
 10
-67.1573747945
 20
33.8614008804
 11
-66.9377944912
 21
33.8414875659
  0
LINE
  5
40F
100
AcDbEntity
  8
0
100
AcDbLine
 62
250
  6
CONTINUOUS
 10
-66.9377944912
 20
33.8414875659
 11
-66.7173116262
 21
33.8206181872
  0
LWPOLYLINE
  5
410
100
AcDbEntity
  8
0
100
AcDbPolyline
 62
250
  6
CONTINUOUS
 90
3
 70
0
 10
-66.7173116262
 20
33.8206181872
 10
-66.4962866331
 20
33.7988268605
 10
-66.3856837327
 20
33.7875965416
  0
LINE
  5
411
100
AcDbEntity
  8
0
100
AcDbLine
 62
250
  6
CONTINUOUS
 10
-72.0780289672
 20
33.904109589
 11
-71.8205110488
 21
33.8748188837
  0
LINE
  5
412
100
AcDbEntity
  8
0
100
AcDbLine
 62
250
  6
CONTINUOUS
 10
68.2292587403
 20
33.9455447342
 11
68.0195256523
 21
33.9308669744
  0
LINE
  5
413
100
AcDbEntity
  8
0
100
AcDbLine
 62
250
  6
CONTINUOUS
 10
68.4359780482
 20
33.9590963226
 11
68.2292587403
 21
33.9455447342
  0
LINE
  5
414
100
AcDbEntity
  8
0
100
AcDbLine
 62
250
  6
CONTINUOUS
 10
68.6393456421
 20
33.9714995861
 11
68.4359780482
 21
33.9590963226
  0
LINE
  5
415
100
AcDbEntity
  8
0
100
AcDbLine
 62
250
  6
CONTINUOUS
 10
68.8390290672
 20
33.9827342486
 11
68.6393456421
 21
33.9714995861
  0
LINE
  5
416
100
AcDbEntity
  8
0
100
AcDbLine
 62
250
  6
CONTINUOUS
 10
69.0347018914
 20
33.9927819441
 11
68.8390290672
 21
33.9827342486
  0
LINE
  5
417
100
AcDbEntity
  8
0
100
AcDbLine
 62
250
  6
CONTINUOUS
 10
69.2260442392
 20
34.0016262474
 11
69.0347018914
 21
33.9927819441
  0
LINE
  5
418
100
AcDbEntity
  8
0
100
AcDbLine
 62
250
  6
CONTINUOUS
 10
69.4127433139
 20
34.0092527
 11
69.2260442392
 21
34.0016262474
  0
LINE
  5
419
100
AcDbEntity
  8
0
100
AcDbLine
 62
250
  6
CONTINUOUS
 10
69.5944939098
 20
34.0156488348
 11
69.4127433139
 21
34.0092527
  0
LINE
  5
41A
100
AcDbEntity
  8
0
100
AcDbLine
 62
250
  6
CONTINUOUS
 10
69.7709989103
 20
34.0208041956
 11
69.5944939098
 21
34.0156488348
  0
LINE
  5
41B
100
AcDbEntity
  8
0
100
AcDbLine
 62
250
  6
CONTINUOUS
 10
69.9419697744
 20
34.0247103548
 11
69.7709989103
 21
34.0208041956
  0
LINE
  5
41C
100
AcDbEntity
  8
0
100
AcDbLine
 62
250
  6
CONTINUOUS
 10
70.1071270079
 20
34.0273609267
 11
69.9419697744
 21
34.0247103548
  0
LINE
  5
41D
100
AcDbEntity
  8
0
100
AcDbLine
 62
250
  6
CONTINUOUS
 10
70.2662006203
 20
34.0287515784
 11
70.1071270079
 21
34.0273609267
  0
LINE
  5
41E
100
AcDbEntity
  8
0
100
AcDbLine
 62
250
  6
CONTINUOUS
 10
-70.492838221
 20
34.028470796
 11
-70.3433744006
 21
34.0289736426
  0
LINE
  5
41F
100
AcDbEntity
  8
RACCORDO
100
AcDbLine
 62
250
  6
CONTINUOUS
 10
-51.1592431845
 20
32.2156939465
 11
51.1592431845
 21
32.2156939465
  0
LINE
  5
420
100
AcDbEntity
  8
0
100
AcDbLine
 62
250
  6
CONTINUOUS
 10
-70.3433744006
 20
34.0289736426
 11
-70.1874407543
 21
34.0282139325
  0
LINE
  5
421
100
AcDbEntity
  8
0
100
AcDbLine
 62
250
  6
CONTINUOUS
 10
-70.1874407543
 20
34.0282139325
 11
-70.0252921942
 21
34.0261929077
  0
LINE
  5
422
100
AcDbEntity
  8
0
100
AcDbLine
 62
250
  6
CONTINUOUS
 10
-70.0252921942
 20
34.0261929077
 11
-69.8571937923
 21
34.0229138721
  0
LINE
  5
423
100
AcDbEntity
  8
0
100
AcDbLine
 62
250
  6
CONTINUOUS
 10
-69.8571937923
 20
34.0229138721
 11
-69.6834203471
 21
34.018382186
  0
LINE
  5
424
100
AcDbEntity
  8
0
100
AcDbLine
 62
250
  6
CONTINUOUS
 10
-69.6834203471
 20
34.018382186
 11
-69.5042559342
 21
34.0126052576
  0
LINE
  5
425
100
AcDbEntity
  8
0
100
AcDbLine
 62
250
  6
CONTINUOUS
 10
-69.5042559342
 20
34.0126052576
 11
-69.3199934424
 21
34.0055925307
  0
LINE
  5
426
100
AcDbEntity
  8
0
100
AcDbLine
 62
250
  6
CONTINUOUS
 10
-69.3199934424
 20
34.0055925307
 11
-69.1309340944
 21
33.9973554694
  0
LINE
  5
427
100
AcDbEntity
  8
0
100
AcDbLine
 62
250
  6
CONTINUOUS
 10
-69.1309340944
 20
33.9973554694
 11
-68.9373869545
 21
33.9879075393
  0
LINE
  5
428
100
AcDbEntity
  8
0
100
AcDbLine
 62
250
  6
CONTINUOUS
 10
-68.9373869545
 20
33.9879075393
 11
-68.7396684234
 21
33.9772641852
  0
LINE
  5
429
100
AcDbEntity
  8
0
100
AcDbLine
 62
250
  6
CONTINUOUS
 10
-68.7396684234
 20
33.9772641852
 11
-68.538101721
 21
33.9654428063
  0
LINE
  5
42A
100
AcDbEntity
  8
0
100
AcDbLine
 62
250
  6
CONTINUOUS
 10
-68.538101721
 20
33.9654428063
 11
-68.3330163582
 21
33.9524627277
  0
LWPOLYLINE
  5
42B
100
AcDbEntity
  8
0
100
AcDbPolyline
 62
250
  6
CONTINUOUS
 90
3
 70
0
 10
-68.3330163582
 20
33.9524627277
 10
-68.1247475977
 20
33.9383451685
 10
-68.0195256511
 20
33.9308669742
  0
LINE
  5
42C
100
AcDbEntity
  8
0
100
AcDbLine
 62
250
  6
CONTINUOUS
 10
-64.1292815281
 20
35.8557926453
 11
64.1292815281
 21
35.8557926453
  0
LWPOLYLINE
  5
42D
100
AcDbEntity
  8
0
100
AcDbPolyline
 62
250
  6
CONTINUOUS
 90
82
 70
0
 10
64.1292815281
 20
35.8557926453
 10
64.1704897342
 20
35.855411619
 10
64.2116577698
 20
35.8542717408
 10
64.2527856351
 20
35.8523730099
 10
64.2938871617
 20
35.8497142751
 10
64.3349485178
 20
35.8462966845
 10
64.3759282087
 20
35.8421236856
 10
64.4168259773
 20
35.8371945
 10
64.4576420806
 20
35.8315099
 10
64.4983357948
 20
35.825075658
 10
64.5389069681
 20
35.8178910045
 10
64.5793557522
 20
35.8099567
 10
64.6196418792
 20
35.8012808116
 10
64.6597651413
 20
35.7918625899
 10
64.6997257462
 20
35.7817027724
 10
64.7394840491
 20
35.7708116565
 10
64.7790398484
 20
35.7591884941
 10
64.8183933456
 20
35.7468340186
 10
64.8575055004
 20
35.7337607488
 10
64.8963760636
 20
35.7199679498
 10
64.9350052844
 20
35.7054563395
 10
64.9733548697
 20
35.6902406152
 10
65.0114245382
 20
35.6743200522
 10
65.0492145713
 20
35.6576953559
 10
65.0866875205
 20
35.6403833687
 10
65.123843041
 20
35.6223833947
 10
65.1606814776
 20
35.6036961086
 10
65.1971664154
 20
35.5843404082
 10
65.2332974946
 20
35.5643156072
 10
65.2690750749
 20
35.543622369
 10
65.3044638208
 20
35.5222816163
 10
65.339463319
 20
35.5002926952
 10
65.3740739828
 20
35.4776562351
 10
65.4082617163
 20
35.4543950846
 10
65.4420260894
 20
35.4305086021
 10
65.4753675323
 20
35.4059974037
 10
65.508253239
 20
35.3808862241
 10
65.5406827281
 20
35.3551744622
 10
65.572656481
 20
35.3288626927
 10
65.6041431369
 20
35.3019774154
 10
65.6351421989
 20
35.2745180449
 10
65.6656541638
 20
35.2464851398
 10
65.6956491618
 20
35.217906917
 10
65.7251266516
 20
35.1887828352
 10
65.7540871743
 20
35.1591134088
 10
65.782502484
 20
35.1289284395
 10
65.810372024
 20
35.0982274058
 10
65.8376963509
 20
35.0670108025
 10
65.8644488876
 20
35.0353099571
 10
65.8906290418
 20
35.0031243934
 10
65.9162374058
 20
34.9704545614
 10
65.9412491795
 20
34.9373331786
 10
65.9656637551
 20
34.9037597942
 10
65.9894817404
 20
34.8697348338
 10
66.0126801586
 20
34.8352923308
 10
66.0352583724
 20
34.8004318832
 10
66.0572170192
 20
34.7651538688
 10
66.078535034
 20
34.7294934935
 10
66.0992117654
 20
34.6934503865
 10
66.1192478648
 20
34.6570248958
 10
66.1386242219
 20
34.6202533072
 10
66.157340168
 20
34.5831352882
 10
66.1753963718
 20
34.5456711503
 10
66.1927757286
 20
34.5078981474
 10
66.2094775553
 20
34.4698159843
 10
66.2255025351
 20
34.4314249371
 10
66.2408356127
 20
34.3927631191
 10
66.2554760865
 20
34.3538302925
 10
66.2694246581
 20
34.3146266782
 10
66.2826683774
 20
34.2751910803
 10
66.2952065369
 20
34.2355232991
 10
66.3070398441
 20
34.1956235198
 10
66.318157471
 20
34.1555311273
 10
66.3285587083
 20
34.1152459289
 10
66.3382442653
 20
34.0747681053
 10
66.347205442
 20
34.034137604
 10
66.3554415375
 20
33.9933540903
 10
66.3629532526
 20
33.9524178895
 10
66.3697339894
 20
33.9113699428
 10
66.3757815488
 20
33.8702238957
 10
66.3810981298
 20
33.8289660964
 10
66.3856837327
 20
33.7875965416
  0
LWPOLYLINE
  5
42E
100
AcDbEntity
  8
RACCORDO
100
AcDbPolyline
 62
250
  6
CONTINUOUS
 90
19
 70
0
 10
49.9356112352
 20
26.8146773088
 10
49.9837888969
 20
27.08395703
 10
50.0348428258
 20
27.357935902
 10
50.0887730219
 20
27.6365944794
 10
50.1457025234
 20
27.92012653
 10
50.205508292
 20
28.208289502
 10
50.2678212136
 20
28.5004021075
 10
50.3326870608
 20
28.7964863476
 10
50.4000600609
 20
29.096445892
 10
50.4694337814
 20
29.3994133348
 10
50.5408453067
 20
29.7053784684
 10
50.6142575524
 20
30.0142551971
 10
50.6890528328
 20
30.3250561881
 10
50.7652619078
 20
30.6377683908
 10
50.8428540176
 20
30.9522931065
 10
50.9211191967
 20
31.2675125363
 10
50.99982079
 20
31.5830155124
 10
51.0791954526
 20
31.8990960093
 10
51.1592431845
 20
32.2156939465
  0
LINE
  5
42F
100
AcDbEntity
  8
RACCORDO
100
AcDbLine
 62
250
  6
CONTINUOUS
 10
49.8632637331
 20
26.435971245
 11
49.9356112352
 21
26.8146773088
  0
LWPOLYLINE
  5
430
100
AcDbEntity
  8
RACCORDO
100
AcDbPolyline
 62
250
  6
CONTINUOUS
 90
41
 70
0
 10
49.7737851078
 20
-22.9323125997
 10
49.7613210826
 20
-22.938395227
 10
49.7491306898
 20
-22.9444330471
 10
49.7371736975
 20
-22.950426525
 10
49.7255213422
 20
-22.9563868045
 10
49.7142064574
 20
-22.9622886802
 10
49.7031962097
 20
-22.9681326084
 10
49.692463336
 20
-22.97397453
 10
49.6819849732
 20
-22.9798223201
 10
49.6717839844
 20
-22.9856541942
 10
49.6619016961
 20
-22.9914869384
 10
49.6522947938
 20
-22.9973477987
 10
49.643006592
 20
-23.0031995023
 10
49.6342083606
 20
-23.0089600817
 10
49.6259722097
 20
-23.0145806965
 10
49.6182260293
 20
-23.0200928227
 10
49.6109247595
 20
-23.025533808
 10
49.6040648885
 20
-23.0309026675
 10
49.597649928
 20
-23.0361893588
 10
49.5916453534
 20
-23.0414206885
 10
49.586044479
 20
-23.0466020818
 10
49.5808539905
 20
-23.0517202844
 10
49.5760594197
 20
-23.0567754449
 10
49.5716643201
 20
-23.0617667507
 10
49.5676651382
 20
-23.0666880245
 10
49.5640367449
 20
-23.0715315525
 10
49.5607841828
 20
-23.0762949208
 10
49.5579024094
 20
-23.080974017
 10
49.5553511683
 20
-23.0855584842
 10
49.5531344129
 20
-23.0900463705
 10
49.5512481898
 20
-23.0944335114
 10
49.5496403835
 20
-23.098706036
 10
49.5483140297
 20
-23.1028590854
 10
49.5472660926
 20
-23.1068917005
 10
49.54643535
 20
-23.1107957479
 10
49.545820036
 20
-23.1145451041
 10
49.5454219165
 20
-23.1181604755
 10
49.5451850657
 20
-23.1217050406
 10
49.5450908418
 20
-23.1251993813
 10
49.5451578867
 20
-23.1286204128
 10
49.5453862003
 20
-23.1319668478
  0
LWPOLYLINE
  5
431
100
AcDbEntity
  8
RACCORDO
100
AcDbPolyline
 62
250
  6
CONTINUOUS
 90
3
 70
0
 10
49.8121160003
 20
-22.9140602897
 10
49.7992214262
 20
-22.9201493189
 10
49.7737851078
 20
-22.9323125997
  0
LINE
  5
432
100
AcDbEntity
  8
RACCORDO
100
AcDbLine
 62
250
  6
CONTINUOUS
 10
49.9541507967
 20
-22.848792425
 11
49.9450719979
 21
-22.8530849284
  0
LINE
  5
433
100
AcDbEntity
  8
RACCORDO
100
AcDbLine
 62
250
  6
CONTINUOUS
 10
49.8493262989
 20
-22.8968239234
 11
49.8121160003
 21
-22.9140602897
  0
LINE
  5
434
100
AcDbEntity
  8
RACCORDO
100
AcDbLine
 62
250
  6
CONTINUOUS
 10
49.9450719979
 20
-22.8530849284
 11
49.9282743137
 21
-22.8608549835
  0
LINE
  5
435
100
AcDbEntity
  8
RACCORDO
100
AcDbLine
 62
250
  6
CONTINUOUS
 10
49.9282743137
 20
-22.8608549835
 11
49.8493262989
 21
-22.8968239234
  0
LINE
  5
436
100
AcDbEntity
  8
0
100
AcDbLine
 62
250
  6
CONTINUOUS
 10
-64.1292815281
 20
40.7622148997
 11
64.1292815281
 21
40.7622148997
  0
LINE
  5
437
100
AcDbEntity
  8
0
100
AcDbLine
 62
7
  6
CONTINUOUS
 10
64.1292815281
 20
41.0
 11
-64.1292815281
 21
41.0
  0
LWPOLYLINE
  5
438
100
AcDbEntity
  8
0
100
AcDbPolyline
 62
250
  6
CONTINUOUS
 90
82
 70
0
 10
64.1292815281
 20
40.7622148997
 10
64.2687501718
 20
40.7609577729
 10
64.4081744023
 20
40.757186814
 10
64.5475087674
 20
40.7509032033
 10
64.686707565
 20
40.7421089516
 10
64.8257256918
 20
40.7308068911
 10
64.9645186566
 20
40.7170006253
 10
65.1030414085
 20
40.7006945455
 10
65.241248577
 20
40.6818939296
 10
65.3790953212
 20
40.6606048836
 10
65.5165366205
 20
40.6368342837
 10
65.6535277302
 20
40.6105898142
 10
65.7900244228
 20
40.5818799788
 10
65.9259820645
 20
40.5507140796
 10
66.0613564393
 20
40.5171021919
 10
66.196104204
 20
40.4810551205
 10
66.3301814451
 20
40.4425844935
 10
66.4635443879
 20
40.4017027748
 10
66.5961502159
 20
40.3584231353
 10
66.7279556807
 20
40.3127595467
 10
66.8589177595
 20
40.2647267941
 10
66.9889943559
 20
40.214340371
 10
67.1181430623
 20
40.161616538
 10
67.2463216815
 20
40.1065723774
 10
67.3734888799
 20
40.0492257063
 10
67.4996031067
 20
39.9895950832
 10
67.6246232266
 20
39.9276998007
 10
67.7485090378
 20
39.8635598428
 10
67.8712201202
 20
39.7971959309
 10
67.9927163579
 20
39.7286295757
 10
68.1129585709
 20
39.6578829826
 10
68.2319074579
 20
39.5849790543
 10
68.3495241768
 20
39.5099413963
 10
68.4657708614
 20
39.4327942756
 10
68.5806095601
 20
39.3535626322
 10
68.6940026936
 20
39.2722721649
 10
68.8059136379
 20
39.1889492561
 10
68.9163057826
 20
39.1036209033
 10
69.0251430516
 20
39.0163147492
 10
69.1323903607
 20
38.9270590837
 10
69.2380126617
 20
38.8358827894
 10
69.3419753643
 20
38.7428154551
 10
69.4442448639
 20
38.6478873328
 10
69.5447876777
 20
38.551129201
 10
69.6435709135
 20
38.452572428
 10
69.7405626968
 20
38.3522490097
 10
69.8357312966
 20
38.2501914401
 10
69.9290455185
 20
38.1464328574
 10
70.0204751872
 20
38.0410070378
 10
70.109990345
 20
37.933948182
 10
70.1975616699
 20
37.8252910261
 10
70.2831608815
 20
37.7150709176
 10
70.366759943
 20
37.6033235877
 10
70.4483314255
 20
37.4900853394
 10
70.5278489462
 20
37.3753930948
 10
70.6052864212
 20
37.2592840885
 10
70.6806184563
 20
37.141796014
 10
70.7538207305
 20
37.0229671471
 10
70.8248692298
 20
36.9028360518
 10
70.8937406228
 20
36.7814417612
 10
70.9604126758
 20
36.6588238629
 10
71.0248635026
 20
36.5350221591
 10
71.0870719202
 20
36.4100768882
 10
71.1470178506
 20
36.2840288435
 10
71.2046816048
 20
36.1569189436
 10
71.2600442099
 20
36.02878852
 10
71.3130877985
 20
35.8996794797
 10
71.3637949137
 20
35.7696338007
 10
71.4121488812
 20
35.6386937253
 10
71.4581341704
 20
35.5069019876
 10
71.5017356373
 20
35.3743014312
 10
71.5429389135
 20
35.2409351481
 10
71.5817308094
 20
35.1068466106
 10
71.6180985427
 20
34.9720793018
 10
71.6520300788
 20
34.8366771352
 10
71.6835145595
 20
34.7006845326
 10
71.7125415745
 20
34.5641458037
 10
71.739101527
 20
34.4271052447
 10
71.763186003
 20
34.2896074953
 10
71.7847871374
 20
34.1516972806
 10
71.8038976122
 20
34.0134194191
 10
71.8205110488
 20
33.8748188837
  0
LWPOLYLINE
  5
439
100
AcDbEntity
  8
RACCORDO
100
AcDbPolyline
 62
250
  6
CONTINUOUS
 90
28
 70
0
 10
50.5596199825
 20
26.6685813055
 10
50.5429516203
 20
26.6742501672
 10
50.5255901522
 20
26.6799532934
 10
50.5075553914
 20
26.6856841757
 10
50.4888679193
 20
26.6914362739
 10
50.4695490624
 20
26.6972030236
 10
50.4496208678
 20
26.7029778436
 10
50.4291060776
 20
26.7087541438
 10
50.4080281038
 20
26.714525332
 10
50.3864110007
 20
26.7202848222
 10
50.3642794383
 20
26.7260260415
 10
50.3416586732
 20
26.7317424379
 10
50.3185745208
 20
26.7374274879
 10
50.2950533249
 20
26.7430747034
 10
50.2711219284
 20
26.74867764
 10
50.246807642
 20
26.7542299033
 10
50.2221382137
 20
26.7597251571
 10
50.1971417964
 20
26.7651571301
 10
50.1718469166
 20
26.7705196233
 10
50.1462824411
 20
26.7758065169
 10
50.1204775444
 20
26.7810117774
 10
50.0944616756
 20
26.7861294644
 10
50.0682645242
 20
26.7911537378
 10
50.0419159869
 20
26.7960788635
 10
50.0154461331
 20
26.8008992211
 10
49.9888851704
 20
26.8056093094
 10
49.9622634107
 20
26.8102037532
 10
49.9356112352
 20
26.8146773094
  0
LINE
  5
43A
100
AcDbEntity
  8
RACCORDO
100
AcDbLine
 62
250
  6
CONTINUOUS
 10
49.8476438485
 20
22.89952313
 11
49.934512691
 21
22.8580322134
  0
LINE
  5
43B
100
AcDbEntity
  8
RACCORDO
100
AcDbLine
 62
250
  6
CONTINUOUS
 10
49.8224517461
 20
22.9117516838
 11
49.8476438485
 21
22.89952313
  0
LINE
  5
43C
100
AcDbEntity
  8
RACCORDO
100
AcDbLine
 62
250
  6
CONTINUOUS
 10
49.934512691
 20
22.8580322134
 11
49.9453882312
 21
22.8527462162
  0
LWPOLYLINE
  5
43D
100
AcDbEntity
  8
RACCORDO
100
AcDbPolyline
 62
250
  6
CONTINUOUS
 90
22
 70
0
 10
49.9453882312
 20
22.8527462162
 10
49.9545480459
 20
22.8482201367
 10
49.9585077496
 20
22.846216917
 10
49.9621122185
 20
22.8443723668
 10
49.9653626498
 20
22.8426778654
 10
49.9682578465
 20
22.8411248956
 10
49.9708527794
 20
22.8397032727
 10
49.9731488178
 20
22.8384053985
 10
49.9751445924
 20
22.8372237395
 10
49.9768909679
 20
22.836149253
 10
49.9783896144
 20
22.8351750296
 10
49.9796388616
 20
22.8342948602
 10
49.9806845628
 20
22.8335016142
 10
49.9815276828
 20
22.8327890052
 10
49.9821672567
 20
22.8321518067
 10
49.9826462442
 20
22.8315848769
 10
49.9829648931
 20
22.8310831519
 10
49.9831229556
 20
22.8306411021
 10
49.9831626469
 20
22.8302532609
 10
49.9830980387
 20
22.8299148685
 10
49.9829150593
 20
22.8296217066
 10
49.9826137088
 20
22.8293695705
  0
LWPOLYLINE
  5
43E
100
AcDbEntity
  8
RACCORDO
100
AcDbPolyline
 62
250
  6
CONTINUOUS
 90
3
 70
0
 10
49.7823271635
 20
22.9316392617
 10
49.7957209999
 20
22.9249124819
 10
49.8224517461
 20
22.9117516838
  0
LWPOLYLINE
  5
43F
100
AcDbEntity
  8
0
100
AcDbPolyline
 62
7
  6
CONTINUOUS
 90
13
 70
0
 43
0.3500000006
 10
1.2857142735
 20
51.4642862091
 10
1.0000000219
 20
51.678570694
 10
1.0000000219
 20
52.3214286804
 10
1.2857142735
 20
52.750002182
 10
1.9285714102
 20
52.750002182
 10
2.2142856617
 20
52.3214286804
 10
2.2142856617
 20
51.678570694
 10
1.9285714102
 20
51.4642862091
 10
2.3571427875
 20
51.0357127075
 10
2.3571427875
 20
50.1785702362
 10
1.9285714102
 20
49.7500012665
 10
1.2857142735
 20
49.7500012665
 10
0.8571428254
 20
50.1785702362
  0
LINE
  5
440
100
AcDbEntity
  8
RACCORDO
100
AcDbLine
 62
250
  6
CONTINUOUS
 10
49.9959461619
 20
-26.6972450424
 11
49.9275671382
 21
-26.4211303687
  0
LWPOLYLINE
  5
441
100
AcDbEntity
  8
RACCORDO
100
AcDbPolyline
 62
250
  6
CONTINUOUS
 90
18
 70
0
 10
49.9275671382
 20
-26.4211303687
 10
49.8625081406
 20
-26.1529629583
 10
49.8319462158
 20
-26.0230918738
 10
49.803150098
 20
-25.8968363439
 10
49.7759461101
 20
-25.7738601329
 10
49.7506544635
 20
-25.6545609256
 10
49.7273755387
 20
-25.5391104478
 10
49.7060089552
 20
-25.42729951
 10
49.6865737829
 20
-25.318946117
 10
49.6691035419
 20
-25.2140583066
 10
49.6535647121
 20
-25.112580002
 10
49.6398758036
 20
-25.0142359788
 10
49.6280476854
 20
-24.9189892531
 10
49.6180694884
 20
-24.8268254273
 10
49.6098271159
 20
-24.7375082563
 10
49.6032825357
 20
-24.6509429777
 10
49.5984737801
 20
-24.5671725757
 10
49.595400849
 20
-24.486169292
  0
LWPOLYLINE
  5
442
100
AcDbEntity
  8
RACCORDO
100
AcDbPolyline
 62
250
  6
CONTINUOUS
 90
13
 70
0
 10
51.1592431401
 20
-32.2156939465
 10
51.0726038732
 20
-31.8221511882
 10
50.9868106116
 20
-31.429428707
 10
50.9018633555
 20
-31.0375976734
 10
50.8174745329
 20
-30.6462671935
 10
50.7339317157
 20
-30.2559664408
 10
50.6520976196
 20
-29.8681466489
 10
50.5720059175
 20
-29.48290397
 10
50.4936229364
 20
-29.1002734389
 10
50.4177103725
 20
-28.7216122402
 10
50.3445221244
 20
-28.3474097068
 10
50.2738042936
 20
-27.9772877074
 10
50.2055568799
 20
-27.6112964501
  0
LWPOLYLINE
  5
443
100
AcDbEntity
  8
RACCORDO
100
AcDbPolyline
 62
250
  6
CONTINUOUS
 90
8
 70
0
 10
50.2055568799
 20
-27.6112964501
 10
50.1815594751
 20
-27.4936281981
 10
50.1554536437
 20
-27.3712427415
 10
50.1272393859
 20
-27.2441877863
 10
50.0964022476
 20
-27.1112561258
 10
50.0634566827
 20
-26.9737805884
 10
50.0299460531
 20
-26.8356056502
 10
49.9959461619
 20
-26.6972450424
  0
LINE
  5
444
100
AcDbEntity
  8
RACCORDO
100
AcDbLine
 62
250
  6
CONTINUOUS
 10
50.3368457083
 20
-22.5214227889
 11
50.3363479716
 21
-22.5168201466
  0
LINE
  5
445
100
AcDbEntity
  8
RACCORDO
100
AcDbLine
 62
7
  6
CONTINUOUS
 10
50.2870627365
 20
8.4330318784
 11
50.2887109366
 21
8.4177665011
  0
LINE
  5
446
100
AcDbEntity
  8
RACCORDO
100
AcDbLine
 62
250
  6
CONTINUOUS
 10
51.1592434865
 20
-32.2156955138
 11
51.0750283056
 21
-31.4110799163
  0
LWPOLYLINE
  5
447
100
AcDbEntity
  8
RACCORDO
100
AcDbPolyline
 62
250
  6
CONTINUOUS
 90
10
 70
0
 10
51.0750283056
 20
-31.4110799163
 10
50.9921110339
 20
-30.6105892483
 10
50.9512880605
 20
-30.211854487
 10
50.9112419101
 20
-29.8158496977
 10
50.8720395199
 20
-29.4226449636
 10
50.8337380753
 20
-29.0322247903
 10
50.7966020512
 20
-28.6460086934
 10
50.7607459255
 20
-28.2644857427
 10
50.7261589276
 20
-27.88722209
 10
50.6812610993
 20
-27.3857884741
  0
LINE
  5
448
100
AcDbEntity
  8
RACCORDO
100
AcDbLine
 62
250
  6
CONTINUOUS
 10
50.3373284487
 20
-22.5261372124
 11
50.3368457083
 21
-22.5214227889
  0
LINE
  5
449
100
AcDbEntity
  8
RACCORDO
100
AcDbLine
 62
7
  6
CONTINUOUS
 10
50.2887109366
 20
8.4177665011
 11
50.2904159158
 21
8.4011256866
  0
LINE
  5
44A
100
AcDbEntity
  8
RACCORDO
100
AcDbLine
 62
7
  6
CONTINUOUS
 10
50.2904159158
 20
8.4011256866
 11
50.2921698095
 21
8.3830934143
  0
LWPOLYLINE
  5
44B
100
AcDbEntity
  8
RACCORDO
100
AcDbPolyline
 62
250
  6
CONTINUOUS
 90
6
 70
0
 10
50.6812610993
 20
-27.3857884741
 10
50.668466203
 20
-27.2523034693
 10
50.6545528552
 20
-27.1138376114
 10
50.6394326559
 20
-26.9690079514
 10
50.6233233858
 20
-26.8192804856
 10
50.6067972721
 20
-26.6689352176
  0
LINE
  5
44C
100
AcDbEntity
  8
RACCORDO
100
AcDbLine
 62
250
  6
CONTINUOUS
 10
50.3377963011
 20
-22.53095365
 11
50.3373284487
 21
-22.5261372124
  0
LINE
  5
44D
100
AcDbEntity
  8
RACCORDO
100
AcDbLine
 62
7
  6
CONTINUOUS
 10
50.2921698095
 20
8.3830934143
 11
50.2939661229
 21
8.363647089
  0
LINE
  5
44E
100
AcDbEntity
  8
RACCORDO
100
AcDbLine
 62
250
  6
CONTINUOUS
 10
50.3382493354
 20
-22.5358654033
 11
50.3377963011
 21
-22.53095365
  0
LINE
  5
44F
100
AcDbEntity
  8
RACCORDO
100
AcDbLine
 62
7
  6
CONTINUOUS
 10
50.2939661229
 20
8.363647089
 11
50.2957973728
 21
8.3427800769
  0
LINE
  5
450
100
AcDbEntity
  8
RACCORDO
100
AcDbLine
 62
250
  6
CONTINUOUS
 10
50.3389013374
 20
-22.543388753
 11
50.3382493354
 21
-22.5358654033
  0
LINE
  5
451
100
AcDbEntity
  8
RACCORDO
100
AcDbLine
 62
7
  6
CONTINUOUS
 10
50.2957973728
 20
8.3427800769
 11
50.2985955914
 21
8.3087884593
  0
LINE
  5
452
100
AcDbEntity
  8
RACCORDO
100
AcDbLine
 62
250
  6
CONTINUOUS
 10
50.3395205788
 20
-22.5510703064
 11
50.3389013374
 21
-22.543388753
  0
LINE
  5
453
100
AcDbEntity
  8
RACCORDO
100
AcDbLine
 62
250
  6
CONTINUOUS
 10
50.294796534
 20
8.3838330875
 11
50.2990909561
 21
8.3306715372
  0
LINE
  5
454
100
AcDbEntity
  8
RACCORDO
100
AcDbLine
 62
7
  6
CONTINUOUS
 10
50.2985955914
 20
8.3087884593
 11
50.3014385981
 21
8.2715244798
  0
LINE
  5
455
100
AcDbEntity
  8
RACCORDO
100
AcDbLine
 62
250
  6
CONTINUOUS
 10
50.3401076456
 20
-22.55887856
 11
50.3395205788
 21
-22.5510703064
  0
LINE
  5
456
100
AcDbEntity
  8
RACCORDO
100
AcDbLine
 62
250
  6
CONTINUOUS
 10
50.2990909561
 20
8.3306715372
 11
50.3032458766
 21
8.2735460715
  0
LINE
  5
457
100
AcDbEntity
  8
RACCORDO
100
AcDbLine
 62
7
  6
CONTINUOUS
 10
50.3014385981
 20
8.2715244798
 11
50.3043090984
 21
8.2309318457
  0
LINE
  5
458
100
AcDbEntity
  8
RACCORDO
100
AcDbLine
 62
250
  6
CONTINUOUS
 10
50.340664196
 20
-22.5667964988
 11
50.3401076456
 21
-22.55887856
  0
LINE
  5
459
100
AcDbEntity
  8
RACCORDO
100
AcDbLine
 62
250
  6
CONTINUOUS
 10
50.3032458766
 20
8.2735460715
 11
50.3072486357
 21
8.2126340221
  0
LINE
  5
45A
100
AcDbEntity
  8
RACCORDO
100
AcDbLine
 62
7
  6
CONTINUOUS
 10
50.3043090984
 20
8.2309318457
 11
50.3071911765
 21
8.1869553126
  0
LINE
  5
45B
100
AcDbEntity
  8
RACCORDO
100
AcDbLine
 62
250
  6
CONTINUOUS
 10
50.3413626921
 20
-22.5775163888
 11
50.340664196
 21
-22.5667964988
  0
LINE
  5
45C
100
AcDbEntity
  8
RACCORDO
100
AcDbLine
 62
7
  6
CONTINUOUS
 10
50.3071911765
 20
8.1869553126
 11
50.3100690555
 21
8.1395478618
  0
LINE
  5
45D
100
AcDbEntity
  8
RACCORDO
100
AcDbLine
 62
250
  6
CONTINUOUS
 10
50.3420159817
 20
-22.588423402
 11
50.3413626921
 21
-22.5775163888
  0
LINE
  5
45E
100
AcDbEntity
  8
RACCORDO
100
AcDbLine
 62
250
  6
CONTINUOUS
 10
50.3072486357
 20
8.2126340221
 11
50.3110915122
 21
8.1480528129
  0
LINE
  5
45F
100
AcDbEntity
  8
RACCORDO
100
AcDbLine
 62
250
  6
CONTINUOUS
 10
50.3426299399
 20
-22.5995487676
 11
50.3420159817
 21
-22.588423402
  0
LINE
  5
460
100
AcDbEntity
  8
RACCORDO
100
AcDbLine
 62
7
  6
CONTINUOUS
 10
50.3100690555
 20
8.1395478618
 11
50.3138734404
 21
8.0709354944
  0
LINE
  5
461
100
AcDbEntity
  8
RACCORDO
100
AcDbLine
 62
250
  6
CONTINUOUS
 10
50.3110915122
 20
8.1480528129
 11
50.3147632575
 21
8.0799883261
  0
LINE
  5
462
100
AcDbEntity
  8
RACCORDO
100
AcDbLine
 62
250
  6
CONTINUOUS
 10
50.3433512342
 20
-22.6138617448
 11
50.3426299399
 21
-22.5995487676
  0
LINE
  5
463
100
AcDbEntity
  8
RACCORDO
100
AcDbLine
 62
7
  6
CONTINUOUS
 10
50.3138734404
 20
8.0709354944
 11
50.3176074837
 21
7.9960896056
  0
LINE
  5
464
100
AcDbEntity
  8
RACCORDO
100
AcDbLine
 62
250
  6
CONTINUOUS
 10
50.3147632575
 20
8.0799883261
 11
50.3182550767
 21
8.0086154472
  0
LINE
  5
465
100
AcDbEntity
  8
RACCORDO
100
AcDbLine
 62
250
  6
CONTINUOUS
 10
50.344029342
 20
-22.6287459313
 11
50.3433512342
 21
-22.6138617448
  0
LINE
  5
466
100
AcDbEntity
  8
RACCORDO
100
AcDbLine
 62
7
  6
CONTINUOUS
 10
50.3176074837
 20
7.9960896056
 11
50.3212397075
 21
7.914886267
  0
LINE
  5
467
100
AcDbEntity
  8
RACCORDO
100
AcDbLine
 62
250
  6
CONTINUOUS
 10
49.5602489173
 20
-23.4756486013
 11
49.5453862016
 21
-23.1319668478
  0
LINE
  5
468
100
AcDbEntity
  8
RACCORDO
100
AcDbLine
 62
250
  6
CONTINUOUS
 10
50.3182550767
 20
8.0086154472
 11
50.3231411999
 21
7.895648665
  0
LINE
  5
469
100
AcDbEntity
  8
RACCORDO
100
AcDbLine
 62
250
  6
CONTINUOUS
 10
50.3537059672
 20
-22.869437132
 11
50.344029342
 21
-22.6287459313
  0
LINE
  5
46A
100
AcDbEntity
  8
RACCORDO
100
AcDbLine
 62
7
  6
CONTINUOUS
 10
50.3212397075
 20
7.914886267
 11
50.3247440663
 21
7.8270522449
  0
LINE
  5
46B
100
AcDbEntity
  8
RACCORDO
100
AcDbLine
 62
250
  6
CONTINUOUS
 10
49.5740257583
 20
-23.832636483
 11
49.5602489173
 21
-23.4756486013
  0
LINE
  5
46C
100
AcDbEntity
  8
RACCORDO
100
AcDbLine
 62
250
  6
CONTINUOUS
 10
50.3670387802
 20
-23.2321086057
 11
50.3537059672
 21
-22.869437132
  0
LINE
  5
46D
100
AcDbEntity
  8
RACCORDO
100
AcDbLine
 62
250
  6
CONTINUOUS
 10
50.3231411999
 20
7.895648665
 11
50.3275812531
 21
7.7761530618
  0
LINE
  5
46E
100
AcDbEntity
  8
RACCORDO
100
AcDbLine
 62
7
  6
CONTINUOUS
 10
50.3247440663
 20
7.8270522449
 11
50.3280911629
 21
7.7323048578
  0
LINE
  5
46F
100
AcDbEntity
  8
RACCORDO
100
AcDbLine
 62
250
  6
CONTINUOUS
 10
49.5866751404
 20
-24.2018659414
 11
49.5740257583
 21
-23.832636483
  0
LINE
  5
470
100
AcDbEntity
  8
RACCORDO
100
AcDbLine
 62
250
  6
CONTINUOUS
 10
50.3793975388
 20
-23.6071026423
 11
50.3670387802
 21
-23.2321086057
  0
LINE
  5
471
100
AcDbEntity
  8
RACCORDO
100
AcDbLine
 62
250
  6
CONTINUOUS
 10
50.3275812531
 20
7.7761530618
 11
50.3315495381
 21
7.6508302099
  0
LINE
  5
472
100
AcDbEntity
  8
RACCORDO
100
AcDbLine
 62
250
  6
CONTINUOUS
 10
49.595400849
 20
-24.486169292
 11
49.5866751404
 21
-24.2018659414
  0
LINE
  5
473
100
AcDbEntity
  8
RACCORDO
100
AcDbLine
 62
7
  6
CONTINUOUS
 10
50.3280911629
 20
7.7323048578
 11
50.3320020039
 21
7.6037440831
  0
LWPOLYLINE
  5
474
100
AcDbEntity
  8
RACCORDO
100
AcDbPolyline
 62
250
  6
CONTINUOUS
 90
3
 70
0
 10
50.3943044764
 20
-24.1245085019
 10
50.3907474546
 20
-23.9933354821
 10
50.3793975388
 20
-23.6071026423
  0
LINE
  5
475
100
AcDbEntity
  8
RACCORDO
100
AcDbLine
 62
250
  6
CONTINUOUS
 10
50.3315495381
 20
7.6508302099
 11
50.3350246108
 21
7.5203866911
  0
LINE
  5
476
100
AcDbEntity
  8
RACCORDO
100
AcDbLine
 62
7
  6
CONTINUOUS
 10
50.3320020039
 20
7.6037440831
 11
50.3355382351
 21
7.4634687987
  0
LWPOLYLINE
  5
477
100
AcDbEntity
  8
RACCORDO
100
AcDbPolyline
 62
250
  6
CONTINUOUS
 90
40
 70
0
 10
50.2822025692
 20
22.5297807101
 10
50.2819274641
 20
22.5418229582
 10
50.2811685626
 20
22.5538457418
 10
50.2799270911
 20
22.5658296278
 10
50.2782050563
 20
22.5777552461
 10
50.2760052417
 20
22.5896033206
 10
50.273331203
 20
22.6013547007
 10
50.2701872623
 20
22.612990392
 10
50.2665785014
 20
22.6244915871
 10
50.2625107532
 20
22.6358396961
 10
50.2579905927
 20
22.6470163764
 10
50.2530253261
 20
22.6580035625
 10
50.2476229789
 20
22.6687834953
 10
50.2417922833
 20
22.6793387507
 10
50.2355426638
 20
22.6896522675
 10
50.2288842218
 20
22.6997073756
 10
50.2218277198
 20
22.7094878223
 10
50.2143845637
 20
22.7189777989
 10
50.206566784
 20
22.7281619664
 10
50.1983870173
 20
22.7370254798
 10
50.1898584847
 20
22.7455540126
 10
50.1809949714
 20
22.7537337797
 10
50.1718108041
 20
22.7615515597
 10
50.1623208275
 20
22.7689947162
 10
50.1525403807
 20
22.7760512186
 10
50.1424852726
 20
22.782709661
 10
50.1321717555
 20
22.788959281
 10
50.1216164999
 20
22.7947899771
 10
50.1108365668
 20
22.8001923247
 10
50.0998493803
 20
22.8051575917
 10
50.0886726996
 20
22.8096777526
 10
50.0773245902
 20
22.8137455012
 10
50.0658233946
 20
22.8173542625
 10
50.0541877028
 20
22.8204982035
 10
50.0424363221
 20
22.8231722424
 10
50.0305882471
 20
22.8253720572
 10
50.0186626282
 20
22.8270940922
 10
50.0066787416
 20
22.8283355638
 10
49.9946559575
 20
22.8290944655
 10
49.9826137088
 20
22.8293695705
  0
LINE
  5
478
100
AcDbEntity
  8
RACCORDO
100
AcDbLine
 62
250
  6
CONTINUOUS
 10
50.3350246108
 20
7.5203866911
 11
50.3379911552
 21
7.3854086932
  0
LINE
  5
479
100
AcDbEntity
  8
RACCORDO
100
AcDbLine
 62
7
  6
CONTINUOUS
 10
50.3355382351
 20
7.4634687987
 11
50.3386112606
 21
7.3110258072
  0
LINE
  5
47A
100
AcDbEntity
  8
RACCORDO
100
AcDbLine
 62
250
  6
CONTINUOUS
 10
50.3379911552
 20
7.3854086932
 11
50.3404350088
 21
7.2464855925
  0
LWPOLYLINE
  5
47B
100
AcDbEntity
  8
RACCORDO
100
AcDbPolyline
 62
250
  6
CONTINUOUS
 90
9
 70
0
 10
50.2490483482
 20
8.6723188343
 10
50.2493141384
 20
8.6536401233
 10
50.2502819531
 20
8.6349876884
 10
50.2519504308
 20
8.6163877684
 10
50.2543172242
 20
8.5978665282
 10
50.2573790041
 20
8.5794500221
 10
50.2611314632
 20
8.5611641571
 10
50.2655693229
 20
8.5430346563
 10
50.2706863403
 20
8.5250870229
  0
LINE
  5
47C
100
AcDbEntity
  8
RACCORDO
100
AcDbLine
 62
7
  6
CONTINUOUS
 10
50.3386112606
 20
7.3110258072
 11
50.3411157915
 21
7.1461458334
  0
LWPOLYLINE
  5
47D
100
AcDbEntity
  8
RACCORDO
100
AcDbPolyline
 62
250
  6
CONTINUOUS
 90
12
 70
0
 10
50.2275752953
 20
8.708165587
 10
50.2278009379
 20
8.6907505392
 10
50.2286371521
 20
8.6733522089
 10
50.2300833967
 20
8.6559919066
 10
50.2321385699
 20
8.6386895504
 10
50.2348005431
 20
8.621467777
 10
50.2380656798
 20
8.6043518391
 10
50.2419297225
 20
8.587363942
 10
50.246388193
 20
8.5705236763
 10
50.2514355508
 20
8.5538520647
 10
50.2570655582
 20
8.5373696932
 10
50.2632713631
 20
8.5210966059
  0
LINE
  5
47E
100
AcDbEntity
  8
RACCORDO
100
AcDbLine
 62
250
  6
CONTINUOUS
 10
50.3404350088
 20
7.2464855925
 11
50.3423400501
 21
7.1044547457
  0
LINE
  5
47F
100
AcDbEntity
  8
RACCORDO
100
AcDbLine
 62
7
  6
CONTINUOUS
 10
50.3411157915
 20
7.1461458334
 11
50.3426284872
 21
7.0052607195
  0
LINE
  5
480
100
AcDbEntity
  8
RACCORDO
100
AcDbLine
 62
250
  6
CONTINUOUS
 10
50.3423400501
 20
7.1044547457
 11
50.3436930489
 21
6.9603646823
  0
LINE
  5
481
100
AcDbEntity
  8
RACCORDO
100
AcDbLine
 62
7
  6
CONTINUOUS
 10
50.3426284872
 20
7.0052607195
 11
50.3436283972
 21
6.8565512347
  0
LINE
  5
482
100
AcDbEntity
  8
RACCORDO
100
AcDbLine
 62
250
  6
CONTINUOUS
 10
51.1724335131
 20
29.3591339724
 11
51.1592434935
 21
32.2156939465
  0
LINE
  5
483
100
AcDbEntity
  8
RACCORDO
100
AcDbLine
 62
250
  6
CONTINUOUS
 10
50.3436930489
 20
6.9603646823
 11
50.344488496
 21
6.8153443632
  0
LINE
  5
484
100
AcDbEntity
  8
RACCORDO
100
AcDbLine
 62
250
  6
CONTINUOUS
 10
51.1843989895
 20
26.5006046669
 11
51.1724335131
 21
29.3591339724
  0
LINE
  5
485
100
AcDbEntity
  8
RACCORDO
100
AcDbLine
 62
250
  6
CONTINUOUS
 10
51.1951396464
 20
23.6402980215
 11
51.1843989895
 21
26.5006046669
  0
LINE
  5
486
100
AcDbEntity
  8
RACCORDO
100
AcDbLine
 62
250
  6
CONTINUOUS
 10
50.4039797804
 20
21.2915531377
 11
50.3939664305
 21
24.2174730502
  0
LINE
  5
487
100
AcDbEntity
  8
RACCORDO
100
AcDbLine
 62
250
  6
CONTINUOUS
 10
51.2046545325
 20
20.7784064509
 11
51.1951396464
 21
23.6402980215
  0
LINE
  5
488
100
AcDbEntity
  8
RACCORDO
100
AcDbLine
 62
250
  6
CONTINUOUS
 10
50.4127050687
 20
18.3641822135
 11
50.4039797804
 21
21.2915531377
  0
LINE
  5
489
100
AcDbEntity
  8
RACCORDO
100
AcDbLine
 62
250
  6
CONTINUOUS
 10
51.2129429678
 20
17.9151218788
 11
51.2046545325
 21
20.7784064509
  0
LINE
  5
48A
100
AcDbEntity
  8
RACCORDO
100
AcDbLine
 62
250
  6
CONTINUOUS
 10
50.4201420668
 20
15.4354444211
 11
50.4127050687
 21
18.3641822135
  0
LINE
  5
48B
100
AcDbEntity
  8
RACCORDO
100
AcDbLine
 62
250
  6
CONTINUOUS
 10
51.2200045367
 20
15.0506364001
 11
51.2129429678
 21
17.9151218788
  0
LINE
  5
48C
100
AcDbEntity
  8
RACCORDO
100
AcDbLine
 62
250
  6
CONTINUOUS
 10
50.4262899622
 20
12.5056248787
 11
50.4201420668
 21
15.4354444211
  0
LINE
  5
48D
100
AcDbEntity
  8
RACCORDO
100
AcDbLine
 62
250
  6
CONTINUOUS
 10
51.2258386706
 20
12.1851420816
 11
51.2200045367
 21
15.0506364001
  0
LINE
  5
48E
100
AcDbEntity
  8
RACCORDO
100
AcDbLine
 62
250
  6
CONTINUOUS
 10
50.4311483305
 20
9.57495049
 11
50.4262899622
 21
12.5056248787
  0
LINE
  5
48F
100
AcDbEntity
  8
RACCORDO
100
AcDbLine
 62
250
  6
CONTINUOUS
 10
51.23044497
 20
9.3188309096
 11
51.2258386706
 21
12.1851420816
  0
LINE
  5
490
100
AcDbEntity
  8
RACCORDO
100
AcDbLine
 62
250
  6
CONTINUOUS
 10
50.4347169166
 20
6.6435756434
 11
50.4311483305
 21
9.57495049
  0
LINE
  5
491
100
AcDbEntity
  8
RACCORDO
100
AcDbLine
 62
250
  6
CONTINUOUS
 10
51.2338232045
 20
6.4518950655
 11
51.23044497
 21
9.3188309096
  0
LWPOLYLINE
  5
492
100
AcDbEntity
  8
RACCORDO
100
AcDbPolyline
 62
7
  6
CONTINUOUS
 90
8
 70
0
 10
50.3436283972
 20
6.8565512347
 10
50.3453587605
 20
5.2380088802
 10
50.3463721253
 20
3.7416938202
 10
50.3470477653
 20
2.2453087764
 10
50.3473856621
 20
0.7488852777
 10
50.3473858128
 20
-0.7475503799
 10
50.3470482172
 20
-2.2439739297
 10
50.3463728784
 20
-3.7403590925
  0
LWPOLYLINE
  5
493
100
AcDbEntity
  8
RACCORDO
100
AcDbPolyline
 62
250
  6
CONTINUOUS
 90
9
 70
0
 10
50.344488496
 20
6.8153443632
 10
50.3460538943
 20
5.2256033599
 10
50.3470625375
 20
3.7325953296
 10
50.3477349662
 20
2.2395735351
 10
50.3480711805
 20
0.7465287669
 10
50.3480711804
 20
-0.7465297656
 10
50.3477349659
 20
-2.2395744339
 10
50.3470625372
 20
-3.7325960287
 10
50.3460538941
 20
-5.2256037593
  0
LINE
  5
494
100
AcDbEntity
  8
RACCORDO
100
AcDbLine
 62
250
  6
CONTINUOUS
 10
50.4369953966
 20
3.7117319089
 11
50.4347169166
 21
6.6435756434
  0
LINE
  5
495
100
AcDbEntity
  8
RACCORDO
100
AcDbLine
 62
250
  6
CONTINUOUS
 10
51.2359730823
 20
3.5845266356
 11
51.2338232045
 21
6.4518950655
  0
LINE
  5
496
100
AcDbEntity
  8
RACCORDO
100
AcDbLine
 62
250
  6
CONTINUOUS
 10
50.4379836314
 20
0.7796509643
 11
50.4369953966
 21
3.7117319089
  0
LINE
  5
497
100
AcDbEntity
  8
RACCORDO
100
AcDbLine
 62
250
  6
CONTINUOUS
 10
51.2368944806
 20
0.7169178312
 11
51.2359730823
 21
3.5845266356
  0
LINE
  5
498
100
AcDbEntity
  8
RACCORDO
100
AcDbLine
 62
250
  6
CONTINUOUS
 10
49.9279864348
 20
22.7747422966
 11
49.9279864348
 21
22.774057064
  0
LINE
  5
499
100
AcDbEntity
  8
RACCORDO
100
AcDbLine
 62
250
  6
CONTINUOUS
 10
49.9279864348
 20
-22.7747422966
 11
49.9279864348
 21
-22.774057064
  0
LINE
  5
49A
100
AcDbEntity
  8
RACCORDO
100
AcDbLine
 62
7
  6
CONTINUOUS
 10
50.2
 20
-8.05
 11
50.2
 21
8.05
  0
LINE
  5
49B
100
AcDbEntity
  8
RACCORDO
100
AcDbLine
 62
7
  6
CONTINUOUS
 10
50.2268862685
 20
22.476642428
 11
50.2268900626
 21
8.708165587
  0
LINE
  5
49C
100
AcDbEntity
  8
RACCORDO
100
AcDbLine
 62
7
  6
CONTINUOUS
 10
50.2268900626
 20
-8.708165587
 11
50.2268900626
 21
-22.4751534362
  0
LINE
  5
49D
100
AcDbEntity
  8
RACCORDO
100
AcDbLine
 62
250
  6
CONTINUOUS
 10
50.2275752953
 20
22.4751534362
 11
50.2275752953
 21
8.708165587
  0
LINE
  5
49E
100
AcDbEntity
  8
RACCORDO
100
AcDbLine
 62
250
  6
CONTINUOUS
 10
50.2275752953
 20
-8.708165587
 11
50.2275752953
 21
-22.4751534362
  0
LINE
  5
49F
100
AcDbEntity
  8
RACCORDO
100
AcDbLine
 62
250
  6
CONTINUOUS
 10
50.437681568
 20
-2.1525119727
 11
50.4379836314
 21
0.7796509643
  0
LINE
  5
4A0
100
AcDbEntity
  8
RACCORDO
100
AcDbLine
 62
250
  6
CONTINUOUS
 10
51.2365873533
 20
-2.1507390218
 11
51.2368944806
 21
0.7169178312
  0
LINE
  5
4A1
100
AcDbEntity
  8
RACCORDO
100
AcDbLine
 62
250
  6
CONTINUOUS
 10
50.4360891866
 20
-5.0845226012
 11
50.437681568
 21
-2.1525119727
  0
LINE
  5
4A2
100
AcDbEntity
  8
RACCORDO
100
AcDbLine
 62
250
  6
CONTINUOUS
 10
51.235051685
 20
-5.0182516501
 11
51.2365873533
 21
-2.1507390218
  0
LINE
  5
4A3
100
AcDbEntity
  8
RACCORDO
100
AcDbLine
 62
7
  6
CONTINUOUS
 10
50.3463728784
 20
-3.7403590925
 11
50.3440240608
 21
-6.718090903
  0
LINE
  5
4A4
100
AcDbEntity
  8
RACCORDO
100
AcDbLine
 62
250
  6
CONTINUOUS
 10
50.4332066571
 20
-8.0161485151
 11
50.4360891866
 21
-5.0845226012
  0
LINE
  5
4A5
100
AcDbEntity
  8
RACCORDO
100
AcDbLine
 62
250
  6
CONTINUOUS
 10
51.2322876295
 20
-7.8854278458
 11
51.235051685
 21
-5.0182516501
  0
LINE
  5
4A6
100
AcDbEntity
  8
RACCORDO
100
AcDbLine
 62
250
  6
CONTINUOUS
 10
50.4290341313
 20
-10.9472349843
 11
50.4332066571
 21
-8.0161485151
  0
LINE
  5
4A7
100
AcDbEntity
  8
RACCORDO
100
AcDbLine
 62
250
  6
CONTINUOUS
 10
51.2282953247
 20
-10.752075349
 11
51.2322876295
 21
-7.8854278458
  0
LINE
  5
4A8
100
AcDbEntity
  8
RACCORDO
100
AcDbLine
 62
250
  6
CONTINUOUS
 10
51.2230750317
 20
-13.6180020861
 11
51.2282953247
 21
-10.752075349
  0
LINE
  5
4A9
100
AcDbEntity
  8
RACCORDO
100
AcDbLine
 62
250
  6
CONTINUOUS
 10
50.423571896
 20
-13.8775504833
 11
50.4290341313
 21
-10.9472349843
  0
LINE
  5
4AA
100
AcDbEntity
  8
RACCORDO
100
AcDbLine
 62
250
  6
CONTINUOUS
 10
50.4168204141
 20
-16.8068658845
 11
50.423571896
 21
-13.8775504833
  0
LINE
  5
4AB
100
AcDbEntity
  8
RACCORDO
100
AcDbLine
 62
250
  6
CONTINUOUS
 10
51.2166271808
 20
-16.4830160284
 11
51.2230750317
 21
-13.6180020861
  0
LINE
  5
4AC
100
AcDbEntity
  8
RACCORDO
100
AcDbLine
 62
250
  6
CONTINUOUS
 10
51.2089520949
 20
-19.3469250415
 11
51.2166271808
 21
-16.4830160284
  0
LINE
  5
4AD
100
AcDbEntity
  8
RACCORDO
100
AcDbLine
 62
250
  6
CONTINUOUS
 10
50.4087800653
 20
-19.7350196166
 11
50.4168204141
 21
-16.8068658845
  0
LINE
  5
4AE
100
AcDbEntity
  8
RACCORDO
100
AcDbLine
 62
250
  6
CONTINUOUS
 10
51.2000503111
 20
-22.2095371207
 11
51.2089520949
 21
-19.3469250415
  0
LWPOLYLINE
  5
4AF
100
AcDbEntity
  8
RACCORDO
100
AcDbPolyline
 62
250
  6
CONTINUOUS
 90
3
 70
0
 10
50.3943044764
 20
-24.1245085019
 10
50.3994517119
 20
-22.66169985
 10
50.4087800653
 20
-19.7350196166
  0
LINE
  5
4B0
100
AcDbEntity
  8
RACCORDO
100
AcDbLine
 62
250
  6
CONTINUOUS
 10
51.1899225404
 20
-25.0706601926
 11
51.2000503111
 21
-22.2095371207
  0
LINE
  5
4B1
100
AcDbEntity
  8
RACCORDO
100
AcDbLine
 62
250
  6
CONTINUOUS
 10
50.3460538941
 20
-5.2256037593
 11
50.3442851401
 21
-6.8637162498
  0
LINE
  5
4B2
100
AcDbEntity
  8
RACCORDO
100
AcDbLine
 62
250
  6
CONTINUOUS
 10
51.1785692898
 20
-27.9301022711
 11
51.1899225404
 21
-25.0706601926
  0
LINE
  5
4B3
100
AcDbEntity
  8
RACCORDO
100
AcDbLine
 62
7
  6
CONTINUOUS
 10
50.3440241167
 20
-6.7180908898
 11
50.3435738824
 21
-6.8677704069
  0
LWPOLYLINE
  5
4B4
100
AcDbEntity
  8
RACCORDO
100
AcDbPolyline
 62
250
  6
CONTINUOUS
 90
3
 70
0
 10
51.1592434939
 20
-32.2156939465
 10
51.1659915853
 20
-30.7876715619
 10
51.1785692898
 20
-27.9301022711
  0
LINE
  5
4B5
100
AcDbEntity
  8
RACCORDO
100
AcDbLine
 62
250
  6
CONTINUOUS
 10
50.3442851401
 20
-6.8637162498
 11
50.34330351
 21
-7.0086113034
  0
LINE
  5
4B6
100
AcDbEntity
  8
RACCORDO
100
AcDbLine
 62
7
  6
CONTINUOUS
 10
50.3435738824
 20
-6.8677704069
 11
50.3424229927
 21
-7.0279140302
  0
LWPOLYLINE
  5
4B7
100
AcDbEntity
  8
RACCORDO
100
AcDbPolyline
 62
250
  6
CONTINUOUS
 90
52
 70
0
 10
50.2275752953
 20
-22.4751534362
 10
50.2274775684
 20
-22.4843245692
 10
50.2270996093
 20
-22.4935087618
 10
50.2264396743
 20
-22.5026974446
 10
50.225495959
 20
-22.5118853042
 10
50.2242673716
 20
-22.521060147
 10
50.2227545448
 20
-22.5302030463
 10
50.2209576823
 20
-22.5393052684
 10
50.2188773345
 20
-22.548357889
 10
50.2165168947
 20
-22.5573419952
 10
50.213878395
 20
-22.5662487697
 10
50.2109640565
 20
-22.5750698912
 10
50.2077797183
 20
-22.5837877702
 10
50.2043299705
 20
-22.5923919329
 10
50.2006178213
 20
-22.6008768987
 10
50.1966480965
 20
-22.6092331147
 10
50.1924264765
 20
-22.6174507007
 10
50.1879565626
 20
-22.6255246216
 10
50.1832400713
 20
-22.6334526357
 10
50.1782815418
 20
-22.6412275254
 10
50.1730859245
 20
-22.6488419207
 10
50.1676549962
 20
-22.6562930302
 10
50.1619923116
 20
-22.6635753108
 10
50.1561042284
 20
-22.6706799659
 10
50.149996725
 20
-22.6775993198
 10
50.1436745052
 20
-22.6843276144
 10
50.137144265
 20
-22.6908573528
 10
50.1304156714
 20
-22.6971788859
 10
50.1234963414
 20
-22.7032854471
 10
50.116391949
 20
-22.7091724466
 10
50.109109855
 20
-22.7148341733
 10
50.1016587922
 20
-22.7202642988
 10
50.0940443455
 20
-22.725459216
 10
50.0862691156
 20
-22.7304172477
 10
50.0783403423
 20
-22.7351334798
 10
50.0702653353
 20
-22.7396032722
 10
50.0620464796
 20
-22.7438247985
 10
50.0536886675
 20
-22.7477945025
 10
50.0452019091
 20
-22.751506616
 10
50.0365963427
 20
-22.7549560706
 10
50.0278776402
 20
-22.7581398338
 10
50.0190561225
 20
-22.7610534246
 10
50.010149471
 20
-22.7636910229
 10
50.0011660518
 20
-22.7660504462
 10
49.9921146608
 20
-22.7681297195
 10
49.9830142011
 20
-22.7699255032
 10
49.9738735912
 20
-22.771437295
 10
49.964701575
 20
-22.7726649353
 10
49.9555170892
 20
-22.7736078381
 10
49.9463323264
 20
-22.7742671422
 10
49.9371525887
 20
-22.7746446985
 10
49.9279864348
 20
-22.7747422966
  0
LINE
  5
4B8
100
AcDbEntity
  8
RACCORDO
100
AcDbLine
 62
250
  6
CONTINUOUS
 10
50.34330351
 20
-7.0086113034
 11
50.3417651452
 21
-7.1521464614
  0
LWPOLYLINE
  5
4B9
100
AcDbEntity
  8
RACCORDO
100
AcDbPolyline
 62
250
  6
CONTINUOUS
 90
12
 70
0
 10
50.2275752953
 20
-8.708165587
 10
50.2278009379
 20
-8.6907505391
 10
50.2286371521
 20
-8.6733522087
 10
50.2300833967
 20
-8.6559919063
 10
50.23213857
 20
-8.63868955
 10
50.2348005432
 20
-8.6214677765
 10
50.23806568
 20
-8.6043518385
 10
50.2419297226
 20
-8.5873639414
 10
50.2463881932
 20
-8.5705236758
 10
50.251435551
 20
-8.5538520642
 10
50.2570655585
 20
-8.5373696924
 10
50.2632713636
 20
-8.5210966047
  0
LINE
  5
4BA
100
AcDbEntity
  8
RACCORDO
100
AcDbLine
 62
7
  6
CONTINUOUS
 10
50.3424229927
 20
-7.0279140302
 11
50.3406842339
 21
-7.178795021
  0
LWPOLYLINE
  5
4BB
100
AcDbEntity
  8
RACCORDO
100
AcDbPolyline
 62
250
  6
CONTINUOUS
 90
9
 70
0
 10
50.2490483482
 20
-8.6723188343
 10
50.2493141383
 20
-8.6536401275
 10
50.2502819526
 20
-8.6349876965
 10
50.2519504295
 20
-8.6163877801
 10
50.254317222
 20
-8.5978665432
 10
50.2573790007
 20
-8.5794500401
 10
50.2611314586
 20
-8.5611641778
 10
50.2655693168
 20
-8.5430346795
 10
50.2706863326
 20
-8.5250870482
  0
LWPOLYLINE
  5
4BC
100
AcDbEntity
  8
RACCORDO
100
AcDbPolyline
 62
250
  6
CONTINUOUS
 90
13
 70
0
 10
50.393966378
 20
24.2174730565
 10
50.3952177048
 20
24.3037822119
 10
50.3971683248
 20
24.393018905
 10
50.3998333029
 20
24.4851956207
 10
50.4032125682
 20
24.5802007707
 10
50.4073161083
 20
24.6781791691
 10
50.4121773911
 20
24.7795327469
 10
50.4178013864
 20
24.8843992586
 10
50.4241774814
 20
24.9926888663
 10
50.4313248694
 20
25.1044683739
 10
50.4392268489
 20
25.2198680544
 10
50.4478481462
 20
25.3388126772
 10
50.4571803464
 20
25.4610600556
  0
LINE
  5
4BD
100
AcDbEntity
  8
RACCORDO
100
AcDbLine
 62
250
  6
CONTINUOUS
 10
50.3417651452
 20
-7.1521464614
 11
50.3396784381
 21
-7.2932543758
  0
LINE
  5
4BE
100
AcDbEntity
  8
RACCORDO
100
AcDbLine
 62
7
  6
CONTINUOUS
 10
50.3406842339
 20
-7.178795021
 11
50.3384458957
 21
-7.3202938957
  0
LWPOLYLINE
  5
4BF
100
AcDbEntity
  8
RACCORDO
100
AcDbPolyline
 62
7
  6
CONTINUOUS
 90
41
 70
0
 10
50.2268899413
 20
-22.4751534362
 10
50.2266381162
 20
-22.4874665469
 10
50.2259286796
 20
-22.4991880423
 10
50.2247631596
 20
-22.5108627771
 10
50.2231438626
 20
-22.5224740877
 10
50.2210737913
 20
-22.5340058715
 10
50.2185565743
 20
-22.5454406332
 10
50.2155964318
 20
-22.5567610928
 10
50.2121981269
 20
-22.5679515265
 10
50.2083668347
 20
-22.5789953956
 10
50.2041089068
 20
-22.5898760246
 10
50.1994307472
 20
-22.6005775471
 10
50.1943396043
 20
-22.6110840947
 10
50.1888434446
 20
-22.62137998
 10
50.1829504359
 20
-22.6314500143
 10
50.1766697472
 20
-22.6412793164
 10
50.1700107404
 20
-22.6508531724
 10
50.1629834527
 20
-22.6601576356
 10
50.1555984084
 20
-22.6691788449
 10
50.1478666644
 20
-22.6779033208
 10
50.1397998102
 20
-22.6863182718
 10
50.1314097476
 20
-22.6944109967
 10
50.1227091492
 20
-22.7021695532
 10
50.1137107682
 20
-22.7095822979
 10
50.1044280612
 20
-22.7166381487
 10
50.094874847
 20
-22.7233265238
 10
50.085065061
 20
-22.7296373507
 10
50.0750133848
 20
-22.7355612185
 10
50.0647346698
 20
-22.7410889125
 10
50.0542440998
 20
-22.746212225
 10
50.0435573283
 20
-22.7509231304
 10
50.0326902113
 20
-22.7552143536
 10
50.0216586097
 20
-22.7590794239
 10
50.0104791863
 20
-22.7625119531
 10
49.9991684575
 20
-22.7655067239
 10
49.9877421325
 20
-22.768058921
 10
49.9762174861
 20
-22.7701642956
 10
49.9646119946
 20
-22.7718191529
 10
49.9529417306
 20
-22.7730204636
 10
49.9412233421
 20
-22.773765866
 10
49.9294748338
 20
-22.7740532644
  0
LINE
  5
4C0
100
AcDbEntity
  8
RACCORDO
100
AcDbLine
 62
250
  6
CONTINUOUS
 10
50.3396784381
 20
-7.2932543758
 11
50.337058439
 21
-7.4309311758
  0
LINE
  5
4C1
100
AcDbEntity
  8
RACCORDO
100
AcDbLine
 62
7
  6
CONTINUOUS
 10
50.3384458957
 20
-7.3202938957
 11
50.3357856603
 21
-7.4524767526
  0
LWPOLYLINE
  5
4C2
100
AcDbEntity
  8
RACCORDO
100
AcDbPolyline
 62
250
  6
CONTINUOUS
 90
40
 70
0
 10
50.2829772403
 20
-22.5305553812
 10
50.2827021353
 20
-22.5425976297
 10
50.2819432337
 20
-22.5546204138
 10
50.2807017623
 20
-22.5666043002
 10
50.2789797275
 20
-22.5785299189
 10
50.2767799129
 20
-22.5903779938
 10
50.2741058741
 20
-22.6021293743
 10
50.2709619333
 20
-22.6137650659
 10
50.2673531722
 20
-22.6252662614
 10
50.2632854238
 20
-22.6366143707
 10
50.2587652632
 20
-22.6477910512
 10
50.2537999964
 20
-22.6587782376
 10
50.248397649
 20
-22.6695581706
 10
50.2425669532
 20
-22.680113426
 10
50.2363173335
 20
-22.690426943
 10
50.2296588913
 20
-22.7004820511
 10
50.2226023892
 20
-22.7102624978
 10
50.2151592328
 20
-22.7197524744
 10
50.207341453
 20
-22.7289366418
 10
50.1991616861
 20
-22.7378001551
 10
50.1906331534
 20
-22.7463286878
 10
50.1817696401
 20
-22.7545084547
 10
50.1725854727
 20
-22.7623262344
 10
50.1630954961
 20
-22.7697693908
 10
50.1533150494
 20
-22.7768258929
 10
50.1432599413
 20
-22.783484335
 10
50.1329464243
 20
-22.7897339548
 10
50.1223911689
 20
-22.7955646506
 10
50.1116112359
 20
-22.8009669979
 10
50.1006240495
 20
-22.8059322647
 10
50.089447369
 20
-22.8104524253
 10
50.0780992597
 20
-22.8145201736
 10
50.0665980643
 20
-22.8181289347
 10
50.0549623726
 20
-22.8212728755
 10
50.0432109922
 20
-22.8239469143
 10
50.0313629173
 20
-22.8261467289
 10
50.0194372987
 20
-22.8278687636
 10
50.0074534123
 20
-22.8291102351
 10
49.9954306283
 20
-22.8298691367
 10
49.9833883798
 20
-22.8301442416
  0
LINE
  5
4C3
100
AcDbEntity
  8
RACCORDO
100
AcDbLine
 62
250
  6
CONTINUOUS
 10
50.337058439
 20
-7.4309311758
 11
50.3339208708
 21
-7.5644455179
  0
LINE
  5
4C4
100
AcDbEntity
  8
RACCORDO
100
AcDbLine
 62
7
  6
CONTINUOUS
 10
50.3357856603
 20
-7.4524767526
 11
50.3327712377
 21
-7.5755427086
  0
LINE
  5
4C5
100
AcDbEntity
  8
RACCORDO
100
AcDbLine
 62
250
  6
CONTINUOUS
 10
50.3825005217
 20
23.7835773152
 11
50.3939664305
 21
24.2174730502
  0
LINE
  5
4C6
100
AcDbEntity
  8
RACCORDO
100
AcDbLine
 62
250
  6
CONTINUOUS
 10
50.3339208708
 20
-7.5644455179
 11
50.3302793325
 21
-7.6932509525
  0
LINE
  5
4C7
100
AcDbEntity
  8
RACCORDO
100
AcDbLine
 62
250
  6
CONTINUOUS
 10
49.5835975576
 20
24.1636655178
 11
49.5950628028
 21
24.557484522
  0
LINE
  5
4C8
100
AcDbEntity
  8
RACCORDO
100
AcDbLine
 62
7
  6
CONTINUOUS
 10
50.3327712377
 20
-7.5755427086
 11
50.329460464
 21
-7.6897959295
  0
LINE
  5
4C9
100
AcDbEntity
  8
RACCORDO
100
AcDbLine
 62
250
  6
CONTINUOUS
 10
50.369774557
 20
23.3625258087
 11
50.3825005217
 21
23.7835773152
  0
LINE
  5
4CA
100
AcDbEntity
  8
RACCORDO
100
AcDbLine
 62
250
  6
CONTINUOUS
 10
49.5708714241
 20
23.7814951769
 11
49.5835975576
 21
24.1636655178
  0
LWPOLYLINE
  5
4CB
100
AcDbEntity
  8
RACCORDO
100
AcDbPolyline
 62
250
  6
CONTINUOUS
 90
18
 70
0
 10
49.5950628028
 20
24.557484522
 10
49.5978425335
 20
24.6373100543
 10
49.6020738908
 20
24.7197967541
 10
49.6077568747
 20
24.8049685119
 10
49.6148666656
 20
24.8927394282
 10
49.6234280831
 20
24.9832390632
 10
49.6335155857
 20
25.0768178069
 10
49.6451607363
 20
25.1735984469
 10
49.6583319721
 20
25.273505739
 10
49.6730090624
 20
25.3765960263
 10
49.6892485143
 20
25.4829736065
 10
49.7069938207
 20
25.5925707364
 10
49.7260552308
 20
25.7051797092
 10
49.746533147
 20
25.8210227413
 10
49.7683271667
 20
25.9398935608
 10
49.7909463311
 20
26.0609236571
 10
49.8145009205
 20
26.1843666778
 10
49.8632637331
 20
26.435971245
  0
LINE
  5
4CC
100
AcDbEntity
  8
RACCORDO
100
AcDbLine
 62
250
  6
CONTINUOUS
 10
50.3302793325
 20
-7.6932509525
 11
50.3261508155
 21
-7.8167156847
  0
LINE
  5
4CD
100
AcDbEntity
  8
RACCORDO
100
AcDbLine
 62
7
  6
CONTINUOUS
 10
50.329460464
 20
-7.6897959295
 11
50.3259054142
 21
-7.7955126913
  0
LINE
  5
4CE
100
AcDbEntity
  8
RACCORDO
100
AcDbLine
 62
250
  6
CONTINUOUS
 10
50.3558307252
 20
22.9557382604
 11
50.369774557
 21
23.3625258087
  0
LINE
  5
4CF
100
AcDbEntity
  8
RACCORDO
100
AcDbLine
 62
250
  6
CONTINUOUS
 10
49.5569271185
 20
23.4122475414
 11
49.5708714241
 21
23.7814951769
  0
LINE
  5
4D0
100
AcDbEntity
  8
RACCORDO
100
AcDbLine
 62
7
  6
CONTINUOUS
 10
50.3259054142
 20
-7.7955126913
 11
50.3221544972
 21
-7.892936786
  0
LINE
  5
4D1
100
AcDbEntity
  8
RACCORDO
100
AcDbLine
 62
250
  6
CONTINUOUS
 10
50.3443387075
 20
22.6543554603
 11
50.3558307252
 21
22.9557382604
  0
LINE
  5
4D2
100
AcDbEntity
  8
RACCORDO
100
AcDbLine
 62
250
  6
CONTINUOUS
 10
50.3261508155
 20
-7.8167156847
 11
50.3215589288
 21
-7.9341067392
  0
LINE
  5
4D3
100
AcDbEntity
  8
RACCORDO
100
AcDbLine
 62
250
  6
CONTINUOUS
 10
49.5456964373
 20
23.1445316001
 11
49.5569271185
 21
23.4122475414
  0
LINE
  5
4D4
100
AcDbEntity
  8
RACCORDO
100
AcDbLine
 62
250
  6
CONTINUOUS
 10
50.3436560475
 20
22.6387153567
 11
50.3443387075
 21
22.6543554603
  0
LINE
  5
4D5
100
AcDbEntity
  8
RACCORDO
100
AcDbLine
 62
250
  6
CONTINUOUS
 10
50.3215589288
 20
-7.9341067392
 11
50.3182528542
 21
-8.0086631823
  0
LINE
  5
4D6
100
AcDbEntity
  8
RACCORDO
100
AcDbLine
 62
7
  6
CONTINUOUS
 10
50.3221544972
 20
-7.892936786
 11
50.3182507117
 21
-7.9823559435
  0
LINE
  5
4D7
100
AcDbEntity
  8
RACCORDO
100
AcDbLine
 62
250
  6
CONTINUOUS
 10
50.3182528542
 20
-8.0086631823
 11
50.3147609173
 21
-8.0800338542
  0
LINE
  5
4D8
100
AcDbEntity
  8
RACCORDO
100
AcDbLine
 62
250
  6
CONTINUOUS
 10
50.3429267833
 20
22.6236174956
 11
50.3436560475
 21
22.6387153567
  0
LINE
  5
4D9
100
AcDbEntity
  8
RACCORDO
100
AcDbLine
 62
7
  6
CONTINUOUS
 10
50.3182507117
 20
-7.9823559435
 11
50.3150435188
 21
-8.0483361151
  0
LINE
  5
4DA
100
AcDbEntity
  8
RACCORDO
100
AcDbLine
 62
7
  6
CONTINUOUS
 10
50.3150435188
 20
-8.0483361151
 11
50.3117814358
 21
-8.1095474639
  0
LINE
  5
4DB
100
AcDbEntity
  8
RACCORDO
100
AcDbLine
 62
250
  6
CONTINUOUS
 10
50.3147609173
 20
-8.0800338542
 11
50.3110890206
 21
-8.1480967992
  0
LINE
  5
4DC
100
AcDbEntity
  8
RACCORDO
100
AcDbLine
 62
250
  6
CONTINUOUS
 10
50.3421435229
 20
22.6089604639
 11
50.3429267833
 21
22.6236174956
  0
LINE
  5
4DD
100
AcDbEntity
  8
RACCORDO
100
AcDbLine
 62
7
  6
CONTINUOUS
 10
50.3117814358
 20
-8.1095474639
 11
50.3084816431
 21
-8.1661481797
  0
LINE
  5
4DE
100
AcDbEntity
  8
RACCORDO
100
AcDbLine
 62
250
  6
CONTINUOUS
 10
50.3414692479
 20
22.597454138
 11
50.3421435229
 21
22.6089604639
  0
LINE
  5
4DF
100
AcDbEntity
  8
RACCORDO
100
AcDbLine
 62
250
  6
CONTINUOUS
 10
50.3110890206
 20
-8.1480967992
 11
50.3072459847
 21
-8.2126763999
  0
LWPOLYLINE
  5
4E0
100
AcDbEntity
  8
RACCORDO
100
AcDbPolyline
 62
250
  6
CONTINUOUS
 90
39
 70
0
 10
49.5456964685
 20
23.1445316001
 10
49.5454586011
 20
23.1408685695
 10
49.545402379
 20
23.1371159871
 10
49.5455278021
 20
23.1332754419
 10
49.5458138255
 20
23.1293699974
 10
49.5462814941
 20
23.1253797405
 10
49.5469939428
 20
23.1212428833
 10
49.5479503971
 20
23.116938222
 10
49.5491516315
 20
23.1124932329
 10
49.550663105
 20
23.1079202077
 10
49.5524882739
 20
23.1032220861
 10
49.5546236819
 20
23.0984025543
 10
49.5571244184
 20
23.0934748815
 10
49.5599955555
 20
23.0884432642
 10
49.5632320212
 20
23.0833106118
 10
49.5668736886
 20
23.078088097
 10
49.5709264022
 20
23.0727807978
 10
49.5753843176
 20
23.0673912501
 10
49.5802697739
 20
23.0619267611
 10
49.5855856726
 20
23.0563954847
 10
49.5913291123
 20
23.0507975183
 10
49.5975137281
 20
23.0451284929
 10
49.6041302637
 20
23.0394047514
 10
49.6111879753
 20
23.0336195317
 10
49.6187282668
 20
23.0277358702
 10
49.6267569641
 20
23.0217596745
 10
49.6352682413
 20
23.0156993442
 10
49.644286024
 20
23.0095251969
 10
49.6538761781
 20
23.0032121152
 10
49.6639728377
 20
22.9968059919
 10
49.6744023311
 20
22.9903826159
 10
49.6851089118
 20
22.9839888018
 10
49.6961483263
 20
22.9775915241
 10
49.7075141425
 20
22.9711468819
 10
49.7192124923
 20
22.964667101
 10
49.7312372437
 20
22.9581630785
 10
49.7435635693
 20
22.9515961129
 10
49.7562333109
 20
22.944966662
 10
49.7823271635
 20
22.9316392617
  0
LINE
  5
4E1
100
AcDbEntity
  8
RACCORDO
100
AcDbLine
 62
250
  6
CONTINUOUS
 10
50.3407451364
 20
22.5860945511
 11
50.3414692479
 21
22.597454138
  0
LINE
  5
4E2
100
AcDbEntity
  8
RACCORDO
100
AcDbLine
 62
7
  6
CONTINUOUS
 10
50.3084816431
 20
-8.1661481797
 11
50.3051601358
 21
-8.2182928479
  0
LINE
  5
4E3
100
AcDbEntity
  8
RACCORDO
100
AcDbLine
 62
250
  6
CONTINUOUS
 10
50.3072459847
 20
-8.2126763999
 11
50.3032431272
 21
-8.2735858914
  0
LINE
  5
4E4
100
AcDbEntity
  8
RACCORDO
100
AcDbLine
 62
250
  6
CONTINUOUS
 10
50.3401667415
 20
22.5776831851
 11
50.3407451364
 21
22.5860945511
  0
LINE
  5
4E5
100
AcDbEntity
  8
RACCORDO
100
AcDbLine
 62
7
  6
CONTINUOUS
 10
50.3051601358
 20
-8.2182928479
 11
50.3026648386
 21
-8.2545607248
  0
LINE
  5
4E6
100
AcDbEntity
  8
RACCORDO
100
AcDbLine
 62
250
  6
CONTINUOUS
 10
50.3032431272
 20
-8.2735858914
 11
50.2990881764
 21
-8.3307078323
  0
LINE
  5
4E7
100
AcDbEntity
  8
RACCORDO
100
AcDbLine
 62
7
  6
CONTINUOUS
 10
50.3026648386
 20
-8.2545607248
 11
50.3001734332
 21
-8.2884567893
  0
LINE
  5
4E8
100
AcDbEntity
  8
RACCORDO
100
AcDbLine
 62
250
  6
CONTINUOUS
 10
50.3395561924
 20
22.569381141
 11
50.3401667415
 21
22.5776831851
  0
LINE
  5
4E9
100
AcDbEntity
  8
RACCORDO
100
AcDbLine
 62
7
  6
CONTINUOUS
 10
50.3001734332
 20
-8.2884567893
 11
50.2976934565
 21
-8.3200315071
  0
LINE
  5
4EA
100
AcDbEntity
  8
RACCORDO
100
AcDbLine
 62
250
  6
CONTINUOUS
 10
50.3389122715
 20
22.5612118451
 11
50.3395561924
 21
22.569381141
  0
LINE
  5
4EB
100
AcDbEntity
  8
RACCORDO
100
AcDbLine
 62
250
  6
CONTINUOUS
 10
50.4571803464
 20
25.4610600556
 11
50.4777858971
 21
25.7160804841
  0
LWPOLYLINE
  5
4EC
100
AcDbEntity
  8
RACCORDO
100
AcDbPolyline
 62
250
  6
CONTINUOUS
 90
7
 70
0
 10
50.2990881764
 20
-8.3307078323
 10
50.2947937701
 20
-8.3838655811
 10
50.2925976538
 20
-8.4089200723
 10
50.2903702391
 20
-8.4329420342
 10
50.2881113878
 20
-8.4559339123
 10
50.2858242013
 20
-8.477861559
 10
50.2835083085
 20
-8.498726967
  0
LINE
  5
4ED
100
AcDbEntity
  8
RACCORDO
100
AcDbLine
 62
7
  6
CONTINUOUS
 10
50.2976934565
 20
-8.3200315071
 11
50.295233609
 21
-8.34931797
  0
LINE
  5
4EE
100
AcDbEntity
  8
RACCORDO
100
AcDbLine
 62
250
  6
CONTINUOUS
 10
50.4777858971
 20
25.7160804841
 11
50.5004390774
 21
25.9819088926
  0
LINE
  5
4EF
100
AcDbEntity
  8
RACCORDO
100
AcDbLine
 62
250
  6
CONTINUOUS
 10
50.338234874
 20
22.5532123172
 11
50.3389122715
 21
22.5612118451
  0
LWPOLYLINE
  5
4F0
100
AcDbEntity
  8
RACCORDO
100
AcDbPolyline
 62
250
  6
CONTINUOUS
 90
3
 70
0
 10
50.5004390774
 20
25.9819088926
 10
50.5362118325
 20
26.3928704329
 10
50.5831177611
 20
26.9443136011
  0
LWPOLYLINE
  5
4F1
100
AcDbEntity
  8
RACCORDO
100
AcDbPolyline
 62
250
  6
CONTINUOUS
 90
13
 70
0
 10
50.5831177611
 20
26.9443136011
 10
50.6080869966
 20
27.2249398428
 10
50.6345038084
 20
27.5104359913
 10
50.6623716827
 20
27.8010030628
 10
50.6916405417
 20
28.0963981381
 10
50.7221839784
 20
28.3959248641
 10
50.7539759029
 20
28.6996335256
 10
50.7869751569
 20
29.0074338002
 10
50.8210050989
 20
29.3184140592
 10
50.8560290122
 20
29.6325997724
 10
50.8919992387
 20
29.9499239842
 10
50.9286993201
 20
30.2693347361
 10
50.966086969
 20
30.5908616148
  0
LINE
  5
4F2
100
AcDbEntity
  8
RACCORDO
100
AcDbLine
 62
250
  6
CONTINUOUS
 10
50.3377649388
 20
22.547993533
 11
50.338234874
 21
22.5532123172
  0
LINE
  5
4F3
100
AcDbEntity
  8
RACCORDO
100
AcDbLine
 62
7
  6
CONTINUOUS
 10
50.295233609
 20
-8.34931797
 11
50.2928044748
 21
-8.3763368684
  0
LINE
  5
4F4
100
AcDbEntity
  8
RACCORDO
100
AcDbLine
 62
250
  6
CONTINUOUS
 10
50.3372806034
 20
22.5428803925
 11
50.3377649388
 21
22.547993533
  0
LINE
  5
4F5
100
AcDbEntity
  8
RACCORDO
100
AcDbLine
 62
7
  6
CONTINUOUS
 10
50.2928044748
 20
-8.3763368684
 11
50.2912087492
 21
-8.3930901134
  0
LINE
  5
4F6
100
AcDbEntity
  8
RACCORDO
100
AcDbLine
 62
7
  6
CONTINUOUS
 10
50.2912087492
 20
-8.3930901134
 11
50.2896368901
 21
-8.4088368695
  0
LINE
  5
4F7
100
AcDbEntity
  8
RACCORDO
100
AcDbLine
 62
250
  6
CONTINUOUS
 10
50.3367817427
 20
22.5378807779
 11
50.3372806034
 21
22.5428803925
  0
LINE
  5
4F8
100
AcDbEntity
  8
RACCORDO
100
AcDbLine
 62
7
  6
CONTINUOUS
 10
50.2896368901
 20
-8.4088368695
 11
50.2880933487
 21
-8.4235805256
  0
LINE
  5
4F9
100
AcDbEntity
  8
RACCORDO
100
AcDbLine
 62
250
  6
CONTINUOUS
 10
50.3362681584
 20
22.5329990129
 11
50.3367817427
 21
22.5378807779
  0
LINE
  5
4FA
100
AcDbEntity
  8
RACCORDO
100
AcDbLine
 62
7
  6
CONTINUOUS
 10
50.2880933487
 20
-8.4235805256
 11
50.2865836271
 21
-8.4373190601
  0
LINE
  5
4FB
100
AcDbEntity
  8
RACCORDO
100
AcDbLine
 62
250
  6
CONTINUOUS
 10
50.3357393378
 20
22.5282392767
 11
50.3362681584
 21
22.5329990129
  0
LINE
  5
4FC
100
AcDbEntity
  8
RACCORDO
100
AcDbLine
 62
7
  6
CONTINUOUS
 10
50.2865836271
 20
-8.4373190601
 11
50.2851146287
 21
-8.4500419904
  0
LINE
  5
4FD
100
AcDbEntity
  8
RACCORDO
100
AcDbLine
 62
250
  6
CONTINUOUS
 10
50.966086969
 20
30.5908616148
 11
51.0425029564
 21
31.2388270528
  0
LINE
  5
4FE
100
AcDbEntity
  8
RACCORDO
100
AcDbLine
 62
250
  6
CONTINUOUS
 10
50.2835083085
 20
-8.498726967
 11
50.2811640806
 21
-8.5185281435
  0
LINE
  5
4FF
100
AcDbEntity
  8
RACCORDO
100
AcDbLine
 62
250
  6
CONTINUOUS
 10
50.3351946934
 20
22.5236060436
 11
50.3357393378
 21
22.5282392767
  0
LWPOLYLINE
  5
500
100
AcDbEntity
  8
RACCORDO
100
AcDbPolyline
 62
250
  6
CONTINUOUS
 90
3
 70
0
 10
51.0425029564
 20
31.2388270528
 10
51.1200840919
 20
31.8892640715
 10
51.1592434883
 20
32.215695144
  0
LINE
  5
501
100
AcDbEntity
  8
RACCORDO
100
AcDbLine
 62
7
  6
CONTINUOUS
 10
50.2851146287
 20
-8.4500419904
 11
50.283692927
 21
-8.4617478868
  0
LINE
  5
502
100
AcDbEntity
  8
RACCORDO
100
AcDbLine
 62
250
  6
CONTINUOUS
 10
50.3346337744
 20
22.5191021256
 11
50.3351946934
 21
22.5236060436
  0
LWPOLYLINE
  5
503
100
AcDbEntity
  8
RACCORDO
100
AcDbPolyline
 62
250
  6
CONTINUOUS
 90
14
 70
0
 10
50.2811640806
 20
-8.5185281435
 10
50.2787957324
 20
-8.5372249619
 10
50.27640274
 20
-8.5548174327
 10
50.2739856274
 20
-8.5713055454
 10
50.2715501815
 20
-8.5866491429
 10
50.269096282
 20
-8.6008435101
 10
50.2666240492
 20
-8.613893362
 10
50.2641396317
 20
-8.6257726868
 10
50.261642901
 20
-8.6364763958
 10
50.2591339856
 20
-8.6460095778
 10
50.2566194192
 20
-8.6543614872
 10
50.2541013798
 20
-8.6615285421
 10
50.2515776895
 20
-8.6675143245
 10
50.2490483482
 20
-8.6723188343
  0
LINE
  5
504
100
AcDbEntity
  8
RACCORDO
100
AcDbLine
 62
7
  6
CONTINUOUS
 10
50.283692927
 20
-8.4617478868
 11
50.2823265858
 21
-8.4724300077
  0
LINE
  5
505
100
AcDbEntity
  8
RACCORDO
100
AcDbLine
 62
7
  6
CONTINUOUS
 10
50.2823265858
 20
-8.4724300077
 11
50.2810269378
 21
-8.4820652693
  0
LINE
  5
506
100
AcDbEntity
  8
RACCORDO
100
AcDbLine
 62
7
  6
CONTINUOUS
 10
50.2810269378
 20
-8.4820652693
 11
50.2798050565
 21
-8.4906424562
  0
LWPOLYLINE
  5
507
100
AcDbEntity
  8
RACCORDO
100
AcDbPolyline
 62
7
  6
CONTINUOUS
 90
10
 70
0
 10
50.2798050565
 20
-8.4906424562
 10
50.2786757416
 20
-8.4981355534
 10
50.2781520482
 20
-8.5014611191
 10
50.2776581737
 20
-8.5045058465
 10
50.2771962682
 20
-8.5072688826
 10
50.2767728683
 20
-8.5097250885
 10
50.276389891
 20
-8.5118786126
 10
50.2760497375
 20
-8.5137314304
 10
50.2757605758
 20
-8.5152563154
 10
50.2756041326
 20
-8.5160591843
  0
LINE
  5
508
100
AcDbEntity
  8
RACCORDO
100
AcDbLine
 62
250
  6
CONTINUOUS
 10
50.2706863326
 20
-8.5250870482
 11
50.2764753078
 21
-8.5073465314
  0
LINE
  5
509
100
AcDbEntity
  8
RACCORDO
100
AcDbLine
 62
250
  6
CONTINUOUS
 10
50.2764753078
 20
-8.5073465314
 11
50.2777650209
 21
-8.5038471352
  0
LWPOLYLINE
  5
50A
100
AcDbEntity
  8
RACCORDO
100
AcDbPolyline
 62
7
  6
CONTINUOUS
 90
12
 70
0
 10
50.2693416755
 20
-8.506548442
 10
50.261865114
 20
-8.5244489653
 10
50.2551391832
 20
-8.5424818287
 10
50.2491596448
 20
-8.560606623
 10
50.2438999388
 20
-8.578857659
 10
50.2393638884
 20
-8.5971780677
 10
50.2355353713
 20
-8.6155882287
 10
50.2324083334
 20
-8.6340857688
 10
50.2299888669
 20
-8.6525849996
 10
50.2282681107
 20
-8.6710691047
 10
50.2272352548
 20
-8.6895894452
 10
50.2268900626
 20
-8.708165587
  0
LINE
  5
50B
100
AcDbEntity
  8
RACCORDO
100
AcDbLine
 62
250
  6
CONTINUOUS
 10
50.2693416755
 20
-8.506548442
 11
50.2700454033
 21
-8.5050526579
  0
LWPOLYLINE
  5
50C
100
AcDbEntity
  8
RACCORDO
100
AcDbPolyline
 62
7
  6
CONTINUOUS
 90
3
 70
0
 10
50.2810246816
 20
-8.4820813233
 10
50.2775050691
 20
-8.488955351
 10
50.2693416755
 20
-8.506548442
  0
LINE
  5
50D
100
AcDbEntity
  8
RACCORDO
100
AcDbLine
 62
250
  6
CONTINUOUS
 10
50.2490483482
 20
-8.6723188343
 11
50.2275752953
 21
-8.708165587
  0
LWPOLYLINE
  5
50E
100
AcDbEntity
  8
0
100
AcDbPolyline
 62
7
  6
CONTINUOUS
 90
3
 70
0
 43
0.3500000006
 10
-0.0
 20
50.3928592529
 10
-1.5000000329
 20
50.3928592529
 10
-0.8571428254
 20
52.750002182
  0
LINE
  5
50F
100
AcDbEntity
  8
RACCORDO
100
AcDbLine
 62
250
  6
CONTINUOUS
 10
50.2275752953
 20
8.708165587
 11
50.2490483482
 21
8.6723188343
  0
LWPOLYLINE
  5
510
100
AcDbEntity
  8
RACCORDO
100
AcDbPolyline
 62
250
  6
CONTINUOUS
 90
15
 70
0
 10
50.2490483482
 20
8.6723188343
 10
50.2515783079
 20
8.6675129636
 10
50.254102593
 20
8.6615253479
 10
50.2566212036
 20
8.6543559873
 10
50.2591363441
 20
8.6460011115
 10
50.2616458099
 20
8.6364644908
 10
50.2641429878
 20
8.6257574353
 10
50.2666277222
 20
8.6138749
 10
50.2691001686
 20
8.6008219298
 10
50.2715541793
 20
8.58662497
 10
50.2739896128
 20
8.5712794861
 10
50.2764066106
 20
8.5547900126
 10
50.2787994503
 20
8.537196597
 10
50.2811676052
 20
8.5184994137
 10
50.283511602
 20
8.4986982884
  0
LWPOLYLINE
  5
511
100
AcDbEntity
  8
RACCORDO
100
AcDbPolyline
 62
7
  6
CONTINUOUS
 90
3
 70
0
 10
50.2810225763
 20
8.482085435
 10
50.2775050691
 20
8.488955351
 10
50.2693416755
 20
8.506548442
  0
LINE
  5
512
100
AcDbEntity
  8
RACCORDO
100
AcDbLine
 62
250
  6
CONTINUOUS
 10
50.2693416755
 20
8.506548442
 11
50.2700454027
 21
8.5050526592
  0
LWPOLYLINE
  5
513
100
AcDbEntity
  8
RACCORDO
100
AcDbPolyline
 62
7
  6
CONTINUOUS
 90
12
 70
0
 10
50.2693416755
 20
8.506548442
 10
50.261865114
 20
8.5244489653
 10
50.2551391832
 20
8.5424818287
 10
50.2491596448
 20
8.560606623
 10
50.2438999388
 20
8.578857659
 10
50.2393638884
 20
8.5971780677
 10
50.2355353713
 20
8.6155882287
 10
50.2324083334
 20
8.6340857688
 10
50.2299888669
 20
8.6525849996
 10
50.2282681107
 20
8.6710691048
 10
50.2272352548
 20
8.6895894452
 10
50.2268900626
 20
8.708165587
  0
LINE
  5
514
100
AcDbEntity
  8
RACCORDO
100
AcDbLine
 62
250
  6
CONTINUOUS
 10
50.2764753172
 20
8.5073465043
 11
50.2777656649
 21
8.503845387
  0
LINE
  5
515
100
AcDbEntity
  8
RACCORDO
100
AcDbLine
 62
250
  6
CONTINUOUS
 10
50.2706863403
 20
8.5250870229
 11
50.2764753172
 21
8.5073465043
  0
LWPOLYLINE
  5
516
100
AcDbEntity
  8
RACCORDO
100
AcDbPolyline
 62
7
  6
CONTINUOUS
 90
12
 70
0
 10
50.2752012341
 20
8.5180282692
 10
50.2752348386
 20
8.5178723718
 10
50.2753470489
 20
8.5173368595
 10
50.2755277246
 20
8.5164448584
 10
50.275766394
 20
8.5152261164
 10
50.2760596903
 20
8.5136780358
 10
50.2764050727
 20
8.5117944948
 10
50.2767946229
 20
8.5096007121
 10
50.277225826
 20
8.5070946226
 10
50.2776968484
 20
8.5042707688
 10
50.2782017367
 20
8.5011498548
 10
50.2787381957
 20
8.4977325288
  0
LINE
  5
517
100
AcDbEntity
  8
RACCORDO
100
AcDbLine
 62
7
  6
CONTINUOUS
 10
50.2787381957
 20
8.4977325288
 11
50.279899664
 21
8.489995426
  0
LWPOLYLINE
  5
518
100
AcDbEntity
  8
RACCORDO
100
AcDbPolyline
 62
250
  6
CONTINUOUS
 90
63
 70
0
 10
50.3342048474
 20
-22.4996847516
 10
50.3339191462
 20
-22.4976971843
 10
50.3336289423
 20
-22.495745268
 10
50.3333342144
 20
-22.4938286298
 10
50.3330349838
 20
-22.4919476425
 10
50.3327308958
 20
-22.4901041059
 10
50.332421949
 20
-22.4882978292
 10
50.3321081447
 20
-22.4865290033
 10
50.3317891324
 20
-22.4848000002
 10
50.33146494
 20
-22.4831107711
 10
50.3311355394
 20
-22.4814613649
 10
50.3308004961
 20
-22.4798542998
 10
50.3304598199
 20
-22.4782893981
 10
50.3301135009
 20
-22.4767668377
 10
50.3297610748
 20
-22.4752896699
 10
50.3294025658
 20
-22.4738577515
 10
50.3290379497
 20
-22.4724712258
 10
50.3286666897
 20
-22.4711335743
 10
50.3282888008
 20
-22.4698445865
 10
50.327904268
 20
-22.4686044729
 10
50.3275125094
 20
-22.4674173465
 10
50.3271135581
 20
-22.4662830147
 10
50.3267073809
 20
-22.4652016702
 10
50.3262932962
 20
-22.4641780043
 10
50.3258713401
 20
-22.4632117681
 10
50.3254414765
 20
-22.4623032106
 10
50.3250029159
 20
-22.4614577693
 10
50.3245556855
 20
-22.4606751304
 10
50.3240997581
 20
-22.4599556077
 10
50.3236342621
 20
-22.4593055806
 10
50.3231592572
 20
-22.4587247195
 10
50.3226746838
 20
-22.458213354
 10
50.3221794906
 20
-22.4577788517
 10
50.3216737872
 20
-22.4574207816
 10
50.321157464
 20
-22.4571395747
 10
50.3206291407
 20
-22.4569438916
 10
50.3200889323
 20
-22.4568331137
 10
50.3195367238
 20
-22.4568078596
 10
50.3189707904
 20
-22.4568786454
 10
50.3183915861
 20
-22.4570443159
 10
50.3177986569
 20
-22.4573060263
 10
50.3171889155
 20
-22.4576777582
 10
50.3165624196
 20
-22.4581581588
 10
50.3159191114
 20
-22.458748581
 10
50.315255731
 20
-22.4594670648
 10
50.3145664656
 20
-22.4603245383
 10
50.3138571281
 20
-22.4613100736
 10
50.3131418966
 20
-22.4624089265
 10
50.3124193451
 20
-22.463633031
 10
50.3116908997
 20
-22.4649704532
 10
50.3109750178
 20
-22.4663706474
 10
50.3102747237
 20
-22.4678332281
 10
50.3095869932
 20
-22.4693585809
 10
50.30892121
 20
-22.4708973158
 10
50.3082824189
 20
-22.4724363349
 10
50.3076655751
 20
-22.4739887361
 10
50.3070649285
 20
-22.4755444242
 10
50.3064795786
 20
-22.4771027779
 10
50.3059104258
 20
-22.4786644185
 10
50.3053544217
 20
-22.4802211139
 10
50.3048109439
 20
-22.4817730653
 10
50.3042806148
 20
-22.4833200716
 10
50.3032559767
 20
-22.4863713808
  0
LINE
  5
519
100
AcDbEntity
  8
RACCORDO
100
AcDbLine
 62
7
  6
CONTINUOUS
 10
50.279899664
 20
8.489995426
 11
50.2811651535
 21
8.4810652719
  0
LINE
  5
51A
100
AcDbEntity
  8
RACCORDO
100
AcDbLine
 62
250
  6
CONTINUOUS
 10
50.3347640517
 20
-22.5037649995
 11
50.3342048474
 21
-22.4996847516
  0
LINE
  5
51B
100
AcDbEntity
  8
RACCORDO
100
AcDbLine
 62
7
  6
CONTINUOUS
 10
50.2811651535
 20
8.4810652719
 11
50.2825226563
 21
8.4709317026
  0
LINE
  5
51C
100
AcDbEntity
  8
RACCORDO
100
AcDbLine
 62
250
  6
CONTINUOUS
 10
50.3353072216
 20
-22.5079840311
 11
50.3347640517
 21
-22.5037649995
  0
LINE
  5
51D
100
AcDbEntity
  8
RACCORDO
100
AcDbLine
 62
7
  6
CONTINUOUS
 10
50.2825226563
 20
8.4709317026
 11
50.2839629804
 21
8.4595705393
  0
LINE
  5
51E
100
AcDbEntity
  8
RACCORDO
100
AcDbLine
 62
250
  6
CONTINUOUS
 10
50.3358351722
 20
-22.5123386442
 11
50.3353072216
 21
-22.5079840311
  0
LINE
  5
51F
100
AcDbEntity
  8
RACCORDO
100
AcDbLine
 62
7
  6
CONTINUOUS
 10
50.2839629804
 20
8.4595705393
 11
50.2854781086
 21
8.4469531068
  0
LINE
  5
520
100
AcDbEntity
  8
RACCORDO
100
AcDbLine
 62
250
  6
CONTINUOUS
 10
50.3363479716
 20
-22.5168201466
 11
50.3358351722
 21
-22.5123386442
  0
LINE
  5
521
100
AcDbEntity
  8
RACCORDO
100
AcDbLine
 62
7
  6
CONTINUOUS
 10
50.2854781086
 20
8.4469531068
 11
50.2870627365
 21
8.4330318784
  0
LWPOLYLINE
  5
522
100
AcDbEntity
  8
RACCORDO
100
AcDbPolyline
 62
250
  6
CONTINUOUS
 90
6
 70
0
 10
50.283511602
 20
8.4986982884
 10
50.2858272982
 20
8.4778327458
 10
50.2881143469
 20
8.4559046363
 10
50.2903730951
 20
8.4329121096
 10
50.2926004403
 20
8.4088891389
 10
50.294796534
 20
8.3838330875
  0
LWPOLYLINE
  5
523
100
AcDbEntity
  8
RACCORDO
100
AcDbPolyline
 62
250
  6
CONTINUOUS
 90
19
 70
0
 10
50.6067972721
 20
-26.6689352176
 10
50.5402715047
 20
-26.0718064348
 10
50.5245268382
 20
-25.9272800212
 10
50.509516563
 20
-25.7863974173
 10
50.4953445273
 20
-25.6495246557
 10
50.4820208704
 20
-25.5162598033
 10
50.4696273476
 20
-25.3870274565
 10
50.4582076333
 20
-25.2620311031
 10
50.4477563683
 20
-25.1410381923
 10
50.4382636561
 20
-25.0238155824
 10
50.4297343249
 20
-24.9103917603
 10
50.4221622742
 20
-24.8007184848
 10
50.4155187722
 20
-24.6944496323
 10
50.4097937983
 20
-24.5915688749
 10
50.4049751227
 20
-24.4920783443
 10
50.4010346444
 20
-24.3956626723
 10
50.3979533222
 20
-24.3022128645
 10
50.3957169721
 20
-24.2118284685
 10
50.3943042853
 20
-24.1245085149
  0
LWPOLYLINE
  5
524
100
AcDbEntity
  8
RACCORDO
100
AcDbPolyline
 62
250
  6
CONTINUOUS
 90
49
 70
0
 10
50.3446000763
 20
22.6607900556
 10
50.3431330305
 20
22.6762082307
 10
50.3408568292
 20
22.6916114648
 10
50.3377737792
 20
22.7069841197
 10
50.3338870138
 20
22.7223108149
 10
50.3292004664
 20
22.7375757637
 10
50.3237188692
 20
22.7527627955
 10
50.3174477779
 20
22.7678562845
 10
50.3103935628
 20
22.7828411309
 10
50.3025633814
 20
22.7977021019
 10
50.2939651787
 20
22.8124241018
 10
50.2846076802
 20
22.8269922077
 10
50.274500382
 20
22.8413916565
 10
50.26365354
 20
22.8556078275
 10
50.2520781612
 20
22.8696263041
 10
50.2397859933
 20
22.8834329078
 10
50.2267895099
 20
22.8970136309
 10
50.2131018987
 20
22.9103546894
 10
50.1987370505
 20
22.9234425832
 10
50.1837095428
 20
22.9362640557
 10
50.1680346236
 20
22.9488060713
 10
50.1517281971
 20
22.961055867
 10
50.1348068109
 20
22.9730010279
 10
50.1172876348
 20
22.9846294174
 10
50.0991884433
 20
22.995929154
 10
50.0805276018
 20
23.0068887657
 10
50.0613240465
 20
23.0174971387
 10
50.0415972616
 20
23.0277434464
 10
50.0213672639
 20
23.0376172752
 10
50.0006545821
 20
23.0471086241
 10
49.9794802338
 20
23.0562078523
 10
49.9578657046
 20
23.0649057073
 10
49.9358329282
 20
23.0731933834
 10
49.9134042642
 20
23.0810625208
 10
49.8906024709
 20
23.0885051184
 10
49.8674506869
 20
23.0955136395
 10
49.8439724089
 20
23.1020810693
 10
49.8201914615
 20
23.1082007454
 10
49.7961319757
 20
23.1138664547
 10
49.7718183692
 20
23.1190725366
 10
49.7472753144
 20
23.12381372
 10
49.7225277155
 20
23.128085181
 10
49.6976006867
 20
23.1318826373
 10
49.6725195243
 20
23.1352022558
 10
49.6473096771
 20
23.1380406478
 10
49.6219967226
 20
23.1403949252
 10
49.5966063453
 20
23.1422626968
 10
49.5711643113
 20
23.143642071
 10
49.5456964374
 20
23.1445316492
  0
LWPOLYLINE
  5
525
100
AcDbEntity
  8
RACCORDO
100
AcDbPolyline
 62
250
  6
CONTINUOUS
 90
49
 70
0
 10
50.3442898243
 20
-22.6348858369
 10
50.3428393782
 20
-22.6507396577
 10
50.3405789985
 20
-22.6665770597
 10
50.3375109806
 20
-22.6823819613
 10
50.333638435
 20
-22.6981382029
 10
50.3289652994
 20
-22.7138298961
 10
50.3234963346
 20
-22.729441437
 10
50.3172371001
 20
-22.7449570826
 10
50.3101939481
 20
-22.7603609605
 10
50.3023740313
 20
-22.7756374165
 10
50.2937852919
 20
-22.7907709334
 10
50.2844364531
 20
-22.8057461423
 10
50.2743370095
 20
-22.8205478299
 10
50.2634972184
 20
-22.8351609617
 10
50.2519280893
 20
-22.8495706969
 10
50.239641372
 20
-22.8637623996
 10
50.2266495452
 20
-22.8777216527
 10
50.212965804
 20
-22.8914342818
 10
50.1986040464
 20
-22.9048863685
 10
50.1835788589
 20
-22.9180642535
 10
50.1679055013
 20
-22.9309545495
 10
50.151599892
 20
-22.9435441631
 10
50.1346785917
 20
-22.9558203115
 10
50.1171587862
 20
-22.9677705227
 10
50.0990582685
 20
-22.9793826479
 10
50.0803954222
 20
-22.9906448915
 10
50.0611892019
 20
-23.001545817
 10
50.0414591139
 20
-23.0120743468
 10
50.0212251967
 20
-23.0222197844
 10
50.0005080005
 20
-23.0319718292
 10
49.9793285667
 20
-23.0413205807
 10
49.9577084059
 20
-23.0502565451
 10
49.9356694763
 20
-23.0587706457
 10
49.9132341613
 20
-23.0668542356
 10
49.8904252471
 20
-23.0744991069
 10
49.8672658992
 20
-23.0816974932
 10
49.8437796388
 20
-23.088442079
 10
49.8199903195
 20
-23.0947260145
 10
49.7959221025
 20
-23.1005429173
 10
49.7715994321
 20
-23.1058868741
 10
49.7470470112
 20
-23.1107524557
 10
49.7222897762
 20
-23.1151347222
 10
49.6973528714
 20
-23.1190292224
 10
49.6722616233
 20
-23.1224319972
 10
49.6470415158
 20
-23.1253395943
 10
49.6217181638
 20
-23.1277490707
 10
49.5963172867
 20
-23.1296579825
 10
49.5708646825
 20
-23.1310643875
 10
49.5453862016
 20
-23.1319668574
  0
LWPOLYLINE
  5
526
100
AcDbEntity
  8
RACCORDO
100
AcDbPolyline
 62
250
  6
CONTINUOUS
 90
46
 70
0
 10
50.3943044603
 20
-24.1245085149
 10
50.3925820263
 20
-24.1367685624
 10
50.3899452358
 20
-24.1490145478
 10
50.3863971131
 20
-24.1612324253
 10
50.3819417277
 20
-24.1734081809
 10
50.37658419
 20
-24.1855278493
 10
50.370330645
 20
-24.1975775294
 10
50.3631882654
 20
-24.2095434004
 10
50.3551652435
 20
-24.2214117374
 10
50.3462707815
 20
-24.2331689278
 10
50.3365150812
 20
-24.2448014862
 10
50.3259093324
 20
-24.2562960701
 10
50.3144656996
 20
-24.2676394954
 10
50.3021973086
 20
-24.2788187514
 10
50.2891182311
 20
-24.2898210156
 10
50.2752434685
 20
-24.3006336686
 10
50.2605889351
 20
-24.3112443083
 10
50.2451714394
 20
-24.3216407644
 10
50.2290086651
 20
-24.3318111125
 10
50.2121191507
 20
-24.3417436872
 10
50.1945222682
 20
-24.351427096
 10
50.176238201
 20
-24.3608502321
 10
50.1572879207
 20
-24.3700022874
 10
50.1376931631
 20
-24.3788727645
 10
50.1174764031
 20
-24.3874514891
 10
50.096660829
 20
-24.3957286215
 10
50.075270316
 20
-24.4036946679
 10
50.0533293988
 20
-24.4113404914
 10
50.0308632434
 20
-24.4186573224
 10
50.007897618
 20
-24.4256367685
 10
49.9844588641
 20
-24.4322708243
 10
49.9605738656
 20
-24.4385518808
 10
49.9362700182
 20
-24.4444727335
 10
49.9115751981
 20
-24.4500265914
 10
49.8865177301
 20
-24.4552070842
 10
49.8611263547
 20
-24.4600082701
 10
49.8354301954
 20
-24.464424642
 10
49.8094587255
 20
-24.4684511345
 10
49.783241734
 20
-24.4720831292
 10
49.7568092912
 20
-24.4753164603
 10
49.7301917151
 20
-24.4781474192
 10
49.7034195355
 20
-24.4805727587
 10
49.6765234598
 20
-24.4825896972
 10
49.6495343375
 20
-24.4841959211
 10
49.6224831248
 20
-24.4853895882
 10
49.595400849
 20
-24.4861693293
  0
LINE
  5
527
100
AcDbEntity
  8
RACCORDO
100
AcDbLine
 62
250
  6
CONTINUOUS
 10
50.3013412305
 20
-22.4922763156
 11
50.2971773187
 21
-22.5054710277
  0
LINE
  5
528
100
AcDbEntity
  8
RACCORDO
100
AcDbLine
 62
250
  6
CONTINUOUS
 10
50.3022777991
 20
-22.4893614547
 11
50.3013412305
 21
-22.4922763156
  0
LINE
  5
529
100
AcDbEntity
  8
RACCORDO
100
AcDbLine
 62
250
  6
CONTINUOUS
 10
50.2971773187
 20
-22.5054710277
 11
50.2960704927
 21
-22.5089193338
  0
LINE
  5
52A
100
AcDbEntity
  8
RACCORDO
100
AcDbLine
 62
250
  6
CONTINUOUS
 10
50.3032559767
 20
-22.4863713808
 11
50.3022777991
 21
-22.4893614547
  0
LINE
  5
52B
100
AcDbEntity
  8
RACCORDO
100
AcDbLine
 62
250
  6
CONTINUOUS
 10
50.2960704927
 20
-22.5089193338
 11
50.2953637391
 21
-22.511078399
  0
LINE
  5
52C
100
AcDbEntity
  8
RACCORDO
100
AcDbLine
 62
250
  6
CONTINUOUS
 10
50.2953637391
 20
-22.511078399
 11
50.2946799403
 21
-22.5131244804
  0
LWPOLYLINE
  5
52D
100
AcDbEntity
  8
RACCORDO
100
AcDbPolyline
 62
250
  6
CONTINUOUS
 90
47
 70
0
 10
50.2946799403
 20
-22.5131244804
 10
50.2940180648
 20
-22.5150572453
 10
50.2936947971
 20
-22.5159810505
 10
50.2933766512
 20
-22.516876522
 10
50.2930631785
 20
-22.5177438548
 10
50.2927543239
 20
-22.5185831032
 10
50.2924501426
 20
-22.5193942128
 10
50.2921503519
 20
-22.5201772151
 10
50.291854964
 20
-22.5209319953
 10
50.2915639668
 20
-22.5216586683
 10
50.2912770417
 20
-22.5223576099
 10
50.2909941948
 20
-22.5230287516
 10
50.29071542
 20
-22.5236721619
 10
50.2904403801
 20
-22.5242884223
 10
50.2901690585
 20
-22.524877534
 10
50.2899014719
 20
-22.5254394957
 10
50.2896373322
 20
-22.5259748854
 10
50.28937663
 20
-22.5264836959
 10
50.2891193748
 20
-22.5269659343
 10
50.2888653077
 20
-22.5274222004
 10
50.2886144261
 20
-22.5278524839
 10
50.2883667326
 20
-22.528256795
 10
50.2881219761
 20
-22.528635764
 10
50.2878801479
 20
-22.5289893989
 10
50.2876412568
 20
-22.5293176917
 10
50.2874050779
 20
-22.5296212485
 10
50.2871716011
 20
-22.5299000801
 10
50.2869408366
 20
-22.5301541757
 10
50.2867125894
 20
-22.5303841089
 10
50.2864868571
 20
-22.5305898852
 10
50.2862636422
 20
-22.5307714992
 10
50.2860427568
 20
-22.5309295075
 10
50.2858241988
 20
-22.5310639229
 10
50.2856079703
 20
-22.5311747326
 10
50.2853938903
 20
-22.5312624555
 10
50.2851819537
 20
-22.53132711
 10
50.2849721655
 20
-22.5313686776
 10
50.2847643589
 20
-22.5313876222
 10
50.2845585307
 20
-22.5313839639
 10
50.284354684
 20
-22.5313576824
 10
50.2841526626
 20
-22.531309181
 10
50.2839524626
 20
-22.531238482
 10
50.2837540878
 20
-22.5311455629
 10
50.2835573928
 20
-22.5310307598
 10
50.2833623289
 20
-22.5308941844
 10
50.2831689447
 20
-22.5307357249
 10
50.2829772403
 20
-22.5305553812
  0
LWPOLYLINE
  5
52E
100
AcDbEntity
  8
RACCORDO
100
AcDbPolyline
 62
250
  6
CONTINUOUS
 90
64
 70
0
 10
50.3030715013
 20
22.4886881784
 10
50.3035886881
 20
22.4873384062
 10
50.3041179553
 20
22.4859821008
 10
50.3046591
 20
22.4846207683
 10
50.3052129678
 20
22.483264972
 10
50.3057784617
 20
22.4819156683
 10
50.3063566787
 20
22.4805719008
 10
50.3069517558
 20
22.4792413627
 10
50.3075638551
 20
22.4779208464
 10
50.3081928145
 20
22.4766135596
 10
50.3088422839
 20
22.4753368177
 10
50.3095168909
 20
22.4740814186
 10
50.3102120079
 20
22.4728565645
 10
50.3109174018
 20
22.4717071774
 10
50.3116356231
 20
22.4706355619
 10
50.3123641212
 20
22.4696394133
 10
50.3130850125
 20
22.4687567407
 10
50.3137960798
 20
22.4679988631
 10
50.3144995401
 20
22.4673544614
 10
50.3151841608
 20
22.4668275867
 10
50.3158454725
 20
22.46642484
 10
50.3164879445
 20
22.4661396205
 10
50.3171137528
 20
22.4659561769
 10
50.3177222021
 20
22.465873214
 10
50.3183139875
 20
22.4658920271
 10
50.3188933707
 20
22.4660007508
 10
50.3194614349
 20
22.4661984015
 10
50.3200170969
 20
22.4664859628
 10
50.3205613685
 20
22.4668545207
 10
50.321094306
 20
22.4673038345
 10
50.3216158533
 20
22.4678341449
 10
50.3221268539
 20
22.4684372589
 10
50.3226272003
 20
22.4691126357
 10
50.3231170002
 20
22.4698608161
 10
50.32359742
 20
22.4706752297
 10
50.3240685569
 20
22.4715555791
 10
50.3245303139
 20
22.4725021617
 10
50.3249835661
 20
22.4735092986
 10
50.3254283839
 20
22.4745768143
 10
50.3258646969
 20
22.4757048843
 10
50.3262931698
 20
22.4768883568
 10
50.3267138223
 20
22.4781270143
 10
50.3271266346
 20
22.4794210742
 10
50.3275322121
 20
22.4807660373
 10
50.3279305677
 20
22.4821616833
 10
50.3283216884
 20
22.4836082325
 10
50.3287061402
 20
22.485101846
 10
50.3290839405
 20
22.4866423389
 10
50.3294550718
 20
22.4882298961
 10
50.3298200476
 20
22.4898612345
 10
50.3301788902
 20
22.4915362252
 10
50.3305315772
 20
22.4932549972
 10
50.330878555
 20
22.4950146534
 10
50.3312198347
 20
22.4968150406
 10
50.3315554051
 20
22.498656312
 10
50.3318856789
 20
22.5005360307
 10
50.3322106737
 20
22.5024541044
 10
50.3325303719
 20
22.5044106253
 10
50.332845133
 20
22.5064034332
 10
50.3331549645
 20
22.5084323956
 10
50.333459859
 20
22.510497645
 10
50.3337601535
 20
22.512597419
 10
50.3340558488
 20
22.5147315341
 10
50.3346337744
 20
22.5191021256
  0
LINE
  5
52F
100
AcDbEntity
  8
RACCORDO
100
AcDbLine
 62
250
  6
CONTINUOUS
 10
50.3020713054
 20
22.491366597
 11
50.3030715013
 21
22.4886881784
  0
LINE
  5
530
100
AcDbEntity
  8
RACCORDO
100
AcDbLine
 62
250
  6
CONTINUOUS
 10
50.2935899525
 20
22.5151449636
 11
50.2942715618
 21
22.5133185519
  0
LINE
  5
531
100
AcDbEntity
  8
RACCORDO
100
AcDbLine
 62
250
  6
CONTINUOUS
 10
50.2942715618
 20
22.5133185519
 11
50.2949754639
 21
22.51139082
  0
LINE
  5
532
100
AcDbEntity
  8
RACCORDO
100
AcDbLine
 62
250
  6
CONTINUOUS
 10
50.3011126506
 20
22.493999551
 11
50.3020713054
 21
22.491366597
  0
LINE
  5
533
100
AcDbEntity
  8
RACCORDO
100
AcDbLine
 62
250
  6
CONTINUOUS
 10
50.3001919044
 20
22.496575065
 11
50.3011126506
 21
22.493999551
  0
LINE
  5
534
100
AcDbEntity
  8
RACCORDO
100
AcDbLine
 62
250
  6
CONTINUOUS
 10
50.2949754639
 20
22.51139082
 11
50.2960756419
 21
22.5083123502
  0
LINE
  5
535
100
AcDbEntity
  8
RACCORDO
100
AcDbLine
 62
250
  6
CONTINUOUS
 10
50.2960756419
 20
22.5083123502
 11
50.3001919044
 21
22.496575065
  0
LWPOLYLINE
  5
536
100
AcDbEntity
  8
RACCORDO
100
AcDbPolyline
 62
250
  6
CONTINUOUS
 90
46
 70
0
 10
50.393966378
 20
24.2174730565
 10
50.3922261815
 20
24.228994343
 10
50.3895724788
 20
24.2405024271
 10
50.3860083109
 20
24.2519841212
 10
50.3815377623
 20
24.2634262679
 10
50.3761659558
 20
24.2748157551
 10
50.3698990473
 20
24.2861395312
 10
50.3627442184
 20
24.2973846195
 10
50.354709668
 20
24.3085381339
 10
50.3458046033
 20
24.3195872931
 10
50.3360392291
 20
24.3305194353
 10
50.3254247358
 20
24.3413220328
 10
50.3139732873
 20
24.3519827065
 10
50.3016980061
 20
24.3624892398
 10
50.2886129591
 20
24.3728295927
 10
50.2747331411
 20
24.3829919159
 10
50.2600744575
 20
24.3929645637
 10
50.2446537064
 20
24.4027361082
 10
50.2284885592
 20
24.4122953515
 10
50.2115975402
 20
24.4216313394
 10
50.1940000055
 20
24.4307333733
 10
50.1757161212
 20
24.4395910228
 10
50.1567668393
 20
24.4481941374
 10
50.1371738749
 20
24.4565328585
 10
50.1169596803
 20
24.4645976303
 10
50.09614742
 20
24.4723792111
 10
50.0747609436
 20
24.4798686835
 10
50.0528247588
 20
24.487057465
 10
50.0303640035
 20
24.4939373177
 10
50.0074044162
 20
24.5005003576
 10
49.9839723076
 20
24.5067390638
 10
49.9600945294
 20
24.512646287
 10
49.9357984444
 20
24.5182152581
 10
49.9111118945
 20
24.5234395951
 10
49.8860631692
 20
24.5283133112
 10
49.8606809728
 20
24.5328308215
 10
49.8349943921
 20
24.5369869492
 10
49.8090328625
 20
24.5407769314
 10
49.7828261345
 20
24.5441964251
 10
49.7564042394
 20
24.5472415118
 10
49.7297974555
 20
24.5499087019
 10
49.7030362725
 20
24.5521949389
 10
49.6761513574
 20
24.5540976029
 10
49.6491735189
 20
24.5556145137
 10
49.6221336719
 20
24.5567439328
 10
49.5950628028
 20
24.557484566
  0
LINE
  5
537
100
AcDbEntity
  8
0
100
AcDbLine
 62
250
  6
CONTINUOUS
 10
64.1292815281
 20
41.0
 11
64.1292815281
 21
35.8557926453
  0
LINE
  5
538
100
AcDbEntity
  8
0
100
AcDbLine
 62
250
  6
CONTINUOUS
 10
64.1292815281
 20
-41.0
 11
64.1292815281
 21
-35.8557926453
  0
LWPOLYLINE
  5
539
100
AcDbEntity
  8
0
100
AcDbPolyline
 62
250
  6
CONTINUOUS
 90
31
 70
0
 10
71.8205110429
 20
-33.874818883
 10
71.806693148
 20
-33.8840524
 10
71.7906595309
 20
-33.8930294792
 10
71.7724167451
 20
-33.9017464511
 10
71.7519722468
 20
-33.9101997531
 10
71.7293343924
 20
-33.9183859299
 10
71.7045124345
 20
-33.9263016357
 10
71.6775165187
 20
-33.9339436351
 10
71.6483576788
 20
-33.9413088045
 10
71.6170478331
 20
-33.9483941337
 10
71.5835997787
 20
-33.9551967266
 10
71.5480271868
 20
-33.9617138029
 10
71.5103445969
 20
-33.9679426987
 10
71.470567411
 20
-33.9738808682
 10
71.4287118872
 20
-33.9795258843
 10
71.384795133
 20
-33.9848754397
 10
71.3388350985
 20
-33.9899273479
 10
71.2908505688
 20
-33.994679544
 10
71.2408611566
 20
-33.9991300857
 10
71.188887294
 20
-34.0032771539
 10
71.1349502242
 20
-34.0071190536
 10
71.0790719929
 20
-34.0106542144
 10
71.0212754391
 20
-34.0138811915
 10
70.9615841859
 20
-34.0167986659
 10
70.9000226308
 20
-34.0194054451
 10
70.8366159357
 20
-34.0217004637
 10
70.771390017
 20
-34.0236827837
 10
70.7043715341
 20
-34.0253515948
 10
70.6355878796
 20
-34.0267062149
 10
70.5650671673
 20
-34.0277460903
 10
70.492838221
 20
-34.028470796
  0
LWPOLYLINE
  5
53A
100
AcDbEntity
  8
0
100
AcDbPolyline
 62
250
  6
CONTINUOUS
 90
33
 70
0
 10
71.8205110484
 20
33.8748188836
 10
71.8066931535
 20
33.8840524007
 10
71.7906595364
 20
33.8930294798
 10
71.7724167505
 20
33.9017464518
 10
71.7519722522
 20
33.9101997537
 10
71.7293343977
 20
33.9183859306
 10
71.7045124398
 20
33.9263016364
 10
71.6775165239
 20
33.9339436357
 10
71.6483576841
 20
33.9413088052
 10
71.6170478383
 20
33.9483941343
 10
71.5835997838
 20
33.9551967273
 10
71.5480271919
 20
33.9617138035
 10
71.5103446019
 20
33.9679426993
 10
71.470567416
 20
33.9738808689
 10
71.4287118921
 20
33.979525885
 10
71.3847951378
 20
33.9848754404
 10
71.3388351032
 20
33.9899273486
 10
71.2908505735
 20
33.9946795447
 10
71.2408611612
 20
33.9991300863
 10
71.1888872986
 20
34.0032771545
 10
71.1349502287
 20
34.0071190542
 10
71.0790719974
 20
34.010654215
 10
71.0212754435
 20
34.0138811921
 10
70.9615841901
 20
34.0167986665
 10
70.900022635
 20
34.0194054457
 10
70.8366159399
 20
34.0217004643
 10
70.771390021
 20
34.0236827843
 10
70.7043715381
 20
34.0253515953
 10
70.6355878835
 20
34.0267062154
 10
70.5650671711
 20
34.0277460908
 10
70.4928382247
 20
34.0284707966
 10
70.4189305663
 20
34.0288800364
 10
70.2662006203
 20
34.0287515784
  0
LWPOLYLINE
  5
53B
100
AcDbEntity
  8
0
100
AcDbPolyline
 62
250
  6
CONTINUOUS
 90
49
 70
0
 10
66.3856837327
 20
33.7875965416
 10
66.5258179699
 20
32.3822549587
 10
66.6599778442
 20
30.9765527128
 10
66.7881633554
 20
29.5705128485
 10
66.9103741144
 20
28.1641484745
 10
67.0266105105
 20
26.7574925408
 10
67.1368737108
 20
25.3505978706
 10
67.2411616161
 20
23.9435156051
 10
67.3394763257
 20
22.5362406782
 10
67.4318253049
 20
21.1287415681
 10
67.5182097011
 20
19.7210309437
 10
67.598628367
 20
18.313142039
 10
67.6730853254
 20
16.9050741083
 10
67.7415808209
 20
15.4968495983
 10
67.8041146088
 20
14.0884918935
 10
67.8606899781
 20
12.6800016163
 10
67.9113070483
 20
11.2714086322
 10
67.9559656998
 20
9.8627288471
 10
67.9946688626
 20
8.4539419073
 10
68.0274170983
 20
7.0450622999
 10
68.0542098454
 20
5.6361212472
 10
68.0750483485
 20
4.227123475
 10
68.0899328143
 20
2.8180973183
 10
68.0988630362
 20
1.4090601302
 10
68.101839639
 20
0.0000001535
 10
68.0988630396
 20
-1.4090597126
 10
68.0899328212
 20
-2.8180966917
 10
68.075048358
 20
-4.2271227257
 10
68.0542098556
 20
-5.6361205674
 10
68.0274171083
 20
-7.0450617757
 10
67.9946688731
 20
-8.4539414917
 10
67.9559657126
 20
-9.862728432
 10
67.9113070643
 20
-11.2714081707
 10
67.8606899973
 20
-12.6800011108
 10
67.8041146323
 20
-14.088491347
 10
67.7415808487
 20
-15.4968490133
 10
67.6730853545
 20
-16.9050735355
 10
67.5986283905
 20
-18.3131415915
 10
67.5182097159
 20
-19.7210306719
 10
67.4318253165
 20
-21.1287413844
 10
67.3394763468
 20
-22.5362403898
 10
67.2411616523
 20
-23.9435151245
 10
67.1368737553
 20
-25.3505972873
 10
67.0266105495
 20
-26.7574920411
 10
66.9103741412
 20
-28.1641481477
 10
66.7881633713
 20
-29.5705126696
 10
66.6599778534
 20
-30.9765526185
 10
66.5258179739
 20
-32.3822549241
 10
66.3856837327
 20
-33.7875965416
  0
LINE
  5
53C
100
AcDbEntity
  8
RACCORDO
100
AcDbLine
 62
7
  6
CONTINUOUS
 10
73.9040512891
 20
-6.7423995891
 11
73.8866431756
 21
-6.4343272825
  0
LINE
  5
53D
100
AcDbEntity
  8
RACCORDO
100
AcDbLine
 62
7
  6
CONTINUOUS
 10
73.8866431756
 20
-6.4343272825
 11
73.8713293958
 21
-6.1414532615
  0
LINE
  5
53E
100
AcDbEntity
  8
RACCORDO
100
AcDbLine
 62
7
  6
CONTINUOUS
 10
73.9062959332
 20
-6.7875519528
 11
73.9040512891
 21
-6.7423995891
  0
LINE
  5
53F
100
AcDbEntity
  8
RACCORDO
100
AcDbLine
 62
7
  6
CONTINUOUS
 10
73.8713293958
 20
-6.1414532615
 11
73.8568696398
 21
-5.8421544269
  0
LINE
  5
540
100
AcDbEntity
  8
RACCORDO
100
AcDbLine
 62
7
  6
CONTINUOUS
 10
73.8568696398
 20
-5.8421544269
 11
73.8432546066
 21
-5.5366491394
  0
LINE
  5
541
100
AcDbEntity
  8
RACCORDO
100
AcDbLine
 62
7
  6
CONTINUOUS
 10
73.8432546066
 20
-5.5366491394
 11
73.8304829705
 21
-5.2253321601
  0
LINE
  5
542
100
AcDbEntity
  8
RACCORDO
100
AcDbLine
 62
7
  6
CONTINUOUS
 10
73.9082345888
 20
-6.8343740415
 11
73.9062959332
 21
-6.7875519528
  0
LINE
  5
543
100
AcDbEntity
  8
RACCORDO
100
AcDbLine
 62
7
  6
CONTINUOUS
 10
73.8304829705
 20
-5.2253321601
 11
73.8185517472
 21
-4.9085361877
  0
LINE
  5
544
100
AcDbEntity
  8
RACCORDO
100
AcDbLine
 62
7
  6
CONTINUOUS
 10
73.8185517472
 20
-4.9085361877
 11
73.8074540844
 21
-4.5865480576
  0
LINE
  5
545
100
AcDbEntity
  8
RACCORDO
100
AcDbLine
 62
7
  6
CONTINUOUS
 10
73.9098553374
 20
-6.8826285071
 11
73.9082345888
 21
-6.8343740415
  0
LINE
  5
546
100
AcDbEntity
  8
RACCORDO
100
AcDbLine
 62
7
  6
CONTINUOUS
 10
73.8074540844
 20
-4.5865480576
 11
73.7971851322
 21
-4.2597045958
  0
LINE
  5
547
100
AcDbEntity
  8
RACCORDO
100
AcDbLine
 62
7
  6
CONTINUOUS
 10
73.7971851322
 20
-4.2597045958
 11
73.7877418519
 21
-3.9283575482
  0
LINE
  5
548
100
AcDbEntity
  8
RACCORDO
100
AcDbLine
 62
7
  6
CONTINUOUS
 10
73.7877418519
 20
-3.9283575482
 11
73.7791206375
 21
-3.5929071105
  0
LINE
  5
549
100
AcDbEntity
  8
RACCORDO
100
AcDbLine
 62
7
  6
CONTINUOUS
 10
73.911154195
 20
-6.9321692213
 11
73.9098553374
 21
-6.8826285071
  0
LINE
  5
54A
100
AcDbEntity
  8
RACCORDO
100
AcDbLine
 62
7
  6
CONTINUOUS
 10
73.7791206375
 20
-3.5929071105
 11
73.7713148991
 21
-3.2536266571
  0
LINE
  5
54B
100
AcDbEntity
  8
RACCORDO
100
AcDbLine
 62
7
  6
CONTINUOUS
 10
73.7713148991
 20
-3.2536266571
 11
73.7643216556
 21
-2.910874324
  0
LINE
  5
54C
100
AcDbEntity
  8
RACCORDO
100
AcDbLine
 62
7
  6
CONTINUOUS
 10
73.9121294932
 20
-6.9829711394
 11
73.911154195
 21
-6.9321692213
  0
LINE
  5
54D
100
AcDbEntity
  8
RACCORDO
100
AcDbLine
 62
7
  6
CONTINUOUS
 10
73.7643216556
 20
-2.910874324
 11
73.7581385068
 21
-2.5651042743
  0
LINE
  5
54E
100
AcDbEntity
  8
RACCORDO
100
AcDbLine
 62
7
  6
CONTINUOUS
 10
73.7581385068
 20
-2.5651042743
 11
73.7527602626
 21
-2.2166027934
  0
LINE
  5
54F
100
AcDbEntity
  8
RACCORDO
100
AcDbLine
 62
7
  6
CONTINUOUS
 10
73.7527602626
 20
-2.2166027934
 11
73.7481844754
 21
-1.8657296089
  0
LINE
  5
550
100
AcDbEntity
  8
RACCORDO
100
AcDbLine
 62
7
  6
CONTINUOUS
 10
73.9127247378
 20
7.1949382176
 11
73.9120429593
 21
7.249411896
  0
LINE
  5
551
100
AcDbEntity
  8
RACCORDO
100
AcDbLine
 62
7
  6
CONTINUOUS
 10
73.9127758874
 20
-7.0348250102
 11
73.9121294932
 21
-6.9829711394
  0
LINE
  5
552
100
AcDbEntity
  8
RACCORDO
100
AcDbLine
 62
7
  6
CONTINUOUS
 10
73.7481844754
 20
-1.8657296089
 11
73.7444085967
 21
-1.5128957915
  0
LINE
  5
553
100
AcDbEntity
  8
RACCORDO
100
AcDbLine
 62
7
  6
CONTINUOUS
 10
73.7444085967
 20
-1.5128957915
 11
73.7414300833
 21
-1.1584682129
  0
LINE
  5
554
100
AcDbEntity
  8
RACCORDO
100
AcDbLine
 62
7
  6
CONTINUOUS
 10
73.7414300833
 20
-1.1584682129
 11
73.7392475235
 21
-0.8028122456
  0
LINE
  5
555
100
AcDbEntity
  8
RACCORDO
100
AcDbLine
 62
7
  6
CONTINUOUS
 10
73.9130744175
 20
7.1409329722
 11
73.9127247378
 21
7.1949382176
  0
LINE
  5
556
100
AcDbEntity
  8
RACCORDO
100
AcDbLine
 62
7
  6
CONTINUOUS
 10
73.9130913399
 20
-7.0875525139
 11
73.9127758874
 21
-7.0348250102
  0
LINE
  5
557
100
AcDbEntity
  8
RACCORDO
100
AcDbLine
 62
7
  6
CONTINUOUS
 10
73.7392475235
 20
-0.8028122456
 11
73.7378590439
 21
-0.4462604935
  0
LINE
  5
558
100
AcDbEntity
  8
RACCORDO
100
AcDbLine
 62
7
  6
CONTINUOUS
 10
73.7378590439
 20
-0.4462604935
 11
73.7372640949
 21
-0.0892668616
  0
LINE
  5
559
100
AcDbEntity
  8
RACCORDO
100
AcDbLine
 62
7
  6
CONTINUOUS
 10
73.7372640949
 20
-0.0892668616
 11
73.7374624418
 21
0.2677923457
  0
LINE
  5
55A
100
AcDbEntity
  8
RACCORDO
100
AcDbLine
 62
7
  6
CONTINUOUS
 10
73.9130913399
 20
7.0875525139
 11
73.9130744175
 21
7.1409329722
  0
LINE
  5
55B
100
AcDbEntity
  8
RACCORDO
100
AcDbLine
 62
7
  6
CONTINUOUS
 10
73.9130744175
 20
-7.1409329722
 11
73.9130913399
 21
-7.0875525139
  0
LINE
  5
55C
100
AcDbEntity
  8
RACCORDO
100
AcDbLine
 62
7
  6
CONTINUOUS
 10
73.7374624418
 20
0.2677923457
 11
73.7384540027
 21
0.6246249946
  0
LINE
  5
55D
100
AcDbEntity
  8
RACCORDO
100
AcDbLine
 62
7
  6
CONTINUOUS
 10
73.7384540027
 20
0.6246249946
 11
73.7402395236
 21
0.9807749581
  0
LINE
  5
55E
100
AcDbEntity
  8
RACCORDO
100
AcDbLine
 62
7
  6
CONTINUOUS
 10
73.9127758874
 20
7.0348250102
 11
73.9130913399
 21
7.0875525139
  0
LINE
  5
55F
100
AcDbEntity
  8
RACCORDO
100
AcDbLine
 62
7
  6
CONTINUOUS
 10
73.7402395236
 20
0.9807749581
 11
73.7428198152
 21
1.335858157
  0
LINE
  5
560
100
AcDbEntity
  8
RACCORDO
100
AcDbLine
 62
7
  6
CONTINUOUS
 10
73.9127247378
 20
-7.1949382176
 11
73.9130744175
 21
-7.1409329722
  0
LINE
  5
561
100
AcDbEntity
  8
RACCORDO
100
AcDbLine
 62
7
  6
CONTINUOUS
 10
73.7428198152
 20
1.335858157
 11
73.7461965492
 21
1.6895360711
  0
LINE
  5
562
100
AcDbEntity
  8
RACCORDO
100
AcDbLine
 62
7
  6
CONTINUOUS
 10
73.7461965492
 20
1.6895360711
 11
73.7503723765
 21
2.0414353985
  0
LINE
  5
563
100
AcDbEntity
  8
RACCORDO
100
AcDbLine
 62
7
  6
CONTINUOUS
 10
73.9120429593
 20
-7.249411896
 11
73.9127247378
 21
-7.1949382176
  0
LINE
  5
564
100
AcDbEntity
  8
RACCORDO
100
AcDbLine
 62
7
  6
CONTINUOUS
 10
73.9121294932
 20
6.9829711394
 11
73.9127758874
 21
7.0348250102
  0
LINE
  5
565
100
AcDbEntity
  8
RACCORDO
100
AcDbLine
 62
7
  6
CONTINUOUS
 10
73.7503723765
 20
2.0414353985
 11
73.7553490386
 21
2.391176805
  0
LINE
  5
566
100
AcDbEntity
  8
RACCORDO
100
AcDbLine
 62
7
  6
CONTINUOUS
 10
73.7553490386
 20
2.391176805
 11
73.7611288574
 21
2.7383463387
  0
LINE
  5
567
100
AcDbEntity
  8
RACCORDO
100
AcDbLine
 62
7
  6
CONTINUOUS
 10
73.7611288574
 20
2.7383463387
 11
73.7677170554
 21
3.0826531433
  0
LINE
  5
568
100
AcDbEntity
  8
RACCORDO
100
AcDbLine
 62
7
  6
CONTINUOUS
 10
73.911154195
 20
6.9321692213
 11
73.9121294932
 21
6.9829711394
  0
LINE
  5
569
100
AcDbEntity
  8
RACCORDO
100
AcDbLine
 62
7
  6
CONTINUOUS
 10
73.7677170554
 20
3.0826531433
 11
73.7751161937
 21
3.4237299806
  0
LINE
  5
56A
100
AcDbEntity
  8
RACCORDO
100
AcDbLine
 62
7
  6
CONTINUOUS
 10
73.7751161937
 20
3.4237299806
 11
73.7833285284
 21
3.7611251348
  0
LINE
  5
56B
100
AcDbEntity
  8
RACCORDO
100
AcDbLine
 62
7
  6
CONTINUOUS
 10
73.7833285284
 20
3.7611251348
 11
73.7923607767
 21
4.0945679515
  0
LINE
  5
56C
100
AcDbEntity
  8
RACCORDO
100
AcDbLine
 62
7
  6
CONTINUOUS
 10
73.9098553374
 20
6.8826285071
 11
73.911154195
 21
6.9321692213
  0
LINE
  5
56D
100
AcDbEntity
  8
RACCORDO
100
AcDbLine
 62
7
  6
CONTINUOUS
 10
73.7923607767
 20
4.0945679515
 11
73.8022162653
 21
4.4237134274
  0
LINE
  5
56E
100
AcDbEntity
  8
RACCORDO
100
AcDbLine
 62
7
  6
CONTINUOUS
 10
73.8022162653
 20
4.4237134274
 11
73.812898677
 21
4.7481690524
  0
LINE
  5
56F
100
AcDbEntity
  8
RACCORDO
100
AcDbLine
 62
7
  6
CONTINUOUS
 10
73.9082345888
 20
6.8343740415
 11
73.9098553374
 21
6.8826285071
  0
LINE
  5
570
100
AcDbEntity
  8
RACCORDO
100
AcDbLine
 62
7
  6
CONTINUOUS
 10
73.812898677
 20
4.7481690524
 11
73.8244131169
 21
5.0676029422
  0
LINE
  5
571
100
AcDbEntity
  8
RACCORDO
100
AcDbLine
 62
7
  6
CONTINUOUS
 10
73.8244131169
 20
5.0676029422
 11
73.8367633255
 21
5.3816916001
  0
LINE
  5
572
100
AcDbEntity
  8
RACCORDO
100
AcDbLine
 62
7
  6
CONTINUOUS
 10
73.9062959332
 20
6.7875519528
 11
73.9082345888
 21
6.8343740415
  0
LINE
  5
573
100
AcDbEntity
  8
RACCORDO
100
AcDbLine
 62
7
  6
CONTINUOUS
 10
73.8367633255
 20
5.3816916001
 11
73.8499563932
 21
5.6901546052
  0
LINE
  5
574
100
AcDbEntity
  8
RACCORDO
100
AcDbLine
 62
7
  6
CONTINUOUS
 10
73.8499563932
 20
5.6901546052
 11
73.8639937859
 21
5.9925960973
  0
LINE
  5
575
100
AcDbEntity
  8
RACCORDO
100
AcDbLine
 62
7
  6
CONTINUOUS
 10
73.8639937859
 20
5.9925960973
 11
73.8788789008
 21
6.2887074049
  0
LINE
  5
576
100
AcDbEntity
  8
RACCORDO
100
AcDbLine
 62
7
  6
CONTINUOUS
 10
73.9040512891
 20
6.7423995891
 11
73.9062959332
 21
6.7875519528
  0
LWPOLYLINE
  5
577
100
AcDbEntity
  8
RACCORDO
100
AcDbPolyline
 62
7
  6
CONTINUOUS
 90
3
 70
0
 10
73.8788789008
 20
6.2887074049
 10
73.8946213511
 20
6.5782660583
 10
73.9040512891
 20
6.7423995891
  0
LWPOLYLINE
  5
578
100
AcDbEntity
  8
0
100
AcDbPolyline
 62
250
  6
CONTINUOUS
 90
82
 70
0
 10
66.3856837327
 20
-33.7875965416
 10
66.3810980975
 20
-33.8289663219
 10
66.3757814899
 20
-33.8702242902
 10
66.3697339099
 20
-33.9113704498
 10
66.3629531602
 20
-33.9524184337
 10
66.3554414382
 20
-33.9933546151
 10
66.3472053357
 20
-34.0341381094
 10
66.3382441497
 20
-34.0747686098
 10
66.3285585832
 20
-34.1152464323
 10
66.3181573365
 20
-34.1555316295
 10
66.3070397004
 20
-34.1956240207
 10
66.295206384
 20
-34.2355237986
 10
66.2826682153
 20
-34.2751915781
 10
66.2694244869
 20
-34.3146271739
 10
66.2554759061
 20
-34.353830786
 10
66.2408354231
 20
-34.3927636102
 10
66.2255023364
 20
-34.4314254256
 10
66.2094773475
 20
-34.46981647
 10
66.1927755117
 20
-34.5078986303
 10
66.1753961459
 20
-34.5456716302
 10
66.157339933
 20
-34.583135765
 10
66.1386239779
 20
-34.6202537807
 10
66.1192476119
 20
-34.6570253658
 10
66.0992115035
 20
-34.6934508528
 10
66.0785347633
 20
-34.729493956
 10
66.0572167396
 20
-34.7651543272
 10
66.0352580841
 20
-34.8004323373
 10
66.0126798616
 20
-34.8352927805
 10
65.9894814348
 20
-34.8697352789
 10
65.9656634409
 20
-34.9037602346
 10
65.9412488568
 20
-34.937333614
 10
65.9162370747
 20
-34.9704549917
 10
65.8906287024
 20
-35.0031248186
 10
65.8644485399
 20
-35.0353103768
 10
65.837695995
 20
-35.0670112167
 10
65.81037166
 20
-35.0982278143
 10
65.7825021119
 20
-35.128928842
 10
65.7540867942
 20
-35.1591138053
 10
65.7251262635
 20
-35.1887832256
 10
65.6956487662
 20
-35.2179073008
 10
65.6656537612
 20
-35.2464855165
 10
65.6351417896
 20
-35.2745184142
 10
65.6041427213
 20
-35.3019777769
 10
65.5726560597
 20
-35.3288630459
 10
65.5406823014
 20
-35.3551748068
 10
65.5082528072
 20
-35.3808865601
 10
65.4753670954
 20
-35.405997731
 10
65.4420256476
 20
-35.4305089208
 10
65.4082612697
 20
-35.4543953944
 10
65.3740735316
 20
-35.477656536
 10
65.3394628634
 20
-35.5002929872
 10
65.3044633609
 20
-35.5222818993
 10
65.269074611
 20
-35.5436226429
 10
65.2332970268
 20
-35.564315872
 10
65.1971659439
 20
-35.5843406638
 10
65.1606810026
 20
-35.603696355
 10
65.1238425626
 20
-35.6223836319
 10
65.0866870389
 20
-35.6403835965
 10
65.0492140867
 20
-35.6576955743
 10
65.0114240508
 20
-35.6743202612
 10
64.9733543796
 20
-35.6902408148
 10
64.9350047916
 20
-35.7054565297
 10
64.8963755683
 20
-35.7199681306
 10
64.8575050029
 20
-35.7337609201
 10
64.8183928461
 20
-35.7468341804
 10
64.779039347
 20
-35.7591886463
 10
64.7394835462
 20
-35.7708117991
 10
64.6997252421
 20
-35.7817029054
 10
64.6597646363
 20
-35.7918627132
 10
64.6196413734
 20
-35.8012809252
 10
64.5793552459
 20
-35.809956804
 10
64.5389064613
 20
-35.817891099
 10
64.4983352875
 20
-35.825075743
 10
64.4576415724
 20
-35.8315099754
 10
64.4168254681
 20
-35.8371945658
 10
64.3759276985
 20
-35.8421237419
 10
64.3349479875
 20
-35.8462967316
 10
64.2938866112
 20
-35.8497143132
 10
64.2527851218
 20
-35.8523730388
 10
64.2116573703
 20
-35.8542717602
 10
64.1704895057
 20
-35.8554116288
 10
64.1292815281
 20
-35.8557926453
  0
LWPOLYLINE
  5
579
100
AcDbEntity
  8
0
100
AcDbPolyline
 62
250
  6
CONTINUOUS
 90
49
 70
0
 10
71.8205110488
 20
33.8748188837
 10
71.9635066924
 20
32.4658775365
 10
72.1004045142
 20
31.0565706673
 10
72.2312053196
 20
29.6469217346
 10
72.355910871
 20
28.236944397
 10
72.4745211402
 20
26.8266718491
 10
72.58703477
 20
25.4161568594
 10
72.6934512273
 20
24.0054509895
 10
72.793774401
 20
22.5945494983
 10
72.8880093098
 20
21.1834206507
 10
72.9761574799
 20
19.7720774055
 10
73.0582192445
 20
18.3605533869
 10
73.1341968184
 20
16.9488477695
 10
73.2040910296
 20
15.5369832995
 10
73.2679027449
 20
14.1249836972
 10
73.3256336816
 20
12.7128495498
 10
73.3772842822
 20
11.3006110278
 10
73.4228556517
 20
9.8882843324
 10
73.46234967
 20
8.4758490517
 10
73.4957667916
 20
7.0633199286
 10
73.5231071521
 20
5.6507285027
 10
73.5443713819
 20
4.2380795271
 10
73.5595596703
 20
2.8254016263
 10
73.568672449
 20
1.4127124228
 10
73.5717100635
 20
0.0000001541
 10
73.5686724506
 20
-1.4127120037
 10
73.5595596756
 20
-2.8254009978
 10
73.5443713916
 20
-4.2380787755
 10
73.5231071639
 20
-5.6507278207
 10
73.495766803
 20
-7.0633194027
 10
73.4623496808
 20
-8.4758486346
 10
73.4228556642
 20
-9.8882839158
 10
73.3772842981
 20
-11.3006105646
 10
73.3256337013
 20
-12.7128490426
 10
73.2679027685
 20
-14.1249831489
 10
73.2040910574
 20
-15.5369827126
 10
73.1341968481
 20
-16.9488471949
 10
73.0582192698
 20
-18.3605529377
 10
72.9761574965
 20
-19.7720771326
 10
72.8880093218
 20
-21.1834204661
 10
72.7937744208
 20
-22.5945492088
 10
72.6934512625
 20
-24.0054505073
 10
72.5870348154
 20
-25.4161562741
 10
72.4745211814
 20
-26.8266713477
 10
72.3559108994
 20
-28.2369440689
 10
72.2312053359
 20
-29.6469215548
 10
72.1004045232
 20
-31.0565705724
 10
71.9635066958
 20
-32.4658775015
 10
71.8205110488
 20
-33.8748188837
  0
LWPOLYLINE
  5
57A
100
AcDbEntity
  8
RACCORDO
100
AcDbPolyline
 62
7
  6
CONTINUOUS
 90
3
 70
0
 10
73.9120429593
 20
7.249411896
 10
73.9115787723
 20
7.2767292057
 10
73.9104032874
 20
7.3314391493
  0
LWPOLYLINE
  5
57B
100
AcDbEntity
  8
RACCORDO
100
AcDbPolyline
 62
7
  6
CONTINUOUS
 90
3
 70
0
 10
73.9104032874
 20
-7.3314391493
 10
73.911032215
 20
-7.3040784641
 10
73.9120429593
 20
-7.249411896
  0
LWPOLYLINE
  5
57C
100
AcDbEntity
  8
0
100
AcDbPolyline
 62
250
  6
CONTINUOUS
 90
82
 70
0
 10
71.8205110488
 20
-33.8748188837
 10
71.8038976127
 20
-34.0134194214
 10
71.784787138
 20
-34.1516972845
 10
71.7631860037
 20
-34.2896075001
 10
71.7391015276
 20
-34.4271052494
 10
71.7125415749
 20
-34.5641458077
 10
71.6835145599
 20
-34.7006845359
 10
71.6520300793
 20
-34.8366771382
 10
71.6180985433
 20
-34.9720793046
 10
71.5817308101
 20
-35.1068466132
 10
71.5429389141
 20
-35.2409351507
 10
71.5017356378
 20
-35.3743014338
 10
71.458134171
 20
-35.5069019899
 10
71.4121488819
 20
-35.6386937269
 10
71.3637949148
 20
-35.7696338013
 10
71.3130878
 20
-35.8996794794
 10
71.2600442117
 20
-36.028788519
 10
71.204681607
 20
-36.1569189418
 10
71.1470178531
 20
-36.2840288412
 10
71.0870719229
 20
-36.4100768855
 10
71.0248635056
 20
-36.5350221562
 10
70.960412679
 20
-36.6588238597
 10
70.8937406262
 20
-36.7814417578
 10
70.8248692335
 20
-36.9028360481
 10
70.7538207345
 20
-37.0229671431
 10
70.6806184606
 20
-37.1417960096
 10
70.605286426
 20
-37.2592840835
 10
70.5278489514
 20
-37.3753930894
 10
70.4483314311
 20
-37.4900853336
 10
70.3667599491
 20
-37.6033235815
 10
70.2831608881
 20
-37.7150709111
 10
70.1975616769
 20
-37.8252910193
 10
70.1099903525
 20
-37.9339481749
 10
70.0204751953
 20
-38.0410070304
 10
69.929045527
 20
-38.1464328497
 10
69.8357313055
 20
-38.2501914322
 10
69.7405627063
 20
-38.3522490015
 10
69.6435709235
 20
-38.4525724197
 10
69.5447876883
 20
-38.5511291924
 10
69.444244875
 20
-38.6478873239
 10
69.341975376
 20
-38.7428154461
 10
69.238012674
 20
-38.8358827801
 10
69.1323903736
 20
-38.9270590744
 10
69.025143065
 20
-39.0163147396
 10
68.9163057966
 20
-39.1036208937
 10
68.8059136525
 20
-39.1889492463
 10
68.6940027089
 20
-39.2722721551
 10
68.580609576
 20
-39.3535626223
 10
68.4657708779
 20
-39.4327942657
 10
68.3495241938
 20
-39.5099413863
 10
68.2319074755
 20
-39.5849790444
 10
68.1129585891
 20
-39.6578829728
 10
67.9927163767
 20
-39.7286295659
 10
67.8712201397
 20
-39.797195921
 10
67.748509058
 20
-39.863559833
 10
67.6246232476
 20
-39.9276997909
 10
67.4996031284
 20
-39.9895950735
 10
67.3734889024
 20
-40.0492256967
 10
67.2463217046
 20
-40.106572368
 10
67.118143086
 20
-40.1616165288
 10
66.9889943802
 20
-40.2143403621
 10
66.858917784
 20
-40.2647267855
 10
66.7279557054
 20
-40.3127595385
 10
66.5961502408
 20
-40.3584231274
 10
66.4635444132
 20
-40.4017027673
 10
66.330181471
 20
-40.4425844864
 10
66.1961042308
 20
-40.4810551135
 10
66.0613564674
 20
-40.517102185
 10
65.9259820944
 20
-40.5507140728
 10
65.7900244544
 20
-40.5818799722
 10
65.6535277636
 20
-40.6105898078
 10
65.5165366557
 20
-40.6368342776
 10
65.3790953571
 20
-40.6606048781
 10
65.2412486119
 20
-40.6818939248
 10
65.1030414414
 20
-40.7006945415
 10
64.9645186866
 20
-40.7170006221
 10
64.8257257184
 20
-40.7308068888
 10
64.6867075876
 20
-40.7421089501
 10
64.5475087853
 20
-40.7509032025
 10
64.4081744149
 20
-40.7571868137
 10
64.2687501784
 20
-40.7609577729
 10
64.1292815281
 20
-40.7622148997
  0
LINE
  5
57D
100
AcDbEntity
  8
0
100
AcDbLine
 62
7
  6
CONTINUOUS
 10
-92.7466769374
 20
-41.0
 11
-95.0090510435
 21
-40.7622148997
  0
LWPOLYLINE
  5
57E
100
AcDbEntity
  8
0
100
AcDbPolyline
 62
7
  6
CONTINUOUS
 90
10
 70
0
 43
0.3500000006
 10
-97.9966763306
 20
49.7500012665
 10
-97.1395383911
 20
50.6071437378
 10
-96.9252448425
 20
51.4642862091
 10
-96.9252448425
 20
52.3214286804
 10
-97.353822876
 20
52.750002182
 10
-97.9966763306
 20
52.750002182
 10
-98.4252453003
 20
52.3214286804
 10
-98.4252453003
 20
51.4642862091
 10
-97.9966763306
 20
51.0357127075
 10
-97.0681072083
 20
51.0357127075
  0
LINE
  5
57F
100
AcDbEntity
  8
0
100
AcDbLine
 62
250
  6
CONTINUOUS
 10
-95.2125943383
 20
-33.874818883
 11
-95.4322039495
 21
-33.8930294792
  0
LINE
  5
580
100
AcDbEntity
  8
0
100
AcDbLine
 62
250
  6
CONTINUOUS
 10
-95.4322039495
 20
-33.8930294792
 11
-95.6505147273
 21
-33.9101997531
  0
LINE
  5
581
100
AcDbEntity
  8
0
100
AcDbLine
 62
250
  6
CONTINUOUS
 10
-95.6505147273
 20
-33.9101997531
 11
-95.8671697885
 21
-33.9263016357
  0
LINE
  5
582
100
AcDbEntity
  8
0
100
AcDbLine
 62
250
  6
CONTINUOUS
 10
-95.8671697885
 20
-33.9263016357
 11
-96.0818149568
 21
-33.9413088045
  0
LINE
  5
583
100
AcDbEntity
  8
0
100
AcDbLine
 62
250
  6
CONTINUOUS
 10
-96.0818149568
 20
-33.9413088045
 11
-96.2940993413
 21
-33.9551967266
  0
LINE
  5
584
100
AcDbEntity
  8
0
100
AcDbLine
 62
250
  6
CONTINUOUS
 10
-96.2940993413
 20
-33.9551967266
 11
-96.5036759108
 21
-33.9679426987
  0
LINE
  5
585
100
AcDbEntity
  8
0
100
AcDbLine
 62
250
  6
CONTINUOUS
 10
-96.5036759108
 20
-33.9679426987
 11
-96.7102020604
 21
-33.9795258843
  0
LINE
  5
586
100
AcDbEntity
  8
0
100
AcDbLine
 62
250
  6
CONTINUOUS
 10
-96.7102020604
 20
-33.9795258843
 11
-96.9133401719
 21
-33.9899273479
  0
LINE
  5
587
100
AcDbEntity
  8
0
100
AcDbLine
 62
250
  6
CONTINUOUS
 10
-96.9133401719
 20
-33.9899273479
 11
-97.1127581658
 21
-33.9991300857
  0
LINE
  5
588
100
AcDbEntity
  8
0
100
AcDbLine
 62
250
  6
CONTINUOUS
 10
-97.1127581658
 20
-33.9991300857
 11
-97.3081300439
 21
-34.0071190536
  0
LINE
  5
589
100
AcDbEntity
  8
0
100
AcDbLine
 62
250
  6
CONTINUOUS
 10
-97.3081300439
 20
-34.0071190536
 11
-97.4991364225
 21
-34.0138811915
  0
LINE
  5
58A
100
AcDbEntity
  8
0
100
AcDbLine
 62
250
  6
CONTINUOUS
 10
-97.4991364225
 20
-34.0138811915
 11
-97.6854650543
 21
-34.0194054451
  0
LINE
  5
58B
100
AcDbEntity
  8
0
100
AcDbLine
 62
250
  6
CONTINUOUS
 10
-97.6854650543
 20
-34.0194054451
 11
-97.8668113391
 21
-34.0236827837
  0
LINE
  5
58C
100
AcDbEntity
  8
0
100
AcDbLine
 62
250
  6
CONTINUOUS
 10
-97.8668113391
 20
-34.0236827837
 11
-98.0428788213
 21
-34.0267062149
  0
LINE
  5
58D
100
AcDbEntity
  8
0
100
AcDbLine
 62
250
  6
CONTINUOUS
 10
-98.0428788213
 20
-34.0267062149
 11
-98.2133796751
 21
-34.028470796
  0
LINE
  5
58E
100
AcDbEntity
  8
0
100
AcDbLine
 62
250
  6
CONTINUOUS
 10
-98.2133796751
 20
-34.028470796
 11
-98.3780351746
 21
-34.0289736426
  0
LWPOLYLINE
  5
58F
100
AcDbEntity
  8
0
100
AcDbPolyline
 62
250
  6
CONTINUOUS
 90
40
 70
0
 10
-98.3780351746
 20
-34.0289736426
 10
-98.5365761496
 20
-34.0282139325
 10
-98.6134722962
 20
-34.0273609262
 10
-98.6887434255
 20
-34.0261929077
 10
-98.7623587721
 20
-34.0247103543
 10
-98.8342882473
 20
-34.0229138721
 10
-98.9045024514
 20
-34.0208041952
 10
-98.9729726858
 20
-34.018382186
 10
-99.0396709649
 20
-34.0156488344
 10
-99.104570027
 20
-34.0126052576
 10
-99.1676433462
 20
-34.0092526996
 10
-99.2288651425
 20
-34.0055925307
 10
-99.2882103929
 20
-34.001626247
 10
-99.3456548411
 20
-33.9973554694
 10
-99.401175008
 20
-33.9927819438
 10
-99.454748201
 20
-33.9879075393
 10
-99.5063525231
 20
-33.9827342482
 10
-99.5559668822
 20
-33.9772641852
 10
-99.6035709994
 20
-33.9714995858
 10
-99.6491454176
 20
-33.9654428063
 10
-99.6926715092
 20
-33.9590963223
 10
-99.7341314839
 20
-33.9524627277
 10
-99.7735083957
 20
-33.945544734
 10
-99.8107861502
 20
-33.9383451685
 10
-99.8459495109
 20
-33.9308669742
 10
-99.8789841055
 20
-33.9231132074
 10
-99.9098764319
 20
-33.9150870374
 10
-99.9386138634
 20
-33.9067917447
 10
-99.9651846543
 20
-33.8982307199
 10
-99.9895779442
 20
-33.889407462
 10
-100.011783763
 20
-33.8803255774
 10
-100.0317930346
 20
-33.8709887781
 10
-100.0495975804
 20
-33.8614008804
 10
-100.0651901234
 20
-33.851565803
 10
-100.0785642904
 20
-33.8414875659
 10
-100.0897146149
 20
-33.8311702883
 10
-100.0986365396
 20
-33.8206181872
 10
-100.1053264178
 20
-33.8098355755
 10
-100.1097815151
 20
-33.7988268605
 10
-100.1120000106
 20
-33.7875965416
  0
LINE
  5
590
100
AcDbEntity
  8
0
100
AcDbLine
 62
250
  6
CONTINUOUS
 10
-92.7466769374
 20
-33.904109589
 11
-95.2125943389
 21
-33.8748188837
  0
LWPOLYLINE
  5
591
100
AcDbEntity
  8
0
100
AcDbPolyline
 62
7
  6
CONTINUOUS
 90
7
 70
0
 43
0.3500000006
 10
-110.4966801453
 20
1.5000001373
 10
-110.4966801453
 20
-0.0000003204
 10
-112.6395340576
 20
1.5000001373
 10
-113.0681030273
 20
1.5000001373
 10
-113.4966810608
 20
1.0714289017
 10
-113.4966810608
 20
0.4285709152
 10
-112.8538185425
 20
-0.0000003204
  0
LWPOLYLINE
  5
592
100
AcDbEntity
  8
0
100
AcDbPolyline
 62
7
  6
CONTINUOUS
 90
13
 70
0
 43
0.3500000006
 10
-112.2109650879
 20
-1.9285708809
 10
-112.4252495728
 20
-2.2142854156
 10
-113.0681030273
 20
-2.2142854156
 10
-113.4966810608
 20
-1.9285708809
 10
-113.4966810608
 20
-1.2857140274
 10
-113.0681030273
 20
-1.0000006256
 10
-112.4252495728
 20
-1.0000006256
 10
-112.2109650879
 20
-1.2857140274
 10
-111.7823870544
 20
-0.8571427917
 10
-110.925249115
 20
-0.8571427917
 10
-110.4966801453
 20
-1.2857140274
 10
-110.4966801453
 20
-1.9285708809
 10
-110.925249115
 20
-2.3571432495
  0
LWPOLYLINE
  5
593
100
AcDbEntity
  8
0
100
AcDbPolyline
 62
250
  6
CONTINUOUS
 90
49
 70
0
 10
-95.2125943389
 20
33.8748188837
 10
-95.3439397852
 20
32.4658775365
 10
-95.4696905405
 20
31.0565706673
 10
-95.5898466049
 20
29.6469217346
 10
-95.7044083617
 20
28.236944397
 10
-95.8133754276
 20
26.8266718491
 10
-95.9167466519
 20
25.4161568594
 10
-96.0145199474
 20
24.0054509895
 10
-96.1066974013
 20
22.5945494983
 10
-96.1932841244
 20
21.1834206507
 10
-96.2742810752
 20
19.7720774055
 10
-96.3496872952
 20
18.3605533869
 10
-96.4195050195
 20
16.9488477695
 10
-96.4837343621
 20
15.5369832995
 10
-96.5423752091
 20
14.1249836972
 10
-96.595429454
 20
12.7128495498
 10
-96.6428970947
 20
11.3006110278
 10
-96.6847781334
 20
9.8882843324
 10
-96.72107447
 20
8.4758490517
 10
-96.751786518
 20
7.0633199286
 10
-96.7769138639
 20
5.6507285027
 10
-96.7964571676
 20
4.2380795271
 10
-96.81041651
 20
2.8254016263
 10
-96.8187918103
 20
1.4127124228
 10
-96.8215834854
 20
0.0000001541
 10
-96.8187918136
 20
-1.4127120037
 10
-96.8104165166
 20
-2.8254009978
 10
-96.7964571765
 20
-4.2380787755
 10
-96.7769138735
 20
-5.6507278207
 10
-96.7517865273
 20
-7.0633194027
 10
-96.7210744799
 20
-8.4758486346
 10
-96.6847781455
 20
-9.8882839158
 10
-96.6428971097
 20
-11.3006105646
 10
-96.5954294721
 20
-12.7128490426
 10
-96.5423752311
 20
-14.1249831489
 10
-96.4837343882
 20
-15.5369827126
 10
-96.4195050468
 20
-16.9488471949
 10
-96.3496873171
 20
-18.3605529377
 10
-96.274281089
 20
-19.7720771326
 10
-96.1932841353
 20
-21.1834204661
 10
-96.1066974211
 20
-22.5945492088
 10
-96.0145199814
 20
-24.0054505073
 10
-95.9167466936
 20
-25.4161562741
 10
-95.8133754643
 20
-26.8266713477
 10
-95.7044083869
 20
-28.2369440689
 10
-95.5898466199
 20
-29.6469215548
 10
-95.4696905492
 20
-31.0565705724
 10
-95.3439397889
 20
-32.4658775015
 10
-95.2125943389
 20
-33.8748188837
  0
LWPOLYLINE
  5
594
100
AcDbEntity
  8
0
100
AcDbPolyline
 62
7
  6
CONTINUOUS
 90
4
 70
0
 43
0.3500000006
 10
-110.925249115
 20
-2.3571432495
 10
-111.7823870544
 20
-2.3571432495
 10
-112.2109650879
 20
-1.9285708809
 10
-112.2109650879
 20
-1.2857140274
  0
LINE
  5
595
100
AcDbEntity
  8
0
100
AcDbLine
 62
250
  6
CONTINUOUS
 10
-95.0200791757
 20
-40.4017027673
 11
-95.0090510435
 21
-40.7622148997
  0
LINE
  5
596
100
AcDbEntity
  8
0
100
AcDbLine
 62
250
  6
CONTINUOUS
 10
-95.0242582506
 20
-40.2647267855
 11
-95.0200791757
 21
-40.4017027673
  0
LINE
  5
597
100
AcDbEntity
  8
0
100
AcDbLine
 62
250
  6
CONTINUOUS
 10
-95.0290759434
 20
-40.106572368
 11
-95.0242582506
 21
-40.2647267855
  0
LINE
  5
598
100
AcDbEntity
  8
0
100
AcDbLine
 62
250
  6
CONTINUOUS
 10
-95.0345150425
 20
-39.9276997909
 11
-95.0290759434
 21
-40.106572368
  0
LINE
  5
599
100
AcDbEntity
  8
0
100
AcDbLine
 62
250
  6
CONTINUOUS
 10
-95.0471780473
 20
-39.5099413863
 11
-95.0345150425
 21
-39.9276997909
  0
LINE
  5
59A
100
AcDbEntity
  8
0
100
AcDbLine
 62
250
  6
CONTINUOUS
 10
-95.0568695182
 20
-39.1889492463
 11
-95.0471780473
 21
-39.5099413863
  0
LWPOLYLINE
  5
59B
100
AcDbEntity
  8
0
100
AcDbPolyline
 62
250
  6
CONTINUOUS
 90
3
 70
0
 10
-95.0647524358
 20
-38.9270590744
 10
-95.0620686627
 20
-39.0163147396
 10
-95.0568695182
 20
-39.1889492463
  0
LINE
  5
59C
100
AcDbEntity
  8
0
100
AcDbLine
 62
250
  6
CONTINUOUS
 10
-95.0731314359
 20
-38.6478873239
 11
-95.0647524358
 21
-38.9270590744
  0
LWPOLYLINE
  5
59D
100
AcDbEntity
  8
0
100
AcDbPolyline
 62
250
  6
CONTINUOUS
 90
3
 70
0
 10
-95.0819776113
 20
-38.3522490015
 10
-95.0789792204
 20
-38.4525724197
 10
-95.0731314359
 20
-38.6478873239
  0
LINE
  5
59E
100
AcDbEntity
  8
0
100
AcDbLine
 62
250
  6
CONTINUOUS
 10
-95.0912606867
 20
-38.0410070304
 11
-95.0819776113
 21
-38.3522490015
  0
LWPOLYLINE
  5
59F
100
AcDbEntity
  8
0
100
AcDbPolyline
 62
250
  6
CONTINUOUS
 90
3
 70
0
 10
-95.1009491265
 20
-37.7150709111
 10
-95.0976770226
 20
-37.8252910193
 10
-95.0912606867
 20
-38.0410070304
  0
LWPOLYLINE
  5
5A0
100
AcDbEntity
  8
0
100
AcDbPolyline
 62
250
  6
CONTINUOUS
 90
3
 70
0
 10
-95.111010308
 20
-37.3753930894
 10
-95.1076176532
 20
-37.4900853336
 10
-95.1009491265
 20
-37.7150709111
  0
LINE
  5
5A1
100
AcDbEntity
  8
0
100
AcDbLine
 62
250
  6
CONTINUOUS
 10
-95.1179087268
 20
-37.1417960096
 11
-95.111010308
 21
-37.3753930894
  0
LWPOLYLINE
  5
5A2
100
AcDbEntity
  8
0
100
AcDbPolyline
 62
250
  6
CONTINUOUS
 90
5
 70
0
 10
-95.1357453672
 20
-36.5350221562
 10
-95.1321157418
 20
-36.6588238597
 10
-95.128516107
 20
-36.7814417578
 10
-95.1249464425
 20
-36.9028360481
 10
-95.1179087268
 20
-37.1417960096
  0
LWPOLYLINE
  5
5A3
100
AcDbEntity
  8
0
100
AcDbPolyline
 62
250
  6
CONTINUOUS
 90
4
 70
0
 10
-95.1505398675
 20
-36.028788519
 10
-95.146802213
 20
-36.1569189418
 10
-95.1430905746
 20
-36.2840288412
 10
-95.1357453672
 20
-36.5350221562
  0
LWPOLYLINE
  5
5A4
100
AcDbEntity
  8
0
100
AcDbPolyline
 62
250
  6
CONTINUOUS
 90
4
 70
0
 10
-95.1657068107
 20
-35.5069019899
 10
-95.1618850546
 20
-35.6386937269
 10
-95.1580812883
 20
-35.7696338013
 10
-95.1505398675
 20
-36.028788519
  0
LWPOLYLINE
  5
5A5
100
AcDbEntity
  8
0
100
AcDbPolyline
 62
250
  6
CONTINUOUS
 90
4
 70
0
 10
-95.1811618366
 20
-34.9720793046
 10
-95.1772759777
 20
-35.1068466132
 10
-95.1734042345
 20
-35.2409351507
 10
-95.1657068107
 20
-35.5069019899
  0
LWPOLYLINE
  5
5A6
100
AcDbEntity
  8
0
100
AcDbPolyline
 62
250
  6
CONTINUOUS
 90
4
 70
0
 10
-95.196820208
 20
-34.4271052494
 10
-95.1928909176
 20
-34.5641458077
 10
-95.1889714723
 20
-34.7006845359
 10
-95.1811618366
 20
-34.9720793046
  0
LINE
  5
5A7
100
AcDbEntity
  8
0
100
AcDbLine
 62
250
  6
CONTINUOUS
 10
-95.2046957538
 20
-34.1516972845
 11
-95.196820208
 21
-34.4271052494
  0
LINE
  5
5A8
100
AcDbEntity
  8
0
100
AcDbLine
 62
250
  6
CONTINUOUS
 10
-95.2125943389
 20
-33.8748188837
 11
-95.2046957538
 21
-34.1516972845
  0
LINE
  5
5A9
100
AcDbEntity
  8
0
100
AcDbLine
 62
250
  6
CONTINUOUS
 10
-95.1580813005
 20
35.7696338007
 11
-95.2125943389
 21
33.8748188837
  0
LINE
  5
5AA
100
AcDbEntity
  8
0
100
AcDbLine
 62
250
  6
CONTINUOUS
 10
-95.0090510435
 20
40.7622148997
 11
-95.009089711
 21
40.7609577729
  0
LINE
  5
5AB
100
AcDbEntity
  8
0
100
AcDbLine
 62
250
  6
CONTINUOUS
 10
-95.009089711
 20
40.7609577729
 11
-95.1580813005
 21
35.7696338007
  0
LINE
  5
5AC
100
AcDbEntity
  8
0
100
AcDbLine
 62
7
  6
CONTINUOUS
 10
-92.7466769374
 20
-41.0
 11
-92.7466769374
 21
-33.904109589
  0
LINE
  5
5AD
100
AcDbEntity
  8
RACCORDO
100
AcDbLine
 62
7
  6
CONTINUOUS
 10
-92.7466769374
 20
-33.904109589
 11
-92.7466769374
 21
-7.3314391493
  0
LINE
  5
5AE
100
AcDbEntity
  8
RACCORDO
100
AcDbLine
 62
7
  6
CONTINUOUS
 10
-92.7466769374
 20
7.3314391493
 11
-92.7466769374
 21
33.904109589
  0
LINE
  5
5AF
100
AcDbEntity
  8
0
100
AcDbLine
 62
7
  6
CONTINUOUS
 10
-92.7466769374
 20
33.904109589
 11
-92.7466769374
 21
41.0
  0
LWPOLYLINE
  5
5B0
100
AcDbEntity
  8
0
100
AcDbPolyline
 62
250
  6
CONTINUOUS
 90
38
 70
0
 10
-98.613472298
 20
34.0273609267
 10
-98.6887434273
 20
34.0261929082
 10
-98.7623587739
 20
34.0247103548
 10
-98.8342882491
 20
34.0229138725
 10
-98.9045024531
 20
34.0208041956
 10
-98.9729726876
 20
34.0183821864
 10
-99.0396709666
 20
34.0156488348
 10
-99.1045700288
 20
34.012605258
 10
-99.1676433479
 20
34.0092527
 10
-99.2288651442
 20
34.0055925311
 10
-99.2882103945
 20
34.0016262474
 10
-99.3456548427
 20
33.9973554698
 10
-99.4011750096
 20
33.9927819441
 10
-99.4547482025
 20
33.9879075396
 10
-99.5063525246
 20
33.9827342486
 10
-99.5559668836
 20
33.9772641855
 10
-99.6035710008
 20
33.9714995861
 10
-99.649145419
 20
33.9654428066
 10
-99.6926715105
 20
33.9590963226
 10
-99.7341314851
 20
33.952462728
 10
-99.7735083969
 20
33.9455447342
 10
-99.8107861513
 20
33.9383451688
 10
-99.8459495119
 20
33.9308669744
 10
-99.8789841065
 20
33.9231132076
 10
-99.9098764328
 20
33.9150870376
 10
-99.9386138642
 20
33.9067917449
 10
-99.965184655
 20
33.89823072
 10
-99.9895779449
 20
33.8894074621
 10
-100.0117837636
 20
33.8803255775
 10
-100.0317930351
 20
33.8709887782
 10
-100.0495975808
 20
33.8614008805
 10
-100.0651901237
 20
33.8515658031
 10
-100.0785642906
 20
33.8414875659
 10
-100.089714615
 20
33.8311702883
 10
-100.0986365396
 20
33.8206181872
 10
-100.1053264177
 20
33.8098355755
 10
-100.1097815149
 20
33.7988268605
 10
-100.1120000103
 20
33.7875965416
  0
LINE
  5
5B1
100
AcDbEntity
  8
0
100
AcDbLine
 62
250
  6
CONTINUOUS
 10
-92.7466769374
 20
33.904109589
 11
-95.2125943389
 21
33.8748188837
  0
LINE
  5
5B2
100
AcDbEntity
  8
0
100
AcDbLine
 62
250
  6
CONTINUOUS
 10
-98.4580864172
 20
34.0287515784
 11
-98.613472298
 21
34.0273609267
  0
LINE
  5
5B3
100
AcDbEntity
  8
0
100
AcDbLine
 62
250
  6
CONTINUOUS
 10
-98.2964551483
 20
34.0288800364
 11
-98.4580864172
 21
34.0287515784
  0
LINE
  5
5B4
100
AcDbEntity
  8
0
100
AcDbLine
 62
250
  6
CONTINUOUS
 10
-98.1288427176
 20
34.0277460908
 11
-98.2964551483
 21
34.0288800364
  0
LINE
  5
5B5
100
AcDbEntity
  8
0
100
AcDbLine
 62
250
  6
CONTINUOUS
 10
-97.9555231292
 20
34.0253515953
 11
-98.1288427176
 21
34.0277460908
  0
LINE
  5
5B6
100
AcDbEntity
  8
0
100
AcDbLine
 62
250
  6
CONTINUOUS
 10
-97.7767797169
 20
34.0217004643
 11
-97.9555231292
 21
34.0253515953
  0
LINE
  5
5B7
100
AcDbEntity
  8
0
100
AcDbLine
 62
250
  6
CONTINUOUS
 10
-97.5929046811
 20
34.0167986665
 11
-97.7767797169
 21
34.0217004643
  0
LINE
  5
5B8
100
AcDbEntity
  8
0
100
AcDbLine
 62
250
  6
CONTINUOUS
 10
-97.404198611
 20
34.010654215
 11
-97.5929046811
 21
34.0167986665
  0
LINE
  5
5B9
100
AcDbEntity
  8
0
100
AcDbLine
 62
250
  6
CONTINUOUS
 10
-97.2109699936
 20
34.0032771545
 11
-97.404198611
 21
34.010654215
  0
LINE
  5
5BA
100
AcDbEntity
  8
0
100
AcDbLine
 62
250
  6
CONTINUOUS
 10
-97.0135347088
 20
33.9946795447
 11
-97.2109699936
 21
34.0032771545
  0
LINE
  5
5BB
100
AcDbEntity
  8
0
100
AcDbLine
 62
250
  6
CONTINUOUS
 10
-96.8122155135
 20
33.9848754404
 11
-97.0135347088
 21
33.9946795447
  0
LINE
  5
5BC
100
AcDbEntity
  8
0
100
AcDbLine
 62
250
  6
CONTINUOUS
 10
-96.6073415139
 20
33.9738808689
 11
-96.8122155135
 21
33.9848754404
  0
LINE
  5
5BD
100
AcDbEntity
  8
0
100
AcDbLine
 62
250
  6
CONTINUOUS
 10
-96.3992476273
 20
33.9617138035
 11
-96.6073415139
 21
33.9738808689
  0
LINE
  5
5BE
100
AcDbEntity
  8
0
100
AcDbLine
 62
250
  6
CONTINUOUS
 10
-96.1882740347
 20
33.9483941343
 11
-96.3992476273
 21
33.9617138035
  0
LINE
  5
5BF
100
AcDbEntity
  8
0
100
AcDbLine
 62
250
  6
CONTINUOUS
 10
-95.9747656247
 20
33.9339436357
 11
-96.1882740347
 21
33.9483941343
  0
LINE
  5
5C0
100
AcDbEntity
  8
0
100
AcDbLine
 62
250
  6
CONTINUOUS
 10
-95.7590714296
 20
33.9183859306
 11
-95.9747656247
 21
33.9339436357
  0
LINE
  5
5C1
100
AcDbEntity
  8
0
100
AcDbLine
 62
250
  6
CONTINUOUS
 10
-95.5415440552
 20
33.9017464518
 11
-95.7590714296
 21
33.9183859306
  0
LWPOLYLINE
  5
5C2
100
AcDbEntity
  8
0
100
AcDbPolyline
 62
250
  6
CONTINUOUS
 90
3
 70
0
 10
-95.2125943388
 20
33.8748188836
 10
-95.3225391037
 20
33.8840524007
 10
-95.5415440552
 20
33.9017464518
  0
LINE
  5
5C3
100
AcDbEntity
  8
0
100
AcDbLine
 62
7
  6
CONTINUOUS
 10
-92.7466769374
 20
41.0
 11
-95.0090510435
 21
40.7622148997
  0
ARC
  5
5C4
100
AcDbEntity
  8
RACCORDO
100
AcDbCircle
 62
7
  6
CONTINUOUS
 10
226.0
 20
0.0
 40
300.0
100
AcDbArc
 50
181.4003411461
 51
186.4890714501
  0
ARC
  5
5C5
100
AcDbEntity
  8
RACCORDO
100
AcDbCircle
 62
7
  6
CONTINUOUS
 10
-226.0
 20
-0.0
 40
300.0
100
AcDbArc
 50
353.5109285499
 51
358.5996588539
  0
ARC
  5
5C6
100
AcDbEntity
  8
RACCORDO
100
AcDbCircle
 62
7
  6
CONTINUOUS
 10
-226.0
 20
-0.0
 40
300.0
100
AcDbArc
 50
1.4003411461
 51
6.4890714501
  0
ARC
  5
5C7
100
AcDbEntity
  8
RACCORDO
100
AcDbCircle
 62
7
  6
CONTINUOUS
 10
226.0
 20
0.0
 40
300.0
100
AcDbArc
 50
173.5109285499
 51
178.5996588539
  0
ARC
  5
5C8
100
AcDbEntity
  8
0
100
AcDbCircle
 62
7
  6
CONTINUOUS
 10
-64.1292815281
 20
-33.0
 40
8.0
100
AcDbArc
 50
186.4890714501
 51
270.0
  0
ARC
  5
5C9
100
AcDbEntity
  8
0
100
AcDbCircle
 62
7
  6
CONTINUOUS
 10
64.1292815281
 20
-33.0
 40
8.0
100
AcDbArc
 50
270.0
 51
353.5109285499
  0
ARC
  5
5CA
100
AcDbEntity
  8
0
100
AcDbCircle
 62
7
  6
CONTINUOUS
 10
64.1292815281
 20
33.0
 40
8.0
100
AcDbArc
 50
6.4890714501
 51
90.0
  0
ARC
  5
5CB
100
AcDbEntity
  8
0
100
AcDbCircle
 62
7
  6
CONTINUOUS
 10
-64.1292815281
 20
33.0
 40
8.0
100
AcDbArc
 50
90.0
 51
173.5109285499
  0
ARC
  5
5CC
100
AcDbEntity
  8
0
100
AcDbCircle
 62
7
  6
CONTINUOUS
 10
248.2533230626
 20
0.0
 40
350.0
100
AcDbArc
 50
174.1200110534
 51
185.8799889466
  0
ARC
  5
5CD
100
AcDbEntity
  8
RACCORDO
100
AcDbCircle
 62
7
  6
CONTINUOUS
 10
248.2533230626
 20
0.0
 40
350.0
100
AcDbArc
 50
174.7187438152
 51
185.2812561848
  0
ARC
  5
5CE
100
AcDbEntity
  8
RACCORDO
100
AcDbCircle
 62
7
  6
CONTINUOUS
 10
-84.2466769374
 20
0.0
 40
11.0
100
AcDbArc
 50
142.3415379938
 51
217.6584620062
  0
ARC
  5
5CF
100
AcDbEntity
  8
0
100
AcDbCircle
 62
7
  6
CONTINUOUS
 10
-94.4341444962
 20
-35.292344469
 40
5.5
100
AcDbArc
 50
185.8799890111
 51
264.0000000135
  0
ARC
  5
5D0
100
AcDbEntity
  8
0
100
AcDbCircle
 62
7
  6
CONTINUOUS
 10
-94.4341444962
 20
35.292344469
 40
5.5
100
AcDbArc
 50
95.9999999865
 51
174.1200109889
  0
ARC
  5
5D1
100
AcDbEntity
  8
RACCORDO
100
AcDbCircle
 62
7
  6
CONTINUOUS
 10
-93.7466769374
 20
-7.3314391493
 40
1.0
100
AcDbArc
 50
0.0
 51
37.6584620062
  0
ARC
  5
5D2
100
AcDbEntity
  8
RACCORDO
100
AcDbCircle
 62
7
  6
CONTINUOUS
 10
-93.7466769374
 20
7.3314391493
 40
1.0
100
AcDbArc
 50
322.3415379938
 51
360.0
  0
ENDSEC
  0
SECTION
  2
OBJECTS
  0
DICTIONARY
  5
C
100
AcDbDictionary
280
0
281
1
  3
ACAD_GROUP
350
D
  3
ACAD_MLINESTYLE
350
17
  3
ACAD_LAYOUT
350
1A
  3
ACAD_PLOTSETTINGS
350
19
  3
ACAD_PLOTSTYLENAME
350
E
  0
DICTIONARY
  5
D
102
{ACAD_REACTORS
330
C
102
}
100
AcDbDictionary
280
0
281
1
  0
ACDBDICTIONARYWDFLT
  5
E
102
{ACAD_REACTORS
330
C
102
}
100
AcDbDictionary
281
1
  3
Normal
350
F
100
AcDbDictionaryWithDefault
340
F
  0
DICTIONARY
  5
17
102
{ACAD_REACTORS
330
C
102
}
100
AcDbDictionary
280
0
281
1
  3
Standard
350
18
  0
DICTIONARY
  5
19
102
{ACAD_REACTORS
330
C
102
}
100
AcDbDictionary
281
1
  0
DICTIONARY
  5
1A
102
{ACAD_REACTORS
330
C
102
}
100
AcDbDictionary
281
1
  3
Model
350
5D3
  3
Layout1
350
5D4
  0
ACDBPLACEHOLDER
  5
F
102
{ACAD_REACTORS
330
E
102
}
  0
MLINESTYLE
  5
18
102
{ACAD_REACTORS
330
17
102
}
100
AcDbMlineStyle
  2
STANDARD
 70
0
  3

 62
256
 51
90.0
 52
90.0
 71
2
 49
0.5
 62
256
  6
BYLAYER
 49
-0.5
 62
256
  6
BYLAYER
  0
LAYOUT
  5
5D3
102
{ACAD_REACTORS
330
1A
102
}
100
AcDbPlotSettings
  1

  2
none_device
  4
ISO_A4_(297.00_x_210.00_MM)
  6

 40
0.0
 41
0.0
 42
0.0
 43
0.0
 44
297.0
 45
210.0
 46
0.0
 47
0.0
 48
0.0
 49
0.0
140
0.0
141
0.0
142
1.0
143
1.0
 70
1024
 72
1
 73
0
 74
0
  7

 75
0
147
1.0
148
0.0
149
0.0
100
AcDbLayout
  1
Model
 70
0
 71
0
 10
0.0
 20
0.0
 11
297.0
 21
210.0
 12
0.0
 22
0.0
 32
0.0
 14
0.0
 24
0.0
 34
0.0
 15
0.0
 25
0.0
 35
0.0
146
0.0
 13
0.0
 23
0.0
 33
0.0
 16
1.0
 26
0.0
 36
0.0
 17
0.0
 27
1.0
 37
0.0
 76
0
330
216
345
0
346
0
  0
LAYOUT
  5
5D4
102
{ACAD_REACTORS
330
1A
102
}
100
AcDbPlotSettings
  1

  2
none_device
  4
ISO_A4_(297.00_x_210.00_MM)
  6

 40
0.0
 41
0.0
 42
0.0
 43
0.0
 44
297.0
 45
210.0
 46
0.0
 47
0.0
 48
0.0
 49
0.0
140
0.0
141
0.0
142
1.0
143
1.0
 70
0
 72
1
 73
0
 74
0
  7

 75
0
147
1.0
148
0.0
149
0.0
100
AcDbLayout
  1
Layout1
 70
0
 71
1
 10
0.0
 20
0.0
 11
297.0
 21
210.0
 12
0.0
 22
0.0
 32
0.0
 14
0.0
 24
0.0
 34
0.0
 15
0.0
 25
0.0
 35
0.0
146
0.0
 13
0.0
 23
0.0
 33
0.0
 16
1.0
 26
0.0
 36
0.0
 17
0.0
 27
1.0
 37
0.0
 76
0
330
217
345
0
346
0
  0
ENDSEC
  0
EOF
