  0
SECTION
  2
HEADER
  9
$ACADVER
  1
AC1024
  9
$DWGCODEPAGE
  3
ANSI_1252
  9
$EXTMAX
 10
297.0
 20
210.0
 30
0.0
  9
$EXTMIN
 10
0.0
 20
0.0
 30
0.0
  9
$LIMMIN
 10
0.0
 20
0.0
  9
$LIMMAX
 10
297.0
 20
210.0
  9
$VIEWCTR
 10
148.5
 20
105.0
  9
$VIEWSIZE
 40
210.0
  9
$CLAYER
  8
0
  9
$LTSCALE
 40
16.335
  9
$CELTYPE
  6
BYLAYER
  9
$DIMSCALE
 40
1.0
  9
$DIMASZ
 40
3.0
  9
$DIMEXO
 40
0.5
  9
$DIMDLI
 40
11.286
  9
$DIMEXE
 40
1.5
  9
$DIMCEN
 40
2.673
  9
$DIMLFAC
 40
1.0
  9
$DIMBLK
  1
_FILLED
  9
$DIMALT
 70
0
  9
$DIMALTF
 40
0.0393700787
  9
$DIMTXT
 40
3.0
  9
$DIMTOL
 70
1
  9
$DIMLIM
 70
0
  9
$DIMTFAC
 40
1.0
  9
$DIMTP
 40
0.01
  9
$DIMTM
 40
0.01
  9
$DIMGAP
 40
0.625
  9
$DIMDSEP
 70
44
  9
$AUNITS
 70
0
  9
$PDMODE
 70
3
  9
$PDSIZE
 40
3.0
  9
$HANDSEED
  5
366
  9
$TILEMODE
 70
1
  9
$MEASUREMENT
 70
1
  9
$INSUNITS
 70
4
  0
ENDSEC
  0
SECTION
  2
CLASSES
  0
CLASS
  1
ACDBDICTIONARYWDFLT
  2
AcDbDictionaryWithDefault
  3
AutoCAD 2000
 90
0
 91
1
280
0
281
0
  0
CLASS
  1
ACDBPLACEHOLDER
  2
AcDbPlaceHolder
  3
AutoCAD 2000
 90
0
 91
1
280
0
281
0
  0
CLASS
  1
LAYOUT
  2
AcDbLayout
  3
AutoCAD 2000
 90
0
 91
0
280
0
281
0
  0
ENDSEC
  0
SECTION
  2
TABLES
  0
TABLE
  2
VPORT
  5
8
100
AcDbSymbolTable
 70
2
  0
VPORT
  5
1F4
100
AcDbSymbolTableRecord
100
AcDbViewportTableRecord
  2
*ACTIVE
 70
0
 10
0.0
 20
0.0
 11
1.0
 21
1.0
 12
148.5
 22
105.0
 13
0.0
 23
0.0
 14
1.0
 24
1.0
 15
0.0
 25
0.0
 16
0.0
 26
0.0
 36
1.0
 17
0.0
 27
0.0
 37
0.0
 40
210.0
 41
1.4142857143
 42
50.0
 43
0.0
 44
0.0
 50
0.0
 51
0.0
 71
0
 72
100
 73
1
 74
1
 75
0
 76
0
 77
0
 78
0
  0
ENDTAB
  0
TABLE
  2
LTYPE
  5
5
100
AcDbSymbolTable
 70
6
  0
LTYPE
  5
14
100
AcDbSymbolTableRecord
100
AcDbLinetypeTableRecord
  2
BYBLOCK
 70
0
  3

 72
65
 73
0
 40
0.0
  0
LTYPE
  5
15
100
AcDbSymbolTableRecord
100
AcDbLinetypeTableRecord
  2
BYLAYER
 70
0
  3

 72
65
 73
0
 40
0.0
  0
LTYPE
  5
16
100
AcDbSymbolTableRecord
100
AcDbLinetypeTableRecord
  2
CONTINUOUS
 70
64
  3
Solid line
 72
65
 73
0
 40
0.0
  0
LTYPE
  5
1F5
100
AcDbSymbolTableRecord
100
AcDbLinetypeTableRecord
  2
CENTER
 70
64
  3
____ _ ____ _ ____ _ ____ _ ____ _ ____ _ ____
 72
65
 73
4
 40
0.6
 49
0.375
 74
0
 49
-0.075
 74
0
 49
0.075
 74
0
 49
-0.075
 74
0
  0
LTYPE
  5
1F6
100
AcDbSymbolTableRecord
100
AcDbLinetypeTableRecord
  2
HIDDEN
 70
64
  3
- - - - - - - - - - - - - - - - - - - -
 72
65
 73
2
 40
0.2
 49
0.1
 74
0
 49
-0.1
 74
0
  0
LTYPE
  5
1F7
100
AcDbSymbolTableRecord
100
AcDbLinetypeTableRecord
  2
PHANTOM
 70
64
  3
_____ _ _ _____ _ _ _____ _ _ _____
 72
65
 73
6
 40
0.8
 49
0.45
 74
0
 49
-0.05
 74
0
 49
0.1
 74
0
 49
-0.05
 74
0
 49
0.1
 74
0
 49
-0.05
 74
0
  0
LTYPE
  5
1F8
100
AcDbSymbolTableRecord
100
AcDbLinetypeTableRecord
  2
DOT
 70
64
  3
. . . . . . . . . . . . . . . . . . . .
 72
65
 73
2
 40
0.2
 49
0.1
 74
0
 49
-0.1
 74
0
  0
LTYPE
  5
1F9
100
AcDbSymbolTableRecord
100
AcDbLinetypeTableRecord
  2
DASHED
 70
64
  3
- - - - - - - - - - - - - - - - - - - -
 72
65
 73
2
 40
0.2
 49
0.1
 74
0
 49
-0.1
 74
0
  0
ENDTAB
  0
TABLE
  2
LAYER
  5
2
100
AcDbSymbolTable
 70
36
  0
LAYER
  5
10
100
AcDbSymbolTableRecord
100
AcDbLayerTableRecord
  2
0
 70
0
 62
7
  6
CONTINUOUS
370
-3
390
F
  0
LAYER
  5
1FA
100
AcDbSymbolTableRecord
100
AcDbLayerTableRecord
  2
DEFAULT_1
 70
0
 62
7
  6
CENTER
370
-3
390
F
  0
LAYER
  5
1FB
100
AcDbSymbolTableRecord
100
AcDbLayerTableRecord
  2
DEFAULT_2
 70
0
 62
7
  6
HIDDEN
370
-3
390
F
  0
LAYER
  5
1FC
100
AcDbSymbolTableRecord
100
AcDbLayerTableRecord
  2
DEFAULT_3
 70
0
 62
7
  6
PHANTOM
370
-3
390
F
  0
LAYER
  5
1FD
100
AcDbSymbolTableRecord
100
AcDbLayerTableRecord
  2
26216763_GEN
 70
0
 62
7
  6
CONTINUOUS
370
-3
390
F
  0
LAYER
  5
1FE
100
AcDbSymbolTableRecord
100
AcDbLayerTableRecord
  2
ASSI
 70
0
 62
7
  6
CONTINUOUS
370
-3
390
F
  0
LAYER
  5
1FF
100
AcDbSymbolTableRecord
100
AcDbLayerTableRecord
  2
COORDINATE
 70
0
 62
7
  6
CONTINUOUS
370
-3
390
F
  0
LAYER
  5
200
100
AcDbSymbolTableRecord
100
AcDbLayerTableRecord
  2
COORD_ORIGINE
 70
0
 62
7
  6
CONTINUOUS
370
-3
390
F
  0
LAYER
  5
201
100
AcDbSymbolTableRecord
100
AcDbLayerTableRecord
  2
COSMETICI
 70
0
 62
7
  6
CONTINUOUS
370
-3
390
F
  0
LAYER
  5
202
100
AcDbSymbolTableRecord
100
AcDbLayerTableRecord
  2
CURVE
 70
0
 62
7
  6
CONTINUOUS
370
-3
390
F
  0
LAYER
  5
203
100
AcDbSymbolTableRecord
100
AcDbLayerTableRecord
  2
IGES_SCRITTE
 70
0
 62
7
  6
CONTINUOUS
370
-3
390
F
  0
LAYER
  5
204
100
AcDbSymbolTableRecord
100
AcDbLayerTableRecord
  2
INTF_1
 70
0
 62
7
  6
CONTINUOUS
370
-3
390
F
  0
LAYER
  5
205
100
AcDbSymbolTableRecord
100
AcDbLayerTableRecord
  2
INTF_7
 70
0
 62
7
  6
CONTINUOUS
370
-3
390
F
  0
LAYER
  5
206
100
AcDbSymbolTableRecord
100
AcDbLayerTableRecord
  2
NOTE
 70
0
 62
7
  6
CONTINUOUS
370
-3
390
F
  0
LAYER
  5
207
100
AcDbSymbolTableRecord
100
AcDbLayerTableRecord
  2
PIANI
 70
0
 62
7
  6
CONTINUOUS
370
-3
390
F
  0
LAYER
  5
208
100
AcDbSymbolTableRecord
100
AcDbLayerTableRecord
  2
PIANI_DI_RIFERIMENTO
 70
0
 62
7
  6
CONTINUOUS
370
-3
390
F
  0
LAYER
  5
209
100
AcDbSymbolTableRecord
100
AcDbLayerTableRecord
  2
PIANI_ORIGINE
 70
0
 62
7
  6
CONTINUOUS
370
-3
390
F
  0
LAYER
  5
20A
100
AcDbSymbolTableRecord
100
AcDbLayerTableRecord
  2
PUNTI
 70
0
 62
7
  6
CONTINUOUS
370
-3
390
F
  0
LAYER
  5
20B
100
AcDbSymbolTableRecord
100
AcDbLayerTableRecord
  2
RGB__255__255__255__
 70
0
 62
7
  6
CONTINUOUS
370
-3
390
F
  0
LAYER
  5
20C
100
AcDbSymbolTableRecord
100
AcDbLayerTableRecord
  2
RGB____0____0____0__
 70
0
 62
7
  6
CONTINUOUS
370
-3
390
F
  0
LAYER
  5
20D
100
AcDbSymbolTableRecord
100
AcDbLayerTableRecord
  2
SIMBOLI
 70
0
 62
7
  6
CONTINUOUS
370
-3
390
F
  0
LAYER
  5
20E
100
AcDbSymbolTableRecord
100
AcDbLayerTableRecord
  2
SNAPLINE
 70
0
 62
7
  6
CONTINUOUS
370
-3
390
F
  0
LAYER
  5
20F
100
AcDbSymbolTableRecord
100
AcDbLayerTableRecord
  2
SUPERFICI
 70
0
 62
7
  6
CONTINUOUS
370
-3
390
F
  0
LAYER
  5
210
100
AcDbSymbolTableRecord
100
AcDbLayerTableRecord
  2
TRASH
 70
0
 62
7
  6
CONTINUOUS
370
-3
390
F
  0
LAYER
  5
211
100
AcDbSymbolTableRecord
100
AcDbLayerTableRecord
  2
XSEC_DATUMS
 70
0
 62
7
  6
CONTINUOUS
370
-3
390
F
  0
ENDTAB
  0
TABLE
  2
STYLE
  5
3
100
AcDbSymbolTable
 70
1
  0
STYLE
  5
11
100
AcDbSymbolTableRecord
100
AcDbTextStyleTableRecord
  2
STANDARD
 70
0
 40
0.0
 41
0.8
 50
0.0
 71
0
 42
0.2
  3
txt
  4

  0
STYLE
  5
212
100
AcDbSymbolTableRecord
100
AcDbTextStyleTableRecord
  2
TEXTSTYLE_1
 70
0
 40
0.0
 41
0.8
 50
0.0
 71
0
 42
0.2
  3
gdt
  4

  0
ENDTAB
  0
TABLE
  2
VIEW
  5
6
100
AcDbSymbolTable
 70
0
  0
ENDTAB
  0
TABLE
  2
UCS
  5
7
100
AcDbSymbolTable
 70
0
  0
ENDTAB
  0
TABLE
  2
APPID
  5
9
100
AcDbSymbolTable
 70
1
  0
APPID
  5
213
100
AcDbSymbolTableRecord
100
AcDbRegAppTableRecord
  2
ACAD
 70
0
  0
ENDTAB
  0
TABLE
  2
BLOCK_RECORD
  5
1
100
AcDbSymbolTable
 70
0
  0
BLOCK_RECORD
  5
214
100
AcDbSymbolTableRecord
100
AcDbBlockTableRecord
  2
*Model_Space
  0
BLOCK_RECORD
  5
215
100
AcDbSymbolTableRecord
100
AcDbBlockTableRecord
  2
*Paper_Space
  0
BLOCK_RECORD
  5
216
100
AcDbSymbolTableRecord
100
AcDbBlockTableRecord
  2
_FILLED
  0
BLOCK_RECORD
  5
217
100
AcDbSymbolTableRecord
100
AcDbBlockTableRecord
  2
*D0
  0
BLOCK_RECORD
  5
218
100
AcDbSymbolTableRecord
100
AcDbBlockTableRecord
  2
*D1
  0
BLOCK_RECORD
  5
219
100
AcDbSymbolTableRecord
100
AcDbBlockTableRecord
  2
*D2
  0
ENDTAB
  0
TABLE
  2
DIMSTYLE
  5
A
100
AcDbSymbolTable
 70
1
100
AcDbDimStyleTable
 71
0
  0
DIMSTYLE
105
21A
100
AcDbSymbolTableRecord
100
AcDbDimStyleTableRecord
  2
STANDARD
 70
0
  3

  4

 40
1.0
 41
3.0
 42
0.5
 43
0.38
 44
1.5
 45
0.0
 46
0.0
 47
0.01
 48
0.01
140
3.0
141
0.09
142
0.0
143
25.4
144
1.0
145
0.0
146
1.0
147
0.625
 71
1
 72
0
 73
0
 74
0
 75
0
 76
0
 77
1
 78
8
 79
2
170
0
171
1
172
0
173
0
174
0
175
0
176
0
177
0
178
0
270
2
179
2
271
2
272
2
273
2
274
2
275
0
280
0
281
0
282
0
283
1
284
8
285
0
286
0
287
3
288
0
340
11
278
44
341
216
342
216
343
216
344
216
  0
DIMSTYLE
105
21B
100
AcDbSymbolTableRecord
100
AcDbDimStyleTableRecord
  2
DIMSTYLE_1
 70
0
  3

  4

 40
1.0
 41
3.0
 42
0.5
 43
0.38
 44
1.5
 45
0.0
 46
0.0
 47
0.0
 48
0.0
140
3.0
141
0.09
142
0.0
143
25.4
144
1.0
145
0.0
146
1.0
147
0.75
 71
0
 72
0
 73
0
 74
0
 75
0
 76
0
 77
1
 78
8
 79
2
170
0
171
1
172
0
173
0
174
0
175
0
176
0
177
0
178
0
270
2
179
2
271
1
272
1
273
2
274
2
275
0
280
0
281
0
282
0
283
1
284
8
285
0
286
0
287
3
288
0
340
11
278
44
341
216
342
216
343
216
344
216
  0
DIMSTYLE
105
21C
100
AcDbSymbolTableRecord
100
AcDbDimStyleTableRecord
  2
DIMSTYLE_2
 70
0
  3

  4

 40
1.0
 41
3.0
 42
0.5
 43
0.38
 44
1.5
 45
0.0
 46
0.0
 47
0.0
 48
0.0
140
3.0
141
0.09
142
0.0
143
25.4
144
1.0
145
0.0
146
1.0
147
0.75
 71
0
 72
0
 73
0
 74
0
 75
0
 76
0
 77
1
 78
8
 79
2
170
0
171
1
172
0
173
0
174
0
175
0
176
0
177
0
178
0
270
2
179
2
271
2
272
2
273
2
274
2
275
0
280
0
281
0
282
0
283
1
284
8
285
0
286
0
287
3
288
0
340
11
278
44
341
216
342
216
343
216
344
216
  0
ENDTAB
  0
ENDSEC
  0
SECTION
  2
BLOCKS
  0
BLOCK
  5
20
100
AcDbEntity
  8
0
100
AcDbBlockBegin
  2
*Model_Space
 70
0
 10
0.0
 20
0.0
 30
0.0
  3
*Model_Space
  1

  0
ENDBLK
  5
21
100
AcDbEntity
  8
0
100
AcDbBlockEnd
  0
BLOCK
  5
1C
100
AcDbEntity
  8
0
100
AcDbBlockBegin
  2
*Paper_Space
 70
0
 10
0.0
 20
0.0
 30
0.0
  3
*Paper_Space
  1

  0
ENDBLK
  5
1D
100
AcDbEntity
  8
0
100
AcDbBlockEnd
  0
BLOCK
  5
21D
100
AcDbEntity
  8
0
100
AcDbBlockBegin
  2
_FILLED
 70
64
 10
0.0
 20
0.0
  3
_FILLED
  1

  0
SOLID
  5
21E
100
AcDbEntity
  8
0
  6
BYBLOCK
 62
0
100
AcDbTrace
 10
0.0
 20
0.0
 11
-1.0
 21
0.3166666667
 12
-1.0
 22
-0.3166666667
 13
-1.0
 23
-0.3166666667
  0
ENDBLK
  5
21F
100
AcDbEntity
  8
0
  6
BYBLOCK
 62
0
100
AcDbBlockEnd
  0
BLOCK
  5
220
100
AcDbEntity
  8
0
100
AcDbBlockBegin
 62
7
  6
CONTINUOUS
  2
*D0
 70
65
 10
0.0
 20
0.0
  3
*D0
  1

  0
LINE
  5
221
100
AcDbEntity
  8
0
100
AcDbLine
 62
7
  6
CONTINUOUS
 10
-61.4155382245
 20
7.4281915541
 11
-61.4155382245
 21
50.5
  0
LINE
  5
222
100
AcDbEntity
  8
0
100
AcDbLine
 62
7
  6
CONTINUOUS
 10
61.4155382245
 20
7.4281915541
 11
61.4155382245
 21
50.5
  0
LINE
  5
223
100
AcDbEntity
  8
0
100
AcDbLine
 62
7
  6
CONTINUOUS
 10
-61.4155382245
 20
49.0
 11
0.0
 21
49.0
  0
LINE
  5
224
100
AcDbEntity
  8
0
100
AcDbLine
 62
7
  6
CONTINUOUS
 10
61.4155382245
 20
49.0
 11
0.0
 21
49.0
  0
INSERT
  5
225
100
AcDbEntity
  8
0
100
AcDbBlockReference
 62
7
  6
CONTINUOUS
  2
_FILLED
 10
-61.4155382245
 20
49.0
 41
3.0
 42
3.0
 43
3.0
 50
180.0
  0
INSERT
  5
226
100
AcDbEntity
  8
0
100
AcDbBlockReference
 62
7
  6
CONTINUOUS
  2
_FILLED
 10
61.4155382245
 20
49.0
 41
3.0
 42
3.0
 43
3.0
  0
ENDBLK
  5
227
100
AcDbEntity
  8
0
  6
BYBLOCK
 62
0
100
AcDbBlockEnd
  0
BLOCK
  5
228
100
AcDbEntity
  8
0
100
AcDbBlockBegin
 62
7
  6
CONTINUOUS
  2
*D1
 70
65
 10
0.0
 20
0.0
  3
*D1
  1

  0
LINE
  5
229
100
AcDbEntity
  8
0
100
AcDbLine
 62
7
  6
CONTINUOUS
 10
-75.2966575795
 20
41.5
 11
-75.2966575795
 21
50.5
  0
LINE
  5
22A
100
AcDbEntity
  8
0
100
AcDbLine
 62
7
  6
CONTINUOUS
 10
-84.1966575795
 20
0.5
 11
-84.1966575795
 21
50.5
  0
LINE
  5
22B
100
AcDbEntity
  8
0
100
AcDbLine
 62
7
  6
CONTINUOUS
 10
-75.2966575795
 20
49.0
 11
-71.2966575795
 21
49.0
  0
LINE
  5
22C
100
AcDbEntity
  8
0
100
AcDbLine
 62
7
  6
CONTINUOUS
 10
-71.2966575795
 20
49.0
 11
-79.7466575795
 21
49.0
  0
LINE
  5
22D
100
AcDbEntity
  8
0
100
AcDbLine
 62
7
  6
CONTINUOUS
 10
-84.1966575795
 20
49.0
 11
-88.1966575795
 21
49.0
  0
LINE
  5
22E
100
AcDbEntity
  8
0
100
AcDbLine
 62
7
  6
CONTINUOUS
 10
-88.1966575795
 20
49.0
 11
-79.7466575795
 21
49.0
  0
INSERT
  5
22F
100
AcDbEntity
  8
0
100
AcDbBlockReference
 62
7
  6
CONTINUOUS
  2
_FILLED
 10
-75.2966575795
 20
49.0
 41
3.0
 42
3.0
 43
3.0
 50
180.0
  0
INSERT
  5
230
100
AcDbEntity
  8
0
100
AcDbBlockReference
 62
7
  6
CONTINUOUS
  2
_FILLED
 10
-84.1966575795
 20
49.0
 41
3.0
 42
3.0
 43
3.0
  0
ENDBLK
  5
231
100
AcDbEntity
  8
0
  6
BYBLOCK
 62
0
100
AcDbBlockEnd
  0
BLOCK
  5
232
100
AcDbEntity
  8
0
100
AcDbBlockBegin
 62
7
  6
CONTINUOUS
  2
*D2
 70
65
 10
0.0
 20
0.0
  3
*D2
  1

  0
LINE
  5
233
100
AcDbEntity
  8
0
100
AcDbLine
 62
7
  6
CONTINUOUS
 10
-75.7966575795
 20
41.0
 11
-93.6966575404
 21
41.0
  0
LINE
  5
234
100
AcDbEntity
  8
0
100
AcDbLine
 62
7
  6
CONTINUOUS
 10
-75.7966575795
 20
-41.0
 11
-93.6966575404
 21
-41.0
  0
LINE
  5
235
100
AcDbEntity
  8
0
100
AcDbLine
 62
7
  6
CONTINUOUS
 10
-92.1966575404
 20
41.0
 11
-92.1966575404
 21
0.0
  0
LINE
  5
236
100
AcDbEntity
  8
0
100
AcDbLine
 62
7
  6
CONTINUOUS
 10
-92.1966575404
 20
-41.0
 11
-92.1966575404
 21
0.0
  0
INSERT
  5
237
100
AcDbEntity
  8
0
100
AcDbBlockReference
 62
7
  6
CONTINUOUS
  2
_FILLED
 10
-92.1966575404
 20
41.0
 41
3.0
 42
3.0
 43
3.0
 50
90.0
  0
INSERT
  5
238
100
AcDbEntity
  8
0
100
AcDbBlockReference
 62
7
  6
CONTINUOUS
  2
_FILLED
 10
-92.1966575404
 20
-41.0
 41
3.0
 42
3.0
 43
3.0
 50
270.0
  0
ENDBLK
  5
239
100
AcDbEntity
  8
0
  6
BYBLOCK
 62
0
100
AcDbBlockEnd
  0
ENDSEC
  0
SECTION
  2
ENTITIES
  0
DIMENSION
  5
23A
100
AcDbEntity
  8
0
100
AcDbDimension
 62
7
  6
CONTINUOUS
  2
*D0
 10
61.4155382245
 20
49.0
 11
-5.25
 21
49.0
 70
160
 71
2
 72
2
 41
0.9
 42
122.831076449
  3
DIMSTYLE_1
100
AcDbAlignedDimension
 13
-61.4155382245
 23
6.9281915541
 14
61.4155382245
 24
6.9281915541
100
AcDbRotatedDimension
  0
DIMENSION
  5
23B
100
AcDbEntity
  8
0
100
AcDbDimension
 62
7
  6
CONTINUOUS
  2
*D1
 10
-84.1966575795
 20
49.0
 11
-82.9609432937
 21
49.0
 70
160
 71
2
 72
2
 41
0.9
 42
8.9
  3
DIMSTYLE_2
100
AcDbAlignedDimension
 13
-75.2966575795
 23
41.0
 14
-84.1966575795
 24
0.0
 50
180.0
100
AcDbRotatedDimension
  0
DIMENSION
  5
23C
100
AcDbEntity
  8
0
100
AcDbDimension
 62
7
  6
CONTINUOUS
  2
*D2
 10
-92.1966575404
 20
-41.0
 11
-92.1966575404
 21
-2.3571428571
 70
160
 71
2
 72
2
 41
0.9
 42
82.0
  3
DIMSTYLE_2
100
AcDbAlignedDimension
 13
-75.2966575795
 23
41.0
 14
-75.2966575795
 24
-41.0
 50
270.0
100
AcDbRotatedDimension
  0
LWPOLYLINE
  5
23D
100
AcDbEntity
  8
0
100
AcDbPolyline
 62
250
  6
CONTINUOUS
 90
34
 70
0
 10
-59.4698514984
 20
33.8918052244
 10
-59.4232915393
 20
34.2376379149
 10
-59.3614867633
 20
34.5810639111
 10
-59.2845604107
 20
34.9214116996
 10
-59.1926671897
 20
35.2580132178
 10
-59.0859874591
 20
35.5902137428
 10
-58.9647256338
 20
35.9173723021
 10
-58.8291173175
 20
36.2388554559
 10
-58.6794309853
 20
36.5540284063
 10
-58.515962707
 20
36.8622644229
 10
-58.3390381167
 20
37.1629558453
 10
-58.1490027098
 20
37.4555218373
 10
-57.9462222688
 20
37.7393975271
 10
-57.7310922678
 20
38.0140313314
 10
-57.5040370935
 20
38.2788836465
 10
-57.2655016291
 20
38.533433784
 10
-57.0159545538
 20
38.777184382
 10
-56.7558852084
 20
39.00966051
 10
-56.4858023628
 20
39.2304067508
 10
-56.206236847
 20
39.4389920255
 10
-55.9177362762
 20
39.6350108193
 10
-55.6208625036
 20
39.8180812576
 10
-55.3162001179
 20
39.9878452491
 10
-55.0043438912
 20
40.1439741528
 10
-54.6858931194
 20
40.2861674665
 10
-54.3614641751
 20
40.4141499865
 10
-54.0316991081
 20
40.5276688554
 10
-53.6972533002
 20
40.6264986542
 10
-53.3587918833
 20
40.7104457661
 10
-53.0169680615
 20
40.7793515661
 10
-52.6724310852
 20
40.8330855871
 10
-52.3258484336
 20
40.8715429705
 10
-51.9779049586
 20
40.8946475941
 10
-51.6292815281
 20
40.9023543978
  0
LWPOLYLINE
  5
23E
100
AcDbEntity
  8
0
100
AcDbPolyline
 62
250
  6
CONTINUOUS
 90
31
 70
0
 10
-59.4698503655
 20
33.8918050955
 10
-59.4456554296
 20
33.9157913478
 10
-59.4077397212
 20
33.9381494413
 10
-59.3561989932
 20
33.9588229127
 10
-59.2911634072
 20
33.9777595528
 10
-59.2127972049
 20
33.9949115389
 10
-59.1212982935
 20
34.010235555
 10
-59.0168977455
 20
34.0236929017
 10
-58.8998592155
 20
34.0352495937
 10
-58.7704782742
 20
34.0448764454
 10
-58.629081662
 20
34.0525491451
 10
-58.4760264639
 20
34.058248316
 10
-58.3116992075
 20
34.0619595654
 10
-58.1365148872
 20
34.0636735208
 10
-57.9509159157
 20
34.0633858539
 10
-57.7553710074
 20
34.0610972909
 10
-57.5503739939
 20
34.0568136117
 10
-57.3364425775
 20
34.0505456341
 10
-57.1141170236
 20
34.0423091874
 10
-56.8839587961
 20
34.032125072
 10
-56.6465491398
 20
34.0200190072
 10
-56.4024876123
 20
34.0060215656
 10
-56.1523905698
 20
33.9901680966
 10
-55.8968896109
 20
33.9724986367
 10
-55.6366299812
 20
33.9530578088
 10
-55.3722689439
 20
33.9318947088
 10
-55.1044741199
 20
33.9090627824
 10
-54.8339218021
 20
33.8846196897
 10
-54.5612952468
 20
33.8586271595
 10
-54.287282949
 20
33.8311508337
 10
-54.012576903
 20
33.8022601015
  0
LWPOLYLINE
  5
23F
100
AcDbEntity
  8
0
100
AcDbPolyline
 62
250
  6
CONTINUOUS
 90
31
 70
0
 10
-59.4698514625
 20
-33.8918052203
 10
-59.4456565181
 20
-33.9157914721
 10
-59.4077407982
 20
-33.9381495648
 10
-59.3562000557
 20
-33.9588230351
 10
-59.2911644523
 20
-33.9777596738
 10
-59.2127982298
 20
-33.9949116581
 10
-59.1212992955
 20
-34.0102356722
 10
-59.0168987219
 20
-34.0236930165
 10
-58.8998601638
 20
-34.0352497057
 10
-58.7704791919
 20
-34.0448765543
 10
-58.6290825469
 20
-34.0525492507
 10
-58.4760273137
 20
-34.058248418
 10
-58.3117000201
 20
-34.0619596635
 10
-58.1365156608
 20
-34.0636736147
 10
-57.9509166486
 20
-34.0633859433
 10
-57.7553716979
 20
-34.0610973757
 10
-57.5503746407
 20
-34.0568136915
 10
-57.3364431794
 20
-34.0505457088
 10
-57.1141175796
 20
-34.0423092568
 10
-56.8839593053
 20
-34.0321251359
 10
-56.6465496017
 20
-34.0200190654
 10
-56.4024880264
 20
-34.006021618
 10
-56.1523909359
 20
-33.9901681431
 10
-55.896889929
 20
-33.9724986773
 10
-55.6366302515
 20
-33.9530578433
 10
-55.3722691668
 20
-33.9318947372
 10
-55.1044742962
 20
-33.9090628046
 10
-54.8339219324
 20
-33.8846197057
 10
-54.5612953324
 20
-33.8586271694
 10
-54.287282991
 20
-33.8311508376
 10
-54.012576903
 20
-33.8022600994
  0
LWPOLYLINE
  5
240
100
AcDbEntity
  8
0
100
AcDbPolyline
 62
250
  6
CONTINUOUS
 90
22
 70
0
 10
-59.4698514984
 20
-33.8918052244
 10
-59.8034460939
 20
-30.6684411899
 10
-60.1035448139
 20
-27.4436729239
 10
-60.3701759786
 20
-24.2178325697
 10
-60.6033373474
 20
-20.9917507153
 10
-60.8031077444
 20
-17.7652588643
 10
-60.9695931686
 20
-14.5371862296
 10
-61.1028083135
 20
-11.3072118051
 10
-61.2027114383
 20
-8.0763086209
 10
-61.2692941613
 20
-4.8452444471
 10
-61.302568803
 20
-1.6149293225
 10
-61.3025689822
 20
1.6148944101
 10
-61.2692946826
 20
4.8452107094
 10
-61.2027121997
 20
8.0762792774
 10
-61.1028091787
 20
11.3071880271
 10
-60.9695942442
 20
14.5371630539
 10
-60.803109694
 20
17.7652242538
 10
-60.6033407512
 20
20.991699731
 10
-60.3701804086
 20
24.2177753784
 10
-60.1035490698
 20
27.4436246985
 10
-59.8034489825
 20
30.6684120402
 10
-59.4698514984
 20
33.8918052244
  0
LINE
  5
241
100
AcDbEntity
  8
0
100
AcDbLine
 62
7
  6
CONTINUOUS
 10
-61.4133734105
 20
-7.1858824897
 11
-61.4104032874
 21
-7.3314391493
  0
LINE
  5
242
100
AcDbEntity
  8
0
100
AcDbLine
 62
7
  6
CONTINUOUS
 10
-61.4146890007
 20
6.7798779529
 11
-61.4023973317
 21
6.0062885584
  0
LINE
  5
243
100
AcDbEntity
  8
0
100
AcDbLine
 62
7
  6
CONTINUOUS
 10
-61.4023973317
 20
6.0062885584
 11
-61.3929280643
 21
5.2508285111
  0
LINE
  5
244
100
AcDbEntity
  8
0
100
AcDbLine
 62
7
  6
CONTINUOUS
 10
-61.3929280643
 20
5.2508285111
 11
-61.3821458264
 21
4.0535380058
  0
LINE
  5
245
100
AcDbEntity
  8
0
100
AcDbLine
 62
7
  6
CONTINUOUS
 10
-61.3821458264
 20
4.0535380058
 11
-61.3749049951
 21
2.8040930186
  0
LINE
  5
246
100
AcDbEntity
  8
0
100
AcDbLine
 62
7
  6
CONTINUOUS
 10
-61.3749049951
 20
2.8040930186
 11
-61.3706565636
 21
1.5219222908
  0
LINE
  5
247
100
AcDbEntity
  8
0
100
AcDbLine
 62
7
  6
CONTINUOUS
 10
-61.3706565636
 20
1.5219222908
 11
-61.3690096077
 21
-0.2178126346
  0
LWPOLYLINE
  5
248
100
AcDbEntity
  8
0
100
AcDbPolyline
 62
7
  6
CONTINUOUS
 90
4
 70
0
 10
-61.4154607617
 20
6.9743439883
 10
-61.4155224747
 20
6.9071471756
 10
-61.4152649451
 20
6.8422091901
 10
-61.4146890007
 20
6.7798779529
  0
LINE
  5
249
100
AcDbEntity
  8
0
100
AcDbLine
 62
7
  6
CONTINUOUS
 10
-61.3690096077
 20
-0.2178126346
 11
-61.3706567217
 21
-1.5219636675
  0
LINE
  5
24A
100
AcDbEntity
  8
0
100
AcDbLine
 62
7
  6
CONTINUOUS
 10
-61.3706567217
 20
-1.5219636675
 11
-61.3749050415
 21
-2.804102943
  0
LINE
  5
24B
100
AcDbEntity
  8
0
100
AcDbLine
 62
7
  6
CONTINUOUS
 10
-61.3749050415
 20
-2.804102943
 11
-61.3821442244
 21
-4.053329963
  0
LWPOLYLINE
  5
24C
100
AcDbEntity
  8
0
100
AcDbPolyline
 62
7
  6
CONTINUOUS
 90
6
 70
0
 10
-61.4146890007
 20
-6.7798779529
 10
-61.4152649451
 20
-6.8422091901
 10
-61.4155224747
 20
-6.9071471756
 10
-61.4154607617
 20
-6.9743439883
 10
-61.4150806339
 20
-7.0434428745
 10
-61.4133734105
 20
-7.1858824897
  0
LINE
  5
24D
100
AcDbEntity
  8
0
100
AcDbLine
 62
7
  6
CONTINUOUS
 10
-61.4143845743
 20
7.1140805702
 11
-61.4154607617
 21
6.9743439883
  0
LINE
  5
24E
100
AcDbEntity
  8
0
100
AcDbLine
 62
7
  6
CONTINUOUS
 10
-61.3821442244
 20
-4.053329963
 11
-61.3929252076
 21
-5.2505708504
  0
LINE
  5
24F
100
AcDbEntity
  8
0
100
AcDbLine
 62
7
  6
CONTINUOUS
 10
-61.3929252076
 20
-5.2505708504
 11
-61.4023951428
 21
-6.0061249943
  0
LINE
  5
250
100
AcDbEntity
  8
0
100
AcDbLine
 62
7
  6
CONTINUOUS
 10
-61.4023951428
 20
-6.0061249943
 11
-61.4146890007
 21
-6.7798779529
  0
LWPOLYLINE
  5
251
100
AcDbEntity
  8
0
100
AcDbPolyline
 62
7
  6
CONTINUOUS
 90
3
 70
0
 10
-61.4104032874
 20
7.3314391493
 10
-61.4120463148
 20
7.2584643171
 10
-61.4143845743
 20
7.1140805702
  0
LWPOLYLINE
  5
252
100
AcDbEntity
  8
0
100
AcDbPolyline
 62
250
  6
CONTINUOUS
 90
22
 70
0
 10
-54.012576903
 20
-33.8022601024
 10
-54.3397309251
 20
-30.5872964746
 10
-54.6340909113
 20
-27.3710473252
 10
-54.8956568618
 20
-24.1537891447
 10
-55.1243853983
 20
-20.9362435779
 10
-55.3203198989
 20
-17.7182409667
 10
-55.4835904985
 20
-14.4987180572
 10
-55.6142399423
 20
-11.2773037435
 10
-55.712225485
 20
-8.0549148674
 10
-55.7775490252
 20
-4.8324186768
 10
-55.8102112136
 20
-1.6106711307
 10
-55.8102113995
 20
1.6106368667
 10
-55.777549529
 20
4.8323855839
 10
-55.7122260971
 20
8.0548861554
 10
-55.6142406088
 20
11.2772805809
 10
-55.4835915256
 20
14.4986954958
 10
-55.320322096
 20
17.7182070241
 10
-55.1243890715
 20
20.9361933254
 10
-54.8956611683
 20
24.153732655
 10
-54.6340946252
 20
27.3709996475
 10
-54.3397332034
 20
30.5872676362
 10
-54.012576903
 20
33.8022601024
  0
LWPOLYLINE
  5
253
100
AcDbEntity
  8
0
100
AcDbPolyline
 62
250
  6
CONTINUOUS
 90
34
 70
0
 10
-54.012576903
 20
33.8022601024
 10
-53.998736941
 20
33.9093852944
 10
-53.9803364286
 20
34.0154097835
 10
-53.9573753658
 20
34.1203336576
 10
-53.9297921854
 20
34.2243657053
 10
-53.8976484547
 20
34.3272973004
 10
-53.8611288746
 20
34.4285024621
 10
-53.8202075663
 20
34.5279659886
 10
-53.7749104087
 20
34.6257033603
 10
-53.7254997403
 20
34.7211347213
 10
-53.6719518274
 20
34.8142452884
 10
-53.6142904038
 20
34.9050502045
 10
-53.5528490089
 20
34.9930145878
 10
-53.4876042981
 20
35.0781233166
 10
-53.4185796161
 20
35.1603919278
 10
-53.3461785369
 20
35.239331595
 10
-53.2703806401
 20
35.3149228364
 10
-53.191206346
 20
35.3871855752
 10
-53.1091204904
 20
35.4556901417
 10
-53.0241057222
 20
35.5204142708
 10
-52.9361793924
 20
35.5813806627
 10
-52.845858389
 20
35.6382271246
 10
-52.7531290655
 20
35.6909291875
 10
-52.6580050685
 20
35.7395117164
 10
-52.5610442247
 20
35.7836865306
 10
-52.4622331906
 20
35.8234282152
 10
-52.3615853097
 20
35.8587625118
 10
-52.25969844
 20
35.8894779676
 10
-52.1565597428
 20
35.9155464313
 10
-52.0521820566
 20
35.9369962871
 10
-51.9472017548
 20
35.9537008662
 10
-51.8418309616
 20
35.9656179869
 10
-51.7358575527
 20
35.9727899521
 10
-51.6292815281
 20
35.9752167919
  0
LINE
  5
254
100
AcDbEntity
  8
0
100
AcDbLine
 62
250
  6
CONTINUOUS
 10
-51.6292815281
 20
41.0
 11
-51.6292815281
 21
35.9752167919
  0
LINE
  5
255
100
AcDbEntity
  8
0
100
AcDbLine
 62
250
  6
CONTINUOUS
 10
-51.6292815281
 20
-41.0
 11
-51.6292815281
 21
-35.9752167919
  0
LWPOLYLINE
  5
256
100
AcDbEntity
  8
0
100
AcDbPolyline
 62
250
  6
CONTINUOUS
 90
19
 70
0
 10
-37.5
 20
-23.5547687789
 10
-37.4980973565
 20
-23.577059879
 10
-37.4924039084
 20
-23.599181363
 10
-37.4829629892
 20
-23.6209648716
 10
-37.4698464582
 20
-23.6422446124
 10
-37.4531541398
 20
-23.6628586397
 10
-37.4330130517
 20
-23.6826500855
 10
-37.4095764646
 20
-23.7014683284
 10
-37.3830227419
 20
-23.7191701412
 10
-37.3535539579
 20
-23.735620797
 10
-37.3213943691
 20
-23.7506950974
 10
-37.2867887305
 20
-23.7642783071
 10
-37.2500004311
 20
-23.7762670286
 10
-37.2113094413
 20
-23.7865700215
 10
-37.1710102321
 20
-23.7951088683
 10
-37.1294095655
 20
-23.8018185632
 10
-37.0868240732
 20
-23.8066480425
 10
-37.0435778409
 20
-23.809560565
 10
-37.0
 20
-23.8105339721
  0
LWPOLYLINE
  5
257
100
AcDbEntity
  8
0
100
AcDbPolyline
 62
250
  6
CONTINUOUS
 90
19
 70
0
 10
-37.5
 20
-22.6970009566
 10
-37.4980973713
 20
-22.7236692281
 10
-37.492403955
 20
-22.7501399996
 10
-37.4829630658
 20
-22.7762116127
 10
-37.4698465335
 20
-22.8016870224
 10
-37.4531541707
 20
-22.8263706904
 10
-37.4330130258
 20
-22.8500701403
 10
-37.4095763909
 20
-22.8726036871
 10
-37.3830226241
 20
-22.893801194
 10
-37.3535538159
 20
-22.9135008193
 10
-37.3213942414
 20
-22.9315525525
 10
-37.2867886525
 20
-22.9478191488
 10
-37.2500004166
 20
-22.9621766411
 10
-37.2113095131
 20
-22.9745157794
 10
-37.1710104034
 20
-22.984742699
 10
-37.1294097895
 20
-22.9927794388
 10
-37.0868242781
 20
-22.9985648122
 10
-37.0435779711
 20
-23.002054871
 10
-37.0
 20
-23.0032230805
  0
LWPOLYLINE
  5
258
100
AcDbEntity
  8
0
100
AcDbPolyline
 62
250
  6
CONTINUOUS
 90
19
 70
0
 10
-37.5
 20
22.6966459465
 10
-37.4980973569
 20
22.723339336
 10
-37.4924039049
 20
22.7498314908
 10
-37.4829629704
 20
22.7759207385
 10
-37.469846399
 20
22.8014093635
 10
-37.4531540121
 20
22.8261024833
 10
-37.4330128506
 20
22.849809568
 10
-37.4095762024
 20
22.8723492399
 10
-37.3830224313
 20
22.8935509738
 10
-37.3535536243
 20
22.9132537905
 10
-37.3213940542
 20
22.9313077443
 10
-37.2867884742
 20
22.9475754333
 10
-37.2500002522
 20
22.9619334089
 10
-37.2113093674
 20
22.9742723912
 10
-37.1710102805
 20
22.9844984659
 10
-37.1294096932
 20
22.9925341578
 10
-37.0868242116
 20
22.9983184244
 10
-37.0435779369
 20
23.0018071234
 10
-37.0
 20
23.0029737069
  0
LWPOLYLINE
  5
259
100
AcDbEntity
  8
0
100
AcDbPolyline
 62
250
  6
CONTINUOUS
 90
19
 70
0
 10
-37.5
 20
23.5541150673
 10
-37.4980973584
 20
23.5764135926
 10
-37.4924039112
 20
23.5985424211
 10
-37.4829629848
 20
23.6203331396
 10
-37.4698464262
 20
23.6416199078
 10
-37.4531540562
 20
23.6622407203
 10
-37.4330129107
 20
23.6820386391
 10
-37.4095762725
 20
23.7008629895
 10
-37.3830225055
 20
23.718570506
 10
-37.3535536986
 20
23.7350264216
 10
-37.321394125
 20
23.750105496
 10
-37.2867885369
 20
23.763692967
 10
-37.2500003049
 20
23.7756854236
 10
-37.211309409
 20
23.7859915948
 10
-37.17101031
 20
23.7945330435
 10
-37.1294097118
 20
23.8012447623
 10
-37.0868242218
 20
23.8060756702
 10
-37.0435779408
 20
23.8089890006
 10
-37.0
 20
23.8099625806
  0
LWPOLYLINE
  5
25A
100
AcDbEntity
  8
0
100
AcDbPolyline
 62
250
  6
CONTINUOUS
 90
12
 70
0
 10
-37.4827090903
 20
22.4197085003
 10
-37.4732050789
 20
22.4383583313
 10
-37.4618033962
 20
22.4559127081
 10
-37.4486289616
 20
22.4721793013
 10
-37.433826117
 20
22.4869798906
 10
-37.4175570455
 20
22.5001523176
 10
-37.3999999948
 20
22.5115522624
 10
-37.3813473235
 20
22.5210548249
 10
-37.3618033943
 20
22.5285558932
 10
-37.3415823346
 20
22.5339732841
 10
-37.3209056906
 20
22.5372476437
 10
-37.3
 20
22.5383430976
  0
LWPOLYLINE
  5
25B
100
AcDbEntity
  8
0
100
AcDbPolyline
 62
7
  6
CONTINUOUS
 90
3
 70
0
 43
0.3500000006
 10
-5.2499999027
 20
51.8928551788
 10
-4.3928571482
 20
52.750002182
 10
-4.3928571482
 20
49.7500012665
  0
LWPOLYLINE
  5
25C
100
AcDbEntity
  8
0
100
AcDbPolyline
 62
250
  6
CONTINUOUS
 90
3
 70
0
 10
-37.2936162092
 20
22.543955206
 10
-37.2982941513
 20
22.5401226605
 10
-37.3
 20
22.5383430976
  0
LINE
  5
25D
100
AcDbEntity
  8
0
100
AcDbLine
 62
7
  6
CONTINUOUS
 10
-51.6292815281
 20
-41.0
 11
51.6292815281
 21
-41.0
  0
LINE
  5
25E
100
AcDbEntity
  8
0
100
AcDbLine
 62
250
  6
CONTINUOUS
 10
51.6292815281
 20
-40.9023543978
 11
-51.6292815281
 21
-40.9023543978
  0
LWPOLYLINE
  5
25F
100
AcDbEntity
  8
0
100
AcDbPolyline
 62
250
  6
CONTINUOUS
 90
34
 70
0
 10
-51.6292815281
 20
-40.9023543978
 10
-51.9779051098
 20
-40.8946475854
 10
-52.325848669
 20
-40.8715429464
 10
-52.672431338
 20
-40.8330855493
 10
-53.0169682302
 20
-40.7793515321
 10
-53.3587919044
 20
-40.7104457583
 10
-53.6972532172
 20
-40.6264986735
 10
-54.0316990061
 20
-40.5276688826
 10
-54.3614640941
 20
-40.4141500076
 10
-54.6858930736
 20
-40.2861674742
 10
-55.0043438987
 20
-40.143974136
 10
-55.3162001906
 20
-39.9878451962
 10
-55.6208626164
 20
-39.8180811754
 10
-55.9177363836
 20
-39.6350107312
 10
-56.2062369282
 20
-39.4389919462
 10
-56.4858024273
 20
-39.2304066761
 10
-56.7558852717
 20
-39.0096604293
 10
-57.0159546233
 20
-38.7771842881
 10
-57.2655017195
 20
-38.5334336609
 10
-57.5040372282
 20
-38.278883464
 10
-57.7310924559
 20
-38.0140310688
 10
-57.9462224937
 20
-37.7393971919
 10
-58.1490029488
 20
-37.4555214491
 10
-58.3390383571
 20
-37.1629554156
 10
-58.5159629387
 20
-36.8622639647
 10
-58.6794311962
 20
-36.5540279432
 10
-58.8291175019
 20
-36.2388550032
 10
-58.9647257977
 20
-35.9173718465
 10
-59.0859876176
 20
-35.5902132308
 10
-59.1926673413
 20
-35.2580126342
 10
-59.2845605333
 20
-34.9214111203
 10
-59.3614868404
 20
-34.5810634449
 10
-59.423291572
 20
-34.2376376417
 10
-59.4698514984
 20
-33.8918052244
  0
LWPOLYLINE
  5
260
100
AcDbEntity
  8
0
100
AcDbPolyline
 62
250
  6
CONTINUOUS
 90
18
 70
0
 10
-37.2752981088
 20
-22.558508135
 10
-37.2616159886
 20
-22.5696579709
 10
-37.2453801279
 20
-22.5836044254
 10
-37.2260951084
 20
-22.600758037
 10
-37.2042563485
 20
-22.6211171882
 10
-37.1817582105
 20
-22.6438623353
 10
-37.1586160356
 20
-22.6686164766
 10
-37.1348144826
 20
-22.6953745868
 10
-37.1122018901
 20
-22.7234182593
 10
-37.0910799804
 20
-22.752153776
 10
-37.0711470312
 20
-22.7815918296
 10
-37.0533462143
 20
-22.8118791407
 10
-37.0377401589
 20
-22.8429806372
 10
-37.0242662358
 20
-22.874604065
 10
-37.0136797299
 20
-22.9065853363
 10
-37.0062324028
 20
-22.9387730353
 10
-37.0016724928
 20
-22.9710292843
 10
-37.0
 20
-23.0032230805
  0
LWPOLYLINE
  5
261
100
AcDbEntity
  8
0
100
AcDbPolyline
 62
250
  6
CONTINUOUS
 90
4
 70
0
 10
-37.3
 20
-22.5383389438
 10
-37.2983013085
 20
-22.5401140194
 10
-37.2936407688
 20
-22.5439352013
 10
-37.2752981088
 20
-22.558508135
  0
LWPOLYLINE
  5
262
100
AcDbEntity
  8
0
100
AcDbPolyline
 62
250
  6
CONTINUOUS
 90
12
 70
0
 10
-37.4827090826
 20
-22.4197043632
 10
-37.473205067
 20
-22.4383541973
 10
-37.4618033795
 20
-22.4559085765
 10
-37.4486289388
 20
-22.4721751719
 10
-37.4338260875
 20
-22.4869757624
 10
-37.4175570104
 20
-22.5001481884
 10
-37.3999999553
 20
-22.5115481305
 10
-37.3813472816
 20
-22.5210506889
 10
-37.3618033547
 20
-22.5285517516
 10
-37.3415823032
 20
-22.5339691366
 10
-37.3209056725
 20
-22.5372434916
 10
-37.3
 20
-22.5383389438
  0
LINE
  5
263
100
AcDbEntity
  8
0
100
AcDbLine
 62
7
  6
CONTINUOUS
 10
-37.497878351
 20
-22.3681774985
 11
-37.4977962956
 21
-22.3687418593
  0
LWPOLYLINE
  5
264
100
AcDbEntity
  8
0
100
AcDbPolyline
 62
7
  6
CONTINUOUS
 90
11
 70
0
 10
-37.4978815765
 20
-22.3681523026
 10
-37.4980627784
 20
-22.3668528958
 10
-37.498323382
 20
-22.3648620586
 10
-37.4986489072
 20
-22.3621267613
 10
-37.4989760587
 20
-22.3590002682
 10
-37.4992941877
 20
-22.3554079539
 10
-37.4995777959
 20
-22.3514009697
 10
-37.4997810933
 20
-22.3475480948
 10
-37.4999162376
 20
-22.3437482828
 10
-37.4999857883
 20
-22.3401104651
 10
-37.4999948635
 20
-22.3390940344
  0
LINE
  5
265
100
AcDbEntity
  8
0
100
AcDbLine
 62
250
  6
CONTINUOUS
 10
-37.5
 20
-22.3383694048
 11
-37.4997810933
 21
-22.3475480948
  0
LWPOLYLINE
  5
266
100
AcDbEntity
  8
0
100
AcDbPolyline
 62
250
  6
CONTINUOUS
 90
5
 70
0
 10
-37.4995777959
 20
-22.3514009697
 10
-37.4989043785
 20
-22.3592719187
 10
-37.4956295179
 20
-22.3799454201
 10
-37.4902112982
 20
-22.4001634058
 10
-37.4827090826
 20
-22.4197043632
  0
LINE
  5
267
100
AcDbEntity
  8
0
100
AcDbLine
 62
250
  6
CONTINUOUS
 10
-38.7
 20
31.3656274742
 11
-38.7
 21
-31.355216572
  0
LINE
  5
268
100
AcDbEntity
  8
0
100
AcDbLine
 62
7
  6
CONTINUOUS
 10
-37.5000457075
 20
23.576615832
 11
-37.5
 21
-23.5547686052
  0
LINE
  5
269
100
AcDbEntity
  8
0
100
AcDbLine
 62
250
  6
CONTINUOUS
 10
-37.3
 20
22.5383430976
 11
-37.3
 21
22.5157095584
  0
LINE
  5
26A
100
AcDbEntity
  8
0
100
AcDbLine
 62
250
  6
CONTINUOUS
 10
-37.3
 20
-22.5157095584
 11
-37.3
 21
-22.5383389438
  0
LINE
  5
26B
100
AcDbEntity
  8
0
100
AcDbLine
 62
250
  6
CONTINUOUS
 10
-37.0
 20
23.8099625811
 11
-37.0
 21
23.0029737069
  0
LINE
  5
26C
100
AcDbEntity
  8
0
100
AcDbLine
 62
250
  6
CONTINUOUS
 10
-37.0
 20
-23.0032230805
 11
-37.0
 21
-23.8105339721
  0
LINE
  5
26D
100
AcDbEntity
  8
0
100
AcDbLine
 62
7
  6
CONTINUOUS
 10
-37.5
 20
-23.5547687789
 11
-37.5000459044
 21
-23.5772754837
  0
LWPOLYLINE
  5
26E
100
AcDbEntity
  8
0
100
AcDbPolyline
 62
7
  6
CONTINUOUS
 90
11
 70
0
 10
-37.4999995206
 20
22.338002534
 10
-37.4999283986
 20
22.3432709866
 10
-37.4997598216
 20
22.3480110083
 10
-37.4995241476
 20
22.3522388069
 10
-37.4992480525
 20
22.3559685502
 10
-37.4989544324
 20
22.3592168007
 10
-37.4986624069
 20
22.3620021547
 10
-37.4983827156
 20
22.3643829561
 10
-37.498133642
 20
22.3663245195
 10
-37.4979444961
 20
22.3677070611
 10
-37.4978202243
 20
22.3685773708
  0
LWPOLYLINE
  5
26F
100
AcDbEntity
  8
0
100
AcDbPolyline
 62
250
  6
CONTINUOUS
 90
13
 70
0
 10
-37.5000459044
 20
-23.5772754837
 10
-37.5027013271
 20
-23.7302314723
 10
-37.5104355822
 20
-23.9062755623
 10
-37.5226492736
 20
-24.0828780309
 10
-37.5388922111
 20
-24.2617758164
 10
-37.5585766295
 20
-24.441197623
 10
-37.580768105
 20
-24.6158634718
 10
-37.6045494461
 20
-24.784087608
 10
-37.6294984101
 20
-24.9475457385
 10
-37.6553925573
 20
-25.1060037332
 10
-37.6817795833
 20
-25.2590389119
 10
-37.708275076
 20
-25.4070771376
 10
-37.7349820267
 20
-25.5511553292
  0
LWPOLYLINE
  5
270
100
AcDbEntity
  8
0
100
AcDbPolyline
 62
250
  6
CONTINUOUS
 90
14
 70
0
 10
-37.0
 20
-23.8105339721
 10
-37.0051005019
 20
-23.9775635014
 10
-37.0157887946
 20
-24.1453588254
 10
-37.0320648778
 20
-24.3137647338
 10
-37.0549260989
 20
-24.4841082847
 10
-37.0833751106
 20
-24.6547973202
 10
-37.1144198715
 20
-24.8211612716
 10
-37.1476678727
 20
-24.981271595
 10
-37.1835116231
 20
-25.1365270836
 10
-37.2201366081
 20
-25.2871502994
 10
-37.2572081405
 20
-25.4326278145
 10
-37.2950609074
 20
-25.5731176131
 10
-37.3328844553
 20
-25.7099110841
 10
-37.3705912735
 20
-25.8431336827
  0
LWPOLYLINE
  5
271
100
AcDbEntity
  8
0
100
AcDbPolyline
 62
250
  6
CONTINUOUS
 90
19
 70
0
 10
-37.0
 20
23.0029737069
 10
-37.0016781908
 20
22.9707469804
 10
-37.0062519115
 20
22.9384579764
 10
-37.0137211623
 20
22.906238255
 10
-37.024341842
 20
22.8742220124
 10
-37.0378580518
 20
22.8425659575
 10
-37.0535020945
 20
22.8114466851
 10
-37.0713528771
 20
22.7811311338
 10
-37.0913314927
 20
22.7516802237
 10
-37.1124335231
 20
22.7230205929
 10
-37.134896202
 20
22.6951973669
 10
-37.1584822956
 20
22.668699382
 10
-37.1814756846
 20
22.6440983341
 10
-37.2039558409
 20
22.6213646148
 10
-37.2258432927
 20
22.6009589647
 10
-37.2451835053
 20
22.5837556088
 10
-37.2614665853
 20
22.5697670083
 10
-37.2752024262
 20
22.5585769889
 10
-37.2936162092
 20
22.543955206
  0
LINE
  5
272
100
AcDbEntity
  8
0
100
AcDbLine
 62
250
  6
CONTINUOUS
 10
-37.5
 20
22.3383735586
 11
-37.4997598216
 21
22.3480110083
  0
LWPOLYLINE
  5
273
100
AcDbEntity
  8
0
100
AcDbPolyline
 62
250
  6
CONTINUOUS
 90
5
 70
0
 10
-37.4995241476
 20
22.3522388069
 10
-37.498904379
 20
22.3592760679
 10
-37.4956295198
 20
22.379949565
 10
-37.4902113026
 20
22.4001675466
 10
-37.4827090903
 20
22.4197085003
  0
LINE
  5
274
100
AcDbEntity
  8
0
100
AcDbLine
 62
250
  6
CONTINUOUS
 10
38.1152085206
 20
-27.5728560792
 11
38.0645226355
 21
-27.584048074
  0
LINE
  5
275
100
AcDbEntity
  8
0
100
AcDbLine
 62
250
  6
CONTINUOUS
 10
38.0645226355
 20
-27.584048074
 11
37.9838801939
 21
-27.6013698486
  0
LWPOLYLINE
  5
276
100
AcDbEntity
  8
0
100
AcDbPolyline
 62
250
  6
CONTINUOUS
 90
3
 70
0
 10
37.9838801939
 20
-27.6013698486
 10
37.8998650706
 20
-27.6188686491
 10
37.8715450489
 20
-27.6246499676
  0
LINE
  5
277
100
AcDbEntity
  8
0
100
AcDbLine
 62
250
  6
CONTINUOUS
 10
51.6292815281
 20
-35.9752167919
 11
-51.6292815281
 21
-35.9752167919
  0
LWPOLYLINE
  5
278
100
AcDbEntity
  8
0
100
AcDbPolyline
 62
250
  6
CONTINUOUS
 90
34
 70
0
 10
-51.6292815281
 20
-35.9752167919
 10
-51.7358645066
 20
-35.9727892355
 10
-51.8418431384
 20
-35.9656165528
 10
-51.9472174236
 20
-35.9536987136
 10
-52.0521989174
 20
-35.9369934229
 10
-52.1565760645
 20
-35.9155428546
 10
-52.2597141988
 20
-35.889473654
 10
-52.361601053
 20
-35.8587574223
 10
-52.4622488944
 20
-35.8234223253
 10
-52.5610598586
 20
-35.7836798373
 10
-52.6580206049
 20
-35.7395042223
 10
-52.7531444739
 20
-35.6909208895
 10
-52.8458736234
 20
-35.638218024
 10
-52.9361944169
 20
-35.5813707422
 10
-53.0241204908
 20
-35.5204035319
 10
-53.1091349121
 20
-35.4556786455
 10
-53.1912203074
 20
-35.3871733953
 10
-53.2703940501
 20
-35.314910034
 10
-53.3461913273
 20
-35.2393182542
 10
-53.4185917047
 20
-35.1603781538
 10
-53.4876156166
 20
-35.0781091933
 10
-53.5528595525
 20
-34.9930001584
 10
-53.6143001887
 20
-34.9050354997
 10
-53.6719608489
 20
-34.8142303514
 10
-53.7255079937
 20
-34.7211195915
 10
-53.7749178811
 20
-34.6256880774
 10
-53.8202142531
 20
-34.5279505918
 10
-53.8611347963
 20
-34.428486986
 10
-53.8976537069
 20
-34.3272812133
 10
-53.9297967887
 20
-34.2243490417
 10
-53.9573791394
 20
-34.120318145
 10
-53.980339125
 20
-34.0153977139
 10
-53.9987383795
 20
-33.9093783956
 10
-54.012576903
 20
-33.8022601024
  0
LINE
  5
279
100
AcDbEntity
  8
0
100
AcDbLine
 62
250
  6
CONTINUOUS
 10
-37.9561266303
 20
-27.6072090819
 11
-37.8715450489
 21
-27.6246499686
  0
LINE
  5
27A
100
AcDbEntity
  8
0
100
AcDbLine
 62
250
  6
CONTINUOUS
 10
-38.0381687686
 20
-27.5897699355
 11
-37.9561266303
 21
-27.6072090819
  0
LWPOLYLINE
  5
27B
100
AcDbEntity
  8
0
100
AcDbPolyline
 62
250
  6
CONTINUOUS
 90
3
 70
0
 10
-38.1152082668
 20
-27.572856115
 10
-38.0902309374
 20
-27.5784038443
 10
-38.0381687686
 20
-27.5897699355
  0
LINE
  5
27C
100
AcDbEntity
  8
0
100
AcDbLine
 62
250
  6
CONTINUOUS
 10
-38.1022730868
 20
-27.4854444956
 11
-38.2363194188
 21
-28.3956559814
  0
LINE
  5
27D
100
AcDbEntity
  8
0
100
AcDbLine
 62
250
  6
CONTINUOUS
 10
-38.2363194188
 20
-28.3956559814
 11
-38.3639861011
 21
-29.2315032196
  0
LINE
  5
27E
100
AcDbEntity
  8
0
100
AcDbLine
 62
250
  6
CONTINUOUS
 10
-38.3639861011
 20
-29.2315032196
 11
-38.4965432308
 21
-30.0783409434
  0
LINE
  5
27F
100
AcDbEntity
  8
0
100
AcDbLine
 62
250
  6
CONTINUOUS
 10
-38.4965432308
 20
-30.0783409434
 11
-38.7
 21
-31.3552165691
  0
LWPOLYLINE
  5
280
100
AcDbEntity
  8
0
100
AcDbPolyline
 62
250
  6
CONTINUOUS
 90
6
 70
0
 10
-38.0208576727
 20
-27.0079957902
 10
-38.0392944555
 20
-27.1090092484
 10
-38.0566459296
 20
-27.2071303614
 10
-38.072943868
 20
-27.3025531804
 10
-38.0881740708
 20
-27.3953445737
 10
-38.1022730868
 20
-27.4854444956
  0
LINE
  5
281
100
AcDbEntity
  8
0
100
AcDbLine
 62
250
  6
CONTINUOUS
 10
-37.9809579306
 20
-26.7972741519
 11
-38.0208576727
 21
-27.0079957902
  0
LINE
  5
282
100
AcDbEntity
  8
0
100
AcDbLine
 62
250
  6
CONTINUOUS
 10
-37.7349820267
 20
-25.5511553292
 11
-37.7881771295
 21
-25.8278250975
  0
LINE
  5
283
100
AcDbEntity
  8
0
100
AcDbLine
 62
250
  6
CONTINUOUS
 10
-37.9140809191
 20
-26.4582596838
 11
-37.9809579306
 21
-26.7972741519
  0
LINE
  5
284
100
AcDbEntity
  8
0
100
AcDbLine
 62
250
  6
CONTINUOUS
 10
-37.7881771295
 20
-25.8278250975
 11
-37.9140809191
 21
-26.4582596838
  0
LINE
  5
285
100
AcDbEntity
  8
0
100
AcDbLine
 62
250
  6
CONTINUOUS
 10
-37.8715450489
 20
-27.6246499668
 11
-38.0434806274
 21
-28.4368610611
  0
LINE
  5
286
100
AcDbEntity
  8
0
100
AcDbLine
 62
250
  6
CONTINUOUS
 10
-38.0434806274
 20
-28.4368610611
 11
-38.223901881
 21
-29.2617084554
  0
LINE
  5
287
100
AcDbEntity
  8
0
100
AcDbLine
 62
250
  6
CONTINUOUS
 10
-38.223901881
 20
-29.2617084554
 11
-38.4117696835
 21
-30.0968696093
  0
LWPOLYLINE
  5
288
100
AcDbEntity
  8
0
100
AcDbPolyline
 62
250
  6
CONTINUOUS
 90
3
 70
0
 10
-38.4117696835
 20
-30.0968696093
 10
-38.6029275293
 20
-30.9349076927
 10
-38.7
 20
-31.355216572
  0
LWPOLYLINE
  5
289
100
AcDbEntity
  8
0
100
AcDbPolyline
 62
250
  6
CONTINUOUS
 90
8
 70
0
 10
-37.7103115056
 20
-26.992227865
 10
-37.7378744589
 20
-27.0905577014
 10
-37.763954962
 20
-27.1861309146
 10
-37.7885819716
 20
-27.2789142808
 10
-37.8116636672
 20
-27.3691486193
 10
-37.8331694418
 20
-27.4569032547
 10
-37.8531299024
 20
-27.5420750197
 10
-37.8715450489
 20
-27.6246499668
  0
LINE
  5
28A
100
AcDbEntity
  8
0
100
AcDbLine
 62
7
  6
CONTINUOUS
 10
46.9875119301
 20
-33.499993
 11
47.5475329301
 21
-33.499986
  0
LINE
  5
28B
100
AcDbEntity
  8
0
100
AcDbLine
 62
7
  6
CONTINUOUS
 10
51.3290309301
 20
-33.499986
 11
51.9598079301
 21
-33.499979
  0
LINE
  5
28C
100
AcDbEntity
  8
0
100
AcDbLine
 62
7
  6
CONTINUOUS
 10
44.9646659301
 20
-33.499993
 11
45.5246729301
 21
-33.499986
  0
LINE
  5
28D
100
AcDbEntity
  8
0
100
AcDbLine
 62
7
  6
CONTINUOUS
 10
42.7551509301
 20
-33.5
 11
43.3151719301
 21
-33.499993
  0
LINE
  5
28E
100
AcDbEntity
  8
0
100
AcDbLine
 62
7
  6
CONTINUOUS
 10
40.9227399301
 20
-33.5
 11
41.4827819301
 21
-33.499993
  0
LINE
  5
28F
100
AcDbEntity
  8
0
100
AcDbLine
 62
7
  6
CONTINUOUS
 10
43.8751789301
 20
-33.499993
 11
44.4351999301
 21
-33.499993
  0
LINE
  5
290
100
AcDbEntity
  8
0
100
AcDbLine
 62
7
  6
CONTINUOUS
 10
46.0541459301
 20
-33.499993
 11
46.6141669301
 21
-33.499993
  0
LINE
  5
291
100
AcDbEntity
  8
0
100
AcDbLine
 62
7
  6
CONTINUOUS
 10
49.7189539301
 20
-33.499986
 11
50.2789819301
 21
-33.499986
  0
LINE
  5
292
100
AcDbEntity
  8
0
100
AcDbLine
 62
7
  6
CONTINUOUS
 10
48.7855809301
 20
-33.499986
 11
49.3456089301
 21
-33.499993
  0
LINE
  5
293
100
AcDbEntity
  8
0
100
AcDbLine
 62
7
  6
CONTINUOUS
 10
47.7243319301
 20
-32.949324
 11
48.6087889301
 21
-32.949324
  0
LINE
  5
294
100
AcDbEntity
  8
0
100
AcDbLine
 62
7
  6
CONTINUOUS
 10
47.8951529301
 20
-32.417303
 11
48.4379609301
 21
-32.417303
  0
LINE
  5
295
100
AcDbEntity
  8
0
100
AcDbLine
 62
7
  6
CONTINUOUS
 10
50.2790449301
 20
-32.417296
 11
50.7678199301
 21
-32.417303
  0
LINE
  5
296
100
AcDbEntity
  8
0
100
AcDbLine
 62
7
  6
CONTINUOUS
 10
50.2712609301
 20
-31.899275
 11
50.9526039301
 21
-31.899275
  0
LINE
  5
297
100
AcDbEntity
  8
0
100
AcDbLine
 62
250
  6
CONTINUOUS
 10
38.7
 20
-31.355216572
 11
-38.7
 21
-31.355216572
  0
LINE
  5
298
100
AcDbEntity
  8
0
100
AcDbLine
 62
7
  6
CONTINUOUS
 10
50.2712539301
 20
-31.217881
 11
50.9526039301
 21
-31.217881
  0
LINE
  5
299
100
AcDbEntity
  8
0
100
AcDbLine
 62
7
  6
CONTINUOUS
 10
40.0237159301
 20
-30.699867
 11
40.5837439301
 21
-30.699867
  0
LINE
  5
29A
100
AcDbEntity
  8
0
100
AcDbLine
 62
7
  6
CONTINUOUS
 10
41.8217849301
 20
-30.699867
 11
42.3818129301
 21
-30.699867
  0
LINE
  5
29B
100
AcDbEntity
  8
0
100
AcDbLine
 62
7
  6
CONTINUOUS
 10
42.7551579301
 20
-30.699867
 11
43.3151789301
 21
-30.699867
  0
LINE
  5
29C
100
AcDbEntity
  8
0
100
AcDbLine
 62
7
  6
CONTINUOUS
 10
43.8751789301
 20
-30.699867
 11
44.7217799301
 21
-30.699867
  0
LINE
  5
29D
100
AcDbEntity
  8
0
100
AcDbLine
 62
7
  6
CONTINUOUS
 10
45.7675659301
 20
-30.699867
 11
46.6141669301
 21
-30.699867
  0
LINE
  5
29E
100
AcDbEntity
  8
0
100
AcDbLine
 62
7
  6
CONTINUOUS
 10
47.8865289301
 20
-30.69986
 11
48.4465779301
 21
-30.69986
  0
LINE
  5
29F
100
AcDbEntity
  8
0
100
AcDbLine
 62
7
  6
CONTINUOUS
 10
49.7189539301
 20
-30.69986
 11
51.0303339301
 21
-30.69986
  0
LINE
  5
2A0
100
AcDbEntity
  8
0
100
AcDbLine
 62
250
  6
CONTINUOUS
 10
-38.7
 20
31.3656274742
 11
-38.5068754183
 21
30.5235706229
  0
LINE
  5
2A1
100
AcDbEntity
  8
0
100
AcDbLine
 62
250
  6
CONTINUOUS
 10
-38.5068754183
 20
30.5235706229
 11
-38.3173630599
 21
29.6845216805
  0
LWPOLYLINE
  5
2A2
100
AcDbEntity
  8
0
100
AcDbPolyline
 62
250
  6
CONTINUOUS
 90
10
 70
0
 10
-37.8715772872
 20
27.6246499668
 10
-37.8533719843
 20
27.5427583137
 10
-37.8335977458
 20
27.4581600687
 10
-37.8122545716
 20
27.3708691143
 10
-37.7893096284
 20
27.2809682724
 10
-37.7647957496
 20
27.1884086906
 10
-37.7388114351
 20
27.0930106473
 10
-37.7113255028
 20
26.9948088243
 10
-37.6823691347
 20
26.8938190476
 10
-37.6205866545
 20
26.6829175856
  0
LINE
  5
2A3
100
AcDbEntity
  8
0
100
AcDbLine
 62
250
  6
CONTINUOUS
 10
-38.3173630599
 20
29.6845216805
 11
-38.1325116687
 21
28.8508926425
  0
LWPOLYLINE
  5
2A4
100
AcDbEntity
  8
0
100
AcDbPolyline
 62
250
  6
CONTINUOUS
 90
3
 70
0
 10
-38.1325116687
 20
28.8508926425
 10
-37.9565162195
 20
28.0303017861
 10
-37.8715772872
 20
27.6246499668
  0
LINE
  5
2A5
100
AcDbEntity
  8
0
100
AcDbLine
 62
250
  6
CONTINUOUS
 10
-37.9603344922
 20
26.6903727022
 11
-37.7893750341
 21
25.8327305339
  0
LWPOLYLINE
  5
2A6
100
AcDbEntity
  8
0
100
AcDbPolyline
 62
250
  6
CONTINUOUS
 90
14
 70
0
 10
-37.7893750341
 20
25.8327305339
 10
-37.7364308665
 20
25.557667388
 10
-37.7098789079
 20
25.414670954
 10
-37.6835358461
 20
25.2678515842
 10
-37.6572552964
 20
25.1159504477
 10
-37.6314308307
 20
24.9585947117
 10
-37.6064945276
 20
24.7961536626
 10
-37.5826058738
 20
24.628479274
 10
-37.5602261559
 20
24.4539891021
 10
-37.5402654921
 20
24.2742746342
 10
-37.523614521
 20
24.0939518165
 10
-37.5109453909
 20
23.914570762
 10
-37.5028495924
 20
23.7346167969
 10
-37.5000457075
 20
23.576615832
  0
LINE
  5
2A7
100
AcDbEntity
  8
0
100
AcDbLine
 62
250
  6
CONTINUOUS
 10
-38.7
 20
31.3656274713
 11
-38.4298228425
 21
29.6601902356
  0
LWPOLYLINE
  5
2A8
100
AcDbEntity
  8
0
100
AcDbPolyline
 62
250
  6
CONTINUOUS
 90
8
 70
0
 10
-38.1024441451
 20
27.4863221135
 10
-38.0884766367
 20
27.3968244735
 10
-38.0733611209
 20
27.3045181441
 10
-38.0571595386
 20
27.2094412797
 10
-38.0398877523
 20
27.1115488527
 10
-38.0215186439
 20
27.0107124023
 10
-38.0021077014
 20
26.9069291407
 10
-37.9603344922
 20
26.6903727022
  0
LINE
  5
2A9
100
AcDbEntity
  8
0
100
AcDbLine
 62
250
  6
CONTINUOUS
 10
-38.4298228425
 20
29.6601902356
 11
-38.2994201331
 21
28.8151918036
  0
LWPOLYLINE
  5
2AA
100
AcDbEntity
  8
0
100
AcDbPolyline
 62
250
  6
CONTINUOUS
 90
3
 70
0
 10
-38.2994201331
 20
28.8151918036
 10
-38.1748724802
 20
27.9839255711
 10
-38.1024441451
 20
27.4863221135
  0
LINE
  5
2AB
100
AcDbEntity
  8
0
100
AcDbLine
 62
250
  6
CONTINUOUS
 10
-37.6510038096
 20
-26.7870913039
 11
-37.7103115056
 21
-26.992227865
  0
LINE
  5
2AC
100
AcDbEntity
  8
0
100
AcDbLine
 62
250
  6
CONTINUOUS
 10
-37.3705912735
 20
-25.8431336827
 11
-37.445369331
 21
-26.0984840921
  0
LINE
  5
2AD
100
AcDbEntity
  8
0
100
AcDbLine
 62
250
  6
CONTINUOUS
 10
-37.5526599388
 20
-26.4569817791
 11
-37.6510038096
 21
-26.7870913039
  0
LINE
  5
2AE
100
AcDbEntity
  8
0
100
AcDbLine
 62
250
  6
CONTINUOUS
 10
-37.445369331
 20
-26.0984840921
 11
-37.5526599388
 21
-26.4569817791
  0
LINE
  5
2AF
100
AcDbEntity
  8
0
100
AcDbLine
 62
250
  6
CONTINUOUS
 10
-59.5780289672
 20
-33.904109589
 11
-59.4698514984
 21
-33.8918052244
  0
LINE
  5
2B0
100
AcDbEntity
  8
0
100
AcDbLine
 62
250
  6
CONTINUOUS
 10
-37.8715450489
 20
-27.6246499668
 11
37.8715450489
 21
-27.6246499668
  0
LINE
  5
2B1
100
AcDbEntity
  8
0
100
AcDbLine
 62
250
  6
CONTINUOUS
 10
59.5780289672
 20
-33.904109589
 11
59.4698514984
 21
-33.8918052244
  0
LINE
  5
2B2
100
AcDbEntity
  8
0
100
AcDbLine
 62
250
  6
CONTINUOUS
 10
-37.6205866545
 20
26.6829175856
 11
-37.4469256575
 21
26.1025267939
  0
LWPOLYLINE
  5
2B3
100
AcDbEntity
  8
0
100
AcDbPolyline
 62
250
  6
CONTINUOUS
 90
15
 70
0
 10
-37.4469256575
 20
26.1025267939
 10
-37.3724682803
 20
25.8484569891
 10
-37.3349442918
 20
25.7160741186
 10
-37.2973331054
 20
25.5803213489
 10
-37.2597019088
 20
25.4409986545
 10
-37.2227828337
 20
25.2966090012
 10
-37.1862365438
 20
25.1470529159
 10
-37.1504023753
 20
24.9927819708
 10
-37.1170304691
 20
24.8331994756
 10
-37.0856674206
 20
24.6670362221
 10
-37.0567666343
 20
24.4961095324
 10
-37.0334384637
 20
24.3243901778
 10
-37.0167196934
 20
24.1532774569
 10
-37.0055735388
 20
23.9817323328
 10
-37.0
 20
23.8099625811
  0
LINE
  5
2B4
100
AcDbEntity
  8
0
100
AcDbLine
 62
250
  6
CONTINUOUS
 10
-37.0
 20
-23.0032230805
 11
37.0
 21
-23.0032230805
  0
LINE
  5
2B5
100
AcDbEntity
  8
0
100
AcDbLine
 62
250
  6
CONTINUOUS
 10
-37.3
 20
-22.5383389438
 11
37.3
 21
-22.5383389438
  0
LINE
  5
2B6
100
AcDbEntity
  8
0
100
AcDbLine
 62
7
  6
CONTINUOUS
 10
-37.3770334791
 20
-22.5
 11
37.3770334791
 21
-22.5
  0
LWPOLYLINE
  5
2B7
100
AcDbEntity
  8
0
100
AcDbPolyline
 62
7
  6
CONTINUOUS
 90
3
 70
0
 43
0.3500000006
 10
1.8928570933
 20
50.0357124023
 10
1.8214286013
 20
49.8214279175
 10
1.6785714755
 20
49.5357122498
  0
LWPOLYLINE
  5
2B8
100
AcDbEntity
  8
0
100
AcDbPolyline
 62
7
  6
CONTINUOUS
 90
4
 70
0
 43
0.3500000006
 10
2.8928572569
 20
50.1785702362
 10
2.8928572569
 20
51.0357127075
 10
3.3214284925
 20
51.4642862091
 10
3.9642856293
 20
51.4642862091
  0
LINE
  5
2B9
100
AcDbEntity
  8
0
100
AcDbLine
 62
7
  6
CONTINUOUS
 10
37.3770334791
 20
22.5
 11
-37.3770334791
 21
22.5
  0
LINE
  5
2BA
100
AcDbEntity
  8
0
100
AcDbLine
 62
250
  6
CONTINUOUS
 10
-37.3
 20
22.5383430976
 11
37.3
 21
22.5383430976
  0
LINE
  5
2BB
100
AcDbEntity
  8
0
100
AcDbLine
 62
250
  6
CONTINUOUS
 10
-37.0
 20
23.0029737069
 11
37.0
 21
23.0029737069
  0
LWPOLYLINE
  5
2BC
100
AcDbEntity
  8
0
100
AcDbPolyline
 62
7
  6
CONTINUOUS
 90
10
 70
0
 43
0.3500000006
 10
1.8214286013
 20
50.2500014191
 10
1.8928570933
 20
50.1071435852
 10
1.8928570933
 20
50.0357124023
 10
1.7499999676
 20
49.8928591003
 10
1.6785714755
 20
49.8928591003
 10
1.6071428418
 20
49.9642857513
 10
1.6071428418
 20
50.0357124023
 10
1.6785714755
 20
50.1785702362
 10
1.7499999676
 20
50.2500014191
 10
1.8214286013
 20
50.2500014191
  0
LWPOLYLINE
  5
2BD
100
AcDbEntity
  8
0
100
AcDbPolyline
 62
250
  6
CONTINUOUS
 90
8
 70
0
 10
37.712595791
 20
26.9992967189
 10
37.739824349
 20
27.0966755774
 10
37.7655653904
 20
27.1912645031
 10
37.7898481642
 20
27.2830324893
 10
37.812598189
 20
27.3722430806
 10
37.8337906375
 20
27.4589735102
 10
37.8534503369
 20
27.5431136506
 10
37.8715772872
 20
27.6246499668
  0
LINE
  5
2BE
100
AcDbEntity
  8
0
100
AcDbLine
 62
250
  6
CONTINUOUS
 10
37.6539261005
 20
26.7959482652
 11
37.712595791
 21
26.9992967189
  0
LINE
  5
2BF
100
AcDbEntity
  8
0
100
AcDbLine
 62
250
  6
CONTINUOUS
 10
37.3748365635
 20
25.8567005925
 11
37.4495291674
 21
26.1113028441
  0
LINE
  5
2C0
100
AcDbEntity
  8
0
100
AcDbLine
 62
250
  6
CONTINUOUS
 10
37.5563634973
 20
26.468127035
 11
37.6539261005
 21
26.7959482652
  0
LINE
  5
2C1
100
AcDbEntity
  8
0
100
AcDbLine
 62
250
  6
CONTINUOUS
 10
37.4495291674
 20
26.1113028441
 11
37.5563634973
 21
26.468127035
  0
LINE
  5
2C2
100
AcDbEntity
  8
0
100
AcDbLine
 62
250
  6
CONTINUOUS
 10
59.5780289672
 20
33.904109589
 11
59.4698514984
 21
33.8918052244
  0
LINE
  5
2C3
100
AcDbEntity
  8
0
100
AcDbLine
 62
250
  6
CONTINUOUS
 10
-37.8715772872
 20
27.6246499668
 11
37.8715772872
 21
27.6246499668
  0
LINE
  5
2C4
100
AcDbEntity
  8
0
100
AcDbLine
 62
250
  6
CONTINUOUS
 10
-59.5780289672
 20
33.904109589
 11
-59.4698514984
 21
33.8918052244
  0
LINE
  5
2C5
100
AcDbEntity
  8
0
100
AcDbLine
 62
7
  6
CONTINUOUS
 10
50.7678199301
 20
-32.417303
 11
51.3290309301
 21
-33.499986
  0
LINE
  5
2C6
100
AcDbEntity
  8
0
100
AcDbLine
 62
7
  6
CONTINUOUS
 10
40.0237159301
 20
-30.699867
 11
40.9227399301
 21
-33.5
  0
LINE
  5
2C7
100
AcDbEntity
  8
0
100
AcDbLine
 62
7
  6
CONTINUOUS
 10
40.5837439301
 20
-30.699867
 11
41.2027679301
 21
-32.627905
  0
LINE
  5
2C8
100
AcDbEntity
  8
0
100
AcDbLine
 62
250
  6
CONTINUOUS
 10
37.6178784692
 20
-26.6749348648
 11
37.4435998471
 21
-26.0925127936
  0
LWPOLYLINE
  5
2C9
100
AcDbEntity
  8
0
100
AcDbPolyline
 62
250
  6
CONTINUOUS
 90
15
 70
0
 10
37.4435998471
 20
-26.0925127936
 10
37.3691782519
 20
-25.8381970215
 10
37.3317250486
 20
-25.7057782976
 10
37.2942136631
 20
-25.5700227223
 10
37.2567151104
 20
-25.4307454608
 10
37.2199657444
 20
-25.2864681044
 10
37.1836238559
 20
-25.1370444731
 10
37.1480311541
 20
-24.9829713352
 10
37.1149491206
 20
-24.8238042526
 10
37.0839539499
 20
-24.6581987423
 10
37.0554694475
 20
-24.488035325
 10
37.0325285115
 20
-24.3176281182
 10
37.0161421079
 20
-24.148470122
 10
37.0052992708
 20
-23.9793787051
 10
37.0
 20
-23.8105339721
  0
LINE
  5
2CA
100
AcDbEntity
  8
0
100
AcDbLine
 62
250
  6
CONTINUOUS
 10
38.1024974963
 20
27.4866983102
 11
38.2363254618
 21
28.3979653758
  0
LINE
  5
2CB
100
AcDbEntity
  8
0
100
AcDbLine
 62
250
  6
CONTINUOUS
 10
38.2363254618
 20
28.3979653758
 11
38.3639944959
 21
29.2361295909
  0
LINE
  5
2CC
100
AcDbEntity
  8
0
100
AcDbLine
 62
250
  6
CONTINUOUS
 10
38.3639944959
 20
29.2361295909
 11
38.496566142
 21
30.0853864425
  0
LINE
  5
2CD
100
AcDbEntity
  8
0
100
AcDbLine
 62
250
  6
CONTINUOUS
 10
38.496566142
 20
30.0853864425
 11
38.7
 21
31.3656274712
  0
LWPOLYLINE
  5
2CE
100
AcDbEntity
  8
0
100
AcDbPolyline
 62
250
  6
CONTINUOUS
 90
6
 70
0
 10
38.022233552
 20
27.0145857621
 10
38.0404304359
 20
27.1145672893
 10
38.0575398239
 20
27.2116222971
 10
38.0736033775
 20
27.3059696679
 10
38.0886110392
 20
27.3976844809
 10
38.1024974963
 20
27.4866983102
  0
LINE
  5
2CF
100
AcDbEntity
  8
0
100
AcDbLine
 62
250
  6
CONTINUOUS
 10
37.9828018244
 20
26.8058221238
 11
38.022233552
 21
27.0145857621
  0
LINE
  5
2D0
100
AcDbEntity
  8
0
100
AcDbLine
 62
250
  6
CONTINUOUS
 10
37.7379565708
 20
25.5657625932
 11
37.7911557166
 21
25.8418131311
  0
LINE
  5
2D1
100
AcDbEntity
  8
0
100
AcDbLine
 62
250
  6
CONTINUOUS
 10
37.9165315035
 20
26.4693712763
 11
37.9828018244
 21
26.8058221238
  0
LINE
  5
2D2
100
AcDbEntity
  8
0
100
AcDbLine
 62
250
  6
CONTINUOUS
 10
37.7911557166
 20
25.8418131311
 11
37.9165315035
 21
26.4693712763
  0
LINE
  5
2D3
100
AcDbEntity
  8
0
100
AcDbLine
 62
250
  6
CONTINUOUS
 10
37.8715772872
 20
27.6246499668
 11
38.0434885793
 21
28.4390474846
  0
LINE
  5
2D4
100
AcDbEntity
  8
0
100
AcDbLine
 62
250
  6
CONTINUOUS
 10
38.0434885793
 20
28.4390474846
 11
38.2239141515
 21
29.2662457097
  0
LINE
  5
2D5
100
AcDbEntity
  8
0
100
AcDbLine
 62
250
  6
CONTINUOUS
 10
38.2239141515
 20
29.2662457097
 11
38.4118021281
 21
30.1038601889
  0
LWPOLYLINE
  5
2D6
100
AcDbEntity
  8
0
100
AcDbPolyline
 62
250
  6
CONTINUOUS
 90
3
 70
0
 10
38.4118021281
 20
30.1038601889
 10
38.6029450049
 20
30.9442044559
 10
38.7
 20
31.3656274742
  0
LINE
  5
2D7
100
AcDbEntity
  8
0
100
AcDbLine
 62
250
  6
CONTINUOUS
 10
-38.090254178
 20
27.5785436369
 11
-38.0381932731
 21
27.5898732735
  0
LINE
  5
2D8
100
AcDbEntity
  8
0
100
AcDbLine
 62
250
  6
CONTINUOUS
 10
-38.0381932731
 20
27.5898732735
 11
-37.9561545146
 21
27.6072591279
  0
LINE
  5
2D9
100
AcDbEntity
  8
0
100
AcDbLine
 62
250
  6
CONTINUOUS
 10
-37.9561545146
 20
27.6072591279
 11
-37.8715772872
 21
27.6246499667
  0
LINE
  5
2DA
100
AcDbEntity
  8
0
100
AcDbLine
 62
250
  6
CONTINUOUS
 10
-38.7
 20
31.3656274742
 11
38.7
 21
31.3656274742
  0
LINE
  5
2DB
100
AcDbEntity
  8
0
100
AcDbLine
 62
250
  6
CONTINUOUS
 10
37.95615445
 20
27.6072591201
 11
37.8715772872
 21
27.6246499688
  0
LINE
  5
2DC
100
AcDbEntity
  8
0
100
AcDbLine
 62
250
  6
CONTINUOUS
 10
38.0381931187
 20
27.5898732748
 11
37.95615445
 21
27.6072591201
  0
LINE
  5
2DD
100
AcDbEntity
  8
0
100
AcDbLine
 62
7
  6
CONTINUOUS
 10
51.3636937208
 20
-32.3499536669
 11
51.9598079301
 21
-33.499979
  0
LINE
  5
2DE
100
AcDbEntity
  8
0
100
AcDbLine
 62
7
  6
CONTINUOUS
 10
44.4351999301
 20
-31.653498
 11
44.9646659301
 21
-33.499993
  0
LINE
  5
2DF
100
AcDbEntity
  8
0
100
AcDbLine
 62
7
  6
CONTINUOUS
 10
44.7217799301
 20
-30.699867
 11
45.2446729301
 21
-32.523409
  0
LINE
  5
2E0
100
AcDbEntity
  8
0
100
AcDbLine
 62
250
  6
CONTINUOUS
 10
38.7
 20
-31.355216572
 11
38.5068544243
 21
-30.5154462452
  0
LINE
  5
2E1
100
AcDbEntity
  8
0
100
AcDbLine
 62
250
  6
CONTINUOUS
 10
38.5068544243
 20
-30.5154462452
 11
38.3173385499
 21
-29.6787490775
  0
LWPOLYLINE
  5
2E2
100
AcDbEntity
  8
0
100
AcDbPolyline
 62
250
  6
CONTINUOUS
 90
10
 70
0
 10
37.8715450489
 20
-27.6246499668
 10
37.8530853984
 20
-27.5418667462
 10
37.8330481561
 20
-27.4563887857
 10
37.811433322
 20
-27.3682303168
 10
37.7882025732
 20
-27.2774668511
 10
37.7633942327
 20
-27.1840576416
 10
37.7371232694
 20
-27.0878464227
 10
37.7093588213
 20
-26.9888694909
 10
37.6801317506
 20
-26.8871418242
 10
37.6178784692
 20
-26.6749348648
  0
LINE
  5
2E3
100
AcDbEntity
  8
0
100
AcDbLine
 62
250
  6
CONTINUOUS
 10
38.3173385499
 20
-29.6787490775
 11
38.132494634
 21
-28.8475040097
  0
LWPOLYLINE
  5
2E4
100
AcDbEntity
  8
0
100
AcDbPolyline
 62
250
  6
CONTINUOUS
 90
3
 70
0
 10
38.132494634
 20
-28.8475040097
 10
37.9564917064
 20
-28.0291924769
 10
37.8715450489
 20
-27.6246499668
  0
LINE
  5
2E5
100
AcDbEntity
  8
0
100
AcDbLine
 62
250
  6
CONTINUOUS
 10
37.9585809409
 20
-26.6824961831
 11
37.7870284589
 21
-25.821954944
  0
LWPOLYLINE
  5
2E6
100
AcDbEntity
  8
0
100
AcDbPolyline
 62
250
  6
CONTINUOUS
 90
14
 70
0
 10
37.7870284589
 20
-25.821954944
 10
37.7341611439
 20
-25.5467883882
 10
37.7076790997
 20
-25.4038004591
 10
37.6814287802
 20
-25.2570406783
 10
37.65526897
 20
-25.1052680523
 10
37.6295828819
 20
-24.948065469
 10
37.6048113115
 20
-24.7858467832
 10
37.5811380662
 20
-24.6186152975
 10
37.5590003469
 20
-24.4447310816
 10
37.539308925
 20
-24.2658435493
 10
37.5229723718
 20
-24.086893338
 10
37.5106161315
 20
-23.9095386142
 10
37.5027559974
 20
-23.7321558101
 10
37.5000458686
 20
-23.5772915676
  0
LINE
  5
2E7
100
AcDbEntity
  8
0
100
AcDbLine
 62
250
  6
CONTINUOUS
 10
38.7
 20
-31.3552165692
 11
38.4298056379
 21
-29.6543455812
  0
LWPOLYLINE
  5
2E8
100
AcDbEntity
  8
0
100
AcDbPolyline
 62
250
  6
CONTINUOUS
 90
8
 70
0
 10
38.1022432955
 20
-27.485223701
 10
38.0880898689
 20
-27.3948002587
 10
38.0727813897
 20
-27.3015825407
 10
38.0563777459
 20
-27.2056001893
 10
38.0388987807
 20
-27.1068165486
 10
38.0203271118
 20
-27.0051284439
 10
38.0007191829
 20
-26.900534371
 10
37.9585809409
 20
-26.6824961831
  0
LINE
  5
2E9
100
AcDbEntity
  8
0
100
AcDbLine
 62
250
  6
CONTINUOUS
 10
38.4298056379
 20
-29.6543455812
 11
38.2994080513
 21
-28.8116964488
  0
LWPOLYLINE
  5
2EA
100
AcDbEntity
  8
0
100
AcDbPolyline
 62
250
  6
CONTINUOUS
 90
3
 70
0
 10
38.2994080513
 20
-28.8116964488
 10
38.174854903
 20
-27.9826754731
 10
38.1022432955
 20
-27.485223701
  0
LWPOLYLINE
  5
2EB
100
AcDbEntity
  8
0
100
AcDbPolyline
 62
250
  6
CONTINUOUS
 90
19
 70
0
 10
37.5
 20
23.5541150673
 10
37.4980973561
 20
23.5764133458
 10
37.4924039068
 20
23.5985419534
 10
37.4829629857
 20
23.6203324767
 10
37.4698464516
 20
23.6416190698
 10
37.4531541293
 20
23.6622397349
 10
37.433013037
 20
23.6820375528
 10
37.4095764459
 20
23.7008618533
 10
37.3830227195
 20
23.7185693635
 10
37.3535539329
 20
23.7350253132
 10
37.3213943429
 20
23.7501044636
 10
37.2867887048
 20
23.7636920427
 10
37.2500004071
 20
23.7756846202
 10
37.2113094207
 20
23.7859909264
 10
37.1710102162
 20
23.7945325189
 10
37.1294095542
 20
23.8012443711
 10
37.0868240661
 20
23.8060754031
 10
37.0435778375
 20
23.8089888618
 10
37.0
 20
23.8099625811
  0
LWPOLYLINE
  5
2EC
100
AcDbEntity
  8
0
100
AcDbPolyline
 62
250
  6
CONTINUOUS
 90
19
 70
0
 10
37.5
 20
22.6966459465
 10
37.4980973663
 20
22.7233264072
 10
37.4924039374
 20
22.7498084896
 10
37.482963032
 20
22.7758904776
 10
37.4698464854
 20
22.8013750495
 10
37.4531541132
 20
22.8260668355
 10
37.4330129612
 20
22.8497739616
 10
37.4095763196
 20
22.872314874
 10
37.3830225488
 20
22.8935191849
 10
37.3535537385
 20
22.9132250757
 10
37.3213941639
 20
22.9312825008
 10
37.286788577
 20
22.9475541516
 10
37.2500003455
 20
22.9619160467
 10
37.211309449
 20
22.9742589004
 10
37.1710103486
 20
22.9844888129
 10
37.129409746
 20
22.9925278164
 10
37.0868242477
 20
22.9983147093
 10
37.0435779552
 20
23.0018055208
 10
37.0
 20
23.0029737069
  0
LWPOLYLINE
  5
2ED
100
AcDbEntity
  8
0
100
AcDbPolyline
 62
250
  6
CONTINUOUS
 90
5
 70
0
 10
37.5
 20
22.3383735586
 10
37.498904379
 20
22.3592760674
 10
37.4956295198
 20
22.3799495641
 10
37.4902113026
 20
22.4001675454
 10
37.4827090903
 20
22.4197084988
  0
LWPOLYLINE
  5
2EE
100
AcDbEntity
  8
0
100
AcDbPolyline
 62
250
  6
CONTINUOUS
 90
18
 70
0
 10
37.0
 20
23.0029737069
 10
37.0016781693
 20
22.9707471576
 10
37.0062518377
 20
22.9384583359
 10
37.0137210051
 20
22.9062387989
 10
37.0243415606
 20
22.8742227478
 10
37.0378576152
 20
22.8425668796
 10
37.0535015018
 20
22.811447764
 10
37.0713521349
 20
22.7811323251
 10
37.0913306001
 20
22.7516814982
 10
37.112432487
 20
22.7230219388
 10
37.1348949965
 20
22.6951988144
 10
37.1584809277
 20
22.6687009023
 10
37.1814742671
 20
22.6440997914
 10
37.2039545616
 20
22.6213658452
 10
37.2258422643
 20
22.6009599061
 10
37.2451827208
 20
22.5837562926
 10
37.2614660086
 20
22.569767483
 10
37.2752020503
 20
22.5585772882
  0
LINE
  5
2EF
100
AcDbEntity
  8
0
100
AcDbLine
 62
250
  6
CONTINUOUS
 10
37.0
 20
-23.8105339721
 11
37.0
 21
-23.0032230805
  0
LINE
  5
2F0
100
AcDbEntity
  8
0
100
AcDbLine
 62
250
  6
CONTINUOUS
 10
37.0
 20
23.0029737069
 11
37.0
 21
23.8099625811
  0
LINE
  5
2F1
100
AcDbEntity
  8
0
100
AcDbLine
 62
250
  6
CONTINUOUS
 10
37.3
 20
-22.5383389438
 11
37.3
 21
-22.5157095584
  0
LINE
  5
2F2
100
AcDbEntity
  8
0
100
AcDbLine
 62
250
  6
CONTINUOUS
 10
37.3
 20
22.5157095584
 11
37.3
 21
22.5383430976
  0
LINE
  5
2F3
100
AcDbEntity
  8
0
100
AcDbLine
 62
7
  6
CONTINUOUS
 10
37.5000458686
 20
-23.5772915676
 11
37.5
 21
23.5541148981
  0
LINE
  5
2F4
100
AcDbEntity
  8
0
100
AcDbLine
 62
250
  6
CONTINUOUS
 10
38.7
 20
-31.355216572
 11
38.7
 21
31.3656274742
  0
LINE
  5
2F5
100
AcDbEntity
  8
0
100
AcDbLine
 62
7
  6
CONTINUOUS
 10
37.5
 20
23.5541150673
 11
37.5000457468
 21
23.5766114015
  0
LWPOLYLINE
  5
2F6
100
AcDbEntity
  8
0
100
AcDbPolyline
 62
7
  6
CONTINUOUS
 90
11
 70
0
 10
37.4999996125
 20
-22.3379666643
 10
37.4999301093
 20
-22.3432123713
 10
37.4997637628
 20
-22.3479338957
 10
37.4995305618
 20
-22.3521476541
 10
37.4992566884
 20
-22.3558699232
 10
37.4989649183
 20
-22.3591146846
 10
37.4986749428
 20
-22.3618936181
 10
37.4983978552
 20
-22.3642630594
 10
37.4981517422
 20
-22.366190488
 10
37.4979658912
 20
-22.3675556804
 10
37.4978448253
 20
-22.3684081195
  0
LWPOLYLINE
  5
2F7
100
AcDbEntity
  8
0
100
AcDbPolyline
 62
250
  6
CONTINUOUS
 90
13
 70
0
 10
37.5000457468
 20
23.5766114015
 10
37.5028308031
 20
23.7339396715
 10
37.5108916261
 20
23.9135887362
 10
37.5235398325
 20
24.0930374531
 10
37.5402218059
 20
24.2738824801
 10
37.5602841829
 20
24.4544916019
 10
37.5828123977
 20
24.6300028776
 10
37.606887147
 20
24.7988062176
 10
37.6320521651
 20
24.9625023221
 10
37.6581157495
 20
25.1210487975
 10
37.6846322844
 20
25.274059663
 10
37.711205525
 20
25.4219246007
 10
37.7379565708
 20
25.5657625932
  0
LWPOLYLINE
  5
2F8
100
AcDbEntity
  8
0
100
AcDbPolyline
 62
250
  6
CONTINUOUS
 90
14
 70
0
 10
37.0
 20
23.8099625811
 10
37.0054819298
 20
23.9811035182
 10
37.0165924961
 20
24.1523496183
 10
37.0333316987
 20
24.3235075791
 10
37.0567353991
 20
24.4957137569
 10
37.0857677359
 20
24.6674976409
 10
37.1173211251
 20
24.8346390163
 10
37.1509620826
 20
24.9952925228
 10
37.1871240924
 20
25.150755437
 10
37.2240000225
 20
25.3014458338
 10
37.261250625
 20
25.4468890851
 10
37.2992151478
 20
25.5872007673
 10
37.3371042023
 20
25.7237526715
 10
37.3748365635
 20
25.8567005925
  0
LINE
  5
2F9
100
AcDbEntity
  8
0
100
AcDbLine
 62
250
  6
CONTINUOUS
 10
37.5
 20
-22.3383694048
 11
37.4997637628
 21
-22.3479338957
  0
LWPOLYLINE
  5
2FA
100
AcDbEntity
  8
0
100
AcDbPolyline
 62
250
  6
CONTINUOUS
 90
5
 70
0
 10
37.4995305618
 20
-22.3521476541
 10
37.4989043785
 20
-22.3592719189
 10
37.4956295179
 20
-22.3799454205
 10
37.4902112982
 20
-22.4001634064
 10
37.4827090826
 20
-22.4197043639
  0
LWPOLYLINE
  5
2FB
100
AcDbEntity
  8
0
100
AcDbPolyline
 62
250
  6
CONTINUOUS
 90
19
 70
0
 10
37.5
 20
-22.6970009566
 10
37.4980973587
 20
-22.7236843579
 10
37.4924039114
 20
-22.7501669215
 10
37.4829629828
 20
-22.7762470395
 10
37.4698464166
 20
-22.8017272078
 10
37.4531540331
 20
-22.8264124565
 10
37.4330128744
 20
-22.8501118779
 10
37.4095762293
 20
-22.8726439931
 10
37.3830224608
 20
-22.8938385048
 10
37.3535536555
 20
-22.9135345499
 10
37.3213940864
 20
-22.931582235
 10
37.2867885064
 20
-22.9478442064
 10
37.2500002832
 20
-22.9621971169
 10
37.2113093961
 20
-22.974531724
 10
37.1710103058
 20
-22.9847541457
 10
37.1294097138
 20
-22.9927869917
 10
37.0868242264
 20
-22.9985692594
 10
37.0435779448
 20
-23.0020568021
 10
37.0
 20
-23.0032230805
  0
LWPOLYLINE
  5
2FC
100
AcDbEntity
  8
0
100
AcDbPolyline
 62
250
  6
CONTINUOUS
 90
19
 70
0
 10
37.5
 20
-23.5547687789
 10
37.4980973584
 20
-23.5770601293
 10
37.4924039113
 20
-23.5991818377
 10
37.482962985
 20
-23.6209655448
 10
37.4698464264
 20
-23.6422454638
 10
37.4531540566
 20
-23.6628596413
 10
37.4330129113
 20
-23.68265119
 10
37.4095762731
 20
-23.7014694836
 10
37.3830225061
 20
-23.7191713026
 10
37.3535536993
 20
-23.7356219234
 10
37.3213941258
 20
-23.7506961461
 10
37.2867885376
 20
-23.7642792453
 10
37.2500003056
 20
-23.7762678432
 10
37.2113094097
 20
-23.7865706985
 10
37.1710103105
 20
-23.7951093989
 10
37.1294097122
 20
-23.8018189582
 10
37.0868242221
 20
-23.8066483117
 10
37.043577941
 20
-23.8095607048
 10
37.0
 20
-23.8105339716
  0
LINE
  5
2FD
100
AcDbEntity
  8
0
100
AcDbLine
 62
250
  6
CONTINUOUS
 10
-38.1152312655
 20
27.5730142115
 11
-38.090254178
 21
27.5785436369
  0
LINE
  5
2FE
100
AcDbEntity
  8
0
100
AcDbLine
 62
250
  6
CONTINUOUS
 10
-51.6292815281
 20
35.9752167919
 11
51.6292815281
 21
35.9752167919
  0
LWPOLYLINE
  5
2FF
100
AcDbEntity
  8
0
100
AcDbPolyline
 62
250
  6
CONTINUOUS
 90
34
 70
0
 10
51.6292815281
 20
35.9752167919
 10
51.7358645066
 20
35.9727892355
 10
51.8418431384
 20
35.9656165528
 10
51.9472174236
 20
35.9536987136
 10
52.0521989174
 20
35.9369934229
 10
52.1565760645
 20
35.9155428546
 10
52.2597141988
 20
35.889473654
 10
52.361601053
 20
35.8587574223
 10
52.4622488944
 20
35.8234223253
 10
52.5610598586
 20
35.7836798373
 10
52.6580206049
 20
35.7395042223
 10
52.7531444739
 20
35.6909208895
 10
52.8458736234
 20
35.638218024
 10
52.9361944169
 20
35.5813707422
 10
53.0241204908
 20
35.5204035319
 10
53.1091349121
 20
35.4556786455
 10
53.1912203074
 20
35.3871733953
 10
53.2703940501
 20
35.314910034
 10
53.3461913273
 20
35.2393182542
 10
53.4185917047
 20
35.1603781538
 10
53.4876156166
 20
35.0781091933
 10
53.5528595525
 20
34.9930001584
 10
53.6143001887
 20
34.9050354997
 10
53.6719608489
 20
34.8142303514
 10
53.7255079937
 20
34.7211195915
 10
53.7749178811
 20
34.6256880774
 10
53.8202142531
 20
34.5279505918
 10
53.8611347963
 20
34.428486986
 10
53.8976537069
 20
34.3272812133
 10
53.9297967887
 20
34.2243490417
 10
53.9573791394
 20
34.120318145
 10
53.980339125
 20
34.0153977139
 10
53.9987383795
 20
33.9093783956
 10
54.012576903
 20
33.8022601024
  0
LWPOLYLINE
  5
300
100
AcDbEntity
  8
0
100
AcDbPolyline
 62
250
  6
CONTINUOUS
 90
3
 70
0
 10
38.1152309962
 20
27.5730142495
 10
38.0902539498
 20
27.5785436591
 10
38.0381931187
 20
27.5898732748
  0
LINE
  5
301
100
AcDbEntity
  8
0
100
AcDbLine
 62
7
  6
CONTINUOUS
 10
48.1665499301
 20
-31.571955
 11
48.4379609301
 21
-32.417303
  0
LINE
  5
302
100
AcDbEntity
  8
0
100
AcDbLine
 62
7
  6
CONTINUOUS
 10
48.6087889301
 20
-32.949324
 11
48.7855809301
 21
-33.499986
  0
LINE
  5
303
100
AcDbEntity
  8
0
100
AcDbLine
 62
7
  6
CONTINUOUS
 10
48.4465779301
 20
-30.69986
 11
49.3456089301
 21
-33.499993
  0
LINE
  5
304
100
AcDbEntity
  8
0
100
AcDbLine
 62
7
  6
CONTINUOUS
 10
42.7551579301
 20
-30.699867
 11
42.7551509301
 21
-33.5
  0
LINE
  5
305
100
AcDbEntity
  8
0
100
AcDbLine
 62
7
  6
CONTINUOUS
 10
43.3151789301
 20
-30.699867
 11
43.3151719301
 21
-33.499993
  0
LINE
  5
306
100
AcDbEntity
  8
0
100
AcDbLine
 62
7
  6
CONTINUOUS
 10
43.8751789301
 20
-30.699867
 11
43.8751789301
 21
-33.499993
  0
LINE
  5
307
100
AcDbEntity
  8
0
100
AcDbLine
 62
7
  6
CONTINUOUS
 10
44.4351999301
 20
-31.653498
 11
44.4351999301
 21
-33.499993
  0
LWPOLYLINE
  5
308
100
AcDbEntity
  8
0
100
AcDbPolyline
 62
250
  6
CONTINUOUS
 90
12
 70
0
 10
37.4827090826
 20
-22.4197043639
 10
37.473205067
 20
-22.4383541981
 10
37.4618033795
 20
-22.4559085774
 10
37.4486289389
 20
-22.4721751728
 10
37.4338260875
 20
-22.4869757634
 10
37.4175570105
 20
-22.5001481893
 10
37.3999999555
 20
-22.5115481313
 10
37.3813472818
 20
-22.5210506897
 10
37.3618033548
 20
-22.5285517523
 10
37.3415823033
 20
-22.533969137
 10
37.3209056725
 20
-22.5372434919
 10
37.3
 20
-22.5383389438
  0
LWPOLYLINE
  5
309
100
AcDbEntity
  8
0
100
AcDbPolyline
 62
250
  6
CONTINUOUS
 90
3
 70
0
 10
37.3
 20
-22.5383389438
 10
37.2983013234
 20
-22.5401140067
 10
37.2936408273
 20
-22.5439351557
  0
LWPOLYLINE
  5
30A
100
AcDbEntity
  8
0
100
AcDbPolyline
 62
250
  6
CONTINUOUS
 90
19
 70
0
 10
37.2936408273
 20
-22.5439351557
 10
37.2752983668
 20
-22.5585079374
 10
37.2616164025
 20
-22.5696576416
 10
37.2453806485
 20
-22.583603973
 10
37.2260956507
 20
-22.6007575241
 10
37.2042568633
 20
-22.6211166759
 10
37.1817586787
 20
-22.6438618492
 10
37.1586164341
 20
-22.6686160333
 10
37.1348147923
 20
-22.6953742109
 10
37.1122021341
 20
-22.7234179325
 10
37.0910802089
 20
-22.7521534347
 10
37.0711472673
 20
-22.7815914335
 10
37.0533464427
 20
-22.8118787122
 10
37.0377403432
 20
-22.8429802329
 10
37.0242663606
 20
-22.874603717
 10
37.013679804
 20
-22.9065850591
 10
37.0062324433
 20
-22.9387728362
 10
37.0016725086
 20
-22.9710291776
 10
37.0
 20
-23.0032230805
  0
LINE
  5
30B
100
AcDbEntity
  8
0
100
AcDbLine
 62
250
  6
CONTINUOUS
 10
-51.6292815281
 20
40.9023543978
 11
51.6292815281
 21
40.9023543978
  0
LINE
  5
30C
100
AcDbEntity
  8
0
100
AcDbLine
 62
7
  6
CONTINUOUS
 10
51.6292815281
 20
41.0
 11
-51.6292815281
 21
41.0
  0
LWPOLYLINE
  5
30D
100
AcDbEntity
  8
0
100
AcDbPolyline
 62
250
  6
CONTINUOUS
 90
34
 70
0
 10
51.6292815281
 20
40.9023543978
 10
51.9779051098
 20
40.8946475854
 10
52.325848669
 20
40.8715429464
 10
52.672431338
 20
40.8330855493
 10
53.0169682302
 20
40.7793515321
 10
53.3587919044
 20
40.7104457583
 10
53.6972532172
 20
40.6264986735
 10
54.0316990061
 20
40.5276688826
 10
54.3614640941
 20
40.4141500076
 10
54.6858930736
 20
40.2861674742
 10
55.0043438987
 20
40.143974136
 10
55.3162001906
 20
39.9878451962
 10
55.6208626164
 20
39.8180811754
 10
55.9177363836
 20
39.6350107312
 10
56.2062369282
 20
39.4389919462
 10
56.4858024273
 20
39.2304066761
 10
56.7558852717
 20
39.0096604293
 10
57.0159546233
 20
38.7771842881
 10
57.2655017195
 20
38.5334336609
 10
57.5040372282
 20
38.278883464
 10
57.7310924559
 20
38.0140310688
 10
57.9462224937
 20
37.7393971919
 10
58.1490029488
 20
37.4555214491
 10
58.3390383571
 20
37.1629554156
 10
58.5159629387
 20
36.8622639647
 10
58.6794311962
 20
36.5540279432
 10
58.8291175019
 20
36.2388550032
 10
58.9647257977
 20
35.9173718465
 10
59.0859876176
 20
35.5902132308
 10
59.1926673413
 20
35.2580126342
 10
59.2845605333
 20
34.9214111203
 10
59.3614868404
 20
34.5810634449
 10
59.423291572
 20
34.2376376417
 10
59.4698514984
 20
33.8918052244
  0
LWPOLYLINE
  5
30E
100
AcDbEntity
  8
0
100
AcDbPolyline
 62
7
  6
CONTINUOUS
 90
13
 70
0
 43
0.3500000006
 10
3.3214284925
 20
51.4642862091
 10
3.035714241
 20
51.678570694
 10
3.035714241
 20
52.3214286804
 10
3.3214284925
 20
52.750002182
 10
3.9642856293
 20
52.750002182
 10
4.2499998808
 20
52.3214286804
 10
4.2499998808
 20
51.678570694
 10
3.9642856293
 20
51.4642862091
 10
4.3928571482
 20
51.0357127075
 10
4.3928571482
 20
50.1785702362
 10
3.9642856293
 20
49.7500012665
 10
3.3214284925
 20
49.7500012665
 10
2.8928572569
 20
50.1785702362
  0
LWPOLYLINE
  5
30F
100
AcDbEntity
  8
0
100
AcDbPolyline
 62
250
  6
CONTINUOUS
 90
4
 70
0
 10
37.2752020503
 20
22.5585772882
 10
37.2936161056
 20
22.5439552825
 10
37.2982941193
 20
22.5401226824
 10
37.3
 20
22.5383430976
  0
LWPOLYLINE
  5
310
100
AcDbEntity
  8
0
100
AcDbPolyline
 62
250
  6
CONTINUOUS
 90
12
 70
0
 10
37.4827090903
 20
22.4197084988
 10
37.4732050789
 20
22.4383583296
 10
37.4618033963
 20
22.4559127063
 10
37.4486289617
 20
22.4721792994
 10
37.433826117
 20
22.4869798887
 10
37.4175570456
 20
22.5001523157
 10
37.3999999949
 20
22.5115522606
 10
37.3813473235
 20
22.5210548234
 10
37.3618033943
 20
22.528555892
 10
37.3415823347
 20
22.5339732833
 10
37.3209056907
 20
22.5372476433
 10
37.3
 20
22.5383430976
  0
LINE
  5
311
100
AcDbEntity
  8
0
100
AcDbLine
 62
7
  6
CONTINUOUS
 10
37.4977738467
 20
22.368894628
 11
37.497818321
 21
22.3685904777
  0
LWPOLYLINE
  5
312
100
AcDbEntity
  8
0
100
AcDbPolyline
 62
7
  6
CONTINUOUS
 90
10
 70
0
 10
37.4979617065
 20
22.3675842272
 10
37.4981923663
 20
22.3658799266
 10
37.4984966295
 20
22.3634418385
 10
37.4988123134
 20
22.3606171253
 10
37.4991200152
 20
22.3574536616
 10
37.4994104033
 20
22.3538829045
 10
37.4996539864
 20
22.3500918656
 10
37.4998575229
 20
22.3456156436
 10
37.4999754703
 20
22.3408957001
 10
37.4999920054
 20
22.3394537209
  0
LINE
  5
313
100
AcDbEntity
  8
0
100
AcDbLine
 62
7
  6
CONTINUOUS
 10
46.0541389301
 20
-31.653498
 11
46.0541459301
 21
-33.499993
  0
LINE
  5
314
100
AcDbEntity
  8
0
100
AcDbLine
 62
7
  6
CONTINUOUS
 10
46.6141669301
 20
-30.699867
 11
46.6141669301
 21
-33.499993
  0
LINE
  5
315
100
AcDbEntity
  8
0
100
AcDbLine
 62
7
  6
CONTINUOUS
 10
49.7189539301
 20
-30.69986
 11
49.7189539301
 21
-33.499986
  0
LINE
  5
316
100
AcDbEntity
  8
0
100
AcDbLine
 62
7
  6
CONTINUOUS
 10
41.8217849301
 20
-30.699867
 11
41.2027679301
 21
-32.627905
  0
LINE
  5
317
100
AcDbEntity
  8
0
100
AcDbLine
 62
7
  6
CONTINUOUS
 10
42.3818129301
 20
-30.699867
 11
41.4827819301
 21
-33.499993
  0
LWPOLYLINE
  5
318
100
AcDbEntity
  8
0
100
AcDbPolyline
 62
7
  6
CONTINUOUS
 90
7
 70
0
 43
0.3500000006
 10
0.3214285684
 20
49.7500012665
 10
-1.1785713937
 20
49.7500012665
 10
0.3214285684
 20
51.8928551788
 10
0.3214285684
 20
52.3214286804
 10
-0.1071428532
 20
52.750002182
 10
-0.7500000165
 20
52.750002182
 10
-1.1785713937
 20
52.1071441956
  0
LWPOLYLINE
  5
319
100
AcDbEntity
  8
0
100
AcDbPolyline
 62
7
  6
CONTINUOUS
 90
7
 70
0
 43
0.3500000006
 10
-2.0357142191
 20
49.7500012665
 10
-3.5357143936
 20
49.7500012665
 10
-2.0357142191
 20
51.8928551788
 10
-2.0357142191
 20
52.3214286804
 10
-2.464285738
 20
52.750002182
 10
-3.1071428747
 20
52.750002182
 10
-3.5357143936
 20
52.1071441956
  0
LINE
  5
31A
100
AcDbEntity
  8
0
100
AcDbLine
 62
7
  6
CONTINUOUS
 10
50.2712539301
 20
-31.217881
 11
50.2712609301
 21
-31.899275
  0
LINE
  5
31B
100
AcDbEntity
  8
0
100
AcDbLine
 62
250
  6
CONTINUOUS
 10
51.6292815281
 20
41.0
 11
51.6292815281
 21
35.9752167919
  0
LINE
  5
31C
100
AcDbEntity
  8
0
100
AcDbLine
 62
250
  6
CONTINUOUS
 10
51.6292815281
 20
-41.0
 11
51.6292815281
 21
-35.9752167919
  0
LINE
  5
31D
100
AcDbEntity
  8
0
100
AcDbLine
 62
7
  6
CONTINUOUS
 10
50.2790449301
 20
-32.417296
 11
50.2789819301
 21
-33.499986
  0
LINE
  5
31E
100
AcDbEntity
  8
0
100
AcDbLine
 62
7
  6
CONTINUOUS
 10
45.7675659301
 20
-30.699867
 11
45.2446729301
 21
-32.523409
  0
LINE
  5
31F
100
AcDbEntity
  8
0
100
AcDbLine
 62
7
  6
CONTINUOUS
 10
46.0541389301
 20
-31.653498
 11
45.5246729301
 21
-33.499986
  0
LWPOLYLINE
  5
320
100
AcDbEntity
  8
0
100
AcDbPolyline
 62
250
  6
CONTINUOUS
 90
22
 70
0
 10
54.012576903
 20
33.8022601024
 10
54.3397329055
 20
30.587271387
 10
54.6340941399
 20
27.3710058451
 10
54.8956606062
 20
24.1537399918
 10
55.1243885936
 20
20.9361998435
 10
55.3203218129
 20
17.71821141
 10
55.4835913966
 20
14.4986983788
 10
55.614240527
 20
11.2772835206
 10
55.7122260217
 20
8.0548897837
 10
55.7775494657
 20
4.8323896895
 10
55.8102113778
 20
1.6106409926
 10
55.8102112391
 20
-1.610667196
 10
55.7775490781
 20
-4.832415252
 10
55.712225508
 20
-8.0549128122
 10
55.6142399157
 20
-11.2773033759
 10
55.4835904904
 20
-14.498718179
 10
55.32032007
 20
-17.7182389462
 10
55.1243858166
 20
-20.9362382212
 10
54.8956574057
 20
-24.1537820469
 10
54.6340913957
 20
-27.3710410068
 10
54.3397312281
 20
-30.5872925236
 10
54.012576903
 20
-33.8022601024
  0
LWPOLYLINE
  5
321
100
AcDbEntity
  8
0
100
AcDbPolyline
 62
250
  6
CONTINUOUS
 90
34
 70
0
 10
54.012576903
 20
-33.8022601024
 10
53.9987369412
 20
-33.9093852937
 10
53.9803364289
 20
-34.0154097822
 10
53.9573753662
 20
-34.120333656
 10
53.9297921859
 20
-34.2243657036
 10
53.8976484552
 20
-34.3272972988
 10
53.8611288752
 20
-34.4285024607
 10
53.8202075669
 20
-34.5279659871
 10
53.7749104093
 20
-34.625703359
 10
53.725499741
 20
-34.72113472
 10
53.6719518281
 20
-34.8142452871
 10
53.6142904045
 20
-34.9050502034
 10
53.5528490097
 20
-34.9930145867
 10
53.4876042989
 20
-35.0781233156
 10
53.4185796169
 20
-35.1603919269
 10
53.3461785377
 20
-35.2393315942
 10
53.2703806408
 20
-35.3149228356
 10
53.1912063468
 20
-35.3871855745
 10
53.1091204911
 20
-35.4556901411
 10
53.0241057229
 20
-35.5204142703
 10
52.9361793931
 20
-35.5813806622
 10
52.8458583896
 20
-35.6382271242
 10
52.7531290661
 20
-35.6909291872
 10
52.658005069
 20
-35.7395117162
 10
52.5610442251
 20
-35.7836865304
 10
52.462233191
 20
-35.823428215
 10
52.3615853101
 20
-35.8587625117
 10
52.2596984403
 20
-35.8894779675
 10
52.156559743
 20
-35.9155464313
 10
52.0521820568
 20
-35.9369962871
 10
51.9472017549
 20
-35.9537008662
 10
51.8418309617
 20
-35.9656179869
 10
51.7358575527
 20
-35.9727899521
 10
51.6292815281
 20
-35.9752167919
  0
LINE
  5
322
100
AcDbEntity
  8
0
100
AcDbLine
 62
7
  6
CONTINUOUS
 10
47.8865289301
 20
-30.69986
 11
46.9875119301
 21
-33.499993
  0
LINE
  5
323
100
AcDbEntity
  8
0
100
AcDbLine
 62
7
  6
CONTINUOUS
 10
48.1665499301
 20
-31.571955
 11
47.8951529301
 21
-32.417303
  0
LINE
  5
324
100
AcDbEntity
  8
0
100
AcDbLine
 62
7
  6
CONTINUOUS
 10
47.7243319301
 20
-32.949324
 11
47.5475329301
 21
-33.499986
  0
LWPOLYLINE
  5
325
100
AcDbEntity
  8
0
100
AcDbPolyline
 62
250
  6
CONTINUOUS
 90
22
 70
0
 10
59.4698514984
 20
33.8918052244
 10
59.8034485858
 20
30.6684160445
 10
60.1035484838
 20
27.4436313406
 10
60.3701797961
 20
24.217783287
 10
60.6033402751
 20
20.991706861
 10
60.8031094137
 20
17.7652292262
 10
60.9695940842
 20
14.5371664992
 10
61.1028090513
 20
11.3071915301
 10
61.2027120909
 20
8.0762834717
 10
61.2692946104
 20
4.8452153831
 10
61.3025689581
 20
1.6148991046
 10
61.302568826
 20
-1.6149248198
 10
61.2692942229
 20
-4.845240456
 10
61.2027115071
 20
-8.076306004
 10
61.1028083487
 20
-11.3072108813
 10
60.9695931888
 20
-14.5371857971
 10
60.8031078892
 20
-17.7652562635
 10
60.6033377445
 20
-20.9917447497
 10
60.3701765725
 20
-24.2178249007
 10
60.1035454111
 20
-27.4436661608
 10
59.803446511
 20
-30.668436985
 10
59.4698514984
 20
-33.8918052244
  0
LINE
  5
326
100
AcDbEntity
  8
0
100
AcDbLine
 62
7
  6
CONTINUOUS
 10
61.4133734105
 20
7.1858824897
 11
61.4104032874
 21
7.3314391493
  0
LINE
  5
327
100
AcDbEntity
  8
0
100
AcDbLine
 62
7
  6
CONTINUOUS
 10
61.4023951428
 20
-6.0061250028
 11
61.3929252069
 21
-5.2505707839
  0
LINE
  5
328
100
AcDbEntity
  8
0
100
AcDbLine
 62
7
  6
CONTINUOUS
 10
61.3929252069
 20
-5.2505707839
 11
61.382144222
 21
-4.0533295616
  0
LINE
  5
329
100
AcDbEntity
  8
0
100
AcDbLine
 62
7
  6
CONTINUOUS
 10
61.382144222
 20
-4.0533295616
 11
61.3749050415
 21
-2.8041024905
  0
LINE
  5
32A
100
AcDbEntity
  8
0
100
AcDbLine
 62
7
  6
CONTINUOUS
 10
61.3749050415
 20
-2.8041024905
 11
61.3706567379
 21
-1.5219740689
  0
LINE
  5
32B
100
AcDbEntity
  8
0
100
AcDbLine
 62
7
  6
CONTINUOUS
 10
61.3706567379
 20
-1.5219740689
 11
61.3690096271
 21
0.2178524692
  0
LWPOLYLINE
  5
32C
100
AcDbEntity
  8
0
100
AcDbPolyline
 62
7
  6
CONTINUOUS
 90
5
 70
0
 10
61.4154607617
 20
-6.9743439883
 10
61.4155224747
 20
-6.9071471756
 10
61.4152649451
 20
-6.8422091901
 10
61.4146890007
 20
-6.7798779529
 10
61.4023951428
 20
-6.0061250028
  0
LINE
  5
32D
100
AcDbEntity
  8
0
100
AcDbLine
 62
7
  6
CONTINUOUS
 10
61.3690096271
 20
0.2178524692
 11
61.3717796272
 21
1.9529608624
  0
LINE
  5
32E
100
AcDbEntity
  8
0
100
AcDbLine
 62
7
  6
CONTINUOUS
 10
61.3717796272
 20
1.9529608624
 11
61.3769692575
 21
3.2244385755
  0
LINE
  5
32F
100
AcDbEntity
  8
0
100
AcDbLine
 62
7
  6
CONTINUOUS
 10
61.3769692575
 20
3.2244385755
 11
61.3853248298
 21
4.4595753959
  0
LWPOLYLINE
  5
330
100
AcDbEntity
  8
0
100
AcDbPolyline
 62
7
  6
CONTINUOUS
 90
6
 70
0
 10
61.4146890007
 20
6.7798779529
 10
61.4152649451
 20
6.8422091901
 10
61.4155224747
 20
6.9071471756
 10
61.4154607617
 20
6.9743439883
 10
61.4150806339
 20
7.0434428745
 10
61.4133734105
 20
7.1858824897
  0
LINE
  5
331
100
AcDbEntity
  8
0
100
AcDbLine
 62
7
  6
CONTINUOUS
 10
61.4143845743
 20
-7.1140805702
 11
61.4154607617
 21
-6.9743439883
  0
LINE
  5
332
100
AcDbEntity
  8
0
100
AcDbLine
 62
7
  6
CONTINUOUS
 10
61.3853248298
 20
4.4595753959
 11
61.3974139386
 21
5.633577319
  0
LWPOLYLINE
  5
333
100
AcDbEntity
  8
0
100
AcDbPolyline
 62
7
  6
CONTINUOUS
 90
3
 70
0
 10
61.3974139386
 20
5.633577319
 10
61.4078575634
 20
6.3687651319
 10
61.4146890007
 20
6.7798779529
  0
LWPOLYLINE
  5
334
100
AcDbEntity
  8
0
100
AcDbPolyline
 62
7
  6
CONTINUOUS
 90
3
 70
0
 10
61.4104032874
 20
-7.3314391493
 10
61.4120463148
 20
-7.2584643171
 10
61.4143845743
 20
-7.1140805702
  0
LWPOLYLINE
  5
335
100
AcDbEntity
  8
0
100
AcDbPolyline
 62
250
  6
CONTINUOUS
 90
34
 70
0
 10
59.4698514984
 20
-33.8918052244
 10
59.4232915393
 20
-34.2376379149
 10
59.3614867633
 20
-34.5810639111
 10
59.2845604107
 20
-34.9214116995
 10
59.1926671897
 20
-35.2580132178
 10
59.0859874591
 20
-35.5902137427
 10
58.9647256339
 20
-35.9173723021
 10
58.8291173175
 20
-36.2388554559
 10
58.6794309853
 20
-36.5540284062
 10
58.515962707
 20
-36.8622644229
 10
58.3390381167
 20
-37.1629558453
 10
58.1490027099
 20
-37.4555218372
 10
57.9462222688
 20
-37.739397527
 10
57.7310922678
 20
-38.0140313314
 10
57.5040370935
 20
-38.2788836464
 10
57.2655016291
 20
-38.533433784
 10
57.0159545538
 20
-38.7771843819
 10
56.7558852085
 20
-39.00966051
 10
56.4858023628
 20
-39.2304067507
 10
56.206236847
 20
-39.4389920255
 10
55.9177362762
 20
-39.6350108192
 10
55.6208625036
 20
-39.8180812576
 10
55.3162001179
 20
-39.9878452491
 10
55.0043438913
 20
-40.1439741528
 10
54.6858931194
 20
-40.2861674665
 10
54.3614641751
 20
-40.4141499865
 10
54.0316991081
 20
-40.5276688554
 10
53.6972533002
 20
-40.6264986542
 10
53.3587918833
 20
-40.7104457661
 10
53.0169680615
 20
-40.7793515661
 10
52.6724310852
 20
-40.8330855871
 10
52.3258484336
 20
-40.8715429705
 10
51.9779049586
 20
-40.8946475941
 10
51.6292815281
 20
-40.9023543978
  0
LWPOLYLINE
  5
336
100
AcDbEntity
  8
0
100
AcDbPolyline
 62
250
  6
CONTINUOUS
 90
31
 70
0
 10
59.4698503655
 20
-33.8918050955
 10
59.4456554296
 20
-33.9157913478
 10
59.4077397212
 20
-33.9381494413
 10
59.3561989932
 20
-33.9588229127
 10
59.2911634072
 20
-33.9777595528
 10
59.2127972049
 20
-33.9949115389
 10
59.1212982935
 20
-34.010235555
 10
59.0168977455
 20
-34.0236929017
 10
58.8998592155
 20
-34.0352495937
 10
58.7704782742
 20
-34.0448764454
 10
58.629081662
 20
-34.0525491451
 10
58.4760264639
 20
-34.058248316
 10
58.3116992075
 20
-34.0619595654
 10
58.1365148872
 20
-34.0636735208
 10
57.9509159157
 20
-34.0633858539
 10
57.7553710073
 20
-34.0610972909
 10
57.5503739938
 20
-34.0568136117
 10
57.3364425775
 20
-34.0505456341
 10
57.1141170236
 20
-34.0423091874
 10
56.8839587961
 20
-34.032125072
 10
56.6465491398
 20
-34.0200190072
 10
56.4024876122
 20
-34.0060215656
 10
56.1523905698
 20
-33.9901680966
 10
55.8968896109
 20
-33.9724986367
 10
55.6366299812
 20
-33.9530578088
 10
55.3722689439
 20
-33.9318947088
 10
55.1044741199
 20
-33.9090627824
 10
54.8339218021
 20
-33.8846196897
 10
54.5612952468
 20
-33.8586271595
 10
54.287282949
 20
-33.8311508337
 10
54.012576903
 20
-33.8022601015
  0
LWPOLYLINE
  5
337
100
AcDbEntity
  8
0
100
AcDbPolyline
 62
250
  6
CONTINUOUS
 90
31
 70
0
 10
59.4698514625
 20
33.8918052203
 10
59.4456565181
 20
33.9157914721
 10
59.4077407982
 20
33.9381495648
 10
59.3562000557
 20
33.9588230351
 10
59.2911644523
 20
33.9777596738
 10
59.2127982298
 20
33.9949116581
 10
59.1212992955
 20
34.0102356722
 10
59.0168987219
 20
34.0236930165
 10
58.8998601638
 20
34.0352497057
 10
58.7704791919
 20
34.0448765543
 10
58.6290825469
 20
34.0525492507
 10
58.4760273137
 20
34.058248418
 10
58.3117000201
 20
34.0619596635
 10
58.1365156608
 20
34.0636736147
 10
57.9509166486
 20
34.0633859433
 10
57.7553716979
 20
34.0610973757
 10
57.5503746407
 20
34.0568136915
 10
57.3364431794
 20
34.0505457088
 10
57.1141175796
 20
34.0423092568
 10
56.8839593053
 20
34.0321251359
 10
56.6465496017
 20
34.0200190654
 10
56.4024880264
 20
34.006021618
 10
56.1523909359
 20
33.9901681431
 10
55.896889929
 20
33.9724986773
 10
55.6366302515
 20
33.9530578433
 10
55.3722691668
 20
33.9318947372
 10
55.1044742962
 20
33.9090628046
 10
54.8339219324
 20
33.8846197057
 10
54.5612953324
 20
33.8586271694
 10
54.287282991
 20
33.8311508376
 10
54.012576903
 20
33.8022600994
  0
LINE
  5
338
100
AcDbEntity
  8
0
100
AcDbLine
 62
7
  6
CONTINUOUS
 10
-75.2966575795
 20
-41.0
 11
-77.1598466629
 21
-40.9023543978
  0
LWPOLYLINE
  5
339
100
AcDbEntity
  8
0
100
AcDbPolyline
 62
7
  6
CONTINUOUS
 90
10
 70
0
 43
0.3500000006
 10
-78.4609411926
 20
49.7500012665
 10
-77.6038032532
 20
50.6071437378
 10
-77.3895187683
 20
51.4642862091
 10
-77.3895187683
 20
52.3214286804
 10
-77.818087738
 20
52.750002182
 10
-78.4609411926
 20
52.750002182
 10
-78.8895192261
 20
52.3214286804
 10
-78.8895192261
 20
51.4642862091
 10
-78.4609411926
 20
51.0357127075
 10
-77.5323720703
 20
51.0357127075
  0
LWPOLYLINE
  5
33A
100
AcDbEntity
  8
0
100
AcDbPolyline
 62
250
  6
CONTINUOUS
 90
31
 70
0
 10
-77.3741159711
 20
-33.8918050955
 10
-77.6484023687
 20
-33.9157913478
 10
-77.9212691452
 20
-33.9381494413
 10
-78.1920271991
 20
-33.9588229127
 10
-78.4599927543
 20
-33.9777595528
 10
-78.7244890869
 20
-33.9949115389
 10
-78.9848482343
 20
-34.010235555
 10
-79.2404126819
 20
-34.0236929017
 10
-79.4905370238
 20
-34.0352495937
 10
-79.7345895926
 20
-34.0448764454
 10
-79.9719540545
 20
-34.0525491451
 10
-80.2020309661
 20
-34.058248316
 10
-80.424239288
 20
-34.0619595654
 10
-80.6380178524
 20
-34.0636735208
 10
-80.8428267798
 20
-34.0633858539
 10
-81.0381488431
 20
-34.0610972909
 10
-81.2234907732
 20
-34.0568136117
 10
-81.3983845051
 20
-34.0505456341
 10
-81.5623883597
 20
-34.0423091874
 10
-81.7150881596
 20
-34.032125072
 10
-81.8560982744
 20
-34.0200190072
 10
-81.9850625954
 20
-34.0060215656
 10
-82.1016554343
 20
-33.9901680966
 10
-82.205582346
 20
-33.9724986367
 10
-82.296580872
 20
-33.9530578088
 10
-82.3744212034
 20
-33.9318947088
 10
-82.4389067611
 20
-33.9090627824
 10
-82.4898746924
 20
-33.8846196897
 10
-82.5271962823
 20
-33.8586271595
 10
-82.5507772783
 20
-33.8311508337
 10
-82.5605581286
 20
-33.8022601015
  0
LINE
  5
33B
100
AcDbEntity
  8
0
100
AcDbLine
 62
7
  6
CONTINUOUS
 10
-82.7404480951
 20
-33.499979
 11
-82.5897565453
 21
-33.499979
  0
LINE
  5
33C
100
AcDbEntity
  8
0
100
AcDbLine
 62
250
  6
CONTINUOUS
 10
-75.2966575795
 20
-33.904109589
 11
-77.3741160309
 21
-33.8918052244
  0
LINE
  5
33D
100
AcDbEntity
  8
0
100
AcDbLine
 62
7
  6
CONTINUOUS
 10
-82.8490675779
 20
-32.3499536669
 11
-82.698422995
 21
-32.3499536669
  0
LINE
  5
33E
100
AcDbEntity
  8
0
100
AcDbLine
 62
7
  6
CONTINUOUS
 10
-82.9982362018
 20
-30.69986
 11
-82.8476560714
 21
-30.69986
  0
LWPOLYLINE
  5
33F
100
AcDbEntity
  8
0
100
AcDbPolyline
 62
7
  6
CONTINUOUS
 90
3
 70
0
 43
0.3500000006
 10
-79.8895104675
 20
50.0357124023
 10
-79.9609416504
 20
49.8214279175
 10
-80.1038040161
 20
49.5357122498
  0
LWPOLYLINE
  5
340
100
AcDbEntity
  8
0
100
AcDbPolyline
 62
7
  6
CONTINUOUS
 90
7
 70
0
 43
0.3500000006
 10
-92.9466611938
 20
1.5000001373
 10
-92.9466611938
 20
-0.0000003204
 10
-95.0895151062
 20
1.5000001373
 10
-95.5180840759
 20
1.5000001373
 10
-95.9466530457
 20
1.0714289017
 10
-95.9466530457
 20
0.4285709152
 10
-95.3037995911
 20
-0.0000003204
  0
LWPOLYLINE
  5
341
100
AcDbEntity
  8
0
100
AcDbPolyline
 62
7
  6
CONTINUOUS
 90
13
 70
0
 43
0.3500000006
 10
-94.6609461365
 20
-1.9285708809
 10
-94.8752306213
 20
-2.2142854156
 10
-95.5180840759
 20
-2.2142854156
 10
-95.9466530457
 20
-1.9285708809
 10
-95.9466530457
 20
-1.2857140274
 10
-95.5180840759
 20
-1.0000006256
 10
-94.8752306213
 20
-1.0000006256
 10
-94.6609461365
 20
-1.2857140274
 10
-94.232368103
 20
-0.8571427917
 10
-93.3752301636
 20
-0.8571427917
 10
-92.9466611938
 20
-1.2857140274
 10
-92.9466611938
 20
-1.9285708809
 10
-93.3752301636
 20
-2.3571432495
  0
LWPOLYLINE
  5
342
100
AcDbEntity
  8
0
100
AcDbPolyline
 62
7
  6
CONTINUOUS
 90
4
 70
0
 43
0.3500000006
 10
-82.9609425659
 20
50.1785702362
 10
-82.9609425659
 20
51.0357127075
 10
-82.5323735962
 20
51.4642862091
 10
-81.8895110779
 20
51.4642862091
  0
LWPOLYLINE
  5
343
100
AcDbEntity
  8
0
100
AcDbPolyline
 62
250
  6
CONTINUOUS
 90
22
 70
0
 10
-77.3741160309
 20
33.8918052244
 10
-77.6664152827
 20
30.6684160445
 10
-77.9294400548
 20
27.4436313406
 10
-78.163190347
 20
24.217783287
 10
-78.367638752
 20
20.991706861
 10
-78.5428126771
 20
17.7652292262
 10
-78.6887943448
 20
14.5371664992
 10
-78.805616485
 20
11.3071915301
 10
-78.8932463679
 20
8.0762834717
 10
-78.9516680262
 20
4.8452153831
 10
-78.9808761292
 20
1.6148991046
 10
-78.9808760076
 20
-1.6149248198
 10
-78.9516676871
 20
-4.845240456
 10
-78.893245921
 20
-8.076306004
 10
-78.805615956
 20
-11.3072108813
 10
-78.6887935572
 20
-14.5371857971
 10
-78.5428111485
 20
-17.7652562635
 10
-78.367636306
 20
-20.9917447497
 10
-78.1631875237
 20
-24.2178249007
 10
-77.9294376326
 20
-27.4436661608
 10
-77.6664138017
 20
-30.668436985
 10
-77.3741160309
 20
-33.8918052244
  0
LWPOLYLINE
  5
344
100
AcDbEntity
  8
0
100
AcDbPolyline
 62
7
  6
CONTINUOUS
 90
4
 70
0
 43
0.3500000006
 10
-93.3752301636
 20
-2.3571432495
 10
-94.232368103
 20
-2.3571432495
 10
-94.6609461365
 20
-1.9285708809
 10
-94.6609461365
 20
-1.2857140274
  0
LINE
  5
345
100
AcDbEntity
  8
0
100
AcDbLine
 62
250
  6
CONTINUOUS
 10
-77.2499393273
 20
-38.0140313314
 11
-77.1598466629
 21
-40.9023543978
  0
LINE
  5
346
100
AcDbEntity
  8
0
100
AcDbLine
 62
250
  6
CONTINUOUS
 10
-77.3741160309
 20
-33.8918052244
 11
-77.2499393273
 21
-38.0140313314
  0
LINE
  5
347
100
AcDbEntity
  8
0
100
AcDbLine
 62
250
  6
CONTINUOUS
 10
-77.1598466629
 20
40.9023543978
 11
-77.3741160309
 21
33.8918052244
  0
LINE
  5
348
100
AcDbEntity
  8
0
100
AcDbLine
 62
7
  6
CONTINUOUS
 10
-75.2966575795
 20
-41.0
 11
-75.2966575795
 21
-7.3314391493
  0
LINE
  5
349
100
AcDbEntity
  8
0
100
AcDbLine
 62
7
  6
CONTINUOUS
 10
-75.2966575795
 20
7.3314391493
 11
-75.2966575795
 21
41.0
  0
LWPOLYLINE
  5
34A
100
AcDbEntity
  8
0
100
AcDbPolyline
 62
7
  6
CONTINUOUS
 90
10
 70
0
 43
0.3500000006
 10
-79.9609416504
 20
50.2500014191
 10
-79.8895104675
 20
50.1071435852
 10
-79.8895104675
 20
50.0357124023
 10
-80.0323728333
 20
49.8928591003
 10
-80.1038040161
 20
49.8928591003
 10
-80.1752261353
 20
49.9642857513
 10
-80.1752261353
 20
50.0357124023
 10
-80.1038040161
 20
50.1785702362
 10
-80.0323728333
 20
50.2500014191
 10
-79.9609416504
 20
50.2500014191
  0
LINE
  5
34B
100
AcDbEntity
  8
0
100
AcDbLine
 62
250
  6
CONTINUOUS
 10
-75.2966575795
 20
33.904109589
 11
-77.3741160309
 21
33.8918052244
  0
LWPOLYLINE
  5
34C
100
AcDbEntity
  8
0
100
AcDbPolyline
 62
250
  6
CONTINUOUS
 90
31
 70
0
 10
-77.374116029
 20
33.8918052203
 10
-77.6484024456
 20
33.9157914721
 10
-77.9212692407
 20
33.9381495648
 10
-78.1920273125
 20
33.9588230351
 10
-78.4599928848
 20
33.9777596738
 10
-78.7244892337
 20
33.9949116581
 10
-78.9848483964
 20
34.0102356722
 10
-79.2404128581
 20
34.0236930165
 10
-79.4905372128
 20
34.0352497057
 10
-79.7345897929
 20
34.0448765543
 10
-79.9719542647
 20
34.0525492507
 10
-80.2020311845
 20
34.058248418
 10
-80.4242395129
 20
34.0619596635
 10
-80.6380180819
 20
34.0636736147
 10
-80.8428270121
 20
34.0633859433
 10
-81.0381490761
 20
34.0610973757
 10
-81.2234910049
 20
34.0568136915
 10
-81.3983847332
 20
34.0505457088
 10
-81.5623885822
 20
34.0423092568
 10
-81.7150883741
 20
34.0321251359
 10
-81.8560984788
 20
34.0200190654
 10
-81.9850627874
 20
34.006021618
 10
-82.1016556115
 20
33.9901681431
 10
-82.2055825061
 20
33.9724986773
 10
-82.2965810127
 20
33.9530578433
 10
-82.3744213223
 20
33.9318947372
 10
-82.4389068561
 20
33.9090628046
 10
-82.4898747613
 20
33.8846197057
 10
-82.5271963229
 20
33.8586271694
 10
-82.5507772884
 20
33.8311508376
 10
-82.5605581061
 20
33.8022600994
  0
LINE
  5
34D
100
AcDbEntity
  8
0
100
AcDbLine
 62
7
  6
CONTINUOUS
 10
-75.2966575795
 20
41.0
 11
-77.1598466629
 21
40.9023543978
  0
LWPOLYLINE
  5
34E
100
AcDbEntity
  8
0
100
AcDbPolyline
 62
7
  6
CONTINUOUS
 90
13
 70
0
 43
0.3500000006
 10
-82.5323735962
 20
51.4642862091
 10
-82.8180892639
 20
51.678570694
 10
-82.8180892639
 20
52.3214286804
 10
-82.5323735962
 20
52.750002182
 10
-81.8895110779
 20
52.750002182
 10
-81.6038044739
 20
52.3214286804
 10
-81.6038044739
 20
51.678570694
 10
-81.8895110779
 20
51.4642862091
 10
-81.4609421082
 20
51.0357127075
 10
-81.4609421082
 20
50.1785702362
 10
-81.8895110779
 20
49.7500012665
 10
-82.5323735962
 20
49.7500012665
 10
-82.9609425659
 20
50.1785702362
  0
ARC
  5
34F
100
AcDbEntity
  8
0
100
AcDbCircle
 62
7
  6
CONTINUOUS
 10
238.5
 20
0.0
 40
300.0
100
AcDbArc
 50
181.4003411461
 51
186.4890714501
  0
ARC
  5
350
100
AcDbEntity
  8
0
100
AcDbCircle
 62
7
  6
CONTINUOUS
 10
-238.5
 20
-0.0
 40
300.0
100
AcDbArc
 50
353.5109285499
 51
358.5996588539
  0
ARC
  5
351
100
AcDbEntity
  8
0
100
AcDbCircle
 62
7
  6
CONTINUOUS
 10
-238.5
 20
-0.0
 40
300.0
100
AcDbArc
 50
1.4003411461
 51
6.4890714501
  0
ARC
  5
352
100
AcDbEntity
  8
0
100
AcDbCircle
 62
7
  6
CONTINUOUS
 10
238.5
 20
0.0
 40
300.0
100
AcDbArc
 50
173.5109285499
 51
178.5996588539
  0
ARC
  5
353
100
AcDbEntity
  8
0
100
AcDbCircle
 62
7
  6
CONTINUOUS
 10
-51.6292815281
 20
-33.0
 40
8.0
100
AcDbArc
 50
186.4890714501
 51
270.0
  0
ARC
  5
354
100
AcDbEntity
  8
0
100
AcDbCircle
 62
7
  6
CONTINUOUS
 10
51.6292815281
 20
-33.0
 40
8.0
100
AcDbArc
 50
270.0
 51
353.5109285499
  0
ARC
  5
355
100
AcDbEntity
  8
0
100
AcDbCircle
 62
7
  6
CONTINUOUS
 10
51.6292815281
 20
33.0
 40
8.0
100
AcDbArc
 50
6.4890714501
 51
90.0
  0
ARC
  5
356
100
AcDbEntity
  8
0
100
AcDbCircle
 62
7
  6
CONTINUOUS
 10
-51.6292815281
 20
33.0
 40
8.0
100
AcDbArc
 50
90.0
 51
173.5109285499
  0
ARC
  5
357
100
AcDbEntity
  8
0
100
AcDbCircle
 62
7
  6
CONTINUOUS
 10
51.0303339301
 20
-31.558579
 40
0.8587214994
100
AcDbArc
 50
292.8428415932
 51
90.0
  0
ARC
  5
358
100
AcDbEntity
  8
0
100
AcDbCircle
 62
7
  6
CONTINUOUS
 10
50.9526039301
 20
-31.558579
 40
0.340698
100
AcDbArc
 50
270.0
 51
90.0
  0
ARC
  5
359
100
AcDbEntity
  8
0
100
AcDbCircle
 62
7
  6
CONTINUOUS
 10
265.8033424205
 20
0.0
 40
350.15
100
AcDbArc
 50
185.0299405253
 51
185.4900691439
  0
ARC
  5
35A
100
AcDbEntity
  8
0
100
AcDbCircle
 62
7
  6
CONTINUOUS
 10
265.8033424205
 20
0.0
 40
350.0
100
AcDbArc
 50
174.1003573038
 51
185.8996426962
  0
ARC
  5
35B
100
AcDbEntity
  8
0
100
AcDbCircle
 62
7
  6
CONTINUOUS
 10
-66.7966575795
 20
0.0
 40
11.0
100
AcDbArc
 50
142.3415379938
 51
217.6584620062
  0
ARC
  5
35C
100
AcDbEntity
  8
0
100
AcDbCircle
 62
7
  6
CONTINUOUS
 10
-76.8719989833
 20
-35.4098912259
 40
5.5000000001
100
AcDbArc
 50
185.8996503529
 51
267.0000012273
  0
ARC
  5
35D
100
AcDbEntity
  8
0
100
AcDbCircle
 62
7
  6
CONTINUOUS
 10
-76.8719989833
 20
35.4098912259
 40
5.5000000001
100
AcDbArc
 50
92.9999987727
 51
174.1003496471
  0
ARC
  5
35E
100
AcDbEntity
  8
0
100
AcDbCircle
 62
7
  6
CONTINUOUS
 10
-76.2966575795
 20
7.3314391493
 40
1.0
100
AcDbArc
 50
322.3415379938
 51
360.0
  0
ARC
  5
35F
100
AcDbEntity
  8
0
100
AcDbCircle
 62
7
  6
CONTINUOUS
 10
-76.2966575795
 20
-7.3314391493
 40
1.0
100
AcDbArc
 50
0.0
 51
37.6584620062
  0
ELLIPSE
  5
360
100
AcDbEntity
  8
0
100
AcDbEllipse
 62
7
  6
CONTINUOUS
 10
-37.3
 20
-22.3156790928
 30
0.0
 11
0.0
 21
-0.2000304656
 31
0.0
 40
0.9998476952
 41
4.7123889804
 42
6.2831853072
  0
ELLIPSE
  5
361
100
AcDbEntity
  8
0
100
AcDbEllipse
 62
7
  6
CONTINUOUS
 10
37.3
 20
-22.3156790928
 30
0.0
 11
-0.0
 21
0.2000304656
 31
0.0
 40
0.9998476952
 41
9.4247779608
 42
10.8897143853
  0
ELLIPSE
  5
362
100
AcDbEntity
  8
0
100
AcDbEllipse
 62
7
  6
CONTINUOUS
 10
-37.3
 20
22.3156790928
 30
0.0
 11
0.0
 21
-0.2000304656
 31
0.0
 40
0.9998476952
 41
9.4247779608
 42
10.8897143853
  0
ELLIPSE
  5
363
100
AcDbEntity
  8
0
100
AcDbEllipse
 62
7
  6
CONTINUOUS
 10
37.3
 20
22.3156790928
 30
0.0
 11
-0.0
 21
0.2000304656
 31
0.0
 40
0.9998476952
 41
4.7123889804
 42
6.2831853072
  0
ENDSEC
  0
SECTION
  2
OBJECTS
  0
DICTIONARY
  5
C
100
AcDbDictionary
280
0
281
1
  3
ACAD_GROUP
350
D
  3
ACAD_MLINESTYLE
350
17
  3
ACAD_LAYOUT
350
1A
  3
ACAD_PLOTSETTINGS
350
19
  3
ACAD_PLOTSTYLENAME
350
E
  0
DICTIONARY
  5
D
102
{ACAD_REACTORS
330
C
102
}
100
AcDbDictionary
280
0
281
1
  0
ACDBDICTIONARYWDFLT
  5
E
102
{ACAD_REACTORS
330
C
102
}
100
AcDbDictionary
281
1
  3
Normal
350
F
100
AcDbDictionaryWithDefault
340
F
  0
DICTIONARY
  5
17
102
{ACAD_REACTORS
330
C
102
}
100
AcDbDictionary
280
0
281
1
  3
Standard
350
18
  0
DICTIONARY
  5
19
102
{ACAD_REACTORS
330
C
102
}
100
AcDbDictionary
281
1
  0
DICTIONARY
  5
1A
102
{ACAD_REACTORS
330
C
102
}
100
AcDbDictionary
281
1
  3
Model
350
364
  3
Layout1
350
365
  0
ACDBPLACEHOLDER
  5
F
102
{ACAD_REACTORS
330
E
102
}
  0
MLINESTYLE
  5
18
102
{ACAD_REACTORS
330
17
102
}
100
AcDbMlineStyle
  2
STANDARD
 70
0
  3

 62
256
 51
90.0
 52
90.0
 71
2
 49
0.5
 62
256
  6
BYLAYER
 49
-0.5
 62
256
  6
BYLAYER
  0
LAYOUT
  5
364
102
{ACAD_REACTORS
330
1A
102
}
100
AcDbPlotSettings
  1

  2
none_device
  4
ISO_A4_(297.00_x_210.00_MM)
  6

 40
0.0
 41
0.0
 42
0.0
 43
0.0
 44
297.0
 45
210.0
 46
0.0
 47
0.0
 48
0.0
 49
0.0
140
0.0
141
0.0
142
1.0
143
1.0
 70
1024
 72
1
 73
0
 74
0
  7

 75
0
147
1.0
148
0.0
149
0.0
100
AcDbLayout
  1
Model
 70
0
 71
0
 10
0.0
 20
0.0
 11
297.0
 21
210.0
 12
0.0
 22
0.0
 32
0.0
 14
0.0
 24
0.0
 34
0.0
 15
0.0
 25
0.0
 35
0.0
146
0.0
 13
0.0
 23
0.0
 33
0.0
 16
1.0
 26
0.0
 36
0.0
 17
0.0
 27
1.0
 37
0.0
 76
0
330
214
345
0
346
0
  0
LAYOUT
  5
365
102
{ACAD_REACTORS
330
1A
102
}
100
AcDbPlotSettings
  1

  2
none_device
  4
ISO_A4_(297.00_x_210.00_MM)
  6

 40
0.0
 41
0.0
 42
0.0
 43
0.0
 44
297.0
 45
210.0
 46
0.0
 47
0.0
 48
0.0
 49
0.0
140
0.0
141
0.0
142
1.0
143
1.0
 70
0
 72
1
 73
0
 74
0
  7

 75
0
147
1.0
148
0.0
149
0.0
100
AcDbLayout
  1
Layout1
 70
0
 71
1
 10
0.0
 20
0.0
 11
297.0
 21
210.0
 12
0.0
 22
0.0
 32
0.0
 14
0.0
 24
0.0
 34
0.0
 15
0.0
 25
0.0
 35
0.0
146
0.0
 13
0.0
 23
0.0
 33
0.0
 16
1.0
 26
0.0
 36
0.0
 17
0.0
 27
1.0
 37
0.0
 76
0
330
215
345
0
346
0
  0
ENDSEC
  0
EOF
