  0
SECTION
  2
HEADER
  9
$ACADVER
  1
AC1024
  9
$DWGCODEPAGE
  3
ANSI_1252
  9
$EXTMAX
 10
297.0
 20
210.0
 30
0.0
  9
$EXTMIN
 10
0.0
 20
0.0
 30
0.0
  9
$LIMMIN
 10
0.0
 20
0.0
  9
$LIMMAX
 10
297.0
 20
210.0
  9
$VIEWCTR
 10
148.5
 20
105.0
  9
$VIEWSIZE
 40
210.0
  9
$CLAYER
  8
0
  9
$LTSCALE
 40
16.335
  9
$CELTYPE
  6
BYLAYER
  9
$DIMSCALE
 40
1.0
  9
$DIMASZ
 40
3.0
  9
$DIMEXO
 40
0.5
  9
$DIMDLI
 40
11.286
  9
$DIMEXE
 40
1.5
  9
$DIMCEN
 40
2.673
  9
$DIMLFAC
 40
1.0
  9
$DIMBLK
  1
_FILLED
  9
$DIMALT
 70
0
  9
$DIMALTF
 40
0.0393700787
  9
$DIMTXT
 40
3.0
  9
$DIMTOL
 70
1
  9
$DIMLIM
 70
0
  9
$DIMTFAC
 40
1.0
  9
$DIMTP
 40
0.01
  9
$DIMTM
 40
0.01
  9
$DIMGAP
 40
0.625
  9
$DIMDSEP
 70
44
  9
$AUNITS
 70
0
  9
$PDMODE
 70
3
  9
$PDSIZE
 40
3.0
  9
$HANDSEED
  5
353
  9
$TILEMODE
 70
1
  9
$MEASUREMENT
 70
1
  9
$INSUNITS
 70
4
  0
ENDSEC
  0
SECTION
  2
CLASSES
  0
CLASS
  1
ACDBDICTIONARYWDFLT
  2
AcDbDictionaryWithDefault
  3
AutoCAD 2000
 90
0
 91
1
280
0
281
0
  0
CLASS
  1
ACDBPLACEHOLDER
  2
AcDbPlaceHolder
  3
AutoCAD 2000
 90
0
 91
1
280
0
281
0
  0
CLASS
  1
LAYOUT
  2
AcDbLayout
  3
AutoCAD 2000
 90
0
 91
0
280
0
281
0
  0
ENDSEC
  0
SECTION
  2
TABLES
  0
TABLE
  2
VPORT
  5
8
100
AcDbSymbolTable
 70
2
  0
VPORT
  5
1F4
100
AcDbSymbolTableRecord
100
AcDbViewportTableRecord
  2
*ACTIVE
 70
0
 10
0.0
 20
0.0
 11
1.0
 21
1.0
 12
148.5
 22
105.0
 13
0.0
 23
0.0
 14
1.0
 24
1.0
 15
0.0
 25
0.0
 16
0.0
 26
0.0
 36
1.0
 17
0.0
 27
0.0
 37
0.0
 40
210.0
 41
1.4142857143
 42
50.0
 43
0.0
 44
0.0
 50
0.0
 51
0.0
 71
0
 72
100
 73
1
 74
1
 75
0
 76
0
 77
0
 78
0
  0
ENDTAB
  0
TABLE
  2
LTYPE
  5
5
100
AcDbSymbolTable
 70
6
  0
LTYPE
  5
14
100
AcDbSymbolTableRecord
100
AcDbLinetypeTableRecord
  2
BYBLOCK
 70
0
  3

 72
65
 73
0
 40
0.0
  0
LTYPE
  5
15
100
AcDbSymbolTableRecord
100
AcDbLinetypeTableRecord
  2
BYLAYER
 70
0
  3

 72
65
 73
0
 40
0.0
  0
LTYPE
  5
16
100
AcDbSymbolTableRecord
100
AcDbLinetypeTableRecord
  2
CONTINUOUS
 70
64
  3
Solid line
 72
65
 73
0
 40
0.0
  0
LTYPE
  5
1F5
100
AcDbSymbolTableRecord
100
AcDbLinetypeTableRecord
  2
CENTER
 70
64
  3
____ _ ____ _ ____ _ ____ _ ____ _ ____ _ ____
 72
65
 73
4
 40
0.6
 49
0.375
 74
0
 49
-0.075
 74
0
 49
0.075
 74
0
 49
-0.075
 74
0
  0
LTYPE
  5
1F6
100
AcDbSymbolTableRecord
100
AcDbLinetypeTableRecord
  2
HIDDEN
 70
64
  3
- - - - - - - - - - - - - - - - - - - -
 72
65
 73
2
 40
0.2
 49
0.1
 74
0
 49
-0.1
 74
0
  0
LTYPE
  5
1F7
100
AcDbSymbolTableRecord
100
AcDbLinetypeTableRecord
  2
PHANTOM
 70
64
  3
_____ _ _ _____ _ _ _____ _ _ _____
 72
65
 73
6
 40
0.8
 49
0.45
 74
0
 49
-0.05
 74
0
 49
0.1
 74
0
 49
-0.05
 74
0
 49
0.1
 74
0
 49
-0.05
 74
0
  0
LTYPE
  5
1F8
100
AcDbSymbolTableRecord
100
AcDbLinetypeTableRecord
  2
DOT
 70
64
  3
. . . . . . . . . . . . . . . . . . . .
 72
65
 73
2
 40
0.2
 49
0.1
 74
0
 49
-0.1
 74
0
  0
LTYPE
  5
1F9
100
AcDbSymbolTableRecord
100
AcDbLinetypeTableRecord
  2
DASHED
 70
64
  3
- - - - - - - - - - - - - - - - - - - -
 72
65
 73
2
 40
0.2
 49
0.1
 74
0
 49
-0.1
 74
0
  0
ENDTAB
  0
TABLE
  2
LAYER
  5
2
100
AcDbSymbolTable
 70
36
  0
LAYER
  5
10
100
AcDbSymbolTableRecord
100
AcDbLayerTableRecord
  2
0
 70
0
 62
7
  6
CONTINUOUS
370
-3
390
F
  0
LAYER
  5
1FA
100
AcDbSymbolTableRecord
100
AcDbLayerTableRecord
  2
DEFAULT_1
 70
0
 62
7
  6
CENTER
370
-3
390
F
  0
LAYER
  5
1FB
100
AcDbSymbolTableRecord
100
AcDbLayerTableRecord
  2
DEFAULT_2
 70
0
 62
7
  6
HIDDEN
370
-3
390
F
  0
LAYER
  5
1FC
100
AcDbSymbolTableRecord
100
AcDbLayerTableRecord
  2
DEFAULT_3
 70
0
 62
7
  6
PHANTOM
370
-3
390
F
  0
LAYER
  5
1FD
100
AcDbSymbolTableRecord
100
AcDbLayerTableRecord
  2
26216763_GEN
 70
0
 62
7
  6
CONTINUOUS
370
-3
390
F
  0
LAYER
  5
1FE
100
AcDbSymbolTableRecord
100
AcDbLayerTableRecord
  2
ASSI
 70
0
 62
7
  6
CONTINUOUS
370
-3
390
F
  0
LAYER
  5
1FF
100
AcDbSymbolTableRecord
100
AcDbLayerTableRecord
  2
COORDINATE
 70
0
 62
7
  6
CONTINUOUS
370
-3
390
F
  0
LAYER
  5
200
100
AcDbSymbolTableRecord
100
AcDbLayerTableRecord
  2
COORD_ORIGINE
 70
0
 62
7
  6
CONTINUOUS
370
-3
390
F
  0
LAYER
  5
201
100
AcDbSymbolTableRecord
100
AcDbLayerTableRecord
  2
COSMETICI
 70
0
 62
7
  6
CONTINUOUS
370
-3
390
F
  0
LAYER
  5
202
100
AcDbSymbolTableRecord
100
AcDbLayerTableRecord
  2
CURVE
 70
0
 62
7
  6
CONTINUOUS
370
-3
390
F
  0
LAYER
  5
203
100
AcDbSymbolTableRecord
100
AcDbLayerTableRecord
  2
IGES_SCRITTE
 70
0
 62
7
  6
CONTINUOUS
370
-3
390
F
  0
LAYER
  5
204
100
AcDbSymbolTableRecord
100
AcDbLayerTableRecord
  2
INTF_1
 70
0
 62
7
  6
CONTINUOUS
370
-3
390
F
  0
LAYER
  5
205
100
AcDbSymbolTableRecord
100
AcDbLayerTableRecord
  2
INTF_7
 70
0
 62
7
  6
CONTINUOUS
370
-3
390
F
  0
LAYER
  5
206
100
AcDbSymbolTableRecord
100
AcDbLayerTableRecord
  2
NOTE
 70
0
 62
7
  6
CONTINUOUS
370
-3
390
F
  0
LAYER
  5
207
100
AcDbSymbolTableRecord
100
AcDbLayerTableRecord
  2
PIANI
 70
0
 62
7
  6
CONTINUOUS
370
-3
390
F
  0
LAYER
  5
208
100
AcDbSymbolTableRecord
100
AcDbLayerTableRecord
  2
PIANI_DI_RIFERIMENTO
 70
0
 62
7
  6
CONTINUOUS
370
-3
390
F
  0
LAYER
  5
209
100
AcDbSymbolTableRecord
100
AcDbLayerTableRecord
  2
PIANI_ORIGINE
 70
0
 62
7
  6
CONTINUOUS
370
-3
390
F
  0
LAYER
  5
20A
100
AcDbSymbolTableRecord
100
AcDbLayerTableRecord
  2
PUNTI
 70
0
 62
7
  6
CONTINUOUS
370
-3
390
F
  0
LAYER
  5
20B
100
AcDbSymbolTableRecord
100
AcDbLayerTableRecord
  2
RGB__255__255__255__
 70
0
 62
7
  6
CONTINUOUS
370
-3
390
F
  0
LAYER
  5
20C
100
AcDbSymbolTableRecord
100
AcDbLayerTableRecord
  2
RGB____0____0____0__
 70
0
 62
7
  6
CONTINUOUS
370
-3
390
F
  0
LAYER
  5
20D
100
AcDbSymbolTableRecord
100
AcDbLayerTableRecord
  2
SIMBOLI
 70
0
 62
7
  6
CONTINUOUS
370
-3
390
F
  0
LAYER
  5
20E
100
AcDbSymbolTableRecord
100
AcDbLayerTableRecord
  2
SNAPLINE
 70
0
 62
7
  6
CONTINUOUS
370
-3
390
F
  0
LAYER
  5
20F
100
AcDbSymbolTableRecord
100
AcDbLayerTableRecord
  2
SUPERFICI
 70
0
 62
7
  6
CONTINUOUS
370
-3
390
F
  0
LAYER
  5
210
100
AcDbSymbolTableRecord
100
AcDbLayerTableRecord
  2
TRASH
 70
0
 62
7
  6
CONTINUOUS
370
-3
390
F
  0
LAYER
  5
211
100
AcDbSymbolTableRecord
100
AcDbLayerTableRecord
  2
XSEC_DATUMS
 70
0
 62
7
  6
CONTINUOUS
370
-3
390
F
  0
ENDTAB
  0
TABLE
  2
STYLE
  5
3
100
AcDbSymbolTable
 70
1
  0
STYLE
  5
11
100
AcDbSymbolTableRecord
100
AcDbTextStyleTableRecord
  2
STANDARD
 70
0
 40
0.0
 41
0.8
 50
0.0
 71
0
 42
0.2
  3
txt
  4

  0
STYLE
  5
212
100
AcDbSymbolTableRecord
100
AcDbTextStyleTableRecord
  2
TEXTSTYLE_1
 70
0
 40
0.0
 41
0.8
 50
0.0
 71
0
 42
0.2
  3
gdt
  4

  0
ENDTAB
  0
TABLE
  2
VIEW
  5
6
100
AcDbSymbolTable
 70
0
  0
ENDTAB
  0
TABLE
  2
UCS
  5
7
100
AcDbSymbolTable
 70
0
  0
ENDTAB
  0
TABLE
  2
APPID
  5
9
100
AcDbSymbolTable
 70
1
  0
APPID
  5
213
100
AcDbSymbolTableRecord
100
AcDbRegAppTableRecord
  2
ACAD
 70
0
  0
ENDTAB
  0
TABLE
  2
BLOCK_RECORD
  5
1
100
AcDbSymbolTable
 70
0
  0
BLOCK_RECORD
  5
214
100
AcDbSymbolTableRecord
100
AcDbBlockTableRecord
  2
*Model_Space
  0
BLOCK_RECORD
  5
215
100
AcDbSymbolTableRecord
100
AcDbBlockTableRecord
  2
*Paper_Space
  0
BLOCK_RECORD
  5
216
100
AcDbSymbolTableRecord
100
AcDbBlockTableRecord
  2
_FILLED
  0
BLOCK_RECORD
  5
217
100
AcDbSymbolTableRecord
100
AcDbBlockTableRecord
  2
*D0
  0
BLOCK_RECORD
  5
218
100
AcDbSymbolTableRecord
100
AcDbBlockTableRecord
  2
*D1
  0
BLOCK_RECORD
  5
219
100
AcDbSymbolTableRecord
100
AcDbBlockTableRecord
  2
*D2
  0
ENDTAB
  0
TABLE
  2
DIMSTYLE
  5
A
100
AcDbSymbolTable
 70
1
100
AcDbDimStyleTable
 71
0
  0
DIMSTYLE
105
21A
100
AcDbSymbolTableRecord
100
AcDbDimStyleTableRecord
  2
STANDARD
 70
0
  3

  4

 40
1.0
 41
3.0
 42
0.5
 43
0.38
 44
1.5
 45
0.0
 46
0.0
 47
0.01
 48
0.01
140
3.0
141
0.09
142
0.0
143
25.4
144
1.0
145
0.0
146
1.0
147
0.625
 71
1
 72
0
 73
0
 74
0
 75
0
 76
0
 77
1
 78
8
 79
2
170
0
171
1
172
0
173
0
174
0
175
0
176
0
177
0
178
0
270
2
179
2
271
2
272
2
273
2
274
2
275
0
280
0
281
0
282
0
283
1
284
8
285
0
286
0
287
3
288
0
340
11
278
44
341
216
342
216
343
216
344
216
  0
DIMSTYLE
105
21B
100
AcDbSymbolTableRecord
100
AcDbDimStyleTableRecord
  2
DIMSTYLE_1
 70
0
  3

  4

 40
1.0
 41
3.0
 42
0.5
 43
0.38
 44
1.5
 45
0.0
 46
0.0
 47
0.0
 48
0.0
140
3.0
141
0.09
142
0.0
143
25.4
144
1.0
145
0.0
146
1.0
147
0.75
 71
0
 72
0
 73
0
 74
0
 75
0
 76
0
 77
1
 78
8
 79
2
170
0
171
1
172
0
173
0
174
0
175
0
176
0
177
0
178
0
270
2
179
2
271
1
272
1
273
2
274
2
275
0
280
0
281
0
282
0
283
1
284
8
285
0
286
0
287
3
288
0
340
11
278
44
341
216
342
216
343
216
344
216
  0
DIMSTYLE
105
21C
100
AcDbSymbolTableRecord
100
AcDbDimStyleTableRecord
  2
DIMSTYLE_2
 70
0
  3

  4

 40
1.0
 41
3.0
 42
0.5
 43
0.38
 44
1.5
 45
0.0
 46
0.0
 47
0.0
 48
0.0
140
3.0
141
0.09
142
0.0
143
25.4
144
1.0
145
0.0
146
1.0
147
0.75
 71
0
 72
0
 73
0
 74
0
 75
0
 76
0
 77
1
 78
8
 79
2
170
0
171
1
172
0
173
0
174
0
175
0
176
0
177
0
178
0
270
2
179
2
271
2
272
2
273
2
274
2
275
0
280
0
281
0
282
0
283
1
284
8
285
0
286
0
287
3
288
0
340
11
278
44
341
216
342
216
343
216
344
216
  0
ENDTAB
  0
ENDSEC
  0
SECTION
  2
BLOCKS
  0
BLOCK
  5
20
100
AcDbEntity
  8
0
100
AcDbBlockBegin
  2
*Model_Space
 70
0
 10
0.0
 20
0.0
 30
0.0
  3
*Model_Space
  1

  0
ENDBLK
  5
21
100
AcDbEntity
  8
0
100
AcDbBlockEnd
  0
BLOCK
  5
1C
100
AcDbEntity
  8
0
100
AcDbBlockBegin
  2
*Paper_Space
 70
0
 10
0.0
 20
0.0
 30
0.0
  3
*Paper_Space
  1

  0
ENDBLK
  5
1D
100
AcDbEntity
  8
0
100
AcDbBlockEnd
  0
BLOCK
  5
21D
100
AcDbEntity
  8
0
100
AcDbBlockBegin
  2
_FILLED
 70
64
 10
0.0
 20
0.0
  3
_FILLED
  1

  0
SOLID
  5
21E
100
AcDbEntity
  8
0
  6
BYBLOCK
 62
0
100
AcDbTrace
 10
0.0
 20
0.0
 11
-1.0
 21
0.3166666667
 12
-1.0
 22
-0.3166666667
 13
-1.0
 23
-0.3166666667
  0
ENDBLK
  5
21F
100
AcDbEntity
  8
0
  6
BYBLOCK
 62
0
100
AcDbBlockEnd
  0
BLOCK
  5
220
100
AcDbEntity
  8
0
100
AcDbBlockBegin
 62
7
  6
CONTINUOUS
  2
*D0
 70
65
 10
0.0
 20
0.0
  3
*D0
  1

  0
LINE
  5
221
100
AcDbEntity
  8
0
100
AcDbLine
 62
7
  6
CONTINUOUS
 10
-86.4155382245
 20
7.4281915541
 11
-86.4155382245
 21
50.5
  0
LINE
  5
222
100
AcDbEntity
  8
0
100
AcDbLine
 62
7
  6
CONTINUOUS
 10
86.4155382245
 20
7.4281915541
 11
86.4155382245
 21
50.5
  0
LINE
  5
223
100
AcDbEntity
  8
0
100
AcDbLine
 62
7
  6
CONTINUOUS
 10
-86.4155382245
 20
49.0
 11
0.0
 21
49.0
  0
LINE
  5
224
100
AcDbEntity
  8
0
100
AcDbLine
 62
7
  6
CONTINUOUS
 10
86.4155382245
 20
49.0
 11
0.0
 21
49.0
  0
INSERT
  5
225
100
AcDbEntity
  8
0
100
AcDbBlockReference
 62
7
  6
CONTINUOUS
  2
_FILLED
 10
-86.4155382245
 20
49.0
 41
3.0
 42
3.0
 43
3.0
 50
180.0
  0
INSERT
  5
226
100
AcDbEntity
  8
0
100
AcDbBlockReference
 62
7
  6
CONTINUOUS
  2
_FILLED
 10
86.4155382245
 20
49.0
 41
3.0
 42
3.0
 43
3.0
  0
ENDBLK
  5
227
100
AcDbEntity
  8
0
  6
BYBLOCK
 62
0
100
AcDbBlockEnd
  0
BLOCK
  5
228
100
AcDbEntity
  8
0
100
AcDbBlockBegin
 62
7
  6
CONTINUOUS
  2
*D1
 70
65
 10
0.0
 20
0.0
  3
*D1
  1

  0
LINE
  5
229
100
AcDbEntity
  8
0
100
AcDbLine
 62
7
  6
CONTINUOUS
 10
-98.4684811886
 20
41.0
 11
-116.3684811495
 21
41.0
  0
LINE
  5
22A
100
AcDbEntity
  8
0
100
AcDbLine
 62
7
  6
CONTINUOUS
 10
-98.4684811886
 20
-41.0
 11
-116.3684811495
 21
-41.0
  0
LINE
  5
22B
100
AcDbEntity
  8
0
100
AcDbLine
 62
7
  6
CONTINUOUS
 10
-114.8684811495
 20
41.0
 11
-114.8684811495
 21
0.0
  0
LINE
  5
22C
100
AcDbEntity
  8
0
100
AcDbLine
 62
7
  6
CONTINUOUS
 10
-114.8684811495
 20
-41.0
 11
-114.8684811495
 21
0.0
  0
INSERT
  5
22D
100
AcDbEntity
  8
0
100
AcDbBlockReference
 62
7
  6
CONTINUOUS
  2
_FILLED
 10
-114.8684811495
 20
41.0
 41
3.0
 42
3.0
 43
3.0
 50
90.0
  0
INSERT
  5
22E
100
AcDbEntity
  8
0
100
AcDbBlockReference
 62
7
  6
CONTINUOUS
  2
_FILLED
 10
-114.8684811495
 20
-41.0
 41
3.0
 42
3.0
 43
3.0
 50
270.0
  0
ENDBLK
  5
22F
100
AcDbEntity
  8
0
  6
BYBLOCK
 62
0
100
AcDbBlockEnd
  0
BLOCK
  5
230
100
AcDbEntity
  8
0
100
AcDbBlockBegin
 62
7
  6
CONTINUOUS
  2
*D2
 70
65
 10
0.0
 20
0.0
  3
*D2
  1

  0
LINE
  5
231
100
AcDbEntity
  8
0
100
AcDbLine
 62
7
  6
CONTINUOUS
 10
-97.9684811886
 20
41.5
 11
-97.9684811886
 21
50.5
  0
LINE
  5
232
100
AcDbEntity
  8
0
100
AcDbLine
 62
7
  6
CONTINUOUS
 10
-106.8684811886
 20
0.5
 11
-106.8684811886
 21
50.5
  0
LINE
  5
233
100
AcDbEntity
  8
0
100
AcDbLine
 62
7
  6
CONTINUOUS
 10
-97.9684811886
 20
49.0
 11
-93.9684811886
 21
49.0
  0
LINE
  5
234
100
AcDbEntity
  8
0
100
AcDbLine
 62
7
  6
CONTINUOUS
 10
-93.9684811886
 20
49.0
 11
-102.4184811886
 21
49.0
  0
LINE
  5
235
100
AcDbEntity
  8
0
100
AcDbLine
 62
7
  6
CONTINUOUS
 10
-106.8684811886
 20
49.0
 11
-110.8684811886
 21
49.0
  0
LINE
  5
236
100
AcDbEntity
  8
0
100
AcDbLine
 62
7
  6
CONTINUOUS
 10
-110.8684811886
 20
49.0
 11
-102.4184811886
 21
49.0
  0
INSERT
  5
237
100
AcDbEntity
  8
0
100
AcDbBlockReference
 62
7
  6
CONTINUOUS
  2
_FILLED
 10
-97.9684811886
 20
49.0
 41
3.0
 42
3.0
 43
3.0
 50
180.0
  0
INSERT
  5
238
100
AcDbEntity
  8
0
100
AcDbBlockReference
 62
7
  6
CONTINUOUS
  2
_FILLED
 10
-106.8684811886
 20
49.0
 41
3.0
 42
3.0
 43
3.0
  0
ENDBLK
  5
239
100
AcDbEntity
  8
0
  6
BYBLOCK
 62
0
100
AcDbBlockEnd
  0
ENDSEC
  0
SECTION
  2
ENTITIES
  0
DIMENSION
  5
23A
100
AcDbEntity
  8
0
100
AcDbDimension
 62
7
  6
CONTINUOUS
  2
*D0
 10
86.4155382245
 20
49.0
 11
-5.25
 21
49.0
 70
160
 71
2
 72
2
 41
0.9
 42
172.831076449
  3
DIMSTYLE_1
100
AcDbAlignedDimension
 13
-86.4155382245
 23
6.9281915541
 14
86.4155382245
 24
6.9281915541
100
AcDbRotatedDimension
  0
DIMENSION
  5
23B
100
AcDbEntity
  8
0
100
AcDbDimension
 62
7
  6
CONTINUOUS
  2
*D1
 10
-114.8684811495
 20
-41.0
 11
-114.8684811495
 21
-2.3571428571
 70
160
 71
2
 72
2
 41
0.9
 42
82.0
  3
DIMSTYLE_2
100
AcDbAlignedDimension
 13
-97.9684811886
 23
41.0
 14
-97.9684811886
 24
-41.0
 50
270.0
100
AcDbRotatedDimension
  0
DIMENSION
  5
23C
100
AcDbEntity
  8
0
100
AcDbDimension
 62
7
  6
CONTINUOUS
  2
*D2
 10
-106.8684811886
 20
49.0
 11
-105.6327669028
 21
49.0
 70
160
 71
2
 72
2
 41
0.9
 42
8.9
  3
DIMSTYLE_2
100
AcDbAlignedDimension
 13
-97.9684811886
 23
41.0
 14
-106.8684811886
 24
0.0
 50
180.0
100
AcDbRotatedDimension
  0
LWPOLYLINE
  5
23D
100
AcDbEntity
  8
0
100
AcDbPolyline
 62
250
  6
CONTINUOUS
 90
22
 70
0
 10
-84.4698514984
 20
-33.8918052244
 10
-84.8034460986
 20
-30.6684411414
 10
-85.1035448242
 20
-27.4436728067
 10
-85.3701759946
 20
-24.2178323639
 10
-85.6033373732
 20
-20.9917503334
 10
-85.8031077774
 20
-17.7652582861
 10
-85.9695931961
 20
-14.5371856371
 10
-86.1028083235
 20
-11.3072115219
 10
-86.2027114328
 20
-8.0763088296
 10
-86.269294151
 20
-4.8452451093
 10
-86.3025687975
 20
-1.6149303733
 10
-86.3025689893
 20
1.6148930095
 10
-86.2692947068
 20
4.8452091395
 10
-86.202712237
 20
8.076277839
 10
-86.1028092195
 20
11.3071869007
 10
-85.9695942838
 20
14.537162201
 10
-85.8031097341
 20
17.7652235464
 10
-85.6033407914
 20
20.9916991306
 10
-85.3701804458
 20
24.2177748974
 10
-85.1035490991
 20
27.4436243658
 10
-84.8034489995
 20
30.6684118679
 10
-84.4698514984
 20
33.8918052244
  0
LINE
  5
23E
100
AcDbEntity
  8
0
100
AcDbLine
 62
7
  6
CONTINUOUS
 10
-86.4133734105
 20
-7.1858824897
 11
-86.4104032874
 21
-7.3314391493
  0
LINE
  5
23F
100
AcDbEntity
  8
0
100
AcDbLine
 62
7
  6
CONTINUOUS
 10
-86.4146890007
 20
6.7798779529
 11
-86.3986062402
 21
5.7276864389
  0
LINE
  5
240
100
AcDbEntity
  8
0
100
AcDbLine
 62
7
  6
CONTINUOUS
 10
-86.3986062402
 20
5.7276864389
 11
-86.3870633404
 21
4.6600672784
  0
LINE
  5
241
100
AcDbEntity
  8
0
100
AcDbLine
 62
7
  6
CONTINUOUS
 10
-86.3870633404
 20
4.6600672784
 11
-86.3787397582
 21
3.5374610322
  0
LINE
  5
242
100
AcDbEntity
  8
0
100
AcDbLine
 62
7
  6
CONTINUOUS
 10
-86.3787397582
 20
3.5374610322
 11
-86.3731911016
 21
2.3799343454
  0
LINE
  5
243
100
AcDbEntity
  8
0
100
AcDbLine
 62
7
  6
CONTINUOUS
 10
-86.3731911016
 20
2.3799343454
 11
-86.3694350584
 21
0.7990552405
  0
LWPOLYLINE
  5
244
100
AcDbEntity
  8
0
100
AcDbPolyline
 62
7
  6
CONTINUOUS
 90
4
 70
0
 10
-86.4154607617
 20
6.9743439883
 10
-86.4155224747
 20
6.9071471756
 10
-86.4152649451
 20
6.8422091901
 10
-86.4146890007
 20
6.7798779529
  0
LINE
  5
245
100
AcDbEntity
  8
0
100
AcDbLine
 62
7
  6
CONTINUOUS
 10
-86.3694350584
 20
0.7990552405
 11
-86.3694350677
 21
-0.7989894952
  0
LINE
  5
246
100
AcDbEntity
  8
0
100
AcDbLine
 62
7
  6
CONTINUOUS
 10
-86.3694350677
 20
-0.7989894952
 11
-86.3731912966
 21
-2.3799873663
  0
LINE
  5
247
100
AcDbEntity
  8
0
100
AcDbLine
 62
7
  6
CONTINUOUS
 10
-86.3731912966
 20
-2.3799873663
 11
-86.3787390219
 21
-3.5373383986
  0
LINE
  5
248
100
AcDbEntity
  8
0
100
AcDbLine
 62
7
  6
CONTINUOUS
 10
-86.3787390219
 20
-3.5373383986
 11
-86.3870606966
 21
-4.6597726442
  0
LWPOLYLINE
  5
249
100
AcDbEntity
  8
0
100
AcDbPolyline
 62
7
  6
CONTINUOUS
 90
6
 70
0
 10
-86.4146890007
 20
-6.7798779529
 10
-86.4152649451
 20
-6.8422091901
 10
-86.4155224747
 20
-6.9071471756
 10
-86.4154607617
 20
-6.9743439883
 10
-86.4150806339
 20
-7.0434428745
 10
-86.4133734105
 20
-7.1858824897
  0
LINE
  5
24A
100
AcDbEntity
  8
0
100
AcDbLine
 62
7
  6
CONTINUOUS
 10
-86.4143845743
 20
7.1140805702
 11
-86.4154607617
 21
6.9743439883
  0
LINE
  5
24B
100
AcDbEntity
  8
0
100
AcDbLine
 62
7
  6
CONTINUOUS
 10
-86.3870606966
 20
-4.6597726442
 11
-86.3986033866
 21
-5.727464719
  0
LINE
  5
24C
100
AcDbEntity
  8
0
100
AcDbLine
 62
7
  6
CONTINUOUS
 10
-86.3986033866
 20
-5.727464719
 11
-86.4146890007
 21
-6.7798779529
  0
LWPOLYLINE
  5
24D
100
AcDbEntity
  8
0
100
AcDbPolyline
 62
7
  6
CONTINUOUS
 90
3
 70
0
 10
-86.4104032874
 20
7.3314391493
 10
-86.4120463148
 20
7.2584643171
 10
-86.4143845743
 20
7.1140805702
  0
LWPOLYLINE
  5
24E
100
AcDbEntity
  8
0
100
AcDbPolyline
 62
250
  6
CONTINUOUS
 90
37
 70
0
 10
-79.012576903
 20
33.8022601024
 10
-79.0000786039
 20
33.9004396313
 10
-78.983737855
 20
33.997736371
 10
-78.9635546562
 20
34.0941503858
 10
-78.9394842029
 20
34.1898432568
 10
-78.9115712998
 20
34.2846535221
 10
-78.8799503609
 20
34.3780967193
 10
-78.8446028824
 20
34.4701624239
 10
-78.8055473681
 20
34.5608612629
 10
-78.7629737436
 20
34.6497404244
 10
-78.7168648846
 20
34.7367898795
 10
-78.6672379155
 20
34.8220199203
 10
-78.6143341345
 20
34.9050082787
 10
-78.5581369831
 20
34.9857446058
 10
-78.4986630199
 20
35.0642395586
 10
-78.4362032193
 20
35.1401024299
 10
-78.3707420787
 20
35.2133208527
 10
-78.3022951007
 20
35.2839075286
 10
-78.2311997667
 20
35.3515093941
 10
-78.1574426319
 20
35.4161116542
 10
-78.0810371411
 20
35.4777294447
 10
-78.0023611096
 20
35.5360546257
 10
-77.921403716
 20
35.5910705457
 10
-77.8381757818
 20
35.6427941817
 10
-77.7530875874
 20
35.6909678513
 10
-77.6661294721
 20
35.7355742938
 10
-77.5773110967
 20
35.7766310594
 10
-77.4870717236
 20
35.8139326847
 10
-77.3954026209
 20
35.8474607012
 10
-77.3023125206
 20
35.8772338126
 10
-77.2082668805
 20
35.9031023067
 10
-77.1132570049
 20
35.9250461134
 10
-77.0172915896
 20
35.9430854685
 10
-76.9208621798
 20
35.9571311042
 10
-76.8241326238
 20
35.9671532934
 10
-76.7269390732
 20
35.9731818488
 10
-76.6292815281
 20
35.9752167919
  0
LWPOLYLINE
  5
24F
100
AcDbEntity
  8
0
100
AcDbPolyline
 62
250
  6
CONTINUOUS
 90
37
 70
0
 10
-84.4698514984
 20
33.8918052244
 10
-84.4277543834
 20
34.2089044672
 10
-84.372839909
 20
34.5240265437
 10
-84.3052003878
 20
34.8366537301
 10
-84.2249508802
 20
35.1462689507
 10
-84.1322237276
 20
35.4523676804
 10
-84.0271668633
 20
35.7544579997
 10
-83.9099507712
 20
36.0520504629
 10
-83.7807709951
 20
36.3446490428
 10
-83.6398429525
 20
36.6317626952
 10
-83.4874026471
 20
36.9129156607
 10
-83.3237002962
 20
37.1876514704
 10
-83.1490018065
 20
37.4555225893
 10
-82.9635950463
 20
37.7160900975
 10
-82.7677865348
 20
37.9689257015
 10
-82.5618960048
 20
38.2136150265
 10
-82.3462619519
 20
38.4497575031
 10
-82.1212408266
 20
38.6769646718
 10
-81.8872035048
 20
38.8948611389
 10
-81.6445362592
 20
39.1030894115
 10
-81.393638935
 20
39.3013087187
 10
-81.1349244846
 20
39.4891926575
 10
-80.8688217592
 20
39.6664321593
 10
-80.595767185
 20
39.8327391235
 10
-80.3162030418
 20
39.9878440233
 10
-80.0305887008
 20
40.1314930214
 10
-79.739395166
 20
40.2634505446
 10
-79.4430965507
 20
40.3835013079
 10
-79.1421757537
 20
40.4914499151
 10
-78.837132358
 20
40.5871177001
 10
-78.5284771737
 20
40.6703448652
 10
-78.2167283032
 20
40.7409942681
 10
-77.9023890057
 20
40.7989547389
 10
-77.5859553392
 20
40.8441350951
 10
-77.2679404858
 20
40.8764610615
 10
-76.9488743364
 20
40.8958782185
 10
-76.6292815281
 20
40.9023543978
  0
LWPOLYLINE
  5
250
100
AcDbEntity
  8
0
100
AcDbPolyline
 62
250
  6
CONTINUOUS
 90
31
 70
0
 10
-84.4698505672
 20
33.8918051185
 10
-84.4456556301
 20
33.9157913706
 10
-84.4077399199
 20
33.9381494639
 10
-84.3561991894
 20
33.958822935
 10
-84.2911636004
 20
33.9777595748
 10
-84.2127973945
 20
33.9949115605
 10
-84.121298479
 20
34.0102355762
 10
-84.0168979264
 20
34.0236929224
 10
-83.8998593913
 20
34.0352496137
 10
-83.7704784444
 20
34.0448764648
 10
-83.6290818261
 20
34.0525491639
 10
-83.4760266215
 20
34.0582483341
 10
-83.3116993582
 20
34.0619595828
 10
-83.1365150306
 20
34.0636735374
 10
-82.9509160515
 20
34.0633858696
 10
-82.7553711352
 20
34.0610973058
 10
-82.5503741136
 20
34.0568136257
 10
-82.3364426888
 20
34.0505456471
 10
-82.1141171263
 20
34.0423091995
 10
-81.88395889
 20
34.0321250832
 10
-81.6465492249
 20
34.0200190173
 10
-81.4024876884
 20
34.0060215747
 10
-81.152390637
 20
33.9901681047
 10
-80.8968896692
 20
33.9724986439
 10
-80.6366300306
 20
33.9530578149
 10
-80.3722689845
 20
33.9318947139
 10
-80.104474152
 20
33.9090627865
 10
-79.8339218257
 20
33.8846196927
 10
-79.5612952623
 20
33.8586271616
 10
-79.2872829565
 20
33.8311508348
 10
-79.012576903
 20
33.8022601017
  0
LWPOLYLINE
  5
251
100
AcDbEntity
  8
0
100
AcDbPolyline
 62
250
  6
CONTINUOUS
 90
31
 70
0
 10
-84.4698514625
 20
-33.8918052203
 10
-84.4456565181
 20
-33.9157914721
 10
-84.4077407982
 20
-33.9381495648
 10
-84.3562000557
 20
-33.9588230351
 10
-84.2911644523
 20
-33.9777596738
 10
-84.2127982298
 20
-33.9949116581
 10
-84.1212992955
 20
-34.0102356722
 10
-84.0168987219
 20
-34.0236930165
 10
-83.8998601638
 20
-34.0352497057
 10
-83.7704791919
 20
-34.0448765543
 10
-83.6290825469
 20
-34.0525492507
 10
-83.4760273137
 20
-34.058248418
 10
-83.3117000201
 20
-34.0619596635
 10
-83.1365156608
 20
-34.0636736147
 10
-82.9509166486
 20
-34.0633859433
 10
-82.7553716979
 20
-34.0610973757
 10
-82.5503746407
 20
-34.0568136915
 10
-82.3364431794
 20
-34.0505457088
 10
-82.1141175796
 20
-34.0423092568
 10
-81.8839593053
 20
-34.0321251359
 10
-81.6465496017
 20
-34.0200190654
 10
-81.4024880264
 20
-34.006021618
 10
-81.1523909359
 20
-33.9901681431
 10
-80.896889929
 20
-33.9724986773
 10
-80.6366302515
 20
-33.9530578433
 10
-80.3722691668
 20
-33.9318947372
 10
-80.1044742962
 20
-33.9090628046
 10
-79.8339219324
 20
-33.8846197057
 10
-79.5612953324
 20
-33.8586271694
 10
-79.287282991
 20
-33.8311508376
 10
-79.012576903
 20
-33.8022600994
  0
LWPOLYLINE
  5
252
100
AcDbEntity
  8
0
100
AcDbPolyline
 62
250
  6
CONTINUOUS
 90
22
 70
0
 10
-79.012576903
 20
-33.8022601024
 10
-79.3397309308
 20
-30.5872964262
 10
-79.6340909223
 20
-27.3710472083
 10
-79.8956568775
 20
-24.1537889394
 10
-80.1243854198
 20
-20.9362431969
 10
-80.3203199258
 20
-17.7182403899
 10
-80.4835905254
 20
-14.4987174663
 10
-80.6142399579
 20
-11.2773034611
 10
-80.7122254839
 20
-8.0549150756
 10
-80.7775490152
 20
-4.8324193373
 10
-80.8102112103
 20
-1.6106721787
 10
-80.8102114108
 20
1.6106354697
 10
-80.7775495528
 20
4.8323840181
 10
-80.7122261279
 20
8.0548847208
 10
-80.6142406446
 20
11.2772794573
 10
-80.4835915644
 20
14.4986946451
 10
-80.3203221366
 20
17.7182063185
 10
-80.124389112
 20
20.9361927267
 10
-79.8956612048
 20
24.1537321753
 10
-79.6340946534
 20
27.3709993157
 10
-79.3397332194
 20
30.5872674643
 10
-79.012576903
 20
33.8022601024
  0
LINE
  5
253
100
AcDbEntity
  8
0
100
AcDbLine
 62
250
  6
CONTINUOUS
 10
-76.6292815281
 20
41.0
 11
-76.6292815281
 21
35.9752167919
  0
LINE
  5
254
100
AcDbEntity
  8
0
100
AcDbLine
 62
250
  6
CONTINUOUS
 10
-76.6292815281
 20
-41.0
 11
-76.6292815281
 21
-35.9752167919
  0
LWPOLYLINE
  5
255
100
AcDbEntity
  8
0
100
AcDbPolyline
 62
250
  6
CONTINUOUS
 90
19
 70
0
 10
-62.5
 20
-23.5547687789
 10
-62.4980973365
 20
-23.5770602741
 10
-62.4924038289
 20
-23.5991821085
 10
-62.482962812
 20
-23.6209659209
 10
-62.4698461408
 20
-23.642245924
 10
-62.4531536453
 20
-23.662860163
 10
-62.4330123719
 20
-23.6826517479
 10
-62.4095756137
 20
-23.701470053
 10
-62.3830217425
 20
-23.7191718615
 10
-62.3535528551
 20
-23.7356224519
 10
-62.3213932329
 20
-23.7506966266
 10
-62.2867876326
 20
-23.7642796648
 10
-62.2499994253
 20
-23.7762681939
 10
-62.2113085945
 20
-23.786570976
 10
-62.1710096012
 20
-23.7951096036
 10
-62.1294091406
 20
-23.8018190957
 10
-62.0868238153
 20
-23.806648391
 10
-62.043577726
 20
-23.8095607375
 10
-62.0
 20
-23.8105339721
  0
LWPOLYLINE
  5
256
100
AcDbEntity
  8
0
100
AcDbPolyline
 62
250
  6
CONTINUOUS
 90
19
 70
0
 10
-62.5
 20
-22.6970009566
 10
-62.4980974209
 20
-22.7236509303
 10
-62.4924041258
 20
-22.7501083713
 10
-62.4829633873
 20
-22.7761715479
 10
-62.4698469782
 20
-22.8016446955
 10
-62.4531546792
 20
-22.8263308256
 10
-62.4330135701
 20
-22.8500333564
 10
-62.409576962
 20
-22.8725694156
 10
-62.3830231933
 20
-22.8937700443
 10
-62.3535543658
 20
-22.9134729194
 10
-62.3213947615
 20
-22.9315279311
 10
-62.2867891297
 20
-22.947797934
 10
-62.2500008405
 20
-22.9621587895
 10
-62.2113098753
 20
-22.9745012407
 10
-62.1710106974
 20
-22.9847314364
 10
-62.1294100112
 20
-22.9927712776
 10
-62.0868244255
 20
-22.9985595351
 10
-62.043578044
 20
-23.0020523128
 10
-62.0
 20
-23.0032230805
  0
LINE
  5
257
100
AcDbEntity
  8
0
100
AcDbLine
 62
250
  6
CONTINUOUS
 10
-62.5
 20
-22.3383694048
 11
-62.4997873887
 21
-22.3474044126
  0
LWPOLYLINE
  5
258
100
AcDbEntity
  8
0
100
AcDbPolyline
 62
250
  6
CONTINUOUS
 90
5
 70
0
 10
-62.4995531404
 20
-22.3517957464
 10
-62.4989043787
 20
-22.3592719171
 10
-62.4956295185
 20
-22.3799454171
 10
-62.4902112995
 20
-22.4001634014
 10
-62.482709085
 20
-22.4197043575
  0
LINE
  5
259
100
AcDbEntity
  8
0
100
AcDbLine
 62
250
  6
CONTINUOUS
 10
-63.7
 20
31.3656274742
 11
-63.7
 21
-31.355216572
  0
LWPOLYLINE
  5
25A
100
AcDbEntity
  8
0
100
AcDbPolyline
 62
250
  6
CONTINUOUS
 90
18
 70
0
 10
-62.0
 20
23.0029737069
 10
-62.0016012793
 20
22.9711324788
 10
-62.0060918734
 20
22.9391350725
 10
-62.0134717822
 20
22.9071175298
 10
-62.0239791636
 20
22.8752205254
 10
-62.0373758597
 20
22.8436058996
 10
-62.0529473969
 20
22.8124545516
 10
-62.0707837492
 20
22.7820490255
 10
-62.0907949427
 20
22.7524527197
 10
-62.1119965807
 20
22.7235829579
 10
-62.1346671028
 20
22.6954670579
 10
-62.1585280696
 20
22.668653655
 10
-62.1817597665
 20
22.643806106
 10
-62.2044240676
 20
22.620891769
 10
-62.2264590988
 20
22.6003723754
 10
-62.2458595226
 20
22.5831668707
 10
-62.262065213
 20
22.5692770791
 10
-62.2756362961
 20
22.5582248818
  0
LINE
  5
25B
100
AcDbEntity
  8
0
100
AcDbLine
 62
250
  6
CONTINUOUS
 10
-62.5
 20
22.3383735586
 11
-62.4997618211
 21
22.3479676248
  0
LWPOLYLINE
  5
25C
100
AcDbEntity
  8
0
100
AcDbPolyline
 62
250
  6
CONTINUOUS
 90
5
 70
0
 10
-62.4995270158
 20
22.3521948238
 10
-62.4989043787
 20
22.3592760706
 10
-62.4956295187
 20
22.3799495702
 10
-62.4902113001
 20
22.4001675542
 10
-62.482709086
 20
22.4197085101
  0
LWPOLYLINE
  5
25D
100
AcDbEntity
  8
0
100
AcDbPolyline
 62
250
  6
CONTINUOUS
 90
19
 70
0
 10
-62.5
 20
22.6966459465
 10
-62.4980973751
 20
22.7233335612
 10
-62.492403966
 20
22.7498222831
 10
-62.4829630815
 20
22.7759104051
 10
-62.4698465423
 20
22.8014012237
 10
-62.4531541572
 20
22.8260987613
 10
-62.4330129848
 20
22.8498093408
 10
-62.409576326
 20
22.8723504201
 10
-62.3830225363
 20
22.8935526759
 10
-62.3535537063
 20
22.9132555747
 10
-62.3213941108
 20
22.9313091757
 10
-62.2867885041
 20
22.9475760819
 10
-62.2500002582
 20
22.9619332791
 10
-62.2113093548
 20
22.9742714871
 10
-62.1710102553
 20
22.9844967918
 10
-62.1294096624
 20
22.9925321471
 10
-62.0868241829
 20
22.9983166519
 10
-62.0435779185
 20
23.0018060207
 10
-62.0
 20
23.0029737069
  0
LWPOLYLINE
  5
25E
100
AcDbEntity
  8
0
100
AcDbPolyline
 62
250
  6
CONTINUOUS
 90
19
 70
0
 10
-62.5
 20
23.5541150673
 10
-62.4980973585
 20
23.5764135923
 10
-62.4924039114
 20
23.5985424206
 10
-62.4829629852
 20
23.6203331388
 10
-62.4698464268
 20
23.6416199069
 10
-62.4531540571
 20
23.6622407193
 10
-62.4330129119
 20
23.682038638
 10
-62.4095762739
 20
23.7008629885
 10
-62.3830225071
 20
23.718570505
 10
-62.3535537003
 20
23.7350264208
 10
-62.3213941268
 20
23.7501054953
 10
-62.2867885386
 20
23.7636929665
 10
-62.2500003066
 20
23.7756854232
 10
-62.2113094105
 20
23.7859915947
 10
-62.1710103111
 20
23.7945330435
 10
-62.1294097126
 20
23.8012447625
 10
-62.0868242224
 20
23.8060756705
 10
-62.0435779411
 20
23.808989001
 10
-62.0
 20
23.8099625812
  0
LWPOLYLINE
  5
25F
100
AcDbEntity
  8
0
100
AcDbPolyline
 62
250
  6
CONTINUOUS
 90
12
 70
0
 10
-62.482709086
 20
22.4197085101
 10
-62.4732050722
 20
22.4383583429
 10
-62.4618033868
 20
22.4559127211
 10
-62.4486289488
 20
22.4721793156
 10
-62.4338261003
 20
22.4869799056
 10
-62.4175570256
 20
22.5001523321
 10
-62.3999999723
 20
22.5115522753
 10
-62.3813472996
 20
22.5210548355
 10
-62.3618033716
 20
22.5285559006
 10
-62.3415823166
 20
22.533973288
 10
-62.3209056802
 20
22.5372476448
 10
-62.3
 20
22.5383430976
  0
LWPOLYLINE
  5
260
100
AcDbEntity
  8
0
100
AcDbPolyline
 62
250
  6
CONTINUOUS
 90
12
 70
0
 10
-62.482709085
 20
-22.4197043575
 10
-62.4732050707
 20
-22.4383541906
 10
-62.4618033847
 20
-22.455908569
 10
-62.448628946
 20
-22.4721751636
 10
-62.4338260968
 20
-22.4869757537
 10
-62.4175570213
 20
-22.5001481802
 10
-62.3999999664
 20
-22.5115481238
 10
-62.3813472919
 20
-22.5210506842
 10
-62.3618033633
 20
-22.5285517487
 10
-62.3415823096
 20
-22.5339691351
 10
-62.320905676
 20
-22.5372434912
 10
-62.3
 20
-22.5383389438
  0
LWPOLYLINE
  5
261
100
AcDbEntity
  8
0
100
AcDbPolyline
 62
7
  6
CONTINUOUS
 90
11
 70
0
 10
-62.4978990022
 20
-22.3680301201
 10
-62.4979406675
 20
-22.3677356237
 10
-62.4981400428
 20
-22.3662786308
 10
-62.4984157139
 20
-22.364117239
 10
-62.4987112301
 20
-22.3615645526
 10
-62.4990062934
 20
-22.3586863551
 10
-62.4992950169
 20
-22.3553975429
 10
-62.4995531404
 20
-22.3517957464
 10
-62.4997873887
 20
-22.3474044126
 10
-62.4999428084
 20
-22.3426741376
 10
-62.4999945045
 20
-22.3391367189
  0
LINE
  5
262
100
AcDbEntity
  8
0
100
AcDbLine
 62
7
  6
CONTINUOUS
 10
-62.5
 20
23.5541150536
 11
-62.5
 21
-23.5547687658
  0
LINE
  5
263
100
AcDbEntity
  8
0
100
AcDbLine
 62
250
  6
CONTINUOUS
 10
-62.3
 20
22.5383430976
 11
-62.3
 21
22.5157095584
  0
LINE
  5
264
100
AcDbEntity
  8
0
100
AcDbLine
 62
250
  6
CONTINUOUS
 10
-62.3
 20
-22.5157095584
 11
-62.3
 21
-22.5383389438
  0
LINE
  5
265
100
AcDbEntity
  8
0
100
AcDbLine
 62
250
  6
CONTINUOUS
 10
-62.0
 20
23.8099625811
 11
-62.0
 21
23.0029737069
  0
LINE
  5
266
100
AcDbEntity
  8
0
100
AcDbLine
 62
250
  6
CONTINUOUS
 10
-62.0
 20
-23.0032230805
 11
-62.0
 21
-23.8105339721
  0
LWPOLYLINE
  5
267
100
AcDbEntity
  8
0
100
AcDbPolyline
 62
250
  6
CONTINUOUS
 90
17
 70
0
 10
-62.5
 20
-23.5547687789
 10
-62.5007274371
 20
-23.6440044922
 10
-62.5029497574
 20
-23.736960723
 10
-62.5067261049
 20
-23.8336351917
 10
-62.5121147357
 20
-23.9339183638
 10
-62.5191715415
 20
-24.0379141639
 10
-62.5279485246
 20
-24.1459400751
 10
-62.5384984989
 20
-24.2579964426
 10
-62.5508683523
 20
-24.3740752875
 10
-62.5650925115
 20
-24.4944812564
 10
-62.5812108541
 20
-24.6191884588
 10
-62.5992572655
 20
-24.748212968
 10
-62.6192432169
 20
-24.8819220979
 10
-62.641193201
 20
-25.0202465355
 10
-62.6651229743
 20
-25.1632436415
 10
-62.6910129412
 20
-25.3114706686
 10
-62.7188839872
 20
-25.4648292409
  0
LWPOLYLINE
  5
268
100
AcDbEntity
  8
0
100
AcDbPolyline
 62
250
  6
CONTINUOUS
 90
20
 70
0
 10
-62.0
 20
-23.8105339721
 10
-62.0008923606
 20
-23.8956968091
 10
-62.0040669229
 20
-23.9842898455
 10
-62.009523687
 20
-24.0763599358
 10
-62.0171879328
 20
-24.1719024072
 10
-62.0271343803
 20
-24.2710115656
 10
-62.0395871897
 20
-24.3738840936
 10
-62.054564049
 20
-24.4805661566
 10
-62.0720472702
 20
-24.5910983683
 10
-62.0922079493
 20
-24.7056723264
 10
-62.1150709999
 20
-24.8243047903
 10
-62.1406115085
 20
-24.9470556869
 10
-62.1689258302
 20
-25.0741841659
 10
-62.2000462707
 20
-25.2056586358
 10
-62.2339405244
 20
-25.3415721604
 10
-62.2706080301
 20
-25.4823762616
 10
-62.3101157777
 20
-25.628002408
 10
-62.3523967772
 20
-25.7785619565
 10
-62.3972494974
 20
-25.9347859121
 10
-62.4448801457
 20
-26.0966479467
  0
LWPOLYLINE
  5
269
100
AcDbEntity
  8
0
100
AcDbPolyline
 62
7
  6
CONTINUOUS
 90
11
 70
0
 10
-62.4999995656
 20
22.3379798644
 10
-62.499929305
 20
22.3432347247
 10
-62.4997618211
 20
22.3479676248
 10
-62.4995270158
 20
22.3521948238
 10
-62.499250857
 20
22.3559345193
 10
-62.4989561562
 20
22.3591991784
 10
-62.4986631549
 20
22.3619954822
 10
-62.4983837618
 20
22.3643745376
 10
-62.4981357042
 20
22.3663090556
 10
-62.4979469487
 20
22.3676895518
 10
-62.4978213172
 20
22.3685697824
  0
LINE
  5
26A
100
AcDbEntity
  8
0
100
AcDbLine
 62
250
  6
CONTINUOUS
 10
-63.1152082698
 20
-27.5728561146
 11
-63.2361295452
 21
-28.3943843554
  0
LINE
  5
26B
100
AcDbEntity
  8
0
100
AcDbLine
 62
250
  6
CONTINUOUS
 10
-63.2361295452
 20
-28.3943843554
 11
-63.3638058012
 21
-29.2303440826
  0
LINE
  5
26C
100
AcDbEntity
  8
0
100
AcDbLine
 62
250
  6
CONTINUOUS
 10
-63.3638058012
 20
-29.2303440826
 11
-63.4965256493
 21
-30.0782296886
  0
LINE
  5
26D
100
AcDbEntity
  8
0
100
AcDbLine
 62
250
  6
CONTINUOUS
 10
-63.4965256493
 20
-30.0782296886
 11
-63.7
 21
-31.3552165691
  0
LWPOLYLINE
  5
26E
100
AcDbEntity
  8
0
100
AcDbPolyline
 62
250
  6
CONTINUOUS
 90
5
 70
0
 10
-62.9638126584
 20
-26.7072706927
 10
-63.0029575432
 20
-26.9123436054
 10
-63.0411383138
 20
-27.1250464611
 10
-63.0786111276
 20
-27.3452147494
 10
-63.1152082698
 20
-27.5728561146
  0
LWPOLYLINE
  5
26F
100
AcDbEntity
  8
0
100
AcDbPolyline
 62
250
  6
CONTINUOUS
 90
3
 70
0
 10
-62.7188839872
 20
-25.4648292409
 10
-62.780399263
 20
-25.7880268053
 10
-62.8139960762
 20
-25.9586660918
  0
LWPOLYLINE
  5
270
100
AcDbEntity
  8
0
100
AcDbPolyline
 62
250
  6
CONTINUOUS
 90
18
 70
0
 10
-62.2756854079
 20
-22.5581900009
 10
-62.2621399154
 20
-22.5692251084
 10
-62.2459767562
 20
-22.5830846443
 10
-62.2266697054
 20
-22.6002163282
 10
-62.2047449878
 20
-22.6206315154
 10
-62.182116798
 20
-22.643494071
 10
-62.1587761689
 20
-22.6684421558
 10
-62.1347320674
 20
-22.6954687585
 10
-62.1119255895
 20
-22.7237747094
 10
-62.0906892703
 20
-22.7527214937
 10
-62.0706905746
 20
-22.7823324673
 10
-62.0528729926
 20
-22.8127406935
 10
-62.0373161271
 20
-22.8438992873
 10
-62.0239403752
 20
-22.8755078788
 10
-62.0134504184
 20
-22.9073960598
 10
-62.0060811505
 20
-22.9394061615
 10
-62.0015976777
 20
-22.9713938183
 10
-62.0
 20
-23.0032230805
  0
LWPOLYLINE
  5
271
100
AcDbEntity
  8
0
100
AcDbPolyline
 62
250
  6
CONTINUOUS
 90
4
 70
0
 10
-62.3
 20
-22.5383389438
 10
-62.2983790907
 20
-22.5400799108
 10
-62.2938049955
 20
-22.5438290986
 10
-62.2756854079
 20
-22.5581900009
  0
LWPOLYLINE
  5
272
100
AcDbEntity
  8
0
100
AcDbPolyline
 62
250
  6
CONTINUOUS
 90
19
 70
0
 10
-62.8160766243
 20
25.9679466379
 10
-62.750802348
 20
25.6331434477
 10
-62.7209626894
 20
25.4748735135
 10
-62.6930505946
 20
25.3217187667
 10
-62.6670864724
 20
25.173565774
 10
-62.6430564177
 20
25.0305415379
 10
-62.6209746295
 20
24.8920464783
 10
-62.6008293329
 20
24.7580037198
 10
-62.5826051168
 20
24.6285019045
 10
-62.5662956915
 20
24.5031896471
 10
-62.5518728811
 20
24.3820408215
 10
-62.5393052093
 20
24.2650913982
 10
-62.5285669465
 20
24.1520828968
 10
-62.5196164085
 20
24.0430190997
 10
-62.5124071809
 20
23.9379040605
 10
-62.5068946302
 20
23.836479376
 10
-62.5030266003
 20
23.7386609008
 10
-62.5007471179
 20
23.6445386565
 10
-62.5
 20
23.5541150673
  0
LWPOLYLINE
  5
273
100
AcDbEntity
  8
0
100
AcDbPolyline
 62
250
  6
CONTINUOUS
 90
6
 70
0
 10
-63.1152310263
 20
27.5730142453
 10
-63.0793432634
 20
27.3487385175
 10
-63.0424222611
 20
27.1311753251
 10
-63.0046401927
 20
26.9203161075
 10
-62.9657131758
 20
26.7160852068
 10
-62.8160766243
 20
25.9679466379
  0
LINE
  5
274
100
AcDbEntity
  8
0
100
AcDbLine
 62
250
  6
CONTINUOUS
 10
-63.7
 20
31.3656274713
 11
-63.4297335183
 21
29.6596224617
  0
LINE
  5
275
100
AcDbEntity
  8
0
100
AcDbLine
 62
250
  6
CONTINUOUS
 10
-63.4297335183
 20
29.6596224617
 11
-63.2991998189
 21
28.8137448996
  0
LWPOLYLINE
  5
276
100
AcDbEntity
  8
0
100
AcDbPolyline
 62
250
  6
CONTINUOUS
 90
3
 70
0
 10
-63.2991998189
 20
28.8137448996
 10
-63.1747574956
 20
27.9831330687
 10
-63.1152310263
 20
27.5730142453
  0
LINE
  5
277
100
AcDbEntity
  8
0
100
AcDbLine
 62
250
  6
CONTINUOUS
 10
-62.8139960762
 20
-25.9586660918
 11
-62.9638126584
 21
-26.7072706927
  0
LINE
  5
278
100
AcDbEntity
  8
0
100
AcDbLine
 62
250
  6
CONTINUOUS
 10
-62.8715450489
 20
-27.6246499668
 11
-63.0432058337
 21
-28.4356070748
  0
LINE
  5
279
100
AcDbEntity
  8
0
100
AcDbLine
 62
250
  6
CONTINUOUS
 10
-63.0432058337
 20
-28.4356070748
 11
-63.2236507127
 21
-29.260564127
  0
LINE
  5
27A
100
AcDbEntity
  8
0
100
AcDbLine
 62
250
  6
CONTINUOUS
 10
-63.2236507127
 20
-29.260564127
 11
-63.4117447764
 21
-30.0967599184
  0
LWPOLYLINE
  5
27B
100
AcDbEntity
  8
0
100
AcDbPolyline
 62
250
  6
CONTINUOUS
 90
3
 70
0
 10
-63.4117447764
 20
-30.0967599184
 10
-63.6029483872
 20
-30.935004684
 10
-63.7
 20
-31.355216572
  0
LWPOLYLINE
  5
27C
100
AcDbEntity
  8
0
100
AcDbPolyline
 62
250
  6
CONTINUOUS
 90
5
 70
0
 10
-62.6573083769
 20
-26.8061211353
 10
-62.71258751
 20
-27.0002931642
 10
-62.7663059697
 20
-27.2015873331
 10
-62.819291816
 20
-27.4097410631
 10
-62.8715450489
 20
-27.6246499668
  0
LINE
  5
27D
100
AcDbEntity
  8
0
100
AcDbLine
 62
250
  6
CONTINUOUS
 10
-62.4448801457
 20
-26.0966479467
 11
-62.6573083769
 21
-26.8061211353
  0
LWPOLYLINE
  5
27E
100
AcDbEntity
  8
0
100
AcDbPolyline
 62
250
  6
CONTINUOUS
 90
4
 70
0
 10
-62.2756362961
 20
22.5582248818
 10
-62.2937914417
 20
22.5438413199
 10
-62.2983755043
 20
22.5400863237
 10
-62.3
 20
22.5383430976
  0
LINE
  5
27F
100
AcDbEntity
  8
0
100
AcDbLine
 62
250
  6
CONTINUOUS
 10
-62.6599850319
 20
26.8142801566
 11
-62.447818822
 21
26.1053464499
  0
LWPOLYLINE
  5
280
100
AcDbEntity
  8
0
100
AcDbPolyline
 62
250
  6
CONTINUOUS
 90
20
 70
0
 10
-62.447818822
 20
26.1053464499
 10
-62.4001884873
 20
25.9436748233
 10
-62.3553402887
 20
25.7877309468
 10
-62.3130486252
 20
25.6374758392
 10
-62.2734887427
 20
25.4920550555
 10
-62.2367167194
 20
25.3513342926
 10
-62.2026764773
 20
25.2154091165
 10
-62.1713750274
 20
25.0837825541
 10
-62.1428381405
 20
24.9563468976
 10
-62.117040046
 20
24.8331546942
 10
-62.093910443
 20
24.713955596
 10
-62.0734728789
 20
24.5986824173
 10
-62.0557038064
 20
24.4873318042
 10
-62.0404622823
 20
24.3797510631
 10
-62.0277683542
 20
24.2758960734
 10
-62.0176019746
 20
24.1757284494
 10
-62.0097620579
 20
24.0791053571
 10
-62.0041815756
 20
23.9859504258
 10
-62.0009275563
 20
23.8962515895
 10
-62.0
 20
23.8099625811
  0
LWPOLYLINE
  5
281
100
AcDbEntity
  8
0
100
AcDbPolyline
 62
250
  6
CONTINUOUS
 90
5
 70
0
 10
-62.8715772872
 20
27.6246499668
 10
-62.8203021411
 20
27.4129046583
 10
-62.7680917041
 20
27.2072011904
 10
-62.7149459762
 20
27.0076440195
 10
-62.6599850319
 20
26.8142801566
  0
LINE
  5
282
100
AcDbEntity
  8
0
100
AcDbLine
 62
250
  6
CONTINUOUS
 10
-63.7
 20
31.3656274742
 11
-63.5068881263
 21
30.523632014
  0
LINE
  5
283
100
AcDbEntity
  8
0
100
AcDbLine
 62
250
  6
CONTINUOUS
 10
-63.5068881263
 20
30.523632014
 11
-63.3172397944
 21
29.6839610271
  0
LINE
  5
284
100
AcDbEntity
  8
0
100
AcDbLine
 62
250
  6
CONTINUOUS
 10
-63.3172397944
 20
29.6839610271
 11
-63.1321995486
 21
28.8494647598
  0
LWPOLYLINE
  5
285
100
AcDbEntity
  8
0
100
AcDbPolyline
 62
250
  6
CONTINUOUS
 90
3
 70
0
 10
-63.1321995486
 20
28.8494647598
 10
-62.956345566
 20
28.0295208186
 10
-62.8715772872
 20
27.6246499668
  0
LWPOLYLINE
  5
286
100
AcDbEntity
  8
0
100
AcDbPolyline
 62
7
  6
CONTINUOUS
 90
3
 70
0
 43
0.3500000006
 10
-5.2499999027
 20
51.8928551788
 10
-4.3928571482
 20
52.750002182
 10
-4.3928571482
 20
49.7500012665
  0
LINE
  5
287
100
AcDbEntity
  8
0
100
AcDbLine
 62
250
  6
CONTINUOUS
 10
63.1152116462
 20
-27.5728556384
 11
63.0645245124
 21
-27.5840477625
  0
LINE
  5
288
100
AcDbEntity
  8
0
100
AcDbLine
 62
250
  6
CONTINUOUS
 10
63.0645245124
 20
-27.5840477625
 11
62.9838807983
 21
-27.6013696721
  0
LWPOLYLINE
  5
289
100
AcDbEntity
  8
0
100
AcDbPolyline
 62
250
  6
CONTINUOUS
 90
3
 70
0
 10
62.9838807983
 20
-27.6013696721
 10
62.8998651085
 20
-27.6188685879
 10
62.8715450489
 20
-27.6246499506
  0
LINE
  5
28A
100
AcDbEntity
  8
0
100
AcDbLine
 62
7
  6
CONTINUOUS
 10
-76.6292815281
 20
-41.0
 11
76.6292815281
 21
-41.0
  0
LINE
  5
28B
100
AcDbEntity
  8
0
100
AcDbLine
 62
250
  6
CONTINUOUS
 10
76.6292815281
 20
-40.9023543978
 11
-76.6292815281
 21
-40.9023543978
  0
LWPOLYLINE
  5
28C
100
AcDbEntity
  8
0
100
AcDbPolyline
 62
250
  6
CONTINUOUS
 90
37
 70
0
 10
-76.6292815281
 20
-40.9023543978
 10
-76.9488745972
 20
-40.8958782065
 10
-77.2679409115
 20
-40.8764610246
 10
-77.5859558335
 20
-40.8441350318
 10
-77.9023894334
 20
-40.7989546663
 10
-78.2167285715
 20
-40.740994211
 10
-78.5284773105
 20
-40.6703448292
 10
-78.8371324251
 20
-40.5871176768
 10
-79.1421757777
 20
-40.4914499009
 10
-79.4430965712
 20
-40.3835012918
 10
-79.7393952475
 20
-40.2634505002
 10
-80.0305888785
 20
-40.1314929262
 10
-80.3162032861
 20
-39.9878438828
 10
-80.5957674406
 20
-39.8327389616
 10
-80.8688220006
 20
-39.6664319902
 10
-81.1349247065
 20
-39.4891924857
 10
-81.3936391304
 20
-39.3013085511
 10
-81.6445364241
 20
-39.103089254
 10
-81.8872036587
 20
-38.8948609777
 10
-82.1212409982
 20
-38.6769644803
 10
-82.3462621559
 20
-38.4497572622
 10
-82.561896243
 20
-38.2136147274
 10
-82.7677868122
 20
-37.9689253298
 10
-82.9635953623
 20
-37.7160896431
 10
-83.1490021394
 20
-37.4555220709
 10
-83.3237006149
 20
-37.1876509272
 10
-83.4874029365
 20
-36.9129151166
 10
-83.639843215
 20
-36.6317621492
 10
-83.7807712364
 20
-36.344648488
 10
-83.9099509929
 20
-36.0520498978
 10
-84.027167068
 20
-35.7544574131
 10
-84.132223927
 20
-35.452367023
 10
-84.2249510709
 20
-35.1462682101
 10
-84.3052005436
 20
-34.8366530007
 10
-84.3728400092
 20
-34.5240259583
 10
-84.4277544277
 20
-34.2089041248
 10
-84.4698514984
 20
-33.8918052244
  0
LWPOLYLINE
  5
28D
100
AcDbEntity
  8
0
100
AcDbPolyline
 62
250
  6
CONTINUOUS
 90
37
 70
0
 10
-76.6292815281
 20
-35.9752167919
 10
-76.7269447309
 20
-35.9731813154
 10
-76.8241425342
 20
-35.9671522256
 10
-76.9208749379
 20
-35.9571295011
 10
-77.0173053276
 20
-35.9430833351
 10
-77.1132703178
 20
-35.9250434486
 10
-77.2082797519
 20
-35.9030990925
 10
-77.3023253955
 20
-35.8772300213
 10
-77.3954154829
 20
-35.8474563145
 10
-77.4870845606
 20
-35.8139276954
 10
-77.5773239056
 20
-35.7766254619
 10
-77.6661422409
 20
-35.7355680806
 10
-77.7531002808
 20
-35.6909610214
 10
-77.838188357
 20
-35.6427867332
 10
-77.9214161378
 20
-35.5910624774
 10
-78.0023733431
 20
-35.5360459455
 10
-78.0810491724
 20
-35.4777201364
 10
-78.1574544262
 20
-35.4161017257
 10
-78.2312112259
 20
-35.3514989349
 10
-78.3023060761
 20
-35.2838966751
 10
-78.3707524721
 20
-35.2133096946
 10
-78.4362130213
 20
-35.1400909984
 10
-78.498672249
 20
-35.0642278645
 10
-78.5581456299
 20
-34.9857326805
 10
-78.614342196
 20
-34.9049961564
 10
-78.6672453894
 20
-34.8220076401
 10
-78.716871768
 20
-34.7367774757
 10
-78.7629800373
 20
-34.6497279206
 10
-78.8055530692
 20
-34.5608486793
 10
-78.8446079918
 20
-34.4701497841
 10
-78.8799548953
 20
-34.3780840463
 10
-78.9115753354
 20
-34.2846403794
 10
-78.9394877564
 20
-34.1898296673
 10
-78.9635575813
 20
-34.0941377493
 10
-78.9837399512
 20
-33.9977265466
 10
-79.0000797251
 20
-33.900434019
 10
-79.012576903
 20
-33.8022601024
  0
LINE
  5
28E
100
AcDbEntity
  8
0
100
AcDbLine
 62
250
  6
CONTINUOUS
 10
-62.9561266303
 20
-27.6072090819
 11
-62.8715450489
 21
-27.6246499686
  0
LINE
  5
28F
100
AcDbEntity
  8
0
100
AcDbLine
 62
250
  6
CONTINUOUS
 10
-63.0381687686
 20
-27.5897699357
 11
-62.9561266303
 21
-27.6072090819
  0
LWPOLYLINE
  5
290
100
AcDbEntity
  8
0
100
AcDbPolyline
 62
250
  6
CONTINUOUS
 90
3
 70
0
 10
-63.1152082668
 20
-27.572856115
 10
-63.0902309373
 20
-27.5784038443
 10
-63.0381687686
 20
-27.5897699357
  0
LINE
  5
291
100
AcDbEntity
  8
0
100
AcDbLine
 62
250
  6
CONTINUOUS
 10
76.6292815281
 20
-35.9752167919
 11
-76.6292815281
 21
-35.9752167919
  0
LINE
  5
292
100
AcDbEntity
  8
0
100
AcDbLine
 62
7
  6
CONTINUOUS
 10
71.9875119301
 20
-33.499993
 11
72.5475329301
 21
-33.499986
  0
LINE
  5
293
100
AcDbEntity
  8
0
100
AcDbLine
 62
7
  6
CONTINUOUS
 10
69.9646659301
 20
-33.499993
 11
70.5246729301
 21
-33.499986
  0
LINE
  5
294
100
AcDbEntity
  8
0
100
AcDbLine
 62
7
  6
CONTINUOUS
 10
67.7551509301
 20
-33.5
 11
68.3151719301
 21
-33.499993
  0
LINE
  5
295
100
AcDbEntity
  8
0
100
AcDbLine
 62
7
  6
CONTINUOUS
 10
76.3290309301
 20
-33.499986
 11
76.9598079301
 21
-33.499979
  0
LINE
  5
296
100
AcDbEntity
  8
0
100
AcDbLine
 62
7
  6
CONTINUOUS
 10
65.9227399301
 20
-33.5
 11
66.4827819301
 21
-33.499993
  0
LINE
  5
297
100
AcDbEntity
  8
0
100
AcDbLine
 62
7
  6
CONTINUOUS
 10
68.8751789301
 20
-33.499993
 11
69.4351999301
 21
-33.499993
  0
LINE
  5
298
100
AcDbEntity
  8
0
100
AcDbLine
 62
7
  6
CONTINUOUS
 10
71.0541459301
 20
-33.499993
 11
71.6141669301
 21
-33.499993
  0
LINE
  5
299
100
AcDbEntity
  8
0
100
AcDbLine
 62
7
  6
CONTINUOUS
 10
74.7189539301
 20
-33.499986
 11
75.2789819301
 21
-33.499986
  0
LINE
  5
29A
100
AcDbEntity
  8
0
100
AcDbLine
 62
7
  6
CONTINUOUS
 10
73.7855809301
 20
-33.499986
 11
74.3456089301
 21
-33.499993
  0
LINE
  5
29B
100
AcDbEntity
  8
0
100
AcDbLine
 62
7
  6
CONTINUOUS
 10
72.7243319301
 20
-32.949324
 11
73.6087889301
 21
-32.949324
  0
LINE
  5
29C
100
AcDbEntity
  8
0
100
AcDbLine
 62
7
  6
CONTINUOUS
 10
72.8951529301
 20
-32.417303
 11
73.4379609301
 21
-32.417303
  0
LINE
  5
29D
100
AcDbEntity
  8
0
100
AcDbLine
 62
7
  6
CONTINUOUS
 10
75.2790449301
 20
-32.417296
 11
75.7678199301
 21
-32.417303
  0
LINE
  5
29E
100
AcDbEntity
  8
0
100
AcDbLine
 62
7
  6
CONTINUOUS
 10
75.2712609301
 20
-31.899275
 11
75.9526039301
 21
-31.899275
  0
LINE
  5
29F
100
AcDbEntity
  8
0
100
AcDbLine
 62
250
  6
CONTINUOUS
 10
63.7
 20
-31.355216572
 11
-63.7
 21
-31.355216572
  0
LINE
  5
2A0
100
AcDbEntity
  8
0
100
AcDbLine
 62
7
  6
CONTINUOUS
 10
75.2712539301
 20
-31.217881
 11
75.9526039301
 21
-31.217881
  0
LINE
  5
2A1
100
AcDbEntity
  8
0
100
AcDbLine
 62
7
  6
CONTINUOUS
 10
65.0237159301
 20
-30.699867
 11
65.5837439301
 21
-30.699867
  0
LINE
  5
2A2
100
AcDbEntity
  8
0
100
AcDbLine
 62
7
  6
CONTINUOUS
 10
66.8217849301
 20
-30.699867
 11
67.3818129301
 21
-30.699867
  0
LINE
  5
2A3
100
AcDbEntity
  8
0
100
AcDbLine
 62
7
  6
CONTINUOUS
 10
67.7551579301
 20
-30.699867
 11
68.3151789301
 21
-30.699867
  0
LINE
  5
2A4
100
AcDbEntity
  8
0
100
AcDbLine
 62
7
  6
CONTINUOUS
 10
68.8751789301
 20
-30.699867
 11
69.7217799301
 21
-30.699867
  0
LINE
  5
2A5
100
AcDbEntity
  8
0
100
AcDbLine
 62
7
  6
CONTINUOUS
 10
70.7675659301
 20
-30.699867
 11
71.6141669301
 21
-30.699867
  0
LINE
  5
2A6
100
AcDbEntity
  8
0
100
AcDbLine
 62
7
  6
CONTINUOUS
 10
72.8865289301
 20
-30.69986
 11
73.4465779301
 21
-30.69986
  0
LINE
  5
2A7
100
AcDbEntity
  8
0
100
AcDbLine
 62
7
  6
CONTINUOUS
 10
74.7189539301
 20
-30.69986
 11
76.0303339301
 21
-30.69986
  0
LINE
  5
2A8
100
AcDbEntity
  8
0
100
AcDbLine
 62
250
  6
CONTINUOUS
 10
-62.8715450489
 20
-27.6246499668
 11
62.8715450489
 21
-27.6246499668
  0
LINE
  5
2A9
100
AcDbEntity
  8
0
100
AcDbLine
 62
250
  6
CONTINUOUS
 10
-84.5780289672
 20
-33.904109589
 11
-84.4698514984
 21
-33.8918052244
  0
LINE
  5
2AA
100
AcDbEntity
  8
0
100
AcDbLine
 62
250
  6
CONTINUOUS
 10
-62.0
 20
-23.0032230805
 11
62.0
 21
-23.0032230805
  0
LINE
  5
2AB
100
AcDbEntity
  8
0
100
AcDbLine
 62
250
  6
CONTINUOUS
 10
-62.3
 20
-22.5383389438
 11
62.3
 21
-22.5383389438
  0
LINE
  5
2AC
100
AcDbEntity
  8
0
100
AcDbLine
 62
7
  6
CONTINUOUS
 10
-62.3770334791
 20
-22.5
 11
62.3770334791
 21
-22.5
  0
LINE
  5
2AD
100
AcDbEntity
  8
0
100
AcDbLine
 62
250
  6
CONTINUOUS
 10
84.5780289672
 20
-33.904109589
 11
84.4698514984
 21
-33.8918052244
  0
LWPOLYLINE
  5
2AE
100
AcDbEntity
  8
0
100
AcDbPolyline
 62
7
  6
CONTINUOUS
 90
3
 70
0
 43
0.3500000006
 10
1.8928570933
 20
50.0357124023
 10
1.8214286013
 20
49.8214279175
 10
1.6785714755
 20
49.5357122498
  0
LWPOLYLINE
  5
2AF
100
AcDbEntity
  8
0
100
AcDbPolyline
 62
7
  6
CONTINUOUS
 90
4
 70
0
 43
0.3500000006
 10
-3.5357143936
 20
52.1071441956
 10
-3.5357143936
 20
52.750002182
 10
-2.0357142191
 20
52.750002182
 10
-2.8928572569
 20
49.7500012665
  0
LWPOLYLINE
  5
2B0
100
AcDbEntity
  8
0
100
AcDbPolyline
 62
7
  6
CONTINUOUS
 90
4
 70
0
 43
0.3500000006
 10
2.8928572569
 20
50.1785702362
 10
2.8928572569
 20
51.0357127075
 10
3.3214284925
 20
51.4642862091
 10
3.9642856293
 20
51.4642862091
  0
LINE
  5
2B1
100
AcDbEntity
  8
0
100
AcDbLine
 62
250
  6
CONTINUOUS
 10
84.5780289672
 20
33.904109589
 11
84.4698514984
 21
33.8918052244
  0
LINE
  5
2B2
100
AcDbEntity
  8
0
100
AcDbLine
 62
7
  6
CONTINUOUS
 10
62.3770334791
 20
22.5
 11
-62.3770334791
 21
22.5
  0
LINE
  5
2B3
100
AcDbEntity
  8
0
100
AcDbLine
 62
250
  6
CONTINUOUS
 10
-62.3
 20
22.5383430976
 11
62.3
 21
22.5383430976
  0
LINE
  5
2B4
100
AcDbEntity
  8
0
100
AcDbLine
 62
250
  6
CONTINUOUS
 10
-62.0
 20
23.0029737069
 11
62.0
 21
23.0029737069
  0
LINE
  5
2B5
100
AcDbEntity
  8
0
100
AcDbLine
 62
250
  6
CONTINUOUS
 10
-84.5780289672
 20
33.904109589
 11
-84.4698514984
 21
33.8918052244
  0
LWPOLYLINE
  5
2B6
100
AcDbEntity
  8
0
100
AcDbPolyline
 62
7
  6
CONTINUOUS
 90
10
 70
0
 43
0.3500000006
 10
1.8214286013
 20
50.2500014191
 10
1.8928570933
 20
50.1071435852
 10
1.8928570933
 20
50.0357124023
 10
1.7499999676
 20
49.8928591003
 10
1.6785714755
 20
49.8928591003
 10
1.6071428418
 20
49.9642857513
 10
1.6071428418
 20
50.0357124023
 10
1.6785714755
 20
50.1785702362
 10
1.7499999676
 20
50.2500014191
 10
1.8214286013
 20
50.2500014191
  0
LINE
  5
2B7
100
AcDbEntity
  8
0
100
AcDbLine
 62
250
  6
CONTINUOUS
 10
-62.8715772872
 20
27.6246499668
 11
62.8715772872
 21
27.6246499668
  0
LINE
  5
2B8
100
AcDbEntity
  8
0
100
AcDbLine
 62
250
  6
CONTINUOUS
 10
-63.7
 20
31.3656274742
 11
63.7
 21
31.3656274742
  0
LINE
  5
2B9
100
AcDbEntity
  8
0
100
AcDbLine
 62
250
  6
CONTINUOUS
 10
-76.6292815281
 20
35.9752167919
 11
76.6292815281
 21
35.9752167919
  0
LWPOLYLINE
  5
2BA
100
AcDbEntity
  8
0
100
AcDbPolyline
 62
250
  6
CONTINUOUS
 90
37
 70
0
 10
76.6292815281
 20
35.9752167919
 10
76.7269447309
 20
35.9731813154
 10
76.8241425342
 20
35.9671522256
 10
76.9208749379
 20
35.9571295011
 10
77.0173053276
 20
35.9430833351
 10
77.1132703178
 20
35.9250434486
 10
77.2082797519
 20
35.9030990925
 10
77.3023253955
 20
35.8772300213
 10
77.3954154829
 20
35.8474563145
 10
77.4870845606
 20
35.8139276954
 10
77.5773239056
 20
35.7766254619
 10
77.6661422409
 20
35.7355680806
 10
77.7531002808
 20
35.6909610214
 10
77.838188357
 20
35.6427867332
 10
77.9214161378
 20
35.5910624774
 10
78.0023733431
 20
35.5360459455
 10
78.0810491724
 20
35.4777201364
 10
78.1574544262
 20
35.4161017257
 10
78.2312112259
 20
35.3514989349
 10
78.3023060761
 20
35.2838966751
 10
78.3707524721
 20
35.2133096946
 10
78.4362130213
 20
35.1400909984
 10
78.498672249
 20
35.0642278645
 10
78.5581456299
 20
34.9857326805
 10
78.614342196
 20
34.9049961564
 10
78.6672453894
 20
34.8220076401
 10
78.716871768
 20
34.7367774757
 10
78.7629800373
 20
34.6497279206
 10
78.8055530692
 20
34.5608486793
 10
78.8446079918
 20
34.4701497841
 10
78.8799548953
 20
34.3780840463
 10
78.9115753354
 20
34.2846403794
 10
78.9394877564
 20
34.1898296673
 10
78.9635575813
 20
34.0941377493
 10
78.9837399512
 20
33.9977265466
 10
79.0000797251
 20
33.900434019
 10
79.012576903
 20
33.8022601024
  0
LINE
  5
2BB
100
AcDbEntity
  8
0
100
AcDbLine
 62
250
  6
CONTINUOUS
 10
-63.115232812
 20
27.5730139933
 11
-63.064547133
 21
27.584169435
  0
LINE
  5
2BC
100
AcDbEntity
  8
0
100
AcDbLine
 62
250
  6
CONTINUOUS
 10
-63.064547133
 20
27.584169435
 11
-62.983907002
 21
27.6014372781
  0
LWPOLYLINE
  5
2BD
100
AcDbEntity
  8
0
100
AcDbPolyline
 62
250
  6
CONTINUOUS
 90
3
 70
0
 10
-62.983907002
 20
27.6014372781
 10
-62.8998958051
 20
27.6188848242
 10
-62.8715772872
 20
27.6246499541
  0
LINE
  5
2BE
100
AcDbEntity
  8
0
100
AcDbLine
 62
250
  6
CONTINUOUS
 10
-76.6292815281
 20
40.9023543978
 11
76.6292815281
 21
40.9023543978
  0
LINE
  5
2BF
100
AcDbEntity
  8
0
100
AcDbLine
 62
7
  6
CONTINUOUS
 10
76.6292815281
 20
41.0
 11
-76.6292815281
 21
41.0
  0
LWPOLYLINE
  5
2C0
100
AcDbEntity
  8
0
100
AcDbPolyline
 62
250
  6
CONTINUOUS
 90
37
 70
0
 10
76.6292815281
 20
40.9023543978
 10
76.9488745972
 20
40.8958782065
 10
77.2679409115
 20
40.8764610246
 10
77.5859558335
 20
40.8441350318
 10
77.9023894334
 20
40.7989546663
 10
78.2167285715
 20
40.740994211
 10
78.5284773105
 20
40.6703448292
 10
78.8371324251
 20
40.5871176768
 10
79.1421757777
 20
40.4914499009
 10
79.4430965712
 20
40.3835012918
 10
79.7393952475
 20
40.2634505002
 10
80.0305888785
 20
40.1314929262
 10
80.3162032861
 20
39.9878438828
 10
80.5957674406
 20
39.8327389616
 10
80.8688220006
 20
39.6664319902
 10
81.1349247065
 20
39.4891924857
 10
81.3936391304
 20
39.3013085511
 10
81.6445364241
 20
39.103089254
 10
81.8872036587
 20
38.8948609777
 10
82.1212409982
 20
38.6769644803
 10
82.3462621559
 20
38.4497572622
 10
82.561896243
 20
38.2136147274
 10
82.7677868122
 20
37.9689253298
 10
82.9635953623
 20
37.7160896431
 10
83.1490021394
 20
37.4555220709
 10
83.3237006149
 20
37.1876509272
 10
83.4874029365
 20
36.9129151166
 10
83.639843215
 20
36.6317621492
 10
83.7807712364
 20
36.344648488
 10
83.9099509929
 20
36.0520498978
 10
84.027167068
 20
35.7544574131
 10
84.132223927
 20
35.452367023
 10
84.2249510709
 20
35.1462682101
 10
84.3052005436
 20
34.8366530007
 10
84.3728400092
 20
34.5240259583
 10
84.4277544277
 20
34.2089041248
 10
84.4698514984
 20
33.8918052244
  0
LINE
  5
2C1
100
AcDbEntity
  8
0
100
AcDbLine
 62
250
  6
CONTINUOUS
 10
62.95615445
 20
27.6072591201
 11
62.8715772872
 21
27.6246499688
  0
LINE
  5
2C2
100
AcDbEntity
  8
0
100
AcDbLine
 62
250
  6
CONTINUOUS
 10
63.0381931187
 20
27.5898732748
 11
62.95615445
 21
27.6072591201
  0
LWPOLYLINE
  5
2C3
100
AcDbEntity
  8
0
100
AcDbPolyline
 62
250
  6
CONTINUOUS
 90
3
 70
0
 10
63.1152309963
 20
27.5730142495
 10
63.0902539498
 20
27.5785436591
 10
63.0381931187
 20
27.5898732748
  0
LWPOLYLINE
  5
2C4
100
AcDbEntity
  8
0
100
AcDbPolyline
 62
7
  6
CONTINUOUS
 90
13
 70
0
 43
0.3500000006
 10
3.3214284925
 20
51.4642862091
 10
3.035714241
 20
51.678570694
 10
3.035714241
 20
52.3214286804
 10
3.3214284925
 20
52.750002182
 10
3.9642856293
 20
52.750002182
 10
4.2499998808
 20
52.3214286804
 10
4.2499998808
 20
51.678570694
 10
3.9642856293
 20
51.4642862091
 10
4.3928571482
 20
51.0357127075
 10
4.3928571482
 20
50.1785702362
 10
3.9642856293
 20
49.7500012665
 10
3.3214284925
 20
49.7500012665
 10
2.8928572569
 20
50.1785702362
  0
LWPOLYLINE
  5
2C5
100
AcDbEntity
  8
0
100
AcDbPolyline
 62
7
  6
CONTINUOUS
 90
7
 70
0
 43
0.3500000006
 10
0.3214285684
 20
49.7500012665
 10
-1.1785713937
 20
49.7500012665
 10
0.3214285684
 20
51.8928551788
 10
0.3214285684
 20
52.3214286804
 10
-0.1071428532
 20
52.750002182
 10
-0.7500000165
 20
52.750002182
 10
-1.1785713937
 20
52.1071441956
  0
LINE
  5
2C6
100
AcDbEntity
  8
0
100
AcDbLine
 62
250
  6
CONTINUOUS
 10
63.2991893278
 20
28.8136759961
 11
63.4297269972
 21
29.6595808582
  0
LINE
  5
2C7
100
AcDbEntity
  8
0
100
AcDbLine
 62
250
  6
CONTINUOUS
 10
63.4297269972
 20
29.6595808582
 11
63.7
 21
31.3656274711
  0
LWPOLYLINE
  5
2C8
100
AcDbEntity
  8
0
100
AcDbPolyline
 62
250
  6
CONTINUOUS
 90
6
 70
0
 10
62.7844338818
 20
25.8073796978
 10
62.9478570581
 20
26.6247447769
 10
62.9912249457
 20
26.8497174658
 10
63.0334589519
 20
27.0827225373
 10
63.0748704728
 20
27.3238180684
 10
63.1152310263
 20
27.5730142453
  0
LINE
  5
2C9
100
AcDbEntity
  8
0
100
AcDbLine
 62
250
  6
CONTINUOUS
 10
62.8715772872
 20
27.6246499668
 11
63.0432070383
 21
28.4377589342
  0
LINE
  5
2CA
100
AcDbEntity
  8
0
100
AcDbLine
 62
250
  6
CONTINUOUS
 10
63.0432070383
 20
28.4377589342
 11
63.2236534259
 21
29.2650548651
  0
LINE
  5
2CB
100
AcDbEntity
  8
0
100
AcDbLine
 62
250
  6
CONTINUOUS
 10
63.2236534259
 20
29.2650548651
 11
63.4117687355
 21
30.103712713
  0
LWPOLYLINE
  5
2CC
100
AcDbEntity
  8
0
100
AcDbPolyline
 62
250
  6
CONTINUOUS
 90
3
 70
0
 10
63.4117687355
 20
30.103712713
 10
63.6029621099
 20
30.9442853227
 10
63.7
 20
31.3656274742
  0
LWPOLYLINE
  5
2CD
100
AcDbEntity
  8
0
100
AcDbPolyline
 62
250
  6
CONTINUOUS
 90
7
 70
0
 10
62.4029935776
 20
25.9530231376
 10
62.5727951168
 20
26.522330543
 10
62.6347610419
 20
26.7277844152
 10
62.6959429528
 20
26.9408425574
 10
62.7552717452
 20
27.1614111817
 10
62.8138165234
 20
27.3893939393
 10
62.8715772872
 20
27.6246499668
  0
LWPOLYLINE
  5
2CE
100
AcDbEntity
  8
0
100
AcDbPolyline
 62
250
  6
CONTINUOUS
 90
18
 70
0
 10
62.2756854313
 20
-22.5581899758
 10
62.2621399396
 20
-22.5692250797
 10
62.2459768229
 20
-22.5830845852
 10
62.2266698992
 20
-22.6002161631
 10
62.2047453506
 20
-22.6206311786
 10
62.1821172823
 20
-22.6434935746
 10
62.1587766918
 20
-22.6684415718
 10
62.1347325817
 20
-22.6954681404
 10
62.1119260648
 20
-22.7237740944
 10
62.090689667
 20
-22.7527209291
 10
62.0706908624
 20
-22.7823320016
 10
62.0528731856
 20
-22.812740329
 10
62.0373162547
 20
-22.8438990058
 10
62.0239404515
 20
-22.8755076751
 10
62.0134504564
 20
-22.9073959254
 10
62.0060811629
 20
-22.9394060855
 10
62.0015976774
 20
-22.9713937877
 10
62.0
 20
-23.0032230805
  0
LWPOLYLINE
  5
2CF
100
AcDbEntity
  8
0
100
AcDbPolyline
 62
250
  6
CONTINUOUS
 90
3
 70
0
 10
62.2937913742
 20
22.5438413706
 10
62.2983754834
 20
22.5400863383
 10
62.3
 20
22.5383430976
  0
LINE
  5
2D0
100
AcDbEntity
  8
0
100
AcDbLine
 62
7
  6
CONTINUOUS
 10
75.7678199301
 20
-32.417303
 11
76.3290309301
 21
-33.499986
  0
LINE
  5
2D1
100
AcDbEntity
  8
0
100
AcDbLine
 62
7
  6
CONTINUOUS
 10
76.3636937208
 20
-32.3499536669
 11
76.9598079301
 21
-33.499979
  0
LINE
  5
2D2
100
AcDbEntity
  8
0
100
AcDbLine
 62
7
  6
CONTINUOUS
 10
65.0237159301
 20
-30.699867
 11
65.9227399301
 21
-33.5
  0
LINE
  5
2D3
100
AcDbEntity
  8
0
100
AcDbLine
 62
7
  6
CONTINUOUS
 10
65.5837439301
 20
-30.699867
 11
66.2027679301
 21
-32.627905
  0
LINE
  5
2D4
100
AcDbEntity
  8
0
100
AcDbLine
 62
250
  6
CONTINUOUS
 10
62.6574689078
 20
-26.806705774
 11
62.4444004036
 21
-26.095015466
  0
LWPOLYLINE
  5
2D5
100
AcDbEntity
  8
0
100
AcDbPolyline
 62
250
  6
CONTINUOUS
 90
20
 70
0
 10
62.4444004036
 20
-26.095015466
 10
62.3967908619
 20
-25.9332109978
 10
62.3520146769
 20
-25.7772309368
 10
62.3098548641
 20
-25.6270644421
 10
62.2704573183
 20
-25.4818096416
 10
62.2338724462
 20
-25.3413096527
 10
62.2000498411
 20
-25.2056792905
 10
62.168984178
 20
-25.0744373399
 10
62.14070353
 20
-24.9474796383
 10
62.115179824
 20
-24.8248507347
 10
62.0923235156
 20
-24.7062983757
 10
62.0721592824
 20
-24.5917619065
 10
62.0546624467
 20
-24.4812269874
 10
62.0396694311
 20
-24.3745133169
 10
62.0271984655
 20
-24.2715800609
 10
62.0172313199
 20
-24.1723825523
 10
62.0095497272
 20
-24.0767374783
 10
62.0040809319
 20
-23.9845550877
 10
62.0008976894
 20
-23.8958360997
 10
62.0
 20
-23.8105339721
  0
LINE
  5
2D6
100
AcDbEntity
  8
0
100
AcDbLine
 62
7
  6
CONTINUOUS
 10
69.4351999301
 20
-31.653498
 11
69.9646659301
 21
-33.499993
  0
LWPOLYLINE
  5
2D7
100
AcDbEntity
  8
0
100
AcDbPolyline
 62
250
  6
CONTINUOUS
 90
5
 70
0
 10
62.8715450489
 20
-27.6246499668
 10
62.8195217017
 20
-27.4105488992
 10
62.7666494738
 20
-27.2027954292
 10
62.7129283653
 20
-27.001495599
 10
62.6574689078
 20
-26.806705774
  0
LINE
  5
2D8
100
AcDbEntity
  8
0
100
AcDbLine
 62
250
  6
CONTINUOUS
 10
63.7
 20
-31.355216572
 11
63.5068601561
 21
-30.5154769169
  0
LINE
  5
2D9
100
AcDbEntity
  8
0
100
AcDbLine
 62
250
  6
CONTINUOUS
 10
63.5068601561
 20
-30.5154769169
 11
63.3172052852
 21
-29.6781454788
  0
LINE
  5
2DA
100
AcDbEntity
  8
0
100
AcDbLine
 62
250
  6
CONTINUOUS
 10
63.3172052852
 20
-29.6781454788
 11
63.1321734675
 21
-28.8460388814
  0
LWPOLYLINE
  5
2DB
100
AcDbEntity
  8
0
100
AcDbPolyline
 62
250
  6
CONTINUOUS
 90
3
 70
0
 10
63.1321734675
 20
-28.8460388814
 10
62.9563170248
 20
-28.0283951912
 10
62.8715450489
 20
-27.6246499668
  0
LINE
  5
2DC
100
AcDbEntity
  8
0
100
AcDbLine
 62
250
  6
CONTINUOUS
 10
62.963918182
 20
-26.7079028907
 11
62.7800767268
 21
-25.7863729469
  0
LWPOLYLINE
  5
2DD
100
AcDbEntity
  8
0
100
AcDbPolyline
 62
250
  6
CONTINUOUS
 90
18
 70
0
 10
62.7800767268
 20
-25.7863729469
 10
62.7187036761
 20
-25.4638449485
 10
62.6909074446
 20
-25.3108792901
 10
62.6650765927
 20
-25.1629721604
 10
62.6411978566
 20
-25.0202727545
 10
62.6192851248
 20
-24.8821937364
 10
62.5993224348
 20
-24.7486645831
 10
62.5812889217
 20
-24.6197676572
 10
62.565174687
 20
-24.4951448586
 10
62.5509472842
 20
-24.3747786835
 10
62.5385688246
 20
-24.25869641
 10
62.5280070746
 20
-24.1466068436
 10
62.5192164837
 20
-24.038517625
 10
62.5121457887
 20
-23.9344287556
 10
62.5067447962
 20
-23.8340372389
 10
62.5029586444
 20
-23.7372439893
 10
62.5007298009
 20
-23.6441537355
 10
62.5
 20
-23.5547687789
  0
LWPOLYLINE
  5
2DE
100
AcDbEntity
  8
0
100
AcDbPolyline
 62
250
  6
CONTINUOUS
 90
5
 70
0
 10
63.1152082698
 20
-27.5728561146
 10
63.0787856557
 20
-27.3460661651
 10
63.0413916946
 20
-27.1263245797
 10
63.003199661
 20
-26.913623073
 10
62.963918182
 20
-26.7079028907
  0
LINE
  5
2DF
100
AcDbEntity
  8
0
100
AcDbLine
 62
250
  6
CONTINUOUS
 10
63.7
 20
-31.3552165692
 11
63.4297092387
 21
-29.6537342163
  0
LINE
  5
2E0
100
AcDbEntity
  8
0
100
AcDbLine
 62
250
  6
CONTINUOUS
 10
63.4297092387
 20
-29.6537342163
 11
63.2991813495
 21
-28.8102116741
  0
LWPOLYLINE
  5
2E1
100
AcDbEntity
  8
0
100
AcDbPolyline
 62
250
  6
CONTINUOUS
 90
19
 70
0
 10
62.5
 20
23.5541150673
 10
62.498097322
 20
23.5764138397
 10
62.4924037739
 20
23.5985428856
 10
62.4829626948
 20
23.6203337882
 10
62.469845944
 20
23.6416207074
 10
62.4531533566
 20
23.6622416338
 10
62.4330119876
 20
23.682039623
 10
62.409575137
 20
23.7008640009
 10
62.3830211824
 20
23.7185715063
 10
62.3535522281
 20
23.7350273742
 10
62.3213925618
 20
23.7501063686
 10
62.2867869442
 20
23.7636937353
 10
62.2499987484
 20
23.7756860713
 10
62.2113079615
 20
23.7859921123
 10
62.1710090447
 20
23.7945334295
 10
62.129408688
 20
23.8012450251
 10
62.0868234907
 20
23.8060758242
 10
62.0435775532
 20
23.8089890654
 10
62.0
 20
23.8099625811
  0
LWPOLYLINE
  5
2E2
100
AcDbEntity
  8
0
100
AcDbPolyline
 62
250
  6
CONTINUOUS
 90
19
 70
0
 10
62.5
 20
22.6966459465
 10
62.4980974199
 20
22.7233050988
 10
62.4924041214
 20
22.7497716587
 10
62.4829633771
 20
22.7758438247
 10
62.4698469592
 20
22.8013257661
 10
62.4531546485
 20
22.8260204238
 10
62.4330135255
 20
22.8497311419
 10
62.4095769012
 20
22.8722749836
 10
62.3830231147
 20
22.8934829329
 10
62.3535542712
 20
22.9131926089
 10
62.3213946549
 20
22.9312538499
 10
62.2867890151
 20
22.9475294643
 10
62.2500007234
 20
22.9618952712
 10
62.2113097622
 20
22.9742419774
 10
62.171010595
 20
22.9844756995
 10
62.1294099258
 20
22.9925183103
 10
62.0868243628
 20
22.9983085598
 10
62.0435780099
 20
23.0018025381
 10
62.0
 20
23.0029737069
  0
LINE
  5
2E3
100
AcDbEntity
  8
0
100
AcDbLine
 62
250
  6
CONTINUOUS
 10
62.5
 20
22.3383735586
 11
62.4997715582
 21
22.3477537521
  0
LWPOLYLINE
  5
2E4
100
AcDbEntity
  8
0
100
AcDbPolyline
 62
250
  6
CONTINUOUS
 90
5
 70
0
 10
62.4995322848
 20
22.3521137696
 10
62.4989043787
 20
22.3592760704
 10
62.4956295187
 20
22.3799495699
 10
62.4902113001
 20
22.4001675538
 10
62.482709086
 20
22.4197085095
  0
LWPOLYLINE
  5
2E5
100
AcDbEntity
  8
0
100
AcDbPolyline
 62
250
  6
CONTINUOUS
 90
19
 70
0
 10
62.0
 20
23.0029737069
 10
62.0016012653
 20
22.9711326313
 10
62.0060918133
 20
22.9391353886
 10
62.013471644
 20
22.9071180174
 10
62.0239789124
 20
22.875221186
 10
62.0373754636
 20
22.8436067343
 10
62.0529468323
 20
22.8124555661
 10
62.07078298
 20
22.7820502325
 10
62.0907939452
 20
22.7524541115
 10
62.1119953791
 20
22.7235844926
 10
62.134665688
 20
22.6954687466
 10
62.1585264656
 20
22.6686554417
 10
62.1817581435
 20
22.6438077741
 10
62.2044227289
 20
22.6208930341
 10
62.2264582147
 20
22.6003731595
 10
62.2458590109
 20
22.5831673161
 10
62.2620648886
 20
22.5692773596
 10
62.2756360768
 20
22.5582250661
 10
62.2937913742
 20
22.5438413706
  0
LINE
  5
2E6
100
AcDbEntity
  8
0
100
AcDbLine
 62
250
  6
CONTINUOUS
 10
62.0
 20
-23.8105339721
 11
62.0
 21
-23.0032230805
  0
LINE
  5
2E7
100
AcDbEntity
  8
0
100
AcDbLine
 62
250
  6
CONTINUOUS
 10
62.0
 20
23.0029737069
 11
62.0
 21
23.8099625811
  0
LINE
  5
2E8
100
AcDbEntity
  8
0
100
AcDbLine
 62
250
  6
CONTINUOUS
 10
62.3
 20
-22.5383389438
 11
62.3
 21
-22.5157095584
  0
LINE
  5
2E9
100
AcDbEntity
  8
0
100
AcDbLine
 62
250
  6
CONTINUOUS
 10
62.3
 20
22.5157095584
 11
62.3
 21
22.5383430976
  0
LINE
  5
2EA
100
AcDbEntity
  8
0
100
AcDbLine
 62
7
  6
CONTINUOUS
 10
62.5
 20
-23.5547687651
 11
62.5
 21
23.5541150407
  0
LINE
  5
2EB
100
AcDbEntity
  8
0
100
AcDbLine
 62
250
  6
CONTINUOUS
 10
63.7
 20
-31.355216572
 11
63.7
 21
31.3656274742
  0
LWPOLYLINE
  5
2EC
100
AcDbEntity
  8
0
100
AcDbPolyline
 62
250
  6
CONTINUOUS
 90
17
 70
0
 10
62.5
 20
23.5541150673
 10
62.5009589881
 20
23.6566844281
 10
62.5038890141
 20
23.763978389
 10
62.5088679073
 20
23.8759933331
 10
62.5159731575
 20
23.9926030418
 10
62.5252755069
 20
24.1139248424
 10
62.5368323654
 20
24.2403197591
 10
62.5507038575
 20
24.3717712823
 10
62.5669425305
 20
24.508283884
 10
62.5855741616
 20
24.65024957
 10
62.6066333193
 20
24.7975829902
 10
62.630149323
 20
24.950354306
 10
62.6561161446
 20
25.10918851
 10
62.6845580954
 20
25.2739590803
 10
62.7154625476
 20
25.4447743661
 10
62.7487329295
 20
25.6226120856
 10
62.7844338818
 20
25.8073796978
  0
LWPOLYLINE
  5
2ED
100
AcDbEntity
  8
0
100
AcDbPolyline
 62
250
  6
CONTINUOUS
 90
17
 70
0
 10
62.0
 20
23.8099625811
 10
62.0011770989
 20
23.9078455173
 10
62.0053609194
 20
24.0100732659
 10
62.0125514615
 20
24.1167118321
 10
62.0226606591
 20
24.2277804839
 10
62.0357765783
 20
24.3433849051
 10
62.0521634173
 20
24.4637203985
 10
62.0718554565
 20
24.5888275265
 10
62.0948184156
 20
24.7187786047
 10
62.1212136514
 20
24.8538183935
 10
62.1510806488
 20
24.9939146879
 10
62.1843799229
 20
25.1391907087
 10
62.2211543758
 20
25.2901295505
 10
62.2614780549
 20
25.4466486373
 10
62.3052769127
 20
25.6088959526
 10
62.3523717092
 20
25.7777127752
 10
62.4029935776
 20
25.9530231376
  0
LWPOLYLINE
  5
2EE
100
AcDbEntity
  8
0
100
AcDbPolyline
 62
7
  6
CONTINUOUS
 90
11
 70
0
 10
62.4999995457
 20
-22.3380016753
 10
62.4999292123
 20
-22.3432485085
 10
62.4997620238
 20
-22.3479718627
 10
62.4995279467
 20
-22.3521878884
 10
62.499252935
 20
-22.3559154538
 10
62.498959855
 20
-22.3591663826
 10
62.4986691827
 20
-22.361945347
 10
62.4983929131
 20
-22.364303278
 10
62.4981487699
 20
-22.3662129534
 10
62.4979648727
 20
-22.3675630049
 10
62.4978448832
 20
-22.3684077029
  0
LINE
  5
2EF
100
AcDbEntity
  8
0
100
AcDbLine
 62
250
  6
CONTINUOUS
 10
62.5
 20
-22.3383694048
 11
62.4997620238
 21
-22.3479718627
  0
LWPOLYLINE
  5
2F0
100
AcDbEntity
  8
0
100
AcDbPolyline
 62
250
  6
CONTINUOUS
 90
5
 70
0
 10
62.4995279467
 20
-22.3521878884
 10
62.4989043787
 20
-22.3592719174
 10
62.4956295185
 20
-22.3799454176
 10
62.4902112996
 20
-22.4001634021
 10
62.482709085
 20
-22.4197043584
  0
LWPOLYLINE
  5
2F1
100
AcDbEntity
  8
0
100
AcDbPolyline
 62
250
  6
CONTINUOUS
 90
19
 70
0
 10
62.5
 20
-22.6970009566
 10
62.4980973766
 20
-22.7236793879
 10
62.4924039722
 20
-22.7501589913
 10
62.4829630956
 20
-22.7762381296
 10
62.4698465681
 20
-22.8017201665
 10
62.4531541983
 20
-22.8264091934
 10
62.4330130431
 20
-22.8501116038
 10
62.4095764021
 20
-22.8726449197
 10
62.3830226303
 20
-22.8938398749
 10
62.3535538157
 20
-22.9135359898
 10
62.3213942318
 20
-22.9315833749
 10
62.2867886323
 20
-22.94784468
 10
62.2500003877
 20
-22.9621969306
 10
62.2113094787
 20
-22.9745308836
 10
62.1710103667
 20
-22.9847526562
 10
62.1294097548
 20
-22.9927852262
 10
62.0868242503
 20
-22.9985677118
 10
62.0435779549
 20
-23.0020558427
 10
62.0
 20
-23.0032230805
  0
LWPOLYLINE
  5
2F2
100
AcDbEntity
  8
0
100
AcDbPolyline
 62
250
  6
CONTINUOUS
 90
19
 70
0
 10
62.5
 20
-23.5547687789
 10
62.4980973584
 20
-23.5770601293
 10
62.4924039113
 20
-23.5991818376
 10
62.4829629851
 20
-23.6209655446
 10
62.4698464266
 20
-23.6422454636
 10
62.4531540567
 20
-23.6628596412
 10
62.4330129114
 20
-23.6826511898
 10
62.4095762734
 20
-23.7014694834
 10
62.3830225064
 20
-23.7191713024
 10
62.3535536996
 20
-23.7356219233
 10
62.321394126
 20
-23.750696146
 10
62.2867885379
 20
-23.7642792453
 10
62.2500003059
 20
-23.7762678433
 10
62.2113094098
 20
-23.7865706986
 10
62.1710103106
 20
-23.7951093991
 10
62.1294097122
 20
-23.8018189585
 10
62.086824222
 20
-23.8066483121
 10
62.0435779409
 20
-23.8095607052
 10
62.0
 20
-23.8105339721
  0
LWPOLYLINE
  5
2F3
100
AcDbEntity
  8
0
100
AcDbPolyline
 62
250
  6
CONTINUOUS
 90
3
 70
0
 10
63.1152310263
 20
27.5730142453
 10
63.236130901
 20
28.3966588255
 10
63.2991893278
 20
28.8136759961
  0
LWPOLYLINE
  5
2F4
100
AcDbEntity
  8
0
100
AcDbPolyline
 62
250
  6
CONTINUOUS
 90
4
 70
0
 10
62.3
 20
-22.5383389438
 10
62.298379097
 20
-22.5400799077
 10
62.2938050101
 20
-22.5438290887
 10
62.2756854313
 20
-22.5581899758
  0
LINE
  5
2F5
100
AcDbEntity
  8
0
100
AcDbLine
 62
7
  6
CONTINUOUS
 10
73.1665499301
 20
-31.571955
 11
73.4379609301
 21
-32.417303
  0
LINE
  5
2F6
100
AcDbEntity
  8
0
100
AcDbLine
 62
7
  6
CONTINUOUS
 10
73.6087889301
 20
-32.949324
 11
73.7855809301
 21
-33.499986
  0
LINE
  5
2F7
100
AcDbEntity
  8
0
100
AcDbLine
 62
7
  6
CONTINUOUS
 10
73.4465779301
 20
-30.69986
 11
74.3456089301
 21
-33.499993
  0
LINE
  5
2F8
100
AcDbEntity
  8
0
100
AcDbLine
 62
7
  6
CONTINUOUS
 10
69.7217799301
 20
-30.699867
 11
70.2446729301
 21
-32.523409
  0
LWPOLYLINE
  5
2F9
100
AcDbEntity
  8
0
100
AcDbPolyline
 62
250
  6
CONTINUOUS
 90
3
 70
0
 10
63.2991813495
 20
-28.8102116741
 10
63.1747371765
 20
-27.9818663412
 10
63.1152082698
 20
-27.5728561146
  0
LINE
  5
2FA
100
AcDbEntity
  8
0
100
AcDbLine
 62
7
  6
CONTINUOUS
 10
67.7551579301
 20
-30.699867
 11
67.7551509301
 21
-33.5
  0
LINE
  5
2FB
100
AcDbEntity
  8
0
100
AcDbLine
 62
7
  6
CONTINUOUS
 10
68.3151789301
 20
-30.699867
 11
68.3151719301
 21
-33.499993
  0
LINE
  5
2FC
100
AcDbEntity
  8
0
100
AcDbLine
 62
7
  6
CONTINUOUS
 10
68.8751789301
 20
-30.699867
 11
68.8751789301
 21
-33.499993
  0
LINE
  5
2FD
100
AcDbEntity
  8
0
100
AcDbLine
 62
7
  6
CONTINUOUS
 10
69.4351999301
 20
-31.653498
 11
69.4351999301
 21
-33.499993
  0
LWPOLYLINE
  5
2FE
100
AcDbEntity
  8
0
100
AcDbPolyline
 62
250
  6
CONTINUOUS
 90
12
 70
0
 10
62.482709085
 20
-22.4197043584
 10
62.4732050708
 20
-22.4383541916
 10
62.4618033848
 20
-22.4559085701
 10
62.4486289462
 20
-22.4721751647
 10
62.433826097
 20
-22.4869757549
 10
62.4175570214
 20
-22.5001481813
 10
62.3999999666
 20
-22.5115481248
 10
62.3813472921
 20
-22.5210506851
 10
62.3618033635
 20
-22.5285517494
 10
62.3415823097
 20
-22.5339691357
 10
62.3209056761
 20
-22.5372434915
 10
62.3
 20
-22.5383389438
  0
LWPOLYLINE
  5
2FF
100
AcDbEntity
  8
0
100
AcDbPolyline
 62
250
  6
CONTINUOUS
 90
12
 70
0
 10
62.482709086
 20
22.4197085095
 10
62.4732050722
 20
22.4383583423
 10
62.4618033868
 20
22.4559127204
 10
62.4486289488
 20
22.4721793149
 10
62.4338261002
 20
22.4869799049
 10
62.4175570255
 20
22.5001523314
 10
62.3999999723
 20
22.5115522747
 10
62.3813472995
 20
22.521054835
 10
62.3618033716
 20
22.5285559001
 10
62.3415823165
 20
22.5339732876
 10
62.3209056802
 20
22.5372476446
 10
62.3
 20
22.5383430976
  0
LWPOLYLINE
  5
300
100
AcDbEntity
  8
0
100
AcDbPolyline
 62
7
  6
CONTINUOUS
 90
12
 70
0
 10
62.4978655793
 20
22.3682630331
 10
62.4979065079
 20
22.3679761335
 10
62.4981050528
 20
22.3665382431
 10
62.4983818601
 20
22.3643899503
 10
62.4986794182
 20
22.3618492528
 10
62.4989772913
 20
22.3589824476
 10
62.4992697959
 20
22.3557036029
 10
62.4995322848
 20
22.3521137696
 10
62.4997715582
 20
22.3477537521
 10
62.4999336717
 20
22.3430572224
 10
62.4999915583
 20
22.3395066258
 10
62.4999995891
 20
22.3379777314
  0
LINE
  5
301
100
AcDbEntity
  8
0
100
AcDbLine
 62
7
  6
CONTINUOUS
 10
71.0541389301
 20
-31.653498
 11
71.0541459301
 21
-33.499993
  0
LINE
  5
302
100
AcDbEntity
  8
0
100
AcDbLine
 62
7
  6
CONTINUOUS
 10
71.6141669301
 20
-30.699867
 11
71.6141669301
 21
-33.499993
  0
LINE
  5
303
100
AcDbEntity
  8
0
100
AcDbLine
 62
7
  6
CONTINUOUS
 10
74.7189539301
 20
-30.69986
 11
74.7189539301
 21
-33.499986
  0
LINE
  5
304
100
AcDbEntity
  8
0
100
AcDbLine
 62
7
  6
CONTINUOUS
 10
75.2712539301
 20
-31.217881
 11
75.2712609301
 21
-31.899275
  0
LINE
  5
305
100
AcDbEntity
  8
0
100
AcDbLine
 62
250
  6
CONTINUOUS
 10
76.6292815281
 20
41.0
 11
76.6292815281
 21
35.9752167919
  0
LINE
  5
306
100
AcDbEntity
  8
0
100
AcDbLine
 62
250
  6
CONTINUOUS
 10
76.6292815281
 20
-41.0
 11
76.6292815281
 21
-35.9752167919
  0
LINE
  5
307
100
AcDbEntity
  8
0
100
AcDbLine
 62
7
  6
CONTINUOUS
 10
75.2790449301
 20
-32.417296
 11
75.2789819301
 21
-33.499986
  0
LINE
  5
308
100
AcDbEntity
  8
0
100
AcDbLine
 62
7
  6
CONTINUOUS
 10
70.7675659301
 20
-30.699867
 11
70.2446729301
 21
-32.523409
  0
LINE
  5
309
100
AcDbEntity
  8
0
100
AcDbLine
 62
7
  6
CONTINUOUS
 10
71.0541389301
 20
-31.653498
 11
70.5246729301
 21
-33.499986
  0
LINE
  5
30A
100
AcDbEntity
  8
0
100
AcDbLine
 62
7
  6
CONTINUOUS
 10
66.8217849301
 20
-30.699867
 11
66.2027679301
 21
-32.627905
  0
LINE
  5
30B
100
AcDbEntity
  8
0
100
AcDbLine
 62
7
  6
CONTINUOUS
 10
67.3818129301
 20
-30.699867
 11
66.4827819301
 21
-33.499993
  0
LWPOLYLINE
  5
30C
100
AcDbEntity
  8
0
100
AcDbPolyline
 62
250
  6
CONTINUOUS
 90
22
 70
0
 10
79.012576903
 20
33.8022601024
 10
79.3397329057
 20
30.5872713855
 10
79.6340941402
 20
27.3710058415
 10
79.8956606067
 20
24.1537399855
 10
80.1243885943
 20
20.9361998317
 10
80.3203218138
 20
17.7182113921
 10
80.4835913974
 20
14.4986983604
 10
80.6142405275
 20
11.2772835116
 10
80.7122260217
 20
8.0548897898
 10
80.7775494654
 20
4.8323897094
 10
80.8102113777
 20
1.6106410245
 10
80.8102112394
 20
-1.6106671533
 10
80.7775490789
 20
-4.8324152041
 10
80.712225509
 20
-8.0549127683
 10
80.6142399168
 20
-11.2773033416
 10
80.4835904916
 20
-14.4987181531
 10
80.3203200712
 20
-17.7182389249
 10
80.1243858179
 20
-20.9362382033
 10
79.8956574068
 20
-24.1537820326
 10
79.6340913965
 20
-27.3710409969
 10
79.3397312286
 20
-30.5872925186
 10
79.012576903
 20
-33.8022601024
  0
LWPOLYLINE
  5
30D
100
AcDbEntity
  8
0
100
AcDbPolyline
 62
250
  6
CONTINUOUS
 90
37
 70
0
 10
79.012576903
 20
-33.8022601024
 10
79.000078604
 20
-33.9004396309
 10
78.9837378551
 20
-33.9977363703
 10
78.9635546564
 20
-34.0941503848
 10
78.9394842032
 20
-34.1898432559
 10
78.9115713001
 20
-34.2846535212
 10
78.8799503612
 20
-34.3780967185
 10
78.8446028827
 20
-34.470162423
 10
78.8055473684
 20
-34.5608612621
 10
78.762973744
 20
-34.6497404236
 10
78.716864885
 20
-34.7367898788
 10
78.6672379159
 20
-34.8220199196
 10
78.614334135
 20
-34.9050082781
 10
78.5581369836
 20
-34.9857446052
 10
78.4986630204
 20
-35.064239558
 10
78.4362032197
 20
-35.1401024294
 10
78.3707420792
 20
-35.2133208522
 10
78.3022951012
 20
-35.2839075281
 10
78.2311997671
 20
-35.3515093937
 10
78.1574426323
 20
-35.4161116539
 10
78.0810371415
 20
-35.4777294444
 10
78.00236111
 20
-35.5360546254
 10
77.9214037164
 20
-35.5910705455
 10
77.8381757822
 20
-35.6427941815
 10
77.7530875877
 20
-35.6909678511
 10
77.6661294724
 20
-35.7355742936
 10
77.577311097
 20
-35.7766310593
 10
77.4870717238
 20
-35.8139326846
 10
77.3954026211
 20
-35.8474607011
 10
77.3023125208
 20
-35.8772338126
 10
77.2082668807
 20
-35.9031023067
 10
77.1132570051
 20
-35.9250461133
 10
77.0172915897
 20
-35.9430854685
 10
76.9208621798
 20
-35.9571311042
 10
76.8241326238
 20
-35.9671532934
 10
76.7269390732
 20
-35.9731818488
 10
76.6292815281
 20
-35.9752167919
  0
LINE
  5
30E
100
AcDbEntity
  8
0
100
AcDbLine
 62
7
  6
CONTINUOUS
 10
72.8865289301
 20
-30.69986
 11
71.9875119301
 21
-33.499993
  0
LINE
  5
30F
100
AcDbEntity
  8
0
100
AcDbLine
 62
7
  6
CONTINUOUS
 10
73.1665499301
 20
-31.571955
 11
72.8951529301
 21
-32.417303
  0
LINE
  5
310
100
AcDbEntity
  8
0
100
AcDbLine
 62
7
  6
CONTINUOUS
 10
72.7243319301
 20
-32.949324
 11
72.5475329301
 21
-33.499986
  0
LWPOLYLINE
  5
311
100
AcDbEntity
  8
0
100
AcDbPolyline
 62
250
  6
CONTINUOUS
 90
31
 70
0
 10
84.4698505672
 20
-33.8918051185
 10
84.4456556301
 20
-33.9157913706
 10
84.4077399199
 20
-33.9381494639
 10
84.3561991894
 20
-33.958822935
 10
84.2911636004
 20
-33.9777595748
 10
84.2127973945
 20
-33.9949115605
 10
84.121298479
 20
-34.0102355762
 10
84.0168979264
 20
-34.0236929224
 10
83.8998593912
 20
-34.0352496137
 10
83.7704784444
 20
-34.0448764648
 10
83.6290818261
 20
-34.0525491639
 10
83.4760266215
 20
-34.0582483341
 10
83.3116993582
 20
-34.0619595828
 10
83.1365150306
 20
-34.0636735374
 10
82.9509160515
 20
-34.0633858696
 10
82.7553711352
 20
-34.0610973058
 10
82.5503741135
 20
-34.0568136257
 10
82.3364426888
 20
-34.0505456471
 10
82.1141171263
 20
-34.0423091995
 10
81.88395889
 20
-34.0321250832
 10
81.6465492249
 20
-34.0200190173
 10
81.4024876884
 20
-34.0060215747
 10
81.152390637
 20
-33.9901681047
 10
80.8968896692
 20
-33.9724986439
 10
80.6366300306
 20
-33.9530578149
 10
80.3722689845
 20
-33.9318947139
 10
80.104474152
 20
-33.9090627865
 10
79.8339218257
 20
-33.8846196927
 10
79.5612952623
 20
-33.8586271616
 10
79.2872829565
 20
-33.8311508348
 10
79.012576903
 20
-33.8022601017
  0
LWPOLYLINE
  5
312
100
AcDbEntity
  8
0
100
AcDbPolyline
 62
250
  6
CONTINUOUS
 90
31
 70
0
 10
84.4698514625
 20
33.8918052203
 10
84.4456565181
 20
33.9157914721
 10
84.4077407982
 20
33.9381495648
 10
84.3562000557
 20
33.9588230351
 10
84.2911644523
 20
33.9777596738
 10
84.2127982298
 20
33.9949116581
 10
84.1212992955
 20
34.0102356722
 10
84.0168987219
 20
34.0236930165
 10
83.8998601638
 20
34.0352497057
 10
83.7704791919
 20
34.0448765543
 10
83.6290825469
 20
34.0525492507
 10
83.4760273137
 20
34.058248418
 10
83.3117000201
 20
34.0619596635
 10
83.1365156608
 20
34.0636736147
 10
82.9509166486
 20
34.0633859433
 10
82.7553716979
 20
34.0610973757
 10
82.5503746407
 20
34.0568136915
 10
82.3364431794
 20
34.0505457088
 10
82.1141175796
 20
34.0423092568
 10
81.8839593053
 20
34.0321251359
 10
81.6465496017
 20
34.0200190654
 10
81.4024880264
 20
34.006021618
 10
81.1523909359
 20
33.9901681431
 10
80.896889929
 20
33.9724986773
 10
80.6366302515
 20
33.9530578433
 10
80.3722691668
 20
33.9318947372
 10
80.1044742962
 20
33.9090628046
 10
79.8339219324
 20
33.8846197057
 10
79.5612953324
 20
33.8586271694
 10
79.287282991
 20
33.8311508376
 10
79.012576903
 20
33.8022600994
  0
LWPOLYLINE
  5
313
100
AcDbEntity
  8
0
100
AcDbPolyline
 62
250
  6
CONTINUOUS
 90
22
 70
0
 10
84.4698514984
 20
33.8918052244
 10
84.803448586
 20
30.668416043
 10
85.1035484841
 20
27.4436313369
 10
85.3701797966
 20
24.2177832806
 10
85.6033402759
 20
20.9917068491
 10
85.8031094147
 20
17.7652292083
 10
85.9695940851
 20
14.5371664808
 10
86.1028090516
 20
11.3071915211
 10
86.2027120907
 20
8.0762834778
 10
86.2692946101
 20
4.8452154031
 10
86.3025689579
 20
1.6148991365
 10
86.3025688262
 20
-1.614924777
 10
86.2692942236
 20
-4.845240408
 10
86.2027115083
 20
-8.07630596
 10
86.1028083499
 20
-11.3072108469
 10
85.96959319
 20
-14.5371857711
 10
85.8031078904
 20
-17.7652562421
 10
85.6033377457
 20
-20.9917447317
 10
85.3701765736
 20
-24.2178248864
 10
85.1035454119
 20
-27.443666151
 10
84.8034465115
 20
-30.66843698
 10
84.4698514984
 20
-33.8918052244
  0
LINE
  5
314
100
AcDbEntity
  8
0
100
AcDbLine
 62
7
  6
CONTINUOUS
 10
86.4133734105
 20
7.1858824897
 11
86.4104032874
 21
7.3314391493
  0
LINE
  5
315
100
AcDbEntity
  8
0
100
AcDbLine
 62
7
  6
CONTINUOUS
 10
86.4146890007
 20
-6.7798779529
 11
86.3986033866
 21
-5.7274647118
  0
LINE
  5
316
100
AcDbEntity
  8
0
100
AcDbLine
 62
7
  6
CONTINUOUS
 10
86.3986033866
 20
-5.7274647118
 11
86.3870606951
 21
-4.6597724836
  0
LINE
  5
317
100
AcDbEntity
  8
0
100
AcDbLine
 62
7
  6
CONTINUOUS
 10
86.3870606951
 20
-4.6597724836
 11
86.3787390189
 21
-3.5373379021
  0
LINE
  5
318
100
AcDbEntity
  8
0
100
AcDbLine
 62
7
  6
CONTINUOUS
 10
86.3787390189
 20
-3.5373379021
 11
86.3731912976
 21
-2.3799876255
  0
LINE
  5
319
100
AcDbEntity
  8
0
100
AcDbLine
 62
7
  6
CONTINUOUS
 10
86.3731912976
 20
-2.3799876255
 11
86.3694350887
 21
-0.7990180162
  0
LINE
  5
31A
100
AcDbEntity
  8
0
100
AcDbLine
 62
7
  6
CONTINUOUS
 10
86.3694350887
 20
-0.7990180162
 11
86.369435037
 21
0.7990263827
  0
LWPOLYLINE
  5
31B
100
AcDbEntity
  8
0
100
AcDbPolyline
 62
7
  6
CONTINUOUS
 90
4
 70
0
 10
86.4154607617
 20
-6.9743439883
 10
86.4155224747
 20
-6.9071471756
 10
86.4152649451
 20
-6.8422091901
 10
86.4146890007
 20
-6.7798779529
  0
LINE
  5
31C
100
AcDbEntity
  8
0
100
AcDbLine
 62
7
  6
CONTINUOUS
 10
86.369435037
 20
0.7990263827
 11
86.3731910974
 21
2.379933195
  0
LINE
  5
31D
100
AcDbEntity
  8
0
100
AcDbLine
 62
7
  6
CONTINUOUS
 10
86.3731910974
 20
2.379933195
 11
86.378739756
 21
3.5374606735
  0
LINE
  5
31E
100
AcDbEntity
  8
0
100
AcDbLine
 62
7
  6
CONTINUOUS
 10
86.378739756
 20
3.5374606735
 11
86.3870633369
 21
4.6600668837
  0
LWPOLYLINE
  5
31F
100
AcDbEntity
  8
0
100
AcDbPolyline
 62
7
  6
CONTINUOUS
 90
6
 70
0
 10
86.4146890007
 20
6.7798779529
 10
86.4152649451
 20
6.8422091901
 10
86.4155224747
 20
6.9071471756
 10
86.4154607617
 20
6.9743439883
 10
86.4150806339
 20
7.0434428745
 10
86.4133734105
 20
7.1858824897
  0
LINE
  5
320
100
AcDbEntity
  8
0
100
AcDbLine
 62
7
  6
CONTINUOUS
 10
86.4143845743
 20
-7.1140805702
 11
86.4154607617
 21
-6.9743439883
  0
LINE
  5
321
100
AcDbEntity
  8
0
100
AcDbLine
 62
7
  6
CONTINUOUS
 10
86.3870633369
 20
4.6600668837
 11
86.398606237
 21
5.7276861852
  0
LINE
  5
322
100
AcDbEntity
  8
0
100
AcDbLine
 62
7
  6
CONTINUOUS
 10
86.398606237
 20
5.7276861852
 11
86.4146890007
 21
6.7798779529
  0
LWPOLYLINE
  5
323
100
AcDbEntity
  8
0
100
AcDbPolyline
 62
7
  6
CONTINUOUS
 90
3
 70
0
 10
86.4104032874
 20
-7.3314391493
 10
86.4120463148
 20
-7.2584643171
 10
86.4143845743
 20
-7.1140805702
  0
LWPOLYLINE
  5
324
100
AcDbEntity
  8
0
100
AcDbPolyline
 62
250
  6
CONTINUOUS
 90
37
 70
0
 10
84.4698514984
 20
-33.8918052244
 10
84.4277543834
 20
-34.2089044672
 10
84.372839909
 20
-34.5240265437
 10
84.3052003878
 20
-34.8366537301
 10
84.2249508802
 20
-35.1462689506
 10
84.1322237276
 20
-35.4523676803
 10
84.0271668633
 20
-35.7544579996
 10
83.9099507712
 20
-36.0520504628
 10
83.7807709951
 20
-36.3446490427
 10
83.6398429525
 20
-36.6317626951
 10
83.4874026471
 20
-36.9129156607
 10
83.3237002962
 20
-37.1876514704
 10
83.1490018066
 20
-37.4555225893
 10
82.9635950463
 20
-37.7160900975
 10
82.7677865349
 20
-37.9689257014
 10
82.5618960048
 20
-38.2136150264
 10
82.3462619519
 20
-38.449757503
 10
82.1212408266
 20
-38.6769646718
 10
81.8872035048
 20
-38.8948611389
 10
81.6445362592
 20
-39.1030894115
 10
81.393638935
 20
-39.3013087187
 10
81.1349244847
 20
-39.4891926574
 10
80.8688217592
 20
-39.6664321593
 10
80.595767185
 20
-39.8327391235
 10
80.3162030418
 20
-39.9878440233
 10
80.0305887008
 20
-40.1314930214
 10
79.739395166
 20
-40.2634505446
 10
79.4430965507
 20
-40.3835013079
 10
79.1421757537
 20
-40.4914499151
 10
78.837132358
 20
-40.5871177001
 10
78.5284771737
 20
-40.6703448652
 10
78.2167283032
 20
-40.7409942681
 10
77.9023890058
 20
-40.7989547389
 10
77.5859553392
 20
-40.8441350951
 10
77.2679404858
 20
-40.8764610615
 10
76.9488743364
 20
-40.8958782185
 10
76.6292815281
 20
-40.9023543978
  0
LINE
  5
325
100
AcDbEntity
  8
0
100
AcDbLine
 62
7
  6
CONTINUOUS
 10
-97.9684811886
 20
-41.0
 11
-99.831670272
 21
-40.9023543978
  0
LWPOLYLINE
  5
326
100
AcDbEntity
  8
0
100
AcDbPolyline
 62
7
  6
CONTINUOUS
 90
10
 70
0
 43
0.3500000006
 10
-101.1327690125
 20
49.7500012665
 10
-100.2756220093
 20
50.6071437378
 10
-100.0613375244
 20
51.4642862091
 10
-100.0613375244
 20
52.3214286804
 10
-100.4899064941
 20
52.750002182
 10
-101.1327690125
 20
52.750002182
 10
-101.5613379822
 20
52.3214286804
 10
-101.5613379822
 20
51.4642862091
 10
-101.1327690125
 20
51.0357127075
 10
-100.2041998901
 20
51.0357127075
  0
LWPOLYLINE
  5
327
100
AcDbEntity
  8
0
100
AcDbPolyline
 62
250
  6
CONTINUOUS
 90
31
 70
0
 10
-100.0459395908
 20
-33.8918051185
 10
-100.320225993
 20
-33.9157913706
 10
-100.5930927739
 20
-33.9381494639
 10
-100.8638508321
 20
-33.958822935
 10
-101.1318163914
 20
-33.9777595748
 10
-101.396312728
 20
-33.9949115605
 10
-101.6566718791
 20
-34.0102355762
 10
-101.9122363302
 20
-34.0236929224
 10
-102.1623606753
 20
-34.0352496137
 10
-102.406413247
 20
-34.0448764648
 10
-102.6437777115
 20
-34.0525491639
 10
-102.8738546253
 20
-34.0582483341
 10
-103.0960629491
 20
-34.0619595828
 10
-103.3098415148
 20
-34.0636735374
 10
-103.5146504432
 20
-34.0633858696
 10
-103.709972507
 20
-34.0610973058
 10
-103.8953144372
 20
-34.0568136257
 10
-104.0702081686
 20
-34.0505456471
 10
-104.2342120223
 20
-34.0423091995
 10
-104.3869118207
 20
-34.0321250832
 10
-104.5279219336
 20
-34.0200190173
 10
-104.6568862522
 20
-34.0060215747
 10
-104.7734790881
 20
-33.9901681047
 10
-104.8774059962
 20
-33.9724986439
 10
-104.9684045181
 20
-33.9530578149
 10
-105.0462448448
 20
-33.9318947139
 10
-105.1107303974
 20
-33.9090627865
 10
-105.1616983231
 20
-33.8846196927
 10
-105.1990199069
 20
-33.8586271616
 10
-105.2226008962
 20
-33.8311508348
 10
-105.2323817394
 20
-33.8022601017
  0
LINE
  5
328
100
AcDbEntity
  8
0
100
AcDbLine
 62
7
  6
CONTINUOUS
 10
-105.4122717042
 20
-33.499979
 11
-105.2615801544
 21
-33.499979
  0
LINE
  5
329
100
AcDbEntity
  8
0
100
AcDbLine
 62
250
  6
CONTINUOUS
 10
-97.9684811886
 20
-33.904109589
 11
-100.04593964
 21
-33.8918052244
  0
LINE
  5
32A
100
AcDbEntity
  8
0
100
AcDbLine
 62
7
  6
CONTINUOUS
 10
-105.520891187
 20
-32.3499536669
 11
-105.3702466041
 21
-32.3499536669
  0
LINE
  5
32B
100
AcDbEntity
  8
0
100
AcDbLine
 62
7
  6
CONTINUOUS
 10
-105.6700598109
 20
-30.69986
 11
-105.5194796805
 21
-30.69986
  0
LWPOLYLINE
  5
32C
100
AcDbEntity
  8
0
100
AcDbPolyline
 62
7
  6
CONTINUOUS
 90
3
 70
0
 43
0.3500000006
 10
-102.5613382874
 20
50.0357124023
 10
-102.6327694702
 20
49.8214279175
 10
-102.7756227722
 20
49.5357122498
  0
LWPOLYLINE
  5
32D
100
AcDbEntity
  8
0
100
AcDbPolyline
 62
7
  6
CONTINUOUS
 90
7
 70
0
 43
0.3500000006
 10
-115.61847995
 20
1.5000001373
 10
-115.61847995
 20
-0.0000003204
 10
-117.7613338623
 20
1.5000001373
 10
-118.1899118958
 20
1.5000001373
 10
-118.6184808655
 20
1.0714289017
 10
-118.6184808655
 20
0.4285709152
 10
-117.9756274109
 20
-0.0000003204
  0
LWPOLYLINE
  5
32E
100
AcDbEntity
  8
0
100
AcDbPolyline
 62
7
  6
CONTINUOUS
 90
13
 70
0
 43
0.3500000006
 10
-117.3327648926
 20
-1.9285708809
 10
-117.5470493774
 20
-2.2142854156
 10
-118.1899118958
 20
-2.2142854156
 10
-118.6184808655
 20
-1.9285708809
 10
-118.6184808655
 20
-1.2857140274
 10
-118.1899118958
 20
-1.0000006256
 10
-117.5470493774
 20
-1.0000006256
 10
-117.3327648926
 20
-1.2857140274
 10
-116.9041959229
 20
-0.8571427917
 10
-116.0470489197
 20
-0.8571427917
 10
-115.61847995
 20
-1.2857140274
 10
-115.61847995
 20
-1.9285708809
 10
-116.0470489197
 20
-2.3571432495
  0
LWPOLYLINE
  5
32F
100
AcDbEntity
  8
0
100
AcDbPolyline
 62
7
  6
CONTINUOUS
 90
4
 70
0
 43
0.3500000006
 10
-105.6327703857
 20
50.1785702362
 10
-105.6327703857
 20
51.0357127075
 10
-105.2041923523
 20
51.4642862091
 10
-104.5613388977
 20
51.4642862091
  0
LWPOLYLINE
  5
330
100
AcDbEntity
  8
0
100
AcDbPolyline
 62
250
  6
CONTINUOUS
 90
22
 70
0
 10
-100.04593964
 20
33.8918052244
 10
-100.338238892
 20
30.668416043
 10
-100.6012636642
 20
27.4436313369
 10
-100.8350139566
 20
24.2177832806
 10
-101.0394623617
 20
20.9917068491
 10
-101.2146362869
 20
17.7652292083
 10
-101.3606179546
 20
14.5371664808
 10
-101.4774400946
 20
11.3071915211
 10
-101.565069977
 20
8.0762834778
 10
-101.6234916351
 20
4.8452154031
 10
-101.6526997382
 20
1.6148991365
 10
-101.652699617
 20
-1.614924777
 10
-101.6234912968
 20
-4.845240408
 10
-101.565069531
 20
-8.07630596
 10
-101.4774395661
 20
-11.3072108469
 10
-101.3606171673
 20
-14.5371857711
 10
-101.2146347587
 20
-17.7652562421
 10
-101.0394599162
 20
-20.9917447317
 10
-100.8350111337
 20
-24.2178248864
 10
-100.6012612425
 20
-27.443666151
 10
-100.3382374112
 20
-30.66843698
 10
-100.04593964
 20
-33.8918052244
  0
LWPOLYLINE
  5
331
100
AcDbEntity
  8
0
100
AcDbPolyline
 62
7
  6
CONTINUOUS
 90
4
 70
0
 43
0.3500000006
 10
-116.0470489197
 20
-2.3571432495
 10
-116.9041959229
 20
-2.3571432495
 10
-117.3327648926
 20
-1.9285708809
 10
-117.3327648926
 20
-1.2857140274
  0
LINE
  5
332
100
AcDbEntity
  8
0
100
AcDbLine
 62
250
  6
CONTINUOUS
 10
-99.9554347583
 20
-36.9129156607
 11
-99.831670272
 21
-40.9023543978
  0
LINE
  5
333
100
AcDbEntity
  8
0
100
AcDbLine
 62
250
  6
CONTINUOUS
 10
-100.04593964
 20
-33.8918052244
 11
-99.9554347583
 21
-36.9129156607
  0
LINE
  5
334
100
AcDbEntity
  8
0
100
AcDbLine
 62
250
  6
CONTINUOUS
 10
-99.831670272
 20
40.9023543978
 11
-100.04593964
 21
33.8918052244
  0
LINE
  5
335
100
AcDbEntity
  8
0
100
AcDbLine
 62
7
  6
CONTINUOUS
 10
-97.9684811886
 20
-41.0
 11
-97.9684811886
 21
-7.3314391493
  0
LINE
  5
336
100
AcDbEntity
  8
0
100
AcDbLine
 62
7
  6
CONTINUOUS
 10
-97.9684811886
 20
7.3314391493
 11
-97.9684811886
 21
41.0
  0
LWPOLYLINE
  5
337
100
AcDbEntity
  8
0
100
AcDbPolyline
 62
7
  6
CONTINUOUS
 90
10
 70
0
 43
0.3500000006
 10
-102.6327694702
 20
50.2500014191
 10
-102.5613382874
 20
50.1071435852
 10
-102.5613382874
 20
50.0357124023
 10
-102.7041915894
 20
49.8928591003
 10
-102.7756227722
 20
49.8928591003
 10
-102.8470539551
 20
49.9642857513
 10
-102.8470539551
 20
50.0357124023
 10
-102.7756227722
 20
50.1785702362
 10
-102.7041915894
 20
50.2500014191
 10
-102.6327694702
 20
50.2500014191
  0
LINE
  5
338
100
AcDbEntity
  8
0
100
AcDbLine
 62
250
  6
CONTINUOUS
 10
-97.9684811886
 20
33.904109589
 11
-100.04593964
 21
33.8918052244
  0
LWPOLYLINE
  5
339
100
AcDbEntity
  8
0
100
AcDbPolyline
 62
250
  6
CONTINUOUS
 90
31
 70
0
 10
-100.0459396381
 20
33.8918052203
 10
-100.3202260547
 20
33.9157914721
 10
-100.5930928498
 20
33.9381495648
 10
-100.8638509216
 20
33.9588230351
 10
-101.1318164939
 20
33.9777596738
 10
-101.3963128428
 20
33.9949116581
 10
-101.6566720055
 20
34.0102356722
 10
-101.9122364672
 20
34.0236930165
 10
-102.1623608219
 20
34.0352497057
 10
-102.406413402
 20
34.0448765543
 10
-102.6437778738
 20
34.0525492507
 10
-102.8738547936
 20
34.058248418
 10
-103.096063122
 20
34.0619596635
 10
-103.309841691
 20
34.0636736147
 10
-103.5146506212
 20
34.0633859433
 10
-103.7099726852
 20
34.0610973757
 10
-103.895314614
 20
34.0568136915
 10
-104.0702083424
 20
34.0505457088
 10
-104.2342121913
 20
34.0423092568
 10
-104.3869119832
 20
34.0321251359
 10
-104.5279220879
 20
34.0200190654
 10
-104.6568863965
 20
34.006021618
 10
-104.7734792206
 20
33.9901681431
 10
-104.8774061152
 20
33.9724986773
 10
-104.9684046218
 20
33.9530578433
 10
-105.0462449315
 20
33.9318947372
 10
-105.1107304652
 20
33.9090628046
 10
-105.1616983704
 20
33.8846197057
 10
-105.199019932
 20
33.8586271694
 10
-105.2226008975
 20
33.8311508376
 10
-105.2323817153
 20
33.8022600994
  0
LINE
  5
33A
100
AcDbEntity
  8
0
100
AcDbLine
 62
7
  6
CONTINUOUS
 10
-97.9684811886
 20
41.0
 11
-99.831670272
 21
40.9023543978
  0
LWPOLYLINE
  5
33B
100
AcDbEntity
  8
0
100
AcDbPolyline
 62
7
  6
CONTINUOUS
 90
13
 70
0
 43
0.3500000006
 10
-105.2041923523
 20
51.4642862091
 10
-105.48990802
 20
51.678570694
 10
-105.48990802
 20
52.3214286804
 10
-105.2041923523
 20
52.750002182
 10
-104.5613388977
 20
52.750002182
 10
-104.27562323
 20
52.3214286804
 10
-104.27562323
 20
51.678570694
 10
-104.5613388977
 20
51.4642862091
 10
-104.132769928
 20
51.0357127075
 10
-104.132769928
 20
50.1785702362
 10
-104.5613388977
 20
49.7500012665
 10
-105.2041923523
 20
49.7500012665
 10
-105.6327703857
 20
50.1785702362
  0
ARC
  5
33C
100
AcDbEntity
  8
0
100
AcDbCircle
 62
7
  6
CONTINUOUS
 10
213.5
 20
0.0
 40
300.0
100
AcDbArc
 50
181.4003411461
 51
186.4890714501
  0
ARC
  5
33D
100
AcDbEntity
  8
0
100
AcDbCircle
 62
7
  6
CONTINUOUS
 10
-213.5
 20
-0.0
 40
300.0
100
AcDbArc
 50
353.5109285499
 51
358.5996588539
  0
ARC
  5
33E
100
AcDbEntity
  8
0
100
AcDbCircle
 62
7
  6
CONTINUOUS
 10
-213.5
 20
-0.0
 40
300.0
100
AcDbArc
 50
1.4003411461
 51
6.4890714501
  0
ARC
  5
33F
100
AcDbEntity
  8
0
100
AcDbCircle
 62
7
  6
CONTINUOUS
 10
213.5
 20
0.0
 40
300.0
100
AcDbArc
 50
173.5109285499
 51
178.5996588539
  0
ARC
  5
340
100
AcDbEntity
  8
0
100
AcDbCircle
 62
7
  6
CONTINUOUS
 10
-76.6292815281
 20
-33.0
 40
8.0
100
AcDbArc
 50
186.4890714501
 51
270.0
  0
ARC
  5
341
100
AcDbEntity
  8
0
100
AcDbCircle
 62
7
  6
CONTINUOUS
 10
76.6292815281
 20
-33.0
 40
8.0
100
AcDbArc
 50
270.0
 51
353.5109285499
  0
ARC
  5
342
100
AcDbEntity
  8
0
100
AcDbCircle
 62
7
  6
CONTINUOUS
 10
76.6292815281
 20
33.0
 40
8.0
100
AcDbArc
 50
6.4890714501
 51
90.0
  0
ARC
  5
343
100
AcDbEntity
  8
0
100
AcDbCircle
 62
7
  6
CONTINUOUS
 10
-76.6292815281
 20
33.0
 40
8.0
100
AcDbArc
 50
90.0
 51
173.5109285499
  0
ARC
  5
344
100
AcDbEntity
  8
0
100
AcDbCircle
 62
7
  6
CONTINUOUS
 10
76.0303339301
 20
-31.558579
 40
0.8587214994
100
AcDbArc
 50
292.8428415932
 51
90.0
  0
ARC
  5
345
100
AcDbEntity
  8
0
100
AcDbCircle
 62
7
  6
CONTINUOUS
 10
75.9526039301
 20
-31.558579
 40
0.340698
100
AcDbArc
 50
270.0
 51
90.0
  0
ARC
  5
346
100
AcDbEntity
  8
0
100
AcDbCircle
 62
7
  6
CONTINUOUS
 10
243.1315188114
 20
0.0
 40
350.15
100
AcDbArc
 50
185.0299405253
 51
185.4900691439
  0
ARC
  5
347
100
AcDbEntity
  8
0
100
AcDbCircle
 62
7
  6
CONTINUOUS
 10
243.1315188114
 20
0.0
 40
350.0
100
AcDbArc
 50
174.1003573038
 51
185.8996426962
  0
ARC
  5
348
100
AcDbEntity
  8
0
100
AcDbCircle
 62
7
  6
CONTINUOUS
 10
-89.4684811886
 20
0.0
 40
11.0
100
AcDbArc
 50
142.3415379938
 51
217.6584620062
  0
ARC
  5
349
100
AcDbEntity
  8
0
100
AcDbCircle
 62
7
  6
CONTINUOUS
 10
-99.543822576
 20
-35.4098913775
 40
5.5000000001
100
AcDbArc
 50
185.8996487647
 51
267.0000009743
  0
ARC
  5
34A
100
AcDbEntity
  8
0
100
AcDbCircle
 62
7
  6
CONTINUOUS
 10
-99.543822576
 20
35.4098913775
 40
5.5000000001
100
AcDbArc
 50
92.9999990257
 51
174.1003512353
  0
ARC
  5
34B
100
AcDbEntity
  8
0
100
AcDbCircle
 62
7
  6
CONTINUOUS
 10
-98.9684811886
 20
7.3314391493
 40
1.0
100
AcDbArc
 50
322.3415379938
 51
360.0
  0
ARC
  5
34C
100
AcDbEntity
  8
0
100
AcDbCircle
 62
7
  6
CONTINUOUS
 10
-98.9684811886
 20
-7.3314391493
 40
1.0
100
AcDbArc
 50
0.0
 51
37.6584620062
  0
ELLIPSE
  5
34D
100
AcDbEntity
  8
0
100
AcDbEllipse
 62
7
  6
CONTINUOUS
 10
-62.3
 20
-22.3156790928
 30
0.0
 11
0.0
 21
-0.2000304656
 31
0.0
 40
0.9998476952
 41
4.7123889804
 42
6.2831853072
  0
ELLIPSE
  5
34E
100
AcDbEntity
  8
0
100
AcDbEllipse
 62
7
  6
CONTINUOUS
 10
62.3
 20
-22.3156790928
 30
0.0
 11
-0.0
 21
0.2000304656
 31
0.0
 40
0.9998476952
 41
9.4247779608
 42
10.8897143853
  0
ELLIPSE
  5
34F
100
AcDbEntity
  8
0
100
AcDbEllipse
 62
7
  6
CONTINUOUS
 10
-62.3
 20
22.3156790928
 30
0.0
 11
0.0
 21
-0.2000304656
 31
0.0
 40
0.9998476952
 41
9.4247779608
 42
10.8897143853
  0
ELLIPSE
  5
350
100
AcDbEntity
  8
0
100
AcDbEllipse
 62
7
  6
CONTINUOUS
 10
62.3
 20
22.3156790928
 30
0.0
 11
-0.0
 21
0.2000304656
 31
0.0
 40
0.9998476952
 41
4.7123889804
 42
6.2831853072
  0
ENDSEC
  0
SECTION
  2
OBJECTS
  0
DICTIONARY
  5
C
100
AcDbDictionary
280
0
281
1
  3
ACAD_GROUP
350
D
  3
ACAD_MLINESTYLE
350
17
  3
ACAD_LAYOUT
350
1A
  3
ACAD_PLOTSETTINGS
350
19
  3
ACAD_PLOTSTYLENAME
350
E
  0
DICTIONARY
  5
D
102
{ACAD_REACTORS
330
C
102
}
100
AcDbDictionary
280
0
281
1
  0
ACDBDICTIONARYWDFLT
  5
E
102
{ACAD_REACTORS
330
C
102
}
100
AcDbDictionary
281
1
  3
Normal
350
F
100
AcDbDictionaryWithDefault
340
F
  0
DICTIONARY
  5
17
102
{ACAD_REACTORS
330
C
102
}
100
AcDbDictionary
280
0
281
1
  3
Standard
350
18
  0
DICTIONARY
  5
19
102
{ACAD_REACTORS
330
C
102
}
100
AcDbDictionary
281
1
  0
DICTIONARY
  5
1A
102
{ACAD_REACTORS
330
C
102
}
100
AcDbDictionary
281
1
  3
Model
350
351
  3
Layout1
350
352
  0
ACDBPLACEHOLDER
  5
F
102
{ACAD_REACTORS
330
E
102
}
  0
MLINESTYLE
  5
18
102
{ACAD_REACTORS
330
17
102
}
100
AcDbMlineStyle
  2
STANDARD
 70
0
  3

 62
256
 51
90.0
 52
90.0
 71
2
 49
0.5
 62
256
  6
BYLAYER
 49
-0.5
 62
256
  6
BYLAYER
  0
LAYOUT
  5
351
102
{ACAD_REACTORS
330
1A
102
}
100
AcDbPlotSettings
  1

  2
none_device
  4
ISO_A4_(297.00_x_210.00_MM)
  6

 40
0.0
 41
0.0
 42
0.0
 43
0.0
 44
297.0
 45
210.0
 46
0.0
 47
0.0
 48
0.0
 49
0.0
140
0.0
141
0.0
142
1.0
143
1.0
 70
1024
 72
1
 73
0
 74
0
  7

 75
0
147
1.0
148
0.0
149
0.0
100
AcDbLayout
  1
Model
 70
0
 71
0
 10
0.0
 20
0.0
 11
297.0
 21
210.0
 12
0.0
 22
0.0
 32
0.0
 14
0.0
 24
0.0
 34
0.0
 15
0.0
 25
0.0
 35
0.0
146
0.0
 13
0.0
 23
0.0
 33
0.0
 16
1.0
 26
0.0
 36
0.0
 17
0.0
 27
1.0
 37
0.0
 76
0
330
214
345
0
346
0
  0
LAYOUT
  5
352
102
{ACAD_REACTORS
330
1A
102
}
100
AcDbPlotSettings
  1

  2
none_device
  4
ISO_A4_(297.00_x_210.00_MM)
  6

 40
0.0
 41
0.0
 42
0.0
 43
0.0
 44
297.0
 45
210.0
 46
0.0
 47
0.0
 48
0.0
 49
0.0
140
0.0
141
0.0
142
1.0
143
1.0
 70
0
 72
1
 73
0
 74
0
  7

 75
0
147
1.0
148
0.0
149
0.0
100
AcDbLayout
  1
Layout1
 70
0
 71
1
 10
0.0
 20
0.0
 11
297.0
 21
210.0
 12
0.0
 22
0.0
 32
0.0
 14
0.0
 24
0.0
 34
0.0
 15
0.0
 25
0.0
 35
0.0
146
0.0
 13
0.0
 23
0.0
 33
0.0
 16
1.0
 26
0.0
 36
0.0
 17
0.0
 27
1.0
 37
0.0
 76
0
330
215
345
0
346
0
  0
ENDSEC
  0
EOF
