  0
SECTION
  2
HEADER
  9
$ACADVER
  1
AC1024
  9
$DWGCODEPAGE
  3
ANSI_1252
  9
$EXTMAX
 10
297.0
 20
210.0
 30
0.0
  9
$EXTMIN
 10
0.0
 20
0.0
 30
0.0
  9
$LIMMIN
 10
0.0
 20
0.0
  9
$LIMMAX
 10
297.0
 20
210.0
  9
$VIEWCTR
 10
148.5
 20
105.0
  9
$VIEWSIZE
 40
210.0
  9
$CLAYER
  8
0
  9
$LTSCALE
 40
16.335
  9
$CELTYPE
  6
BYLAYER
  9
$DIMSCALE
 40
1.0
  9
$DIMASZ
 40
3.0
  9
$DIMEXO
 40
0.5
  9
$DIMDLI
 40
11.286
  9
$DIMEXE
 40
1.5
  9
$DIMCEN
 40
2.673
  9
$DIMLFAC
 40
1.0
  9
$DIMBLK
  1
_FILLED
  9
$DIMALT
 70
0
  9
$DIMALTF
 40
0.0393700787
  9
$DIMTXT
 40
3.0
  9
$DIMTOL
 70
1
  9
$DIMLIM
 70
0
  9
$DIMTFAC
 40
1.0
  9
$DIMTP
 40
0.01
  9
$DIMTM
 40
0.01
  9
$DIMGAP
 40
0.625
  9
$DIMDSEP
 70
44
  9
$AUNITS
 70
0
  9
$PDMODE
 70
3
  9
$PDSIZE
 40
3.0
  9
$HANDSEED
  5
35E
  9
$TILEMODE
 70
1
  9
$MEASUREMENT
 70
1
  9
$INSUNITS
 70
4
  0
ENDSEC
  0
SECTION
  2
CLASSES
  0
CLASS
  1
ACDBDICTIONARYWDFLT
  2
AcDbDictionaryWithDefault
  3
AutoCAD 2000
 90
0
 91
1
280
0
281
0
  0
CLASS
  1
ACDBPLACEHOLDER
  2
AcDbPlaceHolder
  3
AutoCAD 2000
 90
0
 91
1
280
0
281
0
  0
CLASS
  1
LAYOUT
  2
AcDbLayout
  3
AutoCAD 2000
 90
0
 91
0
280
0
281
0
  0
ENDSEC
  0
SECTION
  2
TABLES
  0
TABLE
  2
VPORT
  5
8
100
AcDbSymbolTable
 70
2
  0
VPORT
  5
1F4
100
AcDbSymbolTableRecord
100
AcDbViewportTableRecord
  2
*ACTIVE
 70
0
 10
0.0
 20
0.0
 11
1.0
 21
1.0
 12
148.5
 22
105.0
 13
0.0
 23
0.0
 14
1.0
 24
1.0
 15
0.0
 25
0.0
 16
0.0
 26
0.0
 36
1.0
 17
0.0
 27
0.0
 37
0.0
 40
210.0
 41
1.4142857143
 42
50.0
 43
0.0
 44
0.0
 50
0.0
 51
0.0
 71
0
 72
100
 73
1
 74
1
 75
0
 76
0
 77
0
 78
0
  0
ENDTAB
  0
TABLE
  2
LTYPE
  5
5
100
AcDbSymbolTable
 70
6
  0
LTYPE
  5
14
100
AcDbSymbolTableRecord
100
AcDbLinetypeTableRecord
  2
BYBLOCK
 70
0
  3

 72
65
 73
0
 40
0.0
  0
LTYPE
  5
15
100
AcDbSymbolTableRecord
100
AcDbLinetypeTableRecord
  2
BYLAYER
 70
0
  3

 72
65
 73
0
 40
0.0
  0
LTYPE
  5
16
100
AcDbSymbolTableRecord
100
AcDbLinetypeTableRecord
  2
CONTINUOUS
 70
64
  3
Solid line
 72
65
 73
0
 40
0.0
  0
LTYPE
  5
1F5
100
AcDbSymbolTableRecord
100
AcDbLinetypeTableRecord
  2
CENTER
 70
64
  3
____ _ ____ _ ____ _ ____ _ ____ _ ____ _ ____
 72
65
 73
4
 40
0.6
 49
0.375
 74
0
 49
-0.075
 74
0
 49
0.075
 74
0
 49
-0.075
 74
0
  0
LTYPE
  5
1F6
100
AcDbSymbolTableRecord
100
AcDbLinetypeTableRecord
  2
HIDDEN
 70
64
  3
- - - - - - - - - - - - - - - - - - - -
 72
65
 73
2
 40
0.2
 49
0.1
 74
0
 49
-0.1
 74
0
  0
LTYPE
  5
1F7
100
AcDbSymbolTableRecord
100
AcDbLinetypeTableRecord
  2
PHANTOM
 70
64
  3
_____ _ _ _____ _ _ _____ _ _ _____
 72
65
 73
6
 40
0.8
 49
0.45
 74
0
 49
-0.05
 74
0
 49
0.1
 74
0
 49
-0.05
 74
0
 49
0.1
 74
0
 49
-0.05
 74
0
  0
LTYPE
  5
1F8
100
AcDbSymbolTableRecord
100
AcDbLinetypeTableRecord
  2
DOT
 70
64
  3
. . . . . . . . . . . . . . . . . . . .
 72
65
 73
2
 40
0.2
 49
0.1
 74
0
 49
-0.1
 74
0
  0
LTYPE
  5
1F9
100
AcDbSymbolTableRecord
100
AcDbLinetypeTableRecord
  2
DASHED
 70
64
  3
- - - - - - - - - - - - - - - - - - - -
 72
65
 73
2
 40
0.2
 49
0.1
 74
0
 49
-0.1
 74
0
  0
ENDTAB
  0
TABLE
  2
LAYER
  5
2
100
AcDbSymbolTable
 70
36
  0
LAYER
  5
10
100
AcDbSymbolTableRecord
100
AcDbLayerTableRecord
  2
0
 70
0
 62
7
  6
CONTINUOUS
370
-3
390
F
  0
LAYER
  5
1FA
100
AcDbSymbolTableRecord
100
AcDbLayerTableRecord
  2
DEFAULT_1
 70
0
 62
7
  6
CENTER
370
-3
390
F
  0
LAYER
  5
1FB
100
AcDbSymbolTableRecord
100
AcDbLayerTableRecord
  2
DEFAULT_2
 70
0
 62
7
  6
HIDDEN
370
-3
390
F
  0
LAYER
  5
1FC
100
AcDbSymbolTableRecord
100
AcDbLayerTableRecord
  2
DEFAULT_3
 70
0
 62
7
  6
PHANTOM
370
-3
390
F
  0
LAYER
  5
1FD
100
AcDbSymbolTableRecord
100
AcDbLayerTableRecord
  2
26216763_GEN
 70
0
 62
7
  6
CONTINUOUS
370
-3
390
F
  0
LAYER
  5
1FE
100
AcDbSymbolTableRecord
100
AcDbLayerTableRecord
  2
ASSI
 70
0
 62
7
  6
CONTINUOUS
370
-3
390
F
  0
LAYER
  5
1FF
100
AcDbSymbolTableRecord
100
AcDbLayerTableRecord
  2
COORDINATE
 70
0
 62
7
  6
CONTINUOUS
370
-3
390
F
  0
LAYER
  5
200
100
AcDbSymbolTableRecord
100
AcDbLayerTableRecord
  2
COORD_ORIGINE
 70
0
 62
7
  6
CONTINUOUS
370
-3
390
F
  0
LAYER
  5
201
100
AcDbSymbolTableRecord
100
AcDbLayerTableRecord
  2
COSMETICI
 70
0
 62
7
  6
CONTINUOUS
370
-3
390
F
  0
LAYER
  5
202
100
AcDbSymbolTableRecord
100
AcDbLayerTableRecord
  2
CURVE
 70
0
 62
7
  6
CONTINUOUS
370
-3
390
F
  0
LAYER
  5
203
100
AcDbSymbolTableRecord
100
AcDbLayerTableRecord
  2
IGES_SCRITTE
 70
0
 62
7
  6
CONTINUOUS
370
-3
390
F
  0
LAYER
  5
204
100
AcDbSymbolTableRecord
100
AcDbLayerTableRecord
  2
INTF_1
 70
0
 62
7
  6
CONTINUOUS
370
-3
390
F
  0
LAYER
  5
205
100
AcDbSymbolTableRecord
100
AcDbLayerTableRecord
  2
INTF_7
 70
0
 62
7
  6
CONTINUOUS
370
-3
390
F
  0
LAYER
  5
206
100
AcDbSymbolTableRecord
100
AcDbLayerTableRecord
  2
NOTE
 70
0
 62
7
  6
CONTINUOUS
370
-3
390
F
  0
LAYER
  5
207
100
AcDbSymbolTableRecord
100
AcDbLayerTableRecord
  2
PIANI
 70
0
 62
7
  6
CONTINUOUS
370
-3
390
F
  0
LAYER
  5
208
100
AcDbSymbolTableRecord
100
AcDbLayerTableRecord
  2
PIANI_DI_RIFERIMENTO
 70
0
 62
7
  6
CONTINUOUS
370
-3
390
F
  0
LAYER
  5
209
100
AcDbSymbolTableRecord
100
AcDbLayerTableRecord
  2
PIANI_ORIGINE
 70
0
 62
7
  6
CONTINUOUS
370
-3
390
F
  0
LAYER
  5
20A
100
AcDbSymbolTableRecord
100
AcDbLayerTableRecord
  2
PUNTI
 70
0
 62
7
  6
CONTINUOUS
370
-3
390
F
  0
LAYER
  5
20B
100
AcDbSymbolTableRecord
100
AcDbLayerTableRecord
  2
RGB__255__255__255__
 70
0
 62
7
  6
CONTINUOUS
370
-3
390
F
  0
LAYER
  5
20C
100
AcDbSymbolTableRecord
100
AcDbLayerTableRecord
  2
RGB____0____0____0__
 70
0
 62
7
  6
CONTINUOUS
370
-3
390
F
  0
LAYER
  5
20D
100
AcDbSymbolTableRecord
100
AcDbLayerTableRecord
  2
SIMBOLI
 70
0
 62
7
  6
CONTINUOUS
370
-3
390
F
  0
LAYER
  5
20E
100
AcDbSymbolTableRecord
100
AcDbLayerTableRecord
  2
SNAPLINE
 70
0
 62
7
  6
CONTINUOUS
370
-3
390
F
  0
LAYER
  5
20F
100
AcDbSymbolTableRecord
100
AcDbLayerTableRecord
  2
SUPERFICI
 70
0
 62
7
  6
CONTINUOUS
370
-3
390
F
  0
LAYER
  5
210
100
AcDbSymbolTableRecord
100
AcDbLayerTableRecord
  2
TRASH
 70
0
 62
7
  6
CONTINUOUS
370
-3
390
F
  0
LAYER
  5
211
100
AcDbSymbolTableRecord
100
AcDbLayerTableRecord
  2
XSEC_DATUMS
 70
0
 62
7
  6
CONTINUOUS
370
-3
390
F
  0
ENDTAB
  0
TABLE
  2
STYLE
  5
3
100
AcDbSymbolTable
 70
1
  0
STYLE
  5
11
100
AcDbSymbolTableRecord
100
AcDbTextStyleTableRecord
  2
STANDARD
 70
0
 40
0.0
 41
0.8
 50
0.0
 71
0
 42
0.2
  3
txt
  4

  0
STYLE
  5
212
100
AcDbSymbolTableRecord
100
AcDbTextStyleTableRecord
  2
TEXTSTYLE_1
 70
0
 40
0.0
 41
0.8
 50
0.0
 71
0
 42
0.2
  3
gdt
  4

  0
ENDTAB
  0
TABLE
  2
VIEW
  5
6
100
AcDbSymbolTable
 70
0
  0
ENDTAB
  0
TABLE
  2
UCS
  5
7
100
AcDbSymbolTable
 70
0
  0
ENDTAB
  0
TABLE
  2
APPID
  5
9
100
AcDbSymbolTable
 70
1
  0
APPID
  5
213
100
AcDbSymbolTableRecord
100
AcDbRegAppTableRecord
  2
ACAD
 70
0
  0
ENDTAB
  0
TABLE
  2
BLOCK_RECORD
  5
1
100
AcDbSymbolTable
 70
0
  0
BLOCK_RECORD
  5
214
100
AcDbSymbolTableRecord
100
AcDbBlockTableRecord
  2
*Model_Space
  0
BLOCK_RECORD
  5
215
100
AcDbSymbolTableRecord
100
AcDbBlockTableRecord
  2
*Paper_Space
  0
BLOCK_RECORD
  5
216
100
AcDbSymbolTableRecord
100
AcDbBlockTableRecord
  2
_FILLED
  0
BLOCK_RECORD
  5
217
100
AcDbSymbolTableRecord
100
AcDbBlockTableRecord
  2
*D0
  0
BLOCK_RECORD
  5
218
100
AcDbSymbolTableRecord
100
AcDbBlockTableRecord
  2
*D1
  0
BLOCK_RECORD
  5
219
100
AcDbSymbolTableRecord
100
AcDbBlockTableRecord
  2
*D2
  0
ENDTAB
  0
TABLE
  2
DIMSTYLE
  5
A
100
AcDbSymbolTable
 70
1
100
AcDbDimStyleTable
 71
0
  0
DIMSTYLE
105
21A
100
AcDbSymbolTableRecord
100
AcDbDimStyleTableRecord
  2
STANDARD
 70
0
  3

  4

 40
1.0
 41
3.0
 42
0.5
 43
0.38
 44
1.5
 45
0.0
 46
0.0
 47
0.01
 48
0.01
140
3.0
141
0.09
142
0.0
143
25.4
144
1.0
145
0.0
146
1.0
147
0.625
 71
1
 72
0
 73
0
 74
0
 75
0
 76
0
 77
1
 78
8
 79
2
170
0
171
1
172
0
173
0
174
0
175
0
176
0
177
0
178
0
270
2
179
2
271
2
272
2
273
2
274
2
275
0
280
0
281
0
282
0
283
1
284
8
285
0
286
0
287
3
288
0
340
11
278
44
341
216
342
216
343
216
344
216
  0
DIMSTYLE
105
21B
100
AcDbSymbolTableRecord
100
AcDbDimStyleTableRecord
  2
DIMSTYLE_1
 70
0
  3

  4

 40
1.0
 41
3.0
 42
0.5
 43
0.38
 44
1.5
 45
0.0
 46
0.0
 47
0.0
 48
0.0
140
3.0
141
0.09
142
0.0
143
25.4
144
1.0
145
0.0
146
1.0
147
0.75
 71
0
 72
0
 73
0
 74
0
 75
0
 76
0
 77
1
 78
8
 79
2
170
0
171
1
172
0
173
0
174
0
175
0
176
0
177
0
178
0
270
2
179
2
271
1
272
1
273
2
274
2
275
0
280
0
281
0
282
0
283
1
284
8
285
0
286
0
287
3
288
0
340
11
278
44
341
216
342
216
343
216
344
216
  0
DIMSTYLE
105
21C
100
AcDbSymbolTableRecord
100
AcDbDimStyleTableRecord
  2
DIMSTYLE_2
 70
0
  3

  4

 40
1.0
 41
3.0
 42
0.5
 43
0.38
 44
1.5
 45
0.0
 46
0.0
 47
0.0
 48
0.0
140
3.0
141
0.09
142
0.0
143
25.4
144
1.0
145
0.0
146
1.0
147
0.75
 71
0
 72
0
 73
0
 74
0
 75
0
 76
0
 77
1
 78
8
 79
2
170
0
171
1
172
0
173
0
174
0
175
0
176
0
177
0
178
0
270
2
179
2
271
2
272
2
273
2
274
2
275
0
280
0
281
0
282
0
283
1
284
8
285
0
286
0
287
3
288
0
340
11
278
44
341
216
342
216
343
216
344
216
  0
ENDTAB
  0
ENDSEC
  0
SECTION
  2
BLOCKS
  0
BLOCK
  5
20
100
AcDbEntity
  8
0
100
AcDbBlockBegin
  2
*Model_Space
 70
0
 10
0.0
 20
0.0
 30
0.0
  3
*Model_Space
  1

  0
ENDBLK
  5
21
100
AcDbEntity
  8
0
100
AcDbBlockEnd
  0
BLOCK
  5
1C
100
AcDbEntity
  8
0
100
AcDbBlockBegin
  2
*Paper_Space
 70
0
 10
0.0
 20
0.0
 30
0.0
  3
*Paper_Space
  1

  0
ENDBLK
  5
1D
100
AcDbEntity
  8
0
100
AcDbBlockEnd
  0
BLOCK
  5
21D
100
AcDbEntity
  8
0
100
AcDbBlockBegin
  2
_FILLED
 70
64
 10
0.0
 20
0.0
  3
_FILLED
  1

  0
SOLID
  5
21E
100
AcDbEntity
  8
0
  6
BYBLOCK
 62
0
100
AcDbTrace
 10
0.0
 20
0.0
 11
-1.0
 21
0.3166666667
 12
-1.0
 22
-0.3166666667
 13
-1.0
 23
-0.3166666667
  0
ENDBLK
  5
21F
100
AcDbEntity
  8
0
  6
BYBLOCK
 62
0
100
AcDbBlockEnd
  0
BLOCK
  5
220
100
AcDbEntity
  8
0
100
AcDbBlockBegin
 62
7
  6
CONTINUOUS
  2
*D0
 70
65
 10
0.0
 20
0.0
  3
*D0
  1

  0
LINE
  5
221
100
AcDbEntity
  8
0
100
AcDbLine
 62
7
  6
CONTINUOUS
 10
-98.9155389356
 20
7.4282578636
 11
-98.9155389356
 21
50.5
  0
LINE
  5
222
100
AcDbEntity
  8
0
100
AcDbLine
 62
7
  6
CONTINUOUS
 10
98.9155389356
 20
7.4282578636
 11
98.9155389356
 21
50.5
  0
LINE
  5
223
100
AcDbEntity
  8
0
100
AcDbLine
 62
7
  6
CONTINUOUS
 10
-98.9155389356
 20
49.0
 11
0.0
 21
49.0
  0
LINE
  5
224
100
AcDbEntity
  8
0
100
AcDbLine
 62
7
  6
CONTINUOUS
 10
98.9155389356
 20
49.0
 11
0.0
 21
49.0
  0
INSERT
  5
225
100
AcDbEntity
  8
0
100
AcDbBlockReference
 62
7
  6
CONTINUOUS
  2
_FILLED
 10
-98.9155389356
 20
49.0
 41
3.0
 42
3.0
 43
3.0
 50
180.0
  0
INSERT
  5
226
100
AcDbEntity
  8
0
100
AcDbBlockReference
 62
7
  6
CONTINUOUS
  2
_FILLED
 10
98.9155389356
 20
49.0
 41
3.0
 42
3.0
 43
3.0
  0
ENDBLK
  5
227
100
AcDbEntity
  8
0
  6
BYBLOCK
 62
0
100
AcDbBlockEnd
  0
BLOCK
  5
228
100
AcDbEntity
  8
0
100
AcDbBlockBegin
 62
7
  6
CONTINUOUS
  2
*D1
 70
65
 10
0.0
 20
0.0
  3
*D1
  1

  0
LINE
  5
229
100
AcDbEntity
  8
0
100
AcDbLine
 62
7
  6
CONTINUOUS
 10
-112.9693378896
 20
41.0
 11
-130.8693378506
 21
41.0
  0
LINE
  5
22A
100
AcDbEntity
  8
0
100
AcDbLine
 62
7
  6
CONTINUOUS
 10
-112.9693378896
 20
-41.0
 11
-130.8693378506
 21
-41.0
  0
LINE
  5
22B
100
AcDbEntity
  8
0
100
AcDbLine
 62
7
  6
CONTINUOUS
 10
-129.3693378506
 20
41.0
 11
-129.3693378506
 21
0.0
  0
LINE
  5
22C
100
AcDbEntity
  8
0
100
AcDbLine
 62
7
  6
CONTINUOUS
 10
-129.3693378506
 20
-41.0
 11
-129.3693378506
 21
0.0
  0
INSERT
  5
22D
100
AcDbEntity
  8
0
100
AcDbBlockReference
 62
7
  6
CONTINUOUS
  2
_FILLED
 10
-129.3693378506
 20
41.0
 41
3.0
 42
3.0
 43
3.0
 50
90.0
  0
INSERT
  5
22E
100
AcDbEntity
  8
0
100
AcDbBlockReference
 62
7
  6
CONTINUOUS
  2
_FILLED
 10
-129.3693378506
 20
-41.0
 41
3.0
 42
3.0
 43
3.0
 50
270.0
  0
ENDBLK
  5
22F
100
AcDbEntity
  8
0
  6
BYBLOCK
 62
0
100
AcDbBlockEnd
  0
BLOCK
  5
230
100
AcDbEntity
  8
0
100
AcDbBlockBegin
 62
7
  6
CONTINUOUS
  2
*D2
 70
65
 10
0.0
 20
0.0
  3
*D2
  1

  0
LINE
  5
231
100
AcDbEntity
  8
0
100
AcDbLine
 62
7
  6
CONTINUOUS
 10
-121.3693378896
 20
0.5
 11
-121.3693378896
 21
50.5
  0
LINE
  5
232
100
AcDbEntity
  8
0
100
AcDbLine
 62
7
  6
CONTINUOUS
 10
-112.4693378896
 20
39.2969808388
 11
-112.4693378896
 21
50.5
  0
LINE
  5
233
100
AcDbEntity
  8
0
100
AcDbLine
 62
7
  6
CONTINUOUS
 10
-121.3693378896
 20
49.0
 11
-125.3693378896
 21
49.0
  0
LINE
  5
234
100
AcDbEntity
  8
0
100
AcDbLine
 62
7
  6
CONTINUOUS
 10
-125.3693378896
 20
49.0
 11
-116.9193378896
 21
49.0
  0
LINE
  5
235
100
AcDbEntity
  8
0
100
AcDbLine
 62
7
  6
CONTINUOUS
 10
-112.4693378896
 20
49.0
 11
-108.4693378896
 21
49.0
  0
LINE
  5
236
100
AcDbEntity
  8
0
100
AcDbLine
 62
7
  6
CONTINUOUS
 10
-108.4693378896
 20
49.0
 11
-116.9193378896
 21
49.0
  0
INSERT
  5
237
100
AcDbEntity
  8
0
100
AcDbBlockReference
 62
7
  6
CONTINUOUS
  2
_FILLED
 10
-121.3693378896
 20
49.0
 41
3.0
 42
3.0
 43
3.0
  0
INSERT
  5
238
100
AcDbEntity
  8
0
100
AcDbBlockReference
 62
7
  6
CONTINUOUS
  2
_FILLED
 10
-112.4693378896
 20
49.0
 41
3.0
 42
3.0
 43
3.0
 50
180.0
  0
ENDBLK
  5
239
100
AcDbEntity
  8
0
  6
BYBLOCK
 62
0
100
AcDbBlockEnd
  0
ENDSEC
  0
SECTION
  2
ENTITIES
  0
DIMENSION
  5
23A
100
AcDbEntity
  8
0
100
AcDbDimension
 62
7
  6
CONTINUOUS
  2
*D0
 10
98.9155389356
 20
49.0
 11
-5.25
 21
49.0
 70
160
 71
2
 72
2
 41
0.9
 42
197.8310778712
  3
DIMSTYLE_1
100
AcDbAlignedDimension
 13
-98.9155389356
 23
6.9282578636
 14
98.9155389356
 24
6.9282578636
100
AcDbRotatedDimension
  0
DIMENSION
  5
23B
100
AcDbEntity
  8
0
100
AcDbDimension
 62
7
  6
CONTINUOUS
  2
*D1
 10
-129.3693378506
 20
-41.0
 11
-129.3693378506
 21
-2.3571428571
 70
160
 71
2
 72
2
 41
0.9
 42
82.0
  3
DIMSTYLE_2
100
AcDbAlignedDimension
 13
-112.4693378896
 23
41.0
 14
-112.4693378896
 24
-41.0
 50
270.0
100
AcDbRotatedDimension
  0
DIMENSION
  5
23C
100
AcDbEntity
  8
0
100
AcDbDimension
 62
7
  6
CONTINUOUS
  2
*D2
 10
-112.4693378896
 20
49.0
 11
-120.1336236039
 21
49.0
 70
160
 71
2
 72
2
 41
0.9
 42
8.9
  3
DIMSTYLE_2
100
AcDbAlignedDimension
 13
-121.3693378896
 23
0.0
 14
-112.4693378896
 24
38.7969808388
100
AcDbRotatedDimension
  0
LWPOLYLINE
  5
23D
100
AcDbEntity
  8
0
100
AcDbPolyline
 62
250
  6
CONTINUOUS
 90
22
 70
0
 10
-96.9698514984
 20
-33.8918052244
 10
-97.3034460939
 20
-30.66844119
 10
-97.6035448139
 20
-27.443672924
 10
-97.8701759786
 20
-24.2178325698
 10
-98.1033373474
 20
-20.9917507154
 10
-98.3031077444
 20
-17.7652588644
 10
-98.4695931686
 20
-14.5371862296
 10
-98.6028083135
 20
-11.3072118052
 10
-98.7027114383
 20
-8.076308621
 10
-98.7692941613
 20
-4.8452444471
 10
-98.802568803
 20
-1.6149293226
 10
-98.8025689822
 20
1.6148944101
 10
-98.7692946826
 20
4.8452107094
 10
-98.7027121997
 20
8.0762792773
 10
-98.6028091787
 20
11.307188027
 10
-98.4695942442
 20
14.5371630537
 10
-98.303109694
 20
17.7652242535
 10
-98.1033407512
 20
20.9916997304
 10
-97.8701804086
 20
24.2177753779
 10
-97.6035490699
 20
27.443624698
 10
-97.3034489826
 20
30.6684120399
 10
-96.9698514984
 20
33.8918052244
  0
LINE
  5
23E
100
AcDbEntity
  8
0
100
AcDbLine
 62
7
  6
CONTINUOUS
 10
-98.9127455708
 20
-7.2220613239
 11
-98.9104032874
 21
-7.3314391493
  0
LWPOLYLINE
  5
23F
100
AcDbEntity
  8
0
100
AcDbPolyline
 62
7
  6
CONTINUOUS
 90
3
 70
0
 10
-98.9149387167
 20
-7.0609570017
 10
-98.9143836272
 20
-7.1140472326
 10
-98.9127455708
 20
-7.2220613239
  0
LINE
  5
240
100
AcDbEntity
  8
0
100
AcDbLine
 62
7
  6
CONTINUOUS
 10
-98.9136521878
 20
7.1678010065
 11
-98.9149387167
 21
7.0609570017
  0
LWPOLYLINE
  5
241
100
AcDbEntity
  8
0
100
AcDbPolyline
 62
7
  6
CONTINUOUS
 90
3
 70
0
 10
-98.9104032874
 20
7.3314391493
 10
-98.911662604
 20
7.276661944
 10
-98.9136521878
 20
7.1678010065
  0
LWPOLYLINE
  5
242
100
AcDbEntity
  8
0
100
AcDbPolyline
 62
250
  6
CONTINUOUS
 90
37
 70
0
 10
-96.9698514984
 20
33.8918052244
 10
-96.9277543834
 20
34.2089044672
 10
-96.872839909
 20
34.5240265437
 10
-96.8052003878
 20
34.8366537301
 10
-96.7249508802
 20
35.1462689507
 10
-96.6322237276
 20
35.4523676804
 10
-96.5271668633
 20
35.7544579997
 10
-96.4099507712
 20
36.0520504629
 10
-96.2807709951
 20
36.3446490428
 10
-96.1398429525
 20
36.6317626952
 10
-95.9874026471
 20
36.9129156608
 10
-95.8237002962
 20
37.1876514704
 10
-95.6490018065
 20
37.4555225893
 10
-95.4635950463
 20
37.7160900975
 10
-95.2677865348
 20
37.9689257015
 10
-95.0618960048
 20
38.2136150265
 10
-94.8462619518
 20
38.4497575031
 10
-94.6212408266
 20
38.6769646718
 10
-94.3872035048
 20
38.8948611389
 10
-94.1445362592
 20
39.1030894115
 10
-93.893638935
 20
39.3013087187
 10
-93.6349244846
 20
39.4891926575
 10
-93.3688217592
 20
39.6664321593
 10
-93.095767185
 20
39.8327391235
 10
-92.8162030418
 20
39.9878440233
 10
-92.5305887007
 20
40.1314930214
 10
-92.239395166
 20
40.2634505446
 10
-91.9430965506
 20
40.383501308
 10
-91.6421757537
 20
40.4914499151
 10
-91.337132358
 20
40.5871177001
 10
-91.0284771737
 20
40.6703448652
 10
-90.7167283032
 20
40.7409942681
 10
-90.4023890057
 20
40.7989547389
 10
-90.0859553392
 20
40.8441350951
 10
-89.7679404858
 20
40.8764610615
 10
-89.4488743364
 20
40.8958782185
 10
-89.1292815281
 20
40.9023543978
  0
LWPOLYLINE
  5
243
100
AcDbEntity
  8
0
100
AcDbPolyline
 62
250
  6
CONTINUOUS
 90
22
 70
0
 10
-91.512576903
 20
-33.8022601024
 10
-91.8397309251
 20
-30.5872964747
 10
-92.1340909113
 20
-27.3710473253
 10
-92.3956568618
 20
-24.1537891448
 10
-92.6243853983
 20
-20.936243578
 10
-92.8203198989
 20
-17.7182409668
 10
-92.9835904984
 20
-14.4987180573
 10
-93.1142399423
 20
-11.2773037436
 10
-93.212225485
 20
-8.0549148674
 10
-93.2775490252
 20
-4.8324186768
 10
-93.3102112136
 20
-1.6106711308
 10
-93.3102113995
 20
1.6106368666
 10
-93.277549529
 20
4.8323855838
 10
-93.2122260971
 20
8.0548861554
 10
-93.1142406088
 20
11.2772805807
 10
-92.9835915256
 20
14.4986954956
 10
-92.820322096
 20
17.7182070237
 10
-92.6243890715
 20
20.9361933249
 10
-92.3956611683
 20
24.1537326544
 10
-92.1340946252
 20
27.370999647
 10
-91.8397332034
 20
30.5872676359
 10
-91.512576903
 20
33.8022601024
  0
LINE
  5
244
100
AcDbEntity
  8
0
100
AcDbLine
 62
7
  6
CONTINUOUS
 10
-98.9144937495
 20
6.7647618126
 11
-98.9032639849
 21
6.0674860596
  0
LINE
  5
245
100
AcDbEntity
  8
0
100
AcDbLine
 62
7
  6
CONTINUOUS
 10
-98.9032639849
 20
6.0674860596
 11
-98.8905374872
 21
5.0229915587
  0
LINE
  5
246
100
AcDbEntity
  8
0
100
AcDbLine
 62
7
  6
CONTINUOUS
 10
-98.8905374872
 20
5.0229915587
 11
-98.8811895016
 21
3.9164865199
  0
LINE
  5
247
100
AcDbEntity
  8
0
100
AcDbLine
 62
7
  6
CONTINUOUS
 10
-98.9153568956
 20
6.8582507172
 11
-98.9144937495
 21
6.7647618126
  0
LINE
  5
248
100
AcDbEntity
  8
0
100
AcDbLine
 62
7
  6
CONTINUOUS
 10
-98.8811895016
 20
3.9164865199
 11
-98.8747621197
 21
2.7691053972
  0
LINE
  5
249
100
AcDbEntity
  8
0
100
AcDbLine
 62
7
  6
CONTINUOUS
 10
-98.9155076216
 20
-6.9573671678
 11
-98.9149387167
 21
-7.0609570017
  0
LINE
  5
24A
100
AcDbEntity
  8
0
100
AcDbLine
 62
7
  6
CONTINUOUS
 10
-98.8747621197
 20
2.7691053972
 11
-98.8700151922
 21
1.1971829506
  0
LINE
  5
24B
100
AcDbEntity
  8
0
100
AcDbLine
 62
7
  6
CONTINUOUS
 10
-98.9155076216
 20
6.9573671678
 11
-98.9153568956
 21
6.8582507172
  0
LINE
  5
24C
100
AcDbEntity
  8
0
100
AcDbLine
 62
7
  6
CONTINUOUS
 10
-98.8700151922
 20
1.1971829506
 11
-98.8690928481
 21
-0.3996898297
  0
LINE
  5
24D
100
AcDbEntity
  8
0
100
AcDbLine
 62
7
  6
CONTINUOUS
 10
-98.8690928481
 20
-0.3996898297
 11
-98.8718776157
 21
-1.9879704772
  0
LINE
  5
24E
100
AcDbEntity
  8
0
100
AcDbLine
 62
7
  6
CONTINUOUS
 10
-98.9153568956
 20
-6.8582507172
 11
-98.9155076216
 21
-6.9573671678
  0
LINE
  5
24F
100
AcDbEntity
  8
0
100
AcDbLine
 62
7
  6
CONTINUOUS
 10
-98.8718776157
 20
-1.9879704772
 11
-98.8765964635
 21
-3.1548944635
  0
LINE
  5
250
100
AcDbEntity
  8
0
100
AcDbLine
 62
7
  6
CONTINUOUS
 10
-98.9149387167
 20
7.0609570017
 11
-98.9155076216
 21
6.9573671678
  0
LINE
  5
251
100
AcDbEntity
  8
0
100
AcDbLine
 62
7
  6
CONTINUOUS
 10
-98.8765964635
 20
-3.1548944635
 11
-98.8839454724
 21
-4.290828114
  0
LINE
  5
252
100
AcDbEntity
  8
0
100
AcDbLine
 62
7
  6
CONTINUOUS
 10
-98.8839454724
 20
-4.290828114
 11
-98.8943662624
 21
-5.3790263254
  0
LINE
  5
253
100
AcDbEntity
  8
0
100
AcDbLine
 62
7
  6
CONTINUOUS
 10
-98.9144937495
 20
-6.7647618126
 11
-98.9153568956
 21
-6.8582507172
  0
LWPOLYLINE
  5
254
100
AcDbEntity
  8
0
100
AcDbPolyline
 62
7
  6
CONTINUOUS
 90
3
 70
0
 10
-98.8943662624
 20
-5.3790263254
 10
-98.9083254938
 20
-6.398463039
 10
-98.9144937495
 20
-6.7647618126
  0
LWPOLYLINE
  5
255
100
AcDbEntity
  8
0
100
AcDbPolyline
 62
250
  6
CONTINUOUS
 90
37
 70
0
 10
-91.512576903
 20
33.8022601024
 10
-91.5000786039
 20
33.9004396315
 10
-91.4837378549
 20
33.9977363713
 10
-91.4635546561
 20
34.0941503862
 10
-91.4394842028
 20
34.1898432572
 10
-91.4115712997
 20
34.2846535225
 10
-91.3799503607
 20
34.3780967197
 10
-91.3446028822
 20
34.4701624242
 10
-91.3055473679
 20
34.5608612632
 10
-91.2629737434
 20
34.6497404247
 10
-91.2168648845
 20
34.7367898798
 10
-91.1672379153
 20
34.8220199206
 10
-91.1143341344
 20
34.905008279
 10
-91.058136983
 20
34.9857446061
 10
-90.9986630198
 20
35.0642395588
 10
-90.9362032191
 20
35.1401024301
 10
-90.8707420786
 20
35.2133208529
 10
-90.8022951006
 20
35.2839075288
 10
-90.7311997665
 20
35.3515093942
 10
-90.6574426317
 20
35.4161116544
 10
-90.5810371409
 20
35.4777294449
 10
-90.5023611095
 20
35.5360546258
 10
-90.4214037159
 20
35.5910705458
 10
-90.3381757817
 20
35.6427941818
 10
-90.2530875873
 20
35.6909678513
 10
-90.166129472
 20
35.7355742938
 10
-90.0773110966
 20
35.7766310595
 10
-89.9870717235
 20
35.8139326847
 10
-89.8954026208
 20
35.8474607012
 10
-89.8023125205
 20
35.8772338127
 10
-89.7082668804
 20
35.9031023067
 10
-89.6132570049
 20
35.9250461134
 10
-89.5172915896
 20
35.9430854685
 10
-89.4208621797
 20
35.9571311042
 10
-89.3241326237
 20
35.9671532934
 10
-89.2269390732
 20
35.9731818488
 10
-89.1292815281
 20
35.9752167919
  0
LWPOLYLINE
  5
256
100
AcDbEntity
  8
0
100
AcDbPolyline
 62
250
  6
CONTINUOUS
 90
34
 70
0
 10
-96.9698505673
 20
33.8918051185
 10
-96.9484233112
 20
33.9136772003
 10
-96.9156503823
 20
33.9342080599
 10
-96.8716001839
 20
33.9533548453
 10
-96.8163646576
 20
33.9710775935
 10
-96.7500590906
 20
33.9873393137
 10
-96.6728218755
 20
34.0021060644
 10
-96.5848142215
 20
34.0153470246
 10
-96.4862198178
 20
34.0270345578
 10
-96.37724445
 20
34.0371442698
 10
-96.2581155711
 20
34.0456550597
 10
-96.1290818261
 20
34.0525491639
 10
-95.9904125338
 20
34.0578121929
 10
-95.842397124
 20
34.0614331618
 10
-95.6853445337
 20
34.0634045129
 10
-95.5195825623
 20
34.0637221317
 10
-95.3454571874
 20
34.0623853552
 10
-95.1633318426
 20
34.0593969735
 10
-94.9735866589
 20
34.054763224
 10
-94.7766176717
 20
34.0484937781
 10
-94.5728359936
 20
34.0406017215
 10
-94.3626669568
 20
34.0311035264
 10
-94.1465492249
 20
34.0200190173
 10
-93.9249338779
 20
34.0073713299
 10
-93.6982834701
 20
33.9931868623
 10
-93.4670710653
 20
33.9774952203
 10
-93.2317792488
 20
33.9603291553
 10
-92.9928991206
 20
33.9417244964
 10
-92.7509292699
 20
33.921720075
 10
-92.5063747352
 20
33.9003576443
 10
-92.2597459494
 20
33.8776817918
 10
-92.0115576749
 20
33.8537398465
 10
-91.7623279291
 20
33.8285817798
 10
-91.512576903
 20
33.8022601017
  0
LWPOLYLINE
  5
257
100
AcDbEntity
  8
0
100
AcDbPolyline
 62
250
  6
CONTINUOUS
 90
34
 70
0
 10
-96.9698514625
 20
-33.8918052203
 10
-96.9484241999
 20
-33.9136773019
 10
-96.9156512625
 20
-33.934208161
 10
-96.8716010537
 20
-33.9533549457
 10
-96.816365515
 20
-33.971077693
 10
-96.7500599337
 20
-33.987339412
 10
-96.6728227025
 20
-34.0021061613
 10
-96.5848150306
 20
-34.0153471199
 10
-96.4862206072
 20
-34.0270346513
 10
-96.3772452181
 20
-34.0371443613
 10
-96.2581163162
 20
-34.045655149
 10
-96.1290825469
 20
-34.0525492507
 10
-95.9904132286
 20
-34.057812277
 10
-95.8423977916
 20
-34.0614332431
 10
-95.6853451727
 20
-34.0634045912
 10
-95.5195831716
 20
-34.0637222067
 10
-95.3454577658
 20
-34.0623854268
 10
-95.1633323892
 20
-34.0593970416
 10
-94.9735871729
 20
-34.0547632883
 10
-94.7766181522
 20
-34.0484938386
 10
-94.5728364401
 20
-34.0406017779
 10
-94.3626673686
 20
-34.0311035787
 10
-94.1465496017
 20
-34.0200190654
 10
-93.9249342193
 20
-34.0073713737
 10
-93.6982837761
 20
-33.9931869016
 10
-93.4670713358
 20
-33.9774952551
 10
-93.2317794839
 20
-33.9603291856
 10
-92.9928993204
 20
-33.941724522
 10
-92.7509294349
 20
-33.9217200959
 10
-92.5063748657
 20
-33.9003576605
 10
-92.2597460461
 20
-33.8776818034
 10
-92.0115577385
 20
-33.8537398534
 10
-91.7623279604
 20
-33.8285817821
 10
-91.512576903
 20
-33.8022600994
  0
LINE
  5
258
100
AcDbEntity
  8
0
100
AcDbLine
 62
250
  6
CONTINUOUS
 10
-89.1292815281
 20
41.0
 11
-89.1292815281
 21
35.9752167919
  0
LINE
  5
259
100
AcDbEntity
  8
0
100
AcDbLine
 62
250
  6
CONTINUOUS
 10
-89.1292815281
 20
-41.0
 11
-89.1292815281
 21
-35.9752167919
  0
LWPOLYLINE
  5
25A
100
AcDbEntity
  8
0
100
AcDbPolyline
 62
250
  6
CONTINUOUS
 90
19
 70
0
 10
-75.0
 20
-23.5547687789
 10
-74.9980973366
 20
-23.5770602736
 10
-74.9924038292
 20
-23.5991821076
 10
-74.9829628126
 20
-23.6209659196
 10
-74.9698461417
 20
-23.6422459224
 10
-74.9531536466
 20
-23.6628601611
 10
-74.9330123738
 20
-23.6826517458
 10
-74.9095756159
 20
-23.7014700509
 10
-74.8830217452
 20
-23.7191718594
 10
-74.8535528581
 20
-23.7356224498
 10
-74.8213932361
 20
-23.7506966247
 10
-74.7867876359
 20
-23.7642796631
 10
-74.7499994285
 20
-23.7762681925
 10
-74.7113085975
 20
-23.7865709748
 10
-74.6710096038
 20
-23.7951096027
 10
-74.6294091428
 20
-23.8018190951
 10
-74.5868238169
 20
-23.8066483907
 10
-74.5435777268
 20
-23.8095607373
 10
-74.5
 20
-23.8105339721
  0
LWPOLYLINE
  5
25B
100
AcDbEntity
  8
0
100
AcDbPolyline
 62
250
  6
CONTINUOUS
 90
22
 70
0
 10
-75.0
 20
-22.6970009566
 10
-74.9986019806
 20
-22.7198467326
 10
-74.9944156983
 20
-22.7425744702
 10
-74.9874645006
 20
-22.7650567834
 10
-74.9777871745
 20
-22.7871704223
 10
-74.9654377901
 20
-22.8087888124
 10
-74.9504854568
 20
-22.8297828736
 10
-74.9330138218
 20
-22.8500328131
 10
-74.9131205612
 20
-22.8694277992
 10
-74.8909169424
 20
-22.8878585294
 10
-74.8665271459
 20
-22.9052218031
 10
-74.8400875633
 20
-22.9214207003
 10
-74.8117460557
 20
-22.9363642803
 10
-74.781661121
 20
-22.9499689361
 10
-74.7500010075
 20
-22.9621586938
 10
-74.716942773
 20
-22.9728652582
 10
-74.6826712939
 20
-22.9820288107
 10
-74.6473782316
 20
-22.9895981244
 10
-74.6112609619
 20
-22.9955306885
 10
-74.5745214691
 20
-22.9997932904
 10
-74.5373652169
 20
-23.002362199
 10
-74.5
 20
-23.0032230805
  0
LWPOLYLINE
  5
25C
100
AcDbEntity
  8
0
100
AcDbPolyline
 62
250
  6
CONTINUOUS
 90
5
 70
0
 10
-75.0
 20
-22.3383694048
 10
-74.9989043788
 20
-22.3592719157
 10
-74.995629519
 20
-22.3799454143
 10
-74.9902113008
 20
-22.4001633973
 10
-74.9827090872
 20
-22.4197043524
  0
LINE
  5
25D
100
AcDbEntity
  8
0
100
AcDbLine
 62
250
  6
CONTINUOUS
 10
-76.2
 20
31.3656274742
 11
-76.2
 21
-31.355216572
  0
LINE
  5
25E
100
AcDbEntity
  8
0
100
AcDbLine
 62
7
  6
CONTINUOUS
 10
-75.0
 20
23.5541150537
 11
-75.0
 21
-23.5547687658
  0
LINE
  5
25F
100
AcDbEntity
  8
0
100
AcDbLine
 62
250
  6
CONTINUOUS
 10
-74.8
 20
22.5383430976
 11
-74.8
 21
22.5157095584
  0
LINE
  5
260
100
AcDbEntity
  8
0
100
AcDbLine
 62
250
  6
CONTINUOUS
 10
-74.8
 20
-22.5157095584
 11
-74.8
 21
-22.5383389438
  0
LINE
  5
261
100
AcDbEntity
  8
0
100
AcDbLine
 62
250
  6
CONTINUOUS
 10
-74.5
 20
23.8099625811
 11
-74.5
 21
23.0029737069
  0
LINE
  5
262
100
AcDbEntity
  8
0
100
AcDbLine
 62
250
  6
CONTINUOUS
 10
-74.5
 20
-23.0032230805
 11
-74.5
 21
-23.8105339721
  0
LWPOLYLINE
  5
263
100
AcDbEntity
  8
0
100
AcDbPolyline
 62
250
  6
CONTINUOUS
 90
17
 70
0
 10
-75.0
 20
-23.5547687789
 10
-75.000725548
 20
-23.6438852382
 10
-75.0029426286
 20
-23.7367334377
 10
-75.0067110478
 20
-23.8333111151
 10
-75.012089482
 20
-23.9335027617
 10
-75.0191346629
 20
-24.0374183022
 10
-75.0279005326
 20
-24.1453931983
 10
-75.0384415277
 20
-24.2574291008
 10
-75.0508057377
 20
-24.373516731
 10
-75.0650298194
 20
-24.4939747992
 10
-75.0811562636
 20
-24.618784123
 10
-75.0992198608
 20
-24.7479540205
 10
-75.1192314263
 20
-24.8818456699
 10
-75.141216425
 20
-25.0203899265
 10
-75.1651916161
 20
-25.1636438978
 10
-75.1911356001
 20
-25.3121580812
 10
-75.2190632174
 20
-25.4657927645
  0
LWPOLYLINE
  5
264
100
AcDbEntity
  8
0
100
AcDbPolyline
 62
250
  6
CONTINUOUS
 90
20
 70
0
 10
-74.5
 20
-23.8105339721
 10
-74.5008880723
 20
-23.8955833554
 10
-74.5040555129
 20
-23.984073147
 10
-74.5095023218
 20
-24.0760504406
 10
-74.5171518849
 20
-24.1715055612
 10
-74.5270808164
 20
-24.2705382507
 10
-74.5395189582
 20
-24.3733614422
 10
-74.5544834064
 20
-24.4800235871
 10
-74.571957065
 20
-24.5905642693
 10
-74.5921184877
 20
-24.7051869456
 10
-74.6149941252
 20
-24.8239156651
 10
-74.6405575269
 20
-24.9468048117
 10
-74.6689078954
 20
-25.0741061933
 10
-74.7000787404
 20
-25.2057887712
 10
-74.7340365522
 20
-25.3419462029
 10
-74.7707800045
 20
-25.4830223691
 10
-74.8103657332
 20
-25.6289104514
 10
-74.8527371024
 20
-25.7797602029
 10
-74.8977228773
 20
-25.936411609
 10
-74.9455544228
 20
-26.098910487
  0
LWPOLYLINE
  5
265
100
AcDbEntity
  8
0
100
AcDbPolyline
 62
7
  6
CONTINUOUS
 90
11
 70
0
 10
-74.9999995124
 20
22.3380065605
 10
-74.9999284372
 20
22.3432694665
 10
-74.9997599865
 20
22.3480074584
 10
-74.9995242821
 20
22.3522367273
 10
-74.9992475272
 20
22.3559748255
 10
-74.9989526373
 20
22.359235013
 10
-74.9986597383
 20
22.3620260442
 10
-74.9983807147
 20
22.3643992127
 10
-74.9981333333
 20
22.3663268705
 10
-74.9979454304
 20
22.3677003942
 10
-74.9978207443
 20
22.368573735
  0
LWPOLYLINE
  5
266
100
AcDbEntity
  8
0
100
AcDbPolyline
 62
250
  6
CONTINUOUS
 90
18
 70
0
 10
-74.5
 20
23.0029737069
 10
-74.5015673018
 20
22.9713076131
 10
-74.5060201357
 20
22.9394440681
 10
-74.5133585018
 20
22.9075209821
 10
-74.5238114801
 20
22.8756835324
 10
-74.5371499905
 20
22.8440938099
 10
-74.5526867931
 20
22.812929657
 10
-74.5705213908
 20
22.7824741878
 10
-74.5905542806
 20
22.7528002895
 10
-74.6117997133
 20
22.7238363538
 10
-74.6345512915
 20
22.6956014397
 10
-74.6585154125
 20
22.6686662459
 10
-74.6818255197
 20
22.6437386816
 10
-74.7045222459
 20
22.6207968039
 10
-74.7265649583
 20
22.6002755567
 10
-74.7459652014
 20
22.5830749085
 10
-74.7621674861
 20
22.5691882836
 10
-74.7757273016
 20
22.5581455088
  0
LINE
  5
267
100
AcDbEntity
  8
0
100
AcDbLine
 62
250
  6
CONTINUOUS
 10
-75.0
 20
22.3383735586
 11
-74.9997599865
 21
22.3480074584
  0
LWPOLYLINE
  5
268
100
AcDbEntity
  8
0
100
AcDbPolyline
 62
250
  6
CONTINUOUS
 90
5
 70
0
 10
-74.9995242821
 20
22.3522367273
 10
-74.9989043787
 20
22.3592760706
 10
-74.9956295187
 20
22.3799495703
 10
-74.9902113
 20
22.4001675544
 10
-74.9827090859
 20
22.4197085102
  0
LWPOLYLINE
  5
269
100
AcDbEntity
  8
0
100
AcDbPolyline
 62
250
  6
CONTINUOUS
 90
22
 70
0
 10
-75.0
 20
22.6966459465
 10
-74.9986019363
 20
22.7195250753
 10
-74.9944155437
 20
22.7422810965
 10
-74.9874642041
 20
22.7647866434
 10
-74.9777867504
 20
22.7869178164
 10
-74.96543728
 20
22.8085487464
 10
-74.9504848816
 20
22.8295523794
 10
-74.9330131929
 20
22.8498091287
 10
-74.9131199067
 20
22.8692079495
 10
-74.8909162762
 20
22.8876408879
 10
-74.8665264731
 20
22.9050048754
 10
-74.8400868945
 20
22.921202816
 10
-74.8117454044
 20
22.9361446299
 10
-74.7816605015
 20
22.9497467535
 10
-74.7500004324
 20
22.9619331141
 10
-74.7169422542
 20
22.9726360519
 10
-74.682670842
 20
22.9817957025
 10
-74.6473778565
 20
22.9893608329
 10
-74.6112606718
 20
22.9952896251
 10
-74.5745212708
 20
22.9995490841
 10
-74.5373651159
 20
23.0021152259
 10
-74.5
 20
23.0029737069
  0
LWPOLYLINE
  5
26A
100
AcDbEntity
  8
0
100
AcDbPolyline
 62
250
  6
CONTINUOUS
 90
19
 70
0
 10
-75.0
 20
23.5541150673
 10
-74.9980973585
 20
23.5764135923
 10
-74.9924039114
 20
23.5985424206
 10
-74.9829629852
 20
23.6203331388
 10
-74.9698464268
 20
23.6416199069
 10
-74.9531540571
 20
23.6622407193
 10
-74.9330129119
 20
23.682038638
 10
-74.9095762739
 20
23.7008629885
 10
-74.8830225071
 20
23.718570505
 10
-74.8535537003
 20
23.7350264208
 10
-74.8213941268
 20
23.7501054953
 10
-74.7867885386
 20
23.7636929665
 10
-74.7500003066
 20
23.7756854232
 10
-74.7113094105
 20
23.7859915947
 10
-74.6710103111
 20
23.7945330435
 10
-74.6294097126
 20
23.8012447625
 10
-74.5868242224
 20
23.8060756705
 10
-74.5435779411
 20
23.808989001
 10
-74.5
 20
23.8099625812
  0
LINE
  5
26B
100
AcDbEntity
  8
0
100
AcDbLine
 62
250
  6
CONTINUOUS
 10
-75.6152082698
 20
-27.5728561146
 11
-75.7361295452
 21
-28.3943843554
  0
LWPOLYLINE
  5
26C
100
AcDbEntity
  8
0
100
AcDbPolyline
 62
250
  6
CONTINUOUS
 90
3
 70
0
 10
-75.7361295452
 20
-28.3943843554
 10
-75.8638058012
 20
-29.2303440826
 10
-75.9297158075
 20
-29.653776008
  0
LWPOLYLINE
  5
26D
100
AcDbEntity
  8
0
100
AcDbPolyline
 62
250
  6
CONTINUOUS
 90
12
 70
0
 10
-74.9827090859
 20
22.4197085102
 10
-74.9732050721
 20
22.4383583431
 10
-74.9618033866
 20
22.4559127213
 10
-74.9486289486
 20
22.4721793158
 10
-74.9338261
 20
22.4869799059
 10
-74.9175570252
 20
22.5001523323
 10
-74.8999999716
 20
22.5115522757
 10
-74.8813472983
 20
22.5210548361
 10
-74.8618033701
 20
22.5285559011
 10
-74.8415823152
 20
22.5339732883
 10
-74.8209056794
 20
22.5372476449
 10
-74.8
 20
22.5383430976
  0
LWPOLYLINE
  5
26E
100
AcDbEntity
  8
0
100
AcDbPolyline
 62
250
  6
CONTINUOUS
 90
12
 70
0
 10
-74.9827090872
 20
-22.4197043524
 10
-74.9732050742
 20
-22.4383541845
 10
-74.9618033896
 20
-22.4559085622
 10
-74.9486289526
 20
-22.4721751561
 10
-74.9338261053
 20
-22.4869757459
 10
-74.9175570312
 20
-22.5001481728
 10
-74.8999999774
 20
-22.5115481174
 10
-74.8813473031
 20
-22.5210506791
 10
-74.8618033736
 20
-22.5285517452
 10
-74.8415823177
 20
-22.5339691333
 10
-74.8209056806
 20
-22.5372434907
 10
-74.8
 20
-22.5383389438
  0
LINE
  5
26F
100
AcDbEntity
  8
0
100
AcDbLine
 62
250
  6
CONTINUOUS
 10
-75.9297335183
 20
29.6596224617
 11
-75.7991998189
 21
28.8137448996
  0
LWPOLYLINE
  5
270
100
AcDbEntity
  8
0
100
AcDbPolyline
 62
250
  6
CONTINUOUS
 90
3
 70
0
 10
-75.7991998189
 20
28.8137448996
 10
-75.6747574956
 20
27.9831330688
 10
-75.6152310263
 20
27.5730142453
  0
LINE
  5
271
100
AcDbEntity
  8
0
100
AcDbLine
 62
7
  6
CONTINUOUS
 10
-74.997868079
 20
-22.3682465726
 11
-74.9979031563
 21
-22.3680009226
  0
LWPOLYLINE
  5
272
100
AcDbEntity
  8
0
100
AcDbPolyline
 62
7
  6
CONTINUOUS
 90
11
 70
0
 10
-74.9980794048
 20
-22.3667304199
 10
-74.9983357879
 20
-22.364763266
 10
-74.9986179514
 20
-22.3624008367
 10
-74.9989074498
 20
-22.3596948992
 10
-74.9991975983
 20
-22.356574126
 10
-74.9994619872
 20
-22.3531664925
 10
-74.9997062494
 20
-22.3491207113
 10
-74.999886307
 20
-22.3447672272
 10
-74.9999695371
 20
-22.3412903703
 10
-74.9999934108
 20
-22.3392946848
 10
-74.9999990382
 20
-22.3382507425
  0
LINE
  5
273
100
AcDbEntity
  8
0
100
AcDbLine
 62
250
  6
CONTINUOUS
 10
-75.9297158075
 20
-29.653776008
 11
-76.2
 21
-31.3552165691
  0
LWPOLYLINE
  5
274
100
AcDbEntity
  8
0
100
AcDbPolyline
 62
250
  6
CONTINUOUS
 90
5
 70
0
 10
-75.4650647548
 20
-26.7138766911
 10
-75.5042475893
 20
-26.9191677067
 10
-75.542211899
 20
-27.1306568303
 10
-75.5792580325
 20
-27.3485499543
 10
-75.6152082698
 20
-27.5728561146
  0
LINE
  5
275
100
AcDbEntity
  8
0
100
AcDbLine
 62
250
  6
CONTINUOUS
 10
-75.2190632174
 20
-25.4657927645
 11
-75.2807353403
 21
-25.7897502629
  0
LINE
  5
276
100
AcDbEntity
  8
0
100
AcDbLine
 62
250
  6
CONTINUOUS
 10
-75.2807353403
 20
-25.7897502629
 11
-75.4650647548
 21
-26.7138766911
  0
LINE
  5
277
100
AcDbEntity
  8
0
100
AcDbLine
 62
250
  6
CONTINUOUS
 10
-75.3715450489
 20
-27.6246499668
 11
-75.5432058337
 21
-28.4356070748
  0
LINE
  5
278
100
AcDbEntity
  8
0
100
AcDbLine
 62
250
  6
CONTINUOUS
 10
-75.5432058337
 20
-28.4356070748
 11
-75.7236507127
 21
-29.260564127
  0
LINE
  5
279
100
AcDbEntity
  8
0
100
AcDbLine
 62
250
  6
CONTINUOUS
 10
-75.7236507127
 20
-29.260564127
 11
-75.9117447764
 21
-30.0967599184
  0
LWPOLYLINE
  5
27A
100
AcDbEntity
  8
0
100
AcDbPolyline
 62
250
  6
CONTINUOUS
 90
3
 70
0
 10
-75.9117447764
 20
-30.0967599184
 10
-76.1029483872
 20
-30.935004684
 10
-76.2
 20
-31.355216572
  0
LWPOLYLINE
  5
27B
100
AcDbEntity
  8
0
100
AcDbPolyline
 62
250
  6
CONTINUOUS
 90
5
 70
0
 10
-75.1590943499
 20
-26.8123473862
 10
-75.21440961
 20
-27.0067311333
 10
-75.2677968419
 20
-27.2068901022
 10
-75.3201753215
 20
-27.4128985112
 10
-75.3715450489
 20
-27.6246499668
  0
LINE
  5
27C
100
AcDbEntity
  8
0
100
AcDbLine
 62
250
  6
CONTINUOUS
 10
-74.9455544228
 20
-26.098910487
 11
-75.1590943499
 21
-26.8123473862
  0
LWPOLYLINE
  5
27D
100
AcDbEntity
  8
0
100
AcDbPolyline
 62
250
  6
CONTINUOUS
 90
4
 70
0
 10
-74.7757273016
 20
22.5581455088
 10
-74.7938462305
 20
22.5438084486
 10
-74.798405344
 20
22.5400751513
 10
-74.8
 20
22.5383430976
  0
LWPOLYLINE
  5
27E
100
AcDbEntity
  8
0
100
AcDbPolyline
 62
250
  6
CONTINUOUS
 90
19
 70
0
 10
-74.7938821805
 20
-22.5437789345
 10
-74.7758693276
 20
-22.5580384313
 10
-74.7623893577
 20
-22.5690179469
 10
-74.7462711844
 20
-22.5828283689
 10
-74.7269857036
 20
-22.599922924
 10
-74.7050620193
 20
-22.6203222506
 10
-74.6823971867
 20
-22.6432061661
 10
-74.6589550723
 20
-22.6682438891
 10
-74.6347718095
 20
-22.6954185326
 10
-74.6118528537
 20
-22.7238691266
 10
-74.590553581
 20
-22.752921342
 10
-74.5705186152
 20
-22.7826140239
 10
-74.5526872832
 20
-22.8130810243
 10
-74.5371450738
 20
-22.8442730614
 10
-74.5238064981
 20
-22.8758831887
 10
-74.5133544169
 20
-22.9077377107
 10
-74.5060164502
 20
-22.9396758965
 10
-74.5015649779
 20
-22.9715504441
 10
-74.5
 20
-23.0032230805
  0
LWPOLYLINE
  5
27F
100
AcDbEntity
  8
0
100
AcDbPolyline
 62
250
  6
CONTINUOUS
 90
3
 70
0
 10
-74.8
 20
-22.5383389438
 10
-74.7984150635
 20
-22.5400638648
 10
-74.7938821805
 20
-22.5437789345
  0
LWPOLYLINE
  5
280
100
AcDbEntity
  8
0
100
AcDbPolyline
 62
250
  6
CONTINUOUS
 90
20
 70
0
 10
-74.9486164477
 20
26.108022596
 10
-74.9007672438
 20
25.9456595501
 10
-74.8557734355
 20
25.7892519771
 10
-74.8133798618
 20
25.6386750805
 10
-74.7737315838
 20
25.4929645746
 10
-74.7368747397
 20
25.3519493699
 10
-74.7027631912
 20
25.2157616161
 10
-74.671403585
 20
25.0839062572
 10
-74.6428221542
 20
24.9562718582
 10
-74.6169926658
 20
24.8329137146
 10
-74.5938430664
 20
24.7135927739
 10
-74.5733988519
 20
24.5982484305
 10
-74.5556345265
 20
24.4868689322
 10
-74.5404015497
 20
24.3792903604
 10
-74.5277194795
 20
24.2754701627
 10
-74.517568758
 20
24.1753670103
 10
-74.5097421707
 20
24.0788206684
 10
-74.5041706462
 20
23.9857489382
 10
-74.500923256
 20
23.896145089
 10
-74.5
 20
23.8099625811
  0
LWPOLYLINE
  5
281
100
AcDbEntity
  8
0
100
AcDbPolyline
 62
250
  6
CONTINUOUS
 90
6
 70
0
 10
-75.3715772872
 20
27.6246499668
 10
-75.3212146035
 20
27.4161776851
 10
-75.2696388418
 20
27.212722263
 10
-75.2168500021
 20
27.0143899515
 10
-75.161880495
 20
26.8208985724
 10
-74.9486164477
 20
26.108022596
  0
LINE
  5
282
100
AcDbEntity
  8
0
100
AcDbLine
 62
250
  6
CONTINUOUS
 10
-76.2
 20
31.3656274742
 11
-76.0068881263
 21
30.523632014
  0
LINE
  5
283
100
AcDbEntity
  8
0
100
AcDbLine
 62
250
  6
CONTINUOUS
 10
-76.0068881263
 20
30.523632014
 11
-75.8172397944
 21
29.6839610272
  0
LINE
  5
284
100
AcDbEntity
  8
0
100
AcDbLine
 62
250
  6
CONTINUOUS
 10
-75.8172397944
 20
29.6839610272
 11
-75.6321995487
 21
28.8494647599
  0
LWPOLYLINE
  5
285
100
AcDbEntity
  8
0
100
AcDbPolyline
 62
250
  6
CONTINUOUS
 90
3
 70
0
 10
-75.6321995487
 20
28.8494647599
 10
-75.456345566
 20
28.0295208187
 10
-75.3715772872
 20
27.6246499668
  0
LINE
  5
286
100
AcDbEntity
  8
0
100
AcDbLine
 62
250
  6
CONTINUOUS
 10
-75.4670422633
 20
26.7230996178
 11
-75.2828905142
 21
25.7995893081
  0
LWPOLYLINE
  5
287
100
AcDbEntity
  8
0
100
AcDbPolyline
 62
250
  6
CONTINUOUS
 90
18
 70
0
 10
-75.2828905142
 20
25.7995893081
 10
-75.2211988988
 20
25.4761419697
 10
-75.1932229631
 20
25.3226818112
 10
-75.1671987345
 20
25.1742180793
 10
-75.1431178706
 20
25.030917424
 10
-75.1209954728
 20
24.8921809637
 10
-75.1008184482
 20
24.7579286582
 10
-75.0825711113
 20
24.6282523987
 10
-75.0662484899
 20
24.5028111309
 10
-75.0518215877
 20
24.3815866963
 10
-75.0392561334
 20
24.2646071521
 10
-75.0285242039
 20
24.1516005241
 10
-75.0195828651
 20
24.0425725235
 10
-75.0123839086
 20
23.937525273
 10
-75.0068806057
 20
23.8361810808
 10
-75.0030198883
 20
23.7384493646
 10
-75.0007453224
 20
23.6444265578
 10
-75.0
 20
23.5541150673
  0
LWPOLYLINE
  5
288
100
AcDbEntity
  8
0
100
AcDbPolyline
 62
250
  6
CONTINUOUS
 90
5
 70
0
 10
-75.6152310263
 20
27.5730142453
 10
-75.5800091874
 20
27.3521930824
 10
-75.543533862
 20
27.1370114549
 10
-75.5059867631
 20
26.92745945
 10
-75.4670422633
 20
26.7230996178
  0
LINE
  5
289
100
AcDbEntity
  8
0
100
AcDbLine
 62
250
  6
CONTINUOUS
 10
-76.2
 20
31.3656274713
 11
-75.9297335183
 21
29.6596224617
  0
LINE
  5
28A
100
AcDbEntity
  8
0
100
AcDbLine
 62
250
  6
CONTINUOUS
 10
75.6152115532
 20
-27.5728556515
 11
75.5645244549
 21
-27.584047771
  0
LINE
  5
28B
100
AcDbEntity
  8
0
100
AcDbLine
 62
250
  6
CONTINUOUS
 10
75.5645244549
 20
-27.584047771
 11
75.483880778
 21
-27.601369676
  0
LWPOLYLINE
  5
28C
100
AcDbEntity
  8
0
100
AcDbPolyline
 62
250
  6
CONTINUOUS
 90
3
 70
0
 10
75.483880778
 20
-27.601369676
 10
75.3998651065
 20
-27.6188685894
 10
75.3715450489
 20
-27.6246499516
  0
LWPOLYLINE
  5
28D
100
AcDbEntity
  8
0
100
AcDbPolyline
 62
250
  6
CONTINUOUS
 90
37
 70
0
 10
-89.1292815281
 20
-40.9023543978
 10
-89.4488745972
 20
-40.8958782065
 10
-89.7679409115
 20
-40.8764610246
 10
-90.0859558335
 20
-40.8441350318
 10
-90.4023894334
 20
-40.7989546663
 10
-90.7167285715
 20
-40.740994211
 10
-91.0284773105
 20
-40.6703448292
 10
-91.3371324251
 20
-40.5871176768
 10
-91.6421757777
 20
-40.4914499009
 10
-91.9430965712
 20
-40.3835012918
 10
-92.2393952475
 20
-40.2634505002
 10
-92.5305888785
 20
-40.1314929262
 10
-92.8162032861
 20
-39.9878438828
 10
-93.0957674406
 20
-39.8327389616
 10
-93.3688220006
 20
-39.6664319902
 10
-93.6349247065
 20
-39.4891924857
 10
-93.8936391304
 20
-39.3013085511
 10
-94.1445364241
 20
-39.103089254
 10
-94.3872036587
 20
-38.8948609777
 10
-94.6212409982
 20
-38.6769644803
 10
-94.8462621559
 20
-38.4497572622
 10
-95.061896243
 20
-38.2136147274
 10
-95.2677868122
 20
-37.9689253298
 10
-95.4635953623
 20
-37.7160896431
 10
-95.6490021394
 20
-37.4555220709
 10
-95.8237006149
 20
-37.1876509272
 10
-95.9874029365
 20
-36.9129151166
 10
-96.139843215
 20
-36.6317621492
 10
-96.2807712364
 20
-36.344648488
 10
-96.4099509929
 20
-36.0520498978
 10
-96.527167068
 20
-35.7544574131
 10
-96.632223927
 20
-35.452367023
 10
-96.7249510709
 20
-35.1462682101
 10
-96.8052005436
 20
-34.8366530007
 10
-96.8728400092
 20
-34.5240259583
 10
-96.9277544277
 20
-34.2089041248
 10
-96.9698514984
 20
-33.8918052244
  0
LINE
  5
28E
100
AcDbEntity
  8
0
100
AcDbLine
 62
250
  6
CONTINUOUS
 10
-75.4561266303
 20
-27.6072090819
 11
-75.3715450489
 21
-27.6246499686
  0
LINE
  5
28F
100
AcDbEntity
  8
0
100
AcDbLine
 62
250
  6
CONTINUOUS
 10
-75.5381687686
 20
-27.5897699356
 11
-75.4561266303
 21
-27.6072090819
  0
LWPOLYLINE
  5
290
100
AcDbEntity
  8
0
100
AcDbPolyline
 62
250
  6
CONTINUOUS
 90
3
 70
0
 10
-75.6152082668
 20
-27.572856115
 10
-75.5902309373
 20
-27.5784038443
 10
-75.5381687686
 20
-27.5897699356
  0
LWPOLYLINE
  5
291
100
AcDbEntity
  8
0
100
AcDbPolyline
 62
7
  6
CONTINUOUS
 90
3
 70
0
 43
0.3500000006
 10
-5.2499999027
 20
51.8928551788
 10
-4.3928571482
 20
52.750002182
 10
-4.3928571482
 20
49.7500012665
  0
LWPOLYLINE
  5
292
100
AcDbEntity
  8
0
100
AcDbPolyline
 62
7
  6
CONTINUOUS
 90
10
 70
0
 43
0.3500000006
 10
-3.1071428747
 20
49.7500012665
 10
-2.2499999785
 20
50.6071437378
 10
-2.0357142191
 20
51.4642862091
 10
-2.0357142191
 20
52.3214286804
 10
-2.464285738
 20
52.750002182
 10
-3.1071428747
 20
52.750002182
 10
-3.5357143936
 20
52.3214286804
 10
-3.5357143936
 20
51.4642862091
 10
-3.1071428747
 20
51.0357127075
 10
-2.1785714865
 20
51.0357127075
  0
LINE
  5
293
100
AcDbEntity
  8
0
100
AcDbLine
 62
7
  6
CONTINUOUS
 10
-89.1292815281
 20
-41.0
 11
89.1292815281
 21
-41.0
  0
LINE
  5
294
100
AcDbEntity
  8
0
100
AcDbLine
 62
250
  6
CONTINUOUS
 10
89.1292815281
 20
-40.9023543978
 11
-89.1292815281
 21
-40.9023543978
  0
LINE
  5
295
100
AcDbEntity
  8
0
100
AcDbLine
 62
250
  6
CONTINUOUS
 10
89.1292815281
 20
-35.9752167919
 11
-89.1292815281
 21
-35.9752167919
  0
LWPOLYLINE
  5
296
100
AcDbEntity
  8
0
100
AcDbPolyline
 62
250
  6
CONTINUOUS
 90
37
 70
0
 10
-89.1292815281
 20
-35.9752167919
 10
-89.2269447309
 20
-35.9731813154
 10
-89.3241425342
 20
-35.9671522256
 10
-89.4208749379
 20
-35.9571295011
 10
-89.5173053276
 20
-35.9430833351
 10
-89.6132703178
 20
-35.9250434486
 10
-89.7082797519
 20
-35.9030990925
 10
-89.8023253955
 20
-35.8772300213
 10
-89.8954154829
 20
-35.8474563145
 10
-89.9870845606
 20
-35.8139276954
 10
-90.0773239056
 20
-35.7766254619
 10
-90.1661422409
 20
-35.7355680806
 10
-90.2531002808
 20
-35.6909610214
 10
-90.338188357
 20
-35.6427867332
 10
-90.4214161378
 20
-35.5910624774
 10
-90.5023733431
 20
-35.5360459455
 10
-90.5810491724
 20
-35.4777201364
 10
-90.6574544262
 20
-35.4161017257
 10
-90.7312112259
 20
-35.3514989349
 10
-90.8023060761
 20
-35.2838966751
 10
-90.8707524721
 20
-35.2133096946
 10
-90.9362130213
 20
-35.1400909984
 10
-90.998672249
 20
-35.0642278645
 10
-91.0581456299
 20
-34.9857326805
 10
-91.114342196
 20
-34.9049961564
 10
-91.1672453894
 20
-34.8220076401
 10
-91.216871768
 20
-34.7367774757
 10
-91.2629800373
 20
-34.6497279206
 10
-91.3055530692
 20
-34.5608486793
 10
-91.3446079918
 20
-34.4701497841
 10
-91.3799548953
 20
-34.3780840463
 10
-91.4115753354
 20
-34.2846403794
 10
-91.4394877564
 20
-34.1898296673
 10
-91.4635575813
 20
-34.0941377493
 10
-91.4837399512
 20
-33.9977265466
 10
-91.5000797251
 20
-33.900434019
 10
-91.512576903
 20
-33.8022601024
  0
LINE
  5
297
100
AcDbEntity
  8
0
100
AcDbLine
 62
7
  6
CONTINUOUS
 10
84.4875119301
 20
-33.499993
 11
85.0475329301
 21
-33.499986
  0
LINE
  5
298
100
AcDbEntity
  8
0
100
AcDbLine
 62
7
  6
CONTINUOUS
 10
82.4646659301
 20
-33.499993
 11
83.0246729301
 21
-33.499986
  0
LINE
  5
299
100
AcDbEntity
  8
0
100
AcDbLine
 62
7
  6
CONTINUOUS
 10
80.2551509301
 20
-33.5
 11
80.8151719301
 21
-33.499993
  0
LINE
  5
29A
100
AcDbEntity
  8
0
100
AcDbLine
 62
7
  6
CONTINUOUS
 10
78.4227399301
 20
-33.5
 11
78.9827819301
 21
-33.499993
  0
LINE
  5
29B
100
AcDbEntity
  8
0
100
AcDbLine
 62
7
  6
CONTINUOUS
 10
88.8290309301
 20
-33.499986
 11
89.4598079301
 21
-33.499979
  0
LINE
  5
29C
100
AcDbEntity
  8
0
100
AcDbLine
 62
7
  6
CONTINUOUS
 10
81.3751789301
 20
-33.499993
 11
81.9351999301
 21
-33.499993
  0
LINE
  5
29D
100
AcDbEntity
  8
0
100
AcDbLine
 62
7
  6
CONTINUOUS
 10
83.5541459301
 20
-33.499993
 11
84.1141669301
 21
-33.499993
  0
LINE
  5
29E
100
AcDbEntity
  8
0
100
AcDbLine
 62
7
  6
CONTINUOUS
 10
87.2189539301
 20
-33.499986
 11
87.7789819301
 21
-33.499986
  0
LINE
  5
29F
100
AcDbEntity
  8
0
100
AcDbLine
 62
7
  6
CONTINUOUS
 10
86.2855809301
 20
-33.499986
 11
86.8456089301
 21
-33.499993
  0
LINE
  5
2A0
100
AcDbEntity
  8
0
100
AcDbLine
 62
7
  6
CONTINUOUS
 10
85.2243319301
 20
-32.949324
 11
86.1087889301
 21
-32.949324
  0
LINE
  5
2A1
100
AcDbEntity
  8
0
100
AcDbLine
 62
7
  6
CONTINUOUS
 10
85.3951529301
 20
-32.417303
 11
85.9379609301
 21
-32.417303
  0
LINE
  5
2A2
100
AcDbEntity
  8
0
100
AcDbLine
 62
7
  6
CONTINUOUS
 10
87.7790449301
 20
-32.417296
 11
88.2678199301
 21
-32.417303
  0
LINE
  5
2A3
100
AcDbEntity
  8
0
100
AcDbLine
 62
7
  6
CONTINUOUS
 10
87.7712609301
 20
-31.899275
 11
88.4526039301
 21
-31.899275
  0
LINE
  5
2A4
100
AcDbEntity
  8
0
100
AcDbLine
 62
250
  6
CONTINUOUS
 10
76.2
 20
-31.355216572
 11
-76.2
 21
-31.355216572
  0
LINE
  5
2A5
100
AcDbEntity
  8
0
100
AcDbLine
 62
7
  6
CONTINUOUS
 10
87.7712539301
 20
-31.217881
 11
88.4526039301
 21
-31.217881
  0
LINE
  5
2A6
100
AcDbEntity
  8
0
100
AcDbLine
 62
7
  6
CONTINUOUS
 10
77.5237159301
 20
-30.699867
 11
78.0837439301
 21
-30.699867
  0
LINE
  5
2A7
100
AcDbEntity
  8
0
100
AcDbLine
 62
7
  6
CONTINUOUS
 10
79.3217849301
 20
-30.699867
 11
79.8818129301
 21
-30.699867
  0
LINE
  5
2A8
100
AcDbEntity
  8
0
100
AcDbLine
 62
7
  6
CONTINUOUS
 10
80.2551579301
 20
-30.699867
 11
80.8151789301
 21
-30.699867
  0
LINE
  5
2A9
100
AcDbEntity
  8
0
100
AcDbLine
 62
7
  6
CONTINUOUS
 10
81.3751789301
 20
-30.699867
 11
82.2217799301
 21
-30.699867
  0
LINE
  5
2AA
100
AcDbEntity
  8
0
100
AcDbLine
 62
7
  6
CONTINUOUS
 10
83.2675659301
 20
-30.699867
 11
84.1141669301
 21
-30.699867
  0
LINE
  5
2AB
100
AcDbEntity
  8
0
100
AcDbLine
 62
7
  6
CONTINUOUS
 10
85.3865289301
 20
-30.69986
 11
85.9465779301
 21
-30.69986
  0
LINE
  5
2AC
100
AcDbEntity
  8
0
100
AcDbLine
 62
7
  6
CONTINUOUS
 10
87.2189539301
 20
-30.69986
 11
88.5303339301
 21
-30.69986
  0
LINE
  5
2AD
100
AcDbEntity
  8
0
100
AcDbLine
 62
250
  6
CONTINUOUS
 10
-75.3715450489
 20
-27.6246499668
 11
75.3715450489
 21
-27.6246499668
  0
LINE
  5
2AE
100
AcDbEntity
  8
0
100
AcDbLine
 62
250
  6
CONTINUOUS
 10
-97.0780289672
 20
-33.904109589
 11
-96.9698514984
 21
-33.8918052244
  0
LINE
  5
2AF
100
AcDbEntity
  8
0
100
AcDbLine
 62
250
  6
CONTINUOUS
 10
-74.5
 20
-23.0032230805
 11
74.5
 21
-23.0032230805
  0
LINE
  5
2B0
100
AcDbEntity
  8
0
100
AcDbLine
 62
250
  6
CONTINUOUS
 10
-74.8
 20
-22.5383389438
 11
74.8
 21
-22.5383389438
  0
LINE
  5
2B1
100
AcDbEntity
  8
0
100
AcDbLine
 62
7
  6
CONTINUOUS
 10
-74.8770334791
 20
-22.5
 11
74.8770334791
 21
-22.5
  0
LINE
  5
2B2
100
AcDbEntity
  8
0
100
AcDbLine
 62
250
  6
CONTINUOUS
 10
97.0780289672
 20
-33.904109589
 11
96.9698514984
 21
-33.8918052244
  0
LWPOLYLINE
  5
2B3
100
AcDbEntity
  8
0
100
AcDbPolyline
 62
7
  6
CONTINUOUS
 90
3
 70
0
 43
0.3500000006
 10
1.8928570933
 20
50.0357124023
 10
1.8214286013
 20
49.8214279175
 10
1.6785714755
 20
49.5357122498
  0
LWPOLYLINE
  5
2B4
100
AcDbEntity
  8
0
100
AcDbPolyline
 62
7
  6
CONTINUOUS
 90
4
 70
0
 43
0.3500000006
 10
-1.1785713937
 20
52.1071441956
 10
-1.1785713937
 20
52.750002182
 10
0.3214285684
 20
52.750002182
 10
-0.5357142924
 20
49.7500012665
  0
LWPOLYLINE
  5
2B5
100
AcDbEntity
  8
0
100
AcDbPolyline
 62
7
  6
CONTINUOUS
 90
4
 70
0
 43
0.3500000006
 10
2.8928572569
 20
50.1785702362
 10
2.8928572569
 20
51.0357127075
 10
3.3214284925
 20
51.4642862091
 10
3.9642856293
 20
51.4642862091
  0
LINE
  5
2B6
100
AcDbEntity
  8
0
100
AcDbLine
 62
250
  6
CONTINUOUS
 10
97.0780289672
 20
33.904109589
 11
96.9698514984
 21
33.8918052244
  0
LINE
  5
2B7
100
AcDbEntity
  8
0
100
AcDbLine
 62
7
  6
CONTINUOUS
 10
74.8770334791
 20
22.5
 11
-74.8770334791
 21
22.5
  0
LINE
  5
2B8
100
AcDbEntity
  8
0
100
AcDbLine
 62
250
  6
CONTINUOUS
 10
-74.8
 20
22.5383430976
 11
74.8
 21
22.5383430976
  0
LINE
  5
2B9
100
AcDbEntity
  8
0
100
AcDbLine
 62
250
  6
CONTINUOUS
 10
-74.5
 20
23.0029737069
 11
74.5
 21
23.0029737069
  0
LINE
  5
2BA
100
AcDbEntity
  8
0
100
AcDbLine
 62
250
  6
CONTINUOUS
 10
-75.3715772872
 20
27.6246499668
 11
75.3715772872
 21
27.6246499668
  0
LINE
  5
2BB
100
AcDbEntity
  8
0
100
AcDbLine
 62
250
  6
CONTINUOUS
 10
-97.0780289672
 20
33.904109589
 11
-96.9698514984
 21
33.8918052244
  0
LWPOLYLINE
  5
2BC
100
AcDbEntity
  8
0
100
AcDbPolyline
 62
7
  6
CONTINUOUS
 90
10
 70
0
 43
0.3500000006
 10
1.8214286013
 20
50.2500014191
 10
1.8928570933
 20
50.1071435852
 10
1.8928570933
 20
50.0357124023
 10
1.7499999676
 20
49.8928591003
 10
1.6785714755
 20
49.8928591003
 10
1.6071428418
 20
49.9642857513
 10
1.6071428418
 20
50.0357124023
 10
1.6785714755
 20
50.1785702362
 10
1.7499999676
 20
50.2500014191
 10
1.8214286013
 20
50.2500014191
  0
LINE
  5
2BD
100
AcDbEntity
  8
0
100
AcDbLine
 62
250
  6
CONTINUOUS
 10
-76.2
 20
31.3656274742
 11
76.2
 21
31.3656274742
  0
LINE
  5
2BE
100
AcDbEntity
  8
0
100
AcDbLine
 62
250
  6
CONTINUOUS
 10
-89.1292815281
 20
35.9752167919
 11
89.1292815281
 21
35.9752167919
  0
LINE
  5
2BF
100
AcDbEntity
  8
0
100
AcDbLine
 62
250
  6
CONTINUOUS
 10
-75.615232775
 20
27.5730139985
 11
-75.5645471099
 21
27.5841694384
  0
LINE
  5
2C0
100
AcDbEntity
  8
0
100
AcDbLine
 62
250
  6
CONTINUOUS
 10
-75.5645471099
 20
27.5841694384
 11
-75.4839069936
 21
27.6014372797
  0
LWPOLYLINE
  5
2C1
100
AcDbEntity
  8
0
100
AcDbPolyline
 62
250
  6
CONTINUOUS
 90
3
 70
0
 10
-75.4839069936
 20
27.6014372797
 10
-75.3998958042
 20
27.6188848246
 10
-75.3715772872
 20
27.6246499543
  0
LINE
  5
2C2
100
AcDbEntity
  8
0
100
AcDbLine
 62
250
  6
CONTINUOUS
 10
-89.1292815281
 20
40.9023543978
 11
89.1292815281
 21
40.9023543978
  0
LINE
  5
2C3
100
AcDbEntity
  8
0
100
AcDbLine
 62
7
  6
CONTINUOUS
 10
89.1292815281
 20
41.0
 11
-89.1292815281
 21
41.0
  0
LWPOLYLINE
  5
2C4
100
AcDbEntity
  8
0
100
AcDbPolyline
 62
250
  6
CONTINUOUS
 90
37
 70
0
 10
89.1292815281
 20
40.9023543978
 10
89.4488745972
 20
40.8958782065
 10
89.7679409115
 20
40.8764610246
 10
90.0859558335
 20
40.8441350318
 10
90.4023894334
 20
40.7989546663
 10
90.7167285715
 20
40.740994211
 10
91.0284773105
 20
40.6703448292
 10
91.3371324251
 20
40.5871176768
 10
91.6421757777
 20
40.4914499009
 10
91.9430965712
 20
40.3835012918
 10
92.2393952475
 20
40.2634505002
 10
92.5305888785
 20
40.1314929262
 10
92.8162032861
 20
39.9878438828
 10
93.0957674406
 20
39.8327389616
 10
93.3688220006
 20
39.6664319902
 10
93.6349247065
 20
39.4891924857
 10
93.8936391304
 20
39.3013085511
 10
94.1445364241
 20
39.103089254
 10
94.3872036587
 20
38.8948609777
 10
94.6212409982
 20
38.6769644803
 10
94.8462621559
 20
38.4497572622
 10
95.061896243
 20
38.2136147274
 10
95.2677868122
 20
37.9689253298
 10
95.4635953623
 20
37.7160896431
 10
95.6490021394
 20
37.4555220709
 10
95.8237006149
 20
37.1876509272
 10
95.9874029365
 20
36.9129151166
 10
96.139843215
 20
36.6317621492
 10
96.2807712364
 20
36.344648488
 10
96.4099509929
 20
36.0520498978
 10
96.527167068
 20
35.7544574131
 10
96.632223927
 20
35.452367023
 10
96.7249510709
 20
35.1462682101
 10
96.8052005436
 20
34.8366530007
 10
96.8728400092
 20
34.5240259583
 10
96.9277544277
 20
34.2089041248
 10
96.9698514984
 20
33.8918052244
  0
LWPOLYLINE
  5
2C5
100
AcDbEntity
  8
0
100
AcDbPolyline
 62
250
  6
CONTINUOUS
 90
37
 70
0
 10
89.1292815281
 20
35.9752167919
 10
89.2269447309
 20
35.9731813154
 10
89.3241425342
 20
35.9671522256
 10
89.4208749379
 20
35.9571295011
 10
89.5173053276
 20
35.9430833351
 10
89.6132703178
 20
35.9250434486
 10
89.7082797519
 20
35.9030990925
 10
89.8023253955
 20
35.8772300213
 10
89.8954154829
 20
35.8474563145
 10
89.9870845606
 20
35.8139276954
 10
90.0773239056
 20
35.7766254619
 10
90.1661422409
 20
35.7355680806
 10
90.2531002808
 20
35.6909610214
 10
90.338188357
 20
35.6427867332
 10
90.4214161378
 20
35.5910624774
 10
90.5023733431
 20
35.5360459455
 10
90.5810491724
 20
35.4777201364
 10
90.6574544262
 20
35.4161017257
 10
90.7312112259
 20
35.3514989349
 10
90.8023060761
 20
35.2838966751
 10
90.8707524721
 20
35.2133096946
 10
90.9362130213
 20
35.1400909984
 10
90.998672249
 20
35.0642278645
 10
91.0581456299
 20
34.9857326805
 10
91.114342196
 20
34.9049961564
 10
91.1672453894
 20
34.8220076401
 10
91.216871768
 20
34.7367774757
 10
91.2629800373
 20
34.6497279206
 10
91.3055530692
 20
34.5608486793
 10
91.3446079918
 20
34.4701497841
 10
91.3799548953
 20
34.3780840463
 10
91.4115753354
 20
34.2846403794
 10
91.4394877564
 20
34.1898296673
 10
91.4635575813
 20
34.0941377493
 10
91.4837399512
 20
33.9977265466
 10
91.5000797251
 20
33.900434019
 10
91.512576903
 20
33.8022601024
  0
LINE
  5
2C6
100
AcDbEntity
  8
0
100
AcDbLine
 62
250
  6
CONTINUOUS
 10
75.45615445
 20
27.6072591201
 11
75.3715772872
 21
27.6246499688
  0
LINE
  5
2C7
100
AcDbEntity
  8
0
100
AcDbLine
 62
250
  6
CONTINUOUS
 10
75.5381931187
 20
27.5898732748
 11
75.45615445
 21
27.6072591201
  0
LWPOLYLINE
  5
2C8
100
AcDbEntity
  8
0
100
AcDbPolyline
 62
250
  6
CONTINUOUS
 90
3
 70
0
 10
75.6152309963
 20
27.5730142495
 10
75.5902539498
 20
27.5785436591
 10
75.5381931187
 20
27.5898732748
  0
LWPOLYLINE
  5
2C9
100
AcDbEntity
  8
0
100
AcDbPolyline
 62
7
  6
CONTINUOUS
 90
13
 70
0
 43
0.3500000006
 10
3.3214284925
 20
51.4642862091
 10
3.035714241
 20
51.678570694
 10
3.035714241
 20
52.3214286804
 10
3.3214284925
 20
52.750002182
 10
3.9642856293
 20
52.750002182
 10
4.2499998808
 20
52.3214286804
 10
4.2499998808
 20
51.678570694
 10
3.9642856293
 20
51.4642862091
 10
4.3928571482
 20
51.0357127075
 10
4.3928571482
 20
50.1785702362
 10
3.9642856293
 20
49.7500012665
 10
3.3214284925
 20
49.7500012665
 10
2.8928572569
 20
50.1785702362
  0
LWPOLYLINE
  5
2CA
100
AcDbEntity
  8
0
100
AcDbPolyline
 62
250
  6
CONTINUOUS
 90
7
 70
0
 10
74.9035731437
 20
25.9549959701
 10
75.0742019536
 20
26.5271081913
 10
75.1365815852
 20
26.7340787765
 10
75.1978640844
 20
26.9475540755
 10
75.2568656177
 20
27.1670095624
 10
75.3147700187
 20
27.392756015
 10
75.3715772872
 20
27.6246499668
  0
LWPOLYLINE
  5
2CB
100
AcDbEntity
  8
0
100
AcDbPolyline
 62
250
  6
CONTINUOUS
 90
18
 70
0
 10
74.7758692651
 20
-22.5580384706
 10
74.7623892412
 20
-22.5690180278
 10
74.7462710933
 20
-22.5828284481
 10
74.7269857941
 20
-22.5999228662
 10
74.7050623711
 20
-22.6203219355
 10
74.6823977358
 20
-22.6432056031
 10
74.6589557004
 20
-22.6682431852
 10
74.6347724528
 20
-22.6954177613
 10
74.6118534685
 20
-22.7238683365
 10
74.5905541124
 20
-22.7529205931
 10
74.5705190197
 20
-22.7826133819
 10
74.5526875717
 20
-22.813080499
 10
74.5371452727
 20
-22.8442726408
 10
74.5238066185
 20
-22.8758828755
 10
74.5133544773
 20
-22.9077374971
 10
74.5060164719
 20
-22.9396757685
 10
74.5015649794
 20
-22.9715503881
 10
74.5
 20
-23.0032230805
  0
LWPOLYLINE
  5
2CC
100
AcDbEntity
  8
0
100
AcDbPolyline
 62
250
  6
CONTINUOUS
 90
3
 70
0
 10
74.7938465932
 20
22.5438081665
 10
74.7984054398
 20
22.5400750723
 10
74.8
 20
22.5383430976
  0
LINE
  5
2CD
100
AcDbEntity
  8
0
100
AcDbLine
 62
7
  6
CONTINUOUS
 10
88.2678199301
 20
-32.417303
 11
88.8290309301
 21
-33.499986
  0
LINE
  5
2CE
100
AcDbEntity
  8
0
100
AcDbLine
 62
7
  6
CONTINUOUS
 10
88.8636937208
 20
-32.3499536669
 11
89.4598079301
 21
-33.499979
  0
LINE
  5
2CF
100
AcDbEntity
  8
0
100
AcDbLine
 62
7
  6
CONTINUOUS
 10
77.5237159301
 20
-30.699867
 11
78.4227399301
 21
-33.5
  0
LINE
  5
2D0
100
AcDbEntity
  8
0
100
AcDbLine
 62
7
  6
CONTINUOUS
 10
78.0837439301
 20
-30.699867
 11
78.7027679301
 21
-32.627905
  0
LINE
  5
2D1
100
AcDbEntity
  8
0
100
AcDbLine
 62
250
  6
CONTINUOUS
 10
75.1592595027
 20
-26.8129492362
 11
74.9450820507
 21
-26.0973029983
  0
LWPOLYLINE
  5
2D2
100
AcDbEntity
  8
0
100
AcDbPolyline
 62
250
  6
CONTINUOUS
 90
20
 70
0
 10
74.9450820507
 20
-26.0973029983
 10
74.8972723608
 20
-25.934864912
 10
74.8523644256
 20
-25.7784629647
 10
74.8101156787
 20
-25.6280125185
 10
74.7706406163
 20
-25.4824984065
 10
74.7339785181
 20
-25.3417226117
 10
74.7000901044
 20
-25.205841137
 10
74.6689720326
 20
-25.0743845552
 10
74.6406539952
 20
-24.9472494068
 10
74.6151062996
 20
-24.8244783599
 10
74.5922365256
 20
-24.705826632
 10
74.5720709253
 20
-24.5912393011
 10
74.5545832465
 20
-24.4806945189
 10
74.5396023123
 20
-24.3739996465
 10
74.5271457301
 20
-24.2711149807
 10
74.5171958925
 20
-24.1719934548
 10
74.5095288006
 20
-24.0764347295
 10
74.5040697881
 20
-23.9843433741
 10
74.5008935212
 20
-23.8957253787
 10
74.5
 20
-23.8105339721
  0
LINE
  5
2D3
100
AcDbEntity
  8
0
100
AcDbLine
 62
250
  6
CONTINUOUS
 10
75.6152310263
 20
27.5730142453
 11
75.736130901
 21
28.3966588256
  0
LINE
  5
2D4
100
AcDbEntity
  8
0
100
AcDbLine
 62
250
  6
CONTINUOUS
 10
75.736130901
 20
28.3966588256
 11
75.8638074154
 21
29.2349234143
  0
LINE
  5
2D5
100
AcDbEntity
  8
0
100
AcDbLine
 62
250
  6
CONTINUOUS
 10
75.8638074154
 20
29.2349234143
 11
75.9965425713
 21
30.0852368797
  0
LINE
  5
2D6
100
AcDbEntity
  8
0
100
AcDbLine
 62
250
  6
CONTINUOUS
 10
75.9965425713
 20
30.0852368797
 11
76.2
 21
31.3656274711
  0
LWPOLYLINE
  5
2D7
100
AcDbEntity
  8
0
100
AcDbPolyline
 62
250
  6
CONTINUOUS
 90
6
 70
0
 10
75.2848431632
 20
25.8094682626
 10
75.4491268542
 20
26.6314201878
 10
75.4925835526
 20
26.8568232092
 10
75.5346097221
 20
27.0886353618
 10
75.5755726295
 20
27.3273617237
 10
75.6152310263
 20
27.5730142453
  0
LINE
  5
2D8
100
AcDbEntity
  8
0
100
AcDbLine
 62
250
  6
CONTINUOUS
 10
75.3715772872
 20
27.6246499668
 11
75.5432070383
 21
28.4377589342
  0
LINE
  5
2D9
100
AcDbEntity
  8
0
100
AcDbLine
 62
250
  6
CONTINUOUS
 10
75.5432070383
 20
28.4377589342
 11
75.7236534259
 21
29.2650548651
  0
LINE
  5
2DA
100
AcDbEntity
  8
0
100
AcDbLine
 62
250
  6
CONTINUOUS
 10
75.7236534259
 20
29.2650548651
 11
75.9117687355
 21
30.103712713
  0
LWPOLYLINE
  5
2DB
100
AcDbEntity
  8
0
100
AcDbPolyline
 62
250
  6
CONTINUOUS
 90
3
 70
0
 10
75.9117687355
 20
30.103712713
 10
76.1029621099
 20
30.9442853227
 10
76.2
 20
31.3656274742
  0
LWPOLYLINE
  5
2DC
100
AcDbEntity
  8
0
100
AcDbPolyline
 62
250
  6
CONTINUOUS
 90
4
 70
0
 10
74.8
 20
-22.5383389438
 10
74.7984150652
 20
-22.5400638657
 10
74.7938821771
 20
-22.5437789389
 10
74.7758692651
 20
-22.5580384706
  0
LINE
  5
2DD
100
AcDbEntity
  8
0
100
AcDbLine
 62
7
  6
CONTINUOUS
 10
85.6665499301
 20
-31.571955
 11
85.9379609301
 21
-32.417303
  0
LINE
  5
2DE
100
AcDbEntity
  8
0
100
AcDbLine
 62
7
  6
CONTINUOUS
 10
86.1087889301
 20
-32.949324
 11
86.2855809301
 21
-33.499986
  0
LINE
  5
2DF
100
AcDbEntity
  8
0
100
AcDbLine
 62
7
  6
CONTINUOUS
 10
81.9351999301
 20
-31.653498
 11
82.4646659301
 21
-33.499993
  0
LINE
  5
2E0
100
AcDbEntity
  8
0
100
AcDbLine
 62
7
  6
CONTINUOUS
 10
82.2217799301
 20
-30.699867
 11
82.7446729301
 21
-32.523409
  0
LWPOLYLINE
  5
2E1
100
AcDbEntity
  8
0
100
AcDbPolyline
 62
250
  6
CONTINUOUS
 90
5
 70
0
 10
75.3715450489
 20
-27.6246499668
 10
75.3204065949
 20
-27.4137122434
 10
75.2681429727
 20
-27.2081090315
 10
75.2147541821
 20
-27.0079483344
 10
75.1592595027
 20
-26.8129492362
  0
LINE
  5
2E2
100
AcDbEntity
  8
0
100
AcDbLine
 62
250
  6
CONTINUOUS
 10
76.2
 20
-31.355216572
 11
76.0068601561
 21
-30.5154769169
  0
LINE
  5
2E3
100
AcDbEntity
  8
0
100
AcDbLine
 62
250
  6
CONTINUOUS
 10
76.0068601561
 20
-30.5154769169
 11
75.8172052852
 21
-29.6781454788
  0
LINE
  5
2E4
100
AcDbEntity
  8
0
100
AcDbLine
 62
250
  6
CONTINUOUS
 10
75.8172052852
 20
-29.6781454788
 11
75.6321734675
 21
-28.8460388814
  0
LWPOLYLINE
  5
2E5
100
AcDbEntity
  8
0
100
AcDbPolyline
 62
250
  6
CONTINUOUS
 90
3
 70
0
 10
75.6321734675
 20
-28.8460388814
 10
75.4563170248
 20
-28.0283951912
 10
75.3715450489
 20
-27.6246499668
  0
LINE
  5
2E6
100
AcDbEntity
  8
0
100
AcDbLine
 62
250
  6
CONTINUOUS
 10
75.4651736579
 20
-26.7145276761
 11
75.2804185684
 21
-25.7881263092
  0
LWPOLYLINE
  5
2E7
100
AcDbEntity
  8
0
100
AcDbPolyline
 62
250
  6
CONTINUOUS
 90
18
 70
0
 10
75.2804185684
 20
-25.7881263092
 10
75.2188907381
 20
-25.464850716
 10
75.1910381246
 20
-25.3116117702
 10
75.165152227
 20
-25.1634135957
 10
75.1412265196
 20
-25.0204496966
 10
75.1192774387
 20
-24.8821439269
 10
75.0992881823
 20
-24.7484274618
 10
75.0812366956
 20
-24.6193810526
 10
75.0651137525
 20
-24.4946528419
 10
75.0508860021
 20
-24.3742322911
 10
75.0385128851
 20
-24.2581397609
 10
75.0279598743
 20
-24.1460694709
 10
75.0191802187
 20
-24.0380304569
 10
75.0121210055
 20
-23.9340213194
 10
75.0067300505
 20
-23.8337202755
 10
75.0029516701
 20
-23.7370219704
 10
75.0007279543
 20
-23.6440373766
 10
75.0
 20
-23.5547687789
  0
LWPOLYLINE
  5
2E8
100
AcDbEntity
  8
0
100
AcDbPolyline
 62
250
  6
CONTINUOUS
 90
5
 70
0
 10
75.6152082698
 20
-27.5728561146
 10
75.5794335115
 20
-27.349408032
 10
75.5424671867
 20
-27.131947043
 10
75.5044924618
 20
-26.9204634814
 10
75.4651736579
 20
-26.7145276761
  0
LINE
  5
2E9
100
AcDbEntity
  8
0
100
AcDbLine
 62
250
  6
CONTINUOUS
 10
76.2
 20
-31.3552165692
 11
75.9297092387
 21
-29.6537342163
  0
LINE
  5
2EA
100
AcDbEntity
  8
0
100
AcDbLine
 62
250
  6
CONTINUOUS
 10
75.9297092387
 20
-29.6537342163
 11
75.7991813495
 21
-28.8102116741
  0
LWPOLYLINE
  5
2EB
100
AcDbEntity
  8
0
100
AcDbPolyline
 62
250
  6
CONTINUOUS
 90
3
 70
0
 10
75.7991813495
 20
-28.8102116741
 10
75.6747371765
 20
-27.9818663412
 10
75.6152082698
 20
-27.5728561146
  0
LWPOLYLINE
  5
2EC
100
AcDbEntity
  8
0
100
AcDbPolyline
 62
250
  6
CONTINUOUS
 90
19
 70
0
 10
75.0
 20
23.5541150673
 10
74.9980973222
 20
23.5764138388
 10
74.9924037743
 20
23.598542884
 10
74.9829626958
 20
23.6203337859
 10
74.9698459456
 20
23.6416207045
 10
74.953153359
 20
23.6622416305
 10
74.9330119908
 20
23.6820396194
 10
74.909575141
 20
23.7008639972
 10
74.8830211871
 20
23.7185715026
 10
74.8535522333
 20
23.7350273706
 10
74.8213925675
 20
23.7501063653
 10
74.78678695
 20
23.7636937324
 10
74.7499987541
 20
23.7756860688
 10
74.7113079668
 20
23.7859921103
 10
74.6710090494
 20
23.794533428
 10
74.6294086918
 20
23.801245024
 10
74.5868234934
 20
23.8060758236
 10
74.5435775546
 20
23.8089890651
 10
74.5
 20
23.8099625811
  0
LWPOLYLINE
  5
2ED
100
AcDbEntity
  8
0
100
AcDbPolyline
 62
250
  6
CONTINUOUS
 90
22
 70
0
 10
75.0
 20
22.6966459465
 10
74.9986019805
 20
22.7194995968
 10
74.9944156978
 20
22.74223517
 10
74.9874644997
 20
22.764725236
 10
74.9777871734
 20
22.7868465021
 10
74.965437789
 20
22.8084723502
 10
74.9504854545
 20
22.8294736558
 10
74.933013815
 20
22.8497305853
 10
74.9131205471
 20
22.8691322677
 10
74.8909169205
 20
22.8875693605
 10
74.866527117
 20
22.9049386269
 10
74.8400875277
 20
22.9211431144
 10
74.8117460145
 20
22.9360918509
 10
74.7816610755
 20
22.9497012009
 10
74.7500009595
 20
22.9618951645
 10
74.7169427248
 20
22.9726054224
 10
74.6826712481
 20
22.9817721362
 10
74.647378191
 20
22.9893440612
 10
74.6112609285
 20
22.9952786709
 10
74.5745214449
 20
22.9995427406
 10
74.5373652039
 20
23.0021125321
 10
74.5
 20
23.0029737069
  0
LINE
  5
2EE
100
AcDbEntity
  8
0
100
AcDbLine
 62
250
  6
CONTINUOUS
 10
75.0
 20
22.3383735586
 11
74.9997764376
 21
22.3476447815
  0
LWPOLYLINE
  5
2EF
100
AcDbEntity
  8
0
100
AcDbPolyline
 62
250
  6
CONTINUOUS
 90
5
 70
0
 10
74.9995701369
 20
22.3515173001
 10
74.9989043787
 20
22.3592760705
 10
74.9956295187
 20
22.37994957
 10
74.9902113
 20
22.400167554
 10
74.9827090859
 20
22.4197085098
  0
LWPOLYLINE
  5
2F0
100
AcDbEntity
  8
0
100
AcDbPolyline
 62
250
  6
CONTINUOUS
 90
19
 70
0
 10
74.5
 20
23.0029737069
 10
74.5015673434
 20
22.9713071123
 10
74.5060203306
 20
22.9394430163
 10
74.5133589617
 20
22.9075193403
 10
74.523812344
 20
22.8756812515
 10
74.5371513701
 20
22.8440908793
 10
74.5526887181
 20
22.8129261451
 10
74.5705238864
 20
22.7824701992
 10
74.5905573767
 20
22.7527959039
 10
74.6118033717
 20
22.7238316366
 10
74.6345555607
 20
22.695596341
 10
74.6585202546
 20
22.6686608847
 10
74.6818305681
 20
22.643733498
 10
74.7045269188
 20
22.620792293
 10
74.7265688893
 20
22.6002719382
 10
74.7459683424
 20
22.5830721749
 10
74.7621698221
 20
22.5691863812
 10
74.7757287843
 20
22.5581443417
 10
74.7938465932
 20
22.5438081665
  0
LINE
  5
2F1
100
AcDbEntity
  8
0
100
AcDbLine
 62
250
  6
CONTINUOUS
 10
74.5
 20
-23.8105339721
 11
74.5
 21
-23.0032230805
  0
LINE
  5
2F2
100
AcDbEntity
  8
0
100
AcDbLine
 62
250
  6
CONTINUOUS
 10
74.5
 20
23.0029737069
 11
74.5
 21
23.8099625811
  0
LINE
  5
2F3
100
AcDbEntity
  8
0
100
AcDbLine
 62
250
  6
CONTINUOUS
 10
74.8
 20
-22.5383389438
 11
74.8
 21
-22.5157095584
  0
LINE
  5
2F4
100
AcDbEntity
  8
0
100
AcDbLine
 62
250
  6
CONTINUOUS
 10
74.8
 20
22.5157095584
 11
74.8
 21
22.5383430976
  0
LINE
  5
2F5
100
AcDbEntity
  8
0
100
AcDbLine
 62
7
  6
CONTINUOUS
 10
75.0
 20
-23.5547687651
 11
75.0
 21
23.5541150408
  0
LINE
  5
2F6
100
AcDbEntity
  8
0
100
AcDbLine
 62
250
  6
CONTINUOUS
 10
76.2
 20
-31.355216572
 11
76.2
 21
31.3656274742
  0
LWPOLYLINE
  5
2F7
100
AcDbEntity
  8
0
100
AcDbPolyline
 62
250
  6
CONTINUOUS
 90
17
 70
0
 10
75.0
 20
23.5541150673
 10
75.0009565906
 20
23.6565511355
 10
75.0038801646
 20
23.7637300917
 10
75.0088496961
 20
23.8756483448
 10
75.0159434265
 20
23.9921706835
 10
75.0252335279
 20
24.1134234627
 10
75.0367806129
 20
24.2397947592
 10
75.0506479541
 20
24.37127446
 10
75.0668897304
 20
24.5078606271
 10
75.08553347
 20
24.6499530968
 10
75.106616594
 20
24.7974720239
 10
75.1301697579
 20
24.9504819677
 10
75.1561852493
 20
25.1095990912
 10
75.1846846206
 20
25.2746718881
 10
75.2156592588
 20
25.4458335664
 10
75.2490215947
 20
25.6241277442
 10
75.2848431632
 20
25.8094682626
  0
LWPOLYLINE
  5
2F8
100
AcDbEntity
  8
0
100
AcDbPolyline
 62
250
  6
CONTINUOUS
 90
17
 70
0
 10
74.5
 20
23.8099625811
 10
74.501170927
 20
23.9077190746
 10
74.5053461375
 20
24.009836898
 10
74.5125256315
 20
24.1163825008
 10
74.5226181999
 20
24.2273678298
 10
74.5357150519
 20
24.3429066957
 10
74.5520898149
 20
24.4632186131
 10
74.5717770599
 20
24.5883517901
 10
74.594742216
 20
24.7183731124
 10
74.6211551981
 20
24.8535326027
 10
74.65105778
 20
24.9938043378
 10
74.6844081878
 20
25.1393074621
 10
74.7212510153
 20
25.290514579
 10
74.7616552486
 20
25.4473202579
 10
74.8055519016
 20
25.6098962325
 10
74.8527786088
 20
25.7791440249
 10
74.9035731437
 20
25.9549959701
  0
LWPOLYLINE
  5
2F9
100
AcDbEntity
  8
0
100
AcDbPolyline
 62
7
  6
CONTINUOUS
 90
11
 70
0
 10
74.9999995527
 20
-22.3379981419
 10
74.999929178
 20
-22.3432498512
 10
74.999761848
 20
-22.347975647
 10
74.9995276997
 20
-22.3521916727
 10
74.9992529951
 20
-22.3559147551
 10
74.9989606141
 20
-22.3591586529
 10
74.9986704481
 20
-22.3619339595
 10
74.9983938526
 20
-22.3642956025
 10
74.9981488492
 20
-22.3662123339
 10
74.997964317
 20
-22.3675669866
 10
74.9978445564
 20
-22.3684099909
  0
LINE
  5
2FA
100
AcDbEntity
  8
0
100
AcDbLine
 62
250
  6
CONTINUOUS
 10
75.0
 20
-22.3383694048
 11
74.999761848
 21
-22.347975647
  0
LWPOLYLINE
  5
2FB
100
AcDbEntity
  8
0
100
AcDbPolyline
 62
250
  6
CONTINUOUS
 90
5
 70
0
 10
74.9995276997
 20
-22.3521916727
 10
74.9989043788
 20
-22.359271916
 10
74.9956295191
 20
-22.3799454149
 10
74.9902113008
 20
-22.4001633982
 10
74.9827090873
 20
-22.4197043534
  0
LWPOLYLINE
  5
2FC
100
AcDbEntity
  8
0
100
AcDbPolyline
 62
250
  6
CONTINUOUS
 90
22
 70
0
 10
75.0
 20
-22.6970009566
 10
74.9986019367
 20
-22.7198722213
 10
74.9944155453
 20
-22.7426204181
 10
74.9874642076
 20
-22.7651182242
 10
74.9777867563
 20
-22.7872417831
 10
74.9654372887
 20
-22.8088652691
 10
74.9504848942
 20
-22.8298616719
 10
74.9330132111
 20
-22.850111446
 10
74.9131199319
 20
-22.8695035853
 10
74.8909163087
 20
-22.8879301734
 10
74.866526513
 20
-22.9052881774
 10
74.8400869416
 20
-22.921480535
 10
74.8117454573
 20
-22.9364171968
 10
74.7816605581
 20
-22.9500146283
 10
74.7500004907
 20
-22.9621967824
 10
74.7169423117
 20
-22.9728960221
 10
74.6826708959
 20
-22.9820525032
 10
74.6473779039
 20
-22.9896150101
 10
74.6112607104
 20
-22.9955417384
 10
74.5745212986
 20
-22.9997997039
 10
74.5373651307
 20
-23.0023649309
 10
74.5
 20
-23.0032230805
  0
LWPOLYLINE
  5
2FD
100
AcDbEntity
  8
0
100
AcDbPolyline
 62
250
  6
CONTINUOUS
 90
19
 70
0
 10
75.0
 20
-23.5547687789
 10
74.9980973584
 20
-23.5770601293
 10
74.9924039113
 20
-23.5991818376
 10
74.9829629851
 20
-23.6209655446
 10
74.9698464266
 20
-23.6422454636
 10
74.9531540567
 20
-23.6628596412
 10
74.9330129114
 20
-23.6826511898
 10
74.9095762734
 20
-23.7014694834
 10
74.8830225064
 20
-23.7191713024
 10
74.8535536996
 20
-23.7356219233
 10
74.821394126
 20
-23.750696146
 10
74.7867885379
 20
-23.7642792453
 10
74.7500003059
 20
-23.7762678433
 10
74.7113094098
 20
-23.7865706986
 10
74.6710103106
 20
-23.7951093991
 10
74.6294097122
 20
-23.8018189585
 10
74.586824222
 20
-23.8066483121
 10
74.5435779409
 20
-23.8095607052
 10
74.5
 20
-23.8105339721
  0
LWPOLYLINE
  5
2FE
100
AcDbEntity
  8
0
100
AcDbPolyline
 62
250
  6
CONTINUOUS
 90
12
 70
0
 10
74.9827090873
 20
-22.4197043534
 10
74.9732050742
 20
-22.4383541857
 10
74.9618033896
 20
-22.4559085635
 10
74.9486289527
 20
-22.4721751575
 10
74.9338261054
 20
-22.4869757473
 10
74.9175570314
 20
-22.5001481741
 10
74.8999999775
 20
-22.5115481186
 10
74.8813473032
 20
-22.5210506801
 10
74.8618033738
 20
-22.5285517461
 10
74.8415823178
 20
-22.533969134
 10
74.8209056807
 20
-22.537243491
 10
74.8
 20
-22.5383389438
  0
LWPOLYLINE
  5
2FF
100
AcDbEntity
  8
0
100
AcDbPolyline
 62
250
  6
CONTINUOUS
 90
12
 70
0
 10
74.9827090859
 20
22.4197085098
 10
74.9732050721
 20
22.4383583425
 10
74.9618033866
 20
22.4559127207
 10
74.9486289485
 20
22.4721793152
 10
74.9338261
 20
22.4869799052
 10
74.9175570251
 20
22.5001523317
 10
74.8999999715
 20
22.5115522752
 10
74.8813472982
 20
22.5210548356
 10
74.86180337
 20
22.5285559006
 10
74.8415823152
 20
22.5339732879
 10
74.8209056793
 20
22.5372476447
 10
74.8
 20
22.5383430976
  0
LINE
  5
300
100
AcDbEntity
  8
0
100
AcDbLine
 62
7
  6
CONTINUOUS
 10
85.9465779301
 20
-30.69986
 11
86.8456089301
 21
-33.499993
  0
LINE
  5
301
100
AcDbEntity
  8
0
100
AcDbLine
 62
7
  6
CONTINUOUS
 10
74.9978133961
 20
22.3686242997
 11
74.9978380979
 21
22.3684539255
  0
LWPOLYLINE
  5
302
100
AcDbEntity
  8
0
100
AcDbPolyline
 62
7
  6
CONTINUOUS
 90
12
 70
0
 10
74.997984464
 20
22.3674209193
 10
74.9982138459
 20
22.3657154114
 10
74.9984763571
 20
22.3636120527
 10
74.9987563847
 20
22.3611439986
 10
74.9990462199
 20
22.3582589212
 10
74.9993170388
 20
22.3551137902
 10
74.9995701369
 20
22.3515173001
 10
74.9997764376
 20
22.3476447815
 10
74.9999025089
 20
22.3442246821
 10
74.9999669619
 20
22.3414370143
 10
74.9999945508
 20
22.3391340759
 10
74.9999975453
 20
22.3386191843
  0
LINE
  5
303
100
AcDbEntity
  8
0
100
AcDbLine
 62
7
  6
CONTINUOUS
 10
80.2551579301
 20
-30.699867
 11
80.2551509301
 21
-33.5
  0
LINE
  5
304
100
AcDbEntity
  8
0
100
AcDbLine
 62
7
  6
CONTINUOUS
 10
80.8151789301
 20
-30.699867
 11
80.8151719301
 21
-33.499993
  0
LINE
  5
305
100
AcDbEntity
  8
0
100
AcDbLine
 62
7
  6
CONTINUOUS
 10
81.3751789301
 20
-30.699867
 11
81.3751789301
 21
-33.499993
  0
LINE
  5
306
100
AcDbEntity
  8
0
100
AcDbLine
 62
7
  6
CONTINUOUS
 10
81.9351999301
 20
-31.653498
 11
81.9351999301
 21
-33.499993
  0
LINE
  5
307
100
AcDbEntity
  8
0
100
AcDbLine
 62
7
  6
CONTINUOUS
 10
83.5541389301
 20
-31.653498
 11
83.5541459301
 21
-33.499993
  0
LINE
  5
308
100
AcDbEntity
  8
0
100
AcDbLine
 62
7
  6
CONTINUOUS
 10
84.1141669301
 20
-30.699867
 11
84.1141669301
 21
-33.499993
  0
LINE
  5
309
100
AcDbEntity
  8
0
100
AcDbLine
 62
7
  6
CONTINUOUS
 10
79.3217849301
 20
-30.699867
 11
78.7027679301
 21
-32.627905
  0
LINE
  5
30A
100
AcDbEntity
  8
0
100
AcDbLine
 62
7
  6
CONTINUOUS
 10
79.8818129301
 20
-30.699867
 11
78.9827819301
 21
-33.499993
  0
LINE
  5
30B
100
AcDbEntity
  8
0
100
AcDbLine
 62
7
  6
CONTINUOUS
 10
87.2189539301
 20
-30.69986
 11
87.2189539301
 21
-33.499986
  0
LINE
  5
30C
100
AcDbEntity
  8
0
100
AcDbLine
 62
7
  6
CONTINUOUS
 10
87.7712539301
 20
-31.217881
 11
87.7712609301
 21
-31.899275
  0
LINE
  5
30D
100
AcDbEntity
  8
0
100
AcDbLine
 62
250
  6
CONTINUOUS
 10
89.1292815281
 20
41.0
 11
89.1292815281
 21
35.9752167919
  0
LINE
  5
30E
100
AcDbEntity
  8
0
100
AcDbLine
 62
250
  6
CONTINUOUS
 10
89.1292815281
 20
-41.0
 11
89.1292815281
 21
-35.9752167919
  0
LINE
  5
30F
100
AcDbEntity
  8
0
100
AcDbLine
 62
7
  6
CONTINUOUS
 10
87.7790449301
 20
-32.417296
 11
87.7789819301
 21
-33.499986
  0
LINE
  5
310
100
AcDbEntity
  8
0
100
AcDbLine
 62
7
  6
CONTINUOUS
 10
83.2675659301
 20
-30.699867
 11
82.7446729301
 21
-32.523409
  0
LINE
  5
311
100
AcDbEntity
  8
0
100
AcDbLine
 62
7
  6
CONTINUOUS
 10
83.5541389301
 20
-31.653498
 11
83.0246729301
 21
-33.499986
  0
LINE
  5
312
100
AcDbEntity
  8
0
100
AcDbLine
 62
7
  6
CONTINUOUS
 10
85.3865289301
 20
-30.69986
 11
84.4875119301
 21
-33.499993
  0
LINE
  5
313
100
AcDbEntity
  8
0
100
AcDbLine
 62
7
  6
CONTINUOUS
 10
85.6665499301
 20
-31.571955
 11
85.3951529301
 21
-32.417303
  0
LINE
  5
314
100
AcDbEntity
  8
0
100
AcDbLine
 62
7
  6
CONTINUOUS
 10
85.2243319301
 20
-32.949324
 11
85.0475329301
 21
-33.499986
  0
LWPOLYLINE
  5
315
100
AcDbEntity
  8
0
100
AcDbPolyline
 62
250
  6
CONTINUOUS
 90
34
 70
0
 10
96.9698505673
 20
-33.8918051185
 10
96.9484233112
 20
-33.9136772003
 10
96.9156503823
 20
-33.9342080599
 10
96.8716001839
 20
-33.9533548453
 10
96.8163646576
 20
-33.9710775935
 10
96.7500590906
 20
-33.9873393137
 10
96.6728218755
 20
-34.0021060644
 10
96.5848142215
 20
-34.0153470246
 10
96.4862198178
 20
-34.0270345578
 10
96.37724445
 20
-34.0371442698
 10
96.2581155711
 20
-34.0456550597
 10
96.1290818261
 20
-34.0525491639
 10
95.9904125338
 20
-34.0578121929
 10
95.842397124
 20
-34.0614331618
 10
95.6853445337
 20
-34.0634045129
 10
95.5195825623
 20
-34.0637221317
 10
95.3454571874
 20
-34.0623853552
 10
95.1633318426
 20
-34.0593969735
 10
94.9735866589
 20
-34.054763224
 10
94.7766176717
 20
-34.0484937781
 10
94.5728359936
 20
-34.0406017215
 10
94.3626669568
 20
-34.0311035264
 10
94.1465492249
 20
-34.0200190173
 10
93.9249338779
 20
-34.0073713299
 10
93.6982834701
 20
-33.9931868623
 10
93.4670710653
 20
-33.9774952203
 10
93.2317792488
 20
-33.9603291553
 10
92.9928991206
 20
-33.9417244964
 10
92.7509292699
 20
-33.921720075
 10
92.5063747352
 20
-33.9003576443
 10
92.2597459494
 20
-33.8776817918
 10
92.0115576749
 20
-33.8537398465
 10
91.7623279291
 20
-33.8285817798
 10
91.512576903
 20
-33.8022601017
  0
LWPOLYLINE
  5
316
100
AcDbEntity
  8
0
100
AcDbPolyline
 62
250
  6
CONTINUOUS
 90
34
 70
0
 10
96.9698514625
 20
33.8918052203
 10
96.9484241999
 20
33.9136773019
 10
96.9156512625
 20
33.934208161
 10
96.8716010537
 20
33.9533549457
 10
96.816365515
 20
33.971077693
 10
96.7500599337
 20
33.987339412
 10
96.6728227025
 20
34.0021061613
 10
96.5848150306
 20
34.0153471199
 10
96.4862206072
 20
34.0270346513
 10
96.3772452181
 20
34.0371443613
 10
96.2581163162
 20
34.045655149
 10
96.1290825469
 20
34.0525492507
 10
95.9904132286
 20
34.057812277
 10
95.8423977916
 20
34.0614332431
 10
95.6853451727
 20
34.0634045912
 10
95.5195831716
 20
34.0637222067
 10
95.3454577658
 20
34.0623854268
 10
95.1633323892
 20
34.0593970416
 10
94.9735871729
 20
34.0547632883
 10
94.7766181522
 20
34.0484938386
 10
94.5728364401
 20
34.0406017779
 10
94.3626673686
 20
34.0311035787
 10
94.1465496017
 20
34.0200190654
 10
93.9249342193
 20
34.0073713737
 10
93.6982837761
 20
33.9931869016
 10
93.4670713358
 20
33.9774952551
 10
93.2317794839
 20
33.9603291856
 10
92.9928993204
 20
33.941724522
 10
92.7509294349
 20
33.9217200959
 10
92.5063748657
 20
33.9003576605
 10
92.2597460461
 20
33.8776818034
 10
92.0115577385
 20
33.8537398534
 10
91.7623279604
 20
33.8285817821
 10
91.512576903
 20
33.8022600994
  0
LWPOLYLINE
  5
317
100
AcDbEntity
  8
0
100
AcDbPolyline
 62
250
  6
CONTINUOUS
 90
22
 70
0
 10
96.9698514984
 20
33.8918052244
 10
97.3034485859
 20
30.6684160444
 10
97.6035484838
 20
27.4436313405
 10
97.8701797961
 20
24.2177832869
 10
98.1033402751
 20
20.9917068609
 10
98.3031094137
 20
17.7652292261
 10
98.4695940842
 20
14.5371664992
 10
98.6028090513
 20
11.30719153
 10
98.7027120909
 20
8.0762834717
 10
98.7692946104
 20
4.8452153831
 10
98.8025689581
 20
1.6148991045
 10
98.802568826
 20
-1.6149248198
 10
98.7692942229
 20
-4.845240456
 10
98.7027115071
 20
-8.0763060041
 10
98.6028083487
 20
-11.3072108814
 10
98.4695931887
 20
-14.5371857972
 10
98.3031078891
 20
-17.7652562637
 10
98.1033377445
 20
-20.99174475
 10
97.8701765725
 20
-24.2178249011
 10
97.6035454111
 20
-27.443666161
 10
97.303446511
 20
-30.6684369852
 10
96.9698514984
 20
-33.8918052244
  0
LWPOLYLINE
  5
318
100
AcDbEntity
  8
0
100
AcDbPolyline
 62
250
  6
CONTINUOUS
 90
22
 70
0
 10
91.512576903
 20
33.8022601024
 10
91.8397329055
 20
30.5872713869
 10
92.1340941399
 20
27.371005845
 10
92.3956606062
 20
24.1537399917
 10
92.6243885936
 20
20.9361998434
 10
92.8203218129
 20
17.7182114099
 10
92.9835913966
 20
14.4986983787
 10
93.114240527
 20
11.2772835206
 10
93.2122260217
 20
8.0548897837
 10
93.2775494657
 20
4.8323896894
 10
93.3102113778
 20
1.6106409926
 10
93.3102112391
 20
-1.610667196
 10
93.2775490781
 20
-4.832415252
 10
93.212225508
 20
-8.0549128123
 10
93.1142399157
 20
-11.277303376
 10
92.9835904904
 20
-14.4987181792
 10
92.82032007
 20
-17.7182389464
 10
92.6243858166
 20
-20.9362382215
 10
92.3956574057
 20
-24.1537820472
 10
92.1340913957
 20
-27.371041007
 10
91.8397312281
 20
-30.5872925238
 10
91.512576903
 20
-33.8022601024
  0
LINE
  5
319
100
AcDbEntity
  8
0
100
AcDbLine
 62
7
  6
CONTINUOUS
 10
98.9127455708
 20
7.2220613239
 11
98.9104032874
 21
7.3314391493
  0
LINE
  5
31A
100
AcDbEntity
  8
0
100
AcDbLine
 62
7
  6
CONTINUOUS
 10
98.9144937495
 20
-6.7647618126
 11
98.9032617422
 21
-6.0673236615
  0
LINE
  5
31B
100
AcDbEntity
  8
0
100
AcDbLine
 62
7
  6
CONTINUOUS
 10
98.9143836272
 20
7.1140472326
 11
98.9127455708
 21
7.2220613239
  0
LINE
  5
31C
100
AcDbEntity
  8
0
100
AcDbLine
 62
7
  6
CONTINUOUS
 10
98.9032617422
 20
-6.0673236615
 11
98.8905345332
 21
-5.0226979196
  0
LINE
  5
31D
100
AcDbEntity
  8
0
100
AcDbLine
 62
7
  6
CONTINUOUS
 10
98.8905345332
 20
-5.0226979196
 11
98.881188136
 21
-3.9162958468
  0
LINE
  5
31E
100
AcDbEntity
  8
0
100
AcDbLine
 62
7
  6
CONTINUOUS
 10
98.9153568956
 20
-6.8582507172
 11
98.9144937495
 21
-6.7647618126
  0
LINE
  5
31F
100
AcDbEntity
  8
0
100
AcDbLine
 62
7
  6
CONTINUOUS
 10
98.91531394
 20
7.0086781022
 11
98.9143836272
 21
7.1140472326
  0
LINE
  5
320
100
AcDbEntity
  8
0
100
AcDbLine
 62
7
  6
CONTINUOUS
 10
98.881188136
 20
-3.9162958468
 11
98.8747621196
 21
-2.7691139243
  0
LINE
  5
321
100
AcDbEntity
  8
0
100
AcDbLine
 62
7
  6
CONTINUOUS
 10
98.8747621196
 20
-2.7691139243
 11
98.8700152471
 21
-1.197214382
  0
LINE
  5
322
100
AcDbEntity
  8
0
100
AcDbLine
 62
7
  6
CONTINUOUS
 10
98.9155214369
 20
6.9071779399
 11
98.91531394
 21
7.0086781022
  0
LINE
  5
323
100
AcDbEntity
  8
0
100
AcDbLine
 62
7
  6
CONTINUOUS
 10
98.8700152471
 20
-1.197214382
 11
98.8690928328
 21
0.3998157001
  0
LINE
  5
324
100
AcDbEntity
  8
0
100
AcDbLine
 62
7
  6
CONTINUOUS
 10
98.9155076216
 20
-6.9573671678
 11
98.9153568956
 21
-6.8582507172
  0
LINE
  5
325
100
AcDbEntity
  8
0
100
AcDbLine
 62
7
  6
CONTINUOUS
 10
98.8690928328
 20
0.3998157001
 11
98.8718773878
 21
1.9879019005
  0
LINE
  5
326
100
AcDbEntity
  8
0
100
AcDbLine
 62
7
  6
CONTINUOUS
 10
98.8718773878
 20
1.9879019005
 11
98.8765967746
 21
3.1549510526
  0
LINE
  5
327
100
AcDbEntity
  8
0
100
AcDbLine
 62
7
  6
CONTINUOUS
 10
98.9149387167
 20
-7.0609570017
 11
98.9155076216
 21
-6.9573671678
  0
LINE
  5
328
100
AcDbEntity
  8
0
100
AcDbLine
 62
7
  6
CONTINUOUS
 10
98.8765967746
 20
3.1549510526
 11
98.883947567
 21
4.2910845761
  0
LINE
  5
329
100
AcDbEntity
  8
0
100
AcDbLine
 62
7
  6
CONTINUOUS
 10
98.883947567
 20
4.2910845761
 11
98.8943693322
 21
5.3792925895
  0
LWPOLYLINE
  5
32A
100
AcDbEntity
  8
0
100
AcDbPolyline
 62
7
  6
CONTINUOUS
 90
3
 70
0
 10
98.9144937495
 20
6.7647618126
 10
98.9150145008
 20
6.8107297204
 10
98.9155214369
 20
6.9071779399
  0
LINE
  5
32B
100
AcDbEntity
  8
0
100
AcDbLine
 62
7
  6
CONTINUOUS
 10
98.9136521878
 20
-7.1678010065
 11
98.9149387167
 21
-7.0609570017
  0
LWPOLYLINE
  5
32C
100
AcDbEntity
  8
0
100
AcDbPolyline
 62
7
  6
CONTINUOUS
 90
3
 70
0
 10
98.8943693322
 20
5.3792925895
 10
98.9083267839
 20
6.3985509058
 10
98.9144937495
 20
6.7647618126
  0
LWPOLYLINE
  5
32D
100
AcDbEntity
  8
0
100
AcDbPolyline
 62
7
  6
CONTINUOUS
 90
3
 70
0
 10
98.9104032874
 20
-7.3314391493
 10
98.911662604
 20
-7.276661944
 10
98.9136521878
 20
-7.1678010065
  0
LWPOLYLINE
  5
32E
100
AcDbEntity
  8
0
100
AcDbPolyline
 62
250
  6
CONTINUOUS
 90
37
 70
0
 10
91.512576903
 20
-33.8022601024
 10
91.5000786039
 20
-33.9004396315
 10
91.4837378549
 20
-33.9977363713
 10
91.4635546561
 20
-34.0941503862
 10
91.4394842028
 20
-34.1898432572
 10
91.4115712997
 20
-34.2846535225
 10
91.3799503607
 20
-34.3780967197
 10
91.3446028822
 20
-34.4701624242
 10
91.3055473679
 20
-34.5608612632
 10
91.2629737434
 20
-34.6497404247
 10
91.2168648845
 20
-34.7367898798
 10
91.1672379153
 20
-34.8220199206
 10
91.1143341344
 20
-34.905008279
 10
91.058136983
 20
-34.9857446061
 10
90.9986630198
 20
-35.0642395588
 10
90.9362032191
 20
-35.1401024301
 10
90.8707420786
 20
-35.2133208529
 10
90.8022951006
 20
-35.2839075288
 10
90.7311997665
 20
-35.3515093942
 10
90.6574426317
 20
-35.4161116544
 10
90.5810371409
 20
-35.4777294449
 10
90.5023611095
 20
-35.5360546258
 10
90.4214037159
 20
-35.5910705458
 10
90.3381757817
 20
-35.6427941818
 10
90.2530875873
 20
-35.6909678513
 10
90.166129472
 20
-35.7355742938
 10
90.0773110966
 20
-35.7766310595
 10
89.9870717235
 20
-35.8139326847
 10
89.8954026208
 20
-35.8474607012
 10
89.8023125205
 20
-35.8772338127
 10
89.7082668804
 20
-35.9031023067
 10
89.6132570049
 20
-35.9250461134
 10
89.5172915896
 20
-35.9430854685
 10
89.4208621797
 20
-35.9571311042
 10
89.3241326237
 20
-35.9671532934
 10
89.2269390732
 20
-35.9731818488
 10
89.1292815281
 20
-35.9752167919
  0
LWPOLYLINE
  5
32F
100
AcDbEntity
  8
0
100
AcDbPolyline
 62
250
  6
CONTINUOUS
 90
37
 70
0
 10
96.9698514984
 20
-33.8918052244
 10
96.9277543834
 20
-34.2089044672
 10
96.872839909
 20
-34.5240265437
 10
96.8052003878
 20
-34.8366537301
 10
96.7249508802
 20
-35.1462689507
 10
96.6322237276
 20
-35.4523676804
 10
96.5271668633
 20
-35.7544579997
 10
96.4099507712
 20
-36.0520504629
 10
96.2807709951
 20
-36.3446490428
 10
96.1398429525
 20
-36.6317626952
 10
95.9874026471
 20
-36.9129156608
 10
95.8237002962
 20
-37.1876514704
 10
95.6490018065
 20
-37.4555225893
 10
95.4635950463
 20
-37.7160900975
 10
95.2677865348
 20
-37.9689257015
 10
95.0618960048
 20
-38.2136150265
 10
94.8462619518
 20
-38.4497575031
 10
94.6212408266
 20
-38.6769646718
 10
94.3872035048
 20
-38.8948611389
 10
94.1445362592
 20
-39.1030894115
 10
93.893638935
 20
-39.3013087187
 10
93.6349244846
 20
-39.4891926575
 10
93.3688217592
 20
-39.6664321593
 10
93.095767185
 20
-39.8327391235
 10
92.8162030418
 20
-39.9878440233
 10
92.5305887007
 20
-40.1314930214
 10
92.239395166
 20
-40.2634505446
 10
91.9430965506
 20
-40.383501308
 10
91.6421757537
 20
-40.4914499151
 10
91.337132358
 20
-40.5871177001
 10
91.0284771737
 20
-40.6703448652
 10
90.7167283032
 20
-40.7409942681
 10
90.4023890057
 20
-40.7989547389
 10
90.0859553392
 20
-40.8441350951
 10
89.7679404858
 20
-40.8764610615
 10
89.4488743364
 20
-40.8958782185
 10
89.1292815281
 20
-40.9023543978
  0
LINE
  5
330
100
AcDbEntity
  8
0
100
AcDbLine
 62
7
  6
CONTINUOUS
 10
-112.4693378896
 20
-41.0
 11
-114.3325269731
 21
-40.9023543978
  0
LWPOLYLINE
  5
331
100
AcDbEntity
  8
0
100
AcDbPolyline
 62
7
  6
CONTINUOUS
 90
10
 70
0
 43
0.3500000006
 10
-115.6336254272
 20
49.7500012665
 10
-114.7764784241
 20
50.6071437378
 10
-114.5621939392
 20
51.4642862091
 10
-114.5621939392
 20
52.3214286804
 10
-114.9907629089
 20
52.750002182
 10
-115.6336254272
 20
52.750002182
 10
-116.062194397
 20
52.3214286804
 10
-116.062194397
 20
51.4642862091
 10
-115.6336254272
 20
51.0357127075
 10
-114.7050563049
 20
51.0357127075
  0
LWPOLYLINE
  5
332
100
AcDbEntity
  8
0
100
AcDbPolyline
 62
250
  6
CONTINUOUS
 90
34
 70
0
 10
-114.5467962919
 20
-33.8918051185
 10
-114.7961958405
 20
-33.9136772003
 10
-115.0444740494
 20
-33.9342080599
 10
-115.2911127133
 20
-33.9533548453
 10
-115.5355970495
 20
-33.9710775935
 10
-115.7774167712
 20
-33.9873393137
 10
-116.0160671537
 20
-34.0021060644
 10
-116.2510500869
 20
-34.0153470246
 10
-116.4818751158
 20
-34.0270345578
 10
-116.7080604635
 20
-34.0371442698
 10
-116.9291340369
 20
-34.0456550597
 10
-117.1446344125
 20
-34.0525491639
 10
-117.3541117989
 20
-34.0578121929
 10
-117.557128976
 20
-34.0614331618
 10
-117.7532622072
 20
-34.0634045129
 10
-117.9421021244
 20
-34.0637221317
 10
-118.1232545818
 20
-34.0623853552
 10
-118.2963414788
 20
-34.0593969735
 10
-118.4610015494
 20
-34.054763224
 10
-118.6168911158
 20
-34.0484937781
 10
-118.7636848061
 20
-34.0406017215
 10
-118.9010762333
 20
-34.0311035264
 10
-119.0287786346
 20
-34.0200190173
 10
-119.1465254703
 20
-34.0073713299
 10
-119.2540709797
 20
-33.9931868623
 10
-119.3511906944
 20
-33.9774952203
 10
-119.4376819066
 20
-33.9603291553
 10
-119.5133640922
 20
-33.9417244964
 10
-119.5780792878
 20
-33.921720075
 10
-119.6316924201
 20
-33.9003576443
 10
-119.6740915881
 20
-33.8776817918
 10
-119.7051882964
 20
-33.8537398465
 10
-119.7249176402
 20
-33.8285817798
 10
-119.7332384404
 20
-33.8022601017
  0
LINE
  5
333
100
AcDbEntity
  8
0
100
AcDbLine
 62
7
  6
CONTINUOUS
 10
-119.9131284052
 20
-33.499979
 11
-119.7624368554
 21
-33.499979
  0
LINE
  5
334
100
AcDbEntity
  8
0
100
AcDbLine
 62
250
  6
CONTINUOUS
 10
-112.4693378896
 20
-33.904109589
 11
-114.546796341
 21
-33.8918052244
  0
LINE
  5
335
100
AcDbEntity
  8
0
100
AcDbLine
 62
7
  6
CONTINUOUS
 10
-120.0217478881
 20
-32.3499536669
 11
-119.8711033051
 21
-32.3499536669
  0
LINE
  5
336
100
AcDbEntity
  8
0
100
AcDbLine
 62
7
  6
CONTINUOUS
 10
-120.1709165119
 20
-30.69986
 11
-120.0203363815
 21
-30.69986
  0
LWPOLYLINE
  5
337
100
AcDbEntity
  8
0
100
AcDbPolyline
 62
7
  6
CONTINUOUS
 90
3
 70
0
 43
0.3500000006
 10
-117.0621947021
 20
50.0357124023
 10
-117.133625885
 20
49.8214279175
 10
-117.276479187
 20
49.5357122498
  0
LWPOLYLINE
  5
338
100
AcDbEntity
  8
0
100
AcDbPolyline
 62
7
  6
CONTINUOUS
 90
7
 70
0
 43
0.3500000006
 10
-130.1193363647
 20
1.5000001373
 10
-130.1193363647
 20
-0.0000003204
 10
-132.2621993408
 20
1.5000001373
 10
-132.6907683105
 20
1.5000001373
 10
-133.1193372803
 20
1.0714289017
 10
-133.1193372803
 20
0.4285709152
 10
-132.4764838257
 20
-0.0000003204
  0
LWPOLYLINE
  5
339
100
AcDbEntity
  8
0
100
AcDbPolyline
 62
7
  6
CONTINUOUS
 90
13
 70
0
 43
0.3500000006
 10
-131.8336213074
 20
-1.9285708809
 10
-132.0479057922
 20
-2.2142854156
 10
-132.6907683105
 20
-2.2142854156
 10
-133.1193372803
 20
-1.9285708809
 10
-133.1193372803
 20
-1.2857140274
 10
-132.6907683105
 20
-1.0000006256
 10
-132.0479057922
 20
-1.0000006256
 10
-131.8336213074
 20
-1.2857140274
 10
-131.4050523376
 20
-0.8571427917
 10
-130.5479053345
 20
-0.8571427917
 10
-130.1193363647
 20
-1.2857140274
 10
-130.1193363647
 20
-1.9285708809
 10
-130.5479053345
 20
-2.3571432495
  0
LWPOLYLINE
  5
33A
100
AcDbEntity
  8
0
100
AcDbPolyline
 62
7
  6
CONTINUOUS
 90
4
 70
0
 43
0.3500000006
 10
-120.1336268005
 20
50.1785702362
 10
-120.1336268005
 20
51.0357127075
 10
-119.7050487671
 20
51.4642862091
 10
-119.0621953125
 20
51.4642862091
  0
LWPOLYLINE
  5
33B
100
AcDbEntity
  8
0
100
AcDbPolyline
 62
250
  6
CONTINUOUS
 90
22
 70
0
 10
-114.546796341
 20
33.8918052244
 10
-114.8390955929
 20
30.6684160444
 10
-115.1021203649
 20
27.4436313405
 10
-115.3358706572
 20
24.2177832869
 10
-115.5403190621
 20
20.9917068609
 10
-115.7154929872
 20
17.7652292261
 10
-115.8614746549
 20
14.5371664992
 10
-115.9782967951
 20
11.30719153
 10
-116.065926678
 20
8.0762834717
 10
-116.1243483364
 20
4.8452153831
 10
-116.1535564393
 20
1.6148991045
 10
-116.1535563177
 20
-1.6149248198
 10
-116.1243479972
 20
-4.845240456
 10
-116.0659262311
 20
-8.0763060041
 10
-115.9782962661
 20
-11.3072108814
 10
-115.8614738673
 20
-14.5371857972
 10
-115.7154914586
 20
-17.7652562637
 10
-115.5403166161
 20
-20.99174475
 10
-115.3358678338
 20
-24.2178249011
 10
-115.1021179428
 20
-27.443666161
 10
-114.8390941118
 20
-30.6684369852
 10
-114.546796341
 20
-33.8918052244
  0
LWPOLYLINE
  5
33C
100
AcDbEntity
  8
0
100
AcDbPolyline
 62
7
  6
CONTINUOUS
 90
4
 70
0
 43
0.3500000006
 10
-130.5479053345
 20
-2.3571432495
 10
-131.4050523376
 20
-2.3571432495
 10
-131.8336213074
 20
-1.9285708809
 10
-131.8336213074
 20
-1.2857140274
  0
LINE
  5
33D
100
AcDbEntity
  8
0
100
AcDbLine
 62
250
  6
CONTINUOUS
 10
-114.4562914593
 20
-36.9129156608
 11
-114.3325269731
 21
-40.9023543978
  0
LINE
  5
33E
100
AcDbEntity
  8
0
100
AcDbLine
 62
250
  6
CONTINUOUS
 10
-114.546796341
 20
-33.8918052244
 11
-114.4562914593
 21
-36.9129156608
  0
LINE
  5
33F
100
AcDbEntity
  8
0
100
AcDbLine
 62
250
  6
CONTINUOUS
 10
-114.3325269731
 20
40.9023543978
 11
-114.546796341
 21
33.8918052244
  0
LINE
  5
340
100
AcDbEntity
  8
0
100
AcDbLine
 62
7
  6
CONTINUOUS
 10
-112.4693378896
 20
-41.0
 11
-112.4693378896
 21
-7.3314391493
  0
LINE
  5
341
100
AcDbEntity
  8
0
100
AcDbLine
 62
7
  6
CONTINUOUS
 10
-112.4693378896
 20
7.3314391493
 11
-112.4693378896
 21
41.0
  0
LWPOLYLINE
  5
342
100
AcDbEntity
  8
0
100
AcDbPolyline
 62
7
  6
CONTINUOUS
 90
10
 70
0
 43
0.3500000006
 10
-117.133625885
 20
50.2500014191
 10
-117.0621947021
 20
50.1071435852
 10
-117.0621947021
 20
50.0357124023
 10
-117.2050480042
 20
49.8928591003
 10
-117.276479187
 20
49.8928591003
 10
-117.3479103699
 20
49.9642857513
 10
-117.3479103699
 20
50.0357124023
 10
-117.276479187
 20
50.1785702362
 10
-117.2050480042
 20
50.2500014191
 10
-117.133625885
 20
50.2500014191
  0
LINE
  5
343
100
AcDbEntity
  8
0
100
AcDbLine
 62
250
  6
CONTINUOUS
 10
-112.4693378896
 20
33.904109589
 11
-114.546796341
 21
33.8918052244
  0
LWPOLYLINE
  5
344
100
AcDbEntity
  8
0
100
AcDbPolyline
 62
250
  6
CONTINUOUS
 90
34
 70
0
 10
-114.5467963391
 20
33.8918052203
 10
-114.796195901
 20
33.9136773019
 10
-115.0444741227
 20
33.934208161
 10
-115.2911127992
 20
33.9533549457
 10
-115.5355971473
 20
33.971077693
 10
-115.7774168805
 20
33.987339412
 10
-116.0160672738
 20
34.0021061613
 10
-116.2510502173
 20
34.0153471199
 10
-116.4818752555
 20
34.0270346513
 10
-116.7080606116
 20
34.0371443613
 10
-116.9291341926
 20
34.045655149
 10
-117.1446345748
 20
34.0525492507
 10
-117.3541119667
 20
34.057812277
 10
-117.5571291482
 20
34.0614332431
 10
-117.7532623827
 20
34.0634045912
 10
-117.942102302
 20
34.0637222067
 10
-118.1232547601
 20
34.0623854268
 10
-118.2963416566
 20
34.0593970416
 10
-118.4610017252
 20
34.0547632883
 10
-118.6168912884
 20
34.0484938386
 10
-118.763684974
 20
34.0406017779
 10
-118.9010763951
 20
34.0311035787
 10
-119.0287787889
 20
34.0200190654
 10
-119.1465256156
 20
34.0073713737
 10
-119.2540711146
 20
33.9931869016
 10
-119.3511908173
 20
33.9774952551
 10
-119.4376820161
 20
33.9603291856
 10
-119.5133641868
 20
33.941724522
 10
-119.5780793661
 20
33.9217200959
 10
-119.6316924806
 20
33.9003576605
 10
-119.6740916295
 20
33.8776818034
 10
-119.7051883173
 20
33.8537398534
 10
-119.7249176392
 20
33.8285817821
 10
-119.7332384163
 20
33.8022600994
  0
LINE
  5
345
100
AcDbEntity
  8
0
100
AcDbLine
 62
7
  6
CONTINUOUS
 10
-112.4693378896
 20
41.0
 11
-114.3325269731
 21
40.9023543978
  0
LWPOLYLINE
  5
346
100
AcDbEntity
  8
0
100
AcDbPolyline
 62
7
  6
CONTINUOUS
 90
13
 70
0
 43
0.3500000006
 10
-119.7050487671
 20
51.4642862091
 10
-119.9907644348
 20
51.678570694
 10
-119.9907644348
 20
52.3214286804
 10
-119.7050487671
 20
52.750002182
 10
-119.0621953125
 20
52.750002182
 10
-118.7764796448
 20
52.3214286804
 10
-118.7764796448
 20
51.678570694
 10
-119.0621953125
 20
51.4642862091
 10
-118.6336263428
 20
51.0357127075
 10
-118.6336263428
 20
50.1785702362
 10
-119.0621953125
 20
49.7500012665
 10
-119.7050487671
 20
49.7500012665
 10
-120.1336268005
 20
50.1785702362
  0
ARC
  5
347
100
AcDbEntity
  8
0
100
AcDbCircle
 62
7
  6
CONTINUOUS
 10
201.0
 20
0.0
 40
300.0
100
AcDbArc
 50
181.4003411461
 51
186.4890714501
  0
ARC
  5
348
100
AcDbEntity
  8
0
100
AcDbCircle
 62
7
  6
CONTINUOUS
 10
-201.0
 20
-0.0
 40
300.0
100
AcDbArc
 50
353.5109285499
 51
358.5996588539
  0
ARC
  5
349
100
AcDbEntity
  8
0
100
AcDbCircle
 62
7
  6
CONTINUOUS
 10
-201.0
 20
-0.0
 40
300.0
100
AcDbArc
 50
1.4003411461
 51
6.4890714501
  0
ARC
  5
34A
100
AcDbEntity
  8
0
100
AcDbCircle
 62
7
  6
CONTINUOUS
 10
201.0
 20
0.0
 40
300.0
100
AcDbArc
 50
173.5109285499
 51
178.5996588539
  0
ARC
  5
34B
100
AcDbEntity
  8
0
100
AcDbCircle
 62
7
  6
CONTINUOUS
 10
-89.1292815281
 20
-33.0
 40
8.0
100
AcDbArc
 50
186.4890714501
 51
270.0
  0
ARC
  5
34C
100
AcDbEntity
  8
0
100
AcDbCircle
 62
7
  6
CONTINUOUS
 10
89.1292815281
 20
-33.0
 40
8.0
100
AcDbArc
 50
270.0
 51
353.5109285499
  0
ARC
  5
34D
100
AcDbEntity
  8
0
100
AcDbCircle
 62
7
  6
CONTINUOUS
 10
89.1292815281
 20
33.0
 40
8.0
100
AcDbArc
 50
6.4890714501
 51
90.0
  0
ARC
  5
34E
100
AcDbEntity
  8
0
100
AcDbCircle
 62
7
  6
CONTINUOUS
 10
-89.1292815281
 20
33.0
 40
8.0
100
AcDbArc
 50
90.0
 51
173.5109285499
  0
ARC
  5
34F
100
AcDbEntity
  8
0
100
AcDbCircle
 62
7
  6
CONTINUOUS
 10
88.5303339301
 20
-31.558579
 40
0.8587214994
100
AcDbArc
 50
292.8428415932
 51
90.0
  0
ARC
  5
350
100
AcDbEntity
  8
0
100
AcDbCircle
 62
7
  6
CONTINUOUS
 10
88.4526039301
 20
-31.558579
 40
0.340698
100
AcDbArc
 50
270.0
 51
90.0
  0
ARC
  5
351
100
AcDbEntity
  8
0
100
AcDbCircle
 62
7
  6
CONTINUOUS
 10
228.6306621104
 20
0.0
 40
350.15
100
AcDbArc
 50
185.0299405253
 51
185.4900691439
  0
ARC
  5
352
100
AcDbEntity
  8
0
100
AcDbCircle
 62
7
  6
CONTINUOUS
 10
228.6306621104
 20
0.0
 40
350.0
100
AcDbArc
 50
174.1003573038
 51
185.8996426962
  0
ARC
  5
353
100
AcDbEntity
  8
0
100
AcDbCircle
 62
7
  6
CONTINUOUS
 10
-103.9693378896
 20
0.0
 40
11.0
100
AcDbArc
 50
142.3415379938
 51
217.6584620062
  0
ARC
  5
354
100
AcDbEntity
  8
0
100
AcDbCircle
 62
7
  6
CONTINUOUS
 10
-114.044679277
 20
-35.4098913775
 40
5.5000000001
100
AcDbArc
 50
185.8996487647
 51
267.0000009743
  0
ARC
  5
355
100
AcDbEntity
  8
0
100
AcDbCircle
 62
7
  6
CONTINUOUS
 10
-114.044679277
 20
35.4098913775
 40
5.5000000001
100
AcDbArc
 50
92.9999990257
 51
174.1003512353
  0
ARC
  5
356
100
AcDbEntity
  8
0
100
AcDbCircle
 62
7
  6
CONTINUOUS
 10
-113.4693378896
 20
7.3314391493
 40
1.0
100
AcDbArc
 50
322.3415379938
 51
360.0
  0
ARC
  5
357
100
AcDbEntity
  8
0
100
AcDbCircle
 62
7
  6
CONTINUOUS
 10
-113.4693378896
 20
-7.3314391493
 40
1.0
100
AcDbArc
 50
0.0
 51
37.6584620062
  0
ELLIPSE
  5
358
100
AcDbEntity
  8
0
100
AcDbEllipse
 62
7
  6
CONTINUOUS
 10
-74.8
 20
-22.3156790928
 30
0.0
 11
0.0
 21
-0.2000304656
 31
0.0
 40
0.9998476952
 41
4.7123889804
 42
6.2831853072
  0
ELLIPSE
  5
359
100
AcDbEntity
  8
0
100
AcDbEllipse
 62
7
  6
CONTINUOUS
 10
74.8
 20
-22.3156790928
 30
0.0
 11
-0.0
 21
0.2000304656
 31
0.0
 40
0.9998476952
 41
9.4247779608
 42
10.8897143853
  0
ELLIPSE
  5
35A
100
AcDbEntity
  8
0
100
AcDbEllipse
 62
7
  6
CONTINUOUS
 10
-74.8
 20
22.3156790928
 30
0.0
 11
0.0
 21
-0.2000304656
 31
0.0
 40
0.9998476952
 41
9.4247779608
 42
10.8897143853
  0
ELLIPSE
  5
35B
100
AcDbEntity
  8
0
100
AcDbEllipse
 62
7
  6
CONTINUOUS
 10
74.8
 20
22.3156790928
 30
0.0
 11
-0.0
 21
0.2000304656
 31
0.0
 40
0.9998476952
 41
4.7123889804
 42
6.2831853072
  0
ENDSEC
  0
SECTION
  2
OBJECTS
  0
DICTIONARY
  5
C
100
AcDbDictionary
280
0
281
1
  3
ACAD_GROUP
350
D
  3
ACAD_MLINESTYLE
350
17
  3
ACAD_LAYOUT
350
1A
  3
ACAD_PLOTSETTINGS
350
19
  3
ACAD_PLOTSTYLENAME
350
E
  0
DICTIONARY
  5
D
102
{ACAD_REACTORS
330
C
102
}
100
AcDbDictionary
280
0
281
1
  0
ACDBDICTIONARYWDFLT
  5
E
102
{ACAD_REACTORS
330
C
102
}
100
AcDbDictionary
281
1
  3
Normal
350
F
100
AcDbDictionaryWithDefault
340
F
  0
DICTIONARY
  5
17
102
{ACAD_REACTORS
330
C
102
}
100
AcDbDictionary
280
0
281
1
  3
Standard
350
18
  0
DICTIONARY
  5
19
102
{ACAD_REACTORS
330
C
102
}
100
AcDbDictionary
281
1
  0
DICTIONARY
  5
1A
102
{ACAD_REACTORS
330
C
102
}
100
AcDbDictionary
281
1
  3
Model
350
35C
  3
Layout1
350
35D
  0
ACDBPLACEHOLDER
  5
F
102
{ACAD_REACTORS
330
E
102
}
  0
MLINESTYLE
  5
18
102
{ACAD_REACTORS
330
17
102
}
100
AcDbMlineStyle
  2
STANDARD
 70
0
  3

 62
256
 51
90.0
 52
90.0
 71
2
 49
0.5
 62
256
  6
BYLAYER
 49
-0.5
 62
256
  6
BYLAYER
  0
LAYOUT
  5
35C
102
{ACAD_REACTORS
330
1A
102
}
100
AcDbPlotSettings
  1

  2
none_device
  4
ISO_A4_(297.00_x_210.00_MM)
  6

 40
0.0
 41
0.0
 42
0.0
 43
0.0
 44
297.0
 45
210.0
 46
0.0
 47
0.0
 48
0.0
 49
0.0
140
0.0
141
0.0
142
1.0
143
1.0
 70
1024
 72
1
 73
0
 74
0
  7

 75
0
147
1.0
148
0.0
149
0.0
100
AcDbLayout
  1
Model
 70
0
 71
0
 10
0.0
 20
0.0
 11
297.0
 21
210.0
 12
0.0
 22
0.0
 32
0.0
 14
0.0
 24
0.0
 34
0.0
 15
0.0
 25
0.0
 35
0.0
146
0.0
 13
0.0
 23
0.0
 33
0.0
 16
1.0
 26
0.0
 36
0.0
 17
0.0
 27
1.0
 37
0.0
 76
0
330
214
345
0
346
0
  0
LAYOUT
  5
35D
102
{ACAD_REACTORS
330
1A
102
}
100
AcDbPlotSettings
  1

  2
none_device
  4
ISO_A4_(297.00_x_210.00_MM)
  6

 40
0.0
 41
0.0
 42
0.0
 43
0.0
 44
297.0
 45
210.0
 46
0.0
 47
0.0
 48
0.0
 49
0.0
140
0.0
141
0.0
142
1.0
143
1.0
 70
0
 72
1
 73
0
 74
0
  7

 75
0
147
1.0
148
0.0
149
0.0
100
AcDbLayout
  1
Layout1
 70
0
 71
1
 10
0.0
 20
0.0
 11
297.0
 21
210.0
 12
0.0
 22
0.0
 32
0.0
 14
0.0
 24
0.0
 34
0.0
 15
0.0
 25
0.0
 35
0.0
146
0.0
 13
0.0
 23
0.0
 33
0.0
 16
1.0
 26
0.0
 36
0.0
 17
0.0
 27
1.0
 37
0.0
 76
0
330
215
345
0
346
0
  0
ENDSEC
  0
EOF
